  0
SECTION
  2
HEADER
  9
$ACADVER
  1
AC1015
  9
$ACADMAINTVER
 70
     6
  9
$DWGCODEPAGE
  3
ANSI_1252
  9
$INSBASE
 10
0.0
 20
0.0
 30
0.0
  9
$EXTMIN
 10
0.0
 20
0.0
 30
0.0
  9
$EXTMAX
 10
297.0
 20
210.0
 30
0.0
  9
$LIMMIN
 10
0.0
 20
0.0
  9
$LIMMAX
 10
297.0
 20
210.0
  9
$ORTHOMODE
 70
     0
  9
$REGENMODE
 70
     1
  9
$FILLMODE
 70
     1
  9
$QTEXTMODE
 70
     0
  9
$MIRRTEXT
 70
     1
  9
$LTSCALE
 40
1.0
  9
$ATTMODE
 70
     1
  9
$TEXTSIZE
 40
2.0
  9
$TRACEWID
 40
1.0
  9
$TEXTSTYLE
  7
Standard
  9
$CLAYER
  8
0
  9
$CELTYPE
  6
ByLayer
  9
$CECOLOR
 62
   256
  9
$CELTSCALE
 40
1.0
  9
$DISPSILH
 70
     0
  9
$DIMSCALE
 40
1.0
  9
$DIMASZ
 40
3.0
  9
$DIMEXO
 40
0.0
  9
$DIMDLI
 40
3.75
  9
$DIMRND
 40
0.0
  9
$DIMDLE
 40
0.0
  9
$DIMEXE
 40
1.0
  9
$DIMTP
 40
0.0
  9
$DIMTM
 40
0.0
  9
$DIMTXT
 40
2.0
  9
$DIMCEN
 40
2.5
  9
$DIMTSZ
 40
0.0
  9
$DIMTOL
 70
     0
  9
$DIMLIM
 70
     0
  9
$DIMTIH
 70
     1
  9
$DIMTOH
 70
     1
  9
$DIMSE1
 70
     0
  9
$DIMSE2
 70
     0
  9
$DIMTAD
 70
     1
  9
$DIMZIN
 70
     0
  9
$DIMBLK
  1

  9
$DIMASO
 70
     1
  9
$DIMSHO
 70
     1
  9
$DIMPOST
  1

  9
$DIMAPOST
  1

  9
$DIMALT
 70
     0
  9
$DIMALTD
 70
     3
  9
$DIMALTF
 40
0.0393700787
  9
$DIMLFAC
 40
1.0
  9
$DIMTOFL
 70
     1
  9
$DIMTVP
 40
0.0
  9
$DIMTIX
 70
     0
  9
$DIMSOXD
 70
     0
  9
$DIMSAH
 70
     0
  9
$DIMBLK1
  1

  9
$DIMBLK2
  1

  9
$DIMSTYLE
  2
ISO-25
  9
$DIMCLRD
 70
     0
  9
$DIMCLRE
 70
     0
  9
$DIMCLRT
 70
     0
  9
$DIMTFAC
 40
1.0
  9
$DIMGAP
 40
1.524
  9
$DIMJUST
 70
     0
  9
$DIMSD1
 70
     0
  9
$DIMSD2
 70
     0
  9
$DIMTOLJ
 70
     0
  9
$DIMTZIN
 70
     0
  9
$DIMALTZ
 70
     0
  9
$DIMALTTZ
 70
     0
  9
$DIMUPT
 70
     0
  9
$DIMDEC
 70
     2
  9
$DIMTDEC
 70
     3
  9
$DIMALTU
 70
     2
  9
$DIMALTTD
 70
     3
  9
$DIMTXSTY
  7
Standard
  9
$DIMAUNIT
 70
     0
  9
$DIMADEC
 70
     2
  9
$DIMALTRND
 40
0.0
  9
$DIMAZIN
 70
     0
  9
$DIMDSEP
 70
    44
  9
$DIMATFIT
 70
     3
  9
$DIMFRAC
 70
     0
  9
$DIMLDRBLK
  1

  9
$DIMLUNIT
 70
     2
  9
$DIMLWD
 70
    -2
  9
$DIMLWE
 70
    -2
  9
$DIMTMOVE
 70
     0
  9
$LUNITS
 70
     2
  9
$LUPREC
 70
     2
  9
$SKETCHINC
 40
1.0
  9
$FILLETRAD
 40
10.0
  9
$AUNITS
 70
     0
  9
$AUPREC
 70
     2
  9
$MENU
  1
.
  9
$ELEVATION
 40
0.0
  9
$PELEVATION
 40
0.0
  9
$THICKNESS
 40
0.0
  9
$LIMCHECK
 70
     0
  9
$CHAMFERA
 40
10.0
  9
$CHAMFERB
 40
10.0
  9
$CHAMFERC
 40
20.0
  9
$CHAMFERD
 40
0.0
  9
$SKPOLY
 70
     0
  9
$TDCREATE
 40
2456056.460387338
  9
$TDUCREATE
 40
2456056.377054004
  9
$TDUPDATE
 40
2456056.46038897
  9
$TDUUPDATE
 40
2456056.377055637
  9
$TDINDWG
 40
0.0000000116
  9
$TDUSRTIMER
 40
0.0000000116
  9
$USRTIMER
 70
     1
  9
$ANGBASE
 50
0.0
  9
$ANGDIR
 70
     0
  9
$PDMODE
 70
     0
  9
$PDSIZE
 40
-1.0
  9
$PLINEWID
 40
0.0
  9
$SPLFRAME
 70
     0
  9
$SPLINETYPE
 70
     6
  9
$SPLINESEGS
 70
     8
  9
$HANDSEED
  5
2B9
  9
$SURFTAB1
 70
     6
  9
$SURFTAB2
 70
     6
  9
$SURFTYPE
 70
     6
  9
$SURFU
 70
     6
  9
$SURFV
 70
     6
  9
$UCSBASE
  2

  9
$UCSNAME
  2

  9
$UCSORG
 10
0.0
 20
0.0
 30
0.0
  9
$UCSXDIR
 10
1.0
 20
0.0
 30
0.0
  9
$UCSYDIR
 10
0.0
 20
1.0
 30
0.0
  9
$UCSORTHOREF
  2

  9
$UCSORTHOVIEW
 70
     0
  9
$UCSORGTOP
 10
0.0
 20
0.0
 30
0.0
  9
$UCSORGBOTTOM
 10
0.0
 20
0.0
 30
0.0
  9
$UCSORGLEFT
 10
0.0
 20
0.0
 30
0.0
  9
$UCSORGRIGHT
 10
0.0
 20
0.0
 30
0.0
  9
$UCSORGFRONT
 10
0.0
 20
0.0
 30
0.0
  9
$UCSORGBACK
 10
0.0
 20
0.0
 30
0.0
  9
$PUCSBASE
  2

  9
$PUCSNAME
  2

  9
$PUCSORG
 10
0.0
 20
0.0
 30
0.0
  9
$PUCSXDIR
 10
1.0
 20
0.0
 30
0.0
  9
$PUCSYDIR
 10
0.0
 20
1.0
 30
0.0
  9
$PUCSORTHOREF
  2

  9
$PUCSORTHOVIEW
 70
     0
  9
$PUCSORGTOP
 10
0.0
 20
0.0
 30
0.0
  9
$PUCSORGBOTTOM
 10
0.0
 20
0.0
 30
0.0
  9
$PUCSORGLEFT
 10
0.0
 20
0.0
 30
0.0
  9
$PUCSORGRIGHT
 10
0.0
 20
0.0
 30
0.0
  9
$PUCSORGFRONT
 10
0.0
 20
0.0
 30
0.0
  9
$PUCSORGBACK
 10
0.0
 20
0.0
 30
0.0
  9
$USERI1
 70
     0
  9
$USERI2
 70
     0
  9
$USERI3
 70
     0
  9
$USERI4
 70
     0
  9
$USERI5
 70
     0
  9
$USERR1
 40
0.0
  9
$USERR2
 40
0.0
  9
$USERR3
 40
0.0
  9
$USERR4
 40
0.0
  9
$USERR5
 40
0.0
  9
$WORLDVIEW
 70
     1
  9
$SHADEDGE
 70
     3
  9
$SHADEDIF
 70
    70
  9
$TILEMODE
 70
     1
  9
$MAXACTVP
 70
    64
  9
$PINSBASE
 10
0.0
 20
0.0
 30
0.0
  9
$PLIMCHECK
 70
     0
  9
$PEXTMIN
 10
1.0000000000E+20
 20
1.0000000000E+20
 30
1.0000000000E+20
  9
$PEXTMAX
 10
-1.0000000000E+20
 20
-1.0000000000E+20
 30
-1.0000000000E+20
  9
$PLIMMIN
 10
0.0
 20
0.0
  9
$PLIMMAX
 10
420.0
 20
297.0
  9
$UNITMODE
 70
     0
  9
$VISRETAIN
 70
     1
  9
$PLINEGEN
 70
     0
  9
$PSLTSCALE
 70
     1
  9
$TREEDEPTH
 70
  3020
  9
$CMLSTYLE
  2
Standard
  9
$CMLJUST
 70
     0
  9
$CMLSCALE
 40
20.0
  9
$PROXYGRAPHICS
 70
     1
  9
$MEASUREMENT
 70
     1
  9
$CELWEIGHT
370
    -1
  9
$ENDCAPS
280
     0
  9
$JOINSTYLE
280
     0
  9
$LWDISPLAY
290
     1
  9
$INSUNITS
 70
     4
  9
$HYPERLINKBASE
  1

  9
$STYLESHEET
  1

  9
$XEDIT
290
     1
  9
$CEPSNTYPE
380
     0
  9
$PSTYLEMODE
290
     1
  9
$FINGERPRINTGUID
  2
{516C1031-E5FB-48AF-870A-A4F3F8F9B6C5}
  9
$VERSIONGUID
  2
{FAEB1C32-E019-11D5-929B-00C0DF256EC4}
  9
$EXTNAMES
290
     1
  9
$PSVPSCALE
 40
0.0
  9
$OLESTARTUP
290
     0
  0
ENDSEC
  0
SECTION
  2
CLASSES
  0
CLASS
  1
ACDBDICTIONARYWDFLT
  2
AcDbDictionaryWithDefault
  3
ObjectDBX Classes
 90
        0
280
     0
281
     0
  0
CLASS
  1
VISUALSTYLE
  2
AcDbVisualStyle
  3
ObjectDBX Classes
 90
     4095
280
     0
281
     0
  0
CLASS
  1
MATERIAL
  2
AcDbMaterial
  3
ObjectDBX Classes
 90
     1153
280
     0
281
     0
  0
CLASS
  1
ACDBPLACEHOLDER
  2
AcDbPlaceHolder
  3
ObjectDBX Classes
 90
        0
280
     0
281
     0
  0
CLASS
  1
LAYOUT
  2
AcDbLayout
  3
ObjectDBX Classes
 90
        0
280
     0
281
     0
  0
ENDSEC
  0
SECTION
  2
TABLES
  0
TABLE
  2
VPORT
  5
8
330
0
100
AcDbSymbolTable
 70
     1
  0
VPORT
  5
29
330
8
100
AcDbSymbolTableRecord
100
AcDbViewportTableRecord
  2
*Active
 70
     0
 10
0.0
 20
0.0
 11
1.0
 21
1.0
 12
148.5
 22
105.0
 13
0.0
 23
0.0
 14
10.0
 24
10.0
 15
10.0
 25
10.0
 16
0.0
 26
0.0
 36
1.0
 17
0.0
 27
0.0
 37
0.0
 40
210.0
 41
1.4142857143
 42
50.0
 43
0.0
 44
0.0
 50
0.0
 51
0.0
 71
     0
 72
  2000
 73
     1
 74
     3
 75
     0
 76
     0
 77
     0
 78
     0
281
     0
 65
     1
110
0.0
120
0.0
130
0.0
111
1.0
121
0.0
131
0.0
112
0.0
122
1.0
132
0.0
 79
     0
146
0.0
  0
ENDTAB
  0
TABLE
  2
LTYPE
  5
5
330
0
100
AcDbSymbolTable
 70
     6
  0
LTYPE
  5
14
330
5
100
AcDbSymbolTableRecord
100
AcDbLinetypeTableRecord
  2
ByBlock
 70
     0
  3

 72
    65
 73
     0
 40
0.0
  0
LTYPE
  5
15
330
5
100
AcDbSymbolTableRecord
100
AcDbLinetypeTableRecord
  2
ByLayer
 70
     0
  3

 72
    65
 73
     0
 40
0.0
  0
LTYPE
  5
16
330
5
100
AcDbSymbolTableRecord
100
AcDbLinetypeTableRecord
  2
Continuous
 70
     0
  3
Solid line
 72
    65
 73
     0
 40
0.0
  0
LTYPE
  5
3F
330
5
100
AcDbSymbolTableRecord
100
AcDbLinetypeTableRecord
  2
HIDDEN
 70
     0
  3
Hidden __ __ __ __ __ __ __ __ __ __ __ __ __ __
 72
    65
 73
     2
 40
1.905
 49
1.27
 74
     0
 49
-0.635
 74
     0
  0
LTYPE
  5
40
330
5
100
AcDbSymbolTableRecord
100
AcDbLinetypeTableRecord
  2
PHANTOM
 70
     0
  3
Phantom ______  __  __  ______  __  __  ______
 72
    65
 73
     6
 40
12.7
 49
6.35
 74
     0
 49
-1.27
 74
     0
 49
1.27
 74
     0
 49
-1.27
 74
     0
 49
1.27
 74
     0
 49
-1.27
 74
     0
  0
LTYPE
  5
41
330
5
100
AcDbSymbolTableRecord
100
AcDbLinetypeTableRecord
  2
CENTER
 70
     0
  3
Center ____ _ ____ _ ____ _ ____ _ ____ _ ____
 72
    65
 73
     4
 40
10.16
 49
6.35
 74
     0
 49
-1.27
 74
     0
 49
1.27
 74
     0
 49
-1.27
 74
     0
  0
LTYPE
  5
42
330
5
100
AcDbSymbolTableRecord
100
AcDbLinetypeTableRecord
  2
CENTERX2
 70
     0
  3
Center (2x) ________  __  ________  __  _____
 72
    65
 73
     4
 40
20.32
 49
12.7
 74
     0
 49
-2.54
 74
     0
 49
2.54
 74
     0
 49
-2.54
 74
     0
  0
LTYPE
  5
43
330
5
100
AcDbSymbolTableRecord
100
AcDbLinetypeTableRecord
  2
DOT2
 70
     0
  3
Dot (.5x) ........................................
 72
    65
 73
     2
 40
0.635
 49
0.0
 74
     0
 49
-0.635
 74
     0
  0
ENDTAB
  0
TABLE
  2
LAYER
  5
2
330
0
100
AcDbSymbolTable
 70
     5
  0
LAYER
  5
10
330
2
100
AcDbSymbolTableRecord
100
AcDbLayerTableRecord
  2
0
 70
     0
 62
     7
  6
Continuous
370
    -3
390
F
  0
LAYER
  5
44
330
2
100
AcDbSymbolTableRecord
100
AcDbLayerTableRecord
  2
FORMAT
 70
     0
 62
     7
  6
Continuous
370
    -3
390
F
  0
LAYER
  5
45
330
2
100
AcDbSymbolTableRecord
100
AcDbLayerTableRecord
  2
VERMASSUNG
 70
     0
 62
     7
  6
Continuous
370
    -3
390
F
  0
LAYER
  5
46
330
2
100
AcDbSymbolTableRecord
100
AcDbLayerTableRecord
  2
KOPF_DÜNN
 70
     0
 62
     7
  6
Continuous
370
    -3
390
F
  0
LAYER
  5
47
330
2
100
AcDbSymbolTableRecord
100
AcDbLayerTableRecord
  2
KOPF_DICK
 70
     0
 62
     7
  6
Continuous
370
    15
390
F
  0
ENDTAB
  0
TABLE
  2
STYLE
  5
3
330
0
100
AcDbSymbolTable
 70
     2
  0
STYLE
  5
11
330
3
100
AcDbSymbolTableRecord
100
AcDbTextStyleTableRecord
  2
Standard
 70
     0
 40
0.0
 41
1.0
 50
0.0
 71
     0
 42
2.0
  3
txt
  4

  0
STYLE
  5
48
330
3
100
AcDbSymbolTableRecord
100
AcDbTextStyleTableRecord
  2
SLDTEXTSTYLE0
 70
     0
 40
0.0
 41
0.7
 50
0.0
 71
     0
 42
0.2
  3
TXT
  4

  0
ENDTAB
  0
TABLE
  2
VIEW
  5
6
330
0
100
AcDbSymbolTable
 70
     0
  0
ENDTAB
  0
TABLE
  2
UCS
  5
7
330
0
100
AcDbSymbolTable
 70
     0
  0
ENDTAB
  0
TABLE
  2
APPID
  5
9
330
0
100
AcDbSymbolTable
 70
     1
  0
APPID
  5
12
330
9
100
AcDbSymbolTableRecord
100
AcDbRegAppTableRecord
  2
ACAD
 70
     0
  0
ENDTAB
  0
TABLE
  2
DIMSTYLE
  5
A
330
0
100
AcDbSymbolTable
 70
     5
100
AcDbDimStyleTable
  0
DIMSTYLE
105
27
330
A
100
AcDbSymbolTableRecord
100
AcDbDimStyleTableRecord
  2
ISO-25
 70
     0
 41
2.5
 42
0.625
 43
3.75
 44
1.25
 73
     0
 74
     0
 77
     1
 78
     8
140
2.5
141
2.5
143
0.0393700787
147
0.625
171
     3
172
     1
178
     0
271
     2
272
     2
274
     3
278
    44
283
     0
284
     8
340
11
  0
DIMSTYLE
105
16B
102
{ACAD_REACTORS
330
16A
102
}
330
A
100
AcDbSymbolTableRecord
100
AcDbDimStyleTableRecord
  2
SLDDIMSTYLE0
 70
     0
 41
3.0
 44
0.0
 73
     0
 74
     0
 77
     1
 78
    12
 79
     3
140
2.0
147
0.5
173
     1
178
     0
179
     2
272
     3
276
     2
284
    12
340
48
  0
DIMSTYLE
105
175
102
{ACAD_REACTORS
330
174
330
17F
330
189
330
1D0
330
1DA
330
1E4
330
1EE
330
1F7
330
201
330
2AE
102
}
330
A
100
AcDbSymbolTableRecord
100
AcDbDimStyleTableRecord
  2
SLDDIMSTYLE1
 70
     0
 41
3.0
 44
0.0
 45
0.000000001
 73
     0
 74
     0
 77
     1
 78
    12
 79
     3
140
2.0
147
0.5
173
     1
178
     0
271
     2
272
     3
276
     2
284
    12
340
48
  0
DIMSTYLE
105
20C
102
{ACAD_REACTORS
330
20B
102
}
330
A
100
AcDbSymbolTableRecord
100
AcDbDimStyleTableRecord
  2
SLDDIMSTYLE2
 70
     0
 41
3.0
 44
0.0
 45
0.000000001
 73
     0
 74
     0
 77
     1
 78
    12
 79
     3
140
2.0
147
0.5
172
     1
173
     1
178
     0
271
     2
272
     3
276
     2
284
    12
289
     0
340
48
  0
DIMSTYLE
105
218
102
{ACAD_REACTORS
330
217
102
}
330
A
100
AcDbSymbolTableRecord
100
AcDbDimStyleTableRecord
  2
SLDDIMSTYLE3
 70
     0
 41
3.0
 44
0.0
 45
0.000000001
 73
     0
 74
     0
 77
     1
 78
    12
 79
     3
140
2.0
141
0.0
147
0.5
173
     1
178
     0
271
     2
272
     3
276
     2
284
    12
340
48
  0
ENDTAB
  0
TABLE
  2
BLOCK_RECORD
  5
1
330
0
100
AcDbSymbolTable
 70
    15
  0
BLOCK_RECORD
  5
1F
330
1
100
AcDbSymbolTableRecord
100
AcDbBlockTableRecord
  2
*Model_Space
340
22
  0
BLOCK_RECORD
  5
1B
330
1
100
AcDbSymbolTableRecord
100
AcDbBlockTableRecord
  2
*Paper_Space
340
1E
  0
BLOCK_RECORD
  5
23
330
1
100
AcDbSymbolTableRecord
100
AcDbBlockTableRecord
  2
*Paper_Space0
340
26
  0
BLOCK_RECORD
  5
16C
330
1
100
AcDbSymbolTableRecord
100
AcDbBlockTableRecord
  2
_D
340
0
  0
BLOCK_RECORD
  5
176
330
1
100
AcDbSymbolTableRecord
100
AcDbBlockTableRecord
  2
_D_1
340
0
  0
BLOCK_RECORD
  5
180
330
1
100
AcDbSymbolTableRecord
100
AcDbBlockTableRecord
  2
_D_2
340
0
  0
BLOCK_RECORD
  5
18A
330
1
100
AcDbSymbolTableRecord
100
AcDbBlockTableRecord
  2
_D_3
340
0
  0
BLOCK_RECORD
  5
1D1
330
1
100
AcDbSymbolTableRecord
100
AcDbBlockTableRecord
  2
_D_4
340
0
  0
BLOCK_RECORD
  5
1DB
330
1
100
AcDbSymbolTableRecord
100
AcDbBlockTableRecord
  2
_D_5
340
0
  0
BLOCK_RECORD
  5
1E5
330
1
100
AcDbSymbolTableRecord
100
AcDbBlockTableRecord
  2
_D_6
340
0
  0
BLOCK_RECORD
  5
1EF
330
1
100
AcDbSymbolTableRecord
100
AcDbBlockTableRecord
  2
_D_7
340
0
  0
BLOCK_RECORD
  5
1F8
330
1
100
AcDbSymbolTableRecord
100
AcDbBlockTableRecord
  2
_D_8
340
0
  0
BLOCK_RECORD
  5
202
330
1
100
AcDbSymbolTableRecord
100
AcDbBlockTableRecord
  2
_D_9
340
0
  0
BLOCK_RECORD
  5
20D
330
1
100
AcDbSymbolTableRecord
100
AcDbBlockTableRecord
  2
_D_10
340
0
  0
BLOCK_RECORD
  5
219
330
1
100
AcDbSymbolTableRecord
100
AcDbBlockTableRecord
  2
_D_11
340
0
  0
BLOCK_RECORD
  5
220
330
1
100
AcDbSymbolTableRecord
100
AcDbBlockTableRecord
  2
SW_CENTERMARKSYMBOL_0
340
0
102
{BLKREFS
331
22B
102
}
  0
BLOCK_RECORD
  5
2AF
330
1
100
AcDbSymbolTableRecord
100
AcDbBlockTableRecord
  2
_D_12
340
0
  0
ENDTAB
  0
ENDSEC
  0
SECTION
  2
BLOCKS
  0
BLOCK
  5
20
330
1F
100
AcDbEntity
  8
0
100
AcDbBlockBegin
  2
*Model_Space
 70
     0
 10
0.0
 20
0.0
 30
0.0
  3
*Model_Space
  1

  0
ENDBLK
  5
21
330
1F
100
AcDbEntity
  8
0
100
AcDbBlockEnd
  0
BLOCK
  5
1C
330
1B
100
AcDbEntity
 67
     1
  8
0
100
AcDbBlockBegin
  2
*Paper_Space
 70
     0
 10
0.0
 20
0.0
 30
0.0
  3
*Paper_Space
  1

  0
ENDBLK
  5
1D
330
1B
100
AcDbEntity
 67
     1
  8
0
100
AcDbBlockEnd
  0
BLOCK
  5
24
330
23
100
AcDbEntity
  8
0
100
AcDbBlockBegin
  2
*Paper_Space0
 70
     0
 10
0.0
 20
0.0
 30
0.0
  3
*Paper_Space0
  1

  0
ENDBLK
  5
25
330
23
100
AcDbEntity
  8
0
100
AcDbBlockEnd
  0
BLOCK
  5
16D
330
16C
100
AcDbEntity
  8
0
100
AcDbBlockBegin
  2
_D
 70
     0
 10
0.0
 20
0.0
 30
0.0
  3
_D
  1

  0
ARC
  5
16F
330
16C
100
AcDbEntity
  8
VERMASSUNG
100
AcDbCircle
 10
272.0197119776
 20
96.2781670526
 30
0.0
 40
36.00168944322841
100
AcDbArc
 50
150.0
 51
180.0
  0
ARC
  5
170
330
16C
100
AcDbEntity
  8
VERMASSUNG
100
AcDbCircle
 10
272.0197119776
 20
96.2781670526
 30
0.0
 40
36.00168944322841
100
AcDbArc
 50
135.2324641401
 51
150.0
  0
SOLID
  5
171
330
16C
100
AcDbEntity
  8
VERMASSUNG
100
AcDbTrace
 10
240.8413343406
 20
114.2790117743
 30
0.0
 11
239.0518725667
 21
111.8294553737
 31
0.0
 12
239.84932264
 22
111.4122343525
 32
0.0
 13
239.84932264
 23
111.4122343525
 33
0.0
  0
SOLID
  5
172
330
16C
100
AcDbEntity
  8
VERMASSUNG
100
AcDbTrace
 10
236.0180225343
 20
96.2781670526
 30
0.0
 11
236.5923039117
 21
99.2568749772
 31
0.0
 12
235.6930813793
 22
99.2942760105
 32
0.0
 13
235.6930813793
 23
99.2942760105
 33
0.0
  0
MTEXT
  5
173
330
16C
100
AcDbEntity
  8
VERMASSUNG
100
AcDbMText
 10
240.6658081671
 20
118.9441238837
 30
0.1
 40
2.0
 41
0.0
 71
     1
 72
     1
  1
30°
  7
SLDTEXTSTYLE0
 11
0.6449536756547961
 21
0.7642216669653956
 31
0.0
 73
     1
 44
1.0
  0
ENDBLK
  5
16E
330
16C
100
AcDbEntity
  8
0
100
AcDbBlockEnd
  0
BLOCK
  5
177
330
176
100
AcDbEntity
  8
0
100
AcDbBlockBegin
  2
_D_1
 70
     0
 10
0.0
 20
0.0
 30
0.0
  3
_D_1
  1

  0
SOLID
  5
179
330
176
100
AcDbEntity
  8
VERMASSUNG
100
AcDbTrace
 10
174.0197119776
 20
56.2781670526
 30
0.0
 11
177.0197119776
 21
55.8281670526
 31
0.0
 12
177.0197119776
 22
56.7281670526
 32
0.0
 13
177.0197119776
 23
56.7281670526
 33
0.0
  0
SOLID
  5
17A
330
176
100
AcDbEntity
  8
VERMASSUNG
100
AcDbTrace
 10
272.0197119776
 20
56.2781670526
 30
0.0
 11
269.0197119776
 21
56.7281670526
 31
0.0
 12
269.0197119776
 22
55.8281670526
 32
0.0
 13
269.0197119776
 23
55.8281670526
 33
0.0
  0
LINE
  5
17B
330
176
100
AcDbEntity
  8
VERMASSUNG
100
AcDbLine
 10
174.0197119776
 20
71.5781670526
 30
0.0
 11
174.0197119776
 21
55.2781670526
 31
0.0
  0
LINE
  5
17C
330
176
100
AcDbEntity
  8
VERMASSUNG
100
AcDbLine
 10
272.0197119776
 20
67.2781670526
 30
0.0
 11
272.0197119776
 21
55.2781670526
 31
0.0
  0
LINE
  5
17D
330
176
100
AcDbEntity
  8
VERMASSUNG
100
AcDbLine
 10
174.0197119776
 20
56.2781670526
 30
0.0
 11
272.0197119776
 21
56.2781670526
 31
0.0
  0
MTEXT
  5
17E
330
176
100
AcDbEntity
  8
VERMASSUNG
100
AcDbMText
 10
220.7197119265
 20
58.8563024158
 30
4.6
 40
2.0
 41
0.0
 71
     1
 72
     1
  1
98
  7
SLDTEXTSTYLE0
 73
     1
 44
1.0
  0
ENDBLK
  5
178
330
176
100
AcDbEntity
  8
0
100
AcDbBlockEnd
  0
BLOCK
  5
181
330
180
100
AcDbEntity
  8
0
100
AcDbBlockBegin
  2
_D_2
 70
     0
 10
0.0
 20
0.0
 30
0.0
  3
_D_2
  1

  0
SOLID
  5
183
330
180
100
AcDbEntity
  8
VERMASSUNG
100
AcDbTrace
 10
144.0197119776
 20
50.2781670526
 30
0.0
 11
147.0197119776
 21
49.8281670526
 31
0.0
 12
147.0197119776
 22
50.7281670526
 32
0.0
 13
147.0197119776
 23
50.7281670526
 33
0.0
  0
SOLID
  5
184
330
180
100
AcDbEntity
  8
VERMASSUNG
100
AcDbTrace
 10
272.0197119776
 20
50.2781670526
 30
0.0
 11
269.0197119776
 21
50.7281670526
 31
0.0
 12
269.0197119776
 22
49.8281670526
 32
0.0
 13
269.0197119776
 23
49.8281670526
 33
0.0
  0
LINE
  5
185
330
180
100
AcDbEntity
  8
VERMASSUNG
100
AcDbLine
 10
144.0197119776
 20
80.2848412145
 30
0.0
 11
144.0197119776
 21
49.2781670526
 31
0.0
  0
LINE
  5
186
330
180
100
AcDbEntity
  8
VERMASSUNG
100
AcDbLine
 10
272.0197119776
 20
67.2781670526
 30
0.0
 11
272.0197119776
 21
49.2781670526
 31
0.0
  0
LINE
  5
187
330
180
100
AcDbEntity
  8
VERMASSUNG
100
AcDbLine
 10
144.0197119776
 20
50.2781670526
 30
0.0
 11
272.0197119776
 21
50.2781670526
 31
0.0
  0
MTEXT
  5
188
330
180
100
AcDbEntity
  8
VERMASSUNG
100
AcDbMText
 10
205.2197118446
 20
52.8563024158
 30
4.6
 40
2.0
 41
0.0
 71
     1
 72
     1
  1
128
  7
SLDTEXTSTYLE0
 73
     1
 44
1.0
  0
ENDBLK
  5
182
330
180
100
AcDbEntity
  8
0
100
AcDbBlockEnd
  0
BLOCK
  5
18B
330
18A
100
AcDbEntity
  8
0
100
AcDbBlockBegin
  2
_D_3
 70
     0
 10
0.0
 20
0.0
 30
0.0
  3
_D_3
  1

  0
SOLID
  5
18D
330
18A
100
AcDbEntity
  8
VERMASSUNG
100
AcDbTrace
 10
137.4444828988
 20
121.2781670526
 30
0.0
 11
136.9944828988
 21
118.2781670526
 31
0.0
 12
137.8944828988
 22
118.2781670526
 32
0.0
 13
137.8944828988
 23
118.2781670526
 33
0.0
  0
SOLID
  5
18E
330
18A
100
AcDbEntity
  8
VERMASSUNG
100
AcDbTrace
 10
137.4444828988
 20
71.2781670526
 30
0.0
 11
137.8944828988
 21
74.2781670526
 31
0.0
 12
136.9944828988
 22
74.2781670526
 32
0.0
 13
136.9944828988
 23
74.2781670526
 33
0.0
  0
LINE
  5
18F
330
18A
100
AcDbEntity
  8
VERMASSUNG
100
AcDbLine
 10
174.3197119776
 20
121.2781670526
 30
0.0
 11
136.4444828988
 21
121.2781670526
 31
0.0
  0
LINE
  5
190
330
18A
100
AcDbEntity
  8
VERMASSUNG
100
AcDbLine
 10
174.3197119776
 20
71.2781670526
 30
0.0
 11
136.4444828988
 21
71.2781670526
 31
0.0
  0
LINE
  5
191
330
18A
100
AcDbEntity
  8
VERMASSUNG
100
AcDbLine
 10
137.4444828988
 20
121.2781670526
 30
0.0
 11
137.4444828988
 21
71.2781670526
 31
0.0
  0
MTEXT
  5
192
330
18A
100
AcDbEntity
  8
VERMASSUNG
100
AcDbMText
 10
134.6663474098
 20
89.8731669434
 30
4.6
 40
2.0
 41
0.0
 71
     1
 72
     1
  1
PSC
  7
SLDTEXTSTYLE0
 11
-7.044195017643634E-15
 21
1.0
 31
0.0
 73
     1
 44
1.0
  0
MTEXT
  5
193
330
18A
100
AcDbEntity
  8
VERMASSUNG
100
AcDbMText
 10
134.8663474193
 20
94.4731670455
 30
4.6
 40
2.0
 41
0.0
 71
     1
 72
     1
  1
%%c
  7
SLDTEXTSTYLE0
 11
-7.044195017643634E-15
 21
1.0
 31
0.0
 73
     1
 44
1.0
  0
MTEXT
  5
194
330
18A
100
AcDbEntity
  8
VERMASSUNG
100
AcDbMText
 10
134.6663474098
 20
98.0831675255
 30
4.6
 40
2.0
 41
0.0
 71
     1
 72
     1
  1
50
  7
SLDTEXTSTYLE0
 11
-7.044195017643634E-15
 21
1.0
 31
0.0
 73
     1
 44
1.0
  0
ENDBLK
  5
18C
330
18A
100
AcDbEntity
  8
0
100
AcDbBlockEnd
  0
BLOCK
  5
1D2
330
1D1
100
AcDbEntity
  8
0
100
AcDbBlockBegin
  2
_D_4
 70
     0
 10
0.0
 20
0.0
 30
0.0
  3
_D_4
  1

  0
SOLID
  5
1D4
330
1D1
100
AcDbEntity
  8
VERMASSUNG
100
AcDbTrace
 10
114.4743274065
 20
122.2781670526
 30
0.0
 11
114.0243274065
 21
119.2781670526
 31
0.0
 12
114.9243274065
 22
119.2781670526
 32
0.0
 13
114.9243274065
 23
119.2781670526
 33
0.0
  0
SOLID
  5
1D5
330
1D1
100
AcDbEntity
  8
VERMASSUNG
100
AcDbTrace
 10
114.4743274065
 20
66.2781670526
 30
0.0
 11
114.9243274065
 21
69.2781670526
 31
0.0
 12
114.0243274065
 22
69.2781670526
 32
0.0
 13
114.0243274065
 23
69.2781670526
 33
0.0
  0
LINE
  5
1D6
330
1D1
100
AcDbEntity
  8
VERMASSUNG
100
AcDbLine
 10
77.4743274065
 20
122.2781670526
 30
0.0
 11
115.4743274065
 21
122.2781670526
 31
0.0
  0
LINE
  5
1D7
330
1D1
100
AcDbEntity
  8
VERMASSUNG
100
AcDbLine
 10
83.9318405172
 20
66.2781670526
 30
0.0
 11
115.4743274065
 21
66.2781670526
 31
0.0
  0
LINE
  5
1D8
330
1D1
100
AcDbEntity
  8
VERMASSUNG
100
AcDbLine
 10
114.4743274065
 20
122.2781670526
 30
0.0
 11
114.4743274065
 21
66.2781670526
 31
0.0
  0
MTEXT
  5
1D9
330
1D1
100
AcDbEntity
  8
VERMASSUNG
100
AcDbMText
 10
111.8961920434
 20
91.9781670016
 30
-33.9
 40
2.0
 41
0.0
 71
     1
 72
     1
  1
56
  7
SLDTEXTSTYLE0
 11
-7.044195017643634E-15
 21
1.0
 31
0.0
 73
     1
 44
1.0
  0
ENDBLK
  5
1D3
330
1D1
100
AcDbEntity
  8
0
100
AcDbBlockEnd
  0
BLOCK
  5
1DC
330
1DB
100
AcDbEntity
  8
0
100
AcDbBlockBegin
  2
_D_5
 70
     0
 10
0.0
 20
0.0
 30
0.0
  3
_D_5
  1

  0
SOLID
  5
1DE
330
1DB
100
AcDbEntity
  8
VERMASSUNG
100
AcDbTrace
 10
105.8198462914
 20
96.2781670526
 30
0.0
 11
105.3698462914
 21
93.2781670526
 31
0.0
 12
106.2698462914
 22
93.2781670526
 32
0.0
 13
106.2698462914
 23
93.2781670526
 33
0.0
  0
SOLID
  5
1DF
330
1DB
100
AcDbEntity
  8
VERMASSUNG
100
AcDbTrace
 10
105.8198462914
 20
66.2781670526
 30
0.0
 11
106.2698462914
 21
69.2781670526
 31
0.0
 12
105.3698462914
 22
69.2781670526
 32
0.0
 13
105.3698462914
 23
69.2781670526
 33
0.0
  0
LINE
  5
1E0
330
1DB
100
AcDbEntity
  8
VERMASSUNG
100
AcDbLine
 10
99.9743274065
 20
96.2781670526
 30
0.0
 11
106.8198462914
 21
96.2781670526
 31
0.0
  0
LINE
  5
1E1
330
1DB
100
AcDbEntity
  8
VERMASSUNG
100
AcDbLine
 10
83.9318405172
 20
66.2781670526
 30
0.0
 11
106.8198462914
 21
66.2781670526
 31
0.0
  0
LINE
  5
1E2
330
1DB
100
AcDbEntity
  8
VERMASSUNG
100
AcDbLine
 10
105.8198462914
 20
96.2781670526
 30
0.0
 11
105.8198462914
 21
66.2781670526
 31
0.0
  0
MTEXT
  5
1E3
330
1DB
100
AcDbEntity
  8
VERMASSUNG
100
AcDbMText
 10
103.2417109282
 20
78.9781670016
 30
-33.9
 40
2.0
 41
0.0
 71
     1
 72
     1
  1
30
  7
SLDTEXTSTYLE0
 11
-7.044195017643634E-15
 21
1.0
 31
0.0
 73
     1
 44
1.0
  0
ENDBLK
  5
1DD
330
1DB
100
AcDbEntity
  8
0
100
AcDbBlockEnd
  0
BLOCK
  5
1E6
330
1E5
100
AcDbEntity
  8
0
100
AcDbBlockBegin
  2
_D_6
 70
     0
 10
0.0
 20
0.0
 30
0.0
  3
_D_6
  1

  0
SOLID
  5
1E8
330
1E5
100
AcDbEntity
  8
VERMASSUNG
100
AcDbTrace
 10
98.1365667949
 20
86.2781670526
 30
0.0
 11
97.6865667949
 21
83.2781670526
 31
0.0
 12
98.5865667949
 22
83.2781670526
 32
0.0
 13
98.5865667949
 23
83.2781670526
 33
0.0
  0
SOLID
  5
1E9
330
1E5
100
AcDbEntity
  8
VERMASSUNG
100
AcDbTrace
 10
98.1365667949
 20
66.2781670526
 30
0.0
 11
98.5865667949
 21
69.2781670526
 31
0.0
 12
97.6865667949
 22
69.2781670526
 32
0.0
 13
97.6865667949
 23
69.2781670526
 33
0.0
  0
LINE
  5
1EA
330
1E5
100
AcDbEntity
  8
VERMASSUNG
100
AcDbLine
 10
81.7243274065
 20
86.2781670526
 30
0.0
 11
99.1365667949
 21
86.2781670526
 31
0.0
  0
LINE
  5
1EB
330
1E5
100
AcDbEntity
  8
VERMASSUNG
100
AcDbLine
 10
83.9318405172
 20
66.2781670526
 30
0.0
 11
99.1365667949
 21
66.2781670526
 31
0.0
  0
LINE
  5
1EC
330
1E5
100
AcDbEntity
  8
VERMASSUNG
100
AcDbLine
 10
98.1365667949
 20
86.2781670526
 30
0.0
 11
98.1365667949
 21
66.2781670526
 31
0.0
  0
MTEXT
  5
1ED
330
1E5
100
AcDbEntity
  8
VERMASSUNG
100
AcDbMText
 10
95.5584314318
 20
73.9781670016
 30
-33.9
 40
2.0
 41
0.0
 71
     1
 72
     1
  1
20
  7
SLDTEXTSTYLE0
 11
-7.044195017643634E-15
 21
1.0
 31
0.0
 73
     1
 44
1.0
  0
ENDBLK
  5
1E7
330
1E5
100
AcDbEntity
  8
0
100
AcDbBlockEnd
  0
BLOCK
  5
1F0
330
1EF
100
AcDbEntity
  8
0
100
AcDbBlockBegin
  2
_D_7
 70
     0
 10
0.0
 20
0.0
 30
0.0
  3
_D_7
  1

  0
SOLID
  5
1F2
330
1EF
100
AcDbEntity
  8
VERMASSUNG
100
AcDbTrace
 10
77.4743274065
 20
56.2781670526
 30
0.0
 11
74.4743274065
 21
56.7281670526
 31
0.0
 12
74.4743274065
 22
55.8281670526
 32
0.0
 13
74.4743274065
 23
55.8281670526
 33
0.0
  0
SOLID
  5
1F3
330
1EF
100
AcDbEntity
  8
VERMASSUNG
100
AcDbTrace
 10
57.4743274065
 20
56.2781670526
 30
0.0
 11
60.4743274065
 21
55.8281670526
 31
0.0
 12
60.4743274065
 22
56.7281670526
 32
0.0
 13
60.4743274065
 23
56.7281670526
 33
0.0
  0
LINE
  5
1F4
330
1EF
100
AcDbEntity
  8
VERMASSUNG
100
AcDbLine
 10
77.4743274065
 20
66.2781670526
 30
0.0
 11
77.4743274065
 21
55.2781670526
 31
0.0
  0
LINE
  5
1F5
330
1EF
100
AcDbEntity
  8
VERMASSUNG
100
AcDbLine
 10
77.4743274065
 20
56.2781670526
 30
0.0
 11
57.4743274065
 21
56.2781670526
 31
0.0
  0
MTEXT
  5
1F6
330
1EF
100
AcDbEntity
  8
VERMASSUNG
100
AcDbMText
 10
65.1743273555
 20
58.8563024158
 30
-33.9
 40
2.0
 41
0.0
 71
     1
 72
     1
  1
20
  7
SLDTEXTSTYLE0
 73
     1
 44
1.0
  0
ENDBLK
  5
1F1
330
1EF
100
AcDbEntity
  8
0
100
AcDbBlockEnd
  0
BLOCK
  5
1F9
330
1F8
100
AcDbEntity
  8
0
100
AcDbBlockBegin
  2
_D_8
 70
     0
 10
0.0
 20
0.0
 30
0.0
  3
_D_8
  1

  0
SOLID
  5
1FB
330
1F8
100
AcDbEntity
  8
VERMASSUNG
100
AcDbTrace
 10
57.4743274065
 20
50.2781670526
 30
0.0
 11
60.4743274065
 21
49.8281670526
 31
0.0
 12
60.4743274065
 22
50.7281670526
 32
0.0
 13
60.4743274065
 23
50.7281670526
 33
0.0
  0
SOLID
  5
1FC
330
1F8
100
AcDbEntity
  8
VERMASSUNG
100
AcDbTrace
 10
92.4743274065
 20
50.2781670526
 30
0.0
 11
89.4743274065
 21
50.7281670526
 31
0.0
 12
89.4743274065
 22
49.8281670526
 32
0.0
 13
89.4743274065
 23
49.8281670526
 33
0.0
  0
LINE
  5
1FD
330
1F8
100
AcDbEntity
  8
VERMASSUNG
100
AcDbLine
 10
57.4743274065
 20
53.7781670526
 30
0.0
 11
57.4743274065
 21
49.2781670526
 31
0.0
  0
LINE
  5
1FE
330
1F8
100
AcDbEntity
  8
VERMASSUNG
100
AcDbLine
 10
92.4743274065
 20
76.9132503216
 30
0.0
 11
92.4743274065
 21
49.2781670526
 31
0.0
  0
LINE
  5
1FF
330
1F8
100
AcDbEntity
  8
VERMASSUNG
100
AcDbLine
 10
57.4743274065
 20
50.2781670526
 30
0.0
 11
92.4743274065
 21
50.2781670526
 31
0.0
  0
MTEXT
  5
200
330
1F8
100
AcDbEntity
  8
VERMASSUNG
100
AcDbMText
 10
72.6743273555
 20
52.8563024158
 30
-33.9
 40
2.0
 41
0.0
 71
     1
 72
     1
  1
35
  7
SLDTEXTSTYLE0
 73
     1
 44
1.0
  0
ENDBLK
  5
1FA
330
1F8
100
AcDbEntity
  8
0
100
AcDbBlockEnd
  0
BLOCK
  5
203
330
202
100
AcDbEntity
  8
0
100
AcDbBlockBegin
  2
_D_9
 70
     0
 10
0.0
 20
0.0
 30
0.0
  3
_D_9
  1

  0
SOLID
  5
205
330
202
100
AcDbEntity
  8
VERMASSUNG
100
AcDbTrace
 10
31.4743274065
 20
44.2781670526
 30
0.0
 11
34.4743274065
 21
43.8281670526
 31
0.0
 12
34.4743274065
 22
44.7281670526
 32
0.0
 13
34.4743274065
 23
44.7281670526
 33
0.0
  0
SOLID
  5
206
330
202
100
AcDbEntity
  8
VERMASSUNG
100
AcDbTrace
 10
92.4743274065
 20
44.2781670526
 30
0.0
 11
89.4743274065
 21
44.7281670526
 31
0.0
 12
89.4743274065
 22
43.8281670526
 32
0.0
 13
89.4743274065
 23
43.8281670526
 33
0.0
  0
LINE
  5
207
330
202
100
AcDbEntity
  8
VERMASSUNG
100
AcDbLine
 10
31.4743274065
 20
68.2781670526
 30
0.0
 11
31.4743274065
 21
43.2781670526
 31
0.0
  0
LINE
  5
208
330
202
100
AcDbEntity
  8
VERMASSUNG
100
AcDbLine
 10
92.4743274065
 20
76.9132503216
 30
0.0
 11
92.4743274065
 21
43.2781670526
 31
0.0
  0
LINE
  5
209
330
202
100
AcDbEntity
  8
VERMASSUNG
100
AcDbLine
 10
31.4743274065
 20
44.2781670526
 30
0.0
 11
92.4743274065
 21
44.2781670526
 31
0.0
  0
MTEXT
  5
20A
330
202
100
AcDbEntity
  8
VERMASSUNG
100
AcDbMText
 10
59.8743272486
 20
46.8563024158
 30
-33.9
 40
2.0
 41
0.0
 71
     1
 72
     1
  1
61
  7
SLDTEXTSTYLE0
 73
     1
 44
1.0
  0
ENDBLK
  5
204
330
202
100
AcDbEntity
  8
0
100
AcDbBlockEnd
  0
BLOCK
  5
20E
330
20D
100
AcDbEntity
  8
0
100
AcDbBlockBegin
  2
_D_10
 70
     0
 10
0.0
 20
0.0
 30
0.0
  3
_D_10
  1

  0
SOLID
  5
210
330
20D
100
AcDbEntity
  8
VERMASSUNG
100
AcDbTrace
 10
57.4743274065
 20
56.2781670526
 30
0.0
 11
60.4743274065
 21
55.8281670526
 31
0.0
 12
60.4743274065
 22
56.7281670526
 32
0.0
 13
60.4743274065
 23
56.7281670526
 33
0.0
  0
SOLID
  5
211
330
20D
100
AcDbEntity
  8
VERMASSUNG
100
AcDbTrace
 10
56.4743274065
 20
56.2781670526
 30
0.0
 11
53.4743274065
 21
56.7281670526
 31
0.0
 12
53.4743274065
 22
55.8281670526
 32
0.0
 13
53.4743274065
 23
55.8281670526
 33
0.0
  0
LINE
  5
212
330
20D
100
AcDbEntity
  8
VERMASSUNG
100
AcDbLine
 10
56.4743274065
 20
66.2781670526
 30
0.0
 11
56.4743274065
 21
55.2781670526
 31
0.0
  0
LINE
  5
213
330
20D
100
AcDbEntity
  8
VERMASSUNG
100
AcDbLine
 10
57.4743274065
 20
56.2781670526
 30
0.0
 11
63.4743274065
 21
56.2781670526
 31
0.0
  0
LINE
  5
214
330
20D
100
AcDbEntity
  8
VERMASSUNG
100
AcDbLine
 10
57.4743274065
 20
56.2781670526
 30
0.0
 11
56.4743274065
 21
56.2781670526
 31
0.0
  0
LINE
  5
215
330
20D
100
AcDbEntity
  8
VERMASSUNG
100
AcDbLine
 10
56.4743274065
 20
56.2781670526
 30
0.0
 11
49.8085932279
 21
56.2781670526
 31
0.0
  0
MTEXT
  5
216
330
20D
100
AcDbEntity
  8
VERMASSUNG
100
AcDbMText
 10
49.8085932279
 20
58.8563024158
 30
-33.9
 40
2.0
 41
0.0
 71
     1
 72
     1
  1
1
  7
SLDTEXTSTYLE0
 73
     1
 44
1.0
  0
ENDBLK
  5
20F
330
20D
100
AcDbEntity
  8
0
100
AcDbBlockEnd
  0
BLOCK
  5
21A
330
219
100
AcDbEntity
  8
0
100
AcDbBlockBegin
  2
_D_11
 70
     0
 10
0.0
 20
0.0
 30
0.0
  3
_D_11
  1

  0
SOLID
  5
21C
330
219
100
AcDbEntity
  8
VERMASSUNG
100
AcDbTrace
 10
87.7995689095
 20
70.1940775
 30
0.0
 11
89.7805160147
 21
67.8966118167
 31
0.0
 12
90.3674080296
 22
68.5789297505
 32
0.0
 13
90.3674080296
 23
68.5789297505
 33
0.0
  0
LINE
  5
21D
330
219
100
AcDbEntity
  8
VERMASSUNG
100
AcDbLine
 10
87.7995689095
 20
70.1940775
 30
0.0
 11
100.5370964575
 21
59.2379632936
 31
0.0
  0
LINE
  5
21E
330
219
100
AcDbEntity
  8
VERMASSUNG
100
AcDbLine
 10
87.7995689095
 20
70.1940775
 30
0.0
 11
57.4743274065
 21
96.2781670526
 31
0.0
  0
MTEXT
  5
21F
330
219
100
AcDbEntity
  8
VERMASSUNG
100
AcDbMText
 10
97.3654887456
 20
65.3650792897
 30
-33.9
 40
2.0
 41
0.0
 71
     1
 72
     1
  1
R40
  7
SLDTEXTSTYLE0
 11
0.7581310375730042
 21
-0.6521022388157245
 31
0.0
 73
     1
 44
1.0
  0
ENDBLK
  5
21B
330
219
100
AcDbEntity
  8
0
100
AcDbBlockEnd
  0
BLOCK
  5
221
330
220
100
AcDbEntity
  8
0
100
AcDbBlockBegin
  2
SW_CENTERMARKSYMBOL_0
 70
     0
 10
0.0
 20
0.0
 30
0.0
  3
SW_CENTERMARKSYMBOL_0
  1

  0
LINE
  5
223
330
220
100
AcDbEntity
  8
VERMASSUNG
 62
     0
100
AcDbLine
 10
0.0
 20
0.0
 30
0.0
 11
0.0
 21
2.5
 31
0.0
  0
LINE
  5
224
330
220
100
AcDbEntity
  8
VERMASSUNG
 62
     0
100
AcDbLine
 10
0.0
 20
0.0
 30
0.0
 11
-2.5
 21
0.0
 31
0.0
  0
LINE
  5
225
330
220
100
AcDbEntity
  8
VERMASSUNG
 62
     0
100
AcDbLine
 10
0.0
 20
0.0
 30
0.0
 11
0.0
 21
-2.5
 31
0.0
  0
LINE
  5
226
330
220
100
AcDbEntity
  8
VERMASSUNG
 62
     0
100
AcDbLine
 10
0.0
 20
0.0
 30
0.0
 11
2.5
 21
0.0
 31
0.0
  0
LINE
  5
227
330
220
100
AcDbEntity
  8
VERMASSUNG
 62
     0
100
AcDbLine
 10
0.0
 20
5.0
 30
0.0
 11
0.0
 21
42.5
 31
0.0
  0
LINE
  5
228
330
220
100
AcDbEntity
  8
VERMASSUNG
 62
     0
100
AcDbLine
 10
-5.0
 20
0.0
 30
0.0
 11
-42.5
 21
0.0
 31
0.0
  0
LINE
  5
229
330
220
100
AcDbEntity
  8
VERMASSUNG
 62
     0
100
AcDbLine
 10
0.0
 20
-5.0
 30
0.0
 11
0.0
 21
-42.5
 31
0.0
  0
LINE
  5
22A
330
220
100
AcDbEntity
  8
VERMASSUNG
 62
     0
100
AcDbLine
 10
5.0
 20
0.0
 30
0.0
 11
42.5
 21
0.0
 31
0.0
  0
ENDBLK
  5
222
330
220
100
AcDbEntity
  8
0
100
AcDbBlockEnd
  0
BLOCK
  5
2B0
330
2AF
100
AcDbEntity
  8
0
100
AcDbBlockBegin
  2
_D_12
 70
     0
 10
0.0
 20
0.0
 30
0.0
  3
_D_12
  1

  0
SOLID
  5
2B2
330
2AF
100
AcDbEntity
  8
VERMASSUNG
100
AcDbTrace
 10
272.0197119776
 20
201.2658925291
 30
0.0
 11
269.0197119776
 21
201.7158925291
 31
0.0
 12
269.0197119776
 22
200.8158925291
 32
0.0
 13
269.0197119776
 23
200.8158925291
 33
0.0
  0
SOLID
  5
2B3
330
2AF
100
AcDbEntity
  8
VERMASSUNG
100
AcDbTrace
 10
197.0197119776
 20
201.2658925291
 30
0.0
 11
200.0197119776
 21
200.8158925291
 31
0.0
 12
200.0197119776
 22
201.7158925291
 32
0.0
 13
200.0197119776
 23
201.7158925291
 33
0.0
  0
LINE
  5
2B4
330
2AF
100
AcDbEntity
  8
VERMASSUNG
100
AcDbLine
 10
272.0197119776
 20
149.6802037774
 30
0.0
 11
272.0197119776
 21
202.2658925291
 31
0.0
  0
LINE
  5
2B5
330
2AF
100
AcDbEntity
  8
VERMASSUNG
100
AcDbLine
 10
197.0197119776
 20
170.6802037774
 30
0.0
 11
197.0197119776
 21
202.2658925291
 31
0.0
  0
LINE
  5
2B6
330
2AF
100
AcDbEntity
  8
VERMASSUNG
100
AcDbLine
 10
272.0197119776
 20
201.2658925291
 30
0.0
 11
197.0197119776
 21
201.2658925291
 31
0.0
  0
MTEXT
  5
2B7
330
2AF
100
AcDbEntity
  8
VERMASSUNG
100
AcDbMText
 10
232.2197119265
 20
203.8440278922
 30
-1.9
 40
2.0
 41
0.0
 71
     1
 72
     1
  1
75
  7
SLDTEXTSTYLE0
 73
     1
 44
1.0
  0
ENDBLK
  5
2B1
330
2AF
100
AcDbEntity
  8
0
100
AcDbBlockEnd
  0
ENDSEC
  0
SECTION
  2
ENTITIES
  0
MTEXT
  5
49
330
1F
100
AcDbEntity
  8
KOPF_DÜNN
100
AcDbMText
 10
13.8892156294
 20
23.8442973028
 30
0.0
 40
3.0
 41
0.0
 71
     1
 72
     1
  1
PS5.V20.L11.098
  7
SLDTEXTSTYLE0
 73
     1
 44
1.0
  0
MTEXT
  5
4A
330
1F
100
AcDbEntity
  8
VERMASSUNG
100
AcDbMText
 10
13.9329988022
 20
28.8834360957
 30
0.0
 40
3.0
 41
0.0
 71
     1
 72
     1
  1
Werkzeughalter axial links_Tool holder axial left
  7
SLDTEXTSTYLE0
 73
     1
 44
1.0
  0
MTEXT
  5
4B
330
1F
100
AcDbEntity
  8
VERMASSUNG
100
AcDbMText
 10
98.8601118557
 20
13.8365368179
 30
0.0
 40
2.0
 41
0.0
 71
     1
 72
     1
  1
Datum: 08.05.2012
  7
SLDTEXTSTYLE0
 73
     1
 44
1.0
  0
MTEXT
  5
4C
330
1F
100
AcDbEntity
  8
VERMASSUNG
100
AcDbMText
 10
13.933048693
 20
18.0482802738
 30
0.0
 40
2.0
 41
0.0
 71
     1
 72
     1
  1
PSC ø50 / 20x20
  7
SLDTEXTSTYLE0
 73
     1
 44
1.0
  0
MTEXT
  5
4D
330
1F
100
AcDbEntity
  8
VERMASSUNG
100
AcDbMText
 10
13.9808475933
 20
13.9090973692
 30
0.0
 40
2.0
 41
0.0
 71
     1
 72
     1
  1
Gewicht: 1717g
  7
SLDTEXTSTYLE0
 73
     1
 44
1.0
  0
ARC
  5
4E
330
1F
100
AcDbEntity
  8
0
  6
Continuous
 62
     7
370
    15
100
AcDbCircle
 10
260.0197119776
 20
91.2781670526
 30
0.0
 40
5.000000000000003
100
AcDbArc
 50
44.7464248226
 51
66.4218215218
  0
ARC
  5
4F
330
1F
100
AcDbEntity
  8
0
  6
Continuous
 62
     7
370
    15
100
AcDbCircle
 10
260.0197119776
 20
91.2781670526
 30
0.0
 40
5.000000000000003
100
AcDbArc
 50
293.5781784782
 51
324.396505774
  0
ARC
  5
50
330
1F
100
AcDbEntity
  8
0
  6
Continuous
 62
     7
370
    15
100
AcDbCircle
 10
194.0197119776
 20
70.2781670526
 30
0.0
 40
1.0
100
AcDbArc
 50
0.0
 51
90.0
  0
ARC
  5
51
330
1F
100
AcDbEntity
  8
0
  6
Continuous
 62
     7
370
    15
100
AcDbCircle
 10
194.0197119776
 20
122.2781670526
 30
0.0
 40
1.0
100
AcDbArc
 50
270.0
 51
0.0
  0
ARC
  5
52
330
1F
100
AcDbEntity
  8
0
  6
Continuous
 62
     7
370
    15
100
AcDbCircle
 10
174.3197119776
 20
71.5781670526
 30
0.0
 40
0.3000000000000114
100
AcDbArc
 50
180.0
 51
270.0
  0
ARC
  5
53
330
1F
100
AcDbEntity
  8
0
  6
Continuous
 62
     7
370
    15
100
AcDbCircle
 10
174.3197119776
 20
120.9781670526
 30
0.0
 40
0.3000000000000114
100
AcDbArc
 50
90.0
 51
180.0
  0
LINE
  5
54
330
1F
100
AcDbEntity
  8
0
  6
Continuous
 62
     7
370
    15
100
AcDbLine
 10
174.3197119776
 20
71.2781670526
 30
0.0
 11
194.0197119776
 21
71.2781670526
 31
0.0
  0
LINE
  5
55
330
1F
100
AcDbEntity
  8
0
  6
Continuous
 62
     7
370
    15
100
AcDbLine
 10
194.0197119776
 20
121.2781670526
 30
0.0
 11
174.3197119776
 21
121.2781670526
 31
0.0
  0
LWPOLYLINE
  5
56
330
1F
100
AcDbEntity
  8
0
  6
Continuous
 62
     7
370
    15
100
AcDbPolyline
 90
        3
 70
   128
 43
0.0
 10
173.8197119776
 20
78.4383467738
 10
173.9451669211
 20
78.3700446588
 10
174.0197119776
 20
78.3173069007
  0
LWPOLYLINE
  5
57
330
1F
100
AcDbEntity
  8
0
  6
Continuous
 62
     7
370
    15
100
AcDbPolyline
 90
        3
 70
   128
 43
0.0
 10
174.0197119776
 20
114.2390272046
 10
173.9451669211
 20
114.1862894465
 10
173.8197119776
 20
114.1179873315
  0
LWPOLYLINE
  5
58
330
1F
100
AcDbEntity
  8
0
  6
Continuous
 62
     7
370
    15
100
AcDbPolyline
 90
       29
 70
   128
 43
0.0
 10
263.7382919599
 20
89.2341172535
 10
263.6455513207
 20
89.7902868205
 10
263.5598911654
 20
90.4361683831
 10
263.4856068519
 20
91.1393747429
 10
263.4264233059
 20
91.8646441966
 10
263.3853082374
 20
92.5756087054
 10
263.3643233278
 20
93.2366175401
 10
263.364520848
 20
93.8145249575
 10
263.3858908935
 20
94.2803522667
 10
263.4273618809
 20
94.6107409412
 10
263.4868542819
 20
94.7891239133
 10
263.561384899
 20
94.8065563159
 10
263.6472164559
 20
94.6621640156
 10
263.7400449999
 20
94.3631874452
 10
263.8352157201
 20
93.9246185384
 10
263.9279563594
 20
93.3684489715
 10
264.0136165146
 20
92.7225674088
 10
264.0879008281
 20
92.0193610491
 10
264.1470843742
 20
91.2940915953
 10
264.1881994426
 20
90.5831270865
 10
264.2091843522
 20
89.9221182518
 10
264.208986832
 20
89.3442108344
 10
264.1876167866
 20
88.8783835252
 10
264.1461457991
 20
88.5479948507
 10
264.0866533981
 20
88.3696118786
 10
264.012122781
 20
88.352179476
 10
263.9262912241
 20
88.4965717763
 10
263.8334626801
 20
88.7955483467
 10
263.7382919599
 20
89.2341172535
  0
LWPOLYLINE
  5
59
330
1F
100
AcDbEntity
  8
0
  6
Continuous
 62
     7
370
    15
100
AcDbPolyline
 90
       26
 70
   128
 43
0.0
 10
263.7494754707
 20
89.7753289403
 10
263.6698735045
 20
90.2595914933
 10
263.5976155596
 20
90.8267804516
 10
263.5372418685
 20
91.4412572468
 10
263.4925459322
 20
92.064412042
 10
263.4663361608
 20
92.6570897296
 10
263.4602594105
 20
93.1820501909
 10
263.4746975061
 20
93.6063082293
 10
263.5087432487
 20
93.903206152
 10
263.5602574193
 20
94.0540887707
 10
263.626003193
 20
94.0494755753
 10
263.701849521
 20
93.8896564301
 10
263.7830306996
 20
93.5846733596
 10
263.8644458169
 20
93.1536895718
 10
263.9409792615
 20
92.6237853632
 10
264.0078221557
 20
92.028256564
 10
264.0607745145
 20
91.4045224389
 10
264.0965091466
 20
90.7917744969
 10
264.1127807136
 20
90.2285139448
 10
264.1085668131
 20
89.7501325145
 10
264.08413222
 20
89.3866886706
 10
264.0410122495
 20
89.1610189266
 10
263.9819162881
 20
89.0873029425
 10
263.9105575523
 20
89.1701725645
 10
263.8314197739
 20
89.4044207896
 10
263.7494754707
 20
89.7753289403
  0
ARC
  5
5A
330
1F
100
AcDbEntity
  8
0
  6
Continuous
 62
     7
370
    15
100
AcDbCircle
 10
246.0999622314
 20
90.1651875543
 30
0.0
 40
17.5653205003833
100
AcDbArc
 50
0.4234141579
 51
8.7195164388
  0
CIRCLE
  5
5B
330
1F
100
AcDbEntity
  8
0
  6
Continuous
 62
     7
370
    15
100
AcDbCircle
 10
214.0197119776
 20
76.2781670526
 30
0.0
 40
4.172000000000001
  0
LINE
  5
5C
330
1F
100
AcDbEntity
  8
0
  6
Continuous
 62
     7
370
    15
100
AcDbLine
 10
212.0933102876
 20
78.4281228341
 30
0.0
 11
214.9184274564
 21
79.0214577448
 31
0.0
  0
LINE
  5
5D
330
1F
100
AcDbEntity
  8
0
  6
Continuous
 62
     7
370
    15
100
AcDbLine
 10
216.8448291463
 20
76.8715019633
 30
0.0
 11
214.9184274564
 21
79.0214577448
 31
0.0
  0
LINE
  5
5E
330
1F
100
AcDbEntity
  8
0
  6
Continuous
 62
     7
370
    15
100
AcDbLine
 10
211.1945948088
 20
75.684832142
 30
0.0
 11
212.0933102876
 21
78.4281228341
 31
0.0
  0
LINE
  5
5F
330
1F
100
AcDbEntity
  8
0
  6
Continuous
 62
     7
370
    15
100
AcDbLine
 10
215.9461136675
 20
74.1282112712
 30
0.0
 11
216.8448291463
 21
76.8715019633
 31
0.0
  0
LINE
  5
60
330
1F
100
AcDbEntity
  8
0
  6
Continuous
 62
     7
370
    15
100
AcDbLine
 10
211.1945948088
 20
75.684832142
 30
0.0
 11
213.1209964988
 21
73.5348763605
 31
0.0
  0
LINE
  5
61
330
1F
100
AcDbEntity
  8
0
  6
Continuous
 62
     7
370
    15
100
AcDbLine
 10
215.9461136675
 20
74.1282112712
 30
0.0
 11
213.1209964988
 21
73.5348763605
 31
0.0
  0
CIRCLE
  5
62
330
1F
100
AcDbEntity
  8
0
  6
Continuous
 62
     7
370
    15
100
AcDbCircle
 10
254.0197119776
 20
76.2781670526
 30
0.0
 40
4.171999999999993
  0
LINE
  5
63
330
1F
100
AcDbEntity
  8
0
  6
Continuous
 62
     7
370
    15
100
AcDbLine
 10
256.8880130577
 20
76.6040232278
 30
0.0
 11
255.171662792
 21
78.9251167413
 31
0.0
  0
LINE
  5
64
330
1F
100
AcDbEntity
  8
0
  6
Continuous
 62
     7
370
    15
100
AcDbLine
 10
252.3033617119
 20
78.5992605662
 30
0.0
 11
255.171662792
 21
78.9251167413
 31
0.0
  0
LINE
  5
65
330
1F
100
AcDbEntity
  8
0
  6
Continuous
 62
     7
370
    15
100
AcDbLine
 10
251.1514108974
 20
75.9523108775
 30
0.0
 11
252.3033617119
 21
78.5992605662
 31
0.0
  0
LINE
  5
66
330
1F
100
AcDbEntity
  8
0
  6
Continuous
 62
     7
370
    15
100
AcDbLine
 10
251.1514108974
 20
75.9523108775
 30
0.0
 11
252.8677611631
 21
73.631217364
 31
0.0
  0
LINE
  5
67
330
1F
100
AcDbEntity
  8
0
  6
Continuous
 62
     7
370
    15
100
AcDbLine
 10
255.7360622433
 20
73.9570735391
 30
0.0
 11
252.8677611631
 21
73.631217364
 31
0.0
  0
LINE
  5
68
330
1F
100
AcDbEntity
  8
0
  6
Continuous
 62
     7
370
    15
100
AcDbLine
 10
255.7360622433
 20
73.9570735391
 30
0.0
 11
256.8880130577
 21
76.6040232278
 31
0.0
  0
CIRCLE
  5
69
330
1F
100
AcDbEntity
  8
0
  6
Continuous
 62
     7
370
    15
100
AcDbCircle
 10
234.0197119776
 20
76.2781670526
 30
0.0
 40
4.171999999999991
  0
LINE
  5
6A
330
1F
100
AcDbEntity
  8
0
  6
Continuous
 62
     7
370
    15
100
AcDbLine
 10
235.9247498566
 20
78.4470755369
 30
0.0
 11
233.0939010713
 21
79.0124324931
 31
0.0
  0
LINE
  5
6B
330
1F
100
AcDbEntity
  8
0
  6
Continuous
 62
     7
370
    15
100
AcDbLine
 10
232.1146740986
 20
74.1092585684
 30
0.0
 11
234.9455228839
 21
73.5439016121
 31
0.0
  0
LINE
  5
6C
330
1F
100
AcDbEntity
  8
0
  6
Continuous
 62
     7
370
    15
100
AcDbLine
 10
236.8505607629
 20
75.7128100964
 30
0.0
 11
234.9455228839
 21
73.5439016121
 31
0.0
  0
LINE
  5
6D
330
1F
100
AcDbEntity
  8
0
  6
Continuous
 62
     7
370
    15
100
AcDbLine
 10
236.8505607629
 20
75.7128100964
 30
0.0
 11
235.9247498566
 21
78.4470755369
 31
0.0
  0
LINE
  5
6E
330
1F
100
AcDbEntity
  8
0
  6
Continuous
 62
     7
370
    15
100
AcDbLine
 10
231.1888631923
 20
76.8435240089
 30
0.0
 11
233.0939010713
 21
79.0124324931
 31
0.0
  0
LINE
  5
6F
330
1F
100
AcDbEntity
  8
0
  6
Continuous
 62
     7
370
    15
100
AcDbLine
 10
232.1146740986
 20
74.1092585684
 30
0.0
 11
231.1888631923
 21
76.8435240089
 31
0.0
  0
LINE
  5
70
330
1F
100
AcDbEntity
  8
0
  6
Continuous
 62
     7
370
    15
100
AcDbLine
 10
218.0197119776
 20
87.2781670526
 30
0.0
 11
261.0197119776
 21
87.2781670526
 31
0.0
  0
ARC
  5
71
330
1F
100
AcDbEntity
  8
0
  6
Continuous
 62
     7
370
    15
100
AcDbCircle
 10
218.0197119776
 20
68.2781670526
 30
0.0
 40
18.99999999999997
100
AcDbArc
 50
90.0
 51
180.0
  0
LINE
  5
72
330
1F
100
AcDbEntity
  8
0
  6
Continuous
 62
     7
370
    15
100
AcDbLine
 10
195.0197119776
 20
68.2781670526
 30
0.0
 11
199.0197119776
 21
68.2781670526
 31
0.0
  0
LINE
  5
73
330
1F
100
AcDbEntity
  8
0
  6
Continuous
 62
     7
370
    15
100
AcDbLine
 10
195.0197119776
 20
96.2781670527
 30
0.0
 11
195.0197119776
 21
107.2781670526
 31
0.0
  0
LINE
  5
74
330
1F
100
AcDbEntity
  8
0
  6
Continuous
 62
     7
370
    15
100
AcDbLine
 10
195.0197119776
 20
107.2781670526
 30
0.0
 11
250.9671530943
 21
107.2781670526
 31
0.0
  0
LINE
  5
75
330
1F
100
AcDbEntity
  8
0
  6
Continuous
 62
     7
370
    15
100
AcDbLine
 10
261.0197119776
 20
101.4743194754
 30
0.0
 11
250.9671530943
 21
107.2781670526
 31
0.0
  0
LINE
  5
76
330
1F
100
AcDbEntity
  8
0
  6
Continuous
 62
     7
370
    15
100
AcDbLine
 10
261.0197119776
 20
87.2781670526
 30
0.0
 11
261.0197119776
 21
101.4743194754
 31
0.0
  0
LINE
  5
77
330
1F
100
AcDbEntity
  8
0
  6
Continuous
 62
     7
370
    15
100
AcDbLine
 10
195.0197119776
 20
68.2781670526
 30
0.0
 11
195.0197119776
 21
96.2781670527
 31
0.0
  0
SPLINE
  5
78
330
1F
100
AcDbEntity
  8
0
  6
Continuous
 62
     7
370
    15
100
AcDbSpline
210
0.0
220
0.0
230
1.0
 70
     8
 71
     3
 72
     8
 73
     4
 74
     0
 42
0.00000001
 43
0.00000001
 12
1.0
 22
0.0
 32
0.0
 13
1.0
 23
0.0
 33
0.0
 40
0.0
 40
0.0
 40
0.0
 40
0.0
 40
1.0
 40
1.0
 40
1.0
 40
1.0
 10
200.0197119775749
 20
67.30448284212044
 30
0.0
 10
199.6803741002623
 20
67.6259608311534
 30
0.0
 10
199.3472495715598
 20
67.95062945866181
 30
0.0
 10
199.0197119775748
 20
68.2781670526468
 30
0.0
  0
LINE
  5
79
330
1F
100
AcDbEntity
  8
0
  6
Continuous
 62
     7
370
    15
100
AcDbLine
 10
200.0197119776
 20
67.3044828421
 30
0.0
 11
200.0197119776
 21
67.2781670526
 31
0.0
  0
LINE
  5
7A
330
1F
100
AcDbEntity
  8
0
  6
Continuous
 62
     7
370
    15
100
AcDbLine
 10
199.0197119776
 20
66.2781670526
 30
0.0
 11
200.0197119776
 21
67.2781670526
 31
0.0
  0
LINE
  5
7B
330
1F
100
AcDbEntity
  8
0
  6
Continuous
 62
     7
370
    15
100
AcDbLine
 10
199.0197119776
 20
66.2781670526
 30
0.0
 11
195.0197119776
 21
66.2781670526
 31
0.0
  0
LINE
  5
7C
330
1F
100
AcDbEntity
  8
0
  6
Continuous
 62
     7
370
    15
100
AcDbLine
 10
195.0197119776
 20
66.2781670526
 30
0.0
 11
195.0197119776
 21
68.2781670526
 31
0.0
  0
ARC
  5
7D
330
1F
100
AcDbEntity
  8
0
  6
Continuous
 62
     7
370
    15
100
AcDbCircle
 10
218.0197119776
 20
68.2781670526
 30
0.0
 40
18.0
100
AcDbArc
 50
90.0
 51
180.0
  0
SPLINE
  5
7E
330
1F
100
AcDbEntity
  8
0
  6
Continuous
 62
     7
370
    15
100
AcDbSpline
210
0.0
220
0.0
230
1.0
 70
    24
 71
     3
 72
     8
 73
     4
 74
     0
 42
0.00000001
 43
0.00000001
 12
1.0
 22
0.0
 32
0.0
 13
1.0
 23
0.0
 33
0.0
 40
0.0
 40
0.0
 40
0.0
 40
0.0
 40
1.0
 40
1.0
 40
1.0
 40
1.0
 10
200.0197119775749
 20
68.27816705264675
 30
0.0
 10
200.0197119775749
 20
67.95336856995353
 30
0.0
 10
200.0197119775749
 20
67.62880785763772
 30
0.0
 10
200.0197119775749
 20
67.30448284212044
 30
0.0
  0
LINE
  5
7F
330
1F
100
AcDbEntity
  8
0
  6
Continuous
 62
     7
370
    15
100
AcDbLine
 10
251.2351022867
 20
108.2781670526
 30
0.0
 11
262.0197119776
 21
102.0516697445
 31
0.0
  0
LINE
  5
80
330
1F
100
AcDbEntity
  8
0
  6
Continuous
 62
     7
370
    15
100
AcDbLine
 10
262.0197119776
 20
102.0516697445
 30
0.0
 11
261.0197119776
 21
101.4743194754
 31
0.0
  0
LINE
  5
81
330
1F
100
AcDbEntity
  8
0
  6
Continuous
 62
     7
370
    15
100
AcDbLine
 10
250.9671530943
 20
107.2781670526
 30
0.0
 11
251.2351022867
 21
108.2781670526
 31
0.0
  0
LINE
  5
82
330
1F
100
AcDbEntity
  8
0
  6
Continuous
 62
     7
370
    15
100
AcDbLine
 10
195.0197119776
 20
122.2781670526
 30
0.0
 11
226.9863909808
 21
122.2781670526
 31
0.0
  0
LINE
  5
83
330
1F
100
AcDbEntity
  8
0
  6
Continuous
 62
     7
370
    15
100
AcDbLine
 10
226.9863909808
 20
122.2781670526
 30
0.0
 11
251.2351022867
 21
108.2781670526
 31
0.0
  0
LINE
  5
84
330
1F
100
AcDbEntity
  8
0
  6
Continuous
 62
     7
370
    15
100
AcDbLine
 10
195.0197119776
 20
107.2781670526
 30
0.0
 11
195.0197119776
 21
122.2781670526
 31
0.0
  0
LINE
  5
85
330
1F
100
AcDbEntity
  8
0
  6
Continuous
 62
     7
370
    15
100
AcDbLine
 10
261.0197119776
 20
87.2781670526
 30
0.0
 11
261.0197119776
 21
86.2781670526
 31
0.0
  0
LINE
  5
86
330
1F
100
AcDbEntity
  8
0
  6
Continuous
 62
     7
370
    15
100
AcDbLine
 10
261.0197119776
 20
86.2781670526
 30
0.0
 11
218.0197119776
 21
86.2781670526
 31
0.0
  0
LINE
  5
87
330
1F
100
AcDbEntity
  8
0
  6
Continuous
 62
     7
370
    15
100
AcDbLine
 10
262.0197119776
 20
87.2781670526
 30
0.0
 11
261.0197119776
 21
86.2781670526
 31
0.0
  0
LINE
  5
88
330
1F
100
AcDbEntity
  8
0
  6
Continuous
 62
     7
370
    15
100
AcDbLine
 10
262.0197119776
 20
87.2781670526
 30
0.0
 11
261.0197119776
 21
87.2781670526
 31
0.0
  0
LINE
  5
89
330
1F
100
AcDbEntity
  8
0
  6
Continuous
 62
     7
370
    15
100
AcDbLine
 10
262.0197119776
 20
102.0516697445
 30
0.0
 11
262.0197119776
 21
87.2781670526
 31
0.0
  0
LINE
  5
8A
330
1F
100
AcDbEntity
  8
0
  6
Continuous
 62
     7
370
    15
100
AcDbLine
 10
174.0197119776
 20
71.5781670526
 30
0.0
 11
174.0197119776
 21
120.9781670525
 31
0.0
  0
SPLINE
  5
8B
330
1F
100
AcDbEntity
  8
0
  6
Continuous
 62
     7
370
    15
100
AcDbSpline
210
0.0
220
0.0
230
1.0
 70
     8
 71
     3
 72
    12
 73
     8
 74
     0
 42
0.00000001
 43
0.00000001
 12
1.0
 22
0.0
 32
0.0
 13
1.0
 23
0.0
 33
0.0
 40
0.0
 40
0.0
 40
0.0
 40
0.0
 40
0.2500000000000002
 40
0.2500000000000002
 40
0.5000000000000004
 40
0.5000000000000004
 40
1.0
 40
1.0
 40
1.0
 40
1.0
 10
182.5474687911414
 20
103.8469770218273
 30
0.0
 10
182.4838035546109
 20
103.8469770218273
 30
0.0
 10
182.4241973223875
 20
103.873049170307
 30
0.0
 10
182.3255367974566
 20
103.9485879211281
 30
0.0
 10
182.2865698074414
 20
103.9958388582243
 30
0.0
 10
182.1871829755169
 20
104.1476626761907
 30
0.0
 10
182.1451067280935
 20
104.2604659259558
 30
0.0
 10
182.1144560892491
 20
104.3746200506909
 30
0.0
  0
LINE
  5
8C
330
1F
100
AcDbEntity
  8
0
  6
Continuous
 62
     7
370
    15
100
AcDbLine
 10
185.491955164
 20
103.8469770218
 30
0.0
 11
182.5474687911
 21
103.8469770218
 31
0.0
  0
SPLINE
  5
8D
330
1F
100
AcDbEntity
  8
0
  6
Continuous
 62
     7
370
    15
100
AcDbSpline
210
0.0
220
0.0
230
1.0
 70
     8
 71
     3
 72
    12
 73
     8
 74
     0
 42
0.00000001
 43
0.00000001
 12
1.0
 22
0.0
 32
0.0
 13
1.0
 23
0.0
 33
0.0
 40
0.0
 40
0.0
 40
0.0
 40
0.0
 40
0.5
 40
0.5
 40
0.75
 40
0.75
 40
1.0
 40
1.0
 40
1.0
 40
1.0
 10
185.9249678659007
 20
104.3746200506909
 30
0.0
 10
185.8942684825334
 20
104.2602843836271
 30
0.0
 10
185.8529184144269
 20
104.1489310307857
 30
0.0
 10
185.7531624862074
 20
103.996194258537
 30
0.0
 10
185.7134655684747
 20
103.9483343726848
 30
0.0
 10
185.6162074168271
 20
103.8737312593354
 30
0.0
 10
185.5554312588364
 20
103.8469770218273
 30
0.0
 10
185.4919551640085
 20
103.8469770218273
 30
0.0
  0
ELLIPSE
  5
8E
330
1F
100
AcDbEntity
  8
0
  6
Continuous
 62
     7
370
    15
100
AcDbEllipse
 10
172.9634543226
 20
96.2781670526
 30
0.0
 11
11.70927234972711
 21
24.67718644093742
 31
0.0
210
0.0
220
0.0
230
1.0
 40
0.3419987131
 41
5.203068809370452
 42
6.114256032590498
  0
SPLINE
  5
8F
330
1F
100
AcDbEntity
  8
0
  6
Continuous
 62
     7
370
    15
100
AcDbSpline
210
0.0
220
0.0
230
1.0
 70
     8
 71
     3
 72
    12
 73
     8
 74
     0
 42
0.00000001
 43
0.00000001
 12
1.0
 22
0.0
 32
0.0
 13
1.0
 23
0.0
 33
0.0
 40
0.0
 40
0.0
 40
0.0
 40
0.0
 40
0.2499999999999991
 40
0.2499999999999991
 40
0.4999999999999982
 40
0.4999999999999982
 40
1.0
 40
1.0
 40
1.0
 40
1.0
 10
185.4919551640085
 20
120.1048981681488
 30
0.0
 10
185.555620400539
 20
120.1048981681488
 30
0.0
 10
185.6152266327623
 20
120.0966333924829
 30
0.0
 10
185.7138871576932
 20
120.0724146108998
 30
0.0
 10
185.7528541477084
 20
120.0571572915906
 30
0.0
 10
185.8522409796329
 20
120.0075239373287
 30
0.0
 10
185.8943172270563
 20
119.9698842291546
 30
0.0
 10
185.9249678659007
 20
119.9308085298784
 30
0.0
  0
LINE
  5
90
330
1F
100
AcDbEntity
  8
0
  6
Continuous
 62
     7
370
    15
100
AcDbLine
 10
182.5474687911
 20
120.1048981681
 30
0.0
 11
185.491955164
 21
120.1048981681
 31
0.0
  0
SPLINE
  5
91
330
1F
100
AcDbEntity
  8
0
  6
Continuous
 62
     7
370
    15
100
AcDbSpline
210
0.0
220
0.0
230
1.0
 70
     8
 71
     3
 72
    12
 73
     8
 74
     0
 42
0.00000001
 43
0.00000001
 12
1.0
 22
0.0
 32
0.0
 13
1.0
 23
0.0
 33
0.0
 40
0.0
 40
0.0
 40
0.0
 40
0.0
 40
0.5000000000000018
 40
0.5000000000000018
 40
0.7500000000000009
 40
0.7500000000000009
 40
1.0
 40
1.0
 40
1.0
 40
1.0
 10
182.1144560892491
 20
119.9308085298784
 30
0.0
 10
182.1451554726164
 20
119.9699463722743
 30
0.0
 10
182.1865055407229
 20
120.0071061549998
 30
0.0
 10
182.2862614689424
 20
120.0570426606276
 30
0.0
 10
182.3259583866751
 20
120.0724955307713
 30
0.0
 10
182.4232165383227
 20
120.0964150743704
 30
0.0
 10
182.4839926963134
 20
120.1048981681488
 30
0.0
 10
182.5474687911414
 20
120.1048981681488
 30
0.0
  0
ELLIPSE
  5
92
330
1F
100
AcDbEntity
  8
0
  6
Continuous
 62
     7
370
    15
100
AcDbEllipse
 10
195.0759696326
 20
96.2781670526
 30
0.0
 11
-11.709272349727
 21
24.67718644093743
 31
0.0
210
0.0
220
0.0
230
1.0
 40
0.3419987131
 41
0.1689292745891304
 42
1.080116497809152
  0
SPLINE
  5
93
330
1F
100
AcDbEntity
  8
0
  6
Continuous
 62
     7
370
    15
100
AcDbSpline
210
0.0
220
0.0
230
1.0
 70
     8
 71
     3
 72
    12
 73
     8
 74
     0
 42
0.00000001
 43
0.00000001
 12
1.0
 22
0.0
 32
0.0
 13
1.0
 23
0.0
 33
0.0
 40
0.0
 40
0.0
 40
0.0
 40
0.0
 40
0.2500000000000026
 40
0.2500000000000026
 40
0.5000000000000051
 40
0.5000000000000051
 40
1.0
 40
1.0
 40
1.0
 40
1.0
 10
182.5474687911414
 20
72.45143593714486
 30
0.0
 10
182.4838322369277
 20
72.45143593714486
 30
0.0
 10
182.4242521100615
 20
72.45969270807662
 30
0.0
 10
182.3256153686951
 20
72.48389477008445
 30
0.0
 10
182.2866567443148
 20
72.49914158911858
 30
0.0
 10
182.1872778048069
 20
72.5487464611787
 30
0.0
 10
182.1453198996414
 20
72.58617810929753
 30
0.0
 10
182.1144560892489
 20
72.62552557541518
 30
0.0
  0
LINE
  5
94
330
1F
100
AcDbEntity
  8
0
  6
Continuous
 62
     7
370
    15
100
AcDbLine
 10
185.491955164
 20
72.4514359371
 30
0.0
 11
182.5474687911
 21
72.4514359371
 31
0.0
  0
SPLINE
  5
95
330
1F
100
AcDbEntity
  8
0
  6
Continuous
 62
     7
370
    15
100
AcDbSpline
210
0.0
220
0.0
230
1.0
 70
     8
 71
     3
 72
    12
 73
     8
 74
     0
 42
0.00000001
 43
0.00000001
 12
1.0
 22
0.0
 32
0.0
 13
1.0
 23
0.0
 33
0.0
 40
0.0
 40
0.0
 40
0.0
 40
0.0
 40
0.5000000000000051
 40
0.5000000000000051
 40
0.7500000000000026
 40
0.7500000000000026
 40
1.0
 40
1.0
 40
1.0
 40
1.0
 10
185.9249678659007
 20
72.62552557541521
 30
0.0
 10
185.8941161553365
 20
72.58619353505271
 30
0.0
 10
185.8522232918758
 20
72.54878176952447
 30
0.0
 10
185.7527024140826
 20
72.49911084490856
 30
0.0
 10
185.7130882493583
 20
72.48372176230072
 30
0.0
 10
185.6159852155789
 20
72.45988854663348
 30
0.0
 10
185.5554865429285
 20
72.45143593714468
 30
0.0
 10
185.4919551640085
 20
72.45143593714468
 30
0.0
  0
ELLIPSE
  5
96
330
1F
100
AcDbEntity
  8
0
  6
Continuous
 62
     7
370
    15
100
AcDbEllipse
 10
172.9634543226
 20
96.2781670526
 30
0.0
 11
-11.70927234972717
 21
24.67718644093742
 31
0.0
210
0.0
220
0.0
230
1.0
 40
0.3419987131
 41
3.310521928178952
 42
4.221709151398942
  0
SPLINE
  5
97
330
1F
100
AcDbEntity
  8
0
  6
Continuous
 62
     7
370
    15
100
AcDbSpline
210
0.0
220
0.0
230
1.0
 70
     8
 71
     3
 72
    12
 73
     8
 74
     0
 42
0.00000001
 43
0.00000001
 12
1.0
 22
0.0
 32
0.0
 13
1.0
 23
0.0
 33
0.0
 40
0.0
 40
0.0
 40
0.0
 40
0.0
 40
0.2499999999999996
 40
0.2499999999999996
 40
0.4999999999999991
 40
0.4999999999999991
 40
1.0
 40
1.0
 40
1.0
 40
1.0
 10
185.4919551640085
 20
88.70935708346612
 30
0.0
 10
185.5555917182222
 20
88.70935708346612
 30
0.0
 10
185.6151718450884
 20
88.68331018040816
 30
0.0
 10
185.7138085864547
 20
88.60782302150824
 30
0.0
 10
185.752767210835
 20
88.56060398297753
 30
0.0
 10
185.8521461503429
 20
88.40886433188398
 30
0.0
 10
185.8941040555084
 20
88.2966621076998
 30
0.0
 10
185.9249678659009
 20
88.18171405460255
 30
0.0
  0
LINE
  5
98
330
1F
100
AcDbEntity
  8
0
  6
Continuous
 62
     7
370
    15
100
AcDbLine
 10
182.5474687911
 20
88.7093570835
 30
0.0
 11
185.491955164
 21
88.7093570835
 31
0.0
  0
SPLINE
  5
99
330
1F
100
AcDbEntity
  8
0
  6
Continuous
 62
     7
370
    15
100
AcDbSpline
210
0.0
220
0.0
230
1.0
 70
     8
 71
     3
 72
    12
 73
     8
 74
     0
 42
0.00000001
 43
0.00000001
 12
1.0
 22
0.0
 32
0.0
 13
1.0
 23
0.0
 33
0.0
 40
0.0
 40
0.0
 40
0.0
 40
0.0
 40
0.5000000000000004
 40
0.5000000000000004
 40
0.7500000000000002
 40
0.7500000000000002
 40
1.0
 40
1.0
 40
1.0
 40
1.0
 10
182.1144560892491
 20
88.1817140546025
 30
0.0
 10
182.1453077998133
 20
88.29661704353933
 30
0.0
 10
182.187200663274
 20
88.4087559395882
 30
0.0
 10
182.2867215410672
 20
88.56069822118907
 30
0.0
 10
182.3263357057915
 20
88.60836283071397
 30
0.0
 10
182.4234387395709
 20
88.68269916132935
 30
0.0
 10
182.4839374122213
 20
88.70935708346649
 30
0.0
 10
182.5474687911413
 20
88.70935708346651
 30
0.0
  0
ELLIPSE
  5
9A
330
1F
100
AcDbEntity
  8
0
  6
Continuous
 62
     7
370
    15
100
AcDbEllipse
 10
195.0759696326
 20
96.2781670526
 30
0.0
 11
11.70927234972708
 21
24.67718644093743
 31
0.0
210
0.0
220
0.0
230
1.0
 40
0.3419987131
 41
2.061476155780656
 42
2.972663379000675
  0
LINE
  5
9B
330
1F
100
AcDbEntity
  8
0
  6
Continuous
 62
     7
370
    15
100
AcDbLine
 10
261.0197119776
 20
85.4781670526
 30
0.0
 11
261.0197119776
 21
86.2781670526
 31
0.0
  0
LINE
  5
9C
330
1F
100
AcDbEntity
  8
0
  6
Continuous
 62
     7
370
    15
100
AcDbLine
 10
200.0197119776
 20
67.2781670526
 30
0.0
 11
200.8197119776
 21
67.2781670526
 31
0.0
  0
LINE
  5
9D
330
1F
100
AcDbEntity
  8
0
  6
Continuous
 62
     7
370
    15
100
AcDbLine
 10
200.8197119776
 20
66.2781670526
 30
0.0
 11
199.0197119776
 21
66.2781670526
 31
0.0
  0
LINE
  5
9E
330
1F
100
AcDbEntity
  8
0
  6
Continuous
 62
     7
370
    15
100
AcDbLine
 10
262.0197119776
 20
87.2781670526
 30
0.0
 11
262.0197119776
 21
85.4781670526
 31
0.0
  0
CIRCLE
  5
9F
330
1F
100
AcDbEntity
  8
0
  6
Continuous
 62
     7
370
    15
100
AcDbCircle
 10
214.0197119776
 20
76.2781670526
 30
0.0
 40
5.499999999999986
  0
CIRCLE
  5
A0
330
1F
100
AcDbEntity
  8
0
  6
Continuous
 62
     7
370
    15
100
AcDbCircle
 10
234.0197119776
 20
76.2781670526
 30
0.0
 40
5.5
  0
CIRCLE
  5
A1
330
1F
100
AcDbEntity
  8
0
  6
Continuous
 62
     7
370
    15
100
AcDbCircle
 10
254.0197119776
 20
76.2781670526
 30
0.0
 40
5.5
  0
LINE
  5
A2
330
1F
100
AcDbEntity
  8
0
  6
Continuous
 62
     7
370
    15
100
AcDbLine
 10
261.0197119776
 20
67.2781670526
 30
0.0
 11
261.0197119776
 21
85.4781670526
 31
0.0
  0
LINE
  5
A3
330
1F
100
AcDbEntity
  8
0
  6
Continuous
 62
     7
370
    15
100
AcDbLine
 10
200.8197119776
 20
67.2781670526
 30
0.0
 11
261.0197119776
 21
67.2781670526
 31
0.0
  0
LINE
  5
A4
330
1F
100
AcDbEntity
  8
0
  6
Continuous
 62
     7
370
    15
100
AcDbLine
 10
261.0197119776
 20
66.2781670526
 30
0.0
 11
261.0197119776
 21
67.2781670526
 31
0.0
  0
LINE
  5
A5
330
1F
100
AcDbEntity
  8
0
  6
Continuous
 62
     7
370
    15
100
AcDbLine
 10
262.0197119776
 20
67.2781670526
 30
0.0
 11
261.0197119776
 21
67.2781670526
 31
0.0
  0
LINE
  5
A6
330
1F
100
AcDbEntity
  8
0
  6
Continuous
 62
     7
370
    15
100
AcDbLine
 10
261.0197119776
 20
66.2781670526
 30
0.0
 11
262.0197119776
 21
67.2781670526
 31
0.0
  0
LINE
  5
A7
330
1F
100
AcDbEntity
  8
0
  6
Continuous
 62
     7
370
    15
100
AcDbLine
 10
262.0197119776
 20
85.4781670526
 30
0.0
 11
262.0197119776
 21
67.2781670526
 31
0.0
  0
LINE
  5
A8
330
1F
100
AcDbEntity
  8
0
  6
Continuous
 62
     7
370
    15
100
AcDbLine
 10
261.0197119776
 20
66.2781670526
 30
0.0
 11
200.8197119776
 21
66.2781670526
 31
0.0
  0
SPLINE
  5
A9
330
1F
100
AcDbEntity
  8
0
  6
Continuous
 62
     7
370
    15
100
AcDbSpline
210
0.0
220
0.0
230
1.0
 70
     8
 71
     3
 72
    16
 73
    12
 74
     0
 42
0.00000001
 43
0.00000001
 12
1.0
 22
0.0
 32
0.0
 13
1.0
 23
0.0
 33
0.0
 40
0.0
 40
0.0
 40
0.0
 40
0.0
 40
0.2499999999999995
 40
0.2499999999999995
 40
0.499999999999999
 40
0.499999999999999
 40
0.6249999999999992
 40
0.6249999999999992
 40
0.7499999999999993
 40
0.7499999999999993
 40
1.0
 40
1.0
 40
1.0
 40
1.0
 10
172.9788509494459
 20
78.9290097714543
 30
0.0
 10
173.0105789106386
 20
78.92821265463337
 30
0.0
 10
173.0452065009891
 20
78.9276215797781
 30
0.0
 10
173.1249002630528
 20
78.92661005434366
 30
0.0
 10
173.1699417230564
 20
78.92620994616875
 30
0.0
 10
173.2527944499069
 20
78.92525207426493
 30
0.0
 10
173.2827089111067
 20
78.9248703930045
 30
0.0
 10
173.3486952416647
 20
78.92379417894595
 30
0.0
 10
173.3854288671264
 20
78.92307661305183
 30
0.0
 10
173.4979255866962
 20
78.92031573537015
 30
0.0
 10
173.5682669347945
 20
78.91782864349858
 30
0.0
 10
173.6247350886997
 20
78.91565536509145
 30
0.0
  0
SPLINE
  5
AA
330
1F
100
AcDbEntity
  8
0
  6
Continuous
 62
     7
370
    15
100
AcDbSpline
210
0.0
220
0.0
230
1.0
 70
     8
 71
     3
 72
    14
 73
    10
 74
     0
 42
0.00000001
 43
0.00000001
 12
1.0
 22
0.0
 32
0.0
 13
1.0
 23
0.0
 33
0.0
 40
0.0
 40
0.0
 40
0.0
 40
0.0
 40
0.1250000000000003
 40
0.1250000000000003
 40
0.2500000000000007
 40
0.2500000000000007
 40
0.4999999999999994
 40
0.4999999999999994
 40
1.0
 40
1.0
 40
1.0
 40
1.0
 10
173.624735088668
 20
78.91565536511418
 30
0.0
 10
173.6373268826129
 20
78.91517074729185
 30
0.0
 10
173.6521979909069
 20
78.91346056935949
 30
0.0
 10
173.6843820823401
 20
78.9053450206086
 30
0.0
 10
173.6999862138159
 20
78.89912923234729
 30
0.0
 10
173.735873353528
 20
78.88091012064571
 30
0.0
 10
173.7497253947967
 20
78.8691450923121
 30
0.0
 10
173.7832151367293
 20
78.83734995589478
 30
0.0
 10
173.793877397305
 20
78.81955652405163
 30
0.0
 10
173.8020153541999
 20
78.80312539320725
 30
0.0
  0
LINE
  5
AB
330
1F
100
AcDbEntity
  8
0
  6
Continuous
 62
     7
370
    15
100
AcDbLine
 10
173.8197119776
 20
90.2936868201
 30
0.0
 11
173.8197119776
 21
78.4383467738
 31
0.0
  0
SPLINE
  5
AC
330
1F
100
AcDbEntity
  8
0
  6
Continuous
 62
     7
370
    15
100
AcDbSpline
210
0.0
220
0.0
230
1.0
 70
     8
 71
     3
 72
    16
 73
    12
 74
     0
 42
0.00000001
 43
0.00000001
 12
1.0
 22
0.0
 32
0.0
 13
1.0
 23
0.0
 33
0.0
 40
0.0
 40
0.0
 40
0.0
 40
0.0
 40
0.5000000000000014
 40
0.5000000000000014
 40
0.7499999999999986
 40
0.7499999999999986
 40
0.8749999999999982
 40
0.8749999999999982
 40
0.9374999999999991
 40
0.9374999999999991
 40
1.0
 40
1.0
 40
1.0
 40
1.0
 10
173.8197119775749
 20
90.29368682007227
 30
0.0
 10
173.8197119775749
 20
90.40821655077121
 30
0.0
 10
173.8156546754599
 20
90.52353262596073
 30
0.0
 10
173.789997432665
 20
90.69845571578827
 30
0.0
 10
173.7786819869229
 20
90.7582850187832
 30
0.0
 10
173.7446506196143
 20
90.84287620503139
 30
0.0
 10
173.7307716384105
 20
90.87154579117544
 30
0.0
 10
173.6948359566431
 20
90.90135357812171
 30
0.0
 10
173.6798856373804
 20
90.90768873148134
 30
0.0
 10
173.6499871246385
 20
90.9064632686111
 30
0.0
 10
173.6364542642733
 20
90.8998646825763
 30
0.0
 10
173.6247350886993
 20
90.89121699451988
 30
0.0
  0
SPLINE
  5
AD
330
1F
100
AcDbEntity
  8
0
  6
Continuous
 62
     7
370
    15
100
AcDbSpline
210
0.0
220
0.0
230
1.0
 70
     8
 71
     3
 72
    14
 73
    10
 74
     0
 42
0.00000001
 43
0.00000001
 12
1.0
 22
0.0
 32
0.0
 13
1.0
 23
0.0
 33
0.0
 40
0.0
 40
0.0
 40
0.0
 40
0.0
 40
0.25
 40
0.25
 40
0.5
 40
0.5
 40
0.75
 40
0.75
 40
1.0
 40
1.0
 40
1.0
 40
1.0
 10
173.6247350887061
 20
90.89121699451121
 30
0.0
 10
173.5682754228224
 20
90.84955488481242
 30
0.0
 10
173.4974029479602
 20
90.8187214042242
 30
0.0
 10
173.3489365900782
 20
90.82443591283737
 30
0.0
 10
173.2797413868704
 20
90.8600068402703
 30
0.0
 10
173.1700242008009
 20
90.9469507527442
 30
0.0
 10
173.1247783118689
 20
90.99938306610929
 30
0.0
 10
173.045161180902
 20
91.1079361476278
 30
0.0
 10
173.0105585614452
 20
91.16491923387028
 30
0.0
 10
172.9788509494463
 20
91.22348531652817
 30
0.0
  0
SPLINE
  5
AE
330
1F
100
AcDbEntity
  8
0
  6
Continuous
 62
     7
370
    15
100
AcDbSpline
210
0.0
220
0.0
230
1.0
 70
     8
 71
     3
 72
    10
 73
     6
 74
     0
 42
0.00000001
 43
0.00000001
 12
1.0
 22
0.0
 32
0.0
 13
1.0
 23
0.0
 33
0.0
 40
0.0
 40
0.0
 40
0.0
 40
0.0
 40
0.5
 40
0.5
 40
1.0
 40
1.0
 40
1.0
 40
1.0
 10
172.6983916340153
 20
92.07630390817451
 30
0.0
 10
172.7292702176273
 20
91.92667535631482
 30
0.0
 10
172.7652629253506
 20
91.78017993879122
 30
0.0
 10
172.8546031768477
 20
91.49498830025045
 30
0.0
 10
172.9070614796933
 20
91.3560852745345
 30
0.0
 10
172.9788509494464
 20
91.22348531652798
 30
0.0
  0
SPLINE
  5
AF
330
1F
100
AcDbEntity
  8
0
  6
Continuous
 62
     7
370
    15
100
AcDbSpline
210
0.0
220
0.0
230
1.0
 70
     8
 71
     3
 72
    10
 73
     6
 74
     0
 42
0.00000001
 43
0.00000001
 12
1.0
 22
0.0
 32
0.0
 13
1.0
 23
0.0
 33
0.0
 40
0.0
 40
0.0
 40
0.0
 40
0.0
 40
0.5
 40
0.5
 40
1.0
 40
1.0
 40
1.0
 40
1.0
 10
172.9788509494457
 20
101.3328487887645
 30
0.0
 10
172.9070614796929
 20
101.2002488307581
 30
0.0
 10
172.8546031768474
 20
101.0613458050424
 30
0.0
 10
172.7652629253505
 20
100.7761541665021
 30
0.0
 10
172.7292702176272
 20
100.6296587489787
 30
0.0
 10
172.6983916340153
 20
100.4800301971192
 30
0.0
  0
SPLINE
  5
B0
330
1F
100
AcDbEntity
  8
0
  6
Continuous
 62
     7
370
    15
100
AcDbSpline
210
0.0
220
0.0
230
1.0
 70
     8
 71
     3
 72
    14
 73
    10
 74
     0
 42
0.00000001
 43
0.00000001
 12
1.0
 22
0.0
 32
0.0
 13
1.0
 23
0.0
 33
0.0
 40
0.0
 40
0.0
 40
0.0
 40
0.0
 40
0.25
 40
0.25
 40
0.5
 40
0.5
 40
0.75
 40
0.75
 40
1.0
 40
1.0
 40
1.0
 40
1.0
 10
172.9788509494451
 20
101.3328487887633
 30
0.0
 10
173.0105596489304
 20
101.3914168800818
 30
0.0
 10
173.0451674675711
 20
101.4484111420219
 30
0.0
 10
173.1248258780604
 20
101.5570112767858
 30
0.0
 10
173.1698881479552
 20
101.6093394121644
 30
0.0
 10
173.2804699935337
 20
101.6968404235267
 30
0.0
 10
173.3481141143489
 20
101.7318858797809
 30
0.0
 10
173.498362404746
 20
101.7376302685369
 30
0.0
 10
173.5683148029763
 20
101.7067501614869
 30
0.0
 10
173.6247350886999
 20
101.6651171107739
 30
0.0
  0
SPLINE
  5
B1
330
1F
100
AcDbEntity
  8
0
  6
Continuous
 62
     7
370
    15
100
AcDbSpline
210
0.0
220
0.0
230
1.0
 70
     8
 71
     3
 72
    16
 73
    12
 74
     0
 42
0.00000001
 43
0.00000001
 12
1.0
 22
0.0
 32
0.0
 13
1.0
 23
0.0
 33
0.0
 40
0.0
 40
0.0
 40
0.0
 40
0.0
 40
0.0625000000000001
 40
0.0625000000000001
 40
0.1250000000000003
 40
0.1250000000000003
 40
0.2500000000000027
 40
0.2500000000000027
 40
0.5000000000000041
 40
0.5000000000000041
 40
1.0
 40
1.0
 40
1.0
 40
1.0
 10
173.624735088668
 20
101.6651171107205
 30
0.0
 10
173.6364693231149
 20
101.6564583105762
 30
0.0
 10
173.6500010785939
 20
101.6498542253409
 30
0.0
 10
173.6799885390237
 20
101.6486572581668
 30
0.0
 10
173.694983245432
 20
101.6550790052327
 30
0.0
 10
173.7307236678268
 20
101.684796158642
 30
0.0
 10
173.744737004828
 20
101.7136035560253
 30
0.0
 10
173.7788810936093
 20
101.7986832776513
 30
0.0
 10
173.7898529977277
 20
101.857058226921
 30
0.0
 10
173.815698537994
 20
102.0327737517096
 30
0.0
 10
173.8197119775749
 20
102.1485687595741
 30
0.0
 10
173.8197119775749
 20
102.2626472852215
 30
0.0
  0
LINE
  5
B2
330
1F
100
AcDbEntity
  8
0
  6
Continuous
 62
     7
370
    15
100
AcDbLine
 10
173.8197119776
 20
114.1179873315
 30
0.0
 11
173.8197119776
 21
102.2626472852
 31
0.0
  0
SPLINE
  5
B3
330
1F
100
AcDbEntity
  8
0
  6
Continuous
 62
     7
370
    15
100
AcDbSpline
210
0.0
220
0.0
230
1.0
 70
     8
 71
     3
 72
    15
 73
    11
 74
     0
 42
0.00000001
 43
0.00000001
 12
1.0
 22
0.0
 32
0.0
 13
1.0
 23
0.0
 33
0.0
 40
0.0
 40
0.0
 40
0.0
 40
0.0
 40
0.1996694923082758
 40
0.601563055965657
 40
0.6942115021434024
 40
0.7879215009338449
 40
0.8400751529137067
 40
0.8923333793106527
 40
0.959241154495334
 40
1.0
 40
1.0
 40
1.0
 40
1.0
 10
173.796546066967
 20
113.7454939024924
 30
0.0
 10
173.793417958803
 20
113.7393615159971
 30
0.0
 10
173.7839936131769
 20
113.7208858985263
 30
0.0
 10
173.7607385162421
 20
113.693926453866
 30
0.0
 10
173.721927086748
 20
113.6680965067281
 30
0.0
 10
173.6998826560579
 20
113.6570423115212
 30
0.0
 10
173.6770584073784
 20
113.6490235686216
 30
0.0
 10
173.6564742469753
 20
113.6439469503731
 30
0.0
 10
173.6387877740725
 20
113.641433881824
 30
0.0
 10
173.6285940708994
 20
113.6408861082604
 30
0.0
 10
173.6247350886996
 20
113.6406787402023
 30
0.0
  0
SPLINE
  5
B4
330
1F
100
AcDbEntity
  8
0
  6
Continuous
 62
     7
370
    15
100
AcDbSpline
210
0.0
220
0.0
230
1.0
 70
     8
 71
     3
 72
    14
 73
    10
 74
     0
 42
0.00000001
 43
0.00000001
 12
1.0
 22
0.0
 32
0.0
 13
1.0
 23
0.0
 33
0.0
 40
0.0
 40
0.0
 40
0.0
 40
0.0
 40
0.2500000000000005
 40
0.2500000000000005
 40
0.500000000000001
 40
0.500000000000001
 40
0.7500000000000004
 40
0.7500000000000004
 40
1.0
 40
1.0
 40
1.0
 40
1.0
 10
173.6247350887061
 20
113.6406787402024
 30
0.0
 10
173.5682880066478
 20
113.6385062727832
 30
0.0
 10
173.497437622605
 20
113.6360081748657
 30
0.0
 10
173.3490011877886
 20
113.6323617160775
 30
0.0
 10
173.2798119361017
 20
113.6313939692262
 30
0.0
 10
173.1701003878608
 20
113.6301264098635
 30
0.0
 10
173.1248587385184
 20
113.6297235689352
 30
0.0
 10
173.0452107203346
 20
113.6287125340075
 30
0.0
 10
173.0105838045685
 20
113.6281215736129
 30
0.0
 10
172.9788509494472
 20
113.6273243338395
 30
0.0
  0
SPLINE
  5
B5
330
1F
100
AcDbEntity
  8
0
  6
Continuous
 62
     7
370
    15
100
AcDbSpline
210
0.0
220
0.0
230
1.0
 70
     8
 71
     3
 72
    18
 73
    14
 74
     0
 42
0.00000001
 43
0.00000001
 12
1.0
 22
0.0
 32
0.0
 13
1.0
 23
0.0
 33
0.0
 40
0.0
 40
0.0
 40
0.0
 40
0.0
 40
0.2499999999999998
 40
0.2499999999999998
 40
0.3749999999999998
 40
0.3749999999999998
 40
0.4999999999999998
 40
0.4999999999999998
 40
0.6249999999999999
 40
0.6249999999999999
 40
0.75
 40
0.75
 40
1.0
 40
1.0
 40
1.0
 40
1.0
 10
172.6983916340153
 20
100.4800301971193
 30
0.0
 10
172.5631060277129
 20
99.82447586169805
 30
0.0
 10
172.46193828147
 20
99.14485476790044
 30
0.0
 10
172.359076938601
 20
98.0894907614064
 30
0.0
 10
172.3329740930778
 20
97.73067669682176
 30
0.0
 10
172.2980841095329
 20
97.00456375269886
 30
0.0
 10
172.2894978512429
 20
96.64247407368273
 30
0.0
 10
172.2893981416773
 20
95.92016441626436
 30
0.0
 10
172.2978865128258
 20
95.55994461415601
 30
0.0
 10
172.3320298923464
 20
94.84137854506206
 30
0.0
 10
172.3578268742003
 20
94.48161282914667
 30
0.0
 10
172.4612280055882
 20
93.41496824215233
 30
0.0
 10
172.5630859977596
 20
92.73195530286996
 30
0.0
 10
172.6983916340153
 20
92.0763039081745
 30
0.0
  0
LINE
  5
B6
330
1F
100
AcDbEntity
  8
0
  6
Continuous
 62
     7
370
    15
100
AcDbLine
 10
171.8197119776
 20
101.4183195405
 30
0.0
 11
171.8197119776
 21
91.1380145648
 31
0.0
  0
LINE
  5
B7
330
1F
100
AcDbEntity
  8
0
  6
Continuous
 62
     7
370
    15
100
AcDbLine
 10
145.5197119776
 20
101.0879457691
 30
0.0
 11
145.5197119776
 21
91.4683883362
 31
0.0
  0
LINE
  5
B8
330
1F
100
AcDbEntity
  8
0
  6
Continuous
 62
     7
370
    15
100
AcDbLine
 10
144.0197119776
 20
100.6549330673
 30
0.0
 11
144.0197119776
 21
91.901401038
 31
0.0
  0
LINE
  5
B9
330
1F
100
AcDbEntity
  8
0
  6
Continuous
 62
     7
370
    15
100
AcDbLine
 10
171.8197119776
 20
78.7580682681
 30
0.0
 11
171.8197119776
 21
91.1380145648
 31
0.0
  0
ARC
  5
BA
330
1F
100
AcDbEntity
  8
0
  6
Continuous
 62
     7
370
    15
100
AcDbCircle
 10
172.0196488885
 20
78.753045157
 30
0.0
 40
0.2000000000000343
100
AcDbArc
 50
88.5608333333
 51
178.5608333333
  0
LINE
  5
BB
330
1F
100
AcDbEntity
  8
0
  6
Continuous
 62
     7
370
    15
100
AcDbLine
 10
171.8197119776
 20
101.4183195405
 30
0.0
 11
171.8197119776
 21
113.7982658372
 31
0.0
  0
ARC
  5
BC
330
1F
100
AcDbEntity
  8
0
  6
Continuous
 62
     7
370
    15
100
AcDbCircle
 10
172.0196488885
 20
113.8032889483
 30
0.0
 40
0.2000000000000343
100
AcDbArc
 50
181.4391666667
 51
271.4391666667
  0
LINE
  5
BD
330
1F
100
AcDbEntity
  8
0
  6
Continuous
 62
     7
370
    15
100
AcDbLine
 10
145.5197119776
 20
79.4188158107
 30
0.0
 11
145.5197119776
 21
91.4683883362
 31
0.0
  0
LINE
  5
BE
330
1F
100
AcDbEntity
  8
0
  6
Continuous
 62
     7
370
    15
100
AcDbLine
 10
145.5197119776
 20
79.4188158107
 30
0.0
 11
171.8197119776
 21
78.7580682681
 31
0.0
  0
LINE
  5
BF
330
1F
100
AcDbEntity
  8
0
  6
Continuous
 62
     7
370
    15
100
AcDbLine
 10
145.5197119776
 20
101.0879457691
 30
0.0
 11
145.5197119776
 21
113.1375182946
 31
0.0
  0
LINE
  5
C0
330
1F
100
AcDbEntity
  8
0
  6
Continuous
 62
     7
370
    15
100
AcDbLine
 10
145.5197119776
 20
113.1375182946
 30
0.0
 11
171.8197119776
 21
113.7982658372
 31
0.0
  0
LINE
  5
C1
330
1F
100
AcDbEntity
  8
0
  6
Continuous
 62
     7
370
    15
100
AcDbLine
 10
172.0246719996
 20
78.9529820679
 30
0.0
 11
172.9788509494
 21
78.9290097715
 31
0.0
  0
LINE
  5
C2
330
1F
100
AcDbEntity
  8
0
  6
Continuous
 62
     7
370
    15
100
AcDbLine
 10
172.0246719996
 20
113.6033520374
 30
0.0
 11
172.9788509495
 21
113.6273243338
 31
0.0
  0
LINE
  5
C3
330
1F
100
AcDbEntity
  8
0
  6
Continuous
 62
     7
370
    15
100
AcDbLine
 10
144.0197119776
 20
112.2714928908
 30
0.0
 11
145.5197119776
 21
113.1375182946
 31
0.0
  0
LINE
  5
C4
330
1F
100
AcDbEntity
  8
0
  6
Continuous
 62
     7
370
    15
100
AcDbLine
 10
144.0197119776
 20
100.6549330673
 30
0.0
 11
144.0197119776
 21
112.2714928908
 31
0.0
  0
LINE
  5
C5
330
1F
100
AcDbEntity
  8
0
  6
Continuous
 62
     7
370
    15
100
AcDbLine
 10
144.0197119776
 20
80.2848412145
 30
0.0
 11
145.5197119776
 21
79.4188158107
 31
0.0
  0
LINE
  5
C6
330
1F
100
AcDbEntity
  8
0
  6
Continuous
 62
     7
370
    15
100
AcDbLine
 10
144.0197119776
 20
80.2848412145
 30
0.0
 11
144.0197119776
 21
91.901401038
 31
0.0
  0
LINE
  5
C7
330
1F
100
AcDbEntity
  8
0
  6
Continuous
 62
     7
370
    15
100
AcDbLine
 10
272.0197119776
 20
67.2781670526
 30
0.0
 11
272.0197119776
 21
96.2781670526
 31
0.0
  0
LINE
  5
C8
330
1F
100
AcDbEntity
  8
0
  6
Continuous
 62
     7
370
    15
100
AcDbLine
 10
271.0197119776
 20
66.2781670526
 30
0.0
 11
272.0197119776
 21
67.2781670526
 31
0.0
  0
LINE
  5
C9
330
1F
100
AcDbEntity
  8
0
  6
Continuous
 62
     7
370
    15
100
AcDbLine
 10
271.0197119776
 20
66.2781670526
 30
0.0
 11
261.0197119776
 21
66.2781670526
 31
0.0
  0
LINE
  5
CA
330
1F
100
AcDbEntity
  8
0
  6
Continuous
 62
     7
370
    15
100
AcDbLine
 10
272.0197119776
 20
96.2781670526
 30
0.0
 11
262.0197119776
 21
102.0516697445
 31
0.0
  0
LINE
  5
CB
330
1F
100
AcDbEntity
  8
0
  6
HIDDEN
 62
     7
370
     0
100
AcDbLine
 10
195.0197119776
 20
96.2781670527
 30
0.0
 11
195.0197119776
 21
122.2781670526
 31
0.0
  0
LINE
  5
CC
330
1F
100
AcDbEntity
  8
0
  6
HIDDEN
 62
     7
370
     0
100
AcDbLine
 10
195.0197119776
 20
122.2781670526
 30
0.0
 11
195.0197119776
 21
70.2867868973
 31
0.0
  0
LINE
  5
CD
330
1F
100
AcDbEntity
  8
0
  6
HIDDEN
 62
     7
370
     0
100
AcDbLine
 10
174.0197119776
 20
120.9781670525
 30
0.0
 11
174.0197119776
 21
71.5781670526
 31
0.0
  0
SPLINE
  5
CE
330
1F
100
AcDbEntity
  8
0
  6
HIDDEN
 62
     7
370
     0
100
AcDbSpline
210
0.0
220
0.0
230
1.0
 70
     8
 71
     3
 72
    58
 73
    54
 74
     0
 42
0.00000001
 43
0.00000001
 12
1.0
 22
0.0
 32
0.0
 13
1.0
 23
0.0
 33
0.0
 40
-0.0624999999999997
 40
-0.0624999999999997
 40
0.0
 40
0.0
 40
0.03125
 40
0.03125
 40
0.0625000000000001
 40
0.0625000000000001
 40
0.0937500000000001
 40
0.0937500000000001
 40
0.1250000000000002
 40
0.1250000000000002
 40
0.1875000000000004
 40
0.1875000000000004
 40
0.2500000000000005
 40
0.2500000000000005
 40
0.2812500000000006
 40
0.2812500000000006
 40
0.3125000000000006
 40
0.3125000000000006
 40
0.3437500000000007
 40
0.3437500000000007
 40
0.3750000000000007
 40
0.3750000000000007
 40
0.4062500000000007
 40
0.4062500000000007
 40
0.4375000000000008
 40
0.4375000000000008
 40
0.4687500000000008
 40
0.4687500000000008
 40
0.5000000000000009
 40
0.5000000000000009
 40
0.562500000000001
 40
0.562500000000001
 40
0.6250000000000011
 40
0.6250000000000011
 40
0.656250000000001
 40
0.656250000000001
 40
0.687500000000001
 40
0.687500000000001
 40
0.7187500000000009
 40
0.7187500000000009
 40
0.7500000000000008
 40
0.7500000000000008
 40
0.7812500000000008
 40
0.7812500000000008
 40
0.8125000000000007
 40
0.8125000000000007
 40
0.8437500000000007
 40
0.8437500000000007
 40
0.8750000000000006
 40
0.8750000000000006
 40
0.9375000000000003
 40
0.9375000000000003
 40
1.0
 40
1.0
 40
1.03125
 40
1.03125
 10
184.0197119775749
 20
96.01379468210342
 30
0.0
 10
184.0197119775749
 20
96.4103532379186
 30
0.0
 10
184.0326878695854
 20
96.54031997746334
 30
0.0
 10
184.0835201716913
 20
96.79599931559548
 30
0.0
 10
184.1219972430127
 20
96.92304040743693
 30
0.0
 10
184.2224022041691
 20
97.16521859337749
 30
0.0
 10
184.2838364464884
 20
97.28007225196698
 30
0.0
 10
184.4289707126701
 20
97.49743737377281
 30
0.0
 10
184.5134126338174
 20
97.60031284585708
 30
0.0
 10
184.7900846634273
 20
97.87693079827423
 30
0.0
 10
185.0131308183955
 20
98.02592291810711
 30
0.0
 10
185.4943948169399
 20
98.22544671309838
 30
0.0
 10
185.7576526722598
 20
98.27802557760063
 30
0.0
 10
186.1491187035446
 20
98.27823735118814
 30
0.0
 10
186.281667447158
 20
98.26524637959874
 30
0.0
 10
186.5382117561733
 20
98.21421015630892
 30
0.0
 10
186.662907642545
 20
98.1764486149061
 30
0.0
 10
186.9051106129788
 20
98.07628907561269
 30
0.0
 10
187.0221739762294
 20
98.01369126586216
 30
0.0
 10
187.2388602954755
 20
97.86896928182657
 30
0.0
 10
187.3398742635432
 20
97.78634517665827
 30
0.0
 10
187.5266674578287
 20
97.59972480604725
 30
0.0
 10
187.609467821783
 20
97.49867643815607
 30
0.0
 10
187.7543462606776
 20
97.28216441728222
 30
0.0
 10
187.8169970440049
 20
97.16527506208327
 30
0.0
 10
187.9174374383788
 20
96.92301766002433
 30
0.0
 10
187.9552964501488
 20
96.79835499520894
 30
0.0
 10
188.0065341546123
 20
96.54202379955416
 30
0.0
 10
188.0196645293854
 20
96.40943586020374
 30
0.0
 10
188.0198064798243
 20
96.01780419163441
 30
0.0
 10
187.9674655635762
 20
95.75459135860017
 30
0.0
 10
187.7683353368381
 20
95.27308402790884
 30
0.0
 10
187.6194982491958
 20
95.04988354663324
 30
0.0
 10
187.3431862126564
 20
94.77303746667152
 30
0.0
 10
187.2404206754052
 20
94.68852537245276
 30
0.0
 10
187.0231037430514
 20
94.54314677572131
 30
0.0
 10
186.9083168325145
 20
94.48163134411946
 30
0.0
 10
186.6663973424086
 20
94.3810752838739
 30
0.0
 10
186.5392704399086
 20
94.34243655803924
 30
0.0
 10
186.2836016042724
 20
94.29137169115191
 30
0.0
 10
186.1537063988945
 20
94.27829721077562
 30
0.0
 10
185.88963161647
 20
94.27803880950201
 30
0.0
 10
185.7593024769847
 20
94.29091487746499
 30
0.0
 10
185.5036131628409
 20
94.34151366879293
 30
0.0
 10
185.3766852964532
 20
94.37981901463056
 30
0.0
 10
185.1342330076111
 20
94.48007484705046
 30
0.0
 10
185.0193163136295
 20
94.54142586596252
 30
0.0
 10
184.801925521859
 20
94.68629470153279
 30
0.0
 10
184.6989402421775
 20
94.7706586548021
 30
0.0
 10
184.4219758745202
 20
95.0471847085882
 30
0.0
 10
184.2728435961617
 20
95.2700445505839
 30
0.0
 10
184.0728914774473
 20
95.75114707064465
 30
0.0
 10
184.0197119775749
 20
96.01379468210342
 30
0.0
 10
184.0197119775749
 20
96.4103532379186
 30
0.0
  0
SPLINE
  5
CF
330
1F
100
AcDbEntity
  8
0
  6
HIDDEN
 62
     7
370
     0
100
AcDbSpline
210
0.0
220
0.0
230
1.0
 70
     8
 71
     3
 72
    12
 73
     8
 74
     0
 42
0.00000001
 43
0.00000001
 12
1.0
 22
0.0
 32
0.0
 13
1.0
 23
0.0
 33
0.0
 40
0.0
 40
0.0
 40
0.0
 40
0.0
 40
0.2499999999999986
 40
0.2499999999999986
 40
0.4999999999999972
 40
0.4999999999999972
 40
1.0
 40
1.0
 40
1.0
 40
1.0
 10
182.5474687911414
 20
88.70935708346629
 30
0.0
 10
182.4838035546108
 20
88.70935708346629
 30
0.0
 10
182.4241973223875
 20
88.68328493498662
 30
0.0
 10
182.3255367974566
 20
88.6077461841655
 30
0.0
 10
182.2865698074414
 20
88.56049524706928
 30
0.0
 10
182.1871829755169
 20
88.40867142910282
 30
0.0
 10
182.1451067280935
 20
88.29586817933776
 30
0.0
 10
182.1144560892491
 20
88.18171405460265
 30
0.0
  0
LINE
  5
D0
330
1F
100
AcDbEntity
  8
0
  6
HIDDEN
 62
     7
370
     0
100
AcDbLine
 10
185.491955164
 20
88.7093570835
 30
0.0
 11
182.5474687911
 21
88.7093570835
 31
0.0
  0
SPLINE
  5
D1
330
1F
100
AcDbEntity
  8
0
  6
HIDDEN
 62
     7
370
     0
100
AcDbSpline
210
0.0
220
0.0
230
1.0
 70
     8
 71
     3
 72
    12
 73
     8
 74
     0
 42
0.00000001
 43
0.00000001
 12
1.0
 22
0.0
 32
0.0
 13
1.0
 23
0.0
 33
0.0
 40
0.0
 40
0.0
 40
0.0
 40
0.0
 40
0.5000000000000037
 40
0.5000000000000037
 40
0.7500000000000018
 40
0.7500000000000018
 40
1.0
 40
1.0
 40
1.0
 40
1.0
 10
185.9249678659007
 20
88.18171405460266
 30
0.0
 10
185.8942684825334
 20
88.29604972166652
 30
0.0
 10
185.8529184144269
 20
88.40740307450788
 30
0.0
 10
185.7531624862074
 20
88.5601398467566
 30
0.0
 10
185.7134655684747
 20
88.60799973260875
 30
0.0
 10
185.6162074168271
 20
88.6826028459582
 30
0.0
 10
185.5554312588364
 20
88.70935708346629
 30
0.0
 10
185.4919551640085
 20
88.70935708346629
 30
0.0
  0
ELLIPSE
  5
D2
330
1F
100
AcDbEntity
  8
0
  6
HIDDEN
 62
     7
370
     0
100
AcDbEllipse
 10
172.9634543226
 20
96.2781670526
 30
0.0
 11
-11.70927234972711
 21
24.67718644093743
 31
0.0
210
0.0
220
0.0
230
1.0
 40
0.3419987131
 41
3.31052192817896
 42
4.22170915139895
  0
SPLINE
  5
D3
330
1F
100
AcDbEntity
  8
0
  6
HIDDEN
 62
     7
370
     0
100
AcDbSpline
210
0.0
220
0.0
230
1.0
 70
     8
 71
     3
 72
    12
 73
     8
 74
     0
 42
0.00000001
 43
0.00000001
 12
1.0
 22
0.0
 32
0.0
 13
1.0
 23
0.0
 33
0.0
 40
0.0
 40
0.0
 40
0.0
 40
0.0
 40
0.2499999999999984
 40
0.2499999999999984
 40
0.4999999999999968
 40
0.4999999999999968
 40
1.0
 40
1.0
 40
1.0
 40
1.0
 10
185.4919551640085
 20
72.45143593714492
 30
0.0
 10
185.555620400539
 20
72.45143593714492
 30
0.0
 10
185.6152266327623
 20
72.45970071281079
 30
0.0
 10
185.7138871576932
 20
72.48391949439393
 30
0.0
 10
185.7528541477084
 20
72.49917681370307
 30
0.0
 10
185.8522409796329
 20
72.54881016796502
 30
0.0
 10
185.8943172270563
 20
72.58644987613913
 30
0.0
 10
185.9249678659007
 20
72.62552557541527
 30
0.0
  0
LINE
  5
D4
330
1F
100
AcDbEntity
  8
0
  6
HIDDEN
 62
     7
370
     0
100
AcDbLine
 10
182.5474687911
 20
72.4514359371
 30
0.0
 11
185.491955164
 21
72.4514359371
 31
0.0
  0
SPLINE
  5
D5
330
1F
100
AcDbEntity
  8
0
  6
HIDDEN
 62
     7
370
     0
100
AcDbSpline
210
0.0
220
0.0
230
1.0
 70
     8
 71
     3
 72
    12
 73
     8
 74
     0
 42
0.00000001
 43
0.00000001
 12
1.0
 22
0.0
 32
0.0
 13
1.0
 23
0.0
 33
0.0
 40
0.0
 40
0.0
 40
0.0
 40
0.0
 40
0.5000000000000032
 40
0.5000000000000032
 40
0.7500000000000016
 40
0.7500000000000016
 40
1.0
 40
1.0
 40
1.0
 40
1.0
 10
182.1144560892491
 20
72.62552557541527
 30
0.0
 10
182.1451554726164
 20
72.58638773301936
 30
0.0
 10
182.186505540723
 20
72.54922795029387
 30
0.0
 10
182.2862614689424
 20
72.49929144466613
 30
0.0
 10
182.3259583866751
 20
72.48383857452237
 30
0.0
 10
182.4232165383227
 20
72.45991903092332
 30
0.0
 10
182.4839926963134
 20
72.45143593714492
 30
0.0
 10
182.5474687911414
 20
72.45143593714492
 30
0.0
  0
ELLIPSE
  5
D6
330
1F
100
AcDbEntity
  8
0
  6
HIDDEN
 62
     7
370
     0
100
AcDbEllipse
 10
195.0759696326
 20
96.2781670526
 30
0.0
 11
11.70927234972703
 21
24.67718644093743
 31
0.0
210
0.0
220
0.0
230
1.0
 40
0.3419987131
 41
2.06147615578065
 42
2.972663379000668
  0
SPLINE
  5
D7
330
1F
100
AcDbEntity
  8
0
  6
HIDDEN
 62
     7
370
     0
100
AcDbSpline
210
0.0
220
0.0
230
1.0
 70
     8
 71
     3
 72
    12
 73
     8
 74
     0
 42
0.00000001
 43
0.00000001
 12
1.0
 22
0.0
 32
0.0
 13
1.0
 23
0.0
 33
0.0
 40
0.0
 40
0.0
 40
0.0
 40
0.0
 40
0.2499999999999996
 40
0.2499999999999996
 40
0.4999999999999991
 40
0.4999999999999991
 40
1.0
 40
1.0
 40
1.0
 40
1.0
 10
182.5474687911414
 20
120.1048981681489
 30
0.0
 10
182.4838035546108
 20
120.1048981681489
 30
0.0
 10
182.4241973223875
 20
120.0966333924831
 30
0.0
 10
182.3255367974566
 20
120.0724146108999
 30
0.0
 10
182.2865698074414
 20
120.0571572915908
 30
0.0
 10
182.1871829755169
 20
120.0075239373289
 30
0.0
 10
182.1451067280935
 20
119.9698842291547
 30
0.0
 10
182.1144560892491
 20
119.9308085298786
 30
0.0
  0
LINE
  5
D8
330
1F
100
AcDbEntity
  8
0
  6
HIDDEN
 62
     7
370
     0
100
AcDbLine
 10
185.491955164
 20
120.1048981681
 30
0.0
 11
182.5474687911
 21
120.1048981681
 31
0.0
  0
SPLINE
  5
D9
330
1F
100
AcDbEntity
  8
0
  6
HIDDEN
 62
     7
370
     0
100
AcDbSpline
210
0.0
220
0.0
230
1.0
 70
     8
 71
     3
 72
    12
 73
     8
 74
     0
 42
0.00000001
 43
0.00000001
 12
1.0
 22
0.0
 32
0.0
 13
1.0
 23
0.0
 33
0.0
 40
0.0
 40
0.0
 40
0.0
 40
0.0
 40
0.4999999999999953
 40
0.4999999999999953
 40
0.7499999999999977
 40
0.7499999999999977
 40
1.0
 40
1.0
 40
1.0
 40
1.0
 10
185.9249678659007
 20
119.9308085298786
 30
0.0
 10
185.8942684825334
 20
119.9699463722745
 30
0.0
 10
185.8529184144269
 20
120.007106155
 30
0.0
 10
185.7531624862074
 20
120.0570426606277
 30
0.0
 10
185.7134655684747
 20
120.0724955307715
 30
0.0
 10
185.6162074168271
 20
120.0964150743706
 30
0.0
 10
185.5554312588364
 20
120.1048981681489
 30
0.0
 10
185.4919551640085
 20
120.1048981681489
 30
0.0
  0
ELLIPSE
  5
DA
330
1F
100
AcDbEntity
  8
0
  6
HIDDEN
 62
     7
370
     0
100
AcDbEllipse
 10
172.9634543226
 20
96.2781670526
 30
0.0
 11
11.70927234972726
 21
24.67718644093742
 31
0.0
210
0.0
220
0.0
230
1.0
 40
0.3419987131
 41
5.203068809370468
 42
6.114256032590515
  0
SPLINE
  5
DB
330
1F
100
AcDbEntity
  8
0
  6
HIDDEN
 62
     7
370
     0
100
AcDbSpline
210
0.0
220
0.0
230
1.0
 70
     8
 71
     3
 72
    12
 73
     8
 74
     0
 42
0.00000001
 43
0.00000001
 12
1.0
 22
0.0
 32
0.0
 13
1.0
 23
0.0
 33
0.0
 40
0.0
 40
0.0
 40
0.0
 40
0.0
 40
0.2500000000000016
 40
0.2500000000000016
 40
0.5000000000000032
 40
0.5000000000000032
 40
1.0
 40
1.0
 40
1.0
 40
1.0
 10
185.4919551640085
 20
103.8469770218278
 30
0.0
 10
185.555620400539
 20
103.8469770218278
 30
0.0
 10
185.6152266327623
 20
103.8730491703075
 30
0.0
 10
185.7138871576932
 20
103.9485879211286
 30
0.0
 10
185.7528541477084
 20
103.9958388582248
 30
0.0
 10
185.8522409796329
 20
104.1476626761913
 30
0.0
 10
185.8943172270563
 20
104.2604659259563
 30
0.0
 10
185.9249678659007
 20
104.3746200506914
 30
0.0
  0
LINE
  5
DC
330
1F
100
AcDbEntity
  8
0
  6
HIDDEN
 62
     7
370
     0
100
AcDbLine
 10
182.5474687911
 20
103.8469770218
 30
0.0
 11
185.491955164
 21
103.8469770218
 31
0.0
  0
SPLINE
  5
DD
330
1F
100
AcDbEntity
  8
0
  6
HIDDEN
 62
     7
370
     0
100
AcDbSpline
210
0.0
220
0.0
230
1.0
 70
     8
 71
     3
 72
    12
 73
     8
 74
     0
 42
0.00000001
 43
0.00000001
 12
1.0
 22
0.0
 32
0.0
 13
1.0
 23
0.0
 33
0.0
 40
0.0
 40
0.0
 40
0.0
 40
0.0
 40
0.5000000000000013
 40
0.5000000000000013
 40
0.7500000000000007
 40
0.7500000000000007
 40
1.0
 40
1.0
 40
1.0
 40
1.0
 10
182.1144560892491
 20
104.3746200506914
 30
0.0
 10
182.1451554726164
 20
104.2602843836276
 30
0.0
 10
182.1865055407229
 20
104.1489310307862
 30
0.0
 10
182.2862614689424
 20
103.9961942585375
 30
0.0
 10
182.3259583866751
 20
103.9483343726854
 30
0.0
 10
182.4232165383227
 20
103.8737312593359
 30
0.0
 10
182.4839926963134
 20
103.8469770218278
 30
0.0
 10
182.5474687911414
 20
103.8469770218278
 30
0.0
  0
ELLIPSE
  5
DE
330
1F
100
AcDbEntity
  8
0
  6
HIDDEN
 62
     7
370
     0
100
AcDbEllipse
 10
195.0759696326
 20
96.2781670526
 30
0.0
 11
-11.70927234972714
 21
24.67718644093745
 31
0.0
210
0.0
220
0.0
230
1.0
 40
0.3419987131
 41
0.1689292745891116
 42
1.080116497809132
  0
ARC
  5
DF
330
1F
100
AcDbEntity
  8
0
  6
HIDDEN
 62
     7
370
     0
100
AcDbCircle
 10
218.0197119776
 20
68.2781670526
 30
0.0
 40
18.0
100
AcDbArc
 50
90.0
 51
180.0
  0
LINE
  5
E0
330
1F
100
AcDbEntity
  8
0
  6
HIDDEN
 62
     7
370
     0
100
AcDbLine
 10
218.0197119776
 20
86.2781670526
 30
0.0
 11
261.0197119776
 21
86.2781670526
 31
0.0
  0
LINE
  5
E1
330
1F
100
AcDbEntity
  8
0
  6
HIDDEN
 62
     7
370
     0
100
AcDbLine
 10
199.0197119776
 20
66.2781670526
 30
0.0
 11
200.0197119776
 21
67.2781670526
 31
0.0
  0
LINE
  5
E2
330
1F
100
AcDbEntity
  8
0
  6
HIDDEN
 62
     7
370
     0
100
AcDbLine
 10
200.0197119776
 20
67.2781670526
 30
0.0
 11
200.0197119776
 21
68.2781670526
 31
0.0
  0
LINE
  5
E3
330
1F
100
AcDbEntity
  8
0
  6
HIDDEN
 62
     7
370
     0
100
AcDbLine
 10
262.0197119776
 20
87.2781670526
 30
0.0
 11
261.0197119776
 21
86.2781670526
 31
0.0
  0
CIRCLE
  5
E4
330
1F
100
AcDbEntity
  8
0
  6
HIDDEN
 62
     7
370
     0
100
AcDbCircle
 10
214.0197119776
 20
76.2781670526
 30
0.0
 40
4.249999999999986
  0
CIRCLE
  5
E5
330
1F
100
AcDbEntity
  8
0
  6
HIDDEN
 62
     7
370
     0
100
AcDbCircle
 10
234.0197119776
 20
76.2781670526
 30
0.0
 40
4.25
  0
CIRCLE
  5
E6
330
1F
100
AcDbEntity
  8
0
  6
HIDDEN
 62
     7
370
     0
100
AcDbCircle
 10
254.0197119776
 20
76.2781670526
 30
0.0
 40
4.249999999999986
  0
LINE
  5
E7
330
1F
100
AcDbEntity
  8
0
  6
HIDDEN
 62
     7
370
     0
100
AcDbLine
 10
174.0197119776
 20
76.7281670526
 30
0.0
 11
174.0197119776
 21
115.8090320311
 31
0.0
  0
SPLINE
  5
E8
330
1F
100
AcDbEntity
  8
0
  6
HIDDEN
 62
     7
370
     0
100
AcDbSpline
210
0.0
220
0.0
230
1.0
 70
     8
 71
     3
 72
    14
 73
    10
 74
     0
 42
0.00000001
 43
0.00000001
 12
1.0
 22
0.0
 32
0.0
 13
1.0
 23
0.0
 33
0.0
 40
0.0
 40
0.0
 40
0.0
 40
0.0
 40
0.25
 40
0.25
 40
0.5
 40
0.5
 40
0.75
 40
0.75
 40
1.0
 40
1.0
 40
1.0
 40
1.0
 10
172.9788509494466
 20
108.5726425977203
 30
0.0
 10
173.0105660837773
 20
108.5148594153771
 30
0.0
 10
173.0451806090776
 20
108.4584467543022
 30
0.0
 10
173.124851804493
 20
108.3508473042868
 30
0.0
 10
173.1699076815234
 20
108.2989346773658
 30
0.0
 10
173.2804620940288
 20
108.2127360526685
 30
0.0
 10
173.3478475082329
 20
108.1786466326968
 30
0.0
 10
173.498477028131
 20
108.1765442406799
 30
0.0
 10
173.5683042648964
 20
108.2099160135247
 30
0.0
 10
173.6247350886998
 20
108.2537286820754
 30
0.0
  0
SPLINE
  5
E9
330
1F
100
AcDbEntity
  8
0
  6
HIDDEN
 62
     7
370
     0
100
AcDbSpline
210
0.0
220
0.0
230
1.0
 70
     8
 71
     3
 72
    16
 73
    12
 74
     0
 42
0.00000001
 43
0.00000001
 12
1.0
 22
0.0
 32
0.0
 13
1.0
 23
0.0
 33
0.0
 40
0.0
 40
0.0
 40
0.0
 40
0.0
 40
0.0625000000000005
 40
0.0625000000000005
 40
0.1250000000000009
 40
0.1250000000000009
 40
0.2499999999999976
 40
0.2499999999999976
 40
0.5
 40
0.5
 40
1.0
 40
1.0
 40
1.0
 40
1.0
 10
173.624735088668
 20
108.253728682106
 30
0.0
 10
173.6364693231149
 20
108.2628390953539
 30
0.0
 10
173.6500010785939
 20
108.2709164513003
 30
0.0
 10
173.6799885390238
 20
108.2791632929772
 30
0.0
 10
173.694983245432
 20
108.2782359753896
 30
0.0
 10
173.7307236678268
 20
108.2654694558579
 30
0.0
 10
173.744737004828
 20
108.2478208093475
 30
0.0
 10
173.7788810936093
 20
108.1931678893159
 30
0.0
 10
173.7898529977277
 20
108.1517682216575
 30
0.0
 10
173.815698537994
 20
108.0232784779347
 30
0.0
 10
173.8197119775749
 20
107.932660390296
 30
0.0
 10
173.8197119775749
 20
107.8404412857419
 30
0.0
  0
LINE
  5
EA
330
1F
100
AcDbEntity
  8
0
  6
HIDDEN
 62
     7
370
     0
100
AcDbLine
 10
173.8197119776
 20
84.7158928196
 30
0.0
 11
173.8197119776
 21
107.8404412857
 31
0.0
  0
SPLINE
  5
EB
330
1F
100
AcDbEntity
  8
0
  6
HIDDEN
 62
     7
370
     0
100
AcDbSpline
210
0.0
220
0.0
230
1.0
 70
     8
 71
     3
 72
    16
 73
    12
 74
     0
 42
0.00000001
 43
0.00000001
 12
1.0
 22
0.0
 32
0.0
 13
1.0
 23
0.0
 33
0.0
 40
0.0
 40
0.0
 40
0.0
 40
0.0
 40
0.4999999999999951
 40
0.4999999999999951
 40
0.7499999999999976
 40
0.7499999999999976
 40
0.8749999999999988
 40
0.8749999999999988
 40
0.9374999999999993
 40
0.9374999999999993
 40
1.0
 40
1.0
 40
1.0
 40
1.0
 10
173.8197119775749
 20
84.71589281955183
 30
0.0
 10
173.8197119775749
 20
84.62330896864792
 30
0.0
 10
173.8156546754599
 20
84.53309651278767
 30
0.0
 10
173.789997432665
 20
84.40515538566929
 30
0.0
 10
173.7786819869229
 20
84.36274217125738
 30
0.0
 10
173.7446506196143
 20
84.30842812780622
 30
0.0
 10
173.7307716384105
 20
84.29084679241633
 30
0.0
 10
173.6948359566431
 20
84.27806310448136
 30
0.0
 10
173.6798856373804
 20
84.27718760633326
 30
0.0
 10
173.6499871246385
 20
84.28543304145262
 30
0.0
 10
173.6364542642733
 20
84.29350670162437
 30
0.0
 10
173.6247350886993
 20
84.3026054232185
 30
0.0
  0
SPLINE
  5
EC
330
1F
100
AcDbEntity
  8
0
  6
HIDDEN
 62
     7
370
     0
100
AcDbSpline
210
0.0
220
0.0
230
1.0
 70
     8
 71
     3
 72
    14
 73
    10
 74
     0
 42
0.00000001
 43
0.00000001
 12
1.0
 22
0.0
 32
0.0
 13
1.0
 23
0.0
 33
0.0
 40
0.0
 40
0.0
 40
0.0
 40
0.0
 40
0.25
 40
0.25
 40
0.5
 40
0.5
 40
0.75
 40
0.75
 40
1.0
 40
1.0
 40
1.0
 40
1.0
 10
173.6247350887061
 20
84.30260542322702
 30
0.0
 10
173.5682793240973
 20
84.34643745572176
 30
0.0
 10
173.4974136978474
 20
84.3797684921436
 30
0.0
 10
173.3489566166748
 20
84.37770948199616
 30
0.0
 10
173.2797632573673
 20
84.34311345759447
 30
0.0
 10
173.1700478192331
 20
84.25744810093164
 30
0.0
 10
173.1248032399018
 20
84.20542565622361
 30
0.0
 10
173.045176530478
 20
84.0978773958937
 30
0.0
 10
173.0105663819445
 20
84.0414752331607
 30
0.0
 10
172.9788509494453
 20
83.9836915075712
 30
0.0
  0
SPLINE
  5
ED
330
1F
100
AcDbEntity
  8
0
  6
HIDDEN
 62
     7
370
     0
100
AcDbSpline
210
0.0
220
0.0
230
1.0
 70
     8
 71
     3
 72
    10
 73
     6
 74
     0
 42
0.00000001
 43
0.00000001
 12
1.0
 22
0.0
 32
0.0
 13
1.0
 23
0.0
 33
0.0
 40
0.0
 40
0.0
 40
0.0
 40
0.0
 40
0.5
 40
0.5
 40
1.0
 40
1.0
 40
1.0
 40
1.0
 10
172.9788509494459
 20
83.98369150757219
 30
0.0
 10
172.9070711615224
 20
83.85291279067033
 30
0.0
 10
172.8546116472143
 20
83.71881264116712
 30
0.0
 10
172.7652685831132
 20
83.45072007817836
 30
0.0
 10
172.7292729736134
 20
83.31647470658949
 30
0.0
 10
172.6983916340153
 20
83.18312032911443
 30
0.0
  0
SPLINE
  5
EE
330
1F
100
AcDbEntity
  8
0
  6
HIDDEN
 62
     7
370
     0
100
AcDbSpline
210
0.0
220
0.0
230
1.0
 70
     8
 71
     3
 72
    10
 73
     6
 74
     0
 42
0.00000001
 43
0.00000001
 12
1.0
 22
0.0
 32
0.0
 13
1.0
 23
0.0
 33
0.0
 40
0.0
 40
0.0
 40
0.0
 40
0.0
 40
0.5
 40
0.5
 40
1.0
 40
1.0
 40
1.0
 40
1.0
 10
172.6983916340153
 20
78.98125718464205
 30
0.0
 10
172.7292646658275
 20
78.96497403727493
 30
0.0
 10
172.7652515287405
 20
78.95271644754934
 30
0.0
 10
172.8545861146317
 20
78.93561345872061
 30
0.0
 10
172.9070419740542
 20
78.93081386286225
 30
0.0
 10
172.9788509494466
 20
78.92900977145433
 30
0.0
  0
SPLINE
  5
EF
330
1F
100
AcDbEntity
  8
0
  6
HIDDEN
 62
     7
370
     0
100
AcDbSpline
210
0.0
220
0.0
230
1.0
 70
     8
 71
     3
 72
     8
 73
     4
 74
     0
 42
0.00000001
 43
0.00000001
 12
1.0
 22
0.0
 32
0.0
 13
1.0
 23
0.0
 33
0.0
 40
0.0
 40
0.0
 40
0.0
 40
0.0
 40
1.0
 40
1.0
 40
1.0
 40
1.0
 10
173.8020153541999
 20
78.80312539320725
 30
0.0
 10
173.816002162742
 20
78.77488500262555
 30
0.0
 10
173.8197119775747
 20
78.7517529598148
 30
0.0
 10
173.819711977575
 20
78.73141258697963
 30
0.0
  0
LINE
  5
F0
330
1F
100
AcDbEntity
  8
0
  6
HIDDEN
 62
     7
370
     0
100
AcDbLine
 10
173.8197119776
 20
78.4383467738
 30
0.0
 11
173.8197119776
 21
78.731412587
 31
0.0
  0
LINE
  5
F1
330
1F
100
AcDbEntity
  8
0
  6
HIDDEN
 62
     7
370
     0
100
AcDbLine
 10
173.8197119776
 20
113.8249215183
 30
0.0
 11
173.8197119776
 21
114.1179873315
 31
0.0
  0
SPLINE
  5
F2
330
1F
100
AcDbEntity
  8
0
  6
HIDDEN
 62
     7
370
     0
100
AcDbSpline
210
0.0
220
0.0
230
1.0
 70
     8
 71
     3
 72
    10
 73
     6
 74
     0
 42
0.00000001
 43
0.00000001
 12
1.0
 22
0.0
 32
0.0
 13
1.0
 23
0.0
 33
0.0
 40
0.0
 40
0.0
 40
0.0
 40
0.0
 40
0.478679935432302
 40
0.7990601559725276
 40
1.0
 40
1.0
 40
1.0
 40
1.0
 10
173.8197119775749
 20
113.8249215183165
 30
0.0
 10
173.8166198509157
 20
113.812552173187
 30
0.0
 10
173.8114581655646
 20
113.7919040320871
 30
0.0
 10
173.8110260364029
 20
113.7690973401696
 30
0.0
 10
173.8005745375568
 20
113.7520606121061
 30
0.0
 10
173.796546066967
 20
113.7454939024924
 30
0.0
  0
SPLINE
  5
F3
330
1F
100
AcDbEntity
  8
0
  6
HIDDEN
 62
     7
370
     0
100
AcDbSpline
210
0.0
220
0.0
230
1.0
 70
     8
 71
     3
 72
    10
 73
     6
 74
     0
 42
0.00000001
 43
0.00000001
 12
1.0
 22
0.0
 32
0.0
 13
1.0
 23
0.0
 33
0.0
 40
0.0
 40
0.0
 40
0.0
 40
0.0
 40
0.5
 40
0.5
 40
1.0
 40
1.0
 40
1.0
 40
1.0
 10
172.9788509494474
 20
113.6273243338394
 30
0.0
 10
172.9070419740548
 20
113.6255202424315
 30
0.0
 10
172.854586114632
 20
113.6207206465732
 30
0.0
 10
172.7652515287406
 20
113.6036176577445
 30
0.0
 10
172.7292646658276
 20
113.5913600680189
 30
0.0
 10
172.6983916340153
 20
113.5750769206517
 30
0.0
  0
SPLINE
  5
F4
330
1F
100
AcDbEntity
  8
0
  6
HIDDEN
 62
     7
370
     0
100
AcDbSpline
210
0.0
220
0.0
230
1.0
 70
     8
 71
     3
 72
    10
 73
     6
 74
     0
 42
0.00000001
 43
0.00000001
 12
1.0
 22
0.0
 32
0.0
 13
1.0
 23
0.0
 33
0.0
 40
0.0
 40
0.0
 40
0.0
 40
0.0
 40
0.5
 40
0.5
 40
1.0
 40
1.0
 40
1.0
 40
1.0
 10
172.6983916340153
 20
109.3732137761793
 30
0.0
 10
172.7292729736135
 20
109.239859398704
 30
0.0
 10
172.7652685831133
 20
109.1056140271149
 30
0.0
 10
172.8546116472147
 20
108.8375214641258
 30
0.0
 10
172.9070711615229
 20
108.7034213146223
 30
0.0
 10
172.9788509494466
 20
108.5726425977203
 30
0.0
  0
LINE
  5
F5
330
1F
100
AcDbEntity
  8
0
  6
HIDDEN
 62
     7
370
     0
100
AcDbLine
 10
254.0197119776
 20
85.2781670526
 30
0.0
 11
254.0197119776
 21
97.2781670526
 31
0.0
  0
LINE
  5
F6
330
1F
100
AcDbEntity
  8
0
  6
HIDDEN
 62
     7
370
     0
100
AcDbLine
 10
262.0197119776
 20
97.2781670526
 30
0.0
 11
262.0197119776
 21
85.2976232038
 31
0.0
  0
LINE
  5
F7
330
1F
100
AcDbEntity
  8
0
  6
HIDDEN
 62
     7
370
     0
100
AcDbLine
 10
173.8197119776
 20
78.731412587
 30
0.0
 11
173.8197119776
 21
90.2936868201
 31
0.0
  0
LINE
  5
F8
330
1F
100
AcDbEntity
  8
0
  6
HIDDEN
 62
     7
370
     0
100
AcDbLine
 10
173.8197119776
 20
102.2626472852
 30
0.0
 11
173.8197119776
 21
113.8249215183
 31
0.0
  0
CIRCLE
  5
F9
330
1F
100
AcDbEntity
  8
0
  6
HIDDEN
 62
     7
370
     0
100
AcDbCircle
 10
160.0197119776
 20
96.2781670526
 30
0.0
 40
3.049999999999997
  0
SPLINE
  5
FA
330
1F
100
AcDbEntity
  8
0
  6
HIDDEN
 62
     7
370
     0
100
AcDbSpline
210
0.0
220
0.0
230
1.0
 70
     8
 71
     3
 72
    34
 73
    30
 74
     0
 42
0.00000001
 43
0.00000001
 12
1.0
 22
0.0
 32
0.0
 13
1.0
 23
0.0
 33
0.0
 40
0.0
 40
0.0
 40
0.0
 40
0.0
 40
0.1250000000000006
 40
0.1250000000000006
 40
0.1875000000000009
 40
0.1875000000000009
 40
0.2500000000000012
 40
0.2500000000000012
 40
0.3125000000000014
 40
0.3125000000000014
 40
0.3750000000000016
 40
0.3750000000000016
 40
0.4375000000000018
 40
0.4375000000000018
 40
0.500000000000002
 40
0.500000000000002
 40
0.5625000000000022
 40
0.5625000000000022
 40
0.6250000000000023
 40
0.6250000000000023
 40
0.7500000000000017
 40
0.7500000000000017
 40
0.8125000000000013
 40
0.8125000000000013
 40
0.8750000000000009
 40
0.8750000000000009
 40
0.9375000000000006
 40
0.9375000000000006
 40
1.0
 40
1.0
 40
1.0
 40
1.0
 10
232.0197119775749
 20
92.93092266271437
 30
0.0
 10
232.1473003598444
 20
93.04802675328638
 30
0.0
 10
232.278543204294
 20
93.2003351598233
 30
0.0
 10
232.4792380228907
 20
93.47366263534147
 30
0.0
 10
232.5451953058771
 20
93.57024607399212
 30
0.0
 10
232.6749357684649
 20
93.77398560953682
 30
0.0
 10
232.7392662063971
 20
93.88212276856878
 30
0.0
 10
232.8616828663856
 20
94.10502778350674
 30
0.0
 10
232.9194409520641
 20
94.21901040664488
 30
0.0
 10
233.0258331856923
 20
94.4529959898247
 30
0.0
 10
233.0749298884059
 20
94.57438535437909
 30
0.0
 10
233.1569572814781
 20
94.81764832475913
 30
0.0
 10
233.1898946631339
 20
94.93913023257355
 30
0.0
 10
233.2355770306331
 20
95.18290199002081
 30
0.0
 10
233.2481700193997
 20
95.3070088334865
 30
0.0
 10
233.24865445696
 20
95.54579104364271
 30
0.0
 10
233.2369916289089
 20
95.66058416335103
 30
0.0
 10
233.1920031064647
 20
95.88102100843277
 30
0.0
 10
233.1585073097032
 20
95.98635794512114
 30
0.0
 10
233.036130363227
 20
96.2750926123604
 30
0.0
 10
232.924033677492
 20
96.43736580754064
 30
0.0
 10
232.7412222714545
 20
96.62026786987666
 30
0.0
 10
232.6766262460491
 20
96.67214887852631
 30
0.0
 10
232.5462733235865
 20
96.75342438359672
 30
0.0
 10
232.4804177587867
 20
96.78316509601093
 30
0.0
 10
232.3477362788242
 20
96.82060799376639
 30
0.0
 10
232.2803165686607
 20
96.82817797411319
 30
0.0
 10
232.1483624294204
 20
96.81950801628136
 30
0.0
 10
232.0835747476655
 20
96.80355821581882
 30
0.0
 10
232.0197119775749
 20
96.77555318913448
 30
0.0
  0
SPLINE
  5
FB
330
1F
100
AcDbEntity
  8
0
  6
HIDDEN
 62
     7
370
     0
100
AcDbSpline
210
0.0
220
0.0
230
1.0
 70
     8
 71
     3
 72
    36
 73
    32
 74
     0
 42
0.00000001
 43
0.00000001
 12
1.0
 22
0.0
 32
0.0
 13
1.0
 23
0.0
 33
0.0
 40
0.0
 40
0.0
 40
0.0
 40
0.0
 40
0.1249999999999989
 40
0.1249999999999989
 40
0.2499999999999977
 40
0.2499999999999977
 40
0.3124999999999979
 40
0.3124999999999979
 40
0.3749999999999981
 40
0.3749999999999981
 40
0.4062499999999982
 40
0.4062499999999982
 40
0.4374999999999983
 40
0.4374999999999983
 40
0.4687499999999984
 40
0.4687499999999984
 40
0.4999999999999986
 40
0.4999999999999986
 40
0.5624999999999987
 40
0.5624999999999987
 40
0.5937499999999987
 40
0.5937499999999987
 40
0.6249999999999988
 40
0.6249999999999988
 40
0.687499999999999
 40
0.687499999999999
 40
0.7499999999999991
 40
0.7499999999999991
 40
0.8749999999999996
 40
0.8749999999999996
 40
1.0
 40
1.0
 40
1.0
 40
1.0
 10
232.0197119775749
 20
96.77555318913448
 30
0.0
 10
231.4846137729514
 20
96.80089540300642
 30
0.0
 10
230.9502614537179
 20
96.80426823236961
 30
0.0
 10
229.8838141720207
 20
96.74451932918396
 30
0.0
 10
229.347980907412
 20
96.68195324961312
 30
0.0
 10
228.5692024546087
 20
96.49583261372908
 30
0.0
 10
228.3128543065263
 20
96.41799427979392
 30
0.0
 10
227.8147880608153
 20
96.21429735396589
 30
0.0
 10
227.5776030547495
 20
96.09076416514982
 30
0.0
 10
227.250485815626
 20
95.85336503915718
 30
0.0
 10
227.1480972811982
 20
95.7665268752031
 30
0.0
 10
226.9621593441354
 20
95.57627915101618
 30
0.0
 10
226.8772874365684
 20
95.4710915318808
 30
0.0
 10
226.7368501716055
 20
95.2475450727757
 30
0.0
 10
226.680648054748
 20
95.12859992924625
 30
0.0
 10
226.6045210607796
 20
94.88111539252705
 30
0.0
 10
226.5856382936023
 20
94.75700643421057
 30
0.0
 10
226.5891972621063
 20
94.38399821753008
 30
0.0
 10
226.6768747071534
 20
94.15011504666863
 30
0.0
 10
226.8933760546163
 20
93.86460645887954
 30
0.0
 10
226.9798134726216
 20
93.77871665946746
 30
0.0
 10
227.1681815749395
 20
93.62774649473772
 30
0.0
 10
227.2710396084181
 20
93.56145022425069
 30
0.0
 10
227.6008055525898
 20
93.3833978541401
 30
0.0
 10
227.8386658362109
 20
93.29680929062437
 30
0.0
 10
228.3341741569684
 20
93.15799834100397
 30
0.0
 10
228.5930470951843
 20
93.10636514263223
 30
0.0
 10
229.3689249102337
 20
92.98659867078206
 30
0.0
 10
229.8941968957722
 20
92.9496490175953
 30
0.0
 10
230.9529718444102
 20
92.91318216185368
 30
0.0
 10
231.4873256148853
 20
92.9152783348576
 30
0.0
 10
232.0197119775749
 20
92.93092266271437
 30
0.0
  0
LINE
  5
FC
330
1F
100
AcDbEntity
  8
0
  6
HIDDEN
 62
     7
370
     0
100
AcDbLine
 10
254.0197119776
 20
93.7783163991
 30
0.0
 11
254.0197119776
 21
89.5472484754
 31
0.0
  0
LINE
  5
FD
330
1F
100
AcDbEntity
  8
0
  6
HIDDEN
 62
     7
370
     0
100
AcDbLine
 10
149.0477518332
 20
107.0668421872
 30
0.0
 11
149.0477518332
 21
85.4894919181
 31
0.0
  0
LINE
  5
FE
330
1F
100
AcDbEntity
  8
0
  6
HIDDEN
 62
     7
370
     0
100
AcDbLine
 10
145.0477518332
 20
107.4480400337
 30
0.0
 11
145.0477518332
 21
85.1082940716
 31
0.0
  0
LINE
  5
FF
330
1F
100
AcDbEntity
  8
0
  6
HIDDEN
 62
     7
370
     0
100
AcDbLine
 10
144.0197119776
 20
84.5147549842
 30
0.0
 11
144.0197119776
 21
108.0223942185
 31
0.0
  0
LINE
  5
100
330
1F
100
AcDbEntity
  8
0
  6
HIDDEN
 62
     7
370
     0
100
AcDbLine
 10
153.6477518332
 20
106.7781670526
 30
0.0
 11
153.6477518332
 21
85.7781670526
 31
0.0
  0
LINE
  5
101
330
1F
100
AcDbEntity
  8
0
  6
HIDDEN
 62
     7
370
     0
100
AcDbLine
 10
147.5477518332
 20
106.7781670526
 30
0.0
 11
147.5477518332
 21
85.7781670526
 31
0.0
  0
LINE
  5
102
330
1F
100
AcDbEntity
  8
0
  6
HIDDEN
 62
     7
370
     0
100
AcDbLine
 10
148.5477518332
 20
106.7781670526
 30
0.0
 11
148.5477518332
 21
85.7781670526
 31
0.0
  0
LINE
  5
103
330
1F
100
AcDbEntity
  8
0
  6
HIDDEN
 62
     7
370
     0
100
AcDbLine
 10
164.0197119776
 20
106.2781670526
 30
0.0
 11
164.0197119776
 21
86.2781670526
 31
0.0
  0
SPLINE
  5
104
330
1F
100
AcDbEntity
  8
0
  6
HIDDEN
 62
     7
370
     0
100
AcDbSpline
210
0.0
220
0.0
230
1.0
 70
     8
 71
     3
 72
    66
 73
    62
 74
     0
 42
0.00000001
 43
0.00000001
 12
1.0
 22
0.0
 32
0.0
 13
1.0
 23
0.0
 33
0.0
 40
-0.0312499999999999
 40
-0.0312499999999999
 40
0.0
 40
0.0
 40
0.0312499999999998
 40
0.0312499999999998
 40
0.0624999999999996
 40
0.0624999999999996
 40
0.0937499999999995
 40
0.0937499999999995
 40
0.1249999999999993
 40
0.1249999999999993
 40
0.1874999999999991
 40
0.1874999999999991
 40
0.218749999999999
 40
0.218749999999999
 40
0.249999999999999
 40
0.249999999999999
 40
0.281249999999999
 40
0.281249999999999
 40
0.3124999999999989
 40
0.3124999999999989
 40
0.3437499999999989
 40
0.3437499999999989
 40
0.3749999999999989
 40
0.3749999999999989
 40
0.4062499999999989
 40
0.4062499999999989
 40
0.4374999999999989
 40
0.4374999999999989
 40
0.4687499999999989
 40
0.4687499999999989
 40
0.4999999999999989
 40
0.4999999999999989
 40
0.5312499999999988
 40
0.5312499999999988
 40
0.5624999999999988
 40
0.5624999999999988
 40
0.5937499999999987
 40
0.5937499999999987
 40
0.6249999999999988
 40
0.6249999999999988
 40
0.656249999999999
 40
0.656249999999999
 40
0.6874999999999991
 40
0.6874999999999991
 40
0.7187499999999993
 40
0.7187499999999993
 40
0.7499999999999994
 40
0.7499999999999994
 40
0.7812499999999996
 40
0.7812499999999996
 40
0.8124999999999998
 40
0.8124999999999998
 40
0.875
 40
0.875
 40
0.9062500000000002
 40
0.9062500000000002
 40
0.9375000000000001
 40
0.9375000000000001
 40
0.9687500000000001
 40
0.9687500000000001
 40
1.0
 40
1.0
 40
1.03125
 40
1.03125
 10
159.8170333306271
 20
99.32816705264688
 30
0.0
 10
160.2223906245227
 20
99.32816705264688
 30
0.0
 10
160.4214505158586
 20
99.30816749303028
 30
0.0
 10
160.8127045004383
 20
99.23002399033012
 30
0.0
 10
161.0069772591859
 20
99.17086288880937
 30
0.0
 10
161.3757406857372
 20
99.01743120191506
 30
0.0
 10
161.5504658441155
 20
98.92370439207282
 30
0.0
 10
161.8811431476493
 20
98.70245028966795
 30
0.0
 10
162.0367906916521
 20
98.57446892267338
 30
0.0
 10
162.4562580613207
 20
98.1549138256733
 30
0.0
 10
162.6831462028511
 20
97.81643526696993
 30
0.0
 10
162.9119428262358
 20
97.26655637925172
 30
0.0
 10
162.9711350810847
 20
97.07315653350834
 30
0.0
 10
163.0499424913452
 20
96.67892838315042
 30
0.0
 10
163.0695819076256
 20
96.48028955571804
 30
0.0
 10
163.0698407720472
 20
96.07998926981966
 30
0.0
 10
163.0497700874142
 20
95.87664994309857
 30
0.0
 10
162.9714324047843
 20
95.48455842249096
 30
0.0
 10
162.9134826367458
 20
95.29385255417574
 30
0.0
 10
162.7595394948659
 20
94.92312873758918
 30
0.0
 10
162.6646008811431
 20
94.74640207778036
 30
0.0
 10
162.444243465266
 20
94.41714896685599
 30
0.0
 10
162.3169634393377
 20
94.26202774325955
 30
0.0
 10
162.0352078480072
 20
93.98035104832915
 30
0.0
 10
161.8824195185497
 20
93.85491786342477
 30
0.0
 10
161.5529924363928
 20
93.63414227007068
 30
0.0
 10
161.374446433241
 20
93.53831101737048
 30
0.0
 10
161.0068741076909
 20
93.38548188687538
 30
0.0
 10
160.8167200809799
 20
93.32731012893119
 30
0.0
 10
160.4231796582774
 20
93.24831683658626
 30
0.0
 10
160.2207455870163
 20
93.22825371094402
 30
0.0
 10
159.8213165116509
 20
93.22808096482528
 30
0.0
 10
159.6212975330949
 20
93.24756433891457
 30
0.0
 10
159.2251815856456
 20
93.32655591051575
 30
0.0
 10
159.0344487574537
 20
93.38483613036774
 30
0.0
 10
158.666817316874
 20
93.53740375097574
 30
0.0
 10
158.4883308847063
 20
93.63301253774902
 30
0.0
 10
158.1581256257422
 20
93.85402458283404
 30
0.0
 10
158.0052370476803
 20
93.9794744816042
 30
0.0
 10
157.7236406531422
 20
94.26070497060951
 30
0.0
 10
157.5960097302667
 20
94.41608784852346
 30
0.0
 10
157.3756842952669
 20
94.74493870656639
 30
0.0
 10
157.2814578383015
 20
94.91982681298039
 30
0.0
 10
157.1265233176984
 20
95.29197066434118
 30
0.0
 10
157.0685110320962
 20
95.48277670615013
 30
0.0
 10
156.9900917778181
 20
95.87364972406885
 30
0.0
 10
156.9697776978515
 20
96.07610728545116
 30
0.0
 10
156.9696465815476
 20
96.4782378903706
 30
0.0
 10
156.9892712749069
 20
96.6769619355457
 30
0.0
 10
157.0674377253205
 20
97.06980140668237
 30
0.0
 10
157.1267251706604
 20
97.26444568408498
 30
0.0
 10
157.3558060137433
 20
97.81588543749918
 30
0.0
 10
157.5826368646375
 20
98.15422500319836
 30
0.0
 10
158.0019755659582
 20
98.57389066584985
 30
0.0
 10
158.1573285617081
 20
98.70173667162311
 30
0.0
 10
158.4882963948453
 20
98.92333774632492
 30
0.0
 10
158.6628576950417
 20
99.01697848030184
 30
0.0
 10
159.0304310026165
 20
99.17013260100106
 30
0.0
 10
159.2251178642546
 20
99.22963634664714
 30
0.0
 10
159.6175938141911
 20
99.30815909571011
 30
0.0
 10
159.8170333306271
 20
99.32816705264688
 30
0.0
 10
160.2223906245227
 20
99.32816705264688
 30
0.0
  0
SPLINE
  5
105
330
1F
100
AcDbEntity
  8
0
  6
HIDDEN
 62
     7
370
     0
100
AcDbSpline
210
0.0
220
0.0
230
1.0
 70
     8
 71
     3
 72
    66
 73
    62
 74
     0
 42
0.00000001
 43
0.00000001
 12
1.0
 22
0.0
 32
0.0
 13
1.0
 23
0.0
 33
0.0
 40
-0.0312500000000002
 40
-0.0312500000000002
 40
0.0
 40
0.0
 40
0.0312499999999999
 40
0.0312499999999999
 40
0.0624999999999997
 40
0.0624999999999997
 40
0.0937499999999996
 40
0.0937499999999996
 40
0.1249999999999995
 40
0.1249999999999995
 40
0.1874999999999992
 40
0.1874999999999992
 40
0.2187499999999991
 40
0.2187499999999991
 40
0.2499999999999989
 40
0.2499999999999989
 40
0.2812499999999988
 40
0.2812499999999988
 40
0.3124999999999987
 40
0.3124999999999987
 40
0.3437499999999986
 40
0.3437499999999986
 40
0.3749999999999984
 40
0.3749999999999984
 40
0.4062499999999983
 40
0.4062499999999983
 40
0.4374999999999984
 40
0.4374999999999984
 40
0.4687499999999984
 40
0.4687499999999984
 40
0.4999999999999986
 40
0.4999999999999986
 40
0.5312499999999987
 40
0.5312499999999987
 40
0.5624999999999988
 40
0.5624999999999988
 40
0.5937499999999988
 40
0.5937499999999988
 40
0.6249999999999989
 40
0.6249999999999989
 40
0.656249999999999
 40
0.656249999999999
 40
0.6874999999999991
 40
0.6874999999999991
 40
0.7187499999999992
 40
0.7187499999999992
 40
0.7499999999999992
 40
0.7499999999999992
 40
0.7812499999999993
 40
0.7812499999999993
 40
0.8124999999999994
 40
0.8124999999999994
 40
0.8749999999999996
 40
0.8749999999999996
 40
0.9062499999999997
 40
0.9062499999999997
 40
0.9374999999999997
 40
0.9374999999999997
 40
0.9687499999999998
 40
0.9687499999999998
 40
1.0
 40
1.0
 40
1.03125
 40
1.03125
 10
160.2223906245227
 20
99.32816705264688
 30
0.0
 10
159.8170333306271
 20
99.32816705264688
 30
0.0
 10
159.6179734392912
 20
99.30816749303028
 30
0.0
 10
159.2267194547115
 20
99.23002399033012
 30
0.0
 10
159.0324466959639
 20
99.17086288880937
 30
0.0
 10
158.6636832694126
 20
99.01743120191506
 30
0.0
 10
158.4889581110343
 20
98.92370439207282
 30
0.0
 10
158.1582808075005
 20
98.70245028966795
 30
0.0
 10
158.0026332634977
 20
98.57446892267336
 30
0.0
 10
157.583165893829
 20
98.1549138256733
 30
0.0
 10
157.3562777522988
 20
97.81643526696993
 30
0.0
 10
157.127481128914
 20
97.26655637925172
 30
0.0
 10
157.0682888740651
 20
97.07315653350834
 30
0.0
 10
156.9894814638046
 20
96.67892838315042
 30
0.0
 10
156.9698420475242
 20
96.48028955571804
 30
0.0
 10
156.9695831831026
 20
96.07998926981966
 30
0.0
 10
156.9896538677356
 20
95.87664994309857
 30
0.0
 10
157.0679915503655
 20
95.48455842249096
 30
0.0
 10
157.125941318404
 20
95.29385255417574
 30
0.0
 10
157.279884460284
 20
94.92312873758917
 30
0.0
 10
157.3748230740066
 20
94.74640207778036
 30
0.0
 10
157.5951804898838
 20
94.41714896685599
 30
0.0
 10
157.7224605158121
 20
94.26202774325955
 30
0.0
 10
158.0042161071427
 20
93.98035104832915
 30
0.0
 10
158.1570044366001
 20
93.85491786342477
 30
0.0
 10
158.4864315187571
 20
93.63414227007068
 30
0.0
 10
158.6649775219088
 20
93.53831101737048
 30
0.0
 10
159.0325498474589
 20
93.38548188687538
 30
0.0
 10
159.2227038741699
 20
93.32731012893119
 30
0.0
 10
159.6162442968724
 20
93.24831683658626
 30
0.0
 10
159.8186783681335
 20
93.22825371094402
 30
0.0
 10
160.2181074434989
 20
93.22808096482528
 30
0.0
 10
160.4181264220548
 20
93.24756433891457
 30
0.0
 10
160.8142423695042
 20
93.32655591051575
 30
0.0
 10
161.0049751976961
 20
93.38483613036774
 30
0.0
 10
161.3726066382758
 20
93.53740375097574
 30
0.0
 10
161.5510930704436
 20
93.63301253774902
 30
0.0
 10
161.8812983294076
 20
93.85402458283404
 30
0.0
 10
162.0341869074695
 20
93.97947448160421
 30
0.0
 10
162.3157833020076
 20
94.26070497060951
 30
0.0
 10
162.4434142248831
 20
94.41608784852346
 30
0.0
 10
162.6637396598829
 20
94.74493870656637
 30
0.0
 10
162.7579661168483
 20
94.9198268129804
 30
0.0
 10
162.9129006374514
 20
95.29197066434118
 30
0.0
 10
162.9709129230536
 20
95.48277670615013
 30
0.0
 10
163.0493321773318
 20
95.87364972406885
 30
0.0
 10
163.0696462572983
 20
96.07610728545116
 30
0.0
 10
163.0697773736023
 20
96.4782378903706
 30
0.0
 10
163.0501526802429
 20
96.6769619355457
 30
0.0
 10
162.9719862298293
 20
97.06980140668237
 30
0.0
 10
162.9126987844894
 20
97.26444568408498
 30
0.0
 10
162.6836179414065
 20
97.81588543749918
 30
0.0
 10
162.4567870905123
 20
98.15422500319836
 30
0.0
 10
162.0374483891916
 20
98.57389066584985
 30
0.0
 10
161.8820953934417
 20
98.70173667162311
 30
0.0
 10
161.5511275603045
 20
98.92333774632492
 30
0.0
 10
161.3765662601081
 20
99.01697848030184
 30
0.0
 10
161.0089929525333
 20
99.17013260100106
 30
0.0
 10
160.8143060908952
 20
99.22963634664714
 30
0.0
 10
160.4218301409587
 20
99.30815909571011
 30
0.0
 10
160.2223906245227
 20
99.32816705264688
 30
0.0
 10
159.8170333306271
 20
99.32816705264688
 30
0.0
  0
LINE
  5
106
330
1F
100
AcDbEntity
  8
0
  6
HIDDEN
 62
     7
370
     0
100
AcDbLine
 10
165.0197119776
 20
103.5281670526
 30
0.0
 11
165.0197119776
 21
89.0281670526
 31
0.0
  0
LINE
  5
107
330
1F
100
AcDbEntity
  8
0
  6
HIDDEN
 62
     7
370
     0
100
AcDbLine
 10
164.0197119776
 20
88.0281670526
 30
0.0
 11
164.0197119776
 21
104.5281670526
 31
0.0
  0
LINE
  5
108
330
1F
100
AcDbEntity
  8
0
  6
HIDDEN
 62
     7
370
     0
100
AcDbLine
 10
189.0197119776
 20
103.5281670526
 30
0.0
 11
189.0197119776
 21
89.0281670526
 31
0.0
  0
LINE
  5
109
330
1F
100
AcDbEntity
  8
0
  6
HIDDEN
 62
     7
370
     0
100
AcDbLine
 10
190.8222938347
 20
100.5281670526
 30
0.0
 11
190.8222938347
 21
92.0281670526
 31
0.0
  0
LINE
  5
10A
330
1F
100
AcDbEntity
  8
0
  6
HIDDEN
 62
     7
370
     0
100
AcDbLine
 10
205.5197119776
 20
66.2781670526
 30
0.0
 11
205.5197119776
 21
86.2781670526
 31
0.0
  0
LINE
  5
10B
330
1F
100
AcDbEntity
  8
0
  6
HIDDEN
 62
     7
370
     0
100
AcDbLine
 10
197.0197119776
 20
66.2781670526
 30
0.0
 11
197.0197119776
 21
86.2781670526
 31
0.0
  0
LINE
  5
10C
330
1F
100
AcDbEntity
  8
0
  6
HIDDEN
 62
     7
370
     0
100
AcDbLine
 10
205.5197119776
 20
86.2781670526
 30
0.0
 11
197.0197119776
 21
86.2781670526
 31
0.0
  0
LINE
  5
10D
330
1F
100
AcDbEntity
  8
0
  6
HIDDEN
 62
     7
370
     0
100
AcDbLine
 10
197.0197119776
 20
66.2781670526
 30
0.0
 11
205.5197119776
 21
66.2781670526
 31
0.0
  0
LINE
  5
10E
330
1F
100
AcDbEntity
  8
0
  6
HIDDEN
 62
     7
370
     0
100
AcDbLine
 10
232.0197119776
 20
92.0281670526
 30
0.0
 11
232.0197119776
 21
100.5281670526
 31
0.0
  0
LINE
  5
10F
330
1F
100
AcDbEntity
  8
0
  6
HIDDEN
 62
     7
370
     0
100
AcDbLine
 10
262.0197119776
 20
86.2781670526
 30
0.0
 11
205.5197119776
 21
86.2781670526
 31
0.0
  0
CIRCLE
  5
110
330
1F
100
AcDbEntity
  8
0
  6
HIDDEN
 62
     7
370
     0
100
AcDbCircle
 10
234.0197119776
 20
76.2781670526
 30
0.0
 40
4.25
  0
CIRCLE
  5
111
330
1F
100
AcDbEntity
  8
0
  6
HIDDEN
 62
     7
370
     0
100
AcDbCircle
 10
214.0197119776
 20
76.2781670526
 30
0.0
 40
4.25
  0
CIRCLE
  5
112
330
1F
100
AcDbEntity
  8
0
  6
HIDDEN
 62
     7
370
     0
100
AcDbCircle
 10
254.0197119776
 20
76.2781670526
 30
0.0
 40
4.249999999999943
  0
LINE
  5
113
330
1F
100
AcDbEntity
  8
0
  6
HIDDEN
 62
     7
370
     0
100
AcDbLine
 10
262.0197119776
 20
67.2781670526
 30
0.0
 11
261.0197119776
 21
66.2781670526
 31
0.0
  0
LINE
  5
114
330
1F
100
AcDbEntity
  8
0
  6
HIDDEN
 62
     7
370
     0
100
AcDbLine
 10
205.5197119776
 20
66.2781670526
 30
0.0
 11
261.0197119776
 21
66.2781670526
 31
0.0
  0
LINE
  5
115
330
1F
100
AcDbEntity
  8
0
  6
HIDDEN
 62
     7
370
     0
100
AcDbLine
 10
262.0197119776
 20
86.2781670526
 30
0.0
 11
262.0197119776
 21
67.2781670526
 31
0.0
  0
LINE
  5
116
330
1F
100
AcDbEntity
  8
0
  6
HIDDEN
 62
     7
370
     0
100
AcDbLine
 10
145.5197119776
 20
113.1375182946
 30
0.0
 11
145.5197119776
 21
108.3277395781
 31
0.0
  0
LINE
  5
117
330
1F
100
AcDbEntity
  8
0
  6
HIDDEN
 62
     7
370
     0
100
AcDbLine
 10
144.0197119776
 20
112.2714928908
 30
0.0
 11
144.0197119776
 21
107.8947268762
 31
0.0
  0
LINE
  5
118
330
1F
100
AcDbEntity
  8
0
  6
HIDDEN
 62
     7
370
     0
100
AcDbLine
 10
171.8197119776
 20
83.8982207559
 30
0.0
 11
171.8197119776
 21
78.7580682681
 31
0.0
  0
LINE
  5
119
330
1F
100
AcDbEntity
  8
0
  6
HIDDEN
 62
     7
370
     0
100
AcDbLine
 10
171.8197119776
 20
113.7982658372
 30
0.0
 11
171.8197119776
 21
108.6581133494
 31
0.0
  0
SPLINE
  5
11A
330
1F
100
AcDbEntity
  8
0
  6
HIDDEN
 62
     7
370
     0
100
AcDbSpline
210
0.0
220
0.0
230
1.0
 70
     8
 71
     3
 72
    18
 73
    14
 74
     0
 42
0.00000001
 43
0.00000001
 12
1.0
 22
0.0
 32
0.0
 13
1.0
 23
0.0
 33
0.0
 40
0.0
 40
0.0
 40
0.0
 40
0.0
 40
0.2499999999999999
 40
0.2499999999999999
 40
0.3749999999999998
 40
0.3749999999999998
 40
0.4999999999999998
 40
0.4999999999999998
 40
0.6249999999999998
 40
0.6249999999999998
 40
0.7499999999999997
 40
0.7499999999999997
 40
1.0
 40
1.0
 40
1.0
 40
1.0
 10
172.6983916340153
 20
83.18312032911444
 30
0.0
 10
172.5631060277129
 20
82.59891873538278
 30
0.0
 10
172.46193828147
 20
82.0647010481746
 30
0.0
 10
172.359076938601
 20
81.33880427728621
 30
0.0
 10
172.3329740930778
 20
81.10892378950628
 30
0.0
 10
172.2980841095329
 20
80.6783528447195
 30
0.0
 10
172.2894978512429
 20
80.48065793922532
 30
0.0
 10
172.2893981416773
 20
80.11930989654753
 30
0.0
 10
172.2978865128258
 20
79.95565988660138
 30
0.0
 10
172.3320298923464
 20
79.66244861363242
 30
0.0
 10
172.3578268742002
 20
79.5324525475166
 30
0.0
 10
172.4612280055882
 20
79.19839665495468
 30
0.0
 10
172.5630859977596
 20
79.05262049058989
 30
0.0
 10
172.6983916340153
 20
78.98125718464205
 30
0.0
  0
SPLINE
  5
11B
330
1F
100
AcDbEntity
  8
0
  6
HIDDEN
 62
     7
370
     0
100
AcDbSpline
210
0.0
220
0.0
230
1.0
 70
     8
 71
     3
 72
    18
 73
    14
 74
     0
 42
0.00000001
 43
0.00000001
 12
1.0
 22
0.0
 32
0.0
 13
1.0
 23
0.0
 33
0.0
 40
0.0
 40
0.0
 40
0.0
 40
0.0
 40
0.2500000000000005
 40
0.2500000000000005
 40
0.3750000000000004
 40
0.3750000000000004
 40
0.5000000000000003
 40
0.5000000000000003
 40
0.6250000000000002
 40
0.6250000000000002
 40
0.7500000000000001
 40
0.7500000000000001
 40
1.0
 40
1.0
 40
1.0
 40
1.0
 10
172.6983916340153
 20
113.5750769206517
 30
0.0
 10
172.5631060277129
 20
113.5037241789621
 30
0.0
 10
172.46193828147
 20
113.3583207723727
 30
0.0
 10
172.359076938601
 20
113.0288535367671
 30
0.0
 10
172.3329740930778
 20
112.8999199599623
 30
0.0
 10
172.2980841095329
 20
112.6043779606262
 30
0.0
 10
172.2894978512429
 20
112.4399831871043
 30
0.0
 10
172.2893981416773
 20
112.0790215723637
 30
0.0
 10
172.2978865128258
 20
111.8824517802015
 30
0.0
 10
172.3320298923464
 20
111.4570969840765
 30
0.0
 10
172.3578268742002
 20
111.2273273342769
 30
0.0
 10
172.4612280055882
 20
110.4947386398445
 30
0.0
 10
172.5630859977596
 20
109.9575018649269
 30
0.0
 10
172.6983916340153
 20
109.3732137761793
 30
0.0
  0
LINE
  5
11C
330
1F
100
AcDbEntity
  8
0
  6
HIDDEN
 62
     7
370
     0
100
AcDbLine
 10
145.5197119776
 20
84.2285945272
 30
0.0
 11
145.5197119776
 21
79.4188158107
 31
0.0
  0
LINE
  5
11D
330
1F
100
AcDbEntity
  8
0
  6
HIDDEN
 62
     7
370
     0
100
AcDbLine
 10
144.0197119776
 20
84.6616072291
 30
0.0
 11
144.0197119776
 21
80.2848412145
 31
0.0
  0
LINE
  5
11E
330
1F
100
AcDbEntity
  8
0
  6
HIDDEN
 62
     7
370
     0
100
AcDbLine
 10
144.0197119776
 20
107.8947268762
 30
0.0
 11
144.0197119776
 21
98.6173379809
 31
0.0
  0
LINE
  5
11F
330
1F
100
AcDbEntity
  8
0
  6
HIDDEN
 62
     7
370
     0
100
AcDbLine
 10
144.0197119776
 20
93.9389961244
 30
0.0
 11
144.0197119776
 21
84.6616072291
 31
0.0
  0
LINE
  5
120
330
1F
100
AcDbEntity
  8
0
  6
HIDDEN
 62
     7
370
     0
100
AcDbLine
 10
145.5197119776
 20
93.1296899343
 30
0.0
 11
145.5197119776
 21
84.2285945272
 31
0.0
  0
LINE
  5
121
330
1F
100
AcDbEntity
  8
0
  6
HIDDEN
 62
     7
370
     0
100
AcDbLine
 10
145.5197119776
 20
108.3277395781
 30
0.0
 11
145.5197119776
 21
99.426644171
 31
0.0
  0
LINE
  5
122
330
1F
100
AcDbEntity
  8
0
  6
HIDDEN
 62
     7
370
     0
100
AcDbLine
 10
171.8197119776
 20
108.6581133494
 30
0.0
 11
171.8197119776
 21
83.8982207559
 31
0.0
  0
LINE
  5
123
330
1F
100
AcDbEntity
  8
0
  6
HIDDEN
 62
     7
370
     0
100
AcDbLine
 10
173.8197119776
 20
107.8404412857
 30
0.0
 11
173.8197119776
 21
84.7158928196
 31
0.0
  0
SPLINE
  5
124
330
1F
100
AcDbEntity
  8
0
  6
HIDDEN
 62
     7
370
     0
100
AcDbSpline
210
0.0
220
0.0
230
1.0
 70
     8
 71
     3
 72
    26
 73
    22
 74
     0
 42
0.00000001
 43
0.00000001
 12
1.0
 22
0.0
 32
0.0
 13
1.0
 23
0.0
 33
0.0
 40
0.0
 40
0.0
 40
0.0
 40
0.0
 40
0.1250000000000002
 40
0.1250000000000002
 40
0.2500000000000005
 40
0.2500000000000005
 40
0.3750000000000006
 40
0.3750000000000006
 40
0.4375000000000007
 40
0.4375000000000007
 40
0.5000000000000008
 40
0.5000000000000008
 40
0.5625000000000009
 40
0.5625000000000009
 40
0.625000000000001
 40
0.625000000000001
 40
0.7500000000000007
 40
0.7500000000000007
 40
0.8750000000000004
 40
0.8750000000000004
 40
1.0
 40
1.0
 40
1.0
 40
1.0
 10
149.5197119775749
 20
93.05966929219781
 30
0.0
 10
149.7303553395749
 20
93.29428632314287
 30
0.0
 10
149.9375517773319
 20
93.5321694591023
 30
0.0
 10
150.3390509119642
 20
94.01948376537116
 30
0.0
 10
150.5343273310102
 20
94.26960899016021
 30
0.0
 10
150.8941078237057
 20
94.78819913561114
 30
0.0
 10
151.059366683855
 20
95.05563011949796
 30
0.0
 10
151.2520245932812
 20
95.48704525189648
 30
0.0
 10
151.3069893334912
 20
95.63706413382089
 30
0.0
 10
151.3847251184554
 20
95.94980131255089
 30
0.0
 10
151.4059912567637
 20
96.10755555935813
 30
0.0
 10
151.4078851860495
 20
96.42626083920393
 30
0.0
 10
151.3876594489824
 20
96.58869763938446
 30
0.0
 10
151.3131950386966
 20
96.89964963896712
 30
0.0
 10
151.2595559129506
 20
97.0503208772948
 30
0.0
 10
151.06481160755
 20
97.49240463526337
 30
0.0
 10
150.8977614943717
 20
97.76244864843112
 30
0.0
 10
150.5375053756681
 20
98.28255627671251
 30
0.0
 10
150.3427530006477
 20
98.53221748952217
 30
0.0
 10
149.9397437761754
 20
99.02164160136495
 30
0.0
 10
149.7313072578119
 20
99.26098752452889
 30
0.0
 10
149.5197119775759
 20
99.49666481309677
 30
0.0
  0
LINE
  5
125
330
1F
100
AcDbEntity
  8
0
  6
HIDDEN
 62
     7
370
     0
100
AcDbLine
 10
149.5197119776
 20
93.0596692922
 30
0.0
 11
149.5197119776
 21
99.4966648131
 31
0.0
  0
SPLINE
  5
126
330
1F
100
AcDbEntity
  8
0
  6
HIDDEN
 62
     7
370
     0
100
AcDbSpline
210
0.0
220
0.0
230
1.0
 70
     8
 71
     3
 72
     8
 73
     4
 74
     0
 42
0.00000001
 43
0.00000001
 12
1.0
 22
0.0
 32
0.0
 13
1.0
 23
0.0
 33
0.0
 40
0.0000202085968836
 40
0.0000202085968836
 40
0.0000202085968836
 40
0.0000202085968836
 40
0.0040218806502652
 40
0.0040218806502652
 40
0.0040218806502652
 40
0.0040218806502652
 10
145.5197119775749
 20
93.12968993431016
 30
0.0
 10
146.8530351033655
 20
93.10569170314652
 30
0.0
 10
148.1863689765881
 20
93.0823639629782
 30
0.0
 10
149.5197119775749
 20
93.05966929219781
 30
0.0
  0
SPLINE
  5
127
330
1F
100
AcDbEntity
  8
0
  6
HIDDEN
 62
     7
370
     0
100
AcDbSpline
210
0.0
220
0.0
230
1.0
 70
     8
 71
     3
 72
     8
 73
     4
 74
     0
 42
0.00000001
 43
0.00000001
 12
1.0
 22
0.0
 32
0.0
 13
1.0
 23
0.0
 33
0.0
 40
0.0000202082942178
 40
0.0000202082942178
 40
0.0000202082942178
 40
0.0000202082942178
 40
0.0040218803475995
 40
0.0040218803475995
 40
0.0040218803475995
 40
0.0040218803475995
 10
149.5197119775749
 20
99.49666481309595
 30
0.0
 10
148.1863689765881
 20
99.47397014231554
 30
0.0
 10
146.8530351033655
 20
99.45064240214722
 30
0.0
 10
145.5197119775749
 20
99.4266441709836
 30
0.0
  0
SPLINE
  5
128
330
1F
100
AcDbEntity
  8
0
  6
HIDDEN
 62
     7
370
     0
100
AcDbSpline
210
0.0
220
0.0
230
1.0
 70
     8
 71
     3
 72
     8
 73
     4
 74
     0
 42
0.00000001
 43
0.00000001
 12
1.0
 22
0.0
 32
0.0
 13
1.0
 23
0.0
 33
0.0
 40
0.0
 40
0.0
 40
0.0
 40
0.0
 40
1.0
 40
1.0
 40
1.0
 40
1.0
 10
144.019711977574
 20
93.93899612441247
 30
0.0
 10
144.493923388012
 20
93.60426689711737
 30
0.0
 10
144.9986597351138
 20
93.34520848328445
 30
0.0
 10
145.5197119775749
 20
93.12968993431016
 30
0.0
  0
SPLINE
  5
129
330
1F
100
AcDbEntity
  8
0
  6
HIDDEN
 62
     7
370
     0
100
AcDbSpline
210
0.0
220
0.0
230
1.0
 70
     8
 71
     3
 72
     8
 73
     4
 74
     0
 42
0.00000001
 43
0.00000001
 12
1.0
 22
0.0
 32
0.0
 13
1.0
 23
0.0
 33
0.0
 40
0.0
 40
0.0
 40
0.0
 40
0.0
 40
1.0
 40
1.0
 40
1.0
 40
1.0
 10
145.5197119775749
 20
99.4266441709836
 30
0.0
 10
144.9986597351142
 20
99.21112562200945
 30
0.0
 10
144.4939233880126
 20
98.95206720817671
 30
0.0
 10
144.0197119775749
 20
98.61733798088193
 30
0.0
  0
LINE
  5
12A
330
1F
100
AcDbEntity
  8
0
  6
HIDDEN
 62
     7
370
     0
100
AcDbLine
 10
144.0197119776
 20
93.9389961244
 30
0.0
 11
144.0197119776
 21
98.6173379809
 31
0.0
  0
SPLINE
  5
12B
330
1F
100
AcDbEntity
  8
0
  6
HIDDEN
 62
     7
370
     0
100
AcDbSpline
210
0.0
220
0.0
230
1.0
 70
     8
 71
     3
 72
    68
 73
    64
 74
     0
 42
0.00000001
 43
0.00000001
 12
1.0
 22
0.0
 32
0.0
 13
1.0
 23
0.0
 33
0.0
 40
-0.0312500000000001
 40
-0.0312500000000001
 40
0.0
 40
0.0
 40
0.0312499999999999
 40
0.0312499999999999
 40
0.0624999999999999
 40
0.0624999999999999
 40
0.0937499999999998
 40
0.0937499999999998
 40
0.1249999999999998
 40
0.1249999999999998
 40
0.1874999999999996
 40
0.1874999999999996
 40
0.2187499999999996
 40
0.2187499999999996
 40
0.2499999999999995
 40
0.2499999999999995
 40
0.2812499999999994
 40
0.2812499999999994
 40
0.3124999999999994
 40
0.3124999999999994
 40
0.3437499999999993
 40
0.3437499999999993
 40
0.3749999999999992
 40
0.3749999999999992
 40
0.4062499999999992
 40
0.4062499999999992
 40
0.4374999999999991
 40
0.4374999999999991
 40
0.4687499999999991
 40
0.4687499999999991
 40
0.499999999999999
 40
0.499999999999999
 40
0.5312499999999989
 40
0.5312499999999989
 40
0.5624999999999989
 40
0.5624999999999989
 40
0.5937499999999988
 40
0.5937499999999988
 40
0.6249999999999988
 40
0.6249999999999988
 40
0.6562499999999987
 40
0.6562499999999987
 40
0.6874999999999987
 40
0.6874999999999987
 40
0.7187499999999986
 40
0.7187499999999986
 40
0.7499999999999987
 40
0.7499999999999987
 40
0.7812499999999989
 40
0.7812499999999989
 40
0.812499999999999
 40
0.812499999999999
 40
0.8437499999999992
 40
0.8437499999999992
 40
0.8749999999999993
 40
0.8749999999999993
 40
0.9062499999999996
 40
0.9062499999999996
 40
0.9374999999999997
 40
0.9374999999999997
 40
0.9687499999999999
 40
0.9687499999999999
 40
1.0
 40
1.0
 40
1.03125
 40
1.03125
 10
157.4035382649114
 20
98.17498462926349
 30
0.0
 10
157.6940027472032
 20
98.49341687026401
 30
0.0
 10
157.8529190455847
 20
98.63593439596768
 30
0.0
 10
158.1964997312225
 20
98.88964893305739
 30
0.0
 10
158.3826710841282
 20
99.00121275956636
 30
0.0
 10
158.767201156714
 20
99.18546179623542
 30
0.0
 10
158.9668116588786
 20
99.25937606232421
 30
0.0
 10
159.3806512438522
 20
99.37101795188435
 30
0.0
 10
159.5934610535234
 20
99.4079420061732
 30
0.0
 10
160.2293925278641
 20
99.46054382674866
 30
0.0
 10
160.6644587484919
 20
99.41833543608848
 30
0.0
 10
161.2767016154795
 20
99.24450083089309
 30
0.0
 10
161.4765467035916
 20
99.16788260308103
 30
0.0
 10
161.8609240123197
 20
98.97770773473809
 30
0.0
 10
162.0414724031822
 20
98.86634830051955
 30
0.0
 10
162.3795323308918
 20
98.61124303179719
 30
0.0
 10
162.538564147303
 20
98.4657372436045
 30
0.0
 10
162.8233608275254
 20
98.14749858943162
 30
0.0
 10
162.9483063564003
 20
97.9764462709125
 30
0.0
 10
163.162608496814
 20
97.6098856847994
 30
0.0
 10
163.2525072759888
 20
97.41181695099674
 30
0.0
 10
163.3861595651178
 20
97.00723419778731
 30
0.0
 10
163.4311675004318
 20
96.79961901777023
 30
0.0
 10
163.4759469810492
 20
96.37332926134135
 30
0.0
 10
163.4748733200334
 20
96.15669096339303
 30
0.0
 10
163.4268535263179
 20
95.73373093643566
 30
0.0
 10
163.3794405490931
 20
95.52273425117635
 30
0.0
 10
163.2411253002764
 20
95.11694553574452
 30
0.0
 10
163.1514444420542
 20
94.923998877082
 30
0.0
 10
162.932761731727
 20
94.55709225409855
 30
0.0
 10
162.8033140138984
 20
94.38358710587647
 30
0.0
 10
162.5168084098688
 20
94.06958500788585
 30
0.0
 10
162.3579495916309
 20
93.92648208143147
 30
0.0
 10
162.012951769678
 20
93.67115116557848
 30
0.0
 10
161.8307346655576
 20
93.561618987978
 30
0.0
 10
161.4478945889186
 20
93.37669216118975
 30
0.0
 10
161.2451503638454
 20
93.30087633434827
 30
0.0
 10
160.8333217893822
 20
93.18829584210621
 30
0.0
 10
160.6241030127826
 20
93.1509556225215
 30
0.0
 10
160.1991101785481
 20
93.1137246029914
 30
0.0
 10
159.981952901475
 20
93.11429056692303
 30
0.0
 10
159.5575750623218
 20
93.15368827081244
 30
0.0
 10
159.3484584144721
 20
93.19211750544665
 30
0.0
 10
158.9365174255781
 20
93.30732253998404
 30
0.0
 10
158.733949320685
 20
93.38458747048851
 30
0.0
 10
158.3523488782177
 20
93.57226974062038
 30
0.0
 10
158.1710379423385
 20
93.6831830924324
 30
0.0
 10
157.8284460454044
 20
93.94113653116322
 30
0.0
 10
157.6696224284503
 20
94.08685222677262
 30
0.0
 10
157.3865776493499
 20
94.40317338448209
 30
0.0
 10
157.2605677173641
 20
94.57520709588123
 30
0.0
 10
157.0434606735492
 20
94.94774967387026
 30
0.0
 10
156.9560253772753
 20
95.1418714591443
 30
0.0
 10
156.8228320967278
 20
95.54564618822386
 30
0.0
 10
156.7769315146231
 20
95.7581431148314
 30
0.0
 10
156.7326149736893
 20
96.18373897568954
 30
0.0
 10
156.7334571611717
 20
96.39657281395874
 30
0.0
 10
156.7812958555928
 20
96.82231254378861
 30
0.0
 10
156.8288317110619
 20
97.03407470920176
 30
0.0
 10
156.9655703062898
 20
97.43756424365907
 30
0.0
 10
157.0558538515654
 20
97.63332286461213
 30
0.0
 10
157.2755647438304
 20
98.00292309136027
 30
0.0
 10
157.4035382649114
 20
98.17498462926349
 30
0.0
 10
157.6940027472032
 20
98.49341687026401
 30
0.0
  0
CIRCLE
  5
12C
330
1F
100
AcDbEntity
  8
0
  6
HIDDEN
 62
     7
370
     0
100
AcDbCircle
 10
160.0197119776
 20
96.2781670526
 30
0.0
 40
3.049999999999997
  0
LINE
  5
12D
330
1F
100
AcDbEntity
  8
0
  6
HIDDEN
 62
     7
370
     0
100
AcDbLine
 10
262.0197119776
 20
86.2781670526
 30
0.0
 11
262.0197119776
 21
102.0516697445
 31
0.0
  0
LINE
  5
12E
330
1F
100
AcDbEntity
  8
0
  6
HIDDEN
 62
     7
370
     0
100
AcDbLine
 10
197.0197119776
 20
86.2781670526
 30
0.0
 11
205.5197119776
 21
86.2781670526
 31
0.0
  0
LINE
  5
12F
330
1F
100
AcDbEntity
  8
0
  6
HIDDEN
 62
     7
370
     0
100
AcDbLine
 10
205.5197119776
 20
66.2781670526
 30
0.0
 11
197.0197119776
 21
66.2781670526
 31
0.0
  0
LINE
  5
130
330
1F
100
AcDbEntity
  8
0
  6
HIDDEN
 62
     7
370
     0
100
AcDbLine
 10
195.0197119776
 20
122.2781670526
 30
0.0
 11
226.9863909808
 21
122.2781670526
 31
0.0
  0
LINE
  5
131
330
1F
100
AcDbEntity
  8
0
  6
HIDDEN
 62
     7
370
     0
100
AcDbLine
 10
252.9671530943
 20
107.2781670526
 30
0.0
 11
226.9863909808
 21
122.2781670526
 31
0.0
  0
LINE
  5
132
330
1F
100
AcDbEntity
  8
0
  6
HIDDEN
 62
     7
370
     0
100
AcDbLine
 10
195.0197119776
 20
122.2781670526
 30
0.0
 11
195.0197119776
 21
107.2781670526
 31
0.0
  0
CIRCLE
  5
133
330
1F
100
AcDbEntity
  8
0
  6
HIDDEN
 62
     7
370
     0
100
AcDbCircle
 10
186.0197119776
 20
96.2781670526
 30
0.0
 40
2.000000000000014
  0
SPLINE
  5
134
330
1F
100
AcDbEntity
  8
0
  6
HIDDEN
 62
     7
370
     0
100
AcDbSpline
210
0.0
220
0.0
230
1.0
 70
     8
 71
     3
 72
    18
 73
    14
 74
     0
 42
0.00000001
 43
0.00000001
 12
1.0
 22
0.0
 32
0.0
 13
1.0
 23
0.0
 33
0.0
 40
0.0
 40
0.0
 40
0.0
 40
0.0
 40
0.2499999999999974
 40
0.2499999999999974
 40
0.4999999999999949
 40
0.4999999999999949
 40
0.6249999999999961
 40
0.6249999999999961
 40
0.7499999999999974
 40
0.7499999999999974
 40
0.8749999999999987
 40
0.8749999999999987
 40
1.0
 40
1.0
 40
1.0
 40
1.0
 10
195.0197119775749
 20
79.07351651856165
 30
0.0
 10
195.0197119775749
 20
78.86075575307541
 30
0.0
 10
195.0328377911571
 20
78.64560379807354
 30
0.0
 10
195.0904053930014
 20
78.22171705034403
 30
0.0
 10
195.1346419332745
 20
78.01119566290909
 30
0.0
 10
195.2348165827772
 20
77.70565050189865
 30
0.0
 10
195.2736815593346
 20
77.60619822976956
 30
0.0
 10
195.3664926024205
 20
77.41389576969543
 30
0.0
 10
195.4209327976471
 20
77.3200419336365
 30
0.0
 10
195.5507252551936
 20
77.1485763788197
 30
0.0
 10
195.6271451100479
 20
77.06972064903309
 30
0.0
 10
195.8050689325009
 20
76.95215780418755
 30
0.0
 10
195.9114104783359
 20
76.9132503216098
 30
0.0
 10
196.0197119775749
 20
76.91325032160981
 30
0.0
  0
SPLINE
  5
135
330
1F
100
AcDbEntity
  8
0
  6
HIDDEN
 62
     7
370
     0
100
AcDbSpline
210
0.0
220
0.0
230
1.0
 70
    24
 71
     3
 72
    16
 73
    12
 74
     0
 42
0.00000001
 43
0.00000001
 12
1.0
 22
0.0
 32
0.0
 13
1.0
 23
0.0
 33
0.0
 40
0.0
 40
0.0
 40
0.0
 40
0.0
 40
0.125
 40
0.125
 40
0.25
 40
0.25
 40
0.5
 40
0.5
 40
0.75
 40
0.75
 40
1.0
 40
1.0
 40
1.0
 40
1.0
 10
196.0197119775749
 20
66.2781670526469
 30
0.0
 10
195.9351825649795
 20
66.2781670526469
 30
0.0
 10
195.8508130885078
 20
66.2781670526469
 30
0.0
 10
195.692170155487
 20
66.2781670526469
 30
0.0
 10
195.6203773146793
 20
66.2781670526469
 30
0.0
 10
195.4221981389365
 20
66.2781670526469
 30
0.0
 10
195.3195605082604
 20
66.2781670526469
 30
0.0
 10
195.1624785792588
 20
66.2781670526469
 30
0.0
 10
195.1084676989417
 20
66.2781670526469
 30
0.0
 10
195.0363402409072
 20
66.2781670526469
 30
0.0
 10
195.0197119775749
 20
66.2781670526469
 30
0.0
 10
195.0197119775749
 20
66.2781670526469
 30
0.0
  0
LINE
  5
136
330
1F
100
AcDbEntity
  8
0
  6
HIDDEN
 62
     7
370
     0
100
AcDbLine
 10
195.0197119776
 20
79.0735165186
 30
0.0
 11
195.0197119776
 21
66.2781670526
 31
0.0
  0
LINE
  5
137
330
1F
100
AcDbEntity
  8
0
  6
HIDDEN
 62
     7
370
     0
100
AcDbLine
 10
272.0197119776
 20
76.9132503216
 30
0.0
 11
272.0197119776
 21
67.2781670526
 31
0.0
  0
LINE
  5
138
330
1F
100
AcDbEntity
  8
0
  6
HIDDEN
 62
     7
370
     0
100
AcDbLine
 10
272.0197119776
 20
67.2781670526
 30
0.0
 11
271.0197119776
 21
66.2781670526
 31
0.0
  0
LINE
  5
139
330
1F
100
AcDbEntity
  8
0
  6
HIDDEN
 62
     7
370
     0
100
AcDbLine
 10
271.0197119776
 20
66.2781670526
 30
0.0
 11
196.0197119776
 21
66.2781670526
 31
0.0
  0
LINE
  5
13A
330
1F
100
AcDbEntity
  8
0
  6
HIDDEN
 62
     7
370
     0
100
AcDbLine
 10
196.0197119776
 20
76.9132503216
 30
0.0
 11
272.0197119776
 21
76.9132503216
 31
0.0
  0
LINE
  5
13B
330
1F
100
AcDbEntity
  8
0
  6
HIDDEN
 62
     7
370
     0
100
AcDbLine
 10
195.0197119776
 20
107.2781670526
 30
0.0
 11
252.9671530943
 21
107.2781670526
 31
0.0
  0
LINE
  5
13C
330
1F
100
AcDbEntity
  8
0
  6
HIDDEN
 62
     7
370
     0
100
AcDbLine
 10
272.0197119776
 20
76.9132503216
 30
0.0
 11
272.0197119776
 21
96.2781670526
 31
0.0
  0
LINE
  5
13D
330
1F
100
AcDbEntity
  8
0
  6
HIDDEN
 62
     7
370
     0
100
AcDbLine
 10
252.9671530943
 20
107.2781670526
 30
0.0
 11
272.0197119776
 21
96.2781670526
 31
0.0
  0
LINE
  5
13E
330
1F
100
AcDbEntity
  8
0
  6
HIDDEN
 62
     7
370
     0
100
AcDbLine
 10
195.0197119776
 20
107.2781670526
 30
0.0
 11
195.0197119776
 21
79.0735165186
 31
0.0
  0
LINE
  5
13F
330
1F
100
AcDbEntity
  8
0
  6
HIDDEN
 62
     7
370
     0
100
AcDbLine
 10
174.0197119776
 20
76.7281670526
 30
0.0
 11
174.1126051964
 21
76.8210602715
 31
0.0
  0
LINE
  5
140
330
1F
100
AcDbEntity
  8
0
  6
HIDDEN
 62
     7
370
     0
100
AcDbLine
 10
174.1126051964
 20
115.7352738338
 30
0.0
 11
174.0197119776
 21
115.8281670526
 31
0.0
  0
ARC
  5
141
330
1F
100
AcDbEntity
  8
0
  6
HIDDEN
 62
     7
370
     0
100
AcDbCircle
 10
173.4054984152
 20
77.5281670526
 30
0.0
 40
1.0
100
AcDbArc
 50
315.0
 51
0.0
  0
ARC
  5
142
330
1F
100
AcDbEntity
  8
0
  6
HIDDEN
 62
     7
370
     0
100
AcDbCircle
 10
173.4054984152
 20
77.5281670526
 30
0.0
 40
1.000000000000004
100
AcDbArc
 50
0.0
 51
52.1052014664
  0
ARC
  5
143
330
1F
100
AcDbEntity
  8
0
  6
HIDDEN
 62
     7
370
     0
100
AcDbCircle
 10
173.4054984152
 20
115.0281670526
 30
0.0
 40
0.999999999999998
100
AcDbArc
 50
351.8087250651
 51
45.0
  0
ARC
  5
144
330
1F
100
AcDbEntity
  8
0
  6
HIDDEN
 62
     7
370
     0
100
AcDbCircle
 10
173.4054984152
 20
115.0281670526
 30
0.0
 40
0.9999999999999927
100
AcDbArc
 50
307.8947985336
 51
351.8087250651
  0
LINE
  5
145
330
1F
100
AcDbEntity
  8
0
  6
HIDDEN
 62
     7
370
     0
100
AcDbLine
 10
174.4054984152
 20
77.5281670526
 30
0.0
 11
174.4054984152
 21
115.0281670526
 31
0.0
  0
LINE
  5
146
330
1F
100
AcDbEntity
  8
0
  6
HIDDEN
 62
     7
370
     0
100
AcDbLine
 10
174.4054984152
 20
77.5281670526
 30
0.0
 11
174.4054984152
 21
115.0281670526
 31
0.0
  0
LINE
  5
147
330
1F
100
AcDbEntity
  8
0
  6
HIDDEN
 62
     7
370
     0
100
AcDbLine
 10
262.0197119776
 20
97.2781670526
 30
0.0
 11
254.0197119776
 21
97.2781670526
 31
0.0
  0
LINE
  5
148
330
1F
100
AcDbEntity
  8
0
  6
HIDDEN
 62
     7
370
     0
100
AcDbLine
 10
254.0197119776
 20
85.2781670526
 30
0.0
 11
262.0197119776
 21
85.2781670526
 31
0.0
  0
LINE
  5
149
330
1F
100
AcDbEntity
  8
0
  6
HIDDEN
 62
     7
370
     0
100
AcDbLine
 10
254.0197119776
 20
93.7832592384
 30
0.0
 11
232.3314482445
 21
96.819367866
 31
0.0
  0
LINE
  5
14A
330
1F
100
AcDbEntity
  8
0
  6
HIDDEN
 62
     7
370
     0
100
AcDbLine
 10
228.9836646005
 20
93.0470656473
 30
0.0
 11
254.0197119776
 21
89.5423056361
 31
0.0
  0
ARC
  5
14B
330
1F
100
AcDbEntity
  8
0
  6
HIDDEN
 62
     7
370
     0
100
AcDbCircle
 10
151.5264314896
 20
85.7781670526
 30
0.0
 40
1.5
100
AcDbArc
 50
270.0
 51
315.0
  0
ARC
  5
14C
330
1F
100
AcDbEntity
  8
0
  6
HIDDEN
 62
     7
370
     0
100
AcDbCircle
 10
151.5264314896
 20
106.7781670526
 30
0.0
 40
1.5
100
AcDbArc
 50
45.0
 51
90.0
  0
LINE
  5
14D
330
1F
100
AcDbEntity
  8
0
  6
HIDDEN
 62
     7
370
     0
100
AcDbLine
 10
150.5197119776
 20
84.2781670526
 30
0.0
 11
151.5264314896
 21
84.2781670526
 31
0.0
  0
LINE
  5
14E
330
1F
100
AcDbEntity
  8
0
  6
HIDDEN
 62
     7
370
     0
100
AcDbLine
 10
151.5264314896
 20
108.2781670526
 30
0.0
 11
150.5197119776
 21
108.2781670526
 31
0.0
  0
ARC
  5
14F
330
1F
100
AcDbEntity
  8
0
  6
HIDDEN
 62
     7
370
     0
100
AcDbCircle
 10
150.5197119776
 20
85.7781670526
 30
0.0
 40
1.500000000000017
100
AcDbArc
 50
191.0958032831
 51
270.0
  0
ARC
  5
150
330
1F
100
AcDbEntity
  8
0
  6
HIDDEN
 62
     7
370
     0
100
AcDbCircle
 10
150.5197119776
 20
106.7781670526
 30
0.0
 40
1.500000000000017
100
AcDbArc
 50
90.0
 51
168.9041967169
  0
LINE
  5
151
330
1F
100
AcDbEntity
  8
0
  6
HIDDEN
 62
     7
370
     0
100
AcDbLine
 10
144.0197119776
 20
84.5147549842
 30
0.0
 11
145.0477518332
 21
85.1082940716
 31
0.0
  0
LINE
  5
152
330
1F
100
AcDbEntity
  8
0
  6
HIDDEN
 62
     7
370
     0
100
AcDbLine
 10
145.0477518332
 20
107.4480400337
 30
0.0
 11
144.0197119776
 21
108.0415791211
 31
0.0
  0
LINE
  5
153
330
1F
100
AcDbEntity
  8
0
  6
HIDDEN
 62
     7
370
     0
100
AcDbLine
 10
152.5870916614
 20
84.7175068809
 30
0.0
 11
153.6477518332
 21
85.7781670526
 31
0.0
  0
LINE
  5
154
330
1F
100
AcDbEntity
  8
0
  6
HIDDEN
 62
     7
370
     0
100
AcDbLine
 10
153.6477518332
 20
106.7781670526
 30
0.0
 11
152.5870916614
 21
107.8388272244
 31
0.0
  0
LINE
  5
155
330
1F
100
AcDbEntity
  8
0
  6
HIDDEN
 62
     7
370
     0
100
AcDbLine
 10
145.0477518332
 20
85.1082940716
 30
0.0
 11
147.5477518332
 21
85.7781670526
 31
0.0
  0
LINE
  5
156
330
1F
100
AcDbEntity
  8
0
  6
HIDDEN
 62
     7
370
     0
100
AcDbLine
 10
147.5477518332
 20
106.7781670526
 30
0.0
 11
145.0477518332
 21
107.4480400337
 31
0.0
  0
LINE
  5
157
330
1F
100
AcDbEntity
  8
0
  6
HIDDEN
 62
     7
370
     0
100
AcDbLine
 10
149.0477518332
 20
107.0668421872
 30
0.0
 11
148.5477518332
 21
106.7781670526
 31
0.0
  0
LINE
  5
158
330
1F
100
AcDbEntity
  8
0
  6
HIDDEN
 62
     7
370
     0
100
AcDbLine
 10
148.5477518332
 20
85.7781670526
 30
0.0
 11
149.0477518332
 21
85.4894919181
 31
0.0
  0
LINE
  5
159
330
1F
100
AcDbEntity
  8
0
  6
HIDDEN
 62
     7
370
     0
100
AcDbLine
 10
147.5477518332
 20
85.7781670526
 30
0.0
 11
148.5477518332
 21
85.7781670526
 31
0.0
  0
LINE
  5
15A
330
1F
100
AcDbEntity
  8
0
  6
HIDDEN
 62
     7
370
     0
100
AcDbLine
 10
148.5477518332
 20
106.7781670526
 30
0.0
 11
147.5477518332
 21
106.7781670526
 31
0.0
  0
ARC
  5
15B
330
1F
100
AcDbEntity
  8
0
  6
HIDDEN
 62
     7
370
     0
100
AcDbCircle
 10
163.5197119776
 20
86.2781670526
 30
0.0
 40
0.5
100
AcDbArc
 50
270.0
 51
0.0
  0
ARC
  5
15C
330
1F
100
AcDbEntity
  8
0
  6
HIDDEN
 62
     7
370
     0
100
AcDbCircle
 10
163.5197119776
 20
106.2781670526
 30
0.0
 40
0.5
100
AcDbArc
 50
0.0
 51
90.0
  0
LINE
  5
15D
330
1F
100
AcDbEntity
  8
0
  6
HIDDEN
 62
     7
370
     0
100
AcDbLine
 10
153.6477518332
 20
85.7781670526
 30
0.0
 11
163.5197119776
 21
85.7781670526
 31
0.0
  0
LINE
  5
15E
330
1F
100
AcDbEntity
  8
0
  6
HIDDEN
 62
     7
370
     0
100
AcDbLine
 10
163.5197119776
 20
106.7781670526
 30
0.0
 11
153.6477518332
 21
106.7781670526
 31
0.0
  0
LINE
  5
15F
330
1F
100
AcDbEntity
  8
0
  6
HIDDEN
 62
     7
370
     0
100
AcDbLine
 10
164.0197119776
 20
88.0281670526
 30
0.0
 11
165.0197119776
 21
89.0281670526
 31
0.0
  0
LINE
  5
160
330
1F
100
AcDbEntity
  8
0
  6
HIDDEN
 62
     7
370
     0
100
AcDbLine
 10
165.0197119776
 20
103.5281670526
 30
0.0
 11
164.0197119776
 21
104.5281670526
 31
0.0
  0
LINE
  5
161
330
1F
100
AcDbEntity
  8
0
  6
HIDDEN
 62
     7
370
     0
100
AcDbLine
 10
165.0197119776
 20
89.0281670526
 30
0.0
 11
189.0197119776
 21
89.0281670526
 31
0.0
  0
LINE
  5
162
330
1F
100
AcDbEntity
  8
0
  6
HIDDEN
 62
     7
370
     0
100
AcDbLine
 10
189.0197119776
 20
103.5281670526
 30
0.0
 11
165.0197119776
 21
103.5281670526
 31
0.0
  0
LINE
  5
163
330
1F
100
AcDbEntity
  8
0
  6
HIDDEN
 62
     7
370
     0
100
AcDbLine
 10
189.0197119776
 20
89.0281670526
 30
0.0
 11
190.8222938347
 21
92.0281670526
 31
0.0
  0
LINE
  5
164
330
1F
100
AcDbEntity
  8
0
  6
HIDDEN
 62
     7
370
     0
100
AcDbLine
 10
190.8222938347
 20
100.5281670526
 30
0.0
 11
189.0197119776
 21
103.5281670526
 31
0.0
  0
LINE
  5
165
330
1F
100
AcDbEntity
  8
0
  6
HIDDEN
 62
     7
370
     0
100
AcDbLine
 10
232.0197119776
 20
92.0281670526
 30
0.0
 11
234.5733696084
 21
96.2781670526
 31
0.0
  0
LINE
  5
166
330
1F
100
AcDbEntity
  8
0
  6
HIDDEN
 62
     7
370
     0
100
AcDbLine
 10
234.5733696084
 20
96.2781670526
 30
0.0
 11
232.0197119776
 21
100.5281670526
 31
0.0
  0
LINE
  5
167
330
1F
100
AcDbEntity
  8
0
  6
HIDDEN
 62
     7
370
     0
100
AcDbLine
 10
190.8222938347
 20
92.0281670526
 30
0.0
 11
232.0197119776
 21
92.0281670526
 31
0.0
  0
LINE
  5
168
330
1F
100
AcDbEntity
  8
0
  6
HIDDEN
 62
     7
370
     0
100
AcDbLine
 10
232.0197119776
 20
100.5281670526
 30
0.0
 11
190.8222938347
 21
100.5281670526
 31
0.0
  0
LINE
  5
169
330
1F
100
AcDbEntity
  8
VERMASSUNG
  6
CENTERX2
100
AcDbLine
 10
140.0779303292
 20
96.2781670526
 30
0.0
 11
278.6590565113
 21
96.2781670526
 31
0.0
  0
DIMENSION
  5
16A
330
1F
100
AcDbEntity
  8
VERMASSUNG
100
AcDbDimension
  2
_D
 10
140.0779303292
 20
96.2781670526
 30
0.0
 11
244.5064408577
 21
119.4975889888
 31
0.0
 70
   162
  1
<>
 71
     1
 42
-1.0
  3
SLDDIMSTYLE0
100
AcDb2LineAngularDimension
 13
251.2351022867
 23
108.2781670526
 33
0.0
 14
226.9863909808
 24
122.2781670526
 34
0.0
 15
278.6590565113
 25
96.2781670526
 35
0.0
 16
237.2447503543
 26
105.5960899364
 36
0.0
  0
DIMENSION
  5
174
330
1F
100
AcDbEntity
  8
VERMASSUNG
100
AcDbDimension
  2
_D_1
 10
272.0197119776
 20
56.2781670526
 30
0.0
 11
223.0197119776
 21
56.2781670526
 31
0.0
 70
   160
  1
<>
 71
     2
 42
-1.0
  3
SLDDIMSTYLE1
100
AcDbAlignedDimension
 13
174.0197119776
 23
71.5781670526
 33
0.0
 14
272.0197119776
 24
67.2781670526
 34
0.0
100
AcDbRotatedDimension
  0
DIMENSION
  5
17F
330
1F
100
AcDbEntity
  8
VERMASSUNG
100
AcDbDimension
  2
_D_2
 10
272.0197119776
 20
50.2781670526
 30
0.0
 11
208.0197119776
 21
50.2781670526
 31
0.0
 70
   160
  1
<>
 71
     2
 42
-1.0
  3
SLDDIMSTYLE1
100
AcDbAlignedDimension
 13
144.0197119776
 23
80.2848412145
 33
0.0
 14
272.0197119776
 24
67.2781670526
 34
0.0
100
AcDbRotatedDimension
  0
DIMENSION
  5
189
330
1F
100
AcDbEntity
  8
VERMASSUNG
100
AcDbDimension
  2
_D_3
 10
137.4444828988
 20
71.2781670526
 30
0.0
 11
137.4444828988
 21
96.2781670526
 31
0.0
 70
   160
  1
PSC%%c<>
 71
     2
 42
-1.0
  3
SLDDIMSTYLE1
100
AcDbAlignedDimension
 13
174.3197119776
 23
121.2781670526
 33
0.0
 14
174.3197119776
 24
71.2781670526
 34
0.0
 50
90.0
100
AcDbRotatedDimension
  0
LINE
  5
195
330
1F
100
AcDbEntity
  8
0
  6
Continuous
 62
     7
370
    15
100
AcDbLine
 10
56.4743274065
 20
71.7781670526
 30
0.0
 11
57.4743274065
 21
72.7781670526
 31
0.0
  0
LINE
  5
196
330
1F
100
AcDbEntity
  8
0
  6
Continuous
 62
     7
370
    15
100
AcDbLine
 10
57.4743274065
 20
79.7781670526
 30
0.0
 11
56.4743274065
 21
80.7781670526
 31
0.0
  0
CIRCLE
  5
197
330
1F
100
AcDbEntity
  8
0
  6
Continuous
 62
     7
370
    15
100
AcDbCircle
 10
45.068038466
 20
91.5646760302
 30
0.0
 40
3.231352231505651
  0
CIRCLE
  5
198
330
1F
100
AcDbEntity
  8
0
  6
Continuous
 62
     7
370
    15
100
AcDbCircle
 10
45.0697026304
 20
91.5675031503
 30
0.0
 40
2.484627564214418
  0
CIRCLE
  5
199
330
1F
100
AcDbEntity
  8
0
  6
Continuous
 62
     7
370
    15
100
AcDbCircle
 10
45.112603364
 20
91.5378294638
 30
0.0
 40
2.0870388269091
  0
ARC
  5
19A
330
1F
100
AcDbEntity
  8
0
  6
Continuous
 62
     7
370
    15
100
AcDbCircle
 10
45.7137818777
 20
91.0956618531
 30
0.0
 40
2.102504331745578
100
AcDbArc
 50
63.138758387
 51
222.2340607761
  0
CIRCLE
  5
19B
330
1F
100
AcDbEntity
  8
0
  6
Continuous
 62
     7
370
    15
100
AcDbCircle
 10
45.4743274065
 20
91.2781670526
 30
0.0
 40
4.582575694955858
  0
CIRCLE
  5
19C
330
1F
100
AcDbEntity
  8
0
  6
Continuous
 62
     7
370
    15
100
AcDbCircle
 10
45.4743274065
 20
91.2781670526
 30
0.0
 40
6.000000000000014
  0
LINE
  5
19D
330
1F
100
AcDbEntity
  8
0
  6
Continuous
 62
     7
370
    15
100
AcDbLine
 10
57.4743274065
 20
72.7781670526
 30
0.0
 11
57.4743274065
 21
79.7781670526
 31
0.0
  0
LINE
  5
19E
330
1F
100
AcDbEntity
  8
0
  6
Continuous
 62
     7
370
    15
100
AcDbLine
 10
92.4743274065
 20
96.2781670526
 30
0.0
 11
77.4743274065
 21
96.2781670526
 31
0.0
  0
LINE
  5
19F
330
1F
100
AcDbEntity
  8
0
  6
Continuous
 62
     7
370
    15
100
AcDbLine
 10
92.4743274065
 20
76.9132503216
 30
0.0
 11
92.4743274065
 21
96.2781670526
 31
0.0
  0
LINE
  5
1A0
330
1F
100
AcDbEntity
  8
0
  6
Continuous
 62
     7
370
    15
100
AcDbLine
 10
77.4743274065
 20
67.2781670526
 30
0.0
 11
85.0242820345
 21
67.2781670526
 31
0.0
  0
LINE
  5
1A1
330
1F
100
AcDbEntity
  8
0
  6
Continuous
 62
     7
370
    15
100
AcDbLine
 10
77.4743274065
 20
67.2781670526
 30
0.0
 11
77.4743274065
 21
96.2781670526
 31
0.0
  0
ARC
  5
1A2
330
1F
100
AcDbEntity
  8
0
  6
Continuous
 62
     7
370
    15
100
AcDbCircle
 10
57.4743274065
 20
96.2781670526
 30
0.0
 40
40.00000000000001
100
AcDbArc
 50
313.5311521674
 51
331.0449756281
  0
LINE
  5
1A3
330
1F
100
AcDbEntity
  8
0
  6
Continuous
 62
     7
370
    15
100
AcDbLine
 10
77.4743274065
 20
122.2781670526
 30
0.0
 11
46.4743274065
 21
122.2781670526
 31
0.0
  0
LINE
  5
1A4
330
1F
100
AcDbEntity
  8
0
  6
Continuous
 62
     7
370
    15
100
AcDbLine
 10
92.4743274065
 20
107.2781670526
 30
0.0
 11
77.4743274065
 21
122.2781670526
 31
0.0
  0
LINE
  5
1A5
330
1F
100
AcDbEntity
  8
0
  6
Continuous
 62
     7
370
    15
100
AcDbLine
 10
92.4743274065
 20
107.2781670526
 30
0.0
 11
92.4743274065
 21
96.2781670526
 31
0.0
  0
LINE
  5
1A6
330
1F
100
AcDbEntity
  8
0
  6
Continuous
 62
     7
370
    15
100
AcDbLine
 10
77.4743274065
 20
96.2781670526
 30
0.0
 11
77.4743274065
 21
102.0516697445
 31
0.0
  0
LINE
  5
1A7
330
1F
100
AcDbEntity
  8
0
  6
Continuous
 62
     7
370
    15
100
AcDbLine
 10
32.4743274065
 20
102.0516697445
 30
0.0
 11
77.4743274065
 21
102.0516697445
 31
0.0
  0
LINE
  5
1A8
330
1F
100
AcDbEntity
  8
0
  6
Continuous
 62
     7
370
    15
100
AcDbLine
 10
32.4743274065
 20
108.2781670526
 30
0.0
 11
32.4743274065
 21
102.0516697445
 31
0.0
  0
LINE
  5
1A9
330
1F
100
AcDbEntity
  8
0
  6
Continuous
 62
     7
370
    15
100
AcDbLine
 10
46.4743274065
 20
122.2781670526
 30
0.0
 11
32.4743274065
 21
108.2781670526
 31
0.0
  0
LINE
  5
1AA
330
1F
100
AcDbEntity
  8
0
  6
Continuous
 62
     7
370
    15
100
AcDbLine
 10
83.9318405172
 20
66.2781670526
 30
0.0
 11
77.4743274065
 21
66.2781670526
 31
0.0
  0
LINE
  5
1AB
330
1F
100
AcDbEntity
  8
0
  6
Continuous
 62
     7
370
    15
100
AcDbLine
 10
77.4743274065
 20
66.2781670526
 30
0.0
 11
77.4743274065
 21
67.2781670526
 31
0.0
  0
ARC
  5
1AC
330
1F
100
AcDbEntity
  8
0
  6
Continuous
 62
     7
370
    15
100
AcDbCircle
 10
57.4743274065
 20
96.2781670526
 30
0.0
 40
40.0
100
AcDbArc
 50
311.4096221093
 51
313.5311521674
  0
ARC
  5
1AD
330
1F
100
AcDbEntity
  8
0
  6
Continuous
 62
     7
370
    15
100
AcDbCircle
 10
35.6743274065
 20
85.4781670526
 30
0.0
 40
1.799999999999805
100
AcDbArc
 50
0.0
 51
90.0
  0
LINE
  5
1AE
330
1F
100
AcDbEntity
  8
0
  6
Continuous
 62
     7
370
    15
100
AcDbLine
 10
32.4743274065
 20
87.2781670526
 30
0.0
 11
35.6743274065
 21
87.2781670526
 31
0.0
  0
LINE
  5
1AF
330
1F
100
AcDbEntity
  8
0
  6
Continuous
 62
     7
370
    15
100
AcDbLine
 10
32.4743274065
 20
102.0516697445
 30
0.0
 11
32.4743274065
 21
87.2781670526
 31
0.0
  0
LINE
  5
1B0
330
1F
100
AcDbEntity
  8
0
  6
Continuous
 62
     7
370
    15
100
AcDbLine
 10
56.4743274065
 20
86.2781670526
 30
0.0
 11
56.4743274065
 21
67.2781670526
 31
0.0
  0
LINE
  5
1B1
330
1F
100
AcDbEntity
  8
0
  6
Continuous
 62
     7
370
    15
100
AcDbLine
 10
37.4743274065
 20
67.2781670526
 30
0.0
 11
56.4743274065
 21
67.2781670526
 31
0.0
  0
LINE
  5
1B2
330
1F
100
AcDbEntity
  8
0
  6
Continuous
 62
     7
370
    15
100
AcDbLine
 10
37.4743274065
 20
85.4781670526
 30
0.0
 11
37.4743274065
 21
67.2781670526
 31
0.0
  0
LINE
  5
1B3
330
1F
100
AcDbEntity
  8
0
  6
Continuous
 62
     7
370
    15
100
AcDbLine
 10
56.4743274065
 20
86.2781670526
 30
0.0
 11
77.4743274065
 21
86.2781670526
 31
0.0
  0
LINE
  5
1B4
330
1F
100
AcDbEntity
  8
0
  6
Continuous
 62
     7
370
    15
100
AcDbLine
 10
37.4743274065
 20
66.2781670526
 30
0.0
 11
37.4743274065
 21
67.2781670526
 31
0.0
  0
LINE
  5
1B5
330
1F
100
AcDbEntity
  8
0
  6
Continuous
 62
     7
370
    15
100
AcDbLine
 10
56.4743274065
 20
67.2781670526
 30
0.0
 11
56.4743274065
 21
66.2781670526
 31
0.0
  0
LINE
  5
1B6
330
1F
100
AcDbEntity
  8
0
  6
Continuous
 62
     7
370
    15
100
AcDbLine
 10
56.4743274065
 20
66.2781670526
 30
0.0
 11
37.4743274065
 21
66.2781670526
 31
0.0
  0
LINE
  5
1B7
330
1F
100
AcDbEntity
  8
0
  6
Continuous
 62
     7
370
    15
100
AcDbLine
 10
35.6743274065
 20
86.2781670526
 30
0.0
 11
32.4743274065
 21
86.2781670526
 31
0.0
  0
LINE
  5
1B8
330
1F
100
AcDbEntity
  8
0
  6
Continuous
 62
     7
370
    15
100
AcDbLine
 10
32.4743274065
 20
87.2781670526
 30
0.0
 11
32.4743274065
 21
86.2781670526
 31
0.0
  0
ARC
  5
1B9
330
1F
100
AcDbEntity
  8
0
  6
Continuous
 62
     7
370
    15
100
AcDbCircle
 10
35.6743274065
 20
85.4781670526
 30
0.0
 40
0.7999999999999972
100
AcDbArc
 50
0.0
 51
90.0
  0
LINE
  5
1BA
330
1F
100
AcDbEntity
  8
0
  6
Continuous
 62
     7
370
    15
100
AcDbLine
 10
37.4743274065
 20
67.2781670526
 30
0.0
 11
36.4743274065
 21
67.2781670526
 31
0.0
  0
LINE
  5
1BB
330
1F
100
AcDbEntity
  8
0
  6
Continuous
 62
     7
370
    15
100
AcDbLine
 10
36.4743274065
 20
67.2781670526
 30
0.0
 11
36.4743274065
 21
85.4781670526
 31
0.0
  0
LINE
  5
1BC
330
1F
100
AcDbEntity
  8
0
  6
Continuous
 62
     7
370
    15
100
AcDbLine
 10
37.4743274065
 20
66.2781670526
 30
0.0
 11
36.4743274065
 21
67.2781670526
 31
0.0
  0
LINE
  5
1BD
330
1F
100
AcDbEntity
  8
0
  6
Continuous
 62
     7
370
    15
100
AcDbLine
 10
32.4743274065
 20
102.0516697445
 30
0.0
 11
31.4743274065
 21
101.4743194754
 31
0.0
  0
LINE
  5
1BE
330
1F
100
AcDbEntity
  8
0
  6
Continuous
 62
     7
370
    15
100
AcDbLine
 10
31.4743274065
 20
101.4743194754
 30
0.0
 11
31.4743274065
 21
107.2781670526
 31
0.0
  0
LINE
  5
1BF
330
1F
100
AcDbEntity
  8
0
  6
Continuous
 62
     7
370
    15
100
AcDbLine
 10
31.4743274065
 20
107.2781670526
 30
0.0
 11
32.4743274065
 21
108.2781670526
 31
0.0
  0
LINE
  5
1C0
330
1F
100
AcDbEntity
  8
0
  6
Continuous
 62
     7
370
    15
100
AcDbLine
 10
31.4743274065
 20
87.2781670526
 30
0.0
 11
32.4743274065
 21
86.2781670526
 31
0.0
  0
LINE
  5
1C1
330
1F
100
AcDbEntity
  8
0
  6
Continuous
 62
     7
370
    15
100
AcDbLine
 10
32.4743274065
 20
87.2781670526
 30
0.0
 11
31.4743274065
 21
87.2781670526
 31
0.0
  0
LINE
  5
1C2
330
1F
100
AcDbEntity
  8
0
  6
Continuous
 62
     7
370
    15
100
AcDbLine
 10
31.4743274065
 20
87.2781670526
 30
0.0
 11
31.4743274065
 21
101.4743194754
 31
0.0
  0
ELLIPSE
  5
1C3
330
1F
100
AcDbEntity
  8
0
  6
Continuous
 62
     7
370
    15
100
AcDbEllipse
 10
46.3974043296
 20
91.6627824373
 30
0.0
 11
-2.062867682030237
 21
-0.8595282008459294
 31
0.0
210
0.0
220
0.0
230
1.0
 40
0.9396926208
 41
0.0
 42
0.9437363400914548
  0
ELLIPSE
  5
1C4
330
1F
100
AcDbEntity
  8
0
  6
Continuous
 62
     7
370
    15
100
AcDbEllipse
 10
46.3974043296
 20
91.6627824373
 30
0.0
 11
-2.062867682030237
 21
-0.8595282008459294
 31
0.0
210
0.0
220
0.0
230
1.0
 40
0.9396926208
 41
5.230804044738938
 42
6.283185307179586
  0
LINE
  5
1C5
330
1F
100
AcDbEntity
  8
0
  6
Continuous
 62
     7
370
    15
100
AcDbLine
 10
32.4743274065
 20
86.2781670526
 30
0.0
 11
32.4743274065
 21
68.2781670526
 31
0.0
  0
SPLINE
  5
1C6
330
1F
100
AcDbEntity
  8
0
  6
Continuous
 62
     7
370
    15
100
AcDbSpline
210
0.0
220
0.0
230
1.0
 70
    24
 71
     3
 72
     8
 73
     4
 74
     0
 42
0.00000001
 43
0.00000001
 12
1.0
 22
0.0
 32
0.0
 13
1.0
 23
0.0
 33
0.0
 40
0.0
 40
0.0
 40
0.0
 40
0.0
 40
1.0
 40
1.0
 40
1.0
 40
1.0
 10
32.44801161706639
 20
67.30448284212044
 30
0.0
 10
32.12653362803342
 20
67.6259608311534
 30
0.0
 10
31.80186500052501
 20
67.95062945866181
 30
0.0
 10
31.47432740654003
 20
68.2781670526468
 30
0.0
  0
SPLINE
  5
1C7
330
1F
100
AcDbEntity
  8
0
  6
Continuous
 62
     7
370
    15
100
AcDbSpline
210
0.0
220
0.0
230
1.0
 70
     8
 71
     3
 72
     8
 73
     4
 74
     0
 42
0.00000001
 43
0.00000001
 12
1.0
 22
0.0
 32
0.0
 13
1.0
 23
0.0
 33
0.0
 40
0.0
 40
0.0
 40
0.0
 40
0.0
 40
1.0
 40
1.0
 40
1.0
 40
1.0
 10
32.47432740654008
 20
68.27816705264675
 30
0.0
 10
32.47432740654008
 20
67.95336856995353
 30
0.0
 10
32.46552990257608
 20
67.62880785763772
 30
0.0
 10
32.44801161706639
 20
67.30448284212044
 30
0.0
  0
LINE
  5
1C8
330
1F
100
AcDbEntity
  8
0
  6
Continuous
 62
     7
370
    15
100
AcDbLine
 10
31.4743274065
 20
68.2781670526
 30
0.0
 11
31.4743274065
 21
87.2781670526
 31
0.0
  0
LINE
  5
1C9
330
1F
100
AcDbEntity
  8
0
  6
Continuous
 62
     7
370
    15
100
AcDbLine
 10
35.6743274065
 20
67.2781670526
 30
0.0
 11
36.4743274065
 21
67.2781670526
 31
0.0
  0
LINE
  5
1CA
330
1F
100
AcDbEntity
  8
0
  6
Continuous
 62
     7
370
    15
100
AcDbLine
 10
37.4743274065
 20
66.2781670526
 30
0.0
 11
35.6743274065
 21
66.2781670526
 31
0.0
  0
LINE
  5
1CB
330
1F
100
AcDbEntity
  8
0
  6
Continuous
 62
     7
370
    15
100
AcDbLine
 10
32.4743274065
 20
67.2781670526
 30
0.0
 11
35.6743274065
 21
67.2781670526
 31
0.0
  0
LINE
  5
1CC
330
1F
100
AcDbEntity
  8
0
  6
Continuous
 62
     7
370
    15
100
AcDbLine
 10
33.4743274065
 20
66.2781670526
 30
0.0
 11
32.4743274065
 21
67.2781670526
 31
0.0
  0
LINE
  5
1CD
330
1F
100
AcDbEntity
  8
0
  6
Continuous
 62
     7
370
    15
100
AcDbLine
 10
35.6743274065
 20
66.2781670526
 30
0.0
 11
33.4743274065
 21
66.2781670526
 31
0.0
  0
LINE
  5
1CE
330
1F
100
AcDbEntity
  8
0
  6
Continuous
 62
     7
370
    15
100
AcDbLine
 10
32.4480116171
 20
67.3044828421
 30
0.0
 11
32.4743274065
 21
67.2781670526
 31
0.0
  0
LINE
  5
1CF
330
1F
100
AcDbEntity
  8
0
  6
Continuous
 62
     7
370
    15
100
AcDbLine
 10
77.4743274065
 20
66.2781670526
 30
0.0
 11
56.4743274065
 21
66.2781670526
 31
0.0
  0
DIMENSION
  5
1D0
330
1F
100
AcDbEntity
  8
VERMASSUNG
100
AcDbDimension
  2
_D_4
 10
114.4743274065
 20
66.2781670526
 30
0.0
 11
114.4743274065
 21
94.2781670526
 31
0.0
 70
   160
  1
<>
 71
     2
 42
-1.0
  3
SLDDIMSTYLE1
100
AcDbAlignedDimension
 13
77.4743274065
 23
122.2781670526
 33
0.0
 14
83.9318405172
 24
66.2781670526
 34
0.0
 50
90.0
100
AcDbRotatedDimension
  0
DIMENSION
  5
1DA
330
1F
100
AcDbEntity
  8
VERMASSUNG
100
AcDbDimension
  2
_D_5
 10
105.8198462914
 20
66.2781670526
 30
0.0
 11
105.8198462914
 21
81.2781670526
 31
0.0
 70
   160
  1
<>
 71
     2
 42
-1.0
  3
SLDDIMSTYLE1
100
AcDbAlignedDimension
 13
99.9743274065
 23
96.2781670526
 33
0.0
 14
83.9318405172
 24
66.2781670526
 34
0.0
 50
90.0
100
AcDbRotatedDimension
  0
DIMENSION
  5
1E4
330
1F
100
AcDbEntity
  8
VERMASSUNG
100
AcDbDimension
  2
_D_6
 10
98.1365667949
 20
66.2781670526
 30
0.0
 11
98.1365667949
 21
76.2781670526
 31
0.0
 70
   160
  1
<>
 71
     2
 42
-1.0
  3
SLDDIMSTYLE1
100
AcDbAlignedDimension
 13
81.7243274065
 23
86.2781670526
 33
0.0
 14
83.9318405172
 24
66.2781670526
 34
0.0
 50
90.0
100
AcDbRotatedDimension
  0
DIMENSION
  5
1EE
330
1F
100
AcDbEntity
  8
VERMASSUNG
100
AcDbDimension
  2
_D_7
 10
57.4743274065
 20
56.2781670526
 30
0.0
 11
67.4743274065
 21
56.2781670526
 31
0.0
 70
   160
  1
<>
 71
     2
 42
-1.0
  3
SLDDIMSTYLE1
100
AcDbAlignedDimension
 13
77.4743274065
 23
66.2781670526
 33
0.0
 14
57.4743274065
 24
53.7781670526
 34
0.0
100
AcDbRotatedDimension
  0
DIMENSION
  5
1F7
330
1F
100
AcDbEntity
  8
VERMASSUNG
100
AcDbDimension
  2
_D_8
 10
92.4743274065
 20
50.2781670526
 30
0.0
 11
74.9743274065
 21
50.2781670526
 31
0.0
 70
   160
  1
<>
 71
     2
 42
-1.0
  3
SLDDIMSTYLE1
100
AcDbAlignedDimension
 13
57.4743274065
 23
53.7781670526
 33
0.0
 14
92.4743274065
 24
76.9132503216
 34
0.0
100
AcDbRotatedDimension
  0
DIMENSION
  5
201
330
1F
100
AcDbEntity
  8
VERMASSUNG
100
AcDbDimension
  2
_D_9
 10
92.4743274065
 20
44.2781670526
 30
0.0
 11
61.9743274065
 21
44.2781670526
 31
0.0
 70
   160
  1
<>
 71
     2
 42
-1.0
  3
SLDDIMSTYLE1
100
AcDbAlignedDimension
 13
31.4743274065
 23
68.2781670526
 33
0.0
 14
92.4743274065
 24
76.9132503216
 34
0.0
 50
0.0
100
AcDbRotatedDimension
  0
DIMENSION
  5
20B
330
1F
100
AcDbEntity
  8
VERMASSUNG
100
AcDbDimension
  2
_D_10
 10
56.4743274065
 20
56.2781670526
 30
0.0
 11
51.2085932944
 21
56.2781670526
 31
0.0
 70
   160
  1
<>
 71
     2
 42
-1.0
  3
SLDDIMSTYLE2
100
AcDbAlignedDimension
 13
57.4743274065
 23
53.7781670526
 33
0.0
 14
56.4743274065
 24
66.2781670526
 34
0.0
100
AcDbRotatedDimension
  0
DIMENSION
  5
217
330
1F
100
AcDbEntity
  8
VERMASSUNG
100
AcDbDimension
  2
_D_11
 10
57.4743274065
 20
96.2781670526
 30
0.0
 11
98.1365767949
 21
61.3027756691
 31
0.0
 70
   164
  1
<>
 71
     1
 42
-1.0
  3
SLDDIMSTYLE3
100
AcDbRadialDimension
 15
87.7995689095
 25
70.1940775
 35
0.0
 40
0.0
  0
INSERT
  5
22B
330
1F
100
AcDbEntity
  8
VERMASSUNG
100
AcDbBlockReference
  2
SW_CENTERMARKSYMBOL_0
 10
57.4743274065
 20
96.2781670526
 30
0.0
  0
LWPOLYLINE
  5
22C
330
1F
100
AcDbEntity
  8
0
  6
Continuous
 62
     7
370
    15
100
AcDbPolyline
 90
        3
 70
   128
 43
0.0
 10
263.4729571997
 20
185.2961541969
 10
262.7486411758
 20
185.8698273203
 10
262.0197119776
 20
186.2627794724
  0
ARC
  5
22D
330
1F
100
AcDbEntity
  8
0
  6
Continuous
 62
     7
370
    15
100
AcDbCircle
 10
260.0197119776
 20
181.6802037774
 30
0.0
 40
5.000000000000003
100
AcDbArc
 50
293.5781784782
 51
325.6591253534
  0
LINE
  5
22E
330
1F
100
AcDbEntity
  8
0
  6
Continuous
 62
     7
370
    15
100
AcDbLine
 10
209.5197119776
 20
170.6802037774
 30
0.0
 11
210.5197119776
 21
169.6802037774
 31
0.0
  0
LINE
  5
22F
330
1F
100
AcDbEntity
  8
0
  6
Continuous
 62
     7
370
    15
100
AcDbLine
 10
217.5197119776
 20
169.6802037774
 30
0.0
 11
218.5197119776
 21
170.6802037774
 31
0.0
  0
LINE
  5
230
330
1F
100
AcDbEntity
  8
0
  6
Continuous
 62
     7
370
    15
100
AcDbLine
 10
249.5197119776
 20
170.6802037774
 30
0.0
 11
250.5197119776
 21
169.6802037774
 31
0.0
  0
LINE
  5
231
330
1F
100
AcDbEntity
  8
0
  6
Continuous
 62
     7
370
    15
100
AcDbLine
 10
257.5197119776
 20
169.6802037774
 30
0.0
 11
258.5197119776
 21
170.6802037774
 31
0.0
  0
LINE
  5
232
330
1F
100
AcDbEntity
  8
0
  6
Continuous
 62
     7
370
    15
100
AcDbLine
 10
229.5197119776
 20
170.6802037774
 30
0.0
 11
230.5197119776
 21
169.6802037774
 31
0.0
  0
LINE
  5
233
330
1F
100
AcDbEntity
  8
0
  6
Continuous
 62
     7
370
    15
100
AcDbLine
 10
237.5197119776
 20
169.6802037774
 30
0.0
 11
238.5197119776
 21
170.6802037774
 31
0.0
  0
ARC
  5
234
330
1F
100
AcDbEntity
  8
0
  6
Continuous
 62
     7
370
    15
100
AcDbCircle
 10
194.0197119776
 20
143.6802037774
 30
0.0
 40
1.0
100
AcDbArc
 50
0.0
 51
90.0
  0
ARC
  5
235
330
1F
100
AcDbEntity
  8
0
  6
Continuous
 62
     7
370
    15
100
AcDbCircle
 10
194.0197119776
 20
195.6802037774
 30
0.0
 40
1.0
100
AcDbArc
 50
270.0
 51
0.0
  0
LINE
  5
236
330
1F
100
AcDbEntity
  8
0
  6
Continuous
 62
     7
370
    15
100
AcDbLine
 10
187.9949787058
 20
144.6802037774
 30
0.0
 11
194.0197119776
 21
144.6802037774
 31
0.0
  0
LINE
  5
237
330
1F
100
AcDbEntity
  8
0
  6
Continuous
 62
     7
370
    15
100
AcDbLine
 10
174.3197119776
 20
144.6802037774
 30
0.0
 11
184.0197119776
 21
144.6802037774
 31
0.0
  0
LINE
  5
238
330
1F
100
AcDbEntity
  8
0
  6
Continuous
 62
     7
370
    15
100
AcDbLine
 10
194.0197119776
 20
194.6802037774
 30
0.0
 11
174.3197119776
 21
194.6802037774
 31
0.0
  0
ARC
  5
239
330
1F
100
AcDbEntity
  8
0
  6
Continuous
 62
     7
370
    15
100
AcDbCircle
 10
174.3197119776
 20
144.9802037774
 30
0.0
 40
0.3000000000000114
100
AcDbArc
 50
180.0
 51
270.0
  0
ARC
  5
23A
330
1F
100
AcDbEntity
  8
0
  6
Continuous
 62
     7
370
    15
100
AcDbCircle
 10
174.3197119776
 20
194.3802037774
 30
0.0
 40
0.3000000000000114
100
AcDbArc
 50
90.0
 51
180.0
  0
LWPOLYLINE
  5
23B
330
1F
100
AcDbEntity
  8
0
  6
Continuous
 62
     7
370
    15
100
AcDbPolyline
 90
        3
 70
   128
 43
0.0
 10
173.8197119776
 20
151.8403834985
 10
173.9451669211
 20
151.7720813836
 10
174.0197119776
 20
151.7193436255
  0
ARC
  5
23C
330
1F
100
AcDbEntity
  8
0
  6
Continuous
 62
     7
370
    15
100
AcDbCircle
 10
173.4054984152
 20
188.4302037774
 30
0.0
 40
1.000000000000008
100
AcDbArc
 50
225.0
 51
307.8947985336
  0
ARC
  5
23D
330
1F
100
AcDbEntity
  8
0
  6
Continuous
 62
     7
370
    15
100
AcDbCircle
 10
172.0196488885
 20
153.2750818817
 30
0.0
 40
0.2000000000000329
100
AcDbArc
 50
88.5608333333
 51
178.5608333334
  0
LINE
  5
23E
330
1F
100
AcDbEntity
  8
0
  6
Continuous
 62
     7
370
    15
100
AcDbLine
 10
163.4605292146
 20
153.4901167597
 30
0.0
 11
171.8197119776
 21
153.2801049929
 31
0.0
  0
LINE
  5
23F
330
1F
100
AcDbEntity
  8
0
  6
Continuous
 62
     7
370
    15
100
AcDbLine
 10
151.3976230707
 20
153.7931789495
 30
0.0
 11
156.7398701196
 21
153.6589631089
 31
0.0
  0
LINE
  5
240
330
1F
100
AcDbEntity
  8
0
  6
Continuous
 62
     7
370
    15
100
AcDbLine
 10
172.0246719996
 20
153.4750187927
 30
0.0
 11
173.6247350887
 21
153.4348196385
 31
0.0
  0
ARC
  5
241
330
1F
100
AcDbEntity
  8
0
  6
Continuous
 62
     7
370
    15
100
AcDbCircle
 10
173.6197119776
 20
153.2348827276
 30
0.0
 40
0.2000000000000052
100
AcDbArc
 50
0.0
 51
88.5608333333
  0
LINE
  5
242
330
1F
100
AcDbEntity
  8
0
  6
Continuous
 62
     7
370
    15
100
AcDbLine
 10
171.8197119776
 20
188.320302562
 30
0.0
 11
145.5197119776
 21
187.6595550194
 31
0.0
  0
ARC
  5
243
330
1F
100
AcDbEntity
  8
0
  6
Continuous
 62
     7
370
    15
100
AcDbCircle
 10
172.0196488885
 20
188.3253256731
 30
0.0
 40
0.2000000000000336
100
AcDbArc
 50
181.4391666667
 51
271.4391666667
  0
LINE
  5
244
330
1F
100
AcDbEntity
  8
0
  6
Continuous
 62
     7
370
    15
100
AcDbLine
 10
172.2989856951
 20
188.132280477
 30
0.0
 11
172.0246719996
 21
188.1253887622
 31
0.0
  0
LINE
  5
245
330
1F
100
AcDbEntity
  8
0
  6
Continuous
 62
     7
370
    15
100
AcDbLine
 10
145.5197119776
 20
187.6595550194
 30
0.0
 11
144.0197119776
 21
186.7935296156
 31
0.0
  0
LINE
  5
246
330
1F
100
AcDbEntity
  8
0
  6
Continuous
 62
     7
370
    15
100
AcDbLine
 10
172.698391634
 20
187.7230969962
 30
0.0
 11
172.3058306118
 21
188.1156580185
 31
0.0
  0
ARC
  5
247
330
1F
100
AcDbEntity
  8
0
  6
Continuous
 62
     7
370
    15
100
AcDbCircle
 10
261.2457000075
 20
184.1658368069
 30
0.0
 40
2.497657302822378
100
AcDbArc
 50
3.6496345351
 51
26.9074736925
  0
ARC
  5
248
330
1F
100
AcDbEntity
  8
0
  6
Continuous
 62
     7
370
    15
100
AcDbCircle
 10
243.2970650473
 20
180.0437234607
 30
0.0
 40
20.88472147755851
100
AcDbArc
 50
356.7497724407
 51
11.8287534624
  0
LINE
  5
249
330
1F
100
AcDbEntity
  8
0
  6
Continuous
 62
     7
370
    15
100
AcDbLine
 10
212.930077368
 20
169.6802037774
 30
0.0
 11
217.5197119776
 21
169.6802037774
 31
0.0
  0
LINE
  5
24A
330
1F
100
AcDbEntity
  8
0
  6
Continuous
 62
     7
370
    15
100
AcDbLine
 10
210.5197119776
 20
169.6802037774
 30
0.0
 11
212.930077368
 21
169.6802037774
 31
0.0
  0
LINE
  5
24B
330
1F
100
AcDbEntity
  8
0
  6
Continuous
 62
     7
370
    15
100
AcDbLine
 10
252.6230458407
 20
169.6802037774
 30
0.0
 11
257.5197119776
 21
169.6802037774
 31
0.0
  0
LINE
  5
24C
330
1F
100
AcDbEntity
  8
0
  6
Continuous
 62
     7
370
    15
100
AcDbLine
 10
250.5197119776
 20
169.6802037774
 30
0.0
 11
252.6230458407
 21
169.6802037774
 31
0.0
  0
LINE
  5
24D
330
1F
100
AcDbEntity
  8
0
  6
Continuous
 62
     7
370
    15
100
AcDbLine
 10
235.1421980471
 20
169.6802037774
 30
0.0
 11
237.5197119776
 21
169.6802037774
 31
0.0
  0
LINE
  5
24E
330
1F
100
AcDbEntity
  8
0
  6
Continuous
 62
     7
370
    15
100
AcDbLine
 10
230.5197119776
 20
169.6802037774
 30
0.0
 11
235.1421980471
 21
169.6802037774
 31
0.0
  0
LINE
  5
24F
330
1F
100
AcDbEntity
  8
0
  6
Continuous
 62
     7
370
    15
100
AcDbLine
 10
200.0197119776
 20
194.6802037774
 30
0.0
 11
200.0197119776
 21
191.4802037774
 31
0.0
  0
LINE
  5
250
330
1F
100
AcDbEntity
  8
0
  6
Continuous
 62
     7
370
    15
100
AcDbLine
 10
199.0197119776
 20
191.4802037774
 30
0.0
 11
199.0197119776
 21
193.6802037774
 31
0.0
  0
LINE
  5
251
330
1F
100
AcDbEntity
  8
0
  6
Continuous
 62
     7
370
    15
100
AcDbLine
 10
199.0197119776
 20
193.6802037774
 30
0.0
 11
200.0197119776
 21
194.6802037774
 31
0.0
  0
ARC
  5
252
330
1F
100
AcDbEntity
  8
0
  6
Continuous
 62
     7
370
    15
100
AcDbCircle
 10
200.8197119776
 20
191.4802037774
 30
0.0
 40
1.800000000000011
100
AcDbArc
 50
180.0
 51
270.0
  0
ARC
  5
253
330
1F
100
AcDbEntity
  8
0
  6
Continuous
 62
     7
370
    15
100
AcDbCircle
 10
200.8197119776
 20
191.4802037774
 30
0.0
 40
0.8000000000000114
100
AcDbArc
 50
180.0
 51
270.0
  0
SPLINE
  5
254
330
1F
100
AcDbEntity
  8
0
  6
Continuous
 62
     7
370
    15
100
AcDbSpline
210
0.0
220
0.0
230
1.0
 70
     8
 71
     3
 72
    16
 73
    12
 74
     0
 42
0.00000001
 43
0.00000001
 12
1.0
 22
0.0
 32
0.0
 13
1.0
 23
0.0
 33
0.0
 40
0.0
 40
0.0
 40
0.0
 40
0.0
 40
0.125
 40
0.125
 40
0.25
 40
0.25
 40
0.5
 40
0.5
 40
0.75
 40
0.75
 40
1.0
 40
1.0
 40
1.0
 40
1.0
 10
196.0197119775749
 20
143.2226906667769
 30
0.0
 10
195.9351825649795
 20
143.2226906667769
 30
0.0
 10
195.8508130885078
 20
143.2392702467715
 30
0.0
 10
195.692170155487
 20
143.3007902032113
 30
0.0
 10
195.6203773146793
 20
143.344011010438
 30
0.0
 10
195.4221981389365
 20
143.5021405290988
 30
0.0
 10
195.3195605082604
 20
143.6402483343171
 30
0.0
 10
195.1624785792588
 20
143.9386453781363
 30
0.0
 10
195.1084676989417
 20
144.0969601859143
 30
0.0
 10
195.0363402409072
 20
144.4269294509022
 30
0.0
 10
195.0197119775749
 20
144.593567082571
 30
0.0
 10
195.0197119775749
 20
144.7603321886686
 30
0.0
  0
LINE
  5
255
330
1F
100
AcDbEntity
  8
0
  6
Continuous
 62
     7
370
    15
100
AcDbLine
 10
195.0197119776
 20
144.7603321887
 30
0.0
 11
195.0197119776
 21
193.6802037774
 31
0.0
  0
LINE
  5
256
330
1F
100
AcDbEntity
  8
0
  6
Continuous
 62
     7
370
    15
100
AcDbLine
 10
199.0197119776
 20
193.6802037774
 30
0.0
 11
195.0197119776
 21
193.6802037774
 31
0.0
  0
LINE
  5
257
330
1F
100
AcDbEntity
  8
0
  6
Continuous
 62
     7
370
    15
100
AcDbLine
 10
261.0197119776
 20
189.6802037774
 30
0.0
 11
200.8197119776
 21
189.6802037774
 31
0.0
  0
LINE
  5
258
330
1F
100
AcDbEntity
  8
0
  6
Continuous
 62
     7
370
    15
100
AcDbLine
 10
261.0197119776
 20
170.6802037774
 30
0.0
 11
261.0197119776
 21
189.6802037774
 31
0.0
  0
LINE
  5
259
330
1F
100
AcDbEntity
  8
0
  6
Continuous
 62
     7
370
    15
100
AcDbLine
 10
205.5197119776
 20
170.6802037774
 30
0.0
 11
261.0197119776
 21
170.6802037774
 31
0.0
  0
ARC
  5
25A
330
1F
100
AcDbEntity
  8
0
  6
Continuous
 62
     7
370
    15
100
AcDbCircle
 10
201.2697119776
 20
170.6802037774
 30
0.0
 40
4.25
100
AcDbArc
 50
0.0
 51
180.0
  0
LINE
  5
25B
330
1F
100
AcDbEntity
  8
0
  6
Continuous
 62
     7
370
    15
100
AcDbLine
 10
197.0197119776
 20
149.6802037774
 30
0.0
 11
197.0197119776
 21
170.6802037774
 31
0.0
  0
ARC
  5
25C
330
1F
100
AcDbEntity
  8
0
  6
Continuous
 62
     7
370
    15
100
AcDbCircle
 10
201.2697119776
 20
149.6802037774
 30
0.0
 40
4.250000000000028
100
AcDbArc
 50
180.0
 51
0.0
  0
LINE
  5
25D
330
1F
100
AcDbEntity
  8
0
  6
Continuous
 62
     7
370
    15
100
AcDbLine
 10
271.0197119776
 20
149.6802037774
 30
0.0
 11
205.5197119776
 21
149.6802037774
 31
0.0
  0
LINE
  5
25E
330
1F
100
AcDbEntity
  8
0
  6
Continuous
 62
     7
370
    15
100
AcDbLine
 10
271.0197119776
 20
143.2226906668
 30
0.0
 11
271.0197119776
 21
149.6802037774
 31
0.0
  0
LINE
  5
25F
330
1F
100
AcDbEntity
  8
0
  6
Continuous
 62
     7
370
    15
100
AcDbLine
 10
271.0197119776
 20
143.2226906668
 30
0.0
 11
196.0197119776
 21
143.2226906668
 31
0.0
  0
LINE
  5
260
330
1F
100
AcDbEntity
  8
0
  6
Continuous
 62
     7
370
    15
100
AcDbLine
 10
195.0197119776
 20
134.6802037774
 30
0.0
 11
195.0197119776
 21
144.7603321887
 31
0.0
  0
SPLINE
  5
261
330
1F
100
AcDbEntity
  8
0
  6
Continuous
 62
     7
370
    15
100
AcDbSpline
210
0.0
220
0.0
230
1.0
 70
    24
 71
     3
 72
    18
 73
    14
 74
     0
 42
0.00000001
 43
0.00000001
 12
1.0
 22
0.0
 32
0.0
 13
1.0
 23
0.0
 33
0.0
 40
0.0
 40
0.0
 40
0.0
 40
0.0
 40
0.2499999999999974
 40
0.2499999999999974
 40
0.4999999999999949
 40
0.4999999999999949
 40
0.6249999999999961
 40
0.6249999999999961
 40
0.7499999999999974
 40
0.7499999999999974
 40
0.8749999999999987
 40
0.8749999999999987
 40
1.0
 40
1.0
 40
1.0
 40
1.0
 10
195.0197119775749
 20
134.6802037774229
 30
0.0
 10
195.0197119775749
 20
134.6802037774228
 30
0.0
 10
195.0328377911571
 20
134.6802037774229
 30
0.0
 10
195.0904053930014
 20
134.6802037774229
 30
0.0
 10
195.1346419332745
 20
134.6802037774228
 30
0.0
 10
195.2348165827772
 20
134.6802037774229
 30
0.0
 10
195.2736815593346
 20
134.6802037774228
 30
0.0
 10
195.3664926024205
 20
134.6802037774228
 30
0.0
 10
195.4209327976471
 20
134.6802037774228
 30
0.0
 10
195.5507252551936
 20
134.6802037774229
 30
0.0
 10
195.6271451100479
 20
134.6802037774228
 30
0.0
 10
195.8050689325009
 20
134.6802037774229
 30
0.0
 10
195.9114104783359
 20
134.6802037774228
 30
0.0
 10
196.0197119775749
 20
134.6802037774229
 30
0.0
  0
LINE
  5
262
330
1F
100
AcDbEntity
  8
0
  6
Continuous
 62
     7
370
    15
100
AcDbLine
 10
200.8197119776
 20
190.6802037774
 30
0.0
 11
261.0197119776
 21
190.6802037774
 31
0.0
  0
LINE
  5
263
330
1F
100
AcDbEntity
  8
0
  6
Continuous
 62
     7
370
    15
100
AcDbLine
 10
261.0197119776
 20
189.6802037774
 30
0.0
 11
261.0197119776
 21
190.6802037774
 31
0.0
  0
LINE
  5
264
330
1F
100
AcDbEntity
  8
0
  6
Continuous
 62
     7
370
    15
100
AcDbLine
 10
261.0197119776
 20
189.6802037774
 30
0.0
 11
262.0197119776
 21
189.6802037774
 31
0.0
  0
LINE
  5
265
330
1F
100
AcDbEntity
  8
0
  6
Continuous
 62
     7
370
    15
100
AcDbLine
 10
262.0197119776
 20
189.6802037774
 30
0.0
 11
262.0197119776
 21
170.6802037774
 31
0.0
  0
LINE
  5
266
330
1F
100
AcDbEntity
  8
0
  6
Continuous
 62
     7
370
    15
100
AcDbLine
 10
262.0197119776
 20
170.6802037774
 30
0.0
 11
261.0197119776
 21
170.6802037774
 31
0.0
  0
LINE
  5
267
330
1F
100
AcDbEntity
  8
0
  6
Continuous
 62
     7
370
    15
100
AcDbLine
 10
195.0197119776
 20
195.6802037774
 30
0.0
 11
199.0197119776
 21
195.6802037774
 31
0.0
  0
SPLINE
  5
268
330
1F
100
AcDbEntity
  8
0
  6
Continuous
 62
     7
370
    15
100
AcDbSpline
210
0.0
220
0.0
230
1.0
 70
     8
 71
     3
 72
     8
 73
     4
 74
     0
 42
0.00000001
 43
0.00000001
 12
1.0
 22
0.0
 32
0.0
 13
1.0
 23
0.0
 33
0.0
 40
0.0
 40
0.0
 40
0.0
 40
0.0
 40
1.0
 40
1.0
 40
1.0
 40
1.0
 10
200.0197119775749
 20
194.7065195668966
 30
0.0
 10
199.6803741002623
 20
195.0279975559296
 30
0.0
 10
199.3472495715598
 20
195.352666183438
 30
0.0
 10
199.0197119775748
 20
195.6802037774229
 30
0.0
  0
LINE
  5
269
330
1F
100
AcDbEntity
  8
0
  6
Continuous
 62
     7
370
    15
100
AcDbLine
 10
200.0197119776
 20
194.7065195669
 30
0.0
 11
200.0197119776
 21
194.6802037774
 31
0.0
  0
LINE
  5
26A
330
1F
100
AcDbEntity
  8
0
  6
Continuous
 62
     7
370
    15
100
AcDbLine
 10
195.0197119776
 20
193.6802037774
 30
0.0
 11
195.0197119776
 21
195.6802037774
 31
0.0
  0
LINE
  5
26B
330
1F
100
AcDbEntity
  8
0
  6
Continuous
 62
     7
370
    15
100
AcDbLine
 10
262.0197119776
 20
189.6802037774
 30
0.0
 11
261.0197119776
 21
190.6802037774
 31
0.0
  0
LINE
  5
26C
330
1F
100
AcDbEntity
  8
0
  6
Continuous
 62
     7
370
    15
100
AcDbLine
 10
272.0197119776
 20
149.6802037774
 30
0.0
 11
272.0197119776
 21
142.1302491495
 31
0.0
  0
ARC
  5
26D
330
1F
100
AcDbEntity
  8
0
  6
Continuous
 62
     7
370
    15
100
AcDbCircle
 10
301.0197119776
 20
169.6802037774
 30
0.0
 40
40.00000000000028
100
AcDbArc
 50
221.4096221093
 51
223.5311521674
  0
LINE
  5
26E
330
1F
100
AcDbEntity
  8
0
  6
Continuous
 62
     7
370
    15
100
AcDbLine
 10
271.0197119776
 20
149.6802037774
 30
0.0
 11
272.0197119776
 21
149.6802037774
 31
0.0
  0
LINE
  5
26F
330
1F
100
AcDbEntity
  8
0
  6
Continuous
 62
     7
370
    15
100
AcDbLine
 10
196.0197119776
 20
134.6802037774
 30
0.0
 11
272.0197119776
 21
134.6802037774
 31
0.0
  0
LINE
  5
270
330
1F
100
AcDbEntity
  8
0
  6
Continuous
 62
     7
370
    15
100
AcDbLine
 10
272.0197119776
 20
134.6802037774
 30
0.0
 11
272.0197119776
 21
142.1302491495
 31
0.0
  0
LINE
  5
271
330
1F
100
AcDbEntity
  8
0
  6
Continuous
 62
     7
370
    15
100
AcDbLine
 10
199.0197119776
 20
195.6802037774
 30
0.0
 11
218.0197119776
 21
195.6802037774
 31
0.0
  0
LINE
  5
272
330
1F
100
AcDbEntity
  8
0
  6
Continuous
 62
     7
370
    15
100
AcDbLine
 10
218.0197119776
 20
194.6802037774
 30
0.0
 11
200.0197119776
 21
194.6802037774
 31
0.0
  0
ARC
  5
273
330
1F
100
AcDbEntity
  8
0
  6
Continuous
 62
     7
370
    15
100
AcDbCircle
 10
186.019647279
 20
119.7237715864
 30
0.0
 40
25.03643842315005
100
AcDbArc
 50
85.4747594988
 51
94.5817246457
  0
SPLINE
  5
274
330
1F
100
AcDbEntity
  8
0
  6
Continuous
 62
     7
370
    15
100
AcDbSpline
210
0.0
220
0.0
230
1.0
 70
     8
 71
     3
 72
    12
 73
     8
 74
     0
 42
0.00000001
 43
0.00000001
 12
1.0
 22
0.0
 32
0.0
 13
1.0
 23
0.0
 33
0.0
 40
0.0
 40
0.0
 40
0.0
 40
0.0
 40
0.2499999999999986
 40
0.2499999999999986
 40
0.4999999999999972
 40
0.4999999999999972
 40
1.0
 40
1.0
 40
1.0
 40
1.0
 10
182.5474687911414
 20
145.8534726619208
 30
0.0
 10
182.4838035546108
 20
145.8534726619208
 30
0.0
 10
182.4241973223875
 20
145.8617374375867
 30
0.0
 10
182.3255367974566
 20
145.8859562191699
 30
0.0
 10
182.2865698074414
 20
145.901213538479
 30
0.0
 10
182.1871829755169
 20
145.9508468927409
 30
0.0
 10
182.1451067280935
 20
145.9884866009151
 30
0.0
 10
182.1144560892491
 20
146.0275623001912
 30
0.0
  0
LINE
  5
275
330
1F
100
AcDbEntity
  8
0
  6
Continuous
 62
     7
370
    15
100
AcDbLine
 10
185.491955164
 20
145.8534726619
 30
0.0
 11
182.5474687911
 21
145.8534726619
 31
0.0
  0
SPLINE
  5
276
330
1F
100
AcDbEntity
  8
0
  6
Continuous
 62
     7
370
    15
100
AcDbSpline
210
0.0
220
0.0
230
1.0
 70
     8
 71
     3
 72
    12
 73
     8
 74
     0
 42
0.00000001
 43
0.00000001
 12
1.0
 22
0.0
 32
0.0
 13
1.0
 23
0.0
 33
0.0
 40
0.0
 40
0.0
 40
0.0
 40
0.0
 40
0.5000000000000037
 40
0.5000000000000037
 40
0.7500000000000018
 40
0.7500000000000018
 40
1.0
 40
1.0
 40
1.0
 40
1.0
 10
185.9249678659007
 20
146.0275623001912
 30
0.0
 10
185.8942684825334
 20
145.9884244577953
 30
0.0
 10
185.8529184144269
 20
145.9512646750698
 30
0.0
 10
185.7531624862074
 20
145.9013281694421
 30
0.0
 10
185.7134655684747
 20
145.8858752992983
 30
0.0
 10
185.6162074168271
 20
145.8619557556992
 30
0.0
 10
185.5554312588364
 20
145.8534726619208
 30
0.0
 10
185.4919551640085
 20
145.8534726619208
 30
0.0
  0
ELLIPSE
  5
277
330
1F
100
AcDbEntity
  8
0
  6
Continuous
 62
     7
370
    15
100
AcDbEllipse
 10
172.9634543226
 20
169.6802037774
 30
0.0
 11
-11.7092723497272
 21
24.67718644093739
 31
0.0
210
0.0
220
0.0
230
1.0
 40
0.3419987131
 41
3.310521928178946
 42
4.221709151398937
  0
SPLINE
  5
278
330
1F
100
AcDbEntity
  8
0
  6
Continuous
 62
     7
370
    15
100
AcDbSpline
210
0.0
220
0.0
230
1.0
 70
     8
 71
     3
 72
    12
 73
     8
 74
     0
 42
0.00000001
 43
0.00000001
 12
1.0
 22
0.0
 32
0.0
 13
1.0
 23
0.0
 33
0.0
 40
0.0
 40
0.0
 40
0.0
 40
0.0
 40
0.2499999999999984
 40
0.2499999999999984
 40
0.4999999999999968
 40
0.4999999999999968
 40
1.0
 40
1.0
 40
1.0
 40
1.0
 10
185.4919551640085
 20
162.111393808242
 30
0.0
 10
185.555620400539
 20
162.111393808242
 30
0.0
 10
185.6152266327623
 20
162.0853216597624
 30
0.0
 10
185.7138871576932
 20
162.0097829089412
 30
0.0
 10
185.7528541477084
 20
161.962531971845
 30
0.0
 10
185.8522409796329
 20
161.8107081538786
 30
0.0
 10
185.8943172270563
 20
161.6979049041135
 30
0.0
 10
185.9249678659007
 20
161.5837507793784
 30
0.0
  0
LINE
  5
279
330
1F
100
AcDbEntity
  8
0
  6
Continuous
 62
     7
370
    15
100
AcDbLine
 10
182.5474687911
 20
162.1113938082
 30
0.0
 11
185.491955164
 21
162.1113938082
 31
0.0
  0
SPLINE
  5
27A
330
1F
100
AcDbEntity
  8
0
  6
Continuous
 62
     7
370
    15
100
AcDbSpline
210
0.0
220
0.0
230
1.0
 70
     8
 71
     3
 72
    12
 73
     8
 74
     0
 42
0.00000001
 43
0.00000001
 12
1.0
 22
0.0
 32
0.0
 13
1.0
 23
0.0
 33
0.0
 40
0.0
 40
0.0
 40
0.0
 40
0.0
 40
0.5000000000000032
 40
0.5000000000000032
 40
0.7500000000000016
 40
0.7500000000000016
 40
1.0
 40
1.0
 40
1.0
 40
1.0
 10
182.1144560892491
 20
161.5837507793784
 30
0.0
 10
182.1451554726164
 20
161.6980864464423
 30
0.0
 10
182.186505540723
 20
161.8094397992837
 30
0.0
 10
182.2862614689424
 20
161.9621765715324
 30
0.0
 10
182.3259583866751
 20
162.0100364573845
 30
0.0
 10
182.4232165383227
 20
162.0846395707339
 30
0.0
 10
182.4839926963134
 20
162.111393808242
 30
0.0
 10
182.5474687911414
 20
162.111393808242
 30
0.0
  0
ELLIPSE
  5
27B
330
1F
100
AcDbEntity
  8
0
  6
Continuous
 62
     7
370
    15
100
AcDbEllipse
 10
195.0759696326
 20
169.6802037774
 30
0.0
 11
11.70927234972708
 21
24.67718644093742
 31
0.0
210
0.0
220
0.0
230
1.0
 40
0.3419987131
 41
2.061476155780659
 42
2.972663379000678
  0
SPLINE
  5
27C
330
1F
100
AcDbEntity
  8
0
  6
Continuous
 62
     7
370
    15
100
AcDbSpline
210
0.0
220
0.0
230
1.0
 70
     8
 71
     3
 72
    12
 73
     8
 74
     0
 42
0.00000001
 43
0.00000001
 12
1.0
 22
0.0
 32
0.0
 13
1.0
 23
0.0
 33
0.0
 40
0.0
 40
0.0
 40
0.0
 40
0.0
 40
0.2500000000000026
 40
0.2500000000000026
 40
0.5000000000000051
 40
0.5000000000000051
 40
1.0
 40
1.0
 40
1.0
 40
1.0
 10
182.5474687911414
 20
177.2490137466036
 30
0.0
 10
182.4838322369277
 20
177.2490137466036
 30
0.0
 10
182.4242521100615
 20
177.2750606496615
 30
0.0
 10
182.3256153686951
 20
177.3505478085614
 30
0.0
 10
182.2866567443148
 20
177.3977668470921
 30
0.0
 10
182.1872778048069
 20
177.5495064981857
 30
0.0
 10
182.1453198996414
 20
177.6617087223699
 30
0.0
 10
182.1144560892489
 20
177.7766567754671
 30
0.0
  0
LINE
  5
27D
330
1F
100
AcDbEntity
  8
0
  6
Continuous
 62
     7
370
    15
100
AcDbLine
 10
185.491955164
 20
177.2490137466
 30
0.0
 11
182.5474687911
 21
177.2490137466
 31
0.0
  0
SPLINE
  5
27E
330
1F
100
AcDbEntity
  8
0
  6
Continuous
 62
     7
370
    15
100
AcDbSpline
210
0.0
220
0.0
230
1.0
 70
     8
 71
     3
 72
    12
 73
     8
 74
     0
 42
0.00000001
 43
0.00000001
 12
1.0
 22
0.0
 32
0.0
 13
1.0
 23
0.0
 33
0.0
 40
0.0
 40
0.0
 40
0.0
 40
0.0
 40
0.5000000000000051
 40
0.5000000000000051
 40
0.7500000000000026
 40
0.7500000000000026
 40
1.0
 40
1.0
 40
1.0
 40
1.0
 10
185.9249678659007
 20
177.7766567754672
 30
0.0
 10
185.8941161553365
 20
177.6617537865303
 30
0.0
 10
185.8522232918758
 20
177.5496148904815
 30
0.0
 10
185.7527024140826
 20
177.3976726088806
 30
0.0
 10
185.7130882493583
 20
177.3500079993557
 30
0.0
 10
185.6159852155789
 20
177.2756716687403
 30
0.0
 10
185.5554865429285
 20
177.2490137466032
 30
0.0
 10
185.4919551640085
 20
177.2490137466031
 30
0.0
  0
ELLIPSE
  5
27F
330
1F
100
AcDbEntity
  8
0
  6
Continuous
 62
     7
370
    15
100
AcDbEllipse
 10
172.9634543226
 20
169.6802037774
 30
0.0
 11
11.70927234972717
 21
24.67718644093739
 31
0.0
210
0.0
220
0.0
230
1.0
 40
0.3419987131
 41
5.20306880937046
 42
6.114256032590508
  0
SPLINE
  5
280
330
1F
100
AcDbEntity
  8
0
  6
Continuous
 62
     7
370
    15
100
AcDbSpline
210
0.0
220
0.0
230
1.0
 70
     8
 71
     3
 72
    12
 73
     8
 74
     0
 42
0.00000001
 43
0.00000001
 12
1.0
 22
0.0
 32
0.0
 13
1.0
 23
0.0
 33
0.0
 40
0.0
 40
0.0
 40
0.0
 40
0.0
 40
0.2499999999999996
 40
0.2499999999999996
 40
0.4999999999999991
 40
0.4999999999999991
 40
1.0
 40
1.0
 40
1.0
 40
1.0
 10
185.4919551640085
 20
193.5069348929249
 30
0.0
 10
185.5555917182222
 20
193.5069348929249
 30
0.0
 10
185.6151718450884
 20
193.4986781219931
 30
0.0
 10
185.7138085864547
 20
193.4744760599853
 30
0.0
 10
185.752767210835
 20
193.4592292409511
 30
0.0
 10
185.8521461503429
 20
193.409624368891
 30
0.0
 10
185.8941040555084
 20
193.3721927207722
 30
0.0
 10
185.9249678659009
 20
193.3328452546545
 30
0.0
  0
LINE
  5
281
330
1F
100
AcDbEntity
  8
0
  6
Continuous
 62
     7
370
    15
100
AcDbLine
 10
182.5474687911
 20
193.5069348929
 30
0.0
 11
185.491955164
 21
193.5069348929
 31
0.0
  0
SPLINE
  5
282
330
1F
100
AcDbEntity
  8
0
  6
Continuous
 62
     7
370
    15
100
AcDbSpline
210
0.0
220
0.0
230
1.0
 70
     8
 71
     3
 72
    12
 73
     8
 74
     0
 42
0.00000001
 43
0.00000001
 12
1.0
 22
0.0
 32
0.0
 13
1.0
 23
0.0
 33
0.0
 40
0.0
 40
0.0
 40
0.0
 40
0.0
 40
0.5000000000000004
 40
0.5000000000000004
 40
0.7500000000000002
 40
0.7500000000000002
 40
1.0
 40
1.0
 40
1.0
 40
1.0
 10
182.1144560892491
 20
193.3328452546545
 30
0.0
 10
182.1453077998133
 20
193.372177295017
 30
0.0
 10
182.187200663274
 20
193.4095890605453
 30
0.0
 10
182.2867215410672
 20
193.4592599851612
 30
0.0
 10
182.3263357057915
 20
193.474649067769
 30
0.0
 10
182.4234387395709
 20
193.4984822834363
 30
0.0
 10
182.4839374122213
 20
193.506934892925
 30
0.0
 10
182.5474687911413
 20
193.506934892925
 30
0.0
  0
ELLIPSE
  5
283
330
1F
100
AcDbEntity
  8
0
  6
Continuous
 62
     7
370
    15
100
AcDbEllipse
 10
195.0759696326
 20
169.6802037774
 30
0.0
 11
-11.70927234972706
 21
24.67718644093739
 31
0.0
210
0.0
220
0.0
230
1.0
 40
0.3419987131
 41
0.1689292745891219
 42
1.080116497809144
  0
LINE
  5
284
330
1F
100
AcDbEntity
  8
0
  6
Continuous
 62
     7
370
    15
100
AcDbLine
 10
174.0197119776
 20
169.6802037774
 30
0.0
 11
174.0197119776
 21
194.3802037774
 31
0.0
  0
LINE
  5
285
330
1F
100
AcDbEntity
  8
0
  6
Continuous
 62
     7
370
    15
100
AcDbLine
 10
174.0197119776
 20
144.9802037774
 30
0.0
 11
174.0197119776
 21
169.6802037774
 31
0.0
  0
LINE
  5
286
330
1F
100
AcDbEntity
  8
0
  6
Continuous
 62
     7
370
    15
100
AcDbLine
 10
173.8197119776
 20
156.09443909
 30
0.0
 11
173.8197119776
 21
151.8403834985
 31
0.0
  0
SPLINE
  5
287
330
1F
100
AcDbEntity
  8
0
  6
Continuous
 62
     7
370
    15
100
AcDbSpline
210
0.0
220
0.0
230
1.0
 70
     8
 71
     3
 72
    16
 73
    12
 74
     0
 42
0.00000001
 43
0.00000001
 12
1.0
 22
0.0
 32
0.0
 13
1.0
 23
0.0
 33
0.0
 40
0.0
 40
0.0
 40
0.0
 40
0.0
 40
0.4999999999999951
 40
0.4999999999999951
 40
0.7499999999999976
 40
0.7499999999999976
 40
0.8749999999999988
 40
0.8749999999999988
 40
0.9374999999999993
 40
0.9374999999999993
 40
1.0
 40
1.0
 40
1.0
 40
1.0
 10
173.8197119775749
 20
156.0944390900273
 30
0.0
 10
173.8197119775749
 20
156.1732333204838
 30
0.0
 10
173.8156546754599
 20
156.2543046689137
 30
0.0
 10
173.789997432665
 20
156.3824216107303
 30
0.0
 10
173.7786819869229
 20
156.4270192583515
 30
0.0
 10
173.7446506196143
 20
156.4933385190471
 30
0.0
 10
173.7307716384105
 20
156.5162927168827
 30
0.0
 10
173.6948359566431
 20
156.543331118847
 30
0.0
 10
173.6798856373804
 20
156.5501408547506
 30
0.0
 10
173.6499871246385
 20
156.5534863163003
 30
0.0
 10
173.6364542642733
 20
156.5505282553269
 30
0.0
 10
173.6247350886993
 20
156.5457959146341
 30
0.0
  0
SPLINE
  5
288
330
1F
100
AcDbEntity
  8
0
  6
Continuous
 62
     7
370
    15
100
AcDbSpline
210
0.0
220
0.0
230
1.0
 70
     8
 71
     3
 72
    14
 73
    10
 74
     0
 42
0.00000001
 43
0.00000001
 12
1.0
 22
0.0
 32
0.0
 13
1.0
 23
0.0
 33
0.0
 40
0.0
 40
0.0
 40
0.0
 40
0.0
 40
0.25
 40
0.25
 40
0.5
 40
0.5
 40
0.75
 40
0.75
 40
1.0
 40
1.0
 40
1.0
 40
1.0
 10
173.6247350887061
 20
156.545795914629
 30
0.0
 10
173.5682793240973
 20
156.5229984140265
 30
0.0
 10
173.4974136978474
 20
156.5066398199317
 30
0.0
 10
173.3489566166748
 20
156.5120392615637
 30
0.0
 10
173.2797632573673
 20
156.5331304793517
 30
0.0
 10
173.1700478192331
 20
156.5840528797415
 30
0.0
 10
173.1248032399018
 20
156.6145533098749
 30
0.0
 10
173.045176530478
 20
156.6778137073612
 30
0.0
 10
173.0105663819445
 20
156.7110597726108
 30
0.0
 10
172.9788509494453
 20
156.7453412898983
 30
0.0
  0
SPLINE
  5
289
330
1F
100
AcDbEntity
  8
0
  6
Continuous
 62
     7
370
    15
100
AcDbSpline
210
0.0
220
0.0
230
1.0
 70
     8
 71
     3
 72
    10
 73
     6
 74
     0
 42
0.00000001
 43
0.00000001
 12
1.0
 22
0.0
 32
0.0
 13
1.0
 23
0.0
 33
0.0
 40
0.0
 40
0.0
 40
0.0
 40
0.0
 40
0.5
 40
0.5
 40
1.0
 40
1.0
 40
1.0
 40
1.0
 10
172.9788509494459
 20
156.7453412898977
 30
0.0
 10
172.9070711615224
 20
156.822928755894
 30
0.0
 10
172.8546116472143
 20
156.9058907967261
 30
0.0
 10
172.7652685831132
 20
157.0804208454361
 30
0.0
 10
172.7292729736134
 20
157.1720819870868
 30
0.0
 10
172.6983916340153
 20
157.2678813914225
 30
0.0
  0
SPLINE
  5
28A
330
1F
100
AcDbEntity
  8
0
  6
Continuous
 62
     7
370
    15
100
AcDbSpline
210
0.0
220
0.0
230
1.0
 70
     8
 71
     3
 72
    10
 73
     6
 74
     0
 42
0.00000001
 43
0.00000001
 12
1.0
 22
0.0
 32
0.0
 13
1.0
 23
0.0
 33
0.0
 40
0.0
 40
0.0
 40
0.0
 40
0.0
 40
0.5
 40
0.5
 40
1.0
 40
1.0
 40
1.0
 40
1.0
 10
172.6983916340153
 20
164.5457218440998
 30
0.0
 10
172.7292646658275
 20
164.7090658697673
 30
0.0
 10
172.7652515287405
 20
164.8711283388262
 30
0.0
 10
172.8545861146317
 20
165.1905599793301
 30
0.0
 10
172.9070419740542
 20
165.3481936208995
 30
0.0
 10
172.9788509494466
 20
165.5003068729457
 30
0.0
  0
SPLINE
  5
28B
330
1F
100
AcDbEntity
  8
0
  6
Continuous
 62
     7
370
    15
100
AcDbSpline
210
0.0
220
0.0
230
1.0
 70
     8
 71
     3
 72
    16
 73
    12
 74
     0
 42
0.00000001
 43
0.00000001
 12
1.0
 22
0.0
 32
0.0
 13
1.0
 23
0.0
 33
0.0
 40
0.0
 40
0.0
 40
0.0
 40
0.0
 40
0.2499999999999995
 40
0.2499999999999995
 40
0.499999999999999
 40
0.499999999999999
 40
0.6249999999999992
 40
0.6249999999999992
 40
0.7499999999999993
 40
0.7499999999999993
 40
1.0
 40
1.0
 40
1.0
 40
1.0
 10
172.9788509494459
 20
165.5003068729461
 30
0.0
 10
173.0105789106386
 20
165.5675163454591
 30
0.0
 10
173.0452065009891
 20
165.6330179775362
 30
0.0
 10
173.1249002630528
 20
165.75786780597
 30
0.0
 10
173.1699417230564
 20
165.8180026680962
 30
0.0
 10
173.2527944499069
 20
165.8931521238523
 30
0.0
 10
173.2827089111067
 20
165.9152434097712
 30
0.0
 10
173.3486952416647
 20
165.9484048619441
 30
0.0
 10
173.3854288671264
 20
165.959246272618
 30
0.0
 10
173.4979255866962
 20
165.9627704036538
 30
0.0
 10
173.5682669347945
 20
165.9256363488562
 30
0.0
 10
173.6247350886997
 20
165.8762671131459
 30
0.0
  0
SPLINE
  5
28C
330
1F
100
AcDbEntity
  8
0
  6
Continuous
 62
     7
370
    15
100
AcDbSpline
210
0.0
220
0.0
230
1.0
 70
     8
 71
     3
 72
    16
 73
    12
 74
     0
 42
0.00000001
 43
0.00000001
 12
1.0
 22
0.0
 32
0.0
 13
1.0
 23
0.0
 33
0.0
 40
0.0
 40
0.0
 40
0.0
 40
0.0
 40
0.0625000000000012
 40
0.0625000000000012
 40
0.1250000000000024
 40
0.1250000000000024
 40
0.2499999999999989
 40
0.2499999999999989
 40
0.4999999999999981
 40
0.4999999999999981
 40
1.0
 40
1.0
 40
1.0
 40
1.0
 10
173.624735088668
 20
165.8762671130976
 30
0.0
 10
173.6364414041699
 20
165.8660324620652
 30
0.0
 10
173.6499373174991
 20
165.8575725440115
 30
0.0
 10
173.6798383091805
 20
165.8520776250665
 30
0.0
 10
173.6948144410679
 20
165.8562560737755
 30
0.0
 10
173.7305504826833
 20
165.8806332742129
 30
0.0
 10
173.7445667597129
 20
165.9073629200686
 30
0.0
 10
173.7787334132357
 20
165.9878124548505
 30
0.0
 10
173.7897146737796
 20
166.0452678030863
 30
0.0
 10
173.8156054611344
 20
166.2204441940297
 30
0.0
 10
173.8197119775747
 20
166.3399645526948
 30
0.0
 10
173.819711977575
 20
166.4598629097386
 30
0.0
  0
LINE
  5
28D
330
1F
100
AcDbEntity
  8
0
  6
Continuous
 62
     7
370
    15
100
AcDbLine
 10
173.8197119776
 20
186.4863093325
 30
0.0
 11
173.8197119776
 21
166.4598629097
 31
0.0
  0
SPLINE
  5
28E
330
1F
100
AcDbEntity
  8
0
  6
Continuous
 62
     7
370
    15
100
AcDbSpline
210
0.0
220
0.0
230
1.0
 70
     8
 71
     3
 72
    16
 73
    12
 74
     0
 42
0.00000001
 43
0.00000001
 12
1.0
 22
0.0
 32
0.0
 13
1.0
 23
0.0
 33
0.0
 40
0.0
 40
0.0
 40
0.0
 40
0.0
 40
0.5000000000000014
 40
0.5000000000000014
 40
0.7499999999999986
 40
0.7499999999999986
 40
0.8749999999999982
 40
0.8749999999999982
 40
0.9374999999999991
 40
0.9374999999999991
 40
1.0
 40
1.0
 40
1.0
 40
1.0
 10
173.8197119775749
 20
186.4863093325032
 30
0.0
 10
173.8197119775749
 20
186.5270921841379
 30
0.0
 10
173.8156546754599
 20
186.5646827884357
 30
0.0
 10
173.789997432665
 20
186.6114245838008
 30
0.0
 10
173.7786819869229
 20
186.6258566811271
 30
0.0
 10
173.7446506196143
 20
186.6397343921902
 30
0.0
 10
173.7307716384105
 20
186.6434831763525
 30
0.0
 10
173.6948359566431
 20
186.6410349738761
 30
0.0
 10
173.6798856373804
 20
186.6383883095615
 30
0.0
 10
173.6499871246385
 20
186.629574822508
 30
0.0
 10
173.6364542642733
 20
186.6240618581845
 30
0.0
 10
173.6247350886993
 20
186.6185483044884
 30
0.0
  0
SPLINE
  5
28F
330
1F
100
AcDbEntity
  8
0
  6
Continuous
 62
     7
370
    15
100
AcDbSpline
210
0.0
220
0.0
230
1.0
 70
     8
 71
     3
 72
    14
 73
    10
 74
     0
 42
0.00000001
 43
0.00000001
 12
1.0
 22
0.0
 32
0.0
 13
1.0
 23
0.0
 33
0.0
 40
0.0
 40
0.0
 40
0.0
 40
0.0
 40
0.25
 40
0.25
 40
0.5
 40
0.5
 40
0.75
 40
0.75
 40
1.0
 40
1.0
 40
1.0
 40
1.0
 10
173.6247350887061
 20
186.6185483044836
 30
0.0
 10
173.5682754228224
 20
186.591985565701
 30
0.0
 10
173.4974029479602
 20
186.5712985188214
 30
0.0
 10
173.3489365900782
 20
186.5703870738143
 30
0.0
 10
173.2797413868704
 20
186.5898068832112
 30
0.0
 10
173.1700242008009
 20
186.6385405661718
 30
0.0
 10
173.1247783118689
 20
186.6683470751547
 30
0.0
 10
173.045161180902
 20
186.7298528735848
 30
0.0
 10
173.0105585614452
 20
186.7620698667285
 30
0.0
 10
172.9788509494463
 20
186.7949631694262
 30
0.0
  0
SPLINE
  5
290
330
1F
100
AcDbEntity
  8
0
  6
Continuous
 62
     7
370
    15
100
AcDbSpline
210
0.0
220
0.0
230
1.0
 70
     8
 71
     3
 72
    10
 73
     6
 74
     0
 42
0.00000001
 43
0.00000001
 12
1.0
 22
0.0
 32
0.0
 13
1.0
 23
0.0
 33
0.0
 40
0.0
 40
0.0
 40
0.0
 40
0.0
 40
0.5
 40
0.5
 40
1.0
 40
1.0
 40
1.0
 40
1.0
 10
172.6983916340153
 20
187.2270080967463
 30
0.0
 10
172.7292702176273
 20
187.1594255522159
 30
0.0
 10
172.7652629253506
 20
187.0890006932466
 30
0.0
 10
172.8546031768477
 20
186.9440926543253
 30
0.0
 10
172.9070614796933
 20
186.8694371714161
 30
0.0
 10
172.9788509494464
 20
186.7949631694261
 30
0.0
  0
SPLINE
  5
291
330
1F
100
AcDbEntity
  8
0
  6
Continuous
 62
     7
370
    15
100
AcDbSpline
210
0.0
220
0.0
230
1.0
 70
     8
 71
     3
 72
    18
 73
    14
 74
     0
 42
0.00000001
 43
0.00000001
 12
1.0
 22
0.0
 32
0.0
 13
1.0
 23
0.0
 33
0.0
 40
0.0
 40
0.0
 40
0.0
 40
0.0
 40
0.2499999999999999
 40
0.2499999999999999
 40
0.3749999999999998
 40
0.3749999999999998
 40
0.4999999999999998
 40
0.4999999999999998
 40
0.6249999999999998
 40
0.6249999999999998
 40
0.7499999999999997
 40
0.7499999999999997
 40
1.0
 40
1.0
 40
1.0
 40
1.0
 10
172.6983916340153
 20
157.2678813914225
 30
0.0
 10
172.5631060277129
 20
157.6875613880682
 30
0.0
 10
172.46193828147
 20
158.1638895054547
 30
0.0
 10
172.359076938601
 20
158.9634221958632
 30
0.0
 10
172.3329740930778
 20
159.2450234279159
 30
0.0
 10
172.2980841095329
 20
159.8348761845409
 30
0.0
 10
172.2894978512429
 20
160.1388421249379
 30
0.0
 10
172.2893981416773
 20
160.7642690855243
 30
0.0
 10
172.2978865128258
 20
161.0857317076584
 30
0.0
 10
172.3320298923464
 20
161.7461747271242
 30
0.0
 10
172.3578268742002
 20
162.0865431292165
 30
0.0
 10
172.4612280055882
 20
163.1253309485832
 30
0.0
 10
172.5630859977596
 20
163.8298424495551
 30
0.0
 10
172.6983916340153
 20
164.5457218440998
 30
0.0
  0
LINE
  5
292
330
1F
100
AcDbEntity
  8
0
  6
Continuous
 62
     7
370
    15
100
AcDbLine
 10
145.5197119776
 20
165.5003068729
 30
0.0
 11
145.5197119776
 21
186.3707786965
 31
0.0
  0
LINE
  5
293
330
1F
100
AcDbEntity
  8
0
  6
Continuous
 62
     7
370
    15
100
AcDbLine
 10
171.8197119776
 20
165.5003068729
 30
0.0
 11
171.8197119776
 21
186.9430028539
 31
0.0
  0
LINE
  5
294
330
1F
100
AcDbEntity
  8
0
  6
Continuous
 62
     7
370
    15
100
AcDbLine
 10
171.8197119776
 20
156.5973016054
 30
0.0
 11
171.8197119776
 21
165.5003068729
 31
0.0
  0
LINE
  5
295
330
1F
100
AcDbEntity
  8
0
  6
Continuous
 62
     7
370
    15
100
AcDbLine
 10
145.5197119776
 20
157.1695257628
 30
0.0
 11
145.5197119776
 21
165.5003068729
 31
0.0
  0
LINE
  5
296
330
1F
100
AcDbEntity
  8
0
  6
Continuous
 62
     7
370
    15
100
AcDbLine
 10
144.0197119776
 20
165.5003068729
 30
0.0
 11
144.0197119776
 21
185.6207786965
 31
0.0
  0
LINE
  5
297
330
1F
100
AcDbEntity
  8
0
  6
Continuous
 62
     7
370
    15
100
AcDbLine
 10
144.0197119776
 20
157.9195257628
 30
0.0
 11
144.0197119776
 21
165.5003068729
 31
0.0
  0
LINE
  5
298
330
1F
100
AcDbEntity
  8
0
  6
Continuous
 62
     7
370
    15
100
AcDbLine
 10
171.8197119776
 20
153.2801049929
 30
0.0
 11
171.8197119776
 21
156.5973016054
 31
0.0
  0
SPLINE
  5
299
330
1F
100
AcDbEntity
  8
0
  6
Continuous
 62
     7
370
    15
100
AcDbSpline
210
0.0
220
0.0
230
1.0
 70
     8
 71
     3
 72
     8
 73
     4
 74
     0
 42
0.00000001
 43
0.00000001
 12
1.0
 22
0.0
 32
0.0
 13
1.0
 23
0.0
 33
0.0
 40
0.0000202085968836
 40
0.0000202085968836
 40
0.0000202085968836
 40
0.0000202085968836
 40
0.0040218806502652
 40
0.0040218806502652
 40
0.0040218806502652
 40
0.0040218806502652
 10
145.5197119775749
 20
154.1474070190124
 30
0.0
 10
146.8530351033655
 20
154.1167821071991
 30
0.0
 10
148.1863689765881
 20
154.0860930957155
 30
0.0
 10
149.5197119775749
 20
154.0553400189855
 30
0.0
  0
LINE
  5
29A
330
1F
100
AcDbEntity
  8
0
  6
Continuous
 62
     7
370
    15
100
AcDbLine
 10
145.5197119776
 20
154.147407019
 30
0.0
 11
145.5197119776
 21
157.1695257628
 31
0.0
  0
SPLINE
  5
29B
330
1F
100
AcDbEntity
  8
0
  6
Continuous
 62
     7
370
    15
100
AcDbSpline
210
0.0
220
0.0
230
1.0
 70
     8
 71
     3
 72
    14
 73
    10
 74
     0
 42
0.00000001
 43
0.00000001
 12
1.0
 22
0.0
 32
0.0
 13
1.0
 23
0.0
 33
0.0
 40
0.0
 40
0.0
 40
0.0
 40
0.0
 40
0.2135993514132925
 40
0.4276425866404028
 40
0.6415423297114249
 40
0.7507295435246306
 40
0.8615366196958608
 40
0.958078839822284
 40
1.0
 40
1.0
 40
1.0
 40
1.0
 10
149.5197119775749
 20
154.0553400189855
 30
0.0
 10
149.6985287879627
 20
154.02515338635
 30
0.0
 10
150.056534010465
 20
153.9647173898134
 30
0.0
 10
150.5640080861751
 20
153.8920834143329
 30
0.0
 10
150.9488018821906
 20
153.8436012352133
 30
0.0
 10
151.2039398656803
 20
153.8145156038961
 30
0.0
 10
151.3391283511834
 20
153.7999644878843
 30
0.0
 10
151.4073184067211
 20
153.7929072681547
 30
0.0
 10
151.3998903412673
 20
153.793676466199
 30
0.0
 10
151.3976414208594
 20
153.7939093485276
 30
0.0
  0
SPLINE
  5
29C
330
1F
100
AcDbEntity
  8
0
  6
Continuous
 62
     7
370
    15
100
AcDbSpline
210
0.0
220
0.0
230
1.0
 70
     8
 71
     3
 72
    27
 73
    23
 74
     0
 42
0.00000001
 43
0.00000001
 12
1.0
 22
0.0
 32
0.0
 13
1.0
 23
0.0
 33
0.0
 40
0.0
 40
0.0
 40
0.0
 40
0.0
 40
0.0320810902760304
 40
0.0815988622369031
 40
0.1291461474141409
 40
0.1779688021163471
 40
0.2275514337607556
 40
0.2783998682970533
 40
0.331342413556961
 40
0.3856608624317506
 40
0.4415994253710331
 40
0.4990785125072062
 40
0.556430997583793
 40
0.6154592890157468
 40
0.6725108653379192
 40
0.7313192029656287
 40
0.7865588185553953
 40
0.8435861919728769
 40
0.8957602431773304
 40
0.9496380814985493
 40
0.9987917732476101
 40
1.0
 40
1.0
 40
1.0
 40
1.0
 10
163.4605567714491
 20
153.4912136154964
 30
0.0
 10
163.460607659663
 20
153.4912077723172
 30
0.0
 10
163.4607370948013
 20
153.4911929100797
 30
0.0
 10
163.3650734491733
 20
153.505008933983
 30
0.0
 10
163.1896981853297
 20
153.5294601288187
 30
0.0
 10
162.9385531945855
 20
153.5626548615759
 30
0.0
 10
162.6158509506578
 20
153.6020553759059
 30
0.0
 10
162.2243883722315
 20
153.6449528275683
 30
0.0
 10
161.7691195144589
 20
153.6879920620898
 30
0.0
 10
161.2570157963133
 20
153.7274886400995
 30
0.0
 10
160.7002310905118
 20
153.7596418682226
 30
0.0
 10
160.1167136429958
 20
153.7811058480655
 30
0.0
 10
159.5218826635343
 20
153.7901003083925
 30
0.0
 10
158.9442607266015
 20
153.786273262527
 30
0.0
 10
158.3952345616922
 20
153.7712526794874
 30
0.0
 10
157.9070769517145
 20
153.7485356746829
 30
0.0
 10
157.4838462670127
 20
153.7218173999484
 30
0.0
 10
157.1536960226474
 20
153.6964313774665
 30
0.0
 10
156.9097365001014
 20
153.6751587966151
 30
0.0
 10
156.7782639488877
 20
153.6628113371197
 30
0.0
 10
156.7248575406817
 20
153.6576537401802
 30
0.0
 10
156.739521526943
 20
153.6590571795414
 30
0.0
 10
156.7398733288803
 20
153.659090849287
 30
0.0
  0
SPLINE
  5
29D
330
1F
100
AcDbEntity
  8
0
  6
Continuous
 62
     7
370
    15
100
AcDbSpline
210
0.0
220
0.0
230
1.0
 70
     8
 71
     3
 72
     8
 73
     4
 74
     0
 42
0.00000001
 43
0.00000001
 12
1.0
 22
0.0
 32
0.0
 13
1.0
 23
0.0
 33
0.0
 40
0.0
 40
0.0
 40
0.0
 40
0.0
 40
1.0
 40
1.0
 40
1.0
 40
1.0
 10
144.019711977574
 20
154.9249347937789
 30
0.0
 10
144.493923388012
 20
154.6836239198198
 30
0.0
 10
144.9986597351138
 20
154.4224371456694
 30
0.0
 10
145.5197119775749
 20
154.1474070190124
 30
0.0
  0
LINE
  5
29E
330
1F
100
AcDbEntity
  8
0
  6
Continuous
 62
     7
370
    15
100
AcDbLine
 10
144.0197119776
 20
154.9249347938
 30
0.0
 11
144.0197119776
 21
157.9195257628
 31
0.0
  0
LINE
  5
29F
330
1F
100
AcDbEntity
  8
0
  6
Continuous
 62
     7
370
    15
100
AcDbLine
 10
261.0197119776
 20
190.6802037774
 30
0.0
 11
261.0197119776
 21
191.4802037774
 31
0.0
  0
LINE
  5
2A0
330
1F
100
AcDbEntity
  8
0
  6
Continuous
 62
     7
370
    15
100
AcDbLine
 10
262.0197119776
 20
191.4802037774
 30
0.0
 11
262.0197119776
 21
189.6802037774
 31
0.0
  0
LINE
  5
2A1
330
1F
100
AcDbEntity
  8
0
  6
Continuous
 62
     7
370
    15
100
AcDbLine
 10
261.0197119776
 20
194.6802037774
 30
0.0
 11
218.0197119776
 21
194.6802037774
 31
0.0
  0
LINE
  5
2A2
330
1F
100
AcDbEntity
  8
0
  6
Continuous
 62
     7
370
    15
100
AcDbLine
 10
261.0197119776
 20
191.4802037774
 30
0.0
 11
261.0197119776
 21
194.6802037774
 31
0.0
  0
LINE
  5
2A3
330
1F
100
AcDbEntity
  8
0
  6
Continuous
 62
     7
370
    15
100
AcDbLine
 10
261.0197119776
 20
195.6802037774
 30
0.0
 11
261.0197119776
 21
194.6802037774
 31
0.0
  0
LINE
  5
2A4
330
1F
100
AcDbEntity
  8
0
  6
Continuous
 62
     7
370
    15
100
AcDbLine
 10
218.0197119776
 20
195.6802037774
 30
0.0
 11
261.0197119776
 21
195.6802037774
 31
0.0
  0
LINE
  5
2A5
330
1F
100
AcDbEntity
  8
0
  6
Continuous
 62
     7
370
    15
100
AcDbLine
 10
262.0197119776
 20
194.6802037774
 30
0.0
 11
261.0197119776
 21
194.6802037774
 31
0.0
  0
LINE
  5
2A6
330
1F
100
AcDbEntity
  8
0
  6
Continuous
 62
     7
370
    15
100
AcDbLine
 10
262.0197119776
 20
194.6802037774
 30
0.0
 11
262.0197119776
 21
191.4802037774
 31
0.0
  0
LINE
  5
2A7
330
1F
100
AcDbEntity
  8
0
  6
Continuous
 62
     7
370
    15
100
AcDbLine
 10
262.0197119776
 20
194.6802037774
 30
0.0
 11
261.0197119776
 21
195.6802037774
 31
0.0
  0
LINE
  5
2A8
330
1F
100
AcDbEntity
  8
0
  6
Continuous
 62
     7
370
    15
100
AcDbLine
 10
262.0197119776
 20
170.6802037774
 30
0.0
 11
262.0197119776
 21
149.6802037774
 31
0.0
  0
LINE
  5
2A9
330
1F
100
AcDbEntity
  8
0
  6
Continuous
 62
     7
370
    15
100
AcDbLine
 10
171.8197119776
 20
188.320302562
 30
0.0
 11
171.8197119776
 21
186.9430028539
 31
0.0
  0
LINE
  5
2AA
330
1F
100
AcDbEntity
  8
0
  6
Continuous
 62
     7
370
    15
100
AcDbLine
 10
145.5197119776
 20
187.6595550194
 30
0.0
 11
145.5197119776
 21
186.3707786965
 31
0.0
  0
SPLINE
  5
2AB
330
1F
100
AcDbEntity
  8
0
  6
Continuous
 62
     7
370
    15
100
AcDbSpline
210
0.0
220
0.0
230
1.0
 70
     8
 71
     3
 72
    10
 73
     6
 74
     0
 42
0.00000001
 43
0.00000001
 12
1.0
 22
0.0
 32
0.0
 13
1.0
 23
0.0
 33
0.0
 40
0.0
 40
0.0
 40
0.0
 40
0.0
 40
0.0903183596728356
 40
0.4614666047259874
 40
1.0
 40
1.0
 40
1.0
 40
1.0
 10
172.2995598044478
 20
188.1094289728366
 30
0.0
 10
172.2965876478774
 20
188.1160810822365
 30
0.0
 10
172.2814019092719
 20
188.1500689264598
 30
0.0
 10
172.3724663550596
 20
187.945260781
 30
0.0
 10
172.5771930255443
 20
187.4940976153655
 30
0.0
 10
172.6983916340153
 20
187.2270080967463
 30
0.0
  0
LINE
  5
2AC
330
1F
100
AcDbEntity
  8
0
  6
Continuous
 62
     7
370
    15
100
AcDbLine
 10
144.0197119776
 20
186.7935296156
 30
0.0
 11
144.0197119776
 21
185.6207786965
 31
0.0
  0
LINE
  5
2AD
330
1F
100
AcDbEntity
  8
VERMASSUNG
  6
CENTERX2
100
AcDbLine
 10
140.0730477588
 20
169.6802037774
 30
0.0
 11
279.0621091748
 21
169.6802037774
 31
0.0
  0
DIMENSION
  5
2AE
330
1F
100
AcDbEntity
  8
VERMASSUNG
100
AcDbDimension
  2
_D_12
 10
197.0197119776
 20
201.2658925291
 30
0.0
 11
234.5197119776
 21
201.2658925291
 31
0.0
 70
   160
  1
<>
 71
     2
 42
-1.0
  3
SLDDIMSTYLE1
100
AcDbAlignedDimension
 13
272.0197119776
 23
149.6802037774
 33
0.0
 14
197.0197119776
 24
170.6802037774
 34
0.0
100
AcDbRotatedDimension
  0
OLE2FRAME
  5
2B8
330
1F
100
AcDbEntity
  8
0
100
AcDbOle2Frame
 70
     2
  3
Paintbrush-Bild
 10
13.8511154363
 20
38.264191557
 30
0.0
 11
51.6290888628
 21
31.9806341108
 31
0.0
 71
     2
 72
     0
 73
     1
 90
    12928
310
80552BED0767C5B32B40DDAF6807D121434000000000000000006FFBDDFB85D0
310
4940DDAF6807D121434000000000000000006FFBDDFB85D04940416F4BD60AFB
310
3F4000000000000000002BED0767C5B32B40416F4BD60AFB3F40000000000000
310
0000000000000100000000010000010000000100000000000100000000320000
310
D0CF11E0A1B11AE1000000000000000000000000000000003E000300FEFF0900
310
0600000000000000000000000100000001000000000000000010000002000000
310
01000000FEFFFFFF0000000000000000FFFFFFFFFFFFFFFFFFFFFFFFFFFFFFFF
310
FFFFFFFFFFFFFFFFFFFFFFFFFFFFFFFFFFFFFFFFFFFFFFFFFFFFFFFFFFFFFFFF
310
FFFFFFFFFFFFFFFFFFFFFFFFFFFFFFFFFFFFFFFFFFFFFFFFFFFFFFFFFFFFFFFF
310
FFFFFFFFFFFFFFFFFFFFFFFFFFFFFFFFFFFFFFFFFFFFFFFFFFFFFFFFFFFFFFFF
310
FFFFFFFFFFFFFFFFFFFFFFFFFFFFFFFFFFFFFFFFFFFFFFFFFFFFFFFFFFFFFFFF
310
FFFFFFFFFFFFFFFFFFFFFFFFFFFFFFFFFFFFFFFFFFFFFFFFFFFFFFFFFFFFFFFF
310
FFFFFFFFFFFFFFFFFFFFFFFFFFFFFFFFFFFFFFFFFFFFFFFFFFFFFFFFFFFFFFFF
310
FFFFFFFFFFFFFFFFFFFFFFFFFFFFFFFFFFFFFFFFFFFFFFFFFFFFFFFFFFFFFFFF
310
FFFFFFFFFFFFFFFFFFFFFFFFFFFFFFFFFFFFFFFFFFFFFFFFFFFFFFFFFFFFFFFF
310
FFFFFFFFFFFFFFFFFFFFFFFFFFFFFFFFFFFFFFFFFFFFFFFFFFFFFFFFFFFFFFFF
310
FFFFFFFFFFFFFFFFFFFFFFFFFFFFFFFFFFFFFFFFFFFFFFFFFFFFFFFFFFFFFFFF
310
FFFFFFFFFFFFFFFFFFFFFFFFFFFFFFFFFFFFFFFFFFFFFFFFFFFFFFFFFFFFFFFF
310
FFFFFFFFFFFFFFFFFFFFFFFFFFFFFFFFFFFFFFFFFFFFFFFFFFFFFFFFFFFFFFFF
310
FFFFFFFFFFFFFFFFFFFFFFFFFFFFFFFFFFFFFFFFFFFFFFFFFFFFFFFFFFFFFFFF
310
FDFFFFFFFEFFFFFFFEFFFFFFFEFFFFFF05000000060000000700000008000000
310
090000000A0000000B0000000C0000000D0000000E0000000F00000010000000
310
11000000120000001300000014000000150000001600000017000000FEFFFFFF
310
FFFFFFFFFFFFFFFFFFFFFFFFFFFFFFFFFFFFFFFFFFFFFFFFFFFFFFFFFFFFFFFF
310
FFFFFFFFFFFFFFFFFFFFFFFFFFFFFFFFFFFFFFFFFFFFFFFFFFFFFFFFFFFFFFFF
310
FFFFFFFFFFFFFFFFFFFFFFFFFFFFFFFFFFFFFFFFFFFFFFFFFFFFFFFFFFFFFFFF
310
FFFFFFFFFFFFFFFFFFFFFFFFFFFFFFFFFFFFFFFFFFFFFFFFFFFFFFFFFFFFFFFF
310
FFFFFFFFFFFFFFFFFFFFFFFFFFFFFFFFFFFFFFFFFFFFFFFFFFFFFFFFFFFFFFFF
310
FFFFFFFFFFFFFFFFFFFFFFFFFFFFFFFFFFFFFFFFFFFFFFFFFFFFFFFFFFFFFFFF
310
FFFFFFFFFFFFFFFFFFFFFFFFFFFFFFFFFFFFFFFFFFFFFFFFFFFFFFFFFFFFFFFF
310
FFFFFFFFFFFFFFFFFFFFFFFFFFFFFFFFFFFFFFFFFFFFFFFFFFFFFFFFFFFFFFFF
310
FFFFFFFFFFFFFFFFFFFFFFFFFFFFFFFFFFFFFFFFFFFFFFFFFFFFFFFFFFFFFFFF
310
FFFFFFFFFFFFFFFFFFFFFFFFFFFFFFFFFFFFFFFFFFFFFFFFFFFFFFFFFFFFFFFF
310
FFFFFFFFFFFFFFFFFFFFFFFFFFFFFFFFFFFFFFFFFFFFFFFFFFFFFFFFFFFFFFFF
310
FFFFFFFFFFFFFFFFFFFFFFFFFFFFFFFFFFFFFFFFFFFFFFFFFFFFFFFFFFFFFFFF
310
FFFFFFFFFFFFFFFFFFFFFFFFFFFFFFFFFFFFFFFFFFFFFFFFFFFFFFFFFFFFFFFF
310
52006F006F007400200045006E00740072007900000000000000000000000000
310
0000000000000000000000000000000000000000000000000000000000000000
310
16000500FFFFFFFFFFFFFFFF020000000A00030000000000C000000000000046
310
00000000000000000000000070D59F5CF92CCD0103000000C000000000000000
310
01004F006C006500000000000000000000000000000000000000000000000000
310
0000000000000000000000000000000000000000000000000000000000000000
310
0A000200FFFFFFFFFFFFFFFFFFFFFFFF00000000000000000000000000000000
310
0000000000000000000000000000000000000000000000001400000000000000
310
010043006F006D0070004F0062006A0000000000000000000000000000000000
310
0000000000000000000000000000000000000000000000000000000000000000
310
120002010100000003000000FFFFFFFF00000000000000000000000000000000
310
0000000000000000000000000000000000000000010000004D00000000000000
310
01004F006C006500310030004E00610074006900760065000000000000000000
310
0000000000000000000000000000000000000000000000000000000000000000
310
1A000200FFFFFFFFFFFFFFFFFFFFFFFF00000000000000000000000000000000
310
0000000000000000000000000000000000000000040000002426000000000000
310
FEFFFFFF02000000FEFFFFFFFFFFFFFFFFFFFFFFFFFFFFFFFFFFFFFFFFFFFFFF
310
FFFFFFFFFFFFFFFFFFFFFFFFFFFFFFFFFFFFFFFFFFFFFFFFFFFFFFFFFFFFFFFF
310
FFFFFFFFFFFFFFFFFFFFFFFFFFFFFFFFFFFFFFFFFFFFFFFFFFFFFFFFFFFFFFFF
310
FFFFFFFFFFFFFFFFFFFFFFFFFFFFFFFFFFFFFFFFFFFFFFFFFFFFFFFFFFFFFFFF
310
FFFFFFFFFFFFFFFFFFFFFFFFFFFFFFFFFFFFFFFFFFFFFFFFFFFFFFFFFFFFFFFF
310
FFFFFFFFFFFFFFFFFFFFFFFFFFFFFFFFFFFFFFFFFFFFFFFFFFFFFFFFFFFFFFFF
310
FFFFFFFFFFFFFFFFFFFFFFFFFFFFFFFFFFFFFFFFFFFFFFFFFFFFFFFFFFFFFFFF
310
FFFFFFFFFFFFFFFFFFFFFFFFFFFFFFFFFFFFFFFFFFFFFFFFFFFFFFFFFFFFFFFF
310
FFFFFFFFFFFFFFFFFFFFFFFFFFFFFFFFFFFFFFFFFFFFFFFFFFFFFFFFFFFFFFFF
310
FFFFFFFFFFFFFFFFFFFFFFFFFFFFFFFFFFFFFFFFFFFFFFFFFFFFFFFFFFFFFFFF
310
FFFFFFFFFFFFFFFFFFFFFFFFFFFFFFFFFFFFFFFFFFFFFFFFFFFFFFFFFFFFFFFF
310
FFFFFFFFFFFFFFFFFFFFFFFFFFFFFFFFFFFFFFFFFFFFFFFFFFFFFFFFFFFFFFFF
310
FFFFFFFFFFFFFFFFFFFFFFFFFFFFFFFFFFFFFFFFFFFFFFFFFFFFFFFFFFFFFFFF
310
FFFFFFFFFFFFFFFFFFFFFFFFFFFFFFFFFFFFFFFFFFFFFFFFFFFFFFFFFFFFFFFF
310
FFFFFFFFFFFFFFFFFFFFFFFFFFFFFFFFFFFFFFFFFFFFFFFFFFFFFFFFFFFFFFFF
310
FFFFFFFFFFFFFFFFFFFFFFFFFFFFFFFFFFFFFFFFFFFFFFFFFFFFFFFFFFFFFFFF
310
0100000200000000000000000000000000000000000000000000000000000000
310
0000000000000000000000000000000000000000000000000000000000000000
310
0100FEFF030A0000FFFFFFFF0A00030000000000C00000000000004607000000
310
5042727573680007000000504272757368000700000050427275736800F439B2
310
7100000000000000000000000000000000000000000000000000000000000000
310
0000000000000000000000000000000000000000000000000000000000000000
310
0000000000000000000000000000000000000000000000000000000000000000
310
0000000000000000000000000000000000000000000000000000000000000000
310
0000000000000000000000000000000000000000000000000000000000000000
310
0000000000000000000000000000000000000000000000000000000000000000
310
0000000000000000000000000000000000000000000000000000000000000000
310
0000000000000000000000000000000000000000000000000000000000000000
310
0000000000000000000000000000000000000000000000000000000000000000
310
0000000000000000000000000000000000000000000000000000000000000000
310
0000000000000000000000000000000000000000000000000000000000000000
310
0000000000000000000000000000000000000000000000000000000000000000
310
20260000424D0E260000000000003E00000028000000B40200006E0000000100
310
01000000000000000000130B0000130B00000200000002000000000000FFFFFF
310
FFFFFFFFFFFFFFFFFFFFFFFFFFFFFFFFFFFFFFFFFFFFFFFFFFFFFFFFFFFFFFFF
310
FFFFFFFFFFFFFFFFFFFFFFFFFFFFFFFFFFFFFFFFFFFFFFFFFFFFFFFFFFFFFFFF
310
FFFFFFFFFFFFFFFFFFFFFFFFFFFFFFFFFFFFFFFFFFFFFFFFF000FFFFFFFFFFFF
310
FFFFFFFFFFFFFFFFFFFFFFFFFFFFFFFFFFFFFFFFFFFFFFFFFFFFFFFFFFFFFFFF
310
FFFFFFFFFFFFFFFFFFFFFFFFFFFFFFFFFFFFFFFFFFFFFFFFFFFFFFFFFFFFFFFF
310
FFFFFFFFFFFFFFFFFFFFFFFFFFFFFFFFF000FFFFFFFFFFFFFFFFFFFFFFFFFFFF
310
FFFFFFFFFFFFFFFFFFFFFFFFFFFFFFFFFFFFFFFFFFFFFFFFFFFFFFFFFFFFFFFF
310
FFFFFFFFFFFFFFFFFFFFFFFFFFFFFFFFFFFFFFFFFFFFFFFFFFFFFFFFFFFFFFFF
310
FFFFFFFFFFFFFFFFF000FFFFFFFFFFFFFFFFFFFFFFFFFFFFFFFFFFFFFFFFFFFF
310
FFFFFFFFFFFFFFFFFFFFFFFFFFFFFFFFFFFFFFFFFFFFFFFFFFFFFFFFFFFFFFFF
310
FFFFFFFFFFFFFFFFFFFFFFFFFFFFFFFFFFFFFFFFFFFFFFFFFFFFFFFFFFFFFFFF
310
F000FFFFFFFFFFFFFFFFFFFFFFFFFFFFFFFFFFFFFFFFFFFFFFFFFFFFFFFFFFFF
310
FFFFFFFFFFFFFFFFFFFFFFFFFFFFFFFFFFFFFFFFFFFFFFFFFFFFFFFFFFFFFFFF
310
FFFFFFFFFFFFFFFFFFFFFFFFFFFFFFFFFFFFFFFFFFFFFFFFF000FFFFFFFFFFFF
310
FFFFFFFFFFFFFFFFFFFFFFFFFFFFFFFFFFFFFFFFFFFFFFFFFFFFFFFFFFFFFFFF
310
FFFFFFFFFFFFFFFFFFFFFFFFFFFFFFFFFFFFFFFFFFFFFFFFFFFFFFFFFFFFFFFF
310
FFFFFFFFFFFFFFFFFFFFFFFFFFFFFFFFF000FFFFFFFFFFFFFFFFFFFFFFFFFFFF
310
FFFFFFFFFFFFFFFFFFFFFFFFFFFFFFFFFFFFFFFFFFFFFFFFFFFFFFFFFFFFFFFF
310
FFFFFFFFFFFFFFFFFFFFFFFFFFFFFFFFFFFFFFFFFFFFFFFFFFFFFFFFFFFFFFFF
310
FFFFFFFFFFFFFFFFF000FFFFFFFFFFFFFFFFFFFFFFFFFFFFFFFFFFFFFFFFFFFF
310
FFFFFFFFFFFFFFFFFFFFFFFFFFFFFFFFFFFFFFFFFFFFFFFFFFFFFFFFFFFFFFFF
310
FFFFFFFFFFFFFFFFFFFFFFFFFFFFFFFFFFFFFFFFFFFFFFFFFFFFFFFFFFFFFFFF
310
F000FFFFFFFFFFFFFFFFFFFFFFFFFFFFFFFFFFFFFFFFFFFFFFFFFFFFFFFFFFFF
310
FFFFFFFFFFFFFFFFFFFFFFFFFFFFFFFFFFFFFFFFFFFFFFFFFFFFFFFFFFFFFFFF
310
FFFFFFFFFFFFFFFFFFFFFFFFFFFFFFFFFFFFFFFFFFFFFFFFF000FFFFFFFFFFFF
310
FFFFFFFFFFFFFFFFFFFFFFFFFFFFFFFFFFFFFFFFFFFFFFFFFFFFFFFFFFFFFFFF
310
FFFFFFFFFFFFFFFFFFFFFFFFFFFFFFFFFFFFFFFFFFFFFFFFFFFFFFFFFFFFFFFF
310
FFFFFFFFFFFFFFFFFFFFFFFFFFFFFFFFF000FFFFFFFFFFFFFFFFFFFFFFFFFFFF
310
FFFFFFFFFFFFFFFFFFFFFFFFFFFFFFFFFFFFFFFFFFFFFFFFFFFFFFFFFFFFFFFF
310
FFFFFFFFFFFFFFFFFFFFFFFFFFFFFFFFFFFFFFFFFFFFFFFFFFFFFFFFFFFFFFFF
310
FFFFFFFFFFFFFFFFF000FFFFFFFFFFFFFFFFFFFFFFFFFFFFFFFFFFFFFFFFFFFF
310
FFFFFFFFFFFFFFFFFFFFFFFFFFFFFFFFFFFFFFFFFFFFFFFFFFFFFFFFFFFFFFFF
310
FFFFFFFFFFFFFFFFFFFFFFFFFFFFFFFFFFFFFFFFFFFFFFFFFFFFFFFFFFFFFFFF
310
F000FFFFFFFFFFFFFFFFFFFFFFFFFFFFFFFFFFFFFFFFFFFFFFFFFFFFFFFFFFFF
310
FFFFFFFFFFFFFFFFFFFFFFFFFFFFFFFFFFFFFFFFFFFFFFFFFFFFFFFFFFFFFFFF
310
FFFFFFFFFFFFFFFFFFFFFFFFFFFFFFFFFFFFFFFFFFFFFFFFF000FFFFFFFFFFFF
310
FFFFFFFFFFFFFFFFFFFFFFFFFFFFFFFFFFFFFFFFFFFFFFFFFFFFFFFFFFFFFFFF
310
FFFFFFFFFFFFFFFFFFFFFFFFFFFFFFFFFFFFFFFFFFFFFFFFFFFFFFFFFFFFFFFF
310
FFFFFFFFFFFFFFFFFFFFFFFFFFFFFFFFF000FFFFFFFFFFFFFFFFFFFFFFFFFFFF
310
FFFFFFFFFFFFFFFFFFFFFFFFFFFFFFFFFFFFFFFFFFFFFFFFFFFFFFFFFFFFFFFF
310
FFFFFFFFFFFFFFFFFFFFFFFFFFFFFFFFFFFFFFFFFFFFFFFFFFFFFFFFFFFFFFFF
310
FFFFFFFFFFFFFFFFF000FFFFFFFFFFFFFFFFFFFFFFFFFFFFFFFFFFFFFFFFFFFF
310
FFFFFFFFFFFFFFFFFFFFFFFFFFFFFFFFFFFFFFFFFFFFFFFFFFFFFFFFFFFFFFFF
310
FFFFFFFFFFFFFFFFFFFFFFFFFFFFFFFFFFFFFFFFFFFFFFFFFFFFFFFFFFFFFFFF
310
F000FFFFFFFFFFFFFFFFFFFFFFFFFFFFFFFFFFFFFFFFFFFFFFFFFFFFFFFFFFFF
310
FFFFFFFFFFFFFFFFFFFFFFFFFFFFFFFFFFFFFFFFFFFFFFFFFFFFFFFFFFFFFFFF
310
FFFFFFFFFFFFFFFFFFFFFFFFFFFFFFFFFFFFFFFFFFFFFFFFF000FFFFFFFFFFFF
310
FFFFFFFFFFFFFFFFFFFFFFFFFFFFFFFFFFFFFFFFFFFFFFFFFFFFFFFFFFFFFFFF
310
FFFFFFFFFFFFFFFFFFFFFFFFFFFFFFFFFFFFFFFFFFFFFFFFFFFFFFFFFFFFFFFF
310
FFFFFFFFFFFFFFFFFFFFFFFFFFFFFFFFF000FFFFFFFFFFFFFFFFFFFFFFFFFFFF
310
FFFFFFFFFFFFFFFFFFFFFFFFFFFFFFFFFFFFFFFFFFFFFFFFFFFFFFFFFFFFFFFF
310
FFFFFFFFFFFFFFFFFFFFFFFFFFFFFFFFFFFFFFFFFFFFFFFFFFFFFFFFFFFFFFFF
310
FFFFFFFFFFFFFFFFF000FFFFF80003FFFFFFFFFFFFFFFFFFFFFFFFFFFFFFFFFF
310
FFFFF00007FFFFFFFFFF00007FFFFFF800000000000000007FFFFFFFFFFFFFFF
310
FFFFFFFC001FFFFFFFFFFFFFFC001FFFFFFFFFFFFFFFFFFFFFFFFFFE0007FFFF
310
F000FFFF8000007FFFFFFFF8000FFFFFC0007FFFFF80007FFFFF0000007FFFFF
310
FFF8000007FFFFF800000000000000007FFFFFF0001FFFFFFFFFFFC00001FFFF
310
FFFFFFFFC00001FFFFFFFF000000000003FFFFE000007FFFF000FFFE0000000F
310
FFFFFFF0000FFFFF80007FFFFF80007FFFFC0000001FFFFFFFC0000001FFFFF8
310
00000000000000007FFFFFF0001FFFFFFFFFFE0000003FFFFFFFFFFE0000003F
310
FFFFFF000000000003FFFF0000000FFFF000FFF800000003FFFFFFF00007FFFF
310
80007FFFFF80007FFFF000000007FFFFFF000000003FFFF80000000000000000
310
7FFFFFF0001FFFFFFFFFF80000000FFFFFFFFFF80000000FFFFFFF0000000000
310
03FFFC00000003FFF000FFE000000000FFFFFFF00007FFFF80003FFFFF80007F
310
FFC000000001FFFFFC000000001FFFF800000000000000007FFFFFF0001FFFFF
310
FFFFE000000003FFFFFFFFE000000003FFFFFF000000000003FFF000000000FF
310
F000FF80000000007FFFFFF00007FFFF80003FFFFF80007FFF8000000000FFFF
310
F80000000007FFF800000000000000007FFFFFF0001FFFFFFFFFC000000001FF
310
FFFFFFC000000001FFFFFF000000000003FFC0000000007FF000FF0000000000
310
3FFFFFE00007FFFF00003FFFFF80007FFE00000000003FFFF00000000003FFF8
310
00000000000000007FFFFFF0001FFFFFFFFF8000000000FFFFFFFF8000000000
310
FFFFFF000000000003FF80000000003FF000FE00000000001FFFFFE00003FFFF
310
00003FFFFF80007FFC00000000001FFFE00000000001FFF8000001FFFE000000
310
7FFFFFF0001FFFFFFFFE00000000003FFFFFFE00000000003FFFFF0000000000
310
03FF00000000001FF000FC00000000000FFFFFE00003FFFF00001FFFFF80007F
310
F800000000001FFFC00000000000FFF8000001FFFE0000007FFFFFF0001FFFFF
310
FFFC00000000001FFFFFFC00000000001FFFFF000000000003FE00000000000F
310
F000F8000000000007FFFFE00003FFFF00001FFFFF80007FF800000000000FFF
310
800000000000FFF8000001FFFE0000007FFFFFF0001FFFFFFFF800000000000F
310
FFFFF800000000000FFFFF000000000003FC000000000007F000F80000000000
310
03FFFFC00003FFFE00001FFFFF80007FF0000000000007FF0000000000007FF8
310
000001FFFE0000007FFFFFF0001FFFFFFFF0000000000007FFFFF00000000000
310
07FFFF000000000003F8000000000003F000F0000000000003FFFFC00001FFFE
310
00001FFFFF80007FE0000000000007FE0000000000003FF8000001FFFE000000
310
7FFFFFF0001FFFFFFFF0000000000007FFFFF0000000000007FFFF0000000000
310
03F800001F800003F000E00001FFF00001FFFFC00001FFFE00000FFFFF80007F
310
E00001FFE00003FE00001FFF00003FF8000001FFFE0000007FFFFFF0001FFFFF
310
FFE000003E000003FFFFE000003E000003FFFF000000000003F00001FFF80001
310
F000E00007FFFC0001FFFFC00001FFFE00000FFFFF80007FC0000FFFFC0003FC
310
0000FFFFC0001FF8000001FFFE0000007FFFFFF0001FFFFFFFC00003FFE00001
310
FFFFC00003FFE00001FFFF0001FFFFFFFFF00007FFFE0001F000E0000FFFFF00
310
00FFFF800001FFFC00000FFFFF80007FC0001FFFFE0001FC0001FFFFE0001FF8
310
000001FFFE0000007FFFFFF0001FFFFFFF80000FFFF80000FFFF80000FFFF800
310
00FFFF0003FFFFFFFFE0000FFFFF8000F000C0003FFFFF8000FFFF800000FFFC
310
000007FFFF80007F80003FFFFF0001FC0003FFFFF0001FF8000001FFFE000000
310
7FFFFFF0001FFFFFFF80003FFFFE0000FFFF80003FFFFE0000FFFF0003FFFFFF
310
FFE0003FFFFF8000F000C0003FFFFF8000FFFF800000FFFC000007FFFF80007F
310
80007FFFFF8001F80007FFFFF8000FF8000001FFFE0000007FFFFFF0001FFFFF
310
FF00007FFFFF00007FFF00007FFFFF00007FFF0003FFFFFFFFE0003FFFFFC000
310
F000C0007FFFFFC000FFFF000000FFFC000007FFFF80007F8000FFFFFF8000F8
310
000FFFFFF8000FF8000001FFFE0000007FFFFFF0001FFFFFFF0000FFFFFF8000
310
7FFF0000FFFFFF80007FFF0003FFFFFFFFC0007FFFFFC00070008000FFFFFFC0
310
00FFFF000000FFF8000007FFFF80007F8000FFFFFF8000F8000FFFFFF8000FF8
310
000001FFFE0000007FFFFFF0001FFFFFFE0001FFFFFFC0003FFE0001FFFFFFC0
310
003FFF0003FFFFFFFFC0007FFFFFE00070008000FFFFFFC0007FFF0000007FF8
310
000003FFFF80007F0001FFFFFF8000F8000FFFFFF8000FF8000001FFFE000000
310
7FFFFFF0001FFFFFFE0001FFFFFFC0003FFE0001FFFFFFC0003FFF0003FFFFFF
310
FFC000FFFFFFE00070008000FFFFFFC0007FFF0000007FF8000003FFFF80007F
310
0001FFFFFF8000F8001FFFFFF8000FF8000001FFFE0000007FFFFFF0001FFFFF
310
FE0003FFFFFFE0003FFE0003FFFFFFE0003FFF0003FFFFFFFFC000FFFFFFE000
310
70008000FFFFFFC0007FFE0000007FF8000003FFFF80007F0001FFFFFF8000F0
310
001FFFFFF8000FF8000001FFFE0000007FFFFFF0001FFFFFFC0003FFFFFFE000
310
1FFC0003FFFFFFE0001FFF0003FFFFFFFFC000FFFFFFC00070008000FFFFFF80
310
007FFE0000007FF0000003FFFF80007F0001FFFFFF0000F0001FFFFFF8000FF8
310
000001FFFE0000007FFFFFF0001FFFFFFC0007FFFFFFF0001FFC0007FFFFFFF0
310
001FFF0003FFFFFFFFC000FFFFFFC00070008001FFFFFF0000FFFE0000003FF0
310
000001FFFF80007F0001FFFFFF0000F8001FFFFFF0000FF8000001FFFE000000
310
7FFFFFF0001FFFFFFC0007FFFFFFF0001FFC0007FFFFFFF0001FFF0003FFFFFF
310
FFC001FFFFFF80007000FFFFFFFFFE0000FFFE0008003FF0008001FFFF80007F
310
FFFFFFFFFC0000FFFFFFFFFFE0000FF8000001FFFE0000007FFFFFF0001FFFFF
310
F8000FFFFFFFF8000FF8000FFFFFFFF8000FFF0003FFFFFFFFFFFFFFFFFF0000
310
7000FFFFFFFFFC0000FFFC0008003FF0008001FFFF80007FFFFFFFFFF80001FF
310
FFFFFFFF80000FF8000001FFFE0000007FFFFFF0001FFFFFF8000FFFFFFFF800
310
0FF8000FFFFFFFF8000FFF0003FFFFFFFFFFFFFFFFFE0000F000FFFFFFFFE000
310
00FFFC000C003FE000C001FFFF80007FFFFFFFFFC00001FFFFFFFFFE00001FF8
310
000001FFFE0000007FFFFFF0001FFFFFF8000FFFFFFFF8000FF8000FFFFFFFF8
310
000FFF0003FFFFFFFFFFFFFFFFF00000F000FFFFFFFE000001FFFC000C001FE0
310
00C000FFFF80007FFFFFFFFE000001FFFFFFFFE000001FF80FFFFFFFFFFFFFC0
310
7FFFFFF0001FFFFFF8000FFFFFFFF8000FF8000FFFFFFFF8000FFF0003FFFFFF
310
FFFFFFFFFF800000F000FFFFFFC0000001FFFC001C001FE001C000FFFF80007F
310
FFFFFF80000003FFFFFFF80000001FF80FFFFFFFFFFFFFC07FFFFFF0001FFFFF
310
F8001FFFFFFFFC000FF8001FFFFFFFFC000FFF0003FFFFFFFFFFFFFFF0000001
310
F000FFFFF800000001FFF8001C001FE001C000FFFF80007FFFFFF800000003FF
310
FFFF800000003FF80FFFFFFFFFFFFFC07FFFFFF0001FFFFFF8001FFFFFFFFC00
310
0FF8001FFFFFFFFC000FFF0003FFFFFFFFFFFFFE00000001F000FFFFC0000000
310
03FFF8001E001FC001E000FFFF80007FFFFF8000000007FFFFFC000000003FF8
310
0FFFFFFFFFFFFFC07FFFFFF0001FFFFFF8001FFFFFFFFC000FF8001FFFFFFFFC
310
000FFF0003FFFFFFFFFFFFE000000003F000FFFE0000000007FFF8001E000FC0
310
01E0007FFF80007FFFFE0000000007FFFFE0000000007FF80FFFFFFFFFFFFFC0
310
7FFFFFF0001FFFFFF0001FFFFFFFFC0007F0001FFFFFFFFC0007FF0003FFFFFF
310
FFFFFF0000000003F000FFF80000000007FFF8001E000FC003E0007FFF80007F
310
FFF0000000000FFFFF8000000000FFF80FFFFFFFFFFFFFC07FFFFFF0001FFFFF
310
F0001FFFFFFFFC0007F0001FFFFFFFFC0007FF0003FFFFFFFFFFFC0000000007
310
F000FFE0000000000FFFF0003E000FC003E0007FFF80007FFFC0000000001FFF
310
FE0000000001FFF80FFFFFFFFFFFFFC07FFFFFF0001FFFFFF0001FFFFFFFFC00
310
07F0001FFFFFFFFC0007FF0003FFFFFFFFFFF0000000000FF000FFC000000000
310
1FFFF0003F000F8003F0003FFF80007FFF80000000003FFFF80000000003FFF8
310
0FFFFFFFFFFFFFC07FFFFFF0001FFFFFF0001FFFFFFFFC0007F0001FFFFFFFFC
310
0007FF0003FFFFFFFFFFE0000000001FF000FF00000000007FFFF0003F000780
310
03F0003FFF80007FFF00000000007FFFF00000000007FFF80FFFFFFFFFFFFFC0
310
7FFFFFF0001FFFFFF0001FFFFFFFFC0007F0001FFFFFFFFC0007FF0003FFFFFF
310
FFFF80000000007FF000FE0000000000FFFFE0003F00078007F0003FFF80007F
310
FE0000000001FFFFE0000000001FFFF80FFFFFFFFFFFFFC07FFFFFF0001FFFFF
310
F0001FFFFFFFFC0007F0001FFFFFFFFC0007FF0003FFFFFFFFFF0000000000FF
310
F000FC0000000003FFFFE0007F00078007F0003FFF80007FFC0000000007FFFF
310
C0000000007FFFF80FFFFFFFFFFFFFC07FFFFFF0001FFFFFF8001FFFFFFFFC00
310
0FF8001FFFFFFFFC000FFF0003FFFFFFFFFE0000000003FFF000FC000000000F
310
FFFFE0007F80070007F8001FFF80007FF8000000001FFFFF8000000001FFFFF8
310
0FFFFFFFFFFFFFC07FFFFFF0001FFFFFF8001FFFFFFFFC000FF8001FFFFFFFFC
310
000FFF0003FFFFFFFFFC000000000FFFF000F8000000007FFFFFE0007F800700
310
07F8001FFF80007FF000000000FFFFFF800000000FFFFFF80FFFFFFFFFFFFFC0
310
7FFFFFF0001FFFFFF8000FFFFFFFF8000FF8000FFFFFFFF8000FFF0003FFFFFF
310
FFFC000000007FFFF000F800000007FFFFFFC0007F8003000FF8001FFF80007F
310
F000000007FFFFFF000000007FFFFFF80FFFFFFFFFFFFFC07FFFFFF0001FFFFF
310
F8000FFFFFFFF8000FF8000FFFFFFFF8000FFF0003FFFFFFFFF80000000FFFFF
310
F000F0000000FFFFFFFFC000FF8003000FF8001FFF80007FE0000000FFFFFFFF
310
0000000FFFFFFFF8000001FFFE0000007FFFFFF0001FFFFFF8000FFFFFFFF800
310
0FF8000FFFFFFFF8000FFF0003FFFFFFFFF8000000FFFFFFF000F000000FFFFF
310
FFFFC000FFC002000FF8000FFF80007FE000001FFFFFFFFE000001FFFFFFFFF8
310
000001FFFE0000007FFFFFF0001FFFFFF8000FFFFFFFF8000FF8000FFFFFFFF8
310
000FFF0003FFFFFFFFF000001FFFFFFFF000E00000FFFFFFFFFFC000FFC00200
310
0FFC000FFF80007FE00001FFFFFFFFFE00001FFFFFFFFFF8000001FFFE000000
310
7FFFFFF0001FFFFFFC000FFFFFFFF8001FFC000FFFFFFFF8001FFF0003FFFFFF
310
FFF00001FFFFFFFFF000E00007FFFFFFFFFF8000FFC000001FFC000FFF80007F
310
C0000FFFFFFFFFFE0000FFFFFFFFFFF8000001FFFE0000007FFFFFF0001FFFFF
310
FC0007FFFFFFF0001FFC0007FFFFFFF0001FFF0003FFFFFFFFF00007FFFFFFFF
310
F000E0001FFFFFFFFFFF8000FFC000001FFC000FFF80007FC0003FFFFFFFFFFE
310
0001FFFFFFFFFFF8000001FFFE0000007FFFFFF0001FFFFFFC0007FFFFFFF000
310
1FFC0007FFFFFFF0001FFF0003FFFFFFFFF0001FFFFFFFFFF000E0003FFFFF00
310
03FF8001FFE000001FFC0007FF80007FC0007FFFFF0007FC0003FFFFF0003FF8
310
000001FFFE0000007FFFFFF0001FFFFFFC0003FFFFFFE0001FFC0003FFFFFFE0
310
001FFF0003FFFFFFFFF0003FFFFFFFFFF000E0003FFFFF0001FF8001FFE00000
310
1FFE0007FF80007FC0007FFFFE0003FC0007FFFFE0003FF8000001FFFE000000
310
7FFFFFF0001FFFFFFE0003FFFFFFE0003FFE0003FFFFFFE0003FFF0003FFFFFF
310
FFF0003FFFFF8001F000E0003FFFFF0001FF0001FFE000001FFE0007FF80007F
310
C0007FFFFE0003FC0007FFFFE0003FF8000001FFFE0000007FFFFFF0001FFFFF
310
FE0001FFFFFFC0003FFE0001FFFFFFC0003FFF0003FFFFFFFFF0003FFFFF0001
310
F000E0003FFFFF0003FF0001FFE000003FFE0007FF80007FC0007FFFFE0003FC
310
0007FFFFE0003FF8000001FFFE0000007FFFFFF0001FFFFFFF0001FFFFFFC000
310
7FFF0001FFFFFFC0007FFF0003FFFFFFFFF0003FFFFF0001F000E0003FFFFE00
310
03FF0003FFF000003FFE0003FF80007FC0007FFFFC0003FE0007FFFFE0003FF8
310
000001FFFE0000007FFFFFF0001FFFFFFF0000FFFFFF80007FFF0000FFFFFF80
310
007FFF0003FFFFFFFFF0003FFFFF0001F000E0003FFFFE0003FF0003FFF00000
310
3FFF0003FF80007FC0007FFFFC0007FE0007FFFFC0003FF8000001FFFE000000
310
7FFFFFF0001FFFFFFF80007FFFFF0000FFFF80007FFFFF0000FFFF0003FFFFFF
310
FFF0003FFFFF0003F000E0003FFFFC0003FE0003FFF000003FFF0003FF80007F
310
E0003FFFF80007FE0003FFFFC0007FF8000001FFFE0000007FFFFFF0001FFFFF
310
FF80003FFFFE0000FFFF80003FFFFE0000FFFF0003FFFFFFFFF0001FFFFE0003
310
F000F0001FFFF80003FE0003FFF000007FFF0001FF80007FE0003FFFF00007FE
310
0001FFFF80007FF8000001FFFE0000007FFFFFF0001FFFFFFFC0000FFFF80001
310
FFFFC0000FFFF80001FFFF0003FFFFFFFFF0001FFFFC0003F000F0000FFFF000
310
07FE0007FFF800007FFF0001FF80007FE0001FFFE00007FF0000FFFE00007FF8
310
000001FFFE0000007FFFFFF0001FFFFFFFC00003FFE00001FFFFC00003FFE000
310
01FFFF0003FFFFFFFFF8000FFFF80003F000F00003FFC00007FC0007FFF80000
310
7FFF8001FF80007FF00007FF80000FFF00007FF80000FFF8000001FFFE000000
310
7F80000000000001FFE000003E000003FFFFE000003E000003FFFF0003FFFFFF
310
FFF80003FFE00007F000F800000000000FFC0007FFF800007FFF8001FF80007F
310
F000000000000FFF000000000000FFF8000001FFFE0000007F80000000000001
310
FFF0000000000007FFFFF0000000000007FFFF0003FFFFFFFFFC00007E000007
310
F000F800000000000FFC0007FFF80000FFFF8000FF80007FF800000000001FFF
310
800000000001FFF8000001FFFE0000007F80000000000001FFF800000000000F
310
FFFFF800000000000FFFFF0003FFFFFFFFFC00000000000FF000FC0000000000
310
1FFC0007FFFC0000FFFF8000FF80007FF800000000003FFFC00000000001FFF8
310
000001FFFE0000007F80000000000001FFF800000000000FFFFFF80000000000
310
0FFFFF0003FFFFFFFFFE00000000001FF000FE00000000003FF8000FFFFC0000
310
FFFF8000FF80007FFC00000000003FFFC00000000003FFF8000001FFFE000000
310
7F80000000000001FFFC00000000001FFFFFFC00000000001FFFFF0003FFFFFF
310
FFFF00000000001FF000FF00000000003FF8000FFFFC0000FFFFC000FF80007F
310
FE00000000007FFFE00000000007FFF8000001FFFE0000007F80000000000001
310
FFFE00000000003FFFFFFE00000000003FFFFF0003FFFFFFFFFF80000000003F
310
F000FF80000000007FF8000FFFFC0001FFFFC0007F80007FFF0000000000FFFF
310
F0000000000FFFF800000000000000007F80000000000001FFFF8000000000FF
310
FFFFFF8000000000FFFFFF0003FFFFFFFFFFC0000000007FF000FFC000000000
310
FFF8000FFFFE0001FFFFC0007F80007FFF8000000001FFFFF8000000001FFFF8
310
00000000000000007F80000000000001FFFFC000000001FFFFFFFFC000000001
310
FFFFFF0003FFFFFFFFFFE000000000FFF000FFE000000003FFF0001FFFFE0001
310
FFFFC0007F80007FFFC000000007FFFFFE000000003FFFF80000000000000000
310
7F80000000000001FFFFE000000003FFFFFFFFE000000003FFFFFF0003FFFFFF
310
FFFFF000000003FFF000FFF80000000FFFF0001FFFFE0001FFFFE0007F80007F
310
FFF00000000FFFFFFF00000000FFFFF800000000000000007F80000000000001
310
FFFFF80000000FFFFFFFFFF80000000FFFFFFF0003FFFFFFFFFFFC0000000FFF
310
F000FFFE0000003FFFF0001FFFFE0003FFFFE0003F80007FFFFC0000003FFFFF
310
FFC0000003FFFFF800000000000000007F80000000000001FFFFFE0000003FFF
310
FFFFFFFE0000003FFFFFFF0003FFFFFFFFFFFF0000003FFFF000FFFF800000FF
310
FFF0001FFFFF0003FFFFE0003F80007FFFFF000001FFFFFFFFF800001FFFFFF8
310
00000000000000007F80000000000001FFFFFFC00001FFFFFFFFFFFFC00001FF
310
FFFFFF0003FFFFFFFFFFFFC00000FFFFF000FFFFF8000FFFFFFFFFFFFFFFFFFF
310
FFFFFFFFFFFFFFFFFFFFF0001FFFFFFFFFFF0000FFFFFFF80000000000000000
310
7FFFFFFFFFFFFFFFFFFFFFFC001FFFFFFFFFFFFFFC001FFFFFFFFFFFFFFFFFFF
310
FFFFFFFC001FFFFFF000FFFFFFFFFFFFFFFFFFFFFFFFFFFFFFFFFFFFFFFFFFFF
310
FFFFFFFFFFFFFFFFFFFFFFFFFFFFFFFFFFFFFFFFFFFFFFFFFFFFFFFFFFFFFFFF
310
FFFFFFFFFFFFFFFFFFFFFFFFFFFFFFFFFFFFFFFFFFFFFFFFFFFFFFFFFFFFFFFF
310
F000FFFFFFFFFFFFFFFFFFFFFFFFFFFFFFFFFFFFFFFFFFFFFFFFFFFFFFFFFFFF
310
FFFFFFFFFFFFFFFFFFFFFFFFFFFFFFFFFFFFFFFFFFFFFFFFFFFFFFFFFFFFFFFF
310
FFFFFFFFFFFFFFFFFFFFFFFFFFFFFFFFFFFFFFFFFFFFFFFFF000FFFFFFFFFFFF
310
FFFFFFFFFFFFFFFFFFFFFFFFFFFFFFFFFFFFFFFFFFFFFFFFFFFFFFFFFFFFFFFF
310
FFFFFFFFFFFFFFFFFFFFFFFFFFFFFFFFFFFFFFFFFFFFFFFFFFFFFFFFFFFFFFFF
310
FFFFFFFFFFFFFFFFFFFFFFFFFFFFFFFFF000FFFFFFFFFFFFFFFFFFFFFFFFFFFF
310
FFFFFFFFFFFFFFFFFFFFFFFFFFFFFFFFFFFFFFFFFFFFFFFFFFFFFFFFFFFFFFFF
310
FFFFFFFFFFFFFFFFFFFFFFFFFFFFFFFFFFFFFFFFFFFFFFFFFFFFFFFFFFFFFFFF
310
FFFFFFFFFFFFFFFFF000FFFFFFFFFFFFFFFFFFFFFFFFFFFFFFFFFFFFFFFFFFFF
310
FFFFFFFFFFFFFFFFFFFFFFFFFFFFFFFFFFFFFFFFFFFFFFFFFFFFFFFFFFFFFFFF
310
FFFFFFFFFFFFFFFFFFFFFFFFFFFFFFFFFFFFFFFFFFFFFFFFFFFFFFFFFFFFFFFF
310
F000FFFFFFFFFFFFFFFFFFFFFFFFFFFFFFFFFFFFFFFFFFFFFFFFFFFFFFFFFFFF
310
FFFFFFFFFFFFFFFFFFFFFFFFFFFFFFFFFFFFFFFFFFFFFFFFFFFFFFFFFFFFFFFF
310
FFFFFFFFFFFFFFFFFFFFFFFFFFFFFFFFFFFFFFFFFFFFFFFFF000FFFFFFFFFFFF
310
FFFFFFFFFFFFFFFFFFFFFFFFFFFFFFFFFFFFFFFFFFFFFFFFFFFFFFFFFFFFFFFF
310
FFFFFFFFFFFFFFFFFFFFFFFFFFFFFFFFFFFFFFFFFFFFFFFFFFFFFFFFFFFFFFFF
310
FFFFFFFFFFFFFFFFFFFFFFFFFFFFFFFFF000FFFFFFFFFFFFFFFFFFFFFFFFFFFF
310
FFFFFFFFFFFFFFFFFFFFFFFFFFFFFFFFFFFFFFFFFFFFFFFFFFFFFFFFFFFFFFFF
310
FFFFFFFFFFFFFFFFFFFFFFFFFFFFFFFFFFFFFFFFFFFFFFFFFFFFFFFFFFFFFFFF
310
FFFFFFFFFFFFFFFFF000FFFFFFFFFFFFFFFFFFFFFFFFFFFFFFFFFFFFFFFFFFFF
310
FFFFFFFFFFFFFFFFFFFFFFFFFFFFFFFFFFFFFFFFFFFFFFFFFFFFFFFFFFFFFFFF
310
FFFFFFFFFFFFFFFFFFFFFFFFFFFFFFFFFFFFFFFFFFFFFFFFFFFFFFFFFFFFFFFF
310
F000FFFFFFFFFFFFFFFFFFFFFFFFFFFFFFFFFFFFFFFFFFFFFFFFFFFFFFFFFFFF
310
FFFFFFFFFFFFFFFFFFFFFFFFFFFFFFFFFFFFFFFFFFFFFFFFFFFFFFFFFFFFFFFF
310
FFFFFFFFFFFFFFFFFFFFFFFFFFFFFFFFFFFFFFFFFFFFFFFFF000FFFFFFFFFFFF
310
FFFFFFFFFFFFFFFFFFFFFFFFFFFFFFFFFFFFFFFFFFFFFFFFFFFFFFFFFFFFFFFF
310
FFFFFFFFFFFFFFFFFFFFFFFFFFFFFFFFFFFFFFFFFFFFFFFFFFFFFFFFFFFFFFFF
310
FFFFFFFFFFFFFFFFFFFFFFFFFFFFFFFFF000FFFFFFFFFFFFFFFFFFFFFFFFFFFF
310
FFFFFFFFFFFFFFFFFFFFFFFFFFFFFFFFFFFFFFFFFFFFFFFFFFFFFFFFFFFFFFFF
310
FFFFFFFFFFFFFFFFFFFFFFFFFFFFFFFFFFFFFFFFFFFFFFFFFFFFFFFFFFFFFFFF
310
FFFFFFFFFFFFFFFFF000FFFFFFFFFFFFFFFFFFFFFFFFFFFFFFFFFFFFFFFFFFFF
310
FFFFFFFFFFFFFFFFFFFFFFFFFFFFFFFFFFFFFFFFFFFFFFFFFFFFFFFFFFFFFFFF
310
FFFFFFFFFFFFFFFFFFFFFFFFFFFFFFFFFFFFFFFFFFFFFFFFFFFFFFFFFFFFFFFF
310
F000FFFFFFFFFFFFFFFFFFFFFFFFFFFFFFFFFFFFFFFFFFFFFFFFFFFFFFFFFFFF
310
FFFFFFFFFFFFFFFFFFFFFFFFFFFFFFFFFFFFFFFFFFFFFFFFFFFFFFFFFFFFFFFF
310
FFFFFFFFFFFFFFFFFFFFFFFFFFFFFFFFFFFFFFFFFFFFFFFFF000FFFFFFFFFFFF
310
FFFFFFFFFFFFFFFFFFFFFFFFFFFFFFFFFFFFFFFFFFFFFFFFFFFFFFFFFFFFFFFF
310
FFFFFFFFFFFFFFFFFFFFFFFFFFFFFFFFFFFFFFFFFFFFFFFFFFFFFFFFFFFFFFFF
310
FFFFFFFFFFFFFFFFFFFFFFFFFFFFFFFFF000FFFFFFFFFFFFFFFFFFFFFFFFFFFF
310
FFFFFFFFFFFFFFFFFFFFFFFFFFFFFFFFFFFFFFFFFFFFFFFFFFFFFFFFFFFFFFFF
310
FFFFFFFFFFFFFFFFFFFFFFFFFFFFFFFFFFFFFFFFFFFFFFFFFFFFFFFFFFFFFFFF
310
FFFFFFFFFFFFFFFFF000FFFFFFFFFFFFFFFFFFFFFFFFFFFFFFFFFFFFFFFFFFFF
310
FFFFFFFFFFFFFFFFFFFFFFFFFFFFFFFFFFFFFFFFFFFFFFFFFFFFFFFFFFFFFFFF
310
FFFFFFFFFFFFFFFFFFFFFFFFFFFFFFFFFFFFFFFFFFFFFFFFFFFFFFFFFFFFFFFF
310
F000FFFFFFFFFFFFFFFFFFFFFFFFFFFFFFFFFFFFFFFFFFFFFFFFFFFFFFFFFFFF
310
FFFFFFFFFFFFFFFFFFFFFFFFFFFFFFFFFFFFFFFFFFFFFFFFFFFFFFFFFFFFFFFF
310
FFFFFFFFFFFFFFFFFFFFFFFFFFFFFFFFFFFFFFFFFFFFFFFFF000FFFFFFFFFFFF
310
FFFFFFFFFFFFFFFFFFFFFFFFFFFFFFFFFFFFFFFFFFFFFFFFFFFFFFFFFFFFFFFF
310
FFFFFFFFFFFFFFFFFFFFFFFFFFFFFFFFFFFFFFFFFFFFFFFFFFFFFFFFFFFFFFFF
310
FFFFFFFFFFFFFFFFFFFFFFFFFFFFFFFFF000FFFFFFFFFFFFFFFFFFFFFFFFFFFF
310
FFFFFFFFFFFFFFFFFFFFFFFFFFFFFFFFFFFFFFFFFFFFFFFFFFFFFFFFFFFFFFFF
310
FFFFFFFFFFFFFFFFFFFFFFFFFFFFFFFFFFFFFFFFFFFFFFFFFFFFFFFFFFFFFFFF
310
FFFFFFFFFFFFFFFFF000FFFFFFFFFFFFFFFFFFFFFFFFFFFFFFFFFFFFFFFFFFFF
310
FFFFFFFFFFFFFFFFFFFFFFFFFFFFFFFFFFFFFFFFFFFFFFFFFFFFFFFFFFFFFFFF
310
FFFFFFFFFFFFFFFFFFFFFFFFFFFFFFFFFFFFFFFFFFFFFFFFFFFFFFFFFFFFFFFF
310
F000FFFFFFFFFFFFFFFFFFFFFFFFFFFFFFFFFFFFFFFFFFFFFFFFFFFFFFFFFFFF
310
FFFFFFFFFFFFFFFFFFFFFFFFFFFFFFFFFFFFFFFFFFFFFFFFFFFFFFFFFFFFFFFF
310
FFFFFFFFFFFFFFFFFFFFFFFFFFFFFFFFFFFFFFFFFFFFFFFFF000FFFFFFFFFFFF
310
FFFFFFFFFFFFFFFFFFFFFFFFFFFFFFFFFFFFFFFFFFFFFFFFFFFFFFFFFFFFFFFF
310
FFFFFFFFFFFFFFFFFFFFFFFFFFFFFFFFFFFFFFFFFFFFFFFFFFFFFFFFFFFFFFFF
310
FFFFFFFFFFFFFFFFFFFFFFFFFFFFFFFFF0000000000000000000000000000000
310
0000000000000000000000000000000000000000000000000000000000000000
310
0000000000000000000000000000000000000000000000000000000000000000
310
0000000000000000000000000000000000000000000000000000000000000000
310
0000000000000000000000000000000000000000000000000000000000000000
310
0000000000000000000000000000000000000000000000000000000000000000
310
0000000000000000000000000000000000000000000000000000000000000000
310
0000000000000000000000000000000000000000000000000000000000000000
310
0000000000000000000000000000000000000000000000000000000000000000
310
0000000000000000000000000000000000000000000000000000000000000000
310
0000000000000000000000000000000000000000000000000000000000000000
310
0000000000000000000000000000000000000000000000000000000000000000
310
0000000000000000000000000000000000000000000000000000000000000000
310
0000000000000000000000000000000000000000000000000000000000000000
310
0000000000000000000000000000000000000000000000000000000000000000
310
0000000000000000000000000000000000000000000000000000000000000000
  1
OLE
  0
ENDSEC
  0
SECTION
  2
OBJECTS
  0
DICTIONARY
  5
C
330
0
100
AcDbDictionary
281
     1
  3
ACAD_GROUP
350
D
  3
ACAD_LAYOUT
350
1A
  3
ACAD_MLINESTYLE
350
17
  3
ACAD_PLOTSETTINGS
350
19
  3
ACAD_PLOTSTYLENAME
350
E
  0
DICTIONARY
  5
D
102
{ACAD_REACTORS
330
C
102
}
330
C
100
AcDbDictionary
281
     1
  0
DICTIONARY
  5
1A
102
{ACAD_REACTORS
330
C
102
}
330
C
100
AcDbDictionary
281
     1
  3
Layout1
350
1E
  3
Layout2
350
26
  3
Model
350
22
  0
DICTIONARY
  5
17
102
{ACAD_REACTORS
330
C
102
}
330
C
100
AcDbDictionary
281
     1
  3
Standard
350
18
  0
DICTIONARY
  5
19
102
{ACAD_REACTORS
330
C
102
}
330
C
100
AcDbDictionary
281
     1
  0
ACDBDICTIONARYWDFLT
  5
E
102
{ACAD_REACTORS
330
C
102
}
330
C
100
AcDbDictionary
281
     1
  3
Normal
350
F
100
AcDbDictionaryWithDefault
340
F
  0
LAYOUT
  5
1E
102
{ACAD_REACTORS
330
1A
102
}
330
1A
100
AcDbPlotSettings
  1

  2
none_device
  4

  6

 40
0.0
 41
0.0
 42
0.0
 43
0.0
 44
0.0
 45
0.0
 46
0.0
 47
0.0
 48
0.0
 49
0.0
140
0.0
141
0.0
142
1.0
143
1.0
 70
   688
 72
     0
 73
     0
 74
     5
  7

 75
    16
147
1.0
148
0.0
149
0.0
100
AcDbLayout
  1
Layout1
 70
     1
 71
     1
 10
0.0
 20
0.0
 11
420.0
 21
297.0
 12
0.0
 22
0.0
 32
0.0
 14
1.0000000000E+20
 24
1.0000000000E+20
 34
1.0000000000E+20
 15
-1.0000000000E+20
 25
-1.0000000000E+20
 35
-1.0000000000E+20
146
0.0
 13
0.0
 23
0.0
 33
0.0
 16
1.0
 26
0.0
 36
0.0
 17
0.0
 27
1.0
 37
0.0
 76
     0
330
1B
  0
LAYOUT
  5
26
102
{ACAD_REACTORS
330
1A
102
}
330
1A
100
AcDbPlotSettings
  1

  2
none_device
  4

  6

 40
0.0
 41
0.0
 42
0.0
 43
0.0
 44
0.0
 45
0.0
 46
0.0
 47
0.0
 48
0.0
 49
0.0
140
0.0
141
0.0
142
1.0
143
1.0
 70
   688
 72
     0
 73
     0
 74
     5
  7

 75
    16
147
1.0
148
0.0
149
0.0
100
AcDbLayout
  1
Layout2
 70
     1
 71
     2
 10
0.0
 20
0.0
 11
0.0
 21
0.0
 12
0.0
 22
0.0
 32
0.0
 14
0.0
 24
0.0
 34
0.0
 15
0.0
 25
0.0
 35
0.0
146
0.0
 13
0.0
 23
0.0
 33
0.0
 16
1.0
 26
0.0
 36
0.0
 17
0.0
 27
1.0
 37
0.0
 76
     0
330
23
  0
LAYOUT
  5
22
102
{ACAD_REACTORS
330
1A
102
}
330
1A
100
AcDbPlotSettings
  1

  2
none_device
  4

  6

 40
0.0
 41
0.0
 42
0.0
 43
0.0
 44
0.0
 45
0.0
 46
0.0
 47
0.0
 48
0.0
 49
0.0
140
0.0
141
0.0
142
1.0
143
1.0
 70
  1712
 72
     0
 73
     0
 74
     0
  7

 75
     0
147
1.0
148
0.0
149
0.0
100
AcDbLayout
  1
Model
 70
     1
 71
     0
 10
0.0
 20
0.0
 11
297.0
 21
210.0
 12
0.0
 22
0.0
 32
0.0
 14
0.0
 24
0.0
 34
0.0
 15
297.0
 25
210.0
 35
0.0
146
0.0
 13
0.0
 23
0.0
 33
0.0
 16
1.0
 26
0.0
 36
0.0
 17
0.0
 27
1.0
 37
0.0
 76
     0
330
1F
331
29
  0
MLINESTYLE
  5
18
102
{ACAD_REACTORS
330
17
102
}
330
17
100
AcDbMlineStyle
  2
Standard
 70
     0
  3

 62
   256
 51
90.0
 52
90.0
 71
     2
 49
0.5
 62
   256
  6
BYLAYER
 49
-0.5
 62
   256
  6
BYLAYER
  0
ACDBPLACEHOLDER
  5
F
102
{ACAD_REACTORS
330
E
102
}
330
E
  0
ENDSEC
  0
EOF
