  0
SECTION
  2
HEADER
  9
$ACADVER
  1
AC1015
  9
$ACADMAINTVER
 70
     6
  9
$DWGCODEPAGE
  3
ANSI_1252
  9
$INSBASE
 10
0.0
 20
0.0
 30
0.0
  9
$EXTMIN
 10
0.0
 20
0.0
 30
0.0
  9
$EXTMAX
 10
297.0
 20
210.0
 30
0.0
  9
$LIMMIN
 10
0.0
 20
0.0
  9
$LIMMAX
 10
297.0
 20
210.0
  9
$ORTHOMODE
 70
     0
  9
$REGENMODE
 70
     1
  9
$FILLMODE
 70
     1
  9
$QTEXTMODE
 70
     0
  9
$MIRRTEXT
 70
     1
  9
$LTSCALE
 40
1.0
  9
$ATTMODE
 70
     1
  9
$TEXTSIZE
 40
2.0
  9
$TRACEWID
 40
1.0
  9
$TEXTSTYLE
  7
Standard
  9
$CLAYER
  8
0
  9
$CELTYPE
  6
ByLayer
  9
$CECOLOR
 62
   256
  9
$CELTSCALE
 40
1.0
  9
$DISPSILH
 70
     0
  9
$DIMSCALE
 40
1.0
  9
$DIMASZ
 40
3.0
  9
$DIMEXO
 40
0.0
  9
$DIMDLI
 40
3.75
  9
$DIMRND
 40
0.0
  9
$DIMDLE
 40
0.0
  9
$DIMEXE
 40
1.0
  9
$DIMTP
 40
0.0
  9
$DIMTM
 40
0.0
  9
$DIMTXT
 40
2.0
  9
$DIMCEN
 40
2.5
  9
$DIMTSZ
 40
0.0
  9
$DIMTOL
 70
     0
  9
$DIMLIM
 70
     0
  9
$DIMTIH
 70
     1
  9
$DIMTOH
 70
     1
  9
$DIMSE1
 70
     0
  9
$DIMSE2
 70
     0
  9
$DIMTAD
 70
     1
  9
$DIMZIN
 70
     0
  9
$DIMBLK
  1

  9
$DIMASO
 70
     1
  9
$DIMSHO
 70
     1
  9
$DIMPOST
  1

  9
$DIMAPOST
  1

  9
$DIMALT
 70
     0
  9
$DIMALTD
 70
     3
  9
$DIMALTF
 40
0.0393700787
  9
$DIMLFAC
 40
1.0
  9
$DIMTOFL
 70
     1
  9
$DIMTVP
 40
0.0
  9
$DIMTIX
 70
     0
  9
$DIMSOXD
 70
     0
  9
$DIMSAH
 70
     0
  9
$DIMBLK1
  1

  9
$DIMBLK2
  1

  9
$DIMSTYLE
  2
ISO-25
  9
$DIMCLRD
 70
     0
  9
$DIMCLRE
 70
     0
  9
$DIMCLRT
 70
     0
  9
$DIMTFAC
 40
1.0
  9
$DIMGAP
 40
1.524
  9
$DIMJUST
 70
     0
  9
$DIMSD1
 70
     0
  9
$DIMSD2
 70
     0
  9
$DIMTOLJ
 70
     0
  9
$DIMTZIN
 70
     0
  9
$DIMALTZ
 70
     0
  9
$DIMALTTZ
 70
     0
  9
$DIMUPT
 70
     0
  9
$DIMDEC
 70
     2
  9
$DIMTDEC
 70
     3
  9
$DIMALTU
 70
     2
  9
$DIMALTTD
 70
     3
  9
$DIMTXSTY
  7
Standard
  9
$DIMAUNIT
 70
     0
  9
$DIMADEC
 70
     2
  9
$DIMALTRND
 40
0.0
  9
$DIMAZIN
 70
     0
  9
$DIMDSEP
 70
    44
  9
$DIMATFIT
 70
     3
  9
$DIMFRAC
 70
     0
  9
$DIMLDRBLK
  1

  9
$DIMLUNIT
 70
     2
  9
$DIMLWD
 70
    -2
  9
$DIMLWE
 70
    -2
  9
$DIMTMOVE
 70
     0
  9
$LUNITS
 70
     2
  9
$LUPREC
 70
     2
  9
$SKETCHINC
 40
1.0
  9
$FILLETRAD
 40
10.0
  9
$AUNITS
 70
     0
  9
$AUPREC
 70
     2
  9
$MENU
  1
.
  9
$ELEVATION
 40
0.0
  9
$PELEVATION
 40
0.0
  9
$THICKNESS
 40
0.0
  9
$LIMCHECK
 70
     0
  9
$CHAMFERA
 40
10.0
  9
$CHAMFERB
 40
10.0
  9
$CHAMFERC
 40
20.0
  9
$CHAMFERD
 40
0.0
  9
$SKPOLY
 70
     0
  9
$TDCREATE
 40
2456044.701167326
  9
$TDUCREATE
 40
2456044.617833993
  9
$TDUPDATE
 40
2456044.701168959
  9
$TDUUPDATE
 40
2456044.617835625
  9
$TDINDWG
 40
0.0000000116
  9
$TDUSRTIMER
 40
0.0000000116
  9
$USRTIMER
 70
     1
  9
$ANGBASE
 50
0.0
  9
$ANGDIR
 70
     0
  9
$PDMODE
 70
     0
  9
$PDSIZE
 40
-1.0
  9
$PLINEWID
 40
0.0
  9
$SPLFRAME
 70
     0
  9
$SPLINETYPE
 70
     6
  9
$SPLINESEGS
 70
     8
  9
$HANDSEED
  5
26C
  9
$SURFTAB1
 70
     6
  9
$SURFTAB2
 70
     6
  9
$SURFTYPE
 70
     6
  9
$SURFU
 70
     6
  9
$SURFV
 70
     6
  9
$UCSBASE
  2

  9
$UCSNAME
  2

  9
$UCSORG
 10
0.0
 20
0.0
 30
0.0
  9
$UCSXDIR
 10
1.0
 20
0.0
 30
0.0
  9
$UCSYDIR
 10
0.0
 20
1.0
 30
0.0
  9
$UCSORTHOREF
  2

  9
$UCSORTHOVIEW
 70
     0
  9
$UCSORGTOP
 10
0.0
 20
0.0
 30
0.0
  9
$UCSORGBOTTOM
 10
0.0
 20
0.0
 30
0.0
  9
$UCSORGLEFT
 10
0.0
 20
0.0
 30
0.0
  9
$UCSORGRIGHT
 10
0.0
 20
0.0
 30
0.0
  9
$UCSORGFRONT
 10
0.0
 20
0.0
 30
0.0
  9
$UCSORGBACK
 10
0.0
 20
0.0
 30
0.0
  9
$PUCSBASE
  2

  9
$PUCSNAME
  2

  9
$PUCSORG
 10
0.0
 20
0.0
 30
0.0
  9
$PUCSXDIR
 10
1.0
 20
0.0
 30
0.0
  9
$PUCSYDIR
 10
0.0
 20
1.0
 30
0.0
  9
$PUCSORTHOREF
  2

  9
$PUCSORTHOVIEW
 70
     0
  9
$PUCSORGTOP
 10
0.0
 20
0.0
 30
0.0
  9
$PUCSORGBOTTOM
 10
0.0
 20
0.0
 30
0.0
  9
$PUCSORGLEFT
 10
0.0
 20
0.0
 30
0.0
  9
$PUCSORGRIGHT
 10
0.0
 20
0.0
 30
0.0
  9
$PUCSORGFRONT
 10
0.0
 20
0.0
 30
0.0
  9
$PUCSORGBACK
 10
0.0
 20
0.0
 30
0.0
  9
$USERI1
 70
     0
  9
$USERI2
 70
     0
  9
$USERI3
 70
     0
  9
$USERI4
 70
     0
  9
$USERI5
 70
     0
  9
$USERR1
 40
0.0
  9
$USERR2
 40
0.0
  9
$USERR3
 40
0.0
  9
$USERR4
 40
0.0
  9
$USERR5
 40
0.0
  9
$WORLDVIEW
 70
     1
  9
$SHADEDGE
 70
     3
  9
$SHADEDIF
 70
    70
  9
$TILEMODE
 70
     1
  9
$MAXACTVP
 70
    64
  9
$PINSBASE
 10
0.0
 20
0.0
 30
0.0
  9
$PLIMCHECK
 70
     0
  9
$PEXTMIN
 10
1.0000000000E+20
 20
1.0000000000E+20
 30
1.0000000000E+20
  9
$PEXTMAX
 10
-1.0000000000E+20
 20
-1.0000000000E+20
 30
-1.0000000000E+20
  9
$PLIMMIN
 10
0.0
 20
0.0
  9
$PLIMMAX
 10
420.0
 20
297.0
  9
$UNITMODE
 70
     0
  9
$VISRETAIN
 70
     1
  9
$PLINEGEN
 70
     0
  9
$PSLTSCALE
 70
     1
  9
$TREEDEPTH
 70
  3020
  9
$CMLSTYLE
  2
Standard
  9
$CMLJUST
 70
     0
  9
$CMLSCALE
 40
20.0
  9
$PROXYGRAPHICS
 70
     1
  9
$MEASUREMENT
 70
     1
  9
$CELWEIGHT
370
    -1
  9
$ENDCAPS
280
     0
  9
$JOINSTYLE
280
     0
  9
$LWDISPLAY
290
     1
  9
$INSUNITS
 70
     4
  9
$HYPERLINKBASE
  1

  9
$STYLESHEET
  1

  9
$XEDIT
290
     1
  9
$CEPSNTYPE
380
     0
  9
$PSTYLEMODE
290
     1
  9
$FINGERPRINTGUID
  2
{06D7FEC7-84D5-46AB-A87E-5025707CFDCE}
  9
$VERSIONGUID
  2
{FAEB1C32-E019-11D5-929B-00C0DF256EC4}
  9
$EXTNAMES
290
     1
  9
$PSVPSCALE
 40
0.0
  9
$OLESTARTUP
290
     0
  0
ENDSEC
  0
SECTION
  2
CLASSES
  0
CLASS
  1
ACDBDICTIONARYWDFLT
  2
AcDbDictionaryWithDefault
  3
ObjectDBX Classes
 90
        0
280
     0
281
     0
  0
CLASS
  1
VISUALSTYLE
  2
AcDbVisualStyle
  3
ObjectDBX Classes
 90
     4095
280
     0
281
     0
  0
CLASS
  1
MATERIAL
  2
AcDbMaterial
  3
ObjectDBX Classes
 90
     1153
280
     0
281
     0
  0
CLASS
  1
ACDBPLACEHOLDER
  2
AcDbPlaceHolder
  3
ObjectDBX Classes
 90
        0
280
     0
281
     0
  0
CLASS
  1
LAYOUT
  2
AcDbLayout
  3
ObjectDBX Classes
 90
        0
280
     0
281
     0
  0
ENDSEC
  0
SECTION
  2
TABLES
  0
TABLE
  2
VPORT
  5
8
330
0
100
AcDbSymbolTable
 70
     1
  0
VPORT
  5
29
330
8
100
AcDbSymbolTableRecord
100
AcDbViewportTableRecord
  2
*Active
 70
     0
 10
0.0
 20
0.0
 11
1.0
 21
1.0
 12
148.5
 22
105.0
 13
0.0
 23
0.0
 14
10.0
 24
10.0
 15
10.0
 25
10.0
 16
0.0
 26
0.0
 36
1.0
 17
0.0
 27
0.0
 37
0.0
 40
210.0
 41
1.4142857143
 42
50.0
 43
0.0
 44
0.0
 50
0.0
 51
0.0
 71
     0
 72
  2000
 73
     1
 74
     3
 75
     0
 76
     0
 77
     0
 78
     0
281
     0
 65
     1
110
0.0
120
0.0
130
0.0
111
1.0
121
0.0
131
0.0
112
0.0
122
1.0
132
0.0
 79
     0
146
0.0
  0
ENDTAB
  0
TABLE
  2
LTYPE
  5
5
330
0
100
AcDbSymbolTable
 70
     6
  0
LTYPE
  5
14
330
5
100
AcDbSymbolTableRecord
100
AcDbLinetypeTableRecord
  2
ByBlock
 70
     0
  3

 72
    65
 73
     0
 40
0.0
  0
LTYPE
  5
15
330
5
100
AcDbSymbolTableRecord
100
AcDbLinetypeTableRecord
  2
ByLayer
 70
     0
  3

 72
    65
 73
     0
 40
0.0
  0
LTYPE
  5
16
330
5
100
AcDbSymbolTableRecord
100
AcDbLinetypeTableRecord
  2
Continuous
 70
     0
  3
Solid line
 72
    65
 73
     0
 40
0.0
  0
LTYPE
  5
3F
330
5
100
AcDbSymbolTableRecord
100
AcDbLinetypeTableRecord
  2
HIDDEN
 70
     0
  3
Hidden __ __ __ __ __ __ __ __ __ __ __ __ __ __
 72
    65
 73
     2
 40
1.905
 49
1.27
 74
     0
 49
-0.635
 74
     0
  0
LTYPE
  5
40
330
5
100
AcDbSymbolTableRecord
100
AcDbLinetypeTableRecord
  2
PHANTOM
 70
     0
  3
Phantom ______  __  __  ______  __  __  ______
 72
    65
 73
     6
 40
12.7
 49
6.35
 74
     0
 49
-1.27
 74
     0
 49
1.27
 74
     0
 49
-1.27
 74
     0
 49
1.27
 74
     0
 49
-1.27
 74
     0
  0
LTYPE
  5
41
330
5
100
AcDbSymbolTableRecord
100
AcDbLinetypeTableRecord
  2
CENTER
 70
     0
  3
Center ____ _ ____ _ ____ _ ____ _ ____ _ ____
 72
    65
 73
     4
 40
10.16
 49
6.35
 74
     0
 49
-1.27
 74
     0
 49
1.27
 74
     0
 49
-1.27
 74
     0
  0
LTYPE
  5
42
330
5
100
AcDbSymbolTableRecord
100
AcDbLinetypeTableRecord
  2
CENTERX2
 70
     0
  3
Center (2x) ________  __  ________  __  _____
 72
    65
 73
     4
 40
20.32
 49
12.7
 74
     0
 49
-2.54
 74
     0
 49
2.54
 74
     0
 49
-2.54
 74
     0
  0
LTYPE
  5
43
330
5
100
AcDbSymbolTableRecord
100
AcDbLinetypeTableRecord
  2
DOT2
 70
     0
  3
Dot (.5x) ........................................
 72
    65
 73
     2
 40
0.635
 49
0.0
 74
     0
 49
-0.635
 74
     0
  0
ENDTAB
  0
TABLE
  2
LAYER
  5
2
330
0
100
AcDbSymbolTable
 70
     5
  0
LAYER
  5
10
330
2
100
AcDbSymbolTableRecord
100
AcDbLayerTableRecord
  2
0
 70
     0
 62
     7
  6
Continuous
370
    -3
390
F
  0
LAYER
  5
44
330
2
100
AcDbSymbolTableRecord
100
AcDbLayerTableRecord
  2
FORMAT
 70
     0
 62
     7
  6
Continuous
370
    -3
390
F
  0
LAYER
  5
45
330
2
100
AcDbSymbolTableRecord
100
AcDbLayerTableRecord
  2
VERMASSUNG
 70
     0
 62
     7
  6
Continuous
370
    -3
390
F
  0
LAYER
  5
46
330
2
100
AcDbSymbolTableRecord
100
AcDbLayerTableRecord
  2
KOPF_DÜNN
 70
     0
 62
     7
  6
Continuous
370
    -3
390
F
  0
LAYER
  5
47
330
2
100
AcDbSymbolTableRecord
100
AcDbLayerTableRecord
  2
KOPF_DICK
 70
     0
 62
     7
  6
Continuous
370
    15
390
F
  0
ENDTAB
  0
TABLE
  2
STYLE
  5
3
330
0
100
AcDbSymbolTable
 70
     2
  0
STYLE
  5
11
330
3
100
AcDbSymbolTableRecord
100
AcDbTextStyleTableRecord
  2
Standard
 70
     0
 40
0.0
 41
1.0
 50
0.0
 71
     0
 42
2.0
  3
txt
  4

  0
STYLE
  5
48
330
3
100
AcDbSymbolTableRecord
100
AcDbTextStyleTableRecord
  2
SLDTEXTSTYLE0
 70
     0
 40
0.0
 41
0.7
 50
0.0
 71
     0
 42
0.2
  3
TXT
  4

  0
ENDTAB
  0
TABLE
  2
VIEW
  5
6
330
0
100
AcDbSymbolTable
 70
     0
  0
ENDTAB
  0
TABLE
  2
UCS
  5
7
330
0
100
AcDbSymbolTable
 70
     0
  0
ENDTAB
  0
TABLE
  2
APPID
  5
9
330
0
100
AcDbSymbolTable
 70
     1
  0
APPID
  5
12
330
9
100
AcDbSymbolTableRecord
100
AcDbRegAppTableRecord
  2
ACAD
 70
     0
  0
ENDTAB
  0
TABLE
  2
DIMSTYLE
  5
A
330
0
100
AcDbSymbolTable
 70
     4
100
AcDbDimStyleTable
  0
DIMSTYLE
105
27
330
A
100
AcDbSymbolTableRecord
100
AcDbDimStyleTableRecord
  2
ISO-25
 70
     0
 41
2.5
 42
0.625
 43
3.75
 44
1.25
 73
     0
 74
     0
 77
     1
 78
     8
140
2.5
141
2.5
143
0.0393700787
147
0.625
171
     3
172
     1
178
     0
271
     2
272
     2
274
     3
278
    44
283
     0
284
     8
340
11
  0
DIMSTYLE
105
1C2
102
{ACAD_REACTORS
330
1C1
330
1F0
102
}
330
A
100
AcDbSymbolTableRecord
100
AcDbDimStyleTableRecord
  2
SLDDIMSTYLE0
 70
     0
 41
3.0
 44
0.0
 45
0.000000001
 73
     0
 74
     0
 77
     1
 78
    12
 79
     3
140
2.0
147
0.5
173
     1
178
     0
271
     2
272
     3
276
     2
284
    12
340
48
  0
DIMSTYLE
105
1CD
102
{ACAD_REACTORS
330
1CC
330
1D9
102
}
330
A
100
AcDbSymbolTableRecord
100
AcDbDimStyleTableRecord
  2
SLDDIMSTYLE1
 70
     0
 41
3.0
 44
0.0
 45
0.000000001
 47
0.1
 48
0.1
 71
     1
 73
     0
 74
     0
 77
     1
 78
    12
 79
     3
140
2.0
147
0.5
173
     1
178
     0
271
     2
272
     1
276
     2
284
     8
340
48
  0
DIMSTYLE
105
1E6
102
{ACAD_REACTORS
330
1E5
102
}
330
A
100
AcDbSymbolTableRecord
100
AcDbDimStyleTableRecord
  2
SLDDIMSTYLE2
 70
     0
 41
3.0
 44
0.0
 73
     0
 74
     0
 77
     1
 78
    12
 79
     3
140
2.0
147
0.5
173
     1
178
     0
179
     1
272
     3
276
     2
284
    12
340
48
  0
ENDTAB
  0
TABLE
  2
BLOCK_RECORD
  5
1
330
0
100
AcDbSymbolTable
 70
     7
  0
BLOCK_RECORD
  5
1F
330
1
100
AcDbSymbolTableRecord
100
AcDbBlockTableRecord
  2
*Model_Space
340
22
  0
BLOCK_RECORD
  5
1B
330
1
100
AcDbSymbolTableRecord
100
AcDbBlockTableRecord
  2
*Paper_Space
340
1E
  0
BLOCK_RECORD
  5
23
330
1
100
AcDbSymbolTableRecord
100
AcDbBlockTableRecord
  2
*Paper_Space0
340
26
  0
BLOCK_RECORD
  5
1C3
330
1
100
AcDbSymbolTableRecord
100
AcDbBlockTableRecord
  2
_D
340
0
  0
BLOCK_RECORD
  5
1CE
330
1
100
AcDbSymbolTableRecord
100
AcDbBlockTableRecord
  2
_D_1
340
0
  0
BLOCK_RECORD
  5
1DA
330
1
100
AcDbSymbolTableRecord
100
AcDbBlockTableRecord
  2
_D_2
340
0
  0
BLOCK_RECORD
  5
1E7
330
1
100
AcDbSymbolTableRecord
100
AcDbBlockTableRecord
  2
_D_3
340
0
  0
BLOCK_RECORD
  5
1F1
330
1
100
AcDbSymbolTableRecord
100
AcDbBlockTableRecord
  2
_D_4
340
0
  0
BLOCK_RECORD
  5
25F
330
1
100
AcDbSymbolTableRecord
100
AcDbBlockTableRecord
  2
SW_CENTERMARKSYMBOL_0
340
0
102
{BLKREFS
331
26A
102
}
  0
ENDTAB
  0
ENDSEC
  0
SECTION
  2
BLOCKS
  0
BLOCK
  5
20
330
1F
100
AcDbEntity
  8
0
100
AcDbBlockBegin
  2
*Model_Space
 70
     0
 10
0.0
 20
0.0
 30
0.0
  3
*Model_Space
  1

  0
ENDBLK
  5
21
330
1F
100
AcDbEntity
  8
0
100
AcDbBlockEnd
  0
BLOCK
  5
1C
330
1B
100
AcDbEntity
 67
     1
  8
0
100
AcDbBlockBegin
  2
*Paper_Space
 70
     0
 10
0.0
 20
0.0
 30
0.0
  3
*Paper_Space
  1

  0
ENDBLK
  5
1D
330
1B
100
AcDbEntity
 67
     1
  8
0
100
AcDbBlockEnd
  0
BLOCK
  5
24
330
23
100
AcDbEntity
  8
0
100
AcDbBlockBegin
  2
*Paper_Space0
 70
     0
 10
0.0
 20
0.0
 30
0.0
  3
*Paper_Space0
  1

  0
ENDBLK
  5
25
330
23
100
AcDbEntity
  8
0
100
AcDbBlockEnd
  0
BLOCK
  5
1C4
330
1C3
100
AcDbEntity
  8
0
100
AcDbBlockBegin
  2
_D
 70
     0
 10
0.0
 20
0.0
 30
0.0
  3
_D
  1

  0
SOLID
  5
1C6
330
1C3
100
AcDbEntity
  8
VERMASSUNG
100
AcDbTrace
 10
141.1252300271
 20
70.70712137
 30
0.0
 11
144.1252300271
 21
70.25712137
 31
0.0
 12
144.1252300271
 22
71.15712137
 32
0.0
 13
144.1252300271
 23
71.15712137
 33
0.0
  0
SOLID
  5
1C7
330
1C3
100
AcDbEntity
  8
VERMASSUNG
100
AcDbTrace
 10
231.1252300271
 20
70.70712137
 30
0.0
 11
228.1252300271
 21
71.15712137
 31
0.0
 12
228.1252300271
 22
70.25712137
 32
0.0
 13
228.1252300271
 23
70.25712137
 33
0.0
  0
LINE
  5
1C8
330
1C3
100
AcDbEntity
  8
VERMASSUNG
100
AcDbLine
 10
141.1252300271
 20
110.5366441109
 30
0.0
 11
141.1252300271
 21
69.70712137
 31
0.0
  0
LINE
  5
1C9
330
1C3
100
AcDbEntity
  8
VERMASSUNG
100
AcDbLine
 10
231.1252300271
 20
91.5299699491
 30
0.0
 11
231.1252300271
 21
69.70712137
 31
0.0
  0
LINE
  5
1CA
330
1C3
100
AcDbEntity
  8
VERMASSUNG
100
AcDbLine
 10
141.1252300271
 20
70.70712137
 30
0.0
 11
231.1252300271
 21
70.70712137
 31
0.0
  0
MTEXT
  5
1CB
330
1C3
100
AcDbEntity
  8
VERMASSUNG
100
AcDbMText
 10
183.8252299761
 20
73.2852567331
 30
0.1
 40
2.0
 41
0.0
 71
     1
 72
     1
  1
90
  7
SLDTEXTSTYLE0
 73
     1
 44
1.0
  0
ENDBLK
  5
1C5
330
1C3
100
AcDbEntity
  8
0
100
AcDbBlockEnd
  0
BLOCK
  5
1CF
330
1CE
100
AcDbEntity
  8
0
100
AcDbBlockBegin
  2
_D_1
 70
     0
 10
0.0
 20
0.0
 30
0.0
  3
_D_1
  1

  0
SOLID
  5
1D1
330
1CE
100
AcDbEntity
  8
VERMASSUNG
100
AcDbTrace
 10
231.1252300271
 20
78.8190912615
 30
0.0
 11
228.1252300271
 21
79.2690912615
 31
0.0
 12
228.1252300271
 22
78.3690912615
 32
0.0
 13
228.1252300271
 23
78.3690912615
 33
0.0
  0
SOLID
  5
1D2
330
1CE
100
AcDbEntity
  8
VERMASSUNG
100
AcDbTrace
 10
171.1252300271
 20
78.8190912615
 30
0.0
 11
174.1252300271
 21
78.3690912615
 31
0.0
 12
174.1252300271
 22
79.2690912615
 32
0.0
 13
174.1252300271
 23
79.2690912615
 33
0.0
  0
LINE
  5
1D3
330
1CE
100
AcDbEntity
  8
VERMASSUNG
100
AcDbLine
 10
231.1252300271
 20
91.5299699491
 30
0.0
 11
231.1252300271
 21
77.8190912615
 31
0.0
  0
LINE
  5
1D4
330
1CE
100
AcDbEntity
  8
VERMASSUNG
100
AcDbLine
 10
171.1252300271
 20
101.8299699491
 30
0.0
 11
171.1252300271
 21
77.8190912615
 31
0.0
  0
LINE
  5
1D5
330
1CE
100
AcDbEntity
  8
VERMASSUNG
100
AcDbLine
 10
231.1252300271
 20
78.8190912615
 30
0.0
 11
171.1252300271
 21
78.8190912615
 31
0.0
  0
MTEXT
  5
1D6
330
1CE
100
AcDbEntity
  8
VERMASSUNG
100
AcDbMText
 10
196.5752298401
 20
81.3972266246
 30
0.1
 40
2.0
 41
0.0
 71
     1
 72
     1
  1
60
  7
SLDTEXTSTYLE0
 73
     1
 44
1.0
  0
MTEXT
  5
1D7
330
1CE
100
AcDbEntity
  8
VERMASSUNG
100
AcDbMText
 10
202.3627299422
 20
81.3972266246
 30
0.1
 40
2.0
 41
0.0
 71
     1
 72
     1
  1

  7
SLDTEXTSTYLE0
 73
     1
 44
1.0
  0
MTEXT
  5
1D8
330
1CE
100
AcDbEntity
  8
VERMASSUNG
100
AcDbMText
 10
202.375230232
 20
80.9026927619
 30
0.1
 40
1.5
 41
0.0
 71
     1
 72
     1
  1
±0.1
  7
SLDTEXTSTYLE0
 73
     1
 44
1.0
  0
ENDBLK
  5
1D0
330
1CE
100
AcDbEntity
  8
0
100
AcDbBlockEnd
  0
BLOCK
  5
1DB
330
1DA
100
AcDbEntity
  8
0
100
AcDbBlockBegin
  2
_D_2
 70
     0
 10
0.0
 20
0.0
 30
0.0
  3
_D_2
  1

  0
SOLID
  5
1DD
330
1DA
100
AcDbEntity
  8
VERMASSUNG
100
AcDbTrace
 10
252.0488398714
 20
91.5299699491
 30
0.0
 11
252.4988398714
 21
94.5299699491
 31
0.0
 12
251.5988398714
 22
94.5299699491
 32
0.0
 13
251.5988398714
 23
94.5299699491
 33
0.0
  0
SOLID
  5
1DE
330
1DA
100
AcDbEntity
  8
VERMASSUNG
100
AcDbTrace
 10
252.0488398714
 20
126.5299699491
 30
0.0
 11
251.5988398714
 21
123.5299699491
 31
0.0
 12
252.4988398714
 22
123.5299699491
 32
0.0
 13
252.4988398714
 23
123.5299699491
 33
0.0
  0
LINE
  5
1DF
330
1DA
100
AcDbEntity
  8
VERMASSUNG
100
AcDbLine
 10
231.1252300271
 20
91.5299699491
 30
0.0
 11
253.0488398714
 21
91.5299699491
 31
0.0
  0
LINE
  5
1E0
330
1DA
100
AcDbEntity
  8
VERMASSUNG
100
AcDbLine
 10
231.1252300271
 20
126.5299699491
 30
0.0
 11
253.0488398714
 21
126.5299699491
 31
0.0
  0
LINE
  5
1E1
330
1DA
100
AcDbEntity
  8
VERMASSUNG
100
AcDbLine
 10
252.0488398714
 20
91.5299699491
 30
0.0
 11
252.0488398714
 21
126.5299699491
 31
0.0
  0
MTEXT
  5
1E2
330
1DA
100
AcDbEntity
  8
VERMASSUNG
100
AcDbMText
 10
249.4707045083
 20
104.4799697621
 30
0.1
 40
2.0
 41
0.0
 71
     1
 72
     1
  1
35
  7
SLDTEXTSTYLE0
 11
6.123233995736766E-17
 21
1.0
 31
0.0
 73
     1
 44
1.0
  0
MTEXT
  5
1E3
330
1DA
100
AcDbEntity
  8
VERMASSUNG
100
AcDbMText
 10
249.4707045083
 20
110.2674698641
 30
0.1
 40
2.0
 41
0.0
 71
     1
 72
     1
  1

  7
SLDTEXTSTYLE0
 11
6.123233995736766E-17
 21
1.0
 31
0.0
 73
     1
 44
1.0
  0
MTEXT
  5
1E4
330
1DA
100
AcDbEntity
  8
VERMASSUNG
100
AcDbMText
 10
249.965238371
 20
110.279970154
 30
0.1
 40
1.5
 41
0.0
 71
     1
 72
     1
  1
±0.1
  7
SLDTEXTSTYLE0
 11
6.123233995736766E-17
 21
1.0
 31
0.0
 73
     1
 44
1.0
  0
ENDBLK
  5
1DC
330
1DA
100
AcDbEntity
  8
0
100
AcDbBlockEnd
  0
BLOCK
  5
1E8
330
1E7
100
AcDbEntity
  8
0
100
AcDbBlockBegin
  2
_D_3
 70
     0
 10
0.0
 20
0.0
 30
0.0
  3
_D_3
  1

  0
ARC
  5
1EA
330
1E7
100
AcDbEntity
  8
VERMASSUNG
100
AcDbCircle
 10
231.1621157966
 20
91.5299699491
 30
0.0
 40
13.22847791942982
100
AcDbArc
 50
0.0
 51
95.0277975181
  0
SOLID
  5
1EB
330
1E7
100
AcDbEntity
  8
VERMASSUNG
100
AcDbTrace
 10
244.3905937161
 20
91.5299699491
 30
0.0
 11
244.5039748719
 21
94.5614126277
 31
0.0
 12
243.6095641574
 22
94.4612653672
 32
0.0
 13
243.6095641574
 23
94.4612653672
 33
0.0
  0
SOLID
  5
1EC
330
1E7
100
AcDbEntity
  8
VERMASSUNG
100
AcDbTrace
 10
230.0027846314
 20
104.7075486081
 30
0.0
 11
232.9912499783
 21
104.1864201492
 31
0.0
 12
233.0126266013
 22
105.0861662467
 32
0.0
 13
233.0126266013
 23
105.0861662467
 33
0.0
  0
LINE
  5
1ED
330
1E7
100
AcDbEntity
  8
VERMASSUNG
100
AcDbLine
 10
241.6868575179
 20
91.5299699491
 30
0.0
 11
245.3905937161
 21
91.5299699491
 31
0.0
  0
LINE
  5
1EE
330
1E7
100
AcDbEntity
  8
VERMASSUNG
100
AcDbLine
 10
230.4120345557
 20
100.0557948811
 30
0.0
 11
229.9151455869
 21
105.7037009046
 31
0.0
  0
MTEXT
  5
1EF
330
1E7
100
AcDbEntity
  8
VERMASSUNG
100
AcDbMText
 10
239.6995020272
 20
105.1451108206
 30
0.1
 40
2.0
 41
0.0
 71
     1
 72
     1
  1
95°
  7
SLDTEXTSTYLE0
 11
0.7374411991856039
 21
-0.6754113396617637
 31
0.0
 73
     1
 44
1.0
  0
ENDBLK
  5
1E9
330
1E7
100
AcDbEntity
  8
0
100
AcDbBlockEnd
  0
BLOCK
  5
1F2
330
1F1
100
AcDbEntity
  8
0
100
AcDbBlockBegin
  2
_D_4
 70
     0
 10
0.0
 20
0.0
 30
0.0
  3
_D_4
  1

  0
SOLID
  5
1F4
330
1F1
100
AcDbEntity
  8
VERMASSUNG
100
AcDbTrace
 10
131.1252300271
 20
151.5299699491
 30
0.0
 11
130.6752300271
 21
148.5299699491
 31
0.0
 12
131.5752300271
 22
148.5299699491
 32
0.0
 13
131.5752300271
 23
148.5299699491
 33
0.0
  0
SOLID
  5
1F5
330
1F1
100
AcDbEntity
  8
VERMASSUNG
100
AcDbTrace
 10
131.1252300271
 20
101.5299699491
 30
0.0
 11
131.5752300271
 21
104.5299699491
 31
0.0
 12
130.6752300271
 22
104.5299699491
 32
0.0
 13
130.6752300271
 23
104.5299699491
 33
0.0
  0
LINE
  5
1F6
330
1F1
100
AcDbEntity
  8
VERMASSUNG
100
AcDbLine
 10
171.4252300271
 20
151.5299699491
 30
0.0
 11
130.1252300271
 21
151.5299699491
 31
0.0
  0
LINE
  5
1F7
330
1F1
100
AcDbEntity
  8
VERMASSUNG
100
AcDbLine
 10
171.4252300271
 20
101.5299699491
 30
0.0
 11
130.1252300271
 21
101.5299699491
 31
0.0
  0
LINE
  5
1F8
330
1F1
100
AcDbEntity
  8
VERMASSUNG
100
AcDbLine
 10
131.1252300271
 20
151.5299699491
 30
0.0
 11
131.1252300271
 21
101.5299699491
 31
0.0
  0
MTEXT
  5
1F9
330
1F1
100
AcDbEntity
  8
VERMASSUNG
100
AcDbMText
 10
128.3470945381
 20
120.1249698399
 30
0.4957605025
 40
2.0
 41
0.0
 71
     1
 72
     1
  1
PSC
  7
SLDTEXTSTYLE0
 11
-7.044195017643634E-15
 21
1.0
 31
0.0
 73
     1
 44
1.0
  0
MTEXT
  5
1FA
330
1F1
100
AcDbEntity
  8
VERMASSUNG
100
AcDbMText
 10
128.5470945476
 20
124.7249699419
 30
0.4957605025
 40
2.0
 41
0.0
 71
     1
 72
     1
  1
%%c
  7
SLDTEXTSTYLE0
 11
-7.044195017643634E-15
 21
1.0
 31
0.0
 73
     1
 44
1.0
  0
MTEXT
  5
1FB
330
1F1
100
AcDbEntity
  8
VERMASSUNG
100
AcDbMText
 10
128.3470945381
 20
128.3349704219
 30
0.4957605025
 40
2.0
 41
0.0
 71
     1
 72
     1
  1
50
  7
SLDTEXTSTYLE0
 11
-7.044195017643634E-15
 21
1.0
 31
0.0
 73
     1
 44
1.0
  0
ENDBLK
  5
1F3
330
1F1
100
AcDbEntity
  8
0
100
AcDbBlockEnd
  0
BLOCK
  5
260
330
25F
100
AcDbEntity
  8
0
100
AcDbBlockBegin
  2
SW_CENTERMARKSYMBOL_0
 70
     0
 10
0.0
 20
0.0
 30
0.0
  3
SW_CENTERMARKSYMBOL_0
  1

  0
LINE
  5
262
330
25F
100
AcDbEntity
  8
VERMASSUNG
 62
     0
100
AcDbLine
 10
0.0
 20
0.0
 30
0.0
 11
0.0
 21
2.5
 31
0.0
  0
LINE
  5
263
330
25F
100
AcDbEntity
  8
VERMASSUNG
 62
     0
100
AcDbLine
 10
0.0
 20
0.0
 30
0.0
 11
-2.5
 21
0.0
 31
0.0
  0
LINE
  5
264
330
25F
100
AcDbEntity
  8
VERMASSUNG
 62
     0
100
AcDbLine
 10
0.0
 20
0.0
 30
0.0
 11
0.0
 21
-2.5
 31
0.0
  0
LINE
  5
265
330
25F
100
AcDbEntity
  8
VERMASSUNG
 62
     0
100
AcDbLine
 10
0.0
 20
0.0
 30
0.0
 11
2.5
 21
0.0
 31
0.0
  0
LINE
  5
266
330
25F
100
AcDbEntity
  8
VERMASSUNG
 62
     0
100
AcDbLine
 10
0.0
 20
5.0
 30
0.0
 11
0.0
 21
28.0
 31
0.0
  0
LINE
  5
267
330
25F
100
AcDbEntity
  8
VERMASSUNG
 62
     0
100
AcDbLine
 10
-5.0
 20
0.0
 30
0.0
 11
-28.0
 21
0.0
 31
0.0
  0
LINE
  5
268
330
25F
100
AcDbEntity
  8
VERMASSUNG
 62
     0
100
AcDbLine
 10
0.0
 20
-5.0
 30
0.0
 11
0.0
 21
-28.0
 31
0.0
  0
LINE
  5
269
330
25F
100
AcDbEntity
  8
VERMASSUNG
 62
     0
100
AcDbLine
 10
5.0
 20
0.0
 30
0.0
 11
28.0
 21
0.0
 31
0.0
  0
ENDBLK
  5
261
330
25F
100
AcDbEntity
  8
0
100
AcDbBlockEnd
  0
ENDSEC
  0
SECTION
  2
ENTITIES
  0
MTEXT
  5
49
330
1F
100
AcDbEntity
  8
KOPF_DÜNN
100
AcDbMText
 10
13.8892156294
 20
23.8442973028
 30
0.0
 40
3.0
 41
0.0
 71
     1
 72
     1
  1
PS5.PWE.LLA.060
  7
SLDTEXTSTYLE0
 73
     1
 44
1.0
  0
MTEXT
  5
4A
330
1F
100
AcDbEntity
  8
VERMASSUNG
100
AcDbMText
 10
13.9329988022
 20
28.8834360957
 30
0.0
 40
3.0
 41
0.0
 71
     1
 72
     1
  1
Klemmhalter links_Turning tool left 95° /80°
  7
SLDTEXTSTYLE0
 73
     1
 44
1.0
  0
MTEXT
  5
4B
330
1F
100
AcDbEntity
  8
VERMASSUNG
100
AcDbMText
 10
98.8601118557
 20
13.8365368179
 30
0.0
 40
2.0
 41
0.0
 71
     1
 72
     1
  1
Datum: 26.04.2012
  7
SLDTEXTSTYLE0
 73
     1
 44
1.0
  0
MTEXT
  5
4C
330
1F
100
AcDbEntity
  8
VERMASSUNG
100
AcDbMText
 10
13.933048693
 20
18.0482802738
 30
0.0
 40
2.0
 41
0.0
 71
     1
 72
     1
  1
PSC ø50 / WN..08 04..
  7
SLDTEXTSTYLE0
 73
     1
 44
1.0
  0
MTEXT
  5
4D
330
1F
100
AcDbEntity
  8
VERMASSUNG
100
AcDbMText
 10
13.9808475933
 20
13.9090973692
 30
0.0
 40
2.0
 41
0.0
 71
     1
 72
     1
  1
Gewicht: 789g
  7
SLDTEXTSTYLE0
 73
     1
 44
1.0
  0
ARC
  5
4E
330
1F
100
AcDbEntity
  8
0
  6
Continuous
 62
     7
370
    15
100
AcDbCircle
 10
171.4252300271
 20
101.8299699491
 30
0.0
 40
0.3000000000000114
100
AcDbArc
 50
180.0
 51
270.0
  0
ARC
  5
4F
330
1F
100
AcDbEntity
  8
0
  6
Continuous
 62
     7
370
    15
100
AcDbCircle
 10
171.4252300271
 20
151.2299699491
 30
0.0
 40
0.3000000000000114
100
AcDbArc
 50
90.0
 51
180.0
  0
LINE
  5
50
330
1F
100
AcDbEntity
  8
0
  6
Continuous
 62
     7
370
    15
100
AcDbLine
 10
203.3579030392
 20
151.5299699491
 30
0.0
 11
171.4252300271
 21
151.5299699491
 31
0.0
  0
LINE
  5
51
330
1F
100
AcDbEntity
  8
0
  6
Continuous
 62
     7
370
    15
100
AcDbLine
 10
171.4252300271
 20
101.5299699491
 30
0.0
 11
203.3579030392
 21
101.5299699491
 31
0.0
  0
LWPOLYLINE
  5
52
330
1F
100
AcDbEntity
  8
0
  6
Continuous
 62
     7
370
    15
100
AcDbPolyline
 90
        3
 70
   128
 43
0.0
 10
170.9252300271
 20
108.6901496702
 10
171.0506849706
 20
108.6218475553
 10
171.1252300271
 20
108.5691097971
  0
LWPOLYLINE
  5
53
330
1F
100
AcDbEntity
  8
0
  6
Continuous
 62
     7
370
    15
100
AcDbPolyline
 90
        3
 70
   128
 43
0.0
 10
171.1252300271
 20
144.490830101
 10
171.0506849706
 20
144.4380923429
 10
170.9252300271
 20
144.369790228
  0
ARC
  5
54
330
1F
100
AcDbEntity
  8
0
  6
Continuous
 62
     7
370
    15
100
AcDbCircle
 10
203.3579030392
 20
152.5299699491
 30
0.0
 40
1.0
100
AcDbArc
 50
270.0
 51
330.0
  0
ARC
  5
55
330
1F
100
AcDbEntity
  8
0
  6
Continuous
 62
     7
370
    15
100
AcDbCircle
 10
203.3579030392
 20
100.5299699491
 30
0.0
 40
1.0
100
AcDbArc
 50
15.0
 51
90.0
  0
LINE
  5
56
330
1F
100
AcDbEntity
  8
0
  6
Continuous
 62
     7
370
    15
100
AcDbLine
 10
207.7727001191
 20
152.0299699491
 30
0.0
 11
204.2239284429
 21
152.0299699491
 31
0.0
  0
LINE
  5
57
330
1F
100
AcDbEntity
  8
0
  6
Continuous
 62
     7
370
    15
100
AcDbLine
 10
204.3238288655
 20
100.7887889942
 30
0.0
 11
204.4676442106
 21
100.2520628191
 31
0.0
  0
SPLINE
  5
58
330
1F
100
AcDbEntity
  8
0
  6
Continuous
 62
     7
370
    15
100
AcDbSpline
210
0.0
220
0.0
230
1.0
 70
     8
 71
     3
 72
     9
 73
     5
 74
     0
 42
0.00000001
 43
0.00000001
 12
1.0
 22
0.0
 32
0.0
 13
1.0
 23
0.0
 33
0.0
 40
0.0
 40
0.0
 40
0.0
 40
0.0
 40
0.5461757652479998
 40
1.0
 40
1.0
 40
1.0
 40
1.0
 10
226.1734579345469
 20
99.72008829587217
 30
0.0
 10
226.1859610235513
 20
99.54634707542377
 30
0.0
 10
226.2088530846789
 20
99.22824211452438
 30
0.0
 10
226.1354944343012
 20
98.91570794970625
 30
0.0
 10
226.1022025009312
 20
98.77387237152381
 30
0.0
  0
LINE
  5
59
330
1F
100
AcDbEntity
  8
0
  6
Continuous
 62
     7
370
    15
100
AcDbLine
 10
221.7479231723
 20
97.5845305792
 30
0.0
 11
221.8568404884
 21
97.4199600942
 31
0.0
  0
LINE
  5
5A
330
1F
100
AcDbEntity
  8
0
  6
Continuous
 62
     7
370
    15
100
AcDbLine
 10
225.7727800674
 20
100.0190860614
 30
0.0
 11
225.3850616528
 21
100.6049158438
 31
0.0
  0
LINE
  5
5B
330
1F
100
AcDbEntity
  8
0
  6
Continuous
 62
     7
370
    15
100
AcDbLine
 10
226.9197530658
 20
107.4426229531
 30
0.0
 11
226.4221975806
 21
108.1014578667
 31
0.0
  0
LINE
  5
5C
330
1F
100
AcDbEntity
  8
0
  6
Continuous
 62
     7
370
    15
100
AcDbLine
 10
214.5353600405
 20
96.1928888551
 30
0.0
 11
215.006536017
 21
95.5689841991
 31
0.0
  0
LINE
  5
5D
330
1F
100
AcDbEntity
  8
0
  6
Continuous
 62
     7
370
    15
100
AcDbLine
 10
171.1252300271
 20
101.8299699491
 30
0.0
 11
171.1252300271
 21
151.2299699491
 31
0.0
  0
ELLIPSE
  5
5E
330
1F
100
AcDbEntity
  8
0
  6
Continuous
 62
     7
370
    15
100
AcDbEllipse
 10
274.6002245236
 20
126.5299699491
 30
0.0
 11
237.858829739903
 21
3.517419123355012
 31
0.0
210
0.0
220
0.0
230
1.0
 40
0.1040588589
 41
1.873441576948415
 42
1.887494954912387
  0
SPLINE
  5
5F
330
1F
100
AcDbEntity
  8
0
  6
Continuous
 62
     7
370
    15
100
AcDbSpline
210
0.0
220
0.0
230
1.0
 70
     8
 71
     3
 72
    18
 73
    14
 74
     0
 42
0.00000001
 43
0.00000001
 12
1.0
 22
0.0
 32
0.0
 13
1.0
 23
0.0
 33
0.0
 40
0.0
 40
0.0
 40
0.0
 40
0.0
 40
0.2500000000000009
 40
0.2500000000000009
 40
0.3750000000000008
 40
0.3750000000000008
 40
0.5000000000000007
 40
0.5000000000000007
 40
0.6250000000000006
 40
0.6250000000000006
 40
0.7500000000000003
 40
0.7500000000000003
 40
1.0
 40
1.0
 40
1.0
 40
1.0
 10
197.5915858228735
 20
147.8112916183177
 30
0.0
 10
197.6663135663744
 20
147.9710600312559
 30
0.0
 10
197.7798483533441
 20
148.1173558334863
 30
0.0
 10
198.0117915747541
 20
148.3181258708105
 30
0.0
 10
198.0998189868399
 20
148.3818710960675
 30
0.0
 10
198.2915939162428
 20
148.4990381259293
 30
0.0
 10
198.3959511642287
 20
148.553063364045
 30
0.0
 10
198.6220788252591
 20
148.6523616234859
 30
0.0
 10
198.7451125488389
 20
148.697998033154
 30
0.0
 10
199.0032034393859
 20
148.7782475962446
 30
0.0
 10
199.1378073410399
 20
148.8128944774577
 30
0.0
 10
199.5581827026417
 20
148.9013120505883
 30
0.0
 10
199.8636054605872
 20
148.9396704781552
 30
0.0
 10
200.1757779119377
 20
148.9549406018123
 30
0.0
  0
ELLIPSE
  5
60
330
1F
100
AcDbEntity
  8
0
  6
Continuous
 62
     7
370
    15
100
AcDbEllipse
 10
200.2789643218
 20
126.5299699491
 30
0.0
 11
1.002722741751512
 21
24.99858838527823
 31
0.0
210
0.0
220
0.0
230
1.0
 40
0.2649452246
 41
0.5630549766273892
 42
2.87904408547279
  0
SPLINE
  5
61
330
1F
100
AcDbEntity
  8
0
  6
Continuous
 62
     7
370
    15
100
AcDbSpline
210
0.0
220
0.0
230
1.0
 70
     8
 71
     3
 72
    18
 73
    14
 74
     0
 42
0.00000001
 43
0.00000001
 12
1.0
 22
0.0
 32
0.0
 13
1.0
 23
0.0
 33
0.0
 40
0.0
 40
0.0
 40
0.0
 40
0.0
 40
0.2500000000000012
 40
0.2500000000000012
 40
0.5000000000000024
 40
0.5000000000000024
 40
0.6250000000000018
 40
0.6250000000000018
 40
0.7500000000000012
 40
0.7500000000000012
 40
0.8750000000000006
 40
0.8750000000000006
 40
1.0
 40
1.0
 40
1.0
 40
1.0
 10
200.1757779119378
 20
101.9276849687196
 30
0.0
 10
199.8639457293431
 20
101.9338156836791
 30
0.0
 10
199.5663078997225
 20
101.9486244751748
 30
0.0
 10
198.9987217950744
 20
101.998022709858
 30
0.0
 10
198.7413582260935
 20
102.0316970237858
 30
0.0
 10
198.3987909391882
 20
102.0980463108174
 30
0.0
 10
198.2927463981003
 20
102.1227308056743
 30
0.0
 10
198.1008839726286
 20
102.1765283773962
 30
0.0
 10
198.0142616878979
 20
102.2057915495132
 30
0.0
 10
197.8592871240301
 20
102.2695943786598
 30
0.0
 10
197.7911212727502
 20
102.3041722711157
 30
0.0
 10
197.6762216916087
 20
102.3772468011414
 30
0.0
 10
197.6289251864057
 20
102.4159500739151
 30
0.0
 10
197.5915858228734
 20
102.4569936698743
 30
0.0
  0
ELLIPSE
  5
62
330
1F
100
AcDbEntity
  8
0
  6
Continuous
 62
     7
370
    15
100
AcDbEllipse
 10
274.6002245236
 20
126.5299699491
 30
0.0
 11
237.858829739903
 21
3.517419123355012
 31
0.0
210
0.0
220
0.0
230
1.0
 40
0.1040588589
 41
4.392612742478499
 42
4.406666120442469
  0
SPLINE
  5
63
330
1F
100
AcDbEntity
  8
0
  6
Continuous
 62
     7
370
    15
100
AcDbSpline
210
0.0
220
0.0
230
1.0
 70
     8
 71
     3
 72
    12
 73
     8
 74
     0
 42
0.00000001
 43
0.00000001
 12
1.0
 22
0.0
 32
0.0
 13
1.0
 23
0.0
 33
0.0
 40
0.0
 40
0.0
 40
0.0
 40
0.0
 40
0.5000000000000028
 40
0.5000000000000028
 40
0.7500000000000013
 40
0.7500000000000013
 40
1.0
 40
1.0
 40
1.0
 40
1.0
 10
179.219974138815
 20
102.877328471844
 30
0.0
 10
179.2508258493792
 20
102.8379964314815
 30
0.0
 10
179.2927187128398
 20
102.8005846659533
 30
0.0
 10
179.392239590633
 20
102.7509137413374
 30
0.0
 10
179.4318537553573
 20
102.7355246587295
 30
0.0
 10
179.5289567891368
 20
102.7116914430623
 30
0.0
 10
179.5894554617872
 20
102.7032388335735
 30
0.0
 10
179.6529868407071
 20
102.7032388335735
 30
0.0
  0
LINE
  5
64
330
1F
100
AcDbEntity
  8
0
  6
Continuous
 62
     7
370
    15
100
AcDbLine
 10
179.6529868407
 20
102.7032388336
 30
0.0
 11
182.5974732136
 21
102.7032388336
 31
0.0
  0
SPLINE
  5
65
330
1F
100
AcDbEntity
  8
0
  6
Continuous
 62
     7
370
    15
100
AcDbSpline
210
0.0
220
0.0
230
1.0
 70
     8
 71
     3
 72
    12
 73
     8
 74
     0
 42
0.00000001
 43
0.00000001
 12
1.0
 22
0.0
 32
0.0
 13
1.0
 23
0.0
 33
0.0
 40
0.0
 40
0.0
 40
0.0
 40
0.0
 40
0.2500000000000009
 40
0.2500000000000009
 40
0.5000000000000018
 40
0.5000000000000018
 40
1.0
 40
1.0
 40
1.0
 40
1.0
 10
182.5974732135743
 20
102.7032388335737
 30
0.0
 10
182.661109767788
 20
102.7032388335737
 30
0.0
 10
182.7206898946542
 20
102.7114956045055
 30
0.0
 10
182.8193266360206
 20
102.7356976665133
 30
0.0
 10
182.8582852604009
 20
102.7509444855474
 30
0.0
 10
182.9576641999088
 20
102.8005493576075
 30
0.0
 10
182.9996221050742
 20
102.8379810057264
 30
0.0
 10
183.0304859154667
 20
102.877328471844
 30
0.0
  0
ELLIPSE
  5
66
330
1F
100
AcDbEntity
  8
0
  6
Continuous
 62
     7
370
    15
100
AcDbEllipse
 10
170.0689723722
 20
126.5299699491
 30
0.0
 11
-11.7092723497272
 21
24.67718644093742
 31
0.0
210
0.0
220
0.0
230
1.0
 40
0.3419987131
 41
3.310521928178951
 42
4.221709151398942
  0
SPLINE
  5
67
330
1F
100
AcDbEntity
  8
0
  6
Continuous
 62
     7
370
    15
100
AcDbSpline
210
0.0
220
0.0
230
1.0
 70
     8
 71
     3
 72
    12
 73
     8
 74
     0
 42
0.00000001
 43
0.00000001
 12
1.0
 22
0.0
 32
0.0
 13
1.0
 23
0.0
 33
0.0
 40
0.0
 40
0.0
 40
0.0
 40
0.0
 40
0.4999999999999982
 40
0.4999999999999982
 40
0.7499999999999991
 40
0.7499999999999991
 40
1.0
 40
1.0
 40
1.0
 40
1.0
 10
183.0304859154665
 20
118.4335169510313
 30
0.0
 10
182.9996342049023
 20
118.5484199399681
 30
0.0
 10
182.9577413414416
 20
118.660558836017
 30
0.0
 10
182.8582204636485
 20
118.8125011176178
 30
0.0
 10
182.8186062989242
 20
118.8601657271427
 30
0.0
 10
182.7215032651447
 20
118.9345020577581
 30
0.0
 10
182.6610045924943
 20
118.9611599798953
 30
0.0
 10
182.5974732135744
 20
118.9611599798953
 30
0.0
  0
LINE
  5
68
330
1F
100
AcDbEntity
  8
0
  6
Continuous
 62
     7
370
    15
100
AcDbLine
 10
182.5974732136
 20
118.9611599799
 30
0.0
 11
179.6529868407
 21
118.9611599799
 31
0.0
  0
SPLINE
  5
69
330
1F
100
AcDbEntity
  8
0
  6
Continuous
 62
     7
370
    15
100
AcDbSpline
210
0.0
220
0.0
230
1.0
 70
     8
 71
     3
 72
    12
 73
     8
 74
     0
 42
0.00000001
 43
0.00000001
 12
1.0
 22
0.0
 32
0.0
 13
1.0
 23
0.0
 33
0.0
 40
0.0
 40
0.0
 40
0.0
 40
0.0
 40
0.2500000000000002
 40
0.2500000000000002
 40
0.5000000000000004
 40
0.5000000000000004
 40
1.0
 40
1.0
 40
1.0
 40
1.0
 10
179.6529868407072
 20
118.9611599798949
 30
0.0
 10
179.5893502864935
 20
118.9611599798949
 30
0.0
 10
179.5297701596273
 20
118.935113076837
 30
0.0
 10
179.4311334182609
 20
118.859625917937
 30
0.0
 10
179.3921747938806
 20
118.8124068794063
 30
0.0
 10
179.2927958543727
 20
118.6606672283128
 30
0.0
 10
179.2508379492072
 20
118.5484650041286
 30
0.0
 10
179.2199741388147
 20
118.4335169510313
 30
0.0
  0
ELLIPSE
  5
6A
330
1F
100
AcDbEntity
  8
0
  6
Continuous
 62
     7
370
    15
100
AcDbEllipse
 10
192.1814876821
 20
126.5299699491
 30
0.0
 11
11.70927234972703
 21
24.67718644093742
 31
0.0
210
0.0
220
0.0
230
1.0
 40
0.3419987131
 41
2.061476155780654
 42
2.972663379000666
  0
SPLINE
  5
6B
330
1F
100
AcDbEntity
  8
0
  6
Continuous
 62
     7
370
    15
100
AcDbSpline
210
0.0
220
0.0
230
1.0
 70
     8
 71
     3
 72
    12
 73
     8
 74
     0
 42
0.00000001
 43
0.00000001
 12
1.0
 22
0.0
 32
0.0
 13
1.0
 23
0.0
 33
0.0
 40
0.0
 40
0.0
 40
0.0
 40
0.0
 40
0.5000000000000013
 40
0.5000000000000013
 40
0.7500000000000007
 40
0.7500000000000007
 40
1.0
 40
1.0
 40
1.0
 40
1.0
 10
179.219974138815
 20
134.6264229471198
 30
0.0
 10
179.2506735221822
 20
134.5120872800559
 30
0.0
 10
179.2920235902887
 20
134.4007339272146
 30
0.0
 10
179.3917795185082
 20
134.2479971549658
 30
0.0
 10
179.4314764362409
 20
134.2001372691137
 30
0.0
 10
179.5287345878886
 20
134.1255341557642
 30
0.0
 10
179.5895107458793
 20
134.0987799182561
 30
0.0
 10
179.6529868407072
 20
134.0987799182561
 30
0.0
  0
LINE
  5
6C
330
1F
100
AcDbEntity
  8
0
  6
Continuous
 62
     7
370
    15
100
AcDbLine
 10
179.6529868407
 20
134.0987799183
 30
0.0
 11
182.5974732136
 21
134.0987799183
 31
0.0
  0
SPLINE
  5
6D
330
1F
100
AcDbEntity
  8
0
  6
Continuous
 62
     7
370
    15
100
AcDbSpline
210
0.0
220
0.0
230
1.0
 70
     8
 71
     3
 72
    12
 73
     8
 74
     0
 42
0.00000001
 43
0.00000001
 12
1.0
 22
0.0
 32
0.0
 13
1.0
 23
0.0
 33
0.0
 40
0.0
 40
0.0
 40
0.0
 40
0.0
 40
0.2499999999999996
 40
0.2499999999999996
 40
0.4999999999999991
 40
0.4999999999999991
 40
1.0
 40
1.0
 40
1.0
 40
1.0
 10
182.5974732135743
 20
134.0987799182561
 30
0.0
 10
182.6611384501048
 20
134.0987799182561
 30
0.0
 10
182.7207446823282
 20
134.1248520667358
 30
0.0
 10
182.819405207259
 20
134.2003908175569
 30
0.0
 10
182.8583721972743
 20
134.2476417546532
 30
0.0
 10
182.9577590291987
 20
134.3994655726196
 30
0.0
 10
182.9998352766222
 20
134.5122688223846
 30
0.0
 10
183.0304859154665
 20
134.6264229471197
 30
0.0
  0
ELLIPSE
  5
6E
330
1F
100
AcDbEntity
  8
0
  6
Continuous
 62
     7
370
    15
100
AcDbEllipse
 10
170.0689723722
 20
126.5299699491
 30
0.0
 11
11.70927234972706
 21
24.67718644093742
 31
0.0
210
0.0
220
0.0
230
1.0
 40
0.3419987131
 41
5.203068809370452
 42
6.114256032590495
  0
SPLINE
  5
6F
330
1F
100
AcDbEntity
  8
0
  6
Continuous
 62
     7
370
    15
100
AcDbSpline
210
0.0
220
0.0
230
1.0
 70
     8
 71
     3
 72
    12
 73
     8
 74
     0
 42
0.00000001
 43
0.00000001
 12
1.0
 22
0.0
 32
0.0
 13
1.0
 23
0.0
 33
0.0
 40
0.0
 40
0.0
 40
0.0
 40
0.0
 40
0.5
 40
0.5
 40
0.75
 40
0.75
 40
1.0
 40
1.0
 40
1.0
 40
1.0
 10
183.0304859154665
 20
150.1826114263072
 30
0.0
 10
182.9997865320992
 20
150.2217492687031
 30
0.0
 10
182.9584364639927
 20
150.2589090514286
 30
0.0
 10
182.8586805357733
 20
150.3088455570564
 30
0.0
 10
182.8189836180405
 20
150.3242984272001
 30
0.0
 10
182.7217254663929
 20
150.3482179707992
 30
0.0
 10
182.6609493084022
 20
150.3567010645775
 30
0.0
 10
182.5974732135743
 20
150.3567010645775
 30
0.0
  0
LINE
  5
70
330
1F
100
AcDbEntity
  8
0
  6
Continuous
 62
     7
370
    15
100
AcDbLine
 10
182.5974732136
 20
150.3567010646
 30
0.0
 11
179.6529868407
 21
150.3567010646
 31
0.0
  0
SPLINE
  5
71
330
1F
100
AcDbEntity
  8
0
  6
Continuous
 62
     7
370
    15
100
AcDbSpline
210
0.0
220
0.0
230
1.0
 70
     8
 71
     3
 72
    12
 73
     8
 74
     0
 42
0.00000001
 43
0.00000001
 12
1.0
 22
0.0
 32
0.0
 13
1.0
 23
0.0
 33
0.0
 40
0.0
 40
0.0
 40
0.0
 40
0.0
 40
0.25
 40
0.25
 40
0.5
 40
0.5
 40
1.0
 40
1.0
 40
1.0
 40
1.0
 10
179.6529868407072
 20
150.3567010645775
 30
0.0
 10
179.5893216041767
 20
150.3567010645775
 30
0.0
 10
179.5297153719533
 20
150.3484362889117
 30
0.0
 10
179.4310548470225
 20
150.3242175073285
 30
0.0
 10
179.3920878570072
 20
150.3089601880194
 30
0.0
 10
179.2927010250827
 20
150.2593268337575
 30
0.0
 10
179.2506247776593
 20
150.2216871255833
 30
0.0
 10
179.219974138815
 20
150.1826114263072
 30
0.0
  0
ELLIPSE
  5
72
330
1F
100
AcDbEntity
  8
0
  6
Continuous
 62
     7
370
    15
100
AcDbEllipse
 10
192.1814876821
 20
126.5299699491
 30
0.0
 11
-11.709272349727
 21
24.67718644093742
 31
0.0
210
0.0
220
0.0
230
1.0
 40
0.3419987131
 41
0.168929274589133
 42
1.080116497809148
  0
ELLIPSE
  5
73
330
1F
100
AcDbEntity
  8
0
  6
Continuous
 62
     7
370
    15
100
AcDbEllipse
 10
195.9739373522
 20
112.7026851076
 30
0.0
 11
-0.1624247525353439
 21
2.974278904359835
 31
0.0
210
0.0
220
0.0
230
1.0
 40
0.2525873267
 41
0.0
 42
6.283185307179586
  0
SPLINE
  5
74
330
1F
100
AcDbEntity
  8
0
  6
Continuous
 62
     7
370
    15
100
AcDbSpline
210
0.0
220
0.0
230
1.0
 70
     8
 71
     3
 72
    16
 73
    12
 74
     0
 42
0.00000001
 43
0.00000001
 12
1.0
 22
0.0
 32
0.0
 13
1.0
 23
0.0
 33
0.0
 40
0.0
 40
0.0
 40
0.0
 40
0.0
 40
0.25
 40
0.25
 40
0.5
 40
0.5
 40
0.625
 40
0.625
 40
0.75
 40
0.75
 40
1.0
 40
1.0
 40
1.0
 40
1.0
 10
170.0843689990117
 20
109.1808126678831
 30
0.0
 10
170.1160969602043
 20
109.1800155510622
 30
0.0
 10
170.1507245505549
 20
109.1794244762069
 30
0.0
 10
170.2304183126186
 20
109.1784129507724
 30
0.0
 10
170.2754597726223
 20
109.1780128425976
 30
0.0
 10
170.3583124994727
 20
109.1770549706937
 30
0.0
 10
170.3882269606725
 20
109.1766732894333
 30
0.0
 10
170.4542132912305
 20
109.1755970753748
 30
0.0
 10
170.4909469166923
 20
109.1748795094806
 30
0.0
 10
170.6034436362621
 20
109.172118631799
 30
0.0
 10
170.6737849843604
 20
109.1696315399274
 30
0.0
 10
170.7302531382655
 20
109.1674582615203
 30
0.0
  0
SPLINE
  5
75
330
1F
100
AcDbEntity
  8
0
  6
Continuous
 62
     7
370
    15
100
AcDbSpline
210
0.0
220
0.0
230
1.0
 70
     8
 71
     3
 72
    14
 73
    10
 74
     0
 42
0.00000001
 43
0.00000001
 12
1.0
 22
0.0
 32
0.0
 13
1.0
 23
0.0
 33
0.0
 40
0.0
 40
0.0
 40
0.0
 40
0.0
 40
0.1250000000000051
 40
0.1250000000000051
 40
0.2500000000000103
 40
0.2500000000000103
 40
0.5000000000000107
 40
0.5000000000000107
 40
1.0
 40
1.0
 40
1.0
 40
1.0
 10
170.7302531382339
 20
109.167458261543
 30
0.0
 10
170.7428449321787
 20
109.1669736437206
 30
0.0
 10
170.7577160404727
 20
109.1652634657883
 30
0.0
 10
170.7899001319059
 20
109.1571479170374
 30
0.0
 10
170.8055042633817
 20
109.1509321287761
 30
0.0
 10
170.8413914030938
 20
109.1327130170745
 30
0.0
 10
170.8552434443625
 20
109.1209479887409
 30
0.0
 10
170.8887331862951
 20
109.0891528523236
 30
0.0
 10
170.8993954468708
 20
109.0713594204805
 30
0.0
 10
170.9075334037658
 20
109.0549282896361
 30
0.0
  0
LINE
  5
76
330
1F
100
AcDbEntity
  8
0
  6
Continuous
 62
     7
370
    15
100
AcDbLine
 10
170.9252300271
 20
120.5454897165
 30
0.0
 11
170.9252300271
 21
108.6901496702
 31
0.0
  0
SPLINE
  5
77
330
1F
100
AcDbEntity
  8
0
  6
Continuous
 62
     7
370
    15
100
AcDbSpline
210
0.0
220
0.0
230
1.0
 70
     8
 71
     3
 72
    16
 73
    12
 74
     0
 42
0.00000001
 43
0.00000001
 12
1.0
 22
0.0
 32
0.0
 13
1.0
 23
0.0
 33
0.0
 40
0.0
 40
0.0
 40
0.0
 40
0.0
 40
0.500000000000005
 40
0.500000000000005
 40
0.750000000000004
 40
0.750000000000004
 40
0.8750000000000026
 40
0.8750000000000026
 40
0.9375000000000012
 40
0.9375000000000012
 40
1.0
 40
1.0
 40
1.0
 40
1.0
 10
170.9252300271407
 20
120.5454897165011
 30
0.0
 10
170.9252300271407
 20
120.6600194472
 30
0.0
 10
170.9211727250257
 20
120.7753355223895
 30
0.0
 10
170.8955154822309
 20
120.9502586122171
 30
0.0
 10
170.8842000364888
 20
121.010087915212
 30
0.0
 10
170.8501686691801
 20
121.0946791014602
 30
0.0
 10
170.8362896879763
 20
121.1233486876042
 30
0.0
 10
170.800354006209
 20
121.1531564745505
 30
0.0
 10
170.7854036869462
 20
121.1594916279101
 30
0.0
 10
170.7555051742044
 20
121.1582661650399
 30
0.0
 10
170.7419723138391
 20
121.1516675790051
 30
0.0
 10
170.7302531382651
 20
121.1430198909487
 30
0.0
  0
SPLINE
  5
78
330
1F
100
AcDbEntity
  8
0
  6
Continuous
 62
     7
370
    15
100
AcDbSpline
210
0.0
220
0.0
230
1.0
 70
     8
 71
     3
 72
    14
 73
    10
 74
     0
 42
0.00000001
 43
0.00000001
 12
1.0
 22
0.0
 32
0.0
 13
1.0
 23
0.0
 33
0.0
 40
0.0
 40
0.0
 40
0.0
 40
0.0
 40
0.25
 40
0.25
 40
0.5
 40
0.5
 40
0.75
 40
0.75
 40
1.0
 40
1.0
 40
1.0
 40
1.0
 10
170.7302531382719
 20
121.14301989094
 30
0.0
 10
170.6737934723882
 20
121.1013577812412
 30
0.0
 10
170.602920997526
 20
121.070524300653
 30
0.0
 10
170.454454639644
 20
121.0762388092661
 30
0.0
 10
170.3852594364362
 20
121.1118097366991
 30
0.0
 10
170.2755422503667
 20
121.198753649173
 30
0.0
 10
170.2302963614347
 20
121.2511859625381
 30
0.0
 10
170.1506792304678
 20
121.3597390440566
 30
0.0
 10
170.116076611011
 20
121.4167221302991
 30
0.0
 10
170.0843689990121
 20
121.475288212957
 30
0.0
  0
SPLINE
  5
79
330
1F
100
AcDbEntity
  8
0
  6
Continuous
 62
     7
370
    15
100
AcDbSpline
210
0.0
220
0.0
230
1.0
 70
     8
 71
     3
 72
    10
 73
     6
 74
     0
 42
0.00000001
 43
0.00000001
 12
1.0
 22
0.0
 32
0.0
 13
1.0
 23
0.0
 33
0.0
 40
0.0
 40
0.0
 40
0.0
 40
0.0
 40
0.5
 40
0.5
 40
1.0
 40
1.0
 40
1.0
 40
1.0
 10
169.8039096835811
 20
122.3281068046033
 30
0.0
 10
169.8347882671931
 20
122.1784782527436
 30
0.0
 10
169.8707809749164
 20
122.03198283522
 30
0.0
 10
169.9601212264135
 20
121.7467911966792
 30
0.0
 10
170.0125795292591
 20
121.6078881709633
 30
0.0
 10
170.0843689990122
 20
121.4752882129568
 30
0.0
  0
SPLINE
  5
7A
330
1F
100
AcDbEntity
  8
0
  6
Continuous
 62
     7
370
    15
100
AcDbSpline
210
0.0
220
0.0
230
1.0
 70
     8
 71
     3
 72
    10
 73
     6
 74
     0
 42
0.00000001
 43
0.00000001
 12
1.0
 22
0.0
 32
0.0
 13
1.0
 23
0.0
 33
0.0
 40
0.0
 40
0.0
 40
0.0
 40
0.0
 40
0.5
 40
0.5
 40
1.0
 40
1.0
 40
1.0
 40
1.0
 10
170.0843689990116
 20
131.5846516851933
 30
0.0
 10
170.0125795292587
 20
131.4520517271869
 30
0.0
 10
169.9601212264132
 20
131.3131487014712
 30
0.0
 10
169.8707809749163
 20
131.0279570629309
 30
0.0
 10
169.834788267193
 20
130.8814616454075
 30
0.0
 10
169.8039096835811
 20
130.7318330935481
 30
0.0
  0
SPLINE
  5
7B
330
1F
100
AcDbEntity
  8
0
  6
Continuous
 62
     7
370
    15
100
AcDbSpline
210
0.0
220
0.0
230
1.0
 70
     8
 71
     3
 72
    14
 73
    10
 74
     0
 42
0.00000001
 43
0.00000001
 12
1.0
 22
0.0
 32
0.0
 13
1.0
 23
0.0
 33
0.0
 40
0.0
 40
0.0
 40
0.0
 40
0.0
 40
0.25
 40
0.25
 40
0.5
 40
0.5
 40
0.75
 40
0.75
 40
1.0
 40
1.0
 40
1.0
 40
1.0
 10
170.0843689990109
 20
131.5846516851921
 30
0.0
 10
170.1160776984962
 20
131.6432197765107
 30
0.0
 10
170.1506855171369
 20
131.7002140384507
 30
0.0
 10
170.2303439276262
 20
131.8088141732146
 30
0.0
 10
170.2754061975211
 20
131.8611423085932
 30
0.0
 10
170.3859880430994
 20
131.9486433199555
 30
0.0
 10
170.4536321639148
 20
131.9836887762097
 30
0.0
 10
170.6038804543118
 20
131.9894331649657
 30
0.0
 10
170.6738328525422
 20
131.9585530579158
 30
0.0
 10
170.7302531382657
 20
131.9169200072027
 30
0.0
  0
SPLINE
  5
7C
330
1F
100
AcDbEntity
  8
0
  6
Continuous
 62
     7
370
    15
100
AcDbSpline
210
0.0
220
0.0
230
1.0
 70
     8
 71
     3
 72
    16
 73
    12
 74
     0
 42
0.00000001
 43
0.00000001
 12
1.0
 22
0.0
 32
0.0
 13
1.0
 23
0.0
 33
0.0
 40
0.0
 40
0.0
 40
0.0
 40
0.0
 40
0.062500000000001
 40
0.062500000000001
 40
0.125000000000002
 40
0.125000000000002
 40
0.2500000000000018
 40
0.2500000000000018
 40
0.5000000000000013
 40
0.5000000000000013
 40
1.0
 40
1.0
 40
1.0
 40
1.0
 10
170.7302531382339
 20
131.9169200071493
 30
0.0
 10
170.7419873726808
 20
131.908261207005
 30
0.0
 10
170.7555191281597
 20
131.9016571217698
 30
0.0
 10
170.7855065885896
 20
131.9004601545956
 30
0.0
 10
170.8005012949978
 20
131.9068819016616
 30
0.0
 10
170.8362417173926
 20
131.9365990550708
 30
0.0
 10
170.8502550543938
 20
131.9654064524542
 30
0.0
 10
170.8843991431752
 20
132.0504861740801
 30
0.0
 10
170.8953710472935
 20
132.1088611233498
 30
0.0
 10
170.9212165875599
 20
132.2845766481384
 30
0.0
 10
170.9252300271407
 20
132.4003716560029
 30
0.0
 10
170.9252300271407
 20
132.5144501816503
 30
0.0
  0
LINE
  5
7D
330
1F
100
AcDbEntity
  8
0
  6
Continuous
 62
     7
370
    15
100
AcDbLine
 10
170.9252300271
 20
144.369790228
 30
0.0
 11
170.9252300271
 21
132.5144501817
 31
0.0
  0
SPLINE
  5
7E
330
1F
100
AcDbEntity
  8
0
  6
Continuous
 62
     7
370
    15
100
AcDbSpline
210
0.0
220
0.0
230
1.0
 70
     8
 71
     3
 72
    14
 73
    10
 74
     0
 42
0.00000001
 43
0.00000001
 12
1.0
 22
0.0
 32
0.0
 13
1.0
 23
0.0
 33
0.0
 40
0.0
 40
0.0
 40
0.0
 40
0.0
 40
0.4999999999999996
 40
0.4999999999999996
 40
0.7500000000000031
 40
0.7500000000000031
 40
0.8750000000000016
 40
0.8750000000000016
 40
1.0
 40
1.0
 40
1.0
 40
1.0
 10
170.9126302461874
 20
144.0162322307606
 30
0.0
 10
170.9053956408094
 20
143.9987567094877
 30
0.0
 10
170.8951896885722
 20
143.9794074059679
 30
0.0
 10
170.8627957961761
 20
143.9454378763772
 30
0.0
 10
170.8496405465827
 20
143.9329853148483
 30
0.0
 10
170.8133586478148
 20
143.9125403942923
 30
0.0
 10
170.7975261496861
 20
143.9053446194843
 30
0.0
 10
170.7615504586983
 20
143.8951860983366
 30
0.0
 10
170.7443530553765
 20
143.8930242972838
 30
0.0
 10
170.7302531382614
 20
143.8924816366287
 30
0.0
  0
SPLINE
  5
7F
330
1F
100
AcDbEntity
  8
0
  6
Continuous
 62
     7
370
    15
100
AcDbSpline
210
0.0
220
0.0
230
1.0
 70
     8
 71
     3
 72
    14
 73
    10
 74
     0
 42
0.00000001
 43
0.00000001
 12
1.0
 22
0.0
 32
0.0
 13
1.0
 23
0.0
 33
0.0
 40
0.0
 40
0.0
 40
0.0
 40
0.0
 40
0.25
 40
0.25
 40
0.5
 40
0.5
 40
0.75
 40
0.75
 40
1.0
 40
1.0
 40
1.0
 40
1.0
 10
170.7302531382719
 20
143.8924816366312
 30
0.0
 10
170.6738060562137
 20
143.8903091692119
 30
0.0
 10
170.6029556721709
 20
143.8878110712945
 30
0.0
 10
170.4545192373544
 20
143.8841646125063
 30
0.0
 10
170.3853299856675
 20
143.883196865655
 30
0.0
 10
170.2756184374266
 20
143.8819293062923
 30
0.0
 10
170.2303767880842
 20
143.881526465364
 30
0.0
 10
170.1507287699004
 20
143.8805154304364
 30
0.0
 10
170.1161018541344
 20
143.8799244700417
 30
0.0
 10
170.084368999013
 20
143.8791272302683
 30
0.0
  0
SPLINE
  5
80
330
1F
100
AcDbEntity
  8
0
  6
Continuous
 62
     7
370
    15
100
AcDbSpline
210
0.0
220
0.0
230
1.0
 70
     8
 71
     3
 72
    18
 73
    14
 74
     0
 42
0.00000001
 43
0.00000001
 12
1.0
 22
0.0
 32
0.0
 13
1.0
 23
0.0
 33
0.0
 40
0.0
 40
0.0
 40
0.0
 40
0.0
 40
0.25
 40
0.25
 40
0.375
 40
0.375
 40
0.5
 40
0.5
 40
0.625
 40
0.625
 40
0.75
 40
0.75
 40
1.0
 40
1.0
 40
1.0
 40
1.0
 10
169.8039096835811
 20
130.7318330935481
 30
0.0
 10
169.6686240772788
 20
130.0762787581269
 30
0.0
 10
169.5674563310358
 20
129.3966576643293
 30
0.0
 10
169.4645949881669
 20
128.3412936578352
 30
0.0
 10
169.4384921426436
 20
127.9824795932506
 30
0.0
 10
169.4036021590988
 20
127.2563666491277
 30
0.0
 10
169.3950159008088
 20
126.8942769701115
 30
0.0
 10
169.3949161912431
 20
126.1719673126931
 30
0.0
 10
169.4034045623917
 20
125.8117475105848
 30
0.0
 10
169.4375479419123
 20
125.0931814414908
 30
0.0
 10
169.4633449237661
 20
124.7334157255754
 30
0.0
 10
169.566746055154
 20
123.6667711385811
 30
0.0
 10
169.6686040473254
 20
122.9837581992987
 30
0.0
 10
169.8039096835811
 20
122.3281068046033
 30
0.0
  0
LINE
  5
81
330
1F
100
AcDbEntity
  8
0
  6
Continuous
 62
     7
370
    15
100
AcDbLine
 10
168.9252300271
 20
131.6701224369
 30
0.0
 11
168.9252300271
 21
121.3898174613
 31
0.0
  0
LINE
  5
82
330
1F
100
AcDbEntity
  8
0
  6
Continuous
 62
     7
370
    15
100
AcDbLine
 10
142.6252300271
 20
131.3397486656
 30
0.0
 11
142.6252300271
 21
121.7201912326
 31
0.0
  0
LINE
  5
83
330
1F
100
AcDbEntity
  8
0
  6
Continuous
 62
     7
370
    15
100
AcDbLine
 10
141.1252300271
 20
130.9067359637
 30
0.0
 11
141.1252300271
 21
122.1532039345
 31
0.0
  0
LINE
  5
84
330
1F
100
AcDbEntity
  8
0
  6
Continuous
 62
     7
370
    15
100
AcDbLine
 10
142.6252300271
 20
109.6706187071
 30
0.0
 11
142.6252300271
 21
121.7201912326
 31
0.0
  0
LINE
  5
85
330
1F
100
AcDbEntity
  8
0
  6
Continuous
 62
     7
370
    15
100
AcDbLine
 10
168.9252300271
 20
109.0098711645
 30
0.0
 11
168.9252300271
 21
121.3898174613
 31
0.0
  0
LINE
  5
86
330
1F
100
AcDbEntity
  8
0
  6
Continuous
 62
     7
370
    15
100
AcDbLine
 10
142.6252300271
 20
109.6706187071
 30
0.0
 11
168.9252300271
 21
109.0098711645
 31
0.0
  0
ARC
  5
87
330
1F
100
AcDbEntity
  8
0
  6
Continuous
 62
     7
370
    15
100
AcDbCircle
 10
169.1251669381
 20
109.0048480534
 30
0.0
 40
0.2000000000000059
100
AcDbArc
 50
88.5608333333
 51
178.5608333333
  0
LINE
  5
88
330
1F
100
AcDbEntity
  8
0
  6
Continuous
 62
     7
370
    15
100
AcDbLine
 10
142.6252300271
 20
131.3397486656
 30
0.0
 11
142.6252300271
 21
143.389321191
 31
0.0
  0
LINE
  5
89
330
1F
100
AcDbEntity
  8
0
  6
Continuous
 62
     7
370
    15
100
AcDbLine
 10
142.6252300271
 20
143.389321191
 30
0.0
 11
168.9252300271
 21
144.0500687336
 31
0.0
  0
LINE
  5
8A
330
1F
100
AcDbEntity
  8
0
  6
Continuous
 62
     7
370
    15
100
AcDbLine
 10
168.9252300271
 20
131.6701224369
 30
0.0
 11
168.9252300271
 21
144.0500687336
 31
0.0
  0
ARC
  5
8B
330
1F
100
AcDbEntity
  8
0
  6
Continuous
 62
     7
370
    15
100
AcDbCircle
 10
169.1251669381
 20
144.0550918448
 30
0.0
 40
0.2000000000000066
100
AcDbArc
 50
181.4391666667
 51
271.4391666667
  0
LINE
  5
8C
330
1F
100
AcDbEntity
  8
0
  6
Continuous
 62
     7
370
    15
100
AcDbLine
 10
169.1301900492
 20
109.2047849643
 30
0.0
 11
170.084368999
 21
109.1808126679
 31
0.0
  0
LINE
  5
8D
330
1F
100
AcDbEntity
  8
0
  6
Continuous
 62
     7
370
    15
100
AcDbLine
 10
169.1301900492
 20
143.8551549338
 30
0.0
 11
170.084368999
 21
143.8791272303
 31
0.0
  0
LINE
  5
8E
330
1F
100
AcDbEntity
  8
0
  6
Continuous
 62
     7
370
    15
100
AcDbLine
 10
141.1252300271
 20
142.5232957872
 30
0.0
 11
142.6252300271
 21
143.389321191
 31
0.0
  0
LINE
  5
8F
330
1F
100
AcDbEntity
  8
0
  6
Continuous
 62
     7
370
    15
100
AcDbLine
 10
141.1252300271
 20
130.9067359637
 30
0.0
 11
141.1252300271
 21
142.5232957872
 31
0.0
  0
LINE
  5
90
330
1F
100
AcDbEntity
  8
0
  6
Continuous
 62
     7
370
    15
100
AcDbLine
 10
141.1252300271
 20
110.5366441109
 30
0.0
 11
142.6252300271
 21
109.6706187071
 31
0.0
  0
LINE
  5
91
330
1F
100
AcDbEntity
  8
0
  6
Continuous
 62
     7
370
    15
100
AcDbLine
 10
141.1252300271
 20
110.5366441109
 30
0.0
 11
141.1252300271
 21
122.1532039345
 31
0.0
  0
ARC
  5
92
330
1F
100
AcDbEntity
  8
0
  6
Continuous
 62
     7
370
    15
100
AcDbCircle
 10
224.665062694
 20
107.2981273881
 30
0.0
 40
2.098847414753863
100
AcDbArc
 50
26.238522272
 51
204.9448036191
  0
LINE
  5
93
330
1F
100
AcDbEntity
  8
0
  6
Continuous
 62
     7
370
    15
100
AcDbLine
 10
222.7620073112
 20
106.4129490557
 30
0.0
 11
223.2549968084
 21
105.3674629609
 31
0.0
  0
LINE
  5
94
330
1F
100
AcDbEntity
  8
0
  6
Continuous
 62
     7
370
    15
100
AcDbLine
 10
223.2549968084
 20
105.3674629609
 30
0.0
 11
220.6208996473
 21
103.492406573
 31
0.0
  0
ARC
  5
95
330
1F
100
AcDbEntity
  8
0
  6
Continuous
 62
     7
370
    15
100
AcDbCircle
 10
220.9695224016
 20
101.5001520611
 30
0.0
 40
2.022527098699293
100
AcDbArc
 50
99.9256375959
 51
170.6643395446
  0
LINE
  5
96
330
1F
100
AcDbEntity
  8
0
  6
Continuous
 62
     7
370
    15
100
AcDbLine
 10
218.973783787
 20
101.8282423645
 30
0.0
 11
214.9282791629
 21
96.0161988397
 31
0.0
  0
LINE
  5
97
330
1F
100
AcDbEntity
  8
0
  6
Continuous
 62
     7
370
    15
100
AcDbLine
 10
214.9282791629
 20
96.0161988397
 30
0.0
 11
210.6708452292
 21
97.9307049668
 31
0.0
  0
ARC
  5
98
330
1F
100
AcDbEntity
  8
0
  6
Continuous
 62
     7
370
    15
100
AcDbCircle
 10
200.1711858559
 20
74.568446139
 30
0.0
 40
25.61323846163083
100
AcDbArc
 50
65.7995022513
 51
79.9073466984
  0
SPLINE
  5
99
330
1F
100
AcDbEntity
  8
0
  6
Continuous
 62
     7
370
    15
100
AcDbSpline
210
0.0
220
0.0
230
1.0
 70
     8
 71
     3
 72
     8
 73
     4
 74
     0
 42
0.00000001
 43
0.00000001
 12
1.0
 22
0.0
 32
0.0
 13
1.0
 23
0.0
 33
0.0
 40
0.0
 40
0.0
 40
0.0
 40
0.0
 40
1.0
 40
1.0
 40
1.0
 40
1.0
 10
204.6596622539384
 20
99.78533659196187
 30
0.0
 10
204.54746946063
 20
100.2179200144747
 30
0.0
 10
204.4355129341669
 20
100.6505679209239
 30
0.0
 10
204.3238288654508
 20
101.0832901888349
 30
0.0
  0
SPLINE
  5
9A
330
1F
100
AcDbEntity
  8
0
  6
Continuous
 62
     7
370
    15
100
AcDbSpline
210
0.0
220
0.0
230
1.0
 70
     8
 71
     3
 72
    10
 73
     6
 74
     0
 42
0.00000001
 43
0.00000001
 12
1.0
 22
0.0
 32
0.0
 13
1.0
 23
0.0
 33
0.0
 40
0.0
 40
0.0
 40
0.0
 40
0.0
 40
0.5
 40
0.5
 40
1.0
 40
1.0
 40
1.0
 40
1.0
 10
204.3238288654508
 20
101.0832901888349
 30
0.0
 10
204.2677226810498
 20
101.3006747776752
 30
0.0
 10
204.1450504313127
 20
101.4950464061987
 30
0.0
 10
203.8024341854646
 20
101.7785208854946
 30
0.0
 10
203.5842855623186
 20
101.8636119669572
 30
0.0
 10
203.3579030391626
 20
101.8676973184593
 30
0.0
  0
SPLINE
  5
9B
330
1F
100
AcDbEntity
  8
0
  6
Continuous
 62
     7
370
    15
100
AcDbSpline
210
0.0
220
0.0
230
1.0
 70
     8
 71
     3
 72
    12
 73
     8
 74
     0
 42
0.00000001
 43
0.00000001
 12
1.0
 22
0.0
 32
0.0
 13
1.0
 23
0.0
 33
0.0
 40
0.0
 40
0.0
 40
0.0
 40
0.0
 40
0.2500000000000041
 40
0.2500000000000041
 40
0.5000000000000081
 40
0.5000000000000081
 40
1.0
 40
1.0
 40
1.0
 40
1.0
 10
203.3579030391618
 20
149.1080224831702
 30
0.0
 10
203.4480698088409
 20
149.112287515332
 30
0.0
 10
203.535661671847
 20
149.1288528403124
 30
0.0
 10
203.7060182347682
 20
149.1850427801965
 30
0.0
 10
203.7879640076387
 20
149.2248176105172
 30
0.0
 10
204.0127440643603
 20
149.3716808555987
 30
0.0
 10
204.1380978573791
 20
149.50885988555
 30
0.0
 10
204.2239284429462
 20
149.6666532617877
 30
0.0
  0
ELLIPSE
  5
9C
330
1F
100
AcDbEntity
  8
0
  6
Continuous
 62
     7
370
    15
100
AcDbEllipse
 10
274.6002245236
 20
126.5299699491
 30
0.0
 11
242.616006334701
 21
3.587767505822114
 31
0.0
210
0.0
220
0.0
230
1.0
 40
0.1040588589
 41
1.841540491798989
 42
1.863560035275943
  0
LINE
  5
9D
330
1F
100
AcDbEntity
  8
0
  6
Continuous
 62
     7
370
    15
100
AcDbLine
 10
209.3531821645
 20
149.8971010608
 30
0.0
 11
227.895491326
 21
123.8004369585
 31
0.0
  0
LINE
  5
9E
330
1F
100
AcDbEntity
  8
0
  6
Continuous
 62
     7
370
    15
100
AcDbLine
 10
227.895491326
 20
123.8004369585
 30
0.0
 11
229.6386968581
 21
103.9862296747
 31
0.0
  0
LINE
  5
9F
330
1F
100
AcDbEntity
  8
0
  6
Continuous
 62
     7
370
    15
100
AcDbLine
 10
228.7576495413
 20
103.5642601482
 30
0.0
 11
229.6386968581
 21
103.9862296747
 31
0.0
  0
LINE
  5
A0
330
1F
100
AcDbEntity
  8
0
  6
Continuous
 62
     7
370
    15
100
AcDbLine
 10
226.9125940359
 20
107.4521025366
 30
0.0
 11
226.5476476514
 21
108.2260467536
 31
0.0
  0
CIRCLE
  5
A1
330
1F
100
AcDbEntity
  8
0
  6
Continuous
 62
     7
370
    15
100
AcDbCircle
 10
213.1638926267
 20
109.1227320567
 30
0.0
 40
3.471921970270497
  0
LINE
  5
A2
330
1F
100
AcDbEntity
  8
0
  6
Continuous
 62
     7
370
    15
100
AcDbLine
 10
204.2239284429
 20
149.6666532618
 30
0.0
 11
204.2239284429
 21
152.0299699491
 31
0.0
  0
ELLIPSE
  5
A3
330
1F
100
AcDbEntity
  8
0
  6
Continuous
 62
     7
370
    15
100
AcDbEllipse
 10
225.9246265537
 20
126.5299699491
 30
0.0
 11
-18.15229867157996
 21
25.49989429286398
 31
0.0
210
0.0
220
0.0
230
1.0
 40
0.0040448756
 41
5.868396628829831
 42
6.280305938888493
  0
SPLINE
  5
A4
330
1F
100
AcDbEntity
  8
0
  6
Continuous
 62
     7
370
    15
100
AcDbSpline
210
0.0
220
0.0
230
1.0
 70
     8
 71
     3
 72
     9
 73
     5
 74
     0
 42
0.00000001
 43
0.00000001
 12
1.0
 22
0.0
 32
0.0
 13
1.0
 23
0.0
 33
0.0
 40
0.0
 40
0.0
 40
0.0
 40
0.0
 40
0.8009427000602157
 40
1.0
 40
1.0
 40
1.0
 40
1.0
 10
204.6596622539384
 20
99.78533659196187
 30
0.0
 10
204.5852873817334
 20
99.91737254692055
 30
0.0
 10
204.4924282144054
 20
100.0822232346773
 30
0.0
 10
204.4869226471291
 20
100.2279306784346
 30
0.0
 10
204.4858267237725
 20
100.2569348087701
 30
0.0
  0
LINE
  5
A5
330
1F
100
AcDbEntity
  8
0
  6
Continuous
 62
     7
370
    15
100
AcDbLine
 10
226.1737816103
 20
108.2512173939
 30
0.0
 11
225.7789277437
 21
109.0885866063
 31
0.0
  0
LINE
  5
A6
330
1F
100
AcDbEntity
  8
0
  6
Continuous
 62
     7
370
    15
100
AcDbLine
 10
228.8396373827
 20
103.3903879894
 30
0.0
 11
228.8216440593
 21
103.5949097353
 31
0.0
  0
CIRCLE
  5
A7
330
1F
100
AcDbEntity
  8
0
  6
Continuous
 62
     7
370
    15
100
AcDbCircle
 10
213.2676713316
 20
109.1047961816
 30
0.0
 40
3.478684291025703
  0
CIRCLE
  5
A8
330
1F
100
AcDbEntity
  8
0
  6
Continuous
 62
     7
370
    15
100
AcDbCircle
 10
213.2452685587
 20
109.1104373628
 30
0.0
 40
1.987519875142626
  0
SPLINE
  5
A9
330
1F
100
AcDbEntity
  8
0
  6
Continuous
 62
     7
370
    15
100
AcDbSpline
210
0.0
220
0.0
230
1.0
 70
     8
 71
     3
 72
    11
 73
     7
 74
     0
 42
0.00000001
 43
0.00000001
 12
1.0
 22
0.0
 32
0.0
 13
1.0
 23
0.0
 33
0.0
 40
0.0
 40
0.0
 40
0.0
 40
0.0
 40
0.1081100880371183
 40
0.4711580666043659
 40
0.8135808430836069
 40
1.0
 40
1.0
 40
1.0
 40
1.0
 10
212.0881682025603
 20
107.8181491016861
 30
0.0
 10
212.1426458635067
 20
107.8131074192119
 30
0.0
 10
212.3800667172929
 20
107.7911350999756
 30
0.0
 10
212.8429892344911
 20
107.7348385793439
 30
0.0
 10
213.3851032319158
 20
107.6388733536994
 30
0.0
 10
213.6816533281215
 20
107.5764816316307
 30
0.0
 10
213.7861885690453
 20
107.5544882693572
 30
0.0
  0
SPLINE
  5
AA
330
1F
100
AcDbEntity
  8
0
  6
Continuous
 62
     7
370
    15
100
AcDbSpline
210
0.0
220
0.0
230
1.0
 70
     8
 71
     3
 72
    11
 73
     7
 74
     0
 42
0.00000001
 43
0.00000001
 12
1.0
 22
0.0
 32
0.0
 13
1.0
 23
0.0
 33
0.0
 40
0.0
 40
0.0
 40
0.0
 40
0.0
 40
0.2164499953511917
 40
0.4402998152333268
 40
0.7518914760010336
 40
1.0
 40
1.0
 40
1.0
 40
1.0
 10
213.7861885690453
 20
107.5544882693572
 30
0.0
 10
213.8558541849073
 20
107.6535281996961
 30
0.0
 10
213.9975670906638
 20
107.8549939606826
 30
0.0
 10
214.2723596906652
 20
108.2132290712047
 30
0.0
 10
214.583264902016
 20
108.5761464602805
 30
0.0
 10
214.7931013681464
 20
108.7939967199122
 30
0.0
 10
214.8861194112162
 20
108.8905671836017
 30
0.0
  0
SPLINE
  5
AB
330
1F
100
AcDbEntity
  8
0
  6
Continuous
 62
     7
370
    15
100
AcDbSpline
210
0.0
220
0.0
230
1.0
 70
     8
 71
     3
 72
    11
 73
     7
 74
     0
 42
0.00000001
 43
0.00000001
 12
1.0
 22
0.0
 32
0.0
 13
1.0
 23
0.0
 33
0.0
 40
0.0
 40
0.0
 40
0.0
 40
0.0
 40
0.2164499953511749
 40
0.4402998152332883
 40
0.7518914760010249
 40
1.0
 40
1.0
 40
1.0
 40
1.0
 10
214.8861194112162
 20
108.8905671836017
 30
0.0
 10
214.8394719352235
 20
109.0076676785925
 30
0.0
 10
214.7445822355155
 20
109.2458720094567
 30
0.0
 10
214.5802985343229
 20
109.6722848788052
 30
0.0
 10
214.4202042297511
 20
110.1083369174093
 30
0.0
 10
214.3286256130423
 20
110.3729895318221
 30
0.0
 10
214.288029886902
 20
110.490306930175
 30
0.0
  0
SPLINE
  5
AC
330
1F
100
AcDbEntity
  8
0
  6
Continuous
 62
     7
370
    15
100
AcDbSpline
210
0.0
220
0.0
230
1.0
 70
     8
 71
     3
 72
    11
 73
     7
 74
     0
 42
0.00000001
 43
0.00000001
 12
1.0
 22
0.0
 32
0.0
 13
1.0
 23
0.0
 33
0.0
 40
0.0
 40
0.0
 40
0.0
 40
0.0
 40
0.1864191569163739
 40
0.528841933395654
 40
0.8918899119628759
 40
1.0
 40
1.0
 40
1.0
 40
1.0
 10
214.288029886902
 20
110.490306930175
 30
0.0
 10
214.1834946459781
 20
110.5123002924485
 30
0.0
 10
213.8869445497724
 20
110.5746920145171
 30
0.0
 10
213.3448305523478
 20
110.6706572401618
 30
0.0
 10
212.8819080351496
 20
110.7269537607933
 30
0.0
 10
212.6444871813634
 20
110.7489260800296
 30
0.0
 10
212.5900095204169
 20
110.7539677625038
 30
0.0
  0
SPLINE
  5
AD
330
1F
100
AcDbEntity
  8
0
  6
Continuous
 62
     7
370
    15
100
AcDbSpline
210
0.0
220
0.0
230
1.0
 70
     8
 71
     3
 72
    11
 73
     7
 74
     0
 42
0.00000001
 43
0.00000001
 12
1.0
 22
0.0
 32
0.0
 13
1.0
 23
0.0
 33
0.0
 40
0.0
 40
0.0
 40
0.0
 40
0.0
 40
0.2164499953511946
 40
0.4402998152333304
 40
0.7518914760010589
 40
1.0
 40
1.0
 40
1.0
 40
1.0
 10
212.5900095204169
 20
110.7539677625038
 30
0.0
 10
212.5089862993199
 20
110.6699669325022
 30
0.0
 10
212.3441698980964
 20
110.4990935172861
 30
0.0
 10
212.050119420262
 20
110.1663586025376
 30
0.0
 10
211.7508235946449
 20
109.7880687195875
 30
0.0
 10
211.5701632770452
 20
109.5315850494674
 30
0.0
 10
211.4900786782461
 20
109.4178888482595
 30
0.0
  0
SPLINE
  5
AE
330
1F
100
AcDbEntity
  8
0
  6
Continuous
 62
     7
370
    15
100
AcDbSpline
210
0.0
220
0.0
230
1.0
 70
     8
 71
     3
 72
    11
 73
     7
 74
     0
 42
0.00000001
 43
0.00000001
 12
1.0
 22
0.0
 32
0.0
 13
1.0
 23
0.0
 33
0.0
 40
0.0
 40
0.0
 40
0.0
 40
0.0
 40
0.2164499953511974
 40
0.4402998152333413
 40
0.7518914760010725
 40
1.0
 40
1.0
 40
1.0
 40
1.0
 10
211.4900786782461
 20
109.4178888482595
 30
0.0
 10
211.5253685490037
 20
109.3158274536059
 30
0.0
 10
211.5971547532445
 20
109.108215468512
 30
0.0
 10
211.7421805766043
 20
108.7073027949371
 30
0.0
 10
211.9138842669097
 20
108.2558782624586
 30
0.0
 10
212.0346390321493
 20
107.9525922375574
 30
0.0
 10
212.0881682025603
 20
107.8181491016861
 30
0.0
  0
LINE
  5
AF
330
1F
100
AcDbEntity
  8
0
  6
Continuous
 62
     7
370
    15
100
AcDbLine
 10
214.4960138755
 20
109.4071229339
 30
0.0
 11
214.8861194112
 21
108.8905671836
 31
0.0
  0
LINE
  5
B0
330
1F
100
AcDbEntity
  8
0
  6
Continuous
 62
     7
370
    15
100
AcDbLine
 10
214.4960138755
 20
109.4071229339
 30
0.0
 11
214.1969691133
 21
110.2069928072
 31
0.0
  0
LINE
  5
B1
330
1F
100
AcDbEntity
  8
0
  6
Continuous
 62
     7
370
    15
100
AcDbLine
 10
214.1969691133
 20
110.2069928072
 30
0.0
 11
214.0745947363
 21
110.5343136296
 31
0.0
  0
LINE
  5
B2
330
1F
100
AcDbEntity
  8
0
  6
Continuous
 62
     7
370
    15
100
AcDbLine
 10
213.3960830333
 20
108.0710440197
 30
0.0
 11
213.786188569
 21
107.5544882694
 31
0.0
  0
LINE
  5
B3
330
1F
100
AcDbEntity
  8
0
  6
Continuous
 62
     7
370
    15
100
AcDbLine
 10
213.3960830333
 20
108.0710440197
 30
0.0
 11
213.9460484544
 21
108.7390834768
 31
0.0
  0
LINE
  5
B4
330
1F
100
AcDbEntity
  8
0
  6
Continuous
 62
     7
370
    15
100
AcDbLine
 10
213.9460484544
 20
108.7390834768
 30
0.0
 11
214.4960138755
 21
109.4071229339
 31
0.0
  0
LINE
  5
B5
330
1F
100
AcDbEntity
  8
0
  6
Continuous
 62
     7
370
    15
100
AcDbLine
 10
211.8973644457
 20
108.3037581838
 30
0.0
 11
212.5470728501
 21
108.2028744359
 31
0.0
  0
LINE
  5
B6
330
1F
100
AcDbEntity
  8
0
  6
Continuous
 62
     7
370
    15
100
AcDbLine
 10
212.5470728501
 20
108.2028744359
 30
0.0
 11
213.3960830333
 21
108.0710440197
 31
0.0
  0
ARC
  5
B7
330
1F
100
AcDbEntity
  8
0
  6
Continuous
 62
     7
370
    15
100
AcDbCircle
 10
212.7991017592
 20
109.6905401378
 30
0.0
 40
1.490220285510877
100
AcDbArc
 50
320.3223884057
 51
20.2771320803
  0
ARC
  5
B8
330
1F
100
AcDbEntity
  8
0
  6
Continuous
 62
     7
370
    15
100
AcDbCircle
 10
212.7753966879
 20
109.7002512015
 30
0.0
 40
1.514684440153534
100
AcDbArc
 50
261.3301752497
 51
320.6121736669
  0
ARC
  5
B9
330
1F
100
AcDbEntity
  8
0
  6
Continuous
 62
     7
370
    15
100
AcDbCircle
 10
212.7704170314
 20
109.6540891325
 30
0.0
 40
1.468300622872568
100
AcDbArc
 50
226.5198472858
 51
261.2507375623
  0
ARC
  5
BA
330
1F
100
AcDbEntity
  8
0
  6
Continuous
 62
     7
370
    15
100
AcDbCircle
 10
212.8328355015
 20
109.6971926496
 30
0.0
 40
1.456281810519758
100
AcDbArc
 50
20.491579222
 51
35.9387851983
  0
ELLIPSE
  5
BB
330
1F
100
AcDbEntity
  8
0
  6
Continuous
 62
     7
370
    15
100
AcDbEllipse
 10
223.8148102779
 20
98.7195230778
 30
0.0
 11
1.895184197371663
 21
1.38965025227607
 31
0.0
210
0.0
220
0.0
230
1.0
 40
0.9861321518
 41
4.872421183339056
 42
6.723771170793845
  0
ELLIPSE
  5
BC
330
1F
100
AcDbEntity
  8
0
  6
Continuous
 62
     7
370
    15
100
AcDbEllipse
 10
223.8148102779
 20
98.7195230778
 30
0.0
 11
1.895184197371663
 21
1.38965025227607
 31
0.0
210
0.0
220
0.0
230
1.0
 40
0.9861321518
 41
2.993016045260493
 42
4.872421183339073
  0
SPLINE
  5
BD
330
1F
100
AcDbEntity
  8
0
  6
Continuous
 62
     7
370
    15
100
AcDbSpline
210
0.0
220
0.0
230
1.0
 70
     8
 71
     3
 72
    12
 73
     8
 74
     0
 42
0.00000001
 43
0.00000001
 12
1.0
 22
0.0
 32
0.0
 13
1.0
 23
0.0
 33
0.0
 40
0.0
 40
0.0
 40
0.0
 40
0.0
 40
0.1010928897272288
 40
0.3723757236814985
 40
0.5801199072297991
 40
0.9988026112199054
 40
1.0
 40
1.0
 40
1.0
 40
1.0
 10
225.7851508199999
 20
100.0298344737857
 30
0.0
 10
225.7781782337192
 20
100.0511973965419
 30
0.0
 10
225.7524947077143
 20
100.1298877361169
 30
0.0
 10
225.7004134051741
 20
100.2444977318519
 30
0.0
 10
225.6124553604298
 20
100.4118902121382
 30
0.0
 10
225.5424704211723
 20
100.5225369228806
 30
0.0
 10
225.4932183522681
 20
100.5835739921632
 30
0.0
 10
225.4930778981821
 20
100.5837480540042
 30
0.0
  0
LINE
  5
BE
330
1F
100
AcDbEntity
  8
0
  6
Continuous
 62
     7
370
    15
100
AcDbLine
 10
222.1308027873
 20
97.081240113
 30
0.0
 11
221.9188499415
 21
97.1445105037
 31
0.0
  0
ARC
  5
BF
330
1F
100
AcDbEntity
  8
0
  6
Continuous
 62
     7
370
    15
100
AcDbCircle
 10
215.3197679368
 20
95.8056507509
 30
0.0
 40
0.3921535635117552
100
AcDbArc
 50
144.6610271937
 51
245.5756012451
  0
LINE
  5
C0
330
1F
100
AcDbEntity
  8
0
  6
Continuous
 62
     7
370
    15
100
AcDbLine
 10
219.6834847729
 20
102.7612714531
 30
0.0
 11
214.9998708868
 21
96.0324773252
 31
0.0
  0
LINE
  5
C1
330
1F
100
AcDbEntity
  8
0
  6
Continuous
 62
     7
370
    15
100
AcDbLine
 10
226.3723786086
 20
107.5226953291
 30
0.0
 11
219.6834847729
 21
102.7612714531
 31
0.0
  0
ARC
  5
C2
330
1F
100
AcDbEntity
  8
0
  6
Continuous
 62
     7
370
    15
100
AcDbCircle
 10
226.6047598409
 20
107.2027077503
 30
0.0
 40
0.3954656593101674
100
AcDbArc
 50
25.7051263171
 51
125.9878859011
  0
LINE
  5
C3
330
1F
100
AcDbEntity
  8
0
  6
Continuous
 62
     7
370
    15
100
AcDbLine
 10
230.4120345557
 20
100.0557948811
 30
0.0
 11
226.9610895138
 21
107.374236908
 31
0.0
  0
LINE
  5
C4
330
1F
100
AcDbEntity
  8
0
  6
Continuous
 62
     7
370
    15
100
AcDbLine
 10
231.1237162447
 20
91.9664398131
 30
0.0
 11
230.4120345557
 21
100.0557948811
 31
0.0
  0
ARC
  5
C5
330
1F
100
AcDbEntity
  8
0
  6
Continuous
 62
     7
370
    15
100
AcDbCircle
 10
230.7216308945
 20
91.9334169019
 30
0.0
 40
0.4034391422338969
100
AcDbArc
 50
265.894863421
 51
4.6951137195
  0
LINE
  5
C6
330
1F
100
AcDbEntity
  8
0
  6
Continuous
 62
     7
370
    15
100
AcDbLine
 10
222.5581910231
 20
92.1206607344
 30
0.0
 11
230.6927499512
 21
91.5310128356
 31
0.0
  0
LINE
  5
C7
330
1F
100
AcDbEntity
  8
0
  6
Continuous
 62
     7
370
    15
100
AcDbLine
 10
215.1576154984
 20
95.4485919265
 30
0.0
 11
222.5581910231
 21
92.1206607344
 31
0.0
  0
ARC
  5
C8
330
1F
100
AcDbEntity
  8
0
  6
Continuous
 62
     7
370
    15
100
AcDbCircle
 10
215.3200663771
 20
95.8058705241
 30
0.0
 40
0.3725458853362447
100
AcDbArc
 50
144.6610271937
 51
245.5756012451
  0
LINE
  5
C9
330
1F
100
AcDbEntity
  8
0
  6
Continuous
 62
     7
370
    15
100
AcDbLine
 10
215.1660215607
 20
95.4666646409
 30
0.0
 11
222.5634184639
 21
92.1401628287
 31
0.0
  0
LINE
  5
CA
330
1F
100
AcDbEntity
  8
0
  6
Continuous
 62
     7
370
    15
100
AcDbLine
 10
222.5634184639
 20
92.1401628287
 30
0.0
 11
230.6944835171
 21
91.5507681899
 31
0.0
  0
ARC
  5
CB
330
1F
100
AcDbEntity
  8
0
  6
Continuous
 62
     7
370
    15
100
AcDbCircle
 10
230.721920413
 20
91.9330520531
 30
0.0
 40
0.3832671853128937
100
AcDbArc
 50
265.8948634593
 51
4.6951136386
  0
LINE
  5
CC
330
1F
100
AcDbEntity
  8
0
  6
Continuous
 62
     7
370
    15
100
AcDbLine
 10
231.1039014959
 20
91.9644238183
 30
0.0
 11
230.3925254814
 21
100.050304427
 31
0.0
  0
LINE
  5
CD
330
1F
100
AcDbEntity
  8
0
  6
Continuous
 62
     7
370
    15
100
AcDbLine
 10
230.3925254814
 20
100.050304427
 30
0.0
 11
226.943062655
 21
107.3656031094
 31
0.0
  0
ARC
  5
CE
330
1F
100
AcDbEntity
  8
0
  6
Continuous
 62
     7
370
    15
100
AcDbCircle
 10
226.6045494658
 20
107.2026504096
 30
0.0
 40
0.3756923763447086
100
AcDbArc
 50
25.7051263171
 51
125.9878859011
  0
LINE
  5
CF
330
1F
100
AcDbEntity
  8
0
  6
Continuous
 62
     7
370
    15
100
AcDbLine
 10
226.3837872952
 20
107.5066386094
 30
0.0
 11
219.6977664065
 21
102.7472598129
 31
0.0
  0
LINE
  5
D0
330
1F
100
AcDbEntity
  8
0
  6
Continuous
 62
     7
370
    15
100
AcDbLine
 10
219.6977664065
 20
102.7472598129
 30
0.0
 11
215.0161641797
 21
96.0213557696
 31
0.0
  0
LINE
  5
D1
330
1F
100
AcDbEntity
  8
0
  6
Continuous
 62
     7
370
    15
100
AcDbLine
 10
226.5776195147
 20
107.2319272887
 30
0.0
 11
226.3837872952
 21
107.5066386094
 31
0.0
  0
LINE
  5
D2
330
1F
100
AcDbEntity
  8
0
  6
Continuous
 62
     7
370
    15
100
AcDbLine
 10
226.3026416025
 20
106.3881056328
 30
0.0
 11
226.5776195147
 21
107.2319272887
 31
0.0
  0
LINE
  5
D3
330
1F
100
AcDbEntity
  8
0
  6
Continuous
 62
     7
370
    15
100
AcDbLine
 10
219.8800131783
 20
102.5742299164
 30
0.0
 11
219.6977664065
 21
102.7472598129
 31
0.0
  0
LINE
  5
D4
330
1F
100
AcDbEntity
  8
0
  6
Continuous
 62
     7
370
    15
100
AcDbLine
 10
215.3028039204
 20
95.8404125674
 30
0.0
 11
215.0161641797
 21
96.0213557696
 31
0.0
  0
LINE
  5
D5
330
1F
100
AcDbEntity
  8
0
  6
Continuous
 62
     7
370
    15
100
AcDbLine
 10
216.158618173
 20
96.1390872551
 30
0.0
 11
215.3028039204
 21
95.8404125674
 31
0.0
  0
LINE
  5
D6
330
1F
100
AcDbEntity
  8
0
  6
Continuous
 62
     7
370
    15
100
AcDbLine
 10
219.5489010068
 20
102.9394796863
 30
0.0
 11
219.6834847729
 21
102.7612714531
 31
0.0
  0
LINE
  5
D7
330
1F
100
AcDbEntity
  8
0
  6
Continuous
 62
     7
370
    15
100
AcDbLine
 10
225.8748231235
 20
108.1815302427
 30
0.0
 11
222.9199028112
 21
106.078099022
 31
0.0
  0
ARC
  5
D8
330
1F
100
AcDbEntity
  8
0
  6
Continuous
 62
     7
370
    15
100
AcDbCircle
 10
223.3317919735
 20
95.0625638423
 30
0.0
 40
0.9874058866879808
100
AcDbArc
 50
245.8127164439
 51
265.8802957743
  0
LINE
  5
D9
330
1F
100
AcDbEntity
  8
0
  6
Continuous
 62
     7
370
    15
100
AcDbLine
 10
218.820975944
 20
96.008364648
 30
0.0
 11
222.9272314566
 21
94.1618412584
 31
0.0
  0
ARC
  5
DA
330
1F
100
AcDbEntity
  8
0
  6
Continuous
 62
     7
370
    15
100
AcDbCircle
 10
219.2263570399
 20
96.9010117091
 30
0.0
 40
0.9803839087795506
100
AcDbArc
 50
144.6610271937
 51
245.5756012451
  0
LINE
  5
DB
330
1F
100
AcDbEntity
  8
0
  6
Continuous
 62
     7
370
    15
100
AcDbLine
 10
221.0253468074
 20
101.2015915572
 30
0.0
 11
218.426614415
 21
97.4680781447
 31
0.0
  0
ARC
  5
DC
330
1F
100
AcDbEntity
  8
0
  6
Continuous
 62
     7
370
    15
100
AcDbCircle
 10
221.8576280178
 20
100.622079828
 30
0.0
 40
1.014162638510679
100
AcDbArc
 50
125.4392085403
 51
145.1507686002
  0
LINE
  5
DD
330
1F
100
AcDbEntity
  8
0
  6
Continuous
 62
     7
370
    15
100
AcDbLine
 10
224.9809516128
 20
104.0902555146
 30
0.0
 11
221.2695771265
 21
101.4483497637
 31
0.0
  0
ARC
  5
DE
330
1F
100
AcDbEntity
  8
0
  6
Continuous
 62
     7
370
    15
100
AcDbCircle
 10
225.5619046935
 20
103.2902865676
 30
0.0
 40
0.9886641482755748
100
AcDbArc
 50
25.7051263171
 51
125.9878859011
  0
LINE
  5
DF
330
1F
100
AcDbEntity
  8
0
  6
Continuous
 62
     7
370
    15
100
AcDbLine
 10
228.3675072675
 20
99.658426233
 30
0.0
 11
226.4527288756
 21
103.7191094618
 31
0.0
  0
ARC
  5
E0
330
1F
100
AcDbEntity
  8
0
  6
Continuous
 62
     7
370
    15
100
AcDbCircle
 10
227.4843762714
 20
99.2423156715
 30
0.0
 40
0.9762521988333559
100
AcDbArc
 50
5.0079174424
 51
25.228711093
  0
LINE
  5
E1
330
1F
100
AcDbEntity
  8
0
  6
Continuous
 62
     7
370
    15
100
AcDbLine
 10
228.851782795
 20
94.839106906
 30
0.0
 11
228.4569017689
 21
99.3275360467
 31
0.0
  0
ARC
  5
E2
330
1F
100
AcDbEntity
  8
0
  6
Continuous
 62
     7
370
    15
100
AcDbCircle
 10
227.8465694196
 20
94.7565496279
 30
0.0
 40
1.008597855584779
100
AcDbArc
 50
265.894863421
 51
4.6951137195
  0
LINE
  5
E3
330
1F
100
AcDbEntity
  8
0
  6
Continuous
 62
     7
370
    15
100
AcDbLine
 10
223.2608562769
 20
94.0777092784
 30
0.0
 11
227.7743670612
 21
93.7505394621
 31
0.0
  0
CIRCLE
  5
E4
330
1F
100
AcDbEntity
  8
0
  6
Continuous
 62
     7
370
    15
100
AcDbCircle
 10
224.1842974761
 20
98.3210540145
 30
0.0
 40
2.563418875805428
  0
SPLINE
  5
E5
330
1F
100
AcDbEntity
  8
0
  6
Continuous
 62
     7
370
    15
100
AcDbSpline
210
0.0
220
0.0
230
1.0
 70
     8
 71
     3
 72
    11
 73
     7
 74
     0
 42
0.00000001
 43
0.00000001
 12
1.0
 22
0.0
 32
0.0
 13
1.0
 23
0.0
 33
0.0
 40
0.0
 40
0.0
 40
0.0
 40
0.0
 40
0.3428198029224038
 40
0.6843499542184672
 40
0.995118856169984
 40
1.0
 40
1.0
 40
1.0
 40
1.0
 10
226.3026416025193
 20
106.3881056328276
 30
0.0
 10
226.2545185528288
 20
106.2313805100421
 30
0.0
 10
226.1584534872407
 20
105.9185198477091
 30
0.0
 10
226.0366540869782
 20
105.4189066494955
 30
0.0
 10
225.9714140935476
 20
105.1060443381372
 30
0.0
 10
225.9441663622231
 20
104.9623517822235
 30
0.0
 10
225.9437450092171
 20
104.9601297517119
 30
0.0
  0
LINE
  5
E6
330
1F
100
AcDbEntity
  8
0
  6
Continuous
 62
     7
370
    15
100
AcDbLine
 10
226.5776195147
 20
107.2319272887
 30
0.0
 11
226.943062655
 21
107.3656031094
 31
0.0
  0
LINE
  5
E7
330
1F
100
AcDbEntity
  8
0
  6
Continuous
 62
     7
370
    15
100
AcDbLine
 10
230.1037653208
 20
99.9960509025
 30
0.0
 11
230.3925254814
 21
100.050304427
 31
0.0
  0
ARC
  5
E8
330
1F
100
AcDbEntity
  8
0
  6
Continuous
 62
     7
370
    15
100
AcDbCircle
 10
226.1074132301
 20
107.8605542857
 30
0.0
 40
0.3963883483458429
100
AcDbArc
 50
37.4267288511
 51
125.9283658729
  0
SPLINE
  5
E9
330
1F
100
AcDbEntity
  8
0
  6
Continuous
 62
     7
370
    15
100
AcDbSpline
210
0.0
220
0.0
230
1.0
 70
     8
 71
     3
 72
    11
 73
     7
 74
     0
 42
0.00000001
 43
0.00000001
 12
1.0
 22
0.0
 32
0.0
 13
1.0
 23
0.0
 33
0.0
 40
0.0
 40
0.0
 40
0.0
 40
0.0
 40
0.3219798907253772
 40
0.6440235861688468
 40
0.9911766261994231
 40
1.0
 40
1.0
 40
1.0
 40
1.0
 10
219.8800131782911
 20
102.5742299164194
 30
0.0
 10
219.981449003526
 20
102.4771766764172
 30
0.0
 10
220.1843407548915
 20
102.2830509639861
 30
0.0
 10
220.5570049807401
 20
101.9173379075202
 30
0.0
 10
220.8086022696099
 20
101.6663008180852
 30
0.0
 10
220.9311556097975
 20
101.5427622409682
 30
0.0
 10
220.9341932659144
 20
101.5397001643745
 30
0.0
  0
SPLINE
  5
EA
330
1F
100
AcDbEntity
  8
0
  6
Continuous
 62
     7
370
    15
100
AcDbSpline
210
0.0
220
0.0
230
1.0
 70
     8
 71
     3
 72
    11
 73
     7
 74
     0
 42
0.00000001
 43
0.00000001
 12
1.0
 22
0.0
 32
0.0
 13
1.0
 23
0.0
 33
0.0
 40
0.0
 40
0.0
 40
0.0
 40
0.0
 40
0.0048811438300517
 40
0.3156500457815691
 40
0.6571801970776037
 40
1.0
 40
1.0
 40
1.0
 40
1.0
 10
217.5813874250343
 20
96.51121821710495
 30
0.0
 10
217.57920634681
 20
96.51081088011838
 30
0.0
 10
217.4381620618348
 20
96.48446952593272
 30
0.0
 10
217.1296490904377
 20
96.41971037063524
 30
0.0
 10
216.6327606873035
 20
96.29423208408369
 30
0.0
 10
216.3168641125604
 20
96.19086712824966
 30
0.0
 10
216.1586181729943
 20
96.13908725514575
 30
0.0
  0
LINE
  5
EB
330
1F
100
AcDbEntity
  8
0
  6
Continuous
 62
     7
370
    15
100
AcDbLine
 10
215.3028039204
 20
95.8404125674
 30
0.0
 11
215.1660215607
 21
95.4666646409
 31
0.0
  0
LINE
  5
EC
330
1F
100
AcDbEntity
  8
0
  6
Continuous
 62
     7
370
    15
100
AcDbLine
 10
222.6194593085
 20
92.4342791462
 30
0.0
 11
222.5634184639
 21
92.1401628287
 31
0.0
  0
ARC
  5
ED
330
1F
100
AcDbEntity
  8
0
  6
Continuous
 62
     7
370
    15
100
AcDbCircle
 10
223.7274233009
 20
99.0037233457
 30
0.0
 40
2.557749431727251
100
AcDbArc
 50
322.3621473873
 51
27.2836731404
  0
ARC
  5
EE
330
1F
100
AcDbEntity
  8
0
  6
Continuous
 62
     7
370
    15
100
AcDbCircle
 10
223.6725468089
 20
98.9422070172
 30
0.0
 40
2.524870790620068
100
AcDbArc
 50
226.5966916845
 51
260.1157154798
  0
LINE
  5
EF
330
1F
100
AcDbEntity
  8
0
  6
Continuous
 62
     7
370
    15
100
AcDbLine
 10
230.7044884452
 20
91.9564862685
 30
0.0
 11
231.1039014959
 21
91.9644238183
 31
0.0
  0
LINE
  5
F0
330
1F
100
AcDbEntity
  8
0
  6
Continuous
 62
     7
370
    15
100
AcDbLine
 10
230.0156118743
 20
92.6446940169
 30
0.0
 11
230.7044884452
 21
91.9564862685
 31
0.0
  0
SPLINE
  5
F1
330
1F
100
AcDbEntity
  8
0
  6
Continuous
 62
     7
370
    15
100
AcDbSpline
210
0.0
220
0.0
230
1.0
 70
     8
 71
     3
 72
    11
 73
     7
 74
     0
 42
0.00000001
 43
0.00000001
 12
1.0
 22
0.0
 32
0.0
 13
1.0
 23
0.0
 33
0.0
 40
0.0
 40
0.0
 40
0.0
 40
0.0
 40
0.3224837050121951
 40
0.6449232485211653
 40
0.9911766421304128
 40
0.9999999999999999
 40
0.9999999999999999
 40
0.9999999999999999
 40
0.9999999999999999
 10
230.103765320818
 20
99.99605090252106
 30
0.0
 10
229.9479448911917
 20
99.96374944699029
 30
0.0
 10
229.6363253702712
 20
99.89915095934863
 30
0.0
 10
229.127903349453
 20
99.75555634288429
 30
0.0
 10
228.8135079803236
 20
99.64742644045121
 30
0.0
 10
228.6692369772908
 20
99.59140830557848
 30
0.0
 10
228.6656519645164
 20
99.59001630216203
 30
0.0
  0
SPLINE
  5
F2
330
1F
100
AcDbEntity
  8
0
  6
Continuous
 62
     7
370
    15
100
AcDbSpline
210
0.0
220
0.0
230
1.0
 70
     8
 71
     3
 72
    11
 73
     7
 74
     0
 42
0.00000001
 43
0.00000001
 12
1.0
 22
0.0
 32
0.0
 13
1.0
 23
0.0
 33
0.0
 40
0.0
 40
0.0
 40
0.0
 40
0.0
 40
0.0088233741927958
 40
0.3559983152956031
 40
0.6780419869442696
 40
1.0
 40
1.0
 40
1.0
 40
1.0
 10
223.0058313805189
 20
93.87161417279403
 30
0.0
 10
223.0045682626465
 20
93.86810786682679
 30
0.0
 10
222.9536050115392
 20
93.72663828954525
 30
0.0
 10
222.8537556082539
 20
93.41596068754002
 30
0.0
 10
222.7171787002126
 20
92.90780988654015
 30
0.0
 10
222.652029550575
 20
92.59210872921044
 30
0.0
 10
222.6194593084967
 20
92.43427914623362
 30
0.0
  0
LINE
  5
F3
330
1F
100
AcDbEntity
  8
0
  6
Continuous
 62
     7
370
    15
100
AcDbLine
 10
230.7044884452
 20
91.9564862685
 30
0.0
 11
230.6944835171
 21
91.5507681899
 31
0.0
  0
SPLINE
  5
F4
330
1F
100
AcDbEntity
  8
0
  6
Continuous
 62
     7
370
    15
100
AcDbSpline
210
0.0
220
0.0
230
1.0
 70
     8
 71
     3
 72
    11
 73
     7
 74
     0
 42
0.00000001
 43
0.00000001
 12
1.0
 22
0.0
 32
0.0
 13
1.0
 23
0.0
 33
0.0
 40
0.0
 40
0.0
 40
0.0
 40
0.0
 40
0.0048811438300696
 40
0.3156500457815755
 40
0.6571801970776064
 40
1.0
 40
1.0
 40
1.0
 40
1.0
 10
229.0045803205576
 20
93.63056972481162
 30
0.0
 10
229.0059542295056
 20
93.62926590743365
 30
0.0
 10
229.0948011140506
 20
93.54495165049417
 30
0.0
 10
229.2968441873467
 20
93.35144280902502
 30
0.0
 10
229.6450990406647
 20
93.01284016488478
 30
0.0
 10
229.8919525319985
 20
92.7675634734958
 30
0.0
 10
230.0156118743103
 20
92.6446940168894
 30
0.0
  0
LINE
  5
F5
330
1F
100
AcDbEntity
  8
0
  6
Continuous
 62
     7
370
    15
100
AcDbLine
 10
225.292295414
 20
107.766863571
 30
0.0
 11
222.9199028112
 21
106.078099022
 31
0.0
  0
LINE
  5
F6
330
1F
100
AcDbEntity
  8
0
  6
Continuous
 62
     7
370
    15
100
AcDbLine
 10
224.8260984678
 20
108.3841752758
 30
0.0
 11
222.6215165939
 21
106.8148651584
 31
0.0
  0
ARC
  5
F7
330
1F
100
AcDbEntity
  8
0
  6
Continuous
 62
     7
370
    15
100
AcDbCircle
 10
225.4075280498
 20
107.5774028548
 30
0.0
 40
0.9944556793151316
100
AcDbArc
 50
43.0065996611
 51
125.7797642448
  0
LINE
  5
F8
330
1F
100
AcDbEntity
  8
0
  6
HIDDEN
 62
     7
370
     0
100
AcDbLine
 10
171.1252300271
 20
151.2299699491
 30
0.0
 11
171.1252300271
 21
101.8299699491
 31
0.0
  0
SPLINE
  5
F9
330
1F
100
AcDbEntity
  8
0
  6
HIDDEN
 62
     7
370
     0
100
AcDbSpline
210
0.0
220
0.0
230
1.0
 70
     8
 71
     3
 72
    12
 73
     8
 74
     0
 42
0.00000001
 43
0.00000001
 12
1.0
 22
0.0
 32
0.0
 13
1.0
 23
0.0
 33
0.0
 40
0.0
 40
0.0
 40
0.0
 40
0.0
 40
0.5
 40
0.5
 40
0.75
 40
0.75
 40
1.0
 40
1.0
 40
1.0
 40
1.0
 10
179.219974138815
 20
150.1826114263074
 30
0.0
 10
179.2506735221823
 20
150.2217492687033
 30
0.0
 10
179.2920235902887
 20
150.2589090514288
 30
0.0
 10
179.3917795185082
 20
150.3088455570565
 30
0.0
 10
179.4314764362409
 20
150.3242984272003
 30
0.0
 10
179.5287345878886
 20
150.3482179707993
 30
0.0
 10
179.5895107458792
 20
150.3567010645777
 30
0.0
 10
179.6529868407072
 20
150.3567010645777
 30
0.0
  0
LINE
  5
FA
330
1F
100
AcDbEntity
  8
0
  6
HIDDEN
 62
     7
370
     0
100
AcDbLine
 10
179.6529868407
 20
150.3567010646
 30
0.0
 11
182.5974732136
 21
150.3567010646
 31
0.0
  0
SPLINE
  5
FB
330
1F
100
AcDbEntity
  8
0
  6
HIDDEN
 62
     7
370
     0
100
AcDbSpline
210
0.0
220
0.0
230
1.0
 70
     8
 71
     3
 72
    12
 73
     8
 74
     0
 42
0.00000001
 43
0.00000001
 12
1.0
 22
0.0
 32
0.0
 13
1.0
 23
0.0
 33
0.0
 40
0.0
 40
0.0
 40
0.0
 40
0.0
 40
0.2499999999999993
 40
0.2499999999999993
 40
0.4999999999999987
 40
0.4999999999999987
 40
1.0
 40
1.0
 40
1.0
 40
1.0
 10
182.5974732135743
 20
150.3567010645777
 30
0.0
 10
182.6611384501048
 20
150.3567010645777
 30
0.0
 10
182.7207446823282
 20
150.3484362889119
 30
0.0
 10
182.819405207259
 20
150.3242175073287
 30
0.0
 10
182.8583721972743
 20
150.3089601880196
 30
0.0
 10
182.9577590291987
 20
150.2593268337577
 30
0.0
 10
182.9998352766222
 20
150.2216871255835
 30
0.0
 10
183.0304859154665
 20
150.1826114263074
 30
0.0
  0
ELLIPSE
  5
FC
330
1F
100
AcDbEntity
  8
0
  6
HIDDEN
 62
     7
370
     0
100
AcDbEllipse
 10
170.0689723722
 20
126.5299699491
 30
0.0
 11
11.70927234972726
 21
24.67718644093742
 31
0.0
210
0.0
220
0.0
230
1.0
 40
0.3419987131
 41
5.20306880937047
 42
6.114256032590515
  0
SPLINE
  5
FD
330
1F
100
AcDbEntity
  8
0
  6
HIDDEN
 62
     7
370
     0
100
AcDbSpline
210
0.0
220
0.0
230
1.0
 70
     8
 71
     3
 72
    12
 73
     8
 74
     0
 42
0.00000001
 43
0.00000001
 12
1.0
 22
0.0
 32
0.0
 13
1.0
 23
0.0
 33
0.0
 40
0.0
 40
0.0
 40
0.0
 40
0.0
 40
0.5000000000000013
 40
0.5000000000000013
 40
0.7500000000000007
 40
0.7500000000000007
 40
1.0
 40
1.0
 40
1.0
 40
1.0
 10
183.0304859154665
 20
134.6264229471202
 30
0.0
 10
182.9997865320992
 20
134.5120872800564
 30
0.0
 10
182.9584364639927
 20
134.400733927215
 30
0.0
 10
182.8586805357733
 20
134.2479971549663
 30
0.0
 10
182.8189836180405
 20
134.2001372691142
 30
0.0
 10
182.7217254663929
 20
134.1255341557647
 30
0.0
 10
182.6609493084022
 20
134.0987799182566
 30
0.0
 10
182.5974732135743
 20
134.0987799182566
 30
0.0
  0
LINE
  5
FE
330
1F
100
AcDbEntity
  8
0
  6
HIDDEN
 62
     7
370
     0
100
AcDbLine
 10
182.5974732136
 20
134.0987799183
 30
0.0
 11
179.6529868407
 21
134.0987799183
 31
0.0
  0
SPLINE
  5
FF
330
1F
100
AcDbEntity
  8
0
  6
HIDDEN
 62
     7
370
     0
100
AcDbSpline
210
0.0
220
0.0
230
1.0
 70
     8
 71
     3
 72
    12
 73
     8
 74
     0
 42
0.00000001
 43
0.00000001
 12
1.0
 22
0.0
 32
0.0
 13
1.0
 23
0.0
 33
0.0
 40
0.0
 40
0.0
 40
0.0
 40
0.0
 40
0.2499999999999984
 40
0.2499999999999984
 40
0.4999999999999968
 40
0.4999999999999968
 40
1.0
 40
1.0
 40
1.0
 40
1.0
 10
179.6529868407072
 20
134.0987799182566
 30
0.0
 10
179.5893216041767
 20
134.0987799182566
 30
0.0
 10
179.5297153719533
 20
134.1248520667363
 30
0.0
 10
179.4310548470225
 20
134.2003908175574
 30
0.0
 10
179.3920878570072
 20
134.2476417546536
 30
0.0
 10
179.2927010250828
 20
134.3994655726201
 30
0.0
 10
179.2506247776593
 20
134.5122688223851
 30
0.0
 10
179.219974138815
 20
134.6264229471202
 30
0.0
  0
ELLIPSE
  5
100
330
1F
100
AcDbEntity
  8
0
  6
HIDDEN
 62
     7
370
     0
100
AcDbEllipse
 10
192.1814876821
 20
126.5299699491
 30
0.0
 11
-11.70927234972714
 21
24.67718644093745
 31
0.0
210
0.0
220
0.0
230
1.0
 40
0.3419987131
 41
0.1689292745891176
 42
1.080116497809135
  0
SPLINE
  5
101
330
1F
100
AcDbEntity
  8
0
  6
HIDDEN
 62
     7
370
     0
100
AcDbSpline
210
0.0
220
0.0
230
1.0
 70
     8
 71
     3
 72
    12
 73
     8
 74
     0
 42
0.00000001
 43
0.00000001
 12
1.0
 22
0.0
 32
0.0
 13
1.0
 23
0.0
 33
0.0
 40
0.0
 40
0.0
 40
0.0
 40
0.0
 40
0.5000000000000013
 40
0.5000000000000013
 40
0.7500000000000007
 40
0.7500000000000007
 40
1.0
 40
1.0
 40
1.0
 40
1.0
 10
179.219974138815
 20
118.4335169510314
 30
0.0
 10
179.2506735221822
 20
118.5478526180953
 30
0.0
 10
179.2920235902888
 20
118.6592059709367
 30
0.0
 10
179.3917795185082
 20
118.8119427431854
 30
0.0
 10
179.4314764362409
 20
118.8598026290375
 30
0.0
 10
179.5287345878886
 20
118.934405742387
 30
0.0
 10
179.5895107458793
 20
118.9611599798951
 30
0.0
 10
179.6529868407072
 20
118.9611599798951
 30
0.0
  0
LINE
  5
102
330
1F
100
AcDbEntity
  8
0
  6
HIDDEN
 62
     7
370
     0
100
AcDbLine
 10
179.6529868407
 20
118.9611599799
 30
0.0
 11
182.5974732136
 21
118.9611599799
 31
0.0
  0
SPLINE
  5
103
330
1F
100
AcDbEntity
  8
0
  6
HIDDEN
 62
     7
370
     0
100
AcDbSpline
210
0.0
220
0.0
230
1.0
 70
     8
 71
     3
 72
    12
 73
     8
 74
     0
 42
0.00000001
 43
0.00000001
 12
1.0
 22
0.0
 32
0.0
 13
1.0
 23
0.0
 33
0.0
 40
0.0
 40
0.0
 40
0.0
 40
0.0
 40
0.2500000000000002
 40
0.2500000000000002
 40
0.5000000000000004
 40
0.5000000000000004
 40
1.0
 40
1.0
 40
1.0
 40
1.0
 10
182.5974732135743
 20
118.9611599798951
 30
0.0
 10
182.6611384501048
 20
118.9611599798951
 30
0.0
 10
182.7207446823282
 20
118.9350878314154
 30
0.0
 10
182.819405207259
 20
118.8595490805943
 30
0.0
 10
182.8583721972743
 20
118.812298143498
 30
0.0
 10
182.9577590291987
 20
118.6604743255316
 30
0.0
 10
182.9998352766222
 20
118.5476710757665
 30
0.0
 10
183.0304859154665
 20
118.4335169510314
 30
0.0
  0
ELLIPSE
  5
104
330
1F
100
AcDbEntity
  8
0
  6
HIDDEN
 62
     7
370
     0
100
AcDbEllipse
 10
170.0689723722
 20
126.5299699491
 30
0.0
 11
-11.70927234972715
 21
24.67718644093742
 31
0.0
210
0.0
220
0.0
230
1.0
 40
0.3419987131
 41
3.310521928178957
 42
4.221709151398947
  0
SPLINE
  5
105
330
1F
100
AcDbEntity
  8
0
  6
HIDDEN
 62
     7
370
     0
100
AcDbSpline
210
0.0
220
0.0
230
1.0
 70
     8
 71
     3
 72
    12
 73
     8
 74
     0
 42
0.00000001
 43
0.00000001
 12
1.0
 22
0.0
 32
0.0
 13
1.0
 23
0.0
 33
0.0
 40
0.0
 40
0.0
 40
0.0
 40
0.0
 40
0.5
 40
0.5
 40
0.75
 40
0.75
 40
1.0
 40
1.0
 40
1.0
 40
1.0
 10
183.0304859154665
 20
102.8773284718441
 30
0.0
 10
182.9997865320992
 20
102.8381906294482
 30
0.0
 10
182.9584364639927
 20
102.8010308467227
 30
0.0
 10
182.8586805357733
 20
102.7510943410949
 30
0.0
 10
182.8189836180406
 20
102.7356414709512
 30
0.0
 10
182.7217254663929
 20
102.7117219273521
 30
0.0
 10
182.6609493084022
 20
102.7032388335737
 30
0.0
 10
182.5974732135743
 20
102.7032388335737
 30
0.0
  0
LINE
  5
106
330
1F
100
AcDbEntity
  8
0
  6
HIDDEN
 62
     7
370
     0
100
AcDbLine
 10
182.5974732136
 20
102.7032388336
 30
0.0
 11
179.6529868407
 21
102.7032388336
 31
0.0
  0
SPLINE
  5
107
330
1F
100
AcDbEntity
  8
0
  6
HIDDEN
 62
     7
370
     0
100
AcDbSpline
210
0.0
220
0.0
230
1.0
 70
     8
 71
     3
 72
    12
 73
     8
 74
     0
 42
0.00000001
 43
0.00000001
 12
1.0
 22
0.0
 32
0.0
 13
1.0
 23
0.0
 33
0.0
 40
0.0
 40
0.0
 40
0.0
 40
0.0
 40
0.2499999999999993
 40
0.2499999999999993
 40
0.4999999999999987
 40
0.4999999999999987
 40
1.0
 40
1.0
 40
1.0
 40
1.0
 10
179.6529868407072
 20
102.7032388335738
 30
0.0
 10
179.5893216041767
 20
102.7032388335738
 30
0.0
 10
179.5297153719533
 20
102.7115036092396
 30
0.0
 10
179.4310548470225
 20
102.7357223908227
 30
0.0
 10
179.3920878570072
 20
102.7509797101319
 30
0.0
 10
179.2927010250827
 20
102.8006130643938
 30
0.0
 10
179.2506247776593
 20
102.8382527725679
 30
0.0
 10
179.219974138815
 20
102.8773284718441
 30
0.0
  0
ELLIPSE
  5
108
330
1F
100
AcDbEntity
  8
0
  6
HIDDEN
 62
     7
370
     0
100
AcDbEllipse
 10
192.1814876821
 20
126.5299699491
 30
0.0
 11
11.709272349727
 21
24.67718644093745
 31
0.0
210
0.0
220
0.0
230
1.0
 40
0.3419987131
 41
2.061476155780647
 42
2.97266337900066
  0
SPLINE
  5
109
330
1F
100
AcDbEntity
  8
0
  6
HIDDEN
 62
     7
370
     0
100
AcDbSpline
210
0.0
220
0.0
230
1.0
 70
     8
 71
     3
 72
    58
 73
    54
 74
     0
 42
0.00000001
 43
0.00000001
 12
1.0
 22
0.0
 32
0.0
 13
1.0
 23
0.0
 33
0.0
 40
-0.0624999999999999
 40
-0.0624999999999999
 40
0.0
 40
0.0
 40
0.0312500000000001
 40
0.0312500000000001
 40
0.0625000000000001
 40
0.0625000000000001
 40
0.0937500000000002
 40
0.0937500000000002
 40
0.1250000000000003
 40
0.1250000000000003
 40
0.1875000000000007
 40
0.1875000000000007
 40
0.2500000000000011
 40
0.2500000000000011
 40
0.2812500000000011
 40
0.2812500000000011
 40
0.3125000000000012
 40
0.3125000000000012
 40
0.3437500000000012
 40
0.3437500000000012
 40
0.3750000000000012
 40
0.3750000000000012
 40
0.4062500000000012
 40
0.4062500000000012
 40
0.4375000000000012
 40
0.4375000000000012
 40
0.4687500000000012
 40
0.4687500000000012
 40
0.5000000000000012
 40
0.5000000000000012
 40
0.5625000000000012
 40
0.5625000000000012
 40
0.6250000000000012
 40
0.6250000000000012
 40
0.6562500000000011
 40
0.6562500000000011
 40
0.687500000000001
 40
0.687500000000001
 40
0.7187500000000008
 40
0.7187500000000008
 40
0.7500000000000007
 40
0.7500000000000007
 40
0.7812500000000006
 40
0.7812500000000006
 40
0.8125000000000003
 40
0.8125000000000003
 40
0.8437500000000002
 40
0.8437500000000002
 40
0.875
 40
0.875
 40
0.9375000000000001
 40
0.9375000000000001
 40
1.0
 40
1.0
 40
1.03125
 40
1.03125
 10
185.1252300271407
 20
126.2655975785322
 30
0.0
 10
185.1252300271407
 20
126.6621561343474
 30
0.0
 10
185.1122541351303
 20
126.7921228738922
 30
0.0
 10
185.0614218330243
 20
127.0478022120243
 30
0.0
 10
185.0229447617029
 20
127.1748433038657
 30
0.0
 10
184.9225398005465
 20
127.4170214898063
 30
0.0
 10
184.8611055582272
 20
127.5318751483958
 30
0.0
 10
184.7159712920455
 20
127.7492402702016
 30
0.0
 10
184.6315293708982
 20
127.8521157422859
 30
0.0
 10
184.3548573412883
 20
128.128733694703
 30
0.0
 10
184.1318111863202
 20
128.2777258145359
 30
0.0
 10
183.6505471877757
 20
128.4772496095272
 30
0.0
 10
183.3872893324559
 20
128.5298284740294
 30
0.0
 10
182.9958233011711
 20
128.5300402476169
 30
0.0
 10
182.8632745575576
 20
128.5170492760275
 30
0.0
 10
182.6067302485423
 20
128.4660130527377
 30
0.0
 10
182.4820343621707
 20
128.4282515113349
 30
0.0
 10
182.2398313917369
 20
128.3280919720415
 30
0.0
 10
182.1227680284863
 20
128.265494162291
 30
0.0
 10
181.9060817092401
 20
128.1207721782554
 30
0.0
 10
181.8050677411724
 20
128.0381480730871
 30
0.0
 10
181.6182745468869
 20
127.8515277024761
 30
0.0
 10
181.5354741829326
 20
127.7504793345849
 30
0.0
 10
181.3905957440381
 20
127.533967313711
 30
0.0
 10
181.3279449607107
 20
127.4170779585121
 30
0.0
 10
181.2275045663368
 20
127.1748205564531
 30
0.0
 10
181.1896455545669
 20
127.0501578916378
 30
0.0
 10
181.1384078501033
 20
126.793826695983
 30
0.0
 10
181.1252774753303
 20
126.6612387566325
 30
0.0
 10
181.1251355248913
 20
126.2696070880632
 30
0.0
 10
181.1774764411394
 20
126.006394255029
 30
0.0
 10
181.3766066678775
 20
125.5248869243376
 30
0.0
 10
181.5254437555198
 20
125.3016864430621
 30
0.0
 10
181.8017557920592
 20
125.0248403631003
 30
0.0
 10
181.9045213293105
 20
124.9403282688816
 30
0.0
 10
182.1218382616643
 20
124.7949496721501
 30
0.0
 10
182.2366251722011
 20
124.7334342405483
 30
0.0
 10
182.478544662307
 20
124.6328781803027
 30
0.0
 10
182.605671564807
 20
124.5942394544681
 30
0.0
 10
182.8613404004432
 20
124.5431745875807
 30
0.0
 10
182.9912356058212
 20
124.5301001072044
 30
0.0
 10
183.2553103882456
 20
124.5298417059308
 30
0.0
 10
183.3856395277309
 20
124.5427177738938
 30
0.0
 10
183.6413288418748
 20
124.5933165652217
 30
0.0
 10
183.7682567082624
 20
124.6316219110594
 30
0.0
 10
184.0107089971045
 20
124.7318777434793
 30
0.0
 10
184.1256256910862
 20
124.7932287623913
 30
0.0
 10
184.3430164828566
 20
124.9380975979616
 30
0.0
 10
184.4460017625381
 20
125.0224615512309
 30
0.0
 10
184.7229661301955
 20
125.298987605017
 30
0.0
 10
184.8720984085539
 20
125.5218474470127
 30
0.0
 10
185.0720505272683
 20
126.0029499670734
 30
0.0
 10
185.1252300271407
 20
126.2655975785322
 30
0.0
 10
185.1252300271407
 20
126.6621561343474
 30
0.0
  0
SPLINE
  5
10A
330
1F
100
AcDbEntity
  8
0
  6
HIDDEN
 62
     7
370
     0
100
AcDbSpline
210
0.0
220
0.0
230
1.0
 70
     8
 71
     3
 72
    70
 73
    66
 74
     0
 42
0.00000001
 43
0.00000001
 12
1.0
 22
0.0
 32
0.0
 13
1.0
 23
0.0
 33
0.0
 40
-0.0312500000000001
 40
-0.0312500000000001
 40
0.0
 40
0.0
 40
0.03125
 40
0.03125
 40
0.0625
 40
0.0625
 40
0.09375
 40
0.09375
 40
0.1250000000000001
 40
0.1250000000000001
 40
0.1562500000000001
 40
0.1562500000000001
 40
0.1875000000000001
 40
0.1875000000000001
 40
0.2187500000000001
 40
0.2187500000000001
 40
0.2500000000000001
 40
0.2500000000000001
 40
0.2812500000000001
 40
0.2812500000000001
 40
0.3125000000000001
 40
0.3125000000000001
 40
0.3437500000000002
 40
0.3437500000000002
 40
0.3750000000000002
 40
0.3750000000000002
 40
0.4062500000000002
 40
0.4062500000000002
 40
0.4375000000000002
 40
0.4375000000000002
 40
0.4687500000000002
 40
0.4687500000000002
 40
0.5000000000000002
 40
0.5000000000000002
 40
0.5312500000000002
 40
0.5312500000000002
 40
0.5625000000000002
 40
0.5625000000000002
 40
0.5937500000000002
 40
0.5937500000000002
 40
0.6250000000000002
 40
0.6250000000000002
 40
0.6562500000000002
 40
0.6562500000000002
 40
0.6875000000000001
 40
0.6875000000000001
 40
0.71875
 40
0.71875
 40
0.7499999999999999
 40
0.7499999999999999
 40
0.7812499999999998
 40
0.7812499999999998
 40
0.8124999999999997
 40
0.8124999999999997
 40
0.8437499999999996
 40
0.8437499999999996
 40
0.8749999999999994
 40
0.8749999999999994
 40
0.9062499999999997
 40
0.9062499999999997
 40
0.9374999999999998
 40
0.9374999999999998
 40
0.9687499999999999
 40
0.9687499999999999
 40
1.0
 40
1.0
 40
1.03125
 40
1.03125
 10
194.1252300271407
 20
140.6742617367482
 30
0.0
 10
194.1252300271407
 20
140.3453233349405
 30
0.0
 10
194.1057456647523
 20
140.1823126325221
 30
0.0
 10
194.0294353912014
 20
139.859225718162
 30
0.0
 10
193.9716702953591
 20
139.6974304198271
 30
0.0
 10
193.8210281800834
 20
139.3869621331164
 30
0.0
 10
193.7288703540491
 20
139.2386285370525
 30
0.0
 10
193.5111714124466
 20
138.9562108625608
 30
0.0
 10
193.3845763970276
 20
138.8216960917908
 30
0.0
 10
193.1080636946433
 20
138.5793400972908
 30
0.0
 10
192.9571542239053
 20
138.4698886353013
 30
0.0
 10
192.6292925332362
 20
138.2757753920911
 30
0.0
 10
192.4549474933575
 20
138.192980697245
 30
0.0
 10
192.0940486906806
 20
138.0595595255808
 30
0.0
 10
191.9048216815233
 20
138.0079541774371
 30
0.0
 10
191.5174975913324
 20
137.9388956923509
 30
0.0
 10
191.3227327340235
 20
137.9217577480602
 30
0.0
 10
190.9310495757855
 20
137.9215632883683
 30
0.0
 10
190.7320974202267
 20
137.9390713567274
 30
0.0
 10
190.3472088048673
 20
138.0076527839232
 30
0.0
 10
190.1601184093236
 20
138.0583557555392
 30
0.0
 10
189.796692790396
 20
138.1923799108978
 30
0.0
 10
189.6212555337561
 20
138.2758527125352
 30
0.0
 10
189.2963686061938
 20
138.4679471136913
 30
0.0
 10
189.1447743239725
 20
138.5773253240508
 30
0.0
 10
188.8647378623248
 20
138.8226312064236
 30
0.0
 10
188.7407289664237
 20
138.9546360470339
 30
0.0
 10
188.5234376740004
 20
139.235941905247
 30
0.0
 10
188.4293981039102
 20
139.3870232999712
 30
0.0
 10
188.2787781654384
 20
139.6974627487063
 30
0.0
 10
188.2219487369529
 20
139.8561867848996
 30
0.0
 10
188.1450094701636
 20
140.1802036051917
 30
0.0
 10
188.1253034019566
 20
140.3464794946703
 30
0.0
 10
188.1251570709472
 20
140.671247419265
 30
0.0
 10
188.1440804682564
 20
140.8314528375051
 30
0.0
 10
188.2208540255935
 20
141.1475478152389
 30
0.0
 10
188.2783758922486
 20
141.3007570471972
 30
0.0
 10
188.4277759114024
 20
141.590884094009
 30
0.0
 10
188.5208161529245
 20
141.7300270321467
 30
0.0
 10
188.7397697365571
 20
141.9896323991939
 30
0.0
 10
188.863742855655
 20
142.108285883695
 30
0.0
 10
189.1400331714843
 20
142.3246085280043
 30
0.0
 10
189.2941716278059
 20
142.4229940366768
 30
0.0
 10
189.6198187768743
 20
142.5914111782196
 30
0.0
 10
189.7919437388385
 20
142.6623600372411
 30
0.0
 10
190.1550515369971
 20
142.7781074618393
 30
0.0
 10
190.3455848424203
 20
142.8223272727032
 30
0.0
 10
190.7291115303209
 20
142.8807879400721
 30
0.0
 10
190.9241078203527
 20
142.8957462024684
 30
0.0
 10
191.3208555437417
 20
142.896022962748
 30
0.0
 10
191.5159452240518
 20
142.8813330028421
 30
0.0
 10
191.8996863160322
 20
142.8233891842245
 30
0.0
 10
192.090363952036
 20
142.7794180133216
 30
0.0
 10
192.4537145459675
 20
142.6641802325817
 30
0.0
 10
192.6260461124305
 20
142.5934605595972
 30
0.0
 10
192.9522417498821
 20
142.4254054565819
 30
0.0
 10
193.1065433194499
 20
142.3272568603803
 30
0.0
 10
193.3832317538111
 20
142.1113968263168
 30
0.0
 10
193.5074907310449
 20
141.9929215139837
 30
0.0
 10
193.727122520262
 20
141.7335080730925
 30
0.0
 10
193.8203416485068
 20
141.5946728759726
 30
0.0
 10
193.9703394208344
 20
141.3048849836403
 30
0.0
 10
194.0281606135484
 20
141.1519812475329
 30
0.0
 10
194.105743277261
 20
140.8355499962313
 30
0.0
 10
194.1252300271407
 20
140.6742617367482
 30
0.0
 10
194.1252300271407
 20
140.3453233349405
 30
0.0
  0
LINE
  5
10B
330
1F
100
AcDbEntity
  8
0
  6
HIDDEN
 62
     7
370
     0
100
AcDbLine
 10
171.1252300271
 20
106.9799699491
 30
0.0
 11
171.1252300271
 21
146.0799699491
 31
0.0
  0
LWPOLYLINE
  5
10C
330
1F
100
AcDbEntity
  8
0
  6
HIDDEN
 62
     7
370
     0
100
AcDbPolyline
 90
       28
 70
   128
 43
0.0
 10
187.7216493737
 20
114.7548159029
 10
187.9187468665
 20
114.7147659285
 10
188.1747580621
 20
114.7923253234
 10
188.4758813307
 20
114.9833128406
 10
188.8058830389
 20
115.2774322934
 10
189.1469727092
 20
115.6588276261
 10
189.4807621092
 20
116.1069377177
 10
189.7892565659
 20
116.597604837
 10
190.0558250634
 20
117.1043769926
 10
190.2660968249
 20
117.5999339665
 10
190.4087360454
 20
118.057560154
 10
190.4760530075
 20
118.4525848088
 10
190.4644186364
 20
118.7637120495
 10
190.374460144
 20
118.974168926
 10
190.2110272161
 20
119.0726096538
 10
189.9829305639
 20
119.0537272675
 10
189.7024669371
 20
118.9185397217
 10
189.3847562024
 20
118.6743350118
 10
189.0469262277
 20
118.3342782771
 10
188.7071895145
 20
117.916702064
 10
188.3838613568
 20
117.4441180143
 10
188.0943724593
 20
116.9420032564
 10
187.8543292434
 20
116.437426927
 10
187.6766725011
 20
115.9575908666
 10
187.5709797533
 20
115.5283631612
 10
187.5429489233
 20
115.1728835878
 10
187.5940911606
 20
114.910316142
 10
187.7216493737
 20
114.7548159029
  0
SPLINE
  5
10D
330
1F
100
AcDbEntity
  8
0
  6
HIDDEN
 62
     7
370
     0
100
AcDbSpline
210
0.0
220
0.0
230
1.0
 70
     8
 71
     3
 72
    10
 73
     6
 74
     0
 42
0.00000001
 43
0.00000001
 12
1.0
 22
0.0
 32
0.0
 13
1.0
 23
0.0
 33
0.0
 40
0.0
 40
0.0
 40
0.0
 40
0.0
 40
0.5
 40
0.5
 40
1.0
 40
1.0
 40
1.0
 40
1.0
 10
190.2907973621062
 20
113.9515669483013
 30
0.0
 10
190.096511799998
 20
114.0404349411746
 30
0.0
 10
189.9027980009815
 20
114.1422779630311
 30
0.0
 10
189.515177679497
 20
114.3757690164563
 30
0.0
 10
189.3258142113104
 20
114.5047328180311
 30
0.0
 10
189.1417921185613
 20
114.6436484874394
 30
0.0
  0
SPLINE
  5
10E
330
1F
100
AcDbEntity
  8
0
  6
HIDDEN
 62
     7
370
     0
100
AcDbSpline
210
0.0
220
0.0
230
1.0
 70
     8
 71
     3
 72
    38
 73
    34
 74
     0
 42
0.00000001
 43
0.00000001
 12
1.0
 22
0.0
 32
0.0
 13
1.0
 23
0.0
 33
0.0
 40
0.0
 40
0.0
 40
0.0
 40
0.0
 40
0.0625
 40
0.0625
 40
0.125
 40
0.125
 40
0.1875
 40
0.1875
 40
0.25
 40
0.25
 40
0.3125
 40
0.3125
 40
0.375
 40
0.375
 40
0.4375
 40
0.4375
 40
0.5
 40
0.5
 40
0.5625
 40
0.5625
 40
0.625
 40
0.625
 40
0.6875
 40
0.6875
 40
0.75
 40
0.75
 40
0.8125
 40
0.8125
 40
0.875
 40
0.875
 40
0.9375
 40
0.9375
 40
1.0
 40
1.0
 40
1.0
 40
1.0
 10
192.8873291410385
 20
117.3755338407536
 30
0.0
 10
192.9870324317768
 20
117.3446814757524
 30
0.0
 10
193.0695970474905
 20
117.3222731127954
 30
0.0
 10
193.2196686484451
 20
117.2690415399999
 30
0.0
 10
193.2860307954219
 20
117.2396604665109
 30
0.0
 10
193.4033572171971
 20
117.1699801870022
 30
0.0
 10
193.4544476712923
 20
117.1294827772467
 30
0.0
 10
193.5375305519943
 20
117.0367949615185
 30
0.0
 10
193.5698192977535
 20
116.9846160462295
 30
0.0
 10
193.6139632264719
 20
116.866321020652
 30
0.0
 10
193.6258714637385
 20
116.8002591856254
 30
0.0
 10
193.6245360135293
 20
116.6503896202822
 30
0.0
 10
193.6111249496698
 20
116.5680328861079
 30
0.0
 10
193.5550724443897
 20
116.3887935027972
 30
0.0
 10
193.5114208987304
 20
116.2899486950469
 30
0.0
 10
193.3938224776072
 20
116.083915985376
 30
0.0
 10
193.3201343452565
 20
115.9762935842455
 30
0.0
 10
193.1391375502664
 20
115.7504418864185
 30
0.0
 10
193.0354762646335
 20
115.636965091121
 30
0.0
 10
192.8068658074111
 20
115.4126582037796
 30
0.0
 10
192.6812044021096
 20
115.3014054306445
 30
0.0
 10
192.4230399309772
 20
115.0919055827326
 30
0.0
 10
192.287547015225
 20
114.9911658730056
 30
0.0
 10
192.0186126997555
 20
114.8055498093788
 30
0.0
 10
191.8841004787512
 20
114.7196962573954
 30
0.0
 10
191.6152163473409
 20
114.5594226945485
 30
0.0
 10
191.4813711951548
 20
114.4854394100468
 30
0.0
 10
191.2225847949781
 20
114.3514568062504
 30
0.0
 10
191.0964405551814
 20
114.2907716804771
 30
0.0
 10
190.8505943115954
 20
114.1795436194896
 30
0.0
 10
190.7303249320836
 20
114.1288863847262
 30
0.0
 10
190.5008229841568
 20
114.0359659620269
 30
0.0
 10
190.391210861564
 20
113.9941128215165
 30
0.0
 10
190.2907973621063
 20
113.9515669483013
 30
0.0
  0
SPLINE
  5
10F
330
1F
100
AcDbEntity
  8
0
  6
HIDDEN
 62
     7
370
     0
100
AcDbSpline
210
0.0
220
0.0
230
1.0
 70
     8
 71
     3
 72
     8
 73
     4
 74
     0
 42
0.00000001
 43
0.00000001
 12
1.0
 22
0.0
 32
0.0
 13
1.0
 23
0.0
 33
0.0
 40
0.0
 40
0.0
 40
0.0
 40
0.0
 40
1.0
 40
1.0
 40
1.0
 40
1.0
 10
192.2673309426214
 20
117.7489780089451
 30
0.0
 10
192.4757176523912
 20
117.6169209052076
 30
0.0
 10
192.6853127973678
 20
117.490697797018
 30
0.0
 10
192.8873291410385
 20
117.3755338407536
 30
0.0
  0
SPLINE
  5
110
330
1F
100
AcDbEntity
  8
0
  6
HIDDEN
 62
     7
370
     0
100
AcDbSpline
210
0.0
220
0.0
230
1.0
 70
     8
 71
     3
 72
    36
 73
    32
 74
     0
 42
0.00000001
 43
0.00000001
 12
1.0
 22
0.0
 32
0.0
 13
1.0
 23
0.0
 33
0.0
 40
0.0
 40
0.0
 40
0.0
 40
0.0
 40
0.0625000000000001
 40
0.0625000000000001
 40
0.1250000000000002
 40
0.1250000000000002
 40
0.1875000000000003
 40
0.1875000000000003
 40
0.2500000000000004
 40
0.2500000000000004
 40
0.3125000000000005
 40
0.3125000000000005
 40
0.3750000000000006
 40
0.3750000000000006
 40
0.4375000000000007
 40
0.4375000000000007
 40
0.5000000000000008
 40
0.5000000000000008
 40
0.5625000000000009
 40
0.5625000000000009
 40
0.625000000000001
 40
0.625000000000001
 40
0.6875000000000011
 40
0.6875000000000011
 40
0.7500000000000011
 40
0.7500000000000011
 40
0.8750000000000004
 40
0.8750000000000004
 40
0.9375000000000002
 40
0.9375000000000002
 40
1.0
 40
1.0
 40
1.0
 40
1.0
 10
189.1417921185613
 20
114.6436484874394
 30
0.0
 10
189.0769980813692
 20
114.7856252990623
 30
0.0
 10
189.0136211491965
 20
114.9311025904163
 30
0.0
 10
188.8982719393293
 20
115.2293330082817
 30
0.0
 10
188.8459253281505
 20
115.3820832216214
 30
0.0
 10
188.7553133913114
 20
115.6957091777878
 30
0.0
 10
188.716847449332
 20
115.85765662034
 30
0.0
 10
188.6589100991871
 20
116.1829600698928
 30
0.0
 10
188.6391357302724
 20
116.3468292573688
 30
0.0
 10
188.6215239558924
 20
116.677441668389
 30
0.0
 10
188.6239060838328
 20
116.8457867458288
 30
0.0
 10
188.6556632554003
 20
117.1739163283844
 30
0.0
 10
188.6847034182922
 20
117.3345032116471
 30
0.0
 10
188.7752603237965
 20
117.6471550340145
 30
0.0
 10
188.8357135414653
 20
117.7946544949713
 30
0.0
 10
188.9883095278925
 20
118.0646903458078
 30
0.0
 10
189.0814356611974
 20
118.1875910503667
 30
0.0
 10
189.2900415550552
 20
118.3928737720989
 30
0.0
 10
189.4086192524273
 20
118.4783614212556
 30
0.0
 10
189.6582389982524
 20
118.6068831584375
 30
0.0
 10
189.7909179436019
 20
118.6513126906827
 30
0.0
 10
190.0616403241117
 20
118.7032007730256
 30
0.0
 10
190.1979745374642
 20
118.7107937119445
 30
0.0
 10
190.4724013348971
 20
118.6959925742799
 30
0.0
 10
190.6112648471264
 20
118.6731192496712
 30
0.0
 10
191.0168177163591
 20
118.5682177522079
 30
0.0
 10
191.2786881123718
 20
118.450013730087
 30
0.0
 10
191.6580257516226
 20
118.2203771430618
 30
0.0
 10
191.7809592425496
 20
118.1357360442723
 30
0.0
 10
192.0236080967996
 20
117.9523614140393
 30
0.0
 10
192.1423066246138
 20
117.8534851236638
 30
0.0
 10
192.2673309426214
 20
117.7489780089451
 30
0.0
  0
SPLINE
  5
111
330
1F
100
AcDbEntity
  8
0
  6
HIDDEN
 62
     7
370
     0
100
AcDbSpline
210
0.0
220
0.0
230
1.0
 70
     8
 71
     3
 72
    14
 73
    10
 74
     0
 42
0.00000001
 43
0.00000001
 12
1.0
 22
0.0
 32
0.0
 13
1.0
 23
0.0
 33
0.0
 40
0.0
 40
0.0
 40
0.0
 40
0.0
 40
0.25
 40
0.25
 40
0.5
 40
0.5
 40
0.75
 40
0.75
 40
1.0
 40
1.0
 40
1.0
 40
1.0
 10
170.0843689990124
 20
138.8244454941491
 30
0.0
 10
170.1160841333431
 20
138.766662311806
 30
0.0
 10
170.1506986586434
 20
138.710249650731
 30
0.0
 10
170.2303698540588
 20
138.6026502007156
 30
0.0
 10
170.2754257310892
 20
138.5507375737945
 30
0.0
 10
170.3859801435946
 20
138.4645389490972
 30
0.0
 10
170.4533655577987
 20
138.4304495291256
 30
0.0
 10
170.6039950776968
 20
138.4283471371087
 30
0.0
 10
170.6738223144622
 20
138.4617189099534
 30
0.0
 10
170.7302531382657
 20
138.5055315785042
 30
0.0
  0
SPLINE
  5
112
330
1F
100
AcDbEntity
  8
0
  6
HIDDEN
 62
     7
370
     0
100
AcDbSpline
210
0.0
220
0.0
230
1.0
 70
     8
 71
     3
 72
    16
 73
    12
 74
     0
 42
0.00000001
 43
0.00000001
 12
1.0
 22
0.0
 32
0.0
 13
1.0
 23
0.0
 33
0.0
 40
0.0
 40
0.0
 40
0.0
 40
0.0
 40
0.0624999999999983
 40
0.0624999999999983
 40
0.1249999999999965
 40
0.1249999999999965
 40
0.2499999999999971
 40
0.2499999999999971
 40
0.499999999999998
 40
0.499999999999998
 40
1.0
 40
1.0
 40
1.0
 40
1.0
 10
170.7302531382339
 20
138.5055315785348
 30
0.0
 10
170.7419873726808
 20
138.5146419917827
 30
0.0
 10
170.7555191281597
 20
138.5227193477291
 30
0.0
 10
170.7855065885896
 20
138.530966189406
 30
0.0
 10
170.8005012949978
 20
138.5300388718184
 30
0.0
 10
170.8362417173926
 20
138.5172723522867
 30
0.0
 10
170.8502550543938
 20
138.4996237057763
 30
0.0
 10
170.8843991431752
 20
138.4449707857447
 30
0.0
 10
170.8953710472935
 20
138.4035711180863
 30
0.0
 10
170.9212165875598
 20
138.2750813743635
 30
0.0
 10
170.9252300271407
 20
138.1844632867248
 30
0.0
 10
170.9252300271407
 20
138.0922441821707
 30
0.0
  0
LINE
  5
113
330
1F
100
AcDbEntity
  8
0
  6
HIDDEN
 62
     7
370
     0
100
AcDbLine
 10
170.9252300271
 20
114.967695716
 30
0.0
 11
170.9252300271
 21
138.0922441822
 31
0.0
  0
SPLINE
  5
114
330
1F
100
AcDbEntity
  8
0
  6
HIDDEN
 62
     7
370
     0
100
AcDbSpline
210
0.0
220
0.0
230
1.0
 70
     8
 71
     3
 72
    16
 73
    12
 74
     0
 42
0.00000001
 43
0.00000001
 12
1.0
 22
0.0
 32
0.0
 13
1.0
 23
0.0
 33
0.0
 40
0.0
 40
0.0
 40
0.0
 40
0.0
 40
0.5000000000000046
 40
0.5000000000000046
 40
0.7500000000000069
 40
0.7500000000000069
 40
0.8750000000000054
 40
0.8750000000000054
 40
0.9375000000000028
 40
0.9375000000000028
 40
1.0
 40
1.0
 40
1.0
 40
1.0
 10
170.9252300271407
 20
114.9676957159806
 30
0.0
 10
170.9252300271407
 20
114.8751118650767
 30
0.0
 10
170.9211727250257
 20
114.7848994092165
 30
0.0
 10
170.8955154822309
 20
114.6569582820981
 30
0.0
 10
170.8842000364888
 20
114.6145450676862
 30
0.0
 10
170.8501686691801
 20
114.560231024235
 30
0.0
 10
170.8362896879763
 20
114.5426496888451
 30
0.0
 10
170.800354006209
 20
114.5298660009102
 30
0.0
 10
170.7854036869462
 20
114.5289905027621
 30
0.0
 10
170.7555051742044
 20
114.5372359378814
 30
0.0
 10
170.7419723138391
 20
114.5453095980532
 30
0.0
 10
170.7302531382651
 20
114.5544083196473
 30
0.0
  0
SPLINE
  5
115
330
1F
100
AcDbEntity
  8
0
  6
HIDDEN
 62
     7
370
     0
100
AcDbSpline
210
0.0
220
0.0
230
1.0
 70
     8
 71
     3
 72
    14
 73
    10
 74
     0
 42
0.00000001
 43
0.00000001
 12
1.0
 22
0.0
 32
0.0
 13
1.0
 23
0.0
 33
0.0
 40
0.0
 40
0.0
 40
0.0
 40
0.0
 40
0.25
 40
0.25
 40
0.5
 40
0.5
 40
0.75
 40
0.75
 40
1.0
 40
1.0
 40
1.0
 40
1.0
 10
170.7302531382719
 20
114.5544083196558
 30
0.0
 10
170.6737973736631
 20
114.5982403521506
 30
0.0
 10
170.6029317474133
 20
114.6315713885724
 30
0.0
 10
170.4544746662406
 20
114.629512378425
 30
0.0
 10
170.3852813069331
 20
114.5949163540233
 30
0.0
 10
170.2755658687989
 20
114.5092509973604
 30
0.0
 10
170.2303212894676
 20
114.4572285526524
 30
0.0
 10
170.1506945800438
 20
114.3496802923225
 30
0.0
 10
170.1160844315103
 20
114.2932781295895
 30
0.0
 10
170.0843689990111
 20
114.235494404
 30
0.0
  0
SPLINE
  5
116
330
1F
100
AcDbEntity
  8
0
  6
HIDDEN
 62
     7
370
     0
100
AcDbSpline
210
0.0
220
0.0
230
1.0
 70
     8
 71
     3
 72
    10
 73
     6
 74
     0
 42
0.00000001
 43
0.00000001
 12
1.0
 22
0.0
 32
0.0
 13
1.0
 23
0.0
 33
0.0
 40
0.0
 40
0.0
 40
0.0
 40
0.0
 40
0.5
 40
0.5
 40
1.0
 40
1.0
 40
1.0
 40
1.0
 10
170.0843689990117
 20
114.235494404001
 30
0.0
 10
170.0125892110882
 20
114.1047156870991
 30
0.0
 10
169.9601296967801
 20
113.9706155375959
 30
0.0
 10
169.870786632679
 20
113.7025229746072
 30
0.0
 10
169.8347910231792
 20
113.5682776030183
 30
0.0
 10
169.8039096835811
 20
113.4349232255433
 30
0.0
  0
SPLINE
  5
117
330
1F
100
AcDbEntity
  8
0
  6
HIDDEN
 62
     7
370
     0
100
AcDbSpline
210
0.0
220
0.0
230
1.0
 70
     8
 71
     3
 72
    10
 73
     6
 74
     0
 42
0.00000001
 43
0.00000001
 12
1.0
 22
0.0
 32
0.0
 13
1.0
 23
0.0
 33
0.0
 40
0.0
 40
0.0
 40
0.0
 40
0.0
 40
0.5
 40
0.5
 40
1.0
 40
1.0
 40
1.0
 40
1.0
 10
169.8039096835811
 20
109.2330600810708
 30
0.0
 10
169.8347827153934
 20
109.2167769337037
 30
0.0
 10
169.8707695783063
 20
109.2045193439781
 30
0.0
 10
169.9601041641975
 20
109.1874163551494
 30
0.0
 10
170.0125600236201
 20
109.1826167592911
 30
0.0
 10
170.0843689990124
 20
109.1808126678831
 30
0.0
  0
SPLINE
  5
118
330
1F
100
AcDbEntity
  8
0
  6
HIDDEN
 62
     7
370
     0
100
AcDbSpline
210
0.0
220
0.0
230
1.0
 70
     8
 71
     3
 72
     8
 73
     4
 74
     0
 42
0.00000001
 43
0.00000001
 12
1.0
 22
0.0
 32
0.0
 13
1.0
 23
0.0
 33
0.0
 40
0.0
 40
0.0
 40
0.0
 40
0.0
 40
1.0
 40
1.0
 40
1.0
 40
1.0
 10
170.9075334037658
 20
109.0549282896361
 30
0.0
 10
170.9215202123078
 20
109.0266878990544
 30
0.0
 10
170.9252300271405
 20
109.0035558562436
 30
0.0
 10
170.9252300271408
 20
108.9832154834084
 30
0.0
  0
LINE
  5
119
330
1F
100
AcDbEntity
  8
0
  6
HIDDEN
 62
     7
370
     0
100
AcDbLine
 10
170.9252300271
 20
108.6901496702
 30
0.0
 11
170.9252300271
 21
108.9832154834
 31
0.0
  0
LINE
  5
11A
330
1F
100
AcDbEntity
  8
0
  6
HIDDEN
 62
     7
370
     0
100
AcDbLine
 10
170.9252300271
 20
144.0767244147
 30
0.0
 11
170.9252300271
 21
144.369790228
 31
0.0
  0
SPLINE
  5
11B
330
1F
100
AcDbEntity
  8
0
  6
HIDDEN
 62
     7
370
     0
100
AcDbSpline
210
0.0
220
0.0
230
1.0
 70
     8
 71
     3
 72
     8
 73
     4
 74
     0
 42
0.00000001
 43
0.00000001
 12
1.0
 22
0.0
 32
0.0
 13
1.0
 23
0.0
 33
0.0
 40
0.0
 40
0.0
 40
0.0
 40
0.0
 40
1.0
 40
1.0
 40
1.0
 40
1.0
 10
170.9252300271409
 20
144.0767244147433
 30
0.0
 10
170.9252300271407
 20
144.0591570732723
 30
0.0
 10
170.9222356789071
 20
144.0394345942701
 30
0.0
 10
170.9126302461874
 20
144.0162322307606
 30
0.0
  0
SPLINE
  5
11C
330
1F
100
AcDbEntity
  8
0
  6
HIDDEN
 62
     7
370
     0
100
AcDbSpline
210
0.0
220
0.0
230
1.0
 70
     8
 71
     3
 72
    10
 73
     6
 74
     0
 42
0.00000001
 43
0.00000001
 12
1.0
 22
0.0
 32
0.0
 13
1.0
 23
0.0
 33
0.0
 40
0.0
 40
0.0
 40
0.0
 40
0.0
 40
0.5
 40
0.5
 40
1.0
 40
1.0
 40
1.0
 40
1.0
 10
170.0843689990132
 20
143.8791272302682
 30
0.0
 10
170.0125600236206
 20
143.8773231388603
 30
0.0
 10
169.9601041641978
 20
143.872523543002
 30
0.0
 10
169.8707695783065
 20
143.8554205541732
 30
0.0
 10
169.8347827153935
 20
143.8431629644477
 30
0.0
 10
169.8039096835811
 20
143.8268798170805
 30
0.0
  0
SPLINE
  5
11D
330
1F
100
AcDbEntity
  8
0
  6
HIDDEN
 62
     7
370
     0
100
AcDbSpline
210
0.0
220
0.0
230
1.0
 70
     8
 71
     3
 72
    10
 73
     6
 74
     0
 42
0.00000001
 43
0.00000001
 12
1.0
 22
0.0
 32
0.0
 13
1.0
 23
0.0
 33
0.0
 40
0.0
 40
0.0
 40
0.0
 40
0.0
 40
0.5
 40
0.5
 40
1.0
 40
1.0
 40
1.0
 40
1.0
 10
169.8039096835811
 20
139.6250166726081
 30
0.0
 10
169.8347910231793
 20
139.4916622951328
 30
0.0
 10
169.8707866326791
 20
139.3574169235438
 30
0.0
 10
169.9601296967805
 20
139.0893243605546
 30
0.0
 10
170.0125892110887
 20
138.9552242110512
 30
0.0
 10
170.0843689990124
 20
138.8244454941491
 30
0.0
  0
ARC
  5
11E
330
1F
100
AcDbEntity
  8
0
  6
HIDDEN
 62
     7
370
     0
100
AcDbCircle
 10
191.2814074133
 20
115.4107436951
 30
0.0
 40
2.537594315900122
100
AcDbArc
 50
50.7391446135
 51
67.1371332041
  0
ARC
  5
11F
330
1F
100
AcDbEntity
  8
0
  6
HIDDEN
 62
     7
370
     0
100
AcDbCircle
 10
190.9754514676
 20
116.3880805888
 30
0.0
 40
2.530879286840203
100
AcDbArc
 50
223.5715051016
 51
254.304772716
  0
SPLINE
  5
120
330
1F
100
AcDbEntity
  8
0
  6
HIDDEN
 62
     7
370
     0
100
AcDbSpline
210
0.0
220
0.0
230
1.0
 70
     8
 71
     3
 72
    66
 73
    62
 74
     0
 42
0.00000001
 43
0.00000001
 12
1.0
 22
0.0
 32
0.0
 13
1.0
 23
0.0
 33
0.0
 40
-0.0312499999999999
 40
-0.0312499999999999
 40
0.0
 40
0.0
 40
0.03125
 40
0.03125
 40
0.0625
 40
0.0625
 40
0.09375
 40
0.09375
 40
0.1249999999999999
 40
0.1249999999999999
 40
0.1875
 40
0.1875
 40
0.21875
 40
0.21875
 40
0.2500000000000001
 40
0.2500000000000001
 40
0.2812500000000001
 40
0.2812500000000001
 40
0.3125000000000001
 40
0.3125000000000001
 40
0.3437500000000002
 40
0.3437500000000002
 40
0.3750000000000002
 40
0.3750000000000002
 40
0.4062500000000003
 40
0.4062500000000003
 40
0.4375000000000003
 40
0.4375000000000003
 40
0.4687500000000003
 40
0.4687500000000003
 40
0.5000000000000003
 40
0.5000000000000003
 40
0.5312500000000003
 40
0.5312500000000003
 40
0.5625000000000003
 40
0.5625000000000003
 40
0.5937500000000003
 40
0.5937500000000003
 40
0.6250000000000002
 40
0.6250000000000002
 40
0.6875000000000002
 40
0.6875000000000002
 40
0.7187500000000002
 40
0.7187500000000002
 40
0.7500000000000002
 40
0.7500000000000002
 40
0.7812500000000002
 40
0.7812500000000002
 40
0.8125000000000002
 40
0.8125000000000002
 40
0.8437500000000002
 40
0.8437500000000002
 40
0.8750000000000001
 40
0.8750000000000001
 40
0.9062500000000001
 40
0.9062500000000001
 40
0.9375000000000001
 40
0.9375000000000001
 40
0.9687500000000001
 40
0.9687500000000001
 40
1.0
 40
1.0
 40
1.03125
 40
1.03125
 10
191.2917829348975
 20
120.6518844500699
 30
0.0
 10
190.958677119384
 20
120.6518844500699
 30
0.0
 10
190.7951861657941
 20
120.6621231555478
 30
0.0
 10
190.4739840204251
 20
120.7025048129958
 30
0.0
 10
190.3145716628689
 20
120.733194805902
 30
0.0
 10
190.0125329357284
 20
120.8139138970253
 30
0.0
 10
189.8694848983668
 20
120.863701664782
 30
0.0
 10
189.5987516764159
 20
120.9836949928625
 30
0.0
 10
189.4716821614494
 20
121.0539932121886
 30
0.0
 10
189.1286741504766
 20
121.2901704334226
 30
0.0
 10
188.9428418890727
 20
121.4877416382099
 30
0.0
 10
188.755036525914
 20
121.8275815086275
 30
0.0
 10
188.7062964491356
 20
121.9501957598165
 30
0.0
 10
188.6415323970209
 20
122.2059951354527
 30
0.0
 10
188.6253402864868
 20
122.3380635302343
 30
0.0
 10
188.62512087932
 20
122.6108155084148
 30
0.0
 10
188.6416689733534
 20
122.7525357945794
 30
0.0
 10
188.706098127057
 20
123.0315189930201
 30
0.0
 10
188.7537565962419
 20
123.1702655683131
 30
0.0
 10
188.8804525640406
 20
123.4454273996352
 30
0.0
 10
188.9580261498396
 20
123.5783974199935
 30
0.0
 10
189.1386327760198
 20
123.8313458604139
 30
0.0
 10
189.2431858251354
 20
123.9530067261785
 30
0.0
 10
189.4731944654797
 20
124.175860523338
 30
0.0
 10
189.5980745238545
 20
124.277005796401
 30
0.0
 10
189.8679740954842
 20
124.4572762014216
 30
0.0
 10
190.0140704619673
 20
124.5365104847979
 30
0.0
 10
190.3147830857759
 20
124.6638009962055
 30
0.0
 10
190.4707307741334
 20
124.7129712179578
 30
0.0
 10
190.7945106378818
 20
124.779992148284
 30
0.0
 10
190.9602089816318
 20
124.7970042972276
 30
0.0
 10
191.2882528616391
 20
124.7971399154176
 30
0.0
 10
191.4535784129759
 20
124.7803346386132
 30
0.0
 10
191.7779068689862
 20
124.7134948397871
 30
0.0
 10
191.9342596698479
 20
124.6643315114003
 30
0.0
 10
192.2359758480771
 20
124.5367546230463
 30
0.0
 10
192.3820663777917
 20
124.4575110337311
 30
0.0
 10
192.6517801551968
 20
124.2774553771175
 30
0.0
 10
192.7769614888399
 20
124.1761818320648
 30
0.0
 10
193.1235720292675
 20
123.8402731678575
 30
0.0
 10
193.3067148641558
 20
123.5827412567178
 30
0.0
 10
193.4963814242951
 20
123.1710382148199
 30
0.0
 10
193.5440191717236
 20
123.0325808762718
 30
0.0
 10
193.6085374066558
 20
122.7540526066494
 30
0.0
 10
193.6252345123976
 20
122.6123447799417
 30
0.0
 10
193.6252255400301
 20
122.3391851410478
 30
0.0
 10
193.6090947040836
 20
122.2069668456974
 30
0.0
 10
193.5444350274149
 20
121.9509579820649
 30
0.0
 10
193.4957646727757
 20
121.8282814107088
 30
0.0
 10
193.3703353004569
 20
121.6011480297876
 30
0.0
 10
193.2925916479668
 20
121.494582155494
 30
0.0
 10
193.1102921609539
 20
121.2990070771667
 30
0.0
 10
193.0073290076596
 20
121.2113233889344
 30
0.0
 10
192.7781280353672
 20
121.0535839467394
 30
0.0
 10
192.6504970572591
 20
120.9831064200742
 30
0.0
 10
192.3806513958225
 20
120.8636101600261
 30
0.0
 10
192.2377966524355
 20
120.8138630307184
 30
0.0
 10
191.9353991251894
 20
120.7330800831218
 30
0.0
 10
191.7761838942446
 20
120.7024622379447
 30
0.0
 10
191.4552961629265
 20
120.6621318079649
 30
0.0
 10
191.2917829348975
 20
120.6518844500699
 30
0.0
 10
190.958677119384
 20
120.6518844500699
 30
0.0
  0
LINE
  5
121
330
1F
100
AcDbEntity
  8
0
  6
HIDDEN
 62
     7
370
     0
100
AcDbLine
 10
170.9252300271
 20
108.9832154834
 30
0.0
 11
170.9252300271
 21
120.5454897165
 31
0.0
  0
LINE
  5
122
330
1F
100
AcDbEntity
  8
0
  6
HIDDEN
 62
     7
370
     0
100
AcDbLine
 10
170.9252300271
 20
132.5144501817
 30
0.0
 11
170.9252300271
 21
144.0767244147
 31
0.0
  0
CIRCLE
  5
123
330
1F
100
AcDbEntity
  8
0
  6
HIDDEN
 62
     7
370
     0
100
AcDbCircle
 10
157.1252300271
 20
126.5299699491
 30
0.0
 40
3.049999999999983
  0
LINE
  5
124
330
1F
100
AcDbEntity
  8
0
  6
HIDDEN
 62
     7
370
     0
100
AcDbLine
 10
146.1532698828
 20
137.3186450837
 30
0.0
 11
146.1532698828
 21
115.7412948145
 31
0.0
  0
LINE
  5
125
330
1F
100
AcDbEntity
  8
0
  6
HIDDEN
 62
     7
370
     0
100
AcDbLine
 10
142.1532698828
 20
137.6998429302
 30
0.0
 11
142.1532698828
 21
115.360096968
 31
0.0
  0
LINE
  5
126
330
1F
100
AcDbEntity
  8
0
  6
HIDDEN
 62
     7
370
     0
100
AcDbLine
 10
141.1252300271
 20
114.7665578806
 30
0.0
 11
141.1252300271
 21
138.2933820175
 31
0.0
  0
LINE
  5
127
330
1F
100
AcDbEntity
  8
0
  6
HIDDEN
 62
     7
370
     0
100
AcDbLine
 10
150.7532698828
 20
137.0299699491
 30
0.0
 11
150.7532698828
 21
116.0299699491
 31
0.0
  0
LINE
  5
128
330
1F
100
AcDbEntity
  8
0
  6
HIDDEN
 62
     7
370
     0
100
AcDbLine
 10
144.6532698828
 20
137.0299699491
 30
0.0
 11
144.6532698828
 21
116.0299699491
 31
0.0
  0
LINE
  5
129
330
1F
100
AcDbEntity
  8
0
  6
HIDDEN
 62
     7
370
     0
100
AcDbLine
 10
228.7480409104
 20
103.5596581827
 30
0.0
 11
228.7576495413
 21
103.5642601482
 31
0.0
  0
LINE
  5
12A
330
1F
100
AcDbEntity
  8
0
  6
HIDDEN
 62
     7
370
     0
100
AcDbLine
 10
228.7480409104
 20
103.5596581827
 30
0.0
 11
226.9125940359
 21
107.4521025366
 31
0.0
  0
SPLINE
  5
12B
330
1F
100
AcDbEntity
  8
0
  6
HIDDEN
 62
     7
370
     0
100
AcDbSpline
210
0.0
220
0.0
230
1.0
 70
     8
 71
     3
 72
    10
 73
     6
 74
     0
 42
0.00000001
 43
0.00000001
 12
1.0
 22
0.0
 32
0.0
 13
1.0
 23
0.0
 33
0.0
 40
0.0
 40
0.0
 40
0.0
 40
0.0
 40
0.5
 40
0.5
 40
1.0
 40
1.0
 40
1.0
 40
1.0
 10
204.3238288654508
 20
123.0145187756448
 30
0.0
 10
204.3023896719583
 20
123.600391647084
 30
0.0
 10
204.2758680800316
 20
124.1862266774724
 30
0.0
 10
204.2364404615271
 20
125.3579981130837
 30
0.0
 10
204.2239284429462
 20
125.9439374518971
 30
0.0
 10
204.2239284429462
 20
126.5299699490757
 30
0.0
  0
LINE
  5
12C
330
1F
100
AcDbEntity
  8
0
  6
HIDDEN
 62
     7
370
     0
100
AcDbLine
 10
204.2239284429
 20
152.0299699491
 30
0.0
 11
204.2239284429
 21
126.5299699491
 31
0.0
  0
LINE
  5
12D
330
1F
100
AcDbEntity
  8
0
  6
HIDDEN
 62
     7
370
     0
100
AcDbLine
 10
145.6532698828
 20
137.0299699491
 30
0.0
 11
145.6532698828
 21
116.0299699491
 31
0.0
  0
ELLIPSE
  5
12E
330
1F
100
AcDbEntity
  8
0
  6
HIDDEN
 62
     7
370
     0
100
AcDbEllipse
 10
227.1977609753
 20
126.5299699491
 30
0.0
 11
-2.616148959823761
 21
25.49889135791082
 31
0.0
210
0.0
220
0.0
230
1.0
 40
0.090889472
 41
1.502971802291802
 42
1.561471470185631
  0
ELLIPSE
  5
12F
330
1F
100
AcDbEntity
  8
0
  6
HIDDEN
 62
     7
370
     0
100
AcDbEllipse
 10
225.9246265537
 20
126.5299699491
 30
0.0
 11
-18.15229867157996
 21
25.49989429286398
 31
0.0
210
0.0
220
0.0
230
1.0
 40
0.0040448756
 41
6.280305938888493
 42
7.792602597786204
  0
SPLINE
  5
130
330
1F
100
AcDbEntity
  8
0
  6
HIDDEN
 62
     7
370
     0
100
AcDbSpline
210
0.0
220
0.0
230
1.0
 70
     8
 71
     3
 72
    66
 73
    62
 74
     0
 42
0.00000001
 43
0.00000001
 12
1.0
 22
0.0
 32
0.0
 13
1.0
 23
0.0
 33
0.0
 40
-0.0312499999999999
 40
-0.0312499999999999
 40
0.0
 40
0.0
 40
0.03125
 40
0.03125
 40
0.0625000000000001
 40
0.0625000000000001
 40
0.0937500000000001
 40
0.0937500000000001
 40
0.1250000000000001
 40
0.1250000000000001
 40
0.1875000000000001
 40
0.1875000000000001
 40
0.21875
 40
0.21875
 40
0.2499999999999999
 40
0.2499999999999999
 40
0.2812499999999999
 40
0.2812499999999999
 40
0.3124999999999998
 40
0.3124999999999998
 40
0.3437499999999997
 40
0.3437499999999997
 40
0.3749999999999996
 40
0.3749999999999996
 40
0.4062499999999995
 40
0.4062499999999995
 40
0.4374999999999994
 40
0.4374999999999994
 40
0.4687499999999992
 40
0.4687499999999992
 40
0.4999999999999991
 40
0.4999999999999991
 40
0.531249999999999
 40
0.531249999999999
 40
0.562499999999999
 40
0.562499999999999
 40
0.5937499999999989
 40
0.5937499999999989
 40
0.624999999999999
 40
0.624999999999999
 40
0.6562499999999992
 40
0.6562499999999992
 40
0.6874999999999993
 40
0.6874999999999993
 40
0.7187499999999994
 40
0.7187499999999994
 40
0.7499999999999996
 40
0.7499999999999996
 40
0.7812499999999998
 40
0.7812499999999998
 40
0.8124999999999999
 40
0.8124999999999999
 40
0.8750000000000001
 40
0.8750000000000001
 40
0.9062500000000002
 40
0.9062500000000002
 40
0.9375000000000001
 40
0.9375000000000001
 40
0.9687500000000001
 40
0.9687500000000001
 40
1.0
 40
1.0
 40
1.03125
 40
1.03125
 10
156.9225513801929
 20
129.5799699490757
 30
0.0
 10
157.3279086740885
 20
129.5799699490757
 30
0.0
 10
157.5269685654244
 20
129.5599703894591
 30
0.0
 10
157.9182225500041
 20
129.4818268867589
 30
0.0
 10
158.1124953087517
 20
129.4226657852382
 30
0.0
 10
158.481258735303
 20
129.2692340983439
 30
0.0
 10
158.6559838936813
 20
129.1755072885016
 30
0.0
 10
158.9866611972151
 20
128.9542531860968
 30
0.0
 10
159.142308741218
 20
128.8262718191022
 30
0.0
 10
159.5617761108866
 20
128.4067167221021
 30
0.0
 10
159.7886642524169
 20
128.0682381633987
 30
0.0
 10
160.0174608758016
 20
127.5183592756805
 30
0.0
 10
160.0766531306505
 20
127.3249594299371
 30
0.0
 10
160.1554605409111
 20
126.9307312795792
 30
0.0
 10
160.1750999571915
 20
126.7320924521469
 30
0.0
 10
160.175358821613
 20
126.3317921662485
 30
0.0
 10
160.1552881369801
 20
126.1284528395274
 30
0.0
 10
160.0769504543501
 20
125.7363613189198
 30
0.0
 10
160.0190006863117
 20
125.5456554506045
 30
0.0
 10
159.8650575444317
 20
125.174931634018
 30
0.0
 10
159.770118930709
 20
124.9982049742092
 30
0.0
 10
159.5497615148318
 20
124.6689518632848
 30
0.0
 10
159.4224814889036
 20
124.5138306396883
 30
0.0
 10
159.140725897573
 20
124.232153944758
 30
0.0
 10
158.9879375681155
 20
124.1067207598536
 30
0.0
 10
158.6585104859586
 20
123.8859451664995
 30
0.0
 10
158.4799644828069
 20
123.7901139137993
 30
0.0
 10
158.1123921572567
 20
123.6372847833042
 30
0.0
 10
157.9222381305457
 20
123.57911302536
 30
0.0
 10
157.5286977078433
 20
123.5001197330151
 30
0.0
 10
157.3262636365821
 20
123.4800566073728
 30
0.0
 10
156.9268345612167
 20
123.4798838612541
 30
0.0
 10
156.7268155826608
 20
123.4993672353434
 30
0.0
 10
156.3306996352114
 20
123.5783588069445
 30
0.0
 10
156.1399668070196
 20
123.6366390267965
 30
0.0
 10
155.7723353664399
 20
123.7892066474045
 30
0.0
 10
155.5938489342721
 20
123.8848154341778
 30
0.0
 10
155.263643675308
 20
124.1058274792628
 30
0.0
 10
155.1107550972461
 20
124.231277378033
 30
0.0
 10
154.829158702708
 20
124.5125078670383
 30
0.0
 10
154.7015277798325
 20
124.6678907449523
 30
0.0
 10
154.4812023448327
 20
124.9967416029952
 30
0.0
 10
154.3869758878674
 20
125.1716297094092
 30
0.0
 10
154.2320413672643
 20
125.54377356077
 30
0.0
 10
154.174029081662
 20
125.7345796025789
 30
0.0
 10
154.0956098273839
 20
126.1254526204977
 30
0.0
 10
154.0752957474173
 20
126.3279101818799
 30
0.0
 10
154.0751646311134
 20
126.7300407867994
 30
0.0
 10
154.0947893244727
 20
126.9287648319745
 30
0.0
 10
154.1729557748864
 20
127.3216043031112
 30
0.0
 10
154.2322432202263
 20
127.5162485805138
 30
0.0
 10
154.4613240633091
 20
128.067688333928
 30
0.0
 10
154.6881549142034
 20
128.4060278996272
 30
0.0
 10
155.107493615524
 20
128.8256935622787
 30
0.0
 10
155.262846611274
 20
128.9535395680519
 30
0.0
 10
155.5938144444112
 20
129.1751406427537
 30
0.0
 10
155.7683757446075
 20
129.2687813767307
 30
0.0
 10
156.1359490521824
 20
129.4219354974299
 30
0.0
 10
156.3306359138204
 20
129.481439243076
 30
0.0
 10
156.7231118637569
 20
129.5599619921389
 30
0.0
 10
156.9225513801929
 20
129.5799699490757
 30
0.0
 10
157.3279086740885
 20
129.5799699490757
 30
0.0
  0
SPLINE
  5
131
330
1F
100
AcDbEntity
  8
0
  6
HIDDEN
 62
     7
370
     0
100
AcDbSpline
210
0.0
220
0.0
230
1.0
 70
     8
 71
     3
 72
    66
 73
    62
 74
     0
 42
0.00000001
 43
0.00000001
 12
1.0
 22
0.0
 32
0.0
 13
1.0
 23
0.0
 33
0.0
 40
-0.0312500000000003
 40
-0.0312500000000003
 40
0.0
 40
0.0
 40
0.0312499999999998
 40
0.0312499999999998
 40
0.0624999999999995
 40
0.0624999999999995
 40
0.0937499999999993
 40
0.0937499999999993
 40
0.124999999999999
 40
0.124999999999999
 40
0.1874999999999986
 40
0.1874999999999986
 40
0.2187499999999984
 40
0.2187499999999984
 40
0.2499999999999983
 40
0.2499999999999983
 40
0.2812499999999982
 40
0.2812499999999982
 40
0.312499999999998
 40
0.312499999999998
 40
0.3437499999999978
 40
0.3437499999999978
 40
0.3749999999999976
 40
0.3749999999999976
 40
0.4062499999999974
 40
0.4062499999999974
 40
0.4374999999999975
 40
0.4374999999999975
 40
0.4687499999999975
 40
0.4687499999999975
 40
0.4999999999999976
 40
0.4999999999999976
 40
0.5312499999999977
 40
0.5312499999999977
 40
0.5624999999999978
 40
0.5624999999999978
 40
0.5937499999999978
 40
0.5937499999999978
 40
0.6249999999999979
 40
0.6249999999999979
 40
0.656249999999998
 40
0.656249999999998
 40
0.6874999999999981
 40
0.6874999999999981
 40
0.7187499999999982
 40
0.7187499999999982
 40
0.7499999999999982
 40
0.7499999999999982
 40
0.7812499999999983
 40
0.7812499999999983
 40
0.8124999999999984
 40
0.8124999999999984
 40
0.8749999999999988
 40
0.8749999999999988
 40
0.9062499999999991
 40
0.9062499999999991
 40
0.9374999999999993
 40
0.9374999999999993
 40
0.9687499999999997
 40
0.9687499999999997
 40
1.0
 40
1.0
 40
1.03125
 40
1.03125
 10
157.3279086740885
 20
129.5799699490757
 30
0.0
 10
156.9225513801929
 20
129.5799699490757
 30
0.0
 10
156.7234914888571
 20
129.5599703894591
 30
0.0
 10
156.3322375042774
 20
129.4818268867589
 30
0.0
 10
156.1379647455297
 20
129.4226657852382
 30
0.0
 10
155.7692013189784
 20
129.2692340983439
 30
0.0
 10
155.5944761606002
 20
129.1755072885016
 30
0.0
 10
155.2637988570664
 20
128.9542531860968
 30
0.0
 10
155.1081513130635
 20
128.8262718191022
 30
0.0
 10
154.6886839433949
 20
128.4067167221021
 30
0.0
 10
154.4617958018646
 20
128.0682381633987
 30
0.0
 10
154.2329991784798
 20
127.5183592756805
 30
0.0
 10
154.1738069236309
 20
127.3249594299371
 30
0.0
 10
154.0949995133704
 20
126.9307312795792
 30
0.0
 10
154.07536009709
 20
126.7320924521469
 30
0.0
 10
154.0751012326684
 20
126.3317921662485
 30
0.0
 10
154.0951719173014
 20
126.1284528395274
 30
0.0
 10
154.1735095999314
 20
125.7363613189198
 30
0.0
 10
154.2314593679698
 20
125.5456554506046
 30
0.0
 10
154.3854025098498
 20
125.174931634018
 30
0.0
 10
154.4803411235725
 20
124.9982049742092
 30
0.0
 10
154.7006985394497
 20
124.6689518632848
 30
0.0
 10
154.8279785653779
 20
124.5138306396884
 30
0.0
 10
155.1097341567084
 20
124.232153944758
 30
0.0
 10
155.2625224861659
 20
124.1067207598536
 30
0.0
 10
155.5919495683229
 20
123.8859451664995
 30
0.0
 10
155.7704955714746
 20
123.7901139137993
 30
0.0
 10
156.1380678970247
 20
123.6372847833042
 30
0.0
 10
156.3282219237358
 20
123.57911302536
 30
0.0
 10
156.7217623464382
 20
123.5001197330151
 30
0.0
 10
156.9241964176994
 20
123.4800566073728
 30
0.0
 10
157.3236254930648
 20
123.4798838612541
 30
0.0
 10
157.5236444716207
 20
123.4993672353434
 30
0.0
 10
157.9197604190701
 20
123.5783588069445
 30
0.0
 10
158.1104932472619
 20
123.6366390267965
 30
0.0
 10
158.4781246878416
 20
123.7892066474045
 30
0.0
 10
158.6566111200094
 20
123.8848154341778
 30
0.0
 10
158.9868163789734
 20
124.1058274792628
 30
0.0
 10
159.1397049570353
 20
124.231277378033
 30
0.0
 10
159.4213013515734
 20
124.5125078670383
 30
0.0
 10
159.548932274449
 20
124.6678907449523
 30
0.0
 10
159.7692577094487
 20
124.9967416029952
 30
0.0
 10
159.8634841664141
 20
125.1716297094092
 30
0.0
 10
160.0184186870172
 20
125.54377356077
 30
0.0
 10
160.0764309726194
 20
125.7345796025789
 30
0.0
 10
160.1548502268976
 20
126.1254526204977
 30
0.0
 10
160.1751643068641
 20
126.3279101818799
 30
0.0
 10
160.1752954231681
 20
126.7300407867994
 30
0.0
 10
160.1556707298087
 20
126.9287648319745
 30
0.0
 10
160.0775042793951
 20
127.3216043031112
 30
0.0
 10
160.0182168340552
 20
127.5162485805138
 30
0.0
 10
159.7891359909723
 20
128.067688333928
 30
0.0
 10
159.5623051400781
 20
128.4060278996272
 30
0.0
 10
159.1429664387574
 20
128.8256935622786
 30
0.0
 10
158.9876134430075
 20
128.9535395680519
 30
0.0
 10
158.6566456098703
 20
129.1751406427537
 30
0.0
 10
158.482084309674
 20
129.2687813767307
 30
0.0
 10
158.1145110020991
 20
129.4219354974299
 30
0.0
 10
157.9198241404611
 20
129.481439243076
 30
0.0
 10
157.5273481905246
 20
129.5599619921389
 30
0.0
 10
157.3279086740885
 20
129.5799699490757
 30
0.0
 10
156.9225513801929
 20
129.5799699490757
 30
0.0
  0
LINE
  5
132
330
1F
100
AcDbEntity
  8
0
  6
HIDDEN
 62
     7
370
     0
100
AcDbLine
 10
161.1252300271
 20
136.5299473326
 30
0.0
 11
161.1252300271
 21
116.5299699491
 31
0.0
  0
LINE
  5
133
330
1F
100
AcDbEntity
  8
0
  6
HIDDEN
 62
     7
370
     0
100
AcDbLine
 10
162.1252300271
 20
133.7799699491
 30
0.0
 11
162.1252300271
 21
119.2799699491
 31
0.0
  0
LINE
  5
134
330
1F
100
AcDbEntity
  8
0
  6
HIDDEN
 62
     7
370
     0
100
AcDbLine
 10
161.1252300271
 20
118.2799699491
 30
0.0
 11
161.1252300271
 21
134.7799699491
 31
0.0
  0
LINE
  5
135
330
1F
100
AcDbEntity
  8
0
  6
HIDDEN
 62
     7
370
     0
100
AcDbLine
 10
195.1252300271
 20
119.2799699491
 30
0.0
 11
195.1252300271
 21
133.7799699491
 31
0.0
  0
SPLINE
  5
136
330
1F
100
AcDbEntity
  8
0
  6
HIDDEN
 62
     7
370
     0
100
AcDbSpline
210
0.0
220
0.0
230
1.0
 70
     8
 71
     3
 72
    66
 73
    62
 74
     0
 42
0.00000001
 43
0.00000001
 12
1.0
 22
0.0
 32
0.0
 13
1.0
 23
0.0
 33
0.0
 40
-0.0312500000000002
 40
-0.0312500000000002
 40
0.0
 40
0.0
 40
0.03125
 40
0.03125
 40
0.0624999999999999
 40
0.0624999999999999
 40
0.0937499999999999
 40
0.0937499999999999
 40
0.1249999999999998
 40
0.1249999999999998
 40
0.1874999999999996
 40
0.1874999999999996
 40
0.2187499999999995
 40
0.2187499999999995
 40
0.2499999999999994
 40
0.2499999999999994
 40
0.2812499999999993
 40
0.2812499999999993
 40
0.3124999999999992
 40
0.3124999999999992
 40
0.3437499999999991
 40
0.3437499999999991
 40
0.374999999999999
 40
0.374999999999999
 40
0.4062499999999989
 40
0.4062499999999989
 40
0.4374999999999988
 40
0.4374999999999988
 40
0.4687499999999987
 40
0.4687499999999987
 40
0.4999999999999986
 40
0.4999999999999986
 40
0.5312499999999986
 40
0.5312499999999986
 40
0.5624999999999984
 40
0.5624999999999984
 40
0.5937499999999984
 40
0.5937499999999984
 40
0.6249999999999983
 40
0.6249999999999983
 40
0.6874999999999984
 40
0.6874999999999984
 40
0.7187499999999986
 40
0.7187499999999986
 40
0.7499999999999987
 40
0.7499999999999987
 40
0.7812499999999988
 40
0.7812499999999988
 40
0.812499999999999
 40
0.812499999999999
 40
0.8437499999999991
 40
0.8437499999999991
 40
0.8749999999999993
 40
0.8749999999999993
 40
0.9062499999999994
 40
0.9062499999999994
 40
0.9374999999999997
 40
0.9374999999999997
 40
0.9687499999999998
 40
0.9687499999999998
 40
1.0
 40
1.0
 40
1.03125
 40
1.03125
 10
190.958677119384
 20
128.2628675853062
 30
0.0
 10
191.2917829348975
 20
128.2628675853062
 30
0.0
 10
191.4552738884873
 20
128.2799454711017
 30
0.0
 10
191.7764760338563
 20
128.3461593932639
 30
0.0
 10
191.9358883914126
 20
128.3961623822389
 30
0.0
 10
192.237927118553
 20
128.5241466399295
 30
0.0
 10
192.3809751559147
 20
128.6017520987617
 30
0.0
 10
192.6517083778655
 20
128.7823851127937
 30
0.0
 10
192.778777892832
 20
128.8854473429907
 30
0.0
 10
193.1217859038049
 20
129.2180784164015
 30
0.0
 10
193.3076181652088
 20
129.47940910549
 30
0.0
 10
193.4954235283675
 20
129.8866980651947
 30
0.0
 10
193.5441636051459
 20
130.0276060345085
 30
0.0
 10
193.6089276572606
 20
130.3079516521794
 30
0.0
 10
193.6251197677947
 20
130.446318109021
 30
0.0
 10
193.6253391749615
 20
130.7191547016198
 30
0.0
 10
193.608791080928
 20
130.8544406836489
 30
0.0
 10
193.5443619272244
 20
131.1090042977726
 30
0.0
 10
193.4967034580395
 20
131.2298465426484
 30
0.0
 10
193.3700074902408
 20
131.4594968925803
 30
0.0
 10
193.2924339044419
 20
131.565411558901
 30
0.0
 10
193.1118272782617
 20
131.7594004499826
 30
0.0
 10
193.007274229146
 20
131.8486996161134
 30
0.0
 10
192.7772655888018
 20
132.0069039106902
 30
0.0
 10
192.652385530427
 20
132.0758704953641
 30
0.0
 10
192.3824859587972
 20
132.1956423065313
 30
0.0
 10
192.2363895923142
 20
132.2464817087178
 30
0.0
 10
191.9356769685056
 20
132.326756525536
 30
0.0
 10
191.7797292801481
 20
132.3569396068835
 30
0.0
 10
191.4559494163997
 20
132.3978172509662
 30
0.0
 10
191.2902510726497
 20
132.4080144456944
 30
0.0
 10
190.9622071926424
 20
132.4080962014694
 30
0.0
 10
190.7968816413056
 20
132.3980240982084
 30
0.0
 10
190.4725531852953
 20
132.3572609955106
 30
0.0
 10
190.3162003844336
 20
132.3270875524458
 30
0.0
 10
190.0144842062043
 20
132.2466391898343
 30
0.0
 10
189.8683936764898
 20
132.195793789623
 30
0.0
 10
189.5986798990847
 20
132.0761737196484
 30
0.0
 10
189.4734985654416
 20
132.0071358158485
 30
0.0
 10
189.126888025014
 20
131.7686622424428
 30
0.0
 10
188.9437451901256
 20
131.5740783605326
 30
0.0
 10
188.7540786299863
 20
131.2305017798267
 30
0.0
 10
188.7064408825578
 20
131.109937594417
 30
0.0
 10
188.6419226476256
 20
130.8558600389574
 30
0.0
 10
188.6252255418839
 20
130.7206436100081
 30
0.0
 10
188.6252345142514
 20
130.4474805109182
 30
0.0
 10
188.6413653501979
 20
130.3089876481872
 30
0.0
 10
188.7060250268665
 20
130.0284701618684
 30
0.0
 10
188.7546953815057
 20
129.8875224887916
 30
0.0
 10
188.8801247538245
 20
129.6153379587318
 30
0.0
 10
188.9578684063147
 20
129.4816387977112
 30
0.0
 10
189.1401678933275
 20
129.2265695840174
 30
0.0
 10
189.2431310466218
 20
129.1070395231528
 30
0.0
 10
189.4723320189143
 20
128.8848619294871
 30
0.0
 10
189.5999629970224
 20
128.7815092643449
 30
0.0
 10
189.8698086584589
 20
128.6016041284728
 30
0.0
 10
190.012663401846
 20
128.5240678904079
 30
0.0
 10
190.3150609290921
 20
128.3959785778707
 30
0.0
 10
190.4742761600369
 20
128.3460897944947
 30
0.0
 10
190.7951638913549
 20
128.2799594466504
 30
0.0
 10
190.958677119384
 20
128.2628675853062
 30
0.0
 10
191.2917829348975
 20
128.2628675853062
 30
0.0
  0
CIRCLE
  5
137
330
1F
100
AcDbEntity
  8
0
  6
HIDDEN
 62
     7
370
     0
100
AcDbCircle
 10
212.6852152364
 20
109.7565696618
 30
0.0
 40
3.471921970270481
  0
LINE
  5
138
330
1F
100
AcDbEntity
  8
0
  6
HIDDEN
 62
     7
370
     0
100
AcDbLine
 10
224.7082057401
 20
128.0208607835
 30
0.0
 11
227.895491326
 21
123.8004369585
 31
0.0
  0
SPLINE
  5
139
330
1F
100
AcDbEntity
  8
0
  6
HIDDEN
 62
     7
370
     0
100
AcDbSpline
210
0.0
220
0.0
230
1.0
 70
     8
 71
     3
 72
    11
 73
     7
 74
     0
 42
0.00000001
 43
0.00000001
 12
1.0
 22
0.0
 32
0.0
 13
1.0
 23
0.0
 33
0.0
 40
0.0
 40
0.0
 40
0.0
 40
0.0
 40
0.2568706807500298
 40
0.5525622001535215
 40
0.8506343423194526
 40
1.0
 40
1.0
 40
1.0
 40
1.0
 10
204.4858267237725
 20
100.2569348087701
 30
0.0
 10
204.4472716554336
 20
100.4697441658067
 30
0.0
 10
204.3643346953797
 20
100.9275247353681
 30
0.0
 10
204.7208413407613
 20
101.5029596718354
 30
0.0
 10
205.2853640961617
 20
101.8955639384136
 30
0.0
 10
205.7470995353546
 20
102.0483549222627
 30
0.0
 10
205.9012380939947
 20
102.0993602816627
 30
0.0
  0
SPLINE
  5
13A
330
1F
100
AcDbEntity
  8
0
  6
HIDDEN
 62
     7
370
     0
100
AcDbSpline
210
0.0
220
0.0
230
1.0
 70
     8
 71
     3
 72
    14
 73
    10
 74
     0
 42
0.00000001
 43
0.00000001
 12
1.0
 22
0.0
 32
0.0
 13
1.0
 23
0.0
 33
0.0
 40
0.0
 40
0.0
 40
0.0
 40
0.0
 40
0.4999999999999996
 40
0.4999999999999996
 40
0.6249999999999997
 40
0.6249999999999997
 40
0.7499999999999998
 40
0.7499999999999998
 40
1.0
 40
1.0
 40
1.0
 40
1.0
 10
205.3670847213841
 20
111.431514442972
 30
0.0
 10
205.4845982614658
 20
109.6799658861302
 30
0.0
 10
205.5872999792476
 20
108.0217883510833
 30
0.0
 10
205.6990415953374
 20
106.0632804931193
 30
0.0
 10
205.7205451818214
 20
105.6773631255105
 30
0.0
 10
205.7618589540479
 20
104.9173344179559
 30
0.0
 10
205.78172924487
 20
104.5420277745757
 30
0.0
 10
205.8381704323538
 20
103.4460442522538
 30
0.0
 10
205.8716702706386
 20
102.7539315480579
 30
0.0
 10
205.9012380939947
 20
102.0993602816627
 30
0.0
  0
SPLINE
  5
13B
330
1F
100
AcDbEntity
  8
0
  6
HIDDEN
 62
     7
370
     0
100
AcDbSpline
210
0.0
220
0.0
230
1.0
 70
     8
 71
     3
 72
     8
 73
     4
 74
     0
 42
0.00000001
 43
0.00000001
 12
1.0
 22
0.0
 32
0.0
 13
1.0
 23
0.0
 33
0.0
 40
0.0
 40
0.0
 40
0.0
 40
0.0
 40
1.0
 40
1.0
 40
1.0
 40
1.0
 10
205.3670847213841
 20
111.4315144429721
 30
0.0
 10
204.8433803403
 20
115.2677145274285
 30
0.0
 10
204.4661762677216
 20
119.1245645504836
 30
0.0
 10
204.3238288654508
 20
123.0145187756448
 30
0.0
  0
ARC
  5
13C
330
1F
100
AcDbEntity
  8
0
  6
HIDDEN
 62
     7
370
     0
100
AcDbCircle
 10
223.7013102627
 20
108.5742740066
 30
0.0
 40
2.098847414753883
100
AcDbArc
 50
26.238522272
 51
204.9448036191
  0
LINE
  5
13D
330
1F
100
AcDbEntity
  8
0
  6
HIDDEN
 62
     7
370
     0
100
AcDbLine
 10
227.7842884791
 20
104.8358048012
 30
0.0
 11
226.1737816103
 21
108.2512173939
 31
0.0
  0
LINE
  5
13E
330
1F
100
AcDbEntity
  8
0
  6
HIDDEN
 62
     7
370
     0
100
AcDbLine
 10
225.7789277437
 20
109.0885866063
 30
0.0
 11
225.5838952201
 21
109.5021933721
 31
0.0
  0
LINE
  5
13F
330
1F
100
AcDbEntity
  8
0
  6
HIDDEN
 62
     7
370
     0
100
AcDbLine
 10
228.7480409104
 20
103.5596581827
 30
0.0
 11
227.7842884791
 21
104.8358048012
 31
0.0
  0
LINE
  5
140
330
1F
100
AcDbEntity
  8
0
  6
HIDDEN
 62
     7
370
     0
100
AcDbLine
 10
220.6043346739
 20
103.5143409766
 30
0.0
 11
220.6208996473
 21
103.492406573
 31
0.0
  0
LINE
  5
141
330
1F
100
AcDbEntity
  8
0
  6
HIDDEN
 62
     7
370
     0
100
AcDbLine
 10
222.2912443771
 20
106.6436095794
 30
0.0
 11
223.2549968084
 21
105.3674629609
 31
0.0
  0
ELLIPSE
  5
142
330
1F
100
AcDbEntity
  8
0
  6
HIDDEN
 62
     7
370
     0
100
AcDbEllipse
 10
219.2232846007
 20
103.370642568
 30
0.0
 11
1.334428566009222
 21
2.20935854018613
 31
0.0
210
0.0
220
0.0
230
1.0
 40
0.2605793844
 41
3.037700530381051
 42
4.120971618670557
  0
SPLINE
  5
143
330
1F
100
AcDbEntity
  8
0
  6
HIDDEN
 62
     7
370
     0
100
AcDbSpline
210
0.0
220
0.0
230
1.0
 70
     8
 71
     3
 72
    38
 73
    34
 74
     0
 42
0.00000001
 43
0.00000001
 12
1.0
 22
0.0
 32
0.0
 13
1.0
 23
0.0
 33
0.0
 40
0.0
 40
0.0
 40
0.0
 40
0.0
 40
0.1250000000000016
 40
0.1250000000000016
 40
0.1875000000000024
 40
0.1875000000000024
 40
0.2500000000000032
 40
0.2500000000000032
 40
0.3125000000000039
 40
0.3125000000000039
 40
0.3750000000000048
 40
0.3750000000000048
 40
0.4062500000000051
 40
0.4062500000000051
 40
0.4375000000000054
 40
0.4375000000000054
 40
0.4687500000000058
 40
0.4687500000000058
 40
0.5000000000000061
 40
0.5000000000000061
 40
0.5312500000000066
 40
0.5312500000000066
 40
0.5625000000000069
 40
0.5625000000000069
 40
0.6250000000000061
 40
0.6250000000000061
 40
0.6875000000000053
 40
0.6875000000000053
 40
0.7500000000000046
 40
0.7500000000000046
 40
0.8750000000000023
 40
0.8750000000000023
 40
1.0
 40
1.0
 40
1.0
 40
1.0
 10
216.1173264677373
 20
110.1939175699472
 30
0.0
 10
216.1721578407058
 20
110.1213129580909
 30
0.0
 10
216.2167010212803
 20
109.980952667688
 30
0.0
 10
216.2649753115323
 20
109.7109709889907
 30
0.0
 10
216.2777328159931
 20
109.6100640526476
 30
0.0
 10
216.2935093856801
 20
109.3917735215124
 30
0.0
 10
216.2966329709636
 20
109.2741450134782
 30
0.0
 10
216.2891702348813
 20
109.0215243990365
 30
0.0
 10
216.2787050498802
 20
108.8866073599511
 30
0.0
 10
216.2362171911028
 20
108.5953933404169
 30
0.0
 10
216.2040606112386
 20
108.4377267589073
 30
0.0
 10
216.1282026180533
 20
108.1844692581233
 30
0.0
 10
216.0982765435189
 20
108.097156326445
 30
0.0
 10
216.024874885158
 20
107.9146555604286
 30
0.0
 10
215.981101070671
 20
107.8189374348073
 30
0.0
 10
215.8759187157548
 20
107.6229838337277
 30
0.0
 10
215.8131958106879
 20
107.5205764263442
 30
0.0
 10
215.6667478197728
 20
107.3180024116066
 30
0.0
 10
215.5807227008561
 20
107.2154296972334
 30
0.0
 10
215.3964464115328
 20
107.0291532106126
 30
0.0
 10
215.2958650573121
 20
106.9430353843323
 30
0.0
 10
215.0973378862247
 20
106.7971071170697
 30
0.0
 10
214.9978637660393
 20
106.7356335593553
 30
0.0
 10
214.7143180641983
 20
106.5830919426523
 30
0.0
 10
214.5380168345206
 20
106.5183510410283
 30
0.0
 10
214.2164341954808
 20
106.4280377311923
 30
0.0
 10
214.0673961444485
 20
106.4018865009048
 30
0.0
 10
213.790562753403
 20
106.3717317023216
 30
0.0
 10
213.6633620910684
 20
106.3679144969269
 30
0.0
 10
213.3084979154466
 20
106.3774469613233
 30
0.0
 10
213.1060538624079
 20
106.4114364121162
 30
0.0
 10
212.7789971894196
 20
106.5076416700542
 30
0.0
 10
212.6559250231545
 20
106.5688419007584
 30
0.0
 10
212.6011605864703
 20
106.6413578793619
 30
0.0
  0
ELLIPSE
  5
144
330
1F
100
AcDbEntity
  8
0
  6
HIDDEN
 62
     7
370
     0
100
AcDbEllipse
 10
219.2232846007
 20
103.370642568
 30
0.0
 11
2.13785359993156
 21
1.378829910960462
 31
0.0
210
0.0
220
0.0
230
1.0
 40
0.2825155173
 41
5.220855580025161
 42
6.304126668314562
  0
SPLINE
  5
145
330
1F
100
AcDbEntity
  8
0
  6
HIDDEN
 62
     7
370
     0
100
AcDbSpline
210
0.0
220
0.0
230
1.0
 70
     8
 71
     3
 72
    14
 73
    10
 74
     0
 42
0.00000001
 43
0.00000001
 12
1.0
 22
0.0
 32
0.0
 13
1.0
 23
0.0
 33
0.0
 40
0.0
 40
0.0
 40
0.0
 40
0.0
 40
0.25
 40
0.25
 40
0.5
 40
0.5
 40
0.75
 40
0.75
 40
1.0
 40
1.0
 40
1.0
 40
1.0
 10
220.604334673878
 20
103.5143409765898
 30
0.0
 10
220.3967191417256
 20
103.4800461118664
 30
0.0
 10
220.2003683575621
 20
103.4137172193827
 30
0.0
 10
219.8287151708606
 20
103.2198786508605
 30
0.0
 10
219.6606982134634
 20
103.0956419538087
 30
0.0
 10
219.3664930955252
 20
102.798849053287
 30
0.0
 10
219.2433872032943
 20
102.6288737780713
 30
0.0
 10
219.0545876066915
 20
102.2583816516396
 30
0.0
 10
218.9890815122761
 20
102.0578111705876
 30
0.0
 10
218.9572188136412
 20
101.8501767680764
 30
0.0
  0
LINE
  5
146
330
1F
100
AcDbEntity
  8
0
  6
HIDDEN
 62
     7
370
     0
100
AcDbLine
 10
218.9572188136
 20
101.8501767681
 30
0.0
 11
218.973783787
 21
101.8282423645
 31
0.0
  0
LINE
  5
147
330
1F
100
AcDbEntity
  8
0
  6
HIDDEN
 62
     7
370
     0
100
AcDbLine
 10
214.9282791629
 20
96.0161988397
 30
0.0
 11
213.9645267316
 21
97.2923454582
 31
0.0
  0
LINE
  5
148
330
1F
100
AcDbEntity
  8
0
  6
HIDDEN
 62
     7
370
     0
100
AcDbLine
 10
229.6386968581
 20
103.9862296747
 30
0.0
 11
228.6749444268
 21
105.2623762932
 31
0.0
  0
SPLINE
  5
149
330
1F
100
AcDbEntity
  8
0
  6
HIDDEN
 62
     7
370
     0
100
AcDbSpline
210
0.0
220
0.0
230
1.0
 70
     8
 71
     3
 72
    28
 73
    24
 74
     0
 42
0.00000001
 43
0.00000001
 12
1.0
 22
0.0
 32
0.0
 13
1.0
 23
0.0
 33
0.0
 40
0.0
 40
0.0
 40
0.0
 40
0.0
 40
0.0624999999999985
 40
0.0624999999999985
 40
0.1249999999999969
 40
0.1249999999999969
 40
0.2499999999999942
 40
0.2499999999999942
 40
0.3749999999999915
 40
0.3749999999999915
 40
0.4374999999999913
 40
0.4374999999999913
 40
0.4999999999999911
 40
0.4999999999999911
 40
0.6249999999999929
 40
0.6249999999999929
 40
0.6874999999999937
 40
0.6874999999999937
 40
0.7499999999999943
 40
0.7499999999999943
 40
0.8749999999999971
 40
0.8749999999999971
 40
1.0
 40
1.0
 40
1.0
 40
1.0
 10
213.3870086356393
 20
110.5885864730753
 30
0.0
 10
213.2853447020491
 20
110.448916853085
 30
0.0
 10
213.1750700049234
 20
110.3152167875366
 30
0.0
 10
212.9361165518356
 20
110.0603299859354
 30
0.0
 10
212.8078382182826
 20
109.939842932953
 30
0.0
 10
212.4055370246123
 20
109.6081218468928
 30
0.0
 10
212.1111986733309
 20
109.4224922833912
 30
0.0
 10
211.4628218601356
 20
109.1294454867489
 30
0.0
 10
211.1218461908008
 20
109.0286404381026
 30
0.0
 10
210.5929682434908
 20
108.9491248123557
 30
0.0
 10
210.4116620990948
 20
108.9345434051691
 30
0.0
 10
210.0508789837427
 20
108.9307162971358
 30
0.0
 10
209.8718196742298
 20
108.9411969656348
 30
0.0
 10
209.3384690763181
 20
109.0082443945428
 30
0.0
 10
208.9841839461462
 20
109.1024343420955
 30
0.0
 10
208.4881649754382
 20
109.3038261021898
 30
0.0
 10
208.3276843657696
 20
109.3809963028921
 30
0.0
 10
208.016070447968
 20
109.5548119303501
 30
0.0
 10
207.8649656084281
 20
109.6516430537477
 30
0.0
 10
207.4358779355267
 20
109.9633520703765
 30
0.0
 10
207.1770298241447
 20
110.2019688331606
 30
0.0
 10
206.7151615807454
 20
110.7345175975656
 30
0.0
 10
206.5181617355532
 20
111.0211589167182
 30
0.0
 10
206.3533047923385
 20
111.3278585366107
 30
0.0
  0
ELLIPSE
  5
14A
330
1F
100
AcDbEntity
  8
0
  6
HIDDEN
 62
     7
370
     0
100
AcDbEllipse
 10
210.0778522461
 20
113.2726414235
 30
0.0
 11
2.570105550204516
 21
-3.403188827857448
 31
0.0
210
0.0
220
0.0
230
1.0
 40
0.9848432766
 41
0.2460841875046172
 42
4.549242802391753
  0
LINE
  5
14B
330
1F
100
AcDbEntity
  8
0
  6
HIDDEN
 62
     7
370
     0
100
AcDbLine
 10
215.7241635946
 20
110.7145216741
 30
0.0
 11
216.1173264677
 21
110.1939175699
 31
0.0
  0
ELLIPSE
  5
14C
330
1F
100
AcDbEntity
  8
0
  6
HIDDEN
 62
     7
370
     0
100
AcDbEllipse
 10
211.8585679888
 20
110.9147180609
 30
0.0
 11
3.167078026784082
 21
2.762841112032632
 31
0.0
210
0.0
220
0.0
230
1.0
 40
0.8543839535
 41
4.160460674162464
 42
5.435584515400862
  0
LINE
  5
14D
330
1F
100
AcDbEntity
  8
0
  6
HIDDEN
 62
     7
370
     0
100
AcDbLine
 10
212.6011605865
 20
106.6413578794
 30
0.0
 11
212.2079977133
 21
107.1619619835
 31
0.0
  0
CIRCLE
  5
14E
330
1F
100
AcDbEntity
  8
0
  6
HIDDEN
 62
     7
370
     0
100
AcDbCircle
 10
212.6310013865
 20
109.8178003943
 30
0.0
 40
4.168199879689281
  0
LINE
  5
14F
330
1F
100
AcDbEntity
  8
0
  6
HIDDEN
 62
     7
370
     0
100
AcDbLine
 10
220.7564541999
 20
105.5510841524
 30
0.0
 11
221.3525125307
 21
104.7618173258
 31
0.0
  0
LINE
  5
150
330
1F
100
AcDbEntity
  8
0
  6
HIDDEN
 62
     7
370
     0
100
AcDbLine
 10
212.2079977133
 20
107.1619619835
 30
0.0
 11
215.0189808625
 21
104.5257541565
 31
0.0
  0
LINE
  5
151
330
1F
100
AcDbEntity
  8
0
  6
HIDDEN
 62
     7
370
     0
100
AcDbLine
 10
219.8965626281
 20
99.3924668595
 30
0.0
 11
219.6444349893
 21
99.72632006
 31
0.0
  0
LINE
  5
152
330
1F
100
AcDbEntity
  8
0
  6
HIDDEN
 62
     7
370
     0
100
AcDbLine
 10
217.2402883187
 20
101.9985244618
 30
0.0
 11
219.8965626281
 21
99.3924668595
 31
0.0
  0
LINE
  5
153
330
1F
100
AcDbEntity
  8
0
  6
HIDDEN
 62
     7
370
     0
100
AcDbLine
 10
217.8363466494
 20
101.2092576352
 30
0.0
 11
217.2402883187
 21
101.9985244618
 31
0.0
  0
LWPOLYLINE
  5
154
330
1F
100
AcDbEntity
  8
0
  6
HIDDEN
 62
     7
370
     0
100
AcDbPolyline
 90
       28
 70
   128
 43
0.0
 10
191.1252300271
 20
134.3548497831
 10
191.701769704
 20
134.4107168207
 10
192.2472279776
 20
134.5753061273
 10
192.7321990514
 20
134.8397446505
 10
193.130538009
 20
135.1897764412
 10
193.4207702943
 20
135.606531195
 10
193.5872494097
 20
136.0675415553
 10
193.6210004228
 20
136.547954334
 10
193.5202038079
 20
137.0218703541
 10
193.2902935366
 20
137.4637406802
 10
192.9436641311
 20
137.8497439686
 10
192.4990024723
 20
138.1590706822
 10
191.9802803855
 20
138.3750449377
 10
191.4154623125
 20
138.4860235072
 10
190.8349977418
 20
138.4860235072
 10
190.2701796688
 20
138.3750449377
 10
189.751457582
 20
138.1590706822
 10
189.3067959232
 20
137.8497439686
 10
188.9601665177
 20
137.4637406802
 10
188.7302562464
 20
137.0218703541
 10
188.6294596315
 20
136.547954334
 10
188.6632106446
 20
136.0675415553
 10
188.8296897599
 20
135.606531195
 10
189.1199220453
 20
135.1897764412
 10
189.5182610029
 20
134.8397446505
 10
190.0032320766
 20
134.5753061273
 10
190.5486903503
 20
134.4107168207
 10
191.1252300271
 20
134.3548497831
  0
SPLINE
  5
155
330
1F
100
AcDbEntity
  8
0
  6
HIDDEN
 62
     7
370
     0
100
AcDbSpline
210
0.0
220
0.0
230
1.0
 70
     8
 71
     3
 72
    18
 73
    14
 74
     0
 42
0.00000001
 43
0.00000001
 12
1.0
 22
0.0
 32
0.0
 13
1.0
 23
0.0
 33
0.0
 40
0.0
 40
0.0
 40
0.0
 40
0.0
 40
0.2499999999999996
 40
0.2499999999999996
 40
0.3749999999999997
 40
0.3749999999999997
 40
0.4999999999999999
 40
0.4999999999999999
 40
0.625
 40
0.625
 40
0.7500000000000001
 40
0.7500000000000001
 40
1.0
 40
1.0
 40
1.0
 40
1.0
 10
169.8039096835811
 20
143.8268798170805
 30
0.0
 10
169.6686240772788
 20
143.755527075391
 30
0.0
 10
169.5674563310358
 20
143.6101236688015
 30
0.0
 10
169.4645949881669
 20
143.2806564331959
 30
0.0
 10
169.4384921426436
 20
143.1517228563912
 30
0.0
 10
169.4036021590988
 20
142.8561808570551
 30
0.0
 10
169.3950159008088
 20
142.6917860835331
 30
0.0
 10
169.3949161912431
 20
142.3308244687925
 30
0.0
 10
169.4034045623917
 20
142.1342546766303
 30
0.0
 10
169.4375479419123
 20
141.7088998805053
 30
0.0
 10
169.4633449237661
 20
141.4791302307057
 30
0.0
 10
169.566746055154
 20
140.7465415362733
 30
0.0
 10
169.6686040473254
 20
140.2093047613557
 30
0.0
 10
169.8039096835811
 20
139.6250166726081
 30
0.0
  0
LINE
  5
156
330
1F
100
AcDbEntity
  8
0
  6
HIDDEN
 62
     7
370
     0
100
AcDbLine
 10
168.9252300271
 20
144.0500687336
 30
0.0
 11
168.9252300271
 21
138.9099162458
 31
0.0
  0
LINE
  5
157
330
1F
100
AcDbEntity
  8
0
  6
HIDDEN
 62
     7
370
     0
100
AcDbLine
 10
142.6252300271
 20
143.389321191
 30
0.0
 11
142.6252300271
 21
138.5795424745
 31
0.0
  0
LINE
  5
158
330
1F
100
AcDbEntity
  8
0
  6
HIDDEN
 62
     7
370
     0
100
AcDbLine
 10
142.6252300271
 20
114.4803974236
 30
0.0
 11
142.6252300271
 21
109.6706187071
 31
0.0
  0
LINE
  5
159
330
1F
100
AcDbEntity
  8
0
  6
HIDDEN
 62
     7
370
     0
100
AcDbLine
 10
141.1252300271
 20
114.9134101255
 30
0.0
 11
141.1252300271
 21
110.5366441109
 31
0.0
  0
LINE
  5
15A
330
1F
100
AcDbEntity
  8
0
  6
HIDDEN
 62
     7
370
     0
100
AcDbLine
 10
141.1252300271
 20
142.5232957872
 30
0.0
 11
141.1252300271
 21
138.1465297726
 31
0.0
  0
LINE
  5
15B
330
1F
100
AcDbEntity
  8
0
  6
HIDDEN
 62
     7
370
     0
100
AcDbLine
 10
168.9252300271
 20
114.1500236523
 30
0.0
 11
168.9252300271
 21
109.0098711645
 31
0.0
  0
SPLINE
  5
15C
330
1F
100
AcDbEntity
  8
0
  6
HIDDEN
 62
     7
370
     0
100
AcDbSpline
210
0.0
220
0.0
230
1.0
 70
     8
 71
     3
 72
    18
 73
    14
 74
     0
 42
0.00000001
 43
0.00000001
 12
1.0
 22
0.0
 32
0.0
 13
1.0
 23
0.0
 33
0.0
 40
0.0
 40
0.0
 40
0.0
 40
0.0
 40
0.2500000000000002
 40
0.2500000000000002
 40
0.375
 40
0.375
 40
0.4999999999999999
 40
0.4999999999999999
 40
0.6249999999999998
 40
0.6249999999999998
 40
0.7499999999999996
 40
0.7499999999999996
 40
1.0
 40
1.0
 40
1.0
 40
1.0
 10
169.8039096835811
 20
113.4349232255433
 30
0.0
 10
169.6686240772788
 20
112.8507216318116
 30
0.0
 10
169.5674563310358
 20
112.3165039446034
 30
0.0
 10
169.4645949881669
 20
111.590607173715
 30
0.0
 10
169.4384921426436
 20
111.3607266859351
 30
0.0
 10
169.4036021590988
 20
110.9301557411483
 30
0.0
 10
169.3950159008088
 20
110.7324608356541
 30
0.0
 10
169.3949161912431
 20
110.3711127929763
 30
0.0
 10
169.4034045623917
 20
110.2074627830302
 30
0.0
 10
169.4375479419123
 20
109.9142515100612
 30
0.0
 10
169.4633449237661
 20
109.7842554439454
 30
0.0
 10
169.566746055154
 20
109.4501995513835
 30
0.0
 10
169.6686040473254
 20
109.3044233870187
 30
0.0
 10
169.8039096835811
 20
109.2330600810708
 30
0.0
  0
ARC
  5
15D
330
1F
100
AcDbEntity
  8
0
  6
HIDDEN
 62
     7
370
     0
100
AcDbCircle
 10
223.2198825117
 20
99.6195446606
 30
0.0
 40
3.331068803892598
100
AcDbArc
 50
183.9088648269
 51
86.6811123136
  0
LINE
  5
15E
330
1F
100
AcDbEntity
  8
0
  6
HIDDEN
 62
     7
370
     0
100
AcDbLine
 10
229.1902764344
 20
93.2705693106
 30
0.0
 11
229.6856421176
 21
93.7743496253
 31
0.0
  0
ELLIPSE
  5
15F
330
1F
100
AcDbEntity
  8
0
  6
HIDDEN
 62
     7
370
     0
100
AcDbEllipse
 10
207.9503000578
 20
117.9051621656
 30
0.0
 11
192.1055972189804
 21
-17.19771447917975
 31
0.0
210
0.0
220
0.0
230
1.0
 40
0.1182598878
 41
4.794079592997369
 42
4.833759256343607
  0
LINE
  5
160
330
1F
100
AcDbEntity
  8
0
  6
HIDDEN
 62
     7
370
     0
100
AcDbLine
 10
223.4127285094
 20
102.9450265501
 30
0.0
 11
220.7564541999
 21
105.5510841524
 31
0.0
  0
LINE
  5
161
330
1F
100
AcDbEntity
  8
0
  6
HIDDEN
 62
     7
370
     0
100
AcDbLine
 10
228.6749444268
 20
105.2623762932
 30
0.0
 11
227.7842884791
 21
104.8358048012
 31
0.0
  0
LINE
  5
162
330
1F
100
AcDbEntity
  8
0
  6
HIDDEN
 62
     7
370
     0
100
AcDbLine
 10
217.2402883187
 20
101.9985244618
 30
0.0
 11
213.9645267316
 21
97.2923454582
 31
0.0
  0
LINE
  5
163
330
1F
100
AcDbEntity
  8
0
  6
HIDDEN
 62
     7
370
     0
100
AcDbLine
 10
222.2912443771
 20
106.6436095794
 30
0.0
 11
220.7564541999
 21
105.5510841524
 31
0.0
  0
LINE
  5
164
330
1F
100
AcDbEntity
  8
0
  6
HIDDEN
 62
     7
370
     0
100
AcDbLine
 10
221.7982548798
 20
107.6890956743
 30
0.0
 11
222.2912443771
 21
106.6436095794
 31
0.0
  0
LINE
  5
165
330
1F
100
AcDbEntity
  8
0
  6
HIDDEN
 62
     7
370
     0
100
AcDbLine
 10
213.9645267316
 20
97.2923454582
 30
0.0
 11
221.5990579685
 21
93.8592077847
 31
0.0
  0
LINE
  5
166
330
1F
100
AcDbEntity
  8
0
  6
HIDDEN
 62
     7
370
     0
100
AcDbLine
 10
229.6856320765
 20
93.7743594053
 30
0.0
 11
228.8396373827
 21
103.3903879894
 31
0.0
  0
LINE
  5
167
330
1F
100
AcDbEntity
  8
0
  6
HIDDEN
 62
     7
370
     0
100
AcDbLine
 10
228.8216440593
 20
103.5949097353
 30
0.0
 11
228.6749444268
 21
105.2623762932
 31
0.0
  0
SPLINE
  5
168
330
1F
100
AcDbEntity
  8
0
  6
HIDDEN
 62
     7
370
     0
100
AcDbSpline
210
0.0
220
0.0
230
1.0
 70
     8
 71
     3
 72
    12
 73
     8
 74
     0
 42
0.00000001
 43
0.00000001
 12
1.0
 22
0.0
 32
0.0
 13
1.0
 23
0.0
 33
0.0
 40
0.0
 40
0.0
 40
0.0
 40
0.0
 40
0.2499999999999997
 40
0.2499999999999997
 40
0.4999999999999994
 40
0.4999999999999994
 40
1.0
 40
1.0
 40
1.0
 40
1.0
 10
219.6444349892683
 20
99.7263200600462
 30
0.0
 10
219.6157596626637
 20
99.76429031038408
 30
0.0
 10
219.5854072501951
 20
99.82641631413621
 30
0.0
 10
219.5259102030299
 20
99.97728339729595
 30
0.0
 10
219.496584790421
 20
100.0665948254517
 30
0.0
 10
219.4148940884797
 20
100.3643643045789
 30
0.0
 10
219.3681003382869
 20
100.602385937094
 30
0.0
 10
219.3462479159641
 20
100.8726575193451
 30
0.0
  0
ARC
  5
169
330
1F
100
AcDbEntity
  8
0
  6
HIDDEN
 62
     7
370
     0
100
AcDbCircle
 10
222.6401047921
 20
100.3862076953
 30
0.0
 40
3.329583540292079
100
AcDbArc
 50
171.5990576123
 51
98.9909195282
  0
SPLINE
  5
16A
330
1F
100
AcDbEntity
  8
0
  6
HIDDEN
 62
     7
370
     0
100
AcDbSpline
210
0.0
220
0.0
230
1.0
 70
     8
 71
     3
 72
    12
 73
     8
 74
     0
 42
0.00000001
 43
0.00000001
 12
1.0
 22
0.0
 32
0.0
 13
1.0
 23
0.0
 33
0.0
 40
0.0
 40
0.0
 40
0.0
 40
0.0
 40
0.5000000000000013
 40
0.5000000000000013
 40
0.7500000000000007
 40
0.7500000000000007
 40
1.0
 40
1.0
 40
1.0
 40
1.0
 10
222.1197643681656
 20
103.6748810440543
 30
0.0
 10
222.3735174368727
 20
103.6384840656539
 30
0.0
 10
222.5929952377619
 20
103.5767211078882
 30
0.0
 10
222.864771135408
 20
103.4708887283825
 30
0.0
 10
222.9454634425713
 20
103.433243876158
 30
0.0
 10
223.078874137104
 20
103.3563187419013
 30
0.0
 10
223.1318683168089
 20
103.3169257778966
 30
0.0
 10
223.1606008705351
 20
103.2788797506316
 30
0.0
  0
LINE
  5
16B
330
1F
100
AcDbEntity
  8
0
  6
HIDDEN
 62
     7
370
     0
100
AcDbLine
 10
223.1606008705
 20
103.2788797506
 30
0.0
 11
223.4127285094
 21
102.9450265501
 31
0.0
  0
ELLIPSE
  5
16C
330
1F
100
AcDbEntity
  8
0
  6
HIDDEN
 62
     7
370
     0
100
AcDbEllipse
 10
157.5704218024
 20
123.2003007425
 30
0.0
 11
64.49581397978309
 21
-29.83499904393512
 31
0.0
210
0.0
220
0.0
230
1.0
 40
0.026675174
 41
0.1334014205675784
 42
0.6772069682981148
  0
SPLINE
  5
16D
330
1F
100
AcDbEntity
  8
0
  6
HIDDEN
 62
     7
370
     0
100
AcDbSpline
210
0.0
220
0.0
230
1.0
 70
     8
 71
     3
 72
     8
 73
     4
 74
     0
 42
0.00000001
 43
0.00000001
 12
1.0
 22
0.0
 32
0.0
 13
1.0
 23
0.0
 33
0.0
 40
0.0
 40
0.0
 40
0.0
 40
0.0
 40
1.0
 40
1.0
 40
1.0
 40
1.0
 10
208.332378461637
 20
101.0271707820089
 30
0.0
 10
207.5482724699973
 20
101.4219611200233
 30
0.0
 10
206.7377398590733
 20
101.7810425159505
 30
0.0
 10
205.9012380939947
 20
102.0993602816627
 30
0.0
  0
SPLINE
  5
16E
330
1F
100
AcDbEntity
  8
0
  6
HIDDEN
 62
     7
370
     0
100
AcDbSpline
210
0.0
220
0.0
230
1.0
 70
     8
 71
     3
 72
    35
 73
    31
 74
     0
 42
0.00000001
 43
0.00000001
 12
1.0
 22
0.0
 32
0.0
 13
1.0
 23
0.0
 33
0.0
 40
0.0
 40
0.0
 40
0.0
 40
0.0
 40
0.0209273473503991
 40
0.0418554754122524
 40
0.0627843847724322
 40
0.0837140760177446
 40
0.1046445497349288
 40
0.1255758065106579
 40
0.1465078469315409
 40
0.1674406715841197
 40
0.1883742810548712
 40
0.2093086759302049
 40
0.2302438567964665
 40
0.2511798242399327
 40
0.3141879194106638
 40
0.3769941715707461
 40
0.4395996273862024
 40
0.5020053436293661
 40
0.5481322825332727
 40
0.5934142933161313
 40
0.6378523110189124
 40
0.6814473255264489
 40
0.724200385816998
 40
0.7661126046247558
 40
0.8071851635634582
 40
0.8474193187656662
 40
0.8868164070999026
 40
0.9253778530364245
 40
0.9631051762425467
 40
1.0
 40
1.0
 40
1.0
 40
1.0
 10
226.1633501103947
 20
109.2457370686978
 30
0.0
 10
226.1832533735993
 20
109.0867011828416
 30
0.0
 10
226.2230606425156
 20
108.768623478168
 30
0.0
 10
226.2833050762228
 20
108.2955672931658
 30
0.0
 10
226.343969508416
 20
107.8257388090741
 30
0.0
 10
226.4051124828975
 20
107.3596234434286
 30
0.0
 10
226.4667458936951
 20
106.897353705963
 30
0.0
 10
226.5288939856331
 20
106.4391544815182
 30
0.0
 10
226.5915771427967
 20
105.9852235222367
 30
0.0
 10
226.6548176723497
 20
105.5357636135443
 30
0.0
 10
226.7186328230744
 20
105.0909728700547
 30
0.0
 10
226.7830568706277
 20
104.6510508356837
 30
0.0
 10
226.8480596966881
 20
104.216183243709
 30
0.0
 10
226.9579196547093
 20
103.4988412022972
 30
0.0
 10
227.1121105023981
 20
102.5202241759785
 30
0.0
 10
227.3092661308863
 20
101.3176803173184
 30
0.0
 10
227.505934268889
 20
100.177416498313
 30
0.0
 10
227.6858396804918
 20
99.19576341982228
 30
0.0
 10
227.8474467984469
 20
98.36147104889531
 30
0.0
 10
227.9891010559749
 20
97.66187227034997
 30
0.0
 10
228.1272108644813
 20
97.01273930557599
 30
0.0
 10
228.2616319086117
 20
96.41331380541554
 30
0.0
 10
228.3922845841882
 20
95.86267470559135
 30
0.0
 10
228.5190507702923
 20
95.35974796078675
 30
0.0
 10
228.6418053444521
 20
94.90329792111562
 30
0.0
 10
228.7604015296872
 20
94.49204990900479
 30
0.0
 10
228.8747080209919
 20
94.12431783299088
 30
0.0
 10
228.9844884474282
 20
93.79942330261792
 30
0.0
 10
229.0898425410799
 20
93.51263562007559
 30
0.0
 10
229.1571103837213
 20
93.35142253452463
 30
0.0
 10
229.1903690783554
 20
93.27171525430256
 30
0.0
  0
SPLINE
  5
16F
330
1F
100
AcDbEntity
  8
0
  6
HIDDEN
 62
     7
370
     0
100
AcDbSpline
210
0.0
220
0.0
230
1.0
 70
     8
 71
     3
 72
    31
 73
    27
 74
     0
 42
0.00000001
 43
0.00000001
 12
1.0
 22
0.0
 32
0.0
 13
1.0
 23
0.0
 33
0.0
 40
0.0
 40
0.0
 40
0.0
 40
0.0
 40
0.019023743521143
 40
0.0380286789090829
 40
0.0570232779340047
 40
0.0760160261977904
 40
0.0950154117821138
 40
0.1140299138799406
 40
0.1330679914864368
 40
0.1521380722243337
 40
0.1712485413767396
 40
0.1904077311972005
 40
0.2096239105626233
 40
0.2289052750295887
 40
0.2482599373487316
 40
0.3732917389473046
 40
0.4979933870969881
 40
0.6229391226997095
 40
0.7488153636589628
 40
0.7850172137809224
 40
0.8210269066417415
 40
0.8568955974563793
 40
0.8926750462325912
 40
0.9284174006856898
 40
0.9641749708229378
 40
0.9999999999999999
 40
0.9999999999999999
 40
0.9999999999999999
 40
0.9999999999999999
 10
229.6856167909245
 20
93.77437964566121
 30
0.0
 10
229.6673314348509
 20
93.81691343777942
 30
0.0
 10
229.6307788008182
 20
93.90193897029106
 30
0.0
 10
229.5750667519595
 20
94.04159665494194
 30
0.0
 10
229.5187546340258
 20
94.19002363692496
 30
0.0
 10
229.4617761761744
 20
94.34809440975917
 30
0.0
 10
229.404149168476
 20
94.51557467234456
 30
0.0
 10
229.345868887967
 20
94.69252706659717
 30
0.0
 10
229.286936650402
 20
94.87893460353754
 30
0.0
 10
229.2273521390074
 20
95.07480170617428
 30
0.0
 10
229.167115527835
 20
95.28012672584862
 30
0.0
 10
229.1062266636388
 20
95.49491075780973
 30
0.0
 10
229.0446862136047
 20
95.71914989349858
 30
0.0
 10
228.982491875584
 20
95.95285748643437
 30
0.0
 10
228.8053877643597
 20
96.63807119260035
 30
0.0
 10
228.5070965291191
 20
97.9121262742592
 30
0.0
 10
228.0827474178674
 20
100.0174026236383
 30
0.0
 10
227.6560068116734
 20
102.4160063005926
 30
0.0
 10
227.334503082708
 20
104.4398954433491
 30
0.0
 10
227.1173427131806
 20
105.9001128283741
 30
0.0
 10
227.0000974759274
 20
106.7119395239878
 30
0.0
 10
226.8847539969133
 20
107.5344998118785
 30
0.0
 10
226.7712918358484
 20
108.3677751438993
 30
0.0
 10
226.6597680739888
 20
109.2119405617682
 30
0.0
 10
226.5499792961835
 20
110.066284769884
 30
0.0
 10
226.4785536455512
 20
110.6435725211928
 30
0.0
 10
226.442807164669
 20
110.9324884132154
 30
0.0
  0
ELLIPSE
  5
170
330
1F
100
AcDbEntity
  8
0
  6
HIDDEN
 62
     7
370
     0
100
AcDbEllipse
 10
219.3799130733
 20
103.6012822068
 30
0.0
 11
2.219475038682589
 21
-2.141201758675706
 31
0.0
210
0.0
220
0.0
230
1.0
 40
0.8103652656
 41
5.363975033923973
 42
7.181650891589039
  0
LWPOLYLINE
  5
171
330
1F
100
AcDbEntity
  8
0
  6
HIDDEN
 62
     7
370
     0
100
AcDbPolyline
 90
       14
 70
   128
 43
0.0
 10
215.0189808625
 20
104.5257541565
 10
215.3684464396
 20
104.297542705
 10
215.7997757377
 20
104.1858250017
 10
216.2879014659
 20
104.1970936733
 10
216.8044555312
 20
104.3306938257
 10
217.3194176887
 20
104.5788611036
 10
217.8028602098
 20
104.9271729268
 10
218.2266871724
 20
105.3553866784
 10
218.5662672939
 20
105.8386161314
 10
218.801865412
 20
106.3487777466
 10
218.9197894204
 20
106.8562227852
 10
218.9131860045
 20
107.3314603862
 10
218.7824389307
 20
107.7468714675
 10
218.5351467437
 20
108.0783138471
  0
LINE
  5
172
330
1F
100
AcDbEntity
  8
0
  6
HIDDEN
 62
     7
370
     0
100
AcDbLine
 10
218.5351467437
 20
108.0783138471
 30
0.0
 11
215.7241635946
 21
110.7145216741
 31
0.0
  0
LINE
  5
173
330
1F
100
AcDbEntity
  8
0
  6
HIDDEN
 62
     7
370
     0
100
AcDbLine
 10
141.1252300271
 20
138.1465297726
 30
0.0
 11
141.1252300271
 21
128.8691408773
 31
0.0
  0
LINE
  5
174
330
1F
100
AcDbEntity
  8
0
  6
HIDDEN
 62
     7
370
     0
100
AcDbLine
 10
141.1252300271
 20
124.1907990208
 30
0.0
 11
141.1252300271
 21
114.9134101255
 31
0.0
  0
LINE
  5
175
330
1F
100
AcDbEntity
  8
0
  6
HIDDEN
 62
     7
370
     0
100
AcDbLine
 10
142.6252300271
 20
123.3814928307
 30
0.0
 11
142.6252300271
 21
114.4803974236
 31
0.0
  0
LINE
  5
176
330
1F
100
AcDbEntity
  8
0
  6
HIDDEN
 62
     7
370
     0
100
AcDbLine
 10
142.6252300271
 20
138.5795424745
 30
0.0
 11
142.6252300271
 21
129.6784470674
 31
0.0
  0
LINE
  5
177
330
1F
100
AcDbEntity
  8
0
  6
HIDDEN
 62
     7
370
     0
100
AcDbLine
 10
168.9252300271
 20
138.9099162458
 30
0.0
 11
168.9252300271
 21
114.1500236523
 31
0.0
  0
LINE
  5
178
330
1F
100
AcDbEntity
  8
0
  6
HIDDEN
 62
     7
370
     0
100
AcDbLine
 10
170.9252300271
 20
138.0922441822
 30
0.0
 11
170.9252300271
 21
114.967695716
 31
0.0
  0
LWPOLYLINE
  5
179
330
1F
100
AcDbEntity
  8
0
  6
HIDDEN
 62
     7
370
     0
100
AcDbPolyline
 90
       31
 70
   128
 43
0.0
 10
191.1252300271
 20
134.1083294939
 10
191.7489650996
 20
134.162678874
 10
192.3454399564
 20
134.3233516857
 10
192.888585784
 20
134.583325756
 10
193.3546645036
 20
134.9312389707
 10
193.7233062385
 20
135.3518858527
 10
193.978399576
 20
135.8268821149
 10
194.1087957132
 20
136.3354681412
 10
194.1087957132
 20
136.8554162819
 10
193.978399576
 20
137.3640023082
 10
193.7233062385
 20
137.8389985704
 10
193.3546645036
 20
138.2596454524
 10
192.888585784
 20
138.6075586671
 10
192.3454399564
 20
138.8675327374
 10
191.7489650996
 20
139.0282055491
 10
191.1252300271
 20
139.0825549292
 10
190.5014949547
 20
139.0282055491
 10
189.9050200979
 20
138.8675327374
 10
189.3618742703
 20
138.6075586671
 10
188.8957955507
 20
138.2596454524
 10
188.5271538158
 20
137.8389985704
 10
188.2720604783
 20
137.3640023082
 10
188.141664341
 20
136.8554162819
 10
188.141664341
 20
136.3354681412
 10
188.2720604783
 20
135.8268821149
 10
188.5271538158
 20
135.3518858527
 10
188.8957955507
 20
134.9312389707
 10
189.3618742703
 20
134.583325756
 10
189.9050200979
 20
134.3233516857
 10
190.5014949547
 20
134.162678874
 10
191.1252300271
 20
134.1083294939
  0
SPLINE
  5
17A
330
1F
100
AcDbEntity
  8
0
  6
HIDDEN
 62
     7
370
     0
100
AcDbSpline
210
0.0
220
0.0
230
1.0
 70
     8
 71
     3
 72
     8
 73
     4
 74
     0
 42
0.00000001
 43
0.00000001
 12
1.0
 22
0.0
 32
0.0
 13
1.0
 23
0.0
 33
0.0
 40
0.0000202085968836
 40
0.0000202085968836
 40
0.0000202085968836
 40
0.0000202085968836
 40
0.0040218806502652
 40
0.0040218806502652
 40
0.0040218806502652
 40
0.0040218806502652
 10
142.6252300271407
 20
123.381492830739
 30
0.0
 10
143.9585531529314
 20
123.3574945995753
 30
0.0
 10
145.2918870261539
 20
123.334166859407
 30
0.0
 10
146.6252300271407
 20
123.3114721886266
 30
0.0
  0
SPLINE
  5
17B
330
1F
100
AcDbEntity
  8
0
  6
HIDDEN
 62
     7
370
     0
100
AcDbSpline
210
0.0
220
0.0
230
1.0
 70
     8
 71
     3
 72
     8
 73
     4
 74
     0
 42
0.00000001
 43
0.00000001
 12
1.0
 22
0.0
 32
0.0
 13
1.0
 23
0.0
 33
0.0
 40
0.0000202082942178
 40
0.0000202082942178
 40
0.0000202082942178
 40
0.0000202082942178
 40
0.0040218803475994
 40
0.0040218803475994
 40
0.0040218803475994
 40
0.0040218803475994
 10
146.6252300271407
 20
129.7484677095248
 30
0.0
 10
145.2918870261539
 20
129.7257730387443
 30
0.0
 10
143.9585531529314
 20
129.702445298576
 30
0.0
 10
142.6252300271407
 20
129.6784470674124
 30
0.0
  0
SPLINE
  5
17C
330
1F
100
AcDbEntity
  8
0
  6
HIDDEN
 62
     7
370
     0
100
AcDbSpline
210
0.0
220
0.0
230
1.0
 70
     8
 71
     3
 72
     8
 73
     4
 74
     0
 42
0.00000001
 43
0.00000001
 12
1.0
 22
0.0
 32
0.0
 13
1.0
 23
0.0
 33
0.0
 40
0.0
 40
0.0
 40
0.0
 40
0.0
 40
1.0
 40
1.0
 40
1.0
 40
1.0
 10
141.1252300271398
 20
124.1907990208413
 30
0.0
 10
141.5994414375778
 20
123.8560697935462
 30
0.0
 10
142.1041777846797
 20
123.5970113797133
 30
0.0
 10
142.6252300271407
 20
123.381492830739
 30
0.0
  0
SPLINE
  5
17D
330
1F
100
AcDbEntity
  8
0
  6
HIDDEN
 62
     7
370
     0
100
AcDbSpline
210
0.0
220
0.0
230
1.0
 70
     8
 71
     3
 72
     8
 73
     4
 74
     0
 42
0.00000001
 43
0.00000001
 12
1.0
 22
0.0
 32
0.0
 13
1.0
 23
0.0
 33
0.0
 40
0.0
 40
0.0
 40
0.0
 40
0.0
 40
1.0
 40
1.0
 40
1.0
 40
1.0
 10
142.6252300271407
 20
129.6784470674124
 30
0.0
 10
142.10417778468
 20
129.4629285184382
 30
0.0
 10
141.5994414375784
 20
129.2038701046055
 30
0.0
 10
141.1252300271407
 20
128.8691408773107
 30
0.0
  0
LINE
  5
17E
330
1F
100
AcDbEntity
  8
0
  6
HIDDEN
 62
     7
370
     0
100
AcDbLine
 10
141.1252300271
 20
124.1907990208
 30
0.0
 11
141.1252300271
 21
128.8691408773
 31
0.0
  0
LINE
  5
17F
330
1F
100
AcDbEntity
  8
0
  6
HIDDEN
 62
     7
370
     0
100
AcDbLine
 10
146.6252300271
 20
123.3114721886
 30
0.0
 11
146.6252300271
 21
129.7484677095
 31
0.0
  0
SPLINE
  5
180
330
1F
100
AcDbEntity
  8
0
  6
HIDDEN
 62
     7
370
     0
100
AcDbSpline
210
0.0
220
0.0
230
1.0
 70
     8
 71
     3
 72
    26
 73
    22
 74
     0
 42
0.00000001
 43
0.00000001
 12
1.0
 22
0.0
 32
0.0
 13
1.0
 23
0.0
 33
0.0
 40
0.0
 40
0.0
 40
0.0
 40
0.0
 40
0.1249999999999998
 40
0.1249999999999998
 40
0.2499999999999996
 40
0.2499999999999996
 40
0.3749999999999993
 40
0.3749999999999993
 40
0.4374999999999992
 40
0.4374999999999992
 40
0.4999999999999991
 40
0.4999999999999991
 40
0.562499999999999
 40
0.562499999999999
 40
0.6249999999999989
 40
0.6249999999999989
 40
0.7499999999999992
 40
0.7499999999999992
 40
0.8749999999999996
 40
0.8749999999999996
 40
1.0
 40
1.0
 40
1.0
 40
1.0
 10
146.6252300271407
 20
123.3114721886266
 30
0.0
 10
146.8358733891407
 20
123.5460892195717
 30
0.0
 10
147.0430698268977
 20
123.7839723555311
 30
0.0
 10
147.44456896153
 20
124.2712866618
 30
0.0
 10
147.639845380576
 20
124.521411886589
 30
0.0
 10
147.9996258732715
 20
125.0400020320399
 30
0.0
 10
148.1648847334208
 20
125.3074330159268
 30
0.0
 10
148.357542642847
 20
125.7388481483253
 30
0.0
 10
148.4125073830571
 20
125.8888670302497
 30
0.0
 10
148.4902431680212
 20
126.2016042089797
 30
0.0
 10
148.5115093063295
 20
126.3593584557869
 30
0.0
 10
148.5134032356153
 20
126.6780637356327
 30
0.0
 10
148.4931774985482
 20
126.8405005358132
 30
0.0
 10
148.4187130882624
 20
127.1514525353959
 30
0.0
 10
148.3650739625164
 20
127.3021237737236
 30
0.0
 10
148.1703296571158
 20
127.7442075316922
 30
0.0
 10
148.0032795439375
 20
128.0142515448599
 30
0.0
 10
147.6430234252339
 20
128.5343591731413
 30
0.0
 10
147.4482710502135
 20
128.784020385951
 30
0.0
 10
147.0452618257412
 20
129.2734444977937
 30
0.0
 10
146.8368253073778
 20
129.5127904209577
 30
0.0
 10
146.6252300271417
 20
129.7484677095256
 30
0.0
  0
SPLINE
  5
181
330
1F
100
AcDbEntity
  8
0
  6
HIDDEN
 62
     7
370
     0
100
AcDbSpline
210
0.0
220
0.0
230
1.0
 70
     8
 71
     3
 72
    68
 73
    64
 74
     0
 42
0.00000001
 43
0.00000001
 12
1.0
 22
0.0
 32
0.0
 13
1.0
 23
0.0
 33
0.0
 40
-0.03125
 40
-0.03125
 40
0.0
 40
0.0
 40
0.0312499999999998
 40
0.0312499999999998
 40
0.0624999999999998
 40
0.0624999999999998
 40
0.0937499999999997
 40
0.0937499999999997
 40
0.1249999999999997
 40
0.1249999999999997
 40
0.1562499999999997
 40
0.1562499999999997
 40
0.1874999999999997
 40
0.1874999999999997
 40
0.2499999999999999
 40
0.2499999999999999
 40
0.28125
 40
0.28125
 40
0.3125
 40
0.3125
 40
0.3437500000000001
 40
0.3437500000000001
 40
0.3750000000000001
 40
0.3750000000000001
 40
0.4062500000000002
 40
0.4062500000000002
 40
0.4375000000000002
 40
0.4375000000000002
 40
0.4687500000000002
 40
0.4687500000000002
 40
0.5000000000000002
 40
0.5000000000000002
 40
0.5312500000000002
 40
0.5312500000000002
 40
0.5625000000000002
 40
0.5625000000000002
 40
0.5937500000000002
 40
0.5937500000000002
 40
0.6250000000000001
 40
0.6250000000000001
 40
0.6562500000000001
 40
0.6562500000000001
 40
0.6875000000000001
 40
0.6875000000000001
 40
0.7187500000000001
 40
0.7187500000000001
 40
0.7500000000000001
 40
0.7500000000000001
 40
0.7812500000000001
 40
0.7812500000000001
 40
0.8125000000000001
 40
0.8125000000000001
 40
0.8437500000000001
 40
0.8437500000000001
 40
0.875
 40
0.875
 40
0.90625
 40
0.90625
 40
0.9375
 40
0.9375
 40
0.96875
 40
0.96875
 40
1.0
 40
1.0
 40
1.03125
 40
1.03125
 10
154.8449906918843
 20
128.7878576400674
 30
0.0
 10
155.1798782115572
 20
129.0590988768143
 30
0.0
 10
155.3581444334929
 20
129.176740169686
 30
0.0
 10
155.7351691303862
 20
129.3780716936959
 30
0.0
 10
155.9353578517626
 20
129.4618798969095
 30
0.0
 10
156.3420258913935
 20
129.5899719204779
 30
0.0
 10
156.5499410574136
 20
129.635276717438
 30
0.0
 10
156.974929356637
 20
129.6884344287435
 30
0.0
 10
157.190966007621
 20
129.6957166127791
 30
0.0
 10
157.6154769764725
 20
129.6721691752418
 30
0.0
 10
157.8260039498624
 20
129.6416649727648
 30
0.0
 10
158.2434891606493
 20
129.5418053592976
 30
0.0
 10
158.4463526942278
 20
129.4732094715368
 30
0.0
 10
159.0276692132425
 20
129.2158680283179
 30
0.0
 10
159.3880764660183
 20
128.969318137008
 30
0.0
 10
159.8328154627799
 20
128.5160795809331
 30
0.0
 10
159.9680046829225
 20
128.3484990014567
 30
0.0
 10
160.2009445575248
 20
127.9896369265454
 30
0.0
 10
160.2976279031795
 20
127.8008784061912
 30
0.0
 10
160.4508591678289
 20
127.4043647299829
 30
0.0
 10
160.5074761251971
 20
127.194020320896
 30
0.0
 10
160.5729283270319
 20
126.7726317926131
 30
0.0
 10
160.5828866856591
 20
126.5601156734495
 30
0.0
 10
160.556052676492
 20
126.1313408983492
 30
0.0
 10
160.5190330127191
 20
125.9187746702023
 30
0.0
 10
160.4018697336824
 20
125.5094800261243
 30
0.0
 10
160.3203308561875
 20
125.3086313544167
 30
0.0
 10
160.1190916447835
 20
124.9315045959056
 30
0.0
 10
160.0001599096127
 20
124.755284274376
 30
0.0
 10
159.7269860965204
 20
124.4265281533938
 30
0.0
 10
159.5731253218102
 20
124.2752299854943
 30
0.0
 10
159.2432027237943
 20
124.007642832015
 30
0.0
 10
159.0648808987227
 20
123.8891716713042
 30
0.0
 10
158.6868568988003
 20
123.6862848673694
 30
0.0
 10
158.4909279000192
 20
123.6036659129214
 30
0.0
 10
158.0858426121848
 20
123.4742257363906
 30
0.0
 10
157.8745078143149
 20
123.4272505059601
 30
0.0
 10
157.4506230246624
 20
123.3725355510419
 30
0.0
 10
157.2381877514001
 20
123.3643058025988
 30
0.0
 10
156.8123356841051
 20
123.3857973003995
 30
0.0
 10
156.5971915206955
 20
123.4161949226179
 30
0.0
 10
156.1820619809552
 20
123.5139373795061
 30
0.0
 10
155.9804370152114
 20
123.581055893255
 30
0.0
 10
155.5893505159404
 20
123.7526989934153
 30
0.0
 10
155.3995309070494
 20
123.8580450521999
 30
0.0
 10
155.0489402868778
 20
124.0987479938945
 30
0.0
 10
154.8859338072312
 20
124.2348708702272
 30
0.0
 10
154.5858714845426
 20
124.5405243394613
 30
0.0
 10
154.4506025873383
 20
124.70897601895
 30
0.0
 10
154.2196586345055
 20
125.0652567052335
 30
0.0
 10
154.1221764150332
 20
125.2550103846402
 30
0.0
 10
153.9671938556286
 20
125.6576187469244
 30
0.0
 10
153.9123273348115
 20
125.8634584905975
 30
0.0
 10
153.8469194641474
 20
126.2840381269199
 30
0.0
 10
153.8367732183143
 20
126.5015399442176
 30
0.0
 10
153.8634415808539
 20
126.9282800831782
 30
0.0
 10
153.8994789726804
 20
127.1381827922654
 30
0.0
 10
154.0168901182483
 20
127.5510716129238
 30
0.0
 10
154.0980176528665
 20
127.7513945577078
 30
0.0
 10
154.2977746970558
 20
128.1276330761728
 30
0.0
 10
154.4182771961819
 20
128.3070878214206
 30
0.0
 10
154.6923576415479
 20
128.6374357495104
 30
0.0
 10
154.8449906918843
 20
128.7878576400674
 30
0.0
 10
155.1798782115572
 20
129.0590988768143
 30
0.0
  0
CIRCLE
  5
182
330
1F
100
AcDbEntity
  8
0
  6
HIDDEN
 62
     7
370
     0
100
AcDbCircle
 10
157.1252300271
 20
126.5299699491
 30
0.0
 40
3.049999999999983
  0
CIRCLE
  5
183
330
1F
100
AcDbEntity
  8
0
  6
HIDDEN
 62
     7
370
     0
100
AcDbCircle
 10
183.1252300271
 20
126.5299699491
 30
0.0
 40
2.000000000000014
  0
SPLINE
  5
184
330
1F
100
AcDbEntity
  8
0
  6
HIDDEN
 62
     7
370
     0
100
AcDbSpline
210
0.0
220
0.0
230
1.0
 70
     8
 71
     3
 72
    11
 73
     7
 74
     0
 42
0.00000001
 43
0.00000001
 12
1.0
 22
0.0
 32
0.0
 13
1.0
 23
0.0
 33
0.0
 40
0.0
 40
0.0
 40
0.0
 40
0.0
 40
0.2472784883508496
 40
0.4963165740782184
 40
0.7471968240101488
 40
0.9999999999999999
 40
0.9999999999999999
 40
0.9999999999999999
 40
0.9999999999999999
 10
226.4434079028082
 20
110.9371819174596
 30
0.0
 10
226.4247211294145
 20
110.7970643819269
 30
0.0
 10
226.3872146102943
 20
110.515832255074
 30
0.0
 10
226.3207507723518
 20
110.0938775251056
 30
0.0
 10
226.2472162331208
 20
109.6698940741828
 30
0.0
 10
226.1915517305528
 20
109.3873930653314
 30
0.0
 10
226.1636132233181
 20
109.245603304973
 30
0.0
  0
LINE
  5
185
330
1F
100
AcDbEntity
  8
0
  6
HIDDEN
 62
     7
370
     0
100
AcDbLine
 10
205.3670847214
 20
111.431514443
 30
0.0
 11
206.3533047923
 21
111.3278585366
 31
0.0
  0
LINE
  5
186
330
1F
100
AcDbEntity
  8
0
  6
HIDDEN
 62
     7
370
     0
100
AcDbLine
 10
213.3870086356
 20
110.5885864731
 30
0.0
 11
226.163357383
 21
109.2457381085
 31
0.0
  0
LINE
  5
187
330
1F
100
AcDbEntity
  8
0
  6
HIDDEN
 62
     7
370
     0
100
AcDbLine
 10
226.4428071642
 20
110.9324884132
 30
0.0
 11
224.8558861031
 21
126.5299699491
 31
0.0
  0
LINE
  5
188
330
1F
100
AcDbEntity
  8
0
  6
HIDDEN
 62
     7
370
     0
100
AcDbLine
 10
171.1252300271
 20
106.9799699491
 30
0.0
 11
171.218123246
 21
107.0728631679
 31
0.0
  0
LINE
  5
189
330
1F
100
AcDbEntity
  8
0
  6
HIDDEN
 62
     7
370
     0
100
AcDbLine
 10
171.218123246
 20
145.9870767303
 30
0.0
 11
171.1252300271
 21
146.0799699491
 31
0.0
  0
LINE
  5
18A
330
1F
100
AcDbEntity
  8
0
  6
HIDDEN
 62
     7
370
     0
100
AcDbLine
 10
187.7216493737
 20
114.7548159029
 30
0.0
 11
196.0069781847
 21
109.7643050693
 31
0.0
  0
LINE
  5
18B
330
1F
100
AcDbEntity
  8
0
  6
HIDDEN
 62
     7
370
     0
100
AcDbLine
 10
191.5256172592
 20
118.3005249555
 30
0.0
 11
190.3014655772
 21
119.0378695281
 31
0.0
  0
LINE
  5
18C
330
1F
100
AcDbEntity
  8
0
  6
HIDDEN
 62
     7
370
     0
100
AcDbLine
 10
195.9408965197
 20
115.6410651458
 30
0.0
 11
193.348082771
 21
117.2027973833
 31
0.0
  0
LINE
  5
18D
330
1F
100
AcDbEntity
  8
0
  6
HIDDEN
 62
     7
370
     0
100
AcDbLine
 10
189.6553711818
 20
118.8876442265
 30
0.0
 11
187.7962913453
 21
117.6283352443
 31
0.0
  0
LINE
  5
18E
330
1F
100
AcDbEntity
  8
0
  6
HIDDEN
 62
     7
370
     0
100
AcDbLine
 10
187.7962913453
 20
117.6283352443
 30
0.0
 11
187.55235203
 21
115.39617697
 31
0.0
  0
ARC
  5
18F
330
1F
100
AcDbEntity
  8
0
  6
HIDDEN
 62
     7
370
     0
100
AcDbCircle
 10
170.5110164648
 20
107.7799699491
 30
0.0
 40
1.0
100
AcDbArc
 50
315.0
 51
0.0
  0
ARC
  5
190
330
1F
100
AcDbEntity
  8
0
  6
HIDDEN
 62
     7
370
     0
100
AcDbCircle
 10
170.5110164648
 20
107.7799699491
 30
0.0
 40
1.000000000000004
100
AcDbArc
 50
0.0
 51
52.1052014664
  0
ARC
  5
191
330
1F
100
AcDbEntity
  8
0
  6
HIDDEN
 62
     7
370
     0
100
AcDbCircle
 10
170.5110164648
 20
145.2799699491
 30
0.0
 40
1.000000000000006
100
AcDbArc
 50
351.8087250651
 51
45.0
  0
ARC
  5
192
330
1F
100
AcDbEntity
  8
0
  6
HIDDEN
 62
     7
370
     0
100
AcDbCircle
 10
170.5110164648
 20
145.2799699491
 30
0.0
 40
1.000000000000006
100
AcDbArc
 50
307.8947985336
 51
351.8087250651
  0
LINE
  5
193
330
1F
100
AcDbEntity
  8
0
  6
HIDDEN
 62
     7
370
     0
100
AcDbLine
 10
171.5110164648
 20
107.7799699491
 30
0.0
 11
171.5110164648
 21
145.2799699491
 31
0.0
  0
LINE
  5
194
330
1F
100
AcDbEntity
  8
0
  6
HIDDEN
 62
     7
370
     0
100
AcDbLine
 10
171.5110164648
 20
107.7799699491
 30
0.0
 11
171.5110164648
 21
145.2799699491
 31
0.0
  0
LINE
  5
195
330
1F
100
AcDbEntity
  8
0
  6
HIDDEN
 62
     7
370
     0
100
AcDbLine
 10
193.6252300271
 20
116.7302082999
 30
0.0
 11
193.6252300271
 21
122.4773708901
 31
0.0
  0
LINE
  5
196
330
1F
100
AcDbEntity
  8
0
  6
HIDDEN
 62
     7
370
     0
100
AcDbLine
 10
188.6252300271
 20
122.4758777171
 30
0.0
 11
188.6252300271
 21
116.7003598281
 31
0.0
  0
LINE
  5
197
330
1F
100
AcDbEntity
  8
0
  6
HIDDEN
 62
     7
370
     0
100
AcDbLine
 10
147.6252300271
 20
114.5299699491
 30
0.0
 11
148.6319495392
 21
114.5299699491
 31
0.0
  0
LINE
  5
198
330
1F
100
AcDbEntity
  8
0
  6
HIDDEN
 62
     7
370
     0
100
AcDbLine
 10
148.6319495392
 20
138.5299699491
 30
0.0
 11
147.6252300271
 21
138.5299699491
 31
0.0
  0
ARC
  5
199
330
1F
100
AcDbEntity
  8
0
  6
HIDDEN
 62
     7
370
     0
100
AcDbCircle
 10
147.6252300271
 20
116.0299699491
 30
0.0
 40
1.5
100
AcDbArc
 50
191.0958032831
 51
270.0
  0
ARC
  5
19A
330
1F
100
AcDbEntity
  8
0
  6
HIDDEN
 62
     7
370
     0
100
AcDbCircle
 10
147.6252300271
 20
137.0299699491
 30
0.0
 40
1.5
100
AcDbArc
 50
90.0
 51
168.9041967169
  0
ARC
  5
19B
330
1F
100
AcDbEntity
  8
0
  6
HIDDEN
 62
     7
370
     0
100
AcDbCircle
 10
148.6319495392
 20
116.0299699491
 30
0.0
 40
1.5
100
AcDbArc
 50
270.0
 51
315.0
  0
ARC
  5
19C
330
1F
100
AcDbEntity
  8
0
  6
HIDDEN
 62
     7
370
     0
100
AcDbCircle
 10
148.6319495392
 20
137.0299699491
 30
0.0
 40
1.499999999999972
100
AcDbArc
 50
45.0
 51
90.0
  0
LINE
  5
19D
330
1F
100
AcDbEntity
  8
0
  6
HIDDEN
 62
     7
370
     0
100
AcDbLine
 10
141.1252300271
 20
114.7665578806
 30
0.0
 11
142.1532698828
 21
115.360096968
 31
0.0
  0
LINE
  5
19E
330
1F
100
AcDbEntity
  8
0
  6
HIDDEN
 62
     7
370
     0
100
AcDbLine
 10
142.1532698828
 20
137.6998429302
 30
0.0
 11
141.1252300271
 21
138.2933820175
 31
0.0
  0
LINE
  5
19F
330
1F
100
AcDbEntity
  8
0
  6
HIDDEN
 62
     7
370
     0
100
AcDbLine
 10
149.692609711
 20
114.9693097773
 30
0.0
 11
150.7532698828
 21
116.0299699491
 31
0.0
  0
LINE
  5
1A0
330
1F
100
AcDbEntity
  8
0
  6
HIDDEN
 62
     7
370
     0
100
AcDbLine
 10
150.7532698828
 20
137.0299699491
 30
0.0
 11
149.692609711
 21
138.0906301209
 31
0.0
  0
LINE
  5
1A1
330
1F
100
AcDbEntity
  8
0
  6
HIDDEN
 62
     7
370
     0
100
AcDbLine
 10
142.1532698828
 20
115.360096968
 30
0.0
 11
144.6532698828
 21
116.0299699491
 31
0.0
  0
LINE
  5
1A2
330
1F
100
AcDbEntity
  8
0
  6
HIDDEN
 62
     7
370
     0
100
AcDbLine
 10
144.6532698828
 20
137.0299699491
 30
0.0
 11
142.1532698828
 21
137.6998429302
 31
0.0
  0
LINE
  5
1A3
330
1F
100
AcDbEntity
  8
0
  6
HIDDEN
 62
     7
370
     0
100
AcDbLine
 10
146.1532698828
 20
137.3186450837
 30
0.0
 11
145.6532698828
 21
137.0299699491
 31
0.0
  0
LINE
  5
1A4
330
1F
100
AcDbEntity
  8
0
  6
HIDDEN
 62
     7
370
     0
100
AcDbLine
 10
145.6532698828
 20
116.0299699491
 30
0.0
 11
146.1532698828
 21
115.7412948145
 31
0.0
  0
LINE
  5
1A5
330
1F
100
AcDbEntity
  8
0
  6
HIDDEN
 62
     7
370
     0
100
AcDbLine
 10
150.7532698828
 20
116.0299699491
 30
0.0
 11
160.6252300271
 21
116.0299699491
 31
0.0
  0
LINE
  5
1A6
330
1F
100
AcDbEntity
  8
0
  6
HIDDEN
 62
     7
370
     0
100
AcDbLine
 10
160.6252300271
 20
137.0299699491
 30
0.0
 11
150.7532698828
 21
137.0299699491
 31
0.0
  0
LINE
  5
1A7
330
1F
100
AcDbEntity
  8
0
  6
HIDDEN
 62
     7
370
     0
100
AcDbLine
 10
144.6532698828
 20
116.0299699491
 30
0.0
 11
145.6532698828
 21
116.0299699491
 31
0.0
  0
LINE
  5
1A8
330
1F
100
AcDbEntity
  8
0
  6
HIDDEN
 62
     7
370
     0
100
AcDbLine
 10
145.6532698828
 20
137.0299699491
 30
0.0
 11
144.6532698828
 21
137.0299699491
 31
0.0
  0
ARC
  5
1A9
330
1F
100
AcDbEntity
  8
0
  6
HIDDEN
 62
     7
370
     0
100
AcDbCircle
 10
160.6252300271
 20
116.5299699491
 30
0.0
 40
0.5
100
AcDbArc
 50
270.0
 51
0.0
  0
ARC
  5
1AA
330
1F
100
AcDbEntity
  8
0
  6
HIDDEN
 62
     7
370
     0
100
AcDbCircle
 10
160.6252300271
 20
136.5299699491
 30
0.0
 40
0.5
100
AcDbArc
 50
0.0
 51
90.0
  0
LINE
  5
1AB
330
1F
100
AcDbEntity
  8
0
  6
HIDDEN
 62
     7
370
     0
100
AcDbLine
 10
161.1252300271
 20
118.2799699491
 30
0.0
 11
162.1252300271
 21
119.2799699491
 31
0.0
  0
LINE
  5
1AC
330
1F
100
AcDbEntity
  8
0
  6
HIDDEN
 62
     7
370
     0
100
AcDbLine
 10
162.1252300271
 20
133.7799699491
 30
0.0
 11
161.1252300271
 21
134.7799699491
 31
0.0
  0
LINE
  5
1AD
330
1F
100
AcDbEntity
  8
0
  6
HIDDEN
 62
     7
370
     0
100
AcDbLine
 10
195.1252300271
 20
133.7799699491
 30
0.0
 11
162.1252300271
 21
133.7799699491
 31
0.0
  0
LINE
  5
1AE
330
1F
100
AcDbEntity
  8
0
  6
HIDDEN
 62
     7
370
     0
100
AcDbLine
 10
162.1252300271
 20
119.2799699491
 30
0.0
 11
195.1252300271
 21
119.2799699491
 31
0.0
  0
LINE
  5
1AF
330
1F
100
AcDbEntity
  8
0
  6
HIDDEN
 62
     7
370
     0
100
AcDbLine
 10
195.1252300271
 20
119.2799699491
 30
0.0
 11
199.4814695151
 21
126.5299699491
 31
0.0
  0
LINE
  5
1B0
330
1F
100
AcDbEntity
  8
0
  6
HIDDEN
 62
     7
370
     0
100
AcDbLine
 10
199.4814695151
 20
126.5299699491
 30
0.0
 11
195.1252300271
 21
133.7799699491
 31
0.0
  0
LINE
  5
1B1
330
1F
100
AcDbEntity
  8
0
  6
HIDDEN
 62
     7
370
     0
100
AcDbLine
 10
216.0091137256
 20
111.2264336245
 30
0.0
 11
215.5304363353
 21
111.8602712297
 31
0.0
  0
LINE
  5
1B2
330
1F
100
AcDbEntity
  8
0
  6
HIDDEN
 62
     7
370
     0
100
AcDbLine
 10
209.9444236081
 20
107.641685944
 30
0.0
 11
210.4231009985
 21
107.0078483388
 31
0.0
  0
LINE
  5
1B3
330
1F
100
AcDbEntity
  8
0
  6
HIDDEN
 62
     7
370
     0
100
AcDbLine
 10
226.3306312994
 20
108.5850734903
 30
0.0
 11
225.3668788681
 21
109.8612201089
 31
0.0
  0
LINE
  5
1B4
330
1F
100
AcDbEntity
  8
0
  6
HIDDEN
 62
     7
370
     0
100
AcDbLine
 10
212.6197452169
 20
106.6199251862
 30
0.0
 11
217.8521698733
 21
101.190690215
 31
0.0
  0
LINE
  5
1B5
330
1F
100
AcDbEntity
  8
0
  6
HIDDEN
 62
     7
370
     0
100
AcDbLine
 10
216.045072682
 20
112.3403456338
 30
0.0
 11
213.4294598824
 21
115.8037925949
 31
0.0
  0
LINE
  5
1B6
330
1F
100
AcDbEntity
  8
0
  6
HIDDEN
 62
     7
370
     0
100
AcDbLine
 10
206.7453796245
 20
110.7161527449
 30
0.0
 11
209.3418574094
 21
107.278043291
 31
0.0
  0
LINE
  5
1B7
330
1F
100
AcDbEntity
  8
0
  6
HIDDEN
 62
     7
370
     0
100
AcDbLine
 10
193.6252300271
 20
130.5823870069
 30
0.0
 11
193.6252300271
 21
136.4274437145
 31
0.0
  0
LINE
  5
1B8
330
1F
100
AcDbEntity
  8
0
  6
HIDDEN
 62
     7
370
     0
100
AcDbLine
 10
188.6252300271
 20
136.4274437145
 30
0.0
 11
188.6252300271
 21
130.582569008
 31
0.0
  0
LINE
  5
1B9
330
1F
100
AcDbEntity
  8
0
  6
HIDDEN
 62
     7
370
     0
100
AcDbLine
 10
225.8960985711
 20
101.6491399036
 30
0.0
 11
225.3107391768
 21
102.4242398021
 31
0.0
  0
LINE
  5
1BA
330
1F
100
AcDbEntity
  8
0
  6
HIDDEN
 62
     7
370
     0
100
AcDbLine
 10
219.9641269951
 20
98.3864510287
 30
0.0
 11
220.5494863894
 21
97.6113511302
 31
0.0
  0
LINE
  5
1BB
330
1F
100
AcDbEntity
  8
0
  6
HIDDEN
 62
     7
370
     0
100
AcDbLine
 10
223.1404153584
 20
103.3019735404
 30
0.0
 11
218.5771564119
 21
108.0368730721
 31
0.0
  0
LINE
  5
1BC
330
1F
100
AcDbEntity
  8
0
  6
HIDDEN
 62
     7
370
     0
100
AcDbLine
 10
194.1252300271
 20
136.5954422115
 30
0.0
 11
194.1252300271
 21
140.5097925358
 31
0.0
  0
LINE
  5
1BD
330
1F
100
AcDbEntity
  8
0
  6
HIDDEN
 62
     7
370
     0
100
AcDbLine
 10
188.1252300271
 20
140.5072969778
 30
0.0
 11
188.1252300271
 21
136.5954422115
 31
0.0
  0
LINE
  5
1BE
330
1F
100
AcDbEntity
  8
VERMASSUNG
  6
CENTERX2
100
AcDbLine
 10
231.1252300271
 20
126.5299699491
 30
0.0
 11
137.4923013162
 21
126.5299699491
 31
0.0
  0
LINE
  5
1BF
330
1F
100
AcDbEntity
  8
VERMASSUNG
  6
CENTERX2
100
AcDbLine
 10
231.1252300271
 20
91.5299699491
 30
0.0
 11
231.1252300271
 21
126.5299699491
 31
0.0
  0
LINE
  5
1C0
330
1F
100
AcDbEntity
  8
VERMASSUNG
  6
CENTERX2
100
AcDbLine
 10
231.1252300271
 20
91.5299699491
 30
0.0
 11
241.6868575179
 21
91.5299699491
 31
0.0
  0
DIMENSION
  5
1C1
330
1F
100
AcDbEntity
  8
VERMASSUNG
100
AcDbDimension
  2
_D
 10
231.1252300271
 20
70.70712137
 30
0.0
 11
186.1252300271
 21
70.70712137
 31
0.0
 70
   160
  1
<>
 71
     2
 42
-1.0
  3
SLDDIMSTYLE0
100
AcDbAlignedDimension
 13
141.1252300271
 23
110.5366441109
 33
0.0
 14
231.1252300271
 24
91.5299699491
 34
0.0
100
AcDbRotatedDimension
  0
DIMENSION
  5
1CC
330
1F
100
AcDbEntity
  8
VERMASSUNG
100
AcDbDimension
  2
_D_1
 10
171.1252300271
 20
78.8190912615
 30
0.0
 11
201.1252300271
 21
78.8190912615
 31
0.0
 70
   160
  1
<>
 71
     2
 42
-1.0
  3
SLDDIMSTYLE1
100
AcDbAlignedDimension
 13
231.1252300271
 23
91.5299699491
 33
0.0
 14
171.1252300271
 24
101.8299699491
 34
0.0
100
AcDbRotatedDimension
  0
DIMENSION
  5
1D9
330
1F
100
AcDbEntity
  8
VERMASSUNG
100
AcDbDimension
  2
_D_2
 10
252.0488398714
 20
126.5299699491
 30
0.0
 11
252.0488398714
 21
109.0299699491
 31
0.0
 70
   160
  1
<>
 71
     2
 42
-1.0
  3
SLDDIMSTYLE1
100
AcDbAlignedDimension
 13
231.1252300271
 23
91.5299699491
 33
0.0
 14
231.1252300271
 24
126.5299699491
 34
0.0
 50
90.0
100
AcDbRotatedDimension
  0
DIMENSION
  5
1E5
330
1F
100
AcDbEntity
  8
VERMASSUNG
100
AcDbDimension
  2
_D_3
 10
231.1237162447
 20
91.9664398131
 30
0.0
 11
240.0967797899
 21
101.2851945694
 31
0.0
 70
   162
  1
<>
 71
     1
 42
-1.0
  3
SLDDIMSTYLE2
100
AcDb2LineAngularDimension
 13
241.6868575179
 23
91.5299699491
 33
0.0
 14
231.1252300271
 24
91.5299699491
 34
0.0
 15
230.4120345557
 25
100.0557948811
 35
0.0
 16
240.0967797899
 26
101.2851945694
 36
0.0
  0
DIMENSION
  5
1F0
330
1F
100
AcDbEntity
  8
VERMASSUNG
100
AcDbDimension
  2
_D_4
 10
131.1252300271
 20
101.5299699491
 30
0.0
 11
131.1252300271
 21
126.5299699491
 31
0.0
 70
   160
  1
PSC%%c<>
 71
     2
 42
-1.0
  3
SLDDIMSTYLE0
100
AcDbAlignedDimension
 13
171.4252300271
 23
151.5299699491
 33
0.0
 14
171.4252300271
 24
101.5299699491
 34
0.0
 50
90.0
100
AcDbRotatedDimension
  0
LINE
  5
1FC
330
1F
100
AcDbEntity
  8
0
  6
Continuous
 62
     7
370
    15
100
AcDbLine
 10
75.857050659
 20
91.5300145035
 30
0.0
 11
80.5449045514
 21
92.188846994
 31
0.0
  0
LINE
  5
1FD
330
1F
100
AcDbEntity
  8
0
  6
Continuous
 62
     7
370
    15
100
AcDbLine
 10
73.4827052587
 20
107.6428990101
 30
0.0
 11
73.1608748686
 21
107.597668398
 31
0.0
  0
LINE
  5
1FE
330
1F
100
AcDbEntity
  8
0
  6
Continuous
 62
     7
370
    15
100
AcDbLine
 10
73.6414410424
 20
104.6195372229
 30
0.0
 11
73.4995938622
 21
104.2584914004
 31
0.0
  0
SPLINE
  5
1FF
330
1F
100
AcDbEntity
  8
0
  6
Continuous
 62
     7
370
    15
100
AcDbSpline
210
0.0
220
0.0
230
1.0
 70
     8
 71
     3
 72
     9
 73
     5
 74
     0
 42
0.00000001
 43
0.00000001
 12
1.0
 22
0.0
 32
0.0
 13
1.0
 23
0.0
 33
0.0
 40
0.0
 40
0.0
 40
0.0
 40
0.0
 40
0.6977930730394928
 40
1.0
 40
1.0
 40
1.0
 40
1.0
 10
74.86682976772786
 20
93.86042572910496
 30
0.0
 10
74.9171335166957
 20
93.79400993583145
 30
0.0
 10
74.98922329647628
 20
93.69883015282758
 30
0.0
 10
75.02440831218466
 20
93.60337540972603
 30
0.0
 10
75.03504146765695
 20
93.57452832514952
 30
0.0
  0
SPLINE
  5
200
330
1F
100
AcDbEntity
  8
0
  6
Continuous
 62
     7
370
    15
100
AcDbSpline
210
0.0
220
0.0
230
1.0
 70
     8
 71
     3
 72
     9
 73
     5
 74
     0
 42
0.00000001
 43
0.00000001
 12
1.0
 22
0.0
 32
0.0
 13
1.0
 23
0.0
 33
0.0
 40
0.0
 40
0.0
 40
0.0
 40
0.0
 40
0.7363031453104517
 40
0.9999999999999999
 40
0.9999999999999999
 40
0.9999999999999999
 40
0.9999999999999999
 10
74.93943189214693
 20
93.76236491257856
 30
0.0
 10
74.96419815671499
 20
93.72119209187518
 30
0.0
 10
74.99783411864969
 20
93.66527379115138
 30
0.0
 10
75.00331682636869
 20
93.64660366231925
 30
0.0
 10
75.00476259914936
 20
93.64168040806959
 30
0.0
  0
LINE
  5
201
330
1F
100
AcDbEntity
  8
0
  6
Continuous
 62
     7
370
    15
100
AcDbLine
 10
74.6948971431
 20
94.0891063994
 30
0.0
 11
74.8698424798
 21
93.8606902247
 31
0.0
  0
LINE
  5
202
330
1F
100
AcDbEntity
  8
0
  6
Continuous
 62
     7
370
    15
100
AcDbLine
 10
80.5583663535
 20
92.2513685411
 30
0.0
 11
84.8606286821
 21
92.8560092335
 31
0.0
  0
LINE
  5
203
330
1F
100
AcDbEntity
  8
0
  6
Continuous
 62
     7
370
    15
100
AcDbLine
 10
84.8707372573
 20
92.8630239552
 30
0.0
 11
85.1214055222
 21
93.1995257025
 31
0.0
  0
SPLINE
  5
204
330
1F
100
AcDbEntity
  8
0
  6
Continuous
 62
     7
370
    15
100
AcDbSpline
210
0.0
220
0.0
230
1.0
 70
     8
 71
     3
 72
    31
 73
    27
 74
     0
 42
0.00000001
 43
0.00000001
 12
1.0
 22
0.0
 32
0.0
 13
1.0
 23
0.0
 33
0.0
 40
0.0
 40
0.0
 40
0.0
 40
0.0
 40
0.019023743521143
 40
0.0380286789090829
 40
0.0570232779340047
 40
0.0760160261977904
 40
0.0950154117821138
 40
0.1140299138799406
 40
0.1330679914864368
 40
0.1521380722243337
 40
0.1712485413767396
 40
0.1904077311972005
 40
0.2096239105626233
 40
0.2289052750295887
 40
0.2482599373487316
 40
0.3732917389473046
 40
0.4979933870969881
 40
0.6229391226997095
 40
0.7488153636589628
 40
0.7850172137809224
 40
0.8210269066417415
 40
0.8568955974563793
 40
0.8926750462325912
 40
0.9284174006856898
 40
0.9641749708229378
 40
0.9999999999999999
 40
0.9999999999999999
 40
0.9999999999999999
 40
0.9999999999999999
 10
85.0977124341307
 20
93.77437964566118
 30
0.0
 10
85.24969573390715
 20
93.81691343777942
 30
0.0
 10
85.55351207270068
 20
93.90193897029103
 30
0.0
 10
86.0054260286252
 20
94.04159665494194
 30
0.0
 10
86.45415897865536
 20
94.19002363692496
 30
0.0
 10
86.89946372732273
 20
94.34809440975916
 30
0.0
 10
87.34140613198504
 20
94.51557467234453
 30
0.0
 10
87.77996822236611
 20
94.69252706659717
 30
0.0
 10
88.21515449267478
 20
94.87893460353753
 30
0.0
 10
88.64696349217851
 20
95.07480170617427
 30
0.0
 10
89.07539515213065
 20
95.28012672584862
 30
0.0
 10
89.50044992781841
 20
95.49491075780972
 30
0.0
 10
89.92212488451031
 20
95.71914989349855
 30
0.0
 10
90.3404302960656
 20
95.95285748643437
 30
0.0
 10
91.50975821082906
 20
96.63807119260034
 30
0.0
 10
93.34631529066274
 20
97.9121262742592
 30
0.0
 10
95.63461942653748
 20
100.0174026236382
 30
0.0
 10
97.62400389324716
 20
102.4160063005926
 30
0.0
 10
98.8826183901732
 20
104.4398954433491
 30
0.0
 10
99.62952668783561
 20
105.9001128283741
 30
0.0
 10
100.006801559721
 20
106.7119395239878
 30
0.0
 10
100.3514776237143
 20
107.5344998118785
 30
0.0
 10
100.6637979966311
 20
108.3677751438993
 30
0.0
 10
100.9429472187884
 20
109.2119405617682
 30
0.0
 10
101.1919282213479
 20
110.066284769884
 30
0.0
 10
101.3301186315141
 20
110.6435725211927
 30
0.0
 10
101.3992789515307
 20
110.9324884132154
 30
0.0
  0
SPLINE
  5
205
330
1F
100
AcDbEntity
  8
0
  6
Continuous
 62
     7
370
    15
100
AcDbSpline
210
0.0
220
0.0
230
1.0
 70
    24
 71
     3
 72
    11
 73
     7
 74
     0
 42
0.00000001
 43
0.00000001
 12
1.0
 22
0.0
 32
0.0
 13
1.0
 23
0.0
 33
0.0
 40
0.0
 40
0.0
 40
0.0
 40
0.0
 40
0.2472784883508496
 40
0.4963165740782184
 40
0.7471968240101488
 40
0.9999999999999999
 40
0.9999999999999999
 40
0.9999999999999999
 40
0.9999999999999999
 10
101.3992789563701
 20
110.9371819174596
 30
0.0
 10
101.3992789563701
 20
110.7970643819269
 30
0.0
 10
101.3992789563701
 20
110.5158322550739
 30
0.0
 10
101.3992789563701
 20
110.0938775251056
 30
0.0
 10
101.3992789563701
 20
109.6698940741828
 30
0.0
 10
101.3992789563701
 20
109.3873930653314
 30
0.0
 10
101.3992789563701
 20
109.2456033049729
 30
0.0
  0
SPLINE
  5
206
330
1F
100
AcDbEntity
  8
0
  6
Continuous
 62
     7
370
    15
100
AcDbSpline
210
0.0
220
0.0
230
1.0
 70
     8
 71
     3
 72
    35
 73
    31
 74
     0
 42
0.00000001
 43
0.00000001
 12
1.0
 22
0.0
 32
0.0
 13
1.0
 23
0.0
 33
0.0
 40
0.0
 40
0.0
 40
0.0
 40
0.0
 40
0.0209273473503991
 40
0.0418554754122524
 40
0.0627843847724322
 40
0.0837140760177446
 40
0.1046445497349288
 40
0.1255758065106579
 40
0.1465078469315409
 40
0.1674406715841197
 40
0.1883742810548712
 40
0.2093086759302049
 40
0.2302438567964665
 40
0.2511798242399327
 40
0.3141879194106638
 40
0.3769941715707461
 40
0.4395996273862024
 40
0.5020053436293661
 40
0.5481322825332727
 40
0.5934142933161313
 40
0.6378523110189124
 40
0.6814473255264489
 40
0.724200385816998
 40
0.7661126046247558
 40
0.8071851635634582
 40
0.8474193187656662
 40
0.8868164070999026
 40
0.9253778530364245
 40
0.9631051762425467
 40
1.0
 40
1.0
 40
1.0
 40
1.0
 10
101.399278409256
 20
109.2457370686978
 30
0.0
 10
101.3506332602185
 20
109.0867011828416
 30
0.0
 10
101.2533411473974
 20
108.768623478168
 30
0.0
 10
101.0947895991814
 20
108.2955672931658
 30
0.0
 10
100.9270910312411
 20
107.8257388090741
 30
0.0
 10
100.7494114267229
 20
107.3596234434286
 30
0.0
 10
100.562075493458
 20
106.897353705963
 30
0.0
 10
100.3651030644753
 20
106.4391544815182
 30
0.0
 10
100.1586011702109
 20
105.9852235222367
 30
0.0
 10
99.94265919288996
 20
105.5357636135443
 30
0.0
 10
99.71737591199457
 20
105.0909728700547
 30
0.0
 10
99.48285591754019
 20
104.6510508356837
 30
0.0
 10
99.23919664139083
 20
104.216183243709
 30
0.0
 10
98.81730600923385
 20
103.4988412022972
 30
0.0
 10
98.18483349082182
 20
102.5202241759785
 30
0.0
 10
97.29490207313043
 20
101.3176803173184
 30
0.0
 10
96.33385669421645
 20
100.177416498313
 30
0.0
 10
95.39439376597589
 20
99.19576341982227
 30
0.0
 10
94.50314638469231
 20
98.3614710488953
 30
0.0
 10
93.68252617779052
 20
97.66187227034996
 30
0.0
 10
92.8466150230288
 20
97.01273930557598
 30
0.0
 10
91.99868518262043
 20
96.41331380541553
 30
0.0
 10
91.141871229144
 20
95.86267470559133
 30
0.0
 10
90.27913725446594
 20
95.35974796078672
 30
0.0
 10
89.4132890297379
 20
94.90329792111562
 30
0.0
 10
88.54694049496928
 20
94.49204990900478
 30
0.0
 10
87.68262261537319
 20
94.12431783299087
 30
0.0
 10
86.8223902841419
 20
93.7994233026179
 30
0.0
 10
85.96924632008327
 20
93.51263562007557
 30
0.0
 10
85.39805693868692
 20
93.35142253452462
 30
0.0
 10
85.11564839891342
 20
93.27171525430256
 30
0.0
  0
LINE
  5
207
330
1F
100
AcDbEntity
  8
0
  6
Continuous
 62
     7
370
    15
100
AcDbLine
 10
74.2955064419
 20
103.9862304216
 30
0.0
 11
83.3757614967
 21
105.2623770421
 31
0.0
  0
LINE
  5
208
330
1F
100
AcDbEntity
  8
0
  6
Continuous
 62
     7
370
    15
100
AcDbLine
 10
71.3257824321
 20
123.8004369417
 30
0.0
 11
74.2955064419
 21
103.9862304216
 31
0.0
  0
LINE
  5
209
330
1F
100
AcDbEntity
  8
0
  6
Continuous
 62
     7
370
    15
100
AcDbLine
 10
101.3556590554
 20
128.0208608124
 30
0.0
 11
71.3257824321
 21
123.8004369417
 31
0.0
  0
ARC
  5
20A
330
1F
100
AcDbEntity
  8
0
  6
Continuous
 62
     7
370
    15
100
AcDbCircle
 10
75.8992789564
 20
126.5299699491
 30
0.0
 40
25.5
100
AcDbArc
 50
0.0
 51
3.3517840732
  0
LINE
  5
20B
330
1F
100
AcDbEntity
  8
0
  6
Continuous
 62
     7
370
    15
100
AcDbLine
 10
101.3992784795
 20
110.9324886685
 30
0.0
 11
101.3992784795
 21
126.5299699491
 31
0.0
  0
LINE
  5
20C
330
1F
100
AcDbEntity
  8
0
  6
Continuous
 62
     7
370
    15
100
AcDbLine
 10
83.9319091541
 20
101.5517178213
 30
0.0
 11
83.3757614967
 21
105.2623770421
 31
0.0
  0
LINE
  5
20D
330
1F
100
AcDbEntity
  8
0
  6
Continuous
 62
     7
370
    15
100
AcDbLine
 10
83.3757614967
 20
105.2623770421
 30
0.0
 11
83.3411805582
 21
104.8358052259
 31
0.0
  0
LINE
  5
20E
330
1F
100
AcDbEntity
  8
0
  6
Continuous
 62
     7
370
    15
100
AcDbLine
 10
74.2609253869
 20
103.5596586054
 30
0.0
 11
74.2955064419
 21
103.9862304216
 31
0.0
  0
LINE
  5
20F
330
1F
100
AcDbEntity
  8
0
  6
Continuous
 62
     7
370
    15
100
AcDbLine
 10
74.2609253869
 20
103.5596586054
 30
0.0
 11
83.3411805582
 21
104.8358052259
 31
0.0
  0
LWPOLYLINE
  5
210
330
1F
100
AcDbEntity
  8
0
  6
Continuous
 62
     7
370
    15
100
AcDbPolyline
 90
       13
 70
   128
 43
0.0
 10
73.3715637838
 20
108.2260466402
 10
73.2767267403
 20
108.6796174979
 10
73.1833444227
 20
109.0404994076
 10
73.0977805582
 20
109.2840961402
 10
73.0258663901
 20
109.3938096648
 10
72.9725025379
 20
109.3621633237
 10
72.9413255834
 20
109.1913103348
 10
72.9344605719
 20
108.892897818
 10
72.9523750273
 20
108.4872621333
 10
72.9938479857
 20
108.0020430719
 10
73.0560535816
 20
107.4703100359
 10
73.1347522018
 20
106.9282989239
 10
73.1417326973
 20
106.8848266488
  0
LINE
  5
211
330
1F
100
AcDbEntity
  8
0
  6
Continuous
 62
     7
370
    15
100
AcDbLine
 10
73.4919276805
 20
96.9785048848
 30
0.0
 11
73.1333610387
 21
97.9307058489
 31
0.0
  0
ARC
  5
212
330
1F
100
AcDbEntity
  8
0
  6
Continuous
 62
     7
370
    15
100
AcDbCircle
 10
65.2873904653
 20
95.2739780065
 30
0.0
 40
8.28356548026482
100
AcDbArc
 50
18.7066389394
 51
32.9983911226
  0
SPLINE
  5
213
330
1F
100
AcDbEntity
  8
0
  6
Continuous
 62
     7
370
    15
100
AcDbSpline
210
0.0
220
0.0
230
1.0
 70
     8
 71
     3
 72
     8
 73
     4
 74
     0
 42
0.00000001
 43
0.00000001
 12
1.0
 22
0.0
 32
0.0
 13
1.0
 23
0.0
 33
0.0
 40
0.0
 40
0.0
 40
0.0
 40
0.0
 40
1.0
 40
1.0
 40
1.0
 40
1.0
 10
72.23469977058507
 20
99.78533659196184
 30
0.0
 10
72.16199631144038
 20
100.2179200144747
 30
0.0
 10
72.0893088663602
 20
100.6505679209239
 30
0.0
 10
72.01663988834815
 20
101.0832901888349
 30
0.0
  0
SPLINE
  5
214
330
1F
100
AcDbEntity
  8
0
  6
Continuous
 62
     7
370
    15
100
AcDbSpline
210
0.0
220
0.0
230
1.0
 70
     8
 71
     3
 72
    10
 73
     6
 74
     0
 42
0.00000001
 43
0.00000001
 12
1.0
 22
0.0
 32
0.0
 13
1.0
 23
0.0
 33
0.0
 40
0.0
 40
0.0
 40
0.0
 40
0.0
 40
0.5
 40
0.5
 40
1.0
 40
1.0
 40
1.0
 40
1.0
 10
72.01663988834815
 20
101.0832901888349
 30
0.0
 10
71.98013352600435
 20
101.3006747776751
 30
0.0
 10
71.93979629153412
 20
101.4950464061987
 30
0.0
 10
71.86359223808827
 20
101.7785208854945
 30
0.0
 10
71.82847979229831
 20
101.8636119669572
 30
0.0
 10
71.80387803669304
 20
101.8676973184593
 30
0.0
  0
ARC
  5
215
330
1F
100
AcDbEntity
  8
0
  6
Continuous
 62
     7
370
    15
100
AcDbCircle
 10
75.8992789564
 20
126.5299699491
 30
0.0
 40
25.00000000000001
100
AcDbArc
 50
259.7663382053
 51
260.5715374506
  0
ARC
  5
216
330
1F
100
AcDbEntity
  8
0
  6
Continuous
 62
     7
370
    15
100
AcDbCircle
 10
75.8992789564
 20
126.5299699491
 30
0.0
 40
24.99999999999997
100
AcDbArc
 50
115.4284625494
 51
116.2336617947
  0
SPLINE
  5
217
330
1F
100
AcDbEntity
  8
0
  6
Continuous
 62
     7
370
    15
100
AcDbSpline
210
0.0
220
0.0
230
1.0
 70
     8
 71
     3
 72
    12
 73
     8
 74
     0
 42
0.00000001
 43
0.00000001
 12
1.0
 22
0.0
 32
0.0
 13
1.0
 23
0.0
 33
0.0
 40
0.0
 40
0.0
 40
0.0
 40
0.0
 40
0.2500000000000041
 40
0.2500000000000041
 40
0.5000000000000081
 40
0.5000000000000081
 40
1.0
 40
1.0
 40
1.0
 40
1.0
 10
65.16468330643208
 20
149.1080224831702
 30
0.0
 10
65.17365393963965
 20
149.1122875153319
 30
0.0
 10
65.18062258615934
 20
149.1288528403124
 30
0.0
 10
65.19080676598928
 20
149.1850427801965
 30
0.0
 10
65.19391426931291
 20
149.2248176105172
 30
0.0
 10
65.19713150192922
 20
149.3716808555987
 30
0.0
 10
65.19115694148557
 20
149.5088598855499
 30
0.0
 10
65.17809034282207
 20
149.6666532617877
 30
0.0
  0
ARC
  5
218
330
1F
100
AcDbEntity
  8
0
  6
Continuous
 62
     7
370
    15
100
AcDbCircle
 10
75.8992789564
 20
126.5299699491
 30
0.0
 40
25.49999999999996
100
AcDbArc
 50
113.6006650085
 51
114.8622919165
  0
LINE
  5
219
330
1F
100
AcDbEntity
  8
0
  6
Continuous
 62
     7
370
    15
100
AcDbLine
 10
65.6901078549
 20
149.897101078
 30
0.0
 11
71.3257824321
 21
123.8004369417
 31
0.0
  0
LINE
  5
21A
330
1F
100
AcDbEntity
  8
0
  6
Continuous
 62
     7
370
    15
100
AcDbLine
 10
74.2609253869
 20
103.5596586054
 30
0.0
 11
73.3715637838
 21
108.2260466402
 31
0.0
  0
LWPOLYLINE
  5
21B
330
1F
100
AcDbEntity
  8
0
  6
Continuous
 62
     7
370
    15
100
AcDbPolyline
 90
       34
 70
   128
 43
0.0
 10
72.3184628663
 20
105.6512023544
 10
72.3782237404
 20
105.7234729862
 10
72.4182196212
 20
105.918398801
 10
72.4370048632
 20
106.228935275
 10
72.4339002994
 20
106.6438599711
 10
72.4090181542
 20
107.1481748706
 10
72.3632578523
 20
107.7236539906
 10
72.2982734227
 20
108.3494971728
 10
72.2164131951
 20
109.0030844545
 10
72.1206362144
 20
109.6607937699
 10
72.0144037408
 20
110.2988540416
 10
71.9015558501
 20
110.8942057228
 10
71.786170571
 20
111.4253278112
 10
71.6724183661
 20
111.87302668
 10
71.5644105588
 20
112.2211205995
 10
71.4660507877
 20
112.4570292642
 10
71.3808943768
 20
112.5722254848
 10
71.3120188815
 20
112.562545318
 10
71.2619137269
 20
112.4283398723
 10
71.2323894043
 20
112.1744585445
 10
71.224513675
 20
111.8100776559
 10
71.2385705923
 20
111.3483679702
 10
71.2740525854
 20
110.8060150629
 10
71.3296767575
 20
110.2026223427
 10
71.4034328488
 20
109.5599967277
 10
71.4926554141
 20
108.9013654029
 10
71.5941197489
 20
108.2505329734
 10
71.7041583051
 20
107.6310227847
 10
71.8187938695
 20
107.0652238315
 10
71.9338839193
 20
106.5735879576
 10
72.0452682366
 20
106.1738810724
 10
72.1489211795
 20
105.8805517143
 10
72.241096503
 20
105.7042001968
 10
72.3184628663
 20
105.6512023544
  0
ARC
  5
21C
330
1F
100
AcDbEntity
  8
0
  6
Continuous
 62
     7
370
    15
100
AcDbCircle
 10
75.8992789564
 20
126.5299699491
 30
0.0
 40
25.5
100
AcDbArc
 50
3.3517840732
 51
113.6006650085
  0
SPLINE
  5
21D
330
1F
100
AcDbEntity
  8
0
  6
Continuous
 62
     7
370
    15
100
AcDbSpline
210
0.0
220
0.0
230
1.0
 70
     8
 71
     3
 72
    18
 73
    14
 74
     0
 42
0.00000001
 43
0.00000001
 12
1.0
 22
0.0
 32
0.0
 13
1.0
 23
0.0
 33
0.0
 40
0.0
 40
0.0
 40
0.0
 40
0.0
 40
0.2500000000000009
 40
0.2500000000000009
 40
0.3750000000000008
 40
0.3750000000000008
 40
0.5000000000000007
 40
0.5000000000000007
 40
0.6250000000000006
 40
0.6250000000000006
 40
0.7500000000000003
 40
0.7500000000000003
 40
1.0
 40
1.0
 40
1.0
 40
1.0
 10
62.78038616733303
 20
147.8112916183177
 30
0.0
 10
63.0395607061449
 20
147.9710600312559
 30
0.0
 10
63.28746454407707
 20
148.1173558334863
 30
0.0
 10
63.63981181650964
 20
148.3181258708104
 30
0.0
 10
63.75394172084617
 20
148.3818710960675
 30
0.0
 10
63.96718594033704
 20
148.4990381259293
 30
0.0
 10
64.06735023635812
 20
148.553063364045
 30
0.0
 10
64.25406674688693
 20
148.6523616234859
 30
0.0
 10
64.34133079732432
 20
148.697998033154
 30
0.0
 10
64.49656978187303
 20
148.7782475962446
 30
0.0
 10
64.56457366955581
 20
148.8128944774577
 30
0.0
 10
64.73952400910044
 20
148.9013120505883
 30
0.0
 10
64.81746883486689
 20
148.9396704781552
 30
0.0
 10
64.84845585472283
 20
148.9549406018123
 30
0.0
  0
SPLINE
  5
21E
330
1F
100
AcDbEntity
  8
0
  6
Continuous
 62
     7
370
    15
100
AcDbSpline
210
0.0
220
0.0
230
1.0
 70
     8
 71
     3
 72
    18
 73
    14
 74
     0
 42
0.00000001
 43
0.00000001
 12
1.0
 22
0.0
 32
0.0
 13
1.0
 23
0.0
 33
0.0
 40
0.0
 40
0.0
 40
0.0
 40
0.0
 40
0.2500000000000012
 40
0.2500000000000012
 40
0.5000000000000024
 40
0.5000000000000024
 40
0.6250000000000018
 40
0.6250000000000018
 40
0.7500000000000012
 40
0.7500000000000012
 40
0.8750000000000006
 40
0.8750000000000006
 40
1.0
 40
1.0
 40
1.0
 40
1.0
 10
71.45770561516045
 20
101.9276849687196
 30
0.0
 10
71.42374701873959
 20
101.9338156836791
 30
0.0
 10
71.34133991145926
 20
101.9486244751748
 30
0.0
 10
71.08254580031632
 20
101.998022709858
 30
0.0
 10
70.91130199018151
 20
102.0316970237858
 30
0.0
 10
70.59904971900463
 20
102.0980463108174
 30
0.0
 10
70.4861970098535
 20
102.1227308056743
 30
0.0
 10
70.24908759875355
 20
102.1765283773962
 30
0.0
 10
70.12410985338043
 20
102.2057915495132
 30
0.0
 10
69.86169581704719
 20
102.2695943786598
 30
0.0
 10
69.72419606360477
 20
102.3041722711157
 30
0.0
 10
69.44428969183893
 20
102.3772468011414
 30
0.0
 10
69.30100725724284
 20
102.4159500739151
 30
0.0
 10
69.15451705834825
 20
102.4569936698743
 30
0.0
  0
ELLIPSE
  5
21F
330
1F
100
AcDbEntity
  8
0
  6
Continuous
 62
     7
370
    15
100
AcDbEllipse
 10
61.6181022573
 20
112.7026851076
 30
0.0
 11
2.479230308848152
 21
-2.397818863585286
 31
0.0
210
0.0
220
0.0
230
1.0
 40
0.7099989018
 41
0.0
 42
6.283185307179586
  0
ARC
  5
220
330
1F
100
AcDbEntity
  8
0
  6
Continuous
 62
     7
370
    15
100
AcDbCircle
 10
75.8992789564
 20
126.5299699491
 30
0.0
 40
25.0
100
AcDbArc
 50
121.6517993324
 51
254.3482006676
  0
ARC
  5
221
330
1F
100
AcDbEntity
  8
0
  6
Continuous
 62
     7
370
    15
100
AcDbCircle
 10
58.2235526778
 20
117.7381531612
 30
0.0
 40
3.037359115846852
100
AcDbArc
 50
282.6866281378
 51
317.1184940318
  0
SPLINE
  5
222
330
1F
100
AcDbEntity
  8
0
  6
Continuous
 62
     7
370
    15
100
AcDbSpline
210
0.0
220
0.0
230
1.0
 70
     8
 71
     3
 72
    10
 73
     6
 74
     0
 42
0.00000001
 43
0.00000001
 12
1.0
 22
0.0
 32
0.0
 13
1.0
 23
0.0
 33
0.0
 40
0.0
 40
0.0
 40
0.0
 40
0.0
 40
0.5
 40
0.5
 40
1.0
 40
1.0
 40
1.0
 40
1.0
 10
61.46537788709447
 20
113.9515669483013
 30
0.0
 10
61.36297894868368
 20
114.0404349411746
 30
0.0
 10
61.27092019354726
 20
114.1422779630311
 30
0.0
 10
61.11345227046123
 20
114.3757690164563
 30
0.0
 10
61.04993090938959
 20
114.5047328180311
 30
0.0
 10
60.99856299459643
 20
114.6436484874394
 30
0.0
  0
SPLINE
  5
223
330
1F
100
AcDbEntity
  8
0
  6
Continuous
 62
     7
370
    15
100
AcDbSpline
210
0.0
220
0.0
230
1.0
 70
     8
 71
     3
 72
    10
 73
     6
 74
     0
 42
0.00000001
 43
0.00000001
 12
1.0
 22
0.0
 32
0.0
 13
1.0
 23
0.0
 33
0.0
 40
0.0
 40
0.0
 40
0.0
 40
0.0
 40
0.2593608882977145
 40
0.7378034020262093
 40
0.9999999999999999
 40
0.9999999999999999
 40
0.9999999999999999
 40
0.9999999999999999
 10
62.70752402664871
 20
114.9172622000665
 30
0.0
 10
62.66444030536567
 20
114.7977661420512
 30
0.0
 10
62.54188012929897
 20
114.4578359439743
 30
0.0
 10
62.06385874867919
 20
114.1658702695212
 30
0.0
 10
61.621853992565
 20
114.0075979253202
 30
0.0
 10
61.46537813069077
 20
113.9515673031897
 30
0.0
  0
LINE
  5
224
330
1F
100
AcDbEntity
  8
0
  6
Continuous
 62
     7
370
    15
100
AcDbLine
 10
60.9985629347
 20
114.6436489409
 30
0.0
 11
61.2304324535
 21
115.5686031317
 31
0.0
  0
LWPOLYLINE
  5
225
330
1F
100
AcDbEntity
  8
0
  6
Continuous
 62
     7
370
    15
100
AcDbPolyline
 90
        9
 70
   128
 43
0.0
 10
60.9985629347
 20
114.6436489409
 10
61.0761504871
 20
114.5286212897
 10
61.1489249644
 20
114.4207275694
 10
61.2165101123
 20
114.3205275049
 10
61.2785566849
 20
114.2285407742
 10
61.3347415131
 20
114.1452432832
 10
61.3847740245
 20
114.0710671654
 10
61.4283943799
 20
114.0063970571
 10
61.4653781307
 20
113.9515673032
  0
LWPOLYLINE
  5
226
330
1F
100
AcDbEntity
  8
0
  6
Continuous
 62
     7
370
    15
100
AcDbPolyline
 90
       34
 70
   128
 43
0.0
 10
71.4121286076
 20
112.5422629749
 10
71.5027975169
 20
112.3795357754
 10
71.605340789
 20
112.0988975501
 10
71.716053157
 20
111.7104904016
 10
71.8309331936
 20
111.228354018
 10
71.9458281313
 20
110.6699115818
 10
72.0565859013
 20
110.0553485786
 10
72.1592034464
 20
109.4068761205
 10
72.2499715415
 20
108.7479318714
 10
72.3256098357
 20
108.1023316121
 10
72.3833846644
 20
107.493410561
 10
72.4212077697
 20
106.9431740081
 10
72.4377122027
 20
106.4715094155
 10
72.4323012185
 20
106.0954674369
 10
72.4051706278
 20
105.828634206
 10
72.3573008803
 20
105.6806582248
 10
72.2904221405
 20
105.6568834221
 10
72.2069514235
 20
105.7581722027
 10
72.1099059814
 20
105.9808644688
 10
72.0027929422
 20
106.3169080054
 10
71.8894840469
 20
106.7541602289
 10
71.7740736221
 20
107.2768165951
 10
71.6607339931
 20
107.865986157
 10
71.5535611165
 20
108.5003770178
 10
71.4564288286
 20
109.1570581531
 10
71.3728468184
 20
109.8122976011
 10
71.3058367622
 20
110.4424118286
 10
71.2578205642
 20
111.0246272048
 10
71.2305332785
 20
111.5379014274
 10
71.2249616411
 20
111.9636825507
 10
71.2413063523
 20
112.2865823319
 10
71.2789769535
 20
112.494931299
 10
71.3366123167
 20
112.5811969152
 10
71.4121286076
 20
112.5422629749
  0
LWPOLYLINE
  5
227
330
1F
100
AcDbEntity
  8
0
  6
Continuous
 62
     7
370
    15
100
AcDbPolyline
 90
       25
 70
   128
 43
0.0
 10
71.5917979618
 20
111.074353311
 10
71.6648960737
 20
110.9288658237
 10
71.7493386258
 20
110.6599129027
 10
71.8393700448
 20
110.2858211135
 10
71.9288557087
 20
109.8320863431
 10
72.0116968517
 20
109.3296285009
 10
72.0822480292
 20
108.8126923179
 10
72.135701754
 20
108.3165022766
 10
72.1684144595
 20
107.8748746997
 10
72.1781574906
 20
107.5179043447
 10
72.1642665816
 20
107.2699210828
 10
72.1276884218
 20
107.147820968
 10
72.0709159289
 20
107.1599281615
 10
71.9978175842
 20
107.3054156488
 10
71.9133752649
 20
107.5743704324
 10
71.8233438459
 20
107.9484603589
 10
71.733858182
 20
108.4021951293
 10
71.651017039
 20
108.9046529716
 10
71.5804656287
 20
109.4215910172
 10
71.5270123695
 20
109.9177810585
 10
71.4942991984
 20
110.3594086354
 10
71.4845561673
 20
110.7163771277
 10
71.4984473092
 20
110.964361321
 10
71.5350254689
 20
111.0864605045
 10
71.5917979618
 20
111.074353311
  0
LINE
  5
228
330
1F
100
AcDbEntity
  8
0
  6
Continuous
 62
     7
370
    15
100
AcDbLine
 10
71.963947012
 20
109.6197988128
 30
0.0
 11
71.8779668462
 21
109.4178880786
 31
0.0
  0
LINE
  5
229
330
1F
100
AcDbEntity
  8
0
  6
Continuous
 62
     7
370
    15
100
AcDbLine
 10
71.8779668462
 20
109.4178880786
 30
0.0
 11
72.0391000872
 21
109.1110508179
 31
0.0
  0
LINE
  5
22A
330
1F
100
AcDbEntity
  8
0
  6
Continuous
 62
     7
370
    15
100
AcDbLine
 10
72.1712091257
 20
107.8188426083
 30
0.0
 11
72.1662749787
 21
107.8181497043
 31
0.0
  0
LINE
  5
22B
330
1F
100
AcDbEntity
  8
0
  6
Continuous
 62
     7
370
    15
100
AcDbLine
 10
71.9956252509
 20
109.4344246423
 30
0.0
 11
71.8779668462
 21
109.4178880786
 31
0.0
  0
ELLIPSE
  5
22C
330
1F
100
AcDbEntity
  8
0
  6
Continuous
 62
     7
370
    15
100
AcDbEllipse
 10
74.4378708016
 20
98.7195230778
 30
0.0
 11
-0.3276187943153843
 21
2.328679888184539
 31
0.0
210
0.0
220
0.0
230
1.0
 40
0.1045283628
 41
2.002261758721868
 42
2.772342728833307
  0
ARC
  5
22D
330
1F
100
AcDbEntity
  8
0
  6
Continuous
 62
     7
370
    15
100
AcDbCircle
 10
76.2529733763
 20
96.1887134742
 30
0.0
 40
2.702500209974024
100
AcDbArc
 50
183.3142273745
 51
195.8944259035
  0
LINE
  5
22E
330
1F
100
AcDbEntity
  8
0
  6
Continuous
 62
     7
370
    15
100
AcDbLine
 10
73.1064281211
 20
102.7612711524
 30
0.0
 11
73.5549931199
 21
96.0324767267
 31
0.0
  0
LINE
  5
22F
330
1F
100
AcDbEntity
  8
0
  6
Continuous
 62
     7
370
    15
100
AcDbLine
 10
73.14719374
 20
107.5226950681
 30
0.0
 11
73.1064281211
 21
102.7612711524
 31
0.0
  0
LWPOLYLINE
  5
230
330
1F
100
AcDbEntity
  8
0
  6
Continuous
 62
     7
370
    15
100
AcDbPolyline
 90
        9
 70
   128
 43
0.0
 10
73.2305424538
 20
107.3742366617
 10
73.2155032241
 20
107.4473119562
 10
73.2005131216
 20
107.5087364053
 10
73.1862832111
 20
107.5555986946
 10
73.1734880031
 20
107.5856766885
 10
73.1627337885
 20
107.5975454634
 10
73.1545306993
 20
107.5906406378
 10
73.1492675626
 20
107.5652900373
 10
73.14719374
 20
107.5226950681
  0
LINE
  5
231
330
1F
100
AcDbEntity
  8
0
  6
Continuous
 62
     7
370
    15
100
AcDbLine
 10
74.6253558685
 20
100.0557939743
 30
0.0
 11
73.2305424538
 21
107.3742366617
 31
0.0
  0
LINE
  5
232
330
1F
100
AcDbEntity
  8
0
  6
Continuous
 62
     7
370
    15
100
AcDbLine
 10
75.8377764508
 20
91.9664397126
 30
0.0
 11
74.6253558685
 21
100.0557939743
 31
0.0
  0
ARC
  5
233
330
1F
100
AcDbEntity
  8
0
  6
Continuous
 62
     7
370
    15
100
AcDbCircle
 10
74.9621163115
 20
91.7173740085
 30
0.0
 40
0.9103924453274981
100
AcDbArc
 50
348.1878181835
 51
15.8774445609
  0
LINE
  5
234
330
1F
100
AcDbEntity
  8
0
  6
Continuous
 62
     7
370
    15
100
AcDbLine
 10
74.9069816451
 20
92.1206592804
 30
0.0
 11
75.8532301846
 21
91.5310128813
 31
0.0
  0
LINE
  5
235
330
1F
100
AcDbEntity
  8
0
  6
Continuous
 62
     7
370
    15
100
AcDbLine
 10
73.6537952692
 20
95.4485914891
 30
0.0
 11
74.9069816451
 21
92.1206592804
 31
0.0
  0
ARC
  5
236
330
1F
100
AcDbEntity
  8
0
  6
Continuous
 62
     7
370
    15
100
AcDbCircle
 10
76.1213661104
 20
96.169781386
 30
0.0
 40
2.567374814588169
100
AcDbArc
 50
183.3142637147
 51
195.8944461052
  0
LINE
  5
237
330
1F
100
AcDbEntity
  8
0
  6
Continuous
 62
     7
370
    15
100
AcDbLine
 10
73.6521475268
 20
95.466664735
 30
0.0
 11
74.9047955981
 21
92.1401611751
 31
0.0
  0
LINE
  5
238
330
1F
100
AcDbEntity
  8
0
  6
Continuous
 62
     7
370
    15
100
AcDbLine
 10
74.9047955981
 20
92.1401611751
 30
0.0
 11
75.8506377464
 21
91.5507680958
 31
0.0
  0
ARC
  5
239
330
1F
100
AcDbEntity
  8
0
  6
Continuous
 62
     7
370
    15
100
AcDbCircle
 10
75.004078341
 20
91.7278115456
 30
0.0
 40
0.8648741005901038
100
AcDbArc
 50
348.1878102315
 51
15.8774457002
  0
LINE
  5
23A
330
1F
100
AcDbEntity
  8
0
  6
Continuous
 62
     7
370
    15
100
AcDbLine
 10
75.8359566974
 20
91.9644243305
 30
0.0
 11
74.6240569063
 21
100.0503047591
 31
0.0
  0
LINE
  5
23B
330
1F
100
AcDbEntity
  8
0
  6
Continuous
 62
     7
370
    15
100
AcDbLine
 10
74.6240569063
 20
100.0503047591
 30
0.0
 11
73.2298425649
 21
107.3656033015
 31
0.0
  0
LWPOLYLINE
  5
23C
330
1F
100
AcDbEntity
  8
0
  6
Continuous
 62
     7
370
    15
100
AcDbPolyline
 90
        9
 70
   128
 43
0.0
 10
73.2298425649
 20
107.3656033015
 10
73.2155551453
 20
107.4350240862
 10
73.2013147575
 20
107.4933788961
 10
73.1877963775
 20
107.5378979778
 10
73.1756407552
 20
107.5664709544
 10
73.1654243794
 20
107.5777455455
 10
73.157631305
 20
107.5711853092
 10
73.1526314997
 20
107.5471031701
 10
73.1506612868
 20
107.5066390669
  0
LINE
  5
23D
330
1F
100
AcDbEntity
  8
0
  6
Continuous
 62
     7
370
    15
100
AcDbLine
 10
73.1506612868
 20
107.5066390669
 30
0.0
 11
73.1099131302
 21
102.7472603356
 31
0.0
  0
LINE
  5
23E
330
1F
100
AcDbEntity
  8
0
  6
Continuous
 62
     7
370
    15
100
AcDbLine
 10
73.1099131302
 20
102.7472603356
 30
0.0
 11
73.5582853452
 21
96.0213548725
 31
0.0
  0
LINE
  5
23F
330
1F
100
AcDbEntity
  8
0
  6
Continuous
 62
     7
370
    15
100
AcDbLine
 10
79.3132099573
 20
100.7146301901
 30
0.0
 11
74.6253558685
 21
100.0557939743
 31
0.0
  0
LINE
  5
240
330
1F
100
AcDbEntity
  8
0
  6
Continuous
 62
     7
370
    15
100
AcDbLine
 10
80.525630365
 20
92.6252759283
 30
0.0
 11
79.3132099573
 21
100.7146301901
 31
0.0
  0
ARC
  5
241
330
1F
100
AcDbEntity
  8
0
  6
Continuous
 62
     7
370
    15
100
AcDbCircle
 10
79.5110753623
 20
92.3618296542
 30
0.0
 40
1.04820121775221
100
AcDbArc
 50
350.5011328743
 51
14.5563338495
  0
LINE
  5
242
330
1F
100
AcDbEntity
  8
0
  6
Continuous
 62
     7
370
    15
100
AcDbLine
 10
75.0328384823
 20
92.4342802947
 30
0.0
 11
74.9047955981
 21
92.1401611751
 31
0.0
  0
LINE
  5
243
330
1F
100
AcDbEntity
  8
0
  6
Continuous
 62
     7
370
    15
100
AcDbLine
 10
79.3132099573
 20
100.7146301901
 30
0.0
 11
78.6533264694
 21
104.1769690102
 31
0.0
  0
LINE
  5
244
330
1F
100
AcDbEntity
  8
0
  6
Continuous
 62
     7
370
    15
100
AcDbLine
 10
75.1929128677
 20
94.8391079193
 30
0.0
 11
74.5201937173
 21
99.3275369739
 31
0.0
  0
ARC
  5
245
330
1F
100
AcDbEntity
  8
0
  6
Continuous
 62
     7
370
    15
100
AcDbCircle
 10
74.8464643916
 20
94.2116072496
 30
0.0
 40
0.1936853925622068
100
AcDbArc
 50
194.8882735536
 51
223.7338409231
  0
LINE
  5
246
330
1F
100
AcDbEntity
  8
0
  6
Continuous
 62
     7
370
    15
100
AcDbLine
 10
73.9639431489
 20
96.0083647853
 30
0.0
 11
74.6592812723
 21
94.1618426924
 31
0.0
  0
ARC
  5
247
330
1F
100
AcDbEntity
  8
0
  6
Continuous
 62
     7
370
    15
100
AcDbCircle
 10
80.4617703206
 20
97.8586516667
 30
0.0
 40
6.756131992259238
100
AcDbArc
 50
183.3141240793
 51
195.8945527096
  0
LINE
  5
248
330
1F
100
AcDbEntity
  8
0
  6
Continuous
 62
     7
370
    15
100
AcDbLine
 10
73.4680483368
 20
101.2015908247
 30
0.0
 11
73.71693731
 21
97.4680788105
 31
0.0
  0
ARC
  5
249
330
1F
100
AcDbEntity
  8
0
  6
Continuous
 62
     7
370
    15
100
AcDbCircle
 10
76.8473358307
 20
101.4450595969
 30
0.0
 40
3.38804678383839
100
AcDbArc
 50
179.9443499191
 51
184.1208897276
  0
LINE
  5
24A
330
1F
100
AcDbEntity
  8
0
  6
Continuous
 62
     7
370
    15
100
AcDbLine
 10
73.4819096764
 20
104.0902554279
 30
0.0
 11
73.459290645
 21
101.4483503288
 31
0.0
  0
LWPOLYLINE
  5
24B
330
1F
100
AcDbEntity
  8
0
  6
Continuous
 62
     7
370
    15
100
AcDbPolyline
 90
        9
 70
   128
 43
0.0
 10
73.6902812281
 20
103.7191103434
 10
73.6526830372
 20
103.9017985796
 10
73.6152082466
 20
104.0553606337
 10
73.5796333541
 20
104.1725154256
 10
73.5476449848
 20
104.2477104103
 10
73.5207595647
 20
104.2773804849
 10
73.5002518416
 20
104.2601174896
 10
73.4870941163
 20
104.1967409884
 10
73.4819096764
 20
104.0902554279
  0
LINE
  5
24C
330
1F
100
AcDbEntity
  8
0
  6
Continuous
 62
     7
370
    15
100
AcDbLine
 10
74.4642020221
 20
99.6584265714
 30
0.0
 11
73.6902812281
 21
103.7191103434
 31
0.0
  0
ARC
  5
24D
330
1F
100
AcDbEntity
  8
0
  6
Continuous
 62
     7
370
    15
100
AcDbCircle
 10
66.0608730286
 20
98.0662697374
 30
0.0
 40
8.552830032009641
100
AcDbArc
 50
8.480211664
 51
10.7285113113
  0
ARC
  5
24E
330
1F
100
AcDbEntity
  8
0
  6
Continuous
 62
     7
370
    15
100
AcDbCircle
 10
73.0037526729
 20
94.2164432872
 30
0.0
 40
2.275990685934425
100
AcDbArc
 50
348.1878781427
 51
15.8773857492
  0
LINE
  5
24F
330
1F
100
AcDbEntity
  8
0
  6
Continuous
 62
     7
370
    15
100
AcDbLine
 10
74.7065152758
 20
94.0777107363
 30
0.0
 11
75.2315472131
 21
93.7505408412
 31
0.0
  0
LWPOLYLINE
  5
250
330
1F
100
AcDbEntity
  8
0
  6
Continuous
 62
     7
370
    15
100
AcDbPolyline
 90
       29
 70
   128
 43
0.0
 10
74.6307411249
 20
95.8626258409
 10
74.6559218754
 20
96.0855323112
 10
74.6588888363
 20
96.4201118087
 10
74.6394932288
 20
96.8495874887
 10
74.59870747
 20
97.3524234479
 10
74.5385768608
 20
97.9034050589
 10
74.462116558
 20
98.4749037063
 10
74.3731604674
 20
99.0382644569
 10
74.2761695077
 20
99.5652347093
 10
74.1760069289
 20
100.029392842
 10
74.0776954702
 20
100.4074613785
 10
73.9861648547
 20
100.6804841792
 10
73.906004873
 20
100.8347689396
 10
73.8412348804
 20
100.8625819569
 10
73.795102748
 20
100.7625262475
 10
73.7699218811
 20
100.5396197772
 10
73.7669549202
 20
100.2050402796
 10
73.7863506441
 20
99.7755645996
 10
73.8271362864
 20
99.2727286404
 10
73.8872668956
 20
98.7217470294
 10
73.9637273149
 20
98.1502465194
 10
74.0526832891
 20
97.5868876314
 10
74.1496742488
 20
97.0599155163
 10
74.2498368275
 20
96.5957592463
 10
74.3481482862
 20
96.2176907098
 10
74.4396789017
 20
95.9446679091
 10
74.5198389999
 20
95.7903831487
 10
74.5846089925
 20
95.7625701314
 10
74.6307411249
 20
95.8626258409
  0
LINE
  5
251
330
1F
100
AcDbEntity
  8
0
  6
Continuous
 62
     7
370
    15
100
AcDbLine
 10
73.3170043462
 20
102.5742299145
 30
0.0
 11
73.1099131302
 21
102.7472603356
 31
0.0
  0
LINE
  5
252
330
1F
100
AcDbEntity
  8
0
  6
Continuous
 62
     7
370
    15
100
AcDbLine
 10
74.8708809045
 20
93.8631638175
 30
0.0
 11
74.8717238679
 21
93.8621356374
 31
0.0
  0
SPLINE
  5
253
330
1F
100
AcDbEntity
  8
0
  6
Continuous
 62
     7
370
    15
100
AcDbSpline
210
0.0
220
0.0
230
1.0
 70
     8
 71
     3
 72
    10
 73
     6
 74
     0
 42
0.00000001
 43
0.00000001
 12
1.0
 22
0.0
 32
0.0
 13
1.0
 23
0.0
 33
0.0
 40
0.0
 40
0.0
 40
0.0
 40
0.0
 40
0.294086602894696
 40
0.6470908182127304
 40
0.9999999999999999
 40
0.9999999999999999
 40
0.9999999999999999
 40
0.9999999999999999
 10
74.92436198694409
 20
93.75510059649656
 30
0.0
 10
74.992182090308
 20
93.63847172067699
 30
0.0
 10
75.1414094462809
 20
93.38184842013064
 30
0.0
 10
75.18333164298083
 20
92.9061100159528
 30
0.0
 10
75.08299836675026
 20
92.59154275227085
 30
0.0
 10
75.03283848231436
 20
92.43428029472538
 30
0.0
  0
LINE
  5
254
330
1F
100
AcDbEntity
  8
0
  6
Continuous
 62
     7
370
    15
100
AcDbLine
 10
73.9853209601
 20
95.9515932238
 30
0.0
 11
73.8369079557
 21
95.8404119348
 31
0.0
  0
LINE
  5
255
330
1F
100
AcDbEntity
  8
0
  6
Continuous
 62
     7
370
    15
100
AcDbLine
 10
73.3170043462
 20
102.5742299145
 30
0.0
 11
73.4673738264
 21
102.3924599623
 31
0.0
  0
LINE
  5
256
330
1F
100
AcDbEntity
  8
0
  6
Continuous
 62
     7
370
    15
100
AcDbLine
 10
80.4200421338
 20
93.3297655767
 30
0.0
 11
79.3132099573
 21
100.7146301901
 31
0.0
  0
LINE
  5
257
330
1F
100
AcDbEntity
  8
0
  6
Continuous
 62
     7
370
    15
100
AcDbLine
 10
83.705610807
 20
101.3319405949
 30
0.0
 11
79.3132099573
 21
100.7146301901
 31
0.0
  0
LINE
  5
258
330
1F
100
AcDbEntity
  8
0
  6
Continuous
 62
     7
370
    15
100
AcDbLine
 10
84.8124429834
 20
93.9470797067
 30
0.0
 11
83.705610807
 21
101.3319405949
 31
0.0
  0
LINE
  5
259
330
1F
100
AcDbEntity
  8
0
  6
Continuous
 62
     7
370
    15
100
AcDbLine
 10
83.9815784496
 20
101.2911076879
 30
0.0
 11
83.705610807
 21
101.3319405949
 31
0.0
  0
LINE
  5
25A
330
1F
100
AcDbEntity
  8
0
  6
Continuous
 62
     7
370
    15
100
AcDbLine
 10
83.9815784496
 20
101.2911076879
 30
0.0
 11
85.0805996236
 21
93.9583636111
 31
0.0
  0
LINE
  5
25B
330
1F
100
AcDbEntity
  8
0
  6
Continuous
 62
     7
370
    15
100
AcDbLine
 10
83.705610807
 20
101.3319405949
 30
0.0
 11
83.045727319
 21
104.7942812776
 31
0.0
  0
LINE
  5
25C
330
1F
100
AcDbEntity
  8
0
  6
Continuous
 62
     7
370
    15
100
AcDbLine
 10
83.306916735
 20
104.8309902882
 30
0.0
 11
83.9815784496
 21
101.2911076879
 31
0.0
  0
ARC
  5
25D
330
1F
100
AcDbEntity
  8
0
  6
Continuous
 62
     7
370
    15
100
AcDbCircle
 10
82.2760839151
 20
93.2884654641
 30
0.0
 40
2.620475156136191
100
AcDbArc
 50
350.5010401566
 51
14.5564595958
  0
ARC
  5
25E
330
1F
100
AcDbEntity
  8
0
  6
Continuous
 62
     7
370
    15
100
AcDbCircle
 10
83.0020235584
 20
93.4660737474
 30
0.0
 40
2.136077659810221
100
AcDbArc
 50
352.8317250666
 51
13.3244146552
  0
INSERT
  5
26A
330
1F
100
AcDbEntity
  8
VERMASSUNG
100
AcDbBlockReference
  2
SW_CENTERMARKSYMBOL_0
 10
75.8992789564
 20
126.5299699491
 30
0.0
  0
OLE2FRAME
  5
26B
330
1F
100
AcDbEntity
  8
0
100
AcDbOle2Frame
 70
     2
  3
Paintbrush-Bild
 10
13.8511154363
 20
38.264191557
 30
0.0
 11
51.6290888628
 21
31.9806341108
 31
0.0
 71
     2
 72
     0
 73
     1
 90
    12928
310
80552BED0767C5B32B40DDAF6807D121434000000000000000006FFBDDFB85D0
310
4940DDAF6807D121434000000000000000006FFBDDFB85D04940416F4BD60AFB
310
3F4000000000000000002BED0767C5B32B40416F4BD60AFB3F40000000000000
310
0000000000000100000000010000010000000100000000000100000000320000
310
D0CF11E0A1B11AE1000000000000000000000000000000003E000300FEFF0900
310
0600000000000000000000000100000001000000000000000010000002000000
310
01000000FEFFFFFF0000000000000000FFFFFFFFFFFFFFFFFFFFFFFFFFFFFFFF
310
FFFFFFFFFFFFFFFFFFFFFFFFFFFFFFFFFFFFFFFFFFFFFFFFFFFFFFFFFFFFFFFF
310
FFFFFFFFFFFFFFFFFFFFFFFFFFFFFFFFFFFFFFFFFFFFFFFFFFFFFFFFFFFFFFFF
310
FFFFFFFFFFFFFFFFFFFFFFFFFFFFFFFFFFFFFFFFFFFFFFFFFFFFFFFFFFFFFFFF
310
FFFFFFFFFFFFFFFFFFFFFFFFFFFFFFFFFFFFFFFFFFFFFFFFFFFFFFFFFFFFFFFF
310
FFFFFFFFFFFFFFFFFFFFFFFFFFFFFFFFFFFFFFFFFFFFFFFFFFFFFFFFFFFFFFFF
310
FFFFFFFFFFFFFFFFFFFFFFFFFFFFFFFFFFFFFFFFFFFFFFFFFFFFFFFFFFFFFFFF
310
FFFFFFFFFFFFFFFFFFFFFFFFFFFFFFFFFFFFFFFFFFFFFFFFFFFFFFFFFFFFFFFF
310
FFFFFFFFFFFFFFFFFFFFFFFFFFFFFFFFFFFFFFFFFFFFFFFFFFFFFFFFFFFFFFFF
310
FFFFFFFFFFFFFFFFFFFFFFFFFFFFFFFFFFFFFFFFFFFFFFFFFFFFFFFFFFFFFFFF
310
FFFFFFFFFFFFFFFFFFFFFFFFFFFFFFFFFFFFFFFFFFFFFFFFFFFFFFFFFFFFFFFF
310
FFFFFFFFFFFFFFFFFFFFFFFFFFFFFFFFFFFFFFFFFFFFFFFFFFFFFFFFFFFFFFFF
310
FFFFFFFFFFFFFFFFFFFFFFFFFFFFFFFFFFFFFFFFFFFFFFFFFFFFFFFFFFFFFFFF
310
FFFFFFFFFFFFFFFFFFFFFFFFFFFFFFFFFFFFFFFFFFFFFFFFFFFFFFFFFFFFFFFF
310
FDFFFFFFFEFFFFFFFEFFFFFFFEFFFFFF05000000060000000700000008000000
310
090000000A0000000B0000000C0000000D0000000E0000000F00000010000000
310
11000000120000001300000014000000150000001600000017000000FEFFFFFF
310
FFFFFFFFFFFFFFFFFFFFFFFFFFFFFFFFFFFFFFFFFFFFFFFFFFFFFFFFFFFFFFFF
310
FFFFFFFFFFFFFFFFFFFFFFFFFFFFFFFFFFFFFFFFFFFFFFFFFFFFFFFFFFFFFFFF
310
FFFFFFFFFFFFFFFFFFFFFFFFFFFFFFFFFFFFFFFFFFFFFFFFFFFFFFFFFFFFFFFF
310
FFFFFFFFFFFFFFFFFFFFFFFFFFFFFFFFFFFFFFFFFFFFFFFFFFFFFFFFFFFFFFFF
310
FFFFFFFFFFFFFFFFFFFFFFFFFFFFFFFFFFFFFFFFFFFFFFFFFFFFFFFFFFFFFFFF
310
FFFFFFFFFFFFFFFFFFFFFFFFFFFFFFFFFFFFFFFFFFFFFFFFFFFFFFFFFFFFFFFF
310
FFFFFFFFFFFFFFFFFFFFFFFFFFFFFFFFFFFFFFFFFFFFFFFFFFFFFFFFFFFFFFFF
310
FFFFFFFFFFFFFFFFFFFFFFFFFFFFFFFFFFFFFFFFFFFFFFFFFFFFFFFFFFFFFFFF
310
FFFFFFFFFFFFFFFFFFFFFFFFFFFFFFFFFFFFFFFFFFFFFFFFFFFFFFFFFFFFFFFF
310
FFFFFFFFFFFFFFFFFFFFFFFFFFFFFFFFFFFFFFFFFFFFFFFFFFFFFFFFFFFFFFFF
310
FFFFFFFFFFFFFFFFFFFFFFFFFFFFFFFFFFFFFFFFFFFFFFFFFFFFFFFFFFFFFFFF
310
FFFFFFFFFFFFFFFFFFFFFFFFFFFFFFFFFFFFFFFFFFFFFFFFFFFFFFFFFFFFFFFF
310
FFFFFFFFFFFFFFFFFFFFFFFFFFFFFFFFFFFFFFFFFFFFFFFFFFFFFFFFFFFFFFFF
310
52006F006F007400200045006E00740072007900000000000000000000000000
310
0000000000000000000000000000000000000000000000000000000000000000
310
16000500FFFFFFFFFFFFFFFF020000000A00030000000000C000000000000046
310
000000000000000000000000606274CFBB23CD0103000000C000000000000000
310
01004F006C006500000000000000000000000000000000000000000000000000
310
0000000000000000000000000000000000000000000000000000000000000000
310
0A000200FFFFFFFFFFFFFFFFFFFFFFFF00000000000000000000000000000000
310
0000000000000000000000000000000000000000000000001400000000000000
310
010043006F006D0070004F0062006A0000000000000000000000000000000000
310
0000000000000000000000000000000000000000000000000000000000000000
310
120002010100000003000000FFFFFFFF00000000000000000000000000000000
310
0000000000000000000000000000000000000000010000004D00000000000000
310
01004F006C006500310030004E00610074006900760065000000000000000000
310
0000000000000000000000000000000000000000000000000000000000000000
310
1A000200FFFFFFFFFFFFFFFFFFFFFFFF00000000000000000000000000000000
310
0000000000000000000000000000000000000000040000002426000000000000
310
FEFFFFFF02000000FEFFFFFFFFFFFFFFFFFFFFFFFFFFFFFFFFFFFFFFFFFFFFFF
310
FFFFFFFFFFFFFFFFFFFFFFFFFFFFFFFFFFFFFFFFFFFFFFFFFFFFFFFFFFFFFFFF
310
FFFFFFFFFFFFFFFFFFFFFFFFFFFFFFFFFFFFFFFFFFFFFFFFFFFFFFFFFFFFFFFF
310
FFFFFFFFFFFFFFFFFFFFFFFFFFFFFFFFFFFFFFFFFFFFFFFFFFFFFFFFFFFFFFFF
310
FFFFFFFFFFFFFFFFFFFFFFFFFFFFFFFFFFFFFFFFFFFFFFFFFFFFFFFFFFFFFFFF
310
FFFFFFFFFFFFFFFFFFFFFFFFFFFFFFFFFFFFFFFFFFFFFFFFFFFFFFFFFFFFFFFF
310
FFFFFFFFFFFFFFFFFFFFFFFFFFFFFFFFFFFFFFFFFFFFFFFFFFFFFFFFFFFFFFFF
310
FFFFFFFFFFFFFFFFFFFFFFFFFFFFFFFFFFFFFFFFFFFFFFFFFFFFFFFFFFFFFFFF
310
FFFFFFFFFFFFFFFFFFFFFFFFFFFFFFFFFFFFFFFFFFFFFFFFFFFFFFFFFFFFFFFF
310
FFFFFFFFFFFFFFFFFFFFFFFFFFFFFFFFFFFFFFFFFFFFFFFFFFFFFFFFFFFFFFFF
310
FFFFFFFFFFFFFFFFFFFFFFFFFFFFFFFFFFFFFFFFFFFFFFFFFFFFFFFFFFFFFFFF
310
FFFFFFFFFFFFFFFFFFFFFFFFFFFFFFFFFFFFFFFFFFFFFFFFFFFFFFFFFFFFFFFF
310
FFFFFFFFFFFFFFFFFFFFFFFFFFFFFFFFFFFFFFFFFFFFFFFFFFFFFFFFFFFFFFFF
310
FFFFFFFFFFFFFFFFFFFFFFFFFFFFFFFFFFFFFFFFFFFFFFFFFFFFFFFFFFFFFFFF
310
FFFFFFFFFFFFFFFFFFFFFFFFFFFFFFFFFFFFFFFFFFFFFFFFFFFFFFFFFFFFFFFF
310
FFFFFFFFFFFFFFFFFFFFFFFFFFFFFFFFFFFFFFFFFFFFFFFFFFFFFFFFFFFFFFFF
310
0100000200000000000000000000000000000000000000000000000000000000
310
0000000000000000000000000000000000000000000000000000000000000000
310
0100FEFF030A0000FFFFFFFF0A00030000000000C00000000000004607000000
310
5042727573680007000000504272757368000700000050427275736800F439B2
310
7100000000000000000000000000000000000000000000000000000000000000
310
0000000000000000000000000000000000000000000000000000000000000000
310
0000000000000000000000000000000000000000000000000000000000000000
310
0000000000000000000000000000000000000000000000000000000000000000
310
0000000000000000000000000000000000000000000000000000000000000000
310
0000000000000000000000000000000000000000000000000000000000000000
310
0000000000000000000000000000000000000000000000000000000000000000
310
0000000000000000000000000000000000000000000000000000000000000000
310
0000000000000000000000000000000000000000000000000000000000000000
310
0000000000000000000000000000000000000000000000000000000000000000
310
0000000000000000000000000000000000000000000000000000000000000000
310
0000000000000000000000000000000000000000000000000000000000000000
310
20260000424D0E260000000000003E00000028000000B40200006E0000000100
310
01000000000000000000130B0000130B00000200000002000000000000FFFFFF
310
FFFFFFFFFFFFFFFFFFFFFFFFFFFFFFFFFFFFFFFFFFFFFFFFFFFFFFFFFFFFFFFF
310
FFFFFFFFFFFFFFFFFFFFFFFFFFFFFFFFFFFFFFFFFFFFFFFFFFFFFFFFFFFFFFFF
310
FFFFFFFFFFFFFFFFFFFFFFFFFFFFFFFFFFFFFFFFFFFFFFFFF000FFFFFFFFFFFF
310
FFFFFFFFFFFFFFFFFFFFFFFFFFFFFFFFFFFFFFFFFFFFFFFFFFFFFFFFFFFFFFFF
310
FFFFFFFFFFFFFFFFFFFFFFFFFFFFFFFFFFFFFFFFFFFFFFFFFFFFFFFFFFFFFFFF
310
FFFFFFFFFFFFFFFFFFFFFFFFFFFFFFFFF000FFFFFFFFFFFFFFFFFFFFFFFFFFFF
310
FFFFFFFFFFFFFFFFFFFFFFFFFFFFFFFFFFFFFFFFFFFFFFFFFFFFFFFFFFFFFFFF
310
FFFFFFFFFFFFFFFFFFFFFFFFFFFFFFFFFFFFFFFFFFFFFFFFFFFFFFFFFFFFFFFF
310
FFFFFFFFFFFFFFFFF000FFFFFFFFFFFFFFFFFFFFFFFFFFFFFFFFFFFFFFFFFFFF
310
FFFFFFFFFFFFFFFFFFFFFFFFFFFFFFFFFFFFFFFFFFFFFFFFFFFFFFFFFFFFFFFF
310
FFFFFFFFFFFFFFFFFFFFFFFFFFFFFFFFFFFFFFFFFFFFFFFFFFFFFFFFFFFFFFFF
310
F000FFFFFFFFFFFFFFFFFFFFFFFFFFFFFFFFFFFFFFFFFFFFFFFFFFFFFFFFFFFF
310
FFFFFFFFFFFFFFFFFFFFFFFFFFFFFFFFFFFFFFFFFFFFFFFFFFFFFFFFFFFFFFFF
310
FFFFFFFFFFFFFFFFFFFFFFFFFFFFFFFFFFFFFFFFFFFFFFFFF000FFFFFFFFFFFF
310
FFFFFFFFFFFFFFFFFFFFFFFFFFFFFFFFFFFFFFFFFFFFFFFFFFFFFFFFFFFFFFFF
310
FFFFFFFFFFFFFFFFFFFFFFFFFFFFFFFFFFFFFFFFFFFFFFFFFFFFFFFFFFFFFFFF
310
FFFFFFFFFFFFFFFFFFFFFFFFFFFFFFFFF000FFFFFFFFFFFFFFFFFFFFFFFFFFFF
310
FFFFFFFFFFFFFFFFFFFFFFFFFFFFFFFFFFFFFFFFFFFFFFFFFFFFFFFFFFFFFFFF
310
FFFFFFFFFFFFFFFFFFFFFFFFFFFFFFFFFFFFFFFFFFFFFFFFFFFFFFFFFFFFFFFF
310
FFFFFFFFFFFFFFFFF000FFFFFFFFFFFFFFFFFFFFFFFFFFFFFFFFFFFFFFFFFFFF
310
FFFFFFFFFFFFFFFFFFFFFFFFFFFFFFFFFFFFFFFFFFFFFFFFFFFFFFFFFFFFFFFF
310
FFFFFFFFFFFFFFFFFFFFFFFFFFFFFFFFFFFFFFFFFFFFFFFFFFFFFFFFFFFFFFFF
310
F000FFFFFFFFFFFFFFFFFFFFFFFFFFFFFFFFFFFFFFFFFFFFFFFFFFFFFFFFFFFF
310
FFFFFFFFFFFFFFFFFFFFFFFFFFFFFFFFFFFFFFFFFFFFFFFFFFFFFFFFFFFFFFFF
310
FFFFFFFFFFFFFFFFFFFFFFFFFFFFFFFFFFFFFFFFFFFFFFFFF000FFFFFFFFFFFF
310
FFFFFFFFFFFFFFFFFFFFFFFFFFFFFFFFFFFFFFFFFFFFFFFFFFFFFFFFFFFFFFFF
310
FFFFFFFFFFFFFFFFFFFFFFFFFFFFFFFFFFFFFFFFFFFFFFFFFFFFFFFFFFFFFFFF
310
FFFFFFFFFFFFFFFFFFFFFFFFFFFFFFFFF000FFFFFFFFFFFFFFFFFFFFFFFFFFFF
310
FFFFFFFFFFFFFFFFFFFFFFFFFFFFFFFFFFFFFFFFFFFFFFFFFFFFFFFFFFFFFFFF
310
FFFFFFFFFFFFFFFFFFFFFFFFFFFFFFFFFFFFFFFFFFFFFFFFFFFFFFFFFFFFFFFF
310
FFFFFFFFFFFFFFFFF000FFFFFFFFFFFFFFFFFFFFFFFFFFFFFFFFFFFFFFFFFFFF
310
FFFFFFFFFFFFFFFFFFFFFFFFFFFFFFFFFFFFFFFFFFFFFFFFFFFFFFFFFFFFFFFF
310
FFFFFFFFFFFFFFFFFFFFFFFFFFFFFFFFFFFFFFFFFFFFFFFFFFFFFFFFFFFFFFFF
310
F000FFFFFFFFFFFFFFFFFFFFFFFFFFFFFFFFFFFFFFFFFFFFFFFFFFFFFFFFFFFF
310
FFFFFFFFFFFFFFFFFFFFFFFFFFFFFFFFFFFFFFFFFFFFFFFFFFFFFFFFFFFFFFFF
310
FFFFFFFFFFFFFFFFFFFFFFFFFFFFFFFFFFFFFFFFFFFFFFFFF000FFFFFFFFFFFF
310
FFFFFFFFFFFFFFFFFFFFFFFFFFFFFFFFFFFFFFFFFFFFFFFFFFFFFFFFFFFFFFFF
310
FFFFFFFFFFFFFFFFFFFFFFFFFFFFFFFFFFFFFFFFFFFFFFFFFFFFFFFFFFFFFFFF
310
FFFFFFFFFFFFFFFFFFFFFFFFFFFFFFFFF000FFFFFFFFFFFFFFFFFFFFFFFFFFFF
310
FFFFFFFFFFFFFFFFFFFFFFFFFFFFFFFFFFFFFFFFFFFFFFFFFFFFFFFFFFFFFFFF
310
FFFFFFFFFFFFFFFFFFFFFFFFFFFFFFFFFFFFFFFFFFFFFFFFFFFFFFFFFFFFFFFF
310
FFFFFFFFFFFFFFFFF000FFFFFFFFFFFFFFFFFFFFFFFFFFFFFFFFFFFFFFFFFFFF
310
FFFFFFFFFFFFFFFFFFFFFFFFFFFFFFFFFFFFFFFFFFFFFFFFFFFFFFFFFFFFFFFF
310
FFFFFFFFFFFFFFFFFFFFFFFFFFFFFFFFFFFFFFFFFFFFFFFFFFFFFFFFFFFFFFFF
310
F000FFFFFFFFFFFFFFFFFFFFFFFFFFFFFFFFFFFFFFFFFFFFFFFFFFFFFFFFFFFF
310
FFFFFFFFFFFFFFFFFFFFFFFFFFFFFFFFFFFFFFFFFFFFFFFFFFFFFFFFFFFFFFFF
310
FFFFFFFFFFFFFFFFFFFFFFFFFFFFFFFFFFFFFFFFFFFFFFFFF000FFFFFFFFFFFF
310
FFFFFFFFFFFFFFFFFFFFFFFFFFFFFFFFFFFFFFFFFFFFFFFFFFFFFFFFFFFFFFFF
310
FFFFFFFFFFFFFFFFFFFFFFFFFFFFFFFFFFFFFFFFFFFFFFFFFFFFFFFFFFFFFFFF
310
FFFFFFFFFFFFFFFFFFFFFFFFFFFFFFFFF000FFFFFFFFFFFFFFFFFFFFFFFFFFFF
310
FFFFFFFFFFFFFFFFFFFFFFFFFFFFFFFFFFFFFFFFFFFFFFFFFFFFFFFFFFFFFFFF
310
FFFFFFFFFFFFFFFFFFFFFFFFFFFFFFFFFFFFFFFFFFFFFFFFFFFFFFFFFFFFFFFF
310
FFFFFFFFFFFFFFFFF000FFFFF80003FFFFFFFFFFFFFFFFFFFFFFFFFFFFFFFFFF
310
FFFFF00007FFFFFFFFFF00007FFFFFF800000000000000007FFFFFFFFFFFFFFF
310
FFFFFFFC001FFFFFFFFFFFFFFC001FFFFFFFFFFFFFFFFFFFFFFFFFFE0007FFFF
310
F000FFFF8000007FFFFFFFF8000FFFFFC0007FFFFF80007FFFFF0000007FFFFF
310
FFF8000007FFFFF800000000000000007FFFFFF0001FFFFFFFFFFFC00001FFFF
310
FFFFFFFFC00001FFFFFFFF000000000003FFFFE000007FFFF000FFFE0000000F
310
FFFFFFF0000FFFFF80007FFFFF80007FFFFC0000001FFFFFFFC0000001FFFFF8
310
00000000000000007FFFFFF0001FFFFFFFFFFE0000003FFFFFFFFFFE0000003F
310
FFFFFF000000000003FFFF0000000FFFF000FFF800000003FFFFFFF00007FFFF
310
80007FFFFF80007FFFF000000007FFFFFF000000003FFFF80000000000000000
310
7FFFFFF0001FFFFFFFFFF80000000FFFFFFFFFF80000000FFFFFFF0000000000
310
03FFFC00000003FFF000FFE000000000FFFFFFF00007FFFF80003FFFFF80007F
310
FFC000000001FFFFFC000000001FFFF800000000000000007FFFFFF0001FFFFF
310
FFFFE000000003FFFFFFFFE000000003FFFFFF000000000003FFF000000000FF
310
F000FF80000000007FFFFFF00007FFFF80003FFFFF80007FFF8000000000FFFF
310
F80000000007FFF800000000000000007FFFFFF0001FFFFFFFFFC000000001FF
310
FFFFFFC000000001FFFFFF000000000003FFC0000000007FF000FF0000000000
310
3FFFFFE00007FFFF00003FFFFF80007FFE00000000003FFFF00000000003FFF8
310
00000000000000007FFFFFF0001FFFFFFFFF8000000000FFFFFFFF8000000000
310
FFFFFF000000000003FF80000000003FF000FE00000000001FFFFFE00003FFFF
310
00003FFFFF80007FFC00000000001FFFE00000000001FFF8000001FFFE000000
310
7FFFFFF0001FFFFFFFFE00000000003FFFFFFE00000000003FFFFF0000000000
310
03FF00000000001FF000FC00000000000FFFFFE00003FFFF00001FFFFF80007F
310
F800000000001FFFC00000000000FFF8000001FFFE0000007FFFFFF0001FFFFF
310
FFFC00000000001FFFFFFC00000000001FFFFF000000000003FE00000000000F
310
F000F8000000000007FFFFE00003FFFF00001FFFFF80007FF800000000000FFF
310
800000000000FFF8000001FFFE0000007FFFFFF0001FFFFFFFF800000000000F
310
FFFFF800000000000FFFFF000000000003FC000000000007F000F80000000000
310
03FFFFC00003FFFE00001FFFFF80007FF0000000000007FF0000000000007FF8
310
000001FFFE0000007FFFFFF0001FFFFFFFF0000000000007FFFFF00000000000
310
07FFFF000000000003F8000000000003F000F0000000000003FFFFC00001FFFE
310
00001FFFFF80007FE0000000000007FE0000000000003FF8000001FFFE000000
310
7FFFFFF0001FFFFFFFF0000000000007FFFFF0000000000007FFFF0000000000
310
03F800001F800003F000E00001FFF00001FFFFC00001FFFE00000FFFFF80007F
310
E00001FFE00003FE00001FFF00003FF8000001FFFE0000007FFFFFF0001FFFFF
310
FFE000003E000003FFFFE000003E000003FFFF000000000003F00001FFF80001
310
F000E00007FFFC0001FFFFC00001FFFE00000FFFFF80007FC0000FFFFC0003FC
310
0000FFFFC0001FF8000001FFFE0000007FFFFFF0001FFFFFFFC00003FFE00001
310
FFFFC00003FFE00001FFFF0001FFFFFFFFF00007FFFE0001F000E0000FFFFF00
310
00FFFF800001FFFC00000FFFFF80007FC0001FFFFE0001FC0001FFFFE0001FF8
310
000001FFFE0000007FFFFFF0001FFFFFFF80000FFFF80000FFFF80000FFFF800
310
00FFFF0003FFFFFFFFE0000FFFFF8000F000C0003FFFFF8000FFFF800000FFFC
310
000007FFFF80007F80003FFFFF0001FC0003FFFFF0001FF8000001FFFE000000
310
7FFFFFF0001FFFFFFF80003FFFFE0000FFFF80003FFFFE0000FFFF0003FFFFFF
310
FFE0003FFFFF8000F000C0003FFFFF8000FFFF800000FFFC000007FFFF80007F
310
80007FFFFF8001F80007FFFFF8000FF8000001FFFE0000007FFFFFF0001FFFFF
310
FF00007FFFFF00007FFF00007FFFFF00007FFF0003FFFFFFFFE0003FFFFFC000
310
F000C0007FFFFFC000FFFF000000FFFC000007FFFF80007F8000FFFFFF8000F8
310
000FFFFFF8000FF8000001FFFE0000007FFFFFF0001FFFFFFF0000FFFFFF8000
310
7FFF0000FFFFFF80007FFF0003FFFFFFFFC0007FFFFFC00070008000FFFFFFC0
310
00FFFF000000FFF8000007FFFF80007F8000FFFFFF8000F8000FFFFFF8000FF8
310
000001FFFE0000007FFFFFF0001FFFFFFE0001FFFFFFC0003FFE0001FFFFFFC0
310
003FFF0003FFFFFFFFC0007FFFFFE00070008000FFFFFFC0007FFF0000007FF8
310
000003FFFF80007F0001FFFFFF8000F8000FFFFFF8000FF8000001FFFE000000
310
7FFFFFF0001FFFFFFE0001FFFFFFC0003FFE0001FFFFFFC0003FFF0003FFFFFF
310
FFC000FFFFFFE00070008000FFFFFFC0007FFF0000007FF8000003FFFF80007F
310
0001FFFFFF8000F8001FFFFFF8000FF8000001FFFE0000007FFFFFF0001FFFFF
310
FE0003FFFFFFE0003FFE0003FFFFFFE0003FFF0003FFFFFFFFC000FFFFFFE000
310
70008000FFFFFFC0007FFE0000007FF8000003FFFF80007F0001FFFFFF8000F0
310
001FFFFFF8000FF8000001FFFE0000007FFFFFF0001FFFFFFC0003FFFFFFE000
310
1FFC0003FFFFFFE0001FFF0003FFFFFFFFC000FFFFFFC00070008000FFFFFF80
310
007FFE0000007FF0000003FFFF80007F0001FFFFFF0000F0001FFFFFF8000FF8
310
000001FFFE0000007FFFFFF0001FFFFFFC0007FFFFFFF0001FFC0007FFFFFFF0
310
001FFF0003FFFFFFFFC000FFFFFFC00070008001FFFFFF0000FFFE0000003FF0
310
000001FFFF80007F0001FFFFFF0000F8001FFFFFF0000FF8000001FFFE000000
310
7FFFFFF0001FFFFFFC0007FFFFFFF0001FFC0007FFFFFFF0001FFF0003FFFFFF
310
FFC001FFFFFF80007000FFFFFFFFFE0000FFFE0008003FF0008001FFFF80007F
310
FFFFFFFFFC0000FFFFFFFFFFE0000FF8000001FFFE0000007FFFFFF0001FFFFF
310
F8000FFFFFFFF8000FF8000FFFFFFFF8000FFF0003FFFFFFFFFFFFFFFFFF0000
310
7000FFFFFFFFFC0000FFFC0008003FF0008001FFFF80007FFFFFFFFFF80001FF
310
FFFFFFFF80000FF8000001FFFE0000007FFFFFF0001FFFFFF8000FFFFFFFF800
310
0FF8000FFFFFFFF8000FFF0003FFFFFFFFFFFFFFFFFE0000F000FFFFFFFFE000
310
00FFFC000C003FE000C001FFFF80007FFFFFFFFFC00001FFFFFFFFFE00001FF8
310
000001FFFE0000007FFFFFF0001FFFFFF8000FFFFFFFF8000FF8000FFFFFFFF8
310
000FFF0003FFFFFFFFFFFFFFFFF00000F000FFFFFFFE000001FFFC000C001FE0
310
00C000FFFF80007FFFFFFFFE000001FFFFFFFFE000001FF80FFFFFFFFFFFFFC0
310
7FFFFFF0001FFFFFF8000FFFFFFFF8000FF8000FFFFFFFF8000FFF0003FFFFFF
310
FFFFFFFFFF800000F000FFFFFFC0000001FFFC001C001FE001C000FFFF80007F
310
FFFFFF80000003FFFFFFF80000001FF80FFFFFFFFFFFFFC07FFFFFF0001FFFFF
310
F8001FFFFFFFFC000FF8001FFFFFFFFC000FFF0003FFFFFFFFFFFFFFF0000001
310
F000FFFFF800000001FFF8001C001FE001C000FFFF80007FFFFFF800000003FF
310
FFFF800000003FF80FFFFFFFFFFFFFC07FFFFFF0001FFFFFF8001FFFFFFFFC00
310
0FF8001FFFFFFFFC000FFF0003FFFFFFFFFFFFFE00000001F000FFFFC0000000
310
03FFF8001E001FC001E000FFFF80007FFFFF8000000007FFFFFC000000003FF8
310
0FFFFFFFFFFFFFC07FFFFFF0001FFFFFF8001FFFFFFFFC000FF8001FFFFFFFFC
310
000FFF0003FFFFFFFFFFFFE000000003F000FFFE0000000007FFF8001E000FC0
310
01E0007FFF80007FFFFE0000000007FFFFE0000000007FF80FFFFFFFFFFFFFC0
310
7FFFFFF0001FFFFFF0001FFFFFFFFC0007F0001FFFFFFFFC0007FF0003FFFFFF
310
FFFFFF0000000003F000FFF80000000007FFF8001E000FC003E0007FFF80007F
310
FFF0000000000FFFFF8000000000FFF80FFFFFFFFFFFFFC07FFFFFF0001FFFFF
310
F0001FFFFFFFFC0007F0001FFFFFFFFC0007FF0003FFFFFFFFFFFC0000000007
310
F000FFE0000000000FFFF0003E000FC003E0007FFF80007FFFC0000000001FFF
310
FE0000000001FFF80FFFFFFFFFFFFFC07FFFFFF0001FFFFFF0001FFFFFFFFC00
310
07F0001FFFFFFFFC0007FF0003FFFFFFFFFFF0000000000FF000FFC000000000
310
1FFFF0003F000F8003F0003FFF80007FFF80000000003FFFF80000000003FFF8
310
0FFFFFFFFFFFFFC07FFFFFF0001FFFFFF0001FFFFFFFFC0007F0001FFFFFFFFC
310
0007FF0003FFFFFFFFFFE0000000001FF000FF00000000007FFFF0003F000780
310
03F0003FFF80007FFF00000000007FFFF00000000007FFF80FFFFFFFFFFFFFC0
310
7FFFFFF0001FFFFFF0001FFFFFFFFC0007F0001FFFFFFFFC0007FF0003FFFFFF
310
FFFF80000000007FF000FE0000000000FFFFE0003F00078007F0003FFF80007F
310
FE0000000001FFFFE0000000001FFFF80FFFFFFFFFFFFFC07FFFFFF0001FFFFF
310
F0001FFFFFFFFC0007F0001FFFFFFFFC0007FF0003FFFFFFFFFF0000000000FF
310
F000FC0000000003FFFFE0007F00078007F0003FFF80007FFC0000000007FFFF
310
C0000000007FFFF80FFFFFFFFFFFFFC07FFFFFF0001FFFFFF8001FFFFFFFFC00
310
0FF8001FFFFFFFFC000FFF0003FFFFFFFFFE0000000003FFF000FC000000000F
310
FFFFE0007F80070007F8001FFF80007FF8000000001FFFFF8000000001FFFFF8
310
0FFFFFFFFFFFFFC07FFFFFF0001FFFFFF8001FFFFFFFFC000FF8001FFFFFFFFC
310
000FFF0003FFFFFFFFFC000000000FFFF000F8000000007FFFFFE0007F800700
310
07F8001FFF80007FF000000000FFFFFF800000000FFFFFF80FFFFFFFFFFFFFC0
310
7FFFFFF0001FFFFFF8000FFFFFFFF8000FF8000FFFFFFFF8000FFF0003FFFFFF
310
FFFC000000007FFFF000F800000007FFFFFFC0007F8003000FF8001FFF80007F
310
F000000007FFFFFF000000007FFFFFF80FFFFFFFFFFFFFC07FFFFFF0001FFFFF
310
F8000FFFFFFFF8000FF8000FFFFFFFF8000FFF0003FFFFFFFFF80000000FFFFF
310
F000F0000000FFFFFFFFC000FF8003000FF8001FFF80007FE0000000FFFFFFFF
310
0000000FFFFFFFF8000001FFFE0000007FFFFFF0001FFFFFF8000FFFFFFFF800
310
0FF8000FFFFFFFF8000FFF0003FFFFFFFFF8000000FFFFFFF000F000000FFFFF
310
FFFFC000FFC002000FF8000FFF80007FE000001FFFFFFFFE000001FFFFFFFFF8
310
000001FFFE0000007FFFFFF0001FFFFFF8000FFFFFFFF8000FF8000FFFFFFFF8
310
000FFF0003FFFFFFFFF000001FFFFFFFF000E00000FFFFFFFFFFC000FFC00200
310
0FFC000FFF80007FE00001FFFFFFFFFE00001FFFFFFFFFF8000001FFFE000000
310
7FFFFFF0001FFFFFFC000FFFFFFFF8001FFC000FFFFFFFF8001FFF0003FFFFFF
310
FFF00001FFFFFFFFF000E00007FFFFFFFFFF8000FFC000001FFC000FFF80007F
310
C0000FFFFFFFFFFE0000FFFFFFFFFFF8000001FFFE0000007FFFFFF0001FFFFF
310
FC0007FFFFFFF0001FFC0007FFFFFFF0001FFF0003FFFFFFFFF00007FFFFFFFF
310
F000E0001FFFFFFFFFFF8000FFC000001FFC000FFF80007FC0003FFFFFFFFFFE
310
0001FFFFFFFFFFF8000001FFFE0000007FFFFFF0001FFFFFFC0007FFFFFFF000
310
1FFC0007FFFFFFF0001FFF0003FFFFFFFFF0001FFFFFFFFFF000E0003FFFFF00
310
03FF8001FFE000001FFC0007FF80007FC0007FFFFF0007FC0003FFFFF0003FF8
310
000001FFFE0000007FFFFFF0001FFFFFFC0003FFFFFFE0001FFC0003FFFFFFE0
310
001FFF0003FFFFFFFFF0003FFFFFFFFFF000E0003FFFFF0001FF8001FFE00000
310
1FFE0007FF80007FC0007FFFFE0003FC0007FFFFE0003FF8000001FFFE000000
310
7FFFFFF0001FFFFFFE0003FFFFFFE0003FFE0003FFFFFFE0003FFF0003FFFFFF
310
FFF0003FFFFF8001F000E0003FFFFF0001FF0001FFE000001FFE0007FF80007F
310
C0007FFFFE0003FC0007FFFFE0003FF8000001FFFE0000007FFFFFF0001FFFFF
310
FE0001FFFFFFC0003FFE0001FFFFFFC0003FFF0003FFFFFFFFF0003FFFFF0001
310
F000E0003FFFFF0003FF0001FFE000003FFE0007FF80007FC0007FFFFE0003FC
310
0007FFFFE0003FF8000001FFFE0000007FFFFFF0001FFFFFFF0001FFFFFFC000
310
7FFF0001FFFFFFC0007FFF0003FFFFFFFFF0003FFFFF0001F000E0003FFFFE00
310
03FF0003FFF000003FFE0003FF80007FC0007FFFFC0003FE0007FFFFE0003FF8
310
000001FFFE0000007FFFFFF0001FFFFFFF0000FFFFFF80007FFF0000FFFFFF80
310
007FFF0003FFFFFFFFF0003FFFFF0001F000E0003FFFFE0003FF0003FFF00000
310
3FFF0003FF80007FC0007FFFFC0007FE0007FFFFC0003FF8000001FFFE000000
310
7FFFFFF0001FFFFFFF80007FFFFF0000FFFF80007FFFFF0000FFFF0003FFFFFF
310
FFF0003FFFFF0003F000E0003FFFFC0003FE0003FFF000003FFF0003FF80007F
310
E0003FFFF80007FE0003FFFFC0007FF8000001FFFE0000007FFFFFF0001FFFFF
310
FF80003FFFFE0000FFFF80003FFFFE0000FFFF0003FFFFFFFFF0001FFFFE0003
310
F000F0001FFFF80003FE0003FFF000007FFF0001FF80007FE0003FFFF00007FE
310
0001FFFF80007FF8000001FFFE0000007FFFFFF0001FFFFFFFC0000FFFF80001
310
FFFFC0000FFFF80001FFFF0003FFFFFFFFF0001FFFFC0003F000F0000FFFF000
310
07FE0007FFF800007FFF0001FF80007FE0001FFFE00007FF0000FFFE00007FF8
310
000001FFFE0000007FFFFFF0001FFFFFFFC00003FFE00001FFFFC00003FFE000
310
01FFFF0003FFFFFFFFF8000FFFF80003F000F00003FFC00007FC0007FFF80000
310
7FFF8001FF80007FF00007FF80000FFF00007FF80000FFF8000001FFFE000000
310
7F80000000000001FFE000003E000003FFFFE000003E000003FFFF0003FFFFFF
310
FFF80003FFE00007F000F800000000000FFC0007FFF800007FFF8001FF80007F
310
F000000000000FFF000000000000FFF8000001FFFE0000007F80000000000001
310
FFF0000000000007FFFFF0000000000007FFFF0003FFFFFFFFFC00007E000007
310
F000F800000000000FFC0007FFF80000FFFF8000FF80007FF800000000001FFF
310
800000000001FFF8000001FFFE0000007F80000000000001FFF800000000000F
310
FFFFF800000000000FFFFF0003FFFFFFFFFC00000000000FF000FC0000000000
310
1FFC0007FFFC0000FFFF8000FF80007FF800000000003FFFC00000000001FFF8
310
000001FFFE0000007F80000000000001FFF800000000000FFFFFF80000000000
310
0FFFFF0003FFFFFFFFFE00000000001FF000FE00000000003FF8000FFFFC0000
310
FFFF8000FF80007FFC00000000003FFFC00000000003FFF8000001FFFE000000
310
7F80000000000001FFFC00000000001FFFFFFC00000000001FFFFF0003FFFFFF
310
FFFF00000000001FF000FF00000000003FF8000FFFFC0000FFFFC000FF80007F
310
FE00000000007FFFE00000000007FFF8000001FFFE0000007F80000000000001
310
FFFE00000000003FFFFFFE00000000003FFFFF0003FFFFFFFFFF80000000003F
310
F000FF80000000007FF8000FFFFC0001FFFFC0007F80007FFF0000000000FFFF
310
F0000000000FFFF800000000000000007F80000000000001FFFF8000000000FF
310
FFFFFF8000000000FFFFFF0003FFFFFFFFFFC0000000007FF000FFC000000000
310
FFF8000FFFFE0001FFFFC0007F80007FFF8000000001FFFFF8000000001FFFF8
310
00000000000000007F80000000000001FFFFC000000001FFFFFFFFC000000001
310
FFFFFF0003FFFFFFFFFFE000000000FFF000FFE000000003FFF0001FFFFE0001
310
FFFFC0007F80007FFFC000000007FFFFFE000000003FFFF80000000000000000
310
7F80000000000001FFFFE000000003FFFFFFFFE000000003FFFFFF0003FFFFFF
310
FFFFF000000003FFF000FFF80000000FFFF0001FFFFE0001FFFFE0007F80007F
310
FFF00000000FFFFFFF00000000FFFFF800000000000000007F80000000000001
310
FFFFF80000000FFFFFFFFFF80000000FFFFFFF0003FFFFFFFFFFFC0000000FFF
310
F000FFFE0000003FFFF0001FFFFE0003FFFFE0003F80007FFFFC0000003FFFFF
310
FFC0000003FFFFF800000000000000007F80000000000001FFFFFE0000003FFF
310
FFFFFFFE0000003FFFFFFF0003FFFFFFFFFFFF0000003FFFF000FFFF800000FF
310
FFF0001FFFFF0003FFFFE0003F80007FFFFF000001FFFFFFFFF800001FFFFFF8
310
00000000000000007F80000000000001FFFFFFC00001FFFFFFFFFFFFC00001FF
310
FFFFFF0003FFFFFFFFFFFFC00000FFFFF000FFFFF8000FFFFFFFFFFFFFFFFFFF
310
FFFFFFFFFFFFFFFFFFFFF0001FFFFFFFFFFF0000FFFFFFF80000000000000000
310
7FFFFFFFFFFFFFFFFFFFFFFC001FFFFFFFFFFFFFFC001FFFFFFFFFFFFFFFFFFF
310
FFFFFFFC001FFFFFF000FFFFFFFFFFFFFFFFFFFFFFFFFFFFFFFFFFFFFFFFFFFF
310
FFFFFFFFFFFFFFFFFFFFFFFFFFFFFFFFFFFFFFFFFFFFFFFFFFFFFFFFFFFFFFFF
310
FFFFFFFFFFFFFFFFFFFFFFFFFFFFFFFFFFFFFFFFFFFFFFFFFFFFFFFFFFFFFFFF
310
F000FFFFFFFFFFFFFFFFFFFFFFFFFFFFFFFFFFFFFFFFFFFFFFFFFFFFFFFFFFFF
310
FFFFFFFFFFFFFFFFFFFFFFFFFFFFFFFFFFFFFFFFFFFFFFFFFFFFFFFFFFFFFFFF
310
FFFFFFFFFFFFFFFFFFFFFFFFFFFFFFFFFFFFFFFFFFFFFFFFF000FFFFFFFFFFFF
310
FFFFFFFFFFFFFFFFFFFFFFFFFFFFFFFFFFFFFFFFFFFFFFFFFFFFFFFFFFFFFFFF
310
FFFFFFFFFFFFFFFFFFFFFFFFFFFFFFFFFFFFFFFFFFFFFFFFFFFFFFFFFFFFFFFF
310
FFFFFFFFFFFFFFFFFFFFFFFFFFFFFFFFF000FFFFFFFFFFFFFFFFFFFFFFFFFFFF
310
FFFFFFFFFFFFFFFFFFFFFFFFFFFFFFFFFFFFFFFFFFFFFFFFFFFFFFFFFFFFFFFF
310
FFFFFFFFFFFFFFFFFFFFFFFFFFFFFFFFFFFFFFFFFFFFFFFFFFFFFFFFFFFFFFFF
310
FFFFFFFFFFFFFFFFF000FFFFFFFFFFFFFFFFFFFFFFFFFFFFFFFFFFFFFFFFFFFF
310
FFFFFFFFFFFFFFFFFFFFFFFFFFFFFFFFFFFFFFFFFFFFFFFFFFFFFFFFFFFFFFFF
310
FFFFFFFFFFFFFFFFFFFFFFFFFFFFFFFFFFFFFFFFFFFFFFFFFFFFFFFFFFFFFFFF
310
F000FFFFFFFFFFFFFFFFFFFFFFFFFFFFFFFFFFFFFFFFFFFFFFFFFFFFFFFFFFFF
310
FFFFFFFFFFFFFFFFFFFFFFFFFFFFFFFFFFFFFFFFFFFFFFFFFFFFFFFFFFFFFFFF
310
FFFFFFFFFFFFFFFFFFFFFFFFFFFFFFFFFFFFFFFFFFFFFFFFF000FFFFFFFFFFFF
310
FFFFFFFFFFFFFFFFFFFFFFFFFFFFFFFFFFFFFFFFFFFFFFFFFFFFFFFFFFFFFFFF
310
FFFFFFFFFFFFFFFFFFFFFFFFFFFFFFFFFFFFFFFFFFFFFFFFFFFFFFFFFFFFFFFF
310
FFFFFFFFFFFFFFFFFFFFFFFFFFFFFFFFF000FFFFFFFFFFFFFFFFFFFFFFFFFFFF
310
FFFFFFFFFFFFFFFFFFFFFFFFFFFFFFFFFFFFFFFFFFFFFFFFFFFFFFFFFFFFFFFF
310
FFFFFFFFFFFFFFFFFFFFFFFFFFFFFFFFFFFFFFFFFFFFFFFFFFFFFFFFFFFFFFFF
310
FFFFFFFFFFFFFFFFF000FFFFFFFFFFFFFFFFFFFFFFFFFFFFFFFFFFFFFFFFFFFF
310
FFFFFFFFFFFFFFFFFFFFFFFFFFFFFFFFFFFFFFFFFFFFFFFFFFFFFFFFFFFFFFFF
310
FFFFFFFFFFFFFFFFFFFFFFFFFFFFFFFFFFFFFFFFFFFFFFFFFFFFFFFFFFFFFFFF
310
F000FFFFFFFFFFFFFFFFFFFFFFFFFFFFFFFFFFFFFFFFFFFFFFFFFFFFFFFFFFFF
310
FFFFFFFFFFFFFFFFFFFFFFFFFFFFFFFFFFFFFFFFFFFFFFFFFFFFFFFFFFFFFFFF
310
FFFFFFFFFFFFFFFFFFFFFFFFFFFFFFFFFFFFFFFFFFFFFFFFF000FFFFFFFFFFFF
310
FFFFFFFFFFFFFFFFFFFFFFFFFFFFFFFFFFFFFFFFFFFFFFFFFFFFFFFFFFFFFFFF
310
FFFFFFFFFFFFFFFFFFFFFFFFFFFFFFFFFFFFFFFFFFFFFFFFFFFFFFFFFFFFFFFF
310
FFFFFFFFFFFFFFFFFFFFFFFFFFFFFFFFF000FFFFFFFFFFFFFFFFFFFFFFFFFFFF
310
FFFFFFFFFFFFFFFFFFFFFFFFFFFFFFFFFFFFFFFFFFFFFFFFFFFFFFFFFFFFFFFF
310
FFFFFFFFFFFFFFFFFFFFFFFFFFFFFFFFFFFFFFFFFFFFFFFFFFFFFFFFFFFFFFFF
310
FFFFFFFFFFFFFFFFF000FFFFFFFFFFFFFFFFFFFFFFFFFFFFFFFFFFFFFFFFFFFF
310
FFFFFFFFFFFFFFFFFFFFFFFFFFFFFFFFFFFFFFFFFFFFFFFFFFFFFFFFFFFFFFFF
310
FFFFFFFFFFFFFFFFFFFFFFFFFFFFFFFFFFFFFFFFFFFFFFFFFFFFFFFFFFFFFFFF
310
F000FFFFFFFFFFFFFFFFFFFFFFFFFFFFFFFFFFFFFFFFFFFFFFFFFFFFFFFFFFFF
310
FFFFFFFFFFFFFFFFFFFFFFFFFFFFFFFFFFFFFFFFFFFFFFFFFFFFFFFFFFFFFFFF
310
FFFFFFFFFFFFFFFFFFFFFFFFFFFFFFFFFFFFFFFFFFFFFFFFF000FFFFFFFFFFFF
310
FFFFFFFFFFFFFFFFFFFFFFFFFFFFFFFFFFFFFFFFFFFFFFFFFFFFFFFFFFFFFFFF
310
FFFFFFFFFFFFFFFFFFFFFFFFFFFFFFFFFFFFFFFFFFFFFFFFFFFFFFFFFFFFFFFF
310
FFFFFFFFFFFFFFFFFFFFFFFFFFFFFFFFF000FFFFFFFFFFFFFFFFFFFFFFFFFFFF
310
FFFFFFFFFFFFFFFFFFFFFFFFFFFFFFFFFFFFFFFFFFFFFFFFFFFFFFFFFFFFFFFF
310
FFFFFFFFFFFFFFFFFFFFFFFFFFFFFFFFFFFFFFFFFFFFFFFFFFFFFFFFFFFFFFFF
310
FFFFFFFFFFFFFFFFF000FFFFFFFFFFFFFFFFFFFFFFFFFFFFFFFFFFFFFFFFFFFF
310
FFFFFFFFFFFFFFFFFFFFFFFFFFFFFFFFFFFFFFFFFFFFFFFFFFFFFFFFFFFFFFFF
310
FFFFFFFFFFFFFFFFFFFFFFFFFFFFFFFFFFFFFFFFFFFFFFFFFFFFFFFFFFFFFFFF
310
F000FFFFFFFFFFFFFFFFFFFFFFFFFFFFFFFFFFFFFFFFFFFFFFFFFFFFFFFFFFFF
310
FFFFFFFFFFFFFFFFFFFFFFFFFFFFFFFFFFFFFFFFFFFFFFFFFFFFFFFFFFFFFFFF
310
FFFFFFFFFFFFFFFFFFFFFFFFFFFFFFFFFFFFFFFFFFFFFFFFF000FFFFFFFFFFFF
310
FFFFFFFFFFFFFFFFFFFFFFFFFFFFFFFFFFFFFFFFFFFFFFFFFFFFFFFFFFFFFFFF
310
FFFFFFFFFFFFFFFFFFFFFFFFFFFFFFFFFFFFFFFFFFFFFFFFFFFFFFFFFFFFFFFF
310
FFFFFFFFFFFFFFFFFFFFFFFFFFFFFFFFF000FFFFFFFFFFFFFFFFFFFFFFFFFFFF
310
FFFFFFFFFFFFFFFFFFFFFFFFFFFFFFFFFFFFFFFFFFFFFFFFFFFFFFFFFFFFFFFF
310
FFFFFFFFFFFFFFFFFFFFFFFFFFFFFFFFFFFFFFFFFFFFFFFFFFFFFFFFFFFFFFFF
310
FFFFFFFFFFFFFFFFF000FFFFFFFFFFFFFFFFFFFFFFFFFFFFFFFFFFFFFFFFFFFF
310
FFFFFFFFFFFFFFFFFFFFFFFFFFFFFFFFFFFFFFFFFFFFFFFFFFFFFFFFFFFFFFFF
310
FFFFFFFFFFFFFFFFFFFFFFFFFFFFFFFFFFFFFFFFFFFFFFFFFFFFFFFFFFFFFFFF
310
F000FFFFFFFFFFFFFFFFFFFFFFFFFFFFFFFFFFFFFFFFFFFFFFFFFFFFFFFFFFFF
310
FFFFFFFFFFFFFFFFFFFFFFFFFFFFFFFFFFFFFFFFFFFFFFFFFFFFFFFFFFFFFFFF
310
FFFFFFFFFFFFFFFFFFFFFFFFFFFFFFFFFFFFFFFFFFFFFFFFF000FFFFFFFFFFFF
310
FFFFFFFFFFFFFFFFFFFFFFFFFFFFFFFFFFFFFFFFFFFFFFFFFFFFFFFFFFFFFFFF
310
FFFFFFFFFFFFFFFFFFFFFFFFFFFFFFFFFFFFFFFFFFFFFFFFFFFFFFFFFFFFFFFF
310
FFFFFFFFFFFFFFFFFFFFFFFFFFFFFFFFF0000000000000000000000000000000
310
0000000000000000000000000000000000000000000000000000000000000000
310
0000000000000000000000000000000000000000000000000000000000000000
310
0000000000000000000000000000000000000000000000000000000000000000
310
0000000000000000000000000000000000000000000000000000000000000000
310
0000000000000000000000000000000000000000000000000000000000000000
310
0000000000000000000000000000000000000000000000000000000000000000
310
0000000000000000000000000000000000000000000000000000000000000000
310
0000000000000000000000000000000000000000000000000000000000000000
310
0000000000000000000000000000000000000000000000000000000000000000
310
0000000000000000000000000000000000000000000000000000000000000000
310
0000000000000000000000000000000000000000000000000000000000000000
310
0000000000000000000000000000000000000000000000000000000000000000
310
0000000000000000000000000000000000000000000000000000000000000000
310
0000000000000000000000000000000000000000000000000000000000000000
310
0000000000000000000000000000000000000000000000000000000000000000
  1
OLE
  0
ENDSEC
  0
SECTION
  2
OBJECTS
  0
DICTIONARY
  5
C
330
0
100
AcDbDictionary
281
     1
  3
ACAD_GROUP
350
D
  3
ACAD_LAYOUT
350
1A
  3
ACAD_MLINESTYLE
350
17
  3
ACAD_PLOTSETTINGS
350
19
  3
ACAD_PLOTSTYLENAME
350
E
  0
DICTIONARY
  5
D
102
{ACAD_REACTORS
330
C
102
}
330
C
100
AcDbDictionary
281
     1
  0
DICTIONARY
  5
1A
102
{ACAD_REACTORS
330
C
102
}
330
C
100
AcDbDictionary
281
     1
  3
Layout1
350
1E
  3
Layout2
350
26
  3
Model
350
22
  0
DICTIONARY
  5
17
102
{ACAD_REACTORS
330
C
102
}
330
C
100
AcDbDictionary
281
     1
  3
Standard
350
18
  0
DICTIONARY
  5
19
102
{ACAD_REACTORS
330
C
102
}
330
C
100
AcDbDictionary
281
     1
  0
ACDBDICTIONARYWDFLT
  5
E
102
{ACAD_REACTORS
330
C
102
}
330
C
100
AcDbDictionary
281
     1
  3
Normal
350
F
100
AcDbDictionaryWithDefault
340
F
  0
LAYOUT
  5
1E
102
{ACAD_REACTORS
330
1A
102
}
330
1A
100
AcDbPlotSettings
  1

  2
none_device
  4

  6

 40
0.0
 41
0.0
 42
0.0
 43
0.0
 44
0.0
 45
0.0
 46
0.0
 47
0.0
 48
0.0
 49
0.0
140
0.0
141
0.0
142
1.0
143
1.0
 70
   688
 72
     0
 73
     0
 74
     5
  7

 75
    16
147
1.0
148
0.0
149
0.0
100
AcDbLayout
  1
Layout1
 70
     1
 71
     1
 10
0.0
 20
0.0
 11
420.0
 21
297.0
 12
0.0
 22
0.0
 32
0.0
 14
1.0000000000E+20
 24
1.0000000000E+20
 34
1.0000000000E+20
 15
-1.0000000000E+20
 25
-1.0000000000E+20
 35
-1.0000000000E+20
146
0.0
 13
0.0
 23
0.0
 33
0.0
 16
1.0
 26
0.0
 36
0.0
 17
0.0
 27
1.0
 37
0.0
 76
     0
330
1B
  0
LAYOUT
  5
26
102
{ACAD_REACTORS
330
1A
102
}
330
1A
100
AcDbPlotSettings
  1

  2
none_device
  4

  6

 40
0.0
 41
0.0
 42
0.0
 43
0.0
 44
0.0
 45
0.0
 46
0.0
 47
0.0
 48
0.0
 49
0.0
140
0.0
141
0.0
142
1.0
143
1.0
 70
   688
 72
     0
 73
     0
 74
     5
  7

 75
    16
147
1.0
148
0.0
149
0.0
100
AcDbLayout
  1
Layout2
 70
     1
 71
     2
 10
0.0
 20
0.0
 11
0.0
 21
0.0
 12
0.0
 22
0.0
 32
0.0
 14
0.0
 24
0.0
 34
0.0
 15
0.0
 25
0.0
 35
0.0
146
0.0
 13
0.0
 23
0.0
 33
0.0
 16
1.0
 26
0.0
 36
0.0
 17
0.0
 27
1.0
 37
0.0
 76
     0
330
23
  0
LAYOUT
  5
22
102
{ACAD_REACTORS
330
1A
102
}
330
1A
100
AcDbPlotSettings
  1

  2
none_device
  4

  6

 40
0.0
 41
0.0
 42
0.0
 43
0.0
 44
0.0
 45
0.0
 46
0.0
 47
0.0
 48
0.0
 49
0.0
140
0.0
141
0.0
142
1.0
143
1.0
 70
  1712
 72
     0
 73
     0
 74
     0
  7

 75
     0
147
1.0
148
0.0
149
0.0
100
AcDbLayout
  1
Model
 70
     1
 71
     0
 10
0.0
 20
0.0
 11
297.0
 21
210.0
 12
0.0
 22
0.0
 32
0.0
 14
0.0
 24
0.0
 34
0.0
 15
297.0
 25
210.0
 35
0.0
146
0.0
 13
0.0
 23
0.0
 33
0.0
 16
1.0
 26
0.0
 36
0.0
 17
0.0
 27
1.0
 37
0.0
 76
     0
330
1F
331
29
  0
MLINESTYLE
  5
18
102
{ACAD_REACTORS
330
17
102
}
330
17
100
AcDbMlineStyle
  2
Standard
 70
     0
  3

 62
   256
 51
90.0
 52
90.0
 71
     2
 49
0.5
 62
   256
  6
BYLAYER
 49
-0.5
 62
   256
  6
BYLAYER
  0
ACDBPLACEHOLDER
  5
F
102
{ACAD_REACTORS
330
E
102
}
330
E
  0
ENDSEC
  0
EOF
