  0
SECTION
  2
HEADER
  9
$ACADVER
  1
AC1015
  9
$ACADMAINTVER
 70
     6
  9
$DWGCODEPAGE
  3
ANSI_1252
  9
$INSBASE
 10
0.0
 20
0.0
 30
0.0
  9
$EXTMIN
 10
0.0
 20
0.0
 30
0.0
  9
$EXTMAX
 10
297.0
 20
210.0
 30
0.0
  9
$LIMMIN
 10
0.0
 20
0.0
  9
$LIMMAX
 10
297.0
 20
210.0
  9
$ORTHOMODE
 70
     0
  9
$REGENMODE
 70
     1
  9
$FILLMODE
 70
     1
  9
$QTEXTMODE
 70
     0
  9
$MIRRTEXT
 70
     1
  9
$LTSCALE
 40
1.0
  9
$ATTMODE
 70
     1
  9
$TEXTSIZE
 40
2.0
  9
$TRACEWID
 40
1.0
  9
$TEXTSTYLE
  7
Standard
  9
$CLAYER
  8
0
  9
$CELTYPE
  6
ByLayer
  9
$CECOLOR
 62
   256
  9
$CELTSCALE
 40
1.0
  9
$DISPSILH
 70
     0
  9
$DIMSCALE
 40
1.0
  9
$DIMASZ
 40
3.0
  9
$DIMEXO
 40
0.0
  9
$DIMDLI
 40
3.75
  9
$DIMRND
 40
0.0
  9
$DIMDLE
 40
0.0
  9
$DIMEXE
 40
1.0
  9
$DIMTP
 40
0.0
  9
$DIMTM
 40
0.0
  9
$DIMTXT
 40
2.0
  9
$DIMCEN
 40
2.5
  9
$DIMTSZ
 40
0.0
  9
$DIMTOL
 70
     0
  9
$DIMLIM
 70
     0
  9
$DIMTIH
 70
     1
  9
$DIMTOH
 70
     1
  9
$DIMSE1
 70
     0
  9
$DIMSE2
 70
     0
  9
$DIMTAD
 70
     1
  9
$DIMZIN
 70
     0
  9
$DIMBLK
  1

  9
$DIMASO
 70
     1
  9
$DIMSHO
 70
     1
  9
$DIMPOST
  1

  9
$DIMAPOST
  1

  9
$DIMALT
 70
     0
  9
$DIMALTD
 70
     3
  9
$DIMALTF
 40
0.0393700787
  9
$DIMLFAC
 40
1.0
  9
$DIMTOFL
 70
     1
  9
$DIMTVP
 40
0.0
  9
$DIMTIX
 70
     0
  9
$DIMSOXD
 70
     0
  9
$DIMSAH
 70
     0
  9
$DIMBLK1
  1

  9
$DIMBLK2
  1

  9
$DIMSTYLE
  2
ISO-25
  9
$DIMCLRD
 70
     0
  9
$DIMCLRE
 70
     0
  9
$DIMCLRT
 70
     0
  9
$DIMTFAC
 40
1.0
  9
$DIMGAP
 40
1.524
  9
$DIMJUST
 70
     0
  9
$DIMSD1
 70
     0
  9
$DIMSD2
 70
     0
  9
$DIMTOLJ
 70
     0
  9
$DIMTZIN
 70
     0
  9
$DIMALTZ
 70
     0
  9
$DIMALTTZ
 70
     0
  9
$DIMUPT
 70
     0
  9
$DIMDEC
 70
     2
  9
$DIMTDEC
 70
     3
  9
$DIMALTU
 70
     2
  9
$DIMALTTD
 70
     3
  9
$DIMTXSTY
  7
Standard
  9
$DIMAUNIT
 70
     0
  9
$DIMADEC
 70
     2
  9
$DIMALTRND
 40
0.0
  9
$DIMAZIN
 70
     0
  9
$DIMDSEP
 70
    44
  9
$DIMATFIT
 70
     3
  9
$DIMFRAC
 70
     0
  9
$DIMLDRBLK
  1

  9
$DIMLUNIT
 70
     2
  9
$DIMLWD
 70
    -2
  9
$DIMLWE
 70
    -2
  9
$DIMTMOVE
 70
     0
  9
$LUNITS
 70
     2
  9
$LUPREC
 70
     2
  9
$SKETCHINC
 40
1.0
  9
$FILLETRAD
 40
10.0
  9
$AUNITS
 70
     0
  9
$AUPREC
 70
     2
  9
$MENU
  1
.
  9
$ELEVATION
 40
0.0
  9
$PELEVATION
 40
0.0
  9
$THICKNESS
 40
0.0
  9
$LIMCHECK
 70
     0
  9
$CHAMFERA
 40
10.0
  9
$CHAMFERB
 40
10.0
  9
$CHAMFERC
 40
20.0
  9
$CHAMFERD
 40
0.0
  9
$SKPOLY
 70
     0
  9
$TDCREATE
 40
2456071.578665613
  9
$TDUCREATE
 40
2456071.49533228
  9
$TDUPDATE
 40
2456071.578667234
  9
$TDUUPDATE
 40
2456071.495333901
  9
$TDINDWG
 40
0.0000000116
  9
$TDUSRTIMER
 40
0.0000000116
  9
$USRTIMER
 70
     1
  9
$ANGBASE
 50
0.0
  9
$ANGDIR
 70
     0
  9
$PDMODE
 70
     0
  9
$PDSIZE
 40
-1.0
  9
$PLINEWID
 40
0.0
  9
$SPLFRAME
 70
     0
  9
$SPLINETYPE
 70
     6
  9
$SPLINESEGS
 70
     8
  9
$HANDSEED
  5
24F
  9
$SURFTAB1
 70
     6
  9
$SURFTAB2
 70
     6
  9
$SURFTYPE
 70
     6
  9
$SURFU
 70
     6
  9
$SURFV
 70
     6
  9
$UCSBASE
  2

  9
$UCSNAME
  2

  9
$UCSORG
 10
0.0
 20
0.0
 30
0.0
  9
$UCSXDIR
 10
1.0
 20
0.0
 30
0.0
  9
$UCSYDIR
 10
0.0
 20
1.0
 30
0.0
  9
$UCSORTHOREF
  2

  9
$UCSORTHOVIEW
 70
     0
  9
$UCSORGTOP
 10
0.0
 20
0.0
 30
0.0
  9
$UCSORGBOTTOM
 10
0.0
 20
0.0
 30
0.0
  9
$UCSORGLEFT
 10
0.0
 20
0.0
 30
0.0
  9
$UCSORGRIGHT
 10
0.0
 20
0.0
 30
0.0
  9
$UCSORGFRONT
 10
0.0
 20
0.0
 30
0.0
  9
$UCSORGBACK
 10
0.0
 20
0.0
 30
0.0
  9
$PUCSBASE
  2

  9
$PUCSNAME
  2

  9
$PUCSORG
 10
0.0
 20
0.0
 30
0.0
  9
$PUCSXDIR
 10
1.0
 20
0.0
 30
0.0
  9
$PUCSYDIR
 10
0.0
 20
1.0
 30
0.0
  9
$PUCSORTHOREF
  2

  9
$PUCSORTHOVIEW
 70
     0
  9
$PUCSORGTOP
 10
0.0
 20
0.0
 30
0.0
  9
$PUCSORGBOTTOM
 10
0.0
 20
0.0
 30
0.0
  9
$PUCSORGLEFT
 10
0.0
 20
0.0
 30
0.0
  9
$PUCSORGRIGHT
 10
0.0
 20
0.0
 30
0.0
  9
$PUCSORGFRONT
 10
0.0
 20
0.0
 30
0.0
  9
$PUCSORGBACK
 10
0.0
 20
0.0
 30
0.0
  9
$USERI1
 70
     0
  9
$USERI2
 70
     0
  9
$USERI3
 70
     0
  9
$USERI4
 70
     0
  9
$USERI5
 70
     0
  9
$USERR1
 40
0.0
  9
$USERR2
 40
0.0
  9
$USERR3
 40
0.0
  9
$USERR4
 40
0.0
  9
$USERR5
 40
0.0
  9
$WORLDVIEW
 70
     1
  9
$SHADEDGE
 70
     3
  9
$SHADEDIF
 70
    70
  9
$TILEMODE
 70
     1
  9
$MAXACTVP
 70
    64
  9
$PINSBASE
 10
0.0
 20
0.0
 30
0.0
  9
$PLIMCHECK
 70
     0
  9
$PEXTMIN
 10
1.0000000000E+20
 20
1.0000000000E+20
 30
1.0000000000E+20
  9
$PEXTMAX
 10
-1.0000000000E+20
 20
-1.0000000000E+20
 30
-1.0000000000E+20
  9
$PLIMMIN
 10
0.0
 20
0.0
  9
$PLIMMAX
 10
420.0
 20
297.0
  9
$UNITMODE
 70
     0
  9
$VISRETAIN
 70
     1
  9
$PLINEGEN
 70
     0
  9
$PSLTSCALE
 70
     1
  9
$TREEDEPTH
 70
  3020
  9
$CMLSTYLE
  2
Standard
  9
$CMLJUST
 70
     0
  9
$CMLSCALE
 40
20.0
  9
$PROXYGRAPHICS
 70
     1
  9
$MEASUREMENT
 70
     1
  9
$CELWEIGHT
370
    -1
  9
$ENDCAPS
280
     0
  9
$JOINSTYLE
280
     0
  9
$LWDISPLAY
290
     1
  9
$INSUNITS
 70
     4
  9
$HYPERLINKBASE
  1

  9
$STYLESHEET
  1

  9
$XEDIT
290
     1
  9
$CEPSNTYPE
380
     0
  9
$PSTYLEMODE
290
     1
  9
$FINGERPRINTGUID
  2
{15A0E40B-F949-4C73-A6F0-8577321CE81E}
  9
$VERSIONGUID
  2
{FAEB1C32-E019-11D5-929B-00C0DF256EC4}
  9
$EXTNAMES
290
     1
  9
$PSVPSCALE
 40
0.0
  9
$OLESTARTUP
290
     0
  0
ENDSEC
  0
SECTION
  2
CLASSES
  0
CLASS
  1
ACDBDICTIONARYWDFLT
  2
AcDbDictionaryWithDefault
  3
ObjectDBX Classes
 90
        0
280
     0
281
     0
  0
CLASS
  1
VISUALSTYLE
  2
AcDbVisualStyle
  3
ObjectDBX Classes
 90
     4095
280
     0
281
     0
  0
CLASS
  1
MATERIAL
  2
AcDbMaterial
  3
ObjectDBX Classes
 90
     1153
280
     0
281
     0
  0
CLASS
  1
ACDBPLACEHOLDER
  2
AcDbPlaceHolder
  3
ObjectDBX Classes
 90
        0
280
     0
281
     0
  0
CLASS
  1
LAYOUT
  2
AcDbLayout
  3
ObjectDBX Classes
 90
        0
280
     0
281
     0
  0
ENDSEC
  0
SECTION
  2
TABLES
  0
TABLE
  2
VPORT
  5
8
330
0
100
AcDbSymbolTable
 70
     1
  0
VPORT
  5
29
330
8
100
AcDbSymbolTableRecord
100
AcDbViewportTableRecord
  2
*Active
 70
     0
 10
0.0
 20
0.0
 11
1.0
 21
1.0
 12
148.5
 22
105.0
 13
0.0
 23
0.0
 14
10.0
 24
10.0
 15
10.0
 25
10.0
 16
0.0
 26
0.0
 36
1.0
 17
0.0
 27
0.0
 37
0.0
 40
210.0
 41
1.4142857143
 42
50.0
 43
0.0
 44
0.0
 50
0.0
 51
0.0
 71
     0
 72
  2000
 73
     1
 74
     3
 75
     0
 76
     0
 77
     0
 78
     0
281
     0
 65
     1
110
0.0
120
0.0
130
0.0
111
1.0
121
0.0
131
0.0
112
0.0
122
1.0
132
0.0
 79
     0
146
0.0
  0
ENDTAB
  0
TABLE
  2
LTYPE
  5
5
330
0
100
AcDbSymbolTable
 70
     6
  0
LTYPE
  5
14
330
5
100
AcDbSymbolTableRecord
100
AcDbLinetypeTableRecord
  2
ByBlock
 70
     0
  3

 72
    65
 73
     0
 40
0.0
  0
LTYPE
  5
15
330
5
100
AcDbSymbolTableRecord
100
AcDbLinetypeTableRecord
  2
ByLayer
 70
     0
  3

 72
    65
 73
     0
 40
0.0
  0
LTYPE
  5
16
330
5
100
AcDbSymbolTableRecord
100
AcDbLinetypeTableRecord
  2
Continuous
 70
     0
  3
Solid line
 72
    65
 73
     0
 40
0.0
  0
LTYPE
  5
3F
330
5
100
AcDbSymbolTableRecord
100
AcDbLinetypeTableRecord
  2
HIDDEN
 70
     0
  3
Hidden __ __ __ __ __ __ __ __ __ __ __ __ __ __
 72
    65
 73
     2
 40
1.905
 49
1.27
 74
     0
 49
-0.635
 74
     0
  0
LTYPE
  5
40
330
5
100
AcDbSymbolTableRecord
100
AcDbLinetypeTableRecord
  2
PHANTOM
 70
     0
  3
Phantom ______  __  __  ______  __  __  ______
 72
    65
 73
     6
 40
12.7
 49
6.35
 74
     0
 49
-1.27
 74
     0
 49
1.27
 74
     0
 49
-1.27
 74
     0
 49
1.27
 74
     0
 49
-1.27
 74
     0
  0
LTYPE
  5
41
330
5
100
AcDbSymbolTableRecord
100
AcDbLinetypeTableRecord
  2
CENTER
 70
     0
  3
Center ____ _ ____ _ ____ _ ____ _ ____ _ ____
 72
    65
 73
     4
 40
10.16
 49
6.35
 74
     0
 49
-1.27
 74
     0
 49
1.27
 74
     0
 49
-1.27
 74
     0
  0
LTYPE
  5
42
330
5
100
AcDbSymbolTableRecord
100
AcDbLinetypeTableRecord
  2
CENTERX2
 70
     0
  3
Center (2x) ________  __  ________  __  _____
 72
    65
 73
     4
 40
20.32
 49
12.7
 74
     0
 49
-2.54
 74
     0
 49
2.54
 74
     0
 49
-2.54
 74
     0
  0
LTYPE
  5
43
330
5
100
AcDbSymbolTableRecord
100
AcDbLinetypeTableRecord
  2
DOT2
 70
     0
  3
Dot (.5x) ........................................
 72
    65
 73
     2
 40
0.635
 49
0.0
 74
     0
 49
-0.635
 74
     0
  0
ENDTAB
  0
TABLE
  2
LAYER
  5
2
330
0
100
AcDbSymbolTable
 70
     5
  0
LAYER
  5
10
330
2
100
AcDbSymbolTableRecord
100
AcDbLayerTableRecord
  2
0
 70
     0
 62
     7
  6
Continuous
370
    -3
390
F
  0
LAYER
  5
44
330
2
100
AcDbSymbolTableRecord
100
AcDbLayerTableRecord
  2
FORMAT
 70
     0
 62
     7
  6
Continuous
370
    -3
390
F
  0
LAYER
  5
45
330
2
100
AcDbSymbolTableRecord
100
AcDbLayerTableRecord
  2
VERMASSUNG
 70
     0
 62
     7
  6
Continuous
370
    -3
390
F
  0
LAYER
  5
46
330
2
100
AcDbSymbolTableRecord
100
AcDbLayerTableRecord
  2
KOPF_DÜNN
 70
     0
 62
     7
  6
Continuous
370
    -3
390
F
  0
LAYER
  5
47
330
2
100
AcDbSymbolTableRecord
100
AcDbLayerTableRecord
  2
KOPF_DICK
 70
     0
 62
     7
  6
Continuous
370
    15
390
F
  0
ENDTAB
  0
TABLE
  2
STYLE
  5
3
330
0
100
AcDbSymbolTable
 70
     2
  0
STYLE
  5
11
330
3
100
AcDbSymbolTableRecord
100
AcDbTextStyleTableRecord
  2
Standard
 70
     0
 40
0.0
 41
1.0
 50
0.0
 71
     0
 42
2.0
  3
txt
  4

  0
STYLE
  5
48
330
3
100
AcDbSymbolTableRecord
100
AcDbTextStyleTableRecord
  2
SLDTEXTSTYLE0
 70
     0
 40
0.0
 41
0.7
 50
0.0
 71
     0
 42
0.2
  3
TXT
  4

  0
ENDTAB
  0
TABLE
  2
VIEW
  5
6
330
0
100
AcDbSymbolTable
 70
     0
  0
ENDTAB
  0
TABLE
  2
UCS
  5
7
330
0
100
AcDbSymbolTable
 70
     0
  0
ENDTAB
  0
TABLE
  2
APPID
  5
9
330
0
100
AcDbSymbolTable
 70
     1
  0
APPID
  5
12
330
9
100
AcDbSymbolTableRecord
100
AcDbRegAppTableRecord
  2
ACAD
 70
     0
  0
ENDTAB
  0
TABLE
  2
DIMSTYLE
  5
A
330
0
100
AcDbSymbolTable
 70
     5
100
AcDbDimStyleTable
  0
DIMSTYLE
105
27
330
A
100
AcDbSymbolTableRecord
100
AcDbDimStyleTableRecord
  2
ISO-25
 70
     0
 41
2.5
 42
0.625
 43
3.75
 44
1.25
 73
     0
 74
     0
 77
     1
 78
     8
140
2.5
141
2.5
143
0.0393700787
147
0.625
171
     3
172
     1
178
     0
271
     2
272
     2
274
     3
278
    44
283
     0
284
     8
340
11
  0
DIMSTYLE
105
1A3
102
{ACAD_REACTORS
330
1A2
102
}
330
A
100
AcDbSymbolTableRecord
100
AcDbDimStyleTableRecord
  2
SLDDIMSTYLE0
 70
     0
 41
3.0
 44
0.0
 73
     0
 74
     0
 77
     1
 78
    12
 79
     3
140
2.0
147
0.5
173
     1
178
     0
179
     2
272
     3
276
     2
284
    12
340
48
  0
DIMSTYLE
105
1AC
102
{ACAD_REACTORS
330
1AB
330
1B8
102
}
330
A
100
AcDbSymbolTableRecord
100
AcDbDimStyleTableRecord
  2
SLDDIMSTYLE1
 70
     0
 41
3.0
 44
0.0
 45
0.000000001
 47
0.1
 48
0.1
 71
     1
 73
     0
 74
     0
 77
     1
 78
    12
 79
     3
140
2.0
147
0.5
173
     1
178
     0
271
     2
272
     1
276
     2
284
     8
340
48
  0
DIMSTYLE
105
1C5
102
{ACAD_REACTORS
330
1C4
330
1CF
102
}
330
A
100
AcDbSymbolTableRecord
100
AcDbDimStyleTableRecord
  2
SLDDIMSTYLE2
 70
     0
 41
3.0
 44
0.0
 45
0.000000001
 73
     0
 74
     0
 77
     1
 78
    12
 79
     3
140
2.0
147
0.5
173
     1
178
     0
271
     2
272
     3
276
     2
284
    12
340
48
  0
DIMSTYLE
105
234
102
{ACAD_REACTORS
330
233
102
}
330
A
100
AcDbSymbolTableRecord
100
AcDbDimStyleTableRecord
  2
SLDDIMSTYLE3
 70
     0
 41
3.0
 44
0.0
 45
0.000000001
 73
     0
 74
     0
 77
     1
 78
    12
 79
     3
140
2.0
147
0.5
172
     1
173
     1
178
     0
271
     2
272
     3
276
     2
284
    12
289
     0
340
48
  0
ENDTAB
  0
TABLE
  2
BLOCK_RECORD
  5
1
330
0
100
AcDbSymbolTable
 70
     8
  0
BLOCK_RECORD
  5
1F
330
1
100
AcDbSymbolTableRecord
100
AcDbBlockTableRecord
  2
*Model_Space
340
22
  0
BLOCK_RECORD
  5
1B
330
1
100
AcDbSymbolTableRecord
100
AcDbBlockTableRecord
  2
*Paper_Space
340
1E
  0
BLOCK_RECORD
  5
23
330
1
100
AcDbSymbolTableRecord
100
AcDbBlockTableRecord
  2
*Paper_Space0
340
26
  0
BLOCK_RECORD
  5
1A4
330
1
100
AcDbSymbolTableRecord
100
AcDbBlockTableRecord
  2
_D
340
0
  0
BLOCK_RECORD
  5
1AD
330
1
100
AcDbSymbolTableRecord
100
AcDbBlockTableRecord
  2
_D_1
340
0
  0
BLOCK_RECORD
  5
1B9
330
1
100
AcDbSymbolTableRecord
100
AcDbBlockTableRecord
  2
_D_2
340
0
  0
BLOCK_RECORD
  5
1C6
330
1
100
AcDbSymbolTableRecord
100
AcDbBlockTableRecord
  2
_D_3
340
0
  0
BLOCK_RECORD
  5
1D0
330
1
100
AcDbSymbolTableRecord
100
AcDbBlockTableRecord
  2
_D_4
340
0
  0
BLOCK_RECORD
  5
235
330
1
100
AcDbSymbolTableRecord
100
AcDbBlockTableRecord
  2
_D_5
340
0
  0
BLOCK_RECORD
  5
242
330
1
100
AcDbSymbolTableRecord
100
AcDbBlockTableRecord
  2
SW_CENTERMARKSYMBOL_0
340
0
102
{BLKREFS
331
24D
102
}
  0
ENDTAB
  0
ENDSEC
  0
SECTION
  2
BLOCKS
  0
BLOCK
  5
20
330
1F
100
AcDbEntity
  8
0
100
AcDbBlockBegin
  2
*Model_Space
 70
     0
 10
0.0
 20
0.0
 30
0.0
  3
*Model_Space
  1

  0
ENDBLK
  5
21
330
1F
100
AcDbEntity
  8
0
100
AcDbBlockEnd
  0
BLOCK
  5
1C
330
1B
100
AcDbEntity
 67
     1
  8
0
100
AcDbBlockBegin
  2
*Paper_Space
 70
     0
 10
0.0
 20
0.0
 30
0.0
  3
*Paper_Space
  1

  0
ENDBLK
  5
1D
330
1B
100
AcDbEntity
 67
     1
  8
0
100
AcDbBlockEnd
  0
BLOCK
  5
24
330
23
100
AcDbEntity
  8
0
100
AcDbBlockBegin
  2
*Paper_Space0
 70
     0
 10
0.0
 20
0.0
 30
0.0
  3
*Paper_Space0
  1

  0
ENDBLK
  5
25
330
23
100
AcDbEntity
  8
0
100
AcDbBlockEnd
  0
BLOCK
  5
1A5
330
1A4
100
AcDbEntity
  8
0
100
AcDbBlockBegin
  2
_D
 70
     0
 10
0.0
 20
0.0
 30
0.0
  3
_D
  1

  0
ARC
  5
1A7
330
1A4
100
AcDbEntity
  8
VERMASSUNG
100
AcDbCircle
 10
244.0726605923
 20
86.5939869994
 30
0.0
 40
11.8468429371182
100
AcDbArc
 50
0.0
 51
107.5040245282
  0
SOLID
  5
1A8
330
1A4
100
AcDbEntity
  8
VERMASSUNG
100
AcDbTrace
 10
255.9195035294
 20
86.5939869994
 30
0.0
 11
255.9949732728
 21
89.6266103387
 31
0.0
 12
255.1018846271
 22
89.5152879648
 32
0.0
 13
255.1018846271
 23
89.5152879648
 33
0.0
  0
SOLID
  5
1A9
330
1A4
100
AcDbEntity
  8
VERMASSUNG
100
AcDbTrace
 10
240.5094526007
 20
97.892271665
 30
0.0
 11
243.5414026568
 21
97.9911597693
 31
0.0
 12
243.3789535773
 22
98.8763774242
 32
0.0
 13
243.3789535773
 23
98.8763774242
 33
0.0
  0
MTEXT
  5
1AA
330
1A4
100
AcDbEntity
  8
VERMASSUNG
100
AcDbMText
 10
249.0534332641
 20
100.8288702917
 30
0.1
 40
2.0
 41
0.0
 71
     1
 72
     1
  1
107.5°
  7
SLDTEXTSTYLE0
 11
0.8064653709398208
 21
-0.5912813251531772
 31
0.0
 73
     1
 44
1.0
  0
ENDBLK
  5
1A6
330
1A4
100
AcDbEntity
  8
0
100
AcDbBlockEnd
  0
BLOCK
  5
1AE
330
1AD
100
AcDbEntity
  8
0
100
AcDbBlockBegin
  2
_D_1
 70
     0
 10
0.0
 20
0.0
 30
0.0
  3
_D_1
  1

  0
SOLID
  5
1B0
330
1AD
100
AcDbEntity
  8
VERMASSUNG
100
AcDbTrace
 10
183.926771115
 20
74.4203005266
 30
0.0
 11
186.926771115
 21
73.9703005266
 31
0.0
 12
186.926771115
 22
74.8703005266
 32
0.0
 13
186.926771115
 23
74.8703005266
 33
0.0
  0
SOLID
  5
1B1
330
1AD
100
AcDbEntity
  8
VERMASSUNG
100
AcDbTrace
 10
243.926771115
 20
74.4203005266
 30
0.0
 11
240.926771115
 21
74.8703005266
 31
0.0
 12
240.926771115
 22
73.9703005266
 32
0.0
 13
240.926771115
 23
73.9703005266
 33
0.0
  0
LINE
  5
1B2
330
1AD
100
AcDbEntity
  8
VERMASSUNG
100
AcDbLine
 10
183.926771115
 20
96.8939869994
 30
0.0
 11
183.926771115
 21
73.4203005266
 31
0.0
  0
LINE
  5
1B3
330
1AD
100
AcDbEntity
  8
VERMASSUNG
100
AcDbLine
 10
243.926771115
 20
86.5939869994
 30
0.0
 11
243.926771115
 21
73.4203005266
 31
0.0
  0
LINE
  5
1B4
330
1AD
100
AcDbEntity
  8
VERMASSUNG
100
AcDbLine
 10
183.926771115
 20
74.4203005266
 30
0.0
 11
243.926771115
 21
74.4203005266
 31
0.0
  0
MTEXT
  5
1B5
330
1AD
100
AcDbEntity
  8
VERMASSUNG
100
AcDbMText
 10
209.376770928
 20
76.9984358898
 30
0.1
 40
2.0
 41
0.0
 71
     1
 72
     1
  1
60
  7
SLDTEXTSTYLE0
 73
     1
 44
1.0
  0
MTEXT
  5
1B6
330
1AD
100
AcDbEntity
  8
VERMASSUNG
100
AcDbMText
 10
215.1642710301
 20
76.9984358898
 30
0.1
 40
2.0
 41
0.0
 71
     1
 72
     1
  1

  7
SLDTEXTSTYLE0
 73
     1
 44
1.0
  0
MTEXT
  5
1B7
330
1AD
100
AcDbEntity
  8
VERMASSUNG
100
AcDbMText
 10
215.1767713199
 20
76.503902027
 30
0.1
 40
1.5
 41
0.0
 71
     1
 72
     1
  1
±0.1
  7
SLDTEXTSTYLE0
 73
     1
 44
1.0
  0
ENDBLK
  5
1AF
330
1AD
100
AcDbEntity
  8
0
100
AcDbBlockEnd
  0
BLOCK
  5
1BA
330
1B9
100
AcDbEntity
  8
0
100
AcDbBlockBegin
  2
_D_2
 70
     0
 10
0.0
 20
0.0
 30
0.0
  3
_D_2
  1

  0
SOLID
  5
1BC
330
1B9
100
AcDbEntity
  8
VERMASSUNG
100
AcDbTrace
 10
260.2997324005
 20
86.5939869994
 30
0.0
 11
260.7497324005
 21
89.5939869994
 31
0.0
 12
259.8497324005
 22
89.5939869994
 32
0.0
 13
259.8497324005
 23
89.5939869994
 33
0.0
  0
SOLID
  5
1BD
330
1B9
100
AcDbEntity
  8
VERMASSUNG
100
AcDbTrace
 10
260.2997324005
 20
121.5939869994
 30
0.0
 11
259.8497324005
 21
118.5939869994
 31
0.0
 12
260.7497324005
 22
118.5939869994
 32
0.0
 13
260.7497324005
 23
118.5939869994
 33
0.0
  0
LINE
  5
1BE
330
1B9
100
AcDbEntity
  8
VERMASSUNG
100
AcDbLine
 10
243.926771115
 20
86.5939869994
 30
0.0
 11
261.2997324005
 21
86.5939869994
 31
0.0
  0
LINE
  5
1BF
330
1B9
100
AcDbEntity
  8
VERMASSUNG
100
AcDbLine
 10
243.926771115
 20
121.5939869994
 30
0.0
 11
261.2997324005
 21
121.5939869994
 31
0.0
  0
LINE
  5
1C0
330
1B9
100
AcDbEntity
  8
VERMASSUNG
100
AcDbLine
 10
260.2997324005
 20
86.5939869994
 30
0.0
 11
260.2997324005
 21
121.5939869994
 31
0.0
  0
MTEXT
  5
1C1
330
1B9
100
AcDbEntity
  8
VERMASSUNG
100
AcDbMText
 10
257.7215970374
 20
99.5439868124
 30
0.1
 40
2.0
 41
0.0
 71
     1
 72
     1
  1
35
  7
SLDTEXTSTYLE0
 11
6.123233995736766E-17
 21
1.0
 31
0.0
 73
     1
 44
1.0
  0
MTEXT
  5
1C2
330
1B9
100
AcDbEntity
  8
VERMASSUNG
100
AcDbMText
 10
257.7215970374
 20
105.3314869145
 30
0.1
 40
2.0
 41
0.0
 71
     1
 72
     1
  1

  7
SLDTEXTSTYLE0
 11
6.123233995736766E-17
 21
1.0
 31
0.0
 73
     1
 44
1.0
  0
MTEXT
  5
1C3
330
1B9
100
AcDbEntity
  8
VERMASSUNG
100
AcDbMText
 10
258.2161309002
 20
105.3439872043
 30
0.1
 40
1.5
 41
0.0
 71
     1
 72
     1
  1
±0.1
  7
SLDTEXTSTYLE0
 11
6.123233995736766E-17
 21
1.0
 31
0.0
 73
     1
 44
1.0
  0
ENDBLK
  5
1BB
330
1B9
100
AcDbEntity
  8
0
100
AcDbBlockEnd
  0
BLOCK
  5
1C7
330
1C6
100
AcDbEntity
  8
0
100
AcDbBlockBegin
  2
_D_3
 70
     0
 10
0.0
 20
0.0
 30
0.0
  3
_D_3
  1

  0
SOLID
  5
1C9
330
1C6
100
AcDbEntity
  8
VERMASSUNG
100
AcDbTrace
 10
153.926771115
 20
62.4203005266
 30
0.0
 11
156.926771115
 21
61.9703005266
 31
0.0
 12
156.926771115
 22
62.8703005266
 32
0.0
 13
156.926771115
 23
62.8703005266
 33
0.0
  0
SOLID
  5
1CA
330
1C6
100
AcDbEntity
  8
VERMASSUNG
100
AcDbTrace
 10
243.926771115
 20
62.4203005266
 30
0.0
 11
240.926771115
 21
62.8703005266
 31
0.0
 12
240.926771115
 22
61.9703005266
 32
0.0
 13
240.926771115
 23
61.9703005266
 33
0.0
  0
LINE
  5
1CB
330
1C6
100
AcDbEntity
  8
VERMASSUNG
100
AcDbLine
 10
153.926771115
 20
105.6006611612
 30
0.0
 11
153.926771115
 21
61.4203005266
 31
0.0
  0
LINE
  5
1CC
330
1C6
100
AcDbEntity
  8
VERMASSUNG
100
AcDbLine
 10
243.926771115
 20
86.5939869994
 30
0.0
 11
243.926771115
 21
61.4203005266
 31
0.0
  0
LINE
  5
1CD
330
1C6
100
AcDbEntity
  8
VERMASSUNG
100
AcDbLine
 10
153.926771115
 20
62.4203005266
 30
0.0
 11
243.926771115
 21
62.4203005266
 31
0.0
  0
MTEXT
  5
1CE
330
1C6
100
AcDbEntity
  8
VERMASSUNG
100
AcDbMText
 10
196.626771064
 20
64.9984358898
 30
0.1
 40
2.0
 41
0.0
 71
     1
 72
     1
  1
90
  7
SLDTEXTSTYLE0
 73
     1
 44
1.0
  0
ENDBLK
  5
1C8
330
1C6
100
AcDbEntity
  8
0
100
AcDbBlockEnd
  0
BLOCK
  5
1D1
330
1D0
100
AcDbEntity
  8
0
100
AcDbBlockBegin
  2
_D_4
 70
     0
 10
0.0
 20
0.0
 30
0.0
  3
_D_4
  1

  0
SOLID
  5
1D3
330
1D0
100
AcDbEntity
  8
VERMASSUNG
100
AcDbTrace
 10
140.5186093466
 20
146.5939869994
 30
0.0
 11
140.0686093466
 21
143.5939869994
 31
0.0
 12
140.9686093466
 22
143.5939869994
 32
0.0
 13
140.9686093466
 23
143.5939869994
 33
0.0
  0
SOLID
  5
1D4
330
1D0
100
AcDbEntity
  8
VERMASSUNG
100
AcDbTrace
 10
140.5186093466
 20
96.5939869994
 30
0.0
 11
140.9686093466
 21
99.5939869994
 31
0.0
 12
140.0686093466
 22
99.5939869994
 32
0.0
 13
140.0686093466
 23
99.5939869994
 33
0.0
  0
LINE
  5
1D5
330
1D0
100
AcDbEntity
  8
VERMASSUNG
100
AcDbLine
 10
184.226771115
 20
146.5939869994
 30
0.0
 11
139.5186093466
 21
146.5939869994
 31
0.0
  0
LINE
  5
1D6
330
1D0
100
AcDbEntity
  8
VERMASSUNG
100
AcDbLine
 10
184.226771115
 20
96.5939869994
 30
0.0
 11
139.5186093466
 21
96.5939869994
 31
0.0
  0
LINE
  5
1D7
330
1D0
100
AcDbEntity
  8
VERMASSUNG
100
AcDbLine
 10
140.5186093466
 20
146.5939869994
 30
0.0
 11
140.5186093466
 21
96.5939869994
 31
0.0
  0
MTEXT
  5
1D8
330
1D0
100
AcDbEntity
  8
VERMASSUNG
100
AcDbMText
 10
137.7404738576
 20
115.1889868902
 30
0.35
 40
2.0
 41
0.0
 71
     1
 72
     1
  1
PSC
  7
SLDTEXTSTYLE0
 11
-7.044195017643634E-15
 21
1.0
 31
0.0
 73
     1
 44
1.0
  0
MTEXT
  5
1D9
330
1D0
100
AcDbEntity
  8
VERMASSUNG
100
AcDbMText
 10
137.9404738671
 20
119.7889869922
 30
0.35
 40
2.0
 41
0.0
 71
     1
 72
     1
  1
%%c
  7
SLDTEXTSTYLE0
 11
-7.044195017643634E-15
 21
1.0
 31
0.0
 73
     1
 44
1.0
  0
MTEXT
  5
1DA
330
1D0
100
AcDbEntity
  8
VERMASSUNG
100
AcDbMText
 10
137.7404738576
 20
123.3989874722
 30
0.35
 40
2.0
 41
0.0
 71
     1
 72
     1
  1
50
  7
SLDTEXTSTYLE0
 11
-7.044195017643634E-15
 21
1.0
 31
0.0
 73
     1
 44
1.0
  0
ENDBLK
  5
1D2
330
1D0
100
AcDbEntity
  8
0
100
AcDbBlockEnd
  0
BLOCK
  5
236
330
235
100
AcDbEntity
  8
0
100
AcDbBlockBegin
  2
_D_5
 70
     0
 10
0.0
 20
0.0
 30
0.0
  3
_D_5
  1

  0
SOLID
  5
238
330
235
100
AcDbEntity
  8
VERMASSUNG
100
AcDbTrace
 10
107.6096750254
 20
142.2334860543
 30
0.0
 11
110.0491934205
 21
144.0366083463
 31
0.0
 12
109.4127973175
 22
144.6730044494
 32
0.0
 13
109.4127973175
 23
144.6730044494
 33
0.0
  0
SOLID
  5
239
330
235
100
AcDbEntity
  8
VERMASSUNG
100
AcDbTrace
 10
61.6477342483
 20
96.2715452772
 30
0.0
 11
59.2082158532
 21
94.4684229851
 31
0.0
 12
59.8446119563
 22
93.8320268821
 32
0.0
 13
59.8446119563
 23
93.8320268821
 33
0.0
  0
LINE
  5
23A
330
235
100
AcDbEntity
  8
VERMASSUNG
100
AcDbLine
 10
107.6096750254
 20
142.2334860543
 30
0.0
 11
108.3167818066
 21
141.5263792731
 31
0.0
  0
LINE
  5
23B
330
235
100
AcDbEntity
  8
VERMASSUNG
100
AcDbLine
 10
61.6477342483
 20
96.2715452772
 30
0.0
 11
62.3548410295
 21
95.564438496
 31
0.0
  0
LINE
  5
23C
330
235
100
AcDbEntity
  8
VERMASSUNG
100
AcDbLine
 10
107.6096750254
 20
142.2334860543
 30
0.0
 11
111.8523157126
 21
146.4761267414
 31
0.0
  0
LINE
  5
23D
330
235
100
AcDbEntity
  8
VERMASSUNG
100
AcDbLine
 10
107.6096750254
 20
142.2334860543
 30
0.0
 11
61.6477342483
 21
96.2715452772
 31
0.0
  0
LINE
  5
23E
330
235
100
AcDbEntity
  8
VERMASSUNG
100
AcDbLine
 10
61.6477342483
 20
96.2715452772
 30
0.0
 11
49.8839425224
 21
84.5077535513
 31
0.0
  0
MTEXT
  5
23F
330
235
100
AcDbEntity
  8
VERMASSUNG
100
AcDbMText
 10
48.060925442
 20
86.3307706317
 30
0.1
 40
2.0
 41
0.0
 71
     1
 72
     1
  1
%%c
  7
SLDTEXTSTYLE0
 11
0.7071067811865466
 21
0.7071067811865485
 31
0.0
 73
     1
 44
1.0
  0
MTEXT
  5
240
330
235
100
AcDbEntity
  8
VERMASSUNG
100
AcDbMText
 10
50.4721595692
 20
89.0248474848
 30
0.1
 40
2.0
 41
0.0
 71
     1
 72
     1
  1
65
  7
SLDTEXTSTYLE0
 11
0.7071067811865466
 21
0.7071067811865485
 31
0.0
 73
     1
 44
1.0
  0
MTEXT
  5
241
330
235
100
AcDbEntity
  8
VERMASSUNG
100
AcDbMText
 10
54.5645404668
 20
93.1172283824
 30
0.1
 40
2.0
 41
0.0
 71
     1
 72
     1
  1
min.
  7
SLDTEXTSTYLE0
 11
0.7071067811865466
 21
0.7071067811865485
 31
0.0
 73
     1
 44
1.0
  0
ENDBLK
  5
237
330
235
100
AcDbEntity
  8
0
100
AcDbBlockEnd
  0
BLOCK
  5
243
330
242
100
AcDbEntity
  8
0
100
AcDbBlockBegin
  2
SW_CENTERMARKSYMBOL_0
 70
     0
 10
0.0
 20
0.0
 30
0.0
  3
SW_CENTERMARKSYMBOL_0
  1

  0
LINE
  5
245
330
242
100
AcDbEntity
  8
VERMASSUNG
 62
     0
100
AcDbLine
 10
0.0
 20
0.0
 30
0.0
 11
0.0
 21
2.5
 31
0.0
  0
LINE
  5
246
330
242
100
AcDbEntity
  8
VERMASSUNG
 62
     0
100
AcDbLine
 10
0.0
 20
0.0
 30
0.0
 11
-2.5
 21
0.0
 31
0.0
  0
LINE
  5
247
330
242
100
AcDbEntity
  8
VERMASSUNG
 62
     0
100
AcDbLine
 10
0.0
 20
0.0
 30
0.0
 11
0.0
 21
-2.5
 31
0.0
  0
LINE
  5
248
330
242
100
AcDbEntity
  8
VERMASSUNG
 62
     0
100
AcDbLine
 10
0.0
 20
0.0
 30
0.0
 11
2.5
 21
0.0
 31
0.0
  0
LINE
  5
249
330
242
100
AcDbEntity
  8
VERMASSUNG
 62
     0
100
AcDbLine
 10
0.0
 20
5.0
 30
0.0
 11
0.0
 21
27.5
 31
0.0
  0
LINE
  5
24A
330
242
100
AcDbEntity
  8
VERMASSUNG
 62
     0
100
AcDbLine
 10
-5.0
 20
0.0
 30
0.0
 11
-27.5
 21
0.0
 31
0.0
  0
LINE
  5
24B
330
242
100
AcDbEntity
  8
VERMASSUNG
 62
     0
100
AcDbLine
 10
0.0
 20
-5.0
 30
0.0
 11
0.0
 21
-38.4351129612
 31
0.0
  0
LINE
  5
24C
330
242
100
AcDbEntity
  8
VERMASSUNG
 62
     0
100
AcDbLine
 10
5.0
 20
0.0
 30
0.0
 11
27.5
 21
0.0
 31
0.0
  0
ENDBLK
  5
244
330
242
100
AcDbEntity
  8
0
100
AcDbBlockEnd
  0
ENDSEC
  0
SECTION
  2
ENTITIES
  0
MTEXT
  5
49
330
1F
100
AcDbEntity
  8
KOPF_DÜNN
100
AcDbMText
 10
13.8892156294
 20
23.8442973028
 30
0.0
 40
3.0
 41
0.0
 71
     1
 72
     1
  1
PS5.PDF.LHA.060
  7
SLDTEXTSTYLE0
 73
     1
 44
1.0
  0
MTEXT
  5
4A
330
1F
100
AcDbEntity
  8
VERMASSUNG
100
AcDbMText
 10
13.9329988022
 20
28.8834360957
 30
0.0
 40
3.0
 41
0.0
 71
     1
 72
     1
  1
Klemmhalter links_Turning tool left 107.5° /55°
  7
SLDTEXTSTYLE0
 73
     1
 44
1.0
  0
MTEXT
  5
4B
330
1F
100
AcDbEntity
  8
VERMASSUNG
100
AcDbMText
 10
98.8601118557
 20
13.8365368179
 30
0.0
 40
2.0
 41
0.0
 71
     1
 72
     1
  1
Datum: 23.05.2012
  7
SLDTEXTSTYLE0
 73
     1
 44
1.0
  0
MTEXT
  5
4C
330
1F
100
AcDbEntity
  8
VERMASSUNG
100
AcDbMText
 10
13.933048693
 20
18.0482802738
 30
0.0
 40
2.0
 41
0.0
 71
     1
 72
     1
  1
PSC ø50 / DN..15 06..
  7
SLDTEXTSTYLE0
 73
     1
 44
1.0
  0
MTEXT
  5
4D
330
1F
100
AcDbEntity
  8
VERMASSUNG
100
AcDbMText
 10
13.9808475933
 20
13.9090973692
 30
0.0
 40
2.0
 41
0.0
 71
     1
 72
     1
  1
Gewicht: 748g
  7
SLDTEXTSTYLE0
 73
     1
 44
1.0
  0
LINE
  5
4E
330
1F
100
AcDbEntity
  8
0
  6
Continuous
 62
     7
370
    15
100
AcDbLine
 10
216.1594430911
 20
146.5939873719
 30
0.0
 11
184.2267711292
 21
146.5939873719
 31
0.0
  0
LINE
  5
4F
330
1F
100
AcDbEntity
  8
0
  6
Continuous
 62
     7
370
    15
100
AcDbLine
 10
184.2267711292
 20
96.5939866269
 30
0.0
 11
216.1594430911
 21
96.5939866269
 31
0.0
  0
ARC
  5
50
330
1F
100
AcDbEntity
  8
0
  6
Continuous
 62
     7
370
    15
100
AcDbCircle
 10
184.226771115
 20
96.8939869994
 30
0.0
 40
0.3000000000000114
100
AcDbArc
 50
180.0
 51
270.0
  0
ARC
  5
51
330
1F
100
AcDbEntity
  8
0
  6
Continuous
 62
     7
370
    15
100
AcDbCircle
 10
184.226771115
 20
146.2939869994
 30
0.0
 40
0.3000000000000114
100
AcDbArc
 50
90.0
 51
180.0
  0
LWPOLYLINE
  5
52
330
1F
100
AcDbEntity
  8
0
  6
Continuous
 62
     7
370
    15
100
AcDbPolyline
 90
        3
 70
   128
 43
0.0
 10
183.7267711201
 20
103.7541659439
 10
183.8522260552
 20
103.6858646089
 10
183.926771115
 20
103.6331275368
  0
LWPOLYLINE
  5
53
330
1F
100
AcDbEntity
  8
0
  6
Continuous
 62
     7
370
    15
100
AcDbPolyline
 90
        3
 70
   128
 43
0.0
 10
183.926771115
 20
139.554846462
 10
183.8522260552
 20
139.5021093899
 10
183.7267711201
 20
139.4338080549
  0
ARC
  5
54
330
1F
100
AcDbEntity
  8
0
  6
Continuous
 62
     7
370
    15
100
AcDbCircle
 10
216.159444127
 20
147.5939869994
 30
0.0
 40
1.000000000000028
100
AcDbArc
 50
270.0
 51
330.0
  0
ARC
  5
55
330
1F
100
AcDbEntity
  8
0
  6
Continuous
 62
     7
370
    15
100
AcDbCircle
 10
216.159444127
 20
95.5939869994
 30
0.0
 40
1.0
100
AcDbArc
 50
15.0
 51
90.0
  0
LINE
  5
56
330
1F
100
AcDbEntity
  8
0
  6
Continuous
 62
     7
370
    15
100
AcDbLine
 10
223.9453258919
 20
147.0939865226
 30
0.0
 11
217.0254687774
 21
147.0939865226
 31
0.0
  0
LINE
  5
57
330
1F
100
AcDbEntity
  8
0
  6
Continuous
 62
     7
370
    15
100
AcDbLine
 10
217.1253698873
 20
95.8528065944
 30
0.0
 11
217.295641731
 21
95.2173484379
 31
0.0
  0
LINE
  5
58
330
1F
100
AcDbEntity
  8
0
  6
Continuous
 62
     7
370
    15
100
AcDbLine
 10
231.9447907614
 20
95.6695614272
 30
0.0
 11
232.2707685637
 21
95.187905606
 31
0.0
  0
LINE
  5
59
330
1F
100
AcDbEntity
  8
0
  6
Continuous
 62
     7
370
    15
100
AcDbLine
 10
239.5878831851
 20
100.7781879866
 30
0.0
 11
238.9241258609
 21
101.8748128676
 31
0.0
  0
LINE
  5
5A
330
1F
100
AcDbEntity
  8
0
  6
Continuous
 62
     7
370
    15
100
AcDbLine
 10
229.166972171
 20
91.3207003736
 30
0.0
 11
229.4279399323
 21
90.8895389998
 31
0.0
  0
ARC
  5
5B
330
1F
100
AcDbEntity
  8
0
  6
Continuous
 62
     7
370
    15
100
AcDbCircle
 10
201.926771115
 20
110.2654950711
 30
0.0
 40
2.500000000000034
100
AcDbArc
 50
203.7564891757
 51
336.2435108244
  0
SPLINE
  5
5C
330
1F
100
AcDbEntity
  8
0
  6
Continuous
 62
     7
370
    15
100
AcDbSpline
210
0.0
220
0.0
230
1.0
 70
     8
 71
     3
 72
    70
 73
    66
 74
     0
 42
0.00000001
 43
0.00000001
 12
1.0
 22
0.0
 32
0.0
 13
1.0
 23
0.0
 33
0.0
 40
-0.0312499999999999
 40
-0.0312499999999999
 40
0.0
 40
0.0
 40
0.0312500000000002
 40
0.0312500000000002
 40
0.0625000000000004
 40
0.0625000000000004
 40
0.0937500000000006
 40
0.0937500000000006
 40
0.1250000000000008
 40
0.1250000000000008
 40
0.1562500000000011
 40
0.1562500000000011
 40
0.1875000000000012
 40
0.1875000000000012
 40
0.2187500000000014
 40
0.2187500000000014
 40
0.2500000000000017
 40
0.2500000000000017
 40
0.2812500000000019
 40
0.2812500000000019
 40
0.3125000000000021
 40
0.3125000000000021
 40
0.3437500000000023
 40
0.3437500000000023
 40
0.3750000000000025
 40
0.3750000000000025
 40
0.4062500000000023
 40
0.4062500000000023
 40
0.4375000000000021
 40
0.4375000000000021
 40
0.4687500000000019
 40
0.4687500000000019
 40
0.5000000000000018
 40
0.5000000000000018
 40
0.5312500000000017
 40
0.5312500000000017
 40
0.5625000000000016
 40
0.5625000000000016
 40
0.5937500000000014
 40
0.5937500000000014
 40
0.6250000000000012
 40
0.6250000000000012
 40
0.6562500000000011
 40
0.6562500000000011
 40
0.687500000000001
 40
0.687500000000001
 40
0.7187500000000009
 40
0.7187500000000009
 40
0.7500000000000008
 40
0.7500000000000008
 40
0.7812500000000007
 40
0.7812500000000007
 40
0.8125000000000006
 40
0.8125000000000006
 40
0.8437500000000004
 40
0.8437500000000004
 40
0.8750000000000002
 40
0.8750000000000002
 40
0.9062500000000001
 40
0.9062500000000001
 40
0.9375000000000001
 40
0.9375000000000001
 40
0.9687500000000001
 40
0.9687500000000001
 40
1.0
 40
1.0
 40
1.03125
 40
1.03125
 10
202.1251570289379
 20
105.5603899367455
 30
0.0
 10
201.7283852010589
 20
105.5603899367455
 30
0.0
 10
201.5333505119177
 20
105.5754362502213
 30
0.0
 10
201.1496983322324
 20
105.6345093224719
 30
0.0
 10
200.959079203361
 20
105.6792654937679
 30
0.0
 10
200.5958648417797
 20
105.7964523140169
 30
0.0
 10
200.4236252002686
 20
105.8683231787559
 30
0.0
 10
200.0976551387914
 20
106.0390076808527
 30
0.0
 10
199.943455916889
 20
106.13866474554
 30
0.0
 10
199.6670026726468
 20
106.3577427401697
 30
0.0
 10
199.5428841180177
 20
106.477932489901
 30
0.0
 10
199.3235667150124
 20
106.7409618471684
 30
0.0
 10
199.2304774894309
 20
106.8817292534931
 30
0.0
 10
199.0808005421499
 20
107.175361412976
 30
0.0
 10
199.0231133817007
 20
107.3304028238075
 30
0.0
 10
198.9459794907042
 20
107.6502952831346
 30
0.0
 10
198.9268799410149
 20
107.8123789612827
 30
0.0
 10
198.9266632075275
 20
108.1408589419796
 30
0.0
 10
198.9461760221533
 20
108.3090013696112
 30
0.0
 10
199.0227770652325
 20
108.6367078182749
 30
0.0
 10
199.0794522302454
 20
108.7972135356051
 30
0.0
 10
199.2298014431898
 20
109.1110995018688
 30
0.0
 10
199.323657347231
 20
109.2637288556058
 30
0.0
 10
199.5406874145724
 20
109.5480244050515
 30
0.0
 10
199.6647052614999
 20
109.6815434523747
 30
0.0
 10
199.9445204838221
 20
109.9293850592311
 30
0.0
 10
200.0958488399797
 20
110.039774017613
 30
0.0
 10
200.4205145097159
 20
110.2338687050598
 30
0.0
 10
200.5959361279824
 20
110.3182604822918
 30
0.0
 10
200.9591175156215
 20
110.4537286986822
 30
0.0
 10
201.1461052337006
 20
110.5050188652627
 30
0.0
 10
201.5308294354847
 20
110.5745104718009
 30
0.0
 10
201.7297853020034
 20
110.5923469390549
 30
0.0
 10
202.1215143515861
 20
110.5924793707079
 30
0.0
 10
202.31630301676
 20
110.5753507007982
 30
0.0
 10
202.7036775944639
 20
110.5060072359246
 30
0.0
 10
202.8930012823063
 20
110.4540924259503
 30
0.0
 10
203.2541416812985
 20
110.3197176966959
 30
0.0
 10
203.4287285654233
 20
110.236213897602
 30
0.0
 10
203.7566377446102
 20
110.0406264369254
 30
0.0
 10
203.9076494169315
 20
109.9302747303696
 30
0.0
 10
204.184468481564
 20
109.6857319196263
 30
0.0
 10
204.3112149608042
 20
109.5499529953635
 30
0.0
 10
204.5290959108938
 20
109.2649794383505
 30
0.0
 10
204.6213939353482
 20
109.1152213606417
 30
0.0
 10
204.7723657556997
 20
108.8015702191412
 30
0.0
 10
204.8302850297942
 20
108.6380997080495
 30
0.0
 10
204.9069276043097
 20
108.3115320235828
 30
0.0
 10
204.9265882557607
 20
108.1466971331808
 30
0.0
 10
204.9269514600828
 20
107.8139318510527
 30
0.0
 10
204.9076431624657
 20
107.6515906723302
 30
0.0
 10
204.8316758213985
 20
107.3346290742989
 30
0.0
 10
204.7740794272571
 20
107.178368410111
 30
0.0
 10
204.6237633617452
 20
106.8827222766554
 30
0.0
 10
204.5317564596384
 20
106.7435808079278
 30
0.0
 10
204.3143257930126
 20
106.481860056075
 30
0.0
 10
204.1878725681755
 20
106.35895211217
 30
0.0
 10
203.9116156233644
 20
106.1397252237051
 30
0.0
 10
203.7608120610515
 20
106.0418994558457
 30
0.0
 10
203.4331049911078
 20
105.8696871471033
 30
0.0
 10
203.2588826086529
 20
105.7969880625675
 30
0.0
 10
202.8981158317292
 20
105.6802990942296
 30
0.0
 10
202.7091414537861
 20
105.6354968501316
 30
0.0
 10
202.32129783168
 20
105.5754375449706
 30
0.0
 10
202.1251570289379
 20
105.5603899367455
 30
0.0
 10
201.7283852010589
 20
105.5603899367455
 30
0.0
  0
SPLINE
  5
5D
330
1F
100
AcDbEntity
  8
0
  6
Continuous
 62
     7
370
    15
100
AcDbSpline
210
0.0
220
0.0
230
1.0
 70
     8
 71
     3
 72
    12
 73
     8
 74
     0
 42
0.00000001
 43
0.00000001
 12
1.0
 22
0.0
 32
0.0
 13
1.0
 23
0.0
 33
0.0
 40
0.0
 40
0.0
 40
0.0
 40
0.0
 40
0.5000000000000032
 40
0.5000000000000032
 40
0.7500000000000016
 40
0.7500000000000016
 40
1.0
 40
1.0
 40
1.0
 40
1.0
 10
192.0215152266723
 20
129.6904399974335
 30
0.0
 10
192.0522146100396
 20
129.5761043303696
 30
0.0
 10
192.0935646781461
 20
129.4647509775282
 30
0.0
 10
192.1933206063655
 20
129.3120142052795
 30
0.0
 10
192.2330175240982
 20
129.2641543194274
 30
0.0
 10
192.3302756757458
 20
129.1895512060779
 30
0.0
 10
192.3910518337366
 20
129.1627969685698
 30
0.0
 10
192.4545279285645
 20
129.1627969685698
 30
0.0
  0
LINE
  5
5E
330
1F
100
AcDbEntity
  8
0
  6
Continuous
 62
     7
370
    15
100
AcDbLine
 10
192.4545277836
 20
129.1627971345
 30
0.0
 11
195.3990139993
 21
129.1627971345
 31
0.0
  0
SPLINE
  5
5F
330
1F
100
AcDbEntity
  8
0
  6
Continuous
 62
     7
370
    15
100
AcDbSpline
210
0.0
220
0.0
230
1.0
 70
     8
 71
     3
 72
    12
 73
     8
 74
     0
 42
0.00000001
 43
0.00000001
 12
1.0
 22
0.0
 32
0.0
 13
1.0
 23
0.0
 33
0.0
 40
0.0
 40
0.0
 40
0.0
 40
0.0
 40
0.2500000000000004
 40
0.2500000000000004
 40
0.5000000000000009
 40
0.5000000000000009
 40
1.0
 40
1.0
 40
1.0
 40
1.0
 10
195.3990143014316
 20
129.1627969685698
 30
0.0
 10
195.4626795379621
 20
129.1627969685698
 30
0.0
 10
195.5222857701855
 20
129.1888691170495
 30
0.0
 10
195.6209462951163
 20
129.2644078678706
 30
0.0
 10
195.6599132851316
 20
129.3116588049669
 30
0.0
 10
195.7593001170561
 20
129.4634826229333
 30
0.0
 10
195.8013763644795
 20
129.5762858726984
 30
0.0
 10
195.8320270033238
 20
129.6904399974335
 30
0.0
  0
ELLIPSE
  5
60
330
1F
100
AcDbEntity
  8
0
  6
Continuous
 62
     7
370
    15
100
AcDbEllipse
 10
182.87051346
 20
121.5939869994
 30
0.0
 11
11.70927234972708
 21
24.67718644093742
 31
0.0
210
0.0
220
0.0
230
1.0
 40
0.3419987131
 41
5.203068809370452
 42
6.114256032590495
  0
SPLINE
  5
61
330
1F
100
AcDbEntity
  8
0
  6
Continuous
 62
     7
370
    15
100
AcDbSpline
210
0.0
220
0.0
230
1.0
 70
     8
 71
     3
 72
    12
 73
     8
 74
     0
 42
0.00000001
 43
0.00000001
 12
1.0
 22
0.0
 32
0.0
 13
1.0
 23
0.0
 33
0.0
 40
0.0
 40
0.0
 40
0.0
 40
0.0
 40
0.5000000000000032
 40
0.5000000000000032
 40
0.7500000000000016
 40
0.7500000000000016
 40
1.0
 40
1.0
 40
1.0
 40
1.0
 10
195.8320270033238
 20
145.2466284766209
 30
0.0
 10
195.8013276199566
 20
145.2857663190169
 30
0.0
 10
195.75997755185
 20
145.3229261017424
 30
0.0
 10
195.6602216236305
 20
145.3728626073701
 30
0.0
 10
195.6205247058979
 20
145.3883154775139
 30
0.0
 10
195.5232665542502
 20
145.4122350211129
 30
0.0
 10
195.4624903962595
 20
145.4207181148913
 30
0.0
 10
195.3990143014316
 20
145.4207181148913
 30
0.0
  0
LINE
  5
62
330
1F
100
AcDbEntity
  8
0
  6
Continuous
 62
     7
370
    15
100
AcDbLine
 10
195.3990139993
 20
145.4207183683
 30
0.0
 11
192.4545277836
 21
145.4207183683
 31
0.0
  0
SPLINE
  5
63
330
1F
100
AcDbEntity
  8
0
  6
Continuous
 62
     7
370
    15
100
AcDbSpline
210
0.0
220
0.0
230
1.0
 70
     8
 71
     3
 72
    12
 73
     8
 74
     0
 42
0.00000001
 43
0.00000001
 12
1.0
 22
0.0
 32
0.0
 13
1.0
 23
0.0
 33
0.0
 40
0.0
 40
0.0
 40
0.0
 40
0.0
 40
0.2500000000000016
 40
0.2500000000000016
 40
0.5000000000000032
 40
0.5000000000000032
 40
1.0
 40
1.0
 40
1.0
 40
1.0
 10
192.4545279285645
 20
145.4207181148913
 30
0.0
 10
192.390862692034
 20
145.4207181148913
 30
0.0
 10
192.3312564598106
 20
145.4124533392254
 30
0.0
 10
192.2325959348798
 20
145.3882345576423
 30
0.0
 10
192.1936289448645
 20
145.3729772383331
 30
0.0
 10
192.0942421129401
 20
145.3233438840712
 30
0.0
 10
192.0521658655166
 20
145.2857041758971
 30
0.0
 10
192.0215152266723
 20
145.2466284766209
 30
0.0
  0
ELLIPSE
  5
64
330
1F
100
AcDbEntity
  8
0
  6
Continuous
 62
     7
370
    15
100
AcDbEllipse
 10
204.98302877
 20
121.5939869994
 30
0.0
 11
-11.70927234972694
 21
24.67718644093745
 31
0.0
210
0.0
220
0.0
230
1.0
 40
0.3419987131
 41
0.1689292745891377
 42
1.080116497809151
  0
SPLINE
  5
65
330
1F
100
AcDbEntity
  8
0
  6
Continuous
 62
     7
370
    15
100
AcDbSpline
210
0.0
220
0.0
230
1.0
 70
     8
 71
     3
 72
    12
 73
     8
 74
     0
 42
0.00000001
 43
0.00000001
 12
1.0
 22
0.0
 32
0.0
 13
1.0
 23
0.0
 33
0.0
 40
0.0
 40
0.0
 40
0.0
 40
0.0
 40
0.4999999999999982
 40
0.4999999999999982
 40
0.7499999999999991
 40
0.7499999999999991
 40
1.0
 40
1.0
 40
1.0
 40
1.0
 10
192.0215152266723
 20
97.94134552215775
 30
0.0
 10
192.0523669372365
 20
97.90201348179525
 30
0.0
 10
192.0942598006971
 20
97.86460171626699
 30
0.0
 10
192.1937806784903
 20
97.81493079165108
 30
0.0
 10
192.2333948432146
 20
97.79954170904325
 30
0.0
 10
192.3304978769941
 20
97.775708493376
 30
0.0
 10
192.3909965496445
 20
97.76725588388722
 30
0.0
 10
192.4545279285644
 20
97.7672558838872
 30
0.0
  0
LINE
  5
66
330
1F
100
AcDbEntity
  8
0
  6
Continuous
 62
     7
370
    15
100
AcDbLine
 10
192.4545277836
 20
97.7672556305
 30
0.0
 11
195.3990139993
 21
97.7672556305
 31
0.0
  0
SPLINE
  5
67
330
1F
100
AcDbEntity
  8
0
  6
Continuous
 62
     7
370
    15
100
AcDbSpline
210
0.0
220
0.0
230
1.0
 70
     8
 71
     3
 72
    12
 73
     8
 74
     0
 42
0.00000001
 43
0.00000001
 12
1.0
 22
0.0
 32
0.0
 13
1.0
 23
0.0
 33
0.0
 40
0.0
 40
0.0
 40
0.0
 40
0.0
 40
0.2500000000000026
 40
0.2500000000000026
 40
0.5000000000000051
 40
0.5000000000000051
 40
1.0
 40
1.0
 40
1.0
 40
1.0
 10
195.3990143014316
 20
97.7672558838874
 30
0.0
 10
195.4626508556453
 20
97.7672558838874
 30
0.0
 10
195.5222309825115
 20
97.77551265481917
 30
0.0
 10
195.6208677238779
 20
97.79971471682698
 30
0.0
 10
195.6598263482582
 20
97.81496153586112
 30
0.0
 10
195.7592052877661
 20
97.86456640792125
 30
0.0
 10
195.8011631929316
 20
97.90199805604006
 30
0.0
 10
195.832027003324
 20
97.94134552215772
 30
0.0
  0
ELLIPSE
  5
68
330
1F
100
AcDbEntity
  8
0
  6
Continuous
 62
     7
370
    15
100
AcDbEllipse
 10
182.87051346
 20
121.5939869994
 30
0.0
 11
-11.7092723497272
 21
24.67718644093742
 31
0.0
210
0.0
220
0.0
230
1.0
 40
0.3419987131
 41
3.310521928178954
 42
4.221709151398943
  0
SPLINE
  5
69
330
1F
100
AcDbEntity
  8
0
  6
Continuous
 62
     7
370
    15
100
AcDbSpline
210
0.0
220
0.0
230
1.0
 70
     8
 71
     3
 72
    12
 73
     8
 74
     0
 42
0.00000001
 43
0.00000001
 12
1.0
 22
0.0
 32
0.0
 13
1.0
 23
0.0
 33
0.0
 40
0.0
 40
0.0
 40
0.0
 40
0.0
 40
0.4999999999999982
 40
0.4999999999999982
 40
0.7499999999999991
 40
0.7499999999999991
 40
1.0
 40
1.0
 40
1.0
 40
1.0
 10
195.8320270033238
 20
113.497534001345
 30
0.0
 10
195.8011752927596
 20
113.6124369902818
 30
0.0
 10
195.759282429299
 20
113.7245758863307
 30
0.0
 10
195.6597615515058
 20
113.8765181679316
 30
0.0
 10
195.6201473867815
 20
113.9241827774565
 30
0.0
 10
195.523044353002
 20
113.9985191080719
 30
0.0
 10
195.4625456803516
 20
114.025177030209
 30
0.0
 10
195.3990143014317
 20
114.025177030209
 30
0.0
  0
LINE
  5
6A
330
1F
100
AcDbEntity
  8
0
  6
Continuous
 62
     7
370
    15
100
AcDbLine
 10
195.3990139993
 20
114.0251768643
 30
0.0
 11
192.4545277836
 21
114.0251768643
 31
0.0
  0
SPLINE
  5
6B
330
1F
100
AcDbEntity
  8
0
  6
Continuous
 62
     7
370
    15
100
AcDbSpline
210
0.0
220
0.0
230
1.0
 70
     8
 71
     3
 72
    12
 73
     8
 74
     0
 42
0.00000001
 43
0.00000001
 12
1.0
 22
0.0
 32
0.0
 13
1.0
 23
0.0
 33
0.0
 40
0.0
 40
0.0
 40
0.0
 40
0.0
 40
0.2500000000000016
 40
0.2500000000000016
 40
0.5000000000000032
 40
0.5000000000000032
 40
1.0
 40
1.0
 40
1.0
 40
1.0
 10
192.4545279285645
 20
114.0251770302086
 30
0.0
 10
192.3908913743508
 20
114.0251770302086
 30
0.0
 10
192.3313112474846
 20
113.9991301271507
 30
0.0
 10
192.2326745061182
 20
113.9236429682508
 30
0.0
 10
192.1937158817379
 20
113.8764239297201
 30
0.0
 10
192.09433694223
 20
113.7246842786265
 30
0.0
 10
192.0523790370646
 20
113.6124820544423
 30
0.0
 10
192.0215152266721
 20
113.4975340013451
 30
0.0
  0
ELLIPSE
  5
6C
330
1F
100
AcDbEntity
  8
0
  6
Continuous
 62
     7
370
    15
100
AcDbEllipse
 10
204.98302877
 20
121.5939869994
 30
0.0
 11
11.70927234972709
 21
24.67718644093745
 31
0.0
210
0.0
220
0.0
230
1.0
 40
0.3419987131
 41
2.061476155780654
 42
2.972663379000671
  0
ELLIPSE
  5
6D
330
1F
100
AcDbEntity
  8
0
  6
Continuous
 62
     7
370
    15
100
AcDbEllipse
 10
298.8820611647
 20
121.5939869994
 30
0.0
 11
237.8586779710878
 21
4.388194929981964
 31
0.0
210
0.0
220
0.0
230
1.0
 40
0.1034726254
 41
1.924089530934151
 42
1.938396896517831
  0
SPLINE
  5
6E
330
1F
100
AcDbEntity
  8
0
  6
Continuous
 62
     7
370
    15
100
AcDbSpline
210
0.0
220
0.0
230
1.0
 70
     8
 71
     3
 72
    18
 73
    14
 74
     0
 42
0.00000001
 43
0.00000001
 12
1.0
 22
0.0
 32
0.0
 13
1.0
 23
0.0
 33
0.0
 40
0.0
 40
0.0
 40
0.0
 40
0.0
 40
0.2500000000000006
 40
0.2500000000000006
 40
0.3750000000000009
 40
0.3750000000000009
 40
0.5000000000000012
 40
0.5000000000000012
 40
0.6250000000000016
 40
0.6250000000000016
 40
0.7500000000000018
 40
0.7500000000000018
 40
1.0
 40
1.0
 40
1.0
 40
1.0
 10
210.3931269107308
 20
141.6363135705379
 30
0.0
 10
210.4668657121586
 20
141.8204548363559
 30
0.0
 10
210.5786548719664
 20
141.9904477242081
 30
0.0
 10
210.8077645539693
 20
142.2252729937483
 30
0.0
 10
210.8949755144785
 20
142.3002760951221
 30
0.0
 10
211.0853763899716
 20
142.4385997856948
 30
0.0
 10
211.1891307886626
 20
142.5026125194011
 30
0.0
 10
211.4143123366912
 20
142.6206133790349
 30
0.0
 10
211.5368543718995
 20
142.6750051431882
 30
0.0
 10
211.7959135291445
 20
142.7714106335528
 30
0.0
 10
211.9311249928273
 20
142.8131061293552
 30
0.0
 10
212.3536791802254
 20
142.9196263939819
 30
0.0
 10
212.6617562189435
 20
142.9661601931062
 30
0.0
 10
212.977318999795
 20
142.984569966597
 30
0.0
  0
ELLIPSE
  5
6F
330
1F
100
AcDbEntity
  8
0
  6
Continuous
 62
     7
370
    15
100
AcDbEllipse
 10
213.4038203233
 20
121.5939869994
 30
0.0
 11
1.24995616101566
 21
24.99783415330236
 31
0.0
210
0.0
220
0.0
230
1.0
 40
0.263265937
 41
0.653837220602551
 42
2.863147714034945
  0
SPLINE
  5
70
330
1F
100
AcDbEntity
  8
0
  6
Continuous
 62
     7
370
    15
100
AcDbSpline
210
0.0
220
0.0
230
1.0
 70
     8
 71
     3
 72
    14
 73
    10
 74
     0
 42
0.00000001
 43
0.00000001
 12
1.0
 22
0.0
 32
0.0
 13
1.0
 23
0.0
 33
0.0
 40
0.0
 40
0.0
 40
0.0
 40
0.0
 40
0.25
 40
0.25
 40
0.5
 40
0.5
 40
0.75
 40
0.75
 40
1.0
 40
1.0
 40
1.0
 40
1.0
 10
212.977318999795
 20
97.06768182989512
 30
0.0
 10
212.6622362448155
 20
97.07456234805116
 30
0.0
 10
212.3620518749167
 20
97.09127337798104
 30
0.0
 10
211.7906001958346
 20
97.14681617505947
 30
0.0
 10
211.5334680329784
 20
97.18442494638944
 30
0.0
 10
211.0772547869786
 20
97.28276179592956
 30
0.0
 10
210.8868188430961
 20
97.34178427521263
 30
0.0
 10
210.5799524296948
 20
97.4815119324899
 30
0.0
 10
210.4667998197621
 20
97.56093024572816
 30
0.0
 10
210.3931269107308
 20
97.64941747043615
 30
0.0
  0
ELLIPSE
  5
71
330
1F
100
AcDbEntity
  8
0
  6
Continuous
 62
     7
370
    15
100
AcDbEllipse
 10
298.8820611647
 20
121.5939869994
 30
0.0
 11
237.8586779710878
 21
4.388194929981964
 31
0.0
210
0.0
220
0.0
230
1.0
 40
0.1034726254
 41
4.340970534413075
 42
4.355277899996753
  0
LINE
  5
72
330
1F
100
AcDbEntity
  8
0
  6
Continuous
 62
     7
370
    15
100
AcDbLine
 10
183.926771115
 20
96.8939861172
 30
0.0
 11
183.926771115
 21
146.2939878815
 31
0.0
  0
ELLIPSE
  5
73
330
1F
100
AcDbEntity
  8
0
  6
Continuous
 62
     7
370
    15
100
AcDbEllipse
 10
209.5934910218
 20
107.8064936665
 30
0.0
 11
-0.05583088282006088
 21
2.992158382973883
 31
0.0
210
0.0
220
0.0
230
1.0
 40
0.2323720873
 41
0.0
 42
6.283185307179586
  0
SPLINE
  5
74
330
1F
100
AcDbEntity
  8
0
  6
Continuous
 62
     7
370
    15
100
AcDbSpline
210
0.0
220
0.0
230
1.0
 70
     8
 71
     3
 72
    16
 73
    12
 74
     0
 42
0.00000001
 43
0.00000001
 12
1.0
 22
0.0
 32
0.0
 13
1.0
 23
0.0
 33
0.0
 40
0.0
 40
0.0
 40
0.0
 40
0.0
 40
0.2500000000000001
 40
0.2500000000000001
 40
0.5000000000000001
 40
0.5000000000000001
 40
0.625
 40
0.625
 40
0.7499999999999999
 40
0.7499999999999999
 40
1.0
 40
1.0
 40
1.0
 40
1.0
 10
182.885910086869
 20
104.2448297181968
 30
0.0
 10
182.9176380480617
 20
104.2440326013759
 30
0.0
 10
182.9522656384122
 20
104.2434415265206
 30
0.0
 10
183.0319594004759
 20
104.2424300010862
 30
0.0
 10
183.0770008604796
 20
104.2420298929113
 30
0.0
 10
183.15985358733
 20
104.2410720210075
 30
0.0
 10
183.1897680485299
 20
104.240690339747
 30
0.0
 10
183.2557543790878
 20
104.2396141256885
 30
0.0
 10
183.2924880045496
 20
104.2388965597943
 30
0.0
 10
183.4049847241194
 20
104.2361356821127
 30
0.0
 10
183.4753260722177
 20
104.2336485902411
 30
0.0
 10
183.5317942261228
 20
104.231475311834
 30
0.0
  0
SPLINE
  5
75
330
1F
100
AcDbEntity
  8
0
  6
Continuous
 62
     7
370
    15
100
AcDbSpline
210
0.0
220
0.0
230
1.0
 70
     8
 71
     3
 72
    14
 73
    10
 74
     0
 42
0.00000001
 43
0.00000001
 12
1.0
 22
0.0
 32
0.0
 13
1.0
 23
0.0
 33
0.0
 40
0.0
 40
0.0
 40
0.0
 40
0.0
 40
0.1249999999999976
 40
0.1249999999999976
 40
0.2499999999999952
 40
0.2499999999999952
 40
0.4999999999999978
 40
0.4999999999999978
 40
1.0
 40
1.0
 40
1.0
 40
1.0
 10
183.5317942260912
 20
104.2314753118567
 30
0.0
 10
183.544386020036
 20
104.2309906940343
 30
0.0
 10
183.55925712833
 20
104.229280516102
 30
0.0
 10
183.5914412197632
 20
104.2211649673511
 30
0.0
 10
183.6070453512391
 20
104.2149491790898
 30
0.0
 10
183.6429324909511
 20
104.1967300673882
 30
0.0
 10
183.6567845322198
 20
104.1849650390546
 30
0.0
 10
183.6902742741524
 20
104.1531699026373
 30
0.0
 10
183.7009365347282
 20
104.1353764707942
 30
0.0
 10
183.7090744916231
 20
104.1189453399498
 30
0.0
  0
LINE
  5
76
330
1F
100
AcDbEntity
  8
0
  6
Continuous
 62
     7
370
    15
100
AcDbLine
 10
183.7267711201
 20
115.6095069723
 30
0.0
 11
183.7267711201
 21
103.7541659439
 31
0.0
  0
SPLINE
  5
77
330
1F
100
AcDbEntity
  8
0
  6
Continuous
 62
     7
370
    15
100
AcDbSpline
210
0.0
220
0.0
230
1.0
 70
     8
 71
     3
 72
    16
 73
    12
 74
     0
 42
0.00000001
 43
0.00000001
 12
1.0
 22
0.0
 32
0.0
 13
1.0
 23
0.0
 33
0.0
 40
0.0
 40
0.0
 40
0.0
 40
0.0
 40
0.4999999999999972
 40
0.4999999999999972
 40
0.7499999999999958
 40
0.7499999999999958
 40
0.8749999999999968
 40
0.8749999999999968
 40
0.9374999999999983
 40
0.9374999999999983
 40
1.0
 40
1.0
 40
1.0
 40
1.0
 10
183.7267711149981
 20
115.6095067668148
 30
0.0
 10
183.7267711149981
 20
115.7240364975138
 30
0.0
 10
183.722713812883
 20
115.8393525727033
 30
0.0
 10
183.6970565700882
 20
116.0142756625308
 30
0.0
 10
183.6857411243461
 20
116.0741049655257
 30
0.0
 10
183.6517097570375
 20
116.1586961517739
 30
0.0
 10
183.6378307758337
 20
116.187365737918
 30
0.0
 10
183.6018950940663
 20
116.2171735248643
 30
0.0
 10
183.5869447748035
 20
116.2235086782239
 30
0.0
 10
183.5570462620617
 20
116.2222832153536
 30
0.0
 10
183.5435134016964
 20
116.2156846293188
 30
0.0
 10
183.5317942261224
 20
116.2070369412624
 30
0.0
  0
SPLINE
  5
78
330
1F
100
AcDbEntity
  8
0
  6
Continuous
 62
     7
370
    15
100
AcDbSpline
210
0.0
220
0.0
230
1.0
 70
     8
 71
     3
 72
    14
 73
    10
 74
     0
 42
0.00000001
 43
0.00000001
 12
1.0
 22
0.0
 32
0.0
 13
1.0
 23
0.0
 33
0.0
 40
0.0
 40
0.0
 40
0.0
 40
0.0
 40
0.25
 40
0.25
 40
0.5
 40
0.5
 40
0.75
 40
0.75
 40
1.0
 40
1.0
 40
1.0
 40
1.0
 10
183.5317942261293
 20
116.2070369412537
 30
0.0
 10
183.4753345602455
 20
116.1653748315549
 30
0.0
 10
183.4044620853833
 20
116.1345413509667
 30
0.0
 10
183.2559957275013
 20
116.1402558595799
 30
0.0
 10
183.1868005242936
 20
116.1758267870128
 30
0.0
 10
183.077083338224
 20
116.2627706994867
 30
0.0
 10
183.031837449292
 20
116.3152030128518
 30
0.0
 10
182.9522203183251
 20
116.4237560943703
 30
0.0
 10
182.9176176988683
 20
116.4807391806128
 30
0.0
 10
182.8859100868695
 20
116.5393052632707
 30
0.0
  0
SPLINE
  5
79
330
1F
100
AcDbEntity
  8
0
  6
Continuous
 62
     7
370
    15
100
AcDbSpline
210
0.0
220
0.0
230
1.0
 70
     8
 71
     3
 72
    10
 73
     6
 74
     0
 42
0.00000001
 43
0.00000001
 12
1.0
 22
0.0
 32
0.0
 13
1.0
 23
0.0
 33
0.0
 40
0.0
 40
0.0
 40
0.0
 40
0.0
 40
0.5
 40
0.5
 40
1.0
 40
1.0
 40
1.0
 40
1.0
 10
182.6054507714385
 20
117.392123854917
 30
0.0
 10
182.6363293550504
 20
117.2424953030573
 30
0.0
 10
182.6723220627737
 20
117.0959998855337
 30
0.0
 10
182.7616623142709
 20
116.810808246993
 30
0.0
 10
182.8141206171164
 20
116.671905221277
 30
0.0
 10
182.8859100868696
 20
116.5393052632705
 30
0.0
  0
SPLINE
  5
7A
330
1F
100
AcDbEntity
  8
0
  6
Continuous
 62
     7
370
    15
100
AcDbSpline
210
0.0
220
0.0
230
1.0
 70
     8
 71
     3
 72
    10
 73
     6
 74
     0
 42
0.00000001
 43
0.00000001
 12
1.0
 22
0.0
 32
0.0
 13
1.0
 23
0.0
 33
0.0
 40
0.0
 40
0.0
 40
0.0
 40
0.0
 40
0.5
 40
0.5
 40
1.0
 40
1.0
 40
1.0
 40
1.0
 10
182.8859100868688
 20
126.648668735507
 30
0.0
 10
182.814120617116
 20
126.5160687775007
 30
0.0
 10
182.7616623142705
 20
126.3771657517849
 30
0.0
 10
182.6723220627736
 20
126.0919741132446
 30
0.0
 10
182.6363293550503
 20
125.9454786957212
 30
0.0
 10
182.6054507714385
 20
125.7958501438618
 30
0.0
  0
SPLINE
  5
7B
330
1F
100
AcDbEntity
  8
0
  6
Continuous
 62
     7
370
    15
100
AcDbSpline
210
0.0
220
0.0
230
1.0
 70
     8
 71
     3
 72
    14
 73
    10
 74
     0
 42
0.00000001
 43
0.00000001
 12
1.0
 22
0.0
 32
0.0
 13
1.0
 23
0.0
 33
0.0
 40
0.0
 40
0.0
 40
0.0
 40
0.0
 40
0.25
 40
0.25
 40
0.5
 40
0.5
 40
0.75
 40
0.75
 40
1.0
 40
1.0
 40
1.0
 40
1.0
 10
182.8859100868682
 20
126.6486687355058
 30
0.0
 10
182.9176187863536
 20
126.7072368268244
 30
0.0
 10
182.9522266049942
 20
126.7642310887644
 30
0.0
 10
183.0318850154835
 20
126.8728312235283
 30
0.0
 10
183.0769472853784
 20
126.9251593589069
 30
0.0
 10
183.1875291309568
 20
127.0126603702692
 30
0.0
 10
183.2551732517721
 20
127.0477058265234
 30
0.0
 10
183.4054215421692
 20
127.0534502152794
 30
0.0
 10
183.4753739403995
 20
127.0225701082295
 30
0.0
 10
183.531794226123
 20
126.9809370575164
 30
0.0
  0
SPLINE
  5
7C
330
1F
100
AcDbEntity
  8
0
  6
Continuous
 62
     7
370
    15
100
AcDbSpline
210
0.0
220
0.0
230
1.0
 70
     8
 71
     3
 72
    16
 73
    12
 74
     0
 42
0.00000001
 43
0.00000001
 12
1.0
 22
0.0
 32
0.0
 13
1.0
 23
0.0
 33
0.0
 40
0.0
 40
0.0
 40
0.0
 40
0.0
 40
0.0625000000000016
 40
0.0625000000000016
 40
0.1250000000000032
 40
0.1250000000000032
 40
0.2500000000000056
 40
0.2500000000000056
 40
0.500000000000005
 40
0.500000000000005
 40
1.0
 40
1.0
 40
1.0
 40
1.0
 10
183.5317942260912
 20
126.980937057463
 30
0.0
 10
183.5435284605381
 20
126.9722782573187
 30
0.0
 10
183.557060216017
 20
126.9656741720835
 30
0.0
 10
183.5870476764469
 20
126.9644772049093
 30
0.0
 10
183.6020423828552
 20
126.9708989519752
 30
0.0
 10
183.6377828052499
 20
127.0006161053845
 30
0.0
 10
183.6517961422511
 20
127.0294235027679
 30
0.0
 10
183.6859402310325
 20
127.1145032243938
 30
0.0
 10
183.6969121351509
 20
127.1728781736635
 30
0.0
 10
183.7227576754171
 20
127.3485936984521
 30
0.0
 10
183.7267711149981
 20
127.4643887063165
 30
0.0
 10
183.7267711149981
 20
127.578467231964
 30
0.0
  0
LINE
  5
7D
330
1F
100
AcDbEntity
  8
0
  6
Continuous
 62
     7
370
    15
100
AcDbLine
 10
183.7267711201
 20
139.4338080549
 30
0.0
 11
183.7267711201
 21
127.5784670265
 31
0.0
  0
SPLINE
  5
7E
330
1F
100
AcDbEntity
  8
0
  6
Continuous
 62
     7
370
    15
100
AcDbSpline
210
0.0
220
0.0
230
1.0
 70
     8
 71
     3
 72
    16
 73
    12
 74
     0
 42
0.00000001
 43
0.00000001
 12
1.0
 22
0.0
 32
0.0
 13
1.0
 23
0.0
 33
0.0
 40
0.0
 40
0.0
 40
0.0
 40
0.0
 40
0.5000000000000018
 40
0.5000000000000018
 40
0.7500000000000009
 40
0.7500000000000009
 40
0.8750000000000004
 40
0.8750000000000004
 40
0.9375000000000002
 40
0.9375000000000002
 40
1.0
 40
1.0
 40
1.0
 40
1.0
 10
183.7267711149982
 20
139.140741465057
 30
0.0
 10
183.7267711149979
 20
139.1187264504776
 30
0.0
 10
183.722646572144
 20
139.0933728157739
 30
0.0
 10
183.6967301265108
 20
139.0462123135854
 30
0.0
 10
183.6854525454911
 20
139.0290133253566
 30
0.0
 10
183.6517171669497
 20
138.9990353597874
 30
0.0
 10
183.6373283517053
 20
138.9876839512455
 30
0.0
 10
183.6020816622662
 20
138.9709960917681
 30
0.0
 10
183.5868762378093
 20
138.9654330648828
 30
0.0
 10
183.55722965864
 20
138.9584634818476
 30
0.0
 10
183.5435243226425
 20
138.9569501407923
 30
0.0
 10
183.5317942261188
 20
138.9564986869424
 30
0.0
  0
SPLINE
  5
7F
330
1F
100
AcDbEntity
  8
0
  6
Continuous
 62
     7
370
    15
100
AcDbSpline
210
0.0
220
0.0
230
1.0
 70
     8
 71
     3
 72
    14
 73
    10
 74
     0
 42
0.00000001
 43
0.00000001
 12
1.0
 22
0.0
 32
0.0
 13
1.0
 23
0.0
 33
0.0
 40
0.0
 40
0.0
 40
0.0
 40
0.0
 40
0.25
 40
0.25
 40
0.5
 40
0.5
 40
0.75
 40
0.75
 40
1.0
 40
1.0
 40
1.0
 40
1.0
 10
183.5317942261293
 20
138.9564986869449
 30
0.0
 10
183.475347144071
 20
138.9543262195257
 30
0.0
 10
183.4044967600282
 20
138.9518281216082
 30
0.0
 10
183.2560603252118
 20
138.94818166282
 30
0.0
 10
183.1868710735249
 20
138.9472139159687
 30
0.0
 10
183.0771595252839
 20
138.9459463566061
 30
0.0
 10
183.0319178759416
 20
138.9455435156777
 30
0.0
 10
182.9522698577577
 20
138.9445324807501
 30
0.0
 10
182.9176429419917
 20
138.9439415203555
 30
0.0
 10
182.8859100868703
 20
138.943144280582
 30
0.0
  0
SPLINE
  5
80
330
1F
100
AcDbEntity
  8
0
  6
Continuous
 62
     7
370
    15
100
AcDbSpline
210
0.0
220
0.0
230
1.0
 70
     8
 71
     3
 72
    18
 73
    14
 74
     0
 42
0.00000001
 43
0.00000001
 12
1.0
 22
0.0
 32
0.0
 13
1.0
 23
0.0
 33
0.0
 40
0.0
 40
0.0
 40
0.0
 40
0.0
 40
0.2499999999999998
 40
0.2499999999999998
 40
0.3749999999999998
 40
0.3749999999999998
 40
0.4999999999999999
 40
0.4999999999999999
 40
0.625
 40
0.625
 40
0.7500000000000001
 40
0.7500000000000001
 40
1.0
 40
1.0
 40
1.0
 40
1.0
 10
182.6054507714384
 20
125.7958501438618
 30
0.0
 10
182.4701651651361
 20
125.1402958084406
 30
0.0
 10
182.3689974188931
 20
124.4606747146429
 30
0.0
 10
182.2661360760242
 20
123.4053107081489
 30
0.0
 10
182.2400332305009
 20
123.0464966435643
 30
0.0
 10
182.2051432469561
 20
122.3203836994414
 30
0.0
 10
182.1965569886661
 20
121.9582940204253
 30
0.0
 10
182.1964572791005
 20
121.2359843630069
 30
0.0
 10
182.204945650249
 20
120.8757645608985
 30
0.0
 10
182.2390890297696
 20
120.1571984918046
 30
0.0
 10
182.2648860116234
 20
119.7974327758892
 30
0.0
 10
182.3682871430113
 20
118.7307881888949
 30
0.0
 10
182.4701451351827
 20
118.0477752496125
 30
0.0
 10
182.6054507714384
 20
117.392123854917
 30
0.0
  0
LINE
  5
81
330
1F
100
AcDbEntity
  8
0
  6
Continuous
 62
     7
370
    15
100
AcDbLine
 10
181.7267711269
 20
126.7341392936
 30
0.0
 11
181.7267711269
 21
116.4538347052
 31
0.0
  0
LINE
  5
82
330
1F
100
AcDbEntity
  8
0
  6
Continuous
 62
     7
370
    15
100
AcDbLine
 10
155.4267711001
 20
126.4037656487
 30
0.0
 11
155.4267711001
 21
116.78420835
 31
0.0
  0
LINE
  5
83
330
1F
100
AcDbEntity
  8
0
  6
Continuous
 62
     7
370
    15
100
AcDbLine
 10
153.9267717856
 20
125.9707528056
 30
0.0
 11
153.9267717856
 21
117.2172211932
 31
0.0
  0
LINE
  5
84
330
1F
100
AcDbEntity
  8
0
  6
Continuous
 62
     7
370
    15
100
AcDbLine
 10
155.4267711001
 20
126.4037656487
 30
0.0
 11
155.4267711001
 21
138.4533377254
 31
0.0
  0
LINE
  5
85
330
1F
100
AcDbEntity
  8
0
  6
Continuous
 62
     7
370
    15
100
AcDbLine
 10
155.4267711001
 20
138.4533377254
 30
0.0
 11
181.7267711269
 21
139.1140850151
 31
0.0
  0
LINE
  5
86
330
1F
100
AcDbEntity
  8
0
  6
Continuous
 62
     7
370
    15
100
AcDbLine
 10
181.7267711269
 20
126.7341392936
 30
0.0
 11
181.7267711269
 21
139.1140850151
 31
0.0
  0
LINE
  5
87
330
1F
100
AcDbEntity
  8
0
  6
Continuous
 62
     7
370
    15
100
AcDbLine
 10
155.4267711001
 20
104.7346362734
 30
0.0
 11
155.4267711001
 21
116.78420835
 31
0.0
  0
LINE
  5
88
330
1F
100
AcDbEntity
  8
0
  6
Continuous
 62
     7
370
    15
100
AcDbLine
 10
181.7267711269
 20
104.0738889837
 30
0.0
 11
181.7267711269
 21
116.4538347052
 31
0.0
  0
LINE
  5
89
330
1F
100
AcDbEntity
  8
0
  6
Continuous
 62
     7
370
    15
100
AcDbLine
 10
155.4267711001
 20
104.7346362734
 30
0.0
 11
181.7267711269
 21
104.0738889837
 31
0.0
  0
ARC
  5
8A
330
1F
100
AcDbEntity
  8
0
  6
Continuous
 62
     7
370
    15
100
AcDbCircle
 10
181.9267080259
 20
139.1191088951
 30
0.0
 40
0.2000000000000059
100
AcDbArc
 50
181.4391666667
 51
271.4391666667
  0
ARC
  5
8B
330
1F
100
AcDbEntity
  8
0
  6
Continuous
 62
     7
370
    15
100
AcDbCircle
 10
181.9267080259
 20
104.0688651037
 30
0.0
 40
0.2000000000000059
100
AcDbArc
 50
88.5608333333
 51
178.5608333333
  0
LINE
  5
8C
330
1F
100
AcDbEntity
  8
0
  6
Continuous
 62
     7
370
    15
100
AcDbLine
 10
181.931731244
 20
104.2688017601
 30
0.0
 11
182.8859101044
 21
104.244829517
 31
0.0
  0
LINE
  5
8D
330
1F
100
AcDbEntity
  8
0
  6
Continuous
 62
     7
370
    15
100
AcDbLine
 10
181.931731244
 20
138.9191722387
 30
0.0
 11
182.8859101044
 21
138.9431444818
 31
0.0
  0
LINE
  5
8E
330
1F
100
AcDbEntity
  8
0
  6
Continuous
 62
     7
370
    15
100
AcDbLine
 10
153.9267717856
 20
137.5873120391
 30
0.0
 11
155.4267711001
 21
138.4533377254
 31
0.0
  0
LINE
  5
8F
330
1F
100
AcDbEntity
  8
0
  6
Continuous
 62
     7
370
    15
100
AcDbLine
 10
153.9267717856
 20
125.9707528056
 30
0.0
 11
153.9267717856
 21
137.5873120391
 31
0.0
  0
LINE
  5
90
330
1F
100
AcDbEntity
  8
0
  6
Continuous
 62
     7
370
    15
100
AcDbLine
 10
153.9267717856
 20
105.6006619596
 30
0.0
 11
155.4267711001
 21
104.7346362734
 31
0.0
  0
LINE
  5
91
330
1F
100
AcDbEntity
  8
0
  6
Continuous
 62
     7
370
    15
100
AcDbLine
 10
153.9267717856
 20
105.6006619596
 30
0.0
 11
153.9267717856
 21
117.2172211932
 31
0.0
  0
LWPOLYLINE
  5
92
330
1F
100
AcDbEntity
  8
0
  6
Continuous
 62
     7
370
    15
100
AcDbPolyline
 90
       34
 70
   128
 43
0.0
 10
228.6009478378
 20
113.4460888693
 10
229.2596983718
 20
113.3958235273
 10
229.8946405756
 20
113.2227968314
 10
230.4828229355
 20
112.9332635441
 10
231.0029926705
 20
112.5376880059
 10
231.436344515
 20
112.0503669494
 10
231.7672173487
 20
111.4889135474
 10
231.9836567151
 20
110.8736203873
 10
232.0778320538
 20
110.2267255896
 10
232.0463459002
 20
109.5716100076
 10
231.8903307425
 20
108.931950655
 10
231.6154303955
 20
108.3308657521
 10
231.2315802085
 20
107.7900821233
 10
230.7526531624
 20
107.3291435727
 10
230.1959532308
 20
106.96471053
 10
229.5816081571
 20
106.709953759
 10
228.9318206715
 20
106.574081246
 10
228.270075004
 20
106.5620038548
 10
227.6202837931
 20
106.6741574445
 10
227.0059424447
 20
106.9064888993
 10
226.4492425131
 20
107.2506014147
 10
225.9703154671
 20
107.6940581092
 10
225.58646528
 20
108.2208309212
 10
225.311564933
 20
108.811879892
 10
225.1555497753
 20
109.4458451384
 10
225.1240636217
 20
110.0998114684
 10
225.2182389604
 20
110.7501437777
 10
225.4346783268
 20
111.3733373472
 10
225.7655511605
 20
111.9468681404
 10
226.1989030051
 20
112.4500077108
 10
226.7190690147
 20
112.8645710537
 10
227.3072550999
 20
113.1755741203
 10
227.9421973037
 20
113.3717777097
 10
228.6009478378
 20
113.4460888693
  0
SPLINE
  5
93
330
1F
100
AcDbEntity
  8
0
  6
Continuous
 62
     7
370
    15
100
AcDbSpline
210
0.0
220
0.0
230
1.0
 70
     8
 71
     3
 72
     8
 73
     4
 74
     0
 42
0.00000001
 43
0.00000001
 12
1.0
 22
0.0
 32
0.0
 13
1.0
 23
0.0
 33
0.0
 40
0.0
 40
0.0
 40
0.0
 40
0.0
 40
1.0
 40
1.0
 40
1.0
 40
1.0
 10
217.5437490168861
 20
94.57375940945145
 30
0.0
 10
217.4037772152836
 20
95.11766671980051
 30
0.0
 10
217.2642865111332
 20
95.66170495917238
 30
0.0
 10
217.1253699533082
 20
96.205899450499
 30
0.0
  0
SPLINE
  5
94
330
1F
100
AcDbEntity
  8
0
  6
Continuous
 62
     7
370
    15
100
AcDbSpline
210
0.0
220
0.0
230
1.0
 70
     8
 71
     3
 72
    12
 73
     8
 74
     0
 42
0.00000001
 43
0.00000001
 12
1.0
 22
0.0
 32
0.0
 13
1.0
 23
0.0
 33
0.0
 40
0.0
 40
0.0
 40
0.0
 40
0.0
 40
0.2500000000000029
 40
0.2500000000000029
 40
0.5000000000000059
 40
0.5000000000000059
 40
1.0
 40
1.0
 40
1.0
 40
1.0
 10
217.1253699533082
 20
96.205899450499
 30
0.0
 10
217.0975194458966
 20
96.3150015831126
 30
0.0
 10
217.0540548263705
 20
96.4170379681403
 30
0.0
 10
216.9360902835249
 20
96.60706654399185
 30
0.0
 10
216.863011671608
 20
96.69209064429707
 30
0.0
 10
216.6072626941217
 20
96.90795096947491
 30
0.0
 10
216.3879695233288
 20
96.99629215208451
 30
0.0
 10
216.1594441270198
 20
97.00089542830334
 30
0.0
  0
SPLINE
  5
95
330
1F
100
AcDbEntity
  8
0
  6
Continuous
 62
     7
370
    15
100
AcDbSpline
210
0.0
220
0.0
230
1.0
 70
     8
 71
     3
 72
    12
 73
     8
 74
     0
 42
0.00000001
 43
0.00000001
 12
1.0
 22
0.0
 32
0.0
 13
1.0
 23
0.0
 33
0.0
 40
0.0
 40
0.0
 40
0.0
 40
0.0
 40
0.25
 40
0.25
 40
0.5
 40
0.5
 40
1.0
 40
1.0
 40
1.0
 40
1.0
 10
216.1594441270191
 20
143.1675113109871
 30
0.0
 10
216.250276022994
 20
143.1726565480431
 30
0.0
 10
216.3383602296169
 20
143.1903987852248
 30
0.0
 10
216.5094224723933
 20
143.2492929037667
 30
0.0
 10
216.5913858041039
 20
143.2905062141272
 30
0.0
 10
216.8159568555223
 20
143.441568532079
 30
0.0
 10
216.9403951741392
 20
143.5812563610888
 30
0.0
 10
217.0254695308035
 20
143.7401184677299
 30
0.0
  0
ELLIPSE
  5
96
330
1F
100
AcDbEntity
  8
0
  6
Continuous
 62
     7
370
    15
100
AcDbEllipse
 10
298.8820611647
 20
121.5939869994
 30
0.0
 11
242.6158515305094
 21
4.475958828581596
 31
0.0
210
0.0
220
0.0
230
1.0
 40
0.1034726254
 41
1.876274244809891
 42
1.913031561442128
  0
LINE
  5
97
330
1F
100
AcDbEntity
  8
0
  6
Continuous
 62
     7
370
    15
100
AcDbLine
 10
225.4738870072
 20
144.1897092277
 30
0.0
 11
239.0692668962
 21
101.0812329018
 31
0.0
  0
LINE
  5
98
330
1F
100
AcDbEntity
  8
0
  6
Continuous
 62
     7
370
    15
100
AcDbLine
 10
239.0692668962
 20
101.0812329018
 30
0.0
 11
224.6557760047
 21
105.3868992144
 31
0.0
  0
ARC
  5
99
330
1F
100
AcDbEntity
  8
0
  6
Continuous
 62
     7
370
    15
100
AcDbCircle
 10
224.0230073238
 20
103.4043670895
 30
0.0
 40
2.081064590455691
100
AcDbArc
 50
72.2983745528
 51
252.0706426329
  0
LINE
  5
9A
330
1F
100
AcDbEntity
  8
0
  6
Continuous
 62
     7
370
    15
100
AcDbLine
 10
223.3823637473
 20
101.4243656659
 30
0.0
 11
226.3589973556
 21
100.5351705366
 31
0.0
  0
LINE
  5
9B
330
1F
100
AcDbEntity
  8
0
  6
Continuous
 62
     7
370
    15
100
AcDbLine
 10
226.3589973556
 20
100.5351705366
 30
0.0
 11
229.2752179312
 21
91.2883629912
 31
0.0
  0
LINE
  5
9C
330
1F
100
AcDbEntity
  8
0
  6
Continuous
 62
     7
370
    15
100
AcDbLine
 10
229.2752179312
 20
91.2883629912
 30
0.0
 11
220.7455026912
 21
93.8364000881
 31
0.0
  0
ARC
  5
9D
330
1F
100
AcDbEntity
  8
0
  6
Continuous
 62
     7
370
    15
100
AcDbCircle
 10
213.3783635796
 20
69.1668970784
 30
0.0
 40
25.74605052110831
100
AcDbArc
 50
73.37261469
 51
80.6893422645
  0
LINE
  5
9E
330
1F
100
AcDbEntity
  8
0
  6
Continuous
 62
     7
370
    15
100
AcDbLine
 10
217.0254687774
 20
143.7401188427
 30
0.0
 11
217.0254687774
 21
147.0939865226
 31
0.0
  0
ELLIPSE
  5
9F
330
1F
100
AcDbEntity
  8
0
  6
Continuous
 62
     7
370
    15
100
AcDbEllipse
 10
232.2513516168
 20
121.5939869994
 30
0.0
 11
-8.323425961531683
 21
25.49730333680017
 31
0.0
210
0.0
220
0.0
230
1.0
 40
0.0445538091
 41
5.786722255096033
 42
6.268642036434909
  0
LINE
  5
A0
330
1F
100
AcDbEntity
  8
0
  6
Continuous
 62
     7
370
    15
100
AcDbLine
 10
222.4186087953
 20
103.0166311079
 30
0.0
 11
221.9350661146
 21
103.2320422941
 31
0.0
  0
LINE
  5
A1
330
1F
100
AcDbEntity
  8
0
  6
Continuous
 62
     7
370
    15
100
AcDbLine
 10
225.395246129
 20
102.1274359786
 30
0.0
 11
222.4186087953
 21
103.0166311079
 31
0.0
  0
LINE
  5
A2
330
1F
100
AcDbEntity
  8
0
  6
Continuous
 62
     7
370
    15
100
AcDbLine
 10
225.395246129
 20
102.1274359786
 30
0.0
 11
226.3589973556
 21
100.5351705366
 31
0.0
  0
LINE
  5
A3
330
1F
100
AcDbEntity
  8
0
  6
Continuous
 62
     7
370
    15
100
AcDbLine
 10
217.5437497901
 20
94.5737598354
 30
0.0
 11
217.3284503626
 21
95.226140123
 31
0.0
  0
LINE
  5
A4
330
1F
100
AcDbEntity
  8
0
  6
Continuous
 62
     7
370
    15
100
AcDbLine
 10
224.7820633458
 20
104.5765349531
 30
0.0
 11
225.7276463317
 21
101.5782592708
 31
0.0
  0
LWPOLYLINE
  5
A5
330
1F
100
AcDbEntity
  8
0
  6
Continuous
 62
     7
370
    15
100
AcDbPolyline
 90
        3
 70
   128
 43
0.0
 10
224.4390944945
 20
105.4391389602
 10
224.436687957
 20
105.3372019792
 10
224.4810189115
 20
105.0739021862
  0
LINE
  5
A6
330
1F
100
AcDbEntity
  8
0
  6
Continuous
 62
     7
370
    15
100
AcDbLine
 10
224.4810189115
 20
105.0739021862
 30
0.0
 11
225.4266056227
 21
102.0756265038
 31
0.0
  0
CIRCLE
  5
A7
330
1F
100
AcDbEntity
  8
0
  6
Continuous
 62
     7
370
    15
100
AcDbCircle
 10
228.5324441785
 20
110.0205701408
 30
0.0
 40
3.468459097912753
  0
CIRCLE
  5
A8
330
1F
100
AcDbEntity
  8
0
  6
Continuous
 62
     7
370
    15
100
AcDbCircle
 10
228.5621118113
 20
110.0126407789
 30
0.0
 40
1.983213280812955
  0
SPLINE
  5
A9
330
1F
100
AcDbEntity
  8
0
  6
Continuous
 62
     7
370
    15
100
AcDbSpline
210
0.0
220
0.0
230
1.0
 70
     8
 71
     3
 72
    11
 73
     7
 74
     0
 42
0.00000001
 43
0.00000001
 12
1.0
 22
0.0
 32
0.0
 13
1.0
 23
0.0
 33
0.0
 40
0.0
 40
0.0
 40
0.0
 40
0.0
 40
0.108110544673698
 40
0.4711588462004093
 40
0.8135810024340742
 40
1.0
 40
1.0
 40
1.0
 40
1.0
 10
229.9160088407328
 20
111.1381178611486
 30
0.0
 10
229.8588067141451
 20
111.162839970881
 30
0.0
 10
229.6095129191264
 20
111.2705819190167
 30
0.0
 10
229.145837490346
 20
111.4576505916191
 30
0.0
 10
228.6528410985024
 20
111.6253569730297
 30
0.0
 10
228.3996324394252
 20
111.7001751310964
 30
0.0
 10
228.310375194483
 20
111.7265488842098
 30
0.0
  0
SPLINE
  5
AA
330
1F
100
AcDbEntity
  8
0
  6
Continuous
 62
     7
370
    15
100
AcDbSpline
210
0.0
220
0.0
230
1.0
 70
     8
 71
     3
 72
    10
 73
     6
 74
     0
 42
0.00000001
 43
0.00000001
 12
1.0
 22
0.0
 32
0.0
 13
1.0
 23
0.0
 33
0.0
 40
0.0
 40
0.0
 40
0.0
 40
0.0
 40
0.4391171526881836
 40
0.7513665582833149
 40
1.0
 40
1.0
 40
1.0
 40
1.0
 10
228.310375194483
 20
111.7265488842098
 30
0.0
 10
228.1073654891656
 20
111.5878793376364
 30
0.0
 10
227.7599987269049
 20
111.350604024409
 30
0.0
 10
227.2899194019853
 20
110.9480561686958
 30
0.0
 10
227.0663939367376
 20
110.730435720486
 30
0.0
 10
226.9673074590494
 20
110.6339668744771
 30
0.0
  0
SPLINE
  5
AB
330
1F
100
AcDbEntity
  8
0
  6
Continuous
 62
     7
370
    15
100
AcDbSpline
210
0.0
220
0.0
230
1.0
 70
     8
 71
     3
 72
    10
 73
     6
 74
     0
 42
0.00000001
 43
0.00000001
 12
1.0
 22
0.0
 32
0.0
 13
1.0
 23
0.0
 33
0.0
 40
0.0
 40
0.0
 40
0.0
 40
0.0
 40
0.439116663647357
 40
0.7513672850801537
 40
1.0
 40
1.0
 40
1.0
 40
1.0
 10
226.9673074590494
 20
110.6339668744771
 30
0.0
 10
226.9941559526732
 20
110.4110587263102
 30
0.0
 10
227.0400960898455
 20
110.0296432529841
 30
0.0
 10
227.1417635204433
 20
109.4175649614866
 30
0.0
 10
227.2028089521906
 20
109.0956533272796
 30
0.0
 10
227.2298696445753
 20
108.9529538416831
 30
0.0
  0
SPLINE
  5
AC
330
1F
100
AcDbEntity
  8
0
  6
Continuous
 62
     7
370
    15
100
AcDbSpline
210
0.0
220
0.0
230
1.0
 70
     8
 71
     3
 72
    11
 73
     7
 74
     0
 42
0.00000001
 43
0.00000001
 12
1.0
 22
0.0
 32
0.0
 13
1.0
 23
0.0
 33
0.0
 40
0.0
 40
0.0
 40
0.0
 40
0.0
 40
0.1864190056089592
 40
0.5288430331290654
 40
0.891891350319468
 40
1.0
 40
1.0
 40
1.0
 40
1.0
 10
227.2298696445753
 20
108.9529538416831
 30
0.0
 10
227.3191268715096
 20
108.926580053799
 30
0.0
 10
227.5723363683977
 20
108.8517615344416
 30
0.0
 10
228.0653346650722
 20
108.6840559075812
 30
0.0
 10
228.5290107305143
 20
108.4969886104639
 30
0.0
 10
228.7783024215078
 20
108.3892449797095
 30
0.0
 10
228.8355032908251
 20
108.3645228186219
 30
0.0
  0
SPLINE
  5
AD
330
1F
100
AcDbEntity
  8
0
  6
Continuous
 62
     7
370
    15
100
AcDbSpline
210
0.0
220
0.0
230
1.0
 70
     8
 71
     3
 72
    10
 73
     6
 74
     0
 42
0.00000001
 43
0.00000001
 12
1.0
 22
0.0
 32
0.0
 13
1.0
 23
0.0
 33
0.0
 40
0.0
 40
0.0
 40
0.0
 40
0.0
 40
0.4391166741764609
 40
0.7513668245585576
 40
1.0
 40
1.0
 40
1.0
 40
1.0
 10
228.8355032908251
 20
108.3645228186219
 30
0.0
 10
229.0170358312081
 20
108.5386762855038
 30
0.0
 10
229.3276537977824
 20
108.8366680154747
 30
0.0
 10
229.8140695490831
 20
109.212227857651
 30
0.0
 10
230.0666213993784
 20
109.3818938367029
 30
0.0
 10
230.178574751549
 20
109.4571048283546
 30
0.0
  0
SPLINE
  5
AE
330
1F
100
AcDbEntity
  8
0
  6
Continuous
 62
     7
370
    15
100
AcDbSpline
210
0.0
220
0.0
230
1.0
 70
     8
 71
     3
 72
    10
 73
     6
 74
     0
 42
0.00000001
 43
0.00000001
 12
1.0
 22
0.0
 32
0.0
 13
1.0
 23
0.0
 33
0.0
 40
0.0
 40
0.0
 40
0.0
 40
0.0
 40
0.4391166543457189
 40
0.7513668779248378
 40
1.0
 40
1.0
 40
1.0
 40
1.0
 10
230.178574751549
 20
109.4571048283546
 30
0.0
 10
230.1302470348807
 20
109.7154967025157
 30
0.0
 10
230.0475540984344
 20
110.1576277258969
 30
0.0
 10
229.9622274541545
 20
110.7427192137619
 30
0.0
 10
229.930204324841
 20
111.0166759830855
 30
0.0
 10
229.9160088407328
 20
111.1381178611486
 30
0.0
  0
LINE
  5
AF
330
1F
100
AcDbEntity
  8
0
  6
Continuous
 62
     7
370
    15
100
AcDbLine
 10
229.7884660768
 20
110.1016182342
 30
0.0
 11
230.1785747515
 21
109.4571048284
 31
0.0
  0
LINE
  5
B0
330
1F
100
AcDbEntity
  8
0
  6
Continuous
 62
     7
370
    15
100
AcDbLine
 10
229.7884660768
 20
110.1016182342
 30
0.0
 11
229.6571831214
 21
110.9421247506
 31
0.0
  0
LINE
  5
B1
330
1F
100
AcDbEntity
  8
0
  6
Continuous
 62
     7
370
    15
100
AcDbLine
 10
229.6571831214
 20
110.9421247506
 30
0.0
 11
229.6064334916
 21
111.2670557463
 31
0.0
  0
LINE
  5
B2
330
1F
100
AcDbEntity
  8
0
  6
Continuous
 62
     7
370
    15
100
AcDbLine
 10
227.1321515548
 20
109.4903139287
 30
0.0
 11
227.6425833809
 21
109.3032522017
 31
0.0
  0
LINE
  5
B3
330
1F
100
AcDbEntity
  8
0
  6
Continuous
 62
     7
370
    15
100
AcDbLine
 10
227.6425833809
 20
109.3032522017
 30
0.0
 11
228.4453983414
 21
109.0090362245
 31
0.0
  0
LINE
  5
B4
330
1F
100
AcDbEntity
  8
0
  6
Continuous
 62
     7
370
    15
100
AcDbLine
 10
228.4453983414
 20
109.0090362245
 30
0.0
 11
228.8355032908
 21
108.3645228186
 31
0.0
  0
LINE
  5
B5
330
1F
100
AcDbEntity
  8
0
  6
Continuous
 62
     7
370
    15
100
AcDbLine
 10
228.4453983414
 20
109.0090362245
 30
0.0
 11
229.1169340717
 21
109.555327695
 31
0.0
  0
LINE
  5
B6
330
1F
100
AcDbEntity
  8
0
  6
Continuous
 62
     7
370
    15
100
AcDbLine
 10
229.1169340717
 20
109.555327695
 30
0.0
 11
229.7884660768
 21
110.1016182342
 31
0.0
  0
LWPOLYLINE
  5
B7
330
1F
100
AcDbEntity
  8
0
  6
Continuous
 62
     7
370
    15
100
AcDbPolyline
 90
        3
 70
   128
 43
0.0
 10
229.5585523354
 20
111.2864244619
 10
229.6148899006
 20
111.1299883464
 10
229.6571831214
 20
110.9421247506
  0
ARC
  5
B8
330
1F
100
AcDbEntity
  8
0
  6
Continuous
 62
     7
370
    15
100
AcDbCircle
 10
228.1790850598
 20
110.7193117008
 30
0.0
 40
1.49479748957313
100
AcDbArc
 50
308.8592018896
 51
8.5723993753
  0
ARC
  5
B9
330
1F
100
AcDbEntity
  8
0
  6
Continuous
 62
     7
370
    15
100
AcDbCircle
 10
228.1577080588
 20
110.7280300626
 30
0.0
 40
1.515039731108838
100
AcDbArc
 50
250.1226767682
 51
309.281862866
  0
ARC
  5
BA
330
1F
100
AcDbEntity
  8
0
  6
Continuous
 62
     7
370
    15
100
AcDbCircle
 10
228.1420233782
 20
110.6702749776
 30
0.0
 40
1.455400831704104
100
AcDbArc
 50
223.850985681
 51
249.9302894644
  0
ELLIPSE
  5
BB
330
1F
100
AcDbEntity
  8
0
  6
Continuous
 62
     7
370
    15
100
AcDbEllipse
 10
234.2189901135
 20
96.5020376452
 30
0.0
 11
1.997990741532078
 21
1.237287081237454
 31
0.0
210
0.0
220
0.0
230
1.0
 40
0.9806954655
 41
4.555427661042986
 42
6.322912120026417
  0
ELLIPSE
  5
BC
330
1F
100
AcDbEntity
  8
0
  6
Continuous
 62
     7
370
    15
100
AcDbEllipse
 10
234.2189901135
 20
96.5020376452
 30
0.0
 11
1.997990741532078
 21
1.237287081237454
 31
0.0
210
0.0
220
0.0
230
1.0
 40
0.9806954655
 41
2.830928179098219
 42
4.555427661043009
  0
LINE
  5
BD
330
1F
100
AcDbEntity
  8
0
  6
Continuous
 62
     7
370
    15
100
AcDbLine
 10
231.9896246301
 20
95.5372298026
 30
0.0
 11
232.1252400982
 21
95.40293495
 31
0.0
  0
LWPOLYLINE
  5
BE
330
1F
100
AcDbEntity
  8
0
  6
Continuous
 62
     7
370
    15
100
AcDbPolyline
 90
        3
 70
   128
 43
0.0
 10
232.2840231466
 20
95.1728572959
 10
232.058136444
 20
95.239467349
 10
231.9979730057
 20
95.2604630852
  0
LINE
  5
BF
330
1F
100
AcDbEntity
  8
0
  6
Continuous
 62
     7
370
    15
100
AcDbLine
 10
225.1058991062
 20
104.5577296877
 30
0.0
 11
229.3902250933
 21
90.972914722
 31
0.0
  0
ARC
  5
C0
330
1F
100
AcDbEntity
  8
0
  6
Continuous
 62
     7
370
    15
100
AcDbCircle
 10
225.4916402867
 20
104.6731343032
 30
0.0
 40
0.4026344293020319
100
AcDbArc
 50
73.3370365079
 51
196.6559361962
  0
LINE
  5
C1
330
1F
100
AcDbEntity
  8
0
  6
Continuous
 62
     7
370
    15
100
AcDbLine
 10
239.3669622945
 20
100.9484486544
 30
0.0
 11
225.6070922124
 21
105.0588613266
 31
0.0
  0
ARC
  5
C2
330
1F
100
AcDbEntity
  8
0
  6
Continuous
 62
     7
370
    15
100
AcDbCircle
 10
239.2575547619
 20
100.5781987715
 30
0.0
 40
0.3860763966077589
100
AcDbArc
 50
17.5809251278
 51
73.5377760766
  0
LINE
  5
C3
330
1F
100
AcDbEntity
  8
0
  6
Continuous
 62
     7
370
    15
100
AcDbLine
 10
243.9099240112
 20
87.1099991614
 30
0.0
 11
239.6255980241
 21
100.6948141271
 31
0.0
  0
ARC
  5
C4
330
1F
100
AcDbEntity
  8
0
  6
Continuous
 62
     7
370
    15
100
AcDbCircle
 10
243.5241831814
 20
86.9945927613
 30
0.0
 40
0.4026346047508174
100
AcDbArc
 50
253.3369918807
 51
16.6561937845
  0
LINE
  5
C5
330
1F
100
AcDbEntity
  8
0
  6
Continuous
 62
     7
370
    15
100
AcDbLine
 10
229.6488608228
 20
90.719278332
 30
0.0
 11
243.408730905
 21
86.6088656598
 31
0.0
  0
ARC
  5
C6
330
1F
100
AcDbEntity
  8
0
  6
Continuous
 62
     7
370
    15
100
AcDbCircle
 10
229.7582710174
 20
91.0895300729
 30
0.0
 40
0.3860789328064735
100
AcDbArc
 50
197.5808051488
 51
253.5374753676
  0
ARC
  5
C7
330
1F
100
AcDbEntity
  8
0
  6
Continuous
 62
     7
370
    15
100
AcDbCircle
 10
243.5244728777
 20
86.9941772634
 30
0.0
 40
0.3825043352192517
100
AcDbArc
 50
253.3374423859
 51
16.6558329415
  0
LINE
  5
C8
330
1F
100
AcDbEntity
  8
0
  6
Continuous
 62
     7
370
    15
100
AcDbLine
 10
243.8909287559
 20
87.1038114542
 30
0.0
 11
239.6066027688
 21
100.6886264199
 31
0.0
  0
ARC
  5
C9
330
1F
100
AcDbEntity
  8
0
  6
Continuous
 62
     7
370
    15
100
AcDbCircle
 10
239.2569539781
 20
100.5778346499
 30
0.0
 40
0.3667820785559808
100
AcDbArc
 50
17.5816317397
 51
73.5371741779
  0
LINE
  5
CA
330
1F
100
AcDbEntity
  8
0
  6
Continuous
 62
     7
370
    15
100
AcDbLine
 10
239.3608975219
 20
100.929580059
 30
0.0
 11
225.6010274398
 21
105.0399927312
 31
0.0
  0
ARC
  5
CB
330
1F
100
AcDbEntity
  8
0
  6
Continuous
 62
     7
370
    15
100
AcDbCircle
 10
225.4913510331
 20
104.6735489295
 30
0.0
 40
0.3825048679194287
100
AcDbArc
 50
73.337590326
 51
196.6556850014
  0
LINE
  5
CC
330
1F
100
AcDbEntity
  8
0
  6
Continuous
 62
     7
370
    15
100
AcDbLine
 10
225.1248943614
 20
104.5639155322
 30
0.0
 11
229.4092203485
 21
90.9791024291
 31
0.0
  0
ARC
  5
CD
330
1F
100
AcDbEntity
  8
0
  6
Continuous
 62
     7
370
    15
100
AcDbCircle
 10
229.7588718012
 20
91.0898941945
 30
0.0
 40
0.3667846147748837
100
AcDbArc
 50
197.5815054411
 51
253.5368576487
  0
LINE
  5
CE
330
1F
100
AcDbEntity
  8
0
  6
Continuous
 62
     7
370
    15
100
AcDbLine
 10
229.6549255955
 20
90.7381469274
 30
0.0
 11
243.4147956776
 21
86.6277342552
 31
0.0
  0
LINE
  5
CF
330
1F
100
AcDbEntity
  8
0
  6
Continuous
 62
     7
370
    15
100
AcDbLine
 10
226.927063148
 20
103.3242525423
 30
0.0
 11
225.4628824996
 21
104.7193663084
 31
0.0
  0
LINE
  5
D0
330
1F
100
AcDbEntity
  8
0
  6
Continuous
 62
     7
370
    15
100
AcDbLine
 10
238.8525704848
 20
100.3079818451
 30
0.0
 11
239.2227488565
 21
100.6089536363
 31
0.0
  0
LINE
  5
D1
330
1F
100
AcDbEntity
  8
0
  6
Continuous
 62
     7
370
    15
100
AcDbLine
 10
227.5666247117
 20
103.1332010293
 30
0.0
 11
226.927063148
 21
103.3242525423
 31
0.0
  0
LINE
  5
D2
330
1F
100
AcDbEntity
  8
0
  6
Continuous
 62
     7
370
    15
100
AcDbLine
 10
226.927063148
 20
103.3242525423
 30
0.0
 11
227.1261985409
 21
102.6928288752
 31
0.0
  0
LINE
  5
D3
330
1F
100
AcDbEntity
  8
0
  6
Continuous
 62
     7
370
    15
100
AcDbLine
 10
230.0652290689
 20
91.5216984117
 30
0.0
 11
229.7472084867
 21
91.1345513427
 31
0.0
  0
LINE
  5
D4
330
1F
100
AcDbEntity
  8
0
  6
Continuous
 62
     7
370
    15
100
AcDbLine
 10
224.5149041521
 20
105.4236492032
 30
0.0
 11
225.7276463317
 21
101.5782592708
 31
0.0
  0
ARC
  5
D5
330
1F
100
AcDbEntity
  8
0
  6
Continuous
 62
     7
370
    15
100
AcDbCircle
 10
229.4731320645
 20
100.7646974344
 30
0.0
 40
1.006585805179566
100
AcDbArc
 50
73.3369536664
 51
196.6561468145
  0
ARC
  5
D6
330
1F
100
AcDbEntity
  8
0
  6
Continuous
 62
     7
370
    15
100
AcDbCircle
 10
228.1986190253
 20
102.0671758706
 30
0.0
 40
0.6990141491663322
100
AcDbArc
 50
134.8723366087
 51
135.06266535
  0
SPLINE
  5
D7
330
1F
100
AcDbEntity
  8
0
  6
Continuous
 62
     7
370
    15
100
AcDbSpline
210
0.0
220
0.0
230
1.0
 70
     8
 71
     3
 72
    14
 73
    10
 74
     0
 42
0.00000001
 43
0.00000001
 12
1.0
 22
0.0
 32
0.0
 13
1.0
 23
0.0
 33
0.0
 40
0.0
 40
0.0
 40
0.0
 40
0.0
 40
0.2210584081309839
 40
0.3460781167260241
 40
0.4396007037831897
 40
0.5338878141128973
 40
0.6146540383812005
 40
0.7517260755561191
 40
1.0
 40
1.0
 40
1.0
 40
1.0
 10
227.7054439293672
 20
102.5625536107986
 30
0.0
 10
227.745865622637
 20
102.6055842549709
 30
0.0
 10
227.8091478275526
 20
102.6729509044576
 30
0.0
 10
227.8641683434712
 20
102.7771619232414
 30
0.0
 10
227.8803550411648
 20
102.8593492187492
 30
0.0
 10
227.8660925091831
 20
102.9302206359248
 30
0.0
 10
227.8216295192357
 20
102.9996566754117
 30
0.0
 10
227.7250532787022
 20
103.0778602815657
 30
0.0
 10
227.62870243832
 20
103.1115166331426
 30
0.0
 10
227.5666247116854
 20
103.1332010292976
 30
0.0
  0
SPLINE
  5
D8
330
1F
100
AcDbEntity
  8
0
  6
Continuous
 62
     7
370
    15
100
AcDbSpline
210
0.0
220
0.0
230
1.0
 70
     8
 71
     3
 72
    14
 73
    10
 74
     0
 42
0.00000001
 43
0.00000001
 12
1.0
 22
0.0
 32
0.0
 13
1.0
 23
0.0
 33
0.0
 40
0.0
 40
0.0
 40
0.0
 40
0.0
 40
0.2234991281657358
 40
0.3567632534750869
 40
0.4531217705175827
 40
0.5344643460834304
 40
0.6157309522032741
 40
0.7396165047957963
 40
1.0
 40
1.0
 40
1.0
 40
1.0
 10
227.1261985408594
 20
102.6928288751809
 30
0.0
 10
227.1462712056516
 20
102.6377333904091
 30
0.0
 10
227.1783124456151
 20
102.5497865399659
 30
0.0
 10
227.2505264190985
 20
102.4541536234935
 30
0.0
 10
227.3174468832149
 20
102.4055799175651
 30
0.0
 10
227.3845273489548
 20
102.3868402392911
 30
0.0
 10
227.4615212368427
 20
102.3927490150841
 30
0.0
 10
227.5775298757852
 20
102.4427020942083
 30
0.0
 10
227.6527985061975
 20
102.5131658608387
 30
0.0
 10
227.7038010763456
 20
102.5609126204221
 30
0.0
  0
LINE
  5
D9
330
1F
100
AcDbEntity
  8
0
  6
Continuous
 62
     7
370
    15
100
AcDbLine
 10
228.5087804305
 20
100.4761824274
 30
0.0
 11
230.9065635311
 21
92.8732523584
 31
0.0
  0
LINE
  5
DA
330
1F
100
AcDbEntity
  8
0
  6
Continuous
 62
     7
370
    15
100
AcDbLine
 10
237.4626646745
 20
99.4285637403
 30
0.0
 11
229.7617631959
 21
101.7290143186
 31
0.0
  0
ARC
  5
DB
330
1F
100
AcDbEntity
  8
0
  6
Continuous
 62
     7
370
    15
100
AcDbCircle
 10
237.1891511137
 20
98.5029375838
 30
0.0
 40
0.9651908875810357
100
AcDbArc
 50
17.5808433381
 51
73.5381005165
  0
LINE
  5
DC
330
1F
100
AcDbEntity
  8
0
  6
Continuous
 62
     7
370
    15
100
AcDbLine
 10
240.5070426869
 20
91.191544559
 30
0.0
 11
238.1092595863
 21
98.794474628
 31
0.0
  0
ARC
  5
DD
330
1F
100
AcDbEntity
  8
0
  6
Continuous
 62
     7
370
    15
100
AcDbCircle
 10
239.5426891014
 20
90.9030315038
 30
0.0
 40
1.006587115417677
100
AcDbArc
 50
253.3370919422
 51
16.6560085386
  0
LINE
  5
DE
330
1F
100
AcDbEntity
  8
0
  6
Continuous
 62
     7
370
    15
100
AcDbLine
 10
231.5531584429
 20
92.2391632462
 30
0.0
 11
239.2540599214
 21
89.9387126678
 31
0.0
  0
ARC
  5
DF
330
1F
100
AcDbEntity
  8
0
  6
Continuous
 62
     7
370
    15
100
AcDbCircle
 10
231.8266720037
 20
93.1647894026
 30
0.0
 40
0.9651908875810313
100
AcDbArc
 50
197.5808433381
 51
253.5381005165
  0
CIRCLE
  5
E0
330
1F
100
AcDbEntity
  8
0
  6
Continuous
 62
     7
370
    15
100
AcDbCircle
 10
234.4570570982
 20
95.841748297
 30
0.0
 40
2.549186067835356
  0
LINE
  5
E1
330
1F
100
AcDbEntity
  8
0
  6
Continuous
 62
     7
370
    15
100
AcDbLine
 10
236.3623964595
 20
97.4637059385
 30
0.0
 11
236.3110358822
 21
97.6744325721
 31
0.0
  0
ARC
  5
E2
330
1F
100
AcDbEntity
  8
0
  6
Continuous
 62
     7
370
    15
100
AcDbCircle
 10
233.7748997757
 20
96.8979982914
 30
0.0
 40
2.505084355573086
100
AcDbArc
 50
226.2002272694
 51
250.9137645507
  0
LINE
  5
E3
330
1F
100
AcDbEntity
  8
0
  6
Continuous
 62
     7
370
    15
100
AcDbLine
 10
241.9215130615
 20
88.6197885388
 30
0.0
 11
243.5070748436
 21
87.0241386706
 31
0.0
  0
LINE
  5
E4
330
1F
100
AcDbEntity
  8
0
  6
Continuous
 62
     7
370
    15
100
AcDbLine
 10
241.9215130615
 20
88.6197885388
 30
0.0
 11
241.7223776686
 21
89.2512140685
 31
0.0
  0
ARC
  5
E5
330
1F
100
AcDbEntity
  8
0
  6
Continuous
 62
     7
370
    15
100
AcDbCircle
 10
238.594245522
 20
101.6748396976
 30
0.0
 40
0.3857593896856404
100
AcDbArc
 50
31.2242065658
 51
62.1433497221
  0
SPLINE
  5
E6
330
1F
100
AcDbEntity
  8
0
  6
Continuous
 62
     7
370
    15
100
AcDbSpline
210
0.0
220
0.0
230
1.0
 70
     8
 71
     3
 72
    11
 73
     7
 74
     0
 42
0.00000001
 43
0.00000001
 12
1.0
 22
0.0
 32
0.0
 13
1.0
 23
0.0
 33
0.0
 40
0.0
 40
0.0
 40
0.0
 40
0.0
 40
0.3280480261580362
 40
0.655703865553832
 40
0.9906995290748003
 40
1.0
 40
1.0
 40
1.0
 40
1.0
 10
238.8525704848101
 20
100.3079818451373
 30
0.0
 10
238.7969616594946
 20
100.2604410882267
 30
0.0
 10
238.6858104901207
 20
100.1654164101552
 30
0.0
 10
238.5140306381046
 20
99.99016810501293
 30
0.0
 10
238.4107985894709
 20
99.87124929634382
 30
0.0
 10
238.3642429895513
 20
99.81323961010509
 30
0.0
 10
238.3629853832056
 20
99.81167259454415
 30
0.0
  0
SPLINE
  5
E7
330
1F
100
AcDbEntity
  8
0
  6
Continuous
 62
     7
370
    15
100
AcDbSpline
210
0.0
220
0.0
230
1.0
 70
     8
 71
     3
 72
    11
 73
     7
 74
     0
 42
0.00000001
 43
0.00000001
 12
1.0
 22
0.0
 32
0.0
 13
1.0
 23
0.0
 33
0.0
 40
0.0
 40
0.0
 40
0.0
 40
0.0
 40
0.3280435409350372
 40
0.6557033628180707
 40
0.990697023444486
 40
1.0
 40
1.0
 40
1.0
 40
1.0
 10
230.0652290689279
 20
91.52169841169999
 30
0.0
 10
230.1147572501137
 20
91.57928213393541
 30
0.0
 10
230.2137556783868
 20
91.69438222158144
 30
0.0
 10
230.3881724611765
 20
91.86528306367474
 30
0.0
 10
230.503230991446
 20
91.96464114029787
 30
0.0
 10
230.5584373064263
 20
92.00837332464323
 30
0.0
 10
230.5599289941122
 20
92.00955497860596
 30
0.0
  0
LINE
  5
E8
330
1F
100
AcDbEntity
  8
0
  6
Continuous
 62
     7
370
    15
100
AcDbLine
 10
241.2819514977
 20
88.8108400518
 30
0.0
 11
241.9215130615
 21
88.6197885388
 31
0.0
  0
ARC
  5
E9
330
1F
100
AcDbEntity
  8
0
  6
Continuous
 62
     7
370
    15
100
AcDbCircle
 10
241.5062046605
 20
89.020881232
 30
0.0
 40
0.5117183868126683
100
AcDbArc
 50
134.9351127292
 51
135.1949570889
  0
SPLINE
  5
EA
330
1F
100
AcDbEntity
  8
0
  6
Continuous
 62
     7
370
    15
100
AcDbSpline
210
0.0
220
0.0
230
1.0
 70
     8
 71
     3
 72
    14
 73
    10
 74
     0
 42
0.00000001
 43
0.00000001
 12
1.0
 22
0.0
 32
0.0
 13
1.0
 23
0.0
 33
0.0
 40
0.0
 40
0.0
 40
0.0
 40
0.0
 40
0.223496884720531
 40
0.3567635828659487
 40
0.4531231984008007
 40
0.5344605702937469
 40
0.6157316617371749
 40
0.7396169839146521
 40
1.0
 40
1.0
 40
1.0
 40
1.0
 10
241.7223776685526
 20
89.25121406852887
 30
0.0
 10
241.7023072021763
 20
89.30631026741875
 30
0.0
 10
241.6702691202893
 20
89.39425922179825
 30
0.0
 10
241.5980490178472
 20
89.4898877379059
 30
0.0
 10
241.5311312093772
 20
89.53846501415738
 30
0.0
 10
241.4640499347168
 20
89.5572024769332
 30
0.0
 10
241.3870561682069
 20
89.55129449123004
 30
0.0
 10
241.2710463047327
 20
89.50134080446965
 30
0.0
 10
241.1957776917383
 20
89.43087706486428
 30
0.0
 10
241.1447751330664
 20
89.3831303232877
 30
0.0
  0
SPLINE
  5
EB
330
1F
100
AcDbEntity
  8
0
  6
Continuous
 62
     7
370
    15
100
AcDbSpline
210
0.0
220
0.0
230
1.0
 70
     8
 71
     3
 72
    14
 73
    10
 74
     0
 42
0.00000001
 43
0.00000001
 12
1.0
 22
0.0
 32
0.0
 13
1.0
 23
0.0
 33
0.0
 40
0.0
 40
0.0
 40
0.0
 40
0.0
 40
0.2210586555425789
 40
0.3460784908416898
 40
0.4396026649869987
 40
0.5338889566806503
 40
0.6146576699346624
 40
0.751724882970699
 40
1.0
 40
1.0
 40
1.0
 40
1.0
 10
241.143136005335
 20
89.38148747026608
 30
0.0
 10
241.1027157911289
 20
89.33845630701586
 30
0.0
 10
241.0394359041794
 20
89.27108884745974
 30
0.0
 10
240.9844043304381
 20
89.16688129697553
 30
0.0
 10
240.9682280793055
 20
89.08469256217259
 30
0.0
 10
240.9824814455738
 20
89.0138188528801
 30
0.0
 10
241.0269517096673
 20
88.94438706299123
 30
0.0
 10
241.1235223886546
 20
88.86618102525385
 30
0.0
 10
241.2198730215482
 20
88.83252472401207
 30
0.0
 10
241.2819514977266
 20
88.81084005176709
 30
0.0
  0
ARC
  5
EC
330
1F
100
AcDbEntity
  8
0
  6
Continuous
 62
     7
370
    15
100
AcDbCircle
 10
201.4199999424
 20
108.5915309144
 30
0.0
 40
2.495296751313981
100
AcDbArc
 50
182.3325909508
 51
250.2778615978
  0
ARC
  5
ED
330
1F
100
AcDbEntity
  8
0
  6
Continuous
 62
     7
370
    15
100
AcDbCircle
 10
201.9601173934
 20
108.951422687
 30
0.0
 40
3.041067919332365
100
AcDbArc
 50
242.9669688379
 51
345.6764102539
  0
ARC
  5
EE
330
1F
100
AcDbEntity
  8
0
  6
Continuous
 62
     7
370
    15
100
AcDbCircle
 10
201.3393310522
 20
108.4174756272
 30
0.0
 40
2.257027218371273
100
AcDbArc
 50
161.2987733086
 51
251.9736938589
  0
LWPOLYLINE
  5
EF
330
1F
100
AcDbEntity
  8
0
  6
Continuous
 62
     7
370
    15
100
AcDbPolyline
 90
       12
 70
   128
 43
0.0
 10
204.7274752515
 20
108.8996142039
 10
204.7820824193
 20
108.5510145763
 10
204.7537217843
 20
108.0501353258
 10
204.6018118965
 20
107.5651463011
 10
204.332987498
 20
107.117244404
 10
203.9590018796
 20
106.7260051036
 10
203.4961960273
 20
106.4085274824
 10
202.9648001301
 20
106.1786854529
 10
202.3880376475
 20
106.046526123
 10
201.7911157566
 20
106.0178246239
 10
201.2001208025
 20
106.0938345158
 10
200.6408858108
 20
106.2712356338
  0
LWPOLYLINE
  5
F0
330
1F
100
AcDbEntity
  8
0
  6
Continuous
 62
     7
370
    15
100
AcDbPolyline
 90
       29
 70
   128
 43
0.0
 10
200.802745949
 20
106.5409187117
 10
200.3340243357
 20
106.7976415047
 10
199.9451692211
 20
107.1354014689
 10
199.6556806373
 20
107.5372615719
 10
199.4800741779
 20
107.9830717185
 10
199.4271554979
 20
108.4504755104
 10
199.4995770039
 20
108.9160371461
 10
199.6937084007
 20
109.3564102316
 10
199.9998155045
 20
109.7495121771
 10
200.4025491881
 20
110.0756334031
 10
200.8817109274
 20
110.3184189537
 10
201.413278188
 20
110.4656945804
 10
201.9705946552
 20
110.5100767577
 10
202.5257132011
 20
110.4493386933
 10
203.050796594
 20
110.2865258121
 10
203.5195182072
 20
110.0298030192
 10
203.9083733218
 20
109.692043055
 10
204.1978619056
 20
109.290182952
 10
204.373468365
 20
108.8443737367
 10
204.4263861137
 20
108.3769690135
 10
204.3539646076
 20
107.911408309
 10
204.1598322796
 20
107.4710352236
 10
203.8537270384
 20
107.0779323468
 10
203.4509933548
 20
106.7518111208
 10
202.9718297529
 20
106.5090255702
 10
202.4402643549
 20
106.3617499435
 10
201.8829478877
 20
106.3173677662
 10
201.3278293418
 20
106.3781067619
 10
200.802745949
 20
106.5409187117
  0
SPLINE
  5
F1
330
1F
100
AcDbEntity
  8
0
  6
HIDDEN
 62
     7
370
     0
100
AcDbSpline
210
0.0
220
0.0
230
1.0
 70
     8
 71
     3
 72
    58
 73
    54
 74
     0
 42
0.00000001
 43
0.00000001
 12
1.0
 22
0.0
 32
0.0
 13
1.0
 23
0.0
 33
0.0
 40
-0.0625000000000001
 40
-0.0625000000000001
 40
0.0
 40
0.0
 40
0.03125
 40
0.03125
 40
0.0625
 40
0.0625
 40
0.0937499999999999
 40
0.0937499999999999
 40
0.1249999999999999
 40
0.1249999999999999
 40
0.1874999999999999
 40
0.1874999999999999
 40
0.2499999999999999
 40
0.2499999999999999
 40
0.2812499999999999
 40
0.2812499999999999
 40
0.3124999999999999
 40
0.3124999999999999
 40
0.3437499999999999
 40
0.3437499999999999
 40
0.3749999999999998
 40
0.3749999999999998
 40
0.4062499999999998
 40
0.4062499999999998
 40
0.4374999999999998
 40
0.4374999999999998
 40
0.4687499999999998
 40
0.4687499999999998
 40
0.4999999999999999
 40
0.4999999999999999
 40
0.5625
 40
0.5625
 40
0.625
 40
0.625
 40
0.65625
 40
0.65625
 40
0.6875
 40
0.6875
 40
0.71875
 40
0.71875
 40
0.7499999999999999
 40
0.7499999999999999
 40
0.7812499999999999
 40
0.7812499999999999
 40
0.8124999999999999
 40
0.8124999999999999
 40
0.8437499999999999
 40
0.8437499999999999
 40
0.8749999999999999
 40
0.8749999999999999
 40
0.9374999999999999
 40
0.9374999999999999
 40
1.0
 40
1.0
 40
1.03125
 40
1.03125
 10
193.9267711149981
 20
121.8583593699328
 30
0.0
 10
193.9267711149981
 20
121.4618008141177
 30
0.0
 10
193.9397470070086
 20
121.3318340745729
 30
0.0
 10
193.9905793091145
 20
121.0761547364408
 30
0.0
 10
194.0290563804359
 20
120.9491136445993
 30
0.0
 10
194.1294613415922
 20
120.7069354586588
 30
0.0
 10
194.1908955839116
 20
120.5920818000693
 30
0.0
 10
194.3360298500933
 20
120.3747166782635
 30
0.0
 10
194.4204717712406
 20
120.2718412061792
 30
0.0
 10
194.6971438008505
 20
119.9952232537621
 30
0.0
 10
194.9201899558186
 20
119.8462311339292
 30
0.0
 10
195.4014539543631
 20
119.6467073389379
 30
0.0
 10
195.6647118096829
 20
119.5941284744357
 30
0.0
 10
196.0561778409677
 20
119.5939167008482
 30
0.0
 10
196.1887265845812
 20
119.6069076724375
 30
0.0
 10
196.4452708935964
 20
119.6579438957274
 30
0.0
 10
196.5699667799682
 20
119.6957054371302
 30
0.0
 10
196.8121697504019
 20
119.7958649764236
 30
0.0
 10
196.9292331136525
 20
119.8584627861741
 30
0.0
 10
197.1459194328987
 20
120.0031847702097
 30
0.0
 10
197.2469334009664
 20
120.085808875378
 30
0.0
 10
197.4337265952518
 20
120.272429245989
 30
0.0
 10
197.5165269592061
 20
120.3734776138802
 30
0.0
 10
197.6614053981007
 20
120.5899896347541
 30
0.0
 10
197.7240561814281
 20
120.706878989953
 30
0.0
 10
197.824496575802
 20
120.949136392012
 30
0.0
 10
197.862355587572
 20
121.0737990568273
 30
0.0
 10
197.9135932920354
 20
121.3301302524821
 30
0.0
 10
197.9267236668086
 20
121.4627181918325
 30
0.0
 10
197.9268656172474
 20
121.8543498604019
 30
0.0
 10
197.8745247009994
 20
122.1175626934361
 30
0.0
 10
197.6753944742613
 20
122.5990700241274
 30
0.0
 10
197.526557386619
 20
122.822270505403
 30
0.0
 10
197.2502453500796
 20
123.0991165853647
 30
0.0
 10
197.1474798128283
 20
123.1836286795835
 30
0.0
 10
196.9301628804745
 20
123.329007276315
 30
0.0
 10
196.8153759699377
 20
123.3905227079168
 30
0.0
 10
196.5734564798318
 20
123.4910787681624
 30
0.0
 10
196.4463295773318
 20
123.529717493997
 30
0.0
 10
196.1906607416956
 20
123.5807823608844
 30
0.0
 10
196.0607655363176
 20
123.5938568412606
 30
0.0
 10
195.7966907538932
 20
123.5941152425343
 30
0.0
 10
195.6663616144079
 20
123.5812391745713
 30
0.0
 10
195.4106723002641
 20
123.5306403832433
 30
0.0
 10
195.2837444338764
 20
123.4923350374057
 30
0.0
 10
195.0412921450343
 20
123.3920792049858
 30
0.0
 10
194.9263754510526
 20
123.3307281860737
 30
0.0
 10
194.7089846592822
 20
123.1858593505035
 30
0.0
 10
194.6059993796007
 20
123.1014953972342
 30
0.0
 10
194.3290350119434
 20
122.8249693434481
 30
0.0
 10
194.1799027335849
 20
122.6021095014523
 30
0.0
 10
193.9799506148704
 20
122.1210069813916
 30
0.0
 10
193.9267711149981
 20
121.8583593699328
 30
0.0
 10
193.9267711149981
 20
121.4618008141177
 30
0.0
  0
SPLINE
  5
F2
330
1F
100
AcDbEntity
  8
0
  6
HIDDEN
 62
     7
370
     0
100
AcDbSpline
210
0.0
220
0.0
230
1.0
 70
     8
 71
     3
 72
    12
 73
     8
 74
     0
 42
0.00000001
 43
0.00000001
 12
1.0
 22
0.0
 32
0.0
 13
1.0
 23
0.0
 33
0.0
 40
0.0
 40
0.0
 40
0.0
 40
0.0
 40
0.5000000000000032
 40
0.5000000000000032
 40
0.7500000000000016
 40
0.7500000000000016
 40
1.0
 40
1.0
 40
1.0
 40
1.0
 10
192.0215152266723
 20
113.4975340013452
 30
0.0
 10
192.0522146100396
 20
113.611869668409
 30
0.0
 10
192.0935646781461
 20
113.7232230212504
 30
0.0
 10
192.1933206063655
 20
113.8759597934991
 30
0.0
 10
192.2330175240982
 20
113.9238196793512
 30
0.0
 10
192.3302756757459
 20
113.9984227927007
 30
0.0
 10
192.3910518337366
 20
114.0251770302088
 30
0.0
 10
192.4545279285645
 20
114.0251770302088
 30
0.0
  0
LINE
  5
F3
330
1F
100
AcDbEntity
  8
0
  6
HIDDEN
 62
     7
370
     0
100
AcDbLine
 10
192.4545277836
 20
114.0251768643
 30
0.0
 11
195.3990139993
 21
114.0251768643
 31
0.0
  0
SPLINE
  5
F4
330
1F
100
AcDbEntity
  8
0
  6
HIDDEN
 62
     7
370
     0
100
AcDbSpline
210
0.0
220
0.0
230
1.0
 70
     8
 71
     3
 72
    12
 73
     8
 74
     0
 42
0.00000001
 43
0.00000001
 12
1.0
 22
0.0
 32
0.0
 13
1.0
 23
0.0
 33
0.0
 40
0.0
 40
0.0
 40
0.0
 40
0.0
 40
0.2499999999999993
 40
0.2499999999999993
 40
0.4999999999999987
 40
0.4999999999999987
 40
1.0
 40
1.0
 40
1.0
 40
1.0
 10
195.3990143014316
 20
114.0251770302088
 30
0.0
 10
195.4626795379621
 20
114.0251770302088
 30
0.0
 10
195.5222857701855
 20
113.9991048817291
 30
0.0
 10
195.6209462951163
 20
113.923566130908
 30
0.0
 10
195.6599132851316
 20
113.8763151938118
 30
0.0
 10
195.7593001170561
 20
113.7244913758453
 30
0.0
 10
195.8013763644795
 20
113.6116881260803
 30
0.0
 10
195.8320270033238
 20
113.4975340013452
 30
0.0
  0
ELLIPSE
  5
F5
330
1F
100
AcDbEntity
  8
0
  6
HIDDEN
 62
     7
370
     0
100
AcDbEllipse
 10
182.87051346
 20
121.5939869994
 30
0.0
 11
-11.70927234972715
 21
24.67718644093742
 31
0.0
210
0.0
220
0.0
230
1.0
 40
0.3419987131
 41
3.310521928178959
 42
4.221709151398947
  0
SPLINE
  5
F6
330
1F
100
AcDbEntity
  8
0
  6
HIDDEN
 62
     7
370
     0
100
AcDbSpline
210
0.0
220
0.0
230
1.0
 70
     8
 71
     3
 72
    12
 73
     8
 74
     0
 42
0.00000001
 43
0.00000001
 12
1.0
 22
0.0
 32
0.0
 13
1.0
 23
0.0
 33
0.0
 40
0.0
 40
0.0
 40
0.0
 40
0.0
 40
0.4999999999999982
 40
0.4999999999999982
 40
0.7499999999999991
 40
0.7499999999999991
 40
1.0
 40
1.0
 40
1.0
 40
1.0
 10
195.8320270033238
 20
97.9413455221578
 30
0.0
 10
195.8013276199565
 20
97.90220767976189
 30
0.0
 10
195.75997755185
 20
97.86504789703639
 30
0.0
 10
195.6602216236305
 20
97.81511139140866
 30
0.0
 10
195.6205247058979
 20
97.79965852126489
 30
0.0
 10
195.5232665542502
 20
97.77573897766587
 30
0.0
 10
195.4624903962595
 20
97.76725588388746
 30
0.0
 10
195.3990143014316
 20
97.76725588388746
 30
0.0
  0
LINE
  5
F7
330
1F
100
AcDbEntity
  8
0
  6
HIDDEN
 62
     7
370
     0
100
AcDbLine
 10
195.3990139993
 20
97.7672556305
 30
0.0
 11
192.4545277836
 21
97.7672556305
 31
0.0
  0
SPLINE
  5
F8
330
1F
100
AcDbEntity
  8
0
  6
HIDDEN
 62
     7
370
     0
100
AcDbSpline
210
0.0
220
0.0
230
1.0
 70
     8
 71
     3
 72
    12
 73
     8
 74
     0
 42
0.00000001
 43
0.00000001
 12
1.0
 22
0.0
 32
0.0
 13
1.0
 23
0.0
 33
0.0
 40
0.0
 40
0.0
 40
0.0
 40
0.0
 40
0.25
 40
0.25
 40
0.5
 40
0.5
 40
1.0
 40
1.0
 40
1.0
 40
1.0
 10
192.4545279285645
 20
97.76725588388746
 30
0.0
 10
192.390862692034
 20
97.76725588388746
 30
0.0
 10
192.3312564598106
 20
97.77552065955332
 30
0.0
 10
192.2325959348798
 20
97.79973944113647
 30
0.0
 10
192.1936289448645
 20
97.81499676044562
 30
0.0
 10
192.0942421129401
 20
97.86463011470755
 30
0.0
 10
192.0521658655166
 20
97.90226982288166
 30
0.0
 10
192.0215152266723
 20
97.9413455221578
 30
0.0
  0
ELLIPSE
  5
F9
330
1F
100
AcDbEntity
  8
0
  6
HIDDEN
 62
     7
370
     0
100
AcDbEllipse
 10
204.98302877
 20
121.5939869994
 30
0.0
 11
11.70927234972703
 21
24.67718644093745
 31
0.0
210
0.0
220
0.0
230
1.0
 40
0.3419987131
 41
2.061476155780649
 42
2.972663379000665
  0
SPLINE
  5
FA
330
1F
100
AcDbEntity
  8
0
  6
HIDDEN
 62
     7
370
     0
100
AcDbSpline
210
0.0
220
0.0
230
1.0
 70
     8
 71
     3
 72
    12
 73
     8
 74
     0
 42
0.00000001
 43
0.00000001
 12
1.0
 22
0.0
 32
0.0
 13
1.0
 23
0.0
 33
0.0
 40
0.0
 40
0.0
 40
0.0
 40
0.0
 40
0.5000000000000018
 40
0.5000000000000018
 40
0.7500000000000009
 40
0.7500000000000009
 40
1.0
 40
1.0
 40
1.0
 40
1.0
 10
192.0215152266723
 20
145.2466284766211
 30
0.0
 10
192.0522146100396
 20
145.285766319017
 30
0.0
 10
192.0935646781461
 20
145.3229261017425
 30
0.0
 10
192.1933206063655
 20
145.3728626073703
 30
0.0
 10
192.2330175240982
 20
145.388315477514
 30
0.0
 10
192.3302756757459
 20
145.412235021113
 30
0.0
 10
192.3910518337366
 20
145.4207181148915
 30
0.0
 10
192.4545279285645
 20
145.4207181148914
 30
0.0
  0
LINE
  5
FB
330
1F
100
AcDbEntity
  8
0
  6
HIDDEN
 62
     7
370
     0
100
AcDbLine
 10
192.4545277836
 20
145.4207183683
 30
0.0
 11
195.3990139993
 21
145.4207183683
 31
0.0
  0
SPLINE
  5
FC
330
1F
100
AcDbEntity
  8
0
  6
HIDDEN
 62
     7
370
     0
100
AcDbSpline
210
0.0
220
0.0
230
1.0
 70
     8
 71
     3
 72
    12
 73
     8
 74
     0
 42
0.00000001
 43
0.00000001
 12
1.0
 22
0.0
 32
0.0
 13
1.0
 23
0.0
 33
0.0
 40
0.0
 40
0.0
 40
0.0
 40
0.0
 40
0.2500000000000009
 40
0.2500000000000009
 40
0.5000000000000019
 40
0.5000000000000019
 40
1.0
 40
1.0
 40
1.0
 40
1.0
 10
195.3990143014316
 20
145.4207181148914
 30
0.0
 10
195.4626795379621
 20
145.4207181148914
 30
0.0
 10
195.5222857701855
 20
145.4124533392256
 30
0.0
 10
195.6209462951163
 20
145.3882345576424
 30
0.0
 10
195.6599132851316
 20
145.3729772383333
 30
0.0
 10
195.7593001170561
 20
145.3233438840714
 30
0.0
 10
195.8013763644795
 20
145.2857041758973
 30
0.0
 10
195.8320270033238
 20
145.2466284766211
 30
0.0
  0
ELLIPSE
  5
FD
330
1F
100
AcDbEntity
  8
0
  6
HIDDEN
 62
     7
370
     0
100
AcDbEllipse
 10
182.87051346
 20
121.5939869994
 30
0.0
 11
11.70927234972726
 21
24.67718644093745
 31
0.0
210
0.0
220
0.0
230
1.0
 40
0.3419987131
 41
5.20306880937047
 42
6.114256032590515
  0
SPLINE
  5
FE
330
1F
100
AcDbEntity
  8
0
  6
HIDDEN
 62
     7
370
     0
100
AcDbSpline
210
0.0
220
0.0
230
1.0
 70
     8
 71
     3
 72
    12
 73
     8
 74
     0
 42
0.00000001
 43
0.00000001
 12
1.0
 22
0.0
 32
0.0
 13
1.0
 23
0.0
 33
0.0
 40
0.0
 40
0.0
 40
0.0
 40
0.0
 40
0.5000000000000013
 40
0.5000000000000013
 40
0.7500000000000007
 40
0.7500000000000007
 40
1.0
 40
1.0
 40
1.0
 40
1.0
 10
195.8320270033238
 20
129.690439997434
 30
0.0
 10
195.8013276199565
 20
129.5761043303701
 30
0.0
 10
195.75997755185
 20
129.4647509775288
 30
0.0
 10
195.6602216236305
 20
129.31201420528
 30
0.0
 10
195.6205247058979
 20
129.2641543194279
 30
0.0
 10
195.5232665542502
 20
129.1895512060784
 30
0.0
 10
195.4624903962595
 20
129.1627969685703
 30
0.0
 10
195.3990143014316
 20
129.1627969685703
 30
0.0
  0
LINE
  5
FF
330
1F
100
AcDbEntity
  8
0
  6
HIDDEN
 62
     7
370
     0
100
AcDbLine
 10
195.3990139993
 20
129.1627971345
 30
0.0
 11
192.4545277836
 21
129.1627971345
 31
0.0
  0
SPLINE
  5
100
330
1F
100
AcDbEntity
  8
0
  6
HIDDEN
 62
     7
370
     0
100
AcDbSpline
210
0.0
220
0.0
230
1.0
 70
     8
 71
     3
 72
    12
 73
     8
 74
     0
 42
0.00000001
 43
0.00000001
 12
1.0
 22
0.0
 32
0.0
 13
1.0
 23
0.0
 33
0.0
 40
0.0
 40
0.0
 40
0.0
 40
0.0
 40
0.2499999999999993
 40
0.2499999999999993
 40
0.4999999999999987
 40
0.4999999999999987
 40
1.0
 40
1.0
 40
1.0
 40
1.0
 10
192.4545279285645
 20
129.1627969685703
 30
0.0
 10
192.390862692034
 20
129.1627969685703
 30
0.0
 10
192.3312564598106
 20
129.18886911705
 30
0.0
 10
192.2325959348798
 20
129.2644078678711
 30
0.0
 10
192.1936289448645
 20
129.3116588049674
 30
0.0
 10
192.0942421129401
 20
129.4634826229338
 30
0.0
 10
192.0521658655166
 20
129.5762858726988
 30
0.0
 10
192.0215152266723
 20
129.6904399974339
 30
0.0
  0
ELLIPSE
  5
101
330
1F
100
AcDbEntity
  8
0
  6
HIDDEN
 62
     7
370
     0
100
AcDbEllipse
 10
204.98302877
 20
121.5939869994
 30
0.0
 11
-11.70927234972711
 21
24.67718644093745
 31
0.0
210
0.0
220
0.0
230
1.0
 40
0.3419987131
 41
0.1689292745891163
 42
1.08011649780913
  0
LINE
  5
102
330
1F
100
AcDbEntity
  8
0
  6
HIDDEN
 62
     7
370
     0
100
AcDbLine
 10
183.926771115
 20
96.8939861172
 30
0.0
 11
183.926771115
 21
146.2939878815
 31
0.0
  0
LWPOLYLINE
  5
103
330
1F
100
AcDbEntity
  8
0
  6
HIDDEN
 62
     7
370
     0
100
AcDbPolyline
 90
       24
 70
   128
 43
0.0
 10
204.8231295305
 20
112.4460998812
 10
204.6037192451
 20
112.9262395093
 10
204.272501822
 20
113.3589431533
 10
203.8433111268
 20
113.7261375675
 10
203.3340732562
 20
114.0124866629
 10
202.7660577553
 20
114.2060299294
 10
202.1629872727
 20
114.2986844183
 10
201.5500503587
 20
114.2865800188
 10
200.952849071
 20
114.170222439
 10
200.396324228
 20
113.9544713201
 10
199.9037216412
 20
113.6483376735
 10
199.4956142264
 20
113.2646085584
 10
199.1890489119
 20
112.8193097079
 10
198.9968276578
 20
112.3310405651
 10
198.9269803273
 20
111.8201943004
 10
198.9824238228
 20
111.3081065828
 10
199.1608428764
 20
110.8161670977
 10
199.4547850447
 20
110.3649208212
 10
199.8519736337
 20
109.9732158595
 10
200.335818063
 20
109.6574118251
 10
200.8861123579
 20
109.4306990394
 10
201.4798714774
 20
109.3025453278
 10
202.092296164
 20
109.2783048639
 10
202.6978067117
 20
109.3589899951
  0
SPLINE
  5
104
330
1F
100
AcDbEntity
  8
0
  6
HIDDEN
 62
     7
370
     0
100
AcDbSpline
210
0.0
220
0.0
230
1.0
 70
     8
 71
     3
 72
    26
 73
    22
 74
     0
 42
0.00000001
 43
0.00000001
 12
1.0
 22
0.0
 32
0.0
 13
1.0
 23
0.0
 33
0.0
 40
0.0
 40
0.0
 40
0.0
 40
0.0
 40
0.1249999999999996
 40
0.1249999999999996
 40
0.2499999999999992
 40
0.2499999999999992
 40
0.3749999999999988
 40
0.3749999999999988
 40
0.4374999999999987
 40
0.4374999999999987
 40
0.4999999999999987
 40
0.4999999999999987
 40
0.5624999999999986
 40
0.5624999999999986
 40
0.6249999999999984
 40
0.6249999999999984
 40
0.749999999999999
 40
0.749999999999999
 40
0.8749999999999994
 40
0.8749999999999994
 40
1.0
 40
1.0
 40
1.0
 40
1.0
 10
204.8231301167377
 20
112.4460997820638
 30
0.0
 10
204.8634469743294
 20
112.2260055874526
 30
0.0
 10
204.8948754160091
 20
112.0026214583214
 30
0.0
 10
204.9294225320238
 20
111.5488977448101
 30
0.0
 10
204.9326789884098
 20
111.3161519804443
 30
0.0
 10
204.8972148155479
 20
110.8525479462972
 30
0.0
 10
204.8589393332749
 20
110.6249023711298
 30
0.0
 10
204.760680770605
 20
110.2987729242518
 30
0.0
 10
204.7217561216247
 20
110.1949102105434
 30
0.0
 10
204.6306120999706
 20
109.9975892293557
 30
0.0
 10
204.5777163176497
 20
109.9031949104969
 30
0.0
 10
204.4605713077108
 20
109.7311850508427
 30
0.0
 10
204.3967740178513
 20
109.6538138252645
 30
0.0
 10
204.2591767444074
 20
109.5158818210669
 30
0.0
 10
204.1845742663922
 20
109.4549118090648
 30
0.0
 10
203.9542488725618
 20
109.3026408157137
 30
0.0
 10
203.7884969673279
 20
109.2392920838488
 30
0.0
 10
203.460373538117
 20
109.1792876476678
 30
0.0
 10
203.2969149218449
 20
109.1813777673458
 30
0.0
 10
202.9819657024249
 20
109.2358607230061
 30
0.0
 10
202.8333534023271
 20
109.2874874723236
 30
0.0
 10
202.6978072209082
 20
109.3589900211409
 30
0.0
  0
LINE
  5
105
330
1F
100
AcDbEntity
  8
0
  6
HIDDEN
 62
     7
370
     0
100
AcDbLine
 10
183.926771115
 20
102.0439876133
 30
0.0
 11
183.926771115
 21
141.128530156
 31
0.0
  0
SPLINE
  5
106
330
1F
100
AcDbEntity
  8
0
  6
HIDDEN
 62
     7
370
     0
100
AcDbSpline
210
0.0
220
0.0
230
1.0
 70
     8
 71
     3
 72
    14
 73
    10
 74
     0
 42
0.00000001
 43
0.00000001
 12
1.0
 22
0.0
 32
0.0
 13
1.0
 23
0.0
 33
0.0
 40
0.0
 40
0.0
 40
0.0
 40
0.0
 40
0.25
 40
0.25
 40
0.5
 40
0.5
 40
0.75
 40
0.75
 40
1.0
 40
1.0
 40
1.0
 40
1.0
 10
182.8859100868697
 20
133.8884625444628
 30
0.0
 10
182.9176252212004
 20
133.8306793621197
 30
0.0
 10
182.9522397465008
 20
133.7742667010447
 30
0.0
 10
183.0319109419161
 20
133.6666672510293
 30
0.0
 10
183.0769668189465
 20
133.6147546241083
 30
0.0
 10
183.1875212314519
 20
133.528555999411
 30
0.0
 10
183.2549066456561
 20
133.4944665794393
 30
0.0
 10
183.4055361655541
 20
133.4923641874225
 30
0.0
 10
183.4753634023195
 20
133.5257359602672
 30
0.0
 10
183.5317942261229
 20
133.5695486288179
 30
0.0
  0
SPLINE
  5
107
330
1F
100
AcDbEntity
  8
0
  6
HIDDEN
 62
     7
370
     0
100
AcDbSpline
210
0.0
220
0.0
230
1.0
 70
     8
 71
     3
 72
    16
 73
    12
 74
     0
 42
0.00000001
 43
0.00000001
 12
1.0
 22
0.0
 32
0.0
 13
1.0
 23
0.0
 33
0.0
 40
0.0
 40
0.0
 40
0.0
 40
0.0
 40
0.0625000000000005
 40
0.0625000000000005
 40
0.1250000000000011
 40
0.1250000000000011
 40
0.250000000000002
 40
0.250000000000002
 40
0.4999999999999997
 40
0.4999999999999997
 40
1.0
 40
1.0
 40
1.0
 40
1.0
 10
183.5317942260912
 20
133.5695486288485
 30
0.0
 10
183.5435284605381
 20
133.5786590420964
 30
0.0
 10
183.557060216017
 20
133.5867363980428
 30
0.0
 10
183.5870476764469
 20
133.5949832397198
 30
0.0
 10
183.6020423828552
 20
133.5940559221322
 30
0.0
 10
183.6377828052499
 20
133.5812894026004
 30
0.0
 10
183.6517961422512
 20
133.5636407560901
 30
0.0
 10
183.6859402310325
 20
133.5089878360585
 30
0.0
 10
183.6969121351509
 20
133.4675881684001
 30
0.0
 10
183.7227576754171
 20
133.3390984246773
 30
0.0
 10
183.7267711149981
 20
133.2484803370385
 30
0.0
 10
183.7267711149981
 20
133.1562612324845
 30
0.0
  0
LINE
  5
108
330
1F
100
AcDbEntity
  8
0
  6
HIDDEN
 62
     7
370
     0
100
AcDbLine
 10
183.7267711201
 20
110.0317131618
 30
0.0
 11
183.7267711201
 21
133.156260837
 31
0.0
  0
SPLINE
  5
109
330
1F
100
AcDbEntity
  8
0
  6
HIDDEN
 62
     7
370
     0
100
AcDbSpline
210
0.0
220
0.0
230
1.0
 70
     8
 71
     3
 72
    16
 73
    12
 74
     0
 42
0.00000001
 43
0.00000001
 12
1.0
 22
0.0
 32
0.0
 13
1.0
 23
0.0
 33
0.0
 40
0.0
 40
0.0
 40
0.0
 40
0.0
 40
0.4999999999999989
 40
0.4999999999999989
 40
0.7499999999999983
 40
0.7499999999999983
 40
0.8750000000000001
 40
0.8750000000000001
 40
0.9375
 40
0.9375
 40
1.0
 40
1.0
 40
1.0
 40
1.0
 10
183.7267711149981
 20
110.0317127662943
 30
0.0
 10
183.7267711149981
 20
109.9391289153904
 30
0.0
 10
183.722713812883
 20
109.8489164595301
 30
0.0
 10
183.6970565700882
 20
109.7209753324118
 30
0.0
 10
183.6857411243461
 20
109.6785621179999
 30
0.0
 10
183.6517097570374
 20
109.6242480745487
 30
0.0
 10
183.6378307758337
 20
109.6066667391588
 30
0.0
 10
183.6018950940663
 20
109.5938830512239
 30
0.0
 10
183.5869447748035
 20
109.5930075530758
 30
0.0
 10
183.5570462620617
 20
109.6012529881952
 30
0.0
 10
183.5435134016964
 20
109.6093266483669
 30
0.0
 10
183.5317942261224
 20
109.618425369961
 30
0.0
  0
SPLINE
  5
10A
330
1F
100
AcDbEntity
  8
0
  6
HIDDEN
 62
     7
370
     0
100
AcDbSpline
210
0.0
220
0.0
230
1.0
 70
     8
 71
     3
 72
    14
 73
    10
 74
     0
 42
0.00000001
 43
0.00000001
 12
1.0
 22
0.0
 32
0.0
 13
1.0
 23
0.0
 33
0.0
 40
0.0
 40
0.0
 40
0.0
 40
0.0
 40
0.25
 40
0.25
 40
0.5
 40
0.5
 40
0.75
 40
0.75
 40
1.0
 40
1.0
 40
1.0
 40
1.0
 10
183.5317942261293
 20
109.6184253699695
 30
0.0
 10
183.4753384615204
 20
109.6622574024643
 30
0.0
 10
183.4044728352706
 20
109.6955884388861
 30
0.0
 10
183.256015754098
 20
109.6935294287387
 30
0.0
 10
183.1868223947904
 20
109.658933404337
 30
0.0
 10
183.0771069566563
 20
109.5732680476741
 30
0.0
 10
183.0318623773249
 20
109.5212456029661
 30
0.0
 10
182.9522356679011
 20
109.4136973426362
 30
0.0
 10
182.9176255193676
 20
109.3572951799032
 30
0.0
 10
182.8859100868684
 20
109.2995114543137
 30
0.0
  0
SPLINE
  5
10B
330
1F
100
AcDbEntity
  8
0
  6
HIDDEN
 62
     7
370
     0
100
AcDbSpline
210
0.0
220
0.0
230
1.0
 70
     8
 71
     3
 72
    10
 73
     6
 74
     0
 42
0.00000001
 43
0.00000001
 12
1.0
 22
0.0
 32
0.0
 13
1.0
 23
0.0
 33
0.0
 40
0.0
 40
0.0
 40
0.0
 40
0.0
 40
0.5
 40
0.5
 40
1.0
 40
1.0
 40
1.0
 40
1.0
 10
182.885910086869
 20
109.2995114543147
 30
0.0
 10
182.8141302989455
 20
109.1687327374128
 30
0.0
 10
182.7616707846375
 20
109.0346325879096
 30
0.0
 10
182.6723277205363
 20
108.7665400249209
 30
0.0
 10
182.6363321110366
 20
108.632294653332
 30
0.0
 10
182.6054507714385
 20
108.498940275857
 30
0.0
  0
SPLINE
  5
10C
330
1F
100
AcDbEntity
  8
0
  6
HIDDEN
 62
     7
370
     0
100
AcDbSpline
210
0.0
220
0.0
230
1.0
 70
     8
 71
     3
 72
    10
 73
     6
 74
     0
 42
0.00000001
 43
0.00000001
 12
1.0
 22
0.0
 32
0.0
 13
1.0
 23
0.0
 33
0.0
 40
0.0
 40
0.0
 40
0.0
 40
0.0
 40
0.5
 40
0.5
 40
1.0
 40
1.0
 40
1.0
 40
1.0
 10
182.6054507714385
 20
104.2970771313846
 30
0.0
 10
182.6363238032507
 20
104.2807939840174
 30
0.0
 10
182.6723106661636
 20
104.2685363942919
 30
0.0
 10
182.7616452520548
 20
104.2514334054631
 30
0.0
 10
182.8141011114774
 20
104.2466338096048
 30
0.0
 10
182.8859100868697
 20
104.2448297181969
 30
0.0
  0
SPLINE
  5
10D
330
1F
100
AcDbEntity
  8
0
  6
HIDDEN
 62
     7
370
     0
100
AcDbSpline
210
0.0
220
0.0
230
1.0
 70
     8
 71
     3
 72
     8
 73
     4
 74
     0
 42
0.00000001
 43
0.00000001
 12
1.0
 22
0.0
 32
0.0
 13
1.0
 23
0.0
 33
0.0
 40
0.0
 40
0.0
 40
0.0
 40
0.0
 40
1.0
 40
1.0
 40
1.0
 40
1.0
 10
183.7090744916231
 20
104.1189453399498
 30
0.0
 10
183.7230613001652
 20
104.0907049493681
 30
0.0
 10
183.7267711149978
 20
104.0675729065573
 30
0.0
 10
183.7267711149981
 20
104.0472325337222
 30
0.0
  0
LINE
  5
10E
330
1F
100
AcDbEntity
  8
0
  6
HIDDEN
 62
     7
370
     0
100
AcDbLine
 10
183.7267711201
 20
103.7541659439
 30
0.0
 11
183.7267711201
 21
104.047232669
 31
0.0
  0
LINE
  5
10F
330
1F
100
AcDbEntity
  8
0
  6
HIDDEN
 62
     7
370
     0
100
AcDbLine
 10
183.7267711201
 20
139.1407413298
 30
0.0
 11
183.7267711201
 21
139.4338080549
 31
0.0
  0
SPLINE
  5
110
330
1F
100
AcDbEntity
  8
0
  6
HIDDEN
 62
     7
370
     0
100
AcDbSpline
210
0.0
220
0.0
230
1.0
 70
     8
 71
     3
 72
    10
 73
     6
 74
     0
 42
0.00000001
 43
0.00000001
 12
1.0
 22
0.0
 32
0.0
 13
1.0
 23
0.0
 33
0.0
 40
0.0
 40
0.0
 40
0.0
 40
0.0
 40
0.5
 40
0.5
 40
1.0
 40
1.0
 40
1.0
 40
1.0
 10
182.8859100868705
 20
138.943144280582
 30
0.0
 10
182.8141011114779
 20
138.9413401891741
 30
0.0
 10
182.7616452520552
 20
138.9365405933157
 30
0.0
 10
182.6723106661638
 20
138.919437604487
 30
0.0
 10
182.6363238032507
 20
138.9071800147614
 30
0.0
 10
182.6054507714385
 20
138.8908968673942
 30
0.0
  0
SPLINE
  5
111
330
1F
100
AcDbEntity
  8
0
  6
HIDDEN
 62
     7
370
     0
100
AcDbSpline
210
0.0
220
0.0
230
1.0
 70
     8
 71
     3
 72
    10
 73
     6
 74
     0
 42
0.00000001
 43
0.00000001
 12
1.0
 22
0.0
 32
0.0
 13
1.0
 23
0.0
 33
0.0
 40
0.0
 40
0.0
 40
0.0
 40
0.0
 40
0.5
 40
0.5
 40
1.0
 40
1.0
 40
1.0
 40
1.0
 10
182.6054507714385
 20
134.6890337229219
 30
0.0
 10
182.6363321110366
 20
134.5556793454466
 30
0.0
 10
182.6723277205364
 20
134.4214339738575
 30
0.0
 10
182.7616707846378
 20
134.1533414108683
 30
0.0
 10
182.814130298946
 20
134.0192412613649
 30
0.0
 10
182.8859100868697
 20
133.8884625444628
 30
0.0
  0
LINE
  5
112
330
1F
100
AcDbEntity
  8
0
  6
HIDDEN
 62
     7
370
     0
100
AcDbLine
 10
183.7267711201
 20
104.047232669
 30
0.0
 11
183.7267711201
 21
115.6095069723
 31
0.0
  0
LINE
  5
113
330
1F
100
AcDbEntity
  8
0
  6
HIDDEN
 62
     7
370
     0
100
AcDbLine
 10
183.7267711201
 20
127.5784670265
 30
0.0
 11
183.7267711201
 21
139.1407413298
 31
0.0
  0
SPLINE
  5
114
330
1F
100
AcDbEntity
  8
0
  6
HIDDEN
 62
     7
370
     0
100
AcDbSpline
210
0.0
220
0.0
230
1.0
 70
     8
 71
     3
 72
     8
 73
     4
 74
     0
 42
0.00000001
 43
0.00000001
 12
1.0
 22
0.0
 32
0.0
 13
1.0
 23
0.0
 33
0.0
 40
0.0
 40
0.0
 40
0.0
 40
0.0
 40
1.0
 40
1.0
 40
1.0
 40
1.0
 10
203.9258270781252
 20
113.2131712513378
 30
0.0
 10
204.2404955396952
 20
112.9850614872899
 30
0.0
 10
204.5408591874308
 20
112.7241784052306
 30
0.0
 10
204.8231301167377
 20
112.4460997820638
 30
0.0
  0
LWPOLYLINE
  5
115
330
1F
100
AcDbEntity
  8
0
  6
HIDDEN
 62
     7
370
     0
100
AcDbPolyline
 90
       19
 70
   128
 43
0.0
 10
203.9258263069
 20
113.2131716126
 10
203.5384817975
 20
113.556911599
 10
203.0691287475
 20
113.8190961333
 10
202.5416462677
 20
113.9863821568
 10
201.9828769373
 20
114.0502587782
 10
201.4212521719
 20
114.0074752161
 10
200.885350536
 20
113.860208437
 10
200.4024411547
 20
113.6159518623
 10
199.9970941799
 20
113.2871353888
 10
199.6899384069
 20
112.8904888296
 10
199.4965995657
 20
112.4461958075
 10
199.4269180106
 20
111.9768632466
 10
199.4844383555
 20
111.5063730517
 10
199.6662343847
 20
111.058665801
 10
199.9630543398
 20
110.6565216446
 10
200.3597977566
 20
110.3204045334
 10
200.836271699
 20
110.067416344
 10
201.3682375657
 20
109.9104298168
 10
201.9286218094
 20
109.8574347684
  0
SPLINE
  5
116
330
1F
100
AcDbEntity
  8
0
  6
HIDDEN
 62
     7
370
     0
100
AcDbSpline
210
0.0
220
0.0
230
1.0
 70
     8
 71
     3
 72
     8
 73
     4
 74
     0
 42
0.00000001
 43
0.00000001
 12
1.0
 22
0.0
 32
0.0
 13
1.0
 23
0.0
 33
0.0
 40
0.0
 40
0.0
 40
0.0
 40
0.0
 40
1.0
 40
1.0
 40
1.0
 40
1.0
 10
202.6978072209083
 20
109.3589900211409
 30
0.0
 10
202.4388512462539
 20
109.5218796999566
 30
0.0
 10
202.1831209889828
 20
109.6891483371224
 30
0.0
 10
201.9286216380623
 20
109.857434597513
 30
0.0
  0
SPLINE
  5
117
330
1F
100
AcDbEntity
  8
0
  6
HIDDEN
 62
     7
370
     0
100
AcDbSpline
210
0.0
220
0.0
230
1.0
 70
     8
 71
     3
 72
    12
 73
     8
 74
     0
 42
0.00000001
 43
0.00000001
 12
1.0
 22
0.0
 32
0.0
 13
1.0
 23
0.0
 33
0.0
 40
0.0
 40
0.0
 40
0.0
 40
0.0
 40
0.5000000000000019
 40
0.5000000000000019
 40
0.7500000000000019
 40
0.7500000000000019
 40
1.0
 40
1.0
 40
1.0
 40
1.0
 10
202.8305328143019
 20
115.2468799816917
 30
0.0
 10
202.674325824756
 20
115.1042186392601
 30
0.0
 10
202.5335515613545
 20
114.9357505291482
 30
0.0
 10
202.4472151129181
 20
114.6334745994806
 30
0.0
 10
202.4411742274133
 20
114.5257145799103
 30
0.0
 10
202.4666462759305
 20
114.3089074095052
 30
0.0
 10
202.4968079976342
 20
114.1983143919048
 30
0.0
 10
202.5358824947155
 20
114.0855342605813
 30
0.0
  0
SPLINE
  5
118
330
1F
100
AcDbEntity
  8
0
  6
HIDDEN
 62
     7
370
     0
100
AcDbSpline
210
0.0
220
0.0
230
1.0
 70
     8
 71
     3
 72
    48
 73
    44
 74
     0
 42
0.00000001
 43
0.00000001
 12
1.0
 22
0.0
 32
0.0
 13
1.0
 23
0.0
 33
0.0
 40
0.0
 40
0.0
 40
0.0
 40
0.0
 40
0.0625
 40
0.0625
 40
0.0937499999999999
 40
0.0937499999999999
 40
0.1249999999999998
 40
0.1249999999999998
 40
0.1562499999999996
 40
0.1562499999999996
 40
0.1874999999999994
 40
0.1874999999999994
 40
0.2499999999999992
 40
0.2499999999999992
 40
0.3124999999999989
 40
0.3124999999999989
 40
0.3749999999999986
 40
0.3749999999999986
 40
0.4374999999999983
 40
0.4374999999999983
 40
0.4687499999999982
 40
0.4687499999999982
 40
0.499999999999998
 40
0.499999999999998
 40
0.5624999999999981
 40
0.5624999999999981
 40
0.6249999999999984
 40
0.6249999999999984
 40
0.6874999999999987
 40
0.6874999999999987
 40
0.7499999999999989
 40
0.7499999999999989
 40
0.8124999999999992
 40
0.8124999999999992
 40
0.8749999999999994
 40
0.8749999999999994
 40
0.9062499999999996
 40
0.9062499999999996
 40
0.9374999999999998
 40
0.9374999999999998
 40
0.9687499999999999
 40
0.9687499999999999
 40
1.0
 40
1.0
 40
1.0
 40
1.0
 10
201.9286216380623
 20
109.857434597513
 30
0.0
 10
201.7951718317445
 20
109.9478219297715
 30
0.0
 10
201.6717239573643
 20
110.0510677130105
 30
0.0
 10
201.5177502161825
 20
110.2219526892581
 30
0.0
 10
201.4725002744021
 20
110.2808650702189
 30
0.0
 10
201.4019918575738
 20
110.4011394781403
 30
0.0
 10
201.376830383397
 20
110.4634010067749
 30
0.0
 10
201.3617205365942
 20
110.5813831283027
 30
0.0
 10
201.3723642371914
 20
110.6382281749986
 30
0.0
 10
201.4269261002931
 20
110.7398980811885
 30
0.0
 10
201.4703998063364
 20
110.7861785146756
 30
0.0
 10
201.6260095661761
 20
110.9153950481762
 30
0.0
 10
201.762790335214
 20
110.9927105625297
 30
0.0
 10
202.0553492848247
 20
111.1574316385958
 30
0.0
 10
202.2118757976141
 20
111.2435135311952
 30
0.0
 10
202.5373037763545
 20
111.4358144633373
 30
0.0
 10
202.7076581115435
 20
111.5427037376134
 30
0.0
 10
203.0432814051971
 20
111.7751395049015
 30
0.0
 10
203.2127026158176
 20
111.9034586504443
 30
0.0
 10
203.4544331367514
 20
112.1099261650056
 30
0.0
 10
203.5325264537211
 20
112.1806518552958
 30
0.0
 10
203.6831799300105
 20
112.3264225780183
 30
0.0
 10
203.7563934575217
 20
112.4022148986668
 30
0.0
 10
203.9610251610042
 20
112.6310570614319
 30
0.0
 10
204.0775786841448
 20
112.7851219293478
 30
0.0
 10
204.2654659816186
 20
113.0936936180986
 30
0.0
 10
204.3325151213353
 20
113.2410038067416
 30
0.0
 10
204.4166044130828
 20
113.5222307026714
 30
0.0
 10
204.432222199567
 20
113.6507437460325
 30
0.0
 10
204.4180950182518
 20
113.8898889350079
 30
0.0
 10
204.3885766501926
 20
113.9962324720122
 30
0.0
 10
204.2911463490171
 20
114.1907657101551
 30
0.0
 10
204.2222519374565
 20
114.279455678756
 30
0.0
 10
204.0488888507884
 20
114.443154296322
 30
0.0
 10
203.9452383508517
 20
114.5178403388192
 30
0.0
 10
203.7507943177355
 20
114.6413107071921
 30
0.0
 10
203.6791854379617
 20
114.6846408503687
 30
0.0
 10
203.5242876530468
 20
114.7796394066718
 30
0.0
 10
203.4387334729555
 20
114.8330196002421
 30
0.0
 10
203.2650583636085
 20
114.9467299233195
 30
0.0
 10
203.1749159057628
 20
115.0083272800743
 30
0.0
 10
203.0009621487723
 20
115.1288996032833
 30
0.0
 10
202.9156718665736
 20
115.1886546277238
 30
0.0
 10
202.8305328143025
 20
115.2468799816927
 30
0.0
  0
SPLINE
  5
119
330
1F
100
AcDbEntity
  8
0
  6
HIDDEN
 62
     7
370
     0
100
AcDbSpline
210
0.0
220
0.0
230
1.0
 70
     8
 71
     3
 72
    16
 73
    12
 74
     0
 42
0.00000001
 43
0.00000001
 12
1.0
 22
0.0
 32
0.0
 13
1.0
 23
0.0
 33
0.0
 40
0.0
 40
0.0
 40
0.0
 40
0.0
 40
0.25
 40
0.25
 40
0.375
 40
0.375
 40
0.5
 40
0.5
 40
0.75
 40
0.75
 40
1.0
 40
1.0
 40
1.0
 40
1.0
 10
202.5358824947155
 20
114.0855342605813
 30
0.0
 10
202.6699034128356
 20
114.0943080388588
 30
0.0
 10
202.8030043965394
 20
114.0903690224605
 30
0.0
 10
203.0065192430272
 20
114.0494122816467
 30
0.0
 10
203.0736062695333
 20
114.0299573568118
 30
0.0
 10
203.206667111288
 20
113.9762543528025
 30
0.0
 10
203.2733098939416
 20
113.9413100592587
 30
0.0
 10
203.4607636465286
 20
113.8179538838876
 30
0.0
 10
203.5734326201194
 20
113.7085355971565
 30
0.0
 10
203.7668713594216
 20
113.4734447512227
 30
0.0
 10
203.8509120061781
 20
113.3456877744322
 30
0.0
 10
203.9258270781252
 20
113.2131712513378
 30
0.0
  0
SPLINE
  5
11A
330
1F
100
AcDbEntity
  8
0
  6
HIDDEN
 62
     7
370
     0
100
AcDbSpline
210
0.0
220
0.0
230
1.0
 70
     8
 71
     3
 72
    66
 73
    62
 74
     0
 42
0.00000001
 43
0.00000001
 12
1.0
 22
0.0
 32
0.0
 13
1.0
 23
0.0
 33
0.0
 40
-0.03125
 40
-0.03125
 40
0.0
 40
0.0
 40
0.03125
 40
0.03125
 40
0.0625
 40
0.0625
 40
0.09375
 40
0.09375
 40
0.125
 40
0.125
 40
0.1875000000000001
 40
0.1875000000000001
 40
0.21875
 40
0.21875
 40
0.2499999999999999
 40
0.2499999999999999
 40
0.2812499999999998
 40
0.2812499999999998
 40
0.3124999999999997
 40
0.3124999999999997
 40
0.3437499999999996
 40
0.3437499999999996
 40
0.3749999999999995
 40
0.3749999999999995
 40
0.4062499999999994
 40
0.4062499999999994
 40
0.4374999999999993
 40
0.4374999999999993
 40
0.4687499999999992
 40
0.4687499999999992
 40
0.4999999999999991
 40
0.4999999999999991
 40
0.531249999999999
 40
0.531249999999999
 40
0.5624999999999989
 40
0.5624999999999989
 40
0.5937499999999988
 40
0.5937499999999988
 40
0.6249999999999987
 40
0.6249999999999987
 40
0.6874999999999989
 40
0.6874999999999989
 40
0.718749999999999
 40
0.718749999999999
 40
0.7499999999999991
 40
0.7499999999999991
 40
0.7812499999999993
 40
0.7812499999999993
 40
0.8124999999999994
 40
0.8124999999999994
 40
0.8437499999999996
 40
0.8437499999999996
 40
0.8749999999999997
 40
0.8749999999999997
 40
0.9062499999999998
 40
0.9062499999999998
 40
0.9374999999999999
 40
0.9374999999999999
 40
0.96875
 40
0.96875
 40
1.0
 40
1.0
 40
1.03125
 40
1.03125
 10
201.7602182072414
 20
115.7908628719795
 30
0.0
 10
202.0933240227549
 20
115.7908628719795
 30
0.0
 10
202.2568149763447
 20
115.8013492800867
 30
0.0
 10
202.5780171217137
 20
115.8426863932859
 30
0.0
 10
202.73742947927
 20
115.8740965173577
 30
0.0
 10
203.0394682064104
 20
115.9566431968011
 30
0.0
 10
203.1825162437721
 20
116.0075330862653
 30
0.0
 10
203.4532494657229
 20
116.1300620982809
 30
0.0
 10
203.5803189806895
 20
116.2017938650507
 30
0.0
 10
203.9233269916623
 20
116.4425308990362
 30
0.0
 10
204.1091592530662
 20
116.643597927319
 30
0.0
 10
204.2969646162249
 20
116.9886561603788
 30
0.0
 10
204.3457046930033
 20
117.1130394700154
 30
0.0
 10
204.410468745118
 20
117.3722731390032
 30
0.0
 10
204.4266608556521
 20
117.5059946500235
 30
0.0
 10
204.4268802628189
 20
117.7819174603149
 30
0.0
 10
204.4103321687855
 20
117.9251633511235
 30
0.0
 10
204.3459030150819
 20
118.206928542102
 30
0.0
 10
204.2982445458969
 20
118.3469502684188
 30
0.0
 10
204.1715485780982
 20
118.6244526765929
 30
0.0
 10
204.0939749922993
 20
118.7584584773796
 30
0.0
 10
203.9133683661191
 20
119.0132362529935
 30
0.0
 10
203.8088153170035
 20
119.1357016110712
 30
0.0
 10
203.5788066766593
 20
119.3599279568178
 30
0.0
 10
203.4539266182844
 20
119.4616427862553
 30
0.0
 10
203.1840270466546
 20
119.6428690751472
 30
0.0
 10
203.0379306801716
 20
119.722489543034
 30
0.0
 10
202.737218056363
 20
119.8503741278387
 30
0.0
 10
202.5812703680056
 20
119.8997582871357
 30
0.0
 10
202.2574905042571
 20
119.9670658708469
 30
0.0
 10
202.0917921605071
 20
119.9841474142529
 30
0.0
 10
201.7637482804998
 20
119.9842835944037
 30
0.0
 10
201.598422729163
 20
119.9674097875263
 30
0.0
 10
201.2740942731527
 20
119.9002841865437
 30
0.0
 10
201.117741472291
 20
119.8509070523772
 30
0.0
 10
200.8160252940618
 20
119.7227348868953
 30
0.0
 10
200.6699347643472
 20
119.6431050672042
 30
0.0
 10
200.4002209869421
 20
119.4620948360003
 30
0.0
 10
200.275039653299
 20
119.360251316143
 30
0.0
 10
199.9284291128714
 20
119.0222735872344
 30
0.0
 10
199.745286277983
 20
118.7629341585635
 30
0.0
 10
199.5556197178438
 20
118.3477296826866
 30
0.0
 10
199.5079819704152
 20
118.2080003435084
 30
0.0
 10
199.4434637354831
 20
117.926695953348
 30
0.0
 10
199.4267666297413
 20
117.7834637414436
 30
0.0
 10
199.4267756021088
 20
117.5071300611965
 30
0.0
 10
199.4429064380553
 20
117.37325735008
 30
0.0
 10
199.507566114724
 20
117.1138124670616
 30
0.0
 10
199.5562364693632
 20
116.9893665388384
 30
0.0
 10
199.681665841682
 20
116.7587459844463
 30
0.0
 10
199.7594094941721
 20
116.6504311382554
 30
0.0
 10
199.941708981185
 20
116.4514637171846
 30
0.0
 10
200.0446721344792
 20
116.362161743922
 30
0.0
 10
200.2738731067717
 20
116.2013765285054
 30
0.0
 10
200.4015040848798
 20
116.1294612791784
 30
0.0
 10
200.6713497463164
 20
116.0074394554184
 30
0.0
 10
200.8142044897034
 20
115.9565912146071
 30
0.0
 10
201.1166020169495
 20
115.8739791612325
 30
0.0
 10
201.2758172478943
 20
115.8426428148663
 30
0.0
 10
201.5967049792124
 20
115.8013581332379
 30
0.0
 10
201.7602182072414
 20
115.7908628719795
 30
0.0
 10
202.0933240227549
 20
115.7908628719795
 30
0.0
  0
ARC
  5
11B
330
1F
100
AcDbEntity
  8
0
  6
HIDDEN
 62
     7
370
     0
100
AcDbCircle
 10
201.2753661954
 20
115.0233968632
 30
0.0
 40
1.571142600965267
100
AcDbArc
 50
323.3496496189
 51
8.1776179885
  0
CIRCLE
  5
11C
330
1F
100
AcDbEntity
  8
0
  6
HIDDEN
 62
     7
370
     0
100
AcDbCircle
 10
169.926771115
 20
121.5939869994
 30
0.0
 40
3.050000000000011
  0
SPLINE
  5
11D
330
1F
100
AcDbEntity
  8
0
  6
HIDDEN
 62
     7
370
     0
100
AcDbSpline
210
0.0
220
0.0
230
1.0
 70
     8
 71
     3
 72
    10
 73
     6
 74
     0
 42
0.00000001
 43
0.00000001
 12
1.0
 22
0.0
 32
0.0
 13
1.0
 23
0.0
 33
0.0
 40
0.0
 40
0.0
 40
0.0
 40
0.0
 40
0.5000000000000001
 40
0.5000000000000001
 40
1.0
 40
1.0
 40
1.0
 40
1.0
 10
217.1253699533082
 20
118.0785358259584
 30
0.0
 10
217.1039307598157
 20
118.6644086973976
 30
0.0
 10
217.077409167889
 20
119.2502437277861
 30
0.0
 10
217.0379815493844
 20
120.4220151633974
 30
0.0
 10
217.0254695308035
 20
121.0079545022108
 30
0.0
 10
217.0254695308035
 20
121.5939869993894
 30
0.0
  0
LINE
  5
11E
330
1F
100
AcDbEntity
  8
0
  6
HIDDEN
 62
     7
370
     0
100
AcDbLine
 10
217.0254687774
 20
147.0939865226
 30
0.0
 11
217.0254687774
 21
121.5939869994
 31
0.0
  0
ELLIPSE
  5
11F
330
1F
100
AcDbEntity
  8
0
  6
HIDDEN
 62
     7
370
     0
100
AcDbEllipse
 10
232.2513516168
 20
121.5939869994
 30
0.0
 11
-8.323425961531683
 21
25.49730333680017
 31
0.0
210
0.0
220
0.0
230
1.0
 40
0.0445538091
 41
6.268642036434909
 42
7.83943836322948
  0
LINE
  5
120
330
1F
100
AcDbEntity
  8
0
  6
HIDDEN
 62
     7
370
     0
100
AcDbLine
 10
158.9548110025
 20
132.382662397
 30
0.0
 11
158.9548110025
 21
110.8053116018
 31
0.0
  0
LINE
  5
121
330
1F
100
AcDbEntity
  8
0
  6
HIDDEN
 62
     7
370
     0
100
AcDbLine
 10
154.9548103469
 20
132.7638601774
 30
0.0
 11
154.9548103469
 21
110.4241138214
 31
0.0
  0
LINE
  5
122
330
1F
100
AcDbEntity
  8
0
  6
HIDDEN
 62
     7
370
     0
100
AcDbLine
 10
153.9267717856
 20
109.830574494
 30
0.0
 11
153.9267717856
 21
133.3418017143
 31
0.0
  0
LINE
  5
123
330
1F
100
AcDbEntity
  8
0
  6
HIDDEN
 62
     7
370
     0
100
AcDbLine
 10
163.554810639
 20
132.0939868578
 30
0.0
 11
163.554810639
 21
111.093987141
 31
0.0
  0
LINE
  5
124
330
1F
100
AcDbEntity
  8
0
  6
HIDDEN
 62
     7
370
     0
100
AcDbLine
 10
157.454811688
 20
132.0939868578
 30
0.0
 11
157.454811688
 21
111.093987141
 31
0.0
  0
LINE
  5
125
330
1F
100
AcDbEntity
  8
0
  6
HIDDEN
 62
     7
370
     0
100
AcDbLine
 10
158.4548118519
 20
132.0939868578
 30
0.0
 11
158.4548118519
 21
111.093987141
 31
0.0
  0
SPLINE
  5
126
330
1F
100
AcDbEntity
  8
0
  6
HIDDEN
 62
     7
370
     0
100
AcDbSpline
210
0.0
220
0.0
230
1.0
 70
     8
 71
     3
 72
    66
 73
    62
 74
     0
 42
0.00000001
 43
0.00000001
 12
1.0
 22
0.0
 32
0.0
 13
1.0
 23
0.0
 33
0.0
 40
-0.03125
 40
-0.03125
 40
0.0
 40
0.0
 40
0.0312499999999998
 40
0.0312499999999998
 40
0.0624999999999997
 40
0.0624999999999997
 40
0.0937499999999995
 40
0.0937499999999995
 40
0.1249999999999994
 40
0.1249999999999994
 40
0.1874999999999992
 40
0.1874999999999992
 40
0.2187499999999991
 40
0.2187499999999991
 40
0.249999999999999
 40
0.249999999999999
 40
0.2812499999999989
 40
0.2812499999999989
 40
0.3124999999999988
 40
0.3124999999999988
 40
0.3437499999999988
 40
0.3437499999999988
 40
0.3749999999999987
 40
0.3749999999999987
 40
0.4062499999999987
 40
0.4062499999999987
 40
0.4374999999999986
 40
0.4374999999999986
 40
0.4687499999999986
 40
0.4687499999999986
 40
0.4999999999999986
 40
0.4999999999999986
 40
0.5312499999999986
 40
0.5312499999999986
 40
0.5624999999999984
 40
0.5624999999999984
 40
0.5937499999999984
 40
0.5937499999999984
 40
0.6249999999999986
 40
0.6249999999999986
 40
0.6562499999999988
 40
0.6562499999999988
 40
0.687499999999999
 40
0.687499999999999
 40
0.7187499999999991
 40
0.7187499999999991
 40
0.7499999999999993
 40
0.7499999999999993
 40
0.7812499999999996
 40
0.7812499999999996
 40
0.8124999999999997
 40
0.8124999999999997
 40
0.8749999999999999
 40
0.8749999999999999
 40
0.9062500000000001
 40
0.9062500000000001
 40
0.9375000000000001
 40
0.9375000000000001
 40
0.96875
 40
0.96875
 40
1.0
 40
1.0
 40
1.03125
 40
1.03125
 10
169.7240924680503
 20
124.6439869993894
 30
0.0
 10
170.1294497619459
 20
124.6439869993894
 30
0.0
 10
170.3285096532817
 20
124.6239874397728
 30
0.0
 10
170.7197636378614
 20
124.5458439370727
 30
0.0
 10
170.9140363966091
 20
124.4866828355519
 30
0.0
 10
171.2827998231604
 20
124.3332511486576
 30
0.0
 10
171.4575249815387
 20
124.2395243388153
 30
0.0
 10
171.7882022850724
 20
124.0182702364105
 30
0.0
 10
171.9438498290753
 20
123.8902888694159
 30
0.0
 10
172.3633171987439
 20
123.4707337724158
 30
0.0
 10
172.5902053402742
 20
123.1322552137125
 30
0.0
 10
172.819001963659
 20
122.5823763259942
 30
0.0
 10
172.8781942185078
 20
122.3889764802509
 30
0.0
 10
172.9570016287684
 20
121.9947483298929
 30
0.0
 10
172.9766410450488
 20
121.7961095024606
 30
0.0
 10
172.9768999094703
 20
121.3958092165622
 30
0.0
 10
172.9568292248374
 20
121.1924698898411
 30
0.0
 10
172.8784915422075
 20
120.8003783692335
 30
0.0
 10
172.820541774169
 20
120.6096725009183
 30
0.0
 10
172.666598632289
 20
120.2389486843317
 30
0.0
 10
172.5716600185663
 20
120.0622220245229
 30
0.0
 10
172.3513026026892
 20
119.7329689135985
 30
0.0
 10
172.2240225767609
 20
119.5778476900021
 30
0.0
 10
171.9422669854303
 20
119.2961709950717
 30
0.0
 10
171.7894786559728
 20
119.1707378101673
 30
0.0
 10
171.4600515738159
 20
118.9499622168132
 30
0.0
 10
171.2815055706642
 20
118.854130964113
 30
0.0
 10
170.913933245114
 20
118.7013018336179
 30
0.0
 10
170.723779218403
 20
118.6431300756737
 30
0.0
 10
170.3302387957006
 20
118.5641367833288
 30
0.0
 10
170.1278047244394
 20
118.5440736576865
 30
0.0
 10
169.728375649074
 20
118.5439009115678
 30
0.0
 10
169.5283566705181
 20
118.5633842856571
 30
0.0
 10
169.1322407230687
 20
118.6423758572583
 30
0.0
 10
168.9415078948769
 20
118.7006560771103
 30
0.0
 10
168.5738764542972
 20
118.8532236977183
 30
0.0
 10
168.3953900221294
 20
118.9488324844915
 30
0.0
 10
168.0651847631654
 20
119.1698445295766
 30
0.0
 10
167.9122961851034
 20
119.2952944283467
 30
0.0
 10
167.6306997905653
 20
119.576524917352
 30
0.0
 10
167.5030688676898
 20
119.731907795266
 30
0.0
 10
167.28274343269
 20
120.0607586533089
 30
0.0
 10
167.1885169757247
 20
120.2356467597229
 30
0.0
 10
167.0335824551216
 20
120.6077906110837
 30
0.0
 10
166.9755701695194
 20
120.7985966528927
 30
0.0
 10
166.8971509152412
 20
121.1894696708114
 30
0.0
 10
166.8768368352746
 20
121.3919272321937
 30
0.0
 10
166.8767057189707
 20
121.7940578371131
 30
0.0
 10
166.89633041233
 20
121.9927818822882
 30
0.0
 10
166.9744968627437
 20
122.3856213534249
 30
0.0
 10
167.0337843080836
 20
122.5802656308275
 30
0.0
 10
167.2628651511665
 20
123.1317053842417
 30
0.0
 10
167.4896960020606
 20
123.4700449499409
 30
0.0
 10
167.9090347033814
 20
123.8897106125924
 30
0.0
 10
168.0643876991313
 20
124.0175566183656
 30
0.0
 10
168.3953555322685
 20
124.2391576930675
 30
0.0
 10
168.5699168324648
 20
124.3327984270444
 30
0.0
 10
168.9374901400397
 20
124.4859525477436
 30
0.0
 10
169.1321770016777
 20
124.5454562933897
 30
0.0
 10
169.5246529516142
 20
124.6239790424526
 30
0.0
 10
169.7240924680503
 20
124.6439869993894
 30
0.0
 10
170.1294497619459
 20
124.6439869993894
 30
0.0
  0
SPLINE
  5
127
330
1F
100
AcDbEntity
  8
0
  6
HIDDEN
 62
     7
370
     0
100
AcDbSpline
210
0.0
220
0.0
230
1.0
 70
     8
 71
     3
 72
    66
 73
    62
 74
     0
 42
0.00000001
 43
0.00000001
 12
1.0
 22
0.0
 32
0.0
 13
1.0
 23
0.0
 33
0.0
 40
-0.0312499999999999
 40
-0.0312499999999999
 40
0.0
 40
0.0
 40
0.03125
 40
0.03125
 40
0.0625000000000001
 40
0.0625000000000001
 40
0.0937500000000001
 40
0.0937500000000001
 40
0.1250000000000001
 40
0.1250000000000001
 40
0.1874999999999999
 40
0.1874999999999999
 40
0.2187499999999998
 40
0.2187499999999998
 40
0.2499999999999996
 40
0.2499999999999996
 40
0.2812499999999995
 40
0.2812499999999995
 40
0.3124999999999993
 40
0.3124999999999993
 40
0.3437499999999992
 40
0.3437499999999992
 40
0.3749999999999991
 40
0.3749999999999991
 40
0.4062499999999989
 40
0.4062499999999989
 40
0.4374999999999991
 40
0.4374999999999991
 40
0.4687499999999991
 40
0.4687499999999991
 40
0.4999999999999992
 40
0.4999999999999992
 40
0.5312499999999992
 40
0.5312499999999992
 40
0.5624999999999993
 40
0.5624999999999993
 40
0.5937499999999993
 40
0.5937499999999993
 40
0.6249999999999993
 40
0.6249999999999993
 40
0.6562499999999994
 40
0.6562499999999994
 40
0.6874999999999994
 40
0.6874999999999994
 40
0.7187499999999994
 40
0.7187499999999994
 40
0.7499999999999994
 40
0.7499999999999994
 40
0.7812499999999997
 40
0.7812499999999997
 40
0.8124999999999998
 40
0.8124999999999998
 40
0.875
 40
0.875
 40
0.90625
 40
0.90625
 40
0.9375
 40
0.9375
 40
0.9687500000000001
 40
0.9687500000000001
 40
1.0
 40
1.0
 40
1.03125
 40
1.03125
 10
170.1294497619459
 20
124.6439869993894
 30
0.0
 10
169.7240924680503
 20
124.6439869993894
 30
0.0
 10
169.5250325767144
 20
124.6239874397728
 30
0.0
 10
169.1337785921347
 20
124.5458439370727
 30
0.0
 10
168.939505833387
 20
124.4866828355519
 30
0.0
 10
168.5707424068358
 20
124.3332511486576
 30
0.0
 10
168.3960172484575
 20
124.2395243388153
 30
0.0
 10
168.0653399449237
 20
124.0182702364105
 30
0.0
 10
167.9096924009208
 20
123.8902888694159
 30
0.0
 10
167.4902250312522
 20
123.4707337724158
 30
0.0
 10
167.2633368897219
 20
123.1322552137125
 30
0.0
 10
167.0345402663371
 20
122.5823763259942
 30
0.0
 10
166.9753480114883
 20
122.3889764802509
 30
0.0
 10
166.8965406012277
 20
121.9947483298929
 30
0.0
 10
166.8769011849474
 20
121.7961095024606
 30
0.0
 10
166.8766423205258
 20
121.3958092165622
 30
0.0
 10
166.8967130051587
 20
121.1924698898411
 30
0.0
 10
166.9750506877886
 20
120.8003783692335
 30
0.0
 10
167.0330004558271
 20
120.6096725009183
 30
0.0
 10
167.1869435977071
 20
120.2389486843317
 30
0.0
 10
167.2818822114298
 20
120.0622220245229
 30
0.0
 10
167.5022396273069
 20
119.7329689135985
 30
0.0
 10
167.6295196532352
 20
119.5778476900021
 30
0.0
 10
167.9112752445658
 20
119.2961709950717
 30
0.0
 10
168.0640635740233
 20
119.1707378101673
 30
0.0
 10
168.3934906561802
 20
118.9499622168132
 30
0.0
 10
168.5720366593319
 20
118.854130964113
 30
0.0
 10
168.9396089848821
 20
118.7013018336179
 30
0.0
 10
169.1297630115931
 20
118.6431300756737
 30
0.0
 10
169.5233034342955
 20
118.5641367833288
 30
0.0
 10
169.7257375055567
 20
118.5440736576865
 30
0.0
 10
170.1251665809221
 20
118.5439009115678
 30
0.0
 10
170.325185559478
 20
118.5633842856571
 30
0.0
 10
170.7213015069274
 20
118.6423758572583
 30
0.0
 10
170.9120343351192
 20
118.7006560771103
 30
0.0
 10
171.2796657756989
 20
118.8532236977183
 30
0.0
 10
171.4581522078667
 20
118.9488324844915
 30
0.0
 10
171.7883574668307
 20
119.1698445295766
 30
0.0
 10
171.9412460448927
 20
119.2952944283467
 30
0.0
 10
172.2228424394308
 20
119.576524917352
 30
0.0
 10
172.3504733623063
 20
119.731907795266
 30
0.0
 10
172.5707987973061
 20
120.0607586533089
 30
0.0
 10
172.6650252542715
 20
120.2356467597229
 30
0.0
 10
172.8199597748745
 20
120.6077906110837
 30
0.0
 10
172.8779720604768
 20
120.7985966528927
 30
0.0
 10
172.9563913147549
 20
121.1894696708114
 30
0.0
 10
172.9767053947214
 20
121.3919272321937
 30
0.0
 10
172.9768365110254
 20
121.7940578371131
 30
0.0
 10
172.9572118176661
 20
121.9927818822882
 30
0.0
 10
172.8790453672524
 20
122.3856213534249
 30
0.0
 10
172.8197579219125
 20
122.5802656308275
 30
0.0
 10
172.5906770788296
 20
123.1317053842417
 30
0.0
 10
172.3638462279355
 20
123.4700449499409
 30
0.0
 10
171.9445075266148
 20
123.8897106125924
 30
0.0
 10
171.7891545308648
 20
124.0175566183656
 30
0.0
 10
171.4581866977276
 20
124.2391576930674
 30
0.0
 10
171.2836253975313
 20
124.3327984270444
 30
0.0
 10
170.9160520899565
 20
124.4859525477436
 30
0.0
 10
170.7213652283184
 20
124.5454562933897
 30
0.0
 10
170.3288892783819
 20
124.6239790424526
 30
0.0
 10
170.1294497619459
 20
124.6439869993894
 30
0.0
 10
169.7240924680503
 20
124.6439869993894
 30
0.0
  0
LINE
  5
128
330
1F
100
AcDbEntity
  8
0
  6
HIDDEN
 62
     7
370
     0
100
AcDbLine
 10
173.9267713385
 20
131.5939867759
 30
0.0
 11
173.9267713385
 21
111.5939872229
 31
0.0
  0
LINE
  5
129
330
1F
100
AcDbEntity
  8
0
  6
HIDDEN
 62
     7
370
     0
100
AcDbLine
 10
174.9267715024
 20
128.8439867908
 30
0.0
 11
174.9267715024
 21
114.343987208
 31
0.0
  0
LINE
  5
12A
330
1F
100
AcDbEntity
  8
0
  6
HIDDEN
 62
     7
370
     0
100
AcDbLine
 10
173.9267713385
 20
113.3439870441
 30
0.0
 11
173.9267713385
 21
129.8283398041
 31
0.0
  0
LINE
  5
12B
330
1F
100
AcDbEntity
  8
0
  6
HIDDEN
 62
     7
370
     0
100
AcDbLine
 10
207.9267713236
 20
114.343987208
 30
0.0
 11
207.9267713236
 21
128.8439867908
 31
0.0
  0
LWPOLYLINE
  5
12C
330
1F
100
AcDbEntity
  8
0
  6
HIDDEN
 62
     7
370
     0
100
AcDbPolyline
 90
       34
 70
   128
 43
0.0
 10
228.1222703862
 20
114.2369368003
 10
228.7810209202
 20
114.1866709927
 10
229.415963124
 20
114.0136447625
 10
230.0041492092
 20
113.7241119409
 10
230.5243152189
 20
113.3285354713
 10
230.9576670634
 20
112.8412144148
 10
231.2885398971
 20
112.2797619441
 10
231.5049792635
 20
111.664468784
 10
231.5991546022
 20
111.017573055
 10
231.5676684486
 20
110.362457473
 10
231.4116532909
 20
109.7227981204
 10
231.1367529439
 20
109.1217141488
 10
230.7529027569
 20
108.5809295887
 10
230.2739757108
 20
108.1199919695
 10
229.7172757792
 20
107.7555579954
 10
229.1029344308
 20
107.5008012244
 10
228.4531432199
 20
107.3649287114
 10
227.7913975524
 20
107.3528513202
 10
227.1416100668
 20
107.4650049099
 10
226.5272649931
 20
107.6973363647
 10
225.9705650615
 20
108.0414498115
 10
225.4916380154
 20
108.4849055746
 10
225.1077878284
 20
109.0116783866
 10
224.8328874814
 20
109.6027282888
 10
224.6768723237
 20
110.2366926038
 10
224.6453861701
 20
110.8906589338
 10
224.7395615088
 20
111.5409912431
 10
224.9560008752
 20
112.1641857439
 10
225.2868737089
 20
112.7377165371
 10
225.7202255534
 20
113.2408561075
 10
226.2403952884
 20
113.6554185191
 10
226.8285776483
 20
113.9664220513
 10
227.4635198521
 20
114.1626251751
 10
228.1222703862
 20
114.2369368003
  0
ARC
  5
12D
330
1F
100
AcDbEntity
  8
0
  6
HIDDEN
 62
     7
370
     0
100
AcDbCircle
 10
223.062813586
 20
104.9887261024
 30
0.0
 40
2.087523020585972
100
AcDbArc
 50
72.4573761751
 51
237.3005425408
  0
LINE
  5
12E
330
1F
100
AcDbEntity
  8
0
  6
HIDDEN
 62
     7
370
     0
100
AcDbLine
 10
238.1055156695
 20
102.6734983438
 30
0.0
 11
239.0692668962
 21
101.0812329018
 31
0.0
  0
SPLINE
  5
12F
330
1F
100
AcDbEntity
  8
0
  6
HIDDEN
 62
     7
370
     0
100
AcDbSpline
210
0.0
220
0.0
230
1.0
 70
     8
 71
     3
 72
     8
 73
     4
 74
     0
 42
0.00000001
 43
0.00000001
 12
1.0
 22
0.0
 32
0.0
 13
1.0
 23
0.0
 33
0.0
 40
0.0
 40
0.0
 40
0.0
 40
0.0
 40
1.0
 40
1.0
 40
1.0
 40
1.0
 10
218.7706592029041
 20
102.4581822397753
 30
0.0
 10
217.9395274874424
 20
107.6260239176508
 30
0.0
 10
217.3176999541713
 20
112.8226977316333
 30
0.0
 10
217.1253699533082
 20
118.0785358259584
 30
0.0
  0
SPLINE
  5
130
330
1F
100
AcDbEntity
  8
0
  6
HIDDEN
 62
     7
370
     0
100
AcDbSpline
210
0.0
220
0.0
230
1.0
 70
     8
 71
     3
 72
    11
 73
     7
 74
     0
 42
0.00000001
 43
0.00000001
 12
1.0
 22
0.0
 32
0.0
 13
1.0
 23
0.0
 33
0.0
 40
0.0
 40
0.0
 40
0.0
 40
0.0
 40
0.0913315687241419
 40
0.3911385353655057
 40
0.6955454645943324
 40
1.0
 40
1.0
 40
1.0
 40
1.0
 10
217.3284503626158
 20
95.22614012300656
 30
0.0
 10
217.2934565436992
 20
95.32214127462012
 30
0.0
 10
217.1435912641571
 20
95.73327786583474
 30
0.0
 10
217.2252785920049
 20
96.3910797039855
 30
0.0
 10
217.5975437752002
 20
97.17289565523281
 30
0.0
 10
218.1106712267335
 20
97.5680412806003
 30
0.0
 10
218.3672550129225
 20
97.76562954127476
 30
0.0
  0
SPLINE
  5
131
330
1F
100
AcDbEntity
  8
0
  6
HIDDEN
 62
     7
370
     0
100
AcDbSpline
210
0.0
220
0.0
230
1.0
 70
     8
 71
     3
 72
     8
 73
     4
 74
     0
 42
0.00000001
 43
0.00000001
 12
1.0
 22
0.0
 32
0.0
 13
1.0
 23
0.0
 33
0.0
 40
0.0
 40
0.0
 40
0.0
 40
0.0
 40
1.0
 40
1.0
 40
1.0
 40
1.0
 10
218.367253855935
 20
97.76563004270623
 30
0.0
 10
218.5436737381231
 20
97.88031854560396
 30
0.0
 10
218.7346888996671
 20
97.99025522937889
 30
0.0
 10
218.9373836123202
 20
98.09638937447315
 30
0.0
  0
SPLINE
  5
132
330
1F
100
AcDbEntity
  8
0
  6
HIDDEN
 62
     7
370
     0
100
AcDbSpline
210
0.0
220
0.0
230
1.0
 70
     8
 71
     3
 72
     8
 73
     4
 74
     0
 42
0.00000001
 43
0.00000001
 12
1.0
 22
0.0
 32
0.0
 13
1.0
 23
0.0
 33
0.0
 40
0.0
 40
0.0
 40
0.0
 40
0.0
 40
1.0
 40
1.0
 40
1.0
 40
1.0
 10
218.7706592029041
 20
102.4581822397753
 30
0.0
 10
218.8259302178265
 20
100.9112247492058
 30
0.0
 10
218.8815225984915
 20
99.45861404053403
 30
0.0
 10
218.9373836123202
 20
98.09638937447315
 30
0.0
  0
SPLINE
  5
133
330
1F
100
AcDbEntity
  8
0
  6
HIDDEN
 62
     7
370
     0
100
AcDbSpline
210
0.0
220
0.0
230
1.0
 70
     8
 71
     3
 72
    42
 73
    38
 74
     0
 42
0.00000001
 43
0.00000001
 12
1.0
 22
0.0
 32
0.0
 13
1.0
 23
0.0
 33
0.0
 40
0.0
 40
0.0
 40
0.0
 40
0.0
 40
0.1249999999999981
 40
0.1249999999999981
 40
0.187499999999997
 40
0.187499999999997
 40
0.249999999999996
 40
0.249999999999996
 40
0.3124999999999949
 40
0.3124999999999949
 40
0.3749999999999938
 40
0.3749999999999938
 40
0.4062499999999933
 40
0.4062499999999933
 40
0.4374999999999928
 40
0.4374999999999928
 40
0.4687499999999922
 40
0.4687499999999922
 40
0.4999999999999917
 40
0.4999999999999917
 40
0.5156249999999921
 40
0.5156249999999921
 40
0.5312499999999926
 40
0.5312499999999926
 40
0.5624999999999934
 40
0.5624999999999934
 40
0.6249999999999943
 40
0.6249999999999943
 40
0.6874999999999953
 40
0.6874999999999953
 40
0.7499999999999962
 40
0.7499999999999962
 40
0.8124999999999971
 40
0.8124999999999971
 40
0.874999999999998
 40
0.874999999999998
 40
1.0
 40
1.0
 40
1.0
 40
1.0
 10
226.3804523188142
 20
107.938489025318
 30
0.0
 10
226.4388042535363
 20
107.842082756796
 30
0.0
 10
226.5623492783299
 20
107.7305859698873
 30
0.0
 10
226.808538790521
 20
107.5585017361895
 30
0.0
 10
226.9016558106988
 20
107.5002254742477
 30
0.0
 10
227.1064469185451
 20
107.3866058484302
 30
0.0
 10
227.218344299827
 20
107.3310421571636
 30
0.0
 10
227.4631518856964
 20
107.2260336896901
 30
0.0
 10
227.595944504054
 20
107.1765050596673
 30
0.0
 10
227.8892708120542
 20
107.0892557594611
 30
0.0
 10
228.0509599271733
 20
107.0510018802114
 30
0.0
 10
228.3218781326432
 20
107.0131320879537
 30
0.0
 10
228.4168229449521
 20
107.003800350911
 30
0.0
 10
228.6200439475002
 20
106.9952245911323
 30
0.0
 10
228.7285489753122
 20
106.996010808715
 30
0.0
 10
228.9588299335505
 20
107.0139010177793
 30
0.0
 10
229.0832269374768
 20
107.0313628957971
 30
0.0
 10
229.3408482238115
 20
107.0911991355179
 30
0.0
 10
229.4766618678608
 20
107.1348831382361
 30
0.0
 10
229.6689737700897
 20
107.2182238007574
 30
0.0
 10
229.7326702899723
 20
107.249533568163
 30
0.0
 10
229.8522730987322
 20
107.3153588460312
 30
0.0
 10
229.9086536720899
 20
107.3499801087819
 30
0.0
 10
230.0691362193836
 20
107.4581288240962
 30
0.0
 10
230.1617461565884
 20
107.5341017009233
 30
0.0
 10
230.4003003353561
 20
107.7569698697689
 30
0.0
 10
230.5135733060503
 20
107.9014895295328
 30
0.0
 10
230.701106472435
 20
108.1847067062351
 30
0.0
 10
230.7711669686538
 20
108.3194904801941
 30
0.0
 10
230.8847643367738
 20
108.5781002856822
 30
0.0
 10
230.9278903305094
 20
108.7020184636755
 30
0.0
 10
230.9951367938997
 20
108.9394958508908
 30
0.0
 10
231.0190802054005
 20
109.0530761630294
 30
0.0
 10
231.0511700829575
 20
109.2654451707897
 30
0.0
 10
231.0594356800774
 20
109.3647314821838
 30
0.0
 10
231.0636613738953
 20
109.6385013681249
 30
0.0
 10
231.0409117105411
 20
109.7909646407994
 30
0.0
 10
230.9828038002925
 20
109.8869677437876
 30
0.0
  0
ELLIPSE
  5
134
330
1F
100
AcDbEntity
  8
0
  6
HIDDEN
 62
     7
370
     0
100
AcDbEllipse
 10
230.7736563409
 20
104.3447311963
 30
0.0
 11
3.441277585125107
 21
-1.584103050492118
 31
0.0
210
0.0
220
0.0
230
1.0
 40
0.1362260441
 41
3.34016891483204
 42
6.481761568421845
  0
LINE
  5
135
330
1F
100
AcDbEntity
  8
0
  6
HIDDEN
 62
     7
370
     0
100
AcDbLine
 10
229.2752179312
 20
91.2883629912
 30
0.0
 11
228.3114667045
 21
92.8806284332
 31
0.0
  0
LINE
  5
136
330
1F
100
AcDbEntity
  8
0
  6
HIDDEN
 62
     7
370
     0
100
AcDbLine
 10
230.9828053223
 20
109.8869679385
 30
0.0
 11
230.5446366774
 21
110.6108849758
 31
0.0
  0
ELLIPSE
  5
137
330
1F
100
AcDbEntity
  8
0
  6
HIDDEN
 62
     7
370
     0
100
AcDbEllipse
 10
227.2105074767
 20
112.2964807284
 30
0.0
 11
3.737383068429494
 21
1.922577779599876
 31
0.0
210
0.0
220
0.0
230
1.0
 40
0.8435519333
 41
3.986422614063072
 42
5.261546455301463
  0
LINE
  5
138
330
1F
100
AcDbEntity
  8
0
  6
HIDDEN
 62
     7
370
     0
100
AcDbLine
 10
225.9422863828
 20
108.6624063441
 30
0.0
 11
226.3804513025
 21
107.9384893069
 31
0.0
  0
ELLIPSE
  5
139
330
1F
100
AcDbEntity
  8
0
  6
HIDDEN
 62
     7
370
     0
100
AcDbEllipse
 10
225.2971133696
 20
115.4576987233
 30
0.0
 11
-2.220506159018016
 21
3.668613800738087
 31
0.0
210
0.0
220
0.0
230
1.0
 40
0.9794128731
 41
0.0
 42
6.283185307179586
  0
LWPOLYLINE
  5
13A
330
1F
100
AcDbEntity
  8
0
  6
HIDDEN
 62
     7
370
     0
100
AcDbPolyline
 90
       37
 70
   128
 43
0.0
 10
228.0783045101
 20
114.9989388773
 10
228.8036334323
 20
114.9493389653
 10
229.5069198119
 20
114.7755700053
 10
230.1668028342
 20
114.4829116651
 10
230.7632255363
 20
114.0802566783
 10
231.2780681061
 20
113.5798388982
 10
231.6956880497
 20
112.9968644941
 10
232.0033933031
 20
112.3490448931
 10
232.1918408381
 20
111.6560654604
 10
232.2552974331
 20
110.9389815369
 10
232.1918408381
 20
110.2195804828
 10
232.0033933031
 20
109.5197223017
 10
231.6956880497
 20
108.8606718817
 10
231.2780681061
 20
108.2624526584
 10
230.7632255363
 20
107.7432421857
 10
230.1668028342
 20
107.3188161367
 10
229.5069198119
 20
107.0020705351
 10
228.8036334323
 20
106.8026296684
 10
228.0783045101
 20
106.7265536526
 10
227.3529793131
 20
106.7761540303
 10
226.6496892082
 20
106.9499229902
 10
225.9898099112
 20
107.2425808647
 10
225.3933872091
 20
107.6452363172
 10
224.8785446393
 20
108.1456536317
 10
224.4609246957
 20
108.7286289671
 10
224.153215717
 20
109.3764476368
 10
223.9647719073
 20
110.0694270694
 10
223.9013153123
 20
110.7865119243
 10
223.9647719073
 20
111.505912047
 10
224.153215717
 20
112.2057702282
 10
224.4609246957
 20
112.8648215795
 10
224.8785446393
 20
113.4630408028
 10
225.3933872091
 20
113.9822508098
 10
225.9898099112
 20
114.4066768588
 10
226.6496892082
 20
114.7234219947
 10
227.3529793131
 20
114.9228628615
 10
228.0783045101
 20
114.9989388773
  0
LINE
  5
13B
330
1F
100
AcDbEntity
  8
0
  6
HIDDEN
 62
     7
370
     0
100
AcDbLine
 10
233.4813388991
 20
104.0548546129
 30
0.0
 11
235.0607241499
 21
100.2608550602
 31
0.0
  0
LINE
  5
13C
330
1F
100
AcDbEntity
  8
0
  6
HIDDEN
 62
     7
370
     0
100
AcDbLine
 10
234.7368734884
 20
100.795901742
 30
0.0
 11
235.0607241499
 21
100.2608550602
 31
0.0
  0
LINE
  5
13D
330
1F
100
AcDbEntity
  8
0
  6
HIDDEN
 62
     7
370
     0
100
AcDbLine
 10
232.2335380124
 20
106.2620034331
 30
0.0
 11
230.5446366774
 21
110.6108849758
 31
0.0
  0
LINE
  5
13E
330
1F
100
AcDbEntity
  8
0
  6
HIDDEN
 62
     7
370
     0
100
AcDbLine
 10
233.4813388991
 20
104.0548546129
 30
0.0
 11
234.189877938
 21
102.884238016
 31
0.0
  0
LINE
  5
13F
330
1F
100
AcDbEntity
  8
0
  6
HIDDEN
 62
     7
370
     0
100
AcDbLine
 10
230.4583738553
 20
98.3123754972
 30
0.0
 11
227.2990706372
 21
105.9016505146
 31
0.0
  0
ARC
  5
140
330
1F
100
AcDbEntity
  8
0
  6
HIDDEN
 62
     7
370
     0
100
AcDbCircle
 10
233.5242381394
 20
97.4804032245
 30
0.0
 40
3.176743878720182
100
AcDbArc
 50
164.8174854125
 51
61.074828788
  0
LINE
  5
141
330
1F
100
AcDbEntity
  8
0
  6
HIDDEN
 62
     7
370
     0
100
AcDbLine
 10
242.0602614986
 20
88.7735238188
 30
0.0
 11
242.3863920378
 21
89.0996171051
 31
0.0
  0
LINE
  5
142
330
1F
100
AcDbEntity
  8
0
  6
HIDDEN
 62
     7
370
     0
100
AcDbLine
 10
242.0602614986
 20
88.7735238188
 30
0.0
 11
228.3114667045
 21
92.8806284332
 31
0.0
  0
LINE
  5
143
330
1F
100
AcDbEntity
  8
0
  6
HIDDEN
 62
     7
370
     0
100
AcDbLine
 10
225.395246129
 20
102.1274359786
 30
0.0
 11
228.3114667045
 21
92.8806284332
 31
0.0
  0
LINE
  5
144
330
1F
100
AcDbEntity
  8
0
  6
HIDDEN
 62
     7
370
     0
100
AcDbLine
 10
227.2990706372
 20
105.9016505146
 30
0.0
 11
223.6920247781
 21
106.9791646564
 31
0.0
  0
LINE
  5
145
330
1F
100
AcDbEntity
  8
0
  6
HIDDEN
 62
     7
370
     0
100
AcDbLine
 10
238.1055156695
 20
102.6734983438
 30
0.0
 11
233.4813388991
 21
104.0548546129
 31
0.0
  0
LINE
  5
146
330
1F
100
AcDbEntity
  8
0
  6
HIDDEN
 62
     7
370
     0
100
AcDbLine
 10
238.1055156695
 20
102.6734983438
 30
0.0
 11
242.3863920378
 21
89.0996171051
 31
0.0
  0
LINE
  5
147
330
1F
100
AcDbEntity
  8
0
  6
HIDDEN
 62
     7
370
     0
100
AcDbLine
 10
227.3574347603
 20
105.8052232379
 30
0.0
 11
227.2990706372
 21
105.9016505146
 31
0.0
  0
LINE
  5
148
330
1F
100
AcDbEntity
  8
0
  6
HIDDEN
 62
     7
370
     0
100
AcDbLine
 10
155.4267711001
 20
138.4533377254
 30
0.0
 11
155.4267711001
 21
133.6435595417
 31
0.0
  0
LINE
  5
149
330
1F
100
AcDbEntity
  8
0
  6
HIDDEN
 62
     7
370
     0
100
AcDbLine
 10
153.9267717856
 20
137.5873120391
 30
0.0
 11
153.9267717856
 21
133.2105466986
 31
0.0
  0
LINE
  5
14A
330
1F
100
AcDbEntity
  8
0
  6
HIDDEN
 62
     7
370
     0
100
AcDbLine
 10
181.7267711269
 20
139.1140850151
 30
0.0
 11
181.7267711269
 21
133.9739331865
 31
0.0
  0
SPLINE
  5
14B
330
1F
100
AcDbEntity
  8
0
  6
HIDDEN
 62
     7
370
     0
100
AcDbSpline
210
0.0
220
0.0
230
1.0
 70
     8
 71
     3
 72
    18
 73
    14
 74
     0
 42
0.00000001
 43
0.00000001
 12
1.0
 22
0.0
 32
0.0
 13
1.0
 23
0.0
 33
0.0
 40
0.0
 40
0.0
 40
0.0
 40
0.0
 40
0.2500000000000002
 40
0.2500000000000002
 40
0.3750000000000003
 40
0.3750000000000003
 40
0.5000000000000004
 40
0.5000000000000004
 40
0.6250000000000006
 40
0.6250000000000006
 40
0.7500000000000007
 40
0.7500000000000007
 40
1.0
 40
1.0
 40
1.0
 40
1.0
 10
182.6054507714384
 20
138.8908968673942
 30
0.0
 10
182.4701651651361
 20
138.8195441257047
 30
0.0
 10
182.3689974188931
 20
138.6741407191152
 30
0.0
 10
182.2661360760242
 20
138.3446734835096
 30
0.0
 10
182.2400332305009
 20
138.2157399067049
 30
0.0
 10
182.2051432469561
 20
137.9201979073688
 30
0.0
 10
182.1965569886661
 20
137.7558031338468
 30
0.0
 10
182.1964572791005
 20
137.3948415191062
 30
0.0
 10
182.204945650249
 20
137.198271726944
 30
0.0
 10
182.2390890297696
 20
136.7729169308191
 30
0.0
 10
182.2648860116234
 20
136.5431472810195
 30
0.0
 10
182.3682871430113
 20
135.8105585865871
 30
0.0
 10
182.4701451351827
 20
135.2733218116695
 30
0.0
 10
182.6054507714384
 20
134.6890337229219
 30
0.0
  0
LINE
  5
14C
330
1F
100
AcDbEntity
  8
0
  6
HIDDEN
 62
     7
370
     0
100
AcDbLine
 10
181.7267711269
 20
109.2140408123
 30
0.0
 11
181.7267711269
 21
104.0738889837
 31
0.0
  0
LINE
  5
14D
330
1F
100
AcDbEntity
  8
0
  6
HIDDEN
 62
     7
370
     0
100
AcDbLine
 10
155.4267711001
 20
109.5444144571
 30
0.0
 11
155.4267711001
 21
104.7346362734
 31
0.0
  0
LINE
  5
14E
330
1F
100
AcDbEntity
  8
0
  6
HIDDEN
 62
     7
370
     0
100
AcDbLine
 10
153.9267717856
 20
109.9774273002
 30
0.0
 11
153.9267717856
 21
105.6006619596
 31
0.0
  0
SPLINE
  5
14F
330
1F
100
AcDbEntity
  8
0
  6
HIDDEN
 62
     7
370
     0
100
AcDbSpline
210
0.0
220
0.0
230
1.0
 70
     8
 71
     3
 72
    18
 73
    14
 74
     0
 42
0.00000001
 43
0.00000001
 12
1.0
 22
0.0
 32
0.0
 13
1.0
 23
0.0
 33
0.0
 40
0.0
 40
0.0
 40
0.0
 40
0.0
 40
0.2500000000000002
 40
0.2500000000000002
 40
0.375
 40
0.375
 40
0.4999999999999999
 40
0.4999999999999999
 40
0.6249999999999998
 40
0.6249999999999998
 40
0.7499999999999996
 40
0.7499999999999996
 40
1.0
 40
1.0
 40
1.0
 40
1.0
 10
182.6054507714384
 20
108.498940275857
 30
0.0
 10
182.4701651651361
 20
107.9147386821253
 30
0.0
 10
182.3689974188931
 20
107.3805209949171
 30
0.0
 10
182.2661360760242
 20
106.6546242240287
 30
0.0
 10
182.2400332305009
 20
106.4247437362488
 30
0.0
 10
182.2051432469561
 20
105.994172791462
 30
0.0
 10
182.1965569886661
 20
105.7964778859679
 30
0.0
 10
182.1964572791005
 20
105.43512984329
 30
0.0
 10
182.204945650249
 20
105.2714798333439
 30
0.0
 10
182.2390890297696
 20
104.978268560375
 30
0.0
 10
182.2648860116234
 20
104.8482724942591
 30
0.0
 10
182.3682871430113
 20
104.5142166016972
 30
0.0
 10
182.4701451351827
 20
104.3684404373324
 30
0.0
 10
182.6054507714385
 20
104.2970771313846
 30
0.0
  0
SPLINE
  5
150
330
1F
100
AcDbEntity
  8
0
  6
HIDDEN
 62
     7
370
     0
100
AcDbSpline
210
0.0
220
0.0
230
1.0
 70
     8
 71
     3
 72
    10
 73
     6
 74
     0
 42
0.00000001
 43
0.00000001
 12
1.0
 22
0.0
 32
0.0
 13
1.0
 23
0.0
 33
0.0
 40
0.0
 40
0.0
 40
0.0
 40
0.0
 40
0.5
 40
0.5
 40
1.0
 40
1.0
 40
1.0
 40
1.0
 10
230.0139863324821
 20
99.66404203887377
 30
0.0
 10
230.0102169522
 20
99.4879409352304
 30
0.0
 10
230.0196990801785
 20
99.32522557914304
 30
0.0
 10
230.0598033784782
 20
99.04278383848711
 30
0.0
 10
230.0898189046662
 20
98.92128302140176
 30
0.0
 10
230.1345238656561
 20
98.84742362849585
 30
0.0
  0
ARC
  5
151
330
1F
100
AcDbEntity
  8
0
  6
HIDDEN
 62
     7
370
     0
100
AcDbCircle
 10
232.9423312442
 20
98.4439714222
 30
0.0
 40
3.172343956263268
100
AcDbArc
 50
157.3813581325
 51
68.5109578265
  0
SPLINE
  5
152
330
1F
100
AcDbEntity
  8
0
  6
HIDDEN
 62
     7
370
     0
100
AcDbSpline
210
0.0
220
0.0
230
1.0
 70
     8
 71
     3
 72
    10
 73
     6
 74
     0
 42
0.00000001
 43
0.00000001
 12
1.0
 22
0.0
 32
0.0
 13
1.0
 23
0.0
 33
0.0
 40
0.0
 40
0.0
 40
0.0
 40
0.0
 40
0.5
 40
0.5
 40
1.0
 40
1.0
 40
1.0
 40
1.0
 10
234.7368753471347
 20
100.7959023469662
 30
0.0
 10
234.6922228392598
 20
100.8696750793506
 30
0.0
 10
234.6038248346775
 20
100.9665943095457
 30
0.0
 10
234.3857980853816
 20
101.173716794002
 30
0.0
 10
234.254405318017
 20
101.2848090275891
 30
0.0
 10
234.1044341978747
 20
101.3957982176015
 30
0.0
  0
LINE
  5
153
330
1F
100
AcDbEntity
  8
0
  6
HIDDEN
 62
     7
370
     0
100
AcDbLine
 10
230.4583738553
 20
98.3123754972
 30
0.0
 11
230.1345231938
 21
98.8474240416
 31
0.0
  0
LINE
  5
154
330
1F
100
AcDbEntity
  8
0
  6
HIDDEN
 62
     7
370
     0
100
AcDbLine
 10
241.9022123324
 20
89.0346480423
 30
0.0
 11
242.0602614986
 21
88.7735238188
 31
0.0
  0
LINE
  5
155
330
1F
100
AcDbEntity
  8
0
  6
HIDDEN
 62
     7
370
     0
100
AcDbLine
 10
242.3863920378
 20
89.0996171051
 30
0.0
 11
242.1081724572
 21
89.5592769498
 31
0.0
  0
LWPOLYLINE
  5
156
330
1F
100
AcDbEntity
  8
0
  6
HIDDEN
 62
     7
370
     0
100
AcDbPolyline
 90
       15
 70
   128
 43
0.0
 10
232.2335380124
 20
106.2620034331
 10
232.3169994163
 20
105.8741001302
 10
232.2808864521
 20
105.456793111
 10
232.1270096111
 20
105.0310129189
 10
231.863080244
 20
104.6181054676
 10
231.5023417579
 20
104.2387796456
 10
231.0628729867
 20
103.9120511973
 10
230.5667201983
 20
103.6543095374
 10
230.0387534308
 20
103.4784739727
 10
229.5054557728
 20
103.3933659905
 10
228.9935636329
 20
103.4032491857
 10
228.5287442612
 20
103.5076299572
 10
228.1343105244
 20
103.7012761348
 10
227.8300399887
 20
103.9744721615
 10
227.6311877178
 20
104.3135238701
  0
ELLIPSE
  5
157
330
1F
100
AcDbEntity
  8
0
  6
HIDDEN
 62
     7
370
     0
100
AcDbEllipse
 10
231.5387223349
 20
101.7802357713
 30
0.0
 11
-1.094277237973358
 21
2.744854198197729
 31
0.0
210
0.0
220
0.0
230
1.0
 40
0.8456184209
 41
2.064799800805418
 42
4.254124171348566
  0
LINE
  5
158
330
1F
100
AcDbEntity
  8
0
  6
HIDDEN
 62
     7
370
     0
100
AcDbLine
 10
225.9422863828
 20
108.6624063441
 30
0.0
 11
227.6311877178
 21
104.3135238701
 31
0.0
  0
ELLIPSE
  5
159
330
1F
100
AcDbEntity
  8
0
  6
HIDDEN
 62
     7
370
     0
100
AcDbEllipse
 10
275.1882507558
 20
119.0939869994
 30
0.0
 11
33.34062320150912
 21
32.66934189173769
 31
0.0
210
0.0
220
0.0
230
1.0
 40
0.1397646068
 41
2.820888689289182
 42
2.857910676818877
  0
ELLIPSE
  5
15A
330
1F
100
AcDbEntity
  8
0
  6
HIDDEN
 62
     7
370
     0
100
AcDbEllipse
 10
142.3471257163
 20
119.0939869994
 30
0.0
 11
103.7092882962028
 21
-32.72900579455191
 31
0.0
210
0.0
220
0.0
230
1.0
 40
0.0406949838
 41
0.297119156392009
 42
0.7528721030250874
  0
ELLIPSE
  5
15B
330
1F
100
AcDbEntity
  8
0
  6
HIDDEN
 62
     7
370
     0
100
AcDbEllipse
 10
233.2135416217
 20
119.0939869994
 30
0.0
 11
-10.7714924208056
 21
32.99651020056469
 31
0.0
210
0.0
220
0.0
230
1.0
 40
0.0445538091
 41
2.084610320340144
 42
2.664664645405845
  0
LINE
  5
15C
330
1F
100
AcDbEntity
  8
0
  6
HIDDEN
 62
     7
370
     0
100
AcDbLine
 10
153.9267717856
 20
133.2105466986
 30
0.0
 11
153.9267717856
 21
123.9331580123
 31
0.0
  0
LINE
  5
15D
330
1F
100
AcDbEntity
  8
0
  6
HIDDEN
 62
     7
370
     0
100
AcDbLine
 10
153.9267717856
 20
119.2548159865
 30
0.0
 11
153.9267717856
 21
109.9774273002
 31
0.0
  0
LINE
  5
15E
330
1F
100
AcDbEntity
  8
0
  6
HIDDEN
 62
     7
370
     0
100
AcDbLine
 10
155.4267711001
 20
118.4455099405
 30
0.0
 11
155.4267711001
 21
109.5444144571
 31
0.0
  0
LINE
  5
15F
330
1F
100
AcDbEntity
  8
0
  6
HIDDEN
 62
     7
370
     0
100
AcDbLine
 10
155.4267711001
 20
133.6435595417
 30
0.0
 11
155.4267711001
 21
124.7424640582
 31
0.0
  0
LINE
  5
160
330
1F
100
AcDbEntity
  8
0
  6
HIDDEN
 62
     7
370
     0
100
AcDbLine
 10
181.7267711269
 20
133.9739331865
 30
0.0
 11
181.7267711269
 21
109.2140408123
 31
0.0
  0
LINE
  5
161
330
1F
100
AcDbEntity
  8
0
  6
HIDDEN
 62
     7
370
     0
100
AcDbLine
 10
183.7267711201
 20
133.156260837
 30
0.0
 11
183.7267711201
 21
110.0317131618
 31
0.0
  0
SPLINE
  5
162
330
1F
100
AcDbEntity
  8
0
  6
HIDDEN
 62
     7
370
     0
100
AcDbSpline
210
0.0
220
0.0
230
1.0
 70
     8
 71
     3
 72
    26
 73
    22
 74
     0
 42
0.00000001
 43
0.00000001
 12
1.0
 22
0.0
 32
0.0
 13
1.0
 23
0.0
 33
0.0
 40
0.0
 40
0.0
 40
0.0
 40
0.0
 40
0.1250000000000001
 40
0.1250000000000001
 40
0.2500000000000002
 40
0.2500000000000002
 40
0.3750000000000004
 40
0.3750000000000004
 40
0.4375000000000005
 40
0.4375000000000005
 40
0.5000000000000007
 40
0.5000000000000007
 40
0.5625000000000008
 40
0.5625000000000008
 40
0.6250000000000008
 40
0.6250000000000008
 40
0.7500000000000004
 40
0.7500000000000004
 40
0.8750000000000002
 40
0.8750000000000002
 40
1.0
 40
1.0
 40
1.0
 40
1.0
 10
159.426771114998
 20
118.3754892389403
 30
0.0
 10
159.637414476998
 20
118.6101062698854
 30
0.0
 10
159.844610914755
 20
118.8479894058448
 30
0.0
 10
160.2461100493873
 20
119.3353037121137
 30
0.0
 10
160.4413864684334
 20
119.5854289369027
 30
0.0
 10
160.8011669611288
 20
120.1040190823537
 30
0.0
 10
160.9664258212782
 20
120.3714500662405
 30
0.0
 10
161.1590837307043
 20
120.802865198639
 30
0.0
 10
161.2140484709143
 20
120.9528840805634
 30
0.0
 10
161.2917842558785
 20
121.2656212592934
 30
0.0
 10
161.3130503941868
 20
121.4233755061006
 30
0.0
 10
161.3149443234726
 20
121.7420807859465
 30
0.0
 10
161.2947185864055
 20
121.904517586127
 30
0.0
 10
161.2202541761197
 20
122.2154695857096
 30
0.0
 10
161.1666150503738
 20
122.3661408240373
 30
0.0
 10
160.9718707449731
 20
122.8082245820059
 30
0.0
 10
160.8048206317949
 20
123.0782685951736
 30
0.0
 10
160.4445645130913
 20
123.598376223455
 30
0.0
 10
160.2498121380708
 20
123.8480374362647
 30
0.0
 10
159.8468029135985
 20
124.3374615481075
 30
0.0
 10
159.638366395235
 20
124.5768074712714
 30
0.0
 10
159.426771114999
 20
124.8124847598393
 30
0.0
  0
LINE
  5
163
330
1F
100
AcDbEntity
  8
0
  6
HIDDEN
 62
     7
370
     0
100
AcDbLine
 10
159.4267717557
 20
118.3754891513
 30
0.0
 11
159.4267717557
 21
124.8124848475
 31
0.0
  0
SPLINE
  5
164
330
1F
100
AcDbEntity
  8
0
  6
HIDDEN
 62
     7
370
     0
100
AcDbSpline
210
0.0
220
0.0
230
1.0
 70
     8
 71
     3
 72
     8
 73
     4
 74
     0
 42
0.00000001
 43
0.00000001
 12
1.0
 22
0.0
 32
0.0
 13
1.0
 23
0.0
 33
0.0
 40
0.0000202085968836
 40
0.0000202085968836
 40
0.0000202085968836
 40
0.0000202085968836
 40
0.0040218806502652
 40
0.0040218806502652
 40
0.0040218806502652
 40
0.0040218806502652
 10
155.426771114998
 20
118.4455098810527
 30
0.0
 10
156.7600942407887
 20
118.421511649889
 30
0.0
 10
158.0934281140113
 20
118.3981839097207
 30
0.0
 10
159.426771114998
 20
118.3754892389403
 30
0.0
  0
SPLINE
  5
165
330
1F
100
AcDbEntity
  8
0
  6
HIDDEN
 62
     7
370
     0
100
AcDbSpline
210
0.0
220
0.0
230
1.0
 70
     8
 71
     3
 72
     8
 73
     4
 74
     0
 42
0.00000001
 43
0.00000001
 12
1.0
 22
0.0
 32
0.0
 13
1.0
 23
0.0
 33
0.0
 40
0.0000202082942178
 40
0.0000202082942178
 40
0.0000202082942178
 40
0.0000202082942178
 40
0.0040218803475994
 40
0.0040218803475994
 40
0.0040218803475994
 40
0.0040218803475994
 10
159.426771114998
 20
124.8124847598385
 30
0.0
 10
158.0934281140113
 20
124.7897900890581
 30
0.0
 10
156.7600942407887
 20
124.7664623488897
 30
0.0
 10
155.426771114998
 20
124.7424641177261
 30
0.0
  0
SPLINE
  5
166
330
1F
100
AcDbEntity
  8
0
  6
HIDDEN
 62
     7
370
     0
100
AcDbSpline
210
0.0
220
0.0
230
1.0
 70
     8
 71
     3
 72
     8
 73
     4
 74
     0
 42
0.00000001
 43
0.00000001
 12
1.0
 22
0.0
 32
0.0
 13
1.0
 23
0.0
 33
0.0
 40
0.0
 40
0.0
 40
0.0
 40
0.0
 40
1.0
 40
1.0
 40
1.0
 40
1.0
 10
153.926771114998
 20
119.2548160711544
 30
0.0
 10
154.4009825254358
 20
118.9200868438596
 30
0.0
 10
154.9057188725373
 20
118.6610284300268
 30
0.0
 10
155.426771114998
 20
118.4455098810527
 30
0.0
  0
SPLINE
  5
167
330
1F
100
AcDbEntity
  8
0
  6
HIDDEN
 62
     7
370
     0
100
AcDbSpline
210
0.0
220
0.0
230
1.0
 70
     8
 71
     3
 72
     8
 73
     4
 74
     0
 42
0.00000001
 43
0.00000001
 12
1.0
 22
0.0
 32
0.0
 13
1.0
 23
0.0
 33
0.0
 40
0.0
 40
0.0
 40
0.0
 40
0.0
 40
1.0
 40
1.0
 40
1.0
 40
1.0
 10
155.426771114998
 20
124.7424641177261
 30
0.0
 10
154.9057188725373
 20
124.526945568752
 30
0.0
 10
154.4009825254358
 20
124.2678871549192
 30
0.0
 10
153.926771114998
 20
123.9331579276244
 30
0.0
  0
LINE
  5
168
330
1F
100
AcDbEntity
  8
0
  6
HIDDEN
 62
     7
370
     0
100
AcDbLine
 10
153.9267717856
 20
119.2548159865
 30
0.0
 11
153.9267717856
 21
123.9331580123
 31
0.0
  0
SPLINE
  5
169
330
1F
100
AcDbEntity
  8
0
  6
HIDDEN
 62
     7
370
     0
100
AcDbSpline
210
0.0
220
0.0
230
1.0
 70
     8
 71
     3
 72
    68
 73
    64
 74
     0
 42
0.00000001
 43
0.00000001
 12
1.0
 22
0.0
 32
0.0
 13
1.0
 23
0.0
 33
0.0
 40
-0.03125
 40
-0.03125
 40
0.0
 40
0.0
 40
0.03125
 40
0.03125
 40
0.0625
 40
0.0625
 40
0.09375
 40
0.09375
 40
0.125
 40
0.125
 40
0.15625
 40
0.15625
 40
0.1875000000000001
 40
0.1875000000000001
 40
0.2499999999999998
 40
0.2499999999999998
 40
0.2812499999999998
 40
0.2812499999999998
 40
0.3124999999999998
 40
0.3124999999999998
 40
0.3437499999999998
 40
0.3437499999999998
 40
0.3749999999999998
 40
0.3749999999999998
 40
0.4062499999999999
 40
0.4062499999999999
 40
0.4374999999999999
 40
0.4374999999999999
 40
0.4687499999999999
 40
0.4687499999999999
 40
0.4999999999999999
 40
0.4999999999999999
 40
0.5312499999999999
 40
0.5312499999999999
 40
0.5624999999999999
 40
0.5624999999999999
 40
0.5937499999999999
 40
0.5937499999999999
 40
0.6249999999999999
 40
0.6249999999999999
 40
0.6562499999999999
 40
0.6562499999999999
 40
0.6874999999999999
 40
0.6874999999999999
 40
0.7187499999999999
 40
0.7187499999999999
 40
0.7499999999999999
 40
0.7499999999999999
 40
0.78125
 40
0.78125
 40
0.8125
 40
0.8125
 40
0.84375
 40
0.84375
 40
0.875
 40
0.875
 40
0.90625
 40
0.90625
 40
0.9375
 40
0.9375
 40
0.96875
 40
0.96875
 40
1.0
 40
1.0
 40
1.03125
 40
1.03125
 10
167.6465317797417
 20
123.8518746903811
 30
0.0
 10
167.9814192994146
 20
124.123115927128
 30
0.0
 10
168.1596855213502
 20
124.2407572199998
 30
0.0
 10
168.5367102182435
 20
124.4420887440096
 30
0.0
 10
168.7368989396199
 20
124.5258969472232
 30
0.0
 10
169.1435669792508
 20
124.6539889707916
 30
0.0
 10
169.3514821452709
 20
124.6992937677517
 30
0.0
 10
169.7764704444944
 20
124.7524514790573
 30
0.0
 10
169.9925070954783
 20
124.7597336630928
 30
0.0
 10
170.4170180643299
 20
124.7361862255555
 30
0.0
 10
170.6275450377197
 20
124.7056820230786
 30
0.0
 10
171.0450302485067
 20
124.6058224096113
 30
0.0
 10
171.247893782085
 20
124.5372265218506
 30
0.0
 10
171.8292103010999
 20
124.2798850786317
 30
0.0
 10
172.1896175538756
 20
124.0333351873217
 30
0.0
 10
172.6343565506373
 20
123.5800966312468
 30
0.0
 10
172.7695457707798
 20
123.4125160517704
 30
0.0
 10
173.0024856453821
 20
123.0536539768591
 30
0.0
 10
173.0991689910368
 20
122.8648954565049
 30
0.0
 10
173.2524002556862
 20
122.4683817802966
 30
0.0
 10
173.3090172130544
 20
122.2580373712097
 30
0.0
 10
173.3744694148893
 20
121.8366488429269
 30
0.0
 10
173.3844277735164
 20
121.6241327237632
 30
0.0
 10
173.3575937643493
 20
121.195357948663
 30
0.0
 10
173.3205741005765
 20
120.982791720516
 30
0.0
 10
173.2034108215397
 20
120.5734970764381
 30
0.0
 10
173.1218719440448
 20
120.3726484047304
 30
0.0
 10
172.9206327326409
 20
119.9955216462193
 30
0.0
 10
172.80170099747
 20
119.8193013246897
 30
0.0
 10
172.5285271843778
 20
119.4905452037075
 30
0.0
 10
172.3746664096676
 20
119.339247035808
 30
0.0
 10
172.0447438116516
 20
119.0716598823287
 30
0.0
 10
171.8664219865801
 20
118.9531887216179
 30
0.0
 10
171.4883979866576
 20
118.7503019176831
 30
0.0
 10
171.2924689878765
 20
118.6676829632351
 30
0.0
 10
170.8873837000421
 20
118.5382427867043
 30
0.0
 10
170.6760489021722
 20
118.4912675562738
 30
0.0
 10
170.2521641125197
 20
118.4365526013556
 30
0.0
 10
170.0397288392575
 20
118.4283228529125
 30
0.0
 10
169.6138767719624
 20
118.4498143507132
 30
0.0
 10
169.3987326085529
 20
118.4802119729317
 30
0.0
 10
168.9836030688125
 20
118.5779544298198
 30
0.0
 10
168.7819781030687
 20
118.6450729435687
 30
0.0
 10
168.3908916037977
 20
118.816716043729
 30
0.0
 10
168.2010719949068
 20
118.9220621025136
 30
0.0
 10
167.8504813747351
 20
119.1627650442082
 30
0.0
 10
167.6874748950885
 20
119.2988879205409
 30
0.0
 10
167.3874125723999
 20
119.604541389775
 30
0.0
 10
167.2521436751957
 20
119.7729930692637
 30
0.0
 10
167.0211997223628
 20
120.1292737555472
 30
0.0
 10
166.9237175028905
 20
120.3190274349539
 30
0.0
 10
166.7687349434859
 20
120.7216357972382
 30
0.0
 10
166.7138684226688
 20
120.9274755409112
 30
0.0
 10
166.6484605520047
 20
121.3480551772336
 30
0.0
 10
166.6383143061717
 20
121.5655569945313
 30
0.0
 10
166.6649826687112
 20
121.9922971334919
 30
0.0
 10
166.7010200605377
 20
122.2021998425791
 30
0.0
 10
166.8184312061056
 20
122.6150886632376
 30
0.0
 10
166.8995587407238
 20
122.8154116080215
 30
0.0
 10
167.0993157849132
 20
123.1916501264866
 30
0.0
 10
167.2198182840393
 20
123.3711048717343
 30
0.0
 10
167.4938987294052
 20
123.7014527998241
 30
0.0
 10
167.6465317797417
 20
123.8518746903811
 30
0.0
 10
167.9814192994146
 20
124.123115927128
 30
0.0
  0
CIRCLE
  5
16A
330
1F
100
AcDbEntity
  8
0
  6
HIDDEN
 62
     7
370
     0
100
AcDbCircle
 10
169.926771115
 20
121.5939869994
 30
0.0
 40
3.050000000000011
  0
CIRCLE
  5
16B
330
1F
100
AcDbEntity
  8
0
  6
HIDDEN
 62
     7
370
     0
100
AcDbCircle
 10
195.926771115
 20
121.5939869994
 30
0.0
 40
2.0
  0
LINE
  5
16C
330
1F
100
AcDbEntity
  8
0
  6
HIDDEN
 62
     7
370
     0
100
AcDbLine
 10
218.7706592488
 20
102.4581821525
 30
0.0
 11
237.2274610209
 21
102.4581821525
 31
0.0
  0
LINE
  5
16D
330
1F
100
AcDbEntity
  8
0
  6
HIDDEN
 62
     7
370
     0
100
AcDbLine
 10
237.2274610209
 20
102.4581821525
 30
0.0
 11
230.9944245028
 21
121.5939869994
 31
0.0
  0
LINE
  5
16E
330
1F
100
AcDbEntity
  8
0
  6
HIDDEN
 62
     7
370
     0
100
AcDbLine
 10
204.9267708319
 20
107.9780286068
 30
0.0
 11
204.9267708319
 21
111.4094633499
 31
0.0
  0
LINE
  5
16F
330
1F
100
AcDbEntity
  8
0
  6
HIDDEN
 62
     7
370
     0
100
AcDbLine
 10
198.9267707797
 20
111.790484179
 30
0.0
 11
198.9267707797
 21
107.9804528394
 31
0.0
  0
LINE
  5
170
330
1F
100
AcDbEntity
  8
0
  6
HIDDEN
 62
     7
370
     0
100
AcDbLine
 10
183.926771115
 20
102.0439876133
 30
0.0
 11
184.0196643354
 21
102.1368795896
 31
0.0
  0
LINE
  5
171
330
1F
100
AcDbEntity
  8
0
  6
HIDDEN
 62
     7
370
     0
100
AcDbLine
 10
184.0196643354
 20
141.0510944092
 30
0.0
 11
183.926771115
 21
141.1439863855
 31
0.0
  0
ARC
  5
172
330
1F
100
AcDbEntity
  8
0
  6
HIDDEN
 62
     7
370
     0
100
AcDbCircle
 10
183.3125575526
 20
102.8439869994
 30
0.0
 40
1.000000000000018
100
AcDbArc
 50
315.0
 51
0.0
  0
ARC
  5
173
330
1F
100
AcDbEntity
  8
0
  6
HIDDEN
 62
     7
370
     0
100
AcDbCircle
 10
183.3125575526
 20
102.8439869994
 30
0.0
 40
1.0
100
AcDbArc
 50
0.0
 51
52.1052014664
  0
ARC
  5
174
330
1F
100
AcDbEntity
  8
0
  6
HIDDEN
 62
     7
370
     0
100
AcDbCircle
 10
183.3125575526
 20
140.3439869994
 30
0.0
 40
1.000000000000034
100
AcDbArc
 50
351.8087250651
 51
45.0
  0
ARC
  5
175
330
1F
100
AcDbEntity
  8
0
  6
HIDDEN
 62
     7
370
     0
100
AcDbCircle
 10
183.3125575526
 20
140.3439869994
 30
0.0
 40
1.000000000000034
100
AcDbArc
 50
307.8947985336
 51
351.8087250651
  0
LINE
  5
176
330
1F
100
AcDbEntity
  8
0
  6
HIDDEN
 62
     7
370
     0
100
AcDbLine
 10
184.3125575508
 20
102.8439862543
 30
0.0
 11
184.3125575508
 21
140.3439877444
 31
0.0
  0
LINE
  5
177
330
1F
100
AcDbEntity
  8
0
  6
HIDDEN
 62
     7
370
     0
100
AcDbLine
 10
184.3125575508
 20
102.8439862543
 30
0.0
 11
184.3125575508
 21
140.3439877444
 31
0.0
  0
LINE
  5
178
330
1F
100
AcDbEntity
  8
0
  6
HIDDEN
 62
     7
370
     0
100
AcDbLine
 10
204.4267716812
 20
113.7112736592
 30
0.0
 11
204.4267716812
 21
117.6503620931
 31
0.0
  0
LINE
  5
179
330
1F
100
AcDbEntity
  8
0
  6
HIDDEN
 62
     7
370
     0
100
AcDbLine
 10
199.4267708617
 20
117.6499322878
 30
0.0
 11
199.4267708617
 21
111.9541101047
 31
0.0
  0
LINE
  5
17A
330
1F
100
AcDbEntity
  8
0
  6
HIDDEN
 62
     7
370
     0
100
AcDbLine
 10
209.6476598638
 20
110.7634859049
 30
0.0
 11
203.8561242627
 21
114.5741989726
 31
0.0
  0
LINE
  5
17B
330
1F
100
AcDbEntity
  8
0
  6
HIDDEN
 62
     7
370
     0
100
AcDbLine
 10
202.0431297826
 20
109.7818449029
 30
0.0
 11
209.5393228339
 21
104.8495018744
 31
0.0
  0
ARC
  5
17C
330
1F
100
AcDbEntity
  8
0
  6
HIDDEN
 62
     7
370
     0
100
AcDbCircle
 10
160.426771115
 20
111.0939869994
 30
0.0
 40
1.500000000000017
100
AcDbArc
 50
191.0958032831
 51
270.0
  0
ARC
  5
17D
330
1F
100
AcDbEntity
  8
0
  6
HIDDEN
 62
     7
370
     0
100
AcDbCircle
 10
160.426771115
 20
132.0939869994
 30
0.0
 40
1.500000000000009
100
AcDbArc
 50
90.0
 51
168.9041967169
  0
LINE
  5
17E
330
1F
100
AcDbEntity
  8
0
  6
HIDDEN
 62
     7
370
     0
100
AcDbLine
 10
160.4267719197
 20
109.5939868951
 30
0.0
 11
161.4334906446
 21
109.5939868951
 31
0.0
  0
LINE
  5
17F
330
1F
100
AcDbEntity
  8
0
  6
HIDDEN
 62
     7
370
     0
100
AcDbLine
 10
161.4334906446
 20
133.5939871037
 30
0.0
 11
160.4267719197
 21
133.5939871037
 31
0.0
  0
ARC
  5
180
330
1F
100
AcDbEntity
  8
0
  6
HIDDEN
 62
     7
370
     0
100
AcDbCircle
 10
161.4334906271
 20
111.0939869994
 30
0.0
 40
1.500000000000002
100
AcDbArc
 50
270.0
 51
315.0
  0
ARC
  5
181
330
1F
100
AcDbEntity
  8
0
  6
HIDDEN
 62
     7
370
     0
100
AcDbCircle
 10
161.4334906271
 20
132.0939869994
 30
0.0
 40
1.5
100
AcDbArc
 50
45.0
 51
90.0
  0
LINE
  5
182
330
1F
100
AcDbEntity
  8
0
  6
HIDDEN
 62
     7
370
     0
100
AcDbLine
 10
153.9267717856
 20
109.830574494
 30
0.0
 11
154.9548103469
 21
110.4241138214
 31
0.0
  0
LINE
  5
183
330
1F
100
AcDbEntity
  8
0
  6
HIDDEN
 62
     7
370
     0
100
AcDbLine
 10
154.9548103469
 20
132.7638601774
 30
0.0
 11
153.9267717856
 21
133.3573995048
 31
0.0
  0
LINE
  5
184
330
1F
100
AcDbEntity
  8
0
  6
HIDDEN
 62
     7
370
     0
100
AcDbLine
 10
162.4941515731
 20
110.0333271438
 30
0.0
 11
163.554810639
 21
111.093987141
 31
0.0
  0
LINE
  5
185
330
1F
100
AcDbEntity
  8
0
  6
HIDDEN
 62
     7
370
     0
100
AcDbLine
 10
163.554810639
 20
132.0939868578
 30
0.0
 11
162.4941515731
 21
133.154646855
 31
0.0
  0
LINE
  5
186
330
1F
100
AcDbEntity
  8
0
  6
HIDDEN
 62
     7
370
     0
100
AcDbLine
 10
154.9548103469
 20
110.4241138214
 30
0.0
 11
157.454811688
 21
111.093987141
 31
0.0
  0
LINE
  5
187
330
1F
100
AcDbEntity
  8
0
  6
HIDDEN
 62
     7
370
     0
100
AcDbLine
 10
157.454811688
 20
132.0939868578
 30
0.0
 11
154.9548103469
 21
132.7638601774
 31
0.0
  0
LINE
  5
188
330
1F
100
AcDbEntity
  8
0
  6
HIDDEN
 62
     7
370
     0
100
AcDbLine
 10
158.9548110025
 20
132.382662397
 30
0.0
 11
158.4548118519
 21
132.0939868578
 31
0.0
  0
LINE
  5
189
330
1F
100
AcDbEntity
  8
0
  6
HIDDEN
 62
     7
370
     0
100
AcDbLine
 10
158.4548118519
 20
111.093987141
 30
0.0
 11
158.9548110025
 21
110.8053116018
 31
0.0
  0
LINE
  5
18A
330
1F
100
AcDbEntity
  8
0
  6
HIDDEN
 62
     7
370
     0
100
AcDbLine
 10
157.454811688
 20
111.093987141
 30
0.0
 11
158.4548118519
 21
111.093987141
 31
0.0
  0
LINE
  5
18B
330
1F
100
AcDbEntity
  8
0
  6
HIDDEN
 62
     7
370
     0
100
AcDbLine
 10
158.4548118519
 20
132.0939868578
 30
0.0
 11
157.454811688
 21
132.0939868578
 31
0.0
  0
LINE
  5
18C
330
1F
100
AcDbEntity
  8
0
  6
HIDDEN
 62
     7
370
     0
100
AcDbLine
 10
163.554810639
 20
111.093987141
 30
0.0
 11
173.4267712566
 21
111.093987141
 31
0.0
  0
LINE
  5
18D
330
1F
100
AcDbEntity
  8
0
  6
HIDDEN
 62
     7
370
     0
100
AcDbLine
 10
173.4267712566
 20
132.0939868578
 30
0.0
 11
163.554810639
 21
132.0939868578
 31
0.0
  0
ARC
  5
18E
330
1F
100
AcDbEntity
  8
0
  6
HIDDEN
 62
     7
370
     0
100
AcDbCircle
 10
173.426771115
 20
111.5939869994
 30
0.0
 40
0.5
100
AcDbArc
 50
270.0
 51
0.0
  0
ARC
  5
18F
330
1F
100
AcDbEntity
  8
0
  6
HIDDEN
 62
     7
370
     0
100
AcDbCircle
 10
173.426771115
 20
131.5939869994
 30
0.0
 40
0.5
100
AcDbArc
 50
0.0
 51
90.0
  0
LINE
  5
190
330
1F
100
AcDbEntity
  8
0
  6
HIDDEN
 62
     7
370
     0
100
AcDbLine
 10
173.9267713385
 20
113.3439870441
 30
0.0
 11
174.9267715024
 21
114.343987208
 31
0.0
  0
LINE
  5
191
330
1F
100
AcDbEntity
  8
0
  6
HIDDEN
 62
     7
370
     0
100
AcDbLine
 10
174.9267715024
 20
128.8439867908
 30
0.0
 11
173.9267713385
 21
129.8439869547
 31
0.0
  0
LINE
  5
192
330
1F
100
AcDbEntity
  8
0
  6
HIDDEN
 62
     7
370
     0
100
AcDbLine
 10
207.9267713236
 20
128.8439867908
 30
0.0
 11
174.9267715024
 21
128.8439867908
 31
0.0
  0
LINE
  5
193
330
1F
100
AcDbEntity
  8
0
  6
HIDDEN
 62
     7
370
     0
100
AcDbLine
 10
174.9267715024
 20
114.343987208
 30
0.0
 11
207.9267713236
 21
114.343987208
 31
0.0
  0
LINE
  5
194
330
1F
100
AcDbEntity
  8
0
  6
HIDDEN
 62
     7
370
     0
100
AcDbLine
 10
207.9267713236
 20
114.343987208
 30
0.0
 11
212.2830103146
 21
121.5939869994
 31
0.0
  0
LINE
  5
195
330
1F
100
AcDbEntity
  8
0
  6
HIDDEN
 62
     7
370
     0
100
AcDbLine
 10
212.2830103146
 20
121.5939869994
 30
0.0
 11
207.9267713236
 21
128.8439867908
 31
0.0
  0
LINE
  5
196
330
1F
100
AcDbEntity
  8
0
  6
HIDDEN
 62
     7
370
     0
100
AcDbLine
 10
225.1280310559
 20
108.9777829015
 30
0.0
 11
225.6067085075
 21
108.1869345048
 31
0.0
  0
LINE
  5
197
330
1F
100
AcDbEntity
  8
0
  6
HIDDEN
 62
     7
370
     0
100
AcDbLine
 10
231.5951871681
 20
111.8115888798
 30
0.0
 11
231.1165097164
 21
112.6024363452
 31
0.0
  0
LINE
  5
198
330
1F
100
AcDbEntity
  8
0
  6
HIDDEN
 62
     7
370
     0
100
AcDbLine
 10
221.2587731885
 20
103.9105014765
 30
0.0
 11
222.2225244152
 21
102.3182360345
 31
0.0
  0
LINE
  5
199
330
1F
100
AcDbEntity
  8
0
  6
HIDDEN
 62
     7
370
     0
100
AcDbLine
 10
234.2062841164
 20
102.8535565251
 30
0.0
 11
231.0052613723
 21
109.8430663237
 31
0.0
  0
LINE
  5
19A
330
1F
100
AcDbEntity
  8
0
  6
HIDDEN
 62
     7
370
     0
100
AcDbLine
 10
221.7040273356
 20
113.282906253
 30
0.0
 11
224.4852173137
 21
108.687954385
 31
0.0
  0
LINE
  5
19B
330
1F
100
AcDbEntity
  8
0
  6
HIDDEN
 62
     7
370
     0
100
AcDbLine
 10
231.6713917064
 20
113.0375390762
 30
0.0
 11
228.8902017283
 21
117.6324909443
 31
0.0
  0
LINE
  5
19C
330
1F
100
AcDbEntity
  8
0
  6
HIDDEN
 62
     7
370
     0
100
AcDbLine
 10
236.2493450748
 20
99.1366499925
 30
0.0
 11
235.6639864849
 21
100.1037521177
 31
0.0
  0
LINE
  5
19D
330
1F
100
AcDbEntity
  8
0
  6
HIDDEN
 62
     7
370
     0
100
AcDbLine
 10
230.1888043987
 20
96.7897841597
 30
0.0
 11
230.7741629886
 21
95.8226801717
 31
0.0
  0
LINE
  5
19E
330
1F
100
AcDbEntity
  8
0
  6
HIDDEN
 62
     7
370
     0
100
AcDbLine
 10
227.6593918907
 20
104.2468001956
 30
0.0
 11
230.1106180059
 21
98.8944874966
 31
0.0
  0
LINE
  5
19F
330
1F
100
AcDbEntity
  8
VERMASSUNG
  6
CENTERX2
100
AcDbLine
 10
146.187142987
 20
121.5939869994
 30
0.0
 11
243.926771115
 21
121.5939869994
 31
0.0
  0
LINE
  5
1A0
330
1F
100
AcDbEntity
  8
VERMASSUNG
  6
CENTERX2
100
AcDbLine
 10
243.926771115
 20
86.5939869994
 30
0.0
 11
243.926771115
 21
121.5939869994
 31
0.0
  0
LINE
  5
1A1
330
1F
100
AcDbEntity
  8
VERMASSUNG
  6
CENTERX2
100
AcDbLine
 10
243.926771115
 20
86.5939869994
 30
0.0
 11
259.9239694547
 21
86.5939869994
 31
0.0
  0
DIMENSION
  5
1A2
330
1F
100
AcDbEntity
  8
VERMASSUNG
100
AcDbDimension
  2
_D
 10
239.625598209
 20
100.6948132354
 30
0.0
 11
251.0774775831
 21
96.1480555831
 31
0.0
 70
   162
  1
<>
 71
     1
 42
-1.0
  3
SLDDIMSTYLE0
100
AcDb2LineAngularDimension
 13
243.926771115
 23
86.5939869994
 33
0.0
 14
259.9239694547
 24
86.5939869994
 34
0.0
 15
243.9099229396
 25
87.1099985067
 35
0.0
 16
251.0774775831
 26
96.1480555831
 36
0.0
  0
DIMENSION
  5
1AB
330
1F
100
AcDbEntity
  8
VERMASSUNG
100
AcDbDimension
  2
_D_1
 10
243.926771115
 20
74.4203005266
 30
0.0
 11
213.926771115
 21
74.4203005266
 31
0.0
 70
   160
  1
<>
 71
     2
 42
-1.0
  3
SLDDIMSTYLE1
100
AcDbAlignedDimension
 13
183.926771115
 23
96.8939869994
 33
0.0
 14
243.926771115
 24
86.5939869994
 34
0.0
100
AcDbRotatedDimension
  0
DIMENSION
  5
1B8
330
1F
100
AcDbEntity
  8
VERMASSUNG
100
AcDbDimension
  2
_D_2
 10
260.2997324005
 20
121.5939869994
 30
0.0
 11
260.2997324005
 21
104.0939869994
 31
0.0
 70
   160
  1
<>
 71
     2
 42
-1.0
  3
SLDDIMSTYLE1
100
AcDbAlignedDimension
 13
243.926771115
 23
86.5939869994
 33
0.0
 14
243.926771115
 24
121.5939869994
 34
0.0
 50
90.0
100
AcDbRotatedDimension
  0
DIMENSION
  5
1C4
330
1F
100
AcDbEntity
  8
VERMASSUNG
100
AcDbDimension
  2
_D_3
 10
243.926771115
 20
62.4203005266
 30
0.0
 11
198.926771115
 21
62.4203005266
 31
0.0
 70
   160
  1
<>
 71
     2
 42
-1.0
  3
SLDDIMSTYLE2
100
AcDbAlignedDimension
 13
153.926771115
 23
105.6006611612
 33
0.0
 14
243.926771115
 24
86.5939869994
 34
0.0
 50
0.0
100
AcDbRotatedDimension
  0
DIMENSION
  5
1CF
330
1F
100
AcDbEntity
  8
VERMASSUNG
100
AcDbDimension
  2
_D_4
 10
140.5186093466
 20
96.5939869994
 30
0.0
 11
140.5186093466
 21
121.5939869994
 31
0.0
 70
   160
  1
PSC%%c<>
 71
     2
 42
-1.0
  3
SLDDIMSTYLE2
100
AcDbAlignedDimension
 13
184.226771115
 23
146.5939869994
 33
0.0
 14
184.226771115
 24
96.5939869994
 34
0.0
 50
90.0
100
AcDbRotatedDimension
  0
LINE
  5
1DB
330
1F
100
AcDbEntity
  8
0
  6
Continuous
 62
     7
370
    15
100
AcDbLine
 10
90.7800590429
 20
88.0139930063
 30
0.0
 11
93.4661959108
 21
88.4876301402
 31
0.0
  0
LINE
  5
1DC
330
1F
100
AcDbEntity
  8
0
  6
Continuous
 62
     7
370
    15
100
AcDbLine
 10
93.4760530289
 20
88.4949950391
 30
0.0
 11
93.7148255106
 21
88.8400351518
 31
0.0
  0
LINE
  5
1DD
330
1F
100
AcDbEntity
  8
0
  6
Continuous
 62
     7
370
    15
100
AcDbLine
 10
84.5764423174
 20
86.5923253709
 30
0.0
 11
90.7957141097
 21
87.6889539772
 31
0.0
  0
LINE
  5
1DE
330
1F
100
AcDbEntity
  8
0
  6
Continuous
 62
     7
370
    15
100
AcDbLine
 10
83.5480383174
 20
89.9105196708
 30
0.0
 11
84.0153403041
 21
89.3426028901
 31
0.0
  0
LINE
  5
1DF
330
1F
100
AcDbEntity
  8
0
  6
Continuous
 62
     7
370
    15
100
AcDbLine
 10
80.6735657896
 20
102.5748191291
 30
0.0
 11
80.3825242254
 21
101.7506005132
 31
0.0
  0
LINE
  5
1E0
330
1F
100
AcDbEntity
  8
0
  6
Continuous
 62
     7
370
    15
100
AcDbLine
 10
79.7016473297
 20
105.1300702506
 30
0.0
 11
79.3915998
 21
105.0753997529
 31
0.0
  0
LINE
  5
1E1
330
1F
100
AcDbEntity
  8
0
  6
Continuous
 62
     7
370
    15
100
AcDbLine
 10
71.1627869676
 20
109.3463119009
 30
0.0
 11
71.1363355439
 21
109.8510319257
 31
0.0
  0
LINE
  5
1E2
330
1F
100
AcDbEntity
  8
0
  6
Continuous
 62
     7
370
    15
100
AcDbLine
 10
71.1359425257
 20
109.8585272098
 30
0.0
 11
71.1351499702
 21
109.8736500257
 31
0.0
  0
LINE
  5
1E3
330
1F
100
AcDbEntity
  8
0
  6
Continuous
 62
     7
370
    15
100
AcDbLine
 10
90.8922848101
 20
102.6734983438
 30
0.0
 11
90.9787036288
 21
102.2619543487
 31
0.0
  0
LINE
  5
1E4
330
1F
100
AcDbEntity
  8
0
  6
Continuous
 62
     7
370
    15
100
AcDbLine
 10
93.6852606754
 20
89.372706961
 30
0.0
 11
93.7426059316
 21
89.0996171051
 31
0.0
  0
LINE
  5
1E5
330
1F
100
AcDbEntity
  8
0
  6
Continuous
 62
     7
370
    15
100
AcDbLine
 10
90.8922848101
 20
102.6734983438
 30
0.0
 11
81.8620980061
 21
101.0812329018
 31
0.0
  0
LINE
  5
1E6
330
1F
100
AcDbEntity
  8
0
  6
Continuous
 62
     7
370
    15
100
AcDbLine
 10
72.809935249
 20
144.1897092277
 30
0.0
 11
81.8620980061
 21
101.0812329018
 31
0.0
  0
ARC
  5
1E7
330
1F
100
AcDbEntity
  8
0
  6
Continuous
 62
     7
370
    15
100
AcDbCircle
 10
84.6287046369
 20
121.5939869994
 30
0.0
 40
25.5
100
AcDbArc
 50
0.0
 51
117.6119695346
  0
LINE
  5
1E8
330
1F
100
AcDbEntity
  8
0
  6
Continuous
 62
     7
370
    15
100
AcDbLine
 10
110.12870416
 20
102.4581821525
 30
0.0
 11
110.12870416
 21
121.5939869994
 31
0.0
  0
ARC
  5
1E9
330
1F
100
AcDbEntity
  8
0
  6
Continuous
 62
     7
370
    15
100
AcDbCircle
 10
81.6287046369
 20
119.0939869994
 30
0.0
 40
33.00000000000001
100
AcDbArc
 50
296.4926939665
 51
329.7273586811
  0
LINE
  5
1EA
330
1F
100
AcDbEntity
  8
0
  6
Continuous
 62
     7
370
    15
100
AcDbLine
 10
93.7426059316
 20
89.0996171051
 30
0.0
 11
96.3494662936
 21
89.5592769498
 31
0.0
  0
LINE
  5
1EB
330
1F
100
AcDbEntity
  8
0
  6
Continuous
 62
     7
370
    15
100
AcDbLine
 10
95.2461954947
 20
89.0346480423
 30
0.0
 11
93.7652985375
 21
88.7735238188
 31
0.0
  0
LINE
  5
1EC
330
1F
100
AcDbEntity
  8
0
  6
Continuous
 62
     7
370
    15
100
AcDbLine
 10
93.7652985375
 20
88.7735238188
 30
0.0
 11
93.7426059316
 21
89.0996171051
 31
0.0
  0
ARC
  5
1ED
330
1F
100
AcDbEntity
  8
0
  6
Continuous
 62
     7
370
    15
100
AcDbCircle
 10
81.6287046369
 20
119.0939869994
 30
0.0
 40
33.0
100
AcDbArc
 50
294.3714903319
 51
296.4926939665
  0
LINE
  5
1EE
330
1F
100
AcDbEntity
  8
0
  6
Continuous
 62
     7
370
    15
100
AcDbLine
 10
93.7652985375
 20
88.7735238188
 30
0.0
 11
93.7212069328
 21
88.856154483
 31
0.0
  0
LWPOLYLINE
  5
1EF
330
1F
100
AcDbEntity
  8
0
  6
Continuous
 62
     7
370
    15
100
AcDbPolyline
 90
       34
 70
   128
 43
0.0
 10
78.5646021176
 20
113.4460888693
 10
78.6437710557
 20
113.3958235273
 10
78.7420446794
 20
113.2227968314
 10
78.8558718558
 20
112.9332635441
 10
78.981137536
 20
112.5376880059
 10
79.1133154925
 20
112.0503669494
 10
79.2476275745
 20
111.4889135474
 10
79.3792192634
 20
110.8736203873
 10
79.5033356916
 20
110.2267255896
 10
79.615489747
 20
109.5716100076
 10
79.7116283137
 20
108.931950655
 10
79.7882766272
 20
108.3308657521
 10
79.8426649343
 20
107.7900821233
 10
79.8728267472
 20
107.3291435727
 10
79.8776724185
 20
106.96471053
 10
79.857026394
 20
106.709953759
 10
79.8116355944
 20
106.574081246
 10
79.743139613
 20
106.5620038548
 10
79.6540148366
 20
106.6741574445
 10
79.5474822443
 20
106.9064888993
 10
79.4273919235
 20
107.2506014147
 10
79.2980843033
 20
107.6940581092
 10
79.1642336916
 20
108.2208309212
 10
79.0306769121
 20
108.811879892
 10
78.9022410098
 20
109.4458451384
 10
78.7835686277
 20
110.0998114684
 10
78.6789485063
 20
110.7501437777
 10
78.5921618152
 20
111.3733373472
 10
78.5263457145
 20
111.9468681404
 10
78.4838783364
 20
112.4500077108
 10
78.4662949662
 20
112.8645710537
 10
78.4742312315
 20
113.1755741203
 10
78.5073998194
 20
113.3717777097
 10
78.5646021176
 20
113.4460888693
  0
SPLINE
  5
1F0
330
1F
100
AcDbEntity
  8
0
  6
Continuous
 62
     7
370
    15
100
AcDbSpline
210
0.0
220
0.0
230
1.0
 70
     8
 71
     3
 72
     8
 73
     4
 74
     0
 42
0.00000001
 43
0.00000001
 12
1.0
 22
0.0
 32
0.0
 13
1.0
 23
0.0
 33
0.0
 40
0.0
 40
0.0
 40
0.0
 40
0.0
 40
1.0
 40
1.0
 40
1.0
 40
1.0
 10
80.7122165678486
 20
94.57375940945145
 30
0.0
 10
80.60137245426995
 20
95.11766671980051
 30
0.0
 10
80.4905565998043
 20
95.66170495917238
 30
0.0
 10
80.37977447003583
 20
96.205899450499
 30
0.0
  0
SPLINE
  5
1F1
330
1F
100
AcDbEntity
  8
0
  6
Continuous
 62
     7
370
    15
100
AcDbSpline
210
0.0
220
0.0
230
1.0
 70
     8
 71
     3
 72
    12
 73
     8
 74
     0
 42
0.00000001
 43
0.00000001
 12
1.0
 22
0.0
 32
0.0
 13
1.0
 23
0.0
 33
0.0
 40
0.0
 40
0.0
 40
0.0
 40
0.0
 40
0.2500000000000029
 40
0.2500000000000029
 40
0.5000000000000059
 40
0.5000000000000059
 40
1.0
 40
1.0
 40
1.0
 40
1.0
 10
80.37977447003583
 20
96.205899450499
 30
0.0
 10
80.35756445724472
 20
96.3150015831126
 30
0.0
 10
80.3349339003223
 20
96.4170379681403
 30
0.0
 10
80.28883689425523
 20
96.60706654399185
 30
0.0
 10
80.26604548991571
 20
96.69209064429707
 30
0.0
 10
80.20068851785744
 20
96.90795096947491
 30
0.0
 10
80.16170738040107
 20
96.99629215208451
 30
0.0
 10
80.13650617999558
 20
97.00089542830334
 30
0.0
  0
ARC
  5
1F2
330
1F
100
AcDbEntity
  8
0
  6
Continuous
 62
     7
370
    15
100
AcDbCircle
 10
84.6287046369
 20
121.5939869994
 30
0.0
 40
25.0
100
AcDbArc
 50
258.8286647104
 51
259.6484163743
  0
ARC
  5
1F3
330
1F
100
AcDbEntity
  8
0
  6
Continuous
 62
     7
370
    15
100
AcDbCircle
 10
84.6287046369
 20
121.5939869994
 30
0.0
 40
25.00000000000002
100
AcDbArc
 50
120.3515836257
 51
121.1713352896
  0
SPLINE
  5
1F4
330
1F
100
AcDbEntity
  8
0
  6
Continuous
 62
     7
370
    15
100
AcDbSpline
210
0.0
220
0.0
230
1.0
 70
     8
 71
     3
 72
    12
 73
     8
 74
     0
 42
0.00000001
 43
0.00000001
 12
1.0
 22
0.0
 32
0.0
 13
1.0
 23
0.0
 33
0.0
 40
0.0
 40
0.0
 40
0.0
 40
0.0
 40
0.25
 40
0.25
 40
0.5
 40
0.5
 40
1.0
 40
1.0
 40
1.0
 40
1.0
 10
71.9960861918744
 20
143.1675113109871
 30
0.0
 10
72.00487303976351
 20
143.1726565480431
 30
0.0
 10
72.0111454477567
 20
143.1903987852248
 30
0.0
 10
72.01901755256704
 20
143.2492929037667
 30
0.0
 10
72.02049812281547
 20
143.2905062141272
 30
0.0
 10
72.01782924902128
 20
143.441568532079
 30
0.0
 10
72.00647927477542
 20
143.5812563610888
 30
0.0
 10
71.9875472141132
 20
143.7401184677299
 30
0.0
  0
ARC
  5
1F5
330
1F
100
AcDbEntity
  8
0
  6
Continuous
 62
     7
370
    15
100
AcDbCircle
 10
84.6287046369
 20
121.5939869994
 30
0.0
 40
25.50000000000001
100
AcDbArc
 50
117.6119695346
 51
119.7180086438
  0
LWPOLYLINE
  5
1F6
330
1F
100
AcDbEntity
  8
0
  6
Continuous
 62
     7
370
    15
100
AcDbPolyline
 90
        5
 70
   128
 43
0.0
 10
79.5646041441
 20
105.3868992144
 10
79.4921323467
 20
105.4731750751
 10
79.4437762159
 20
105.418553006
 10
79.4228307712
 20
105.2267527097
 10
79.4232149418
 20
105.0809746498
  0
ARC
  5
1F7
330
1F
100
AcDbEntity
  8
0
  6
Continuous
 62
     7
370
    15
100
AcDbCircle
 10
92.3565071994
 20
105.5992222122
 30
0.0
 40
12.93457686479876
100
AcDbArc
 50
185.4036654223
 51
198.3143070045
  0
ARC
  5
1F8
330
1F
100
AcDbEntity
  8
0
  6
Continuous
 62
     7
370
    15
100
AcDbCircle
 10
77.1540392455
 20
91.7778456068
 30
0.0
 40
4.525236183341361
100
AcDbArc
 50
27.0588491596
 51
38.1592520508
  0
LINE
  5
1F9
330
1F
100
AcDbEntity
  8
0
  6
Continuous
 62
     7
370
    15
100
AcDbLine
 10
81.8620980061
 20
101.0812329018
 30
0.0
 11
79.5646041441
 21
105.3868992144
 31
0.0
  0
LINE
  5
1FA
330
1F
100
AcDbEntity
  8
0
  6
Continuous
 62
     7
370
    15
100
AcDbLine
 10
82.0244028508
 20
92.2613175476
 30
0.0
 11
81.1839419692
 21
93.8364000881
 31
0.0
  0
SPLINE
  5
1FB
330
1F
100
AcDbEntity
  8
0
  6
Continuous
 62
     7
370
    15
100
AcDbSpline
210
0.0
220
0.0
230
1.0
 70
     8
 71
     3
 72
    18
 73
    14
 74
     0
 42
0.00000001
 43
0.00000001
 12
1.0
 22
0.0
 32
0.0
 13
1.0
 23
0.0
 33
0.0
 40
0.0
 40
0.0
 40
0.0
 40
0.0
 40
0.2500000000000006
 40
0.2500000000000006
 40
0.3750000000000009
 40
0.3750000000000009
 40
0.5000000000000012
 40
0.5000000000000012
 40
0.6250000000000016
 40
0.6250000000000016
 40
0.7500000000000018
 40
0.7500000000000018
 40
1.0
 40
1.0
 40
1.0
 40
1.0
 10
69.68530657567366
 20
141.6363135705379
 30
0.0
 10
69.93227981225844
 20
141.8204548363559
 30
0.0
 10
70.1697972018993
 20
141.9904477242081
 30
0.0
 10
70.50889791733768
 20
142.2252729937483
 30
0.0
 10
70.61924170811363
 20
142.3002760951221
 30
0.0
 10
70.82589414562388
 20
142.4385997856948
 30
0.0
 10
70.92319054893504
 20
142.5026125194011
 30
0.0
 10
71.10492111887982
 20
142.6206133790349
 30
0.0
 10
71.18999908207113
 20
142.6750051431882
 30
0.0
 10
71.3424387511165
 20
142.7714106335528
 30
0.0
 10
71.40926699094675
 20
142.8131061293552
 30
0.0
 10
71.58127969106047
 20
142.9196263939819
 30
0.0
 10
71.65829685474993
 20
142.9661601931062
 30
0.0
 10
71.68872935393578
 20
142.984569966597
 30
0.0
  0
SPLINE
  5
1FC
330
1F
100
AcDbEntity
  8
0
  6
Continuous
 62
     7
370
    15
100
AcDbSpline
210
0.0
220
0.0
230
1.0
 70
     8
 71
     3
 72
    14
 73
    10
 74
     0
 42
0.00000001
 43
0.00000001
 12
1.0
 22
0.0
 32
0.0
 13
1.0
 23
0.0
 33
0.0
 40
0.0
 40
0.0
 40
0.0
 40
0.0
 40
0.25
 40
0.25
 40
0.5
 40
0.5
 40
0.75
 40
0.75
 40
1.0
 40
1.0
 40
1.0
 40
1.0
 10
79.78511560260877
 20
97.06768182989512
 30
0.0
 10
79.75027497372281
 20
97.07456234805116
 30
0.0
 10
79.66528030135149
 20
97.09127337798104
 30
0.0
 10
79.39856174845889
 20
97.14681617505947
 30
0.0
 10
79.2230465719096
 20
97.18442494638944
 30
0.0
 10
78.7967077369065
 20
97.28276179592956
 30
0.0
 10
78.55363087778235
 20
97.34178427521263
 30
0.0
 10
78.02079995375978
 20
97.4815119324899
 30
0.0
 10
77.73617844352813
 20
97.56093024572816
 30
0.0
 10
77.44138315574156
 20
97.64941747043615
 30
0.0
  0
ELLIPSE
  5
1FD
330
1F
100
AcDbEntity
  8
0
  6
Continuous
 62
     7
370
    15
100
AcDbEllipse
 10
72.6200974556
 20
107.8064936665
 30
0.0
 11
-1.889342952662019
 21
2.635290221741613
 31
0.0
210
0.0
220
0.0
230
1.0
 40
0.7500963819
 41
0.0
 42
6.283185307179586
  0
ARC
  5
1FE
330
1F
100
AcDbEntity
  8
0
  6
Continuous
 62
     7
370
    15
100
AcDbCircle
 10
84.6287046369
 20
121.5939869994
 30
0.0
 40
25.0
100
AcDbArc
 50
126.7079165462
 51
253.2920834538
  0
SPLINE
  5
1FF
330
1F
100
AcDbEntity
  8
0
  6
Continuous
 62
     7
370
    15
100
AcDbSpline
210
0.0
220
0.0
230
1.0
 70
     8
 71
     3
 72
     9
 73
     5
 74
     0
 42
0.00000001
 43
0.00000001
 12
1.0
 22
0.0
 32
0.0
 13
1.0
 23
0.0
 33
0.0
 40
0.0
 40
0.0
 40
0.0
 40
0.0
 40
0.4971914725257253
 40
1.0
 40
1.0
 40
1.0
 40
1.0
 10
70.01303479033761
 20
109.2442184576361
 30
0.0
 10
70.18870138554402
 20
109.2135305409394
 30
0.0
 10
70.54201918143062
 20
109.1518080086907
 30
0.0
 10
70.92107383034137
 20
109.2896712045939
 30
0.0
 10
71.11166574019246
 20
109.3589899951188
 30
0.0
  0
SPLINE
  5
200
330
1F
100
AcDbEntity
  8
0
  6
Continuous
 62
     7
370
    15
100
AcDbSpline
210
0.0
220
0.0
230
1.0
 70
     8
 71
     3
 72
     8
 73
     4
 74
     0
 42
0.00000001
 43
0.00000001
 12
1.0
 22
0.0
 32
0.0
 13
1.0
 23
0.0
 33
0.0
 40
0.0
 40
0.0
 40
0.0
 40
0.0
 40
1.0
 40
1.0
 40
1.0
 40
1.0
 10
71.11166530624844
 20
109.3589900211409
 30
0.0
 10
71.13816109079711
 20
109.5218796999566
 30
0.0
 10
71.15197330932362
 20
109.6891483371224
 30
0.0
 10
71.14619368668384
 20
109.857434597513
 30
0.0
  0
SPLINE
  5
201
330
1F
100
AcDbEntity
  8
0
  6
Continuous
 62
     7
370
    15
100
AcDbSpline
210
0.0
220
0.0
230
1.0
 70
     8
 71
     3
 72
    11
 73
     7
 74
     0
 42
0.00000001
 43
0.00000001
 12
1.0
 22
0.0
 32
0.0
 13
1.0
 23
0.0
 33
0.0
 40
0.0
 40
0.0
 40
0.0
 40
0.0
 40
0.3800874221164111
 40
0.6818973789237658
 40
0.8807223198849651
 40
1.0
 40
1.0
 40
1.0
 40
1.0
 10
71.14619359332376
 20
109.8574347683756
 30
0.0
 10
71.28333716320795
 20
109.9536354180031
 30
0.0
 10
71.52938014016193
 20
110.12622458306
 30
0.0
 10
71.88136759832936
 20
110.4064906518393
 30
0.0
 10
72.17190991560729
 20
110.6036495535287
 30
0.0
 10
72.31771832111343
 20
110.6839674248237
 30
0.0
 10
72.37239152151399
 20
110.7140838989584
 30
0.0
  0
LWPOLYLINE
  5
202
330
1F
100
AcDbEntity
  8
0
  6
Continuous
 62
     7
370
    15
100
AcDbPolyline
 90
        5
 70
   128
 43
0.0
 10
70.7554255422
 20
110.4591641465
 10
70.8455375205
 20
110.3204045334
 10
71.0098302733
 20
110.067416344
 10
71.1117774989
 20
109.9104298168
 10
71.1461935933
 20
109.8574347684
  0
ARC
  5
203
330
1F
100
AcDbEntity
  8
0
  6
Continuous
 62
     7
370
    15
100
AcDbCircle
 10
89.700948532
 20
88.7719340371
 30
0.0
 40
3.775965641959743
100
AcDbArc
 50
355.6819406673
 51
15.5125019611
  0
LINE
  5
204
330
1F
100
AcDbEntity
  8
0
  6
Continuous
 62
     7
370
    15
100
AcDbLine
 10
90.518654957
 20
89.284443658
 30
0.0
 11
87.9536968931
 21
101.4993594849
 31
0.0
  0
LINE
  5
205
330
1F
100
AcDbEntity
  8
0
  6
Continuous
 62
     7
370
    15
100
AcDbLine
 10
93.3393637459
 20
89.781810891
 30
0.0
 11
90.7744059149
 21
101.9967267179
 31
0.0
  0
ARC
  5
206
330
1F
100
AcDbEntity
  8
0
  6
Continuous
 62
     7
370
    15
100
AcDbCircle
 10
91.3866742437
 20
89.0481982784
 30
0.0
 40
2.337438813853523
100
AcDbArc
 50
354.8906938796
 51
17.23615475
  0
LINE
  5
207
330
1F
100
AcDbEntity
  8
0
  6
Continuous
 62
     7
370
    15
100
AcDbLine
 10
91.0541849952
 20
101.9557243103
 30
0.0
 11
93.6191423606
 21
89.7408066207
 31
0.0
  0
ARC
  5
208
330
1F
100
AcDbEntity
  8
0
  6
Continuous
 62
     7
370
    15
100
AcDbCircle
 10
87.5933841897
 20
101.4376036867
 30
0.0
 40
3.229786026994659
100
AcDbArc
 50
9.9689565855
 51
21.5064198645
  0
ARC
  5
209
330
1F
100
AcDbEntity
  8
0
  6
Continuous
 62
     7
370
    15
100
AcDbCircle
 10
88.9099161293
 20
101.5842491389
 30
0.0
 40
2.176208347604366
100
AcDbArc
 50
9.8284249974
 51
22.0032918905
  0
LINE
  5
20A
330
1F
100
AcDbEntity
  8
0
  6
Continuous
 62
     7
370
    15
100
AcDbLine
 10
90.7909867163
 20
102.6556374395
 30
0.0
 11
90.927614532
 21
102.3995870614
 31
0.0
  0
LWPOLYLINE
  5
20B
330
1F
100
AcDbEntity
  8
0
  6
Continuous
 62
     7
370
    15
100
AcDbPolyline
 90
       34
 70
   128
 43
0.0
 10
79.6084033135
 20
106.7634014302
 10
79.4953114163
 20
107.0469081292
 10
79.3705477189
 20
107.437121112
 10
79.2386212196
 20
107.9199354985
 10
79.1043007556
 20
108.4779029602
 10
78.9724399145
 20
109.090856638
 10
78.8478052053
 20
109.7366412991
 10
78.7349014353
 20
110.3919189313
 10
78.6378087285
 20
111.0330041388
 10
78.5600363086
 20
111.6367274785
 10
78.5043958384
 20
112.1812689939
 10
78.472897112
 20
112.6469461137
 10
78.4666796024
 20
113.016929839
 10
78.485967293
 20
113.2778473088
 10
78.5300635542
 20
113.4202670196
 10
78.5973744276
 20
113.439043414
 10
78.6854672987
 20
113.3334975579
 10
78.7911579754
 20
113.1074432173
 10
78.9106266383
 20
112.7690508851
 10
79.0395556759
 20
112.3305516207
 10
79.17328475
 20
111.8077937403
 10
79.3069812279
 20
111.2196700537
 10
79.4358120109
 20
110.5874379986
 10
79.5551214177
 20
109.9339475745
 10
79.6605974245
 20
109.2828180531
 10
79.7484276626
 20
108.6575820932
 10
79.8154377188
 20
108.0808382371
 10
79.8592052232
 20
107.5734313467
 10
79.8781492557
 20
107.1537010261
 10
79.8715843629
 20
106.8368157262
 10
79.839748032
 20
106.6342297831
 10
79.7837913777
 20
106.5532643238
 10
79.7057358358
 20
106.596846495
 10
79.6084033135
 20
106.7634014302
  0
LWPOLYLINE
  5
20C
330
1F
100
AcDbEntity
  8
0
  6
Continuous
 62
     7
370
    15
100
AcDbPolyline
 90
       26
 70
   128
 43
0.0
 10
79.4215325076
 20
108.1501984858
 10
79.3347006473
 20
108.3772651741
 10
79.2376694079
 20
108.7062483543
 10
79.1365352269
 20
109.1164763907
 10
79.0376525182
 20
109.5821730682
 10
78.947235066
 20
110.0740762317
 10
78.8709630068
 20
110.5612790102
 10
78.8136303234
 20
111.0131678992
 10
78.7788379747
 20
111.4013496676
 10
78.7687731716
 20
111.701432977
 10
78.7840678166
 20
111.894563202
 10
78.8237607847
 20
111.968604278
 10
78.8853584598
 20
111.9189042488
 10
78.9649897996
 20
111.748585839
 10
79.0576522048
 20
111.4683508763
 10
79.1575225811
 20
111.0958078766
 10
79.2583256769
 20
110.6543647015
 10
79.3537280332
 20
110.1717598626
 10
79.4377351921
 20
109.6783153602
 10
79.5050684172
 20
109.2050377169
 10
79.5514971759
 20
108.7816631311
 10
79.5741041
 20
108.4347957635
 10
79.5714684572
 20
108.1862294936
 10
79.5437560226
 20
108.0515826011
 10
79.4927083697
 20
108.0393152201
 10
79.4215325076
 20
108.1501984858
  0
LINE
  5
20D
330
1F
100
AcDbEntity
  8
0
  6
Continuous
 62
     7
370
    15
100
AcDbLine
 10
79.2308674935
 20
110.771414254
 30
0.0
 11
79.1596851121
 21
110.6339668745
 31
0.0
  0
LINE
  5
20E
330
1F
100
AcDbEntity
  8
0
  6
Continuous
 62
     7
370
    15
100
AcDbLine
 10
79.5336819063
 20
108.9616933727
 30
0.0
 11
79.4841155219
 21
108.9529538417
 31
0.0
  0
LINE
  5
20F
330
1F
100
AcDbEntity
  8
0
  6
Continuous
 62
     7
370
    15
100
AcDbLine
 10
79.2589403498
 20
110.6514682883
 30
0.0
 11
79.1596851121
 21
110.6339668745
 31
0.0
  0
ELLIPSE
  5
210
330
1F
100
AcDbEntity
  8
0
  6
Continuous
 62
     7
370
    15
100
AcDbEllipse
 10
82.1723052227
 20
96.5020376452
 30
0.0
 11
-0.408788131129029
 21
2.316977682091732
 31
0.0
210
0.0
220
0.0
230
1.0
 40
0.1044262189
 41
1.744182221987391
 42
2.776023284114445
  0
LINE
  5
211
330
1F
100
AcDbEntity
  8
0
  6
Continuous
 62
     7
370
    15
100
AcDbLine
 10
79.442332666
 20
104.5577296877
 30
0.0
 11
82.2949492648
 21
90.972914722
 31
0.0
  0
LWPOLYLINE
  5
212
330
1F
100
AcDbEntity
  8
0
  6
Continuous
 62
     7
370
    15
100
AcDbPolyline
 90
        9
 70
   128
 43
0.0
 10
79.4074592921
 20
105.0588613266
 10
79.3931742008
 20
105.0753978902
 10
79.3839066099
 20
105.0628213102
 10
79.3803410414
 20
105.0220591837
 10
79.3827415254
 20
104.9561234081
 10
79.3909301791
 20
104.8698903882
 10
79.4043021086
 20
104.7697303706
 10
79.4218691807
 20
104.6630492324
 10
79.442332666
 20
104.5577296877
  0
LINE
  5
213
330
1F
100
AcDbEntity
  8
0
  6
Continuous
 62
     7
370
    15
100
AcDbLine
 10
81.6007667962
 20
100.9484486544
 30
0.0
 11
79.4074592921
 21
105.0588613266
 31
0.0
  0
ARC
  5
214
330
1F
100
AcDbEntity
  8
0
  6
Continuous
 62
     7
370
    15
100
AcDbCircle
 10
80.4477950484
 20
100.4825394839
 30
0.0
 40
1.243549438650087
100
AcDbArc
 50
9.8285562743
 51
22.0033469262
  0
LINE
  5
215
330
1F
100
AcDbEntity
  8
0
  6
Continuous
 62
     7
370
    15
100
AcDbLine
 10
84.5257095569
 20
87.1099991614
 30
0.0
 11
81.6730928417
 21
100.6948141271
 31
0.0
  0
LWPOLYLINE
  5
216
330
1F
100
AcDbEntity
  8
0
  6
Continuous
 62
     7
370
    15
100
AcDbPolyline
 90
        9
 70
   128
 43
0.0
 10
84.5605826179
 20
86.6088656598
 10
84.5748677492
 20
86.5923290962
 10
84.5841355402
 20
86.6049056762
 10
84.5877010105
 20
86.6456678027
 10
84.5853006393
 20
86.7116017157
 10
84.5771118364
 20
86.7978384608
 10
84.5637398305
 20
86.8979966158
 10
84.5461729549
 20
87.004677754
 10
84.5257095569
 20
87.1099991614
  0
LINE
  5
217
330
1F
100
AcDbEntity
  8
0
  6
Continuous
 62
     7
370
    15
100
AcDbLine
 10
82.3672753103
 20
90.719278332
 30
0.0
 11
84.5605826179
 21
86.6088656598
 31
0.0
  0
ARC
  5
218
330
1F
100
AcDbEntity
  8
0
  6
Continuous
 62
     7
370
    15
100
AcDbCircle
 10
83.5202546881
 20
91.1851881193
 30
0.0
 40
1.243556744078562
100
AcDbArc
 50
189.8284397094
 51
202.0032415665
  0
LWPOLYLINE
  5
219
330
1F
100
AcDbEntity
  8
0
  6
Continuous
 62
     7
370
    15
100
AcDbPolyline
 90
        9
 70
   128
 43
0.0
 10
84.5579026426
 20
86.6277342552
 10
84.571473515
 20
86.612024706
 10
84.5802779148
 20
86.623971712
 10
84.5836651132
 20
86.6626961046
 10
84.581384759
 20
86.725336861
 10
84.573605396
 20
86.8072559947
 10
84.560901996
 20
86.9024073595
 10
84.5442134595
 20
87.0037576073
 10
84.5247732285
 20
87.1038114542
  0
LINE
  5
21A
330
1F
100
AcDbEntity
  8
0
  6
Continuous
 62
     7
370
    15
100
AcDbLine
 10
84.5247732285
 20
87.1038114542
 30
0.0
 11
81.6721566297
 21
100.6886264199
 31
0.0
  0
ARC
  5
21B
330
1F
100
AcDbEntity
  8
0
  6
Continuous
 62
     7
370
    15
100
AcDbCircle
 10
80.5080722668
 20
100.4869524805
 30
0.0
 40
1.181424894658677
100
AcDbArc
 50
9.8287528386
 51
22.0030349992
  0
LINE
  5
21C
330
1F
100
AcDbEntity
  8
0
  6
Continuous
 62
     7
370
    15
100
AcDbLine
 10
81.6034469097
 20
100.929580059
 30
0.0
 11
79.4101396385
 21
105.0399927312
 31
0.0
  0
LWPOLYLINE
  5
21D
330
1F
100
AcDbEntity
  8
0
  6
Continuous
 62
     7
370
    15
100
AcDbPolyline
 90
        9
 70
   128
 43
0.0
 10
79.4101396385
 20
105.0399927312
 10
79.396568406
 20
105.0557022804
 10
79.387764148
 20
105.0437534118
 10
79.3843769278
 20
105.0050290191
 10
79.3866572711
 20
104.942391988
 10
79.3944366086
 20
104.8604691291
 10
79.4071403142
 20
104.7653177643
 10
79.4238286834
 20
104.6639712417
 10
79.4432691108
 20
104.5639155322
  0
LINE
  5
21E
330
1F
100
AcDbEntity
  8
0
  6
Continuous
 62
     7
370
    15
100
AcDbLine
 10
79.4432691108
 20
104.5639155322
 30
0.0
 11
82.2958854768
 21
90.9791024291
 31
0.0
  0
ARC
  5
21F
330
1F
100
AcDbEntity
  8
0
  6
Continuous
 62
     7
370
    15
100
AcDbCircle
 10
83.4599510364
 20
91.1807686435
 30
0.0
 40
1.181405048648793
100
AcDbArc
 50
189.8285393561
 51
202.0031172795
  0
LINE
  5
220
330
1F
100
AcDbEntity
  8
0
  6
Continuous
 62
     7
370
    15
100
AcDbLine
 10
82.3645954296
 20
90.7381469274
 30
0.0
 11
84.5579026426
 21
86.6277342552
 31
0.0
  0
LINE
  5
221
330
1F
100
AcDbEntity
  8
0
  6
Continuous
 62
     7
370
    15
100
AcDbLine
 10
90.7449812438
 20
88.2066240424
 30
0.0
 11
87.892364645
 21
101.7914390081
 31
0.0
  0
ARC
  5
222
330
1F
100
AcDbEntity
  8
0
  6
Continuous
 62
     7
370
    15
100
AcDbCircle
 10
89.2896252018
 20
87.8026747761
 30
0.0
 40
1.510376184464155
100
AcDbArc
 50
355.6819407238
 51
15.5125499326
  0
LINE
  5
223
330
1F
100
AcDbEntity
  8
0
  6
Continuous
 62
     7
370
    15
100
AcDbLine
 10
82.7161316337
 20
91.4640178794
 30
0.0
 11
82.5285522077
 21
91.1345513427
 31
0.0
  0
LINE
  5
224
330
1F
100
AcDbEntity
  8
0
  6
Continuous
 62
     7
370
    15
100
AcDbLine
 10
83.4428479937
 20
91.191544559
 30
0.0
 11
81.8463414251
 21
98.794474628
 31
0.0
  0
LINE
  5
225
330
1F
100
AcDbEntity
  8
0
  6
Continuous
 62
     7
370
    15
100
AcDbLine
 10
80.5251939963
 20
100.4761824274
 30
0.0
 11
82.1217006813
 21
92.8732523584
 31
0.0
  0
LWPOLYLINE
  5
226
330
1F
100
AcDbEntity
  8
0
  6
Continuous
 62
     7
370
    15
100
AcDbPolyline
 90
        9
 70
   128
 43
0.0
 10
80.4380114931
 20
101.7290143186
 10
80.402298532
 20
101.7703575903
 10
80.379129089
 20
101.7389142776
 10
80.3702154006
 20
101.6370070988
 10
80.3762163776
 20
101.4721704537
 10
80.3966882448
 20
101.2565860414
 10
80.4301185343
 20
101.0061887914
 10
80.474035516
 20
100.7394822204
 10
80.5251939963
 20
100.4761824274
  0
LINE
  5
227
330
1F
100
AcDbEntity
  8
0
  6
Continuous
 62
     7
370
    15
100
AcDbLine
 10
81.6655263114
 20
99.4285637403
 30
0.0
 11
80.4380114931
 21
101.7290143186
 31
0.0
  0
ARC
  5
228
330
1F
100
AcDbEntity
  8
0
  6
Continuous
 62
     7
370
    15
100
AcDbCircle
 10
78.7830889232
 20
98.2637908659
 30
0.0
 40
3.108881011824673
100
AcDbArc
 50
9.8284793716
 51
22.0032906738
  0
LWPOLYLINE
  5
229
330
1F
100
AcDbEntity
  8
0
  6
Continuous
 62
     7
370
    15
100
AcDbPolyline
 90
        9
 70
   128
 43
0.0
 10
83.5300306133
 20
89.9387126678
 10
83.565743458
 20
89.8973693961
 10
83.5889129011
 20
89.9288145715
 10
83.5978265894
 20
90.0307198876
 10
83.5918257288
 20
90.1955565327
 10
83.5713537452
 20
90.411140945
 10
83.5379236886
 20
90.6615400577
 10
83.4940064741
 20
90.928244766
 10
83.4428479937
 20
91.191544559
  0
LINE
  5
22A
330
1F
100
AcDbEntity
  8
0
  6
Continuous
 62
     7
370
    15
100
AcDbLine
 10
82.302515795
 20
92.2391632462
 30
0.0
 11
83.5300306133
 21
89.9387126678
 31
0.0
  0
ARC
  5
22B
330
1F
100
AcDbEntity
  8
0
  6
Continuous
 62
     7
370
    15
100
AcDbCircle
 10
85.1849531832
 20
93.4039361205
 30
0.0
 40
3.108881011824664
100
AcDbArc
 50
189.8284793716
 51
202.0032906738
  0
LWPOLYLINE
  5
22C
330
1F
100
AcDbEntity
  8
0
  6
Continuous
 62
     7
370
    15
100
AcDbPolyline
 90
       29
 70
   128
 43
0.0
 10
82.3297383539
 20
93.3997364604
 10
82.407748261
 20
93.2983247453
 10
82.4645107422
 20
93.3240553254
 10
82.4971794426
 20
93.4756392503
 10
82.504116166
 20
93.7454732025
 10
82.4849732961
 20
94.1200287902
 10
82.4407103281
 20
94.5805230999
 10
82.3735473021
 20
95.1038649195
 10
82.2868518807
 20
95.6638114417
 10
82.1849710118
 20
96.2322851533
 10
82.0730136983
 20
96.780780133
 10
81.9565941855
 20
97.2817944252
 10
81.8415497705
 20
97.7102028096
 10
81.733649531
 20
98.0445233995
 10
81.6383037526
 20
98.2679923886
 10
81.5602938454
 20
98.3694022411
 10
81.5035315971
 20
98.343671661
 10
81.4708628967
 20
98.1920895988
 10
81.4639259405
 20
97.9222537839
 10
81.4830690432
 20
97.5477000588
 10
81.5273317784
 20
97.0872057492
 10
81.5944948043
 20
96.5638639295
 10
81.6811904586
 20
96.0039155447
 10
81.7830710947
 20
95.4354418331
 10
81.8950284082
 20
94.8869468534
 10
82.011447921
 20
94.3859325612
 10
82.126492336
 20
93.9575260395
 10
82.2343928083
 20
93.6232054496
 10
82.3297383539
 20
93.3997364604
  0
LWPOLYLINE
  5
22D
330
1F
100
AcDbEntity
  8
0
  6
Continuous
 62
     7
370
    15
100
AcDbPolyline
 90
        3
 70
   128
 43
0.0
 10
84.0554230889
 20
89.2849093193
 10
84.0353501188
 20
89.3197892123
 10
83.984681747
 20
89.3902754301
  0
ARC
  5
22E
330
1F
100
AcDbEntity
  8
0
  6
Continuous
 62
     7
370
    15
100
AcDbCircle
 10
86.6670534608
 20
101.5791605465
 30
0.0
 40
1.243563284826555
100
AcDbArc
 50
9.8286243092
 51
22.0032788913
  0
LINE
  5
22F
330
1F
100
AcDbEntity
  8
0
  6
Continuous
 62
     7
370
    15
100
AcDbLine
 10
87.8200385995
 20
102.0450735354
 30
0.0
 11
87.777751898
 21
102.1243234986
 31
0.0
  0
LWPOLYLINE
  5
230
330
1F
100
AcDbEntity
  8
0
  6
Continuous
 62
     7
370
    15
100
AcDbPolyline
 90
        5
 70
   128
 43
0.0
 10
70.521915033
 20
110.2671254316
 10
70.6823018189
 20
110.0201517233
 10
70.8985670279
 20
109.6871331224
 10
71.0551344599
 20
109.4460407162
 10
71.1116657402
 20
109.3589899951
  0
LWPOLYLINE
  5
231
330
1F
100
AcDbEntity
  8
0
  6
Continuous
 62
     7
370
    15
100
AcDbPolyline
 90
        5
 70
   128
 43
0.0
 10
70.7550716396
 20
110.4589192086
 10
70.8550249036
 20
110.3050041833
 10
71.0114544998
 20
110.0641241187
 10
71.106346957
 20
109.918003332
 10
71.1351499702
 20
109.8736500257
  0
CIRCLE
  5
232
330
1F
100
AcDbEntity
  8
VERMASSUNG
  6
CENTERX2
100
AcDbCircle
 10
84.6287046369
 20
119.2525156657
 30
0.0
 40
32.50000000000001
  0
DIMENSION
  5
233
330
1F
100
AcDbEntity
  8
VERMASSUNG
100
AcDbDimension
  2
_D_5
 10
61.6477342483
 20
96.2715452772
 30
0.0
 11
54.7665146524
 21
89.3903256813
 31
0.0
 70
   160
  1
%%c<> min. 
 71
     2
 42
-1.0
  3
SLDDIMSTYLE3
100
AcDbAlignedDimension
 13
107.6096750254
 23
142.2334860543
 33
0.0
 14
61.6477342483
 24
96.2715452772
 34
0.0
 50
45.0
100
AcDbRotatedDimension
  0
INSERT
  5
24D
330
1F
100
AcDbEntity
  8
VERMASSUNG
100
AcDbBlockReference
  2
SW_CENTERMARKSYMBOL_0
 10
84.6287046369
 20
121.5939869994
 30
0.0
  0
OLE2FRAME
  5
24E
330
1F
100
AcDbEntity
  8
0
100
AcDbOle2Frame
 70
     2
  3
Paintbrush-Bild
 10
13.8511154363
 20
38.264191557
 30
0.0
 11
51.6290888628
 21
31.9806341108
 31
0.0
 71
     2
 72
     0
 73
     1
 90
    12928
310
80552BED0767C5B32B40DDAF6807D121434000000000000000006FFBDDFB85D0
310
4940DDAF6807D121434000000000000000006FFBDDFB85D04940416F4BD60AFB
310
3F4000000000000000002BED0767C5B32B40416F4BD60AFB3F40000000000000
310
0000000000000100000000010000010000000100000000000100000000320000
310
D0CF11E0A1B11AE1000000000000000000000000000000003E000300FEFF0900
310
0600000000000000000000000100000001000000000000000010000002000000
310
01000000FEFFFFFF0000000000000000FFFFFFFFFFFFFFFFFFFFFFFFFFFFFFFF
310
FFFFFFFFFFFFFFFFFFFFFFFFFFFFFFFFFFFFFFFFFFFFFFFFFFFFFFFFFFFFFFFF
310
FFFFFFFFFFFFFFFFFFFFFFFFFFFFFFFFFFFFFFFFFFFFFFFFFFFFFFFFFFFFFFFF
310
FFFFFFFFFFFFFFFFFFFFFFFFFFFFFFFFFFFFFFFFFFFFFFFFFFFFFFFFFFFFFFFF
310
FFFFFFFFFFFFFFFFFFFFFFFFFFFFFFFFFFFFFFFFFFFFFFFFFFFFFFFFFFFFFFFF
310
FFFFFFFFFFFFFFFFFFFFFFFFFFFFFFFFFFFFFFFFFFFFFFFFFFFFFFFFFFFFFFFF
310
FFFFFFFFFFFFFFFFFFFFFFFFFFFFFFFFFFFFFFFFFFFFFFFFFFFFFFFFFFFFFFFF
310
FFFFFFFFFFFFFFFFFFFFFFFFFFFFFFFFFFFFFFFFFFFFFFFFFFFFFFFFFFFFFFFF
310
FFFFFFFFFFFFFFFFFFFFFFFFFFFFFFFFFFFFFFFFFFFFFFFFFFFFFFFFFFFFFFFF
310
FFFFFFFFFFFFFFFFFFFFFFFFFFFFFFFFFFFFFFFFFFFFFFFFFFFFFFFFFFFFFFFF
310
FFFFFFFFFFFFFFFFFFFFFFFFFFFFFFFFFFFFFFFFFFFFFFFFFFFFFFFFFFFFFFFF
310
FFFFFFFFFFFFFFFFFFFFFFFFFFFFFFFFFFFFFFFFFFFFFFFFFFFFFFFFFFFFFFFF
310
FFFFFFFFFFFFFFFFFFFFFFFFFFFFFFFFFFFFFFFFFFFFFFFFFFFFFFFFFFFFFFFF
310
FFFFFFFFFFFFFFFFFFFFFFFFFFFFFFFFFFFFFFFFFFFFFFFFFFFFFFFFFFFFFFFF
310
FDFFFFFFFEFFFFFFFEFFFFFFFEFFFFFF05000000060000000700000008000000
310
090000000A0000000B0000000C0000000D0000000E0000000F00000010000000
310
11000000120000001300000014000000150000001600000017000000FEFFFFFF
310
FFFFFFFFFFFFFFFFFFFFFFFFFFFFFFFFFFFFFFFFFFFFFFFFFFFFFFFFFFFFFFFF
310
FFFFFFFFFFFFFFFFFFFFFFFFFFFFFFFFFFFFFFFFFFFFFFFFFFFFFFFFFFFFFFFF
310
FFFFFFFFFFFFFFFFFFFFFFFFFFFFFFFFFFFFFFFFFFFFFFFFFFFFFFFFFFFFFFFF
310
FFFFFFFFFFFFFFFFFFFFFFFFFFFFFFFFFFFFFFFFFFFFFFFFFFFFFFFFFFFFFFFF
310
FFFFFFFFFFFFFFFFFFFFFFFFFFFFFFFFFFFFFFFFFFFFFFFFFFFFFFFFFFFFFFFF
310
FFFFFFFFFFFFFFFFFFFFFFFFFFFFFFFFFFFFFFFFFFFFFFFFFFFFFFFFFFFFFFFF
310
FFFFFFFFFFFFFFFFFFFFFFFFFFFFFFFFFFFFFFFFFFFFFFFFFFFFFFFFFFFFFFFF
310
FFFFFFFFFFFFFFFFFFFFFFFFFFFFFFFFFFFFFFFFFFFFFFFFFFFFFFFFFFFFFFFF
310
FFFFFFFFFFFFFFFFFFFFFFFFFFFFFFFFFFFFFFFFFFFFFFFFFFFFFFFFFFFFFFFF
310
FFFFFFFFFFFFFFFFFFFFFFFFFFFFFFFFFFFFFFFFFFFFFFFFFFFFFFFFFFFFFFFF
310
FFFFFFFFFFFFFFFFFFFFFFFFFFFFFFFFFFFFFFFFFFFFFFFFFFFFFFFFFFFFFFFF
310
FFFFFFFFFFFFFFFFFFFFFFFFFFFFFFFFFFFFFFFFFFFFFFFFFFFFFFFFFFFFFFFF
310
FFFFFFFFFFFFFFFFFFFFFFFFFFFFFFFFFFFFFFFFFFFFFFFFFFFFFFFFFFFFFFFF
310
52006F006F007400200045006E00740072007900000000000000000000000000
310
0000000000000000000000000000000000000000000000000000000000000000
310
16000500FFFFFFFFFFFFFFFF020000000A00030000000000C000000000000046
310
00000000000000000000000010AAF6A3DA38CD0103000000C000000000000000
310
01004F006C006500000000000000000000000000000000000000000000000000
310
0000000000000000000000000000000000000000000000000000000000000000
310
0A000200FFFFFFFFFFFFFFFFFFFFFFFF00000000000000000000000000000000
310
0000000000000000000000000000000000000000000000001400000000000000
310
010043006F006D0070004F0062006A0000000000000000000000000000000000
310
0000000000000000000000000000000000000000000000000000000000000000
310
120002010100000003000000FFFFFFFF00000000000000000000000000000000
310
0000000000000000000000000000000000000000010000004D00000000000000
310
01004F006C006500310030004E00610074006900760065000000000000000000
310
0000000000000000000000000000000000000000000000000000000000000000
310
1A000200FFFFFFFFFFFFFFFFFFFFFFFF00000000000000000000000000000000
310
0000000000000000000000000000000000000000040000002426000000000000
310
FEFFFFFF02000000FEFFFFFFFFFFFFFFFFFFFFFFFFFFFFFFFFFFFFFFFFFFFFFF
310
FFFFFFFFFFFFFFFFFFFFFFFFFFFFFFFFFFFFFFFFFFFFFFFFFFFFFFFFFFFFFFFF
310
FFFFFFFFFFFFFFFFFFFFFFFFFFFFFFFFFFFFFFFFFFFFFFFFFFFFFFFFFFFFFFFF
310
FFFFFFFFFFFFFFFFFFFFFFFFFFFFFFFFFFFFFFFFFFFFFFFFFFFFFFFFFFFFFFFF
310
FFFFFFFFFFFFFFFFFFFFFFFFFFFFFFFFFFFFFFFFFFFFFFFFFFFFFFFFFFFFFFFF
310
FFFFFFFFFFFFFFFFFFFFFFFFFFFFFFFFFFFFFFFFFFFFFFFFFFFFFFFFFFFFFFFF
310
FFFFFFFFFFFFFFFFFFFFFFFFFFFFFFFFFFFFFFFFFFFFFFFFFFFFFFFFFFFFFFFF
310
FFFFFFFFFFFFFFFFFFFFFFFFFFFFFFFFFFFFFFFFFFFFFFFFFFFFFFFFFFFFFFFF
310
FFFFFFFFFFFFFFFFFFFFFFFFFFFFFFFFFFFFFFFFFFFFFFFFFFFFFFFFFFFFFFFF
310
FFFFFFFFFFFFFFFFFFFFFFFFFFFFFFFFFFFFFFFFFFFFFFFFFFFFFFFFFFFFFFFF
310
FFFFFFFFFFFFFFFFFFFFFFFFFFFFFFFFFFFFFFFFFFFFFFFFFFFFFFFFFFFFFFFF
310
FFFFFFFFFFFFFFFFFFFFFFFFFFFFFFFFFFFFFFFFFFFFFFFFFFFFFFFFFFFFFFFF
310
FFFFFFFFFFFFFFFFFFFFFFFFFFFFFFFFFFFFFFFFFFFFFFFFFFFFFFFFFFFFFFFF
310
FFFFFFFFFFFFFFFFFFFFFFFFFFFFFFFFFFFFFFFFFFFFFFFFFFFFFFFFFFFFFFFF
310
FFFFFFFFFFFFFFFFFFFFFFFFFFFFFFFFFFFFFFFFFFFFFFFFFFFFFFFFFFFFFFFF
310
FFFFFFFFFFFFFFFFFFFFFFFFFFFFFFFFFFFFFFFFFFFFFFFFFFFFFFFFFFFFFFFF
310
0100000200000000000000000000000000000000000000000000000000000000
310
0000000000000000000000000000000000000000000000000000000000000000
310
0100FEFF030A0000FFFFFFFF0A00030000000000C00000000000004607000000
310
5042727573680007000000504272757368000700000050427275736800F439B2
310
7100000000000000000000000000000000000000000000000000000000000000
310
0000000000000000000000000000000000000000000000000000000000000000
310
0000000000000000000000000000000000000000000000000000000000000000
310
0000000000000000000000000000000000000000000000000000000000000000
310
0000000000000000000000000000000000000000000000000000000000000000
310
0000000000000000000000000000000000000000000000000000000000000000
310
0000000000000000000000000000000000000000000000000000000000000000
310
0000000000000000000000000000000000000000000000000000000000000000
310
0000000000000000000000000000000000000000000000000000000000000000
310
0000000000000000000000000000000000000000000000000000000000000000
310
0000000000000000000000000000000000000000000000000000000000000000
310
0000000000000000000000000000000000000000000000000000000000000000
310
20260000424D0E260000000000003E00000028000000B40200006E0000000100
310
01000000000000000000130B0000130B00000200000002000000000000FFFFFF
310
FFFFFFFFFFFFFFFFFFFFFFFFFFFFFFFFFFFFFFFFFFFFFFFFFFFFFFFFFFFFFFFF
310
FFFFFFFFFFFFFFFFFFFFFFFFFFFFFFFFFFFFFFFFFFFFFFFFFFFFFFFFFFFFFFFF
310
FFFFFFFFFFFFFFFFFFFFFFFFFFFFFFFFFFFFFFFFFFFFFFFFF000FFFFFFFFFFFF
310
FFFFFFFFFFFFFFFFFFFFFFFFFFFFFFFFFFFFFFFFFFFFFFFFFFFFFFFFFFFFFFFF
310
FFFFFFFFFFFFFFFFFFFFFFFFFFFFFFFFFFFFFFFFFFFFFFFFFFFFFFFFFFFFFFFF
310
FFFFFFFFFFFFFFFFFFFFFFFFFFFFFFFFF000FFFFFFFFFFFFFFFFFFFFFFFFFFFF
310
FFFFFFFFFFFFFFFFFFFFFFFFFFFFFFFFFFFFFFFFFFFFFFFFFFFFFFFFFFFFFFFF
310
FFFFFFFFFFFFFFFFFFFFFFFFFFFFFFFFFFFFFFFFFFFFFFFFFFFFFFFFFFFFFFFF
310
FFFFFFFFFFFFFFFFF000FFFFFFFFFFFFFFFFFFFFFFFFFFFFFFFFFFFFFFFFFFFF
310
FFFFFFFFFFFFFFFFFFFFFFFFFFFFFFFFFFFFFFFFFFFFFFFFFFFFFFFFFFFFFFFF
310
FFFFFFFFFFFFFFFFFFFFFFFFFFFFFFFFFFFFFFFFFFFFFFFFFFFFFFFFFFFFFFFF
310
F000FFFFFFFFFFFFFFFFFFFFFFFFFFFFFFFFFFFFFFFFFFFFFFFFFFFFFFFFFFFF
310
FFFFFFFFFFFFFFFFFFFFFFFFFFFFFFFFFFFFFFFFFFFFFFFFFFFFFFFFFFFFFFFF
310
FFFFFFFFFFFFFFFFFFFFFFFFFFFFFFFFFFFFFFFFFFFFFFFFF000FFFFFFFFFFFF
310
FFFFFFFFFFFFFFFFFFFFFFFFFFFFFFFFFFFFFFFFFFFFFFFFFFFFFFFFFFFFFFFF
310
FFFFFFFFFFFFFFFFFFFFFFFFFFFFFFFFFFFFFFFFFFFFFFFFFFFFFFFFFFFFFFFF
310
FFFFFFFFFFFFFFFFFFFFFFFFFFFFFFFFF000FFFFFFFFFFFFFFFFFFFFFFFFFFFF
310
FFFFFFFFFFFFFFFFFFFFFFFFFFFFFFFFFFFFFFFFFFFFFFFFFFFFFFFFFFFFFFFF
310
FFFFFFFFFFFFFFFFFFFFFFFFFFFFFFFFFFFFFFFFFFFFFFFFFFFFFFFFFFFFFFFF
310
FFFFFFFFFFFFFFFFF000FFFFFFFFFFFFFFFFFFFFFFFFFFFFFFFFFFFFFFFFFFFF
310
FFFFFFFFFFFFFFFFFFFFFFFFFFFFFFFFFFFFFFFFFFFFFFFFFFFFFFFFFFFFFFFF
310
FFFFFFFFFFFFFFFFFFFFFFFFFFFFFFFFFFFFFFFFFFFFFFFFFFFFFFFFFFFFFFFF
310
F000FFFFFFFFFFFFFFFFFFFFFFFFFFFFFFFFFFFFFFFFFFFFFFFFFFFFFFFFFFFF
310
FFFFFFFFFFFFFFFFFFFFFFFFFFFFFFFFFFFFFFFFFFFFFFFFFFFFFFFFFFFFFFFF
310
FFFFFFFFFFFFFFFFFFFFFFFFFFFFFFFFFFFFFFFFFFFFFFFFF000FFFFFFFFFFFF
310
FFFFFFFFFFFFFFFFFFFFFFFFFFFFFFFFFFFFFFFFFFFFFFFFFFFFFFFFFFFFFFFF
310
FFFFFFFFFFFFFFFFFFFFFFFFFFFFFFFFFFFFFFFFFFFFFFFFFFFFFFFFFFFFFFFF
310
FFFFFFFFFFFFFFFFFFFFFFFFFFFFFFFFF000FFFFFFFFFFFFFFFFFFFFFFFFFFFF
310
FFFFFFFFFFFFFFFFFFFFFFFFFFFFFFFFFFFFFFFFFFFFFFFFFFFFFFFFFFFFFFFF
310
FFFFFFFFFFFFFFFFFFFFFFFFFFFFFFFFFFFFFFFFFFFFFFFFFFFFFFFFFFFFFFFF
310
FFFFFFFFFFFFFFFFF000FFFFFFFFFFFFFFFFFFFFFFFFFFFFFFFFFFFFFFFFFFFF
310
FFFFFFFFFFFFFFFFFFFFFFFFFFFFFFFFFFFFFFFFFFFFFFFFFFFFFFFFFFFFFFFF
310
FFFFFFFFFFFFFFFFFFFFFFFFFFFFFFFFFFFFFFFFFFFFFFFFFFFFFFFFFFFFFFFF
310
F000FFFFFFFFFFFFFFFFFFFFFFFFFFFFFFFFFFFFFFFFFFFFFFFFFFFFFFFFFFFF
310
FFFFFFFFFFFFFFFFFFFFFFFFFFFFFFFFFFFFFFFFFFFFFFFFFFFFFFFFFFFFFFFF
310
FFFFFFFFFFFFFFFFFFFFFFFFFFFFFFFFFFFFFFFFFFFFFFFFF000FFFFFFFFFFFF
310
FFFFFFFFFFFFFFFFFFFFFFFFFFFFFFFFFFFFFFFFFFFFFFFFFFFFFFFFFFFFFFFF
310
FFFFFFFFFFFFFFFFFFFFFFFFFFFFFFFFFFFFFFFFFFFFFFFFFFFFFFFFFFFFFFFF
310
FFFFFFFFFFFFFFFFFFFFFFFFFFFFFFFFF000FFFFFFFFFFFFFFFFFFFFFFFFFFFF
310
FFFFFFFFFFFFFFFFFFFFFFFFFFFFFFFFFFFFFFFFFFFFFFFFFFFFFFFFFFFFFFFF
310
FFFFFFFFFFFFFFFFFFFFFFFFFFFFFFFFFFFFFFFFFFFFFFFFFFFFFFFFFFFFFFFF
310
FFFFFFFFFFFFFFFFF000FFFFFFFFFFFFFFFFFFFFFFFFFFFFFFFFFFFFFFFFFFFF
310
FFFFFFFFFFFFFFFFFFFFFFFFFFFFFFFFFFFFFFFFFFFFFFFFFFFFFFFFFFFFFFFF
310
FFFFFFFFFFFFFFFFFFFFFFFFFFFFFFFFFFFFFFFFFFFFFFFFFFFFFFFFFFFFFFFF
310
F000FFFFFFFFFFFFFFFFFFFFFFFFFFFFFFFFFFFFFFFFFFFFFFFFFFFFFFFFFFFF
310
FFFFFFFFFFFFFFFFFFFFFFFFFFFFFFFFFFFFFFFFFFFFFFFFFFFFFFFFFFFFFFFF
310
FFFFFFFFFFFFFFFFFFFFFFFFFFFFFFFFFFFFFFFFFFFFFFFFF000FFFFFFFFFFFF
310
FFFFFFFFFFFFFFFFFFFFFFFFFFFFFFFFFFFFFFFFFFFFFFFFFFFFFFFFFFFFFFFF
310
FFFFFFFFFFFFFFFFFFFFFFFFFFFFFFFFFFFFFFFFFFFFFFFFFFFFFFFFFFFFFFFF
310
FFFFFFFFFFFFFFFFFFFFFFFFFFFFFFFFF000FFFFFFFFFFFFFFFFFFFFFFFFFFFF
310
FFFFFFFFFFFFFFFFFFFFFFFFFFFFFFFFFFFFFFFFFFFFFFFFFFFFFFFFFFFFFFFF
310
FFFFFFFFFFFFFFFFFFFFFFFFFFFFFFFFFFFFFFFFFFFFFFFFFFFFFFFFFFFFFFFF
310
FFFFFFFFFFFFFFFFF000FFFFF80003FFFFFFFFFFFFFFFFFFFFFFFFFFFFFFFFFF
310
FFFFF00007FFFFFFFFFF00007FFFFFF800000000000000007FFFFFFFFFFFFFFF
310
FFFFFFFC001FFFFFFFFFFFFFFC001FFFFFFFFFFFFFFFFFFFFFFFFFFE0007FFFF
310
F000FFFF8000007FFFFFFFF8000FFFFFC0007FFFFF80007FFFFF0000007FFFFF
310
FFF8000007FFFFF800000000000000007FFFFFF0001FFFFFFFFFFFC00001FFFF
310
FFFFFFFFC00001FFFFFFFF000000000003FFFFE000007FFFF000FFFE0000000F
310
FFFFFFF0000FFFFF80007FFFFF80007FFFFC0000001FFFFFFFC0000001FFFFF8
310
00000000000000007FFFFFF0001FFFFFFFFFFE0000003FFFFFFFFFFE0000003F
310
FFFFFF000000000003FFFF0000000FFFF000FFF800000003FFFFFFF00007FFFF
310
80007FFFFF80007FFFF000000007FFFFFF000000003FFFF80000000000000000
310
7FFFFFF0001FFFFFFFFFF80000000FFFFFFFFFF80000000FFFFFFF0000000000
310
03FFFC00000003FFF000FFE000000000FFFFFFF00007FFFF80003FFFFF80007F
310
FFC000000001FFFFFC000000001FFFF800000000000000007FFFFFF0001FFFFF
310
FFFFE000000003FFFFFFFFE000000003FFFFFF000000000003FFF000000000FF
310
F000FF80000000007FFFFFF00007FFFF80003FFFFF80007FFF8000000000FFFF
310
F80000000007FFF800000000000000007FFFFFF0001FFFFFFFFFC000000001FF
310
FFFFFFC000000001FFFFFF000000000003FFC0000000007FF000FF0000000000
310
3FFFFFE00007FFFF00003FFFFF80007FFE00000000003FFFF00000000003FFF8
310
00000000000000007FFFFFF0001FFFFFFFFF8000000000FFFFFFFF8000000000
310
FFFFFF000000000003FF80000000003FF000FE00000000001FFFFFE00003FFFF
310
00003FFFFF80007FFC00000000001FFFE00000000001FFF8000001FFFE000000
310
7FFFFFF0001FFFFFFFFE00000000003FFFFFFE00000000003FFFFF0000000000
310
03FF00000000001FF000FC00000000000FFFFFE00003FFFF00001FFFFF80007F
310
F800000000001FFFC00000000000FFF8000001FFFE0000007FFFFFF0001FFFFF
310
FFFC00000000001FFFFFFC00000000001FFFFF000000000003FE00000000000F
310
F000F8000000000007FFFFE00003FFFF00001FFFFF80007FF800000000000FFF
310
800000000000FFF8000001FFFE0000007FFFFFF0001FFFFFFFF800000000000F
310
FFFFF800000000000FFFFF000000000003FC000000000007F000F80000000000
310
03FFFFC00003FFFE00001FFFFF80007FF0000000000007FF0000000000007FF8
310
000001FFFE0000007FFFFFF0001FFFFFFFF0000000000007FFFFF00000000000
310
07FFFF000000000003F8000000000003F000F0000000000003FFFFC00001FFFE
310
00001FFFFF80007FE0000000000007FE0000000000003FF8000001FFFE000000
310
7FFFFFF0001FFFFFFFF0000000000007FFFFF0000000000007FFFF0000000000
310
03F800001F800003F000E00001FFF00001FFFFC00001FFFE00000FFFFF80007F
310
E00001FFE00003FE00001FFF00003FF8000001FFFE0000007FFFFFF0001FFFFF
310
FFE000003E000003FFFFE000003E000003FFFF000000000003F00001FFF80001
310
F000E00007FFFC0001FFFFC00001FFFE00000FFFFF80007FC0000FFFFC0003FC
310
0000FFFFC0001FF8000001FFFE0000007FFFFFF0001FFFFFFFC00003FFE00001
310
FFFFC00003FFE00001FFFF0001FFFFFFFFF00007FFFE0001F000E0000FFFFF00
310
00FFFF800001FFFC00000FFFFF80007FC0001FFFFE0001FC0001FFFFE0001FF8
310
000001FFFE0000007FFFFFF0001FFFFFFF80000FFFF80000FFFF80000FFFF800
310
00FFFF0003FFFFFFFFE0000FFFFF8000F000C0003FFFFF8000FFFF800000FFFC
310
000007FFFF80007F80003FFFFF0001FC0003FFFFF0001FF8000001FFFE000000
310
7FFFFFF0001FFFFFFF80003FFFFE0000FFFF80003FFFFE0000FFFF0003FFFFFF
310
FFE0003FFFFF8000F000C0003FFFFF8000FFFF800000FFFC000007FFFF80007F
310
80007FFFFF8001F80007FFFFF8000FF8000001FFFE0000007FFFFFF0001FFFFF
310
FF00007FFFFF00007FFF00007FFFFF00007FFF0003FFFFFFFFE0003FFFFFC000
310
F000C0007FFFFFC000FFFF000000FFFC000007FFFF80007F8000FFFFFF8000F8
310
000FFFFFF8000FF8000001FFFE0000007FFFFFF0001FFFFFFF0000FFFFFF8000
310
7FFF0000FFFFFF80007FFF0003FFFFFFFFC0007FFFFFC00070008000FFFFFFC0
310
00FFFF000000FFF8000007FFFF80007F8000FFFFFF8000F8000FFFFFF8000FF8
310
000001FFFE0000007FFFFFF0001FFFFFFE0001FFFFFFC0003FFE0001FFFFFFC0
310
003FFF0003FFFFFFFFC0007FFFFFE00070008000FFFFFFC0007FFF0000007FF8
310
000003FFFF80007F0001FFFFFF8000F8000FFFFFF8000FF8000001FFFE000000
310
7FFFFFF0001FFFFFFE0001FFFFFFC0003FFE0001FFFFFFC0003FFF0003FFFFFF
310
FFC000FFFFFFE00070008000FFFFFFC0007FFF0000007FF8000003FFFF80007F
310
0001FFFFFF8000F8001FFFFFF8000FF8000001FFFE0000007FFFFFF0001FFFFF
310
FE0003FFFFFFE0003FFE0003FFFFFFE0003FFF0003FFFFFFFFC000FFFFFFE000
310
70008000FFFFFFC0007FFE0000007FF8000003FFFF80007F0001FFFFFF8000F0
310
001FFFFFF8000FF8000001FFFE0000007FFFFFF0001FFFFFFC0003FFFFFFE000
310
1FFC0003FFFFFFE0001FFF0003FFFFFFFFC000FFFFFFC00070008000FFFFFF80
310
007FFE0000007FF0000003FFFF80007F0001FFFFFF0000F0001FFFFFF8000FF8
310
000001FFFE0000007FFFFFF0001FFFFFFC0007FFFFFFF0001FFC0007FFFFFFF0
310
001FFF0003FFFFFFFFC000FFFFFFC00070008001FFFFFF0000FFFE0000003FF0
310
000001FFFF80007F0001FFFFFF0000F8001FFFFFF0000FF8000001FFFE000000
310
7FFFFFF0001FFFFFFC0007FFFFFFF0001FFC0007FFFFFFF0001FFF0003FFFFFF
310
FFC001FFFFFF80007000FFFFFFFFFE0000FFFE0008003FF0008001FFFF80007F
310
FFFFFFFFFC0000FFFFFFFFFFE0000FF8000001FFFE0000007FFFFFF0001FFFFF
310
F8000FFFFFFFF8000FF8000FFFFFFFF8000FFF0003FFFFFFFFFFFFFFFFFF0000
310
7000FFFFFFFFFC0000FFFC0008003FF0008001FFFF80007FFFFFFFFFF80001FF
310
FFFFFFFF80000FF8000001FFFE0000007FFFFFF0001FFFFFF8000FFFFFFFF800
310
0FF8000FFFFFFFF8000FFF0003FFFFFFFFFFFFFFFFFE0000F000FFFFFFFFE000
310
00FFFC000C003FE000C001FFFF80007FFFFFFFFFC00001FFFFFFFFFE00001FF8
310
000001FFFE0000007FFFFFF0001FFFFFF8000FFFFFFFF8000FF8000FFFFFFFF8
310
000FFF0003FFFFFFFFFFFFFFFFF00000F000FFFFFFFE000001FFFC000C001FE0
310
00C000FFFF80007FFFFFFFFE000001FFFFFFFFE000001FF80FFFFFFFFFFFFFC0
310
7FFFFFF0001FFFFFF8000FFFFFFFF8000FF8000FFFFFFFF8000FFF0003FFFFFF
310
FFFFFFFFFF800000F000FFFFFFC0000001FFFC001C001FE001C000FFFF80007F
310
FFFFFF80000003FFFFFFF80000001FF80FFFFFFFFFFFFFC07FFFFFF0001FFFFF
310
F8001FFFFFFFFC000FF8001FFFFFFFFC000FFF0003FFFFFFFFFFFFFFF0000001
310
F000FFFFF800000001FFF8001C001FE001C000FFFF80007FFFFFF800000003FF
310
FFFF800000003FF80FFFFFFFFFFFFFC07FFFFFF0001FFFFFF8001FFFFFFFFC00
310
0FF8001FFFFFFFFC000FFF0003FFFFFFFFFFFFFE00000001F000FFFFC0000000
310
03FFF8001E001FC001E000FFFF80007FFFFF8000000007FFFFFC000000003FF8
310
0FFFFFFFFFFFFFC07FFFFFF0001FFFFFF8001FFFFFFFFC000FF8001FFFFFFFFC
310
000FFF0003FFFFFFFFFFFFE000000003F000FFFE0000000007FFF8001E000FC0
310
01E0007FFF80007FFFFE0000000007FFFFE0000000007FF80FFFFFFFFFFFFFC0
310
7FFFFFF0001FFFFFF0001FFFFFFFFC0007F0001FFFFFFFFC0007FF0003FFFFFF
310
FFFFFF0000000003F000FFF80000000007FFF8001E000FC003E0007FFF80007F
310
FFF0000000000FFFFF8000000000FFF80FFFFFFFFFFFFFC07FFFFFF0001FFFFF
310
F0001FFFFFFFFC0007F0001FFFFFFFFC0007FF0003FFFFFFFFFFFC0000000007
310
F000FFE0000000000FFFF0003E000FC003E0007FFF80007FFFC0000000001FFF
310
FE0000000001FFF80FFFFFFFFFFFFFC07FFFFFF0001FFFFFF0001FFFFFFFFC00
310
07F0001FFFFFFFFC0007FF0003FFFFFFFFFFF0000000000FF000FFC000000000
310
1FFFF0003F000F8003F0003FFF80007FFF80000000003FFFF80000000003FFF8
310
0FFFFFFFFFFFFFC07FFFFFF0001FFFFFF0001FFFFFFFFC0007F0001FFFFFFFFC
310
0007FF0003FFFFFFFFFFE0000000001FF000FF00000000007FFFF0003F000780
310
03F0003FFF80007FFF00000000007FFFF00000000007FFF80FFFFFFFFFFFFFC0
310
7FFFFFF0001FFFFFF0001FFFFFFFFC0007F0001FFFFFFFFC0007FF0003FFFFFF
310
FFFF80000000007FF000FE0000000000FFFFE0003F00078007F0003FFF80007F
310
FE0000000001FFFFE0000000001FFFF80FFFFFFFFFFFFFC07FFFFFF0001FFFFF
310
F0001FFFFFFFFC0007F0001FFFFFFFFC0007FF0003FFFFFFFFFF0000000000FF
310
F000FC0000000003FFFFE0007F00078007F0003FFF80007FFC0000000007FFFF
310
C0000000007FFFF80FFFFFFFFFFFFFC07FFFFFF0001FFFFFF8001FFFFFFFFC00
310
0FF8001FFFFFFFFC000FFF0003FFFFFFFFFE0000000003FFF000FC000000000F
310
FFFFE0007F80070007F8001FFF80007FF8000000001FFFFF8000000001FFFFF8
310
0FFFFFFFFFFFFFC07FFFFFF0001FFFFFF8001FFFFFFFFC000FF8001FFFFFFFFC
310
000FFF0003FFFFFFFFFC000000000FFFF000F8000000007FFFFFE0007F800700
310
07F8001FFF80007FF000000000FFFFFF800000000FFFFFF80FFFFFFFFFFFFFC0
310
7FFFFFF0001FFFFFF8000FFFFFFFF8000FF8000FFFFFFFF8000FFF0003FFFFFF
310
FFFC000000007FFFF000F800000007FFFFFFC0007F8003000FF8001FFF80007F
310
F000000007FFFFFF000000007FFFFFF80FFFFFFFFFFFFFC07FFFFFF0001FFFFF
310
F8000FFFFFFFF8000FF8000FFFFFFFF8000FFF0003FFFFFFFFF80000000FFFFF
310
F000F0000000FFFFFFFFC000FF8003000FF8001FFF80007FE0000000FFFFFFFF
310
0000000FFFFFFFF8000001FFFE0000007FFFFFF0001FFFFFF8000FFFFFFFF800
310
0FF8000FFFFFFFF8000FFF0003FFFFFFFFF8000000FFFFFFF000F000000FFFFF
310
FFFFC000FFC002000FF8000FFF80007FE000001FFFFFFFFE000001FFFFFFFFF8
310
000001FFFE0000007FFFFFF0001FFFFFF8000FFFFFFFF8000FF8000FFFFFFFF8
310
000FFF0003FFFFFFFFF000001FFFFFFFF000E00000FFFFFFFFFFC000FFC00200
310
0FFC000FFF80007FE00001FFFFFFFFFE00001FFFFFFFFFF8000001FFFE000000
310
7FFFFFF0001FFFFFFC000FFFFFFFF8001FFC000FFFFFFFF8001FFF0003FFFFFF
310
FFF00001FFFFFFFFF000E00007FFFFFFFFFF8000FFC000001FFC000FFF80007F
310
C0000FFFFFFFFFFE0000FFFFFFFFFFF8000001FFFE0000007FFFFFF0001FFFFF
310
FC0007FFFFFFF0001FFC0007FFFFFFF0001FFF0003FFFFFFFFF00007FFFFFFFF
310
F000E0001FFFFFFFFFFF8000FFC000001FFC000FFF80007FC0003FFFFFFFFFFE
310
0001FFFFFFFFFFF8000001FFFE0000007FFFFFF0001FFFFFFC0007FFFFFFF000
310
1FFC0007FFFFFFF0001FFF0003FFFFFFFFF0001FFFFFFFFFF000E0003FFFFF00
310
03FF8001FFE000001FFC0007FF80007FC0007FFFFF0007FC0003FFFFF0003FF8
310
000001FFFE0000007FFFFFF0001FFFFFFC0003FFFFFFE0001FFC0003FFFFFFE0
310
001FFF0003FFFFFFFFF0003FFFFFFFFFF000E0003FFFFF0001FF8001FFE00000
310
1FFE0007FF80007FC0007FFFFE0003FC0007FFFFE0003FF8000001FFFE000000
310
7FFFFFF0001FFFFFFE0003FFFFFFE0003FFE0003FFFFFFE0003FFF0003FFFFFF
310
FFF0003FFFFF8001F000E0003FFFFF0001FF0001FFE000001FFE0007FF80007F
310
C0007FFFFE0003FC0007FFFFE0003FF8000001FFFE0000007FFFFFF0001FFFFF
310
FE0001FFFFFFC0003FFE0001FFFFFFC0003FFF0003FFFFFFFFF0003FFFFF0001
310
F000E0003FFFFF0003FF0001FFE000003FFE0007FF80007FC0007FFFFE0003FC
310
0007FFFFE0003FF8000001FFFE0000007FFFFFF0001FFFFFFF0001FFFFFFC000
310
7FFF0001FFFFFFC0007FFF0003FFFFFFFFF0003FFFFF0001F000E0003FFFFE00
310
03FF0003FFF000003FFE0003FF80007FC0007FFFFC0003FE0007FFFFE0003FF8
310
000001FFFE0000007FFFFFF0001FFFFFFF0000FFFFFF80007FFF0000FFFFFF80
310
007FFF0003FFFFFFFFF0003FFFFF0001F000E0003FFFFE0003FF0003FFF00000
310
3FFF0003FF80007FC0007FFFFC0007FE0007FFFFC0003FF8000001FFFE000000
310
7FFFFFF0001FFFFFFF80007FFFFF0000FFFF80007FFFFF0000FFFF0003FFFFFF
310
FFF0003FFFFF0003F000E0003FFFFC0003FE0003FFF000003FFF0003FF80007F
310
E0003FFFF80007FE0003FFFFC0007FF8000001FFFE0000007FFFFFF0001FFFFF
310
FF80003FFFFE0000FFFF80003FFFFE0000FFFF0003FFFFFFFFF0001FFFFE0003
310
F000F0001FFFF80003FE0003FFF000007FFF0001FF80007FE0003FFFF00007FE
310
0001FFFF80007FF8000001FFFE0000007FFFFFF0001FFFFFFFC0000FFFF80001
310
FFFFC0000FFFF80001FFFF0003FFFFFFFFF0001FFFFC0003F000F0000FFFF000
310
07FE0007FFF800007FFF0001FF80007FE0001FFFE00007FF0000FFFE00007FF8
310
000001FFFE0000007FFFFFF0001FFFFFFFC00003FFE00001FFFFC00003FFE000
310
01FFFF0003FFFFFFFFF8000FFFF80003F000F00003FFC00007FC0007FFF80000
310
7FFF8001FF80007FF00007FF80000FFF00007FF80000FFF8000001FFFE000000
310
7F80000000000001FFE000003E000003FFFFE000003E000003FFFF0003FFFFFF
310
FFF80003FFE00007F000F800000000000FFC0007FFF800007FFF8001FF80007F
310
F000000000000FFF000000000000FFF8000001FFFE0000007F80000000000001
310
FFF0000000000007FFFFF0000000000007FFFF0003FFFFFFFFFC00007E000007
310
F000F800000000000FFC0007FFF80000FFFF8000FF80007FF800000000001FFF
310
800000000001FFF8000001FFFE0000007F80000000000001FFF800000000000F
310
FFFFF800000000000FFFFF0003FFFFFFFFFC00000000000FF000FC0000000000
310
1FFC0007FFFC0000FFFF8000FF80007FF800000000003FFFC00000000001FFF8
310
000001FFFE0000007F80000000000001FFF800000000000FFFFFF80000000000
310
0FFFFF0003FFFFFFFFFE00000000001FF000FE00000000003FF8000FFFFC0000
310
FFFF8000FF80007FFC00000000003FFFC00000000003FFF8000001FFFE000000
310
7F80000000000001FFFC00000000001FFFFFFC00000000001FFFFF0003FFFFFF
310
FFFF00000000001FF000FF00000000003FF8000FFFFC0000FFFFC000FF80007F
310
FE00000000007FFFE00000000007FFF8000001FFFE0000007F80000000000001
310
FFFE00000000003FFFFFFE00000000003FFFFF0003FFFFFFFFFF80000000003F
310
F000FF80000000007FF8000FFFFC0001FFFFC0007F80007FFF0000000000FFFF
310
F0000000000FFFF800000000000000007F80000000000001FFFF8000000000FF
310
FFFFFF8000000000FFFFFF0003FFFFFFFFFFC0000000007FF000FFC000000000
310
FFF8000FFFFE0001FFFFC0007F80007FFF8000000001FFFFF8000000001FFFF8
310
00000000000000007F80000000000001FFFFC000000001FFFFFFFFC000000001
310
FFFFFF0003FFFFFFFFFFE000000000FFF000FFE000000003FFF0001FFFFE0001
310
FFFFC0007F80007FFFC000000007FFFFFE000000003FFFF80000000000000000
310
7F80000000000001FFFFE000000003FFFFFFFFE000000003FFFFFF0003FFFFFF
310
FFFFF000000003FFF000FFF80000000FFFF0001FFFFE0001FFFFE0007F80007F
310
FFF00000000FFFFFFF00000000FFFFF800000000000000007F80000000000001
310
FFFFF80000000FFFFFFFFFF80000000FFFFFFF0003FFFFFFFFFFFC0000000FFF
310
F000FFFE0000003FFFF0001FFFFE0003FFFFE0003F80007FFFFC0000003FFFFF
310
FFC0000003FFFFF800000000000000007F80000000000001FFFFFE0000003FFF
310
FFFFFFFE0000003FFFFFFF0003FFFFFFFFFFFF0000003FFFF000FFFF800000FF
310
FFF0001FFFFF0003FFFFE0003F80007FFFFF000001FFFFFFFFF800001FFFFFF8
310
00000000000000007F80000000000001FFFFFFC00001FFFFFFFFFFFFC00001FF
310
FFFFFF0003FFFFFFFFFFFFC00000FFFFF000FFFFF8000FFFFFFFFFFFFFFFFFFF
310
FFFFFFFFFFFFFFFFFFFFF0001FFFFFFFFFFF0000FFFFFFF80000000000000000
310
7FFFFFFFFFFFFFFFFFFFFFFC001FFFFFFFFFFFFFFC001FFFFFFFFFFFFFFFFFFF
310
FFFFFFFC001FFFFFF000FFFFFFFFFFFFFFFFFFFFFFFFFFFFFFFFFFFFFFFFFFFF
310
FFFFFFFFFFFFFFFFFFFFFFFFFFFFFFFFFFFFFFFFFFFFFFFFFFFFFFFFFFFFFFFF
310
FFFFFFFFFFFFFFFFFFFFFFFFFFFFFFFFFFFFFFFFFFFFFFFFFFFFFFFFFFFFFFFF
310
F000FFFFFFFFFFFFFFFFFFFFFFFFFFFFFFFFFFFFFFFFFFFFFFFFFFFFFFFFFFFF
310
FFFFFFFFFFFFFFFFFFFFFFFFFFFFFFFFFFFFFFFFFFFFFFFFFFFFFFFFFFFFFFFF
310
FFFFFFFFFFFFFFFFFFFFFFFFFFFFFFFFFFFFFFFFFFFFFFFFF000FFFFFFFFFFFF
310
FFFFFFFFFFFFFFFFFFFFFFFFFFFFFFFFFFFFFFFFFFFFFFFFFFFFFFFFFFFFFFFF
310
FFFFFFFFFFFFFFFFFFFFFFFFFFFFFFFFFFFFFFFFFFFFFFFFFFFFFFFFFFFFFFFF
310
FFFFFFFFFFFFFFFFFFFFFFFFFFFFFFFFF000FFFFFFFFFFFFFFFFFFFFFFFFFFFF
310
FFFFFFFFFFFFFFFFFFFFFFFFFFFFFFFFFFFFFFFFFFFFFFFFFFFFFFFFFFFFFFFF
310
FFFFFFFFFFFFFFFFFFFFFFFFFFFFFFFFFFFFFFFFFFFFFFFFFFFFFFFFFFFFFFFF
310
FFFFFFFFFFFFFFFFF000FFFFFFFFFFFFFFFFFFFFFFFFFFFFFFFFFFFFFFFFFFFF
310
FFFFFFFFFFFFFFFFFFFFFFFFFFFFFFFFFFFFFFFFFFFFFFFFFFFFFFFFFFFFFFFF
310
FFFFFFFFFFFFFFFFFFFFFFFFFFFFFFFFFFFFFFFFFFFFFFFFFFFFFFFFFFFFFFFF
310
F000FFFFFFFFFFFFFFFFFFFFFFFFFFFFFFFFFFFFFFFFFFFFFFFFFFFFFFFFFFFF
310
FFFFFFFFFFFFFFFFFFFFFFFFFFFFFFFFFFFFFFFFFFFFFFFFFFFFFFFFFFFFFFFF
310
FFFFFFFFFFFFFFFFFFFFFFFFFFFFFFFFFFFFFFFFFFFFFFFFF000FFFFFFFFFFFF
310
FFFFFFFFFFFFFFFFFFFFFFFFFFFFFFFFFFFFFFFFFFFFFFFFFFFFFFFFFFFFFFFF
310
FFFFFFFFFFFFFFFFFFFFFFFFFFFFFFFFFFFFFFFFFFFFFFFFFFFFFFFFFFFFFFFF
310
FFFFFFFFFFFFFFFFFFFFFFFFFFFFFFFFF000FFFFFFFFFFFFFFFFFFFFFFFFFFFF
310
FFFFFFFFFFFFFFFFFFFFFFFFFFFFFFFFFFFFFFFFFFFFFFFFFFFFFFFFFFFFFFFF
310
FFFFFFFFFFFFFFFFFFFFFFFFFFFFFFFFFFFFFFFFFFFFFFFFFFFFFFFFFFFFFFFF
310
FFFFFFFFFFFFFFFFF000FFFFFFFFFFFFFFFFFFFFFFFFFFFFFFFFFFFFFFFFFFFF
310
FFFFFFFFFFFFFFFFFFFFFFFFFFFFFFFFFFFFFFFFFFFFFFFFFFFFFFFFFFFFFFFF
310
FFFFFFFFFFFFFFFFFFFFFFFFFFFFFFFFFFFFFFFFFFFFFFFFFFFFFFFFFFFFFFFF
310
F000FFFFFFFFFFFFFFFFFFFFFFFFFFFFFFFFFFFFFFFFFFFFFFFFFFFFFFFFFFFF
310
FFFFFFFFFFFFFFFFFFFFFFFFFFFFFFFFFFFFFFFFFFFFFFFFFFFFFFFFFFFFFFFF
310
FFFFFFFFFFFFFFFFFFFFFFFFFFFFFFFFFFFFFFFFFFFFFFFFF000FFFFFFFFFFFF
310
FFFFFFFFFFFFFFFFFFFFFFFFFFFFFFFFFFFFFFFFFFFFFFFFFFFFFFFFFFFFFFFF
310
FFFFFFFFFFFFFFFFFFFFFFFFFFFFFFFFFFFFFFFFFFFFFFFFFFFFFFFFFFFFFFFF
310
FFFFFFFFFFFFFFFFFFFFFFFFFFFFFFFFF000FFFFFFFFFFFFFFFFFFFFFFFFFFFF
310
FFFFFFFFFFFFFFFFFFFFFFFFFFFFFFFFFFFFFFFFFFFFFFFFFFFFFFFFFFFFFFFF
310
FFFFFFFFFFFFFFFFFFFFFFFFFFFFFFFFFFFFFFFFFFFFFFFFFFFFFFFFFFFFFFFF
310
FFFFFFFFFFFFFFFFF000FFFFFFFFFFFFFFFFFFFFFFFFFFFFFFFFFFFFFFFFFFFF
310
FFFFFFFFFFFFFFFFFFFFFFFFFFFFFFFFFFFFFFFFFFFFFFFFFFFFFFFFFFFFFFFF
310
FFFFFFFFFFFFFFFFFFFFFFFFFFFFFFFFFFFFFFFFFFFFFFFFFFFFFFFFFFFFFFFF
310
F000FFFFFFFFFFFFFFFFFFFFFFFFFFFFFFFFFFFFFFFFFFFFFFFFFFFFFFFFFFFF
310
FFFFFFFFFFFFFFFFFFFFFFFFFFFFFFFFFFFFFFFFFFFFFFFFFFFFFFFFFFFFFFFF
310
FFFFFFFFFFFFFFFFFFFFFFFFFFFFFFFFFFFFFFFFFFFFFFFFF000FFFFFFFFFFFF
310
FFFFFFFFFFFFFFFFFFFFFFFFFFFFFFFFFFFFFFFFFFFFFFFFFFFFFFFFFFFFFFFF
310
FFFFFFFFFFFFFFFFFFFFFFFFFFFFFFFFFFFFFFFFFFFFFFFFFFFFFFFFFFFFFFFF
310
FFFFFFFFFFFFFFFFFFFFFFFFFFFFFFFFF000FFFFFFFFFFFFFFFFFFFFFFFFFFFF
310
FFFFFFFFFFFFFFFFFFFFFFFFFFFFFFFFFFFFFFFFFFFFFFFFFFFFFFFFFFFFFFFF
310
FFFFFFFFFFFFFFFFFFFFFFFFFFFFFFFFFFFFFFFFFFFFFFFFFFFFFFFFFFFFFFFF
310
FFFFFFFFFFFFFFFFF000FFFFFFFFFFFFFFFFFFFFFFFFFFFFFFFFFFFFFFFFFFFF
310
FFFFFFFFFFFFFFFFFFFFFFFFFFFFFFFFFFFFFFFFFFFFFFFFFFFFFFFFFFFFFFFF
310
FFFFFFFFFFFFFFFFFFFFFFFFFFFFFFFFFFFFFFFFFFFFFFFFFFFFFFFFFFFFFFFF
310
F000FFFFFFFFFFFFFFFFFFFFFFFFFFFFFFFFFFFFFFFFFFFFFFFFFFFFFFFFFFFF
310
FFFFFFFFFFFFFFFFFFFFFFFFFFFFFFFFFFFFFFFFFFFFFFFFFFFFFFFFFFFFFFFF
310
FFFFFFFFFFFFFFFFFFFFFFFFFFFFFFFFFFFFFFFFFFFFFFFFF000FFFFFFFFFFFF
310
FFFFFFFFFFFFFFFFFFFFFFFFFFFFFFFFFFFFFFFFFFFFFFFFFFFFFFFFFFFFFFFF
310
FFFFFFFFFFFFFFFFFFFFFFFFFFFFFFFFFFFFFFFFFFFFFFFFFFFFFFFFFFFFFFFF
310
FFFFFFFFFFFFFFFFFFFFFFFFFFFFFFFFF000FFFFFFFFFFFFFFFFFFFFFFFFFFFF
310
FFFFFFFFFFFFFFFFFFFFFFFFFFFFFFFFFFFFFFFFFFFFFFFFFFFFFFFFFFFFFFFF
310
FFFFFFFFFFFFFFFFFFFFFFFFFFFFFFFFFFFFFFFFFFFFFFFFFFFFFFFFFFFFFFFF
310
FFFFFFFFFFFFFFFFF000FFFFFFFFFFFFFFFFFFFFFFFFFFFFFFFFFFFFFFFFFFFF
310
FFFFFFFFFFFFFFFFFFFFFFFFFFFFFFFFFFFFFFFFFFFFFFFFFFFFFFFFFFFFFFFF
310
FFFFFFFFFFFFFFFFFFFFFFFFFFFFFFFFFFFFFFFFFFFFFFFFFFFFFFFFFFFFFFFF
310
F000FFFFFFFFFFFFFFFFFFFFFFFFFFFFFFFFFFFFFFFFFFFFFFFFFFFFFFFFFFFF
310
FFFFFFFFFFFFFFFFFFFFFFFFFFFFFFFFFFFFFFFFFFFFFFFFFFFFFFFFFFFFFFFF
310
FFFFFFFFFFFFFFFFFFFFFFFFFFFFFFFFFFFFFFFFFFFFFFFFF000FFFFFFFFFFFF
310
FFFFFFFFFFFFFFFFFFFFFFFFFFFFFFFFFFFFFFFFFFFFFFFFFFFFFFFFFFFFFFFF
310
FFFFFFFFFFFFFFFFFFFFFFFFFFFFFFFFFFFFFFFFFFFFFFFFFFFFFFFFFFFFFFFF
310
FFFFFFFFFFFFFFFFFFFFFFFFFFFFFFFFF0000000000000000000000000000000
310
0000000000000000000000000000000000000000000000000000000000000000
310
0000000000000000000000000000000000000000000000000000000000000000
310
0000000000000000000000000000000000000000000000000000000000000000
310
0000000000000000000000000000000000000000000000000000000000000000
310
0000000000000000000000000000000000000000000000000000000000000000
310
0000000000000000000000000000000000000000000000000000000000000000
310
0000000000000000000000000000000000000000000000000000000000000000
310
0000000000000000000000000000000000000000000000000000000000000000
310
0000000000000000000000000000000000000000000000000000000000000000
310
0000000000000000000000000000000000000000000000000000000000000000
310
0000000000000000000000000000000000000000000000000000000000000000
310
0000000000000000000000000000000000000000000000000000000000000000
310
0000000000000000000000000000000000000000000000000000000000000000
310
0000000000000000000000000000000000000000000000000000000000000000
310
0000000000000000000000000000000000000000000000000000000000000000
  1
OLE
  0
ENDSEC
  0
SECTION
  2
OBJECTS
  0
DICTIONARY
  5
C
330
0
100
AcDbDictionary
281
     1
  3
ACAD_GROUP
350
D
  3
ACAD_LAYOUT
350
1A
  3
ACAD_MLINESTYLE
350
17
  3
ACAD_PLOTSETTINGS
350
19
  3
ACAD_PLOTSTYLENAME
350
E
  0
DICTIONARY
  5
D
102
{ACAD_REACTORS
330
C
102
}
330
C
100
AcDbDictionary
281
     1
  0
DICTIONARY
  5
1A
102
{ACAD_REACTORS
330
C
102
}
330
C
100
AcDbDictionary
281
     1
  3
Layout1
350
1E
  3
Layout2
350
26
  3
Model
350
22
  0
DICTIONARY
  5
17
102
{ACAD_REACTORS
330
C
102
}
330
C
100
AcDbDictionary
281
     1
  3
Standard
350
18
  0
DICTIONARY
  5
19
102
{ACAD_REACTORS
330
C
102
}
330
C
100
AcDbDictionary
281
     1
  0
ACDBDICTIONARYWDFLT
  5
E
102
{ACAD_REACTORS
330
C
102
}
330
C
100
AcDbDictionary
281
     1
  3
Normal
350
F
100
AcDbDictionaryWithDefault
340
F
  0
LAYOUT
  5
1E
102
{ACAD_REACTORS
330
1A
102
}
330
1A
100
AcDbPlotSettings
  1

  2
none_device
  4

  6

 40
0.0
 41
0.0
 42
0.0
 43
0.0
 44
0.0
 45
0.0
 46
0.0
 47
0.0
 48
0.0
 49
0.0
140
0.0
141
0.0
142
1.0
143
1.0
 70
   688
 72
     0
 73
     0
 74
     5
  7

 75
    16
147
1.0
148
0.0
149
0.0
100
AcDbLayout
  1
Layout1
 70
     1
 71
     1
 10
0.0
 20
0.0
 11
420.0
 21
297.0
 12
0.0
 22
0.0
 32
0.0
 14
1.0000000000E+20
 24
1.0000000000E+20
 34
1.0000000000E+20
 15
-1.0000000000E+20
 25
-1.0000000000E+20
 35
-1.0000000000E+20
146
0.0
 13
0.0
 23
0.0
 33
0.0
 16
1.0
 26
0.0
 36
0.0
 17
0.0
 27
1.0
 37
0.0
 76
     0
330
1B
  0
LAYOUT
  5
26
102
{ACAD_REACTORS
330
1A
102
}
330
1A
100
AcDbPlotSettings
  1

  2
none_device
  4

  6

 40
0.0
 41
0.0
 42
0.0
 43
0.0
 44
0.0
 45
0.0
 46
0.0
 47
0.0
 48
0.0
 49
0.0
140
0.0
141
0.0
142
1.0
143
1.0
 70
   688
 72
     0
 73
     0
 74
     5
  7

 75
    16
147
1.0
148
0.0
149
0.0
100
AcDbLayout
  1
Layout2
 70
     1
 71
     2
 10
0.0
 20
0.0
 11
0.0
 21
0.0
 12
0.0
 22
0.0
 32
0.0
 14
0.0
 24
0.0
 34
0.0
 15
0.0
 25
0.0
 35
0.0
146
0.0
 13
0.0
 23
0.0
 33
0.0
 16
1.0
 26
0.0
 36
0.0
 17
0.0
 27
1.0
 37
0.0
 76
     0
330
23
  0
LAYOUT
  5
22
102
{ACAD_REACTORS
330
1A
102
}
330
1A
100
AcDbPlotSettings
  1

  2
none_device
  4

  6

 40
0.0
 41
0.0
 42
0.0
 43
0.0
 44
0.0
 45
0.0
 46
0.0
 47
0.0
 48
0.0
 49
0.0
140
0.0
141
0.0
142
1.0
143
1.0
 70
  1712
 72
     0
 73
     0
 74
     0
  7

 75
     0
147
1.0
148
0.0
149
0.0
100
AcDbLayout
  1
Model
 70
     1
 71
     0
 10
0.0
 20
0.0
 11
297.0
 21
210.0
 12
0.0
 22
0.0
 32
0.0
 14
0.0
 24
0.0
 34
0.0
 15
297.0
 25
210.0
 35
0.0
146
0.0
 13
0.0
 23
0.0
 33
0.0
 16
1.0
 26
0.0
 36
0.0
 17
0.0
 27
1.0
 37
0.0
 76
     0
330
1F
331
29
  0
MLINESTYLE
  5
18
102
{ACAD_REACTORS
330
17
102
}
330
17
100
AcDbMlineStyle
  2
Standard
 70
     0
  3

 62
   256
 51
90.0
 52
90.0
 71
     2
 49
0.5
 62
   256
  6
BYLAYER
 49
-0.5
 62
   256
  6
BYLAYER
  0
ACDBPLACEHOLDER
  5
F
102
{ACAD_REACTORS
330
E
102
}
330
E
  0
ENDSEC
  0
EOF
