  0
SECTION
  2
HEADER
  9
$ACADVER
  1
AC1015
  9
$ACADMAINTVER
 70
     6
  9
$DWGCODEPAGE
  3
ANSI_1252
  9
$INSBASE
 10
0.0
 20
0.0
 30
0.0
  9
$EXTMIN
 10
0.0
 20
0.0
 30
0.0
  9
$EXTMAX
 10
297.0
 20
210.0
 30
0.0
  9
$LIMMIN
 10
0.0
 20
0.0
  9
$LIMMAX
 10
297.0
 20
210.0
  9
$ORTHOMODE
 70
     0
  9
$REGENMODE
 70
     1
  9
$FILLMODE
 70
     1
  9
$QTEXTMODE
 70
     0
  9
$MIRRTEXT
 70
     1
  9
$LTSCALE
 40
1.0
  9
$ATTMODE
 70
     1
  9
$TEXTSIZE
 40
2.0
  9
$TRACEWID
 40
1.0
  9
$TEXTSTYLE
  7
Standard
  9
$CLAYER
  8
0
  9
$CELTYPE
  6
ByLayer
  9
$CECOLOR
 62
   256
  9
$CELTSCALE
 40
1.0
  9
$DISPSILH
 70
     0
  9
$DIMSCALE
 40
1.0
  9
$DIMASZ
 40
3.0
  9
$DIMEXO
 40
0.0
  9
$DIMDLI
 40
3.75
  9
$DIMRND
 40
0.0
  9
$DIMDLE
 40
0.0
  9
$DIMEXE
 40
1.0
  9
$DIMTP
 40
0.0
  9
$DIMTM
 40
0.0
  9
$DIMTXT
 40
2.0
  9
$DIMCEN
 40
2.5
  9
$DIMTSZ
 40
0.0
  9
$DIMTOL
 70
     0
  9
$DIMLIM
 70
     0
  9
$DIMTIH
 70
     1
  9
$DIMTOH
 70
     1
  9
$DIMSE1
 70
     0
  9
$DIMSE2
 70
     0
  9
$DIMTAD
 70
     1
  9
$DIMZIN
 70
     0
  9
$DIMBLK
  1

  9
$DIMASO
 70
     1
  9
$DIMSHO
 70
     1
  9
$DIMPOST
  1

  9
$DIMAPOST
  1

  9
$DIMALT
 70
     0
  9
$DIMALTD
 70
     3
  9
$DIMALTF
 40
0.0393700787
  9
$DIMLFAC
 40
1.0
  9
$DIMTOFL
 70
     1
  9
$DIMTVP
 40
0.0
  9
$DIMTIX
 70
     0
  9
$DIMSOXD
 70
     0
  9
$DIMSAH
 70
     0
  9
$DIMBLK1
  1

  9
$DIMBLK2
  1

  9
$DIMSTYLE
  2
ISO-25
  9
$DIMCLRD
 70
     0
  9
$DIMCLRE
 70
     0
  9
$DIMCLRT
 70
     0
  9
$DIMTFAC
 40
1.0
  9
$DIMGAP
 40
1.524
  9
$DIMJUST
 70
     0
  9
$DIMSD1
 70
     0
  9
$DIMSD2
 70
     0
  9
$DIMTOLJ
 70
     0
  9
$DIMTZIN
 70
     0
  9
$DIMALTZ
 70
     0
  9
$DIMALTTZ
 70
     0
  9
$DIMUPT
 70
     0
  9
$DIMDEC
 70
     2
  9
$DIMTDEC
 70
     3
  9
$DIMALTU
 70
     2
  9
$DIMALTTD
 70
     3
  9
$DIMTXSTY
  7
Standard
  9
$DIMAUNIT
 70
     0
  9
$DIMADEC
 70
     2
  9
$DIMALTRND
 40
0.0
  9
$DIMAZIN
 70
     0
  9
$DIMDSEP
 70
    44
  9
$DIMATFIT
 70
     3
  9
$DIMFRAC
 70
     0
  9
$DIMLDRBLK
  1

  9
$DIMLUNIT
 70
     2
  9
$DIMLWD
 70
    -2
  9
$DIMLWE
 70
    -2
  9
$DIMTMOVE
 70
     0
  9
$LUNITS
 70
     2
  9
$LUPREC
 70
     2
  9
$SKETCHINC
 40
1.0
  9
$FILLETRAD
 40
10.0
  9
$AUNITS
 70
     0
  9
$AUPREC
 70
     2
  9
$MENU
  1
.
  9
$ELEVATION
 40
0.0
  9
$PELEVATION
 40
0.0
  9
$THICKNESS
 40
0.0
  9
$LIMCHECK
 70
     0
  9
$CHAMFERA
 40
10.0
  9
$CHAMFERB
 40
10.0
  9
$CHAMFERC
 40
20.0
  9
$CHAMFERD
 40
0.0
  9
$SKPOLY
 70
     0
  9
$TDCREATE
 40
2456045.463356852
  9
$TDUCREATE
 40
2456045.380023519
  9
$TDUPDATE
 40
2456045.463358298
  9
$TDUUPDATE
 40
2456045.380024965
  9
$TDINDWG
 40
0.0000000116
  9
$TDUSRTIMER
 40
0.0000000116
  9
$USRTIMER
 70
     1
  9
$ANGBASE
 50
0.0
  9
$ANGDIR
 70
     0
  9
$PDMODE
 70
     0
  9
$PDSIZE
 40
-1.0
  9
$PLINEWID
 40
0.0
  9
$SPLFRAME
 70
     0
  9
$SPLINETYPE
 70
     6
  9
$SPLINESEGS
 70
     8
  9
$HANDSEED
  5
274
  9
$SURFTAB1
 70
     6
  9
$SURFTAB2
 70
     6
  9
$SURFTYPE
 70
     6
  9
$SURFU
 70
     6
  9
$SURFV
 70
     6
  9
$UCSBASE
  2

  9
$UCSNAME
  2

  9
$UCSORG
 10
0.0
 20
0.0
 30
0.0
  9
$UCSXDIR
 10
1.0
 20
0.0
 30
0.0
  9
$UCSYDIR
 10
0.0
 20
1.0
 30
0.0
  9
$UCSORTHOREF
  2

  9
$UCSORTHOVIEW
 70
     0
  9
$UCSORGTOP
 10
0.0
 20
0.0
 30
0.0
  9
$UCSORGBOTTOM
 10
0.0
 20
0.0
 30
0.0
  9
$UCSORGLEFT
 10
0.0
 20
0.0
 30
0.0
  9
$UCSORGRIGHT
 10
0.0
 20
0.0
 30
0.0
  9
$UCSORGFRONT
 10
0.0
 20
0.0
 30
0.0
  9
$UCSORGBACK
 10
0.0
 20
0.0
 30
0.0
  9
$PUCSBASE
  2

  9
$PUCSNAME
  2

  9
$PUCSORG
 10
0.0
 20
0.0
 30
0.0
  9
$PUCSXDIR
 10
1.0
 20
0.0
 30
0.0
  9
$PUCSYDIR
 10
0.0
 20
1.0
 30
0.0
  9
$PUCSORTHOREF
  2

  9
$PUCSORTHOVIEW
 70
     0
  9
$PUCSORGTOP
 10
0.0
 20
0.0
 30
0.0
  9
$PUCSORGBOTTOM
 10
0.0
 20
0.0
 30
0.0
  9
$PUCSORGLEFT
 10
0.0
 20
0.0
 30
0.0
  9
$PUCSORGRIGHT
 10
0.0
 20
0.0
 30
0.0
  9
$PUCSORGFRONT
 10
0.0
 20
0.0
 30
0.0
  9
$PUCSORGBACK
 10
0.0
 20
0.0
 30
0.0
  9
$USERI1
 70
     0
  9
$USERI2
 70
     0
  9
$USERI3
 70
     0
  9
$USERI4
 70
     0
  9
$USERI5
 70
     0
  9
$USERR1
 40
0.0
  9
$USERR2
 40
0.0
  9
$USERR3
 40
0.0
  9
$USERR4
 40
0.0
  9
$USERR5
 40
0.0
  9
$WORLDVIEW
 70
     1
  9
$SHADEDGE
 70
     3
  9
$SHADEDIF
 70
    70
  9
$TILEMODE
 70
     1
  9
$MAXACTVP
 70
    64
  9
$PINSBASE
 10
0.0
 20
0.0
 30
0.0
  9
$PLIMCHECK
 70
     0
  9
$PEXTMIN
 10
1.0000000000E+20
 20
1.0000000000E+20
 30
1.0000000000E+20
  9
$PEXTMAX
 10
-1.0000000000E+20
 20
-1.0000000000E+20
 30
-1.0000000000E+20
  9
$PLIMMIN
 10
0.0
 20
0.0
  9
$PLIMMAX
 10
420.0
 20
297.0
  9
$UNITMODE
 70
     0
  9
$VISRETAIN
 70
     1
  9
$PLINEGEN
 70
     0
  9
$PSLTSCALE
 70
     1
  9
$TREEDEPTH
 70
  3020
  9
$CMLSTYLE
  2
Standard
  9
$CMLJUST
 70
     0
  9
$CMLSCALE
 40
20.0
  9
$PROXYGRAPHICS
 70
     1
  9
$MEASUREMENT
 70
     1
  9
$CELWEIGHT
370
    -1
  9
$ENDCAPS
280
     0
  9
$JOINSTYLE
280
     0
  9
$LWDISPLAY
290
     1
  9
$INSUNITS
 70
     4
  9
$HYPERLINKBASE
  1

  9
$STYLESHEET
  1

  9
$XEDIT
290
     1
  9
$CEPSNTYPE
380
     0
  9
$PSTYLEMODE
290
     1
  9
$FINGERPRINTGUID
  2
{2139C8B6-5D66-4970-92C0-AFE407899F5B}
  9
$VERSIONGUID
  2
{FAEB1C32-E019-11D5-929B-00C0DF256EC4}
  9
$EXTNAMES
290
     1
  9
$PSVPSCALE
 40
0.0
  9
$OLESTARTUP
290
     0
  0
ENDSEC
  0
SECTION
  2
CLASSES
  0
CLASS
  1
ACDBDICTIONARYWDFLT
  2
AcDbDictionaryWithDefault
  3
ObjectDBX Classes
 90
        0
280
     0
281
     0
  0
CLASS
  1
VISUALSTYLE
  2
AcDbVisualStyle
  3
ObjectDBX Classes
 90
     4095
280
     0
281
     0
  0
CLASS
  1
MATERIAL
  2
AcDbMaterial
  3
ObjectDBX Classes
 90
     1153
280
     0
281
     0
  0
CLASS
  1
ACDBPLACEHOLDER
  2
AcDbPlaceHolder
  3
ObjectDBX Classes
 90
        0
280
     0
281
     0
  0
CLASS
  1
LAYOUT
  2
AcDbLayout
  3
ObjectDBX Classes
 90
        0
280
     0
281
     0
  0
ENDSEC
  0
SECTION
  2
TABLES
  0
TABLE
  2
VPORT
  5
8
330
0
100
AcDbSymbolTable
 70
     1
  0
VPORT
  5
29
330
8
100
AcDbSymbolTableRecord
100
AcDbViewportTableRecord
  2
*Active
 70
     0
 10
0.0
 20
0.0
 11
1.0
 21
1.0
 12
148.5
 22
105.0
 13
0.0
 23
0.0
 14
10.0
 24
10.0
 15
10.0
 25
10.0
 16
0.0
 26
0.0
 36
1.0
 17
0.0
 27
0.0
 37
0.0
 40
210.0
 41
1.4142857143
 42
50.0
 43
0.0
 44
0.0
 50
0.0
 51
0.0
 71
     0
 72
  2000
 73
     1
 74
     3
 75
     0
 76
     0
 77
     0
 78
     0
281
     0
 65
     1
110
0.0
120
0.0
130
0.0
111
1.0
121
0.0
131
0.0
112
0.0
122
1.0
132
0.0
 79
     0
146
0.0
  0
ENDTAB
  0
TABLE
  2
LTYPE
  5
5
330
0
100
AcDbSymbolTable
 70
     6
  0
LTYPE
  5
14
330
5
100
AcDbSymbolTableRecord
100
AcDbLinetypeTableRecord
  2
ByBlock
 70
     0
  3

 72
    65
 73
     0
 40
0.0
  0
LTYPE
  5
15
330
5
100
AcDbSymbolTableRecord
100
AcDbLinetypeTableRecord
  2
ByLayer
 70
     0
  3

 72
    65
 73
     0
 40
0.0
  0
LTYPE
  5
16
330
5
100
AcDbSymbolTableRecord
100
AcDbLinetypeTableRecord
  2
Continuous
 70
     0
  3
Solid line
 72
    65
 73
     0
 40
0.0
  0
LTYPE
  5
3F
330
5
100
AcDbSymbolTableRecord
100
AcDbLinetypeTableRecord
  2
HIDDEN
 70
     0
  3
Hidden __ __ __ __ __ __ __ __ __ __ __ __ __ __
 72
    65
 73
     2
 40
1.905
 49
1.27
 74
     0
 49
-0.635
 74
     0
  0
LTYPE
  5
40
330
5
100
AcDbSymbolTableRecord
100
AcDbLinetypeTableRecord
  2
PHANTOM
 70
     0
  3
Phantom ______  __  __  ______  __  __  ______
 72
    65
 73
     6
 40
12.7
 49
6.35
 74
     0
 49
-1.27
 74
     0
 49
1.27
 74
     0
 49
-1.27
 74
     0
 49
1.27
 74
     0
 49
-1.27
 74
     0
  0
LTYPE
  5
41
330
5
100
AcDbSymbolTableRecord
100
AcDbLinetypeTableRecord
  2
CENTER
 70
     0
  3
Center ____ _ ____ _ ____ _ ____ _ ____ _ ____
 72
    65
 73
     4
 40
10.16
 49
6.35
 74
     0
 49
-1.27
 74
     0
 49
1.27
 74
     0
 49
-1.27
 74
     0
  0
LTYPE
  5
42
330
5
100
AcDbSymbolTableRecord
100
AcDbLinetypeTableRecord
  2
CENTERX2
 70
     0
  3
Center (2x) ________  __  ________  __  _____
 72
    65
 73
     4
 40
20.32
 49
12.7
 74
     0
 49
-2.54
 74
     0
 49
2.54
 74
     0
 49
-2.54
 74
     0
  0
LTYPE
  5
43
330
5
100
AcDbSymbolTableRecord
100
AcDbLinetypeTableRecord
  2
DOT2
 70
     0
  3
Dot (.5x) ........................................
 72
    65
 73
     2
 40
0.635
 49
0.0
 74
     0
 49
-0.635
 74
     0
  0
ENDTAB
  0
TABLE
  2
LAYER
  5
2
330
0
100
AcDbSymbolTable
 70
     5
  0
LAYER
  5
10
330
2
100
AcDbSymbolTableRecord
100
AcDbLayerTableRecord
  2
0
 70
     0
 62
     7
  6
Continuous
370
    -3
390
F
  0
LAYER
  5
44
330
2
100
AcDbSymbolTableRecord
100
AcDbLayerTableRecord
  2
FORMAT
 70
     0
 62
     7
  6
Continuous
370
    -3
390
F
  0
LAYER
  5
45
330
2
100
AcDbSymbolTableRecord
100
AcDbLayerTableRecord
  2
VERMASSUNG
 70
     0
 62
     7
  6
Continuous
370
    -3
390
F
  0
LAYER
  5
46
330
2
100
AcDbSymbolTableRecord
100
AcDbLayerTableRecord
  2
KOPF_DÜNN
 70
     0
 62
     7
  6
Continuous
370
    -3
390
F
  0
LAYER
  5
47
330
2
100
AcDbSymbolTableRecord
100
AcDbLayerTableRecord
  2
KOPF_DICK
 70
     0
 62
     7
  6
Continuous
370
    15
390
F
  0
ENDTAB
  0
TABLE
  2
STYLE
  5
3
330
0
100
AcDbSymbolTable
 70
     2
  0
STYLE
  5
11
330
3
100
AcDbSymbolTableRecord
100
AcDbTextStyleTableRecord
  2
Standard
 70
     0
 40
0.0
 41
1.0
 50
0.0
 71
     0
 42
2.0
  3
txt
  4

  0
STYLE
  5
48
330
3
100
AcDbSymbolTableRecord
100
AcDbTextStyleTableRecord
  2
SLDTEXTSTYLE0
 70
     0
 40
0.0
 41
0.7
 50
0.0
 71
     0
 42
0.2
  3
TXT
  4

  0
ENDTAB
  0
TABLE
  2
VIEW
  5
6
330
0
100
AcDbSymbolTable
 70
     0
  0
ENDTAB
  0
TABLE
  2
UCS
  5
7
330
0
100
AcDbSymbolTable
 70
     0
  0
ENDTAB
  0
TABLE
  2
APPID
  5
9
330
0
100
AcDbSymbolTable
 70
     1
  0
APPID
  5
12
330
9
100
AcDbSymbolTableRecord
100
AcDbRegAppTableRecord
  2
ACAD
 70
     0
  0
ENDTAB
  0
TABLE
  2
DIMSTYLE
  5
A
330
0
100
AcDbSymbolTable
 70
     5
100
AcDbDimStyleTable
  0
DIMSTYLE
105
27
330
A
100
AcDbSymbolTableRecord
100
AcDbDimStyleTableRecord
  2
ISO-25
 70
     0
 41
2.5
 42
0.625
 43
3.75
 44
1.25
 73
     0
 74
     0
 77
     1
 78
     8
140
2.5
141
2.5
143
0.0393700787
147
0.625
171
     3
172
     1
178
     0
271
     2
272
     2
274
     3
278
    44
283
     0
284
     8
340
11
  0
DIMSTYLE
105
1C3
102
{ACAD_REACTORS
330
1C2
330
1CF
102
}
330
A
100
AcDbSymbolTableRecord
100
AcDbDimStyleTableRecord
  2
SLDDIMSTYLE0
 70
     0
 41
3.0
 44
0.0
 45
0.000000001
 47
0.1
 48
0.1
 71
     1
 73
     0
 74
     0
 77
     1
 78
    12
 79
     3
140
2.0
147
0.5
173
     1
178
     0
271
     2
272
     1
276
     2
284
     8
340
48
  0
DIMSTYLE
105
1DC
102
{ACAD_REACTORS
330
1DB
330
1EF
102
}
330
A
100
AcDbSymbolTableRecord
100
AcDbDimStyleTableRecord
  2
SLDDIMSTYLE1
 70
     0
 41
3.0
 44
0.0
 45
0.000000001
 73
     0
 74
     0
 77
     1
 78
    12
 79
     3
140
2.0
147
0.5
173
     1
178
     0
271
     2
272
     3
276
     2
284
    12
340
48
  0
DIMSTYLE
105
1E7
102
{ACAD_REACTORS
330
1E6
102
}
330
A
100
AcDbSymbolTableRecord
100
AcDbDimStyleTableRecord
  2
SLDDIMSTYLE2
 70
     0
 41
3.0
 44
0.0
 73
     0
 74
     0
 77
     1
 78
    12
 79
     3
140
2.0
147
0.5
173
     1
178
     0
179
     2
272
     3
276
     2
284
    12
340
48
  0
DIMSTYLE
105
259
102
{ACAD_REACTORS
330
258
102
}
330
A
100
AcDbSymbolTableRecord
100
AcDbDimStyleTableRecord
  2
SLDDIMSTYLE3
 70
     0
 41
3.0
 44
0.0
 45
0.000000001
 73
     0
 74
     0
 77
     1
 78
    12
 79
     3
140
2.0
147
0.5
172
     1
173
     1
178
     0
271
     2
272
     3
276
     2
284
    12
289
     0
340
48
  0
ENDTAB
  0
TABLE
  2
BLOCK_RECORD
  5
1
330
0
100
AcDbSymbolTable
 70
     8
  0
BLOCK_RECORD
  5
1F
330
1
100
AcDbSymbolTableRecord
100
AcDbBlockTableRecord
  2
*Model_Space
340
22
  0
BLOCK_RECORD
  5
1B
330
1
100
AcDbSymbolTableRecord
100
AcDbBlockTableRecord
  2
*Paper_Space
340
1E
  0
BLOCK_RECORD
  5
23
330
1
100
AcDbSymbolTableRecord
100
AcDbBlockTableRecord
  2
*Paper_Space0
340
26
  0
BLOCK_RECORD
  5
1C4
330
1
100
AcDbSymbolTableRecord
100
AcDbBlockTableRecord
  2
_D
340
0
  0
BLOCK_RECORD
  5
1D0
330
1
100
AcDbSymbolTableRecord
100
AcDbBlockTableRecord
  2
_D_1
340
0
  0
BLOCK_RECORD
  5
1DD
330
1
100
AcDbSymbolTableRecord
100
AcDbBlockTableRecord
  2
_D_2
340
0
  0
BLOCK_RECORD
  5
1E8
330
1
100
AcDbSymbolTableRecord
100
AcDbBlockTableRecord
  2
_D_3
340
0
  0
BLOCK_RECORD
  5
1F0
330
1
100
AcDbSymbolTableRecord
100
AcDbBlockTableRecord
  2
_D_4
340
0
  0
BLOCK_RECORD
  5
25A
330
1
100
AcDbSymbolTableRecord
100
AcDbBlockTableRecord
  2
_D_5
340
0
  0
BLOCK_RECORD
  5
267
330
1
100
AcDbSymbolTableRecord
100
AcDbBlockTableRecord
  2
SW_CENTERMARKSYMBOL_0
340
0
102
{BLKREFS
331
272
102
}
  0
ENDTAB
  0
ENDSEC
  0
SECTION
  2
BLOCKS
  0
BLOCK
  5
20
330
1F
100
AcDbEntity
  8
0
100
AcDbBlockBegin
  2
*Model_Space
 70
     0
 10
0.0
 20
0.0
 30
0.0
  3
*Model_Space
  1

  0
ENDBLK
  5
21
330
1F
100
AcDbEntity
  8
0
100
AcDbBlockEnd
  0
BLOCK
  5
1C
330
1B
100
AcDbEntity
 67
     1
  8
0
100
AcDbBlockBegin
  2
*Paper_Space
 70
     0
 10
0.0
 20
0.0
 30
0.0
  3
*Paper_Space
  1

  0
ENDBLK
  5
1D
330
1B
100
AcDbEntity
 67
     1
  8
0
100
AcDbBlockEnd
  0
BLOCK
  5
24
330
23
100
AcDbEntity
  8
0
100
AcDbBlockBegin
  2
*Paper_Space0
 70
     0
 10
0.0
 20
0.0
 30
0.0
  3
*Paper_Space0
  1

  0
ENDBLK
  5
25
330
23
100
AcDbEntity
  8
0
100
AcDbBlockEnd
  0
BLOCK
  5
1C5
330
1C4
100
AcDbEntity
  8
0
100
AcDbBlockBegin
  2
_D
 70
     0
 10
0.0
 20
0.0
 30
0.0
  3
_D
  1

  0
SOLID
  5
1C7
330
1C4
100
AcDbEntity
  8
VERMASSUNG
100
AcDbTrace
 10
255.5060169619
 20
89.6161022801
 30
0.0
 11
255.9560169619
 21
92.6161022801
 31
0.0
 12
255.0560169619
 22
92.6161022801
 32
0.0
 13
255.0560169619
 23
92.6161022801
 33
0.0
  0
SOLID
  5
1C8
330
1C4
100
AcDbEntity
  8
VERMASSUNG
100
AcDbTrace
 10
255.5060169619
 20
124.6161022801
 30
0.0
 11
255.0560169619
 21
121.6161022801
 31
0.0
 12
255.9560169619
 22
121.6161022801
 32
0.0
 13
255.9560169619
 23
121.6161022801
 33
0.0
  0
LINE
  5
1C9
330
1C4
100
AcDbEntity
  8
VERMASSUNG
100
AcDbLine
 10
236.19406644
 20
89.6161022801
 30
0.0
 11
256.5060169619
 21
89.6161022801
 31
0.0
  0
LINE
  5
1CA
330
1C4
100
AcDbEntity
  8
VERMASSUNG
100
AcDbLine
 10
236.19406644
 20
124.6161022801
 30
0.0
 11
256.5060169619
 21
124.6161022801
 31
0.0
  0
LINE
  5
1CB
330
1C4
100
AcDbEntity
  8
VERMASSUNG
100
AcDbLine
 10
255.5060169619
 20
89.6161022801
 30
0.0
 11
255.5060169619
 21
124.6161022801
 31
0.0
  0
MTEXT
  5
1CC
330
1C4
100
AcDbEntity
  8
VERMASSUNG
100
AcDbMText
 10
252.9278815988
 20
102.5661020931
 30
0.1
 40
2.0
 41
0.0
 71
     1
 72
     1
  1
35
  7
SLDTEXTSTYLE0
 11
6.123233995736766E-17
 21
1.0
 31
0.0
 73
     1
 44
1.0
  0
MTEXT
  5
1CD
330
1C4
100
AcDbEntity
  8
VERMASSUNG
100
AcDbMText
 10
252.9278815988
 20
108.3536021952
 30
0.1
 40
2.0
 41
0.0
 71
     1
 72
     1
  1

  7
SLDTEXTSTYLE0
 11
6.123233995736766E-17
 21
1.0
 31
0.0
 73
     1
 44
1.0
  0
MTEXT
  5
1CE
330
1C4
100
AcDbEntity
  8
VERMASSUNG
100
AcDbMText
 10
253.4224154615
 20
108.366102485
 30
0.1
 40
1.5
 41
0.0
 71
     1
 72
     1
  1
±0.1
  7
SLDTEXTSTYLE0
 11
6.123233995736766E-17
 21
1.0
 31
0.0
 73
     1
 44
1.0
  0
ENDBLK
  5
1C6
330
1C4
100
AcDbEntity
  8
0
100
AcDbBlockEnd
  0
BLOCK
  5
1D1
330
1D0
100
AcDbEntity
  8
0
100
AcDbBlockBegin
  2
_D_1
 70
     0
 10
0.0
 20
0.0
 30
0.0
  3
_D_1
  1

  0
SOLID
  5
1D3
330
1D0
100
AcDbEntity
  8
VERMASSUNG
100
AcDbTrace
 10
236.19406644
 20
81.7529017166
 30
0.0
 11
233.19406644
 21
82.2029017166
 31
0.0
 12
233.19406644
 22
81.3029017166
 32
0.0
 13
233.19406644
 23
81.3029017166
 33
0.0
  0
SOLID
  5
1D4
330
1D0
100
AcDbEntity
  8
VERMASSUNG
100
AcDbTrace
 10
176.19406644
 20
81.7529017166
 30
0.0
 11
179.19406644
 21
81.3029017166
 31
0.0
 12
179.19406644
 22
82.2029017166
 32
0.0
 13
179.19406644
 23
82.2029017166
 33
0.0
  0
LINE
  5
1D5
330
1D0
100
AcDbEntity
  8
VERMASSUNG
100
AcDbLine
 10
236.19406644
 20
89.6161022801
 30
0.0
 11
236.19406644
 21
80.7529017166
 31
0.0
  0
LINE
  5
1D6
330
1D0
100
AcDbEntity
  8
VERMASSUNG
100
AcDbLine
 10
176.19406644
 20
99.9161022801
 30
0.0
 11
176.19406644
 21
80.7529017166
 31
0.0
  0
LINE
  5
1D7
330
1D0
100
AcDbEntity
  8
VERMASSUNG
100
AcDbLine
 10
236.19406644
 20
81.7529017166
 30
0.0
 11
176.19406644
 21
81.7529017166
 31
0.0
  0
MTEXT
  5
1D8
330
1D0
100
AcDbEntity
  8
VERMASSUNG
100
AcDbMText
 10
201.644066253
 20
84.3310370797
 30
0.1
 40
2.0
 41
0.0
 71
     1
 72
     1
  1
60
  7
SLDTEXTSTYLE0
 73
     1
 44
1.0
  0
MTEXT
  5
1D9
330
1D0
100
AcDbEntity
  8
VERMASSUNG
100
AcDbMText
 10
207.431566355
 20
84.3310370797
 30
0.1
 40
2.0
 41
0.0
 71
     1
 72
     1
  1

  7
SLDTEXTSTYLE0
 73
     1
 44
1.0
  0
MTEXT
  5
1DA
330
1D0
100
AcDbEntity
  8
VERMASSUNG
100
AcDbMText
 10
207.4440666449
 20
83.8365032169
 30
0.1
 40
1.5
 41
0.0
 71
     1
 72
     1
  1
±0.1
  7
SLDTEXTSTYLE0
 73
     1
 44
1.0
  0
ENDBLK
  5
1D2
330
1D0
100
AcDbEntity
  8
0
100
AcDbBlockEnd
  0
BLOCK
  5
1DE
330
1DD
100
AcDbEntity
  8
0
100
AcDbBlockBegin
  2
_D_2
 70
     0
 10
0.0
 20
0.0
 30
0.0
  3
_D_2
  1

  0
SOLID
  5
1E0
330
1DD
100
AcDbEntity
  8
VERMASSUNG
100
AcDbTrace
 10
146.19406644
 20
71.8996375819
 30
0.0
 11
149.19406644
 21
71.4496375819
 31
0.0
 12
149.19406644
 22
72.3496375819
 32
0.0
 13
149.19406644
 23
72.3496375819
 33
0.0
  0
SOLID
  5
1E1
330
1DD
100
AcDbEntity
  8
VERMASSUNG
100
AcDbTrace
 10
236.19406644
 20
71.8996375819
 30
0.0
 11
233.19406644
 21
72.3496375819
 31
0.0
 12
233.19406644
 22
71.4496375819
 32
0.0
 13
233.19406644
 23
71.4496375819
 33
0.0
  0
LINE
  5
1E2
330
1DD
100
AcDbEntity
  8
VERMASSUNG
100
AcDbLine
 10
146.19406644
 20
108.6227764419
 30
0.0
 11
146.19406644
 21
70.8996375819
 31
0.0
  0
LINE
  5
1E3
330
1DD
100
AcDbEntity
  8
VERMASSUNG
100
AcDbLine
 10
236.19406644
 20
89.6161022801
 30
0.0
 11
236.19406644
 21
70.8996375819
 31
0.0
  0
LINE
  5
1E4
330
1DD
100
AcDbEntity
  8
VERMASSUNG
100
AcDbLine
 10
146.19406644
 20
71.8996375819
 30
0.0
 11
236.19406644
 21
71.8996375819
 31
0.0
  0
MTEXT
  5
1E5
330
1DD
100
AcDbEntity
  8
VERMASSUNG
100
AcDbMText
 10
188.8940663889
 20
74.4777729451
 30
0.1
 40
2.0
 41
0.0
 71
     1
 72
     1
  1
90
  7
SLDTEXTSTYLE0
 73
     1
 44
1.0
  0
ENDBLK
  5
1DF
330
1DD
100
AcDbEntity
  8
0
100
AcDbBlockEnd
  0
BLOCK
  5
1E9
330
1E8
100
AcDbEntity
  8
0
100
AcDbBlockBegin
  2
_D_3
 70
     0
 10
0.0
 20
0.0
 30
0.0
  3
_D_3
  1

  0
ARC
  5
1EB
330
1E8
100
AcDbEntity
  8
VERMASSUNG
100
AcDbCircle
 10
236.2308095461
 20
89.6161022801
 30
0.0
 40
11.30733579018241
100
AcDbArc
 50
0.0
 51
95.0047861234
  0
SOLID
  5
1EC
330
1E8
100
AcDbEntity
  8
VERMASSUNG
100
AcDbTrace
 10
247.5381453363
 20
89.6161022801
 30
0.0
 11
247.5964473226
 21
92.6491042383
 31
0.0
 12
246.7040031399
 22
92.5327282068
 32
0.0
 13
246.7040031399
 23
92.5327282068
 33
0.0
  0
SOLID
  5
1ED
330
1E8
100
AcDbEntity
  8
VERMASSUNG
100
AcDbTrace
 10
235.2443693519
 20
100.8803278822
 30
0.0
 11
238.2226450881
 21
100.3038093318
 31
0.0
 12
238.2607215253
 22
101.2030035183
 32
0.0
 13
238.2607215253
 23
101.2030035183
 33
0.0
  0
MTEXT
  5
1EE
330
1E8
100
AcDbEntity
  8
VERMASSUNG
100
AcDbMText
 10
243.4730840425
 20
101.8130597042
 30
0.1
 40
2.0
 41
0.0
 71
     1
 72
     1
  1
95°
  7
SLDTEXTSTYLE0
 11
0.7373055534122316
 21
-0.6755594133068408
 31
0.0
 73
     1
 44
1.0
  0
ENDBLK
  5
1EA
330
1E8
100
AcDbEntity
  8
0
100
AcDbBlockEnd
  0
BLOCK
  5
1F1
330
1F0
100
AcDbEntity
  8
0
100
AcDbBlockBegin
  2
_D_4
 70
     0
 10
0.0
 20
0.0
 30
0.0
  3
_D_4
  1

  0
SOLID
  5
1F3
330
1F0
100
AcDbEntity
  8
VERMASSUNG
100
AcDbTrace
 10
136.19406644
 20
99.6161022801
 30
0.0
 11
136.64406644
 21
102.6161022801
 31
0.0
 12
135.74406644
 22
102.6161022801
 32
0.0
 13
135.74406644
 23
102.6161022801
 33
0.0
  0
SOLID
  5
1F4
330
1F0
100
AcDbEntity
  8
VERMASSUNG
100
AcDbTrace
 10
136.19406644
 20
149.6161022801
 30
0.0
 11
135.74406644
 21
146.6161022801
 31
0.0
 12
136.64406644
 22
146.6161022801
 32
0.0
 13
136.64406644
 23
146.6161022801
 33
0.0
  0
LINE
  5
1F5
330
1F0
100
AcDbEntity
  8
VERMASSUNG
100
AcDbLine
 10
176.49406644
 20
99.6161022801
 30
0.0
 11
135.19406644
 21
99.6161022801
 31
0.0
  0
LINE
  5
1F6
330
1F0
100
AcDbEntity
  8
VERMASSUNG
100
AcDbLine
 10
176.49406644
 20
149.6161022801
 30
0.0
 11
135.19406644
 21
149.6161022801
 31
0.0
  0
LINE
  5
1F7
330
1F0
100
AcDbEntity
  8
VERMASSUNG
100
AcDbLine
 10
136.19406644
 20
99.6161022801
 30
0.0
 11
136.19406644
 21
149.6161022801
 31
0.0
  0
MTEXT
  5
1F8
330
1F0
100
AcDbEntity
  8
VERMASSUNG
100
AcDbMText
 10
133.4159309509
 20
118.2111021709
 30
0.3501107901
 40
2.0
 41
0.0
 71
     1
 72
     1
  1
PSC
  7
SLDTEXTSTYLE0
 11
-1.608122649676637E-16
 21
1.0
 31
0.0
 73
     1
 44
1.0
  0
MTEXT
  5
1F9
330
1F0
100
AcDbEntity
  8
VERMASSUNG
100
AcDbMText
 10
133.6159309604
 20
122.811102273
 30
0.3501107901
 40
2.0
 41
0.0
 71
     1
 72
     1
  1
%%c
  7
SLDTEXTSTYLE0
 11
-1.608122649676637E-16
 21
1.0
 31
0.0
 73
     1
 44
1.0
  0
MTEXT
  5
1FA
330
1F0
100
AcDbEntity
  8
VERMASSUNG
100
AcDbMText
 10
133.4159309509
 20
126.4211027529
 30
0.3501107901
 40
2.0
 41
0.0
 71
     1
 72
     1
  1
50
  7
SLDTEXTSTYLE0
 11
-1.608122649676637E-16
 21
1.0
 31
0.0
 73
     1
 44
1.0
  0
ENDBLK
  5
1F2
330
1F0
100
AcDbEntity
  8
0
100
AcDbBlockEnd
  0
BLOCK
  5
25B
330
25A
100
AcDbEntity
  8
0
100
AcDbBlockBegin
  2
_D_5
 70
     0
 10
0.0
 20
0.0
 30
0.0
  3
_D_5
  1

  0
SOLID
  5
25D
330
25A
100
AcDbEntity
  8
VERMASSUNG
100
AcDbTrace
 10
46.1139289679
 20
99.1795179343
 30
0.0
 11
43.6744105728
 21
97.3763956423
 31
0.0
 12
44.3108066759
 22
96.7399995392
 32
0.0
 13
44.3108066759
 23
96.7399995392
 33
0.0
  0
SOLID
  5
25E
330
25A
100
AcDbEntity
  8
VERMASSUNG
100
AcDbTrace
 10
92.075869745
 20
145.1414587115
 30
0.0
 11
94.5153881401
 21
146.9445810035
 31
0.0
 12
93.878992037
 22
147.5809771066
 32
0.0
 13
93.878992037
 23
147.5809771066
 33
0.0
  0
LINE
  5
25F
330
25A
100
AcDbEntity
  8
VERMASSUNG
100
AcDbLine
 10
46.1139289679
 20
99.1795179343
 30
0.0
 11
46.8210357491
 21
98.4724111531
 31
0.0
  0
LINE
  5
260
330
25A
100
AcDbEntity
  8
VERMASSUNG
100
AcDbLine
 10
92.075869745
 20
145.1414587115
 30
0.0
 11
92.7829765262
 21
144.4343519303
 31
0.0
  0
LINE
  5
261
330
25A
100
AcDbEntity
  8
VERMASSUNG
100
AcDbLine
 10
46.1139289679
 20
99.1795179343
 30
0.0
 11
41.8712882808
 21
94.9368772472
 31
0.0
  0
LINE
  5
262
330
25A
100
AcDbEntity
  8
VERMASSUNG
100
AcDbLine
 10
46.1139289679
 20
99.1795179343
 30
0.0
 11
92.075869745
 21
145.1414587115
 31
0.0
  0
LINE
  5
263
330
25A
100
AcDbEntity
  8
VERMASSUNG
100
AcDbLine
 10
92.075869745
 20
145.1414587115
 30
0.0
 11
104.8415419576
 21
157.907130924
 31
0.0
  0
MTEXT
  5
264
330
25A
100
AcDbEntity
  8
VERMASSUNG
100
AcDbMText
 10
93.2533806172
 20
149.9650037444
 30
0.1
 40
2.0
 41
0.0
 71
     1
 72
     1
  1
%%c
  7
SLDTEXTSTYLE0
 11
0.7071067811865462
 21
0.7071067811865488
 31
0.0
 73
     1
 44
1.0
  0
MTEXT
  5
265
330
25A
100
AcDbEntity
  8
VERMASSUNG
100
AcDbMText
 10
95.6646147444
 20
152.6590805976
 30
0.1
 40
2.0
 41
0.0
 71
     1
 72
     1
  1
65
  7
SLDTEXTSTYLE0
 11
0.7071067811865462
 21
0.7071067811865488
 31
0.0
 73
     1
 44
1.0
  0
MTEXT
  5
266
330
25A
100
AcDbEntity
  8
VERMASSUNG
100
AcDbMText
 10
99.756995642
 20
156.7514614951
 30
0.1
 40
2.0
 41
0.0
 71
     1
 72
     1
  1
min.
  7
SLDTEXTSTYLE0
 11
0.7071067811865462
 21
0.7071067811865488
 31
0.0
 73
     1
 44
1.0
  0
ENDBLK
  5
25C
330
25A
100
AcDbEntity
  8
0
100
AcDbBlockEnd
  0
BLOCK
  5
268
330
267
100
AcDbEntity
  8
0
100
AcDbBlockBegin
  2
SW_CENTERMARKSYMBOL_0
 70
     0
 10
0.0
 20
0.0
 30
0.0
  3
SW_CENTERMARKSYMBOL_0
  1

  0
LINE
  5
26A
330
267
100
AcDbEntity
  8
VERMASSUNG
 62
     0
100
AcDbLine
 10
0.0
 20
0.0
 30
0.0
 11
0.0
 21
2.5
 31
0.0
  0
LINE
  5
26B
330
267
100
AcDbEntity
  8
VERMASSUNG
 62
     0
100
AcDbLine
 10
0.0
 20
0.0
 30
0.0
 11
-2.5
 21
0.0
 31
0.0
  0
LINE
  5
26C
330
267
100
AcDbEntity
  8
VERMASSUNG
 62
     0
100
AcDbLine
 10
0.0
 20
0.0
 30
0.0
 11
0.0
 21
-2.5
 31
0.0
  0
LINE
  5
26D
330
267
100
AcDbEntity
  8
VERMASSUNG
 62
     0
100
AcDbLine
 10
0.0
 20
0.0
 30
0.0
 11
2.5
 21
0.0
 31
0.0
  0
LINE
  5
26E
330
267
100
AcDbEntity
  8
VERMASSUNG
 62
     0
100
AcDbLine
 10
0.0
 20
5.0
 30
0.0
 11
0.0
 21
28.0
 31
0.0
  0
LINE
  5
26F
330
267
100
AcDbEntity
  8
VERMASSUNG
 62
     0
100
AcDbLine
 10
-5.0
 20
0.0
 30
0.0
 11
-28.0
 21
0.0
 31
0.0
  0
LINE
  5
270
330
267
100
AcDbEntity
  8
VERMASSUNG
 62
     0
100
AcDbLine
 10
0.0
 20
-5.0
 30
0.0
 11
0.0
 21
-28.0
 31
0.0
  0
LINE
  5
271
330
267
100
AcDbEntity
  8
VERMASSUNG
 62
     0
100
AcDbLine
 10
5.0
 20
0.0
 30
0.0
 11
28.0
 21
0.0
 31
0.0
  0
ENDBLK
  5
269
330
267
100
AcDbEntity
  8
0
100
AcDbBlockEnd
  0
ENDSEC
  0
SECTION
  2
ENTITIES
  0
MTEXT
  5
49
330
1F
100
AcDbEntity
  8
KOPF_DÜNN
100
AcDbMText
 10
13.8892156294
 20
23.8442973028
 30
0.0
 40
3.0
 41
0.0
 71
     1
 72
     1
  1
PS5.PCD.LLA.060
  7
SLDTEXTSTYLE0
 73
     1
 44
1.0
  0
MTEXT
  5
4A
330
1F
100
AcDbEntity
  8
VERMASSUNG
100
AcDbMText
 10
13.9329988022
 20
28.8834360957
 30
0.0
 40
3.0
 41
0.0
 71
     1
 72
     1
  1
Klemmhalter links_Turning tool left 95° /80°
  7
SLDTEXTSTYLE0
 73
     1
 44
1.0
  0
MTEXT
  5
4B
330
1F
100
AcDbEntity
  8
VERMASSUNG
100
AcDbMText
 10
98.8601118557
 20
13.8365368179
 30
0.0
 40
2.0
 41
0.0
 71
     1
 72
     1
  1
Datum: 27.04.2012
  7
SLDTEXTSTYLE0
 73
     1
 44
1.0
  0
MTEXT
  5
4C
330
1F
100
AcDbEntity
  8
VERMASSUNG
100
AcDbMText
 10
13.933048693
 20
18.0482802738
 30
0.0
 40
2.0
 41
0.0
 71
     1
 72
     1
  1
PSC ø50 / CN..12 04..
  7
SLDTEXTSTYLE0
 73
     1
 44
1.0
  0
MTEXT
  5
4D
330
1F
100
AcDbEntity
  8
VERMASSUNG
100
AcDbMText
 10
13.9808475933
 20
13.9090973692
 30
0.0
 40
2.0
 41
0.0
 71
     1
 72
     1
  1
Gewicht: 785g
  7
SLDTEXTSTYLE0
 73
     1
 44
1.0
  0
ARC
  5
4E
330
1F
100
AcDbEntity
  8
0
  6
Continuous
 62
     7
370
    15
100
AcDbCircle
 10
194.19406644
 20
113.2876103518
 30
0.0
 40
2.500000000000018
100
AcDbArc
 50
203.7564891757
 51
336.2435108243
  0
LINE
  5
4F
330
1F
100
AcDbEntity
  8
0
  6
Continuous
 62
     7
370
    15
100
AcDbLine
 10
208.4267384161
 20
149.6161026526
 30
0.0
 11
176.4940664542
 21
149.6161026526
 31
0.0
  0
LINE
  5
50
330
1F
100
AcDbEntity
  8
0
  6
Continuous
 62
     7
370
    15
100
AcDbLine
 10
176.4940664542
 20
99.6161019076
 30
0.0
 11
208.4267384161
 21
99.6161019076
 31
0.0
  0
ARC
  5
51
330
1F
100
AcDbEntity
  8
0
  6
Continuous
 62
     7
370
    15
100
AcDbCircle
 10
176.49406644
 20
99.9161022801
 30
0.0
 40
0.2999999999999972
100
AcDbArc
 50
180.0
 51
270.0
  0
ARC
  5
52
330
1F
100
AcDbEntity
  8
0
  6
Continuous
 62
     7
370
    15
100
AcDbCircle
 10
176.49406644
 20
149.3161022801
 30
0.0
 40
0.3000000000000114
100
AcDbArc
 50
90.0
 51
180.0
  0
LWPOLYLINE
  5
53
330
1F
100
AcDbEntity
  8
0
  6
Continuous
 62
     7
370
    15
100
AcDbPolyline
 90
        3
 70
   128
 43
0.0
 10
175.994066445
 20
106.7762812246
 10
176.1195213802
 20
106.7079798896
 10
176.19406644
 20
106.6552428175
  0
LWPOLYLINE
  5
54
330
1F
100
AcDbEntity
  8
0
  6
Continuous
 62
     7
370
    15
100
AcDbPolyline
 90
        3
 70
   128
 43
0.0
 10
176.19406644
 20
142.5769617427
 10
176.1195213802
 20
142.5242246706
 10
175.994066445
 20
142.4559233356
  0
ARC
  5
55
330
1F
100
AcDbEntity
  8
0
  6
Continuous
 62
     7
370
    15
100
AcDbCircle
 10
208.426739452
 20
150.6161022801
 30
0.0
 40
1.000000000000033
100
AcDbArc
 50
270.0
 51
330.0
  0
ARC
  5
56
330
1F
100
AcDbEntity
  8
0
  6
Continuous
 62
     7
370
    15
100
AcDbCircle
 10
208.426739452
 20
98.6161022801
 30
0.0
 40
1.000000000000003
100
AcDbArc
 50
15.0
 51
90.0
  0
LINE
  5
57
330
1F
100
AcDbEntity
  8
0
  6
Continuous
 62
     7
370
    15
100
AcDbLine
 10
212.8806396175
 20
150.1161018033
 30
0.0
 11
209.2927641023
 21
150.1161018033
 31
0.0
  0
LINE
  5
58
330
1F
100
AcDbEntity
  8
0
  6
Continuous
 62
     7
370
    15
100
AcDbLine
 10
209.3926652123
 20
98.8749218751
 30
0.0
 11
210.9620778609
 21
93.0177913625
 31
0.0
  0
LINE
  5
59
330
1F
100
AcDbEntity
  8
0
  6
Continuous
 62
     7
370
    15
100
AcDbLine
 10
210.9636462081
 20
93.0085414667
 30
0.0
 11
223.2050767888
 21
91.7219156046
 31
0.0
  0
LINE
  5
5A
330
1F
100
AcDbEntity
  8
0
  6
Continuous
 62
     7
370
    15
100
AcDbLine
 10
226.7736553002
 20
95.9065658618
 30
0.0
 11
227.723317479
 21
95.3022325058
 31
0.0
  0
LINE
  5
5B
330
1F
100
AcDbEntity
  8
0
  6
Continuous
 62
     7
370
    15
100
AcDbLine
 10
235.0309400607
 20
102.2576978076
 30
0.0
 11
234.5333828379
 21
102.752528118
 31
0.0
  0
LINE
  5
5C
330
1F
100
AcDbEntity
  8
0
  6
Continuous
 62
     7
370
    15
100
AcDbLine
 10
223.0449861635
 20
91.1410050113
 30
0.0
 11
223.542539661
 21
90.6461747009
 31
0.0
  0
ARC
  5
5D
330
1F
100
AcDbEntity
  8
0
  6
Continuous
 62
     7
370
    15
100
AcDbCircle
 10
193.543166907
 20
111.5695141542
 30
0.0
 40
2.353173647664488
100
AcDbArc
 50
185.4167438178
 51
231.8661728713
  0
ARC
  5
5E
330
1F
100
AcDbEntity
  8
0
  6
Continuous
 62
     7
370
    15
100
AcDbCircle
 10
194.1663223329
 20
112.0464989467
 30
0.0
 40
3.11929439452953
100
AcDbArc
 50
228.2706758969
 51
344.5863614962
  0
ARC
  5
5F
330
1F
100
AcDbEntity
  8
0
  6
Continuous
 62
     7
370
    15
100
AcDbCircle
 10
193.4878281529
 20
111.4349706245
 30
0.0
 40
2.146939805824538
100
AcDbArc
 50
161.0365235213
 51
232.749007268
  0
LWPOLYLINE
  5
60
330
1F
100
AcDbEntity
  8
0
  6
Continuous
 62
     7
370
    15
100
AcDbPolyline
 90
       14
 70
   128
 43
0.0
 10
196.9767047812
 20
111.9899470005
 10
197.0151199747
 20
111.8303304184
 10
197.0512701918
 20
111.3298041392
 10
196.9625468154
 20
110.8339130525
 10
196.7528278727
 20
110.3643281032
 10
196.4312794406
 20
109.9415728469
 10
196.011953314
 20
109.5841247235
 10
195.5131760586
 20
109.3076048065
 10
194.9567499358
 20
109.1240998004
 10
194.3669880528
 20
109.0416283924
 10
193.7696694184
 20
109.063794801
 10
193.1908990044
 20
109.189631382
 10
192.6559733946
 20
109.4136377443
 10
192.1882687856
 20
109.7260247562
  0
LWPOLYLINE
  5
61
330
1F
100
AcDbEntity
  8
0
  6
Continuous
 62
     7
370
    15
100
AcDbPolyline
 90
       29
 70
   128
 43
0.0
 10
192.4407466103
 20
109.9412459526
 10
192.0881516088
 20
110.3059257958
 10
191.8411574114
 20
110.7272645105
 10
191.7121468831
 20
111.1841341127
 10
191.7075899218
 20
111.6536249984
 10
191.827716564
 20
112.1121951956
 10
192.0665002216
 20
112.53685035
 10
192.4119706054
 20
112.9062957708
 10
192.8468013902
 20
113.2020065207
 10
193.3491903145
 20
113.4091540817
 10
193.8939451028
 20
113.5173504818
 10
194.4537482012
 20
113.5211726297
 10
195.0005314101
 20
113.4204258788
 10
195.5068728674
 20
113.220164517
 10
195.9473865826
 20
112.9304291327
 10
196.2999815841
 20
112.5657492895
 10
196.5469757814
 20
112.1444105748
 10
196.6759863097
 20
111.6875409726
 10
196.6805423398
 20
111.2180500869
 10
196.5604166288
 20
110.7594798897
 10
196.3216329713
 20
110.3348247353
 10
195.9761625875
 20
109.9653793145
 10
195.5413318027
 20
109.6696685646
 10
195.0389428783
 20
109.4625219349
 10
194.4941880901
 20
109.3543246035
 10
193.9343849916
 20
109.3505033869
 10
193.3876017828
 20
109.4512492064
 10
192.8812584628
 20
109.6515105683
 10
192.4407466103
 20
109.9412459526
  0
ELLIPSE
  5
62
330
1F
100
AcDbEntity
  8
0
  6
Continuous
 62
     7
370
    15
100
AcDbEllipse
 10
201.5865536375
 20
111.0359670961
 30
0.0
 11
-0.1400584013638877
 21
3.016608296953706
 31
0.0
210
0.0
220
0.0
230
1.0
 40
0.2366726791
 41
0.0
 42
6.283185307179586
  0
ELLIPSE
  5
63
330
1F
100
AcDbEntity
  8
0
  6
Continuous
 62
     7
370
    15
100
AcDbEllipse
 10
205.0228956404
 20
124.6161022801
 30
0.0
 11
0.753659307995349
 21
24.9991946445133
 31
0.0
210
0.0
220
0.0
230
1.0
 40
0.266256518
 41
0.4731745802592121
 42
2.89391109220296
  0
SPLINE
  5
64
330
1F
100
AcDbEntity
  8
0
  6
Continuous
 62
     7
370
    15
100
AcDbSpline
210
0.0
220
0.0
230
1.0
 70
     8
 71
     3
 72
    70
 73
    66
 74
     0
 42
0.00000001
 43
0.00000001
 12
1.0
 22
0.0
 32
0.0
 13
1.0
 23
0.0
 33
0.0
 40
-0.0312499999999998
 40
-0.0312499999999998
 40
0.0
 40
0.0
 40
0.03125
 40
0.03125
 40
0.0625
 40
0.0625
 40
0.09375
 40
0.09375
 40
0.1250000000000001
 40
0.1250000000000001
 40
0.1562500000000001
 40
0.1562500000000001
 40
0.1875000000000001
 40
0.1875000000000001
 40
0.2187500000000001
 40
0.2187500000000001
 40
0.2500000000000001
 40
0.2500000000000001
 40
0.2812500000000001
 40
0.2812500000000001
 40
0.3125000000000001
 40
0.3125000000000001
 40
0.3437500000000002
 40
0.3437500000000002
 40
0.3750000000000002
 40
0.3750000000000002
 40
0.4062500000000002
 40
0.4062500000000002
 40
0.4375000000000002
 40
0.4375000000000002
 40
0.4687500000000002
 40
0.4687500000000002
 40
0.5000000000000002
 40
0.5000000000000002
 40
0.5312500000000002
 40
0.5312500000000002
 40
0.5625000000000002
 40
0.5625000000000002
 40
0.5937500000000002
 40
0.5937500000000002
 40
0.6250000000000002
 40
0.6250000000000002
 40
0.6562500000000003
 40
0.6562500000000003
 40
0.6875000000000003
 40
0.6875000000000003
 40
0.7187500000000003
 40
0.7187500000000003
 40
0.7500000000000003
 40
0.7500000000000003
 40
0.7812500000000003
 40
0.7812500000000003
 40
0.8125000000000003
 40
0.8125000000000003
 40
0.8437500000000003
 40
0.8437500000000003
 40
0.8750000000000004
 40
0.8750000000000004
 40
0.9062500000000004
 40
0.9062500000000004
 40
0.9375000000000003
 40
0.9375000000000003
 40
0.9687500000000002
 40
0.9687500000000002
 40
1.0
 40
1.0
 40
1.03125
 40
1.03125
 10
194.3924523539075
 20
108.5825052174614
 30
0.0
 10
193.9956805260284
 20
108.5825052174614
 30
0.0
 10
193.8006458368872
 20
108.5975515309372
 30
0.0
 10
193.4169936572019
 20
108.6566246031879
 30
0.0
 10
193.2263745283306
 20
108.7013807744838
 30
0.0
 10
192.8631601667492
 20
108.8185675947329
 30
0.0
 10
192.6909205252381
 20
108.8904384594718
 30
0.0
 10
192.364950463761
 20
109.0611229615686
 30
0.0
 10
192.2107512418586
 20
109.1607800262559
 30
0.0
 10
191.9342979976163
 20
109.3798580208856
 30
0.0
 10
191.8101794429872
 20
109.5000477706169
 30
0.0
 10
191.5908620399819
 20
109.7630771278844
 30
0.0
 10
191.4977728144005
 20
109.903844534209
 30
0.0
 10
191.3480958671195
 20
110.1974766936919
 30
0.0
 10
191.2904087066702
 20
110.3525181045234
 30
0.0
 10
191.2132748156738
 20
110.6724105638505
 30
0.0
 10
191.1941752659844
 20
110.8344942419986
 30
0.0
 10
191.193958532497
 20
111.1629742226956
 30
0.0
 10
191.2134713471228
 20
111.3311166503271
 30
0.0
 10
191.290072390202
 20
111.6588230989909
 30
0.0
 10
191.346747555215
 20
111.819328816321
 30
0.0
 10
191.4970967681593
 20
112.1332147825847
 30
0.0
 10
191.5909526722006
 20
112.2858441363217
 30
0.0
 10
191.8079827395419
 20
112.5701396857675
 30
0.0
 10
191.9320005864694
 20
112.7036587330906
 30
0.0
 10
192.2118158087916
 20
112.9515003399471
 30
0.0
 10
192.3631441649492
 20
113.061889298329
 30
0.0
 10
192.6878098346855
 20
113.2559839857757
 30
0.0
 10
192.863231452952
 20
113.3403757630077
 30
0.0
 10
193.2264128405911
 20
113.4758439793981
 30
0.0
 10
193.4134005586701
 20
113.5271341459786
 30
0.0
 10
193.7981247604543
 20
113.5966257525168
 30
0.0
 10
193.997080626973
 20
113.6144622197708
 30
0.0
 10
194.3888096765556
 20
113.6145946514238
 30
0.0
 10
194.5835983417295
 20
113.5974659815142
 30
0.0
 10
194.9709729194334
 20
113.5281225166406
 30
0.0
 10
195.1602966072758
 20
113.4762077066662
 30
0.0
 10
195.521437006268
 20
113.3418329774118
 30
0.0
 10
195.6960238903929
 20
113.258329178318
 30
0.0
 10
196.0239330695798
 20
113.0627417176413
 30
0.0
 10
196.174944741901
 20
112.9523900110856
 30
0.0
 10
196.4517638065335
 20
112.7078472003422
 30
0.0
 10
196.5785102857737
 20
112.5720682760795
 30
0.0
 10
196.7963912358633
 20
112.2870947190664
 30
0.0
 10
196.8886892603177
 20
112.1373366413576
 30
0.0
 10
197.0396610806692
 20
111.8236854998571
 30
0.0
 10
197.0975803547637
 20
111.6602149887654
 30
0.0
 10
197.1742229292792
 20
111.3336473042988
 30
0.0
 10
197.1938835807302
 20
111.1688124138967
 30
0.0
 10
197.1942467850524
 20
110.8360471317686
 30
0.0
 10
197.1749384874352
 20
110.6737059530462
 30
0.0
 10
197.098971146368
 20
110.3567443550148
 30
0.0
 10
197.0413747522266
 20
110.200483690827
 30
0.0
 10
196.8910586867148
 20
109.9048375573713
 30
0.0
 10
196.799051784608
 20
109.7656960886437
 30
0.0
 10
196.5816211179821
 20
109.5039753367909
 30
0.0
 10
196.455167893145
 20
109.3810673928859
 30
0.0
 10
196.1789109483339
 20
109.1618405044211
 30
0.0
 10
196.028107386021
 20
109.0640147365616
 30
0.0
 10
195.7004003160773
 20
108.8918024278193
 30
0.0
 10
195.5261779336224
 20
108.8191033432835
 30
0.0
 10
195.1654111566987
 20
108.7024143749456
 30
0.0
 10
194.9764367787556
 20
108.6576121308475
 30
0.0
 10
194.5885931566495
 20
108.5975528256865
 30
0.0
 10
194.3924523539075
 20
108.5825052174614
 30
0.0
 10
193.9956805260284
 20
108.5825052174614
 30
0.0
  0
SPLINE
  5
65
330
1F
100
AcDbEntity
  8
0
  6
Continuous
 62
     7
370
    15
100
AcDbSpline
210
0.0
220
0.0
230
1.0
 70
     8
 71
     3
 72
    18
 73
    14
 74
     0
 42
0.00000001
 43
0.00000001
 12
1.0
 22
0.0
 32
0.0
 13
1.0
 23
0.0
 33
0.0
 40
0.0
 40
0.0
 40
0.0
 40
0.0
 40
0.249999999999999
 40
0.249999999999999
 40
0.499999999999998
 40
0.499999999999998
 40
0.6249999999999984
 40
0.6249999999999984
 40
0.749999999999999
 40
0.749999999999999
 40
0.8749999999999994
 40
0.8749999999999994
 40
1.0
 40
1.0
 40
1.0
 40
1.0
 10
205.244614324765
 20
147.9035075855984
 30
0.0
 10
204.9354502474087
 20
147.8912515732999
 30
0.0
 10
204.6399228167622
 20
147.8617025710835
 30
0.0
 10
204.075571204449
 20
147.7661920927403
 30
0.0
 10
203.8180842001821
 20
147.7018044274806
 30
0.0
 10
203.4752166295533
 20
147.5796934114048
 30
0.0
 10
203.3683835134965
 20
147.5346449050106
 30
0.0
 10
203.1752360243031
 20
147.4381876098574
 30
0.0
 10
203.0879508731091
 20
147.3864540011513
 30
0.0
 10
202.9316601547256
 20
147.275510778329
 30
0.0
 10
202.8625814775171
 20
147.2160454012962
 30
0.0
 10
202.746130776316
 20
147.0922364727492
 30
0.0
 10
202.6982013215675
 20
147.0275699519
 30
0.0
 10
202.6604222357007
 20
146.9599839630429
 30
0.0
  0
SPLINE
  5
66
330
1F
100
AcDbEntity
  8
0
  6
Continuous
 62
     7
370
    15
100
AcDbSpline
210
0.0
220
0.0
230
1.0
 70
     8
 71
     3
 72
    18
 73
    14
 74
     0
 42
0.00000001
 43
0.00000001
 12
1.0
 22
0.0
 32
0.0
 13
1.0
 23
0.0
 33
0.0
 40
0.0
 40
0.0
 40
0.0
 40
0.0
 40
0.2499999999999994
 40
0.2499999999999994
 40
0.3749999999999994
 40
0.3749999999999994
 40
0.4999999999999994
 40
0.4999999999999994
 40
0.6249999999999994
 40
0.6249999999999994
 40
0.7499999999999994
 40
0.7499999999999994
 40
1.0
 40
1.0
 40
1.0
 40
1.0
 10
202.6604222357007
 20
100.4289926907114
 30
0.0
 10
202.7360150101161
 20
100.3527371290529
 30
0.0
 10
202.8510706786925
 20
100.2861036783012
 30
0.0
 10
203.0854274518391
 20
100.198240784029
 30
0.0
 10
203.1741304678367
 20
100.1710631083704
 30
0.0
 10
203.3670594064111
 20
100.1221170034123
 30
0.0
 10
203.471914229265
 20
100.1000849931596
 30
0.0
 10
203.6987985390442
 20
100.0603524085004
 30
0.0
 10
203.8220759265294
 20
100.0425246384497
 30
0.0
 10
204.0794023424632
 20
100.0117821307849
 30
0.0
 10
204.2135142825763
 20
99.99877736728807
 30
0.0
 10
204.6320899786735
 20
99.96597642845514
 30
0.0
 10
204.9352155494075
 20
99.95234736697954
 30
0.0
 10
205.244614324765
 20
99.94688039831537
 30
0.0
  0
ELLIPSE
  5
67
330
1F
100
AcDbEntity
  8
0
  6
Continuous
 62
     7
370
    15
100
AcDbEllipse
 10
268.1323011078
 20
124.6161022801
 30
0.0
 11
237.8589510666468
 21
2.642074127637415
 31
0.0
210
0.0
220
0.0
230
1.0
 40
0.1045157088
 41
4.44365618081887
 42
4.457502156885766
  0
ELLIPSE
  5
68
330
1F
100
AcDbEntity
  8
0
  6
Continuous
 62
     7
370
    15
100
AcDbEllipse
 10
268.1323011078
 20
124.6161022801
 30
0.0
 11
237.8589510666468
 21
2.642074127637415
 31
0.0
210
0.0
220
0.0
230
1.0
 40
0.1045157088
 41
1.823361285803171
 42
1.837207261870069
  0
SPLINE
  5
69
330
1F
100
AcDbEntity
  8
0
  6
Continuous
 62
     7
370
    15
100
AcDbSpline
210
0.0
220
0.0
230
1.0
 70
     8
 71
     3
 72
    12
 73
     8
 74
     0
 42
0.00000001
 43
0.00000001
 12
1.0
 22
0.0
 32
0.0
 13
1.0
 23
0.0
 33
0.0
 40
0.0
 40
0.0
 40
0.0
 40
0.0
 40
0.5
 40
0.5
 40
0.75
 40
0.75
 40
1.0
 40
1.0
 40
1.0
 40
1.0
 10
184.2888105516422
 20
100.9634608028738
 30
0.0
 10
184.3196622622064
 20
100.9241287625113
 30
0.0
 10
184.361555125667
 20
100.8867169969831
 30
0.0
 10
184.4610760034602
 20
100.8370460723671
 30
0.0
 10
184.5006901681845
 20
100.8216569897593
 30
0.0
 10
184.597793201964
 20
100.7978237740921
 30
0.0
 10
184.6582918746143
 20
100.7893711646033
 30
0.0
 10
184.7218232535343
 20
100.7893711646033
 30
0.0
  0
LINE
  5
6A
330
1F
100
AcDbEntity
  8
0
  6
Continuous
 62
     7
370
    15
100
AcDbLine
 10
184.7218231086
 20
100.7893709112
 30
0.0
 11
187.6663093243
 21
100.7893709112
 31
0.0
  0
SPLINE
  5
6B
330
1F
100
AcDbEntity
  8
0
  6
Continuous
 62
     7
370
    15
100
AcDbSpline
210
0.0
220
0.0
230
1.0
 70
     8
 71
     3
 72
    12
 73
     8
 74
     0
 42
0.00000001
 43
0.00000001
 12
1.0
 22
0.0
 32
0.0
 13
1.0
 23
0.0
 33
0.0
 40
0.0
 40
0.0
 40
0.0
 40
0.0
 40
0.2499999999999974
 40
0.2499999999999974
 40
0.4999999999999949
 40
0.4999999999999949
 40
1.0
 40
1.0
 40
1.0
 40
1.0
 10
187.6663096264015
 20
100.7893711646035
 30
0.0
 10
187.7299461806152
 20
100.7893711646035
 30
0.0
 10
187.7895263074815
 20
100.7976279355352
 30
0.0
 10
187.8881630488478
 20
100.821829997543
 30
0.0
 10
187.9271216732281
 20
100.8370768165772
 30
0.0
 10
188.026500612736
 20
100.8866816886373
 30
0.0
 10
188.0684585179014
 20
100.9241133367561
 30
0.0
 10
188.0993223282939
 20
100.9634608028738
 30
0.0
  0
ELLIPSE
  5
6C
330
1F
100
AcDbEntity
  8
0
  6
Continuous
 62
     7
370
    15
100
AcDbEllipse
 10
175.137808785
 20
124.6161022801
 30
0.0
 11
-11.70927234972723
 21
24.67718644093745
 31
0.0
210
0.0
220
0.0
230
1.0
 40
0.3419987131
 41
3.310521928178948
 42
4.22170915139894
  0
SPLINE
  5
6D
330
1F
100
AcDbEntity
  8
0
  6
Continuous
 62
     7
370
    15
100
AcDbSpline
210
0.0
220
0.0
230
1.0
 70
     8
 71
     3
 72
    12
 73
     8
 74
     0
 42
0.00000001
 43
0.00000001
 12
1.0
 22
0.0
 32
0.0
 13
1.0
 23
0.0
 33
0.0
 40
0.0
 40
0.0
 40
0.0
 40
0.0
 40
0.4999999999999987
 40
0.4999999999999987
 40
0.7499999999999993
 40
0.7499999999999993
 40
1.0
 40
1.0
 40
1.0
 40
1.0
 10
188.0993223282937
 20
116.5196492820611
 30
0.0
 10
188.0684706177295
 20
116.6345522709979
 30
0.0
 10
188.0265777542689
 20
116.7466911670468
 30
0.0
 10
187.9270568764757
 20
116.8986334486476
 30
0.0
 10
187.8874427117514
 20
116.9462980581726
 30
0.0
 10
187.7903396779719
 20
117.0206343887879
 30
0.0
 10
187.7298410053215
 20
117.0472923109251
 30
0.0
 10
187.6663096264016
 20
117.0472923109251
 30
0.0
  0
LINE
  5
6E
330
1F
100
AcDbEntity
  8
0
  6
Continuous
 62
     7
370
    15
100
AcDbLine
 10
187.6663093243
 20
117.047292145
 30
0.0
 11
184.7218231086
 21
117.047292145
 31
0.0
  0
SPLINE
  5
6F
330
1F
100
AcDbEntity
  8
0
  6
Continuous
 62
     7
370
    15
100
AcDbSpline
210
0.0
220
0.0
230
1.0
 70
     8
 71
     3
 72
    12
 73
     8
 74
     0
 42
0.00000001
 43
0.00000001
 12
1.0
 22
0.0
 32
0.0
 13
1.0
 23
0.0
 33
0.0
 40
0.0
 40
0.0
 40
0.0
 40
0.0
 40
0.2499999999999993
 40
0.2499999999999993
 40
0.4999999999999987
 40
0.4999999999999987
 40
1.0
 40
1.0
 40
1.0
 40
1.0
 10
184.7218232535344
 20
117.0472923109247
 30
0.0
 10
184.6581866993207
 20
117.0472923109247
 30
0.0
 10
184.5986065724545
 20
117.0212454078668
 30
0.0
 10
184.4999698310881
 20
116.9457582489668
 30
0.0
 10
184.4610112067078
 20
116.8985392104361
 30
0.0
 10
184.3616322671999
 20
116.7467995593426
 30
0.0
 10
184.3196743620344
 20
116.6345973351584
 30
0.0
 10
184.2888105516419
 20
116.5196492820612
 30
0.0
  0
ELLIPSE
  5
70
330
1F
100
AcDbEntity
  8
0
  6
Continuous
 62
     7
370
    15
100
AcDbEllipse
 10
197.2503240949
 20
124.6161022801
 30
0.0
 11
11.70927234972709
 21
24.67718644093745
 31
0.0
210
0.0
220
0.0
230
1.0
 40
0.3419987131
 41
2.061476155780654
 42
2.972663379000672
  0
SPLINE
  5
71
330
1F
100
AcDbEntity
  8
0
  6
Continuous
 62
     7
370
    15
100
AcDbSpline
210
0.0
220
0.0
230
1.0
 70
     8
 71
     3
 72
    12
 73
     8
 74
     0
 42
0.00000001
 43
0.00000001
 12
1.0
 22
0.0
 32
0.0
 13
1.0
 23
0.0
 33
0.0
 40
0.0
 40
0.0
 40
0.0
 40
0.0
 40
0.5000000000000013
 40
0.5000000000000013
 40
0.7500000000000007
 40
0.7500000000000007
 40
1.0
 40
1.0
 40
1.0
 40
1.0
 10
184.2888105516421
 20
132.7125552781496
 30
0.0
 10
184.3195099350094
 20
132.5982196110857
 30
0.0
 10
184.360860003116
 20
132.4868662582443
 30
0.0
 10
184.4606159313354
 20
132.3341294859956
 30
0.0
 10
184.5003128490681
 20
132.2862696001434
 30
0.0
 10
184.5975710007157
 20
132.211666486794
 30
0.0
 10
184.6583471587064
 20
132.1849122492859
 30
0.0
 10
184.7218232535344
 20
132.1849122492859
 30
0.0
  0
LINE
  5
72
330
1F
100
AcDbEntity
  8
0
  6
Continuous
 62
     7
370
    15
100
AcDbLine
 10
184.7218231086
 20
132.1849124152
 30
0.0
 11
187.6663093243
 21
132.1849124152
 31
0.0
  0
SPLINE
  5
73
330
1F
100
AcDbEntity
  8
0
  6
Continuous
 62
     7
370
    15
100
AcDbSpline
210
0.0
220
0.0
230
1.0
 70
     8
 71
     3
 72
    12
 73
     8
 74
     0
 42
0.00000001
 43
0.00000001
 12
1.0
 22
0.0
 32
0.0
 13
1.0
 23
0.0
 33
0.0
 40
0.0
 40
0.0
 40
0.0
 40
0.0
 40
0.2500000000000012
 40
0.2500000000000012
 40
0.5000000000000023
 40
0.5000000000000023
 40
1.0
 40
1.0
 40
1.0
 40
1.0
 10
187.6663096264015
 20
132.1849122492859
 30
0.0
 10
187.729974862932
 20
132.1849122492859
 30
0.0
 10
187.7895810951553
 20
132.2109843977656
 30
0.0
 10
187.8882416200862
 20
132.2865231485868
 30
0.0
 10
187.9272086101014
 20
132.333774085683
 30
0.0
 10
188.0265954420259
 20
132.4855979036494
 30
0.0
 10
188.0686716894494
 20
132.5984011534144
 30
0.0
 10
188.0993223282937
 20
132.7125552781496
 30
0.0
  0
ELLIPSE
  5
74
330
1F
100
AcDbEntity
  8
0
  6
Continuous
 62
     7
370
    15
100
AcDbEllipse
 10
175.137808785
 20
124.6161022801
 30
0.0
 11
11.70927234972706
 21
24.67718644093742
 31
0.0
210
0.0
220
0.0
230
1.0
 40
0.3419987131
 41
5.203068809370451
 42
6.114256032590495
  0
SPLINE
  5
75
330
1F
100
AcDbEntity
  8
0
  6
Continuous
 62
     7
370
    15
100
AcDbSpline
210
0.0
220
0.0
230
1.0
 70
     8
 71
     3
 72
    12
 73
     8
 74
     0
 42
0.00000001
 43
0.00000001
 12
1.0
 22
0.0
 32
0.0
 13
1.0
 23
0.0
 33
0.0
 40
0.0
 40
0.0
 40
0.0
 40
0.0
 40
0.4999999999999987
 40
0.4999999999999987
 40
0.7499999999999993
 40
0.7499999999999993
 40
1.0
 40
1.0
 40
1.0
 40
1.0
 10
188.0993223282937
 20
148.268743757337
 30
0.0
 10
188.0686229449264
 20
148.3078815997329
 30
0.0
 10
188.0272728768199
 20
148.3450413824584
 30
0.0
 10
187.9275169486004
 20
148.3949778880861
 30
0.0
 10
187.8878200308677
 20
148.4104307582299
 30
0.0
 10
187.7905618792201
 20
148.4343503018289
 30
0.0
 10
187.7297857212295
 20
148.4428333956074
 30
0.0
 10
187.6663096264015
 20
148.4428333956074
 30
0.0
  0
LINE
  5
76
330
1F
100
AcDbEntity
  8
0
  6
Continuous
 62
     7
370
    15
100
AcDbLine
 10
187.6663093243
 20
148.442833649
 30
0.0
 11
184.7218231086
 21
148.442833649
 31
0.0
  0
SPLINE
  5
77
330
1F
100
AcDbEntity
  8
0
  6
Continuous
 62
     7
370
    15
100
AcDbSpline
210
0.0
220
0.0
230
1.0
 70
     8
 71
     3
 72
    12
 73
     8
 74
     0
 42
0.00000001
 43
0.00000001
 12
1.0
 22
0.0
 32
0.0
 13
1.0
 23
0.0
 33
0.0
 40
0.0
 40
0.0
 40
0.0
 40
0.0
 40
0.2500000000000007
 40
0.2500000000000007
 40
0.5000000000000014
 40
0.5000000000000014
 40
1.0
 40
1.0
 40
1.0
 40
1.0
 10
184.7218232535344
 20
148.4428333956074
 30
0.0
 10
184.6581580170039
 20
148.4428333956074
 30
0.0
 10
184.5985517847805
 20
148.4345686199415
 30
0.0
 10
184.4998912598497
 20
148.4103498383583
 30
0.0
 10
184.4609242698344
 20
148.3950925190492
 30
0.0
 10
184.3615374379099
 20
148.3454591647873
 30
0.0
 10
184.3194611904865
 20
148.3078194566132
 30
0.0
 10
184.2888105516421
 20
148.268743757337
 30
0.0
  0
ELLIPSE
  5
78
330
1F
100
AcDbEntity
  8
0
  6
Continuous
 62
     7
370
    15
100
AcDbEllipse
 10
197.2503240949
 20
124.6161022801
 30
0.0
 11
-11.70927234972697
 21
24.67718644093745
 31
0.0
210
0.0
220
0.0
230
1.0
 40
0.3419987131
 41
0.1689292745891358
 42
1.080116497809152
  0
LINE
  5
79
330
1F
100
AcDbEntity
  8
0
  6
Continuous
 62
     7
370
    15
100
AcDbLine
 10
176.19406644
 20
99.916101398
 30
0.0
 11
176.19406644
 21
149.3161031623
 31
0.0
  0
SPLINE
  5
7A
330
1F
100
AcDbEntity
  8
0
  6
Continuous
 62
     7
370
    15
100
AcDbSpline
210
0.0
220
0.0
230
1.0
 70
     8
 71
     3
 72
    16
 73
    12
 74
     0
 42
0.00000001
 43
0.00000001
 12
1.0
 22
0.0
 32
0.0
 13
1.0
 23
0.0
 33
0.0
 40
0.0
 40
0.0
 40
0.0
 40
0.0
 40
0.2500000000000003
 40
0.2500000000000003
 40
0.5000000000000006
 40
0.5000000000000006
 40
0.6250000000000003
 40
0.6250000000000003
 40
0.7500000000000001
 40
0.7500000000000001
 40
1.0
 40
1.0
 40
1.0
 40
1.0
 10
175.1532054118388
 20
107.2669449989129
 30
0.0
 10
175.1849333730315
 20
107.266147882092
 30
0.0
 10
175.219560963382
 20
107.2655568072367
 30
0.0
 10
175.2992547254457
 20
107.2645452818022
 30
0.0
 10
175.3442961854494
 20
107.2641451736274
 30
0.0
 10
175.4271489122998
 20
107.2631873017235
 30
0.0
 10
175.4570633734997
 20
107.2628056204631
 30
0.0
 10
175.5230497040576
 20
107.2617294064046
 30
0.0
 10
175.5597833295194
 20
107.2610118405104
 30
0.0
 10
175.6722800490892
 20
107.2582509628287
 30
0.0
 10
175.7426213971876
 20
107.2557638709572
 30
0.0
 10
175.7990895510927
 20
107.25359059255
 30
0.0
  0
SPLINE
  5
7B
330
1F
100
AcDbEntity
  8
0
  6
Continuous
 62
     7
370
    15
100
AcDbSpline
210
0.0
220
0.0
230
1.0
 70
     8
 71
     3
 72
    14
 73
    10
 74
     0
 42
0.00000001
 43
0.00000001
 12
1.0
 22
0.0
 32
0.0
 13
1.0
 23
0.0
 33
0.0
 40
0.0
 40
0.0
 40
0.0
 40
0.0
 40
0.125
 40
0.125
 40
0.25
 40
0.25
 40
0.5
 40
0.5
 40
1.0
 40
1.0
 40
1.0
 40
1.0
 10
175.7990895510611
 20
107.2535905925728
 30
0.0
 10
175.8116813450059
 20
107.2531059747504
 30
0.0
 10
175.8265524532999
 20
107.2513957968181
 30
0.0
 10
175.8587365447331
 20
107.2432802480672
 30
0.0
 10
175.8743406762088
 20
107.2370644598059
 30
0.0
 10
175.9102278159209
 20
107.2188453481044
 30
0.0
 10
175.9240798571896
 20
107.2070803197708
 30
0.0
 10
175.9575695991222
 20
107.1752851833535
 30
0.0
 10
175.968231859698
 20
107.1574917515103
 30
0.0
 10
175.9763698165929
 20
107.1410606206659
 30
0.0
  0
LINE
  5
7C
330
1F
100
AcDbEntity
  8
0
  6
Continuous
 62
     7
370
    15
100
AcDbLine
 10
175.994066445
 20
118.631622253
 30
0.0
 11
175.994066445
 21
106.7762812246
 31
0.0
  0
SPLINE
  5
7D
330
1F
100
AcDbEntity
  8
0
  6
Continuous
 62
     7
370
    15
100
AcDbSpline
210
0.0
220
0.0
230
1.0
 70
     8
 71
     3
 72
    16
 73
    12
 74
     0
 42
0.00000001
 43
0.00000001
 12
1.0
 22
0.0
 32
0.0
 13
1.0
 23
0.0
 33
0.0
 40
0.0
 40
0.0
 40
0.0
 40
0.0
 40
0.5000000000000002
 40
0.5000000000000002
 40
0.7500000000000003
 40
0.7500000000000003
 40
0.8750000000000004
 40
0.8750000000000004
 40
0.9375000000000002
 40
0.9375000000000002
 40
1.0
 40
1.0
 40
1.0
 40
1.0
 10
175.9940664399679
 20
118.6316220475309
 30
0.0
 10
175.9940664399679
 20
118.7461517782299
 30
0.0
 10
175.9900091378529
 20
118.8614678534194
 30
0.0
 10
175.9643518950581
 20
119.0363909432469
 30
0.0
 10
175.953036449316
 20
119.0962202462418
 30
0.0
 10
175.9190050820073
 20
119.18081143249
 30
0.0
 10
175.9051261008035
 20
119.2094810186341
 30
0.0
 10
175.8691904190361
 20
119.2392888055803
 30
0.0
 10
175.8542400997734
 20
119.2456239589399
 30
0.0
 10
175.8243415870316
 20
119.2443984960696
 30
0.0
 10
175.8108087266663
 20
119.2377999100349
 30
0.0
 10
175.7990895510923
 20
119.2291522219784
 30
0.0
  0
SPLINE
  5
7E
330
1F
100
AcDbEntity
  8
0
  6
Continuous
 62
     7
370
    15
100
AcDbSpline
210
0.0
220
0.0
230
1.0
 70
     8
 71
     3
 72
    14
 73
    10
 74
     0
 42
0.00000001
 43
0.00000001
 12
1.0
 22
0.0
 32
0.0
 13
1.0
 23
0.0
 33
0.0
 40
0.0
 40
0.0
 40
0.0
 40
0.0
 40
0.25
 40
0.25
 40
0.5
 40
0.5
 40
0.75
 40
0.75
 40
1.0
 40
1.0
 40
1.0
 40
1.0
 10
175.7990895510992
 20
119.2291522219698
 30
0.0
 10
175.7426298852154
 20
119.187490112271
 30
0.0
 10
175.6717574103532
 20
119.1566566316827
 30
0.0
 10
175.5232910524712
 20
119.1623711402959
 30
0.0
 10
175.4540958492634
 20
119.1979420677288
 30
0.0
 10
175.3443786631939
 20
119.2848859802027
 30
0.0
 10
175.2991327742618
 20
119.3373182935678
 30
0.0
 10
175.219515643295
 20
119.4458713750864
 30
0.0
 10
175.1849130238381
 20
119.5028544613289
 30
0.0
 10
175.1532054118393
 20
119.5614205439868
 30
0.0
  0
SPLINE
  5
7F
330
1F
100
AcDbEntity
  8
0
  6
Continuous
 62
     7
370
    15
100
AcDbSpline
210
0.0
220
0.0
230
1.0
 70
     8
 71
     3
 72
    10
 73
     6
 74
     0
 42
0.00000001
 43
0.00000001
 12
1.0
 22
0.0
 32
0.0
 13
1.0
 23
0.0
 33
0.0
 40
0.0
 40
0.0
 40
0.0
 40
0.0
 40
0.5
 40
0.5
 40
1.0
 40
1.0
 40
1.0
 40
1.0
 10
174.8727460964083
 20
120.414239135633
 30
0.0
 10
174.9036246800203
 20
120.2646105837733
 30
0.0
 10
174.9396173877436
 20
120.1181151662498
 30
0.0
 10
175.0289576392407
 20
119.832923527709
 30
0.0
 10
175.0814159420863
 20
119.6940205019931
 30
0.0
 10
175.1532054118394
 20
119.5614205439866
 30
0.0
  0
SPLINE
  5
80
330
1F
100
AcDbEntity
  8
0
  6
Continuous
 62
     7
370
    15
100
AcDbSpline
210
0.0
220
0.0
230
1.0
 70
     8
 71
     3
 72
    10
 73
     6
 74
     0
 42
0.00000001
 43
0.00000001
 12
1.0
 22
0.0
 32
0.0
 13
1.0
 23
0.0
 33
0.0
 40
0.0
 40
0.0
 40
0.0
 40
0.0
 40
0.5
 40
0.5
 40
1.0
 40
1.0
 40
1.0
 40
1.0
 10
175.1532054118387
 20
129.670784016223
 30
0.0
 10
175.0814159420858
 20
129.5381840582167
 30
0.0
 10
175.0289576392404
 20
129.399281032501
 30
0.0
 10
174.9396173877435
 20
129.1140893939607
 30
0.0
 10
174.9036246800202
 20
128.9675939764374
 30
0.0
 10
174.8727460964083
 20
128.8179654245779
 30
0.0
  0
SPLINE
  5
81
330
1F
100
AcDbEntity
  8
0
  6
Continuous
 62
     7
370
    15
100
AcDbSpline
210
0.0
220
0.0
230
1.0
 70
     8
 71
     3
 72
    14
 73
    10
 74
     0
 42
0.00000001
 43
0.00000001
 12
1.0
 22
0.0
 32
0.0
 13
1.0
 23
0.0
 33
0.0
 40
0.0
 40
0.0
 40
0.0
 40
0.0
 40
0.25
 40
0.25
 40
0.5
 40
0.5
 40
0.75
 40
0.75
 40
1.0
 40
1.0
 40
1.0
 40
1.0
 10
175.153205411838
 20
129.6707840162218
 30
0.0
 10
175.1849141113234
 20
129.7293521075404
 30
0.0
 10
175.219521929964
 20
129.7863463694804
 30
0.0
 10
175.2991803404533
 20
129.8949465042444
 30
0.0
 10
175.3442426103482
 20
129.947274639623
 30
0.0
 10
175.4548244559267
 20
130.0347756509853
 30
0.0
 10
175.5224685767419
 20
130.0698211072395
 30
0.0
 10
175.6727168671391
 20
130.0755654959956
 30
0.0
 10
175.7426692653694
 20
130.0446853889456
 30
0.0
 10
175.7990895510929
 20
130.0030523382325
 30
0.0
  0
SPLINE
  5
82
330
1F
100
AcDbEntity
  8
0
  6
Continuous
 62
     7
370
    15
100
AcDbSpline
210
0.0
220
0.0
230
1.0
 70
     8
 71
     3
 72
    16
 73
    12
 74
     0
 42
0.00000001
 43
0.00000001
 12
1.0
 22
0.0
 32
0.0
 13
1.0
 23
0.0
 33
0.0
 40
0.0
 40
0.0
 40
0.0
 40
0.0
 40
0.0625000000000003
 40
0.0625000000000003
 40
0.1250000000000006
 40
0.1250000000000006
 40
0.2500000000000014
 40
0.2500000000000014
 40
0.500000000000001
 40
0.500000000000001
 40
1.0
 40
1.0
 40
1.0
 40
1.0
 10
175.7990895510611
 20
130.0030523381791
 30
0.0
 10
175.810823785508
 20
129.9943935380348
 30
0.0
 10
175.8243555409869
 20
129.9877894527996
 30
0.0
 10
175.8543430014168
 20
129.9865924856254
 30
0.0
 10
175.869337707825
 20
129.9930142326913
 30
0.0
 10
175.9050781302198
 20
130.0227313861006
 30
0.0
 10
175.919091467221
 20
130.0515387834839
 30
0.0
 10
175.9532355560024
 20
130.1366185051099
 30
0.0
 10
175.9642074601207
 20
130.1949934543796
 30
0.0
 10
175.990053000387
 20
130.3707089791682
 30
0.0
 10
175.994066439968
 20
130.4865039870326
 30
0.0
 10
175.994066439968
 20
130.60058251268
 30
0.0
  0
LINE
  5
83
330
1F
100
AcDbEntity
  8
0
  6
Continuous
 62
     7
370
    15
100
AcDbLine
 10
175.994066445
 20
142.4559233356
 30
0.0
 11
175.994066445
 21
130.6005823072
 31
0.0
  0
SPLINE
  5
84
330
1F
100
AcDbEntity
  8
0
  6
Continuous
 62
     7
370
    15
100
AcDbSpline
210
0.0
220
0.0
230
1.0
 70
     8
 71
     3
 72
    16
 73
    12
 74
     0
 42
0.00000001
 43
0.00000001
 12
1.0
 22
0.0
 32
0.0
 13
1.0
 23
0.0
 33
0.0
 40
0.0
 40
0.0
 40
0.0
 40
0.0
 40
0.500000000000005
 40
0.500000000000005
 40
0.7500000000000057
 40
0.7500000000000057
 40
0.875000000000003
 40
0.875000000000003
 40
0.9375000000000014
 40
0.9375000000000014
 40
1.0
 40
1.0
 40
1.0
 40
1.0
 10
175.9940664399681
 20
142.1628567457731
 30
0.0
 10
175.9940664399678
 20
142.1408417311937
 30
0.0
 10
175.9899418971139
 20
142.11548809649
 30
0.0
 10
175.9640254514808
 20
142.0683275943014
 30
0.0
 10
175.9527478704609
 20
142.0511286060727
 30
0.0
 10
175.9190124919196
 20
142.0211506405034
 30
0.0
 10
175.9046236766752
 20
142.0097992319616
 30
0.0
 10
175.8693769872361
 20
141.9931113724842
 30
0.0
 10
175.8541715627792
 20
141.9875483455989
 30
0.0
 10
175.8245249836098
 20
141.9805787625637
 30
0.0
 10
175.8108196476124
 20
141.9790654215084
 30
0.0
 10
175.7990895510887
 20
141.9786139676585
 30
0.0
  0
SPLINE
  5
85
330
1F
100
AcDbEntity
  8
0
  6
Continuous
 62
     7
370
    15
100
AcDbSpline
210
0.0
220
0.0
230
1.0
 70
     8
 71
     3
 72
    14
 73
    10
 74
     0
 42
0.00000001
 43
0.00000001
 12
1.0
 22
0.0
 32
0.0
 13
1.0
 23
0.0
 33
0.0
 40
0.0
 40
0.0
 40
0.0
 40
0.0
 40
0.2499999999999995
 40
0.2499999999999995
 40
0.499999999999999
 40
0.499999999999999
 40
0.7499999999999994
 40
0.7499999999999994
 40
1.0
 40
1.0
 40
1.0
 40
1.0
 10
175.7990895510991
 20
141.978613967661
 30
0.0
 10
175.7426424690408
 20
141.9764415002417
 30
0.0
 10
175.6717920849981
 20
141.9739434023243
 30
0.0
 10
175.5233556501816
 20
141.9702969435361
 30
0.0
 10
175.4541663984947
 20
141.9693291966848
 30
0.0
 10
175.3444548502538
 20
141.9680616373221
 30
0.0
 10
175.2992132009114
 20
141.9676587963938
 30
0.0
 10
175.2195651827275
 20
141.9666477614662
 30
0.0
 10
175.1849382669615
 20
141.9660568010715
 30
0.0
 10
175.1532054118402
 20
141.9652595612981
 30
0.0
  0
SPLINE
  5
86
330
1F
100
AcDbEntity
  8
0
  6
Continuous
 62
     7
370
    15
100
AcDbSpline
210
0.0
220
0.0
230
1.0
 70
     8
 71
     3
 72
    18
 73
    14
 74
     0
 42
0.00000001
 43
0.00000001
 12
1.0
 22
0.0
 32
0.0
 13
1.0
 23
0.0
 33
0.0
 40
0.0
 40
0.0
 40
0.0
 40
0.0
 40
0.2499999999999999
 40
0.2499999999999999
 40
0.3749999999999999
 40
0.3749999999999999
 40
0.4999999999999999
 40
0.4999999999999999
 40
0.6249999999999999
 40
0.6249999999999999
 40
0.7499999999999999
 40
0.7499999999999999
 40
1.0
 40
1.0
 40
1.0
 40
1.0
 10
174.8727460964083
 20
128.8179654245779
 30
0.0
 10
174.737460490106
 20
128.1624110891567
 30
0.0
 10
174.636292743863
 20
127.4827899953591
 30
0.0
 10
174.5334314009941
 20
126.427425988865
 30
0.0
 10
174.5073285554708
 20
126.0686119242804
 30
0.0
 10
174.4724385719259
 20
125.3424989801575
 30
0.0
 10
174.463852313636
 20
124.9804093011413
 30
0.0
 10
174.4637526040703
 20
124.2580996437229
 30
0.0
 10
174.4722409752189
 20
123.8978798416146
 30
0.0
 10
174.5063843547395
 20
123.1793137725206
 30
0.0
 10
174.5321813365933
 20
122.8195480566052
 30
0.0
 10
174.6355824679812
 20
121.7529034696109
 30
0.0
 10
174.7374404601526
 20
121.0698905303285
 30
0.0
 10
174.8727460964083
 20
120.414239135633
 30
0.0
  0
LINE
  5
87
330
1F
100
AcDbEntity
  8
0
  6
Continuous
 62
     7
370
    15
100
AcDbLine
 10
173.9940664519
 20
129.7562545743
 30
0.0
 11
173.9940664519
 21
119.4759499859
 31
0.0
  0
LINE
  5
88
330
1F
100
AcDbEntity
  8
0
  6
Continuous
 62
     7
370
    15
100
AcDbLine
 10
147.6940664251
 20
129.4258809295
 30
0.0
 11
147.6940664251
 21
119.8063236307
 31
0.0
  0
LINE
  5
89
330
1F
100
AcDbEntity
  8
0
  6
Continuous
 62
     7
370
    15
100
AcDbLine
 10
146.1940671105
 20
128.9928680863
 30
0.0
 11
146.1940671105
 21
120.2393364739
 31
0.0
  0
LINE
  5
8A
330
1F
100
AcDbEntity
  8
0
  6
Continuous
 62
     7
370
    15
100
AcDbLine
 10
173.9940664519
 20
129.7562545743
 30
0.0
 11
173.9940664519
 21
142.1362002958
 31
0.0
  0
ARC
  5
8B
330
1F
100
AcDbEntity
  8
0
  6
Continuous
 62
     7
370
    15
100
AcDbCircle
 10
174.1940033509
 20
142.1412241758
 30
0.0
 40
0.2000000000000066
100
AcDbArc
 50
181.4391666667
 51
271.4391666667
  0
LINE
  5
8C
330
1F
100
AcDbEntity
  8
0
  6
Continuous
 62
     7
370
    15
100
AcDbLine
 10
147.6940664251
 20
129.4258809295
 30
0.0
 11
147.6940664251
 21
141.4754530061
 31
0.0
  0
LINE
  5
8D
330
1F
100
AcDbEntity
  8
0
  6
Continuous
 62
     7
370
    15
100
AcDbLine
 10
147.6940664251
 20
141.4754530061
 30
0.0
 11
173.9940664519
 21
142.1362002958
 31
0.0
  0
LINE
  5
8E
330
1F
100
AcDbEntity
  8
0
  6
Continuous
 62
     7
370
    15
100
AcDbLine
 10
147.6940664251
 20
107.7567515541
 30
0.0
 11
147.6940664251
 21
119.8063236307
 31
0.0
  0
LINE
  5
8F
330
1F
100
AcDbEntity
  8
0
  6
Continuous
 62
     7
370
    15
100
AcDbLine
 10
173.9940664519
 20
107.0960042644
 30
0.0
 11
173.9940664519
 21
119.4759499859
 31
0.0
  0
LINE
  5
90
330
1F
100
AcDbEntity
  8
0
  6
Continuous
 62
     7
370
    15
100
AcDbLine
 10
147.6940664251
 20
107.7567515541
 30
0.0
 11
173.9940664519
 21
107.0960042644
 31
0.0
  0
ARC
  5
91
330
1F
100
AcDbEntity
  8
0
  6
Continuous
 62
     7
370
    15
100
AcDbCircle
 10
174.1940033509
 20
107.0909803844
 30
0.0
 40
0.1999999999999924
100
AcDbArc
 50
88.5608333333
 51
178.5608333333
  0
LINE
  5
92
330
1F
100
AcDbEntity
  8
0
  6
Continuous
 62
     7
370
    15
100
AcDbLine
 10
174.199026569
 20
107.2909170408
 30
0.0
 11
175.1532054294
 21
107.2669447977
 31
0.0
  0
LINE
  5
93
330
1F
100
AcDbEntity
  8
0
  6
Continuous
 62
     7
370
    15
100
AcDbLine
 10
174.199026569
 20
141.9412875194
 30
0.0
 11
175.1532054294
 21
141.9652597625
 31
0.0
  0
LINE
  5
94
330
1F
100
AcDbEntity
  8
0
  6
Continuous
 62
     7
370
    15
100
AcDbLine
 10
146.1940671105
 20
140.6094273198
 30
0.0
 11
147.6940664251
 21
141.4754530061
 31
0.0
  0
LINE
  5
95
330
1F
100
AcDbEntity
  8
0
  6
Continuous
 62
     7
370
    15
100
AcDbLine
 10
146.1940671105
 20
128.9928680863
 30
0.0
 11
146.1940671105
 21
140.6094273198
 31
0.0
  0
LINE
  5
96
330
1F
100
AcDbEntity
  8
0
  6
Continuous
 62
     7
370
    15
100
AcDbLine
 10
146.1940671105
 20
108.6227772404
 30
0.0
 11
147.6940664251
 21
107.7567515541
 31
0.0
  0
LINE
  5
97
330
1F
100
AcDbEntity
  8
0
  6
Continuous
 62
     7
370
    15
100
AcDbLine
 10
146.1940671105
 20
108.6227772404
 30
0.0
 11
146.1940671105
 21
120.2393364739
 31
0.0
  0
SPLINE
  5
98
330
1F
100
AcDbEntity
  8
0
  6
Continuous
 62
     7
370
    15
100
AcDbSpline
210
0.0
220
0.0
230
1.0
 70
     8
 71
     3
 72
    10
 73
     6
 74
     0
 42
0.00000001
 43
0.00000001
 12
1.0
 22
0.0
 32
0.0
 13
1.0
 23
0.0
 33
0.0
 40
0.0
 40
0.0
 40
0.0
 40
0.0
 40
0.5
 40
0.5
 40
1.0
 40
1.0
 40
1.0
 40
1.0
 10
208.426739451989
 20
99.89312451173582
 30
0.0
 10
208.6512800744356
 20
99.8895050593028
 30
0.0
 10
208.8663906944466
 20
99.8085222658926
 30
0.0
 10
209.2127463204528
 20
99.52749352137863
 30
0.0
 10
209.3362335091266
 20
99.33439659537679
 30
0.0
 10
209.3926652782781
 20
99.11780952791746
 30
0.0
  0
SPLINE
  5
99
330
1F
100
AcDbEntity
  8
0
  6
Continuous
 62
     7
370
    15
100
AcDbSpline
210
0.0
220
0.0
230
1.0
 70
     8
 71
     3
 72
    10
 73
     6
 74
     0
 42
0.00000001
 43
0.00000001
 12
1.0
 22
0.0
 32
0.0
 13
1.0
 23
0.0
 33
0.0
 40
0.0
 40
0.0
 40
0.0
 40
0.0
 40
0.5
 40
0.5
 40
1.0
 40
1.0
 40
1.0
 40
1.0
 10
209.2927648557734
 20
148.5728744376867
 30
0.0
 10
209.206786959896
 20
148.4170234368673
 30
0.0
 10
209.0807163366922
 20
148.2816750887577
 30
0.0
 10
208.7802566353733
 20
148.0905016648821
 30
0.0
 10
208.6058744037794
 20
148.034007203206
 30
0.0
 10
208.42673945199
 20
148.0271835705818
 30
0.0
  0
ELLIPSE
  5
9A
330
1F
100
AcDbEntity
  8
0
  6
Continuous
 62
     7
370
    15
100
AcDbEllipse
 10
268.1323011078
 20
124.6161022801
 30
0.0
 11
242.6161300879795
 21
2.694915610190165
 31
0.0
210
0.0
220
0.0
230
1.0
 40
0.1045157088
 41
1.794183467784895
 42
1.81459894056986
  0
LINE
  5
9B
330
1F
100
AcDbEntity
  8
0
  6
Continuous
 62
     7
370
    15
100
AcDbLine
 10
232.2796567131
 20
122.9968123017
 30
0.0
 11
214.1099481631
 21
148.7462250162
 31
0.0
  0
LINE
  5
9C
330
1F
100
AcDbEntity
  8
0
  6
Continuous
 62
     7
370
    15
100
AcDbLine
 10
234.0786962558
 20
102.4534655381
 30
0.0
 11
232.2796567131
 21
122.9968123017
 31
0.0
  0
LINE
  5
9D
330
1F
100
AcDbEntity
  8
0
  6
Continuous
 62
     7
370
    15
100
AcDbLine
 10
221.8798904468
 20
103.3867029119
 30
0.0
 11
234.0786962558
 21
102.4534655381
 31
0.0
  0
ARC
  5
9E
330
1F
100
AcDbEntity
  8
0
  6
Continuous
 62
     7
370
    15
100
AcDbCircle
 10
221.6805393022
 20
101.0558523934
 30
0.0
 40
2.339359959126985
100
AcDbArc
 50
85.1115481224
 51
264.8979494048
  0
LINE
  5
9F
330
1F
100
AcDbEntity
  8
0
  6
Continuous
 62
     7
370
    15
100
AcDbLine
 10
222.7219215382
 20
98.6301777531
 30
0.0
 11
221.4725001503
 21
98.7257612515
 31
0.0
  0
LINE
  5
A0
330
1F
100
AcDbEntity
  8
0
  6
Continuous
 62
     7
370
    15
100
AcDbLine
 10
223.3258246232
 20
91.7341643591
 30
0.0
 11
222.7219215382
 21
98.6301777531
 31
0.0
  0
ELLIPSE
  5
A1
330
1F
100
AcDbEntity
  8
0
  6
Continuous
 62
     7
370
    15
100
AcDbEllipse
 10
264.1395000782
 20
120.6013077862
 30
0.0
 11
284.2611860869173
 21
-26.74718941835978
 31
0.0
210
0.0
220
0.0
230
1.0
 40
0.1150714178
 41
4.535059414121633
 42
4.579148541805305
  0
SPLINE
  5
A2
330
1F
100
AcDbEntity
  8
0
  6
Continuous
 62
     7
370
    15
100
AcDbSpline
210
0.0
220
0.0
230
1.0
 70
     8
 71
     3
 72
     8
 73
     4
 74
     0
 42
0.00000001
 43
0.00000001
 12
1.0
 22
0.0
 32
0.0
 13
1.0
 23
0.0
 33
0.0
 40
0.0
 40
0.0
 40
0.0
 40
0.0
 40
1.0
 40
1.0
 40
1.0
 40
1.0
 10
209.3926652782781
 20
99.11780952791746
 30
0.0
 10
209.9136291411436
 20
97.1183323361343
 30
0.0
 10
210.4386347193371
 20
95.11995943062982
 30
0.0
 10
210.9657869566623
 20
93.12217304001612
 30
0.0
  0
CIRCLE
  5
A3
330
1F
100
AcDbEntity
  8
0
  6
Continuous
 62
     7
370
    15
100
AcDbCircle
 10
224.8597976167
 20
108.4840625851
 30
0.0
 40
3.976030664213635
  0
LINE
  5
A4
330
1F
100
AcDbEntity
  8
0
  6
Continuous
 62
     7
370
    15
100
AcDbLine
 10
209.2927641023
 20
148.5728742201
 30
0.0
 11
209.2927641023
 21
150.1161018033
 31
0.0
  0
ELLIPSE
  5
A5
330
1F
100
AcDbEntity
  8
0
  6
Continuous
 62
     7
370
    15
100
AcDbEllipse
 10
231.0160845141
 20
124.6161022801
 30
0.0
 11
-18.14503636023579
 21
25.49727658496127
 31
0.0
210
0.0
220
0.0
230
1.0
 40
0.0205386817
 41
5.939302247673062
 42
6.268570076028024
  0
SPLINE
  5
A6
330
1F
100
AcDbEntity
  8
0
  6
Continuous
 62
     7
370
    15
100
AcDbSpline
210
0.0
220
0.0
230
1.0
 70
     8
 71
     3
 72
     9
 73
     5
 74
     0
 42
0.00000001
 43
0.00000001
 12
1.0
 22
0.0
 32
0.0
 13
1.0
 23
0.0
 33
0.0
 40
0.0
 40
0.0
 40
0.0
 40
0.0
 40
0.112791575672637
 40
0.9999999999999999
 40
0.9999999999999999
 40
0.9999999999999999
 40
0.9999999999999999
 10
210.9646892894324
 20
93.0184879917754
 30
0.0
 10
210.9646549663264
 20
93.0152356095713
 30
0.0
 10
210.9643506607457
 20
92.98640028047264
 30
0.0
 10
210.9651124151477
 20
93.0583444888757
 30
0.0
 10
210.9657882500704
 20
93.12217399665249
 30
0.0
  0
ARC
  5
A7
330
1F
100
AcDbEntity
  8
0
  6
Continuous
 62
     7
370
    15
100
AcDbCircle
 10
221.1555306518
 20
101.5190197498
 30
0.0
 40
2.311248952196642
100
AcDbArc
 50
233.844174473
 51
265.6746466216
  0
ELLIPSE
  5
A8
330
1F
100
AcDbEntity
  8
0
  6
Continuous
 62
     7
370
    15
100
AcDbEllipse
 10
219.9033250335
 20
125.2507171353
 30
0.0
 11
-3.362422533298429
 21
33.52901099696719
 31
0.0
210
0.0
220
0.0
230
1.0
 40
0.0928940858
 41
3.122312449060421
 42
3.161087622637213
  0
LINE
  5
A9
330
1F
100
AcDbEntity
  8
0
  6
Continuous
 62
     7
370
    15
100
AcDbLine
 10
222.2288197626
 20
99.4010297228
 30
0.0
 11
220.6739022184
 21
99.5199838299
 31
0.0
  0
LINE
  5
AA
330
1F
100
AcDbEntity
  8
0
  6
Continuous
 62
     7
370
    15
100
AcDbLine
 10
222.2536935259
 20
99.1170061398
 30
0.0
 11
222.2306377042
 21
99.1187700648
 31
0.0
  0
LINE
  5
AB
330
1F
100
AcDbEntity
  8
0
  6
Continuous
 62
     7
370
    15
100
AcDbLine
 10
222.2306377042
 20
99.1187700648
 30
0.0
 11
222.7219215382
 21
98.6301777531
 31
0.0
  0
ARC
  5
AC
330
1F
100
AcDbEntity
  8
0
  6
Continuous
 62
     7
370
    15
100
AcDbCircle
 10
221.1364907621
 20
101.2719444374
 30
0.0
 40
2.063441387286808
100
AcDbArc
 50
225.1953796249
 51
265.6843997524
  0
LINE
  5
AD
330
1F
100
AcDbEntity
  8
0
  6
Continuous
 62
     7
370
    15
100
AcDbLine
 10
221.4064172257
 20
103.3747726698
 30
0.0
 11
221.8840292443
 21
103.3382331599
 31
0.0
  0
ARC
  5
AE
330
1F
100
AcDbEntity
  8
0
  6
Continuous
 62
     7
370
    15
100
AcDbCircle
 10
220.8297173675
 20
101.5796514357
 30
0.0
 40
2.065552954276844
100
AcDbArc
 50
234.6889898738
 51
265.6737787217
  0
ARC
  5
AF
330
1F
100
AcDbEntity
  8
0
  6
Continuous
 62
     7
370
    15
100
AcDbCircle
 10
227.7922320019
 20
97.9184709362
 30
0.0
 40
3.198295975838563
100
AcDbArc
 50
266.7499130943
 51
292.222704553
  0
LINE
  5
B0
330
1F
100
AcDbEntity
  8
0
  6
Continuous
 62
     7
370
    15
100
AcDbLine
 10
231.0100926806
 20
97.921912523
 30
0.0
 11
231.0038863469
 21
98.1369865704
 31
0.0
  0
CIRCLE
  5
B1
330
1F
100
AcDbEntity
  8
0
  6
Continuous
 62
     7
370
    15
100
AcDbCircle
 10
224.8946024033
 20
108.4352819772
 30
0.0
 40
3.48632797684879
  0
CIRCLE
  5
B2
330
1F
100
AcDbEntity
  8
0
  6
Continuous
 62
     7
370
    15
100
AcDbCircle
 10
224.8785852391
 20
108.4368938852
 30
0.0
 40
1.99288697236203
  0
SPLINE
  5
B3
330
1F
100
AcDbEntity
  8
0
  6
Continuous
 62
     7
370
    15
100
AcDbSpline
210
0.0
220
0.0
230
1.0
 70
     8
 71
     3
 72
    11
 73
     7
 74
     0
 42
0.00000001
 43
0.00000001
 12
1.0
 22
0.0
 32
0.0
 13
1.0
 23
0.0
 33
0.0
 40
0.0
 40
0.0
 40
0.0
 40
0.0
 40
0.1081099340631105
 40
0.4711577673157781
 40
0.8135821402801042
 40
0.9999999999999999
 40
0.9999999999999999
 40
0.9999999999999999
 40
0.9999999999999999
 10
224.1291052449759
 20
106.8872632105006
 30
0.0
 10
224.1840934871833
 20
106.8968938214657
 30
0.0
 10
224.423739710739
 20
106.9388653312953
 30
0.0
 10
224.8908997618076
 20
107.0079082735449
 30
0.0
 10
225.43774754746
 20
107.0601893216117
 30
0.0
 10
225.7368115365615
 20
107.079377640628
 30
0.0
 10
225.8422321427878
 20
107.0861415583743
 30
0.0
  0
SPLINE
  5
B4
330
1F
100
AcDbEntity
  8
0
  6
Continuous
 62
     7
370
    15
100
AcDbSpline
210
0.0
220
0.0
230
1.0
 70
     8
 71
     3
 72
    10
 73
     6
 74
     0
 42
0.00000001
 43
0.00000001
 12
1.0
 22
0.0
 32
0.0
 13
1.0
 23
0.0
 33
0.0
 40
0.0
 40
0.0
 40
0.0
 40
0.0
 40
0.4391171866029179
 40
0.7513663470796593
 40
0.9999999999999999
 40
0.9999999999999999
 40
0.9999999999999999
 40
0.9999999999999999
 10
225.8422321427878
 20
107.0861415583743
 30
0.0
 10
225.9317949625423
 20
107.3232021121153
 30
0.0
 10
226.0850444612326
 20
107.7288326083367
 30
0.0
 10
226.3426933430623
 20
108.283802892428
 30
0.0
 10
226.481382774453
 20
108.5496372093398
 30
0.0
 10
226.5428623903807
 20
108.6674788612975
 30
0.0
  0
SPLINE
  5
B5
330
1F
100
AcDbEntity
  8
0
  6
Continuous
 62
     7
370
    15
100
AcDbSpline
210
0.0
220
0.0
230
1.0
 70
     8
 71
     3
 72
    10
 73
     6
 74
     0
 42
0.00000001
 43
0.00000001
 12
1.0
 22
0.0
 32
0.0
 13
1.0
 23
0.0
 33
0.0
 40
0.0
 40
0.0
 40
0.0
 40
0.0
 40
0.4391167354606516
 40
0.7513672817111201
 40
1.0
 40
1.0
 40
1.0
 40
1.0
 10
226.5428623903807
 20
108.6674788612975
 30
0.0
 10
226.3871767367663
 20
108.8760681944877
 30
0.0
 10
226.1207849167531
 20
109.2329828543415
 30
0.0
 10
225.7684144913175
 20
109.717132772706
 30
0.0
 10
225.6034794393852
 20
109.9477202606975
 30
0.0
 10
225.5303657401617
 20
110.0499368850244
 30
0.0
  0
SPLINE
  5
B6
330
1F
100
AcDbEntity
  8
0
  6
Continuous
 62
     7
370
    15
100
AcDbSpline
210
0.0
220
0.0
230
1.0
 70
     8
 71
     3
 72
    11
 73
     7
 74
     0
 42
0.00000001
 43
0.00000001
 12
1.0
 22
0.0
 32
0.0
 13
1.0
 23
0.0
 33
0.0
 40
0.0
 40
0.0
 40
0.0
 40
0.0
 40
0.1864198798764032
 40
0.5288422794850344
 40
0.8918900445602825
 40
1.0
 40
1.0
 40
1.0
 40
1.0
 10
225.5303657401617
 20
110.0499368850244
 30
0.0
 10
225.4249438861213
 20
110.0431730832759
 30
0.0
 10
225.1258795715471
 20
110.0239852995641
 30
0.0
 10
224.5790324579574
 20
109.9717008653017
 30
0.0
 10
224.111873209467
 20
109.9026627185469
 30
0.0
 10
223.8722270794331
 20
109.8606895350172
 30
0.0
 10
223.8172388423498
 20
109.8510585371507
 30
0.0
  0
SPLINE
  5
B7
330
1F
100
AcDbEntity
  8
0
  6
Continuous
 62
     7
370
    15
100
AcDbSpline
210
0.0
220
0.0
230
1.0
 70
     8
 71
     3
 72
    10
 73
     6
 74
     0
 42
0.00000001
 43
0.00000001
 12
1.0
 22
0.0
 32
0.0
 13
1.0
 23
0.0
 33
0.0
 40
0.0
 40
0.0
 40
0.0
 40
0.0
 40
0.4391164598169884
 40
0.7513669523611763
 40
1.0
 40
1.0
 40
1.0
 40
1.0
 10
223.8172388423498
 20
109.8510585371507
 30
0.0
 10
223.7061990115232
 20
109.6353582016491
 30
0.0
 10
223.5162000774963
 20
109.2662759227094
 30
0.0
 10
223.2748851426989
 20
108.6950606357847
 30
0.0
 10
223.1652212866728
 20
108.4003596370033
 30
0.0
 10
223.1166085947569
 20
108.2697221655501
 30
0.0
  0
SPLINE
  5
B8
330
1F
100
AcDbEntity
  8
0
  6
Continuous
 62
     7
370
    15
100
AcDbSpline
210
0.0
220
0.0
230
1.0
 70
     8
 71
     3
 72
    10
 73
     6
 74
     0
 42
0.00000001
 43
0.00000001
 12
1.0
 22
0.0
 32
0.0
 13
1.0
 23
0.0
 33
0.0
 40
0.0
 40
0.0
 40
0.0
 40
0.0
 40
0.4391173043066904
 40
0.7513668541712152
 40
1.0
 40
1.0
 40
1.0
 40
1.0
 10
223.1166085947569
 20
108.2697221655501
 30
0.0
 10
223.2508172207233
 20
108.0824921737532
 30
0.0
 10
223.4804595329392
 20
107.7621258193344
 30
0.0
 10
223.8491640021414
 20
107.2617300289097
 30
0.0
 10
224.0431246275709
 20
107.0022762322279
 30
0.0
 10
224.1291052449759
 20
106.8872632105006
 30
0.0
  0
LINE
  5
B9
330
1F
100
AcDbEntity
  8
0
  6
Continuous
 62
     7
370
    15
100
AcDbLine
 10
226.1527574409
 20
109.0554464255
 30
0.0
 11
226.5428623904
 21
108.6674788613
 31
0.0
  0
LINE
  5
BA
330
1F
100
AcDbEntity
  8
0
  6
Continuous
 62
     7
370
    15
100
AcDbLine
 10
226.1527574409
 20
109.0554464255
 30
0.0
 11
225.6465091158
 21
109.746675903
 31
0.0
  0
LINE
  5
BB
330
1F
100
AcDbEntity
  8
0
  6
Continuous
 62
     7
370
    15
100
AcDbLine
 10
225.6465091158
 20
109.746675903
 30
0.0
 11
225.4294401754
 21
110.0430609305
 31
0.0
  0
LINE
  5
BC
330
1F
100
AcDbEntity
  8
0
  6
Continuous
 62
     7
370
    15
100
AcDbLine
 10
225.4521271933
 20
107.4741100539
 30
0.0
 11
225.8422321428
 21
107.0861415584
 31
0.0
  0
LINE
  5
BD
330
1F
100
AcDbEntity
  8
0
  6
Continuous
 62
     7
370
    15
100
AcDbLine
 10
225.4521271933
 20
107.4741100539
 30
0.0
 11
225.8024423171
 21
108.2647787053
 31
0.0
  0
LINE
  5
BE
330
1F
100
AcDbEntity
  8
0
  6
Continuous
 62
     7
370
    15
100
AcDbLine
 10
225.8024423171
 20
108.2647787053
 30
0.0
 11
226.1527574409
 21
109.0554464255
 31
0.0
  0
LINE
  5
BF
330
1F
100
AcDbEntity
  8
0
  6
Continuous
 62
     7
370
    15
100
AcDbLine
 10
223.8321400035
 20
107.2860443611
 30
0.0
 11
224.5955637444
 21
107.3746708799
 31
0.0
  0
LINE
  5
C0
330
1F
100
AcDbEntity
  8
0
  6
Continuous
 62
     7
370
    15
100
AcDbLine
 10
224.5955637444
 20
107.3746708799
 30
0.0
 11
225.4521271933
 21
107.4741100539
 31
0.0
  0
ARC
  5
C1
330
1F
100
AcDbEntity
  8
0
  6
Continuous
 62
     7
370
    15
100
AcDbCircle
 10
224.4444276773
 20
108.871033758
 30
0.0
 40
1.487194994195054
100
AcDbArc
 50
335.9427027188
 51
36.0710280187
  0
ARC
  5
C2
330
1F
100
AcDbEntity
  8
0
  6
Continuous
 62
     7
370
    15
100
AcDbCircle
 10
224.4189958203
 20
108.8773202457
 30
0.0
 40
1.512987557248284
100
AcDbArc
 50
276.7017749648
 51
336.1179191055
  0
ARC
  5
C3
330
1F
100
AcDbEntity
  8
0
  6
Continuous
 62
     7
370
    15
100
AcDbCircle
 10
224.4228035581
 20
108.8445241303
 30
0.0
 40
1.479971168548194
100
AcDbArc
 50
233.6982144891
 51
276.7035417344
  0
ARC
  5
C4
330
1F
100
AcDbEntity
  8
0
  6
Continuous
 62
     7
370
    15
100
AcDbCircle
 10
224.4624265799
 20
108.8794896236
 30
0.0
 40
1.467672816065869
100
AcDbArc
 50
36.2179207943
 51
52.6515000428
  0
LINE
  5
C5
330
1F
100
AcDbEntity
  8
0
  6
Continuous
 62
     7
370
    15
100
AcDbLine
 10
226.7474441577
 20
96.7923467625
 30
0.0
 11
227.0421183456
 21
95.9859741498
 31
0.0
  0
LINE
  5
C6
330
1F
100
AcDbEntity
  8
0
  6
Continuous
 62
     7
370
    15
100
AcDbLine
 10
227.0421183456
 20
95.9859741498
 30
0.0
 11
226.7321853686
 21
96.1832059194
 31
0.0
  0
ELLIPSE
  5
C7
330
1F
100
AcDbEntity
  8
0
  6
Continuous
 62
     7
370
    15
100
AcDbEllipse
 10
228.9374503915
 20
97.1965489735
 30
0.0
 11
1.502644295739799
 21
1.675495476824054
 31
0.0
210
0.0
220
0.0
230
1.0
 40
0.9898983231
 41
2.867627484131762
 42
5.586798377003229
  0
ELLIPSE
  5
C8
330
1F
100
AcDbEntity
  8
0
  6
Continuous
 62
     7
370
    15
100
AcDbEllipse
 10
228.9374503915
 20
97.1965489735
 30
0.0
 11
1.502644295739799
 21
1.675495476824054
 31
0.0
210
0.0
220
0.0
230
1.0
 40
0.9898983231
 41
6.009220137721595
 42
6.129087384037877
  0
LINE
  5
C9
330
1F
100
AcDbEntity
  8
0
  6
Continuous
 62
     7
370
    15
100
AcDbLine
 10
231.1541161288
 20
97.5277954359
 30
0.0
 11
230.8327837635
 21
98.4071222711
 31
0.0
  0
LINE
  5
CA
330
1F
100
AcDbEntity
  8
0
  6
Continuous
 62
     7
370
    15
100
AcDbLine
 10
230.7386903812
 20
98.5834272225
 30
0.0
 11
230.7555473198
 21
98.5214030016
 31
0.0
  0
ARC
  5
CB
330
1F
100
AcDbEntity
  8
0
  6
Continuous
 62
     7
370
    15
100
AcDbCircle
 10
227.9329071307
 20
97.7644380598
 30
0.0
 40
2.881150845627395
100
AcDbArc
 50
254.511660562
 51
284.2954831916
  0
LWPOLYLINE
  5
CC
330
1F
100
AcDbEntity
  8
0
  6
Continuous
 62
     7
370
    15
100
AcDbPolyline
 90
        3
 70
   128
 43
0.0
 10
230.9281176675
 20
98.3875309695
 10
231.0255340088
 20
98.0441020448
 10
231.0721597422
 20
97.7520672251
  0
ARC
  5
CD
330
1F
100
AcDbEntity
  8
0
  6
Continuous
 62
     7
370
    15
100
AcDbCircle
 10
228.274942728
 20
97.4417872311
 30
0.0
 40
2.796032342874391
100
AcDbArc
 50
250.926253027
 51
307.444958941
  0
LINE
  5
CE
330
1F
100
AcDbEntity
  8
0
  6
Continuous
 62
     7
370
    15
100
AcDbLine
 10
222.3809270907
 20
102.8509130348
 30
0.0
 11
223.4283110846
 21
90.8907698114
 31
0.0
  0
ARC
  5
CF
330
1F
100
AcDbEntity
  8
0
  6
Continuous
 62
     7
370
    15
100
AcDbCircle
 10
222.7821498464
 20
102.8850420957
 30
0.0
 40
0.4026716931114339
100
AcDbArc
 50
85.7637669342
 51
184.8620253301
  0
LINE
  5
D0
330
1F
100
AcDbEntity
  8
0
  6
Continuous
 62
     7
370
    15
100
AcDbLine
 10
234.783543532
 20
102.3707566429
 30
0.0
 11
222.8118947495
 21
103.2866136748
 31
0.0
  0
ARC
  5
D1
330
1F
100
AcDbEntity
  8
0
  6
Continuous
 62
     7
370
    15
100
AcDbCircle
 10
234.7541590856
 20
101.9793986032
 30
0.0
 40
0.392459629635511
100
AcDbArc
 50
4.9268534661
 51
85.7061016369
  0
LINE
  5
D2
330
1F
100
AcDbEntity
  8
0
  6
Continuous
 62
     7
370
    15
100
AcDbLine
 10
236.192552631
 20
90.0529594738
 30
0.0
 11
235.1451686371
 21
102.0131045599
 31
0.0
  0
ARC
  5
D3
330
1F
100
AcDbEntity
  8
0
  6
Continuous
 62
     7
370
    15
100
AcDbCircle
 10
235.7913300004
 20
90.018832006
 30
0.0
 40
0.4026714335583854
100
AcDbArc
 50
265.7637463669
 51
4.8618009687
  0
LINE
  5
D4
330
1F
100
AcDbEntity
  8
0
  6
Continuous
 62
     7
370
    15
100
AcDbLine
 10
223.7899361898
 20
90.533119591
 30
0.0
 11
235.7615849722
 21
89.6172606964
 31
0.0
  0
ARC
  5
D5
330
1F
100
AcDbEntity
  8
0
  6
Continuous
 62
     7
370
    15
100
AcDbCircle
 10
223.8193151957
 20
90.9244723052
 30
0.0
 40
0.3924539118868911
100
AcDbArc
 50
184.926418011
 51
265.7068354699
  0
ARC
  5
D6
330
1F
100
AcDbEntity
  8
0
  6
Continuous
 62
     7
370
    15
100
AcDbCircle
 10
235.7915788473
 20
90.0185845006
 30
0.0
 40
0.3825354912734854
100
AcDbArc
 50
265.7637030787
 51
4.8621057575
  0
LINE
  5
D7
330
1F
100
AcDbEntity
  8
0
  6
Continuous
 62
     7
370
    15
100
AcDbLine
 10
236.1727378119
 20
90.0510074217
 30
0.0
 11
235.125353818
 21
102.0111543704
 31
0.0
  0
ARC
  5
D8
330
1F
100
AcDbEntity
  8
0
  6
Continuous
 62
     7
370
    15
100
AcDbCircle
 10
234.7538984052
 20
101.979134769
 30
0.0
 40
0.3728329097446777
100
AcDbArc
 50
4.9267398934
 51
85.706421779
  0
LINE
  5
D9
330
1F
100
AcDbEntity
  8
0
  6
Continuous
 62
     7
370
    15
100
AcDbLine
 10
234.781811272
 20
102.3509213347
 30
0.0
 11
222.8101587642
 21
103.2667802293
 31
0.0
  0
ARC
  5
DA
330
1F
100
AcDbEntity
  8
0
  6
Continuous
 62
     7
370
    15
100
AcDbCircle
 10
222.7819009994
 20
102.8852896011
 30
0.0
 40
0.3825357508422009
100
AcDbArc
 50
85.7637247301
 51
184.862341926
  0
LINE
  5
DB
330
1F
100
AcDbEntity
  8
0
  6
Continuous
 62
     7
370
    15
100
AcDbLine
 10
222.4007419098
 20
102.8528650869
 30
0.0
 11
223.4481259037
 21
90.8927181382
 31
0.0
  0
ARC
  5
DC
330
1F
100
AcDbEntity
  8
0
  6
Continuous
 62
     7
370
    15
100
AcDbCircle
 10
223.8195782261
 20
90.924736653
 30
0.0
 40
0.3728297373917036
100
AcDbArc
 50
184.9266143084
 51
265.7068614483
  0
LINE
  5
DD
330
1F
100
AcDbEntity
  8
0
  6
Continuous
 62
     7
370
    15
100
AcDbLine
 10
223.7916684497
 20
90.5529530365
 30
0.0
 11
235.7633209575
 21
89.6370941419
 31
0.0
  0
LINE
  5
DE
330
1F
100
AcDbEntity
  8
0
  6
Continuous
 62
     7
370
    15
100
AcDbLine
 10
221.8819058288
 20
103.3865483124
 30
0.0
 11
221.8833698679
 21
103.3457433451
 31
0.0
  0
LINE
  5
DF
330
1F
100
AcDbEntity
  8
0
  6
Continuous
 62
     7
370
    15
100
AcDbLine
 10
223.6178389538
 20
102.0589610208
 30
0.0
 11
222.7542905856
 21
102.9127454031
 31
0.0
  0
LINE
  5
E0
330
1F
100
AcDbEntity
  8
0
  6
Continuous
 62
     7
370
    15
100
AcDbLine
 10
224.3347151924
 20
91.566723736
 30
0.0
 11
223.8016745795
 21
90.9526021797
 31
0.0
  0
LINE
  5
E1
330
1F
100
AcDbEntity
  8
0
  6
Continuous
 62
     7
370
    15
100
AcDbLine
 10
234.2859900344
 20
102.8655850906
 30
0.0
 11
234.0409627904
 21
102.8843307514
 31
0.0
  0
LINE
  5
E2
330
1F
100
AcDbEntity
  8
0
  6
Continuous
 62
     7
370
    15
100
AcDbLine
 10
221.8833698679
 20
103.3457433451
 30
0.0
 11
222.2557238091
 21
99.093819933
 31
0.0
  0
LINE
  5
E3
330
1F
100
AcDbEntity
  8
0
  6
Continuous
 62
     7
370
    15
100
AcDbLine
 10
222.8984816719
 20
91.7541393656
 30
0.0
 11
222.9307538618
 21
91.3856001217
 31
0.0
  0
LINE
  5
E4
330
1F
100
AcDbEntity
  8
0
  6
Continuous
 62
     7
370
    15
100
AcDbLine
 10
234.1178825844
 20
101.4573694784
 30
0.0
 11
234.7259393681
 21
101.9968865085
 31
0.0
  0
ARC
  5
E5
330
1F
100
AcDbEntity
  8
0
  6
Continuous
 62
     7
370
    15
100
AcDbCircle
 10
225.655918458
 20
100.0428117907
 30
0.0
 40
1.006681904447563
100
AcDbArc
 50
85.7640477099
 51
184.8618925873
  0
SPLINE
  5
E6
330
1F
100
AcDbEntity
  8
0
  6
Continuous
 62
     7
370
    15
100
AcDbSpline
210
0.0
220
0.0
230
1.0
 70
     8
 71
     3
 72
    11
 73
     7
 74
     0
 42
0.00000001
 43
0.00000001
 12
1.0
 22
0.0
 32
0.0
 13
1.0
 23
0.0
 33
0.0
 40
0.0
 40
0.0
 40
0.0
 40
0.0
 40
0.3367845623061745
 40
0.6790112490919397
 40
0.9923720768864117
 40
1.0
 40
1.0
 40
1.0
 40
1.0
 10
223.6178389538344
 20
102.0589610207929
 30
0.0
 10
223.6709041946615
 20
102.0064913121486
 30
0.0
 10
223.777892161125
 20
101.9007040332956
 30
0.0
 10
223.9502162525361
 20
101.7302434981748
 30
0.0
 10
224.0600943420703
 20
101.6215560175822
 30
0.0
 10
224.1107611468193
 20
101.5714113274888
 30
0.0
 10
224.1119651843127
 20
101.570219697441
 30
0.0
  0
LINE
  5
E7
330
1F
100
AcDbEntity
  8
0
  6
Continuous
 62
     7
370
    15
100
AcDbLine
 10
224.6528587092
 20
99.9574912358
 30
0.0
 11
225.2390443135
 21
93.2638281603
 31
0.0
  0
LINE
  5
E8
330
1F
100
AcDbEntity
  8
0
  6
Continuous
 62
     7
370
    15
100
AcDbLine
 10
232.4303782333
 20
100.5341698993
 30
0.0
 11
225.7302759934
 21
101.0467437673
 31
0.0
  0
ARC
  5
E9
330
1F
100
AcDbEntity
  8
0
  6
Continuous
 62
     7
370
    15
100
AcDbCircle
 10
232.3569227713
 20
99.5557861872
 30
0.0
 40
0.9811372957498864
100
AcDbArc
 50
4.9265182648
 51
85.7063810962
  0
LINE
  5
EA
330
1F
100
AcDbEntity
  8
0
  6
Continuous
 62
     7
370
    15
100
AcDbLine
 10
233.9206210126
 20
92.9463812728
 30
0.0
 11
233.3344354082
 21
99.6400443483
 31
0.0
  0
ARC
  5
EB
330
1F
100
AcDbEntity
  8
0
  6
Continuous
 62
     7
370
    15
100
AcDbCircle
 10
232.9175606848
 20
92.8610612905
 30
0.0
 40
1.006682432816164
100
AcDbArc
 50
265.764082981
 51
4.8618573162
  0
LINE
  5
EC
330
1F
100
AcDbEntity
  8
0
  6
Continuous
 62
     7
370
    15
100
AcDbLine
 10
226.1431014885
 20
92.3697026093
 30
0.0
 11
232.8432037283
 21
91.8571287412
 31
0.0
  0
ARC
  5
ED
330
1F
100
AcDbEntity
  8
0
  6
Continuous
 62
     7
370
    15
100
AcDbCircle
 10
226.2165591953
 20
93.3480885912
 30
0.0
 40
0.981139727222955
100
AcDbArc
 50
184.9266390656
 51
265.7062602954
  0
CIRCLE
  5
EE
330
1F
100
AcDbEntity
  8
0
  6
Continuous
 62
     7
370
    15
100
AcDbCircle
 10
229.259512076
 20
96.4479187155
 30
0.0
 40
2.562079573651913
  0
ARC
  5
EF
330
1F
100
AcDbEntity
  8
0
  6
Continuous
 62
     7
370
    15
100
AcDbCircle
 10
228.7673293993
 20
96.9657856983
 30
0.0
 40
2.585464811207471
100
AcDbArc
 50
265.5239470291
 51
36.7108435437
  0
ARC
  5
F0
330
1F
100
AcDbEntity
  8
0
  6
Continuous
 62
     7
370
    15
100
AcDbCircle
 10
228.7571122032
 20
96.918861382
 30
0.0
 40
2.537894622757873
100
AcDbArc
 50
233.1737582418
 51
265.6712325083
  0
LINE
  5
F1
330
1F
100
AcDbEntity
  8
0
  6
Continuous
 62
     7
370
    15
100
AcDbLine
 10
234.8089425613
 20
90.990808757
 30
0.0
 11
235.773323362
 21
90.0367432851
 31
0.0
  0
SPLINE
  5
F2
330
1F
100
AcDbEntity
  8
0
  6
Continuous
 62
     7
370
    15
100
AcDbSpline
210
0.0
220
0.0
230
1.0
 70
     8
 71
     3
 72
    11
 73
     7
 74
     0
 42
0.00000001
 43
0.00000001
 12
1.0
 22
0.0
 32
0.0
 13
1.0
 23
0.0
 33
0.0
 40
0.0
 40
0.0
 40
0.0
 40
0.0
 40
0.008118020879388
 40
0.3263709184619016
 40
0.6627696594360147
 40
1.0
 40
1.0
 40
1.0
 40
1.0
 10
224.8279101003226
 20
92.05485597440136
 30
0.0
 10
224.8266217429981
 20
92.05375806256924
 30
0.0
 10
224.774825576231
 20
92.0096184257832
 30
0.0
 10
224.6638014726099
 20
91.9096555721502
 30
0.0
 10
224.4905195784723
 20
91.7400226839794
 30
0.0
 10
224.3866927127559
 20
91.62453757438112
 30
0.0
 10
224.3347151924189
 20
91.5667237360133
 30
0.0
  0
SPLINE
  5
F3
330
1F
100
AcDbEntity
  8
0
  6
Continuous
 62
     7
370
    15
100
AcDbSpline
210
0.0
220
0.0
230
1.0
 70
     8
 71
     3
 72
    11
 73
     7
 74
     0
 42
0.00000001
 43
0.00000001
 12
1.0
 22
0.0
 32
0.0
 13
1.0
 23
0.0
 33
0.0
 40
0.0
 40
0.0
 40
0.0
 40
0.0
 40
0.3372308387057378
 40
0.6736327539538688
 40
0.9918828736755069
 40
1.0
 40
1.0
 40
1.0
 40
1.0
 10
234.1178825844343
 20
101.4573694784297
 30
0.0
 10
234.0606565217977
 20
101.4047755696841
 30
0.0
 10
233.9463450598928
 20
101.299717029589
 30
0.0
 10
233.7785649623028
 20
101.1246086597924
 30
0.0
 10
233.6798684511949
 20
101.0123946022123
 30
0.0
 10
233.6362226370856
 20
100.9601450488479
 30
0.0
 10
233.6351371158179
 20
100.9588455427541
 30
0.0
  0
ARC
  5
F4
330
1F
100
AcDbEntity
  8
0
  6
Continuous
 62
     7
370
    15
100
AcDbCircle
 10
234.2565178188
 20
102.4738909548
 30
0.0
 40
0.392801358846224
100
AcDbArc
 50
45.1827824147
 51
85.6970057325
  0
ARC
  5
F5
330
1F
100
AcDbEntity
  8
0
  6
Continuous
 62
     7
370
    15
100
AcDbCircle
 10
223.3223450137
 20
91.4195111235
 30
0.0
 40
0.3930567215281515
100
AcDbArc
 50
184.9493511961
 51
225.1182538527
  0
SPLINE
  5
F6
330
1F
100
AcDbEntity
  8
0
  6
Continuous
 62
     7
370
    15
100
AcDbSpline
210
0.0
220
0.0
230
1.0
 70
     8
 71
     3
 72
    11
 73
     7
 74
     0
 42
0.00000001
 43
0.00000001
 12
1.0
 22
0.0
 32
0.0
 13
1.0
 23
0.0
 33
0.0
 40
0.0
 40
0.0
 40
0.0
 40
0.0
 40
0.0076279548433642
 40
0.3209880966418105
 40
0.663217814285595
 40
1.0
 40
1.0
 40
1.0
 40
1.0
 10
234.3305705834444
 20
91.46387964674366
 30
0.0
 10
234.331585541198
 20
91.46287710925183
 30
0.0
 10
234.3742954633444
 20
91.42068983783746
 30
0.0
 10
234.4713745561565
 20
91.32466179420966
 30
0.0
 10
234.6360975406453
 20
91.16179559456032
 30
0.0
 10
234.7516365339213
 20
91.04749871170966
 30
0.0
 10
234.8089425612505
 20
90.99080875703228
 30
0.0
  0
SPLINE
  5
F7
330
1F
100
AcDbEntity
  8
0
  6
HIDDEN
 62
     7
370
     0
100
AcDbSpline
210
0.0
220
0.0
230
1.0
 70
     8
 71
     3
 72
    12
 73
     8
 74
     0
 42
0.00000001
 43
0.00000001
 12
1.0
 22
0.0
 32
0.0
 13
1.0
 23
0.0
 33
0.0
 40
0.0
 40
0.0
 40
0.0
 40
0.0
 40
0.5000000000000018
 40
0.5000000000000018
 40
0.7500000000000009
 40
0.7500000000000009
 40
1.0
 40
1.0
 40
1.0
 40
1.0
 10
184.2888105516422
 20
148.2687437573372
 30
0.0
 10
184.3195099350095
 20
148.3078815997331
 30
0.0
 10
184.360860003116
 20
148.3450413824586
 30
0.0
 10
184.4606159313354
 20
148.3949778880863
 30
0.0
 10
184.5003128490681
 20
148.4104307582301
 30
0.0
 10
184.5975710007158
 20
148.4343503018291
 30
0.0
 10
184.6583471587065
 20
148.4428333956076
 30
0.0
 10
184.7218232535344
 20
148.4428333956075
 30
0.0
  0
LINE
  5
F8
330
1F
100
AcDbEntity
  8
0
  6
HIDDEN
 62
     7
370
     0
100
AcDbLine
 10
184.7218231086
 20
148.442833649
 30
0.0
 11
187.6663093243
 21
148.442833649
 31
0.0
  0
SPLINE
  5
F9
330
1F
100
AcDbEntity
  8
0
  6
HIDDEN
 62
     7
370
     0
100
AcDbSpline
210
0.0
220
0.0
230
1.0
 70
     8
 71
     3
 72
    12
 73
     8
 74
     0
 42
0.00000001
 43
0.00000001
 12
1.0
 22
0.0
 32
0.0
 13
1.0
 23
0.0
 33
0.0
 40
0.0
 40
0.0
 40
0.0
 40
0.0
 40
0.2500000000000007
 40
0.2500000000000007
 40
0.5000000000000014
 40
0.5000000000000014
 40
1.0
 40
1.0
 40
1.0
 40
1.0
 10
187.6663096264015
 20
148.4428333956075
 30
0.0
 10
187.729974862932
 20
148.4428333956076
 30
0.0
 10
187.7895810951553
 20
148.4345686199416
 30
0.0
 10
187.8882416200862
 20
148.4103498383585
 30
0.0
 10
187.9272086101014
 20
148.3950925190494
 30
0.0
 10
188.0265954420259
 20
148.3454591647875
 30
0.0
 10
188.0686716894494
 20
148.3078194566133
 30
0.0
 10
188.0993223282937
 20
148.2687437573372
 30
0.0
  0
ELLIPSE
  5
FA
330
1F
100
AcDbEntity
  8
0
  6
HIDDEN
 62
     7
370
     0
100
AcDbEllipse
 10
175.137808785
 20
124.6161022801
 30
0.0
 11
11.70927234972723
 21
24.67718644093745
 31
0.0
210
0.0
220
0.0
230
1.0
 40
0.3419987131
 41
5.203068809370466
 42
6.114256032590513
  0
SPLINE
  5
FB
330
1F
100
AcDbEntity
  8
0
  6
HIDDEN
 62
     7
370
     0
100
AcDbSpline
210
0.0
220
0.0
230
1.0
 70
     8
 71
     3
 72
    12
 73
     8
 74
     0
 42
0.00000001
 43
0.00000001
 12
1.0
 22
0.0
 32
0.0
 13
1.0
 23
0.0
 33
0.0
 40
0.0
 40
0.0
 40
0.0
 40
0.0
 40
0.5000000000000032
 40
0.5000000000000032
 40
0.7500000000000016
 40
0.7500000000000016
 40
1.0
 40
1.0
 40
1.0
 40
1.0
 10
188.0993223282937
 20
132.71255527815
 30
0.0
 10
188.0686229449264
 20
132.5982196110862
 30
0.0
 10
188.0272728768199
 20
132.4868662582448
 30
0.0
 10
187.9275169486004
 20
132.3341294859961
 30
0.0
 10
187.8878200308677
 20
132.286269600144
 30
0.0
 10
187.7905618792201
 20
132.2116664867945
 30
0.0
 10
187.7297857212295
 20
132.1849122492864
 30
0.0
 10
187.6663096264015
 20
132.1849122492864
 30
0.0
  0
LINE
  5
FC
330
1F
100
AcDbEntity
  8
0
  6
HIDDEN
 62
     7
370
     0
100
AcDbLine
 10
187.6663093243
 20
132.1849124152
 30
0.0
 11
184.7218231086
 21
132.1849124152
 31
0.0
  0
SPLINE
  5
FD
330
1F
100
AcDbEntity
  8
0
  6
HIDDEN
 62
     7
370
     0
100
AcDbSpline
210
0.0
220
0.0
230
1.0
 70
     8
 71
     3
 72
    12
 73
     8
 74
     0
 42
0.00000001
 43
0.00000001
 12
1.0
 22
0.0
 32
0.0
 13
1.0
 23
0.0
 33
0.0
 40
0.0
 40
0.0
 40
0.0
 40
0.0
 40
0.2499999999999991
 40
0.2499999999999991
 40
0.4999999999999982
 40
0.4999999999999982
 40
1.0
 40
1.0
 40
1.0
 40
1.0
 10
184.7218232535344
 20
132.1849122492864
 30
0.0
 10
184.6581580170039
 20
132.1849122492864
 30
0.0
 10
184.5985517847805
 20
132.2109843977661
 30
0.0
 10
184.4998912598497
 20
132.2865231485872
 30
0.0
 10
184.4609242698344
 20
132.3337740856834
 30
0.0
 10
184.36153743791
 20
132.4855979036498
 30
0.0
 10
184.3194611904865
 20
132.5984011534149
 30
0.0
 10
184.2888105516422
 20
132.71255527815
 30
0.0
  0
ELLIPSE
  5
FE
330
1F
100
AcDbEntity
  8
0
  6
HIDDEN
 62
     7
370
     0
100
AcDbEllipse
 10
197.2503240949
 20
124.6161022801
 30
0.0
 11
-11.70927234972714
 21
24.67718644093745
 31
0.0
210
0.0
220
0.0
230
1.0
 40
0.3419987131
 41
0.1689292745891169
 42
1.080116497809134
  0
SPLINE
  5
FF
330
1F
100
AcDbEntity
  8
0
  6
HIDDEN
 62
     7
370
     0
100
AcDbSpline
210
0.0
220
0.0
230
1.0
 70
     8
 71
     3
 72
    12
 73
     8
 74
     0
 42
0.00000001
 43
0.00000001
 12
1.0
 22
0.0
 32
0.0
 13
1.0
 23
0.0
 33
0.0
 40
0.0
 40
0.0
 40
0.0
 40
0.0
 40
0.5000000000000022
 40
0.5000000000000022
 40
0.7500000000000011
 40
0.7500000000000011
 40
1.0
 40
1.0
 40
1.0
 40
1.0
 10
184.2888105516422
 20
116.5196492820613
 30
0.0
 10
184.3195099350094
 20
116.6339849491251
 30
0.0
 10
184.360860003116
 20
116.7453383019665
 30
0.0
 10
184.4606159313354
 20
116.8980750742152
 30
0.0
 10
184.5003128490681
 20
116.9459349600673
 30
0.0
 10
184.5975710007158
 20
117.0205380734168
 30
0.0
 10
184.6583471587065
 20
117.0472923109249
 30
0.0
 10
184.7218232535344
 20
117.0472923109249
 30
0.0
  0
LINE
  5
100
330
1F
100
AcDbEntity
  8
0
  6
HIDDEN
 62
     7
370
     0
100
AcDbLine
 10
184.7218231086
 20
117.047292145
 30
0.0
 11
187.6663093243
 21
117.047292145
 31
0.0
  0
SPLINE
  5
101
330
1F
100
AcDbEntity
  8
0
  6
HIDDEN
 62
     7
370
     0
100
AcDbSpline
210
0.0
220
0.0
230
1.0
 70
     8
 71
     3
 72
    12
 73
     8
 74
     0
 42
0.00000001
 43
0.00000001
 12
1.0
 22
0.0
 32
0.0
 13
1.0
 23
0.0
 33
0.0
 40
0.0
 40
0.0
 40
0.0
 40
0.0
 40
0.2499999999999984
 40
0.2499999999999984
 40
0.4999999999999968
 40
0.4999999999999968
 40
1.0
 40
1.0
 40
1.0
 40
1.0
 10
187.6663096264015
 20
117.0472923109249
 30
0.0
 10
187.729974862932
 20
117.0472923109249
 30
0.0
 10
187.7895810951554
 20
117.0212201624452
 30
0.0
 10
187.8882416200862
 20
116.9456814116241
 30
0.0
 10
187.9272086101015
 20
116.8984304745279
 30
0.0
 10
188.0265954420259
 20
116.7466066565614
 30
0.0
 10
188.0686716894494
 20
116.6338034067964
 30
0.0
 10
188.0993223282937
 20
116.5196492820613
 30
0.0
  0
ELLIPSE
  5
102
330
1F
100
AcDbEntity
  8
0
  6
HIDDEN
 62
     7
370
     0
100
AcDbEllipse
 10
175.137808785
 20
124.6161022801
 30
0.0
 11
-11.70927234972717
 21
24.67718644093745
 31
0.0
210
0.0
220
0.0
230
1.0
 40
0.3419987131
 41
3.310521928178953
 42
4.221709151398947
  0
SPLINE
  5
103
330
1F
100
AcDbEntity
  8
0
  6
HIDDEN
 62
     7
370
     0
100
AcDbSpline
210
0.0
220
0.0
230
1.0
 70
     8
 71
     3
 72
    12
 73
     8
 74
     0
 42
0.00000001
 43
0.00000001
 12
1.0
 22
0.0
 32
0.0
 13
1.0
 23
0.0
 33
0.0
 40
0.0
 40
0.0
 40
0.0
 40
0.0
 40
0.4999999999999972
 40
0.4999999999999972
 40
0.7499999999999986
 40
0.7499999999999986
 40
1.0
 40
1.0
 40
1.0
 40
1.0
 10
188.0993223282937
 20
100.9634608028739
 30
0.0
 10
188.0686229449264
 20
100.9243229604779
 30
0.0
 10
188.0272728768199
 20
100.8871631777525
 30
0.0
 10
187.9275169486005
 20
100.8372266721247
 30
0.0
 10
187.8878200308678
 20
100.8217738019809
 30
0.0
 10
187.7905618792201
 20
100.7978542583819
 30
0.0
 10
187.7297857212294
 20
100.7893711646035
 30
0.0
 10
187.6663096264015
 20
100.7893711646035
 30
0.0
  0
LINE
  5
104
330
1F
100
AcDbEntity
  8
0
  6
HIDDEN
 62
     7
370
     0
100
AcDbLine
 10
187.6663093243
 20
100.7893709112
 30
0.0
 11
184.7218231086
 21
100.7893709112
 31
0.0
  0
SPLINE
  5
105
330
1F
100
AcDbEntity
  8
0
  6
HIDDEN
 62
     7
370
     0
100
AcDbSpline
210
0.0
220
0.0
230
1.0
 70
     8
 71
     3
 72
    12
 73
     8
 74
     0
 42
0.00000001
 43
0.00000001
 12
1.0
 22
0.0
 32
0.0
 13
1.0
 23
0.0
 33
0.0
 40
0.0
 40
0.0
 40
0.0
 40
0.0
 40
0.2499999999999993
 40
0.2499999999999993
 40
0.4999999999999987
 40
0.4999999999999987
 40
1.0
 40
1.0
 40
1.0
 40
1.0
 10
184.7218232535344
 20
100.7893711646035
 30
0.0
 10
184.6581580170039
 20
100.7893711646035
 30
0.0
 10
184.5985517847805
 20
100.7976359402694
 30
0.0
 10
184.4998912598496
 20
100.8218547218525
 30
0.0
 10
184.4609242698344
 20
100.8371120411617
 30
0.0
 10
184.36153743791
 20
100.8867453954236
 30
0.0
 10
184.3194611904865
 20
100.9243851035977
 30
0.0
 10
184.2888105516421
 20
100.9634608028739
 30
0.0
  0
ELLIPSE
  5
106
330
1F
100
AcDbEntity
  8
0
  6
HIDDEN
 62
     7
370
     0
100
AcDbEllipse
 10
197.2503240949
 20
124.6161022801
 30
0.0
 11
11.70927234972703
 21
24.67718644093745
 31
0.0
210
0.0
220
0.0
230
1.0
 40
0.3419987131
 41
2.061476155780649
 42
2.972663379000667
  0
SPLINE
  5
107
330
1F
100
AcDbEntity
  8
0
  6
HIDDEN
 62
     7
370
     0
100
AcDbSpline
210
0.0
220
0.0
230
1.0
 70
     8
 71
     3
 72
    58
 73
    54
 74
     0
 42
0.00000001
 43
0.00000001
 12
1.0
 22
0.0
 32
0.0
 13
1.0
 23
0.0
 33
0.0
 40
-0.0625000000000004
 40
-0.0625000000000004
 40
0.0
 40
0.0
 40
0.0312499999999999
 40
0.0312499999999999
 40
0.0624999999999998
 40
0.0624999999999998
 40
0.0937499999999998
 40
0.0937499999999998
 40
0.1249999999999997
 40
0.1249999999999997
 40
0.1874999999999995
 40
0.1874999999999995
 40
0.2499999999999993
 40
0.2499999999999993
 40
0.2812499999999993
 40
0.2812499999999993
 40
0.3124999999999992
 40
0.3124999999999992
 40
0.3437499999999991
 40
0.3437499999999991
 40
0.3749999999999991
 40
0.3749999999999991
 40
0.4062499999999989
 40
0.4062499999999989
 40
0.4374999999999989
 40
0.4374999999999989
 40
0.4687499999999988
 40
0.4687499999999988
 40
0.4999999999999987
 40
0.4999999999999987
 40
0.5624999999999986
 40
0.5624999999999986
 40
0.6249999999999983
 40
0.6249999999999983
 40
0.6562499999999984
 40
0.6562499999999984
 40
0.6874999999999986
 40
0.6874999999999986
 40
0.7187499999999987
 40
0.7187499999999987
 40
0.7499999999999988
 40
0.7499999999999988
 40
0.781249999999999
 40
0.781249999999999
 40
0.812499999999999
 40
0.812499999999999
 40
0.843749999999999
 40
0.843749999999999
 40
0.8749999999999991
 40
0.8749999999999991
 40
0.9374999999999996
 40
0.9374999999999996
 40
1.0
 40
1.0
 40
1.03125
 40
1.03125
 10
190.1940664399679
 20
124.351729909562
 30
0.0
 10
190.1940664399679
 20
124.7482884653772
 30
0.0
 10
190.1810905479574
 20
124.8782552049219
 30
0.0
 10
190.1302582458515
 20
125.1339345430541
 30
0.0
 10
190.0917811745301
 20
125.2609756348955
 30
0.0
 10
189.9913762133737
 20
125.5031538208361
 30
0.0
 10
189.9299419710544
 20
125.6180074794256
 30
0.0
 10
189.7848077048727
 20
125.8353726012314
 30
0.0
 10
189.7003657837254
 20
125.9382480733157
 30
0.0
 10
189.4236937541155
 20
126.2148660257328
 30
0.0
 10
189.2006475991474
 20
126.3638581455657
 30
0.0
 10
188.7193836006029
 20
126.563381940557
 30
0.0
 10
188.4561257452831
 20
126.6159608050592
 30
0.0
 10
188.0646597139983
 20
126.6161725786467
 30
0.0
 10
187.9321109703848
 20
126.6031816070573
 30
0.0
 10
187.6755666613695
 20
126.5521453837675
 30
0.0
 10
187.5508707749979
 20
126.5143838423647
 30
0.0
 10
187.3086678045641
 20
126.4142243030713
 30
0.0
 10
187.1916044413134
 20
126.3516264933208
 30
0.0
 10
186.9749181220674
 20
126.2069045092852
 30
0.0
 10
186.8739041539996
 20
126.1242804041169
 30
0.0
 10
186.6871109597141
 20
125.9376600335059
 30
0.0
 10
186.6043105957598
 20
125.8366116656147
 30
0.0
 10
186.4594321568653
 20
125.6200996447408
 30
0.0
 10
186.3967813735379
 20
125.5032102895419
 30
0.0
 10
186.296340979164
 20
125.2609528874829
 30
0.0
 10
186.258481967394
 20
125.1362902226676
 30
0.0
 10
186.2072442629305
 20
124.8799590270128
 30
0.0
 10
186.1941138881574
 20
124.7473710876624
 30
0.0
 10
186.1939719377185
 20
124.355739419093
 30
0.0
 10
186.2463128539666
 20
124.0925265860588
 30
0.0
 10
186.4454430807047
 20
123.6110192553675
 30
0.0
 10
186.594280168347
 20
123.3878187740919
 30
0.0
 10
186.8705922048864
 20
123.1109726941301
 30
0.0
 10
186.9733577421376
 20
123.0264605999114
 30
0.0
 10
187.1906746744915
 20
122.8810820031799
 30
0.0
 10
187.3054615850283
 20
122.8195665715781
 30
0.0
 10
187.5473810751342
 20
122.7190105113325
 30
0.0
 10
187.6745079776342
 20
122.6803717854979
 30
0.0
 10
187.9301768132704
 20
122.6293069186105
 30
0.0
 10
188.0600720186484
 20
122.6162324382342
 30
0.0
 10
188.3241468010728
 20
122.6159740369606
 30
0.0
 10
188.4544759405581
 20
122.6288501049236
 30
0.0
 10
188.7101652547019
 20
122.6794488962515
 30
0.0
 10
188.8370931210896
 20
122.7177542420892
 30
0.0
 10
189.0795454099317
 20
122.8180100745091
 30
0.0
 10
189.1944621039133
 20
122.8793610934211
 30
0.0
 10
189.4118528956838
 20
123.0242299289914
 30
0.0
 10
189.5148381753653
 20
123.1085938822607
 30
0.0
 10
189.7918025430226
 20
123.3851199360468
 30
0.0
 10
189.9409348213811
 20
123.6079797780425
 30
0.0
 10
190.1408869400956
 20
124.0890822981032
 30
0.0
 10
190.1940664399679
 20
124.351729909562
 30
0.0
 10
190.1940664399679
 20
124.7482884653772
 30
0.0
  0
LINE
  5
108
330
1F
100
AcDbEntity
  8
0
  6
HIDDEN
 62
     7
370
     0
100
AcDbLine
 10
176.19406644
 20
149.3161031623
 30
0.0
 11
176.19406644
 21
99.916101398
 31
0.0
  0
SPLINE
  5
109
330
1F
100
AcDbEntity
  8
0
  6
HIDDEN
 62
     7
370
     0
100
AcDbSpline
210
0.0
220
0.0
230
1.0
 70
     8
 71
     3
 72
    22
 73
    18
 74
     0
 42
0.00000001
 43
0.00000001
 12
1.0
 22
0.0
 32
0.0
 13
1.0
 23
0.0
 33
0.0
 40
0.0
 40
0.0
 40
0.0
 40
0.0
 40
0.125
 40
0.125
 40
0.25
 40
0.25
 40
0.375
 40
0.375
 40
0.5
 40
0.5
 40
0.625
 40
0.625
 40
0.75
 40
0.75
 40
0.875
 40
0.875
 40
1.0
 40
1.0
 40
1.0
 40
1.0
 10
197.1831995441725
 20
115.0265564706556
 30
0.0
 10
197.195177379684
 20
114.8318104799956
 30
0.0
 10
197.1980583354741
 20
114.6359575440123
 30
0.0
 10
197.1776340020964
 20
114.24236520822
 30
0.0
 10
197.1538059592966
 20
114.0421046313763
 30
0.0
 10
197.0719073107103
 20
113.6566111533124
 30
0.0
 10
197.0132717231114
 20
113.4683269544507
 30
0.0
 10
196.8563937080673
 20
113.1196913049644
 30
0.0
 10
196.7605669742326
 20
112.9634454847256
 30
0.0
 10
196.5304982957004
 20
112.6903062467662
 30
0.0
 10
196.4003058104035
 20
112.5791197296387
 30
0.0
 10
196.120548774773
 20
112.4100663331381
 30
0.0
 10
195.9722951711902
 20
112.3529449493611
 30
0.0
 10
195.6732492440163
 20
112.2876982723782
 30
0.0
 10
195.5220590205796
 20
112.2794327781132
 30
0.0
 10
195.230161328759
 20
112.3014705727965
 30
0.0
 10
195.0875706172646
 20
112.331475007539
 30
0.0
 10
194.949966536854
 20
112.377764785608
 30
0.0
  0
LWPOLYLINE
  5
10A
330
1F
100
AcDbEntity
  8
0
  6
HIDDEN
 62
     7
370
     0
100
AcDbPolyline
 90
       25
 70
   128
 43
0.0
 10
197.183199485
 20
115.0265568514
 10
197.070034479
 20
115.5285760407
 10
196.838276719
 20
116.0010732357
 10
196.4974852998
 20
116.4245623741
 10
196.0617120166
 20
116.7815830205
 10
195.5489276696
 20
117.0574114304
 10
194.9802732814
 20
117.2406747583
 10
194.3791995544
 20
117.3238157872
 10
193.7704927076
 20
117.3034067843
 10
193.1792518843
 20
117.1802887339
 10
192.629857247
 20
116.959538741
 10
192.1449622859
 20
116.6502590869
 10
191.7445624966
 20
116.2652028371
 10
191.4451692973
 20
115.8202495072
 10
191.2591273684
 20
115.3337442894
 10
191.1941070829
 20
114.8257497344
 10
191.252791581
 20
114.3172131498
 10
191.4327603553
 20
113.8291041944
 10
191.7265916962
 20
113.3815496806
 10
192.1221690972
 20
112.9930046965
 10
192.6031823058
 20
112.6794907842
 10
193.1497960139
 20
112.4539365638
 10
193.7394703526
 20
112.3256422225
 10
194.3478903521
 20
112.2998976726
 10
194.9499661822
 20
112.3777646218
  0
LINE
  5
10B
330
1F
100
AcDbEntity
  8
0
  6
HIDDEN
 62
     7
370
     0
100
AcDbLine
 10
176.19406644
 20
105.066102894
 30
0.0
 11
176.19406644
 21
144.1661016662
 31
0.0
  0
SPLINE
  5
10C
330
1F
100
AcDbEntity
  8
0
  6
HIDDEN
 62
     7
370
     0
100
AcDbSpline
210
0.0
220
0.0
230
1.0
 70
     8
 71
     3
 72
    14
 73
    10
 74
     0
 42
0.00000001
 43
0.00000001
 12
1.0
 22
0.0
 32
0.0
 13
1.0
 23
0.0
 33
0.0
 40
0.0
 40
0.0
 40
0.0
 40
0.0
 40
0.25
 40
0.25
 40
0.5
 40
0.5
 40
0.75
 40
0.75
 40
1.0
 40
1.0
 40
1.0
 40
1.0
 10
175.1532054118395
 20
136.9105778251789
 30
0.0
 10
175.1849205461702
 20
136.8527946428358
 30
0.0
 10
175.2195350714706
 20
136.7963819817608
 30
0.0
 10
175.2992062668859
 20
136.6887825317454
 30
0.0
 10
175.3442621439164
 20
136.6368699048243
 30
0.0
 10
175.4548165564218
 20
136.550671280127
 30
0.0
 10
175.522201970626
 20
136.5165818601553
 30
0.0
 10
175.672831490524
 20
136.5144794681385
 30
0.0
 10
175.7426587272894
 20
136.5478512409832
 30
0.0
 10
175.7990895510928
 20
136.591663909534
 30
0.0
  0
SPLINE
  5
10D
330
1F
100
AcDbEntity
  8
0
  6
HIDDEN
 62
     7
370
     0
100
AcDbSpline
210
0.0
220
0.0
230
1.0
 70
     8
 71
     3
 72
    16
 73
    12
 74
     0
 42
0.00000001
 43
0.00000001
 12
1.0
 22
0.0
 32
0.0
 13
1.0
 23
0.0
 33
0.0
 40
0.0
 40
0.0
 40
0.0
 40
0.0
 40
0.0625000000000002
 40
0.0625000000000002
 40
0.1250000000000005
 40
0.1250000000000005
 40
0.2500000000000051
 40
0.2500000000000051
 40
0.500000000000005
 40
0.500000000000005
 40
1.0
 40
1.0
 40
1.0
 40
1.0
 10
175.7990895510611
 20
136.5916639095646
 30
0.0
 10
175.810823785508
 20
136.6007743228125
 30
0.0
 10
175.8243555409869
 20
136.6088516787589
 30
0.0
 10
175.8543430014168
 20
136.6170985204358
 30
0.0
 10
175.869337707825
 20
136.6161712028482
 30
0.0
 10
175.9050781302197
 20
136.6034046833165
 30
0.0
 10
175.919091467221
 20
136.5857560368062
 30
0.0
 10
175.9532355560023
 20
136.5311031167746
 30
0.0
 10
175.9642074601207
 20
136.4897034491161
 30
0.0
 10
175.990053000387
 20
136.3612137053934
 30
0.0
 10
175.9940664399679
 20
136.2705956177547
 30
0.0
 10
175.9940664399679
 20
136.1783765132006
 30
0.0
  0
LINE
  5
10E
330
1F
100
AcDbEntity
  8
0
  6
HIDDEN
 62
     7
370
     0
100
AcDbLine
 10
175.994066445
 20
113.0538284425
 30
0.0
 11
175.994066445
 21
136.1783761177
 31
0.0
  0
SPLINE
  5
10F
330
1F
100
AcDbEntity
  8
0
  6
HIDDEN
 62
     7
370
     0
100
AcDbSpline
210
0.0
220
0.0
230
1.0
 70
     8
 71
     3
 72
    16
 73
    12
 74
     0
 42
0.00000001
 43
0.00000001
 12
1.0
 22
0.0
 32
0.0
 13
1.0
 23
0.0
 33
0.0
 40
0.0
 40
0.0
 40
0.0
 40
0.0
 40
0.4999999999999979
 40
0.4999999999999979
 40
0.7499999999999969
 40
0.7499999999999969
 40
0.8749999999999963
 40
0.8749999999999963
 40
0.9374999999999981
 40
0.9374999999999981
 40
1.0
 40
1.0
 40
1.0
 40
1.0
 10
175.9940664399679
 20
113.0538280470104
 30
0.0
 10
175.9940664399679
 20
112.9612441961065
 30
0.0
 10
175.9900091378528
 20
112.8710317402462
 30
0.0
 10
175.9643518950581
 20
112.7430906131278
 30
0.0
 10
175.9530364493159
 20
112.7006773987159
 30
0.0
 10
175.9190050820073
 20
112.6463633552648
 30
0.0
 10
175.9051261008035
 20
112.6287820198749
 30
0.0
 10
175.8691904190361
 20
112.61599833194
 30
0.0
 10
175.8542400997734
 20
112.6151228337919
 30
0.0
 10
175.8243415870315
 20
112.6233682689113
 30
0.0
 10
175.8108087266663
 20
112.631441929083
 30
0.0
 10
175.7990895510923
 20
112.6405406506771
 30
0.0
  0
SPLINE
  5
110
330
1F
100
AcDbEntity
  8
0
  6
HIDDEN
 62
     7
370
     0
100
AcDbSpline
210
0.0
220
0.0
230
1.0
 70
     8
 71
     3
 72
    14
 73
    10
 74
     0
 42
0.00000001
 43
0.00000001
 12
1.0
 22
0.0
 32
0.0
 13
1.0
 23
0.0
 33
0.0
 40
0.0
 40
0.0
 40
0.0
 40
0.0
 40
0.25
 40
0.25
 40
0.5
 40
0.5
 40
0.75
 40
0.75
 40
1.0
 40
1.0
 40
1.0
 40
1.0
 10
175.7990895510991
 20
112.6405406506856
 30
0.0
 10
175.7426337864904
 20
112.6843726831804
 30
0.0
 10
175.6717681602405
 20
112.7177037196022
 30
0.0
 10
175.5233110790678
 20
112.7156447094548
 30
0.0
 10
175.4541177197603
 20
112.6810486850531
 30
0.0
 10
175.3444022816261
 20
112.5953833283903
 30
0.0
 10
175.2991577022947
 20
112.5433608836823
 30
0.0
 10
175.219530992871
 20
112.4358126233523
 30
0.0
 10
175.1849208443375
 20
112.3794104606193
 30
0.0
 10
175.1532054118383
 20
112.3216267350298
 30
0.0
  0
SPLINE
  5
111
330
1F
100
AcDbEntity
  8
0
  6
HIDDEN
 62
     7
370
     0
100
AcDbSpline
210
0.0
220
0.0
230
1.0
 70
     8
 71
     3
 72
    10
 73
     6
 74
     0
 42
0.00000001
 43
0.00000001
 12
1.0
 22
0.0
 32
0.0
 13
1.0
 23
0.0
 33
0.0
 40
0.0
 40
0.0
 40
0.0
 40
0.0
 40
0.5
 40
0.5
 40
1.0
 40
1.0
 40
1.0
 40
1.0
 10
175.1532054118388
 20
112.3216267350308
 30
0.0
 10
175.0814256239154
 20
112.1908480181289
 30
0.0
 10
175.0289661096073
 20
112.0567478686257
 30
0.0
 10
174.9396230455062
 20
111.788655305637
 30
0.0
 10
174.9036274360064
 20
111.6544099340482
 30
0.0
 10
174.8727460964083
 20
111.5210555565731
 30
0.0
  0
SPLINE
  5
112
330
1F
100
AcDbEntity
  8
0
  6
HIDDEN
 62
     7
370
     0
100
AcDbSpline
210
0.0
220
0.0
230
1.0
 70
     8
 71
     3
 72
    10
 73
     6
 74
     0
 42
0.00000001
 43
0.00000001
 12
1.0
 22
0.0
 32
0.0
 13
1.0
 23
0.0
 33
0.0
 40
0.0
 40
0.0
 40
0.0
 40
0.0
 40
0.5
 40
0.5
 40
1.0
 40
1.0
 40
1.0
 40
1.0
 10
174.8727460964083
 20
107.3191924121006
 30
0.0
 10
174.9036191282206
 20
107.3029092647335
 30
0.0
 10
174.9396059911335
 20
107.2906516750079
 30
0.0
 10
175.0289405770247
 20
107.2735486861792
 30
0.0
 10
175.0813964364472
 20
107.2687490903209
 30
0.0
 10
175.1532054118395
 20
107.2669449989129
 30
0.0
  0
SPLINE
  5
113
330
1F
100
AcDbEntity
  8
0
  6
HIDDEN
 62
     7
370
     0
100
AcDbSpline
210
0.0
220
0.0
230
1.0
 70
     8
 71
     3
 72
     8
 73
     4
 74
     0
 42
0.00000001
 43
0.00000001
 12
1.0
 22
0.0
 32
0.0
 13
1.0
 23
0.0
 33
0.0
 40
0.0
 40
0.0
 40
0.0
 40
0.0
 40
1.0
 40
1.0
 40
1.0
 40
1.0
 10
175.9763698165929
 20
107.1410606206659
 30
0.0
 10
175.990356625135
 20
107.1128202300842
 30
0.0
 10
175.9940664399677
 20
107.0896881872734
 30
0.0
 10
175.994066439968
 20
107.0693478144382
 30
0.0
  0
LINE
  5
114
330
1F
100
AcDbEntity
  8
0
  6
HIDDEN
 62
     7
370
     0
100
AcDbLine
 10
175.994066445
 20
106.7762812246
 30
0.0
 11
175.994066445
 21
107.0693479497
 31
0.0
  0
LINE
  5
115
330
1F
100
AcDbEntity
  8
0
  6
HIDDEN
 62
     7
370
     0
100
AcDbLine
 10
175.994066445
 20
142.1628566105
 30
0.0
 11
175.994066445
 21
142.4559233356
 31
0.0
  0
SPLINE
  5
116
330
1F
100
AcDbEntity
  8
0
  6
HIDDEN
 62
     7
370
     0
100
AcDbSpline
210
0.0
220
0.0
230
1.0
 70
     8
 71
     3
 72
    10
 73
     6
 74
     0
 42
0.00000001
 43
0.00000001
 12
1.0
 22
0.0
 32
0.0
 13
1.0
 23
0.0
 33
0.0
 40
0.0
 40
0.0
 40
0.0
 40
0.0
 40
0.5
 40
0.5
 40
1.0
 40
1.0
 40
1.0
 40
1.0
 10
175.1532054118403
 20
141.965259561298
 30
0.0
 10
175.0813964364478
 20
141.9634554698901
 30
0.0
 10
175.028940577025
 20
141.9586558740318
 30
0.0
 10
174.9396059911336
 20
141.941552885203
 30
0.0
 10
174.9036191282206
 20
141.9292952954775
 30
0.0
 10
174.8727460964083
 20
141.9130121481103
 30
0.0
  0
SPLINE
  5
117
330
1F
100
AcDbEntity
  8
0
  6
HIDDEN
 62
     7
370
     0
100
AcDbSpline
210
0.0
220
0.0
230
1.0
 70
     8
 71
     3
 72
    10
 73
     6
 74
     0
 42
0.00000001
 43
0.00000001
 12
1.0
 22
0.0
 32
0.0
 13
1.0
 23
0.0
 33
0.0
 40
0.0
 40
0.0
 40
0.0
 40
0.0
 40
0.5
 40
0.5
 40
1.0
 40
1.0
 40
1.0
 40
1.0
 10
174.8727460964083
 20
137.7111490036379
 30
0.0
 10
174.9036274360064
 20
137.5777946261626
 30
0.0
 10
174.9396230455063
 20
137.4435492545735
 30
0.0
 10
175.0289661096076
 20
137.1754566915844
 30
0.0
 10
175.0814256239158
 20
137.041356542081
 30
0.0
 10
175.1532054118395
 20
136.9105778251789
 30
0.0
  0
LINE
  5
118
330
1F
100
AcDbEntity
  8
0
  6
HIDDEN
 62
     7
370
     0
100
AcDbLine
 10
175.994066445
 20
107.0693479497
 30
0.0
 11
175.994066445
 21
118.631622253
 31
0.0
  0
LINE
  5
119
330
1F
100
AcDbEntity
  8
0
  6
HIDDEN
 62
     7
370
     0
100
AcDbLine
 10
175.994066445
 20
130.6005823072
 30
0.0
 11
175.994066445
 21
142.1628566105
 31
0.0
  0
SPLINE
  5
11A
330
1F
100
AcDbEntity
  8
0
  6
HIDDEN
 62
     7
370
     0
100
AcDbSpline
210
0.0
220
0.0
230
1.0
 70
     8
 71
     3
 72
     8
 73
     4
 74
     0
 42
0.00000001
 43
0.00000001
 12
1.0
 22
0.0
 32
0.0
 13
1.0
 23
0.0
 33
0.0
 40
0.0
 40
0.0
 40
0.0
 40
0.0
 40
1.0
 40
1.0
 40
1.0
 40
1.0
 10
196.5249926206462
 20
115.7341831013933
 30
0.0
 10
196.7587053633865
 20
115.5134977699466
 30
0.0
 10
196.97814147504
 20
115.276242338234
 30
0.0
 10
197.1831995441725
 20
115.0265564706556
 30
0.0
  0
LWPOLYLINE
  5
11B
330
1F
100
AcDbEntity
  8
0
  6
HIDDEN
 62
     7
370
     0
100
AcDbPolyline
 90
       20
 70
   128
 43
0.0
 10
196.5249928434
 20
115.7341831941
 10
196.2628125001
 20
116.1534413342
 10
195.8951617379
 20
116.5126813222
 10
195.4407843549
 20
116.7935877685
 10
194.9228442062
 20
116.9818383288
 10
194.367748012
 20
117.0678361897
 10
193.8037968029
 20
117.0471966844
 10
193.2597423692
 20
116.9209722076
 10
192.7633250851
 20
116.6955977324
 10
192.3398508478
 20
116.3825643826
 10
192.0109095771
 20
115.9978303705
 10
191.7932743926
 20
115.5610121433
 10
191.6980392088
 20
115.0943794865
 10
191.7300599415
 20
114.6217230354
 10
191.8877049137
 20
114.1671398301
 10
192.1629349489
 20
113.7538067643
 10
192.5417187412
 20
113.4027968738
 10
193.0047462482
 20
113.132005522
 10
193.5284084428
 20
112.9552386347
 10
194.0860080321
 20
112.8815086205
  0
SPLINE
  5
11C
330
1F
100
AcDbEntity
  8
0
  6
HIDDEN
 62
     7
370
     0
100
AcDbSpline
210
0.0
220
0.0
230
1.0
 70
     8
 71
     3
 72
     8
 73
     4
 74
     0
 42
0.00000001
 43
0.00000001
 12
1.0
 22
0.0
 32
0.0
 13
1.0
 23
0.0
 33
0.0
 40
0.0
 40
0.0
 40
0.0
 40
0.0
 40
1.0
 40
1.0
 40
1.0
 40
1.0
 10
194.949966536854
 20
112.377764785608
 30
0.0
 10
194.6565084468577
 20
112.5384642115797
 30
0.0
 10
194.3694356872297
 20
112.7081422014
 30
0.0
 10
194.0860077222866
 20
112.8815087981324
 30
0.0
  0
SPLINE
  5
11D
330
1F
100
AcDbEntity
  8
0
  6
HIDDEN
 62
     7
370
     0
100
AcDbSpline
210
0.0
220
0.0
230
1.0
 70
     8
 71
     3
 72
    48
 73
    44
 74
     0
 42
0.00000001
 43
0.00000001
 12
1.0
 22
0.0
 32
0.0
 13
1.0
 23
0.0
 33
0.0
 40
0.0
 40
0.0
 40
0.0
 40
0.0
 40
0.0156249999999995
 40
0.0156249999999995
 40
0.031249999999999
 40
0.031249999999999
 40
0.0624999999999983
 40
0.0624999999999983
 40
0.124999999999998
 40
0.124999999999998
 40
0.1874999999999977
 40
0.1874999999999977
 40
0.2499999999999974
 40
0.2499999999999974
 40
0.3124999999999972
 40
0.3124999999999972
 40
0.3749999999999968
 40
0.3749999999999968
 40
0.4374999999999966
 40
0.4374999999999966
 40
0.4999999999999962
 40
0.4999999999999962
 40
0.5624999999999959
 40
0.5624999999999959
 40
0.6249999999999956
 40
0.6249999999999956
 40
0.6874999999999952
 40
0.6874999999999952
 40
0.7499999999999948
 40
0.7499999999999948
 40
0.7812499999999949
 40
0.7812499999999949
 40
0.812499999999995
 40
0.812499999999995
 40
0.8281249999999954
 40
0.8281249999999954
 40
0.8437499999999958
 40
0.8437499999999958
 40
0.8749999999999967
 40
0.8749999999999967
 40
0.9374999999999983
 40
0.9374999999999983
 40
1.0
 40
1.0
 40
1.0
 40
1.0
 10
192.7578239074572
 20
114.2706367710438
 30
0.0
 10
192.8044657944583
 20
114.2388819618459
 30
0.0
 10
192.8520673934575
 20
114.2164893696411
 30
0.0
 10
192.9454458789406
 20
114.1867848214786
 30
0.0
 10
192.9899579544517
 20
114.179163938541
 30
0.0
 10
193.1219326761913
 20
114.1662247640631
 30
0.0
 10
193.2058999473715
 20
114.1706458593661
 30
0.0
 10
193.4585901608211
 20
114.1977503242895
 30
0.0
 10
193.6293728234204
 20
114.2365800702399
 30
0.0
 10
193.9814653807049
 20
114.3401551953239
 30
0.0
 10
194.1602816477271
 20
114.4051853612519
 30
0.0
 10
194.5264798325323
 20
114.562095581495
 30
0.0
 10
194.7163116129511
 20
114.6554749604725
 30
0.0
 10
195.0933941188524
 20
114.8684382970093
 30
0.0
 10
195.2813764499694
 20
114.9881914092151
 30
0.0
 10
195.6473587086349
 20
115.2551346685827
 30
0.0
 10
195.8204093635686
 20
115.3987663902146
 30
0.0
 10
196.1351351368752
 20
115.7030933119387
 30
0.0
 10
196.2698783953606
 20
115.8570287133794
 30
0.0
 10
196.4896128128428
 20
116.1642961499536
 30
0.0
 10
196.5692460806406
 20
116.3104013349019
 30
0.0
 10
196.6724755241156
 20
116.581653988387
 30
0.0
 10
196.6950931628059
 20
116.7040818716246
 30
0.0
 10
196.6929684839218
 20
116.9209978749492
 30
0.0
 10
196.6686513180785
 20
117.0136351766309
 30
0.0
 10
196.5833918906542
 20
117.1728761166104
 30
0.0
 10
196.5218894406671
 20
117.2390150597412
 30
0.0
 10
196.3734462226647
 20
117.341752707309
 30
0.0
 10
196.2856084456912
 20
117.3797894627275
 30
0.0
 10
196.1410050752469
 20
117.4110504459883
 30
0.0
 10
196.0903476905863
 20
117.4172554041231
 30
0.0
 10
195.9919691043667
 20
117.4136447219103
 30
0.0
 10
195.9414574748031
 20
117.4059313719436
 30
0.0
 10
195.8981923607712
 20
117.3531933265476
 30
0.0
 10
195.8912908346185
 20
117.3273604103242
 30
0.0
 10
195.8982538552609
 20
117.2607367146956
 30
0.0
 10
195.9113047961581
 20
117.2206229109758
 30
0.0
 10
195.9609962342105
 20
117.0969031314751
 30
0.0
 10
196.0069801333631
 20
117.0072154173505
 30
0.0
 10
196.141882899448
 20
116.7350201232212
 30
0.0
 10
196.2323960945878
 20
116.5457667703627
 30
0.0
 10
196.3935599870555
 20
116.1517996089531
 30
0.0
 10
196.4657571440856
 20
115.9461376712298
 30
0.0
 10
196.5249926206461
 20
115.7341831013933
 30
0.0
  0
SPLINE
  5
11E
330
1F
100
AcDbEntity
  8
0
  6
HIDDEN
 62
     7
370
     0
100
AcDbSpline
210
0.0
220
0.0
230
1.0
 70
     8
 71
     3
 72
     8
 73
     4
 74
     0
 42
0.00000001
 43
0.00000001
 12
1.0
 22
0.0
 32
0.0
 13
1.0
 23
0.0
 33
0.0
 40
0.0
 40
0.0
 40
0.0
 40
0.0
 40
1.0
 40
1.0
 40
1.0
 40
1.0
 10
192.7054132983946
 20
113.9117412254128
 30
0.0
 10
192.7059018820607
 20
114.0424582204986
 30
0.0
 10
192.7232746053777
 20
114.1615828488257
 30
0.0
 10
192.7578239074563
 20
114.2706367710317
 30
0.0
  0
SPLINE
  5
11F
330
1F
100
AcDbEntity
  8
0
  6
HIDDEN
 62
     7
370
     0
100
AcDbSpline
210
0.0
220
0.0
230
1.0
 70
     8
 71
     3
 72
    14
 73
    10
 74
     0
 42
0.00000001
 43
0.00000001
 12
1.0
 22
0.0
 32
0.0
 13
1.0
 23
0.0
 33
0.0
 40
0.0
 40
0.0
 40
0.0
 40
0.0
 40
0.5000000000000007
 40
0.5000000000000007
 40
0.7499999999999989
 40
0.7499999999999989
 40
0.8749999999999994
 40
0.8749999999999994
 40
1.0
 40
1.0
 40
1.0
 40
1.0
 10
194.0860077222866
 20
112.8815087981324
 30
0.0
 10
193.8477150574801
 20
113.0059792306897
 30
0.0
 10
193.6233707702342
 20
113.1610553080665
 30
0.0
 10
193.2945133249911
 20
113.430437310143
 30
0.0
 10
193.1862739274219
 20
113.5271068778776
 30
0.0
 10
193.017614916723
 20
113.6783027461226
 30
0.0
 10
192.9600597746897
 20
113.730057839889
 30
0.0
 10
192.8373457175845
 20
113.8297577434578
 30
0.0
 10
192.7697450924822
 20
113.8775648499212
 30
0.0
 10
192.7054132983878
 20
113.9117412254174
 30
0.0
  0
SPLINE
  5
120
330
1F
100
AcDbEntity
  8
0
  6
HIDDEN
 62
     7
370
     0
100
AcDbSpline
210
0.0
220
0.0
230
1.0
 70
     8
 71
     3
 72
    66
 73
    62
 74
     0
 42
0.00000001
 43
0.00000001
 12
1.0
 22
0.0
 32
0.0
 13
1.0
 23
0.0
 33
0.0
 40
-0.03125
 40
-0.03125
 40
0.0
 40
0.0
 40
0.0312500000000001
 40
0.0312500000000001
 40
0.0625000000000001
 40
0.0625000000000001
 40
0.0937500000000002
 40
0.0937500000000002
 40
0.1250000000000002
 40
0.1250000000000002
 40
0.1875000000000004
 40
0.1875000000000004
 40
0.2187500000000004
 40
0.2187500000000004
 40
0.2500000000000005
 40
0.2500000000000005
 40
0.2812500000000004
 40
0.2812500000000004
 40
0.3125000000000004
 40
0.3125000000000004
 40
0.3437500000000003
 40
0.3437500000000003
 40
0.3750000000000003
 40
0.3750000000000003
 40
0.4062500000000002
 40
0.4062500000000002
 40
0.4375000000000002
 40
0.4375000000000002
 40
0.4687500000000001
 40
0.4687500000000001
 40
0.5
 40
0.5
 40
0.53125
 40
0.53125
 40
0.5625
 40
0.5625
 40
0.5937499999999999
 40
0.5937499999999999
 40
0.6249999999999999
 40
0.6249999999999999
 40
0.6874999999999998
 40
0.6874999999999998
 40
0.7187499999999997
 40
0.7187499999999997
 40
0.7499999999999997
 40
0.7499999999999997
 40
0.7812499999999997
 40
0.7812499999999997
 40
0.8124999999999998
 40
0.8124999999999998
 40
0.8437499999999998
 40
0.8437499999999998
 40
0.8749999999999999
 40
0.8749999999999999
 40
0.9062499999999999
 40
0.9062499999999999
 40
0.9375
 40
0.9375
 40
0.96875
 40
0.96875
 40
1.0
 40
1.0
 40
1.03125
 40
1.03125
 10
194.0275135322112
 20
118.8129781526955
 30
0.0
 10
194.3606193477247
 20
118.8129781526955
 30
0.0
 10
194.5241103013145
 20
118.8234645608027
 30
0.0
 10
194.8453124466835
 20
118.864801674002
 30
0.0
 10
195.0047248042398
 20
118.8962117980737
 30
0.0
 10
195.3067635313802
 20
118.9787584775172
 30
0.0
 10
195.4498115687419
 20
119.0296483669813
 30
0.0
 10
195.7205447906927
 20
119.1521773789969
 30
0.0
 10
195.8476143056593
 20
119.2239091457667
 30
0.0
 10
196.1906223166321
 20
119.4646461797522
 30
0.0
 10
196.376454578036
 20
119.6657132080351
 30
0.0
 10
196.5642599411947
 20
120.0107714410948
 30
0.0
 10
196.613000017973
 20
120.1351547507314
 30
0.0
 10
196.6777640700878
 20
120.3943884197193
 30
0.0
 10
196.6939561806219
 20
120.5281099307395
 30
0.0
 10
196.6941755877886
 20
120.8040327410309
 30
0.0
 10
196.6776274937552
 20
120.9472786318396
 30
0.0
 10
196.6131983400516
 20
121.2290438228181
 30
0.0
 10
196.5655398708667
 20
121.3690655491348
 30
0.0
 10
196.438843903068
 20
121.6465679573089
 30
0.0
 10
196.3612703172691
 20
121.7805737580957
 30
0.0
 10
196.1806636910889
 20
122.0353515337096
 30
0.0
 10
196.0761106419732
 20
122.1578168917872
 30
0.0
 10
195.846102001629
 20
122.3820432375338
 30
0.0
 10
195.7212219432542
 20
122.4837580669714
 30
0.0
 10
195.4513223716244
 20
122.6649843558632
 30
0.0
 10
195.3052260051414
 20
122.74460482375
 30
0.0
 10
195.0045133813327
 20
122.8724894085548
 30
0.0
 10
194.8485656929753
 20
122.9218735678517
 30
0.0
 10
194.5247858292269
 20
122.9891811515629
 30
0.0
 10
194.3590874854769
 20
123.006262694969
 30
0.0
 10
194.0310436054696
 20
123.0063988751198
 30
0.0
 10
193.8657180541328
 20
122.9895250682423
 30
0.0
 10
193.5413895981225
 20
122.9223994672597
 30
0.0
 10
193.3850367972608
 20
122.8730223330933
 30
0.0
 10
193.0833206190316
 20
122.7448501676113
 30
0.0
 10
192.937230089317
 20
122.6652203479202
 30
0.0
 10
192.6675163119119
 20
122.4842101167164
 30
0.0
 10
192.5423349782688
 20
122.382366596859
 30
0.0
 10
192.1957244378412
 20
122.0443888679504
 30
0.0
 10
192.0125816029528
 20
121.7850494392795
 30
0.0
 10
191.8229150428135
 20
121.3698449634026
 30
0.0
 10
191.7752772953851
 20
121.2301156242245
 30
0.0
 10
191.7107590604529
 20
120.948811234064
 30
0.0
 10
191.6940619547111
 20
120.8055790221596
 30
0.0
 10
191.6940709270786
 20
120.5292453419125
 30
0.0
 10
191.7102017630251
 20
120.395372630796
 30
0.0
 10
191.7748614396938
 20
120.1359277477776
 30
0.0
 10
191.823531794333
 20
120.0114818195545
 30
0.0
 10
191.9489611666517
 20
119.7808612651624
 30
0.0
 10
192.0267048191419
 20
119.6725464189715
 30
0.0
 10
192.2090043061548
 20
119.4735789979006
 30
0.0
 10
192.311967459449
 20
119.384277024638
 30
0.0
 10
192.5411684317415
 20
119.2234918092214
 30
0.0
 10
192.6687994098496
 20
119.1515765598945
 30
0.0
 10
192.9386450712861
 20
119.0295547361344
 30
0.0
 10
193.0814998146732
 20
118.9787064953231
 30
0.0
 10
193.3838973419193
 20
118.8960944419485
 30
0.0
 10
193.5431125728641
 20
118.8647580955823
 30
0.0
 10
193.8640003041822
 20
118.823473413954
 30
0.0
 10
194.0275135322112
 20
118.8129781526955
 30
0.0
 10
194.3606193477247
 20
118.8129781526955
 30
0.0
  0
ARC
  5
121
330
1F
100
AcDbEntity
  8
0
  6
HIDDEN
 62
     7
370
     0
100
AcDbCircle
 10
194.0597943647
 20
113.8972296755
 30
0.0
 40
1.354458521486836
100
AcDbArc
 50
163.9970191835
 51
179.3861198474
  0
CIRCLE
  5
122
330
1F
100
AcDbEntity
  8
0
  6
HIDDEN
 62
     7
370
     0
100
AcDbCircle
 10
162.19406644
 20
124.6161022801
 30
0.0
 40
3.049999999999997
  0
LINE
  5
123
330
1F
100
AcDbEntity
  8
0
  6
HIDDEN
 62
     7
370
     0
100
AcDbLine
 10
151.2221063275
 20
135.4047776777
 30
0.0
 11
151.2221063275
 21
113.8274268825
 31
0.0
  0
LINE
  5
124
330
1F
100
AcDbEntity
  8
0
  6
HIDDEN
 62
     7
370
     0
100
AcDbLine
 10
147.2221056719
 20
135.7859754581
 30
0.0
 11
147.2221056719
 21
113.4462291021
 31
0.0
  0
LINE
  5
125
330
1F
100
AcDbEntity
  8
0
  6
HIDDEN
 62
     7
370
     0
100
AcDbLine
 10
146.1940671105
 20
112.8526897747
 30
0.0
 11
146.1940671105
 21
136.3795147855
 31
0.0
  0
LINE
  5
126
330
1F
100
AcDbEntity
  8
0
  6
HIDDEN
 62
     7
370
     0
100
AcDbLine
 10
155.8221059639
 20
135.1161021385
 30
0.0
 11
155.8221059639
 21
114.1161024217
 31
0.0
  0
LINE
  5
127
330
1F
100
AcDbEntity
  8
0
  6
HIDDEN
 62
     7
370
     0
100
AcDbLine
 10
149.722107013
 20
135.1161021385
 30
0.0
 11
149.722107013
 21
114.1161024217
 31
0.0
  0
LINE
  5
128
330
1F
100
AcDbEntity
  8
0
  6
HIDDEN
 62
     7
370
     0
100
AcDbLine
 10
150.7221071769
 20
135.1161021385
 30
0.0
 11
150.7221071769
 21
114.1161024217
 31
0.0
  0
LINE
  5
129
330
1F
100
AcDbEntity
  8
0
  6
HIDDEN
 62
     7
370
     0
100
AcDbLine
 10
166.1940666635
 20
134.6161020566
 30
0.0
 11
166.1940666635
 21
114.6161025036
 31
0.0
  0
SPLINE
  5
12A
330
1F
100
AcDbEntity
  8
0
  6
HIDDEN
 62
     7
370
     0
100
AcDbSpline
210
0.0
220
0.0
230
1.0
 70
     8
 71
     3
 72
    66
 73
    62
 74
     0
 42
0.00000001
 43
0.00000001
 12
1.0
 22
0.0
 32
0.0
 13
1.0
 23
0.0
 33
0.0
 40
-0.0312500000000002
 40
-0.0312500000000002
 40
0.0
 40
0.0
 40
0.03125
 40
0.03125
 40
0.0625
 40
0.0625
 40
0.09375
 40
0.09375
 40
0.125
 40
0.125
 40
0.1875
 40
0.1875
 40
0.21875
 40
0.21875
 40
0.25
 40
0.25
 40
0.28125
 40
0.28125
 40
0.3125
 40
0.3125
 40
0.34375
 40
0.34375
 40
0.3749999999999999
 40
0.3749999999999999
 40
0.4062499999999999
 40
0.4062499999999999
 40
0.4374999999999999
 40
0.4374999999999999
 40
0.4687499999999999
 40
0.4687499999999999
 40
0.5
 40
0.5
 40
0.53125
 40
0.53125
 40
0.5625
 40
0.5625
 40
0.59375
 40
0.59375
 40
0.6250000000000002
 40
0.6250000000000002
 40
0.6562500000000001
 40
0.6562500000000001
 40
0.6875
 40
0.6875
 40
0.7187499999999999
 40
0.7187499999999999
 40
0.7499999999999998
 40
0.7499999999999998
 40
0.7812499999999996
 40
0.7812499999999996
 40
0.8124999999999994
 40
0.8124999999999994
 40
0.8749999999999993
 40
0.8749999999999993
 40
0.9062499999999993
 40
0.9062499999999993
 40
0.9374999999999996
 40
0.9374999999999996
 40
0.9687499999999998
 40
0.9687499999999998
 40
1.0
 40
1.0
 40
1.03125
 40
1.03125
 10
161.9913877930201
 20
127.6661022801055
 30
0.0
 10
162.3967450869157
 20
127.6661022801055
 30
0.0
 10
162.5958049782516
 20
127.6461027204889
 30
0.0
 10
162.9870589628313
 20
127.5679592177887
 30
0.0
 10
163.1813317215789
 20
127.508798116268
 30
0.0
 10
163.5500951481302
 20
127.3553664293737
 30
0.0
 10
163.7248203065085
 20
127.2616396195314
 30
0.0
 10
164.0554976100423
 20
127.0403855171266
 30
0.0
 10
164.2111451540451
 20
126.912404150132
 30
0.0
 10
164.6306125237138
 20
126.4928490531319
 30
0.0
 10
164.8575006652441
 20
126.1543704944285
 30
0.0
 10
165.0862972886288
 20
125.6044916067103
 30
0.0
 10
165.1454895434777
 20
125.411091760967
 30
0.0
 10
165.2242969537382
 20
125.016863610609
 30
0.0
 10
165.2439363700186
 20
124.8182247831767
 30
0.0
 10
165.2441952344402
 20
124.4179244972783
 30
0.0
 10
165.2241245498072
 20
124.2145851705572
 30
0.0
 10
165.1457868671773
 20
123.8224936499496
 30
0.0
 10
165.0878370991389
 20
123.6317877816344
 30
0.0
 10
164.9338939572588
 20
123.2610639650478
 30
0.0
 10
164.8389553435362
 20
123.084337305239
 30
0.0
 10
164.618597927659
 20
122.7550841943146
 30
0.0
 10
164.4913179017308
 20
122.5999629707182
 30
0.0
 10
164.2095623104002
 20
122.3182862757878
 30
0.0
 10
164.0567739809427
 20
122.1928530908834
 30
0.0
 10
163.7273468987858
 20
121.9720774975293
 30
0.0
 10
163.5488008956341
 20
121.8762462448291
 30
0.0
 10
163.1812285700839
 20
121.723417114334
 30
0.0
 10
162.9910745433729
 20
121.6652453563898
 30
0.0
 10
162.5975341206704
 20
121.5862520640449
 30
0.0
 10
162.3951000494093
 20
121.5661889384026
 30
0.0
 10
161.9956709740439
 20
121.5660161922839
 30
0.0
 10
161.795651995488
 20
121.5854995663732
 30
0.0
 10
161.3995360480386
 20
121.6644911379744
 30
0.0
 10
161.2088032198468
 20
121.7227713578263
 30
0.0
 10
160.8411717792671
 20
121.8753389784344
 30
0.0
 10
160.6626853470993
 20
121.9709477652076
 30
0.0
 10
160.3324800881352
 20
122.1919598102927
 30
0.0
 10
160.1795915100733
 20
122.3174097090628
 30
0.0
 10
159.8979951155352
 20
122.5986401980681
 30
0.0
 10
159.7703641926597
 20
122.7540230759821
 30
0.0
 10
159.5500387576599
 20
123.082873934025
 30
0.0
 10
159.4558123006946
 20
123.257762040439
 30
0.0
 10
159.3008777800914
 20
123.6299058917998
 30
0.0
 10
159.2428654944892
 20
123.8207119336087
 30
0.0
 10
159.164446240211
 20
124.2115849515275
 30
0.0
 10
159.1441321602445
 20
124.4140425129098
 30
0.0
 10
159.1440010439406
 20
124.8161731178292
 30
0.0
 10
159.1636257372999
 20
125.0148971630043
 30
0.0
 10
159.2417921877136
 20
125.407736634141
 30
0.0
 10
159.3010796330535
 20
125.6023809115436
 30
0.0
 10
159.5301604761363
 20
126.1538206649578
 30
0.0
 10
159.7569913270305
 20
126.492160230657
 30
0.0
 10
160.1763300283512
 20
126.9118258933085
 30
0.0
 10
160.3316830241012
 20
127.0396718990817
 30
0.0
 10
160.6626508572384
 20
127.2612729737835
 30
0.0
 10
160.8372121574347
 20
127.3549137077604
 30
0.0
 10
161.2047854650095
 20
127.5080678284597
 30
0.0
 10
161.3994723266476
 20
127.5675715741058
 30
0.0
 10
161.7919482765841
 20
127.6460943231687
 30
0.0
 10
161.9913877930201
 20
127.6661022801055
 30
0.0
 10
162.3967450869157
 20
127.6661022801055
 30
0.0
  0
SPLINE
  5
12B
330
1F
100
AcDbEntity
  8
0
  6
HIDDEN
 62
     7
370
     0
100
AcDbSpline
210
0.0
220
0.0
230
1.0
 70
     8
 71
     3
 72
    66
 73
    62
 74
     0
 42
0.00000001
 43
0.00000001
 12
1.0
 22
0.0
 32
0.0
 13
1.0
 23
0.0
 33
0.0
 40
-0.03125
 40
-0.03125
 40
0.0
 40
0.0
 40
0.0312499999999997
 40
0.0312499999999997
 40
0.0624999999999995
 40
0.0624999999999995
 40
0.0937499999999992
 40
0.0937499999999992
 40
0.1249999999999992
 40
0.1249999999999992
 40
0.1874999999999995
 40
0.1874999999999995
 40
0.2187499999999997
 40
0.2187499999999997
 40
0.2499999999999999
 40
0.2499999999999999
 40
0.2812500000000001
 40
0.2812500000000001
 40
0.3125000000000002
 40
0.3125000000000002
 40
0.3437500000000004
 40
0.3437500000000004
 40
0.3750000000000006
 40
0.3750000000000006
 40
0.4062500000000008
 40
0.4062500000000008
 40
0.4375000000000007
 40
0.4375000000000007
 40
0.4687500000000007
 40
0.4687500000000007
 40
0.5000000000000007
 40
0.5000000000000007
 40
0.5312500000000007
 40
0.5312500000000007
 40
0.5625000000000006
 40
0.5625000000000006
 40
0.5937500000000006
 40
0.5937500000000006
 40
0.6250000000000004
 40
0.6250000000000004
 40
0.6562500000000004
 40
0.6562500000000004
 40
0.6875000000000004
 40
0.6875000000000004
 40
0.7187500000000003
 40
0.7187500000000003
 40
0.7500000000000003
 40
0.7500000000000003
 40
0.7812500000000003
 40
0.7812500000000003
 40
0.8125000000000002
 40
0.8125000000000002
 40
0.8750000000000001
 40
0.8750000000000001
 40
0.9062500000000001
 40
0.9062500000000001
 40
0.9375000000000001
 40
0.9375000000000001
 40
0.96875
 40
0.96875
 40
1.0
 40
1.0
 40
1.03125
 40
1.03125
 10
162.3967450869157
 20
127.6661022801055
 30
0.0
 10
161.9913877930201
 20
127.6661022801055
 30
0.0
 10
161.7923279016842
 20
127.6461027204889
 30
0.0
 10
161.4010739171045
 20
127.5679592177887
 30
0.0
 10
161.2068011583569
 20
127.508798116268
 30
0.0
 10
160.8380377318056
 20
127.3553664293737
 30
0.0
 10
160.6633125734273
 20
127.2616396195314
 30
0.0
 10
160.3326352698935
 20
127.0403855171265
 30
0.0
 10
160.1769877258907
 20
126.912404150132
 30
0.0
 10
159.757520356222
 20
126.4928490531319
 30
0.0
 10
159.5306322146917
 20
126.1543704944285
 30
0.0
 10
159.301835591307
 20
125.6044916067103
 30
0.0
 10
159.2426433364581
 20
125.4110917609669
 30
0.0
 10
159.1638359261976
 20
125.016863610609
 30
0.0
 10
159.1441965099172
 20
124.8182247831767
 30
0.0
 10
159.1439376454956
 20
124.4179244972783
 30
0.0
 10
159.1640083301286
 20
124.2145851705572
 30
0.0
 10
159.2423460127585
 20
123.8224936499496
 30
0.0
 10
159.300295780797
 20
123.6317877816343
 30
0.0
 10
159.454238922677
 20
123.2610639650478
 30
0.0
 10
159.5491775363997
 20
123.084337305239
 30
0.0
 10
159.7695349522768
 20
122.7550841943146
 30
0.0
 10
159.8968149782051
 20
122.5999629707182
 30
0.0
 10
160.1785705695357
 20
122.3182862757878
 30
0.0
 10
160.3313588989932
 20
122.1928530908834
 30
0.0
 10
160.6607859811501
 20
121.9720774975293
 30
0.0
 10
160.8393319843018
 20
121.8762462448291
 30
0.0
 10
161.206904309852
 20
121.723417114334
 30
0.0
 10
161.397058336563
 20
121.6652453563898
 30
0.0
 10
161.7905987592654
 20
121.5862520640449
 30
0.0
 10
161.9930328305266
 20
121.5661889384026
 30
0.0
 10
162.3924619058919
 20
121.5660161922839
 30
0.0
 10
162.5924808844479
 20
121.5854995663732
 30
0.0
 10
162.9885968318972
 20
121.6644911379744
 30
0.0
 10
163.1793296600891
 20
121.7227713578264
 30
0.0
 10
163.5469611006688
 20
121.8753389784344
 30
0.0
 10
163.7254475328366
 20
121.9709477652076
 30
0.0
 10
164.0556527918006
 20
122.1919598102927
 30
0.0
 10
164.2085413698625
 20
122.3174097090628
 30
0.0
 10
164.4901377644006
 20
122.5986401980681
 30
0.0
 10
164.6177686872761
 20
122.7540230759821
 30
0.0
 10
164.8380941222759
 20
123.082873934025
 30
0.0
 10
164.9323205792413
 20
123.257762040439
 30
0.0
 10
165.0872550998444
 20
123.6299058917998
 30
0.0
 10
165.1452673854466
 20
123.8207119336087
 30
0.0
 10
165.2236866397248
 20
124.2115849515275
 30
0.0
 10
165.2440007196913
 20
124.4140425129098
 30
0.0
 10
165.2441318359953
 20
124.8161731178292
 30
0.0
 10
165.2245071426359
 20
125.0148971630043
 30
0.0
 10
165.1463406922223
 20
125.407736634141
 30
0.0
 10
165.0870532468824
 20
125.6023809115436
 30
0.0
 10
164.8579724037995
 20
126.1538206649578
 30
0.0
 10
164.6311415529053
 20
126.492160230657
 30
0.0
 10
164.2118028515846
 20
126.9118258933085
 30
0.0
 10
164.0564498558347
 20
127.0396718990817
 30
0.0
 10
163.7254820226975
 20
127.2612729737835
 30
0.0
 10
163.5509207225011
 20
127.3549137077604
 30
0.0
 10
163.1833474149263
 20
127.5080678284597
 30
0.0
 10
162.9886605532882
 20
127.5675715741058
 30
0.0
 10
162.5961846033518
 20
127.6460943231687
 30
0.0
 10
162.3967450869157
 20
127.6661022801055
 30
0.0
 10
161.9913877930201
 20
127.6661022801055
 30
0.0
  0
SPLINE
  5
12C
330
1F
100
AcDbEntity
  8
0
  6
HIDDEN
 62
     7
370
     0
100
AcDbSpline
210
0.0
220
0.0
230
1.0
 70
     8
 71
     3
 72
    10
 73
     6
 74
     0
 42
0.00000001
 43
0.00000001
 12
1.0
 22
0.0
 32
0.0
 13
1.0
 23
0.0
 33
0.0
 40
0.0
 40
0.0
 40
0.0
 40
0.0
 40
0.5
 40
0.5
 40
1.0
 40
1.0
 40
1.0
 40
1.0
 10
209.3926652782781
 20
121.1006511066746
 30
0.0
 10
209.3712260847855
 20
121.6865239781138
 30
0.0
 10
209.3447044928589
 20
122.2723590085023
 30
0.0
 10
209.3052768743543
 20
123.4441304441135
 30
0.0
 10
209.2927648557734
 20
124.0300697829269
 30
0.0
 10
209.2927648557734
 20
124.6161022801055
 30
0.0
  0
LINE
  5
12D
330
1F
100
AcDbEntity
  8
0
  6
HIDDEN
 62
     7
370
     0
100
AcDbLine
 10
209.2927641023
 20
150.1161018033
 30
0.0
 11
209.2927641023
 21
124.6161022801
 31
0.0
  0
ELLIPSE
  5
12E
330
1F
100
AcDbEntity
  8
0
  6
HIDDEN
 62
     7
370
     0
100
AcDbEllipse
 10
231.7752039084
 20
124.6161022801
 30
0.0
 11
-2.533808296603552
 21
25.49887794140218
 31
0.0
210
0.0
220
0.0
230
1.0
 40
0.0944092018
 41
1.505033846044726
 42
1.561415215916406
  0
ELLIPSE
  5
12F
330
1F
100
AcDbEntity
  8
0
  6
HIDDEN
 62
     7
370
     0
100
AcDbEllipse
 10
231.0160845141
 20
124.6161022801
 30
0.0
 11
-18.14503636023579
 21
25.49727658496127
 31
0.0
210
0.0
220
0.0
230
1.0
 40
0.0205386817
 41
6.268570076028024
 42
7.782985032950612
  0
LINE
  5
130
330
1F
100
AcDbEntity
  8
0
  6
HIDDEN
 62
     7
370
     0
100
AcDbLine
 10
167.1940668274
 20
131.8661020715
 30
0.0
 11
167.1940668274
 21
117.3661024887
 31
0.0
  0
LINE
  5
131
330
1F
100
AcDbEntity
  8
0
  6
HIDDEN
 62
     7
370
     0
100
AcDbLine
 10
166.1940666635
 20
116.3661023248
 30
0.0
 11
166.1940666635
 21
132.8504550848
 31
0.0
  0
LINE
  5
132
330
1F
100
AcDbEntity
  8
0
  6
HIDDEN
 62
     7
370
     0
100
AcDbLine
 10
200.1940666486
 20
117.3661024887
 30
0.0
 11
200.1940666486
 21
131.8661020715
 31
0.0
  0
LINE
  5
133
330
1F
100
AcDbEntity
  8
0
  6
HIDDEN
 62
     7
370
     0
100
AcDbLine
 10
229.2065678884
 20
126.0530656083
 30
0.0
 11
232.2796567131
 21
122.9968123017
 31
0.0
  0
SPLINE
  5
134
330
1F
100
AcDbEntity
  8
0
  6
HIDDEN
 62
     7
370
     0
100
AcDbSpline
210
0.0
220
0.0
230
1.0
 70
     8
 71
     3
 72
     8
 73
     4
 74
     0
 42
0.00000001
 43
0.00000001
 12
1.0
 22
0.0
 32
0.0
 13
1.0
 23
0.0
 33
0.0
 40
0.0
 40
0.0
 40
0.0
 40
0.0
 40
1.0
 40
1.0
 40
1.0
 40
1.0
 10
211.0971345489783
 20
105.1145465790793
 30
0.0
 10
210.2366141284421
 20
110.4011441686753
 30
0.0
 10
209.5896178265398
 20
115.7184917904823
 30
0.0
 10
209.3926652782781
 20
121.1006511066746
 30
0.0
  0
SPLINE
  5
135
330
1F
100
AcDbEntity
  8
0
  6
HIDDEN
 62
     7
370
     0
100
AcDbSpline
210
0.0
220
0.0
230
1.0
 70
     8
 71
     3
 72
    18
 73
    14
 74
     0
 42
0.00000001
 43
0.00000001
 12
1.0
 22
0.0
 32
0.0
 13
1.0
 23
0.0
 33
0.0
 40
0.0
 40
0.0
 40
0.0
 40
0.0
 40
0.0942212804078583
 40
0.1884423220207581
 40
0.2854023380495079
 40
0.3823620364769419
 40
0.4765368383474388
 40
0.5707114455856738
 40
0.6676436260280482
 40
0.7645756318607789
 40
0.8459867769392545
 40
0.9273978973068974
 40
1.0
 40
1.0
 40
1.0
 40
1.0
 10
211.0971345354136
 20
105.1145465690745
 30
0.0
 10
211.0892991624385
 20
104.4193586134494
 30
0.0
 10
211.0736284363462
 20
103.0289844640876
 30
0.0
 10
211.0524194271797
 20
101.1220030211132
 30
0.0
 10
211.0330522970777
 20
99.36497648177524
 30
0.0
 10
211.0160116356613
 20
97.8036629042624
 30
0.0
 10
211.001436659412
 20
96.45817569328703
 30
0.0
 10
210.9891811402071
 20
95.31875933954238
 30
0.0
 10
210.9792515759598
 20
94.39016313495596
 30
0.0
 10
210.9721310956597
 20
93.7203933210168
 30
0.0
 10
210.967563368093
 20
93.28978172496824
 30
0.0
 10
210.9649854325647
 20
93.04670591762931
 30
0.0
 10
210.9647841665729
 20
93.02752833687923
 30
0.0
 10
210.9646892894324
 20
93.0184879917754
 30
0.0
  0
CIRCLE
  5
136
330
1F
100
AcDbEntity
  8
0
  6
HIDDEN
 62
     7
370
     0
100
AcDbCircle
 10
224.8087781663
 20
108.5306608951
 30
0.0
 40
3.47752585815753
  0
CIRCLE
  5
137
330
1F
100
AcDbEntity
  8
0
  6
HIDDEN
 62
     7
370
     0
100
AcDbCircle
 10
224.3823645683
 20
108.9547572487
 30
0.0
 40
3.477524305436283
  0
ARC
  5
138
330
1F
100
AcDbEntity
  8
0
  6
HIDDEN
 62
     7
370
     0
100
AcDbCircle
 10
221.1981792679
 20
101.5342118777
 30
0.0
 40
2.348815404908413
100
AcDbArc
 50
85.3497106623
 51
233.222810418
  0
ELLIPSE
  5
139
330
1F
100
AcDbEntity
  8
0
  6
HIDDEN
 62
     7
370
     0
100
AcDbEllipse
 10
219.9033250335
 20
125.2507171353
 30
0.0
 11
-3.362422533298429
 21
33.52901099696719
 31
0.0
210
0.0
220
0.0
230
1.0
 40
0.0928940858
 41
3.019029211628877
 42
3.122312449060421
  0
ELLIPSE
  5
13A
330
1F
100
AcDbEntity
  8
0
  6
HIDDEN
 62
     7
370
     0
100
AcDbEllipse
 10
223.4308800708
 20
124.8799561608
 30
0.0
 11
284.2611860869352
 21
-26.74718941836166
 31
0.0
210
0.0
220
0.0
230
1.0
 40
0.1150714178
 41
4.721206952813485
 42
4.722978959334268
  0
ELLIPSE
  5
13B
330
1F
100
AcDbEntity
  8
0
  6
HIDDEN
 62
     7
370
     0
100
AcDbEllipse
 10
220.4132776962
 20
125.1971189507
 30
0.0
 11
-3.3624225332984
 21
33.52901099696722
 31
0.0
210
0.0
220
0.0
230
1.0
 40
0.0928940858
 41
2.928698116431173
 42
3.017257205108089
  0
ELLIPSE
  5
13C
330
1F
100
AcDbEntity
  8
0
  6
HIDDEN
 62
     7
370
     0
100
AcDbEllipse
 10
197.9663390464
 20
127.5563872715
 30
0.0
 11
284.2611860869353
 21
-26.74718941836166
 31
0.0
210
0.0
220
0.0
230
1.0
 40
0.1150714178
 41
4.811538048011192
 42
4.849566778247966
  0
SPLINE
  5
13D
330
1F
100
AcDbEntity
  8
0
  6
HIDDEN
 62
     7
370
     0
100
AcDbSpline
210
0.0
220
0.0
230
1.0
 70
     8
 71
     3
 72
    25
 73
    21
 74
     0
 42
0.00000001
 43
0.00000001
 12
1.0
 22
0.0
 32
0.0
 13
1.0
 23
0.0
 33
0.0
 40
0.0
 40
0.0
 40
0.0
 40
0.0
 40
0.02607205793884
 40
0.0516782268742786
 40
0.0768185296208975
 40
0.1014929903258188
 40
0.1257016345704479
 40
0.1895960224737114
 40
0.2512459169023198
 40
0.314833947687313
 40
0.3766100739207497
 40
0.5017436566000074
 40
0.6266520255653498
 40
0.6895323789981453
 40
0.7513468312373449
 40
0.8140252759122006
 40
0.8757949454319043
 40
0.9175435818609422
 40
0.9589449861940974
 40
1.0
 40
1.0
 40
1.0
 40
1.0
 10
230.9990064140796
 20
103.0227755247688
 30
0.0
 10
231.0241831487471
 20
102.876409787012
 30
0.0
 10
231.0740867278644
 20
102.5862937624095
 30
0.0
 10
231.1483995240284
 20
102.1624658902563
 30
0.0
 10
231.2214332667149
 20
101.7517150300326
 30
0.0
 10
231.2931765519037
 20
101.3543441072275
 30
0.0
 10
231.4025361613749
 20
100.7575241196099
 30
0.0
 10
231.5478323367298
 20
99.98595386561999
 30
0.0
 10
231.7311929737686
 20
99.05097536404162
 30
0.0
 10
231.9120509994188
 20
98.16687131764394
 30
0.0
 10
232.1533240973699
 20
97.0389865620291
 30
0.0
 10
232.4512015438155
 20
95.74259780368313
 30
0.0
 10
232.7447766828356
 20
94.59595501904768
 30
0.0
 10
232.9744840600604
 20
93.77900754678971
 30
0.0
 10
233.1444673978589
 20
93.21537089615889
 30
0.0
 10
233.310686999731
 20
92.70551897139826
 30
0.0
 10
233.456327817138
 20
92.29621163494713
 30
0.0
 10
233.581135104009
 20
91.97368738803326
 30
0.0
 10
233.6866716323686
 20
91.71911283776441
 30
0.0
 10
233.7553578198539
 20
91.56996926284977
 30
0.0
 10
233.7895566419606
 20
91.49571074343584
 30
0.0
  0
LINE
  5
13E
330
1F
100
AcDbEntity
  8
0
  6
HIDDEN
 62
     7
370
     0
100
AcDbLine
 10
211.0971345354
 20
105.1145465691
 30
0.0
 11
230.9990062166
 21
103.0227755774
 31
0.0
  0
LINE
  5
13F
330
1F
100
AcDbEntity
  8
0
  6
HIDDEN
 62
     7
370
     0
100
AcDbLine
 10
233.5874124218
 20
102.9420578498
 30
0.0
 11
234.0786962558
 21
102.4534655381
 31
0.0
  0
LINE
  5
140
330
1F
100
AcDbEntity
  8
0
  6
HIDDEN
 62
     7
370
     0
100
AcDbLine
 10
222.4263346542
 20
99.3859180827
 30
0.0
 11
222.2288197626
 21
99.4010297228
 31
0.0
  0
LINE
  5
141
330
1F
100
AcDbEntity
  8
0
  6
HIDDEN
 62
     7
370
     0
100
AcDbLine
 10
222.4263346542
 20
99.3859180827
 30
0.0
 11
222.7336487521
 21
99.080287816
 31
0.0
  0
LINE
  5
142
330
1F
100
AcDbEntity
  8
0
  6
HIDDEN
 62
     7
370
     0
100
AcDbLine
 10
222.7336487521
 20
99.080287816
 30
0.0
 11
222.2536935259
 21
99.1170061398
 31
0.0
  0
ELLIPSE
  5
143
330
1F
100
AcDbEntity
  8
0
  6
HIDDEN
 62
     7
370
     0
100
AcDbEllipse
 10
225.9232112753
 20
104.1339727209
 30
0.0
 11
-0.9406553105117724
 21
2.766158975077403
 31
0.0
210
0.0
220
0.0
230
1.0
 40
0.8539059128
 41
1.511530864617649
 42
1.597220060046383
  0
ELLIPSE
  5
144
330
1F
100
AcDbEntity
  8
0
  6
HIDDEN
 62
     7
370
     0
100
AcDbEllipse
 10
226.3845607607
 20
103.1364307623
 30
0.0
 11
2.968392757696108
 21
-0.4881156426729661
 31
0.0
210
0.0
220
0.0
230
1.0
 40
0.1367129703
 41
3.416618328448609
 42
4.004570546515258
  0
ELLIPSE
  5
145
330
1F
100
AcDbEntity
  8
0
  6
HIDDEN
 62
     7
370
     0
100
AcDbEllipse
 10
226.8554135379
 20
102.1183405367
 30
0.0
 11
-0.9406553105117723
 21
2.766158975077417
 31
0.0
210
0.0
220
0.0
230
1.0
 40
0.8539059128
 41
0.7350371165246458
 42
0.9235786465509571
  0
ELLIPSE
  5
146
330
1F
100
AcDbEntity
  8
0
  6
HIDDEN
 62
     7
370
     0
100
AcDbEllipse
 10
226.8554135379
 20
102.1183405367
 30
0.0
 11
-0.9406553105117723
 21
2.766158975077417
 31
0.0
210
0.0
220
0.0
230
1.0
 40
0.8539059128
 41
4.738812713636199
 42
4.847837731742123
  0
SPLINE
  5
147
330
1F
100
AcDbEntity
  8
0
  6
HIDDEN
 62
     7
370
     0
100
AcDbSpline
210
0.0
220
0.0
230
1.0
 70
     8
 71
     3
 72
    22
 73
    18
 74
     0
 42
0.00000001
 43
0.00000001
 12
1.0
 22
0.0
 32
0.0
 13
1.0
 23
0.0
 33
0.0
 40
0.0
 40
0.0
 40
0.0
 40
0.0
 40
0.1249999999999996
 40
0.1249999999999996
 40
0.2499999999999995
 40
0.2499999999999995
 40
0.4999999999999998
 40
0.4999999999999998
 40
0.6249999999999996
 40
0.6249999999999996
 40
0.7499999999999993
 40
0.7499999999999993
 40
0.8749999999999989
 40
0.8749999999999989
 40
0.9374999999999994
 40
0.9374999999999994
 40
1.0
 40
1.0
 40
1.0
 40
1.0
 10
227.1913009973797
 20
107.3198540039602
 30
0.0
 10
227.2206392876868
 20
107.2906764318772
 30
0.0
 10
227.2410771963502
 20
107.2479047866625
 30
0.0
 10
227.2678892074401
 20
107.1423894529328
 30
0.0
 10
227.2741720362829
 20
107.0793713515404
 30
0.0
 10
227.2727093150839
 20
106.8691695684221
 30
0.0
 10
227.246042504842
 20
106.7011807562194
 30
0.0
 10
227.1547170207801
 20
106.4182258641438
 30
0.0
 10
227.1155269621799
 20
106.3185662845345
 30
0.0
 10
227.0120673322291
 20
106.1077995219772
 30
0.0
 10
226.9479363585878
 20
105.9966621014992
 30
0.0
 10
226.7809620686121
 20
105.7643197470015
 30
0.0
 10
226.678374019436
 20
105.6423074063445
 30
0.0
 10
226.4706898467489
 20
105.4537500185493
 30
0.0
 10
226.3911988508993
 20
105.3890089581238
 30
0.0
 10
226.2037544937345
 20
105.2595573285338
 30
0.0
 10
226.0964088701828
 20
105.1953558945137
 30
0.0
 10
225.9725998659806
 20
105.1358773590034
 30
0.0
  0
SPLINE
  5
148
330
1F
100
AcDbEntity
  8
0
  6
HIDDEN
 62
     7
370
     0
100
AcDbSpline
210
0.0
220
0.0
230
1.0
 70
     8
 71
     3
 72
     8
 73
     4
 74
     0
 42
0.00000001
 43
0.00000001
 12
1.0
 22
0.0
 32
0.0
 13
1.0
 23
0.0
 33
0.0
 40
0.0
 40
0.0
 40
0.0
 40
0.0
 40
1.0
 40
1.0
 40
1.0
 40
1.0
 10
225.9725998659805
 20
105.1358773590034
 30
0.0
 10
225.8302027475798
 20
105.090997887041
 30
0.0
 10
225.6895624338557
 20
105.0383069798487
 30
0.0
 10
225.5507057488155
 20
104.9776853674824
 30
0.0
  0
SPLINE
  5
149
330
1F
100
AcDbEntity
  8
0
  6
HIDDEN
 62
     7
370
     0
100
AcDbSpline
210
0.0
220
0.0
230
1.0
 70
     8
 71
     3
 72
    22
 73
    18
 74
     0
 42
0.00000001
 43
0.00000001
 12
1.0
 22
0.0
 32
0.0
 13
1.0
 23
0.0
 33
0.0
 40
0.0
 40
0.0
 40
0.0
 40
0.0
 40
0.0625000000000003
 40
0.0625000000000003
 40
0.1250000000000006
 40
0.1250000000000006
 40
0.1875000000000008
 40
0.1875000000000008
 40
0.2500000000000011
 40
0.2500000000000011
 40
0.3750000000000014
 40
0.3750000000000014
 40
0.5000000000000017
 40
0.5000000000000017
 40
0.7500000000000009
 40
0.7500000000000009
 40
1.0
 40
1.0
 40
1.0
 40
1.0
 10
225.5507057488155
 20
104.9776853674825
 30
0.0
 10
225.4136253347209
 20
104.9394075947133
 30
0.0
 10
225.2850637003144
 20
104.9148078033188
 30
0.0
 10
225.0384113006017
 20
104.8819739114279
 30
0.0
 10
224.9257918545254
 20
104.874509518027
 30
0.0
 10
224.7137417283629
 20
104.8695827225869
 30
0.0
 10
224.613855927693
 20
104.8723274933466
 30
0.0
 10
224.4274146494074
 20
104.8841714605047
 30
0.0
 10
224.3402949975576
 20
104.8932697376211
 30
0.0
 10
224.0919156210379
 20
104.9267753816556
 30
0.0
 10
223.943403772924
 20
104.9572699619664
 30
0.0
 10
223.6685493440503
 20
105.0262649448911
 30
0.0
 10
223.5424947271901
 20
105.0649686337479
 30
0.0
 10
223.1968905405564
 20
105.1850095430694
 30
0.0
 10
223.0060691726562
 20
105.270916633041
 30
0.0
 10
222.6972987411846
 20
105.4324468359898
 30
0.0
 10
222.5780173103488
 20
105.5086699303542
 30
0.0
 10
222.5185765659387
 20
105.5677850521468
 30
0.0
  0
ELLIPSE
  5
14A
330
1F
100
AcDbEntity
  8
0
  6
HIDDEN
 62
     7
370
     0
100
AcDbEllipse
 10
226.1046188704
 20
103.7417284605
 30
0.0
 11
2.968392757696108
 21
-0.4881156426729661
 31
0.0
210
0.0
220
0.0
230
1.0
 40
0.1367129703
 41
4.193112076541517
 42
6.363496768503651
  0
ELLIPSE
  5
14B
330
1F
100
AcDbEntity
  8
0
  6
HIDDEN
 62
     7
370
     0
100
AcDbEllipse
 10
223.6297748223
 20
109.6619880544
 30
0.0
 11
3.518690774465625
 21
2.323872478491197
 31
0.0
210
0.0
220
0.0
230
1.0
 40
0.89827004
 41
3.825400951845954
 42
5.100524793084364
  0
LINE
  5
14C
330
1F
100
AcDbEntity
  8
0
  6
HIDDEN
 62
     7
370
     0
100
AcDbLine
 10
222.2209370483
 20
105.8637937177
 30
0.0
 11
222.5185765673
 21
105.5677858759
 31
0.0
  0
LINE
  5
14D
330
1F
100
AcDbEntity
  8
0
  6
HIDDEN
 62
     7
370
     0
100
AcDbLine
 10
227.1913013209
 20
107.3198532332
 30
0.0
 11
226.8936618019
 21
107.6158629377
 31
0.0
  0
ELLIPSE
  5
14E
330
1F
100
AcDbEntity
  8
0
  6
HIDDEN
 62
     7
370
     0
100
AcDbEllipse
 10
221.8591644651
 20
111.4228988228
 30
0.0
 11
-3.010891765567124
 21
2.994397785440654
 31
0.0
210
0.0
220
0.0
230
1.0
 40
0.9890738004
 41
0.0
 42
6.283185307179586
  0
ARC
  5
14F
330
1F
100
AcDbEntity
  8
0
  6
HIDDEN
 62
     7
370
     0
100
AcDbCircle
 10
224.2956186016
 20
108.9666301442
 30
0.0
 40
4.181737362666756
100
AcDbArc
 50
293.6422546173
 51
287.4657329754
  0
ARC
  5
150
330
1F
100
AcDbEntity
  8
0
  6
HIDDEN
 62
     7
370
     0
100
AcDbCircle
 10
221.1800410917
 20
101.2834995265
 30
0.0
 40
2.102452590254443
100
AcDbArc
 50
85.4926475057
 51
224.5752022036
  0
LINE
  5
151
330
1F
100
AcDbEntity
  8
0
  6
HIDDEN
 62
     7
370
     0
100
AcDbLine
 10
221.3452665855
 20
103.3794497717
 30
0.0
 11
221.4064172257
 21
103.3747726698
 31
0.0
  0
LINE
  5
152
330
1F
100
AcDbEntity
  8
0
  6
HIDDEN
 62
     7
370
     0
100
AcDbLine
 10
221.8840292443
 20
103.3382331599
 30
0.0
 11
224.4038752068
 21
103.1454587001
 31
0.0
  0
LINE
  5
153
330
1F
100
AcDbEntity
  8
0
  6
HIDDEN
 62
     7
370
     0
100
AcDbLine
 10
224.5736106087
 20
103.6316351611
 30
0.0
 11
221.3886066128
 21
103.8752952237
 31
0.0
  0
ARC
  5
154
330
1F
100
AcDbEntity
  8
0
  6
HIDDEN
 62
     7
370
     0
100
AcDbCircle
 10
220.8709690453
 20
101.5920493033
 30
0.0
 40
2.099681196793437
100
AcDbArc
 50
85.4385644239
 51
233.9659432318
  0
LINE
  5
155
330
1F
100
AcDbEntity
  8
0
  6
HIDDEN
 62
     7
370
     0
100
AcDbLine
 10
223.3634798575
 20
91.8882051129
 30
0.0
 11
222.7336487521
 21
99.080287816
 31
0.0
  0
LINE
  5
156
330
1F
100
AcDbEntity
  8
0
  6
HIDDEN
 62
     7
370
     0
100
AcDbLine
 10
222.2306377042
 20
99.1187700648
 30
0.0
 11
222.8597386528
 21
91.9350357372
 31
0.0
  0
LINE
  5
157
330
1F
100
AcDbEntity
  8
0
  6
HIDDEN
 62
     7
370
     0
100
AcDbLine
 10
229.27267689
 20
102.7729855497
 30
0.0
 11
229.1917747606
 21
102.9943758268
 31
0.0
  0
LINE
  5
158
330
1F
100
AcDbEntity
  8
0
  6
HIDDEN
 62
     7
370
     0
100
AcDbLine
 10
229.27267689
 20
102.7729855497
 30
0.0
 11
233.6314192761
 21
102.4395310897
 31
0.0
  0
LINE
  5
159
330
1F
100
AcDbEntity
  8
0
  6
HIDDEN
 62
     7
370
     0
100
AcDbLine
 10
233.5874124218
 20
102.9420578498
 30
0.0
 11
229.0687992025
 21
103.2877424378
 31
0.0
  0
LINE
  5
15A
330
1F
100
AcDbEntity
  8
0
  6
HIDDEN
 62
     7
370
     0
100
AcDbLine
 10
233.6314192761
 20
102.4395310897
 30
0.0
 11
233.5874124218
 21
102.9420578498
 31
0.0
  0
LINE
  5
15B
330
1F
100
AcDbEntity
  8
0
  6
HIDDEN
 62
     7
370
     0
100
AcDbLine
 10
228.9653665174
 20
103.0786158163
 30
0.0
 11
229.27267689
 21
102.7729855497
 31
0.0
  0
LINE
  5
15C
330
1F
100
AcDbEntity
  8
0
  6
HIDDEN
 62
     7
370
     0
100
AcDbLine
 10
228.9653665174
 20
103.0786158163
 30
0.0
 11
230.0699411679
 21
100.0559487958
 31
0.0
  0
LINE
  5
15D
330
1F
100
AcDbEntity
  8
0
  6
HIDDEN
 62
     7
370
     0
100
AcDbLine
 10
229.776742195
 20
100.3475440312
 30
0.0
 11
230.0699411679
 21
100.0559487958
 31
0.0
  0
LINE
  5
15E
330
1F
100
AcDbEntity
  8
0
  6
HIDDEN
 62
     7
370
     0
100
AcDbLine
 10
227.94039387
 20
104.3181391079
 30
0.0
 11
226.8936618019
 21
107.6158629377
 31
0.0
  0
LINE
  5
15F
330
1F
100
AcDbEntity
  8
0
  6
HIDDEN
 62
     7
370
     0
100
AcDbLine
 10
233.3241051782
 20
102.7451613564
 30
0.0
 11
233.6314192761
 21
102.4395310897
 31
0.0
  0
LINE
  5
160
330
1F
100
AcDbEntity
  8
0
  6
HIDDEN
 62
     7
370
     0
100
AcDbLine
 10
147.6940664251
 20
112.5665297378
 30
0.0
 11
147.6940664251
 21
107.7567515541
 31
0.0
  0
LINE
  5
161
330
1F
100
AcDbEntity
  8
0
  6
HIDDEN
 62
     7
370
     0
100
AcDbLine
 10
146.1940671105
 20
112.9995425809
 30
0.0
 11
146.1940671105
 21
108.6227772404
 31
0.0
  0
LINE
  5
162
330
1F
100
AcDbEntity
  8
0
  6
HIDDEN
 62
     7
370
     0
100
AcDbLine
 10
173.9940664519
 20
112.236156093
 30
0.0
 11
173.9940664519
 21
107.0960042644
 31
0.0
  0
LINE
  5
163
330
1F
100
AcDbEntity
  8
0
  6
HIDDEN
 62
     7
370
     0
100
AcDbLine
 10
147.6940664251
 20
141.4754530061
 30
0.0
 11
147.6940664251
 21
136.6656748224
 31
0.0
  0
LINE
  5
164
330
1F
100
AcDbEntity
  8
0
  6
HIDDEN
 62
     7
370
     0
100
AcDbLine
 10
146.1940671105
 20
140.6094273198
 30
0.0
 11
146.1940671105
 21
136.2326619793
 31
0.0
  0
LINE
  5
165
330
1F
100
AcDbEntity
  8
0
  6
HIDDEN
 62
     7
370
     0
100
AcDbLine
 10
173.9940664519
 20
142.1362002958
 30
0.0
 11
173.9940664519
 21
136.9960484672
 31
0.0
  0
SPLINE
  5
166
330
1F
100
AcDbEntity
  8
0
  6
HIDDEN
 62
     7
370
     0
100
AcDbSpline
210
0.0
220
0.0
230
1.0
 70
     8
 71
     3
 72
    18
 73
    14
 74
     0
 42
0.00000001
 43
0.00000001
 12
1.0
 22
0.0
 32
0.0
 13
1.0
 23
0.0
 33
0.0
 40
0.0
 40
0.0
 40
0.0
 40
0.0
 40
0.2500000000000003
 40
0.2500000000000003
 40
0.3750000000000005
 40
0.3750000000000005
 40
0.5000000000000007
 40
0.5000000000000007
 40
0.6250000000000002
 40
0.6250000000000002
 40
0.7499999999999999
 40
0.7499999999999999
 40
1.0
 40
1.0
 40
1.0
 40
1.0
 10
174.8727460964083
 20
111.5210555565731
 30
0.0
 10
174.7374604901059
 20
110.9368539628415
 30
0.0
 10
174.636292743863
 20
110.4026362756332
 30
0.0
 10
174.5334314009941
 20
109.6767395047448
 30
0.0
 10
174.5073285554708
 20
109.4468590169649
 30
0.0
 10
174.4724385719259
 20
109.0162880721781
 30
0.0
 10
174.463852313636
 20
108.8185931666839
 30
0.0
 10
174.4637526040703
 20
108.4572451240061
 30
0.0
 10
174.4722409752189
 20
108.29359511406
 30
0.0
 10
174.5063843547395
 20
108.000383841091
 30
0.0
 10
174.5321813365933
 20
107.8703877749752
 30
0.0
 10
174.6355824679812
 20
107.5363318824133
 30
0.0
 10
174.7374404601526
 20
107.3905557180485
 30
0.0
 10
174.8727460964083
 20
107.3191924121006
 30
0.0
  0
SPLINE
  5
167
330
1F
100
AcDbEntity
  8
0
  6
HIDDEN
 62
     7
370
     0
100
AcDbSpline
210
0.0
220
0.0
230
1.0
 70
     8
 71
     3
 72
    18
 73
    14
 74
     0
 42
0.00000001
 43
0.00000001
 12
1.0
 22
0.0
 32
0.0
 13
1.0
 23
0.0
 33
0.0
 40
0.0
 40
0.0
 40
0.0
 40
0.0
 40
0.25
 40
0.25
 40
0.3749999999999999
 40
0.3749999999999999
 40
0.4999999999999999
 40
0.4999999999999999
 40
0.6249999999999998
 40
0.6249999999999998
 40
0.7499999999999998
 40
0.7499999999999998
 40
1.0
 40
1.0
 40
1.0
 40
1.0
 10
174.8727460964083
 20
141.9130121481103
 30
0.0
 10
174.7374604901059
 20
141.8416594064207
 30
0.0
 10
174.636292743863
 20
141.6962559998313
 30
0.0
 10
174.5334314009941
 20
141.3667887642257
 30
0.0
 10
174.5073285554708
 20
141.237855187421
 30
0.0
 10
174.4724385719259
 20
140.9423131880849
 30
0.0
 10
174.463852313636
 20
140.7779184145629
 30
0.0
 10
174.4637526040703
 20
140.4169567998223
 30
0.0
 10
174.4722409752189
 20
140.2203870076601
 30
0.0
 10
174.5063843547395
 20
139.7950322115351
 30
0.0
 10
174.5321813365933
 20
139.5652625617355
 30
0.0
 10
174.6355824679812
 20
138.8326738673031
 30
0.0
 10
174.7374404601526
 20
138.2954370923855
 30
0.0
 10
174.8727460964083
 20
137.7111490036378
 30
0.0
  0
LINE
  5
168
330
1F
100
AcDbEntity
  8
0
  6
HIDDEN
 62
     7
370
     0
100
AcDbLine
 10
225.3972164143
 20
98.3038795758
 30
0.0
 11
223.5868482638
 21
103.2579382528
 31
0.0
  0
ARC
  5
169
330
1F
100
AcDbEntity
  8
0
  6
HIDDEN
 62
     7
370
     0
100
AcDbCircle
 10
228.42832823
 20
97.3270348225
 30
0.0
 40
3.184629415075165
100
AcDbArc
 50
162.1372830281
 51
58.970452241
  0
LINE
  5
16A
330
1F
100
AcDbEntity
  8
0
  6
HIDDEN
 62
     7
370
     0
100
AcDbLine
 10
233.7895578493
 20
91.4957122523
 30
0.0
 11
234.2666036237
 21
91.9827343542
 31
0.0
  0
LINE
  5
16B
330
1F
100
AcDbEntity
  8
0
  6
HIDDEN
 62
     7
370
     0
100
AcDbLine
 10
233.3241051782
 20
102.7451613564
 30
0.0
 11
228.9653665174
 21
103.0786158163
 31
0.0
  0
LINE
  5
16C
330
1F
100
AcDbEntity
  8
0
  6
HIDDEN
 62
     7
370
     0
100
AcDbLine
 10
222.4263346542
 20
99.3859180827
 30
0.0
 11
223.0416930069
 21
92.3590818066
 31
0.0
  0
LINE
  5
16D
330
1F
100
AcDbEntity
  8
0
  6
HIDDEN
 62
     7
370
     0
100
AcDbLine
 10
223.5096043695
 20
103.4959936161
 30
0.0
 11
221.0379524876
 21
103.6850800384
 31
0.0
  0
LINE
  5
16E
330
1F
100
AcDbEntity
  8
0
  6
HIDDEN
 62
     7
370
     0
100
AcDbLine
 10
233.3241051782
 20
102.7451613564
 30
0.0
 11
234.2666036237
 21
91.9827343542
 31
0.0
  0
SPLINE
  5
16F
330
1F
100
AcDbEntity
  8
0
  6
HIDDEN
 62
     7
370
     0
100
AcDbSpline
210
0.0
220
0.0
230
1.0
 70
     8
 71
     3
 72
    10
 73
     6
 74
     0
 42
0.00000001
 43
0.00000001
 12
1.0
 22
0.0
 32
0.0
 13
1.0
 23
0.0
 33
0.0
 40
0.0
 40
0.0
 40
0.0
 40
0.0
 40
0.5
 40
0.5
 40
1.0
 40
1.0
 40
1.0
 40
1.0
 10
224.9851798671289
 20
99.30277613025363
 30
0.0
 10
224.9763322721898
 20
99.14222234730698
 30
0.0
 10
224.9832860160745
 20
98.99541107023259
 30
0.0
 10
225.0227193461957
 20
98.7474411065689
 30
0.0
 10
225.0547091063298
 20
98.64451239169068
 30
0.0
 10
225.1040172301016
 20
98.59547438298009
 30
0.0
  0
ARC
  5
170
330
1F
100
AcDbEntity
  8
0
  6
HIDDEN
 62
     7
370
     0
100
AcDbCircle
 10
227.7949835205
 20
97.872724242
 30
0.0
 40
3.152783380135158
100
AcDbArc
 50
153.0261221663
 51
266.6528566359
  0
ARC
  5
171
330
1F
100
AcDbEntity
  8
0
  6
HIDDEN
 62
     7
370
     0
100
AcDbCircle
 10
227.7877072598
 20
97.9427130602
 30
0.0
 40
3.222452553873245
100
AcDbArc
 50
292.1341608503
 51
359.6301601813
  0
ARC
  5
172
330
1F
100
AcDbEntity
  8
0
  6
HIDDEN
 62
     7
370
     0
100
AcDbCircle
 10
227.8696176816
 20
97.9447386697
 30
0.0
 40
3.14015912362769
100
AcDbArc
 50
3.5099769007
 51
67.2261502227
  0
SPLINE
  5
173
330
1F
100
AcDbEntity
  8
0
  6
HIDDEN
 62
     7
370
     0
100
AcDbSpline
210
0.0
220
0.0
230
1.0
 70
     8
 71
     3
 72
    10
 73
     6
 74
     0
 42
0.00000001
 43
0.00000001
 12
1.0
 22
0.0
 32
0.0
 13
1.0
 23
0.0
 33
0.0
 40
0.0
 40
0.0
 40
0.0
 40
0.0
 40
0.5
 40
0.5
 40
1.0
 40
1.0
 40
1.0
 40
1.0
 10
229.7767416615393
 20
100.3475433347947
 30
0.0
 10
229.727345619028
 20
100.3966687806167
 30
0.0
 10
229.631053492787
 20
100.4743289861284
 30
0.0
 10
229.3924829481344
 20
100.6477132407097
 30
0.0
 10
229.248760641569
 20
100.7440001986683
 30
0.0
 10
229.0851576519192
 20
100.8400899362058
 30
0.0
  0
LINE
  5
174
330
1F
100
AcDbEntity
  8
0
  6
HIDDEN
 62
     7
370
     0
100
AcDbLine
 10
225.3972164143
 20
98.3038795758
 30
0.0
 11
225.1040174414
 21
98.5954748113
 31
0.0
  0
SPLINE
  5
175
330
1F
100
AcDbEntity
  8
0
  6
HIDDEN
 62
     7
370
     0
100
AcDbSpline
210
0.0
220
0.0
230
1.0
 70
     8
 71
     3
 72
    25
 73
    21
 74
     0
 42
0.00000001
 43
0.00000001
 12
1.0
 22
0.0
 32
0.0
 13
1.0
 23
0.0
 33
0.0
 40
0.0
 40
0.0
 40
0.0
 40
0.0
 40
0.0248271903519318
 40
0.0496513947389167
 40
0.0744795078283941
 40
0.0993184210329273
 40
0.1241750167821876
 40
0.1863484649690217
 40
0.2486020171236904
 40
0.3109047544600528
 40
0.3732868817245715
 40
0.4981944564834115
 40
0.6233358602419914
 40
0.6859840986966489
 40
0.7487154410889036
 40
0.8114588558590013
 40
0.874279373219032
 40
0.9161567532568726
 40
0.9580533754225388
 40
1.0
 40
1.0
 40
1.0
 40
1.0
 10
234.2666030685021
 20
91.98273401625649
 30
0.0
 10
234.2454624329347
 20
92.0277646526614
 30
0.0
 10
234.2031837043831
 20
92.11782050963883
 30
0.0
 10
234.1389605919944
 20
92.26401627116962
 30
0.0
 10
234.0741620220815
 20
92.41831811839778
 30
0.0
 10
234.0087287546887
 20
92.58152692277842
 30
0.0
 10
233.9096490716427
 20
92.8393816939607
 30
0.0
 10
233.7754666284879
 20
93.21354058938712
 30
0.0
 10
233.6044417187062
 20
93.73430066206157
 30
0.0
 10
233.430331937379
 20
94.30737578319071
 30
0.0
 10
233.1944223631579
 20
95.14020908870619
 30
0.0
 10
232.8932947374945
 20
96.30728458211826
 30
0.0
 10
232.5863327404561
 20
97.63269093213428
 30
0.0
 10
232.3383883164571
 20
98.78288539001198
 30
0.0
 10
232.1514482470745
 20
99.68959843720283
 30
0.0
 10
231.963914614319
 20
100.6384933413801
 30
0.0
 10
231.7970400859955
 20
101.5175901361249
 30
0.0
 10
231.6510859548498
 20
102.3121755636561
 30
0.0
 10
231.5260659768165
 20
103.0089977186943
 30
0.0
 10
231.4429347788261
 20
103.4870472022383
 30
0.0
 10
231.4013443909508
 20
103.7262144935182
 30
0.0
  0
LWPOLYLINE
  5
176
330
1F
100
AcDbEntity
  8
0
  6
HIDDEN
 62
     7
370
     0
100
AcDbPolyline
 90
       15
 70
   128
 43
0.0
 10
227.94039387
 20
104.3181391079
 10
228.0114761342
 20
103.8876929898
 10
227.9618366409
 20
103.4349025805
 10
227.7939638842
 20
102.9824735243
 10
227.5162844707
 20
102.5530928392
 10
227.1427123595
 20
102.1682889778
 10
226.691985761
 20
101.8473626692
 10
226.1867060114
 20
101.6064015795
 10
225.65220881
 20
101.4574905504
 10
225.1152938951
 20
101.4080950637
 10
224.6028876651
 20
101.4606943
 10
224.1406834472
 20
101.6126507539
 10
223.7518562723
 20
101.8563424815
 10
223.4559043099
 20
102.179552393
 10
223.2676691164
 20
102.566069888
  0
ELLIPSE
  5
177
330
1F
100
AcDbEntity
  8
0
  6
HIDDEN
 62
     7
370
     0
100
AcDbEllipse
 10
226.5541485087
 20
101.3877406375
 30
0.0
 11
-0.940655310511744
 21
2.766158975077417
 31
0.0
210
0.0
220
0.0
230
1.0
 40
0.8539059128
 41
2.097543009497982
 42
4.238489764184723
  0
LINE
  5
178
330
1F
100
AcDbEntity
  8
0
  6
HIDDEN
 62
     7
370
     0
100
AcDbLine
 10
222.2209370483
 20
105.8637937177
 30
0.0
 11
223.2676691164
 21
102.566069888
 31
0.0
  0
LINE
  5
179
330
1F
100
AcDbEntity
  8
0
  6
HIDDEN
 62
     7
370
     0
100
AcDbLine
 10
146.1940671105
 20
136.2326619793
 30
0.0
 11
146.1940671105
 21
126.955273293
 31
0.0
  0
LINE
  5
17A
330
1F
100
AcDbEntity
  8
0
  6
HIDDEN
 62
     7
370
     0
100
AcDbLine
 10
146.1940671105
 20
122.2769312672
 30
0.0
 11
146.1940671105
 21
112.9995425809
 31
0.0
  0
LINE
  5
17B
330
1F
100
AcDbEntity
  8
0
  6
HIDDEN
 62
     7
370
     0
100
AcDbLine
 10
147.6940664251
 20
121.4676252212
 30
0.0
 11
147.6940664251
 21
112.5665297378
 31
0.0
  0
LINE
  5
17C
330
1F
100
AcDbEntity
  8
0
  6
HIDDEN
 62
     7
370
     0
100
AcDbLine
 10
147.6940664251
 20
136.6656748224
 30
0.0
 11
147.6940664251
 21
127.764579339
 31
0.0
  0
LINE
  5
17D
330
1F
100
AcDbEntity
  8
0
  6
HIDDEN
 62
     7
370
     0
100
AcDbLine
 10
173.9940664519
 20
136.9960484672
 30
0.0
 11
173.9940664519
 21
112.236156093
 31
0.0
  0
LINE
  5
17E
330
1F
100
AcDbEntity
  8
0
  6
HIDDEN
 62
     7
370
     0
100
AcDbLine
 10
175.994066445
 20
136.1783761177
 30
0.0
 11
175.994066445
 21
113.0538284425
 31
0.0
  0
SPLINE
  5
17F
330
1F
100
AcDbEntity
  8
0
  6
HIDDEN
 62
     7
370
     0
100
AcDbSpline
210
0.0
220
0.0
230
1.0
 70
     8
 71
     3
 72
     8
 73
     4
 74
     0
 42
0.00000001
 43
0.00000001
 12
1.0
 22
0.0
 32
0.0
 13
1.0
 23
0.0
 33
0.0
 40
0.0000202085968836
 40
0.0000202085968836
 40
0.0000202085968836
 40
0.0000202085968836
 40
0.0040218806502652
 40
0.0040218806502652
 40
0.0040218806502652
 40
0.0040218806502652
 10
147.6940664399679
 20
121.4676251617688
 30
0.0
 10
149.0273895657586
 20
121.4436269306051
 30
0.0
 10
150.3607234389811
 20
121.4202991904368
 30
0.0
 10
151.6940664399679
 20
121.3976045196564
 30
0.0
  0
SPLINE
  5
180
330
1F
100
AcDbEntity
  8
0
  6
HIDDEN
 62
     7
370
     0
100
AcDbSpline
210
0.0
220
0.0
230
1.0
 70
     8
 71
     3
 72
     8
 73
     4
 74
     0
 42
0.00000001
 43
0.00000001
 12
1.0
 22
0.0
 32
0.0
 13
1.0
 23
0.0
 33
0.0
 40
0.0000202082942178
 40
0.0000202082942178
 40
0.0000202082942178
 40
0.0000202082942178
 40
0.0040218803475994
 40
0.0040218803475994
 40
0.0040218803475994
 40
0.0040218803475994
 10
151.6940664399679
 20
127.8346000405545
 30
0.0
 10
150.3607234389812
 20
127.8119053697742
 30
0.0
 10
149.0273895657586
 20
127.7885776296058
 30
0.0
 10
147.6940664399679
 20
127.7645793984422
 30
0.0
  0
SPLINE
  5
181
330
1F
100
AcDbEntity
  8
0
  6
HIDDEN
 62
     7
370
     0
100
AcDbSpline
210
0.0
220
0.0
230
1.0
 70
     8
 71
     3
 72
     8
 73
     4
 74
     0
 42
0.00000001
 43
0.00000001
 12
1.0
 22
0.0
 32
0.0
 13
1.0
 23
0.0
 33
0.0
 40
0.0
 40
0.0
 40
0.0
 40
0.0
 40
1.0
 40
1.0
 40
1.0
 40
1.0
 10
146.194066439967
 20
122.2769313518711
 30
0.0
 10
146.668277850405
 20
121.942202124576
 30
0.0
 10
147.1730141975069
 20
121.683143710743
 30
0.0
 10
147.6940664399679
 20
121.4676251617688
 30
0.0
  0
SPLINE
  5
182
330
1F
100
AcDbEntity
  8
0
  6
HIDDEN
 62
     7
370
     0
100
AcDbSpline
210
0.0
220
0.0
230
1.0
 70
     8
 71
     3
 72
     8
 73
     4
 74
     0
 42
0.00000001
 43
0.00000001
 12
1.0
 22
0.0
 32
0.0
 13
1.0
 23
0.0
 33
0.0
 40
0.0
 40
0.0
 40
0.0
 40
0.0
 40
1.0
 40
1.0
 40
1.0
 40
1.0
 10
147.6940664399679
 20
127.7645793984422
 30
0.0
 10
147.1730141975072
 20
127.549060849468
 30
0.0
 10
146.6682778504056
 20
127.2900024356353
 30
0.0
 10
146.194066439968
 20
126.9552732083405
 30
0.0
  0
LINE
  5
183
330
1F
100
AcDbEntity
  8
0
  6
HIDDEN
 62
     7
370
     0
100
AcDbLine
 10
146.1940671105
 20
122.2769312672
 30
0.0
 11
146.1940671105
 21
126.955273293
 31
0.0
  0
LINE
  5
184
330
1F
100
AcDbEntity
  8
0
  6
HIDDEN
 62
     7
370
     0
100
AcDbLine
 10
151.6940670807
 20
121.397604432
 30
0.0
 11
151.6940670807
 21
127.8346001282
 31
0.0
  0
SPLINE
  5
185
330
1F
100
AcDbEntity
  8
0
  6
HIDDEN
 62
     7
370
     0
100
AcDbSpline
210
0.0
220
0.0
230
1.0
 70
     8
 71
     3
 72
    26
 73
    22
 74
     0
 42
0.00000001
 43
0.00000001
 12
1.0
 22
0.0
 32
0.0
 13
1.0
 23
0.0
 33
0.0
 40
0.0
 40
0.0
 40
0.0
 40
0.0
 40
0.1250000000000001
 40
0.1250000000000001
 40
0.2500000000000002
 40
0.2500000000000002
 40
0.3750000000000002
 40
0.3750000000000002
 40
0.4375000000000003
 40
0.4375000000000003
 40
0.5000000000000003
 40
0.5000000000000003
 40
0.5625000000000003
 40
0.5625000000000003
 40
0.6250000000000004
 40
0.6250000000000004
 40
0.7500000000000003
 40
0.7500000000000003
 40
0.8750000000000002
 40
0.8750000000000002
 40
1.0
 40
1.0
 40
1.0
 40
1.0
 10
151.6940664399679
 20
121.3976045196564
 30
0.0
 10
151.9047098019678
 20
121.6322215506015
 30
0.0
 10
152.1119062397249
 20
121.8701046865609
 30
0.0
 10
152.5134053743572
 20
122.3574189928298
 30
0.0
 10
152.7086817934033
 20
122.6075442176188
 30
0.0
 10
153.0684622860987
 20
123.1261343630697
 30
0.0
 10
153.233721146248
 20
123.3935653469566
 30
0.0
 10
153.4263790556742
 20
123.8249804793551
 30
0.0
 10
153.4813437958842
 20
123.9749993612795
 30
0.0
 10
153.5590795808484
 20
124.2877365400095
 30
0.0
 10
153.5803457191567
 20
124.4454907868167
 30
0.0
 10
153.5822396484425
 20
124.7641960666625
 30
0.0
 10
153.5620139113754
 20
124.926632866843
 30
0.0
 10
153.4875495010896
 20
125.2375848664257
 30
0.0
 10
153.4339103753436
 20
125.3882561047534
 30
0.0
 10
153.239166069943
 20
125.830339862722
 30
0.0
 10
153.0721159567647
 20
126.1003838758897
 30
0.0
 10
152.7118598380611
 20
126.6204915041711
 30
0.0
 10
152.5171074630407
 20
126.8701527169807
 30
0.0
 10
152.1140982385684
 20
127.3595768288235
 30
0.0
 10
151.9056617202049
 20
127.5989227519875
 30
0.0
 10
151.6940664399689
 20
127.8346000405554
 30
0.0
  0
SPLINE
  5
186
330
1F
100
AcDbEntity
  8
0
  6
HIDDEN
 62
     7
370
     0
100
AcDbSpline
210
0.0
220
0.0
230
1.0
 70
     8
 71
     3
 72
    68
 73
    64
 74
     0
 42
0.00000001
 43
0.00000001
 12
1.0
 22
0.0
 32
0.0
 13
1.0
 23
0.0
 33
0.0
 40
-0.03125
 40
-0.03125
 40
0.0
 40
0.0
 40
0.03125
 40
0.03125
 40
0.0625
 40
0.0625
 40
0.0937500000000002
 40
0.0937500000000002
 40
0.1250000000000004
 40
0.1250000000000004
 40
0.1875000000000005
 40
0.1875000000000005
 40
0.2187500000000005
 40
0.2187500000000005
 40
0.2500000000000005
 40
0.2500000000000005
 40
0.2812500000000005
 40
0.2812500000000005
 40
0.3125000000000004
 40
0.3125000000000004
 40
0.3437500000000004
 40
0.3437500000000004
 40
0.3750000000000004
 40
0.3750000000000004
 40
0.4062500000000004
 40
0.4062500000000004
 40
0.4375000000000004
 40
0.4375000000000004
 40
0.4687500000000003
 40
0.4687500000000003
 40
0.5000000000000003
 40
0.5000000000000003
 40
0.5312500000000003
 40
0.5312500000000003
 40
0.5625000000000003
 40
0.5625000000000003
 40
0.5937500000000002
 40
0.5937500000000002
 40
0.6250000000000002
 40
0.6250000000000002
 40
0.6562500000000002
 40
0.6562500000000002
 40
0.6875000000000002
 40
0.6875000000000002
 40
0.7187500000000002
 40
0.7187500000000002
 40
0.7500000000000001
 40
0.7500000000000001
 40
0.7812500000000001
 40
0.7812500000000001
 40
0.8125000000000001
 40
0.8125000000000001
 40
0.8437500000000001
 40
0.8437500000000001
 40
0.8750000000000001
 40
0.8750000000000001
 40
0.9062500000000001
 40
0.9062500000000001
 40
0.9375
 40
0.9375
 40
0.96875
 40
0.96875
 40
1.0
 40
1.0
 40
1.03125
 40
1.03125
 10
159.5778927273044
 20
126.5129198567221
 30
0.0
 10
159.8683572095962
 20
126.8313520977226
 30
0.0
 10
160.0272735079778
 20
126.9738696234263
 30
0.0
 10
160.3708541936156
 20
127.227584160516
 30
0.0
 10
160.5570255465212
 20
127.3391479870249
 30
0.0
 10
160.941555619107
 20
127.523397023694
 30
0.0
 10
161.1411661212717
 20
127.5973112897828
 30
0.0
 10
161.5550057062452
 20
127.7089531793429
 30
0.0
 10
161.7678155159165
 20
127.7458772336318
 30
0.0
 10
162.4037469902572
 20
127.7984790542073
 30
0.0
 10
162.8388132108849
 20
127.7562706635471
 30
0.0
 10
163.4510560778726
 20
127.5824360583517
 30
0.0
 10
163.6509011659846
 20
127.5058178305396
 30
0.0
 10
164.0352784747128
 20
127.3156429621967
 30
0.0
 10
164.2158268655753
 20
127.2042835279781
 30
0.0
 10
164.5538867932848
 20
126.9491782592558
 30
0.0
 10
164.7129186096961
 20
126.8036724710631
 30
0.0
 10
164.9977152899185
 20
126.4854338168902
 30
0.0
 10
165.1226608187934
 20
126.3143814983711
 30
0.0
 10
165.3369629592071
 20
125.947820912258
 30
0.0
 10
165.4268617383819
 20
125.7497521784553
 30
0.0
 10
165.5605140275108
 20
125.3451694252459
 30
0.0
 10
165.6055219628249
 20
125.1375542452288
 30
0.0
 10
165.6503014434422
 20
124.7112644888
 30
0.0
 10
165.6492277824264
 20
124.4946261908516
 30
0.0
 10
165.6012079887109
 20
124.0716661638943
 30
0.0
 10
165.5537950114861
 20
123.8606694786349
 30
0.0
 10
165.4154797626694
 20
123.4548807632031
 30
0.0
 10
165.3257989044473
 20
123.2619341045406
 30
0.0
 10
165.10711619412
 20
122.8950274815571
 30
0.0
 10
164.9776684762914
 20
122.7215223333351
 30
0.0
 10
164.6911628722619
 20
122.4075202353444
 30
0.0
 10
164.5323040540239
 20
122.2644173088901
 30
0.0
 10
164.187306232071
 20
122.0090863930371
 30
0.0
 10
164.0050891279507
 20
121.8995542154366
 30
0.0
 10
163.6222490513117
 20
121.7146273886484
 30
0.0
 10
163.4195048262385
 20
121.6388115618069
 30
0.0
 10
163.0076762517752
 20
121.5262310695648
 30
0.0
 10
162.7984574751756
 20
121.4888908499801
 30
0.0
 10
162.3734646409412
 20
121.45165983045
 30
0.0
 10
162.156307363868
 20
121.4522257943816
 30
0.0
 10
161.7319295247148
 20
121.491623498271
 30
0.0
 10
161.5228128768651
 20
121.5300527329052
 30
0.0
 10
161.1108718879712
 20
121.6452577674426
 30
0.0
 10
160.9083037830781
 20
121.7225226979471
 30
0.0
 10
160.5267033406107
 20
121.910204968079
 30
0.0
 10
160.3453924047316
 20
122.021118319891
 30
0.0
 10
160.0028005077975
 20
122.2790717586218
 30
0.0
 10
159.8439768908433
 20
122.4247874542312
 30
0.0
 10
159.560932111743
 20
122.7411086119407
 30
0.0
 10
159.4349221797571
 20
122.9131423233398
 30
0.0
 10
159.2178151359422
 20
123.2856849013288
 30
0.0
 10
159.1303798396684
 20
123.4798066866029
 30
0.0
 10
158.9971865591208
 20
123.8835814156824
 30
0.0
 10
158.9512859770162
 20
124.09607834229
 30
0.0
 10
158.9069694360823
 20
124.5216742031481
 30
0.0
 10
158.9078116235647
 20
124.7345080414173
 30
0.0
 10
158.9556503179858
 20
125.1602477712472
 30
0.0
 10
159.0031861734549
 20
125.3720099366604
 30
0.0
 10
159.1399247686828
 20
125.7754994711177
 30
0.0
 10
159.2302083139585
 20
125.9712580920707
 30
0.0
 10
159.4499192062235
 20
126.3408583188189
 30
0.0
 10
159.5778927273044
 20
126.5129198567221
 30
0.0
 10
159.8683572095962
 20
126.8313520977226
 30
0.0
  0
CIRCLE
  5
187
330
1F
100
AcDbEntity
  8
0
  6
HIDDEN
 62
     7
370
     0
100
AcDbCircle
 10
162.19406644
 20
124.6161022801
 30
0.0
 40
3.049999999999997
  0
CIRCLE
  5
188
330
1F
100
AcDbEntity
  8
0
  6
HIDDEN
 62
     7
370
     0
100
AcDbCircle
 10
188.19406644
 20
124.6161022801
 30
0.0
 40
2.000000000000014
  0
SPLINE
  5
189
330
1F
100
AcDbEntity
  8
0
  6
HIDDEN
 62
     7
370
     0
100
AcDbSpline
210
0.0
220
0.0
230
1.0
 70
     8
 71
     3
 72
     9
 73
     5
 74
     0
 42
0.00000001
 43
0.00000001
 12
1.0
 22
0.0
 32
0.0
 13
1.0
 23
0.0
 33
0.0
 40
0.0
 40
0.0
 40
0.0
 40
0.0
 40
0.4976160783107095
 40
1.0
 40
1.0
 40
1.0
 40
1.0
 10
231.4013432020959
 20
103.7262151644433
 30
0.0
 10
231.3351001033191
 20
103.6092524528482
 30
0.0
 10
231.2019792061774
 20
103.3742063667326
 30
0.0
 10
231.0668775863933
 20
103.140293142522
 30
0.0
 10
230.9990047048196
 20
103.0227788996081
 30
0.0
  0
LINE
  5
18A
330
1F
100
AcDbEntity
  8
0
  6
HIDDEN
 62
     7
370
     0
100
AcDbLine
 10
231.4013450194
 20
103.7262146939
 30
0.0
 11
229.3442099143
 21
124.6161022801
 31
0.0
  0
LINE
  5
18B
330
1F
100
AcDbEntity
  8
0
  6
HIDDEN
 62
     7
370
     0
100
AcDbLine
 10
197.1940661568
 20
111.0001438875
 30
0.0
 11
197.1940661568
 21
114.7034261022
 31
0.0
  0
LINE
  5
18C
330
1F
100
AcDbEntity
  8
0
  6
HIDDEN
 62
     7
370
     0
100
AcDbLine
 10
191.1940661047
 20
114.8125994597
 30
0.0
 11
191.1940661047
 21
111.0025681201
 31
0.0
  0
LINE
  5
18D
330
1F
100
AcDbEntity
  8
0
  6
HIDDEN
 62
     7
370
     0
100
AcDbLine
 10
176.19406644
 20
105.066102894
 30
0.0
 11
176.2869596604
 21
105.1589948703
 31
0.0
  0
LINE
  5
18E
330
1F
100
AcDbEntity
  8
0
  6
HIDDEN
 62
     7
370
     0
100
AcDbLine
 10
176.2869596604
 20
144.0732096899
 30
0.0
 11
176.19406644
 21
144.1661016662
 31
0.0
  0
ARC
  5
18F
330
1F
100
AcDbEntity
  8
0
  6
HIDDEN
 62
     7
370
     0
100
AcDbCircle
 10
175.5798528776
 20
105.8661022801
 30
0.0
 40
1.000000000000028
100
AcDbArc
 50
315.0
 51
0.0
  0
ARC
  5
190
330
1F
100
AcDbEntity
  8
0
  6
HIDDEN
 62
     7
370
     0
100
AcDbCircle
 10
175.5798528776
 20
105.8661022801
 30
0.0
 40
1.000000000000028
100
AcDbArc
 50
0.0
 51
52.1052014664
  0
ARC
  5
191
330
1F
100
AcDbEntity
  8
0
  6
HIDDEN
 62
     7
370
     0
100
AcDbCircle
 10
175.5798528776
 20
143.3661022801
 30
0.0
 40
1.000000000000008
100
AcDbArc
 50
351.8087250651
 51
45.0
  0
ARC
  5
192
330
1F
100
AcDbEntity
  8
0
  6
HIDDEN
 62
     7
370
     0
100
AcDbCircle
 10
175.5798528776
 20
143.3661022801
 30
0.0
 40
1.000000000000016
100
AcDbArc
 50
307.8947985336
 51
351.8087250651
  0
LINE
  5
193
330
1F
100
AcDbEntity
  8
0
  6
HIDDEN
 62
     7
370
     0
100
AcDbLine
 10
176.5798528758
 20
105.866101535
 30
0.0
 11
176.5798528758
 21
143.3661030252
 31
0.0
  0
LINE
  5
194
330
1F
100
AcDbEntity
  8
0
  6
HIDDEN
 62
     7
370
     0
100
AcDbLine
 10
176.5798528758
 20
105.866101535
 30
0.0
 11
176.5798528758
 21
143.3661030252
 31
0.0
  0
LINE
  5
195
330
1F
100
AcDbEntity
  8
0
  6
HIDDEN
 62
     7
370
     0
100
AcDbLine
 10
196.6940670062
 20
116.8012823556
 30
0.0
 11
196.6940670062
 21
120.6724773739
 31
0.0
  0
LINE
  5
196
330
1F
100
AcDbEntity
  8
0
  6
HIDDEN
 62
     7
370
     0
100
AcDbLine
 10
191.6940661866
 20
120.6720475685
 30
0.0
 11
191.6940661866
 21
114.9762253855
 31
0.0
  0
LINE
  5
197
330
1F
100
AcDbEntity
  8
0
  6
HIDDEN
 62
     7
370
     0
100
AcDbLine
 10
193.8025544185
 20
113.0474479515
 30
0.0
 11
201.6068494667
 21
108.055262791
 31
0.0
  0
LINE
  5
198
330
1F
100
AcDbEntity
  8
0
  6
HIDDEN
 62
     7
370
     0
100
AcDbLine
 10
201.5662587036
 20
114.0166716296
 30
0.0
 11
196.4216756422
 21
117.3075134512
 31
0.0
  0
LINE
  5
199
330
1F
100
AcDbEntity
  8
0
  6
HIDDEN
 62
     7
370
     0
100
AcDbLine
 10
192.7090829958
 20
114.0102203582
 30
0.0
 11
192.7078685511
 21
113.9945219848
 31
0.0
  0
LINE
  5
19A
330
1F
100
AcDbEntity
  8
0
  6
HIDDEN
 62
     7
370
     0
100
AcDbLine
 10
152.6940672446
 20
112.6161021758
 30
0.0
 11
153.7007859696
 21
112.6161021758
 31
0.0
  0
LINE
  5
19B
330
1F
100
AcDbEntity
  8
0
  6
HIDDEN
 62
     7
370
     0
100
AcDbLine
 10
153.7007859696
 20
136.6161023844
 30
0.0
 11
152.6940672446
 21
136.6161023844
 31
0.0
  0
ARC
  5
19C
330
1F
100
AcDbEntity
  8
0
  6
HIDDEN
 62
     7
370
     0
100
AcDbCircle
 10
153.700785952
 20
114.1161022801
 30
0.0
 40
1.500000000000012
100
AcDbArc
 50
270.0
 51
315.0
  0
ARC
  5
19D
330
1F
100
AcDbEntity
  8
0
  6
HIDDEN
 62
     7
370
     0
100
AcDbCircle
 10
153.700785952
 20
135.1161022801
 30
0.0
 40
1.5
100
AcDbArc
 50
45.0
 51
90.0
  0
ARC
  5
19E
330
1F
100
AcDbEntity
  8
0
  6
HIDDEN
 62
     7
370
     0
100
AcDbCircle
 10
152.69406644
 20
114.1161022801
 30
0.0
 40
1.500000000000023
100
AcDbArc
 50
191.0958032831
 51
270.0
  0
ARC
  5
19F
330
1F
100
AcDbEntity
  8
0
  6
HIDDEN
 62
     7
370
     0
100
AcDbCircle
 10
152.69406644
 20
135.1161022801
 30
0.0
 40
1.500000000000026
100
AcDbArc
 50
90.0
 51
168.9041967169
  0
LINE
  5
1A0
330
1F
100
AcDbEntity
  8
0
  6
HIDDEN
 62
     7
370
     0
100
AcDbLine
 10
146.1940671105
 20
112.8526897747
 30
0.0
 11
147.2221056719
 21
113.4462291021
 31
0.0
  0
LINE
  5
1A1
330
1F
100
AcDbEntity
  8
0
  6
HIDDEN
 62
     7
370
     0
100
AcDbLine
 10
147.2221056719
 20
135.7859754581
 30
0.0
 11
146.1940671105
 21
136.3795147855
 31
0.0
  0
LINE
  5
1A2
330
1F
100
AcDbEntity
  8
0
  6
HIDDEN
 62
     7
370
     0
100
AcDbLine
 10
154.7614468981
 20
113.0554424245
 30
0.0
 11
155.8221059639
 21
114.1161024217
 31
0.0
  0
LINE
  5
1A3
330
1F
100
AcDbEntity
  8
0
  6
HIDDEN
 62
     7
370
     0
100
AcDbLine
 10
155.8221059639
 20
135.1161021385
 30
0.0
 11
154.7614468981
 21
136.1767621357
 31
0.0
  0
LINE
  5
1A4
330
1F
100
AcDbEntity
  8
0
  6
HIDDEN
 62
     7
370
     0
100
AcDbLine
 10
147.2221056719
 20
113.4462291021
 30
0.0
 11
149.722107013
 21
114.1161024217
 31
0.0
  0
LINE
  5
1A5
330
1F
100
AcDbEntity
  8
0
  6
HIDDEN
 62
     7
370
     0
100
AcDbLine
 10
149.722107013
 20
135.1161021385
 30
0.0
 11
147.2221056719
 21
135.7859754581
 31
0.0
  0
LINE
  5
1A6
330
1F
100
AcDbEntity
  8
0
  6
HIDDEN
 62
     7
370
     0
100
AcDbLine
 10
151.2221063275
 20
135.4047776777
 30
0.0
 11
150.7221071769
 21
135.1161021385
 31
0.0
  0
LINE
  5
1A7
330
1F
100
AcDbEntity
  8
0
  6
HIDDEN
 62
     7
370
     0
100
AcDbLine
 10
150.7221071769
 20
114.1161024217
 30
0.0
 11
151.2221063275
 21
113.8274268825
 31
0.0
  0
LINE
  5
1A8
330
1F
100
AcDbEntity
  8
0
  6
HIDDEN
 62
     7
370
     0
100
AcDbLine
 10
149.722107013
 20
114.1161024217
 30
0.0
 11
150.7221071769
 21
114.1161024217
 31
0.0
  0
LINE
  5
1A9
330
1F
100
AcDbEntity
  8
0
  6
HIDDEN
 62
     7
370
     0
100
AcDbLine
 10
150.7221071769
 20
135.1161021385
 30
0.0
 11
149.722107013
 21
135.1161021385
 31
0.0
  0
ARC
  5
1AA
330
1F
100
AcDbEntity
  8
0
  6
HIDDEN
 62
     7
370
     0
100
AcDbCircle
 10
165.69406644
 20
114.6161022801
 30
0.0
 40
0.5
100
AcDbArc
 50
270.0
 51
0.0
  0
ARC
  5
1AB
330
1F
100
AcDbEntity
  8
0
  6
HIDDEN
 62
     7
370
     0
100
AcDbCircle
 10
165.69406644
 20
134.6161022801
 30
0.0
 40
0.5
100
AcDbArc
 50
0.0
 51
90.0
  0
LINE
  5
1AC
330
1F
100
AcDbEntity
  8
0
  6
HIDDEN
 62
     7
370
     0
100
AcDbLine
 10
155.8221059639
 20
114.1161024217
 30
0.0
 11
165.6940665815
 21
114.1161024217
 31
0.0
  0
LINE
  5
1AD
330
1F
100
AcDbEntity
  8
0
  6
HIDDEN
 62
     7
370
     0
100
AcDbLine
 10
165.6940665815
 20
135.1161021385
 30
0.0
 11
155.8221059639
 21
135.1161021385
 31
0.0
  0
LINE
  5
1AE
330
1F
100
AcDbEntity
  8
0
  6
HIDDEN
 62
     7
370
     0
100
AcDbLine
 10
166.1940666635
 20
116.3661023248
 30
0.0
 11
167.1940668274
 21
117.3661024887
 31
0.0
  0
LINE
  5
1AF
330
1F
100
AcDbEntity
  8
0
  6
HIDDEN
 62
     7
370
     0
100
AcDbLine
 10
167.1940668274
 20
131.8661020715
 30
0.0
 11
166.1940666635
 21
132.8661022354
 31
0.0
  0
LINE
  5
1B0
330
1F
100
AcDbEntity
  8
0
  6
HIDDEN
 62
     7
370
     0
100
AcDbLine
 10
200.1940666486
 20
131.8661020715
 30
0.0
 11
167.1940668274
 21
131.8661020715
 31
0.0
  0
LINE
  5
1B1
330
1F
100
AcDbEntity
  8
0
  6
HIDDEN
 62
     7
370
     0
100
AcDbLine
 10
167.1940668274
 20
117.3661024887
 30
0.0
 11
200.1940666486
 21
117.3661024887
 31
0.0
  0
LINE
  5
1B2
330
1F
100
AcDbEntity
  8
0
  6
HIDDEN
 62
     7
370
     0
100
AcDbLine
 10
200.1940666486
 20
117.3661024887
 30
0.0
 11
204.5503056396
 21
124.6161022801
 31
0.0
  0
LINE
  5
1B3
330
1F
100
AcDbEntity
  8
0
  6
HIDDEN
 62
     7
370
     0
100
AcDbLine
 10
204.5503056396
 20
124.6161022801
 30
0.0
 11
200.1940666486
 21
131.8661020715
 31
0.0
  0
LINE
  5
1B4
330
1F
100
AcDbEntity
  8
0
  6
HIDDEN
 62
     7
370
     0
100
AcDbLine
 10
221.911000346
 20
106.4351396281
 30
0.0
 11
222.3374119748
 21
106.0110618938
 31
0.0
  0
LINE
  5
1B5
330
1F
100
AcDbEntity
  8
0
  6
HIDDEN
 62
     7
370
     0
100
AcDbLine
 10
227.2735482801
 20
110.9743853677
 30
0.0
 11
226.8471329261
 21
111.3984621707
 31
0.0
  0
LINE
  5
1B6
330
1F
100
AcDbEntity
  8
0
  6
HIDDEN
 62
     7
370
     0
100
AcDbLine
 10
219.5277794052
 20
99.8785653729
 30
0.0
 11
220.0190632392
 21
99.3899730612
 31
0.0
  0
LINE
  5
1B7
330
1F
100
AcDbEntity
  8
0
  6
HIDDEN
 62
     7
370
     0
100
AcDbLine
 10
229.0838791777
 20
103.2555764187
 30
0.0
 11
227.2382288028
 21
107.2462899257
 31
0.0
  0
LINE
  5
1B8
330
1F
100
AcDbEntity
  8
0
  6
HIDDEN
 62
     7
370
     0
100
AcDbLine
 10
218.8974826385
 20
108.4449039418
 30
0.0
 11
221.3734223295
 21
105.9825298954
 31
0.0
  0
LINE
  5
1B9
330
1F
100
AcDbEntity
  8
0
  6
HIDDEN
 62
     7
370
     0
100
AcDbLine
 10
227.2967829157
 20
111.9385184366
 30
0.0
 11
224.8208432246
 21
114.4008934144
 31
0.0
  0
LINE
  5
1BA
330
1F
100
AcDbEntity
  8
0
  6
HIDDEN
 62
     7
370
     0
100
AcDbLine
 10
219.3750872065
 20
100.1135343332
 30
0.0
 11
219.6824013043
 21
99.8079040665
 31
0.0
  0
LINE
  5
1BB
330
1F
100
AcDbEntity
  8
0
  6
HIDDEN
 62
     7
370
     0
100
AcDbLine
 10
230.6695415426
 20
99.5895741154
 30
0.0
 11
230.0841829527
 21
100.1717270929
 31
0.0
  0
LINE
  5
1BC
330
1F
100
AcDbEntity
  8
0
  6
HIDDEN
 62
     7
370
     0
100
AcDbLine
 10
225.5711427678
 20
95.6338317711
 30
0.0
 11
226.1565050829
 21
95.0516787935
 31
0.0
  0
LINE
  5
1BD
330
1F
100
AcDbEntity
  8
0
  6
HIDDEN
 62
     7
370
     0
100
AcDbLine
 10
223.3349553097
 20
102.3926874269
 30
0.0
 11
225.0555253376
 21
98.6724206824
 31
0.0
  0
LINE
  5
1BE
330
1F
100
AcDbEntity
  8
0
  6
HIDDEN
 62
     7
370
     0
100
AcDbLine
 10
175.994066445
 20
112.8464834411
 30
0.0
 11
175.994066445
 21
113.0538284425
 31
0.0
  0
LINE
  5
1BF
330
1F
100
AcDbEntity
  8
VERMASSUNG
  6
CENTERX2
100
AcDbLine
 10
236.19406644
 20
89.6161022801
 30
0.0
 11
251.45048589
 21
89.6161022801
 31
0.0
  0
LINE
  5
1C0
330
1F
100
AcDbEntity
  8
VERMASSUNG
  6
CENTERX2
100
AcDbLine
 10
236.19406644
 20
89.6161022801
 30
0.0
 11
236.19406644
 21
124.6161022801
 31
0.0
  0
LINE
  5
1C1
330
1F
100
AcDbEntity
  8
VERMASSUNG
  6
CENTERX2
100
AcDbLine
 10
144.1295505021
 20
124.6161022801
 30
0.0
 11
236.19406644
 21
124.6161022801
 31
0.0
  0
DIMENSION
  5
1C2
330
1F
100
AcDbEntity
  8
VERMASSUNG
100
AcDbDimension
  2
_D
 10
255.5060169619
 20
124.6161022801
 30
0.0
 11
255.5060169619
 21
107.1161022801
 31
0.0
 70
   160
  1
<>
 71
     2
 42
-1.0
  3
SLDDIMSTYLE0
100
AcDbAlignedDimension
 13
236.19406644
 23
89.6161022801
 33
0.0
 14
236.19406644
 24
124.6161022801
 34
0.0
 50
90.0
100
AcDbRotatedDimension
  0
DIMENSION
  5
1CF
330
1F
100
AcDbEntity
  8
VERMASSUNG
100
AcDbDimension
  2
_D_1
 10
176.19406644
 20
81.7529017166
 30
0.0
 11
206.19406644
 21
81.7529017166
 31
0.0
 70
   160
  1
<>
 71
     2
 42
-1.0
  3
SLDDIMSTYLE0
100
AcDbAlignedDimension
 13
236.19406644
 23
89.6161022801
 33
0.0
 14
176.19406644
 24
99.9161022801
 34
0.0
100
AcDbRotatedDimension
  0
DIMENSION
  5
1DB
330
1F
100
AcDbEntity
  8
VERMASSUNG
100
AcDbDimension
  2
_D_2
 10
236.19406644
 20
71.8996375819
 30
0.0
 11
191.19406644
 21
71.8996375819
 31
0.0
 70
   160
  1
<>
 71
     2
 42
-1.0
  3
SLDDIMSTYLE1
100
AcDbAlignedDimension
 13
146.19406644
 23
108.6227764419
 33
0.0
 14
236.19406644
 24
89.6161022801
 34
0.0
 50
0.0
100
AcDbRotatedDimension
  0
DIMENSION
  5
1E6
330
1F
100
AcDbEntity
  8
VERMASSUNG
100
AcDbDimension
  2
_D_3
 10
236.1925526575
 20
90.0529602121
 30
0.0
 11
243.8695866785
 21
97.9530637525
 31
0.0
 70
   162
  1
<>
 71
     1
 42
-1.0
  3
SLDDIMSTYLE2
100
AcDb2LineAngularDimension
 13
251.45048589
 23
89.6161022801
 33
0.0
 14
236.19406644
 24
89.6161022801
 34
0.0
 15
235.1451688397
 25
102.01310507
 35
0.0
 16
243.8695866785
 26
97.9530637525
 36
0.0
  0
DIMENSION
  5
1EF
330
1F
100
AcDbEntity
  8
VERMASSUNG
100
AcDbDimension
  2
_D_4
 10
136.19406644
 20
149.6161022801
 30
0.0
 11
136.19406644
 21
124.6161022801
 31
0.0
 70
   160
  1
PSC%%c<>
 71
     2
 42
-1.0
  3
SLDDIMSTYLE1
100
AcDbAlignedDimension
 13
176.49406644
 23
99.6161022801
 33
0.0
 14
176.49406644
 24
149.6161022801
 34
0.0
 50
90.0
100
AcDbRotatedDimension
  0
LINE
  5
1FB
330
1F
100
AcDbEntity
  8
0
  6
Continuous
 62
     7
370
    15
100
AcDbLine
 10
55.6310603992
 20
112.328750046
 30
0.0
 11
55.606235996
 21
112.8024300207
 31
0.0
  0
LINE
  5
1FC
330
1F
100
AcDbEntity
  8
0
  6
Continuous
 62
     7
370
    15
100
AcDbLine
 10
55.6054778994
 20
112.8169064988
 30
0.0
 11
55.6013446898
 21
112.8957653064
 31
0.0
  0
LINE
  5
1FD
330
1F
100
AcDbEntity
  8
0
  6
Continuous
 62
     7
370
    15
100
AcDbLine
 10
65.9984597136
 20
112.1217328701
 30
0.0
 11
65.819540307
 21
111.8982731942
 31
0.0
  0
LINE
  5
1FE
330
1F
100
AcDbEntity
  8
0
  6
Continuous
 62
     7
370
    15
100
AcDbLine
 10
66.5471868255
 20
104.9751797337
 30
0.0
 11
66.7686562651
 21
104.793800937
 31
0.0
  0
LINE
  5
1FF
330
1F
100
AcDbEntity
  8
0
  6
Continuous
 62
     7
370
    15
100
AcDbLine
 10
69.0528551408
 20
89.6161244828
 30
0.0
 11
73.76084641
 21
90.1109547932
 31
0.0
  0
LINE
  5
200
330
1F
100
AcDbEntity
  8
0
  6
Continuous
 62
     7
370
    15
100
AcDbLine
 10
67.7320531235
 20
92.3815006036
 30
0.0
 11
68.1569201537
 21
91.7847314496
 31
0.0
  0
SPLINE
  5
201
330
1F
100
AcDbEntity
  8
0
  6
Continuous
 62
     7
370
    15
100
AcDbSpline
210
0.0
220
0.0
230
1.0
 70
     8
 71
     3
 72
    11
 73
     7
 74
     0
 42
0.00000001
 43
0.00000001
 12
1.0
 22
0.0
 32
0.0
 13
1.0
 23
0.0
 33
0.0
 40
0.0
 40
0.0
 40
0.0
 40
0.0
 40
0.2326493242892448
 40
0.5842908052298889
 40
0.966712761269272
 40
0.9999999999999999
 40
0.9999999999999999
 40
0.9999999999999999
 40
0.9999999999999999
 10
68.16956460392329
 20
91.7859160918845
 30
0.0
 10
68.19127316104124
 20
91.75476281690072
 30
0.0
 10
68.24579345830654
 20
91.67652243437892
 30
0.0
 10
68.26320965772675
 20
91.59193359809065
 30
0.0
 10
68.26599772595468
 20
91.5575042900768
 30
0.0
 10
68.26610144595647
 20
91.56695424791371
 30
0.0
 10
68.26610975116718
 20
91.5677109379424
 30
0.0
  0
SPLINE
  5
202
330
1F
100
AcDbEntity
  8
0
  6
Continuous
 62
     7
370
    15
100
AcDbSpline
210
0.0
220
0.0
230
1.0
 70
     8
 71
     3
 72
    12
 73
     8
 74
     0
 42
0.00000001
 43
0.00000001
 12
1.0
 22
0.0
 32
0.0
 13
1.0
 23
0.0
 33
0.0
 40
0.0
 40
0.0
 40
0.0
 40
0.0
 40
0.1896980038291687
 40
0.4077239430612092
 40
0.593186089330913
 40
0.8083753811672835
 40
0.9999999999999999
 40
0.9999999999999999
 40
0.9999999999999999
 40
0.9999999999999999
 10
67.10895943837467
 20
102.1844306606902
 30
0.0
 10
67.1088127784823
 20
102.1848942695575
 30
0.0
 10
67.10849755771878
 20
102.1858907188169
 30
0.0
 10
67.12431601490434
 20
102.1394974993753
 30
0.0
 10
67.14082690969087
 20
102.0348237240607
 30
0.0
 10
67.14056181581287
 20
101.8835552536555
 30
0.0
 10
67.09574279480026
 20
101.7774799439992
 30
0.0
 10
67.07463135393563
 20
101.7275144923581
 30
0.0
  0
LINE
  5
203
330
1F
100
AcDbEntity
  8
0
  6
Continuous
 62
     7
370
    15
100
AcDbLine
 10
67.0652787798
 20
101.7324579526
 30
0.0
 11
66.7610077784
 21
101.0309690256
 31
0.0
  0
LINE
  5
204
330
1F
100
AcDbEntity
  8
0
  6
Continuous
 62
     7
370
    15
100
AcDbLine
 10
66.5385543966
 20
103.3191242833
 30
0.0
 11
66.2400168498
 21
103.2877480257
 31
0.0
  0
LINE
  5
205
330
1F
100
AcDbEntity
  8
0
  6
Continuous
 62
     7
370
    15
100
AcDbLine
 10
73.7269080841
 20
90.8093088884
 30
0.0
 11
76.4014681467
 21
91.090415569
 31
0.0
  0
LINE
  5
206
330
1F
100
AcDbEntity
  8
0
  6
Continuous
 62
     7
370
    15
100
AcDbLine
 10
76.4118151405
 20
91.0970726628
 30
0.0
 11
76.6740746462
 21
91.4246188123
 31
0.0
  0
LWPOLYLINE
  5
207
330
1F
100
AcDbEntity
  8
0
  6
Continuous
 62
     7
370
    15
100
AcDbPolyline
 90
        5
 70
   128
 43
0.0
 10
55.2949013785
 20
113.3676468972
 10
55.3883940578
 20
113.2236802597
 10
55.521861896
 20
113.0181578565
 10
55.591575116
 20
112.9108098913
 10
55.6013446898
 20
112.8957653064
  0
LWPOLYLINE
  5
208
330
1F
100
AcDbEntity
  8
0
  6
Continuous
 62
     7
370
    15
100
AcDbPolyline
 90
        4
 70
   128
 43
0.0
 10
55.1118415446
 20
113.09871074
 10
55.3078979851
 20
112.7968104202
 10
55.4779239596
 20
112.5349942241
 10
55.5800295101
 20
112.3777646218
  0
SPLINE
  5
209
330
1F
100
AcDbEntity
  8
0
  6
Continuous
 62
     7
370
    15
100
AcDbSpline
210
0.0
220
0.0
230
1.0
 70
     8
 71
     3
 72
    25
 73
    21
 74
     0
 42
0.00000001
 43
0.00000001
 12
1.0
 22
0.0
 32
0.0
 13
1.0
 23
0.0
 33
0.0
 40
0.0
 40
0.0
 40
0.0
 40
0.0
 40
0.0248271903519318
 40
0.0496513947389167
 40
0.0744795078283941
 40
0.0993184210329273
 40
0.1241750167821876
 40
0.1863484649690217
 40
0.2486020171236904
 40
0.3109047544600528
 40
0.3732868817245715
 40
0.4981944564834115
 40
0.6233358602419914
 40
0.6859840986966489
 40
0.7487154410889036
 40
0.8114588558590013
 40
0.874279373219032
 40
0.9161567532568726
 40
0.9580533754225388
 40
1.0
 40
1.0
 40
1.0
 40
1.0
 10
76.6701679197842
 20
91.98273401625649
 30
0.0
 10
76.8454087650995
 20
92.0277646526614
 30
0.0
 10
77.19586937952238
 20
92.11782050963883
 30
0.0
 10
77.71852638102179
 20
92.26401627116962
 30
0.0
 10
78.23884642080007
 20
92.41831811839778
 30
0.0
 10
78.75662363213603
 20
92.58152692277842
 30
0.0
 10
79.52957104508867
 20
92.8393816939607
 30
0.0
 10
80.55059307481918
 20
93.21354058938712
 30
0.0
 10
81.80664285637695
 20
93.73430066206157
 30
0.0
 10
83.04101226905728
 20
94.30737578319071
 30
0.0
 10
84.65531392240226
 20
95.14020908870619
 30
0.0
 10
86.6084649191259
 20
96.30728458211826
 30
0.0
 10
88.45926663716283
 20
97.63269093213428
 30
0.0
 10
89.8719875372201
 20
98.78288539001198
 30
0.0
 10
90.89630675266706
 20
99.68959843720283
 30
0.0
 10
91.8832800781303
 20
100.6384933413801
 30
0.0
 10
92.72564736654168
 20
101.5175901361249
 30
0.0
 10
93.43586595786162
 20
102.3121755636561
 30
0.0
 10
94.02748022399736
 20
103.0089977186943
 30
0.0
 10
94.40568335778372
 20
103.4870472022383
 30
0.0
 10
94.5948977010159
 20
103.7262144935182
 30
0.0
  0
SPLINE
  5
20A
330
1F
100
AcDbEntity
  8
0
  6
Continuous
 62
     7
370
    15
100
AcDbSpline
210
0.0
220
0.0
230
1.0
 70
    24
 71
     3
 72
     9
 73
     5
 74
     0
 42
0.00000001
 43
0.00000001
 12
1.0
 22
0.0
 32
0.0
 13
1.0
 23
0.0
 33
0.0
 40
0.0
 40
0.0
 40
0.0
 40
0.0
 40
0.4976160783107095
 40
1.0
 40
1.0
 40
1.0
 40
1.0
 10
94.5948993564606
 20
103.7262151644433
 30
0.0
 10
94.5948993564606
 20
103.6092524528482
 30
0.0
 10
94.5948993564606
 20
103.3742063667326
 30
0.0
 10
94.5948993564606
 20
103.140293142522
 30
0.0
 10
94.5948993564606
 20
103.0227788996081
 30
0.0
  0
SPLINE
  5
20B
330
1F
100
AcDbEntity
  8
0
  6
Continuous
 62
     7
370
    15
100
AcDbSpline
210
0.0
220
0.0
230
1.0
 70
     8
 71
     3
 72
    25
 73
    21
 74
     0
 42
0.00000001
 43
0.00000001
 12
1.0
 22
0.0
 32
0.0
 13
1.0
 23
0.0
 33
0.0
 40
0.0
 40
0.0
 40
0.0
 40
0.0
 40
0.02607205793884
 40
0.0516782268742786
 40
0.0768185296208975
 40
0.1014929903258188
 40
0.1257016345704479
 40
0.1895960224737114
 40
0.2512459169023198
 40
0.314833947687313
 40
0.3766100739207497
 40
0.5017436566000074
 40
0.6266520255653498
 40
0.6895323789981453
 40
0.7513468312373449
 40
0.8140252759122006
 40
0.8757949454319043
 40
0.9175435818609422
 40
0.9589449861940974
 40
1.0
 40
1.0
 40
1.0
 40
1.0
 10
94.59489933066742
 20
103.0227755247688
 30
0.0
 10
94.47632150000672
 20
102.876409787012
 30
0.0
 10
94.2412847395976
 20
102.5862937624095
 30
0.0
 10
93.88292741135535
 20
102.1624658902563
 30
0.0
 10
93.524885061021
 20
101.7517150300326
 30
0.0
 10
93.16696588536202
 20
101.3543441072275
 30
0.0
 10
92.6123120533788
 20
100.7575241196099
 30
0.0
 10
91.85348374151762
 20
99.98595386561999
 30
0.0
 10
90.85665745967891
 20
99.05097536404162
 30
0.0
 10
89.83442752946605
 20
98.16687131764394
 30
0.0
 10
88.4184452466148
 20
97.0389865620291
 30
0.0
 10
86.57223582082887
 20
95.74259780368313
 30
0.0
 10
84.61937065225494
 20
94.59595501904768
 30
0.0
 10
83.00954954308335
 20
93.77900754678971
 30
0.0
 10
81.77673412644404
 20
93.21537089615889
 30
0.0
 10
80.52904777151744
 20
92.70551897139826
 30
0.0
 10
79.39781317274021
 20
92.29621163494713
 30
0.0
 10
78.39959573729105
 20
91.97368738803326
 30
0.0
 10
77.53703540334038
 20
91.71911283776441
 30
0.0
 10
76.95882926523669
 20
91.56996926284977
 30
0.0
 10
76.67094068702471
 20
91.49571074343584
 30
0.0
  0
LINE
  5
20C
330
1F
100
AcDbEntity
  8
0
  6
Continuous
 62
     7
370
    15
100
AcDbLine
 10
75.4393853844
 20
102.7451613564
 30
0.0
 11
72.5315085278
 21
102.4395310897
 31
0.0
  0
LINE
  5
20D
330
1F
100
AcDbEntity
  8
0
  6
Continuous
 62
     7
370
    15
100
AcDbLine
 10
72.5315085278
 20
102.4395310897
 30
0.0
 11
72.4740398713
 21
102.9420578498
 31
0.0
  0
LINE
  5
20E
330
1F
100
AcDbEntity
  8
0
  6
Continuous
 62
     7
370
    15
100
AcDbLine
 10
72.4740398713
 20
102.9420578498
 30
0.0
 11
67.8253930659
 21
102.4534655381
 31
0.0
  0
LINE
  5
20F
330
1F
100
AcDbEntity
  8
0
  6
Continuous
 62
     7
370
    15
100
AcDbLine
 10
67.8253930659
 20
102.4534655381
 30
0.0
 11
65.4760722668
 21
122.9968123017
 31
0.0
  0
LINE
  5
210
330
1F
100
AcDbEntity
  8
0
  6
Continuous
 62
     7
370
    15
100
AcDbLine
 10
94.554378897
 20
126.0530656083
 30
0.0
 11
65.4760722668
 21
122.9968123017
 31
0.0
  0
ARC
  5
211
330
1F
100
AcDbEntity
  8
0
  6
Continuous
 62
     7
370
    15
100
AcDbCircle
 10
69.0948993565
 20
124.6161022801
 30
0.0
 40
25.50000000000001
100
AcDbArc
 50
0.0
 51
3.2304145368
  0
LINE
  5
212
330
1F
100
AcDbEntity
  8
0
  6
Continuous
 62
     7
370
    15
100
AcDbLine
 10
94.5948988796
 20
103.7262146939
 30
0.0
 11
94.5948988796
 21
124.6161022801
 31
0.0
  0
LINE
  5
213
330
1F
100
AcDbEntity
  8
0
  6
Continuous
 62
     7
370
    15
100
AcDbLine
 10
75.4393853844
 20
102.7451613564
 30
0.0
 11
75.4983851352
 21
102.2292477656
 31
0.0
  0
SPLINE
  5
214
330
1F
100
AcDbEntity
  8
0
  6
Continuous
 62
     7
370
    15
100
AcDbSpline
210
0.0
220
0.0
230
1.0
 70
     8
 71
     3
 72
    10
 73
     6
 74
     0
 42
0.00000001
 43
0.00000001
 12
1.0
 22
0.0
 32
0.0
 13
1.0
 23
0.0
 33
0.0
 40
0.0
 40
0.0
 40
0.0
 40
0.0
 40
0.5
 40
0.5
 40
1.0
 40
1.0
 40
1.0
 40
1.0
 10
65.38351548185274
 20
99.89312451173582
 30
0.0
 10
65.40762606837748
 20
99.8895050593028
 30
0.0
 10
65.43887127705996
 20
99.8085222658926
 30
0.0
 10
65.50501255188334
 20
99.52749352137863
 30
0.0
 10
65.53835837526017
 20
99.33439659537679
 30
0.0
 10
65.56708648210186
 20
99.11780952791746
 30
0.0
  0
ARC
  5
215
330
1F
100
AcDbEntity
  8
0
  6
Continuous
 62
     7
370
    15
100
AcDbCircle
 10
69.0948993565
 20
124.6161022801
 30
0.0
 40
25.0
100
AcDbArc
 50
260.6692612861
 51
261.462577278
  0
ARC
  5
216
330
1F
100
AcDbEntity
  8
0
  6
Continuous
 62
     7
370
    15
100
AcDbCircle
 10
69.0948993565
 20
124.6161022801
 30
0.0
 40
25.00000000000002
100
AcDbArc
 50
110.537422722
 51
111.3307387139
  0
SPLINE
  5
217
330
1F
100
AcDbEntity
  8
0
  6
Continuous
 62
     7
370
    15
100
AcDbSpline
210
0.0
220
0.0
230
1.0
 70
     8
 71
     3
 72
    10
 73
     6
 74
     0
 42
0.00000001
 43
0.00000001
 12
1.0
 22
0.0
 32
0.0
 13
1.0
 23
0.0
 33
0.0
 40
0.0
 40
0.0
 40
0.0
 40
0.0
 40
0.5
 40
0.5
 40
1.0
 40
1.0
 40
1.0
 40
1.0
 10
60.35859191053471
 20
148.5728744376867
 30
0.0
 10
60.36588609345036
 20
148.4170234368673
 30
0.0
 10
60.36678823386234
 20
148.2816750887577
 30
0.0
 10
60.35512783405218
 20
148.0905016648821
 30
0.0
 10
60.34263637268634
 20
148.034007203206
 30
0.0
 10
60.32442201423991
 20
148.0271835705818
 30
0.0
  0
ARC
  5
218
330
1F
100
AcDbEntity
  8
0
  6
Continuous
 62
     7
370
    15
100
AcDbCircle
 10
69.0948993565
 20
124.6161022801
 30
0.0
 40
25.50000000000001
100
AcDbArc
 50
108.8656568942
 51
110.0353773215
  0
LINE
  5
219
330
1F
100
AcDbEntity
  8
0
  6
Continuous
 62
     7
370
    15
100
AcDbLine
 10
65.4760722668
 20
122.9968123017
 30
0.0
 11
60.8494675384
 21
148.7462250162
 31
0.0
  0
ARC
  5
21A
330
1F
100
AcDbEntity
  8
0
  6
Continuous
 62
     7
370
    15
100
AcDbCircle
 10
86.180370349
 20
103.1140373716
 30
0.0
 40
19.87421024240049
100
AcDbArc
 50
183.022924163
 51
190.0249887713
  0
LWPOLYLINE
  5
21B
330
1F
100
AcDbEntity
  8
0
  6
Continuous
 62
     7
370
    15
100
AcDbPolyline
 90
        3
 70
   128
 43
0.0
 10
66.3592012265
 20
103.3002743144
 10
66.3812242114
 20
103.3616093565
 10
66.4380972871
 20
103.3867029119
  0
SPLINE
  5
21C
330
1F
100
AcDbEntity
  8
0
  6
Continuous
 62
     7
370
    15
100
AcDbSpline
210
0.0
220
0.0
230
1.0
 70
     8
 71
     3
 72
     8
 73
     4
 74
     0
 42
0.00000001
 43
0.00000001
 12
1.0
 22
0.0
 32
0.0
 13
1.0
 23
0.0
 33
0.0
 40
0.0
 40
0.0
 40
0.0
 40
0.0
 40
1.0
 40
1.0
 40
1.0
 40
1.0
 10
65.56708648210186
 20
99.11780952791746
 30
0.0
 10
65.83229712033086
 20
97.1183323361343
 30
0.0
 10
66.09781883471862
 20
95.11995943062982
 30
0.0
 10
66.3635057696681
 20
93.12217304001612
 30
0.0
  0
LWPOLYLINE
  5
21D
330
1F
100
AcDbEntity
  8
0
  6
Continuous
 62
     7
370
    15
100
AcDbPolyline
 90
       37
 70
   128
 43
0.0
 10
66.6419966278
 20
108.4407446552
 10
66.7074171492
 20
107.7499156464
 10
66.7580764406
 20
107.0800767858
 10
66.7924352587
 20
106.4515811969
 10
66.8094495908
 20
105.8835265804
 10
66.8086027858
 20
105.3931703437
 10
66.7899202221
 20
104.9954117853
 10
66.7539697737
 20
104.7023394723
 10
66.7018436492
 20
104.5228568483
 10
66.6351255626
 20
104.4624177385
 10
66.555843236
 20
104.5228568483
 10
66.4664048367
 20
104.7023394723
 10
66.3695286625
 20
104.9954117853
 10
66.2681576927
 20
105.3931703437
 10
66.1653722768
 20
105.8835265804
 10
66.0642956049
 20
106.4515811969
 10
65.9679987134
 20
107.0800767858
 10
65.8794073519
 20
107.7499156464
 10
65.8012135086
 20
108.4407446552
 10
65.73579322
 20
109.1315745954
 10
65.6851339285
 20
109.801413456
 10
65.6507751104
 20
110.4299090449
 10
65.6337607783
 20
110.997965524
 10
65.6346075834
 20
111.4883208294
 10
65.6532901471
 20
111.8860784564
 10
65.6892405954
 20
112.1791507695
 10
65.7413667199
 20
112.3586333934
 10
65.8080845737
 20
112.4190734346
 10
65.8873671331
 20
112.3586333934
 10
65.9768052996
 20
112.1791507695
 10
66.0736817067
 20
111.8860784564
 10
66.1750526764
 20
111.4883208294
 10
66.2778378596
 20
110.997965524
 10
66.3789147642
 20
110.4299090449
 10
66.4752116558
 20
109.801413456
 10
66.5638030172
 20
109.1315745954
 10
66.6419966278
 20
108.4407446552
  0
LINE
  5
21E
330
1F
100
AcDbEntity
  8
0
  6
Continuous
 62
     7
370
    15
100
AcDbLine
 10
66.4380972871
 20
103.3867029119
 30
0.0
 11
67.8253930659
 21
102.4534655381
 31
0.0
  0
ELLIPSE
  5
21F
330
1F
100
AcDbEntity
  8
0
  6
Continuous
 62
     7
370
    15
100
AcDbEllipse
 10
69.0948993565
 20
120.6013077862
 30
0.0
 11
-28.71064475966771
 21
40.66219453338458
 31
0.0
210
0.0
220
0.0
230
1.0
 40
0.4001153713
 41
2.003486403372472
 42
2.03736950892456
  0
LINE
  5
220
330
1F
100
AcDbEntity
  8
0
  6
Continuous
 62
     7
370
    15
100
AcDbLine
 10
72.3855344244
 20
102.5377278794
 30
0.0
 11
72.5315085278
 21
102.4395310897
 31
0.0
  0
ARC
  5
221
330
1F
100
AcDbEntity
  8
0
  6
Continuous
 62
     7
370
    15
100
AcDbCircle
 10
69.0948993565
 20
124.6161022801
 30
0.0
 40
25.50000000000001
100
AcDbArc
 50
3.2304145368
 51
108.8656568942
  0
SPLINE
  5
222
330
1F
100
AcDbEntity
  8
0
  6
Continuous
 62
     7
370
    15
100
AcDbSpline
210
0.0
220
0.0
230
1.0
 70
     8
 71
     3
 72
    18
 73
    14
 74
     0
 42
0.00000001
 43
0.00000001
 12
1.0
 22
0.0
 32
0.0
 13
1.0
 23
0.0
 33
0.0
 40
0.0
 40
0.0
 40
0.0
 40
0.0
 40
0.249999999999999
 40
0.249999999999999
 40
0.499999999999998
 40
0.499999999999998
 40
0.6249999999999984
 40
0.6249999999999984
 40
0.749999999999999
 40
0.749999999999999
 40
0.8749999999999994
 40
0.8749999999999994
 40
1.0
 40
1.0
 40
1.0
 40
1.0
 10
60.00112378535155
 20
147.9035075855984
 30
0.0
 10
59.96973850169299
 20
147.8912515732999
 30
0.0
 10
59.89389523324803
 20
147.8617025710835
 30
0.0
 10
59.65616260675539
 20
147.7661920927403
 30
0.0
 10
59.49835878763239
 20
147.7018044274806
 30
0.0
 10
59.2113629961222
 20
147.5796934114048
 30
0.0
 10
59.10717371031157
 20
147.5346449050106
 30
0.0
 10
58.88869140081627
 20
147.4381876098574
 30
0.0
 10
58.77362419869728
 20
147.3864540011513
 30
0.0
 10
58.5322839183679
 20
147.275510778329
 30
0.0
 10
58.405510438732
 20
147.2160454012962
 30
0.0
 10
58.14757747986519
 20
147.0922364727492
 30
0.0
 10
58.01569271811605
 20
147.0275699519
 30
0.0
 10
57.88102619243327
 20
146.9599839630429
 30
0.0
  0
SPLINE
  5
223
330
1F
100
AcDbEntity
  8
0
  6
Continuous
 62
     7
370
    15
100
AcDbSpline
210
0.0
220
0.0
230
1.0
 70
     8
 71
     3
 72
    18
 73
    14
 74
     0
 42
0.00000001
 43
0.00000001
 12
1.0
 22
0.0
 32
0.0
 13
1.0
 23
0.0
 33
0.0
 40
0.0
 40
0.0
 40
0.0
 40
0.0
 40
0.2499999999999994
 40
0.2499999999999994
 40
0.3749999999999994
 40
0.3749999999999994
 40
0.4999999999999994
 40
0.4999999999999994
 40
0.6249999999999994
 40
0.6249999999999994
 40
0.7499999999999994
 40
0.7499999999999994
 40
1.0
 40
1.0
 40
1.0
 40
1.0
 10
62.77163044626552
 20
100.4289926907114
 30
0.0
 10
63.06331527777115
 20
100.3527371290529
 30
0.0
 10
63.33971203864149
 20
100.2861036783012
 30
0.0
 10
63.72966001276162
 20
100.198240784029
 30
0.0
 10
63.85521196533217
 20
100.1710631083704
 30
0.0
 10
64.08900789443803
 20
100.1221170034123
 30
0.0
 10
64.1984082073703
 20
100.1000849931596
 30
0.0
 10
64.40172586402342
 20
100.0603524085004
 30
0.0
 10
64.49636409537632
 20
100.0425246384497
 30
0.0
 10
64.66379626042941
 20
100.0117821307849
 30
0.0
 10
64.73699114298486
 20
99.99877736728807
 30
0.0
 10
64.92506783240643
 20
99.96597642845514
 30
0.0
 10
65.00829556414197
 20
99.95234736697954
 30
0.0
 10
65.04156841179208
 20
99.94688039831537
 30
0.0
  0
ELLIPSE
  5
224
330
1F
100
AcDbEntity
  8
0
  6
Continuous
 62
     7
370
    15
100
AcDbEllipse
 10
57.6269846347
 20
111.0359670961
 30
0.0
 11
-2.041167293880065
 21
2.616899948940727
 31
0.0
210
0.0
220
0.0
230
1.0
 40
0.7353403728
 41
0.0
 42
6.283185307179586
  0
ARC
  5
225
330
1F
100
AcDbEntity
  8
0
  6
Continuous
 62
     7
370
    15
100
AcDbCircle
 10
69.0948993565
 20
124.6161022801
 30
0.0
 40
25.00000000000001
100
AcDbArc
 50
116.6510072762
 51
255.3489927238
  0
SPLINE
  5
226
330
1F
100
AcDbEntity
  8
0
  6
Continuous
 62
     7
370
    15
100
AcDbSpline
210
0.0
220
0.0
230
1.0
 70
     8
 71
     3
 72
    14
 73
    10
 74
     0
 42
0.00000001
 43
0.00000001
 12
1.0
 22
0.0
 32
0.0
 13
1.0
 23
0.0
 33
0.0
 40
0.0
 40
0.0
 40
0.0
 40
0.0
 40
0.5000000000000007
 40
0.5000000000000007
 40
0.7499999999999989
 40
0.7499999999999989
 40
0.8749999999999994
 40
0.8749999999999994
 40
1.0
 40
1.0
 40
1.0
 40
1.0
 10
55.61111626881252
 20
112.8815087981324
 30
0.0
 10
55.78385492222759
 20
113.0059792306897
 30
0.0
 10
55.94476477446148
 20
113.1610553080665
 30
0.0
 10
56.15848705292412
 20
113.430437310143
 30
0.0
 10
56.2263974556719
 20
113.5271068778776
 30
0.0
 10
56.30400233127939
 20
113.6783027461226
 30
0.0
 10
56.32606969599453
 20
113.730057839889
 30
0.0
 10
56.34309724439574
 20
113.8297577434578
 30
0.0
 10
56.33424026083368
 20
113.8775648499212
 30
0.0
 10
56.29931906503737
 20
113.9117412254174
 30
0.0
  0
ARC
  5
227
330
1F
100
AcDbEntity
  8
0
  6
Continuous
 62
     7
370
    15
100
AcDbCircle
 10
55.0992728108
 20
116.7134324892
 30
0.0
 40
3.047881800995626
100
AcDbArc
 50
293.1868623635
 51
298.6595462354
  0
LINE
  5
228
330
1F
100
AcDbEntity
  8
0
  6
Continuous
 62
     7
370
    15
100
AcDbLine
 10
54.901886046
 20
112.3029589299
 30
0.0
 11
55.5800295101
 21
112.3777646218
 31
0.0
  0
LINE
  5
229
330
1F
100
AcDbEntity
  8
0
  6
Continuous
 62
     7
370
    15
100
AcDbLine
 10
55.5800295101
 20
112.3777646218
 30
0.0
 11
55.6072427557
 21
112.8187421355
 31
0.0
  0
LWPOLYLINE
  5
22A
330
1F
100
AcDbEntity
  8
0
  6
Continuous
 62
     7
370
    15
100
AcDbPolyline
 90
        4
 70
   128
 43
0.0
 10
55.2951863633
 20
113.3679980058
 10
55.4484420122
 20
113.132005522
 10
55.5632359014
 20
112.9552386347
 10
55.6111161263
 20
112.8815086205
  0
LWPOLYLINE
  5
22B
330
1F
100
AcDbEntity
  8
0
  6
Continuous
 62
     7
370
    15
100
AcDbPolyline
 90
       34
 70
   128
 43
0.0
 10
65.8197275029
 20
111.8985060249
 10
65.8882337288
 20
111.9120763261
 10
65.9687887077
 20
111.8001825754
 10
66.0584811253
 20
111.5668704379
 10
66.1540695132
 20
111.2205721084
 10
66.2520986647
 20
110.7738036309
 10
66.349025596
 20
110.2427122761
 10
66.44134737
 20
109.6464926023
 10
66.5257270579
 20
109.0066944826
 10
66.599115044
 20
108.3464426566
 10
66.6588586886
 20
107.6895976085
 10
66.7027989534
 20
107.0599006135
 10
66.7293477003
 20
106.4801131953
 10
66.7375452017
 20
105.9711863864
 10
66.7270952967
 20
105.5515156705
 10
66.6983756368
 20
105.2362704296
 10
66.652424181
 20
105.0368426014
 10
66.590901943
 20
104.9604406227
 10
66.5160322228
 20
105.0098267961
 10
66.4305212108
 20
105.1832148451
 10
66.337459501
 20
105.4743369687
 10
66.2402105649
 20
105.8726748098
 10
66.1422889811
 20
106.3638282586
 10
66.047234241
 20
106.9300481696
 10
65.958481528
 20
107.5508677978
 10
65.8792390154
 20
108.2038497198
 10
65.8123702873
 20
108.8653942216
 10
65.7602925916
 20
109.5115905274
 10
65.7248878983
 20
110.1190838609
 10
65.7074358446
 20
110.6659173612
 10
65.7085671687
 20
111.1323274318
 10
65.7282408924
 20
111.5014571343
 10
65.7657461838
 20
111.7599643413
 10
65.8197275029
 20
111.8985060249
  0
LWPOLYLINE
  5
22C
330
1F
100
AcDbEntity
  8
0
  6
Continuous
 62
     7
370
    15
100
AcDbPolyline
 90
       26
 70
   128
 43
0.0
 10
65.9919607119
 20
110.4166088272
 10
66.0451632124
 20
110.4116439466
 10
66.1094524098
 20
110.2828401718
 10
66.1807882265
 20
110.0382906962
 10
66.2546889056
 20
109.6933614109
 10
66.3265108728
 20
109.2697251234
 10
66.3917411716
 20
108.7940027583
 10
66.4462810514
 20
108.2960823197
 10
66.4867039436
 20
107.8072515894
 10
66.5104696658
 20
107.3582274485
 10
66.5160848425
 20
106.977219658
 10
66.503196735
 20
106.6881725211
 10
66.4726153613
 20
106.5092449654
 10
66.4262620398
 20
106.4516799171
 10
66.3670494818
 20
106.5190964956
 10
66.2986978554
 20
106.7072571833
 10
66.2255024203
 20
107.0043379087
 10
66.1520620474
 20
107.3916749675
 10
66.0829914399
 20
107.8449291755
 10
66.0226303284
 20
108.3356188256
 10
65.9747715239
 20
108.8329152782
 10
65.9424220343
 20
109.305570798
 10
65.9276149367
 20
109.7238855083
 10
65.9312801567
 20
110.0615756232
 10
65.9531876576
 20
110.2974228207
 10
65.9919607119
 20
110.4166088272
  0
LINE
  5
22D
330
1F
100
AcDbEntity
  8
0
  6
Continuous
 62
     7
370
    15
100
AcDbLine
 10
66.4205798079
 20
108.5327295233
 30
0.0
 11
66.3264810705
 21
108.2697221656
 31
0.0
  0
LINE
  5
22E
330
1F
100
AcDbEntity
  8
0
  6
Continuous
 62
     7
370
    15
100
AcDbLine
 10
66.3264810705
 20
108.2697221656
 30
0.0
 11
66.4668914528
 21
108.0270064641
 31
0.0
  0
LINE
  5
22F
330
1F
100
AcDbEntity
  8
0
  6
Continuous
 62
     7
370
    15
100
AcDbLine
 10
66.4475879298
 20
108.2824514825
 30
0.0
 11
66.3264810705
 21
108.2697221656
 31
0.0
  0
LINE
  5
230
330
1F
100
AcDbEntity
  8
0
  6
Continuous
 62
     7
370
    15
100
AcDbLine
 10
66.2440480796
 20
102.8509130348
 30
0.0
 11
67.6118008691
 21
90.8907698114
 31
0.0
  0
ARC
  5
231
330
1F
100
AcDbEntity
  8
0
  6
Continuous
 62
     7
370
    15
100
AcDbCircle
 10
67.1278733094
 20
103.0692664253
 30
0.0
 40
0.9103983963828645
100
AcDbArc
 50
166.1878958159
 51
193.8773201799
  0
LINE
  5
232
330
1F
100
AcDbEntity
  8
0
  6
Continuous
 62
     7
370
    15
100
AcDbLine
 10
67.6052628682
 20
102.3707566429
 30
0.0
 11
66.2438001149
 21
103.2866136748
 31
0.0
  0
ARC
  5
233
330
1F
100
AcDbEntity
  8
0
  6
Continuous
 62
     7
370
    15
100
AcDbCircle
 10
66.6125959635
 20
101.9734901759
 30
0.0
 40
1.06920916076409
100
AcDbArc
 50
2.1233044913
 51
21.8113456825
  0
LINE
  5
234
330
1F
100
AcDbEntity
  8
0
  6
Continuous
 62
     7
370
    15
100
AcDbLine
 10
69.0488237546
 20
90.0529594738
 30
0.0
 11
67.6810710124
 21
102.0131045599
 31
0.0
  0
ARC
  5
235
330
1F
100
AcDbEntity
  8
0
  6
Continuous
 62
     7
370
    15
100
AcDbCircle
 10
68.1650112883
 20
89.8346066654
 30
0.0
 40
0.9103858657121763
100
AcDbArc
 50
346.1877849247
 51
13.8774772768
  0
LINE
  5
236
330
1F
100
AcDbEntity
  8
0
  6
Continuous
 62
     7
370
    15
100
AcDbLine
 10
67.6876090133
 20
90.533119591
 30
0.0
 11
69.0490718939
 21
89.6172606964
 31
0.0
  0
ARC
  5
237
330
1F
100
AcDbEntity
  8
0
  6
Continuous
 62
     7
370
    15
100
AcDbCircle
 10
68.6802263888
 20
90.930375766
 30
0.0
 40
1.069159353359682
100
AcDbArc
 50
182.1229514184
 51
201.8118198133
  0
ARC
  5
238
330
1F
100
AcDbEntity
  8
0
  6
Continuous
 62
     7
370
    15
100
AcDbCircle
 10
68.2073171224
 20
89.8435725393
 30
0.0
 40
0.8648624173546504
100
AcDbArc
 50
346.1877358896
 51
13.8775257957
  0
LINE
  5
239
330
1F
100
AcDbEntity
  8
0
  6
Continuous
 62
     7
370
    15
100
AcDbLine
 10
69.0469347559
 20
90.0510074217
 30
0.0
 11
67.6791820574
 21
102.0111543704
 31
0.0
  0
ARC
  5
23A
330
1F
100
AcDbEntity
  8
0
  6
Continuous
 62
     7
370
    15
100
AcDbCircle
 10
66.6641558331
 20
101.9735231138
 30
0.0
 40
1.015723558516981
100
AcDbArc
 50
2.1232211424
 51
21.8116142126
  0
LINE
  5
23B
330
1F
100
AcDbEntity
  8
0
  6
Continuous
 62
     7
370
    15
100
AcDbLine
 10
67.6071642797
 20
102.3509213347
 30
0.0
 11
66.24570141
 21
103.2667802293
 31
0.0
  0
ARC
  5
23C
330
1F
100
AcDbEntity
  8
0
  6
Continuous
 62
     7
370
    15
100
AcDbCircle
 10
67.0855629202
 20
103.0603011614
 30
0.0
 40
0.8648704884655534
100
AcDbArc
 50
166.1878215991
 51
193.8774750434
  0
LINE
  5
23D
330
1F
100
AcDbEntity
  8
0
  6
Continuous
 62
     7
370
    15
100
AcDbLine
 10
66.2459372674
 20
102.8528650869
 30
0.0
 11
67.6136899405
 21
90.8927181382
 31
0.0
  0
ARC
  5
23E
330
1F
100
AcDbEntity
  8
0
  6
Continuous
 62
     7
370
    15
100
AcDbCircle
 10
68.6286952791
 20
90.9303467136
 30
0.0
 40
1.015702587922296
100
AcDbArc
 50
182.1231136527
 51
201.8118115587
  0
LINE
  5
23F
330
1F
100
AcDbEntity
  8
0
  6
Continuous
 62
     7
370
    15
100
AcDbLine
 10
67.6857076018
 20
90.5529530365
 30
0.0
 11
69.047170486
 21
89.6370941419
 31
0.0
  0
LINE
  5
240
330
1F
100
AcDbEntity
  8
0
  6
Continuous
 62
     7
370
    15
100
AcDbLine
 10
73.7568151803
 20
90.5477897842
 30
0.0
 11
72.3890622743
 21
102.5079348702
 31
0.0
  0
ARC
  5
241
330
1F
100
AcDbEntity
  8
0
  6
Continuous
 62
     7
370
    15
100
AcDbCircle
 10
72.7336793089
 20
90.3199119174
 30
0.0
 40
1.048205768647694
100
AcDbArc
 50
348.5011989846
 51
12.556252457
  0
LINE
  5
242
330
1F
100
AcDbEntity
  8
0
  6
Continuous
 62
     7
370
    15
100
AcDbLine
 10
68.2211578373
 20
91.566723736
 30
0.0
 11
67.8665768486
 21
90.9526021797
 31
0.0
  0
ARC
  5
243
330
1F
100
AcDbEntity
  8
0
  6
Continuous
 62
     7
370
    15
100
AcDbCircle
 10
71.3206075907
 20
102.4683230571
 30
0.0
 40
1.069188714256552
100
AcDbArc
 50
2.123207256
 51
21.8115282799
  0
LINE
  5
244
330
1F
100
AcDbEntity
  8
0
  6
Continuous
 62
     7
370
    15
100
AcDbLine
 10
68.5046076673
 20
92.9463812728
 30
0.0
 11
67.73912582
 21
99.6400443483
 31
0.0
  0
LINE
  5
245
330
1F
100
AcDbEntity
  8
0
  6
Continuous
 62
     7
370
    15
100
AcDbLine
 10
72.3132542466
 20
102.8655850906
 30
0.0
 11
72.236662278
 21
102.9171095807
 31
0.0
  0
LINE
  5
246
330
1F
100
AcDbEntity
  8
0
  6
Continuous
 62
     7
370
    15
100
AcDbLine
 10
67.1273227912
 20
102.1102284659
 30
0.0
 11
66.4988241755
 21
102.9127454031
 31
0.0
  0
ARC
  5
247
330
1F
100
AcDbEntity
  8
0
  6
Continuous
 62
     7
370
    15
100
AcDbCircle
 10
66.2950463124
 20
92.400496506
 30
0.0
 40
2.275994630813775
100
AcDbArc
 50
346.1878967056
 51
13.8773620993
  0
LINE
  5
248
330
1F
100
AcDbEntity
  8
0
  6
Continuous
 62
     7
370
    15
100
AcDbLine
 10
66.7882643306
 20
99.9574912358
 30
0.0
 11
67.5537460615
 21
93.2638281603
 31
0.0
  0
ARC
  5
249
330
1F
100
AcDbEntity
  8
0
  6
Continuous
 62
     7
370
    15
100
AcDbCircle
 10
68.9978285567
 20
100.5033763585
 30
0.0
 40
2.275997503673758
100
AcDbArc
 50
166.1879237133
 51
193.8773534623
  0
LINE
  5
24A
330
1F
100
AcDbEntity
  8
0
  6
Continuous
 62
     7
370
    15
100
AcDbLine
 10
67.5496055177
 20
100.5341698993
 30
0.0
 11
66.7876438369
 21
101.0467437673
 31
0.0
  0
ARC
  5
24B
330
1F
100
AcDbEntity
  8
0
  6
Continuous
 62
     7
370
    15
100
AcDbCircle
 10
65.0679946876
 20
99.5410153513
 30
0.0
 40
2.672966192920573
100
AcDbArc
 50
2.1232002069
 51
21.8115638857
  0
LINE
  5
24C
330
1F
100
AcDbEntity
  8
0
  6
Continuous
 62
     7
370
    15
100
AcDbLine
 10
67.7432664801
 20
92.3697026093
 30
0.0
 11
68.5052279864
 21
91.8571287412
 31
0.0
  0
ARC
  5
24D
330
1F
100
AcDbEntity
  8
0
  6
Continuous
 62
     7
370
    15
100
AcDbCircle
 10
70.2248902528
 20
93.3628602484
 30
0.0
 40
2.672979357386227
100
AcDbArc
 50
182.123256049
 51
201.8115223219
  0
LWPOLYLINE
  5
24E
330
1F
100
AcDbEntity
  8
0
  6
Continuous
 62
     7
370
    15
100
AcDbPolyline
 90
       30
 70
   128
 43
0.0
 10
67.8917174359
 20
93.8933780063
 10
67.9484726992
 20
93.9111588169
 10
67.9911049214
 20
94.0477428604
 10
68.0176209557
 20
94.2967449892
 10
68.026780746
 20
94.6465218086
 10
68.0181560005
 20
95.0807174314
 10
67.9921499818
 20
95.5790290255
 10
67.9499788807
 20
96.1181586254
 10
67.8936144236
 20
96.6728934664
 10
67.8256921369
 20
97.2172980774
 10
67.7493880634
 20
97.7259138245
 10
67.6682699836
 20
98.1749621797
 10
67.5861310578
 20
98.543441819
 10
67.5068119439
 20
98.8141251374
 10
67.4340214013
 20
98.9743554611
 10
67.3711631811
 20
99.0166412313
 10
67.321176421
 20
98.9390024562
 10
67.2863983913
 20
98.7450712938
 10
67.2684554142
 20
98.4439169634
 10
67.268186262
 20
98.0496191997
 10
67.2856037403
 20
97.580616327
 10
67.3198932913
 20
97.0588372666
 10
67.3694516431
 20
96.5086808074
 10
67.4319614322
 20
95.9558700789
 10
67.5044998192
 20
95.4262548704
 10
67.5836750438
 20
94.9445990492
 10
67.6657848657
 20
94.5334257204
 10
67.7469899078
 20
94.2119592447
 10
67.8234931679
 20
93.9952311684
 10
67.8917174359
 20
93.8933780063
  0
LINE
  5
24F
330
1F
100
AcDbEntity
  8
0
  6
Continuous
 62
     7
370
    15
100
AcDbLine
 10
68.1720917477
 20
91.7950914819
 30
0.0
 11
68.176239451
 21
91.7641156931
 31
0.0
  0
ARC
  5
250
330
1F
100
AcDbEntity
  8
0
  6
Continuous
 62
     7
370
    15
100
AcDbCircle
 10
73.8335961139
 20
91.6128052223
 30
0.0
 40
2.620468989869786
100
AcDbArc
 50
348.5010673552
 51
12.5564609793
  0
LINE
  5
251
330
1F
100
AcDbEntity
  8
0
  6
Continuous
 62
     7
370
    15
100
AcDbLine
 10
76.3913893738
 20
92.1824993212
 30
0.0
 11
75.2856934109
 21
101.8511214871
 31
0.0
  0
ARC
  5
252
330
1F
100
AcDbEntity
  8
0
  6
Continuous
 62
     7
370
    15
100
AcDbCircle
 10
74.5652723586
 20
91.764968778
 30
0.0
 40
2.136091099916438
100
AcDbArc
 50
350.8318122978
 51
11.3243520961
  0
LINE
  5
253
330
1F
100
AcDbEntity
  8
0
  6
Continuous
 62
     7
370
    15
100
AcDbLine
 10
75.5540805534
 20
101.8530400116
 30
0.0
 11
76.6597765164
 21
92.1844178457
 31
0.0
  0
ARC
  5
254
330
1F
100
AcDbEntity
  8
0
  6
Continuous
 62
     7
370
    15
100
AcDbCircle
 10
71.8258780338
 20
101.6306738899
 30
0.0
 40
3.46683134667306
100
AcDbArc
 50
3.6457626567
 51
18.1668652186
  0
LINE
  5
255
330
1F
100
AcDbEntity
  8
0
  6
Continuous
 62
     7
370
    15
100
AcDbLine
 10
75.1353104264
 20
102.7132020909
 30
0.0
 11
75.4214164467
 21
102.4789278973
 31
0.0
  0
ARC
  5
256
330
1F
100
AcDbEntity
  8
0
  6
Continuous
 62
     7
370
    15
100
AcDbCircle
 10
73.6843057206
 20
101.7837235993
 30
0.0
 40
1.871059242915058
100
AcDbArc
 50
2.1231005435
 51
21.8116451912
  0
CIRCLE
  5
257
330
1F
100
AcDbEntity
  8
VERMASSUNG
  6
CENTERX2
100
AcDbCircle
 10
69.0948993565
 20
122.1604883229
 30
0.0
 40
32.5
  0
DIMENSION
  5
258
330
1F
100
AcDbEntity
  8
VERMASSUNG
100
AcDbDimension
  2
_D_5
 10
92.075869745
 20
145.1414587115
 30
0.0
 11
99.9589698276
 21
153.024558794
 31
0.0
 70
   160
  1
%%c<> min. 
 71
     2
 42
-1.0
  3
SLDDIMSTYLE3
100
AcDbAlignedDimension
 13
46.1139289679
 23
99.1795179343
 33
0.0
 14
92.075869745
 24
145.1414587115
 34
0.0
 50
45.0
100
AcDbRotatedDimension
  0
INSERT
  5
272
330
1F
100
AcDbEntity
  8
VERMASSUNG
100
AcDbBlockReference
  2
SW_CENTERMARKSYMBOL_0
 10
69.0948993565
 20
124.6161022801
 30
0.0
  0
OLE2FRAME
  5
273
330
1F
100
AcDbEntity
  8
0
100
AcDbOle2Frame
 70
     2
  3
Paintbrush-Bild
 10
13.8511154363
 20
38.264191557
 30
0.0
 11
51.6290888628
 21
31.9806341108
 31
0.0
 71
     2
 72
     0
 73
     1
 90
    12928
310
80552BED0767C5B32B40DDAF6807D121434000000000000000006FFBDDFB85D0
310
4940DDAF6807D121434000000000000000006FFBDDFB85D04940416F4BD60AFB
310
3F4000000000000000002BED0767C5B32B40416F4BD60AFB3F40000000000000
310
0000000000000100000000010000010000000100000000000100000000320000
310
D0CF11E0A1B11AE1000000000000000000000000000000003E000300FEFF0900
310
0600000000000000000000000100000001000000000000000010000002000000
310
01000000FEFFFFFF0000000000000000FFFFFFFFFFFFFFFFFFFFFFFFFFFFFFFF
310
FFFFFFFFFFFFFFFFFFFFFFFFFFFFFFFFFFFFFFFFFFFFFFFFFFFFFFFFFFFFFFFF
310
FFFFFFFFFFFFFFFFFFFFFFFFFFFFFFFFFFFFFFFFFFFFFFFFFFFFFFFFFFFFFFFF
310
FFFFFFFFFFFFFFFFFFFFFFFFFFFFFFFFFFFFFFFFFFFFFFFFFFFFFFFFFFFFFFFF
310
FFFFFFFFFFFFFFFFFFFFFFFFFFFFFFFFFFFFFFFFFFFFFFFFFFFFFFFFFFFFFFFF
310
FFFFFFFFFFFFFFFFFFFFFFFFFFFFFFFFFFFFFFFFFFFFFFFFFFFFFFFFFFFFFFFF
310
FFFFFFFFFFFFFFFFFFFFFFFFFFFFFFFFFFFFFFFFFFFFFFFFFFFFFFFFFFFFFFFF
310
FFFFFFFFFFFFFFFFFFFFFFFFFFFFFFFFFFFFFFFFFFFFFFFFFFFFFFFFFFFFFFFF
310
FFFFFFFFFFFFFFFFFFFFFFFFFFFFFFFFFFFFFFFFFFFFFFFFFFFFFFFFFFFFFFFF
310
FFFFFFFFFFFFFFFFFFFFFFFFFFFFFFFFFFFFFFFFFFFFFFFFFFFFFFFFFFFFFFFF
310
FFFFFFFFFFFFFFFFFFFFFFFFFFFFFFFFFFFFFFFFFFFFFFFFFFFFFFFFFFFFFFFF
310
FFFFFFFFFFFFFFFFFFFFFFFFFFFFFFFFFFFFFFFFFFFFFFFFFFFFFFFFFFFFFFFF
310
FFFFFFFFFFFFFFFFFFFFFFFFFFFFFFFFFFFFFFFFFFFFFFFFFFFFFFFFFFFFFFFF
310
FFFFFFFFFFFFFFFFFFFFFFFFFFFFFFFFFFFFFFFFFFFFFFFFFFFFFFFFFFFFFFFF
310
FDFFFFFFFEFFFFFFFEFFFFFFFEFFFFFF05000000060000000700000008000000
310
090000000A0000000B0000000C0000000D0000000E0000000F00000010000000
310
11000000120000001300000014000000150000001600000017000000FEFFFFFF
310
FFFFFFFFFFFFFFFFFFFFFFFFFFFFFFFFFFFFFFFFFFFFFFFFFFFFFFFFFFFFFFFF
310
FFFFFFFFFFFFFFFFFFFFFFFFFFFFFFFFFFFFFFFFFFFFFFFFFFFFFFFFFFFFFFFF
310
FFFFFFFFFFFFFFFFFFFFFFFFFFFFFFFFFFFFFFFFFFFFFFFFFFFFFFFFFFFFFFFF
310
FFFFFFFFFFFFFFFFFFFFFFFFFFFFFFFFFFFFFFFFFFFFFFFFFFFFFFFFFFFFFFFF
310
FFFFFFFFFFFFFFFFFFFFFFFFFFFFFFFFFFFFFFFFFFFFFFFFFFFFFFFFFFFFFFFF
310
FFFFFFFFFFFFFFFFFFFFFFFFFFFFFFFFFFFFFFFFFFFFFFFFFFFFFFFFFFFFFFFF
310
FFFFFFFFFFFFFFFFFFFFFFFFFFFFFFFFFFFFFFFFFFFFFFFFFFFFFFFFFFFFFFFF
310
FFFFFFFFFFFFFFFFFFFFFFFFFFFFFFFFFFFFFFFFFFFFFFFFFFFFFFFFFFFFFFFF
310
FFFFFFFFFFFFFFFFFFFFFFFFFFFFFFFFFFFFFFFFFFFFFFFFFFFFFFFFFFFFFFFF
310
FFFFFFFFFFFFFFFFFFFFFFFFFFFFFFFFFFFFFFFFFFFFFFFFFFFFFFFFFFFFFFFF
310
FFFFFFFFFFFFFFFFFFFFFFFFFFFFFFFFFFFFFFFFFFFFFFFFFFFFFFFFFFFFFFFF
310
FFFFFFFFFFFFFFFFFFFFFFFFFFFFFFFFFFFFFFFFFFFFFFFFFFFFFFFFFFFFFFFF
310
FFFFFFFFFFFFFFFFFFFFFFFFFFFFFFFFFFFFFFFFFFFFFFFFFFFFFFFFFFFFFFFF
310
52006F006F007400200045006E00740072007900000000000000000000000000
310
0000000000000000000000000000000000000000000000000000000000000000
310
16000500FFFFFFFFFFFFFFFF020000000A00030000000000C000000000000046
310
000000000000000000000000D001FF225524CD0103000000C000000000000000
310
01004F006C006500000000000000000000000000000000000000000000000000
310
0000000000000000000000000000000000000000000000000000000000000000
310
0A000200FFFFFFFFFFFFFFFFFFFFFFFF00000000000000000000000000000000
310
0000000000000000000000000000000000000000000000001400000000000000
310
010043006F006D0070004F0062006A0000000000000000000000000000000000
310
0000000000000000000000000000000000000000000000000000000000000000
310
120002010100000003000000FFFFFFFF00000000000000000000000000000000
310
0000000000000000000000000000000000000000010000004D00000000000000
310
01004F006C006500310030004E00610074006900760065000000000000000000
310
0000000000000000000000000000000000000000000000000000000000000000
310
1A000200FFFFFFFFFFFFFFFFFFFFFFFF00000000000000000000000000000000
310
0000000000000000000000000000000000000000040000002426000000000000
310
FEFFFFFF02000000FEFFFFFFFFFFFFFFFFFFFFFFFFFFFFFFFFFFFFFFFFFFFFFF
310
FFFFFFFFFFFFFFFFFFFFFFFFFFFFFFFFFFFFFFFFFFFFFFFFFFFFFFFFFFFFFFFF
310
FFFFFFFFFFFFFFFFFFFFFFFFFFFFFFFFFFFFFFFFFFFFFFFFFFFFFFFFFFFFFFFF
310
FFFFFFFFFFFFFFFFFFFFFFFFFFFFFFFFFFFFFFFFFFFFFFFFFFFFFFFFFFFFFFFF
310
FFFFFFFFFFFFFFFFFFFFFFFFFFFFFFFFFFFFFFFFFFFFFFFFFFFFFFFFFFFFFFFF
310
FFFFFFFFFFFFFFFFFFFFFFFFFFFFFFFFFFFFFFFFFFFFFFFFFFFFFFFFFFFFFFFF
310
FFFFFFFFFFFFFFFFFFFFFFFFFFFFFFFFFFFFFFFFFFFFFFFFFFFFFFFFFFFFFFFF
310
FFFFFFFFFFFFFFFFFFFFFFFFFFFFFFFFFFFFFFFFFFFFFFFFFFFFFFFFFFFFFFFF
310
FFFFFFFFFFFFFFFFFFFFFFFFFFFFFFFFFFFFFFFFFFFFFFFFFFFFFFFFFFFFFFFF
310
FFFFFFFFFFFFFFFFFFFFFFFFFFFFFFFFFFFFFFFFFFFFFFFFFFFFFFFFFFFFFFFF
310
FFFFFFFFFFFFFFFFFFFFFFFFFFFFFFFFFFFFFFFFFFFFFFFFFFFFFFFFFFFFFFFF
310
FFFFFFFFFFFFFFFFFFFFFFFFFFFFFFFFFFFFFFFFFFFFFFFFFFFFFFFFFFFFFFFF
310
FFFFFFFFFFFFFFFFFFFFFFFFFFFFFFFFFFFFFFFFFFFFFFFFFFFFFFFFFFFFFFFF
310
FFFFFFFFFFFFFFFFFFFFFFFFFFFFFFFFFFFFFFFFFFFFFFFFFFFFFFFFFFFFFFFF
310
FFFFFFFFFFFFFFFFFFFFFFFFFFFFFFFFFFFFFFFFFFFFFFFFFFFFFFFFFFFFFFFF
310
FFFFFFFFFFFFFFFFFFFFFFFFFFFFFFFFFFFFFFFFFFFFFFFFFFFFFFFFFFFFFFFF
310
0100000200000000000000000000000000000000000000000000000000000000
310
0000000000000000000000000000000000000000000000000000000000000000
310
0100FEFF030A0000FFFFFFFF0A00030000000000C00000000000004607000000
310
5042727573680007000000504272757368000700000050427275736800F439B2
310
7100000000000000000000000000000000000000000000000000000000000000
310
0000000000000000000000000000000000000000000000000000000000000000
310
0000000000000000000000000000000000000000000000000000000000000000
310
0000000000000000000000000000000000000000000000000000000000000000
310
0000000000000000000000000000000000000000000000000000000000000000
310
0000000000000000000000000000000000000000000000000000000000000000
310
0000000000000000000000000000000000000000000000000000000000000000
310
0000000000000000000000000000000000000000000000000000000000000000
310
0000000000000000000000000000000000000000000000000000000000000000
310
0000000000000000000000000000000000000000000000000000000000000000
310
0000000000000000000000000000000000000000000000000000000000000000
310
0000000000000000000000000000000000000000000000000000000000000000
310
20260000424D0E260000000000003E00000028000000B40200006E0000000100
310
01000000000000000000130B0000130B00000200000002000000000000FFFFFF
310
FFFFFFFFFFFFFFFFFFFFFFFFFFFFFFFFFFFFFFFFFFFFFFFFFFFFFFFFFFFFFFFF
310
FFFFFFFFFFFFFFFFFFFFFFFFFFFFFFFFFFFFFFFFFFFFFFFFFFFFFFFFFFFFFFFF
310
FFFFFFFFFFFFFFFFFFFFFFFFFFFFFFFFFFFFFFFFFFFFFFFFF000FFFFFFFFFFFF
310
FFFFFFFFFFFFFFFFFFFFFFFFFFFFFFFFFFFFFFFFFFFFFFFFFFFFFFFFFFFFFFFF
310
FFFFFFFFFFFFFFFFFFFFFFFFFFFFFFFFFFFFFFFFFFFFFFFFFFFFFFFFFFFFFFFF
310
FFFFFFFFFFFFFFFFFFFFFFFFFFFFFFFFF000FFFFFFFFFFFFFFFFFFFFFFFFFFFF
310
FFFFFFFFFFFFFFFFFFFFFFFFFFFFFFFFFFFFFFFFFFFFFFFFFFFFFFFFFFFFFFFF
310
FFFFFFFFFFFFFFFFFFFFFFFFFFFFFFFFFFFFFFFFFFFFFFFFFFFFFFFFFFFFFFFF
310
FFFFFFFFFFFFFFFFF000FFFFFFFFFFFFFFFFFFFFFFFFFFFFFFFFFFFFFFFFFFFF
310
FFFFFFFFFFFFFFFFFFFFFFFFFFFFFFFFFFFFFFFFFFFFFFFFFFFFFFFFFFFFFFFF
310
FFFFFFFFFFFFFFFFFFFFFFFFFFFFFFFFFFFFFFFFFFFFFFFFFFFFFFFFFFFFFFFF
310
F000FFFFFFFFFFFFFFFFFFFFFFFFFFFFFFFFFFFFFFFFFFFFFFFFFFFFFFFFFFFF
310
FFFFFFFFFFFFFFFFFFFFFFFFFFFFFFFFFFFFFFFFFFFFFFFFFFFFFFFFFFFFFFFF
310
FFFFFFFFFFFFFFFFFFFFFFFFFFFFFFFFFFFFFFFFFFFFFFFFF000FFFFFFFFFFFF
310
FFFFFFFFFFFFFFFFFFFFFFFFFFFFFFFFFFFFFFFFFFFFFFFFFFFFFFFFFFFFFFFF
310
FFFFFFFFFFFFFFFFFFFFFFFFFFFFFFFFFFFFFFFFFFFFFFFFFFFFFFFFFFFFFFFF
310
FFFFFFFFFFFFFFFFFFFFFFFFFFFFFFFFF000FFFFFFFFFFFFFFFFFFFFFFFFFFFF
310
FFFFFFFFFFFFFFFFFFFFFFFFFFFFFFFFFFFFFFFFFFFFFFFFFFFFFFFFFFFFFFFF
310
FFFFFFFFFFFFFFFFFFFFFFFFFFFFFFFFFFFFFFFFFFFFFFFFFFFFFFFFFFFFFFFF
310
FFFFFFFFFFFFFFFFF000FFFFFFFFFFFFFFFFFFFFFFFFFFFFFFFFFFFFFFFFFFFF
310
FFFFFFFFFFFFFFFFFFFFFFFFFFFFFFFFFFFFFFFFFFFFFFFFFFFFFFFFFFFFFFFF
310
FFFFFFFFFFFFFFFFFFFFFFFFFFFFFFFFFFFFFFFFFFFFFFFFFFFFFFFFFFFFFFFF
310
F000FFFFFFFFFFFFFFFFFFFFFFFFFFFFFFFFFFFFFFFFFFFFFFFFFFFFFFFFFFFF
310
FFFFFFFFFFFFFFFFFFFFFFFFFFFFFFFFFFFFFFFFFFFFFFFFFFFFFFFFFFFFFFFF
310
FFFFFFFFFFFFFFFFFFFFFFFFFFFFFFFFFFFFFFFFFFFFFFFFF000FFFFFFFFFFFF
310
FFFFFFFFFFFFFFFFFFFFFFFFFFFFFFFFFFFFFFFFFFFFFFFFFFFFFFFFFFFFFFFF
310
FFFFFFFFFFFFFFFFFFFFFFFFFFFFFFFFFFFFFFFFFFFFFFFFFFFFFFFFFFFFFFFF
310
FFFFFFFFFFFFFFFFFFFFFFFFFFFFFFFFF000FFFFFFFFFFFFFFFFFFFFFFFFFFFF
310
FFFFFFFFFFFFFFFFFFFFFFFFFFFFFFFFFFFFFFFFFFFFFFFFFFFFFFFFFFFFFFFF
310
FFFFFFFFFFFFFFFFFFFFFFFFFFFFFFFFFFFFFFFFFFFFFFFFFFFFFFFFFFFFFFFF
310
FFFFFFFFFFFFFFFFF000FFFFFFFFFFFFFFFFFFFFFFFFFFFFFFFFFFFFFFFFFFFF
310
FFFFFFFFFFFFFFFFFFFFFFFFFFFFFFFFFFFFFFFFFFFFFFFFFFFFFFFFFFFFFFFF
310
FFFFFFFFFFFFFFFFFFFFFFFFFFFFFFFFFFFFFFFFFFFFFFFFFFFFFFFFFFFFFFFF
310
F000FFFFFFFFFFFFFFFFFFFFFFFFFFFFFFFFFFFFFFFFFFFFFFFFFFFFFFFFFFFF
310
FFFFFFFFFFFFFFFFFFFFFFFFFFFFFFFFFFFFFFFFFFFFFFFFFFFFFFFFFFFFFFFF
310
FFFFFFFFFFFFFFFFFFFFFFFFFFFFFFFFFFFFFFFFFFFFFFFFF000FFFFFFFFFFFF
310
FFFFFFFFFFFFFFFFFFFFFFFFFFFFFFFFFFFFFFFFFFFFFFFFFFFFFFFFFFFFFFFF
310
FFFFFFFFFFFFFFFFFFFFFFFFFFFFFFFFFFFFFFFFFFFFFFFFFFFFFFFFFFFFFFFF
310
FFFFFFFFFFFFFFFFFFFFFFFFFFFFFFFFF000FFFFFFFFFFFFFFFFFFFFFFFFFFFF
310
FFFFFFFFFFFFFFFFFFFFFFFFFFFFFFFFFFFFFFFFFFFFFFFFFFFFFFFFFFFFFFFF
310
FFFFFFFFFFFFFFFFFFFFFFFFFFFFFFFFFFFFFFFFFFFFFFFFFFFFFFFFFFFFFFFF
310
FFFFFFFFFFFFFFFFF000FFFFFFFFFFFFFFFFFFFFFFFFFFFFFFFFFFFFFFFFFFFF
310
FFFFFFFFFFFFFFFFFFFFFFFFFFFFFFFFFFFFFFFFFFFFFFFFFFFFFFFFFFFFFFFF
310
FFFFFFFFFFFFFFFFFFFFFFFFFFFFFFFFFFFFFFFFFFFFFFFFFFFFFFFFFFFFFFFF
310
F000FFFFFFFFFFFFFFFFFFFFFFFFFFFFFFFFFFFFFFFFFFFFFFFFFFFFFFFFFFFF
310
FFFFFFFFFFFFFFFFFFFFFFFFFFFFFFFFFFFFFFFFFFFFFFFFFFFFFFFFFFFFFFFF
310
FFFFFFFFFFFFFFFFFFFFFFFFFFFFFFFFFFFFFFFFFFFFFFFFF000FFFFFFFFFFFF
310
FFFFFFFFFFFFFFFFFFFFFFFFFFFFFFFFFFFFFFFFFFFFFFFFFFFFFFFFFFFFFFFF
310
FFFFFFFFFFFFFFFFFFFFFFFFFFFFFFFFFFFFFFFFFFFFFFFFFFFFFFFFFFFFFFFF
310
FFFFFFFFFFFFFFFFFFFFFFFFFFFFFFFFF000FFFFFFFFFFFFFFFFFFFFFFFFFFFF
310
FFFFFFFFFFFFFFFFFFFFFFFFFFFFFFFFFFFFFFFFFFFFFFFFFFFFFFFFFFFFFFFF
310
FFFFFFFFFFFFFFFFFFFFFFFFFFFFFFFFFFFFFFFFFFFFFFFFFFFFFFFFFFFFFFFF
310
FFFFFFFFFFFFFFFFF000FFFFF80003FFFFFFFFFFFFFFFFFFFFFFFFFFFFFFFFFF
310
FFFFF00007FFFFFFFFFF00007FFFFFF800000000000000007FFFFFFFFFFFFFFF
310
FFFFFFFC001FFFFFFFFFFFFFFC001FFFFFFFFFFFFFFFFFFFFFFFFFFE0007FFFF
310
F000FFFF8000007FFFFFFFF8000FFFFFC0007FFFFF80007FFFFF0000007FFFFF
310
FFF8000007FFFFF800000000000000007FFFFFF0001FFFFFFFFFFFC00001FFFF
310
FFFFFFFFC00001FFFFFFFF000000000003FFFFE000007FFFF000FFFE0000000F
310
FFFFFFF0000FFFFF80007FFFFF80007FFFFC0000001FFFFFFFC0000001FFFFF8
310
00000000000000007FFFFFF0001FFFFFFFFFFE0000003FFFFFFFFFFE0000003F
310
FFFFFF000000000003FFFF0000000FFFF000FFF800000003FFFFFFF00007FFFF
310
80007FFFFF80007FFFF000000007FFFFFF000000003FFFF80000000000000000
310
7FFFFFF0001FFFFFFFFFF80000000FFFFFFFFFF80000000FFFFFFF0000000000
310
03FFFC00000003FFF000FFE000000000FFFFFFF00007FFFF80003FFFFF80007F
310
FFC000000001FFFFFC000000001FFFF800000000000000007FFFFFF0001FFFFF
310
FFFFE000000003FFFFFFFFE000000003FFFFFF000000000003FFF000000000FF
310
F000FF80000000007FFFFFF00007FFFF80003FFFFF80007FFF8000000000FFFF
310
F80000000007FFF800000000000000007FFFFFF0001FFFFFFFFFC000000001FF
310
FFFFFFC000000001FFFFFF000000000003FFC0000000007FF000FF0000000000
310
3FFFFFE00007FFFF00003FFFFF80007FFE00000000003FFFF00000000003FFF8
310
00000000000000007FFFFFF0001FFFFFFFFF8000000000FFFFFFFF8000000000
310
FFFFFF000000000003FF80000000003FF000FE00000000001FFFFFE00003FFFF
310
00003FFFFF80007FFC00000000001FFFE00000000001FFF8000001FFFE000000
310
7FFFFFF0001FFFFFFFFE00000000003FFFFFFE00000000003FFFFF0000000000
310
03FF00000000001FF000FC00000000000FFFFFE00003FFFF00001FFFFF80007F
310
F800000000001FFFC00000000000FFF8000001FFFE0000007FFFFFF0001FFFFF
310
FFFC00000000001FFFFFFC00000000001FFFFF000000000003FE00000000000F
310
F000F8000000000007FFFFE00003FFFF00001FFFFF80007FF800000000000FFF
310
800000000000FFF8000001FFFE0000007FFFFFF0001FFFFFFFF800000000000F
310
FFFFF800000000000FFFFF000000000003FC000000000007F000F80000000000
310
03FFFFC00003FFFE00001FFFFF80007FF0000000000007FF0000000000007FF8
310
000001FFFE0000007FFFFFF0001FFFFFFFF0000000000007FFFFF00000000000
310
07FFFF000000000003F8000000000003F000F0000000000003FFFFC00001FFFE
310
00001FFFFF80007FE0000000000007FE0000000000003FF8000001FFFE000000
310
7FFFFFF0001FFFFFFFF0000000000007FFFFF0000000000007FFFF0000000000
310
03F800001F800003F000E00001FFF00001FFFFC00001FFFE00000FFFFF80007F
310
E00001FFE00003FE00001FFF00003FF8000001FFFE0000007FFFFFF0001FFFFF
310
FFE000003E000003FFFFE000003E000003FFFF000000000003F00001FFF80001
310
F000E00007FFFC0001FFFFC00001FFFE00000FFFFF80007FC0000FFFFC0003FC
310
0000FFFFC0001FF8000001FFFE0000007FFFFFF0001FFFFFFFC00003FFE00001
310
FFFFC00003FFE00001FFFF0001FFFFFFFFF00007FFFE0001F000E0000FFFFF00
310
00FFFF800001FFFC00000FFFFF80007FC0001FFFFE0001FC0001FFFFE0001FF8
310
000001FFFE0000007FFFFFF0001FFFFFFF80000FFFF80000FFFF80000FFFF800
310
00FFFF0003FFFFFFFFE0000FFFFF8000F000C0003FFFFF8000FFFF800000FFFC
310
000007FFFF80007F80003FFFFF0001FC0003FFFFF0001FF8000001FFFE000000
310
7FFFFFF0001FFFFFFF80003FFFFE0000FFFF80003FFFFE0000FFFF0003FFFFFF
310
FFE0003FFFFF8000F000C0003FFFFF8000FFFF800000FFFC000007FFFF80007F
310
80007FFFFF8001F80007FFFFF8000FF8000001FFFE0000007FFFFFF0001FFFFF
310
FF00007FFFFF00007FFF00007FFFFF00007FFF0003FFFFFFFFE0003FFFFFC000
310
F000C0007FFFFFC000FFFF000000FFFC000007FFFF80007F8000FFFFFF8000F8
310
000FFFFFF8000FF8000001FFFE0000007FFFFFF0001FFFFFFF0000FFFFFF8000
310
7FFF0000FFFFFF80007FFF0003FFFFFFFFC0007FFFFFC00070008000FFFFFFC0
310
00FFFF000000FFF8000007FFFF80007F8000FFFFFF8000F8000FFFFFF8000FF8
310
000001FFFE0000007FFFFFF0001FFFFFFE0001FFFFFFC0003FFE0001FFFFFFC0
310
003FFF0003FFFFFFFFC0007FFFFFE00070008000FFFFFFC0007FFF0000007FF8
310
000003FFFF80007F0001FFFFFF8000F8000FFFFFF8000FF8000001FFFE000000
310
7FFFFFF0001FFFFFFE0001FFFFFFC0003FFE0001FFFFFFC0003FFF0003FFFFFF
310
FFC000FFFFFFE00070008000FFFFFFC0007FFF0000007FF8000003FFFF80007F
310
0001FFFFFF8000F8001FFFFFF8000FF8000001FFFE0000007FFFFFF0001FFFFF
310
FE0003FFFFFFE0003FFE0003FFFFFFE0003FFF0003FFFFFFFFC000FFFFFFE000
310
70008000FFFFFFC0007FFE0000007FF8000003FFFF80007F0001FFFFFF8000F0
310
001FFFFFF8000FF8000001FFFE0000007FFFFFF0001FFFFFFC0003FFFFFFE000
310
1FFC0003FFFFFFE0001FFF0003FFFFFFFFC000FFFFFFC00070008000FFFFFF80
310
007FFE0000007FF0000003FFFF80007F0001FFFFFF0000F0001FFFFFF8000FF8
310
000001FFFE0000007FFFFFF0001FFFFFFC0007FFFFFFF0001FFC0007FFFFFFF0
310
001FFF0003FFFFFFFFC000FFFFFFC00070008001FFFFFF0000FFFE0000003FF0
310
000001FFFF80007F0001FFFFFF0000F8001FFFFFF0000FF8000001FFFE000000
310
7FFFFFF0001FFFFFFC0007FFFFFFF0001FFC0007FFFFFFF0001FFF0003FFFFFF
310
FFC001FFFFFF80007000FFFFFFFFFE0000FFFE0008003FF0008001FFFF80007F
310
FFFFFFFFFC0000FFFFFFFFFFE0000FF8000001FFFE0000007FFFFFF0001FFFFF
310
F8000FFFFFFFF8000FF8000FFFFFFFF8000FFF0003FFFFFFFFFFFFFFFFFF0000
310
7000FFFFFFFFFC0000FFFC0008003FF0008001FFFF80007FFFFFFFFFF80001FF
310
FFFFFFFF80000FF8000001FFFE0000007FFFFFF0001FFFFFF8000FFFFFFFF800
310
0FF8000FFFFFFFF8000FFF0003FFFFFFFFFFFFFFFFFE0000F000FFFFFFFFE000
310
00FFFC000C003FE000C001FFFF80007FFFFFFFFFC00001FFFFFFFFFE00001FF8
310
000001FFFE0000007FFFFFF0001FFFFFF8000FFFFFFFF8000FF8000FFFFFFFF8
310
000FFF0003FFFFFFFFFFFFFFFFF00000F000FFFFFFFE000001FFFC000C001FE0
310
00C000FFFF80007FFFFFFFFE000001FFFFFFFFE000001FF80FFFFFFFFFFFFFC0
310
7FFFFFF0001FFFFFF8000FFFFFFFF8000FF8000FFFFFFFF8000FFF0003FFFFFF
310
FFFFFFFFFF800000F000FFFFFFC0000001FFFC001C001FE001C000FFFF80007F
310
FFFFFF80000003FFFFFFF80000001FF80FFFFFFFFFFFFFC07FFFFFF0001FFFFF
310
F8001FFFFFFFFC000FF8001FFFFFFFFC000FFF0003FFFFFFFFFFFFFFF0000001
310
F000FFFFF800000001FFF8001C001FE001C000FFFF80007FFFFFF800000003FF
310
FFFF800000003FF80FFFFFFFFFFFFFC07FFFFFF0001FFFFFF8001FFFFFFFFC00
310
0FF8001FFFFFFFFC000FFF0003FFFFFFFFFFFFFE00000001F000FFFFC0000000
310
03FFF8001E001FC001E000FFFF80007FFFFF8000000007FFFFFC000000003FF8
310
0FFFFFFFFFFFFFC07FFFFFF0001FFFFFF8001FFFFFFFFC000FF8001FFFFFFFFC
310
000FFF0003FFFFFFFFFFFFE000000003F000FFFE0000000007FFF8001E000FC0
310
01E0007FFF80007FFFFE0000000007FFFFE0000000007FF80FFFFFFFFFFFFFC0
310
7FFFFFF0001FFFFFF0001FFFFFFFFC0007F0001FFFFFFFFC0007FF0003FFFFFF
310
FFFFFF0000000003F000FFF80000000007FFF8001E000FC003E0007FFF80007F
310
FFF0000000000FFFFF8000000000FFF80FFFFFFFFFFFFFC07FFFFFF0001FFFFF
310
F0001FFFFFFFFC0007F0001FFFFFFFFC0007FF0003FFFFFFFFFFFC0000000007
310
F000FFE0000000000FFFF0003E000FC003E0007FFF80007FFFC0000000001FFF
310
FE0000000001FFF80FFFFFFFFFFFFFC07FFFFFF0001FFFFFF0001FFFFFFFFC00
310
07F0001FFFFFFFFC0007FF0003FFFFFFFFFFF0000000000FF000FFC000000000
310
1FFFF0003F000F8003F0003FFF80007FFF80000000003FFFF80000000003FFF8
310
0FFFFFFFFFFFFFC07FFFFFF0001FFFFFF0001FFFFFFFFC0007F0001FFFFFFFFC
310
0007FF0003FFFFFFFFFFE0000000001FF000FF00000000007FFFF0003F000780
310
03F0003FFF80007FFF00000000007FFFF00000000007FFF80FFFFFFFFFFFFFC0
310
7FFFFFF0001FFFFFF0001FFFFFFFFC0007F0001FFFFFFFFC0007FF0003FFFFFF
310
FFFF80000000007FF000FE0000000000FFFFE0003F00078007F0003FFF80007F
310
FE0000000001FFFFE0000000001FFFF80FFFFFFFFFFFFFC07FFFFFF0001FFFFF
310
F0001FFFFFFFFC0007F0001FFFFFFFFC0007FF0003FFFFFFFFFF0000000000FF
310
F000FC0000000003FFFFE0007F00078007F0003FFF80007FFC0000000007FFFF
310
C0000000007FFFF80FFFFFFFFFFFFFC07FFFFFF0001FFFFFF8001FFFFFFFFC00
310
0FF8001FFFFFFFFC000FFF0003FFFFFFFFFE0000000003FFF000FC000000000F
310
FFFFE0007F80070007F8001FFF80007FF8000000001FFFFF8000000001FFFFF8
310
0FFFFFFFFFFFFFC07FFFFFF0001FFFFFF8001FFFFFFFFC000FF8001FFFFFFFFC
310
000FFF0003FFFFFFFFFC000000000FFFF000F8000000007FFFFFE0007F800700
310
07F8001FFF80007FF000000000FFFFFF800000000FFFFFF80FFFFFFFFFFFFFC0
310
7FFFFFF0001FFFFFF8000FFFFFFFF8000FF8000FFFFFFFF8000FFF0003FFFFFF
310
FFFC000000007FFFF000F800000007FFFFFFC0007F8003000FF8001FFF80007F
310
F000000007FFFFFF000000007FFFFFF80FFFFFFFFFFFFFC07FFFFFF0001FFFFF
310
F8000FFFFFFFF8000FF8000FFFFFFFF8000FFF0003FFFFFFFFF80000000FFFFF
310
F000F0000000FFFFFFFFC000FF8003000FF8001FFF80007FE0000000FFFFFFFF
310
0000000FFFFFFFF8000001FFFE0000007FFFFFF0001FFFFFF8000FFFFFFFF800
310
0FF8000FFFFFFFF8000FFF0003FFFFFFFFF8000000FFFFFFF000F000000FFFFF
310
FFFFC000FFC002000FF8000FFF80007FE000001FFFFFFFFE000001FFFFFFFFF8
310
000001FFFE0000007FFFFFF0001FFFFFF8000FFFFFFFF8000FF8000FFFFFFFF8
310
000FFF0003FFFFFFFFF000001FFFFFFFF000E00000FFFFFFFFFFC000FFC00200
310
0FFC000FFF80007FE00001FFFFFFFFFE00001FFFFFFFFFF8000001FFFE000000
310
7FFFFFF0001FFFFFFC000FFFFFFFF8001FFC000FFFFFFFF8001FFF0003FFFFFF
310
FFF00001FFFFFFFFF000E00007FFFFFFFFFF8000FFC000001FFC000FFF80007F
310
C0000FFFFFFFFFFE0000FFFFFFFFFFF8000001FFFE0000007FFFFFF0001FFFFF
310
FC0007FFFFFFF0001FFC0007FFFFFFF0001FFF0003FFFFFFFFF00007FFFFFFFF
310
F000E0001FFFFFFFFFFF8000FFC000001FFC000FFF80007FC0003FFFFFFFFFFE
310
0001FFFFFFFFFFF8000001FFFE0000007FFFFFF0001FFFFFFC0007FFFFFFF000
310
1FFC0007FFFFFFF0001FFF0003FFFFFFFFF0001FFFFFFFFFF000E0003FFFFF00
310
03FF8001FFE000001FFC0007FF80007FC0007FFFFF0007FC0003FFFFF0003FF8
310
000001FFFE0000007FFFFFF0001FFFFFFC0003FFFFFFE0001FFC0003FFFFFFE0
310
001FFF0003FFFFFFFFF0003FFFFFFFFFF000E0003FFFFF0001FF8001FFE00000
310
1FFE0007FF80007FC0007FFFFE0003FC0007FFFFE0003FF8000001FFFE000000
310
7FFFFFF0001FFFFFFE0003FFFFFFE0003FFE0003FFFFFFE0003FFF0003FFFFFF
310
FFF0003FFFFF8001F000E0003FFFFF0001FF0001FFE000001FFE0007FF80007F
310
C0007FFFFE0003FC0007FFFFE0003FF8000001FFFE0000007FFFFFF0001FFFFF
310
FE0001FFFFFFC0003FFE0001FFFFFFC0003FFF0003FFFFFFFFF0003FFFFF0001
310
F000E0003FFFFF0003FF0001FFE000003FFE0007FF80007FC0007FFFFE0003FC
310
0007FFFFE0003FF8000001FFFE0000007FFFFFF0001FFFFFFF0001FFFFFFC000
310
7FFF0001FFFFFFC0007FFF0003FFFFFFFFF0003FFFFF0001F000E0003FFFFE00
310
03FF0003FFF000003FFE0003FF80007FC0007FFFFC0003FE0007FFFFE0003FF8
310
000001FFFE0000007FFFFFF0001FFFFFFF0000FFFFFF80007FFF0000FFFFFF80
310
007FFF0003FFFFFFFFF0003FFFFF0001F000E0003FFFFE0003FF0003FFF00000
310
3FFF0003FF80007FC0007FFFFC0007FE0007FFFFC0003FF8000001FFFE000000
310
7FFFFFF0001FFFFFFF80007FFFFF0000FFFF80007FFFFF0000FFFF0003FFFFFF
310
FFF0003FFFFF0003F000E0003FFFFC0003FE0003FFF000003FFF0003FF80007F
310
E0003FFFF80007FE0003FFFFC0007FF8000001FFFE0000007FFFFFF0001FFFFF
310
FF80003FFFFE0000FFFF80003FFFFE0000FFFF0003FFFFFFFFF0001FFFFE0003
310
F000F0001FFFF80003FE0003FFF000007FFF0001FF80007FE0003FFFF00007FE
310
0001FFFF80007FF8000001FFFE0000007FFFFFF0001FFFFFFFC0000FFFF80001
310
FFFFC0000FFFF80001FFFF0003FFFFFFFFF0001FFFFC0003F000F0000FFFF000
310
07FE0007FFF800007FFF0001FF80007FE0001FFFE00007FF0000FFFE00007FF8
310
000001FFFE0000007FFFFFF0001FFFFFFFC00003FFE00001FFFFC00003FFE000
310
01FFFF0003FFFFFFFFF8000FFFF80003F000F00003FFC00007FC0007FFF80000
310
7FFF8001FF80007FF00007FF80000FFF00007FF80000FFF8000001FFFE000000
310
7F80000000000001FFE000003E000003FFFFE000003E000003FFFF0003FFFFFF
310
FFF80003FFE00007F000F800000000000FFC0007FFF800007FFF8001FF80007F
310
F000000000000FFF000000000000FFF8000001FFFE0000007F80000000000001
310
FFF0000000000007FFFFF0000000000007FFFF0003FFFFFFFFFC00007E000007
310
F000F800000000000FFC0007FFF80000FFFF8000FF80007FF800000000001FFF
310
800000000001FFF8000001FFFE0000007F80000000000001FFF800000000000F
310
FFFFF800000000000FFFFF0003FFFFFFFFFC00000000000FF000FC0000000000
310
1FFC0007FFFC0000FFFF8000FF80007FF800000000003FFFC00000000001FFF8
310
000001FFFE0000007F80000000000001FFF800000000000FFFFFF80000000000
310
0FFFFF0003FFFFFFFFFE00000000001FF000FE00000000003FF8000FFFFC0000
310
FFFF8000FF80007FFC00000000003FFFC00000000003FFF8000001FFFE000000
310
7F80000000000001FFFC00000000001FFFFFFC00000000001FFFFF0003FFFFFF
310
FFFF00000000001FF000FF00000000003FF8000FFFFC0000FFFFC000FF80007F
310
FE00000000007FFFE00000000007FFF8000001FFFE0000007F80000000000001
310
FFFE00000000003FFFFFFE00000000003FFFFF0003FFFFFFFFFF80000000003F
310
F000FF80000000007FF8000FFFFC0001FFFFC0007F80007FFF0000000000FFFF
310
F0000000000FFFF800000000000000007F80000000000001FFFF8000000000FF
310
FFFFFF8000000000FFFFFF0003FFFFFFFFFFC0000000007FF000FFC000000000
310
FFF8000FFFFE0001FFFFC0007F80007FFF8000000001FFFFF8000000001FFFF8
310
00000000000000007F80000000000001FFFFC000000001FFFFFFFFC000000001
310
FFFFFF0003FFFFFFFFFFE000000000FFF000FFE000000003FFF0001FFFFE0001
310
FFFFC0007F80007FFFC000000007FFFFFE000000003FFFF80000000000000000
310
7F80000000000001FFFFE000000003FFFFFFFFE000000003FFFFFF0003FFFFFF
310
FFFFF000000003FFF000FFF80000000FFFF0001FFFFE0001FFFFE0007F80007F
310
FFF00000000FFFFFFF00000000FFFFF800000000000000007F80000000000001
310
FFFFF80000000FFFFFFFFFF80000000FFFFFFF0003FFFFFFFFFFFC0000000FFF
310
F000FFFE0000003FFFF0001FFFFE0003FFFFE0003F80007FFFFC0000003FFFFF
310
FFC0000003FFFFF800000000000000007F80000000000001FFFFFE0000003FFF
310
FFFFFFFE0000003FFFFFFF0003FFFFFFFFFFFF0000003FFFF000FFFF800000FF
310
FFF0001FFFFF0003FFFFE0003F80007FFFFF000001FFFFFFFFF800001FFFFFF8
310
00000000000000007F80000000000001FFFFFFC00001FFFFFFFFFFFFC00001FF
310
FFFFFF0003FFFFFFFFFFFFC00000FFFFF000FFFFF8000FFFFFFFFFFFFFFFFFFF
310
FFFFFFFFFFFFFFFFFFFFF0001FFFFFFFFFFF0000FFFFFFF80000000000000000
310
7FFFFFFFFFFFFFFFFFFFFFFC001FFFFFFFFFFFFFFC001FFFFFFFFFFFFFFFFFFF
310
FFFFFFFC001FFFFFF000FFFFFFFFFFFFFFFFFFFFFFFFFFFFFFFFFFFFFFFFFFFF
310
FFFFFFFFFFFFFFFFFFFFFFFFFFFFFFFFFFFFFFFFFFFFFFFFFFFFFFFFFFFFFFFF
310
FFFFFFFFFFFFFFFFFFFFFFFFFFFFFFFFFFFFFFFFFFFFFFFFFFFFFFFFFFFFFFFF
310
F000FFFFFFFFFFFFFFFFFFFFFFFFFFFFFFFFFFFFFFFFFFFFFFFFFFFFFFFFFFFF
310
FFFFFFFFFFFFFFFFFFFFFFFFFFFFFFFFFFFFFFFFFFFFFFFFFFFFFFFFFFFFFFFF
310
FFFFFFFFFFFFFFFFFFFFFFFFFFFFFFFFFFFFFFFFFFFFFFFFF000FFFFFFFFFFFF
310
FFFFFFFFFFFFFFFFFFFFFFFFFFFFFFFFFFFFFFFFFFFFFFFFFFFFFFFFFFFFFFFF
310
FFFFFFFFFFFFFFFFFFFFFFFFFFFFFFFFFFFFFFFFFFFFFFFFFFFFFFFFFFFFFFFF
310
FFFFFFFFFFFFFFFFFFFFFFFFFFFFFFFFF000FFFFFFFFFFFFFFFFFFFFFFFFFFFF
310
FFFFFFFFFFFFFFFFFFFFFFFFFFFFFFFFFFFFFFFFFFFFFFFFFFFFFFFFFFFFFFFF
310
FFFFFFFFFFFFFFFFFFFFFFFFFFFFFFFFFFFFFFFFFFFFFFFFFFFFFFFFFFFFFFFF
310
FFFFFFFFFFFFFFFFF000FFFFFFFFFFFFFFFFFFFFFFFFFFFFFFFFFFFFFFFFFFFF
310
FFFFFFFFFFFFFFFFFFFFFFFFFFFFFFFFFFFFFFFFFFFFFFFFFFFFFFFFFFFFFFFF
310
FFFFFFFFFFFFFFFFFFFFFFFFFFFFFFFFFFFFFFFFFFFFFFFFFFFFFFFFFFFFFFFF
310
F000FFFFFFFFFFFFFFFFFFFFFFFFFFFFFFFFFFFFFFFFFFFFFFFFFFFFFFFFFFFF
310
FFFFFFFFFFFFFFFFFFFFFFFFFFFFFFFFFFFFFFFFFFFFFFFFFFFFFFFFFFFFFFFF
310
FFFFFFFFFFFFFFFFFFFFFFFFFFFFFFFFFFFFFFFFFFFFFFFFF000FFFFFFFFFFFF
310
FFFFFFFFFFFFFFFFFFFFFFFFFFFFFFFFFFFFFFFFFFFFFFFFFFFFFFFFFFFFFFFF
310
FFFFFFFFFFFFFFFFFFFFFFFFFFFFFFFFFFFFFFFFFFFFFFFFFFFFFFFFFFFFFFFF
310
FFFFFFFFFFFFFFFFFFFFFFFFFFFFFFFFF000FFFFFFFFFFFFFFFFFFFFFFFFFFFF
310
FFFFFFFFFFFFFFFFFFFFFFFFFFFFFFFFFFFFFFFFFFFFFFFFFFFFFFFFFFFFFFFF
310
FFFFFFFFFFFFFFFFFFFFFFFFFFFFFFFFFFFFFFFFFFFFFFFFFFFFFFFFFFFFFFFF
310
FFFFFFFFFFFFFFFFF000FFFFFFFFFFFFFFFFFFFFFFFFFFFFFFFFFFFFFFFFFFFF
310
FFFFFFFFFFFFFFFFFFFFFFFFFFFFFFFFFFFFFFFFFFFFFFFFFFFFFFFFFFFFFFFF
310
FFFFFFFFFFFFFFFFFFFFFFFFFFFFFFFFFFFFFFFFFFFFFFFFFFFFFFFFFFFFFFFF
310
F000FFFFFFFFFFFFFFFFFFFFFFFFFFFFFFFFFFFFFFFFFFFFFFFFFFFFFFFFFFFF
310
FFFFFFFFFFFFFFFFFFFFFFFFFFFFFFFFFFFFFFFFFFFFFFFFFFFFFFFFFFFFFFFF
310
FFFFFFFFFFFFFFFFFFFFFFFFFFFFFFFFFFFFFFFFFFFFFFFFF000FFFFFFFFFFFF
310
FFFFFFFFFFFFFFFFFFFFFFFFFFFFFFFFFFFFFFFFFFFFFFFFFFFFFFFFFFFFFFFF
310
FFFFFFFFFFFFFFFFFFFFFFFFFFFFFFFFFFFFFFFFFFFFFFFFFFFFFFFFFFFFFFFF
310
FFFFFFFFFFFFFFFFFFFFFFFFFFFFFFFFF000FFFFFFFFFFFFFFFFFFFFFFFFFFFF
310
FFFFFFFFFFFFFFFFFFFFFFFFFFFFFFFFFFFFFFFFFFFFFFFFFFFFFFFFFFFFFFFF
310
FFFFFFFFFFFFFFFFFFFFFFFFFFFFFFFFFFFFFFFFFFFFFFFFFFFFFFFFFFFFFFFF
310
FFFFFFFFFFFFFFFFF000FFFFFFFFFFFFFFFFFFFFFFFFFFFFFFFFFFFFFFFFFFFF
310
FFFFFFFFFFFFFFFFFFFFFFFFFFFFFFFFFFFFFFFFFFFFFFFFFFFFFFFFFFFFFFFF
310
FFFFFFFFFFFFFFFFFFFFFFFFFFFFFFFFFFFFFFFFFFFFFFFFFFFFFFFFFFFFFFFF
310
F000FFFFFFFFFFFFFFFFFFFFFFFFFFFFFFFFFFFFFFFFFFFFFFFFFFFFFFFFFFFF
310
FFFFFFFFFFFFFFFFFFFFFFFFFFFFFFFFFFFFFFFFFFFFFFFFFFFFFFFFFFFFFFFF
310
FFFFFFFFFFFFFFFFFFFFFFFFFFFFFFFFFFFFFFFFFFFFFFFFF000FFFFFFFFFFFF
310
FFFFFFFFFFFFFFFFFFFFFFFFFFFFFFFFFFFFFFFFFFFFFFFFFFFFFFFFFFFFFFFF
310
FFFFFFFFFFFFFFFFFFFFFFFFFFFFFFFFFFFFFFFFFFFFFFFFFFFFFFFFFFFFFFFF
310
FFFFFFFFFFFFFFFFFFFFFFFFFFFFFFFFF000FFFFFFFFFFFFFFFFFFFFFFFFFFFF
310
FFFFFFFFFFFFFFFFFFFFFFFFFFFFFFFFFFFFFFFFFFFFFFFFFFFFFFFFFFFFFFFF
310
FFFFFFFFFFFFFFFFFFFFFFFFFFFFFFFFFFFFFFFFFFFFFFFFFFFFFFFFFFFFFFFF
310
FFFFFFFFFFFFFFFFF000FFFFFFFFFFFFFFFFFFFFFFFFFFFFFFFFFFFFFFFFFFFF
310
FFFFFFFFFFFFFFFFFFFFFFFFFFFFFFFFFFFFFFFFFFFFFFFFFFFFFFFFFFFFFFFF
310
FFFFFFFFFFFFFFFFFFFFFFFFFFFFFFFFFFFFFFFFFFFFFFFFFFFFFFFFFFFFFFFF
310
F000FFFFFFFFFFFFFFFFFFFFFFFFFFFFFFFFFFFFFFFFFFFFFFFFFFFFFFFFFFFF
310
FFFFFFFFFFFFFFFFFFFFFFFFFFFFFFFFFFFFFFFFFFFFFFFFFFFFFFFFFFFFFFFF
310
FFFFFFFFFFFFFFFFFFFFFFFFFFFFFFFFFFFFFFFFFFFFFFFFF000FFFFFFFFFFFF
310
FFFFFFFFFFFFFFFFFFFFFFFFFFFFFFFFFFFFFFFFFFFFFFFFFFFFFFFFFFFFFFFF
310
FFFFFFFFFFFFFFFFFFFFFFFFFFFFFFFFFFFFFFFFFFFFFFFFFFFFFFFFFFFFFFFF
310
FFFFFFFFFFFFFFFFFFFFFFFFFFFFFFFFF000FFFFFFFFFFFFFFFFFFFFFFFFFFFF
310
FFFFFFFFFFFFFFFFFFFFFFFFFFFFFFFFFFFFFFFFFFFFFFFFFFFFFFFFFFFFFFFF
310
FFFFFFFFFFFFFFFFFFFFFFFFFFFFFFFFFFFFFFFFFFFFFFFFFFFFFFFFFFFFFFFF
310
FFFFFFFFFFFFFFFFF000FFFFFFFFFFFFFFFFFFFFFFFFFFFFFFFFFFFFFFFFFFFF
310
FFFFFFFFFFFFFFFFFFFFFFFFFFFFFFFFFFFFFFFFFFFFFFFFFFFFFFFFFFFFFFFF
310
FFFFFFFFFFFFFFFFFFFFFFFFFFFFFFFFFFFFFFFFFFFFFFFFFFFFFFFFFFFFFFFF
310
F000FFFFFFFFFFFFFFFFFFFFFFFFFFFFFFFFFFFFFFFFFFFFFFFFFFFFFFFFFFFF
310
FFFFFFFFFFFFFFFFFFFFFFFFFFFFFFFFFFFFFFFFFFFFFFFFFFFFFFFFFFFFFFFF
310
FFFFFFFFFFFFFFFFFFFFFFFFFFFFFFFFFFFFFFFFFFFFFFFFF000FFFFFFFFFFFF
310
FFFFFFFFFFFFFFFFFFFFFFFFFFFFFFFFFFFFFFFFFFFFFFFFFFFFFFFFFFFFFFFF
310
FFFFFFFFFFFFFFFFFFFFFFFFFFFFFFFFFFFFFFFFFFFFFFFFFFFFFFFFFFFFFFFF
310
FFFFFFFFFFFFFFFFFFFFFFFFFFFFFFFFF0000000000000000000000000000000
310
0000000000000000000000000000000000000000000000000000000000000000
310
0000000000000000000000000000000000000000000000000000000000000000
310
0000000000000000000000000000000000000000000000000000000000000000
310
0000000000000000000000000000000000000000000000000000000000000000
310
0000000000000000000000000000000000000000000000000000000000000000
310
0000000000000000000000000000000000000000000000000000000000000000
310
0000000000000000000000000000000000000000000000000000000000000000
310
0000000000000000000000000000000000000000000000000000000000000000
310
0000000000000000000000000000000000000000000000000000000000000000
310
0000000000000000000000000000000000000000000000000000000000000000
310
0000000000000000000000000000000000000000000000000000000000000000
310
0000000000000000000000000000000000000000000000000000000000000000
310
0000000000000000000000000000000000000000000000000000000000000000
310
0000000000000000000000000000000000000000000000000000000000000000
310
0000000000000000000000000000000000000000000000000000000000000000
  1
OLE
  0
ENDSEC
  0
SECTION
  2
OBJECTS
  0
DICTIONARY
  5
C
330
0
100
AcDbDictionary
281
     1
  3
ACAD_GROUP
350
D
  3
ACAD_LAYOUT
350
1A
  3
ACAD_MLINESTYLE
350
17
  3
ACAD_PLOTSETTINGS
350
19
  3
ACAD_PLOTSTYLENAME
350
E
  0
DICTIONARY
  5
D
102
{ACAD_REACTORS
330
C
102
}
330
C
100
AcDbDictionary
281
     1
  0
DICTIONARY
  5
1A
102
{ACAD_REACTORS
330
C
102
}
330
C
100
AcDbDictionary
281
     1
  3
Layout1
350
1E
  3
Layout2
350
26
  3
Model
350
22
  0
DICTIONARY
  5
17
102
{ACAD_REACTORS
330
C
102
}
330
C
100
AcDbDictionary
281
     1
  3
Standard
350
18
  0
DICTIONARY
  5
19
102
{ACAD_REACTORS
330
C
102
}
330
C
100
AcDbDictionary
281
     1
  0
ACDBDICTIONARYWDFLT
  5
E
102
{ACAD_REACTORS
330
C
102
}
330
C
100
AcDbDictionary
281
     1
  3
Normal
350
F
100
AcDbDictionaryWithDefault
340
F
  0
LAYOUT
  5
1E
102
{ACAD_REACTORS
330
1A
102
}
330
1A
100
AcDbPlotSettings
  1

  2
none_device
  4

  6

 40
0.0
 41
0.0
 42
0.0
 43
0.0
 44
0.0
 45
0.0
 46
0.0
 47
0.0
 48
0.0
 49
0.0
140
0.0
141
0.0
142
1.0
143
1.0
 70
   688
 72
     0
 73
     0
 74
     5
  7

 75
    16
147
1.0
148
0.0
149
0.0
100
AcDbLayout
  1
Layout1
 70
     1
 71
     1
 10
0.0
 20
0.0
 11
420.0
 21
297.0
 12
0.0
 22
0.0
 32
0.0
 14
1.0000000000E+20
 24
1.0000000000E+20
 34
1.0000000000E+20
 15
-1.0000000000E+20
 25
-1.0000000000E+20
 35
-1.0000000000E+20
146
0.0
 13
0.0
 23
0.0
 33
0.0
 16
1.0
 26
0.0
 36
0.0
 17
0.0
 27
1.0
 37
0.0
 76
     0
330
1B
  0
LAYOUT
  5
26
102
{ACAD_REACTORS
330
1A
102
}
330
1A
100
AcDbPlotSettings
  1

  2
none_device
  4

  6

 40
0.0
 41
0.0
 42
0.0
 43
0.0
 44
0.0
 45
0.0
 46
0.0
 47
0.0
 48
0.0
 49
0.0
140
0.0
141
0.0
142
1.0
143
1.0
 70
   688
 72
     0
 73
     0
 74
     5
  7

 75
    16
147
1.0
148
0.0
149
0.0
100
AcDbLayout
  1
Layout2
 70
     1
 71
     2
 10
0.0
 20
0.0
 11
0.0
 21
0.0
 12
0.0
 22
0.0
 32
0.0
 14
0.0
 24
0.0
 34
0.0
 15
0.0
 25
0.0
 35
0.0
146
0.0
 13
0.0
 23
0.0
 33
0.0
 16
1.0
 26
0.0
 36
0.0
 17
0.0
 27
1.0
 37
0.0
 76
     0
330
23
  0
LAYOUT
  5
22
102
{ACAD_REACTORS
330
1A
102
}
330
1A
100
AcDbPlotSettings
  1

  2
none_device
  4

  6

 40
0.0
 41
0.0
 42
0.0
 43
0.0
 44
0.0
 45
0.0
 46
0.0
 47
0.0
 48
0.0
 49
0.0
140
0.0
141
0.0
142
1.0
143
1.0
 70
  1712
 72
     0
 73
     0
 74
     0
  7

 75
     0
147
1.0
148
0.0
149
0.0
100
AcDbLayout
  1
Model
 70
     1
 71
     0
 10
0.0
 20
0.0
 11
297.0
 21
210.0
 12
0.0
 22
0.0
 32
0.0
 14
0.0
 24
0.0
 34
0.0
 15
297.0
 25
210.0
 35
0.0
146
0.0
 13
0.0
 23
0.0
 33
0.0
 16
1.0
 26
0.0
 36
0.0
 17
0.0
 27
1.0
 37
0.0
 76
     0
330
1F
331
29
  0
MLINESTYLE
  5
18
102
{ACAD_REACTORS
330
17
102
}
330
17
100
AcDbMlineStyle
  2
Standard
 70
     0
  3

 62
   256
 51
90.0
 52
90.0
 71
     2
 49
0.5
 62
   256
  6
BYLAYER
 49
-0.5
 62
   256
  6
BYLAYER
  0
ACDBPLACEHOLDER
  5
F
102
{ACAD_REACTORS
330
E
102
}
330
E
  0
ENDSEC
  0
EOF
