  0
SECTION
  2
HEADER
  9
$ACADVER
  1
AC1015
  9
$ACADMAINTVER
 70
     6
  9
$DWGCODEPAGE
  3
ANSI_1252
  9
$INSBASE
 10
0.0
 20
0.0
 30
0.0
  9
$EXTMIN
 10
0.0
 20
0.0
 30
0.0
  9
$EXTMAX
 10
297.0
 20
210.0
 30
0.0
  9
$LIMMIN
 10
0.0
 20
0.0
  9
$LIMMAX
 10
297.0
 20
210.0
  9
$ORTHOMODE
 70
     0
  9
$REGENMODE
 70
     1
  9
$FILLMODE
 70
     1
  9
$QTEXTMODE
 70
     0
  9
$MIRRTEXT
 70
     1
  9
$LTSCALE
 40
1.0
  9
$ATTMODE
 70
     1
  9
$TEXTSIZE
 40
2.0
  9
$TRACEWID
 40
1.0
  9
$TEXTSTYLE
  7
Standard
  9
$CLAYER
  8
0
  9
$CELTYPE
  6
ByLayer
  9
$CECOLOR
 62
   256
  9
$CELTSCALE
 40
1.0
  9
$DISPSILH
 70
     0
  9
$DIMSCALE
 40
1.0
  9
$DIMASZ
 40
3.0
  9
$DIMEXO
 40
0.0
  9
$DIMDLI
 40
3.75
  9
$DIMRND
 40
0.0
  9
$DIMDLE
 40
0.0
  9
$DIMEXE
 40
1.0
  9
$DIMTP
 40
0.0
  9
$DIMTM
 40
0.0
  9
$DIMTXT
 40
2.0
  9
$DIMCEN
 40
2.5
  9
$DIMTSZ
 40
0.0
  9
$DIMTOL
 70
     0
  9
$DIMLIM
 70
     0
  9
$DIMTIH
 70
     1
  9
$DIMTOH
 70
     1
  9
$DIMSE1
 70
     0
  9
$DIMSE2
 70
     0
  9
$DIMTAD
 70
     1
  9
$DIMZIN
 70
     0
  9
$DIMBLK
  1

  9
$DIMASO
 70
     1
  9
$DIMSHO
 70
     1
  9
$DIMPOST
  1

  9
$DIMAPOST
  1

  9
$DIMALT
 70
     0
  9
$DIMALTD
 70
     3
  9
$DIMALTF
 40
0.0393700787
  9
$DIMLFAC
 40
1.0
  9
$DIMTOFL
 70
     1
  9
$DIMTVP
 40
0.0
  9
$DIMTIX
 70
     0
  9
$DIMSOXD
 70
     0
  9
$DIMSAH
 70
     0
  9
$DIMBLK1
  1

  9
$DIMBLK2
  1

  9
$DIMSTYLE
  2
ISO-25
  9
$DIMCLRD
 70
     0
  9
$DIMCLRE
 70
     0
  9
$DIMCLRT
 70
     0
  9
$DIMTFAC
 40
1.0
  9
$DIMGAP
 40
1.524
  9
$DIMJUST
 70
     0
  9
$DIMSD1
 70
     0
  9
$DIMSD2
 70
     0
  9
$DIMTOLJ
 70
     0
  9
$DIMTZIN
 70
     0
  9
$DIMALTZ
 70
     0
  9
$DIMALTTZ
 70
     0
  9
$DIMUPT
 70
     0
  9
$DIMDEC
 70
     2
  9
$DIMTDEC
 70
     3
  9
$DIMALTU
 70
     2
  9
$DIMALTTD
 70
     3
  9
$DIMTXSTY
  7
Standard
  9
$DIMAUNIT
 70
     0
  9
$DIMADEC
 70
     2
  9
$DIMALTRND
 40
0.0
  9
$DIMAZIN
 70
     0
  9
$DIMDSEP
 70
    44
  9
$DIMATFIT
 70
     3
  9
$DIMFRAC
 70
     0
  9
$DIMLDRBLK
  1

  9
$DIMLUNIT
 70
     2
  9
$DIMLWD
 70
    -2
  9
$DIMLWE
 70
    -2
  9
$DIMTMOVE
 70
     0
  9
$LUNITS
 70
     2
  9
$LUPREC
 70
     2
  9
$SKETCHINC
 40
1.0
  9
$FILLETRAD
 40
10.0
  9
$AUNITS
 70
     0
  9
$AUPREC
 70
     2
  9
$MENU
  1
.
  9
$ELEVATION
 40
0.0
  9
$PELEVATION
 40
0.0
  9
$THICKNESS
 40
0.0
  9
$LIMCHECK
 70
     0
  9
$CHAMFERA
 40
10.0
  9
$CHAMFERB
 40
10.0
  9
$CHAMFERC
 40
20.0
  9
$CHAMFERD
 40
0.0
  9
$SKPOLY
 70
     0
  9
$TDCREATE
 40
2456071.677467986
  9
$TDUCREATE
 40
2456071.594134653
  9
$TDUPDATE
 40
2456071.677469618
  9
$TDUUPDATE
 40
2456071.594136285
  9
$TDINDWG
 40
0.0000000116
  9
$TDUSRTIMER
 40
0.0000000116
  9
$USRTIMER
 70
     1
  9
$ANGBASE
 50
0.0
  9
$ANGDIR
 70
     0
  9
$PDMODE
 70
     0
  9
$PDSIZE
 40
-1.0
  9
$PLINEWID
 40
0.0
  9
$SPLFRAME
 70
     0
  9
$SPLINETYPE
 70
     6
  9
$SPLINESEGS
 70
     8
  9
$HANDSEED
  5
25F
  9
$SURFTAB1
 70
     6
  9
$SURFTAB2
 70
     6
  9
$SURFTYPE
 70
     6
  9
$SURFU
 70
     6
  9
$SURFV
 70
     6
  9
$UCSBASE
  2

  9
$UCSNAME
  2

  9
$UCSORG
 10
0.0
 20
0.0
 30
0.0
  9
$UCSXDIR
 10
1.0
 20
0.0
 30
0.0
  9
$UCSYDIR
 10
0.0
 20
1.0
 30
0.0
  9
$UCSORTHOREF
  2

  9
$UCSORTHOVIEW
 70
     0
  9
$UCSORGTOP
 10
0.0
 20
0.0
 30
0.0
  9
$UCSORGBOTTOM
 10
0.0
 20
0.0
 30
0.0
  9
$UCSORGLEFT
 10
0.0
 20
0.0
 30
0.0
  9
$UCSORGRIGHT
 10
0.0
 20
0.0
 30
0.0
  9
$UCSORGFRONT
 10
0.0
 20
0.0
 30
0.0
  9
$UCSORGBACK
 10
0.0
 20
0.0
 30
0.0
  9
$PUCSBASE
  2

  9
$PUCSNAME
  2

  9
$PUCSORG
 10
0.0
 20
0.0
 30
0.0
  9
$PUCSXDIR
 10
1.0
 20
0.0
 30
0.0
  9
$PUCSYDIR
 10
0.0
 20
1.0
 30
0.0
  9
$PUCSORTHOREF
  2

  9
$PUCSORTHOVIEW
 70
     0
  9
$PUCSORGTOP
 10
0.0
 20
0.0
 30
0.0
  9
$PUCSORGBOTTOM
 10
0.0
 20
0.0
 30
0.0
  9
$PUCSORGLEFT
 10
0.0
 20
0.0
 30
0.0
  9
$PUCSORGRIGHT
 10
0.0
 20
0.0
 30
0.0
  9
$PUCSORGFRONT
 10
0.0
 20
0.0
 30
0.0
  9
$PUCSORGBACK
 10
0.0
 20
0.0
 30
0.0
  9
$USERI1
 70
     0
  9
$USERI2
 70
     0
  9
$USERI3
 70
     0
  9
$USERI4
 70
     0
  9
$USERI5
 70
     0
  9
$USERR1
 40
0.0
  9
$USERR2
 40
0.0
  9
$USERR3
 40
0.0
  9
$USERR4
 40
0.0
  9
$USERR5
 40
0.0
  9
$WORLDVIEW
 70
     1
  9
$SHADEDGE
 70
     3
  9
$SHADEDIF
 70
    70
  9
$TILEMODE
 70
     1
  9
$MAXACTVP
 70
    64
  9
$PINSBASE
 10
0.0
 20
0.0
 30
0.0
  9
$PLIMCHECK
 70
     0
  9
$PEXTMIN
 10
1.0000000000E+20
 20
1.0000000000E+20
 30
1.0000000000E+20
  9
$PEXTMAX
 10
-1.0000000000E+20
 20
-1.0000000000E+20
 30
-1.0000000000E+20
  9
$PLIMMIN
 10
0.0
 20
0.0
  9
$PLIMMAX
 10
420.0
 20
297.0
  9
$UNITMODE
 70
     0
  9
$VISRETAIN
 70
     1
  9
$PLINEGEN
 70
     0
  9
$PSLTSCALE
 70
     1
  9
$TREEDEPTH
 70
  3020
  9
$CMLSTYLE
  2
Standard
  9
$CMLJUST
 70
     0
  9
$CMLSCALE
 40
20.0
  9
$PROXYGRAPHICS
 70
     1
  9
$MEASUREMENT
 70
     1
  9
$CELWEIGHT
370
    -1
  9
$ENDCAPS
280
     0
  9
$JOINSTYLE
280
     0
  9
$LWDISPLAY
290
     1
  9
$INSUNITS
 70
     4
  9
$HYPERLINKBASE
  1

  9
$STYLESHEET
  1

  9
$XEDIT
290
     1
  9
$CEPSNTYPE
380
     0
  9
$PSTYLEMODE
290
     1
  9
$FINGERPRINTGUID
  2
{10D6246B-6443-49F8-BD0D-E12213A37F33}
  9
$VERSIONGUID
  2
{FAEB1C32-E019-11D5-929B-00C0DF256EC4}
  9
$EXTNAMES
290
     1
  9
$PSVPSCALE
 40
0.0
  9
$OLESTARTUP
290
     0
  0
ENDSEC
  0
SECTION
  2
CLASSES
  0
CLASS
  1
ACDBDICTIONARYWDFLT
  2
AcDbDictionaryWithDefault
  3
ObjectDBX Classes
 90
        0
280
     0
281
     0
  0
CLASS
  1
VISUALSTYLE
  2
AcDbVisualStyle
  3
ObjectDBX Classes
 90
     4095
280
     0
281
     0
  0
CLASS
  1
MATERIAL
  2
AcDbMaterial
  3
ObjectDBX Classes
 90
     1153
280
     0
281
     0
  0
CLASS
  1
ACDBPLACEHOLDER
  2
AcDbPlaceHolder
  3
ObjectDBX Classes
 90
        0
280
     0
281
     0
  0
CLASS
  1
LAYOUT
  2
AcDbLayout
  3
ObjectDBX Classes
 90
        0
280
     0
281
     0
  0
ENDSEC
  0
SECTION
  2
TABLES
  0
TABLE
  2
VPORT
  5
8
330
0
100
AcDbSymbolTable
 70
     1
  0
VPORT
  5
29
330
8
100
AcDbSymbolTableRecord
100
AcDbViewportTableRecord
  2
*Active
 70
     0
 10
0.0
 20
0.0
 11
1.0
 21
1.0
 12
148.5
 22
105.0
 13
0.0
 23
0.0
 14
10.0
 24
10.0
 15
10.0
 25
10.0
 16
0.0
 26
0.0
 36
1.0
 17
0.0
 27
0.0
 37
0.0
 40
210.0
 41
1.4142857143
 42
50.0
 43
0.0
 44
0.0
 50
0.0
 51
0.0
 71
     0
 72
  2000
 73
     1
 74
     3
 75
     0
 76
     0
 77
     0
 78
     0
281
     0
 65
     1
110
0.0
120
0.0
130
0.0
111
1.0
121
0.0
131
0.0
112
0.0
122
1.0
132
0.0
 79
     0
146
0.0
  0
ENDTAB
  0
TABLE
  2
LTYPE
  5
5
330
0
100
AcDbSymbolTable
 70
     6
  0
LTYPE
  5
14
330
5
100
AcDbSymbolTableRecord
100
AcDbLinetypeTableRecord
  2
ByBlock
 70
     0
  3

 72
    65
 73
     0
 40
0.0
  0
LTYPE
  5
15
330
5
100
AcDbSymbolTableRecord
100
AcDbLinetypeTableRecord
  2
ByLayer
 70
     0
  3

 72
    65
 73
     0
 40
0.0
  0
LTYPE
  5
16
330
5
100
AcDbSymbolTableRecord
100
AcDbLinetypeTableRecord
  2
Continuous
 70
     0
  3
Solid line
 72
    65
 73
     0
 40
0.0
  0
LTYPE
  5
3F
330
5
100
AcDbSymbolTableRecord
100
AcDbLinetypeTableRecord
  2
HIDDEN
 70
     0
  3
Hidden __ __ __ __ __ __ __ __ __ __ __ __ __ __
 72
    65
 73
     2
 40
1.905
 49
1.27
 74
     0
 49
-0.635
 74
     0
  0
LTYPE
  5
40
330
5
100
AcDbSymbolTableRecord
100
AcDbLinetypeTableRecord
  2
PHANTOM
 70
     0
  3
Phantom ______  __  __  ______  __  __  ______
 72
    65
 73
     6
 40
12.7
 49
6.35
 74
     0
 49
-1.27
 74
     0
 49
1.27
 74
     0
 49
-1.27
 74
     0
 49
1.27
 74
     0
 49
-1.27
 74
     0
  0
LTYPE
  5
41
330
5
100
AcDbSymbolTableRecord
100
AcDbLinetypeTableRecord
  2
CENTER
 70
     0
  3
Center ____ _ ____ _ ____ _ ____ _ ____ _ ____
 72
    65
 73
     4
 40
10.16
 49
6.35
 74
     0
 49
-1.27
 74
     0
 49
1.27
 74
     0
 49
-1.27
 74
     0
  0
LTYPE
  5
42
330
5
100
AcDbSymbolTableRecord
100
AcDbLinetypeTableRecord
  2
CENTERX2
 70
     0
  3
Center (2x) ________  __  ________  __  _____
 72
    65
 73
     4
 40
20.32
 49
12.7
 74
     0
 49
-2.54
 74
     0
 49
2.54
 74
     0
 49
-2.54
 74
     0
  0
LTYPE
  5
43
330
5
100
AcDbSymbolTableRecord
100
AcDbLinetypeTableRecord
  2
DOT2
 70
     0
  3
Dot (.5x) ........................................
 72
    65
 73
     2
 40
0.635
 49
0.0
 74
     0
 49
-0.635
 74
     0
  0
ENDTAB
  0
TABLE
  2
LAYER
  5
2
330
0
100
AcDbSymbolTable
 70
     5
  0
LAYER
  5
10
330
2
100
AcDbSymbolTableRecord
100
AcDbLayerTableRecord
  2
0
 70
     0
 62
     7
  6
Continuous
370
    -3
390
F
  0
LAYER
  5
44
330
2
100
AcDbSymbolTableRecord
100
AcDbLayerTableRecord
  2
FORMAT
 70
     0
 62
     7
  6
Continuous
370
    -3
390
F
  0
LAYER
  5
45
330
2
100
AcDbSymbolTableRecord
100
AcDbLayerTableRecord
  2
VERMASSUNG
 70
     0
 62
     7
  6
Continuous
370
    -3
390
F
  0
LAYER
  5
46
330
2
100
AcDbSymbolTableRecord
100
AcDbLayerTableRecord
  2
KOPF_DÜNN
 70
     0
 62
     7
  6
Continuous
370
    -3
390
F
  0
LAYER
  5
47
330
2
100
AcDbSymbolTableRecord
100
AcDbLayerTableRecord
  2
KOPF_DICK
 70
     0
 62
     7
  6
Continuous
370
    15
390
F
  0
ENDTAB
  0
TABLE
  2
STYLE
  5
3
330
0
100
AcDbSymbolTable
 70
     2
  0
STYLE
  5
11
330
3
100
AcDbSymbolTableRecord
100
AcDbTextStyleTableRecord
  2
Standard
 70
     0
 40
0.0
 41
1.0
 50
0.0
 71
     0
 42
2.0
  3
txt
  4

  0
STYLE
  5
48
330
3
100
AcDbSymbolTableRecord
100
AcDbTextStyleTableRecord
  2
SLDTEXTSTYLE0
 70
     0
 40
0.0
 41
0.7
 50
0.0
 71
     0
 42
0.2
  3
TXT
  4

  0
ENDTAB
  0
TABLE
  2
VIEW
  5
6
330
0
100
AcDbSymbolTable
 70
     0
  0
ENDTAB
  0
TABLE
  2
UCS
  5
7
330
0
100
AcDbSymbolTable
 70
     0
  0
ENDTAB
  0
TABLE
  2
APPID
  5
9
330
0
100
AcDbSymbolTable
 70
     1
  0
APPID
  5
12
330
9
100
AcDbSymbolTableRecord
100
AcDbRegAppTableRecord
  2
ACAD
 70
     0
  0
ENDTAB
  0
TABLE
  2
DIMSTYLE
  5
A
330
0
100
AcDbSymbolTable
 70
     5
100
AcDbDimStyleTable
  0
DIMSTYLE
105
27
330
A
100
AcDbSymbolTableRecord
100
AcDbDimStyleTableRecord
  2
ISO-25
 70
     0
 41
2.5
 42
0.625
 43
3.75
 44
1.25
 73
     0
 74
     0
 77
     1
 78
     8
140
2.5
141
2.5
143
0.0393700787
147
0.625
171
     3
172
     1
178
     0
271
     2
272
     2
274
     3
278
    44
283
     0
284
     8
340
11
  0
DIMSTYLE
105
1AC
102
{ACAD_REACTORS
330
1AB
330
1B8
102
}
330
A
100
AcDbSymbolTableRecord
100
AcDbDimStyleTableRecord
  2
SLDDIMSTYLE0
 70
     0
 41
3.0
 44
0.0
 45
0.000000001
 47
0.1
 48
0.1
 71
     1
 73
     0
 74
     0
 77
     1
 78
    12
 79
     3
140
2.0
147
0.5
173
     1
178
     0
271
     2
272
     1
276
     2
284
     8
340
48
  0
DIMSTYLE
105
1C5
102
{ACAD_REACTORS
330
1C4
102
}
330
A
100
AcDbSymbolTableRecord
100
AcDbDimStyleTableRecord
  2
SLDDIMSTYLE1
 70
     0
 41
3.0
 44
0.0
 73
     0
 74
     0
 77
     1
 78
    12
 79
     3
140
2.0
147
0.5
173
     1
178
     0
179
     2
272
     3
276
     2
284
    12
340
48
  0
DIMSTYLE
105
1CE
102
{ACAD_REACTORS
330
1CD
330
1D8
102
}
330
A
100
AcDbSymbolTableRecord
100
AcDbDimStyleTableRecord
  2
SLDDIMSTYLE2
 70
     0
 41
3.0
 44
0.0
 45
0.000000001
 73
     0
 74
     0
 77
     1
 78
    12
 79
     3
140
2.0
147
0.5
173
     1
178
     0
271
     2
272
     3
276
     2
284
    12
340
48
  0
DIMSTYLE
105
244
102
{ACAD_REACTORS
330
243
102
}
330
A
100
AcDbSymbolTableRecord
100
AcDbDimStyleTableRecord
  2
SLDDIMSTYLE3
 70
     0
 41
3.0
 44
0.0
 45
0.000000001
 73
     0
 74
     0
 77
     1
 78
    12
 79
     3
140
2.0
147
0.5
172
     1
173
     1
178
     0
271
     2
272
     3
276
     2
284
    12
289
     0
340
48
  0
ENDTAB
  0
TABLE
  2
BLOCK_RECORD
  5
1
330
0
100
AcDbSymbolTable
 70
     8
  0
BLOCK_RECORD
  5
1F
330
1
100
AcDbSymbolTableRecord
100
AcDbBlockTableRecord
  2
*Model_Space
340
22
  0
BLOCK_RECORD
  5
1B
330
1
100
AcDbSymbolTableRecord
100
AcDbBlockTableRecord
  2
*Paper_Space
340
1E
  0
BLOCK_RECORD
  5
23
330
1
100
AcDbSymbolTableRecord
100
AcDbBlockTableRecord
  2
*Paper_Space0
340
26
  0
BLOCK_RECORD
  5
1AD
330
1
100
AcDbSymbolTableRecord
100
AcDbBlockTableRecord
  2
_D
340
0
  0
BLOCK_RECORD
  5
1B9
330
1
100
AcDbSymbolTableRecord
100
AcDbBlockTableRecord
  2
_D_1
340
0
  0
BLOCK_RECORD
  5
1C6
330
1
100
AcDbSymbolTableRecord
100
AcDbBlockTableRecord
  2
_D_2
340
0
  0
BLOCK_RECORD
  5
1CF
330
1
100
AcDbSymbolTableRecord
100
AcDbBlockTableRecord
  2
_D_3
340
0
  0
BLOCK_RECORD
  5
1D9
330
1
100
AcDbSymbolTableRecord
100
AcDbBlockTableRecord
  2
_D_4
340
0
  0
BLOCK_RECORD
  5
245
330
1
100
AcDbSymbolTableRecord
100
AcDbBlockTableRecord
  2
_D_5
340
0
  0
BLOCK_RECORD
  5
252
330
1
100
AcDbSymbolTableRecord
100
AcDbBlockTableRecord
  2
SW_CENTERMARKSYMBOL_0
340
0
102
{BLKREFS
331
25D
102
}
  0
ENDTAB
  0
ENDSEC
  0
SECTION
  2
BLOCKS
  0
BLOCK
  5
20
330
1F
100
AcDbEntity
  8
0
100
AcDbBlockBegin
  2
*Model_Space
 70
     0
 10
0.0
 20
0.0
 30
0.0
  3
*Model_Space
  1

  0
ENDBLK
  5
21
330
1F
100
AcDbEntity
  8
0
100
AcDbBlockEnd
  0
BLOCK
  5
1C
330
1B
100
AcDbEntity
 67
     1
  8
0
100
AcDbBlockBegin
  2
*Paper_Space
 70
     0
 10
0.0
 20
0.0
 30
0.0
  3
*Paper_Space
  1

  0
ENDBLK
  5
1D
330
1B
100
AcDbEntity
 67
     1
  8
0
100
AcDbBlockEnd
  0
BLOCK
  5
24
330
23
100
AcDbEntity
  8
0
100
AcDbBlockBegin
  2
*Paper_Space0
 70
     0
 10
0.0
 20
0.0
 30
0.0
  3
*Paper_Space0
  1

  0
ENDBLK
  5
25
330
23
100
AcDbEntity
  8
0
100
AcDbBlockEnd
  0
BLOCK
  5
1AE
330
1AD
100
AcDbEntity
  8
0
100
AcDbBlockBegin
  2
_D
 70
     0
 10
0.0
 20
0.0
 30
0.0
  3
_D
  1

  0
SOLID
  5
1B0
330
1AD
100
AcDbEntity
  8
VERMASSUNG
100
AcDbTrace
 10
185.6782899088
 20
163.2975706643
 30
0.0
 11
188.6782899088
 21
162.8475706643
 31
0.0
 12
188.6782899088
 22
163.7475706643
 32
0.0
 13
188.6782899088
 23
163.7475706643
 33
0.0
  0
SOLID
  5
1B1
330
1AD
100
AcDbEntity
  8
VERMASSUNG
100
AcDbTrace
 10
245.6782899088
 20
163.2975706643
 30
0.0
 11
242.6782899088
 21
163.7475706643
 31
0.0
 12
242.6782899088
 22
162.8475706643
 32
0.0
 13
242.6782899088
 23
162.8475706643
 33
0.0
  0
LINE
  5
1B2
330
1AD
100
AcDbEntity
  8
VERMASSUNG
100
AcDbLine
 10
185.6782899088
 20
138.7024009851
 30
0.0
 11
185.6782899088
 21
164.2975706643
 31
0.0
  0
LINE
  5
1B3
330
1AD
100
AcDbEntity
  8
VERMASSUNG
100
AcDbLine
 10
245.6782899088
 20
149.0024009851
 30
0.0
 11
245.6782899088
 21
164.2975706643
 31
0.0
  0
LINE
  5
1B4
330
1AD
100
AcDbEntity
  8
VERMASSUNG
100
AcDbLine
 10
185.6782899088
 20
163.2975706643
 30
0.0
 11
245.6782899088
 21
163.2975706643
 31
0.0
  0
MTEXT
  5
1B5
330
1AD
100
AcDbEntity
  8
VERMASSUNG
100
AcDbMText
 10
211.1282897218
 20
165.8757060275
 30
0.1
 40
2.0
 41
0.0
 71
     1
 72
     1
  1
60
  7
SLDTEXTSTYLE0
 73
     1
 44
1.0
  0
MTEXT
  5
1B6
330
1AD
100
AcDbEntity
  8
VERMASSUNG
100
AcDbMText
 10
216.9157898238
 20
165.8757060275
 30
0.1
 40
2.0
 41
0.0
 71
     1
 72
     1
  1

  7
SLDTEXTSTYLE0
 73
     1
 44
1.0
  0
MTEXT
  5
1B7
330
1AD
100
AcDbEntity
  8
VERMASSUNG
100
AcDbMText
 10
216.9282901137
 20
165.3811721647
 30
0.1
 40
1.5
 41
0.0
 71
     1
 72
     1
  1
±0.1
  7
SLDTEXTSTYLE0
 73
     1
 44
1.0
  0
ENDBLK
  5
1AF
330
1AD
100
AcDbEntity
  8
0
100
AcDbBlockEnd
  0
BLOCK
  5
1BA
330
1B9
100
AcDbEntity
  8
0
100
AcDbBlockBegin
  2
_D_1
 70
     0
 10
0.0
 20
0.0
 30
0.0
  3
_D_1
  1

  0
SOLID
  5
1BC
330
1B9
100
AcDbEntity
  8
VERMASSUNG
100
AcDbTrace
 10
253.8887678515
 20
149.0024009851
 30
0.0
 11
253.4387678515
 21
146.0024009851
 31
0.0
 12
254.3387678515
 22
146.0024009851
 32
0.0
 13
254.3387678515
 23
146.0024009851
 33
0.0
  0
SOLID
  5
1BD
330
1B9
100
AcDbEntity
  8
VERMASSUNG
100
AcDbTrace
 10
253.8887678515
 20
114.0024009851
 30
0.0
 11
254.3387678515
 21
117.0024009851
 31
0.0
 12
253.4387678515
 22
117.0024009851
 32
0.0
 13
253.4387678515
 23
117.0024009851
 33
0.0
  0
LINE
  5
1BE
330
1B9
100
AcDbEntity
  8
VERMASSUNG
100
AcDbLine
 10
245.6782899088
 20
149.0024009851
 30
0.0
 11
254.8887678515
 21
149.0024009851
 31
0.0
  0
LINE
  5
1BF
330
1B9
100
AcDbEntity
  8
VERMASSUNG
100
AcDbLine
 10
245.6782899088
 20
114.0024009851
 30
0.0
 11
254.8887678515
 21
114.0024009851
 31
0.0
  0
LINE
  5
1C0
330
1B9
100
AcDbEntity
  8
VERMASSUNG
100
AcDbLine
 10
253.8887678515
 20
149.0024009851
 30
0.0
 11
253.8887678515
 21
114.0024009851
 31
0.0
  0
MTEXT
  5
1C1
330
1B9
100
AcDbEntity
  8
VERMASSUNG
100
AcDbMText
 10
251.3106324883
 20
126.9524007981
 30
0.1
 40
2.0
 41
0.0
 71
     1
 72
     1
  1
35
  7
SLDTEXTSTYLE0
 11
-7.044195017643634E-15
 21
1.0
 31
0.0
 73
     1
 44
1.0
  0
MTEXT
  5
1C2
330
1B9
100
AcDbEntity
  8
VERMASSUNG
100
AcDbMText
 10
251.3106324883
 20
132.7399009002
 30
0.1
 40
2.0
 41
0.0
 71
     1
 72
     1
  1

  7
SLDTEXTSTYLE0
 11
-7.044195017643634E-15
 21
1.0
 31
0.0
 73
     1
 44
1.0
  0
MTEXT
  5
1C3
330
1B9
100
AcDbEntity
  8
VERMASSUNG
100
AcDbMText
 10
251.8051663511
 20
132.75240119
 30
0.1
 40
1.5
 41
0.0
 71
     1
 72
     1
  1
±0.1
  7
SLDTEXTSTYLE0
 11
-7.044195017643634E-15
 21
1.0
 31
0.0
 73
     1
 44
1.0
  0
ENDBLK
  5
1BB
330
1B9
100
AcDbEntity
  8
0
100
AcDbBlockEnd
  0
BLOCK
  5
1C7
330
1C6
100
AcDbEntity
  8
0
100
AcDbBlockBegin
  2
_D_2
 70
     0
 10
0.0
 20
0.0
 30
0.0
  3
_D_2
  1

  0
ARC
  5
1C9
330
1C6
100
AcDbEntity
  8
VERMASSUNG
100
AcDbCircle
 10
245.6782899088
 20
149.2589981023
 30
0.0
 40
10.88891416979226
100
AcDbArc
 50
90.0
 51
207.2796692516
  0
SOLID
  5
1CA
330
1C6
100
AcDbEntity
  8
VERMASSUNG
100
AcDbTrace
 10
245.6782899088
 20
160.1479122721
 30
0.0
 11
242.645045226
 21
160.1918063985
 31
0.0
 12
242.7656591847
 22
159.2999250874
 32
0.0
 13
242.7656591847
 23
159.2999250874
 33
0.0
  0
SOLID
  5
1CB
330
1C6
100
AcDbEntity
  8
VERMASSUNG
100
AcDbTrace
 10
236.0004416089
 20
144.2682362284
 30
0.0
 11
235.4191572918
 21
147.2455854761
 31
0.0
 12
234.5711895852
 22
146.944005025
 32
0.0
 13
234.5711895852
 23
146.944005025
 33
0.0
  0
MTEXT
  5
1CC
330
1C6
100
AcDbEntity
  8
VERMASSUNG
100
AcDbMText
 10
231.9928562057
 20
152.681033494
 30
0.1
 40
2.0
 41
0.0
 71
     1
 72
     1
  1
117.5°
  7
SLDTEXTSTYLE0
 11
0.5204160787235144
 21
0.8539128204951844
 31
0.0
 73
     1
 44
1.0
  0
ENDBLK
  5
1C8
330
1C6
100
AcDbEntity
  8
0
100
AcDbBlockEnd
  0
BLOCK
  5
1D0
330
1CF
100
AcDbEntity
  8
0
100
AcDbBlockBegin
  2
_D_3
 70
     0
 10
0.0
 20
0.0
 30
0.0
  3
_D_3
  1

  0
SOLID
  5
1D2
330
1CF
100
AcDbEntity
  8
VERMASSUNG
100
AcDbTrace
 10
155.6782899088
 20
169.2975706643
 30
0.0
 11
158.6782899088
 21
168.8475706643
 31
0.0
 12
158.6782899088
 22
169.7475706643
 32
0.0
 13
158.6782899088
 23
169.7475706643
 33
0.0
  0
SOLID
  5
1D3
330
1CF
100
AcDbEntity
  8
VERMASSUNG
100
AcDbTrace
 10
245.6782899088
 20
169.2975706643
 30
0.0
 11
242.6782899088
 21
169.7475706643
 31
0.0
 12
242.6782899088
 22
168.8475706643
 32
0.0
 13
242.6782899088
 23
168.8475706643
 33
0.0
  0
LINE
  5
1D4
330
1CF
100
AcDbEntity
  8
VERMASSUNG
100
AcDbLine
 10
155.6782899088
 20
129.9957268233
 30
0.0
 11
155.6782899088
 21
170.2975706643
 31
0.0
  0
LINE
  5
1D5
330
1CF
100
AcDbEntity
  8
VERMASSUNG
100
AcDbLine
 10
245.6782899088
 20
149.0024009851
 30
0.0
 11
245.6782899088
 21
170.2975706643
 31
0.0
  0
LINE
  5
1D6
330
1CF
100
AcDbEntity
  8
VERMASSUNG
100
AcDbLine
 10
155.6782899088
 20
169.2975706643
 30
0.0
 11
245.6782899088
 21
169.2975706643
 31
0.0
  0
MTEXT
  5
1D7
330
1CF
100
AcDbEntity
  8
VERMASSUNG
100
AcDbMText
 10
198.3782898577
 20
171.8757060275
 30
0.1
 40
2.0
 41
0.0
 71
     1
 72
     1
  1
90
  7
SLDTEXTSTYLE0
 73
     1
 44
1.0
  0
ENDBLK
  5
1D1
330
1CF
100
AcDbEntity
  8
0
100
AcDbBlockEnd
  0
BLOCK
  5
1DA
330
1D9
100
AcDbEntity
  8
0
100
AcDbBlockBegin
  2
_D_4
 70
     0
 10
0.0
 20
0.0
 30
0.0
  3
_D_4
  1

  0
SOLID
  5
1DC
330
1D9
100
AcDbEntity
  8
VERMASSUNG
100
AcDbTrace
 10
145.6782899088
 20
139.0024009851
 30
0.0
 11
145.2282899088
 21
136.0024009851
 31
0.0
 12
146.1282899088
 22
136.0024009851
 32
0.0
 13
146.1282899088
 23
136.0024009851
 33
0.0
  0
SOLID
  5
1DD
330
1D9
100
AcDbEntity
  8
VERMASSUNG
100
AcDbTrace
 10
145.6782899088
 20
89.0024009851
 30
0.0
 11
146.1282899088
 21
92.0024009851
 31
0.0
 12
145.2282899088
 22
92.0024009851
 32
0.0
 13
145.2282899088
 23
92.0024009851
 33
0.0
  0
LINE
  5
1DE
330
1D9
100
AcDbEntity
  8
VERMASSUNG
100
AcDbLine
 10
185.9782899088
 20
139.0024009851
 30
0.0
 11
144.6782899088
 21
139.0024009851
 31
0.0
  0
LINE
  5
1DF
330
1D9
100
AcDbEntity
  8
VERMASSUNG
100
AcDbLine
 10
185.9782899088
 20
89.0024009851
 30
0.0
 11
144.6782899088
 21
89.0024009851
 31
0.0
  0
LINE
  5
1E0
330
1D9
100
AcDbEntity
  8
VERMASSUNG
100
AcDbLine
 10
145.6782899088
 20
139.0024009851
 30
0.0
 11
145.6782899088
 21
89.0024009851
 31
0.0
  0
MTEXT
  5
1E1
330
1D9
100
AcDbEntity
  8
VERMASSUNG
100
AcDbMText
 10
142.9001544197
 20
107.5974008759
 30
0.35
 40
2.0
 41
0.0
 71
     1
 72
     1
  1
PSC
  7
SLDTEXTSTYLE0
 11
-7.044195017643634E-15
 21
1.0
 31
0.0
 73
     1
 44
1.0
  0
MTEXT
  5
1E2
330
1D9
100
AcDbEntity
  8
VERMASSUNG
100
AcDbMText
 10
143.1001544292
 20
112.197400978
 30
0.35
 40
2.0
 41
0.0
 71
     1
 72
     1
  1
%%c
  7
SLDTEXTSTYLE0
 11
-7.044195017643634E-15
 21
1.0
 31
0.0
 73
     1
 44
1.0
  0
MTEXT
  5
1E3
330
1D9
100
AcDbEntity
  8
VERMASSUNG
100
AcDbMText
 10
142.9001544197
 20
115.8074014579
 30
0.35
 40
2.0
 41
0.0
 71
     1
 72
     1
  1
50
  7
SLDTEXTSTYLE0
 11
-7.044195017643634E-15
 21
1.0
 31
0.0
 73
     1
 44
1.0
  0
ENDBLK
  5
1DB
330
1D9
100
AcDbEntity
  8
0
100
AcDbBlockEnd
  0
BLOCK
  5
246
330
245
100
AcDbEntity
  8
0
100
AcDbBlockBegin
  2
_D_5
 70
     0
 10
0.0
 20
0.0
 30
0.0
  3
_D_5
  1

  0
SOLID
  5
248
330
245
100
AcDbEntity
  8
VERMASSUNG
100
AcDbTrace
 10
100.2325656965
 20
91.2291923281
 30
0.0
 11
101.8015448136
 21
88.6328863889
 31
0.0
 12
102.4942467417
 22
89.2074854132
 32
0.0
 13
102.4942467417
 23
89.2074854132
 33
0.0
  0
SOLID
  5
249
330
245
100
AcDbEntity
  8
VERMASSUNG
100
AcDbTrace
 10
58.7337472714
 20
141.2576649144
 30
0.0
 11
57.1647681543
 21
143.8539708536
 31
0.0
 12
56.4720662261
 22
143.2793718293
 32
0.0
 13
56.4720662261
 23
143.2793718293
 33
0.0
  0
LINE
  5
24A
330
245
100
AcDbEntity
  8
VERMASSUNG
100
AcDbLine
 10
100.2325656965
 20
91.2291923281
 30
0.0
 11
99.4628968875
 21
90.5907489677
 31
0.0
  0
LINE
  5
24B
330
245
100
AcDbEntity
  8
VERMASSUNG
100
AcDbLine
 10
58.7337472714
 20
141.2576649144
 30
0.0
 11
59.5034160804
 21
141.8961082748
 31
0.0
  0
LINE
  5
24C
330
245
100
AcDbEntity
  8
VERMASSUNG
100
AcDbLine
 10
100.2325656965
 20
91.2291923281
 30
0.0
 11
104.0632258588
 21
86.611179474
 31
0.0
  0
LINE
  5
24D
330
245
100
AcDbEntity
  8
VERMASSUNG
100
AcDbLine
 10
100.2325656965
 20
91.2291923281
 30
0.0
 11
58.7337472714
 21
141.2576649144
 31
0.0
  0
LINE
  5
24E
330
245
100
AcDbEntity
  8
VERMASSUNG
100
AcDbLine
 10
58.7337472714
 20
141.2576649144
 30
0.0
 11
47.4265759687
 21
154.8889086705
 31
0.0
  0
MTEXT
  5
24F
330
245
100
AcDbEntity
  8
VERMASSUNG
100
AcDbMText
 10
49.4108864327
 20
156.5349021496
 30
0.1
 40
2.0
 41
0.0
 71
     1
 72
     1
  1
%%c
  7
SLDTEXTSTYLE0
 11
0.6384433603870829
 21
-0.7696688090195999
 31
0.0
 73
     1
 44
1.0
  0
MTEXT
  5
250
330
245
100
AcDbEntity
  8
VERMASSUNG
100
AcDbMText
 10
51.869600742
 20
153.8840864162
 30
0.1
 40
2.0
 41
0.0
 71
     1
 72
     1
  1
65
  7
SLDTEXTSTYLE0
 11
0.6384433603870829
 21
-0.7696688090195999
 31
0.0
 73
     1
 44
1.0
  0
MTEXT
  5
251
330
245
100
AcDbEntity
  8
VERMASSUNG
100
AcDbMText
 10
55.5645920527
 20
149.429627747
 30
0.1
 40
2.0
 41
0.0
 71
     1
 72
     1
  1
min.
  7
SLDTEXTSTYLE0
 11
0.6384433603870829
 21
-0.7696688090195999
 31
0.0
 73
     1
 44
1.0
  0
ENDBLK
  5
247
330
245
100
AcDbEntity
  8
0
100
AcDbBlockEnd
  0
BLOCK
  5
253
330
252
100
AcDbEntity
  8
0
100
AcDbBlockBegin
  2
SW_CENTERMARKSYMBOL_0
 70
     0
 10
0.0
 20
0.0
 30
0.0
  3
SW_CENTERMARKSYMBOL_0
  1

  0
LINE
  5
255
330
252
100
AcDbEntity
  8
VERMASSUNG
 62
     0
100
AcDbLine
 10
0.0
 20
0.0
 30
0.0
 11
0.0
 21
2.5
 31
0.0
  0
LINE
  5
256
330
252
100
AcDbEntity
  8
VERMASSUNG
 62
     0
100
AcDbLine
 10
0.0
 20
0.0
 30
0.0
 11
-2.5
 21
0.0
 31
0.0
  0
LINE
  5
257
330
252
100
AcDbEntity
  8
VERMASSUNG
 62
     0
100
AcDbLine
 10
0.0
 20
0.0
 30
0.0
 11
0.0
 21
-2.5
 31
0.0
  0
LINE
  5
258
330
252
100
AcDbEntity
  8
VERMASSUNG
 62
     0
100
AcDbLine
 10
0.0
 20
0.0
 30
0.0
 11
2.5
 21
0.0
 31
0.0
  0
LINE
  5
259
330
252
100
AcDbEntity
  8
VERMASSUNG
 62
     0
100
AcDbLine
 10
0.0
 20
5.0
 30
0.0
 11
0.0
 21
36.9831844213
 31
0.0
  0
LINE
  5
25A
330
252
100
AcDbEntity
  8
VERMASSUNG
 62
     0
100
AcDbLine
 10
-5.0
 20
0.0
 30
0.0
 11
-27.5
 21
0.0
 31
0.0
  0
LINE
  5
25B
330
252
100
AcDbEntity
  8
VERMASSUNG
 62
     0
100
AcDbLine
 10
0.0
 20
-5.0
 30
0.0
 11
0.0
 21
-27.5
 31
0.0
  0
LINE
  5
25C
330
252
100
AcDbEntity
  8
VERMASSUNG
 62
     0
100
AcDbLine
 10
5.0
 20
0.0
 30
0.0
 11
27.5
 21
0.0
 31
0.0
  0
ENDBLK
  5
254
330
252
100
AcDbEntity
  8
0
100
AcDbBlockEnd
  0
ENDSEC
  0
SECTION
  2
ENTITIES
  0
MTEXT
  5
49
330
1F
100
AcDbEntity
  8
KOPF_DÜNN
100
AcDbMText
 10
13.8892156294
 20
23.8442973028
 30
0.0
 40
3.0
 41
0.0
 71
     1
 72
     1
  1
PS5.KVF.RPA.060
  7
SLDTEXTSTYLE0
 73
     1
 44
1.0
  0
MTEXT
  5
4A
330
1F
100
AcDbEntity
  8
VERMASSUNG
100
AcDbMText
 10
13.9329988022
 20
28.8834360957
 30
0.0
 40
3.0
 41
0.0
 71
     1
 72
     1
  1
Klemmhalter rechts_Turning tool right 117.5° /35°
  7
SLDTEXTSTYLE0
 73
     1
 44
1.0
  0
MTEXT
  5
4B
330
1F
100
AcDbEntity
  8
VERMASSUNG
100
AcDbMText
 10
98.8601118557
 20
13.8365368179
 30
0.0
 40
2.0
 41
0.0
 71
     1
 72
     1
  1
Datum: 23.05.2012
  7
SLDTEXTSTYLE0
 73
     1
 44
1.0
  0
MTEXT
  5
4C
330
1F
100
AcDbEntity
  8
VERMASSUNG
100
AcDbMText
 10
13.933048693
 20
18.0482802738
 30
0.0
 40
2.0
 41
0.0
 71
     1
 72
     1
  1
PSC ø50 / VB..16 04..
  7
SLDTEXTSTYLE0
 73
     1
 44
1.0
  0
MTEXT
  5
4D
330
1F
100
AcDbEntity
  8
VERMASSUNG
100
AcDbMText
 10
13.9808475933
 20
13.9090973692
 30
0.0
 40
2.0
 41
0.0
 71
     1
 72
     1
  1
Gewicht: 681g
  7
SLDTEXTSTYLE0
 73
     1
 44
1.0
  0
ELLIPSE
  5
4E
330
1F
100
AcDbEntity
  8
0
  6
Continuous
 62
     7
100
AcDbEllipse
 10
211.0775963194
 20
126.6355392345
 30
0.0
 11
0.1424585260392632
 21
3.057101727617052
 31
0.0
210
0.0
220
0.0
230
1.0
 40
0.2280975724
 41
0.0
 42
6.283185307179586
  0
ARC
  5
4F
330
1F
100
AcDbEntity
  8
0
  6
Continuous
 62
     7
370
    15
100
AcDbCircle
 10
203.6782899088
 20
125.3308929134
 30
0.0
 40
2.500000000000025
100
AcDbArc
 50
23.7564891757
 51
156.2435108243
  0
ARC
  5
50
330
1F
100
AcDbEntity
  8
0
  6
Continuous
 62
     7
370
    15
100
AcDbCircle
 10
185.9782899088
 20
89.3024009851
 30
0.0
 40
0.3000000000000114
100
AcDbArc
 50
180.0
 51
270.0
  0
ARC
  5
51
330
1F
100
AcDbEntity
  8
0
  6
Continuous
 62
     7
370
    15
100
AcDbCircle
 10
185.9782899088
 20
138.7024009851
 30
0.0
 40
0.3000000000000114
100
AcDbArc
 50
90.0
 51
180.0
  0
LINE
  5
52
330
1F
100
AcDbEntity
  8
0
  6
Continuous
 62
     7
370
    15
100
AcDbLine
 10
217.9109618849
 20
139.0024013577
 30
0.0
 11
185.978289923
 21
139.0024013577
 31
0.0
  0
LINE
  5
53
330
1F
100
AcDbEntity
  8
0
  6
Continuous
 62
     7
370
    15
100
AcDbLine
 10
185.978289923
 20
89.0024006126
 30
0.0
 11
215.3535333312
 21
89.0024006126
 31
0.0
  0
LWPOLYLINE
  5
54
330
1F
100
AcDbEntity
  8
0
  6
Continuous
 62
     7
370
    15
100
AcDbPolyline
 90
        3
 70
   128
 43
0.0
 10
185.4782899138
 20
96.1625799296
 10
185.603744849
 20
96.0942785946
 10
185.6782899088
 20
96.0415415225
  0
LWPOLYLINE
  5
55
330
1F
100
AcDbEntity
  8
0
  6
Continuous
 62
     7
370
    15
100
AcDbPolyline
 90
        3
 70
   128
 43
0.0
 10
185.6782899088
 20
131.9632604477
 10
185.603744849
 20
131.9105233756
 10
185.4782899138
 20
131.8422220407
  0
ARC
  5
56
330
1F
100
AcDbEntity
  8
0
  6
Continuous
 62
     7
370
    15
100
AcDbCircle
 10
217.9109629208
 20
140.0024009851
 30
0.0
 40
1.0
100
AcDbArc
 50
270.0
 51
342.002089575
  0
LINE
  5
57
330
1F
100
AcDbEntity
  8
0
  6
Continuous
 62
     7
370
    15
100
AcDbLine
 10
233.4786780959
 20
138.2045987753
 30
0.0
 11
233.5720003432
 21
138.2976956425
 31
0.0
  0
LINE
  5
58
330
1F
100
AcDbEntity
  8
0
  6
Continuous
 62
     7
370
    15
100
AcDbLine
 10
234.9634074456
 20
136.9543578235
 30
0.0
 11
234.8701522535
 21
136.8613280115
 31
0.0
  0
LINE
  5
59
330
1F
100
AcDbEntity
  8
0
  6
Continuous
 62
     7
370
    15
100
AcDbLine
 10
233.0208250171
 20
140.107942721
 30
0.0
 11
232.9702802783
 21
140.0575227795
 31
0.0
  0
LINE
  5
5A
330
1F
100
AcDbEntity
  8
0
  6
Continuous
 62
     7
370
    15
100
AcDbLine
 10
236.6780617124
 20
136.34068889
 30
0.0
 11
236.7286064512
 21
136.3911088315
 31
0.0
  0
LINE
  5
5B
330
1F
100
AcDbEntity
  8
0
  6
Continuous
 62
     7
370
    15
100
AcDbLine
 10
234.7272203153
 20
139.4799649475
 30
0.0
 11
234.8204568809
 21
139.5729742703
 31
0.0
  0
LINE
  5
5C
330
1F
100
AcDbEntity
  8
0
  6
Continuous
 62
     7
370
    15
100
AcDbLine
 10
236.2120763248
 20
138.2298487929
 30
0.0
 11
236.1186944729
 21
138.1366923211
 31
0.0
  0
LWPOLYLINE
  5
5D
330
1F
100
AcDbEntity
  8
0
  6
Continuous
 62
     7
370
    15
100
AcDbPolyline
 90
        3
 70
   128
 43
0.0
 10
206.4637408441
 20
128.0407951904
 10
206.63099334
 20
127.5514196364
 10
206.6724502331
 20
127.2633187232
  0
ARC
  5
5E
330
1F
100
AcDbEntity
  8
0
  6
Continuous
 62
     7
370
    15
100
AcDbCircle
 10
203.7066549146
 20
126.585120192
 30
0.0
 40
3.117773648591361
100
AcDbArc
 50
27.8329753243
 51
164.6248843896
  0
ARC
  5
5F
330
1F
100
AcDbEntity
  8
0
  6
Continuous
 62
     7
370
    15
100
AcDbCircle
 10
204.4956409878
 20
127.1835565966
 30
0.0
 40
2.042193139984481
100
AcDbArc
 50
339.8380755675
 51
25.8329539567
  0
LWPOLYLINE
  5
60
330
1F
100
AcDbEntity
  8
0
  6
Continuous
 62
     7
370
    15
100
AcDbPolyline
 90
       16
 70
   128
 43
0.0
 10
200.8932611755
 20
126.6370676217
 10
200.8600259981
 20
126.7743883414
 10
200.8203972912
 20
127.2747292874
 10
200.9056719801
 20
127.7710469199
 10
201.1121238431
 20
128.2416488735
 10
201.4307302272
 20
128.6659687517
 10
201.8475641346
 20
129.0254601968
 10
202.344409827
 20
129.3044136596
 10
202.8995525873
 20
129.490636265
 10
203.4887314624
 20
129.575989185
 10
204.0861935204
 20
129.5567424727
 10
204.6658282018
 20
129.4337371123
 10
205.2023035324
 20
129.2123496292
 10
205.6721706724
 20
128.9022546021
 10
206.0548958218
 20
128.5170064998
 10
206.3337542897
 20
128.0734399093
  0
LWPOLYLINE
  5
61
330
1F
100
AcDbEntity
  8
0
  6
Continuous
 62
     7
370
    15
100
AcDbPolyline
 90
       29
 70
   128
 43
0.0
 10
205.9994988924
 20
127.9613142592
 10
206.1478976941
 20
127.5086039436
 10
206.1724585331
 20
127.0395498482
 10
206.0719520634
 20
126.5776715932
 10
205.8514186031
 20
126.1461302397
 10
205.5219129509
 20
125.7665659992
 10
205.0999623573
 20
125.458009517
 10
204.6067227459
 20
125.235935649
 10
204.066926319
 20
125.1114783568
 10
203.5076428986
 20
125.0908793641
 10
202.9569164699
 20
125.1751715077
 10
202.4423626101
 20
125.3601275144
 10
201.9897845423
 20
125.6364723427
 10
201.6218730098
 20
125.9903507066
 10
201.357081238
 20
126.4040171859
 10
201.2086824364
 20
126.8567275015
 10
201.1841206661
 20
127.325781597
 10
201.2846271357
 20
127.787659852
 10
201.5051615274
 20
128.2192012054
 10
201.8346653169
 20
128.598765446
 10
202.2566177732
 20
128.9073209969
 10
202.7498573846
 20
129.1293957961
 10
203.2896538115
 20
129.2538530884
 10
203.8489372319
 20
129.2744520811
 10
204.3996617979
 20
129.1901599375
 10
204.9142156577
 20
129.0052039308
 10
205.3667955881
 20
128.7288581712
 10
205.734705258
 20
128.3749807385
 10
205.9994988924
 20
127.9613142592
  0
LINE
  5
62
330
1F
100
AcDbEntity
  8
0
  6
Continuous
 62
     7
370
    15
100
AcDbLine
 10
185.6782899088
 20
89.302400103
 30
0.0
 11
185.6782899088
 21
138.7024018673
 31
0.0
  0
SPLINE
  5
63
330
1F
100
AcDbEntity
  8
0
  6
Continuous
 62
     7
370
    15
100
AcDbSpline
210
0.0
220
0.0
230
1.0
 70
     8
 71
     3
 72
    70
 73
    66
 74
     0
 42
0.00000001
 43
0.00000001
 12
1.0
 22
0.0
 32
0.0
 13
1.0
 23
0.0
 33
0.0
 40
-0.0312499999999998
 40
-0.0312499999999998
 40
0.0
 40
0.0
 40
0.03125
 40
0.03125
 40
0.0625000000000001
 40
0.0625000000000001
 40
0.0937500000000001
 40
0.0937500000000001
 40
0.1250000000000001
 40
0.1250000000000001
 40
0.1562500000000002
 40
0.1562500000000002
 40
0.1875000000000002
 40
0.1875000000000002
 40
0.2187500000000002
 40
0.2187500000000002
 40
0.2500000000000003
 40
0.2500000000000003
 40
0.2812500000000003
 40
0.2812500000000003
 40
0.3125000000000003
 40
0.3125000000000003
 40
0.3437500000000004
 40
0.3437500000000004
 40
0.3750000000000004
 40
0.3750000000000004
 40
0.4062500000000004
 40
0.4062500000000004
 40
0.4375000000000005
 40
0.4375000000000005
 40
0.4687500000000005
 40
0.4687500000000005
 40
0.5000000000000006
 40
0.5000000000000006
 40
0.5312500000000006
 40
0.5312500000000006
 40
0.5625000000000007
 40
0.5625000000000007
 40
0.5937500000000007
 40
0.5937500000000007
 40
0.6250000000000007
 40
0.6250000000000007
 40
0.6562500000000008
 40
0.6562500000000008
 40
0.6875000000000008
 40
0.6875000000000008
 40
0.7187500000000008
 40
0.7187500000000008
 40
0.7500000000000009
 40
0.7500000000000009
 40
0.7812500000000009
 40
0.7812500000000009
 40
0.8125000000000009
 40
0.8125000000000009
 40
0.8437500000000009
 40
0.8437500000000009
 40
0.875000000000001
 40
0.875000000000001
 40
0.9062500000000006
 40
0.9062500000000006
 40
0.9375000000000003
 40
0.9375000000000003
 40
0.9687500000000002
 40
0.9687500000000002
 40
1.0
 40
1.0
 40
1.03125
 40
1.03125
 10
203.4799039948307
 20
130.0359980477697
 30
0.0
 10
203.8766758227098
 20
130.0359980477697
 30
0.0
 10
204.071710511851
 20
130.0209517342939
 30
0.0
 10
204.4553626915363
 20
129.9618786620432
 30
0.0
 10
204.6459818204076
 20
129.9171224907473
 30
0.0
 10
205.009196181989
 20
129.7999356704982
 30
0.0
 10
205.1814358235
 20
129.7280648057593
 30
0.0
 10
205.5074058849772
 20
129.5573803036625
 30
0.0
 10
205.6616051068796
 20
129.4577232389751
 30
0.0
 10
205.9380583511219
 20
129.2386452443454
 30
0.0
 10
206.062176905751
 20
129.1184554946142
 30
0.0
 10
206.2814943087563
 20
128.8554261373467
 30
0.0
 10
206.3745835343377
 20
128.7146587310221
 30
0.0
 10
206.5242604816187
 20
128.4210265715392
 30
0.0
 10
206.581947642068
 20
128.2659851607076
 30
0.0
 10
206.6590815330644
 20
127.9460927013806
 30
0.0
 10
206.6781810827537
 20
127.7840090232325
 30
0.0
 10
206.6783978162411
 20
127.4555290425355
 30
0.0
 10
206.6588850016154
 20
127.2873866149039
 30
0.0
 10
206.5822839585362
 20
126.9596801662402
 30
0.0
 10
206.5256087935232
 20
126.79917444891
 30
0.0
 10
206.3752595805789
 20
126.4852884826464
 30
0.0
 10
206.2814036765376
 20
126.3326591289094
 30
0.0
 10
206.0643736091963
 20
126.0483635794636
 30
0.0
 10
205.9403557622688
 20
125.9148445321404
 30
0.0
 10
205.6605405399466
 20
125.667002925284
 30
0.0
 10
205.509212183789
 20
125.5566139669021
 30
0.0
 10
205.1845465140527
 20
125.3625192794553
 30
0.0
 10
205.0091248957862
 20
125.2781275022234
 30
0.0
 10
204.6459435081471
 20
125.1426592858329
 30
0.0
 10
204.4589557900681
 20
125.0913691192524
 30
0.0
 10
204.0742315882839
 20
125.0218775127142
 30
0.0
 10
203.8752757217652
 20
125.0040410454603
 30
0.0
 10
203.4835466721826
 20
125.0039086138073
 30
0.0
 10
203.2887580070087
 20
125.0210372837169
 30
0.0
 10
202.9013834293048
 20
125.0903807485905
 30
0.0
 10
202.7120597414624
 20
125.1422955585649
 30
0.0
 10
202.3509193424702
 20
125.2766702878193
 30
0.0
 10
202.1763324583453
 20
125.3601740869131
 30
0.0
 10
201.8484232791584
 20
125.5557615475898
 30
0.0
 10
201.6974116068372
 20
125.6661132541455
 30
0.0
 10
201.4205925422046
 20
125.9106560648889
 30
0.0
 10
201.2938460629645
 20
126.0464349891516
 30
0.0
 10
201.0759651128749
 20
126.3314085461647
 30
0.0
 10
200.9836670884205
 20
126.4811666238735
 30
0.0
 10
200.8326952680689
 20
126.794817765374
 30
0.0
 10
200.7747759939745
 20
126.9582882764657
 30
0.0
 10
200.6981334194589
 20
127.2848559609323
 30
0.0
 10
200.6784727680079
 20
127.4496908513344
 30
0.0
 10
200.6781095636858
 20
127.7824561334625
 30
0.0
 10
200.6974178613029
 20
127.9447973121849
 30
0.0
 10
200.7733852023702
 20
128.2617589102163
 30
0.0
 10
200.8309815965116
 20
128.4180195744041
 30
0.0
 10
200.9812976620235
 20
128.7136657078598
 30
0.0
 10
201.0733045641302
 20
128.8528071765873
 30
0.0
 10
201.2907352307561
 20
129.1145279284402
 30
0.0
 10
201.4171884555932
 20
129.2374358723452
 30
0.0
 10
201.6934454004043
 20
129.45666276081
 30
0.0
 10
201.8442489627172
 20
129.5544885286695
 30
0.0
 10
202.1719560326608
 20
129.7267008374118
 30
0.0
 10
202.3461784151158
 20
129.7993999219476
 30
0.0
 10
202.7069451920395
 20
129.9160888902855
 30
0.0
 10
202.8959195699825
 20
129.9608911343836
 30
0.0
 10
203.2837631920887
 20
130.0209504395446
 30
0.0
 10
203.4799039948307
 20
130.0359980477697
 30
0.0
 10
203.8766758227098
 20
130.0359980477697
 30
0.0
  0
ELLIPSE
  5
64
330
1F
100
AcDbEntity
  8
0
  6
Continuous
 62
     7
370
    15
100
AcDbEllipse
 10
276.29235556
 20
114.0024009851
 30
0.0
 11
357.5166355196895
 21
-1.752438844971252
 31
0.0
210
0.0
220
0.0
230
1.0
 40
0.0697548059
 41
1.735169823530672
 42
1.74395957709452
  0
SPLINE
  5
65
330
1F
100
AcDbEntity
  8
0
  6
Continuous
 62
     7
370
    15
100
AcDbSpline
210
0.0
220
0.0
230
1.0
 70
     8
 71
     3
 72
    20
 73
    16
 74
     0
 42
0.00000001
 43
0.00000001
 12
1.0
 22
0.0
 32
0.0
 13
1.0
 23
0.0
 33
0.0
 40
0.0
 40
0.0
 40
0.0
 40
0.0
 40
0.2499999999999987
 40
0.2499999999999987
 40
0.3749999999999989
 40
0.3749999999999989
 40
0.4999999999999991
 40
0.4999999999999991
 40
0.6249999999999992
 40
0.6249999999999992
 40
0.7499999999999994
 40
0.7499999999999994
 40
0.8749999999999998
 40
0.8749999999999998
 40
1.0
 40
1.0
 40
1.0
 40
1.0
 10
212.1244484166362
 20
138.5341828798208
 30
0.0
 10
212.2035676624322
 20
138.5930982764312
 30
0.0
 10
212.325431720594
 20
138.6428403355644
 30
0.0
 10
212.5738782600549
 20
138.7065082528842
 30
0.0
 10
212.6673123883413
 20
138.7256846054039
 30
0.0
 10
212.8704151485061
 20
138.7596836234055
 30
0.0
 10
212.9806927460077
 20
138.774669407658
 30
0.0
 10
213.2191216355551
 20
138.8012131241132
 30
0.0
 10
213.3479311161675
 20
138.8127776582844
 30
0.0
 10
213.6146944575773
 20
138.8322504485673
 30
0.0
 10
213.7536342123289
 20
138.8402897764955
 30
0.0
 10
214.0426777345773
 20
138.8535149841242
 30
0.0
 10
214.1939106261225
 20
138.8587167334611
 30
0.0
 10
214.4999761047866
 20
138.8663031285368
 30
0.0
 10
214.655300600726
 20
138.8687339651973
 30
0.0
 10
214.812956474271
 20
138.8698847002837
 30
0.0
  0
ELLIPSE
  5
66
330
1F
100
AcDbEntity
  8
0
  6
Continuous
 62
     7
370
    15
100
AcDbEllipse
 10
213.8702160199
 20
114.0024009851
 30
0.0
 11
-0.5032127365421104
 21
24.999638426876
 31
0.0
210
0.0
220
0.0
230
1.0
 40
0.2671959542
 41
0.1884643281929065
 42
2.80274542079581
  0
SPLINE
  5
67
330
1F
100
AcDbEntity
  8
0
  6
Continuous
 62
     7
370
    15
100
AcDbSpline
210
0.0
220
0.0
230
1.0
 70
     8
 71
     3
 72
    18
 73
    14
 74
     0
 42
0.00000001
 43
0.00000001
 12
1.0
 22
0.0
 32
0.0
 13
1.0
 23
0.0
 33
0.0
 40
0.0
 40
0.0
 40
0.0
 40
0.0
 40
0.250000000000001
 40
0.250000000000001
 40
0.500000000000002
 40
0.500000000000002
 40
0.6250000000000014
 40
0.6250000000000014
 40
0.750000000000001
 40
0.750000000000001
 40
0.8750000000000004
 40
0.8750000000000004
 40
1.0
 40
1.0
 40
1.0
 40
1.0
 10
214.812956474271
 20
89.73469157574398
 30
0.0
 10
214.497723249782
 20
89.74006779217252
 30
0.0
 10
214.1944038463783
 20
89.75704221957551
 30
0.0
 10
213.6112997003569
 20
89.81629072003756
 30
0.0
 10
213.3434278991355
 20
89.85758754356222
 30
0.0
 10
212.9842207510055
 20
89.93906953574471
 30
0.0
 10
212.8719466778774
 20
89.96954193865791
 30
0.0
 10
212.6684983114087
 20
90.0357861578382
 30
0.0
 10
212.5762833919598
 20
90.07177797262182
 30
0.0
 10
212.4108510241441
 20
90.15013656332374
 30
0.0
 10
212.337645537619
 20
90.19266419799894
 30
0.0
 10
212.2145578947114
 20
90.28223133641869
 30
0.0
 10
212.1640034520532
 20
90.32953749637372
 30
0.0
 10
212.1244484166362
 20
90.37958687554206
 30
0.0
  0
ELLIPSE
  5
68
330
1F
100
AcDbEntity
  8
0
  6
Continuous
 62
     7
370
    15
100
AcDbEllipse
 10
276.29235556
 20
114.0024009851
 30
0.0
 11
357.5166355196895
 21
-1.752438844971252
 31
0.0
210
0.0
220
0.0
230
1.0
 40
0.0697548059
 41
4.539909564148261
 42
4.544926629495066
  0
ELLIPSE
  5
69
330
1F
100
AcDbEntity
  8
0
  6
Continuous
 62
     7
370
    15
100
AcDbEllipse
 10
233.3119916674
 20
114.0024009851
 30
0.0
 11
18.10719883871448
 21
24.95724044761382
 31
0.0
210
0.0
220
0.0
230
1.0
 40
0.0807169094
 41
3.200088292500374
 42
3.437705730501356
  0
SPLINE
  5
6A
330
1F
100
AcDbEntity
  8
0
  6
Continuous
 62
     7
370
    15
100
AcDbSpline
210
0.0
220
0.0
230
1.0
 70
     8
 71
     3
 72
    12
 73
     8
 74
     0
 42
0.00000001
 43
0.00000001
 12
1.0
 22
0.0
 32
0.0
 13
1.0
 23
0.0
 33
0.0
 40
0.0
 40
0.0
 40
0.0
 40
0.0
 40
0.4999999999999982
 40
0.4999999999999982
 40
0.7499999999999991
 40
0.7499999999999991
 40
1.0
 40
1.0
 40
1.0
 40
1.0
 10
193.7730340204445
 20
122.0988539831698
 30
0.0
 10
193.8037334038118
 20
121.984518316106
 30
0.0
 10
193.8450834719183
 20
121.8731649632646
 30
0.0
 10
193.9448394001377
 20
121.7204281910159
 30
0.0
 10
193.9845363178704
 20
121.6725683051637
 30
0.0
 10
194.0817944695181
 20
121.5979651918143
 30
0.0
 10
194.1425706275087
 20
121.5712109543062
 30
0.0
 10
194.2060467223367
 20
121.5712109543062
 30
0.0
  0
LINE
  5
6B
330
1F
100
AcDbEntity
  8
0
  6
Continuous
 62
     7
370
    15
100
AcDbLine
 10
194.2060465774
 20
121.5712111203
 30
0.0
 11
197.1505327931
 21
121.5712111203
 31
0.0
  0
SPLINE
  5
6C
330
1F
100
AcDbEntity
  8
0
  6
Continuous
 62
     7
370
    15
100
AcDbSpline
210
0.0
220
0.0
230
1.0
 70
     8
 71
     3
 72
    12
 73
     8
 74
     0
 42
0.00000001
 43
0.00000001
 12
1.0
 22
0.0
 32
0.0
 13
1.0
 23
0.0
 33
0.0
 40
0.0
 40
0.0
 40
0.0
 40
0.0
 40
0.2499999999999982
 40
0.2499999999999982
 40
0.4999999999999963
 40
0.4999999999999963
 40
1.0
 40
1.0
 40
1.0
 40
1.0
 10
197.1505330952038
 20
121.5712109543062
 30
0.0
 10
197.2141983317343
 20
121.5712109543062
 30
0.0
 10
197.2738045639577
 20
121.5972831027859
 30
0.0
 10
197.3724650888885
 20
121.672821853607
 30
0.0
 10
197.4114320789038
 20
121.7200727907032
 30
0.0
 10
197.5108189108282
 20
121.8718966086696
 30
0.0
 10
197.5528951582517
 20
121.9846998584347
 30
0.0
 10
197.583545797096
 20
122.0988539831698
 30
0.0
  0
ELLIPSE
  5
6D
330
1F
100
AcDbEntity
  8
0
  6
Continuous
 62
     7
370
    15
100
AcDbEllipse
 10
184.6220322538
 20
114.0024009851
 30
0.0
 11
11.70927234972711
 21
24.67718644093742
 31
0.0
210
0.0
220
0.0
230
1.0
 40
0.3419987131
 41
5.203068809370449
 42
6.114256032590494
  0
SPLINE
  5
6E
330
1F
100
AcDbEntity
  8
0
  6
Continuous
 62
     7
370
    15
100
AcDbSpline
210
0.0
220
0.0
230
1.0
 70
     8
 71
     3
 72
    12
 73
     8
 74
     0
 42
0.00000001
 43
0.00000001
 12
1.0
 22
0.0
 32
0.0
 13
1.0
 23
0.0
 33
0.0
 40
0.0
 40
0.0
 40
0.0
 40
0.0
 40
0.500000000000001
 40
0.500000000000001
 40
0.7500000000000004
 40
0.7500000000000004
 40
1.0
 40
1.0
 40
1.0
 40
1.0
 10
197.583545797096
 20
137.6550424623573
 30
0.0
 10
197.5528464137287
 20
137.6941803047532
 30
0.0
 10
197.5114963456222
 20
137.7313400874787
 30
0.0
 10
197.4117404174027
 20
137.7812765931065
 30
0.0
 10
197.37204349967
 20
137.7967294632502
 30
0.0
 10
197.2747853480224
 20
137.8206490068493
 30
0.0
 10
197.2140091900317
 20
137.8291321006276
 30
0.0
 10
197.1505330952038
 20
137.8291321006276
 30
0.0
  0
LINE
  5
6F
330
1F
100
AcDbEntity
  8
0
  6
Continuous
 62
     7
370
    15
100
AcDbLine
 10
197.1505327931
 20
137.829132354
 30
0.0
 11
194.2060465774
 21
137.829132354
 31
0.0
  0
SPLINE
  5
70
330
1F
100
AcDbEntity
  8
0
  6
Continuous
 62
     7
370
    15
100
AcDbSpline
210
0.0
220
0.0
230
1.0
 70
     8
 71
     3
 72
    12
 73
     8
 74
     0
 42
0.00000001
 43
0.00000001
 12
1.0
 22
0.0
 32
0.0
 13
1.0
 23
0.0
 33
0.0
 40
0.0
 40
0.0
 40
0.0
 40
0.0
 40
0.2500000000000016
 40
0.2500000000000016
 40
0.5000000000000032
 40
0.5000000000000032
 40
1.0
 40
1.0
 40
1.0
 40
1.0
 10
194.2060467223367
 20
137.8291321006276
 30
0.0
 10
194.1423814858062
 20
137.8291321006276
 30
0.0
 10
194.0827752535828
 20
137.8208673249618
 30
0.0
 10
193.984114728652
 20
137.7966485433786
 30
0.0
 10
193.9451477386367
 20
137.7813912240695
 30
0.0
 10
193.8457609067123
 20
137.7317578698076
 30
0.0
 10
193.8036846592888
 20
137.6941181616334
 30
0.0
 10
193.7730340204445
 20
137.6550424623573
 30
0.0
  0
ELLIPSE
  5
71
330
1F
100
AcDbEntity
  8
0
  6
Continuous
 62
     7
370
    15
100
AcDbEllipse
 10
206.7345475638
 20
114.0024009851
 30
0.0
 11
-11.70927234972695
 21
24.67718644093742
 31
0.0
210
0.0
220
0.0
230
1.0
 40
0.3419987131
 41
0.1689292745891322
 42
1.08011649780915
  0
SPLINE
  5
72
330
1F
100
AcDbEntity
  8
0
  6
Continuous
 62
     7
370
    15
100
AcDbSpline
210
0.0
220
0.0
230
1.0
 70
     8
 71
     3
 72
    12
 73
     8
 74
     0
 42
0.00000001
 43
0.00000001
 12
1.0
 22
0.0
 32
0.0
 13
1.0
 23
0.0
 33
0.0
 40
0.0
 40
0.0
 40
0.0
 40
0.0
 40
0.4999999999999996
 40
0.4999999999999996
 40
0.7499999999999998
 40
0.7499999999999998
 40
1.0
 40
1.0
 40
1.0
 40
1.0
 10
193.7730340204445
 20
90.34975950789409
 30
0.0
 10
193.8038857310087
 20
90.31042746753161
 30
0.0
 10
193.8457785944693
 20
90.27301570200333
 30
0.0
 10
193.9452994722625
 20
90.22334477738741
 30
0.0
 10
193.9849136369868
 20
90.2079556947796
 30
0.0
 10
194.0820166707663
 20
90.18412247911235
 30
0.0
 10
194.1425153434167
 20
90.17566986962355
 30
0.0
 10
194.2060467223366
 20
90.17566986962355
 30
0.0
  0
LINE
  5
73
330
1F
100
AcDbEntity
  8
0
  6
Continuous
 62
     7
370
    15
100
AcDbLine
 10
194.2060465774
 20
90.1756696162
 30
0.0
 11
197.1505327931
 21
90.1756696162
 31
0.0
  0
SPLINE
  5
74
330
1F
100
AcDbEntity
  8
0
  6
Continuous
 62
     7
370
    15
100
AcDbSpline
210
0.0
220
0.0
230
1.0
 70
     8
 71
     3
 72
    12
 73
     8
 74
     0
 42
0.00000001
 43
0.00000001
 12
1.0
 22
0.0
 32
0.0
 13
1.0
 23
0.0
 33
0.0
 40
0.0
 40
0.0
 40
0.0
 40
0.0
 40
0.2500000000000009
 40
0.2500000000000009
 40
0.5000000000000019
 40
0.5000000000000019
 40
1.0
 40
1.0
 40
1.0
 40
1.0
 10
197.1505330952038
 20
90.17566986962376
 30
0.0
 10
197.2141696494175
 20
90.17566986962376
 30
0.0
 10
197.2737497762837
 20
90.18392664055553
 30
0.0
 10
197.3723865176501
 20
90.20812870256334
 30
0.0
 10
197.4113451420304
 20
90.22337552159746
 30
0.0
 10
197.5107240815383
 20
90.27298039365759
 30
0.0
 10
197.5526819867038
 20
90.31041204177642
 30
0.0
 10
197.5835457970962
 20
90.34975950789408
 30
0.0
  0
ELLIPSE
  5
75
330
1F
100
AcDbEntity
  8
0
  6
Continuous
 62
     7
370
    15
100
AcDbEllipse
 10
184.6220322538
 20
114.0024009851
 30
0.0
 11
-11.70927234972717
 21
24.67718644093742
 31
0.0
210
0.0
220
0.0
230
1.0
 40
0.3419987131
 41
3.310521928178956
 42
4.221709151398944
  0
SPLINE
  5
76
330
1F
100
AcDbEntity
  8
0
  6
Continuous
 62
     7
370
    15
100
AcDbSpline
210
0.0
220
0.0
230
1.0
 70
     8
 71
     3
 72
    12
 73
     8
 74
     0
 42
0.00000001
 43
0.00000001
 12
1.0
 22
0.0
 32
0.0
 13
1.0
 23
0.0
 33
0.0
 40
0.0
 40
0.0
 40
0.0
 40
0.0
 40
0.5000000000000018
 40
0.5000000000000018
 40
0.7500000000000009
 40
0.7500000000000009
 40
1.0
 40
1.0
 40
1.0
 40
1.0
 10
197.583545797096
 20
105.9059479870814
 30
0.0
 10
197.5526940865318
 20
106.0208509760182
 30
0.0
 10
197.5108012230712
 20
106.1329898720671
 30
0.0
 10
197.411280345278
 20
106.2849321536679
 30
0.0
 10
197.3716661805537
 20
106.3325967631928
 30
0.0
 10
197.2745631467742
 20
106.4069330938082
 30
0.0
 10
197.2140644741238
 20
106.4335910159454
 30
0.0
 10
197.1505330952039
 20
106.4335910159454
 30
0.0
  0
LINE
  5
77
330
1F
100
AcDbEntity
  8
0
  6
Continuous
 62
     7
370
    15
100
AcDbLine
 10
197.1505327931
 20
106.43359085
 30
0.0
 11
194.2060465774
 21
106.43359085
 31
0.0
  0
SPLINE
  5
78
330
1F
100
AcDbEntity
  8
0
  6
Continuous
 62
     7
370
    15
100
AcDbSpline
210
0.0
220
0.0
230
1.0
 70
     8
 71
     3
 72
    12
 73
     8
 74
     0
 42
0.00000001
 43
0.00000001
 12
1.0
 22
0.0
 32
0.0
 13
1.0
 23
0.0
 33
0.0
 40
0.0
 40
0.0
 40
0.0
 40
0.0
 40
0.2500000000000009
 40
0.2500000000000009
 40
0.5000000000000019
 40
0.5000000000000019
 40
1.0
 40
1.0
 40
1.0
 40
1.0
 10
194.2060467223367
 20
106.433591015945
 30
0.0
 10
194.142410168123
 20
106.433591015945
 30
0.0
 10
194.0828300412568
 20
106.4075441128871
 30
0.0
 10
193.9841932998904
 20
106.3320569539871
 30
0.0
 10
193.9452346755101
 20
106.2848379154564
 30
0.0
 10
193.8458557360022
 20
106.1330982643629
 30
0.0
 10
193.8038978308368
 20
106.0208960401787
 30
0.0
 10
193.7730340204443
 20
105.9059479870814
 30
0.0
  0
ELLIPSE
  5
79
330
1F
100
AcDbEntity
  8
0
  6
Continuous
 62
     7
370
    15
100
AcDbEllipse
 10
206.7345475638
 20
114.0024009851
 30
0.0
 11
11.70927234972709
 21
24.67718644093745
 31
0.0
210
0.0
220
0.0
230
1.0
 40
0.3419987131
 41
2.061476155780655
 42
2.972663379000673
  0
ELLIPSE
  5
7A
330
1F
100
AcDbEntity
  8
0
  6
Continuous
 62
     7
370
    15
100
AcDbEllipse
 10
211.0775963194
 20
126.6355392345
 30
0.0
 11
0.1424585260392632
 21
3.057101727617024
 31
0.0
210
0.0
220
0.0
230
1.0
 40
0.2280975724
 41
0.0
 42
6.283185307179586
  0
SPLINE
  5
7B
330
1F
100
AcDbEntity
  8
0
  6
Continuous
 62
     7
370
    15
100
AcDbSpline
210
0.0
220
0.0
230
1.0
 70
     8
 71
     3
 72
    16
 73
    12
 74
     0
 42
0.00000001
 43
0.00000001
 12
1.0
 22
0.0
 32
0.0
 13
1.0
 23
0.0
 33
0.0
 40
0.0
 40
0.0
 40
0.0
 40
0.0
 40
0.2500000000000004
 40
0.2500000000000004
 40
0.5000000000000009
 40
0.5000000000000009
 40
0.6250000000000008
 40
0.6250000000000008
 40
0.7500000000000007
 40
0.7500000000000007
 40
1.0
 40
1.0
 40
1.0
 40
1.0
 10
184.6374288806412
 20
96.65324370393317
 30
0.0
 10
184.6691568418339
 20
96.65244658711224
 30
0.0
 10
184.7037844321844
 20
96.65185551225697
 30
0.0
 10
184.7834781942481
 20
96.65084398682252
 30
0.0
 10
184.8285196542517
 20
96.65044387864764
 30
0.0
 10
184.9113723811022
 20
96.6494860067438
 30
0.0
 10
184.941286842302
 20
96.64910432548338
 30
0.0
 10
185.00727317286
 20
96.64802811142484
 30
0.0
 10
185.0440067983218
 20
96.64731054553069
 30
0.0
 10
185.1565035178915
 20
96.64454966784903
 30
0.0
 10
185.2268448659898
 20
96.64206257597745
 30
0.0
 10
185.283313019895
 20
96.63988929757033
 30
0.0
  0
SPLINE
  5
7C
330
1F
100
AcDbEntity
  8
0
  6
Continuous
 62
     7
370
    15
100
AcDbSpline
210
0.0
220
0.0
230
1.0
 70
     8
 71
     3
 72
    14
 73
    10
 74
     0
 42
0.00000001
 43
0.00000001
 12
1.0
 22
0.0
 32
0.0
 13
1.0
 23
0.0
 33
0.0
 40
0.0
 40
0.0
 40
0.0
 40
0.0
 40
0.1249999999999951
 40
0.1249999999999951
 40
0.2499999999999902
 40
0.2499999999999902
 40
0.4999999999999917
 40
0.4999999999999917
 40
1.0
 40
1.0
 40
1.0
 40
1.0
 10
185.2833130198634
 20
96.63988929759306
 30
0.0
 10
185.2959048138082
 20
96.63940467977072
 30
0.0
 10
185.3107759221023
 20
96.63769450183837
 30
0.0
 10
185.3429600135354
 20
96.62957895308749
 30
0.0
 10
185.3585641450113
 20
96.62336316482615
 30
0.0
 10
185.3944512847234
 20
96.60514405312456
 30
0.0
 10
185.4083033259921
 20
96.59337902479092
 30
0.0
 10
185.4417930679247
 20
96.5615838883736
 30
0.0
 10
185.4524553285004
 20
96.54379045653046
 30
0.0
 10
185.4605932853953
 20
96.52735932568604
 30
0.0
  0
LINE
  5
7D
330
1F
100
AcDbEntity
  8
0
  6
Continuous
 62
     7
370
    15
100
AcDbLine
 10
185.4782899138
 20
108.017920958
 30
0.0
 11
185.4782899138
 21
96.1625799296
 31
0.0
  0
SPLINE
  5
7E
330
1F
100
AcDbEntity
  8
0
  6
Continuous
 62
     7
370
    15
100
AcDbSpline
210
0.0
220
0.0
230
1.0
 70
     8
 71
     3
 72
    16
 73
    12
 74
     0
 42
0.00000001
 43
0.00000001
 12
1.0
 22
0.0
 32
0.0
 13
1.0
 23
0.0
 33
0.0
 40
0.0
 40
0.0
 40
0.0
 40
0.0
 40
0.4999999999999998
 40
0.4999999999999998
 40
0.7500000000000014
 40
0.7500000000000014
 40
0.8749999999999996
 40
0.8749999999999996
 40
0.9374999999999998
 40
0.9374999999999998
 40
1.0
 40
1.0
 40
1.0
 40
1.0
 10
185.4782899087703
 20
108.0179207525511
 30
0.0
 10
185.4782899087703
 20
108.1324504832501
 30
0.0
 10
185.4742326066552
 20
108.2477665584396
 30
0.0
 10
185.4485753638604
 20
108.4226896482671
 30
0.0
 10
185.4372599181183
 20
108.482518951262
 30
0.0
 10
185.4032285508096
 20
108.5671101375102
 30
0.0
 10
185.3893495696059
 20
108.5957797236543
 30
0.0
 10
185.3534138878385
 20
108.6255875106006
 30
0.0
 10
185.3384635685757
 20
108.6319226639602
 30
0.0
 10
185.3085650558339
 20
108.6306972010899
 30
0.0
 10
185.2950321954687
 20
108.6240986150551
 30
0.0
 10
185.2833130198946
 20
108.6154509269987
 30
0.0
  0
SPLINE
  5
7F
330
1F
100
AcDbEntity
  8
0
  6
Continuous
 62
     7
370
    15
100
AcDbSpline
210
0.0
220
0.0
230
1.0
 70
     8
 71
     3
 72
    14
 73
    10
 74
     0
 42
0.00000001
 43
0.00000001
 12
1.0
 22
0.0
 32
0.0
 13
1.0
 23
0.0
 33
0.0
 40
0.0
 40
0.0
 40
0.0
 40
0.0
 40
0.25
 40
0.25
 40
0.5
 40
0.5
 40
0.75
 40
0.75
 40
1.0
 40
1.0
 40
1.0
 40
1.0
 10
185.2833130199014
 20
108.6154509269901
 30
0.0
 10
185.2268533540177
 20
108.5737888172913
 30
0.0
 10
185.1559808791555
 20
108.542955336703
 30
0.0
 10
185.0075145212735
 20
108.5486698453162
 30
0.0
 10
184.9383193180657
 20
108.5842407727492
 30
0.0
 10
184.8286021319962
 20
108.6711846852231
 30
0.0
 10
184.7833562430642
 20
108.7236169985882
 30
0.0
 10
184.7037391120973
 20
108.8321700801067
 30
0.0
 10
184.6691364926404
 20
108.8891531663492
 30
0.0
 10
184.6374288806417
 20
108.9477192490071
 30
0.0
  0
SPLINE
  5
80
330
1F
100
AcDbEntity
  8
0
  6
Continuous
 62
     7
370
    15
100
AcDbSpline
210
0.0
220
0.0
230
1.0
 70
     8
 71
     3
 72
    10
 73
     6
 74
     0
 42
0.00000001
 43
0.00000001
 12
1.0
 22
0.0
 32
0.0
 13
1.0
 23
0.0
 33
0.0
 40
0.0
 40
0.0
 40
0.0
 40
0.0
 40
0.5
 40
0.5
 40
1.0
 40
1.0
 40
1.0
 40
1.0
 10
184.3569695652106
 20
109.8005378406534
 30
0.0
 10
184.3878481488226
 20
109.6509092887937
 30
0.0
 10
184.423840856546
 20
109.5044138712701
 30
0.0
 10
184.5131811080431
 20
109.2192222327293
 30
0.0
 10
184.5656394108886
 20
109.0803192070134
 30
0.0
 10
184.6374288806418
 20
108.9477192490069
 30
0.0
  0
SPLINE
  5
81
330
1F
100
AcDbEntity
  8
0
  6
Continuous
 62
     7
370
    15
100
AcDbSpline
210
0.0
220
0.0
230
1.0
 70
     8
 71
     3
 72
    10
 73
     6
 74
     0
 42
0.00000001
 43
0.00000001
 12
1.0
 22
0.0
 32
0.0
 13
1.0
 23
0.0
 33
0.0
 40
0.0
 40
0.0
 40
0.0
 40
0.0
 40
0.5
 40
0.5
 40
1.0
 40
1.0
 40
1.0
 40
1.0
 10
184.637428880641
 20
119.0570827212433
 30
0.0
 10
184.5656394108882
 20
118.924482763237
 30
0.0
 10
184.5131811080427
 20
118.7855797375213
 30
0.0
 10
184.4238408565458
 20
118.5003880989809
 30
0.0
 10
184.3878481488225
 20
118.3538926814576
 30
0.0
 10
184.3569695652106
 20
118.2042641295981
 30
0.0
  0
SPLINE
  5
82
330
1F
100
AcDbEntity
  8
0
  6
Continuous
 62
     7
370
    15
100
AcDbSpline
210
0.0
220
0.0
230
1.0
 70
     8
 71
     3
 72
    14
 73
    10
 74
     0
 42
0.00000001
 43
0.00000001
 12
1.0
 22
0.0
 32
0.0
 13
1.0
 23
0.0
 33
0.0
 40
0.0
 40
0.0
 40
0.0
 40
0.0
 40
0.25
 40
0.25
 40
0.5
 40
0.5
 40
0.75
 40
0.75
 40
1.0
 40
1.0
 40
1.0
 40
1.0
 10
184.6374288806404
 20
119.0570827212421
 30
0.0
 10
184.6691375801258
 20
119.1156508125607
 30
0.0
 10
184.7037453987664
 20
119.1726450745007
 30
0.0
 10
184.7834038092557
 20
119.2812452092647
 30
0.0
 10
184.8284660791506
 20
119.3335733446433
 30
0.0
 10
184.939047924729
 20
119.4210743560056
 30
0.0
 10
185.0066920455442
 20
119.4561198122598
 30
0.0
 10
185.1569403359414
 20
119.4618642010158
 30
0.0
 10
185.2268927341717
 20
119.4309840939659
 30
0.0
 10
185.2833130198952
 20
119.3893510432528
 30
0.0
  0
SPLINE
  5
83
330
1F
100
AcDbEntity
  8
0
  6
Continuous
 62
     7
370
    15
100
AcDbSpline
210
0.0
220
0.0
230
1.0
 70
     8
 71
     3
 72
    16
 73
    12
 74
     0
 42
0.00000001
 43
0.00000001
 12
1.0
 22
0.0
 32
0.0
 13
1.0
 23
0.0
 33
0.0
 40
0.0
 40
0.0
 40
0.0
 40
0.0
 40
0.0624999999999991
 40
0.0624999999999991
 40
0.1249999999999982
 40
0.1249999999999982
 40
0.2499999999999984
 40
0.2499999999999984
 40
0.4999999999999989
 40
0.4999999999999989
 40
1.0
 40
1.0
 40
1.0
 40
1.0
 10
185.2833130198634
 20
119.3893510431994
 30
0.0
 10
185.2950472543102
 20
119.3806922430552
 30
0.0
 10
185.3085790097892
 20
119.3740881578199
 30
0.0
 10
185.3385664702191
 20
119.3728911906457
 30
0.0
 10
185.3535611766274
 20
119.3793129377116
 30
0.0
 10
185.3893015990221
 20
119.4090300911209
 30
0.0
 10
185.4033149360233
 20
119.4378374885043
 30
0.0
 10
185.4374590248047
 20
119.5229172101302
 30
0.0
 10
185.448430928923
 20
119.5812921593999
 30
0.0
 10
185.4742764691893
 20
119.7570076841885
 30
0.0
 10
185.4782899087703
 20
119.872802692053
 30
0.0
 10
185.4782899087703
 20
119.9868812177004
 30
0.0
  0
LINE
  5
84
330
1F
100
AcDbEntity
  8
0
  6
Continuous
 62
     7
370
    15
100
AcDbLine
 10
185.4782899138
 20
131.8422220407
 30
0.0
 11
185.4782899138
 21
119.9868810122
 31
0.0
  0
SPLINE
  5
85
330
1F
100
AcDbEntity
  8
0
  6
Continuous
 62
     7
370
    15
100
AcDbSpline
210
0.0
220
0.0
230
1.0
 70
     8
 71
     3
 72
    16
 73
    12
 74
     0
 42
0.00000001
 43
0.00000001
 12
1.0
 22
0.0
 32
0.0
 13
1.0
 23
0.0
 33
0.0
 40
0.0
 40
0.0
 40
0.0
 40
0.0
 40
0.5000000000000046
 40
0.5000000000000046
 40
0.7500000000000058
 40
0.7500000000000058
 40
0.8750000000000033
 40
0.8750000000000033
 40
0.9375000000000017
 40
0.9375000000000017
 40
1.0
 40
1.0
 40
1.0
 40
1.0
 10
185.4782899087704
 20
131.5491554507933
 30
0.0
 10
185.4782899087701
 20
131.527140436214
 30
0.0
 10
185.4741653659161
 20
131.5017868015103
 30
0.0
 10
185.448248920283
 20
131.4546262993217
 30
0.0
 10
185.4369713392632
 20
131.437427311093
 30
0.0
 10
185.4032359607219
 20
131.4074493455237
 30
0.0
 10
185.3888471454775
 20
131.3960979369818
 30
0.0
 10
185.3536004560384
 20
131.3794100775044
 30
0.0
 10
185.3383950315815
 20
131.3738470506192
 30
0.0
 10
185.3087484524121
 20
131.366877467584
 30
0.0
 10
185.2950431164147
 20
131.3653641265286
 30
0.0
 10
185.283313019891
 20
131.3649126726787
 30
0.0
  0
SPLINE
  5
86
330
1F
100
AcDbEntity
  8
0
  6
Continuous
 62
     7
370
    15
100
AcDbSpline
210
0.0
220
0.0
230
1.0
 70
     8
 71
     3
 72
    14
 73
    10
 74
     0
 42
0.00000001
 43
0.00000001
 12
1.0
 22
0.0
 32
0.0
 13
1.0
 23
0.0
 33
0.0
 40
0.0
 40
0.0
 40
0.0
 40
0.0
 40
0.25
 40
0.25
 40
0.5
 40
0.5
 40
0.75
 40
0.75
 40
1.0
 40
1.0
 40
1.0
 40
1.0
 10
185.2833130199014
 20
131.3649126726813
 30
0.0
 10
185.2268659378431
 20
131.362740205262
 30
0.0
 10
185.1560155538004
 20
131.3602421073446
 30
0.0
 10
185.0075791189839
 20
131.3565956485564
 30
0.0
 10
184.938389867297
 20
131.3556279017051
 30
0.0
 10
184.8286783190561
 20
131.3543603423424
 30
0.0
 10
184.7834366697138
 20
131.3539575014141
 30
0.0
 10
184.7037886515299
 20
131.3529464664864
 30
0.0
 10
184.6691617357639
 20
131.3523555060918
 30
0.0
 10
184.6374288806425
 20
131.3515582663184
 30
0.0
  0
SPLINE
  5
87
330
1F
100
AcDbEntity
  8
0
  6
Continuous
 62
     7
370
    15
100
AcDbSpline
210
0.0
220
0.0
230
1.0
 70
     8
 71
     3
 72
    18
 73
    14
 74
     0
 42
0.00000001
 43
0.00000001
 12
1.0
 22
0.0
 32
0.0
 13
1.0
 23
0.0
 33
0.0
 40
0.0
 40
0.0
 40
0.0
 40
0.0
 40
0.2500000000000002
 40
0.2500000000000002
 40
0.3750000000000002
 40
0.3750000000000002
 40
0.5000000000000002
 40
0.5000000000000002
 40
0.6250000000000002
 40
0.6250000000000002
 40
0.7500000000000002
 40
0.7500000000000002
 40
1.0
 40
1.0
 40
1.0
 40
1.0
 10
184.3569695652106
 20
118.2042641295981
 30
0.0
 10
184.2216839589082
 20
117.5487097941769
 30
0.0
 10
184.1205162126653
 20
116.8690887003793
 30
0.0
 10
184.0176548697964
 20
115.8137246938853
 30
0.0
 10
183.9915520242731
 20
115.4549106293006
 30
0.0
 10
183.9566620407282
 20
114.7287976851777
 30
0.0
 10
183.9480757824383
 20
114.3667080061616
 30
0.0
 10
183.9479760728726
 20
113.6443983487432
 30
0.0
 10
183.9564644440212
 20
113.2841785466349
 30
0.0
 10
183.9906078235418
 20
112.565612477541
 30
0.0
 10
184.0164048053956
 20
112.2058467616256
 30
0.0
 10
184.1198059367835
 20
111.1392021746312
 30
0.0
 10
184.2216639289549
 20
110.4561892353489
 30
0.0
 10
184.3569695652106
 20
109.8005378406534
 30
0.0
  0
LINE
  5
88
330
1F
100
AcDbEntity
  8
0
  6
Continuous
 62
     7
370
    15
100
AcDbLine
 10
183.4782899207
 20
119.1425532793
 30
0.0
 11
183.4782899207
 21
108.8622486909
 31
0.0
  0
LINE
  5
89
330
1F
100
AcDbEntity
  8
0
  6
Continuous
 62
     7
370
    15
100
AcDbLine
 10
157.1782898939
 20
118.8121796345
 30
0.0
 11
157.1782898939
 21
109.1926223358
 31
0.0
  0
LINE
  5
8A
330
1F
100
AcDbEntity
  8
0
  6
Continuous
 62
     7
370
    15
100
AcDbLine
 10
155.6782905793
 20
118.3791667914
 30
0.0
 11
155.6782905793
 21
109.6256351789
 31
0.0
  0
LINE
  5
8B
330
1F
100
AcDbEntity
  8
0
  6
Continuous
 62
     7
370
    15
100
AcDbLine
 10
157.1782898939
 20
118.8121796345
 30
0.0
 11
157.1782898939
 21
130.8617517111
 31
0.0
  0
LINE
  5
8C
330
1F
100
AcDbEntity
  8
0
  6
Continuous
 62
     7
370
    15
100
AcDbLine
 10
157.1782898939
 20
130.8617517111
 30
0.0
 11
183.4782899207
 21
131.5224990008
 31
0.0
  0
LINE
  5
8D
330
1F
100
AcDbEntity
  8
0
  6
Continuous
 62
     7
370
    15
100
AcDbLine
 10
183.4782899207
 20
119.1425532793
 30
0.0
 11
183.4782899207
 21
131.5224990008
 31
0.0
  0
LINE
  5
8E
330
1F
100
AcDbEntity
  8
0
  6
Continuous
 62
     7
370
    15
100
AcDbLine
 10
157.1782898939
 20
97.1430502591
 30
0.0
 11
157.1782898939
 21
109.1926223358
 31
0.0
  0
LINE
  5
8F
330
1F
100
AcDbEntity
  8
0
  6
Continuous
 62
     7
370
    15
100
AcDbLine
 10
183.4782899207
 20
96.4823029695
 30
0.0
 11
183.4782899207
 21
108.8622486909
 31
0.0
  0
LINE
  5
90
330
1F
100
AcDbEntity
  8
0
  6
Continuous
 62
     7
370
    15
100
AcDbLine
 10
157.1782898939
 20
97.1430502591
 30
0.0
 11
183.4782899207
 21
96.4823029695
 31
0.0
  0
ARC
  5
91
330
1F
100
AcDbEntity
  8
0
  6
Continuous
 62
     7
370
    15
100
AcDbCircle
 10
183.6782268197
 20
96.4772790894
 30
0.0
 40
0.2000000000000059
100
AcDbArc
 50
88.5608333333
 51
178.5608333333
  0
ARC
  5
92
330
1F
100
AcDbEntity
  8
0
  6
Continuous
 62
     7
370
    15
100
AcDbCircle
 10
183.6782268197
 20
131.5275228808
 30
0.0
 40
0.2000000000000059
100
AcDbArc
 50
181.4391666667
 51
271.4391666667
  0
LINE
  5
93
330
1F
100
AcDbEntity
  8
0
  6
Continuous
 62
     7
370
    15
100
AcDbLine
 10
183.6832500378
 20
96.6772157458
 30
0.0
 11
184.6374288982
 21
96.6532435027
 31
0.0
  0
LINE
  5
94
330
1F
100
AcDbEntity
  8
0
  6
Continuous
 62
     7
370
    15
100
AcDbLine
 10
183.6832500378
 20
131.3275862244
 30
0.0
 11
184.6374288982
 21
131.3515584675
 31
0.0
  0
LINE
  5
95
330
1F
100
AcDbEntity
  8
0
  6
Continuous
 62
     7
370
    15
100
AcDbLine
 10
155.6782905793
 20
129.9957260249
 30
0.0
 11
157.1782898939
 21
130.8617517111
 31
0.0
  0
LINE
  5
96
330
1F
100
AcDbEntity
  8
0
  6
Continuous
 62
     7
370
    15
100
AcDbLine
 10
155.6782905793
 20
118.3791667914
 30
0.0
 11
155.6782905793
 21
129.9957260249
 31
0.0
  0
LINE
  5
97
330
1F
100
AcDbEntity
  8
0
  6
Continuous
 62
     7
370
    15
100
AcDbLine
 10
155.6782905793
 20
98.0090759454
 30
0.0
 11
157.1782898939
 21
97.1430502591
 31
0.0
  0
LINE
  5
98
330
1F
100
AcDbEntity
  8
0
  6
Continuous
 62
     7
370
    15
100
AcDbLine
 10
155.6782905793
 20
98.0090759454
 30
0.0
 11
155.6782905793
 21
109.6256351789
 31
0.0
  0
LINE
  5
99
330
1F
100
AcDbEntity
  8
0
  6
Continuous
 62
     7
370
    15
100
AcDbLine
 10
226.9742355531
 20
133.2427225766
 30
0.0
 11
221.8049184269
 21
130.5769607184
 31
0.0
  0
ARC
  5
9A
330
1F
100
AcDbEntity
  8
0
  6
Continuous
 62
     7
370
    15
100
AcDbCircle
 10
222.6954659636
 20
128.875264531
 30
0.0
 40
1.920636568842727
100
AcDbArc
 50
117.6243819527
 51
297.2566012763
  0
LINE
  5
9B
330
1F
100
AcDbEntity
  8
0
  6
Continuous
 62
     7
370
    15
100
AcDbLine
 10
223.5750720686
 20
127.1678870303
 30
0.0
 11
224.8839081115
 21
127.8428397832
 31
0.0
  0
ELLIPSE
  5
9C
330
1F
100
AcDbEntity
  8
0
  6
Continuous
 62
     7
370
    15
100
AcDbEllipse
 10
262.1242415333
 20
123.9581391895
 30
0.0
 11
-17.28642680684973
 21
19.55165705820394
 31
0.0
210
0.0
220
0.0
230
1.0
 40
0.9914502387
 41
0.4194811094843679
 42
0.842549262302248
  0
LINE
  5
9D
330
1F
100
AcDbEntity
  8
0
  6
Continuous
 62
     7
370
    15
100
AcDbLine
 10
236.1515776104
 20
124.1797012968
 30
0.0
 11
236.1515776104
 21
117.5164428764
 31
0.0
  0
LINE
  5
9E
330
1F
100
AcDbEntity
  8
0
  6
Continuous
 62
     7
370
    15
100
AcDbLine
 10
236.1515776104
 20
117.5164428764
 30
0.0
 11
216.5806867963
 21
89.7048618404
 31
0.0
  0
SPLINE
  5
9F
330
1F
100
AcDbEntity
  8
0
  6
Continuous
 62
     7
370
    15
100
AcDbSpline
210
0.0
220
0.0
230
1.0
 70
     8
 71
     3
 72
    10
 73
     6
 74
     0
 42
0.00000001
 43
0.00000001
 12
1.0
 22
0.0
 32
0.0
 13
1.0
 23
0.0
 33
0.0
 40
0.0
 40
0.0
 40
0.0
 40
0.0
 40
0.5
 40
0.5
 40
1.0
 40
1.0
 40
1.0
 40
1.0
 10
217.9109629207913
 20
138.8915191884579
 30
0.0
 10
218.1329383697436
 20
138.8929993555209
 30
0.0
 10
218.3474701567918
 20
138.9691931840113
 30
0.0
 10
218.6949591195381
 20
139.2419550292073
 30
0.0
 10
218.820140393831
 20
139.4324408502557
 30
0.0
 10
218.8768887470804
 20
139.6466786068012
 30
0.0
  0
LINE
  5
A0
330
1F
100
AcDbEntity
  8
0
  6
Continuous
 62
     7
370
    15
100
AcDbLine
 10
218.8768886811
 20
139.6466791389
 30
0.0
 11
218.9610727912
 21
139.9644370881
 31
0.0
  0
LINE
  5
A1
330
1F
100
AcDbEntity
  8
0
  6
Continuous
 62
     7
370
    15
100
AcDbLine
 10
221.3906102663
 20
139.9437058476
 30
0.0
 11
218.9610727912
 21
139.9644370881
 31
0.0
  0
ELLIPSE
  5
A2
330
1F
100
AcDbEntity
  8
0
  6
Continuous
 62
     7
370
    15
100
AcDbEllipse
 10
221.3906088546
 20
165.915964406
 30
0.0
 11
19.52855739459145
 21
-17.31328357430627
 31
0.0
210
0.0
220
0.0
230
1.0
 40
0.9914322785
 41
5.433461094891043
 42
5.833482676566425
  0
ARC
  5
A3
330
1F
100
AcDbEntity
  8
0
  6
Continuous
 62
     7
370
    15
100
AcDbCircle
 10
222.5612758435
 20
128.733948527
 30
0.0
 40
1.743696985919488
100
AcDbArc
 50
254.1493739594
 51
297.2386776284
  0
ARC
  5
A4
330
1F
100
AcDbEntity
  8
0
  6
Continuous
 62
     7
370
    15
100
AcDbCircle
 10
222.5452312999
 20
128.7444481564
 30
0.0
 40
1.738056070009158
100
AcDbArc
 50
117.3331146122
 51
195.7770865102
  0
LINE
  5
A5
330
1F
100
AcDbEntity
  8
0
  6
Continuous
 62
     7
370
    15
100
AcDbLine
 10
223.3593628591
 20
127.1836142746
 30
0.0
 11
224.6590309626
 21
127.8538387028
 31
0.0
  0
LINE
  5
A6
330
1F
100
AcDbEntity
  8
0
  6
Continuous
 62
     7
370
    15
100
AcDbLine
 10
221.7471801525
 20
130.2884537486
 30
0.0
 11
226.7894797808
 21
132.8887138275
 31
0.0
  0
LINE
  5
A7
330
1F
100
AcDbEntity
  8
0
  6
Continuous
 62
     7
370
    15
100
AcDbLine
 10
218.8768886811
 20
139.7407538948
 30
0.0
 11
218.8623451477
 21
139.6938804296
 31
0.0
  0
SPLINE
  5
A8
330
1F
100
AcDbEntity
  8
0
  6
Continuous
 62
     7
370
    15
100
AcDbSpline
210
0.0
220
0.0
230
1.0
 70
     8
 71
     3
 72
     8
 73
     4
 74
     0
 42
0.00000001
 43
0.00000001
 12
1.0
 22
0.0
 32
0.0
 13
1.0
 23
0.0
 33
0.0
 40
0.0
 40
0.0
 40
0.0
 40
0.0
 40
1.0
 40
1.0
 40
1.0
 40
1.0
 10
218.9610742083683
 20
139.9644377694009
 30
0.0
 10
218.9273837369012
 20
139.8898238349568
 30
0.0
 10
218.8992612823656
 20
139.8152618719552
 30
0.0
 10
218.8768887470804
 20
139.7407535782584
 30
0.0
  0
LWPOLYLINE
  5
A9
330
1F
100
AcDbEntity
  8
0
  6
Continuous
 62
     7
370
    15
100
AcDbPolyline
 90
        3
 70
   128
 43
0.0
 10
226.7294728047
 20
132.7737346051
 10
221.5727881378
 20
130.1144882796
 10
221.2332428283
 20
129.8848930506
  0
SPLINE
  5
AA
330
1F
100
AcDbEntity
  8
0
  6
Continuous
 62
     7
370
    15
100
AcDbSpline
210
0.0
220
0.0
230
1.0
 70
     8
 71
     3
 72
    10
 73
     6
 74
     0
 42
0.00000001
 43
0.00000001
 12
1.0
 22
0.0
 32
0.0
 13
1.0
 23
0.0
 33
0.0
 40
0.0
 40
0.0
 40
0.0
 40
0.0
 40
0.2724566995341118
 40
0.5448144687015835
 40
0.9999999999999999
 40
0.9999999999999999
 40
0.9999999999999999
 40
0.9999999999999999
 10
231.6346258705889
 20
142.0168336240094
 30
0.0
 10
231.6156181326499
 20
142.0057845692321
 30
0.0
 10
231.5776095585749
 20
141.9836904716437
 30
0.0
 10
231.5166231873933
 20
141.9297638676155
 30
0.0
 10
231.4852265779352
 20
141.8798444829317
 30
0.0
 10
231.4655833727156
 20
141.8486125526469
 30
0.0
  0
LINE
  5
AB
330
1F
100
AcDbEntity
  8
0
  6
Continuous
 62
     7
370
    15
100
AcDbLine
 10
245.1101594454
 20
148.9660199491
 30
0.0
 11
231.6346258706
 21
142.016833624
 31
0.0
  0
SPLINE
  5
AC
330
1F
100
AcDbEntity
  8
0
  6
Continuous
 62
     7
370
    15
100
AcDbSpline
210
0.0
220
0.0
230
1.0
 70
     8
 71
     3
 72
    15
 73
    11
 74
     0
 42
0.00000001
 43
0.00000001
 12
1.0
 22
0.0
 32
0.0
 13
1.0
 23
0.0
 33
0.0
 40
0.0
 40
0.0
 40
0.0
 40
0.0
 40
0.1368997175463284
 40
0.2736138685038708
 40
0.4079012012976145
 40
0.5393394641381993
 40
0.6692122277910729
 40
0.7996794195638833
 40
0.9324955685823937
 40
1.0
 40
1.0
 40
1.0
 40
1.0
 10
245.6410878187453
 20
148.4325024989884
 30
0.0
 10
245.6582302715227
 20
148.4750358362731
 30
0.0
 10
245.6924919406052
 20
148.5600448572078
 30
0.0
 10
245.6863125833655
 20
148.6995012823917
 30
0.0
 10
245.6372399721208
 20
148.826511805938
 30
0.0
 10
245.548982550293
 20
148.9280525208877
 30
0.0
 10
245.433388351185
 20
148.9938862796328
 30
0.0
 10
245.302689464363
 20
149.0179377815137
 30
0.0
 10
245.1912087385791
 20
149.0028167157517
 30
0.0
 10
245.1305876586453
 20
148.9752944555777
 30
0.0
 10
245.1101594454085
 20
148.9660199490826
 30
0.0
  0
LINE
  5
AD
330
1F
100
AcDbEntity
  8
0
  6
Continuous
 62
     7
370
    15
100
AcDbLine
 10
238.6261687464
 20
134.9911857156
 30
0.0
 11
245.6410878187
 21
148.432502499
 31
0.0
  0
SPLINE
  5
AE
330
1F
100
AcDbEntity
  8
0
  6
Continuous
 62
     7
370
    15
100
AcDbSpline
210
0.0
220
0.0
230
1.0
 70
     8
 71
     3
 72
    10
 73
     6
 74
     0
 42
0.00000001
 43
0.00000001
 12
1.0
 22
0.0
 32
0.0
 13
1.0
 23
0.0
 33
0.0
 40
0.0
 40
0.0
 40
0.0
 40
0.0
 40
0.2724577017436587
 40
0.5448279272261817
 40
1.0
 40
1.0
 40
1.0
 40
1.0
 10
238.4571262484824
 20
134.8229665068428
 30
0.0
 10
238.4761337833748
 20
134.8340157818501
 30
0.0
 10
238.5141427505312
 20
134.8561107843443
 30
0.0
 10
238.5751324383178
 20
134.9100334304043
 30
0.0
 10
238.6065272313075
 20
134.9599539534801
 30
0.0
 10
238.6261687463557
 20
134.9911857155602
 30
0.0
  0
LINE
  5
AF
330
1F
100
AcDbEntity
  8
0
  6
Continuous
 62
     7
370
    15
100
AcDbLine
 10
224.9815926737
 20
127.8737801818
 30
0.0
 11
238.4571262485
 21
134.8229665068
 31
0.0
  0
LINE
  5
B0
330
1F
100
AcDbEntity
  8
0
  6
Continuous
 62
     7
370
    15
100
AcDbLine
 10
231.4655833727
 20
141.8486125526
 30
0.0
 11
224.4506643003
 21
128.4072985632
 31
0.0
  0
LINE
  5
B1
330
1F
100
AcDbEntity
  8
0
  6
Continuous
 62
     7
370
    15
100
AcDbLine
 10
238.6086934096
 20
135.0009087232
 30
0.0
 11
245.6155062503
 21
148.4266947714
 31
0.0
  0
ARC
  5
B2
330
1F
100
AcDbEntity
  8
0
  6
Continuous
 62
     7
370
    15
100
AcDbCircle
 10
245.2777250756
 20
148.6018380893
 30
0.0
 40
0.3804882439199804
100
AcDbArc
 50
332.59275561
 51
117.1282205755
  0
LINE
  5
B3
330
1F
100
AcDbEntity
  8
0
  6
Continuous
 62
     7
370
    15
100
AcDbLine
 10
245.1042287833
 20
148.9404681829
 30
0.0
 11
231.6442631966
 21
141.9993098584
 31
0.0
  0
ARC
  5
B4
330
1F
100
AcDbEntity
  8
0
  6
Continuous
 62
     7
370
    15
100
AcDbCircle
 10
231.8167853415
 20
141.6647359574
 30
0.0
 40
0.3764353673392536
100
AcDbArc
 50
117.2777749099
 51
152.4421675142
  0
LINE
  5
B5
330
1F
100
AcDbEntity
  8
0
  6
Continuous
 62
     7
370
    15
100
AcDbLine
 10
231.4830587095
 20
141.8388914076
 30
0.0
 11
224.4762458688
 21
128.4131062908
 31
0.0
  0
ARC
  5
B6
330
1F
100
AcDbEntity
  8
0
  6
Continuous
 62
     7
370
    15
100
AcDbCircle
 10
224.8140277213
 20
128.2379617756
 30
0.0
 40
0.3804893968195506
100
AcDbArc
 50
152.5926425441
 51
297.1286472463
  0
LINE
  5
B7
330
1F
100
AcDbEntity
  8
0
  6
Continuous
 62
     7
370
    15
100
AcDbLine
 10
224.9875270611
 20
127.8993319479
 30
0.0
 11
238.4474889225
 21
134.8404902724
 31
0.0
  0
ARC
  5
B8
330
1F
100
AcDbEntity
  8
0
  6
Continuous
 62
     7
370
    15
100
AcDbCircle
 10
238.2750048681
 20
135.1750258963
 30
0.0
 40
0.3763838900359386
100
AcDbArc
 50
297.2752917728
 51
332.4446506513
  0
SPLINE
  5
B9
330
1F
100
AcDbEntity
  8
0
  6
Continuous
 62
     7
370
    15
100
AcDbSpline
210
0.0
220
0.0
230
1.0
 70
     8
 71
     3
 72
    15
 73
    11
 74
     0
 42
0.00000001
 43
0.00000001
 12
1.0
 22
0.0
 32
0.0
 13
1.0
 23
0.0
 33
0.0
 40
0.0
 40
0.0
 40
0.0
 40
0.0
 40
0.1368996567204474
 40
0.2736146667726406
 40
0.4079028171977519
 40
0.5393427635361268
 40
0.6692122344147482
 40
0.7996792034558906
 40
0.93249489265168
 40
1.0
 40
1.0
 40
1.0
 40
1.0
 10
224.450664300326
 20
128.4072985631864
 30
0.0
 10
224.4335218272938
 20
128.3647651984859
 30
0.0
 10
224.3992600025475
 20
128.2797558369723
 30
0.0
 10
224.4054398810092
 20
128.1402991626941
 30
0.0
 10
224.4545110820914
 20
128.0132860490681
 30
0.0
 10
224.5427733256336
 20
127.911750277053
 30
0.0
 10
224.6583641552549
 20
127.8459120697043
 30
0.0
 10
224.7890625485156
 20
127.8218652374447
 30
0.0
 10
224.9005441353243
 20
127.8369802539254
 30
0.0
 10
224.9611645141702
 20
127.8645048165288
 30
0.0
 10
224.9815926736628
 20
127.8737801817696
 30
0.0
  0
LINE
  5
BA
330
1F
100
AcDbEntity
  8
0
  6
Continuous
 62
     7
370
    15
100
AcDbLine
 10
227.1156773752
 20
130.5282469598
 30
0.0
 11
224.7971833533
 21
128.2211625708
 31
0.0
  0
LINE
  5
BB
330
1F
100
AcDbEntity
  8
0
  6
Continuous
 62
     7
370
    15
100
AcDbLine
 10
227.1156773752
 20
130.5282469598
 30
0.0
 11
228.2270097023
 21
131.1013493446
 31
0.0
  0
LINE
  5
BC
330
1F
100
AcDbEntity
  8
0
  6
Continuous
 62
     7
370
    15
100
AcDbLine
 10
238.1555304712
 20
135.2539229897
 30
0.0
 11
238.25714894
 21
135.1623199639
 31
0.0
  0
LINE
  5
BD
330
1F
100
AcDbEntity
  8
0
  6
Continuous
 62
     7
370
    15
100
AcDbLine
 10
231.8951167947
 20
141.5448728708
 30
0.0
 11
231.803996194
 21
141.646945825
 31
0.0
  0
LINE
  5
BE
330
1F
100
AcDbEntity
  8
0
  6
Continuous
 62
     7
370
    15
100
AcDbLine
 10
227.6942000574
 20
131.6367592422
 30
0.0
 11
227.1156773752
 21
130.5282469598
 31
0.0
  0
SPLINE
  5
BF
330
1F
100
AcDbEntity
  8
0
  6
Continuous
 62
     7
370
    15
100
AcDbSpline
210
0.0
220
0.0
230
1.0
 70
     8
 71
     3
 72
    14
 73
    10
 74
     0
 42
0.00000001
 43
0.00000001
 12
1.0
 22
0.0
 32
0.0
 13
1.0
 23
0.0
 33
0.0
 40
0.0
 40
0.0
 40
0.0
 40
0.0
 40
0.2055172978014631
 40
0.3570144299623628
 40
0.4668486083728771
 40
0.5770822700939372
 40
0.7093653846096476
 40
0.9240592881762555
 40
1.0
 40
1.0
 40
1.0
 40
1.0
 10
228.2547109609877
 20
131.7157000062506
 30
0.0
 10
228.2195772787596
 20
131.7494175635035
 30
0.0
 10
228.1585447930888
 20
131.807990027287
 30
0.0
 10
228.0588372840824
 20
131.8593863738345
 30
0.0
 10
227.9706229681124
 20
131.872352593906
 30
0.0
 10
227.8879480069873
 20
131.8533552283569
 30
0.0
 10
227.7972708757218
 20
131.7923771382825
 30
0.0
 10
227.7355363591512
 20
131.7122690648154
 30
0.0
 10
227.7027633947101
 20
131.6524020562354
 30
0.0
 10
227.6942000573908
 20
131.6367592421811
 30
0.0
  0
SPLINE
  5
C0
330
1F
100
AcDbEntity
  8
0
  6
Continuous
 62
     7
370
    15
100
AcDbSpline
210
0.0
220
0.0
230
1.0
 70
     8
 71
     3
 72
    14
 73
    10
 74
     0
 42
0.00000001
 43
0.00000001
 12
1.0
 22
0.0
 32
0.0
 13
1.0
 23
0.0
 33
0.0
 40
0.0
 40
0.0
 40
0.0
 40
0.0
 40
0.2086092673408815
 40
0.3652065266037468
 40
0.4768551759753804
 40
0.5890213084893613
 40
0.7185670785102729
 40
0.9352585206366659
 40
1.0
 40
1.0
 40
1.0
 40
1.0
 10
228.2270097023284
 20
131.1013493446152
 30
0.0
 10
228.2696697806171
 20
131.1259150536269
 30
0.0
 10
228.3443536104155
 20
131.1689215670769
 30
0.0
 10
228.4216178641467
 20
131.2529398868901
 30
0.0
 10
228.4584724177974
 20
131.3361233686397
 30
0.0
 10
228.462066857549
 20
131.4213023731872
 30
0.0
 10
228.4263685554191
 20
131.5253508072742
 30
0.0
 10
228.366323133927
 20
131.6036378667734
 30
0.0
 10
228.3194658499642
 20
131.6506474492143
 30
0.0
 10
228.3086866921221
 20
131.6614616421502
 30
0.0
  0
ARC
  5
C1
330
1F
100
AcDbEntity
  8
0
  6
Continuous
 62
     7
370
    15
100
AcDbCircle
 10
230.0241306745
 20
133.4226532852
 30
0.0
 40
1.001287342716529
100
AcDbArc
 50
152.5926168595
 51
297.1285436186
  0
ARC
  5
C2
330
1F
100
AcDbEntity
  8
0
  6
Continuous
 62
     7
370
    15
100
AcDbCircle
 10
229.9814643634
 20
133.3801157577
 30
0.0
 40
2.398323811831785
100
AcDbArc
 50
223.9468876589
 51
225.7750019723
  0
LINE
  5
C3
330
1F
100
AcDbEntity
  8
0
  6
Continuous
 62
     7
370
    15
100
AcDbLine
 10
232.5763978845
 20
140.4771972207
 30
0.0
 11
229.1352317518
 21
133.8835600523
 31
0.0
  0
ARC
  5
C4
330
1F
100
AcDbEntity
  8
0
  6
Continuous
 62
     7
370
    15
100
AcDbCircle
 10
233.4545891958
 20
140.0189269804
 30
0.0
 40
0.990571346489879
100
AcDbArc
 50
117.2764132009
 51
152.4429080341
  0
LINE
  5
C5
330
1F
100
AcDbEntity
  8
0
  6
Continuous
 62
     7
370
    15
100
AcDbLine
 10
239.6110498196
 20
144.3082764504
 30
0.0
 11
233.0006264931
 21
140.8993527052
 31
0.0
  0
ARC
  5
C6
330
1F
100
AcDbEntity
  8
0
  6
Continuous
 62
     7
370
    15
100
AcDbCircle
 10
240.0676239767
 20
143.4171444306
 30
0.0
 40
1.001287290290564
100
AcDbArc
 50
332.5927709725
 51
117.1284684387
  0
LINE
  5
C7
330
1F
100
AcDbEntity
  8
0
  6
Continuous
 62
     7
370
    15
100
AcDbLine
 10
237.5153542346
 20
136.3626029102
 30
0.0
 11
240.9565240926
 21
142.9562400786
 31
0.0
  0
ARC
  5
C8
330
1F
100
AcDbEntity
  8
0
  6
Continuous
 62
     7
370
    15
100
AcDbCircle
 10
236.6371768933
 20
136.8208512214
 30
0.0
 40
0.9905488162688565
100
AcDbArc
 50
297.276418435
 51
332.4436587275
  0
LINE
  5
C9
330
1F
100
AcDbEntity
  8
0
  6
Continuous
 62
     7
370
    15
100
AcDbLine
 10
230.4807060248
 20
132.5315218178
 30
0.0
 11
237.0911293513
 21
135.940445563
 31
0.0
  0
CIRCLE
  5
CA
330
1F
100
AcDbEntity
  8
0
  6
Continuous
 62
     7
370
    15
100
AcDbCircle
 10
235.0509133998
 20
138.4095782368
 30
0.0
 40
3.039418005858538
  0
ARC
  5
CB
330
1F
100
AcDbEntity
  8
0
  6
Continuous
 62
     7
370
    15
100
AcDbCircle
 10
234.967729023
 20
138.3400257468
 30
0.0
 40
3.051386501822634
100
AcDbArc
 50
332.5274429456
 51
134.679458968
  0
LWPOLYLINE
  5
CC
330
1F
100
AcDbEntity
  8
0
  6
Continuous
 62
     7
370
    15
100
AcDbPolyline
 90
        3
 70
   128
 43
0.0
 10
237.1302672511
 20
136.1911110339
 10
237.3369649833
 20
136.419493681
 10
237.6750164515
 20
136.9323488084
  0
LINE
  5
CD
330
1F
100
AcDbEntity
  8
0
  6
Continuous
 62
     7
370
    15
100
AcDbLine
 10
242.8644650465
 20
146.2002154199
 30
0.0
 11
245.2639617807
 21
148.5881041495
 31
0.0
  0
LINE
  5
CE
330
1F
100
AcDbEntity
  8
0
  6
Continuous
 62
     7
370
    15
100
AcDbLine
 10
242.2859423643
 20
145.0917031375
 30
0.0
 11
242.8644650465
 21
146.2002154199
 31
0.0
  0
LINE
  5
CF
330
1F
100
AcDbEntity
  8
0
  6
Continuous
 62
     7
370
    15
100
AcDbLine
 10
242.8644650465
 20
146.2002154199
 30
0.0
 11
241.7531327194
 21
145.6271130351
 31
0.0
  0
SPLINE
  5
D0
330
1F
100
AcDbEntity
  8
0
  6
Continuous
 62
     7
370
    15
100
AcDbSpline
210
0.0
220
0.0
230
1.0
 70
     8
 71
     3
 72
    11
 73
     7
 74
     0
 42
0.00000001
 43
0.00000001
 12
1.0
 22
0.0
 32
0.0
 13
1.0
 23
0.0
 33
0.0
 40
0.0
 40
0.0
 40
0.0
 40
0.0
 40
0.3241882555624069
 40
0.6482211089178145
 40
0.988795734193415
 40
1.0
 40
1.0
 40
1.0
 40
1.0
 10
238.1555304712092
 20
135.2539229897301
 30
0.0
 10
238.1019213331071
 20
135.3034379848197
 30
0.0
 10
237.9947287548677
 20
135.402444239594
 30
0.0
 10
237.8215338976363
 20
135.5771817642838
 30
0.0
 10
237.7143275463603
 20
135.6925949905745
 30
0.0
 10
237.6651173672724
 20
135.7479657504129
 30
0.0
 10
237.6635500079428
 20
135.749729326133
 30
0.0
  0
SPLINE
  5
D1
330
1F
100
AcDbEntity
  8
0
  6
Continuous
 62
     7
370
    15
100
AcDbSpline
210
0.0
220
0.0
230
1.0
 70
     8
 71
     3
 72
    11
 73
     7
 74
     0
 42
0.00000001
 43
0.00000001
 12
1.0
 22
0.0
 32
0.0
 13
1.0
 23
0.0
 33
0.0
 40
0.0
 40
0.0
 40
0.0
 40
0.0
 40
0.3241888939348981
 40
0.6482186656406436
 40
0.9887954783205268
 40
1.0
 40
1.0
 40
1.0
 40
1.0
 10
231.8951167947089
 20
141.5448728708069
 30
0.0
 10
231.9443769026502
 20
141.4910188324952
 30
0.0
 10
232.0428729401036
 20
141.3833371891481
 30
0.0
 10
232.2167589593665
 20
141.2092872087515
 30
0.0
 10
232.3316518984648
 20
141.1015441393227
 30
0.0
 10
232.3867685344647
 20
141.0520619189803
 30
0.0
 10
232.3885240441596
 20
141.0504858700077
 30
0.0
  0
ARC
  5
D2
330
1F
100
AcDbEntity
  8
0
  6
Continuous
 62
     7
370
    15
100
AcDbCircle
 10
240.0095883175
 20
143.3592608358
 30
0.0
 40
2.382892961815529
100
AcDbArc
 50
43.9399683434
 51
45.7799537025
  0
SPLINE
  5
D3
330
1F
100
AcDbEntity
  8
0
  6
Continuous
 62
     7
370
    15
100
AcDbSpline
210
0.0
220
0.0
230
1.0
 70
     8
 71
     3
 72
    14
 73
    10
 74
     0
 42
0.00000001
 43
0.00000001
 12
1.0
 22
0.0
 32
0.0
 13
1.0
 23
0.0
 33
0.0
 40
0.0
 40
0.0
 40
0.0
 40
0.0
 40
0.2055152740584928
 40
0.3570180541383008
 40
0.4668468625144732
 40
0.5770809273785128
 40
0.709366856441871
 40
0.9240571157956208
 40
1.0
 40
1.0
 40
1.0
 40
1.0
 10
241.7254314607417
 20
145.0127605108063
 30
0.0
 10
241.7605653046644
 20
144.9790437031714
 30
0.0
 10
241.8215992917934
 20
144.9204713702453
 30
0.0
 10
241.9213062607849
 20
144.8690753924572
 30
0.0
 10
242.0095210709074
 20
144.8561070156977
 30
0.0
 10
242.0921941854784
 20
144.8751091197004
 30
0.0
 10
242.1828758814039
 20
144.9360796659197
 30
0.0
 10
242.2446070588214
 20
145.0161925984478
 30
0.0
 10
242.2773790048095
 20
145.0760597574559
 30
0.0
 10
242.2859423643386
 20
145.091703137521
 30
0.0
  0
SPLINE
  5
D4
330
1F
100
AcDbEntity
  8
0
  6
Continuous
 62
     7
370
    15
100
AcDbSpline
210
0.0
220
0.0
230
1.0
 70
     8
 71
     3
 72
    14
 73
    10
 74
     0
 42
0.00000001
 43
0.00000001
 12
1.0
 22
0.0
 32
0.0
 13
1.0
 23
0.0
 33
0.0
 40
0.0
 40
0.0
 40
0.0
 40
0.0
 40
0.2086092116252128
 40
0.3652083888545873
 40
0.4768545896093256
 40
0.5890233047193655
 40
0.7185690414308599
 40
0.9352604208967722
 40
1.0
 40
1.0
 40
1.0
 40
1.0
 10
241.753132719401
 20
145.6271130350869
 30
0.0
 10
241.7104724536104
 20
145.6025474761956
 30
0.0
 10
241.6357878947832
 20
145.5595409947747
 30
0.0
 10
241.5585256465515
 20
145.4755211471922
 30
0.0
 10
241.5216694254114
 20
145.3923380331043
 30
0.0
 10
241.5180755478778
 20
145.3071586426212
 30
0.0
 10
241.5537739632761
 20
145.2031099501802
 30
0.0
 10
241.6138180565817
 20
145.1248220603901
 30
0.0
 10
241.6606765376019
 20
145.0778142750901
 30
0.0
 10
241.6714557296073
 20
145.0670007375519
 30
0.0
  0
CIRCLE
  5
D5
330
1F
100
AcDbEntity
  8
0
  6
Continuous
 62
     7
370
    15
100
AcDbCircle
 10
234.8695602025
 20
138.2421168436
 30
0.0
 40
2.621126156281138
  0
CIRCLE
  5
D6
330
1F
100
AcDbEntity
  8
0
  6
Continuous
 62
     7
370
    15
100
AcDbCircle
 10
234.8908348364
 20
138.2636465553
 30
0.0
 40
1.797011575478385
  0
ARC
  5
D7
330
1F
100
AcDbEntity
  8
0
  6
Continuous
 62
     7
370
    15
100
AcDbCircle
 10
234.8859202579
 20
138.2748117337
 30
0.0
 40
1.664997393499194
100
AcDbArc
 50
76.7623146854
 51
135.5064830023
  0
ARC
  5
D8
330
1F
100
AcDbEntity
  8
0
  6
Continuous
 62
     7
370
    15
100
AcDbCircle
 10
234.8885089085
 20
138.2764659225
 30
0.0
 40
1.665687343345187
100
AcDbArc
 50
135.6094759791
 51
195.8472350634
  0
ARC
  5
D9
330
1F
100
AcDbEntity
  8
0
  6
Continuous
 62
     7
370
    15
100
AcDbCircle
 10
234.9046390297
 20
138.2793791773
 30
0.0
 40
1.682000705737382
100
AcDbArc
 50
195.7926584306
 51
254.1251312352
  0
LINE
  5
DA
330
1F
100
AcDbEntity
  8
0
  6
Continuous
 62
     7
370
    15
100
AcDbLine
 10
234.5267326421
 20
136.6404089836
 30
0.0
 11
234.4445490128
 21
136.6615276543
 31
0.0
  0
ARC
  5
DB
330
1F
100
AcDbEntity
  8
0
  6
Continuous
 62
     7
370
    15
100
AcDbCircle
 10
234.9019188485
 20
138.2628417114
 30
0.0
 40
1.665248523694622
100
AcDbArc
 50
256.9792783464
 51
313.5555344143
  0
LINE
  5
DC
330
1F
100
AcDbEntity
  8
0
  6
Continuous
 62
     7
370
    15
100
AcDbLine
 10
236.1326941139
 20
137.1412984786
 30
0.0
 11
236.0493705457
 21
137.056024721
 31
0.0
  0
ARC
  5
DD
330
1F
100
AcDbEntity
  8
0
  6
Continuous
 62
     7
370
    15
100
AcDbCircle
 10
234.8993835298
 20
138.2607773888
 30
0.0
 40
1.665619412426589
100
AcDbArc
 50
317.7699004637
 51
13.6866330986
  0
LINE
  5
DE
330
1F
100
AcDbEntity
  8
0
  6
Continuous
 62
     7
370
    15
100
AcDbLine
 10
236.4853785223
 20
138.7701015679
 30
0.0
 11
236.5177065915
 21
138.6548820642
 31
0.0
  0
ARC
  5
DF
330
1F
100
AcDbEntity
  8
0
  6
Continuous
 62
     7
370
    15
100
AcDbCircle
 10
234.8831810081
 20
138.2579551631
 30
0.0
 40
1.682061477566704
100
AcDbArc
 50
17.72660778
 51
73.9121321855
  0
LINE
  5
E0
330
1F
100
AcDbEntity
  8
0
  6
Continuous
 62
     7
370
    15
100
AcDbLine
 10
235.2671899682
 20
139.8955676464
 30
0.0
 11
235.3492990917
 21
139.8741435019
 31
0.0
  0
SPLINE
  5
E1
330
1F
100
AcDbEntity
  8
0
  6
Continuous
 62
     7
370
    15
100
AcDbSpline
210
0.0
220
0.0
230
1.0
 70
     8
 71
     3
 72
    12
 73
     8
 74
     0
 42
0.00000001
 43
0.00000001
 12
1.0
 22
0.0
 32
0.0
 13
1.0
 23
0.0
 33
0.0
 40
0.0
 40
0.0
 40
0.0
 40
0.0
 40
0.0091745520097432
 40
0.2576783403869088
 40
0.506186736034988
 40
0.7560367731986455
 40
1.0
 40
1.0
 40
1.0
 40
1.0
 10
233.2861290162837
 20
137.8216109929125
 30
0.0
 10
233.2865074475632
 20
137.820294094699
 30
0.0
 10
233.297136145722
 20
137.7833074226793
 30
0.0
 10
233.3309858716003
 20
137.7135742886709
 30
0.0
 10
233.4107324391061
 20
137.633530333479
 30
0.0
 10
233.5110932570037
 20
137.5815981399302
 30
0.0
 10
233.5836911680653
 20
137.5767670088753
 30
0.0
 10
233.6195573991572
 20
137.57438023961
 30
0.0
  0
SPLINE
  5
E2
330
1F
100
AcDbEntity
  8
0
  6
Continuous
 62
     7
370
    15
100
AcDbSpline
210
0.0
220
0.0
230
1.0
 70
     8
 71
     3
 72
    12
 73
     8
 74
     0
 42
0.00000001
 43
0.00000001
 12
1.0
 22
0.0
 32
0.0
 13
1.0
 23
0.0
 33
0.0
 40
0.0
 40
0.0
 40
0.0
 40
0.0
 40
0.2057540987776144
 40
0.4119616808057862
 40
0.6140171324217499
 40
0.8131420788428955
 40
1.0
 40
1.0
 40
1.0
 40
1.0
 10
233.6195573991572
 20
137.57438023961
 30
0.0
 10
233.6841694068597
 20
137.5699249521919
 30
0.0
 10
233.8135358275119
 20
137.5610045578761
 30
0.0
 10
233.9911843227159
 20
137.4673743330063
 30
0.0
 10
234.1285419112812
 20
137.3271370916938
 30
0.0
 10
234.2151697702109
 20
137.156235906321
 30
0.0
 10
234.2250483955264
 20
137.0353555417583
 30
0.0
 10
234.2298307305609
 20
136.9768362251561
 30
0.0
  0
SPLINE
  5
E3
330
1F
100
AcDbEntity
  8
0
  6
Continuous
 62
     7
370
    15
100
AcDbSpline
210
0.0
220
0.0
230
1.0
 70
     8
 71
     3
 72
    11
 73
     7
 74
     0
 42
0.00000001
 43
0.00000001
 12
1.0
 22
0.0
 32
0.0
 13
1.0
 23
0.0
 33
0.0
 40
0.0
 40
0.0
 40
0.0
 40
0.0
 40
0.2794047654637657
 40
0.559624128091653
 40
0.8375016765271834
 40
1.0
 40
1.0
 40
1.0
 40
1.0
 10
234.2298307305609
 20
136.9768362251561
 30
0.0
 10
234.2332440958062
 20
136.9395459338294
 30
0.0
 10
234.2400807778721
 20
136.8648566323234
 30
0.0
 10
234.2972836524816
 20
136.7643554147199
 30
0.0
 10
234.370051466779
 20
136.6961004934282
 30
0.0
 10
234.424468992074
 20
136.6708463951526
 30
0.0
 10
234.4445490127837
 20
136.6615276542942
 30
0.0
  0
SPLINE
  5
E4
330
1F
100
AcDbEntity
  8
0
  6
Continuous
 62
     7
370
    15
100
AcDbSpline
210
0.0
220
0.0
230
1.0
 70
     8
 71
     3
 72
    11
 73
     7
 74
     0
 42
0.00000001
 43
0.00000001
 12
1.0
 22
0.0
 32
0.0
 13
1.0
 23
0.0
 33
0.0
 40
0.0
 40
0.0
 40
0.0
 40
0.0
 40
0.2431152995415826
 40
0.5182798839506505
 40
0.7947835343281259
 40
1.0
 40
1.0
 40
1.0
 40
1.0
 10
234.5267326420581
 20
136.6404089835923
 30
0.0
 10
234.559723507898
 20
136.6390675701116
 30
0.0
 10
234.6300543433129
 20
136.6362079079497
 30
0.0
 10
234.7319158695175
 20
136.6738885360761
 30
0.0
 10
234.8130318471904
 20
136.7362933723682
 30
0.0
 10
234.8462540014594
 20
136.7904893416933
 30
0.0
 10
234.8604068940913
 20
136.8135772404711
 30
0.0
  0
SPLINE
  5
E5
330
1F
100
AcDbEntity
  8
0
  6
Continuous
 62
     7
370
    15
100
AcDbSpline
210
0.0
220
0.0
230
1.0
 70
     8
 71
     3
 72
    12
 73
     8
 74
     0
 42
0.00000001
 43
0.00000001
 12
1.0
 22
0.0
 32
0.0
 13
1.0
 23
0.0
 33
0.0
 40
0.0
 40
0.0
 40
0.0
 40
0.0
 40
0.2058182683078151
 40
0.4120195440314553
 40
0.6140776579812669
 40
0.8132118496582185
 40
0.9999999999999999
 40
0.9999999999999999
 40
0.9999999999999999
 40
0.9999999999999999
 10
234.8604068940913
 20
136.8135772404711
 30
0.0
 10
234.8953811401552
 20
136.8675566909461
 30
0.0
 10
234.9653947158916
 20
136.9756160423081
 30
0.0
 10
235.1330902026323
 20
137.0826564889352
 30
0.0
 10
235.3227595572629
 20
137.1308536637817
 30
0.0
 10
235.5152790070471
 20
137.1192551946158
 30
0.0
 10
235.6265983407432
 20
137.0663876089622
 30
0.0
 10
235.6804773992335
 20
137.0407994595807
 30
0.0
  0
SPLINE
  5
E6
330
1F
100
AcDbEntity
  8
0
  6
Continuous
 62
     7
370
    15
100
AcDbSpline
210
0.0
220
0.0
230
1.0
 70
     8
 71
     3
 72
    11
 73
     7
 74
     0
 42
0.00000001
 43
0.00000001
 12
1.0
 22
0.0
 32
0.0
 13
1.0
 23
0.0
 33
0.0
 40
0.0
 40
0.0
 40
0.0
 40
0.0
 40
0.2908625241770376
 40
0.5839520144611429
 40
0.8745980402928499
 40
1.0
 40
1.0
 40
1.0
 40
1.0
 10
235.6804773992335
 20
137.0407994595807
 30
0.0
 10
235.714832679717
 20
137.0248691942757
 30
0.0
 10
235.7838062791949
 20
136.9928866948386
 30
0.0
 10
235.9002538229148
 20
136.9911949381177
 30
0.0
 10
235.9903248849606
 20
137.0179514541464
 30
0.0
 10
236.0356953359899
 20
137.0472068010701
 30
0.0
 10
236.0493705457484
 20
137.0560247210305
 30
0.0
  0
SPLINE
  5
E7
330
1F
100
AcDbEntity
  8
0
  6
Continuous
 62
     7
370
    15
100
AcDbSpline
210
0.0
220
0.0
230
1.0
 70
     8
 71
     3
 72
    11
 73
     7
 74
     0
 42
0.00000001
 43
0.00000001
 12
1.0
 22
0.0
 32
0.0
 13
1.0
 23
0.0
 33
0.0
 40
0.0
 40
0.0
 40
0.0
 40
0.0
 40
0.2535067348249351
 40
0.5075663017052845
 40
0.7595045987979271
 40
1.0
 40
1.0
 40
1.0
 40
1.0
 10
233.4430047160422
 20
138.2014155147116
 30
0.0
 10
233.4122566489501
 20
138.1804954838284
 30
0.0
 10
233.350693461253
 20
138.138609800932
 30
0.0
 10
233.2923066338862
 20
138.0404596368598
 30
0.0
 10
233.2660614854655
 20
137.9303188380809
 30
0.0
 10
233.2795442744873
 20
137.8572812055641
 30
0.0
 10
233.2861290162837
 20
137.8216109929125
 30
0.0
  0
SPLINE
  5
E8
330
1F
100
AcDbEntity
  8
0
  6
Continuous
 62
     7
370
    15
100
AcDbSpline
210
0.0
220
0.0
230
1.0
 70
     8
 71
     3
 72
    12
 73
     8
 74
     0
 42
0.00000001
 43
0.00000001
 12
1.0
 22
0.0
 32
0.0
 13
1.0
 23
0.0
 33
0.0
 40
0.0
 40
0.0
 40
0.0
 40
0.0
 40
0.0091692377286892
 40
0.257327015545091
 40
0.50549311464986
 40
0.7549904015377832
 40
1.0
 40
1.0
 40
1.0
 40
1.0
 10
233.6982280796801
 20
139.4416894522946
 30
0.0
 10
233.6972749082292
 20
139.4407106284367
 30
0.0
 10
233.6705249457958
 20
139.4132407525831
 30
0.0
 10
233.6271705052562
 20
139.3492104116435
 30
0.0
 10
233.5980508474442
 20
139.2397655989729
 30
0.0
 10
233.603800267341
 20
139.1256873129009
 30
0.0
 10
233.6365671362617
 20
139.059148989665
 30
0.0
 10
233.6528018897807
 20
139.026181748275
 30
0.0
  0
SPLINE
  5
E9
330
1F
100
AcDbEntity
  8
0
  6
Continuous
 62
     7
370
    15
100
AcDbSpline
210
0.0
220
0.0
230
1.0
 70
     8
 71
     3
 72
    12
 73
     8
 74
     0
 42
0.00000001
 43
0.00000001
 12
1.0
 22
0.0
 32
0.0
 13
1.0
 23
0.0
 33
0.0
 40
0.0
 40
0.0
 40
0.0
 40
0.0
 40
0.2058421784905765
 40
0.4120690840527074
 40
0.6141379805576801
 40
0.813258358030742
 40
0.9999999999999999
 40
0.9999999999999999
 40
0.9999999999999999
 40
0.9999999999999999
 10
233.6528018897807
 20
139.026181748275
 30
0.0
 10
233.6817826659016
 20
138.9670583942185
 30
0.0
 10
233.739798384346
 20
138.8487011822474
 30
0.0
 10
233.7486471271805
 20
138.6468931337755
 30
0.0
 10
233.6963918688586
 20
138.4585203105833
 30
0.0
 10
233.5916261132173
 20
138.3003981317971
 30
0.0
 10
233.4914741995796
 20
138.2336964407458
 30
0.0
 10
233.4430047160422
 20
138.2014155147116
 30
0.0
  0
LWPOLYLINE
  5
EA
330
1F
100
AcDbEntity
  8
0
  6
Continuous
 62
     7
370
    15
100
AcDbPolyline
 90
        3
 70
   128
 43
0.0
 10
233.3480694181
 20
138.1067111847
 10
233.4458322114
 20
138.1742674617
 10
233.4786780959
 20
138.2045987753
  0
LWPOLYLINE
  5
EB
330
1F
100
AcDbEntity
  8
0
  6
Continuous
 62
     7
370
    15
100
AcDbPolyline
 90
        3
 70
   128
 43
0.0
 10
234.8701522535
 20
136.8613280115
 10
234.8309025949
 20
136.8180177865
 10
234.7654343432
 20
136.7188375202
  0
ARC
  5
EC
330
1F
100
AcDbEntity
  8
0
  6
Continuous
 62
     7
370
    15
100
AcDbCircle
 10
235.7578455468
 20
137.2302562771
 30
0.0
 40
0.3340261339733557
100
AcDbArc
 50
326.321808552
 51
32.5173481355
  0
SPLINE
  5
ED
330
1F
100
AcDbEntity
  8
0
  6
Continuous
 62
     7
370
    15
100
AcDbSpline
210
0.0
220
0.0
230
1.0
 70
     8
 71
     3
 72
    11
 73
     7
 74
     0
 42
0.00000001
 43
0.00000001
 12
1.0
 22
0.0
 32
0.0
 13
1.0
 23
0.0
 33
0.0
 40
0.0
 40
0.0
 40
0.0
 40
0.0
 40
0.2669038236806019
 40
0.5546119347318359
 40
0.8439053050788753
 40
1.0
 40
1.0
 40
1.0
 40
1.0
 10
236.1326941138541
 20
137.1412984786074
 30
0.0
 10
236.1493171163882
 20
137.1716349583624
 30
0.0
 10
236.1838588305883
 20
137.2346725480748
 30
0.0
 10
236.1936931297148
 20
137.3448567837484
 30
0.0
 10
236.1732175951264
 20
137.4380945552166
 30
0.0
 10
236.1445457472508
 20
137.4873227836546
 30
0.0
 10
236.1344971543585
 20
137.5045757499974
 30
0.0
  0
ARC
  5
EE
330
1F
100
AcDbEntity
  8
0
  6
Continuous
 62
     7
370
    15
100
AcDbCircle
 10
233.8383176406
 20
139.1098808983
 30
0.0
 40
0.3340048716669164
100
AcDbArc
 50
58.6913534951
 51
121.3258589057
  0
SPLINE
  5
EF
330
1F
100
AcDbEntity
  8
0
  6
Continuous
 62
     7
370
    15
100
AcDbSpline
210
0.0
220
0.0
230
1.0
 70
     8
 71
     3
 72
    11
 73
     7
 74
     0
 42
0.00000001
 43
0.00000001
 12
1.0
 22
0.0
 32
0.0
 13
1.0
 23
0.0
 33
0.0
 40
0.0
 40
0.0
 40
0.0
 40
0.0
 40
0.252473837658357
 40
0.5068860273963495
 40
0.7591775541575471
 40
1.0
 40
1.0
 40
1.0
 40
1.0
 10
234.1068216449057
 20
139.4899580386918
 30
0.0
 10
234.0732498394451
 20
139.5066866778982
 30
0.0
 10
234.0058484830896
 20
139.5402723893912
 30
0.0
 10
233.8913066172597
 20
139.5435674304921
 30
0.0
 10
233.7824197711549
 20
139.5126695663809
 30
0.0
 10
233.7258534278043
 20
139.4649797595349
 30
0.0
 10
233.6982280796801
 20
139.4416894522946
 30
0.0
  0
SPLINE
  5
F0
330
1F
100
AcDbEntity
  8
0
  6
Continuous
 62
     7
370
    15
100
AcDbSpline
210
0.0
220
0.0
230
1.0
 70
     8
 71
     3
 72
    12
 73
     8
 74
     0
 42
0.00000001
 43
0.00000001
 12
1.0
 22
0.0
 32
0.0
 13
1.0
 23
0.0
 33
0.0
 40
0.0
 40
0.0
 40
0.0
 40
0.0
 40
0.2058409322014201
 40
0.4120616198537572
 40
0.6141376466863165
 40
0.8132773462996364
 40
1.0
 40
1.0
 40
1.0
 40
1.0
 10
236.1344971543585
 20
137.5045757499974
 30
0.0
 10
236.1041538772081
 20
137.5623400279423
 30
0.0
 10
236.0434113426666
 20
137.6779751530125
 30
0.0
 10
236.0323706295524
 20
137.8775974972926
 30
0.0
 10
236.0847888899293
 20
138.0661363178264
 30
0.0
 10
236.191873203928
 20
138.226567147337
 30
0.0
 10
236.2945890853188
 20
138.2958266279049
 30
0.0
 10
236.344294328097
 20
138.3293419835608
 30
0.0
  0
SPLINE
  5
F1
330
1F
100
AcDbEntity
  8
0
  6
Continuous
 62
     7
370
    15
100
AcDbSpline
210
0.0
220
0.0
230
1.0
 70
     8
 71
     3
 72
    11
 73
     7
 74
     0
 42
0.00000001
 43
0.00000001
 12
1.0
 22
0.0
 32
0.0
 13
1.0
 23
0.0
 33
0.0
 40
0.0
 40
0.0
 40
0.0
 40
0.0
 40
0.2928992339267036
 40
0.5864323959208435
 40
0.8775161506971436
 40
1.0
 40
1.0
 40
1.0
 40
1.0
 10
236.344294328097
 20
138.3293419835608
 30
0.0
 10
236.3758256524831
 20
138.351050062994
 30
0.0
 10
236.4389565451741
 20
138.3945132051205
 30
0.0
 10
236.4992704658261
 20
138.494472969494
 30
0.0
 10
236.5210924398645
 20
138.5854240736126
 30
0.0
 10
236.5184802331612
 20
138.639011419718
 30
0.0
 10
236.5177065914904
 20
138.6548820642273
 30
0.0
  0
SPLINE
  5
F2
330
1F
100
AcDbEntity
  8
0
  6
Continuous
 62
     7
370
    15
100
AcDbSpline
210
0.0
220
0.0
230
1.0
 70
     8
 71
     3
 72
    12
 73
     8
 74
     0
 42
0.00000001
 43
0.00000001
 12
1.0
 22
0.0
 32
0.0
 13
1.0
 23
0.0
 33
0.0
 40
0.0
 40
0.0
 40
0.0
 40
0.0
 40
0.2058578700979761
 40
0.4121033794416316
 40
0.6141919041161906
 40
0.8133180081513705
 40
0.9999999999999999
 40
0.9999999999999999
 40
0.9999999999999999
 40
0.9999999999999999
 10
234.9268921500479
 20
139.7171802578013
 30
0.0
 10
234.8905503032761
 20
139.6618335330875
 30
0.0
 10
234.817798176468
 20
139.5510358633908
 30
0.0
 10
234.6478770042749
 20
139.4418102681373
 30
0.0
 10
234.4583399406305
 20
139.3937925426669
 30
0.0
 10
234.2681542411303
 20
139.4077283432961
 30
0.0
 10
234.1594302246151
 20
139.4631439441694
 30
0.0
 10
234.1068216449057
 20
139.4899580386918
 30
0.0
  0
SPLINE
  5
F3
330
1F
100
AcDbEntity
  8
0
  6
Continuous
 62
     7
370
    15
100
AcDbSpline
210
0.0
220
0.0
230
1.0
 70
     8
 71
     3
 72
    11
 73
     7
 74
     0
 42
0.00000001
 43
0.00000001
 12
1.0
 22
0.0
 32
0.0
 13
1.0
 23
0.0
 33
0.0
 40
0.0
 40
0.0
 40
0.0
 40
0.0
 40
0.2423662047941208
 40
0.5166882966000953
 40
0.7923328340831204
 40
1.0
 40
1.0
 40
1.0
 40
1.0
 10
235.2671899682318
 20
139.8955676463883
 30
0.0
 10
235.234065505143
 20
139.8968938241688
 30
0.0
 10
235.1634491317763
 20
139.8997210357389
 30
0.0
 10
235.0601797919458
 20
139.8611664324172
 30
0.0
 10
234.9767712133226
 20
139.7970981545503
 30
0.0
 10
234.9418828309049
 20
139.7411988260396
 30
0.0
 10
234.9268921500479
 20
139.7171802578013
 30
0.0
  0
ARC
  5
F4
330
1F
100
AcDbEntity
  8
0
  6
Continuous
 62
     7
370
    15
100
AcDbCircle
 10
234.8310571797
 20
138.2059752475
 30
0.0
 40
2.625017893188581
100
AcDbArc
 50
135.1424452077
 51
314.7178392082
  0
ARC
  5
F5
330
1F
100
AcDbEntity
  8
0
  6
Continuous
 62
     7
370
    15
100
AcDbCircle
 10
234.3155354065
 20
139.8937110267
 30
0.0
 40
0.583669668790665
100
AcDbArc
 50
238.6511338727
 51
314.8569279362
  0
ARC
  5
F6
330
1F
100
AcDbEntity
  8
0
  6
Continuous
 62
     7
370
    15
100
AcDbCircle
 10
236.5320650113
 20
137.7239055597
 30
0.0
 40
0.5841815748114797
100
AcDbArc
 50
135.04048618
 51
212.5245814711
  0
ARC
  5
F7
330
1F
100
AcDbEntity
  8
0
  6
Continuous
 62
     7
370
    15
100
AcDbCircle
 10
236.0861311283
 20
138.5265807726
 30
0.0
 40
0.3353088031294335
100
AcDbArc
 50
325.0780809431
 51
92.2863861195
  0
SPLINE
  5
F8
330
1F
100
AcDbEntity
  8
0
  6
Continuous
 62
     7
370
    15
100
AcDbSpline
210
0.0
220
0.0
230
1.0
 70
     8
 71
     3
 72
    11
 73
     7
 74
     0
 42
0.00000001
 43
0.00000001
 12
1.0
 22
0.0
 32
0.0
 13
1.0
 23
0.0
 33
0.0
 40
0.0
 40
0.0
 40
0.0
 40
0.0
 40
0.2657589971747769
 40
0.5530021187419079
 40
0.8418198443611187
 40
1.0
 40
1.0
 40
1.0
 40
1.0
 10
236.4853785222804
 20
138.7701015678685
 30
0.0
 10
236.4673344427031
 20
138.7997854014295
 30
0.0
 10
236.4297875888126
 20
138.8615527283166
 30
0.0
 10
236.338525225759
 20
138.9260752883971
 30
0.0
 10
236.2462605261632
 20
138.9560177629831
 30
0.0
 10
236.1882647441175
 20
138.9562832944419
 30
0.0
 10
236.167741644982
 20
138.9563772586625
 30
0.0
  0
SPLINE
  5
F9
330
1F
100
AcDbEntity
  8
0
  6
Continuous
 62
     7
370
    15
100
AcDbSpline
210
0.0
220
0.0
230
1.0
 70
     8
 71
     3
 72
    12
 73
     8
 74
     0
 42
0.00000001
 43
0.00000001
 12
1.0
 22
0.0
 32
0.0
 13
1.0
 23
0.0
 33
0.0
 40
0.0
 40
0.0
 40
0.0
 40
0.0
 40
0.2057929321096024
 40
0.4120357558503741
 40
0.6141306551183313
 40
0.8132634733647365
 40
0.9999999999999999
 40
0.9999999999999999
 40
0.9999999999999999
 40
0.9999999999999999
 10
236.167741644982
 20
138.9563772586625
 30
0.0
 10
236.1017578372236
 20
138.959475080106
 30
0.0
 10
235.969645972035
 20
138.9656774952564
 30
0.0
 10
235.7897899978728
 20
139.0571515558316
 30
0.0
 10
235.6525897045374
 20
139.1975835377217
 30
0.0
 10
235.5683089383624
 20
139.3707931112657
 30
0.0
 10
235.5610036259448
 20
139.4942000607185
 30
0.0
 10
235.5574683135783
 20
139.5539212731163
 30
0.0
  0
SPLINE
  5
FA
330
1F
100
AcDbEntity
  8
0
  6
Continuous
 62
     7
370
    15
100
AcDbSpline
210
0.0
220
0.0
230
1.0
 70
     8
 71
     3
 72
    11
 73
     7
 74
     0
 42
0.00000001
 43
0.00000001
 12
1.0
 22
0.0
 32
0.0
 13
1.0
 23
0.0
 33
0.0
 40
0.0
 40
0.0
 40
0.0
 40
0.0
 40
0.2802401841629786
 40
0.5612869577946457
 40
0.8399910219729233
 40
0.9999999999999999
 40
0.9999999999999999
 40
0.9999999999999999
 40
0.9999999999999999
 10
235.5574683135783
 20
139.5539212731163
 30
0.0
 10
235.5548505154637
 20
139.5920028611375
 30
0.0
 10
235.5496073846677
 20
139.6682756439013
 30
0.0
 10
235.4941497130288
 20
139.7705044612978
 30
0.0
 10
235.4226592167051
 20
139.8394293209548
 30
0.0
 10
235.368904648592
 20
139.8648661069882
 30
0.0
 10
235.3492990917002
 20
139.8741435018818
 30
0.0
  0
ARC
  5
FB
330
1F
100
AcDbEntity
  8
0
  6
Continuous
 62
     7
370
    15
100
AcDbCircle
 10
235.1271128836
 20
139.4652670021
 30
0.0
 40
0.3354380841284403
100
AcDbArc
 50
358.9604946494
 51
123.8540422482
  0
ARC
  5
FC
330
1F
100
AcDbEntity
  8
0
  6
Continuous
 62
     7
370
    15
100
AcDbCircle
 10
236.0505210478
 20
139.4493103635
 30
0.0
 40
0.5881081331407616
100
AcDbArc
 50
179.0382652099
 51
272.1665556687
  0
LINE
  5
FD
330
1F
100
AcDbEntity
  8
0
  6
HIDDEN
 62
     7
370
     0
100
AcDbLine
 10
185.6782899088
 20
138.7024018673
 30
0.0
 11
185.6782899088
 21
89.302400103
 31
0.0
  0
ELLIPSE
  5
FE
330
1F
100
AcDbEntity
  8
0
  6
HIDDEN
 62
     7
370
     0
100
AcDbEllipse
 10
233.3119916674
 20
114.0024009851
 30
0.0
 11
18.10719883871448
 21
24.95724044761382
 31
0.0
210
0.0
220
0.0
230
1.0
 40
0.0807169094
 41
2.467185702347551
 42
3.200088292500374
  0
SPLINE
  5
FF
330
1F
100
AcDbEntity
  8
0
  6
HIDDEN
 62
     7
370
     0
100
AcDbSpline
210
0.0
220
0.0
230
1.0
 70
     8
 71
     3
 72
    58
 73
    54
 74
     0
 42
0.00000001
 43
0.00000001
 12
1.0
 22
0.0
 32
0.0
 13
1.0
 23
0.0
 33
0.0
 40
-0.0624999999999998
 40
-0.0624999999999998
 40
0.0
 40
0.0
 40
0.0312499999999999
 40
0.0312499999999999
 40
0.0624999999999999
 40
0.0624999999999999
 40
0.0937499999999998
 40
0.0937499999999998
 40
0.1249999999999998
 40
0.1249999999999998
 40
0.1874999999999998
 40
0.1874999999999998
 40
0.2499999999999997
 40
0.2499999999999997
 40
0.2812499999999997
 40
0.2812499999999997
 40
0.3124999999999997
 40
0.3124999999999997
 40
0.3437499999999997
 40
0.3437499999999997
 40
0.3749999999999997
 40
0.3749999999999997
 40
0.4062499999999997
 40
0.4062499999999997
 40
0.4374999999999997
 40
0.4374999999999997
 40
0.4687499999999997
 40
0.4687499999999997
 40
0.4999999999999998
 40
0.4999999999999998
 40
0.5624999999999999
 40
0.5624999999999999
 40
0.625
 40
0.625
 40
0.65625
 40
0.65625
 40
0.6875000000000001
 40
0.6875000000000001
 40
0.7187500000000001
 40
0.7187500000000001
 40
0.7500000000000002
 40
0.7500000000000002
 40
0.7812500000000002
 40
0.7812500000000002
 40
0.8125000000000003
 40
0.8125000000000003
 40
0.8437500000000003
 40
0.8437500000000003
 40
0.8750000000000004
 40
0.8750000000000004
 40
0.9375000000000002
 40
0.9375000000000002
 40
1.0
 40
1.0
 40
1.03125
 40
1.03125
 10
199.6782899087703
 20
113.7380286145823
 30
0.0
 10
199.6782899087703
 20
114.1345871703975
 30
0.0
 10
199.6653140167597
 20
114.2645539099422
 30
0.0
 10
199.6144817146538
 20
114.5202332480743
 30
0.0
 10
199.5760046433325
 20
114.6472743399158
 30
0.0
 10
199.4755996821761
 20
114.8894525258564
 30
0.0
 10
199.4141654398567
 20
115.0043061844459
 30
0.0
 10
199.269031173675
 20
115.2216713062517
 30
0.0
 10
199.1845892525277
 20
115.3245467783359
 30
0.0
 10
198.9079172229178
 20
115.6011647307531
 30
0.0
 10
198.6848710679497
 20
115.750156850586
 30
0.0
 10
198.2036070694052
 20
115.9496806455773
 30
0.0
 10
197.9403492140854
 20
116.0022595100795
 30
0.0
 10
197.5488831828006
 20
116.002471283667
 30
0.0
 10
197.4163344391871
 20
115.9894803120776
 30
0.0
 10
197.1597901301718
 20
115.9384440887878
 30
0.0
 10
197.0350942438002
 20
115.900682547385
 30
0.0
 10
196.7928912733664
 20
115.8005230080916
 30
0.0
 10
196.6758279101158
 20
115.7379251983411
 30
0.0
 10
196.4591415908696
 20
115.5932032143054
 30
0.0
 10
196.3581276228019
 20
115.5105791091371
 30
0.0
 10
196.1713344285164
 20
115.3239587385261
 30
0.0
 10
196.0885340645621
 20
115.222910370635
 30
0.0
 10
195.9436556256676
 20
115.0063983497611
 30
0.0
 10
195.8810048423402
 20
114.8895089945621
 30
0.0
 10
195.7805644479663
 20
114.6472515925032
 30
0.0
 10
195.7427054361964
 20
114.5225889276878
 30
0.0
 10
195.6914677317328
 20
114.266257732033
 30
0.0
 10
195.6783373569598
 20
114.1336697926826
 30
0.0
 10
195.6781954065209
 20
113.7420381241133
 30
0.0
 10
195.7305363227689
 20
113.4788252910791
 30
0.0
 10
195.929666549507
 20
112.9973179603877
 30
0.0
 10
196.0785036371493
 20
112.7741174791121
 30
0.0
 10
196.3548156736887
 20
112.4972713991504
 30
0.0
 10
196.45758121094
 20
112.4127593049317
 30
0.0
 10
196.6748981432938
 20
112.2673807082002
 30
0.0
 10
196.7896850538306
 20
112.2058652765984
 30
0.0
 10
197.0316045439365
 20
112.1053092163528
 30
0.0
 10
197.1587314464365
 20
112.0666704905181
 30
0.0
 10
197.4144002820727
 20
112.0156056236308
 30
0.0
 10
197.5442954874507
 20
112.0025311432545
 30
0.0
 10
197.8083702698751
 20
112.0022727419809
 30
0.0
 10
197.9386994093604
 20
112.0151488099439
 30
0.0
 10
198.1943887235043
 20
112.0657476012718
 30
0.0
 10
198.3213165898919
 20
112.1040529471094
 30
0.0
 10
198.5637688787341
 20
112.2043087795293
 30
0.0
 10
198.6786855727156
 20
112.2656597984414
 30
0.0
 10
198.8960763644861
 20
112.4105286340117
 30
0.0
 10
198.9990616441677
 20
112.494892587281
 30
0.0
 10
199.2760260118249
 20
112.7714186410671
 30
0.0
 10
199.4251582901834
 20
112.9942784830628
 30
0.0
 10
199.6251104088979
 20
113.4753810031235
 30
0.0
 10
199.6782899087703
 20
113.7380286145823
 30
0.0
 10
199.6782899087703
 20
114.1345871703975
 30
0.0
  0
SPLINE
  5
100
330
1F
100
AcDbEntity
  8
0
  6
HIDDEN
 62
     7
370
     0
100
AcDbSpline
210
0.0
220
0.0
230
1.0
 70
     8
 71
     3
 72
    12
 73
     8
 74
     0
 42
0.00000001
 43
0.00000001
 12
1.0
 22
0.0
 32
0.0
 13
1.0
 23
0.0
 33
0.0
 40
0.0
 40
0.0
 40
0.0
 40
0.0
 40
0.5000000000000028
 40
0.5000000000000028
 40
0.7500000000000013
 40
0.7500000000000013
 40
1.0
 40
1.0
 40
1.0
 40
1.0
 10
193.7730340204445
 20
105.9059479870815
 30
0.0
 10
193.8037334038118
 20
106.0202836541454
 30
0.0
 10
193.8450834719183
 20
106.1316370069867
 30
0.0
 10
193.9448394001377
 20
106.2843737792355
 30
0.0
 10
193.9845363178704
 20
106.3322336650876
 30
0.0
 10
194.0817944695181
 20
106.4068367784371
 30
0.0
 10
194.1425706275087
 20
106.4335910159452
 30
0.0
 10
194.2060467223367
 20
106.4335910159452
 30
0.0
  0
LINE
  5
101
330
1F
100
AcDbEntity
  8
0
  6
HIDDEN
 62
     7
370
     0
100
AcDbLine
 10
194.2060465774
 20
106.43359085
 30
0.0
 11
197.1505327931
 21
106.43359085
 31
0.0
  0
SPLINE
  5
102
330
1F
100
AcDbEntity
  8
0
  6
HIDDEN
 62
     7
370
     0
100
AcDbSpline
210
0.0
220
0.0
230
1.0
 70
     8
 71
     3
 72
    12
 73
     8
 74
     0
 42
0.00000001
 43
0.00000001
 12
1.0
 22
0.0
 32
0.0
 13
1.0
 23
0.0
 33
0.0
 40
0.0
 40
0.0
 40
0.0
 40
0.0
 40
0.2500000000000002
 40
0.2500000000000002
 40
0.5000000000000004
 40
0.5000000000000004
 40
1.0
 40
1.0
 40
1.0
 40
1.0
 10
197.1505330952038
 20
106.4335910159452
 30
0.0
 10
197.2141983317343
 20
106.4335910159452
 30
0.0
 10
197.2738045639577
 20
106.4075188674655
 30
0.0
 10
197.3724650888885
 20
106.3319801166444
 30
0.0
 10
197.4114320789038
 20
106.2847291795481
 30
0.0
 10
197.5108189108282
 20
106.1329053615817
 30
0.0
 10
197.5528951582517
 20
106.0201021118166
 30
0.0
 10
197.583545797096
 20
105.9059479870815
 30
0.0
  0
ELLIPSE
  5
103
330
1F
100
AcDbEntity
  8
0
  6
HIDDEN
 62
     7
370
     0
100
AcDbEllipse
 10
184.6220322538
 20
114.0024009851
 30
0.0
 11
-11.70927234972711
 21
24.67718644093742
 31
0.0
210
0.0
220
0.0
230
1.0
 40
0.3419987131
 41
3.310521928178962
 42
4.221709151398949
  0
SPLINE
  5
104
330
1F
100
AcDbEntity
  8
0
  6
HIDDEN
 62
     7
370
     0
100
AcDbSpline
210
0.0
220
0.0
230
1.0
 70
     8
 71
     3
 72
    12
 73
     8
 74
     0
 42
0.00000001
 43
0.00000001
 12
1.0
 22
0.0
 32
0.0
 13
1.0
 23
0.0
 33
0.0
 40
0.0
 40
0.0
 40
0.0
 40
0.0
 40
0.5000000000000018
 40
0.5000000000000018
 40
0.7500000000000009
 40
0.7500000000000009
 40
1.0
 40
1.0
 40
1.0
 40
1.0
 10
197.583545797096
 20
90.34975950789415
 30
0.0
 10
197.5528464137287
 20
90.31062166549825
 30
0.0
 10
197.5114963456222
 20
90.27346188277275
 30
0.0
 10
197.4117404174027
 20
90.22352537714501
 30
0.0
 10
197.37204349967
 20
90.20807250700125
 30
0.0
 10
197.2747853480224
 20
90.1841529634022
 30
0.0
 10
197.2140091900317
 20
90.1756698696238
 30
0.0
 10
197.1505330952038
 20
90.1756698696238
 30
0.0
  0
LINE
  5
105
330
1F
100
AcDbEntity
  8
0
  6
HIDDEN
 62
     7
370
     0
100
AcDbLine
 10
197.1505327931
 20
90.1756696162
 30
0.0
 11
194.2060465774
 21
90.1756696162
 31
0.0
  0
SPLINE
  5
106
330
1F
100
AcDbEntity
  8
0
  6
HIDDEN
 62
     7
370
     0
100
AcDbSpline
210
0.0
220
0.0
230
1.0
 70
     8
 71
     3
 72
    12
 73
     8
 74
     0
 42
0.00000001
 43
0.00000001
 12
1.0
 22
0.0
 32
0.0
 13
1.0
 23
0.0
 33
0.0
 40
0.0
 40
0.0
 40
0.0
 40
0.0
 40
0.2499999999999991
 40
0.2499999999999991
 40
0.4999999999999982
 40
0.4999999999999982
 40
1.0
 40
1.0
 40
1.0
 40
1.0
 10
194.2060467223367
 20
90.1756698696238
 30
0.0
 10
194.1423814858062
 20
90.1756698696238
 30
0.0
 10
194.0827752535828
 20
90.18393464528967
 30
0.0
 10
193.984114728652
 20
90.20815342687281
 30
0.0
 10
193.9451477386367
 20
90.22341074618197
 30
0.0
 10
193.8457609067123
 20
90.2730441004439
 30
0.0
 10
193.8036846592888
 20
90.31068380861802
 30
0.0
 10
193.7730340204445
 20
90.34975950789415
 30
0.0
  0
ELLIPSE
  5
107
330
1F
100
AcDbEntity
  8
0
  6
HIDDEN
 62
     7
370
     0
100
AcDbEllipse
 10
206.7345475638
 20
114.0024009851
 30
0.0
 11
11.70927234972703
 21
24.67718644093742
 31
0.0
210
0.0
220
0.0
230
1.0
 40
0.3419987131
 41
2.06147615578065
 42
2.972663379000669
  0
SPLINE
  5
108
330
1F
100
AcDbEntity
  8
0
  6
HIDDEN
 62
     7
370
     0
100
AcDbSpline
210
0.0
220
0.0
230
1.0
 70
     8
 71
     3
 72
    12
 73
     8
 74
     0
 42
0.00000001
 43
0.00000001
 12
1.0
 22
0.0
 32
0.0
 13
1.0
 23
0.0
 33
0.0
 40
0.0
 40
0.0
 40
0.0
 40
0.0
 40
0.4999999999999987
 40
0.4999999999999987
 40
0.7499999999999993
 40
0.7499999999999993
 40
1.0
 40
1.0
 40
1.0
 40
1.0
 10
193.7730340204445
 20
137.6550424623575
 30
0.0
 10
193.8037334038118
 20
137.6941803047534
 30
0.0
 10
193.8450834719183
 20
137.7313400874789
 30
0.0
 10
193.9448394001377
 20
137.7812765931066
 30
0.0
 10
193.9845363178704
 20
137.7967294632504
 30
0.0
 10
194.0817944695181
 20
137.8206490068494
 30
0.0
 10
194.1425706275087
 20
137.8291321006278
 30
0.0
 10
194.2060467223367
 20
137.8291321006278
 30
0.0
  0
LINE
  5
109
330
1F
100
AcDbEntity
  8
0
  6
HIDDEN
 62
     7
370
     0
100
AcDbLine
 10
194.2060465774
 20
137.829132354
 30
0.0
 11
197.1505327931
 21
137.829132354
 31
0.0
  0
SPLINE
  5
10A
330
1F
100
AcDbEntity
  8
0
  6
HIDDEN
 62
     7
370
     0
100
AcDbSpline
210
0.0
220
0.0
230
1.0
 70
     8
 71
     3
 72
    12
 73
     8
 74
     0
 42
0.00000001
 43
0.00000001
 12
1.0
 22
0.0
 32
0.0
 13
1.0
 23
0.0
 33
0.0
 40
0.0
 40
0.0
 40
0.0
 40
0.0
 40
0.25
 40
0.25
 40
0.5
 40
0.5
 40
1.0
 40
1.0
 40
1.0
 40
1.0
 10
197.1505330952038
 20
137.8291321006278
 30
0.0
 10
197.2141983317343
 20
137.8291321006278
 30
0.0
 10
197.2738045639577
 20
137.8208673249619
 30
0.0
 10
197.3724650888885
 20
137.7966485433788
 30
0.0
 10
197.4114320789038
 20
137.7813912240696
 30
0.0
 10
197.5108189108282
 20
137.7317578698077
 30
0.0
 10
197.5528951582517
 20
137.6941181616336
 30
0.0
 10
197.583545797096
 20
137.6550424623575
 30
0.0
  0
ELLIPSE
  5
10B
330
1F
100
AcDbEntity
  8
0
  6
HIDDEN
 62
     7
370
     0
100
AcDbEllipse
 10
184.6220322538
 20
114.0024009851
 30
0.0
 11
11.70927234972729
 21
24.67718644093742
 31
0.0
210
0.0
220
0.0
230
1.0
 40
0.3419987131
 41
5.203068809370471
 42
6.114256032590516
  0
SPLINE
  5
10C
330
1F
100
AcDbEntity
  8
0
  6
HIDDEN
 62
     7
370
     0
100
AcDbSpline
210
0.0
220
0.0
230
1.0
 70
     8
 71
     3
 72
    12
 73
     8
 74
     0
 42
0.00000001
 43
0.00000001
 12
1.0
 22
0.0
 32
0.0
 13
1.0
 23
0.0
 33
0.0
 40
0.0
 40
0.0
 40
0.0
 40
0.0
 40
0.4999999999999969
 40
0.4999999999999969
 40
0.7499999999999984
 40
0.7499999999999984
 40
1.0
 40
1.0
 40
1.0
 40
1.0
 10
197.583545797096
 20
122.0988539831703
 30
0.0
 10
197.5528464137287
 20
121.9845183161064
 30
0.0
 10
197.5114963456222
 20
121.8731649632651
 30
0.0
 10
197.4117404174027
 20
121.7204281910164
 30
0.0
 10
197.37204349967
 20
121.6725683051642
 30
0.0
 10
197.2747853480224
 20
121.5979651918148
 30
0.0
 10
197.2140091900317
 20
121.5712109543067
 30
0.0
 10
197.1505330952038
 20
121.5712109543067
 30
0.0
  0
LINE
  5
10D
330
1F
100
AcDbEntity
  8
0
  6
HIDDEN
 62
     7
370
     0
100
AcDbLine
 10
197.1505327931
 20
121.5712111203
 30
0.0
 11
194.2060465774
 21
121.5712111203
 31
0.0
  0
SPLINE
  5
10E
330
1F
100
AcDbEntity
  8
0
  6
HIDDEN
 62
     7
370
     0
100
AcDbSpline
210
0.0
220
0.0
230
1.0
 70
     8
 71
     3
 72
    12
 73
     8
 74
     0
 42
0.00000001
 43
0.00000001
 12
1.0
 22
0.0
 32
0.0
 13
1.0
 23
0.0
 33
0.0
 40
0.0
 40
0.0
 40
0.0
 40
0.0
 40
0.2500000000000007
 40
0.2500000000000007
 40
0.5000000000000014
 40
0.5000000000000014
 40
1.0
 40
1.0
 40
1.0
 40
1.0
 10
194.2060467223367
 20
121.5712109543067
 30
0.0
 10
194.1423814858062
 20
121.5712109543067
 30
0.0
 10
194.0827752535828
 20
121.5972831027864
 30
0.0
 10
193.984114728652
 20
121.6728218536075
 30
0.0
 10
193.9451477386367
 20
121.7200727907037
 30
0.0
 10
193.8457609067123
 20
121.8718966086701
 30
0.0
 10
193.8036846592888
 20
121.9846998584352
 30
0.0
 10
193.7730340204445
 20
122.0988539831703
 30
0.0
  0
ELLIPSE
  5
10F
330
1F
100
AcDbEntity
  8
0
  6
HIDDEN
 62
     7
370
     0
100
AcDbEllipse
 10
206.7345475638
 20
114.0024009851
 30
0.0
 11
-11.70927234972711
 21
24.67718644093745
 31
0.0
210
0.0
220
0.0
230
1.0
 40
0.3419987131
 41
0.1689292745891122
 42
1.080116497809131
  0
LWPOLYLINE
  5
110
330
1F
100
AcDbEntity
  8
0
  6
HIDDEN
 62
     7
370
     0
100
AcDbPolyline
 90
       32
 70
   128
 43
0.0
 10
203.6782891339
 20
126.321915513
 10
204.2821847683
 20
126.2704124433
 10
204.8613575137
 20
126.1180126799
 10
205.3920940346
 20
125.8709542213
 10
205.852668438
 20
125.5393521619
 10
206.2242233044
 20
125.1367833225
 10
206.4915464109
 20
124.6797274557
 10
206.6436947173
 20
124.1868976263
 10
206.6744395381
 20
123.6784700064
 10
206.5825217253
 20
123.1752587242
 10
206.371703822
 20
122.6978664977
 10
206.0506173259
 20
122.2658380625
 10
205.6324069238
 20
121.8968592343
 10
205.1341959125
 20
121.6060374623
 10
204.5763783938
 20
121.4052783085
 10
203.9817941225
 20
121.3028006946
 10
203.3747841454
 20
121.3028006946
 10
202.780199874
 20
121.4052783085
 10
202.222384218
 20
121.6060374623
 10
201.7241732067
 20
121.8968592343
 10
201.3059628046
 20
122.2658380625
 10
200.9848763084
 20
122.6978664977
 10
200.7740584052
 20
123.1752587242
 10
200.6821405923
 20
123.6784700064
 10
200.7128844819
 20
124.1868976263
 10
200.8650337195
 20
124.6797274557
 10
201.1323568261
 20
125.1367833225
 10
201.5039116925
 20
125.5393521619
 10
201.9644860959
 20
125.8709542213
 10
202.4952226168
 20
126.1180126799
 10
203.0743934995
 20
126.2704124433
 10
203.6782891339
 20
126.321915513
  0
LINE
  5
111
330
1F
100
AcDbEntity
  8
0
  6
HIDDEN
 62
     7
370
     0
100
AcDbLine
 10
185.6782899088
 20
94.4524015991
 30
0.0
 11
185.6782899088
 21
133.5369441417
 31
0.0
  0
SPLINE
  5
112
330
1F
100
AcDbEntity
  8
0
  6
HIDDEN
 62
     7
370
     0
100
AcDbSpline
210
0.0
220
0.0
230
1.0
 70
     8
 71
     3
 72
    14
 73
    10
 74
     0
 42
0.00000001
 43
0.00000001
 12
1.0
 22
0.0
 32
0.0
 13
1.0
 23
0.0
 33
0.0
 40
0.0
 40
0.0
 40
0.0
 40
0.0
 40
0.25
 40
0.25
 40
0.5
 40
0.5
 40
0.75
 40
0.75
 40
1.0
 40
1.0
 40
1.0
 40
1.0
 10
184.6374288806419
 20
126.2968765301992
 30
0.0
 10
184.6691440149726
 20
126.239093347856
 30
0.0
 10
184.703758540273
 20
126.182680686781
 30
0.0
 10
184.7834297356883
 20
126.0750812367656
 30
0.0
 10
184.8284856127187
 20
126.0231686098446
 30
0.0
 10
184.9390400252241
 20
125.9369699851473
 30
0.0
 10
185.0064254394283
 20
125.9028805651756
 30
0.0
 10
185.1570549593263
 20
125.9007781731588
 30
0.0
 10
185.2268821960917
 20
125.9341499460035
 30
0.0
 10
185.2833130198951
 20
125.9779626145542
 30
0.0
  0
SPLINE
  5
113
330
1F
100
AcDbEntity
  8
0
  6
HIDDEN
 62
     7
370
     0
100
AcDbSpline
210
0.0
220
0.0
230
1.0
 70
     8
 71
     3
 72
    16
 73
    12
 74
     0
 42
0.00000001
 43
0.00000001
 12
1.0
 22
0.0
 32
0.0
 13
1.0
 23
0.0
 33
0.0
 40
0.0
 40
0.0
 40
0.0
 40
0.0
 40
0.0624999999999993
 40
0.0624999999999993
 40
0.1249999999999986
 40
0.1249999999999986
 40
0.2499999999999969
 40
0.2499999999999969
 40
0.4999999999999947
 40
0.4999999999999947
 40
1.0
 40
1.0
 40
1.0
 40
1.0
 10
185.2833130198634
 20
125.9779626145848
 30
0.0
 10
185.2950472543103
 20
125.9870730278327
 30
0.0
 10
185.3085790097892
 20
125.9951503837791
 30
0.0
 10
185.3385664702191
 20
126.0033972254561
 30
0.0
 10
185.3535611766274
 20
126.0024699078685
 30
0.0
 10
185.3893015990221
 20
125.9897033883367
 30
0.0
 10
185.4033149360233
 20
125.9720547418264
 30
0.0
 10
185.4374590248047
 20
125.9174018217948
 30
0.0
 10
185.448430928923
 20
125.8760021541363
 30
0.0
 10
185.4742764691893
 20
125.7475124104135
 30
0.0
 10
185.4782899087703
 20
125.6568943227748
 30
0.0
 10
185.4782899087703
 20
125.5646752182207
 30
0.0
  0
LINE
  5
114
330
1F
100
AcDbEntity
  8
0
  6
HIDDEN
 62
     7
370
     0
100
AcDbLine
 10
185.4782899138
 20
102.4401271475
 30
0.0
 11
185.4782899138
 21
125.5646748228
 31
0.0
  0
SPLINE
  5
115
330
1F
100
AcDbEntity
  8
0
  6
HIDDEN
 62
     7
370
     0
100
AcDbSpline
210
0.0
220
0.0
230
1.0
 70
     8
 71
     3
 72
    16
 73
    12
 74
     0
 42
0.00000001
 43
0.00000001
 12
1.0
 22
0.0
 32
0.0
 13
1.0
 23
0.0
 33
0.0
 40
0.0
 40
0.0
 40
0.0
 40
0.0
 40
0.4999999999999979
 40
0.4999999999999979
 40
0.7499999999999969
 40
0.7499999999999969
 40
0.8749999999999984
 40
0.8749999999999984
 40
0.9374999999999991
 40
0.9374999999999991
 40
1.0
 40
1.0
 40
1.0
 40
1.0
 10
185.4782899087703
 20
102.4401267520308
 30
0.0
 10
185.4782899087703
 20
102.3475429011269
 30
0.0
 10
185.4742326066552
 20
102.2573304452666
 30
0.0
 10
185.4485753638604
 20
102.1293893181482
 30
0.0
 10
185.4372599181183
 20
102.0869761037363
 30
0.0
 10
185.4032285508096
 20
102.0326620602851
 30
0.0
 10
185.3893495696059
 20
102.0150807248952
 30
0.0
 10
185.3534138878385
 20
102.0022970369603
 30
0.0
 10
185.3384635685757
 20
102.0014215388122
 30
0.0
 10
185.3085650558339
 20
102.0096669739316
 30
0.0
 10
185.2950321954686
 20
102.0177406341033
 30
0.0
 10
185.2833130198946
 20
102.0268393556974
 30
0.0
  0
SPLINE
  5
116
330
1F
100
AcDbEntity
  8
0
  6
HIDDEN
 62
     7
370
     0
100
AcDbSpline
210
0.0
220
0.0
230
1.0
 70
     8
 71
     3
 72
    14
 73
    10
 74
     0
 42
0.00000001
 43
0.00000001
 12
1.0
 22
0.0
 32
0.0
 13
1.0
 23
0.0
 33
0.0
 40
0.0
 40
0.0
 40
0.0
 40
0.0
 40
0.25
 40
0.25
 40
0.5
 40
0.5
 40
0.75
 40
0.75
 40
1.0
 40
1.0
 40
1.0
 40
1.0
 10
185.2833130199014
 20
102.0268393557059
 30
0.0
 10
185.2268572552927
 20
102.0706713882007
 30
0.0
 10
185.1559916290428
 20
102.1040024246225
 30
0.0
 10
185.0075345478702
 20
102.1019434144751
 30
0.0
 10
184.9383411885626
 20
102.0673473900734
 30
0.0
 10
184.8286257504285
 20
101.9816820334105
 30
0.0
 10
184.7833811710971
 20
101.9296595887025
 30
0.0
 10
184.7037544616733
 20
101.8221113283726
 30
0.0
 10
184.6691443131399
 20
101.7657091656396
 30
0.0
 10
184.6374288806406
 20
101.7079254400501
 30
0.0
  0
SPLINE
  5
117
330
1F
100
AcDbEntity
  8
0
  6
HIDDEN
 62
     7
370
     0
100
AcDbSpline
210
0.0
220
0.0
230
1.0
 70
     8
 71
     3
 72
    10
 73
     6
 74
     0
 42
0.00000001
 43
0.00000001
 12
1.0
 22
0.0
 32
0.0
 13
1.0
 23
0.0
 33
0.0
 40
0.0
 40
0.0
 40
0.0
 40
0.0
 40
0.5
 40
0.5
 40
1.0
 40
1.0
 40
1.0
 40
1.0
 10
184.6374288806412
 20
101.7079254400511
 30
0.0
 10
184.5656490927177
 20
101.5771467231492
 30
0.0
 10
184.5131895784097
 20
101.443046573646
 30
0.0
 10
184.4238465143085
 20
101.1749540106572
 30
0.0
 10
184.3878509048087
 20
101.0407086390684
 30
0.0
 10
184.3569695652106
 20
100.9073542615933
 30
0.0
  0
SPLINE
  5
118
330
1F
100
AcDbEntity
  8
0
  6
HIDDEN
 62
     7
370
     0
100
AcDbSpline
210
0.0
220
0.0
230
1.0
 70
     8
 71
     3
 72
    10
 73
     6
 74
     0
 42
0.00000001
 43
0.00000001
 12
1.0
 22
0.0
 32
0.0
 13
1.0
 23
0.0
 33
0.0
 40
0.0
 40
0.0
 40
0.0
 40
0.0
 40
0.5
 40
0.5
 40
1.0
 40
1.0
 40
1.0
 40
1.0
 10
184.3569695652106
 20
96.70549111712093
 30
0.0
 10
184.3878425970229
 20
96.68920796975381
 30
0.0
 10
184.4238294599358
 20
96.67695038002822
 30
0.0
 10
184.513164045827
 20
96.65984739119949
 30
0.0
 10
184.5656199052495
 20
96.65504779534113
 30
0.0
 10
184.6374288806419
 20
96.65324370393321
 30
0.0
  0
SPLINE
  5
119
330
1F
100
AcDbEntity
  8
0
  6
HIDDEN
 62
     7
370
     0
100
AcDbSpline
210
0.0
220
0.0
230
1.0
 70
     8
 71
     3
 72
     8
 73
     4
 74
     0
 42
0.00000001
 43
0.00000001
 12
1.0
 22
0.0
 32
0.0
 13
1.0
 23
0.0
 33
0.0
 40
0.0
 40
0.0
 40
0.0
 40
0.0
 40
1.0
 40
1.0
 40
1.0
 40
1.0
 10
185.4605932853953
 20
96.52735932568604
 30
0.0
 10
185.4745800939374
 20
96.49911893510439
 30
0.0
 10
185.47828990877
 20
96.47598689229365
 30
0.0
 10
185.4782899087703
 20
96.45564651945851
 30
0.0
  0
LINE
  5
11A
330
1F
100
AcDbEntity
  8
0
  6
HIDDEN
 62
     7
370
     0
100
AcDbLine
 10
185.4782899138
 20
96.1625799296
 30
0.0
 11
185.4782899138
 21
96.4556466547
 31
0.0
  0
LINE
  5
11B
330
1F
100
AcDbEntity
  8
0
  6
HIDDEN
 62
     7
370
     0
100
AcDbLine
 10
185.4782899138
 20
131.5491553155
 30
0.0
 11
185.4782899138
 21
131.8422220407
 31
0.0
  0
SPLINE
  5
11C
330
1F
100
AcDbEntity
  8
0
  6
HIDDEN
 62
     7
370
     0
100
AcDbSpline
210
0.0
220
0.0
230
1.0
 70
     8
 71
     3
 72
    10
 73
     6
 74
     0
 42
0.00000001
 43
0.00000001
 12
1.0
 22
0.0
 32
0.0
 13
1.0
 23
0.0
 33
0.0
 40
0.0
 40
0.0
 40
0.0
 40
0.0
 40
0.5
 40
0.5
 40
1.0
 40
1.0
 40
1.0
 40
1.0
 10
184.6374288806427
 20
131.3515582663183
 30
0.0
 10
184.5656199052501
 20
131.3497541749104
 30
0.0
 10
184.5131640458274
 20
131.3449545790521
 30
0.0
 10
184.423829459936
 20
131.3278515902233
 30
0.0
 10
184.387842597023
 20
131.3155940004978
 30
0.0
 10
184.3569695652106
 20
131.2993108531306
 30
0.0
  0
SPLINE
  5
11D
330
1F
100
AcDbEntity
  8
0
  6
HIDDEN
 62
     7
370
     0
100
AcDbSpline
210
0.0
220
0.0
230
1.0
 70
     8
 71
     3
 72
    10
 73
     6
 74
     0
 42
0.00000001
 43
0.00000001
 12
1.0
 22
0.0
 32
0.0
 13
1.0
 23
0.0
 33
0.0
 40
0.0
 40
0.0
 40
0.0
 40
0.0
 40
0.5
 40
0.5
 40
1.0
 40
1.0
 40
1.0
 40
1.0
 10
184.3569695652106
 20
127.0974477086582
 30
0.0
 10
184.3878509048088
 20
126.9640933311829
 30
0.0
 10
184.4238465143086
 20
126.8298479595938
 30
0.0
 10
184.51318957841
 20
126.5617553966046
 30
0.0
 10
184.5656490927182
 20
126.4276552471012
 30
0.0
 10
184.6374288806419
 20
126.2968765301992
 30
0.0
  0
LINE
  5
11E
330
1F
100
AcDbEntity
  8
0
  6
HIDDEN
 62
     7
370
     0
100
AcDbLine
 10
185.4782899138
 20
96.4556466547
 30
0.0
 11
185.4782899138
 21
108.017920958
 31
0.0
  0
LINE
  5
11F
330
1F
100
AcDbEntity
  8
0
  6
HIDDEN
 62
     7
370
     0
100
AcDbLine
 10
185.4782899138
 20
119.9868810122
 30
0.0
 11
185.4782899138
 21
131.5491553155
 31
0.0
  0
LWPOLYLINE
  5
120
330
1F
100
AcDbEntity
  8
0
  6
HIDDEN
 62
     7
370
     0
100
AcDbPolyline
 90
       29
 70
   128
 43
0.0
 10
203.6782891339
 20
125.7389541475
 10
204.2345923221
 20
125.6863856447
 10
204.7629986739
 20
125.5313176421
 10
205.2370139247
 20
125.2815248204
 10
205.6328688598
 20
124.9495334683
 10
205.9307114071
 20
124.5519909767
 10
206.1156106031
 20
124.1088323054
 10
206.178290475
 20
123.6422778798
 10
206.1156106031
 20
123.1757234541
 10
205.9307114071
 20
122.7325638515
 10
205.6328688598
 20
122.33502136
 10
205.2370139247
 20
122.0030300078
 10
204.7629986739
 20
121.7532371861
 10
204.2345923221
 20
121.5981691835
 10
203.6782891339
 20
121.5456011464
 10
203.1219878084
 20
121.5981691835
 10
202.5935814565
 20
121.7532371861
 10
202.1195662057
 20
122.0030300078
 10
201.7237112707
 20
122.33502136
 10
201.4258668608
 20
122.7325638515
 10
201.2409704587
 20
123.1757234541
 10
201.1782896555
 20
123.6422778798
 10
201.2409704587
 20
124.1088323054
 10
201.4258668608
 20
124.5519909767
 10
201.7237112707
 20
124.9495334683
 10
202.1195662057
 20
125.2815248204
 10
202.5935814565
 20
125.5313176421
 10
203.1219878084
 20
125.6863856447
 10
203.6782891339
 20
125.7389541475
  0
SPLINE
  5
121
330
1F
100
AcDbEntity
  8
0
  6
HIDDEN
 62
     7
370
     0
100
AcDbSpline
210
0.0
220
0.0
230
1.0
 70
     8
 71
     3
 72
    12
 73
     8
 74
     0
 42
0.00000001
 43
0.00000001
 12
1.0
 22
0.0
 32
0.0
 13
1.0
 23
0.0
 33
0.0
 40
0.0
 40
0.0
 40
0.0
 40
0.0
 40
0.5000000000000013
 40
0.5000000000000013
 40
0.7500000000000007
 40
0.7500000000000007
 40
1.0
 40
1.0
 40
1.0
 40
1.0
 10
202.8058463510029
 20
122.6482776857568
 30
0.0
 10
202.6392650969678
 20
122.8112471327988
 30
0.0
 10
202.5147931264149
 20
122.9767745491722
 30
0.0
 10
202.4248740105461
 20
123.2867821402901
 30
0.0
 10
202.4115980400553
 20
123.399895142053
 30
0.0
 10
202.4144098976753
 20
123.6385294738073
 30
0.0
 10
202.4299601529426
 20
123.7647250696653
 30
0.0
 10
202.4554644475704
 20
123.8950544803015
 30
0.0
  0
SPLINE
  5
122
330
1F
100
AcDbEntity
  8
0
  6
HIDDEN
 62
     7
370
     0
100
AcDbSpline
210
0.0
220
0.0
230
1.0
 70
     8
 71
     3
 72
    68
 73
    64
 74
     0
 42
0.00000001
 43
0.00000001
 12
1.0
 22
0.0
 32
0.0
 13
1.0
 23
0.0
 33
0.0
 40
0.0
 40
0.0
 40
0.0
 40
0.0
 40
0.0312500000000005
 40
0.0312500000000005
 40
0.062500000000001
 40
0.062500000000001
 40
0.1250000000000014
 40
0.1250000000000014
 40
0.1562500000000014
 40
0.1562500000000014
 40
0.1875000000000013
 40
0.1875000000000013
 40
0.2187500000000012
 40
0.2187500000000012
 40
0.2500000000000011
 40
0.2500000000000011
 40
0.281250000000001
 40
0.281250000000001
 40
0.3125000000000009
 40
0.3125000000000009
 40
0.3437500000000008
 40
0.3437500000000008
 40
0.3750000000000007
 40
0.3750000000000007
 40
0.4062500000000006
 40
0.4062500000000006
 40
0.4375000000000004
 40
0.4375000000000004
 40
0.4687500000000003
 40
0.4687500000000003
 40
0.5000000000000002
 40
0.5000000000000002
 40
0.5312500000000001
 40
0.5312500000000001
 40
0.5625000000000001
 40
0.5625000000000001
 40
0.59375
 40
0.59375
 40
0.625
 40
0.625
 40
0.6562499999999999
 40
0.6562499999999999
 40
0.6874999999999999
 40
0.6874999999999999
 40
0.7187499999999998
 40
0.7187499999999998
 40
0.7499999999999998
 40
0.7499999999999998
 40
0.7812499999999997
 40
0.7812499999999997
 40
0.8124999999999997
 40
0.8124999999999997
 40
0.8437499999999997
 40
0.8437499999999997
 40
0.8749999999999998
 40
0.8749999999999998
 40
0.9062499999999998
 40
0.9062499999999998
 40
0.9374999999999999
 40
0.9374999999999999
 40
0.9687499999999999
 40
0.9687499999999999
 40
1.0
 40
1.0
 40
1.0
 40
1.0
 10
202.4554644475705
 20
123.8950544803015
 30
0.0
 10
202.5920574083864
 20
123.9847688703706
 30
0.0
 10
202.7245119242616
 20
124.0700638810721
 30
0.0
 10
202.9885055277786
 20
124.2304374596194
 30
0.0
 10
203.1209283483119
 20
124.3058910951342
 30
0.0
 10
203.5168507031191
 20
124.5085203697097
 30
0.0
 10
203.7765274234029
 20
124.611984431189
 30
0.0
 10
204.1781719827048
 20
124.7031880464802
 30
0.0
 10
204.3139033436631
 20
124.7224014598677
 30
0.0
 10
204.5819623139161
 20
124.7324309412626
 30
0.0
 10
204.7154430138991
 20
124.7236330905142
 30
0.0
 10
204.9816721236434
 20
124.6704719245021
 30
0.0
 10
205.1099418966606
 20
124.6269671940714
 30
0.0
 10
205.3560424001072
 20
124.4999289958061
 30
0.0
 10
205.4732911565421
 20
124.4156468795961
 30
0.0
 10
205.680830091165
 20
124.2130952526824
 30
0.0
 10
205.7744657784778
 20
124.091359571279
 30
0.0
 10
205.9294445243247
 20
123.824640026149
 30
0.0
 10
205.9922691743143
 20
123.6780554261742
 30
0.0
 10
206.0886649978687
 20
123.3733121123419
 30
0.0
 10
206.1221161114051
 20
123.2171100712837
 30
0.0
 10
206.166329626507
 20
122.898699933504
 30
0.0
 10
206.1767336711153
 20
122.7369254308649
 30
0.0
 10
206.1795165189152
 20
122.4202616828928
 30
0.0
 10
206.172088753549
 20
122.2636908355518
 30
0.0
 10
206.1443744718627
 20
121.9538876762474
 30
0.0
 10
206.1238917231429
 20
121.8002687087267
 30
0.0
 10
206.0759490897619
 20
121.5043746125797
 30
0.0
 10
206.0483331803423
 20
121.3610524048278
 30
0.0
 10
205.9928802545724
 20
121.0850765386707
 30
0.0
 10
205.9646132055263
 20
120.9508508348101
 30
0.0
 10
205.9221516039805
 20
120.7081177397371
 30
0.0
 10
205.9083959581932
 20
120.597554028614
 30
0.0
 10
205.910963815121
 20
120.4277253255698
 30
0.0
 10
205.9276575166974
 20
120.3672073118354
 30
0.0
 10
205.9778450224824
 20
120.2974068117514
 30
0.0
 10
206.010338391261
 20
120.2859443754037
 30
0.0
 10
206.0722478862734
 20
120.294528213436
 30
0.0
 10
206.1014915195505
 20
120.3142492950532
 30
0.0
 10
206.1479646463902
 20
120.376098742038
 30
0.0
 10
206.1653670453163
 20
120.4189213995679
 30
0.0
 10
206.1812786648068
 20
120.5226483438493
 30
0.0
 10
206.180033540277
 20
120.5833735677238
 30
0.0
 10
206.1542819328828
 20
120.7215908973867
 30
0.0
 10
206.1292551168365
 20
120.8002201686334
 30
0.0
 10
206.0519105704674
 20
120.9691345764867
 30
0.0
 10
205.9999660449315
 20
121.0593640557391
 30
0.0
 10
205.8646284314868
 20
121.2512903768841
 30
0.0
 10
205.782901801991
 20
121.3503390419824
 30
0.0
 10
205.5937509014535
 20
121.5489379428494
 30
0.0
 10
205.484063161719
 20
121.6504885354088
 30
0.0
 10
205.2479344742247
 20
121.8439694268017
 30
0.0
 10
205.1202691495978
 20
121.9372630939789
 30
0.0
 10
204.8506180639223
 20
122.1127849898447
 30
0.0
 10
204.7117399384223
 20
122.1931326494483
 30
0.0
 10
204.4259648761129
 20
122.3392354067709
 30
0.0
 10
204.2793309373777
 20
122.4046681480408
 30
0.0
 10
203.9871407370767
 20
122.5157797936816
 30
0.0
 10
203.8398800514614
 20
122.5623109636097
 30
0.0
 10
203.543473988164
 20
122.6337240608825
 30
0.0
 10
203.396797465231
 20
122.6581797751723
 30
0.0
 10
203.102770286943
 20
122.6786112172195
 30
0.0
 10
202.9541177722373
 20
122.6746172691236
 30
0.0
 10
202.805846351003
 20
122.6482776857568
 30
0.0
  0
SPLINE
  5
123
330
1F
100
AcDbEntity
  8
0
  6
HIDDEN
 62
     7
370
     0
100
AcDbSpline
210
0.0
220
0.0
230
1.0
 70
     8
 71
     3
 72
    66
 73
    62
 74
     0
 42
0.00000001
 43
0.00000001
 12
1.0
 22
0.0
 32
0.0
 13
1.0
 23
0.0
 33
0.0
 40
-0.03125
 40
-0.03125
 40
0.0
 40
0.0
 40
0.0312499999999999
 40
0.0312499999999999
 40
0.0624999999999997
 40
0.0624999999999997
 40
0.0937499999999996
 40
0.0937499999999996
 40
0.1249999999999995
 40
0.1249999999999995
 40
0.1874999999999992
 40
0.1874999999999992
 40
0.2187499999999991
 40
0.2187499999999991
 40
0.2499999999999991
 40
0.2499999999999991
 40
0.2812499999999991
 40
0.2812499999999991
 40
0.312499999999999
 40
0.312499999999999
 40
0.343749999999999
 40
0.343749999999999
 40
0.3749999999999989
 40
0.3749999999999989
 40
0.4062499999999989
 40
0.4062499999999989
 40
0.437499999999999
 40
0.437499999999999
 40
0.468749999999999
 40
0.468749999999999
 40
0.499999999999999
 40
0.499999999999999
 40
0.531249999999999
 40
0.531249999999999
 40
0.562499999999999
 40
0.562499999999999
 40
0.5937499999999989
 40
0.5937499999999989
 40
0.624999999999999
 40
0.624999999999999
 40
0.6874999999999992
 40
0.6874999999999992
 40
0.7187499999999993
 40
0.7187499999999993
 40
0.7499999999999993
 40
0.7499999999999993
 40
0.7812499999999994
 40
0.7812499999999994
 40
0.8124999999999996
 40
0.8124999999999996
 40
0.8437499999999997
 40
0.8437499999999997
 40
0.8749999999999998
 40
0.8749999999999998
 40
0.9062499999999999
 40
0.9062499999999999
 40
0.9374999999999999
 40
0.9374999999999999
 40
0.96875
 40
0.96875
 40
1.0
 40
1.0
 40
1.03125
 40
1.03125
 10
203.8448428165271
 20
119.8055251125357
 30
0.0
 10
203.5117370010136
 20
119.8055251125357
 30
0.0
 10
203.3482460474238
 20
119.7950387044285
 30
0.0
 10
203.0270439020548
 20
119.7537015912292
 30
0.0
 10
202.8676315444985
 20
119.7222914671575
 30
0.0
 10
202.5655928173581
 20
119.639744787714
 30
0.0
 10
202.4225447799964
 20
119.5888548982499
 30
0.0
 10
202.1518115580456
 20
119.4663258862342
 30
0.0
 10
202.024742043079
 20
119.3945941194645
 30
0.0
 10
201.6817340321062
 20
119.153857085479
 30
0.0
 10
201.4959017707023
 20
118.9527900571961
 30
0.0
 10
201.3080964075436
 20
118.6077318241364
 30
0.0
 10
201.2593563307653
 20
118.4833485144998
 30
0.0
 10
201.1945922786505
 20
118.2241148455119
 30
0.0
 10
201.1784001681164
 20
118.0903933344917
 30
0.0
 10
201.1781807609497
 20
117.8144705242003
 30
0.0
 10
201.1947288549831
 20
117.6712246333916
 30
0.0
 10
201.2591580086867
 20
117.3894594424131
 30
0.0
 10
201.3068164778716
 20
117.2494377160964
 30
0.0
 10
201.4335124456703
 20
116.9719353079223
 30
0.0
 10
201.5110860314693
 20
116.8379295071355
 30
0.0
 10
201.6916926576494
 20
116.5831517315216
 30
0.0
 10
201.7962457067651
 20
116.4606863734439
 30
0.0
 10
202.0262543471093
 20
116.2364600276974
 30
0.0
 10
202.1511344054841
 20
116.1347451982598
 30
0.0
 10
202.4210339771139
 20
115.953518909368
 30
0.0
 10
202.5671303435969
 20
115.8738984414812
 30
0.0
 10
202.8678429674056
 20
115.7460138566764
 30
0.0
 10
203.023790655763
 20
115.6966296973794
 30
0.0
 10
203.3475705195114
 20
115.6293221136683
 30
0.0
 10
203.5132688632614
 20
115.6122405702622
 30
0.0
 10
203.8413127432688
 20
115.6121043901114
 30
0.0
 10
204.0066382946055
 20
115.6289781969889
 30
0.0
 10
204.3309667506158
 20
115.6961037979714
 30
0.0
 10
204.4873195514775
 20
115.7454809321379
 30
0.0
 10
204.7890357297067
 20
115.8736530976199
 30
0.0
 10
204.9351262594213
 20
115.953282917311
 30
0.0
 10
205.2048400368264
 20
116.1342931485148
 30
0.0
 10
205.3300213704695
 20
116.2361366683722
 30
0.0
 10
205.6766319108971
 20
116.5741143972807
 30
0.0
 10
205.8597747457854
 20
116.8334538259517
 30
0.0
 10
206.0494413059247
 20
117.2486583018286
 30
0.0
 10
206.0970790533533
 20
117.3883876410067
 30
0.0
 10
206.1615972882855
 20
117.6696920311672
 30
0.0
 10
206.1782943940272
 20
117.8129242430716
 30
0.0
 10
206.1782854216598
 20
118.0892579233187
 30
0.0
 10
206.1621545857132
 20
118.2231306344352
 30
0.0
 10
206.0974949090445
 20
118.4825755174535
 30
0.0
 10
206.0488245544054
 20
118.6070214456767
 30
0.0
 10
205.9233951820866
 20
118.8376420000688
 30
0.0
 10
205.8456515295964
 20
118.9459568462597
 30
0.0
 10
205.6633520425835
 20
119.1449242673306
 30
0.0
 10
205.5603888892893
 20
119.2342262405932
 30
0.0
 10
205.3311879169968
 20
119.3950114560098
 30
0.0
 10
205.2035569388888
 20
119.4669267053367
 30
0.0
 10
204.9337112774522
 20
119.5889485290968
 30
0.0
 10
204.7908565340651
 20
119.6397967699081
 30
0.0
 10
204.488459006819
 20
119.7224088232827
 30
0.0
 10
204.3292437758743
 20
119.7537451696489
 30
0.0
 10
204.0083560445562
 20
119.7950298512772
 30
0.0
 10
203.8448428165271
 20
119.8055251125357
 30
0.0
 10
203.5117370010136
 20
119.8055251125357
 30
0.0
  0
CIRCLE
  5
124
330
1F
100
AcDbEntity
  8
0
  6
HIDDEN
 62
     7
370
     0
100
AcDbCircle
 10
171.6782899088
 20
114.0024009851
 30
0.0
 40
3.049999999999997
  0
LWPOLYLINE
  5
125
330
1F
100
AcDbEntity
  8
0
  6
HIDDEN
 62
     7
370
     0
100
AcDbPolyline
 90
        9
 70
   128
 43
0.0
 10
202.8058466351
 20
122.6482772959
 10
202.6795704699
 20
122.8985944522
 10
202.5741093642
 20
123.1290735064
 10
202.4913743919
 20
123.3355290947
 10
202.4328705704
 20
123.5142126439
 10
202.3996614701
 20
123.6618784947
 10
202.3923468626
 20
123.7758463008
 10
202.4110608584
 20
123.8540448008
 10
202.4554644561
 20
123.895054659
  0
LINE
  5
126
330
1F
100
AcDbEntity
  8
0
  6
HIDDEN
 62
     7
370
     0
100
AcDbLine
 10
160.7063297963
 20
124.7910763828
 30
0.0
 11
160.7063297963
 21
103.2137255875
 31
0.0
  0
LINE
  5
127
330
1F
100
AcDbEntity
  8
0
  6
HIDDEN
 62
     7
370
     0
100
AcDbLine
 10
156.7063291407
 20
125.1722741631
 30
0.0
 11
156.7063291407
 21
102.8325278071
 31
0.0
  0
LINE
  5
128
330
1F
100
AcDbEntity
  8
0
  6
HIDDEN
 62
     7
370
     0
100
AcDbLine
 10
155.6782905793
 20
102.2389884797
 30
0.0
 11
155.6782905793
 21
125.7502157
 31
0.0
  0
LINE
  5
129
330
1F
100
AcDbEntity
  8
0
  6
HIDDEN
 62
     7
370
     0
100
AcDbLine
 10
165.3063294327
 20
124.5024008436
 30
0.0
 11
165.3063294327
 21
103.5024011267
 31
0.0
  0
LINE
  5
12A
330
1F
100
AcDbEntity
  8
0
  6
HIDDEN
 62
     7
370
     0
100
AcDbLine
 10
159.2063304818
 20
124.5024008436
 30
0.0
 11
159.2063304818
 21
103.5024011267
 31
0.0
  0
LINE
  5
12B
330
1F
100
AcDbEntity
  8
0
  6
HIDDEN
 62
     7
370
     0
100
AcDbLine
 10
160.2063306457
 20
124.5024008436
 30
0.0
 11
160.2063306457
 21
103.5024011267
 31
0.0
  0
SPLINE
  5
12C
330
1F
100
AcDbEntity
  8
0
  6
HIDDEN
 62
     7
370
     0
100
AcDbSpline
210
0.0
220
0.0
230
1.0
 70
     8
 71
     3
 72
    66
 73
    62
 74
     0
 42
0.00000001
 43
0.00000001
 12
1.0
 22
0.0
 32
0.0
 13
1.0
 23
0.0
 33
0.0
 40
-0.0312499999999999
 40
-0.0312499999999999
 40
0.0
 40
0.0
 40
0.0312499999999998
 40
0.0312499999999998
 40
0.0624999999999996
 40
0.0624999999999996
 40
0.0937499999999995
 40
0.0937499999999995
 40
0.1249999999999993
 40
0.1249999999999993
 40
0.1874999999999991
 40
0.1874999999999991
 40
0.218749999999999
 40
0.218749999999999
 40
0.249999999999999
 40
0.249999999999999
 40
0.281249999999999
 40
0.281249999999999
 40
0.3124999999999989
 40
0.3124999999999989
 40
0.3437499999999989
 40
0.3437499999999989
 40
0.3749999999999989
 40
0.3749999999999989
 40
0.4062499999999989
 40
0.4062499999999989
 40
0.4374999999999989
 40
0.4374999999999989
 40
0.4687499999999989
 40
0.4687499999999989
 40
0.4999999999999989
 40
0.4999999999999989
 40
0.5312499999999988
 40
0.5312499999999988
 40
0.5624999999999988
 40
0.5624999999999988
 40
0.5937499999999987
 40
0.5937499999999987
 40
0.6249999999999988
 40
0.6249999999999988
 40
0.656249999999999
 40
0.656249999999999
 40
0.6874999999999991
 40
0.6874999999999991
 40
0.7187499999999993
 40
0.7187499999999993
 40
0.7499999999999994
 40
0.7499999999999994
 40
0.7812499999999996
 40
0.7812499999999996
 40
0.8124999999999998
 40
0.8124999999999998
 40
0.875
 40
0.875
 40
0.9062500000000002
 40
0.9062500000000002
 40
0.9375000000000001
 40
0.9375000000000001
 40
0.9687500000000001
 40
0.9687500000000001
 40
1.0
 40
1.0
 40
1.03125
 40
1.03125
 10
171.4756112618225
 20
117.0524009851258
 30
0.0
 10
171.8809685557181
 20
117.0524009851258
 30
0.0
 10
172.0800284470539
 20
117.0324014255092
 30
0.0
 10
172.4712824316336
 20
116.954257922809
 30
0.0
 10
172.6655551903812
 20
116.8950968212882
 30
0.0
 10
173.0343186169326
 20
116.7416651343939
 30
0.0
 10
173.2090437753108
 20
116.6479383245517
 30
0.0
 10
173.5397210788446
 20
116.4266842221468
 30
0.0
 10
173.6953686228475
 20
116.2987028551523
 30
0.0
 10
174.1148359925161
 20
115.8791477581522
 30
0.0
 10
174.3417241340464
 20
115.5406691994488
 30
0.0
 10
174.5705207574312
 20
114.9907903117306
 30
0.0
 10
174.62971301228
 20
114.7973904659872
 30
0.0
 10
174.7085204225406
 20
114.4031623156293
 30
0.0
 10
174.7281598388209
 20
114.2045234881969
 30
0.0
 10
174.7284187032425
 20
113.8042232022985
 30
0.0
 10
174.7083480186096
 20
113.6008838755774
 30
0.0
 10
174.6300103359796
 20
113.2087923549698
 30
0.0
 10
174.5720605679412
 20
113.0180864866546
 30
0.0
 10
174.4181174260612
 20
112.6473626700681
 30
0.0
 10
174.3231788123385
 20
112.4706360102592
 30
0.0
 10
174.1028213964613
 20
112.1413828993349
 30
0.0
 10
173.9755413705331
 20
111.9862616757384
 30
0.0
 10
173.6937857792025
 20
111.704584980808
 30
0.0
 10
173.540997449745
 20
111.5791517959037
 30
0.0
 10
173.2115703675881
 20
111.3583762025496
 30
0.0
 10
173.0330243644364
 20
111.2625449498494
 30
0.0
 10
172.6654520388862
 20
111.1097158193543
 30
0.0
 10
172.4752980121752
 20
111.0515440614101
 30
0.0
 10
172.0817575894728
 20
110.9725507690651
 30
0.0
 10
171.8793235182116
 20
110.9524876434229
 30
0.0
 10
171.4798944428462
 20
110.9523148973041
 30
0.0
 10
171.2798754642903
 20
110.9717982713934
 30
0.0
 10
170.8837595168409
 20
111.0507898429946
 30
0.0
 10
170.6930266886491
 20
111.1090700628466
 30
0.0
 10
170.3253952480694
 20
111.2616376834546
 30
0.0
 10
170.1469088159016
 20
111.3572464702279
 30
0.0
 10
169.8167035569376
 20
111.5782585153129
 30
0.0
 10
169.6638149788756
 20
111.7037084140831
 30
0.0
 10
169.3822185843376
 20
111.9849389030884
 30
0.0
 10
169.254587661462
 20
112.1403217810023
 30
0.0
 10
169.0342622264622
 20
112.4691726390453
 30
0.0
 10
168.9400357694968
 20
112.6440607454593
 30
0.0
 10
168.7851012488938
 20
113.0162045968201
 30
0.0
 10
168.7270889632915
 20
113.207010638629
 30
0.0
 10
168.6486697090134
 20
113.5978836565477
 30
0.0
 10
168.6283556290468
 20
113.80034121793
 30
0.0
 10
168.6282245127429
 20
114.2024718228495
 30
0.0
 10
168.6478492061022
 20
114.4011958680246
 30
0.0
 10
168.7260156565159
 20
114.7940353391613
 30
0.0
 10
168.7853031018558
 20
114.9886796165639
 30
0.0
 10
169.0143839449387
 20
115.5401193699781
 30
0.0
 10
169.2412147958328
 20
115.8784589356772
 30
0.0
 10
169.6605534971535
 20
116.2981245983287
 30
0.0
 10
169.8159064929035
 20
116.425970604102
 30
0.0
 10
170.1468743260407
 20
116.6475716788038
 30
0.0
 10
170.321435626237
 20
116.7412124127807
 30
0.0
 10
170.6890089338119
 20
116.8943665334799
 30
0.0
 10
170.8836957954499
 20
116.953870279126
 30
0.0
 10
171.2761717453864
 20
117.032393028189
 30
0.0
 10
171.4756112618225
 20
117.0524009851258
 30
0.0
 10
171.8809685557181
 20
117.0524009851258
 30
0.0
  0
SPLINE
  5
12D
330
1F
100
AcDbEntity
  8
0
  6
HIDDEN
 62
     7
370
     0
100
AcDbSpline
210
0.0
220
0.0
230
1.0
 70
     8
 71
     3
 72
    66
 73
    62
 74
     0
 42
0.00000001
 43
0.00000001
 12
1.0
 22
0.0
 32
0.0
 13
1.0
 23
0.0
 33
0.0
 40
-0.0312500000000002
 40
-0.0312500000000002
 40
0.0
 40
0.0
 40
0.0312499999999999
 40
0.0312499999999999
 40
0.0624999999999997
 40
0.0624999999999997
 40
0.0937499999999996
 40
0.0937499999999996
 40
0.1249999999999995
 40
0.1249999999999995
 40
0.1874999999999992
 40
0.1874999999999992
 40
0.2187499999999991
 40
0.2187499999999991
 40
0.2499999999999989
 40
0.2499999999999989
 40
0.2812499999999988
 40
0.2812499999999988
 40
0.3124999999999987
 40
0.3124999999999987
 40
0.3437499999999986
 40
0.3437499999999986
 40
0.3749999999999984
 40
0.3749999999999984
 40
0.4062499999999983
 40
0.4062499999999983
 40
0.4374999999999984
 40
0.4374999999999984
 40
0.4687499999999984
 40
0.4687499999999984
 40
0.4999999999999986
 40
0.4999999999999986
 40
0.5312499999999987
 40
0.5312499999999987
 40
0.5624999999999988
 40
0.5624999999999988
 40
0.5937499999999988
 40
0.5937499999999988
 40
0.6249999999999989
 40
0.6249999999999989
 40
0.656249999999999
 40
0.656249999999999
 40
0.6874999999999991
 40
0.6874999999999991
 40
0.7187499999999992
 40
0.7187499999999992
 40
0.7499999999999992
 40
0.7499999999999992
 40
0.7812499999999993
 40
0.7812499999999993
 40
0.8124999999999994
 40
0.8124999999999994
 40
0.8749999999999996
 40
0.8749999999999996
 40
0.9062499999999997
 40
0.9062499999999997
 40
0.9374999999999997
 40
0.9374999999999997
 40
0.9687499999999998
 40
0.9687499999999998
 40
1.0
 40
1.0
 40
1.03125
 40
1.03125
 10
171.8809685557181
 20
117.0524009851258
 30
0.0
 10
171.4756112618225
 20
117.0524009851258
 30
0.0
 10
171.2765513704866
 20
117.0324014255092
 30
0.0
 10
170.8852973859069
 20
116.954257922809
 30
0.0
 10
170.6910246271593
 20
116.8950968212882
 30
0.0
 10
170.322261200608
 20
116.7416651343939
 30
0.0
 10
170.1475360422297
 20
116.6479383245517
 30
0.0
 10
169.8168587386959
 20
116.4266842221468
 30
0.0
 10
169.661211194693
 20
116.2987028551522
 30
0.0
 10
169.2417438250244
 20
115.8791477581522
 30
0.0
 10
169.0148556834941
 20
115.5406691994488
 30
0.0
 10
168.7860590601093
 20
114.9907903117306
 30
0.0
 10
168.7268668052605
 20
114.7973904659872
 30
0.0
 10
168.6480593949999
 20
114.4031623156293
 30
0.0
 10
168.6284199787196
 20
114.2045234881969
 30
0.0
 10
168.628161114298
 20
113.8042232022985
 30
0.0
 10
168.6482317989309
 20
113.6008838755774
 30
0.0
 10
168.7265694815608
 20
113.2087923549698
 30
0.0
 10
168.7845192495993
 20
113.0180864866546
 30
0.0
 10
168.9384623914793
 20
112.6473626700681
 30
0.0
 10
169.033401005202
 20
112.4706360102592
 30
0.0
 10
169.2537584210791
 20
112.1413828993349
 30
0.0
 10
169.3810384470075
 20
111.9862616757384
 30
0.0
 10
169.662794038338
 20
111.704584980808
 30
0.0
 10
169.8155823677955
 20
111.5791517959037
 30
0.0
 10
170.1450094499524
 20
111.3583762025496
 30
0.0
 10
170.3235554531041
 20
111.2625449498494
 30
0.0
 10
170.6911277786543
 20
111.1097158193543
 30
0.0
 10
170.8812818053653
 20
111.0515440614101
 30
0.0
 10
171.2748222280677
 20
110.9725507690651
 30
0.0
 10
171.4772562993289
 20
110.9524876434229
 30
0.0
 10
171.8766853746943
 20
110.9523148973042
 30
0.0
 10
172.0767043532502
 20
110.9717982713934
 30
0.0
 10
172.4728203006995
 20
111.0507898429946
 30
0.0
 10
172.6635531288914
 20
111.1090700628466
 30
0.0
 10
173.0311845694711
 20
111.2616376834546
 30
0.0
 10
173.2096710016389
 20
111.3572464702279
 30
0.0
 10
173.5398762606029
 20
111.5782585153129
 30
0.0
 10
173.6927648386649
 20
111.7037084140831
 30
0.0
 10
173.974361233203
 20
111.9849389030884
 30
0.0
 10
174.1019921560785
 20
112.1403217810023
 30
0.0
 10
174.3223175910783
 20
112.4691726390453
 30
0.0
 10
174.4165440480436
 20
112.6440607454593
 30
0.0
 10
174.5714785686467
 20
113.0162045968201
 30
0.0
 10
174.629490854249
 20
113.207010638629
 30
0.0
 10
174.7079101085271
 20
113.5978836565477
 30
0.0
 10
174.7282241884936
 20
113.80034121793
 30
0.0
 10
174.7283553047976
 20
114.2024718228495
 30
0.0
 10
174.7087306114383
 20
114.4011958680246
 30
0.0
 10
174.6305641610246
 20
114.7940353391613
 30
0.0
 10
174.5712767156847
 20
114.9886796165639
 30
0.0
 10
174.3421958726018
 20
115.5401193699781
 30
0.0
 10
174.1153650217076
 20
115.8784589356772
 30
0.0
 10
173.6960263203869
 20
116.2981245983287
 30
0.0
 10
173.540673324637
 20
116.425970604102
 30
0.0
 10
173.2097054914998
 20
116.6475716788038
 30
0.0
 10
173.0351441913035
 20
116.7412124127807
 30
0.0
 10
172.6675708837286
 20
116.8943665334799
 30
0.0
 10
172.4728840220906
 20
116.953870279126
 30
0.0
 10
172.0804080721541
 20
117.032393028189
 30
0.0
 10
171.8809685557181
 20
117.0524009851258
 30
0.0
 10
171.4756112618225
 20
117.0524009851258
 30
0.0
  0
LINE
  5
12E
330
1F
100
AcDbEntity
  8
0
  6
HIDDEN
 62
     7
370
     0
100
AcDbLine
 10
175.6782901323
 20
124.0024007616
 30
0.0
 11
175.6782901323
 21
104.0024012086
 31
0.0
  0
LINE
  5
12F
330
1F
100
AcDbEntity
  8
0
  6
HIDDEN
 62
     7
370
     0
100
AcDbLine
 10
176.6782902962
 20
121.2524007765
 30
0.0
 11
176.6782902962
 21
106.7524011937
 31
0.0
  0
LINE
  5
130
330
1F
100
AcDbEntity
  8
0
  6
HIDDEN
 62
     7
370
     0
100
AcDbLine
 10
175.6782901323
 20
105.7524010298
 30
0.0
 11
175.6782901323
 21
122.2367537898
 31
0.0
  0
LINE
  5
131
330
1F
100
AcDbEntity
  8
0
  6
HIDDEN
 62
     7
370
     0
100
AcDbLine
 10
209.6782901174
 20
106.7524011937
 30
0.0
 11
209.6782901174
 21
121.2524007765
 31
0.0
  0
LINE
  5
132
330
1F
100
AcDbEntity
  8
0
  6
HIDDEN
 62
     7
370
     0
100
AcDbLine
 10
231.5160014516
 20
141.9077403603
 30
0.0
 11
227.0009980387
 21
133.2565247772
 31
0.0
  0
LINE
  5
133
330
1F
100
AcDbEntity
  8
0
  6
HIDDEN
 62
     7
370
     0
100
AcDbLine
 10
227.0009980387
 20
133.2565247772
 30
0.0
 11
226.9742355531
 21
133.2427225766
 31
0.0
  0
LINE
  5
134
330
1F
100
AcDbEntity
  8
0
  6
HIDDEN
 62
     7
370
     0
100
AcDbLine
 10
224.8839081115
 20
127.8428397832
 30
0.0
 11
238.4414949304
 21
134.8343398181
 31
0.0
  0
ARC
  5
135
330
1F
100
AcDbEntity
  8
0
  6
HIDDEN
 62
     7
370
     0
100
AcDbCircle
 10
222.5641864024
 20
128.7469214221
 30
0.0
 40
1.75697173230748
100
AcDbArc
 50
195.6866341356
 51
254.1736166453
  0
LINE
  5
136
330
1F
100
AcDbEntity
  8
0
  6
HIDDEN
 62
     7
370
     0
100
AcDbLine
 10
224.6590309626
 20
127.8538387028
 30
0.0
 11
238.2036798483
 21
134.8386667428
 31
0.0
  0
ELLIPSE
  5
137
330
1F
100
AcDbEntity
  8
0
  6
HIDDEN
 62
     7
370
     0
100
AcDbEllipse
 10
1929.8310639543
 20
123.9581391895
 30
0.0
 11
2131.982216632323
 21
-23.00606950227485
 31
0.0
210
0.0
220
0.0
230
1.0
 40
0.0056814896
 41
3.795988939834784
 42
3.796172193064344
  0
LINE
  5
138
330
1F
100
AcDbEntity
  8
0
  6
HIDDEN
 62
     7
370
     0
100
AcDbLine
 10
227.0009980387
 20
133.2565247772
 30
0.0
 11
226.9911036676
 21
132.9926885424
 31
0.0
  0
LINE
  5
139
330
1F
100
AcDbEntity
  8
0
  6
HIDDEN
 62
     7
370
     0
100
AcDbLine
 10
226.7894797808
 20
132.8887138275
 30
0.0
 11
226.9911036676
 21
132.9926885424
 31
0.0
  0
LINE
  5
13A
330
1F
100
AcDbEntity
  8
0
  6
HIDDEN
 62
     7
370
     0
100
AcDbLine
 10
232.7052556759
 20
117.5164428764
 30
0.0
 11
236.1515776104
 21
117.5164428764
 31
0.0
  0
LINE
  5
13B
330
1F
100
AcDbEntity
  8
0
  6
HIDDEN
 62
     7
370
     0
100
AcDbLine
 10
218.7769875711
 20
97.019592276
 30
0.0
 11
218.7769875711
 21
114.0024009851
 31
0.0
  0
SPLINE
  5
13C
330
1F
100
AcDbEntity
  8
0
  6
HIDDEN
 62
     7
370
     0
100
AcDbSpline
210
0.0
220
0.0
230
1.0
 70
     8
 71
     3
 72
    10
 73
     6
 74
     0
 42
0.00000001
 43
0.00000001
 12
1.0
 22
0.0
 32
0.0
 13
1.0
 23
0.0
 33
0.0
 40
0.0
 40
0.0
 40
0.0
 40
0.0
 40
0.4999999999999999
 40
0.4999999999999999
 40
1.0
 40
1.0
 40
1.0
 40
1.0
 10
218.8768887470811
 20
117.5178521585759
 30
0.0
 10
218.8554495535886
 20
116.9319792871336
 30
0.0
 10
218.8289279616617
 20
116.3461442567419
 30
0.0
 10
218.7895003431567
 20
115.1743728211244
 30
0.0
 10
218.7769883245757
 20
114.5884334823078
 30
0.0
 10
218.7769883245757
 20
114.002400985126
 30
0.0
  0
SPLINE
  5
13D
330
1F
100
AcDbEntity
  8
0
  6
HIDDEN
 62
     7
370
     0
100
AcDbSpline
210
0.0
220
0.0
230
1.0
 70
     8
 71
     3
 72
    11
 73
     7
 74
     0
 42
0.00000001
 43
0.00000001
 12
1.0
 22
0.0
 32
0.0
 13
1.0
 23
0.0
 33
0.0
 40
0.0
 40
0.0
 40
0.0
 40
0.0
 40
0.1436081403883825
 40
0.239186071815596
 40
0.7909588246404269
 40
1.0
 40
1.0
 40
1.0
 40
1.0
 10
218.8623451477324
 20
139.6938804296296
 30
0.0
 10
218.8505823872853
 20
139.6551209504698
 30
0.0
 10
218.8309909598255
 20
139.5905652258378
 30
0.0
 10
218.7589469216735
 20
139.377113224843
 30
0.0
 10
218.7873470067065
 20
139.145596955497
 30
0.0
 10
218.8575889972372
 20
138.9403071474868
 30
0.0
 10
218.8768886810576
 20
138.8839017359059
 30
0.0
  0
SPLINE
  5
13E
330
1F
100
AcDbEntity
  8
0
  6
HIDDEN
 62
     7
370
     0
100
AcDbSpline
210
0.0
220
0.0
230
1.0
 70
     8
 71
     3
 72
    10
 73
     6
 74
     0
 42
0.00000001
 43
0.00000001
 12
1.0
 22
0.0
 32
0.0
 13
1.0
 23
0.0
 33
0.0
 40
0.0
 40
0.0
 40
0.0
 40
0.0
 40
0.5
 40
0.5
 40
1.0
 40
1.0
 40
1.0
 40
1.0
 10
217.9109629207919
 20
95.42151056584615
 30
0.0
 10
218.0891429857337
 20
95.72769605903648
 30
0.0
 10
218.2492162579131
 20
96.01272281315035
 30
0.0
 10
218.5417963824473
 20
96.55056351085992
 30
0.0
 10
218.6752130027017
 20
96.80472783002338
 30
0.0
 10
218.7769883245757
 20
97.01959148140168
 30
0.0
  0
LINE
  5
13F
330
1F
100
AcDbEntity
  8
0
  6
HIDDEN
 62
     7
370
     0
100
AcDbLine
 10
231.5193989164
 20
141.6693702099
 30
0.0
 11
226.9911036676
 21
132.9926885424
 31
0.0
  0
ELLIPSE
  5
140
330
1F
100
AcDbEntity
  8
0
  6
HIDDEN
 62
     7
370
     0
100
AcDbEllipse
 10
221.3906088546
 20
2206.6571938213
 30
0.0
 11
-22.97323983866238
 21
2662.72517676123
 31
0.0
210
0.0
220
0.0
230
1.0
 40
0.0045723775
 41
2.458148197979841
 42
2.458289984126637
  0
ARC
  5
141
330
1F
100
AcDbEntity
  8
0
  6
HIDDEN
 62
     7
370
     0
100
AcDbCircle
 10
222.3845501218
 20
128.5663610348
 30
0.0
 40
1.750438562408591
100
AcDbArc
 50
131.1266022047
 51
297.211137175
  0
ELLIPSE
  5
142
330
1F
100
AcDbEntity
  8
0
  6
HIDDEN
 62
     7
370
     0
100
AcDbEllipse
 10
232.6707093809
 20
123.9581391895
 30
0.0
 11
33.87061315251296
 21
25.62367369971794
 31
0.0
210
0.0
220
0.0
230
1.0
 40
0.1301318729
 41
1.30937072192543
 42
1.322606354342801
  0
LINE
  5
143
330
1F
100
AcDbEntity
  8
0
  6
HIDDEN
 62
     7
370
     0
100
AcDbLine
 10
226.9911036676
 20
132.9926885424
 30
0.0
 11
226.8167116529
 21
132.8187230734
 31
0.0
  0
LINE
  5
144
330
1F
100
AcDbEntity
  8
0
  6
HIDDEN
 62
     7
370
     0
100
AcDbLine
 10
226.8167116529
 20
132.8187230734
 30
0.0
 11
226.7294728047
 21
132.7737346051
 31
0.0
  0
ELLIPSE
  5
145
330
1F
100
AcDbEntity
  8
0
  6
HIDDEN
 62
     7
370
     0
100
AcDbEllipse
 10
221.3906088546
 20
137.1844339651
 30
0.0
 11
25.63095456238859
 21
33.65412721431187
 31
0.0
210
0.0
220
0.0
230
1.0
 40
0.1297049843
 41
4.931007987229664
 42
4.943864698941572
  0
LINE
  5
146
330
1F
100
AcDbEntity
  8
0
  6
HIDDEN
 62
     7
370
     0
100
AcDbLine
 10
233.4723674542
 20
142.2694101689
 30
0.0
 11
244.3137519842
 21
147.860193601
 31
0.0
  0
LINE
  5
147
330
1F
100
AcDbEntity
  8
0
  6
HIDDEN
 62
     7
370
     0
100
AcDbLine
 10
244.5323594695
 20
147.6405206827
 30
0.0
 11
244.3137519842
 21
147.860193601
 31
0.0
  0
LINE
  5
148
330
1F
100
AcDbEntity
  8
0
  6
HIDDEN
 62
     7
370
     0
100
AcDbLine
 10
238.5362663156
 20
136.1513845382
 30
0.0
 11
244.5323594695
 21
147.6405206827
 31
0.0
  0
CIRCLE
  5
149
330
1F
100
AcDbEntity
  8
0
  6
HIDDEN
 62
     7
370
     0
100
AcDbCircle
 10
234.5606014581
 20
137.9489911621
 30
0.0
 40
2.39286590104542
  0
LINE
  5
14A
330
1F
100
AcDbEntity
  8
0
  6
HIDDEN
 62
     7
370
     0
100
AcDbLine
 10
231.2107027358
 20
141.2380654124
 30
0.0
 11
226.8167116529
 21
132.8187230734
 31
0.0
  0
LINE
  5
14B
330
1F
100
AcDbEntity
  8
0
  6
HIDDEN
 62
     7
370
     0
100
AcDbLine
 10
223.1849745697
 20
127.0096478743
 30
0.0
 11
237.7587349004
 21
134.5251798389
 31
0.0
  0
ELLIPSE
  5
14C
330
1F
100
AcDbEntity
  8
0
  6
HIDDEN
 62
     7
370
     0
100
AcDbEllipse
 10
221.3906088546
 20
165.3703521291
 30
0.0
 11
19.52855739459145
 21
-17.31328357430627
 31
0.0
210
0.0
220
0.0
230
1.0
 40
0.9914322785
 41
5.820767751001277
 42
5.916737770721101
  0
ELLIPSE
  5
14D
330
1F
100
AcDbEntity
  8
0
  6
HIDDEN
 62
     7
370
     0
100
AcDbEllipse
 10
261.5786405981
 20
123.9581391895
 30
0.0
 11
-17.28642680684979
 21
19.55165705820389
 31
0.0
210
0.0
220
0.0
230
1.0
 40
0.9914502387
 41
0.3629456959975021
 42
0.4325334886721959
  0
CIRCLE
  5
14E
330
1F
100
AcDbEntity
  8
0
  6
HIDDEN
 62
     7
370
     0
100
AcDbCircle
 10
234.5079268815
 20
137.8919511527
 30
0.0
 40
1.644676919228888
  0
CIRCLE
  5
14F
330
1F
100
AcDbEntity
  8
0
  6
HIDDEN
 62
     7
370
     0
100
AcDbCircle
 10
233.8981590002
 20
137.2842735492
 30
0.0
 40
1.644937771097437
  0
LINE
  5
150
330
1F
100
AcDbEntity
  8
0
  6
HIDDEN
 62
     7
370
     0
100
AcDbLine
 10
157.1782898939
 20
130.8617517111
 30
0.0
 11
157.1782898939
 21
126.0519735274
 31
0.0
  0
LINE
  5
151
330
1F
100
AcDbEntity
  8
0
  6
HIDDEN
 62
     7
370
     0
100
AcDbLine
 10
155.6782905793
 20
129.9957260249
 30
0.0
 11
155.6782905793
 21
125.6189606843
 31
0.0
  0
LINE
  5
152
330
1F
100
AcDbEntity
  8
0
  6
HIDDEN
 62
     7
370
     0
100
AcDbLine
 10
183.4782899207
 20
131.5224990008
 30
0.0
 11
183.4782899207
 21
126.3823471723
 31
0.0
  0
SPLINE
  5
153
330
1F
100
AcDbEntity
  8
0
  6
HIDDEN
 62
     7
370
     0
100
AcDbSpline
210
0.0
220
0.0
230
1.0
 70
     8
 71
     3
 72
    18
 73
    14
 74
     0
 42
0.00000001
 43
0.00000001
 12
1.0
 22
0.0
 32
0.0
 13
1.0
 23
0.0
 33
0.0
 40
0.0
 40
0.0
 40
0.0
 40
0.0
 40
0.2500000000000007
 40
0.2500000000000007
 40
0.3750000000000006
 40
0.3750000000000006
 40
0.5000000000000004
 40
0.5000000000000004
 40
0.6250000000000003
 40
0.6250000000000003
 40
0.7500000000000002
 40
0.7500000000000002
 40
1.0
 40
1.0
 40
1.0
 40
1.0
 10
184.3569695652106
 20
100.9073542615933
 30
0.0
 10
184.2216839589082
 20
100.3231526678616
 30
0.0
 10
184.1205162126653
 20
99.78893498065347
 30
0.0
 10
184.0176548697964
 20
99.06303820976508
 30
0.0
 10
183.9915520242731
 20
98.83315772198517
 30
0.0
 10
183.9566620407282
 20
98.40258677719838
 30
0.0
 10
183.9480757824383
 20
98.2048918717042
 30
0.0
 10
183.9479760728726
 20
97.84354382902639
 30
0.0
 10
183.9564644440212
 20
97.67989381908028
 30
0.0
 10
183.9906078235418
 20
97.38668254611132
 30
0.0
 10
184.0164048053956
 20
97.2566864799955
 30
0.0
 10
184.1198059367835
 20
96.92263058743356
 30
0.0
 10
184.2216639289549
 20
96.77685442306878
 30
0.0
 10
184.3569695652106
 20
96.70549111712093
 30
0.0
  0
LINE
  5
154
330
1F
100
AcDbEntity
  8
0
  6
HIDDEN
 62
     7
370
     0
100
AcDbLine
 10
183.4782899207
 20
101.622454798
 30
0.0
 11
183.4782899207
 21
96.4823029695
 31
0.0
  0
SPLINE
  5
155
330
1F
100
AcDbEntity
  8
0
  6
HIDDEN
 62
     7
370
     0
100
AcDbSpline
210
0.0
220
0.0
230
1.0
 70
     8
 71
     3
 72
    18
 73
    14
 74
     0
 42
0.00000001
 43
0.00000001
 12
1.0
 22
0.0
 32
0.0
 13
1.0
 23
0.0
 33
0.0
 40
0.0
 40
0.0
 40
0.0
 40
0.0
 40
0.2499999999999998
 40
0.2499999999999998
 40
0.3749999999999998
 40
0.3749999999999998
 40
0.4999999999999999
 40
0.4999999999999999
 40
0.6249999999999999
 40
0.6249999999999999
 40
0.75
 40
0.75
 40
1.0
 40
1.0
 40
1.0
 40
1.0
 10
184.3569695652106
 20
131.2993108531306
 30
0.0
 10
184.2216839589082
 20
131.227958111441
 30
0.0
 10
184.1205162126653
 20
131.0825547048516
 30
0.0
 10
184.0176548697964
 20
130.753087469246
 30
0.0
 10
183.9915520242731
 20
130.6241538924413
 30
0.0
 10
183.9566620407282
 20
130.3286118931051
 30
0.0
 10
183.9480757824383
 20
130.1642171195832
 30
0.0
 10
183.9479760728726
 20
129.8032555048426
 30
0.0
 10
183.9564644440212
 20
129.6066857126804
 30
0.0
 10
183.9906078235418
 20
129.1813309165554
 30
0.0
 10
184.0164048053956
 20
128.9515612667558
 30
0.0
 10
184.1198059367835
 20
128.2189725723234
 30
0.0
 10
184.2216639289549
 20
127.6817357974058
 30
0.0
 10
184.3569695652106
 20
127.0974477086582
 30
0.0
  0
LINE
  5
156
330
1F
100
AcDbEntity
  8
0
  6
HIDDEN
 62
     7
370
     0
100
AcDbLine
 10
157.1782898939
 20
101.9528284428
 30
0.0
 11
157.1782898939
 21
97.1430502591
 31
0.0
  0
LINE
  5
157
330
1F
100
AcDbEntity
  8
0
  6
HIDDEN
 62
     7
370
     0
100
AcDbLine
 10
155.6782905793
 20
102.3858412859
 30
0.0
 11
155.6782905793
 21
98.0090759454
 31
0.0
  0
LINE
  5
158
330
1F
100
AcDbEntity
  8
0
  6
HIDDEN
 62
     7
370
     0
100
AcDbLine
 10
244.3137519842
 20
147.860193601
 30
0.0
 11
242.7404352313
 21
146.2932806221
 31
0.0
  0
LINE
  5
159
330
1F
100
AcDbEntity
  8
0
  6
HIDDEN
 62
     7
370
     0
100
AcDbLine
 10
242.6602073795
 20
145.7759868113
 30
0.0
 11
244.5323594695
 21
147.6405206827
 31
0.0
  0
SPLINE
  5
15A
330
1F
100
AcDbEntity
  8
0
  6
HIDDEN
 62
     7
370
     0
100
AcDbSpline
210
0.0
220
0.0
230
1.0
 70
     8
 71
     3
 72
     8
 73
     4
 74
     0
 42
0.00000001
 43
0.00000001
 12
1.0
 22
0.0
 32
0.0
 13
1.0
 23
0.0
 33
0.0
 40
0.0
 40
0.0
 40
0.0
 40
0.0
 40
1.0
 40
1.0
 40
1.0
 40
1.0
 10
218.8768887470804
 20
138.8839021257006
 30
0.0
 10
219.0804722043205
 20
138.2058986794893
 30
0.0
 10
219.7678585485765
 20
137.5324110122734
 30
0.0
 10
220.6820348085746
 20
136.8610401847155
 30
0.0
  0
SPLINE
  5
15B
330
1F
100
AcDbEntity
  8
0
  6
HIDDEN
 62
     7
370
     0
100
AcDbSpline
210
0.0
220
0.0
230
1.0
 70
     8
 71
     3
 72
     8
 73
     4
 74
     0
 42
0.00000001
 43
0.00000001
 12
1.0
 22
0.0
 32
0.0
 13
1.0
 23
0.0
 33
0.0
 40
0.0
 40
0.0
 40
0.0
 40
0.0
 40
1.0
 40
1.0
 40
1.0
 40
1.0
 10
220.6820348085746
 20
136.8610401847155
 30
0.0
 10
220.6462075582987
 20
135.7859285350006
 30
0.0
 10
220.6106181860269
 20
134.6549989983484
 30
0.0
 10
220.5752891578292
 20
133.4666501816987
 30
0.0
  0
ELLIPSE
  5
15C
330
1F
100
AcDbEntity
  8
0
  6
HIDDEN
 62
     7
370
     0
100
AcDbEllipse
 10
279.7327807055
 20
116.0024009851
 30
0.0
 11
36.27341166842462
 21
-31.78084959050205
 31
0.0
210
0.0
220
0.0
230
1.0
 40
0.2449985756
 41
3.276952568531022
 42
3.314809282455593
  0
ELLIPSE
  5
15D
330
1F
100
AcDbEntity
  8
0
  6
HIDDEN
 62
     7
370
     0
100
AcDbEllipse
 10
182.4089956665
 20
116.0024009851
 30
0.0
 11
62.86147841258
 21
32.84833895581011
 31
0.0
210
0.0
220
0.0
230
1.0
 40
0.0502718471
 41
5.633757201383329
 42
5.97106768705781
  0
ELLIPSE
  5
15E
330
1F
100
AcDbEntity
  8
0
  6
HIDDEN
 62
     7
370
     0
100
AcDbEllipse
 10
228.4796302482
 20
116.0024009851
 30
0.0
 11
17.83916437416483
 21
32.9562593676636
 31
0.0
210
0.0
220
0.0
230
1.0
 40
0.0952129519
 41
0.4973768503860307
 42
0.9655026309960388
  0
SPLINE
  5
15F
330
1F
100
AcDbEntity
  8
0
  6
HIDDEN
 62
     7
370
     0
100
AcDbSpline
210
0.0
220
0.0
230
1.0
 70
     8
 71
     3
 72
    18
 73
    14
 74
     0
 42
0.00000001
 43
0.00000001
 12
1.0
 22
0.0
 32
0.0
 13
1.0
 23
0.0
 33
0.0
 40
0.0
 40
0.0
 40
0.0
 40
0.0
 40
0.2499999999999992
 40
0.2499999999999992
 40
0.374999999999999
 40
0.374999999999999
 40
0.4999999999999989
 40
0.4999999999999989
 40
0.7499999999999986
 40
0.7499999999999986
 40
0.8749999999999993
 40
0.8749999999999993
 40
1.0
 40
1.0
 40
1.0
 40
1.0
 10
233.4723690957319
 20
140.2527476502945
 30
0.0
 10
232.6444032777382
 20
139.7478057406875
 30
0.0
 10
231.7635145603491
 20
139.2819120568611
 30
0.0
 10
230.362142631124
 20
138.6582558157779
 30
0.0
 10
229.881638804267
 20
138.462900591319
 30
0.0
 10
228.8931601066487
 20
138.1002352193863
 30
0.0
 10
228.3823941832702
 20
137.9321697957778
 30
0.0
 10
226.8314265896017
 20
137.4817923286089
 30
0.0
 10
225.774106093593
 20
137.2524467398021
 30
0.0
 10
224.1540515396385
 20
137.0196035408942
 30
0.0
 10
223.6083217557599
 20
136.9605677493554
 30
0.0
 10
222.5051705101511
 20
136.8812119156884
 30
0.0
 10
221.9474254790782
 20
136.8610401847155
 30
0.0
 10
221.3906088545951
 20
136.8610401847155
 30
0.0
  0
SPLINE
  5
160
330
1F
100
AcDbEntity
  8
0
  6
HIDDEN
 62
     7
370
     0
100
AcDbSpline
210
0.0
220
0.0
230
1.0
 70
     8
 71
     3
 72
     8
 73
     4
 74
     0
 42
0.00000001
 43
0.00000001
 12
1.0
 22
0.0
 32
0.0
 13
1.0
 23
0.0
 33
0.0
 40
0.0
 40
0.0
 40
0.0
 40
0.0
 40
1.0
 40
1.0
 40
1.0
 40
1.0
 10
236.0498048885896
 20
136.1513838379833
 30
0.0
 10
235.5150479739646
 20
135.30206879012
 30
0.0
 10
235.0213875485861
 20
134.4091029693434
 30
0.0
 10
234.5761111493592
 20
133.4666501816987
 30
0.0
  0
LINE
  5
161
330
1F
100
AcDbEntity
  8
0
  6
HIDDEN
 62
     7
370
     0
100
AcDbLine
 10
221.3906102663
 20
136.8610393015
 30
0.0
 11
220.6820339745
 21
136.8610393015
 31
0.0
  0
LINE
  5
162
330
1F
100
AcDbEntity
  8
0
  6
HIDDEN
 62
     7
370
     0
100
AcDbLine
 10
155.6782905793
 20
125.6189606843
 30
0.0
 11
155.6782905793
 21
116.341571998
 31
0.0
  0
LINE
  5
163
330
1F
100
AcDbEntity
  8
0
  6
HIDDEN
 62
     7
370
     0
100
AcDbLine
 10
155.6782905793
 20
111.6632299723
 30
0.0
 11
155.6782905793
 21
102.3858412859
 31
0.0
  0
LINE
  5
164
330
1F
100
AcDbEntity
  8
0
  6
HIDDEN
 62
     7
370
     0
100
AcDbLine
 10
157.1782898939
 20
110.8539239263
 30
0.0
 11
157.1782898939
 21
101.9528284428
 31
0.0
  0
LINE
  5
165
330
1F
100
AcDbEntity
  8
0
  6
HIDDEN
 62
     7
370
     0
100
AcDbLine
 10
157.1782898939
 20
126.0519735274
 30
0.0
 11
157.1782898939
 21
117.150878044
 31
0.0
  0
LINE
  5
166
330
1F
100
AcDbEntity
  8
0
  6
HIDDEN
 62
     7
370
     0
100
AcDbLine
 10
183.4782899207
 20
126.3823471723
 30
0.0
 11
183.4782899207
 21
101.622454798
 31
0.0
  0
LINE
  5
167
330
1F
100
AcDbEntity
  8
0
  6
HIDDEN
 62
     7
370
     0
100
AcDbLine
 10
185.4782899138
 20
125.5646748228
 30
0.0
 11
185.4782899138
 21
102.4401271475
 31
0.0
  0
SPLINE
  5
168
330
1F
100
AcDbEntity
  8
0
  6
HIDDEN
 62
     7
370
     0
100
AcDbSpline
210
0.0
220
0.0
230
1.0
 70
     8
 71
     3
 72
    26
 73
    22
 74
     0
 42
0.00000001
 43
0.00000001
 12
1.0
 22
0.0
 32
0.0
 13
1.0
 23
0.0
 33
0.0
 40
0.0
 40
0.0
 40
0.0
 40
0.0
 40
0.1250000000000002
 40
0.1250000000000002
 40
0.2500000000000005
 40
0.2500000000000005
 40
0.3750000000000006
 40
0.3750000000000006
 40
0.4375000000000007
 40
0.4375000000000007
 40
0.5000000000000008
 40
0.5000000000000008
 40
0.5625000000000009
 40
0.5625000000000009
 40
0.625000000000001
 40
0.625000000000001
 40
0.7500000000000007
 40
0.7500000000000007
 40
0.8750000000000004
 40
0.8750000000000004
 40
1.0
 40
1.0
 40
1.0
 40
1.0
 10
161.1782899087703
 20
110.7839032246767
 30
0.0
 10
161.3889332707702
 20
111.0185202556217
 30
0.0
 10
161.5961297085272
 20
111.2564033915812
 30
0.0
 10
161.9976288431596
 20
111.74371769785
 30
0.0
 10
162.1929052622056
 20
111.9938429226391
 30
0.0
 10
162.552685754901
 20
112.51243306809
 30
0.0
 10
162.7179446150504
 20
112.7798640519768
 30
0.0
 10
162.9106025244766
 20
113.2112791843754
 30
0.0
 10
162.9655672646866
 20
113.3612980662998
 30
0.0
 10
163.0433030496507
 20
113.6740352450298
 30
0.0
 10
163.0645691879591
 20
113.831789491837
 30
0.0
 10
163.0664631172448
 20
114.1504947716828
 30
0.0
 10
163.0462373801778
 20
114.3129315718633
 30
0.0
 10
162.971772969892
 20
114.623883571446
 30
0.0
 10
162.918133844146
 20
114.7745548097737
 30
0.0
 10
162.7233895387453
 20
115.2166385677423
 30
0.0
 10
162.5563394255671
 20
115.48668258091
 30
0.0
 10
162.1960833068634
 20
116.0067902091914
 30
0.0
 10
162.0013309318431
 20
116.256451422001
 30
0.0
 10
161.5983217073708
 20
116.7458755338438
 30
0.0
 10
161.3898851890073
 20
116.9852214570078
 30
0.0
 10
161.1782899087712
 20
117.2208987455757
 30
0.0
  0
LINE
  5
169
330
1F
100
AcDbEntity
  8
0
  6
HIDDEN
 62
     7
370
     0
100
AcDbLine
 10
161.1782905495
 20
110.783903137
 30
0.0
 11
161.1782905495
 21
117.2208988333
 31
0.0
  0
SPLINE
  5
16A
330
1F
100
AcDbEntity
  8
0
  6
HIDDEN
 62
     7
370
     0
100
AcDbSpline
210
0.0
220
0.0
230
1.0
 70
     8
 71
     3
 72
     8
 73
     4
 74
     0
 42
0.00000001
 43
0.00000001
 12
1.0
 22
0.0
 32
0.0
 13
1.0
 23
0.0
 33
0.0
 40
0.0000202085968836
 40
0.0000202085968836
 40
0.0000202085968836
 40
0.0000202085968836
 40
0.0040218806502652
 40
0.0040218806502652
 40
0.0040218806502652
 40
0.0040218806502652
 10
157.1782899087702
 20
110.853923866789
 30
0.0
 10
158.5116130345609
 20
110.8299256356254
 30
0.0
 10
159.8449469077835
 20
110.8065978954571
 30
0.0
 10
161.1782899087703
 20
110.7839032246767
 30
0.0
  0
SPLINE
  5
16B
330
1F
100
AcDbEntity
  8
0
  6
HIDDEN
 62
     7
370
     0
100
AcDbSpline
210
0.0
220
0.0
230
1.0
 70
     8
 71
     3
 72
     8
 73
     4
 74
     0
 42
0.00000001
 43
0.00000001
 12
1.0
 22
0.0
 32
0.0
 13
1.0
 23
0.0
 33
0.0
 40
0.0000202082942178
 40
0.0000202082942178
 40
0.0000202082942178
 40
0.0000202082942178
 40
0.0040218803475995
 40
0.0040218803475995
 40
0.0040218803475995
 40
0.0040218803475995
 10
161.1782899087703
 20
117.2208987455748
 30
0.0
 10
159.8449469077835
 20
117.1982040747944
 30
0.0
 10
158.5116130345609
 20
117.1748763346261
 30
0.0
 10
157.1782899087702
 20
117.1508781034625
 30
0.0
  0
SPLINE
  5
16C
330
1F
100
AcDbEntity
  8
0
  6
HIDDEN
 62
     7
370
     0
100
AcDbSpline
210
0.0
220
0.0
230
1.0
 70
     8
 71
     3
 72
     8
 73
     4
 74
     0
 42
0.00000001
 43
0.00000001
 12
1.0
 22
0.0
 32
0.0
 13
1.0
 23
0.0
 33
0.0
 40
0.0
 40
0.0
 40
0.0
 40
0.0
 40
1.0
 40
1.0
 40
1.0
 40
1.0
 10
155.6782899087694
 20
111.6632300568913
 30
0.0
 10
156.1525013192073
 20
111.3285008295963
 30
0.0
 10
156.6572376663092
 20
111.0694424157633
 30
0.0
 10
157.1782899087702
 20
110.853923866789
 30
0.0
  0
SPLINE
  5
16D
330
1F
100
AcDbEntity
  8
0
  6
HIDDEN
 62
     7
370
     0
100
AcDbSpline
210
0.0
220
0.0
230
1.0
 70
     8
 71
     3
 72
     8
 73
     4
 74
     0
 42
0.00000001
 43
0.00000001
 12
1.0
 22
0.0
 32
0.0
 13
1.0
 23
0.0
 33
0.0
 40
0.0
 40
0.0
 40
0.0
 40
0.0
 40
1.0
 40
1.0
 40
1.0
 40
1.0
 10
157.1782899087702
 20
117.1508781034625
 30
0.0
 10
156.6572376663095
 20
116.9353595544883
 30
0.0
 10
156.1525013192079
 20
116.6763011406556
 30
0.0
 10
155.6782899087702
 20
116.3415719133608
 30
0.0
  0
LINE
  5
16E
330
1F
100
AcDbEntity
  8
0
  6
HIDDEN
 62
     7
370
     0
100
AcDbLine
 10
155.6782905793
 20
111.6632299723
 30
0.0
 11
155.6782905793
 21
116.341571998
 31
0.0
  0
SPLINE
  5
16F
330
1F
100
AcDbEntity
  8
0
  6
HIDDEN
 62
     7
370
     0
100
AcDbSpline
210
0.0
220
0.0
230
1.0
 70
     8
 71
     3
 72
    68
 73
    64
 74
     0
 42
0.00000001
 43
0.00000001
 12
1.0
 22
0.0
 32
0.0
 13
1.0
 23
0.0
 33
0.0
 40
-0.03125
 40
-0.03125
 40
0.0
 40
0.0
 40
0.03125
 40
0.03125
 40
0.0625
 40
0.0625
 40
0.09375
 40
0.09375
 40
0.125
 40
0.125
 40
0.1875
 40
0.1875
 40
0.21875
 40
0.21875
 40
0.25
 40
0.25
 40
0.28125
 40
0.28125
 40
0.3125
 40
0.3125
 40
0.34375
 40
0.34375
 40
0.375
 40
0.375
 40
0.40625
 40
0.40625
 40
0.4375
 40
0.4375
 40
0.46875
 40
0.46875
 40
0.5
 40
0.5
 40
0.53125
 40
0.53125
 40
0.5625
 40
0.5625
 40
0.59375
 40
0.59375
 40
0.625
 40
0.625
 40
0.65625
 40
0.65625
 40
0.6875
 40
0.6875
 40
0.71875
 40
0.71875
 40
0.75
 40
0.75
 40
0.78125
 40
0.78125
 40
0.8125
 40
0.8125
 40
0.84375
 40
0.84375
 40
0.875
 40
0.875
 40
0.90625
 40
0.90625
 40
0.9375
 40
0.9375
 40
0.96875
 40
0.96875
 40
1.0
 40
1.0
 40
1.03125
 40
1.03125
 10
169.0621161961068
 20
115.8992185617424
 30
0.0
 10
169.3525806783985
 20
116.2176508027429
 30
0.0
 10
169.51149697678
 20
116.3601683284466
 30
0.0
 10
169.8550776624179
 20
116.6138828655363
 30
0.0
 10
170.0412490153236
 20
116.7254466920452
 30
0.0
 10
170.4257790879093
 20
116.9096957287143
 30
0.0
 10
170.625389590074
 20
116.9836099948031
 30
0.0
 10
171.0392291750476
 20
117.0952518843632
 30
0.0
 10
171.2520389847188
 20
117.1321759386521
 30
0.0
 10
171.8879704590595
 20
117.1847777592275
 30
0.0
 10
172.3230366796872
 20
117.1425693685674
 30
0.0
 10
172.9352795466749
 20
116.968734763372
 30
0.0
 10
173.1351246347869
 20
116.8921165355599
 30
0.0
 10
173.5195019435151
 20
116.701941667217
 30
0.0
 10
173.7000503343776
 20
116.5905822329984
 30
0.0
 10
174.0381102620871
 20
116.3354769642761
 30
0.0
 10
174.1971420784984
 20
116.1899711760834
 30
0.0
 10
174.4819387587208
 20
115.8717325219105
 30
0.0
 10
174.6068842875957
 20
115.7006802033914
 30
0.0
 10
174.8211864280094
 20
115.3341196172783
 30
0.0
 10
174.9110852071842
 20
115.1360508834756
 30
0.0
 10
175.0447374963131
 20
114.7314681302662
 30
0.0
 10
175.0897454316271
 20
114.5238529502491
 30
0.0
 10
175.1345249122445
 20
114.0975631938202
 30
0.0
 10
175.1334512512287
 20
113.8809248958719
 30
0.0
 10
175.0854314575132
 20
113.4579648689145
 30
0.0
 10
175.0380184802884
 20
113.2469681836552
 30
0.0
 10
174.8997032314717
 20
112.8411794682234
 30
0.0
 10
174.8100223732496
 20
112.6482328095609
 30
0.0
 10
174.5913396629223
 20
112.2813261865774
 30
0.0
 10
174.4618919450937
 20
112.1078210383553
 30
0.0
 10
174.1753863410642
 20
111.7938189403647
 30
0.0
 10
174.0165275228262
 20
111.6507160139104
 30
0.0
 10
173.6715297008733
 20
111.3953850980574
 30
0.0
 10
173.489312596753
 20
111.2858529204569
 30
0.0
 10
173.106472520114
 20
111.1009260936686
 30
0.0
 10
172.9037282950408
 20
111.0251102668272
 30
0.0
 10
172.4918997205775
 20
110.9125297745851
 30
0.0
 10
172.2826809439779
 20
110.8751895550004
 30
0.0
 10
171.8576881097435
 20
110.8379585354703
 30
0.0
 10
171.6405308326703
 20
110.8385244994019
 30
0.0
 10
171.2161529935171
 20
110.8779222032913
 30
0.0
 10
171.0070363456675
 20
110.9163514379255
 30
0.0
 10
170.5950953567735
 20
111.0315564724629
 30
0.0
 10
170.3925272518804
 20
111.1088214029674
 30
0.0
 10
170.010926809413
 20
111.2965036730993
 30
0.0
 10
169.8296158735339
 20
111.4074170249113
 30
0.0
 10
169.4870239765998
 20
111.6653704636421
 30
0.0
 10
169.3282003596456
 20
111.8110861592515
 30
0.0
 10
169.0451555805453
 20
112.127407316961
 30
0.0
 10
168.9191456485594
 20
112.2994410283601
 30
0.0
 10
168.7020386047446
 20
112.6719836063491
 30
0.0
 10
168.6146033084707
 20
112.8661053916232
 30
0.0
 10
168.4814100279231
 20
113.2698801207027
 30
0.0
 10
168.4355094458185
 20
113.4823770473103
 30
0.0
 10
168.3911929048847
 20
113.9079729081684
 30
0.0
 10
168.3920350923671
 20
114.1208067464376
 30
0.0
 10
168.4398737867881
 20
114.5465464762675
 30
0.0
 10
168.4874096422573
 20
114.7583086416806
 30
0.0
 10
168.6241482374852
 20
115.1617981761379
 30
0.0
 10
168.7144317827608
 20
115.357556797091
 30
0.0
 10
168.9341426750258
 20
115.7271570238392
 30
0.0
 10
169.0621161961068
 20
115.8992185617424
 30
0.0
 10
169.3525806783985
 20
116.2176508027429
 30
0.0
  0
CIRCLE
  5
170
330
1F
100
AcDbEntity
  8
0
  6
HIDDEN
 62
     7
370
     0
100
AcDbCircle
 10
171.6782899088
 20
114.0024009851
 30
0.0
 40
3.049999999999997
  0
ELLIPSE
  5
171
330
1F
100
AcDbEntity
  8
0
  6
HIDDEN
 62
     7
370
     0
100
AcDbEllipse
 10
233.3119916674
 20
114.0024009851
 30
0.0
 11
18.46934281548874
 21
25.45638525656606
 31
0.0
210
0.0
220
0.0
230
1.0
 40
0.0807169094
 41
1.629291965705298
 42
2.358115537506515
  0
CIRCLE
  5
172
330
1F
100
AcDbEntity
  8
0
  6
HIDDEN
 62
     7
370
     0
100
AcDbCircle
 10
197.6782899088
 20
114.0024009851
 30
0.0
 40
2.000000000000014
  0
LINE
  5
173
330
1F
100
AcDbEntity
  8
0
  6
HIDDEN
 62
     7
370
     0
100
AcDbLine
 10
220.5752895063
 20
133.4666497765
 30
0.0
 11
234.576111365
 21
133.4666497765
 31
0.0
  0
SPLINE
  5
174
330
1F
100
AcDbEntity
  8
0
  6
HIDDEN
 62
     7
370
     0
100
AcDbSpline
210
0.0
220
0.0
230
1.0
 70
     8
 71
     3
 72
     8
 73
     4
 74
     0
 42
0.00000001
 43
0.00000001
 12
1.0
 22
0.0
 32
0.0
 13
1.0
 23
0.0
 33
0.0
 40
0.0
 40
0.0
 40
0.0
 40
0.0
 40
1.0
 40
1.0
 40
1.0
 40
1.0
 10
220.5752891578292
 20
133.4666501816987
 30
0.0
 10
219.7179410777564
 20
128.1931697780526
 30
0.0
 10
219.073417157874
 20
122.8884209903851
 30
0.0
 10
218.8768887470811
 20
117.5178521585759
 30
0.0
  0
ELLIPSE
  5
175
330
1F
100
AcDbEntity
  8
0
  6
HIDDEN
 62
     7
370
     0
100
AcDbEllipse
 10
258.9567710058
 20
123.9581391895
 30
0.0
 11
26.19525546193006
 21
4.263256414560601E-14
 31
0.0
210
0.0
220
0.0
230
1.0
 40
0.9925461516
 41
2.767195014514797
 42
3.133070925220038
  0
LINE
  5
176
330
1F
100
AcDbEntity
  8
0
  6
HIDDEN
 62
     7
370
     0
100
AcDbLine
 10
232.7052556759
 20
117.5164428764
 30
0.0
 11
232.762464959
 21
124.1797012968
 31
0.0
  0
LINE
  5
177
330
1F
100
AcDbEntity
  8
0
  6
HIDDEN
 62
     7
370
     0
100
AcDbLine
 10
230.1809840685
 20
114.0024009851
 30
0.0
 11
232.7052556759
 21
117.5164428764
 31
0.0
  0
LINE
  5
178
330
1F
100
AcDbEntity
  8
0
  6
HIDDEN
 62
     7
370
     0
100
AcDbLine
 10
206.6782896256
 20
123.8059038056
 30
0.0
 11
206.6782896256
 21
127.6159351451
 31
0.0
  0
LINE
  5
179
330
1F
100
AcDbEntity
  8
0
  6
HIDDEN
 62
     7
370
     0
100
AcDbLine
 10
200.6782895735
 20
127.6183593777
 30
0.0
 11
200.6782895735
 21
123.8059038056
 31
0.0
  0
LINE
  5
17A
330
1F
100
AcDbEntity
  8
0
  6
HIDDEN
 62
     7
370
     0
100
AcDbLine
 10
185.6782899088
 20
94.4524015991
 30
0.0
 11
185.7711831292
 21
94.5452935753
 31
0.0
  0
LINE
  5
17B
330
1F
100
AcDbEntity
  8
0
  6
HIDDEN
 62
     7
370
     0
100
AcDbLine
 10
185.7711831292
 20
133.459508395
 30
0.0
 11
185.6782899088
 21
133.5524003712
 31
0.0
  0
ARC
  5
17C
330
1F
100
AcDbEntity
  8
0
  6
HIDDEN
 62
     7
370
     0
100
AcDbCircle
 10
185.0640763464
 20
95.2524009851
 30
0.0
 40
1.000000000000018
100
AcDbArc
 50
315.0
 51
0.0
  0
ARC
  5
17D
330
1F
100
AcDbEntity
  8
0
  6
HIDDEN
 62
     7
370
     0
100
AcDbCircle
 10
185.0640763464
 20
95.2524009851
 30
0.0
 40
1.0
100
AcDbArc
 50
0.0
 51
52.1052014664
  0
ARC
  5
17E
330
1F
100
AcDbEntity
  8
0
  6
HIDDEN
 62
     7
370
     0
100
AcDbCircle
 10
185.0640763464
 20
132.7524009851
 30
0.0
 40
1.000000000000034
100
AcDbArc
 50
351.8087250651
 51
45.0
  0
ARC
  5
17F
330
1F
100
AcDbEntity
  8
0
  6
HIDDEN
 62
     7
370
     0
100
AcDbCircle
 10
185.0640763464
 20
132.7524009851
 30
0.0
 40
1.000000000000034
100
AcDbArc
 50
307.8947985336
 51
351.8087250651
  0
LINE
  5
180
330
1F
100
AcDbEntity
  8
0
  6
HIDDEN
 62
     7
370
     0
100
AcDbLine
 10
186.0640763446
 20
95.2524002401
 30
0.0
 11
186.0640763446
 21
132.7524017302
 31
0.0
  0
LINE
  5
181
330
1F
100
AcDbEntity
  8
0
  6
HIDDEN
 62
     7
370
     0
100
AcDbLine
 10
186.0640763446
 20
95.2524002401
 30
0.0
 11
186.0640763446
 21
132.7524017302
 31
0.0
  0
LINE
  5
182
330
1F
100
AcDbEntity
  8
0
  6
HIDDEN
 62
     7
370
     0
100
AcDbLine
 10
206.178290475
 20
122.5201850516
 30
0.0
 11
206.178290475
 21
123.6422778798
 31
0.0
  0
LINE
  5
183
330
1F
100
AcDbEntity
  8
0
  6
HIDDEN
 62
     7
370
     0
100
AcDbLine
 10
206.178290475
 20
117.9464556967
 30
0.0
 11
206.178290475
 21
120.5565673058
 31
0.0
  0
LINE
  5
184
330
1F
100
AcDbEntity
  8
0
  6
HIDDEN
 62
     7
370
     0
100
AcDbLine
 10
201.1782896555
 20
123.6422778798
 30
0.0
 11
201.1782896555
 21
117.9460258914
 31
0.0
  0
LINE
  5
185
330
1F
100
AcDbEntity
  8
0
  6
HIDDEN
 62
     7
370
     0
100
AcDbLine
 10
211.1027405447
 20
129.6558975933
 30
0.0
 11
202.4399616605
 21
123.887034109
 31
0.0
  0
LINE
  5
186
330
1F
100
AcDbEntity
  8
0
  6
HIDDEN
 62
     7
370
     0
100
AcDbLine
 10
206.093685407
 20
120.3129542751
 30
0.0
 11
211.0524528509
 21
123.6151801181
 31
0.0
  0
LINE
  5
187
330
1F
100
AcDbEntity
  8
0
  6
HIDDEN
 62
     7
370
     0
100
AcDbLine
 10
162.1782907134
 20
102.0024008808
 30
0.0
 11
163.1850094384
 21
102.0024008808
 31
0.0
  0
LINE
  5
188
330
1F
100
AcDbEntity
  8
0
  6
HIDDEN
 62
     7
370
     0
100
AcDbLine
 10
163.1850094384
 20
126.0024010894
 30
0.0
 11
162.1782907134
 21
126.0024010894
 31
0.0
  0
ARC
  5
189
330
1F
100
AcDbEntity
  8
0
  6
HIDDEN
 62
     7
370
     0
100
AcDbCircle
 10
163.1850094208
 20
103.5024009851
 30
0.0
 40
1.5
100
AcDbArc
 50
270.0
 51
315.0
  0
ARC
  5
18A
330
1F
100
AcDbEntity
  8
0
  6
HIDDEN
 62
     7
370
     0
100
AcDbCircle
 10
163.1850094208
 20
124.5024009851
 30
0.0
 40
1.500000000000002
100
AcDbArc
 50
45.0
 51
90.0
  0
ARC
  5
18B
330
1F
100
AcDbEntity
  8
0
  6
HIDDEN
 62
     7
370
     0
100
AcDbCircle
 10
162.1782899088
 20
103.5024009851
 30
0.0
 40
1.500000000000042
100
AcDbArc
 50
191.0958032831
 51
270.0
  0
ARC
  5
18C
330
1F
100
AcDbEntity
  8
0
  6
HIDDEN
 62
     7
370
     0
100
AcDbCircle
 10
162.1782899088
 20
124.5024009851
 30
0.0
 40
1.500000000000045
100
AcDbArc
 50
90.0
 51
168.9041967169
  0
LINE
  5
18D
330
1F
100
AcDbEntity
  8
0
  6
HIDDEN
 62
     7
370
     0
100
AcDbLine
 10
155.6782905793
 20
102.2389884797
 30
0.0
 11
156.7063291407
 21
102.8325278071
 31
0.0
  0
LINE
  5
18E
330
1F
100
AcDbEntity
  8
0
  6
HIDDEN
 62
     7
370
     0
100
AcDbLine
 10
156.7063291407
 20
125.1722741631
 30
0.0
 11
155.6782905793
 21
125.7658134905
 31
0.0
  0
LINE
  5
18F
330
1F
100
AcDbEntity
  8
0
  6
HIDDEN
 62
     7
370
     0
100
AcDbLine
 10
164.2456703669
 20
102.4417411295
 30
0.0
 11
165.3063294327
 21
103.5024011267
 31
0.0
  0
LINE
  5
190
330
1F
100
AcDbEntity
  8
0
  6
HIDDEN
 62
     7
370
     0
100
AcDbLine
 10
165.3063294327
 20
124.5024008436
 30
0.0
 11
164.2456703669
 21
125.5630608407
 31
0.0
  0
LINE
  5
191
330
1F
100
AcDbEntity
  8
0
  6
HIDDEN
 62
     7
370
     0
100
AcDbLine
 10
202.3931254482
 20
123.7177494673
 30
0.0
 11
202.4155721849
 21
123.4143525121
 31
0.0
  0
LINE
  5
192
330
1F
100
AcDbEntity
  8
0
  6
HIDDEN
 62
     7
370
     0
100
AcDbLine
 10
156.7063291407
 20
102.8325278071
 30
0.0
 11
159.2063304818
 21
103.5024011267
 31
0.0
  0
LINE
  5
193
330
1F
100
AcDbEntity
  8
0
  6
HIDDEN
 62
     7
370
     0
100
AcDbLine
 10
159.2063304818
 20
124.5024008436
 30
0.0
 11
156.7063291407
 21
125.1722741631
 31
0.0
  0
LINE
  5
194
330
1F
100
AcDbEntity
  8
0
  6
HIDDEN
 62
     7
370
     0
100
AcDbLine
 10
160.7063297963
 20
124.7910763828
 30
0.0
 11
160.2063306457
 21
124.5024008436
 31
0.0
  0
LINE
  5
195
330
1F
100
AcDbEntity
  8
0
  6
HIDDEN
 62
     7
370
     0
100
AcDbLine
 10
160.2063306457
 20
103.5024011267
 30
0.0
 11
160.7063297963
 21
103.2137255875
 31
0.0
  0
LINE
  5
196
330
1F
100
AcDbEntity
  8
0
  6
HIDDEN
 62
     7
370
     0
100
AcDbLine
 10
165.3063294327
 20
103.5024011267
 30
0.0
 11
175.1782900503
 21
103.5024011267
 31
0.0
  0
LINE
  5
197
330
1F
100
AcDbEntity
  8
0
  6
HIDDEN
 62
     7
370
     0
100
AcDbLine
 10
175.1782900503
 20
124.5024008436
 30
0.0
 11
165.3063294327
 21
124.5024008436
 31
0.0
  0
LINE
  5
198
330
1F
100
AcDbEntity
  8
0
  6
HIDDEN
 62
     7
370
     0
100
AcDbLine
 10
159.2063304818
 20
103.5024011267
 30
0.0
 11
160.2063306457
 21
103.5024011267
 31
0.0
  0
LINE
  5
199
330
1F
100
AcDbEntity
  8
0
  6
HIDDEN
 62
     7
370
     0
100
AcDbLine
 10
160.2063306457
 20
124.5024008436
 30
0.0
 11
159.2063304818
 21
124.5024008436
 31
0.0
  0
ARC
  5
19A
330
1F
100
AcDbEntity
  8
0
  6
HIDDEN
 62
     7
370
     0
100
AcDbCircle
 10
175.1782899088
 20
104.0024009851
 30
0.0
 40
0.5000000000000142
100
AcDbArc
 50
270.0
 51
0.0
  0
ARC
  5
19B
330
1F
100
AcDbEntity
  8
0
  6
HIDDEN
 62
     7
370
     0
100
AcDbCircle
 10
175.1782899088
 20
124.0024009851
 30
0.0
 40
0.5
100
AcDbArc
 50
0.0
 51
90.0
  0
LINE
  5
19C
330
1F
100
AcDbEntity
  8
0
  6
HIDDEN
 62
     7
370
     0
100
AcDbLine
 10
175.6782901323
 20
105.7524010298
 30
0.0
 11
176.6782902962
 21
106.7524011937
 31
0.0
  0
LINE
  5
19D
330
1F
100
AcDbEntity
  8
0
  6
HIDDEN
 62
     7
370
     0
100
AcDbLine
 10
176.6782902962
 20
121.2524007765
 30
0.0
 11
175.6782901323
 21
122.2524009404
 31
0.0
  0
LINE
  5
19E
330
1F
100
AcDbEntity
  8
0
  6
HIDDEN
 62
     7
370
     0
100
AcDbLine
 10
209.6782901174
 20
121.2524007765
 30
0.0
 11
176.6782902962
 21
121.2524007765
 31
0.0
  0
LINE
  5
19F
330
1F
100
AcDbEntity
  8
0
  6
HIDDEN
 62
     7
370
     0
100
AcDbLine
 10
176.6782902962
 20
106.7524011937
 30
0.0
 11
209.6782901174
 21
106.7524011937
 31
0.0
  0
LINE
  5
1A0
330
1F
100
AcDbEntity
  8
0
  6
HIDDEN
 62
     7
370
     0
100
AcDbLine
 10
209.6782901174
 20
106.7524011937
 30
0.0
 11
214.0345291084
 21
114.0024009851
 31
0.0
  0
LINE
  5
1A1
330
1F
100
AcDbEntity
  8
0
  6
HIDDEN
 62
     7
370
     0
100
AcDbLine
 10
214.0345291084
 20
114.0024009851
 30
0.0
 11
209.6782901174
 21
121.2524007765
 31
0.0
  0
LINE
  5
1A2
330
1F
100
AcDbEntity
  8
0
  6
HIDDEN
 62
     7
370
     0
100
AcDbLine
 10
220.8584413713
 20
128.3160997314
 30
0.0
 11
220.8851703292
 21
128.2293582094
 31
0.0
  0
LINE
  5
1A3
330
1F
100
AcDbEntity
  8
0
  6
HIDDEN
 62
     7
370
     0
100
AcDbLine
 10
222.042528618
 20
127.0691724253
 30
0.0
 11
222.1292049474
 21
127.0422311259
 31
0.0
  0
LINE
  5
1A4
330
1F
100
AcDbEntity
  8
0
  6
HIDDEN
 62
     7
370
     0
100
AcDbLine
 10
221.317344982
 20
129.9749798832
 30
0.0
 11
221.1429529673
 21
129.8010125516
 31
0.0
  0
LINE
  5
1A5
330
1F
100
AcDbEntity
  8
0
  6
HIDDEN
 62
     7
370
     0
100
AcDbLine
 10
233.3442658967
 20
139.0534192083
 30
0.0
 11
232.733899433
 21
138.4445372728
 31
0.0
  0
LINE
  5
1A6
330
1F
100
AcDbEntity
  8
0
  6
HIDDEN
 62
     7
370
     0
100
AcDbLine
 10
235.0645043737
 20
136.1082400886
 30
0.0
 11
235.6748745626
 21
136.7171220241
 31
0.0
  0
LINE
  5
1A7
330
1F
100
AcDbEntity
  8
VERMASSUNG
  6
CENTERX2
100
AcDbLine
 10
245.6782899088
 20
149.0024009851
 30
0.0
 11
251.0726347425
 21
149.0024009851
 31
0.0
  0
LINE
  5
1A8
330
1F
100
AcDbEntity
  8
VERMASSUNG
  6
CENTERX2
100
AcDbLine
 10
245.6782899088
 20
149.0024009851
 30
0.0
 11
245.6782899088
 21
114.0024009851
 31
0.0
  0
LINE
  5
1A9
330
1F
100
AcDbEntity
  8
VERMASSUNG
  6
CENTERX2
100
AcDbLine
 10
152.3385608622
 20
114.0024009851
 30
0.0
 11
245.6782899088
 21
114.0024009851
 31
0.0
  0
LINE
  5
1AA
330
1F
100
AcDbEntity
  8
VERMASSUNG
100
AcDbLine
 10
245.6782899088
 20
149.0024009851
 30
0.0
 11
245.6782899088
 21
162.0403137271
 31
0.0
  0
DIMENSION
  5
1AB
330
1F
100
AcDbEntity
  8
VERMASSUNG
100
AcDbDimension
  2
_D
 10
245.6782899088
 20
163.2975706643
 30
0.0
 11
215.6782899088
 21
163.2975706643
 31
0.0
 70
   160
  1
<>
 71
     2
 42
-1.0
  3
SLDDIMSTYLE0
100
AcDbAlignedDimension
 13
185.6782899088
 23
138.7024009851
 33
0.0
 14
245.6782899088
 24
149.0024009851
 34
0.0
100
AcDbRotatedDimension
  0
DIMENSION
  5
1B8
330
1F
100
AcDbEntity
  8
VERMASSUNG
100
AcDbDimension
  2
_D_1
 10
253.8887678515
 20
114.0024009851
 30
0.0
 11
253.8887678515
 21
131.5024009851
 31
0.0
 70
   160
  1
<>
 71
     2
 42
-1.0
  3
SLDDIMSTYLE0
100
AcDbAlignedDimension
 13
245.6782899088
 23
149.0024009851
 33
0.0
 14
245.6782899088
 24
114.0024009851
 34
0.0
 50
90.0
100
AcDbRotatedDimension
  0
DIMENSION
  5
1C4
330
1F
100
AcDbEntity
  8
VERMASSUNG
100
AcDbDimension
  2
_D_2
 10
231.6346275288
 20
142.0168330462
 30
0.0
 11
236.3801064979
 21
154.9257641161
 31
0.0
 70
   162
  1
<>
 71
     1
 42
-1.0
  3
SLDDIMSTYLE1
100
AcDb2LineAngularDimension
 13
245.6782899088
 23
149.0024009851
 33
0.0
 14
245.6782899088
 24
162.0403137271
 34
0.0
 15
245.110159527
 25
148.9660193987
 35
0.0
 16
236.3801064979
 26
154.9257641161
 36
0.0
  0
DIMENSION
  5
1CD
330
1F
100
AcDbEntity
  8
VERMASSUNG
100
AcDbDimension
  2
_D_3
 10
245.6782899088
 20
169.2975706643
 30
0.0
 11
200.6782899088
 21
169.2975706643
 31
0.0
 70
   160
  1
<>
 71
     2
 42
-1.0
  3
SLDDIMSTYLE2
100
AcDbAlignedDimension
 13
155.6782899088
 23
129.9957268233
 33
0.0
 14
245.6782899088
 24
149.0024009851
 34
0.0
100
AcDbRotatedDimension
  0
DIMENSION
  5
1D8
330
1F
100
AcDbEntity
  8
VERMASSUNG
100
AcDbDimension
  2
_D_4
 10
145.6782899088
 20
89.0024009851
 30
0.0
 11
145.6782899088
 21
114.0024009851
 31
0.0
 70
   160
  1
PSC%%c<>
 71
     2
 42
-1.0
  3
SLDDIMSTYLE2
100
AcDbAlignedDimension
 13
185.9782899088
 23
139.0024009851
 33
0.0
 14
185.9782899088
 24
89.0024009851
 34
0.0
 50
90.0
100
AcDbRotatedDimension
  0
ELLIPSE
  5
1E4
330
1F
100
AcDbEntity
  8
0
  6
Continuous
 62
     7
100
AcDbEllipse
 10
69.9189030113
 20
126.6355392345
 30
0.0
 11
1.776888226532265
 21
2.757871184855886
 31
0.0
210
0.0
220
0.0
230
1.0
 40
0.7425888588
 41
0.0
 42
6.283185307179586
  0
SPLINE
  5
1E5
330
1F
100
AcDbEntity
  8
0
  6
Continuous
 62
     7
370
    15
100
AcDbSpline
210
0.0
220
0.0
230
1.0
 70
     8
 71
     3
 72
    10
 73
     6
 74
     0
 42
0.00000001
 43
0.00000001
 12
1.0
 22
0.0
 32
0.0
 13
1.0
 23
0.0
 33
0.0
 40
0.0
 40
0.0
 40
0.0
 40
0.0
 40
0.3306888684367186
 40
0.6676517179217871
 40
1.0
 40
1.0
 40
1.0
 40
1.0
 10
84.17174166100338
 20
148.0903420356553
 30
0.0
 10
83.65593114460835
 20
148.2161199920988
 30
0.0
 10
82.61452391786594
 20
148.4700622221267
 30
0.0
 10
80.98348704925922
 20
148.6811104297145
 30
0.0
 10
79.92678701095649
 20
148.9109272665535
 30
0.0
 10
79.40207970244117
 20
149.0250434485714
 30
0.0
  0
LINE
  5
1E6
330
1F
100
AcDbEntity
  8
0
  6
Continuous
 62
     7
370
    15
100
AcDbLine
 10
79.0583241455
 20
144.8573264984
 30
0.0
 11
78.7606841026
 21
144.411990395
 31
0.0
  0
LINE
  5
1E7
330
1F
100
AcDbEntity
  8
0
  6
Continuous
 62
     7
370
    15
100
AcDbLine
 10
77.2181590277
 20
132.4289887903
 30
0.0
 11
77.408404481
 21
132.0346873013
 31
0.0
  0
LINE
  5
1E8
330
1F
100
AcDbEntity
  8
0
  6
Continuous
 62
     7
370
    15
100
AcDbLine
 10
76.4783652689
 20
127.822424261
 30
0.0
 11
76.8476439829
 21
127.8441836817
 31
0.0
  0
ARC
  5
1E9
330
1F
100
AcDbEntity
  8
0
  6
Continuous
 62
     7
370
    15
100
AcDbCircle
 10
84.7083224281
 20
137.797966666
 30
0.0
 40
7.000000000000004
100
AcDbArc
 50
190.365394812
 51
195.188830221
  0
ARC
  5
1EA
330
1F
100
AcDbEntity
  8
0
  6
Continuous
 62
     7
370
    15
100
AcDbCircle
 10
84.7083224281
 20
137.797966666
 30
0.0
 40
7.00000000000002
100
AcDbArc
 50
156.3079487791
 51
161.634605188
  0
LINE
  5
1EB
330
1F
100
AcDbEntity
  8
0
  6
Continuous
 62
     7
370
    15
100
AcDbLine
 10
78.0977561794
 20
139.4023410735
 30
0.0
 11
78.1415406804
 21
139.3992788849
 31
0.0
  0
LINE
  5
1EC
330
1F
100
AcDbEntity
  8
0
  6
Continuous
 62
     7
370
    15
100
AcDbLine
 10
78.0337934106
 20
137.5640388337
 30
0.0
 11
77.8831979682
 21
137.5745702294
 31
0.0
  0
LINE
  5
1ED
330
1F
100
AcDbEntity
  8
0
  6
Continuous
 62
     7
370
    15
100
AcDbLine
 10
91.2145864408
 20
145.7759868113
 30
0.0
 11
84.0954202417
 21
147.6393285898
 31
0.0
  0
ARC
  5
1EE
330
1F
100
AcDbEntity
  8
0
  6
Continuous
 62
     7
370
    15
100
AcDbCircle
 10
76.9831564839
 20
116.0024009851
 30
0.0
 40
33.00000000000001
100
AcDbArc
 50
37.6311080459
 51
64.4527395561
  0
LINE
  5
1EF
330
1F
100
AcDbEntity
  8
0
  6
Continuous
 62
     7
370
    15
100
AcDbLine
 10
84.1181845594
 20
147.8530559448
 30
0.0
 11
90.0775291215
 21
146.2932806221
 31
0.0
  0
ARC
  5
1F0
330
1F
100
AcDbEntity
  8
0
  6
Continuous
 62
     7
370
    15
100
AcDbCircle
 10
76.9831564839
 20
116.0024009851
 30
0.0
 40
33.00000000000001
100
AcDbArc
 50
64.4527395561
 51
66.6217694902
  0
ELLIPSE
  5
1F1
330
1F
100
AcDbEntity
  8
0
  6
Continuous
 62
     7
370
    15
100
AcDbEllipse
 10
83.6297422354
 20
123.9581391895
 30
0.0
 11
1.811399796278437
 21
25.99969358991973
 31
0.0
210
0.0
220
0.0
230
1.0
 40
0.0696847268
 41
1.143026329608382
 42
1.157113724636452
  0
ELLIPSE
  5
1F2
330
1F
100
AcDbEntity
  8
0
  6
Continuous
 62
     7
370
    15
100
AcDbEllipse
 10
79.1861792077
 20
123.9581391895
 30
0.0
 11
1.811399796278437
 21
25.99969358991976
 31
0.0
210
0.0
220
0.0
230
1.0
 40
0.0696847268
 41
1.144061345448617
 42
1.567129498266501
  0
ELLIPSE
  5
1F3
330
1F
100
AcDbEntity
  8
0
  6
Continuous
 62
     7
370
    15
100
AcDbEllipse
 10
-13503.1959228865
 20
123.9581391895
 30
0.0
 11
17265.23023158059
 21
23.13641447666899
 31
0.0
210
0.0
220
0.0
230
1.0
 40
0.0006870438
 41
5.61773237850325
 42
5.61791563173288
  0
ELLIPSE
  5
1F4
330
1F
100
AcDbEntity
  8
0
  6
Continuous
 62
     7
370
    15
100
AcDbEllipse
 10
319.0659485843
 20
123.9581391895
 30
0.0
 11
301.6190036006417
 21
-23.0744024194284
 31
0.0
210
0.0
220
0.0
230
1.0
 40
0.0397261157
 41
3.801660886137327
 42
3.814896518554695
  0
LINE
  5
1F5
330
1F
100
AcDbEntity
  8
0
  6
Continuous
 62
     7
370
    15
100
AcDbLine
 10
104.9831560071
 20
124.1797012968
 30
0.0
 11
104.9831560071
 21
133.4666497765
 31
0.0
  0
SPLINE
  5
1F6
330
1F
100
AcDbEntity
  8
0
  6
Continuous
 62
     7
370
    15
100
AcDbSpline
210
0.0
220
0.0
230
1.0
 70
     8
 71
     3
 72
     8
 73
     4
 74
     0
 42
0.00000001
 43
0.00000001
 12
1.0
 22
0.0
 32
0.0
 13
1.0
 23
0.0
 33
0.0
 40
0.0
 40
0.0
 40
0.0
 40
0.0
 40
1.0
 40
1.0
 40
1.0
 40
1.0
 10
103.1177789222922
 20
136.1513838379833
 30
0.0
 10
103.7725744670313
 20
135.30206879012
 30
0.0
 10
104.3953268289598
 20
134.4091029693434
 30
0.0
 10
104.9831564839394
 20
133.4666501816987
 30
0.0
  0
LWPOLYLINE
  5
1F7
330
1F
100
AcDbEntity
  8
0
  6
Continuous
 62
     7
370
    15
100
AcDbPolyline
 90
        7
 70
   128
 43
0.0
 10
76.5798959605
 20
127.8136567903
 10
76.5764409866
 20
127.5843474773
 10
76.580688516
 20
127.2608367485
 10
76.5975356757
 20
127.0471531657
 10
76.6258346106
 20
126.9578588886
 10
76.6636563189
 20
126.9990391789
 10
76.7084238309
 20
127.1678870303
  0
LINE
  5
1F8
330
1F
100
AcDbEntity
  8
0
  6
Continuous
 62
     7
370
    15
100
AcDbLine
 10
77.3810520026
 20
124.1797012968
 30
0.0
 11
76.9151115514
 21
117.5164428764
 31
0.0
  0
LINE
  5
1F9
330
1F
100
AcDbEntity
  8
0
  6
Continuous
 62
     7
370
    15
100
AcDbLine
 10
76.9151115514
 20
117.5164428764
 30
0.0
 11
73.5984644111
 21
89.7048618404
 31
0.0
  0
ARC
  5
1FA
330
1F
100
AcDbEntity
  8
0
  6
Continuous
 62
     7
370
    15
100
AcDbCircle
 10
79.4831564839
 20
114.0024009851
 30
0.0
 40
25.00000000000001
100
AcDbArc
 50
256.0980669939
 51
256.3855236638
  0
ARC
  5
1FB
330
1F
100
AcDbEntity
  8
0
  6
Continuous
 62
     7
370
    15
100
AcDbCircle
 10
79.4831564839
 20
114.0024009851
 30
0.0
 40
25.00000000000002
100
AcDbArc
 50
95.3983172239
 51
95.9019330061
  0
SPLINE
  5
1FC
330
1F
100
AcDbEntity
  8
0
  6
Continuous
 62
     7
370
    15
100
AcDbSpline
210
0.0
220
0.0
230
1.0
 70
     8
 71
     3
 72
    10
 73
     6
 74
     0
 42
0.00000001
 43
0.00000001
 12
1.0
 22
0.0
 32
0.0
 13
1.0
 23
0.0
 33
0.0
 40
0.0
 40
0.0
 40
0.0
 40
0.0
 40
0.5
 40
0.5
 40
1.0
 40
1.0
 40
1.0
 40
1.0
 10
77.13117964294769
 20
138.8915191884579
 30
0.0
 10
77.14684308501515
 20
138.8929993555209
 30
0.0
 10
77.16720923265258
 20
138.9691931840113
 30
0.0
 10
77.21064072943912
 20
139.2419550292073
 30
0.0
 10
77.23273569827363
 20
139.4324408502557
 30
0.0
 10
77.25169458302926
 20
139.6466786068012
 30
0.0
  0
LINE
  5
1FD
330
1F
100
AcDbEntity
  8
0
  6
Continuous
 62
     7
370
    15
100
AcDbLine
 10
77.2516945566
 20
139.6466791389
 30
0.0
 11
77.279815609
 21
139.9644370881
 31
0.0
  0
LINE
  5
1FE
330
1F
100
AcDbEntity
  8
0
  6
Continuous
 62
     7
370
    15
100
AcDbLine
 10
77.4486704453
 20
139.9437058476
 30
0.0
 11
77.279815609
 21
139.9644370881
 31
0.0
  0
ELLIPSE
  5
1FF
330
1F
100
AcDbEntity
  8
0
  6
Continuous
 62
     7
370
    15
100
AcDbEllipse
 10
79.2648276524
 20
165.915964406
 30
0.0
 11
1.809499522331848
 21
25.97289971548826
 31
0.0
210
0.0
220
0.0
230
1.0
 40
0.0698300398
 41
3.137915050421853
 42
3.331900768249433
  0
LINE
  5
200
330
1F
100
AcDbEntity
  8
0
  6
Continuous
 62
     7
370
    15
100
AcDbLine
 10
76.7084238309
 20
127.1678870303
 30
0.0
 11
78.2866144277
 21
134.8343398181
 31
0.0
  0
LINE
  5
201
330
1F
100
AcDbEntity
  8
0
  6
Continuous
 62
     7
370
    15
100
AcDbLine
 10
104.9831560071
 20
117.5164428764
 30
0.0
 11
76.9151115514
 21
117.5164428764
 31
0.0
  0
LINE
  5
202
330
1F
100
AcDbEntity
  8
0
  6
Continuous
 62
     7
370
    15
100
AcDbLine
 10
104.9831560071
 20
114.0024009851
 30
0.0
 11
104.9831560071
 21
117.5164428764
 31
0.0
  0
ARC
  5
203
330
1F
100
AcDbEntity
  8
0
  6
Continuous
 62
     7
370
    15
100
AcDbCircle
 10
79.4831564839
 20
114.0024009851
 30
0.0
 40
25.50000000000001
100
AcDbArc
 50
318.2414853261
 51
0.0
  0
SPLINE
  5
204
330
1F
100
AcDbEntity
  8
0
  6
Continuous
 62
     7
370
    15
100
AcDbSpline
210
0.0
220
0.0
230
1.0
 70
     8
 71
     3
 72
    10
 73
     6
 74
     0
 42
0.00000001
 43
0.00000001
 12
1.0
 22
0.0
 32
0.0
 13
1.0
 23
0.0
 33
0.0
 40
0.0
 40
0.0
 40
0.0
 40
0.0
 40
0.5
 40
0.5
 40
1.0
 40
1.0
 40
1.0
 40
1.0
 10
96.2089004502529
 20
95.42151056584615
 30
0.0
 10
96.54904670075175
 20
95.72769605903648
 30
0.0
 10
96.9128739388928
 20
96.01272281315035
 30
0.0
 10
97.67658118585496
 20
96.55056351085992
 30
0.0
 10
98.07695196173388
 20
96.80472783002338
 30
0.0
 10
98.50509595814184
 20
97.01959148140168
 30
0.0
  0
ARC
  5
205
330
1F
100
AcDbEntity
  8
0
  6
Continuous
 62
     7
370
    15
100
AcDbCircle
 10
79.4831564839
 20
114.0024009851
 30
0.0
 40
25.0
100
AcDbArc
 50
256.3855236638
 51
311.99222521
  0
LINE
  5
206
330
1F
100
AcDbEntity
  8
0
  6
Continuous
 62
     7
370
    15
100
AcDbLine
 10
104.9831560071
 20
117.5164428764
 30
0.0
 11
104.9831560071
 21
124.1797012968
 31
0.0
  0
SPLINE
  5
207
330
1F
100
AcDbEntity
  8
0
  6
Continuous
 62
     7
370
    15
100
AcDbSpline
210
0.0
220
0.0
230
1.0
 70
     8
 71
     3
 72
    20
 73
    16
 74
     0
 42
0.00000001
 43
0.00000001
 12
1.0
 22
0.0
 32
0.0
 13
1.0
 23
0.0
 33
0.0
 40
0.0
 40
0.0
 40
0.0
 40
0.0
 40
0.2499999999999987
 40
0.2499999999999987
 40
0.3749999999999989
 40
0.3749999999999989
 40
0.4999999999999991
 40
0.4999999999999991
 40
0.6249999999999992
 40
0.6249999999999992
 40
0.7499999999999994
 40
0.7499999999999994
 40
0.8749999999999998
 40
0.8749999999999998
 40
1.0
 40
1.0
 40
1.0
 40
1.0
 10
74.66738270695285
 20
138.5341828798208
 30
0.0
 10
74.96750055442968
 20
138.5930982764312
 30
0.0
 10
75.24992874130636
 20
138.6428403355644
 30
0.0
 10
75.64584606790639
 20
138.7065082528842
 30
0.0
 10
75.77192646837995
 20
138.7256846054039
 30
0.0
 10
76.00595393513146
 20
138.7596836234055
 30
0.0
 10
76.1149183609141
 20
138.774669407658
 30
0.0
 10
76.31626094625587
 20
138.8012131241132
 30
0.0
 10
76.4087751785599
 20
138.8127776582844
 30
0.0
 10
76.57022210470723
 20
138.8322504485673
 30
0.0
 10
76.64012880571785
 20
138.8402897764955
 30
0.0
 10
76.75815024534762
 20
138.8535149841242
 30
0.0
 10
76.80643148861044
 20
138.8587167334611
 30
0.0
 10
76.87784278220597
 20
138.8663031285368
 30
0.0
 10
76.90137234027357
 20
138.8687339651973
 30
0.0
 10
76.91250410052508
 20
138.8698847002837
 30
0.0
  0
SPLINE
  5
208
330
1F
100
AcDbEntity
  8
0
  6
Continuous
 62
     7
370
    15
100
AcDbSpline
210
0.0
220
0.0
230
1.0
 70
     8
 71
     3
 72
    18
 73
    14
 74
     0
 42
0.00000001
 43
0.00000001
 12
1.0
 22
0.0
 32
0.0
 13
1.0
 23
0.0
 33
0.0
 40
0.0
 40
0.0
 40
0.0
 40
0.0
 40
0.250000000000001
 40
0.250000000000001
 40
0.500000000000002
 40
0.500000000000002
 40
0.6250000000000014
 40
0.6250000000000014
 40
0.750000000000001
 40
0.750000000000001
 40
0.8750000000000004
 40
0.8750000000000004
 40
1.0
 40
1.0
 40
1.0
 40
1.0
 10
73.47663669109731
 20
89.73469157574398
 30
0.0
 10
73.45491555098464
 20
89.74006779217252
 30
0.0
 10
73.38587932320733
 20
89.75704221957551
 30
0.0
 10
73.15494341151337
 20
89.81629072003756
 30
0.0
 10
72.99707213113511
 20
89.85758754356222
 30
0.0
 10
72.70330352483106
 20
89.93906953574471
 30
0.0
 10
72.59580026110527
 20
89.96954193865791
 30
0.0
 10
72.36870897144458
 20
90.0357861578382
 30
0.0
 10
72.24831139707042
 20
90.07177797262182
 30
0.0
 10
71.99401880660882
 20
90.15013656332374
 30
0.0
 10
71.85968963995444
 20
90.19266419799894
 30
0.0
 10
71.58541222180008
 20
90.28223133641869
 30
0.0
 10
71.44456741271031
 20
90.32953749637372
 30
0.0
 10
71.30008532794591
 20
90.37958687554206
 30
0.0
  0
ELLIPSE
  5
209
330
1F
100
AcDbEntity
  8
0
  6
Continuous
 62
     7
370
    15
100
AcDbEllipse
 10
69.9189030113
 20
126.6355392345
 30
0.0
 11
1.776888226532279
 21
2.757871184855858
 31
0.0
210
0.0
220
0.0
230
1.0
 40
0.7425888588
 41
0.0
 42
6.283185307179586
  0
ARC
  5
20A
330
1F
100
AcDbEntity
  8
0
  6
Continuous
 62
     7
370
    15
100
AcDbCircle
 10
79.4831564839
 20
114.0024009851
 30
0.0
 40
25.00000000000003
100
AcDbArc
 50
101.1063634665
 51
250.8936365335
  0
SPLINE
  5
20B
330
1F
100
AcDbEntity
  8
0
  6
Continuous
 62
     7
370
    15
100
AcDbSpline
210
0.0
220
0.0
230
1.0
 70
     8
 71
     3
 72
    11
 73
     7
 74
     0
 42
0.00000001
 43
0.00000001
 12
1.0
 22
0.0
 32
0.0
 13
1.0
 23
0.0
 33
0.0
 40
0.0
 40
0.0
 40
0.0
 40
0.0
 40
0.1960073616217514
 40
0.4010028133018819
 40
0.9667037178373122
 40
1.0
 40
1.0
 40
1.0
 40
1.0
 10
68.25342441009596
 20
123.895054659013
 30
0.0
 10
68.24357371796263
 20
123.9716143500241
 30
0.0
 10
68.22342062153938
 20
124.1282444440519
 30
0.0
 10
67.99711175819084
 20
124.449151184878
 30
0.0
 10
67.7216275407991
 20
124.7017064766887
 30
0.0
 10
67.48812832124679
 20
124.6981087223628
 30
0.0
 10
67.47514886813477
 20
124.6979087350409
 30
0.0
  0
ARC
  5
20C
330
1F
100
AcDbEntity
  8
0
  6
Continuous
 62
     7
370
    15
100
AcDbCircle
 10
68.0464417644
 20
120.8712246948
 30
0.0
 40
3.030905717477887
100
AcDbArc
 50
63.6181081635
 51
86.0841839506
  0
LINE
  5
20D
330
1F
100
AcDbEntity
  8
0
  6
Continuous
 62
     7
370
    15
100
AcDbLine
 10
68.4271393533
 20
123.7800083814
 30
0.0
 11
68.2534244101
 21
123.895054659
 31
0.0
  0
SPLINE
  5
20E
330
1F
100
AcDbEntity
  8
0
  6
Continuous
 62
     7
370
    15
100
AcDbSpline
210
0.0
220
0.0
230
1.0
 70
     8
 71
     3
 72
    15
 73
    11
 74
     0
 42
0.00000001
 43
0.00000001
 12
1.0
 22
0.0
 32
0.0
 13
1.0
 23
0.0
 33
0.0
 40
0.0
 40
0.0
 40
0.0
 40
0.0
 40
0.1368997175463284
 40
0.2736138685038708
 40
0.4079012012976145
 40
0.5393394641381993
 40
0.6692122277910729
 40
0.7996794195638833
 40
0.9324955685823937
 40
1.0
 40
1.0
 40
1.0
 40
1.0
 10
79.440697440469
 20
148.4325024989884
 30
0.0
 10
79.44487334831166
 20
148.4750358362731
 30
0.0
 10
79.45321950358374
 20
148.5600448572078
 30
0.0
 10
79.46253795123987
 20
148.6995012823917
 30
0.0
 10
79.4679798201959
 20
148.826511805938
 30
0.0
 10
79.46889307350644
 20
148.9280525208877
 30
0.0
 10
79.46539415973366
 20
148.9938862796328
 30
0.0
 10
79.45791402479523
 20
149.0179377815137
 30
0.0
 10
79.44904270920301
 20
149.0028167157517
 30
0.0
 10
79.4428684808513
 20
148.9752944555777
 30
0.0
 10
79.44078787698416
 20
148.9660199490826
 30
0.0
  0
SPLINE
  5
20F
330
1F
100
AcDbEntity
  8
0
  6
Continuous
 62
     7
370
    15
100
AcDbSpline
210
0.0
220
0.0
230
1.0
 70
     8
 71
     3
 72
    15
 73
    11
 74
     0
 42
0.00000001
 43
0.00000001
 12
1.0
 22
0.0
 32
0.0
 13
1.0
 23
0.0
 33
0.0
 40
0.0
 40
0.0
 40
0.0
 40
0.0
 40
0.1386078872054518
 40
0.2773827657047154
 40
0.4120873400773716
 40
0.5418249510173531
 40
0.6691596209915358
 40
0.797461119739556
 40
0.9295805645456555
 40
1.0
 40
1.0
 40
1.0
 40
1.0
 10
84.1290535594733
 20
148.0895783511441
 30
0.0
 10
84.13012566684735
 20
148.0939489622803
 30
0.0
 10
84.13227117324344
 20
148.1026954501553
 30
0.0
 10
84.13466345553847
 20
148.1010681369734
 30
0.0
 10
84.13603129443055
 20
148.0883423465202
 30
0.0
 10
84.1362283530828
 20
148.0658503387114
 30
0.0
 10
84.13531944106565
 20
148.0367856265372
 30
0.0
 10
84.13342340505139
 20
148.0040309522882
 30
0.0
 10
84.13116646939592
 20
147.9757990171519
 30
0.0
 10
84.12958172990939
 20
147.9602818268219
 30
0.0
 10
84.12903074207023
 20
147.9548867551129
 30
0.0
  0
SPLINE
  5
210
330
1F
100
AcDbEntity
  8
0
  6
Continuous
 62
     7
370
    15
100
AcDbSpline
210
0.0
220
0.0
230
1.0
 70
     8
 71
     3
 72
    10
 73
     6
 74
     0
 42
0.00000001
 43
0.00000001
 12
1.0
 22
0.0
 32
0.0
 13
1.0
 23
0.0
 33
0.0
 40
0.0
 40
0.0
 40
0.0
 40
0.0
 40
0.2724566995341118
 40
0.5448144687015835
 40
0.9999999999999999
 40
0.9999999999999999
 40
0.9999999999999999
 40
0.9999999999999999
 10
78.01025143856421
 20
142.0168336240094
 30
0.0
 10
78.00814632599828
 20
142.0057845692321
 30
0.0
 10
78.00393686524313
 20
141.9836904716437
 30
0.0
 10
77.99589119487905
 20
141.9297638676155
 30
0.0
 10
77.99019961058579
 20
141.8798444829317
 30
0.0
 10
77.98663868600741
 20
141.8486125526469
 30
0.0
  0
LINE
  5
211
330
1F
100
AcDbEntity
  8
0
  6
Continuous
 62
     7
370
    15
100
AcDbLine
 10
79.440787877
 20
148.9660199491
 30
0.0
 11
78.0102514386
 21
142.016833624
 31
0.0
  0
LINE
  5
212
330
1F
100
AcDbEntity
  8
0
  6
Continuous
 62
     7
370
    15
100
AcDbLine
 10
78.0090605098
 20
134.9911857156
 30
0.0
 11
79.4406974405
 21
148.432502499
 31
0.0
  0
SPLINE
  5
213
330
1F
100
AcDbEntity
  8
0
  6
Continuous
 62
     7
370
    15
100
AcDbSpline
210
0.0
220
0.0
230
1.0
 70
     8
 71
     3
 72
    10
 73
     6
 74
     0
 42
0.00000001
 43
0.00000001
 12
1.0
 22
0.0
 32
0.0
 13
1.0
 23
0.0
 33
0.0
 40
0.0
 40
0.0
 40
0.0
 40
0.0
 40
0.2724577017436587
 40
0.5448279272261817
 40
1.0
 40
1.0
 40
1.0
 40
1.0
 10
77.98544775726512
 20
134.8229665068428
 30
0.0
 10
77.98755288871837
 20
134.8340157818501
 30
0.0
 10
77.9917624757437
 20
134.8561107843443
 30
0.0
 10
77.99980777668152
 20
134.9100334304043
 30
0.0
 10
78.00549956068197
 20
134.9599539534801
 30
0.0
 10
78.00906050982192
 20
134.9911857155602
 30
0.0
  0
LINE
  5
214
330
1F
100
AcDbEntity
  8
0
  6
Continuous
 62
     7
370
    15
100
AcDbLine
 10
76.5549113698
 20
127.8737801818
 30
0.0
 11
77.9854477573
 21
134.8229665068
 31
0.0
  0
SPLINE
  5
215
330
1F
100
AcDbEntity
  8
0
  6
Continuous
 62
     7
370
    15
100
AcDbSpline
210
0.0
220
0.0
230
1.0
 70
     8
 71
     3
 72
    15
 73
    11
 74
     0
 42
0.00000001
 43
0.00000001
 12
1.0
 22
0.0
 32
0.0
 13
1.0
 23
0.0
 33
0.0
 40
0.0
 40
0.0
 40
0.0
 40
0.0
 40
0.1368996567204474
 40
0.2736146667726406
 40
0.4079028171977519
 40
0.5393427635361268
 40
0.6692122344147482
 40
0.7996792034558906
 40
0.93249489265168
 40
1.0
 40
1.0
 40
1.0
 40
1.0
 10
76.55500170806661
 20
128.4072985631864
 30
0.0
 10
76.55082577823497
 20
128.3647651984859
 30
0.0
 10
76.54247955095637
 20
128.2797558369723
 30
0.0
 10
76.53316154089127
 20
128.1402991626941
 30
0.0
 10
76.52771917993954
 20
128.0132860490681
 30
0.0
 10
76.52680619703727
 20
127.911750277053
 30
0.0
 10
76.53030509823397
 20
127.8459120697043
 30
0.0
 10
76.53778528599125
 20
127.8218652374447
 30
0.0
 10
76.54665670921558
 20
127.8369802539254
 30
0.0
 10
76.55283079527227
 20
127.8645048165288
 30
0.0
 10
76.55491136977687
 20
127.8737801817696
 30
0.0
  0
LINE
  5
216
330
1F
100
AcDbEntity
  8
0
  6
Continuous
 62
     7
370
    15
100
AcDbLine
 10
77.986638686
 20
141.8486125526
 30
0.0
 11
76.5550017081
 21
128.4072985632
 31
0.0
  0
LINE
  5
217
330
1F
100
AcDbEntity
  8
0
  6
Continuous
 62
     7
370
    15
100
AcDbLine
 10
78.0085153369
 20
135.0009087232
 30
0.0
 11
79.4384981841
 21
148.4266947714
 31
0.0
  0
LWPOLYLINE
  5
218
330
1F
100
AcDbEntity
  8
0
  6
Continuous
 62
     7
370
    15
100
AcDbPolyline
 90
        9
 70
   128
 43
0.0
 10
79.4384981841
 20
148.4266947714
 10
79.4490545908
 20
148.5397983102
 10
79.4574503765
 20
148.6592087654
 10
79.4628523385
 20
148.7730797139
 10
79.4647243878
 20
148.8701086251
 10
79.4628807457
 20
148.9406656233
 10
79.4575043732
 20
148.9777508882
 10
79.4491288202
 20
148.977683833
 10
79.4385852736
 20
148.9404681829
  0
LINE
  5
219
330
1F
100
AcDbEntity
  8
0
  6
Continuous
 62
     7
370
    15
100
AcDbLine
 10
79.4385852736
 20
148.9404681829
 30
0.0
 11
78.009701609
 21
141.9993098584
 31
0.0
  0
ARC
  5
21A
330
1F
100
AcDbEntity
  8
0
  6
Continuous
 62
     7
370
    15
100
AcDbCircle
 10
79.830879303
 20
141.6618836582
 30
0.0
 40
1.85217294918485
100
AcDbArc
 50
169.5033194662
 51
174.5160096572
  0
LINE
  5
21B
330
1F
100
AcDbEntity
  8
0
  6
Continuous
 62
     7
370
    15
100
AcDbLine
 10
77.987183859
 20
141.8388914076
 30
0.0
 11
76.5572010263
 21
128.4131062908
 31
0.0
  0
LWPOLYLINE
  5
21C
330
1F
100
AcDbEntity
  8
0
  6
Continuous
 62
     7
370
    15
100
AcDbPolyline
 90
        9
 70
   128
 43
0.0
 10
76.5572010263
 20
128.4131062908
 10
76.5466447178
 20
128.300002752
 10
76.5382488448
 20
128.1805904341
 10
76.532846941
 20
128.0667194856
 10
76.5309747498
 20
127.9696905745
 10
76.5328185357
 20
127.8991326449
 10
76.5381948281
 20
127.86204738
 10
76.5465704448
 20
127.8621162978
 10
76.5571139477
 20
127.8993319479
  0
LINE
  5
21D
330
1F
100
AcDbEntity
  8
0
  6
Continuous
 62
     7
370
    15
100
AcDbLine
 10
76.5571139477
 20
127.8993319479
 30
0.0
 11
77.9859975868
 21
134.8404902724
 31
0.0
  0
ARC
  5
21E
330
1F
100
AcDbEntity
  8
0
  6
Continuous
 62
     7
370
    15
100
AcDbCircle
 10
76.1649870429
 20
135.17789301
 30
0.0
 40
1.852004321957326
100
AcDbArc
 50
349.5030911148
 51
354.5162380086
  0
LINE
  5
21F
330
1F
100
AcDbEntity
  8
0
  6
Continuous
 62
     7
370
    15
100
AcDbLine
 10
82.7370927859
 20
134.8863001672
 30
0.0
 11
84.1290307421
 21
147.9548867551
 31
0.0
  0
LWPOLYLINE
  5
220
330
1F
100
AcDbEntity
  8
0
  6
Continuous
 62
     7
370
    15
100
AcDbPolyline
 90
        9
 70
   128
 43
0.0
 10
78.7293833404
 20
142.9562400786
 10
78.757163354
 20
143.2538814602
 10
78.7792575269
 20
143.568124598
 10
78.7934732347
 20
143.867785087
 10
78.7983996401
 20
144.1231239346
 10
78.7935479734
 20
144.308803579
 10
78.7793996118
 20
144.4063931463
 10
78.757358699
 20
144.4062124697
 10
78.729612504
 20
144.3082764504
  0
LWPOLYLINE
  5
221
330
1F
100
AcDbEntity
  8
0
  6
Continuous
 62
     7
370
    15
100
AcDbPolyline
 90
        9
 70
   128
 43
0.0
 10
77.2663158554
 20
133.8835600523
 10
77.2385359
 20
133.5859186707
 10
77.2164416689
 20
133.2716755328
 10
77.2022259611
 20
132.9720150439
 10
77.1972994975
 20
132.7166761962
 10
77.2021512225
 20
132.5309965519
 10
77.2162996422
 20
132.4334051219
 10
77.2383405551
 20
132.4335876612
 10
77.2660867501
 20
132.5315218178
  0
LINE
  5
222
330
1F
100
AcDbEntity
  8
0
  6
Continuous
 62
     7
370
    15
100
AcDbLine
 10
77.968605487
 20
140.4771972207
 30
0.0
 11
77.2663158554
 21
133.8835600523
 31
0.0
  0
ARC
  5
223
330
1F
100
AcDbEntity
  8
0
  6
Continuous
 62
     7
370
    15
100
AcDbCircle
 10
82.8200958442
 20
140.0114382725
 30
0.0
 40
4.873796270247819
100
AcDbArc
 50
169.5031610747
 51
174.516223798
  0
LINE
  5
224
330
1F
100
AcDbEntity
  8
0
  6
Continuous
 62
     7
370
    15
100
AcDbLine
 10
78.729612504
 20
144.3082764504
 30
0.0
 11
78.0278627485
 21
140.8993527052
 31
0.0
  0
LINE
  5
225
330
1F
100
AcDbEntity
  8
0
  6
Continuous
 62
     7
370
    15
100
AcDbLine
 10
78.0270937088
 20
136.3626029102
 30
0.0
 11
78.7293833404
 21
142.9562400786
 31
0.0
  0
ARC
  5
226
330
1F
100
AcDbEntity
  8
0
  6
Continuous
 62
     7
370
    15
100
AcDbCircle
 10
73.1756330091
 20
136.8283537777
 30
0.0
 40
4.873765976250479
100
AcDbArc
 50
349.5031694317
 51
354.5162850401
  0
LINE
  5
227
330
1F
100
AcDbEntity
  8
0
  6
Continuous
 62
     7
370
    15
100
AcDbLine
 10
77.2660867501
 20
132.5315218178
 30
0.0
 11
77.9678364474
 21
135.940445563
 31
0.0
  0
LWPOLYLINE
  5
228
330
1F
100
AcDbEntity
  8
0
  6
Continuous
 62
     7
370
    15
100
AcDbPolyline
 90
       32
 70
   128
 43
0.0
 10
78.0878675127
 20
137.0018329231
 10
78.14374093
 20
137.5727448372
 10
78.1936416592
 20
138.178339204
 10
78.235526495
 20
138.7938223538
 10
78.2676808726
 20
139.3939964232
 10
78.2887883674
 20
139.9542931227
 10
78.2979847121
 20
140.4517702518
 10
78.2948935361
 20
140.8660616485
 10
78.2796412663
 20
141.1802079288
 10
78.2528525873
 20
141.3813475279
 10
78.2156238988
 20
141.4612438289
 10
78.1694795427
 20
141.4166278896
 10
78.1163087071
 20
141.2493251023
 10
78.0582881256
 20
140.9661862758
 10
77.9977931365
 20
140.5788007883
 10
77.9373004756
 20
140.1030309258
 10
77.8792866462
 20
139.5583525059
 10
77.8261268701
 20
138.9670651165
 10
77.7799974152
 20
138.3533775566
 10
77.7427868874
 20
137.7424131838
 10
77.7160186976
 20
137.15918546
 10
77.7007886631
 20
136.6275716332
 10
77.6977203045
 20
136.1693367121
 10
77.7069392338
 20
135.803239396
 10
77.728068149
 20
135.5442683903
 10
77.7602419679
 20
135.4030258713
 10
77.8021433347
 20
135.3852934895
 10
77.8520571025
 20
135.4917995391
 10
77.9079396001
 20
135.7181817052
 10
77.9675029175
 20
136.0551733283
 10
78.0283087355
 20
136.4889777956
 10
78.0878675127
 20
137.0018329231
  0
SPLINE
  5
229
330
1F
100
AcDbEntity
  8
0
  6
Continuous
 62
     7
370
    15
100
AcDbSpline
210
0.0
220
0.0
230
1.0
 70
     8
 71
     3
 72
    10
 73
     6
 74
     0
 42
0.00000001
 43
0.00000001
 12
1.0
 22
0.0
 32
0.0
 13
1.0
 23
0.0
 33
0.0
 40
0.0
 40
0.0
 40
0.0
 40
0.0
 40
0.4149157167756896
 40
0.7027521847558693
 40
1.0
 40
1.0
 40
1.0
 40
1.0
 10
82.73709278585628
 20
134.886300167207
 30
0.0
 10
82.7362832923934
 20
134.8791615832962
 30
0.0
 10
82.7349122349073
 20
134.867070801394
 30
0.0
 10
82.7328968541801
 20
134.8532608108191
 30
0.0
 10
82.73176475332411
 20
134.8472825678786
 30
0.0
 10
82.73118959771708
 20
134.8442453650277
 30
0.0
  0
LINE
  5
22A
330
1F
100
AcDbEntity
  8
0
  6
Continuous
 62
     7
370
    15
100
AcDbLine
 10
82.6663583707
 20
134.5293111858
 30
0.0
 11
82.7311895977
 21
134.844245365
 31
0.0
  0
LWPOLYLINE
  5
22B
330
1F
100
AcDbEntity
  8
0
  6
Continuous
 62
     7
370
    15
100
AcDbPolyline
 90
       25
 70
   128
 43
0.0
 10
78.153969413
 20
139.5475063232
 10
78.1474281525
 20
139.8301813511
 10
78.1292469896
 20
140.0064453242
 10
78.1006649326
 20
140.0642823187
 10
78.0636297263
 20
139.9997547028
 10
78.0206652548
 20
139.8172564564
 10
77.9746995963
 20
139.5292263237
 10
77.9288650214
 20
139.1552947221
 10
77.8862853025
 20
138.7209407744
 10
77.8498620916
 20
138.2557675002
 10
77.8220774795
 20
137.791475257
 10
77.8048250781
 20
137.3597047982
 10
77.7992805656
 20
136.9898784665
 10
77.8058218261
 20
136.7072034386
 10
77.824002989
 20
136.5309413282
 10
77.8525850459
 20
136.473102471
 10
77.8896202523
 20
136.5376319495
 10
77.9325847238
 20
136.7201283333
 10
77.9785504987
 20
137.008158466
 10
78.0243849571
 20
137.3820919303
 10
78.066964676
 20
137.8164458779
 10
78.103387887
 20
138.2816191522
 10
78.131172499
 20
138.7459113953
 10
78.1484249005
 20
139.1776818541
 10
78.153969413
 20
139.5475063232
  0
LWPOLYLINE
  5
22C
330
1F
100
AcDbEntity
  8
0
  6
Continuous
 62
     7
370
    15
100
AcDbPolyline
 90
        9
 70
   128
 43
0.0
 10
78.1165518987
 20
139.8955676464
 10
78.1042525036
 20
139.9308927116
 10
78.0898699726
 20
139.9390883503
 10
78.0736389992
 20
139.9200185893
 10
78.0558245446
 20
139.8739963529
 10
78.0367175307
 20
139.8017704246
 10
78.0166294848
 20
139.704523584
 10
77.9958885818
 20
139.5838390795
 10
77.9748332411
 20
139.4416894523
  0
ARC
  5
22D
330
1F
100
AcDbEntity
  8
0
  6
Continuous
 62
     7
370
    15
100
AcDbCircle
 10
97.8946792166
 20
136.8772968788
 30
0.0
 40
20.08423194849629
100
AcDbArc
 50
172.6643422881
 51
177.3050914767
  0
ARC
  5
22E
330
1F
100
AcDbEntity
  8
0
  6
Continuous
 62
     7
370
    15
100
AcDbCircle
 10
85.249025547
 20
137.2420895434
 30
0.0
 40
7.438973966368969
100
AcDbArc
 50
175.5319361172
 51
184.4761019338
  0
LINE
  5
22F
330
1F
100
AcDbEntity
  8
0
  6
Continuous
 62
     7
370
    15
100
AcDbLine
 10
77.837024974
 20
136.6404089836
 30
0.0
 11
77.8327406574
 21
136.6615276543
 31
0.0
  0
LWPOLYLINE
  5
230
330
1F
100
AcDbEntity
  8
0
  6
Continuous
 62
     7
370
    15
100
AcDbPolyline
 90
        9
 70
   128
 43
0.0
 10
77.837024974
 20
136.6404089836
 10
77.8488949131
 20
136.6066597161
 10
77.8626994419
 20
136.5980822352
 10
77.8782291294
 20
136.6148050634
 10
77.8952491659
 20
136.6565730182
 10
77.9135014586
 20
136.7227583883
 10
77.9327097538
 20
136.8123553453
 10
77.9525832463
 20
136.9240078834
 10
77.9728207694
 20
137.056024721
  0
LINE
  5
231
330
1F
100
AcDbEntity
  8
0
  6
Continuous
 62
     7
370
    15
100
AcDbLine
 10
77.9846245845
 20
137.1412984786
 30
0.0
 11
77.9728207694
 21
137.056024721
 31
0.0
  0
ARC
  5
232
330
1F
100
AcDbEntity
  8
0
  6
Continuous
 62
     7
370
    15
100
AcDbCircle
 10
57.8157095279
 20
139.6738898202
 30
0.0
 40
20.32730069302602
100
AcDbArc
 50
352.8428837937
 51
357.1265577275
  0
LINE
  5
233
330
1F
100
AcDbEntity
  8
0
  6
Continuous
 62
     7
370
    15
100
AcDbLine
 10
78.1232438007
 20
138.7701015679
 30
0.0
 11
78.1174527205
 21
138.6548820642
 31
0.0
  0
ARC
  5
234
330
1F
100
AcDbEntity
  8
0
  6
Continuous
 62
     7
370
    15
100
AcDbCircle
 10
70.9879023415
 20
139.3063921247
 30
0.0
 40
7.155466812210048
100
AcDbArc
 50
355.7017443648
 51
4.5509242504
  0
LINE
  5
235
330
1F
100
AcDbEntity
  8
0
  6
Continuous
 62
     7
370
    15
100
AcDbLine
 10
78.1165518987
 20
139.8955676464
 30
0.0
 11
78.1208094399
 21
139.8741435019
 31
0.0
  0
SPLINE
  5
236
330
1F
100
AcDbEntity
  8
0
  6
Continuous
 62
     7
370
    15
100
AcDbSpline
210
0.0
220
0.0
230
1.0
 70
     8
 71
     3
 72
    10
 73
     6
 74
     0
 42
0.00000001
 43
0.00000001
 12
1.0
 22
0.0
 32
0.0
 13
1.0
 23
0.0
 33
0.0
 40
0.0
 40
0.0
 40
0.0
 40
0.0
 40
0.2598653247647892
 40
0.7300554540355922
 40
0.9999999999999999
 40
0.9999999999999999
 40
0.9999999999999999
 40
0.9999999999999999
 10
78.1379299427779
 20
139.7118028012555
 30
0.0
 10
78.13623111377358
 20
139.7308034781649
 30
0.0
 10
78.13145849018017
 20
139.7841832348549
 30
0.0
 10
78.12565549576023
 20
139.8391829549383
 30
0.0
 10
78.12210455251406
 20
139.8648002654571
 30
0.0
 10
78.12080943988875
 20
139.8741435018818
 30
0.0
  0
SPLINE
  5
237
330
1F
100
AcDbEntity
  8
0
  6
Continuous
 62
     7
370
    15
100
AcDbSpline
210
0.0
220
0.0
230
1.0
 70
     8
 71
     3
 72
    11
 73
     7
 74
     0
 42
0.00000001
 43
0.00000001
 12
1.0
 22
0.0
 32
0.0
 13
1.0
 23
0.0
 33
0.0
 40
0.0
 40
0.0
 40
0.0
 40
0.0
 40
0.1604732773660897
 40
0.4656822762980982
 40
0.7723765498870881
 40
0.9999999999999999
 40
0.9999999999999999
 40
0.9999999999999999
 40
0.9999999999999999
 10
77.84141627637908
 20
136.6412248221676
 30
0.0
 10
77.84338908479192
 20
136.6407276422475
 30
0.0
 10
77.84911403742869
 20
136.6392848607406
 30
0.0
 10
77.86608923040474
 20
136.6744270868937
 30
0.0
 10
77.88833016684845
 20
136.7361981778687
 30
0.0
 10
77.90440051750551
 20
136.7904609031457
 30
0.0
 10
77.9112466101931
 20
136.8135772404711
 30
0.0
  0
LINE
  5
238
330
1F
100
AcDbEntity
  8
0
  6
Continuous
 62
     7
370
    15
100
AcDbLine
 10
78.1165518987
 20
139.8955676464
 30
0.0
 11
78.1151990363
 21
139.8946586756
 31
0.0
  0
SPLINE
  5
239
330
1F
100
AcDbEntity
  8
0
  6
Continuous
 62
     7
370
    15
100
AcDbSpline
210
0.0
220
0.0
230
1.0
 70
     8
 71
     3
 72
    10
 73
     6
 74
     0
 42
0.00000001
 43
0.00000001
 12
1.0
 22
0.0
 32
0.0
 13
1.0
 23
0.0
 33
0.0
 40
0.0
 40
0.0
 40
0.0
 40
0.0
 40
0.3620774225513929
 40
0.7259003396747261
 40
1.0
 40
1.0
 40
1.0
 40
1.0
 10
78.11331194391713
 20
139.893392076854
 30
0.0
 10
78.11277831190047
 20
139.8833775006126
 30
0.0
 10
78.11170847534612
 20
139.8633000700892
 30
0.0
 10
78.1139382262147
 20
139.7967143423071
 30
0.0
 10
78.11758026979282
 20
139.7410834748989
 30
0.0
 10
78.11914516644791
 20
139.7171802578013
 30
0.0
  0
SPLINE
  5
23A
330
1F
100
AcDbEntity
  8
0
  6
Continuous
 62
     7
370
    15
100
AcDbSpline
210
0.0
220
0.0
230
1.0
 70
     8
 71
     3
 72
    12
 73
     8
 74
     0
 42
0.00000001
 43
0.00000001
 12
1.0
 22
0.0
 32
0.0
 13
1.0
 23
0.0
 33
0.0
 40
0.0
 40
0.0
 40
0.0
 40
0.0
 40
0.2058578700979761
 40
0.4121033794416316
 40
0.6141919041161906
 40
0.8133180081513705
 40
0.9999999999999999
 40
0.9999999999999999
 40
0.9999999999999999
 40
0.9999999999999999
 10
78.11914516644791
 20
139.7171802578013
 30
0.0
 10
78.12255160824866
 20
139.6618335330875
 30
0.0
 10
78.12937090632695
 20
139.5510358633908
 30
0.0
 10
78.12566099051436
 20
139.4418102681373
 30
0.0
 10
78.10791045572482
 20
139.3937925426669
 30
0.0
 10
78.0789322756933
 20
139.4077283432961
 30
0.0
 10
78.05673647267629
 20
139.4631439441694
 30
0.0
 10
78.04599653030053
 20
139.4899580386918
 30
0.0
  0
SPLINE
  5
23B
330
1F
100
AcDbEntity
  8
0
  6
Continuous
 62
     7
370
    15
100
AcDbSpline
210
0.0
220
0.0
230
1.0
 70
     8
 71
     3
 72
    11
 73
     7
 74
     0
 42
0.00000001
 43
0.00000001
 12
1.0
 22
0.0
 32
0.0
 13
1.0
 23
0.0
 33
0.0
 40
0.0
 40
0.0
 40
0.0
 40
0.0
 40
0.252473837658357
 40
0.5068860273963495
 40
0.7591775541575471
 40
1.0
 40
1.0
 40
1.0
 40
1.0
 10
78.04599653030053
 20
139.4899580386918
 30
0.0
 10
78.03910749045785
 20
139.5066866778982
 30
0.0
 10
78.02527652060047
 20
139.5402723893912
 30
0.0
 10
78.00502899075632
 20
139.5435674304921
 30
0.0
 10
77.98716346621423
 20
139.5126695663809
 30
0.0
 10
77.97887908876649
 20
139.4649797595349
 30
0.0
 10
77.97483324105158
 20
139.4416894522946
 30
0.0
  0
SPLINE
  5
23C
330
1F
100
AcDbEntity
  8
0
  6
Continuous
 62
     7
370
    15
100
AcDbSpline
210
0.0
220
0.0
230
1.0
 70
     8
 71
     3
 72
    11
 73
     7
 74
     0
 42
0.00000001
 43
0.00000001
 12
1.0
 22
0.0
 32
0.0
 13
1.0
 23
0.0
 33
0.0
 40
0.0
 40
0.0
 40
0.0
 40
0.0
 40
0.2794047654637657
 40
0.559624128091653
 40
0.8375016765271834
 40
1.0
 40
1.0
 40
1.0
 40
1.0
 10
77.87865928406134
 20
136.9768362251561
 30
0.0
 10
77.87055076115199
 20
136.9395459338294
 30
0.0
 10
77.85431007515032
 20
136.8648566323234
 30
0.0
 10
77.83878639181582
 20
136.7643554147199
 30
0.0
 10
77.83209039220569
 20
136.6961004934282
 30
0.0
 10
77.83256538530101
 20
136.6708463951526
 30
0.0
 10
77.83274065735057
 20
136.6615276542942
 30
0.0
  0
SPLINE
  5
23D
330
1F
100
AcDbEntity
  8
0
  6
Continuous
 62
     7
370
    15
100
AcDbSpline
210
0.0
220
0.0
230
1.0
 70
     8
 71
     3
 72
    12
 73
     8
 74
     0
 42
0.00000001
 43
0.00000001
 12
1.0
 22
0.0
 32
0.0
 13
1.0
 23
0.0
 33
0.0
 40
0.0
 40
0.0
 40
0.0
 40
0.0
 40
0.0091745520097432
 40
0.2576783403869088
 40
0.506186736034988
 40
0.7560367731986455
 40
1.0
 40
1.0
 40
1.0
 40
1.0
 10
77.83265928304061
 20
137.8216109929125
 30
0.0
 10
77.83259444815936
 20
137.820294094699
 30
0.0
 10
77.83077348245094
 20
137.7833074226793
 30
0.0
 10
77.8302238044815
 20
137.7135742886709
 30
0.0
 10
77.83827357591801
 20
137.633530333479
 30
0.0
 10
77.85411408268727
 20
137.5815981399302
 30
0.0
 10
77.87002801692323
 20
137.5767670088753
 30
0.0
 10
77.87789012803003
 20
137.57438023961
 30
0.0
  0
SPLINE
  5
23E
330
1F
100
AcDbEntity
  8
0
  6
Continuous
 62
     7
370
    15
100
AcDbSpline
210
0.0
220
0.0
230
1.0
 70
     8
 71
     3
 72
    12
 73
     8
 74
     0
 42
0.00000001
 43
0.00000001
 12
1.0
 22
0.0
 32
0.0
 13
1.0
 23
0.0
 33
0.0
 40
0.0
 40
0.0
 40
0.0
 40
0.0
 40
0.2057540987776144
 40
0.4119616808057862
 40
0.6140171324217499
 40
0.8131420788428955
 40
1.0
 40
1.0
 40
1.0
 40
1.0
 10
77.87789012803003
 20
137.57438023961
 30
0.0
 10
77.89190904132165
 20
137.5699249521919
 30
0.0
 10
77.9199777656727
 20
137.5610045578761
 30
0.0
 10
77.94161314987637
 20
137.4673743330063
 30
0.0
 10
77.94021312268272
 20
137.3271370916938
 30
0.0
 10
77.91761860094276
 20
137.156235906321
 30
0.0
 10
77.8913676265979
 20
137.0353555417583
 30
0.0
 10
77.87865928406134
 20
136.9768362251561
 30
0.0
  0
SPLINE
  5
23F
330
1F
100
AcDbEntity
  8
0
  6
Continuous
 62
     7
370
    15
100
AcDbSpline
210
0.0
220
0.0
230
1.0
 70
     8
 71
     3
 72
    12
 73
     8
 74
     0
 42
0.00000001
 43
0.00000001
 12
1.0
 22
0.0
 32
0.0
 13
1.0
 23
0.0
 33
0.0
 40
0.0
 40
0.0
 40
0.0
 40
0.0
 40
0.0091692377286892
 40
0.257327015545091
 40
0.50549311464986
 40
0.7549904015377832
 40
1.0
 40
1.0
 40
1.0
 40
1.0
 10
77.97483324105158
 20
139.4416894522946
 30
0.0
 10
77.97469877120331
 20
139.4407106284367
 30
0.0
 10
77.97092498697349
 20
139.4132407525831
 30
0.0
 10
77.9653600114128
 20
139.3492104116435
 30
0.0
 10
77.96372333147411
 20
139.2397655989729
 30
0.0
 10
77.96860936520191
 20
139.1256873129009
 30
0.0
 10
77.97745627104031
 20
139.059148989665
 30
0.0
 10
77.98183958078042
 20
139.026181748275
 30
0.0
  0
SPLINE
  5
240
330
1F
100
AcDbEntity
  8
0
  6
Continuous
 62
     7
370
    15
100
AcDbSpline
210
0.0
220
0.0
230
1.0
 70
     8
 71
     3
 72
    12
 73
     8
 74
     0
 42
0.00000001
 43
0.00000001
 12
1.0
 22
0.0
 32
0.0
 13
1.0
 23
0.0
 33
0.0
 40
0.0
 40
0.0
 40
0.0
 40
0.0
 40
0.2058421784905765
 40
0.4120690840527074
 40
0.6141379805576801
 40
0.813258358030742
 40
0.9999999999999999
 40
0.9999999999999999
 40
0.9999999999999999
 40
0.9999999999999999
 10
77.98183958078042
 20
139.026181748275
 30
0.0
 10
77.98955273480814
 20
138.9670583942185
 30
0.0
 10
78.00499345904976
 20
138.8487011822474
 30
0.0
 10
78.00729030484133
 20
138.6468931337755
 30
0.0
 10
77.9892867222764
 20
138.4585203105833
 30
0.0
 10
77.95420995288279
 20
138.3003981317971
 30
0.0
 10
77.92405424569749
 20
138.2336964407458
 30
0.0
 10
77.90946010066435
 20
138.2014155147116
 30
0.0
  0
SPLINE
  5
241
330
1F
100
AcDbEntity
  8
0
  6
Continuous
 62
     7
370
    15
100
AcDbSpline
210
0.0
220
0.0
230
1.0
 70
     8
 71
     3
 72
    11
 73
     7
 74
     0
 42
0.00000001
 43
0.00000001
 12
1.0
 22
0.0
 32
0.0
 13
1.0
 23
0.0
 33
0.0
 40
0.0
 40
0.0
 40
0.0
 40
0.0
 40
0.2535067348249351
 40
0.5075663017052845
 40
0.7595045987979271
 40
1.0
 40
1.0
 40
1.0
 40
1.0
 10
77.90946010066435
 20
138.2014155147116
 30
0.0
 10
77.90010051474714
 20
138.1804954838284
 30
0.0
 10
77.88136093209751
 20
138.138609800932
 30
0.0
 10
77.85793395319726
 20
138.0404596368598
 30
0.0
 10
77.84031907811348
 20
137.9303188380809
 30
0.0
 10
77.83517268507423
 20
137.8572812055641
 30
0.0
 10
77.83265928304061
 20
137.8216109929125
 30
0.0
  0
CIRCLE
  5
242
330
1F
100
AcDbEntity
  8
VERMASSUNG
  6
CENTERX2
100
AcDbCircle
 10
79.4831564839
 20
116.2434286213
 30
0.0
 40
32.50000000000001
  0
DIMENSION
  5
243
330
1F
100
AcDbEntity
  8
VERMASSUNG
100
AcDbDimension
  2
_D_5
 10
58.7337472714
 20
141.2576649144
 30
0.0
 11
51.8350271969
 21
149.5743457555
 31
0.0
 70
   160
  1
%%c<> min. 
 71
     2
 42
-1.0
  3
SLDDIMSTYLE3
100
AcDbAlignedDimension
 13
100.2325656965
 23
91.2291923281
 33
0.0
 14
58.7337472714
 24
141.2576649144
 34
0.0
 50
-50.3241575024
100
AcDbRotatedDimension
  0
INSERT
  5
25D
330
1F
100
AcDbEntity
  8
VERMASSUNG
100
AcDbBlockReference
  2
SW_CENTERMARKSYMBOL_0
 10
79.4831564839
 20
114.0024009851
 30
0.0
  0
OLE2FRAME
  5
25E
330
1F
100
AcDbEntity
  8
0
100
AcDbOle2Frame
 70
     2
  3
Paintbrush-Bild
 10
13.8511154363
 20
38.264191557
 30
0.0
 11
51.6290888628
 21
31.9806341108
 31
0.0
 71
     2
 72
     0
 73
     1
 90
    12928
310
80552BED0767C5B32B40DDAF6807D121434000000000000000006FFBDDFB85D0
310
4940DDAF6807D121434000000000000000006FFBDDFB85D04940416F4BD60AFB
310
3F4000000000000000002BED0767C5B32B40416F4BD60AFB3F40000000000000
310
0000000000000100000000010000010000000100000000000100000000320000
310
D0CF11E0A1B11AE1000000000000000000000000000000003E000300FEFF0900
310
0600000000000000000000000100000001000000000000000010000002000000
310
01000000FEFFFFFF0000000000000000FFFFFFFFFFFFFFFFFFFFFFFFFFFFFFFF
310
FFFFFFFFFFFFFFFFFFFFFFFFFFFFFFFFFFFFFFFFFFFFFFFFFFFFFFFFFFFFFFFF
310
FFFFFFFFFFFFFFFFFFFFFFFFFFFFFFFFFFFFFFFFFFFFFFFFFFFFFFFFFFFFFFFF
310
FFFFFFFFFFFFFFFFFFFFFFFFFFFFFFFFFFFFFFFFFFFFFFFFFFFFFFFFFFFFFFFF
310
FFFFFFFFFFFFFFFFFFFFFFFFFFFFFFFFFFFFFFFFFFFFFFFFFFFFFFFFFFFFFFFF
310
FFFFFFFFFFFFFFFFFFFFFFFFFFFFFFFFFFFFFFFFFFFFFFFFFFFFFFFFFFFFFFFF
310
FFFFFFFFFFFFFFFFFFFFFFFFFFFFFFFFFFFFFFFFFFFFFFFFFFFFFFFFFFFFFFFF
310
FFFFFFFFFFFFFFFFFFFFFFFFFFFFFFFFFFFFFFFFFFFFFFFFFFFFFFFFFFFFFFFF
310
FFFFFFFFFFFFFFFFFFFFFFFFFFFFFFFFFFFFFFFFFFFFFFFFFFFFFFFFFFFFFFFF
310
FFFFFFFFFFFFFFFFFFFFFFFFFFFFFFFFFFFFFFFFFFFFFFFFFFFFFFFFFFFFFFFF
310
FFFFFFFFFFFFFFFFFFFFFFFFFFFFFFFFFFFFFFFFFFFFFFFFFFFFFFFFFFFFFFFF
310
FFFFFFFFFFFFFFFFFFFFFFFFFFFFFFFFFFFFFFFFFFFFFFFFFFFFFFFFFFFFFFFF
310
FFFFFFFFFFFFFFFFFFFFFFFFFFFFFFFFFFFFFFFFFFFFFFFFFFFFFFFFFFFFFFFF
310
FFFFFFFFFFFFFFFFFFFFFFFFFFFFFFFFFFFFFFFFFFFFFFFFFFFFFFFFFFFFFFFF
310
FDFFFFFFFEFFFFFFFEFFFFFFFEFFFFFF05000000060000000700000008000000
310
090000000A0000000B0000000C0000000D0000000E0000000F00000010000000
310
11000000120000001300000014000000150000001600000017000000FEFFFFFF
310
FFFFFFFFFFFFFFFFFFFFFFFFFFFFFFFFFFFFFFFFFFFFFFFFFFFFFFFFFFFFFFFF
310
FFFFFFFFFFFFFFFFFFFFFFFFFFFFFFFFFFFFFFFFFFFFFFFFFFFFFFFFFFFFFFFF
310
FFFFFFFFFFFFFFFFFFFFFFFFFFFFFFFFFFFFFFFFFFFFFFFFFFFFFFFFFFFFFFFF
310
FFFFFFFFFFFFFFFFFFFFFFFFFFFFFFFFFFFFFFFFFFFFFFFFFFFFFFFFFFFFFFFF
310
FFFFFFFFFFFFFFFFFFFFFFFFFFFFFFFFFFFFFFFFFFFFFFFFFFFFFFFFFFFFFFFF
310
FFFFFFFFFFFFFFFFFFFFFFFFFFFFFFFFFFFFFFFFFFFFFFFFFFFFFFFFFFFFFFFF
310
FFFFFFFFFFFFFFFFFFFFFFFFFFFFFFFFFFFFFFFFFFFFFFFFFFFFFFFFFFFFFFFF
310
FFFFFFFFFFFFFFFFFFFFFFFFFFFFFFFFFFFFFFFFFFFFFFFFFFFFFFFFFFFFFFFF
310
FFFFFFFFFFFFFFFFFFFFFFFFFFFFFFFFFFFFFFFFFFFFFFFFFFFFFFFFFFFFFFFF
310
FFFFFFFFFFFFFFFFFFFFFFFFFFFFFFFFFFFFFFFFFFFFFFFFFFFFFFFFFFFFFFFF
310
FFFFFFFFFFFFFFFFFFFFFFFFFFFFFFFFFFFFFFFFFFFFFFFFFFFFFFFFFFFFFFFF
310
FFFFFFFFFFFFFFFFFFFFFFFFFFFFFFFFFFFFFFFFFFFFFFFFFFFFFFFFFFFFFFFF
310
FFFFFFFFFFFFFFFFFFFFFFFFFFFFFFFFFFFFFFFFFFFFFFFFFFFFFFFFFFFFFFFF
310
52006F006F007400200045006E00740072007900000000000000000000000000
310
0000000000000000000000000000000000000000000000000000000000000000
310
16000500FFFFFFFFFFFFFFFF020000000A00030000000000C000000000000046
310
000000000000000000000000F0282184EE38CD0103000000C000000000000000
310
01004F006C006500000000000000000000000000000000000000000000000000
310
0000000000000000000000000000000000000000000000000000000000000000
310
0A000200FFFFFFFFFFFFFFFFFFFFFFFF00000000000000000000000000000000
310
0000000000000000000000000000000000000000000000001400000000000000
310
010043006F006D0070004F0062006A0000000000000000000000000000000000
310
0000000000000000000000000000000000000000000000000000000000000000
310
120002010100000003000000FFFFFFFF00000000000000000000000000000000
310
0000000000000000000000000000000000000000010000004D00000000000000
310
01004F006C006500310030004E00610074006900760065000000000000000000
310
0000000000000000000000000000000000000000000000000000000000000000
310
1A000200FFFFFFFFFFFFFFFFFFFFFFFF00000000000000000000000000000000
310
0000000000000000000000000000000000000000040000002426000000000000
310
FEFFFFFF02000000FEFFFFFFFFFFFFFFFFFFFFFFFFFFFFFFFFFFFFFFFFFFFFFF
310
FFFFFFFFFFFFFFFFFFFFFFFFFFFFFFFFFFFFFFFFFFFFFFFFFFFFFFFFFFFFFFFF
310
FFFFFFFFFFFFFFFFFFFFFFFFFFFFFFFFFFFFFFFFFFFFFFFFFFFFFFFFFFFFFFFF
310
FFFFFFFFFFFFFFFFFFFFFFFFFFFFFFFFFFFFFFFFFFFFFFFFFFFFFFFFFFFFFFFF
310
FFFFFFFFFFFFFFFFFFFFFFFFFFFFFFFFFFFFFFFFFFFFFFFFFFFFFFFFFFFFFFFF
310
FFFFFFFFFFFFFFFFFFFFFFFFFFFFFFFFFFFFFFFFFFFFFFFFFFFFFFFFFFFFFFFF
310
FFFFFFFFFFFFFFFFFFFFFFFFFFFFFFFFFFFFFFFFFFFFFFFFFFFFFFFFFFFFFFFF
310
FFFFFFFFFFFFFFFFFFFFFFFFFFFFFFFFFFFFFFFFFFFFFFFFFFFFFFFFFFFFFFFF
310
FFFFFFFFFFFFFFFFFFFFFFFFFFFFFFFFFFFFFFFFFFFFFFFFFFFFFFFFFFFFFFFF
310
FFFFFFFFFFFFFFFFFFFFFFFFFFFFFFFFFFFFFFFFFFFFFFFFFFFFFFFFFFFFFFFF
310
FFFFFFFFFFFFFFFFFFFFFFFFFFFFFFFFFFFFFFFFFFFFFFFFFFFFFFFFFFFFFFFF
310
FFFFFFFFFFFFFFFFFFFFFFFFFFFFFFFFFFFFFFFFFFFFFFFFFFFFFFFFFFFFFFFF
310
FFFFFFFFFFFFFFFFFFFFFFFFFFFFFFFFFFFFFFFFFFFFFFFFFFFFFFFFFFFFFFFF
310
FFFFFFFFFFFFFFFFFFFFFFFFFFFFFFFFFFFFFFFFFFFFFFFFFFFFFFFFFFFFFFFF
310
FFFFFFFFFFFFFFFFFFFFFFFFFFFFFFFFFFFFFFFFFFFFFFFFFFFFFFFFFFFFFFFF
310
FFFFFFFFFFFFFFFFFFFFFFFFFFFFFFFFFFFFFFFFFFFFFFFFFFFFFFFFFFFFFFFF
310
0100000200000000000000000000000000000000000000000000000000000000
310
0000000000000000000000000000000000000000000000000000000000000000
310
0100FEFF030A0000FFFFFFFF0A00030000000000C00000000000004607000000
310
5042727573680007000000504272757368000700000050427275736800F439B2
310
7100000000000000000000000000000000000000000000000000000000000000
310
0000000000000000000000000000000000000000000000000000000000000000
310
0000000000000000000000000000000000000000000000000000000000000000
310
0000000000000000000000000000000000000000000000000000000000000000
310
0000000000000000000000000000000000000000000000000000000000000000
310
0000000000000000000000000000000000000000000000000000000000000000
310
0000000000000000000000000000000000000000000000000000000000000000
310
0000000000000000000000000000000000000000000000000000000000000000
310
0000000000000000000000000000000000000000000000000000000000000000
310
0000000000000000000000000000000000000000000000000000000000000000
310
0000000000000000000000000000000000000000000000000000000000000000
310
0000000000000000000000000000000000000000000000000000000000000000
310
20260000424D0E260000000000003E00000028000000B40200006E0000000100
310
01000000000000000000130B0000130B00000200000002000000000000FFFFFF
310
FFFFFFFFFFFFFFFFFFFFFFFFFFFFFFFFFFFFFFFFFFFFFFFFFFFFFFFFFFFFFFFF
310
FFFFFFFFFFFFFFFFFFFFFFFFFFFFFFFFFFFFFFFFFFFFFFFFFFFFFFFFFFFFFFFF
310
FFFFFFFFFFFFFFFFFFFFFFFFFFFFFFFFFFFFFFFFFFFFFFFFF000FFFFFFFFFFFF
310
FFFFFFFFFFFFFFFFFFFFFFFFFFFFFFFFFFFFFFFFFFFFFFFFFFFFFFFFFFFFFFFF
310
FFFFFFFFFFFFFFFFFFFFFFFFFFFFFFFFFFFFFFFFFFFFFFFFFFFFFFFFFFFFFFFF
310
FFFFFFFFFFFFFFFFFFFFFFFFFFFFFFFFF000FFFFFFFFFFFFFFFFFFFFFFFFFFFF
310
FFFFFFFFFFFFFFFFFFFFFFFFFFFFFFFFFFFFFFFFFFFFFFFFFFFFFFFFFFFFFFFF
310
FFFFFFFFFFFFFFFFFFFFFFFFFFFFFFFFFFFFFFFFFFFFFFFFFFFFFFFFFFFFFFFF
310
FFFFFFFFFFFFFFFFF000FFFFFFFFFFFFFFFFFFFFFFFFFFFFFFFFFFFFFFFFFFFF
310
FFFFFFFFFFFFFFFFFFFFFFFFFFFFFFFFFFFFFFFFFFFFFFFFFFFFFFFFFFFFFFFF
310
FFFFFFFFFFFFFFFFFFFFFFFFFFFFFFFFFFFFFFFFFFFFFFFFFFFFFFFFFFFFFFFF
310
F000FFFFFFFFFFFFFFFFFFFFFFFFFFFFFFFFFFFFFFFFFFFFFFFFFFFFFFFFFFFF
310
FFFFFFFFFFFFFFFFFFFFFFFFFFFFFFFFFFFFFFFFFFFFFFFFFFFFFFFFFFFFFFFF
310
FFFFFFFFFFFFFFFFFFFFFFFFFFFFFFFFFFFFFFFFFFFFFFFFF000FFFFFFFFFFFF
310
FFFFFFFFFFFFFFFFFFFFFFFFFFFFFFFFFFFFFFFFFFFFFFFFFFFFFFFFFFFFFFFF
310
FFFFFFFFFFFFFFFFFFFFFFFFFFFFFFFFFFFFFFFFFFFFFFFFFFFFFFFFFFFFFFFF
310
FFFFFFFFFFFFFFFFFFFFFFFFFFFFFFFFF000FFFFFFFFFFFFFFFFFFFFFFFFFFFF
310
FFFFFFFFFFFFFFFFFFFFFFFFFFFFFFFFFFFFFFFFFFFFFFFFFFFFFFFFFFFFFFFF
310
FFFFFFFFFFFFFFFFFFFFFFFFFFFFFFFFFFFFFFFFFFFFFFFFFFFFFFFFFFFFFFFF
310
FFFFFFFFFFFFFFFFF000FFFFFFFFFFFFFFFFFFFFFFFFFFFFFFFFFFFFFFFFFFFF
310
FFFFFFFFFFFFFFFFFFFFFFFFFFFFFFFFFFFFFFFFFFFFFFFFFFFFFFFFFFFFFFFF
310
FFFFFFFFFFFFFFFFFFFFFFFFFFFFFFFFFFFFFFFFFFFFFFFFFFFFFFFFFFFFFFFF
310
F000FFFFFFFFFFFFFFFFFFFFFFFFFFFFFFFFFFFFFFFFFFFFFFFFFFFFFFFFFFFF
310
FFFFFFFFFFFFFFFFFFFFFFFFFFFFFFFFFFFFFFFFFFFFFFFFFFFFFFFFFFFFFFFF
310
FFFFFFFFFFFFFFFFFFFFFFFFFFFFFFFFFFFFFFFFFFFFFFFFF000FFFFFFFFFFFF
310
FFFFFFFFFFFFFFFFFFFFFFFFFFFFFFFFFFFFFFFFFFFFFFFFFFFFFFFFFFFFFFFF
310
FFFFFFFFFFFFFFFFFFFFFFFFFFFFFFFFFFFFFFFFFFFFFFFFFFFFFFFFFFFFFFFF
310
FFFFFFFFFFFFFFFFFFFFFFFFFFFFFFFFF000FFFFFFFFFFFFFFFFFFFFFFFFFFFF
310
FFFFFFFFFFFFFFFFFFFFFFFFFFFFFFFFFFFFFFFFFFFFFFFFFFFFFFFFFFFFFFFF
310
FFFFFFFFFFFFFFFFFFFFFFFFFFFFFFFFFFFFFFFFFFFFFFFFFFFFFFFFFFFFFFFF
310
FFFFFFFFFFFFFFFFF000FFFFFFFFFFFFFFFFFFFFFFFFFFFFFFFFFFFFFFFFFFFF
310
FFFFFFFFFFFFFFFFFFFFFFFFFFFFFFFFFFFFFFFFFFFFFFFFFFFFFFFFFFFFFFFF
310
FFFFFFFFFFFFFFFFFFFFFFFFFFFFFFFFFFFFFFFFFFFFFFFFFFFFFFFFFFFFFFFF
310
F000FFFFFFFFFFFFFFFFFFFFFFFFFFFFFFFFFFFFFFFFFFFFFFFFFFFFFFFFFFFF
310
FFFFFFFFFFFFFFFFFFFFFFFFFFFFFFFFFFFFFFFFFFFFFFFFFFFFFFFFFFFFFFFF
310
FFFFFFFFFFFFFFFFFFFFFFFFFFFFFFFFFFFFFFFFFFFFFFFFF000FFFFFFFFFFFF
310
FFFFFFFFFFFFFFFFFFFFFFFFFFFFFFFFFFFFFFFFFFFFFFFFFFFFFFFFFFFFFFFF
310
FFFFFFFFFFFFFFFFFFFFFFFFFFFFFFFFFFFFFFFFFFFFFFFFFFFFFFFFFFFFFFFF
310
FFFFFFFFFFFFFFFFFFFFFFFFFFFFFFFFF000FFFFFFFFFFFFFFFFFFFFFFFFFFFF
310
FFFFFFFFFFFFFFFFFFFFFFFFFFFFFFFFFFFFFFFFFFFFFFFFFFFFFFFFFFFFFFFF
310
FFFFFFFFFFFFFFFFFFFFFFFFFFFFFFFFFFFFFFFFFFFFFFFFFFFFFFFFFFFFFFFF
310
FFFFFFFFFFFFFFFFF000FFFFFFFFFFFFFFFFFFFFFFFFFFFFFFFFFFFFFFFFFFFF
310
FFFFFFFFFFFFFFFFFFFFFFFFFFFFFFFFFFFFFFFFFFFFFFFFFFFFFFFFFFFFFFFF
310
FFFFFFFFFFFFFFFFFFFFFFFFFFFFFFFFFFFFFFFFFFFFFFFFFFFFFFFFFFFFFFFF
310
F000FFFFFFFFFFFFFFFFFFFFFFFFFFFFFFFFFFFFFFFFFFFFFFFFFFFFFFFFFFFF
310
FFFFFFFFFFFFFFFFFFFFFFFFFFFFFFFFFFFFFFFFFFFFFFFFFFFFFFFFFFFFFFFF
310
FFFFFFFFFFFFFFFFFFFFFFFFFFFFFFFFFFFFFFFFFFFFFFFFF000FFFFFFFFFFFF
310
FFFFFFFFFFFFFFFFFFFFFFFFFFFFFFFFFFFFFFFFFFFFFFFFFFFFFFFFFFFFFFFF
310
FFFFFFFFFFFFFFFFFFFFFFFFFFFFFFFFFFFFFFFFFFFFFFFFFFFFFFFFFFFFFFFF
310
FFFFFFFFFFFFFFFFFFFFFFFFFFFFFFFFF000FFFFFFFFFFFFFFFFFFFFFFFFFFFF
310
FFFFFFFFFFFFFFFFFFFFFFFFFFFFFFFFFFFFFFFFFFFFFFFFFFFFFFFFFFFFFFFF
310
FFFFFFFFFFFFFFFFFFFFFFFFFFFFFFFFFFFFFFFFFFFFFFFFFFFFFFFFFFFFFFFF
310
FFFFFFFFFFFFFFFFF000FFFFF80003FFFFFFFFFFFFFFFFFFFFFFFFFFFFFFFFFF
310
FFFFF00007FFFFFFFFFF00007FFFFFF800000000000000007FFFFFFFFFFFFFFF
310
FFFFFFFC001FFFFFFFFFFFFFFC001FFFFFFFFFFFFFFFFFFFFFFFFFFE0007FFFF
310
F000FFFF8000007FFFFFFFF8000FFFFFC0007FFFFF80007FFFFF0000007FFFFF
310
FFF8000007FFFFF800000000000000007FFFFFF0001FFFFFFFFFFFC00001FFFF
310
FFFFFFFFC00001FFFFFFFF000000000003FFFFE000007FFFF000FFFE0000000F
310
FFFFFFF0000FFFFF80007FFFFF80007FFFFC0000001FFFFFFFC0000001FFFFF8
310
00000000000000007FFFFFF0001FFFFFFFFFFE0000003FFFFFFFFFFE0000003F
310
FFFFFF000000000003FFFF0000000FFFF000FFF800000003FFFFFFF00007FFFF
310
80007FFFFF80007FFFF000000007FFFFFF000000003FFFF80000000000000000
310
7FFFFFF0001FFFFFFFFFF80000000FFFFFFFFFF80000000FFFFFFF0000000000
310
03FFFC00000003FFF000FFE000000000FFFFFFF00007FFFF80003FFFFF80007F
310
FFC000000001FFFFFC000000001FFFF800000000000000007FFFFFF0001FFFFF
310
FFFFE000000003FFFFFFFFE000000003FFFFFF000000000003FFF000000000FF
310
F000FF80000000007FFFFFF00007FFFF80003FFFFF80007FFF8000000000FFFF
310
F80000000007FFF800000000000000007FFFFFF0001FFFFFFFFFC000000001FF
310
FFFFFFC000000001FFFFFF000000000003FFC0000000007FF000FF0000000000
310
3FFFFFE00007FFFF00003FFFFF80007FFE00000000003FFFF00000000003FFF8
310
00000000000000007FFFFFF0001FFFFFFFFF8000000000FFFFFFFF8000000000
310
FFFFFF000000000003FF80000000003FF000FE00000000001FFFFFE00003FFFF
310
00003FFFFF80007FFC00000000001FFFE00000000001FFF8000001FFFE000000
310
7FFFFFF0001FFFFFFFFE00000000003FFFFFFE00000000003FFFFF0000000000
310
03FF00000000001FF000FC00000000000FFFFFE00003FFFF00001FFFFF80007F
310
F800000000001FFFC00000000000FFF8000001FFFE0000007FFFFFF0001FFFFF
310
FFFC00000000001FFFFFFC00000000001FFFFF000000000003FE00000000000F
310
F000F8000000000007FFFFE00003FFFF00001FFFFF80007FF800000000000FFF
310
800000000000FFF8000001FFFE0000007FFFFFF0001FFFFFFFF800000000000F
310
FFFFF800000000000FFFFF000000000003FC000000000007F000F80000000000
310
03FFFFC00003FFFE00001FFFFF80007FF0000000000007FF0000000000007FF8
310
000001FFFE0000007FFFFFF0001FFFFFFFF0000000000007FFFFF00000000000
310
07FFFF000000000003F8000000000003F000F0000000000003FFFFC00001FFFE
310
00001FFFFF80007FE0000000000007FE0000000000003FF8000001FFFE000000
310
7FFFFFF0001FFFFFFFF0000000000007FFFFF0000000000007FFFF0000000000
310
03F800001F800003F000E00001FFF00001FFFFC00001FFFE00000FFFFF80007F
310
E00001FFE00003FE00001FFF00003FF8000001FFFE0000007FFFFFF0001FFFFF
310
FFE000003E000003FFFFE000003E000003FFFF000000000003F00001FFF80001
310
F000E00007FFFC0001FFFFC00001FFFE00000FFFFF80007FC0000FFFFC0003FC
310
0000FFFFC0001FF8000001FFFE0000007FFFFFF0001FFFFFFFC00003FFE00001
310
FFFFC00003FFE00001FFFF0001FFFFFFFFF00007FFFE0001F000E0000FFFFF00
310
00FFFF800001FFFC00000FFFFF80007FC0001FFFFE0001FC0001FFFFE0001FF8
310
000001FFFE0000007FFFFFF0001FFFFFFF80000FFFF80000FFFF80000FFFF800
310
00FFFF0003FFFFFFFFE0000FFFFF8000F000C0003FFFFF8000FFFF800000FFFC
310
000007FFFF80007F80003FFFFF0001FC0003FFFFF0001FF8000001FFFE000000
310
7FFFFFF0001FFFFFFF80003FFFFE0000FFFF80003FFFFE0000FFFF0003FFFFFF
310
FFE0003FFFFF8000F000C0003FFFFF8000FFFF800000FFFC000007FFFF80007F
310
80007FFFFF8001F80007FFFFF8000FF8000001FFFE0000007FFFFFF0001FFFFF
310
FF00007FFFFF00007FFF00007FFFFF00007FFF0003FFFFFFFFE0003FFFFFC000
310
F000C0007FFFFFC000FFFF000000FFFC000007FFFF80007F8000FFFFFF8000F8
310
000FFFFFF8000FF8000001FFFE0000007FFFFFF0001FFFFFFF0000FFFFFF8000
310
7FFF0000FFFFFF80007FFF0003FFFFFFFFC0007FFFFFC00070008000FFFFFFC0
310
00FFFF000000FFF8000007FFFF80007F8000FFFFFF8000F8000FFFFFF8000FF8
310
000001FFFE0000007FFFFFF0001FFFFFFE0001FFFFFFC0003FFE0001FFFFFFC0
310
003FFF0003FFFFFFFFC0007FFFFFE00070008000FFFFFFC0007FFF0000007FF8
310
000003FFFF80007F0001FFFFFF8000F8000FFFFFF8000FF8000001FFFE000000
310
7FFFFFF0001FFFFFFE0001FFFFFFC0003FFE0001FFFFFFC0003FFF0003FFFFFF
310
FFC000FFFFFFE00070008000FFFFFFC0007FFF0000007FF8000003FFFF80007F
310
0001FFFFFF8000F8001FFFFFF8000FF8000001FFFE0000007FFFFFF0001FFFFF
310
FE0003FFFFFFE0003FFE0003FFFFFFE0003FFF0003FFFFFFFFC000FFFFFFE000
310
70008000FFFFFFC0007FFE0000007FF8000003FFFF80007F0001FFFFFF8000F0
310
001FFFFFF8000FF8000001FFFE0000007FFFFFF0001FFFFFFC0003FFFFFFE000
310
1FFC0003FFFFFFE0001FFF0003FFFFFFFFC000FFFFFFC00070008000FFFFFF80
310
007FFE0000007FF0000003FFFF80007F0001FFFFFF0000F0001FFFFFF8000FF8
310
000001FFFE0000007FFFFFF0001FFFFFFC0007FFFFFFF0001FFC0007FFFFFFF0
310
001FFF0003FFFFFFFFC000FFFFFFC00070008001FFFFFF0000FFFE0000003FF0
310
000001FFFF80007F0001FFFFFF0000F8001FFFFFF0000FF8000001FFFE000000
310
7FFFFFF0001FFFFFFC0007FFFFFFF0001FFC0007FFFFFFF0001FFF0003FFFFFF
310
FFC001FFFFFF80007000FFFFFFFFFE0000FFFE0008003FF0008001FFFF80007F
310
FFFFFFFFFC0000FFFFFFFFFFE0000FF8000001FFFE0000007FFFFFF0001FFFFF
310
F8000FFFFFFFF8000FF8000FFFFFFFF8000FFF0003FFFFFFFFFFFFFFFFFF0000
310
7000FFFFFFFFFC0000FFFC0008003FF0008001FFFF80007FFFFFFFFFF80001FF
310
FFFFFFFF80000FF8000001FFFE0000007FFFFFF0001FFFFFF8000FFFFFFFF800
310
0FF8000FFFFFFFF8000FFF0003FFFFFFFFFFFFFFFFFE0000F000FFFFFFFFE000
310
00FFFC000C003FE000C001FFFF80007FFFFFFFFFC00001FFFFFFFFFE00001FF8
310
000001FFFE0000007FFFFFF0001FFFFFF8000FFFFFFFF8000FF8000FFFFFFFF8
310
000FFF0003FFFFFFFFFFFFFFFFF00000F000FFFFFFFE000001FFFC000C001FE0
310
00C000FFFF80007FFFFFFFFE000001FFFFFFFFE000001FF80FFFFFFFFFFFFFC0
310
7FFFFFF0001FFFFFF8000FFFFFFFF8000FF8000FFFFFFFF8000FFF0003FFFFFF
310
FFFFFFFFFF800000F000FFFFFFC0000001FFFC001C001FE001C000FFFF80007F
310
FFFFFF80000003FFFFFFF80000001FF80FFFFFFFFFFFFFC07FFFFFF0001FFFFF
310
F8001FFFFFFFFC000FF8001FFFFFFFFC000FFF0003FFFFFFFFFFFFFFF0000001
310
F000FFFFF800000001FFF8001C001FE001C000FFFF80007FFFFFF800000003FF
310
FFFF800000003FF80FFFFFFFFFFFFFC07FFFFFF0001FFFFFF8001FFFFFFFFC00
310
0FF8001FFFFFFFFC000FFF0003FFFFFFFFFFFFFE00000001F000FFFFC0000000
310
03FFF8001E001FC001E000FFFF80007FFFFF8000000007FFFFFC000000003FF8
310
0FFFFFFFFFFFFFC07FFFFFF0001FFFFFF8001FFFFFFFFC000FF8001FFFFFFFFC
310
000FFF0003FFFFFFFFFFFFE000000003F000FFFE0000000007FFF8001E000FC0
310
01E0007FFF80007FFFFE0000000007FFFFE0000000007FF80FFFFFFFFFFFFFC0
310
7FFFFFF0001FFFFFF0001FFFFFFFFC0007F0001FFFFFFFFC0007FF0003FFFFFF
310
FFFFFF0000000003F000FFF80000000007FFF8001E000FC003E0007FFF80007F
310
FFF0000000000FFFFF8000000000FFF80FFFFFFFFFFFFFC07FFFFFF0001FFFFF
310
F0001FFFFFFFFC0007F0001FFFFFFFFC0007FF0003FFFFFFFFFFFC0000000007
310
F000FFE0000000000FFFF0003E000FC003E0007FFF80007FFFC0000000001FFF
310
FE0000000001FFF80FFFFFFFFFFFFFC07FFFFFF0001FFFFFF0001FFFFFFFFC00
310
07F0001FFFFFFFFC0007FF0003FFFFFFFFFFF0000000000FF000FFC000000000
310
1FFFF0003F000F8003F0003FFF80007FFF80000000003FFFF80000000003FFF8
310
0FFFFFFFFFFFFFC07FFFFFF0001FFFFFF0001FFFFFFFFC0007F0001FFFFFFFFC
310
0007FF0003FFFFFFFFFFE0000000001FF000FF00000000007FFFF0003F000780
310
03F0003FFF80007FFF00000000007FFFF00000000007FFF80FFFFFFFFFFFFFC0
310
7FFFFFF0001FFFFFF0001FFFFFFFFC0007F0001FFFFFFFFC0007FF0003FFFFFF
310
FFFF80000000007FF000FE0000000000FFFFE0003F00078007F0003FFF80007F
310
FE0000000001FFFFE0000000001FFFF80FFFFFFFFFFFFFC07FFFFFF0001FFFFF
310
F0001FFFFFFFFC0007F0001FFFFFFFFC0007FF0003FFFFFFFFFF0000000000FF
310
F000FC0000000003FFFFE0007F00078007F0003FFF80007FFC0000000007FFFF
310
C0000000007FFFF80FFFFFFFFFFFFFC07FFFFFF0001FFFFFF8001FFFFFFFFC00
310
0FF8001FFFFFFFFC000FFF0003FFFFFFFFFE0000000003FFF000FC000000000F
310
FFFFE0007F80070007F8001FFF80007FF8000000001FFFFF8000000001FFFFF8
310
0FFFFFFFFFFFFFC07FFFFFF0001FFFFFF8001FFFFFFFFC000FF8001FFFFFFFFC
310
000FFF0003FFFFFFFFFC000000000FFFF000F8000000007FFFFFE0007F800700
310
07F8001FFF80007FF000000000FFFFFF800000000FFFFFF80FFFFFFFFFFFFFC0
310
7FFFFFF0001FFFFFF8000FFFFFFFF8000FF8000FFFFFFFF8000FFF0003FFFFFF
310
FFFC000000007FFFF000F800000007FFFFFFC0007F8003000FF8001FFF80007F
310
F000000007FFFFFF000000007FFFFFF80FFFFFFFFFFFFFC07FFFFFF0001FFFFF
310
F8000FFFFFFFF8000FF8000FFFFFFFF8000FFF0003FFFFFFFFF80000000FFFFF
310
F000F0000000FFFFFFFFC000FF8003000FF8001FFF80007FE0000000FFFFFFFF
310
0000000FFFFFFFF8000001FFFE0000007FFFFFF0001FFFFFF8000FFFFFFFF800
310
0FF8000FFFFFFFF8000FFF0003FFFFFFFFF8000000FFFFFFF000F000000FFFFF
310
FFFFC000FFC002000FF8000FFF80007FE000001FFFFFFFFE000001FFFFFFFFF8
310
000001FFFE0000007FFFFFF0001FFFFFF8000FFFFFFFF8000FF8000FFFFFFFF8
310
000FFF0003FFFFFFFFF000001FFFFFFFF000E00000FFFFFFFFFFC000FFC00200
310
0FFC000FFF80007FE00001FFFFFFFFFE00001FFFFFFFFFF8000001FFFE000000
310
7FFFFFF0001FFFFFFC000FFFFFFFF8001FFC000FFFFFFFF8001FFF0003FFFFFF
310
FFF00001FFFFFFFFF000E00007FFFFFFFFFF8000FFC000001FFC000FFF80007F
310
C0000FFFFFFFFFFE0000FFFFFFFFFFF8000001FFFE0000007FFFFFF0001FFFFF
310
FC0007FFFFFFF0001FFC0007FFFFFFF0001FFF0003FFFFFFFFF00007FFFFFFFF
310
F000E0001FFFFFFFFFFF8000FFC000001FFC000FFF80007FC0003FFFFFFFFFFE
310
0001FFFFFFFFFFF8000001FFFE0000007FFFFFF0001FFFFFFC0007FFFFFFF000
310
1FFC0007FFFFFFF0001FFF0003FFFFFFFFF0001FFFFFFFFFF000E0003FFFFF00
310
03FF8001FFE000001FFC0007FF80007FC0007FFFFF0007FC0003FFFFF0003FF8
310
000001FFFE0000007FFFFFF0001FFFFFFC0003FFFFFFE0001FFC0003FFFFFFE0
310
001FFF0003FFFFFFFFF0003FFFFFFFFFF000E0003FFFFF0001FF8001FFE00000
310
1FFE0007FF80007FC0007FFFFE0003FC0007FFFFE0003FF8000001FFFE000000
310
7FFFFFF0001FFFFFFE0003FFFFFFE0003FFE0003FFFFFFE0003FFF0003FFFFFF
310
FFF0003FFFFF8001F000E0003FFFFF0001FF0001FFE000001FFE0007FF80007F
310
C0007FFFFE0003FC0007FFFFE0003FF8000001FFFE0000007FFFFFF0001FFFFF
310
FE0001FFFFFFC0003FFE0001FFFFFFC0003FFF0003FFFFFFFFF0003FFFFF0001
310
F000E0003FFFFF0003FF0001FFE000003FFE0007FF80007FC0007FFFFE0003FC
310
0007FFFFE0003FF8000001FFFE0000007FFFFFF0001FFFFFFF0001FFFFFFC000
310
7FFF0001FFFFFFC0007FFF0003FFFFFFFFF0003FFFFF0001F000E0003FFFFE00
310
03FF0003FFF000003FFE0003FF80007FC0007FFFFC0003FE0007FFFFE0003FF8
310
000001FFFE0000007FFFFFF0001FFFFFFF0000FFFFFF80007FFF0000FFFFFF80
310
007FFF0003FFFFFFFFF0003FFFFF0001F000E0003FFFFE0003FF0003FFF00000
310
3FFF0003FF80007FC0007FFFFC0007FE0007FFFFC0003FF8000001FFFE000000
310
7FFFFFF0001FFFFFFF80007FFFFF0000FFFF80007FFFFF0000FFFF0003FFFFFF
310
FFF0003FFFFF0003F000E0003FFFFC0003FE0003FFF000003FFF0003FF80007F
310
E0003FFFF80007FE0003FFFFC0007FF8000001FFFE0000007FFFFFF0001FFFFF
310
FF80003FFFFE0000FFFF80003FFFFE0000FFFF0003FFFFFFFFF0001FFFFE0003
310
F000F0001FFFF80003FE0003FFF000007FFF0001FF80007FE0003FFFF00007FE
310
0001FFFF80007FF8000001FFFE0000007FFFFFF0001FFFFFFFC0000FFFF80001
310
FFFFC0000FFFF80001FFFF0003FFFFFFFFF0001FFFFC0003F000F0000FFFF000
310
07FE0007FFF800007FFF0001FF80007FE0001FFFE00007FF0000FFFE00007FF8
310
000001FFFE0000007FFFFFF0001FFFFFFFC00003FFE00001FFFFC00003FFE000
310
01FFFF0003FFFFFFFFF8000FFFF80003F000F00003FFC00007FC0007FFF80000
310
7FFF8001FF80007FF00007FF80000FFF00007FF80000FFF8000001FFFE000000
310
7F80000000000001FFE000003E000003FFFFE000003E000003FFFF0003FFFFFF
310
FFF80003FFE00007F000F800000000000FFC0007FFF800007FFF8001FF80007F
310
F000000000000FFF000000000000FFF8000001FFFE0000007F80000000000001
310
FFF0000000000007FFFFF0000000000007FFFF0003FFFFFFFFFC00007E000007
310
F000F800000000000FFC0007FFF80000FFFF8000FF80007FF800000000001FFF
310
800000000001FFF8000001FFFE0000007F80000000000001FFF800000000000F
310
FFFFF800000000000FFFFF0003FFFFFFFFFC00000000000FF000FC0000000000
310
1FFC0007FFFC0000FFFF8000FF80007FF800000000003FFFC00000000001FFF8
310
000001FFFE0000007F80000000000001FFF800000000000FFFFFF80000000000
310
0FFFFF0003FFFFFFFFFE00000000001FF000FE00000000003FF8000FFFFC0000
310
FFFF8000FF80007FFC00000000003FFFC00000000003FFF8000001FFFE000000
310
7F80000000000001FFFC00000000001FFFFFFC00000000001FFFFF0003FFFFFF
310
FFFF00000000001FF000FF00000000003FF8000FFFFC0000FFFFC000FF80007F
310
FE00000000007FFFE00000000007FFF8000001FFFE0000007F80000000000001
310
FFFE00000000003FFFFFFE00000000003FFFFF0003FFFFFFFFFF80000000003F
310
F000FF80000000007FF8000FFFFC0001FFFFC0007F80007FFF0000000000FFFF
310
F0000000000FFFF800000000000000007F80000000000001FFFF8000000000FF
310
FFFFFF8000000000FFFFFF0003FFFFFFFFFFC0000000007FF000FFC000000000
310
FFF8000FFFFE0001FFFFC0007F80007FFF8000000001FFFFF8000000001FFFF8
310
00000000000000007F80000000000001FFFFC000000001FFFFFFFFC000000001
310
FFFFFF0003FFFFFFFFFFE000000000FFF000FFE000000003FFF0001FFFFE0001
310
FFFFC0007F80007FFFC000000007FFFFFE000000003FFFF80000000000000000
310
7F80000000000001FFFFE000000003FFFFFFFFE000000003FFFFFF0003FFFFFF
310
FFFFF000000003FFF000FFF80000000FFFF0001FFFFE0001FFFFE0007F80007F
310
FFF00000000FFFFFFF00000000FFFFF800000000000000007F80000000000001
310
FFFFF80000000FFFFFFFFFF80000000FFFFFFF0003FFFFFFFFFFFC0000000FFF
310
F000FFFE0000003FFFF0001FFFFE0003FFFFE0003F80007FFFFC0000003FFFFF
310
FFC0000003FFFFF800000000000000007F80000000000001FFFFFE0000003FFF
310
FFFFFFFE0000003FFFFFFF0003FFFFFFFFFFFF0000003FFFF000FFFF800000FF
310
FFF0001FFFFF0003FFFFE0003F80007FFFFF000001FFFFFFFFF800001FFFFFF8
310
00000000000000007F80000000000001FFFFFFC00001FFFFFFFFFFFFC00001FF
310
FFFFFF0003FFFFFFFFFFFFC00000FFFFF000FFFFF8000FFFFFFFFFFFFFFFFFFF
310
FFFFFFFFFFFFFFFFFFFFF0001FFFFFFFFFFF0000FFFFFFF80000000000000000
310
7FFFFFFFFFFFFFFFFFFFFFFC001FFFFFFFFFFFFFFC001FFFFFFFFFFFFFFFFFFF
310
FFFFFFFC001FFFFFF000FFFFFFFFFFFFFFFFFFFFFFFFFFFFFFFFFFFFFFFFFFFF
310
FFFFFFFFFFFFFFFFFFFFFFFFFFFFFFFFFFFFFFFFFFFFFFFFFFFFFFFFFFFFFFFF
310
FFFFFFFFFFFFFFFFFFFFFFFFFFFFFFFFFFFFFFFFFFFFFFFFFFFFFFFFFFFFFFFF
310
F000FFFFFFFFFFFFFFFFFFFFFFFFFFFFFFFFFFFFFFFFFFFFFFFFFFFFFFFFFFFF
310
FFFFFFFFFFFFFFFFFFFFFFFFFFFFFFFFFFFFFFFFFFFFFFFFFFFFFFFFFFFFFFFF
310
FFFFFFFFFFFFFFFFFFFFFFFFFFFFFFFFFFFFFFFFFFFFFFFFF000FFFFFFFFFFFF
310
FFFFFFFFFFFFFFFFFFFFFFFFFFFFFFFFFFFFFFFFFFFFFFFFFFFFFFFFFFFFFFFF
310
FFFFFFFFFFFFFFFFFFFFFFFFFFFFFFFFFFFFFFFFFFFFFFFFFFFFFFFFFFFFFFFF
310
FFFFFFFFFFFFFFFFFFFFFFFFFFFFFFFFF000FFFFFFFFFFFFFFFFFFFFFFFFFFFF
310
FFFFFFFFFFFFFFFFFFFFFFFFFFFFFFFFFFFFFFFFFFFFFFFFFFFFFFFFFFFFFFFF
310
FFFFFFFFFFFFFFFFFFFFFFFFFFFFFFFFFFFFFFFFFFFFFFFFFFFFFFFFFFFFFFFF
310
FFFFFFFFFFFFFFFFF000FFFFFFFFFFFFFFFFFFFFFFFFFFFFFFFFFFFFFFFFFFFF
310
FFFFFFFFFFFFFFFFFFFFFFFFFFFFFFFFFFFFFFFFFFFFFFFFFFFFFFFFFFFFFFFF
310
FFFFFFFFFFFFFFFFFFFFFFFFFFFFFFFFFFFFFFFFFFFFFFFFFFFFFFFFFFFFFFFF
310
F000FFFFFFFFFFFFFFFFFFFFFFFFFFFFFFFFFFFFFFFFFFFFFFFFFFFFFFFFFFFF
310
FFFFFFFFFFFFFFFFFFFFFFFFFFFFFFFFFFFFFFFFFFFFFFFFFFFFFFFFFFFFFFFF
310
FFFFFFFFFFFFFFFFFFFFFFFFFFFFFFFFFFFFFFFFFFFFFFFFF000FFFFFFFFFFFF
310
FFFFFFFFFFFFFFFFFFFFFFFFFFFFFFFFFFFFFFFFFFFFFFFFFFFFFFFFFFFFFFFF
310
FFFFFFFFFFFFFFFFFFFFFFFFFFFFFFFFFFFFFFFFFFFFFFFFFFFFFFFFFFFFFFFF
310
FFFFFFFFFFFFFFFFFFFFFFFFFFFFFFFFF000FFFFFFFFFFFFFFFFFFFFFFFFFFFF
310
FFFFFFFFFFFFFFFFFFFFFFFFFFFFFFFFFFFFFFFFFFFFFFFFFFFFFFFFFFFFFFFF
310
FFFFFFFFFFFFFFFFFFFFFFFFFFFFFFFFFFFFFFFFFFFFFFFFFFFFFFFFFFFFFFFF
310
FFFFFFFFFFFFFFFFF000FFFFFFFFFFFFFFFFFFFFFFFFFFFFFFFFFFFFFFFFFFFF
310
FFFFFFFFFFFFFFFFFFFFFFFFFFFFFFFFFFFFFFFFFFFFFFFFFFFFFFFFFFFFFFFF
310
FFFFFFFFFFFFFFFFFFFFFFFFFFFFFFFFFFFFFFFFFFFFFFFFFFFFFFFFFFFFFFFF
310
F000FFFFFFFFFFFFFFFFFFFFFFFFFFFFFFFFFFFFFFFFFFFFFFFFFFFFFFFFFFFF
310
FFFFFFFFFFFFFFFFFFFFFFFFFFFFFFFFFFFFFFFFFFFFFFFFFFFFFFFFFFFFFFFF
310
FFFFFFFFFFFFFFFFFFFFFFFFFFFFFFFFFFFFFFFFFFFFFFFFF000FFFFFFFFFFFF
310
FFFFFFFFFFFFFFFFFFFFFFFFFFFFFFFFFFFFFFFFFFFFFFFFFFFFFFFFFFFFFFFF
310
FFFFFFFFFFFFFFFFFFFFFFFFFFFFFFFFFFFFFFFFFFFFFFFFFFFFFFFFFFFFFFFF
310
FFFFFFFFFFFFFFFFFFFFFFFFFFFFFFFFF000FFFFFFFFFFFFFFFFFFFFFFFFFFFF
310
FFFFFFFFFFFFFFFFFFFFFFFFFFFFFFFFFFFFFFFFFFFFFFFFFFFFFFFFFFFFFFFF
310
FFFFFFFFFFFFFFFFFFFFFFFFFFFFFFFFFFFFFFFFFFFFFFFFFFFFFFFFFFFFFFFF
310
FFFFFFFFFFFFFFFFF000FFFFFFFFFFFFFFFFFFFFFFFFFFFFFFFFFFFFFFFFFFFF
310
FFFFFFFFFFFFFFFFFFFFFFFFFFFFFFFFFFFFFFFFFFFFFFFFFFFFFFFFFFFFFFFF
310
FFFFFFFFFFFFFFFFFFFFFFFFFFFFFFFFFFFFFFFFFFFFFFFFFFFFFFFFFFFFFFFF
310
F000FFFFFFFFFFFFFFFFFFFFFFFFFFFFFFFFFFFFFFFFFFFFFFFFFFFFFFFFFFFF
310
FFFFFFFFFFFFFFFFFFFFFFFFFFFFFFFFFFFFFFFFFFFFFFFFFFFFFFFFFFFFFFFF
310
FFFFFFFFFFFFFFFFFFFFFFFFFFFFFFFFFFFFFFFFFFFFFFFFF000FFFFFFFFFFFF
310
FFFFFFFFFFFFFFFFFFFFFFFFFFFFFFFFFFFFFFFFFFFFFFFFFFFFFFFFFFFFFFFF
310
FFFFFFFFFFFFFFFFFFFFFFFFFFFFFFFFFFFFFFFFFFFFFFFFFFFFFFFFFFFFFFFF
310
FFFFFFFFFFFFFFFFFFFFFFFFFFFFFFFFF000FFFFFFFFFFFFFFFFFFFFFFFFFFFF
310
FFFFFFFFFFFFFFFFFFFFFFFFFFFFFFFFFFFFFFFFFFFFFFFFFFFFFFFFFFFFFFFF
310
FFFFFFFFFFFFFFFFFFFFFFFFFFFFFFFFFFFFFFFFFFFFFFFFFFFFFFFFFFFFFFFF
310
FFFFFFFFFFFFFFFFF000FFFFFFFFFFFFFFFFFFFFFFFFFFFFFFFFFFFFFFFFFFFF
310
FFFFFFFFFFFFFFFFFFFFFFFFFFFFFFFFFFFFFFFFFFFFFFFFFFFFFFFFFFFFFFFF
310
FFFFFFFFFFFFFFFFFFFFFFFFFFFFFFFFFFFFFFFFFFFFFFFFFFFFFFFFFFFFFFFF
310
F000FFFFFFFFFFFFFFFFFFFFFFFFFFFFFFFFFFFFFFFFFFFFFFFFFFFFFFFFFFFF
310
FFFFFFFFFFFFFFFFFFFFFFFFFFFFFFFFFFFFFFFFFFFFFFFFFFFFFFFFFFFFFFFF
310
FFFFFFFFFFFFFFFFFFFFFFFFFFFFFFFFFFFFFFFFFFFFFFFFF000FFFFFFFFFFFF
310
FFFFFFFFFFFFFFFFFFFFFFFFFFFFFFFFFFFFFFFFFFFFFFFFFFFFFFFFFFFFFFFF
310
FFFFFFFFFFFFFFFFFFFFFFFFFFFFFFFFFFFFFFFFFFFFFFFFFFFFFFFFFFFFFFFF
310
FFFFFFFFFFFFFFFFFFFFFFFFFFFFFFFFF000FFFFFFFFFFFFFFFFFFFFFFFFFFFF
310
FFFFFFFFFFFFFFFFFFFFFFFFFFFFFFFFFFFFFFFFFFFFFFFFFFFFFFFFFFFFFFFF
310
FFFFFFFFFFFFFFFFFFFFFFFFFFFFFFFFFFFFFFFFFFFFFFFFFFFFFFFFFFFFFFFF
310
FFFFFFFFFFFFFFFFF000FFFFFFFFFFFFFFFFFFFFFFFFFFFFFFFFFFFFFFFFFFFF
310
FFFFFFFFFFFFFFFFFFFFFFFFFFFFFFFFFFFFFFFFFFFFFFFFFFFFFFFFFFFFFFFF
310
FFFFFFFFFFFFFFFFFFFFFFFFFFFFFFFFFFFFFFFFFFFFFFFFFFFFFFFFFFFFFFFF
310
F000FFFFFFFFFFFFFFFFFFFFFFFFFFFFFFFFFFFFFFFFFFFFFFFFFFFFFFFFFFFF
310
FFFFFFFFFFFFFFFFFFFFFFFFFFFFFFFFFFFFFFFFFFFFFFFFFFFFFFFFFFFFFFFF
310
FFFFFFFFFFFFFFFFFFFFFFFFFFFFFFFFFFFFFFFFFFFFFFFFF000FFFFFFFFFFFF
310
FFFFFFFFFFFFFFFFFFFFFFFFFFFFFFFFFFFFFFFFFFFFFFFFFFFFFFFFFFFFFFFF
310
FFFFFFFFFFFFFFFFFFFFFFFFFFFFFFFFFFFFFFFFFFFFFFFFFFFFFFFFFFFFFFFF
310
FFFFFFFFFFFFFFFFFFFFFFFFFFFFFFFFF0000000000000000000000000000000
310
0000000000000000000000000000000000000000000000000000000000000000
310
0000000000000000000000000000000000000000000000000000000000000000
310
0000000000000000000000000000000000000000000000000000000000000000
310
0000000000000000000000000000000000000000000000000000000000000000
310
0000000000000000000000000000000000000000000000000000000000000000
310
0000000000000000000000000000000000000000000000000000000000000000
310
0000000000000000000000000000000000000000000000000000000000000000
310
0000000000000000000000000000000000000000000000000000000000000000
310
0000000000000000000000000000000000000000000000000000000000000000
310
0000000000000000000000000000000000000000000000000000000000000000
310
0000000000000000000000000000000000000000000000000000000000000000
310
0000000000000000000000000000000000000000000000000000000000000000
310
0000000000000000000000000000000000000000000000000000000000000000
310
0000000000000000000000000000000000000000000000000000000000000000
310
0000000000000000000000000000000000000000000000000000000000000000
  1
OLE
  0
ENDSEC
  0
SECTION
  2
OBJECTS
  0
DICTIONARY
  5
C
330
0
100
AcDbDictionary
281
     1
  3
ACAD_GROUP
350
D
  3
ACAD_LAYOUT
350
1A
  3
ACAD_MLINESTYLE
350
17
  3
ACAD_PLOTSETTINGS
350
19
  3
ACAD_PLOTSTYLENAME
350
E
  0
DICTIONARY
  5
D
102
{ACAD_REACTORS
330
C
102
}
330
C
100
AcDbDictionary
281
     1
  0
DICTIONARY
  5
1A
102
{ACAD_REACTORS
330
C
102
}
330
C
100
AcDbDictionary
281
     1
  3
Layout1
350
1E
  3
Layout2
350
26
  3
Model
350
22
  0
DICTIONARY
  5
17
102
{ACAD_REACTORS
330
C
102
}
330
C
100
AcDbDictionary
281
     1
  3
Standard
350
18
  0
DICTIONARY
  5
19
102
{ACAD_REACTORS
330
C
102
}
330
C
100
AcDbDictionary
281
     1
  0
ACDBDICTIONARYWDFLT
  5
E
102
{ACAD_REACTORS
330
C
102
}
330
C
100
AcDbDictionary
281
     1
  3
Normal
350
F
100
AcDbDictionaryWithDefault
340
F
  0
LAYOUT
  5
1E
102
{ACAD_REACTORS
330
1A
102
}
330
1A
100
AcDbPlotSettings
  1

  2
none_device
  4

  6

 40
0.0
 41
0.0
 42
0.0
 43
0.0
 44
0.0
 45
0.0
 46
0.0
 47
0.0
 48
0.0
 49
0.0
140
0.0
141
0.0
142
1.0
143
1.0
 70
   688
 72
     0
 73
     0
 74
     5
  7

 75
    16
147
1.0
148
0.0
149
0.0
100
AcDbLayout
  1
Layout1
 70
     1
 71
     1
 10
0.0
 20
0.0
 11
420.0
 21
297.0
 12
0.0
 22
0.0
 32
0.0
 14
1.0000000000E+20
 24
1.0000000000E+20
 34
1.0000000000E+20
 15
-1.0000000000E+20
 25
-1.0000000000E+20
 35
-1.0000000000E+20
146
0.0
 13
0.0
 23
0.0
 33
0.0
 16
1.0
 26
0.0
 36
0.0
 17
0.0
 27
1.0
 37
0.0
 76
     0
330
1B
  0
LAYOUT
  5
26
102
{ACAD_REACTORS
330
1A
102
}
330
1A
100
AcDbPlotSettings
  1

  2
none_device
  4

  6

 40
0.0
 41
0.0
 42
0.0
 43
0.0
 44
0.0
 45
0.0
 46
0.0
 47
0.0
 48
0.0
 49
0.0
140
0.0
141
0.0
142
1.0
143
1.0
 70
   688
 72
     0
 73
     0
 74
     5
  7

 75
    16
147
1.0
148
0.0
149
0.0
100
AcDbLayout
  1
Layout2
 70
     1
 71
     2
 10
0.0
 20
0.0
 11
0.0
 21
0.0
 12
0.0
 22
0.0
 32
0.0
 14
0.0
 24
0.0
 34
0.0
 15
0.0
 25
0.0
 35
0.0
146
0.0
 13
0.0
 23
0.0
 33
0.0
 16
1.0
 26
0.0
 36
0.0
 17
0.0
 27
1.0
 37
0.0
 76
     0
330
23
  0
LAYOUT
  5
22
102
{ACAD_REACTORS
330
1A
102
}
330
1A
100
AcDbPlotSettings
  1

  2
none_device
  4

  6

 40
0.0
 41
0.0
 42
0.0
 43
0.0
 44
0.0
 45
0.0
 46
0.0
 47
0.0
 48
0.0
 49
0.0
140
0.0
141
0.0
142
1.0
143
1.0
 70
  1712
 72
     0
 73
     0
 74
     0
  7

 75
     0
147
1.0
148
0.0
149
0.0
100
AcDbLayout
  1
Model
 70
     1
 71
     0
 10
0.0
 20
0.0
 11
297.0
 21
210.0
 12
0.0
 22
0.0
 32
0.0
 14
0.0
 24
0.0
 34
0.0
 15
297.0
 25
210.0
 35
0.0
146
0.0
 13
0.0
 23
0.0
 33
0.0
 16
1.0
 26
0.0
 36
0.0
 17
0.0
 27
1.0
 37
0.0
 76
     0
330
1F
331
29
  0
MLINESTYLE
  5
18
102
{ACAD_REACTORS
330
17
102
}
330
17
100
AcDbMlineStyle
  2
Standard
 70
     0
  3

 62
   256
 51
90.0
 52
90.0
 71
     2
 49
0.5
 62
   256
  6
BYLAYER
 49
-0.5
 62
   256
  6
BYLAYER
  0
ACDBPLACEHOLDER
  5
F
102
{ACAD_REACTORS
330
E
102
}
330
E
  0
ENDSEC
  0
EOF
