  0
SECTION
  2
HEADER
  9
$ACADVER
  1
AC1015
  9
$ACADMAINTVER
 70
     6
  9
$DWGCODEPAGE
  3
ANSI_1252
  9
$INSBASE
 10
0.0
 20
0.0
 30
0.0
  9
$EXTMIN
 10
0.0
 20
0.0
 30
0.0
  9
$EXTMAX
 10
297.0
 20
210.0
 30
0.0
  9
$LIMMIN
 10
0.0
 20
0.0
  9
$LIMMAX
 10
297.0
 20
210.0
  9
$ORTHOMODE
 70
     0
  9
$REGENMODE
 70
     1
  9
$FILLMODE
 70
     1
  9
$QTEXTMODE
 70
     0
  9
$MIRRTEXT
 70
     1
  9
$LTSCALE
 40
1.0
  9
$ATTMODE
 70
     1
  9
$TEXTSIZE
 40
2.0
  9
$TRACEWID
 40
1.0
  9
$TEXTSTYLE
  7
Standard
  9
$CLAYER
  8
0
  9
$CELTYPE
  6
ByLayer
  9
$CECOLOR
 62
   256
  9
$CELTSCALE
 40
1.0
  9
$DISPSILH
 70
     0
  9
$DIMSCALE
 40
1.0
  9
$DIMASZ
 40
3.0
  9
$DIMEXO
 40
0.0
  9
$DIMDLI
 40
3.75
  9
$DIMRND
 40
0.0
  9
$DIMDLE
 40
0.0
  9
$DIMEXE
 40
1.0
  9
$DIMTP
 40
0.0
  9
$DIMTM
 40
0.0
  9
$DIMTXT
 40
2.0
  9
$DIMCEN
 40
2.5
  9
$DIMTSZ
 40
0.0
  9
$DIMTOL
 70
     0
  9
$DIMLIM
 70
     0
  9
$DIMTIH
 70
     1
  9
$DIMTOH
 70
     1
  9
$DIMSE1
 70
     0
  9
$DIMSE2
 70
     0
  9
$DIMTAD
 70
     1
  9
$DIMZIN
 70
     0
  9
$DIMBLK
  1

  9
$DIMASO
 70
     1
  9
$DIMSHO
 70
     1
  9
$DIMPOST
  1

  9
$DIMAPOST
  1

  9
$DIMALT
 70
     0
  9
$DIMALTD
 70
     3
  9
$DIMALTF
 40
0.0393700787
  9
$DIMLFAC
 40
1.0
  9
$DIMTOFL
 70
     1
  9
$DIMTVP
 40
0.0
  9
$DIMTIX
 70
     0
  9
$DIMSOXD
 70
     0
  9
$DIMSAH
 70
     0
  9
$DIMBLK1
  1

  9
$DIMBLK2
  1

  9
$DIMSTYLE
  2
ISO-25
  9
$DIMCLRD
 70
     0
  9
$DIMCLRE
 70
     0
  9
$DIMCLRT
 70
     0
  9
$DIMTFAC
 40
1.0
  9
$DIMGAP
 40
1.524
  9
$DIMJUST
 70
     0
  9
$DIMSD1
 70
     0
  9
$DIMSD2
 70
     0
  9
$DIMTOLJ
 70
     0
  9
$DIMTZIN
 70
     0
  9
$DIMALTZ
 70
     0
  9
$DIMALTTZ
 70
     0
  9
$DIMUPT
 70
     0
  9
$DIMDEC
 70
     2
  9
$DIMTDEC
 70
     3
  9
$DIMALTU
 70
     2
  9
$DIMALTTD
 70
     3
  9
$DIMTXSTY
  7
Standard
  9
$DIMAUNIT
 70
     0
  9
$DIMADEC
 70
     2
  9
$DIMALTRND
 40
0.0
  9
$DIMAZIN
 70
     0
  9
$DIMDSEP
 70
    44
  9
$DIMATFIT
 70
     3
  9
$DIMFRAC
 70
     0
  9
$DIMLDRBLK
  1

  9
$DIMLUNIT
 70
     2
  9
$DIMLWD
 70
    -2
  9
$DIMLWE
 70
    -2
  9
$DIMTMOVE
 70
     0
  9
$LUNITS
 70
     2
  9
$LUPREC
 70
     2
  9
$SKETCHINC
 40
1.0
  9
$FILLETRAD
 40
10.0
  9
$AUNITS
 70
     0
  9
$AUPREC
 70
     2
  9
$MENU
  1
.
  9
$ELEVATION
 40
0.0
  9
$PELEVATION
 40
0.0
  9
$THICKNESS
 40
0.0
  9
$LIMCHECK
 70
     0
  9
$CHAMFERA
 40
10.0
  9
$CHAMFERB
 40
10.0
  9
$CHAMFERC
 40
20.0
  9
$CHAMFERD
 40
0.0
  9
$SKPOLY
 70
     0
  9
$TDCREATE
 40
2456072.326796597
  9
$TDUCREATE
 40
2456072.243463264
  9
$TDUPDATE
 40
2456072.326798217
  9
$TDUUPDATE
 40
2456072.243464884
  9
$TDINDWG
 40
0.0000000116
  9
$TDUSRTIMER
 40
0.0000000116
  9
$USRTIMER
 70
     1
  9
$ANGBASE
 50
0.0
  9
$ANGDIR
 70
     0
  9
$PDMODE
 70
     0
  9
$PDSIZE
 40
-1.0
  9
$PLINEWID
 40
0.0
  9
$SPLFRAME
 70
     0
  9
$SPLINETYPE
 70
     6
  9
$SPLINESEGS
 70
     8
  9
$HANDSEED
  5
25D
  9
$SURFTAB1
 70
     6
  9
$SURFTAB2
 70
     6
  9
$SURFTYPE
 70
     6
  9
$SURFU
 70
     6
  9
$SURFV
 70
     6
  9
$UCSBASE
  2

  9
$UCSNAME
  2

  9
$UCSORG
 10
0.0
 20
0.0
 30
0.0
  9
$UCSXDIR
 10
1.0
 20
0.0
 30
0.0
  9
$UCSYDIR
 10
0.0
 20
1.0
 30
0.0
  9
$UCSORTHOREF
  2

  9
$UCSORTHOVIEW
 70
     0
  9
$UCSORGTOP
 10
0.0
 20
0.0
 30
0.0
  9
$UCSORGBOTTOM
 10
0.0
 20
0.0
 30
0.0
  9
$UCSORGLEFT
 10
0.0
 20
0.0
 30
0.0
  9
$UCSORGRIGHT
 10
0.0
 20
0.0
 30
0.0
  9
$UCSORGFRONT
 10
0.0
 20
0.0
 30
0.0
  9
$UCSORGBACK
 10
0.0
 20
0.0
 30
0.0
  9
$PUCSBASE
  2

  9
$PUCSNAME
  2

  9
$PUCSORG
 10
0.0
 20
0.0
 30
0.0
  9
$PUCSXDIR
 10
1.0
 20
0.0
 30
0.0
  9
$PUCSYDIR
 10
0.0
 20
1.0
 30
0.0
  9
$PUCSORTHOREF
  2

  9
$PUCSORTHOVIEW
 70
     0
  9
$PUCSORGTOP
 10
0.0
 20
0.0
 30
0.0
  9
$PUCSORGBOTTOM
 10
0.0
 20
0.0
 30
0.0
  9
$PUCSORGLEFT
 10
0.0
 20
0.0
 30
0.0
  9
$PUCSORGRIGHT
 10
0.0
 20
0.0
 30
0.0
  9
$PUCSORGFRONT
 10
0.0
 20
0.0
 30
0.0
  9
$PUCSORGBACK
 10
0.0
 20
0.0
 30
0.0
  9
$USERI1
 70
     0
  9
$USERI2
 70
     0
  9
$USERI3
 70
     0
  9
$USERI4
 70
     0
  9
$USERI5
 70
     0
  9
$USERR1
 40
0.0
  9
$USERR2
 40
0.0
  9
$USERR3
 40
0.0
  9
$USERR4
 40
0.0
  9
$USERR5
 40
0.0
  9
$WORLDVIEW
 70
     1
  9
$SHADEDGE
 70
     3
  9
$SHADEDIF
 70
    70
  9
$TILEMODE
 70
     1
  9
$MAXACTVP
 70
    64
  9
$PINSBASE
 10
0.0
 20
0.0
 30
0.0
  9
$PLIMCHECK
 70
     0
  9
$PEXTMIN
 10
1.0000000000E+20
 20
1.0000000000E+20
 30
1.0000000000E+20
  9
$PEXTMAX
 10
-1.0000000000E+20
 20
-1.0000000000E+20
 30
-1.0000000000E+20
  9
$PLIMMIN
 10
0.0
 20
0.0
  9
$PLIMMAX
 10
420.0
 20
297.0
  9
$UNITMODE
 70
     0
  9
$VISRETAIN
 70
     1
  9
$PLINEGEN
 70
     0
  9
$PSLTSCALE
 70
     1
  9
$TREEDEPTH
 70
  3020
  9
$CMLSTYLE
  2
Standard
  9
$CMLJUST
 70
     0
  9
$CMLSCALE
 40
20.0
  9
$PROXYGRAPHICS
 70
     1
  9
$MEASUREMENT
 70
     1
  9
$CELWEIGHT
370
    -1
  9
$ENDCAPS
280
     0
  9
$JOINSTYLE
280
     0
  9
$LWDISPLAY
290
     1
  9
$INSUNITS
 70
     4
  9
$HYPERLINKBASE
  1

  9
$STYLESHEET
  1

  9
$XEDIT
290
     1
  9
$CEPSNTYPE
380
     0
  9
$PSTYLEMODE
290
     1
  9
$FINGERPRINTGUID
  2
{B2140094-3AF1-47CC-BD9E-4BB7639A361B}
  9
$VERSIONGUID
  2
{FAEB1C32-E019-11D5-929B-00C0DF256EC4}
  9
$EXTNAMES
290
     1
  9
$PSVPSCALE
 40
0.0
  9
$OLESTARTUP
290
     0
  0
ENDSEC
  0
SECTION
  2
CLASSES
  0
CLASS
  1
ACDBDICTIONARYWDFLT
  2
AcDbDictionaryWithDefault
  3
ObjectDBX Classes
 90
        0
280
     0
281
     0
  0
CLASS
  1
VISUALSTYLE
  2
AcDbVisualStyle
  3
ObjectDBX Classes
 90
     4095
280
     0
281
     0
  0
CLASS
  1
MATERIAL
  2
AcDbMaterial
  3
ObjectDBX Classes
 90
     1153
280
     0
281
     0
  0
CLASS
  1
ACDBPLACEHOLDER
  2
AcDbPlaceHolder
  3
ObjectDBX Classes
 90
        0
280
     0
281
     0
  0
CLASS
  1
LAYOUT
  2
AcDbLayout
  3
ObjectDBX Classes
 90
        0
280
     0
281
     0
  0
ENDSEC
  0
SECTION
  2
TABLES
  0
TABLE
  2
VPORT
  5
8
330
0
100
AcDbSymbolTable
 70
     1
  0
VPORT
  5
29
330
8
100
AcDbSymbolTableRecord
100
AcDbViewportTableRecord
  2
*Active
 70
     0
 10
0.0
 20
0.0
 11
1.0
 21
1.0
 12
148.5
 22
105.0
 13
0.0
 23
0.0
 14
10.0
 24
10.0
 15
10.0
 25
10.0
 16
0.0
 26
0.0
 36
1.0
 17
0.0
 27
0.0
 37
0.0
 40
210.0
 41
1.4142857143
 42
50.0
 43
0.0
 44
0.0
 50
0.0
 51
0.0
 71
     0
 72
  2000
 73
     1
 74
     3
 75
     0
 76
     0
 77
     0
 78
     0
281
     0
 65
     1
110
0.0
120
0.0
130
0.0
111
1.0
121
0.0
131
0.0
112
0.0
122
1.0
132
0.0
 79
     0
146
0.0
  0
ENDTAB
  0
TABLE
  2
LTYPE
  5
5
330
0
100
AcDbSymbolTable
 70
     6
  0
LTYPE
  5
14
330
5
100
AcDbSymbolTableRecord
100
AcDbLinetypeTableRecord
  2
ByBlock
 70
     0
  3

 72
    65
 73
     0
 40
0.0
  0
LTYPE
  5
15
330
5
100
AcDbSymbolTableRecord
100
AcDbLinetypeTableRecord
  2
ByLayer
 70
     0
  3

 72
    65
 73
     0
 40
0.0
  0
LTYPE
  5
16
330
5
100
AcDbSymbolTableRecord
100
AcDbLinetypeTableRecord
  2
Continuous
 70
     0
  3
Solid line
 72
    65
 73
     0
 40
0.0
  0
LTYPE
  5
3F
330
5
100
AcDbSymbolTableRecord
100
AcDbLinetypeTableRecord
  2
HIDDEN
 70
     0
  3
Hidden __ __ __ __ __ __ __ __ __ __ __ __ __ __
 72
    65
 73
     2
 40
1.905
 49
1.27
 74
     0
 49
-0.635
 74
     0
  0
LTYPE
  5
40
330
5
100
AcDbSymbolTableRecord
100
AcDbLinetypeTableRecord
  2
PHANTOM
 70
     0
  3
Phantom ______  __  __  ______  __  __  ______
 72
    65
 73
     6
 40
12.7
 49
6.35
 74
     0
 49
-1.27
 74
     0
 49
1.27
 74
     0
 49
-1.27
 74
     0
 49
1.27
 74
     0
 49
-1.27
 74
     0
  0
LTYPE
  5
41
330
5
100
AcDbSymbolTableRecord
100
AcDbLinetypeTableRecord
  2
CENTER
 70
     0
  3
Center ____ _ ____ _ ____ _ ____ _ ____ _ ____
 72
    65
 73
     4
 40
10.16
 49
6.35
 74
     0
 49
-1.27
 74
     0
 49
1.27
 74
     0
 49
-1.27
 74
     0
  0
LTYPE
  5
42
330
5
100
AcDbSymbolTableRecord
100
AcDbLinetypeTableRecord
  2
CENTERX2
 70
     0
  3
Center (2x) ________  __  ________  __  _____
 72
    65
 73
     4
 40
20.32
 49
12.7
 74
     0
 49
-2.54
 74
     0
 49
2.54
 74
     0
 49
-2.54
 74
     0
  0
LTYPE
  5
43
330
5
100
AcDbSymbolTableRecord
100
AcDbLinetypeTableRecord
  2
DOT2
 70
     0
  3
Dot (.5x) ........................................
 72
    65
 73
     2
 40
0.635
 49
0.0
 74
     0
 49
-0.635
 74
     0
  0
ENDTAB
  0
TABLE
  2
LAYER
  5
2
330
0
100
AcDbSymbolTable
 70
     5
  0
LAYER
  5
10
330
2
100
AcDbSymbolTableRecord
100
AcDbLayerTableRecord
  2
0
 70
     0
 62
     7
  6
Continuous
370
    -3
390
F
  0
LAYER
  5
44
330
2
100
AcDbSymbolTableRecord
100
AcDbLayerTableRecord
  2
FORMAT
 70
     0
 62
     7
  6
Continuous
370
    -3
390
F
  0
LAYER
  5
45
330
2
100
AcDbSymbolTableRecord
100
AcDbLayerTableRecord
  2
VERMASSUNG
 70
     0
 62
     7
  6
Continuous
370
    -3
390
F
  0
LAYER
  5
46
330
2
100
AcDbSymbolTableRecord
100
AcDbLayerTableRecord
  2
KOPF_DÜNN
 70
     0
 62
     7
  6
Continuous
370
    -3
390
F
  0
LAYER
  5
47
330
2
100
AcDbSymbolTableRecord
100
AcDbLayerTableRecord
  2
KOPF_DICK
 70
     0
 62
     7
  6
Continuous
370
    15
390
F
  0
ENDTAB
  0
TABLE
  2
STYLE
  5
3
330
0
100
AcDbSymbolTable
 70
     2
  0
STYLE
  5
11
330
3
100
AcDbSymbolTableRecord
100
AcDbTextStyleTableRecord
  2
Standard
 70
     0
 40
0.0
 41
1.0
 50
0.0
 71
     0
 42
2.0
  3
txt
  4

  0
STYLE
  5
48
330
3
100
AcDbSymbolTableRecord
100
AcDbTextStyleTableRecord
  2
SLDTEXTSTYLE0
 70
     0
 40
0.0
 41
0.7
 50
0.0
 71
     0
 42
0.2
  3
TXT
  4

  0
ENDTAB
  0
TABLE
  2
VIEW
  5
6
330
0
100
AcDbSymbolTable
 70
     0
  0
ENDTAB
  0
TABLE
  2
UCS
  5
7
330
0
100
AcDbSymbolTable
 70
     0
  0
ENDTAB
  0
TABLE
  2
APPID
  5
9
330
0
100
AcDbSymbolTable
 70
     1
  0
APPID
  5
12
330
9
100
AcDbSymbolTableRecord
100
AcDbRegAppTableRecord
  2
ACAD
 70
     0
  0
ENDTAB
  0
TABLE
  2
DIMSTYLE
  5
A
330
0
100
AcDbSymbolTable
 70
     5
100
AcDbDimStyleTable
  0
DIMSTYLE
105
27
330
A
100
AcDbSymbolTableRecord
100
AcDbDimStyleTableRecord
  2
ISO-25
 70
     0
 41
2.5
 42
0.625
 43
3.75
 44
1.25
 73
     0
 74
     0
 77
     1
 78
     8
140
2.5
141
2.5
143
0.0393700787
147
0.625
171
     3
172
     1
178
     0
271
     2
272
     2
274
     3
278
    44
283
     0
284
     8
340
11
  0
DIMSTYLE
105
1A9
102
{ACAD_REACTORS
330
1A8
102
}
330
A
100
AcDbSymbolTableRecord
100
AcDbDimStyleTableRecord
  2
SLDDIMSTYLE0
 70
     0
 41
3.0
 44
0.0
 73
     0
 74
     0
 77
     1
 78
    12
 79
     3
140
2.0
147
0.5
173
     1
178
     0
179
     2
272
     3
276
     2
284
    12
340
48
  0
DIMSTYLE
105
1B2
102
{ACAD_REACTORS
330
1B1
330
1BE
102
}
330
A
100
AcDbSymbolTableRecord
100
AcDbDimStyleTableRecord
  2
SLDDIMSTYLE1
 70
     0
 41
3.0
 44
0.0
 45
0.000000001
 47
0.1
 48
0.1
 71
     1
 73
     0
 74
     0
 77
     1
 78
    12
 79
     3
140
2.0
147
0.5
173
     1
178
     0
271
     2
272
     1
276
     2
284
     8
340
48
  0
DIMSTYLE
105
1CB
102
{ACAD_REACTORS
330
1CA
330
1D5
102
}
330
A
100
AcDbSymbolTableRecord
100
AcDbDimStyleTableRecord
  2
SLDDIMSTYLE2
 70
     0
 41
3.0
 44
0.0
 45
0.000000001
 73
     0
 74
     0
 77
     1
 78
    12
 79
     3
140
2.0
147
0.5
173
     1
178
     0
271
     2
272
     3
276
     2
284
    12
340
48
  0
DIMSTYLE
105
242
102
{ACAD_REACTORS
330
241
102
}
330
A
100
AcDbSymbolTableRecord
100
AcDbDimStyleTableRecord
  2
SLDDIMSTYLE3
 70
     0
 41
3.0
 44
0.0
 45
0.000000001
 73
     0
 74
     0
 77
     1
 78
    12
 79
     3
140
2.0
147
0.5
172
     1
173
     1
178
     0
271
     2
272
     3
276
     2
284
    12
289
     0
340
48
  0
ENDTAB
  0
TABLE
  2
BLOCK_RECORD
  5
1
330
0
100
AcDbSymbolTable
 70
     8
  0
BLOCK_RECORD
  5
1F
330
1
100
AcDbSymbolTableRecord
100
AcDbBlockTableRecord
  2
*Model_Space
340
22
  0
BLOCK_RECORD
  5
1B
330
1
100
AcDbSymbolTableRecord
100
AcDbBlockTableRecord
  2
*Paper_Space
340
1E
  0
BLOCK_RECORD
  5
23
330
1
100
AcDbSymbolTableRecord
100
AcDbBlockTableRecord
  2
*Paper_Space0
340
26
  0
BLOCK_RECORD
  5
1AA
330
1
100
AcDbSymbolTableRecord
100
AcDbBlockTableRecord
  2
_D
340
0
  0
BLOCK_RECORD
  5
1B3
330
1
100
AcDbSymbolTableRecord
100
AcDbBlockTableRecord
  2
_D_1
340
0
  0
BLOCK_RECORD
  5
1BF
330
1
100
AcDbSymbolTableRecord
100
AcDbBlockTableRecord
  2
_D_2
340
0
  0
BLOCK_RECORD
  5
1CC
330
1
100
AcDbSymbolTableRecord
100
AcDbBlockTableRecord
  2
_D_3
340
0
  0
BLOCK_RECORD
  5
1D6
330
1
100
AcDbSymbolTableRecord
100
AcDbBlockTableRecord
  2
_D_4
340
0
  0
BLOCK_RECORD
  5
243
330
1
100
AcDbSymbolTableRecord
100
AcDbBlockTableRecord
  2
_D_5
340
0
  0
BLOCK_RECORD
  5
250
330
1
100
AcDbSymbolTableRecord
100
AcDbBlockTableRecord
  2
SW_CENTERMARKSYMBOL_0
340
0
102
{BLKREFS
331
25B
102
}
  0
ENDTAB
  0
ENDSEC
  0
SECTION
  2
BLOCKS
  0
BLOCK
  5
20
330
1F
100
AcDbEntity
  8
0
100
AcDbBlockBegin
  2
*Model_Space
 70
     0
 10
0.0
 20
0.0
 30
0.0
  3
*Model_Space
  1

  0
ENDBLK
  5
21
330
1F
100
AcDbEntity
  8
0
100
AcDbBlockEnd
  0
BLOCK
  5
1C
330
1B
100
AcDbEntity
 67
     1
  8
0
100
AcDbBlockBegin
  2
*Paper_Space
 70
     0
 10
0.0
 20
0.0
 30
0.0
  3
*Paper_Space
  1

  0
ENDBLK
  5
1D
330
1B
100
AcDbEntity
 67
     1
  8
0
100
AcDbBlockEnd
  0
BLOCK
  5
24
330
23
100
AcDbEntity
  8
0
100
AcDbBlockBegin
  2
*Paper_Space0
 70
     0
 10
0.0
 20
0.0
 30
0.0
  3
*Paper_Space0
  1

  0
ENDBLK
  5
25
330
23
100
AcDbEntity
  8
0
100
AcDbBlockEnd
  0
BLOCK
  5
1AB
330
1AA
100
AcDbEntity
  8
0
100
AcDbBlockBegin
  2
_D
 70
     0
 10
0.0
 20
0.0
 30
0.0
  3
_D
  1

  0
ARC
  5
1AD
330
1AA
100
AcDbEntity
  8
VERMASSUNG
100
AcDbCircle
 10
240.4861404818
 20
90.3428122082
 30
0.0
 40
10.19258936095266
100
AcDbArc
 50
152.7203307484
 51
270.0
  0
SOLID
  5
1AE
330
1AA
100
AcDbEntity
  8
VERMASSUNG
100
AcDbTrace
 10
231.427171692
 20
95.0144246009
 30
0.0
 11
230.021263888
 21
92.3263168563
 31
0.0
 12
230.87182445
 22
92.0321285994
 32
0.0
 13
230.87182445
 23
92.0321285994
 33
0.0
  0
SOLID
  5
1AF
330
1AA
100
AcDbEntity
  8
VERMASSUNG
100
AcDbTrace
 10
240.4861404818
 20
80.1502228472
 30
0.0
 11
237.581001031
 21
81.0235296499
 31
0.0
 12
237.4526286442
 22
80.1327319567
 32
0.0
 13
237.4526286442
 23
80.1327319567
 33
0.0
  0
MTEXT
  5
1B0
330
1AA
100
AcDbEntity
  8
VERMASSUNG
100
AcDbMText
 10
231.7983131392
 20
89.9665616352
 30
0.1
 40
2.0
 41
0.0
 71
     1
 72
     1
  1
117.5°
  7
SLDTEXTSTYLE0
 11
0.5204160787235346
 21
-0.853912820495172
 31
0.0
 73
     1
 44
1.0
  0
ENDBLK
  5
1AC
330
1AA
100
AcDbEntity
  8
0
100
AcDbBlockEnd
  0
BLOCK
  5
1B4
330
1B3
100
AcDbEntity
  8
0
100
AcDbBlockBegin
  2
_D_1
 70
     0
 10
0.0
 20
0.0
 30
0.0
  3
_D_1
  1

  0
SOLID
  5
1B6
330
1B3
100
AcDbEntity
  8
VERMASSUNG
100
AcDbTrace
 10
180.4861404818
 20
74.3914091415
 30
0.0
 11
183.4861404818
 21
73.9414091415
 31
0.0
 12
183.4861404818
 22
74.8414091415
 32
0.0
 13
183.4861404818
 23
74.8414091415
 33
0.0
  0
SOLID
  5
1B7
330
1B3
100
AcDbEntity
  8
VERMASSUNG
100
AcDbTrace
 10
240.4861404818
 20
74.3914091415
 30
0.0
 11
237.4861404818
 21
74.8414091415
 31
0.0
 12
237.4861404818
 22
73.9414091415
 32
0.0
 13
237.4861404818
 23
73.9414091415
 33
0.0
  0
LINE
  5
1B8
330
1B3
100
AcDbEntity
  8
VERMASSUNG
100
AcDbLine
 10
180.4861404818
 20
100.8994093254
 30
0.0
 11
180.4861404818
 21
73.3914091415
 31
0.0
  0
LINE
  5
1B9
330
1B3
100
AcDbEntity
  8
VERMASSUNG
100
AcDbLine
 10
240.4861404818
 20
90.5994093254
 30
0.0
 11
240.4861404818
 21
73.3914091415
 31
0.0
  0
LINE
  5
1BA
330
1B3
100
AcDbEntity
  8
VERMASSUNG
100
AcDbLine
 10
180.4861404818
 20
74.3914091415
 30
0.0
 11
240.4861404818
 21
74.3914091415
 31
0.0
  0
MTEXT
  5
1BB
330
1B3
100
AcDbEntity
  8
VERMASSUNG
100
AcDbMText
 10
205.9361402947
 20
76.9695445046
 30
0.1
 40
2.0
 41
0.0
 71
     1
 72
     1
  1
60
  7
SLDTEXTSTYLE0
 73
     1
 44
1.0
  0
MTEXT
  5
1BC
330
1B3
100
AcDbEntity
  8
VERMASSUNG
100
AcDbMText
 10
211.7236403968
 20
76.9695445046
 30
0.1
 40
2.0
 41
0.0
 71
     1
 72
     1
  1

  7
SLDTEXTSTYLE0
 73
     1
 44
1.0
  0
MTEXT
  5
1BD
330
1B3
100
AcDbEntity
  8
VERMASSUNG
100
AcDbMText
 10
211.7361406866
 20
76.4750106419
 30
0.1
 40
1.5
 41
0.0
 71
     1
 72
     1
  1
±0.1
  7
SLDTEXTSTYLE0
 73
     1
 44
1.0
  0
ENDBLK
  5
1B5
330
1B3
100
AcDbEntity
  8
0
100
AcDbBlockEnd
  0
BLOCK
  5
1C0
330
1BF
100
AcDbEntity
  8
0
100
AcDbBlockBegin
  2
_D_2
 70
     0
 10
0.0
 20
0.0
 30
0.0
  3
_D_2
  1

  0
SOLID
  5
1C2
330
1BF
100
AcDbEntity
  8
VERMASSUNG
100
AcDbTrace
 10
254.7429498419
 20
90.5994093254
 30
0.0
 11
255.1929498419
 21
93.5994093254
 31
0.0
 12
254.2929498419
 22
93.5994093254
 32
0.0
 13
254.2929498419
 23
93.5994093254
 33
0.0
  0
SOLID
  5
1C3
330
1BF
100
AcDbEntity
  8
VERMASSUNG
100
AcDbTrace
 10
254.7429498419
 20
125.5994093254
 30
0.0
 11
254.2929498419
 21
122.5994093254
 31
0.0
 12
255.1929498419
 22
122.5994093254
 32
0.0
 13
255.1929498419
 23
122.5994093254
 33
0.0
  0
LINE
  5
1C4
330
1BF
100
AcDbEntity
  8
VERMASSUNG
100
AcDbLine
 10
240.4861404818
 20
90.5994093254
 30
0.0
 11
255.7429498419
 21
90.5994093254
 31
0.0
  0
LINE
  5
1C5
330
1BF
100
AcDbEntity
  8
VERMASSUNG
100
AcDbLine
 10
240.4861404818
 20
125.5994093254
 30
0.0
 11
255.7429498419
 21
125.5994093254
 31
0.0
  0
LINE
  5
1C6
330
1BF
100
AcDbEntity
  8
VERMASSUNG
100
AcDbLine
 10
254.7429498419
 20
90.5994093254
 30
0.0
 11
254.7429498419
 21
125.5994093254
 31
0.0
  0
MTEXT
  5
1C7
330
1BF
100
AcDbEntity
  8
VERMASSUNG
100
AcDbMText
 10
252.1648144787
 20
103.5494091383
 30
0.1
 40
2.0
 41
0.0
 71
     1
 72
     1
  1
35
  7
SLDTEXTSTYLE0
 11
6.123233995736766E-17
 21
1.0
 31
0.0
 73
     1
 44
1.0
  0
MTEXT
  5
1C8
330
1BF
100
AcDbEntity
  8
VERMASSUNG
100
AcDbMText
 10
252.1648144787
 20
109.3369092404
 30
0.1
 40
2.0
 41
0.0
 71
     1
 72
     1
  1

  7
SLDTEXTSTYLE0
 11
6.123233995736766E-17
 21
1.0
 31
0.0
 73
     1
 44
1.0
  0
MTEXT
  5
1C9
330
1BF
100
AcDbEntity
  8
VERMASSUNG
100
AcDbMText
 10
252.6593483415
 20
109.3494095302
 30
0.1
 40
1.5
 41
0.0
 71
     1
 72
     1
  1
±0.1
  7
SLDTEXTSTYLE0
 11
6.123233995736766E-17
 21
1.0
 31
0.0
 73
     1
 44
1.0
  0
ENDBLK
  5
1C1
330
1BF
100
AcDbEntity
  8
0
100
AcDbBlockEnd
  0
BLOCK
  5
1CD
330
1CC
100
AcDbEntity
  8
0
100
AcDbBlockBegin
  2
_D_3
 70
     0
 10
0.0
 20
0.0
 30
0.0
  3
_D_3
  1

  0
SOLID
  5
1CF
330
1CC
100
AcDbEntity
  8
VERMASSUNG
100
AcDbTrace
 10
150.4861404818
 20
68.3914091415
 30
0.0
 11
153.4861404818
 21
67.9414091415
 31
0.0
 12
153.4861404818
 22
68.8414091415
 32
0.0
 13
153.4861404818
 23
68.8414091415
 33
0.0
  0
SOLID
  5
1D0
330
1CC
100
AcDbEntity
  8
VERMASSUNG
100
AcDbTrace
 10
240.4861404818
 20
68.3914091415
 30
0.0
 11
237.4861404818
 21
68.8414091415
 31
0.0
 12
237.4861404818
 22
67.9414091415
 32
0.0
 13
237.4861404818
 23
67.9414091415
 33
0.0
  0
LINE
  5
1D1
330
1CC
100
AcDbEntity
  8
VERMASSUNG
100
AcDbLine
 10
150.4861404818
 20
109.6060834872
 30
0.0
 11
150.4861404818
 21
67.3914091415
 31
0.0
  0
LINE
  5
1D2
330
1CC
100
AcDbEntity
  8
VERMASSUNG
100
AcDbLine
 10
240.4861404818
 20
90.5994093254
 30
0.0
 11
240.4861404818
 21
67.3914091415
 31
0.0
  0
LINE
  5
1D3
330
1CC
100
AcDbEntity
  8
VERMASSUNG
100
AcDbLine
 10
150.4861404818
 20
68.3914091415
 30
0.0
 11
240.4861404818
 21
68.3914091415
 31
0.0
  0
MTEXT
  5
1D4
330
1CC
100
AcDbEntity
  8
VERMASSUNG
100
AcDbMText
 10
193.1861404307
 20
70.9695445046
 30
0.1
 40
2.0
 41
0.0
 71
     1
 72
     1
  1
90
  7
SLDTEXTSTYLE0
 73
     1
 44
1.0
  0
ENDBLK
  5
1CE
330
1CC
100
AcDbEntity
  8
0
100
AcDbBlockEnd
  0
BLOCK
  5
1D7
330
1D6
100
AcDbEntity
  8
0
100
AcDbBlockBegin
  2
_D_4
 70
     0
 10
0.0
 20
0.0
 30
0.0
  3
_D_4
  1

  0
SOLID
  5
1D9
330
1D6
100
AcDbEntity
  8
VERMASSUNG
100
AcDbTrace
 10
142.9155937665
 20
100.5994093254
 30
0.0
 11
143.3655937665
 21
103.5994093254
 31
0.0
 12
142.4655937665
 22
103.5994093254
 32
0.0
 13
142.4655937665
 23
103.5994093254
 33
0.0
  0
SOLID
  5
1DA
330
1D6
100
AcDbEntity
  8
VERMASSUNG
100
AcDbTrace
 10
142.9155937665
 20
150.5994093254
 30
0.0
 11
142.4655937665
 21
147.5994093254
 31
0.0
 12
143.3655937665
 22
147.5994093254
 32
0.0
 13
143.3655937665
 23
147.5994093254
 33
0.0
  0
LINE
  5
1DB
330
1D6
100
AcDbEntity
  8
VERMASSUNG
100
AcDbLine
 10
180.7861404818
 20
100.5994093254
 30
0.0
 11
141.9155937665
 21
100.5994093254
 31
0.0
  0
LINE
  5
1DC
330
1D6
100
AcDbEntity
  8
VERMASSUNG
100
AcDbLine
 10
180.7861404818
 20
150.5994093254
 30
0.0
 11
141.9155937665
 21
150.5994093254
 31
0.0
  0
LINE
  5
1DD
330
1D6
100
AcDbEntity
  8
VERMASSUNG
100
AcDbLine
 10
142.9155937665
 20
100.5994093254
 30
0.0
 11
142.9155937665
 21
150.5994093254
 31
0.0
  0
MTEXT
  5
1DE
330
1D6
100
AcDbEntity
  8
VERMASSUNG
100
AcDbMText
 10
140.1374582774
 20
119.1944092161
 30
0.35
 40
2.0
 41
0.0
 71
     1
 72
     1
  1
PSC
  7
SLDTEXTSTYLE0
 11
6.123233995736766E-17
 21
1.0
 31
0.0
 73
     1
 44
1.0
  0
MTEXT
  5
1DF
330
1D6
100
AcDbEntity
  8
VERMASSUNG
100
AcDbMText
 10
140.3374582869
 20
123.7944093182
 30
0.35
 40
2.0
 41
0.0
 71
     1
 72
     1
  1
%%c
  7
SLDTEXTSTYLE0
 11
6.123233995736766E-17
 21
1.0
 31
0.0
 73
     1
 44
1.0
  0
MTEXT
  5
1E0
330
1D6
100
AcDbEntity
  8
VERMASSUNG
100
AcDbMText
 10
140.1374582774
 20
127.4044097982
 30
0.35
 40
2.0
 41
0.0
 71
     1
 72
     1
  1
50
  7
SLDTEXTSTYLE0
 11
6.123233995736766E-17
 21
1.0
 31
0.0
 73
     1
 44
1.0
  0
ENDBLK
  5
1D8
330
1D6
100
AcDbEntity
  8
0
100
AcDbBlockEnd
  0
BLOCK
  5
244
330
243
100
AcDbEntity
  8
0
100
AcDbBlockBegin
  2
_D_5
 70
     0
 10
0.0
 20
0.0
 30
0.0
  3
_D_5
  1

  0
SOLID
  5
246
330
243
100
AcDbEntity
  8
VERMASSUNG
100
AcDbTrace
 10
98.0936531157
 20
146.3393520778
 30
0.0
 11
100.5331715108
 21
148.1424743698
 31
0.0
 12
99.8967754078
 22
148.7788704729
 32
0.0
 13
99.8967754078
 23
148.7788704729
 33
0.0
  0
SOLID
  5
247
330
243
100
AcDbEntity
  8
VERMASSUNG
100
AcDbTrace
 10
52.1317123386
 20
100.3774113007
 30
0.0
 11
49.6921939435
 21
98.5742890086
 31
0.0
 12
50.3285900466
 22
97.9378929056
 32
0.0
 13
50.3285900466
 23
97.9378929056
 33
0.0
  0
LINE
  5
248
330
243
100
AcDbEntity
  8
VERMASSUNG
100
AcDbLine
 10
98.0936531157
 20
146.3393520778
 30
0.0
 11
97.3865463346
 21
147.046458859
 31
0.0
  0
LINE
  5
249
330
243
100
AcDbEntity
  8
VERMASSUNG
100
AcDbLine
 10
52.1317123386
 20
100.3774113007
 30
0.0
 11
52.8388191198
 21
99.6703045195
 31
0.0
  0
LINE
  5
24A
330
243
100
AcDbEntity
  8
VERMASSUNG
100
AcDbLine
 10
98.0936531157
 20
146.3393520778
 30
0.0
 11
102.3362938029
 21
150.5819927649
 31
0.0
  0
LINE
  5
24B
330
243
100
AcDbEntity
  8
VERMASSUNG
100
AcDbLine
 10
98.0936531157
 20
146.3393520778
 30
0.0
 11
52.1317123386
 21
100.3774113007
 31
0.0
  0
LINE
  5
24C
330
243
100
AcDbEntity
  8
VERMASSUNG
100
AcDbLine
 10
52.1317123386
 20
100.3774113007
 30
0.0
 11
39.6288627753
 21
87.8745617374
 31
0.0
  0
MTEXT
  5
24D
330
243
100
AcDbEntity
  8
VERMASSUNG
100
AcDbMText
 10
37.8058456949
 20
89.6975788178
 30
0.1
 40
2.0
 41
0.0
 71
     1
 72
     1
  1
%%c
  7
SLDTEXTSTYLE0
 11
0.7071067811865464
 21
0.7071067811865488
 31
0.0
 73
     1
 44
1.0
  0
MTEXT
  5
24E
330
243
100
AcDbEntity
  8
VERMASSUNG
100
AcDbMText
 10
40.2170798222
 20
92.391655671
 30
0.1
 40
2.0
 41
0.0
 71
     1
 72
     1
  1
65
  7
SLDTEXTSTYLE0
 11
0.7071067811865464
 21
0.7071067811865488
 31
0.0
 73
     1
 44
1.0
  0
MTEXT
  5
24F
330
243
100
AcDbEntity
  8
VERMASSUNG
100
AcDbMText
 10
44.3094607198
 20
96.4840365685
 30
0.1
 40
2.0
 41
0.0
 71
     1
 72
     1
  1
min.
  7
SLDTEXTSTYLE0
 11
0.7071067811865464
 21
0.7071067811865488
 31
0.0
 73
     1
 44
1.0
  0
ENDBLK
  5
245
330
243
100
AcDbEntity
  8
0
100
AcDbBlockEnd
  0
BLOCK
  5
251
330
250
100
AcDbEntity
  8
0
100
AcDbBlockBegin
  2
SW_CENTERMARKSYMBOL_0
 70
     0
 10
0.0
 20
0.0
 30
0.0
  3
SW_CENTERMARKSYMBOL_0
  1

  0
LINE
  5
253
330
250
100
AcDbEntity
  8
VERMASSUNG
 62
     0
100
AcDbLine
 10
0.0
 20
0.0
 30
0.0
 11
0.0
 21
2.5
 31
0.0
  0
LINE
  5
254
330
250
100
AcDbEntity
  8
VERMASSUNG
 62
     0
100
AcDbLine
 10
0.0
 20
0.0
 30
0.0
 11
-2.5
 21
0.0
 31
0.0
  0
LINE
  5
255
330
250
100
AcDbEntity
  8
VERMASSUNG
 62
     0
100
AcDbLine
 10
0.0
 20
0.0
 30
0.0
 11
0.0
 21
-2.5
 31
0.0
  0
LINE
  5
256
330
250
100
AcDbEntity
  8
VERMASSUNG
 62
     0
100
AcDbLine
 10
0.0
 20
0.0
 30
0.0
 11
2.5
 21
0.0
 31
0.0
  0
LINE
  5
257
330
250
100
AcDbEntity
  8
VERMASSUNG
 62
     0
100
AcDbLine
 10
0.0
 20
5.0
 30
0.0
 11
0.0
 21
27.5
 31
0.0
  0
LINE
  5
258
330
250
100
AcDbEntity
  8
VERMASSUNG
 62
     0
100
AcDbLine
 10
-5.0
 20
0.0
 30
0.0
 11
-27.5
 21
0.0
 31
0.0
  0
LINE
  5
259
330
250
100
AcDbEntity
  8
VERMASSUNG
 62
     0
100
AcDbLine
 10
0.0
 20
-5.0
 30
0.0
 11
0.0
 21
-38.8195789035
 31
0.0
  0
LINE
  5
25A
330
250
100
AcDbEntity
  8
VERMASSUNG
 62
     0
100
AcDbLine
 10
5.0
 20
0.0
 30
0.0
 11
27.5
 21
0.0
 31
0.0
  0
ENDBLK
  5
252
330
250
100
AcDbEntity
  8
0
100
AcDbBlockEnd
  0
ENDSEC
  0
SECTION
  2
ENTITIES
  0
MTEXT
  5
49
330
1F
100
AcDbEntity
  8
KOPF_DÜNN
100
AcDbMText
 10
13.8892156294
 20
23.8442973028
 30
0.0
 40
3.0
 41
0.0
 71
     1
 72
     1
  1
PS5.KVF.LPA.060
  7
SLDTEXTSTYLE0
 73
     1
 44
1.0
  0
MTEXT
  5
4A
330
1F
100
AcDbEntity
  8
VERMASSUNG
100
AcDbMText
 10
13.9329988022
 20
28.8834360957
 30
0.0
 40
3.0
 41
0.0
 71
     1
 72
     1
  1
Klemmhalter links_Turning tool left 117.5° /35°
  7
SLDTEXTSTYLE0
 73
     1
 44
1.0
  0
MTEXT
  5
4B
330
1F
100
AcDbEntity
  8
VERMASSUNG
100
AcDbMText
 10
98.8601118557
 20
13.8365368179
 30
0.0
 40
2.0
 41
0.0
 71
     1
 72
     1
  1
Datum: 24.05.2012
  7
SLDTEXTSTYLE0
 73
     1
 44
1.0
  0
MTEXT
  5
4C
330
1F
100
AcDbEntity
  8
VERMASSUNG
100
AcDbMText
 10
13.933048693
 20
18.0482802738
 30
0.0
 40
2.0
 41
0.0
 71
     1
 72
     1
  1
PSC ø50 / VB..16 04..
  7
SLDTEXTSTYLE0
 73
     1
 44
1.0
  0
MTEXT
  5
4D
330
1F
100
AcDbEntity
  8
VERMASSUNG
100
AcDbMText
 10
13.9808475933
 20
13.9090973692
 30
0.0
 40
2.0
 41
0.0
 71
     1
 72
     1
  1
Gewicht: 681g
  7
SLDTEXTSTYLE0
 73
     1
 44
1.0
  0
ARC
  5
4E
330
1F
100
AcDbEntity
  8
0
  6
Continuous
 62
     7
370
    15
100
AcDbCircle
 10
198.4861404818
 20
114.270917397
 30
0.0
 40
2.500000000000002
100
AcDbArc
 50
288.5440093111
 51
336.2435108243
  0
ARC
  5
4F
330
1F
100
AcDbEntity
  8
0
  6
Continuous
 62
     7
370
    15
100
AcDbCircle
 10
198.4861404818
 20
114.270917397
 30
0.0
 40
2.499999999999999
100
AcDbArc
 50
203.7564891757
 51
288.5440093111
  0
LINE
  5
50
330
1F
100
AcDbEntity
  8
0
  6
Continuous
 62
     7
370
    15
100
AcDbLine
 10
230.4534778815
 20
102.290230675
 30
0.0
 11
230.5455447059
 21
102.1983892306
 31
0.0
  0
LINE
  5
51
330
1F
100
AcDbEntity
  8
0
  6
Continuous
 62
     7
370
    15
100
AcDbLine
 10
228.8516179543
 20
100.4777838125
 30
0.0
 11
228.7595809322
 21
100.5695954546
 31
0.0
  0
LINE
  5
52
330
1F
100
AcDbEntity
  8
0
  6
Continuous
 62
     7
370
    15
100
AcDbLine
 10
231.5364570241
 20
103.2107014789
 30
0.0
 11
231.4859122854
 21
103.2611214205
 31
0.0
  0
LINE
  5
53
330
1F
100
AcDbEntity
  8
0
  6
Continuous
 62
     7
370
    15
100
AcDbLine
 10
227.7781308513
 20
99.544287531
 30
0.0
 11
227.8286755901
 21
99.4938675895
 31
0.0
  0
ARC
  5
54
330
1F
100
AcDbEntity
  8
0
  6
Continuous
 62
     7
370
    15
100
AcDbCircle
 10
180.7861404818
 20
100.8994093254
 30
0.0
 40
0.2999999999999829
100
AcDbArc
 50
180.0
 51
270.0
  0
ARC
  5
55
330
1F
100
AcDbEntity
  8
0
  6
Continuous
 62
     7
370
    15
100
AcDbCircle
 10
180.7861404818
 20
150.2994093254
 30
0.0
 40
0.3000000000000114
100
AcDbArc
 50
90.0
 51
180.0
  0
LINE
  5
56
330
1F
100
AcDbEntity
  8
0
  6
Continuous
 62
     7
370
    15
100
AcDbLine
 10
210.1613839041
 20
150.5994096979
 30
0.0
 11
180.786140496
 21
150.5994096979
 31
0.0
  0
LINE
  5
57
330
1F
100
AcDbEntity
  8
0
  6
Continuous
 62
     7
370
    15
100
AcDbLine
 10
180.786140496
 20
100.5994089528
 30
0.0
 11
212.7188124578
 21
100.5994089528
 31
0.0
  0
LWPOLYLINE
  5
58
330
1F
100
AcDbEntity
  8
0
  6
Continuous
 62
     7
370
    15
100
AcDbPolyline
 90
        3
 70
   128
 43
0.0
 10
180.2861404868
 20
107.7595882698
 10
180.411595422
 20
107.6912869348
 10
180.4861404818
 20
107.6385498627
  0
LWPOLYLINE
  5
59
330
1F
100
AcDbEntity
  8
0
  6
Continuous
 62
     7
370
    15
100
AcDbPolyline
 90
        3
 70
   128
 43
0.0
 10
180.4861404818
 20
143.560268788
 10
180.411595422
 20
143.5075317159
 10
180.2861404868
 20
143.4392303809
  0
ARC
  5
5A
330
1F
100
AcDbEntity
  8
0
  6
Continuous
 62
     7
370
    15
100
AcDbCircle
 10
212.7188134938
 20
99.5994093254
 30
0.0
 40
1.000000000000014
100
AcDbArc
 50
17.9776067831
 51
90.0
  0
ARC
  5
5B
330
1F
100
AcDbEntity
  8
0
  6
Continuous
 62
     7
370
    15
100
AcDbCircle
 10
198.4905057498
 20
112.9615196608
 30
0.0
 40
3.066722592114411
100
AcDbArc
 50
192.3409685254
 51
346.3125457302
  0
LWPOLYLINE
  5
5C
330
1F
100
AcDbEntity
  8
0
  6
Continuous
 62
     7
370
    15
100
AcDbPolyline
 90
       20
 70
   128
 43
0.0
 10
201.1416048627
 20
113.3099187746
 10
201.3044037741
 20
112.8274219691
 10
201.3440334123
 20
112.3270810231
 10
201.258757792
 20
111.8307633906
 10
201.052305929
 20
111.360161437
 10
200.7337004762
 20
110.9358415588
 10
200.3168665688
 20
110.5763501137
 10
199.8200208765
 20
110.2973966508
 10
199.2648762535
 20
110.1111740454
 10
198.6756992411
 20
110.0258211254
 10
198.078237183
 20
110.0450678378
 10
197.4986025017
 20
110.1680731981
 10
196.9621271711
 20
110.3894606813
 10
196.492260031
 20
110.6995557084
 10
196.1095339503
 20
111.0848038106
 10
195.8306764137
 20
111.5283704012
 10
195.667876571
 20
112.0108672067
 10
195.6282478642
 20
112.5112081527
 10
195.7135225531
 20
113.0075257852
 10
195.717910945
 20
113.0218811914
  0
LWPOLYLINE
  5
5D
330
1F
100
AcDbEntity
  8
0
  6
Continuous
 62
     7
370
    15
100
AcDbPolyline
 90
       29
 70
   128
 43
0.0
 10
200.8073494654
 20
113.1977931245
 10
200.9557482671
 20
112.745082809
 10
200.980309106
 20
112.2760287135
 10
200.8798026364
 20
111.8141504585
 10
200.6592691761
 20
111.382609105
 10
200.3297635239
 20
111.0030448645
 10
199.9078129303
 20
110.6944893136
 10
199.4145733189
 20
110.4724145144
 10
198.874776892
 20
110.3479572221
 10
198.3154934715
 20
110.3273582294
 10
197.7647670429
 20
110.411650373
 10
197.2502131831
 20
110.5966063797
 10
196.7976351153
 20
110.8729521393
 10
196.4297235828
 20
111.226829572
 10
196.164931811
 20
111.6404960512
 10
196.0165330093
 20
112.0932063668
 10
195.9919712391
 20
112.5622604623
 10
196.0924777087
 20
113.0241387173
 10
196.3130121004
 20
113.4556800707
 10
196.6425158899
 20
113.8352443113
 10
197.0644683462
 20
114.1438007935
 10
197.5577079576
 20
114.3658746614
 10
198.0975043844
 20
114.4903319537
 10
198.6567878049
 20
114.5109309464
 10
199.2075123709
 20
114.4266388028
 10
199.7220662307
 20
114.2416827961
 10
200.1746461611
 20
113.9653379678
 10
200.542555831
 20
113.6114596038
 10
200.8073494654
 20
113.1977931245
  0
SPLINE
  5
5E
330
1F
100
AcDbEntity
  8
0
  6
Continuous
 62
     7
370
    15
100
AcDbSpline
210
0.0
220
0.0
230
1.0
 70
     8
 71
     3
 72
    10
 73
     6
 74
     0
 42
0.00000001
 43
0.00000001
 12
1.0
 22
0.0
 32
0.0
 13
1.0
 23
0.0
 33
0.0
 40
0.0
 40
0.0
 40
0.0
 40
0.0
 40
0.2724591754366117
 40
0.5448149523043251
 40
0.9999999999999999
 40
0.9999999999999999
 40
0.9999999999999999
 40
0.9999999999999999
 10
233.4340193193414
 20
104.6106245949165
 30
0.0
 10
233.4228776192023
 20
104.6295781101067
 30
0.0
 10
233.4005984472121
 20
104.6674779476062
 30
0.0
 10
233.3463763697269
 20
104.7282010094341
 30
0.0
 10
233.2963043320314
 20
104.7593533678246
 30
0.0
 10
233.2649768214681
 20
104.7788438036339
 30
0.0
  0
LINE
  5
5F
330
1F
100
AcDbEntity
  8
0
  6
Continuous
 62
     7
370
    15
100
AcDbLine
 10
240.4489383917
 20
91.1693078115
 30
0.0
 11
233.4340193193
 21
104.6106245949
 31
0.0
  0
SPLINE
  5
60
330
1F
100
AcDbEntity
  8
0
  6
Continuous
 62
     7
370
    15
100
AcDbSpline
210
0.0
220
0.0
230
1.0
 70
     8
 71
     3
 72
    15
 73
    11
 74
     0
 42
0.00000001
 43
0.00000001
 12
1.0
 22
0.0
 32
0.0
 13
1.0
 23
0.0
 33
0.0
 40
0.0
 40
0.0
 40
0.0
 40
0.0
 40
0.1369008447616159
 40
0.2736159810962268
 40
0.4079031095021414
 40
0.5393425787089959
 40
0.6692133053328078
 40
0.7996786208307414
 40
0.9324941460740468
 40
1.0
 40
1.0
 40
1.0
 40
1.0
 10
239.9180100183943
 20
90.63579036139411
 30
0.0
 10
239.9606273014865
 20
90.61885528705174
 30
0.0
 10
240.0458040565696
 20
90.58500811109607
 30
0.0
 10
240.1852305311951
 20
90.59187179429202
 30
0.0
 10
240.312003361694
 20
90.64155998914742
 30
0.0
 10
240.4131108443893
 20
90.73031381794256
 30
0.0
 10
240.4783796336196
 20
90.84622515474518
 30
0.0
 10
240.5017961990105
 20
90.97703574255772
 30
0.0
 10
240.486134409489
 20
91.08844080240307
 30
0.0
 10
240.4583136479825
 20
91.14892528190144
 30
0.0
 10
240.448938391731
 20
91.16930781148834
 30
0.0
  0
LINE
  5
61
330
1F
100
AcDbEntity
  8
0
  6
Continuous
 62
     7
370
    15
100
AcDbLine
 10
226.4424764436
 20
97.5849766865
 30
0.0
 11
239.9180100184
 21
90.6357903614
 31
0.0
  0
SPLINE
  5
62
330
1F
100
AcDbEntity
  8
0
  6
Continuous
 62
     7
370
    15
100
AcDbSpline
210
0.0
220
0.0
230
1.0
 70
     8
 71
     3
 72
    10
 73
     6
 74
     0
 42
0.00000001
 43
0.00000001
 12
1.0
 22
0.0
 32
0.0
 13
1.0
 23
0.0
 33
0.0
 40
0.0
 40
0.0
 40
0.0
 40
0.0
 40
0.2724638670819727
 40
0.5448178876266401
 40
1.0
 40
1.0
 40
1.0
 40
1.0
 10
226.2734339457014
 20
97.75319775782985
 30
0.0
 10
226.2845755517658
 20
97.73424356004855
 30
0.0
 10
226.3068542720447
 20
97.69634280606068
 30
0.0
 10
226.3610769841114
 20
97.63561953862704
 30
0.0
 10
226.4111489671854
 20
97.60446714458317
 30
0.0
 10
226.4424764435747
 20
97.58497668646736
 30
0.0
  0
LINE
  5
63
330
1F
100
AcDbEntity
  8
0
  6
Continuous
 62
     7
370
    15
100
AcDbLine
 10
219.2585148733
 20
111.1945117473
 30
0.0
 11
226.2734339457
 21
97.7531977578
 31
0.0
  0
LINE
  5
64
330
1F
100
AcDbEntity
  8
0
  6
Continuous
 62
     7
370
    15
100
AcDbLine
 10
233.2649768215
 20
104.7788438036
 30
0.0
 11
219.7894432466
 21
111.7280301287
 31
0.0
  0
LINE
  5
65
330
1F
100
AcDbEntity
  8
0
  6
Continuous
 62
     7
370
    15
100
AcDbLine
 10
226.4521137696
 20
97.602500452
 30
0.0
 11
239.9120793562
 21
90.6613421276
 31
0.0
  0
ARC
  5
66
330
1F
100
AcDbEntity
  8
0
  6
Continuous
 62
     7
370
    15
100
AcDbCircle
 10
240.0855756486
 20
90.9999722212
 30
0.0
 40
0.3804882439199551
100
AcDbArc
 50
242.8717794245
 51
27.4072443901
  0
LINE
  5
67
330
1F
100
AcDbEntity
  8
0
  6
Continuous
 62
     7
370
    15
100
AcDbLine
 10
240.4233568233
 20
91.1751155391
 30
0.0
 11
233.4165439826
 21
104.6009015872
 31
0.0
  0
ARC
  5
68
330
1F
100
AcDbEntity
  8
0
  6
Continuous
 62
     7
370
    15
100
AcDbCircle
 10
233.0828554411
 20
104.4267844142
 30
0.0
 40
0.3763838900359769
100
AcDbArc
 50
27.5553493487
 51
62.7247082272
  0
LINE
  5
69
330
1F
100
AcDbEntity
  8
0
  6
Continuous
 62
     7
370
    15
100
AcDbLine
 10
233.2553394955
 20
104.7613200381
 30
0.0
 11
219.7953776341
 21
111.7024783625
 31
0.0
  0
ARC
  5
6A
330
1F
100
AcDbEntity
  8
0
  6
Continuous
 62
     7
370
    15
100
AcDbCircle
 10
219.6218782943
 20
111.3638485349
 30
0.0
 40
0.3804893968195016
100
AcDbArc
 50
62.8713527537
 51
207.4073574559
  0
LINE
  5
6B
330
1F
100
AcDbEntity
  8
0
  6
Continuous
 62
     7
370
    15
100
AcDbLine
 10
219.2840964418
 20
111.1887040197
 30
0.0
 11
226.2909092825
 21
97.7629189029
 31
0.0
  0
ARC
  5
6C
330
1F
100
AcDbEntity
  8
0
  6
Continuous
 62
     7
370
    15
100
AcDbCircle
 10
226.6246359145
 20
97.9370743531
 30
0.0
 40
0.3764353673392032
100
AcDbArc
 50
207.5578324858
 51
242.7222250901
  0
SPLINE
  5
6D
330
1F
100
AcDbEntity
  8
0
  6
Continuous
 62
     7
370
    15
100
AcDbSpline
210
0.0
220
0.0
230
1.0
 70
     8
 71
     3
 72
    15
 73
    11
 74
     0
 42
0.00000001
 43
0.00000001
 12
1.0
 22
0.0
 32
0.0
 13
1.0
 23
0.0
 33
0.0
 40
0.0
 40
0.0
 40
0.0
 40
0.0
 40
0.136897399890702
 40
0.2736160256952638
 40
0.4079033065084163
 40
0.5393425896061863
 40
0.6692123202876528
 40
0.7996795233847117
 40
0.9324933997932191
 40
1.0
 40
1.0
 40
1.0
 40
1.0
 10
219.7894432466486
 20
111.7280301287071
 30
0.0
 10
219.7468272436974
 20
111.7449653808506
 30
0.0
 10
219.6616508899623
 20
111.77881376942
 30
0.0
 10
219.5222236529399
 20
111.7719513578869
 30
0.0
 10
219.3954499593483
 20
111.7222612269909
 30
0.0
 10
219.2943431910068
 20
111.6335077437509
 30
0.0
 10
219.229071323081
 20
111.5175966017896
 30
0.0
 10
219.2056636862681
 20
111.3867848436369
 30
0.0
 10
219.2213185427911
 20
111.2753790131907
 30
0.0
 10
219.2491394291132
 20
111.2148945788312
 30
0.0
 10
219.2585148733118
 20
111.1945117472903
 30
0.0
  0
LINE
  5
6E
330
1F
100
AcDbEntity
  8
0
  6
Continuous
 62
     7
370
    15
100
AcDbLine
 10
221.9235279482
 20
109.0735633507
 30
0.0
 11
219.6050339263
 21
111.3806477397
 31
0.0
  0
LINE
  5
6F
330
1F
100
AcDbEntity
  8
0
  6
Continuous
 62
     7
370
    15
100
AcDbLine
 10
221.9235279482
 20
109.0735633507
 30
0.0
 11
222.5020506304
 21
107.9650510683
 31
0.0
  0
LINE
  5
70
330
1F
100
AcDbEntity
  8
0
  6
Continuous
 62
     7
370
    15
100
AcDbLine
 10
226.7029673677
 20
98.0569374397
 30
0.0
 11
226.611846767
 21
97.9548644855
 31
0.0
  0
LINE
  5
71
330
1F
100
AcDbEntity
  8
0
  6
Continuous
 62
     7
370
    15
100
AcDbLine
 10
232.9633810442
 20
104.3478873207
 30
0.0
 11
233.064999513
 21
104.4394903465
 31
0.0
  0
LINE
  5
72
330
1F
100
AcDbEntity
  8
0
  6
Continuous
 62
     7
370
    15
100
AcDbLine
 10
223.0348602753
 20
108.5004609659
 30
0.0
 11
221.9235279482
 21
109.0735633507
 31
0.0
  0
SPLINE
  5
73
330
1F
100
AcDbEntity
  8
0
  6
Continuous
 62
     7
370
    15
100
AcDbSpline
210
0.0
220
0.0
230
1.0
 70
     8
 71
     3
 72
    14
 73
    10
 74
     0
 42
0.00000001
 43
0.00000001
 12
1.0
 22
0.0
 32
0.0
 13
1.0
 23
0.0
 33
0.0
 40
0.0
 40
0.0
 40
0.0
 40
0.0
 40
0.2055178571751246
 40
0.3570160889015021
 40
0.4668463117947005
 40
0.5770778200456139
 40
0.7093634624500172
 40
0.9240580205024784
 40
1.0
 40
1.0
 40
1.0
 40
1.0
 10
223.1165372651079
 20
107.9403486683266
 30
0.0
 10
223.1500827983587
 20
107.9756469596007
 30
0.0
 10
223.2083565427716
 20
108.0369655139532
 30
0.0
 10
223.2592666046929
 20
108.1369203748083
 30
0.0
 10
223.2718054869899
 20
108.2251949356594
 30
0.0
 10
223.2524019952039
 20
108.3077736552914
 30
0.0
 10
223.1909880833911
 20
108.398155829429
 30
0.0
 10
223.1105739593985
 20
108.4594962554846
 30
0.0
 10
223.050545447186
 20
108.4919745405777
 30
0.0
 10
223.0348602753141
 20
108.5004609658615
 30
0.0
  0
SPLINE
  5
74
330
1F
100
AcDbEntity
  8
0
  6
Continuous
 62
     7
370
    15
100
AcDbSpline
210
0.0
220
0.0
230
1.0
 70
     8
 71
     3
 72
    14
 73
    10
 74
     0
 42
0.00000001
 43
0.00000001
 12
1.0
 22
0.0
 32
0.0
 13
1.0
 23
0.0
 33
0.0
 40
0.0
 40
0.0
 40
0.0
 40
0.0
 40
0.2086067811145717
 40
0.3652029044001547
 40
0.476854642805186
 40
0.5890241254958473
 40
0.718564982259435
 40
0.9352596179213765
 40
1.0
 40
1.0
 40
1.0
 40
1.0
 10
222.5020506303766
 20
107.9650510682957
 30
0.0
 10
222.5268245457126
 20
107.9225125299697
 30
0.0
 10
222.5701956470054
 20
107.8480413279188
 30
0.0
 10
222.6545914336909
 20
107.7711901170395
 30
0.0
 10
222.7379545992865
 20
107.7347392935746
 30
0.0
 10
222.8231521860008
 20
107.7315594042496
 30
0.0
 10
222.9270249375969
 20
107.767768687223
 30
0.0
 10
223.0050218752031
 20
107.8281897419394
 30
0.0
 10
223.0518006899175
 20
107.8752782250703
 30
0.0
 10
223.0625615339735
 20
107.8861103042261
 30
0.0
  0
ARC
  5
75
330
1F
100
AcDbEntity
  8
0
  6
Continuous
 62
     7
370
    15
100
AcDbCircle
 10
224.8319812475
 20
106.1791570253
 30
0.0
 40
1.001287342716528
100
AcDbArc
 50
62.8714563814
 51
207.4073831405
  0
ARC
  5
76
330
1F
100
AcDbEntity
  8
0
  6
Continuous
 62
     7
370
    15
100
AcDbCircle
 10
224.7893149364
 20
106.2216945528
 30
0.0
 40
2.398323811831785
100
AcDbArc
 50
134.2249980277
 51
136.0531123411
  0
LINE
  5
77
330
1F
100
AcDbEntity
  8
0
  6
Continuous
 62
     7
370
    15
100
AcDbLine
 10
231.8989799242
 20
103.6613647475
 30
0.0
 11
225.2885565978
 21
107.0702884927
 31
0.0
  0
ARC
  5
78
330
1F
100
AcDbEntity
  8
0
  6
Continuous
 62
     7
370
    15
100
AcDbCircle
 10
231.4450274663
 20
102.7809590891
 30
0.0
 40
0.9905488162688767
100
AcDbArc
 50
27.5563412725
 51
62.723581565
  0
LINE
  5
79
330
1F
100
AcDbEntity
  8
0
  6
Continuous
 62
     7
370
    15
100
AcDbLine
 10
235.7643746655
 20
96.6455702319
 30
0.0
 11
232.3232048076
 21
103.2392074003
 31
0.0
  0
ARC
  5
7A
330
1F
100
AcDbEntity
  8
0
  6
Continuous
 62
     7
370
    15
100
AcDbCircle
 10
234.8754745497
 20
96.1846658799
 30
0.0
 40
1.001287290290576
100
AcDbArc
 50
242.8715315613
 51
27.4072290275
  0
LINE
  5
7B
330
1F
100
AcDbEntity
  8
0
  6
Continuous
 62
     7
370
    15
100
AcDbLine
 10
227.8084770661
 20
98.7024576052
 30
0.0
 11
234.4189003926
 21
95.2935338601
 31
0.0
  0
ARC
  5
7C
330
1F
100
AcDbEntity
  8
0
  6
Continuous
 62
     7
370
    15
100
AcDbCircle
 10
228.2624397688
 20
99.5828833301
 30
0.0
 40
0.9905713464898407
100
AcDbArc
 50
207.5570919659
 51
242.7235867991
  0
LINE
  5
7D
330
1F
100
AcDbEntity
  8
0
  6
Continuous
 62
     7
370
    15
100
AcDbLine
 10
223.9430823248
 20
105.7182502582
 30
0.0
 11
227.3842484575
 21
99.1246130898
 31
0.0
  0
CIRCLE
  5
7E
330
1F
100
AcDbEntity
  8
0
  6
Continuous
 62
     7
370
    15
100
AcDbCircle
 10
229.8433885415
 20
101.1768720037
 30
0.0
 40
3.03942170071887
  0
ARC
  5
7F
330
1F
100
AcDbEntity
  8
0
  6
Continuous
 62
     7
370
    15
100
AcDbCircle
 10
229.7736585276
 20
101.2598597484
 30
0.0
 40
3.051392259635788
100
AcDbArc
 50
242.8062432816
 51
44.8191660223
  0
LWPOLYLINE
  5
80
330
1F
100
AcDbEntity
  8
0
  6
Continuous
 62
     7
370
    15
100
AcDbPolyline
 90
        3
 70
   128
 43
0.0
 10
227.6300282102
 20
99.0920913055
 10
227.8646656197
 20
98.8812883034
 10
228.3791691881
 20
98.5457495435
  0
LINE
  5
81
330
1F
100
AcDbEntity
  8
0
  6
Continuous
 62
     7
370
    15
100
AcDbLine
 10
237.6723156195
 20
93.4015948906
 30
0.0
 11
240.0718123537
 21
91.013706161
 31
0.0
  0
LINE
  5
82
330
1F
100
AcDbEntity
  8
0
  6
Continuous
 62
     7
370
    15
100
AcDbLine
 10
236.5609832924
 20
93.9746972754
 30
0.0
 11
237.6723156195
 21
93.4015948906
 31
0.0
  0
LINE
  5
83
330
1F
100
AcDbEntity
  8
0
  6
Continuous
 62
     7
370
    15
100
AcDbLine
 10
237.6723156195
 20
93.4015948906
 30
0.0
 11
237.0937929373
 21
94.510107173
 31
0.0
  0
SPLINE
  5
84
330
1F
100
AcDbEntity
  8
0
  6
Continuous
 62
     7
370
    15
100
AcDbSpline
210
0.0
220
0.0
230
1.0
 70
     8
 71
     3
 72
    11
 73
     7
 74
     0
 42
0.00000001
 43
0.00000001
 12
1.0
 22
0.0
 32
0.0
 13
1.0
 23
0.0
 33
0.0
 40
0.0
 40
0.0
 40
0.0
 40
0.0
 40
0.3241888939348981
 40
0.6482186656406436
 40
0.9887954783205268
 40
1.0
 40
1.0
 40
1.0
 40
1.0
 10
226.7029673676946
 20
98.0569374396698
 30
0.0
 10
226.7522274756359
 20
98.11079147798152
 30
0.0
 10
226.8507235130893
 20
98.21847312132861
 30
0.0
 10
227.0246095323522
 20
98.39252310172516
 30
0.0
 10
227.1395024714505
 20
98.50026617115398
 30
0.0
 10
227.1946191074504
 20
98.54974839149642
 30
0.0
 10
227.1963746171453
 20
98.55132444046897
 30
0.0
  0
SPLINE
  5
85
330
1F
100
AcDbEntity
  8
0
  6
Continuous
 62
     7
370
    15
100
AcDbSpline
210
0.0
220
0.0
230
1.0
 70
     8
 71
     3
 72
    11
 73
     7
 74
     0
 42
0.00000001
 43
0.00000001
 12
1.0
 22
0.0
 32
0.0
 13
1.0
 23
0.0
 33
0.0
 40
0.0
 40
0.0
 40
0.0
 40
0.0
 40
0.3241882555624069
 40
0.6482211089178145
 40
0.988795734193415
 40
1.0
 40
1.0
 40
1.0
 40
1.0
 10
232.963381044195
 20
104.3478873207466
 30
0.0
 10
232.9097719060928
 20
104.298372325657
 30
0.0
 10
232.8025793278534
 20
104.1993660708827
 30
0.0
 10
232.629384470622
 20
104.0246285461929
 30
0.0
 10
232.522178119346
 20
103.9092153199022
 30
0.0
 10
232.4729679402581
 20
103.8538445600638
 30
0.0
 10
232.4714005809286
 20
103.8520809843437
 30
0.0
  0
ARC
  5
86
330
1F
100
AcDbEntity
  8
0
  6
Continuous
 62
     7
370
    15
100
AcDbCircle
 10
234.8174388905
 20
96.2425494747
 30
0.0
 40
2.382892961815509
100
AcDbArc
 50
314.2200462975
 51
316.0600316567
  0
SPLINE
  5
87
330
1F
100
AcDbEntity
  8
0
  6
Continuous
 62
     7
370
    15
100
AcDbSpline
210
0.0
220
0.0
230
1.0
 70
     8
 71
     3
 72
    14
 73
    10
 74
     0
 42
0.00000001
 43
0.00000001
 12
1.0
 22
0.0
 32
0.0
 13
1.0
 23
0.0
 33
0.0
 40
0.0
 40
0.0
 40
0.0
 40
0.0
 40
0.2055160135961428
 40
0.3570119926784506
 40
0.4668475110952668
 40
0.5770791020433538
 40
0.7093676705433206
 40
0.9240566874492919
 40
1.0
 40
1.0
 40
1.0
 40
1.0
 10
236.479306302593
 20
94.5348095729248
 30
0.0
 10
236.4457608380323
 20
94.49951191351532
 30
0.0
 10
236.3874873588099
 20
94.43819461029328
 30
0.0
 10
236.3365759889731
 20
94.33823995082408
 30
0.0
 10
236.3240383050838
 20
94.24996458307771
 30
0.0
 10
236.343440935319
 20
94.16738352341844
 30
0.0
 10
236.4048596808263
 20
94.07700491187461
 30
0.0
 10
236.4852714553442
 20
94.01566405063785
 30
0.0
 10
236.5452981048145
 20
93.98318434397908
 30
0.0
 10
236.5609832923868
 20
93.97469727538986
 30
0.0
  0
SPLINE
  5
88
330
1F
100
AcDbEntity
  8
0
  6
Continuous
 62
     7
370
    15
100
AcDbSpline
210
0.0
220
0.0
230
1.0
 70
     8
 71
     3
 72
    14
 73
    10
 74
     0
 42
0.00000001
 43
0.00000001
 12
1.0
 22
0.0
 32
0.0
 13
1.0
 23
0.0
 33
0.0
 40
0.0
 40
0.0
 40
0.0
 40
0.0
 40
0.2086090887569291
 40
0.3652053103976023
 40
0.4768561005046468
 40
0.5890204081832388
 40
0.7185663531371583
 40
0.9352595788972838
 40
0.9999999999999999
 40
0.9999999999999999
 40
0.9999999999999999
 40
0.9999999999999999
 10
237.0937929373243
 20
94.5101071729557
 30
0.0
 10
237.0690190899606
 20
94.55264630431894
 30
0.0
 10
237.0256483017072
 20
94.62711821139705
 30
0.0
 10
236.9412526541812
 20
94.70397058818315
 30
0.0
 10
236.8578896471435
 20
94.74041811767188
 30
0.0
 10
236.7726928716448
 20
94.74359846549355
 30
0.0
 10
236.668819936086
 20
94.70739048814178
 30
0.0
 10
236.5908213644916
 20
94.6469701964556
 30
0.0
 10
236.5440428643278
 20
94.59988189607887
 30
0.0
 10
236.5332820337274
 20
94.5890497996704
 30
0.0
  0
CIRCLE
  5
89
330
1F
100
AcDbEntity
  8
0
  6
Continuous
 62
     7
370
    15
100
AcDbCircle
 10
229.6875792584
 20
101.3597534044
 30
0.0
 40
2.616164897523453
  0
CIRCLE
  5
8A
330
1F
100
AcDbEntity
  8
0
  6
Continuous
 62
     7
370
    15
100
AcDbCircle
 10
229.7050182464
 20
101.33848291
 30
0.0
 40
1.793909962836879
  0
ARC
  5
8B
330
1F
100
AcDbEntity
  8
0
  6
Continuous
 62
     7
370
    15
100
AcDbCircle
 10
229.709791744
 20
101.3271107498
 30
0.0
 40
1.676769610219552
100
AcDbArc
 50
76.8622295476
 51
135.3205062003
  0
ARC
  5
8C
330
1F
100
AcDbEntity
  8
0
  6
Continuous
 62
     7
370
    15
100
AcDbCircle
 10
229.7073890474
 20
101.3252900928
 30
0.0
 40
1.676344003083093
100
AcDbArc
 50
135.2185155355
 51
195.1905904068
  0
ARC
  5
8D
330
1F
100
AcDbEntity
  8
0
  6
Continuous
 62
     7
370
    15
100
AcDbCircle
 10
229.6911519218
 20
101.3224755706
 30
0.0
 40
1.659937431732303
100
AcDbArc
 50
195.2436926152
 51
254.1115949504
  0
LINE
  5
8E
330
1F
100
AcDbEntity
  8
0
  6
Continuous
 62
     7
370
    15
100
AcDbLine
 10
229.3186985772
 20
99.7048345044
 30
0.0
 11
229.2367198389
 21
99.7259531751
 31
0.0
  0
ARC
  5
8F
330
1F
100
AcDbEntity
  8
0
  6
Continuous
 62
     7
370
    15
100
AcDbCircle
 10
229.6937851232
 20
101.3388431155
 30
0.0
 40
1.676506504078922
100
AcDbArc
 50
257.0717299481
 51
313.3857868297
  0
LINE
  5
90
330
1F
100
AcDbEntity
  8
0
  6
Continuous
 62
     7
370
    15
100
AcDbLine
 10
230.9295476299
 20
100.2057239994
 30
0.0
 11
230.8453895967
 21
100.1204502418
 31
0.0
  0
ARC
  5
91
330
1F
100
AcDbEntity
  8
0
  6
Continuous
 62
     7
370
    15
100
AcDbCircle
 10
229.6961034738
 20
101.3410946665
 30
0.0
 40
1.676439989367353
100
AcDbArc
 50
317.370801461
 51
13.0383801242
  0
LINE
  5
92
330
1F
100
AcDbEntity
  8
0
  6
Continuous
 62
     7
370
    15
100
AcDbLine
 10
231.2981204014
 20
101.834525226
 30
0.0
 11
231.329323433
 21
101.7193057223
 31
0.0
  0
ARC
  5
93
330
1F
100
AcDbEntity
  8
0
  6
Continuous
 62
     7
370
    15
100
AcDbCircle
 10
229.7124618105
 20
101.3438384947
 30
0.0
 40
1.659845364863908
100
AcDbArc
 50
17.1948362389
 51
73.8982203876
  0
LINE
  5
94
330
1F
100
AcDbEntity
  8
0
  6
Continuous
 62
     7
370
    15
100
AcDbLine
 10
230.0909102779
 20
102.9599931672
 30
0.0
 11
230.1728107851
 21
102.9385690226
 31
0.0
  0
SPLINE
  5
95
330
1F
100
AcDbEntity
  8
0
  6
Continuous
 62
     7
370
    15
100
AcDbSpline
210
0.0
220
0.0
230
1.0
 70
     8
 71
     3
 72
    12
 73
     8
 74
     0
 42
0.00000001
 43
0.00000001
 12
1.0
 22
0.0
 32
0.0
 13
1.0
 23
0.0
 33
0.0
 40
0.0
 40
0.0
 40
0.0
 40
0.0
 40
0.2058586367906517
 40
0.4121035033272099
 40
0.6141961996484828
 40
0.8133182888499183
 40
0.9999999999999999
 40
0.9999999999999999
 40
0.9999999999999999
 40
0.9999999999999999
 10
229.7488988261678
 20
102.7869962736265
 30
0.0
 10
229.7120243953572
 20
102.7330094001878
 30
0.0
 10
229.6382063503279
 20
102.6249343637229
 30
0.0
 10
229.4672274576577
 20
102.5179053944946
 30
0.0
 10
229.2772227833614
 20
102.4697319662679
 30
0.0
 10
229.0871623163761
 20
102.4813660687555
 30
0.0
 10
228.9789681853589
 20
102.5342260907577
 30
0.0
 10
228.9266154985883
 20
102.5598038568394
 30
0.0
  0
SPLINE
  5
96
330
1F
100
AcDbEntity
  8
0
  6
Continuous
 62
     7
370
    15
100
AcDbSpline
210
0.0
220
0.0
230
1.0
 70
     8
 71
     3
 72
    11
 73
     7
 74
     0
 42
0.00000001
 43
0.00000001
 12
1.0
 22
0.0
 32
0.0
 13
1.0
 23
0.0
 33
0.0
 40
0.0
 40
0.0
 40
0.0
 40
0.0
 40
0.2524808538810386
 40
0.506890956310655
 40
0.759181076594869
 40
0.9999999999999999
 40
0.9999999999999999
 40
0.9999999999999999
 40
0.9999999999999999
 10
228.9266154985883
 20
102.5598038568394
 30
0.0
 10
228.8932016510441
 20
102.5757420638862
 30
0.0
 10
228.8261186351427
 20
102.6077402644929
 30
0.0
 10
228.7116002558272
 20
102.6093124105079
 30
0.0
 10
228.6024066302238
 20
102.5772980156887
 30
0.0
 10
228.545375131754
 20
102.5294717934267
 30
0.0
 10
228.5175227444628
 20
102.5061149730579
 30
0.0
  0
SPLINE
  5
97
330
1F
100
AcDbEntity
  8
0
  6
Continuous
 62
     7
370
    15
100
AcDbSpline
210
0.0
220
0.0
230
1.0
 70
     8
 71
     3
 72
    11
 73
     7
 74
     0
 42
0.00000001
 43
0.00000001
 12
1.0
 22
0.0
 32
0.0
 13
1.0
 23
0.0
 33
0.0
 40
0.0
 40
0.0
 40
0.0
 40
0.0
 40
0.2423574351526517
 40
0.5166861244757274
 40
0.7923338827878528
 40
1.0
 40
1.0
 40
1.0
 40
1.0
 10
230.090910277889
 20
102.9599931671516
 30
0.0
 10
230.0578006288519
 20
102.961457513623
 30
0.0
 10
229.9872135794678
 20
102.9645793798974
 30
0.0
 10
229.8835753450023
 20
102.9272845952677
 30
0.0
 10
229.7995472515547
 20
102.8649314476192
 30
0.0
 10
229.7641206299155
 20
102.8104187969231
 30
0.0
 10
229.7488988261678
 20
102.7869962736265
 30
0.0
  0
SPLINE
  5
98
330
1F
100
AcDbEntity
  8
0
  6
Continuous
 62
     7
370
    15
100
AcDbSpline
210
0.0
220
0.0
230
1.0
 70
     8
 71
     3
 72
    12
 73
     8
 74
     0
 42
0.00000001
 43
0.00000001
 12
1.0
 22
0.0
 32
0.0
 13
1.0
 23
0.0
 33
0.0
 40
0.0
 40
0.0
 40
0.0
 40
0.0
 40
0.2058429048902336
 40
0.4120686183837062
 40
0.6141396156279763
 40
0.8132619890292305
 40
1.0
 40
1.0
 40
1.0
 40
1.0
 10
228.4680695157507
 20
102.0960424675838
 30
0.0
 10
228.4964794637802
 20
102.0382782137355
 30
0.0
 10
228.5533521941722
 20
101.9226422811395
 30
0.0
 10
228.5602465938032
 20
101.723020648197
 30
0.0
 10
228.5061490671903
 20
101.5344858121702
 30
0.0
 10
228.3998289201858
 20
101.3740548976728
 30
0.0
 10
228.2990148928704
 20
101.3047948106996
 30
0.0
 10
228.2502257149675
 20
101.2712762340204
 30
0.0
  0
SPLINE
  5
99
330
1F
100
AcDbEntity
  8
0
  6
Continuous
 62
     7
370
    15
100
AcDbSpline
210
0.0
220
0.0
230
1.0
 70
     8
 71
     3
 72
    11
 73
     7
 74
     0
 42
0.00000001
 43
0.00000001
 12
1.0
 22
0.0
 32
0.0
 13
1.0
 23
0.0
 33
0.0
 40
0.0
 40
0.0
 40
0.0
 40
0.0
 40
0.2535078174555854
 40
0.5075666022887617
 40
0.759505064362487
 40
1.0
 40
1.0
 40
1.0
 40
1.0
 10
228.2502257149675
 20
101.2712762340204
 30
0.0
 10
228.2192689492023
 20
101.249561354847
 30
0.0
 10
228.1572881370325
 20
101.2060844019395
 30
0.0
 10
228.0979424335922
 20
101.1062035654425
 30
0.0
 10
228.0706073164242
 20
100.9949473845967
 30
0.0
 10
228.0833795585875
 20
100.9217733131698
 30
0.0
 10
228.0896172743299
 20
100.8860365136759
 30
0.0
  0
SPLINE
  5
9A
330
1F
100
AcDbEntity
  8
0
  6
Continuous
 62
     7
370
    15
100
AcDbSpline
210
0.0
220
0.0
230
1.0
 70
     8
 71
     3
 72
    12
 73
     8
 74
     0
 42
0.00000001
 43
0.00000001
 12
1.0
 22
0.0
 32
0.0
 13
1.0
 23
0.0
 33
0.0
 40
0.0
 40
0.0
 40
0.0
 40
0.0
 40
0.009171695399289
 40
0.2573293926747268
 40
0.5054934347250818
 40
0.7549945867826088
 40
1.0
 40
1.0
 40
1.0
 40
1.0
 10
228.5175227444628
 20
102.5061149730579
 30
0.0
 10
228.5165596572831
 20
102.505136095062
 30
0.0
 10
228.4895384111292
 20
102.4776718074641
 30
0.0
 10
228.4455614224247
 20
102.4139093525519
 30
0.0
 10
228.4153806933222
 20
102.3055800727428
 30
0.0
 10
228.4200263077941
 20
102.1932270336464
 30
0.0
 10
228.4521524699691
 20
102.128240383857
 30
0.0
 10
228.4680695157507
 20
102.0960424675838
 30
0.0
  0
LWPOLYLINE
  5
9B
330
1F
100
AcDbEntity
  8
0
  6
Continuous
 62
     7
370
    15
100
AcDbPolyline
 90
        3
 70
   128
 43
0.0
 10
230.226142041
 20
102.9138461336
 10
230.2673586529
 20
102.8286822721
 10
230.2829117399
 20
102.7184490695
  0
SPLINE
  5
9C
330
1F
100
AcDbEntity
  8
0
  6
Continuous
 62
     7
370
    15
100
AcDbSpline
210
0.0
220
0.0
230
1.0
 70
     8
 71
     3
 72
    11
 73
     7
 74
     0
 42
0.00000001
 43
0.00000001
 12
1.0
 22
0.0
 32
0.0
 13
1.0
 23
0.0
 33
0.0
 40
0.0
 40
0.0
 40
0.0
 40
0.0
 40
0.2802367696340082
 40
0.5612888049308863
 40
0.839994421795749
 40
1.0
 40
1.0
 40
1.0
 40
1.0
 10
230.3778805654505
 20
102.6237093492643
 30
0.0
 10
230.375632202412
 20
102.6609973717011
 30
0.0
 10
230.3711289353905
 20
102.7356818950028
 30
0.0
 10
230.3166537913638
 20
102.8361835268154
 30
0.0
 10
230.2458310002259
 20
102.9041452795346
 30
0.0
 10
230.192325257157
 20
102.9293693623613
 30
0.0
 10
230.1728107851007
 20
102.9385690226452
 30
0.0
  0
SPLINE
  5
9D
330
1F
100
AcDbEntity
  8
0
  6
Continuous
 62
     7
370
    15
100
AcDbSpline
210
0.0
220
0.0
230
1.0
 70
     8
 71
     3
 72
    11
 73
     7
 74
     0
 42
0.00000001
 43
0.00000001
 12
1.0
 22
0.0
 32
0.0
 13
1.0
 23
0.0
 33
0.0
 40
0.0
 40
0.0
 40
0.0
 40
0.0
 40
0.265758519251554
 40
0.5530020932516422
 40
0.8418180074239482
 40
1.0
 40
1.0
 40
1.0
 40
1.0
 10
231.298120401428
 20
101.8345252259867
 30
0.0
 10
231.2803661812804
 20
101.8643915025265
 30
0.0
 10
231.2434224139338
 20
101.9265385730725
 30
0.0
 10
231.1527976355665
 20
101.9924757194089
 30
0.0
 10
231.0608317714296
 20
102.0241015886539
 30
0.0
 10
231.00284423567
 20
102.025602524225
 30
0.0
 10
230.9823238175371
 20
102.0261336698429
 30
0.0
  0
SPLINE
  5
9E
330
1F
100
AcDbEntity
  8
0
  6
Continuous
 62
     7
370
    15
100
AcDbSpline
210
0.0
220
0.0
230
1.0
 70
     8
 71
     3
 72
    12
 73
     8
 74
     0
 42
0.00000001
 43
0.00000001
 12
1.0
 22
0.0
 32
0.0
 13
1.0
 23
0.0
 33
0.0
 40
0.0
 40
0.0
 40
0.0
 40
0.0
 40
0.2057903867558052
 40
0.4120350257354393
 40
0.6141314554110127
 40
0.8132631863365305
 40
1.0
 40
1.0
 40
1.0
 40
1.0
 10
230.9823238175371
 20
102.0261336698429
 30
0.0
 10
230.9163777129703
 20
102.0305910198893
 30
0.0
 10
230.7843399374421
 20
102.0395155589314
 30
0.0
 10
230.6053874531009
 20
102.1331827968247
 30
0.0
 10
230.4695547783869
 20
102.2734623412995
 30
0.0
 10
230.3869569977599
 20
102.4443733614659
 30
0.0
 10
230.3808405518083
 20
102.5652246870899
 30
0.0
 10
230.3778805654505
 20
102.6237093492643
 30
0.0
  0
LWPOLYLINE
  5
9F
330
1F
100
AcDbEntity
  8
0
  6
Continuous
 62
     7
370
    15
100
AcDbPolyline
 90
        3
 70
   128
 43
0.0
 10
228.3257187229
 20
100.7389378383
 10
228.2153122943
 20
100.7532317772
 10
228.1255551498
 20
100.7962365284
  0
SPLINE
  5
A0
330
1F
100
AcDbEntity
  8
0
  6
Continuous
 62
     7
370
    15
100
AcDbSpline
210
0.0
220
0.0
230
1.0
 70
     8
 71
     3
 72
    12
 73
     8
 74
     0
 42
0.00000001
 43
0.00000001
 12
1.0
 22
0.0
 32
0.0
 13
1.0
 23
0.0
 33
0.0
 40
0.0
 40
0.0
 40
0.0
 40
0.0
 40
0.0091740569106911
 40
0.2576753492667463
 40
0.5061892016455571
 40
0.7560387894117512
 40
0.9999999999999999
 40
0.9999999999999999
 40
0.9999999999999999
 40
0.9999999999999999
 10
228.0896172743299
 20
100.8860365136759
 30
0.0
 10
228.0899820234617
 20
100.8847195538557
 30
0.0
 10
228.1002268759694
 20
100.8477295847563
 30
0.0
 10
228.1334299848549
 20
100.7782754982121
 30
0.0
 10
228.2123895373165
 20
100.6993428299462
 30
0.0
 10
228.3122576658706
 20
100.6491366612228
 30
0.0
 10
228.3848152705376
 20
100.6458498612518
 30
0.0
 10
228.4206614714124
 20
100.6442260577576
 30
0.0
  0
SPLINE
  5
A1
330
1F
100
AcDbEntity
  8
0
  6
Continuous
 62
     7
370
    15
100
AcDbSpline
210
0.0
220
0.0
230
1.0
 70
     8
 71
     3
 72
    12
 73
     8
 74
     0
 42
0.00000001
 43
0.00000001
 12
1.0
 22
0.0
 32
0.0
 13
1.0
 23
0.0
 33
0.0
 40
0.0
 40
0.0
 40
0.0
 40
0.0
 40
0.2057548962737047
 40
0.4119611447520714
 40
0.614015238176595
 40
0.813141671034767
 40
1.0
 40
1.0
 40
1.0
 40
1.0
 10
228.4206614714124
 20
100.6442260577576
 30
0.0
 10
228.4852372429414
 20
100.6411293752675
 30
0.0
 10
228.6145304420054
 20
100.6349292172803
 30
0.0
 10
228.7912723719332
 20
100.5434715040418
 30
0.0
 10
228.9272634999406
 20
100.4030687201871
 30
0.0
 10
229.0122125894863
 20
100.2298513734163
 30
0.0
 10
229.0208993788643
 20
100.1064095555976
 30
0.0
 10
229.0251047234991
 20
100.0466503783361
 30
0.0
  0
SPLINE
  5
A2
330
1F
100
AcDbEntity
  8
0
  6
Continuous
 62
     7
370
    15
100
AcDbSpline
210
0.0
220
0.0
230
1.0
 70
     8
 71
     3
 72
    11
 73
     7
 74
     0
 42
0.00000001
 43
0.00000001
 12
1.0
 22
0.0
 32
0.0
 13
1.0
 23
0.0
 33
0.0
 40
0.0
 40
0.0
 40
0.0
 40
0.0
 40
0.2794052708135943
 40
0.5596237787753768
 40
0.8374972121141465
 40
1.0
 40
1.0
 40
1.0
 40
1.0
 10
229.0251047234991
 20
100.0466503783361
 30
0.0
 10
229.0281503318936
 20
100.0085651283895
 30
0.0
 10
229.0342504132322
 20
99.93228377754494
 30
0.0
 10
229.090465775696
 20
99.83005314892112
 30
0.0
 10
229.1625598674038
 20
99.76082295187912
 30
0.0
 10
229.2167304182465
 20
99.73535213548054
 30
0.0
 10
229.2367198389032
 20
99.7259531750576
 30
0.0
  0
ARC
  5
A3
330
1F
100
AcDbEntity
  8
0
  6
Continuous
 62
     7
370
    15
100
AcDbCircle
 10
230.8647407958
 20
102.702121971
 30
0.0
 40
0.5820580936985242
100
AcDbArc
 50
178.3926062274
 51
225.043738603
  0
ARC
  5
A4
330
1F
100
AcDbEntity
  8
0
  6
Continuous
 62
     7
370
    15
100
AcDbCircle
 10
228.3486931012
 20
100.1573414706
 30
0.0
 40
0.5820499608740761
100
AcDbArc
 50
45.0950926349
 51
92.2621373587
  0
ARC
  5
A5
330
1F
100
AcDbEntity
  8
0
  6
Continuous
 62
     7
370
    15
100
AcDbCircle
 10
230.8980647257
 20
101.7880966493
 30
0.0
 40
0.334795260774272
100
AcDbArc
 50
298.4908827607
 51
34.3825957641
  0
SPLINE
  5
A6
330
1F
100
AcDbEntity
  8
0
  6
Continuous
 62
     7
370
    15
100
AcDbSpline
210
0.0
220
0.0
230
1.0
 70
     8
 71
     3
 72
    11
 73
     7
 74
     0
 42
0.00000001
 43
0.00000001
 12
1.0
 22
0.0
 32
0.0
 13
1.0
 23
0.0
 33
0.0
 40
0.0
 40
0.0
 40
0.0
 40
0.0
 40
0.2929012831154901
 40
0.5864356008715861
 40
0.8775194841253307
 40
1.0
 40
1.0
 40
1.0
 40
1.0
 10
231.152759573982
 20
101.3990853562252
 30
0.0
 10
231.184499050831
 20
101.4199991623119
 30
0.0
 10
231.2480466016622
 20
101.4618719745731
 30
0.0
 10
231.30932752955
 20
101.5601027644259
 30
0.0
 10
231.3320350661249
 20
101.650151460369
 30
0.0
 10
231.3299430120715
 20
101.7035047149211
 30
0.0
 10
231.3293234329679
 20
101.7193057223455
 30
0.0
  0
ARC
  5
A7
330
1F
100
AcDbEntity
  8
0
  6
Continuous
 62
     7
370
    15
100
AcDbCircle
 10
229.6388884262
 20
101.3958792848
 30
0.0
 40
2.625035385492131
100
AcDbArc
 50
45.4829913185
 51
224.8585365363
  0
ARC
  5
A8
330
1F
100
AcDbEntity
  8
0
  6
Continuous
 62
     7
370
    15
100
AcDbCircle
 10
229.2629825853
 20
100.1347349394
 30
0.0
 40
0.3350058138939846
100
AcDbArc
 50
237.2011971605
 51
332.1250207753
  0
SPLINE
  5
A9
330
1F
100
AcDbEntity
  8
0
  6
Continuous
 62
     7
370
    15
100
AcDbSpline
210
0.0
220
0.0
230
1.0
 70
     8
 71
     3
 72
    11
 73
     7
 74
     0
 42
0.00000001
 43
0.00000001
 12
1.0
 22
0.0
 32
0.0
 13
1.0
 23
0.0
 33
0.0
 40
0.0
 40
0.0
 40
0.0
 40
0.0
 40
0.2431159690713815
 40
0.5182856990762933
 40
0.7947785229550417
 40
1.0
 40
1.0
 40
1.0
 40
1.0
 10
229.3186985772112
 20
99.70483450435562
 30
0.0
 10
229.3516770158026
 20
99.70363061394532
 30
0.0
 10
229.4219819536686
 20
99.70106410552019
 30
0.0
 10
229.5242174829424
 20
99.74000570813207
 30
0.0
 10
229.60594792029
 20
99.8041189682705
 30
0.0
 10
229.6397051143212
 20
99.85969053772403
 30
0.0
 10
229.6540864627817
 20
99.8833653166191
 30
0.0
  0
SPLINE
  5
AA
330
1F
100
AcDbEntity
  8
0
  6
Continuous
 62
     7
370
    15
100
AcDbSpline
210
0.0
220
0.0
230
1.0
 70
     8
 71
     3
 72
    11
 73
     7
 74
     0
 42
0.00000001
 43
0.00000001
 12
1.0
 22
0.0
 32
0.0
 13
1.0
 23
0.0
 33
0.0
 40
0.0
 40
0.0
 40
0.0
 40
0.0
 40
0.2669031780265961
 40
0.5546171280880322
 40
0.8439082837430371
 40
1.0
 40
1.0
 40
1.0
 40
1.0
 10
230.9295476298788
 20
100.2057239993708
 30
0.0
 10
230.9464675531131
 20
100.2362434434356
 30
0.0
 10
230.981626666995
 20
100.2996619704955
 30
0.0
 10
230.9925434521573
 20
100.4112615803937
 30
0.0
 10
230.9729807385155
 20
100.5061783361859
 30
0.0
 10
230.9447969636314
 20
100.5566341828362
 30
0.0
 10
230.9349194984892
 20
100.5743172600166
 30
0.0
  0
SPLINE
  5
AB
330
1F
100
AcDbEntity
  8
0
  6
Continuous
 62
     7
370
    15
100
AcDbSpline
210
0.0
220
0.0
230
1.0
 70
     8
 71
     3
 72
    12
 73
     8
 74
     0
 42
0.00000001
 43
0.00000001
 12
1.0
 22
0.0
 32
0.0
 13
1.0
 23
0.0
 33
0.0
 40
0.0
 40
0.0
 40
0.0
 40
0.0
 40
0.2058404407558376
 40
0.4120633596408289
 40
0.6141394003510133
 40
0.8132792766030351
 40
0.9999999999999999
 40
0.9999999999999999
 40
0.9999999999999999
 40
0.9999999999999999
 10
230.9349194984892
 20
100.5743172600166
 30
0.0
 10
230.9051469572667
 20
100.6334401566081
 30
0.0
 10
230.8455465535943
 20
100.7517958077703
 30
0.0
 10
230.8364624040751
 20
100.9536015950121
 30
0.0
 10
230.8907164443619
 20
101.1419811705356
 30
0.0
 10
230.9993582085226
 20
101.3001018238197
 30
0.0
 10
231.1027348652187
 20
101.3668064885234
 30
0.0
 10
231.152759573982
 20
101.3990853562252
 30
0.0
  0
SPLINE
  5
AC
330
1F
100
AcDbEntity
  8
0
  6
Continuous
 62
     7
370
    15
100
AcDbSpline
210
0.0
220
0.0
230
1.0
 70
     8
 71
     3
 72
    12
 73
     8
 74
     0
 42
0.00000001
 43
0.00000001
 12
1.0
 22
0.0
 32
0.0
 13
1.0
 23
0.0
 33
0.0
 40
0.0
 40
0.0
 40
0.0
 40
0.0
 40
0.2058177866231297
 40
0.4120219276539034
 40
0.6140790293583828
 40
0.8132120924862876
 40
1.0
 40
1.0
 40
1.0
 40
1.0
 10
229.6540864627817
 20
99.8833653166191
 30
0.0
 10
229.689593339189
 20
99.93870247772578
 30
0.0
 10
229.760673744349
 20
100.0494806770454
 30
0.0
 10
229.9294272045603
 20
100.1586947088284
 30
0.0
 10
230.1195654833174
 20
100.206720892092
 30
0.0
 10
230.3119601922567
 20
100.192811932455
 30
0.0
 10
230.4227504240326
 20
100.1373835282851
 30
0.0
 10
230.4763735156515
 20
100.1105558707611
 30
0.0
  0
SPLINE
  5
AD
330
1F
100
AcDbEntity
  8
0
  6
Continuous
 62
     7
370
    15
100
AcDbSpline
210
0.0
220
0.0
230
1.0
 70
     8
 71
     3
 72
    11
 73
     7
 74
     0
 42
0.00000001
 43
0.00000001
 12
1.0
 22
0.0
 32
0.0
 13
1.0
 23
0.0
 33
0.0
 40
0.0
 40
0.0
 40
0.0
 40
0.0
 40
0.2908615750170571
 40
0.5839583425394806
 40
0.8746033998105837
 40
1.0
 40
1.0
 40
1.0
 40
1.0
 10
230.4763735156515
 20
100.1105558707611
 30
0.0
 10
230.5105696918849
 20
100.0938351099908
 30
0.0
 10
230.5792248327136
 20
100.060265093928
 30
0.0
 10
230.6956479001863
 20
100.0568399991515
 30
0.0
 10
230.7859768776059
 20
100.0826826463902
 30
0.0
 10
230.8316296658899
 20
100.1117033015951
 30
0.0
 10
230.8453895967462
 20
100.1204502417938
 30
0.0
  0
ARC
  5
AE
330
1F
100
AcDbEntity
  8
0
  6
Continuous
 62
     7
370
    15
100
AcDbCircle
 10
231.3379853722
 20
100.9786818643
 30
0.0
 40
0.5864444659063364
100
AcDbArc
 50
118.5433507433
 51
211.8655895542
  0
ARC
  5
AF
330
1F
100
AcDbEntity
  8
0
  6
Continuous
 62
     7
370
    15
100
AcDbCircle
 10
230.0774601537
 20
99.7037153077
 30
0.0
 40
0.586488437952072
100
AcDbArc
 50
58.7875433901
 51
152.1050512665
  0
ARC
  5
B0
330
1F
100
AcDbEntity
  8
0
  6
Continuous
 62
     7
370
    15
100
AcDbCircle
 10
230.555087084
 20
100.492137179
 30
0.0
 40
0.3353231170159621
100
AcDbArc
 50
238.8010809068
 51
31.8489788443
  0
LINE
  5
B1
330
1F
100
AcDbEntity
  8
0
  6
Continuous
 62
     7
370
    15
100
AcDbLine
 10
180.4861404818
 20
100.8994084432
 30
0.0
 11
180.4861404818
 21
150.2994102075
 31
0.0
  0
SPLINE
  5
B2
330
1F
100
AcDbEntity
  8
0
  6
Continuous
 62
     7
370
    15
100
AcDbSpline
210
0.0
220
0.0
230
1.0
 70
     8
 71
     3
 72
    70
 73
    66
 74
     0
 42
0.00000001
 43
0.00000001
 12
1.0
 22
0.0
 32
0.0
 13
1.0
 23
0.0
 33
0.0
 40
-0.0312499999999999
 40
-0.0312499999999999
 40
0.0
 40
0.0
 40
0.0312500000000001
 40
0.0312500000000001
 40
0.0625000000000001
 40
0.0625000000000001
 40
0.0937500000000002
 40
0.0937500000000002
 40
0.1250000000000003
 40
0.1250000000000003
 40
0.1562500000000003
 40
0.1562500000000003
 40
0.1875000000000004
 40
0.1875000000000004
 40
0.2187500000000005
 40
0.2187500000000005
 40
0.2500000000000006
 40
0.2500000000000006
 40
0.2812500000000006
 40
0.2812500000000006
 40
0.3125000000000007
 40
0.3125000000000007
 40
0.3437500000000008
 40
0.3437500000000008
 40
0.3750000000000008
 40
0.3750000000000008
 40
0.4062500000000009
 40
0.4062500000000009
 40
0.4375000000000008
 40
0.4375000000000008
 40
0.4687500000000008
 40
0.4687500000000008
 40
0.5000000000000008
 40
0.5000000000000008
 40
0.5312500000000008
 40
0.5312500000000008
 40
0.5625000000000007
 40
0.5625000000000007
 40
0.5937500000000007
 40
0.5937500000000007
 40
0.6250000000000006
 40
0.6250000000000006
 40
0.6562500000000006
 40
0.6562500000000006
 40
0.6875000000000006
 40
0.6875000000000006
 40
0.7187500000000004
 40
0.7187500000000004
 40
0.7500000000000004
 40
0.7500000000000004
 40
0.7812500000000004
 40
0.7812500000000004
 40
0.8125000000000003
 40
0.8125000000000003
 40
0.8437500000000003
 40
0.8437500000000003
 40
0.8750000000000002
 40
0.8750000000000002
 40
0.9062500000000002
 40
0.9062500000000002
 40
0.9375000000000002
 40
0.9375000000000002
 40
0.9687500000000001
 40
0.9687500000000001
 40
1.0
 40
1.0
 40
1.03125
 40
1.03125
 10
198.2877545678164
 20
114.5978356703796
 30
0.0
 10
198.6845263956955
 20
114.5978356703796
 30
0.0
 10
198.8795610848367
 20
114.5802000081198
 30
0.0
 10
199.263213264522
 20
114.5112753910868
 30
0.0
 10
199.4538323933934
 20
114.4591404810852
 30
0.0
 10
199.8170467549747
 20
114.3236524699839
 30
0.0
 10
199.9892863964858
 20
114.2409454494982
 30
0.0
 10
200.3152564579629
 20
114.0464783722533
 30
0.0
 10
200.4694556798653
 20
113.9337950356931
 30
0.0
 10
200.7459089241076
 20
113.6890697898083
 30
0.0
 10
200.8700274787367
 20
113.5561327794381
 30
0.0
 10
201.089344881742
 20
113.269222121217
 30
0.0
 10
201.1824341073234
 20
113.1175511551821
 30
0.0
 10
201.3321110546045
 20
112.8058276744542
 30
0.0
 10
201.3897982150537
 20
112.6434675523498
 30
0.0
 10
201.4669321060502
 20
112.3136841172623
 30
0.0
 10
201.4860316557395
 20
112.1490798377196
 30
0.0
 10
201.4862483892269
 20
111.8205715270627
 30
0.0
 10
201.4667355746011
 20
111.6550031171038
 30
0.0
 10
201.3901345315219
 20
111.3371195465456
 30
0.0
 10
201.3334593665089
 20
111.1838092825241
 30
0.0
 10
201.1831101535646
 20
110.8881024495793
 30
0.0
 10
201.0892542495234
 20
110.7464600175779
 30
0.0
 10
200.872224182182
 20
110.485806583097
 30
0.0
 10
200.7482063352545
 20
110.3650521889433
 30
0.0
 10
200.4683911129324
 20
110.1431772201596
 30
0.0
 10
200.3170627567747
 20
110.0455627196494
 30
0.0
 10
199.9923970870385
 20
109.8751902350343
 30
0.0
 10
199.8169754687719
 20
109.8018483288559
 30
0.0
 10
199.4537940811328
 20
109.6846787712028
 30
0.0
 10
199.2668063630538
 20
109.6406475909858
 30
0.0
 10
198.8820821612697
 20
109.5810866322605
 30
0.0
 10
198.6831262947509
 20
109.5658690017141
 30
0.0
 10
198.2913972451683
 20
109.5657558475932
 30
0.0
 10
198.0966085799944
 20
109.5803681020723
 30
0.0
 10
197.7092340022905
 20
109.6397988785607
 30
0.0
 10
197.5199103144481
 20
109.6843673260777
 30
0.0
 10
197.1587699154559
 20
109.8005848423071
 30
0.0
 10
196.984183031331
 20
109.8731398746447
 30
0.0
 10
196.6562738521442
 20
110.0448064125129
 30
0.0
 10
196.5052621798229
 20
110.1423974740627
 30
0.0
 10
196.2284431151904
 20
110.3612861823093
 30
0.0
 10
196.1016966359502
 20
110.4840508785341
 30
0.0
 10
195.8838156858606
 20
110.7453010689197
 30
0.0
 10
195.7915176614062
 20
110.8842576462712
 30
0.0
 10
195.6405458410547
 20
111.1796676122827
 30
0.0
 10
195.5826265669602
 20
111.3357884653995
 30
0.0
 10
195.5059839924446
 20
111.6525294591869
 30
0.0
 10
195.4863233409937
 20
111.8147713429455
 30
0.0
 10
195.4859601366715
 20
112.1474891494329
 30
0.0
 10
195.5052684342886
 20
112.3123773223512
 30
0.0
 10
195.5812357753559
 20
112.6390824749496
 30
0.0
 10
195.6388321694973
 20
112.8026556669358
 30
0.0
 10
195.7891482350092
 20
113.1164769646252
 30
0.0
 10
195.8811551371159
 20
113.2663962703283
 30
0.0
 10
196.0985858037419
 20
113.5518184859325
 30
0.0
 10
196.2250390285789
 20
113.6877281249218
 30
0.0
 10
196.50129597339
 20
113.9326012168917
 30
0.0
 10
196.6520995357029
 20
114.0431979413437
 30
0.0
 10
196.9798066056466
 20
114.2393775052809
 30
0.0
 10
197.1540289881015
 20
114.3230366972546
 30
0.0
 10
197.5147957650252
 20
114.4579418665759
 30
0.0
 10
197.7037701429683
 20
114.5101243786598
 30
0.0
 10
198.0916137650744
 20
114.5801973130827
 30
0.0
 10
198.2877545678164
 20
114.5978356703796
 30
0.0
 10
198.6845263956955
 20
114.5978356703796
 30
0.0
  0
SPLINE
  5
B3
330
1F
100
AcDbEntity
  8
0
  6
Continuous
 62
     7
370
    15
100
AcDbSpline
210
0.0
220
0.0
230
1.0
 70
     8
 71
     3
 72
    12
 73
     8
 74
     0
 42
0.00000001
 43
0.00000001
 12
1.0
 22
0.0
 32
0.0
 13
1.0
 23
0.0
 33
0.0
 40
0.0
 40
0.0
 40
0.0
 40
0.0
 40
0.4999999999999996
 40
0.4999999999999996
 40
0.7499999999999998
 40
0.7499999999999998
 40
1.0
 40
1.0
 40
1.0
 40
1.0
 10
188.5808845934302
 20
101.9467678481193
 30
0.0
 10
188.6117363039944
 20
101.9074358077568
 30
0.0
 10
188.6536291674551
 20
101.8700240422285
 30
0.0
 10
188.7531500452482
 20
101.8203531176126
 30
0.0
 10
188.7927642099725
 20
101.8049640350048
 30
0.0
 10
188.889867243752
 20
101.7811308193375
 30
0.0
 10
188.9503659164024
 20
101.7726782098487
 30
0.0
 10
189.0138972953223
 20
101.7726782098487
 30
0.0
  0
LINE
  5
B4
330
1F
100
AcDbEntity
  8
0
  6
Continuous
 62
     7
370
    15
100
AcDbLine
 10
189.0138971504
 20
101.7726779565
 30
0.0
 11
191.9583833661
 21
101.7726779565
 31
0.0
  0
SPLINE
  5
B5
330
1F
100
AcDbEntity
  8
0
  6
Continuous
 62
     7
370
    15
100
AcDbSpline
210
0.0
220
0.0
230
1.0
 70
     8
 71
     3
 72
    12
 73
     8
 74
     0
 42
0.00000001
 43
0.00000001
 12
1.0
 22
0.0
 32
0.0
 13
1.0
 23
0.0
 33
0.0
 40
0.0
 40
0.0
 40
0.0
 40
0.0
 40
0.2500000000000009
 40
0.2500000000000009
 40
0.5000000000000019
 40
0.5000000000000019
 40
1.0
 40
1.0
 40
1.0
 40
1.0
 10
191.9583836681895
 20
101.7726782098489
 30
0.0
 10
192.0220202224032
 20
101.7726782098489
 30
0.0
 10
192.0816003492695
 20
101.7809349807807
 30
0.0
 10
192.1802370906358
 20
101.8051370427885
 30
0.0
 10
192.2191957150161
 20
101.8203838618226
 30
0.0
 10
192.318574654524
 20
101.8699887338828
 30
0.0
 10
192.3605325596895
 20
101.9074203820016
 30
0.0
 10
192.3913963700819
 20
101.9467678481193
 30
0.0
  0
ELLIPSE
  5
B6
330
1F
100
AcDbEntity
  8
0
  6
Continuous
 62
     7
370
    15
100
AcDbEllipse
 10
179.4298828268
 20
125.5994093254
 30
0.0
 11
-11.7092723497272
 21
24.67718644093745
 31
0.0
210
0.0
220
0.0
230
1.0
 40
0.3419987131
 41
3.310521928178953
 42
4.221709151398944
  0
SPLINE
  5
B7
330
1F
100
AcDbEntity
  8
0
  6
Continuous
 62
     7
370
    15
100
AcDbSpline
210
0.0
220
0.0
230
1.0
 70
     8
 71
     3
 72
    12
 73
     8
 74
     0
 42
0.00000001
 43
0.00000001
 12
1.0
 22
0.0
 32
0.0
 13
1.0
 23
0.0
 33
0.0
 40
0.0
 40
0.0
 40
0.0
 40
0.0
 40
0.5000000000000018
 40
0.5000000000000018
 40
0.7500000000000009
 40
0.7500000000000009
 40
1.0
 40
1.0
 40
1.0
 40
1.0
 10
192.3913963700817
 20
117.5029563273066
 30
0.0
 10
192.3605446595176
 20
117.6178593162434
 30
0.0
 10
192.3186517960569
 20
117.7299982122922
 30
0.0
 10
192.2191309182637
 20
117.8819404938931
 30
0.0
 10
192.1795167535394
 20
117.929605103418
 30
0.0
 10
192.08241371976
 20
118.0039414340334
 30
0.0
 10
192.0219150471096
 20
118.0305993561706
 30
0.0
 10
191.9583836681896
 20
118.0305993561706
 30
0.0
  0
LINE
  5
B8
330
1F
100
AcDbEntity
  8
0
  6
Continuous
 62
     7
370
    15
100
AcDbLine
 10
191.9583833661
 20
118.0305991902
 30
0.0
 11
189.0138971504
 21
118.0305991902
 31
0.0
  0
SPLINE
  5
B9
330
1F
100
AcDbEntity
  8
0
  6
Continuous
 62
     7
370
    15
100
AcDbSpline
210
0.0
220
0.0
230
1.0
 70
     8
 71
     3
 72
    12
 73
     8
 74
     0
 42
0.00000001
 43
0.00000001
 12
1.0
 22
0.0
 32
0.0
 13
1.0
 23
0.0
 33
0.0
 40
0.0
 40
0.0
 40
0.0
 40
0.0
 40
0.2500000000000009
 40
0.2500000000000009
 40
0.5000000000000019
 40
0.5000000000000019
 40
1.0
 40
1.0
 40
1.0
 40
1.0
 10
189.0138972953224
 20
118.0305993561702
 30
0.0
 10
188.9502607411087
 20
118.0305993561702
 30
0.0
 10
188.8906806142425
 20
118.0045524531123
 30
0.0
 10
188.7920438728761
 20
117.9290652942123
 30
0.0
 10
188.7530852484958
 20
117.8818462556816
 30
0.0
 10
188.6537063089879
 20
117.7301066045881
 30
0.0
 10
188.6117484038225
 20
117.6179043804039
 30
0.0
 10
188.58088459343
 20
117.5029563273066
 30
0.0
  0
ELLIPSE
  5
BA
330
1F
100
AcDbEntity
  8
0
  6
Continuous
 62
     7
370
    15
100
AcDbEllipse
 10
201.5423981367
 20
125.5994093254
 30
0.0
 11
11.70927234972709
 21
24.67718644093745
 31
0.0
210
0.0
220
0.0
230
1.0
 40
0.3419987131
 41
2.061476155780654
 42
2.972663379000671
  0
SPLINE
  5
BB
330
1F
100
AcDbEntity
  8
0
  6
Continuous
 62
     7
370
    15
100
AcDbSpline
210
0.0
220
0.0
230
1.0
 70
     8
 71
     3
 72
    12
 73
     8
 74
     0
 42
0.00000001
 43
0.00000001
 12
1.0
 22
0.0
 32
0.0
 13
1.0
 23
0.0
 33
0.0
 40
0.0
 40
0.0
 40
0.0
 40
0.0
 40
0.4999999999999982
 40
0.4999999999999982
 40
0.7499999999999991
 40
0.7499999999999991
 40
1.0
 40
1.0
 40
1.0
 40
1.0
 10
188.5808845934302
 20
133.695862323395
 30
0.0
 10
188.6115839767975
 20
133.5815266563312
 30
0.0
 10
188.652934044904
 20
133.4701733034898
 30
0.0
 10
188.7526899731234
 20
133.3174365312411
 30
0.0
 10
188.7923868908561
 20
133.2695766453889
 30
0.0
 10
188.8896450425038
 20
133.1949735320395
 30
0.0
 10
188.9504212004945
 20
133.1682192945314
 30
0.0
 10
189.0138972953224
 20
133.1682192945314
 30
0.0
  0
LINE
  5
BC
330
1F
100
AcDbEntity
  8
0
  6
Continuous
 62
     7
370
    15
100
AcDbLine
 10
189.0138971504
 20
133.1682194605
 30
0.0
 11
191.9583833661
 21
133.1682194605
 31
0.0
  0
SPLINE
  5
BD
330
1F
100
AcDbEntity
  8
0
  6
Continuous
 62
     7
370
    15
100
AcDbSpline
210
0.0
220
0.0
230
1.0
 70
     8
 71
     3
 72
    12
 73
     8
 74
     0
 42
0.00000001
 43
0.00000001
 12
1.0
 22
0.0
 32
0.0
 13
1.0
 23
0.0
 33
0.0
 40
0.0
 40
0.0
 40
0.0
 40
0.0
 40
0.2499999999999982
 40
0.2499999999999982
 40
0.4999999999999963
 40
0.4999999999999963
 40
1.0
 40
1.0
 40
1.0
 40
1.0
 10
191.9583836681895
 20
133.1682192945314
 30
0.0
 10
192.02204890472
 20
133.1682192945314
 30
0.0
 10
192.0816551369434
 20
133.1942914430111
 30
0.0
 10
192.1803156618742
 20
133.2698301938322
 30
0.0
 10
192.2192826518895
 20
133.3170811309284
 30
0.0
 10
192.3186694838139
 20
133.4689049488948
 30
0.0
 10
192.3607457312374
 20
133.5817081986599
 30
0.0
 10
192.3913963700817
 20
133.695862323395
 30
0.0
  0
ELLIPSE
  5
BE
330
1F
100
AcDbEntity
  8
0
  6
Continuous
 62
     7
370
    15
100
AcDbEllipse
 10
179.4298828268
 20
125.5994093254
 30
0.0
 11
11.70927234972709
 21
24.67718644093745
 31
0.0
210
0.0
220
0.0
230
1.0
 40
0.3419987131
 41
5.203068809370452
 42
6.114256032590498
  0
SPLINE
  5
BF
330
1F
100
AcDbEntity
  8
0
  6
Continuous
 62
     7
370
    15
100
AcDbSpline
210
0.0
220
0.0
230
1.0
 70
     8
 71
     3
 72
    12
 73
     8
 74
     0
 42
0.00000001
 43
0.00000001
 12
1.0
 22
0.0
 32
0.0
 13
1.0
 23
0.0
 33
0.0
 40
0.0
 40
0.0
 40
0.0
 40
0.0
 40
0.500000000000001
 40
0.500000000000001
 40
0.7500000000000004
 40
0.7500000000000004
 40
1.0
 40
1.0
 40
1.0
 40
1.0
 10
192.3913963700817
 20
149.2520508025825
 30
0.0
 10
192.3606969867145
 20
149.2911886449784
 30
0.0
 10
192.3193469186079
 20
149.3283484277039
 30
0.0
 10
192.2195909903885
 20
149.3782849333317
 30
0.0
 10
192.1798940726558
 20
149.3937378034754
 30
0.0
 10
192.0826359210081
 20
149.4176573470744
 30
0.0
 10
192.0218597630175
 20
149.4261404408528
 30
0.0
 10
191.9583836681895
 20
149.4261404408528
 30
0.0
  0
LINE
  5
C0
330
1F
100
AcDbEntity
  8
0
  6
Continuous
 62
     7
370
    15
100
AcDbLine
 10
191.9583833661
 20
149.4261406943
 30
0.0
 11
189.0138971504
 21
149.4261406943
 31
0.0
  0
SPLINE
  5
C1
330
1F
100
AcDbEntity
  8
0
  6
Continuous
 62
     7
370
    15
100
AcDbSpline
210
0.0
220
0.0
230
1.0
 70
     8
 71
     3
 72
    12
 73
     8
 74
     0
 42
0.00000001
 43
0.00000001
 12
1.0
 22
0.0
 32
0.0
 13
1.0
 23
0.0
 33
0.0
 40
0.0
 40
0.0
 40
0.0
 40
0.0
 40
0.2500000000000016
 40
0.2500000000000016
 40
0.5000000000000032
 40
0.5000000000000032
 40
1.0
 40
1.0
 40
1.0
 40
1.0
 10
189.0138972953224
 20
149.4261404408528
 30
0.0
 10
188.9502320587919
 20
149.4261404408528
 30
0.0
 10
188.8906258265686
 20
149.417875665187
 30
0.0
 10
188.7919653016377
 20
149.3936568836039
 30
0.0
 10
188.7529983116225
 20
149.3783995642947
 30
0.0
 10
188.653611479698
 20
149.3287662100327
 30
0.0
 10
188.6115352322745
 20
149.2911265018586
 30
0.0
 10
188.5808845934302
 20
149.2520508025825
 30
0.0
  0
ELLIPSE
  5
C2
330
1F
100
AcDbEntity
  8
0
  6
Continuous
 62
     7
370
    15
100
AcDbEllipse
 10
201.5423981367
 20
125.5994093254
 30
0.0
 11
-11.70927234972694
 21
24.67718644093745
 31
0.0
210
0.0
220
0.0
230
1.0
 40
0.3419987131
 41
0.168929274589136
 42
1.08011649780915
  0
ELLIPSE
  5
C3
330
1F
100
AcDbEntity
  8
0
  6
Continuous
 62
     7
370
    15
100
AcDbEllipse
 10
271.100206133
 20
125.5994093254
 30
0.0
 11
357.5166355196895
 21
1.752438844971281
 31
0.0
210
0.0
220
0.0
230
1.0
 40
0.0697548059
 41
1.738258677684526
 42
1.743275743031332
  0
SPLINE
  5
C4
330
1F
100
AcDbEntity
  8
0
  6
Continuous
 62
     7
370
    15
100
AcDbSpline
210
0.0
220
0.0
230
1.0
 70
     8
 71
     3
 72
    18
 73
    14
 74
     0
 42
0.00000001
 43
0.00000001
 12
1.0
 22
0.0
 32
0.0
 13
1.0
 23
0.0
 33
0.0
 40
0.0
 40
0.0
 40
0.0
 40
0.0
 40
0.2499999999999987
 40
0.2499999999999987
 40
0.4999999999999973
 40
0.4999999999999973
 40
0.624999999999998
 40
0.624999999999998
 40
0.7499999999999987
 40
0.7499999999999987
 40
0.8749999999999993
 40
0.8749999999999993
 40
1.0
 40
1.0
 40
1.0
 40
1.0
 10
209.6208070472568
 20
149.8671187347327
 30
0.0
 10
209.3055738227677
 20
149.8617425183042
 30
0.0
 10
209.002254419364
 20
149.8447680909012
 30
0.0
 10
208.4191502733426
 20
149.7855195904392
 30
0.0
 10
208.1512784721213
 20
149.7442227669145
 30
0.0
 10
207.7920713239912
 20
149.662740774732
 30
0.0
 10
207.6797972508631
 20
149.6322683718188
 30
0.0
 10
207.4763488843944
 20
149.5660241526385
 30
0.0
 10
207.3841339649455
 20
149.5300323378549
 30
0.0
 10
207.2187015971299
 20
149.451673747153
 30
0.0
 10
207.1454961106047
 20
149.4091461124778
 30
0.0
 10
207.0224084676971
 20
149.319578974058
 30
0.0
 10
206.9718540250389
 20
149.272272814103
 30
0.0
 10
206.9322989896219
 20
149.2222234349346
 30
0.0
  0
ELLIPSE
  5
C5
330
1F
100
AcDbEntity
  8
0
  6
Continuous
 62
     7
370
    15
100
AcDbEllipse
 10
208.6780665929
 20
125.5994093254
 30
0.0
 11
0.5032127365421104
 21
24.99963842687603
 31
0.0
210
0.0
220
0.0
230
1.0
 40
0.2671959542
 41
0.3388472327939864
 42
2.953128325396881
  0
SPLINE
  5
C6
330
1F
100
AcDbEntity
  8
0
  6
Continuous
 62
     7
370
    15
100
AcDbSpline
210
0.0
220
0.0
230
1.0
 70
     8
 71
     3
 72
    20
 73
    16
 74
     0
 42
0.00000001
 43
0.00000001
 12
1.0
 22
0.0
 32
0.0
 13
1.0
 23
0.0
 33
0.0
 40
0.0
 40
0.0
 40
0.0
 40
0.0
 40
0.2500000000000003
 40
0.2500000000000003
 40
0.3750000000000003
 40
0.3750000000000003
 40
0.5000000000000002
 40
0.5000000000000002
 40
0.6250000000000001
 40
0.6250000000000001
 40
0.7500000000000001
 40
0.7500000000000001
 40
0.875
 40
0.875
 40
1.0
 40
1.0
 40
1.0
 40
1.0
 10
206.9322989896219
 20
101.0676274306559
 30
0.0
 10
207.011418235418
 20
101.0087120340455
 30
0.0
 10
207.1332822935798
 20
100.9589699749123
 30
0.0
 10
207.3817288330406
 20
100.8953020575925
 30
0.0
 10
207.475162961327
 20
100.8761257050728
 30
0.0
 10
207.6782657214918
 20
100.8421266870712
 30
0.0
 10
207.7885433189934
 20
100.8271409028187
 30
0.0
 10
208.0269722085408
 20
100.8005971863635
 30
0.0
 10
208.1557816891533
 20
100.7890326521923
 30
0.0
 10
208.4225450305631
 20
100.7695598619094
 30
0.0
 10
208.5614847853147
 20
100.7615205339813
 30
0.0
 10
208.8505283075631
 20
100.7482953263525
 30
0.0
 10
209.0017611991083
 20
100.7430935770156
 30
0.0
 10
209.3078266777723
 20
100.7355071819399
 30
0.0
 10
209.4631511737117
 20
100.7330763452794
 30
0.0
 10
209.6208070472568
 20
100.731925610193
 30
0.0
  0
ELLIPSE
  5
C7
330
1F
100
AcDbEntity
  8
0
  6
Continuous
 62
     7
370
    15
100
AcDbEllipse
 10
271.100206133
 20
125.5994093254
 30
0.0
 11
357.5166355196895
 21
1.752438844971281
 31
0.0
210
0.0
220
0.0
230
1.0
 40
0.0697548059
 41
4.539225730085072
 42
4.548015483648919
  0
ELLIPSE
  5
C8
330
1F
100
AcDbEntity
  8
0
  6
Continuous
 62
     7
370
    15
100
AcDbEllipse
 10
228.1198422404
 20
125.5994093254
 30
0.0
 11
-18.10719883871448
 21
24.95724044761389
 31
0.0
210
0.0
220
0.0
230
1.0
 40
0.0807169094
 41
5.987072230268332
 42
6.22468966826937
  0
ELLIPSE
  5
C9
330
1F
100
AcDbEntity
  8
0
  6
Continuous
 62
     7
370
    15
100
AcDbEllipse
 10
205.8854468924
 20
112.9662710759
 30
0.0
 11
-0.1424585260392917
 21
3.057101727617052
 31
0.0
210
0.0
220
0.0
230
1.0
 40
0.2280975724
 41
0.0
 42
6.283185307179586
  0
SPLINE
  5
CA
330
1F
100
AcDbEntity
  8
0
  6
Continuous
 62
     7
370
    15
100
AcDbSpline
210
0.0
220
0.0
230
1.0
 70
     8
 71
     3
 72
    16
 73
    12
 74
     0
 42
0.00000001
 43
0.00000001
 12
1.0
 22
0.0
 32
0.0
 13
1.0
 23
0.0
 33
0.0
 40
0.0
 40
0.0
 40
0.0
 40
0.0
 40
0.2500000000000004
 40
0.2500000000000004
 40
0.5000000000000009
 40
0.5000000000000009
 40
0.6250000000000008
 40
0.6250000000000008
 40
0.7500000000000007
 40
0.7500000000000007
 40
1.0
 40
1.0
 40
1.0
 40
1.0
 10
179.4452794536269
 20
108.2502520441584
 30
0.0
 10
179.4770074148196
 20
108.2494549273374
 30
0.0
 10
179.5116350051701
 20
108.2488638524822
 30
0.0
 10
179.5913287672338
 20
108.2478523270477
 30
0.0
 10
179.6363702272375
 20
108.2474522188728
 30
0.0
 10
179.7192229540879
 20
108.246494346969
 30
0.0
 10
179.7491374152877
 20
108.2461126657086
 30
0.0
 10
179.8151237458457
 20
108.24503645165
 30
0.0
 10
179.8518573713075
 20
108.2443188857559
 30
0.0
 10
179.9643540908773
 20
108.2415580080742
 30
0.0
 10
180.0346954389756
 20
108.2390709162026
 30
0.0
 10
180.0911635928807
 20
108.2368976377955
 30
0.0
  0
SPLINE
  5
CB
330
1F
100
AcDbEntity
  8
0
  6
Continuous
 62
     7
370
    15
100
AcDbSpline
210
0.0
220
0.0
230
1.0
 70
     8
 71
     3
 72
    14
 73
    10
 74
     0
 42
0.00000001
 43
0.00000001
 12
1.0
 22
0.0
 32
0.0
 13
1.0
 23
0.0
 33
0.0
 40
0.0
 40
0.0
 40
0.0
 40
0.0
 40
0.1249999999999951
 40
0.1249999999999951
 40
0.2499999999999902
 40
0.2499999999999902
 40
0.4999999999999917
 40
0.4999999999999917
 40
1.0
 40
1.0
 40
1.0
 40
1.0
 10
180.0911635928491
 20
108.2368976378183
 30
0.0
 10
180.1037553867939
 20
108.2364130199959
 30
0.0
 10
180.118626495088
 20
108.2347028420636
 30
0.0
 10
180.1508105865212
 20
108.2265872933127
 30
0.0
 10
180.166414717997
 20
108.2203715050513
 30
0.0
 10
180.2023018577091
 20
108.2021523933498
 30
0.0
 10
180.2161538989778
 20
108.1903873650161
 30
0.0
 10
180.2496436409104
 20
108.1585922285988
 30
0.0
 10
180.2603059014861
 20
108.1407987967556
 30
0.0
 10
180.2684438583811
 20
108.1243676659112
 30
0.0
  0
LINE
  5
CC
330
1F
100
AcDbEntity
  8
0
  6
Continuous
 62
     7
370
    15
100
AcDbLine
 10
180.2861404868
 20
119.6149292982
 30
0.0
 11
180.2861404868
 21
107.7595882698
 31
0.0
  0
SPLINE
  5
CD
330
1F
100
AcDbEntity
  8
0
  6
Continuous
 62
     7
370
    15
100
AcDbSpline
210
0.0
220
0.0
230
1.0
 70
     8
 71
     3
 72
    16
 73
    12
 74
     0
 42
0.00000001
 43
0.00000001
 12
1.0
 22
0.0
 32
0.0
 13
1.0
 23
0.0
 33
0.0
 40
0.0
 40
0.0
 40
0.0
 40
0.0
 40
0.4999999999999998
 40
0.4999999999999998
 40
0.7500000000000014
 40
0.7500000000000014
 40
0.8749999999999996
 40
0.8749999999999996
 40
0.9374999999999998
 40
0.9374999999999998
 40
1.0
 40
1.0
 40
1.0
 40
1.0
 10
180.286140481756
 20
119.6149290927763
 30
0.0
 10
180.286140481756
 20
119.7294588234752
 30
0.0
 10
180.2820831796409
 20
119.8447748986648
 30
0.0
 10
180.2564259368461
 20
120.0196979884923
 30
0.0
 10
180.245110491104
 20
120.0795272914872
 30
0.0
 10
180.2110791237954
 20
120.1641184777354
 30
0.0
 10
180.1972001425916
 20
120.1927880638794
 30
0.0
 10
180.1612644608242
 20
120.2225958508258
 30
0.0
 10
180.1463141415614
 20
120.2289310041854
 30
0.0
 10
180.1164156288196
 20
120.2277055413151
 30
0.0
 10
180.1028827684544
 20
120.2211069552803
 30
0.0
 10
180.0911635928803
 20
120.2124592672239
 30
0.0
  0
SPLINE
  5
CE
330
1F
100
AcDbEntity
  8
0
  6
Continuous
 62
     7
370
    15
100
AcDbSpline
210
0.0
220
0.0
230
1.0
 70
     8
 71
     3
 72
    14
 73
    10
 74
     0
 42
0.00000001
 43
0.00000001
 12
1.0
 22
0.0
 32
0.0
 13
1.0
 23
0.0
 33
0.0
 40
0.0
 40
0.0
 40
0.0
 40
0.0
 40
0.25
 40
0.25
 40
0.5
 40
0.5
 40
0.75
 40
0.75
 40
1.0
 40
1.0
 40
1.0
 40
1.0
 10
180.0911635928871
 20
120.2124592672153
 30
0.0
 10
180.0347039270034
 20
120.1707971575165
 30
0.0
 10
179.9638314521412
 20
120.1399636769282
 30
0.0
 10
179.8153650942592
 20
120.1456781855414
 30
0.0
 10
179.7461698910515
 20
120.1812491129743
 30
0.0
 10
179.6364527049819
 20
120.2681930254482
 30
0.0
 10
179.5912068160499
 20
120.3206253388134
 30
0.0
 10
179.5115896850831
 20
120.4291784203319
 30
0.0
 10
179.4769870656262
 20
120.4861615065743
 30
0.0
 10
179.4452794536274
 20
120.5447275892323
 30
0.0
  0
SPLINE
  5
CF
330
1F
100
AcDbEntity
  8
0
  6
Continuous
 62
     7
370
    15
100
AcDbSpline
210
0.0
220
0.0
230
1.0
 70
     8
 71
     3
 72
    10
 73
     6
 74
     0
 42
0.00000001
 43
0.00000001
 12
1.0
 22
0.0
 32
0.0
 13
1.0
 23
0.0
 33
0.0
 40
0.0
 40
0.0
 40
0.0
 40
0.0
 40
0.5
 40
0.5
 40
1.0
 40
1.0
 40
1.0
 40
1.0
 10
179.1648201381964
 20
121.3975461808786
 30
0.0
 10
179.1956987218083
 20
121.2479176290189
 30
0.0
 10
179.2316914295317
 20
121.1014222114953
 30
0.0
 10
179.3210316810288
 20
120.8162305729545
 30
0.0
 10
179.3734899838744
 20
120.6773275472386
 30
0.0
 10
179.4452794536275
 20
120.5447275892321
 30
0.0
  0
SPLINE
  5
D0
330
1F
100
AcDbEntity
  8
0
  6
Continuous
 62
     7
370
    15
100
AcDbSpline
210
0.0
220
0.0
230
1.0
 70
     8
 71
     3
 72
    10
 73
     6
 74
     0
 42
0.00000001
 43
0.00000001
 12
1.0
 22
0.0
 32
0.0
 13
1.0
 23
0.0
 33
0.0
 40
0.0
 40
0.0
 40
0.0
 40
0.0
 40
0.5
 40
0.5
 40
1.0
 40
1.0
 40
1.0
 40
1.0
 10
179.4452794536268
 20
130.6540910614685
 30
0.0
 10
179.3734899838739
 20
130.5214911034622
 30
0.0
 10
179.3210316810284
 20
130.3825880777464
 30
0.0
 10
179.2316914295315
 20
130.0973964392061
 30
0.0
 10
179.1956987218083
 20
129.9509010216828
 30
0.0
 10
179.1648201381964
 20
129.8012724698233
 30
0.0
  0
SPLINE
  5
D1
330
1F
100
AcDbEntity
  8
0
  6
Continuous
 62
     7
370
    15
100
AcDbSpline
210
0.0
220
0.0
230
1.0
 70
     8
 71
     3
 72
    14
 73
    10
 74
     0
 42
0.00000001
 43
0.00000001
 12
1.0
 22
0.0
 32
0.0
 13
1.0
 23
0.0
 33
0.0
 40
0.0
 40
0.0
 40
0.0
 40
0.0
 40
0.25
 40
0.25
 40
0.5
 40
0.5
 40
0.75
 40
0.75
 40
1.0
 40
1.0
 40
1.0
 40
1.0
 10
179.4452794536261
 20
130.6540910614674
 30
0.0
 10
179.4769881531115
 20
130.7126591527859
 30
0.0
 10
179.5115959717521
 20
130.7696534147259
 30
0.0
 10
179.5912543822414
 20
130.8782535494899
 30
0.0
 10
179.6363166521363
 20
130.9305816848685
 30
0.0
 10
179.7468984977147
 20
131.0180826962308
 30
0.0
 10
179.8145426185299
 20
131.053128152485
 30
0.0
 10
179.9647909089271
 20
131.058872541241
 30
0.0
 10
180.0347433071574
 20
131.027992434191
 30
0.0
 10
180.091163592881
 20
130.986359383478
 30
0.0
  0
SPLINE
  5
D2
330
1F
100
AcDbEntity
  8
0
  6
Continuous
 62
     7
370
    15
100
AcDbSpline
210
0.0
220
0.0
230
1.0
 70
     8
 71
     3
 72
    16
 73
    12
 74
     0
 42
0.00000001
 43
0.00000001
 12
1.0
 22
0.0
 32
0.0
 13
1.0
 23
0.0
 33
0.0
 40
0.0
 40
0.0
 40
0.0
 40
0.0
 40
0.0624999999999991
 40
0.0624999999999991
 40
0.1249999999999982
 40
0.1249999999999982
 40
0.2499999999999984
 40
0.2499999999999984
 40
0.4999999999999989
 40
0.4999999999999989
 40
1.0
 40
1.0
 40
1.0
 40
1.0
 10
180.0911635928491
 20
130.9863593834246
 30
0.0
 10
180.102897827296
 20
130.9777005832804
 30
0.0
 10
180.116429582775
 20
130.9710964980451
 30
0.0
 10
180.1464170432048
 20
130.9698995308709
 30
0.0
 10
180.1614117496131
 20
130.9763212779368
 30
0.0
 10
180.1971521720078
 20
131.0060384313461
 30
0.0
 10
180.211165509009
 20
131.0348458287295
 30
0.0
 10
180.2453095977904
 20
131.1199255503554
 30
0.0
 10
180.2562815019087
 20
131.1783004996251
 30
0.0
 10
180.2821270421751
 20
131.3540160244137
 30
0.0
 10
180.286140481756
 20
131.4698110322782
 30
0.0
 10
180.286140481756
 20
131.5838895579256
 30
0.0
  0
LINE
  5
D3
330
1F
100
AcDbEntity
  8
0
  6
Continuous
 62
     7
370
    15
100
AcDbLine
 10
180.2861404868
 20
143.4392303809
 30
0.0
 11
180.2861404868
 21
131.5838893525
 31
0.0
  0
SPLINE
  5
D4
330
1F
100
AcDbEntity
  8
0
  6
Continuous
 62
     7
370
    15
100
AcDbSpline
210
0.0
220
0.0
230
1.0
 70
     8
 71
     3
 72
    16
 73
    12
 74
     0
 42
0.00000001
 43
0.00000001
 12
1.0
 22
0.0
 32
0.0
 13
1.0
 23
0.0
 33
0.0
 40
0.0
 40
0.0
 40
0.0
 40
0.0
 40
0.5000000000000046
 40
0.5000000000000046
 40
0.7500000000000058
 40
0.7500000000000058
 40
0.8750000000000033
 40
0.8750000000000033
 40
0.9375000000000017
 40
0.9375000000000017
 40
1.0
 40
1.0
 40
1.0
 40
1.0
 10
180.2861404817561
 20
143.1461637910185
 30
0.0
 10
180.2861404817558
 20
143.1241487764392
 30
0.0
 10
180.2820159389019
 20
143.0987951417355
 30
0.0
 10
180.2560994932687
 20
143.0516346395469
 30
0.0
 10
180.244821912249
 20
143.0344356513181
 30
0.0
 10
180.2110865337076
 20
143.0044576857489
 30
0.0
 10
180.1966977184632
 20
142.993106277207
 30
0.0
 10
180.1614510290241
 20
142.9764184177296
 30
0.0
 10
180.1462456045672
 20
142.9708553908443
 30
0.0
 10
180.1165990253979
 20
142.9638858078092
 30
0.0
 10
180.1028936894004
 20
142.9623724667538
 30
0.0
 10
180.0911635928767
 20
142.961921012904
 30
0.0
  0
SPLINE
  5
D5
330
1F
100
AcDbEntity
  8
0
  6
Continuous
 62
     7
370
    15
100
AcDbSpline
210
0.0
220
0.0
230
1.0
 70
     8
 71
     3
 72
    14
 73
    10
 74
     0
 42
0.00000001
 43
0.00000001
 12
1.0
 22
0.0
 32
0.0
 13
1.0
 23
0.0
 33
0.0
 40
0.0
 40
0.0
 40
0.0
 40
0.0
 40
0.25
 40
0.25
 40
0.5
 40
0.5
 40
0.75
 40
0.75
 40
1.0
 40
1.0
 40
1.0
 40
1.0
 10
180.0911635928871
 20
142.9619210129065
 30
0.0
 10
180.0347165108289
 20
142.9597485454872
 30
0.0
 10
179.9638661267861
 20
142.9572504475697
 30
0.0
 10
179.8154296919697
 20
142.9536039887816
 30
0.0
 10
179.7462404402827
 20
142.9526362419303
 30
0.0
 10
179.6365288920418
 20
142.9513686825676
 30
0.0
 10
179.5912872426995
 20
142.9509658416393
 30
0.0
 10
179.5116392245156
 20
142.9499548067116
 30
0.0
 10
179.4770123087496
 20
142.949363846317
 30
0.0
 10
179.4452794536282
 20
142.9485666065436
 30
0.0
  0
SPLINE
  5
D6
330
1F
100
AcDbEntity
  8
0
  6
Continuous
 62
     7
370
    15
100
AcDbSpline
210
0.0
220
0.0
230
1.0
 70
     8
 71
     3
 72
    18
 73
    14
 74
     0
 42
0.00000001
 43
0.00000001
 12
1.0
 22
0.0
 32
0.0
 13
1.0
 23
0.0
 33
0.0
 40
0.0
 40
0.0
 40
0.0
 40
0.0
 40
0.2500000000000002
 40
0.2500000000000002
 40
0.3750000000000002
 40
0.3750000000000002
 40
0.5000000000000002
 40
0.5000000000000002
 40
0.6250000000000002
 40
0.6250000000000002
 40
0.7500000000000002
 40
0.7500000000000002
 40
1.0
 40
1.0
 40
1.0
 40
1.0
 10
179.1648201381963
 20
129.8012724698233
 30
0.0
 10
179.029534531894
 20
129.1457181344021
 30
0.0
 10
178.928366785651
 20
128.4660970406045
 30
0.0
 10
178.8255054427821
 20
127.4107330341105
 30
0.0
 10
178.7994025972588
 20
127.0519189695258
 30
0.0
 10
178.764512613714
 20
126.3258060254029
 30
0.0
 10
178.755926355424
 20
125.9637163463868
 30
0.0
 10
178.7558266458583
 20
125.2414066889684
 30
0.0
 10
178.7643150170069
 20
124.8811868868601
 30
0.0
 10
178.7984583965275
 20
124.1626208177662
 30
0.0
 10
178.8242553783813
 20
123.8028551018508
 30
0.0
 10
178.9276565097692
 20
122.7362105148564
 30
0.0
 10
179.0295145019406
 20
122.053197575574
 30
0.0
 10
179.1648201381963
 20
121.3975461808786
 30
0.0
  0
LINE
  5
D7
330
1F
100
AcDbEntity
  8
0
  6
Continuous
 62
     7
370
    15
100
AcDbLine
 10
178.2861404937
 20
130.7395616195
 30
0.0
 11
178.2861404937
 21
120.4592570312
 31
0.0
  0
LINE
  5
D8
330
1F
100
AcDbEntity
  8
0
  6
Continuous
 62
     7
370
    15
100
AcDbLine
 10
151.9861404669
 20
130.4091879747
 30
0.0
 11
151.9861404669
 21
120.789630676
 31
0.0
  0
LINE
  5
D9
330
1F
100
AcDbEntity
  8
0
  6
Continuous
 62
     7
370
    15
100
AcDbLine
 10
150.4861411523
 20
129.9761751316
 30
0.0
 11
150.4861411523
 21
121.2226435191
 31
0.0
  0
LINE
  5
DA
330
1F
100
AcDbEntity
  8
0
  6
Continuous
 62
     7
370
    15
100
AcDbLine
 10
151.9861404669
 20
108.7400585993
 30
0.0
 11
151.9861404669
 21
120.789630676
 31
0.0
  0
LINE
  5
DB
330
1F
100
AcDbEntity
  8
0
  6
Continuous
 62
     7
370
    15
100
AcDbLine
 10
178.2861404937
 20
108.0793113097
 30
0.0
 11
178.2861404937
 21
120.4592570312
 31
0.0
  0
LINE
  5
DC
330
1F
100
AcDbEntity
  8
0
  6
Continuous
 62
     7
370
    15
100
AcDbLine
 10
151.9861404669
 20
108.7400585993
 30
0.0
 11
178.2861404937
 21
108.0793113097
 31
0.0
  0
LINE
  5
DD
330
1F
100
AcDbEntity
  8
0
  6
Continuous
 62
     7
370
    15
100
AcDbLine
 10
151.9861404669
 20
130.4091879747
 30
0.0
 11
151.9861404669
 21
142.4587600514
 31
0.0
  0
LINE
  5
DE
330
1F
100
AcDbEntity
  8
0
  6
Continuous
 62
     7
370
    15
100
AcDbLine
 10
151.9861404669
 20
142.4587600514
 30
0.0
 11
178.2861404937
 21
143.119507341
 31
0.0
  0
LINE
  5
DF
330
1F
100
AcDbEntity
  8
0
  6
Continuous
 62
     7
370
    15
100
AcDbLine
 10
178.2861404937
 20
130.7395616195
 30
0.0
 11
178.2861404937
 21
143.119507341
 31
0.0
  0
ARC
  5
E0
330
1F
100
AcDbEntity
  8
0
  6
Continuous
 62
     7
370
    15
100
AcDbCircle
 10
178.4860773927
 20
143.124531221
 30
0.0
 40
0.1999999999999782
100
AcDbArc
 50
181.4391666667
 51
271.4391666667
  0
ARC
  5
E1
330
1F
100
AcDbEntity
  8
0
  6
Continuous
 62
     7
370
    15
100
AcDbCircle
 10
178.4860773927
 20
108.0742874297
 30
0.0
 40
0.2000000000000066
100
AcDbArc
 50
88.5608333333
 51
178.5608333333
  0
LINE
  5
E2
330
1F
100
AcDbEntity
  8
0
  6
Continuous
 62
     7
370
    15
100
AcDbLine
 10
178.4911006108
 20
108.274224086
 30
0.0
 11
179.4452794712
 21
108.250251843
 31
0.0
  0
LINE
  5
E3
330
1F
100
AcDbEntity
  8
0
  6
Continuous
 62
     7
370
    15
100
AcDbLine
 10
178.4911006108
 20
142.9245945647
 30
0.0
 11
179.4452794712
 21
142.9485668077
 31
0.0
  0
LINE
  5
E4
330
1F
100
AcDbEntity
  8
0
  6
Continuous
 62
     7
370
    15
100
AcDbLine
 10
150.4861411523
 20
141.5927343651
 30
0.0
 11
151.9861404669
 21
142.4587600514
 31
0.0
  0
LINE
  5
E5
330
1F
100
AcDbEntity
  8
0
  6
Continuous
 62
     7
370
    15
100
AcDbLine
 10
150.4861411523
 20
129.9761751316
 30
0.0
 11
150.4861411523
 21
141.5927343651
 31
0.0
  0
LINE
  5
E6
330
1F
100
AcDbEntity
  8
0
  6
Continuous
 62
     7
370
    15
100
AcDbLine
 10
150.4861411523
 20
109.6060842856
 30
0.0
 11
151.9861404669
 21
108.7400585993
 31
0.0
  0
LINE
  5
E7
330
1F
100
AcDbEntity
  8
0
  6
Continuous
 62
     7
370
    15
100
AcDbLine
 10
150.4861411523
 20
109.6060842856
 30
0.0
 11
150.4861411523
 21
121.2226435191
 31
0.0
  0
LINE
  5
E8
330
1F
100
AcDbEntity
  8
0
  6
Continuous
 62
     7
370
    15
100
AcDbLine
 10
216.1984608393
 20
99.6581044629
 30
0.0
 11
213.7689233642
 21
99.6373732223
 31
0.0
  0
LINE
  5
E9
330
1F
100
AcDbEntity
  8
0
  6
Continuous
 62
     7
370
    15
100
AcDbLine
 10
213.684739254
 20
99.9551311716
 30
0.0
 11
213.7689233642
 21
99.6373732223
 31
0.0
  0
SPLINE
  5
EA
330
1F
100
AcDbEntity
  8
0
  6
Continuous
 62
     7
370
    15
100
AcDbSpline
210
0.0
220
0.0
230
1.0
 70
     8
 71
     3
 72
    10
 73
     6
 74
     0
 42
0.00000001
 43
0.00000001
 12
1.0
 22
0.0
 32
0.0
 13
1.0
 23
0.0
 33
0.0
 40
0.0
 40
0.0
 40
0.0
 40
0.0
 40
0.5
 40
0.5
 40
1.0
 40
1.0
 40
1.0
 40
1.0
 10
212.718813493777
 20
100.7102911220188
 30
0.0
 10
212.9407889427293
 20
100.7088109549558
 30
0.0
 10
213.1553207297776
 20
100.6326171264654
 30
0.0
 10
213.5028096925238
 20
100.3598552812694
 30
0.0
 10
213.6279909668167
 20
100.169369460221
 30
0.0
 10
213.6847393200661
 20
99.95513170367552
 30
0.0
  0
LINE
  5
EB
330
1F
100
AcDbEntity
  8
0
  6
Continuous
 62
     7
370
    15
100
AcDbLine
 10
230.9594281834
 20
122.085367434
 30
0.0
 11
211.3885373693
 21
149.8969484701
 31
0.0
  0
LINE
  5
EC
330
1F
100
AcDbEntity
  8
0
  6
Continuous
 62
     7
370
    15
100
AcDbLine
 10
230.9594281834
 20
115.4221090137
 30
0.0
 11
230.9594281834
 21
122.085367434
 31
0.0
  0
ELLIPSE
  5
ED
330
1F
100
AcDbEntity
  8
0
  6
Continuous
 62
     7
370
    15
100
AcDbEllipse
 10
256.9320921063
 20
115.643671121
 30
0.0
 11
17.28642680684982
 21
19.55165705820388
 31
0.0
210
0.0
220
0.0
230
1.0
 40
0.9914502387
 41
2.299043391287549
 42
2.722111544105434
  0
LINE
  5
EE
330
1F
100
AcDbEntity
  8
0
  6
Continuous
 62
     7
370
    15
100
AcDbLine
 10
221.946252219
 20
114.3843502387
 30
0.0
 11
224.6372827213
 21
109.2280511393
 31
0.0
  0
ARC
  5
EF
330
1F
100
AcDbEntity
  8
0
  6
Continuous
 62
     7
370
    15
100
AcDbCircle
 10
220.2489097771
 20
113.4855005063
 30
0.0
 40
1.920651505681753
100
AcDbArc
 50
27.9040381758
 51
207.5348584454
  0
LINE
  5
F0
330
1F
100
AcDbEntity
  8
0
  6
Continuous
 62
     7
370
    15
100
AcDbLine
 10
219.2270659726
 20
111.2922521889
 30
0.0
 11
218.5458109599
 21
112.5976060166
 31
0.0
  0
ELLIPSE
  5
F1
330
1F
100
AcDbEntity
  8
0
  6
Continuous
 62
     7
370
    15
100
AcDbEllipse
 10
216.1984594276
 20
73.6858459045
 30
0.0
 11
19.52855739459131
 21
17.3132835743064
 31
0.0
210
0.0
220
0.0
230
1.0
 40
0.9914322785
 41
0.4497026306131711
 42
0.8497242122885499
  0
ARC
  5
F2
330
1F
100
AcDbEntity
  8
0
  6
Continuous
 62
     7
370
    15
100
AcDbCircle
 10
220.107227408
 20
113.6193580877
 30
0.0
 40
1.743680892236478
100
AcDbArc
 50
164.2889107252
 51
207.5182537759
  0
ARC
  5
F3
330
1F
100
AcDbEntity
  8
0
  6
Continuous
 62
     7
370
    15
100
AcDbCircle
 10
220.1177040029
 20
113.6354238077
 30
0.0
 40
1.738060881053729
100
AcDbArc
 50
27.6131062497
 51
105.9167523649
  0
LINE
  5
F4
330
1F
100
AcDbEntity
  8
0
  6
Continuous
 62
     7
370
    15
100
AcDbLine
 10
218.5608201545
 20
112.8137231454
 30
0.0
 11
219.2373067956
 21
111.5175102487
 31
0.0
  0
LINE
  5
F5
330
1F
100
AcDbEntity
  8
0
  6
Continuous
 62
     7
370
    15
100
AcDbLine
 10
221.6577955406
 20
114.4410128354
 30
0.0
 11
224.2830709439
 21
109.4107151612
 31
0.0
  0
LINE
  5
F6
330
1F
100
AcDbEntity
  8
0
  6
Continuous
 62
     7
370
    15
100
AcDbLine
 10
213.670225523
 20
99.9079168423
 30
0.0
 11
213.684739254
 21
99.8610564157
 31
0.0
  0
SPLINE
  5
F7
330
1F
100
AcDbEntity
  8
0
  6
Continuous
 62
     7
370
    15
100
AcDbSpline
210
0.0
220
0.0
230
1.0
 70
     8
 71
     3
 72
     8
 73
     4
 74
     0
 42
0.00000001
 43
0.00000001
 12
1.0
 22
0.0
 32
0.0
 13
1.0
 23
0.0
 33
0.0
 40
0.0
 40
0.0
 40
0.0
 40
0.0
 40
1.0
 40
1.0
 40
1.0
 40
1.0
 10
213.6847393200661
 20
99.86105673221836
 30
0.0
 10
213.7071040949888
 20
99.78657428321738
 30
0.0
 10
213.7352227402348
 20
99.71201209870704
 30
0.0
 10
213.7689247813549
 20
99.63737254107404
 30
0.0
  0
LINE
  5
F8
330
1F
100
AcDbEntity
  8
0
  6
Continuous
 62
     7
370
    15
100
AcDbLine
 10
221.4834072512
 20
114.6149792358
 30
0.0
 11
221.254946373
 21
114.9501938953
 31
0.0
  0
LINE
  5
F9
330
1F
100
AcDbEntity
  8
0
  6
Continuous
 62
     7
370
    15
100
AcDbLine
 10
224.1686859053
 20
109.4697014078
 30
0.0
 11
221.4834072512
 21
114.6149792358
 31
0.0
  0
LINE
  5
FA
330
1F
100
AcDbEntity
  8
0
  6
HIDDEN
 62
     7
370
     0
100
AcDbLine
 10
180.4861404818
 20
150.2994102075
 30
0.0
 11
180.4861404818
 21
100.8994084432
 31
0.0
  0
SPLINE
  5
FB
330
1F
100
AcDbEntity
  8
0
  6
HIDDEN
 62
     7
370
     0
100
AcDbSpline
210
0.0
220
0.0
230
1.0
 70
     8
 71
     3
 72
    12
 73
     8
 74
     0
 42
0.00000001
 43
0.00000001
 12
1.0
 22
0.0
 32
0.0
 13
1.0
 23
0.0
 33
0.0
 40
0.0
 40
0.0
 40
0.0
 40
0.0
 40
0.4999999999999987
 40
0.4999999999999987
 40
0.7499999999999993
 40
0.7499999999999993
 40
1.0
 40
1.0
 40
1.0
 40
1.0
 10
188.5808845934302
 20
149.2520508025827
 30
0.0
 10
188.6115839767975
 20
149.2911886449786
 30
0.0
 10
188.652934044904
 20
149.328348427704
 30
0.0
 10
188.7526899731234
 20
149.3782849333318
 30
0.0
 10
188.7923868908561
 20
149.3937378034756
 30
0.0
 10
188.8896450425038
 20
149.4176573470746
 30
0.0
 10
188.9504212004945
 20
149.426140440853
 30
0.0
 10
189.0138972953224
 20
149.426140440853
 30
0.0
  0
LINE
  5
FC
330
1F
100
AcDbEntity
  8
0
  6
HIDDEN
 62
     7
370
     0
100
AcDbLine
 10
189.0138971504
 20
149.4261406943
 30
0.0
 11
191.9583833661
 21
149.4261406943
 31
0.0
  0
SPLINE
  5
FD
330
1F
100
AcDbEntity
  8
0
  6
HIDDEN
 62
     7
370
     0
100
AcDbSpline
210
0.0
220
0.0
230
1.0
 70
     8
 71
     3
 72
    12
 73
     8
 74
     0
 42
0.00000001
 43
0.00000001
 12
1.0
 22
0.0
 32
0.0
 13
1.0
 23
0.0
 33
0.0
 40
0.0
 40
0.0
 40
0.0
 40
0.0
 40
0.25
 40
0.25
 40
0.5
 40
0.5
 40
1.0
 40
1.0
 40
1.0
 40
1.0
 10
191.9583836681895
 20
149.426140440853
 30
0.0
 10
192.02204890472
 20
149.426140440853
 30
0.0
 10
192.0816551369434
 20
149.4178756651871
 30
0.0
 10
192.1803156618743
 20
149.393656883604
 30
0.0
 10
192.2192826518895
 20
149.3783995642948
 30
0.0
 10
192.3186694838139
 20
149.3287662100329
 30
0.0
 10
192.3607457312374
 20
149.2911265018588
 30
0.0
 10
192.3913963700817
 20
149.2520508025827
 30
0.0
  0
ELLIPSE
  5
FE
330
1F
100
AcDbEntity
  8
0
  6
HIDDEN
 62
     7
370
     0
100
AcDbEllipse
 10
179.4298828268
 20
125.5994093254
 30
0.0
 11
11.70927234972723
 21
24.67718644093745
 31
0.0
210
0.0
220
0.0
230
1.0
 40
0.3419987131
 41
5.203068809370469
 42
6.114256032590515
  0
SPLINE
  5
FF
330
1F
100
AcDbEntity
  8
0
  6
HIDDEN
 62
     7
370
     0
100
AcDbSpline
210
0.0
220
0.0
230
1.0
 70
     8
 71
     3
 72
    12
 73
     8
 74
     0
 42
0.00000001
 43
0.00000001
 12
1.0
 22
0.0
 32
0.0
 13
1.0
 23
0.0
 33
0.0
 40
0.0
 40
0.0
 40
0.0
 40
0.0
 40
0.4999999999999969
 40
0.4999999999999969
 40
0.7499999999999984
 40
0.7499999999999984
 40
1.0
 40
1.0
 40
1.0
 40
1.0
 10
192.3913963700817
 20
133.6958623233955
 30
0.0
 10
192.3606969867145
 20
133.5815266563316
 30
0.0
 10
192.3193469186079
 20
133.4701733034903
 30
0.0
 10
192.2195909903885
 20
133.3174365312416
 30
0.0
 10
192.1798940726558
 20
133.2695766453894
 30
0.0
 10
192.0826359210081
 20
133.19497353204
 30
0.0
 10
192.0218597630175
 20
133.1682192945319
 30
0.0
 10
191.9583836681895
 20
133.1682192945319
 30
0.0
  0
LINE
  5
100
330
1F
100
AcDbEntity
  8
0
  6
HIDDEN
 62
     7
370
     0
100
AcDbLine
 10
191.9583833661
 20
133.1682194605
 30
0.0
 11
189.0138971504
 21
133.1682194605
 31
0.0
  0
SPLINE
  5
101
330
1F
100
AcDbEntity
  8
0
  6
HIDDEN
 62
     7
370
     0
100
AcDbSpline
210
0.0
220
0.0
230
1.0
 70
     8
 71
     3
 72
    12
 73
     8
 74
     0
 42
0.00000001
 43
0.00000001
 12
1.0
 22
0.0
 32
0.0
 13
1.0
 23
0.0
 33
0.0
 40
0.0
 40
0.0
 40
0.0
 40
0.0
 40
0.2500000000000007
 40
0.2500000000000007
 40
0.5000000000000014
 40
0.5000000000000014
 40
1.0
 40
1.0
 40
1.0
 40
1.0
 10
189.0138972953224
 20
133.1682192945319
 30
0.0
 10
188.9502320587919
 20
133.1682192945319
 30
0.0
 10
188.8906258265686
 20
133.1942914430116
 30
0.0
 10
188.7919653016377
 20
133.2698301938327
 30
0.0
 10
188.7529983116225
 20
133.3170811309289
 30
0.0
 10
188.653611479698
 20
133.4689049488953
 30
0.0
 10
188.6115352322745
 20
133.5817081986604
 30
0.0
 10
188.5808845934302
 20
133.6958623233955
 30
0.0
  0
ELLIPSE
  5
102
330
1F
100
AcDbEntity
  8
0
  6
HIDDEN
 62
     7
370
     0
100
AcDbEllipse
 10
201.5423981367
 20
125.5994093254
 30
0.0
 11
-11.70927234972711
 21
24.67718644093745
 31
0.0
210
0.0
220
0.0
230
1.0
 40
0.3419987131
 41
0.1689292745891167
 42
1.080116497809131
  0
SPLINE
  5
103
330
1F
100
AcDbEntity
  8
0
  6
HIDDEN
 62
     7
370
     0
100
AcDbSpline
210
0.0
220
0.0
230
1.0
 70
     8
 71
     3
 72
    12
 73
     8
 74
     0
 42
0.00000001
 43
0.00000001
 12
1.0
 22
0.0
 32
0.0
 13
1.0
 23
0.0
 33
0.0
 40
0.0
 40
0.0
 40
0.0
 40
0.0
 40
0.5000000000000028
 40
0.5000000000000028
 40
0.7500000000000013
 40
0.7500000000000013
 40
1.0
 40
1.0
 40
1.0
 40
1.0
 10
188.5808845934302
 20
117.5029563273067
 30
0.0
 10
188.6115839767975
 20
117.6172919943706
 30
0.0
 10
188.652934044904
 20
117.7286453472119
 30
0.0
 10
188.7526899731234
 20
117.8813821194607
 30
0.0
 10
188.7923868908562
 20
117.9292420053128
 30
0.0
 10
188.8896450425038
 20
118.0038451186623
 30
0.0
 10
188.9504212004945
 20
118.0305993561703
 30
0.0
 10
189.0138972953224
 20
118.0305993561703
 30
0.0
  0
LINE
  5
104
330
1F
100
AcDbEntity
  8
0
  6
HIDDEN
 62
     7
370
     0
100
AcDbLine
 10
189.0138971504
 20
118.0305991902
 30
0.0
 11
191.9583833661
 21
118.0305991902
 31
0.0
  0
SPLINE
  5
105
330
1F
100
AcDbEntity
  8
0
  6
HIDDEN
 62
     7
370
     0
100
AcDbSpline
210
0.0
220
0.0
230
1.0
 70
     8
 71
     3
 72
    12
 73
     8
 74
     0
 42
0.00000001
 43
0.00000001
 12
1.0
 22
0.0
 32
0.0
 13
1.0
 23
0.0
 33
0.0
 40
0.0
 40
0.0
 40
0.0
 40
0.0
 40
0.2500000000000002
 40
0.2500000000000002
 40
0.5000000000000004
 40
0.5000000000000004
 40
1.0
 40
1.0
 40
1.0
 40
1.0
 10
191.9583836681895
 20
118.0305993561703
 30
0.0
 10
192.02204890472
 20
118.0305993561703
 30
0.0
 10
192.0816551369434
 20
118.0045272076907
 30
0.0
 10
192.1803156618742
 20
117.9289884568696
 30
0.0
 10
192.2192826518895
 20
117.8817375197733
 30
0.0
 10
192.3186694838139
 20
117.7299137018069
 30
0.0
 10
192.3607457312374
 20
117.6171104520418
 30
0.0
 10
192.3913963700817
 20
117.5029563273067
 30
0.0
  0
ELLIPSE
  5
106
330
1F
100
AcDbEntity
  8
0
  6
HIDDEN
 62
     7
370
     0
100
AcDbEllipse
 10
179.4298828268
 20
125.5994093254
 30
0.0
 11
-11.70927234972714
 21
24.67718644093745
 31
0.0
210
0.0
220
0.0
230
1.0
 40
0.3419987131
 41
3.310521928178959
 42
4.221709151398949
  0
SPLINE
  5
107
330
1F
100
AcDbEntity
  8
0
  6
HIDDEN
 62
     7
370
     0
100
AcDbSpline
210
0.0
220
0.0
230
1.0
 70
     8
 71
     3
 72
    12
 73
     8
 74
     0
 42
0.00000001
 43
0.00000001
 12
1.0
 22
0.0
 32
0.0
 13
1.0
 23
0.0
 33
0.0
 40
0.0
 40
0.0
 40
0.0
 40
0.0
 40
0.5000000000000018
 40
0.5000000000000018
 40
0.7500000000000009
 40
0.7500000000000009
 40
1.0
 40
1.0
 40
1.0
 40
1.0
 10
192.3913963700817
 20
101.9467678481194
 30
0.0
 10
192.3606969867145
 20
101.9076300057234
 30
0.0
 10
192.3193469186079
 20
101.8704702229979
 30
0.0
 10
192.2195909903885
 20
101.8205337173702
 30
0.0
 10
192.1798940726558
 20
101.8050808472264
 30
0.0
 10
192.0826359210081
 20
101.7811613036274
 30
0.0
 10
192.0218597630175
 20
101.772678209849
 30
0.0
 10
191.9583836681895
 20
101.772678209849
 30
0.0
  0
LINE
  5
108
330
1F
100
AcDbEntity
  8
0
  6
HIDDEN
 62
     7
370
     0
100
AcDbLine
 10
191.9583833661
 20
101.7726779565
 30
0.0
 11
189.0138971504
 21
101.7726779565
 31
0.0
  0
SPLINE
  5
109
330
1F
100
AcDbEntity
  8
0
  6
HIDDEN
 62
     7
370
     0
100
AcDbSpline
210
0.0
220
0.0
230
1.0
 70
     8
 71
     3
 72
    12
 73
     8
 74
     0
 42
0.00000001
 43
0.00000001
 12
1.0
 22
0.0
 32
0.0
 13
1.0
 23
0.0
 33
0.0
 40
0.0
 40
0.0
 40
0.0
 40
0.0
 40
0.2499999999999991
 40
0.2499999999999991
 40
0.4999999999999982
 40
0.4999999999999982
 40
1.0
 40
1.0
 40
1.0
 40
1.0
 10
189.0138972953224
 20
101.772678209849
 30
0.0
 10
188.9502320587919
 20
101.772678209849
 30
0.0
 10
188.8906258265686
 20
101.7809429855149
 30
0.0
 10
188.7919653016377
 20
101.805161767098
 30
0.0
 10
188.7529983116225
 20
101.8204190864072
 30
0.0
 10
188.653611479698
 20
101.8700524406691
 30
0.0
 10
188.6115352322745
 20
101.9076921488432
 30
0.0
 10
188.5808845934302
 20
101.9467678481194
 30
0.0
  0
ELLIPSE
  5
10A
330
1F
100
AcDbEntity
  8
0
  6
HIDDEN
 62
     7
370
     0
100
AcDbEllipse
 10
201.5423981367
 20
125.5994093254
 30
0.0
 11
11.70927234972703
 21
24.67718644093745
 31
0.0
210
0.0
220
0.0
230
1.0
 40
0.3419987131
 41
2.061476155780647
 42
2.972663379000665
  0
SPLINE
  5
10B
330
1F
100
AcDbEntity
  8
0
  6
HIDDEN
 62
     7
370
     0
100
AcDbSpline
210
0.0
220
0.0
230
1.0
 70
     8
 71
     3
 72
    58
 73
    54
 74
     0
 42
0.00000001
 43
0.00000001
 12
1.0
 22
0.0
 32
0.0
 13
1.0
 23
0.0
 33
0.0
 40
-0.0624999999999998
 40
-0.0624999999999998
 40
0.0
 40
0.0
 40
0.0312499999999999
 40
0.0312499999999999
 40
0.0624999999999999
 40
0.0624999999999999
 40
0.0937499999999998
 40
0.0937499999999998
 40
0.1249999999999998
 40
0.1249999999999998
 40
0.1874999999999998
 40
0.1874999999999998
 40
0.2499999999999997
 40
0.2499999999999997
 40
0.2812499999999997
 40
0.2812499999999997
 40
0.3124999999999997
 40
0.3124999999999997
 40
0.3437499999999997
 40
0.3437499999999997
 40
0.3749999999999997
 40
0.3749999999999997
 40
0.4062499999999997
 40
0.4062499999999997
 40
0.4374999999999997
 40
0.4374999999999997
 40
0.4687499999999997
 40
0.4687499999999997
 40
0.4999999999999998
 40
0.4999999999999998
 40
0.5624999999999999
 40
0.5624999999999999
 40
0.625
 40
0.625
 40
0.65625
 40
0.65625
 40
0.6875000000000001
 40
0.6875000000000001
 40
0.7187500000000001
 40
0.7187500000000001
 40
0.7500000000000002
 40
0.7500000000000002
 40
0.7812500000000002
 40
0.7812500000000002
 40
0.8125000000000003
 40
0.8125000000000003
 40
0.8437500000000003
 40
0.8437500000000003
 40
0.8750000000000004
 40
0.8750000000000004
 40
0.9375000000000002
 40
0.9375000000000002
 40
1.0
 40
1.0
 40
1.03125
 40
1.03125
 10
194.486140481756
 20
125.3350369548075
 30
0.0
 10
194.486140481756
 20
125.7315955106227
 30
0.0
 10
194.4731645897454
 20
125.8615622501674
 30
0.0
 10
194.4223322876396
 20
126.1172415882995
 30
0.0
 10
194.3838552163182
 20
126.244282680141
 30
0.0
 10
194.2834502551618
 20
126.4864608660816
 30
0.0
 10
194.2220160128425
 20
126.6013145246711
 30
0.0
 10
194.0768817466608
 20
126.8186796464769
 30
0.0
 10
193.9924398255134
 20
126.9215551185611
 30
0.0
 10
193.7157677959036
 20
127.1981730709783
 30
0.0
 10
193.4927216409354
 20
127.3471651908112
 30
0.0
 10
193.011457642391
 20
127.5466889858025
 30
0.0
 10
192.7481997870711
 20
127.5992678503047
 30
0.0
 10
192.3567337557863
 20
127.5994796238922
 30
0.0
 10
192.2241850121728
 20
127.5864886523028
 30
0.0
 10
191.9676407031575
 20
127.535452429013
 30
0.0
 10
191.8429448167859
 20
127.4976908876102
 30
0.0
 10
191.6007418463521
 20
127.3975313483168
 30
0.0
 10
191.4836784831015
 20
127.3349335385663
 30
0.0
 10
191.2669921638554
 20
127.1902115545306
 30
0.0
 10
191.1659781957877
 20
127.1075874493623
 30
0.0
 10
190.9791850015022
 20
126.9209670787513
 30
0.0
 10
190.8963846375478
 20
126.8199187108602
 30
0.0
 10
190.7515061986533
 20
126.6034066899863
 30
0.0
 10
190.6888554153259
 20
126.4865173347874
 30
0.0
 10
190.588415020952
 20
126.2442599327284
 30
0.0
 10
190.5505560091821
 20
126.119597267913
 30
0.0
 10
190.4993183047185
 20
125.8632660722582
 30
0.0
 10
190.4861879299455
 20
125.7306781329078
 30
0.0
 10
190.4860459795066
 20
125.3390464643385
 30
0.0
 10
190.5383868957546
 20
125.0758336313042
 30
0.0
 10
190.7375171224927
 20
124.5943263006129
 30
0.0
 10
190.8863542101351
 20
124.3711258193373
 30
0.0
 10
191.1626662466744
 20
124.0942797393756
 30
0.0
 10
191.2654317839257
 20
124.0097676451568
 30
0.0
 10
191.4827487162795
 20
123.8643890484254
 30
0.0
 10
191.5975356268163
 20
123.8028736168235
 30
0.0
 10
191.8394551169222
 20
123.702317556578
 30
0.0
 10
191.9665820194223
 20
123.6636788307433
 30
0.0
 10
192.2222508550584
 20
123.612613963856
 30
0.0
 10
192.3521460604364
 20
123.5995394834797
 30
0.0
 10
192.6162208428608
 20
123.5992810822061
 30
0.0
 10
192.7465499823461
 20
123.612157150169
 30
0.0
 10
193.00223929649
 20
123.662755941497
 30
0.0
 10
193.1291671628776
 20
123.7010612873346
 30
0.0
 10
193.3716194517198
 20
123.8013171197545
 30
0.0
 10
193.4865361457014
 20
123.8626681386666
 30
0.0
 10
193.7039269374719
 20
124.0075369742369
 30
0.0
 10
193.8069122171534
 20
124.0919009275062
 30
0.0
 10
194.0838765848107
 20
124.3684269812923
 30
0.0
 10
194.2330088631691
 20
124.591286823288
 30
0.0
 10
194.4329609818836
 20
125.0723893433487
 30
0.0
 10
194.486140481756
 20
125.3350369548075
 30
0.0
 10
194.486140481756
 20
125.7315955106227
 30
0.0
  0
ELLIPSE
  5
10C
330
1F
100
AcDbEntity
  8
0
  6
HIDDEN
 62
     7
370
     0
100
AcDbEllipse
 10
228.1198422404
 20
125.5994093254
 30
0.0
 11
-18.10719883871448
 21
24.95724044761389
 31
0.0
210
0.0
220
0.0
230
1.0
 40
0.0807169094
 41
6.22468966826937
 42
6.957592258421821
  0
LWPOLYLINE
  5
10D
330
1F
100
AcDbEntity
  8
0
  6
HIDDEN
 62
     7
370
     0
100
AcDbPolyline
 90
       32
 70
   128
 43
0.0
 10
198.4861397069
 20
118.3119182124
 10
199.0900353413
 20
118.2604156084
 10
199.6692080867
 20
118.1080153792
 10
200.1999446075
 20
117.8609569206
 10
200.6605190109
 20
117.5293557926
 10
201.0320738774
 20
117.1267860218
 10
201.2993969839
 20
116.6697310864
 10
201.4515452903
 20
116.1769003256
 10
201.4822901111
 20
115.6684727057
 10
201.3903722983
 20
115.1652623548
 10
201.179554395
 20
114.6878701284
 10
200.8584678989
 20
114.2558407619
 10
200.4402574968
 20
113.8868619337
 10
199.9420464855
 20
113.5960406273
 10
199.3842289668
 20
113.3952810078
 10
198.7896446954
 20
113.2928038596
 10
198.1826347183
 20
113.2928038596
 10
197.588050447
 20
113.3952810078
 10
197.030234791
 20
113.5960406273
 10
196.5320237797
 20
113.8868619337
 10
196.1138133775
 20
114.2558407619
 10
195.7927268814
 20
114.6878701284
 10
195.5819089782
 20
115.1652623548
 10
195.4899911653
 20
115.6684727057
 10
195.5207350548
 20
116.1769003256
 10
195.6728842925
 20
116.6697310864
 10
195.9402073991
 20
117.1267860218
 10
196.3117622655
 20
117.5293557926
 10
196.7723366689
 20
117.8609569206
 10
197.3030731898
 20
118.1080153792
 10
197.8822440725
 20
118.2604156084
 10
198.4861397069
 20
118.3119182124
  0
LINE
  5
10E
330
1F
100
AcDbEntity
  8
0
  6
HIDDEN
 62
     7
370
     0
100
AcDbLine
 10
180.4861404818
 20
106.0494099393
 30
0.0
 11
180.4861404818
 21
145.133952482
 31
0.0
  0
SPLINE
  5
10F
330
1F
100
AcDbEntity
  8
0
  6
HIDDEN
 62
     7
370
     0
100
AcDbSpline
210
0.0
220
0.0
230
1.0
 70
     8
 71
     3
 72
    14
 73
    10
 74
     0
 42
0.00000001
 43
0.00000001
 12
1.0
 22
0.0
 32
0.0
 13
1.0
 23
0.0
 33
0.0
 40
0.0
 40
0.0
 40
0.0
 40
0.0
 40
0.25
 40
0.25
 40
0.5
 40
0.5
 40
0.75
 40
0.75
 40
1.0
 40
1.0
 40
1.0
 40
1.0
 10
179.4452794536276
 20
137.8938848704243
 30
0.0
 10
179.4769945879584
 20
137.8361016880812
 30
0.0
 10
179.5116091132587
 20
137.7796890270062
 30
0.0
 10
179.591280308674
 20
137.6720895769908
 30
0.0
 10
179.6363361857045
 20
137.6201769500698
 30
0.0
 10
179.7468905982099
 20
137.5339783253725
 30
0.0
 10
179.814276012414
 20
137.4998889054008
 30
0.0
 10
179.964905532312
 20
137.497786513384
 30
0.0
 10
180.0347327690775
 20
137.5311582862287
 30
0.0
 10
180.0911635928809
 20
137.5749709547794
 30
0.0
  0
SPLINE
  5
110
330
1F
100
AcDbEntity
  8
0
  6
HIDDEN
 62
     7
370
     0
100
AcDbSpline
210
0.0
220
0.0
230
1.0
 70
     8
 71
     3
 72
    16
 73
    12
 74
     0
 42
0.00000001
 43
0.00000001
 12
1.0
 22
0.0
 32
0.0
 13
1.0
 23
0.0
 33
0.0
 40
0.0
 40
0.0
 40
0.0
 40
0.0
 40
0.0624999999999993
 40
0.0624999999999993
 40
0.1249999999999986
 40
0.1249999999999986
 40
0.2499999999999969
 40
0.2499999999999969
 40
0.4999999999999947
 40
0.4999999999999947
 40
1.0
 40
1.0
 40
1.0
 40
1.0
 10
180.0911635928491
 20
137.57497095481
 30
0.0
 10
180.102897827296
 20
137.584081368058
 30
0.0
 10
180.116429582775
 20
137.5921587240043
 30
0.0
 10
180.1464170432048
 20
137.6004055656813
 30
0.0
 10
180.1614117496131
 20
137.5994782480937
 30
0.0
 10
180.1971521720078
 20
137.5867117285619
 30
0.0
 10
180.211165509009
 20
137.5690630820516
 30
0.0
 10
180.2453095977904
 20
137.51441016202
 30
0.0
 10
180.2562815019087
 20
137.4730104943615
 30
0.0
 10
180.2821270421751
 20
137.3445207506387
 30
0.0
 10
180.286140481756
 20
137.253902663
 30
0.0
 10
180.286140481756
 20
137.1616835584459
 30
0.0
  0
LINE
  5
111
330
1F
100
AcDbEntity
  8
0
  6
HIDDEN
 62
     7
370
     0
100
AcDbLine
 10
180.2861404868
 20
114.0371354877
 30
0.0
 11
180.2861404868
 21
137.161683163
 31
0.0
  0
SPLINE
  5
112
330
1F
100
AcDbEntity
  8
0
  6
HIDDEN
 62
     7
370
     0
100
AcDbSpline
210
0.0
220
0.0
230
1.0
 70
     8
 71
     3
 72
    16
 73
    12
 74
     0
 42
0.00000001
 43
0.00000001
 12
1.0
 22
0.0
 32
0.0
 13
1.0
 23
0.0
 33
0.0
 40
0.0
 40
0.0
 40
0.0
 40
0.0
 40
0.4999999999999979
 40
0.4999999999999979
 40
0.7499999999999969
 40
0.7499999999999969
 40
0.8749999999999984
 40
0.8749999999999984
 40
0.9374999999999991
 40
0.9374999999999991
 40
1.0
 40
1.0
 40
1.0
 40
1.0
 10
180.286140481756
 20
114.037135092256
 30
0.0
 10
180.286140481756
 20
113.944551241352
 30
0.0
 10
180.2820831796409
 20
113.8543387854918
 30
0.0
 10
180.2564259368461
 20
113.7263976583734
 30
0.0
 10
180.245110491104
 20
113.6839844439615
 30
0.0
 10
180.2110791237954
 20
113.6296704005103
 30
0.0
 10
180.1972001425916
 20
113.6120890651204
 30
0.0
 10
180.1612644608242
 20
113.5993053771855
 30
0.0
 10
180.1463141415614
 20
113.5984298790374
 30
0.0
 10
180.1164156288196
 20
113.6066753141568
 30
0.0
 10
180.1028827684543
 20
113.6147489743285
 30
0.0
 10
180.0911635928803
 20
113.6238476959226
 30
0.0
  0
SPLINE
  5
113
330
1F
100
AcDbEntity
  8
0
  6
HIDDEN
 62
     7
370
     0
100
AcDbSpline
210
0.0
220
0.0
230
1.0
 70
     8
 71
     3
 72
    14
 73
    10
 74
     0
 42
0.00000001
 43
0.00000001
 12
1.0
 22
0.0
 32
0.0
 13
1.0
 23
0.0
 33
0.0
 40
0.0
 40
0.0
 40
0.0
 40
0.0
 40
0.25
 40
0.25
 40
0.5
 40
0.5
 40
0.75
 40
0.75
 40
1.0
 40
1.0
 40
1.0
 40
1.0
 10
180.0911635928871
 20
113.6238476959311
 30
0.0
 10
180.0347078282784
 20
113.6676797284259
 30
0.0
 10
179.9638422020285
 20
113.7010107648477
 30
0.0
 10
179.8153851208559
 20
113.6989517547003
 30
0.0
 10
179.7461917615483
 20
113.6643557302986
 30
0.0
 10
179.6364763234142
 20
113.5786903736357
 30
0.0
 10
179.5912317440828
 20
113.5266679289277
 30
0.0
 10
179.5116050346591
 20
113.4191196685978
 30
0.0
 10
179.4769948861256
 20
113.3627175058648
 30
0.0
 10
179.4452794536264
 20
113.3049337802753
 30
0.0
  0
SPLINE
  5
114
330
1F
100
AcDbEntity
  8
0
  6
HIDDEN
 62
     7
370
     0
100
AcDbSpline
210
0.0
220
0.0
230
1.0
 70
     8
 71
     3
 72
    10
 73
     6
 74
     0
 42
0.00000001
 43
0.00000001
 12
1.0
 22
0.0
 32
0.0
 13
1.0
 23
0.0
 33
0.0
 40
0.0
 40
0.0
 40
0.0
 40
0.0
 40
0.5
 40
0.5
 40
1.0
 40
1.0
 40
1.0
 40
1.0
 10
179.4452794536269
 20
113.3049337802763
 30
0.0
 10
179.3734996657035
 20
113.1741550633744
 30
0.0
 10
179.3210401513954
 20
113.0400549138712
 30
0.0
 10
179.2316970872942
 20
112.7719623508824
 30
0.0
 10
179.1957014777945
 20
112.6377169792935
 30
0.0
 10
179.1648201381964
 20
112.5043626018185
 30
0.0
  0
SPLINE
  5
115
330
1F
100
AcDbEntity
  8
0
  6
HIDDEN
 62
     7
370
     0
100
AcDbSpline
210
0.0
220
0.0
230
1.0
 70
     8
 71
     3
 72
    10
 73
     6
 74
     0
 42
0.00000001
 43
0.00000001
 12
1.0
 22
0.0
 32
0.0
 13
1.0
 23
0.0
 33
0.0
 40
0.0
 40
0.0
 40
0.0
 40
0.0
 40
0.5
 40
0.5
 40
1.0
 40
1.0
 40
1.0
 40
1.0
 10
179.1648201381964
 20
108.3024994573461
 30
0.0
 10
179.1956931700086
 20
108.286216309979
 30
0.0
 10
179.2316800329216
 20
108.2739587202534
 30
0.0
 10
179.3210146188127
 20
108.2568557314247
 30
0.0
 10
179.3734704782353
 20
108.2520561355663
 30
0.0
 10
179.4452794536276
 20
108.2502520441584
 30
0.0
  0
SPLINE
  5
116
330
1F
100
AcDbEntity
  8
0
  6
HIDDEN
 62
     7
370
     0
100
AcDbSpline
210
0.0
220
0.0
230
1.0
 70
     8
 71
     3
 72
     8
 73
     4
 74
     0
 42
0.00000001
 43
0.00000001
 12
1.0
 22
0.0
 32
0.0
 13
1.0
 23
0.0
 33
0.0
 40
0.0
 40
0.0
 40
0.0
 40
0.0
 40
1.0
 40
1.0
 40
1.0
 40
1.0
 10
180.2684438583811
 20
108.1243676659112
 30
0.0
 10
180.2824306669231
 20
108.0961272753296
 30
0.0
 10
180.2861404817558
 20
108.0729952325188
 30
0.0
 10
180.2861404817561
 20
108.0526548596837
 30
0.0
  0
LINE
  5
117
330
1F
100
AcDbEntity
  8
0
  6
HIDDEN
 62
     7
370
     0
100
AcDbLine
 10
180.2861404868
 20
107.7595882698
 30
0.0
 11
180.2861404868
 21
108.052654995
 31
0.0
  0
LINE
  5
118
330
1F
100
AcDbEntity
  8
0
  6
HIDDEN
 62
     7
370
     0
100
AcDbLine
 10
180.2861404868
 20
143.1461636557
 30
0.0
 11
180.2861404868
 21
143.4392303809
 31
0.0
  0
SPLINE
  5
119
330
1F
100
AcDbEntity
  8
0
  6
HIDDEN
 62
     7
370
     0
100
AcDbSpline
210
0.0
220
0.0
230
1.0
 70
     8
 71
     3
 72
    10
 73
     6
 74
     0
 42
0.00000001
 43
0.00000001
 12
1.0
 22
0.0
 32
0.0
 13
1.0
 23
0.0
 33
0.0
 40
0.0
 40
0.0
 40
0.0
 40
0.0
 40
0.5
 40
0.5
 40
1.0
 40
1.0
 40
1.0
 40
1.0
 10
179.4452794536284
 20
142.9485666065435
 30
0.0
 10
179.3734704782358
 20
142.9467625151356
 30
0.0
 10
179.3210146188131
 20
142.9419629192773
 30
0.0
 10
179.2316800329217
 20
142.9248599304485
 30
0.0
 10
179.1956931700087
 20
142.9126023407229
 30
0.0
 10
179.1648201381964
 20
142.8963191933558
 30
0.0
  0
SPLINE
  5
11A
330
1F
100
AcDbEntity
  8
0
  6
HIDDEN
 62
     7
370
     0
100
AcDbSpline
210
0.0
220
0.0
230
1.0
 70
     8
 71
     3
 72
    10
 73
     6
 74
     0
 42
0.00000001
 43
0.00000001
 12
1.0
 22
0.0
 32
0.0
 13
1.0
 23
0.0
 33
0.0
 40
0.0
 40
0.0
 40
0.0
 40
0.0
 40
0.5
 40
0.5
 40
1.0
 40
1.0
 40
1.0
 40
1.0
 10
179.1648201381964
 20
138.6944560488834
 30
0.0
 10
179.1957014777945
 20
138.5611016714081
 30
0.0
 10
179.2316970872944
 20
138.426856299819
 30
0.0
 10
179.3210401513957
 20
138.1587637368298
 30
0.0
 10
179.3734996657039
 20
138.0246635873264
 30
0.0
 10
179.4452794536276
 20
137.8938848704244
 30
0.0
  0
LINE
  5
11B
330
1F
100
AcDbEntity
  8
0
  6
HIDDEN
 62
     7
370
     0
100
AcDbLine
 10
180.2861404868
 20
108.052654995
 30
0.0
 11
180.2861404868
 21
119.6149292982
 31
0.0
  0
LINE
  5
11C
330
1F
100
AcDbEntity
  8
0
  6
HIDDEN
 62
     7
370
     0
100
AcDbLine
 10
180.2861404868
 20
131.5838893525
 30
0.0
 11
180.2861404868
 21
143.1461636557
 31
0.0
  0
LWPOLYLINE
  5
11D
330
1F
100
AcDbEntity
  8
0
  6
HIDDEN
 62
     7
370
     0
100
AcDbPolyline
 90
       29
 70
   128
 43
0.0
 10
198.4861397069
 20
118.056209164
 10
199.0424428951
 20
118.003641127
 10
199.5708492469
 20
117.8485731243
 10
200.0448644977
 20
117.5987803026
 10
200.4407194328
 20
117.2667889505
 10
200.7385619801
 20
116.8692464589
 10
200.9234611761
 20
116.4260868564
 10
200.986141048
 20
115.9595324307
 10
200.9234611761
 20
115.492978005
 10
200.7385619801
 20
115.0498193338
 10
200.4407194328
 20
114.6522768422
 10
200.0448644977
 20
114.3202854901
 10
199.5708492469
 20
114.0704926684
 10
199.0424428951
 20
113.9154246657
 10
198.4861397069
 20
113.862856163
 10
197.9298383813
 20
113.9154246657
 10
197.4014320295
 20
114.0704926684
 10
196.9274167787
 20
114.3202854901
 10
196.5315618437
 20
114.6522768422
 10
196.2337174337
 20
115.0498193338
 10
196.0488210317
 20
115.492978005
 10
195.9861402284
 20
115.9595324307
 10
196.0488210317
 20
116.4260868564
 10
196.2337174337
 20
116.8692464589
 10
196.5315618437
 20
117.2667889505
 10
196.9274167787
 20
117.5987803026
 10
197.4014320295
 20
117.8485731243
 10
197.9298383813
 20
118.003641127
 10
198.4861397069
 20
118.056209164
  0
SPLINE
  5
11E
330
1F
100
AcDbEntity
  8
0
  6
HIDDEN
 62
     7
370
     0
100
AcDbSpline
210
0.0
220
0.0
230
1.0
 70
     8
 71
     3
 72
    10
 73
     6
 74
     0
 42
0.00000001
 43
0.00000001
 12
1.0
 22
0.0
 32
0.0
 13
1.0
 23
0.0
 33
0.0
 40
0.0
 40
0.0
 40
0.0
 40
0.0
 40
0.5
 40
0.5
 40
1.0
 40
1.0
 40
1.0
 40
1.0
 10
197.2633150205561
 20
115.7067558301754
 30
0.0
 10
197.2124314319246
 20
115.9667758861761
 30
0.0
 10
197.2022951029463
 20
116.2075789090397
 30
0.0
 10
197.3213658141871
 20
116.6231333154285
 30
0.0
 10
197.4467189489002
 20
116.790175058312
 30
0.0
 10
197.6136969239885
 20
116.9535326247199
 30
0.0
  0
SPLINE
  5
11F
330
1F
100
AcDbEntity
  8
0
  6
HIDDEN
 62
     7
370
     0
100
AcDbSpline
210
0.0
220
0.0
230
1.0
 70
     8
 71
     3
 72
    60
 73
    56
 74
     0
 42
0.00000001
 43
0.00000001
 12
1.0
 22
0.0
 32
0.0
 13
1.0
 23
0.0
 33
0.0
 40
0.0
 40
0.0
 40
0.0
 40
0.0
 40
0.03125
 40
0.03125
 40
0.0625000000000001
 40
0.0625000000000001
 40
0.0937500000000001
 40
0.0937500000000001
 40
0.1250000000000001
 40
0.1250000000000001
 40
0.1562500000000002
 40
0.1562500000000002
 40
0.1875000000000002
 40
0.1875000000000002
 40
0.2187500000000005
 40
0.2187500000000005
 40
0.2500000000000007
 40
0.2500000000000007
 40
0.3125000000000006
 40
0.3125000000000006
 40
0.3750000000000004
 40
0.3750000000000004
 40
0.4062500000000002
 40
0.4062500000000002
 40
0.4375000000000001
 40
0.4375000000000001
 40
0.4687499999999998
 40
0.4687499999999998
 40
0.4999999999999997
 40
0.4999999999999997
 40
0.5312499999999994
 40
0.5312499999999994
 40
0.5624999999999993
 40
0.5624999999999993
 40
0.6249999999999989
 40
0.6249999999999989
 40
0.6562499999999988
 40
0.6562499999999988
 40
0.6874999999999986
 40
0.6874999999999986
 40
0.7187499999999983
 40
0.7187499999999983
 40
0.7499999999999981
 40
0.7499999999999981
 40
0.8124999999999986
 40
0.8124999999999986
 40
0.8437499999999988
 40
0.8437499999999988
 40
0.8749999999999991
 40
0.8749999999999991
 40
0.9374999999999992
 40
0.9374999999999992
 40
0.9687499999999997
 40
0.9687499999999997
 40
1.0
 40
1.0
 40
1.0
 40
1.0
 10
197.6136969239885
 20
116.9535326247199
 30
0.0
 10
197.7621799870143
 20
116.9271554443801
 30
0.0
 10
197.9080641956278
 20
116.9232357881035
 30
0.0
 10
198.2007916607174
 20
116.9431528523721
 30
0.0
 10
198.3484606913666
 20
116.9675692914049
 30
0.0
 10
198.6437878708529
 20
117.0383803272241
 30
0.0
 10
198.7898913620101
 20
117.0843365381287
 30
0.0
 10
199.0812672264719
 20
117.194656843944
 30
0.0
 10
199.2279587446071
 20
117.259862611814
 30
0.0
 10
199.512910726159
 20
117.4049928019333
 30
0.0
 10
199.6512988136423
 20
117.4847557074167
 30
0.0
 10
199.9198416330314
 20
117.6587836784973
 30
0.0
 10
200.0486830406741
 20
117.7525219058124
 30
0.0
 10
200.2836771186875
 20
117.9441041540931
 30
0.0
 10
200.3926851750101
 20
118.0442205583598
 30
0.0
 10
200.5850350254331
 20
118.2448106656795
 30
0.0
 10
200.6665814205263
 20
118.3430851336174
 30
0.0
 10
200.8708967740435
 20
118.6301525546978
 30
0.0
 10
200.9471927308106
 20
118.8049307176177
 30
0.0
 10
201.0010925878289
 20
119.0845906510186
 30
0.0
 10
200.9797810257586
 20
119.1925775557658
 30
0.0
 10
200.9106205561444
 20
119.2864572167051
 30
0.0
 10
200.8813309361549
 20
119.3067156209984
 30
0.0
 10
200.8191917409376
 20
119.316108508681
 30
0.0
 10
200.7869399836627
 20
119.3053507836451
 30
0.0
 10
200.7359578436534
 20
119.2359861945099
 30
0.0
 10
200.7191071737075
 20
119.1771654411044
 30
0.0
 10
200.7160239166315
 20
119.0054201493355
 30
0.0
 10
200.7295531859525
 20
118.8966996681613
 30
0.0
 10
200.7719499258555
 20
118.6534663520139
 30
0.0
 10
200.7996616700369
 20
118.5219318737294
 30
0.0
 10
200.8552997629789
 20
118.2452758790431
 30
0.0
 10
200.8833777939562
 20
118.0997268702705
 30
0.0
 10
200.9552911386516
 20
117.656818866146
 30
0.0
 10
200.9884396578584
 20
117.3483090143801
 30
0.0
 10
200.9848071327314
 20
116.8684298891805
 30
0.0
 10
200.9746721115092
 20
116.7089807050263
 30
0.0
 10
200.9312318047155
 20
116.3915751334132
 30
0.0
 10
200.8972938884355
 20
116.2318518744935
 30
0.0
 10
200.8018412413865
 20
115.928327085967
 30
0.0
 10
200.7396609571379
 20
115.7820080863998
 30
0.0
 10
200.5845548053221
 20
115.5135593675502
 30
0.0
 10
200.4939622197721
 20
115.3947551265307
 30
0.0
 10
200.1804999833895
 20
115.0862259864666
 30
0.0
 10
199.9230333846838
 20
114.958702535899
 30
0.0
 10
199.5289451357001
 20
114.8789612801305
 30
0.0
 10
199.3943548857644
 20
114.8694621953773
 30
0.0
 10
199.1243152187558
 20
114.8790668134416
 30
0.0
 10
198.9907334517088
 20
114.8978712266614
 30
0.0
 10
198.5914176034075
 20
114.9876092756115
 30
0.0
 10
198.3252520910535
 20
115.0931992833806
 30
0.0
 10
197.9322655160935
 20
115.2940405533683
 30
0.0
 10
197.8015847486171
 20
115.3682931522786
 30
0.0
 10
197.5347663594634
 20
115.5301921744782
 30
0.0
 10
197.3992046842592
 20
115.6175033663369
 30
0.0
 10
197.2633150205561
 20
115.7067558301755
 30
0.0
  0
SPLINE
  5
120
330
1F
100
AcDbEntity
  8
0
  6
HIDDEN
 62
     7
370
     0
100
AcDbSpline
210
0.0
220
0.0
230
1.0
 70
     8
 71
     3
 72
    66
 73
    62
 74
     0
 42
0.00000001
 43
0.00000001
 12
1.0
 22
0.0
 32
0.0
 13
1.0
 23
0.0
 33
0.0
 40
-0.0312499999999999
 40
-0.0312499999999999
 40
0.0
 40
0.0
 40
0.0312500000000001
 40
0.0312500000000001
 40
0.0625000000000002
 40
0.0625000000000002
 40
0.0937500000000004
 40
0.0937500000000004
 40
0.1250000000000005
 40
0.1250000000000005
 40
0.1875000000000008
 40
0.1875000000000008
 40
0.2187500000000009
 40
0.2187500000000009
 40
0.2500000000000009
 40
0.2500000000000009
 40
0.2812500000000009
 40
0.2812500000000009
 40
0.3125000000000009
 40
0.3125000000000009
 40
0.343750000000001
 40
0.343750000000001
 40
0.375000000000001
 40
0.375000000000001
 40
0.406250000000001
 40
0.406250000000001
 40
0.437500000000001
 40
0.437500000000001
 40
0.4687500000000011
 40
0.4687500000000011
 40
0.500000000000001
 40
0.500000000000001
 40
0.531250000000001
 40
0.531250000000001
 40
0.562500000000001
 40
0.562500000000001
 40
0.593750000000001
 40
0.593750000000001
 40
0.625000000000001
 40
0.625000000000001
 40
0.687500000000001
 40
0.687500000000001
 40
0.7187500000000009
 40
0.7187500000000009
 40
0.7500000000000008
 40
0.7500000000000008
 40
0.7812500000000007
 40
0.7812500000000007
 40
0.8125000000000006
 40
0.8125000000000006
 40
0.8437500000000004
 40
0.8437500000000004
 40
0.8750000000000003
 40
0.8750000000000003
 40
0.9062500000000003
 40
0.9062500000000003
 40
0.9375000000000002
 40
0.9375000000000002
 40
0.9687500000000001
 40
0.9687500000000001
 40
1.0
 40
1.0
 40
1.03125
 40
1.03125
 10
198.6526933895128
 20
123.9896380376681
 30
0.0
 10
198.3195875739993
 20
123.9896380376681
 30
0.0
 10
198.1560966204095
 20
123.97249044959
 30
0.0
 10
197.8348944750405
 20
123.9059933967012
 30
0.0
 10
197.6754821174843
 20
123.8557729274393
 30
0.0
 10
197.3734433903439
 20
123.7271912311899
 30
0.0
 10
197.2303953529822
 20
123.6492076494959
 30
0.0
 10
196.9596621310313
 20
123.4676171940406
 30
0.0
 10
196.8325926160648
 20
123.3639741509417
 30
0.0
 10
196.4895846050919
 20
123.0292936268886
 30
0.0
 10
196.303752343688
 20
122.7661265544397
 30
0.0
 10
196.1159469805294
 20
122.3553746999589
 30
0.0
 10
196.067206903751
 20
122.2131737947762
 30
0.0
 10
196.0024428516362
 20
121.9300327380299
 30
0.0
 10
195.9862507411021
 20
121.7901770818488
 30
0.0
 10
195.9860313339354
 20
121.5141718593614
 30
0.0
 10
196.0025794279688
 20
121.3771928098763
 30
0.0
 10
196.0670085816724
 20
121.1192116454034
 30
0.0
 10
196.1146670508573
 20
120.9966282613483
 30
0.0
 10
196.241363018656
 20
120.7634528271981
 30
0.0
 10
196.318936604455
 20
120.655798222615
 30
0.0
 10
196.4995432306351
 20
120.4584454820069
 30
0.0
 10
196.6040962797508
 20
120.3674995597994
 30
0.0
 10
196.834104920095
 20
120.2062401123848
 30
0.0
 10
196.9589849784698
 20
120.1358664707261
 30
0.0
 10
197.2288845500996
 20
120.0135642053182
 30
0.0
 10
197.3749809165826
 20
119.9615995975014
 30
0.0
 10
197.6756935403913
 20
119.8795070504224
 30
0.0
 10
197.8316412287487
 20
119.848615861554
 30
0.0
 10
198.1554210924971
 20
119.8067711442409
 30
0.0
 10
198.3211194362472
 20
119.7963271852257
 30
0.0
 10
198.6491633162545
 20
119.7962434656365
 30
0.0
 10
198.8144888675912
 20
119.8065593403254
 30
0.0
 10
199.1388173236016
 20
119.8482869319134
 30
0.0
 10
199.2951701244633
 20
119.8791684221748
 30
0.0
 10
199.5968863026925
 20
119.9614386553848
 30
0.0
 10
199.742976832407
 20
120.0134093931853
 30
0.0
 10
200.0126906098121
 20
120.1355569682586
 30
0.0
 10
200.1378719434552
 20
120.2060038297607
 30
0.0
 10
200.4844824838828
 20
120.4490823682442
 30
0.0
 10
200.6676253187712
 20
120.6471120884356
 30
0.0
 10
200.8572918789105
 20
120.9959632006479
 30
0.0
 10
200.904929626339
 20
121.118265083937
 30
0.0
 10
200.9694478612712
 20
121.3757551279491
 30
0.0
 10
200.9861449670129
 20
121.5126648908576
 30
0.0
 10
200.9861359946455
 20
121.7890019412437
 30
0.0
 10
200.9700051586989
 20
121.9289859143274
 30
0.0
 10
200.9053454820303
 20
122.212301544858
 30
0.0
 10
200.8566751273911
 20
122.3545430408505
 30
0.0
 10
200.7312457550723
 20
122.6290422178804
 30
0.0
 10
200.6535021025821
 20
122.7637841646445
 30
0.0
 10
200.4712026155693
 20
123.0206972933127
 30
0.0
 10
200.368239462275
 20
123.1410167876338
 30
0.0
 10
200.1390384899825
 20
123.3645630510133
 30
0.0
 10
200.0114075118745
 20
123.4684978120059
 30
0.0
 10
199.7415618504379
 20
123.6493562762721
 30
0.0
 10
199.5987071070508
 20
123.7272703708944
 30
0.0
 10
199.2963095798047
 20
123.8559575671963
 30
0.0
 10
199.13709434886
 20
123.9060632955045
 30
0.0
 10
198.8162066175419
 20
123.97247641185
 30
0.0
 10
198.6526933895128
 20
123.9896380376681
 30
0.0
 10
198.3195875739993
 20
123.9896380376681
 30
0.0
  0
CIRCLE
  5
121
330
1F
100
AcDbEntity
  8
0
  6
HIDDEN
 62
     7
370
     0
100
AcDbCircle
 10
166.4861404818
 20
125.5994093254
 30
0.0
 40
3.050000000000011
  0
LWPOLYLINE
  5
122
330
1F
100
AcDbEntity
  8
0
  6
HIDDEN
 62
     7
370
     0
100
AcDbPolyline
 90
        9
 70
   128
 43
0.0
 10
197.6136972081
 20
116.9535330146
 10
197.4874210428
 20
116.7032158583
 10
197.3819599371
 20
116.4727368041
 10
197.2992249649
 20
116.2662812158
 10
197.2407211434
 20
116.0875976666
 10
197.207512043
 20
115.9399318158
 10
197.2001974355
 20
115.8259640097
 10
197.2189114314
 20
115.7477655097
 10
197.2633150291
 20
115.7067556515
  0
LINE
  5
123
330
1F
100
AcDbEntity
  8
0
  6
HIDDEN
 62
     7
370
     0
100
AcDbLine
 10
155.5141803693
 20
136.388084723
 30
0.0
 11
155.5141803693
 21
114.8107339277
 31
0.0
  0
LINE
  5
124
330
1F
100
AcDbEntity
  8
0
  6
HIDDEN
 62
     7
370
     0
100
AcDbLine
 10
151.5141797137
 20
136.7692825034
 30
0.0
 11
151.5141797137
 21
114.4295361473
 31
0.0
  0
LINE
  5
125
330
1F
100
AcDbEntity
  8
0
  6
HIDDEN
 62
     7
370
     0
100
AcDbLine
 10
150.4861411523
 20
113.83599682
 30
0.0
 11
150.4861411523
 21
137.3472240403
 31
0.0
  0
LINE
  5
126
330
1F
100
AcDbEntity
  8
0
  6
HIDDEN
 62
     7
370
     0
100
AcDbLine
 10
160.1141800057
 20
136.0994091838
 30
0.0
 11
160.1141800057
 21
115.0994094669
 31
0.0
  0
LINE
  5
127
330
1F
100
AcDbEntity
  8
0
  6
HIDDEN
 62
     7
370
     0
100
AcDbLine
 10
154.0141810548
 20
136.0994091838
 30
0.0
 11
154.0141810548
 21
115.0994094669
 31
0.0
  0
LINE
  5
128
330
1F
100
AcDbEntity
  8
0
  6
HIDDEN
 62
     7
370
     0
100
AcDbLine
 10
155.0141812187
 20
136.0994091838
 30
0.0
 11
155.0141812187
 21
115.0994094669
 31
0.0
  0
SPLINE
  5
129
330
1F
100
AcDbEntity
  8
0
  6
HIDDEN
 62
     7
370
     0
100
AcDbSpline
210
0.0
220
0.0
230
1.0
 70
     8
 71
     3
 72
    66
 73
    62
 74
     0
 42
0.00000001
 43
0.00000001
 12
1.0
 22
0.0
 32
0.0
 13
1.0
 23
0.0
 33
0.0
 40
-0.0312499999999999
 40
-0.0312499999999999
 40
0.0
 40
0.0
 40
0.0312499999999998
 40
0.0312499999999998
 40
0.0624999999999996
 40
0.0624999999999996
 40
0.0937499999999995
 40
0.0937499999999995
 40
0.1249999999999993
 40
0.1249999999999993
 40
0.1874999999999991
 40
0.1874999999999991
 40
0.218749999999999
 40
0.218749999999999
 40
0.249999999999999
 40
0.249999999999999
 40
0.281249999999999
 40
0.281249999999999
 40
0.3124999999999989
 40
0.3124999999999989
 40
0.3437499999999989
 40
0.3437499999999989
 40
0.3749999999999989
 40
0.3749999999999989
 40
0.4062499999999989
 40
0.4062499999999989
 40
0.4374999999999989
 40
0.4374999999999989
 40
0.4687499999999989
 40
0.4687499999999989
 40
0.4999999999999989
 40
0.4999999999999989
 40
0.5312499999999988
 40
0.5312499999999988
 40
0.5624999999999988
 40
0.5624999999999988
 40
0.5937499999999987
 40
0.5937499999999987
 40
0.6249999999999988
 40
0.6249999999999988
 40
0.656249999999999
 40
0.656249999999999
 40
0.6874999999999991
 40
0.6874999999999991
 40
0.7187499999999993
 40
0.7187499999999993
 40
0.7499999999999994
 40
0.7499999999999994
 40
0.7812499999999996
 40
0.7812499999999996
 40
0.8124999999999998
 40
0.8124999999999998
 40
0.875
 40
0.875
 40
0.9062500000000002
 40
0.9062500000000002
 40
0.9375000000000001
 40
0.9375000000000001
 40
0.9687500000000001
 40
0.9687500000000001
 40
1.0
 40
1.0
 40
1.03125
 40
1.03125
 10
166.2834618348082
 20
128.649409325351
 30
0.0
 10
166.6888191287038
 20
128.649409325351
 30
0.0
 10
166.8878790200396
 20
128.6294097657344
 30
0.0
 10
167.2791330046193
 20
128.5512662630342
 30
0.0
 10
167.473405763367
 20
128.4921051615135
 30
0.0
 10
167.8421691899183
 20
128.3386734746191
 30
0.0
 10
168.0168943482965
 20
128.2449466647769
 30
0.0
 10
168.3475716518303
 20
128.023692562372
 30
0.0
 10
168.5032191958332
 20
127.8957111953775
 30
0.0
 10
168.9226865655018
 20
127.4761560983774
 30
0.0
 10
169.1495747070321
 20
127.137677539674
 30
0.0
 10
169.3783713304169
 20
126.5877986519558
 30
0.0
 10
169.4375635852657
 20
126.3943988062124
 30
0.0
 10
169.5163709955263
 20
126.0001706558545
 30
0.0
 10
169.5360104118067
 20
125.8015318284221
 30
0.0
 10
169.5362692762282
 20
125.4012315425237
 30
0.0
 10
169.5161985915953
 20
125.1978922158026
 30
0.0
 10
169.4378609089654
 20
124.805800695195
 30
0.0
 10
169.3799111409269
 20
124.6150948268798
 30
0.0
 10
169.2259679990469
 20
124.2443710102932
 30
0.0
 10
169.1310293853242
 20
124.0676443504844
 30
0.0
 10
168.9106719694471
 20
123.7383912395601
 30
0.0
 10
168.7833919435188
 20
123.5832700159636
 30
0.0
 10
168.5016363521882
 20
123.3015933210332
 30
0.0
 10
168.3488480227307
 20
123.1761601361289
 30
0.0
 10
168.0194209405738
 20
122.9553845427748
 30
0.0
 10
167.8408749374221
 20
122.8595532900745
 30
0.0
 10
167.473302611872
 20
122.7067241595795
 30
0.0
 10
167.283148585161
 20
122.6485524016353
 30
0.0
 10
166.8896081624585
 20
122.5695591092903
 30
0.0
 10
166.6871740911973
 20
122.5494959836481
 30
0.0
 10
166.287745015832
 20
122.5493232375294
 30
0.0
 10
166.087726037276
 20
122.5688066116186
 30
0.0
 10
165.6916100898267
 20
122.6477981832198
 30
0.0
 10
165.5008772616348
 20
122.7060784030718
 30
0.0
 10
165.1332458210551
 20
122.8586460236798
 30
0.0
 10
164.9547593888873
 20
122.9542548104531
 30
0.0
 10
164.6245541299233
 20
123.1752668555381
 30
0.0
 10
164.4716655518613
 20
123.3007167543083
 30
0.0
 10
164.1900691573233
 20
123.5819472433136
 30
0.0
 10
164.0624382344478
 20
123.7373301212275
 30
0.0
 10
163.8421127994479
 20
124.0661809792705
 30
0.0
 10
163.7478863424826
 20
124.2410690856845
 30
0.0
 10
163.5929518218795
 20
124.6132129370453
 30
0.0
 10
163.5349395362772
 20
124.8040189788542
 30
0.0
 10
163.4565202819991
 20
125.1948919967729
 30
0.0
 10
163.4362062020326
 20
125.3973495581552
 30
0.0
 10
163.4360750857286
 20
125.7994801630747
 30
0.0
 10
163.455699779088
 20
125.9982042082498
 30
0.0
 10
163.5338662295016
 20
126.3910436793864
 30
0.0
 10
163.5931536748415
 20
126.585687956789
 30
0.0
 10
163.8222345179244
 20
127.1371277102032
 30
0.0
 10
164.0490653688186
 20
127.4754672759024
 30
0.0
 10
164.4684040701393
 20
127.8951329385539
 30
0.0
 10
164.6237570658892
 20
128.0229789443272
 30
0.0
 10
164.9547248990264
 20
128.244580019029
 30
0.0
 10
165.1292861992228
 20
128.3382207530059
 30
0.0
 10
165.4968595067976
 20
128.4913748737051
 30
0.0
 10
165.6915463684356
 20
128.5508786193512
 30
0.0
 10
166.0840223183721
 20
128.6294013684142
 30
0.0
 10
166.2834618348082
 20
128.649409325351
 30
0.0
 10
166.6888191287038
 20
128.649409325351
 30
0.0
  0
SPLINE
  5
12A
330
1F
100
AcDbEntity
  8
0
  6
HIDDEN
 62
     7
370
     0
100
AcDbSpline
210
0.0
220
0.0
230
1.0
 70
     8
 71
     3
 72
    66
 73
    62
 74
     0
 42
0.00000001
 43
0.00000001
 12
1.0
 22
0.0
 32
0.0
 13
1.0
 23
0.0
 33
0.0
 40
-0.0312500000000002
 40
-0.0312500000000002
 40
0.0
 40
0.0
 40
0.0312499999999999
 40
0.0312499999999999
 40
0.0624999999999997
 40
0.0624999999999997
 40
0.0937499999999996
 40
0.0937499999999996
 40
0.1249999999999995
 40
0.1249999999999995
 40
0.1874999999999992
 40
0.1874999999999992
 40
0.2187499999999991
 40
0.2187499999999991
 40
0.2499999999999989
 40
0.2499999999999989
 40
0.2812499999999988
 40
0.2812499999999988
 40
0.3124999999999987
 40
0.3124999999999987
 40
0.3437499999999986
 40
0.3437499999999986
 40
0.3749999999999984
 40
0.3749999999999984
 40
0.4062499999999983
 40
0.4062499999999983
 40
0.4374999999999984
 40
0.4374999999999984
 40
0.4687499999999984
 40
0.4687499999999984
 40
0.4999999999999986
 40
0.4999999999999986
 40
0.5312499999999987
 40
0.5312499999999987
 40
0.5624999999999988
 40
0.5624999999999988
 40
0.5937499999999988
 40
0.5937499999999988
 40
0.6249999999999989
 40
0.6249999999999989
 40
0.656249999999999
 40
0.656249999999999
 40
0.6874999999999991
 40
0.6874999999999991
 40
0.7187499999999992
 40
0.7187499999999992
 40
0.7499999999999992
 40
0.7499999999999992
 40
0.7812499999999993
 40
0.7812499999999993
 40
0.8124999999999994
 40
0.8124999999999994
 40
0.8749999999999996
 40
0.8749999999999996
 40
0.9062499999999997
 40
0.9062499999999997
 40
0.9374999999999997
 40
0.9374999999999997
 40
0.9687499999999998
 40
0.9687499999999998
 40
1.0
 40
1.0
 40
1.03125
 40
1.03125
 10
166.6888191287038
 20
128.649409325351
 30
0.0
 10
166.2834618348082
 20
128.649409325351
 30
0.0
 10
166.0844019434723
 20
128.6294097657344
 30
0.0
 10
165.6931479588926
 20
128.5512662630342
 30
0.0
 10
165.498875200145
 20
128.4921051615135
 30
0.0
 10
165.1301117735937
 20
128.3386734746191
 30
0.0
 10
164.9553866152154
 20
128.2449466647769
 30
0.0
 10
164.6247093116816
 20
128.023692562372
 30
0.0
 10
164.4690617676788
 20
127.8957111953774
 30
0.0
 10
164.0495943980101
 20
127.4761560983774
 30
0.0
 10
163.8227062564798
 20
127.137677539674
 30
0.0
 10
163.5939096330951
 20
126.5877986519558
 30
0.0
 10
163.5347173782462
 20
126.3943988062124
 30
0.0
 10
163.4559099679856
 20
126.0001706558545
 30
0.0
 10
163.4362705517053
 20
125.8015318284221
 30
0.0
 10
163.4360116872837
 20
125.4012315425237
 30
0.0
 10
163.4560823719166
 20
125.1978922158026
 30
0.0
 10
163.5344200545466
 20
124.805800695195
 30
0.0
 10
163.592369822585
 20
124.6150948268798
 30
0.0
 10
163.746312964465
 20
124.2443710102932
 30
0.0
 10
163.8412515781877
 20
124.0676443504844
 30
0.0
 10
164.0616089940649
 20
123.7383912395601
 30
0.0
 10
164.1888890199932
 20
123.5832700159636
 30
0.0
 10
164.4706446113237
 20
123.3015933210332
 30
0.0
 10
164.6234329407812
 20
123.1761601361289
 30
0.0
 10
164.9528600229381
 20
122.9553845427748
 30
0.0
 10
165.1314060260898
 20
122.8595532900746
 30
0.0
 10
165.49897835164
 20
122.7067241595795
 30
0.0
 10
165.689132378351
 20
122.6485524016353
 30
0.0
 10
166.0826728010535
 20
122.5695591092903
 30
0.0
 10
166.2851068723146
 20
122.5494959836481
 30
0.0
 10
166.68453594768
 20
122.5493232375294
 30
0.0
 10
166.8845549262359
 20
122.5688066116186
 30
0.0
 10
167.2806708736853
 20
122.6477981832198
 30
0.0
 10
167.4714037018771
 20
122.7060784030718
 30
0.0
 10
167.8390351424569
 20
122.8586460236798
 30
0.0
 10
168.0175215746246
 20
122.9542548104531
 30
0.0
 10
168.3477268335887
 20
123.1752668555381
 30
0.0
 10
168.5006154116506
 20
123.3007167543083
 30
0.0
 10
168.7822118061887
 20
123.5819472433136
 30
0.0
 10
168.9098427290642
 20
123.7373301212275
 30
0.0
 10
169.130168164064
 20
124.0661809792705
 30
0.0
 10
169.2243946210293
 20
124.2410690856845
 30
0.0
 10
169.3793291416324
 20
124.6132129370453
 30
0.0
 10
169.4373414272347
 20
124.8040189788542
 30
0.0
 10
169.5157606815128
 20
125.1948919967729
 30
0.0
 10
169.5360747614794
 20
125.3973495581552
 30
0.0
 10
169.5362058777833
 20
125.7994801630747
 30
0.0
 10
169.516581184424
 20
125.9982042082498
 30
0.0
 10
169.4384147340103
 20
126.3910436793864
 30
0.0
 10
169.3791272886704
 20
126.585687956789
 30
0.0
 10
169.1500464455876
 20
127.1371277102032
 30
0.0
 10
168.9232155946934
 20
127.4754672759024
 30
0.0
 10
168.5038768933727
 20
127.8951329385539
 30
0.0
 10
168.3485238976227
 20
128.0229789443272
 30
0.0
 10
168.0175560644855
 20
128.244580019029
 30
0.0
 10
167.8429947642892
 20
128.3382207530059
 30
0.0
 10
167.4754214567144
 20
128.4913748737051
 30
0.0
 10
167.2807345950763
 20
128.5508786193512
 30
0.0
 10
166.8882586451398
 20
128.6294013684142
 30
0.0
 10
166.6888191287038
 20
128.649409325351
 30
0.0
 10
166.2834618348082
 20
128.649409325351
 30
0.0
  0
LINE
  5
12B
330
1F
100
AcDbEntity
  8
0
  6
HIDDEN
 62
     7
370
     0
100
AcDbLine
 10
170.4861407053
 20
135.5994091018
 30
0.0
 11
170.4861407053
 21
115.5994095489
 31
0.0
  0
LINE
  5
12C
330
1F
100
AcDbEntity
  8
0
  6
HIDDEN
 62
     7
370
     0
100
AcDbLine
 10
171.4861408692
 20
132.8494091167
 30
0.0
 11
171.4861408692
 21
118.349409534
 31
0.0
  0
LINE
  5
12D
330
1F
100
AcDbEntity
  8
0
  6
HIDDEN
 62
     7
370
     0
100
AcDbLine
 10
170.4861407053
 20
117.3494093701
 30
0.0
 11
170.4861407053
 21
133.8337621301
 31
0.0
  0
LINE
  5
12E
330
1F
100
AcDbEntity
  8
0
  6
HIDDEN
 62
     7
370
     0
100
AcDbLine
 10
204.4861406904
 20
118.349409534
 30
0.0
 11
204.4861406904
 21
132.8494091167
 31
0.0
  0
LINE
  5
12F
330
1F
100
AcDbEntity
  8
0
  6
HIDDEN
 62
     7
370
     0
100
AcDbLine
 10
224.651163153
 20
109.2014618798
 30
0.0
 11
233.2493455034
 21
104.7674704924
 31
0.0
  0
LINE
  5
130
330
1F
100
AcDbEntity
  8
0
  6
HIDDEN
 62
     7
370
     0
100
AcDbLine
 10
224.6372827213
 20
109.2280511393
 30
0.0
 11
224.651163153
 21
109.2014618798
 31
0.0
  0
LINE
  5
131
330
1F
100
AcDbEntity
  8
0
  6
HIDDEN
 62
     7
370
     0
100
AcDbLine
 10
226.3238520246
 20
97.6940699502
 30
0.0
 11
219.2270659726
 21
111.2922521889
 31
0.0
  0
ARC
  5
132
330
1F
100
AcDbEntity
  8
0
  6
HIDDEN
 62
     7
370
     0
100
AcDbCircle
 10
220.1202095882
 20
113.6164947321
 30
0.0
 40
1.75695357264758
100
AcDbArc
 50
105.8260421614
 51
164.3136631512
  0
LINE
  5
133
330
1F
100
AcDbEntity
  8
0
  6
HIDDEN
 62
     7
370
     0
100
AcDbLine
 10
219.2373067956
 20
111.5175102487
 30
0.0
 11
226.3272494894
 21
97.9324401005
 31
0.0
  0
ELLIPSE
  5
134
330
1F
100
AcDbEntity
  8
0
  6
HIDDEN
 62
     7
370
     0
100
AcDbEllipse
 10
216.1984594276
 20
-1967.0553835135
 30
0.0
 11
22.97323983866201
 21
2662.725176764673
 31
0.0
210
0.0
220
0.0
230
1.0
 40
0.0045723775
 41
0.6833026694632003
 42
0.6834444556099577
  0
LINE
  5
135
330
1F
100
AcDbEntity
  8
0
  6
HIDDEN
 62
     7
370
     0
100
AcDbLine
 10
224.651163153
 20
109.2014618798
 30
0.0
 11
224.3876100402
 21
109.2104044392
 31
0.0
  0
LINE
  5
136
330
1F
100
AcDbEntity
  8
0
  6
HIDDEN
 62
     7
370
     0
100
AcDbLine
 10
224.2830709439
 20
109.4107151612
 30
0.0
 11
224.3876100402
 21
109.2104044392
 31
0.0
  0
LINE
  5
137
330
1F
100
AcDbEntity
  8
0
  6
HIDDEN
 62
     7
370
     0
100
AcDbLine
 10
227.5131062489
 20
122.085367434
 30
0.0
 11
230.9594281834
 21
122.085367434
 31
0.0
  0
SPLINE
  5
138
330
1F
100
AcDbEntity
  8
0
  6
HIDDEN
 62
     7
370
     0
100
AcDbSpline
210
0.0
220
0.0
230
1.0
 70
     8
 71
     3
 72
    10
 73
     6
 74
     0
 42
0.00000001
 43
0.00000001
 12
1.0
 22
0.0
 32
0.0
 13
1.0
 23
0.0
 33
0.0
 40
0.0
 40
0.0
 40
0.0
 40
0.0
 40
0.5
 40
0.5
 40
1.0
 40
1.0
 40
1.0
 40
1.0
 10
213.684739320067
 20
122.0839581518946
 30
0.0
 10
213.6633001265745
 20
122.669831023338
 30
0.0
 10
213.6367785346476
 20
123.2556660537307
 30
0.0
 10
213.5973509161425
 20
124.4274374893504
 30
0.0
 10
213.5848388975614
 20
125.0133768281681
 30
0.0
 10
213.5848388975614
 20
125.5994093253509
 30
0.0
  0
LINE
  5
139
330
1F
100
AcDbEntity
  8
0
  6
HIDDEN
 62
     7
370
     0
100
AcDbLine
 10
213.5848381441
 20
142.5822180345
 30
0.0
 11
213.5848381441
 21
125.5994093254
 31
0.0
  0
SPLINE
  5
13A
330
1F
100
AcDbEntity
  8
0
  6
HIDDEN
 62
     7
370
     0
100
AcDbSpline
210
0.0
220
0.0
230
1.0
 70
     8
 71
     3
 72
    11
 73
     7
 74
     0
 42
0.00000001
 43
0.00000001
 12
1.0
 22
0.0
 32
0.0
 13
1.0
 23
0.0
 33
0.0
 40
0.0
 40
0.0
 40
0.0
 40
0.0
 40
0.2156595366248926
 40
0.757885425128723
 40
0.8552244205619772
 40
0.9999999999999999
 40
0.9999999999999999
 40
0.9999999999999999
 40
0.9999999999999999
 10
213.6847392540434
 20
100.7179085745708
 30
0.0
 10
213.664790986722
 20
100.6597153778531
 30
0.0
 10
213.5946874276768
 20
100.4552088843114
 30
0.0
 10
213.5671575560754
 20
100.224013582137
 30
0.0
 10
213.6386067029054
 20
100.0123397054851
 30
0.0
 10
213.6583936556352
 20
99.94699222419676
 30
0.0
 10
213.6702255230406
 20
99.90791684233112
 30
0.0
  0
SPLINE
  5
13B
330
1F
100
AcDbEntity
  8
0
  6
HIDDEN
 62
     7
370
     0
100
AcDbSpline
210
0.0
220
0.0
230
1.0
 70
     8
 71
     3
 72
    12
 73
     8
 74
     0
 42
0.00000001
 43
0.00000001
 12
1.0
 22
0.0
 32
0.0
 13
1.0
 23
0.0
 33
0.0
 40
0.0
 40
0.0
 40
0.0
 40
0.0
 40
0.2499999999999997
 40
0.2499999999999997
 40
0.4999999999999993
 40
0.4999999999999993
 40
1.0
 40
1.0
 40
1.0
 40
1.0
 10
213.5848388975614
 20
142.5822188290749
 30
0.0
 10
213.5340900375258
 20
142.6893576243129
 30
0.0
 10
213.4750205840702
 20
142.8067761832981
 30
0.0
 10
213.3465816893631
 20
143.0543385284003
 30
0.0
 10
213.2769618982315
 20
143.184852548871
 30
0.0
 10
213.0572801477051
 20
143.5887130349774
 30
0.0
 10
212.8970604591411
 20
143.8739992894288
 30
0.0
 10
212.7188134937774
 20
144.1802997446306
 30
0.0
  0
ELLIPSE
  5
13C
330
1F
100
AcDbEntity
  8
0
  6
HIDDEN
 62
     7
370
     0
100
AcDbEllipse
 10
1924.6389145291
 20
115.643671121
 30
0.0
 11
2131.982216634584
 21
23.00606950227563
 31
0.0
210
0.0
220
0.0
230
1.0
 40
0.0056814896
 41
2.487013114116809
 42
2.48719636734632
  0
LINE
  5
13D
330
1F
100
AcDbEntity
  8
0
  6
HIDDEN
 62
     7
370
     0
100
AcDbLine
 10
233.0115304213
 20
104.7631435677
 30
0.0
 11
224.3876100402
 21
109.2104044392
 31
0.0
  0
ARC
  5
13E
330
1F
100
AcDbEntity
  8
0
  6
HIDDEN
 62
     7
370
     0
100
AcDbCircle
 10
219.9392273493
 20
113.7956791067
 30
0.0
 40
1.750434502236015
100
AcDbArc
 50
41.2662464971
 51
207.4899947864
  0
ELLIPSE
  5
13F
330
1F
100
AcDbEntity
  8
0
  6
HIDDEN
 62
     7
370
     0
100
AcDbEllipse
 10
216.1984594276
 20
102.4173763454
 30
0.0
 11
-25.6309545623885
 21
33.65412721431203
 31
0.0
210
0.0
220
0.0
230
1.0
 40
0.1297049843
 41
4.48091326182782
 42
4.493769973539726
  0
LINE
  5
140
330
1F
100
AcDbEntity
  8
0
  6
HIDDEN
 62
     7
370
     0
100
AcDbLine
 10
224.3876100402
 20
109.2104044392
 30
0.0
 11
224.2132217508
 21
109.3843717708
 31
0.0
  0
LINE
  5
141
330
1F
100
AcDbEntity
  8
0
  6
HIDDEN
 62
     7
370
     0
100
AcDbLine
 10
224.2132217508
 20
109.3843717708
 30
0.0
 11
224.1686859053
 21
109.4697014078
 31
0.0
  0
ELLIPSE
  5
142
330
1F
100
AcDbEntity
  8
0
  6
HIDDEN
 62
     7
370
     0
100
AcDbEllipse
 10
227.4785599539
 20
115.643671121
 30
0.0
 11
33.87061315251325
 21
-25.62367369971802
 31
0.0
210
0.0
220
0.0
230
1.0
 40
0.1301318729
 41
4.960578952836802
 42
4.973814585254176
  0
LINE
  5
143
330
1F
100
AcDbEntity
  8
0
  6
HIDDEN
 62
     7
370
     0
100
AcDbLine
 10
233.3441168886
 20
103.4504257723
 30
0.0
 11
239.3402100425
 21
91.9612896278
 31
0.0
  0
LINE
  5
144
330
1F
100
AcDbEntity
  8
0
  6
HIDDEN
 62
     7
370
     0
100
AcDbLine
 10
239.1216025572
 20
91.7416167095
 30
0.0
 11
239.3402100425
 21
91.9612896278
 31
0.0
  0
LINE
  5
145
330
1F
100
AcDbEntity
  8
0
  6
HIDDEN
 62
     7
370
     0
100
AcDbLine
 10
228.2802180272
 20
97.3324001416
 30
0.0
 11
239.1216025572
 21
91.7416167095
 31
0.0
  0
CIRCLE
  5
146
330
1F
100
AcDbEntity
  8
0
  6
HIDDEN
 62
     7
370
     0
100
AcDbCircle
 10
229.371144496
 20
101.6528380279
 30
0.0
 40
2.395558243944954
  0
LINE
  5
147
330
1F
100
AcDbEntity
  8
0
  6
HIDDEN
 62
     7
370
     0
100
AcDbLine
 10
232.5665854733
 20
105.0766304716
 30
0.0
 11
224.2132217508
 21
109.3843717708
 31
0.0
  0
LINE
  5
148
330
1F
100
AcDbEntity
  8
0
  6
HIDDEN
 62
     7
370
     0
100
AcDbLine
 10
218.386431865
 20
112.9876895457
 30
0.0
 11
226.0185533088
 21
98.3637448981
 31
0.0
  0
ELLIPSE
  5
149
330
1F
100
AcDbEntity
  8
0
  6
HIDDEN
 62
     7
370
     0
100
AcDbEllipse
 10
216.1984594276
 20
74.2314581814
 30
0.0
 11
19.52855739459133
 21
17.31328357430637
 31
0.0
210
0.0
220
0.0
230
1.0
 40
0.9914322785
 41
0.3664475364584927
 42
0.4624175561783201
  0
ELLIPSE
  5
14A
330
1F
100
AcDbEntity
  8
0
  6
HIDDEN
 62
     7
370
     0
100
AcDbEllipse
 10
256.3864911711
 20
115.643671121
 30
0.0
 11
17.28642680684987
 21
19.55165705820383
 31
0.0
210
0.0
220
0.0
230
1.0
 40
0.9914502387
 41
2.709059164917607
 42
2.778646957592295
  0
CIRCLE
  5
14B
330
1F
100
AcDbEntity
  8
0
  6
HIDDEN
 62
     7
370
     0
100
AcDbCircle
 10
229.3183258706
 20
101.7087256656
 30
0.0
 40
1.646883519594396
  0
CIRCLE
  5
14C
330
1F
100
AcDbEntity
  8
0
  6
HIDDEN
 62
     7
370
     0
100
AcDbCircle
 10
228.7079580166
 20
102.317594578
 30
0.0
 40
1.646885916275413
  0
LINE
  5
14D
330
1F
100
AcDbEntity
  8
0
  6
HIDDEN
 62
     7
370
     0
100
AcDbLine
 10
151.9861404669
 20
142.4587600514
 30
0.0
 11
151.9861404669
 21
137.6489818677
 31
0.0
  0
LINE
  5
14E
330
1F
100
AcDbEntity
  8
0
  6
HIDDEN
 62
     7
370
     0
100
AcDbLine
 10
150.4861411523
 20
141.5927343651
 30
0.0
 11
150.4861411523
 21
137.2159690245
 31
0.0
  0
SPLINE
  5
14F
330
1F
100
AcDbEntity
  8
0
  6
HIDDEN
 62
     7
370
     0
100
AcDbSpline
210
0.0
220
0.0
230
1.0
 70
     8
 71
     3
 72
    18
 73
    14
 74
     0
 42
0.00000001
 43
0.00000001
 12
1.0
 22
0.0
 32
0.0
 13
1.0
 23
0.0
 33
0.0
 40
0.0
 40
0.0
 40
0.0
 40
0.0
 40
0.2500000000000007
 40
0.2500000000000007
 40
0.3750000000000006
 40
0.3750000000000006
 40
0.5000000000000004
 40
0.5000000000000004
 40
0.6250000000000003
 40
0.6250000000000003
 40
0.7500000000000002
 40
0.7500000000000002
 40
1.0
 40
1.0
 40
1.0
 40
1.0
 10
179.1648201381963
 20
112.5043626018185
 30
0.0
 10
179.029534531894
 20
111.9201610080869
 30
0.0
 10
178.928366785651
 20
111.3859433208787
 30
0.0
 10
178.8255054427821
 20
110.6600465499903
 30
0.0
 10
178.7994025972588
 20
110.4301660622104
 30
0.0
 10
178.764512613714
 20
109.9995951174236
 30
0.0
 10
178.755926355424
 20
109.8019002119294
 30
0.0
 10
178.7558266458583
 20
109.4405521692516
 30
0.0
 10
178.7643150170069
 20
109.2769021593055
 30
0.0
 10
178.7984583965275
 20
108.9836908863365
 30
0.0
 10
178.8242553783813
 20
108.8536948202207
 30
0.0
 10
178.9276565097692
 20
108.5196389276587
 30
0.0
 10
179.0295145019406
 20
108.373862763294
 30
0.0
 10
179.1648201381963
 20
108.3024994573461
 30
0.0
  0
LINE
  5
150
330
1F
100
AcDbEntity
  8
0
  6
HIDDEN
 62
     7
370
     0
100
AcDbLine
 10
178.2861404937
 20
143.119507341
 30
0.0
 11
178.2861404937
 21
137.9793555125
 31
0.0
  0
LINE
  5
151
330
1F
100
AcDbEntity
  8
0
  6
HIDDEN
 62
     7
370
     0
100
AcDbLine
 10
178.2861404937
 20
113.2194631382
 30
0.0
 11
178.2861404937
 21
108.0793113097
 31
0.0
  0
SPLINE
  5
152
330
1F
100
AcDbEntity
  8
0
  6
HIDDEN
 62
     7
370
     0
100
AcDbSpline
210
0.0
220
0.0
230
1.0
 70
     8
 71
     3
 72
    18
 73
    14
 74
     0
 42
0.00000001
 43
0.00000001
 12
1.0
 22
0.0
 32
0.0
 13
1.0
 23
0.0
 33
0.0
 40
0.0
 40
0.0
 40
0.0
 40
0.0
 40
0.2499999999999998
 40
0.2499999999999998
 40
0.3749999999999998
 40
0.3749999999999998
 40
0.4999999999999999
 40
0.4999999999999999
 40
0.6249999999999999
 40
0.6249999999999999
 40
0.75
 40
0.75
 40
1.0
 40
1.0
 40
1.0
 40
1.0
 10
179.1648201381963
 20
142.8963191933558
 30
0.0
 10
179.029534531894
 20
142.8249664516662
 30
0.0
 10
178.928366785651
 20
142.6795630450768
 30
0.0
 10
178.8255054427821
 20
142.3500958094711
 30
0.0
 10
178.7994025972588
 20
142.2211622326664
 30
0.0
 10
178.764512613714
 20
141.9256202333303
 30
0.0
 10
178.755926355424
 20
141.7612254598083
 30
0.0
 10
178.7558266458583
 20
141.4002638450678
 30
0.0
 10
178.7643150170069
 20
141.2036940529055
 30
0.0
 10
178.7984583965275
 20
140.7783392567806
 30
0.0
 10
178.8242553783813
 20
140.548569606981
 30
0.0
 10
178.9276565097692
 20
139.8159809125486
 30
0.0
 10
179.0295145019406
 20
139.278744137631
 30
0.0
 10
179.1648201381963
 20
138.6944560488834
 30
0.0
  0
LINE
  5
153
330
1F
100
AcDbEntity
  8
0
  6
HIDDEN
 62
     7
370
     0
100
AcDbLine
 10
151.9861404669
 20
113.549836783
 30
0.0
 11
151.9861404669
 21
108.7400585993
 31
0.0
  0
LINE
  5
154
330
1F
100
AcDbEntity
  8
0
  6
HIDDEN
 62
     7
370
     0
100
AcDbLine
 10
150.4861411523
 20
113.9828496262
 30
0.0
 11
150.4861411523
 21
109.6060842856
 31
0.0
  0
LINE
  5
155
330
1F
100
AcDbEntity
  8
0
  6
HIDDEN
 62
     7
370
     0
100
AcDbLine
 10
237.5482858043
 20
93.3085296883
 30
0.0
 11
239.1216025572
 21
91.7416167095
 31
0.0
  0
LINE
  5
156
330
1F
100
AcDbEntity
  8
0
  6
HIDDEN
 62
     7
370
     0
100
AcDbLine
 10
239.3402100425
 20
91.9612896278
 30
0.0
 11
237.4680579524
 21
93.8258234992
 31
0.0
  0
SPLINE
  5
157
330
1F
100
AcDbEntity
  8
0
  6
HIDDEN
 62
     7
370
     0
100
AcDbSpline
210
0.0
220
0.0
230
1.0
 70
     8
 71
     3
 72
     8
 73
     4
 74
     0
 42
0.00000001
 43
0.00000001
 12
1.0
 22
0.0
 32
0.0
 13
1.0
 23
0.0
 33
0.0
 40
0.0
 40
0.0
 40
0.0
 40
0.0
 40
1.0
 40
1.0
 40
1.0
 40
1.0
 10
215.4898853815603
 20
102.7407701257613
 30
0.0
 10
214.5775981890264
 20
102.0707866288991
 30
0.0
 10
213.8888613409522
 20
101.3977052345197
 30
0.0
 10
213.6847393200661
 20
100.7179081847761
 30
0.0
  0
SPLINE
  5
158
330
1F
100
AcDbEntity
  8
0
  6
HIDDEN
 62
     7
370
     0
100
AcDbSpline
210
0.0
220
0.0
230
1.0
 70
     8
 71
     3
 72
     8
 73
     4
 74
     0
 42
0.00000001
 43
0.00000001
 12
1.0
 22
0.0
 32
0.0
 13
1.0
 23
0.0
 33
0.0
 40
0.0
 40
0.0
 40
0.0
 40
0.0
 40
1.0
 40
1.0
 40
1.0
 40
1.0
 10
215.3831397308149
 20
106.135160128778
 30
0.0
 10
215.4184687590126
 20
104.9468113121283
 30
0.0
 10
215.4540581312844
 20
103.8158817754762
 30
0.0
 10
215.4898853815603
 20
102.7407701257613
 30
0.0
  0
ELLIPSE
  5
159
330
1F
100
AcDbEntity
  8
0
  6
HIDDEN
 62
     7
370
     0
100
AcDbEllipse
 10
274.5406312785
 20
123.5994093254
 30
0.0
 11
36.27341166842035
 21
31.78084959050212
 31
0.0
210
0.0
220
0.0
230
1.0
 40
0.2449985756
 41
2.96837602472402
 42
3.006232738648588
  0
ELLIPSE
  5
15A
330
1F
100
AcDbEntity
  8
0
  6
HIDDEN
 62
     7
370
     0
100
AcDbEllipse
 10
177.2168462395
 20
123.5994093254
 30
0.0
 11
62.86147841258085
 21
-32.8483389558105
 31
0.0
210
0.0
220
0.0
230
1.0
 40
0.0502718471
 41
0.3121176201220474
 42
0.6494281057964383
  0
ELLIPSE
  5
15B
330
1F
100
AcDbEntity
  8
0
  6
HIDDEN
 62
     7
370
     0
100
AcDbEllipse
 10
223.2874808212
 20
123.5994093254
 30
0.0
 11
-17.83916437416479
 21
32.95625936766351
 31
0.0
210
0.0
220
0.0
230
1.0
 40
0.0952129519
 41
2.176090022593751
 42
2.64421580320374
  0
SPLINE
  5
15C
330
1F
100
AcDbEntity
  8
0
  6
HIDDEN
 62
     7
370
     0
100
AcDbSpline
210
0.0
220
0.0
230
1.0
 70
     8
 71
     3
 72
    18
 73
    14
 74
     0
 42
0.00000001
 43
0.00000001
 12
1.0
 22
0.0
 32
0.0
 13
1.0
 23
0.0
 33
0.0
 40
0.0
 40
0.0
 40
0.0
 40
0.0
 40
0.2499999999999986
 40
0.2499999999999986
 40
0.3749999999999987
 40
0.3749999999999987
 40
0.4999999999999988
 40
0.4999999999999988
 40
0.7499999999999992
 40
0.7499999999999992
 40
0.8749999999999996
 40
0.8749999999999996
 40
1.0
 40
1.0
 40
1.0
 40
1.0
 10
216.1984594275807
 20
102.7407701257613
 30
0.0
 10
217.3120874012974
 20
102.7407701257613
 30
0.0
 10
218.4082088535569
 20
102.6610918261444
 30
0.0
 10
220.0271737915976
 20
102.4294405260523
 30
0.0
 10
220.562596940018
 20
102.3334556279346
 30
0.0
 10
221.6248263397656
 20
102.1043637791347
 30
0.0
 10
222.1543699578257
 20
101.9703953173317
 30
0.0
 10
223.7053670933391
 20
101.5201515981244
 30
0.0
 10
224.6891377496553
 20
101.1568866251228
 30
0.0
 10
226.0923855204701
 20
100.5333853287269
 30
0.0
 10
226.5480075619863
 20
100.3124098187964
 30
0.0
 10
227.4348832190924
 20
99.84658611821135
 30
0.0
 10
227.8662056145712
 20
99.60155260911685
 30
0.0
 10
228.2802196687176
 20
99.3490626601823
 30
0.0
  0
SPLINE
  5
15D
330
1F
100
AcDbEntity
  8
0
  6
HIDDEN
 62
     7
370
     0
100
AcDbSpline
210
0.0
220
0.0
230
1.0
 70
     8
 71
     3
 72
     8
 73
     4
 74
     0
 42
0.00000001
 43
0.00000001
 12
1.0
 22
0.0
 32
0.0
 13
1.0
 23
0.0
 33
0.0
 40
0.0
 40
0.0
 40
0.0
 40
0.0
 40
1.0
 40
1.0
 40
1.0
 40
1.0
 10
229.3839617223448
 20
106.1351601287779
 30
0.0
 10
229.8292381215717
 20
105.1927073411333
 30
0.0
 10
230.32289854695
 20
104.2997415203568
 30
0.0
 10
230.8576554615751
 20
103.4504264724936
 30
0.0
  0
LINE
  5
15E
330
1F
100
AcDbEntity
  8
0
  6
HIDDEN
 62
     7
370
     0
100
AcDbLine
 10
215.4898845475
 20
102.740771009
 30
0.0
 11
216.1984608393
 21
102.740771009
 31
0.0
  0
LINE
  5
15F
330
1F
100
AcDbEntity
  8
0
  6
HIDDEN
 62
     7
370
     0
100
AcDbLine
 10
150.4861411523
 20
137.2159690245
 30
0.0
 11
150.4861411523
 21
127.9385803382
 31
0.0
  0
LINE
  5
160
330
1F
100
AcDbEntity
  8
0
  6
HIDDEN
 62
     7
370
     0
100
AcDbLine
 10
150.4861411523
 20
123.2602383125
 30
0.0
 11
150.4861411523
 21
113.9828496262
 31
0.0
  0
LINE
  5
161
330
1F
100
AcDbEntity
  8
0
  6
HIDDEN
 62
     7
370
     0
100
AcDbLine
 10
151.9861404669
 20
122.4509322665
 30
0.0
 11
151.9861404669
 21
113.549836783
 31
0.0
  0
LINE
  5
162
330
1F
100
AcDbEntity
  8
0
  6
HIDDEN
 62
     7
370
     0
100
AcDbLine
 10
151.9861404669
 20
137.6489818677
 30
0.0
 11
151.9861404669
 21
128.7478863842
 31
0.0
  0
LINE
  5
163
330
1F
100
AcDbEntity
  8
0
  6
HIDDEN
 62
     7
370
     0
100
AcDbLine
 10
178.2861404937
 20
137.9793555125
 30
0.0
 11
178.2861404937
 21
113.2194631382
 31
0.0
  0
LINE
  5
164
330
1F
100
AcDbEntity
  8
0
  6
HIDDEN
 62
     7
370
     0
100
AcDbLine
 10
180.2861404868
 20
137.161683163
 30
0.0
 11
180.2861404868
 21
114.0371354877
 31
0.0
  0
SPLINE
  5
165
330
1F
100
AcDbEntity
  8
0
  6
HIDDEN
 62
     7
370
     0
100
AcDbSpline
210
0.0
220
0.0
230
1.0
 70
     8
 71
     3
 72
    26
 73
    22
 74
     0
 42
0.00000001
 43
0.00000001
 12
1.0
 22
0.0
 32
0.0
 13
1.0
 23
0.0
 33
0.0
 40
0.0
 40
0.0
 40
0.0
 40
0.0
 40
0.1250000000000002
 40
0.1250000000000002
 40
0.2500000000000005
 40
0.2500000000000005
 40
0.3750000000000006
 40
0.3750000000000006
 40
0.4375000000000007
 40
0.4375000000000007
 40
0.5000000000000008
 40
0.5000000000000008
 40
0.5625000000000009
 40
0.5625000000000009
 40
0.625000000000001
 40
0.625000000000001
 40
0.7500000000000007
 40
0.7500000000000007
 40
0.8750000000000004
 40
0.8750000000000004
 40
1.0
 40
1.0
 40
1.0
 40
1.0
 10
155.986140481756
 20
122.3809115649019
 30
0.0
 10
156.1967838437559
 20
122.6155285958469
 30
0.0
 10
156.403980281513
 20
122.8534117318064
 30
0.0
 10
156.8054794161453
 20
123.3407260380752
 30
0.0
 10
157.0007558351913
 20
123.5908512628643
 30
0.0
 10
157.3605363278867
 20
124.1094414083152
 30
0.0
 10
157.5257951880361
 20
124.376872392202
 30
0.0
 10
157.7184530974623
 20
124.8082875246006
 30
0.0
 10
157.7734178376723
 20
124.9583064065249
 30
0.0
 10
157.8511536226365
 20
125.271043585255
 30
0.0
 10
157.8724197609448
 20
125.4287978320622
 30
0.0
 10
157.8743136902306
 20
125.747503111908
 30
0.0
 10
157.8540879531635
 20
125.9099399120885
 30
0.0
 10
157.7796235428777
 20
126.2208919116712
 30
0.0
 10
157.7259844171317
 20
126.3715631499989
 30
0.0
 10
157.531240111731
 20
126.8136469079675
 30
0.0
 10
157.3641899985528
 20
127.0836909211352
 30
0.0
 10
157.0039338798492
 20
127.6037985494166
 30
0.0
 10
156.8091815048288
 20
127.8534597622262
 30
0.0
 10
156.4061722803565
 20
128.342883874069
 30
0.0
 10
156.197735761993
 20
128.582229797233
 30
0.0
 10
155.9861404817569
 20
128.8179070858008
 30
0.0
  0
LINE
  5
166
330
1F
100
AcDbEntity
  8
0
  6
HIDDEN
 62
     7
370
     0
100
AcDbLine
 10
155.9861411225
 20
122.3809114772
 30
0.0
 11
155.9861411225
 21
128.8179071735
 31
0.0
  0
SPLINE
  5
167
330
1F
100
AcDbEntity
  8
0
  6
HIDDEN
 62
     7
370
     0
100
AcDbSpline
210
0.0
220
0.0
230
1.0
 70
     8
 71
     3
 72
     8
 73
     4
 74
     0
 42
0.00000001
 43
0.00000001
 12
1.0
 22
0.0
 32
0.0
 13
1.0
 23
0.0
 33
0.0
 40
0.0000202085968836
 40
0.0000202085968836
 40
0.0000202085968836
 40
0.0000202085968836
 40
0.0040218806502652
 40
0.0040218806502652
 40
0.0040218806502652
 40
0.0040218806502652
 10
151.986140481756
 20
122.4509322070142
 30
0.0
 10
153.3194636075466
 20
122.4269339758506
 30
0.0
 10
154.6527974807692
 20
122.4036062356823
 30
0.0
 10
155.986140481756
 20
122.3809115649019
 30
0.0
  0
SPLINE
  5
168
330
1F
100
AcDbEntity
  8
0
  6
HIDDEN
 62
     7
370
     0
100
AcDbSpline
210
0.0
220
0.0
230
1.0
 70
     8
 71
     3
 72
     8
 73
     4
 74
     0
 42
0.00000001
 43
0.00000001
 12
1.0
 22
0.0
 32
0.0
 13
1.0
 23
0.0
 33
0.0
 40
0.0000202082942178
 40
0.0000202082942178
 40
0.0000202082942178
 40
0.0000202082942178
 40
0.0040218803475995
 40
0.0040218803475995
 40
0.0040218803475995
 40
0.0040218803475995
 10
155.986140481756
 20
128.8179070858
 30
0.0
 10
154.6527974807692
 20
128.7952124150196
 30
0.0
 10
153.3194636075466
 20
128.7718846748513
 30
0.0
 10
151.986140481756
 20
128.7478864436877
 30
0.0
  0
SPLINE
  5
169
330
1F
100
AcDbEntity
  8
0
  6
HIDDEN
 62
     7
370
     0
100
AcDbSpline
210
0.0
220
0.0
230
1.0
 70
     8
 71
     3
 72
     8
 73
     4
 74
     0
 42
0.00000001
 43
0.00000001
 12
1.0
 22
0.0
 32
0.0
 13
1.0
 23
0.0
 33
0.0
 40
0.0
 40
0.0
 40
0.0
 40
0.0
 40
1.0
 40
1.0
 40
1.0
 40
1.0
 10
150.4861404817551
 20
123.2602383971165
 30
0.0
 10
150.960351892193
 20
122.9255091698214
 30
0.0
 10
151.4650882392949
 20
122.6664507559885
 30
0.0
 10
151.986140481756
 20
122.4509322070142
 30
0.0
  0
SPLINE
  5
16A
330
1F
100
AcDbEntity
  8
0
  6
HIDDEN
 62
     7
370
     0
100
AcDbSpline
210
0.0
220
0.0
230
1.0
 70
     8
 71
     3
 72
     8
 73
     4
 74
     0
 42
0.00000001
 43
0.00000001
 12
1.0
 22
0.0
 32
0.0
 13
1.0
 23
0.0
 33
0.0
 40
0.0
 40
0.0
 40
0.0
 40
0.0
 40
1.0
 40
1.0
 40
1.0
 40
1.0
 10
151.986140481756
 20
128.7478864436877
 30
0.0
 10
151.4650882392953
 20
128.5323678947135
 30
0.0
 10
150.9603518921936
 20
128.2733094808808
 30
0.0
 10
150.486140481756
 20
127.938580253586
 30
0.0
  0
LINE
  5
16B
330
1F
100
AcDbEntity
  8
0
  6
HIDDEN
 62
     7
370
     0
100
AcDbLine
 10
150.4861411523
 20
123.2602383125
 30
0.0
 11
150.4861411523
 21
127.9385803382
 31
0.0
  0
SPLINE
  5
16C
330
1F
100
AcDbEntity
  8
0
  6
HIDDEN
 62
     7
370
     0
100
AcDbSpline
210
0.0
220
0.0
230
1.0
 70
     8
 71
     3
 72
    68
 73
    64
 74
     0
 42
0.00000001
 43
0.00000001
 12
1.0
 22
0.0
 32
0.0
 13
1.0
 23
0.0
 33
0.0
 40
-0.03125
 40
-0.03125
 40
0.0
 40
0.0
 40
0.03125
 40
0.03125
 40
0.0625
 40
0.0625
 40
0.09375
 40
0.09375
 40
0.125
 40
0.125
 40
0.1875
 40
0.1875
 40
0.21875
 40
0.21875
 40
0.25
 40
0.25
 40
0.28125
 40
0.28125
 40
0.3125
 40
0.3125
 40
0.34375
 40
0.34375
 40
0.375
 40
0.375
 40
0.40625
 40
0.40625
 40
0.4375
 40
0.4375
 40
0.46875
 40
0.46875
 40
0.5
 40
0.5
 40
0.53125
 40
0.53125
 40
0.5625
 40
0.5625
 40
0.59375
 40
0.59375
 40
0.625
 40
0.625
 40
0.65625
 40
0.65625
 40
0.6875
 40
0.6875
 40
0.71875
 40
0.71875
 40
0.75
 40
0.75
 40
0.78125
 40
0.78125
 40
0.8125
 40
0.8125
 40
0.84375
 40
0.84375
 40
0.875
 40
0.875
 40
0.90625
 40
0.90625
 40
0.9375
 40
0.9375
 40
0.96875
 40
0.96875
 40
1.0
 40
1.0
 40
1.03125
 40
1.03125
 10
163.8699667690925
 20
127.4962269019675
 30
0.0
 10
164.1604312513843
 20
127.8146591429681
 30
0.0
 10
164.3193475497658
 20
127.9571766686718
 30
0.0
 10
164.6629282354036
 20
128.2108912057615
 30
0.0
 10
164.8490995883093
 20
128.3224550322704
 30
0.0
 10
165.233629660895
 20
128.5067040689395
 30
0.0
 10
165.4332401630597
 20
128.5806183350283
 30
0.0
 10
165.8470797480333
 20
128.6922602245884
 30
0.0
 10
166.0598895577045
 20
128.7291842788773
 30
0.0
 10
166.6958210320452
 20
128.7817860994527
 30
0.0
 10
167.1308872526729
 20
128.7395777087926
 30
0.0
 10
167.7431301196606
 20
128.5657431035971
 30
0.0
 10
167.9429752077726
 20
128.4891248757851
 30
0.0
 10
168.3273525165008
 20
128.2989500074422
 30
0.0
 10
168.5079009073633
 20
128.1875905732236
 30
0.0
 10
168.8459608350729
 20
127.9324853045013
 30
0.0
 10
169.0049926514841
 20
127.7869795163086
 30
0.0
 10
169.2897893317065
 20
127.4687408621357
 30
0.0
 10
169.4147348605814
 20
127.2976885436166
 30
0.0
 10
169.6290370009951
 20
126.9311279575035
 30
0.0
 10
169.7189357801699
 20
126.7330592237008
 30
0.0
 10
169.8525880692989
 20
126.3284764704914
 30
0.0
 10
169.8975960046129
 20
126.1208612904743
 30
0.0
 10
169.9423754852303
 20
125.6945715340454
 30
0.0
 10
169.9413018242145
 20
125.4779332360971
 30
0.0
 10
169.8932820304989
 20
125.0549732091397
 30
0.0
 10
169.8458690532741
 20
124.8439765238804
 30
0.0
 10
169.7075538044574
 20
124.4381878084486
 30
0.0
 10
169.6178729462353
 20
124.2452411497861
 30
0.0
 10
169.399190235908
 20
123.8783345268026
 30
0.0
 10
169.2697425180794
 20
123.7048293785805
 30
0.0
 10
168.9832369140499
 20
123.3908272805899
 30
0.0
 10
168.8243780958119
 20
123.2477243541355
 30
0.0
 10
168.479380273859
 20
122.9923934382825
 30
0.0
 10
168.2971631697387
 20
122.8828612606821
 30
0.0
 10
167.9143230930997
 20
122.6979344338938
 30
0.0
 10
167.7115788680265
 20
122.6221186070524
 30
0.0
 10
167.2997502935632
 20
122.5095381148103
 30
0.0
 10
167.0905315169637
 20
122.4721978952256
 30
0.0
 10
166.6655386827292
 20
122.4349668756955
 30
0.0
 10
166.4483814056561
 20
122.4355328396271
 30
0.0
 10
166.0240035665028
 20
122.4749305435165
 30
0.0
 10
165.8148869186532
 20
122.5133597781507
 30
0.0
 10
165.4029459297592
 20
122.6285648126881
 30
0.0
 10
165.2003778248661
 20
122.7058297431926
 30
0.0
 10
164.8187773823988
 20
122.8935120133245
 30
0.0
 10
164.6374664465196
 20
123.0044253651365
 30
0.0
 10
164.2948745495855
 20
123.2623788038673
 30
0.0
 10
164.1360509326313
 20
123.4080944994767
 30
0.0
 10
163.853006153531
 20
123.7244156571862
 30
0.0
 10
163.7269962215452
 20
123.8964493685853
 30
0.0
 10
163.5098891777303
 20
124.2689919465743
 30
0.0
 10
163.4224538814564
 20
124.4631137318484
 30
0.0
 10
163.2892606009088
 20
124.8668884609279
 30
0.0
 10
163.2433600188042
 20
125.0793853875355
 30
0.0
 10
163.1990434778704
 20
125.5049812483936
 30
0.0
 10
163.1998856653528
 20
125.7178150866628
 30
0.0
 10
163.2477243597738
 20
126.1435548164927
 30
0.0
 10
163.295260215243
 20
126.3553169819058
 30
0.0
 10
163.4319988104709
 20
126.7588065163632
 30
0.0
 10
163.5222823557465
 20
126.9545651373162
 30
0.0
 10
163.7419932480115
 20
127.3241653640644
 30
0.0
 10
163.8699667690925
 20
127.4962269019675
 30
0.0
 10
164.1604312513843
 20
127.8146591429681
 30
0.0
  0
CIRCLE
  5
16D
330
1F
100
AcDbEntity
  8
0
  6
HIDDEN
 62
     7
370
     0
100
AcDbCircle
 10
166.4861404818
 20
125.5994093254
 30
0.0
 40
3.050000000000011
  0
ELLIPSE
  5
16E
330
1F
100
AcDbEntity
  8
0
  6
HIDDEN
 62
     7
370
     0
100
AcDbEllipse
 10
228.1198422404
 20
125.5994093254
 30
0.0
 11
-18.46934281548872
 21
25.45638525656605
 31
0.0
210
0.0
220
0.0
230
1.0
 40
0.0807169094
 41
0.7834771160832853
 42
1.512300687884494
  0
CIRCLE
  5
16F
330
1F
100
AcDbEntity
  8
0
  6
HIDDEN
 62
     7
370
     0
100
AcDbCircle
 10
192.4861404818
 20
125.5994093254
 30
0.0
 40
2.000000000000014
  0
LINE
  5
170
330
1F
100
AcDbEntity
  8
0
  6
HIDDEN
 62
     7
370
     0
100
AcDbLine
 10
215.3831400793
 20
106.135160534
 30
0.0
 11
229.3839619379
 21
106.135160534
 31
0.0
  0
SPLINE
  5
171
330
1F
100
AcDbEntity
  8
0
  6
HIDDEN
 62
     7
370
     0
100
AcDbSpline
210
0.0
220
0.0
230
1.0
 70
     8
 71
     3
 72
     8
 73
     4
 74
     0
 42
0.00000001
 43
0.00000001
 12
1.0
 22
0.0
 32
0.0
 13
1.0
 23
0.0
 33
0.0
 40
0.0
 40
0.0
 40
0.0
 40
0.0
 40
1.0
 40
1.0
 40
1.0
 40
1.0
 10
215.3831397308149
 20
106.135160128778
 30
0.0
 10
214.5257916507425
 20
111.4086405324221
 30
0.0
 10
213.8812677308602
 20
116.7133893200877
 30
0.0
 10
213.684739320067
 20
122.0839581518947
 30
0.0
  0
ELLIPSE
  5
172
330
1F
100
AcDbEntity
  8
0
  6
HIDDEN
 62
     7
370
     0
100
AcDbEllipse
 10
253.7646215788
 20
115.643671121
 30
0.0
 11
26.19525546193009
 21
1.278976924368180E-13
 31
1.776356839400250E-14
210
-6.781215941878653E-16
220
-6.832141690000994E-16
230
1.0
 40
0.9925461516
 41
3.150114381959556
 42
3.515990292664804
  0
LINE
  5
173
330
1F
100
AcDbEntity
  8
0
  6
HIDDEN
 62
     7
370
     0
100
AcDbLine
 10
227.5131062489
 20
122.085367434
 30
0.0
 11
227.570315532
 21
115.4221090137
 31
0.0
  0
LINE
  5
174
330
1F
100
AcDbEntity
  8
0
  6
HIDDEN
 62
     7
370
     0
100
AcDbLine
 10
224.9888346415
 20
125.5994093254
 30
0.0
 11
227.5131062489
 21
122.085367434
 31
0.0
  0
LINE
  5
175
330
1F
100
AcDbEntity
  8
0
  6
HIDDEN
 62
     7
370
     0
100
AcDbLine
 10
195.4861401465
 20
115.7959065049
 30
0.0
 11
195.4861401465
 21
111.9834509327
 31
0.0
  0
LINE
  5
176
330
1F
100
AcDbEntity
  8
0
  6
HIDDEN
 62
     7
370
     0
100
AcDbLine
 10
201.4861401986
 20
111.9858751654
 30
0.0
 11
201.4861401986
 21
115.7959065049
 31
0.0
  0
LINE
  5
177
330
1F
100
AcDbEntity
  8
0
  6
HIDDEN
 62
     7
370
     0
100
AcDbLine
 10
180.4861404818
 20
106.0494099393
 30
0.0
 11
180.5790337022
 21
106.1423019155
 31
0.0
  0
LINE
  5
178
330
1F
100
AcDbEntity
  8
0
  6
HIDDEN
 62
     7
370
     0
100
AcDbLine
 10
180.5790337022
 20
145.0565167352
 30
0.0
 11
180.4861404818
 21
145.1494087114
 31
0.0
  0
ARC
  5
179
330
1F
100
AcDbEntity
  8
0
  6
HIDDEN
 62
     7
370
     0
100
AcDbCircle
 10
179.8719269194
 20
106.8494093254
 30
0.0
 40
1.0
100
AcDbArc
 50
315.0
 51
0.0
  0
ARC
  5
17A
330
1F
100
AcDbEntity
  8
0
  6
HIDDEN
 62
     7
370
     0
100
AcDbCircle
 10
179.8719269194
 20
106.8494093254
 30
0.0
 40
1.000000000000004
100
AcDbArc
 50
0.0
 51
52.1052014664
  0
ARC
  5
17B
330
1F
100
AcDbEntity
  8
0
  6
HIDDEN
 62
     7
370
     0
100
AcDbCircle
 10
179.8719269194
 20
144.3494093254
 30
0.0
 40
0.9999999999999776
100
AcDbArc
 50
351.8087250651
 51
45.0
  0
ARC
  5
17C
330
1F
100
AcDbEntity
  8
0
  6
HIDDEN
 62
     7
370
     0
100
AcDbCircle
 10
179.8719269194
 20
144.3494093254
 30
0.0
 40
1.000000000000004
100
AcDbArc
 50
307.8947985336
 51
351.8087250651
  0
LINE
  5
17D
330
1F
100
AcDbEntity
  8
0
  6
HIDDEN
 62
     7
370
     0
100
AcDbLine
 10
180.8719269176
 20
106.8494085803
 30
0.0
 11
180.8719269176
 21
144.3494100704
 31
0.0
  0
LINE
  5
17E
330
1F
100
AcDbEntity
  8
0
  6
HIDDEN
 62
     7
370
     0
100
AcDbLine
 10
180.8719269176
 20
106.8494085803
 30
0.0
 11
180.8719269176
 21
144.3494100704
 31
0.0
  0
LINE
  5
17F
330
1F
100
AcDbEntity
  8
0
  6
HIDDEN
 62
     7
370
     0
100
AcDbLine
 10
195.9861402284
 20
121.6557844191
 30
0.0
 11
195.9861402284
 21
115.9595324307
 31
0.0
  0
LINE
  5
180
330
1F
100
AcDbEntity
  8
0
  6
HIDDEN
 62
     7
370
     0
100
AcDbLine
 10
200.986141048
 20
119.0528682082
 30
0.0
 11
200.986141048
 21
121.6553546137
 31
0.0
  0
LINE
  5
181
330
1F
100
AcDbEntity
  8
0
  6
HIDDEN
 62
     7
370
     0
100
AcDbLine
 10
200.986141048
 20
115.9595324307
 30
0.0
 11
200.986141048
 21
117.0612600281
 31
0.0
  0
LINE
  5
182
330
1F
100
AcDbEntity
  8
0
  6
HIDDEN
 62
     7
370
     0
100
AcDbLine
 10
197.2478122335
 20
115.7147762015
 30
0.0
 11
205.9105911177
 21
109.9459127172
 31
0.0
  0
LINE
  5
183
330
1F
100
AcDbEntity
  8
0
  6
HIDDEN
 62
     7
370
     0
100
AcDbLine
 10
205.8603034239
 20
115.9866301923
 30
0.0
 11
200.8977715742
 21
119.2913626901
 31
0.0
  0
ARC
  5
184
330
1F
100
AcDbEntity
  8
0
  6
HIDDEN
 62
     7
370
     0
100
AcDbCircle
 10
157.9928599938
 20
115.0994093254
 30
0.0
 40
1.500000000000022
100
AcDbArc
 50
270.0
 51
315.0
  0
ARC
  5
185
330
1F
100
AcDbEntity
  8
0
  6
HIDDEN
 62
     7
370
     0
100
AcDbCircle
 10
157.9928599938
 20
136.0994093254
 30
0.0
 40
1.500000000000012
100
AcDbArc
 50
45.0
 51
90.0
  0
ARC
  5
186
330
1F
100
AcDbEntity
  8
0
  6
HIDDEN
 62
     7
370
     0
100
AcDbCircle
 10
156.9861404818
 20
115.0994093254
 30
0.0
 40
1.5
100
AcDbArc
 50
191.0958032831
 51
270.0
  0
ARC
  5
187
330
1F
100
AcDbEntity
  8
0
  6
HIDDEN
 62
     7
370
     0
100
AcDbCircle
 10
156.9861404818
 20
136.0994093254
 30
0.0
 40
1.5
100
AcDbArc
 50
90.0
 51
168.9041967169
  0
LINE
  5
188
330
1F
100
AcDbEntity
  8
0
  6
HIDDEN
 62
     7
370
     0
100
AcDbLine
 10
156.9861412864
 20
113.599409221
 30
0.0
 11
157.9928600114
 21
113.599409221
 31
0.0
  0
LINE
  5
189
330
1F
100
AcDbEntity
  8
0
  6
HIDDEN
 62
     7
370
     0
100
AcDbLine
 10
157.9928600114
 20
137.5994094297
 30
0.0
 11
156.9861412864
 21
137.5994094297
 31
0.0
  0
LINE
  5
18A
330
1F
100
AcDbEntity
  8
0
  6
HIDDEN
 62
     7
370
     0
100
AcDbLine
 10
150.4861411523
 20
113.83599682
 30
0.0
 11
151.5141797137
 21
114.4295361473
 31
0.0
  0
LINE
  5
18B
330
1F
100
AcDbEntity
  8
0
  6
HIDDEN
 62
     7
370
     0
100
AcDbLine
 10
151.5141797137
 20
136.7692825034
 30
0.0
 11
150.4861411523
 21
137.3628218307
 31
0.0
  0
LINE
  5
18C
330
1F
100
AcDbEntity
  8
0
  6
HIDDEN
 62
     7
370
     0
100
AcDbLine
 10
159.0535209399
 20
114.0387494697
 30
0.0
 11
160.1141800057
 21
115.0994094669
 31
0.0
  0
LINE
  5
18D
330
1F
100
AcDbEntity
  8
0
  6
HIDDEN
 62
     7
370
     0
100
AcDbLine
 10
160.1141800057
 20
136.0994091838
 30
0.0
 11
159.0535209399
 21
137.160069181
 31
0.0
  0
LINE
  5
18E
330
1F
100
AcDbEntity
  8
0
  6
HIDDEN
 62
     7
370
     0
100
AcDbLine
 10
197.2239293974
 20
116.1943244397
 30
0.0
 11
197.2009760212
 21
115.8840608432
 31
0.0
  0
LINE
  5
18F
330
1F
100
AcDbEntity
  8
0
  6
HIDDEN
 62
     7
370
     0
100
AcDbLine
 10
151.5141797137
 20
114.4295361473
 30
0.0
 11
154.0141810548
 21
115.0994094669
 31
0.0
  0
LINE
  5
190
330
1F
100
AcDbEntity
  8
0
  6
HIDDEN
 62
     7
370
     0
100
AcDbLine
 10
154.0141810548
 20
136.0994091838
 30
0.0
 11
151.5141797137
 21
136.7692825034
 31
0.0
  0
LINE
  5
191
330
1F
100
AcDbEntity
  8
0
  6
HIDDEN
 62
     7
370
     0
100
AcDbLine
 10
155.5141803693
 20
136.388084723
 30
0.0
 11
155.0141812187
 21
136.0994091838
 31
0.0
  0
LINE
  5
192
330
1F
100
AcDbEntity
  8
0
  6
HIDDEN
 62
     7
370
     0
100
AcDbLine
 10
155.0141812187
 20
115.0994094669
 30
0.0
 11
155.5141803693
 21
114.8107339277
 31
0.0
  0
LINE
  5
193
330
1F
100
AcDbEntity
  8
0
  6
HIDDEN
 62
     7
370
     0
100
AcDbLine
 10
160.1141800057
 20
115.0994094669
 30
0.0
 11
169.9861406233
 21
115.0994094669
 31
0.0
  0
LINE
  5
194
330
1F
100
AcDbEntity
  8
0
  6
HIDDEN
 62
     7
370
     0
100
AcDbLine
 10
169.9861406233
 20
136.0994091838
 30
0.0
 11
160.1141800057
 21
136.0994091838
 31
0.0
  0
LINE
  5
195
330
1F
100
AcDbEntity
  8
0
  6
HIDDEN
 62
     7
370
     0
100
AcDbLine
 10
154.0141810548
 20
115.0994094669
 30
0.0
 11
155.0141812187
 21
115.0994094669
 31
0.0
  0
LINE
  5
196
330
1F
100
AcDbEntity
  8
0
  6
HIDDEN
 62
     7
370
     0
100
AcDbLine
 10
155.0141812187
 20
136.0994091838
 30
0.0
 11
154.0141810548
 21
136.0994091838
 31
0.0
  0
ARC
  5
197
330
1F
100
AcDbEntity
  8
0
  6
HIDDEN
 62
     7
370
     0
100
AcDbCircle
 10
169.9861404818
 20
115.5994093254
 30
0.0
 40
0.5000000000000142
100
AcDbArc
 50
270.0
 51
0.0
  0
ARC
  5
198
330
1F
100
AcDbEntity
  8
0
  6
HIDDEN
 62
     7
370
     0
100
AcDbCircle
 10
169.9861404818
 20
135.5994093254
 30
0.0
 40
0.5
100
AcDbArc
 50
0.0
 51
90.0
  0
LINE
  5
199
330
1F
100
AcDbEntity
  8
0
  6
HIDDEN
 62
     7
370
     0
100
AcDbLine
 10
170.4861407053
 20
117.3494093701
 30
0.0
 11
171.4861408692
 21
118.349409534
 31
0.0
  0
LINE
  5
19A
330
1F
100
AcDbEntity
  8
0
  6
HIDDEN
 62
     7
370
     0
100
AcDbLine
 10
171.4861408692
 20
132.8494091167
 30
0.0
 11
170.4861407053
 21
133.8494092806
 31
0.0
  0
LINE
  5
19B
330
1F
100
AcDbEntity
  8
0
  6
HIDDEN
 62
     7
370
     0
100
AcDbLine
 10
204.4861406904
 20
132.8494091167
 30
0.0
 11
171.4861408692
 21
132.8494091167
 31
0.0
  0
LINE
  5
19C
330
1F
100
AcDbEntity
  8
0
  6
HIDDEN
 62
     7
370
     0
100
AcDbLine
 10
171.4861408692
 20
118.349409534
 30
0.0
 11
204.4861406904
 21
118.349409534
 31
0.0
  0
LINE
  5
19D
330
1F
100
AcDbEntity
  8
0
  6
HIDDEN
 62
     7
370
     0
100
AcDbLine
 10
204.4861406904
 20
118.349409534
 30
0.0
 11
208.8423796814
 21
125.5994093254
 31
0.0
  0
LINE
  5
19E
330
1F
100
AcDbEntity
  8
0
  6
HIDDEN
 62
     7
370
     0
100
AcDbLine
 10
208.8423796814
 20
125.5994093254
 30
0.0
 11
204.4861406904
 21
132.8494091167
 31
0.0
  0
LINE
  5
19F
330
1F
100
AcDbEntity
  8
0
  6
HIDDEN
 62
     7
370
     0
100
AcDbLine
 10
219.6852431517
 20
115.3211713418
 30
0.0
 11
219.5985668223
 21
115.2942300423
 31
0.0
  0
LINE
  5
1A0
330
1F
100
AcDbEntity
  8
0
  6
HIDDEN
 62
     7
370
     0
100
AcDbLine
 10
218.4412085336
 20
114.1340433269
 30
0.0
 11
218.4144758504
 21
114.0473018049
 31
0.0
  0
LINE
  5
1A1
330
1F
100
AcDbEntity
  8
0
  6
HIDDEN
 62
     7
370
     0
100
AcDbLine
 10
221.345236234
 20
114.866312465
 30
0.0
 11
221.1708442193
 21
115.0402788653
 31
0.0
  0
LINE
  5
1A2
330
1F
100
AcDbEntity
  8
0
  6
HIDDEN
 62
     7
370
     0
100
AcDbLine
 10
230.4827251356
 20
102.8846882864
 30
0.0
 11
229.8723549467
 21
103.4935702219
 31
0.0
  0
LINE
  5
1A3
330
1F
100
AcDbEntity
  8
0
  6
HIDDEN
 62
     7
370
     0
100
AcDbLine
 10
227.541750006
 20
101.1572730377
 30
0.0
 11
228.1521164697
 21
100.5483911022
 31
0.0
  0
LINE
  5
1A4
330
1F
100
AcDbEntity
  8
VERMASSUNG
  6
CENTERX2
100
AcDbLine
 10
146.6907719187
 20
125.5994093254
 30
0.0
 11
240.4861404818
 21
125.5994093254
 31
0.0
  0
LINE
  5
1A5
330
1F
100
AcDbEntity
  8
VERMASSUNG
  6
CENTERX2
100
AcDbLine
 10
240.4861404818
 20
90.5994093254
 30
0.0
 11
240.4861404818
 21
125.5994093254
 31
0.0
  0
LINE
  5
1A6
330
1F
100
AcDbEntity
  8
VERMASSUNG
  6
CENTERX2
100
AcDbLine
 10
240.4861404818
 20
90.5994093254
 30
0.0
 11
257.7352716104
 21
90.5994093254
 31
0.0
  0
LINE
  5
1A7
330
1F
100
AcDbEntity
  8
VERMASSUNG
100
AcDbLine
 10
240.4861404818
 20
90.5994093254
 30
0.0
 11
240.4861404818
 21
78.6145505802
 31
0.0
  0
DIMENSION
  5
1A8
330
1F
100
AcDbEntity
  8
VERMASSUNG
100
AcDbDimension
  2
_D
 10
240.4861404818
 20
90.5994093254
 30
0.0
 11
231.7825577524
 21
85.0384248209
 31
0.0
 70
   162
  1
<>
 71
     1
 42
-1.0
  3
SLDDIMSTYLE0
100
AcDb2LineAngularDimension
 13
239.9180101
 23
90.6357909118
 33
0.0
 14
226.4424781018
 24
97.5849772643
 34
0.0
 15
240.4861404818
 25
78.6145505802
 35
0.0
 16
231.7825577524
 26
85.0384248209
 36
0.0
  0
DIMENSION
  5
1B1
330
1F
100
AcDbEntity
  8
VERMASSUNG
100
AcDbDimension
  2
_D_1
 10
240.4861404818
 20
74.3914091415
 30
0.0
 11
210.4861404818
 21
74.3914091415
 31
0.0
 70
   160
  1
<>
 71
     2
 42
-1.0
  3
SLDDIMSTYLE1
100
AcDbAlignedDimension
 13
180.4861404818
 23
100.8994093254
 33
0.0
 14
240.4861404818
 24
90.5994093254
 34
0.0
100
AcDbRotatedDimension
  0
DIMENSION
  5
1BE
330
1F
100
AcDbEntity
  8
VERMASSUNG
100
AcDbDimension
  2
_D_2
 10
254.7429498419
 20
125.5994093254
 30
0.0
 11
254.7429498419
 21
108.0994093254
 31
0.0
 70
   160
  1
<>
 71
     2
 42
-1.0
  3
SLDDIMSTYLE1
100
AcDbAlignedDimension
 13
240.4861404818
 23
90.5994093254
 33
0.0
 14
240.4861404818
 24
125.5994093254
 34
0.0
 50
90.0
100
AcDbRotatedDimension
  0
DIMENSION
  5
1CA
330
1F
100
AcDbEntity
  8
VERMASSUNG
100
AcDbDimension
  2
_D_3
 10
240.4861404818
 20
68.3914091415
 30
0.0
 11
195.4861404818
 21
68.3914091415
 31
0.0
 70
   160
  1
<>
 71
     2
 42
-1.0
  3
SLDDIMSTYLE2
100
AcDbAlignedDimension
 13
150.4861404818
 23
109.6060834872
 33
0.0
 14
240.4861404818
 24
90.5994093254
 34
0.0
100
AcDbRotatedDimension
  0
DIMENSION
  5
1D5
330
1F
100
AcDbEntity
  8
VERMASSUNG
100
AcDbDimension
  2
_D_4
 10
142.9155937665
 20
150.5994093254
 30
0.0
 11
142.9155937665
 21
125.5994093254
 31
0.0
 70
   160
  1
PSC%%c<>
 71
     2
 42
-1.0
  3
SLDDIMSTYLE2
100
AcDbAlignedDimension
 13
180.7861404818
 23
100.5994093254
 33
0.0
 14
180.7861404818
 24
150.5994093254
 34
0.0
 50
90.0
100
AcDbRotatedDimension
  0
SPLINE
  5
1E1
330
1F
100
AcDbEntity
  8
0
  6
Continuous
 62
     7
370
    15
100
AcDbSpline
210
0.0
220
0.0
230
1.0
 70
     8
 71
     3
 72
    10
 73
     6
 74
     0
 42
0.00000001
 43
0.00000001
 12
1.0
 22
0.0
 32
0.0
 13
1.0
 23
0.0
 33
0.0
 40
0.0
 40
0.0
 40
0.0
 40
0.0
 40
0.332348282078213
 40
0.6693111315632815
 40
1.0
 40
1.0
 40
1.0
 40
1.0
 10
75.03160594567646
 20
90.57676686190528
 30
0.0
 10
75.55631325419176
 20
90.6908830439232
 30
0.0
 10
76.61301329249451
 20
90.9206998807622
 30
0.0
 10
78.24405016110121
 20
91.13174808834998
 30
0.0
 10
79.28545738784362
 20
91.3856903183779
 30
0.0
 10
79.80126790423867
 20
91.51146827482147
 30
0.0
  0
LINE
  5
1E2
330
1F
100
AcDbEntity
  8
0
  6
Continuous
 62
     7
370
    15
100
AcDbLine
 10
74.3902103459
 20
95.1898199155
 30
0.0
 11
74.6878503887
 21
94.7444838121
 31
0.0
  0
LINE
  5
1E3
330
1F
100
AcDbEntity
  8
0
  6
Continuous
 62
     7
370
    15
100
AcDbLine
 10
73.0379307242
 20
107.5671230092
 30
0.0
 11
72.847685271
 21
107.1728215202
 31
0.0
  0
LINE
  5
1E4
330
1F
100
AcDbEntity
  8
0
  6
Continuous
 62
     7
370
    15
100
AcDbLine
 10
72.7327202512
 20
111.7425680741
 30
0.0
 11
72.1078915121
 21
111.7793860494
 31
0.0
  0
ARC
  5
1E5
330
1F
100
AcDbEntity
  8
0
  6
Continuous
 62
     7
370
    15
100
AcDbCircle
 10
80.3378486713
 20
101.8038436444
 30
0.0
 40
7.000000000000008
100
AcDbArc
 50
198.365394812
 51
203.6920512209
  0
ARC
  5
1E6
330
1F
100
AcDbEntity
  8
0
  6
Continuous
 62
     7
370
    15
100
AcDbCircle
 10
80.3378486713
 20
101.8038436444
 30
0.0
 40
7.000000000000012
100
AcDbArc
 50
164.811169779
 51
169.634605188
  0
LINE
  5
1E7
330
1F
100
AcDbEntity
  8
0
  6
Continuous
 62
     7
370
    15
100
AcDbLine
 10
73.5696635274
 20
102.4773371055
 30
0.0
 11
73.6114901556
 21
102.480263321
 31
0.0
  0
LINE
  5
1E8
330
1F
100
AcDbEntity
  8
0
  6
Continuous
 62
     7
370
    15
100
AcDbLine
 10
73.7603650959
 20
100.6555230006
 30
0.0
 11
73.6077328511
 21
100.6448481812
 31
0.0
  0
SPLINE
  5
1E9
330
1F
100
AcDbEntity
  8
0
  6
Continuous
 62
     7
370
    15
100
AcDbSpline
210
0.0
220
0.0
230
1.0
 70
     8
 71
     3
 72
    10
 73
     6
 74
     0
 42
0.00000001
 43
0.00000001
 12
1.0
 22
0.0
 32
0.0
 13
1.0
 23
0.0
 33
0.0
 40
0.0
 40
0.0
 40
0.0
 40
0.0
 40
0.2724591754366117
 40
0.5448149523043251
 40
0.9999999999999999
 40
0.9999999999999999
 40
0.9999999999999999
 40
0.9999999999999999
 10
73.63858675305721
 20
104.6106245949165
 30
0.0
 10
73.63648032113066
 20
104.6295781101067
 30
0.0
 10
73.63226825667095
 20
104.6674779476062
 30
0.0
 10
73.62422123689555
 20
104.7282010094341
 30
0.0
 10
73.61853290103542
 20
104.7593533678246
 30
0.0
 10
73.61497400050041
 20
104.7788438036339
 30
0.0
  0
LINE
  5
1EA
330
1F
100
AcDbEntity
  8
0
  6
Continuous
 62
     7
370
    15
100
AcDbLine
 10
75.0702236837
 20
91.1693078115
 30
0.0
 11
73.6385867531
 21
104.6106245949
 31
0.0
  0
SPLINE
  5
1EB
330
1F
100
AcDbEntity
  8
0
  6
Continuous
 62
     7
370
    15
100
AcDbSpline
210
0.0
220
0.0
230
1.0
 70
     8
 71
     3
 72
    15
 73
    11
 74
     0
 42
0.00000001
 43
0.00000001
 12
1.0
 22
0.0
 32
0.0
 13
1.0
 23
0.0
 33
0.0
 40
0.0
 40
0.0
 40
0.0
 40
0.0
 40
0.1369008447616159
 40
0.2736159810962268
 40
0.4079031095021414
 40
0.5393425787089959
 40
0.6692133053328078
 40
0.7996786208307414
 40
0.9324941460740468
 40
1.0
 40
1.0
 40
1.0
 40
1.0
 10
75.07031412021945
 20
90.63579036139411
 30
0.0
 10
75.07448568955206
 20
90.61885528705174
 30
0.0
 10
75.08282316940942
 20
90.58500811109607
 30
0.0
 10
75.09211677973985
 20
90.59187179429202
 30
0.0
 10
75.09752875185501
 20
90.64155998914742
 30
0.0
 10
75.098409745689
 20
90.73031381794256
 30
0.0
 10
75.0948800073321
 20
90.84622515474518
 30
0.0
 10
75.08737359721765
 20
90.97703574255772
 30
0.0
 10
75.07848585071504
 20
91.08844080240307
 30
0.0
 10
75.07230616289392
 20
91.14892528190144
 30
0.0
 10
75.07022368370428
 20
91.16930781148834
 30
0.0
  0
LINE
  5
1EC
330
1F
100
AcDbEntity
  8
0
  6
Continuous
 62
     7
370
    15
100
AcDbLine
 10
73.6397776818
 20
97.5849766865
 30
0.0
 11
75.0703141202
 21
90.6357903614
 31
0.0
  0
SPLINE
  5
1ED
330
1F
100
AcDbEntity
  8
0
  6
Continuous
 62
     7
370
    15
100
AcDbSpline
210
0.0
220
0.0
230
1.0
 70
     8
 71
     3
 72
    10
 73
     6
 74
     0
 42
0.00000001
 43
0.00000001
 12
1.0
 22
0.0
 32
0.0
 13
1.0
 23
0.0
 33
0.0
 40
0.0
 40
0.0
 40
0.0
 40
0.0
 40
0.2724638670819727
 40
0.5448178876266401
 40
1.0
 40
1.0
 40
1.0
 40
1.0
 10
73.6161649292427
 20
97.75319775782985
 30
0.0
 10
73.6182713475009
 20
97.73424356004855
 30
0.0
 10
73.62248333479367
 20
97.69634280606068
 30
0.0
 10
73.6305304630356
 20
97.63561953862704
 30
0.0
 10
73.63621878805004
 20
97.60446714458317
 30
0.0
 10
73.6397776817995
 20
97.58497668646736
 30
0.0
  0
LINE
  5
1EE
330
1F
100
AcDbEntity
  8
0
  6
Continuous
 62
     7
370
    15
100
AcDbLine
 10
72.1845279513
 20
111.1945117473
 30
0.0
 11
73.6161649292
 21
97.7531977578
 31
0.0
  0
SPLINE
  5
1EF
330
1F
100
AcDbEntity
  8
0
  6
Continuous
 62
     7
370
    15
100
AcDbSpline
210
0.0
220
0.0
230
1.0
 70
     8
 71
     3
 72
    15
 73
    11
 74
     0
 42
0.00000001
 43
0.00000001
 12
1.0
 22
0.0
 32
0.0
 13
1.0
 23
0.0
 33
0.0
 40
0.0
 40
0.0
 40
0.0
 40
0.0
 40
0.136897399890702
 40
0.2736160256952638
 40
0.4079033065084163
 40
0.5393425896061863
 40
0.6692123202876528
 40
0.7996795233847117
 40
0.9324933997932191
 40
1.0
 40
1.0
 40
1.0
 40
1.0
 10
72.18443761301216
 20
111.7280301287071
 30
0.0
 10
72.18026596089209
 20
111.7449653808506
 30
0.0
 10
72.1719281044055
 20
111.77881376942
 30
0.0
 10
72.16263505841852
 20
111.7719513578869
 30
0.0
 10
72.15722293173255
 20
111.7222612269909
 30
0.0
 10
72.15634199523275
 20
111.6335077437509
 30
0.0
 10
72.15987184784154
 20
111.5175966017896
 30
0.0
 10
72.16737773442163
 20
111.3867848436369
 30
0.0
 10
72.17626617950012
 20
111.2753790131907
 30
0.0
 10
72.1824455474888
 20
111.2148945788312
 30
0.0
 10
72.1845279513019
 20
111.1945117472903
 30
0.0
  0
LINE
  5
1F0
330
1F
100
AcDbEntity
  8
0
  6
Continuous
 62
     7
370
    15
100
AcDbLine
 10
73.6149740005
 20
104.7788438036
 30
0.0
 11
72.184437613
 21
111.7280301287
 31
0.0
  0
LINE
  5
1F1
330
1F
100
AcDbEntity
  8
0
  6
Continuous
 62
     7
370
    15
100
AcDbLine
 10
73.6392278522
 20
97.602500452
 30
0.0
 11
75.0681115169
 21
90.6613421276
 31
0.0
  0
LWPOLYLINE
  5
1F2
330
1F
100
AcDbEntity
  8
0
  6
Continuous
 62
     7
370
    15
100
AcDbPolyline
 90
        9
 70
   128
 43
0.0
 10
75.0681115169
 20
90.6613421276
 10
75.0786550634
 20
90.6241264775
 10
75.0870306165
 20
90.6240594222
 10
75.0924069889
 20
90.6611446872
 10
75.0942506311
 20
90.7317016854
 10
75.0923785817
 20
90.8287305965
 10
75.0869766198
 20
90.9426015451
 10
75.0785808341
 20
91.0620120003
 10
75.0680244273
 20
91.1751155391
  0
LINE
  5
1F3
330
1F
100
AcDbEntity
  8
0
  6
Continuous
 62
     7
370
    15
100
AcDbLine
 10
75.0680244273
 20
91.1751155391
 30
0.0
 11
73.6380415801
 21
104.6009015872
 31
0.0
  0
ARC
  5
1F4
330
1F
100
AcDbEntity
  8
0
  6
Continuous
 62
     7
370
    15
100
AcDbCircle
 10
71.7945132861
 20
104.4239173005
 30
0.0
 40
1.852004321957326
100
AcDbArc
 50
5.4837619914
 51
10.4969088852
  0
LINE
  5
1F5
330
1F
100
AcDbEntity
  8
0
  6
Continuous
 62
     7
370
    15
100
AcDbLine
 10
73.6155238301
 20
104.7613200381
 30
0.0
 11
72.1866401909
 21
111.7024783625
 31
0.0
  0
LWPOLYLINE
  5
1F6
330
1F
100
AcDbEntity
  8
0
  6
Continuous
 62
     7
370
    15
100
AcDbPolyline
 90
        9
 70
   128
 43
0.0
 10
72.1866401909
 20
111.7024783625
 10
72.176096688
 20
111.7396940126
 10
72.1677210713
 20
111.7397629305
 10
72.1623447789
 20
111.7026776656
 10
72.160500993
 20
111.632119736
 10
72.1623731842
 20
111.5350908249
 10
72.167775088
 20
111.4212198763
 10
72.176170961
 20
111.3018075585
 10
72.1867272696
 20
111.1887040197
  0
LINE
  5
1F7
330
1F
100
AcDbEntity
  8
0
  6
Continuous
 62
     7
370
    15
100
AcDbLine
 10
72.1867272696
 20
111.1887040197
 30
0.0
 11
73.6167101022
 21
97.7629189029
 31
0.0
  0
ARC
  5
1F8
330
1F
100
AcDbEntity
  8
0
  6
Continuous
 62
     7
370
    15
100
AcDbCircle
 10
75.4604055462
 20
97.9399266522
 30
0.0
 40
1.85217294918484
100
AcDbArc
 50
185.4839903428
 51
190.4966805337
  0
LINE
  5
1F9
330
1F
100
AcDbEntity
  8
0
  6
Continuous
 62
     7
370
    15
100
AcDbLine
 10
79.7585569853
 20
91.6469235554
 30
0.0
 11
78.3666190291
 21
104.7155101433
 31
0.0
  0
SPLINE
  5
1FA
330
1F
100
AcDbEntity
  8
0
  6
Continuous
 62
     7
370
    15
100
AcDbSpline
210
0.0
220
0.0
230
1.0
 70
     8
 71
     3
 72
    15
 73
    11
 74
     0
 42
0.00000001
 43
0.00000001
 12
1.0
 22
0.0
 32
0.0
 13
1.0
 23
0.0
 33
0.0
 40
0.0
 40
0.0
 40
0.0
 40
0.0
 40
0.1386258286912774
 40
0.2773975266570934
 40
0.4120936471434232
 40
0.5418275466882181
 40
0.669163081711488
 40
0.7974680754025808
 40
0.9295775328331431
 40
1.0
 40
1.0
 40
1.0
 40
1.0
 10
79.75855698530552
 20
91.64692355536384
 30
0.0
 10
79.75963033116888
 20
91.63600896832926
 30
0.0
 10
79.76177815232573
 20
91.61416830936649
 30
0.0
 10
79.76417673230219
 20
91.57841145693016
 30
0.0
 10
79.76555236579836
 20
91.54613511604035
 30
0.0
 10
79.76575677649313
 20
91.52079009856323
 30
0.0
 10
79.76485567008908
 20
91.50461508333822
 30
0.0
 10
79.76296633073477
 20
91.49883280052182
 30
0.0
 10
79.76071383593303
 20
91.50272286002101
 30
0.0
 10
79.7591303851107
 20
91.50977860355505
 30
0.0
 10
79.7585798027086
 20
91.51223195933265
 30
0.0
  0
LWPOLYLINE
  5
1FB
330
1F
100
AcDbEntity
  8
0
  6
Continuous
 62
     7
370
    15
100
AcDbPolyline
 90
        9
 70
   128
 43
0.0
 10
72.8956129933
 20
107.0702884927
 10
72.8678667983
 20
107.1682226493
 10
72.8458258854
 20
107.1684051886
 10
72.8316774657
 20
107.0708137586
 10
72.8268257408
 20
106.8851341143
 10
72.8317522043
 20
106.6297952666
 10
72.8459679121
 20
106.3301347777
 10
72.8680621432
 20
106.0158916398
 10
72.8958420986
 20
105.7182502582
  0
LINE
  5
1FC
330
1F
100
AcDbEntity
  8
0
  6
Continuous
 62
     7
370
    15
100
AcDbLine
 10
73.5973626906
 20
103.6613647475
 30
0.0
 11
72.8956129933
 21
107.0702884927
 31
0.0
  0
ARC
  5
1FD
330
1F
100
AcDbEntity
  8
0
  6
Continuous
 62
     7
370
    15
100
AcDbCircle
 10
68.8051592524
 20
102.7734565328
 30
0.0
 40
4.873765976250484
100
AcDbArc
 50
5.4837149599
 51
10.4968305683
  0
LINE
  5
1FE
330
1F
100
AcDbEntity
  8
0
  6
Continuous
 62
     7
370
    15
100
AcDbLine
 10
74.3589095837
 20
96.6455702319
 30
0.0
 11
73.6566199521
 21
103.2392074003
 31
0.0
  0
LWPOLYLINE
  5
1FF
330
1F
100
AcDbEntity
  8
0
  6
Continuous
 62
     7
370
    15
100
AcDbPolyline
 90
        9
 70
   128
 43
0.0
 10
74.3591387472
 20
95.2935338601
 10
74.3868849422
 20
95.1955978408
 10
74.4089258551
 20
95.1954171642
 10
74.4230742166
 20
95.2930067315
 10
74.4279258833
 20
95.4786863758
 10
74.422999478
 20
95.7340252235
 10
74.4087837702
 20
96.0336857124
 10
74.3866895973
 20
96.3479288503
 10
74.3589095837
 20
96.6455702319
  0
LINE
  5
200
330
1F
100
AcDbEntity
  8
0
  6
Continuous
 62
     7
370
    15
100
AcDbLine
 10
73.6573889917
 20
98.7024576052
 30
0.0
 11
74.3591387472
 21
95.2935338601
 31
0.0
  0
ARC
  5
201
330
1F
100
AcDbEntity
  8
0
  6
Continuous
 62
     7
370
    15
100
AcDbCircle
 10
78.4496220874
 20
99.590372038
 30
0.0
 40
4.873796270247802
100
AcDbArc
 50
185.483776202
 51
190.4968389253
  0
LINE
  5
202
330
1F
100
AcDbEntity
  8
0
  6
Continuous
 62
     7
370
    15
100
AcDbLine
 10
72.8958420986
 20
105.7182502582
 30
0.0
 11
73.5981317302
 21
99.1246130898
 31
0.0
  0
LWPOLYLINE
  5
203
330
1F
100
AcDbEntity
  8
0
  6
Continuous
 62
     7
370
    15
100
AcDbPolyline
 90
       32
 70
   128
 43
0.0
 10
73.7180928299
 20
98.4762654289
 10
73.7739075739
 20
98.2514944508
 10
73.8237233199
 20
98.1466964468
 10
73.865500588
 20
98.1661592259
 10
73.8975290042
 20
98.3090874388
 10
73.9184972663
 20
98.569630517
 10
73.9275470441
 20
98.9371192291
 10
73.9243077878
 20
99.3965108528
 10
73.9089120943
 20
99.9289963975
 10
73.8819902362
 20
100.5127773269
 10
73.8446444338
 20
101.1239521786
 10
73.7984036859
 20
101.7375000402
 10
73.7451610221
 20
102.3283012792
 10
73.6870962028
 20
102.8721694484
 10
73.6265864289
 20
103.3468384876
 10
73.5661090184
 20
103.7328754201
 10
73.5081397761
 20
104.014473839
 10
73.4550521774
 20
104.1801076963
 10
73.4090194637
 20
104.2229969635
 10
73.3719262825
 20
104.141381441
 10
73.3452912718
 20
103.9386045768
 10
73.3302048938
 20
103.6229700431
 10
73.3272846155
 20
103.2073971465
 10
73.3366502281
 20
102.7089011505
 10
73.3579181433
 20
102.1478891953
 10
73.3902175743
 20
101.547331421
 10
73.4322263924
 20
100.9318128809
 10
73.4822246777
 20
100.3265314385
 10
73.5381653831
 20
99.7562714502
 10
73.5977585027
 20
99.2443755849
 10
73.6585640879
 20
98.8118041887
 10
73.7180928299
 20
98.4762654289
  0
SPLINE
  5
204
330
1F
100
AcDbEntity
  8
0
  6
Continuous
 62
     7
370
    15
100
AcDbSpline
210
0.0
220
0.0
230
1.0
 70
     8
 71
     3
 72
    10
 73
     6
 74
     0
 42
0.00000001
 43
0.00000001
 12
1.0
 22
0.0
 32
0.0
 13
1.0
 23
0.0
 33
0.0
 40
0.0
 40
0.0
 40
0.0
 40
0.0
 40
0.4149099988167358
 40
0.7027654867132556
 40
1.0
 40
1.0
 40
1.0
 40
1.0
 10
78.36071584095237
 20
104.7575649454491
 30
0.0
 10
78.36152479149004
 20
104.7531734101504
 30
0.0
 10
78.36289497422837
 20
104.7457351236535
 30
0.0
 10
78.36491097301709
 20
104.7308247093346
 30
0.0
 10
78.36604362490905
 20
104.72066926275
 30
0.0
 10
78.36661902909157
 20
104.7155101432697
 30
0.0
  0
LINE
  5
205
330
1F
100
AcDbEntity
  8
0
  6
Continuous
 62
     7
370
    15
100
AcDbLine
 10
78.360715841
 20
104.7575649454
 30
0.0
 11
78.2958846139
 21
105.0724991246
 31
0.0
  0
LWPOLYLINE
  5
206
330
1F
100
AcDbEntity
  8
0
  6
Continuous
 62
     7
370
    15
100
AcDbPolyline
 90
       24
 70
   128
 43
0.0
 10
73.6055234047
 20
102.611931844
 10
73.5576971965
 20
102.9045981004
 10
73.5134646129
 20
103.0807149246
 10
73.4761062376
 20
103.127219586
 10
73.4483926389
 20
103.0406643286
 10
73.4323792458
 20
102.8274696901
 10
73.4292538436
 20
102.5034439399
 10
73.4392479826
 20
102.0926207884
 10
73.4616206791
 20
101.625469385
 10
73.4947124329
 20
101.1366349294
 10
73.5360692088
 20
100.6623738094
 10
73.5826235795
 20
100.2378583535
 10
73.6309228996
 20
99.8945728525
 10
73.6773850694
 20
99.657977803
 10
73.7185640792
 20
99.5456193223
 10
73.7514060056
 20
99.5658327474
 10
73.7734749746
 20
99.7171167865
 10
73.7831344195
 20
99.9882527276
 10
73.7796676876
 20
100.3591314539
 10
73.7633321732
 20
100.8022454216
 10
73.7353391778
 20
101.2847319826
 10
73.6977649685
 20
101.7708078607
 10
73.653396179
 20
102.2244215592
 10
73.6055234047
 20
102.611931844
  0
LWPOLYLINE
  5
207
330
1F
100
AcDbEntity
  8
0
  6
Continuous
 62
     7
370
    15
100
AcDbPolyline
 90
        9
 70
   128
 43
0.0
 10
73.5196662899
 20
102.9599931672
 10
73.5024506757
 20
102.9953182324
 10
73.4869276239
 20
103.0035120084
 10
73.4733505705
 20
102.98444411
 10
73.4619411705
 20
102.938420011
 10
73.4528855719
 20
102.8661959454
 10
73.4463315057
 20
102.7689472421
 10
73.442386074
 20
102.6482646003
 10
73.4411137709
 20
102.5061149731
  0
ARC
  5
208
330
1F
100
AcDbEntity
  8
0
  6
Continuous
 62
     7
370
    15
100
AcDbCircle
 10
93.3668725617
 20
102.7183630227
 30
0.0
 40
19.92688918574389
100
AcDbArc
 50
180.6102883044
 51
185.2759407486
  0
ARC
  5
209
330
1F
100
AcDbEntity
  8
0
  6
Continuous
 62
     7
370
    15
100
AcDbCircle
 10
81.1828602962
 20
101.3611122195
 30
0.0
 40
7.673175621973662
100
AcDbArc
 50
183.5496715702
 51
192.3041229644
  0
LINE
  5
20A
330
1F
100
AcDbEntity
  8
0
  6
Continuous
 62
     7
370
    15
100
AcDbLine
 10
73.6931589963
 20
99.7048345044
 30
0.0
 11
73.6859356584
 21
99.7259531751
 31
0.0
  0
LWPOLYLINE
  5
20B
330
1F
100
AcDbEntity
  8
0
  6
Continuous
 62
     7
370
    15
100
AcDbPolyline
 90
        9
 70
   128
 43
0.0
 10
73.6931589963
 20
99.7048345044
 10
73.7097259443
 20
99.6710852369
 10
73.7247241959
 20
99.6625058933
 10
73.7379267411
 20
99.6792287215
 10
73.7491336949
 20
99.720998539
 10
73.7581750909
 20
99.7871820464
 10
73.7649142575
 20
99.8767790034
 10
73.769248982
 20
99.9884334042
 10
73.7711137226
 20
100.1204502418
  0
LINE
  5
20C
330
1F
100
AcDbEntity
  8
0
  6
Continuous
 62
     7
370
    15
100
AcDbLine
 10
73.771049927
 20
100.2057239994
 30
0.0
 11
73.7711137226
 21
100.1204502418
 31
0.0
  0
ARC
  5
20D
330
1F
100
AcDbEntity
  8
0
  6
Continuous
 62
     7
370
    15
100
AcDbCircle
 10
53.6042102971
 20
99.9276908698
 30
0.0
 40
20.16875611135074
100
AcDbArc
 50
0.7898667322
 51
5.0963705844
  0
LINE
  5
20E
330
1F
100
AcDbEntity
  8
0
  6
Continuous
 62
     7
370
    15
100
AcDbLine
 10
73.6829890702
 20
101.834525226
 30
0.0
 11
73.6932331529
 21
101.7193057223
 31
0.0
  0
ARC
  5
20F
330
1F
100
AcDbEntity
  8
0
  6
Continuous
 62
     7
370
    15
100
AcDbCircle
 10
66.3116762975
 20
101.3554640241
 30
0.0
 40
7.3868634499674
100
AcDbArc
 50
3.7184202119
 51
12.3752584683
  0
LINE
  5
210
330
1F
100
AcDbEntity
  8
0
  6
Continuous
 62
     7
370
    15
100
AcDbLine
 10
73.5196662899
 20
102.9599931672
 30
0.0
 11
73.5269053439
 21
102.9385690226
 31
0.0
  0
SPLINE
  5
211
330
1F
100
AcDbEntity
  8
0
  6
Continuous
 62
     7
370
    15
100
AcDbSpline
210
0.0
220
0.0
230
1.0
 70
     8
 71
     3
 72
    10
 73
     6
 74
     0
 42
0.00000001
 43
0.00000001
 12
1.0
 22
0.0
 32
0.0
 13
1.0
 23
0.0
 33
0.0
 40
0.0
 40
0.0
 40
0.0
 40
0.0
 40
0.1928132824460638
 40
0.7056050109670388
 40
0.9999999999999999
 40
0.9999999999999999
 40
0.9999999999999999
 40
0.9999999999999999
 10
73.56241073646572
 20
102.795914618601
 30
0.0
 10
73.55948674500767
 20
102.8085315398789
 30
0.0
 10
73.54878632541703
 20
102.8547034776399
 30
0.0
 10
73.53661464519793
 20
102.903807577748
 30
0.0
 10
73.52950013066298
 20
102.9292791123933
 30
0.0
 10
73.52690534387705
 20
102.9385690226452
 30
0.0
  0
SPLINE
  5
212
330
1F
100
AcDbEntity
  8
0
  6
Continuous
 62
     7
370
    15
100
AcDbSpline
210
0.0
220
0.0
230
1.0
 70
     8
 71
     3
 72
    11
 73
     7
 74
     0
 42
0.00000001
 43
0.00000001
 12
1.0
 22
0.0
 32
0.0
 13
1.0
 23
0.0
 33
0.0
 40
0.0
 40
0.0
 40
0.0
 40
0.0
 40
0.1529074784807528
 40
0.460873046402233
 40
0.7703193998601973
 40
1.0
 40
1.0
 40
1.0
 40
1.0
 10
73.69777067285952
 20
99.70594836615486
 30
0.0
 10
73.6996949978077
 20
99.70559223634778
 30
0.0
 10
73.70549503787083
 20
99.70451883803706
 30
0.0
 10
73.71737344505607
 20
99.74061221002239
 30
0.0
 10
73.73089702506601
 20
99.80401175737732
 30
0.0
 10
73.73931959371012
 20
99.85965850856127
 30
0.0
 10
73.74290780351487
 20
99.8833653166191
 30
0.0
  0
LINE
  5
213
330
1F
100
AcDbEntity
  8
0
  6
Continuous
 62
     7
370
    15
100
AcDbLine
 10
73.5196662899
 20
102.9599931672
 30
0.0
 11
73.5183260003
 21
102.9592518344
 31
0.0
  0
SPLINE
  5
214
330
1F
100
AcDbEntity
  8
0
  6
Continuous
 62
     7
370
    15
100
AcDbSpline
210
0.0
220
0.0
230
1.0
 70
     8
 71
     3
 72
    10
 73
     6
 74
     0
 42
0.00000001
 43
0.00000001
 12
1.0
 22
0.0
 32
0.0
 13
1.0
 23
0.0
 33
0.0
 40
0.0
 40
0.0
 40
0.0
 40
0.0
 40
0.3620819394939198
 40
0.7259048965207119
 40
1.0
 40
1.0
 40
1.0
 40
1.0
 10
73.51669222769317
 20
102.9583484514849
 30
0.0
 10
73.5175263363375
 20
102.9487071271429
 30
0.0
 10
73.51919856431441
 20
102.9293781195747
 30
0.0
 10
73.53057219986479
 20
102.8645548605924
 30
0.0
 10
73.54186031921375
 20
102.8103056180084
 30
0.0
 10
73.54671050050285
 20
102.7869962736265
 30
0.0
  0
SPLINE
  5
215
330
1F
100
AcDbEntity
  8
0
  6
Continuous
 62
     7
370
    15
100
AcDbSpline
210
0.0
220
0.0
230
1.0
 70
     8
 71
     3
 72
    12
 73
     8
 74
     0
 42
0.00000001
 43
0.00000001
 12
1.0
 22
0.0
 32
0.0
 13
1.0
 23
0.0
 33
0.0
 40
0.0
 40
0.0
 40
0.0
 40
0.0
 40
0.2058586367906517
 40
0.4121035033272099
 40
0.6141961996484828
 40
0.8133182888499183
 40
0.9999999999999999
 40
0.9999999999999999
 40
0.9999999999999999
 40
0.9999999999999999
 10
73.54671050050285
 20
102.7869962736265
 30
0.0
 10
73.55772490231303
 20
102.7330094001878
 30
0.0
 10
73.5797743710348
 20
102.6249343637229
 30
0.0
 10
73.59111240560178
 20
102.5179053944946
 30
0.0
 10
73.58005614978006
 20
102.4697319662679
 30
0.0
 10
73.54929780033984
 20
102.4813660687555
 30
0.0
 10
73.51956787944117
 20
102.5342260907577
 30
0.0
 10
73.50518224482414
 20
102.5598038568394
 30
0.0
  0
SPLINE
  5
216
330
1F
100
AcDbEntity
  8
0
  6
Continuous
 62
     7
370
    15
100
AcDbSpline
210
0.0
220
0.0
230
1.0
 70
     8
 71
     3
 72
    11
 73
     7
 74
     0
 42
0.00000001
 43
0.00000001
 12
1.0
 22
0.0
 32
0.0
 13
1.0
 23
0.0
 33
0.0
 40
0.0
 40
0.0
 40
0.0
 40
0.0
 40
0.2524808538810386
 40
0.506890956310655
 40
0.759181076594869
 40
0.9999999999999999
 40
0.9999999999999999
 40
0.9999999999999999
 40
0.9999999999999999
 10
73.50518224482414
 20
102.5598038568394
 30
0.0
 10
73.4960201367482
 20
102.5757420638862
 30
0.0
 10
73.47762591139194
 20
102.6077402644929
 30
0.0
 10
73.4570393520003
 20
102.6093124105079
 30
0.0
 10
73.44355175770764
 20
102.5772980156887
 30
0.0
 10
73.44191373139829
 20
102.5294717934267
 30
0.0
 10
73.44111377094862
 20
102.5061149730579
 30
0.0
  0
SPLINE
  5
217
330
1F
100
AcDbEntity
  8
0
  6
Continuous
 62
     7
370
    15
100
AcDbSpline
210
0.0
220
0.0
230
1.0
 70
     8
 71
     3
 72
    11
 73
     7
 74
     0
 42
0.00000001
 43
0.00000001
 12
1.0
 22
0.0
 32
0.0
 13
1.0
 23
0.0
 33
0.0
 40
0.0
 40
0.0
 40
0.0
 40
0.0
 40
0.2794052708135943
 40
0.5596237787753768
 40
0.8374972121141465
 40
1.0
 40
1.0
 40
1.0
 40
1.0
 10
73.68759795279232
 20
100.0466503783361
 30
0.0
 10
73.68473446949184
 20
100.0085651283895
 30
0.0
 10
73.67899916843471
 20
99.93228377754494
 30
0.0
 10
73.67758227611569
 20
99.83005314892112
 30
0.0
 10
73.68045334693149
 20
99.76082295187912
 30
0.0
 10
73.68445793089752
 20
99.73535213548054
 30
0.0
 10
73.68593565841195
 20
99.7259531750576
 30
0.0
  0
SPLINE
  5
218
330
1F
100
AcDbEntity
  8
0
  6
Continuous
 62
     7
370
    15
100
AcDbSpline
210
0.0
220
0.0
230
1.0
 70
     8
 71
     3
 72
    12
 73
     8
 74
     0
 42
0.00000001
 43
0.00000001
 12
1.0
 22
0.0
 32
0.0
 13
1.0
 23
0.0
 33
0.0
 40
0.0
 40
0.0
 40
0.0
 40
0.0
 40
0.0091740569106911
 40
0.2576753492667463
 40
0.5061892016455571
 40
0.7560387894117512
 40
0.9999999999999999
 40
0.9999999999999999
 40
0.9999999999999999
 40
0.9999999999999999
 10
73.52440567408678
 20
100.8860365136759
 30
0.0
 10
73.52452413026326
 20
100.8847195538557
 30
0.0
 10
73.52785125554155
 20
100.8477295847563
 30
0.0
 10
73.53698655718243
 20
100.7782754982121
 30
0.0
 10
73.55609863552411
 20
100.6993428299462
 30
0.0
 10
73.57904650345525
 20
100.6491366612228
 30
0.0
 10
73.59552531013736
 20
100.6458498612518
 30
0.0
 10
73.60366646387604
 20
100.6442260577576
 30
0.0
  0
SPLINE
  5
219
330
1F
100
AcDbEntity
  8
0
  6
Continuous
 62
     7
370
    15
100
AcDbSpline
210
0.0
220
0.0
230
1.0
 70
     8
 71
     3
 72
    12
 73
     8
 74
     0
 42
0.00000001
 43
0.00000001
 12
1.0
 22
0.0
 32
0.0
 13
1.0
 23
0.0
 33
0.0
 40
0.0
 40
0.0
 40
0.0
 40
0.0
 40
0.2057548962737047
 40
0.4119611447520714
 40
0.614015238176595
 40
0.813141671034767
 40
1.0
 40
1.0
 40
1.0
 40
1.0
 10
73.60366646387604
 20
100.6442260577576
 30
0.0
 10
73.61821089144011
 20
100.6411293752675
 30
0.0
 10
73.64733165180878
 20
100.6349292172803
 30
0.0
 10
73.68184642804304
 20
100.5434715040418
 30
0.0
 10
73.69997482470376
 20
100.4030687201871
 30
0.0
 10
73.70132574213113
 20
100.2298513734163
 30
0.0
 10
73.6920758836908
 20
100.1064095555976
 30
0.0
 10
73.68759795279232
 20
100.0466503783361
 30
0.0
  0
SPLINE
  5
21A
330
1F
100
AcDbEntity
  8
0
  6
Continuous
 62
     7
370
    15
100
AcDbSpline
210
0.0
220
0.0
230
1.0
 70
     8
 71
     3
 72
    12
 73
     8
 74
     0
 42
0.00000001
 43
0.00000001
 12
1.0
 22
0.0
 32
0.0
 13
1.0
 23
0.0
 33
0.0
 40
0.0
 40
0.0
 40
0.0
 40
0.0
 40
0.009171695399289
 40
0.2573293926747268
 40
0.5054934347250818
 40
0.7549945867826088
 40
1.0
 40
1.0
 40
1.0
 40
1.0
 10
73.44111377094862
 20
102.5061149730579
 30
0.0
 10
73.44111555894553
 20
102.505136095062
 30
0.0
 10
73.44116572460638
 20
102.4776718074641
 30
0.0
 10
73.44449085154957
 20
102.4139093525519
 30
0.0
 10
73.45800921751699
 20
102.3055800727428
 30
0.0
 10
73.47865085774554
 20
102.1932270336464
 30
0.0
 10
73.49665011770924
 20
102.128240383857
 30
0.0
 10
73.50556792878535
 20
102.0960424675838
 30
0.0
  0
SPLINE
  5
21B
330
1F
100
AcDbEntity
  8
0
  6
Continuous
 62
     7
370
    15
100
AcDbSpline
210
0.0
220
0.0
230
1.0
 70
     8
 71
     3
 72
    12
 73
     8
 74
     0
 42
0.00000001
 43
0.00000001
 12
1.0
 22
0.0
 32
0.0
 13
1.0
 23
0.0
 33
0.0
 40
0.0
 40
0.0
 40
0.0
 40
0.0
 40
0.2058429048902336
 40
0.4120686183837062
 40
0.6141396156279763
 40
0.8132619890292305
 40
1.0
 40
1.0
 40
1.0
 40
1.0
 10
73.50556792878535
 20
102.0960424675838
 30
0.0
 10
73.52141476071176
 20
102.0382782137355
 30
0.0
 10
73.55313789511449
 20
101.9226422811395
 30
0.0
 10
73.58336809540882
 20
101.723020648197
 30
0.0
 10
73.5915916864261
 20
101.5344858121702
 30
0.0
 10
73.57868197224178
 20
101.3740548976728
 30
0.0
 10
73.5579866121921
 20
101.3047948106996
 30
0.0
 10
73.5479710456076
 20
101.2712762340204
 30
0.0
  0
SPLINE
  5
21C
330
1F
100
AcDbEntity
  8
0
  6
Continuous
 62
     7
370
    15
100
AcDbSpline
210
0.0
220
0.0
230
1.0
 70
     8
 71
     3
 72
    11
 73
     7
 74
     0
 42
0.00000001
 43
0.00000001
 12
1.0
 22
0.0
 32
0.0
 13
1.0
 23
0.0
 33
0.0
 40
0.0
 40
0.0
 40
0.0
 40
0.0
 40
0.2535078174555854
 40
0.5075666022887617
 40
0.759505064362487
 40
1.0
 40
1.0
 40
1.0
 40
1.0
 10
73.5479710456076
 20
101.2712762340204
 30
0.0
 10
73.54157818656856
 20
101.249561354847
 30
0.0
 10
73.52877857441491
 20
101.2060844019395
 30
0.0
 10
73.51913164226596
 20
101.1062035654425
 30
0.0
 10
73.51692243363316
 20
100.9949473845967
 30
0.0
 10
73.52195020695667
 20
100.9217733131698
 30
0.0
 10
73.52440567408678
 20
100.8860365136759
 30
0.0
  0
ARC
  5
21D
330
1F
100
AcDbEntity
  8
0
  6
Continuous
 62
     7
370
    15
100
AcDbCircle
 10
72.6126827272
 20
123.5994093254
 30
0.0
 40
33.0
100
AcDbArc
 50
295.5472604439
 51
322.3688919541
  0
LINE
  5
21E
330
1F
100
AcDbEntity
  8
0
  6
Continuous
 62
     7
370
    15
100
AcDbLine
 10
79.7249464849
 20
91.9624817207
 30
0.0
 11
86.844112684
 21
93.8258234992
 31
0.0
  0
LINE
  5
21F
330
1F
100
AcDbEntity
  8
0
  6
Continuous
 62
     7
370
    15
100
AcDbLine
 10
85.7070553647
 20
93.3085296883
 30
0.0
 11
79.7477108026
 21
91.7487543657
 31
0.0
  0
ARC
  5
220
330
1F
100
AcDbEntity
  8
0
  6
Continuous
 62
     7
370
    15
100
AcDbCircle
 10
72.6126827272
 20
123.5994093254
 30
0.0
 40
33.00000000000001
100
AcDbArc
 50
293.3782305098
 51
295.5472604439
  0
ELLIPSE
  5
221
330
1F
100
AcDbEntity
  8
0
  6
Continuous
 62
     7
370
    15
100
AcDbEllipse
 10
79.2592684786
 20
115.643671121
 30
0.0
 11
-1.811399796278437
 21
25.99969358991973
 31
0.0
210
0.0
220
0.0
230
1.0
 40
0.0696847268
 41
1.984478928953351
 42
1.997948364887544
  0
ELLIPSE
  5
222
330
1F
100
AcDbEntity
  8
0
  6
Continuous
 62
     7
370
    15
100
AcDbEllipse
 10
314.6954748275
 20
115.643671121
 30
0.0
 11
301.6190036006364
 21
23.07440241942839
 31
0.0
210
0.0
220
0.0
230
1.0
 40
0.0397261157
 41
2.468288788625117
 42
2.48152442104249
  0
ELLIPSE
  5
223
330
1F
100
AcDbEntity
  8
0
  6
Continuous
 62
     7
370
    15
100
AcDbEllipse
 10
-13507.5663966575
 20
115.643671121
 30
0.0
 11
17265.23023159853
 21
-23.13641447666961
 31
0.0
210
0.0
220
0.0
230
1.0
 40
0.0006870438
 41
0.6652696754591013
 42
0.6654529286886445
  0
ELLIPSE
  5
224
330
1F
100
AcDbEntity
  8
0
  6
Continuous
 62
     7
370
    15
100
AcDbEllipse
 10
74.815705451
 20
115.643671121
 30
0.0
 11
-1.811399796278437
 21
25.99969358991973
 31
0.0
210
0.0
220
0.0
230
1.0
 40
0.0696847268
 41
1.574463155323292
 42
1.997531308141175
  0
LINE
  5
225
330
1F
100
AcDbEntity
  8
0
  6
Continuous
 62
     7
370
    15
100
AcDbLine
 10
100.6126822503
 20
115.4221090137
 30
0.0
 11
100.6126822503
 21
106.135160534
 31
0.0
  0
SPLINE
  5
226
330
1F
100
AcDbEntity
  8
0
  6
Continuous
 62
     7
370
    15
100
AcDbSpline
210
0.0
220
0.0
230
1.0
 70
     8
 71
     3
 72
     8
 73
     4
 74
     0
 42
0.00000001
 43
0.00000001
 12
1.0
 22
0.0
 32
0.0
 13
1.0
 23
0.0
 33
0.0
 40
0.0
 40
0.0
 40
0.0
 40
0.0
 40
1.0
 40
1.0
 40
1.0
 40
1.0
 10
100.6126827271747
 20
106.1351601287779
 30
0.0
 10
100.0248530721951
 20
105.1927073411333
 30
0.0
 10
99.40210071026662
 20
104.2997415203568
 30
0.0
 10
98.7473051655276
 20
103.4504264724936
 30
0.0
  0
LINE
  5
227
330
1F
100
AcDbEntity
  8
0
  6
Continuous
 62
     7
370
    15
100
AcDbLine
 10
73.0781966886
 20
99.6581044629
 30
0.0
 11
72.9093418522
 21
99.6373732223
 31
0.0
  0
LINE
  5
228
330
1F
100
AcDbEntity
  8
0
  6
Continuous
 62
     7
370
    15
100
AcDbLine
 10
72.8812207999
 20
99.9551311716
 30
0.0
 11
72.9093418522
 21
99.6373732223
 31
0.0
  0
SPLINE
  5
229
330
1F
100
AcDbEntity
  8
0
  6
Continuous
 62
     7
370
    15
100
AcDbSpline
210
0.0
220
0.0
230
1.0
 70
     8
 71
     3
 72
    10
 73
     6
 74
     0
 42
0.00000001
 43
0.00000001
 12
1.0
 22
0.0
 32
0.0
 13
1.0
 23
0.0
 33
0.0
 40
0.0
 40
0.0
 40
0.0
 40
0.0
 40
0.5
 40
0.5
 40
1.0
 40
1.0
 40
1.0
 40
1.0
 10
72.76070588618298
 20
100.7102911220188
 30
0.0
 10
72.77636932825045
 20
100.7088109549558
 30
0.0
 10
72.79673547588787
 20
100.6326171264654
 30
0.0
 10
72.8401669726744
 20
100.3598552812694
 30
0.0
 10
72.8622619415089
 20
100.169369460221
 30
0.0
 10
72.88122082626454
 20
99.95513170367552
 30
0.0
  0
ARC
  5
22A
330
1F
100
AcDbEntity
  8
0
  6
Continuous
 62
     7
370
    15
100
AcDbCircle
 10
75.1126827272
 20
125.5994093254
 30
0.0
 40
24.99999999999999
100
AcDbArc
 50
264.0980669939
 51
264.6016827761
  0
ARC
  5
22B
330
1F
100
AcDbEntity
  8
0
  6
Continuous
 62
     7
370
    15
100
AcDbCircle
 10
75.1126827272
 20
125.5994093254
 30
0.0
 40
25.00000000000002
100
AcDbArc
 50
103.6144763362
 51
103.9019330061
  0
LINE
  5
22C
330
1F
100
AcDbEntity
  8
0
  6
Continuous
 62
     7
370
    15
100
AcDbLine
 10
72.5446377946
 20
122.085367434
 30
0.0
 11
69.2279906543
 21
149.8969484701
 31
0.0
  0
LINE
  5
22D
330
1F
100
AcDbEntity
  8
0
  6
Continuous
 62
     7
370
    15
100
AcDbLine
 10
73.0105782459
 20
115.4221090137
 30
0.0
 11
72.5446377946
 21
122.085367434
 31
0.0
  0
LINE
  5
22E
330
1F
100
AcDbEntity
  8
0
  6
Continuous
 62
     7
370
    15
100
AcDbLine
 10
72.451343487
 20
114.3843502387
 30
0.0
 11
73.0033740001
 21
109.2014618798
 31
0.0
  0
LWPOLYLINE
  5
22F
330
1F
100
AcDbEntity
  8
0
  6
Continuous
 62
     7
370
    15
100
AcDbPolyline
 90
       13
 70
   128
 43
0.0
 10
72.3379223673
 20
112.5976060166
 10
72.2931038654
 20
113.0669795557
 10
72.2552046245
 20
113.5652464464
 10
72.2268072022
 20
114.0584534615
 10
72.209846654
 20
114.5129873066
 10
72.2054789839
 20
114.8978721931
 10
72.2140019825
 20
115.1868811458
 10
72.2348347372
 20
115.3603157609
 10
72.2665572139
 20
115.4063584863
 10
72.3070080457
 20
115.3218716963
 10
72.3534302851
 20
115.1126118957
 10
72.4026604621
 20
114.7928413584
 10
72.451343487
 20
114.3843502387
  0
LINE
  5
230
330
1F
100
AcDbEntity
  8
0
  6
Continuous
 62
     7
370
    15
100
AcDbLine
 10
72.4270743849
 20
111.76057799
 30
0.0
 11
72.3379223673
 21
112.5976060166
 31
0.0
  0
ELLIPSE
  5
231
330
1F
100
AcDbEntity
  8
0
  6
Continuous
 62
     7
370
    15
100
AcDbEllipse
 10
74.8943538956
 20
73.6858459045
 30
0.0
 11
-1.809499522331848
 21
25.97289971548826
 31
0.0
210
0.0
220
0.0
230
1.0
 40
0.0698300398
 41
6.092877192520442
 42
6.286862910347521
  0
LINE
  5
232
330
1F
100
AcDbEntity
  8
0
  6
Continuous
 62
     7
370
    15
100
AcDbLine
 10
73.0033740001
 20
109.2014618798
 30
0.0
 11
73.9161406709
 21
104.7674704924
 31
0.0
  0
LINE
  5
233
330
1F
100
AcDbEntity
  8
0
  6
Continuous
 62
     7
370
    15
100
AcDbLine
 10
100.6126822503
 20
122.085367434
 30
0.0
 11
72.5446377946
 21
122.085367434
 31
0.0
  0
LINE
  5
234
330
1F
100
AcDbEntity
  8
0
  6
Continuous
 62
     7
370
    15
100
AcDbLine
 10
100.6126822503
 20
122.085367434
 30
0.0
 11
100.6126822503
 21
115.4221090137
 31
0.0
  0
ARC
  5
235
330
1F
100
AcDbEntity
  8
0
  6
Continuous
 62
     7
370
    15
100
AcDbCircle
 10
75.1126827272
 20
125.5994093254
 30
0.0
 40
25.0
100
AcDbArc
 50
48.00777479
 51
103.6144763362
  0
SPLINE
  5
236
330
1F
100
AcDbEntity
  8
0
  6
Continuous
 62
     7
370
    15
100
AcDbSpline
210
0.0
220
0.0
230
1.0
 70
     8
 71
     3
 72
    12
 73
     8
 74
     0
 42
0.00000001
 43
0.00000001
 12
1.0
 22
0.0
 32
0.0
 13
1.0
 23
0.0
 33
0.0
 40
0.0
 40
0.0
 40
0.0
 40
0.0
 40
0.2499999999999997
 40
0.2499999999999997
 40
0.4999999999999993
 40
0.4999999999999993
 40
1.0
 40
1.0
 40
1.0
 40
1.0
 10
94.13462220137717
 20
142.5822188290749
 30
0.0
 10
93.92113410476672
 20
142.6893576243129
 30
0.0
 10
93.71527111335983
 20
142.8067761832981
 30
0.0
 10
93.31298417973095
 20
143.0543385284003
 30
0.0
 10
93.1164331560299
 20
143.184852548871
 30
0.0
 10
92.54285360923733
 20
143.5887130349774
 30
0.0
 10
92.17870065708291
 20
143.8739992894288
 30
0.0
 10
91.83842669348853
 20
144.1802997446306
 30
0.0
  0
ARC
  5
237
330
1F
100
AcDbEntity
  8
0
  6
Continuous
 62
     7
370
    15
100
AcDbCircle
 10
75.1126827272
 20
125.5994093254
 30
0.0
 40
25.49999999999996
100
AcDbArc
 50
0.0
 51
41.7585146739
  0
LINE
  5
238
330
1F
100
AcDbEntity
  8
0
  6
Continuous
 62
     7
370
    15
100
AcDbLine
 10
100.6126822503
 20
125.5994093254
 30
0.0
 11
100.6126822503
 21
122.085367434
 31
0.0
  0
SPLINE
  5
239
330
1F
100
AcDbEntity
  8
0
  6
Continuous
 62
     7
370
    15
100
AcDbSpline
210
0.0
220
0.0
230
1.0
 70
     8
 71
     3
 72
    18
 73
    14
 74
     0
 42
0.00000001
 43
0.00000001
 12
1.0
 22
0.0
 32
0.0
 13
1.0
 23
0.0
 33
0.0
 40
0.0
 40
0.0
 40
0.0
 40
0.0
 40
0.2499999999999987
 40
0.2499999999999987
 40
0.4999999999999973
 40
0.4999999999999973
 40
0.624999999999998
 40
0.624999999999998
 40
0.7499999999999987
 40
0.7499999999999987
 40
0.8749999999999993
 40
0.8749999999999993
 40
1.0
 40
1.0
 40
1.0
 40
1.0
 10
69.1061629343326
 20
149.8671187347327
 30
0.0
 10
69.08444179421993
 20
149.8617425183042
 30
0.0
 10
69.01540556644262
 20
149.8447680909012
 30
0.0
 10
68.78446965474866
 20
149.7855195904392
 30
0.0
 10
68.62659837437039
 20
149.7442227669145
 30
0.0
 10
68.33282976806633
 20
149.662740774732
 30
0.0
 10
68.22532650434054
 20
149.6322683718188
 30
0.0
 10
67.99823521467987
 20
149.5660241526385
 30
0.0
 10
67.87783764030571
 20
149.5300323378549
 30
0.0
 10
67.6235450498441
 20
149.451673747153
 30
0.0
 10
67.48921588318971
 20
149.4091461124778
 30
0.0
 10
67.21493846503537
 20
149.319578974058
 30
0.0
 10
67.0740936559456
 20
149.272272814103
 30
0.0
 10
66.9296115711812
 20
149.2222234349346
 30
0.0
  0
SPLINE
  5
23A
330
1F
100
AcDbEntity
  8
0
  6
Continuous
 62
     7
370
    15
100
AcDbSpline
210
0.0
220
0.0
230
1.0
 70
     8
 71
     3
 72
    20
 73
    16
 74
     0
 42
0.00000001
 43
0.00000001
 12
1.0
 22
0.0
 32
0.0
 13
1.0
 23
0.0
 33
0.0
 40
0.0
 40
0.0
 40
0.0
 40
0.0
 40
0.2500000000000003
 40
0.2500000000000003
 40
0.3750000000000003
 40
0.3750000000000003
 40
0.5000000000000002
 40
0.5000000000000002
 40
0.6250000000000001
 40
0.6250000000000001
 40
0.7500000000000001
 40
0.7500000000000001
 40
0.875
 40
0.875
 40
1.0
 40
1.0
 40
1.0
 40
1.0
 10
70.29690895018813
 20
101.0676274306559
 30
0.0
 10
70.59702679766495
 20
101.0087120340455
 30
0.0
 10
70.87945498454165
 20
100.9589699749123
 30
0.0
 10
71.27537231114167
 20
100.8953020575925
 30
0.0
 10
71.40145271161524
 20
100.8761257050728
 30
0.0
 10
71.63548017836673
 20
100.8421266870712
 30
0.0
 10
71.7444446041494
 20
100.8271409028187
 30
0.0
 10
71.94578718949116
 20
100.8005971863635
 30
0.0
 10
72.03830142179518
 20
100.7890326521923
 30
0.0
 10
72.1997483479425
 20
100.7695598619094
 30
0.0
 10
72.26965504895314
 20
100.7615205339813
 30
0.0
 10
72.38767648858291
 20
100.7482953263525
 30
0.0
 10
72.43595773184572
 20
100.7430935770156
 30
0.0
 10
72.50736902544125
 20
100.7355071819399
 30
0.0
 10
72.53089858350884
 20
100.7330763452794
 30
0.0
 10
72.54203034376036
 20
100.731925610193
 30
0.0
  0
ELLIPSE
  5
23B
330
1F
100
AcDbEntity
  8
0
  6
Continuous
 62
     7
370
    15
100
AcDbEllipse
 10
65.5484292545
 20
112.9662710759
 30
0.0
 11
-1.776888226532257
 21
2.757871184855887
 31
0.0
210
0.0
220
0.0
230
1.0
 40
0.7425888588
 41
0.0
 42
6.283185307179586
  0
ARC
  5
23C
330
1F
100
AcDbEntity
  8
0
  6
Continuous
 62
     7
370
    15
100
AcDbCircle
 10
75.1126827272
 20
125.5994093254
 30
0.0
 40
25.00000000000001
100
AcDbArc
 50
109.1063634665
 51
258.8936365335
  0
SPLINE
  5
23D
330
1F
100
AcDbEntity
  8
0
  6
Continuous
 62
     7
370
    15
100
AcDbSpline
210
0.0
220
0.0
230
1.0
 70
     8
 71
     3
 72
    11
 73
     7
 74
     0
 42
0.00000001
 43
0.00000001
 12
1.0
 22
0.0
 32
0.0
 13
1.0
 23
0.0
 33
0.0
 40
0.0
 40
0.0
 40
0.0
 40
0.0
 40
0.3296764547701699
 40
0.575083183845217
 40
0.8267570732670494
 40
1.0
 40
1.0
 40
1.0
 40
1.0
 10
63.08878767956968
 20
114.9275357484118
 30
0.0
 10
63.21699529189932
 20
114.9553335641847
 30
0.0
 10
63.4406389304574
 20
115.0038237010061
 30
0.0
 10
63.69257560629367
 20
115.2432374837229
 30
0.0
 10
63.85581770946981
 20
115.4716297414124
 30
0.0
 10
63.87509223313274
 20
115.638656951589
 30
0.0
 10
63.88295065333124
 20
115.7067556514637
 30
0.0
  0
ARC
  5
23E
330
1F
100
AcDbEntity
  8
0
  6
Continuous
 62
     7
370
    15
100
AcDbCircle
 10
63.6759680076
 20
118.7305856157
 30
0.0
 40
3.03090571747787
100
AcDbArc
 50
273.9158160494
 51
296.3818918365
  0
LINE
  5
23F
330
1F
100
AcDbEntity
  8
0
  6
Continuous
 62
     7
370
    15
100
AcDbLine
 10
63.8829506533
 20
115.7067556515
 30
0.0
 11
64.0743784206
 21
115.8412479445
 31
0.0
  0
CIRCLE
  5
240
330
1F
100
AcDbEntity
  8
VERMASSUNG
  6
CENTERX2
100
AcDbCircle
 10
75.1126827272
 20
123.3583816892
 30
0.0
 40
32.50000000000001
  0
DIMENSION
  5
241
330
1F
100
AcDbEntity
  8
VERMASSUNG
100
AcDbDimension
  2
_D_5
 10
52.1317123386
 20
100.3774113007
 30
0.0
 11
44.5114349054
 21
92.7571338674
 31
0.0
 70
   160
  1
%%c<> min. 
 71
     2
 42
-1.0
  3
SLDDIMSTYLE3
100
AcDbAlignedDimension
 13
98.0936531157
 23
146.3393520778
 33
0.0
 14
52.1317123386
 24
100.3774113007
 34
0.0
 50
45.0
100
AcDbRotatedDimension
  0
INSERT
  5
25B
330
1F
100
AcDbEntity
  8
VERMASSUNG
100
AcDbBlockReference
  2
SW_CENTERMARKSYMBOL_0
 10
75.1126827272
 20
125.5994093254
 30
0.0
  0
OLE2FRAME
  5
25C
330
1F
100
AcDbEntity
  8
0
100
AcDbOle2Frame
 70
     2
  3
Paintbrush-Bild
 10
13.8511154363
 20
38.264191557
 30
0.0
 11
51.6290888628
 21
31.9806341108
 31
0.0
 71
     2
 72
     0
 73
     1
 90
    12928
310
80552BED0767C5B32B40DDAF6807D121434000000000000000006FFBDDFB85D0
310
4940DDAF6807D121434000000000000000006FFBDDFB85D04940416F4BD60AFB
310
3F4000000000000000002BED0767C5B32B40416F4BD60AFB3F40000000000000
310
0000000000000100000000010000010000000100000000000100000000320000
310
D0CF11E0A1B11AE1000000000000000000000000000000003E000300FEFF0900
310
0600000000000000000000000100000001000000000000000010000002000000
310
01000000FEFFFFFF0000000000000000FFFFFFFFFFFFFFFFFFFFFFFFFFFFFFFF
310
FFFFFFFFFFFFFFFFFFFFFFFFFFFFFFFFFFFFFFFFFFFFFFFFFFFFFFFFFFFFFFFF
310
FFFFFFFFFFFFFFFFFFFFFFFFFFFFFFFFFFFFFFFFFFFFFFFFFFFFFFFFFFFFFFFF
310
FFFFFFFFFFFFFFFFFFFFFFFFFFFFFFFFFFFFFFFFFFFFFFFFFFFFFFFFFFFFFFFF
310
FFFFFFFFFFFFFFFFFFFFFFFFFFFFFFFFFFFFFFFFFFFFFFFFFFFFFFFFFFFFFFFF
310
FFFFFFFFFFFFFFFFFFFFFFFFFFFFFFFFFFFFFFFFFFFFFFFFFFFFFFFFFFFFFFFF
310
FFFFFFFFFFFFFFFFFFFFFFFFFFFFFFFFFFFFFFFFFFFFFFFFFFFFFFFFFFFFFFFF
310
FFFFFFFFFFFFFFFFFFFFFFFFFFFFFFFFFFFFFFFFFFFFFFFFFFFFFFFFFFFFFFFF
310
FFFFFFFFFFFFFFFFFFFFFFFFFFFFFFFFFFFFFFFFFFFFFFFFFFFFFFFFFFFFFFFF
310
FFFFFFFFFFFFFFFFFFFFFFFFFFFFFFFFFFFFFFFFFFFFFFFFFFFFFFFFFFFFFFFF
310
FFFFFFFFFFFFFFFFFFFFFFFFFFFFFFFFFFFFFFFFFFFFFFFFFFFFFFFFFFFFFFFF
310
FFFFFFFFFFFFFFFFFFFFFFFFFFFFFFFFFFFFFFFFFFFFFFFFFFFFFFFFFFFFFFFF
310
FFFFFFFFFFFFFFFFFFFFFFFFFFFFFFFFFFFFFFFFFFFFFFFFFFFFFFFFFFFFFFFF
310
FFFFFFFFFFFFFFFFFFFFFFFFFFFFFFFFFFFFFFFFFFFFFFFFFFFFFFFFFFFFFFFF
310
FDFFFFFFFEFFFFFFFEFFFFFFFEFFFFFF05000000060000000700000008000000
310
090000000A0000000B0000000C0000000D0000000E0000000F00000010000000
310
11000000120000001300000014000000150000001600000017000000FEFFFFFF
310
FFFFFFFFFFFFFFFFFFFFFFFFFFFFFFFFFFFFFFFFFFFFFFFFFFFFFFFFFFFFFFFF
310
FFFFFFFFFFFFFFFFFFFFFFFFFFFFFFFFFFFFFFFFFFFFFFFFFFFFFFFFFFFFFFFF
310
FFFFFFFFFFFFFFFFFFFFFFFFFFFFFFFFFFFFFFFFFFFFFFFFFFFFFFFFFFFFFFFF
310
FFFFFFFFFFFFFFFFFFFFFFFFFFFFFFFFFFFFFFFFFFFFFFFFFFFFFFFFFFFFFFFF
310
FFFFFFFFFFFFFFFFFFFFFFFFFFFFFFFFFFFFFFFFFFFFFFFFFFFFFFFFFFFFFFFF
310
FFFFFFFFFFFFFFFFFFFFFFFFFFFFFFFFFFFFFFFFFFFFFFFFFFFFFFFFFFFFFFFF
310
FFFFFFFFFFFFFFFFFFFFFFFFFFFFFFFFFFFFFFFFFFFFFFFFFFFFFFFFFFFFFFFF
310
FFFFFFFFFFFFFFFFFFFFFFFFFFFFFFFFFFFFFFFFFFFFFFFFFFFFFFFFFFFFFFFF
310
FFFFFFFFFFFFFFFFFFFFFFFFFFFFFFFFFFFFFFFFFFFFFFFFFFFFFFFFFFFFFFFF
310
FFFFFFFFFFFFFFFFFFFFFFFFFFFFFFFFFFFFFFFFFFFFFFFFFFFFFFFFFFFFFFFF
310
FFFFFFFFFFFFFFFFFFFFFFFFFFFFFFFFFFFFFFFFFFFFFFFFFFFFFFFFFFFFFFFF
310
FFFFFFFFFFFFFFFFFFFFFFFFFFFFFFFFFFFFFFFFFFFFFFFFFFFFFFFFFFFFFFFF
310
FFFFFFFFFFFFFFFFFFFFFFFFFFFFFFFFFFFFFFFFFFFFFFFFFFFFFFFFFFFFFFFF
310
52006F006F007400200045006E00740072007900000000000000000000000000
310
0000000000000000000000000000000000000000000000000000000000000000
310
16000500FFFFFFFFFFFFFFFF020000000A00030000000000C000000000000046
310
00000000000000000000000060A085237139CD0103000000C000000000000000
310
01004F006C006500000000000000000000000000000000000000000000000000
310
0000000000000000000000000000000000000000000000000000000000000000
310
0A000200FFFFFFFFFFFFFFFFFFFFFFFF00000000000000000000000000000000
310
0000000000000000000000000000000000000000000000001400000000000000
310
010043006F006D0070004F0062006A0000000000000000000000000000000000
310
0000000000000000000000000000000000000000000000000000000000000000
310
120002010100000003000000FFFFFFFF00000000000000000000000000000000
310
0000000000000000000000000000000000000000010000004D00000000000000
310
01004F006C006500310030004E00610074006900760065000000000000000000
310
0000000000000000000000000000000000000000000000000000000000000000
310
1A000200FFFFFFFFFFFFFFFFFFFFFFFF00000000000000000000000000000000
310
0000000000000000000000000000000000000000040000002426000000000000
310
FEFFFFFF02000000FEFFFFFFFFFFFFFFFFFFFFFFFFFFFFFFFFFFFFFFFFFFFFFF
310
FFFFFFFFFFFFFFFFFFFFFFFFFFFFFFFFFFFFFFFFFFFFFFFFFFFFFFFFFFFFFFFF
310
FFFFFFFFFFFFFFFFFFFFFFFFFFFFFFFFFFFFFFFFFFFFFFFFFFFFFFFFFFFFFFFF
310
FFFFFFFFFFFFFFFFFFFFFFFFFFFFFFFFFFFFFFFFFFFFFFFFFFFFFFFFFFFFFFFF
310
FFFFFFFFFFFFFFFFFFFFFFFFFFFFFFFFFFFFFFFFFFFFFFFFFFFFFFFFFFFFFFFF
310
FFFFFFFFFFFFFFFFFFFFFFFFFFFFFFFFFFFFFFFFFFFFFFFFFFFFFFFFFFFFFFFF
310
FFFFFFFFFFFFFFFFFFFFFFFFFFFFFFFFFFFFFFFFFFFFFFFFFFFFFFFFFFFFFFFF
310
FFFFFFFFFFFFFFFFFFFFFFFFFFFFFFFFFFFFFFFFFFFFFFFFFFFFFFFFFFFFFFFF
310
FFFFFFFFFFFFFFFFFFFFFFFFFFFFFFFFFFFFFFFFFFFFFFFFFFFFFFFFFFFFFFFF
310
FFFFFFFFFFFFFFFFFFFFFFFFFFFFFFFFFFFFFFFFFFFFFFFFFFFFFFFFFFFFFFFF
310
FFFFFFFFFFFFFFFFFFFFFFFFFFFFFFFFFFFFFFFFFFFFFFFFFFFFFFFFFFFFFFFF
310
FFFFFFFFFFFFFFFFFFFFFFFFFFFFFFFFFFFFFFFFFFFFFFFFFFFFFFFFFFFFFFFF
310
FFFFFFFFFFFFFFFFFFFFFFFFFFFFFFFFFFFFFFFFFFFFFFFFFFFFFFFFFFFFFFFF
310
FFFFFFFFFFFFFFFFFFFFFFFFFFFFFFFFFFFFFFFFFFFFFFFFFFFFFFFFFFFFFFFF
310
FFFFFFFFFFFFFFFFFFFFFFFFFFFFFFFFFFFFFFFFFFFFFFFFFFFFFFFFFFFFFFFF
310
FFFFFFFFFFFFFFFFFFFFFFFFFFFFFFFFFFFFFFFFFFFFFFFFFFFFFFFFFFFFFFFF
310
0100000200000000000000000000000000000000000000000000000000000000
310
0000000000000000000000000000000000000000000000000000000000000000
310
0100FEFF030A0000FFFFFFFF0A00030000000000C00000000000004607000000
310
5042727573680007000000504272757368000700000050427275736800F439B2
310
7100000000000000000000000000000000000000000000000000000000000000
310
0000000000000000000000000000000000000000000000000000000000000000
310
0000000000000000000000000000000000000000000000000000000000000000
310
0000000000000000000000000000000000000000000000000000000000000000
310
0000000000000000000000000000000000000000000000000000000000000000
310
0000000000000000000000000000000000000000000000000000000000000000
310
0000000000000000000000000000000000000000000000000000000000000000
310
0000000000000000000000000000000000000000000000000000000000000000
310
0000000000000000000000000000000000000000000000000000000000000000
310
0000000000000000000000000000000000000000000000000000000000000000
310
0000000000000000000000000000000000000000000000000000000000000000
310
0000000000000000000000000000000000000000000000000000000000000000
310
20260000424D0E260000000000003E00000028000000B40200006E0000000100
310
01000000000000000000130B0000130B00000200000002000000000000FFFFFF
310
FFFFFFFFFFFFFFFFFFFFFFFFFFFFFFFFFFFFFFFFFFFFFFFFFFFFFFFFFFFFFFFF
310
FFFFFFFFFFFFFFFFFFFFFFFFFFFFFFFFFFFFFFFFFFFFFFFFFFFFFFFFFFFFFFFF
310
FFFFFFFFFFFFFFFFFFFFFFFFFFFFFFFFFFFFFFFFFFFFFFFFF000FFFFFFFFFFFF
310
FFFFFFFFFFFFFFFFFFFFFFFFFFFFFFFFFFFFFFFFFFFFFFFFFFFFFFFFFFFFFFFF
310
FFFFFFFFFFFFFFFFFFFFFFFFFFFFFFFFFFFFFFFFFFFFFFFFFFFFFFFFFFFFFFFF
310
FFFFFFFFFFFFFFFFFFFFFFFFFFFFFFFFF000FFFFFFFFFFFFFFFFFFFFFFFFFFFF
310
FFFFFFFFFFFFFFFFFFFFFFFFFFFFFFFFFFFFFFFFFFFFFFFFFFFFFFFFFFFFFFFF
310
FFFFFFFFFFFFFFFFFFFFFFFFFFFFFFFFFFFFFFFFFFFFFFFFFFFFFFFFFFFFFFFF
310
FFFFFFFFFFFFFFFFF000FFFFFFFFFFFFFFFFFFFFFFFFFFFFFFFFFFFFFFFFFFFF
310
FFFFFFFFFFFFFFFFFFFFFFFFFFFFFFFFFFFFFFFFFFFFFFFFFFFFFFFFFFFFFFFF
310
FFFFFFFFFFFFFFFFFFFFFFFFFFFFFFFFFFFFFFFFFFFFFFFFFFFFFFFFFFFFFFFF
310
F000FFFFFFFFFFFFFFFFFFFFFFFFFFFFFFFFFFFFFFFFFFFFFFFFFFFFFFFFFFFF
310
FFFFFFFFFFFFFFFFFFFFFFFFFFFFFFFFFFFFFFFFFFFFFFFFFFFFFFFFFFFFFFFF
310
FFFFFFFFFFFFFFFFFFFFFFFFFFFFFFFFFFFFFFFFFFFFFFFFF000FFFFFFFFFFFF
310
FFFFFFFFFFFFFFFFFFFFFFFFFFFFFFFFFFFFFFFFFFFFFFFFFFFFFFFFFFFFFFFF
310
FFFFFFFFFFFFFFFFFFFFFFFFFFFFFFFFFFFFFFFFFFFFFFFFFFFFFFFFFFFFFFFF
310
FFFFFFFFFFFFFFFFFFFFFFFFFFFFFFFFF000FFFFFFFFFFFFFFFFFFFFFFFFFFFF
310
FFFFFFFFFFFFFFFFFFFFFFFFFFFFFFFFFFFFFFFFFFFFFFFFFFFFFFFFFFFFFFFF
310
FFFFFFFFFFFFFFFFFFFFFFFFFFFFFFFFFFFFFFFFFFFFFFFFFFFFFFFFFFFFFFFF
310
FFFFFFFFFFFFFFFFF000FFFFFFFFFFFFFFFFFFFFFFFFFFFFFFFFFFFFFFFFFFFF
310
FFFFFFFFFFFFFFFFFFFFFFFFFFFFFFFFFFFFFFFFFFFFFFFFFFFFFFFFFFFFFFFF
310
FFFFFFFFFFFFFFFFFFFFFFFFFFFFFFFFFFFFFFFFFFFFFFFFFFFFFFFFFFFFFFFF
310
F000FFFFFFFFFFFFFFFFFFFFFFFFFFFFFFFFFFFFFFFFFFFFFFFFFFFFFFFFFFFF
310
FFFFFFFFFFFFFFFFFFFFFFFFFFFFFFFFFFFFFFFFFFFFFFFFFFFFFFFFFFFFFFFF
310
FFFFFFFFFFFFFFFFFFFFFFFFFFFFFFFFFFFFFFFFFFFFFFFFF000FFFFFFFFFFFF
310
FFFFFFFFFFFFFFFFFFFFFFFFFFFFFFFFFFFFFFFFFFFFFFFFFFFFFFFFFFFFFFFF
310
FFFFFFFFFFFFFFFFFFFFFFFFFFFFFFFFFFFFFFFFFFFFFFFFFFFFFFFFFFFFFFFF
310
FFFFFFFFFFFFFFFFFFFFFFFFFFFFFFFFF000FFFFFFFFFFFFFFFFFFFFFFFFFFFF
310
FFFFFFFFFFFFFFFFFFFFFFFFFFFFFFFFFFFFFFFFFFFFFFFFFFFFFFFFFFFFFFFF
310
FFFFFFFFFFFFFFFFFFFFFFFFFFFFFFFFFFFFFFFFFFFFFFFFFFFFFFFFFFFFFFFF
310
FFFFFFFFFFFFFFFFF000FFFFFFFFFFFFFFFFFFFFFFFFFFFFFFFFFFFFFFFFFFFF
310
FFFFFFFFFFFFFFFFFFFFFFFFFFFFFFFFFFFFFFFFFFFFFFFFFFFFFFFFFFFFFFFF
310
FFFFFFFFFFFFFFFFFFFFFFFFFFFFFFFFFFFFFFFFFFFFFFFFFFFFFFFFFFFFFFFF
310
F000FFFFFFFFFFFFFFFFFFFFFFFFFFFFFFFFFFFFFFFFFFFFFFFFFFFFFFFFFFFF
310
FFFFFFFFFFFFFFFFFFFFFFFFFFFFFFFFFFFFFFFFFFFFFFFFFFFFFFFFFFFFFFFF
310
FFFFFFFFFFFFFFFFFFFFFFFFFFFFFFFFFFFFFFFFFFFFFFFFF000FFFFFFFFFFFF
310
FFFFFFFFFFFFFFFFFFFFFFFFFFFFFFFFFFFFFFFFFFFFFFFFFFFFFFFFFFFFFFFF
310
FFFFFFFFFFFFFFFFFFFFFFFFFFFFFFFFFFFFFFFFFFFFFFFFFFFFFFFFFFFFFFFF
310
FFFFFFFFFFFFFFFFFFFFFFFFFFFFFFFFF000FFFFFFFFFFFFFFFFFFFFFFFFFFFF
310
FFFFFFFFFFFFFFFFFFFFFFFFFFFFFFFFFFFFFFFFFFFFFFFFFFFFFFFFFFFFFFFF
310
FFFFFFFFFFFFFFFFFFFFFFFFFFFFFFFFFFFFFFFFFFFFFFFFFFFFFFFFFFFFFFFF
310
FFFFFFFFFFFFFFFFF000FFFFFFFFFFFFFFFFFFFFFFFFFFFFFFFFFFFFFFFFFFFF
310
FFFFFFFFFFFFFFFFFFFFFFFFFFFFFFFFFFFFFFFFFFFFFFFFFFFFFFFFFFFFFFFF
310
FFFFFFFFFFFFFFFFFFFFFFFFFFFFFFFFFFFFFFFFFFFFFFFFFFFFFFFFFFFFFFFF
310
F000FFFFFFFFFFFFFFFFFFFFFFFFFFFFFFFFFFFFFFFFFFFFFFFFFFFFFFFFFFFF
310
FFFFFFFFFFFFFFFFFFFFFFFFFFFFFFFFFFFFFFFFFFFFFFFFFFFFFFFFFFFFFFFF
310
FFFFFFFFFFFFFFFFFFFFFFFFFFFFFFFFFFFFFFFFFFFFFFFFF000FFFFFFFFFFFF
310
FFFFFFFFFFFFFFFFFFFFFFFFFFFFFFFFFFFFFFFFFFFFFFFFFFFFFFFFFFFFFFFF
310
FFFFFFFFFFFFFFFFFFFFFFFFFFFFFFFFFFFFFFFFFFFFFFFFFFFFFFFFFFFFFFFF
310
FFFFFFFFFFFFFFFFFFFFFFFFFFFFFFFFF000FFFFFFFFFFFFFFFFFFFFFFFFFFFF
310
FFFFFFFFFFFFFFFFFFFFFFFFFFFFFFFFFFFFFFFFFFFFFFFFFFFFFFFFFFFFFFFF
310
FFFFFFFFFFFFFFFFFFFFFFFFFFFFFFFFFFFFFFFFFFFFFFFFFFFFFFFFFFFFFFFF
310
FFFFFFFFFFFFFFFFF000FFFFF80003FFFFFFFFFFFFFFFFFFFFFFFFFFFFFFFFFF
310
FFFFF00007FFFFFFFFFF00007FFFFFF800000000000000007FFFFFFFFFFFFFFF
310
FFFFFFFC001FFFFFFFFFFFFFFC001FFFFFFFFFFFFFFFFFFFFFFFFFFE0007FFFF
310
F000FFFF8000007FFFFFFFF8000FFFFFC0007FFFFF80007FFFFF0000007FFFFF
310
FFF8000007FFFFF800000000000000007FFFFFF0001FFFFFFFFFFFC00001FFFF
310
FFFFFFFFC00001FFFFFFFF000000000003FFFFE000007FFFF000FFFE0000000F
310
FFFFFFF0000FFFFF80007FFFFF80007FFFFC0000001FFFFFFFC0000001FFFFF8
310
00000000000000007FFFFFF0001FFFFFFFFFFE0000003FFFFFFFFFFE0000003F
310
FFFFFF000000000003FFFF0000000FFFF000FFF800000003FFFFFFF00007FFFF
310
80007FFFFF80007FFFF000000007FFFFFF000000003FFFF80000000000000000
310
7FFFFFF0001FFFFFFFFFF80000000FFFFFFFFFF80000000FFFFFFF0000000000
310
03FFFC00000003FFF000FFE000000000FFFFFFF00007FFFF80003FFFFF80007F
310
FFC000000001FFFFFC000000001FFFF800000000000000007FFFFFF0001FFFFF
310
FFFFE000000003FFFFFFFFE000000003FFFFFF000000000003FFF000000000FF
310
F000FF80000000007FFFFFF00007FFFF80003FFFFF80007FFF8000000000FFFF
310
F80000000007FFF800000000000000007FFFFFF0001FFFFFFFFFC000000001FF
310
FFFFFFC000000001FFFFFF000000000003FFC0000000007FF000FF0000000000
310
3FFFFFE00007FFFF00003FFFFF80007FFE00000000003FFFF00000000003FFF8
310
00000000000000007FFFFFF0001FFFFFFFFF8000000000FFFFFFFF8000000000
310
FFFFFF000000000003FF80000000003FF000FE00000000001FFFFFE00003FFFF
310
00003FFFFF80007FFC00000000001FFFE00000000001FFF8000001FFFE000000
310
7FFFFFF0001FFFFFFFFE00000000003FFFFFFE00000000003FFFFF0000000000
310
03FF00000000001FF000FC00000000000FFFFFE00003FFFF00001FFFFF80007F
310
F800000000001FFFC00000000000FFF8000001FFFE0000007FFFFFF0001FFFFF
310
FFFC00000000001FFFFFFC00000000001FFFFF000000000003FE00000000000F
310
F000F8000000000007FFFFE00003FFFF00001FFFFF80007FF800000000000FFF
310
800000000000FFF8000001FFFE0000007FFFFFF0001FFFFFFFF800000000000F
310
FFFFF800000000000FFFFF000000000003FC000000000007F000F80000000000
310
03FFFFC00003FFFE00001FFFFF80007FF0000000000007FF0000000000007FF8
310
000001FFFE0000007FFFFFF0001FFFFFFFF0000000000007FFFFF00000000000
310
07FFFF000000000003F8000000000003F000F0000000000003FFFFC00001FFFE
310
00001FFFFF80007FE0000000000007FE0000000000003FF8000001FFFE000000
310
7FFFFFF0001FFFFFFFF0000000000007FFFFF0000000000007FFFF0000000000
310
03F800001F800003F000E00001FFF00001FFFFC00001FFFE00000FFFFF80007F
310
E00001FFE00003FE00001FFF00003FF8000001FFFE0000007FFFFFF0001FFFFF
310
FFE000003E000003FFFFE000003E000003FFFF000000000003F00001FFF80001
310
F000E00007FFFC0001FFFFC00001FFFE00000FFFFF80007FC0000FFFFC0003FC
310
0000FFFFC0001FF8000001FFFE0000007FFFFFF0001FFFFFFFC00003FFE00001
310
FFFFC00003FFE00001FFFF0001FFFFFFFFF00007FFFE0001F000E0000FFFFF00
310
00FFFF800001FFFC00000FFFFF80007FC0001FFFFE0001FC0001FFFFE0001FF8
310
000001FFFE0000007FFFFFF0001FFFFFFF80000FFFF80000FFFF80000FFFF800
310
00FFFF0003FFFFFFFFE0000FFFFF8000F000C0003FFFFF8000FFFF800000FFFC
310
000007FFFF80007F80003FFFFF0001FC0003FFFFF0001FF8000001FFFE000000
310
7FFFFFF0001FFFFFFF80003FFFFE0000FFFF80003FFFFE0000FFFF0003FFFFFF
310
FFE0003FFFFF8000F000C0003FFFFF8000FFFF800000FFFC000007FFFF80007F
310
80007FFFFF8001F80007FFFFF8000FF8000001FFFE0000007FFFFFF0001FFFFF
310
FF00007FFFFF00007FFF00007FFFFF00007FFF0003FFFFFFFFE0003FFFFFC000
310
F000C0007FFFFFC000FFFF000000FFFC000007FFFF80007F8000FFFFFF8000F8
310
000FFFFFF8000FF8000001FFFE0000007FFFFFF0001FFFFFFF0000FFFFFF8000
310
7FFF0000FFFFFF80007FFF0003FFFFFFFFC0007FFFFFC00070008000FFFFFFC0
310
00FFFF000000FFF8000007FFFF80007F8000FFFFFF8000F8000FFFFFF8000FF8
310
000001FFFE0000007FFFFFF0001FFFFFFE0001FFFFFFC0003FFE0001FFFFFFC0
310
003FFF0003FFFFFFFFC0007FFFFFE00070008000FFFFFFC0007FFF0000007FF8
310
000003FFFF80007F0001FFFFFF8000F8000FFFFFF8000FF8000001FFFE000000
310
7FFFFFF0001FFFFFFE0001FFFFFFC0003FFE0001FFFFFFC0003FFF0003FFFFFF
310
FFC000FFFFFFE00070008000FFFFFFC0007FFF0000007FF8000003FFFF80007F
310
0001FFFFFF8000F8001FFFFFF8000FF8000001FFFE0000007FFFFFF0001FFFFF
310
FE0003FFFFFFE0003FFE0003FFFFFFE0003FFF0003FFFFFFFFC000FFFFFFE000
310
70008000FFFFFFC0007FFE0000007FF8000003FFFF80007F0001FFFFFF8000F0
310
001FFFFFF8000FF8000001FFFE0000007FFFFFF0001FFFFFFC0003FFFFFFE000
310
1FFC0003FFFFFFE0001FFF0003FFFFFFFFC000FFFFFFC00070008000FFFFFF80
310
007FFE0000007FF0000003FFFF80007F0001FFFFFF0000F0001FFFFFF8000FF8
310
000001FFFE0000007FFFFFF0001FFFFFFC0007FFFFFFF0001FFC0007FFFFFFF0
310
001FFF0003FFFFFFFFC000FFFFFFC00070008001FFFFFF0000FFFE0000003FF0
310
000001FFFF80007F0001FFFFFF0000F8001FFFFFF0000FF8000001FFFE000000
310
7FFFFFF0001FFFFFFC0007FFFFFFF0001FFC0007FFFFFFF0001FFF0003FFFFFF
310
FFC001FFFFFF80007000FFFFFFFFFE0000FFFE0008003FF0008001FFFF80007F
310
FFFFFFFFFC0000FFFFFFFFFFE0000FF8000001FFFE0000007FFFFFF0001FFFFF
310
F8000FFFFFFFF8000FF8000FFFFFFFF8000FFF0003FFFFFFFFFFFFFFFFFF0000
310
7000FFFFFFFFFC0000FFFC0008003FF0008001FFFF80007FFFFFFFFFF80001FF
310
FFFFFFFF80000FF8000001FFFE0000007FFFFFF0001FFFFFF8000FFFFFFFF800
310
0FF8000FFFFFFFF8000FFF0003FFFFFFFFFFFFFFFFFE0000F000FFFFFFFFE000
310
00FFFC000C003FE000C001FFFF80007FFFFFFFFFC00001FFFFFFFFFE00001FF8
310
000001FFFE0000007FFFFFF0001FFFFFF8000FFFFFFFF8000FF8000FFFFFFFF8
310
000FFF0003FFFFFFFFFFFFFFFFF00000F000FFFFFFFE000001FFFC000C001FE0
310
00C000FFFF80007FFFFFFFFE000001FFFFFFFFE000001FF80FFFFFFFFFFFFFC0
310
7FFFFFF0001FFFFFF8000FFFFFFFF8000FF8000FFFFFFFF8000FFF0003FFFFFF
310
FFFFFFFFFF800000F000FFFFFFC0000001FFFC001C001FE001C000FFFF80007F
310
FFFFFF80000003FFFFFFF80000001FF80FFFFFFFFFFFFFC07FFFFFF0001FFFFF
310
F8001FFFFFFFFC000FF8001FFFFFFFFC000FFF0003FFFFFFFFFFFFFFF0000001
310
F000FFFFF800000001FFF8001C001FE001C000FFFF80007FFFFFF800000003FF
310
FFFF800000003FF80FFFFFFFFFFFFFC07FFFFFF0001FFFFFF8001FFFFFFFFC00
310
0FF8001FFFFFFFFC000FFF0003FFFFFFFFFFFFFE00000001F000FFFFC0000000
310
03FFF8001E001FC001E000FFFF80007FFFFF8000000007FFFFFC000000003FF8
310
0FFFFFFFFFFFFFC07FFFFFF0001FFFFFF8001FFFFFFFFC000FF8001FFFFFFFFC
310
000FFF0003FFFFFFFFFFFFE000000003F000FFFE0000000007FFF8001E000FC0
310
01E0007FFF80007FFFFE0000000007FFFFE0000000007FF80FFFFFFFFFFFFFC0
310
7FFFFFF0001FFFFFF0001FFFFFFFFC0007F0001FFFFFFFFC0007FF0003FFFFFF
310
FFFFFF0000000003F000FFF80000000007FFF8001E000FC003E0007FFF80007F
310
FFF0000000000FFFFF8000000000FFF80FFFFFFFFFFFFFC07FFFFFF0001FFFFF
310
F0001FFFFFFFFC0007F0001FFFFFFFFC0007FF0003FFFFFFFFFFFC0000000007
310
F000FFE0000000000FFFF0003E000FC003E0007FFF80007FFFC0000000001FFF
310
FE0000000001FFF80FFFFFFFFFFFFFC07FFFFFF0001FFFFFF0001FFFFFFFFC00
310
07F0001FFFFFFFFC0007FF0003FFFFFFFFFFF0000000000FF000FFC000000000
310
1FFFF0003F000F8003F0003FFF80007FFF80000000003FFFF80000000003FFF8
310
0FFFFFFFFFFFFFC07FFFFFF0001FFFFFF0001FFFFFFFFC0007F0001FFFFFFFFC
310
0007FF0003FFFFFFFFFFE0000000001FF000FF00000000007FFFF0003F000780
310
03F0003FFF80007FFF00000000007FFFF00000000007FFF80FFFFFFFFFFFFFC0
310
7FFFFFF0001FFFFFF0001FFFFFFFFC0007F0001FFFFFFFFC0007FF0003FFFFFF
310
FFFF80000000007FF000FE0000000000FFFFE0003F00078007F0003FFF80007F
310
FE0000000001FFFFE0000000001FFFF80FFFFFFFFFFFFFC07FFFFFF0001FFFFF
310
F0001FFFFFFFFC0007F0001FFFFFFFFC0007FF0003FFFFFFFFFF0000000000FF
310
F000FC0000000003FFFFE0007F00078007F0003FFF80007FFC0000000007FFFF
310
C0000000007FFFF80FFFFFFFFFFFFFC07FFFFFF0001FFFFFF8001FFFFFFFFC00
310
0FF8001FFFFFFFFC000FFF0003FFFFFFFFFE0000000003FFF000FC000000000F
310
FFFFE0007F80070007F8001FFF80007FF8000000001FFFFF8000000001FFFFF8
310
0FFFFFFFFFFFFFC07FFFFFF0001FFFFFF8001FFFFFFFFC000FF8001FFFFFFFFC
310
000FFF0003FFFFFFFFFC000000000FFFF000F8000000007FFFFFE0007F800700
310
07F8001FFF80007FF000000000FFFFFF800000000FFFFFF80FFFFFFFFFFFFFC0
310
7FFFFFF0001FFFFFF8000FFFFFFFF8000FF8000FFFFFFFF8000FFF0003FFFFFF
310
FFFC000000007FFFF000F800000007FFFFFFC0007F8003000FF8001FFF80007F
310
F000000007FFFFFF000000007FFFFFF80FFFFFFFFFFFFFC07FFFFFF0001FFFFF
310
F8000FFFFFFFF8000FF8000FFFFFFFF8000FFF0003FFFFFFFFF80000000FFFFF
310
F000F0000000FFFFFFFFC000FF8003000FF8001FFF80007FE0000000FFFFFFFF
310
0000000FFFFFFFF8000001FFFE0000007FFFFFF0001FFFFFF8000FFFFFFFF800
310
0FF8000FFFFFFFF8000FFF0003FFFFFFFFF8000000FFFFFFF000F000000FFFFF
310
FFFFC000FFC002000FF8000FFF80007FE000001FFFFFFFFE000001FFFFFFFFF8
310
000001FFFE0000007FFFFFF0001FFFFFF8000FFFFFFFF8000FF8000FFFFFFFF8
310
000FFF0003FFFFFFFFF000001FFFFFFFF000E00000FFFFFFFFFFC000FFC00200
310
0FFC000FFF80007FE00001FFFFFFFFFE00001FFFFFFFFFF8000001FFFE000000
310
7FFFFFF0001FFFFFFC000FFFFFFFF8001FFC000FFFFFFFF8001FFF0003FFFFFF
310
FFF00001FFFFFFFFF000E00007FFFFFFFFFF8000FFC000001FFC000FFF80007F
310
C0000FFFFFFFFFFE0000FFFFFFFFFFF8000001FFFE0000007FFFFFF0001FFFFF
310
FC0007FFFFFFF0001FFC0007FFFFFFF0001FFF0003FFFFFFFFF00007FFFFFFFF
310
F000E0001FFFFFFFFFFF8000FFC000001FFC000FFF80007FC0003FFFFFFFFFFE
310
0001FFFFFFFFFFF8000001FFFE0000007FFFFFF0001FFFFFFC0007FFFFFFF000
310
1FFC0007FFFFFFF0001FFF0003FFFFFFFFF0001FFFFFFFFFF000E0003FFFFF00
310
03FF8001FFE000001FFC0007FF80007FC0007FFFFF0007FC0003FFFFF0003FF8
310
000001FFFE0000007FFFFFF0001FFFFFFC0003FFFFFFE0001FFC0003FFFFFFE0
310
001FFF0003FFFFFFFFF0003FFFFFFFFFF000E0003FFFFF0001FF8001FFE00000
310
1FFE0007FF80007FC0007FFFFE0003FC0007FFFFE0003FF8000001FFFE000000
310
7FFFFFF0001FFFFFFE0003FFFFFFE0003FFE0003FFFFFFE0003FFF0003FFFFFF
310
FFF0003FFFFF8001F000E0003FFFFF0001FF0001FFE000001FFE0007FF80007F
310
C0007FFFFE0003FC0007FFFFE0003FF8000001FFFE0000007FFFFFF0001FFFFF
310
FE0001FFFFFFC0003FFE0001FFFFFFC0003FFF0003FFFFFFFFF0003FFFFF0001
310
F000E0003FFFFF0003FF0001FFE000003FFE0007FF80007FC0007FFFFE0003FC
310
0007FFFFE0003FF8000001FFFE0000007FFFFFF0001FFFFFFF0001FFFFFFC000
310
7FFF0001FFFFFFC0007FFF0003FFFFFFFFF0003FFFFF0001F000E0003FFFFE00
310
03FF0003FFF000003FFE0003FF80007FC0007FFFFC0003FE0007FFFFE0003FF8
310
000001FFFE0000007FFFFFF0001FFFFFFF0000FFFFFF80007FFF0000FFFFFF80
310
007FFF0003FFFFFFFFF0003FFFFF0001F000E0003FFFFE0003FF0003FFF00000
310
3FFF0003FF80007FC0007FFFFC0007FE0007FFFFC0003FF8000001FFFE000000
310
7FFFFFF0001FFFFFFF80007FFFFF0000FFFF80007FFFFF0000FFFF0003FFFFFF
310
FFF0003FFFFF0003F000E0003FFFFC0003FE0003FFF000003FFF0003FF80007F
310
E0003FFFF80007FE0003FFFFC0007FF8000001FFFE0000007FFFFFF0001FFFFF
310
FF80003FFFFE0000FFFF80003FFFFE0000FFFF0003FFFFFFFFF0001FFFFE0003
310
F000F0001FFFF80003FE0003FFF000007FFF0001FF80007FE0003FFFF00007FE
310
0001FFFF80007FF8000001FFFE0000007FFFFFF0001FFFFFFFC0000FFFF80001
310
FFFFC0000FFFF80001FFFF0003FFFFFFFFF0001FFFFC0003F000F0000FFFF000
310
07FE0007FFF800007FFF0001FF80007FE0001FFFE00007FF0000FFFE00007FF8
310
000001FFFE0000007FFFFFF0001FFFFFFFC00003FFE00001FFFFC00003FFE000
310
01FFFF0003FFFFFFFFF8000FFFF80003F000F00003FFC00007FC0007FFF80000
310
7FFF8001FF80007FF00007FF80000FFF00007FF80000FFF8000001FFFE000000
310
7F80000000000001FFE000003E000003FFFFE000003E000003FFFF0003FFFFFF
310
FFF80003FFE00007F000F800000000000FFC0007FFF800007FFF8001FF80007F
310
F000000000000FFF000000000000FFF8000001FFFE0000007F80000000000001
310
FFF0000000000007FFFFF0000000000007FFFF0003FFFFFFFFFC00007E000007
310
F000F800000000000FFC0007FFF80000FFFF8000FF80007FF800000000001FFF
310
800000000001FFF8000001FFFE0000007F80000000000001FFF800000000000F
310
FFFFF800000000000FFFFF0003FFFFFFFFFC00000000000FF000FC0000000000
310
1FFC0007FFFC0000FFFF8000FF80007FF800000000003FFFC00000000001FFF8
310
000001FFFE0000007F80000000000001FFF800000000000FFFFFF80000000000
310
0FFFFF0003FFFFFFFFFE00000000001FF000FE00000000003FF8000FFFFC0000
310
FFFF8000FF80007FFC00000000003FFFC00000000003FFF8000001FFFE000000
310
7F80000000000001FFFC00000000001FFFFFFC00000000001FFFFF0003FFFFFF
310
FFFF00000000001FF000FF00000000003FF8000FFFFC0000FFFFC000FF80007F
310
FE00000000007FFFE00000000007FFF8000001FFFE0000007F80000000000001
310
FFFE00000000003FFFFFFE00000000003FFFFF0003FFFFFFFFFF80000000003F
310
F000FF80000000007FF8000FFFFC0001FFFFC0007F80007FFF0000000000FFFF
310
F0000000000FFFF800000000000000007F80000000000001FFFF8000000000FF
310
FFFFFF8000000000FFFFFF0003FFFFFFFFFFC0000000007FF000FFC000000000
310
FFF8000FFFFE0001FFFFC0007F80007FFF8000000001FFFFF8000000001FFFF8
310
00000000000000007F80000000000001FFFFC000000001FFFFFFFFC000000001
310
FFFFFF0003FFFFFFFFFFE000000000FFF000FFE000000003FFF0001FFFFE0001
310
FFFFC0007F80007FFFC000000007FFFFFE000000003FFFF80000000000000000
310
7F80000000000001FFFFE000000003FFFFFFFFE000000003FFFFFF0003FFFFFF
310
FFFFF000000003FFF000FFF80000000FFFF0001FFFFE0001FFFFE0007F80007F
310
FFF00000000FFFFFFF00000000FFFFF800000000000000007F80000000000001
310
FFFFF80000000FFFFFFFFFF80000000FFFFFFF0003FFFFFFFFFFFC0000000FFF
310
F000FFFE0000003FFFF0001FFFFE0003FFFFE0003F80007FFFFC0000003FFFFF
310
FFC0000003FFFFF800000000000000007F80000000000001FFFFFE0000003FFF
310
FFFFFFFE0000003FFFFFFF0003FFFFFFFFFFFF0000003FFFF000FFFF800000FF
310
FFF0001FFFFF0003FFFFE0003F80007FFFFF000001FFFFFFFFF800001FFFFFF8
310
00000000000000007F80000000000001FFFFFFC00001FFFFFFFFFFFFC00001FF
310
FFFFFF0003FFFFFFFFFFFFC00000FFFFF000FFFFF8000FFFFFFFFFFFFFFFFFFF
310
FFFFFFFFFFFFFFFFFFFFF0001FFFFFFFFFFF0000FFFFFFF80000000000000000
310
7FFFFFFFFFFFFFFFFFFFFFFC001FFFFFFFFFFFFFFC001FFFFFFFFFFFFFFFFFFF
310
FFFFFFFC001FFFFFF000FFFFFFFFFFFFFFFFFFFFFFFFFFFFFFFFFFFFFFFFFFFF
310
FFFFFFFFFFFFFFFFFFFFFFFFFFFFFFFFFFFFFFFFFFFFFFFFFFFFFFFFFFFFFFFF
310
FFFFFFFFFFFFFFFFFFFFFFFFFFFFFFFFFFFFFFFFFFFFFFFFFFFFFFFFFFFFFFFF
310
F000FFFFFFFFFFFFFFFFFFFFFFFFFFFFFFFFFFFFFFFFFFFFFFFFFFFFFFFFFFFF
310
FFFFFFFFFFFFFFFFFFFFFFFFFFFFFFFFFFFFFFFFFFFFFFFFFFFFFFFFFFFFFFFF
310
FFFFFFFFFFFFFFFFFFFFFFFFFFFFFFFFFFFFFFFFFFFFFFFFF000FFFFFFFFFFFF
310
FFFFFFFFFFFFFFFFFFFFFFFFFFFFFFFFFFFFFFFFFFFFFFFFFFFFFFFFFFFFFFFF
310
FFFFFFFFFFFFFFFFFFFFFFFFFFFFFFFFFFFFFFFFFFFFFFFFFFFFFFFFFFFFFFFF
310
FFFFFFFFFFFFFFFFFFFFFFFFFFFFFFFFF000FFFFFFFFFFFFFFFFFFFFFFFFFFFF
310
FFFFFFFFFFFFFFFFFFFFFFFFFFFFFFFFFFFFFFFFFFFFFFFFFFFFFFFFFFFFFFFF
310
FFFFFFFFFFFFFFFFFFFFFFFFFFFFFFFFFFFFFFFFFFFFFFFFFFFFFFFFFFFFFFFF
310
FFFFFFFFFFFFFFFFF000FFFFFFFFFFFFFFFFFFFFFFFFFFFFFFFFFFFFFFFFFFFF
310
FFFFFFFFFFFFFFFFFFFFFFFFFFFFFFFFFFFFFFFFFFFFFFFFFFFFFFFFFFFFFFFF
310
FFFFFFFFFFFFFFFFFFFFFFFFFFFFFFFFFFFFFFFFFFFFFFFFFFFFFFFFFFFFFFFF
310
F000FFFFFFFFFFFFFFFFFFFFFFFFFFFFFFFFFFFFFFFFFFFFFFFFFFFFFFFFFFFF
310
FFFFFFFFFFFFFFFFFFFFFFFFFFFFFFFFFFFFFFFFFFFFFFFFFFFFFFFFFFFFFFFF
310
FFFFFFFFFFFFFFFFFFFFFFFFFFFFFFFFFFFFFFFFFFFFFFFFF000FFFFFFFFFFFF
310
FFFFFFFFFFFFFFFFFFFFFFFFFFFFFFFFFFFFFFFFFFFFFFFFFFFFFFFFFFFFFFFF
310
FFFFFFFFFFFFFFFFFFFFFFFFFFFFFFFFFFFFFFFFFFFFFFFFFFFFFFFFFFFFFFFF
310
FFFFFFFFFFFFFFFFFFFFFFFFFFFFFFFFF000FFFFFFFFFFFFFFFFFFFFFFFFFFFF
310
FFFFFFFFFFFFFFFFFFFFFFFFFFFFFFFFFFFFFFFFFFFFFFFFFFFFFFFFFFFFFFFF
310
FFFFFFFFFFFFFFFFFFFFFFFFFFFFFFFFFFFFFFFFFFFFFFFFFFFFFFFFFFFFFFFF
310
FFFFFFFFFFFFFFFFF000FFFFFFFFFFFFFFFFFFFFFFFFFFFFFFFFFFFFFFFFFFFF
310
FFFFFFFFFFFFFFFFFFFFFFFFFFFFFFFFFFFFFFFFFFFFFFFFFFFFFFFFFFFFFFFF
310
FFFFFFFFFFFFFFFFFFFFFFFFFFFFFFFFFFFFFFFFFFFFFFFFFFFFFFFFFFFFFFFF
310
F000FFFFFFFFFFFFFFFFFFFFFFFFFFFFFFFFFFFFFFFFFFFFFFFFFFFFFFFFFFFF
310
FFFFFFFFFFFFFFFFFFFFFFFFFFFFFFFFFFFFFFFFFFFFFFFFFFFFFFFFFFFFFFFF
310
FFFFFFFFFFFFFFFFFFFFFFFFFFFFFFFFFFFFFFFFFFFFFFFFF000FFFFFFFFFFFF
310
FFFFFFFFFFFFFFFFFFFFFFFFFFFFFFFFFFFFFFFFFFFFFFFFFFFFFFFFFFFFFFFF
310
FFFFFFFFFFFFFFFFFFFFFFFFFFFFFFFFFFFFFFFFFFFFFFFFFFFFFFFFFFFFFFFF
310
FFFFFFFFFFFFFFFFFFFFFFFFFFFFFFFFF000FFFFFFFFFFFFFFFFFFFFFFFFFFFF
310
FFFFFFFFFFFFFFFFFFFFFFFFFFFFFFFFFFFFFFFFFFFFFFFFFFFFFFFFFFFFFFFF
310
FFFFFFFFFFFFFFFFFFFFFFFFFFFFFFFFFFFFFFFFFFFFFFFFFFFFFFFFFFFFFFFF
310
FFFFFFFFFFFFFFFFF000FFFFFFFFFFFFFFFFFFFFFFFFFFFFFFFFFFFFFFFFFFFF
310
FFFFFFFFFFFFFFFFFFFFFFFFFFFFFFFFFFFFFFFFFFFFFFFFFFFFFFFFFFFFFFFF
310
FFFFFFFFFFFFFFFFFFFFFFFFFFFFFFFFFFFFFFFFFFFFFFFFFFFFFFFFFFFFFFFF
310
F000FFFFFFFFFFFFFFFFFFFFFFFFFFFFFFFFFFFFFFFFFFFFFFFFFFFFFFFFFFFF
310
FFFFFFFFFFFFFFFFFFFFFFFFFFFFFFFFFFFFFFFFFFFFFFFFFFFFFFFFFFFFFFFF
310
FFFFFFFFFFFFFFFFFFFFFFFFFFFFFFFFFFFFFFFFFFFFFFFFF000FFFFFFFFFFFF
310
FFFFFFFFFFFFFFFFFFFFFFFFFFFFFFFFFFFFFFFFFFFFFFFFFFFFFFFFFFFFFFFF
310
FFFFFFFFFFFFFFFFFFFFFFFFFFFFFFFFFFFFFFFFFFFFFFFFFFFFFFFFFFFFFFFF
310
FFFFFFFFFFFFFFFFFFFFFFFFFFFFFFFFF000FFFFFFFFFFFFFFFFFFFFFFFFFFFF
310
FFFFFFFFFFFFFFFFFFFFFFFFFFFFFFFFFFFFFFFFFFFFFFFFFFFFFFFFFFFFFFFF
310
FFFFFFFFFFFFFFFFFFFFFFFFFFFFFFFFFFFFFFFFFFFFFFFFFFFFFFFFFFFFFFFF
310
FFFFFFFFFFFFFFFFF000FFFFFFFFFFFFFFFFFFFFFFFFFFFFFFFFFFFFFFFFFFFF
310
FFFFFFFFFFFFFFFFFFFFFFFFFFFFFFFFFFFFFFFFFFFFFFFFFFFFFFFFFFFFFFFF
310
FFFFFFFFFFFFFFFFFFFFFFFFFFFFFFFFFFFFFFFFFFFFFFFFFFFFFFFFFFFFFFFF
310
F000FFFFFFFFFFFFFFFFFFFFFFFFFFFFFFFFFFFFFFFFFFFFFFFFFFFFFFFFFFFF
310
FFFFFFFFFFFFFFFFFFFFFFFFFFFFFFFFFFFFFFFFFFFFFFFFFFFFFFFFFFFFFFFF
310
FFFFFFFFFFFFFFFFFFFFFFFFFFFFFFFFFFFFFFFFFFFFFFFFF000FFFFFFFFFFFF
310
FFFFFFFFFFFFFFFFFFFFFFFFFFFFFFFFFFFFFFFFFFFFFFFFFFFFFFFFFFFFFFFF
310
FFFFFFFFFFFFFFFFFFFFFFFFFFFFFFFFFFFFFFFFFFFFFFFFFFFFFFFFFFFFFFFF
310
FFFFFFFFFFFFFFFFFFFFFFFFFFFFFFFFF000FFFFFFFFFFFFFFFFFFFFFFFFFFFF
310
FFFFFFFFFFFFFFFFFFFFFFFFFFFFFFFFFFFFFFFFFFFFFFFFFFFFFFFFFFFFFFFF
310
FFFFFFFFFFFFFFFFFFFFFFFFFFFFFFFFFFFFFFFFFFFFFFFFFFFFFFFFFFFFFFFF
310
FFFFFFFFFFFFFFFFF000FFFFFFFFFFFFFFFFFFFFFFFFFFFFFFFFFFFFFFFFFFFF
310
FFFFFFFFFFFFFFFFFFFFFFFFFFFFFFFFFFFFFFFFFFFFFFFFFFFFFFFFFFFFFFFF
310
FFFFFFFFFFFFFFFFFFFFFFFFFFFFFFFFFFFFFFFFFFFFFFFFFFFFFFFFFFFFFFFF
310
F000FFFFFFFFFFFFFFFFFFFFFFFFFFFFFFFFFFFFFFFFFFFFFFFFFFFFFFFFFFFF
310
FFFFFFFFFFFFFFFFFFFFFFFFFFFFFFFFFFFFFFFFFFFFFFFFFFFFFFFFFFFFFFFF
310
FFFFFFFFFFFFFFFFFFFFFFFFFFFFFFFFFFFFFFFFFFFFFFFFF000FFFFFFFFFFFF
310
FFFFFFFFFFFFFFFFFFFFFFFFFFFFFFFFFFFFFFFFFFFFFFFFFFFFFFFFFFFFFFFF
310
FFFFFFFFFFFFFFFFFFFFFFFFFFFFFFFFFFFFFFFFFFFFFFFFFFFFFFFFFFFFFFFF
310
FFFFFFFFFFFFFFFFFFFFFFFFFFFFFFFFF0000000000000000000000000000000
310
0000000000000000000000000000000000000000000000000000000000000000
310
0000000000000000000000000000000000000000000000000000000000000000
310
0000000000000000000000000000000000000000000000000000000000000000
310
0000000000000000000000000000000000000000000000000000000000000000
310
0000000000000000000000000000000000000000000000000000000000000000
310
0000000000000000000000000000000000000000000000000000000000000000
310
0000000000000000000000000000000000000000000000000000000000000000
310
0000000000000000000000000000000000000000000000000000000000000000
310
0000000000000000000000000000000000000000000000000000000000000000
310
0000000000000000000000000000000000000000000000000000000000000000
310
0000000000000000000000000000000000000000000000000000000000000000
310
0000000000000000000000000000000000000000000000000000000000000000
310
0000000000000000000000000000000000000000000000000000000000000000
310
0000000000000000000000000000000000000000000000000000000000000000
310
0000000000000000000000000000000000000000000000000000000000000000
  1
OLE
  0
ENDSEC
  0
SECTION
  2
OBJECTS
  0
DICTIONARY
  5
C
330
0
100
AcDbDictionary
281
     1
  3
ACAD_GROUP
350
D
  3
ACAD_LAYOUT
350
1A
  3
ACAD_MLINESTYLE
350
17
  3
ACAD_PLOTSETTINGS
350
19
  3
ACAD_PLOTSTYLENAME
350
E
  0
DICTIONARY
  5
D
102
{ACAD_REACTORS
330
C
102
}
330
C
100
AcDbDictionary
281
     1
  0
DICTIONARY
  5
1A
102
{ACAD_REACTORS
330
C
102
}
330
C
100
AcDbDictionary
281
     1
  3
Layout1
350
1E
  3
Layout2
350
26
  3
Model
350
22
  0
DICTIONARY
  5
17
102
{ACAD_REACTORS
330
C
102
}
330
C
100
AcDbDictionary
281
     1
  3
Standard
350
18
  0
DICTIONARY
  5
19
102
{ACAD_REACTORS
330
C
102
}
330
C
100
AcDbDictionary
281
     1
  0
ACDBDICTIONARYWDFLT
  5
E
102
{ACAD_REACTORS
330
C
102
}
330
C
100
AcDbDictionary
281
     1
  3
Normal
350
F
100
AcDbDictionaryWithDefault
340
F
  0
LAYOUT
  5
1E
102
{ACAD_REACTORS
330
1A
102
}
330
1A
100
AcDbPlotSettings
  1

  2
none_device
  4

  6

 40
0.0
 41
0.0
 42
0.0
 43
0.0
 44
0.0
 45
0.0
 46
0.0
 47
0.0
 48
0.0
 49
0.0
140
0.0
141
0.0
142
1.0
143
1.0
 70
   688
 72
     0
 73
     0
 74
     5
  7

 75
    16
147
1.0
148
0.0
149
0.0
100
AcDbLayout
  1
Layout1
 70
     1
 71
     1
 10
0.0
 20
0.0
 11
420.0
 21
297.0
 12
0.0
 22
0.0
 32
0.0
 14
1.0000000000E+20
 24
1.0000000000E+20
 34
1.0000000000E+20
 15
-1.0000000000E+20
 25
-1.0000000000E+20
 35
-1.0000000000E+20
146
0.0
 13
0.0
 23
0.0
 33
0.0
 16
1.0
 26
0.0
 36
0.0
 17
0.0
 27
1.0
 37
0.0
 76
     0
330
1B
  0
LAYOUT
  5
26
102
{ACAD_REACTORS
330
1A
102
}
330
1A
100
AcDbPlotSettings
  1

  2
none_device
  4

  6

 40
0.0
 41
0.0
 42
0.0
 43
0.0
 44
0.0
 45
0.0
 46
0.0
 47
0.0
 48
0.0
 49
0.0
140
0.0
141
0.0
142
1.0
143
1.0
 70
   688
 72
     0
 73
     0
 74
     5
  7

 75
    16
147
1.0
148
0.0
149
0.0
100
AcDbLayout
  1
Layout2
 70
     1
 71
     2
 10
0.0
 20
0.0
 11
0.0
 21
0.0
 12
0.0
 22
0.0
 32
0.0
 14
0.0
 24
0.0
 34
0.0
 15
0.0
 25
0.0
 35
0.0
146
0.0
 13
0.0
 23
0.0
 33
0.0
 16
1.0
 26
0.0
 36
0.0
 17
0.0
 27
1.0
 37
0.0
 76
     0
330
23
  0
LAYOUT
  5
22
102
{ACAD_REACTORS
330
1A
102
}
330
1A
100
AcDbPlotSettings
  1

  2
none_device
  4

  6

 40
0.0
 41
0.0
 42
0.0
 43
0.0
 44
0.0
 45
0.0
 46
0.0
 47
0.0
 48
0.0
 49
0.0
140
0.0
141
0.0
142
1.0
143
1.0
 70
  1712
 72
     0
 73
     0
 74
     0
  7

 75
     0
147
1.0
148
0.0
149
0.0
100
AcDbLayout
  1
Model
 70
     1
 71
     0
 10
0.0
 20
0.0
 11
297.0
 21
210.0
 12
0.0
 22
0.0
 32
0.0
 14
0.0
 24
0.0
 34
0.0
 15
297.0
 25
210.0
 35
0.0
146
0.0
 13
0.0
 23
0.0
 33
0.0
 16
1.0
 26
0.0
 36
0.0
 17
0.0
 27
1.0
 37
0.0
 76
     0
330
1F
331
29
  0
MLINESTYLE
  5
18
102
{ACAD_REACTORS
330
17
102
}
330
17
100
AcDbMlineStyle
  2
Standard
 70
     0
  3

 62
   256
 51
90.0
 52
90.0
 71
     2
 49
0.5
 62
   256
  6
BYLAYER
 49
-0.5
 62
   256
  6
BYLAYER
  0
ACDBPLACEHOLDER
  5
F
102
{ACAD_REACTORS
330
E
102
}
330
E
  0
ENDSEC
  0
EOF
