  0
SECTION
  2
HEADER
  9
$ACADVER
  1
AC1015
  9
$ACADMAINTVER
 70
     6
  9
$DWGCODEPAGE
  3
ANSI_1252
  9
$INSBASE
 10
0.0
 20
0.0
 30
0.0
  9
$EXTMIN
 10
0.0
 20
0.0
 30
0.0
  9
$EXTMAX
 10
297.0
 20
210.0
 30
0.0
  9
$LIMMIN
 10
0.0
 20
0.0
  9
$LIMMAX
 10
297.0
 20
210.0
  9
$ORTHOMODE
 70
     0
  9
$REGENMODE
 70
     1
  9
$FILLMODE
 70
     1
  9
$QTEXTMODE
 70
     0
  9
$MIRRTEXT
 70
     1
  9
$LTSCALE
 40
1.0
  9
$ATTMODE
 70
     1
  9
$TEXTSIZE
 40
2.0
  9
$TRACEWID
 40
1.0
  9
$TEXTSTYLE
  7
Standard
  9
$CLAYER
  8
0
  9
$CELTYPE
  6
ByLayer
  9
$CECOLOR
 62
   256
  9
$CELTSCALE
 40
1.0
  9
$DISPSILH
 70
     0
  9
$DIMSCALE
 40
1.0
  9
$DIMASZ
 40
3.0
  9
$DIMEXO
 40
0.0
  9
$DIMDLI
 40
3.75
  9
$DIMRND
 40
0.0
  9
$DIMDLE
 40
0.0
  9
$DIMEXE
 40
1.0
  9
$DIMTP
 40
0.0
  9
$DIMTM
 40
0.0
  9
$DIMTXT
 40
2.0
  9
$DIMCEN
 40
2.5
  9
$DIMTSZ
 40
0.0
  9
$DIMTOL
 70
     0
  9
$DIMLIM
 70
     0
  9
$DIMTIH
 70
     1
  9
$DIMTOH
 70
     1
  9
$DIMSE1
 70
     0
  9
$DIMSE2
 70
     0
  9
$DIMTAD
 70
     1
  9
$DIMZIN
 70
     0
  9
$DIMBLK
  1

  9
$DIMASO
 70
     1
  9
$DIMSHO
 70
     1
  9
$DIMPOST
  1

  9
$DIMAPOST
  1

  9
$DIMALT
 70
     0
  9
$DIMALTD
 70
     3
  9
$DIMALTF
 40
0.0393700787
  9
$DIMLFAC
 40
1.0
  9
$DIMTOFL
 70
     1
  9
$DIMTVP
 40
0.0
  9
$DIMTIX
 70
     0
  9
$DIMSOXD
 70
     0
  9
$DIMSAH
 70
     0
  9
$DIMBLK1
  1

  9
$DIMBLK2
  1

  9
$DIMSTYLE
  2
ISO-25
  9
$DIMCLRD
 70
     0
  9
$DIMCLRE
 70
     0
  9
$DIMCLRT
 70
     0
  9
$DIMTFAC
 40
1.0
  9
$DIMGAP
 40
1.524
  9
$DIMJUST
 70
     0
  9
$DIMSD1
 70
     0
  9
$DIMSD2
 70
     0
  9
$DIMTOLJ
 70
     0
  9
$DIMTZIN
 70
     0
  9
$DIMALTZ
 70
     0
  9
$DIMALTTZ
 70
     0
  9
$DIMUPT
 70
     0
  9
$DIMDEC
 70
     2
  9
$DIMTDEC
 70
     3
  9
$DIMALTU
 70
     2
  9
$DIMALTTD
 70
     3
  9
$DIMTXSTY
  7
Standard
  9
$DIMAUNIT
 70
     0
  9
$DIMADEC
 70
     2
  9
$DIMALTRND
 40
0.0
  9
$DIMAZIN
 70
     0
  9
$DIMDSEP
 70
    44
  9
$DIMATFIT
 70
     3
  9
$DIMFRAC
 70
     0
  9
$DIMLDRBLK
  1

  9
$DIMLUNIT
 70
     2
  9
$DIMLWD
 70
    -2
  9
$DIMLWE
 70
    -2
  9
$DIMTMOVE
 70
     0
  9
$LUNITS
 70
     2
  9
$LUPREC
 70
     2
  9
$SKETCHINC
 40
1.0
  9
$FILLETRAD
 40
10.0
  9
$AUNITS
 70
     0
  9
$AUPREC
 70
     2
  9
$MENU
  1
.
  9
$ELEVATION
 40
0.0
  9
$PELEVATION
 40
0.0
  9
$THICKNESS
 40
0.0
  9
$LIMCHECK
 70
     0
  9
$CHAMFERA
 40
10.0
  9
$CHAMFERB
 40
10.0
  9
$CHAMFERC
 40
20.0
  9
$CHAMFERD
 40
0.0
  9
$SKPOLY
 70
     0
  9
$TDCREATE
 40
2456072.528722755
  9
$TDUCREATE
 40
2456072.445389421
  9
$TDUPDATE
 40
2456072.528724375
  9
$TDUUPDATE
 40
2456072.445391042
  9
$TDINDWG
 40
0.0000000116
  9
$TDUSRTIMER
 40
0.0000000116
  9
$USRTIMER
 70
     1
  9
$ANGBASE
 50
0.0
  9
$ANGDIR
 70
     0
  9
$PDMODE
 70
     0
  9
$PDSIZE
 40
-1.0
  9
$PLINEWID
 40
0.0
  9
$SPLFRAME
 70
     0
  9
$SPLINETYPE
 70
     6
  9
$SPLINESEGS
 70
     8
  9
$HANDSEED
  5
28D
  9
$SURFTAB1
 70
     6
  9
$SURFTAB2
 70
     6
  9
$SURFTYPE
 70
     6
  9
$SURFU
 70
     6
  9
$SURFV
 70
     6
  9
$UCSBASE
  2

  9
$UCSNAME
  2

  9
$UCSORG
 10
0.0
 20
0.0
 30
0.0
  9
$UCSXDIR
 10
1.0
 20
0.0
 30
0.0
  9
$UCSYDIR
 10
0.0
 20
1.0
 30
0.0
  9
$UCSORTHOREF
  2

  9
$UCSORTHOVIEW
 70
     0
  9
$UCSORGTOP
 10
0.0
 20
0.0
 30
0.0
  9
$UCSORGBOTTOM
 10
0.0
 20
0.0
 30
0.0
  9
$UCSORGLEFT
 10
0.0
 20
0.0
 30
0.0
  9
$UCSORGRIGHT
 10
0.0
 20
0.0
 30
0.0
  9
$UCSORGFRONT
 10
0.0
 20
0.0
 30
0.0
  9
$UCSORGBACK
 10
0.0
 20
0.0
 30
0.0
  9
$PUCSBASE
  2

  9
$PUCSNAME
  2

  9
$PUCSORG
 10
0.0
 20
0.0
 30
0.0
  9
$PUCSXDIR
 10
1.0
 20
0.0
 30
0.0
  9
$PUCSYDIR
 10
0.0
 20
1.0
 30
0.0
  9
$PUCSORTHOREF
  2

  9
$PUCSORTHOVIEW
 70
     0
  9
$PUCSORGTOP
 10
0.0
 20
0.0
 30
0.0
  9
$PUCSORGBOTTOM
 10
0.0
 20
0.0
 30
0.0
  9
$PUCSORGLEFT
 10
0.0
 20
0.0
 30
0.0
  9
$PUCSORGRIGHT
 10
0.0
 20
0.0
 30
0.0
  9
$PUCSORGFRONT
 10
0.0
 20
0.0
 30
0.0
  9
$PUCSORGBACK
 10
0.0
 20
0.0
 30
0.0
  9
$USERI1
 70
     0
  9
$USERI2
 70
     0
  9
$USERI3
 70
     0
  9
$USERI4
 70
     0
  9
$USERI5
 70
     0
  9
$USERR1
 40
0.0
  9
$USERR2
 40
0.0
  9
$USERR3
 40
0.0
  9
$USERR4
 40
0.0
  9
$USERR5
 40
0.0
  9
$WORLDVIEW
 70
     1
  9
$SHADEDGE
 70
     3
  9
$SHADEDIF
 70
    70
  9
$TILEMODE
 70
     1
  9
$MAXACTVP
 70
    64
  9
$PINSBASE
 10
0.0
 20
0.0
 30
0.0
  9
$PLIMCHECK
 70
     0
  9
$PEXTMIN
 10
1.0000000000E+20
 20
1.0000000000E+20
 30
1.0000000000E+20
  9
$PEXTMAX
 10
-1.0000000000E+20
 20
-1.0000000000E+20
 30
-1.0000000000E+20
  9
$PLIMMIN
 10
0.0
 20
0.0
  9
$PLIMMAX
 10
420.0
 20
297.0
  9
$UNITMODE
 70
     0
  9
$VISRETAIN
 70
     1
  9
$PLINEGEN
 70
     0
  9
$PSLTSCALE
 70
     1
  9
$TREEDEPTH
 70
  3020
  9
$CMLSTYLE
  2
Standard
  9
$CMLJUST
 70
     0
  9
$CMLSCALE
 40
20.0
  9
$PROXYGRAPHICS
 70
     1
  9
$MEASUREMENT
 70
     1
  9
$CELWEIGHT
370
    -1
  9
$ENDCAPS
280
     0
  9
$JOINSTYLE
280
     0
  9
$LWDISPLAY
290
     1
  9
$INSUNITS
 70
     4
  9
$HYPERLINKBASE
  1

  9
$STYLESHEET
  1

  9
$XEDIT
290
     1
  9
$CEPSNTYPE
380
     0
  9
$PSTYLEMODE
290
     1
  9
$FINGERPRINTGUID
  2
{0236EE85-291C-41B6-98CD-D97FCF866AE5}
  9
$VERSIONGUID
  2
{FAEB1C32-E019-11D5-929B-00C0DF256EC4}
  9
$EXTNAMES
290
     1
  9
$PSVPSCALE
 40
0.0
  9
$OLESTARTUP
290
     0
  0
ENDSEC
  0
SECTION
  2
CLASSES
  0
CLASS
  1
ACDBDICTIONARYWDFLT
  2
AcDbDictionaryWithDefault
  3
ObjectDBX Classes
 90
        0
280
     0
281
     0
  0
CLASS
  1
VISUALSTYLE
  2
AcDbVisualStyle
  3
ObjectDBX Classes
 90
     4095
280
     0
281
     0
  0
CLASS
  1
MATERIAL
  2
AcDbMaterial
  3
ObjectDBX Classes
 90
     1153
280
     0
281
     0
  0
CLASS
  1
ACDBPLACEHOLDER
  2
AcDbPlaceHolder
  3
ObjectDBX Classes
 90
        0
280
     0
281
     0
  0
CLASS
  1
LAYOUT
  2
AcDbLayout
  3
ObjectDBX Classes
 90
        0
280
     0
281
     0
  0
ENDSEC
  0
SECTION
  2
TABLES
  0
TABLE
  2
VPORT
  5
8
330
0
100
AcDbSymbolTable
 70
     1
  0
VPORT
  5
29
330
8
100
AcDbSymbolTableRecord
100
AcDbViewportTableRecord
  2
*Active
 70
     0
 10
0.0
 20
0.0
 11
1.0
 21
1.0
 12
148.5
 22
105.0
 13
0.0
 23
0.0
 14
10.0
 24
10.0
 15
10.0
 25
10.0
 16
0.0
 26
0.0
 36
1.0
 17
0.0
 27
0.0
 37
0.0
 40
210.0
 41
1.4142857143
 42
50.0
 43
0.0
 44
0.0
 50
0.0
 51
0.0
 71
     0
 72
  2000
 73
     1
 74
     3
 75
     0
 76
     0
 77
     0
 78
     0
281
     0
 65
     1
110
0.0
120
0.0
130
0.0
111
1.0
121
0.0
131
0.0
112
0.0
122
1.0
132
0.0
 79
     0
146
0.0
  0
ENDTAB
  0
TABLE
  2
LTYPE
  5
5
330
0
100
AcDbSymbolTable
 70
     6
  0
LTYPE
  5
14
330
5
100
AcDbSymbolTableRecord
100
AcDbLinetypeTableRecord
  2
ByBlock
 70
     0
  3

 72
    65
 73
     0
 40
0.0
  0
LTYPE
  5
15
330
5
100
AcDbSymbolTableRecord
100
AcDbLinetypeTableRecord
  2
ByLayer
 70
     0
  3

 72
    65
 73
     0
 40
0.0
  0
LTYPE
  5
16
330
5
100
AcDbSymbolTableRecord
100
AcDbLinetypeTableRecord
  2
Continuous
 70
     0
  3
Solid line
 72
    65
 73
     0
 40
0.0
  0
LTYPE
  5
3F
330
5
100
AcDbSymbolTableRecord
100
AcDbLinetypeTableRecord
  2
HIDDEN
 70
     0
  3
Hidden __ __ __ __ __ __ __ __ __ __ __ __ __ __
 72
    65
 73
     2
 40
1.905
 49
1.27
 74
     0
 49
-0.635
 74
     0
  0
LTYPE
  5
40
330
5
100
AcDbSymbolTableRecord
100
AcDbLinetypeTableRecord
  2
PHANTOM
 70
     0
  3
Phantom ______  __  __  ______  __  __  ______
 72
    65
 73
     6
 40
12.7
 49
6.35
 74
     0
 49
-1.27
 74
     0
 49
1.27
 74
     0
 49
-1.27
 74
     0
 49
1.27
 74
     0
 49
-1.27
 74
     0
  0
LTYPE
  5
41
330
5
100
AcDbSymbolTableRecord
100
AcDbLinetypeTableRecord
  2
CENTER
 70
     0
  3
Center ____ _ ____ _ ____ _ ____ _ ____ _ ____
 72
    65
 73
     4
 40
10.16
 49
6.35
 74
     0
 49
-1.27
 74
     0
 49
1.27
 74
     0
 49
-1.27
 74
     0
  0
LTYPE
  5
42
330
5
100
AcDbSymbolTableRecord
100
AcDbLinetypeTableRecord
  2
CENTERX2
 70
     0
  3
Center (2x) ________  __  ________  __  _____
 72
    65
 73
     4
 40
20.32
 49
12.7
 74
     0
 49
-2.54
 74
     0
 49
2.54
 74
     0
 49
-2.54
 74
     0
  0
LTYPE
  5
43
330
5
100
AcDbSymbolTableRecord
100
AcDbLinetypeTableRecord
  2
DOT2
 70
     0
  3
Dot (.5x) ........................................
 72
    65
 73
     2
 40
0.635
 49
0.0
 74
     0
 49
-0.635
 74
     0
  0
ENDTAB
  0
TABLE
  2
LAYER
  5
2
330
0
100
AcDbSymbolTable
 70
     5
  0
LAYER
  5
10
330
2
100
AcDbSymbolTableRecord
100
AcDbLayerTableRecord
  2
0
 70
     0
 62
     7
  6
Continuous
370
    -3
390
F
  0
LAYER
  5
44
330
2
100
AcDbSymbolTableRecord
100
AcDbLayerTableRecord
  2
FORMAT
 70
     0
 62
     7
  6
Continuous
370
    -3
390
F
  0
LAYER
  5
45
330
2
100
AcDbSymbolTableRecord
100
AcDbLayerTableRecord
  2
VERMASSUNG
 70
     0
 62
     7
  6
Continuous
370
    -3
390
F
  0
LAYER
  5
46
330
2
100
AcDbSymbolTableRecord
100
AcDbLayerTableRecord
  2
KOPF_DÜNN
 70
     0
 62
     7
  6
Continuous
370
    -3
390
F
  0
LAYER
  5
47
330
2
100
AcDbSymbolTableRecord
100
AcDbLayerTableRecord
  2
KOPF_DICK
 70
     0
 62
     7
  6
Continuous
370
    15
390
F
  0
ENDTAB
  0
TABLE
  2
STYLE
  5
3
330
0
100
AcDbSymbolTable
 70
     2
  0
STYLE
  5
11
330
3
100
AcDbSymbolTableRecord
100
AcDbTextStyleTableRecord
  2
Standard
 70
     0
 40
0.0
 41
1.0
 50
0.0
 71
     0
 42
2.0
  3
txt
  4

  0
STYLE
  5
48
330
3
100
AcDbSymbolTableRecord
100
AcDbTextStyleTableRecord
  2
SLDTEXTSTYLE0
 70
     0
 40
0.0
 41
0.7
 50
0.0
 71
     0
 42
0.2
  3
TXT
  4

  0
ENDTAB
  0
TABLE
  2
VIEW
  5
6
330
0
100
AcDbSymbolTable
 70
     0
  0
ENDTAB
  0
TABLE
  2
UCS
  5
7
330
0
100
AcDbSymbolTable
 70
     0
  0
ENDTAB
  0
TABLE
  2
APPID
  5
9
330
0
100
AcDbSymbolTable
 70
     1
  0
APPID
  5
12
330
9
100
AcDbSymbolTableRecord
100
AcDbRegAppTableRecord
  2
ACAD
 70
     0
  0
ENDTAB
  0
TABLE
  2
DIMSTYLE
  5
A
330
0
100
AcDbSymbolTable
 70
     5
100
AcDbDimStyleTable
  0
DIMSTYLE
105
27
330
A
100
AcDbSymbolTableRecord
100
AcDbDimStyleTableRecord
  2
ISO-25
 70
     0
 41
2.5
 42
0.625
 43
3.75
 44
1.25
 73
     0
 74
     0
 77
     1
 78
     8
140
2.5
141
2.5
143
0.0393700787
147
0.625
171
     3
172
     1
178
     0
271
     2
272
     2
274
     3
278
    44
283
     0
284
     8
340
11
  0
DIMSTYLE
105
1C2
102
{ACAD_REACTORS
330
1C1
330
1CE
102
}
330
A
100
AcDbSymbolTableRecord
100
AcDbDimStyleTableRecord
  2
SLDDIMSTYLE0
 70
     0
 41
3.0
 44
0.0
 45
0.000000001
 47
0.1
 48
0.1
 71
     1
 73
     0
 74
     0
 77
     1
 78
    12
 79
     3
140
2.0
147
0.5
173
     1
178
     0
271
     2
272
     1
276
     2
284
     8
340
48
  0
DIMSTYLE
105
1DB
102
{ACAD_REACTORS
330
1DA
330
1EF
102
}
330
A
100
AcDbSymbolTableRecord
100
AcDbDimStyleTableRecord
  2
SLDDIMSTYLE1
 70
     0
 41
3.0
 44
0.0
 45
0.000000001
 73
     0
 74
     0
 77
     1
 78
    12
 79
     3
140
2.0
147
0.5
173
     1
178
     0
271
     2
272
     3
276
     2
284
    12
340
48
  0
DIMSTYLE
105
1E6
102
{ACAD_REACTORS
330
1E5
102
}
330
A
100
AcDbSymbolTableRecord
100
AcDbDimStyleTableRecord
  2
SLDDIMSTYLE2
 70
     0
 41
3.0
 44
0.0
 73
     0
 74
     0
 77
     1
 78
    12
 79
     3
140
2.0
147
0.5
173
     1
178
     0
179
     1
272
     3
276
     2
284
    12
340
48
  0
DIMSTYLE
105
272
102
{ACAD_REACTORS
330
271
102
}
330
A
100
AcDbSymbolTableRecord
100
AcDbDimStyleTableRecord
  2
SLDDIMSTYLE3
 70
     0
 41
3.0
 44
0.0
 45
0.000000001
 73
     0
 74
     0
 77
     1
 78
    12
 79
     3
140
2.0
147
0.5
172
     1
173
     1
178
     0
271
     2
272
     3
276
     2
284
    12
289
     0
340
48
  0
ENDTAB
  0
TABLE
  2
BLOCK_RECORD
  5
1
330
0
100
AcDbSymbolTable
 70
     8
  0
BLOCK_RECORD
  5
1F
330
1
100
AcDbSymbolTableRecord
100
AcDbBlockTableRecord
  2
*Model_Space
340
22
  0
BLOCK_RECORD
  5
1B
330
1
100
AcDbSymbolTableRecord
100
AcDbBlockTableRecord
  2
*Paper_Space
340
1E
  0
BLOCK_RECORD
  5
23
330
1
100
AcDbSymbolTableRecord
100
AcDbBlockTableRecord
  2
*Paper_Space0
340
26
  0
BLOCK_RECORD
  5
1C3
330
1
100
AcDbSymbolTableRecord
100
AcDbBlockTableRecord
  2
_D
340
0
  0
BLOCK_RECORD
  5
1CF
330
1
100
AcDbSymbolTableRecord
100
AcDbBlockTableRecord
  2
_D_1
340
0
  0
BLOCK_RECORD
  5
1DC
330
1
100
AcDbSymbolTableRecord
100
AcDbBlockTableRecord
  2
_D_2
340
0
  0
BLOCK_RECORD
  5
1E7
330
1
100
AcDbSymbolTableRecord
100
AcDbBlockTableRecord
  2
_D_3
340
0
  0
BLOCK_RECORD
  5
1F0
330
1
100
AcDbSymbolTableRecord
100
AcDbBlockTableRecord
  2
_D_4
340
0
  0
BLOCK_RECORD
  5
273
330
1
100
AcDbSymbolTableRecord
100
AcDbBlockTableRecord
  2
_D_5
340
0
  0
BLOCK_RECORD
  5
280
330
1
100
AcDbSymbolTableRecord
100
AcDbBlockTableRecord
  2
SW_CENTERMARKSYMBOL_0
340
0
102
{BLKREFS
331
28B
102
}
  0
ENDTAB
  0
ENDSEC
  0
SECTION
  2
BLOCKS
  0
BLOCK
  5
20
330
1F
100
AcDbEntity
  8
0
100
AcDbBlockBegin
  2
*Model_Space
 70
     0
 10
0.0
 20
0.0
 30
0.0
  3
*Model_Space
  1

  0
ENDBLK
  5
21
330
1F
100
AcDbEntity
  8
0
100
AcDbBlockEnd
  0
BLOCK
  5
1C
330
1B
100
AcDbEntity
 67
     1
  8
0
100
AcDbBlockBegin
  2
*Paper_Space
 70
     0
 10
0.0
 20
0.0
 30
0.0
  3
*Paper_Space
  1

  0
ENDBLK
  5
1D
330
1B
100
AcDbEntity
 67
     1
  8
0
100
AcDbBlockEnd
  0
BLOCK
  5
24
330
23
100
AcDbEntity
  8
0
100
AcDbBlockBegin
  2
*Paper_Space0
 70
     0
 10
0.0
 20
0.0
 30
0.0
  3
*Paper_Space0
  1

  0
ENDBLK
  5
25
330
23
100
AcDbEntity
  8
0
100
AcDbBlockEnd
  0
BLOCK
  5
1C4
330
1C3
100
AcDbEntity
  8
0
100
AcDbBlockBegin
  2
_D
 70
     0
 10
0.0
 20
0.0
 30
0.0
  3
_D
  1

  0
SOLID
  5
1C6
330
1C3
100
AcDbEntity
  8
VERMASSUNG
100
AcDbTrace
 10
182.9775926423
 20
70.9684482575
 30
0.0
 11
185.9775926423
 21
70.5184482575
 31
0.0
 12
185.9775926423
 22
71.4184482575
 32
0.0
 13
185.9775926423
 23
71.4184482575
 33
0.0
  0
SOLID
  5
1C7
330
1C3
100
AcDbEntity
  8
VERMASSUNG
100
AcDbTrace
 10
242.9775926423
 20
70.9684482575
 30
0.0
 11
239.9775926423
 21
71.4184482575
 31
0.0
 12
239.9775926423
 22
70.5184482575
 32
0.0
 13
239.9775926423
 23
70.5184482575
 33
0.0
  0
LINE
  5
1C8
330
1C3
100
AcDbEntity
  8
VERMASSUNG
100
AcDbLine
 10
182.9775926423
 20
100.2262226751
 30
0.0
 11
182.9775926423
 21
69.9684482575
 31
0.0
  0
LINE
  5
1C9
330
1C3
100
AcDbEntity
  8
VERMASSUNG
100
AcDbLine
 10
242.9775926423
 20
89.9262226751
 30
0.0
 11
242.9775926423
 21
69.9684482575
 31
0.0
  0
LINE
  5
1CA
330
1C3
100
AcDbEntity
  8
VERMASSUNG
100
AcDbLine
 10
182.9775926423
 20
70.9684482575
 30
0.0
 11
242.9775926423
 21
70.9684482575
 31
0.0
  0
MTEXT
  5
1CB
330
1C3
100
AcDbEntity
  8
VERMASSUNG
100
AcDbMText
 10
208.4275924553
 20
73.5465836207
 30
0.1
 40
2.0
 41
0.0
 71
     1
 72
     1
  1
60
  7
SLDTEXTSTYLE0
 73
     1
 44
1.0
  0
MTEXT
  5
1CC
330
1C3
100
AcDbEntity
  8
VERMASSUNG
100
AcDbMText
 10
214.2150925573
 20
73.5465836207
 30
0.1
 40
2.0
 41
0.0
 71
     1
 72
     1
  1

  7
SLDTEXTSTYLE0
 73
     1
 44
1.0
  0
MTEXT
  5
1CD
330
1C3
100
AcDbEntity
  8
VERMASSUNG
100
AcDbMText
 10
214.2275928472
 20
73.0520497579
 30
0.1
 40
1.5
 41
0.0
 71
     1
 72
     1
  1
±0.1
  7
SLDTEXTSTYLE0
 73
     1
 44
1.0
  0
ENDBLK
  5
1C5
330
1C3
100
AcDbEntity
  8
0
100
AcDbBlockEnd
  0
BLOCK
  5
1D0
330
1CF
100
AcDbEntity
  8
0
100
AcDbBlockBegin
  2
_D_1
 70
     0
 10
0.0
 20
0.0
 30
0.0
  3
_D_1
  1

  0
SOLID
  5
1D2
330
1CF
100
AcDbEntity
  8
VERMASSUNG
100
AcDbTrace
 10
251.6250176224
 20
89.9262226751
 30
0.0
 11
252.0750176224
 21
92.9262226751
 31
0.0
 12
251.1750176224
 22
92.9262226751
 32
0.0
 13
251.1750176224
 23
92.9262226751
 33
0.0
  0
SOLID
  5
1D3
330
1CF
100
AcDbEntity
  8
VERMASSUNG
100
AcDbTrace
 10
251.6250176224
 20
124.9262226751
 30
0.0
 11
251.1750176224
 21
121.9262226751
 31
0.0
 12
252.0750176224
 22
121.9262226751
 32
0.0
 13
252.0750176224
 23
121.9262226751
 33
0.0
  0
LINE
  5
1D4
330
1CF
100
AcDbEntity
  8
VERMASSUNG
100
AcDbLine
 10
242.9775926423
 20
89.9262226751
 30
0.0
 11
252.6250176224
 21
89.9262226751
 31
0.0
  0
LINE
  5
1D5
330
1CF
100
AcDbEntity
  8
VERMASSUNG
100
AcDbLine
 10
242.9775926423
 20
124.9262226751
 30
0.0
 11
252.6250176224
 21
124.9262226751
 31
0.0
  0
LINE
  5
1D6
330
1CF
100
AcDbEntity
  8
VERMASSUNG
100
AcDbLine
 10
251.6250176224
 20
89.9262226751
 30
0.0
 11
251.6250176224
 21
124.9262226751
 31
0.0
  0
MTEXT
  5
1D7
330
1CF
100
AcDbEntity
  8
VERMASSUNG
100
AcDbMText
 10
249.0468822593
 20
102.8762224881
 30
0.1
 40
2.0
 41
0.0
 71
     1
 72
     1
  1
35
  7
SLDTEXTSTYLE0
 11
6.123233995736766E-17
 21
1.0
 31
0.0
 73
     1
 44
1.0
  0
MTEXT
  5
1D8
330
1CF
100
AcDbEntity
  8
VERMASSUNG
100
AcDbMText
 10
249.0468822593
 20
108.6637225901
 30
0.1
 40
2.0
 41
0.0
 71
     1
 72
     1
  1

  7
SLDTEXTSTYLE0
 11
6.123233995736766E-17
 21
1.0
 31
0.0
 73
     1
 44
1.0
  0
MTEXT
  5
1D9
330
1CF
100
AcDbEntity
  8
VERMASSUNG
100
AcDbMText
 10
249.541416122
 20
108.67622288
 30
0.1
 40
1.5
 41
0.0
 71
     1
 72
     1
  1
±0.1
  7
SLDTEXTSTYLE0
 11
6.123233995736766E-17
 21
1.0
 31
0.0
 73
     1
 44
1.0
  0
ENDBLK
  5
1D1
330
1CF
100
AcDbEntity
  8
0
100
AcDbBlockEnd
  0
BLOCK
  5
1DD
330
1DC
100
AcDbEntity
  8
0
100
AcDbBlockBegin
  2
_D_2
 70
     0
 10
0.0
 20
0.0
 30
0.0
  3
_D_2
  1

  0
SOLID
  5
1DF
330
1DC
100
AcDbEntity
  8
VERMASSUNG
100
AcDbTrace
 10
242.9775926423
 20
64.9684482575
 30
0.0
 11
239.9775926423
 21
65.4184482575
 31
0.0
 12
239.9775926423
 22
64.5184482575
 32
0.0
 13
239.9775926423
 23
64.5184482575
 33
0.0
  0
SOLID
  5
1E0
330
1DC
100
AcDbEntity
  8
VERMASSUNG
100
AcDbTrace
 10
152.9775926423
 20
64.9684482575
 30
0.0
 11
155.9775926423
 21
64.5184482575
 31
0.0
 12
155.9775926423
 22
65.4184482575
 32
0.0
 13
155.9775926423
 23
65.4184482575
 33
0.0
  0
LINE
  5
1E1
330
1DC
100
AcDbEntity
  8
VERMASSUNG
100
AcDbLine
 10
242.9775926423
 20
89.9262226751
 30
0.0
 11
242.9775926423
 21
63.9684482575
 31
0.0
  0
LINE
  5
1E2
330
1DC
100
AcDbEntity
  8
VERMASSUNG
100
AcDbLine
 10
152.9775926423
 20
108.9328968369
 30
0.0
 11
152.9775926423
 21
63.9684482575
 31
0.0
  0
LINE
  5
1E3
330
1DC
100
AcDbEntity
  8
VERMASSUNG
100
AcDbLine
 10
242.9775926423
 20
64.9684482575
 30
0.0
 11
152.9775926423
 21
64.9684482575
 31
0.0
  0
MTEXT
  5
1E4
330
1DC
100
AcDbEntity
  8
VERMASSUNG
100
AcDbMText
 10
195.6775925912
 20
67.5465836207
 30
0.1
 40
2.0
 41
0.0
 71
     1
 72
     1
  1
90
  7
SLDTEXTSTYLE0
 73
     1
 44
1.0
  0
ENDBLK
  5
1DE
330
1DC
100
AcDbEntity
  8
0
100
AcDbBlockEnd
  0
BLOCK
  5
1E8
330
1E7
100
AcDbEntity
  8
0
100
AcDbBlockBegin
  2
_D_3
 70
     0
 10
0.0
 20
0.0
 30
0.0
  3
_D_3
  1

  0
ARC
  5
1EA
330
1E7
100
AcDbEntity
  8
VERMASSUNG
100
AcDbCircle
 10
242.9775926423
 20
89.6637842757
 30
0.0
 40
10.28282376435616
100
AcDbArc
 50
152.4789748189
 51
270.0
  0
SOLID
  5
1EB
330
1E7
100
AcDbEntity
  8
VERMASSUNG
100
AcDbTrace
 10
233.8583595305
 20
94.4152105902
 30
0.0
 11
232.4379518361
 21
91.7347363818
 31
0.0
 12
233.2869108666
 22
91.4359579281
 32
0.0
 13
233.2869108666
 23
91.4359579281
 33
0.0
  0
SOLID
  5
1EC
330
1E7
100
AcDbEntity
  8
VERMASSUNG
100
AcDbTrace
 10
242.9775926423
 20
79.3809605113
 30
0.0
 11
240.0714166318
 21
80.250811646
 31
0.0
 12
239.9441037517
 22
79.3598619108
 32
0.0
 13
239.9441037517
 23
79.3598619108
 33
0.0
  0
LINE
  5
1ED
330
1E7
100
AcDbEntity
  8
VERMASSUNG
100
AcDbLine
 10
242.9775926423
 20
79.8783726902
 30
0.0
 11
242.9775926423
 21
78.3809605113
 31
0.0
  0
MTEXT
  5
1EE
330
1E7
100
AcDbEntity
  8
VERMASSUNG
100
AcDbMText
 10
234.2118410512
 20
89.2590360268
 30
0.1
 40
2.0
 41
0.0
 71
     1
 72
     1
  1
117.5°
  7
SLDTEXTSTYLE0
 11
0.5186163907821812
 21
-0.8550070404459041
 31
0.0
 73
     1
 44
1.0
  0
ENDBLK
  5
1E9
330
1E7
100
AcDbEntity
  8
0
100
AcDbBlockEnd
  0
BLOCK
  5
1F1
330
1F0
100
AcDbEntity
  8
0
100
AcDbBlockBegin
  2
_D_4
 70
     0
 10
0.0
 20
0.0
 30
0.0
  3
_D_4
  1

  0
SOLID
  5
1F3
330
1F0
100
AcDbEntity
  8
VERMASSUNG
100
AcDbTrace
 10
141.197076046
 20
149.9262226751
 30
0.0
 11
140.747076046
 21
146.9262226751
 31
0.0
 12
141.647076046
 22
146.9262226751
 32
0.0
 13
141.647076046
 23
146.9262226751
 33
0.0
  0
SOLID
  5
1F4
330
1F0
100
AcDbEntity
  8
VERMASSUNG
100
AcDbTrace
 10
141.197076046
 20
99.9262226751
 30
0.0
 11
141.647076046
 21
102.9262226751
 31
0.0
 12
140.747076046
 22
102.9262226751
 32
0.0
 13
140.747076046
 23
102.9262226751
 33
0.0
  0
LINE
  5
1F5
330
1F0
100
AcDbEntity
  8
VERMASSUNG
100
AcDbLine
 10
183.2775926423
 20
149.9262226751
 30
0.0
 11
140.197076046
 21
149.9262226751
 31
0.0
  0
LINE
  5
1F6
330
1F0
100
AcDbEntity
  8
VERMASSUNG
100
AcDbLine
 10
183.2775926423
 20
99.9262226751
 30
0.0
 11
140.197076046
 21
99.9262226751
 31
0.0
  0
LINE
  5
1F7
330
1F0
100
AcDbEntity
  8
VERMASSUNG
100
AcDbLine
 10
141.197076046
 20
149.9262226751
 30
0.0
 11
141.197076046
 21
99.9262226751
 31
0.0
  0
MTEXT
  5
1F8
330
1F0
100
AcDbEntity
  8
VERMASSUNG
100
AcDbMText
 10
138.4189405569
 20
118.5212225658
 30
-0.1930533762
 40
2.0
 41
0.0
 71
     1
 72
     1
  1
PSC
  7
SLDTEXTSTYLE0
 11
-7.044195017643634E-15
 21
1.0
 31
0.0
 73
     1
 44
1.0
  0
MTEXT
  5
1F9
330
1F0
100
AcDbEntity
  8
VERMASSUNG
100
AcDbMText
 10
138.6189405664
 20
123.1212226679
 30
-0.1930533762
 40
2.0
 41
0.0
 71
     1
 72
     1
  1
%%c
  7
SLDTEXTSTYLE0
 11
-7.044195017643634E-15
 21
1.0
 31
0.0
 73
     1
 44
1.0
  0
MTEXT
  5
1FA
330
1F0
100
AcDbEntity
  8
VERMASSUNG
100
AcDbMText
 10
138.4189405569
 20
126.7312231479
 30
-0.1930533762
 40
2.0
 41
0.0
 71
     1
 72
     1
  1
50
  7
SLDTEXTSTYLE0
 11
-7.044195017643634E-15
 21
1.0
 31
0.0
 73
     1
 44
1.0
  0
ENDBLK
  5
1F2
330
1F0
100
AcDbEntity
  8
0
100
AcDbBlockEnd
  0
BLOCK
  5
274
330
273
100
AcDbEntity
  8
0
100
AcDbBlockBegin
  2
_D_5
 70
     0
 10
0.0
 20
0.0
 30
0.0
  3
_D_5
  1

  0
SOLID
  5
276
330
273
100
AcDbEntity
  8
VERMASSUNG
100
AcDbTrace
 10
64.1717860186
 20
150.5123461259
 30
0.0
 11
63.0614974503
 21
153.3354223373
 31
0.0
 12
62.2820745869
 22
152.8854223373
 32
0.0
 13
62.2820745869
 23
152.8854223373
 33
0.0
  0
SOLID
  5
277
330
273
100
AcDbEntity
  8
VERMASSUNG
100
AcDbTrace
 10
96.6717860186
 20
94.2206948799
 30
0.0
 11
97.7820745869
 21
91.3976186686
 31
0.0
 12
98.5614974503
 22
91.8476186686
 32
0.0
 13
98.5614974503
 23
91.8476186686
 33
0.0
  0
LINE
  5
278
330
273
100
AcDbEntity
  8
VERMASSUNG
100
AcDbLine
 10
64.2752108292
 20
150.5720584681
 30
0.0
 11
63.3057606149
 21
150.0123461259
 31
0.0
  0
LINE
  5
279
330
273
100
AcDbEntity
  8
VERMASSUNG
100
AcDbLine
 10
96.7752108292
 20
94.2804072221
 30
0.0
 11
95.8057606149
 21
93.7206948799
 31
0.0
  0
LINE
  5
27A
330
273
100
AcDbEntity
  8
VERMASSUNG
100
AcDbLine
 10
64.1717860186
 20
150.5123461259
 30
0.0
 11
61.1717860186
 21
155.7084985486
 31
0.0
  0
LINE
  5
27B
330
273
100
AcDbEntity
  8
VERMASSUNG
100
AcDbLine
 10
64.1717860186
 20
150.5123461259
 30
0.0
 11
96.6717860186
 21
94.2206948799
 31
0.0
  0
LINE
  5
27C
330
273
100
AcDbEntity
  8
VERMASSUNG
100
AcDbLine
 10
96.6717860186
 20
94.2206948799
 30
0.0
 11
105.5324518889
 21
78.8735714038
 31
0.0
  0
MTEXT
  5
27D
330
273
100
AcDbEntity
  8
VERMASSUNG
100
AcDbMText
 10
100.860182983
 20
92.1224494944
 30
0.1
 40
2.0
 41
0.0
 71
     1
 72
     1
  1
%%c
  7
SLDTEXTSTYLE0
 11
0.5000000000000101
 21
-0.8660254037844328
 31
0.0
 73
     1
 44
1.0
  0
MTEXT
  5
27E
330
273
100
AcDbEntity
  8
VERMASSUNG
100
AcDbMText
 10
102.8383880792
 20
89.0960977791
 30
0.1
 40
2.0
 41
0.0
 71
     1
 72
     1
  1
65
  7
SLDTEXTSTYLE0
 11
0.5000000000000101
 21
-0.8660254037844328
 31
0.0
 73
     1
 44
1.0
  0
MTEXT
  5
27F
330
273
100
AcDbEntity
  8
VERMASSUNG
100
AcDbMText
 10
105.732138363
 20
84.083975263
 30
0.1
 40
2.0
 41
0.0
 71
     1
 72
     1
  1
min.
  7
SLDTEXTSTYLE0
 11
0.5000000000000101
 21
-0.8660254037844328
 31
0.0
 73
     1
 44
1.0
  0
ENDBLK
  5
275
330
273
100
AcDbEntity
  8
0
100
AcDbBlockEnd
  0
BLOCK
  5
281
330
280
100
AcDbEntity
  8
0
100
AcDbBlockBegin
  2
SW_CENTERMARKSYMBOL_0
 70
     0
 10
0.0
 20
0.0
 30
0.0
  3
SW_CENTERMARKSYMBOL_0
  1

  0
LINE
  5
283
330
280
100
AcDbEntity
  8
VERMASSUNG
 62
     0
100
AcDbLine
 10
0.0
 20
0.0
 30
0.0
 11
0.0
 21
2.5
 31
0.0
  0
LINE
  5
284
330
280
100
AcDbEntity
  8
VERMASSUNG
 62
     0
100
AcDbLine
 10
0.0
 20
0.0
 30
0.0
 11
-2.5
 21
0.0
 31
0.0
  0
LINE
  5
285
330
280
100
AcDbEntity
  8
VERMASSUNG
 62
     0
100
AcDbLine
 10
0.0
 20
0.0
 30
0.0
 11
0.0
 21
-2.5
 31
0.0
  0
LINE
  5
286
330
280
100
AcDbEntity
  8
VERMASSUNG
 62
     0
100
AcDbLine
 10
0.0
 20
0.0
 30
0.0
 11
2.5
 21
0.0
 31
0.0
  0
LINE
  5
287
330
280
100
AcDbEntity
  8
VERMASSUNG
 62
     0
100
AcDbLine
 10
0.0
 20
5.0
 30
0.0
 11
0.0
 21
27.5
 31
0.0
  0
LINE
  5
288
330
280
100
AcDbEntity
  8
VERMASSUNG
 62
     0
100
AcDbLine
 10
-5.0
 20
0.0
 30
0.0
 11
-27.5
 21
0.0
 31
0.0
  0
LINE
  5
289
330
280
100
AcDbEntity
  8
VERMASSUNG
 62
     0
100
AcDbLine
 10
0.0
 20
-5.0
 30
0.0
 11
0.0
 21
-41.2224694688
 31
0.0
  0
LINE
  5
28A
330
280
100
AcDbEntity
  8
VERMASSUNG
 62
     0
100
AcDbLine
 10
5.0
 20
0.0
 30
0.0
 11
27.5
 21
0.0
 31
0.0
  0
ENDBLK
  5
282
330
280
100
AcDbEntity
  8
0
100
AcDbBlockEnd
  0
ENDSEC
  0
SECTION
  2
ENTITIES
  0
MTEXT
  5
49
330
1F
100
AcDbEntity
  8
KOPF_DÜNN
100
AcDbMText
 10
13.8892156294
 20
23.8442973028
 30
0.0
 40
3.0
 41
0.0
 71
     1
 72
     1
  1
PS5.KVD.LPA.060
  7
SLDTEXTSTYLE0
 73
     1
 44
1.0
  0
MTEXT
  5
4A
330
1F
100
AcDbEntity
  8
VERMASSUNG
100
AcDbMText
 10
13.9329988022
 20
28.8834360957
 30
0.0
 40
3.0
 41
0.0
 71
     1
 72
     1
  1
Klemmhalter links_Turning tool left 117.5° /35°
  7
SLDTEXTSTYLE0
 73
     1
 44
1.0
  0
MTEXT
  5
4B
330
1F
100
AcDbEntity
  8
VERMASSUNG
100
AcDbMText
 10
98.8601118557
 20
13.8365368179
 30
0.0
 40
2.0
 41
0.0
 71
     1
 72
     1
  1
Datum: 24.05.2012
  7
SLDTEXTSTYLE0
 73
     1
 44
1.0
  0
MTEXT
  5
4C
330
1F
100
AcDbEntity
  8
VERMASSUNG
100
AcDbMText
 10
13.933048693
 20
18.0482802738
 30
0.0
 40
2.0
 41
0.0
 71
     1
 72
     1
  1
PSC ø50 / VN..16 04..
  7
SLDTEXTSTYLE0
 73
     1
 44
1.0
  0
MTEXT
  5
4D
330
1F
100
AcDbEntity
  8
VERMASSUNG
100
AcDbMText
 10
13.9808475933
 20
13.9090973692
 30
0.0
 40
2.0
 41
0.0
 71
     1
 72
     1
  1
Gewicht: 802g
  7
SLDTEXTSTYLE0
 73
     1
 44
1.0
  0
LINE
  5
4E
330
1F
100
AcDbEntity
  8
0
  6
Continuous
 62
     7
370
    15
100
AcDbLine
 10
224.8848621499
 20
117.1917223377
 30
0.0
 11
225.936932559
 21
115.9511992713
 31
0.0
  0
LINE
  5
4F
330
1F
100
AcDbEntity
  8
0
  6
Continuous
 62
     7
370
    15
100
AcDbLine
 10
228.2249090027
 20
117.891601008
 30
0.0
 11
227.1091882836
 21
119.2071765666
 31
0.0
  0
LINE
  5
50
330
1F
100
AcDbEntity
  8
0
  6
Continuous
 62
     7
370
    15
100
AcDbLine
 10
234.6767727983
 20
113.545197249
 30
0.0
 11
234.3294751596
 21
113.9547035103
 31
0.0
  0
LINE
  5
51
330
1F
100
AcDbEntity
  8
0
  6
Continuous
 62
     7
370
    15
100
AcDbLine
 10
225.5588975501
 20
106.5164973965
 30
0.0
 11
225.9061914634
 21
106.1069911351
 31
0.0
  0
LINE
  5
52
330
1F
100
AcDbEntity
  8
0
  6
Continuous
 62
     7
370
    15
100
AcDbLine
 10
235.109152342
 20
114.9679573258
 30
0.0
 11
234.3118619871
 21
115.9080622723
 31
0.0
  0
LINE
  5
53
330
1F
100
AcDbEntity
  8
0
  6
Continuous
 62
     7
370
    15
100
AcDbLine
 10
223.634632374
 20
106.8528557201
 30
0.0
 11
224.431922729
 21
105.912748911
 31
0.0
  0
LINE
  5
54
330
1F
100
AcDbEntity
  8
0
  6
Continuous
 62
     7
370
    15
100
AcDbLine
 10
231.46132573
 20
123.5810891498
 30
0.0
 11
230.3502988767
 21
124.8911304004
 31
0.0
  0
LINE
  5
55
330
1F
100
AcDbEntity
  8
0
  6
Continuous
 62
     7
370
    15
100
AcDbLine
 10
226.2800466966
 20
101.4276931068
 30
0.0
 11
227.1450255763
 21
100.407771953
 31
0.0
  0
LINE
  5
56
330
1F
100
AcDbEntity
  8
0
  6
Continuous
 62
     7
370
    15
100
AcDbLine
 10
231.8614554357
 20
96.0742125293
 30
0.0
 11
236.5761530351
 21
98.139034771
 31
0.0
  0
LINE
  5
57
330
1F
100
AcDbEntity
  8
0
  6
Continuous
 62
     7
370
    15
100
AcDbLine
 10
229.1346360695
 20
96.9612600287
 30
0.0
 11
229.2163652134
 21
96.8648942193
 31
0.0
  0
LINE
  5
58
330
1F
100
AcDbEntity
  8
0
  6
Continuous
 62
     7
370
    15
100
AcDbLine
 10
215.2102646184
 20
149.9262230476
 30
0.0
 11
183.2775926565
 21
149.9262230476
 31
0.0
  0
LINE
  5
59
330
1F
100
AcDbEntity
  8
0
  6
Continuous
 62
     7
370
    15
100
AcDbLine
 10
183.2775926565
 20
99.9262223025
 30
0.0
 11
215.2102646184
 21
99.9262223025
 31
0.0
  0
ARC
  5
5A
330
1F
100
AcDbEntity
  8
0
  6
Continuous
 62
     7
370
    15
100
AcDbCircle
 10
183.2775926423
 20
100.2262226751
 30
0.0
 40
0.2999999999999829
100
AcDbArc
 50
180.0
 51
270.0
  0
ARC
  5
5B
330
1F
100
AcDbEntity
  8
0
  6
Continuous
 62
     7
370
    15
100
AcDbCircle
 10
183.2775926423
 20
149.6262226751
 30
0.0
 40
0.3000000000000114
100
AcDbArc
 50
90.0
 51
180.0
  0
LWPOLYLINE
  5
5C
330
1F
100
AcDbEntity
  8
0
  6
Continuous
 62
     7
370
    15
100
AcDbPolyline
 90
        3
 70
   128
 43
0.0
 10
182.7775926473
 20
107.0864016195
 10
182.9030475825
 20
107.0181002846
 10
182.9775926423
 20
106.9653632125
  0
LWPOLYLINE
  5
5D
330
1F
100
AcDbEntity
  8
0
  6
Continuous
 62
     7
370
    15
100
AcDbPolyline
 90
        3
 70
   128
 43
0.0
 10
182.9775926423
 20
142.8870821377
 10
182.9030475825
 20
142.8343450656
 10
182.7775926473
 20
142.7660437306
  0
ARC
  5
5E
330
1F
100
AcDbEntity
  8
0
  6
Continuous
 62
     7
370
    15
100
AcDbCircle
 10
215.2102656543
 20
150.9262226751
 30
0.0
 40
1.000000000000008
100
AcDbArc
 50
270.0
 51
330.0
  0
ARC
  5
5F
330
1F
100
AcDbEntity
  8
0
  6
Continuous
 62
     7
370
    15
100
AcDbCircle
 10
215.2102656543
 20
98.9262226751
 30
0.0
 40
1.000000000000023
100
AcDbArc
 50
15.0
 51
90.0
  0
LINE
  5
60
330
1F
100
AcDbEntity
  8
0
  6
Continuous
 62
     7
370
    15
100
AcDbLine
 10
217.18246683
 20
150.4262221982
 30
0.0
 11
216.0762903046
 21
150.4262221982
 31
0.0
  0
LINE
  5
61
330
1F
100
AcDbEntity
  8
0
  6
Continuous
 62
     7
370
    15
100
AcDbLine
 10
216.1761914146
 20
99.1850422701
 30
0.0
 11
216.2655536782
 21
98.8515431067
 31
0.0
  0
ARC
  5
62
330
1F
100
AcDbEntity
  8
0
  6
Continuous
 62
     7
370
    15
100
AcDbCircle
 10
227.0829934206
 20
116.9280220896
 30
0.0
 40
1.473843242602166
100
AcDbArc
 50
359.3801355137
 51
176.1315550232
  0
ARC
  5
63
330
1F
100
AcDbEntity
  8
0
  6
Continuous
 62
     7
370
    15
100
AcDbCircle
 10
227.0084283497
 20
116.8594134697
 30
0.0
 40
1.404408701337601
100
AcDbArc
 50
182.5442594412
 51
229.3198695704
  0
LINE
  5
64
330
1F
100
AcDbEntity
  8
0
  6
Continuous
 62
     7
370
    15
100
AcDbLine
 10
225.7225905311
 20
116.7520985013
 30
0.0
 11
225.6054040741
 21
116.7970702057
 31
0.0
  0
ARC
  5
65
330
1F
100
AcDbEntity
  8
0
  6
Continuous
 62
     7
370
    15
100
AcDbCircle
 10
227.1270898529
 20
116.8668665295
 30
0.0
 40
1.401620135520694
100
AcDbArc
 50
2.1905878335
 51
175.7407190689
  0
ARC
  5
66
330
1F
100
AcDbEntity
  8
0
  6
Continuous
 62
     7
370
    15
100
AcDbCircle
 10
227.0558901867
 20
116.8113616886
 30
0.0
 40
1.334616086031076
100
AcDbArc
 50
182.5450370448
 51
225.9573446251
  0
LINE
  5
67
330
1F
100
AcDbEntity
  8
0
  6
Continuous
 62
     7
370
    15
100
AcDbLine
 10
225.7293407571
 20
116.9709648942
 30
0.0
 11
225.6125082027
 21
117.0274561276
 31
0.0
  0
LINE
  5
68
330
1F
100
AcDbEntity
  8
0
  6
Continuous
 62
     7
370
    15
100
AcDbLine
 10
225.9439174783
 20
116.7707482358
 30
0.0
 11
225.7225905311
 21
116.7520985013
 31
0.0
  0
ARC
  5
69
330
1F
100
AcDbEntity
  8
0
  6
Continuous
 62
     7
370
    15
100
AcDbCircle
 10
227.1271537078
 20
116.8693214585
 30
0.0
 40
1.180668439521907
100
AcDbArc
 50
3.3071974334
 51
175.8357398072
  0
ARC
  5
6A
330
1F
100
AcDbEntity
  8
0
  6
Continuous
 62
     7
370
    15
100
AcDbCircle
 10
227.0663804953
 20
116.8204275384
 30
0.0
 40
1.12356186195181
100
AcDbArc
 50
182.5342108537
 51
223.2238236111
  0
LINE
  5
6B
330
1F
100
AcDbEntity
  8
0
  6
Continuous
 62
     7
370
    15
100
AcDbLine
 10
225.9496022713
 20
116.9550569733
 30
0.0
 11
225.7293407571
 21
116.9709648942
 31
0.0
  0
LINE
  5
6C
330
1F
100
AcDbEntity
  8
0
  6
Continuous
 62
     7
370
    15
100
AcDbLine
 10
225.7770393741
 20
116.967519932
 30
0.0
 11
225.9439174783
 21
116.7707482358
 31
0.0
  0
LINE
  5
6D
330
1F
100
AcDbEntity
  8
0
  6
Continuous
 62
     7
370
    15
100
AcDbLine
 10
225.6054040741
 20
116.7970702057
 30
0.0
 11
224.5612536323
 21
118.028255832
 31
0.0
  0
LINE
  5
6E
330
1F
100
AcDbEntity
  8
0
  6
Continuous
 62
     7
370
    15
100
AcDbLine
 10
225.6125082027
 20
117.0274561276
 30
0.0
 11
224.5590110075
 21
118.2696597656
 31
0.0
  0
LWPOLYLINE
  5
6F
330
1F
100
AcDbEntity
  8
0
  6
Continuous
 62
     7
370
    15
100
AcDbPolyline
 90
       43
 70
   128
 43
0.0
 10
226.7865669679
 20
105.2800865849
 10
227.4885904741
 20
104.8363151034
 10
228.2532286596
 20
104.5040061703
 10
229.0634010684
 20
104.2905861517
 10
229.9010027897
 20
104.2008178314
 10
230.7473291409
 20
104.2367110034
 10
231.5834705483
 20
104.3974591424
 10
232.3907521319
 20
104.6794766565
 10
233.1511434865
 20
105.0764603546
 10
233.8476498377
 20
105.5795421829
 10
234.4647180986
 20
106.1774848034
 10
234.9885646951
 20
106.8569330504
 10
235.407484765
 20
107.6027063658
 10
235.7121203792
 20
108.3981452515
 10
235.8956728828
 20
109.225483798
 10
235.9540332806
 20
110.0662389775
 10
235.8859014463
 20
110.9016288077
 10
235.6928010237
 20
111.7129933094
 10
235.3790421736
 20
112.4822080141
 10
234.9516396176
 20
113.1920890888
 10
234.4201338243
 20
113.8267798354
 10
233.7964010191
 20
114.3721017992
 10
233.0943737876
 20
114.8158732807
 10
232.3297356021
 20
115.1481812825
 10
231.5195669186
 20
115.3616022324
 10
230.681961472
 20
115.4513696214
 10
229.8356351208
 20
115.4154773807
 10
228.9994937133
 20
115.2547283103
 10
228.1922121298
 20
114.9727117275
 10
227.4318245005
 20
114.5757280295
 10
226.7353181493
 20
114.0726462012
 10
226.1182461631
 20
113.4747026493
 10
225.5944032919
 20
112.7952553337
 10
225.175483222
 20
112.0494820183
 10
224.8708438825
 20
111.2540422013
 10
224.6872951042
 20
110.4267036548
 10
224.6289347064
 20
109.5859494066
 10
224.6970628154
 20
108.7505595764
 10
224.890163238
 20
107.9391950747
 10
225.2039220881
 20
107.16998037
 10
225.6313283693
 20
106.460098364
 10
226.1628341627
 20
105.8254076173
 10
226.7865669679
 20
105.2800865849
  0
LWPOLYLINE
  5
70
330
1F
100
AcDbEntity
  8
0
  6
Continuous
 62
     7
370
    15
100
AcDbPolyline
 90
       28
 70
   128
 43
0.0
 10
229.1149032068
 20
107.440062054
 10
229.601929034
 20
107.1606354793
 10
230.144852842
 20
107.0028265943
 10
230.7144050252
 20
106.9751458248
 10
231.2798780155
 20
107.0790814241
 10
231.8107914877
 20
107.309034281
 10
232.2785203111
 20
107.6526066294
 10
232.657851721
 20
108.0912744632
 10
232.9283301484
 20
108.6013896396
 10
233.0753822577
 20
109.1554539283
 10
233.0910769057
 20
109.7235942265
 10
232.9745647263
 20
110.2751849224
 10
232.7321340096
 20
110.7804879551
 10
232.3768456232
 20
111.2122630706
 10
231.9278587353
 20
111.5472337236
 10
231.4093802821
 20
111.7673397069
 10
230.8493536663
 20
111.8607159709
 10
230.2779798162
 20
111.822328717
 10
229.7260519814
 20
111.6542473441
 10
229.2233315062
 20
111.3655336206
 10
228.7969198775
 20
110.9717518096
 10
228.4698021364
 20
110.4941304778
 10
228.2596138072
 20
109.9584179004
 10
228.1776872229
 20
109.3934962531
 10
228.2284405779
 20
108.8298188528
 10
228.4091320586
 20
108.297774755
 10
228.7100274813
 20
107.8260449698
 10
229.1149032068
 20
107.440062054
  0
SPLINE
  5
71
330
1F
100
AcDbEntity
  8
0
  6
Continuous
 62
     7
370
    15
100
AcDbSpline
210
0.0
220
0.0
230
1.0
 70
     8
 71
     3
 72
    11
 73
     7
 74
     0
 42
0.00000001
 43
0.00000001
 12
1.0
 22
0.0
 32
0.0
 13
1.0
 23
0.0
 33
0.0
 40
0.0
 40
0.0
 40
0.0
 40
0.0
 40
0.1208912393960723
 40
0.4766715327474959
 40
0.8143662740028141
 40
1.0
 40
1.0
 40
1.0
 40
1.0
 10
230.9316304277936
 20
111.7031790321327
 30
0.0
 10
230.9920196894423
 20
111.6612493381905
 30
0.0
 10
231.2301332372509
 20
111.4959214651457
 30
0.0
 10
231.7045327427787
 20
111.1542474166593
 30
0.0
 10
232.2778383700067
 20
110.7168149995801
 30
0.0
 10
232.6027021019619
 20
110.4611698734988
 30
0.0
 10
232.7179369282285
 20
110.3704880928255
 30
0.0
  0
SPLINE
  5
72
330
1F
100
AcDbEntity
  8
0
  6
Continuous
 62
     7
370
    15
100
AcDbSpline
210
0.0
220
0.0
230
1.0
 70
     8
 71
     3
 72
    11
 73
     7
 74
     0
 42
0.00000001
 43
0.00000001
 12
1.0
 22
0.0
 32
0.0
 13
1.0
 23
0.0
 33
0.0
 40
0.0
 40
0.0
 40
0.0
 40
0.0
 40
0.2164522436274218
 40
0.4403051747181869
 40
0.751896177203062
 40
1.0
 40
1.0
 40
1.0
 40
1.0
 10
228.8193722021142
 20
110.7883045455075
 30
0.0
 10
228.9514830136835
 20
110.8658051808201
 30
0.0
 10
229.2202216185384
 20
111.0234562644965
 30
0.0
 10
229.7450880690065
 20
111.2851765558085
 30
0.0
 10
230.3438457616867
 20
111.5237823169062
 30
0.0
 10
230.7511007586868
 20
111.64807989208
 30
0.0
 10
230.9316304277936
 20
111.7031790321327
 30
0.0
  0
SPLINE
  5
73
330
1F
100
AcDbEntity
  8
0
  6
Continuous
 62
     7
370
    15
100
AcDbSpline
210
0.0
220
0.0
230
1.0
 70
     8
 71
     3
 72
    11
 73
     7
 74
     0
 42
0.00000001
 43
0.00000001
 12
1.0
 22
0.0
 32
0.0
 13
1.0
 23
0.0
 33
0.0
 40
0.0
 40
0.0
 40
0.0
 40
0.0
 40
0.2164529885325324
 40
0.4403053971313485
 40
0.7518957854766714
 40
1.0
 40
1.0
 40
1.0
 40
1.0
 10
228.49342420216
 20
108.5407381882525
 30
0.0
 10
228.5031728911855
 20
108.7095288820518
 30
0.0
 10
228.5230035270293
 20
109.0528803597525
 30
0.0
 10
228.5859636057327
 20
109.6592110613653
 30
0.0
 10
228.6892287320379
 20
110.2674812801459
 30
0.0
 10
228.7794004384481
 20
110.628340895678
 30
0.0
 10
228.8193722021142
 20
110.7883045455075
 30
0.0
  0
SPLINE
  5
74
330
1F
100
AcDbEntity
  8
0
  6
Continuous
 62
     7
370
    15
100
AcDbSpline
210
0.0
220
0.0
230
1.0
 70
     8
 71
     3
 72
    11
 73
     7
 74
     0
 42
0.00000001
 43
0.00000001
 12
1.0
 22
0.0
 32
0.0
 13
1.0
 23
0.0
 33
0.0
 40
0.0
 40
0.0
 40
0.0
 40
0.0
 40
0.185633353912324
 40
0.5233276551112784
 40
0.8791085950202419
 40
1.0
 40
1.0
 40
1.0
 40
1.0
 10
230.2797344278852
 20
107.2080491115905
 30
0.0
 10
230.1644995568749
 20
107.2987305302737
 30
0.0
 10
229.8396355517708
 20
107.5543747515381
 30
0.0
 10
229.2663304510922
 20
107.9918083170048
 30
0.0
 10
228.7919267811727
 20
108.3334822545112
 30
0.0
 10
228.5538134010946
 20
108.4988088359016
 30
0.0
 10
228.49342420216
 20
108.5407381882525
 30
0.0
  0
SPLINE
  5
75
330
1F
100
AcDbEntity
  8
0
  6
Continuous
 62
     7
370
    15
100
AcDbSpline
210
0.0
220
0.0
230
1.0
 70
     8
 71
     3
 72
    11
 73
     7
 74
     0
 42
0.00000001
 43
0.00000001
 12
1.0
 22
0.0
 32
0.0
 13
1.0
 23
0.0
 33
0.0
 40
0.0
 40
0.0
 40
0.0
 40
0.0
 40
0.2164537058475633
 40
0.4403054796682809
 40
0.7518962499303194
 40
1.0
 40
1.0
 40
1.0
 40
1.0
 10
232.3919926535646
 20
108.1229226668931
 30
0.0
 10
232.2347231692522
 20
108.0750858364606
 30
0.0
 10
231.9148089619338
 20
107.9777771833844
 30
0.0
 10
231.3472876392816
 20
107.76635107241
 30
0.0
 10
230.7742462199769
 20
107.4974244579533
 30
0.0
 10
230.431616691771
 20
107.2969266336662
 30
0.0
 10
230.2797344278852
 20
107.2080491115905
 30
0.0
  0
SPLINE
  5
76
330
1F
100
AcDbEntity
  8
0
  6
Continuous
 62
     7
370
    15
100
AcDbSpline
210
0.0
220
0.0
230
1.0
 70
     8
 71
     3
 72
    11
 73
     7
 74
     0
 42
0.00000001
 43
0.00000001
 12
1.0
 22
0.0
 32
0.0
 13
1.0
 23
0.0
 33
0.0
 40
0.0
 40
0.0
 40
0.0
 40
0.0
 40
0.2164521622657894
 40
0.4403052576491621
 40
0.7518957522984443
 40
1.0
 40
1.0
 40
1.0
 40
1.0
 10
232.7179369282285
 20
110.3704880928255
 30
0.0
 10
232.6830324928366
 20
110.231361534453
 30
0.0
 10
232.6120301694711
 20
109.9483514019192
 30
0.0
 10
232.5064117825344
 20
109.3923181043091
 30
0.0
 10
232.4288637876072
 20
108.7537256459756
 30
0.0
 10
232.4033171106216
 20
108.3166650464955
 30
0.0
 10
232.3919926535646
 20
108.1229226668931
 30
0.0
  0
LINE
  5
77
330
1F
100
AcDbEntity
  8
0
  6
Continuous
 62
     7
370
    15
100
AcDbLine
 10
228.5066229057
 20
108.742162772
 30
0.0
 11
228.8987320613
 21
108.4496269008
 31
0.0
  0
LINE
  5
78
330
1F
100
AcDbEntity
  8
0
  6
Continuous
 62
     7
370
    15
100
AcDbLine
 10
228.8987320613
 20
108.4496269008
 30
0.0
 11
229.7918890369
 21
107.7832823624
 31
0.0
  0
LINE
  5
79
330
1F
100
AcDbEntity
  8
0
  6
Continuous
 62
     7
370
    15
100
AcDbLine
 10
229.7918890369
 20
107.7832823624
 30
0.0
 11
230.2797344279
 21
107.2080491116
 31
0.0
  0
ARC
  5
7A
330
1F
100
AcDbEntity
  8
0
  6
Continuous
 62
     7
370
    15
100
AcDbCircle
 10
230.0483986357
 20
110.1127211082
 30
0.0
 40
5.75225564299094
100
AcDbArc
 50
41.9058726282
 51
218.6957642832
  0
LINE
  5
7B
330
1F
100
AcDbEntity
  8
0
  6
Continuous
 62
     7
370
    15
100
AcDbLine
 10
231.9041435372
 20
108.6981559177
 30
0.0
 11
232.3919926536
 21
108.1229226669
 31
0.0
  0
LINE
  5
7C
330
1F
100
AcDbEntity
  8
0
  6
Continuous
 62
     7
370
    15
100
AcDbLine
 10
231.9041435372
 20
108.6981559177
 30
0.0
 11
232.0671175372
 21
109.8219390964
 31
0.0
  0
LINE
  5
7D
330
1F
100
AcDbEntity
  8
0
  6
Continuous
 62
     7
370
    15
100
AcDbLine
 10
232.0671175372
 20
109.8219390964
 30
0.0
 11
232.2045062434
 21
110.769308359
 31
0.0
  0
LINE
  5
7E
330
1F
100
AcDbEntity
  8
0
  6
Continuous
 62
     7
370
    15
100
AcDbLine
 10
229.7918890369
 20
107.7832823624
 30
0.0
 11
230.848016287
 21
108.2407200714
 31
0.0
  0
LINE
  5
7F
330
1F
100
AcDbEntity
  8
0
  6
Continuous
 62
     7
370
    15
100
AcDbLine
 10
230.848016287
 20
108.2407200714
 30
0.0
 11
231.9041435372
 21
108.6981559177
 31
0.0
  0
ARC
  5
80
330
1F
100
AcDbEntity
  8
0
  6
Continuous
 62
     7
370
    15
100
AcDbCircle
 10
230.009250042
 20
109.9387454518
 30
0.0
 40
1.857612511904613
100
AcDbArc
 50
215.6297017283
 51
233.2860716764
  0
ARC
  5
81
330
1F
100
AcDbEntity
  8
0
  6
Continuous
 62
     7
370
    15
100
AcDbCircle
 10
230.1848290825
 20
110.1033955193
 30
0.0
 40
1.903215054794998
100
AcDbArc
 50
351.4956372523
 51
32.1604132401
  0
ARC
  5
82
330
1F
100
AcDbEntity
  8
0
  6
Continuous
 62
     7
370
    15
100
AcDbCircle
 10
230.0348507696
 20
110.128226978
 30
0.0
 40
2.05521786707667
100
AcDbArc
 50
293.3070827072
 51
351.4293170441
  0
ARC
  5
83
330
1F
100
AcDbEntity
  8
0
  6
Continuous
 62
     7
370
    15
100
AcDbCircle
 10
230.0537564404
 20
110.0282984813
 30
0.0
 40
1.95608928100341
100
AcDbArc
 50
233.8091841665
 51
293.9566151696
  0
ARC
  5
84
330
1F
100
AcDbEntity
  8
0
  6
Continuous
 62
     7
370
    15
100
AcDbCircle
 10
229.6388580785
 20
109.9759000721
 30
0.0
 40
5.598280205621552
100
AcDbArc
 50
202.3970340139
 51
250.383316935
  0
LWPOLYLINE
  5
85
330
1F
100
AcDbEntity
  8
0
  6
Continuous
 62
     7
370
    15
100
AcDbPolyline
 90
       25
 70
   128
 43
0.0
 10
235.7597444903
 20
111.4875499164
 10
235.5719526064
 20
112.2304882859
 10
235.2497895014
 20
113.0134856334
 10
234.8145452094
 20
113.7372769421
 10
234.2754994285
 20
114.3864357849
 10
233.6441372287
 20
114.9471273651
 10
232.9339180839
 20
115.40740002
 10
232.1599778485
 20
115.7574459916
 10
231.3388083827
 20
115.989802592
 10
230.4879185509
 20
116.0995179793
 10
229.625439341
 20
116.0842554649
 10
228.7697550606
 20
115.9443382179
 10
227.9391010057
 20
115.6827483331
 10
227.1511797559
 20
115.3050635015
 10
226.422788645
 20
114.8193303501
 10
225.7694509577
 20
114.2359042545
 10
225.205088104
 20
113.5672174399
 10
224.7417327714
 20
112.8275237983
 10
224.3892569792
 20
112.0325878268
 10
224.155174638
 20
111.1993521457
 10
224.0444776368
 20
110.345575214
 10
224.059520359
 20
109.4894550746
 10
224.199986155
 20
108.6492372682
 10
224.4628798914
 20
107.8428292652
 10
224.4628798914
 20
107.8428292652
  0
LWPOLYLINE
  5
86
330
1F
100
AcDbEntity
  8
0
  6
Continuous
 62
     7
370
    15
100
AcDbPolyline
 90
       40
 70
   128
 43
0.0
 10
224.3545782518
 20
114.4779112195
 10
223.8319684517
 20
113.6998042469
 10
223.4164532971
 20
112.8629177814
 10
223.1155243468
 20
111.9823448365
 10
222.9346093487
 20
111.0739644622
 10
222.8769679319
 20
110.1541576912
 10
222.9436394524
 20
109.2395132413
 10
223.1334243667
 20
108.3465220412
 10
223.4428991329
 20
107.4912903836
 10
223.8664832663
 20
106.6892409702
 10
224.3965361964
 20
105.9548353782
 10
225.0235025537
 20
105.3013207396
 10
225.7360723567
 20
104.7404801478
 10
226.5213970792
 20
104.2824259033
 10
227.3653168928
 20
103.9354206999
 10
228.2526065361
 20
103.7057230254
 10
229.1672733378
 20
103.5974716773
 10
230.0928179872
 20
103.6126205703
 10
231.0125511837
 20
103.7508977582
 10
231.9098879349
 20
104.0098091593
 10
232.7686455798
 20
104.3846832594
 10
233.5733343613
 20
104.8687623819
 10
234.309447999
 20
105.4533163091
 10
234.9637058329
 20
106.127804332
 10
235.5243173193
 20
106.8800615152
 10
235.9811682951
 20
107.696522214
 10
236.326018418
 20
108.5624640813
 10
236.5526539039
 20
109.4622707
 10
236.6569806587
 20
110.3797156369
 10
236.6371248614
 20
111.2982530152
 10
236.4934404146
 20
112.2013201942
 10
236.2285201203
 20
113.0726320674
 10
235.8471398007
 20
113.8964734977
 10
235.3561763417
 20
114.6579898899
 10
234.7644847583
 20
115.3434488928
 10
234.0827380073
 20
115.9404871991
 10
233.3232258212
 20
116.4383396512
 10
232.4996460926
 20
116.8280282994
 10
231.6268515539
 20
117.1025263151
 10
230.7205815565
 20
117.2568813903
  0
SPLINE
  5
87
330
1F
100
AcDbEntity
  8
0
  6
Continuous
 62
     7
370
    15
100
AcDbSpline
210
0.0
220
0.0
230
1.0
 70
     8
 71
     3
 72
    14
 73
    10
 74
     0
 42
0.00000001
 43
0.00000001
 12
1.0
 22
0.0
 32
0.0
 13
1.0
 23
0.0
 33
0.0
 40
0.0
 40
0.0
 40
0.0
 40
0.0
 40
0.2406872494732927
 40
0.3654949803296567
 40
0.4913832345897562
 40
0.5985912055243328
 40
0.7015340195729728
 40
0.868333970358013
 40
1.0
 40
1.0
 40
1.0
 40
1.0
 10
224.3545782517949
 20
114.4779112195231
 30
0.0
 10
224.5769069428272
 20
114.433114924999
 30
0.0
 10
224.9145235832323
 20
114.3650896315041
 30
0.0
 10
225.3984000567831
 20
114.4848188786123
 30
0.0
 10
225.7255767316254
 20
114.6834602260479
 30
0.0
 10
225.9566012021055
 20
114.9613345253427
 30
0.0
 10
226.114875464268
 20
115.3160150204608
 30
0.0
 10
226.1698465428886
 20
115.7105048358691
 30
0.0
 10
226.127930517273
 20
115.9861617783969
 30
0.0
 10
226.1094395768205
 20
116.1077657719708
 30
0.0
  0
ARC
  5
88
330
1F
100
AcDbEntity
  8
0
  6
Continuous
 62
     7
370
    15
100
AcDbCircle
 10
230.3097826113
 20
109.7341872239
 30
0.0
 40
7.633176607108886
100
AcDbArc
 50
123.1124766341
 51
123.3858521893
  0
SPLINE
  5
89
330
1F
100
AcDbEntity
  8
0
  6
Continuous
 62
     7
370
    15
100
AcDbSpline
210
0.0
220
0.0
230
1.0
 70
     8
 71
     3
 72
    14
 73
    10
 74
     0
 42
0.00000001
 43
0.00000001
 12
1.0
 22
0.0
 32
0.0
 13
1.0
 23
0.0
 33
0.0
 40
0.0
 40
0.0
 40
0.0
 40
0.0
 40
0.2547951246722939
 40
0.38691747259025
 40
0.5201836257012769
 40
0.6336745084219082
 40
0.7426506320407072
 40
0.9192267138956429
 40
1.0
 40
1.0
 40
1.0
 40
1.0
 10
226.1398975503007
 20
116.1277342592932
 30
0.0
 10
226.3443366511571
 20
116.0175984836175
 30
0.0
 10
226.65478631264
 20
115.8503525207247
 30
0.0
 10
227.163655993311
 20
115.8110436547614
 30
0.0
 10
227.5414037442059
 20
115.892563145515
 30
0.0
 10
227.8478798287883
 20
116.076371644686
 30
0.0
 10
228.1034440106774
 20
116.3533361932199
 30
0.0
 10
228.2539580643645
 20
116.6504047362155
 30
0.0
 10
228.2884933812421
 20
116.8672689307396
 30
0.0
 10
228.2993328523198
 20
116.9353352864839
 30
0.0
  0
SPLINE
  5
8A
330
1F
100
AcDbEntity
  8
0
  6
Continuous
 62
     7
370
    15
100
AcDbSpline
210
0.0
220
0.0
230
1.0
 70
     8
 71
     3
 72
    14
 73
    10
 74
     0
 42
0.00000001
 43
0.00000001
 12
1.0
 22
0.0
 32
0.0
 13
1.0
 23
0.0
 33
0.0
 40
0.0
 40
0.0
 40
0.0
 40
0.0
 40
0.2026629322999215
 40
0.3337204440447906
 40
0.4659126150172487
 40
0.5784898549529965
 40
0.6865879927789299
 40
0.8617408580139603
 40
0.9999999999999999
 40
0.9999999999999999
 40
0.9999999999999999
 40
0.9999999999999999
 10
228.470346028761
 20
117.0016985391832
 30
0.0
 10
228.6037982811181
 20
116.8692281446656
 30
0.0
 10
228.8235510716751
 20
116.6510921570949
 30
0.0
 10
229.2573319756638
 20
116.4740786258595
 30
0.0
 10
229.6411791267983
 20
116.4261613510945
 30
0.0
 10
229.9847694067085
 20
116.4950430436474
 30
0.0
 10
230.3061902810918
 20
116.6641290363256
 30
0.0
 10
230.5607903576806
 20
116.9246366332003
 30
0.0
 10
230.6716685495926
 20
117.1551793552464
 30
0.0
 10
230.7205815565149
 20
117.2568813902892
 30
0.0
  0
LINE
  5
8B
330
1F
100
AcDbEntity
  8
0
  6
Continuous
 62
     7
370
    15
100
AcDbLine
 10
223.5572878968
 20
115.4180170973
 30
0.0
 11
224.3545782518
 21
114.4779112195
 31
0.0
  0
SPLINE
  5
8C
330
1F
100
AcDbEntity
  8
0
  6
Continuous
 62
     7
370
    15
100
AcDbSpline
210
0.0
220
0.0
230
1.0
 70
     8
 71
     3
 72
    16
 73
    12
 74
     0
 42
0.00000001
 43
0.00000001
 12
1.0
 22
0.0
 32
0.0
 13
1.0
 23
0.0
 33
0.0
 40
0.0
 40
0.0
 40
0.0
 40
0.0
 40
0.1172703426694715
 40
0.2230664512489005
 40
0.3296967856360314
 40
0.3991558763374424
 40
0.4688599488048153
 40
0.5507988418262989
 40
0.6793864468348151
 40
0.9317467858302226
 40
1.0
 40
1.0
 40
1.0
 40
1.0
 10
225.2028752815286
 20
116.8167462577678
 30
0.0
 10
225.1829372918156
 20
116.7666157096278
 30
0.0
 10
225.1450121309518
 20
116.6712596015258
 30
0.0
 10
225.0027393828541
 20
116.4757091633897
 30
0.0
 10
224.8423935847162
 20
116.2840603588762
 30
0.0
 10
224.6584321494991
 20
116.097269622554
 30
0.0
 10
224.4765721581547
 20
115.9337349967995
 30
0.0
 10
224.25637903009
 20
115.7604300306294
 30
0.0
 10
223.9488835877579
 20
115.5601389781124
 30
0.0
 10
223.7216304408093
 20
115.4606991038189
 30
0.0
 10
223.5861330124145
 20
115.4255085683888
 30
0.0
 10
223.5572878968278
 20
115.4180170973397
 30
0.0
  0
SPLINE
  5
8D
330
1F
100
AcDbEntity
  8
0
  6
Continuous
 62
     7
370
    15
100
AcDbSpline
210
0.0
220
0.0
230
1.0
 70
     8
 71
     3
 72
    14
 73
    10
 74
     0
 42
0.00000001
 43
0.00000001
 12
1.0
 22
0.0
 32
0.0
 13
1.0
 23
0.0
 33
0.0
 40
0.0
 40
0.0
 40
0.0
 40
0.0
 40
0.3137447608577988
 40
0.4695540286997943
 40
0.6265900648088597
 40
0.7288846674278507
 40
0.8315394481865341
 40
0.952212716668609
 40
1.0
 40
1.0
 40
1.0
 40
1.0
 10
227.4366338502923
 20
117.9345033136762
 30
0.0
 10
227.3584308047662
 20
117.8512379613308
 30
0.0
 10
227.2413912246215
 20
117.7266220743976
 30
0.0
 10
226.9656501222058
 20
117.5347773957287
 30
0.0
 10
226.7358837710102
 20
117.3984288044155
 30
0.0
 10
226.4952075990507
 20
117.2794947712702
 30
0.0
 10
226.2744293967274
 20
117.1884053931132
 30
0.0
 10
226.0997786211467
 20
117.127313336838
 30
0.0
 10
226.0201673708381
 20
117.1105859560379
 30
0.0
 10
225.9975840103189
 20
117.1058408921219
 30
0.0
  0
SPLINE
  5
8E
330
1F
100
AcDbEntity
  8
0
  6
Continuous
 62
     7
370
    15
100
AcDbSpline
210
0.0
220
0.0
230
1.0
 70
     8
 71
     3
 72
    13
 73
     9
 74
     0
 42
0.00000001
 43
0.00000001
 12
1.0
 22
0.0
 32
0.0
 13
1.0
 23
0.0
 33
0.0
 40
0.0
 40
0.0
 40
0.0
 40
0.0
 40
0.4268108267060824
 40
0.5846778260973187
 40
0.7437882154822585
 40
0.8474322254930959
 40
0.9514428107522054
 40
1.0
 40
1.0
 40
1.0
 40
1.0
 10
229.9232912015478
 20
118.1969872681058
 30
0.0
 10
229.7672773294414
 20
118.1132072670568
 30
0.0
 10
229.5535577003304
 20
117.9984390704255
 30
0.0
 10
229.1496143535728
 20
117.8753890795552
 30
0.0
 10
228.8740865453017
 20
117.815117627747
 30
0.0
 10
228.607544078979
 20
117.7816803133979
 30
0.0
 10
228.4177962636363
 20
117.7702298343104
 30
0.0
 10
228.3281423484589
 20
117.7754222900241
 30
0.0
 10
228.2996085238019
 20
117.7770748739697
 30
0.0
  0
LINE
  5
8F
330
1F
100
AcDbEntity
  8
0
  6
Continuous
 62
     7
370
    15
100
AcDbLine
 10
230.7205815565
 20
117.2568813903
 30
0.0
 11
229.9232912015
 21
118.1969872681
 31
0.0
  0
ARC
  5
90
330
1F
100
AcDbEntity
  8
0
  6
Continuous
 62
     7
370
    15
100
AcDbCircle
 10
228.8559534458
 20
111.1829348054
 30
0.0
 40
6.783198258849915
100
AcDbArc
 50
141.3655864728
 51
219.6691614948
  0
ARC
  5
91
330
1F
100
AcDbEntity
  8
0
  6
Continuous
 62
     7
370
    15
100
AcDbCircle
 10
229.2837587322
 20
111.6192273472
 30
0.0
 40
6.608776540018323
100
AcDbArc
 50
40.463273772
 51
84.4467870748
  0
SPLINE
  5
92
330
1F
100
AcDbEntity
  8
0
  6
Continuous
 62
     7
370
    15
100
AcDbSpline
210
0.0
220
0.0
230
1.0
 70
     8
 71
     3
 72
    10
 73
     6
 74
     0
 42
0.00000001
 43
0.00000001
 12
1.0
 22
0.0
 32
0.0
 13
1.0
 23
0.0
 33
0.0
 40
0.0
 40
0.0
 40
0.0
 40
0.0
 40
0.3401615011171425
 40
0.6905236995040768
 40
1.0
 40
1.0
 40
1.0
 40
1.0
 10
232.7003200304071
 20
121.5987661392994
 30
0.0
 10
232.5013161799713
 20
121.9980345200299
 30
0.0
 10
232.0973407901427
 20
122.8085444644285
 30
0.0
 10
231.280751645683
 20
123.8474232497285
 30
0.0
 10
230.6313913702633
 20
124.41709077436
 30
0.0
 10
230.3268295478383
 20
124.6842752419745
 30
0.0
  0
SPLINE
  5
93
330
1F
100
AcDbEntity
  8
0
  6
Continuous
 62
     7
370
    15
100
AcDbSpline
210
0.0
220
0.0
230
1.0
 70
     8
 71
     3
 72
    14
 73
    10
 74
     0
 42
0.00000001
 43
0.00000001
 12
1.0
 22
0.0
 32
0.0
 13
1.0
 23
0.0
 33
0.0
 40
0.0
 40
0.0
 40
0.0
 40
0.0
 40
0.1271128332533122
 40
0.254445450597803
 40
0.4212689828958762
 40
0.5883289024995645
 40
0.7932264320564947
 40
0.9982397405440643
 40
1.0
 40
1.0
 40
1.0
 40
1.0
 10
230.3268295478383
 20
124.6842752419745
 30
0.0
 10
229.9914264843827
 20
124.9307805798486
 30
0.0
 10
229.3200404297367
 20
125.4242174749664
 30
0.0
 10
228.1183200811869
 20
126.0332359621274
 30
0.0
 10
226.7768137321629
 20
126.5131342180422
 30
0.0
 10
225.2120247002215
 20
126.8319725078683
 30
0.0
 10
223.5751639741998
 20
126.9162496103603
 30
0.0
 10
222.4604169984252
 20
126.789427325532
 30
0.0
 10
221.9201812810178
 20
126.6801164100212
 30
0.0
 10
221.9155822646181
 20
126.679185848274
 30
0.0
  0
SPLINE
  5
94
330
1F
100
AcDbEntity
  8
0
  6
Continuous
 62
     7
370
    15
100
AcDbSpline
210
0.0
220
0.0
230
1.0
 70
     8
 71
     3
 72
    14
 73
    10
 74
     0
 42
0.00000001
 43
0.00000001
 12
1.0
 22
0.0
 32
0.0
 13
1.0
 23
0.0
 33
0.0
 40
0.0
 40
0.0
 40
0.0
 40
0.0
 40
0.1271125994987767
 40
0.2544453055057547
 40
0.4212689171120054
 40
0.5883291030831531
 40
0.7932265522732566
 40
0.9982398214088852
 40
1.0
 40
1.0
 40
1.0
 40
1.0
 10
218.3234077643911
 20
119.4273249251402
 30
0.0
 10
218.3614868954793
 20
119.8373984917248
 30
0.0
 10
218.4377110949791
 20
120.6582557028972
 30
0.0
 10
218.7444347593408
 20
121.9279018838996
 30
0.0
 10
219.2129360485809
 20
123.2005010706237
 30
0.0
 10
219.912184644175
 20
124.5108860532736
 30
0.0
 10
220.8034206326346
 20
125.7023428996187
 30
0.0
 10
221.5293517444665
 20
126.3816806198398
 30
0.0
 10
221.9123221923467
 20
126.6766746833215
 30
0.0
 10
221.9155822646181
 20
126.679185848274
 30
0.0
  0
SPLINE
  5
95
330
1F
100
AcDbEntity
  8
0
  6
Continuous
 62
     7
370
    15
100
AcDbSpline
210
0.0
220
0.0
230
1.0
 70
     8
 71
     3
 72
    10
 73
     6
 74
     0
 42
0.00000001
 43
0.00000001
 12
1.0
 22
0.0
 32
0.0
 13
1.0
 23
0.0
 33
0.0
 40
0.0
 40
0.0
 40
0.0
 40
0.0
 40
0.3401615803165492
 40
0.6905232523450506
 40
1.0
 40
1.0
 40
1.0
 40
1.0
 10
219.0038506638566
 20
115.6003393238045
 30
0.0
 10
218.8457630347602
 20
116.0175273405765
 30
0.0
 10
218.5248473578704
 20
116.8644131820425
 30
0.0
 10
218.3065841899031
 20
118.1653311444958
 30
0.0
 10
218.3180364411188
 20
119.0244036215698
 30
0.0
 10
218.3234077643911
 20
119.4273249251402
 30
0.0
  0
SPLINE
  5
96
330
1F
100
AcDbEntity
  8
0
  6
Continuous
 62
     7
370
    15
100
AcDbSpline
210
0.0
220
0.0
230
1.0
 70
     8
 71
     3
 72
    10
 73
     6
 74
     0
 42
0.00000001
 43
0.00000001
 12
1.0
 22
0.0
 32
0.0
 13
1.0
 23
0.0
 33
0.0
 40
0.0
 40
0.0
 40
0.0
 40
0.0
 40
0.1480660887136792
 40
0.9078069630911556
 40
1.0
 40
1.0
 40
1.0
 40
1.0
 10
217.4813319694559
 20
117.9344404494024
 30
0.0
 10
217.5002710286136
 20
117.8874797139912
 30
0.0
 10
217.6163881620316
 20
117.5995590768718
 30
0.0
 10
217.7696350093528
 20
117.2229950618625
 30
0.0
 10
217.921623564994
 20
116.8927649911823
 30
0.0
 10
217.9380711864988
 20
116.8570287530876
 30
0.0
  0
ARC
  5
97
330
1F
100
AcDbEntity
  8
0
  6
Continuous
 62
     7
370
    15
100
AcDbCircle
 10
224.7789006632
 20
119.8161905685
 30
0.0
 40
7.536278415170276
100
AcDbArc
 50
42.3301262302
 51
194.4593003491
  0
ARC
  5
98
330
1F
100
AcDbEntity
  8
0
  6
Continuous
 62
     7
370
    15
100
AcDbCircle
 10
-127.5291471262
 20
-35.5580537974
 30
0.0
 40
393.0184920084104
100
AcDbArc
 50
22.6723187572
 51
23.570133801
  0
SPLINE
  5
99
330
1F
100
AcDbEntity
  8
0
  6
Continuous
 62
     7
370
    15
100
AcDbSpline
210
0.0
220
0.0
230
1.0
 70
     8
 71
     3
 72
     9
 73
     5
 74
     0
 42
0.00000001
 43
0.00000001
 12
1.0
 22
0.0
 32
0.0
 13
1.0
 23
0.0
 33
0.0
 40
0.0
 40
0.0
 40
0.0
 40
0.0
 40
0.7876228973199406
 40
1.0
 40
1.0
 40
1.0
 40
1.0
 10
235.1186145793954
 20
115.9349691127993
 30
0.0
 10
235.3994059318116
 20
115.248958192575
 30
0.0
 10
235.7559107431516
 20
114.3779691411413
 30
0.0
 10
236.0179062065011
 20
113.5015407054185
 30
0.0
 10
236.0735480439226
 20
113.3154073735333
 30
0.0
  0
SPLINE
  5
9A
330
1F
100
AcDbEntity
  8
0
  6
Continuous
 62
     7
370
    15
100
AcDbSpline
210
0.0
220
0.0
230
1.0
 70
     8
 71
     3
 72
    14
 73
    10
 74
     0
 42
0.00000001
 43
0.00000001
 12
1.0
 22
0.0
 32
0.0
 13
1.0
 23
0.0
 33
0.0
 40
0.0
 40
0.0
 40
0.0
 40
0.0
 40
0.0003908073695539
 40
0.1673303755503001
 40
0.3342838646361466
 40
0.4985550401819462
 40
0.6628431308899666
 40
0.8314126704181742
 40
0.9999999999999999
 40
0.9999999999999999
 40
0.9999999999999999
 40
0.9999999999999999
 10
236.5357075583497
 20
111.808552593515
 30
0.0
 10
236.5362192971554
 20
111.8068824174509
 30
0.0
 10
236.7553283856807
 20
111.0917700377374
 30
0.0
 10
237.0477242614728
 20
109.6678222337994
 30
0.0
 10
237.3939021064677
 20
107.5706685860862
 30
0.0
 10
237.5618281680123
 20
105.5262934997205
 30
0.0
 10
237.5844660818807
 20
103.5307115656983
 30
0.0
 10
237.4697998461957
 20
101.5784438697099
 30
0.0
 10
237.2794172936831
 20
100.3321069644143
 30
0.0
 10
237.1842209946672
 20
99.7089056303359
 30
0.0
  0
SPLINE
  5
9B
330
1F
100
AcDbEntity
  8
0
  6
Continuous
 62
     7
370
    15
100
AcDbSpline
210
0.0
220
0.0
230
1.0
 70
     8
 71
     3
 72
    15
 73
    11
 74
     0
 42
0.00000001
 43
0.00000001
 12
1.0
 22
0.0
 32
0.0
 13
1.0
 23
0.0
 33
0.0
 40
0.0
 40
0.0
 40
0.0
 40
0.0
 40
0.1220877493018298
 40
0.2441780180637471
 40
0.3704039841611142
 40
0.4966403941358384
 40
0.6208486350426444
 40
0.7450698398930752
 40
0.8725281308826138
 40
0.9999999999999999
 40
0.9999999999999999
 40
0.9999999999999999
 40
0.9999999999999999
 10
221.422145212845
 20
109.9365420644737
 30
0.0
 10
221.716735342198
 20
109.2603043766604
 30
0.0
 10
222.3059216802042
 20
107.9078150458753
 30
0.0
 10
223.3108462286528
 20
105.9722702611193
 30
0.0
 10
224.4007483639346
 20
104.1233924391158
 30
0.0
 10
225.5681066087694
 20
102.3929932024115
 30
0.0
 10
226.7862332112121
 20
100.806680772165
 30
0.0
 10
228.0529766494112
 20
99.3564621496358
 30
0.0
 10
229.3638252648827
 20
98.02836931646813
 30
0.0
 10
230.2619681024902
 20
97.25877533593965
 30
0.0
 10
230.7110634398023
 20
96.87395785056124
 30
0.0
  0
ARC
  5
9C
330
1F
100
AcDbEntity
  8
0
  6
Continuous
 62
     7
370
    15
100
AcDbCircle
 10
-141.142390061
 20
-41.5209388571
 30
0.0
 40
392.9279969223749
100
AcDbArc
 50
22.6722145011
 51
23.5702363559
  0
SPLINE
  5
9D
330
1F
100
AcDbEntity
  8
0
  6
Continuous
 62
     7
370
    15
100
AcDbSpline
210
0.0
220
0.0
230
1.0
 70
     8
 71
     3
 72
    16
 73
    12
 74
     0
 42
0.00000001
 43
0.00000001
 12
1.0
 22
0.0
 32
0.0
 13
1.0
 23
0.0
 33
0.0
 40
0.0
 40
0.0
 40
0.0
 40
0.0
 40
0.1232575952614659
 40
0.2465362070127235
 40
0.3688824624127808
 40
0.4876906983664056
 40
0.6024700367660805
 40
0.7153162460385352
 40
0.829405070418806
 40
0.947026109543271
 40
1.0
 40
1.0
 40
1.0
 40
1.0
 10
224.6875409733812
 20
117.5286683259166
 30
0.0
 10
224.6326402587004
 20
117.6983783747498
 30
0.0
 10
224.5228294682905
 20
118.0378274094525
 30
0.0
 10
224.581207603251
 20
118.5786220842023
 30
0.0
 10
224.801867091747
 20
119.0606642282829
 30
0.0
 10
225.1688325015521
 20
119.4292842450358
 30
0.0
 10
225.6255961598446
 20
119.6431968998341
 30
0.0
 10
226.1227120626766
 20
119.6926066360253
 30
0.0
 10
226.6052839903919
 20
119.5711866430144
 30
0.0
 10
226.9745638614587
 20
119.3653271541848
 30
0.0
 10
227.1209403638912
 20
119.167994982647
 30
0.0
 10
227.1663938414613
 20
119.1067185258127
 30
0.0
  0
SPLINE
  5
9E
330
1F
100
AcDbEntity
  8
0
  6
Continuous
 62
     7
370
    15
100
AcDbSpline
210
0.0
220
0.0
230
1.0
 70
     8
 71
     3
 72
     9
 73
     5
 74
     0
 42
0.00000001
 43
0.00000001
 12
1.0
 22
0.0
 32
0.0
 13
1.0
 23
0.0
 33
0.0
 40
0.0
 40
0.0
 40
0.0
 40
0.0
 40
0.3014722357487659
 40
1.0
 40
1.0
 40
1.0
 40
1.0
 10
224.9418255638639
 20
117.1501597394801
 30
0.0
 10
224.9080023341637
 20
117.1818872098229
 30
0.0
 10
224.7958088195066
 20
117.2871289753341
 30
0.0
 10
224.7320666491376
 20
117.4293340988924
 30
0.0
 10
224.6875409733812
 20
117.5286683259166
 30
0.0
  0
LINE
  5
9F
330
1F
100
AcDbEntity
  8
0
  6
Continuous
 62
     7
370
    15
100
AcDbLine
 10
220.2711906981
 20
111.2936625262
 30
0.0
 11
218.5612377476
 21
115.4346365487
 31
0.0
  0
ARC
  5
A0
330
1F
100
AcDbEntity
  8
0
  6
Continuous
 62
     7
370
    15
100
AcDbCircle
 10
184.4140985399
 20
101.3220822355
 30
0.0
 40
36.94849530511345
100
AcDbArc
 50
22.454650972
 51
24.8629185205
  0
SPLINE
  5
A1
330
1F
100
AcDbEntity
  8
0
  6
Continuous
 62
     7
370
    15
100
AcDbSpline
210
0.0
220
0.0
230
1.0
 70
     8
 71
     3
 72
    12
 73
     8
 74
     0
 42
0.00000001
 43
0.00000001
 12
1.0
 22
0.0
 32
0.0
 13
1.0
 23
0.0
 33
0.0
 40
0.0
 40
0.0
 40
0.0
 40
0.0
 40
0.2188996830432355
 40
0.443746356821339
 40
0.662805432438678
 40
0.8894870726778802
 40
1.0
 40
1.0
 40
1.0
 40
1.0
 10
230.7110634398023
 20
96.87395785056124
 30
0.0
 10
230.8444035481671
 20
96.7661799035406
 30
0.0
 10
231.1147063027551
 20
96.54769593558233
 30
0.0
 10
231.4434082254151
 20
96.30734934372484
 30
0.0
 10
231.6933899129851
 20
96.14413705170722
 30
0.0
 10
231.8364515383313
 20
96.06877353827785
 30
0.0
 10
231.8508643991539
 20
96.0829495543844
 30
0.0
 10
231.8555881034891
 20
96.08759563468466
 30
0.0
  0
SPLINE
  5
A2
330
1F
100
AcDbEntity
  8
0
  6
Continuous
 62
     7
370
    15
100
AcDbSpline
210
0.0
220
0.0
230
1.0
 70
     8
 71
     3
 72
     9
 73
     5
 74
     0
 42
0.00000001
 43
0.00000001
 12
1.0
 22
0.0
 32
0.0
 13
1.0
 23
0.0
 33
0.0
 40
0.0
 40
0.0
 40
0.0
 40
0.0
 40
0.10943623613785
 40
1.0
 40
1.0
 40
1.0
 40
1.0
 10
226.2805458855192
 20
101.4281252404309
 30
0.0
 10
226.2701484837635
 20
101.4400345747894
 30
0.0
 10
226.1751397177226
 20
101.5488589896157
 30
0.0
 10
226.0661626469181
 20
101.6814285078906
 30
0.0
 10
225.9691116165677
 20
101.7994901170589
 30
0.0
  0
ARC
  5
A3
330
1F
100
AcDbEntity
  8
0
  6
Continuous
 62
     7
370
    15
100
AcDbCircle
 10
254.6954555516
 20
125.4964731279
 30
0.0
 40
37.23909021028025
100
AcDbArc
 50
202.4201319346
 51
219.5199600329
  0
SPLINE
  5
A4
330
1F
100
AcDbEntity
  8
0
  6
Continuous
 62
     7
370
    15
100
AcDbSpline
210
0.0
220
0.0
230
1.0
 70
     8
 71
     3
 72
    12
 73
     8
 74
     0
 42
0.00000001
 43
0.00000001
 12
1.0
 22
0.0
 32
0.0
 13
1.0
 23
0.0
 33
0.0
 40
0.0
 40
0.0
 40
0.0
 40
0.0
 40
0.218899623464351
 40
0.4437465371948173
 40
0.6628055178595544
 40
0.8894871351859333
 40
1.0
 40
1.0
 40
1.0
 40
1.0
 10
237.1842209946672
 20
99.7089056303359
 30
0.0
 10
237.1489230505126
 20
99.52727238654737
 30
0.0
 10
237.0773681513272
 20
99.15907110006249
 30
0.0
 10
236.9436599398622
 20
98.71620682246005
 30
0.0
 10
236.7969876963558
 20
98.37927918045459
 30
0.0
 10
236.6689054554508
 20
98.18516930288054
 30
0.0
 10
236.5946291751611
 20
98.16050229577439
 30
0.0
 10
236.5702857029001
 20
98.1524178763486
 30
0.0
  0
LINE
  5
A5
330
1F
100
AcDbEntity
  8
0
  6
Continuous
 62
     7
370
    15
100
AcDbLine
 10
227.8430853736
 20
99.6252989402
 30
0.0
 11
229.1664314222
 21
96.9410112133
 31
0.0
  0
LINE
  5
A6
330
1F
100
AcDbEntity
  8
0
  6
Continuous
 62
     7
370
    15
100
AcDbLine
 10
242.9386657428
 20
90.5003493657
 30
0.0
 11
237.4445331049
 21
101.6447005799
 31
0.0
  0
ARC
  5
A7
330
1F
100
AcDbEntity
  8
0
  6
Continuous
 62
     7
370
    15
100
AcDbCircle
 10
242.5720092589
 20
90.3306347163
 30
0.0
 40
0.4040297506324759
100
AcDbArc
 50
243.3531499637
 51
24.8380493682
  0
LINE
  5
A8
330
1F
100
AcDbEntity
  8
0
  6
Continuous
 62
     7
370
    15
100
AcDbLine
 10
229.3285672318
 20
96.7753848066
 30
0.0
 11
242.3908059251
 21
89.9695178499
 31
0.0
  0
ARC
  5
A9
330
1F
100
AcDbEntity
  8
0
  6
Continuous
 62
     7
370
    15
100
AcDbCircle
 10
229.5001966523
 20
97.1055697079
 30
0.0
 40
0.3721272994610699
100
AcDbArc
 50
206.2449870574
 51
242.5346836543
  0
ARC
  5
AA
330
1F
100
AcDbEntity
  8
0
  6
Continuous
 62
     7
370
    15
100
AcDbCircle
 10
242.5725936234
 20
90.329988846
 30
0.0
 40
0.3838263352161005
100
AcDbArc
 50
243.3530465552
 51
24.8383332858
  0
LINE
  5
AB
330
1F
100
AcDbEntity
  8
0
  6
Continuous
 62
     7
370
    15
100
AcDbLine
 10
242.9209147346
 20
90.4912186792
 30
0.0
 11
237.4420669627
 21
101.6045680275
 31
0.0
  0
LINE
  5
AC
330
1F
100
AcDbEntity
  8
0
  6
Continuous
 62
     7
370
    15
100
AcDbLine
 10
227.8943453681
 20
99.5664542546
 30
0.0
 11
229.1841824305
 21
96.9501418998
 31
0.0
  0
ARC
  5
AD
330
1F
100
AcDbEntity
  8
0
  6
Continuous
 62
     7
370
    15
100
AcDbCircle
 10
229.5012660276
 20
97.1064756771
 30
0.0
 40
0.3535282980374423
100
AcDbArc
 50
206.2449782332
 51
242.533514859
  0
LINE
  5
AE
330
1F
100
AcDbEntity
  8
0
  6
Continuous
 62
     7
370
    15
100
AcDbLine
 10
229.3382082831
 20
96.7927968135
 30
0.0
 11
242.4004507017
 21
89.9869298568
 31
0.0
  0
LINE
  5
AF
330
1F
100
AcDbEntity
  8
0
  6
Continuous
 62
     7
370
    15
100
AcDbLine
 10
229.7018934738
 20
97.452426516
 30
0.0
 11
229.483330692
 21
97.1685351809
 31
0.0
  0
LINE
  5
B0
330
1F
100
AcDbEntity
  8
0
  6
Continuous
 62
     7
370
    15
100
AcDbLine
 10
237.5989352119
 20
96.7729745438
 30
0.0
 11
236.7971670579
 21
98.3992910018
 31
0.0
  0
ARC
  5
B1
330
1F
100
AcDbEntity
  8
0
  6
Continuous
 62
     7
370
    15
100
AcDbCircle
 10
236.6822981979
 20
96.3486854975
 30
0.0
 40
1.010071586688353
100
AcDbArc
 50
243.3531589097
 51
24.8382740633
  0
LINE
  5
B2
330
1F
100
AcDbEntity
  8
0
  6
Continuous
 62
     7
370
    15
100
AcDbLine
 10
233.5793805074
 20
96.8265870591
 30
0.0
 11
236.2292912554
 21
95.4458957543
 31
0.0
  0
LINE
  5
B3
330
1F
100
AcDbEntity
  8
0
  6
Continuous
 62
     7
370
    15
100
AcDbLine
 10
240.1908022117
 20
92.7840529015
 30
0.0
 11
242.5455731105
 21
90.3626700868
 31
0.0
  0
LINE
  5
B4
330
1F
100
AcDbEntity
  8
0
  6
Continuous
 62
     7
370
    15
100
AcDbLine
 10
240.1908022117
 20
92.7840529015
 30
0.0
 11
239.0407790196
 21
95.1167700817
 31
0.0
  0
LINE
  5
B5
330
1F
100
AcDbEntity
  8
0
  6
Continuous
 62
     7
370
    15
100
AcDbLine
 10
237.8773112547
 20
93.9894599845
 30
0.0
 11
240.1908022117
 21
92.7840529015
 31
0.0
  0
SPLINE
  5
B6
330
1F
100
AcDbEntity
  8
0
  6
Continuous
 62
     7
370
    15
100
AcDbSpline
210
0.0
220
0.0
230
1.0
 70
     8
 71
     3
 72
     9
 73
     5
 74
     0
 42
0.00000001
 43
0.00000001
 12
1.0
 22
0.0
 32
0.0
 13
1.0
 23
0.0
 33
0.0
 40
0.0
 40
0.0
 40
0.0
 40
0.0
 40
0.9630234139633608
 40
1.0
 40
1.0
 40
1.0
 40
1.0
 10
229.7018934738199
 20
97.45242651604185
 30
0.0
 10
229.7470736604858
 20
97.51046149426466
 30
0.0
 10
229.7939886015047
 20
97.57072480394264
 30
0.0
 10
229.8527697733826
 20
97.62740131077713
 30
0.0
 10
229.8549433004419
 20
97.62949701450835
 30
0.0
  0
ARC
  5
B7
330
1F
100
AcDbEntity
  8
0
  6
Continuous
 62
     7
370
    15
100
AcDbCircle
 10
236.4589740404
 20
96.6141508318
 30
0.0
 40
2.473619169713352
100
AcDbArc
 50
304.4294855722
 51
323.7616848327
  0
SPLINE
  5
B8
330
1F
100
AcDbEntity
  8
0
  6
Continuous
 62
     7
370
    15
100
AcDbSpline
210
0.0
220
0.0
230
1.0
 70
     8
 71
     3
 72
    14
 73
    10
 74
     0
 42
0.00000001
 43
0.00000001
 12
1.0
 22
0.0
 32
0.0
 13
1.0
 23
0.0
 33
0.0
 40
0.0
 40
0.0
 40
0.0
 40
0.0
 40
0.2234961667271955
 40
0.3567644126685953
 40
0.4531204175342639
 40
0.5344622487350088
 40
0.6157310018783135
 40
0.7396169556583602
 40
1.0
 40
1.0
 40
1.0
 40
1.0
 10
239.0407790195505
 20
95.11677008174429
 30
0.0
 10
239.0129834301066
 20
95.16734627612365
 30
0.0
 10
238.9686136438685
 20
95.24808048533625
 30
0.0
 10
238.8836502418048
 20
95.32979435521416
 30
0.0
 10
238.8107966568358
 20
95.3663925047415
 30
0.0
 10
238.7421611584562
 20
95.37381190187416
 30
0.0
 10
238.6674048862646
 20
95.35553546593889
 30
0.0
 10
238.5607881331341
 20
95.28789215328051
 30
0.0
 10
238.4971981156922
 20
95.20681868669323
 30
0.0
 10
238.4541091274778
 20
95.15188280545244
 30
0.0
  0
SPLINE
  5
B9
330
1F
100
AcDbEntity
  8
0
  6
Continuous
 62
     7
370
    15
100
AcDbSpline
210
0.0
220
0.0
230
1.0
 70
     8
 71
     3
 72
    14
 73
    10
 74
     0
 42
0.00000001
 43
0.00000001
 12
1.0
 22
0.0
 32
0.0
 13
1.0
 23
0.0
 33
0.0
 40
0.0
 40
0.0
 40
0.0
 40
0.0
 40
0.2210572011042098
 40
0.346078738764013
 40
0.4395991691157067
 40
0.5338890865882663
 40
0.6146549983420304
 40
0.7517258256082607
 40
0.9999999999999999
 40
0.9999999999999999
 40
0.9999999999999999
 40
0.9999999999999999
 10
237.8575374137918
 20
94.57385372422705
 30
0.0
 10
237.8098463422738
 20
94.53891958139614
 30
0.0
 10
237.7351830162261
 20
94.48422801726552
 30
0.0
 10
237.6611146179796
 20
94.39193456010993
 30
0.0
 10
237.6289948908371
 20
94.31426131071775
 30
0.0
 10
237.6285697730205
 20
94.24221629098403
 30
0.0
 10
237.6576278691735
 20
94.16616037990057
 30
0.0
 10
237.7352855784866
 20
94.07215127761808
 30
0.0
 10
237.8216606228399
 20
94.02186132794823
 30
0.0
 10
237.877311254696
 20
93.98945998452673
 30
0.0
  0
SPLINE
  5
BA
330
1F
100
AcDbEntity
  8
0
  6
Continuous
 62
     7
370
    15
100
AcDbSpline
210
0.0
220
0.0
230
1.0
 70
     8
 71
     3
 72
    12
 73
     8
 74
     0
 42
0.00000001
 43
0.00000001
 12
1.0
 22
0.0
 32
0.0
 13
1.0
 23
0.0
 33
0.0
 40
0.0
 40
0.0
 40
0.0
 40
0.0
 40
0.5000000000000032
 40
0.5000000000000032
 40
0.7500000000000016
 40
0.7500000000000016
 40
1.0
 40
1.0
 40
1.0
 40
1.0
 10
191.0723367539377
 20
133.0226756731149
 30
0.0
 10
191.1030361373051
 20
132.9083400060511
 30
0.0
 10
191.1443862054116
 20
132.7969866532097
 30
0.0
 10
191.244142133631
 20
132.644249880961
 30
0.0
 10
191.2838390513637
 20
132.5963899951088
 30
0.0
 10
191.3810972030113
 20
132.5217868817594
 30
0.0
 10
191.4418733610021
 20
132.4950326442513
 30
0.0
 10
191.50534945583
 20
132.4950326442513
 30
0.0
  0
LINE
  5
BB
330
1F
100
AcDbEntity
  8
0
  6
Continuous
 62
     7
370
    15
100
AcDbLine
 10
191.5053493109
 20
132.4950328102
 30
0.0
 11
194.4498355266
 21
132.4950328102
 31
0.0
  0
SPLINE
  5
BC
330
1F
100
AcDbEntity
  8
0
  6
Continuous
 62
     7
370
    15
100
AcDbSpline
210
0.0
220
0.0
230
1.0
 70
     8
 71
     3
 72
    12
 73
     8
 74
     0
 42
0.00000001
 43
0.00000001
 12
1.0
 22
0.0
 32
0.0
 13
1.0
 23
0.0
 33
0.0
 40
0.0
 40
0.0
 40
0.0
 40
0.0
 40
0.2500000000000009
 40
0.2500000000000009
 40
0.5000000000000019
 40
0.5000000000000019
 40
1.0
 40
1.0
 40
1.0
 40
1.0
 10
194.4498358286971
 20
132.4950326442513
 30
0.0
 10
194.5135010652276
 20
132.4950326442513
 30
0.0
 10
194.573107297451
 20
132.521104792731
 30
0.0
 10
194.6717678223818
 20
132.5966435435521
 30
0.0
 10
194.710734812397
 20
132.6438944806483
 30
0.0
 10
194.8101216443216
 20
132.7957182986148
 30
0.0
 10
194.852197891745
 20
132.9085215483798
 30
0.0
 10
194.8828485305893
 20
133.0226756731149
 30
0.0
  0
ELLIPSE
  5
BD
330
1F
100
AcDbEntity
  8
0
  6
Continuous
 62
     7
370
    15
100
AcDbEllipse
 10
181.9213349873
 20
124.9262226751
 30
0.0
 11
11.70927234972709
 21
24.6771864409374
 31
0.0
210
0.0
220
0.0
230
1.0
 40
0.3419987131
 41
5.203068809370452
 42
6.114256032590495
  0
SPLINE
  5
BE
330
1F
100
AcDbEntity
  8
0
  6
Continuous
 62
     7
370
    15
100
AcDbSpline
210
0.0
220
0.0
230
1.0
 70
     8
 71
     3
 72
    12
 73
     8
 74
     0
 42
0.00000001
 43
0.00000001
 12
1.0
 22
0.0
 32
0.0
 13
1.0
 23
0.0
 33
0.0
 40
0.0
 40
0.0
 40
0.0
 40
0.0
 40
0.5000000000000004
 40
0.5000000000000004
 40
0.7500000000000002
 40
0.7500000000000002
 40
1.0
 40
1.0
 40
1.0
 40
1.0
 10
194.8828485305893
 20
148.5788641523024
 30
0.0
 10
194.852149147222
 20
148.6180019946983
 30
0.0
 10
194.8107990791155
 20
148.6551617774238
 30
0.0
 10
194.711043150896
 20
148.7050982830516
 30
0.0
 10
194.6713462331633
 20
148.7205511531953
 30
0.0
 10
194.5740880815157
 20
148.7444706967944
 30
0.0
 10
194.513311923525
 20
148.7529537905727
 30
0.0
 10
194.4498358286971
 20
148.7529537905727
 30
0.0
  0
LINE
  5
BF
330
1F
100
AcDbEntity
  8
0
  6
Continuous
 62
     7
370
    15
100
AcDbLine
 10
194.4498355266
 20
148.752954044
 30
0.0
 11
191.5053493109
 21
148.752954044
 31
0.0
  0
SPLINE
  5
C0
330
1F
100
AcDbEntity
  8
0
  6
Continuous
 62
     7
370
    15
100
AcDbSpline
210
0.0
220
0.0
230
1.0
 70
     8
 71
     3
 72
    12
 73
     8
 74
     0
 42
0.00000001
 43
0.00000001
 12
1.0
 22
0.0
 32
0.0
 13
1.0
 23
0.0
 33
0.0
 40
0.0
 40
0.0
 40
0.0
 40
0.0
 40
0.2500000000000016
 40
0.2500000000000016
 40
0.5000000000000032
 40
0.5000000000000032
 40
1.0
 40
1.0
 40
1.0
 40
1.0
 10
191.50534945583
 20
148.7529537905727
 30
0.0
 10
191.4416842192995
 20
148.7529537905727
 30
0.0
 10
191.3820779870761
 20
148.7446890149069
 30
0.0
 10
191.2834174621453
 20
148.7204702333237
 30
0.0
 10
191.24445047213
 20
148.7052129140146
 30
0.0
 10
191.1450636402056
 20
148.6555795597527
 30
0.0
 10
191.1029873927821
 20
148.6179398515785
 30
0.0
 10
191.0723367539377
 20
148.5788641523024
 30
0.0
  0
ELLIPSE
  5
C1
330
1F
100
AcDbEntity
  8
0
  6
Continuous
 62
     7
370
    15
100
AcDbEllipse
 10
204.0338502972
 20
124.9262226751
 30
0.0
 11
-11.70927234972697
 21
24.67718644093743
 31
0.0
210
0.0
220
0.0
230
1.0
 40
0.3419987131
 41
0.1689292745891354
 42
1.080116497809151
  0
SPLINE
  5
C2
330
1F
100
AcDbEntity
  8
0
  6
Continuous
 62
     7
370
    15
100
AcDbSpline
210
0.0
220
0.0
230
1.0
 70
     8
 71
     3
 72
    12
 73
     8
 74
     0
 42
0.00000001
 43
0.00000001
 12
1.0
 22
0.0
 32
0.0
 13
1.0
 23
0.0
 33
0.0
 40
0.0
 40
0.0
 40
0.0
 40
0.0
 40
0.4999999999999982
 40
0.4999999999999982
 40
0.7499999999999991
 40
0.7499999999999991
 40
1.0
 40
1.0
 40
1.0
 40
1.0
 10
191.0723367539377
 20
101.2735811978392
 30
0.0
 10
191.103188464502
 20
101.2342491574767
 30
0.0
 10
191.1450813279626
 20
101.1968373919484
 30
0.0
 10
191.2446022057558
 20
101.1471664673325
 30
0.0
 10
191.2842163704801
 20
101.1317773847247
 30
0.0
 10
191.3813194042596
 20
101.1079441690574
 30
0.0
 10
191.44181807691
 20
101.0994915595687
 30
0.0
 10
191.5053494558299
 20
101.0994915595687
 30
0.0
  0
LINE
  5
C3
330
1F
100
AcDbEntity
  8
0
  6
Continuous
 62
     7
370
    15
100
AcDbLine
 10
191.5053493109
 20
101.0994913062
 30
0.0
 11
194.4498355266
 21
101.0994913062
 31
0.0
  0
SPLINE
  5
C4
330
1F
100
AcDbEntity
  8
0
  6
Continuous
 62
     7
370
    15
100
AcDbSpline
210
0.0
220
0.0
230
1.0
 70
     8
 71
     3
 72
    12
 73
     8
 74
     0
 42
0.00000001
 43
0.00000001
 12
1.0
 22
0.0
 32
0.0
 13
1.0
 23
0.0
 33
0.0
 40
0.0
 40
0.0
 40
0.0
 40
0.0
 40
0.2500000000000026
 40
0.2500000000000026
 40
0.5000000000000051
 40
0.5000000000000051
 40
1.0
 40
1.0
 40
1.0
 40
1.0
 10
194.4498358286971
 20
101.0994915595689
 30
0.0
 10
194.5134723829108
 20
101.0994915595689
 30
0.0
 10
194.573052509777
 20
101.1077483305006
 30
0.0
 10
194.6716892511434
 20
101.1319503925085
 30
0.0
 10
194.7106478755237
 20
101.1471972115426
 30
0.0
 10
194.8100268150316
 20
101.1968020836027
 30
0.0
 10
194.851984720197
 20
101.2342337317215
 30
0.0
 10
194.8828485305895
 20
101.2735811978392
 30
0.0
  0
ELLIPSE
  5
C5
330
1F
100
AcDbEntity
  8
0
  6
Continuous
 62
     7
370
    15
100
AcDbEllipse
 10
181.9213349873
 20
124.9262226751
 30
0.0
 11
-11.70927234972723
 21
24.6771864409374
 31
0.0
210
0.0
220
0.0
230
1.0
 40
0.3419987131
 41
3.310521928178947
 42
4.22170915139894
  0
SPLINE
  5
C6
330
1F
100
AcDbEntity
  8
0
  6
Continuous
 62
     7
370
    15
100
AcDbSpline
210
0.0
220
0.0
230
1.0
 70
     8
 71
     3
 72
    12
 73
     8
 74
     0
 42
0.00000001
 43
0.00000001
 12
1.0
 22
0.0
 32
0.0
 13
1.0
 23
0.0
 33
0.0
 40
0.0
 40
0.0
 40
0.0
 40
0.0
 40
0.4999999999999982
 40
0.4999999999999982
 40
0.7499999999999991
 40
0.7499999999999991
 40
1.0
 40
1.0
 40
1.0
 40
1.0
 10
194.8828485305893
 20
116.8297696770265
 30
0.0
 10
194.8519968200251
 20
116.9446726659633
 30
0.0
 10
194.8101039565645
 20
117.0568115620122
 30
0.0
 10
194.7105830787713
 20
117.208753843613
 30
0.0
 10
194.670968914047
 20
117.2564184531379
 30
0.0
 10
194.5738658802675
 20
117.3307547837533
 30
0.0
 10
194.5133672076171
 20
117.3574127058905
 30
0.0
 10
194.4498358286972
 20
117.3574127058905
 30
0.0
  0
LINE
  5
C7
330
1F
100
AcDbEntity
  8
0
  6
Continuous
 62
     7
370
    15
100
AcDbLine
 10
194.4498355266
 20
117.3574125399
 30
0.0
 11
191.5053493109
 21
117.3574125399
 31
0.0
  0
SPLINE
  5
C8
330
1F
100
AcDbEntity
  8
0
  6
Continuous
 62
     7
370
    15
100
AcDbSpline
210
0.0
220
0.0
230
1.0
 70
     8
 71
     3
 72
    12
 73
     8
 74
     0
 42
0.00000001
 43
0.00000001
 12
1.0
 22
0.0
 32
0.0
 13
1.0
 23
0.0
 33
0.0
 40
0.0
 40
0.0
 40
0.0
 40
0.0
 40
0.2500000000000016
 40
0.2500000000000016
 40
0.5000000000000032
 40
0.5000000000000032
 40
1.0
 40
1.0
 40
1.0
 40
1.0
 10
191.50534945583
 20
117.3574127058901
 30
0.0
 10
191.4417129016163
 20
117.3574127058901
 30
0.0
 10
191.3821327747501
 20
117.3313658028322
 30
0.0
 10
191.2834960333837
 20
117.2558786439322
 30
0.0
 10
191.2445374090034
 20
117.2086596054015
 30
0.0
 10
191.1451584694955
 20
117.056919954308
 30
0.0
 10
191.10320056433
 20
116.9447177301238
 30
0.0
 10
191.0723367539375
 20
116.8297696770265
 30
0.0
  0
ELLIPSE
  5
C9
330
1F
100
AcDbEntity
  8
0
  6
Continuous
 62
     7
370
    15
100
AcDbEllipse
 10
204.0338502972
 20
124.9262226751
 30
0.0
 11
11.70927234972706
 21
24.67718644093743
 31
0.0
210
0.0
220
0.0
230
1.0
 40
0.3419987131
 41
2.061476155780654
 42
2.972663379000668
  0
SPLINE
  5
CA
330
1F
100
AcDbEntity
  8
0
  6
Continuous
 62
     7
370
    15
100
AcDbSpline
210
0.0
220
0.0
230
1.0
 70
     8
 71
     3
 72
    12
 73
     8
 74
     0
 42
0.00000001
 43
0.00000001
 12
1.0
 22
0.0
 32
0.0
 13
1.0
 23
0.0
 33
0.0
 40
0.0
 40
0.0
 40
0.0
 40
0.0
 40
0.2499999999999997
 40
0.2499999999999997
 40
0.4999999999999994
 40
0.4999999999999994
 40
1.0
 40
1.0
 40
1.0
 40
1.0
 10
211.8597678384337
 20
143.536322332963
 30
0.0
 10
211.5528510888226
 20
143.4946413458163
 30
0.0
 10
211.2663013588906
 20
143.4185192954093
 30
0.0
 10
210.7309151221904
 20
143.1995558042416
 30
0.0
 10
210.4957608919754
 20
143.062015978155
 30
0.0
 10
209.879851155128
 20
142.5714433370799
 30
0.0
 10
209.6154581863794
 20
142.1593780291446
 30
0.0
 10
209.4829348925673
 20
141.7071584439768
 30
0.0
  0
ELLIPSE
  5
CB
330
1F
100
AcDbEntity
  8
0
  6
Continuous
 62
     7
370
    15
100
AcDbEllipse
 10
213.4049499367
 20
124.9262226751
 30
0.0
 11
1.494924451962447
 21
24.99694986107126
 31
0.0
210
0.0
220
0.0
230
1.0
 40
0.2612235458
 41
0.8505404115331134
 42
2.741173290398139
  0
SPLINE
  5
CC
330
1F
100
AcDbEntity
  8
0
  6
Continuous
 62
     7
370
    15
100
AcDbSpline
210
0.0
220
0.0
230
1.0
 70
     8
 71
     3
 72
    16
 73
    12
 74
     0
 42
0.00000001
 43
0.00000001
 12
1.0
 22
0.0
 32
0.0
 13
1.0
 23
0.0
 33
0.0
 40
0.0
 40
0.0
 40
0.0
 40
0.0
 40
0.2500000000000003
 40
0.2500000000000003
 40
0.5000000000000006
 40
0.5000000000000006
 40
0.7500000000000009
 40
0.7500000000000009
 40
0.8750000000000004
 40
0.8750000000000004
 40
1.0
 40
1.0
 40
1.0
 40
1.0
 10
209.4829348925673
 20
102.0588137816549
 30
0.0
 10
209.5492709018902
 20
101.9353953636739
 30
0.0
 10
209.647224836939
 20
101.8221421631898
 30
0.0
 10
209.9141663359165
 20
101.6145917948132
 30
0.0
 10
210.0850574751516
 20
101.5202938480165
 30
0.0
 10
210.4908714676286
 20
101.3605411755368
 30
0.0
 10
210.7322127689917
 20
101.2928565949762
 30
0.0
 10
211.1277180024243
 20
101.2162587378933
 30
0.0
 10
211.265660941052
 20
101.1945758313115
 30
0.0
 10
211.5546345700257
 20
101.1588733873517
 30
0.0
 10
211.7059386430757
 20
101.1449110921872
 30
0.0
 10
211.8597678384337
 20
101.1352991313253
 30
0.0
  0
ELLIPSE
  5
CD
330
1F
100
AcDbEntity
  8
0
  6
Continuous
 62
     7
370
    15
100
AcDbEllipse
 10
282.519364225
 20
124.9262226751
 30
0.0
 11
141.7790434936045
 21
5.356812045790505
 31
0.0
210
0.0
220
0.0
230
1.0
 40
0.1722352441
 41
4.184166521448565
 42
4.211217027733468
  0
ELLIPSE
  5
CE
330
1F
100
AcDbEntity
  8
0
  6
Continuous
 62
     7
370
    15
100
AcDbEllipse
 10
282.519364225
 20
124.9262226751
 30
0.0
 11
141.7790434936045
 21
5.356812045790505
 31
0.0
210
0.0
220
0.0
230
1.0
 40
0.1722352441
 41
2.058953396795197
 42
2.0860039030801
  0
LINE
  5
CF
330
1F
100
AcDbEntity
  8
0
  6
Continuous
 62
     7
370
    15
100
AcDbLine
 10
182.9775926423
 20
100.2262217929
 30
0.0
 11
182.9775926423
 21
149.6262235572
 31
0.0
  0
SPLINE
  5
D0
330
1F
100
AcDbEntity
  8
0
  6
Continuous
 62
     7
370
    15
100
AcDbSpline
210
0.0
220
0.0
230
1.0
 70
     8
 71
     3
 72
    16
 73
    12
 74
     0
 42
0.00000001
 43
0.00000001
 12
1.0
 22
0.0
 32
0.0
 13
1.0
 23
0.0
 33
0.0
 40
0.0
 40
0.0
 40
0.0
 40
0.0
 40
0.2499999999999998
 40
0.2499999999999998
 40
0.4999999999999997
 40
0.4999999999999997
 40
0.6249999999999999
 40
0.6249999999999999
 40
0.7500000000000001
 40
0.7500000000000001
 40
1.0
 40
1.0
 40
1.0
 40
1.0
 10
181.9367316141345
 20
107.5770653938783
 30
0.0
 10
181.9684595753272
 20
107.5762682770574
 30
0.0
 10
182.0030871656777
 20
107.5756772022021
 30
0.0
 10
182.0827809277413
 20
107.5746656767676
 30
0.0
 10
182.127822387745
 20
107.5742655685928
 30
0.0
 10
182.2106751145955
 20
107.5733076966889
 30
0.0
 10
182.2405895757953
 20
107.5729260154285
 30
0.0
 10
182.3065759063533
 20
107.5718498013699
 30
0.0
 10
182.343309531815
 20
107.5711322354758
 30
0.0
 10
182.4558062513848
 20
107.5683713577941
 30
0.0
 10
182.5261475994832
 20
107.5658842659226
 30
0.0
 10
182.5826157533883
 20
107.5637109875154
 30
0.0
  0
SPLINE
  5
D1
330
1F
100
AcDbEntity
  8
0
  6
Continuous
 62
     7
370
    15
100
AcDbSpline
210
0.0
220
0.0
230
1.0
 70
     8
 71
     3
 72
    14
 73
    10
 74
     0
 42
0.00000001
 43
0.00000001
 12
1.0
 22
0.0
 32
0.0
 13
1.0
 23
0.0
 33
0.0
 40
0.0
 40
0.0
 40
0.0
 40
0.0
 40
0.1249999999999992
 40
0.1249999999999992
 40
0.2499999999999983
 40
0.2499999999999983
 40
0.4999999999999989
 40
0.4999999999999989
 40
1.0
 40
1.0
 40
1.0
 40
1.0
 10
182.5826157533567
 20
107.5637109875382
 30
0.0
 10
182.5952075473015
 20
107.5632263697158
 30
0.0
 10
182.6100786555955
 20
107.5615161917835
 30
0.0
 10
182.6422627470287
 20
107.5534006430326
 30
0.0
 10
182.6578668785045
 20
107.5471848547713
 30
0.0
 10
182.6937540182166
 20
107.5289657430697
 30
0.0
 10
182.7076060594853
 20
107.5172007147361
 30
0.0
 10
182.7410958014179
 20
107.4854055783188
 30
0.0
 10
182.7517580619936
 20
107.4676121464757
 30
0.0
 10
182.7598960188886
 20
107.4511810156313
 30
0.0
  0
LINE
  5
D2
330
1F
100
AcDbEntity
  8
0
  6
Continuous
 62
     7
370
    15
100
AcDbLine
 10
182.7775926473
 20
118.941742648
 30
0.0
 11
182.7775926473
 21
107.0864016195
 31
0.0
  0
SPLINE
  5
D3
330
1F
100
AcDbEntity
  8
0
  6
Continuous
 62
     7
370
    15
100
AcDbSpline
210
0.0
220
0.0
230
1.0
 70
     8
 71
     3
 72
    16
 73
    12
 74
     0
 42
0.00000001
 43
0.00000001
 12
1.0
 22
0.0
 32
0.0
 13
1.0
 23
0.0
 33
0.0
 40
0.0
 40
0.0
 40
0.0
 40
0.0
 40
0.5000000000000011
 40
0.5000000000000011
 40
0.75
 40
0.75
 40
0.8750000000000003
 40
0.8750000000000003
 40
0.9375000000000002
 40
0.9375000000000002
 40
1.0
 40
1.0
 40
1.0
 40
1.0
 10
182.7775926422635
 20
118.9417424424963
 30
0.0
 10
182.7775926422635
 20
119.0562721731952
 30
0.0
 10
182.7735353401485
 20
119.1715882483847
 30
0.0
 10
182.7478780973537
 20
119.3465113382123
 30
0.0
 10
182.7365626516116
 20
119.4063406412072
 30
0.0
 10
182.7025312843029
 20
119.4909318274554
 30
0.0
 10
182.6886523030991
 20
119.5196014135994
 30
0.0
 10
182.6527166213318
 20
119.5494092005457
 30
0.0
 10
182.637766302069
 20
119.5557443539053
 30
0.0
 10
182.6078677893272
 20
119.5545188910351
 30
0.0
 10
182.5943349289619
 20
119.5479203050003
 30
0.0
 10
182.5826157533879
 20
119.5392726169439
 30
0.0
  0
SPLINE
  5
D4
330
1F
100
AcDbEntity
  8
0
  6
Continuous
 62
     7
370
    15
100
AcDbSpline
210
0.0
220
0.0
230
1.0
 70
     8
 71
     3
 72
    14
 73
    10
 74
     0
 42
0.00000001
 43
0.00000001
 12
1.0
 22
0.0
 32
0.0
 13
1.0
 23
0.0
 33
0.0
 40
0.0
 40
0.0
 40
0.0
 40
0.0
 40
0.25
 40
0.25
 40
0.5
 40
0.5
 40
0.75
 40
0.75
 40
1.0
 40
1.0
 40
1.0
 40
1.0
 10
182.5826157533947
 20
119.5392726169352
 30
0.0
 10
182.526156087511
 20
119.4976105072364
 30
0.0
 10
182.4552836126488
 20
119.4667770266482
 30
0.0
 10
182.3068172547668
 20
119.4724915352614
 30
0.0
 10
182.237622051559
 20
119.5080624626943
 30
0.0
 10
182.1279048654895
 20
119.5950063751682
 30
0.0
 10
182.0826589765575
 20
119.6474386885333
 30
0.0
 10
182.0030418455906
 20
119.7559917700518
 30
0.0
 10
181.9684392261337
 20
119.8129748562943
 30
0.0
 10
181.9367316141349
 20
119.8715409389522
 30
0.0
  0
SPLINE
  5
D5
330
1F
100
AcDbEntity
  8
0
  6
Continuous
 62
     7
370
    15
100
AcDbSpline
210
0.0
220
0.0
230
1.0
 70
     8
 71
     3
 72
    10
 73
     6
 74
     0
 42
0.00000001
 43
0.00000001
 12
1.0
 22
0.0
 32
0.0
 13
1.0
 23
0.0
 33
0.0
 40
0.0
 40
0.0
 40
0.0
 40
0.0
 40
0.5
 40
0.5
 40
1.0
 40
1.0
 40
1.0
 40
1.0
 10
181.6562722987039
 20
120.7243595305985
 30
0.0
 10
181.6871508823158
 20
120.5747309787388
 30
0.0
 10
181.7231435900392
 20
120.4282355612152
 30
0.0
 10
181.8124838415363
 20
120.1430439226744
 30
0.0
 10
181.8649421443819
 20
120.0041408969585
 30
0.0
 10
181.936731614135
 20
119.871540938952
 30
0.0
  0
SPLINE
  5
D6
330
1F
100
AcDbEntity
  8
0
  6
Continuous
 62
     7
370
    15
100
AcDbSpline
210
0.0
220
0.0
230
1.0
 70
     8
 71
     3
 72
    10
 73
     6
 74
     0
 42
0.00000001
 43
0.00000001
 12
1.0
 22
0.0
 32
0.0
 13
1.0
 23
0.0
 33
0.0
 40
0.0
 40
0.0
 40
0.0
 40
0.0
 40
0.5
 40
0.5
 40
1.0
 40
1.0
 40
1.0
 40
1.0
 10
181.9367316141343
 20
129.9809044111884
 30
0.0
 10
181.8649421443814
 20
129.8483044531821
 30
0.0
 10
181.812483841536
 20
129.7094014274664
 30
0.0
 10
181.7231435900391
 20
129.4242097889261
 30
0.0
 10
181.6871508823158
 20
129.2777143714027
 30
0.0
 10
181.6562722987039
 20
129.1280858195433
 30
0.0
  0
SPLINE
  5
D7
330
1F
100
AcDbEntity
  8
0
  6
Continuous
 62
     7
370
    15
100
AcDbSpline
210
0.0
220
0.0
230
1.0
 70
     8
 71
     3
 72
    14
 73
    10
 74
     0
 42
0.00000001
 43
0.00000001
 12
1.0
 22
0.0
 32
0.0
 13
1.0
 23
0.0
 33
0.0
 40
0.0
 40
0.0
 40
0.0
 40
0.0
 40
0.25
 40
0.25
 40
0.5
 40
0.5
 40
0.75
 40
0.75
 40
1.0
 40
1.0
 40
1.0
 40
1.0
 10
181.9367316141337
 20
129.9809044111873
 30
0.0
 10
181.968440313619
 20
130.0394725025058
 30
0.0
 10
182.0030481322596
 20
130.0964667644458
 30
0.0
 10
182.082706542749
 20
130.2050668992098
 30
0.0
 10
182.1277688126439
 20
130.2573950345884
 30
0.0
 10
182.2383506582223
 20
130.3448960459507
 30
0.0
 10
182.3059947790375
 20
130.3799415022049
 30
0.0
 10
182.4562430694346
 20
130.385685890961
 30
0.0
 10
182.526195467665
 20
130.3548057839109
 30
0.0
 10
182.5826157533885
 20
130.3131727331979
 30
0.0
  0
SPLINE
  5
D8
330
1F
100
AcDbEntity
  8
0
  6
Continuous
 62
     7
370
    15
100
AcDbSpline
210
0.0
220
0.0
230
1.0
 70
     8
 71
     3
 72
    16
 73
    12
 74
     0
 42
0.00000001
 43
0.00000001
 12
1.0
 22
0.0
 32
0.0
 13
1.0
 23
0.0
 33
0.0
 40
0.0
 40
0.0
 40
0.0
 40
0.0
 40
0.0625
 40
0.0625
 40
0.1249999999999999
 40
0.1249999999999999
 40
0.2500000000000008
 40
0.2500000000000008
 40
0.4999999999999993
 40
0.4999999999999993
 40
1.0
 40
1.0
 40
1.0
 40
1.0
 10
182.5826157533567
 20
130.3131727331445
 30
0.0
 10
182.5943499878036
 20
130.3045139330002
 30
0.0
 10
182.6078817432825
 20
130.2979098477649
 30
0.0
 10
182.6378692037124
 20
130.2967128805908
 30
0.0
 10
182.6528639101207
 20
130.3031346276567
 30
0.0
 10
182.6886043325154
 20
130.332851781066
 30
0.0
 10
182.7026176695166
 20
130.3616591784493
 30
0.0
 10
182.736761758298
 20
130.4467389000752
 30
0.0
 10
182.7477336624163
 20
130.505113849345
 30
0.0
 10
182.7735792026826
 20
130.6808293741336
 30
0.0
 10
182.7775926422635
 20
130.796624381998
 30
0.0
 10
182.7775926422636
 20
130.9107029076454
 30
0.0
  0
LINE
  5
D9
330
1F
100
AcDbEntity
  8
0
  6
Continuous
 62
     7
370
    15
100
AcDbLine
 10
182.7775926473
 20
142.7660437306
 30
0.0
 11
182.7775926473
 21
130.9107027022
 31
0.0
  0
SPLINE
  5
DA
330
1F
100
AcDbEntity
  8
0
  6
Continuous
 62
     7
370
    15
100
AcDbSpline
210
0.0
220
0.0
230
1.0
 70
     8
 71
     3
 72
    14
 73
    10
 74
     0
 42
0.00000001
 43
0.00000001
 12
1.0
 22
0.0
 32
0.0
 13
1.0
 23
0.0
 33
0.0
 40
0.0
 40
0.0
 40
0.0
 40
0.0
 40
0.5000000000000028
 40
0.5000000000000028
 40
0.7500000000000056
 40
0.7500000000000056
 40
0.8750000000000028
 40
0.8750000000000028
 40
1.0
 40
1.0
 40
1.0
 40
1.0
 10
182.7649928613102
 20
142.4124849567558
 30
0.0
 10
182.7577582559322
 20
142.3950094354828
 30
0.0
 10
182.747552303695
 20
142.3756601319631
 30
0.0
 10
182.7151584112989
 20
142.3416906023724
 30
0.0
 10
182.7020031617055
 20
142.3292380408435
 30
0.0
 10
182.6657212629376
 20
142.3087931202875
 30
0.0
 10
182.6498887648089
 20
142.3015973454795
 30
0.0
 10
182.6139130738211
 20
142.2914388243317
 30
0.0
 10
182.5967156704993
 20
142.289277023279
 30
0.0
 10
182.5826157533843
 20
142.2887343626239
 30
0.0
  0
SPLINE
  5
DB
330
1F
100
AcDbEntity
  8
0
  6
Continuous
 62
     7
370
    15
100
AcDbSpline
210
0.0
220
0.0
230
1.0
 70
     8
 71
     3
 72
    14
 73
    10
 74
     0
 42
0.00000001
 43
0.00000001
 12
1.0
 22
0.0
 32
0.0
 13
1.0
 23
0.0
 33
0.0
 40
0.0
 40
0.0
 40
0.0
 40
0.0
 40
0.25
 40
0.25
 40
0.5
 40
0.5
 40
0.75
 40
0.75
 40
1.0
 40
1.0
 40
1.0
 40
1.0
 10
182.5826157533947
 20
142.2887343626264
 30
0.0
 10
182.5261686713362
 20
142.2865618952071
 30
0.0
 10
182.455318287293
 20
142.2840637972896
 30
0.0
 10
182.3068818524761
 20
142.2804173385015
 30
0.0
 10
182.2376926007891
 20
142.2794495916502
 30
0.0
 10
182.1279810525481
 20
142.2781820322875
 30
0.0
 10
182.0827394032057
 20
142.2777791913592
 30
0.0
 10
182.0030913850217
 20
142.2767681564315
 30
0.0
 10
181.9684644692557
 20
142.2761771960369
 30
0.0
 10
181.9367316141343
 20
142.2753799562635
 30
0.0
  0
SPLINE
  5
DC
330
1F
100
AcDbEntity
  8
0
  6
Continuous
 62
     7
370
    15
100
AcDbSpline
210
0.0
220
0.0
230
1.0
 70
     8
 71
     3
 72
    18
 73
    14
 74
     0
 42
0.00000001
 43
0.00000001
 12
1.0
 22
0.0
 32
0.0
 13
1.0
 23
0.0
 33
0.0
 40
0.0
 40
0.0
 40
0.0
 40
0.0
 40
0.25
 40
0.25
 40
0.375
 40
0.375
 40
0.5
 40
0.5
 40
0.625
 40
0.625
 40
0.75
 40
0.75
 40
1.0
 40
1.0
 40
1.0
 40
1.0
 10
181.6562722987039
 20
129.1280858195433
 30
0.0
 10
181.5209866924016
 20
128.472531484122
 30
0.0
 10
181.4198189461586
 20
127.7929103903245
 30
0.0
 10
181.3169576032897
 20
126.7375463838304
 30
0.0
 10
181.2908547577664
 20
126.3787323192458
 30
0.0
 10
181.2559647742216
 20
125.6526193751228
 30
0.0
 10
181.2473785159316
 20
125.2905296961067
 30
0.0
 10
181.2472788063659
 20
124.5682200386883
 30
0.0
 10
181.2557671775145
 20
124.20800023658
 30
0.0
 10
181.2899105570351
 20
123.489434167486
 30
0.0
 10
181.3157075388889
 20
123.1296684515707
 30
0.0
 10
181.4191086702768
 20
122.0630238645763
 30
0.0
 10
181.5209666624482
 20
121.3800109252939
 30
0.0
 10
181.6562722987039
 20
120.7243595305985
 30
0.0
  0
LINE
  5
DD
330
1F
100
AcDbEntity
  8
0
  6
Continuous
 62
     7
370
    15
100
AcDbLine
 10
180.7775926542
 20
130.0663749693
 30
0.0
 11
180.7775926542
 21
119.7860703809
 31
0.0
  0
LINE
  5
DE
330
1F
100
AcDbEntity
  8
0
  6
Continuous
 62
     7
370
    15
100
AcDbLine
 10
154.4775926274
 20
129.7360013244
 30
0.0
 11
154.4775926274
 21
120.1164440257
 31
0.0
  0
LINE
  5
DF
330
1F
100
AcDbEntity
  8
0
  6
Continuous
 62
     7
370
    15
100
AcDbLine
 10
152.9775933128
 20
129.3029884813
 30
0.0
 11
152.9775933128
 21
120.5494568688
 31
0.0
  0
LINE
  5
E0
330
1F
100
AcDbEntity
  8
0
  6
Continuous
 62
     7
370
    15
100
AcDbLine
 10
154.4775926274
 20
108.0668719491
 30
0.0
 11
154.4775926274
 21
120.1164440257
 31
0.0
  0
LINE
  5
E1
330
1F
100
AcDbEntity
  8
0
  6
Continuous
 62
     7
370
    15
100
AcDbLine
 10
180.7775926542
 20
107.4061246594
 30
0.0
 11
180.7775926542
 21
119.7860703809
 31
0.0
  0
LINE
  5
E2
330
1F
100
AcDbEntity
  8
0
  6
Continuous
 62
     7
370
    15
100
AcDbLine
 10
154.4775926274
 20
108.0668719491
 30
0.0
 11
180.7775926542
 21
107.4061246594
 31
0.0
  0
LINE
  5
E3
330
1F
100
AcDbEntity
  8
0
  6
Continuous
 62
     7
370
    15
100
AcDbLine
 10
180.7775926542
 20
130.0663749693
 30
0.0
 11
180.7775926542
 21
142.4463206907
 31
0.0
  0
ARC
  5
E4
330
1F
100
AcDbEntity
  8
0
  6
Continuous
 62
     7
370
    15
100
AcDbCircle
 10
180.9775295532
 20
142.4513445708
 30
0.0
 40
0.2000000000000059
100
AcDbArc
 50
181.4391666667
 51
271.4391666667
  0
ARC
  5
E5
330
1F
100
AcDbEntity
  8
0
  6
Continuous
 62
     7
370
    15
100
AcDbCircle
 10
180.9775295532
 20
107.4011007794
 30
0.0
 40
0.2000000000000059
100
AcDbArc
 50
88.5608333333
 51
178.5608333333
  0
LINE
  5
E6
330
1F
100
AcDbEntity
  8
0
  6
Continuous
 62
     7
370
    15
100
AcDbLine
 10
154.4775926274
 20
129.7360013244
 30
0.0
 11
154.4775926274
 21
141.7855734011
 31
0.0
  0
LINE
  5
E7
330
1F
100
AcDbEntity
  8
0
  6
Continuous
 62
     7
370
    15
100
AcDbLine
 10
154.4775926274
 20
141.7855734011
 30
0.0
 11
180.7775926542
 21
142.4463206907
 31
0.0
  0
LINE
  5
E8
330
1F
100
AcDbEntity
  8
0
  6
Continuous
 62
     7
370
    15
100
AcDbLine
 10
180.9825527713
 20
107.6010374358
 30
0.0
 11
181.9367316317
 21
107.5770651927
 31
0.0
  0
LINE
  5
E9
330
1F
100
AcDbEntity
  8
0
  6
Continuous
 62
     7
370
    15
100
AcDbLine
 10
180.9825527713
 20
142.2514079144
 30
0.0
 11
181.9367316317
 21
142.2753801575
 31
0.0
  0
SPLINE
  5
EA
330
1F
100
AcDbEntity
  8
0
  6
Continuous
 62
     7
370
    15
100
AcDbSpline
210
0.0
220
0.0
230
1.0
 70
     8
 71
     3
 72
    10
 73
     6
 74
     0
 42
0.00000001
 43
0.00000001
 12
1.0
 22
0.0
 32
0.0
 13
1.0
 23
0.0
 33
0.0
 40
0.0
 40
0.0
 40
0.0
 40
0.0
 40
0.5
 40
0.5
 40
1.0
 40
1.0
 40
1.0
 40
1.0
 10
215.2102656542845
 20
100.9362634842144
 30
0.0
 10
215.447590382579
 20
100.9228852466829
 30
0.0
 10
215.6662832574545
 20
100.8172556173586
 30
0.0
 10
216.0041149573594
 20
100.4999189720774
 30
0.0
 10
216.1213313529308
 20
100.2932339635267
 30
0.0
 10
216.1761914805736
 20
100.0655941569339
 30
0.0
  0
SPLINE
  5
EB
330
1F
100
AcDbEntity
  8
0
  6
Continuous
 62
     7
370
    15
100
AcDbSpline
210
0.0
220
0.0
230
1.0
 70
     8
 71
     3
 72
    12
 73
     8
 74
     0
 42
0.00000001
 43
0.00000001
 12
1.0
 22
0.0
 32
0.0
 13
1.0
 23
0.0
 33
0.0
 40
0.0
 40
0.0
 40
0.0
 40
0.0
 40
0.2499999999999964
 40
0.2499999999999964
 40
0.4999999999999929
 40
0.4999999999999929
 40
1.0
 40
1.0
 40
1.0
 40
1.0
 10
216.076291058069
 20
144.644779688632
 30
0.0
 10
216.035049936768
 20
144.5609236881842
 30
0.0
 10
215.9839969780011
 20
144.4798093219912
 30
0.0
 10
215.8657318648952
 20
144.331374953971
 30
0.0
 10
215.7992845757249
 20
144.2644805432537
 30
0.0
 10
215.5761505729191
 20
144.0876155997568
 30
0.0
 10
215.3989345489148
 20
144.0054882611298
 30
0.0
 10
215.2102656542846
 20
143.9810194330333
 30
0.0
  0
ELLIPSE
  5
EC
330
1F
100
AcDbEntity
  8
0
  6
Continuous
 62
     7
370
    15
100
AcDbEllipse
 10
282.519364225
 20
124.9262226751
 30
0.0
 11
144.6146243634767
 21
5.463948286706326
 31
0.0
210
0.0
220
0.0
230
1.0
 40
0.1722352441
 41
2.001190107754213
 42
2.041652901823874
  0
LINE
  5
ED
330
1F
100
AcDbEntity
  8
0
  6
Continuous
 62
     7
370
    15
100
AcDbLine
 10
221.3267330777
 20
145.2826933941
 30
0.0
 11
235.5394382727
 21
125.6431613705
 31
0.0
  0
LINE
  5
EE
330
1F
100
AcDbEntity
  8
0
  6
Continuous
 62
     7
370
    15
100
AcDbLine
 10
235.5394382727
 20
125.6431613705
 30
0.0
 11
235.5394382727
 21
114.8281136533
 31
0.0
  0
ARC
  5
EF
330
1F
100
AcDbEntity
  8
0
  6
Continuous
 62
     7
370
    15
100
AcDbCircle
 10
220.9848834681
 20
109.4531776675
 30
0.0
 40
2.060927243198446
100
AcDbArc
 50
111.2473684484
 51
240.5876656563
  0
LINE
  5
F0
330
1F
100
AcDbEntity
  8
0
  6
Continuous
 62
     7
370
    15
100
AcDbLine
 10
222.8804920566
 20
106.1428712686
 30
0.0
 11
219.972780044
 21
107.6578872284
 31
0.0
  0
LINE
  5
F1
330
1F
100
AcDbEntity
  8
0
  6
Continuous
 62
     7
370
    15
100
AcDbLine
 10
229.2341571998
 20
96.7593902727
 30
0.0
 11
227.7928386581
 21
99.6829813351
 31
0.0
  0
ARC
  5
F2
330
1F
100
AcDbEntity
  8
0
  6
Continuous
 62
     7
370
    15
100
AcDbCircle
 10
222.1955767036
 20
72.3752040648
 30
0.0
 40
25.3797193133465
100
AcDbArc
 50
73.8990309019
 51
92.1532262925
  0
LINE
  5
F3
330
1F
100
AcDbEntity
  8
0
  6
Continuous
 62
     7
370
    15
100
AcDbLine
 10
216.7843003523
 20
97.5735822698
 30
0.0
 11
221.2420088005
 21
97.7370033046
 31
0.0
  0
SPLINE
  5
F4
330
1F
100
AcDbEntity
  8
0
  6
Continuous
 62
     7
370
    15
100
AcDbSpline
210
0.0
220
0.0
230
1.0
 70
     8
 71
     3
 72
     8
 73
     4
 74
     0
 42
0.00000001
 43
0.00000001
 12
1.0
 22
0.0
 32
0.0
 13
1.0
 23
0.0
 33
0.0
 40
0.0
 40
0.0
 40
0.0
 40
0.0
 40
1.0
 40
1.0
 40
1.0
 40
1.0
 10
216.1761914805736
 20
100.0655941569339
 30
0.0
 10
216.3765388496353
 20
99.23426112319551
 30
0.0
 10
216.5794319387708
 20
98.40364390282554
 30
0.0
 10
216.7843017239204
 20
97.57358249589588
 30
0.0
  0
ARC
  5
F5
330
1F
100
AcDbEntity
  8
0
  6
Continuous
 62
     7
370
    15
100
AcDbCircle
 10
222.7765285313
 20
124.6494420075
 30
0.0
 40
2.553260693205542
100
AcDbArc
 50
81.46432549
 51
145.8381381299
  0
LINE
  5
F6
330
1F
100
AcDbEntity
  8
0
  6
Continuous
 62
     7
370
    15
100
AcDbLine
 10
152.9775933128
 20
140.9195477148
 30
0.0
 11
154.4775926274
 21
141.7855734011
 31
0.0
  0
LINE
  5
F7
330
1F
100
AcDbEntity
  8
0
  6
Continuous
 62
     7
370
    15
100
AcDbLine
 10
152.9775933128
 20
129.3029884813
 30
0.0
 11
152.9775933128
 21
140.9195477148
 31
0.0
  0
LINE
  5
F8
330
1F
100
AcDbEntity
  8
0
  6
Continuous
 62
     7
370
    15
100
AcDbLine
 10
152.9775933128
 20
108.9328976353
 30
0.0
 11
154.4775926274
 21
108.0668719491
 31
0.0
  0
LINE
  5
F9
330
1F
100
AcDbEntity
  8
0
  6
Continuous
 62
     7
370
    15
100
AcDbLine
 10
152.9775933128
 20
108.9328976353
 30
0.0
 11
152.9775933128
 21
120.5494568688
 31
0.0
  0
LINE
  5
FA
330
1F
100
AcDbEntity
  8
0
  6
Continuous
 62
     7
370
    15
100
AcDbLine
 10
216.0762903046
 20
144.6447802713
 30
0.0
 11
216.0762903046
 21
150.4262221982
 31
0.0
  0
ELLIPSE
  5
FB
330
1F
100
AcDbEntity
  8
0
  6
Continuous
 62
     7
370
    15
100
AcDbEllipse
 10
235.8518483882
 20
124.9262226751
 30
0.0
 11
-18.67547586664037
 21
25.49823968036064
 31
0.0
210
0.0
220
0.0
230
1.0
 40
0.0160435947
 41
5.625094431094515
 42
6.271435163618939
  0
LINE
  5
FC
330
1F
100
AcDbEntity
  8
0
  6
Continuous
 62
     7
370
    15
100
AcDbLine
 10
218.9467233371
 20
109.065570124
 30
0.0
 11
222.1515980315
 21
107.3957236489
 31
0.0
  0
SPLINE
  5
FD
330
1F
100
AcDbEntity
  8
0
  6
Continuous
 62
     7
370
    15
100
AcDbSpline
210
0.0
220
0.0
230
1.0
 70
     8
 71
     3
 72
     9
 73
     5
 74
     0
 42
0.00000001
 43
0.00000001
 12
1.0
 22
0.0
 32
0.0
 13
1.0
 23
0.0
 33
0.0
 40
0.0
 40
0.0
 40
0.0
 40
0.0
 40
0.6536276242139973
 40
0.9999999999999999
 40
0.9999999999999999
 40
0.9999999999999999
 40
0.9999999999999999
 10
216.7843003522912
 20
97.57358226977358
 30
0.0
 10
216.6417881249644
 20
97.85258312306186
 30
0.0
 10
216.4237553765809
 20
98.27943297296497
 30
0.0
 10
216.3201071048725
 20
98.70807328351769
 30
0.0
 10
216.2842062067548
 20
98.85654244624148
 30
0.0
  0
SPLINE
  5
FE
330
1F
100
AcDbEntity
  8
0
  6
HIDDEN
 62
     7
370
     0
100
AcDbSpline
210
0.0
220
0.0
230
1.0
 70
     8
 71
     3
 72
    58
 73
    54
 74
     0
 42
0.00000001
 43
0.00000001
 12
1.0
 22
0.0
 32
0.0
 13
1.0
 23
0.0
 33
0.0
 40
-0.0624999999999997
 40
-0.0624999999999997
 40
0.0
 40
0.0
 40
0.0312500000000002
 40
0.0312500000000002
 40
0.0625000000000004
 40
0.0625000000000004
 40
0.0937500000000006
 40
0.0937500000000006
 40
0.1250000000000008
 40
0.1250000000000008
 40
0.1875000000000012
 40
0.1875000000000012
 40
0.2500000000000017
 40
0.2500000000000017
 40
0.2812500000000017
 40
0.2812500000000017
 40
0.3125000000000016
 40
0.3125000000000016
 40
0.3437500000000016
 40
0.3437500000000016
 40
0.3750000000000016
 40
0.3750000000000016
 40
0.4062500000000016
 40
0.4062500000000016
 40
0.4375000000000016
 40
0.4375000000000016
 40
0.4687500000000016
 40
0.4687500000000016
 40
0.5000000000000016
 40
0.5000000000000016
 40
0.5625000000000017
 40
0.5625000000000017
 40
0.6250000000000016
 40
0.6250000000000016
 40
0.6562500000000014
 40
0.6562500000000014
 40
0.6875000000000013
 40
0.6875000000000013
 40
0.7187500000000012
 40
0.7187500000000012
 40
0.7500000000000011
 40
0.7500000000000011
 40
0.781250000000001
 40
0.781250000000001
 40
0.8125000000000009
 40
0.8125000000000009
 40
0.8437500000000008
 40
0.8437500000000008
 40
0.8750000000000006
 40
0.8750000000000006
 40
0.9375000000000003
 40
0.9375000000000003
 40
1.0
 40
1.0
 40
1.03125
 40
1.03125
 10
196.9775926422635
 20
124.6618503045274
 30
0.0
 10
196.9775926422635
 20
125.0584088603426
 30
0.0
 10
196.964616750253
 20
125.1883755998873
 30
0.0
 10
196.9137844481471
 20
125.4440549380195
 30
0.0
 10
196.8753073768257
 20
125.5710960298609
 30
0.0
 10
196.7749024156693
 20
125.8132742158015
 30
0.0
 10
196.71346817335
 20
125.928127874391
 30
0.0
 10
196.5683339071683
 20
126.1454929961968
 30
0.0
 10
196.483891986021
 20
126.2483684682811
 30
0.0
 10
196.2072199564111
 20
126.5249864206982
 30
0.0
 10
195.984173801443
 20
126.6739785405311
 30
0.0
 10
195.5029098028985
 20
126.8735023355224
 30
0.0
 10
195.2396519475787
 20
126.9260812000246
 30
0.0
 10
194.8481859162939
 20
126.9262929736121
 30
0.0
 10
194.7156371726804
 20
126.9133020020227
 30
0.0
 10
194.4590928636651
 20
126.8622657787329
 30
0.0
 10
194.3343969772935
 20
126.8245042373301
 30
0.0
 10
194.0921940068597
 20
126.7243446980367
 30
0.0
 10
193.975130643609
 20
126.6617468882862
 30
0.0
 10
193.7584443243629
 20
126.5170249042505
 30
0.0
 10
193.6574303562952
 20
126.4344007990822
 30
0.0
 10
193.4706371620098
 20
126.2477804284712
 30
0.0
 10
193.3878367980554
 20
126.14673206058
 30
0.0
 10
193.2429583591608
 20
125.9302200397062
 30
0.0
 10
193.1803075758335
 20
125.8133306845073
 30
0.0
 10
193.0798671814596
 20
125.5710732824483
 30
0.0
 10
193.0420081696896
 20
125.4464106176329
 30
0.0
 10
192.9907704652261
 20
125.1900794219782
 30
0.0
 10
192.977640090453
 20
125.0574914826277
 30
0.0
 10
192.9774981400141
 20
124.6658598140584
 30
0.0
 10
193.0298390562622
 20
124.4026469810242
 30
0.0
 10
193.2289692830003
 20
123.9211396503328
 30
0.0
 10
193.3778063706426
 20
123.6979391690572
 30
0.0
 10
193.654118407182
 20
123.4210930890955
 30
0.0
 10
193.7568839444333
 20
123.3365809948768
 30
0.0
 10
193.9742008767871
 20
123.1912023981453
 30
0.0
 10
194.0889877873239
 20
123.1296869665435
 30
0.0
 10
194.3309072774298
 20
123.0291309062979
 30
0.0
 10
194.4580341799299
 20
122.9904921804632
 30
0.0
 10
194.713703015566
 20
122.9394273135759
 30
0.0
 10
194.843598220944
 20
122.9263528331996
 30
0.0
 10
195.1076730033684
 20
122.926094431926
 30
0.0
 10
195.2380021428537
 20
122.938970499889
 30
0.0
 10
195.4936914569975
 20
122.9895692912169
 30
0.0
 10
195.6206193233852
 20
123.0278746370545
 30
0.0
 10
195.8630716122273
 20
123.1281304694744
 30
0.0
 10
195.9779883062089
 20
123.1894814883865
 30
0.0
 10
196.1953790979794
 20
123.3343503239568
 30
0.0
 10
196.2983643776609
 20
123.4187142772261
 30
0.0
 10
196.5753287453182
 20
123.6952403310122
 30
0.0
 10
196.7244610236767
 20
123.9181001730079
 30
0.0
 10
196.9244131423912
 20
124.3992026930686
 30
0.0
 10
196.9775926422635
 20
124.6618503045274
 30
0.0
 10
196.9775926422635
 20
125.0584088603426
 30
0.0
  0
SPLINE
  5
FF
330
1F
100
AcDbEntity
  8
0
  6
HIDDEN
 62
     7
370
     0
100
AcDbSpline
210
0.0
220
0.0
230
1.0
 70
     8
 71
     3
 72
    12
 73
     8
 74
     0
 42
0.00000001
 43
0.00000001
 12
1.0
 22
0.0
 32
0.0
 13
1.0
 23
0.0
 33
0.0
 40
0.0
 40
0.0
 40
0.0
 40
0.0
 40
0.5000000000000032
 40
0.5000000000000032
 40
0.7500000000000016
 40
0.7500000000000016
 40
1.0
 40
1.0
 40
1.0
 40
1.0
 10
191.0723367539377
 20
116.8297696770266
 30
0.0
 10
191.1030361373051
 20
116.9441053440905
 30
0.0
 10
191.1443862054116
 20
117.0554586969319
 30
0.0
 10
191.244142133631
 20
117.2081954691806
 30
0.0
 10
191.2838390513637
 20
117.2560553550327
 30
0.0
 10
191.3810972030113
 20
117.3306584683822
 30
0.0
 10
191.4418733610021
 20
117.3574127058902
 30
0.0
 10
191.50534945583
 20
117.3574127058903
 30
0.0
  0
LINE
  5
100
330
1F
100
AcDbEntity
  8
0
  6
HIDDEN
 62
     7
370
     0
100
AcDbLine
 10
191.5053493109
 20
117.3574125399
 30
0.0
 11
194.4498355266
 21
117.3574125399
 31
0.0
  0
SPLINE
  5
101
330
1F
100
AcDbEntity
  8
0
  6
HIDDEN
 62
     7
370
     0
100
AcDbSpline
210
0.0
220
0.0
230
1.0
 70
     8
 71
     3
 72
    12
 73
     8
 74
     0
 42
0.00000001
 43
0.00000001
 12
1.0
 22
0.0
 32
0.0
 13
1.0
 23
0.0
 33
0.0
 40
0.0
 40
0.0
 40
0.0
 40
0.0
 40
0.2499999999999993
 40
0.2499999999999993
 40
0.4999999999999987
 40
0.4999999999999987
 40
1.0
 40
1.0
 40
1.0
 40
1.0
 10
194.4498358286971
 20
117.3574127058903
 30
0.0
 10
194.5135010652276
 20
117.3574127058902
 30
0.0
 10
194.573107297451
 20
117.3313405574106
 30
0.0
 10
194.6717678223818
 20
117.2558018065895
 30
0.0
 10
194.710734812397
 20
117.2085508694932
 30
0.0
 10
194.8101216443216
 20
117.0567270515268
 30
0.0
 10
194.852197891745
 20
116.9439238017617
 30
0.0
 10
194.8828485305893
 20
116.8297696770266
 30
0.0
  0
ELLIPSE
  5
102
330
1F
100
AcDbEntity
  8
0
  6
HIDDEN
 62
     7
370
     0
100
AcDbEllipse
 10
181.9213349873
 20
124.9262226751
 30
0.0
 11
-11.70927234972717
 21
24.6771864409374
 31
0.0
210
0.0
220
0.0
230
1.0
 40
0.3419987131
 41
3.310521928178954
 42
4.221709151398947
  0
SPLINE
  5
103
330
1F
100
AcDbEntity
  8
0
  6
HIDDEN
 62
     7
370
     0
100
AcDbSpline
210
0.0
220
0.0
230
1.0
 70
     8
 71
     3
 72
    12
 73
     8
 74
     0
 42
0.00000001
 43
0.00000001
 12
1.0
 22
0.0
 32
0.0
 13
1.0
 23
0.0
 33
0.0
 40
0.0
 40
0.0
 40
0.0
 40
0.0
 40
0.4999999999999982
 40
0.4999999999999982
 40
0.7499999999999991
 40
0.7499999999999991
 40
1.0
 40
1.0
 40
1.0
 40
1.0
 10
194.8828485305893
 20
101.2735811978393
 30
0.0
 10
194.852149147222
 20
101.2344433554433
 30
0.0
 10
194.8107990791155
 20
101.1972835727179
 30
0.0
 10
194.711043150896
 20
101.1473470670901
 30
0.0
 10
194.6713462331633
 20
101.1318941969463
 30
0.0
 10
194.5740880815157
 20
101.1079746533473
 30
0.0
 10
194.513311923525
 20
101.0994915595689
 30
0.0
 10
194.4498358286971
 20
101.0994915595689
 30
0.0
  0
LINE
  5
104
330
1F
100
AcDbEntity
  8
0
  6
HIDDEN
 62
     7
370
     0
100
AcDbLine
 10
194.4498355266
 20
101.0994913062
 30
0.0
 11
191.5053493109
 21
101.0994913062
 31
0.0
  0
SPLINE
  5
105
330
1F
100
AcDbEntity
  8
0
  6
HIDDEN
 62
     7
370
     0
100
AcDbSpline
210
0.0
220
0.0
230
1.0
 70
     8
 71
     3
 72
    12
 73
     8
 74
     0
 42
0.00000001
 43
0.00000001
 12
1.0
 22
0.0
 32
0.0
 13
1.0
 23
0.0
 33
0.0
 40
0.0
 40
0.0
 40
0.0
 40
0.0
 40
0.25
 40
0.25
 40
0.5
 40
0.5
 40
1.0
 40
1.0
 40
1.0
 40
1.0
 10
191.50534945583
 20
101.0994915595689
 30
0.0
 10
191.4416842192995
 20
101.0994915595689
 30
0.0
 10
191.3820779870761
 20
101.1077563352348
 30
0.0
 10
191.2834174621453
 20
101.1319751168179
 30
0.0
 10
191.24445047213
 20
101.1472324361271
 30
0.0
 10
191.1450636402055
 20
101.196865790389
 30
0.0
 10
191.1029873927821
 20
101.2345054985631
 30
0.0
 10
191.0723367539377
 20
101.2735811978393
 30
0.0
  0
ELLIPSE
  5
106
330
1F
100
AcDbEntity
  8
0
  6
HIDDEN
 62
     7
370
     0
100
AcDbEllipse
 10
204.0338502972
 20
124.9262226751
 30
0.0
 11
11.709272349727
 21
24.67718644093743
 31
0.0
210
0.0
220
0.0
230
1.0
 40
0.3419987131
 41
2.061476155780647
 42
2.97266337900066
  0
SPLINE
  5
107
330
1F
100
AcDbEntity
  8
0
  6
HIDDEN
 62
     7
370
     0
100
AcDbSpline
210
0.0
220
0.0
230
1.0
 70
     8
 71
     3
 72
    12
 73
     8
 74
     0
 42
0.00000001
 43
0.00000001
 12
1.0
 22
0.0
 32
0.0
 13
1.0
 23
0.0
 33
0.0
 40
0.0
 40
0.0
 40
0.0
 40
0.0
 40
0.5000000000000018
 40
0.5000000000000018
 40
0.7500000000000009
 40
0.7500000000000009
 40
1.0
 40
1.0
 40
1.0
 40
1.0
 10
191.0723367539377
 20
148.5788641523026
 30
0.0
 10
191.1030361373051
 20
148.6180019946985
 30
0.0
 10
191.1443862054115
 20
148.655161777424
 30
0.0
 10
191.244142133631
 20
148.7050982830517
 30
0.0
 10
191.2838390513637
 20
148.7205511531955
 30
0.0
 10
191.3810972030113
 20
148.7444706967945
 30
0.0
 10
191.4418733610021
 20
148.7529537905729
 30
0.0
 10
191.50534945583
 20
148.7529537905729
 30
0.0
  0
LINE
  5
108
330
1F
100
AcDbEntity
  8
0
  6
HIDDEN
 62
     7
370
     0
100
AcDbLine
 10
191.5053493109
 20
148.752954044
 30
0.0
 11
194.4498355266
 21
148.752954044
 31
0.0
  0
SPLINE
  5
109
330
1F
100
AcDbEntity
  8
0
  6
HIDDEN
 62
     7
370
     0
100
AcDbSpline
210
0.0
220
0.0
230
1.0
 70
     8
 71
     3
 72
    12
 73
     8
 74
     0
 42
0.00000001
 43
0.00000001
 12
1.0
 22
0.0
 32
0.0
 13
1.0
 23
0.0
 33
0.0
 40
0.0
 40
0.0
 40
0.0
 40
0.0
 40
0.2500000000000009
 40
0.2500000000000009
 40
0.5000000000000019
 40
0.5000000000000019
 40
1.0
 40
1.0
 40
1.0
 40
1.0
 10
194.4498358286971
 20
148.7529537905729
 30
0.0
 10
194.5135010652276
 20
148.7529537905729
 30
0.0
 10
194.573107297451
 20
148.7446890149071
 30
0.0
 10
194.6717678223818
 20
148.7204702333239
 30
0.0
 10
194.710734812397
 20
148.7052129140148
 30
0.0
 10
194.8101216443216
 20
148.6555795597528
 30
0.0
 10
194.852197891745
 20
148.6179398515787
 30
0.0
 10
194.8828485305893
 20
148.5788641523026
 30
0.0
  0
ELLIPSE
  5
10A
330
1F
100
AcDbEntity
  8
0
  6
HIDDEN
 62
     7
370
     0
100
AcDbEllipse
 10
181.9213349873
 20
124.9262226751
 30
0.0
 11
11.70927234972723
 21
24.6771864409374
 31
0.0
210
0.0
220
0.0
230
1.0
 40
0.3419987131
 41
5.203068809370469
 42
6.114256032590513
  0
SPLINE
  5
10B
330
1F
100
AcDbEntity
  8
0
  6
HIDDEN
 62
     7
370
     0
100
AcDbSpline
210
0.0
220
0.0
230
1.0
 70
     8
 71
     3
 72
    12
 73
     8
 74
     0
 42
0.00000001
 43
0.00000001
 12
1.0
 22
0.0
 32
0.0
 13
1.0
 23
0.0
 33
0.0
 40
0.0
 40
0.0
 40
0.0
 40
0.0
 40
0.5000000000000013
 40
0.5000000000000013
 40
0.7500000000000007
 40
0.7500000000000007
 40
1.0
 40
1.0
 40
1.0
 40
1.0
 10
194.8828485305893
 20
133.0226756731154
 30
0.0
 10
194.852149147222
 20
132.9083400060516
 30
0.0
 10
194.8107990791155
 20
132.7969866532102
 30
0.0
 10
194.711043150896
 20
132.6442498809615
 30
0.0
 10
194.6713462331633
 20
132.5963899951093
 30
0.0
 10
194.5740880815157
 20
132.5217868817599
 30
0.0
 10
194.513311923525
 20
132.4950326442518
 30
0.0
 10
194.4498358286971
 20
132.4950326442518
 30
0.0
  0
LINE
  5
10C
330
1F
100
AcDbEntity
  8
0
  6
HIDDEN
 62
     7
370
     0
100
AcDbLine
 10
194.4498355266
 20
132.4950328102
 30
0.0
 11
191.5053493109
 21
132.4950328102
 31
0.0
  0
SPLINE
  5
10D
330
1F
100
AcDbEntity
  8
0
  6
HIDDEN
 62
     7
370
     0
100
AcDbSpline
210
0.0
220
0.0
230
1.0
 70
     8
 71
     3
 72
    12
 73
     8
 74
     0
 42
0.00000001
 43
0.00000001
 12
1.0
 22
0.0
 32
0.0
 13
1.0
 23
0.0
 33
0.0
 40
0.0
 40
0.0
 40
0.0
 40
0.0
 40
0.2499999999999993
 40
0.2499999999999993
 40
0.4999999999999987
 40
0.4999999999999987
 40
1.0
 40
1.0
 40
1.0
 40
1.0
 10
191.50534945583
 20
132.4950326442518
 30
0.0
 10
191.4416842192995
 20
132.4950326442518
 30
0.0
 10
191.3820779870761
 20
132.5211047927315
 30
0.0
 10
191.2834174621453
 20
132.5966435435526
 30
0.0
 10
191.24445047213
 20
132.6438944806488
 30
0.0
 10
191.1450636402056
 20
132.7957182986152
 30
0.0
 10
191.1029873927821
 20
132.9085215483803
 30
0.0
 10
191.0723367539377
 20
133.0226756731154
 30
0.0
  0
ELLIPSE
  5
10E
330
1F
100
AcDbEntity
  8
0
  6
HIDDEN
 62
     7
370
     0
100
AcDbEllipse
 10
204.0338502972
 20
124.9262226751
 30
0.0
 11
-11.70927234972714
 21
24.67718644093743
 31
0.0
210
0.0
220
0.0
230
1.0
 40
0.3419987131
 41
0.1689292745891156
 42
1.080116497809134
  0
LINE
  5
10F
330
1F
100
AcDbEntity
  8
0
  6
HIDDEN
 62
     7
370
     0
100
AcDbLine
 10
182.9775926423
 20
100.2262217929
 30
0.0
 11
182.9775926423
 21
149.6262235572
 31
0.0
  0
LINE
  5
110
330
1F
100
AcDbEntity
  8
0
  6
HIDDEN
 62
     7
370
     0
100
AcDbLine
 10
182.9775926423
 20
105.376223289
 30
0.0
 11
182.9775926423
 21
144.4762220611
 31
0.0
  0
SPLINE
  5
111
330
1F
100
AcDbEntity
  8
0
  6
HIDDEN
 62
     7
370
     0
100
AcDbSpline
210
0.0
220
0.0
230
1.0
 70
     8
 71
     3
 72
    14
 73
    10
 74
     0
 42
0.00000001
 43
0.00000001
 12
1.0
 22
0.0
 32
0.0
 13
1.0
 23
0.0
 33
0.0
 40
0.0
 40
0.0
 40
0.0
 40
0.0
 40
0.25
 40
0.25
 40
0.5
 40
0.5
 40
0.75
 40
0.75
 40
1.0
 40
1.0
 40
1.0
 40
1.0
 10
181.9367316141351
 20
137.2206982201443
 30
0.0
 10
181.9684467484659
 20
137.1629150378011
 30
0.0
 10
182.0030612737663
 20
137.1065023767262
 30
0.0
 10
182.0827324691816
 20
136.9989029267107
 30
0.0
 10
182.127788346212
 20
136.9469902997897
 30
0.0
 10
182.2383427587174
 20
136.8607916750924
 30
0.0
 10
182.3057281729216
 20
136.8267022551208
 30
0.0
 10
182.4563576928196
 20
136.8245998631039
 30
0.0
 10
182.526184929585
 20
136.8579716359486
 30
0.0
 10
182.5826157533884
 20
136.9017843044993
 30
0.0
  0
SPLINE
  5
112
330
1F
100
AcDbEntity
  8
0
  6
HIDDEN
 62
     7
370
     0
100
AcDbSpline
210
0.0
220
0.0
230
1.0
 70
     8
 71
     3
 72
    16
 73
    12
 74
     0
 42
0.00000001
 43
0.00000001
 12
1.0
 22
0.0
 32
0.0
 13
1.0
 23
0.0
 33
0.0
 40
0.0
 40
0.0
 40
0.0
 40
0.0
 40
0.0624999999999986
 40
0.0624999999999986
 40
0.1249999999999972
 40
0.1249999999999972
 40
0.2499999999999962
 40
0.2499999999999962
 40
0.4999999999999991
 40
0.4999999999999991
 40
1.0
 40
1.0
 40
1.0
 40
1.0
 10
182.5826157533567
 20
136.90178430453
 30
0.0
 10
182.5943499878036
 20
136.9108947177779
 30
0.0
 10
182.6078817432825
 20
136.9189720737243
 30
0.0
 10
182.6378692037124
 20
136.9272189154013
 30
0.0
 10
182.6528639101207
 20
136.9262915978136
 30
0.0
 10
182.6886043325154
 20
136.9135250782819
 30
0.0
 10
182.7026176695166
 20
136.8958764317715
 30
0.0
 10
182.736761758298
 20
136.84122351174
 30
0.0
 10
182.7477336624164
 20
136.7998238440815
 30
0.0
 10
182.7735792026826
 20
136.6713341003587
 30
0.0
 10
182.7775926422635
 20
136.58071601272
 30
0.0
 10
182.7775926422636
 20
136.488496908166
 30
0.0
  0
LINE
  5
113
330
1F
100
AcDbEntity
  8
0
  6
HIDDEN
 62
     7
370
     0
100
AcDbLine
 10
182.7775926473
 20
113.3639488374
 30
0.0
 11
182.7775926473
 21
136.4884965127
 31
0.0
  0
SPLINE
  5
114
330
1F
100
AcDbEntity
  8
0
  6
HIDDEN
 62
     7
370
     0
100
AcDbSpline
210
0.0
220
0.0
230
1.0
 70
     8
 71
     3
 72
    16
 73
    12
 74
     0
 42
0.00000001
 43
0.00000001
 12
1.0
 22
0.0
 32
0.0
 13
1.0
 23
0.0
 33
0.0
 40
0.0
 40
0.0
 40
0.0
 40
0.0
 40
0.5000000000000029
 40
0.5000000000000029
 40
0.7500000000000043
 40
0.7500000000000043
 40
0.8750000000000051
 40
0.8750000000000051
 40
0.9375000000000026
 40
0.9375000000000026
 40
1.0
 40
1.0
 40
1.0
 40
1.0
 10
182.7775926422635
 20
113.3639484419758
 30
0.0
 10
182.7775926422635
 20
113.2713645910719
 30
0.0
 10
182.7735353401485
 20
113.1811521352116
 30
0.0
 10
182.7478780973537
 20
113.0532110080932
 30
0.0
 10
182.7365626516116
 20
113.0107977936813
 30
0.0
 10
182.7025312843029
 20
112.9564837502302
 30
0.0
 10
182.6886523030991
 20
112.9389024148403
 30
0.0
 10
182.6527166213318
 20
112.9261187269053
 30
0.0
 10
182.637766302069
 20
112.9252432287572
 30
0.0
 10
182.6078677893271
 20
112.9334886638766
 30
0.0
 10
182.5943349289619
 20
112.9415623240483
 30
0.0
 10
182.5826157533879
 20
112.9506610456425
 30
0.0
  0
SPLINE
  5
115
330
1F
100
AcDbEntity
  8
0
  6
HIDDEN
 62
     7
370
     0
100
AcDbSpline
210
0.0
220
0.0
230
1.0
 70
     8
 71
     3
 72
    14
 73
    10
 74
     0
 42
0.00000001
 43
0.00000001
 12
1.0
 22
0.0
 32
0.0
 13
1.0
 23
0.0
 33
0.0
 40
0.0
 40
0.0
 40
0.0
 40
0.0
 40
0.25
 40
0.25
 40
0.5
 40
0.5
 40
0.75
 40
0.75
 40
1.0
 40
1.0
 40
1.0
 40
1.0
 10
182.5826157533947
 20
112.950661045651
 30
0.0
 10
182.5261599887859
 20
112.9944930781457
 30
0.0
 10
182.4552943625361
 20
113.0278241145676
 30
0.0
 10
182.3068372813634
 20
113.0257651044202
 30
0.0
 10
182.2376439220559
 20
112.9911690800185
 30
0.0
 10
182.1279284839217
 20
112.9055037233557
 30
0.0
 10
182.0826839045903
 20
112.8534812786476
 30
0.0
 10
182.0030571951666
 20
112.7459330183177
 30
0.0
 10
181.9684470466331
 20
112.6895308555847
 30
0.0
 10
181.9367316141339
 20
112.6317471299952
 30
0.0
  0
SPLINE
  5
116
330
1F
100
AcDbEntity
  8
0
  6
HIDDEN
 62
     7
370
     0
100
AcDbSpline
210
0.0
220
0.0
230
1.0
 70
     8
 71
     3
 72
    10
 73
     6
 74
     0
 42
0.00000001
 43
0.00000001
 12
1.0
 22
0.0
 32
0.0
 13
1.0
 23
0.0
 33
0.0
 40
0.0
 40
0.0
 40
0.0
 40
0.0
 40
0.5
 40
0.5
 40
1.0
 40
1.0
 40
1.0
 40
1.0
 10
181.9367316141345
 20
112.6317471299962
 30
0.0
 10
181.864951826211
 20
112.5009684130943
 30
0.0
 10
181.8124923119029
 20
112.3668682635911
 30
0.0
 10
181.7231492478018
 20
112.0987757006024
 30
0.0
 10
181.687153638302
 20
111.9645303290135
 30
0.0
 10
181.6562722987039
 20
111.8311759515385
 30
0.0
  0
SPLINE
  5
117
330
1F
100
AcDbEntity
  8
0
  6
HIDDEN
 62
     7
370
     0
100
AcDbSpline
210
0.0
220
0.0
230
1.0
 70
     8
 71
     3
 72
    10
 73
     6
 74
     0
 42
0.00000001
 43
0.00000001
 12
1.0
 22
0.0
 32
0.0
 13
1.0
 23
0.0
 33
0.0
 40
0.0
 40
0.0
 40
0.0
 40
0.0
 40
0.5
 40
0.5
 40
1.0
 40
1.0
 40
1.0
 40
1.0
 10
181.6562722987039
 20
107.629312807066
 30
0.0
 10
181.6871453305162
 20
107.6130296596989
 30
0.0
 10
181.7231321934291
 20
107.6007720699733
 30
0.0
 10
181.8124667793203
 20
107.5836690811446
 30
0.0
 10
181.8649226387428
 20
107.5788694852862
 30
0.0
 10
181.9367316141351
 20
107.5770653938783
 30
0.0
  0
SPLINE
  5
118
330
1F
100
AcDbEntity
  8
0
  6
HIDDEN
 62
     7
370
     0
100
AcDbSpline
210
0.0
220
0.0
230
1.0
 70
     8
 71
     3
 72
     8
 73
     4
 74
     0
 42
0.00000001
 43
0.00000001
 12
1.0
 22
0.0
 32
0.0
 13
1.0
 23
0.0
 33
0.0
 40
0.0
 40
0.0
 40
0.0
 40
0.0
 40
1.0
 40
1.0
 40
1.0
 40
1.0
 10
182.7598960188886
 20
107.4511810156313
 30
0.0
 10
182.7738828274306
 20
107.4229406250496
 30
0.0
 10
182.7775926422633
 20
107.3998085822388
 30
0.0
 10
182.7775926422636
 20
107.3794682094036
 30
0.0
  0
LINE
  5
119
330
1F
100
AcDbEntity
  8
0
  6
HIDDEN
 62
     7
370
     0
100
AcDbLine
 10
182.7775926473
 20
107.0864016195
 30
0.0
 11
182.7775926473
 21
107.3794683447
 31
0.0
  0
LINE
  5
11A
330
1F
100
AcDbEntity
  8
0
  6
HIDDEN
 62
     7
370
     0
100
AcDbLine
 10
182.7775926473
 20
142.4729770055
 30
0.0
 11
182.7775926473
 21
142.7660437306
 31
0.0
  0
SPLINE
  5
11B
330
1F
100
AcDbEntity
  8
0
  6
HIDDEN
 62
     7
370
     0
100
AcDbSpline
210
0.0
220
0.0
230
1.0
 70
     8
 71
     3
 72
     8
 73
     4
 74
     0
 42
0.00000001
 43
0.00000001
 12
1.0
 22
0.0
 32
0.0
 13
1.0
 23
0.0
 33
0.0
 40
0.0
 40
0.0
 40
0.0
 40
0.0
 40
1.0
 40
1.0
 40
1.0
 40
1.0
 10
182.7775926422637
 20
142.4729771407384
 30
0.0
 10
182.7775926422634
 20
142.4554097992675
 30
0.0
 10
182.7745982940299
 20
142.4356873202653
 30
0.0
 10
182.7649928613102
 20
142.4124849567558
 30
0.0
  0
SPLINE
  5
11C
330
1F
100
AcDbEntity
  8
0
  6
HIDDEN
 62
     7
370
     0
100
AcDbSpline
210
0.0
220
0.0
230
1.0
 70
     8
 71
     3
 72
    10
 73
     6
 74
     0
 42
0.00000001
 43
0.00000001
 12
1.0
 22
0.0
 32
0.0
 13
1.0
 23
0.0
 33
0.0
 40
0.0
 40
0.0
 40
0.0
 40
0.0
 40
0.5
 40
0.5
 40
1.0
 40
1.0
 40
1.0
 40
1.0
 10
181.9367316141351
 20
142.2753799562634
 30
0.0
 10
181.8649226387428
 20
142.2735758648555
 30
0.0
 10
181.8124667793203
 20
142.2687762689972
 30
0.0
 10
181.7231321934291
 20
142.2516732801684
 30
0.0
 10
181.6871453305162
 20
142.2394156904428
 30
0.0
 10
181.6562722987039
 20
142.2231325430757
 30
0.0
  0
SPLINE
  5
11D
330
1F
100
AcDbEntity
  8
0
  6
HIDDEN
 62
     7
370
     0
100
AcDbSpline
210
0.0
220
0.0
230
1.0
 70
     8
 71
     3
 72
    10
 73
     6
 74
     0
 42
0.00000001
 43
0.00000001
 12
1.0
 22
0.0
 32
0.0
 13
1.0
 23
0.0
 33
0.0
 40
0.0
 40
0.0
 40
0.0
 40
0.0
 40
0.5
 40
0.5
 40
1.0
 40
1.0
 40
1.0
 40
1.0
 10
181.6562722987039
 20
138.0212693986033
 30
0.0
 10
181.6871536383021
 20
137.887915021128
 30
0.0
 10
181.7231492478019
 20
137.7536696495389
 30
0.0
 10
181.8124923119032
 20
137.4855770865497
 30
0.0
 10
181.8649518262114
 20
137.3514769370463
 30
0.0
 10
181.9367316141351
 20
137.2206982201443
 30
0.0
  0
LINE
  5
11E
330
1F
100
AcDbEntity
  8
0
  6
HIDDEN
 62
     7
370
     0
100
AcDbLine
 10
182.7775926473
 20
107.3794683447
 30
0.0
 11
182.7775926473
 21
118.941742648
 31
0.0
  0
LINE
  5
11F
330
1F
100
AcDbEntity
  8
0
  6
HIDDEN
 62
     7
370
     0
100
AcDbLine
 10
182.7775926473
 20
130.9107027022
 30
0.0
 11
182.7775926473
 21
142.4729770055
 31
0.0
  0
LINE
  5
120
330
1F
100
AcDbEntity
  8
0
  6
HIDDEN
 62
     7
370
     0
100
AcDbLine
 10
235.5394382727
 20
114.8281136533
 30
0.0
 11
235.5394382727
 21
110.360172764
 31
0.0
  0
ARC
  5
121
330
1F
100
AcDbEntity
  8
0
  6
HIDDEN
 62
     7
370
     0
100
AcDbCircle
 10
260.4515038748
 20
110.3451501804
 30
0.0
 40
24.91207013161601
100
AcDbArc
 50
179.9654492508
 51
195.2247052934
  0
LINE
  5
122
330
1F
100
AcDbEntity
  8
0
  6
HIDDEN
 62
     7
370
     0
100
AcDbLine
 10
221.9978329491
 20
111.3142922526
 30
0.0
 11
236.4137639057
 21
103.8031095644
 31
0.0
  0
ARC
  5
123
330
1F
100
AcDbEntity
  8
0
  6
HIDDEN
 62
     7
370
     0
100
AcDbCircle
 10
221.0541998607
 20
109.4663696714
 30
0.0
 40
2.074912352727175
100
AcDbArc
 50
62.9490821311
 51
113.1637028632
  0
LINE
  5
124
330
1F
100
AcDbEntity
  8
0
  6
HIDDEN
 62
     7
370
     0
100
AcDbLine
 10
225.2052967202
 20
104.9315707763
 30
0.0
 11
222.8804920566
 21
106.1428712686
 31
0.0
  0
LINE
  5
125
330
1F
100
AcDbEntity
  8
0
  6
HIDDEN
 62
     7
370
     0
100
AcDbLine
 10
227.7928386581
 20
99.6829813351
 30
0.0
 11
225.2052967202
 21
104.9315707763
 31
0.0
  0
LWPOLYLINE
  5
126
330
1F
100
AcDbEntity
  8
0
  6
HIDDEN
 62
     7
370
     0
100
AcDbPolyline
 90
       33
 70
   128
 43
0.0
 10
226.8638369393
 20
110.1503765216
 10
227.4783831787
 20
110.110835359
 10
228.0929256928
 20
110.1954357704
 10
228.6823113215
 20
110.4007132357
 10
229.2224113595
 20
110.7182644313
 10
229.6911050331
 20
111.1350871628
 10
230.0692108225
 20
111.6341196006
 10
230.3412501466
 20
112.1949285274
 10
230.496080662
 20
112.7945559105
 10
230.5273693752
 20
113.4084520867
 10
230.4338273358
 20
114.0114843851
 10
230.2192953181
 20
114.5789643755
 10
229.8925463807
 20
115.0876602163
 10
229.8426274907
 20
115.1481747632
 10
229.4669617664
 20
115.5167456722
 10
228.9599609327
 20
115.8486532053
 10
228.3923086476
 20
116.069793888
 10
227.7872395467
 20
116.1711161961
 10
227.1695268106
 20
116.1484701564
 10
226.5644539845
 20
116.0027842974
 10
225.9968016994
 20
115.7400218775
 10
225.4898045909
 20
115.3709415352
 10
225.0642199766
 20
114.9106521165
 10
224.7374710393
 20
114.3779989337
 10
224.5229352963
 20
113.7947879737
 10
224.4293969821
 20
113.1848974159
 10
224.4606819701
 20
112.5732950871
 10
224.6155162108
 20
111.9850205263
 10
224.8875518095
 20
111.4441568037
 10
225.2656613242
 20
110.9728489076
 10
225.7343549978
 20
110.5903901165
 10
226.2744513106
 20
110.3124396881
 10
226.8638369393
 20
110.1503765216
  0
ARC
  5
127
330
1F
100
AcDbEntity
  8
0
  6
HIDDEN
 62
     7
370
     0
100
AcDbCircle
 10
222.6934945558
 20
124.6748854358
 30
0.0
 40
2.470398902907205
100
AcDbArc
 50
145.2450145102
 51
201.7982123739
  0
ARC
  5
128
330
1F
100
AcDbEntity
  8
0
  6
HIDDEN
 62
     7
370
     0
100
AcDbCircle
 10
222.7997725863
 20
124.8562214513
 30
0.0
 40
2.345334265357136
100
AcDbArc
 50
22.5863304469
 51
81.2761022185
  0
LINE
  5
129
330
1F
100
AcDbEntity
  8
0
  6
HIDDEN
 62
     7
370
     0
100
AcDbLine
 10
221.5064820599
 20
121.0773360921
 30
0.0
 11
220.3997355651
 21
123.757530307
 31
0.0
  0
ARC
  5
12A
330
1F
100
AcDbEntity
  8
0
  6
HIDDEN
 62
     7
370
     0
100
AcDbCircle
 10
223.7662492857
 20
122.1295383933
 30
0.0
 40
2.492724934164003
100
AcDbArc
 50
204.9678262861
 51
22.3346236467
  0
LINE
  5
12B
330
1F
100
AcDbEntity
  8
0
  6
HIDDEN
 62
     7
370
     0
100
AcDbLine
 10
224.9652241122
 20
125.7570058345
 30
0.0
 11
226.071970607
 21
123.076811736
 31
0.0
  0
SPLINE
  5
12C
330
1F
100
AcDbEntity
  8
0
  6
HIDDEN
 62
     7
370
     0
100
AcDbSpline
210
0.0
220
0.0
230
1.0
 70
     8
 71
     3
 72
    10
 73
     6
 74
     0
 42
0.00000001
 43
0.00000001
 12
1.0
 22
0.0
 32
0.0
 13
1.0
 23
0.0
 33
0.0
 40
0.0
 40
0.0
 40
0.0
 40
0.0
 40
0.5
 40
0.5
 40
1.0
 40
1.0
 40
1.0
 40
1.0
 10
216.1761914805736
 20
121.4107715016399
 30
0.0
 10
216.1547522870811
 20
121.9966443730791
 30
0.0
 10
216.1282306951545
 20
122.5824794034676
 30
0.0
 10
216.0888030766498
 20
123.7542508390788
 30
0.0
 10
216.076291058069
 20
124.3401901778922
 30
0.0
 10
216.076291058069
 20
124.9262226750709
 30
0.0
  0
LINE
  5
12D
330
1F
100
AcDbEntity
  8
0
  6
HIDDEN
 62
     7
370
     0
100
AcDbLine
 10
216.0762903046
 20
150.4262221982
 30
0.0
 11
216.0762903046
 21
124.9262226751
 31
0.0
  0
SPLINE
  5
12E
330
1F
100
AcDbEntity
  8
0
  6
HIDDEN
 62
     7
370
     0
100
AcDbSpline
210
0.0
220
0.0
230
1.0
 70
     8
 71
     3
 72
    14
 73
    10
 74
     0
 42
0.00000001
 43
0.00000001
 12
1.0
 22
0.0
 32
0.0
 13
1.0
 23
0.0
 33
0.0
 40
0.0
 40
0.0
 40
0.0
 40
0.0
 40
0.2499999999999998
 40
0.2499999999999998
 40
0.4999999999999999
 40
0.4999999999999999
 40
0.7499999999999999
 40
0.7499999999999999
 40
1.0
 40
1.0
 40
1.0
 40
1.0
 10
216.1761914805737
 20
99.25255545890352
 30
0.0
 10
216.1547503053292
 20
99.37437653781315
 30
0.0
 10
216.12823177824
 20
99.49615777519288
 30
0.0
 10
216.0887978946342
 20
99.73982699282615
 30
0.0
 10
216.0762875498847
 20
99.86168401928143
 30
0.0
 10
216.0762945678372
 20
100.1053436738684
 30
0.0
 10
216.088807562267
 20
100.2271597328763
 30
0.0
 10
216.1282358790906
 20
100.4707759992915
 30
0.0
 10
216.154752521251
 20
100.5925537649781
 30
0.0
 10
216.1761914805736
 20
100.7143622538141
 30
0.0
  0
ELLIPSE
  5
12F
330
1F
100
AcDbEntity
  8
0
  6
HIDDEN
 62
     7
370
     0
100
AcDbEllipse
 10
234.0787776288
 20
124.9262226751
 30
0.0
 11
-0.9634415041420824
 21
25.49946008029964
 31
0.0
210
0.0
220
0.0
230
1.0
 40
0.1722352441
 41
1.256899194731764
 42
1.564288885469425
  0
ELLIPSE
  5
130
330
1F
100
AcDbEntity
  8
0
  6
HIDDEN
 62
     7
370
     0
100
AcDbEllipse
 10
235.8518483882
 20
124.9262226751
 30
0.0
 11
-18.67547586664037
 21
25.49823968036064
 31
0.0
210
0.0
220
0.0
230
1.0
 40
0.0160435947
 41
6.271435163618939
 42
7.534841799675235
  0
CIRCLE
  5
131
330
1F
100
AcDbEntity
  8
0
  6
HIDDEN
 62
     7
370
     0
100
AcDbCircle
 10
168.9775926423
 20
124.9262226751
 30
0.0
 40
3.049999999999997
  0
LINE
  5
132
330
1F
100
AcDbEntity
  8
0
  6
HIDDEN
 62
     7
370
     0
100
AcDbLine
 10
158.0056325298
 20
135.7148980727
 30
0.0
 11
158.0056325298
 21
114.1375472774
 31
0.0
  0
LINE
  5
133
330
1F
100
AcDbEntity
  8
0
  6
HIDDEN
 62
     7
370
     0
100
AcDbLine
 10
154.0056318742
 20
136.0960958531
 30
0.0
 11
154.0056318742
 21
113.7563494971
 31
0.0
  0
LINE
  5
134
330
1F
100
AcDbEntity
  8
0
  6
HIDDEN
 62
     7
370
     0
100
AcDbLine
 10
152.9775933128
 20
113.1628101697
 30
0.0
 11
152.9775933128
 21
136.6896351805
 31
0.0
  0
LINE
  5
135
330
1F
100
AcDbEntity
  8
0
  6
HIDDEN
 62
     7
370
     0
100
AcDbLine
 10
162.6056321662
 20
135.4262225335
 30
0.0
 11
162.6056321662
 21
114.4262228166
 31
0.0
  0
ARC
  5
136
330
1F
100
AcDbEntity
  8
0
  6
HIDDEN
 62
     7
370
     0
100
AcDbCircle
 10
222.6180970424
 20
124.8084090962
 30
0.0
 40
1.994437598649953
100
AcDbArc
 50
25.2582904939
 51
202.0441664965
  0
LINE
  5
137
330
1F
100
AcDbEntity
  8
0
  6
HIDDEN
 62
     7
370
     0
100
AcDbLine
 10
156.5056332153
 20
135.4262225335
 30
0.0
 11
156.5056332153
 21
114.4262228166
 31
0.0
  0
LINE
  5
138
330
1F
100
AcDbEntity
  8
0
  6
HIDDEN
 62
     7
370
     0
100
AcDbLine
 10
220.7694631767
 20
124.0598543785
 30
0.0
 11
221.8762096715
 21
121.3796601636
 31
0.0
  0
ARC
  5
139
330
1F
100
AcDbEntity
  8
0
  6
HIDDEN
 62
     7
370
     0
100
AcDbCircle
 10
222.0077337183
 20
125.5309663552
 30
0.0
 40
1.994266769782188
100
AcDbArc
 50
25.0726339551
 51
202.2298230353
  0
LINE
  5
13A
330
1F
100
AcDbEntity
  8
0
  6
HIDDEN
 62
     7
370
     0
100
AcDbLine
 10
157.5056333792
 20
135.4262225335
 30
0.0
 11
157.5056333792
 21
114.4262228166
 31
0.0
  0
LINE
  5
13B
330
1F
100
AcDbEntity
  8
0
  6
HIDDEN
 62
     7
370
     0
100
AcDbLine
 10
225.5285997641
 20
122.9792406788
 30
0.0
 11
224.4218532693
 21
125.6594348355
 31
0.0
  0
LINE
  5
13C
330
1F
100
AcDbEntity
  8
0
  6
HIDDEN
 62
     7
370
     0
100
AcDbLine
 10
172.9775928658
 20
134.9262224516
 30
0.0
 11
172.9775928658
 21
114.9262228986
 31
0.0
  0
SPLINE
  5
13D
330
1F
100
AcDbEntity
  8
0
  6
HIDDEN
 62
     7
370
     0
100
AcDbSpline
210
0.0
220
0.0
230
1.0
 70
     8
 71
     3
 72
    66
 73
    62
 74
     0
 42
0.00000001
 43
0.00000001
 12
1.0
 22
0.0
 32
0.0
 13
1.0
 23
0.0
 33
0.0
 40
-0.0312499999999999
 40
-0.0312499999999999
 40
0.0
 40
0.0
 40
0.0312499999999998
 40
0.0312499999999998
 40
0.0624999999999996
 40
0.0624999999999996
 40
0.0937499999999995
 40
0.0937499999999995
 40
0.1249999999999993
 40
0.1249999999999993
 40
0.1874999999999991
 40
0.1874999999999991
 40
0.218749999999999
 40
0.218749999999999
 40
0.249999999999999
 40
0.249999999999999
 40
0.281249999999999
 40
0.281249999999999
 40
0.3124999999999989
 40
0.3124999999999989
 40
0.3437499999999989
 40
0.3437499999999989
 40
0.3749999999999989
 40
0.3749999999999989
 40
0.4062499999999989
 40
0.4062499999999989
 40
0.4374999999999989
 40
0.4374999999999989
 40
0.4687499999999989
 40
0.4687499999999989
 40
0.4999999999999989
 40
0.4999999999999989
 40
0.5312499999999988
 40
0.5312499999999988
 40
0.5624999999999988
 40
0.5624999999999988
 40
0.5937499999999987
 40
0.5937499999999987
 40
0.6249999999999988
 40
0.6249999999999988
 40
0.656249999999999
 40
0.656249999999999
 40
0.6874999999999991
 40
0.6874999999999991
 40
0.7187499999999993
 40
0.7187499999999993
 40
0.7499999999999994
 40
0.7499999999999994
 40
0.7812499999999996
 40
0.7812499999999996
 40
0.8124999999999998
 40
0.8124999999999998
 40
0.875
 40
0.875
 40
0.9062500000000002
 40
0.9062500000000002
 40
0.9375000000000001
 40
0.9375000000000001
 40
0.9687500000000001
 40
0.9687500000000001
 40
1.0
 40
1.0
 40
1.03125
 40
1.03125
 10
168.7749139953158
 20
127.9762226750709
 30
0.0
 10
169.1802712892113
 20
127.9762226750709
 30
0.0
 10
169.3793311805472
 20
127.9562231154543
 30
0.0
 10
169.7705851651269
 20
127.8780796127541
 30
0.0
 10
169.9648579238745
 20
127.8189185112334
 30
0.0
 10
170.3336213504259
 20
127.665486824339
 30
0.0
 10
170.5083465088041
 20
127.5717600144968
 30
0.0
 10
170.8390238123379
 20
127.3505059120919
 30
0.0
 10
170.9946713563407
 20
127.2225245450974
 30
0.0
 10
171.4141387260094
 20
126.8029694480973
 30
0.0
 10
171.6410268675397
 20
126.4644908893939
 30
0.0
 10
171.8698234909244
 20
125.9146120016757
 30
0.0
 10
171.9290157457733
 20
125.7212121559323
 30
0.0
 10
172.0078231560338
 20
125.3269840055744
 30
0.0
 10
172.0274625723142
 20
125.128345178142
 30
0.0
 10
172.0277214367358
 20
124.7280448922436
 30
0.0
 10
172.0076507521029
 20
124.5247055655225
 30
0.0
 10
171.9293130694729
 20
124.1326140449149
 30
0.0
 10
171.8713633014345
 20
123.9419081765997
 30
0.0
 10
171.7174201595545
 20
123.5711843600132
 30
0.0
 10
171.6224815458318
 20
123.3944577002044
 30
0.0
 10
171.4021241299546
 20
123.06520458928
 30
0.0
 10
171.2748441040264
 20
122.9100833656835
 30
0.0
 10
170.9930885126958
 20
122.6284066707531
 30
0.0
 10
170.8403001832383
 20
122.5029734858488
 30
0.0
 10
170.5108731010814
 20
122.2821978924947
 30
0.0
 10
170.3323270979297
 20
122.1863666397945
 30
0.0
 10
169.9647547723795
 20
122.0335375092994
 30
0.0
 10
169.7746007456685
 20
121.9753657513552
 30
0.0
 10
169.3810603229661
 20
121.8963724590103
 30
0.0
 10
169.1786262517049
 20
121.876309333368
 30
0.0
 10
168.7791971763395
 20
121.8761365872493
 30
0.0
 10
168.5791781977836
 20
121.8956199613386
 30
0.0
 10
168.1830622503342
 20
121.9746115329397
 30
0.0
 10
167.9923294221424
 20
122.0328917527917
 30
0.0
 10
167.6246979815627
 20
122.1854593733997
 30
0.0
 10
167.4462115493949
 20
122.281068160173
 30
0.0
 10
167.1160062904308
 20
122.502080205258
 30
0.0
 10
166.9631177123689
 20
122.6275301040282
 30
0.0
 10
166.6815213178308
 20
122.9087605930335
 30
0.0
 10
166.5538903949553
 20
123.0641434709474
 30
0.0
 10
166.3335649599555
 20
123.3929943289904
 30
0.0
 10
166.2393385029901
 20
123.5678824354044
 30
0.0
 10
166.084403982387
 20
123.9400262867652
 30
0.0
 10
166.0263916967848
 20
124.1308323285741
 30
0.0
 10
165.9479724425067
 20
124.5217053464929
 30
0.0
 10
165.9276583625401
 20
124.7241629078751
 30
0.0
 10
165.9275272462362
 20
125.1262935127946
 30
0.0
 10
165.9471519395955
 20
125.3250175579697
 30
0.0
 10
166.0253183900092
 20
125.7178570291064
 30
0.0
 10
166.0846058353491
 20
125.912501306509
 30
0.0
 10
166.3136866784319
 20
126.4639410599232
 30
0.0
 10
166.5405175293261
 20
126.8022806256223
 30
0.0
 10
166.9598562306468
 20
127.2219462882738
 30
0.0
 10
167.1152092263968
 20
127.3497922940471
 30
0.0
 10
167.446177059534
 20
127.5713933687489
 30
0.0
 10
167.6207383597303
 20
127.6650341027258
 30
0.0
 10
167.9883116673052
 20
127.8181882234251
 30
0.0
 10
168.1829985289432
 20
127.8776919690711
 30
0.0
 10
168.5754744788797
 20
127.9562147181341
 30
0.0
 10
168.7749139953158
 20
127.9762226750709
 30
0.0
 10
169.1802712892113
 20
127.9762226750709
 30
0.0
  0
SPLINE
  5
13E
330
1F
100
AcDbEntity
  8
0
  6
HIDDEN
 62
     7
370
     0
100
AcDbSpline
210
0.0
220
0.0
230
1.0
 70
     8
 71
     3
 72
    66
 73
    62
 74
     0
 42
0.00000001
 43
0.00000001
 12
1.0
 22
0.0
 32
0.0
 13
1.0
 23
0.0
 33
0.0
 40
-0.0312500000000002
 40
-0.0312500000000002
 40
0.0
 40
0.0
 40
0.0312499999999999
 40
0.0312499999999999
 40
0.0624999999999997
 40
0.0624999999999997
 40
0.0937499999999996
 40
0.0937499999999996
 40
0.1249999999999995
 40
0.1249999999999995
 40
0.1874999999999992
 40
0.1874999999999992
 40
0.2187499999999991
 40
0.2187499999999991
 40
0.2499999999999989
 40
0.2499999999999989
 40
0.2812499999999988
 40
0.2812499999999988
 40
0.3124999999999987
 40
0.3124999999999987
 40
0.3437499999999986
 40
0.3437499999999986
 40
0.3749999999999984
 40
0.3749999999999984
 40
0.4062499999999983
 40
0.4062499999999983
 40
0.4374999999999984
 40
0.4374999999999984
 40
0.4687499999999984
 40
0.4687499999999984
 40
0.4999999999999986
 40
0.4999999999999986
 40
0.5312499999999987
 40
0.5312499999999987
 40
0.5624999999999988
 40
0.5624999999999988
 40
0.5937499999999988
 40
0.5937499999999988
 40
0.6249999999999989
 40
0.6249999999999989
 40
0.656249999999999
 40
0.656249999999999
 40
0.6874999999999991
 40
0.6874999999999991
 40
0.7187499999999992
 40
0.7187499999999992
 40
0.7499999999999992
 40
0.7499999999999992
 40
0.7812499999999993
 40
0.7812499999999993
 40
0.8124999999999994
 40
0.8124999999999994
 40
0.8749999999999996
 40
0.8749999999999996
 40
0.9062499999999997
 40
0.9062499999999997
 40
0.9374999999999997
 40
0.9374999999999997
 40
0.9687499999999998
 40
0.9687499999999998
 40
1.0
 40
1.0
 40
1.03125
 40
1.03125
 10
169.1802712892113
 20
127.9762226750709
 30
0.0
 10
168.7749139953158
 20
127.9762226750709
 30
0.0
 10
168.5758541039799
 20
127.9562231154543
 30
0.0
 10
168.1846001194002
 20
127.8780796127541
 30
0.0
 10
167.9903273606525
 20
127.8189185112334
 30
0.0
 10
167.6215639341012
 20
127.665486824339
 30
0.0
 10
167.4468387757229
 20
127.5717600144968
 30
0.0
 10
167.1161614721892
 20
127.3505059120919
 30
0.0
 10
166.9605139281863
 20
127.2225245450974
 30
0.0
 10
166.5410465585176
 20
126.8029694480973
 30
0.0
 10
166.3141584169874
 20
126.4644908893939
 30
0.0
 10
166.0853617936026
 20
125.9146120016757
 30
0.0
 10
166.0261695387538
 20
125.7212121559323
 30
0.0
 10
165.9473621284932
 20
125.3269840055744
 30
0.0
 10
165.9277227122128
 20
125.128345178142
 30
0.0
 10
165.9274638477912
 20
124.7280448922436
 30
0.0
 10
165.9475345324242
 20
124.5247055655225
 30
0.0
 10
166.0258722150541
 20
124.1326140449149
 30
0.0
 10
166.0838219830926
 20
123.9419081765997
 30
0.0
 10
166.2377651249726
 20
123.5711843600132
 30
0.0
 10
166.3327037386953
 20
123.3944577002043
 30
0.0
 10
166.5530611545724
 20
123.06520458928
 30
0.0
 10
166.6803411805007
 20
122.9100833656835
 30
0.0
 10
166.9620967718313
 20
122.6284066707531
 30
0.0
 10
167.1148851012888
 20
122.5029734858488
 30
0.0
 10
167.4443121834457
 20
122.2821978924947
 30
0.0
 10
167.6228581865974
 20
122.1863666397945
 30
0.0
 10
167.9904305121476
 20
122.0335375092994
 30
0.0
 10
168.1805845388585
 20
121.9753657513552
 30
0.0
 10
168.574124961561
 20
121.8963724590102
 30
0.0
 10
168.7765590328222
 20
121.876309333368
 30
0.0
 10
169.1759881081876
 20
121.8761365872493
 30
0.0
 10
169.3760070867435
 20
121.8956199613386
 30
0.0
 10
169.7721230341928
 20
121.9746115329397
 30
0.0
 10
169.9628558623847
 20
122.0328917527917
 30
0.0
 10
170.3304873029644
 20
122.1854593733997
 30
0.0
 10
170.5089737351322
 20
122.281068160173
 30
0.0
 10
170.8391789940962
 20
122.502080205258
 30
0.0
 10
170.9920675721582
 20
122.6275301040282
 30
0.0
 10
171.2736639666962
 20
122.9087605930335
 30
0.0
 10
171.4012948895718
 20
123.0641434709474
 30
0.0
 10
171.6216203245716
 20
123.3929943289904
 30
0.0
 10
171.7158467815369
 20
123.5678824354044
 30
0.0
 10
171.87078130214
 20
123.9400262867652
 30
0.0
 10
171.9287935877422
 20
124.1308323285741
 30
0.0
 10
172.0072128420204
 20
124.5217053464929
 30
0.0
 10
172.0275269219869
 20
124.7241629078751
 30
0.0
 10
172.0276580382909
 20
125.1262935127946
 30
0.0
 10
172.0080333449315
 20
125.3250175579697
 30
0.0
 10
171.9298668945179
 20
125.7178570291064
 30
0.0
 10
171.870579449178
 20
125.912501306509
 30
0.0
 10
171.6414986060951
 20
126.4639410599232
 30
0.0
 10
171.4146677552009
 20
126.8022806256223
 30
0.0
 10
170.9953290538802
 20
127.2219462882738
 30
0.0
 10
170.8399760581303
 20
127.3497922940471
 30
0.0
 10
170.5090082249931
 20
127.5713933687489
 30
0.0
 10
170.3344469247967
 20
127.6650341027258
 30
0.0
 10
169.9668736172219
 20
127.8181882234251
 30
0.0
 10
169.7721867555838
 20
127.8776919690711
 30
0.0
 10
169.3797108056474
 20
127.9562147181341
 30
0.0
 10
169.1802712892113
 20
127.9762226750709
 30
0.0
 10
168.7749139953158
 20
127.9762226750709
 30
0.0
  0
ARC
  5
13F
330
1F
100
AcDbEntity
  8
0
  6
HIDDEN
 62
     7
370
     0
100
AcDbCircle
 10
223.68255924
 20
122.2247644431
 30
0.0
 40
1.994266784273376
100
AcDbArc
 50
205.0726379772
 51
22.2298205455
  0
LINE
  5
140
330
1F
100
AcDbEntity
  8
0
  6
HIDDEN
 62
     7
370
     0
100
AcDbLine
 10
224.9208298277
 20
123.6958762869
 30
0.0
 11
223.814083333
 21
126.3760705018
 31
0.0
  0
ARC
  5
141
330
1F
100
AcDbEntity
  8
0
  6
HIDDEN
 62
     7
370
     0
100
AcDbCircle
 10
223.0747895506
 20
122.9413995488
 30
0.0
 40
1.994266745732771
100
AcDbArc
 50
205.0726188658
 51
22.2298365923
  0
LINE
  5
142
330
1F
100
AcDbEntity
  8
0
  6
HIDDEN
 62
     7
370
     0
100
AcDbLine
 10
235.5394382727
 20
125.6431613705
 30
0.0
 11
229.6039928448
 21
132.6418013317
 31
0.0
  0
ARC
  5
143
330
1F
100
AcDbEntity
  8
0
  6
HIDDEN
 62
     7
370
     0
100
AcDbCircle
 10
219.6989683008
 20
111.0280652461
 30
0.0
 40
2.090372662934975
100
AcDbArc
 50
62.2845570987
 51
239.7569195787
  0
LINE
  5
144
330
1F
100
AcDbEntity
  8
0
  6
HIDDEN
 62
     7
370
     0
100
AcDbLine
 10
173.9775930297
 20
132.1762224665
 30
0.0
 11
173.9775930297
 21
117.6762228837
 31
0.0
  0
LINE
  5
145
330
1F
100
AcDbEntity
  8
0
  6
HIDDEN
 62
     7
370
     0
100
AcDbLine
 10
172.9775928658
 20
116.6762227198
 30
0.0
 11
172.9775928658
 21
133.1762226304
 31
0.0
  0
LWPOLYLINE
  5
146
330
1F
100
AcDbEntity
  8
0
  6
HIDDEN
 62
     7
370
     0
100
AcDbPolyline
 90
       32
 70
   128
 43
0.0
 10
226.7837879014
 20
110.9298478817
 10
227.3983341407
 20
111.0144482931
 10
227.9877197694
 20
111.2197257584
 10
228.5278160822
 20
111.5372760227
 10
228.9965134811
 20
111.9540996855
 10
229.3746192705
 20
112.453131192
 10
229.6466585946
 20
113.0139401188
 10
229.8014891099
 20
113.6135675018
 10
229.8327740979
 20
114.227463678
 10
229.7392357838
 20
114.8304969078
 10
229.5247000408
 20
115.3979768982
 10
229.1979511034
 20
115.906672739
 10
228.7723664891
 20
116.3357572635
 10
228.2653693807
 20
116.6676647966
 10
227.6977170956
 20
116.8888064107
 10
227.0926479947
 20
116.9901287188
 10
226.4749315333
 20
116.9674826791
 10
225.8698624324
 20
116.8217968201
 10
225.3022101473
 20
116.5590344002
 10
224.7952130389
 20
116.1899531265
 10
224.3696284246
 20
115.7296646392
 10
224.0428794872
 20
115.1970105251
 10
223.8283437442
 20
114.6138004964
 10
223.7348054301
 20
114.0039099386
 10
223.7660904181
 20
113.3923076098
 10
223.9209209334
 20
112.8040321177
 10
224.1929602575
 20
112.2631693264
 10
224.5710660469
 20
111.791860499
 10
225.0397634458
 20
111.4094026392
 10
225.5798597586
 20
111.1314522108
 10
226.1692453873
 20
110.9693890443
 10
226.7837879014
 20
110.9298478817
  0
LINE
  5
147
330
1F
100
AcDbEntity
  8
0
  6
HIDDEN
 62
     7
370
     0
100
AcDbLine
 10
218.6461110365
 20
109.2221999546
 30
0.0
 11
218.9467233371
 21
109.065570124
 31
0.0
  0
LINE
  5
148
330
1F
100
AcDbEntity
  8
0
  6
HIDDEN
 62
     7
370
     0
100
AcDbLine
 10
222.1515980315
 20
107.3957236489
 30
0.0
 11
223.8786239874
 21
106.4958835026
 31
0.0
  0
LINE
  5
149
330
1F
100
AcDbEntity
  8
0
  6
HIDDEN
 62
     7
370
     0
100
AcDbLine
 10
223.8786239874
 20
106.4958835026
 30
0.0
 11
225.2052967202
 21
104.9315707763
 31
0.0
  0
LINE
  5
14A
330
1F
100
AcDbEntity
  8
0
  6
HIDDEN
 62
     7
370
     0
100
AcDbLine
 10
220.1616932404
 20
124.7764900448
 30
0.0
 11
221.2684397351
 21
122.0962958881
 31
0.0
  0
LINE
  5
14B
330
1F
100
AcDbEntity
  8
0
  6
HIDDEN
 62
     7
370
     0
100
AcDbLine
 10
206.9775928509
 20
117.6762228837
 30
0.0
 11
206.9775928509
 21
132.1762224665
 31
0.0
  0
SPLINE
  5
14C
330
1F
100
AcDbEntity
  8
0
  6
HIDDEN
 62
     7
370
     0
100
AcDbSpline
210
0.0
220
0.0
230
1.0
 70
     8
 71
     3
 72
    64
 73
    60
 74
     0
 42
0.00000001
 43
0.00000001
 12
1.0
 22
0.0
 32
0.0
 13
1.0
 23
0.0
 33
0.0
 40
-0.0312500000000001
 40
-0.0312500000000001
 40
0.0
 40
0.0
 40
0.0312499999999999
 40
0.0312499999999999
 40
0.0624999999999997
 40
0.0624999999999997
 40
0.0937499999999996
 40
0.0937499999999996
 40
0.1249999999999994
 40
0.1249999999999994
 40
0.1562499999999993
 40
0.1562499999999993
 40
0.1874999999999991
 40
0.1874999999999991
 40
0.218749999999999
 40
0.218749999999999
 40
0.2499999999999988
 40
0.2499999999999988
 40
0.2812499999999987
 40
0.2812499999999987
 40
0.3124999999999987
 40
0.3124999999999987
 40
0.3437499999999986
 40
0.3437499999999986
 40
0.3749999999999986
 40
0.3749999999999986
 40
0.4062499999999986
 40
0.4062499999999986
 40
0.4374999999999985
 40
0.4374999999999985
 40
0.4687499999999985
 40
0.4687499999999985
 40
0.4999999999999984
 40
0.4999999999999984
 40
0.5624999999999982
 40
0.5624999999999982
 40
0.5937499999999983
 40
0.5937499999999983
 40
0.6249999999999984
 40
0.6249999999999984
 40
0.6562499999999984
 40
0.6562499999999984
 40
0.6874999999999986
 40
0.6874999999999986
 40
0.7499999999999986
 40
0.7499999999999986
 40
0.7812499999999988
 40
0.7812499999999988
 40
0.812499999999999
 40
0.812499999999999
 40
0.8749999999999997
 40
0.8749999999999997
 40
0.9062499999999998
 40
0.9062499999999998
 40
0.9374999999999999
 40
0.9374999999999999
 40
0.9687499999999999
 40
0.9687499999999999
 40
1.0
 40
1.0
 40
1.03125
 40
1.03125
 10
207.9554876206666
 20
123.5995160086059
 30
0.0
 10
207.8378500034244
 20
123.3162664136185
 30
0.0
 10
207.7843483185304
 20
123.1691228870758
 30
0.0
 10
207.6862260191983
 20
122.8645654639607
 30
0.0
 10
207.6412044522983
 20
122.7053820843276
 30
0.0
 10
207.5618552068922
 20
122.38570424481
 30
0.0
 10
207.5275670271279
 20
122.225955834884
 30
0.0
 10
207.4688668479062
 20
121.9068465090898
 30
0.0
 10
207.4444305198853
 20
121.7464531372349
 30
0.0
 10
207.4072455886436
 20
121.4400417840541
 30
0.0
 10
207.3941305168276
 20
121.2923596718921
 30
0.0
 10
207.3788283692983
 20
121.0084361374124
 30
0.0
 10
207.3768555390796
 20
120.8743290128402
 30
0.0
 10
207.384035725788
 20
120.629065693595
 30
0.0
 10
207.3932282620033
 20
120.5158893885964
 30
0.0
 10
207.4229030705943
 20
120.3143940757842
 30
0.0
 10
207.4430439492564
 20
120.2275979617595
 30
0.0
 10
207.4941057775939
 20
120.0809081621134
 30
0.0
 10
207.5254448537704
 20
120.0207726798385
 30
0.0
 10
207.5974461807604
 20
119.9323691866522
 30
0.0
 10
207.6381820392966
 20
119.9033183431101
 30
0.0
 10
207.7302162810173
 20
119.8754000443033
 30
0.0
 10
207.7813266042133
 20
119.8769905179917
 30
0.0
 10
207.8911340583188
 20
119.9100826231142
 30
0.0
 10
207.9504179117965
 20
119.9414906450051
 30
0.0
 10
208.0788129122558
 20
120.0344266693313
 30
0.0
 10
208.1460446472774
 20
120.0945354477488
 30
0.0
 10
208.2879251822375
 20
120.2406856530739
 30
0.0
 10
208.3635073550062
 20
120.3279629079305
 30
0.0
 10
208.5190409893282
 20
120.5233702912408
 30
0.0
 10
208.5987578509972
 20
120.6309621474416
 30
0.0
 10
208.76334982009
 20
120.8653762834239
 30
0.0
 10
208.8486249190785
 20
120.9929410620224
 30
0.0
 10
209.1016591748792
 20
121.3869587017986
 30
0.0
 10
209.2741314097002
 20
121.674742616935
 30
0.0
 10
209.5077591965814
 20
122.1056863344605
 30
0.0
 10
209.5826589932969
 20
122.2518370466112
 30
0.0
 10
209.7167859163246
 20
122.5401322972312
 30
0.0
 10
209.7760149064495
 20
122.6819932894767
 30
0.0
 10
209.8729491798619
 20
122.9643367525299
 30
0.0
 10
209.910430940937
 20
123.1058108428138
 30
0.0
 10
209.9534727899336
 20
123.3762609553913
 30
0.0
 10
209.9596923214263
 20
123.5069345191439
 30
0.0
 10
209.9290662530855
 20
123.8854645827933
 30
0.0
 10
209.8417041795776
 20
124.1089345046825
 30
0.0
 10
209.6574880889583
 20
124.3669462637601
 30
0.0
 10
209.5881003586876
 20
124.4397333910931
 30
0.0
 10
209.4379879575641
 20
124.5575232219946
 30
0.0
 10
209.3573702823233
 20
124.6019454175639
 30
0.0
 10
209.1120303325139
 20
124.6856787792273
 30
0.0
 10
208.9377596914276
 20
124.6763813230274
 30
0.0
 10
208.6883506309461
 20
124.5626099055497
 30
0.0
 10
208.6055019044929
 20
124.5076586735614
 30
0.0
 10
208.4457937861612
 20
124.3675653829952
 30
0.0
 10
208.3693786413341
 20
124.2832885170606
 30
0.0
 10
208.2218535694241
 20
124.0871421679829
 30
0.0
 10
208.1505721961385
 20
123.9745230525443
 30
0.0
 10
208.0178168026301
 20
123.7312271310904
 30
0.0
 10
207.9554876206666
 20
123.5995160086059
 30
0.0
 10
207.8378500034244
 20
123.3162664136185
 30
0.0
  0
LINE
  5
14D
330
1F
100
AcDbEntity
  8
0
  6
HIDDEN
 62
     7
370
     0
100
AcDbLine
 10
216.2842062068
 20
98.8565424462
 30
0.0
 11
216.1761914146
 21
99.2525557061
 31
0.0
  0
LINE
  5
14E
330
1F
100
AcDbEntity
  8
0
  6
HIDDEN
 62
     7
370
     0
100
AcDbLine
 10
236.4137639057
 20
103.8031095644
 30
0.0
 11
235.0870911729
 21
105.3674222907
 31
0.0
  0
LINE
  5
14F
330
1F
100
AcDbEntity
  8
0
  6
HIDDEN
 62
     7
370
     0
100
AcDbLine
 10
229.2341571998
 20
96.7593902727
 30
0.0
 11
227.9074881923
 21
98.323702999
 31
0.0
  0
LWPOLYLINE
  5
150
330
1F
100
AcDbEntity
  8
0
  6
HIDDEN
 62
     7
370
     0
100
AcDbPolyline
 90
       28
 70
   128
 43
0.0
 10
226.7211881232
 20
111.5905532619
 10
227.2889670682
 20
111.6772836079
 10
227.826139028
 20
111.8911683565
 10
228.303743596
 20
112.2206777339
 10
228.6960278403
 20
112.6480476936
 10
228.9818507385
 20
113.1502382462
 10
229.1458007645
 20
113.7001758447
 10
229.1790415299
 20
114.2682136973
 10
229.0797737193
 20
114.8237289866
 10
228.8533580255
 20
115.3367731725
 10
228.5119947743
 20
115.7796878373
 10
228.0740868997
 20
116.128596664
 10
227.5632452917
 20
116.364687868
 10
227.0070110213
 20
116.4752349263
 10
226.435365225
 20
116.4542783057
 10
225.8791272294
 20
116.3029467692
 10
225.3682856214
 20
116.0294005653
 10
224.9303777468
 20
115.6483843928
 10
224.5890144956
 20
115.1804404338
 10
224.3625988018
 20
114.650795423
 10
224.2633309912
 20
114.0880018478
 10
224.2965717566
 20
113.5224012663
 10
224.4605217826
 20
112.9844842484
 10
224.7463446807
 20
112.5032503163
 10
225.1386326503
 20
112.1046442544
 10
225.616233493
 20
111.8101526057
 10
226.1534054529
 20
111.6356534889
 10
226.7211881232
 20
111.5905532619
  0
SPLINE
  5
151
330
1F
100
AcDbEntity
  8
0
  6
HIDDEN
 62
     7
370
     0
100
AcDbSpline
210
0.0
220
0.0
230
1.0
 70
     8
 71
     3
 72
    38
 73
    34
 74
     0
 42
0.00000001
 43
0.00000001
 12
1.0
 22
0.0
 32
0.0
 13
1.0
 23
0.0
 33
0.0
 40
0.0
 40
0.0
 40
0.0
 40
0.0
 40
0.062500000000002
 40
0.062500000000002
 40
0.0937500000000019
 40
0.0937500000000019
 40
0.1250000000000017
 40
0.1250000000000017
 40
0.1875000000000017
 40
0.1875000000000017
 40
0.2500000000000017
 40
0.2500000000000017
 40
0.3125000000000016
 40
0.3125000000000016
 40
0.3750000000000016
 40
0.3750000000000016
 40
0.4375000000000016
 40
0.4375000000000016
 40
0.5000000000000016
 40
0.5000000000000016
 40
0.5625000000000014
 40
0.5625000000000014
 40
0.6250000000000013
 40
0.6250000000000013
 40
0.6875000000000012
 40
0.6875000000000012
 40
0.750000000000001
 40
0.750000000000001
 40
0.8750000000000004
 40
0.8750000000000004
 40
0.9375000000000002
 40
0.9375000000000002
 40
1.0
 40
1.0
 40
1.0
 40
1.0
 10
224.5929759442041
 20
114.2319768292556
 30
0.0
 10
224.4034808638409
 20
114.2328977602847
 30
0.0
 10
224.2123948029273
 20
114.2508546830933
 30
0.0
 10
223.9264825420173
 20
114.3021776611914
 30
0.0
 10
223.8329258636815
 20
114.3230678518496
 30
0.0
 10
223.6498316583058
 20
114.3719669271503
 30
0.0
 10
223.5602872964132
 20
114.4001304999455
 30
0.0
 10
223.3133023900657
 20
114.4896419162751
 30
0.0
 10
223.1713495083648
 20
114.5578681833862
 30
0.0
 10
222.9337066343105
 20
114.7023500871625
 30
0.0
 10
222.8333085011419
 20
114.7809920254727
 30
0.0
 10
222.6603302810944
 20
114.9515003080191
 30
0.0
 10
222.5871173324967
 20
115.0437190847268
 30
0.0
 10
222.4613904714365
 20
115.2479574283127
 30
0.0
 10
222.4086848124045
 20
115.3610494906975
 30
0.0
 10
222.3274010366695
 20
115.6078759449258
 30
0.0
 10
222.2985463787125
 20
115.7413217646588
 30
0.0
 10
222.2681376163686
 20
116.0358143655813
 30
0.0
 10
222.2671286649123
 20
116.1953091412995
 30
0.0
 10
222.2989969024562
 20
116.533628364128
 30
0.0
 10
222.3326018499819
 20
116.7144906124115
 30
0.0
 10
222.4330530032813
 20
117.074757786718
 30
0.0
 10
222.5018106223844
 20
117.2600710152222
 30
0.0
 10
222.6610982238659
 20
117.6067588934717
 30
0.0
 10
222.7532868385129
 20
117.7726742894877
 30
0.0
 10
222.9447960511185
 20
118.0719524230929
 30
0.0
 10
223.0458950242084
 20
118.2085099122986
 30
0.0
 10
223.3435822289625
 20
118.5702077576363
 30
0.0
 10
223.5427966609433
 20
118.757392399064
 30
0.0
 10
223.7984958961172
 20
118.9767005737991
 30
0.0
 10
223.8773315710189
 20
119.0401754104225
 30
0.0
 10
224.0102977571339
 20
119.1541640523751
 30
0.0
 10
224.0644153965738
 20
119.2041206040737
 30
0.0
 10
224.0882771904404
 20
119.2501765932203
 30
0.0
  0
SPLINE
  5
152
330
1F
100
AcDbEntity
  8
0
  6
HIDDEN
 62
     7
370
     0
100
AcDbSpline
210
0.0
220
0.0
230
1.0
 70
     8
 71
     3
 72
     8
 73
     4
 74
     0
 42
0.00000001
 43
0.00000001
 12
1.0
 22
0.0
 32
0.0
 13
1.0
 23
0.0
 33
0.0
 40
0.0
 40
0.0
 40
0.0
 40
0.0
 40
1.0
 40
1.0
 40
1.0
 40
1.0
 10
225.2619962847651
 20
114.1484523460911
 30
0.0
 10
225.0251730394745
 20
114.1497765918613
 30
0.0
 10
224.7976761426399
 20
114.1819426368665
 30
0.0
 10
224.5929759442041
 20
114.2319768292556
 30
0.0
  0
SPLINE
  5
153
330
1F
100
AcDbEntity
  8
0
  6
HIDDEN
 62
     7
370
     0
100
AcDbSpline
210
0.0
220
0.0
230
1.0
 70
     8
 71
     3
 72
    22
 73
    18
 74
     0
 42
0.00000001
 43
0.00000001
 12
1.0
 22
0.0
 32
0.0
 13
1.0
 23
0.0
 33
0.0
 40
0.0
 40
0.0
 40
0.0
 40
0.0
 40
0.125
 40
0.125
 40
0.25
 40
0.25
 40
0.375
 40
0.375
 40
0.5
 40
0.5
 40
0.625
 40
0.625
 40
0.75
 40
0.75
 40
0.875
 40
0.875
 40
1.0
 40
1.0
 40
1.0
 40
1.0
 10
226.6160071222741
 20
117.9976525220373
 30
0.0
 10
226.7287566941103
 20
117.8316999779226
 30
0.0
 10
226.8241094252608
 20
117.6576503785965
 30
0.0
 10
226.9800314582477
 20
117.2912840156681
 30
0.0
 10
227.0409660721616
 20
117.0964246854679
 30
0.0
 10
227.1176726161075
 20
116.6988809049959
 30
0.0
 10
227.1341243665636
 20
116.4964731893738
 30
0.0
 10
227.1149583796276
 20
116.0828469535295
 30
0.0
 10
227.0796394735588
 20
115.8812446339907
 30
0.0
 10
226.9548707847241
 20
115.4906003804207
 30
0.0
 10
226.8637588884459
 20
115.3009157722144
 30
0.0
 10
226.6370210698127
 20
114.9616755803639
 30
0.0
 10
226.4981231850456
 20
114.8068078845204
 30
0.0
 10
226.1896514621911
 20
114.5442608551131
 30
0.0
 10
226.0171467211334
 20
114.4334906268766
 30
0.0
 10
225.6531024169327
 20
114.2581113492738
 30
0.0
 10
225.4622577965958
 20
114.1929468009907
 30
0.0
 10
225.2619962847651
 20
114.1484523460911
 30
0.0
  0
SPLINE
  5
154
330
1F
100
AcDbEntity
  8
0
  6
HIDDEN
 62
     7
370
     0
100
AcDbSpline
210
0.0
220
0.0
230
1.0
 70
     8
 71
     3
 72
     8
 73
     4
 74
     0
 42
0.00000001
 43
0.00000001
 12
1.0
 22
0.0
 32
0.0
 13
1.0
 23
0.0
 33
0.0
 40
0.0
 40
0.0
 40
0.0
 40
0.0
 40
1.0
 40
1.0
 40
1.0
 40
1.0
 10
226.1680539097161
 20
118.5471066430198
 30
0.0
 10
226.3056236073508
 20
118.3946282765362
 30
0.0
 10
226.4611082745107
 20
118.2134685672677
 30
0.0
 10
226.6160071222741
 20
117.9976525220372
 30
0.0
  0
ARC
  5
155
330
1F
100
AcDbEntity
  8
0
  6
HIDDEN
 62
     7
370
     0
100
AcDbCircle
 10
224.4470580925
 20
116.8838349466
 30
0.0
 40
2.39338626008674
100
AcDbArc
 50
44.0228363472
 51
98.6214611731
  0
LINE
  5
156
330
1F
100
AcDbEntity
  8
0
  6
HIDDEN
 62
     7
370
     0
100
AcDbLine
 10
236.7430125129
 20
100.9940302005
 30
0.0
 11
240.9914751303
 21
92.37640556
 31
0.0
  0
LINE
  5
157
330
1F
100
AcDbEntity
  8
0
  6
HIDDEN
 62
     7
370
     0
100
AcDbLine
 10
240.775549854
 20
92.1671932568
 30
0.0
 11
240.9914751303
 21
92.37640556
 31
0.0
  0
LINE
  5
158
330
1F
100
AcDbEntity
  8
0
  6
HIDDEN
 62
     7
370
     0
100
AcDbLine
 10
232.4513626051
 20
96.5043755253
 30
0.0
 11
240.775549854
 21
92.1671932568
 31
0.0
  0
LWPOLYLINE
  5
159
330
1F
100
AcDbEntity
  8
0
  6
HIDDEN
 62
     7
370
     0
100
AcDbPolyline
 90
       28
 70
   128
 43
0.0
 10
231.4272020709
 20
99.5842592796
 10
231.9722716462
 20
99.6675213804
 10
232.4879561317
 20
99.8728500684
 10
232.9464536857
 20
100.1891793688
 10
233.3230507326
 20
100.5994549026
 10
233.5974407148
 20
101.0815577587
 10
233.7548342299
 20
101.6094984492
 10
233.7867413413
 20
102.1548138937
 10
233.6914484155
 20
102.6881078263
 10
233.4740851771
 20
103.1806303193
 10
233.1463788402
 20
103.6058293661
 10
232.7259872806
 20
103.9407813927
 10
232.2355788898
 20
104.1674299171
 10
231.7015920531
 20
104.2735541245
 10
231.1528120887
 20
104.2534356942
 10
230.618825252
 20
104.1081586858
 10
230.1284168613
 20
103.8455536594
 10
229.7080253017
 20
103.4797785809
 10
229.3803189647
 20
103.0305514117
 10
229.1629557263
 20
102.5220921268
 10
229.0676628005
 20
101.9818114122
 10
229.0995699119
 20
101.4388335874
 10
229.256963427
 20
100.9224338462
 10
229.5313534092
 20
100.4604494204
 10
229.9079467308
 20
100.077787601
 10
230.3664480102
 20
99.7950753202
 10
230.8821324956
 20
99.6275564661
 10
231.4272020709
 20
99.5842592796
  0
ARC
  5
15A
330
1F
100
AcDbEntity
  8
0
  6
HIDDEN
 62
     7
370
     0
100
AcDbCircle
 10
221.0395381961
 20
74.5866482635
 30
0.0
 40
24.71065569072664
100
AcDbArc
 50
62.4955210111
 51
73.8630170662
  0
ARC
  5
15B
330
1F
100
AcDbEntity
  8
0
  6
HIDDEN
 62
     7
370
     0
100
AcDbCircle
 10
258.6527647839
 20
111.7900307179
 30
0.0
 40
24.42520975854048
100
AcDbArc
 50
195.2451758121
 51
206.2317099522
  0
LINE
  5
15C
330
1F
100
AcDbEntity
  8
0
  6
HIDDEN
 62
     7
370
     0
100
AcDbLine
 10
223.8786239874
 20
106.4958835026
 30
0.0
 11
227.9074881923
 21
98.323702999
 31
0.0
  0
LINE
  5
15D
330
1F
100
AcDbEntity
  8
0
  6
HIDDEN
 62
     7
370
     0
100
AcDbLine
 10
235.0870911729
 20
105.3674222907
 30
0.0
 11
220.6711602163
 21
112.8786059102
 31
0.0
  0
SPLINE
  5
15E
330
1F
100
AcDbEntity
  8
0
  6
HIDDEN
 62
     7
370
     0
100
AcDbSpline
210
0.0
220
0.0
230
1.0
 70
     8
 71
     3
 72
    12
 73
     8
 74
     0
 42
0.00000001
 43
0.00000001
 12
1.0
 22
0.0
 32
0.0
 13
1.0
 23
0.0
 33
0.0
 40
0.0
 40
0.0
 40
0.0
 40
0.0
 40
0.5000000000000003
 40
0.5000000000000003
 40
0.7500000000000001
 40
0.7500000000000001
 40
1.0
 40
1.0
 40
1.0
 40
1.0
 10
224.0882771904403
 20
119.2501765932204
 30
0.0
 10
224.3887187140713
 20
119.1555392467334
 30
0.0
 10
224.6968584067239
 20
119.0485065375504
 30
0.0
 10
225.1779815399264
 20
118.8584417114573
 30
0.0
 10
225.3416949188624
 20
118.7898498696751
 30
0.0
 10
225.6659263268883
 20
118.6439140967646
 30
0.0
 10
225.8274009248148
 20
118.5662000219752
 30
0.0
 10
225.9874266132157
 20
118.4829514283307
 30
0.0
  0
LWPOLYLINE
  5
15F
330
1F
100
AcDbEntity
  8
0
  6
HIDDEN
 62
     7
370
     0
100
AcDbPolyline
 90
       19
 70
   128
 43
0.0
 10
225.9874251437
 20
118.4829512616
 10
225.839803065
 20
118.7030963605
 10
225.6423291516
 20
118.8084745785
 10
225.4050169837
 20
118.7937452463
 10
225.1398880732
 20
118.6596552847
 10
224.8603832674
 20
118.412999623
 10
224.5806698453
 20
118.0662789387
 10
224.314915086
 20
117.6370649604
 10
224.0765933644
 20
117.147109658
 10
223.8777820718
 20
116.6212430229
 10
223.728554393
 20
116.0861171787
 10
223.6364763927
 20
115.5688494449
 10
223.6062121343
 20
115.0956565519
 10
223.6392964375
 20
114.6905181935
 10
223.7340529215
 20
114.3739672383
 10
223.8856759619
 20
114.1620457178
 10
224.0864840102
 20
114.0654936438
 10
224.3263032984
 20
114.0892051166
 10
224.5929744792
 20
114.2319768672
  0
LWPOLYLINE
  5
160
330
1F
100
AcDbEntity
  8
0
  6
HIDDEN
 62
     7
370
     0
100
AcDbPolyline
 90
       25
 70
   128
 43
0.0
 10
230.8391687226
 20
100.5200279882
 10
231.2969659221
 20
100.4714353015
 10
231.7547631216
 20
100.5535947164
 10
232.1754713308
 20
100.7598491391
 10
232.525007869
 20
101.0734906425
 10
232.7750568044
 20
101.4691108843
 10
232.9053600084
 20
101.914655604
 10
232.9053600084
 20
102.3740323266
 10
232.7750568044
 20
102.8100235393
 10
232.525007869
 20
103.1873079022
 10
232.1754713308
 20
103.475321271
 10
231.7547631216
 20
103.65073029
 10
231.5408718538
 20
103.6899799486
 10
231.2969659221
 20
103.6993229767
 10
230.8391687226
 20
103.6171635618
 10
230.4184605133
 20
103.4109091391
 10
230.0689239752
 20
103.0972676357
 10
229.8188750398
 20
102.7016473939
 10
229.6885718357
 20
102.2561026742
 10
229.6720352721
 20
102.0235551526
 10
229.6885718357
 20
101.7967259517
 10
229.8188750398
 20
101.3607347389
 10
230.0689239752
 20
100.983450376
 10
230.4184605133
 20
100.6954370072
 10
230.8391687226
 20
100.5200279882
  0
LWPOLYLINE
  5
161
330
1F
100
AcDbEntity
  8
0
  6
HIDDEN
 62
     7
370
     0
100
AcDbPolyline
 90
       23
 70
   128
 43
0.0
 10
229.4302490305
 20
102.672530525
 10
229.8880425047
 20
102.7546899398
 10
230.3087544393
 20
102.9609443625
 10
230.6582909774
 20
103.274585866
 10
230.9083399128
 20
103.6702061077
 10
231.0386393916
 20
104.1157508274
 10
231.0386393916
 20
104.57512755
 10
230.9083399128
 20
105.0111187627
 10
230.6582909774
 20
105.3884031256
 10
230.3087544393
 20
105.6764164945
 10
229.8880425047
 20
105.8518255135
 10
229.4302490305
 20
105.9004182001
 10
228.9724518311
 20
105.8182587852
 10
228.5517436218
 20
105.6120043626
 10
228.2022070837
 20
105.2983628591
 10
227.9521581482
 20
104.9027426174
 10
227.8218549442
 20
104.4571978977
 10
227.8218549442
 20
103.9978211751
 10
227.9521581482
 20
103.5618299624
 10
228.2022070837
 20
103.1845455994
 10
228.5517436218
 20
102.8965322306
 10
228.9724518311
 20
102.7211232116
 10
229.4302490305
 20
102.672530525
  0
LINE
  5
162
330
1F
100
AcDbEntity
  8
0
  6
HIDDEN
 62
     7
370
     0
100
AcDbLine
 10
154.4775926274
 20
141.7855734011
 30
0.0
 11
154.4775926274
 21
136.9757952174
 31
0.0
  0
LINE
  5
163
330
1F
100
AcDbEntity
  8
0
  6
HIDDEN
 62
     7
370
     0
100
AcDbLine
 10
152.9775933128
 20
140.9195477148
 30
0.0
 11
152.9775933128
 21
136.5427823742
 31
0.0
  0
SPLINE
  5
164
330
1F
100
AcDbEntity
  8
0
  6
HIDDEN
 62
     7
370
     0
100
AcDbSpline
210
0.0
220
0.0
230
1.0
 70
     8
 71
     3
 72
    18
 73
    14
 74
     0
 42
0.00000001
 43
0.00000001
 12
1.0
 22
0.0
 32
0.0
 13
1.0
 23
0.0
 33
0.0
 40
0.0
 40
0.0
 40
0.0
 40
0.0
 40
0.2500000000000004
 40
0.2500000000000004
 40
0.3750000000000003
 40
0.3750000000000003
 40
0.5000000000000003
 40
0.5000000000000003
 40
0.6250000000000003
 40
0.6250000000000003
 40
0.7500000000000002
 40
0.7500000000000002
 40
1.0
 40
1.0
 40
1.0
 40
1.0
 10
181.6562722987039
 20
111.8311759515385
 30
0.0
 10
181.5209866924016
 20
111.2469743578068
 30
0.0
 10
181.4198189461586
 20
110.7127566705986
 30
0.0
 10
181.3169576032897
 20
109.9868598997102
 30
0.0
 10
181.2908547577664
 20
109.7569794119303
 30
0.0
 10
181.2559647742216
 20
109.3264084671435
 30
0.0
 10
181.2473785159316
 20
109.1287135616493
 30
0.0
 10
181.2472788063659
 20
108.7673655189715
 30
0.0
 10
181.2557671775145
 20
108.6037155090254
 30
0.0
 10
181.2899105570351
 20
108.3105042360564
 30
0.0
 10
181.3157075388889
 20
108.1805081699406
 30
0.0
 10
181.4191086702768
 20
107.8464522773787
 30
0.0
 10
181.5209666624482
 20
107.7006761130139
 30
0.0
 10
181.6562722987039
 20
107.629312807066
 30
0.0
  0
LINE
  5
165
330
1F
100
AcDbEntity
  8
0
  6
HIDDEN
 62
     7
370
     0
100
AcDbLine
 10
180.7775926542
 20
112.5462764879
 30
0.0
 11
180.7775926542
 21
107.4061246594
 31
0.0
  0
LINE
  5
166
330
1F
100
AcDbEntity
  8
0
  6
HIDDEN
 62
     7
370
     0
100
AcDbLine
 10
180.7775926542
 20
142.4463206907
 30
0.0
 11
180.7775926542
 21
137.3061688622
 31
0.0
  0
SPLINE
  5
167
330
1F
100
AcDbEntity
  8
0
  6
HIDDEN
 62
     7
370
     0
100
AcDbSpline
210
0.0
220
0.0
230
1.0
 70
     8
 71
     3
 72
    18
 73
    14
 74
     0
 42
0.00000001
 43
0.00000001
 12
1.0
 22
0.0
 32
0.0
 13
1.0
 23
0.0
 33
0.0
 40
0.0
 40
0.0
 40
0.0
 40
0.0
 40
0.2499999999999996
 40
0.2499999999999996
 40
0.3749999999999996
 40
0.3749999999999996
 40
0.4999999999999996
 40
0.4999999999999996
 40
0.6249999999999996
 40
0.6249999999999996
 40
0.7499999999999996
 40
0.7499999999999996
 40
1.0
 40
1.0
 40
1.0
 40
1.0
 10
181.6562722987039
 20
142.2231325430757
 30
0.0
 10
181.5209866924016
 20
142.1517798013862
 30
0.0
 10
181.4198189461586
 20
142.0063763947967
 30
0.0
 10
181.3169576032897
 20
141.6769091591911
 30
0.0
 10
181.2908547577664
 20
141.5479755823864
 30
0.0
 10
181.2559647742216
 20
141.2524335830502
 30
0.0
 10
181.2473785159316
 20
141.0880388095283
 30
0.0
 10
181.2472788063659
 20
140.7270771947877
 30
0.0
 10
181.2557671775145
 20
140.5305074026255
 30
0.0
 10
181.2899105570351
 20
140.1051526065005
 30
0.0
 10
181.3157075388889
 20
139.8753829567009
 30
0.0
 10
181.4191086702768
 20
139.1427942622685
 30
0.0
 10
181.5209666624482
 20
138.6055574873509
 30
0.0
 10
181.6562722987039
 20
138.0212693986033
 30
0.0
  0
LINE
  5
168
330
1F
100
AcDbEntity
  8
0
  6
HIDDEN
 62
     7
370
     0
100
AcDbLine
 10
154.4775926274
 20
112.8766501328
 30
0.0
 11
154.4775926274
 21
108.0668719491
 31
0.0
  0
LINE
  5
169
330
1F
100
AcDbEntity
  8
0
  6
HIDDEN
 62
     7
370
     0
100
AcDbLine
 10
152.9775933128
 20
113.3096629759
 30
0.0
 11
152.9775933128
 21
108.9328976353
 31
0.0
  0
LINE
  5
16A
330
1F
100
AcDbEntity
  8
0
  6
HIDDEN
 62
     7
370
     0
100
AcDbLine
 10
239.8669068467
 20
93.2386016478
 30
0.0
 11
240.775549854
 21
92.1671932568
 31
0.0
  0
LINE
  5
16B
330
1F
100
AcDbEntity
  8
0
  6
HIDDEN
 62
     7
370
     0
100
AcDbLine
 10
240.9914751303
 20
92.37640556
 30
0.0
 11
239.9502341401
 21
93.6041606595
 31
0.0
  0
LWPOLYLINE
  5
16C
330
1F
100
AcDbEntity
  8
0
  6
HIDDEN
 62
     7
370
     0
100
AcDbPolyline
 90
       24
 70
   128
 43
0.0
 10
226.6160082769
 20
117.9976525722
 10
226.5767586183
 20
118.4430701663
 10
226.4744621467
 20
118.7979590153
 10
226.3135407817
 20
119.0469993284
 10
226.1009384644
 20
119.1794399177
 10
225.8458305847
 20
119.1895629285
 10
225.5592328262
 20
119.0769320359
 10
225.2535168778
 20
118.8464087439
 10
224.9418814432
 20
118.5079451656
 10
224.6377785456
 20
118.076152355
 10
224.3543398332
 20
117.5696711992
 10
224.1037954342
 20
117.0103663584
 10
223.8969635915
 20
116.4223814388
 10
223.7427701008
 20
115.8311015
 10
223.6478795063
 20
115.2620512997
 10
223.6163821768
 20
114.7397963335
 10
223.6496415686
 20
114.2868820583
 10
223.7462159943
 20
113.9228606602
 10
223.9019405794
 20
113.6634472763
 10
224.1100911748
 20
113.5198410606
 10
224.3616861057
 20
113.4982399648
 10
224.6458587002
 20
113.5995781054
 10
224.9503453028
 20
113.8194801291
 10
225.2619956386
 20
114.1484521335
  0
SPLINE
  5
16D
330
1F
100
AcDbEntity
  8
0
  6
HIDDEN
 62
     7
370
     0
100
AcDbSpline
210
0.0
220
0.0
230
1.0
 70
     8
 71
     3
 72
    38
 73
    34
 74
     0
 42
0.00000001
 43
0.00000001
 12
1.0
 22
0.0
 32
0.0
 13
1.0
 23
0.0
 33
0.0
 40
0.0
 40
0.0
 40
0.0
 40
0.0
 40
0.0625
 40
0.0625
 40
0.1250000000000001
 40
0.1250000000000001
 40
0.1875000000000001
 40
0.1875000000000001
 40
0.2500000000000002
 40
0.2500000000000002
 40
0.3125000000000002
 40
0.3125000000000002
 40
0.3750000000000002
 40
0.3750000000000002
 40
0.4375000000000003
 40
0.4375000000000003
 40
0.5000000000000003
 40
0.5000000000000003
 40
0.5312500000000001
 40
0.5312500000000001
 40
0.5624999999999999
 40
0.5624999999999999
 40
0.625
 40
0.625
 40
0.6875
 40
0.6875
 40
0.75
 40
0.75
 40
0.8125000000000001
 40
0.8125000000000001
 40
0.8750000000000001
 40
0.8750000000000001
 40
1.0
 40
1.0
 40
1.0
 40
1.0
 10
232.5716197496182
 20
113.8596061448284
 30
0.0
 10
232.5762602644499
 20
113.6224330677101
 30
0.0
 10
232.5795576489615
 20
113.3923593780442
 30
0.0
 10
232.584291124837
 20
112.944768292227
 30
0.0
 10
232.5857166802156
 20
112.7251374106659
 30
0.0
 10
232.5863802533335
 20
112.3111726209086
 30
0.0
 10
232.5856429869883
 20
112.1166529400498
 30
0.0
 10
232.5811148943334
 20
111.7515745726882
 30
0.0
 10
232.5772745561154
 20
111.5811873151441
 30
0.0
 10
232.5652074967608
 20
111.2777389735805
 30
0.0
 10
232.5569858492458
 20
111.1427418572368
 30
0.0
 10
232.5337929238815
 20
110.9087208627689
 30
0.0
 10
232.5188953342858
 20
110.8117128512836
 30
0.0
 10
232.4809811073117
 20
110.66590888128
 30
0.0
 10
232.4578967248124
 20
110.6158827861432
 30
0.0
 10
232.3999801715315
 20
110.5703328160262
 30
0.0
 10
232.3663508611982
 20
110.5759018178329
 30
0.0
 10
232.3077105067277
 20
110.6301226383403
 30
0.0
 10
232.2866063423804
 20
110.656235420785
 30
0.0
 10
232.2426330013352
 20
110.7233830406452
 30
0.0
 10
232.2197284294555
 20
110.7643362090678
 30
0.0
 10
232.1484267743534
 20
110.9091846492353
 30
0.0
 10
232.0965726587575
 20
111.0375809712323
 30
0.0
 10
231.9929559298583
 20
111.3402973036258
 30
0.0
 10
231.9404175812984
 20
111.5164964475529
 30
0.0
 10
231.8401095088218
 20
111.9032695821685
 30
0.0
 10
231.7930032222873
 20
112.1107297764032
 30
0.0
 10
231.7068393068916
 20
112.5517232749618
 30
0.0
 10
231.6689264689409
 20
112.779734351595
 30
0.0
 10
231.6052458611136
 20
113.244046491067
 30
0.0
 10
231.5792896076178
 20
113.4828811124817
 30
0.0
 10
231.5233631261222
 20
114.1865603459911
 30
0.0
 10
231.5141556504142
 20
114.6532766155773
 30
0.0
 10
231.5337623300901
 20
115.0833705968416
 30
0.0
  0
ELLIPSE
  5
16E
330
1F
100
AcDbEntity
  8
0
  6
HIDDEN
 62
     7
370
     0
100
AcDbEllipse
 10
232.0457594207
 20
113.8829707619
 30
0.0
 11
-0.06832276206966981
 21
3.202014811276754
 31
0.0
210
0.0
220
0.0
230
1.0
 40
0.1640071468
 41
4.701592635311341
 42
7.466207693661204
  0
SPLINE
  5
16F
330
1F
100
AcDbEntity
  8
0
  6
HIDDEN
 62
     7
370
     0
100
AcDbSpline
210
0.0
220
0.0
230
1.0
 70
     8
 71
     3
 72
     8
 73
     4
 74
     0
 42
0.00000001
 43
0.00000001
 12
1.0
 22
0.0
 32
0.0
 13
1.0
 23
0.0
 33
0.0
 40
0.0
 40
0.0
 40
0.0
 40
0.0
 40
1.0
 40
1.0
 40
1.0
 40
1.0
 10
216.9878089785252
 20
102.7532388779199
 30
0.0
 10
217.2738393203462
 20
103.2325469622555
 30
0.0
 10
217.6235858092887
 20
103.6839969827565
 30
0.0
 10
218.0187956842196
 20
104.0951567550383
 30
0.0
  0
SPLINE
  5
170
330
1F
100
AcDbEntity
  8
0
  6
HIDDEN
 62
     7
370
     0
100
AcDbSpline
210
0.0
220
0.0
230
1.0
 70
     8
 71
     3
 72
    10
 73
     6
 74
     0
 42
0.00000001
 43
0.00000001
 12
1.0
 22
0.0
 32
0.0
 13
1.0
 23
0.0
 33
0.0
 40
0.0
 40
0.0
 40
0.0
 40
0.0
 40
0.5
 40
0.5
 40
1.0
 40
1.0
 40
1.0
 40
1.0
 10
216.1761914805736
 20
100.7143622538141
 30
0.0
 10
216.2358436926778
 20
101.0532847594627
 30
0.0
 10
216.3366371153942
 20
101.3929942207622
 30
0.0
 10
216.6116535785171
 20
102.0738177168225
 30
0.0
 10
216.7855797472606
 20
102.4143583772815
 30
0.0
 10
216.9878089785252
 20
102.7532388779198
 30
0.0
  0
SPLINE
  5
171
330
1F
100
AcDbEntity
  8
0
  6
HIDDEN
 62
     7
370
     0
100
AcDbSpline
210
0.0
220
0.0
230
1.0
 70
     8
 71
     3
 72
     8
 73
     4
 74
     0
 42
0.00000001
 43
0.00000001
 12
1.0
 22
0.0
 32
0.0
 13
1.0
 23
0.0
 33
0.0
 40
0.0
 40
0.0
 40
0.0
 40
0.0
 40
1.0
 40
1.0
 40
1.0
 40
1.0
 10
225.9874266132157
 20
118.4829514283307
 30
0.0
 10
226.0475272463198
 20
118.5045841347413
 30
0.0
 10
226.1077422406635
 20
118.5259565526459
 30
0.0
 10
226.1680539097161
 20
118.5471066430198
 30
0.0
  0
LINE
  5
172
330
1F
100
AcDbEntity
  8
0
  6
HIDDEN
 62
     7
370
     0
100
AcDbLine
 10
152.9775933128
 20
136.5427823742
 30
0.0
 11
152.9775933128
 21
127.2653936879
 31
0.0
  0
LINE
  5
173
330
1F
100
AcDbEntity
  8
0
  6
HIDDEN
 62
     7
370
     0
100
AcDbLine
 10
152.9775933128
 20
122.5870516622
 30
0.0
 11
152.9775933128
 21
113.3096629759
 31
0.0
  0
SPLINE
  5
174
330
1F
100
AcDbEntity
  8
0
  6
HIDDEN
 62
     7
370
     0
100
AcDbSpline
210
0.0
220
0.0
230
1.0
 70
     8
 71
     3
 72
     8
 73
     4
 74
     0
 42
0.00000001
 43
0.00000001
 12
1.0
 22
0.0
 32
0.0
 13
1.0
 23
0.0
 33
0.0
 40
0.0
 40
0.0
 40
0.0
 40
0.0
 40
1.0
 40
1.0
 40
1.0
 40
1.0
 10
218.002515537632
 20
104.6847863281161
 30
0.0
 10
218.0079399479365
 20
104.4866615034107
 30
0.0
 10
218.0133666781769
 20
104.2901205539637
 30
0.0
 10
218.0187956842196
 20
104.0951567550383
 30
0.0
  0
ELLIPSE
  5
175
330
1F
100
AcDbEntity
  8
0
  6
HIDDEN
 62
     7
370
     0
100
AcDbEllipse
 10
275.9205559179
 20
122.9262226751
 30
0.0
 11
35.66439488933309
 21
32.32040605152876
 31
0.0
210
0.0
220
0.0
230
1.0
 40
0.1868161121
 41
2.868262299074848
 42
2.893002973428195
  0
ELLIPSE
  5
176
330
1F
100
AcDbEntity
  8
0
  6
HIDDEN
 62
     7
370
     0
100
AcDbEllipse
 10
183.3305606316
 20
122.9262226751
 30
0.0
 11
59.94144337283574
 21
-32.87735675263492
 31
0.0
210
0.0
220
0.0
230
1.0
 40
0.0474201264
 41
0.3656455268405389
 42
0.7203629271307563
  0
ELLIPSE
  5
177
330
1F
100
AcDbEntity
  8
0
  6
HIDDEN
 62
     7
370
     0
100
AcDbEllipse
 10
225.9415141332
 20
122.9262226751
 30
0.0
 11
-17.03508577529848
 21
32.98618671038913
 31
0.0
210
0.0
220
0.0
230
1.0
 40
0.0560442098
 41
2.1275469868381
 42
2.636030437953502
  0
SPLINE
  5
178
330
1F
100
AcDbEntity
  8
0
  6
HIDDEN
 62
     7
370
     0
100
AcDbSpline
210
0.0
220
0.0
230
1.0
 70
     8
 71
     3
 72
    14
 73
    10
 74
     0
 42
0.00000001
 43
0.00000001
 12
1.0
 22
0.0
 32
0.0
 13
1.0
 23
0.0
 33
0.0
 40
0.0
 40
0.0
 40
0.0
 40
0.0
 40
0.5000000000000002
 40
0.5000000000000002
 40
0.6250000000000006
 40
0.6250000000000006
 40
0.7500000000000008
 40
0.7500000000000008
 40
1.0
 40
1.0
 40
1.0
 40
1.0
 10
229.4089716478078
 20
100.0917377197539
 30
0.0
 10
227.7880728044377
 20
101.0981833746489
 30
0.0
 10
226.0212538766857
 20
101.991471205483
 30
0.0
 10
223.6042923985171
 20
102.871043018159
 30
0.0
 10
223.1087970217948
 20
103.0353431186051
 30
0.0
 10
222.1131655280528
 20
103.3321942863842
 30
0.0
 10
221.611235232608
 20
103.4654970579666
 30
0.0
 10
220.0930897737632
 20
103.8184066396532
 30
0.0
 10
219.0646100941864
 20
103.9912536841125
 30
0.0
 10
218.0187956842196
 20
104.0951567550383
 30
0.0
  0
LINE
  5
179
330
1F
100
AcDbEntity
  8
0
  6
HIDDEN
 62
     7
370
     0
100
AcDbLine
 10
154.4775926274
 20
121.7777456162
 30
0.0
 11
154.4775926274
 21
112.8766501328
 31
0.0
  0
LINE
  5
17A
330
1F
100
AcDbEntity
  8
0
  6
HIDDEN
 62
     7
370
     0
100
AcDbLine
 10
154.4775926274
 20
136.9757952174
 30
0.0
 11
154.4775926274
 21
128.0746997339
 31
0.0
  0
LINE
  5
17B
330
1F
100
AcDbEntity
  8
0
  6
HIDDEN
 62
     7
370
     0
100
AcDbLine
 10
180.7775926542
 20
137.3061688622
 30
0.0
 11
180.7775926542
 21
112.5462764879
 31
0.0
  0
LINE
  5
17C
330
1F
100
AcDbEntity
  8
0
  6
HIDDEN
 62
     7
370
     0
100
AcDbLine
 10
182.7775926473
 20
136.4884965127
 30
0.0
 11
182.7775926473
 21
113.3639488374
 31
0.0
  0
SPLINE
  5
17D
330
1F
100
AcDbEntity
  8
0
  6
HIDDEN
 62
     7
370
     0
100
AcDbSpline
210
0.0
220
0.0
230
1.0
 70
     8
 71
     3
 72
    26
 73
    22
 74
     0
 42
0.00000001
 43
0.00000001
 12
1.0
 22
0.0
 32
0.0
 13
1.0
 23
0.0
 33
0.0
 40
0.0
 40
0.0
 40
0.0
 40
0.0
 40
0.1250000000000001
 40
0.1250000000000001
 40
0.2500000000000003
 40
0.2500000000000003
 40
0.3750000000000006
 40
0.3750000000000006
 40
0.4375000000000007
 40
0.4375000000000007
 40
0.5000000000000008
 40
0.5000000000000008
 40
0.5625000000000009
 40
0.5625000000000009
 40
0.6250000000000009
 40
0.6250000000000009
 40
0.7500000000000006
 40
0.7500000000000006
 40
0.8750000000000003
 40
0.8750000000000003
 40
1.0
 40
1.0
 40
1.0
 40
1.0
 10
158.4775926422635
 20
121.7077249146218
 30
0.0
 10
158.6882360042635
 20
121.9423419455669
 30
0.0
 10
158.8954324420205
 20
122.1802250815263
 30
0.0
 10
159.2969315766528
 20
122.6675393877951
 30
0.0
 10
159.4922079956989
 20
122.9176646125842
 30
0.0
 10
159.8519884883943
 20
123.4362547580351
 30
0.0
 10
160.0172473485437
 20
123.703685741922
 30
0.0
 10
160.2099052579698
 20
124.1351008743205
 30
0.0
 10
160.2648699981798
 20
124.2851197562449
 30
0.0
 10
160.342605783144
 20
124.5978569349749
 30
0.0
 10
160.3638719214524
 20
124.7556111817821
 30
0.0
 10
160.3657658507381
 20
125.0743164616279
 30
0.0
 10
160.345540113671
 20
125.2367532618084
 30
0.0
 10
160.2710757033852
 20
125.5477052613911
 30
0.0
 10
160.2174365776393
 20
125.6983764997188
 30
0.0
 10
160.0226922722386
 20
126.1404602576874
 30
0.0
 10
159.8556421590604
 20
126.4105042708551
 30
0.0
 10
159.4953860403567
 20
126.9306118991365
 30
0.0
 10
159.3006336653363
 20
127.1802731119462
 30
0.0
 10
158.897624440864
 20
127.6696972237889
 30
0.0
 10
158.6891879225005
 20
127.9090431469529
 30
0.0
 10
158.4775926422645
 20
128.1447204355208
 30
0.0
  0
LINE
  5
17E
330
1F
100
AcDbEntity
  8
0
  6
HIDDEN
 62
     7
370
     0
100
AcDbLine
 10
158.477593283
 20
121.7077248269
 30
0.0
 11
158.477593283
 21
128.1447205232
 31
0.0
  0
SPLINE
  5
17F
330
1F
100
AcDbEntity
  8
0
  6
HIDDEN
 62
     7
370
     0
100
AcDbSpline
210
0.0
220
0.0
230
1.0
 70
     8
 71
     3
 72
     8
 73
     4
 74
     0
 42
0.00000001
 43
0.00000001
 12
1.0
 22
0.0
 32
0.0
 13
1.0
 23
0.0
 33
0.0
 40
0.0000202085968836
 40
0.0000202085968836
 40
0.0000202085968836
 40
0.0000202085968836
 40
0.0040218806502652
 40
0.0040218806502652
 40
0.0040218806502652
 40
0.0040218806502652
 10
154.4775926422635
 20
121.7777455567341
 30
0.0
 10
155.8109157680542
 20
121.7537473255705
 30
0.0
 10
157.1442496412768
 20
121.7304195854022
 30
0.0
 10
158.4775926422635
 20
121.7077249146218
 30
0.0
  0
SPLINE
  5
180
330
1F
100
AcDbEntity
  8
0
  6
HIDDEN
 62
     7
370
     0
100
AcDbSpline
210
0.0
220
0.0
230
1.0
 70
     8
 71
     3
 72
     8
 73
     4
 74
     0
 42
0.00000001
 43
0.00000001
 12
1.0
 22
0.0
 32
0.0
 13
1.0
 23
0.0
 33
0.0
 40
0.0000202082942178
 40
0.0000202082942178
 40
0.0000202082942178
 40
0.0000202082942178
 40
0.0040218803475994
 40
0.0040218803475994
 40
0.0040218803475994
 40
0.0040218803475994
 10
158.4775926422635
 20
128.14472043552
 30
0.0
 10
157.1442496412768
 20
128.1220257647395
 30
0.0
 10
155.8109157680542
 20
128.0986980245712
 30
0.0
 10
154.4775926422635
 20
128.0746997934076
 30
0.0
  0
SPLINE
  5
181
330
1F
100
AcDbEntity
  8
0
  6
HIDDEN
 62
     7
370
     0
100
AcDbSpline
210
0.0
220
0.0
230
1.0
 70
     8
 71
     3
 72
     8
 73
     4
 74
     0
 42
0.00000001
 43
0.00000001
 12
1.0
 22
0.0
 32
0.0
 13
1.0
 23
0.0
 33
0.0
 40
0.0
 40
0.0
 40
0.0
 40
0.0
 40
1.0
 40
1.0
 40
1.0
 40
1.0
 10
152.9775926422626
 20
122.5870517468364
 30
0.0
 10
153.4518040527006
 20
122.2523225195414
 30
0.0
 10
153.9565403998025
 20
121.9932641057084
 30
0.0
 10
154.4775926422635
 20
121.7777455567341
 30
0.0
  0
SPLINE
  5
182
330
1F
100
AcDbEntity
  8
0
  6
HIDDEN
 62
     7
370
     0
100
AcDbSpline
210
0.0
220
0.0
230
1.0
 70
     8
 71
     3
 72
     8
 73
     4
 74
     0
 42
0.00000001
 43
0.00000001
 12
1.0
 22
0.0
 32
0.0
 13
1.0
 23
0.0
 33
0.0
 40
0.0
 40
0.0
 40
0.0
 40
0.0
 40
1.0
 40
1.0
 40
1.0
 40
1.0
 10
154.4775926422635
 20
128.0746997934076
 30
0.0
 10
153.9565403998028
 20
127.8591812444334
 30
0.0
 10
153.4518040527012
 20
127.6001228306007
 30
0.0
 10
152.9775926422635
 20
127.2653936033059
 30
0.0
  0
LINE
  5
183
330
1F
100
AcDbEntity
  8
0
  6
HIDDEN
 62
     7
370
     0
100
AcDbLine
 10
152.9775933128
 20
122.5870516622
 30
0.0
 11
152.9775933128
 21
127.2653936879
 31
0.0
  0
SPLINE
  5
184
330
1F
100
AcDbEntity
  8
0
  6
HIDDEN
 62
     7
370
     0
100
AcDbSpline
210
0.0
220
0.0
230
1.0
 70
     8
 71
     3
 72
    68
 73
    64
 74
     0
 42
0.00000001
 43
0.00000001
 12
1.0
 22
0.0
 32
0.0
 13
1.0
 23
0.0
 33
0.0
 40
-0.03125
 40
-0.03125
 40
0.0
 40
0.0
 40
0.0312500000000001
 40
0.0312500000000001
 40
0.0625000000000002
 40
0.0625000000000002
 40
0.0937500000000002
 40
0.0937500000000002
 40
0.1250000000000003
 40
0.1250000000000003
 40
0.1875000000000002
 40
0.1875000000000002
 40
0.2187500000000001
 40
0.2187500000000001
 40
0.2500000000000001
 40
0.2500000000000001
 40
0.2812500000000001
 40
0.2812500000000001
 40
0.3125000000000001
 40
0.3125000000000001
 40
0.34375
 40
0.34375
 40
0.3749999999999999
 40
0.3749999999999999
 40
0.4062499999999999
 40
0.4062499999999999
 40
0.4374999999999999
 40
0.4374999999999999
 40
0.4687499999999999
 40
0.4687499999999999
 40
0.4999999999999998
 40
0.4999999999999998
 40
0.5312499999999999
 40
0.5312499999999999
 40
0.5624999999999998
 40
0.5624999999999998
 40
0.5937499999999998
 40
0.5937499999999998
 40
0.6249999999999998
 40
0.6249999999999998
 40
0.6562499999999997
 40
0.6562499999999997
 40
0.6874999999999997
 40
0.6874999999999997
 40
0.7187499999999997
 40
0.7187499999999997
 40
0.7499999999999996
 40
0.7499999999999996
 40
0.7812499999999996
 40
0.7812499999999996
 40
0.8124999999999997
 40
0.8124999999999997
 40
0.8437499999999998
 40
0.8437499999999998
 40
0.8749999999999998
 40
0.8749999999999998
 40
0.9062499999999999
 40
0.9062499999999999
 40
0.9375
 40
0.9375
 40
0.96875
 40
0.96875
 40
1.0
 40
1.0
 40
1.03125
 40
1.03125
 10
166.3614189296
 20
126.8230402516875
 30
0.0
 10
166.6518834118918
 20
127.141472492688
 30
0.0
 10
166.8107997102733
 20
127.2839900183917
 30
0.0
 10
167.1543803959111
 20
127.5377045554814
 30
0.0
 10
167.3405517488168
 20
127.6492683819903
 30
0.0
 10
167.7250818214026
 20
127.8335174186594
 30
0.0
 10
167.9246923235673
 20
127.9074316847482
 30
0.0
 10
168.3385319085408
 20
128.0190735743083
 30
0.0
 10
168.551341718212
 20
128.0559976285972
 30
0.0
 10
169.1872731925528
 20
128.1085994491727
 30
0.0
 10
169.6223394131805
 20
128.0663910585125
 30
0.0
 10
170.2345822801682
 20
127.8925564533171
 30
0.0
 10
170.4344273682802
 20
127.815938225505
 30
0.0
 10
170.8188046770083
 20
127.6257633571621
 30
0.0
 10
170.9993530678709
 20
127.5144039229436
 30
0.0
 10
171.3374129955804
 20
127.2592986542212
 30
0.0
 10
171.4964448119917
 20
127.1137928660285
 30
0.0
 10
171.7812414922141
 20
126.7955542118556
 30
0.0
 10
171.906187021089
 20
126.6245018933365
 30
0.0
 10
172.1204891615027
 20
126.2579413072234
 30
0.0
 10
172.2103879406774
 20
126.0598725734207
 30
0.0
 10
172.3440402298064
 20
125.6552898202113
 30
0.0
 10
172.3890481651204
 20
125.4476746401942
 30
0.0
 10
172.4338276457378
 20
125.0213848837654
 30
0.0
 10
172.432753984722
 20
124.804746585817
 30
0.0
 10
172.3847341910065
 20
124.3817865588597
 30
0.0
 10
172.3373212137817
 20
124.1707898736003
 30
0.0
 10
172.199005964965
 20
123.7650011581685
 30
0.0
 10
172.1093251067429
 20
123.572054499506
 30
0.0
 10
171.8906423964156
 20
123.2051478765225
 30
0.0
 10
171.761194678587
 20
123.0316427283005
 30
0.0
 10
171.4746890745575
 20
122.7176406303098
 30
0.0
 10
171.3158302563195
 20
122.5745377038555
 30
0.0
 10
170.9708324343666
 20
122.3192067880025
 30
0.0
 10
170.7886153302463
 20
122.209674610402
 30
0.0
 10
170.4057752536073
 20
122.0247477836137
 30
0.0
 10
170.2030310285341
 20
121.9489319567723
 30
0.0
 10
169.7912024540707
 20
121.8363514645302
 30
0.0
 10
169.5819836774712
 20
121.7990112449455
 30
0.0
 10
169.1569908432368
 20
121.7617802254154
 30
0.0
 10
168.9398335661636
 20
121.762346189347
 30
0.0
 10
168.5154557270104
 20
121.8017438932364
 30
0.0
 10
168.3063390791607
 20
121.8401731278706
 30
0.0
 10
167.8943980902667
 20
121.955378162408
 30
0.0
 10
167.6918299853737
 20
122.0326430929125
 30
0.0
 10
167.3102295429063
 20
122.2203253630444
 30
0.0
 10
167.1289186070271
 20
122.3312387148564
 30
0.0
 10
166.7863267100931
 20
122.5891921535872
 30
0.0
 10
166.6275030931389
 20
122.7349078491966
 30
0.0
 10
166.3444583140385
 20
123.0512290069061
 30
0.0
 10
166.2184483820527
 20
123.2232627183052
 30
0.0
 10
166.0013413382378
 20
123.5958052962942
 30
0.0
 10
165.9139060419639
 20
123.7899270815683
 30
0.0
 10
165.7807127614164
 20
124.1937018106478
 30
0.0
 10
165.7348121793118
 20
124.4061987372554
 30
0.0
 10
165.6904956383779
 20
124.8317945981135
 30
0.0
 10
165.6913378258604
 20
125.0446284363827
 30
0.0
 10
165.7391765202814
 20
125.4703681662126
 30
0.0
 10
165.7867123757505
 20
125.6821303316258
 30
0.0
 10
165.9234509709785
 20
126.0856198660831
 30
0.0
 10
166.0137345162541
 20
126.2813784870361
 30
0.0
 10
166.2334454085191
 20
126.6509787137843
 30
0.0
 10
166.3614189296
 20
126.8230402516875
 30
0.0
 10
166.6518834118918
 20
127.141472492688
 30
0.0
  0
CIRCLE
  5
185
330
1F
100
AcDbEntity
  8
0
  6
HIDDEN
 62
     7
370
     0
100
AcDbCircle
 10
168.9775926423
 20
124.9262226751
 30
0.0
 40
3.049999999999997
  0
CIRCLE
  5
186
330
1F
100
AcDbEntity
  8
0
  6
HIDDEN
 62
     7
370
     0
100
AcDbCircle
 10
194.9775926423
 20
124.9262226751
 30
0.0
 40
2.0
  0
LINE
  5
187
330
1F
100
AcDbEntity
  8
0
  6
HIDDEN
 62
     7
370
     0
100
AcDbLine
 10
218.0025149834
 20
104.6847870579
 30
0.0
 11
233.3738823187
 21
104.6847870579
 31
0.0
  0
SPLINE
  5
188
330
1F
100
AcDbEntity
  8
0
  6
HIDDEN
 62
     7
370
     0
100
AcDbSpline
210
0.0
220
0.0
230
1.0
 70
     8
 71
     3
 72
     8
 73
     4
 74
     0
 42
0.00000001
 43
0.00000001
 12
1.0
 22
0.0
 32
0.0
 13
1.0
 23
0.0
 33
0.0
 40
0.0
 40
0.0
 40
0.0
 40
0.0
 40
1.0
 40
1.0
 40
1.0
 40
1.0
 10
218.002515537632
 20
104.6847863281161
 30
0.0
 10
217.0807279308759
 20
110.2180708279385
 30
0.0
 10
216.3821925129515
 20
115.7813425587649
 30
0.0
 10
216.1761914805736
 20
121.4107715016399
 30
0.0
  0
LINE
  5
189
330
1F
100
AcDbEntity
  8
0
  6
HIDDEN
 62
     7
370
     0
100
AcDbLine
 10
233.0054064047
 20
105.4011380305
 30
0.0
 11
233.3738823187
 21
104.6847870579
 31
0.0
  0
ELLIPSE
  5
18A
330
1F
100
AcDbEntity
  8
0
  6
HIDDEN
 62
     7
370
     0
100
AcDbEllipse
 10
256.3752114983
 20
116.9223855792
 30
0.0
 11
-17.45773393909482
 21
20.58486436131485
 31
0.0
210
0.0
220
0.0
230
1.0
 40
0.9632873408
 41
0.8858048658270284
 42
1.334113086112547
  0
LINE
  5
18B
330
1F
100
AcDbEntity
  8
0
  6
HIDDEN
 62
     7
370
     0
100
AcDbLine
 10
229.680696572
 20
124.9262226751
 30
0.0
 11
229.9741190624
 21
116.9223852461
 31
0.0
  0
LINE
  5
18C
330
1F
100
AcDbEntity
  8
0
  6
HIDDEN
 62
     7
370
     0
100
AcDbLine
 10
182.9775926423
 20
105.376223289
 30
0.0
 11
183.0704858627
 21
105.4691152652
 31
0.0
  0
LINE
  5
18D
330
1F
100
AcDbEntity
  8
0
  6
HIDDEN
 62
     7
370
     0
100
AcDbLine
 10
183.0704858627
 20
144.3833300849
 30
0.0
 11
182.9775926423
 21
144.4762220611
 31
0.0
  0
ARC
  5
18E
330
1F
100
AcDbEntity
  8
0
  6
HIDDEN
 62
     7
370
     0
100
AcDbCircle
 10
182.3633790799
 20
106.1762226751
 30
0.0
 40
1.000000000000008
100
AcDbArc
 50
315.0
 51
0.0
  0
ARC
  5
18F
330
1F
100
AcDbEntity
  8
0
  6
HIDDEN
 62
     7
370
     0
100
AcDbCircle
 10
182.3633790799
 20
106.1762226751
 30
0.0
 40
1.000000000000016
100
AcDbArc
 50
0.0
 51
52.1052014664
  0
ARC
  5
190
330
1F
100
AcDbEntity
  8
0
  6
HIDDEN
 62
     7
370
     0
100
AcDbCircle
 10
182.3633790799
 20
143.6762226751
 30
0.0
 40
1.000000000000028
100
AcDbArc
 50
351.8087250651
 51
45.0
  0
ARC
  5
191
330
1F
100
AcDbEntity
  8
0
  6
HIDDEN
 62
     7
370
     0
100
AcDbCircle
 10
182.3633790799
 20
143.6762226751
 30
0.0
 40
1.000000000000002
100
AcDbArc
 50
307.8947985337
 51
351.8087250651
  0
LINE
  5
192
330
1F
100
AcDbEntity
  8
0
  6
HIDDEN
 62
     7
370
     0
100
AcDbLine
 10
183.3633790781
 20
106.17622193
 30
0.0
 11
183.3633790781
 21
143.6762234201
 31
0.0
  0
LINE
  5
193
330
1F
100
AcDbEntity
  8
0
  6
HIDDEN
 62
     7
370
     0
100
AcDbLine
 10
183.3633790781
 20
106.17622193
 30
0.0
 11
183.3633790781
 21
143.6762234201
 31
0.0
  0
ARC
  5
194
330
1F
100
AcDbEntity
  8
0
  6
HIDDEN
 62
     7
370
     0
100
AcDbCircle
 10
160.4843121543
 20
114.4262226751
 30
0.0
 40
1.500000000000032
100
AcDbArc
 50
270.0
 51
315.0
  0
ARC
  5
195
330
1F
100
AcDbEntity
  8
0
  6
HIDDEN
 62
     7
370
     0
100
AcDbCircle
 10
160.4843121543
 20
135.4262226751
 30
0.0
 40
1.500000000000012
100
AcDbArc
 50
45.0
 51
90.0
  0
LINE
  5
196
330
1F
100
AcDbEntity
  8
0
  6
HIDDEN
 62
     7
370
     0
100
AcDbLine
 10
159.4775934469
 20
112.9262225708
 30
0.0
 11
160.4843121719
 21
112.9262225708
 31
0.0
  0
LINE
  5
197
330
1F
100
AcDbEntity
  8
0
  6
HIDDEN
 62
     7
370
     0
100
AcDbLine
 10
160.4843121719
 20
136.9262227794
 30
0.0
 11
159.4775934469
 21
136.9262227794
 31
0.0
  0
ARC
  5
198
330
1F
100
AcDbEntity
  8
0
  6
HIDDEN
 62
     7
370
     0
100
AcDbCircle
 10
159.4775926423
 20
114.4262226751
 30
0.0
 40
1.500000000000014
100
AcDbArc
 50
191.0958032831
 51
270.0
  0
ARC
  5
199
330
1F
100
AcDbEntity
  8
0
  6
HIDDEN
 62
     7
370
     0
100
AcDbCircle
 10
159.4775926423
 20
135.4262226751
 30
0.0
 40
1.5
100
AcDbArc
 50
90.0
 51
168.9041967169
  0
LINE
  5
19A
330
1F
100
AcDbEntity
  8
0
  6
HIDDEN
 62
     7
370
     0
100
AcDbLine
 10
152.9775933128
 20
113.1628101697
 30
0.0
 11
154.0056318742
 21
113.7563494971
 31
0.0
  0
LINE
  5
19B
330
1F
100
AcDbEntity
  8
0
  6
HIDDEN
 62
     7
370
     0
100
AcDbLine
 10
154.0056318742
 20
136.0960958531
 30
0.0
 11
152.9775933128
 21
136.6896351805
 31
0.0
  0
LINE
  5
19C
330
1F
100
AcDbEntity
  8
0
  6
HIDDEN
 62
     7
370
     0
100
AcDbLine
 10
161.5449731004
 20
113.3655628195
 30
0.0
 11
162.6056321662
 21
114.4262228166
 31
0.0
  0
LINE
  5
19D
330
1F
100
AcDbEntity
  8
0
  6
HIDDEN
 62
     7
370
     0
100
AcDbLine
 10
162.6056321662
 20
135.4262225335
 30
0.0
 11
161.5449731004
 21
136.4868825307
 31
0.0
  0
LINE
  5
19E
330
1F
100
AcDbEntity
  8
0
  6
HIDDEN
 62
     7
370
     0
100
AcDbLine
 10
154.0056318742
 20
113.7563494971
 30
0.0
 11
156.5056332153
 21
114.4262228166
 31
0.0
  0
LINE
  5
19F
330
1F
100
AcDbEntity
  8
0
  6
HIDDEN
 62
     7
370
     0
100
AcDbLine
 10
156.5056332153
 20
135.4262225335
 30
0.0
 11
154.0056318742
 21
136.0960958531
 31
0.0
  0
LINE
  5
1A0
330
1F
100
AcDbEntity
  8
0
  6
HIDDEN
 62
     7
370
     0
100
AcDbLine
 10
224.120976473
 20
126.1532456386
 30
0.0
 11
223.5132065367
 21
126.8698813632
 31
0.0
  0
LINE
  5
1A1
330
1F
100
AcDbEntity
  8
0
  6
HIDDEN
 62
     7
370
     0
100
AcDbLine
 10
158.0056325298
 20
135.7148980727
 30
0.0
 11
157.5056333792
 21
135.4262225335
 31
0.0
  0
LINE
  5
1A2
330
1F
100
AcDbEntity
  8
0
  6
HIDDEN
 62
     7
370
     0
100
AcDbLine
 10
157.5056333792
 20
114.4262228166
 30
0.0
 11
158.0056325298
 21
114.1375472774
 31
0.0
  0
ARC
  5
1A3
330
1F
100
AcDbEntity
  8
0
  6
HIDDEN
 62
     7
370
     0
100
AcDbCircle
 10
172.4775926423
 20
114.9262226751
 30
0.0
 40
0.5
100
AcDbArc
 50
270.0
 51
0.0
  0
ARC
  5
1A4
330
1F
100
AcDbEntity
  8
0
  6
HIDDEN
 62
     7
370
     0
100
AcDbCircle
 10
172.4775926423
 20
134.9262226751
 30
0.0
 40
0.5
100
AcDbArc
 50
0.0
 51
90.0
  0
LINE
  5
1A5
330
1F
100
AcDbEntity
  8
0
  6
HIDDEN
 62
     7
370
     0
100
AcDbLine
 10
162.6056321662
 20
114.4262228166
 30
0.0
 11
172.4775927838
 21
114.4262228166
 31
0.0
  0
LINE
  5
1A6
330
1F
100
AcDbEntity
  8
0
  6
HIDDEN
 62
     7
370
     0
100
AcDbLine
 10
172.4775927838
 20
135.4262225335
 30
0.0
 11
162.6056321662
 21
135.4262225335
 31
0.0
  0
LINE
  5
1A7
330
1F
100
AcDbEntity
  8
0
  6
HIDDEN
 62
     7
370
     0
100
AcDbLine
 10
156.5056332153
 20
114.4262228166
 30
0.0
 11
157.5056333792
 21
114.4262228166
 31
0.0
  0
LINE
  5
1A8
330
1F
100
AcDbEntity
  8
0
  6
HIDDEN
 62
     7
370
     0
100
AcDbLine
 10
157.5056333792
 20
135.4262225335
 30
0.0
 11
156.5056332153
 21
135.4262225335
 31
0.0
  0
LINE
  5
1A9
330
1F
100
AcDbEntity
  8
0
  6
HIDDEN
 62
     7
370
     0
100
AcDbLine
 10
221.5693165314
 20
121.6024849103
 30
0.0
 11
222.1770864677
 21
120.8858491858
 31
0.0
  0
LINE
  5
1AA
330
1F
100
AcDbEntity
  8
0
  6
HIDDEN
 62
     7
370
     0
100
AcDbLine
 10
218.0570495081
 20
109.6921220427
 30
0.0
 11
219.3837222409
 21
108.1278083851
 31
0.0
  0
LINE
  5
1AB
330
1F
100
AcDbEntity
  8
0
  6
HIDDEN
 62
     7
370
     0
100
AcDbLine
 10
172.9775928658
 20
116.6762227198
 30
0.0
 11
173.9775930297
 21
117.6762228837
 31
0.0
  0
LINE
  5
1AC
330
1F
100
AcDbEntity
  8
0
  6
HIDDEN
 62
     7
370
     0
100
AcDbLine
 10
173.9775930297
 20
132.1762224665
 30
0.0
 11
172.9775928658
 21
133.1762226304
 31
0.0
  0
LINE
  5
1AD
330
1F
100
AcDbEntity
  8
0
  6
HIDDEN
 62
     7
370
     0
100
AcDbLine
 10
229.8426274907
 20
115.1481747632
 30
0.0
 11
229.1480322134
 21
115.9671872859
 31
0.0
  0
LINE
  5
1AE
330
1F
100
AcDbEntity
  8
0
  6
HIDDEN
 62
     7
370
     0
100
AcDbLine
 10
224.4195473146
 20
111.9570240384
 30
0.0
 11
225.1141388666
 21
111.1380115157
 31
0.0
  0
LINE
  5
1AF
330
1F
100
AcDbEntity
  8
0
  6
HIDDEN
 62
     7
370
     0
100
AcDbLine
 10
206.9775928509
 20
132.1762224665
 30
0.0
 11
173.9775930297
 21
132.1762224665
 31
0.0
  0
LINE
  5
1B0
330
1F
100
AcDbEntity
  8
0
  6
HIDDEN
 62
     7
370
     0
100
AcDbLine
 10
173.9775930297
 20
117.6762228837
 30
0.0
 11
206.9775928509
 21
117.6762228837
 31
0.0
  0
LINE
  5
1B1
330
1F
100
AcDbEntity
  8
0
  6
HIDDEN
 62
     7
370
     0
100
AcDbLine
 10
206.9775928509
 20
117.6762228837
 30
0.0
 11
211.3338318419
 21
124.9262226751
 31
0.0
  0
LINE
  5
1B2
330
1F
100
AcDbEntity
  8
0
  6
HIDDEN
 62
     7
370
     0
100
AcDbLine
 10
211.3338318419
 20
124.9262226751
 30
0.0
 11
206.9775928509
 21
132.1762224665
 31
0.0
  0
LINE
  5
1B3
330
1F
100
AcDbEntity
  8
0
  6
HIDDEN
 62
     7
370
     0
100
AcDbLine
 10
228.6278364014
 20
115.652923659
 30
0.0
 11
226.3188604962
 21
118.375495263
 31
0.0
  0
LINE
  5
1B4
330
1F
100
AcDbEntity
  8
0
  6
HIDDEN
 62
     7
370
     0
100
AcDbLine
 10
222.6567473959
 20
114.9632299324
 30
0.0
 11
224.8145398449
 21
112.4189209198
 31
0.0
  0
LINE
  5
1B5
330
1F
100
AcDbEntity
  8
0
  6
HIDDEN
 62
     7
370
     0
100
AcDbLine
 10
207.673449139
 20
119.8929284704
 30
0.0
 11
224.0188886177
 21
114.082903788
 31
0.0
  0
LINE
  5
1B6
330
1F
100
AcDbEntity
  8
0
  6
HIDDEN
 62
     7
370
     0
100
AcDbLine
 10
225.6935034644
 20
118.7941312795
 30
0.0
 11
209.2913799685
 21
124.6243045438
 31
0.0
  0
LINE
  5
1B7
330
1F
100
AcDbEntity
  8
0
  6
HIDDEN
 62
     7
370
     0
100
AcDbLine
 10
232.5553540837
 20
103.1525993725
 30
0.0
 11
230.6886371922
 21
105.3536945959
 31
0.0
  0
LINE
  5
1B8
330
1F
100
AcDbEntity
  8
0
  6
HIDDEN
 62
     7
370
     0
100
AcDbLine
 10
228.1718608689
 20
103.2192541292
 30
0.0
 11
230.0385777604
 21
101.0181589057
 31
0.0
  0
LINE
  5
1B9
330
1F
100
AcDbEntity
  8
0
  6
HIDDEN
 62
     7
370
     0
100
AcDbLine
 10
224.1116073679
 20
113.5192999621
 30
0.0
 11
232.3539127361
 21
110.5895528575
 31
0.0
  0
LINE
  5
1BA
330
1F
100
AcDbEntity
  8
0
  6
HIDDEN
 62
     7
370
     0
100
AcDbLine
 10
232.0102062773
 20
117.0794919138
 30
0.0
 11
226.1211481642
 21
119.1727721138
 31
0.0
  0
LINE
  5
1BB
330
1F
100
AcDbEntity
  8
0
  6
HIDDEN
 62
     7
370
     0
100
AcDbLine
 10
225.0258271348
 20
118.6091985559
 30
0.0
 11
224.7807365608
 21
118.3244862599
 31
0.0
  0
LINE
  5
1BC
330
1F
100
AcDbEntity
  8
0
  6
HIDDEN
 62
     7
370
     0
100
AcDbLine
 10
223.6073185455
 20
115.0232872
 30
0.0
 11
223.6177232813
 21
114.6477593114
 31
0.0
  0
LINE
  5
1BD
330
1F
100
AcDbEntity
  8
VERMASSUNG
  6
CENTERX2
100
AcDbLine
 10
149.5967372371
 20
124.9262226751
 30
0.0
 11
242.9775926423
 21
124.9262226751
 31
0.0
  0
LINE
  5
1BE
330
1F
100
AcDbEntity
  8
VERMASSUNG
  6
CENTERX2
100
AcDbLine
 10
242.9775926423
 20
89.9262226751
 30
0.0
 11
242.9775926423
 21
124.9262226751
 31
0.0
  0
LINE
  5
1BF
330
1F
100
AcDbEntity
  8
VERMASSUNG
  6
CENTERX2
100
AcDbLine
 10
242.9775926423
 20
89.9262226751
 30
0.0
 11
249.0147670512
 21
89.9262226751
 31
0.0
  0
LINE
  5
1C0
330
1F
100
AcDbEntity
  8
VERMASSUNG
100
AcDbLine
 10
242.9775926423
 20
89.9262226751
 30
0.0
 11
242.9775926423
 21
79.8783726902
 31
0.0
  0
DIMENSION
  5
1C1
330
1F
100
AcDbEntity
  8
VERMASSUNG
100
AcDbDimension
  2
_D
 10
242.9775926423
 20
70.9684482575
 30
0.0
 11
212.9775926423
 21
70.9684482575
 31
0.0
 70
   160
  1
<>
 71
     2
 42
-1.0
  3
SLDDIMSTYLE0
100
AcDbAlignedDimension
 13
182.9775926423
 23
100.2262226751
 33
0.0
 14
242.9775926423
 24
89.9262226751
 34
0.0
100
AcDbRotatedDimension
  0
DIMENSION
  5
1CE
330
1F
100
AcDbEntity
  8
VERMASSUNG
100
AcDbDimension
  2
_D_1
 10
251.6250176224
 20
124.9262226751
 30
0.0
 11
251.6250176224
 21
107.4262226751
 31
0.0
 70
   160
  1
<>
 71
     2
 42
-1.0
  3
SLDDIMSTYLE0
100
AcDbAlignedDimension
 13
242.9775926423
 23
89.9262226751
 33
0.0
 14
242.9775926423
 24
124.9262226751
 34
0.0
 50
90.0
100
AcDbRotatedDimension
  0
DIMENSION
  5
1DA
330
1F
100
AcDbEntity
  8
VERMASSUNG
100
AcDbDimension
  2
_D_2
 10
152.9775926423
 20
64.9684482575
 30
0.0
 11
197.9775926423
 21
64.9684482575
 31
0.0
 70
   160
  1
<>
 71
     2
 42
-1.0
  3
SLDDIMSTYLE1
100
AcDbAlignedDimension
 13
242.9775926423
 23
89.9262226751
 33
0.0
 14
152.9775926423
 24
108.9328968369
 34
0.0
100
AcDbRotatedDimension
  0
DIMENSION
  5
1E5
330
1F
100
AcDbEntity
  8
VERMASSUNG
100
AcDbDimension
  2
_D_3
 10
242.9775926423
 20
79.8783726902
 30
0.0
 11
234.1857059281
 21
84.330943328
 31
0.0
 70
   162
  1
<>
 71
     1
 42
-1.0
  3
SLDDIMSTYLE2
100
AcDb2LineAngularDimension
 13
242.3908075667
 23
89.9695189811
 33
0.0
 14
229.328565469
 24
96.7753852276
 34
0.0
 15
242.9775926423
 25
89.9262226751
 35
0.0
 16
234.1857059281
 26
84.330943328
 36
0.0
  0
DIMENSION
  5
1EF
330
1F
100
AcDbEntity
  8
VERMASSUNG
100
AcDbDimension
  2
_D_4
 10
141.197076046
 20
99.9262226751
 30
0.0
 11
141.197076046
 21
124.9262226751
 31
0.0
 70
   160
  1
PSC%%c<>
 71
     2
 42
-1.0
  3
SLDDIMSTYLE1
100
AcDbAlignedDimension
 13
183.2775926423
 23
149.9262226751
 33
0.0
 14
183.2775926423
 24
99.9262226751
 34
0.0
 50
90.0
100
AcDbRotatedDimension
  0
ARC
  5
1FB
330
1F
100
AcDbEntity
  8
0
  6
Continuous
 62
     7
370
    15
100
AcDbCircle
 10
92.7287657471
 20
115.3917606254
 30
0.0
 40
2.500000000000002
100
AcDbArc
 50
253.3713330904
 51
30.6286669096
  0
LINE
  5
1FC
330
1F
100
AcDbEntity
  8
0
  6
Continuous
 62
     7
370
    15
100
AcDbLine
 10
58.3607412444
 20
118.3837025432
 30
0.0
 11
58.136165844
 21
118.2593989191
 31
0.0
  0
LINE
  5
1FD
330
1F
100
AcDbEntity
  8
0
  6
Continuous
 62
     7
370
    15
100
AcDbLine
 10
64.391779484
 20
119.6677863603
 30
0.0
 11
58.3737816231
 21
118.3886213233
 31
0.0
  0
SPLINE
  5
1FE
330
1F
100
AcDbEntity
  8
0
  6
Continuous
 62
     7
370
    15
100
AcDbSpline
210
0.0
220
0.0
230
1.0
 70
     8
 71
     3
 72
    24
 73
    20
 74
     0
 42
0.00000001
 43
0.00000001
 12
1.0
 22
0.0
 32
0.0
 13
1.0
 23
0.0
 33
0.0
 40
0.0
 40
0.0
 40
0.0
 40
0.0
 40
0.0448309682164141
 40
0.093790089408869
 40
0.1408736958510414
 40
0.1865928148869395
 40
0.2317686098518878
 40
0.2779888042094147
 40
0.3285472549409001
 40
0.3906477282239285
 40
0.4667127818447298
 40
0.5332284435457987
 40
0.6023222641930768
 40
0.6679564811633883
 40
0.7324070751766396
 40
0.7969718957735289
 40
0.8625348186369752
 40
0.9308360860401137
 40
1.0
 40
1.0
 40
1.0
 40
1.0
 10
56.24429765504735
 20
115.4180990537263
 30
0.0
 10
56.11538774992816
 20
115.3322627578006
 30
0.0
 10
55.84569757798155
 20
115.1526861349952
 30
0.0
 10
55.50730589174962
 20
114.8043472986436
 30
0.0
 10
55.22318427692352
 20
114.4158750247285
 30
0.0
 10
55.00959775319336
 20
114.0087576795223
 30
0.0
 10
54.85743142029412
 20
113.5947873005414
 30
0.0
 10
54.75664788792896
 20
113.1730171552204
 30
0.0
 10
54.69609725392098
 20
112.7184975720987
 30
0.0
 10
54.67370622483821
 20
112.1897207971672
 30
0.0
 10
54.69508876077006
 20
111.5942145587206
 30
0.0
 10
54.75756820940429
 20
110.9330840467579
 30
0.0
 10
54.85080886280937
 20
110.2665427079807
 30
0.0
 10
54.97316340870828
 20
109.5841526954251
 30
0.0
 10
55.11756285355627
 20
108.9141717150022
 30
0.0
 10
55.28224620518522
 20
108.2601879273452
 30
0.0
 10
55.46781755202599
 20
107.6280390487628
 30
0.0
 10
55.67062650160663
 20
107.0274643834876
 30
0.0
 10
55.82605868164155
 20
106.6635404393574
 30
0.0
 10
55.90426246982949
 20
106.4804365863658
 30
0.0
  0
SPLINE
  5
1FF
330
1F
100
AcDbEntity
  8
0
  6
Continuous
 62
     7
370
    15
100
AcDbSpline
210
0.0
220
0.0
230
1.0
 70
     8
 71
     3
 72
    15
 73
    11
 74
     0
 42
0.00000001
 43
0.00000001
 12
1.0
 22
0.0
 32
0.0
 13
1.0
 23
0.0
 33
0.0
 40
0.0
 40
0.0
 40
0.0
 40
0.0
 40
0.1000408222571601
 40
0.2426629946424938
 40
0.3711575685013556
 40
0.4996288824575357
 40
0.6295142447278137
 40
0.7619085169563237
 40
0.8967341694966892
 40
0.9999999999999999
 40
0.9999999999999999
 40
0.9999999999999999
 40
0.9999999999999999
 10
55.90426246982949
 20
106.4804365863658
 30
0.0
 10
55.95133061975454
 20
106.3804283222501
 30
0.0
 10
56.06550099496128
 20
106.1378443019294
 30
0.0
 10
56.26940129371519
 20
105.7813168327622
 30
0.0
 10
56.53988911647726
 20
105.400195577351
 30
0.0
 10
56.86447889832135
 20
105.0455757923162
 30
0.0
 10
57.2563773987422
 20
104.7239767779519
 30
0.0
 10
57.71224705287453
 20
104.4612071401357
 30
0.0
 10
58.17683241146539
 20
104.2781412162334
 30
0.0
 10
58.49426462283147
 20
104.230090669177
 30
0.0
 10
58.63194237810509
 20
104.2092500259734
 30
0.0
  0
LINE
  5
200
330
1F
100
AcDbEntity
  8
0
  6
Continuous
 62
     7
370
    15
100
AcDbLine
 10
58.6979992257
 20
104.2017454287
 30
0.0
 11
60.6245740817
 21
104.61125169
 31
0.0
  0
LINE
  5
201
330
1F
100
AcDbEntity
  8
0
  6
Continuous
 62
     7
370
    15
100
AcDbLine
 10
58.2335896359
 20
115.8599492168
 30
0.0
 11
56.3070147799
 21
115.4504429554
 31
0.0
  0
SPLINE
  5
202
330
1F
100
AcDbEntity
  8
0
  6
Continuous
 62
     7
370
    15
100
AcDbSpline
210
0.0
220
0.0
230
1.0
 70
     8
 71
     3
 72
    20
 73
    16
 74
     0
 42
0.00000001
 43
0.00000001
 12
1.0
 22
0.0
 32
0.0
 13
1.0
 23
0.0
 33
0.0
 40
0.0
 40
0.0
 40
0.0
 40
0.0
 40
0.0363356415467746
 40
0.1211034906692933
 40
0.2036661679013484
 40
0.2852479093797279
 40
0.36638587294871
 40
0.4473602196581534
 40
0.5283583602715493
 40
0.6095217869167004
 40
0.6910934941267473
 40
0.7734824645635986
 40
0.8575462533093677
 40
0.9455695753073124
 40
1.0
 40
1.0
 40
1.0
 40
1.0
 10
73.86905677032607
 20
110.4704311122752
 30
0.0
 10
73.86957347664496
 20
110.5349530063584
 30
0.0
 10
73.87129561326354
 20
110.7499987924089
 30
0.0
 10
73.83894386645045
 20
111.1879523162412
 30
0.0
 10
73.77506979052485
 20
111.7671426748733
 30
0.0
 10
73.68193079041954
 20
112.3829366290176
 30
0.0
 10
73.56487991254956
 20
113.0156595040582
 30
0.0
 10
73.42676023467685
 20
113.6495749930256
 30
0.0
 10
73.27170122591635
 20
114.266322097057
 30
0.0
 10
73.10398767585211
 20
114.8485096017114
 30
0.0
 10
72.9275402754049
 20
115.380150925877
 30
0.0
 10
72.7464606574933
 20
115.8488908290613
 30
0.0
 10
72.5573172635507
 20
116.2460339927532
 30
0.0
 10
72.39482929715923
 20
116.5268501563829
 30
0.0
 10
72.25912514518373
 20
116.664280216463
 30
0.0
 10
72.20727368605273
 20
116.7167911311246
 30
0.0
  0
LINE
  5
203
330
1F
100
AcDbEntity
  8
0
  6
Continuous
 62
     7
370
    15
100
AcDbLine
 10
58.5795182304
 20
116.863640212
 30
0.0
 11
58.0214585678
 21
115.9743342554
 31
0.0
  0
LINE
  5
204
330
1F
100
AcDbEntity
  8
0
  6
Continuous
 62
     7
370
    15
100
AcDbLine
 10
60.4773077683
 20
104.4204739859
 30
0.0
 11
61.6152982728
 21
103.6560388287
 31
0.0
  0
LINE
  5
205
330
1F
100
AcDbEntity
  8
0
  6
Continuous
 62
     7
370
    15
100
AcDbLine
 10
61.8477507995
 20
103.5933198413
 30
0.0
 11
66.2705998437
 21
104.5334247877
 31
0.0
  0
LINE
  5
206
330
1F
100
AcDbEntity
  8
0
  6
Continuous
 62
     7
370
    15
100
AcDbLine
 10
66.3840796368
 20
104.5947263023
 30
0.0
 11
68.1214889081
 21
106.18741829
 31
0.0
  0
LINE
  5
207
330
1F
100
AcDbEntity
  8
0
  6
Continuous
 62
     7
370
    15
100
AcDbLine
 10
64.6992221044
 20
117.8122509276
 30
0.0
 11
64.0572465525
 21
118.0271978495
 31
0.0
  0
LINE
  5
208
330
1F
100
AcDbEntity
  8
0
  6
Continuous
 62
     7
370
    15
100
AcDbLine
 10
69.5690119208
 20
127.3762334143
 30
0.0
 11
66.8760424049
 21
126.8038250977
 31
0.0
  0
LINE
  5
209
330
1F
100
AcDbEntity
  8
0
  6
Continuous
 62
     7
370
    15
100
AcDbLine
 10
65.0708896608
 20
125.0054459282
 30
0.0
 11
64.0695865766
 21
119.9751148937
 31
0.0
  0
LINE
  5
20A
330
1F
100
AcDbEntity
  8
0
  6
Continuous
 62
     7
370
    15
100
AcDbLine
 10
80.4541431679
 20
89.926490747
 30
0.0
 11
85.039390953
 21
90.9011123707
 31
0.0
  0
LINE
  5
20B
330
1F
100
AcDbEntity
  8
0
  6
Continuous
 62
     7
370
    15
100
AcDbLine
 10
78.1834509724
 20
95.3740293165
 30
0.0
 11
78.6479173729
 21
94.8288945486
 31
0.0
  0
LINE
  5
20C
330
1F
100
AcDbEntity
  8
0
  6
Continuous
 62
     7
370
    15
100
AcDbLine
 10
85.061756199
 20
91.0515246918
 30
0.0
 11
87.7453798929
 21
91.6219448676
 31
0.0
  0
LINE
  5
20D
330
1F
100
AcDbEntity
  8
0
  6
Continuous
 62
     7
370
    15
100
AcDbLine
 10
87.7587257454
 20
91.6327929129
 30
0.0
 11
87.9773309023
 21
91.9811559846
 31
0.0
  0
ARC
  5
20E
330
1F
100
AcDbEntity
  8
0
  6
Continuous
 62
     7
370
    15
100
AcDbCircle
 10
93.6290513128
 20
113.9800171848
 30
0.0
 40
2.447910201127609
100
AcDbArc
 50
242.3111573945
 51
277.3855151594
  0
ARC
  5
20F
330
1F
100
AcDbEntity
  8
0
  6
Continuous
 62
     7
370
    15
100
AcDbCircle
 10
93.6478893543
 20
114.6347807339
 30
0.0
 40
3.09652857090565
100
AcDbArc
 50
275.4821400424
 51
38.7984306674
  0
ARC
  5
210
330
1F
100
AcDbEntity
  8
0
  6
Continuous
 62
     7
370
    15
100
AcDbCircle
 10
93.6946606603
 20
113.9013028496
 30
0.0
 40
2.280467642131897
100
AcDbArc
 50
233.0952007504
 51
277.748427586
  0
LWPOLYLINE
  5
211
330
1F
100
AcDbEntity
  8
0
  6
Continuous
 62
     7
370
    15
100
AcDbPolyline
 90
       21
 70
   128
 43
0.0
 10
91.9472759159
 20
115.6323246663
 10
92.3093433992
 20
116.0951025789
 10
92.7703816013
 20
116.5021399041
 10
93.2921122329
 20
116.8083177885
 10
93.8501411618
 20
116.9993199413
 10
94.4183745922
 20
117.0662149792
 10
94.9702428223
 20
117.0058755209
 10
95.4799407662
 20
116.8211234739
 10
95.9236358793
 20
116.5205968549
 10
96.2805829511
 20
116.1183474591
 10
96.5340889559
 20
115.6331852084
 10
96.6723009513
 20
115.0877952581
 10
96.6887574212
 20
114.507679083
 10
96.5826872305
 20
113.9199633157
 10
96.359052466
 20
113.35212756
 10
96.0283072234
 20
112.8307238226
 10
95.6059189082
 20
112.3801322659
 10
95.1116371469
 20
112.0214222004
 10
94.5685736404
 20
111.7713658144
 10
94.0021218301
 20
111.6416567942
 10
94.0021218301
 20
111.6416567942
  0
LWPOLYLINE
  5
212
330
1F
100
AcDbEntity
  8
0
  6
Continuous
 62
     7
370
    15
100
AcDbPolyline
 90
       28
 70
   128
 43
0.0
 10
94.0104627551
 20
111.9819546124
 10
93.4822901652
 20
111.9832919916
 10
92.9857136251
 20
112.1119560679
 10
92.5475049333
 20
112.3610122135
 10
92.191287087
 20
112.7170326193
 10
91.9362630264
 20
113.16082459
 10
91.796182798
 20
113.6684624483
 10
91.7785975651
 20
114.212580212
 10
91.8844554142
 20
114.7638449451
 10
92.1080492006
 20
115.2925362816
 10
92.4373257474
 20
115.7701529568
 10
92.8545321838
 20
116.1709466954
 10
93.3371780009
 20
116.4733108138
 10
93.8592439086
 20
116.6609443729
 10
94.3925834761
 20
116.7237322783
 10
94.9084458442
 20
116.6582891723
 10
95.3790207894
 20
116.4681429049
 10
95.7789381535
 20
116.1635454749
 10
96.0866396816
 20
115.7609170308
 10
96.2855357246
 20
115.2819629764
 10
96.364904897
 20
114.7525051614
 10
96.3204696344
 20
114.2010858288
 10
96.1546215729
 20
113.6574318638
 10
95.8763051347
 20
113.1508519878
 10
95.5005229951
 20
112.7086572354
 10
95.0475332828
 20
112.3546848079
 10
94.5417580695
 20
112.1080184361
 10
94.0104627551
 20
111.9819546124
  0
ARC
  5
213
330
1F
100
AcDbEntity
  8
0
  6
Continuous
 62
     7
370
    15
100
AcDbCircle
 10
56.5656286634
 20
116.8333567062
 30
0.0
 40
2.371919347834666
100
AcDbArc
 50
4.6301698877
 51
40.8154739196
  0
LWPOLYLINE
  5
214
330
1F
100
AcDbEntity
  8
0
  6
Continuous
 62
     7
370
    15
100
AcDbPolyline
 90
       11
 70
   128
 43
0.0
 10
58.1719416694
 20
116.9709648942
 10
58.1037912087
 20
117.3857647931
 10
58.0673876719
 20
117.7525708457
 10
58.0661210732
 20
118.0372365756
 10
58.1001087592
 20
118.2132616644
 10
58.1661879585
 20
118.264260423
 10
58.2582044916
 20
118.1854849686
 10
58.3675957785
 20
117.9842685355
 10
58.4841750131
 20
117.6793428143
 10
58.5970922874
 20
117.2990931203
 10
58.6871288286
 20
116.9204415759
  0
LINE
  5
215
330
1F
100
AcDbEntity
  8
0
  6
Continuous
 62
     7
370
    15
100
AcDbLine
 10
58.2971170114
 20
116.4241928612
 30
0.0
 11
58.2172467874
 21
116.7520985013
 31
0.0
  0
LINE
  5
216
330
1F
100
AcDbEntity
  8
0
  6
Continuous
 62
     7
370
    15
100
AcDbLine
 10
58.2531809376
 20
116.7707482358
 30
0.0
 11
58.2172467874
 21
116.7520985013
 31
0.0
  0
LWPOLYLINE
  5
217
330
1F
100
AcDbEntity
  8
0
  6
Continuous
 62
     7
370
    15
100
AcDbPolyline
 90
       10
 70
   128
 43
0.0
 10
58.215028377
 20
116.9550569733
 10
58.1528383808
 20
117.341247574
 10
58.1241424696
 20
117.6734023733
 10
58.1322356628
 20
117.9134177049
 10
58.1761866377
 20
118.0337599484
 10
58.2509569393
 20
118.0206231778
 10
58.3479672239
 20
117.8755142731
 10
58.4560900496
 20
117.6150806253
 10
58.5629201995
 20
117.2691976657
 10
58.6403429077
 20
116.9520869856
  0
LINE
  5
218
330
1F
100
AcDbEntity
  8
0
  6
Continuous
 62
     7
370
    15
100
AcDbLine
 10
58.3287111984
 20
116.4639631291
 30
0.0
 11
58.2531809376
 21
116.7707482358
 31
0.0
  0
LINE
  5
219
330
1F
100
AcDbEntity
  8
0
  6
Continuous
 62
     7
370
    15
100
AcDbLine
 10
58.215028377
 20
116.9550569733
 30
0.0
 11
58.1719416694
 21
116.9709648942
 31
0.0
  0
LINE
  5
21A
330
1F
100
AcDbEntity
  8
0
  6
Continuous
 62
     7
370
    15
100
AcDbLine
 10
58.5624806152
 20
116.8364912277
 30
0.0
 11
58.2531809376
 21
116.7707482358
 31
0.0
  0
LINE
  5
21B
330
1F
100
AcDbEntity
  8
0
  6
Continuous
 62
     7
370
    15
100
AcDbLine
 10
58.6202505545
 20
117.041188479
 30
0.0
 11
58.215028377
 21
116.9550569733
 31
0.0
  0
LWPOLYLINE
  5
21C
330
1F
100
AcDbEntity
  8
0
  6
Continuous
 62
     7
370
    15
100
AcDbPolyline
 90
       23
 70
   128
 43
0.0
 10
58.6344457732
 20
104.1997915139
 10
58.7727415876
 20
104.2367110034
 10
58.8893003331
 20
104.3974591424
 10
58.9748814271
 20
104.6794766565
 10
59.0275737957
 20
105.0764603546
 10
59.0461965219
 20
105.5795421829
 10
59.0303360985
 20
106.1774848034
 10
58.980346428
 20
106.8569330504
 10
58.8973450975
 20
107.6027063658
 10
58.7831854389
 20
108.3981452515
 10
58.6404174135
 20
109.225483798
 10
58.4722298698
 20
110.0662389775
 10
58.2823797629
 20
110.9016288077
 10
58.0751101987
 20
111.7129933094
 10
57.8550479875
 20
112.4822080141
 10
57.6271105127
 20
113.1920890888
 10
57.3963921086
 20
113.8267798354
 10
57.1680411266
 20
114.3721017992
 10
56.9471630768
 20
114.8158732807
 10
56.7386902438
 20
115.1481812825
 10
56.547281103
 20
115.3616022324
 10
56.3772085623
 20
115.4513696214
 10
56.2478869722
 20
115.4262080794
  0
LWPOLYLINE
  5
21D
330
1F
100
AcDbEntity
  8
0
  6
Continuous
 62
     7
370
    15
100
AcDbPolyline
 90
       23
 70
   128
 43
0.0
 10
60.6245740817
 20
104.61125169
 10
60.6993164436
 20
104.6462172648
 10
60.8158751891
 20
104.8069654038
 10
60.9014562832
 20
105.0889829179
 10
60.9541467891
 20
105.4859666159
 10
60.972771378
 20
105.9890484443
 10
60.9569109545
 20
106.5869910648
 10
60.906921284
 20
107.2664393117
 10
60.8239199535
 20
108.0122126272
 10
60.709760295
 20
108.8076515128
 10
60.5669904069
 20
109.6349900594
 10
60.3988047258
 20
110.4757452389
 10
60.208954619
 20
111.3111350691
 10
60.0016831921
 20
112.1224995708
 10
59.7816228436
 20
112.8917142754
 10
59.5536853687
 20
113.6015953501
 10
59.322965102
 20
114.2362860968
 10
59.0946159826
 20
114.7816080605
 10
58.8737379329
 20
115.225379542
 10
58.6652650998
 20
115.5576875439
 10
58.4738540964
 20
115.7711084937
 10
58.3037834184
 20
115.8608758827
 10
58.2335896359
 20
115.8599492168
  0
LWPOLYLINE
  5
21E
330
1F
100
AcDbEntity
  8
0
  6
Continuous
 62
     7
370
    15
100
AcDbPolyline
 90
       28
 70
   128
 43
0.0
 10
55.7213525788
 20
107.440062054
 10
55.8685406612
 20
107.1606354793
 10
55.9999540017
 20
107.0028265943
 10
56.108508961
 20
106.9751458248
 10
56.188353108
 20
107.0790814241
 10
56.235180007
 20
107.309034281
 10
56.2464676366
 20
107.6526066294
 10
56.2216069118
 20
108.0912744632
 10
56.1619370745
 20
108.6013896396
 10
56.0706749128
 20
109.1554539283
 10
55.9527433978
 20
109.7235942265
 10
55.8144960122
 20
110.2751849224
 10
55.6633870618
 20
110.7804879551
 10
55.5075637565
 20
111.2122630706
 10
55.355426626
 20
111.5472337236
 10
55.2151768969
 20
111.7673397069
 10
55.0943769084
 20
111.8607159709
 10
54.9995366053
 20
111.822328717
 10
54.9357689486
 20
111.6542473441
 10
54.9065142439
 20
111.3655336206
 10
54.9133464263
 20
110.9717518096
 10
54.9559004174
 20
110.4941304778
 10
55.0318795757
 20
109.9584179004
 10
55.1371898071
 20
109.3934962531
 10
55.2661519067
 20
108.8298188528
 10
55.4118144826
 20
108.297774755
 10
55.566324623
 20
107.8260449698
 10
55.7213525788
 20
107.440062054
  0
SPLINE
  5
21F
330
1F
100
AcDbEntity
  8
0
  6
Continuous
 62
     7
370
    15
100
AcDbSpline
210
0.0
220
0.0
230
1.0
 70
     8
 71
     3
 72
     9
 73
     5
 74
     0
 42
0.00000001
 43
0.00000001
 12
1.0
 22
0.0
 32
0.0
 13
1.0
 23
0.0
 33
0.0
 40
0.0
 40
0.0
 40
0.0
 40
0.0
 40
0.5497675349414546
 40
1.0
 40
1.0
 40
1.0
 40
1.0
 10
55.15424977404015
 20
110.7883045455075
 30
0.0
 10
55.23950555451111
 20
110.8662082643277
 30
0.0
 10
55.39458160948414
 20
111.0079112821831
 30
0.0
 10
55.46641145425149
 20
111.1421036678484
 30
0.0
 10
55.49875158232587
 20
111.2025214364387
 30
0.0
  0
SPLINE
  5
220
330
1F
100
AcDbEntity
  8
0
  6
Continuous
 62
     7
370
    15
100
AcDbSpline
210
0.0
220
0.0
230
1.0
 70
     8
 71
     3
 72
    11
 73
     7
 74
     0
 42
0.00000001
 43
0.00000001
 12
1.0
 22
0.0
 32
0.0
 13
1.0
 23
0.0
 33
0.0
 40
0.0
 40
0.0
 40
0.0
 40
0.0
 40
0.2164529885325324
 40
0.4403053971313485
 40
0.7518957854766714
 40
1.0
 40
1.0
 40
1.0
 40
1.0
 10
55.57322758597272
 20
108.5407381882525
 30
0.0
 10
55.6143063254297
 20
108.7095288820518
 30
0.0
 10
55.69786807624166
 20
109.0528803597525
 30
0.0
 10
55.70784126253959
 20
109.6592110613653
 30
0.0
 10
55.52029694163343
 20
110.2674812801459
 30
0.0
 10
55.26667608989863
 20
110.628340895678
 30
0.0
 10
55.15424977404015
 20
110.7883045455075
 30
0.0
  0
SPLINE
  5
221
330
1F
100
AcDbEntity
  8
0
  6
Continuous
 62
     7
370
    15
100
AcDbSpline
210
0.0
220
0.0
230
1.0
 70
     8
 71
     3
 72
    11
 73
     7
 74
     0
 42
0.00000001
 43
0.00000001
 12
1.0
 22
0.0
 32
0.0
 13
1.0
 23
0.0
 33
0.0
 40
0.0
 40
0.0
 40
0.0
 40
0.0
 40
0.185633353912324
 40
0.5233276551112784
 40
0.8791085950202419
 40
1.0
 40
1.0
 40
1.0
 40
1.0
 10
56.17851089102166
 20
107.2080491115905
 30
0.0
 10
56.20347758726432
 20
107.2987305302737
 30
0.0
 10
56.27386236632032
 20
107.5543747515381
 30
0.0
 10
56.21161654415725
 20
107.9918083170048
 30
0.0
 10
55.8842730847938
 20
108.3334822545112
 30
0.0
 10
55.6361543069684
 20
108.4988088359016
 30
0.0
 10
55.57322758597272
 20
108.5407381882525
 30
0.0
  0
LINE
  5
222
330
1F
100
AcDbEntity
  8
0
  6
Continuous
 62
     7
370
    15
100
AcDbLine
 10
55.6271176354
 20
110.8888147404
 30
0.0
 11
55.154249774
 21
110.7883045455
 31
0.0
  0
LINE
  5
223
330
1F
100
AcDbEntity
  8
0
  6
Continuous
 62
     7
370
    15
100
AcDbLine
 10
56.1528920696
 20
108.6639503022
 30
0.0
 11
55.573227586
 21
108.5407381883
 31
0.0
  0
LWPOLYLINE
  5
224
330
1F
100
AcDbEntity
  8
0
  6
Continuous
 62
     7
370
    15
100
AcDbPolyline
 90
       27
 70
   128
 43
0.0
 10
60.3334594087
 20
104.5493727555
 10
60.4919611977
 20
104.4110005727
 10
60.656870486
 20
104.3636484077
 10
60.7956114725
 20
104.4414473703
 10
60.9052281396
 20
104.642735981
 10
60.9833828674
 20
104.9632282933
 10
61.0284104512
 20
105.3960921248
 10
61.0393497662
 20
105.9321017941
 10
61.0159717069
 20
106.5598336985
 10
60.9587698744
 20
107.2659065952
 10
60.8689661638
 20
108.0352740368
 10
60.7484735118
 20
108.8515372952
 10
60.5998605059
 20
109.6973001962
 10
60.4262936429
 20
110.55453606
 10
60.2314739988
 20
111.404973269
 10
60.019551547
 20
112.2304882859
 10
59.7950450645
 20
113.0134856334
 10
59.5627378241
 20
113.7372769421
 10
59.327584462
 20
114.3864357849
 10
59.0945917682
 20
114.9471273651
 10
58.8687292801
 20
115.40740002
 10
58.6548100726
 20
115.7574459916
 10
58.4573920385
 20
115.989802592
 10
58.2806847559
 20
116.0995179793
 10
58.1284526305
 20
116.0842554649
 10
58.0039422528
 20
115.9443382179
 10
57.9424749629
 20
115.7980702823
  0
LWPOLYLINE
  5
225
330
1F
100
AcDbEntity
  8
0
  6
Continuous
 62
     7
370
    15
100
AcDbPolyline
 90
       26
 70
   128
 43
0.0
 10
61.6152982728
 20
103.6560388287
 10
61.7381210939
 20
103.5974716773
 10
61.9017451571
 20
103.6126205703
 10
62.0381503866
 20
103.7508977582
 10
62.1448762284
 20
104.0098091593
 10
62.2199985699
 20
104.3846832594
 10
62.2621632682
 20
104.8687623819
 10
62.2706085013
 20
105.4533163091
 10
62.245183395
 20
106.127804332
 10
62.1863442974
 20
106.8800615152
 10
62.0951547788
 20
107.696522214
 10
61.9732576923
 20
108.5624640813
 10
61.8228528218
 20
109.4622707
 10
61.6466503159
 20
110.3797156369
 10
61.4478297101
 20
111.2982530152
 10
61.2299765961
 20
112.2013201942
 10
60.9970174299
 20
113.0726320674
 10
60.753154339
 20
113.8964734977
 10
60.5027850286
 20
114.6579898899
 10
60.2504245506
 20
115.3434488928
 10
60.000623347
 20
115.9404871991
 10
59.7578871564
 20
116.4383396512
 10
59.526593195
 20
116.8280282994
 10
59.3109119253
 20
117.1025263151
 10
59.1147325502
 20
117.2568813903
 10
59.1147325502
 20
117.2568813903
  0
SPLINE
  5
226
330
1F
100
AcDbEntity
  8
0
  6
Continuous
 62
     7
370
    15
100
AcDbSpline
210
0.0
220
0.0
230
1.0
 70
     8
 71
     3
 72
    14
 73
    10
 74
     0
 42
0.00000001
 43
0.00000001
 12
1.0
 22
0.0
 32
0.0
 13
1.0
 23
0.0
 33
0.0
 40
0.0
 40
0.0
 40
0.0
 40
0.0
 40
0.2005389859978021
 40
0.3319456087130648
 40
0.4644899131609124
 40
0.5773670363231531
 40
0.6857531259443839
 40
0.8613725633425455
 40
1.0
 40
1.0
 40
1.0
 40
1.0
 10
58.66552400750058
 20
116.9969310989238
 30
0.0
 10
58.58193039685891
 20
116.8662495763347
 30
0.0
 10
58.44356063383799
 20
116.6499367364768
 30
0.0
 10
58.34802541191109
 20
116.4741111214361
 30
0.0
 10
58.35035673175855
 20
116.4261540408908
 30
0.0
 10
58.44392620297775
 20
116.4950447593748
 30
0.0
 10
58.6156280477159
 20
116.664128262045
 30
0.0
 10
58.84933385958918
 20
116.924636808647
 30
0.0
 10
59.0334924813781
 20
117.1551794089517
 30
0.0
 10
59.11473255020516
 20
117.2568813902892
 30
0.0
  0
SPLINE
  5
227
330
1F
100
AcDbEntity
  8
0
  6
Continuous
 62
     7
370
    15
100
AcDbSpline
210
0.0
220
0.0
230
1.0
 70
    11
 71
     3
 72
    26
 73
    22
 74
     0
 42
0.00000001
 43
0.00000001
 12
1.0
 22
0.0
 32
0.0
 13
1.0
 23
0.0
 33
0.0
 40
0.0
 40
0.0
 40
0.0
 40
0.0
 40
0.045633098804402
 40
0.091146779020082
 40
0.1396866840264913
 40
0.1952352950540776
 40
0.2567871461758878
 40
0.3195025907936888
 40
0.3782720994522282
 40
0.4320414131316306
 40
0.4825627918747352
 40
0.5316193819603097
 40
0.5803376930901885
 40
0.6295798274898347
 40
0.6804008934632043
 40
0.7342117127070629
 40
0.7923207095831278
 40
0.8544916089718673
 40
0.9168150369453402
 40
0.9638628179250068
 40
1.0
 40
1.0
 40
1.0
 40
1.0
 10
65.96182170671361
 20
104.9855986615277
 30
0.0
 10
65.9594078086769
 20
105.0247794967503
 30
0.0
 10
65.95458632960376
 20
105.1030386337238
 30
0.0
 10
65.81781647868328
 20
105.1947861343526
 30
0.0
 10
65.59813934558473
 20
105.2563483622319
 30
0.0
 10
65.28652493129496
 20
105.2726580189387
 30
0.0
 10
64.90628977678
 20
105.2232448132676
 30
0.0
 10
64.51433922515879
 20
105.099857275389
 30
0.0
 10
64.18232501526303
 20
104.9256664606208
 30
0.0
 10
63.95321298848647
 20
104.7415567290565
 30
0.0
 10
63.83493728307027
 20
104.5779015380619
 30
0.0
 10
63.82356809676173
 20
104.4510714979214
 30
0.0
 10
63.91380958915388
 20
104.3695539294301
 30
0.0
 10
64.09767519162224
 20
104.3356754257664
 30
0.0
 10
64.36341968958726
 20
104.3468814980969
 30
0.0
 10
64.69603711762187
 20
104.39872432645
 30
0.0
 10
65.07287359931918
 20
104.4874199297946
 30
0.0
 10
65.45268007802586
 20
104.6089084537113
 30
0.0
 10
65.74871551931392
 20
104.7472586669964
 30
0.0
 10
65.91903672874322
 20
104.8787049985002
 30
0.0
 10
65.94886410745731
 20
104.9532254942561
 30
0.0
 10
65.96182170671361
 20
104.9855986615277
 30
0.0
  0
LWPOLYLINE
  5
228
330
1F
100
AcDbEntity
  8
0
  6
Continuous
 62
     7
370
    15
100
AcDbPolyline
 90
       24
 70
   128
 43
0.0
 10
66.2705998437
 20
104.5334247877
 10
66.3245942013
 20
104.5527273794
 10
66.4609984995
 20
104.6910045674
 10
66.5677252726
 20
104.9499141058
 10
66.6428476141
 20
105.3247900685
 10
66.6850123124
 20
105.808869191
 10
66.6934575455
 20
106.3934231182
 10
66.6680315079
 20
107.0679092785
 10
66.6091933416
 20
107.8201664617
 10
66.518003823
 20
108.6366271605
 10
66.3961076678
 20
109.5025699591
 10
66.245701866
 20
110.4023765778
 10
66.0695002915
 20
111.3198205834
 10
65.8706796856
 20
112.238358893
 10
65.6528247089
 20
113.141426072
 10
65.4198655428
 20
114.0127370139
 10
65.1760024519
 20
114.8365793755
 10
64.9256331415
 20
115.5980957677
 10
64.6732735948
 20
116.2835538393
 10
64.4234723912
 20
116.8805930769
 10
64.1807362006
 20
117.378445529
 10
63.9494422392
 20
117.7681341773
 10
63.7337609695
 20
118.0426312616
 10
63.5375815944
 20
118.1969872681
  0
LINE
  5
229
330
1F
100
AcDbEntity
  8
0
  6
Continuous
 62
     7
370
    15
100
AcDbLine
 10
59.1147325502
 20
117.2568813903
 30
0.0
 11
63.5375815944
 21
118.1969872681
 31
0.0
  0
LINE
  5
22A
330
1F
100
AcDbEntity
  8
0
  6
Continuous
 62
     7
370
    15
100
AcDbLine
 10
63.5375815944
 20
118.1969872681
 30
0.0
 11
64.056713836
 21
118.0256164638
 31
0.0
  0
ARC
  5
22B
330
1F
100
AcDbEntity
  8
0
  6
Continuous
 62
     7
370
    15
100
AcDbCircle
 10
-130.2530198253
 20
59.4636691096
 30
0.0
 40
210.4021558203751
100
AcDbArc
 50
12.9121523978
 51
15.9529018625
  0
SPLINE
  5
22C
330
1F
100
AcDbEntity
  8
0
  6
Continuous
 62
     7
370
    15
100
AcDbSpline
210
0.0
220
0.0
230
1.0
 70
     8
 71
     3
 72
    10
 73
     6
 74
     0
 42
0.00000001
 43
0.00000001
 12
1.0
 22
0.0
 32
0.0
 13
1.0
 23
0.0
 33
0.0
 40
0.0
 40
0.0
 40
0.0
 40
0.0
 40
0.4116165512921897
 40
0.8227990659550363
 40
1.0
 40
1.0
 40
1.0
 40
1.0
 10
76.3069910497679
 20
104.392662831173
 30
0.0
 10
76.02112277145422
 20
104.6127279577237
 30
0.0
 10
75.44968765388113
 20
105.0526261591121
 30
0.0
 10
75.00640196007053
 20
105.8381182418434
 30
0.0
 10
74.86996082777293
 20
106.3310265159521
 30
0.0
 10
74.82886943382161
 20
106.4794735988236
 30
0.0
  0
ARC
  5
22D
330
1F
100
AcDbEntity
  8
0
  6
Continuous
 62
     7
370
    15
100
AcDbCircle
 10
-147.7145514464
 20
55.26068584
 30
0.0
 40
229.3460325914174
100
AcDbArc
 50
10.7900664024
 51
12.3701463917
  0
SPLINE
  5
22E
330
1F
100
AcDbEntity
  8
0
  6
Continuous
 62
     7
370
    15
100
AcDbSpline
210
0.0
220
0.0
230
1.0
 70
     8
 71
     3
 72
    13
 73
     9
 74
     0
 42
0.00000001
 43
0.00000001
 12
1.0
 22
0.0
 32
0.0
 13
1.0
 23
0.0
 33
0.0
 40
0.0
 40
0.0
 40
0.0
 40
0.0
 40
0.1665845769204866
 40
0.3376950950789008
 40
0.5044009442582675
 40
0.6769076883099134
 40
0.8353099836279639
 40
0.9999999999999999
 40
0.9999999999999999
 40
0.9999999999999999
 40
0.9999999999999999
 10
73.792428014548
 20
99.7089056303359
 30
0.0
 10
73.9497168716017
 20
99.52716568076002
 30
0.0
 10
74.26856797126234
 20
99.15874808360779
 30
0.0
 10
74.84628840714126
 20
98.71752561114573
 30
0.0
 10
75.49232193338108
 20
98.3744095213907
 30
0.0
 10
76.17480360531584
 20
98.16934498377529
 30
0.0
 10
76.88370828000822
 20
98.09256927760826
 30
0.0
 10
77.34264546584275
 20
98.16160058255652
 30
0.0
 10
77.57657976237076
 20
98.19678794644842
 30
0.0
  0
SPLINE
  5
22F
330
1F
100
AcDbEntity
  8
0
  6
Continuous
 62
     7
370
    15
100
AcDbSpline
210
0.0
220
0.0
230
1.0
 70
     8
 71
     3
 72
    15
 73
    11
 74
     0
 42
0.00000001
 43
0.00000001
 12
1.0
 22
0.0
 32
0.0
 13
1.0
 23
0.0
 33
0.0
 40
0.0
 40
0.0
 40
0.0
 40
0.0
 40
0.1220877023073261
 40
0.24417802429808
 40
0.3704039485647092
 40
0.4966403986709104
 40
0.6208487046441478
 40
0.7450698004670817
 40
0.8725281745483568
 40
1.0
 40
1.0
 40
1.0
 40
1.0
 10
65.66136866223948
 20
115.9349691127993
 30
0.0
 10
65.83519255881099
 20
115.248685615393
 30
0.0
 10
66.18284408176108
 20
113.876103894728
 30
0.0
 10
66.89292522486123
 20
111.7784636370078
 30
0.0
 10
67.74087176539976
 20
109.6676740748726
 30
0.0
 10
68.72814749998237
 20
107.570707573572
 30
0.0
 10
69.82888539105876
 20
105.5262831359092
 30
0.0
 10
71.04123425202266
 20
103.5307144100362
 30
0.0
 10
72.35655973439836
 20
101.5784431509312
 30
0.0
 10
73.31378841846801
 20
100.332106724813
 30
0.0
 10
73.792428014548
 20
99.7089056303359
 30
0.0
  0
SPLINE
  5
230
330
1F
100
AcDbEntity
  8
0
  6
Continuous
 62
     7
370
    15
100
AcDbSpline
210
0.0
220
0.0
230
1.0
 70
     8
 71
     3
 72
    10
 73
     6
 74
     0
 42
0.00000001
 43
0.00000001
 12
1.0
 22
0.0
 32
0.0
 13
1.0
 23
0.0
 33
0.0
 40
0.0
 40
0.0
 40
0.0
 40
0.0
 40
0.3401615011171425
 40
0.6905236995040768
 40
1.0
 40
1.0
 40
1.0
 40
1.0
 10
64.94798581463235
 20
121.5987661392994
 30
0.0
 10
64.94345021622607
 20
121.9980345200299
 30
0.0
 10
64.93424300676617
 20
122.8085444644285
 30
0.0
 10
64.96626815254884
 20
123.8474232497285
 30
0.0
 10
65.00735962848239
 20
124.41709077436
 30
0.0
 10
65.02663228076833
 20
124.6842752419745
 30
0.0
  0
ARC
  5
231
330
1F
100
AcDbEntity
  8
0
  6
Continuous
 62
     7
370
    15
100
AcDbCircle
 10
92.3134725129
 20
122.168757064
 30
0.0
 40
27.3714221750945
100
AcDbArc
 50
181.1932312093
 51
193.1645260396
  0
SPLINE
  5
232
330
1F
100
AcDbEntity
  8
0
  6
Continuous
 62
     7
370
    15
100
AcDbSpline
210
0.0
220
0.0
230
1.0
 70
     8
 71
     3
 72
    13
 73
     9
 74
     0
 42
0.00000001
 43
0.00000001
 12
1.0
 22
0.0
 32
0.0
 13
1.0
 23
0.0
 33
0.0
 40
0.0
 40
0.0
 40
0.0
 40
0.0
 40
0.04977049379695
 40
0.2402951453154314
 40
0.4277587449158246
 40
0.6152419105894444
 40
0.8076107087736237
 40
1.0
 40
1.0
 40
1.0
 40
1.0
 10
66.42538472426074
 20
104.6325920154906
 30
0.0
 10
66.50342659761353
 20
104.4690755655805
 30
0.0
 10
66.88021778185423
 20
103.6796076279524
 30
0.0
 10
67.70498165103079
 20
102.3988907544053
 30
0.0
 10
68.88744835322407
 20
100.80511305863
 30
0.0
 10
70.21087979633646
 20
99.35689240659296
 30
0.0
 10
71.64977005218964
 20
98.02826058829184
 30
0.0
 10
72.70198660481348
 20
97.25873909192731
 30
0.0
 10
73.22812290278213
 20
96.87395785056124
 30
0.0
  0
LINE
  5
233
330
1F
100
AcDbEntity
  8
0
  6
Continuous
 62
     7
370
    15
100
AcDbLine
 10
66.9640961604
 20
104.84618526
 30
0.0
 11
66.8151637108
 21
104.9899032345
 31
0.0
  0
SPLINE
  5
234
330
1F
100
AcDbEntity
  8
0
  6
Continuous
 62
     7
370
    15
100
AcDbSpline
210
0.0
220
0.0
230
1.0
 70
     8
 71
     3
 72
    23
 73
    19
 74
     0
 42
0.00000001
 43
0.00000001
 12
1.0
 22
0.0
 32
0.0
 13
1.0
 23
0.0
 33
0.0
 40
0.0
 40
0.0
 40
0.0
 40
0.0
 40
0.0288113337490757
 40
0.0922485730116334
 40
0.1530256871329577
 40
0.2138144976443284
 40
0.2754905811706638
 40
0.337182639184731
 40
0.402353294765794
 40
0.4675353720735416
 40
0.5363911629694678
 40
0.6052501079010524
 40
0.6759133691419521
 40
0.746576633204941
 40
0.8174852647181364
 40
0.8883922951887112
 40
0.9441983254024577
 40
1.0
 40
1.0
 40
1.0
 40
1.0
 10
65.90679171842473
 20
114.3592970450974
 30
0.0
 10
65.94741382280816
 20
114.2346599118518
 30
0.0
 10
66.07747830349963
 20
113.8355948152371
 30
0.0
 10
66.31821158942122
 20
113.0828948263604
 30
0.0
 10
66.61839179807737
 20
112.1408993138891
 30
0.0
 10
66.91960999379575
 20
111.1806962230219
 30
0.0
 10
67.21334432174814
 20
110.2195434377956
 30
0.0
 10
67.4925656699687
 20
109.2608455877579
 30
0.0
 10
67.74065280664603
 20
108.3337789780111
 30
0.0
 10
67.9475075389217
 20
107.4435546449275
 30
0.0
 10
68.09068610067625
 20
106.6331488118643
 30
0.0
 10
68.15943770952912
 20
105.917835571589
 30
0.0
 10
68.13770790253788
 20
105.3373217191309
 30
0.0
 10
68.02559552292534
 20
104.9058445667294
 30
0.0
 10
67.82209068625178
 20
104.6463609036917
 30
0.0
 10
67.56006748967874
 20
104.5722159821314
 30
0.0
 10
67.26866488826478
 20
104.6389897031415
 30
0.0
 10
67.06561642825915
 20
104.7771218713304
 30
0.0
 10
66.96409616035359
 20
104.8461852600432
 30
0.0
  0
SPLINE
  5
235
330
1F
100
AcDbEntity
  8
0
  6
Continuous
 62
     7
370
    15
100
AcDbSpline
210
0.0
220
0.0
230
1.0
 70
     8
 71
     3
 72
    13
 73
     9
 74
     0
 42
0.00000001
 43
0.00000001
 12
1.0
 22
0.0
 32
0.0
 13
1.0
 23
0.0
 33
0.0
 40
0.0
 40
0.0
 40
0.0
 40
0.0
 40
0.0452129687098858
 40
0.2288343070952088
 40
0.4181406019371915
 40
0.6135086167008058
 40
0.8120465811025036
 40
1.0
 40
1.0
 40
1.0
 40
1.0
 10
64.39135293823617
 20
119.6527096448101
 30
0.0
 10
64.3943077946148
 20
119.6578240200261
 30
0.0
 10
64.40926307251989
 20
119.6837091707293
 30
0.0
 10
64.43108630488423
 20
119.5665290438295
 30
0.0
 10
64.45705363284074
 20
119.3034549259104
 30
0.0
 10
64.47867580474758
 20
118.8904552020794
 30
0.0
 10
64.49679153787477
 20
118.3932689752043
 30
0.0
 10
64.50180946896289
 20
118.0462767096504
 30
0.0
 10
64.5042497233762
 20
117.8775319834806
 30
0.0
  0
SPLINE
  5
236
330
1F
100
AcDbEntity
  8
0
  6
Continuous
 62
     7
370
    15
100
AcDbSpline
210
0.0
220
0.0
230
1.0
 70
     8
 71
     3
 72
    13
 73
     9
 74
     0
 42
0.00000001
 43
0.00000001
 12
1.0
 22
0.0
 32
0.0
 13
1.0
 23
0.0
 33
0.0
 40
0.0
 40
0.0
 40
0.0
 40
0.0
 40
0.16658458988862
 40
0.3376948921897323
 40
0.5044007812333771
 40
0.6769075091991219
 40
0.8353099685481052
 40
1.0
 40
1.0
 40
1.0
 40
1.0
 10
73.22812290278213
 20
96.87395785056124
 30
0.0
 10
73.4001205425711
 20
96.76611243797554
 30
0.0
 10
73.74878859442546
 20
96.54749170600604
 30
0.0
 10
74.36670195738829
 20
96.30818315697535
 30
0.0
 10
75.04776587334273
 20
96.14105817129031
 30
0.0
 10
75.75634197982572
 20
96.06708190129277
 30
0.0
 10
76.48242992303592
 20
96.07663281093122
 30
0.0
 10
76.94353742950794
 20
96.15656766672936
 30
0.0
 10
77.17857789595561
 20
96.19731288455496
 30
0.0
  0
LINE
  5
237
330
1F
100
AcDbEntity
  8
0
  6
Continuous
 62
     7
370
    15
100
AcDbLine
 10
77.5765797624
 20
98.1967879464
 30
0.0
 11
77.178577896
 21
96.1973128846
 31
0.0
  0
ARC
  5
238
330
1F
100
AcDbEntity
  8
0
  6
Continuous
 62
     7
370
    15
100
AcDbCircle
 10
73.2910474319
 20
122.1398693793
 30
0.0
 40
2.533940638849534
100
AcDbArc
 50
163.5964660563
 51
196.1966771975
  0
LINE
  5
239
330
1F
100
AcDbEntity
  8
0
  6
Continuous
 62
     7
370
    15
100
AcDbLine
 10
72.0461176277
 20
117.2920891089
 30
0.0
 11
70.857679242
 21
121.433063597
 31
0.0
  0
SPLINE
  5
23A
330
1F
100
AcDbEntity
  8
0
  6
Continuous
 62
     7
370
    15
100
AcDbSpline
210
0.0
220
0.0
230
1.0
 70
     8
 71
     3
 72
    12
 73
     8
 74
     0
 42
0.00000001
 43
0.00000001
 12
1.0
 22
0.0
 32
0.0
 13
1.0
 23
0.0
 33
0.0
 40
0.0
 40
0.0
 40
0.0
 40
0.0
 40
0.2041496421358823
 40
0.4150454782059096
 40
0.6835546303795516
 40
0.9596499659214561
 40
1.0
 40
1.0
 40
1.0
 40
1.0
 10
65.02663228076833
 20
124.6842752419745
 30
0.0
 10
65.0655002578707
 20
124.9271783187359
 30
0.0
 10
65.14452061751753
 20
125.4210112865401
 30
0.0
 10
65.48919603103248
 20
126.0306076972519
 30
0.0
 10
66.02457691269832
 20
126.4973983001117
 30
0.0
 10
66.51515946846078
 20
126.7592993476699
 30
0.0
 10
66.83847959209105
 20
126.7844458896095
 30
0.0
 10
66.87970622789996
 20
126.7876523319266
 30
0.0
  0
LINE
  5
23B
330
1F
100
AcDbEntity
  8
0
  6
Continuous
 62
     7
370
    15
100
AcDbLine
 10
64.0135265456
 20
119.5873862138
 30
0.0
 11
64.0931825654
 21
119.9701933195
 31
0.0
  0
LWPOLYLINE
  5
23C
330
1F
100
AcDbEntity
  8
0
  6
Continuous
 62
     7
370
    15
100
AcDbPolyline
 90
       10
 70
   128
 43
0.0
 10
71.4711376966
 20
123.8822949357
 10
71.2090467603
 20
124.6664080076
 10
70.9455737413
 20
125.3712592419
 10
70.6852308975
 20
125.9847724117
 10
70.4324811266
 20
126.4964361447
 10
70.191653216
 20
126.8974842509
 10
69.966873856
 20
127.1810454322
 10
69.7619931341
 20
127.3422615608
 10
69.5805230678
 20
127.3783705668
 10
69.5690119208
 20
127.3762334143
  0
SPLINE
  5
23D
330
1F
100
AcDbEntity
  8
0
  6
Continuous
 62
     7
370
    15
100
AcDbSpline
210
0.0
220
0.0
230
1.0
 70
     8
 71
     3
 72
    10
 73
     6
 74
     0
 42
0.00000001
 43
0.00000001
 12
1.0
 22
0.0
 32
0.0
 13
1.0
 23
0.0
 33
0.0
 40
0.0
 40
0.0
 40
0.0
 40
0.0
 40
0.1480667305989086
 40
0.9078075130489988
 40
1.0
 40
1.0
 40
1.0
 40
1.0
 10
71.47113769662516
 20
123.8822949356965
 30
0.0
 10
71.43009525697092
 20
123.8391838054347
 30
0.0
 10
71.17846118008359
 20
123.5748664413017
 30
0.0
 10
70.97415596106876
 20
123.2201116747961
 30
0.0
 10
70.87136995024372
 20
122.8910639093609
 30
0.0
 10
70.86024689835446
 20
122.8554558014132
 30
0.0
  0
LINE
  5
23E
330
1F
100
AcDbEntity
  8
0
  6
Continuous
 62
     7
370
    15
100
AcDbLine
 10
70.995520571
 20
121.4928950188
 30
0.0
 11
71.4711376966
 21
123.8822949357
 31
0.0
  0
SPLINE
  5
23F
330
1F
100
AcDbEntity
  8
0
  6
Continuous
 62
     7
370
    15
100
AcDbSpline
210
0.0
220
0.0
230
1.0
 70
     8
 71
     3
 72
     9
 73
     5
 74
     0
 42
0.00000001
 43
0.00000001
 12
1.0
 22
0.0
 32
0.0
 13
1.0
 23
0.0
 33
0.0
 40
0.0
 40
0.0
 40
0.0
 40
0.0
 40
0.6491196506812057
 40
0.9999999999999999
 40
0.9999999999999999
 40
0.9999999999999999
 40
0.9999999999999999
 10
70.99781069320576
 20
121.435127175004
 30
0.0
 10
70.99416416607416
 20
121.4442533576651
 30
0.0
 10
70.9885465158801
 20
121.4583126803979
 30
0.0
 10
70.9937091160454
 20
121.4839125334501
 30
0.0
 10
70.99552057099478
 20
121.4928950188316
 30
0.0
  0
SPLINE
  5
240
330
1F
100
AcDbEntity
  8
0
  6
Continuous
 62
     7
370
    15
100
AcDbSpline
210
0.0
220
0.0
230
1.0
 70
     8
 71
     3
 72
    10
 73
     6
 74
     0
 42
0.00000001
 43
0.00000001
 12
1.0
 22
0.0
 32
0.0
 13
1.0
 23
0.0
 33
0.0
 40
0.0
 40
0.0
 40
0.0
 40
0.0
 40
0.1169345380887932
 40
0.7028096841788761
 40
1.0
 40
1.0
 40
1.0
 40
1.0
 10
71.06366730642455
 20
120.7912365911163
 30
0.0
 10
71.07011796636341
 20
120.796265450153
 30
0.0
 10
71.10888825911412
 20
120.8264903168958
 30
0.0
 10
71.15912104524952
 20
120.8513256302439
 30
0.0
 10
71.19913512363034
 20
120.8667763566449
 30
0.0
 10
71.21260161858933
 20
120.8719762047387
 30
0.0
  0
LINE
  5
241
330
1F
100
AcDbEntity
  8
0
  6
Continuous
 62
     7
370
    15
100
AcDbLine
 10
75.8021122345
 20
104.8386359593
 30
0.0
 11
74.7889771627
 21
106.6525505861
 31
0.0
  0
LINE
  5
242
330
1F
100
AcDbEntity
  8
0
  6
Continuous
 62
     7
370
    15
100
AcDbLine
 10
80.3961590316
 20
90.5003493657
 30
0.0
 11
76.5580881887
 21
103.2333413144
 31
0.0
  0
LWPOLYLINE
  5
243
330
1F
100
AcDbEntity
  8
0
  6
Continuous
 62
     7
370
    15
100
AcDbPolyline
 90
        9
 70
   128
 43
0.0
 10
80.4102303844
 20
89.9695178499
 10
80.4393788893
 20
89.9311250081
 10
80.4617393549
 20
89.9310952058
 10
80.4750927235
 20
89.9694396188
 10
80.4781138175
 20
90.0423510005
 10
80.4705028166
 20
90.1425911119
 10
80.4530150379
 20
90.2602134278
 10
80.4273859647
 20
90.3835466137
 10
80.3961590316
 20
90.5003493657
  0
LINE
  5
244
330
1F
100
AcDbEntity
  8
0
  6
Continuous
 62
     7
370
    15
100
AcDbLine
 10
76.9503440277
 20
96.1640963336
 30
0.0
 11
80.4102303844
 21
89.9695178499
 31
0.0
  0
LWPOLYLINE
  5
245
330
1F
100
AcDbEntity
  8
0
  6
Continuous
 62
     7
370
    15
100
AcDbPolyline
 90
        9
 70
   128
 43
0.0
 10
80.4082677894
 20
89.9869298568
 10
80.435958869
 20
89.9504555395
 10
80.4572013111
 20
89.9504294624
 10
80.4698870123
 20
89.986855351
 10
80.4727570501
 20
90.0561196735
 10
80.4655266
 20
90.1513492694
 10
80.4489132095
 20
90.2630930772
 10
80.4245655925
 20
90.3802571823
 10
80.3948999999
 20
90.4912186792
  0
LINE
  5
246
330
1F
100
AcDbEntity
  8
0
  6
Continuous
 62
     7
370
    15
100
AcDbLine
 10
80.3948999999
 20
90.4912186792
 30
0.0
 11
76.5678726637
 21
103.1875723978
 31
0.0
  0
LINE
  5
247
330
1F
100
AcDbEntity
  8
0
  6
Continuous
 62
     7
370
    15
100
AcDbLine
 10
75.7867910468
 20
104.8521699389
 30
0.0
 11
74.7944454232
 21
106.6288633277
 31
0.0
  0
LINE
  5
248
330
1F
100
AcDbEntity
  8
0
  6
Continuous
 62
     7
370
    15
100
AcDbLine
 10
76.9575226621
 20
96.1651412775
 30
0.0
 11
80.4082677894
 21
89.9869298568
 31
0.0
  0
LINE
  5
249
330
1F
100
AcDbEntity
  8
0
  6
Continuous
 62
     7
370
    15
100
AcDbLine
 10
84.9814068095
 20
91.4749747147
 30
0.0
 11
81.011371836
 21
104.6457627793
 31
0.0
  0
ARC
  5
24A
330
1F
100
AcDbEntity
  8
0
  6
Continuous
 62
     7
370
    15
100
AcDbCircle
 10
84.0737350081
 20
91.0934012422
 30
0.0
 40
0.9846148556448694
100
AcDbArc
 50
348.7381310321
 51
22.8012542236
  0
LINE
  5
24B
330
1F
100
AcDbEntity
  8
0
  6
Continuous
 62
     7
370
    15
100
AcDbLine
 10
78.1002987677
 20
96.7729745438
 30
0.0
 11
77.4093959515
 21
99.0650786092
 31
0.0
  0
LWPOLYLINE
  5
24C
330
1F
100
AcDbEntity
  8
0
  6
Continuous
 62
     7
370
    15
100
AcDbPolyline
 90
        9
 70
   128
 43
0.0
 10
78.1354771496
 20
95.4458957543
 10
78.2083484845
 20
95.3499061992
 10
78.264249725
 20
95.349839144
 10
78.2976329827
 20
95.4457001766
 10
78.305185776
 20
95.6279767682
 10
78.2861581573
 20
95.8785770466
 10
78.2424388488
 20
96.172634699
 10
78.178366184
 20
96.4809676638
 10
78.1002987677
 20
96.7729745438
  0
LINE
  5
24D
330
1F
100
AcDbEntity
  8
0
  6
Continuous
 62
     7
370
    15
100
AcDbLine
 10
77.3197268171
 20
96.9064144423
 30
0.0
 11
78.1354771496
 21
95.4458957543
 31
0.0
  0
ARC
  5
24E
330
1F
100
AcDbEntity
  8
0
  6
Continuous
 62
     7
370
    15
100
AcDbCircle
 10
79.6415382967
 20
104.235190321
 30
0.0
 40
1.430039743897015
100
AcDbArc
 50
16.6847532699
 51
19.5604399557
  0
ARC
  5
24F
330
1F
100
AcDbEntity
  8
0
  6
Continuous
 62
     7
370
    15
100
AcDbCircle
 10
86.5383185074
 20
91.8623062012
 30
0.0
 40
1.23076023618592
100
AcDbArc
 50
348.7380421896
 51
22.8013579469
  0
LINE
  5
250
330
1F
100
AcDbEntity
  8
0
  6
Continuous
 62
     7
370
    15
100
AcDbLine
 10
84.8986317904
 20
91.7495844891
 30
0.0
 11
80.9907061956
 21
104.7143211593
 31
0.0
  0
LINE
  5
251
330
1F
100
AcDbEntity
  8
0
  6
Continuous
 62
     7
370
    15
100
AcDbLine
 10
87.6728997135
 20
92.3392718663
 30
0.0
 11
83.7649737985
 21
105.3040103992
 31
0.0
  0
ARC
  5
252
330
1F
100
AcDbEntity
  8
0
  6
Continuous
 62
     7
370
    15
100
AcDbCircle
 10
87.3988070067
 20
92.0542566676
 30
0.0
 40
0.5831240071129192
100
AcDbArc
 50
352.7984287113
 51
21.0546788998
  0
LINE
  5
253
330
1F
100
AcDbEntity
  8
0
  6
Continuous
 62
     7
370
    15
100
AcDbLine
 10
83.8106458576
 20
105.3137185057
 30
0.0
 11
84.0475112235
 21
105.1872262736
 31
0.0
  0
LINE
  5
254
330
1F
100
AcDbEntity
  8
0
  6
Continuous
 62
     7
370
    15
100
AcDbLine
 10
84.7031229676
 20
103.0122006317
 30
0.0
 11
87.9430004896
 21
92.2637490561
 31
0.0
  0
LINE
  5
255
330
1F
100
AcDbEntity
  8
0
  6
Continuous
 62
     7
370
    15
100
AcDbLine
 10
83.9592216105
 20
105.3452996542
 30
0.0
 11
84.0475112235
 21
105.1872262736
 31
0.0
  0
LINE
  5
256
330
1F
100
AcDbEntity
  8
0
  6
Continuous
 62
     7
370
    15
100
AcDbLine
 10
87.9078337492
 20
92.3804139724
 30
0.0
 11
93.6651162372
 21
93.6041606595
 31
0.0
  0
LINE
  5
257
330
1F
100
AcDbEntity
  8
0
  6
Continuous
 62
     7
370
    15
100
AcDbLine
 10
106.0252103524
 20
105.4011380305
 30
0.0
 11
106.0252103524
 21
104.6847870579
 31
0.0
  0
ARC
  5
258
330
1F
100
AcDbEntity
  8
0
  6
Continuous
 62
     7
370
    15
100
AcDbCircle
 10
78.5252108292
 20
122.9262226751
 30
0.0
 40
33.00000000000001
100
AcDbArc
 50
297.3087345369
 51
326.4426902381
  0
LINE
  5
259
330
1F
100
AcDbEntity
  8
0
  6
Continuous
 62
     7
370
    15
100
AcDbLine
 10
92.9351092817
 20
93.2386016478
 30
0.0
 11
87.9638956429
 21
92.1819379558
 31
0.0
  0
ARC
  5
25A
330
1F
100
AcDbEntity
  8
0
  6
Continuous
 62
     7
370
    15
100
AcDbCircle
 10
78.5252108292
 20
122.9262226751
 30
0.0
 40
33.00000000000001
100
AcDbArc
 50
295.8911983142
 51
297.3087345369
  0
ARC
  5
25B
330
1F
100
AcDbEntity
  8
0
  6
Continuous
 62
     7
370
    15
100
AcDbCircle
 10
209.0089704383
 20
138.0458312312
 30
0.0
 40
129.1483603782654
100
AcDbArc
 50
194.6568843849
 51
195.7396480602
  0
LINE
  5
25C
330
1F
100
AcDbEntity
  8
0
  6
Continuous
 62
     7
370
    15
100
AcDbLine
 10
106.0252103524
 20
116.9223852461
 30
0.0
 11
106.0252103524
 21
105.4011380305
 31
0.0
  0
LINE
  5
25D
330
1F
100
AcDbEntity
  8
0
  6
Continuous
 62
     7
370
    15
100
AcDbLine
 10
76.703784758
 20
103.8031095644
 30
0.0
 11
84.0632999351
 21
105.3674222907
 31
0.0
  0
ARC
  5
25E
330
1F
100
AcDbEntity
  8
0
  6
Continuous
 62
     7
370
    15
100
AcDbCircle
 10
217.293244352
 20
140.5277032443
 30
0.0
 40
145.3068887902334
100
AcDbArc
 50
191.9824768525
 51
194.6396009174
  0
SPLINE
  5
25F
330
1F
100
AcDbEntity
  8
0
  6
Continuous
 62
     7
370
    15
100
AcDbSpline
210
0.0
220
0.0
230
1.0
 70
     8
 71
     3
 72
    38
 73
    34
 74
     0
 42
0.00000001
 43
0.00000001
 12
1.0
 22
0.0
 32
0.0
 13
1.0
 23
0.0
 33
0.0
 40
0.0
 40
0.0
 40
0.0
 40
0.0
 40
0.0625
 40
0.0625
 40
0.1250000000000001
 40
0.1250000000000001
 40
0.1875000000000001
 40
0.1875000000000001
 40
0.2500000000000002
 40
0.2500000000000002
 40
0.3125000000000002
 40
0.3125000000000002
 40
0.3750000000000002
 40
0.3750000000000002
 40
0.4375000000000003
 40
0.4375000000000003
 40
0.5000000000000003
 40
0.5000000000000003
 40
0.5312500000000001
 40
0.5312500000000001
 40
0.5624999999999999
 40
0.5624999999999999
 40
0.625
 40
0.625
 40
0.6875
 40
0.6875
 40
0.75
 40
0.75
 40
0.8125000000000001
 40
0.8125000000000001
 40
0.8750000000000001
 40
0.8750000000000001
 40
1.0
 40
1.0
 40
1.0
 40
1.0
 10
91.61596648365551
 20
113.8596061448284
 30
0.0
 10
91.63947355770459
 20
113.6224330677101
 30
0.0
 10
91.68830319050423
 20
113.3923593780442
 30
0.0
 10
91.83072692536948
 20
112.944768292227
 30
0.0
 10
91.9257071220102
 20
112.7251374106659
 30
0.0
 10
92.15345742244183
 20
112.3111726209086
 30
0.0
 10
92.28562460101493
 20
112.1166529400498
 30
0.0
 10
92.58511994148321
 20
111.7515745726882
 30
0.0
 10
92.75303410352878
 20
111.5811873151441
 30
0.0
 10
93.1115668613374
 20
111.2777389735805
 30
0.0
 10
93.30356202855401
 20
111.1427418572368
 30
0.0
 10
93.7148438998559
 20
110.9087208627689
 30
0.0
 10
93.93153757039663
 20
110.8117128512836
 30
0.0
 10
94.37445352747419
 20
110.66590888128
 30
0.0
 10
94.60252215774926
 20
110.6158827861432
 30
0.0
 10
95.07423660153566
 20
110.5703328160262
 30
0.0
 10
95.30768604181816
 20
110.5759018178329
 30
0.0
 10
95.65339203665788
 20
110.6301226383403
 30
0.0
 10
95.76877429338393
 20
110.656235420785
 30
0.0
 10
95.99181860536521
 20
110.7233830406452
 30
0.0
 10
96.09984659821156
 20
110.7643362090678
 30
0.0
 10
96.4135516741292
 20
110.9091846492353
 30
0.0
 10
96.61149364876128
 20
111.0375809712323
 30
0.0
 10
96.95914121834444
 20
111.3402973036258
 30
0.0
 10
97.11213596677482
 20
111.5164964475529
 30
0.0
 10
97.36880503693051
 20
111.9032695821685
 30
0.0
 10
97.4713209335112
 20
112.1107297764032
 30
0.0
 10
97.62958510961445
 20
112.5517232749618
 30
0.0
 10
97.68312238846866
 20
112.779734351595
 30
0.0
 10
97.74325491254157
 20
113.244046491067
 30
0.0
 10
97.7496017720428
 20
113.4828811124817
 30
0.0
 10
97.70081475155202
 20
114.1865603459911
 30
0.0
 10
97.57842403792816
 20
114.6532766155773
 30
0.0
 10
97.37332557150638
 20
115.0833705968416
 30
0.0
  0
ARC
  5
260
330
1F
100
AcDbEntity
  8
0
  6
Continuous
 62
     7
370
    15
100
AcDbCircle
 10
80.5252108292
 20
124.9262226751
 30
0.0
 40
25.00000000000001
100
AcDbArc
 50
130.3421887739
 51
131.8920686177
  0
SPLINE
  5
261
330
1F
100
AcDbEntity
  8
0
  6
Continuous
 62
     7
370
    15
100
AcDbSpline
210
0.0
220
0.0
230
1.0
 70
     8
 71
     3
 72
    12
 73
     8
 74
     0
 42
0.00000001
 43
0.00000001
 12
1.0
 22
0.0
 32
0.0
 13
1.0
 23
0.0
 33
0.0
 40
0.0
 40
0.0
 40
0.0
 40
0.0
 40
0.2499999999999964
 40
0.2499999999999964
 40
0.4999999999999929
 40
0.4999999999999929
 40
1.0
 40
1.0
 40
1.0
 40
1.0
 10
64.35645981673932
 20
144.644779688632
 30
0.0
 10
64.36684957839762
 20
144.5609236881842
 30
0.0
 10
64.37488784475262
 20
144.4798093219912
 30
0.0
 10
64.38511933753138
 20
144.331374953971
 30
0.0
 10
64.38735998113279
 20
144.2644805432537
 30
0.0
 10
64.38473025985414
 20
144.0876155997568
 30
0.0
 10
64.37024089996726
 20
144.0054882611298
 30
0.0
 10
64.34143127951658
 20
143.9810194330333
 30
0.0
  0
ARC
  5
262
330
1F
100
AcDbEntity
  8
0
  6
Continuous
 62
     7
370
    15
100
AcDbCircle
 10
80.5252108292
 20
124.9262226751
 30
0.0
 40
25.5
100
AcDbArc
 50
127.032596101
 51
129.3509434285
  0
LINE
  5
263
330
1F
100
AcDbEntity
  8
0
  6
Continuous
 62
     7
370
    15
100
AcDbLine
 10
65.1673439459
 20
145.2826933941
 30
0.0
 11
71.9039270223
 21
125.6431613705
 31
0.0
  0
LINE
  5
264
330
1F
100
AcDbEntity
  8
0
  6
Continuous
 62
     7
370
    15
100
AcDbLine
 10
71.9039270223
 20
125.6431613705
 30
0.0
 11
75.1524267287
 21
110.360172764
 31
0.0
  0
ARC
  5
265
330
1F
100
AcDbEntity
  8
0
  6
Continuous
 62
     7
370
    15
100
AcDbCircle
 10
62.6952339101
 20
120.0842294105
 30
0.0
 40
8.520006730956199
100
AcDbArc
 50
0.7075916039
 51
11.3454234763
  0
LINE
  5
266
330
1F
100
AcDbEntity
  8
0
  6
Continuous
 62
     7
370
    15
100
AcDbLine
 10
74.5571150945
 20
107.6465046038
 30
0.0
 11
76.703784758
 21
103.8031095644
 31
0.0
  0
LINE
  5
267
330
1F
100
AcDbEntity
  8
0
  6
Continuous
 62
     7
370
    15
100
AcDbLine
 10
71.9039270223
 20
125.6431613705
 30
0.0
 11
104.8299397842
 21
132.6418013317
 31
0.0
  0
ARC
  5
268
330
1F
100
AcDbEntity
  8
0
  6
Continuous
 62
     7
370
    15
100
AcDbCircle
 10
80.5252108292
 20
124.9262226751
 30
0.0
 40
25.5
100
AcDbArc
 50
0.0
 51
17.6121319451
  0
LINE
  5
269
330
1F
100
AcDbEntity
  8
0
  6
Continuous
 62
     7
370
    15
100
AcDbLine
 10
106.0252103524
 20
124.9262226751
 30
0.0
 11
106.0252103524
 21
116.9223852461
 31
0.0
  0
ELLIPSE
  5
26A
330
1F
100
AcDbEntity
  8
0
  6
Continuous
 62
     7
370
    15
100
AcDbEllipse
 10
94.6599287077
 20
113.8829707619
 30
0.0
 11
-1.766955724716894
 21
2.780546072841034
 31
0.0
210
0.0
220
0.0
230
1.0
 40
0.8986930702
 41
4.577770209202145
 42
7.342385267552004
  0
ARC
  5
26B
330
1F
100
AcDbEntity
  8
0
  6
Continuous
 62
     7
370
    15
100
AcDbCircle
 10
80.5252108292
 20
124.9262226751
 30
0.0
 40
25.49999999999999
100
AcDbArc
 50
17.6121319451
 51
127.032596101
  0
LWPOLYLINE
  5
26C
330
1F
100
AcDbEntity
  8
0
  6
Continuous
 62
     7
370
    15
100
AcDbPolyline
 90
        3
 70
   128
 43
0.0
 10
71.0635443718
 20
120.7847364252
 10
71.1439277546
 20
120.5934138974
 10
71.2095114903
 20
120.4604601493
  0
SPLINE
  5
26D
330
1F
100
AcDbEntity
  8
0
  6
Continuous
 62
     7
370
    15
100
AcDbSpline
210
0.0
220
0.0
230
1.0
 70
     8
 71
     3
 72
    12
 73
     8
 74
     0
 42
0.00000001
 43
0.00000001
 12
1.0
 22
0.0
 32
0.0
 13
1.0
 23
0.0
 33
0.0
 40
0.0
 40
0.0
 40
0.0
 40
0.0
 40
0.2499999999999997
 40
0.2499999999999997
 40
0.4999999999999994
 40
0.4999999999999994
 40
1.0
 40
1.0
 40
1.0
 40
1.0
 10
63.8319729550387
 20
143.536322332963
 30
0.0
 10
63.78550579687048
 20
143.4946413458163
 30
0.0
 10
63.70079221771291
 20
143.4185192954093
 30
0.0
 10
63.46322406741034
 20
143.1995558042416
 30
0.0
 10
63.31624974868947
 20
143.062015978155
 30
0.0
 10
62.80890340920286
 20
142.5714433370799
 30
0.0
 10
62.40366127833563
 20
142.1593780291446
 30
0.0
 10
61.99415055948354
 20
141.7071584439768
 30
0.0
  0
ARC
  5
26E
330
1F
100
AcDbEntity
  8
0
  6
Continuous
 62
     7
370
    15
100
AcDbCircle
 10
80.5252108292
 20
124.9262226751
 30
0.0
 40
25.0
100
AcDbArc
 50
137.8373577162
 51
201.7493669828
  0
ARC
  5
26F
330
1F
100
AcDbEntity
  8
0
  6
Continuous
 62
     7
370
    15
100
AcDbCircle
 10
80.5252108292
 20
124.9262226751
 30
0.0
 40
25.0
100
AcDbArc
 50
234.7919816954
 51
236.1666241376
  0
CIRCLE
  5
270
330
1F
100
AcDbEntity
  8
VERMASSUNG
  6
CENTERX2
100
AcDbCircle
 10
80.5252108292
 20
122.4262328451
 30
0.0
 40
32.50000000000001
  0
DIMENSION
  5
271
330
1F
100
AcDbEntity
  8
VERMASSUNG
100
AcDbDimension
  2
_D_5
 10
96.6717860186
 20
94.2206948799
 30
0.0
 11
102.0799520261
 21
84.8534765792
 31
0.0
 70
   160
  1
%%c<> min. 
 71
     2
 42
-1.0
  3
SLDDIMSTYLE3
100
AcDbAlignedDimension
 13
64.2752108292
 23
150.5720584681
 33
0.0
 14
96.7752108292
 24
94.2804072221
 34
0.0
 50
-60.0
100
AcDbRotatedDimension
  0
INSERT
  5
28B
330
1F
100
AcDbEntity
  8
VERMASSUNG
100
AcDbBlockReference
  2
SW_CENTERMARKSYMBOL_0
 10
80.5252108292
 20
124.9262226751
 30
0.0
  0
OLE2FRAME
  5
28C
330
1F
100
AcDbEntity
  8
0
100
AcDbOle2Frame
 70
     2
  3
Paintbrush-Bild
 10
13.8511154363
 20
38.264191557
 30
0.0
 11
51.6290888628
 21
31.9806341108
 31
0.0
 71
     2
 72
     0
 73
     1
 90
    12928
310
80552BED0767C5B32B40DDAF6807D121434000000000000000006FFBDDFB85D0
310
4940DDAF6807D121434000000000000000006FFBDDFB85D04940416F4BD60AFB
310
3F4000000000000000002BED0767C5B32B40416F4BD60AFB3F40000000000000
310
0000000000000100000000010000010000000100000000000100000000320000
310
D0CF11E0A1B11AE1000000000000000000000000000000003E000300FEFF0900
310
0600000000000000000000000100000001000000000000000010000002000000
310
01000000FEFFFFFF0000000000000000FFFFFFFFFFFFFFFFFFFFFFFFFFFFFFFF
310
FFFFFFFFFFFFFFFFFFFFFFFFFFFFFFFFFFFFFFFFFFFFFFFFFFFFFFFFFFFFFFFF
310
FFFFFFFFFFFFFFFFFFFFFFFFFFFFFFFFFFFFFFFFFFFFFFFFFFFFFFFFFFFFFFFF
310
FFFFFFFFFFFFFFFFFFFFFFFFFFFFFFFFFFFFFFFFFFFFFFFFFFFFFFFFFFFFFFFF
310
FFFFFFFFFFFFFFFFFFFFFFFFFFFFFFFFFFFFFFFFFFFFFFFFFFFFFFFFFFFFFFFF
310
FFFFFFFFFFFFFFFFFFFFFFFFFFFFFFFFFFFFFFFFFFFFFFFFFFFFFFFFFFFFFFFF
310
FFFFFFFFFFFFFFFFFFFFFFFFFFFFFFFFFFFFFFFFFFFFFFFFFFFFFFFFFFFFFFFF
310
FFFFFFFFFFFFFFFFFFFFFFFFFFFFFFFFFFFFFFFFFFFFFFFFFFFFFFFFFFFFFFFF
310
FFFFFFFFFFFFFFFFFFFFFFFFFFFFFFFFFFFFFFFFFFFFFFFFFFFFFFFFFFFFFFFF
310
FFFFFFFFFFFFFFFFFFFFFFFFFFFFFFFFFFFFFFFFFFFFFFFFFFFFFFFFFFFFFFFF
310
FFFFFFFFFFFFFFFFFFFFFFFFFFFFFFFFFFFFFFFFFFFFFFFFFFFFFFFFFFFFFFFF
310
FFFFFFFFFFFFFFFFFFFFFFFFFFFFFFFFFFFFFFFFFFFFFFFFFFFFFFFFFFFFFFFF
310
FFFFFFFFFFFFFFFFFFFFFFFFFFFFFFFFFFFFFFFFFFFFFFFFFFFFFFFFFFFFFFFF
310
FFFFFFFFFFFFFFFFFFFFFFFFFFFFFFFFFFFFFFFFFFFFFFFFFFFFFFFFFFFFFFFF
310
FDFFFFFFFEFFFFFFFEFFFFFFFEFFFFFF05000000060000000700000008000000
310
090000000A0000000B0000000C0000000D0000000E0000000F00000010000000
310
11000000120000001300000014000000150000001600000017000000FEFFFFFF
310
FFFFFFFFFFFFFFFFFFFFFFFFFFFFFFFFFFFFFFFFFFFFFFFFFFFFFFFFFFFFFFFF
310
FFFFFFFFFFFFFFFFFFFFFFFFFFFFFFFFFFFFFFFFFFFFFFFFFFFFFFFFFFFFFFFF
310
FFFFFFFFFFFFFFFFFFFFFFFFFFFFFFFFFFFFFFFFFFFFFFFFFFFFFFFFFFFFFFFF
310
FFFFFFFFFFFFFFFFFFFFFFFFFFFFFFFFFFFFFFFFFFFFFFFFFFFFFFFFFFFFFFFF
310
FFFFFFFFFFFFFFFFFFFFFFFFFFFFFFFFFFFFFFFFFFFFFFFFFFFFFFFFFFFFFFFF
310
FFFFFFFFFFFFFFFFFFFFFFFFFFFFFFFFFFFFFFFFFFFFFFFFFFFFFFFFFFFFFFFF
310
FFFFFFFFFFFFFFFFFFFFFFFFFFFFFFFFFFFFFFFFFFFFFFFFFFFFFFFFFFFFFFFF
310
FFFFFFFFFFFFFFFFFFFFFFFFFFFFFFFFFFFFFFFFFFFFFFFFFFFFFFFFFFFFFFFF
310
FFFFFFFFFFFFFFFFFFFFFFFFFFFFFFFFFFFFFFFFFFFFFFFFFFFFFFFFFFFFFFFF
310
FFFFFFFFFFFFFFFFFFFFFFFFFFFFFFFFFFFFFFFFFFFFFFFFFFFFFFFFFFFFFFFF
310
FFFFFFFFFFFFFFFFFFFFFFFFFFFFFFFFFFFFFFFFFFFFFFFFFFFFFFFFFFFFFFFF
310
FFFFFFFFFFFFFFFFFFFFFFFFFFFFFFFFFFFFFFFFFFFFFFFFFFFFFFFFFFFFFFFF
310
FFFFFFFFFFFFFFFFFFFFFFFFFFFFFFFFFFFFFFFFFFFFFFFFFFFFFFFFFFFFFFFF
310
52006F006F007400200045006E00740072007900000000000000000000000000
310
0000000000000000000000000000000000000000000000000000000000000000
310
16000500FFFFFFFFFFFFFFFF020000000A00030000000000C000000000000046
310
000000000000000000000000A09C63C29939CD0103000000C000000000000000
310
01004F006C006500000000000000000000000000000000000000000000000000
310
0000000000000000000000000000000000000000000000000000000000000000
310
0A000200FFFFFFFFFFFFFFFFFFFFFFFF00000000000000000000000000000000
310
0000000000000000000000000000000000000000000000001400000000000000
310
010043006F006D0070004F0062006A0000000000000000000000000000000000
310
0000000000000000000000000000000000000000000000000000000000000000
310
120002010100000003000000FFFFFFFF00000000000000000000000000000000
310
0000000000000000000000000000000000000000010000004D00000000000000
310
01004F006C006500310030004E00610074006900760065000000000000000000
310
0000000000000000000000000000000000000000000000000000000000000000
310
1A000200FFFFFFFFFFFFFFFFFFFFFFFF00000000000000000000000000000000
310
0000000000000000000000000000000000000000040000002426000000000000
310
FEFFFFFF02000000FEFFFFFFFFFFFFFFFFFFFFFFFFFFFFFFFFFFFFFFFFFFFFFF
310
FFFFFFFFFFFFFFFFFFFFFFFFFFFFFFFFFFFFFFFFFFFFFFFFFFFFFFFFFFFFFFFF
310
FFFFFFFFFFFFFFFFFFFFFFFFFFFFFFFFFFFFFFFFFFFFFFFFFFFFFFFFFFFFFFFF
310
FFFFFFFFFFFFFFFFFFFFFFFFFFFFFFFFFFFFFFFFFFFFFFFFFFFFFFFFFFFFFFFF
310
FFFFFFFFFFFFFFFFFFFFFFFFFFFFFFFFFFFFFFFFFFFFFFFFFFFFFFFFFFFFFFFF
310
FFFFFFFFFFFFFFFFFFFFFFFFFFFFFFFFFFFFFFFFFFFFFFFFFFFFFFFFFFFFFFFF
310
FFFFFFFFFFFFFFFFFFFFFFFFFFFFFFFFFFFFFFFFFFFFFFFFFFFFFFFFFFFFFFFF
310
FFFFFFFFFFFFFFFFFFFFFFFFFFFFFFFFFFFFFFFFFFFFFFFFFFFFFFFFFFFFFFFF
310
FFFFFFFFFFFFFFFFFFFFFFFFFFFFFFFFFFFFFFFFFFFFFFFFFFFFFFFFFFFFFFFF
310
FFFFFFFFFFFFFFFFFFFFFFFFFFFFFFFFFFFFFFFFFFFFFFFFFFFFFFFFFFFFFFFF
310
FFFFFFFFFFFFFFFFFFFFFFFFFFFFFFFFFFFFFFFFFFFFFFFFFFFFFFFFFFFFFFFF
310
FFFFFFFFFFFFFFFFFFFFFFFFFFFFFFFFFFFFFFFFFFFFFFFFFFFFFFFFFFFFFFFF
310
FFFFFFFFFFFFFFFFFFFFFFFFFFFFFFFFFFFFFFFFFFFFFFFFFFFFFFFFFFFFFFFF
310
FFFFFFFFFFFFFFFFFFFFFFFFFFFFFFFFFFFFFFFFFFFFFFFFFFFFFFFFFFFFFFFF
310
FFFFFFFFFFFFFFFFFFFFFFFFFFFFFFFFFFFFFFFFFFFFFFFFFFFFFFFFFFFFFFFF
310
FFFFFFFFFFFFFFFFFFFFFFFFFFFFFFFFFFFFFFFFFFFFFFFFFFFFFFFFFFFFFFFF
310
0100000200000000000000000000000000000000000000000000000000000000
310
0000000000000000000000000000000000000000000000000000000000000000
310
0100FEFF030A0000FFFFFFFF0A00030000000000C00000000000004607000000
310
5042727573680007000000504272757368000700000050427275736800F439B2
310
7100000000000000000000000000000000000000000000000000000000000000
310
0000000000000000000000000000000000000000000000000000000000000000
310
0000000000000000000000000000000000000000000000000000000000000000
310
0000000000000000000000000000000000000000000000000000000000000000
310
0000000000000000000000000000000000000000000000000000000000000000
310
0000000000000000000000000000000000000000000000000000000000000000
310
0000000000000000000000000000000000000000000000000000000000000000
310
0000000000000000000000000000000000000000000000000000000000000000
310
0000000000000000000000000000000000000000000000000000000000000000
310
0000000000000000000000000000000000000000000000000000000000000000
310
0000000000000000000000000000000000000000000000000000000000000000
310
0000000000000000000000000000000000000000000000000000000000000000
310
20260000424D0E260000000000003E00000028000000B40200006E0000000100
310
01000000000000000000130B0000130B00000200000002000000000000FFFFFF
310
FFFFFFFFFFFFFFFFFFFFFFFFFFFFFFFFFFFFFFFFFFFFFFFFFFFFFFFFFFFFFFFF
310
FFFFFFFFFFFFFFFFFFFFFFFFFFFFFFFFFFFFFFFFFFFFFFFFFFFFFFFFFFFFFFFF
310
FFFFFFFFFFFFFFFFFFFFFFFFFFFFFFFFFFFFFFFFFFFFFFFFF000FFFFFFFFFFFF
310
FFFFFFFFFFFFFFFFFFFFFFFFFFFFFFFFFFFFFFFFFFFFFFFFFFFFFFFFFFFFFFFF
310
FFFFFFFFFFFFFFFFFFFFFFFFFFFFFFFFFFFFFFFFFFFFFFFFFFFFFFFFFFFFFFFF
310
FFFFFFFFFFFFFFFFFFFFFFFFFFFFFFFFF000FFFFFFFFFFFFFFFFFFFFFFFFFFFF
310
FFFFFFFFFFFFFFFFFFFFFFFFFFFFFFFFFFFFFFFFFFFFFFFFFFFFFFFFFFFFFFFF
310
FFFFFFFFFFFFFFFFFFFFFFFFFFFFFFFFFFFFFFFFFFFFFFFFFFFFFFFFFFFFFFFF
310
FFFFFFFFFFFFFFFFF000FFFFFFFFFFFFFFFFFFFFFFFFFFFFFFFFFFFFFFFFFFFF
310
FFFFFFFFFFFFFFFFFFFFFFFFFFFFFFFFFFFFFFFFFFFFFFFFFFFFFFFFFFFFFFFF
310
FFFFFFFFFFFFFFFFFFFFFFFFFFFFFFFFFFFFFFFFFFFFFFFFFFFFFFFFFFFFFFFF
310
F000FFFFFFFFFFFFFFFFFFFFFFFFFFFFFFFFFFFFFFFFFFFFFFFFFFFFFFFFFFFF
310
FFFFFFFFFFFFFFFFFFFFFFFFFFFFFFFFFFFFFFFFFFFFFFFFFFFFFFFFFFFFFFFF
310
FFFFFFFFFFFFFFFFFFFFFFFFFFFFFFFFFFFFFFFFFFFFFFFFF000FFFFFFFFFFFF
310
FFFFFFFFFFFFFFFFFFFFFFFFFFFFFFFFFFFFFFFFFFFFFFFFFFFFFFFFFFFFFFFF
310
FFFFFFFFFFFFFFFFFFFFFFFFFFFFFFFFFFFFFFFFFFFFFFFFFFFFFFFFFFFFFFFF
310
FFFFFFFFFFFFFFFFFFFFFFFFFFFFFFFFF000FFFFFFFFFFFFFFFFFFFFFFFFFFFF
310
FFFFFFFFFFFFFFFFFFFFFFFFFFFFFFFFFFFFFFFFFFFFFFFFFFFFFFFFFFFFFFFF
310
FFFFFFFFFFFFFFFFFFFFFFFFFFFFFFFFFFFFFFFFFFFFFFFFFFFFFFFFFFFFFFFF
310
FFFFFFFFFFFFFFFFF000FFFFFFFFFFFFFFFFFFFFFFFFFFFFFFFFFFFFFFFFFFFF
310
FFFFFFFFFFFFFFFFFFFFFFFFFFFFFFFFFFFFFFFFFFFFFFFFFFFFFFFFFFFFFFFF
310
FFFFFFFFFFFFFFFFFFFFFFFFFFFFFFFFFFFFFFFFFFFFFFFFFFFFFFFFFFFFFFFF
310
F000FFFFFFFFFFFFFFFFFFFFFFFFFFFFFFFFFFFFFFFFFFFFFFFFFFFFFFFFFFFF
310
FFFFFFFFFFFFFFFFFFFFFFFFFFFFFFFFFFFFFFFFFFFFFFFFFFFFFFFFFFFFFFFF
310
FFFFFFFFFFFFFFFFFFFFFFFFFFFFFFFFFFFFFFFFFFFFFFFFF000FFFFFFFFFFFF
310
FFFFFFFFFFFFFFFFFFFFFFFFFFFFFFFFFFFFFFFFFFFFFFFFFFFFFFFFFFFFFFFF
310
FFFFFFFFFFFFFFFFFFFFFFFFFFFFFFFFFFFFFFFFFFFFFFFFFFFFFFFFFFFFFFFF
310
FFFFFFFFFFFFFFFFFFFFFFFFFFFFFFFFF000FFFFFFFFFFFFFFFFFFFFFFFFFFFF
310
FFFFFFFFFFFFFFFFFFFFFFFFFFFFFFFFFFFFFFFFFFFFFFFFFFFFFFFFFFFFFFFF
310
FFFFFFFFFFFFFFFFFFFFFFFFFFFFFFFFFFFFFFFFFFFFFFFFFFFFFFFFFFFFFFFF
310
FFFFFFFFFFFFFFFFF000FFFFFFFFFFFFFFFFFFFFFFFFFFFFFFFFFFFFFFFFFFFF
310
FFFFFFFFFFFFFFFFFFFFFFFFFFFFFFFFFFFFFFFFFFFFFFFFFFFFFFFFFFFFFFFF
310
FFFFFFFFFFFFFFFFFFFFFFFFFFFFFFFFFFFFFFFFFFFFFFFFFFFFFFFFFFFFFFFF
310
F000FFFFFFFFFFFFFFFFFFFFFFFFFFFFFFFFFFFFFFFFFFFFFFFFFFFFFFFFFFFF
310
FFFFFFFFFFFFFFFFFFFFFFFFFFFFFFFFFFFFFFFFFFFFFFFFFFFFFFFFFFFFFFFF
310
FFFFFFFFFFFFFFFFFFFFFFFFFFFFFFFFFFFFFFFFFFFFFFFFF000FFFFFFFFFFFF
310
FFFFFFFFFFFFFFFFFFFFFFFFFFFFFFFFFFFFFFFFFFFFFFFFFFFFFFFFFFFFFFFF
310
FFFFFFFFFFFFFFFFFFFFFFFFFFFFFFFFFFFFFFFFFFFFFFFFFFFFFFFFFFFFFFFF
310
FFFFFFFFFFFFFFFFFFFFFFFFFFFFFFFFF000FFFFFFFFFFFFFFFFFFFFFFFFFFFF
310
FFFFFFFFFFFFFFFFFFFFFFFFFFFFFFFFFFFFFFFFFFFFFFFFFFFFFFFFFFFFFFFF
310
FFFFFFFFFFFFFFFFFFFFFFFFFFFFFFFFFFFFFFFFFFFFFFFFFFFFFFFFFFFFFFFF
310
FFFFFFFFFFFFFFFFF000FFFFFFFFFFFFFFFFFFFFFFFFFFFFFFFFFFFFFFFFFFFF
310
FFFFFFFFFFFFFFFFFFFFFFFFFFFFFFFFFFFFFFFFFFFFFFFFFFFFFFFFFFFFFFFF
310
FFFFFFFFFFFFFFFFFFFFFFFFFFFFFFFFFFFFFFFFFFFFFFFFFFFFFFFFFFFFFFFF
310
F000FFFFFFFFFFFFFFFFFFFFFFFFFFFFFFFFFFFFFFFFFFFFFFFFFFFFFFFFFFFF
310
FFFFFFFFFFFFFFFFFFFFFFFFFFFFFFFFFFFFFFFFFFFFFFFFFFFFFFFFFFFFFFFF
310
FFFFFFFFFFFFFFFFFFFFFFFFFFFFFFFFFFFFFFFFFFFFFFFFF000FFFFFFFFFFFF
310
FFFFFFFFFFFFFFFFFFFFFFFFFFFFFFFFFFFFFFFFFFFFFFFFFFFFFFFFFFFFFFFF
310
FFFFFFFFFFFFFFFFFFFFFFFFFFFFFFFFFFFFFFFFFFFFFFFFFFFFFFFFFFFFFFFF
310
FFFFFFFFFFFFFFFFFFFFFFFFFFFFFFFFF000FFFFFFFFFFFFFFFFFFFFFFFFFFFF
310
FFFFFFFFFFFFFFFFFFFFFFFFFFFFFFFFFFFFFFFFFFFFFFFFFFFFFFFFFFFFFFFF
310
FFFFFFFFFFFFFFFFFFFFFFFFFFFFFFFFFFFFFFFFFFFFFFFFFFFFFFFFFFFFFFFF
310
FFFFFFFFFFFFFFFFF000FFFFF80003FFFFFFFFFFFFFFFFFFFFFFFFFFFFFFFFFF
310
FFFFF00007FFFFFFFFFF00007FFFFFF800000000000000007FFFFFFFFFFFFFFF
310
FFFFFFFC001FFFFFFFFFFFFFFC001FFFFFFFFFFFFFFFFFFFFFFFFFFE0007FFFF
310
F000FFFF8000007FFFFFFFF8000FFFFFC0007FFFFF80007FFFFF0000007FFFFF
310
FFF8000007FFFFF800000000000000007FFFFFF0001FFFFFFFFFFFC00001FFFF
310
FFFFFFFFC00001FFFFFFFF000000000003FFFFE000007FFFF000FFFE0000000F
310
FFFFFFF0000FFFFF80007FFFFF80007FFFFC0000001FFFFFFFC0000001FFFFF8
310
00000000000000007FFFFFF0001FFFFFFFFFFE0000003FFFFFFFFFFE0000003F
310
FFFFFF000000000003FFFF0000000FFFF000FFF800000003FFFFFFF00007FFFF
310
80007FFFFF80007FFFF000000007FFFFFF000000003FFFF80000000000000000
310
7FFFFFF0001FFFFFFFFFF80000000FFFFFFFFFF80000000FFFFFFF0000000000
310
03FFFC00000003FFF000FFE000000000FFFFFFF00007FFFF80003FFFFF80007F
310
FFC000000001FFFFFC000000001FFFF800000000000000007FFFFFF0001FFFFF
310
FFFFE000000003FFFFFFFFE000000003FFFFFF000000000003FFF000000000FF
310
F000FF80000000007FFFFFF00007FFFF80003FFFFF80007FFF8000000000FFFF
310
F80000000007FFF800000000000000007FFFFFF0001FFFFFFFFFC000000001FF
310
FFFFFFC000000001FFFFFF000000000003FFC0000000007FF000FF0000000000
310
3FFFFFE00007FFFF00003FFFFF80007FFE00000000003FFFF00000000003FFF8
310
00000000000000007FFFFFF0001FFFFFFFFF8000000000FFFFFFFF8000000000
310
FFFFFF000000000003FF80000000003FF000FE00000000001FFFFFE00003FFFF
310
00003FFFFF80007FFC00000000001FFFE00000000001FFF8000001FFFE000000
310
7FFFFFF0001FFFFFFFFE00000000003FFFFFFE00000000003FFFFF0000000000
310
03FF00000000001FF000FC00000000000FFFFFE00003FFFF00001FFFFF80007F
310
F800000000001FFFC00000000000FFF8000001FFFE0000007FFFFFF0001FFFFF
310
FFFC00000000001FFFFFFC00000000001FFFFF000000000003FE00000000000F
310
F000F8000000000007FFFFE00003FFFF00001FFFFF80007FF800000000000FFF
310
800000000000FFF8000001FFFE0000007FFFFFF0001FFFFFFFF800000000000F
310
FFFFF800000000000FFFFF000000000003FC000000000007F000F80000000000
310
03FFFFC00003FFFE00001FFFFF80007FF0000000000007FF0000000000007FF8
310
000001FFFE0000007FFFFFF0001FFFFFFFF0000000000007FFFFF00000000000
310
07FFFF000000000003F8000000000003F000F0000000000003FFFFC00001FFFE
310
00001FFFFF80007FE0000000000007FE0000000000003FF8000001FFFE000000
310
7FFFFFF0001FFFFFFFF0000000000007FFFFF0000000000007FFFF0000000000
310
03F800001F800003F000E00001FFF00001FFFFC00001FFFE00000FFFFF80007F
310
E00001FFE00003FE00001FFF00003FF8000001FFFE0000007FFFFFF0001FFFFF
310
FFE000003E000003FFFFE000003E000003FFFF000000000003F00001FFF80001
310
F000E00007FFFC0001FFFFC00001FFFE00000FFFFF80007FC0000FFFFC0003FC
310
0000FFFFC0001FF8000001FFFE0000007FFFFFF0001FFFFFFFC00003FFE00001
310
FFFFC00003FFE00001FFFF0001FFFFFFFFF00007FFFE0001F000E0000FFFFF00
310
00FFFF800001FFFC00000FFFFF80007FC0001FFFFE0001FC0001FFFFE0001FF8
310
000001FFFE0000007FFFFFF0001FFFFFFF80000FFFF80000FFFF80000FFFF800
310
00FFFF0003FFFFFFFFE0000FFFFF8000F000C0003FFFFF8000FFFF800000FFFC
310
000007FFFF80007F80003FFFFF0001FC0003FFFFF0001FF8000001FFFE000000
310
7FFFFFF0001FFFFFFF80003FFFFE0000FFFF80003FFFFE0000FFFF0003FFFFFF
310
FFE0003FFFFF8000F000C0003FFFFF8000FFFF800000FFFC000007FFFF80007F
310
80007FFFFF8001F80007FFFFF8000FF8000001FFFE0000007FFFFFF0001FFFFF
310
FF00007FFFFF00007FFF00007FFFFF00007FFF0003FFFFFFFFE0003FFFFFC000
310
F000C0007FFFFFC000FFFF000000FFFC000007FFFF80007F8000FFFFFF8000F8
310
000FFFFFF8000FF8000001FFFE0000007FFFFFF0001FFFFFFF0000FFFFFF8000
310
7FFF0000FFFFFF80007FFF0003FFFFFFFFC0007FFFFFC00070008000FFFFFFC0
310
00FFFF000000FFF8000007FFFF80007F8000FFFFFF8000F8000FFFFFF8000FF8
310
000001FFFE0000007FFFFFF0001FFFFFFE0001FFFFFFC0003FFE0001FFFFFFC0
310
003FFF0003FFFFFFFFC0007FFFFFE00070008000FFFFFFC0007FFF0000007FF8
310
000003FFFF80007F0001FFFFFF8000F8000FFFFFF8000FF8000001FFFE000000
310
7FFFFFF0001FFFFFFE0001FFFFFFC0003FFE0001FFFFFFC0003FFF0003FFFFFF
310
FFC000FFFFFFE00070008000FFFFFFC0007FFF0000007FF8000003FFFF80007F
310
0001FFFFFF8000F8001FFFFFF8000FF8000001FFFE0000007FFFFFF0001FFFFF
310
FE0003FFFFFFE0003FFE0003FFFFFFE0003FFF0003FFFFFFFFC000FFFFFFE000
310
70008000FFFFFFC0007FFE0000007FF8000003FFFF80007F0001FFFFFF8000F0
310
001FFFFFF8000FF8000001FFFE0000007FFFFFF0001FFFFFFC0003FFFFFFE000
310
1FFC0003FFFFFFE0001FFF0003FFFFFFFFC000FFFFFFC00070008000FFFFFF80
310
007FFE0000007FF0000003FFFF80007F0001FFFFFF0000F0001FFFFFF8000FF8
310
000001FFFE0000007FFFFFF0001FFFFFFC0007FFFFFFF0001FFC0007FFFFFFF0
310
001FFF0003FFFFFFFFC000FFFFFFC00070008001FFFFFF0000FFFE0000003FF0
310
000001FFFF80007F0001FFFFFF0000F8001FFFFFF0000FF8000001FFFE000000
310
7FFFFFF0001FFFFFFC0007FFFFFFF0001FFC0007FFFFFFF0001FFF0003FFFFFF
310
FFC001FFFFFF80007000FFFFFFFFFE0000FFFE0008003FF0008001FFFF80007F
310
FFFFFFFFFC0000FFFFFFFFFFE0000FF8000001FFFE0000007FFFFFF0001FFFFF
310
F8000FFFFFFFF8000FF8000FFFFFFFF8000FFF0003FFFFFFFFFFFFFFFFFF0000
310
7000FFFFFFFFFC0000FFFC0008003FF0008001FFFF80007FFFFFFFFFF80001FF
310
FFFFFFFF80000FF8000001FFFE0000007FFFFFF0001FFFFFF8000FFFFFFFF800
310
0FF8000FFFFFFFF8000FFF0003FFFFFFFFFFFFFFFFFE0000F000FFFFFFFFE000
310
00FFFC000C003FE000C001FFFF80007FFFFFFFFFC00001FFFFFFFFFE00001FF8
310
000001FFFE0000007FFFFFF0001FFFFFF8000FFFFFFFF8000FF8000FFFFFFFF8
310
000FFF0003FFFFFFFFFFFFFFFFF00000F000FFFFFFFE000001FFFC000C001FE0
310
00C000FFFF80007FFFFFFFFE000001FFFFFFFFE000001FF80FFFFFFFFFFFFFC0
310
7FFFFFF0001FFFFFF8000FFFFFFFF8000FF8000FFFFFFFF8000FFF0003FFFFFF
310
FFFFFFFFFF800000F000FFFFFFC0000001FFFC001C001FE001C000FFFF80007F
310
FFFFFF80000003FFFFFFF80000001FF80FFFFFFFFFFFFFC07FFFFFF0001FFFFF
310
F8001FFFFFFFFC000FF8001FFFFFFFFC000FFF0003FFFFFFFFFFFFFFF0000001
310
F000FFFFF800000001FFF8001C001FE001C000FFFF80007FFFFFF800000003FF
310
FFFF800000003FF80FFFFFFFFFFFFFC07FFFFFF0001FFFFFF8001FFFFFFFFC00
310
0FF8001FFFFFFFFC000FFF0003FFFFFFFFFFFFFE00000001F000FFFFC0000000
310
03FFF8001E001FC001E000FFFF80007FFFFF8000000007FFFFFC000000003FF8
310
0FFFFFFFFFFFFFC07FFFFFF0001FFFFFF8001FFFFFFFFC000FF8001FFFFFFFFC
310
000FFF0003FFFFFFFFFFFFE000000003F000FFFE0000000007FFF8001E000FC0
310
01E0007FFF80007FFFFE0000000007FFFFE0000000007FF80FFFFFFFFFFFFFC0
310
7FFFFFF0001FFFFFF0001FFFFFFFFC0007F0001FFFFFFFFC0007FF0003FFFFFF
310
FFFFFF0000000003F000FFF80000000007FFF8001E000FC003E0007FFF80007F
310
FFF0000000000FFFFF8000000000FFF80FFFFFFFFFFFFFC07FFFFFF0001FFFFF
310
F0001FFFFFFFFC0007F0001FFFFFFFFC0007FF0003FFFFFFFFFFFC0000000007
310
F000FFE0000000000FFFF0003E000FC003E0007FFF80007FFFC0000000001FFF
310
FE0000000001FFF80FFFFFFFFFFFFFC07FFFFFF0001FFFFFF0001FFFFFFFFC00
310
07F0001FFFFFFFFC0007FF0003FFFFFFFFFFF0000000000FF000FFC000000000
310
1FFFF0003F000F8003F0003FFF80007FFF80000000003FFFF80000000003FFF8
310
0FFFFFFFFFFFFFC07FFFFFF0001FFFFFF0001FFFFFFFFC0007F0001FFFFFFFFC
310
0007FF0003FFFFFFFFFFE0000000001FF000FF00000000007FFFF0003F000780
310
03F0003FFF80007FFF00000000007FFFF00000000007FFF80FFFFFFFFFFFFFC0
310
7FFFFFF0001FFFFFF0001FFFFFFFFC0007F0001FFFFFFFFC0007FF0003FFFFFF
310
FFFF80000000007FF000FE0000000000FFFFE0003F00078007F0003FFF80007F
310
FE0000000001FFFFE0000000001FFFF80FFFFFFFFFFFFFC07FFFFFF0001FFFFF
310
F0001FFFFFFFFC0007F0001FFFFFFFFC0007FF0003FFFFFFFFFF0000000000FF
310
F000FC0000000003FFFFE0007F00078007F0003FFF80007FFC0000000007FFFF
310
C0000000007FFFF80FFFFFFFFFFFFFC07FFFFFF0001FFFFFF8001FFFFFFFFC00
310
0FF8001FFFFFFFFC000FFF0003FFFFFFFFFE0000000003FFF000FC000000000F
310
FFFFE0007F80070007F8001FFF80007FF8000000001FFFFF8000000001FFFFF8
310
0FFFFFFFFFFFFFC07FFFFFF0001FFFFFF8001FFFFFFFFC000FF8001FFFFFFFFC
310
000FFF0003FFFFFFFFFC000000000FFFF000F8000000007FFFFFE0007F800700
310
07F8001FFF80007FF000000000FFFFFF800000000FFFFFF80FFFFFFFFFFFFFC0
310
7FFFFFF0001FFFFFF8000FFFFFFFF8000FF8000FFFFFFFF8000FFF0003FFFFFF
310
FFFC000000007FFFF000F800000007FFFFFFC0007F8003000FF8001FFF80007F
310
F000000007FFFFFF000000007FFFFFF80FFFFFFFFFFFFFC07FFFFFF0001FFFFF
310
F8000FFFFFFFF8000FF8000FFFFFFFF8000FFF0003FFFFFFFFF80000000FFFFF
310
F000F0000000FFFFFFFFC000FF8003000FF8001FFF80007FE0000000FFFFFFFF
310
0000000FFFFFFFF8000001FFFE0000007FFFFFF0001FFFFFF8000FFFFFFFF800
310
0FF8000FFFFFFFF8000FFF0003FFFFFFFFF8000000FFFFFFF000F000000FFFFF
310
FFFFC000FFC002000FF8000FFF80007FE000001FFFFFFFFE000001FFFFFFFFF8
310
000001FFFE0000007FFFFFF0001FFFFFF8000FFFFFFFF8000FF8000FFFFFFFF8
310
000FFF0003FFFFFFFFF000001FFFFFFFF000E00000FFFFFFFFFFC000FFC00200
310
0FFC000FFF80007FE00001FFFFFFFFFE00001FFFFFFFFFF8000001FFFE000000
310
7FFFFFF0001FFFFFFC000FFFFFFFF8001FFC000FFFFFFFF8001FFF0003FFFFFF
310
FFF00001FFFFFFFFF000E00007FFFFFFFFFF8000FFC000001FFC000FFF80007F
310
C0000FFFFFFFFFFE0000FFFFFFFFFFF8000001FFFE0000007FFFFFF0001FFFFF
310
FC0007FFFFFFF0001FFC0007FFFFFFF0001FFF0003FFFFFFFFF00007FFFFFFFF
310
F000E0001FFFFFFFFFFF8000FFC000001FFC000FFF80007FC0003FFFFFFFFFFE
310
0001FFFFFFFFFFF8000001FFFE0000007FFFFFF0001FFFFFFC0007FFFFFFF000
310
1FFC0007FFFFFFF0001FFF0003FFFFFFFFF0001FFFFFFFFFF000E0003FFFFF00
310
03FF8001FFE000001FFC0007FF80007FC0007FFFFF0007FC0003FFFFF0003FF8
310
000001FFFE0000007FFFFFF0001FFFFFFC0003FFFFFFE0001FFC0003FFFFFFE0
310
001FFF0003FFFFFFFFF0003FFFFFFFFFF000E0003FFFFF0001FF8001FFE00000
310
1FFE0007FF80007FC0007FFFFE0003FC0007FFFFE0003FF8000001FFFE000000
310
7FFFFFF0001FFFFFFE0003FFFFFFE0003FFE0003FFFFFFE0003FFF0003FFFFFF
310
FFF0003FFFFF8001F000E0003FFFFF0001FF0001FFE000001FFE0007FF80007F
310
C0007FFFFE0003FC0007FFFFE0003FF8000001FFFE0000007FFFFFF0001FFFFF
310
FE0001FFFFFFC0003FFE0001FFFFFFC0003FFF0003FFFFFFFFF0003FFFFF0001
310
F000E0003FFFFF0003FF0001FFE000003FFE0007FF80007FC0007FFFFE0003FC
310
0007FFFFE0003FF8000001FFFE0000007FFFFFF0001FFFFFFF0001FFFFFFC000
310
7FFF0001FFFFFFC0007FFF0003FFFFFFFFF0003FFFFF0001F000E0003FFFFE00
310
03FF0003FFF000003FFE0003FF80007FC0007FFFFC0003FE0007FFFFE0003FF8
310
000001FFFE0000007FFFFFF0001FFFFFFF0000FFFFFF80007FFF0000FFFFFF80
310
007FFF0003FFFFFFFFF0003FFFFF0001F000E0003FFFFE0003FF0003FFF00000
310
3FFF0003FF80007FC0007FFFFC0007FE0007FFFFC0003FF8000001FFFE000000
310
7FFFFFF0001FFFFFFF80007FFFFF0000FFFF80007FFFFF0000FFFF0003FFFFFF
310
FFF0003FFFFF0003F000E0003FFFFC0003FE0003FFF000003FFF0003FF80007F
310
E0003FFFF80007FE0003FFFFC0007FF8000001FFFE0000007FFFFFF0001FFFFF
310
FF80003FFFFE0000FFFF80003FFFFE0000FFFF0003FFFFFFFFF0001FFFFE0003
310
F000F0001FFFF80003FE0003FFF000007FFF0001FF80007FE0003FFFF00007FE
310
0001FFFF80007FF8000001FFFE0000007FFFFFF0001FFFFFFFC0000FFFF80001
310
FFFFC0000FFFF80001FFFF0003FFFFFFFFF0001FFFFC0003F000F0000FFFF000
310
07FE0007FFF800007FFF0001FF80007FE0001FFFE00007FF0000FFFE00007FF8
310
000001FFFE0000007FFFFFF0001FFFFFFFC00003FFE00001FFFFC00003FFE000
310
01FFFF0003FFFFFFFFF8000FFFF80003F000F00003FFC00007FC0007FFF80000
310
7FFF8001FF80007FF00007FF80000FFF00007FF80000FFF8000001FFFE000000
310
7F80000000000001FFE000003E000003FFFFE000003E000003FFFF0003FFFFFF
310
FFF80003FFE00007F000F800000000000FFC0007FFF800007FFF8001FF80007F
310
F000000000000FFF000000000000FFF8000001FFFE0000007F80000000000001
310
FFF0000000000007FFFFF0000000000007FFFF0003FFFFFFFFFC00007E000007
310
F000F800000000000FFC0007FFF80000FFFF8000FF80007FF800000000001FFF
310
800000000001FFF8000001FFFE0000007F80000000000001FFF800000000000F
310
FFFFF800000000000FFFFF0003FFFFFFFFFC00000000000FF000FC0000000000
310
1FFC0007FFFC0000FFFF8000FF80007FF800000000003FFFC00000000001FFF8
310
000001FFFE0000007F80000000000001FFF800000000000FFFFFF80000000000
310
0FFFFF0003FFFFFFFFFE00000000001FF000FE00000000003FF8000FFFFC0000
310
FFFF8000FF80007FFC00000000003FFFC00000000003FFF8000001FFFE000000
310
7F80000000000001FFFC00000000001FFFFFFC00000000001FFFFF0003FFFFFF
310
FFFF00000000001FF000FF00000000003FF8000FFFFC0000FFFFC000FF80007F
310
FE00000000007FFFE00000000007FFF8000001FFFE0000007F80000000000001
310
FFFE00000000003FFFFFFE00000000003FFFFF0003FFFFFFFFFF80000000003F
310
F000FF80000000007FF8000FFFFC0001FFFFC0007F80007FFF0000000000FFFF
310
F0000000000FFFF800000000000000007F80000000000001FFFF8000000000FF
310
FFFFFF8000000000FFFFFF0003FFFFFFFFFFC0000000007FF000FFC000000000
310
FFF8000FFFFE0001FFFFC0007F80007FFF8000000001FFFFF8000000001FFFF8
310
00000000000000007F80000000000001FFFFC000000001FFFFFFFFC000000001
310
FFFFFF0003FFFFFFFFFFE000000000FFF000FFE000000003FFF0001FFFFE0001
310
FFFFC0007F80007FFFC000000007FFFFFE000000003FFFF80000000000000000
310
7F80000000000001FFFFE000000003FFFFFFFFE000000003FFFFFF0003FFFFFF
310
FFFFF000000003FFF000FFF80000000FFFF0001FFFFE0001FFFFE0007F80007F
310
FFF00000000FFFFFFF00000000FFFFF800000000000000007F80000000000001
310
FFFFF80000000FFFFFFFFFF80000000FFFFFFF0003FFFFFFFFFFFC0000000FFF
310
F000FFFE0000003FFFF0001FFFFE0003FFFFE0003F80007FFFFC0000003FFFFF
310
FFC0000003FFFFF800000000000000007F80000000000001FFFFFE0000003FFF
310
FFFFFFFE0000003FFFFFFF0003FFFFFFFFFFFF0000003FFFF000FFFF800000FF
310
FFF0001FFFFF0003FFFFE0003F80007FFFFF000001FFFFFFFFF800001FFFFFF8
310
00000000000000007F80000000000001FFFFFFC00001FFFFFFFFFFFFC00001FF
310
FFFFFF0003FFFFFFFFFFFFC00000FFFFF000FFFFF8000FFFFFFFFFFFFFFFFFFF
310
FFFFFFFFFFFFFFFFFFFFF0001FFFFFFFFFFF0000FFFFFFF80000000000000000
310
7FFFFFFFFFFFFFFFFFFFFFFC001FFFFFFFFFFFFFFC001FFFFFFFFFFFFFFFFFFF
310
FFFFFFFC001FFFFFF000FFFFFFFFFFFFFFFFFFFFFFFFFFFFFFFFFFFFFFFFFFFF
310
FFFFFFFFFFFFFFFFFFFFFFFFFFFFFFFFFFFFFFFFFFFFFFFFFFFFFFFFFFFFFFFF
310
FFFFFFFFFFFFFFFFFFFFFFFFFFFFFFFFFFFFFFFFFFFFFFFFFFFFFFFFFFFFFFFF
310
F000FFFFFFFFFFFFFFFFFFFFFFFFFFFFFFFFFFFFFFFFFFFFFFFFFFFFFFFFFFFF
310
FFFFFFFFFFFFFFFFFFFFFFFFFFFFFFFFFFFFFFFFFFFFFFFFFFFFFFFFFFFFFFFF
310
FFFFFFFFFFFFFFFFFFFFFFFFFFFFFFFFFFFFFFFFFFFFFFFFF000FFFFFFFFFFFF
310
FFFFFFFFFFFFFFFFFFFFFFFFFFFFFFFFFFFFFFFFFFFFFFFFFFFFFFFFFFFFFFFF
310
FFFFFFFFFFFFFFFFFFFFFFFFFFFFFFFFFFFFFFFFFFFFFFFFFFFFFFFFFFFFFFFF
310
FFFFFFFFFFFFFFFFFFFFFFFFFFFFFFFFF000FFFFFFFFFFFFFFFFFFFFFFFFFFFF
310
FFFFFFFFFFFFFFFFFFFFFFFFFFFFFFFFFFFFFFFFFFFFFFFFFFFFFFFFFFFFFFFF
310
FFFFFFFFFFFFFFFFFFFFFFFFFFFFFFFFFFFFFFFFFFFFFFFFFFFFFFFFFFFFFFFF
310
FFFFFFFFFFFFFFFFF000FFFFFFFFFFFFFFFFFFFFFFFFFFFFFFFFFFFFFFFFFFFF
310
FFFFFFFFFFFFFFFFFFFFFFFFFFFFFFFFFFFFFFFFFFFFFFFFFFFFFFFFFFFFFFFF
310
FFFFFFFFFFFFFFFFFFFFFFFFFFFFFFFFFFFFFFFFFFFFFFFFFFFFFFFFFFFFFFFF
310
F000FFFFFFFFFFFFFFFFFFFFFFFFFFFFFFFFFFFFFFFFFFFFFFFFFFFFFFFFFFFF
310
FFFFFFFFFFFFFFFFFFFFFFFFFFFFFFFFFFFFFFFFFFFFFFFFFFFFFFFFFFFFFFFF
310
FFFFFFFFFFFFFFFFFFFFFFFFFFFFFFFFFFFFFFFFFFFFFFFFF000FFFFFFFFFFFF
310
FFFFFFFFFFFFFFFFFFFFFFFFFFFFFFFFFFFFFFFFFFFFFFFFFFFFFFFFFFFFFFFF
310
FFFFFFFFFFFFFFFFFFFFFFFFFFFFFFFFFFFFFFFFFFFFFFFFFFFFFFFFFFFFFFFF
310
FFFFFFFFFFFFFFFFFFFFFFFFFFFFFFFFF000FFFFFFFFFFFFFFFFFFFFFFFFFFFF
310
FFFFFFFFFFFFFFFFFFFFFFFFFFFFFFFFFFFFFFFFFFFFFFFFFFFFFFFFFFFFFFFF
310
FFFFFFFFFFFFFFFFFFFFFFFFFFFFFFFFFFFFFFFFFFFFFFFFFFFFFFFFFFFFFFFF
310
FFFFFFFFFFFFFFFFF000FFFFFFFFFFFFFFFFFFFFFFFFFFFFFFFFFFFFFFFFFFFF
310
FFFFFFFFFFFFFFFFFFFFFFFFFFFFFFFFFFFFFFFFFFFFFFFFFFFFFFFFFFFFFFFF
310
FFFFFFFFFFFFFFFFFFFFFFFFFFFFFFFFFFFFFFFFFFFFFFFFFFFFFFFFFFFFFFFF
310
F000FFFFFFFFFFFFFFFFFFFFFFFFFFFFFFFFFFFFFFFFFFFFFFFFFFFFFFFFFFFF
310
FFFFFFFFFFFFFFFFFFFFFFFFFFFFFFFFFFFFFFFFFFFFFFFFFFFFFFFFFFFFFFFF
310
FFFFFFFFFFFFFFFFFFFFFFFFFFFFFFFFFFFFFFFFFFFFFFFFF000FFFFFFFFFFFF
310
FFFFFFFFFFFFFFFFFFFFFFFFFFFFFFFFFFFFFFFFFFFFFFFFFFFFFFFFFFFFFFFF
310
FFFFFFFFFFFFFFFFFFFFFFFFFFFFFFFFFFFFFFFFFFFFFFFFFFFFFFFFFFFFFFFF
310
FFFFFFFFFFFFFFFFFFFFFFFFFFFFFFFFF000FFFFFFFFFFFFFFFFFFFFFFFFFFFF
310
FFFFFFFFFFFFFFFFFFFFFFFFFFFFFFFFFFFFFFFFFFFFFFFFFFFFFFFFFFFFFFFF
310
FFFFFFFFFFFFFFFFFFFFFFFFFFFFFFFFFFFFFFFFFFFFFFFFFFFFFFFFFFFFFFFF
310
FFFFFFFFFFFFFFFFF000FFFFFFFFFFFFFFFFFFFFFFFFFFFFFFFFFFFFFFFFFFFF
310
FFFFFFFFFFFFFFFFFFFFFFFFFFFFFFFFFFFFFFFFFFFFFFFFFFFFFFFFFFFFFFFF
310
FFFFFFFFFFFFFFFFFFFFFFFFFFFFFFFFFFFFFFFFFFFFFFFFFFFFFFFFFFFFFFFF
310
F000FFFFFFFFFFFFFFFFFFFFFFFFFFFFFFFFFFFFFFFFFFFFFFFFFFFFFFFFFFFF
310
FFFFFFFFFFFFFFFFFFFFFFFFFFFFFFFFFFFFFFFFFFFFFFFFFFFFFFFFFFFFFFFF
310
FFFFFFFFFFFFFFFFFFFFFFFFFFFFFFFFFFFFFFFFFFFFFFFFF000FFFFFFFFFFFF
310
FFFFFFFFFFFFFFFFFFFFFFFFFFFFFFFFFFFFFFFFFFFFFFFFFFFFFFFFFFFFFFFF
310
FFFFFFFFFFFFFFFFFFFFFFFFFFFFFFFFFFFFFFFFFFFFFFFFFFFFFFFFFFFFFFFF
310
FFFFFFFFFFFFFFFFFFFFFFFFFFFFFFFFF000FFFFFFFFFFFFFFFFFFFFFFFFFFFF
310
FFFFFFFFFFFFFFFFFFFFFFFFFFFFFFFFFFFFFFFFFFFFFFFFFFFFFFFFFFFFFFFF
310
FFFFFFFFFFFFFFFFFFFFFFFFFFFFFFFFFFFFFFFFFFFFFFFFFFFFFFFFFFFFFFFF
310
FFFFFFFFFFFFFFFFF000FFFFFFFFFFFFFFFFFFFFFFFFFFFFFFFFFFFFFFFFFFFF
310
FFFFFFFFFFFFFFFFFFFFFFFFFFFFFFFFFFFFFFFFFFFFFFFFFFFFFFFFFFFFFFFF
310
FFFFFFFFFFFFFFFFFFFFFFFFFFFFFFFFFFFFFFFFFFFFFFFFFFFFFFFFFFFFFFFF
310
F000FFFFFFFFFFFFFFFFFFFFFFFFFFFFFFFFFFFFFFFFFFFFFFFFFFFFFFFFFFFF
310
FFFFFFFFFFFFFFFFFFFFFFFFFFFFFFFFFFFFFFFFFFFFFFFFFFFFFFFFFFFFFFFF
310
FFFFFFFFFFFFFFFFFFFFFFFFFFFFFFFFFFFFFFFFFFFFFFFFF000FFFFFFFFFFFF
310
FFFFFFFFFFFFFFFFFFFFFFFFFFFFFFFFFFFFFFFFFFFFFFFFFFFFFFFFFFFFFFFF
310
FFFFFFFFFFFFFFFFFFFFFFFFFFFFFFFFFFFFFFFFFFFFFFFFFFFFFFFFFFFFFFFF
310
FFFFFFFFFFFFFFFFFFFFFFFFFFFFFFFFF000FFFFFFFFFFFFFFFFFFFFFFFFFFFF
310
FFFFFFFFFFFFFFFFFFFFFFFFFFFFFFFFFFFFFFFFFFFFFFFFFFFFFFFFFFFFFFFF
310
FFFFFFFFFFFFFFFFFFFFFFFFFFFFFFFFFFFFFFFFFFFFFFFFFFFFFFFFFFFFFFFF
310
FFFFFFFFFFFFFFFFF000FFFFFFFFFFFFFFFFFFFFFFFFFFFFFFFFFFFFFFFFFFFF
310
FFFFFFFFFFFFFFFFFFFFFFFFFFFFFFFFFFFFFFFFFFFFFFFFFFFFFFFFFFFFFFFF
310
FFFFFFFFFFFFFFFFFFFFFFFFFFFFFFFFFFFFFFFFFFFFFFFFFFFFFFFFFFFFFFFF
310
F000FFFFFFFFFFFFFFFFFFFFFFFFFFFFFFFFFFFFFFFFFFFFFFFFFFFFFFFFFFFF
310
FFFFFFFFFFFFFFFFFFFFFFFFFFFFFFFFFFFFFFFFFFFFFFFFFFFFFFFFFFFFFFFF
310
FFFFFFFFFFFFFFFFFFFFFFFFFFFFFFFFFFFFFFFFFFFFFFFFF000FFFFFFFFFFFF
310
FFFFFFFFFFFFFFFFFFFFFFFFFFFFFFFFFFFFFFFFFFFFFFFFFFFFFFFFFFFFFFFF
310
FFFFFFFFFFFFFFFFFFFFFFFFFFFFFFFFFFFFFFFFFFFFFFFFFFFFFFFFFFFFFFFF
310
FFFFFFFFFFFFFFFFFFFFFFFFFFFFFFFFF0000000000000000000000000000000
310
0000000000000000000000000000000000000000000000000000000000000000
310
0000000000000000000000000000000000000000000000000000000000000000
310
0000000000000000000000000000000000000000000000000000000000000000
310
0000000000000000000000000000000000000000000000000000000000000000
310
0000000000000000000000000000000000000000000000000000000000000000
310
0000000000000000000000000000000000000000000000000000000000000000
310
0000000000000000000000000000000000000000000000000000000000000000
310
0000000000000000000000000000000000000000000000000000000000000000
310
0000000000000000000000000000000000000000000000000000000000000000
310
0000000000000000000000000000000000000000000000000000000000000000
310
0000000000000000000000000000000000000000000000000000000000000000
310
0000000000000000000000000000000000000000000000000000000000000000
310
0000000000000000000000000000000000000000000000000000000000000000
310
0000000000000000000000000000000000000000000000000000000000000000
310
0000000000000000000000000000000000000000000000000000000000000000
  1
OLE
  0
ENDSEC
  0
SECTION
  2
OBJECTS
  0
DICTIONARY
  5
C
330
0
100
AcDbDictionary
281
     1
  3
ACAD_GROUP
350
D
  3
ACAD_LAYOUT
350
1A
  3
ACAD_MLINESTYLE
350
17
  3
ACAD_PLOTSETTINGS
350
19
  3
ACAD_PLOTSTYLENAME
350
E
  0
DICTIONARY
  5
D
102
{ACAD_REACTORS
330
C
102
}
330
C
100
AcDbDictionary
281
     1
  0
DICTIONARY
  5
1A
102
{ACAD_REACTORS
330
C
102
}
330
C
100
AcDbDictionary
281
     1
  3
Layout1
350
1E
  3
Layout2
350
26
  3
Model
350
22
  0
DICTIONARY
  5
17
102
{ACAD_REACTORS
330
C
102
}
330
C
100
AcDbDictionary
281
     1
  3
Standard
350
18
  0
DICTIONARY
  5
19
102
{ACAD_REACTORS
330
C
102
}
330
C
100
AcDbDictionary
281
     1
  0
ACDBDICTIONARYWDFLT
  5
E
102
{ACAD_REACTORS
330
C
102
}
330
C
100
AcDbDictionary
281
     1
  3
Normal
350
F
100
AcDbDictionaryWithDefault
340
F
  0
LAYOUT
  5
1E
102
{ACAD_REACTORS
330
1A
102
}
330
1A
100
AcDbPlotSettings
  1

  2
none_device
  4

  6

 40
0.0
 41
0.0
 42
0.0
 43
0.0
 44
0.0
 45
0.0
 46
0.0
 47
0.0
 48
0.0
 49
0.0
140
0.0
141
0.0
142
1.0
143
1.0
 70
   688
 72
     0
 73
     0
 74
     5
  7

 75
    16
147
1.0
148
0.0
149
0.0
100
AcDbLayout
  1
Layout1
 70
     1
 71
     1
 10
0.0
 20
0.0
 11
420.0
 21
297.0
 12
0.0
 22
0.0
 32
0.0
 14
1.0000000000E+20
 24
1.0000000000E+20
 34
1.0000000000E+20
 15
-1.0000000000E+20
 25
-1.0000000000E+20
 35
-1.0000000000E+20
146
0.0
 13
0.0
 23
0.0
 33
0.0
 16
1.0
 26
0.0
 36
0.0
 17
0.0
 27
1.0
 37
0.0
 76
     0
330
1B
  0
LAYOUT
  5
26
102
{ACAD_REACTORS
330
1A
102
}
330
1A
100
AcDbPlotSettings
  1

  2
none_device
  4

  6

 40
0.0
 41
0.0
 42
0.0
 43
0.0
 44
0.0
 45
0.0
 46
0.0
 47
0.0
 48
0.0
 49
0.0
140
0.0
141
0.0
142
1.0
143
1.0
 70
   688
 72
     0
 73
     0
 74
     5
  7

 75
    16
147
1.0
148
0.0
149
0.0
100
AcDbLayout
  1
Layout2
 70
     1
 71
     2
 10
0.0
 20
0.0
 11
0.0
 21
0.0
 12
0.0
 22
0.0
 32
0.0
 14
0.0
 24
0.0
 34
0.0
 15
0.0
 25
0.0
 35
0.0
146
0.0
 13
0.0
 23
0.0
 33
0.0
 16
1.0
 26
0.0
 36
0.0
 17
0.0
 27
1.0
 37
0.0
 76
     0
330
23
  0
LAYOUT
  5
22
102
{ACAD_REACTORS
330
1A
102
}
330
1A
100
AcDbPlotSettings
  1

  2
none_device
  4

  6

 40
0.0
 41
0.0
 42
0.0
 43
0.0
 44
0.0
 45
0.0
 46
0.0
 47
0.0
 48
0.0
 49
0.0
140
0.0
141
0.0
142
1.0
143
1.0
 70
  1712
 72
     0
 73
     0
 74
     0
  7

 75
     0
147
1.0
148
0.0
149
0.0
100
AcDbLayout
  1
Model
 70
     1
 71
     0
 10
0.0
 20
0.0
 11
297.0
 21
210.0
 12
0.0
 22
0.0
 32
0.0
 14
0.0
 24
0.0
 34
0.0
 15
297.0
 25
210.0
 35
0.0
146
0.0
 13
0.0
 23
0.0
 33
0.0
 16
1.0
 26
0.0
 36
0.0
 17
0.0
 27
1.0
 37
0.0
 76
     0
330
1F
331
29
  0
MLINESTYLE
  5
18
102
{ACAD_REACTORS
330
17
102
}
330
17
100
AcDbMlineStyle
  2
Standard
 70
     0
  3

 62
   256
 51
90.0
 52
90.0
 71
     2
 49
0.5
 62
   256
  6
BYLAYER
 49
-0.5
 62
   256
  6
BYLAYER
  0
ACDBPLACEHOLDER
  5
F
102
{ACAD_REACTORS
330
E
102
}
330
E
  0
ENDSEC
  0
EOF
