  0
SECTION
  2
HEADER
  9
$ACADVER
  1
AC1015
  9
$ACADMAINTVER
 70
     6
  9
$DWGCODEPAGE
  3
ANSI_1252
  9
$INSBASE
 10
0.0
 20
0.0
 30
0.0
  9
$EXTMIN
 10
0.0
 20
0.0
 30
0.0
  9
$EXTMAX
 10
297.0
 20
210.0
 30
0.0
  9
$LIMMIN
 10
0.0
 20
0.0
  9
$LIMMAX
 10
297.0
 20
210.0
  9
$ORTHOMODE
 70
     0
  9
$REGENMODE
 70
     1
  9
$FILLMODE
 70
     1
  9
$QTEXTMODE
 70
     0
  9
$MIRRTEXT
 70
     1
  9
$LTSCALE
 40
1.0
  9
$ATTMODE
 70
     1
  9
$TEXTSIZE
 40
2.0
  9
$TRACEWID
 40
1.0
  9
$TEXTSTYLE
  7
Standard
  9
$CLAYER
  8
0
  9
$CELTYPE
  6
ByLayer
  9
$CECOLOR
 62
   256
  9
$CELTSCALE
 40
1.0
  9
$DISPSILH
 70
     0
  9
$DIMSCALE
 40
1.0
  9
$DIMASZ
 40
3.0
  9
$DIMEXO
 40
0.0
  9
$DIMDLI
 40
3.75
  9
$DIMRND
 40
0.0
  9
$DIMDLE
 40
0.0
  9
$DIMEXE
 40
1.0
  9
$DIMTP
 40
0.0
  9
$DIMTM
 40
0.0
  9
$DIMTXT
 40
2.0
  9
$DIMCEN
 40
2.5
  9
$DIMTSZ
 40
0.0
  9
$DIMTOL
 70
     0
  9
$DIMLIM
 70
     0
  9
$DIMTIH
 70
     1
  9
$DIMTOH
 70
     1
  9
$DIMSE1
 70
     0
  9
$DIMSE2
 70
     0
  9
$DIMTAD
 70
     1
  9
$DIMZIN
 70
     0
  9
$DIMBLK
  1

  9
$DIMASO
 70
     1
  9
$DIMSHO
 70
     1
  9
$DIMPOST
  1

  9
$DIMAPOST
  1

  9
$DIMALT
 70
     0
  9
$DIMALTD
 70
     3
  9
$DIMALTF
 40
0.0393700787
  9
$DIMLFAC
 40
1.0
  9
$DIMTOFL
 70
     1
  9
$DIMTVP
 40
0.0
  9
$DIMTIX
 70
     0
  9
$DIMSOXD
 70
     0
  9
$DIMSAH
 70
     0
  9
$DIMBLK1
  1

  9
$DIMBLK2
  1

  9
$DIMSTYLE
  2
ISO-25
  9
$DIMCLRD
 70
     0
  9
$DIMCLRE
 70
     0
  9
$DIMCLRT
 70
     0
  9
$DIMTFAC
 40
1.0
  9
$DIMGAP
 40
1.524
  9
$DIMJUST
 70
     0
  9
$DIMSD1
 70
     0
  9
$DIMSD2
 70
     0
  9
$DIMTOLJ
 70
     0
  9
$DIMTZIN
 70
     0
  9
$DIMALTZ
 70
     0
  9
$DIMALTTZ
 70
     0
  9
$DIMUPT
 70
     0
  9
$DIMDEC
 70
     2
  9
$DIMTDEC
 70
     3
  9
$DIMALTU
 70
     2
  9
$DIMALTTD
 70
     3
  9
$DIMTXSTY
  7
Standard
  9
$DIMAUNIT
 70
     0
  9
$DIMADEC
 70
     2
  9
$DIMALTRND
 40
0.0
  9
$DIMAZIN
 70
     0
  9
$DIMDSEP
 70
    44
  9
$DIMATFIT
 70
     3
  9
$DIMFRAC
 70
     0
  9
$DIMLDRBLK
  1

  9
$DIMLUNIT
 70
     2
  9
$DIMLWD
 70
    -2
  9
$DIMLWE
 70
    -2
  9
$DIMTMOVE
 70
     0
  9
$LUNITS
 70
     2
  9
$LUPREC
 70
     2
  9
$SKETCHINC
 40
1.0
  9
$FILLETRAD
 40
10.0
  9
$AUNITS
 70
     0
  9
$AUPREC
 70
     2
  9
$MENU
  1
.
  9
$ELEVATION
 40
0.0
  9
$PELEVATION
 40
0.0
  9
$THICKNESS
 40
0.0
  9
$LIMCHECK
 70
     0
  9
$CHAMFERA
 40
0.0
  9
$CHAMFERB
 40
0.0
  9
$CHAMFERC
 40
0.0
  9
$CHAMFERD
 40
0.0
  9
$SKPOLY
 70
     0
  9
$TDCREATE
 40
2457883.473895555
  9
$TDUCREATE
 40
2457883.390562222
  9
$TDUPDATE
 40
2457883.473896424
  9
$TDUUPDATE
 40
2457883.39056309
  9
$TDINDWG
 40
0.0000000116
  9
$TDUSRTIMER
 40
0.0000000116
  9
$USRTIMER
 70
     1
  9
$ANGBASE
 50
0.0
  9
$ANGDIR
 70
     0
  9
$PDMODE
 70
     0
  9
$PDSIZE
 40
-1.0
  9
$PLINEWID
 40
0.0
  9
$SPLFRAME
 70
     0
  9
$SPLINETYPE
 70
     6
  9
$SPLINESEGS
 70
     8
  9
$HANDSEED
  5
1D2
  9
$SURFTAB1
 70
     6
  9
$SURFTAB2
 70
     6
  9
$SURFTYPE
 70
     6
  9
$SURFU
 70
     6
  9
$SURFV
 70
     6
  9
$UCSBASE
  2

  9
$UCSNAME
  2

  9
$UCSORG
 10
0.0
 20
0.0
 30
0.0
  9
$UCSXDIR
 10
1.0
 20
0.0
 30
0.0
  9
$UCSYDIR
 10
0.0
 20
1.0
 30
0.0
  9
$UCSORTHOREF
  2

  9
$UCSORTHOVIEW
 70
     0
  9
$UCSORGTOP
 10
0.0
 20
0.0
 30
0.0
  9
$UCSORGBOTTOM
 10
0.0
 20
0.0
 30
0.0
  9
$UCSORGLEFT
 10
0.0
 20
0.0
 30
0.0
  9
$UCSORGRIGHT
 10
0.0
 20
0.0
 30
0.0
  9
$UCSORGFRONT
 10
0.0
 20
0.0
 30
0.0
  9
$UCSORGBACK
 10
0.0
 20
0.0
 30
0.0
  9
$PUCSBASE
  2

  9
$PUCSNAME
  2

  9
$PUCSORG
 10
0.0
 20
0.0
 30
0.0
  9
$PUCSXDIR
 10
1.0
 20
0.0
 30
0.0
  9
$PUCSYDIR
 10
0.0
 20
1.0
 30
0.0
  9
$PUCSORTHOREF
  2

  9
$PUCSORTHOVIEW
 70
     0
  9
$PUCSORGTOP
 10
0.0
 20
0.0
 30
0.0
  9
$PUCSORGBOTTOM
 10
0.0
 20
0.0
 30
0.0
  9
$PUCSORGLEFT
 10
0.0
 20
0.0
 30
0.0
  9
$PUCSORGRIGHT
 10
0.0
 20
0.0
 30
0.0
  9
$PUCSORGFRONT
 10
0.0
 20
0.0
 30
0.0
  9
$PUCSORGBACK
 10
0.0
 20
0.0
 30
0.0
  9
$USERI1
 70
     0
  9
$USERI2
 70
     0
  9
$USERI3
 70
     0
  9
$USERI4
 70
     0
  9
$USERI5
 70
     0
  9
$USERR1
 40
0.0
  9
$USERR2
 40
0.0
  9
$USERR3
 40
0.0
  9
$USERR4
 40
0.0
  9
$USERR5
 40
0.0
  9
$WORLDVIEW
 70
     1
  9
$SHADEDGE
 70
     3
  9
$SHADEDIF
 70
    70
  9
$TILEMODE
 70
     1
  9
$MAXACTVP
 70
    64
  9
$PINSBASE
 10
0.0
 20
0.0
 30
0.0
  9
$PLIMCHECK
 70
     0
  9
$PEXTMIN
 10
1.0000000000E+20
 20
1.0000000000E+20
 30
1.0000000000E+20
  9
$PEXTMAX
 10
-1.0000000000E+20
 20
-1.0000000000E+20
 30
-1.0000000000E+20
  9
$PLIMMIN
 10
0.0
 20
0.0
  9
$PLIMMAX
 10
420.0
 20
297.0
  9
$UNITMODE
 70
     0
  9
$VISRETAIN
 70
     1
  9
$PLINEGEN
 70
     0
  9
$PSLTSCALE
 70
     1
  9
$TREEDEPTH
 70
  3020
  9
$CMLSTYLE
  2
Standard
  9
$CMLJUST
 70
     0
  9
$CMLSCALE
 40
20.0
  9
$PROXYGRAPHICS
 70
     1
  9
$MEASUREMENT
 70
     1
  9
$CELWEIGHT
370
    -1
  9
$ENDCAPS
280
     0
  9
$JOINSTYLE
280
     0
  9
$LWDISPLAY
290
     1
  9
$INSUNITS
 70
     4
  9
$HYPERLINKBASE
  1

  9
$STYLESHEET
  1

  9
$XEDIT
290
     1
  9
$CEPSNTYPE
380
     0
  9
$PSTYLEMODE
290
     1
  9
$FINGERPRINTGUID
  2
{4703E225-A729-4E8C-9351-3E116920EEB2}
  9
$VERSIONGUID
  2
{FAEB1C32-E019-11D5-929B-00C0DF256EC4}
  9
$EXTNAMES
290
     1
  9
$PSVPSCALE
 40
0.0
  9
$OLESTARTUP
290
     0
  0
ENDSEC
  0
SECTION
  2
CLASSES
  0
CLASS
  1
ACDBDICTIONARYWDFLT
  2
AcDbDictionaryWithDefault
  3
ObjectDBX Classes
 90
        0
280
     0
281
     0
  0
CLASS
  1
VISUALSTYLE
  2
AcDbVisualStyle
  3
ObjectDBX Classes
 90
     4095
280
     0
281
     0
  0
CLASS
  1
MATERIAL
  2
AcDbMaterial
  3
ObjectDBX Classes
 90
     1153
280
     0
281
     0
  0
CLASS
  1
SCALE
  2
AcDbScale
  3
ObjectDBX Classes
 90
     1153
280
     0
281
     0
  0
CLASS
  1
TABLESTYLE
  2
AcDbTableStyle
  3
ObjectDBX Classes
 90
     4095
280
     0
281
     0
  0
CLASS
  1
MLEADERSTYLE
  2
AcDbMLeaderStyle
  3
ACDB_MLEADERSTYLE_CLASS
 90
     4095
280
     0
281
     0
  0
CLASS
  1
SUN
  2
AcDbSun
  3
SCENEOE
 90
     1153
280
     0
281
     0
  0
CLASS
  1
ACDBPLACEHOLDER
  2
AcDbPlaceHolder
  3
ObjectDBX Classes
 90
        0
280
     0
281
     0
  0
CLASS
  1
LAYOUT
  2
AcDbLayout
  3
ObjectDBX Classes
 90
        0
280
     0
281
     0
  0
ENDSEC
  0
SECTION
  2
TABLES
  0
TABLE
  2
VPORT
  5
8
330
0
100
AcDbSymbolTable
 70
     1
  0
VPORT
  5
29
330
8
100
AcDbSymbolTableRecord
100
AcDbViewportTableRecord
  2
*Active
 70
     0
 10
0.0
 20
0.0
 11
1.0
 21
1.0
 12
148.5
 22
105.0
 13
0.0
 23
0.0
 14
10.0
 24
10.0
 15
10.0
 25
10.0
 16
0.0
 26
0.0
 36
1.0
 17
0.0
 27
0.0
 37
0.0
 40
210.0
 41
1.4142857143
 42
50.0
 43
0.0
 44
0.0
 50
0.0
 51
0.0
 71
     0
 72
  2000
 73
     1
 74
     3
 75
     0
 76
     0
 77
     0
 78
     0
281
     0
 65
     1
110
0.0
120
0.0
130
0.0
111
1.0
121
0.0
131
0.0
112
0.0
122
1.0
132
0.0
 79
     0
146
0.0
  0
ENDTAB
  0
TABLE
  2
LTYPE
  5
5
330
0
100
AcDbSymbolTable
 70
     6
  0
LTYPE
  5
14
330
5
100
AcDbSymbolTableRecord
100
AcDbLinetypeTableRecord
  2
ByBlock
 70
     0
  3

 72
    65
 73
     0
 40
0.0
  0
LTYPE
  5
15
330
5
100
AcDbSymbolTableRecord
100
AcDbLinetypeTableRecord
  2
ByLayer
 70
     0
  3

 72
    65
 73
     0
 40
0.0
  0
LTYPE
  5
16
330
5
100
AcDbSymbolTableRecord
100
AcDbLinetypeTableRecord
  2
Continuous
 70
     0
  3
Solid line
 72
    65
 73
     0
 40
0.0
  0
LTYPE
  5
6E
330
5
100
AcDbSymbolTableRecord
100
AcDbLinetypeTableRecord
  2
HIDDEN
 70
     0
  3
Hidden __ __ __ __ __ __ __ __ __ __ __ __ __ __
 72
    65
 73
     2
 40
1.905
 49
1.27
 74
     0
 49
-0.635
 74
     0
  0
LTYPE
  5
6F
330
5
100
AcDbSymbolTableRecord
100
AcDbLinetypeTableRecord
  2
PHANTOM
 70
     0
  3
Phantom ______  __  __  ______  __  __  ______
 72
    65
 73
     6
 40
12.7
 49
6.35
 74
     0
 49
-1.27
 74
     0
 49
1.27
 74
     0
 49
-1.27
 74
     0
 49
1.27
 74
     0
 49
-1.27
 74
     0
  0
LTYPE
  5
70
330
5
100
AcDbSymbolTableRecord
100
AcDbLinetypeTableRecord
  2
CENTER
 70
     0
  3
Center ____ _ ____ _ ____ _ ____ _ ____ _ ____
 72
    65
 73
     4
 40
10.16
 49
6.35
 74
     0
 49
-1.27
 74
     0
 49
1.27
 74
     0
 49
-1.27
 74
     0
  0
LTYPE
  5
71
330
5
100
AcDbSymbolTableRecord
100
AcDbLinetypeTableRecord
  2
CENTERX2
 70
     0
  3
Center (2x) ________  __  ________  __  _____
 72
    65
 73
     4
 40
20.32
 49
12.7
 74
     0
 49
-2.54
 74
     0
 49
2.54
 74
     0
 49
-2.54
 74
     0
  0
LTYPE
  5
72
330
5
100
AcDbSymbolTableRecord
100
AcDbLinetypeTableRecord
  2
DOT2
 70
     0
  3
Dot (.5x) ........................................
 72
    65
 73
     2
 40
0.635
 49
0.0
 74
     0
 49
-0.635
 74
     0
  0
ENDTAB
  0
TABLE
  2
LAYER
  5
2
330
0
100
AcDbSymbolTable
 70
     5
  0
LAYER
  5
10
330
2
100
AcDbSymbolTableRecord
100
AcDbLayerTableRecord
  2
0
 70
     0
 62
     7
  6
Continuous
370
    -3
390
F
  0
LAYER
  5
73
330
2
100
AcDbSymbolTableRecord
100
AcDbLayerTableRecord
  2
FORMAT
 70
     0
 62
     7
  6
Continuous
370
    -3
390
F
  0
LAYER
  5
74
330
2
100
AcDbSymbolTableRecord
100
AcDbLayerTableRecord
  2
VERMASSUNG
 70
     0
 62
     7
  6
Continuous
370
    -3
390
F
  0
LAYER
  5
75
330
2
100
AcDbSymbolTableRecord
100
AcDbLayerTableRecord
  2
KOPF_DÜNN
 70
     0
 62
     7
  6
Continuous
370
    -3
390
F
  0
LAYER
  5
76
330
2
100
AcDbSymbolTableRecord
100
AcDbLayerTableRecord
  2
KOPF_DICK
 70
     0
 62
     7
  6
Continuous
370
    15
390
F
  0
ENDTAB
  0
TABLE
  2
STYLE
  5
3
330
0
100
AcDbSymbolTable
 70
     2
  0
STYLE
  5
11
330
3
100
AcDbSymbolTableRecord
100
AcDbTextStyleTableRecord
  2
Standard
 70
     0
 40
0.0
 41
1.0
 50
0.0
 71
     0
 42
2.0
  3
txt
  4

  0
STYLE
  5
77
330
3
100
AcDbSymbolTableRecord
100
AcDbTextStyleTableRecord
  2
SLDTEXTSTYLE0
 70
     0
 40
0.0
 41
0.7
 50
0.0
 71
     0
 42
2.0
  3
TXT
  4

  0
ENDTAB
  0
TABLE
  2
VIEW
  5
6
330
0
100
AcDbSymbolTable
 70
     0
  0
ENDTAB
  0
TABLE
  2
UCS
  5
7
330
0
100
AcDbSymbolTable
 70
     0
  0
ENDTAB
  0
TABLE
  2
APPID
  5
9
330
0
100
AcDbSymbolTable
 70
     1
  0
APPID
  5
12
330
9
100
AcDbSymbolTableRecord
100
AcDbRegAppTableRecord
  2
ACAD
 70
     0
  0
ENDTAB
  0
TABLE
  2
DIMSTYLE
  5
A
330
0
100
AcDbSymbolTable
 70
     3
100
AcDbDimStyleTable
  0
DIMSTYLE
105
27
330
A
100
AcDbSymbolTableRecord
100
AcDbDimStyleTableRecord
  2
ISO-25
 70
     0
 41
2.5
 42
0.625
 43
3.75
 44
1.25
 73
     0
 74
     0
 77
     1
 78
     8
140
2.5
141
2.5
143
0.0393700787
147
0.625
171
     3
172
     1
178
     0
271
     2
272
     2
274
     3
278
    44
283
     0
284
     8
340
11
  0
DIMSTYLE
105
F7
102
{ACAD_REACTORS
330
F6
330
103
102
}
330
A
100
AcDbSymbolTableRecord
100
AcDbDimStyleTableRecord
  2
SLDDIMSTYLE0
 70
     0
 41
3.0
 44
0.0
 45
0.000000001
 47
0.1
 48
0.1
 71
     1
 73
     0
 74
     0
 77
     1
 78
    12
 79
     3
140
2.0
147
0.5
173
     1
178
     0
271
     1
272
     1
276
     2
284
     8
340
77
  0
DIMSTYLE
105
110
102
{ACAD_REACTORS
330
10F
330
11C
102
}
330
A
100
AcDbSymbolTableRecord
100
AcDbDimStyleTableRecord
  2
SLDDIMSTYLE1
 70
     0
 41
3.0
 44
0.0
 45
0.000000001
 73
     0
 74
     0
 77
     1
 78
    12
 79
     3
140
2.0
147
0.5
173
     1
178
     0
271
     2
272
     3
276
     2
284
    12
340
77
  0
ENDTAB
  0
TABLE
  2
BLOCK_RECORD
  5
1
330
0
100
AcDbSymbolTable
 70
     6
  0
BLOCK_RECORD
  5
1F
330
1
100
AcDbSymbolTableRecord
100
AcDbBlockTableRecord
  2
*Model_Space
340
22
  0
BLOCK_RECORD
  5
1B
330
1
100
AcDbSymbolTableRecord
100
AcDbBlockTableRecord
  2
*Paper_Space
340
1E
  0
BLOCK_RECORD
  5
23
330
1
100
AcDbSymbolTableRecord
100
AcDbBlockTableRecord
  2
*Paper_Space0
340
26
  0
BLOCK_RECORD
  5
F8
330
1
100
AcDbSymbolTableRecord
100
AcDbBlockTableRecord
  2
_D
340
0
  0
BLOCK_RECORD
  5
104
330
1
100
AcDbSymbolTableRecord
100
AcDbBlockTableRecord
  2
_D_1
340
0
  0
BLOCK_RECORD
  5
111
330
1
100
AcDbSymbolTableRecord
100
AcDbBlockTableRecord
  2
_D_2
340
0
  0
BLOCK_RECORD
  5
11D
330
1
100
AcDbSymbolTableRecord
100
AcDbBlockTableRecord
  2
_D_3
340
0
  0
BLOCK_RECORD
  5
15D
330
1
100
AcDbSymbolTableRecord
100
AcDbBlockTableRecord
  2
SW_CENTERMARKSYMBOL_0
340
0
102
{BLKREFS
331
168
102
}
  0
ENDTAB
  0
ENDSEC
  0
SECTION
  2
BLOCKS
  0
BLOCK
  5
20
330
1F
100
AcDbEntity
  8
0
100
AcDbBlockBegin
  2
*Model_Space
 70
     0
 10
0.0
 20
0.0
 30
0.0
  3
*Model_Space
  1

  0
ENDBLK
  5
21
330
1F
100
AcDbEntity
  8
0
100
AcDbBlockEnd
  0
BLOCK
  5
1C
330
1B
100
AcDbEntity
 67
     1
  8
0
100
AcDbBlockBegin
  2
*Paper_Space
 70
     0
 10
0.0
 20
0.0
 30
0.0
  3
*Paper_Space
  1

  0
ENDBLK
  5
1D
330
1B
100
AcDbEntity
 67
     1
  8
0
100
AcDbBlockEnd
  0
BLOCK
  5
24
330
23
100
AcDbEntity
  8
0
100
AcDbBlockBegin
  2
*Paper_Space0
 70
     0
 10
0.0
 20
0.0
 30
0.0
  3
*Paper_Space0
  1

  0
ENDBLK
  5
25
330
23
100
AcDbEntity
  8
0
100
AcDbBlockEnd
  0
BLOCK
  5
F9
330
F8
100
AcDbEntity
  8
0
100
AcDbBlockBegin
  2
_D
 70
     0
 10
0.0
 20
0.0
 30
0.0
  3
_D
  1

  0
SOLID
  5
FB
330
F8
100
AcDbEntity
  8
VERMASSUNG
100
AcDbTrace
 10
175.6488459623
 20
170.1081705271
 30
0.0
 11
178.6488459623
 21
169.6581705271
 31
0.0
 12
178.6488459623
 22
170.5581705271
 32
0.0
 13
178.6488459623
 23
170.5581705271
 33
0.0
  0
SOLID
  5
FC
330
F8
100
AcDbEntity
  8
VERMASSUNG
100
AcDbTrace
 10
235.6488459623
 20
170.1081705271
 30
0.0
 11
232.6488459623
 21
170.5581705271
 31
0.0
 12
232.6488459623
 22
169.6581705271
 32
0.0
 13
232.6488459623
 23
169.6581705271
 33
0.0
  0
LINE
  5
FD
330
F8
100
AcDbEntity
  8
VERMASSUNG
100
AcDbLine
 10
175.6488459623
 20
154.0107428447
 30
0.0
 11
175.6488459623
 21
171.1081705271
 31
0.0
  0
LINE
  5
FE
330
F8
100
AcDbEntity
  8
VERMASSUNG
100
AcDbLine
 10
235.6488459623
 20
165.9627204465
 30
0.0
 11
235.6488459623
 21
171.1081705271
 31
0.0
  0
LINE
  5
FF
330
F8
100
AcDbEntity
  8
VERMASSUNG
100
AcDbLine
 10
175.6488459623
 20
170.1081705271
 30
0.0
 11
235.6488459623
 21
170.1081705271
 31
0.0
  0
MTEXT
  5
100
330
F8
100
AcDbEntity
  8
VERMASSUNG
100
AcDbMText
 10
201.9988458763
 20
172.686306123
 30
0.0
 40
2.0
 41
0.0
 71
     1
 72
     1
  1
60
  7
SLDTEXTSTYLE0
 73
     1
 44
1.0
  0
MTEXT
  5
101
330
F8
100
AcDbEntity
  8
VERMASSUNG
100
AcDbMText
 10
205.9863457764
 20
172.686306123
 30
0.0
 40
2.0
 41
0.0
 71
     1
 72
     1
  1

  7
SLDTEXTSTYLE0
 73
     1
 44
1.0
  0
MTEXT
  5
102
330
F8
100
AcDbEntity
  8
VERMASSUNG
100
AcDbMText
 10
205.9988456006
 20
172.1917722894
 30
0.0
 40
1.5
 41
0.0
 71
     1
 72
     1
  1
±0.1
  7
SLDTEXTSTYLE0
 73
     1
 44
1.0
  0
ENDBLK
  5
FA
330
F8
100
AcDbEntity
  8
0
100
AcDbBlockEnd
  0
BLOCK
  5
105
330
104
100
AcDbEntity
  8
0
100
AcDbBlockBegin
  2
_D_1
 70
     0
 10
0.0
 20
0.0
 30
0.0
  3
_D_1
  1

  0
SOLID
  5
107
330
104
100
AcDbEntity
  8
VERMASSUNG
100
AcDbTrace
 10
245.4139850682
 20
164.3080847677
 30
0.0
 11
244.9639850682
 21
161.3080847677
 31
0.0
 12
245.8639850682
 22
161.3080847677
 32
0.0
 13
245.8639850682
 23
161.3080847677
 33
0.0
  0
SOLID
  5
108
330
104
100
AcDbEntity
  8
VERMASSUNG
100
AcDbTrace
 10
245.4139850682
 20
129.3107428447
 30
0.0
 11
245.8639850682
 21
132.3107428447
 31
0.0
 12
244.9639850682
 22
132.3107428447
 32
0.0
 13
244.9639850682
 23
132.3107428447
 33
0.0
  0
LINE
  5
109
330
104
100
AcDbEntity
  8
VERMASSUNG
100
AcDbLine
 10
235.6488459623
 20
164.3080847677
 30
0.0
 11
246.4139850682
 21
164.3080847677
 31
0.0
  0
LINE
  5
10A
330
104
100
AcDbEntity
  8
VERMASSUNG
100
AcDbLine
 10
235.6488459623
 20
129.3107428447
 30
0.0
 11
246.4139850682
 21
129.3107428447
 31
0.0
  0
LINE
  5
10B
330
104
100
AcDbEntity
  8
VERMASSUNG
100
AcDbLine
 10
245.4139850682
 20
164.3080847677
 30
0.0
 11
245.4139850682
 21
129.3107428447
 31
0.0
  0
MTEXT
  5
10C
330
104
100
AcDbEntity
  8
VERMASSUNG
100
AcDbMText
 10
242.8358494723
 20
143.1594137201
 30
0.0
 40
2.0
 41
0.0
 71
     1
 72
     1
  1
35
  7
SLDTEXTSTYLE0
 11
-1.059690869644414E-14
 21
1.0
 31
0.0
 73
     1
 44
1.0
  0
MTEXT
  5
10D
330
104
100
AcDbEntity
  8
VERMASSUNG
100
AcDbMText
 10
242.8358494723
 20
147.1469136203
 30
0.0
 40
2.0
 41
0.0
 71
     1
 72
     1
  1

  7
SLDTEXTSTYLE0
 11
-1.059690869644414E-14
 21
1.0
 31
0.0
 73
     1
 44
1.0
  0
MTEXT
  5
10E
330
104
100
AcDbEntity
  8
VERMASSUNG
100
AcDbMText
 10
243.3303833059
 20
147.1594134445
 30
0.0
 40
1.5
 41
0.0
 71
     1
 72
     1
  1
±0.1
  7
SLDTEXTSTYLE0
 11
-1.059690869644414E-14
 21
1.0
 31
0.0
 73
     1
 44
1.0
  0
ENDBLK
  5
106
330
104
100
AcDbEntity
  8
0
100
AcDbBlockEnd
  0
BLOCK
  5
112
330
111
100
AcDbEntity
  8
0
100
AcDbBlockBegin
  2
_D_2
 70
     0
 10
0.0
 20
0.0
 30
0.0
  3
_D_2
  1

  0
ARC
  5
114
330
111
100
AcDbEntity
  8
VERMASSUNG
100
AcDbCircle
 10
193.0488461054
 20
182.8531926384
 30
0.0
 40
4.248529228887608
100
AcDbArc
 50
153.4349488229
 51
206.5650511771
  0
ARC
  5
115
330
111
100
AcDbEntity
  8
VERMASSUNG
100
AcDbCircle
 10
188.2488458774
 20
182.8531926384
 30
0.0
 40
4.248529228887633
100
AcDbArc
 50
333.4349488229
 51
26.5650511771
  0
SOLID
  5
116
330
111
100
AcDbEntity
  8
VERMASSUNG
100
AcDbTrace
 10
145.6488459623
 20
180.9531923736
 30
0.0
 11
148.6488459623
 21
180.5031923736
 31
0.0
 12
148.6488459623
 22
181.4031923736
 32
0.0
 13
148.6488459623
 23
181.4031923736
 33
0.0
  0
SOLID
  5
117
330
111
100
AcDbEntity
  8
VERMASSUNG
100
AcDbTrace
 10
235.6488459623
 20
180.9531923736
 30
0.0
 11
232.6488459623
 21
181.4031923736
 31
0.0
 12
232.6488459623
 22
180.5031923736
 32
0.0
 13
232.6488459623
 23
180.5031923736
 33
0.0
  0
LINE
  5
118
330
111
100
AcDbEntity
  8
VERMASSUNG
100
AcDbLine
 10
145.6488459623
 20
145.3040686829
 30
0.0
 11
145.6488459623
 21
181.9531923736
 31
0.0
  0
LINE
  5
119
330
111
100
AcDbEntity
  8
VERMASSUNG
100
AcDbLine
 10
235.6488459623
 20
165.9627204465
 30
0.0
 11
235.6488459623
 21
181.9531923736
 31
0.0
  0
LINE
  5
11A
330
111
100
AcDbEntity
  8
VERMASSUNG
100
AcDbLine
 10
145.6488459623
 20
180.9531923736
 30
0.0
 11
235.6488459623
 21
180.9531923736
 31
0.0
  0
MTEXT
  5
11B
330
111
100
AcDbEntity
  8
VERMASSUNG
100
AcDbMText
 10
189.2488460413
 20
183.5313282024
 30
0.0
 40
2.0
 41
0.0
 71
     1
 72
     1
  1
90
  7
SLDTEXTSTYLE0
 73
     1
 44
1.0
  0
ENDBLK
  5
113
330
111
100
AcDbEntity
  8
0
100
AcDbBlockEnd
  0
BLOCK
  5
11E
330
11D
100
AcDbEntity
  8
0
100
AcDbBlockBegin
  2
_D_3
 70
     0
 10
0.0
 20
0.0
 30
0.0
  3
_D_3
  1

  0
SOLID
  5
120
330
11D
100
AcDbEntity
  8
VERMASSUNG
100
AcDbTrace
 10
133.6417005221
 20
104.3107428447
 30
0.0
 11
134.0917005221
 21
107.3107428447
 31
0.0
 12
133.1917005221
 22
107.3107428447
 32
0.0
 13
133.1917005221
 23
107.3107428447
 33
0.0
  0
SOLID
  5
121
330
11D
100
AcDbEntity
  8
VERMASSUNG
100
AcDbTrace
 10
133.6417005221
 20
154.3107428447
 30
0.0
 11
133.1917005221
 21
151.3107428447
 31
0.0
 12
134.0917005221
 22
151.3107428447
 32
0.0
 13
134.0917005221
 23
151.3107428447
 33
0.0
  0
LINE
  5
122
330
11D
100
AcDbEntity
  8
VERMASSUNG
100
AcDbLine
 10
175.9488459623
 20
104.3107428447
 30
0.0
 11
132.6417005221
 21
104.3107428447
 31
0.0
  0
LINE
  5
123
330
11D
100
AcDbEntity
  8
VERMASSUNG
100
AcDbLine
 10
175.9488459623
 20
154.3107428447
 30
0.0
 11
132.6417005221
 21
154.3107428447
 31
0.0
  0
LINE
  5
124
330
11D
100
AcDbEntity
  8
VERMASSUNG
100
AcDbLine
 10
133.6417005221
 20
104.3107428447
 30
0.0
 11
133.6417005221
 21
154.3107428447
 31
0.0
  0
MTEXT
  5
125
330
11D
100
AcDbEntity
  8
VERMASSUNG
100
AcDbMText
 10
130.8635652658
 20
123.8057435349
 30
0.0
 40
2.0
 41
0.0
 71
     1
 72
     1
  1
PSC
  7
SLDTEXTSTYLE0
 11
6.123233995736766E-17
 21
1.0
 31
0.0
 73
     1
 44
1.0
  0
MTEXT
  5
126
330
11D
100
AcDbEntity
  8
VERMASSUNG
100
AcDbMText
 10
131.0635652171
 20
128.4057431713
 30
0.0
 40
2.0
 41
0.0
 71
     1
 72
     1
  1
%%c
  7
SLDTEXTSTYLE0
 11
6.123233995736766E-17
 21
1.0
 31
0.0
 73
     1
 44
1.0
  0
MTEXT
  5
127
330
11D
100
AcDbEntity
  8
VERMASSUNG
100
AcDbMText
 10
130.8635652658
 20
132.0157431856
 30
0.0
 40
2.0
 41
0.0
 71
     1
 72
     1
  1
50
  7
SLDTEXTSTYLE0
 11
6.123233995736766E-17
 21
1.0
 31
0.0
 73
     1
 44
1.0
  0
ENDBLK
  5
11F
330
11D
100
AcDbEntity
  8
0
100
AcDbBlockEnd
  0
BLOCK
  5
15E
330
15D
100
AcDbEntity
  8
0
100
AcDbBlockBegin
  2
SW_CENTERMARKSYMBOL_0
 70
     0
 10
0.0
 20
0.0
 30
0.0
  3
SW_CENTERMARKSYMBOL_0
  1

  0
LINE
  5
160
330
15D
100
AcDbEntity
  8
VERMASSUNG
 62
     0
100
AcDbLine
 10
0.0
 20
0.0
 30
0.0
 11
0.0
 21
2.5
 31
0.0
  0
LINE
  5
161
330
15D
100
AcDbEntity
  8
VERMASSUNG
 62
     0
100
AcDbLine
 10
0.0
 20
0.0
 30
0.0
 11
-2.5
 21
0.0
 31
0.0
  0
LINE
  5
162
330
15D
100
AcDbEntity
  8
VERMASSUNG
 62
     0
100
AcDbLine
 10
0.0
 20
0.0
 30
0.0
 11
0.0
 21
-2.5
 31
0.0
  0
LINE
  5
163
330
15D
100
AcDbEntity
  8
VERMASSUNG
 62
     0
100
AcDbLine
 10
0.0
 20
0.0
 30
0.0
 11
2.5
 21
0.0
 31
0.0
  0
LINE
  5
164
330
15D
100
AcDbEntity
  8
VERMASSUNG
 62
     0
100
AcDbLine
 10
0.0
 20
5.0
 30
0.0
 11
0.0
 21
36.910743168
 31
0.0
  0
LINE
  5
165
330
15D
100
AcDbEntity
  8
VERMASSUNG
 62
     0
100
AcDbLine
 10
-5.0
 20
0.0
 30
0.0
 11
-28.0
 21
0.0
 31
0.0
  0
LINE
  5
166
330
15D
100
AcDbEntity
  8
VERMASSUNG
 62
     0
100
AcDbLine
 10
0.0
 20
-5.0
 30
0.0
 11
0.0
 21
-28.0
 31
0.0
  0
LINE
  5
167
330
15D
100
AcDbEntity
  8
VERMASSUNG
 62
     0
100
AcDbLine
 10
5.0
 20
0.0
 30
0.0
 11
28.0
 21
0.0
 31
0.0
  0
ENDBLK
  5
15F
330
15D
100
AcDbEntity
  8
0
100
AcDbBlockEnd
  0
ENDSEC
  0
SECTION
  2
ENTITIES
  0
MTEXT
  5
78
330
1F
100
AcDbEntity
  8
KOPF_DÜNN
100
AcDbMText
 10
13.8892156294
 20
23.8442973028
 30
0.0
 40
3.0
 41
0.0
 71
     1
 72
     1
  1
PS5.KGC.RGR.060
  7
SLDTEXTSTYLE0
 73
     1
 44
1.0
  0
MTEXT
  5
79
330
1F
100
AcDbEntity
  8
VERMASSUNG
100
AcDbMText
 10
13.9329988022
 20
28.8834360957
 30
0.0
 40
3.0
 41
0.0
 71
     1
 72
     1
  1
Klemmhalter / Aussengewinde
  7
SLDTEXTSTYLE0
 73
     1
 44
1.0
  0
MTEXT
  5
7A
330
1F
100
AcDbEntity
  8
VERMASSUNG
100
AcDbMText
 10
98.8601118557
 20
13.8365368761
 30
0.0
 40
2.0
 41
0.0
 71
     1
 72
     1
  1
Datum: 09.05.2017
  7
SLDTEXTSTYLE0
 73
     1
 44
1.0
  0
MTEXT
  5
7B
330
1F
100
AcDbEntity
  8
VERMASSUNG
100
AcDbMText
 10
13.933048693
 20
18.0482802738
 30
0.0
 40
2.0
 41
0.0
 71
     1
 72
     1
  1
PSC ø 50 / rechte Ausführung
  7
SLDTEXTSTYLE0
 73
     1
 44
1.0
  0
MTEXT
  5
7C
330
1F
100
AcDbEntity
  8
VERMASSUNG
100
AcDbMText
 10
13.9808475933
 20
13.9090974274
 30
0.0
 40
2.0
 41
0.0
 71
     1
 72
     1
  1
Gewicht: 745g
  7
SLDTEXTSTYLE0
 73
     1
 44
1.0
  0
SPLINE
  5
7D
330
1F
100
AcDbEntity
  8
0
  6
Continuous
 62
     7
370
    15
100
AcDbSpline
210
0.0
220
0.0
230
1.0
 70
    11
 71
     3
 72
    44
 73
    40
 74
     0
 42
0.000000001
 43
0.00000001
 40
0.0
 40
0.0
 40
0.0
 40
0.0
 40
0.0150998757330404
 40
0.0427191122312465
 40
0.0703669143223479
 40
0.0980235302549331
 40
0.1256886716667955
 40
0.1533611795848243
 40
0.1810391608944363
 40
0.2087199245601732
 40
0.2364001679962056
 40
0.2640771532747752
 40
0.2917483960670173
 40
0.3194119624692229
 40
0.3470667644893373
 40
0.3747127904632978
 40
0.4023511965606069
 40
0.429984203935713
 40
0.4576145043058641
 40
0.4852446847099059
 40
0.512878038885182
 40
0.5405173454600974
 40
0.5681645186763276
 40
0.5958204363539946
 40
0.6234849341375628
 40
0.6511569195172369
 40
0.6788345502307972
 40
0.7065152369350545
 40
0.7341956227932245
 40
0.761872961679309
 40
0.7895447387090688
 40
0.8172089652688297
 40
0.84486447668106
 40
0.8725111704784064
 40
0.9001501113785716
 40
0.9277834448603971
 40
0.9554139001845531
 40
0.9830439663529277
 40
1.0
 40
1.0
 40
1.0
 40
1.0
 10
222.3200308602438
 20
160.820703037154
 30
0.0
 10
222.2347548246255
 20
160.7400142652714
 30
0.0
 10
221.9935000884527
 20
160.5117373732759
 30
0.0
 10
221.6585373404391
 20
160.0735233450856
 30
0.0
 10
221.3539117888303
 20
159.499534984976
 30
0.0
 10
221.1529758866325
 20
158.8790701744594
 30
0.0
 10
221.0606788085236
 20
158.2324666708002
 30
0.0
 10
221.0801800654924
 20
157.5787565619891
 30
0.0
 10
221.2108651875589
 20
156.9377464208091
 30
0.0
 10
221.4488703424264
 20
156.3287504810735
 30
0.0
 10
221.7870452049399
 20
155.7701749986815
 30
0.0
 10
222.2152015278694
 20
155.2789004497414
 30
0.0
 10
222.720413754054
 20
154.8697713988724
 30
0.0
 10
223.2874153438804
 20
154.5551374592474
 30
0.0
 10
223.8990701625908
 20
154.344473769396
 30
0.0
 10
224.5369047169551
 20
154.2440943560053
 30
0.0
 10
225.1816793677889
 20
154.2569699118034
 30
0.0
 10
225.8139743000911
 20
154.3826529122541
 30
0.0
 10
226.4147710919128
 20
154.617305329482
 30
0.0
 10
226.9660241252812
 20
154.9538273114246
 30
0.0
 10
227.4511916327794
 20
155.3820822206811
 30
0.0
 10
227.8557168183087
 20
155.8892061897139
 30
0.0
 10
228.1674458515355
 20
156.4599818936102
 30
0.0
 10
228.3769873276084
 20
157.0772802782798
 30
0.0
 10
228.4779975541489
 20
157.7225601056019
 30
0.0
 10
228.4673810255501
 20
158.3764142184513
 30
0.0
 10
228.3453972737343
 20
159.019146493345
 30
0.0
 10
228.1156699095494
 20
159.6313627632302
 30
0.0
 10
227.7850914805212
 20
160.1945687241328
 30
0.0
 10
227.3636209323648
 20
160.691741925085
 30
0.0
 10
226.8639805580634
 20
161.1078590736031
 30
0.0
 10
226.3012659202222
 20
161.4303600656365
 30
0.0
 10
225.6924914141947
 20
161.6495225524325
 30
0.0
 10
225.0560169260576
 20
161.7588037882009
 30
0.0
 10
224.4111479566071
 20
161.7548539191126
 30
0.0
 10
223.7769187421745
 20
161.6382612869466
 30
0.0
 10
223.1738648285117
 20
161.4110624832557
 30
0.0
 10
222.6866924514259
 20
161.1277293190127
 30
0.0
 10
222.4210531343735
 20
160.9052946441204
 30
0.0
 10
222.3200308602438
 20
160.820703037154
 30
0.0
  0
ARC
  5
7E
330
1F
100
AcDbEntity
  8
0
  6
Continuous
 62
     7
370
    15
100
AcDbCircle
 10
175.9488459623
 20
104.6107428447
 30
0.0
 40
0.3000000000000114
100
AcDbArc
 50
180.0
 51
270.0
  0
ARC
  5
7F
330
1F
100
AcDbEntity
  8
0
  6
Continuous
 62
     7
370
    15
100
AcDbCircle
 10
175.9488459623
 20
154.0107428447
 30
0.0
 40
0.3000000000000114
100
AcDbArc
 50
90.0
 51
180.0
  0
LINE
  5
80
330
1F
100
AcDbEntity
  8
0
  6
Continuous
 62
     7
370
    15
100
AcDbLine
 10
175.9488459623
 20
104.3107428447
 30
0.0
 11
205.9287206798
 21
104.3107428447
 31
0.0
  0
LINE
  5
81
330
1F
100
AcDbEntity
  8
0
  6
Continuous
 62
     7
370
    15
100
AcDbLine
 10
207.8815189743
 20
154.3107428447
 30
0.0
 11
175.9488459623
 21
154.3107428447
 31
0.0
  0
LWPOLYLINE
  5
82
330
1F
100
AcDbEntity
  8
0
  6
Continuous
 62
     7
370
    15
100
AcDbPolyline
 90
        3
 70
   128
 43
0.0
 10
175.4488459623
 20
111.4709225658
 10
175.5743009058
 20
111.4026204509
 10
175.6488459623
 20
111.3498826928
  0
LWPOLYLINE
  5
83
330
1F
100
AcDbEntity
  8
0
  6
Continuous
 62
     7
370
    15
100
AcDbPolyline
 90
        3
 70
   128
 43
0.0
 10
175.6488459623
 20
147.2716029966
 10
175.5743009058
 20
147.2188652385
 10
175.4488459623
 20
147.1505631236
  0
ARC
  5
84
330
1F
100
AcDbEntity
  8
0
  6
Continuous
 62
     7
370
    15
100
AcDbCircle
 10
207.8815189743
 20
155.3107428447
 30
0.0
 40
1.000000000000016
100
AcDbArc
 50
270.0
 51
345.0
  0
LINE
  5
85
330
1F
100
AcDbEntity
  8
0
  6
Continuous
 62
     7
370
    15
100
AcDbLine
 10
211.0857186347
 20
163.4052754696
 30
0.0
 11
208.8474448006
 21
155.0519237996
 31
0.0
  0
LINE
  5
86
330
1F
100
AcDbEntity
  8
0
  6
Continuous
 62
     7
370
    15
100
AcDbLine
 10
221.7918048004
 20
149.0617015168
 30
0.0
 11
222.7080745193
 21
147.4465163758
 31
0.0
  0
LINE
  5
87
330
1F
100
AcDbEntity
  8
0
  6
Continuous
 62
     7
370
    15
100
AcDbLine
 10
221.412383881
 20
148.3963671691
 30
0.0
 11
222.0100088451
 21
147.342883744
 31
0.0
  0
ARC
  5
88
330
1F
100
AcDbEntity
  8
0
  6
Continuous
 62
     7
370
    15
100
AcDbCircle
 10
223.3025470493
 20
148.0696901227
 30
0.0
 40
1.482869691262326
100
AcDbArc
 50
209.3494570036
 51
265.7823474986
  0
CIRCLE
  5
89
330
1F
100
AcDbEntity
  8
0
  6
Continuous
 62
     7
370
    15
100
AcDbCircle
 10
224.8595662023
 20
158.0525661305
 30
0.0
 40
3.9278227073628
  0
LINE
  5
8A
330
1F
100
AcDbEntity
  8
0
  6
Continuous
 62
     7
370
    15
100
AcDbLine
 10
235.6488459623
 20
164.3080847677
 30
0.0
 11
224.8174156065
 21
145.3146073845
 31
0.0
  0
LINE
  5
8B
330
1F
100
AcDbEntity
  8
0
  6
Continuous
 62
     7
370
    15
100
AcDbLine
 10
224.8174156065
 20
145.3146073845
 30
0.0
 11
213.9859852507
 21
164.4080740828
 31
0.0
  0
LINE
  5
8C
330
1F
100
AcDbEntity
  8
0
  6
Continuous
 62
     7
370
    15
100
AcDbLine
 10
213.9859852507
 20
164.4080740828
 30
0.0
 11
235.6488459623
 21
164.3080847677
 31
0.0
  0
LINE
  5
8D
330
1F
100
AcDbEntity
  8
0
  6
Continuous
 62
     7
370
    15
100
AcDbLine
 10
223.9873773173
 20
145.1913825138
 30
0.0
 11
224.8174156065
 21
145.3146073845
 31
0.0
  0
LINE
  5
8E
330
1F
100
AcDbEntity
  8
0
  6
Continuous
 62
     7
370
    15
100
AcDbLine
 10
223.9873773173
 20
145.1913825138
 30
0.0
 11
221.7918048004
 21
149.0617015168
 31
0.0
  0
LINE
  5
8F
330
1F
100
AcDbEntity
  8
0
  6
Continuous
 62
     7
370
    15
100
AcDbLine
 10
213.5978596229
 20
163.5058528647
 30
0.0
 11
213.1559469615
 21
164.2848492122
 31
0.0
  0
LINE
  5
90
330
1F
100
AcDbEntity
  8
0
  6
Continuous
 62
     7
370
    15
100
AcDbLine
 10
213.1559469615
 20
164.2848492122
 30
0.0
 11
213.9859852507
 21
164.4080740828
 31
0.0
  0
LINE
  5
91
330
1F
100
AcDbEntity
  8
0
  6
Continuous
 62
     7
370
    15
100
AcDbLine
 10
175.6488459623
 20
104.6107428447
 30
0.0
 11
175.6488459623
 21
154.0107428425
 31
0.0
  0
SPLINE
  5
92
330
1F
100
AcDbEntity
  8
0
  6
Continuous
 62
     7
370
    15
100
AcDbSpline
210
0.0
220
0.0
230
1.0
 70
     8
 71
     3
 72
    12
 73
     8
 74
     0
 42
0.000000001
 43
0.00000001
 40
0.0
 40
0.0
 40
0.0
 40
0.0
 40
0.2499999999999993
 40
0.2499999999999993
 40
0.4999999999999987
 40
0.4999999999999987
 40
1.0
 40
1.0
 40
1.0
 40
1.0
 10
184.1766027758794
 20
136.8795528138747
 30
0.0
 10
184.1129375393488
 20
136.8795528138747
 30
0.0
 10
184.0533313071255
 20
136.9056249623544
 30
0.0
 10
183.9546707821947
 20
136.9811637131755
 30
0.0
 10
183.9157037921794
 20
137.0284146502717
 30
0.0
 10
183.8163169602549
 20
137.1802384682381
 30
0.0
 10
183.7742407128315
 20
137.2930417180033
 30
0.0
 10
183.7435900739871
 20
137.4071958427383
 30
0.0
  0
LINE
  5
93
330
1F
100
AcDbEntity
  8
0
  6
Continuous
 62
     7
370
    15
100
AcDbLine
 10
187.1210891487
 20
136.8795528139
 30
0.0
 11
184.1766027759
 21
136.8795528139
 31
0.0
  0
SPLINE
  5
94
330
1F
100
AcDbEntity
  8
0
  6
Continuous
 62
     7
370
    15
100
AcDbSpline
210
0.0
220
0.0
230
1.0
 70
     8
 71
     3
 72
    12
 73
     8
 74
     0
 42
0.000000001
 43
0.00000001
 40
0.0
 40
0.0
 40
0.0
 40
0.0
 40
0.4999999999999987
 40
0.4999999999999987
 40
0.7499999999999993
 40
0.7499999999999993
 40
1.0
 40
1.0
 40
1.0
 40
1.0
 10
187.5541018506387
 20
137.4071958427383
 30
0.0
 10
187.5234024672714
 20
137.2928601756745
 30
0.0
 10
187.4820523991649
 20
137.1815068228331
 30
0.0
 10
187.3822964709454
 20
137.0287700505844
 30
0.0
 10
187.3425995532127
 20
136.9809101647323
 30
0.0
 10
187.2453414015651
 20
136.9063070513828
 30
0.0
 10
187.1845652435744
 20
136.8795528138747
 30
0.0
 10
187.1210891487465
 20
136.8795528138747
 30
0.0
  0
ELLIPSE
  5
95
330
1F
100
AcDbEntity
  8
0
  6
Continuous
 62
     7
370
    15
100
AcDbEllipse
 10
174.5925883073
 20
129.3107428447
 30
0.0
 11
11.70927234972717
 21
24.67718644093742
 31
0.0
210
0.0
220
0.0
230
1.0
 40
0.3419987131
 41
5.203068809370461
 42
6.114256032590506
  0
SPLINE
  5
96
330
1F
100
AcDbEntity
  8
0
  6
Continuous
 62
     7
370
    15
100
AcDbSpline
210
0.0
220
0.0
230
1.0
 70
     8
 71
     3
 72
    12
 73
     8
 74
     0
 42
0.000000001
 43
0.00000001
 40
0.0
 40
0.0
 40
0.0
 40
0.0
 40
0.2500000000000009
 40
0.2500000000000009
 40
0.5000000000000019
 40
0.5000000000000019
 40
1.0
 40
1.0
 40
1.0
 40
1.0
 10
187.1210891487465
 20
153.137473960196
 30
0.0
 10
187.184754385277
 20
153.137473960196
 30
0.0
 10
187.2443606175004
 20
153.1292091845301
 30
0.0
 10
187.3430211424312
 20
153.104990402947
 30
0.0
 10
187.3819881324465
 20
153.0897330836378
 30
0.0
 10
187.4813749643709
 20
153.0400997293758
 30
0.0
 10
187.5234512117944
 20
153.0024600212018
 30
0.0
 10
187.5541018506387
 20
152.9633843219256
 30
0.0
  0
LINE
  5
97
330
1F
100
AcDbEntity
  8
0
  6
Continuous
 62
     7
370
    15
100
AcDbLine
 10
184.1766027759
 20
153.1374739602
 30
0.0
 11
187.1210891487
 21
153.1374739602
 31
0.0
  0
SPLINE
  5
98
330
1F
100
AcDbEntity
  8
0
  6
Continuous
 62
     7
370
    15
100
AcDbSpline
210
0.0
220
0.0
230
1.0
 70
     8
 71
     3
 72
    12
 73
     8
 74
     0
 42
0.000000001
 43
0.00000001
 40
0.0
 40
0.0
 40
0.0
 40
0.0
 40
0.5
 40
0.5
 40
0.75
 40
0.75
 40
1.0
 40
1.0
 40
1.0
 40
1.0
 10
183.7435900739871
 20
152.9633843219256
 30
0.0
 10
183.7742894573544
 20
153.0025221643215
 30
0.0
 10
183.8156395254609
 20
153.039681947047
 30
0.0
 10
183.9153954536804
 20
153.0896184526748
 30
0.0
 10
183.9550923714131
 20
153.1050713228185
 30
0.0
 10
184.0523505230607
 20
153.1289908664176
 30
0.0
 10
184.1131266810514
 20
153.137473960196
 30
0.0
 10
184.1766027758794
 20
153.137473960196
 30
0.0
  0
ELLIPSE
  5
99
330
1F
100
AcDbEntity
  8
0
  6
Continuous
 62
     7
370
    15
100
AcDbEllipse
 10
196.7051036173
 20
129.3107428447
 30
0.0
 11
-11.70927234972709
 21
24.67718644093745
 31
0.0
210
0.0
220
0.0
230
1.0
 40
0.3419987131
 41
0.1689292745891224
 42
1.08011649780914
  0
SPLINE
  5
9A
330
1F
100
AcDbEntity
  8
0
  6
Continuous
 62
     7
370
    15
100
AcDbSpline
210
0.0
220
0.0
230
1.0
 70
     8
 71
     3
 72
    12
 73
     8
 74
     0
 42
0.000000001
 43
0.00000001
 40
0.0
 40
0.0
 40
0.0
 40
0.0
 40
0.2500000000000016
 40
0.2500000000000016
 40
0.5000000000000032
 40
0.5000000000000032
 40
1.0
 40
1.0
 40
1.0
 40
1.0
 10
184.1766027758794
 20
105.484011729192
 30
0.0
 10
184.1129662216657
 20
105.484011729192
 30
0.0
 10
184.0533860947995
 20
105.4922685001237
 30
0.0
 10
183.9547493534331
 20
105.5164705621315
 30
0.0
 10
183.9157907290528
 20
105.5317173811657
 30
0.0
 10
183.8164117895449
 20
105.5813222532258
 30
0.0
 10
183.7744538843794
 20
105.6187539013446
 30
0.0
 10
183.743590073987
 20
105.6581013674623
 30
0.0
  0
LINE
  5
9B
330
1F
100
AcDbEntity
  8
0
  6
Continuous
 62
     7
370
    15
100
AcDbLine
 10
187.1210891487
 20
105.4840117292
 30
0.0
 11
184.1766027759
 21
105.4840117292
 31
0.0
  0
SPLINE
  5
9C
330
1F
100
AcDbEntity
  8
0
  6
Continuous
 62
     7
370
    15
100
AcDbSpline
210
0.0
220
0.0
230
1.0
 70
     8
 71
     3
 72
    12
 73
     8
 74
     0
 42
0.000000001
 43
0.00000001
 40
0.0
 40
0.0
 40
0.0
 40
0.0
 40
0.4999999999999996
 40
0.4999999999999996
 40
0.7499999999999998
 40
0.7499999999999998
 40
1.0
 40
1.0
 40
1.0
 40
1.0
 10
187.5541018506387
 20
105.6581013674623
 30
0.0
 10
187.5232501400745
 20
105.6187693270998
 30
0.0
 10
187.4813572766139
 20
105.5813575615715
 30
0.0
 10
187.3818363988206
 20
105.5316866369556
 30
0.0
 10
187.3422222340963
 20
105.5162975543478
 30
0.0
 10
187.2451192003169
 20
105.4924643386805
 30
0.0
 10
187.1846205276665
 20
105.4840117291918
 30
0.0
 10
187.1210891487466
 20
105.4840117291917
 30
0.0
  0
ELLIPSE
  5
9D
330
1F
100
AcDbEntity
  8
0
  6
Continuous
 62
     7
370
    15
100
AcDbEllipse
 10
174.5925883073
 20
129.3107428447
 30
0.0
 11
-11.7092723497272
 21
24.67718644093742
 31
0.0
210
0.0
220
0.0
230
1.0
 40
0.3419987131
 41
3.310521928178951
 42
4.221709151398943
  0
SPLINE
  5
9E
330
1F
100
AcDbEntity
  8
0
  6
Continuous
 62
     7
370
    15
100
AcDbSpline
210
0.0
220
0.0
230
1.0
 70
     8
 71
     3
 72
    12
 73
     8
 74
     0
 42
0.000000001
 43
0.00000001
 40
0.0
 40
0.0
 40
0.0
 40
0.0
 40
0.2499999999999974
 40
0.2499999999999974
 40
0.4999999999999949
 40
0.4999999999999949
 40
1.0
 40
1.0
 40
1.0
 40
1.0
 10
187.1210891487465
 20
121.7419328755132
 30
0.0
 10
187.1847257029602
 20
121.7419328755132
 30
0.0
 10
187.2443058298264
 20
121.7158859724552
 30
0.0
 10
187.3429425711928
 20
121.6403988135553
 30
0.0
 10
187.3819011955731
 20
121.5931797750246
 30
0.0
 10
187.4812801350809
 20
121.441440123931
 30
0.0
 10
187.5232380402464
 20
121.3292378997469
 30
0.0
 10
187.5541018506389
 20
121.2142898466496
 30
0.0
  0
LINE
  5
9F
330
1F
100
AcDbEntity
  8
0
  6
Continuous
 62
     7
370
    15
100
AcDbLine
 10
184.1766027759
 20
121.7419328755
 30
0.0
 11
187.1210891487
 21
121.7419328755
 31
0.0
  0
SPLINE
  5
A0
330
1F
100
AcDbEntity
  8
0
  6
Continuous
 62
     7
370
    15
100
AcDbSpline
210
0.0
220
0.0
230
1.0
 70
     8
 71
     3
 72
    12
 73
     8
 74
     0
 42
0.000000001
 43
0.00000001
 40
0.0
 40
0.0
 40
0.0
 40
0.0
 40
0.5000000000000004
 40
0.5000000000000004
 40
0.7500000000000002
 40
0.7500000000000002
 40
1.0
 40
1.0
 40
1.0
 40
1.0
 10
183.7435900739871
 20
121.2142898466496
 30
0.0
 10
183.7744417845514
 20
121.3291928355864
 30
0.0
 10
183.816334648012
 20
121.4413317316353
 30
0.0
 10
183.9158555258052
 20
121.5932740132362
 30
0.0
 10
183.9554696905295
 20
121.6409386227611
 30
0.0
 10
184.0525727243089
 20
121.7152749533765
 30
0.0
 10
184.1130713969594
 20
121.7419328755136
 30
0.0
 10
184.1766027758793
 20
121.7419328755136
 30
0.0
  0
ELLIPSE
  5
A1
330
1F
100
AcDbEntity
  8
0
  6
Continuous
 62
     7
370
    15
100
AcDbEllipse
 10
196.7051036173
 20
129.3107428447
 30
0.0
 11
11.70927234972706
 21
24.67718644093745
 31
0.0
210
0.0
220
0.0
230
1.0
 40
0.3419987131
 41
2.061476155780651
 42
2.972663379000662
  0
ELLIPSE
  5
A2
330
1F
100
AcDbEntity
  8
0
  6
Continuous
 62
     7
370
    15
100
AcDbEllipse
 10
239.1172046035
 20
129.3107428447
 30
0.0
 11
141.781995509807
 21
-0.6754078701926005
 31
0.0
210
0.0
220
0.0
230
1.0
 40
0.1762626822
 41
1.793765967245606
 42
1.796301052684808
  0
SPLINE
  5
A3
330
1F
100
AcDbEntity
  8
0
  6
Continuous
 62
     7
370
    15
100
AcDbSpline
210
0.0
220
0.0
230
1.0
 70
     8
 71
     3
 72
    18
 73
    14
 74
     0
 42
0.000000001
 43
0.00000001
 40
0.0
 40
0.0
 40
0.0
 40
0.0
 40
0.2499999999999966
 40
0.2499999999999966
 40
0.3749999999999974
 40
0.3749999999999974
 40
0.4999999999999982
 40
0.4999999999999982
 40
0.624999999999999
 40
0.624999999999999
 40
0.7499999999999999
 40
0.7499999999999999
 40
1.0
 40
1.0
 40
1.0
 40
1.0
 10
207.5310211584831
 20
153.8199031612765
 30
0.0
 10
207.2442763805128
 20
153.8096763384556
 30
0.0
 10
206.9722844455023
 20
153.7913772428385
 30
0.0
 10
206.5858224157874
 20
153.7502070375187
 30
0.0
 10
206.4609713546803
 20
153.7341220476161
 30
0.0
 10
206.2266457380648
 20
153.6978499600683
 30
0.0
 10
206.1160744899654
 20
153.6775578330682
 30
0.0
 10
205.908006294008
 20
153.6321736184041
 30
0.0
 10
205.8098778269531
 20
153.6068533497299
 30
0.0
 10
205.6319599919604
 20
153.5521639168362
 30
0.0
 10
205.551724436192
 20
153.5227632359435
 30
0.0
 10
205.3362979515984
 20
153.4278653311524
 30
0.0
 10
205.2260742325052
 20
153.3550362579804
 30
0.0
 10
205.1541882126166
 20
153.2746437992174
 30
0.0
  0
ELLIPSE
  5
A4
330
1F
100
AcDbEntity
  8
0
  6
Continuous
 62
     7
370
    15
100
AcDbEllipse
 10
207.2301145282
 20
129.3107428447
 30
0.0
 11
-0.1889046786406538
 21
24.99994879916483
 31
0.0
210
0.0
220
0.0
230
1.0
 40
0.2678431773
 41
0.2868824609032093
 42
2.798302566017135
  0
SPLINE
  5
A5
330
1F
100
AcDbEntity
  8
0
  6
Continuous
 62
     7
370
    15
100
AcDbSpline
210
0.0
220
0.0
230
1.0
 70
     8
 71
     3
 72
    16
 73
    12
 74
     0
 42
0.000000001
 43
0.00000001
 40
0.0
 40
0.0
 40
0.0
 40
0.0
 40
0.2500000000000001
 40
0.2500000000000001
 40
0.3749999999999999
 40
0.3749999999999999
 40
0.4999999999999999
 40
0.4999999999999999
 40
0.7499999999999999
 40
0.7499999999999999
 40
1.0
 40
1.0
 40
1.0
 40
1.0
 10
205.1541882126167
 20
105.7524517400235
 30
0.0
 10
205.2261112557532
 20
105.6579650204133
 30
0.0
 10
205.3336653324091
 20
105.5732434927702
 30
0.0
 10
205.5496676044575
 20
105.4588175176284
 30
0.0
 10
205.6313961230582
 20
105.4227084935423
 30
0.0
 10
205.8087721697194
 20
105.3566530322332
 30
0.0
 10
205.9048936825716
 20
105.3263955322521
 30
0.0
 10
206.215707782367
 20
105.2431995387358
 30
0.0
 10
206.455532230137
 20
105.197706811968
 30
0.0
 10
206.9665192363532
 20
105.1296994953638
 30
0.0
 10
207.2440664217662
 20
105.1060506709943
 30
0.0
 10
207.5310211584831
 20
105.0931673646901
 30
0.0
  0
ELLIPSE
  5
A6
330
1F
100
AcDbEntity
  8
0
  6
Continuous
 62
     7
370
    15
100
AcDbEllipse
 10
226.4036150259
 20
129.3107428447
 30
0.0
 11
20.71094926285767
 21
24.92696435777358
 31
0.0
210
0.0
220
0.0
230
1.0
 40
0.0922008664
 41
3.218049821375963
 42
3.468894822487747
  0
ELLIPSE
  5
A7
330
1F
100
AcDbEntity
  8
0
  6
Continuous
 62
     7
370
    15
100
AcDbEllipse
 10
203.7023218694
 20
145.9733955808
 30
0.0
 11
0.2204096004345501
 21
2.510932102575282
 31
0.0
210
0.0
220
0.0
230
1.0
 40
0.2532479969
 41
0.0
 42
6.283185307179586
  0
SPLINE
  5
A8
330
1F
100
AcDbEntity
  8
0
  6
Continuous
 62
     7
370
    15
100
AcDbSpline
210
0.0
220
0.0
230
1.0
 70
     8
 71
     3
 72
    16
 73
    12
 74
     0
 42
0.000000001
 43
0.00000001
 40
0.0
 40
0.0
 40
0.0
 40
0.0
 40
0.2500000000000002
 40
0.2500000000000002
 40
0.5000000000000004
 40
0.5000000000000004
 40
0.6250000000000004
 40
0.6250000000000004
 40
0.7500000000000004
 40
0.7500000000000004
 40
1.0
 40
1.0
 40
1.0
 40
1.0
 10
174.6079849341839
 20
111.9615855635014
 30
0.0
 10
174.6397128953765
 20
111.9607884466805
 30
0.0
 10
174.6743404857271
 20
111.9601973718252
 30
0.0
 10
174.7540342477907
 20
111.9591858463907
 30
0.0
 10
174.7990757077944
 20
111.9587857382158
 30
0.0
 10
174.8819284346449
 20
111.957827866312
 30
0.0
 10
174.9118428958447
 20
111.9574461850516
 30
0.0
 10
174.9778292264027
 20
111.9563699709931
 30
0.0
 10
175.0145628518644
 20
111.9556524050989
 30
0.0
 10
175.1270595714342
 20
111.9528915274173
 30
0.0
 10
175.1974009195325
 20
111.9504044355457
 30
0.0
 10
175.2538690734377
 20
111.9482311571386
 30
0.0
  0
SPLINE
  5
A9
330
1F
100
AcDbEntity
  8
0
  6
Continuous
 62
     7
370
    15
100
AcDbSpline
210
0.0
220
0.0
230
1.0
 70
     8
 71
     3
 72
    14
 73
    10
 74
     0
 42
0.000000001
 43
0.00000001
 40
0.0
 40
0.0
 40
0.0
 40
0.0
 40
0.1249999999999999
 40
0.1249999999999999
 40
0.2499999999999999
 40
0.2499999999999999
 40
0.5000000000000018
 40
0.5000000000000018
 40
1.0
 40
1.0
 40
1.0
 40
1.0
 10
175.253869073406
 20
111.9482311571613
 30
0.0
 10
175.2664608673508
 20
111.9477465393389
 30
0.0
 10
175.2813319756449
 20
111.9460363614066
 30
0.0
 10
175.3135160670781
 20
111.9379208126557
 30
0.0
 10
175.3291201985539
 20
111.9317050243944
 30
0.0
 10
175.365007338266
 20
111.9134859126928
 30
0.0
 10
175.3788593795347
 20
111.9017208843592
 30
0.0
 10
175.4123491214673
 20
111.8699257479419
 30
0.0
 10
175.423011382043
 20
111.8521323160987
 30
0.0
 10
175.431149338938
 20
111.8357011852543
 30
0.0
  0
LINE
  5
AA
330
1F
100
AcDbEntity
  8
0
  6
Continuous
 62
     7
370
    15
100
AcDbLine
 10
175.4488459623
 20
123.3262626121
 30
0.0
 11
175.4488459623
 21
111.4709225658
 31
0.0
  0
SPLINE
  5
AB
330
1F
100
AcDbEntity
  8
0
  6
Continuous
 62
     7
370
    15
100
AcDbSpline
210
0.0
220
0.0
230
1.0
 70
     8
 71
     3
 72
    16
 73
    12
 74
     0
 42
0.000000001
 43
0.00000001
 40
0.0
 40
0.0
 40
0.0
 40
0.0
 40
0.4999999999999978
 40
0.4999999999999978
 40
0.7499999999999967
 40
0.7499999999999967
 40
0.8749999999999972
 40
0.8749999999999972
 40
0.9374999999999986
 40
0.9374999999999986
 40
1.0
 40
1.0
 40
1.0
 40
1.0
 10
175.4488459623129
 20
123.3262626121194
 30
0.0
 10
175.4488459623129
 20
123.4407923428183
 30
0.0
 10
175.4447886601979
 20
123.5561084180078
 30
0.0
 10
175.4191314174031
 20
123.7310315078354
 30
0.0
 10
175.407815971661
 20
123.7908608108303
 30
0.0
 10
175.3737846043523
 20
123.8754519970785
 30
0.0
 10
175.3599056231485
 20
123.9041215832225
 30
0.0
 10
175.3239699413812
 20
123.9339293701688
 30
0.0
 10
175.3090196221184
 20
123.9402645235284
 30
0.0
 10
175.2791211093765
 20
123.9390390606582
 30
0.0
 10
175.2655882490113
 20
123.9324404746234
 30
0.0
 10
175.2538690734373
 20
123.9237927865669
 30
0.0
  0
SPLINE
  5
AC
330
1F
100
AcDbEntity
  8
0
  6
Continuous
 62
     7
370
    15
100
AcDbSpline
210
0.0
220
0.0
230
1.0
 70
     8
 71
     3
 72
    14
 73
    10
 74
     0
 42
0.000000001
 43
0.00000001
 40
0.0
 40
0.0
 40
0.0
 40
0.0
 40
0.25
 40
0.25
 40
0.5
 40
0.5
 40
0.75
 40
0.75
 40
1.0
 40
1.0
 40
1.0
 40
1.0
 10
175.2538690734441
 20
123.9237927865583
 30
0.0
 10
175.1974094075604
 20
123.8821306768595
 30
0.0
 10
175.1265369326982
 20
123.8512971962713
 30
0.0
 10
174.9780705748162
 20
123.8570117048844
 30
0.0
 10
174.9088753716084
 20
123.8925826323174
 30
0.0
 10
174.7991581855389
 20
123.9795265447913
 30
0.0
 10
174.7539122966069
 20
124.0319588581564
 30
0.0
 10
174.67429516564
 20
124.1405119396749
 30
0.0
 10
174.6396925461831
 20
124.1974950259174
 30
0.0
 10
174.6079849341843
 20
124.2560611085753
 30
0.0
  0
SPLINE
  5
AD
330
1F
100
AcDbEntity
  8
0
  6
Continuous
 62
     7
370
    15
100
AcDbSpline
210
0.0
220
0.0
230
1.0
 70
     8
 71
     3
 72
    10
 73
     6
 74
     0
 42
0.000000001
 43
0.00000001
 40
0.0
 40
0.0
 40
0.0
 40
0.0
 40
0.5
 40
0.5
 40
1.0
 40
1.0
 40
1.0
 40
1.0
 10
174.3275256187533
 20
125.1088797002216
 30
0.0
 10
174.3584041852371
 20
124.95925123136
 30
0.0
 10
174.3943968749269
 20
124.8127558644585
 30
0.0
 10
174.4837371089442
 20
124.5275642389626
 30
0.0
 10
174.5361954042575
 20
124.3886611777265
 30
0.0
 10
174.6079849341844
 20
124.2560611085751
 30
0.0
  0
SPLINE
  5
AE
330
1F
100
AcDbEntity
  8
0
  6
Continuous
 62
     7
370
    15
100
AcDbSpline
210
0.0
220
0.0
230
1.0
 70
     8
 71
     3
 72
    10
 73
     6
 74
     0
 42
0.000000001
 43
0.00000001
 40
0.0
 40
0.0
 40
0.0
 40
0.0
 40
0.5
 40
0.5
 40
1.0
 40
1.0
 40
1.0
 40
1.0
 10
174.6079849341837
 20
134.3654245808115
 30
0.0
 10
174.5361954042571
 20
134.2328245116603
 30
0.0
 10
174.4837371089438
 20
134.0939214504244
 30
0.0
 10
174.3943968749267
 20
133.8087298249289
 30
0.0
 10
174.358404185237
 20
133.6622344580277
 30
0.0
 10
174.3275256187533
 20
133.5126059891664
 30
0.0
  0
SPLINE
  5
AF
330
1F
100
AcDbEntity
  8
0
  6
Continuous
 62
     7
370
    15
100
AcDbSpline
210
0.0
220
0.0
230
1.0
 70
     8
 71
     3
 72
    14
 73
    10
 74
     0
 42
0.000000001
 43
0.00000001
 40
0.0
 40
0.0
 40
0.0
 40
0.0
 40
0.25
 40
0.25
 40
0.5
 40
0.5
 40
0.75
 40
0.75
 40
1.0
 40
1.0
 40
1.0
 40
1.0
 10
174.6079849341831
 20
134.3654245808104
 30
0.0
 10
174.6396936336684
 20
134.4239926721289
 30
0.0
 10
174.6743014523091
 20
134.480986934069
 30
0.0
 10
174.7539598627984
 20
134.5895870688329
 30
0.0
 10
174.7990221326933
 20
134.6419152042115
 30
0.0
 10
174.9096039782717
 20
134.7294162155738
 30
0.0
 10
174.9772480990869
 20
134.764461671828
 30
0.0
 10
175.127496389484
 20
134.770206060584
 30
0.0
 10
175.1974487877144
 20
134.739325953534
 30
0.0
 10
175.2538690734379
 20
134.697692902821
 30
0.0
  0
SPLINE
  5
B0
330
1F
100
AcDbEntity
  8
0
  6
Continuous
 62
     7
370
    15
100
AcDbSpline
210
0.0
220
0.0
230
1.0
 70
     8
 71
     3
 72
    16
 73
    12
 74
     0
 42
0.000000001
 43
0.00000001
 40
0.0
 40
0.0
 40
0.0
 40
0.0
 40
0.0625000000000007
 40
0.0625000000000007
 40
0.1250000000000015
 40
0.1250000000000015
 40
0.2500000000000037
 40
0.2500000000000037
 40
0.5000000000000048
 40
0.5000000000000048
 40
1.0
 40
1.0
 40
1.0
 40
1.0
 10
175.253869073406
 20
134.6976929027676
 30
0.0
 10
175.2656033078529
 20
134.6890341026233
 30
0.0
 10
175.2791350633319
 20
134.682430017388
 30
0.0
 10
175.3091225237617
 20
134.6812330502138
 30
0.0
 10
175.32411723017
 20
134.6876547972798
 30
0.0
 10
175.3598576525648
 20
134.7173719506891
 30
0.0
 10
175.373870989566
 20
134.7461793480724
 30
0.0
 10
175.4080150783473
 20
134.8312590696983
 30
0.0
 10
175.4189869824657
 20
134.8896340189681
 30
0.0
 10
175.444832522732
 20
135.0653495437567
 30
0.0
 10
175.4488459623129
 20
135.1811445516211
 30
0.0
 10
175.4488459623129
 20
135.2952230772685
 30
0.0
  0
LINE
  5
B1
330
1F
100
AcDbEntity
  8
0
  6
Continuous
 62
     7
370
    15
100
AcDbLine
 10
175.4488459623
 20
147.1505631236
 30
0.0
 11
175.4488459623
 21
135.2952230773
 31
0.0
  0
SPLINE
  5
B2
330
1F
100
AcDbEntity
  8
0
  6
Continuous
 62
     7
370
    15
100
AcDbSpline
210
0.0
220
0.0
230
1.0
 70
     8
 71
     3
 72
    16
 73
    12
 74
     0
 42
0.000000001
 43
0.00000001
 40
0.0
 40
0.0
 40
0.0
 40
0.0
 40
0.4999999999999969
 40
0.4999999999999969
 40
0.749999999999998
 40
0.749999999999998
 40
0.8749999999999993
 40
0.8749999999999993
 40
0.9374999999999996
 40
0.9374999999999996
 40
1.0
 40
1.0
 40
1.0
 40
1.0
 10
175.448845962313
 20
146.8574973103615
 30
0.0
 10
175.4488459623128
 20
146.8354822957822
 30
0.0
 10
175.4447214194588
 20
146.8101286610785
 30
0.0
 10
175.4188049738257
 20
146.7629681588899
 30
0.0
 10
175.4075273928059
 20
146.7457691706612
 30
0.0
 10
175.3737920142645
 20
146.7157912050919
 30
0.0
 10
175.3594031990202
 20
146.70443979655
 30
0.0
 10
175.3241565095811
 20
146.6877519370726
 30
0.0
 10
175.3089510851241
 20
146.6821889101874
 30
0.0
 10
175.2793045059548
 20
146.6752193271522
 30
0.0
 10
175.2655991699574
 20
146.6737059860968
 30
0.0
 10
175.2538690734336
 20
146.6732545322469
 30
0.0
  0
SPLINE
  5
B3
330
1F
100
AcDbEntity
  8
0
  6
Continuous
 62
     7
370
    15
100
AcDbSpline
210
0.0
220
0.0
230
1.0
 70
     8
 71
     3
 72
    14
 73
    10
 74
     0
 42
0.000000001
 43
0.00000001
 40
0.0
 40
0.0
 40
0.0
 40
0.0
 40
0.25
 40
0.25
 40
0.5
 40
0.5
 40
0.75
 40
0.75
 40
1.0
 40
1.0
 40
1.0
 40
1.0
 10
175.2538690734441
 20
146.6732545322495
 30
0.0
 10
175.1974219913856
 20
146.6710820648302
 30
0.0
 10
175.1265716073424
 20
146.6685839669127
 30
0.0
 10
174.9781351725255
 20
146.6649375081245
 30
0.0
 10
174.9089459208385
 20
146.6639697612733
 30
0.0
 10
174.7992343725975
 20
146.6627022019106
 30
0.0
 10
174.753992723255
 20
146.6622993609823
 30
0.0
 10
174.6743447050711
 20
146.6612883260546
 30
0.0
 10
174.6397177893051
 20
146.66069736566
 30
0.0
 10
174.6079849341837
 20
146.6599001258866
 30
0.0
  0
SPLINE
  5
B4
330
1F
100
AcDbEntity
  8
0
  6
Continuous
 62
     7
370
    15
100
AcDbSpline
210
0.0
220
0.0
230
1.0
 70
     8
 71
     3
 72
    18
 73
    14
 74
     0
 42
0.000000001
 43
0.00000001
 40
0.0
 40
0.0
 40
0.0
 40
0.0
 40
0.25
 40
0.25
 40
0.375
 40
0.375
 40
0.5
 40
0.5
 40
0.625
 40
0.625
 40
0.75
 40
0.75
 40
1.0
 40
1.0
 40
1.0
 40
1.0
 10
174.3275256187533
 20
133.5126059891664
 30
0.0
 10
174.1922400124509
 20
132.8570516537451
 30
0.0
 10
174.091072266208
 20
132.1774305599475
 30
0.0
 10
173.988210923339
 20
131.1220665534535
 30
0.0
 10
173.9621080778158
 20
130.7632524888689
 30
0.0
 10
173.9272180942709
 20
130.0371395447459
 30
0.0
 10
173.9186318359809
 20
129.6750498657298
 30
0.0
 10
173.9185321264153
 20
128.9527402083114
 30
0.0
 10
173.9270204975638
 20
128.5925204062031
 30
0.0
 10
173.9611638770844
 20
127.8739543371091
 30
0.0
 10
173.9869608589383
 20
127.5141886211937
 30
0.0
 10
174.0903619903262
 20
126.4475440341994
 30
0.0
 10
174.1922199824976
 20
125.764531094917
 30
0.0
 10
174.3275256187533
 20
125.1088797002215
 30
0.0
  0
LINE
  5
B5
330
1F
100
AcDbEntity
  8
0
  6
Continuous
 62
     7
370
    15
100
AcDbLine
 10
173.4488459623
 20
134.4508953325
 30
0.0
 11
173.4488459623
 21
124.1705903569
 31
0.0
  0
LINE
  5
B6
330
1F
100
AcDbEntity
  8
0
  6
Continuous
 62
     7
370
    15
100
AcDbLine
 10
147.1488459623
 20
134.1205215612
 30
0.0
 11
147.1488459623
 21
124.5009641282
 31
0.0
  0
LINE
  5
B7
330
1F
100
AcDbEntity
  8
0
  6
Continuous
 62
     7
370
    15
100
AcDbLine
 10
145.6488459623
 20
133.6875088593
 30
0.0
 11
145.6488459623
 21
124.9339768301
 31
0.0
  0
LINE
  5
B8
330
1F
100
AcDbEntity
  8
0
  6
Continuous
 62
     7
370
    15
100
AcDbLine
 10
147.1488459623
 20
134.1205215612
 30
0.0
 11
147.1488459623
 21
146.1700940866
 31
0.0
  0
LINE
  5
B9
330
1F
100
AcDbEntity
  8
0
  6
Continuous
 62
     7
370
    15
100
AcDbLine
 10
147.1488459623
 20
146.1700940866
 30
0.0
 11
173.4488459623
 21
146.8308416293
 31
0.0
  0
LINE
  5
BA
330
1F
100
AcDbEntity
  8
0
  6
Continuous
 62
     7
370
    15
100
AcDbLine
 10
173.4488459623
 20
134.4508953325
 30
0.0
 11
173.4488459623
 21
146.8308416293
 31
0.0
  0
LINE
  5
BB
330
1F
100
AcDbEntity
  8
0
  6
Continuous
 62
     7
370
    15
100
AcDbLine
 10
147.1488459623
 20
112.4513916027
 30
0.0
 11
147.1488459623
 21
124.5009641282
 31
0.0
  0
LINE
  5
BC
330
1F
100
AcDbEntity
  8
0
  6
Continuous
 62
     7
370
    15
100
AcDbLine
 10
173.4488459623
 20
111.7906440601
 30
0.0
 11
173.4488459623
 21
124.1705903569
 31
0.0
  0
LINE
  5
BD
330
1F
100
AcDbEntity
  8
0
  6
Continuous
 62
     7
370
    15
100
AcDbLine
 10
147.1488459623
 20
112.4513916027
 30
0.0
 11
173.4488459623
 21
111.7906440601
 31
0.0
  0
ARC
  5
BE
330
1F
100
AcDbEntity
  8
0
  6
Continuous
 62
     7
370
    15
100
AcDbCircle
 10
173.6487828732
 20
146.8358647404
 30
0.0
 40
0.2000000000000343
100
AcDbArc
 50
181.4391666667
 51
271.4391666667
  0
ARC
  5
BF
330
1F
100
AcDbEntity
  8
0
  6
Continuous
 62
     7
370
    15
100
AcDbCircle
 10
173.6487828732
 20
111.785620949
 30
0.0
 40
0.2000000000000347
100
AcDbArc
 50
88.5608333333
 51
178.5608333333
  0
LINE
  5
C0
330
1F
100
AcDbEntity
  8
0
  6
Continuous
 62
     7
370
    15
100
AcDbLine
 10
173.6538059844
 20
111.9855578599
 30
0.0
 11
174.6079849342
 21
111.9615855635
 31
0.0
  0
LINE
  5
C1
330
1F
100
AcDbEntity
  8
0
  6
Continuous
 62
     7
370
    15
100
AcDbLine
 10
173.6538059844
 20
146.6359278294
 30
0.0
 11
174.6079849342
 21
146.6599001259
 31
0.0
  0
LINE
  5
C2
330
1F
100
AcDbEntity
  8
0
  6
Continuous
 62
     7
370
    15
100
AcDbLine
 10
145.6488459623
 20
145.3040686829
 30
0.0
 11
147.1488459623
 21
146.1700940866
 31
0.0
  0
LINE
  5
C3
330
1F
100
AcDbEntity
  8
0
  6
Continuous
 62
     7
370
    15
100
AcDbLine
 10
145.6488459623
 20
133.6875088593
 30
0.0
 11
145.6488459623
 21
145.3040686829
 31
0.0
  0
LINE
  5
C4
330
1F
100
AcDbEntity
  8
0
  6
Continuous
 62
     7
370
    15
100
AcDbLine
 10
145.6488459623
 20
113.3174170065
 30
0.0
 11
147.1488459623
 21
112.4513916027
 31
0.0
  0
LINE
  5
C5
330
1F
100
AcDbEntity
  8
0
  6
Continuous
 62
     7
370
    15
100
AcDbLine
 10
145.6488459623
 20
113.3174170065
 30
0.0
 11
145.6488459623
 21
124.9339768301
 31
0.0
  0
LINE
  5
C6
330
1F
100
AcDbEntity
  8
0
  6
Continuous
 62
     7
370
    15
100
AcDbLine
 10
214.460147017
 20
163.5058528647
 30
0.0
 11
222.2240803751
 21
149.8197192562
 31
0.0
  0
LINE
  5
C7
330
1F
100
AcDbEntity
  8
0
  6
Continuous
 62
     7
370
    15
100
AcDbLine
 10
222.2240803751
 20
149.8197192562
 30
0.0
 11
220.4465775689
 21
146.7027754879
 31
0.0
  0
ARC
  5
C8
330
1F
100
AcDbEntity
  8
0
  6
Continuous
 62
     7
370
    15
100
AcDbCircle
 10
222.361787093
 20
145.5629639899
 30
0.0
 40
2.228721106859172
100
AcDbArc
 50
149.2415698254
 51
329.6201468082
  0
LINE
  5
C9
330
1F
100
AcDbEntity
  8
0
  6
Continuous
 62
     7
370
    15
100
AcDbLine
 10
224.2844859627
 20
144.4358318643
 30
0.0
 11
224.782685971
 21
145.3094515322
 31
0.0
  0
LINE
  5
CA
330
1F
100
AcDbEntity
  8
0
  6
Continuous
 62
     7
370
    15
100
AcDbLine
 10
232.1672891912
 20
157.3332266843
 30
0.0
 11
231.6725884475
 21
157.3355100756
 31
0.0
  0
LINE
  5
CB
330
1F
100
AcDbEntity
  8
0
  6
Continuous
 62
     7
370
    15
100
AcDbLine
 10
232.1672891912
 20
157.3332266843
 30
0.0
 11
232.1672891912
 21
136.1501978069
 31
0.0
  0
SPLINE
  5
CC
330
1F
100
AcDbEntity
  8
0
  6
Continuous
 62
     7
370
    15
100
AcDbSpline
210
0.0
220
0.0
230
1.0
 70
     8
 71
     3
 72
    10
 73
     6
 74
     0
 42
0.000000001
 43
0.00000001
 40
0.0
 40
0.0
 40
0.0
 40
0.0
 40
0.5
 40
0.5
 40
1.0
 40
1.0
 40
1.0
 40
1.0
 10
208.8474448006232
 20
154.6235856077098
 30
0.0
 10
208.7910458314728
 20
154.4066527485948
 30
0.0
 10
208.6639738974765
 20
154.2080465632871
 30
0.0
 10
208.3205644407224
 20
153.9252755556207
 30
0.0
 10
208.1052901239926
 20
153.8401970753978
 30
0.0
 10
207.881518974334
 20
153.8323213759646
 30
0.0
  0
SPLINE
  5
CD
330
1F
100
AcDbEntity
  8
0
  6
Continuous
 62
     7
370
    15
100
AcDbSpline
210
0.0
220
0.0
230
1.0
 70
     8
 71
     3
 72
     8
 73
     4
 74
     0
 42
0.000000001
 43
0.00000001
 40
0.0
 40
0.0
 40
0.0
 40
0.0
 40
1.0
 40
1.0
 40
1.0
 40
1.0
 10
211.129739048314
 20
163.3298265484053
 30
0.0
 10
210.3645668476331
 20
160.4289556351931
 30
0.0
 10
209.6023554910364
 20
157.5272722692698
 30
0.0
 10
208.8474448006231
 20
154.6235856077095
 30
0.0
  0
SPLINE
  5
CE
330
1F
100
AcDbEntity
  8
0
  6
Continuous
 62
     7
370
    15
100
AcDbSpline
210
0.0
220
0.0
230
1.0
 70
     8
 71
     3
 72
     8
 73
     4
 74
     0
 42
0.000000001
 43
0.00000001
 40
0.0
 40
0.0
 40
0.0
 40
0.0
 40
1.0
 40
1.0
 40
1.0
 40
1.0
 10
211.193674822323
 20
163.5058528646776
 30
0.0
 10
211.167190869304
 20
163.4494172224076
 30
0.0
 10
211.1458142491214
 20
163.3907698006626
 30
0.0
 10
211.129739048314
 20
163.3298265484053
 30
0.0
  0
LINE
  5
CF
330
1F
100
AcDbEntity
  8
0
  6
Continuous
 62
     7
370
    15
100
AcDbLine
 10
211.1936748223
 20
163.5058528647
 30
0.0
 11
214.460147017
 21
163.5058528647
 31
0.0
  0
LINE
  5
D0
330
1F
100
AcDbEntity
  8
0
  6
Continuous
 62
     7
370
    15
100
AcDbLine
 10
232.1672891912
 20
136.1501978069
 30
0.0
 11
207.5310211585
 21
105.0931673647
 31
0.0
  0
LINE
  5
D1
330
1F
100
AcDbEntity
  8
0
  6
Continuous
 62
     7
370
    15
100
AcDbLine
 10
211.1297390483
 20
163.4696283532
 30
0.0
 11
211.0939809118
 21
163.4030615992
 31
0.0
  0
SPLINE
  5
D2
330
1F
100
AcDbEntity
  8
0
  6
Continuous
 62
     7
370
    15
100
AcDbSpline
210
0.0
220
0.0
230
1.0
 70
     8
 71
     3
 72
     8
 73
     4
 74
     0
 42
0.000000001
 43
0.00000001
 40
0.0
 40
0.0
 40
0.0
 40
0.0
 40
1.0
 40
1.0
 40
1.0
 40
1.0
 10
211.193674822323
 20
163.5058528646776
 30
0.0
 10
211.1615132033524
 20
163.4937401068469
 30
0.0
 10
211.1426108598788
 20
163.4816736913757
 30
0.0
 10
211.129739048314
 20
163.4696283531557
 30
0.0
  0
ARC
  5
D3
330
1F
100
AcDbEntity
  8
0
  6
Continuous
 62
     7
370
    15
100
AcDbCircle
 10
220.8663300468
 20
145.3079852882
 30
0.0
 40
2.213888679330762
100
AcDbArc
 50
298.699456395
 51
330.3903925067
  0
LINE
  5
D4
330
1F
100
AcDbEntity
  8
0
  6
Continuous
 62
     7
370
    15
100
AcDbLine
 10
222.7911116348
 20
144.2141302142
 30
0.0
 11
223.6687325624
 21
145.7530842297
 31
0.0
  0
LINE
  5
D5
330
1F
100
AcDbEntity
  8
0
  6
Continuous
 62
     7
370
     0
100
AcDbLine
 10
222.7080745193
 20
147.4465163758
 30
0.0
 11
222.0100088451
 21
147.342883744
 31
0.0
  0
CIRCLE
  5
D6
330
1F
100
AcDbEntity
  8
0
  6
Continuous
 62
     7
370
     0
100
AcDbCircle
 10
224.8542825939
 20
158.0531064977
 30
0.0
 40
3.423380664813897
  0
LINE
  5
D7
330
1F
100
AcDbEntity
  8
0
  6
Continuous
 62
     7
370
     0
100
AcDbLine
 10
175.9488459623
 20
104.3107428447
 30
0.0
 11
175.9488459623
 21
154.3107428447
 31
0.0
  0
LINE
  5
D8
330
1F
100
AcDbEntity
  8
0
  6
Continuous
 62
     7
370
     0
100
AcDbLine
 10
207.8815189743
 20
153.832321376
 30
0.0
 11
207.8815189743
 21
154.3107428447
 31
0.0
  0
LINE
  5
D9
330
1F
100
AcDbEntity
  8
0
  6
Continuous
 62
     7
370
     0
100
AcDbLine
 10
205.1541882126
 20
105.75245174
 30
0.0
 11
205.1541882126
 21
153.2746437992
 31
0.0
  0
LINE
  5
DA
330
1F
100
AcDbEntity
  8
0
  6
Continuous
 62
     7
370
     0
100
AcDbLine
 10
187.5541018506
 20
152.9633843219
 30
0.0
 11
187.5541018506
 21
137.4071958427
 31
0.0
  0
LINE
  5
DB
330
1F
100
AcDbEntity
  8
0
  6
Continuous
 62
     7
370
     0
100
AcDbLine
 10
187.1210891487
 20
153.1374739602
 30
0.0
 11
187.1210891487
 21
136.8795528139
 31
0.0
  0
LINE
  5
DC
330
1F
100
AcDbEntity
  8
0
  6
Continuous
 62
     7
370
     0
100
AcDbLine
 10
183.743590074
 20
121.2142898466
 30
0.0
 11
183.743590074
 21
105.6581013675
 31
0.0
  0
LINE
  5
DD
330
1F
100
AcDbEntity
  8
0
  6
Continuous
 62
     7
370
     0
100
AcDbLine
 10
184.1766027759
 20
121.7419328755
 30
0.0
 11
184.1766027759
 21
105.4840117292
 31
0.0
  0
LINE
  5
DE
330
1F
100
AcDbEntity
  8
0
  6
Continuous
 62
     7
370
     0
100
AcDbLine
 10
187.1210891487
 20
121.7419328755
 30
0.0
 11
187.1210891487
 21
105.4840117292
 31
0.0
  0
LINE
  5
DF
330
1F
100
AcDbEntity
  8
0
  6
Continuous
 62
     7
370
     0
100
AcDbLine
 10
187.5541018506
 20
121.2142898466
 30
0.0
 11
187.5541018506
 21
105.6581013675
 31
0.0
  0
LINE
  5
E0
330
1F
100
AcDbEntity
  8
0
  6
Continuous
 62
     7
370
     0
100
AcDbLine
 10
184.1766027759
 20
153.1374739602
 30
0.0
 11
184.1766027759
 21
136.8795528139
 31
0.0
  0
LINE
  5
E1
330
1F
100
AcDbEntity
  8
0
  6
Continuous
 62
     7
370
     0
100
AcDbLine
 10
183.743590074
 20
152.9633843219
 30
0.0
 11
183.743590074
 21
137.4071958427
 31
0.0
  0
LINE
  5
E2
330
1F
100
AcDbEntity
  8
0
  6
Continuous
 62
     7
370
     0
100
AcDbLine
 10
174.3275256188
 20
125.1088797002
 30
0.0
 11
174.3275256188
 21
133.5126059892
 31
0.0
  0
LINE
  5
E3
330
1F
100
AcDbEntity
  8
0
  6
Continuous
 62
     7
370
     0
100
AcDbLine
 10
173.6538059844
 20
124.2680472568
 30
0.0
 11
174.6079849342
 21
124.2560611086
 31
0.0
  0
LINE
  5
E4
330
1F
100
AcDbEntity
  8
0
  6
Continuous
 62
     7
370
     0
100
AcDbLine
 10
173.6538059844
 20
134.3534384326
 30
0.0
 11
173.6538059844
 21
124.2680472568
 31
0.0
  0
LINE
  5
E5
330
1F
100
AcDbEntity
  8
0
  6
Continuous
 62
     7
370
     0
100
AcDbLine
 10
173.6538059844
 20
134.3534384326
 30
0.0
 11
174.6079849342
 21
134.3654245808
 31
0.0
  0
LINE
  5
E6
330
1F
100
AcDbEntity
  8
0
  6
Continuous
 62
     7
370
     0
100
AcDbLine
 10
147.1488459623
 20
124.5009641282
 30
0.0
 11
173.4488459623
 21
124.1705903569
 31
0.0
  0
LINE
  5
E7
330
1F
100
AcDbEntity
  8
0
  6
Continuous
 62
     7
370
     0
100
AcDbLine
 10
147.1488459623
 20
134.1205215612
 30
0.0
 11
173.4488459623
 21
134.4508953325
 31
0.0
  0
LWPOLYLINE
  5
E8
330
1F
100
AcDbEntity
  8
0
  6
Continuous
 62
     7
370
     0
100
AcDbPolyline
 90
        9
 70
   128
 43
0.0
 10
173.4488459623
 20
124.1705903569
 10
173.4536676544
 20
124.1900449762
 10
173.4659875148
 20
124.2086554478
 10
173.4853320984
 20
124.2257065816
 10
173.5109580037
 20
124.2405431121
 10
173.5418804413
 20
124.2525948797
 10
173.5769110795
 20
124.2613987419
 10
173.6147037104
 20
124.2666163711
 10
173.6538059844
 20
124.2680472568
  0
LWPOLYLINE
  5
E9
330
1F
100
AcDbEntity
  8
0
  6
Continuous
 62
     7
370
     0
100
AcDbPolyline
 90
        9
 70
   128
 43
0.0
 10
173.4488459623
 20
134.4508953325
 10
173.4536676544
 20
134.4314407132
 10
173.4659875148
 20
134.4128302416
 10
173.4853320984
 20
134.3957791078
 10
173.5109580037
 20
134.3809425773
 10
173.5418804413
 20
134.3688908096
 10
173.5769110795
 20
134.3600869475
 10
173.6147037104
 20
134.3548693183
 10
173.6538059844
 20
134.3534384326
  0
LINE
  5
EA
330
1F
100
AcDbEntity
  8
0
  6
Continuous
 62
     7
370
     0
100
AcDbLine
 10
145.6488459623
 20
124.9339768301
 30
0.0
 11
147.1488459623
 21
124.5009641282
 31
0.0
  0
LINE
  5
EB
330
1F
100
AcDbEntity
  8
0
  6
Continuous
 62
     7
370
     0
100
AcDbLine
 10
145.6488459623
 20
133.6875088593
 30
0.0
 11
147.1488459623
 21
134.1205215612
 31
0.0
  0
LINE
  5
EC
330
1F
100
AcDbEntity
  8
0
  6
Continuous
 62
     7
370
     0
100
AcDbLine
 10
173.6538059844
 20
134.3534384326
 30
0.0
 11
173.6538059844
 21
146.6359278294
 31
0.0
  0
LINE
  5
ED
330
1F
100
AcDbEntity
  8
0
  6
Continuous
 62
     7
370
     0
100
AcDbLine
 10
173.6538059844
 20
111.9855578599
 30
0.0
 11
173.6538059844
 21
124.2680472568
 31
0.0
  0
LINE
  5
EE
330
1F
100
AcDbEntity
  8
0
  6
Continuous
 62
     7
370
     0
100
AcDbLine
 10
175.2538690734
 20
111.9482311571
 30
0.0
 11
175.2538690734
 21
123.9237927866
 31
0.0
  0
LINE
  5
EF
330
1F
100
AcDbEntity
  8
0
  6
Continuous
 62
     7
370
     0
100
AcDbLine
 10
175.2538690734
 20
134.6976929028
 30
0.0
 11
175.2538690734
 21
146.6732545322
 31
0.0
  0
LINE
  5
F0
330
1F
100
AcDbEntity
  8
0
  6
Continuous
 62
     7
370
     0
100
AcDbLine
 10
207.5310211585
 20
105.0931673647
 30
0.0
 11
207.5310211585
 21
153.8199031613
 31
0.0
  0
LINE
  5
F1
330
1F
100
AcDbEntity
  8
0
  6
Continuous
 62
     7
370
     0
100
AcDbLine
 10
208.8474448006
 20
154.6235856077
 30
0.0
 11
208.8474448006
 21
155.0519237996
 31
0.0
  0
LINE
  5
F2
330
1F
100
AcDbEntity
  8
0
  6
Continuous
 62
     7
370
     0
100
AcDbLine
 10
211.1297390483
 20
163.3298265484
 30
0.0
 11
211.1297390483
 21
163.4696283532
 31
0.0
  0
LINE
  5
F3
330
1F
100
AcDbEntity
  8
0
  6
Continuous
 62
     7
370
     0
100
AcDbLine
 10
222.7911116348
 20
144.2141302142
 30
0.0
 11
224.2844859627
 21
144.4358318643
 31
0.0
  0
LINE
  5
F4
330
1F
100
AcDbEntity
  8
VERMASSUNG
  6
CENTERX2
100
AcDbLine
 10
235.6488459623
 20
165.9627204465
 30
0.0
 11
235.6488459623
 21
129.3107428447
 31
0.0
  0
LINE
  5
F5
330
1F
100
AcDbEntity
  8
VERMASSUNG
  6
CENTERX2
100
AcDbLine
 10
142.121273845
 20
129.3107428447
 30
0.0
 11
235.6488459623
 21
129.3107428447
 31
0.0
  0
DIMENSION
  5
F6
330
1F
100
AcDbEntity
  8
VERMASSUNG
100
AcDbDimension
  2
_D
 10
235.6488459623
 20
170.1081705271
 30
0.0
 11
205.6488459623
 21
170.1081705271
 31
0.0
 70
   160
  1
<>
 71
     2
 42
-1.0
  3
SLDDIMSTYLE0
100
AcDbAlignedDimension
 13
175.6488459623
 23
154.0107428447
 33
0.0
 14
235.6488459623
 24
165.9627204465
 34
0.0
100
AcDbRotatedDimension
  0
DIMENSION
  5
103
330
1F
100
AcDbEntity
  8
VERMASSUNG
100
AcDbDimension
  2
_D_1
 10
245.4139850682
 20
129.3107428447
 30
0.0
 11
245.4139850682
 21
146.8094138062
 31
0.0
 70
   160
  1
<>
 71
     2
 42
-1.0
  3
SLDDIMSTYLE0
100
AcDbAlignedDimension
 13
235.6488459623
 23
164.3080847677
 33
0.0
 14
235.6488459623
 24
129.3107428447
 34
0.0
 50
90.0
100
AcDbRotatedDimension
  0
DIMENSION
  5
10F
330
1F
100
AcDbEntity
  8
VERMASSUNG
100
AcDbDimension
  2
_D_2
 10
235.6488459623
 20
180.9531923736
 30
0.0
 11
190.6488459623
 21
180.9531923736
 31
0.0
 70
   160
  1
(<>)
 71
     2
 42
-1.0
  3
SLDDIMSTYLE1
100
AcDbAlignedDimension
 13
145.6488459623
 23
145.3040686829
 33
0.0
 14
235.6488459623
 24
165.9627204465
 34
0.0
 50
0.0
100
AcDbRotatedDimension
  0
DIMENSION
  5
11C
330
1F
100
AcDbEntity
  8
VERMASSUNG
100
AcDbDimension
  2
_D_3
 10
133.6417005221
 20
154.3107428447
 30
0.0
 11
133.6417005221
 21
129.3107428447
 31
0.0
 70
   160
  1
PSC%%c<>
 71
     2
 42
-1.0
  3
SLDDIMSTYLE1
100
AcDbAlignedDimension
 13
175.9488459623
 23
104.3107428447
 33
0.0
 14
175.9488459623
 24
154.3107428447
 34
0.0
 50
90.0
100
AcDbRotatedDimension
  0
SPLINE
  5
128
330
1F
100
AcDbEntity
  8
0
  6
Continuous
 62
     7
370
    15
100
AcDbSpline
210
0.0
220
0.0
230
1.0
 70
     8
 71
     3
 72
    13
 73
     9
 74
     0
 42
0.000000001
 43
0.00000001
 40
0.0
 40
0.0
 40
0.0
 40
0.0
 40
0.0329432388115225
 40
0.1784117721137736
 40
0.3326001574409043
 40
0.5412881766782689
 40
0.7964688287006357
 40
1.0
 40
1.0
 40
1.0
 40
1.0
 10
68.8957213077426
 20
161.7392171898786
 30
0.0
 10
68.88000284016401
 20
161.7398254662983
 30
0.0
 10
68.79487582300406
 20
161.7431197287294
 30
0.0
 10
68.66843268127498
 20
161.6511585534077
 30
0.0
 10
68.54230500877277
 20
161.5157922368668
 30
0.0
 10
68.43133576991343
 20
161.3064448341555
 30
0.0
 10
68.32919121559554
 20
161.0255652989478
 30
0.0
 10
68.26845119781753
 20
160.7740452610695
 30
0.0
 10
68.24150075456627
 20
160.6624454170893
 30
0.0
  0
SPLINE
  5
129
330
1F
100
AcDbEntity
  8
0
  6
Continuous
 62
     7
370
    15
100
AcDbSpline
210
0.0
220
0.0
230
1.0
 70
     8
 71
     3
 72
    11
 73
     7
 74
     0
 42
0.000000001
 43
0.00000001
 40
0.0
 40
0.0
 40
0.0
 40
0.0
 40
0.0916013261494675
 40
0.5106384543795744
 40
0.8262418902130058
 40
1.0
 40
1.0
 40
1.0
 40
1.0
 10
68.30525660176467
 20
154.6445789906507
 30
0.0
 10
68.31148235968968
 20
154.6271848121749
 30
0.0
 10
68.34618831360767
 20
154.5302196612818
 30
0.0
 10
68.42790186493566
 20
154.423826473666
 30
0.0
 10
68.56103119516176
 20
154.2925018132989
 30
0.0
 10
68.6719432502707
 20
154.2775574238939
 30
0.0
 10
68.71132490831228
 20
154.272251104102
 30
0.0
  0
LINE
  5
12A
330
1F
100
AcDbEntity
  8
0
  6
Continuous
 62
     7
370
    15
100
AcDbLine
 10
81.9094091268
 20
162.4243180182
 30
0.0
 11
81.9431525847
 21
163.7129286858
 31
0.0
  0
LINE
  5
12B
330
1F
100
AcDbEntity
  8
0
  6
Continuous
 62
     7
370
    15
100
AcDbLine
 10
81.9431525847
 20
163.7129286858
 30
0.0
 11
81.7484565094
 21
163.9180955405
 31
0.0
  0
LINE
  5
12C
330
1F
100
AcDbEntity
  8
0
  6
Continuous
 62
     7
370
    15
100
AcDbLine
 10
74.9894566518
 20
161.0940578032
 30
0.0
 11
78.7465842595
 21
160.9956739543
 31
0.0
  0
LINE
  5
12D
330
1F
100
AcDbEntity
  8
0
  6
Continuous
 62
     7
370
    15
100
AcDbLine
 10
75.0779355425
 20
161.7919808566
 30
0.0
 11
78.7649081233
 21
161.6954340818
 31
0.0
  0
LINE
  5
12E
330
1F
100
AcDbEntity
  8
0
  6
Continuous
 62
     7
370
    15
100
AcDbLine
 10
78.7465842595
 20
160.9956739543
 30
0.0
 11
78.7649081233
 21
161.6954340818
 31
0.0
  0
LINE
  5
12F
330
1F
100
AcDbEntity
  8
0
  6
Continuous
 62
     7
370
    15
100
AcDbLine
 10
75.3812917391
 20
164.184859897
 30
0.0
 11
78.1662711174
 21
164.1119326455
 31
0.0
  0
LINE
  5
130
330
1F
100
AcDbEntity
  8
0
  6
Continuous
 62
     7
370
    15
100
AcDbLine
 10
78.7649081233
 20
161.6954340818
 30
0.0
 11
78.1662711174
 21
164.1119326455
 31
0.0
  0
LINE
  5
131
330
1F
100
AcDbEntity
  8
0
  6
Continuous
 62
     7
370
    15
100
AcDbLine
 10
74.8693781573
 20
160.1468765164
 30
0.0
 11
78.2857527774
 21
160.0574155985
 31
0.0
  0
LINE
  5
132
330
1F
100
AcDbEntity
  8
0
  6
Continuous
 62
     7
370
    15
100
AcDbLine
 10
78.2857527774
 20
160.0574155985
 30
0.0
 11
78.7465842595
 21
160.9956739543
 31
0.0
  0
LINE
  5
133
330
1F
100
AcDbEntity
  8
0
  6
Continuous
 62
     7
370
    15
100
AcDbLine
 10
78.2034910762
 20
157.1205561963
 30
0.0
 11
78.2857527774
 21
160.0574155985
 31
0.0
  0
ARC
  5
134
330
1F
100
AcDbEntity
  8
0
  6
Continuous
 62
     7
370
    15
100
AcDbCircle
 10
58.3218965444
 20
158.2804178279
 30
0.0
 40
10.92594274759249
100
AcDbArc
 50
340.740108946
 51
16.2375637428
  0
ARC
  5
135
330
1F
100
AcDbEntity
  8
0
  6
Continuous
 62
     7
370
    15
100
AcDbCircle
 10
81.2442400272
 20
157.7894355439
 30
0.0
 40
13.30653564001905
100
AcDbArc
 50
167.7856088015
 51
193.1905143764
  0
LINE
  5
136
330
1F
100
AcDbEntity
  8
0
  6
Continuous
 62
     7
370
    15
100
AcDbLine
 10
81.9431525847
 20
163.7129286858
 30
0.0
 11
78.2411007431
 21
163.809870325
 31
0.0
  0
LINE
  5
137
330
1F
100
AcDbEntity
  8
0
  6
Continuous
 62
     7
370
    15
100
AcDbLine
 10
81.7484565094
 20
163.9180955405
 30
0.0
 11
78.191214326
 21
164.0112452053
 31
0.0
  0
LINE
  5
138
330
1F
100
AcDbEntity
  8
0
  6
Continuous
 62
     7
370
    15
100
AcDbLine
 10
75.3812917391
 20
164.184859897
 30
0.0
 11
70.6755237816
 21
164.3080847677
 31
0.0
  0
LINE
  5
139
330
1F
100
AcDbEntity
  8
0
  6
Continuous
 62
     7
370
    15
100
AcDbLine
 10
75.3812917391
 20
164.184859897
 30
0.0
 11
74.4980188076
 21
157.2175874025
 31
0.0
  0
LINE
  5
13A
330
1F
100
AcDbEntity
  8
0
  6
Continuous
 62
     7
370
    15
100
AcDbLine
 10
68.4645280277
 20
145.3094515322
 30
0.0
 11
68.2676339709
 21
145.3146073845
 31
0.0
  0
LINE
  5
13B
330
1F
100
AcDbEntity
  8
0
  6
Continuous
 62
     7
370
    15
100
AcDbLine
 10
70.6755237816
 20
164.3080847677
 30
0.0
 11
68.2676339709
 21
145.3146073845
 31
0.0
  0
LWPOLYLINE
  5
13C
330
1F
100
AcDbEntity
  8
0
  6
Continuous
 62
     7
370
    15
100
AcDbPolyline
 90
       36
 70
   128
 43
0.0
 10
68.0579684956
 20
160.000128148
 10
68.1438855684
 20
160.5771452554
 10
68.2444651447
 20
161.0716604111
 10
68.3564745141
 20
161.4677794913
 10
68.4763136032
 20
161.7527709026
 10
68.6001306852
 20
161.9174747868
 10
68.7239461771
 20
161.9565974253
 10
68.8437805473
 20
161.8688813845
 10
68.9557822204
 20
161.65714593
 10
69.0563513704
 20
161.3281964136
 10
69.1422556223
 20
160.8926055434
 10
69.2107339425
 20
160.3643735683
 10
69.2595853816
 20
159.7604782987
 10
69.2872398142
 20
159.1003294254
 10
69.292808404
 20
158.4051446764
 10
69.2761121719
 20
157.6972678616
 10
69.2376877486
 20
156.9994507241
 10
69.1787701266
 20
156.3341216809
 10
69.1012529669
 20
155.722664955
 10
69.0076277347
 20
155.1847332686
 10
68.900903622
 20
154.7376161888
 10
68.7845108296
 20
154.3956844263
 10
68.6621903176
 20
154.1699279493
 10
68.5378735679
 20
154.0676027568
 10
68.4155562232
 20
154.0919976647
 10
68.2991696635
 20
154.2423286005
 10
68.1924546487
 20
154.5137638043
 10
68.0988410871
 20
154.8975791253
 10
68.0213377955
 20
155.3814384232
 10
67.9624357937
 20
155.9497900621
 10
67.9240282404
 20
156.5843667527
 10
67.9073495858
 20
157.2647726781
 10
67.9129358958
 20
157.9691390319
 10
67.9406076218
 20
158.6748269
 10
67.9894753716
 20
159.3591548936
 10
68.0579684956
 20
160.000128148
  0
LINE
  5
13D
330
1F
100
AcDbEntity
  8
0
  6
Continuous
 62
     7
370
    15
100
AcDbLine
 10
68.2676339709
 20
145.3146073845
 30
0.0
 11
66.8570858907
 21
164.4080740828
 31
0.0
  0
LINE
  5
13E
330
1F
100
AcDbEntity
  8
0
  6
Continuous
 62
     7
370
    15
100
AcDbLine
 10
66.8570858907
 20
164.4080740828
 30
0.0
 11
70.6755237816
 21
164.3080847677
 31
0.0
  0
SPLINE
  5
13F
330
1F
100
AcDbEntity
  8
0
  6
Continuous
 62
     7
370
    15
100
AcDbSpline
210
0.0
220
0.0
230
1.0
 70
     8
 71
     3
 72
    10
 73
     6
 74
     0
 42
0.000000001
 43
0.00000001
 40
0.0
 40
0.0
 40
0.0
 40
0.0
 40
0.5
 40
0.5
 40
1.0
 40
1.0
 40
1.0
 40
1.0
 10
88.46107703223488
 20
111.1365016048406
 30
0.0
 10
88.00620080957069
 20
110.929512157346
 30
0.0
 10
87.57196379368453
 20
110.686894458568
 30
0.0
 10
86.73812054507002
 20
110.1727527757812
 30
0.0
 10
86.3370675465048
 20
109.9005516405017
 30
0.0
 10
85.95962180516142
 20
109.6058416411642
 30
0.0
  0
ARC
  5
140
330
1F
100
AcDbEntity
  8
0
  6
Continuous
 62
     7
370
    15
100
AcDbCircle
 10
70.5740159166
 20
129.3107428447
 30
0.0
 40
24.99999999999999
100
AcDbArc
 50
255.6276401243
 51
307.9827524686
  0
LINE
  5
141
330
1F
100
AcDbEntity
  8
0
  6
Continuous
 62
     7
370
    15
100
AcDbLine
 10
69.5272356693
 20
136.1501978069
 30
0.0
 11
64.368450844
 21
105.0931673647
 31
0.0
  0
LINE
  5
142
330
1F
100
AcDbEntity
  8
0
  6
Continuous
 62
     7
370
    15
100
AcDbLine
 10
96.0740159166
 20
135.4550459015
 30
0.0
 11
69.5272356693
 21
136.1501978069
 31
0.0
  0
LINE
  5
143
330
1F
100
AcDbEntity
  8
0
  6
Continuous
 62
     7
370
    15
100
AcDbLine
 10
96.0740159166
 20
129.3107428447
 30
0.0
 11
96.0740159166
 21
135.4550459015
 31
0.0
  0
ARC
  5
144
330
1F
100
AcDbEntity
  8
0
  6
Continuous
 62
     7
370
    15
100
AcDbCircle
 10
70.5740159166
 20
129.3107428447
 30
0.0
 40
25.5
100
AcDbArc
 50
314.543725263
 51
0.0
  0
LINE
  5
145
330
1F
100
AcDbEntity
  8
0
  6
Continuous
 62
     7
370
    15
100
AcDbLine
 10
96.0740159166
 20
135.4550459015
 30
0.0
 11
96.0740159166
 21
153.2846870342
 31
0.0
  0
LINE
  5
146
330
1F
100
AcDbEntity
  8
0
  6
Continuous
 62
     7
370
    15
100
AcDbLine
 10
70.0819328021
 20
157.3332266843
 30
0.0
 11
69.5272356693
 21
136.1501978069
 31
0.0
  0
LINE
  5
147
330
1F
100
AcDbEntity
  8
0
  6
Continuous
 62
     7
370
    15
100
AcDbLine
 10
70.0819328021
 20
157.3332266843
 30
0.0
 11
78.5483772444
 21
157.1115250341
 31
0.0
  0
LINE
  5
148
330
1F
100
AcDbEntity
  8
0
  6
Continuous
 62
     7
370
    15
100
AcDbLine
 10
78.6969837863
 20
162.7865799099
 30
0.0
 11
78.6776361153
 21
162.047722163
 31
0.0
  0
LINE
  5
149
330
1F
100
AcDbEntity
  8
0
  6
Continuous
 62
     7
370
    15
100
AcDbLine
 10
78.6446528035
 20
160.7881403025
 30
0.0
 11
78.5483772444
 21
157.1115250341
 31
0.0
  0
LINE
  5
14A
330
1F
100
AcDbEntity
  8
0
  6
Continuous
 62
     7
370
    15
100
AcDbLine
 10
80.9843437048
 20
162.7266832825
 30
0.0
 11
78.6969837863
 21
162.7865799099
 31
0.0
  0
ARC
  5
14B
330
1F
100
AcDbEntity
  8
0
  6
Continuous
 62
     7
370
    15
100
AcDbCircle
 10
70.5740159166
 20
129.3107428447
 30
0.0
 40
35.00000000000003
100
AcDbArc
 50
43.2332348092
 51
72.6962155281
  0
LINE
  5
14C
330
1F
100
AcDbEntity
  8
0
  6
Continuous
 62
     7
370
    15
100
AcDbLine
 10
68.0071671845
 20
148.8403389647
 30
0.0
 11
67.7361785071
 21
146.7027754879
 31
0.0
  0
LWPOLYLINE
  5
14D
330
1F
100
AcDbEntity
  8
0
  6
Continuous
 62
     7
370
    15
100
AcDbPolyline
 90
       14
 70
   128
 43
0.0
 10
67.7361785071
 20
146.7027754879
 10
67.6862094862
 20
146.2049022095
 10
67.6570907228
 20
145.6700902546
 10
67.6505144937
 20
145.1294209501
 10
67.6668629852
 20
144.6143160307
 10
67.7051860826
 20
144.1547115221
 10
67.7632565867
 20
143.7773179676
 10
67.8376996509
 20
143.5040681089
 10
67.9241889149
 20
143.3508422345
 10
68.017697937
 20
143.3265452753
 10
68.1127923127
 20
143.4325892823
 10
68.2039455027
 20
143.6628113632
 10
68.2858600148
 20
144.0038318476
 10
68.3537752753
 20
144.4358318643
  0
LINE
  5
14E
330
1F
100
AcDbEntity
  8
0
  6
Continuous
 62
     7
370
    15
100
AcDbLine
 10
68.3537752753
 20
144.4358318643
 30
0.0
 11
69.9891449069
 21
157.3356564208
 31
0.0
  0
LINE
  5
14F
330
1F
100
AcDbEntity
  8
0
  6
Continuous
 62
     7
370
    15
100
AcDbLine
 10
70.0819328021
 20
157.3332266843
 30
0.0
 11
69.9891449069
 21
157.3356564208
 31
0.0
  0
ARC
  5
150
330
1F
100
AcDbEntity
  8
0
  6
Continuous
 62
     7
370
    15
100
AcDbCircle
 10
70.5740159166
 20
129.3107428447
 30
0.0
 40
25.00000000000003
100
AcDbArc
 50
101.2271101793
 51
101.3723598757
  0
SPLINE
  5
151
330
1F
100
AcDbEntity
  8
0
  6
Continuous
 62
     7
370
    15
100
AcDbSpline
210
0.0
220
0.0
230
1.0
 70
     8
 71
     3
 72
    10
 73
     6
 74
     0
 42
0.000000001
 43
0.00000001
 40
0.0
 40
0.0
 40
0.0
 40
0.0
 40
0.5
 40
0.5
 40
1.0
 40
1.0
 40
1.0
 40
1.0
 10
65.89765106685451
 20
154.6235856077098
 30
0.0
 10
65.88202241111985
 20
154.4066527485948
 30
0.0
 10
65.85440783399316
 20
154.2080465632871
 30
0.0
 10
65.78643010501641
 20
153.9252755556207
 30
0.0
 10
65.74623056436587
 20
153.8401970753978
 30
0.0
 10
65.70655391520323
 20
153.8323213759646
 30
0.0
  0
SPLINE
  5
152
330
1F
100
AcDbEntity
  8
0
  6
Continuous
 62
     7
370
    15
100
AcDbSpline
210
0.0
220
0.0
230
1.0
 70
     8
 71
     3
 72
     8
 73
     4
 74
     0
 42
0.000000001
 43
0.00000001
 40
0.0
 40
0.0
 40
0.0
 40
0.0
 40
1.0
 40
1.0
 40
1.0
 40
1.0
 10
66.52820001307416
 20
163.3298265484053
 30
0.0
 10
66.31727128125475
 20
160.4289556351931
 30
0.0
 10
66.10684353027405
 20
157.5272722692698
 30
0.0
 10
65.89765106685448
 20
154.6235856077095
 30
0.0
  0
SPLINE
  5
153
330
1F
100
AcDbEntity
  8
0
  6
Continuous
 62
     7
370
    15
100
AcDbSpline
210
0.0
220
0.0
230
1.0
 70
     8
 71
     3
 72
     8
 73
     4
 74
     0
 42
0.000000001
 43
0.00000001
 40
0.0
 40
0.0
 40
0.0
 40
0.0
 40
1.0
 40
1.0
 40
1.0
 40
1.0
 10
66.54408689088255
 20
163.5058528646776
 30
0.0
 10
66.53793763532276
 20
163.4494172224076
 30
0.0
 10
66.53263133156302
 20
163.3907698006626
 30
0.0
 10
66.52820001307416
 20
163.3298265484053
 30
0.0
  0
LINE
  5
154
330
1F
100
AcDbEntity
  8
0
  6
Continuous
 62
     7
370
    15
100
AcDbLine
 10
66.5440868909
 20
163.5058528647
 30
0.0
 11
66.9237383445
 21
163.5058528647
 31
0.0
  0
LINE
  5
155
330
1F
100
AcDbEntity
  8
0
  6
Continuous
 62
     7
370
    15
100
AcDbLine
 10
78.6969837863
 20
162.7865799099
 30
0.0
 11
78.6231601959
 21
163.2841512145
 31
0.0
  0
LINE
  5
156
330
1F
100
AcDbEntity
  8
0
  6
Continuous
 62
     7
370
    15
100
AcDbLine
 10
78.6231601959
 20
163.2841512145
 30
0.0
 11
79.0318244441
 21
163.2734499646
 31
0.0
  0
ARC
  5
157
330
1F
100
AcDbEntity
  8
0
  6
Continuous
 62
     7
370
    15
100
AcDbCircle
 10
70.5740159166
 20
129.3107428447
 30
0.0
 40
35.00000000000003
100
AcDbArc
 50
72.6962155281
 51
76.0159560861
  0
LINE
  5
158
330
1F
100
AcDbEntity
  8
0
  6
Continuous
 62
     7
370
    15
100
AcDbLine
 10
78.6231601959
 20
163.2841512145
 30
0.0
 11
78.3713366634
 21
163.2841512145
 31
0.0
  0
SPLINE
  5
159
330
1F
100
AcDbEntity
  8
0
  6
Continuous
 62
     7
370
    15
100
AcDbSpline
210
0.0
220
0.0
230
1.0
 70
     8
 71
     3
 72
    18
 73
    14
 74
     0
 42
0.000000001
 43
0.00000001
 40
0.0
 40
0.0
 40
0.0
 40
0.0
 40
0.2499999999999966
 40
0.2499999999999966
 40
0.3749999999999974
 40
0.3749999999999974
 40
0.4999999999999982
 40
0.4999999999999982
 40
0.624999999999999
 40
0.624999999999999
 40
0.7499999999999999
 40
0.7499999999999999
 40
1.0
 40
1.0
 40
1.0
 40
1.0
 10
65.644405325856
 20
153.8199031612765
 30
0.0
 10
65.5935593542657
 20
153.8096763384556
 30
0.0
 10
65.5029262158168
 20
153.7913772428385
 30
0.0
 10
65.30932762666811
 20
153.7502070375187
 30
0.0
 10
65.2349575392858
 20
153.7341220476161
 30
0.0
 10
65.07165255261111
 20
153.6978499600683
 30
0.0
 10
64.98221195307738
 20
153.6775578330682
 30
0.0
 10
64.78800266361098
 20
153.6321736184041
 30
0.0
 10
64.68232803613903
 20
153.6068533497299
 30
0.0
 10
64.46120345777182
 20
153.5521639168362
 30
0.0
 10
64.34556638852759
 20
153.5227632359435
 30
0.0
 10
63.98414013840168
 20
153.4278653311524
 30
0.0
 10
63.72189388715339
 20
153.3550362579804
 30
0.0
 10
63.45141449280468
 20
153.2746437992174
 30
0.0
  0
SPLINE
  5
15A
330
1F
100
AcDbEntity
  8
0
  6
Continuous
 62
     7
370
    15
100
AcDbSpline
210
0.0
220
0.0
230
1.0
 70
     8
 71
     3
 72
    16
 73
    12
 74
     0
 42
0.000000001
 43
0.00000001
 40
0.0
 40
0.0
 40
0.0
 40
0.0
 40
0.2500000000000001
 40
0.2500000000000001
 40
0.3749999999999999
 40
0.3749999999999999
 40
0.4999999999999999
 40
0.4999999999999999
 40
0.7499999999999999
 40
0.7499999999999999
 40
1.0
 40
1.0
 40
1.0
 40
1.0
 10
62.20700209874675
 20
105.7524517400235
 30
0.0
 10
62.47304034065351
 20
105.6579650204133
 30
0.0
 10
62.72583547936691
 20
105.5732434927702
 30
0.0
 10
63.0839317310294
 20
105.4588175176284
 30
0.0
 10
63.20009353107665
 20
105.4227084935423
 30
0.0
 10
63.41758539810308
 20
105.3566530322332
 30
0.0
 10
63.51986742255046
 20
105.3263955322521
 30
0.0
 10
63.80695842207557
 20
105.2431995387358
 30
0.0
 10
63.97259697754316
 20
105.197706811968
 30
0.0
 10
64.22623037656474
 20
105.1296994953638
 30
0.0
 10
64.31817299832
 20
105.1060506709943
 30
0.0
 10
64.36845084396408
 20
105.0931673646901
 30
0.0
  0
ELLIPSE
  5
15B
330
1F
100
AcDbEntity
  8
0
  6
Continuous
 62
     7
370
    15
100
AcDbEllipse
 10
57.8399282208
 20
145.9733955808
 30
0.0
 11
2.083940139897138
 21
2.029760697430731
 31
0.0
210
0.0
220
0.0
230
1.0
 40
0.7097986439
 41
0.0
 42
6.283185307179586
  0
ARC
  5
15C
330
1F
100
AcDbEntity
  8
0
  6
Continuous
 62
     7
370
    15
100
AcDbCircle
 10
70.5740159166
 20
129.3107428447
 30
0.0
 40
25.00000000000003
100
AcDbArc
 50
106.5531136963
 51
250.4468863037
  0
INSERT
  5
168
330
1F
100
AcDbEntity
  8
VERMASSUNG
100
AcDbBlockReference
  2
SW_CENTERMARKSYMBOL_0
 10
70.5740159166
 20
129.3107428447
 30
0.0
  0
SPLINE
  5
169
330
1F
100
AcDbEntity
  8
0
  6
Continuous
 62
     7
370
    15
100
AcDbSpline
210
0.0
220
0.0
230
1.0
 70
     8
 71
     3
 72
    15
 73
    11
 74
     0
 42
0.000000001
 43
0.00000001
 40
0.0
 40
0.0
 40
0.0
 40
0.0
 40
0.0909353125974662
 40
0.2271868560088445
 40
0.3655788131490129
 40
0.5067779055761333
 40
0.649625517192785
 40
0.7928894538022337
 40
0.9361112409927907
 40
1.0
 40
1.0
 40
1.0
 40
1.0
 10
250.3559687252682
 20
52.15053865104937
 30
0.0
 10
250.3620753020204
 20
52.27443097540181
 30
0.0
 10
250.3773315752292
 20
52.58395548078128
 30
0.0
 10
250.2067806521038
 20
53.08308892242552
 30
0.0
 10
249.8813040359215
 20
53.616377014318
 30
0.0
 10
249.4008429958698
 20
54.10581892656773
 30
0.0
 10
248.7928274629872
 20
54.52917494984588
 30
0.0
 10
248.0837949068764
 20
54.86362066950087
 30
0.0
 10
247.4517847074946
 20
55.05622969118168
 30
0.0
 10
247.0680375926663
 20
55.12323412679658
 30
0.0
 10
246.9496605839187
 20
55.14390342789207
 30
0.0
  0
SPLINE
  5
16A
330
1F
100
AcDbEntity
  8
0
  6
Continuous
 62
     7
370
    15
100
AcDbSpline
210
0.0
220
0.0
230
1.0
 70
     8
 71
     3
 72
    14
 73
    10
 74
     0
 42
0.000000001
 43
0.00000001
 40
0.0
 40
0.0
 40
0.0
 40
0.0
 40
0.0810869234936142
 40
0.2343914335507878
 40
0.3883070668670062
 40
0.5428096725116605
 40
0.6977653888144746
 40
0.8519182829434447
 40
1.0
 40
1.0
 40
1.0
 40
1.0
 10
246.9496605839187
 20
55.14390342789207
 30
0.0
 10
246.8085763100726
 20
55.16235231105217
 30
0.0
 10
246.4007553720781
 20
55.21568101048971
 30
0.0
 10
245.7260846859277
 20
55.21275355797514
 30
0.0
 10
244.9684945031065
 20
55.09383347770606
 30
0.0
 10
244.2844737273256
 20
54.85489478604676
 30
0.0
 10
243.7126473098642
 20
54.50370469103203
 30
0.0
 10
243.2696793217787
 20
54.06159247754123
 30
0.0
 10
243.1153859081333
 20
53.70596628779182
 30
0.0
 10
243.0397888958205
 20
53.5317250365936
 30
0.0
  0
LINE
  5
16B
330
1F
100
AcDbEntity
  8
0
  6
Continuous
 62
     7
370
    15
100
AcDbLine
 10
188.5986871024
 20
32.4316934018
 30
0.0
 11
201.074944266
 21
25.2293034485
 31
0.0
  0
LINE
  5
16C
330
1F
100
AcDbEntity
  8
0
  6
Continuous
 62
     7
370
    15
100
AcDbLine
 10
179.3514988594
 20
37.7699815459
 30
0.0
 11
183.8221821714
 21
35.1891110052
 31
0.0
  0
LINE
  5
16D
330
1F
100
AcDbEntity
  8
0
  6
Continuous
 62
     7
370
    15
100
AcDbLine
 10
208.8201504873
 20
78.4915541242
 30
0.0
 11
204.3494671753
 21
81.0724246649
 31
0.0
  0
LINE
  5
16E
330
1F
100
AcDbEntity
  8
0
  6
Continuous
 62
     7
370
    15
100
AcDbLine
 10
223.0325060352
 20
70.2869359066
 30
0.0
 11
213.5966554183
 21
75.7341365208
 31
0.0
  0
SPLINE
  5
16F
330
1F
100
AcDbEntity
  8
0
  6
Continuous
 62
     7
370
    15
100
AcDbSpline
210
0.0
220
0.0
230
1.0
 70
     8
 71
     3
 72
    10
 73
     6
 74
     0
 42
0.000000001
 43
0.00000001
 40
0.0
 40
0.0
 40
0.0
 40
0.0
 40
0.1351957426616965
 40
0.6295903133199068
 40
1.0
 40
1.0
 40
1.0
 40
1.0
 10
174.3498941836411
 20
52.92881310358312
 30
0.0
 10
174.3236548502646
 20
52.76106904388219
 30
0.0
 10
174.2014614305862
 20
51.97990513276016
 30
0.0
 10
174.1115548987749
 20
50.77720993176412
 30
0.0
 10
174.0929250068402
 20
49.76997708531106
 30
0.0
 10
174.084945522031
 20
49.3385629243576
 30
0.0
  0
SPLINE
  5
170
330
1F
100
AcDbEntity
  8
0
  6
Continuous
 62
     7
370
    15
100
AcDbSpline
210
0.0
220
0.0
230
1.0
 70
     8
 71
     3
 72
    14
 73
    10
 74
     0
 42
0.000000001
 43
0.00000001
 40
0.0
 40
0.0
 40
0.0
 40
0.0
 40
0.0602987496347993
 40
0.2192255326511806
 40
0.3782355736746812
 40
0.5372711320414335
 40
0.6962916620515238
 40
0.8552823782519032
 40
0.9999999999999999
 40
0.9999999999999999
 40
0.9999999999999999
 40
0.9999999999999999
 10
195.2006952614287
 20
81.4497344990854
 30
0.0
 10
195.0171431424021
 20
81.3909346446089
 30
0.0
 10
194.3498107133457
 20
81.17715857967406
 30
0.0
 10
193.1777248187798
 20
80.64931370191276
 30
0.0
 10
191.697012175444
 20
79.87282312229917
 30
0.0
 10
190.216166832776
 20
78.9447225363464
 30
0.0
 10
188.7485461173435
 20
77.88092934212935
 30
0.0
 10
187.3425723139742
 20
76.73362028136285
 30
0.0
 10
186.4470914374751
 20
75.8850908837411
 30
0.0
 10
186.0203930345164
 20
75.4807649530253
 30
0.0
  0
SPLINE
  5
171
330
1F
100
AcDbEntity
  8
0
  6
Continuous
 62
     7
370
    15
100
AcDbSpline
210
0.0
220
0.0
230
1.0
 70
     8
 71
     3
 72
    10
 73
     6
 74
     0
 42
0.000000001
 43
0.00000001
 40
0.0
 40
0.0
 40
0.0
 40
0.0
 40
0.2578526851601201
 40
0.7477492498368393
 40
1.0
 40
1.0
 40
1.0
 40
1.0
 10
174.084945522031
 20
49.3385629243576
 30
0.0
 10
174.0888484081906
 20
49.0406463170343
 30
0.0
 10
174.1001664217929
 20
48.17671535001102
 30
0.0
 10
174.177006655043
 20
47.05576920133399
 30
0.0
 10
174.3126815643156
 20
46.28118788602857
 30
0.0
 10
174.3587965295765
 20
46.0179130429601
 30
0.0
  0
LINE
  5
172
330
1F
100
AcDbEntity
  8
0
  6
Continuous
 62
     7
370
    15
100
AcDbLine
 10
202.2937012401
 20
23.9483953927
 30
0.0
 11
202.3614193558
 21
23.9093025566
 31
0.0
  0
LINE
  5
173
330
1F
100
AcDbEntity
  8
0
  6
Continuous
 62
     7
370
    15
100
AcDbLine
 10
161.4724121485
 20
56.5287531983
 30
0.0
 11
174.0970157134
 21
48.7133443925
 31
0.0
  0
LINE
  5
174
330
1F
100
AcDbEntity
  8
0
  6
Continuous
 62
     7
370
    15
100
AcDbLine
 10
190.5832741176
 20
79.1504896742
 30
0.0
 11
178.1990967672
 21
85.8004478299
 31
0.0
  0
LINE
  5
175
330
1F
100
AcDbEntity
  8
0
  6
Continuous
 62
     7
370
    15
100
AcDbLine
 10
173.9121836318
 20
86.7423401398
 30
0.0
 11
172.6330827267
 21
86.5679180089
 31
0.0
  0
LINE
  5
176
330
1F
100
AcDbEntity
  8
0
  6
Continuous
 62
     7
370
    15
100
AcDbLine
 10
159.523709772
 20
59.5327362322
 30
0.0
 11
160.0123183576
 21
58.3378371338
 31
0.0
  0
LINE
  5
177
330
1F
100
AcDbEntity
  8
0
  6
Continuous
 62
     7
370
    15
100
AcDbLine
 10
251.1394496213
 20
45.2475037657
 30
0.0
 11
250.9260705112
 21
44.1224775313
 31
0.0
  0
LINE
  5
178
330
1F
100
AcDbEntity
  8
0
  6
Continuous
 62
     7
370
    15
100
AcDbLine
 10
250.5888361135
 20
43.942577965
 30
0.0
 11
250.9260705112
 21
44.1224775313
 31
0.0
  0
LINE
  5
179
330
1F
100
AcDbEntity
  8
0
  6
Continuous
 62
     7
370
    15
100
AcDbLine
 10
253.7743775287
 20
45.4181281048
 30
0.0
 11
253.3384198121
 21
43.1195719427
 31
0.0
  0
LINE
  5
17A
330
1F
100
AcDbEntity
  8
0
  6
Continuous
 62
     7
370
    15
100
AcDbLine
 10
254.2233576528
 20
45.4472017416
 30
0.0
 11
253.8332249435
 21
43.3902546823
 31
0.0
  0
LINE
  5
17B
330
1F
100
AcDbEntity
  8
0
  6
Continuous
 62
     7
370
    15
100
AcDbLine
 10
253.3384198121
 20
43.1195719427
 30
0.0
 11
253.8332249435
 21
43.3902546823
 31
0.0
  0
LINE
  5
17C
330
1F
100
AcDbEntity
  8
0
  6
Continuous
 62
     7
370
    15
100
AcDbLine
 10
250.9260705112
 20
44.1224775313
 30
0.0
 11
253.3384198121
 21
43.1195719427
 31
0.0
  0
ARC
  5
17D
330
1F
100
AcDbEntity
  8
0
  6
Continuous
 62
     7
370
    15
100
AcDbCircle
 10
248.6034745239
 20
52.1363230912
 30
0.0
 40
1.7234922120998
100
AcDbArc
 50
309.4253135735
 51
356.4319940653
  0
ARC
  5
17E
330
1F
100
AcDbEntity
  8
0
  6
Continuous
 62
     7
370
    15
100
AcDbCircle
 10
244.7264654549
 20
52.8841411976
 30
0.0
 40
1.7623744018348
100
AcDbArc
 50
163.1429428684
 51
208.5624473501
  0
LINE
  5
17F
330
1F
100
AcDbEntity
  8
0
  6
Continuous
 62
     7
370
    15
100
AcDbLine
 10
258.1375568068
 20
45.7006650877
 30
0.0
 11
258.8116156514
 21
49.254592572
 31
0.0
  0
LINE
  5
180
330
1F
100
AcDbEntity
  8
0
  6
Continuous
 62
     7
370
    15
100
AcDbLine
 10
258.1375568068
 20
45.7006650877
 30
0.0
 11
250.8325669694
 21
45.2276316282
 31
0.0
  0
LINE
  5
181
330
1F
100
AcDbEntity
  8
0
  6
Continuous
 62
     7
370
    15
100
AcDbLine
 10
258.8116156514
 20
49.254592572
 30
0.0
 11
237.7222211409
 21
47.8889521719
 31
0.0
  0
LINE
  5
182
330
1F
100
AcDbEntity
  8
0
  6
Continuous
 62
     7
370
    15
100
AcDbLine
 10
237.694017842
 20
47.7402522771
 30
0.0
 11
237.7222211409
 21
47.8889521719
 31
0.0
  0
LWPOLYLINE
  5
183
330
1F
100
AcDbEntity
  8
0
  6
Continuous
 62
     7
370
    15
100
AcDbPolyline
 90
       29
 70
   128
 43
0.0
 10
245.7243294245
 20
55.430012084
 10
246.5914662692
 20
55.4186381887
 10
247.4640153594
 20
55.2759503495
 10
248.2982234404
 20
55.0091035306
 10
249.0522598356
 20
54.6314785457
 10
249.6883140115
 20
54.1620110883
 10
250.174491556
 20
53.6242422171
 10
250.4864134967
 20
53.0451379089
 10
250.6084387651
 20
52.4537368717
 10
250.5344485047
 20
51.8796944231
 10
250.2681528961
 20
51.3517954484
 10
249.8229051132
 20
50.8965110066
 10
249.2210317388
 20
50.5366709605
 10
248.4927132173
 20
50.2903191928
 10
247.6744704805
 20
50.1698088097
 10
246.8073336358
 20
50.181182705
 10
245.9347845456
 20
50.3238705442
 10
245.1005764646
 20
50.5907173631
 10
244.3465400694
 20
50.968342348
 10
243.7104858935
 20
51.4378098054
 10
243.224308349
 20
51.9755786766
 10
242.9123864083
 20
52.5546829848
 10
242.7903611399
 20
53.146084022
 10
242.8643514003
 20
53.7201264706
 10
243.1306470089
 20
54.2480254453
 10
243.5758947918
 20
54.7033098872
 10
244.1777681662
 20
55.0631499332
 10
244.9060866877
 20
55.3095017009
 10
245.7243294245
 20
55.430012084
  0
LINE
  5
184
330
1F
100
AcDbEntity
  8
0
  6
Continuous
 62
     7
370
    15
100
AcDbLine
 10
243.5643630651
 20
61.2561865967
 30
0.0
 11
258.8116156514
 21
49.254592572
 31
0.0
  0
LINE
  5
185
330
1F
100
AcDbEntity
  8
0
  6
Continuous
 62
     7
370
    15
100
AcDbLine
 10
237.7222211409
 20
47.8889521719
 30
0.0
 11
243.5643630651
 21
61.2561865967
 31
0.0
  0
SPLINE
  5
186
330
1F
100
AcDbEntity
  8
0
  6
Continuous
 62
     7
370
    15
100
AcDbSpline
210
0.0
220
0.0
230
1.0
 70
     8
 71
     3
 72
     9
 73
     5
 74
     0
 42
0.000000001
 43
0.00000001
 40
0.0
 40
0.0
 40
0.0
 40
0.0
 40
0.3614290317676574
 40
1.0
 40
1.0
 40
1.0
 40
1.0
 10
202.1915358576267
 20
24.00832699056645
 30
0.0
 10
202.0477681104935
 20
24.20742900441294
 30
0.0
 10
201.6499922416595
 20
24.75830343990787
 30
0.0
 10
201.1054014738374
 20
25.23006187693752
 30
0.0
 10
200.7576416199388
 20
25.53131311884334
 30
0.0
  0
ELLIPSE
  5
187
330
1F
100
AcDbEntity
  8
0
  6
Continuous
 62
     7
370
    15
100
AcDbEllipse
 10
227.5273923654
 20
38.8253617335
 30
0.0
 11
32.14279681454747
 21
5.088772248878932
 31
0.0
210
0.0
220
0.0
230
1.0
 40
0.567020192
 41
2.716243874883005
 42
3.630012965542339
  0
LINE
  5
188
330
1F
100
AcDbEntity
  8
0
  6
Continuous
 62
     7
370
    15
100
AcDbLine
 10
236.4391504357
 20
40.1192386111
 30
0.0
 11
197.0580414174
 21
41.7106157031
 31
0.0
  0
LINE
  5
189
330
1F
100
AcDbEntity
  8
0
  6
Continuous
 62
     7
370
    15
100
AcDbLine
 10
232.6365634438
 20
20.070368205
 30
0.0
 11
236.4391504357
 21
40.1192386111
 31
0.0
  0
LINE
  5
18A
330
1F
100
AcDbEntity
  8
0
  6
Continuous
 62
     7
370
    15
100
AcDbLine
 10
224.7336118735
 20
19.6163861787
 30
0.0
 11
232.6365634438
 21
20.070368205
 31
0.0
  0
ELLIPSE
  5
18B
330
1F
100
AcDbEntity
  8
0
  6
Continuous
 62
     7
370
    15
100
AcDbEllipse
 10
227.5273923654
 20
38.8253617335
 30
0.0
 11
32.78565275083844
 21
5.190547693856524
 31
0.0
210
0.0
220
0.0
230
1.0
 40
0.567020192
 41
3.744523542938314
 42
4.537885202789711
  0
LINE
  5
18C
330
1F
100
AcDbEntity
  8
0
  6
Continuous
 62
     7
370
    15
100
AcDbLine
 10
239.036194063
 20
50.8954152644
 30
0.0
 11
235.6131550044
 21
50.6737569125
 31
0.0
  0
LWPOLYLINE
  5
18D
330
1F
100
AcDbEntity
  8
0
  6
Continuous
 62
     7
370
    15
100
AcDbPolyline
 90
       11
 70
   128
 43
0.0
 10
235.6131550044
 20
50.6737569125
 10
234.9737402101
 20
50.5572662727
 10
234.4512841625
 20
50.3055282915
 10
234.0969284999
 20
49.9431848364
 10
233.9453600235
 20
49.5057046093
 10
234.0114153117
 20
49.0359112231
 10
234.2886284127
 20
48.5797913276
 10
234.7498637767
 20
48.1819931162
 10
235.3499724727
 20
47.8814558494
 10
236.0302116803
 20
47.7075982088
 10
236.7239948464
 20
47.6774385917
  0
LINE
  5
18E
330
1F
100
AcDbEntity
  8
0
  6
Continuous
 62
     7
370
    15
100
AcDbLine
 10
236.7239948464
 20
47.6774385917
 30
0.0
 11
251.0473061443
 21
48.6049423455
 31
0.0
  0
LINE
  5
18F
330
1F
100
AcDbEntity
  8
0
  6
Continuous
 62
     7
370
    15
100
AcDbLine
 10
251.4178138009
 20
48.3133040681
 30
0.0
 11
251.0473061443
 21
48.6049423455
 31
0.0
  0
LINE
  5
190
330
1F
100
AcDbEntity
  8
0
  6
Continuous
 62
     7
370
    15
100
AcDbLine
 10
251.4178138009
 20
48.3133040681
 30
0.0
 11
236.4391504357
 21
40.1192386111
 31
0.0
  0
ELLIPSE
  5
191
330
1F
100
AcDbEntity
  8
0
  6
Continuous
 62
     7
370
    15
100
AcDbEllipse
 10
236.5172577689
 20
33.6356229028
 30
0.0
 11
100.7127997593133
 21
-77.77759629610438
 31
0.0
210
0.0
220
0.0
230
1.0
 40
0.1453034859
 41
1.729405585815654
 42
1.731940671254855
  0
SPLINE
  5
192
330
1F
100
AcDbEntity
  8
0
  6
Continuous
 62
     7
370
    15
100
AcDbSpline
210
0.0
220
0.0
230
1.0
 70
     8
 71
     3
 72
    10
 73
     6
 74
     0
 42
0.000000001
 43
0.00000001
 40
0.0
 40
0.0
 40
0.0
 40
0.0
 40
0.5
 40
0.5
 40
1.0
 40
1.0
 40
1.0
 40
1.0
 10
233.0121881162811
 20
60.14310945933739
 30
0.0
 10
232.8189133270006
 20
60.09034030958486
 30
0.0
 10
232.5886241203566
 20
60.08368816728983
 30
0.0
 10
232.1458476677183
 20
60.16394761816043
 30
0.0
 10
231.9334661682448
 20
60.24991865224558
 30
0.0
 10
231.7696671104114
 20
60.37044565400058
 30
0.0
  0
SPLINE
  5
193
330
1F
100
AcDbEntity
  8
0
  6
Continuous
 62
     7
370
    15
100
AcDbSpline
210
0.0
220
0.0
230
1.0
 70
     8
 71
     3
 72
     8
 73
     4
 74
     0
 42
0.000000001
 43
0.00000001
 40
0.0
 40
0.0
 40
0.0
 40
0.0
 40
1.0
 40
1.0
 40
1.0
 40
1.0
 10
240.7822558632961
 20
62.25052160590032
 30
0.0
 10
238.1899719173401
 20
61.55095264717024
 30
0.0
 10
235.5992071134925
 20
60.84943434208334
 30
0.0
 10
233.0121881162809
 20
60.14310945933734
 30
0.0
  0
SPLINE
  5
194
330
1F
100
AcDbEntity
  8
0
  6
Continuous
 62
     7
370
    15
100
AcDbSpline
210
0.0
220
0.0
230
1.0
 70
     8
 71
     3
 72
     8
 73
     4
 74
     0
 42
0.000000001
 43
0.00000001
 40
0.0
 40
0.0
 40
0.0
 40
0.0
 40
1.0
 40
1.0
 40
1.0
 40
1.0
 10
240.9519346845617
 20
62.28330513577749
 30
0.0
 10
240.8933016764396
 20
62.27609985287111
 30
0.0
 10
240.8367161337347
 20
62.26521857408635
 30
0.0
 10
240.7822558632961
 20
62.25052160590032
 30
0.0
  0
LINE
  5
195
330
1F
100
AcDbEntity
  8
0
  6
Continuous
 62
     7
370
    15
100
AcDbLine
 10
240.9519346846
 20
62.2833051358
 30
0.0
 11
243.2342542549
 21
60.5008742628
 31
0.0
  0
SPLINE
  5
196
330
1F
100
AcDbEntity
  8
0
  6
Continuous
 62
     7
370
    15
100
AcDbSpline
210
0.0
220
0.0
230
1.0
 70
     8
 71
     3
 72
    12
 73
     8
 74
     0
 42
0.000000001
 43
0.00000001
 40
0.0
 40
0.0
 40
0.0
 40
0.0
 40
0.2499999999999993
 40
0.2499999999999993
 40
0.4999999999999987
 40
0.4999999999999987
 40
1.0
 40
1.0
 40
1.0
 40
1.0
 10
203.0203425088854
 20
78.60771670049525
 30
0.0
 10
202.9753243884089
 20
78.63370510826756
 30
0.0
 10
202.9516122103929
 20
78.6619308441422
 30
0.0
 10
202.9352626471268
 20
78.71326407146417
 30
0.0
 10
202.9411202822827
 20
78.73600035510748
 30
0.0
 10
202.978198830698
 20
78.79801790189542
 30
0.0
 10
203.0282103736668
 20
78.83050598295364
 30
0.0
 10
203.0872562547928
 20
78.85770897155011
 30
0.0
  0
LINE
  5
197
330
1F
100
AcDbEntity
  8
0
  6
Continuous
 62
     7
370
    15
100
AcDbLine
 10
205.1024087903
 20
77.4057654205
 30
0.0
 11
203.0203425089
 21
78.6077167005
 31
0.0
  0
SPLINE
  5
198
330
1F
100
AcDbEntity
  8
0
  6
Continuous
 62
     7
370
    15
100
AcDbSpline
210
0.0
220
0.0
230
1.0
 70
     8
 71
     3
 72
    12
 73
     8
 74
     0
 42
0.000000001
 43
0.00000001
 40
0.0
 40
0.0
 40
0.0
 40
0.0
 40
0.4999999999999987
 40
0.4999999999999987
 40
0.7499999999999993
 40
0.7499999999999993
 40
1.0
 40
1.0
 40
1.0
 40
1.0
 10
205.7816949718543
 20
77.30224260922297
 30
0.0
 10
205.6791397041847
 20
77.30005958460208
 30
0.0
 10
205.5711620797221
 20
77.30182643900238
 30
0.0
 10
205.3926227790209
 20
77.32097463843205
 30
0.0
 10
205.330710769467
 20
77.33026038087056
 30
0.0
 10
205.2091865035643
 20
77.359039542941
 30
0.0
 10
205.1472931673472
 20
77.37985422115301
 30
0.0
 10
205.1024087902512
 20
77.40576542051518
 30
0.0
  0
ELLIPSE
  5
199
330
1F
100
AcDbEntity
  8
0
  6
Continuous
 62
     7
370
    15
100
AcDbEllipse
 10
190.8914640325
 20
59.974832981
 30
0.0
 11
25.24558057051169
 21
13.2098491763475
 31
0.0
210
0.0
220
0.0
230
1.0
 40
0.4445305117
 41
0.274777575065676
 42
0.7302899226135957
  0
ELLIPSE
  5
19A
330
1F
100
AcDbEntity
  8
0
  6
Continuous
 62
     7
370
    15
100
AcDbEllipse
 10
206.5273735572
 20
50.9484145451
 30
0.0
 11
-1.184292268249379
 21
28.46789501682915
 31
0.0
210
0.0
220
0.0
230
1.0
 40
0.4444802122
 41
5.829499913454029
 42
6.463971794465666
  0
ELLIPSE
  5
19B
330
1F
100
AcDbEntity
  8
0
  6
Continuous
 62
     7
370
    15
100
AcDbEllipse
 10
190.8914640325
 20
59.974832981
 30
0.0
 11
-1.184292268249436
 21
28.46789501682919
 31
0.0
210
0.0
220
0.0
230
1.0
 40
0.4444802122
 41
2.41119191765585
 42
2.866866793327972
  0
SPLINE
  5
19C
330
1F
100
AcDbEntity
  8
0
  6
Continuous
 62
     7
370
    15
100
AcDbSpline
210
0.0
220
0.0
230
1.0
 70
     8
 71
     3
 72
    12
 73
     8
 74
     0
 42
0.000000001
 43
0.00000001
 40
0.0
 40
0.0
 40
0.0
 40
0.0
 40
0.2499999999999982
 40
0.2499999999999982
 40
0.4999999999999963
 40
0.4999999999999963
 40
1.0
 40
1.0
 40
1.0
 40
1.0
 10
182.9024087902511
 20
38.95423760533706
 30
0.0
 10
182.9474269107276
 20
38.92824919756475
 30
0.0
 10
182.9954189606521
 20
38.88600243347435
 30
0.0
 10
183.0823077515556
 20
38.7939345389864
 30
0.0
 10
183.1206501283841
 20
38.74567383670095
 30
0.0
 10
183.2260233125701
 20
38.6013939217375
 30
0.0
 10
183.2823910053419
 20
38.5074744512752
 30
0.0
 10
183.3316949718542
 20
38.41770209342346
 30
0.0
  0
LINE
  5
19D
330
1F
100
AcDbEntity
  8
0
  6
Continuous
 62
     7
370
    15
100
AcDbLine
 10
180.8203425089
 20
40.1561888853
 30
0.0
 11
182.9024087903
 21
38.9542376053
 31
0.0
  0
SPLINE
  5
19E
330
1F
100
AcDbEntity
  8
0
  6
Continuous
 62
     7
370
    15
100
AcDbSpline
210
0.0
220
0.0
230
1.0
 70
     8
 71
     3
 72
    12
 73
     8
 74
     0
 42
0.000000001
 43
0.00000001
 40
0.0
 40
0.0
 40
0.0
 40
0.0
 40
0.5000000000000032
 40
0.5000000000000032
 40
0.7500000000000016
 40
0.7500000000000016
 40
1.0
 40
1.0
 40
1.0
 40
1.0
 10
180.6372562547927
 20
39.97316845575061
 30
0.0
 10
180.6312893631908
 20
40.03802035535228
 30
0.0
 10
180.6342523423988
 20
40.09689687294894
 30
0.0
 10
180.6694799939482
 20
40.16050762233007
 30
0.0
 10
180.6866231244018
 20
40.17707480528671
 30
0.0
 10
180.7384813514757
 20
40.1885260653446
 30
0.0
 10
180.7754581317892
 20
40.1821000846793
 30
0.0
 10
180.8203425088853
 20
40.15618888531713
 30
0.0
  0
ELLIPSE
  5
19F
330
1F
100
AcDbEntity
  8
0
  6
Continuous
 62
     7
370
    15
100
AcDbEllipse
 10
206.5273735572
 20
50.9484145451
 30
0.0
 11
25.24558057051163
 21
13.20984917634753
 31
0.0
210
0.0
220
0.0
230
1.0
 40
0.4445305117
 41
2.960695352983348
 42
3.595329762119255
  0
SPLINE
  5
1A0
330
1F
100
AcDbEntity
  8
0
  6
Continuous
 62
     7
370
    15
100
AcDbSpline
210
0.0
220
0.0
230
1.0
 70
     8
 71
     3
 72
    12
 73
     8
 74
     0
 42
0.000000001
 43
0.00000001
 40
0.0
 40
0.0
 40
0.0
 40
0.0
 40
0.2500000000000016
 40
0.2500000000000016
 40
0.5000000000000032
 40
0.5000000000000032
 40
1.0
 40
1.0
 40
1.0
 40
1.0
 10
180.8203425088854
 20
52.51667335980453
 30
0.0
 10
180.7753446698695
 20
52.54265005933878
 30
0.0
 10
180.739053576855
 20
52.59160971553038
 30
0.0
 10
180.6864203103251
 20
52.70339135930614
 30
0.0
 10
180.6696535319707
 20
52.76407451321871
 30
0.0
 10
180.6344579513511
 20
52.94879192726511
 30
0.0
 10
180.6312574043
 20
53.07281676014345
 30
0.0
 10
180.6372562547926
 20
53.19533706458633
 30
0.0
  0
LINE
  5
1A1
330
1F
100
AcDbEntity
  8
0
  6
Continuous
 62
     7
370
    15
100
AcDbLine
 10
182.9024087903
 20
51.3147220798
 30
0.0
 11
180.8203425089
 21
52.5166733598
 31
0.0
  0
SPLINE
  5
1A2
330
1F
100
AcDbEntity
  8
0
  6
Continuous
 62
     7
370
    15
100
AcDbSpline
210
0.0
220
0.0
230
1.0
 70
     8
 71
     3
 72
    12
 73
     8
 74
     0
 42
0.000000001
 43
0.00000001
 40
0.0
 40
0.0
 40
0.0
 40
0.0
 40
0.4999999999999996
 40
0.4999999999999996
 40
0.7499999999999998
 40
0.7499999999999998
 40
1.0
 40
1.0
 40
1.0
 40
1.0
 10
183.3316949718543
 20
51.63987070225916
 30
0.0
 10
183.2820675656449
 20
51.54258601736544
 30
0.0
 10
183.2259907247073
 20
51.45284923449266
 30
0.0
 10
183.1204961895264
 20
51.34913111358848
 30
0.0
 10
183.0816030203506
 20
51.32009979140353
 30
0.0
 10
182.9960881782755
 20
51.28931018057953
 30
0.0
 10
182.9473322591034
 20
51.28878831327127
 30
0.0
 10
182.902408790251
 20
51.31472207982401
 30
0.0
  0
ELLIPSE
  5
1A3
330
1F
100
AcDbEntity
  8
0
  6
Continuous
 62
     7
370
    15
100
AcDbEllipse
 10
190.8914640325
 20
59.974832981
 30
0.0
 11
12.49982297888377
 21
21.6507373182565
 31
0.0
210
0.0
220
0.0
230
1.0
 40
0.1059897947
 41
1.115125557425493
 42
2.026312780645513
  0
SPLINE
  5
1A4
330
1F
100
AcDbEntity
  8
0
  6
Continuous
 62
     7
370
    15
100
AcDbSpline
210
0.0
220
0.0
230
1.0
 70
     8
 71
     3
 72
    12
 73
     8
 74
     0
 42
0.000000001
 43
0.00000001
 40
0.0
 40
0.0
 40
0.0
 40
0.0
 40
0.2499999999999974
 40
0.2499999999999974
 40
0.4999999999999949
 40
0.4999999999999949
 40
1.0
 40
1.0
 40
1.0
 40
1.0
 10
194.398495080811
 20
71.22652756483143
 30
0.0
 10
194.4434929198268
 20
71.20055086529719
 30
0.0
 10
194.4672044897767
 20
71.1588555739463
 30
0.0
 10
194.4835737165204
 20
71.0680155202653
 30
0.0
 10
194.4777327216592
 20
71.02038779874327
 30
0.0
 10
194.4407081074293
 20
70.87737576903957
 30
0.0
 10
194.3910378731113
 20
70.78388251063407
 30
0.0
 10
194.3315813349038
 20
70.69223270462821
 30
0.0
  0
LINE
  5
1A5
330
1F
100
AcDbEntity
  8
0
  6
Continuous
 62
     7
370
    15
100
AcDbLine
 10
192.3164287994
 20
72.4284788448
 30
0.0
 11
194.3984950808
 21
71.2265275648
 31
0.0
  0
SPLINE
  5
1A6
330
1F
100
AcDbEntity
  8
0
  6
Continuous
 62
     7
370
    15
100
AcDbSpline
210
0.0
220
0.0
230
1.0
 70
     8
 71
     3
 72
    12
 73
     8
 74
     0
 42
0.000000001
 43
0.00000001
 40
0.0
 40
0.0
 40
0.0
 40
0.0
 40
0.5000000000000004
 40
0.5000000000000004
 40
0.7500000000000002
 40
0.7500000000000002
 40
1.0
 40
1.0
 40
1.0
 40
1.0
 10
191.6371426178421
 20
72.24769906695539
 30
0.0
 10
191.7402067542491
 20
72.31412535586234
 30
0.0
 10
191.8491236559164
 20
72.37334830467508
 30
0.0
 10
192.0269349611425
 20
72.43530527143892
 30
0.0
 10
192.0886503742678
 20
72.45115730966519
 30
0.0
 10
192.2098763113937
 20
72.46132464236469
 30
0.0
 10
192.2715053305931
 20
72.4544126113646
 30
0.0
 10
192.3164287994455
 20
72.42847884481186
 30
0.0
  0
ELLIPSE
  5
1A7
330
1F
100
AcDbEntity
  8
0
  6
Continuous
 62
     7
370
    15
100
AcDbEllipse
 10
206.5273735572
 20
50.9484145451
 30
0.0
 11
22.70219620007467
 21
-13.11730493221872
 31
0.0
210
0.0
220
0.0
230
1.0
 40
0.9534948969
 41
2.686319833441777
 42
3.597507056661807
  0
ARC
  5
1A8
330
1F
100
AcDbEntity
  8
0
  6
Continuous
 62
     7
370
    15
100
AcDbCircle
 10
199.4311318208
 20
71.3148322533
 30
0.0
 40
10.9270596378704
100
AcDbArc
 50
63.2495135341
 51
111.949581621
  0
ARC
  5
1A9
330
1F
100
AcDbEntity
  8
0
  6
Continuous
 62
     7
370
    15
100
AcDbCircle
 10
185.5629078802
 20
47.0849385076
 30
0.0
 40
11.19598254834593
100
AcDbArc
 50
186.1300379425
 51
236.303810631
  0
SPLINE
  5
1AA
330
1F
100
AcDbEntity
  8
0
  6
Continuous
 62
     7
370
    15
100
AcDbSpline
210
0.0
220
0.0
230
1.0
 70
     8
 71
     3
 72
    18
 73
    14
 74
     0
 42
0.000000001
 43
0.00000001
 40
0.0
 40
0.0
 40
0.0
 40
0.0
 40
0.2499999999999966
 40
0.2499999999999966
 40
0.3749999999999974
 40
0.3749999999999974
 40
0.4999999999999982
 40
0.4999999999999982
 40
0.624999999999999
 40
0.624999999999999
 40
0.7499999999999999
 40
0.7499999999999999
 40
1.0
 40
1.0
 40
1.0
 40
1.0
 10
231.513046724216
 20
60.55919797801926
 30
0.0
 10
231.3030560914767
 20
60.71359153976702
 30
0.0
 10
231.0977893352023
 20
60.89115564221589
 30
0.0
 10
230.7954076819553
 20
61.19018631457042
 30
0.0
 10
230.6957508445727
 20
61.29531127751275
 30
0.0
 10
230.5044093729853
 20
61.50950271777009
 30
0.0
 10
230.4118749930435
 20
61.61938692092577
 30
0.0
 10
230.2326570747849
 20
61.84437499281816
 30
0.0
 10
230.145365636622
 20
61.96038324081245
 30
0.0
 10
229.9808874601462
 20
62.19124281710057
 30
0.0
 10
229.9033629337394
 20
62.30641620561135
 30
0.0
 10
229.6839304536379
 20
62.65073574445458
 30
0.0
 10
229.554492582912
 20
62.8801351574973
 30
0.0
 10
229.4468154380287
 20
63.09752025890727
 30
0.0
  0
ELLIPSE
  5
1AB
330
1F
100
AcDbEntity
  8
0
  6
Continuous
 62
     7
370
    15
100
AcDbEllipse
 10
213.9696801444
 20
46.6520624027
 30
0.0
 11
5.434907954689066
 21
25.04434674121969
 31
0.0
210
0.0
220
0.0
230
1.0
 40
0.6927618609
 41
5.568346462193368
 42
8.079766567307276
  0
SPLINE
  5
1AC
330
1F
100
AcDbEntity
  8
0
  6
Continuous
 62
     7
370
    15
100
AcDbSpline
210
0.0
220
0.0
230
1.0
 70
     8
 71
     3
 72
    16
 73
    12
 74
     0
 42
0.000000001
 43
0.00000001
 40
0.0
 40
0.0
 40
0.0
 40
0.0
 40
0.2500000000000001
 40
0.2500000000000001
 40
0.3749999999999999
 40
0.3749999999999999
 40
0.4999999999999999
 40
0.4999999999999999
 40
0.7499999999999999
 40
0.7499999999999999
 40
1.0
 40
1.0
 40
1.0
 40
1.0
 10
195.8435511761232
 20
44.71488222111072
 30
0.0
 10
195.8275962474802
 20
44.42972199897502
 30
0.0
 10
195.8437412977189
 20
44.14481676964155
 30
0.0
 10
195.9155665860694
 20
43.7175344148851
 30
0.0
 10
195.9478244399949
 20
43.57458180150105
 30
0.0
 10
196.0265399807831
 20
43.29762108693064
 30
0.0
 10
196.0731128709204
 20
43.16251521402642
 30
0.0
 10
196.2340631773912
 20
42.76725717802928
 30
0.0
 10
196.3714764551115
 20
42.51553890960065
 30
0.0
 10
196.6847103975641
 20
42.07208905711732
 30
0.0
 10
196.8642436503901
 20
41.87406472128487
 30
0.0
 10
197.0580414173644
 20
41.71061570310504
 30
0.0
  0
ELLIPSE
  5
1AD
330
1F
100
AcDbEntity
  8
0
  6
Continuous
 62
     7
370
    15
100
AcDbEllipse
 10
223.257428775
 20
65.2917864093
 30
0.0
 11
-0.8398196794280181
 21
2.113367734054236
 31
0.0
210
0.0
220
0.0
230
1.0
 40
0.8455285762
 41
0.0
 42
6.283185307179586
  0
LINE
  5
1AE
330
1F
100
AcDbEntity
  8
0
  6
Continuous
 62
     7
370
    15
100
AcDbLine
 10
202.2937012401
 20
23.9483953927
 30
0.0
 11
202.1915358576
 21
24.0083269906
 31
0.0
  0
LINE
  5
1AF
330
1F
100
AcDbEntity
  8
0
  6
Continuous
 62
     7
370
    15
100
AcDbLine
 10
232.6365634438
 20
20.070368205
 30
0.0
 11
245.3022158772
 21
27.3149063413
 31
0.0
  0
LINE
  5
1B0
330
1F
100
AcDbEntity
  8
0
  6
Continuous
 62
     7
370
    15
100
AcDbLine
 10
251.4178138009
 20
48.3133040681
 30
0.0
 11
250.2050719466
 21
41.9192085943
 31
0.0
  0
LINE
  5
1B1
330
1F
100
AcDbEntity
  8
0
  6
Continuous
 62
     7
370
    15
100
AcDbLine
 10
254.2179417328
 20
44.1144457057
 30
0.0
 11
253.9419425548
 21
43.9634605827
 31
0.0
  0
LINE
  5
1B2
330
1F
100
AcDbEntity
  8
0
  6
Continuous
 62
     7
370
    15
100
AcDbLine
 10
252.8048315346
 20
43.3414049357
 30
0.0
 11
250.2050719466
 21
41.9192085943
 31
0.0
  0
LINE
  5
1B3
330
1F
100
AcDbEntity
  8
0
  6
Continuous
 62
     7
370
    15
100
AcDbLine
 10
253.8902980416
 20
42.3869675652
 30
0.0
 11
254.2179417328
 21
44.1144457057
 31
0.0
  0
ELLIPSE
  5
1B4
330
1F
100
AcDbEntity
  8
0
  6
Continuous
 62
     7
370
    15
100
AcDbEllipse
 10
231.4501329431
 20
36.5608118004
 30
0.0
 11
21.54287737978024
 21
27.89548146395875
 31
0.0
210
0.0
220
0.0
230
1.0
 40
0.4716471575
 41
4.744992564505342
 42
5.259218585502543
  0
ARC
  5
1B5
330
1F
100
AcDbEntity
  8
0
  6
Continuous
 62
     7
370
    15
100
AcDbCircle
 10
214.0013376472
 20
46.7004959227
 30
0.0
 40
40.08076760123677
100
AcDbArc
 50
134.5212634635
 51
170.7396457452
  0
LINE
  5
1B6
330
1F
100
AcDbEntity
  8
0
  6
Continuous
 62
     7
370
    15
100
AcDbLine
 10
254.2215992558
 20
44.5788354864
 30
0.0
 11
254.0796798595
 21
44.6896707598
 31
0.0
  0
LINE
  5
1B7
330
1F
100
AcDbEntity
  8
0
  6
Continuous
 62
     7
370
    15
100
AcDbLine
 10
254.2179417328
 20
44.1144457057
 30
0.0
 11
254.2215992558
 21
44.5788354864
 31
0.0
  0
ARC
  5
1B8
330
1F
100
AcDbEntity
  8
0
  6
Continuous
 62
     7
370
    15
100
AcDbCircle
 10
196.7490420666
 20
59.0882068039
 30
0.0
 40
37.22785501754235
100
AcDbArc
 50
140.3510260334
 51
177.2376142263
  0
LINE
  5
1B9
330
1F
100
AcDbEntity
  8
0
  6
Continuous
 62
     7
370
    15
100
AcDbLine
 10
180.8203425089
 20
40.1561888853
 30
0.0
 11
182.9054676488
 21
38.9520804563
 31
0.0
  0
ARC
  5
1BA
330
1F
100
AcDbEntity
  8
0
  6
Continuous
 62
     7
370
    15
100
AcDbCircle
 10
175.4120836697
 20
78.0047691508
 30
0.0
 40
8.780342073794476
100
AcDbArc
 50
93.4295381122
 51
146.5650853551
  0
ARC
  5
1BB
330
1F
100
AcDbEntity
  8
0
  6
Continuous
 62
     7
370
    15
100
AcDbCircle
 10
164.44377918
 20
60.4258401387
 30
0.0
 40
4.900643698121626
100
AcDbArc
 50
174.6547638622
 51
232.6759834224
  0
ARC
  5
1BC
330
1F
100
AcDbEntity
  8
0
  6
Continuous
 62
     7
370
    15
100
AcDbCircle
 10
174.1991644214
 20
78.2727666721
 30
0.0
 40
8.524402758293
100
AcDbArc
 50
62.0154699427
 51
85.3728752634
  0
ARC
  5
1BD
330
1F
100
AcDbEntity
  8
0
  6
Continuous
 62
     7
370
    15
100
AcDbCircle
 10
194.9644909634
 20
60.1185028353
 30
0.0
 40
35.89003709472809
100
AcDbArc
 50
140.3510260334
 51
177.2376142263
  0
ARC
  5
1BE
330
1F
100
AcDbEntity
  8
0
  6
Continuous
 62
     7
370
    15
100
AcDbCircle
 10
174.7727649446
 20
77.6342062332
 30
0.0
 40
9.186372847039182
100
AcDbArc
 50
103.4689958683
 51
144.1118487458
  0
ARC
  5
1BF
330
1F
100
AcDbEntity
  8
0
  6
Continuous
 62
     7
370
    15
100
AcDbCircle
 10
165.2064589279
 20
61.7265715631
 30
0.0
 40
6.091514707189308
100
AcDbArc
 50
178.8560094402
 51
201.1091694604
  0
LWPOLYLINE
  5
1C0
330
1F
100
AcDbEntity
  8
0
  6
Continuous
 62
     7
370
     0
100
AcDbPolyline
 90
       27
 70
   128
 43
0.0
 10
246.946191206
 20
55.0704659835
 10
247.7544839694
 20
54.8793122243
 10
248.5017255411
 20
54.5687160632
 10
249.1444889568
 20
54.1567282203
 10
249.6454191433
 20
53.6672919314
 10
249.975403859
 20
53.1288514546
 10
250.1152655915
 20
52.5726989932
 10
250.0568760855
 20
52.0311561069
 10
249.8036287266
 20
51.5356952997
 10
249.370241331
 20
51.1151109528
 10
248.7819007987
 20
50.7938458996
 10
248.072799343
 20
50.5905708974
 10
247.284147363
 20
50.5170995504
 10
246.461778445
 20
50.5777017462
 10
245.6534856816
 20
50.7688555054
 10
244.90624411
 20
51.0794516665
 10
244.2634806942
 20
51.4914395094
 10
243.7625505077
 20
51.9808757983
 10
243.432565792
 20
52.5193162751
 10
243.2927040595
 20
53.0754687365
 10
243.3510935656
 20
53.6170116228
 10
243.6043409244
 20
54.11247243
 10
244.03772832
 20
54.5330567769
 10
244.6260688523
 20
54.8543218301
 10
245.335170308
 20
55.0575968323
 10
246.1238222881
 20
55.1310681793
 10
246.946191206
 20
55.0704659835
  0
LINE
  5
1C1
330
1F
100
AcDbEntity
  8
0
  6
Continuous
 62
     7
370
     0
100
AcDbLine
 10
197.0580414174
 20
41.7106157031
 30
0.0
 11
231.5130467242
 21
60.559197978
 31
0.0
  0
LWPOLYLINE
  5
1C2
330
1F
100
AcDbEntity
  8
0
  6
Continuous
 62
     7
370
     0
100
AcDbPolyline
 90
       21
 70
   128
 43
0.0
 10
174.1728134877
 20
49.2161017076
 10
174.2419893538
 20
51.0601851442
 10
174.4489755574
 20
52.9697048826
 10
174.7921521507
 20
54.9297163418
 10
175.2688333115
 20
56.9248797748
 10
175.8752883636
 20
58.9395803225
 10
176.6067709737
 20
60.9580502214
 10
177.4575562988
 20
62.964492208
 10
178.4209857901
 20
64.9432031531
 10
179.4895193056
 20
66.8786969609
 10
180.6547941218
 20
68.755825768
 10
181.9076903832
 20
70.5598984964
 10
183.238402478
 20
72.276795831
 10
184.6365157796
 20
73.8930807222
 10
186.091088156
 20
75.3961035494
 10
187.590735606
 20
76.7741011211
 10
189.1237213551
 20
78.0162887379
 10
190.6780477112
 20
79.1129445974
 10
192.2415499633
 20
80.0554858807
 10
193.8019915863
 20
80.8365359243
 10
195.3467001064
 20
81.4498236149
  0
LWPOLYLINE
  5
1C3
330
1F
100
AcDbEntity
  8
0
  6
Continuous
 62
     7
370
     0
100
AcDbPolyline
 90
        3
 70
   128
 43
0.0
 10
174.4309428698
 20
45.8893716003
 10
174.2419893538
 20
47.451887026
 10
174.1728134877
 20
49.2161017076
  0
LINE
  5
1C4
330
1F
100
AcDbEntity
  8
0
  6
Continuous
 62
     7
370
     0
100
AcDbLine
 10
195.8435511761
 20
44.7148822211
 30
0.0
 11
229.446815438
 21
63.0975202589
 31
0.0
  0
LINE
  5
1C5
330
1F
100
AcDbEntity
  8
0
  6
Continuous
 62
     7
370
     0
100
AcDbLine
 10
194.3984950808
 20
71.2265275648
 30
0.0
 11
191.3188724499
 21
65.8924647157
 31
0.0
  0
LINE
  5
1C6
330
1F
100
AcDbEntity
  8
0
  6
Continuous
 62
     7
370
     0
100
AcDbLine
 10
185.9822121329
 20
56.649097931
 30
0.0
 11
182.9024087903
 21
51.3147220798
 31
0.0
  0
LINE
  5
1C7
330
1F
100
AcDbEntity
  8
0
  6
Continuous
 62
     7
370
     0
100
AcDbLine
 10
192.3164287994
 20
72.4284788448
 30
0.0
 11
180.8203425089
 21
52.5166733598
 31
0.0
  0
LINE
  5
1C8
330
1F
100
AcDbEntity
  8
0
  6
Continuous
 62
     7
370
     0
100
AcDbLine
 10
191.6371426178
 20
72.247699067
 30
0.0
 11
180.6372562548
 21
53.1953370646
 31
0.0
  0
LINE
  5
1C9
330
1F
100
AcDbEntity
  8
0
  6
Continuous
 62
     7
370
     0
100
AcDbLine
 10
235.1031620669
 20
47.984855295
 30
0.0
 11
235.6131550044
 21
50.6737569125
 31
0.0
  0
LINE
  5
1CA
330
1F
100
AcDbEntity
  8
0
  6
Continuous
 62
     7
370
     0
100
AcDbLine
 10
168.0847805727
 20
82.8426443308
 30
0.0
 11
184.3279918012
 21
73.6403579444
 31
0.0
  0
LINE
  5
1CB
330
1F
100
AcDbEntity
  8
0
  6
Continuous
 62
     7
370
     0
100
AcDbLine
 10
159.5644461296
 20
60.8823679466
 30
0.0
 11
174.2353076292
 21
51.9765358792
 31
0.0
  0
LINE
  5
1CC
330
1F
100
AcDbEntity
  8
0
  6
Continuous
 62
     7
370
     0
100
AcDbLine
 10
180.6372562548
 20
39.9731684558
 30
0.0
 11
183.3321016924
 21
38.4169615672
 31
0.0
  0
LINE
  5
1CD
330
1F
100
AcDbEntity
  8
0
  6
Continuous
 62
     7
370
     0
100
AcDbLine
 10
205.7807622245
 20
77.3022755927
 30
0.0
 11
203.0872562548
 21
78.8577089716
 31
0.0
  0
LINE
  5
1CE
330
1F
100
AcDbEntity
  8
0
  6
Continuous
 62
     7
370
     0
100
AcDbLine
 10
174.8868348656
 20
86.769386691
 30
0.0
 11
189.8985917038
 21
78.6907944563
 31
0.0
  0
LINE
  5
1CF
330
1F
100
AcDbEntity
  8
0
  6
Continuous
 62
     7
370
     0
100
AcDbLine
 10
167.3303066188
 20
83.0193023469
 30
0.0
 11
168.0847805727
 21
82.8426443308
 31
0.0
  0
LINE
  5
1D0
330
1F
100
AcDbEntity
  8
0
  6
Continuous
 62
     7
370
     0
100
AcDbLine
 10
159.1161583935
 20
61.8481891129
 30
0.0
 11
159.5644461296
 21
60.8823679466
 31
0.0
  0
OLE2FRAME
  5
1D1
330
1F
100
AcDbEntity
  8
0
100
AcDbOle2Frame
 70
     2
  3
Paintbrush-Bild
 10
13.8511154363
 20
38.264191557
 30
0.0
 11
51.6290888628
 21
31.9806341108
 31
0.0
 71
     2
 72
     0
 73
     1
 90
    12928
310
80552BED0767C5B32B40DDAF6807D121434000000000000000006FFBDDFB85D0
310
4940DDAF6807D121434000000000000000006FFBDDFB85D04940416F4BD60AFB
310
3F4000000000000000002BED0767C5B32B40416F4BD60AFB3F40000000000000
310
0000000000000100000000010000010000000100000000000100000000320000
310
D0CF11E0A1B11AE1000000000000000000000000000000003E000300FEFF0900
310
0600000000000000000000000100000001000000000000000010000002000000
310
01000000FEFFFFFF0000000000000000FFFFFFFFFFFFFFFFFFFFFFFFFFFFFFFF
310
FFFFFFFFFFFFFFFFFFFFFFFFFFFFFFFFFFFFFFFFFFFFFFFFFFFFFFFFFFFFFFFF
310
FFFFFFFFFFFFFFFFFFFFFFFFFFFFFFFFFFFFFFFFFFFFFFFFFFFFFFFFFFFFFFFF
310
FFFFFFFFFFFFFFFFFFFFFFFFFFFFFFFFFFFFFFFFFFFFFFFFFFFFFFFFFFFFFFFF
310
FFFFFFFFFFFFFFFFFFFFFFFFFFFFFFFFFFFFFFFFFFFFFFFFFFFFFFFFFFFFFFFF
310
FFFFFFFFFFFFFFFFFFFFFFFFFFFFFFFFFFFFFFFFFFFFFFFFFFFFFFFFFFFFFFFF
310
FFFFFFFFFFFFFFFFFFFFFFFFFFFFFFFFFFFFFFFFFFFFFFFFFFFFFFFFFFFFFFFF
310
FFFFFFFFFFFFFFFFFFFFFFFFFFFFFFFFFFFFFFFFFFFFFFFFFFFFFFFFFFFFFFFF
310
FFFFFFFFFFFFFFFFFFFFFFFFFFFFFFFFFFFFFFFFFFFFFFFFFFFFFFFFFFFFFFFF
310
FFFFFFFFFFFFFFFFFFFFFFFFFFFFFFFFFFFFFFFFFFFFFFFFFFFFFFFFFFFFFFFF
310
FFFFFFFFFFFFFFFFFFFFFFFFFFFFFFFFFFFFFFFFFFFFFFFFFFFFFFFFFFFFFFFF
310
FFFFFFFFFFFFFFFFFFFFFFFFFFFFFFFFFFFFFFFFFFFFFFFFFFFFFFFFFFFFFFFF
310
FFFFFFFFFFFFFFFFFFFFFFFFFFFFFFFFFFFFFFFFFFFFFFFFFFFFFFFFFFFFFFFF
310
FFFFFFFFFFFFFFFFFFFFFFFFFFFFFFFFFFFFFFFFFFFFFFFFFFFFFFFFFFFFFFFF
310
FDFFFFFFFEFFFFFFFEFFFFFFFEFFFFFF05000000060000000700000008000000
310
090000000A0000000B0000000C0000000D0000000E0000000F00000010000000
310
11000000120000001300000014000000150000001600000017000000FEFFFFFF
310
FFFFFFFFFFFFFFFFFFFFFFFFFFFFFFFFFFFFFFFFFFFFFFFFFFFFFFFFFFFFFFFF
310
FFFFFFFFFFFFFFFFFFFFFFFFFFFFFFFFFFFFFFFFFFFFFFFFFFFFFFFFFFFFFFFF
310
FFFFFFFFFFFFFFFFFFFFFFFFFFFFFFFFFFFFFFFFFFFFFFFFFFFFFFFFFFFFFFFF
310
FFFFFFFFFFFFFFFFFFFFFFFFFFFFFFFFFFFFFFFFFFFFFFFFFFFFFFFFFFFFFFFF
310
FFFFFFFFFFFFFFFFFFFFFFFFFFFFFFFFFFFFFFFFFFFFFFFFFFFFFFFFFFFFFFFF
310
FFFFFFFFFFFFFFFFFFFFFFFFFFFFFFFFFFFFFFFFFFFFFFFFFFFFFFFFFFFFFFFF
310
FFFFFFFFFFFFFFFFFFFFFFFFFFFFFFFFFFFFFFFFFFFFFFFFFFFFFFFFFFFFFFFF
310
FFFFFFFFFFFFFFFFFFFFFFFFFFFFFFFFFFFFFFFFFFFFFFFFFFFFFFFFFFFFFFFF
310
FFFFFFFFFFFFFFFFFFFFFFFFFFFFFFFFFFFFFFFFFFFFFFFFFFFFFFFFFFFFFFFF
310
FFFFFFFFFFFFFFFFFFFFFFFFFFFFFFFFFFFFFFFFFFFFFFFFFFFFFFFFFFFFFFFF
310
FFFFFFFFFFFFFFFFFFFFFFFFFFFFFFFFFFFFFFFFFFFFFFFFFFFFFFFFFFFFFFFF
310
FFFFFFFFFFFFFFFFFFFFFFFFFFFFFFFFFFFFFFFFFFFFFFFFFFFFFFFFFFFFFFFF
310
FFFFFFFFFFFFFFFFFFFFFFFFFFFFFFFFFFFFFFFFFFFFFFFFFFFFFFFFFFFFFFFF
310
52006F006F007400200045006E00740072007900000000000000000000000000
310
0000000000000000000000000000000000000000000000000000000000000000
310
16000500FFFFFFFFFFFFFFFF020000000A00030000000000C000000000000046
310
000000000000000000000000908FF1C4A5C8D20103000000C000000000000000
310
01004F006C006500000000000000000000000000000000000000000000000000
310
0000000000000000000000000000000000000000000000000000000000000000
310
0A000200FFFFFFFFFFFFFFFFFFFFFFFF00000000000000000000000000000000
310
0000000000000000000000000000000000000000000000001400000000000000
310
010043006F006D0070004F0062006A0000000000000000000000000000000000
310
0000000000000000000000000000000000000000000000000000000000000000
310
120002010100000003000000FFFFFFFF00000000000000000000000000000000
310
0000000000000000000000000000000000000000010000004D00000000000000
310
01004F006C006500310030004E00610074006900760065000000000000000000
310
0000000000000000000000000000000000000000000000000000000000000000
310
1A000200FFFFFFFFFFFFFFFFFFFFFFFF00000000000000000000000000000000
310
0000000000000000000000000000000000000000040000002426000000000000
310
FEFFFFFF02000000FEFFFFFFFFFFFFFFFFFFFFFFFFFFFFFFFFFFFFFFFFFFFFFF
310
FFFFFFFFFFFFFFFFFFFFFFFFFFFFFFFFFFFFFFFFFFFFFFFFFFFFFFFFFFFFFFFF
310
FFFFFFFFFFFFFFFFFFFFFFFFFFFFFFFFFFFFFFFFFFFFFFFFFFFFFFFFFFFFFFFF
310
FFFFFFFFFFFFFFFFFFFFFFFFFFFFFFFFFFFFFFFFFFFFFFFFFFFFFFFFFFFFFFFF
310
FFFFFFFFFFFFFFFFFFFFFFFFFFFFFFFFFFFFFFFFFFFFFFFFFFFFFFFFFFFFFFFF
310
FFFFFFFFFFFFFFFFFFFFFFFFFFFFFFFFFFFFFFFFFFFFFFFFFFFFFFFFFFFFFFFF
310
FFFFFFFFFFFFFFFFFFFFFFFFFFFFFFFFFFFFFFFFFFFFFFFFFFFFFFFFFFFFFFFF
310
FFFFFFFFFFFFFFFFFFFFFFFFFFFFFFFFFFFFFFFFFFFFFFFFFFFFFFFFFFFFFFFF
310
FFFFFFFFFFFFFFFFFFFFFFFFFFFFFFFFFFFFFFFFFFFFFFFFFFFFFFFFFFFFFFFF
310
FFFFFFFFFFFFFFFFFFFFFFFFFFFFFFFFFFFFFFFFFFFFFFFFFFFFFFFFFFFFFFFF
310
FFFFFFFFFFFFFFFFFFFFFFFFFFFFFFFFFFFFFFFFFFFFFFFFFFFFFFFFFFFFFFFF
310
FFFFFFFFFFFFFFFFFFFFFFFFFFFFFFFFFFFFFFFFFFFFFFFFFFFFFFFFFFFFFFFF
310
FFFFFFFFFFFFFFFFFFFFFFFFFFFFFFFFFFFFFFFFFFFFFFFFFFFFFFFFFFFFFFFF
310
FFFFFFFFFFFFFFFFFFFFFFFFFFFFFFFFFFFFFFFFFFFFFFFFFFFFFFFFFFFFFFFF
310
FFFFFFFFFFFFFFFFFFFFFFFFFFFFFFFFFFFFFFFFFFFFFFFFFFFFFFFFFFFFFFFF
310
FFFFFFFFFFFFFFFFFFFFFFFFFFFFFFFFFFFFFFFFFFFFFFFFFFFFFFFFFFFFFFFF
310
0100000200000000000000000000000000000000000000000000000000000000
310
0000000000000000000000000000000000000000000000000000000000000000
310
0100FEFF030A0000FFFFFFFF0A00030000000000C00000000000004607000000
310
5042727573680007000000504272757368000700000050427275736800F439B2
310
7100000000000000000000000000000000000000000000000000000000000000
310
0000000000000000000000000000000000000000000000000000000000000000
310
0000000000000000000000000000000000000000000000000000000000000000
310
0000000000000000000000000000000000000000000000000000000000000000
310
0000000000000000000000000000000000000000000000000000000000000000
310
0000000000000000000000000000000000000000000000000000000000000000
310
0000000000000000000000000000000000000000000000000000000000000000
310
0000000000000000000000000000000000000000000000000000000000000000
310
0000000000000000000000000000000000000000000000000000000000000000
310
0000000000000000000000000000000000000000000000000000000000000000
310
0000000000000000000000000000000000000000000000000000000000000000
310
0000000000000000000000000000000000000000000000000000000000000000
310
20260000424D0E260000000000003E00000028000000B40200006E0000000100
310
01000000000000000000130B0000130B00000200000002000000000000FFFFFF
310
FFFFFFFFFFFFFFFFFFFFFFFFFFFFFFFFFFFFFFFFFFFFFFFFFFFFFFFFFFFFFFFF
310
FFFFFFFFFFFFFFFFFFFFFFFFFFFFFFFFFFFFFFFFFFFFFFFFFFFFFFFFFFFFFFFF
310
FFFFFFFFFFFFFFFFFFFFFFFFFFFFFFFFFFFFFFFFFFFFFFFFF000FFFFFFFFFFFF
310
FFFFFFFFFFFFFFFFFFFFFFFFFFFFFFFFFFFFFFFFFFFFFFFFFFFFFFFFFFFFFFFF
310
FFFFFFFFFFFFFFFFFFFFFFFFFFFFFFFFFFFFFFFFFFFFFFFFFFFFFFFFFFFFFFFF
310
FFFFFFFFFFFFFFFFFFFFFFFFFFFFFFFFF000FFFFFFFFFFFFFFFFFFFFFFFFFFFF
310
FFFFFFFFFFFFFFFFFFFFFFFFFFFFFFFFFFFFFFFFFFFFFFFFFFFFFFFFFFFFFFFF
310
FFFFFFFFFFFFFFFFFFFFFFFFFFFFFFFFFFFFFFFFFFFFFFFFFFFFFFFFFFFFFFFF
310
FFFFFFFFFFFFFFFFF000FFFFFFFFFFFFFFFFFFFFFFFFFFFFFFFFFFFFFFFFFFFF
310
FFFFFFFFFFFFFFFFFFFFFFFFFFFFFFFFFFFFFFFFFFFFFFFFFFFFFFFFFFFFFFFF
310
FFFFFFFFFFFFFFFFFFFFFFFFFFFFFFFFFFFFFFFFFFFFFFFFFFFFFFFFFFFFFFFF
310
F000FFFFFFFFFFFFFFFFFFFFFFFFFFFFFFFFFFFFFFFFFFFFFFFFFFFFFFFFFFFF
310
FFFFFFFFFFFFFFFFFFFFFFFFFFFFFFFFFFFFFFFFFFFFFFFFFFFFFFFFFFFFFFFF
310
FFFFFFFFFFFFFFFFFFFFFFFFFFFFFFFFFFFFFFFFFFFFFFFFF000FFFFFFFFFFFF
310
FFFFFFFFFFFFFFFFFFFFFFFFFFFFFFFFFFFFFFFFFFFFFFFFFFFFFFFFFFFFFFFF
310
FFFFFFFFFFFFFFFFFFFFFFFFFFFFFFFFFFFFFFFFFFFFFFFFFFFFFFFFFFFFFFFF
310
FFFFFFFFFFFFFFFFFFFFFFFFFFFFFFFFF000FFFFFFFFFFFFFFFFFFFFFFFFFFFF
310
FFFFFFFFFFFFFFFFFFFFFFFFFFFFFFFFFFFFFFFFFFFFFFFFFFFFFFFFFFFFFFFF
310
FFFFFFFFFFFFFFFFFFFFFFFFFFFFFFFFFFFFFFFFFFFFFFFFFFFFFFFFFFFFFFFF
310
FFFFFFFFFFFFFFFFF000FFFFFFFFFFFFFFFFFFFFFFFFFFFFFFFFFFFFFFFFFFFF
310
FFFFFFFFFFFFFFFFFFFFFFFFFFFFFFFFFFFFFFFFFFFFFFFFFFFFFFFFFFFFFFFF
310
FFFFFFFFFFFFFFFFFFFFFFFFFFFFFFFFFFFFFFFFFFFFFFFFFFFFFFFFFFFFFFFF
310
F000FFFFFFFFFFFFFFFFFFFFFFFFFFFFFFFFFFFFFFFFFFFFFFFFFFFFFFFFFFFF
310
FFFFFFFFFFFFFFFFFFFFFFFFFFFFFFFFFFFFFFFFFFFFFFFFFFFFFFFFFFFFFFFF
310
FFFFFFFFFFFFFFFFFFFFFFFFFFFFFFFFFFFFFFFFFFFFFFFFF000FFFFFFFFFFFF
310
FFFFFFFFFFFFFFFFFFFFFFFFFFFFFFFFFFFFFFFFFFFFFFFFFFFFFFFFFFFFFFFF
310
FFFFFFFFFFFFFFFFFFFFFFFFFFFFFFFFFFFFFFFFFFFFFFFFFFFFFFFFFFFFFFFF
310
FFFFFFFFFFFFFFFFFFFFFFFFFFFFFFFFF000FFFFFFFFFFFFFFFFFFFFFFFFFFFF
310
FFFFFFFFFFFFFFFFFFFFFFFFFFFFFFFFFFFFFFFFFFFFFFFFFFFFFFFFFFFFFFFF
310
FFFFFFFFFFFFFFFFFFFFFFFFFFFFFFFFFFFFFFFFFFFFFFFFFFFFFFFFFFFFFFFF
310
FFFFFFFFFFFFFFFFF000FFFFFFFFFFFFFFFFFFFFFFFFFFFFFFFFFFFFFFFFFFFF
310
FFFFFFFFFFFFFFFFFFFFFFFFFFFFFFFFFFFFFFFFFFFFFFFFFFFFFFFFFFFFFFFF
310
FFFFFFFFFFFFFFFFFFFFFFFFFFFFFFFFFFFFFFFFFFFFFFFFFFFFFFFFFFFFFFFF
310
F000FFFFFFFFFFFFFFFFFFFFFFFFFFFFFFFFFFFFFFFFFFFFFFFFFFFFFFFFFFFF
310
FFFFFFFFFFFFFFFFFFFFFFFFFFFFFFFFFFFFFFFFFFFFFFFFFFFFFFFFFFFFFFFF
310
FFFFFFFFFFFFFFFFFFFFFFFFFFFFFFFFFFFFFFFFFFFFFFFFF000FFFFFFFFFFFF
310
FFFFFFFFFFFFFFFFFFFFFFFFFFFFFFFFFFFFFFFFFFFFFFFFFFFFFFFFFFFFFFFF
310
FFFFFFFFFFFFFFFFFFFFFFFFFFFFFFFFFFFFFFFFFFFFFFFFFFFFFFFFFFFFFFFF
310
FFFFFFFFFFFFFFFFFFFFFFFFFFFFFFFFF000FFFFFFFFFFFFFFFFFFFFFFFFFFFF
310
FFFFFFFFFFFFFFFFFFFFFFFFFFFFFFFFFFFFFFFFFFFFFFFFFFFFFFFFFFFFFFFF
310
FFFFFFFFFFFFFFFFFFFFFFFFFFFFFFFFFFFFFFFFFFFFFFFFFFFFFFFFFFFFFFFF
310
FFFFFFFFFFFFFFFFF000FFFFFFFFFFFFFFFFFFFFFFFFFFFFFFFFFFFFFFFFFFFF
310
FFFFFFFFFFFFFFFFFFFFFFFFFFFFFFFFFFFFFFFFFFFFFFFFFFFFFFFFFFFFFFFF
310
FFFFFFFFFFFFFFFFFFFFFFFFFFFFFFFFFFFFFFFFFFFFFFFFFFFFFFFFFFFFFFFF
310
F000FFFFFFFFFFFFFFFFFFFFFFFFFFFFFFFFFFFFFFFFFFFFFFFFFFFFFFFFFFFF
310
FFFFFFFFFFFFFFFFFFFFFFFFFFFFFFFFFFFFFFFFFFFFFFFFFFFFFFFFFFFFFFFF
310
FFFFFFFFFFFFFFFFFFFFFFFFFFFFFFFFFFFFFFFFFFFFFFFFF000FFFFFFFFFFFF
310
FFFFFFFFFFFFFFFFFFFFFFFFFFFFFFFFFFFFFFFFFFFFFFFFFFFFFFFFFFFFFFFF
310
FFFFFFFFFFFFFFFFFFFFFFFFFFFFFFFFFFFFFFFFFFFFFFFFFFFFFFFFFFFFFFFF
310
FFFFFFFFFFFFFFFFFFFFFFFFFFFFFFFFF000FFFFFFFFFFFFFFFFFFFFFFFFFFFF
310
FFFFFFFFFFFFFFFFFFFFFFFFFFFFFFFFFFFFFFFFFFFFFFFFFFFFFFFFFFFFFFFF
310
FFFFFFFFFFFFFFFFFFFFFFFFFFFFFFFFFFFFFFFFFFFFFFFFFFFFFFFFFFFFFFFF
310
FFFFFFFFFFFFFFFFF000FFFFF80003FFFFFFFFFFFFFFFFFFFFFFFFFFFFFFFFFF
310
FFFFF00007FFFFFFFFFF00007FFFFFF800000000000000007FFFFFFFFFFFFFFF
310
FFFFFFFC001FFFFFFFFFFFFFFC001FFFFFFFFFFFFFFFFFFFFFFFFFFE0007FFFF
310
F000FFFF8000007FFFFFFFF8000FFFFFC0007FFFFF80007FFFFF0000007FFFFF
310
FFF8000007FFFFF800000000000000007FFFFFF0001FFFFFFFFFFFC00001FFFF
310
FFFFFFFFC00001FFFFFFFF000000000003FFFFE000007FFFF000FFFE0000000F
310
FFFFFFF0000FFFFF80007FFFFF80007FFFFC0000001FFFFFFFC0000001FFFFF8
310
00000000000000007FFFFFF0001FFFFFFFFFFE0000003FFFFFFFFFFE0000003F
310
FFFFFF000000000003FFFF0000000FFFF000FFF800000003FFFFFFF00007FFFF
310
80007FFFFF80007FFFF000000007FFFFFF000000003FFFF80000000000000000
310
7FFFFFF0001FFFFFFFFFF80000000FFFFFFFFFF80000000FFFFFFF0000000000
310
03FFFC00000003FFF000FFE000000000FFFFFFF00007FFFF80003FFFFF80007F
310
FFC000000001FFFFFC000000001FFFF800000000000000007FFFFFF0001FFFFF
310
FFFFE000000003FFFFFFFFE000000003FFFFFF000000000003FFF000000000FF
310
F000FF80000000007FFFFFF00007FFFF80003FFFFF80007FFF8000000000FFFF
310
F80000000007FFF800000000000000007FFFFFF0001FFFFFFFFFC000000001FF
310
FFFFFFC000000001FFFFFF000000000003FFC0000000007FF000FF0000000000
310
3FFFFFE00007FFFF00003FFFFF80007FFE00000000003FFFF00000000003FFF8
310
00000000000000007FFFFFF0001FFFFFFFFF8000000000FFFFFFFF8000000000
310
FFFFFF000000000003FF80000000003FF000FE00000000001FFFFFE00003FFFF
310
00003FFFFF80007FFC00000000001FFFE00000000001FFF8000001FFFE000000
310
7FFFFFF0001FFFFFFFFE00000000003FFFFFFE00000000003FFFFF0000000000
310
03FF00000000001FF000FC00000000000FFFFFE00003FFFF00001FFFFF80007F
310
F800000000001FFFC00000000000FFF8000001FFFE0000007FFFFFF0001FFFFF
310
FFFC00000000001FFFFFFC00000000001FFFFF000000000003FE00000000000F
310
F000F8000000000007FFFFE00003FFFF00001FFFFF80007FF800000000000FFF
310
800000000000FFF8000001FFFE0000007FFFFFF0001FFFFFFFF800000000000F
310
FFFFF800000000000FFFFF000000000003FC000000000007F000F80000000000
310
03FFFFC00003FFFE00001FFFFF80007FF0000000000007FF0000000000007FF8
310
000001FFFE0000007FFFFFF0001FFFFFFFF0000000000007FFFFF00000000000
310
07FFFF000000000003F8000000000003F000F0000000000003FFFFC00001FFFE
310
00001FFFFF80007FE0000000000007FE0000000000003FF8000001FFFE000000
310
7FFFFFF0001FFFFFFFF0000000000007FFFFF0000000000007FFFF0000000000
310
03F800001F800003F000E00001FFF00001FFFFC00001FFFE00000FFFFF80007F
310
E00001FFE00003FE00001FFF00003FF8000001FFFE0000007FFFFFF0001FFFFF
310
FFE000003E000003FFFFE000003E000003FFFF000000000003F00001FFF80001
310
F000E00007FFFC0001FFFFC00001FFFE00000FFFFF80007FC0000FFFFC0003FC
310
0000FFFFC0001FF8000001FFFE0000007FFFFFF0001FFFFFFFC00003FFE00001
310
FFFFC00003FFE00001FFFF0001FFFFFFFFF00007FFFE0001F000E0000FFFFF00
310
00FFFF800001FFFC00000FFFFF80007FC0001FFFFE0001FC0001FFFFE0001FF8
310
000001FFFE0000007FFFFFF0001FFFFFFF80000FFFF80000FFFF80000FFFF800
310
00FFFF0003FFFFFFFFE0000FFFFF8000F000C0003FFFFF8000FFFF800000FFFC
310
000007FFFF80007F80003FFFFF0001FC0003FFFFF0001FF8000001FFFE000000
310
7FFFFFF0001FFFFFFF80003FFFFE0000FFFF80003FFFFE0000FFFF0003FFFFFF
310
FFE0003FFFFF8000F000C0003FFFFF8000FFFF800000FFFC000007FFFF80007F
310
80007FFFFF8001F80007FFFFF8000FF8000001FFFE0000007FFFFFF0001FFFFF
310
FF00007FFFFF00007FFF00007FFFFF00007FFF0003FFFFFFFFE0003FFFFFC000
310
F000C0007FFFFFC000FFFF000000FFFC000007FFFF80007F8000FFFFFF8000F8
310
000FFFFFF8000FF8000001FFFE0000007FFFFFF0001FFFFFFF0000FFFFFF8000
310
7FFF0000FFFFFF80007FFF0003FFFFFFFFC0007FFFFFC00070008000FFFFFFC0
310
00FFFF000000FFF8000007FFFF80007F8000FFFFFF8000F8000FFFFFF8000FF8
310
000001FFFE0000007FFFFFF0001FFFFFFE0001FFFFFFC0003FFE0001FFFFFFC0
310
003FFF0003FFFFFFFFC0007FFFFFE00070008000FFFFFFC0007FFF0000007FF8
310
000003FFFF80007F0001FFFFFF8000F8000FFFFFF8000FF8000001FFFE000000
310
7FFFFFF0001FFFFFFE0001FFFFFFC0003FFE0001FFFFFFC0003FFF0003FFFFFF
310
FFC000FFFFFFE00070008000FFFFFFC0007FFF0000007FF8000003FFFF80007F
310
0001FFFFFF8000F8001FFFFFF8000FF8000001FFFE0000007FFFFFF0001FFFFF
310
FE0003FFFFFFE0003FFE0003FFFFFFE0003FFF0003FFFFFFFFC000FFFFFFE000
310
70008000FFFFFFC0007FFE0000007FF8000003FFFF80007F0001FFFFFF8000F0
310
001FFFFFF8000FF8000001FFFE0000007FFFFFF0001FFFFFFC0003FFFFFFE000
310
1FFC0003FFFFFFE0001FFF0003FFFFFFFFC000FFFFFFC00070008000FFFFFF80
310
007FFE0000007FF0000003FFFF80007F0001FFFFFF0000F0001FFFFFF8000FF8
310
000001FFFE0000007FFFFFF0001FFFFFFC0007FFFFFFF0001FFC0007FFFFFFF0
310
001FFF0003FFFFFFFFC000FFFFFFC00070008001FFFFFF0000FFFE0000003FF0
310
000001FFFF80007F0001FFFFFF0000F8001FFFFFF0000FF8000001FFFE000000
310
7FFFFFF0001FFFFFFC0007FFFFFFF0001FFC0007FFFFFFF0001FFF0003FFFFFF
310
FFC001FFFFFF80007000FFFFFFFFFE0000FFFE0008003FF0008001FFFF80007F
310
FFFFFFFFFC0000FFFFFFFFFFE0000FF8000001FFFE0000007FFFFFF0001FFFFF
310
F8000FFFFFFFF8000FF8000FFFFFFFF8000FFF0003FFFFFFFFFFFFFFFFFF0000
310
7000FFFFFFFFFC0000FFFC0008003FF0008001FFFF80007FFFFFFFFFF80001FF
310
FFFFFFFF80000FF8000001FFFE0000007FFFFFF0001FFFFFF8000FFFFFFFF800
310
0FF8000FFFFFFFF8000FFF0003FFFFFFFFFFFFFFFFFE0000F000FFFFFFFFE000
310
00FFFC000C003FE000C001FFFF80007FFFFFFFFFC00001FFFFFFFFFE00001FF8
310
000001FFFE0000007FFFFFF0001FFFFFF8000FFFFFFFF8000FF8000FFFFFFFF8
310
000FFF0003FFFFFFFFFFFFFFFFF00000F000FFFFFFFE000001FFFC000C001FE0
310
00C000FFFF80007FFFFFFFFE000001FFFFFFFFE000001FF80FFFFFFFFFFFFFC0
310
7FFFFFF0001FFFFFF8000FFFFFFFF8000FF8000FFFFFFFF8000FFF0003FFFFFF
310
FFFFFFFFFF800000F000FFFFFFC0000001FFFC001C001FE001C000FFFF80007F
310
FFFFFF80000003FFFFFFF80000001FF80FFFFFFFFFFFFFC07FFFFFF0001FFFFF
310
F8001FFFFFFFFC000FF8001FFFFFFFFC000FFF0003FFFFFFFFFFFFFFF0000001
310
F000FFFFF800000001FFF8001C001FE001C000FFFF80007FFFFFF800000003FF
310
FFFF800000003FF80FFFFFFFFFFFFFC07FFFFFF0001FFFFFF8001FFFFFFFFC00
310
0FF8001FFFFFFFFC000FFF0003FFFFFFFFFFFFFE00000001F000FFFFC0000000
310
03FFF8001E001FC001E000FFFF80007FFFFF8000000007FFFFFC000000003FF8
310
0FFFFFFFFFFFFFC07FFFFFF0001FFFFFF8001FFFFFFFFC000FF8001FFFFFFFFC
310
000FFF0003FFFFFFFFFFFFE000000003F000FFFE0000000007FFF8001E000FC0
310
01E0007FFF80007FFFFE0000000007FFFFE0000000007FF80FFFFFFFFFFFFFC0
310
7FFFFFF0001FFFFFF0001FFFFFFFFC0007F0001FFFFFFFFC0007FF0003FFFFFF
310
FFFFFF0000000003F000FFF80000000007FFF8001E000FC003E0007FFF80007F
310
FFF0000000000FFFFF8000000000FFF80FFFFFFFFFFFFFC07FFFFFF0001FFFFF
310
F0001FFFFFFFFC0007F0001FFFFFFFFC0007FF0003FFFFFFFFFFFC0000000007
310
F000FFE0000000000FFFF0003E000FC003E0007FFF80007FFFC0000000001FFF
310
FE0000000001FFF80FFFFFFFFFFFFFC07FFFFFF0001FFFFFF0001FFFFFFFFC00
310
07F0001FFFFFFFFC0007FF0003FFFFFFFFFFF0000000000FF000FFC000000000
310
1FFFF0003F000F8003F0003FFF80007FFF80000000003FFFF80000000003FFF8
310
0FFFFFFFFFFFFFC07FFFFFF0001FFFFFF0001FFFFFFFFC0007F0001FFFFFFFFC
310
0007FF0003FFFFFFFFFFE0000000001FF000FF00000000007FFFF0003F000780
310
03F0003FFF80007FFF00000000007FFFF00000000007FFF80FFFFFFFFFFFFFC0
310
7FFFFFF0001FFFFFF0001FFFFFFFFC0007F0001FFFFFFFFC0007FF0003FFFFFF
310
FFFF80000000007FF000FE0000000000FFFFE0003F00078007F0003FFF80007F
310
FE0000000001FFFFE0000000001FFFF80FFFFFFFFFFFFFC07FFFFFF0001FFFFF
310
F0001FFFFFFFFC0007F0001FFFFFFFFC0007FF0003FFFFFFFFFF0000000000FF
310
F000FC0000000003FFFFE0007F00078007F0003FFF80007FFC0000000007FFFF
310
C0000000007FFFF80FFFFFFFFFFFFFC07FFFFFF0001FFFFFF8001FFFFFFFFC00
310
0FF8001FFFFFFFFC000FFF0003FFFFFFFFFE0000000003FFF000FC000000000F
310
FFFFE0007F80070007F8001FFF80007FF8000000001FFFFF8000000001FFFFF8
310
0FFFFFFFFFFFFFC07FFFFFF0001FFFFFF8001FFFFFFFFC000FF8001FFFFFFFFC
310
000FFF0003FFFFFFFFFC000000000FFFF000F8000000007FFFFFE0007F800700
310
07F8001FFF80007FF000000000FFFFFF800000000FFFFFF80FFFFFFFFFFFFFC0
310
7FFFFFF0001FFFFFF8000FFFFFFFF8000FF8000FFFFFFFF8000FFF0003FFFFFF
310
FFFC000000007FFFF000F800000007FFFFFFC0007F8003000FF8001FFF80007F
310
F000000007FFFFFF000000007FFFFFF80FFFFFFFFFFFFFC07FFFFFF0001FFFFF
310
F8000FFFFFFFF8000FF8000FFFFFFFF8000FFF0003FFFFFFFFF80000000FFFFF
310
F000F0000000FFFFFFFFC000FF8003000FF8001FFF80007FE0000000FFFFFFFF
310
0000000FFFFFFFF8000001FFFE0000007FFFFFF0001FFFFFF8000FFFFFFFF800
310
0FF8000FFFFFFFF8000FFF0003FFFFFFFFF8000000FFFFFFF000F000000FFFFF
310
FFFFC000FFC002000FF8000FFF80007FE000001FFFFFFFFE000001FFFFFFFFF8
310
000001FFFE0000007FFFFFF0001FFFFFF8000FFFFFFFF8000FF8000FFFFFFFF8
310
000FFF0003FFFFFFFFF000001FFFFFFFF000E00000FFFFFFFFFFC000FFC00200
310
0FFC000FFF80007FE00001FFFFFFFFFE00001FFFFFFFFFF8000001FFFE000000
310
7FFFFFF0001FFFFFFC000FFFFFFFF8001FFC000FFFFFFFF8001FFF0003FFFFFF
310
FFF00001FFFFFFFFF000E00007FFFFFFFFFF8000FFC000001FFC000FFF80007F
310
C0000FFFFFFFFFFE0000FFFFFFFFFFF8000001FFFE0000007FFFFFF0001FFFFF
310
FC0007FFFFFFF0001FFC0007FFFFFFF0001FFF0003FFFFFFFFF00007FFFFFFFF
310
F000E0001FFFFFFFFFFF8000FFC000001FFC000FFF80007FC0003FFFFFFFFFFE
310
0001FFFFFFFFFFF8000001FFFE0000007FFFFFF0001FFFFFFC0007FFFFFFF000
310
1FFC0007FFFFFFF0001FFF0003FFFFFFFFF0001FFFFFFFFFF000E0003FFFFF00
310
03FF8001FFE000001FFC0007FF80007FC0007FFFFF0007FC0003FFFFF0003FF8
310
000001FFFE0000007FFFFFF0001FFFFFFC0003FFFFFFE0001FFC0003FFFFFFE0
310
001FFF0003FFFFFFFFF0003FFFFFFFFFF000E0003FFFFF0001FF8001FFE00000
310
1FFE0007FF80007FC0007FFFFE0003FC0007FFFFE0003FF8000001FFFE000000
310
7FFFFFF0001FFFFFFE0003FFFFFFE0003FFE0003FFFFFFE0003FFF0003FFFFFF
310
FFF0003FFFFF8001F000E0003FFFFF0001FF0001FFE000001FFE0007FF80007F
310
C0007FFFFE0003FC0007FFFFE0003FF8000001FFFE0000007FFFFFF0001FFFFF
310
FE0001FFFFFFC0003FFE0001FFFFFFC0003FFF0003FFFFFFFFF0003FFFFF0001
310
F000E0003FFFFF0003FF0001FFE000003FFE0007FF80007FC0007FFFFE0003FC
310
0007FFFFE0003FF8000001FFFE0000007FFFFFF0001FFFFFFF0001FFFFFFC000
310
7FFF0001FFFFFFC0007FFF0003FFFFFFFFF0003FFFFF0001F000E0003FFFFE00
310
03FF0003FFF000003FFE0003FF80007FC0007FFFFC0003FE0007FFFFE0003FF8
310
000001FFFE0000007FFFFFF0001FFFFFFF0000FFFFFF80007FFF0000FFFFFF80
310
007FFF0003FFFFFFFFF0003FFFFF0001F000E0003FFFFE0003FF0003FFF00000
310
3FFF0003FF80007FC0007FFFFC0007FE0007FFFFC0003FF8000001FFFE000000
310
7FFFFFF0001FFFFFFF80007FFFFF0000FFFF80007FFFFF0000FFFF0003FFFFFF
310
FFF0003FFFFF0003F000E0003FFFFC0003FE0003FFF000003FFF0003FF80007F
310
E0003FFFF80007FE0003FFFFC0007FF8000001FFFE0000007FFFFFF0001FFFFF
310
FF80003FFFFE0000FFFF80003FFFFE0000FFFF0003FFFFFFFFF0001FFFFE0003
310
F000F0001FFFF80003FE0003FFF000007FFF0001FF80007FE0003FFFF00007FE
310
0001FFFF80007FF8000001FFFE0000007FFFFFF0001FFFFFFFC0000FFFF80001
310
FFFFC0000FFFF80001FFFF0003FFFFFFFFF0001FFFFC0003F000F0000FFFF000
310
07FE0007FFF800007FFF0001FF80007FE0001FFFE00007FF0000FFFE00007FF8
310
000001FFFE0000007FFFFFF0001FFFFFFFC00003FFE00001FFFFC00003FFE000
310
01FFFF0003FFFFFFFFF8000FFFF80003F000F00003FFC00007FC0007FFF80000
310
7FFF8001FF80007FF00007FF80000FFF00007FF80000FFF8000001FFFE000000
310
7F80000000000001FFE000003E000003FFFFE000003E000003FFFF0003FFFFFF
310
FFF80003FFE00007F000F800000000000FFC0007FFF800007FFF8001FF80007F
310
F000000000000FFF000000000000FFF8000001FFFE0000007F80000000000001
310
FFF0000000000007FFFFF0000000000007FFFF0003FFFFFFFFFC00007E000007
310
F000F800000000000FFC0007FFF80000FFFF8000FF80007FF800000000001FFF
310
800000000001FFF8000001FFFE0000007F80000000000001FFF800000000000F
310
FFFFF800000000000FFFFF0003FFFFFFFFFC00000000000FF000FC0000000000
310
1FFC0007FFFC0000FFFF8000FF80007FF800000000003FFFC00000000001FFF8
310
000001FFFE0000007F80000000000001FFF800000000000FFFFFF80000000000
310
0FFFFF0003FFFFFFFFFE00000000001FF000FE00000000003FF8000FFFFC0000
310
FFFF8000FF80007FFC00000000003FFFC00000000003FFF8000001FFFE000000
310
7F80000000000001FFFC00000000001FFFFFFC00000000001FFFFF0003FFFFFF
310
FFFF00000000001FF000FF00000000003FF8000FFFFC0000FFFFC000FF80007F
310
FE00000000007FFFE00000000007FFF8000001FFFE0000007F80000000000001
310
FFFE00000000003FFFFFFE00000000003FFFFF0003FFFFFFFFFF80000000003F
310
F000FF80000000007FF8000FFFFC0001FFFFC0007F80007FFF0000000000FFFF
310
F0000000000FFFF800000000000000007F80000000000001FFFF8000000000FF
310
FFFFFF8000000000FFFFFF0003FFFFFFFFFFC0000000007FF000FFC000000000
310
FFF8000FFFFE0001FFFFC0007F80007FFF8000000001FFFFF8000000001FFFF8
310
00000000000000007F80000000000001FFFFC000000001FFFFFFFFC000000001
310
FFFFFF0003FFFFFFFFFFE000000000FFF000FFE000000003FFF0001FFFFE0001
310
FFFFC0007F80007FFFC000000007FFFFFE000000003FFFF80000000000000000
310
7F80000000000001FFFFE000000003FFFFFFFFE000000003FFFFFF0003FFFFFF
310
FFFFF000000003FFF000FFF80000000FFFF0001FFFFE0001FFFFE0007F80007F
310
FFF00000000FFFFFFF00000000FFFFF800000000000000007F80000000000001
310
FFFFF80000000FFFFFFFFFF80000000FFFFFFF0003FFFFFFFFFFFC0000000FFF
310
F000FFFE0000003FFFF0001FFFFE0003FFFFE0003F80007FFFFC0000003FFFFF
310
FFC0000003FFFFF800000000000000007F80000000000001FFFFFE0000003FFF
310
FFFFFFFE0000003FFFFFFF0003FFFFFFFFFFFF0000003FFFF000FFFF800000FF
310
FFF0001FFFFF0003FFFFE0003F80007FFFFF000001FFFFFFFFF800001FFFFFF8
310
00000000000000007F80000000000001FFFFFFC00001FFFFFFFFFFFFC00001FF
310
FFFFFF0003FFFFFFFFFFFFC00000FFFFF000FFFFF8000FFFFFFFFFFFFFFFFFFF
310
FFFFFFFFFFFFFFFFFFFFF0001FFFFFFFFFFF0000FFFFFFF80000000000000000
310
7FFFFFFFFFFFFFFFFFFFFFFC001FFFFFFFFFFFFFFC001FFFFFFFFFFFFFFFFFFF
310
FFFFFFFC001FFFFFF000FFFFFFFFFFFFFFFFFFFFFFFFFFFFFFFFFFFFFFFFFFFF
310
FFFFFFFFFFFFFFFFFFFFFFFFFFFFFFFFFFFFFFFFFFFFFFFFFFFFFFFFFFFFFFFF
310
FFFFFFFFFFFFFFFFFFFFFFFFFFFFFFFFFFFFFFFFFFFFFFFFFFFFFFFFFFFFFFFF
310
F000FFFFFFFFFFFFFFFFFFFFFFFFFFFFFFFFFFFFFFFFFFFFFFFFFFFFFFFFFFFF
310
FFFFFFFFFFFFFFFFFFFFFFFFFFFFFFFFFFFFFFFFFFFFFFFFFFFFFFFFFFFFFFFF
310
FFFFFFFFFFFFFFFFFFFFFFFFFFFFFFFFFFFFFFFFFFFFFFFFF000FFFFFFFFFFFF
310
FFFFFFFFFFFFFFFFFFFFFFFFFFFFFFFFFFFFFFFFFFFFFFFFFFFFFFFFFFFFFFFF
310
FFFFFFFFFFFFFFFFFFFFFFFFFFFFFFFFFFFFFFFFFFFFFFFFFFFFFFFFFFFFFFFF
310
FFFFFFFFFFFFFFFFFFFFFFFFFFFFFFFFF000FFFFFFFFFFFFFFFFFFFFFFFFFFFF
310
FFFFFFFFFFFFFFFFFFFFFFFFFFFFFFFFFFFFFFFFFFFFFFFFFFFFFFFFFFFFFFFF
310
FFFFFFFFFFFFFFFFFFFFFFFFFFFFFFFFFFFFFFFFFFFFFFFFFFFFFFFFFFFFFFFF
310
FFFFFFFFFFFFFFFFF000FFFFFFFFFFFFFFFFFFFFFFFFFFFFFFFFFFFFFFFFFFFF
310
FFFFFFFFFFFFFFFFFFFFFFFFFFFFFFFFFFFFFFFFFFFFFFFFFFFFFFFFFFFFFFFF
310
FFFFFFFFFFFFFFFFFFFFFFFFFFFFFFFFFFFFFFFFFFFFFFFFFFFFFFFFFFFFFFFF
310
F000FFFFFFFFFFFFFFFFFFFFFFFFFFFFFFFFFFFFFFFFFFFFFFFFFFFFFFFFFFFF
310
FFFFFFFFFFFFFFFFFFFFFFFFFFFFFFFFFFFFFFFFFFFFFFFFFFFFFFFFFFFFFFFF
310
FFFFFFFFFFFFFFFFFFFFFFFFFFFFFFFFFFFFFFFFFFFFFFFFF000FFFFFFFFFFFF
310
FFFFFFFFFFFFFFFFFFFFFFFFFFFFFFFFFFFFFFFFFFFFFFFFFFFFFFFFFFFFFFFF
310
FFFFFFFFFFFFFFFFFFFFFFFFFFFFFFFFFFFFFFFFFFFFFFFFFFFFFFFFFFFFFFFF
310
FFFFFFFFFFFFFFFFFFFFFFFFFFFFFFFFF000FFFFFFFFFFFFFFFFFFFFFFFFFFFF
310
FFFFFFFFFFFFFFFFFFFFFFFFFFFFFFFFFFFFFFFFFFFFFFFFFFFFFFFFFFFFFFFF
310
FFFFFFFFFFFFFFFFFFFFFFFFFFFFFFFFFFFFFFFFFFFFFFFFFFFFFFFFFFFFFFFF
310
FFFFFFFFFFFFFFFFF000FFFFFFFFFFFFFFFFFFFFFFFFFFFFFFFFFFFFFFFFFFFF
310
FFFFFFFFFFFFFFFFFFFFFFFFFFFFFFFFFFFFFFFFFFFFFFFFFFFFFFFFFFFFFFFF
310
FFFFFFFFFFFFFFFFFFFFFFFFFFFFFFFFFFFFFFFFFFFFFFFFFFFFFFFFFFFFFFFF
310
F000FFFFFFFFFFFFFFFFFFFFFFFFFFFFFFFFFFFFFFFFFFFFFFFFFFFFFFFFFFFF
310
FFFFFFFFFFFFFFFFFFFFFFFFFFFFFFFFFFFFFFFFFFFFFFFFFFFFFFFFFFFFFFFF
310
FFFFFFFFFFFFFFFFFFFFFFFFFFFFFFFFFFFFFFFFFFFFFFFFF000FFFFFFFFFFFF
310
FFFFFFFFFFFFFFFFFFFFFFFFFFFFFFFFFFFFFFFFFFFFFFFFFFFFFFFFFFFFFFFF
310
FFFFFFFFFFFFFFFFFFFFFFFFFFFFFFFFFFFFFFFFFFFFFFFFFFFFFFFFFFFFFFFF
310
FFFFFFFFFFFFFFFFFFFFFFFFFFFFFFFFF000FFFFFFFFFFFFFFFFFFFFFFFFFFFF
310
FFFFFFFFFFFFFFFFFFFFFFFFFFFFFFFFFFFFFFFFFFFFFFFFFFFFFFFFFFFFFFFF
310
FFFFFFFFFFFFFFFFFFFFFFFFFFFFFFFFFFFFFFFFFFFFFFFFFFFFFFFFFFFFFFFF
310
FFFFFFFFFFFFFFFFF000FFFFFFFFFFFFFFFFFFFFFFFFFFFFFFFFFFFFFFFFFFFF
310
FFFFFFFFFFFFFFFFFFFFFFFFFFFFFFFFFFFFFFFFFFFFFFFFFFFFFFFFFFFFFFFF
310
FFFFFFFFFFFFFFFFFFFFFFFFFFFFFFFFFFFFFFFFFFFFFFFFFFFFFFFFFFFFFFFF
310
F000FFFFFFFFFFFFFFFFFFFFFFFFFFFFFFFFFFFFFFFFFFFFFFFFFFFFFFFFFFFF
310
FFFFFFFFFFFFFFFFFFFFFFFFFFFFFFFFFFFFFFFFFFFFFFFFFFFFFFFFFFFFFFFF
310
FFFFFFFFFFFFFFFFFFFFFFFFFFFFFFFFFFFFFFFFFFFFFFFFF000FFFFFFFFFFFF
310
FFFFFFFFFFFFFFFFFFFFFFFFFFFFFFFFFFFFFFFFFFFFFFFFFFFFFFFFFFFFFFFF
310
FFFFFFFFFFFFFFFFFFFFFFFFFFFFFFFFFFFFFFFFFFFFFFFFFFFFFFFFFFFFFFFF
310
FFFFFFFFFFFFFFFFFFFFFFFFFFFFFFFFF000FFFFFFFFFFFFFFFFFFFFFFFFFFFF
310
FFFFFFFFFFFFFFFFFFFFFFFFFFFFFFFFFFFFFFFFFFFFFFFFFFFFFFFFFFFFFFFF
310
FFFFFFFFFFFFFFFFFFFFFFFFFFFFFFFFFFFFFFFFFFFFFFFFFFFFFFFFFFFFFFFF
310
FFFFFFFFFFFFFFFFF000FFFFFFFFFFFFFFFFFFFFFFFFFFFFFFFFFFFFFFFFFFFF
310
FFFFFFFFFFFFFFFFFFFFFFFFFFFFFFFFFFFFFFFFFFFFFFFFFFFFFFFFFFFFFFFF
310
FFFFFFFFFFFFFFFFFFFFFFFFFFFFFFFFFFFFFFFFFFFFFFFFFFFFFFFFFFFFFFFF
310
F000FFFFFFFFFFFFFFFFFFFFFFFFFFFFFFFFFFFFFFFFFFFFFFFFFFFFFFFFFFFF
310
FFFFFFFFFFFFFFFFFFFFFFFFFFFFFFFFFFFFFFFFFFFFFFFFFFFFFFFFFFFFFFFF
310
FFFFFFFFFFFFFFFFFFFFFFFFFFFFFFFFFFFFFFFFFFFFFFFFF000FFFFFFFFFFFF
310
FFFFFFFFFFFFFFFFFFFFFFFFFFFFFFFFFFFFFFFFFFFFFFFFFFFFFFFFFFFFFFFF
310
FFFFFFFFFFFFFFFFFFFFFFFFFFFFFFFFFFFFFFFFFFFFFFFFFFFFFFFFFFFFFFFF
310
FFFFFFFFFFFFFFFFFFFFFFFFFFFFFFFFF000FFFFFFFFFFFFFFFFFFFFFFFFFFFF
310
FFFFFFFFFFFFFFFFFFFFFFFFFFFFFFFFFFFFFFFFFFFFFFFFFFFFFFFFFFFFFFFF
310
FFFFFFFFFFFFFFFFFFFFFFFFFFFFFFFFFFFFFFFFFFFFFFFFFFFFFFFFFFFFFFFF
310
FFFFFFFFFFFFFFFFF000FFFFFFFFFFFFFFFFFFFFFFFFFFFFFFFFFFFFFFFFFFFF
310
FFFFFFFFFFFFFFFFFFFFFFFFFFFFFFFFFFFFFFFFFFFFFFFFFFFFFFFFFFFFFFFF
310
FFFFFFFFFFFFFFFFFFFFFFFFFFFFFFFFFFFFFFFFFFFFFFFFFFFFFFFFFFFFFFFF
310
F000FFFFFFFFFFFFFFFFFFFFFFFFFFFFFFFFFFFFFFFFFFFFFFFFFFFFFFFFFFFF
310
FFFFFFFFFFFFFFFFFFFFFFFFFFFFFFFFFFFFFFFFFFFFFFFFFFFFFFFFFFFFFFFF
310
FFFFFFFFFFFFFFFFFFFFFFFFFFFFFFFFFFFFFFFFFFFFFFFFF000FFFFFFFFFFFF
310
FFFFFFFFFFFFFFFFFFFFFFFFFFFFFFFFFFFFFFFFFFFFFFFFFFFFFFFFFFFFFFFF
310
FFFFFFFFFFFFFFFFFFFFFFFFFFFFFFFFFFFFFFFFFFFFFFFFFFFFFFFFFFFFFFFF
310
FFFFFFFFFFFFFFFFFFFFFFFFFFFFFFFFF0000000000000000000000000000000
310
0000000000000000000000000000000000000000000000000000000000000000
310
0000000000000000000000000000000000000000000000000000000000000000
310
0000000000000000000000000000000000000000000000000000000000000000
310
0000000000000000000000000000000000000000000000000000000000000000
310
0000000000000000000000000000000000000000000000000000000000000000
310
0000000000000000000000000000000000000000000000000000000000000000
310
0000000000000000000000000000000000000000000000000000000000000000
310
0000000000000000000000000000000000000000000000000000000000000000
310
0000000000000000000000000000000000000000000000000000000000000000
310
0000000000000000000000000000000000000000000000000000000000000000
310
0000000000000000000000000000000000000000000000000000000000000000
310
0000000000000000000000000000000000000000000000000000000000000000
310
0000000000000000000000000000000000000000000000000000000000000000
310
0000000000000000000000000000000000000000000000000000000000000000
310
0000000000000000000000000000000000000000000000000000000000000000
  1
OLE
  0
ENDSEC
  0
SECTION
  2
OBJECTS
  0
DICTIONARY
  5
C
330
0
100
AcDbDictionary
281
     1
  3
ACAD_GROUP
350
D
  3
ACAD_LAYOUT
350
1A
  3
ACAD_MLINESTYLE
350
17
  3
ACAD_PLOTSETTINGS
350
19
  3
ACAD_PLOTSTYLENAME
350
E
  3
ACAD_SCALELIST
350
47
  0
DICTIONARY
  5
D
102
{ACAD_REACTORS
330
C
102
}
330
C
100
AcDbDictionary
281
     1
  0
DICTIONARY
  5
1A
102
{ACAD_REACTORS
330
C
102
}
330
C
100
AcDbDictionary
281
     1
  3
Layout1
350
1E
  3
Layout2
350
26
  3
Model
350
22
  0
DICTIONARY
  5
17
102
{ACAD_REACTORS
330
C
102
}
330
C
100
AcDbDictionary
281
     1
  3
Standard
350
18
  0
DICTIONARY
  5
19
102
{ACAD_REACTORS
330
C
102
}
330
C
100
AcDbDictionary
281
     1
  0
ACDBDICTIONARYWDFLT
  5
E
102
{ACAD_REACTORS
330
C
102
}
330
C
100
AcDbDictionary
281
     1
  3
Normal
350
F
100
AcDbDictionaryWithDefault
340
F
  0
DICTIONARY
  5
47
102
{ACAD_REACTORS
330
C
102
}
330
C
100
AcDbDictionary
281
     1
  3
A0
350
48
  3
A1
350
49
  3
A2
350
4A
  3
A3
350
4B
  3
A4
350
4C
  3
A5
350
4D
  3
A6
350
4E
  3
A7
350
4F
  3
A8
350
50
  3
A9
350
51
  3
B0
350
52
  3
B1
350
53
  3
B2
350
54
  3
B3
350
55
  3
B4
350
56
  3
B5
350
57
  3
B6
350
58
  3
B7
350
59
  3
B8
350
5A
  3
B9
350
5B
  3
C0
350
5C
  3
C1
350
5D
  3
C2
350
5E
  3
C3
350
5F
  3
C4
350
60
  3
C5
350
61
  3
C6
350
62
  3
C7
350
63
  3
C8
350
64
  3
C9
350
65
  3
D0
350
66
  3
D1
350
67
  3
D2
350
68
  0
LAYOUT
  5
1E
102
{ACAD_REACTORS
330
1A
102
}
330
1A
100
AcDbPlotSettings
  1

  2
none_device
  4

  6

 40
0.0
 41
0.0
 42
0.0
 43
0.0
 44
0.0
 45
0.0
 46
0.0
 47
0.0
 48
0.0
 49
0.0
140
0.0
141
0.0
142
1.0
143
1.0
 70
   688
 72
     1
 73
     0
 74
     5
  7

 75
    16
147
1.0
148
0.0
149
0.0
100
AcDbLayout
  1
Layout1
 70
     1
 71
     1
 10
0.0
 20
0.0
 11
420.0
 21
297.0
 12
0.0
 22
0.0
 32
0.0
 14
1.0000000000E+20
 24
1.0000000000E+20
 34
1.0000000000E+20
 15
-1.0000000000E+20
 25
-1.0000000000E+20
 35
-1.0000000000E+20
146
0.0
 13
0.0
 23
0.0
 33
0.0
 16
1.0
 26
0.0
 36
0.0
 17
0.0
 27
1.0
 37
0.0
 76
     0
330
1B
  0
LAYOUT
  5
26
102
{ACAD_REACTORS
330
1A
102
}
330
1A
100
AcDbPlotSettings
  1

  2
none_device
  4

  6

 40
0.0
 41
0.0
 42
0.0
 43
0.0
 44
0.0
 45
0.0
 46
0.0
 47
0.0
 48
0.0
 49
0.0
140
0.0
141
0.0
142
1.0
143
1.0
 70
   688
 72
     1
 73
     0
 74
     5
  7

 75
    16
147
1.0
148
0.0
149
0.0
100
AcDbLayout
  1
Layout2
 70
     1
 71
     2
 10
0.0
 20
0.0
 11
0.0
 21
0.0
 12
0.0
 22
0.0
 32
0.0
 14
0.0
 24
0.0
 34
0.0
 15
0.0
 25
0.0
 35
0.0
146
0.0
 13
0.0
 23
0.0
 33
0.0
 16
1.0
 26
0.0
 36
0.0
 17
0.0
 27
1.0
 37
0.0
 76
     0
330
23
  0
LAYOUT
  5
22
102
{ACAD_REACTORS
330
1A
102
}
330
1A
100
AcDbPlotSettings
  1

  2
none_device
  4
Letter_(8.50_x_11.00_Inches)
  6

 40
6.35
 41
6.35
 42
6.35000508
 43
6.35000508
 44
215.9
 45
279.4
 46
0.0
 47
0.0
 48
0.0
 49
0.0
140
0.0
141
0.0
142
1.0
143
1.0
 70
  1712
 72
     1
 73
     0
 74
     0
  7

 75
     0
147
1.0
148
0.0
149
0.0
100
AcDbLayout
  1
Model
 70
     1
 71
     0
 10
0.0
 20
0.0
 11
297.0
 21
210.0
 12
0.0
 22
0.0
 32
0.0
 14
0.0
 24
0.0
 34
0.0
 15
297.0
 25
210.0
 35
0.0
146
0.0
 13
0.0
 23
0.0
 33
0.0
 16
1.0
 26
0.0
 36
0.0
 17
0.0
 27
1.0
 37
0.0
 76
     0
330
1F
331
29
  0
MLINESTYLE
  5
18
102
{ACAD_REACTORS
330
17
102
}
330
17
100
AcDbMlineStyle
  2
Standard
 70
     0
  3

 62
   256
 51
90.0
 52
90.0
 71
     2
 49
0.5
 62
   256
  6
BYLAYER
 49
-0.5
 62
   256
  6
BYLAYER
  0
ACDBPLACEHOLDER
  5
F
102
{ACAD_REACTORS
330
E
102
}
330
E
  0
SCALE
  5
48
102
{ACAD_REACTORS
330
47
102
}
330
47
100
AcDbScale
 70
     0
300
1:1
140
1.0
141
1.0
290
     1
  0
SCALE
  5
49
102
{ACAD_REACTORS
330
47
102
}
330
47
100
AcDbScale
 70
     0
300
1:2
140
1.0
141
2.0
290
     0
  0
SCALE
  5
4A
102
{ACAD_REACTORS
330
47
102
}
330
47
100
AcDbScale
 70
     0
300
1:4
140
1.0
141
4.0
290
     0
  0
SCALE
  5
4B
102
{ACAD_REACTORS
330
47
102
}
330
47
100
AcDbScale
 70
     0
300
1:5
140
1.0
141
5.0
290
     0
  0
SCALE
  5
4C
102
{ACAD_REACTORS
330
47
102
}
330
47
100
AcDbScale
 70
     0
300
1:8
140
1.0
141
8.0
290
     0
  0
SCALE
  5
4D
102
{ACAD_REACTORS
330
47
102
}
330
47
100
AcDbScale
 70
     0
300
1:10
140
1.0
141
10.0
290
     0
  0
SCALE
  5
4E
102
{ACAD_REACTORS
330
47
102
}
330
47
100
AcDbScale
 70
     0
300
1:16
140
1.0
141
16.0
290
     0
  0
SCALE
  5
4F
102
{ACAD_REACTORS
330
47
102
}
330
47
100
AcDbScale
 70
     0
300
1:20
140
1.0
141
20.0
290
     0
  0
SCALE
  5
50
102
{ACAD_REACTORS
330
47
102
}
330
47
100
AcDbScale
 70
     0
300
1:30
140
1.0
141
30.0
290
     0
  0
SCALE
  5
51
102
{ACAD_REACTORS
330
47
102
}
330
47
100
AcDbScale
 70
     0
300
1:40
140
1.0
141
40.0
290
     0
  0
SCALE
  5
52
102
{ACAD_REACTORS
330
47
102
}
330
47
100
AcDbScale
 70
     0
300
1:50
140
1.0
141
50.0
290
     0
  0
SCALE
  5
53
102
{ACAD_REACTORS
330
47
102
}
330
47
100
AcDbScale
 70
     0
300
1:100
140
1.0
141
100.0
290
     0
  0
SCALE
  5
54
102
{ACAD_REACTORS
330
47
102
}
330
47
100
AcDbScale
 70
     0
300
2:1
140
2.0
141
1.0
290
     0
  0
SCALE
  5
55
102
{ACAD_REACTORS
330
47
102
}
330
47
100
AcDbScale
 70
     0
300
4:1
140
4.0
141
1.0
290
     0
  0
SCALE
  5
56
102
{ACAD_REACTORS
330
47
102
}
330
47
100
AcDbScale
 70
     0
300
8:1
140
8.0
141
1.0
290
     0
  0
SCALE
  5
57
102
{ACAD_REACTORS
330
47
102
}
330
47
100
AcDbScale
 70
     0
300
10:1
140
10.0
141
1.0
290
     0
  0
SCALE
  5
58
102
{ACAD_REACTORS
330
47
102
}
330
47
100
AcDbScale
 70
     0
300
100:1
140
100.0
141
1.0
290
     0
  0
SCALE
  5
59
102
{ACAD_REACTORS
330
47
102
}
330
47
100
AcDbScale
 70
     0
300
1/128" = 1'-0"
140
0.0078125
141
12.0
290
     0
  0
SCALE
  5
5A
102
{ACAD_REACTORS
330
47
102
}
330
47
100
AcDbScale
 70
     0
300
1/64" = 1'-0"
140
0.015625
141
12.0
290
     0
  0
SCALE
  5
5B
102
{ACAD_REACTORS
330
47
102
}
330
47
100
AcDbScale
 70
     0
300
1/32" = 1'-0"
140
0.03125
141
12.0
290
     0
  0
SCALE
  5
5C
102
{ACAD_REACTORS
330
47
102
}
330
47
100
AcDbScale
 70
     0
300
1/16" = 1'-0"
140
0.0625
141
12.0
290
     0
  0
SCALE
  5
5D
102
{ACAD_REACTORS
330
47
102
}
330
47
100
AcDbScale
 70
     0
300
3/32" = 1'-0"
140
0.09375
141
12.0
290
     0
  0
SCALE
  5
5E
102
{ACAD_REACTORS
330
47
102
}
330
47
100
AcDbScale
 70
     0
300
1/8" = 1'-0"
140
0.125
141
12.0
290
     0
  0
SCALE
  5
5F
102
{ACAD_REACTORS
330
47
102
}
330
47
100
AcDbScale
 70
     0
300
3/16" = 1'-0"
140
0.1875
141
12.0
290
     0
  0
SCALE
  5
60
102
{ACAD_REACTORS
330
47
102
}
330
47
100
AcDbScale
 70
     0
300
1/4" = 1'-0"
140
0.25
141
12.0
290
     0
  0
SCALE
  5
61
102
{ACAD_REACTORS
330
47
102
}
330
47
100
AcDbScale
 70
     0
300
3/8" = 1'-0"
140
0.375
141
12.0
290
     0
  0
SCALE
  5
62
102
{ACAD_REACTORS
330
47
102
}
330
47
100
AcDbScale
 70
     0
300
1/2" = 1'-0"
140
0.5
141
12.0
290
     0
  0
SCALE
  5
63
102
{ACAD_REACTORS
330
47
102
}
330
47
100
AcDbScale
 70
     0
300
3/4" = 1'-0"
140
0.75
141
12.0
290
     0
  0
SCALE
  5
64
102
{ACAD_REACTORS
330
47
102
}
330
47
100
AcDbScale
 70
     0
300
1" = 1'-0"
140
1.0
141
12.0
290
     0
  0
SCALE
  5
65
102
{ACAD_REACTORS
330
47
102
}
330
47
100
AcDbScale
 70
     0
300
1-1/2" = 1'-0"
140
1.5
141
12.0
290
     0
  0
SCALE
  5
66
102
{ACAD_REACTORS
330
47
102
}
330
47
100
AcDbScale
 70
     0
300
3" = 1'-0"
140
3.0
141
12.0
290
     0
  0
SCALE
  5
67
102
{ACAD_REACTORS
330
47
102
}
330
47
100
AcDbScale
 70
     0
300
6" = 1'-0"
140
6.0
141
12.0
290
     0
  0
SCALE
  5
68
102
{ACAD_REACTORS
330
47
102
}
330
47
100
AcDbScale
 70
     0
300
1'-0" = 1'-0"
140
12.0
141
12.0
290
     0
  0
ENDSEC
  0
EOF
