  0
SECTION
  2
HEADER
  9
$ACADVER
  1
AC1015
  9
$ACADMAINTVER
 70
     6
  9
$DWGCODEPAGE
  3
ANSI_1252
  9
$INSBASE
 10
0.0
 20
0.0
 30
0.0
  9
$EXTMIN
 10
0.0
 20
0.0
 30
0.0
  9
$EXTMAX
 10
297.0
 20
210.0
 30
0.0
  9
$LIMMIN
 10
0.0
 20
0.0
  9
$LIMMAX
 10
297.0
 20
210.0
  9
$ORTHOMODE
 70
     0
  9
$REGENMODE
 70
     1
  9
$FILLMODE
 70
     1
  9
$QTEXTMODE
 70
     0
  9
$MIRRTEXT
 70
     1
  9
$LTSCALE
 40
1.0
  9
$ATTMODE
 70
     1
  9
$TEXTSIZE
 40
2.0
  9
$TRACEWID
 40
1.0
  9
$TEXTSTYLE
  7
Standard
  9
$CLAYER
  8
0
  9
$CELTYPE
  6
ByLayer
  9
$CECOLOR
 62
   256
  9
$CELTSCALE
 40
1.0
  9
$DISPSILH
 70
     0
  9
$DIMSCALE
 40
1.0
  9
$DIMASZ
 40
3.0
  9
$DIMEXO
 40
0.0
  9
$DIMDLI
 40
3.75
  9
$DIMRND
 40
0.0
  9
$DIMDLE
 40
0.0
  9
$DIMEXE
 40
1.0
  9
$DIMTP
 40
0.0
  9
$DIMTM
 40
0.0
  9
$DIMTXT
 40
2.0
  9
$DIMCEN
 40
2.5
  9
$DIMTSZ
 40
0.0
  9
$DIMTOL
 70
     0
  9
$DIMLIM
 70
     0
  9
$DIMTIH
 70
     1
  9
$DIMTOH
 70
     1
  9
$DIMSE1
 70
     0
  9
$DIMSE2
 70
     0
  9
$DIMTAD
 70
     1
  9
$DIMZIN
 70
     0
  9
$DIMBLK
  1

  9
$DIMASO
 70
     1
  9
$DIMSHO
 70
     1
  9
$DIMPOST
  1

  9
$DIMAPOST
  1

  9
$DIMALT
 70
     0
  9
$DIMALTD
 70
     3
  9
$DIMALTF
 40
0.0393700787
  9
$DIMLFAC
 40
1.0
  9
$DIMTOFL
 70
     1
  9
$DIMTVP
 40
0.0
  9
$DIMTIX
 70
     0
  9
$DIMSOXD
 70
     0
  9
$DIMSAH
 70
     0
  9
$DIMBLK1
  1

  9
$DIMBLK2
  1

  9
$DIMSTYLE
  2
ISO-25
  9
$DIMCLRD
 70
     0
  9
$DIMCLRE
 70
     0
  9
$DIMCLRT
 70
     0
  9
$DIMTFAC
 40
1.0
  9
$DIMGAP
 40
1.524
  9
$DIMJUST
 70
     0
  9
$DIMSD1
 70
     0
  9
$DIMSD2
 70
     0
  9
$DIMTOLJ
 70
     0
  9
$DIMTZIN
 70
     0
  9
$DIMALTZ
 70
     0
  9
$DIMALTTZ
 70
     0
  9
$DIMUPT
 70
     0
  9
$DIMDEC
 70
     2
  9
$DIMTDEC
 70
     3
  9
$DIMALTU
 70
     2
  9
$DIMALTTD
 70
     3
  9
$DIMTXSTY
  7
Standard
  9
$DIMAUNIT
 70
     0
  9
$DIMADEC
 70
     2
  9
$DIMALTRND
 40
0.0
  9
$DIMAZIN
 70
     0
  9
$DIMDSEP
 70
    44
  9
$DIMATFIT
 70
     3
  9
$DIMFRAC
 70
     0
  9
$DIMLDRBLK
  1

  9
$DIMLUNIT
 70
     2
  9
$DIMLWD
 70
    -2
  9
$DIMLWE
 70
    -2
  9
$DIMTMOVE
 70
     0
  9
$LUNITS
 70
     2
  9
$LUPREC
 70
     2
  9
$SKETCHINC
 40
1.0
  9
$FILLETRAD
 40
10.0
  9
$AUNITS
 70
     0
  9
$AUPREC
 70
     2
  9
$MENU
  1
.
  9
$ELEVATION
 40
0.0
  9
$PELEVATION
 40
0.0
  9
$THICKNESS
 40
0.0
  9
$LIMCHECK
 70
     0
  9
$CHAMFERA
 40
0.0
  9
$CHAMFERB
 40
0.0
  9
$CHAMFERC
 40
0.0
  9
$CHAMFERD
 40
0.0
  9
$SKPOLY
 70
     0
  9
$TDCREATE
 40
2457883.459860405
  9
$TDUCREATE
 40
2457883.376527072
  9
$TDUPDATE
 40
2457883.45986169
  9
$TDUUPDATE
 40
2457883.376528357
  9
$TDINDWG
 40
0.0000000116
  9
$TDUSRTIMER
 40
0.0000000116
  9
$USRTIMER
 70
     1
  9
$ANGBASE
 50
0.0
  9
$ANGDIR
 70
     0
  9
$PDMODE
 70
     0
  9
$PDSIZE
 40
-1.0
  9
$PLINEWID
 40
0.0
  9
$SPLFRAME
 70
     0
  9
$SPLINETYPE
 70
     6
  9
$SPLINESEGS
 70
     8
  9
$HANDSEED
  5
31A
  9
$SURFTAB1
 70
     6
  9
$SURFTAB2
 70
     6
  9
$SURFTYPE
 70
     6
  9
$SURFU
 70
     6
  9
$SURFV
 70
     6
  9
$UCSBASE
  2

  9
$UCSNAME
  2

  9
$UCSORG
 10
0.0
 20
0.0
 30
0.0
  9
$UCSXDIR
 10
1.0
 20
0.0
 30
0.0
  9
$UCSYDIR
 10
0.0
 20
1.0
 30
0.0
  9
$UCSORTHOREF
  2

  9
$UCSORTHOVIEW
 70
     0
  9
$UCSORGTOP
 10
0.0
 20
0.0
 30
0.0
  9
$UCSORGBOTTOM
 10
0.0
 20
0.0
 30
0.0
  9
$UCSORGLEFT
 10
0.0
 20
0.0
 30
0.0
  9
$UCSORGRIGHT
 10
0.0
 20
0.0
 30
0.0
  9
$UCSORGFRONT
 10
0.0
 20
0.0
 30
0.0
  9
$UCSORGBACK
 10
0.0
 20
0.0
 30
0.0
  9
$PUCSBASE
  2

  9
$PUCSNAME
  2

  9
$PUCSORG
 10
0.0
 20
0.0
 30
0.0
  9
$PUCSXDIR
 10
1.0
 20
0.0
 30
0.0
  9
$PUCSYDIR
 10
0.0
 20
1.0
 30
0.0
  9
$PUCSORTHOREF
  2

  9
$PUCSORTHOVIEW
 70
     0
  9
$PUCSORGTOP
 10
0.0
 20
0.0
 30
0.0
  9
$PUCSORGBOTTOM
 10
0.0
 20
0.0
 30
0.0
  9
$PUCSORGLEFT
 10
0.0
 20
0.0
 30
0.0
  9
$PUCSORGRIGHT
 10
0.0
 20
0.0
 30
0.0
  9
$PUCSORGFRONT
 10
0.0
 20
0.0
 30
0.0
  9
$PUCSORGBACK
 10
0.0
 20
0.0
 30
0.0
  9
$USERI1
 70
     0
  9
$USERI2
 70
     0
  9
$USERI3
 70
     0
  9
$USERI4
 70
     0
  9
$USERI5
 70
     0
  9
$USERR1
 40
0.0
  9
$USERR2
 40
0.0
  9
$USERR3
 40
0.0
  9
$USERR4
 40
0.0
  9
$USERR5
 40
0.0
  9
$WORLDVIEW
 70
     1
  9
$SHADEDGE
 70
     3
  9
$SHADEDIF
 70
    70
  9
$TILEMODE
 70
     1
  9
$MAXACTVP
 70
    64
  9
$PINSBASE
 10
0.0
 20
0.0
 30
0.0
  9
$PLIMCHECK
 70
     0
  9
$PEXTMIN
 10
1.0000000000E+20
 20
1.0000000000E+20
 30
1.0000000000E+20
  9
$PEXTMAX
 10
-1.0000000000E+20
 20
-1.0000000000E+20
 30
-1.0000000000E+20
  9
$PLIMMIN
 10
0.0
 20
0.0
  9
$PLIMMAX
 10
420.0
 20
297.0
  9
$UNITMODE
 70
     0
  9
$VISRETAIN
 70
     1
  9
$PLINEGEN
 70
     0
  9
$PSLTSCALE
 70
     1
  9
$TREEDEPTH
 70
  3020
  9
$CMLSTYLE
  2
Standard
  9
$CMLJUST
 70
     0
  9
$CMLSCALE
 40
20.0
  9
$PROXYGRAPHICS
 70
     1
  9
$MEASUREMENT
 70
     1
  9
$CELWEIGHT
370
    -1
  9
$ENDCAPS
280
     0
  9
$JOINSTYLE
280
     0
  9
$LWDISPLAY
290
     1
  9
$INSUNITS
 70
     4
  9
$HYPERLINKBASE
  1

  9
$STYLESHEET
  1

  9
$XEDIT
290
     1
  9
$CEPSNTYPE
380
     0
  9
$PSTYLEMODE
290
     1
  9
$FINGERPRINTGUID
  2
{200C8383-FBC3-4711-BE4E-3C893235BB7D}
  9
$VERSIONGUID
  2
{FAEB1C32-E019-11D5-929B-00C0DF256EC4}
  9
$EXTNAMES
290
     1
  9
$PSVPSCALE
 40
0.0
  9
$OLESTARTUP
290
     0
  0
ENDSEC
  0
SECTION
  2
CLASSES
  0
CLASS
  1
ACDBDICTIONARYWDFLT
  2
AcDbDictionaryWithDefault
  3
ObjectDBX Classes
 90
        0
280
     0
281
     0
  0
CLASS
  1
VISUALSTYLE
  2
AcDbVisualStyle
  3
ObjectDBX Classes
 90
     4095
280
     0
281
     0
  0
CLASS
  1
MATERIAL
  2
AcDbMaterial
  3
ObjectDBX Classes
 90
     1153
280
     0
281
     0
  0
CLASS
  1
SCALE
  2
AcDbScale
  3
ObjectDBX Classes
 90
     1153
280
     0
281
     0
  0
CLASS
  1
TABLESTYLE
  2
AcDbTableStyle
  3
ObjectDBX Classes
 90
     4095
280
     0
281
     0
  0
CLASS
  1
MLEADERSTYLE
  2
AcDbMLeaderStyle
  3
ACDB_MLEADERSTYLE_CLASS
 90
     4095
280
     0
281
     0
  0
CLASS
  1
SUN
  2
AcDbSun
  3
SCENEOE
 90
     1153
280
     0
281
     0
  0
CLASS
  1
ACDBPLACEHOLDER
  2
AcDbPlaceHolder
  3
ObjectDBX Classes
 90
        0
280
     0
281
     0
  0
CLASS
  1
LAYOUT
  2
AcDbLayout
  3
ObjectDBX Classes
 90
        0
280
     0
281
     0
  0
ENDSEC
  0
SECTION
  2
TABLES
  0
TABLE
  2
VPORT
  5
8
330
0
100
AcDbSymbolTable
 70
     1
  0
VPORT
  5
29
330
8
100
AcDbSymbolTableRecord
100
AcDbViewportTableRecord
  2
*Active
 70
     0
 10
0.0
 20
0.0
 11
1.0
 21
1.0
 12
148.5
 22
105.0
 13
0.0
 23
0.0
 14
10.0
 24
10.0
 15
10.0
 25
10.0
 16
0.0
 26
0.0
 36
1.0
 17
0.0
 27
0.0
 37
0.0
 40
210.0
 41
1.4142857143
 42
50.0
 43
0.0
 44
0.0
 50
0.0
 51
0.0
 71
     0
 72
  2000
 73
     1
 74
     3
 75
     0
 76
     0
 77
     0
 78
     0
281
     0
 65
     1
110
0.0
120
0.0
130
0.0
111
1.0
121
0.0
131
0.0
112
0.0
122
1.0
132
0.0
 79
     0
146
0.0
  0
ENDTAB
  0
TABLE
  2
LTYPE
  5
5
330
0
100
AcDbSymbolTable
 70
     6
  0
LTYPE
  5
14
330
5
100
AcDbSymbolTableRecord
100
AcDbLinetypeTableRecord
  2
ByBlock
 70
     0
  3

 72
    65
 73
     0
 40
0.0
  0
LTYPE
  5
15
330
5
100
AcDbSymbolTableRecord
100
AcDbLinetypeTableRecord
  2
ByLayer
 70
     0
  3

 72
    65
 73
     0
 40
0.0
  0
LTYPE
  5
16
330
5
100
AcDbSymbolTableRecord
100
AcDbLinetypeTableRecord
  2
Continuous
 70
     0
  3
Solid line
 72
    65
 73
     0
 40
0.0
  0
LTYPE
  5
6E
330
5
100
AcDbSymbolTableRecord
100
AcDbLinetypeTableRecord
  2
HIDDEN
 70
     0
  3
Hidden __ __ __ __ __ __ __ __ __ __ __ __ __ __
 72
    65
 73
     2
 40
1.905
 49
1.27
 74
     0
 49
-0.635
 74
     0
  0
LTYPE
  5
6F
330
5
100
AcDbSymbolTableRecord
100
AcDbLinetypeTableRecord
  2
PHANTOM
 70
     0
  3
Phantom ______  __  __  ______  __  __  ______
 72
    65
 73
     6
 40
12.7
 49
6.35
 74
     0
 49
-1.27
 74
     0
 49
1.27
 74
     0
 49
-1.27
 74
     0
 49
1.27
 74
     0
 49
-1.27
 74
     0
  0
LTYPE
  5
70
330
5
100
AcDbSymbolTableRecord
100
AcDbLinetypeTableRecord
  2
CENTER
 70
     0
  3
Center ____ _ ____ _ ____ _ ____ _ ____ _ ____
 72
    65
 73
     4
 40
10.16
 49
6.35
 74
     0
 49
-1.27
 74
     0
 49
1.27
 74
     0
 49
-1.27
 74
     0
  0
LTYPE
  5
71
330
5
100
AcDbSymbolTableRecord
100
AcDbLinetypeTableRecord
  2
CENTERX2
 70
     0
  3
Center (2x) ________  __  ________  __  _____
 72
    65
 73
     4
 40
20.32
 49
12.7
 74
     0
 49
-2.54
 74
     0
 49
2.54
 74
     0
 49
-2.54
 74
     0
  0
LTYPE
  5
72
330
5
100
AcDbSymbolTableRecord
100
AcDbLinetypeTableRecord
  2
DOT2
 70
     0
  3
Dot (.5x) ........................................
 72
    65
 73
     2
 40
0.635
 49
0.0
 74
     0
 49
-0.635
 74
     0
  0
ENDTAB
  0
TABLE
  2
LAYER
  5
2
330
0
100
AcDbSymbolTable
 70
     5
  0
LAYER
  5
10
330
2
100
AcDbSymbolTableRecord
100
AcDbLayerTableRecord
  2
0
 70
     0
 62
     7
  6
Continuous
370
    -3
390
F
  0
LAYER
  5
73
330
2
100
AcDbSymbolTableRecord
100
AcDbLayerTableRecord
  2
FORMAT
 70
     0
 62
     7
  6
Continuous
370
    -3
390
F
  0
LAYER
  5
74
330
2
100
AcDbSymbolTableRecord
100
AcDbLayerTableRecord
  2
VERMASSUNG
 70
     0
 62
     7
  6
Continuous
370
    -3
390
F
  0
LAYER
  5
75
330
2
100
AcDbSymbolTableRecord
100
AcDbLayerTableRecord
  2
KOPF_DÜNN
 70
     0
 62
     7
  6
Continuous
370
    -3
390
F
  0
LAYER
  5
76
330
2
100
AcDbSymbolTableRecord
100
AcDbLayerTableRecord
  2
KOPF_DICK
 70
     0
 62
     7
  6
Continuous
370
    15
390
F
  0
ENDTAB
  0
TABLE
  2
STYLE
  5
3
330
0
100
AcDbSymbolTable
 70
     2
  0
STYLE
  5
11
330
3
100
AcDbSymbolTableRecord
100
AcDbTextStyleTableRecord
  2
Standard
 70
     0
 40
0.0
 41
1.0
 50
0.0
 71
     0
 42
2.0
  3
txt
  4

  0
STYLE
  5
77
330
3
100
AcDbSymbolTableRecord
100
AcDbTextStyleTableRecord
  2
SLDTEXTSTYLE0
 70
     0
 40
0.0
 41
0.7
 50
0.0
 71
     0
 42
2.0
  3
TXT
  4

  0
ENDTAB
  0
TABLE
  2
VIEW
  5
6
330
0
100
AcDbSymbolTable
 70
     0
  0
ENDTAB
  0
TABLE
  2
UCS
  5
7
330
0
100
AcDbSymbolTable
 70
     0
  0
ENDTAB
  0
TABLE
  2
APPID
  5
9
330
0
100
AcDbSymbolTable
 70
     1
  0
APPID
  5
12
330
9
100
AcDbSymbolTableRecord
100
AcDbRegAppTableRecord
  2
ACAD
 70
     0
  0
ENDTAB
  0
TABLE
  2
DIMSTYLE
  5
A
330
0
100
AcDbSymbolTable
 70
     2
100
AcDbDimStyleTable
  0
DIMSTYLE
105
27
330
A
100
AcDbSymbolTableRecord
100
AcDbDimStyleTableRecord
  2
ISO-25
 70
     0
 41
2.5
 42
0.625
 43
3.75
 44
1.25
 73
     0
 74
     0
 77
     1
 78
     8
140
2.5
141
2.5
143
0.0393700787
147
0.625
171
     3
172
     1
178
     0
271
     2
272
     2
274
     3
278
    44
283
     0
284
     8
340
11
  0
DIMSTYLE
105
1CD
102
{ACAD_REACTORS
330
1CC
330
1D7
330
1E1
330
1EB
102
}
330
A
100
AcDbSymbolTableRecord
100
AcDbDimStyleTableRecord
  2
SLDDIMSTYLE0
 70
     0
 41
3.0
 44
0.0
 45
0.000000001
 73
     0
 74
     0
 77
     1
 78
    12
 79
     3
140
2.0
147
0.5
173
     1
178
     0
271
     2
272
     3
276
     2
284
    12
340
77
  0
ENDTAB
  0
TABLE
  2
BLOCK_RECORD
  5
1
330
0
100
AcDbSymbolTable
 70
     6
  0
BLOCK_RECORD
  5
1F
330
1
100
AcDbSymbolTableRecord
100
AcDbBlockTableRecord
  2
*Model_Space
340
22
  0
BLOCK_RECORD
  5
1B
330
1
100
AcDbSymbolTableRecord
100
AcDbBlockTableRecord
  2
*Paper_Space
340
1E
  0
BLOCK_RECORD
  5
23
330
1
100
AcDbSymbolTableRecord
100
AcDbBlockTableRecord
  2
*Paper_Space0
340
26
  0
BLOCK_RECORD
  5
1CE
330
1
100
AcDbSymbolTableRecord
100
AcDbBlockTableRecord
  2
_D
340
0
  0
BLOCK_RECORD
  5
1D8
330
1
100
AcDbSymbolTableRecord
100
AcDbBlockTableRecord
  2
_D_1
340
0
  0
BLOCK_RECORD
  5
1E2
330
1
100
AcDbSymbolTableRecord
100
AcDbBlockTableRecord
  2
_D_2
340
0
  0
BLOCK_RECORD
  5
1EC
330
1
100
AcDbSymbolTableRecord
100
AcDbBlockTableRecord
  2
_D_3
340
0
  0
BLOCK_RECORD
  5
266
330
1
100
AcDbSymbolTableRecord
100
AcDbBlockTableRecord
  2
SW_CENTERMARKSYMBOL_0
340
0
102
{BLKREFS
331
271
102
}
  0
ENDTAB
  0
ENDSEC
  0
SECTION
  2
BLOCKS
  0
BLOCK
  5
20
330
1F
100
AcDbEntity
  8
0
100
AcDbBlockBegin
  2
*Model_Space
 70
     0
 10
0.0
 20
0.0
 30
0.0
  3
*Model_Space
  1

  0
ENDBLK
  5
21
330
1F
100
AcDbEntity
  8
0
100
AcDbBlockEnd
  0
BLOCK
  5
1C
330
1B
100
AcDbEntity
 67
     1
  8
0
100
AcDbBlockBegin
  2
*Paper_Space
 70
     0
 10
0.0
 20
0.0
 30
0.0
  3
*Paper_Space
  1

  0
ENDBLK
  5
1D
330
1B
100
AcDbEntity
 67
     1
  8
0
100
AcDbBlockEnd
  0
BLOCK
  5
24
330
23
100
AcDbEntity
  8
0
100
AcDbBlockBegin
  2
*Paper_Space0
 70
     0
 10
0.0
 20
0.0
 30
0.0
  3
*Paper_Space0
  1

  0
ENDBLK
  5
25
330
23
100
AcDbEntity
  8
0
100
AcDbBlockEnd
  0
BLOCK
  5
1CF
330
1CE
100
AcDbEntity
  8
0
100
AcDbBlockBegin
  2
_D
 70
     0
 10
0.0
 20
0.0
 30
0.0
  3
_D
  1

  0
SOLID
  5
1D1
330
1CE
100
AcDbEntity
  8
VERMASSUNG
100
AcDbTrace
 10
174.4482281693
 20
172.9820710245
 30
0.0
 11
177.4482281693
 21
172.5320710245
 31
0.0
 12
177.4482281693
 22
173.4320710245
 32
0.0
 13
177.4482281693
 23
173.4320710245
 33
0.0
  0
SOLID
  5
1D2
330
1CE
100
AcDbEntity
  8
VERMASSUNG
100
AcDbTrace
 10
234.4482281693
 20
172.9820710245
 30
0.0
 11
231.4482281693
 21
173.4320710245
 31
0.0
 12
231.4482281693
 22
172.5320710245
 32
0.0
 13
231.4482281693
 23
172.5320710245
 33
0.0
  0
LINE
  5
1D3
330
1CE
100
AcDbEntity
  8
VERMASSUNG
100
AcDbLine
 10
174.4482281693
 20
155.6627204465
 30
0.0
 11
174.4482281693
 21
173.9820710245
 31
0.0
  0
LINE
  5
1D4
330
1CE
100
AcDbEntity
  8
VERMASSUNG
100
AcDbLine
 10
234.4482281693
 20
165.9627204465
 30
0.0
 11
234.4482281693
 21
173.9820710245
 31
0.0
  0
LINE
  5
1D5
330
1CE
100
AcDbEntity
  8
VERMASSUNG
100
AcDbLine
 10
174.4482281693
 20
172.9820710245
 30
0.0
 11
234.4482281693
 21
172.9820710245
 31
0.0
  0
MTEXT
  5
1D6
330
1CE
100
AcDbEntity
  8
VERMASSUNG
100
AcDbMText
 10
203.0482282192
 20
175.5602066204
 30
0.0
 40
2.0
 41
0.0
 71
     1
 72
     1
  1
60
  7
SLDTEXTSTYLE0
 73
     1
 44
1.0
  0
ENDBLK
  5
1D0
330
1CE
100
AcDbEntity
  8
0
100
AcDbBlockEnd
  0
BLOCK
  5
1D9
330
1D8
100
AcDbEntity
  8
0
100
AcDbBlockBegin
  2
_D_1
 70
     0
 10
0.0
 20
0.0
 30
0.0
  3
_D_1
  1

  0
SOLID
  5
1DB
330
1D8
100
AcDbEntity
  8
VERMASSUNG
100
AcDbTrace
 10
240.9497032959
 20
130.9627204465
 30
0.0
 11
241.3997032959
 21
133.9627204465
 31
0.0
 12
240.4997032959
 22
133.9627204465
 32
0.0
 13
240.4997032959
 23
133.9627204465
 33
0.0
  0
SOLID
  5
1DC
330
1D8
100
AcDbEntity
  8
VERMASSUNG
100
AcDbTrace
 10
240.9497032959
 20
165.9627204465
 30
0.0
 11
240.4997032959
 21
162.9627204465
 31
0.0
 12
241.3997032959
 22
162.9627204465
 32
0.0
 13
241.3997032959
 23
162.9627204465
 33
0.0
  0
LINE
  5
1DD
330
1D8
100
AcDbEntity
  8
VERMASSUNG
100
AcDbLine
 10
234.4482281693
 20
130.9627204465
 30
0.0
 11
241.9497032959
 21
130.9627204465
 31
0.0
  0
LINE
  5
1DE
330
1D8
100
AcDbEntity
  8
VERMASSUNG
100
AcDbLine
 10
234.4482281693
 20
165.9627204465
 30
0.0
 11
241.9497032959
 21
165.9627204465
 31
0.0
  0
LINE
  5
1DF
330
1D8
100
AcDbEntity
  8
VERMASSUNG
100
AcDbLine
 10
240.9497032959
 20
130.9627204465
 30
0.0
 11
240.9497032959
 21
165.9627204465
 31
0.0
  0
MTEXT
  5
1E0
330
1D8
100
AcDbEntity
  8
VERMASSUNG
100
AcDbMText
 10
238.3715676999
 20
147.0627204964
 30
0.0
 40
2.0
 41
0.0
 71
     1
 72
     1
  1
35
  7
SLDTEXTSTYLE0
 11
6.123233995736766E-17
 21
1.0
 31
0.0
 73
     1
 44
1.0
  0
ENDBLK
  5
1DA
330
1D8
100
AcDbEntity
  8
0
100
AcDbBlockEnd
  0
BLOCK
  5
1E3
330
1E2
100
AcDbEntity
  8
0
100
AcDbBlockBegin
  2
_D_2
 70
     0
 10
0.0
 20
0.0
 30
0.0
  3
_D_2
  1

  0
SOLID
  5
1E5
330
1E2
100
AcDbEntity
  8
VERMASSUNG
100
AcDbTrace
 10
144.4482281693
 20
180.9531923736
 30
0.0
 11
147.4482281693
 21
180.5031923736
 31
0.0
 12
147.4482281693
 22
181.4031923736
 32
0.0
 13
147.4482281693
 23
181.4031923736
 33
0.0
  0
SOLID
  5
1E6
330
1E2
100
AcDbEntity
  8
VERMASSUNG
100
AcDbTrace
 10
234.4482281693
 20
180.9531923736
 30
0.0
 11
231.4482281693
 21
181.4031923736
 31
0.0
 12
231.4482281693
 22
180.5031923736
 32
0.0
 13
231.4482281693
 23
180.5031923736
 33
0.0
  0
LINE
  5
1E7
330
1E2
100
AcDbEntity
  8
VERMASSUNG
100
AcDbLine
 10
144.4482281693
 20
146.9560462847
 30
0.0
 11
144.4482281693
 21
181.9531923736
 31
0.0
  0
LINE
  5
1E8
330
1E2
100
AcDbEntity
  8
VERMASSUNG
100
AcDbLine
 10
234.4482281693
 20
165.9627204465
 30
0.0
 11
234.4482281693
 21
181.9531923736
 31
0.0
  0
LINE
  5
1E9
330
1E2
100
AcDbEntity
  8
VERMASSUNG
100
AcDbLine
 10
144.4482281693
 20
180.9531923736
 30
0.0
 11
234.4482281693
 21
180.9531923736
 31
0.0
  0
MTEXT
  5
1EA
330
1E2
100
AcDbEntity
  8
VERMASSUNG
100
AcDbMText
 10
188.0482282192
 20
183.5313279695
 30
0.0
 40
2.0
 41
0.0
 71
     1
 72
     1
  1
90
  7
SLDTEXTSTYLE0
 73
     1
 44
1.0
  0
ENDBLK
  5
1E4
330
1E2
100
AcDbEntity
  8
0
100
AcDbBlockEnd
  0
BLOCK
  5
1ED
330
1EC
100
AcDbEntity
  8
0
100
AcDbBlockBegin
  2
_D_3
 70
     0
 10
0.0
 20
0.0
 30
0.0
  3
_D_3
  1

  0
SOLID
  5
1EF
330
1EC
100
AcDbEntity
  8
VERMASSUNG
100
AcDbTrace
 10
137.6954314163
 20
105.9627204465
 30
0.0
 11
138.1454314163
 21
108.9627204465
 31
0.0
 12
137.2454314163
 22
108.9627204465
 32
0.0
 13
137.2454314163
 23
108.9627204465
 33
0.0
  0
SOLID
  5
1F0
330
1EC
100
AcDbEntity
  8
VERMASSUNG
100
AcDbTrace
 10
137.6954314163
 20
155.9627204465
 30
0.0
 11
137.2454314163
 21
152.9627204465
 31
0.0
 12
138.1454314163
 22
152.9627204465
 32
0.0
 13
138.1454314163
 23
152.9627204465
 33
0.0
  0
LINE
  5
1F1
330
1EC
100
AcDbEntity
  8
VERMASSUNG
100
AcDbLine
 10
174.7482281693
 20
105.9627204465
 30
0.0
 11
136.6954314163
 21
105.9627204465
 31
0.0
  0
LINE
  5
1F2
330
1EC
100
AcDbEntity
  8
VERMASSUNG
100
AcDbLine
 10
174.7482281693
 20
155.9627204465
 30
0.0
 11
136.6954314163
 21
155.9627204465
 31
0.0
  0
LINE
  5
1F3
330
1EC
100
AcDbEntity
  8
VERMASSUNG
100
AcDbLine
 10
137.6954314163
 20
105.9627204465
 30
0.0
 11
137.6954314163
 21
155.9627204465
 31
0.0
  0
MTEXT
  5
1F4
330
1EC
100
AcDbEntity
  8
VERMASSUNG
100
AcDbMText
 10
134.9172961601
 20
125.4577211367
 30
0.0
 40
2.0
 41
0.0
 71
     1
 72
     1
  1
PSC
  7
SLDTEXTSTYLE0
 11
6.123233995736766E-17
 21
1.0
 31
0.0
 73
     1
 44
1.0
  0
MTEXT
  5
1F5
330
1EC
100
AcDbEntity
  8
VERMASSUNG
100
AcDbMText
 10
135.1172961114
 20
130.0577207732
 30
0.0
 40
2.0
 41
0.0
 71
     1
 72
     1
  1
%%c
  7
SLDTEXTSTYLE0
 11
6.123233995736766E-17
 21
1.0
 31
0.0
 73
     1
 44
1.0
  0
MTEXT
  5
1F6
330
1EC
100
AcDbEntity
  8
VERMASSUNG
100
AcDbMText
 10
134.9172961601
 20
133.6677207875
 30
0.0
 40
2.0
 41
0.0
 71
     1
 72
     1
  1
50
  7
SLDTEXTSTYLE0
 11
6.123233995736766E-17
 21
1.0
 31
0.0
 73
     1
 44
1.0
  0
ENDBLK
  5
1EE
330
1EC
100
AcDbEntity
  8
0
100
AcDbBlockEnd
  0
BLOCK
  5
267
330
266
100
AcDbEntity
  8
0
100
AcDbBlockBegin
  2
SW_CENTERMARKSYMBOL_0
 70
     0
 10
0.0
 20
0.0
 30
0.0
  3
SW_CENTERMARKSYMBOL_0
  1

  0
LINE
  5
269
330
266
100
AcDbEntity
  8
VERMASSUNG
 62
     0
100
AcDbLine
 10
0.0
 20
0.0
 30
0.0
 11
0.0
 21
2.5
 31
0.0
  0
LINE
  5
26A
330
266
100
AcDbEntity
  8
VERMASSUNG
 62
     0
100
AcDbLine
 10
0.0
 20
0.0
 30
0.0
 11
-2.5
 21
0.0
 31
0.0
  0
LINE
  5
26B
330
266
100
AcDbEntity
  8
VERMASSUNG
 62
     0
100
AcDbLine
 10
0.0
 20
0.0
 30
0.0
 11
0.0
 21
-2.5
 31
0.0
  0
LINE
  5
26C
330
266
100
AcDbEntity
  8
VERMASSUNG
 62
     0
100
AcDbLine
 10
0.0
 20
0.0
 30
0.0
 11
2.5
 21
0.0
 31
0.0
  0
LINE
  5
26D
330
266
100
AcDbEntity
  8
VERMASSUNG
 62
     0
100
AcDbLine
 10
0.0
 20
5.0
 30
0.0
 11
0.0
 21
43.1859817436
 31
0.0
  0
LINE
  5
26E
330
266
100
AcDbEntity
  8
VERMASSUNG
 62
     0
100
AcDbLine
 10
-5.0
 20
0.0
 30
0.0
 11
-27.5
 21
0.0
 31
0.0
  0
LINE
  5
26F
330
266
100
AcDbEntity
  8
VERMASSUNG
 62
     0
100
AcDbLine
 10
0.0
 20
-5.0
 30
0.0
 11
0.0
 21
-27.5
 31
0.0
  0
LINE
  5
270
330
266
100
AcDbEntity
  8
VERMASSUNG
 62
     0
100
AcDbLine
 10
5.0
 20
0.0
 30
0.0
 11
27.5
 21
0.0
 31
0.0
  0
ENDBLK
  5
268
330
266
100
AcDbEntity
  8
0
100
AcDbBlockEnd
  0
ENDSEC
  0
SECTION
  2
ENTITIES
  0
MTEXT
  5
78
330
1F
100
AcDbEntity
  8
KOPF_DÜNN
100
AcDbMText
 10
13.8892156294
 20
23.8442973028
 30
0.0
 40
3.0
 41
0.0
 71
     1
 72
     1
  1
PS5.KGB.RGR.060
  7
SLDTEXTSTYLE0
 73
     1
 44
1.0
  0
MTEXT
  5
79
330
1F
100
AcDbEntity
  8
VERMASSUNG
100
AcDbMText
 10
13.9329988022
 20
28.8834360957
 30
0.0
 40
3.0
 41
0.0
 71
     1
 72
     1
  1
Klemmhalter / Aussengewinde
  7
SLDTEXTSTYLE0
 73
     1
 44
1.0
  0
MTEXT
  5
7A
330
1F
100
AcDbEntity
  8
VERMASSUNG
100
AcDbMText
 10
98.8601118557
 20
13.8365368761
 30
0.0
 40
2.0
 41
0.0
 71
     1
 72
     1
  1
Datum: 06.06.2014
  7
SLDTEXTSTYLE0
 73
     1
 44
1.0
  0
MTEXT
  5
7B
330
1F
100
AcDbEntity
  8
VERMASSUNG
100
AcDbMText
 10
13.933048693
 20
18.0482802738
 30
0.0
 40
2.0
 41
0.0
 71
     1
 72
     1
  1
PSC ø 50 / rechte Ausführung
  7
SLDTEXTSTYLE0
 73
     1
 44
1.0
  0
MTEXT
  5
7C
330
1F
100
AcDbEntity
  8
VERMASSUNG
100
AcDbMText
 10
13.9808475933
 20
13.9090974274
 30
0.0
 40
2.0
 41
0.0
 71
     1
 72
     1
  1
Gewicht: 745g
  7
SLDTEXTSTYLE0
 73
     1
 44
1.0
  0
ARC
  5
7D
330
1F
100
AcDbEntity
  8
0
  6
Continuous
 62
     7
370
    15
100
AcDbCircle
 10
192.4482281693
 20
142.2912123748
 30
0.0
 40
2.500000000000019
100
AcDbArc
 50
23.7564891757
 51
156.2435108243
  0
LINE
  5
7E
330
1F
100
AcDbEntity
  8
0
  6
Continuous
 62
     7
370
    15
100
AcDbLine
 10
225.9199779333
 20
163.7186180486
 30
0.0
 11
225.8736717526
 21
163.7117435788
 31
0.0
  0
LINE
  5
7F
330
1F
100
AcDbEntity
  8
0
  6
Continuous
 62
     7
370
    15
100
AcDbLine
 10
225.7552680517
 20
161.8684749016
 30
0.0
 11
225.9636458649
 21
161.8994100156
 31
0.0
  0
LINE
  5
80
330
1F
100
AcDbEntity
  8
0
  6
Continuous
 62
     7
370
    15
100
AcDbLine
 10
226.7302771722
 20
160.1043252219
 30
0.0
 11
226.521899359
 21
160.0733901079
 31
0.0
  0
SPLINE
  5
81
330
1F
100
AcDbEntity
  8
0
  6
Continuous
 62
     7
370
    15
100
AcDbSpline
210
0.0
220
0.0
230
1.0
 70
     8
 71
     3
 72
    10
 73
     6
 74
     0
 42
0.000000001
 43
0.00000001
 40
0.0
 40
0.0
 40
0.0
 40
0.0
 40
0.430177914651289
 40
0.87467311262845
 40
1.0
 40
1.0
 40
1.0
 40
1.0
 10
217.8351281990401
 20
165.5212968885211
 30
0.0
 10
217.8258465775612
 20
165.5177590216757
 30
0.0
 10
217.8069744214771
 20
165.510565539862
 30
0.0
 10
217.7670997634946
 20
165.487817215095
 30
0.0
 10
217.7503827767246
 20
165.4631549847563
 30
0.0
 10
217.7467060362613
 20
165.4577307643839
 30
0.0
  0
LINE
  5
82
330
1F
100
AcDbEntity
  8
0
  6
Continuous
 62
     7
370
    15
100
AcDbLine
 10
225.4653118871
 20
152.8294994673
 30
0.0
 11
225.6398799018
 21
152.8554152851
 31
0.0
  0
ARC
  5
83
330
1F
100
AcDbEntity
  8
0
  6
Continuous
 62
     7
370
    15
100
AcDbCircle
 10
174.7482281693
 20
106.2627204465
 30
0.0
 40
0.3000000000000398
100
AcDbArc
 50
180.0
 51
270.0
  0
ARC
  5
84
330
1F
100
AcDbEntity
  8
0
  6
Continuous
 62
     7
370
    15
100
AcDbCircle
 10
174.7482281693
 20
155.6627204465
 30
0.0
 40
0.3000000000000398
100
AcDbArc
 50
90.0
 51
180.0
  0
LINE
  5
85
330
1F
100
AcDbEntity
  8
0
  6
Continuous
 62
     7
370
    15
100
AcDbLine
 10
174.7482281693
 20
105.9627204465
 30
0.0
 11
203.2488896186
 21
105.9627204465
 31
0.0
  0
LINE
  5
86
330
1F
100
AcDbEntity
  8
0
  6
Continuous
 62
     7
370
    15
100
AcDbLine
 10
206.6809011813
 20
155.9627204465
 30
0.0
 11
174.7482281693
 21
155.9627204465
 31
0.0
  0
LWPOLYLINE
  5
87
330
1F
100
AcDbEntity
  8
0
  6
Continuous
 62
     7
370
    15
100
AcDbPolyline
 90
        3
 70
   128
 43
0.0
 10
174.2482281693
 20
113.1229001676
 10
174.3736831128
 20
113.0545980527
 10
174.4482281693
 20
113.0018602946
  0
LWPOLYLINE
  5
88
330
1F
100
AcDbEntity
  8
0
  6
Continuous
 62
     7
370
    15
100
AcDbPolyline
 90
        3
 70
   128
 43
0.0
 10
174.4482281693
 20
148.9235805985
 10
174.3736831128
 20
148.8708428403
 10
174.2482281693
 20
148.8025407254
  0
ARC
  5
89
330
1F
100
AcDbEntity
  8
0
  6
Continuous
 62
     7
370
    15
100
AcDbCircle
 10
210.8950470816
 20
164.9627204465
 30
0.0
 40
1.000000000000012
100
AcDbArc
 50
156.0276460554
 51
165.0
  0
ARC
  5
8A
330
1F
100
AcDbEntity
  8
0
  6
Continuous
 62
     7
370
    15
100
AcDbCircle
 10
206.6809011813
 20
156.9627204465
 30
0.0
 40
1.0
100
AcDbArc
 50
270.0
 51
345.0
  0
LINE
  5
8B
330
1F
100
AcDbEntity
  8
0
  6
Continuous
 62
     7
370
    15
100
AcDbLine
 10
209.9291212553
 20
165.2215394916
 30
0.0
 11
207.6468270076
 21
156.7039014014
 31
0.0
  0
ARC
  5
8C
330
1F
100
AcDbEntity
  8
0
  6
Continuous
 62
     7
370
    15
100
AcDbCircle
 10
192.9813658557
 20
143.9739070601
 30
0.0
 40
2.46860827539575
100
AcDbArc
 50
2.1550359088
 51
66.7814619256
  0
ARC
  5
8D
330
1F
100
AcDbEntity
  8
0
  6
Continuous
 62
     7
370
    15
100
AcDbCircle
 10
192.4349467607
 20
143.6354334803
 30
0.0
 40
3.017699370025334
100
AcDbArc
 50
59.7631203781
 51
171.7829096682
  0
ARC
  5
8E
330
1F
100
AcDbEntity
  8
0
  6
Continuous
 62
     7
370
    15
100
AcDbCircle
 10
193.0737549335
 20
144.1466174952
 30
0.0
 40
2.223655537546296
100
AcDbArc
 50
341.0401849035
 51
68.6227970856
  0
LWPOLYLINE
  5
8F
330
1F
100
AcDbEntity
  8
0
  6
Continuous
 62
     7
370
    15
100
AcDbPolyline
 90
       12
 70
   128
 43
0.0
 10
189.6337044741
 20
143.7169467443
 10
189.5951865374
 20
143.975768722
 10
189.6190276863
 20
144.4940512582
 10
189.7751591053
 20
144.9959183306
 10
190.0562802629
 20
145.457903193
 10
190.4492462461
 20
145.8584039464
 10
190.9356824023
 20
146.1786936208
 10
191.4928435176
 20
146.4037958271
 10
192.0946773573
 20
146.5231850361
 10
192.71304284
 20
146.5312787413
 10
193.319025883
 20
146.4276984899
 10
193.8842913928
 20
146.2172875794
  0
LWPOLYLINE
  5
90
330
1F
100
AcDbEntity
  8
0
  6
Continuous
 62
     7
370
    15
100
AcDbPolyline
 90
       29
 70
   128
 43
0.0
 10
193.7035281899
 20
145.9561865673
 10
194.1531443173
 20
145.6764595239
 10
194.5172688299
 20
145.3198376695
 10
194.7776430043
 20
144.9042035128
 10
194.921210592
 20
144.450398686
 10
194.9407725148
 20
143.981178858
 10
194.8353478562
 20
143.5200726704
 10
194.6102230487
 20
143.0902019127
 10
194.2766867902
 20
142.7131220998
 10
193.8514639815
 20
142.4077415879
 10
193.3558770698
 20
142.1893734313
 10
192.8147768522
 20
142.0689675209
 10
192.2552963531
 20
142.052561512
 10
191.7054902609
 20
142.1409780704
 10
191.1929281487
 20
142.3297836205
 10
190.7433120213
 20
142.6095106638
 10
190.3791875087
 20
142.9661325183
 10
190.1188133343
 20
143.381766675
 10
189.9752457466
 20
143.8355715018
 10
189.9556838238
 20
144.3047913297
 10
190.0611084824
 20
144.7658975174
 10
190.2862332899
 20
145.1957682751
 10
190.6197695484
 20
145.572848088
 10
191.0449923571
 20
145.8782285998
 10
191.5405792688
 20
146.0965967565
 10
192.0816794864
 20
146.2170026669
 10
192.6411599855
 20
146.2334086758
 10
193.1909660777
 20
146.1449921174
 10
193.7035281899
 20
145.9561865673
  0
ARC
  5
91
330
1F
100
AcDbEntity
  8
0
  6
Continuous
 62
     7
370
    15
100
AcDbCircle
 10
226.3265422763
 20
161.0275912641
 30
0.0
 40
2.709154446589158
100
AcDbArc
 50
354.8268296662
 51
168.1920474237
  0
LWPOLYLINE
  5
92
330
1F
100
AcDbEntity
  8
0
  6
Continuous
 62
     7
370
    15
100
AcDbPolyline
 90
        3
 70
   128
 43
0.0
 10
223.6248824522
 20
160.7833170172
 10
223.6156595524
 20
160.9908228899
 10
223.674716259
 20
161.5819707274
  0
CIRCLE
  5
93
330
1F
100
AcDbEntity
  8
0
  6
Continuous
 62
     7
370
    15
100
AcDbCircle
 10
226.3724148165
 20
161.0178007256
 30
0.0
 40
2.506320428817366
  0
ARC
  5
94
330
1F
100
AcDbEntity
  8
0
  6
Continuous
 62
     7
370
    15
100
AcDbCircle
 10
226.2701577322
 20
161.0590340458
 30
0.0
 40
2.682176168498739
100
AcDbArc
 50
98.5007581152
 51
138.4526842727
  0
ARC
  5
95
330
1F
100
AcDbEntity
  8
0
  6
Continuous
 62
     7
370
    15
100
AcDbCircle
 10
225.3026583179
 20
160.661816708
 30
0.0
 40
0.2267362984423621
100
AcDbArc
 50
123.6947250969
 51
271.7656327681
  0
ARC
  5
96
330
1F
100
AcDbEntity
  8
0
  6
Continuous
 62
     7
370
    15
100
AcDbCircle
 10
225.3299766579
 20
159.8691499779
 30
0.0
 40
0.5664031359838531
100
AcDbArc
 50
2.8123905075
 51
92.0572030286
  0
ARC
  5
97
330
1F
100
AcDbEntity
  8
0
  6
Continuous
 62
     7
370
    15
100
AcDbCircle
 10
226.1179143259
 20
159.9057639319
 30
0.0
 40
0.2223918216944324
100
AcDbArc
 50
182.2736921186
 51
332.8809375288
  0
ARC
  5
98
330
1F
100
AcDbEntity
  8
0
  6
Continuous
 62
     7
370
    15
100
AcDbCircle
 10
226.8114832033
 20
159.5554516189
 30
0.0
 40
0.5546307770691264
100
AcDbArc
 50
62.7090170436
 51
153.3311193812
  0
ARC
  5
99
330
1F
100
AcDbEntity
  8
0
  6
Continuous
 62
     7
370
    15
100
AcDbCircle
 10
227.165893788
 20
160.2485213536
 30
0.0
 40
0.2238113873002862
100
AcDbArc
 50
243.4305129757
 51
33.1987548168
  0
ARC
  5
9A
330
1F
100
AcDbEntity
  8
0
  6
Continuous
 62
     7
370
    15
100
AcDbCircle
 10
227.8360285578
 20
160.6781759202
 30
0.0
 40
0.5722445774131113
100
AcDbArc
 50
123.877230411
 51
212.4573866058
  0
ARC
  5
9B
330
1F
100
AcDbEntity
  8
0
  6
Continuous
 62
     7
370
    15
100
AcDbCircle
 10
227.3912647192
 20
161.3419185296
 30
0.0
 40
0.2267362984423726
100
AcDbArc
 50
303.6947250969
 51
91.7656327681
  0
ARC
  5
9C
330
1F
100
AcDbEntity
  8
0
  6
Continuous
 62
     7
370
    15
100
AcDbCircle
 10
227.3639463792
 20
162.1345852597
 30
0.0
 40
0.5664031359838619
100
AcDbArc
 50
182.8123905075
 51
272.0572030286
  0
ARC
  5
9D
330
1F
100
AcDbEntity
  8
0
  6
Continuous
 62
     7
370
    15
100
AcDbCircle
 10
226.5760087112
 20
162.0979713056
 30
0.0
 40
0.2223918216943779
100
AcDbArc
 50
2.2736921186
 51
152.8809375288
  0
ARC
  5
9E
330
1F
100
AcDbEntity
  8
0
  6
Continuous
 62
     7
370
    15
100
AcDbCircle
 10
225.8824398338
 20
162.4482836186
 30
0.0
 40
0.5546307770691402
100
AcDbArc
 50
242.7090170436
 51
333.3311193812
  0
ARC
  5
9F
330
1F
100
AcDbEntity
  8
0
  6
Continuous
 62
     7
370
    15
100
AcDbCircle
 10
225.5280292491
 20
161.7552138839
 30
0.0
 40
0.2238113873002891
100
AcDbArc
 50
63.4305129757
 51
213.1987548168
  0
ARC
  5
A0
330
1F
100
AcDbEntity
  8
0
  6
Continuous
 62
     7
370
    15
100
AcDbCircle
 10
224.8578944793
 20
161.3255593173
 30
0.0
 40
0.5722445774129722
100
AcDbArc
 50
303.877230411
 51
32.4573866058
  0
LINE
  5
A1
330
1F
100
AcDbEntity
  8
0
  6
Continuous
 62
     7
370
    15
100
AcDbLine
 10
225.419758429
 20
161.9244540107
 30
0.0
 11
225.3945546801
 21
161.9355382647
 31
0.0
  0
ARC
  5
A2
330
1F
100
AcDbEntity
  8
0
  6
Continuous
 62
     7
370
    15
100
AcDbCircle
 10
225.6742330702
 20
162.4162179474
 30
0.0
 40
0.5537048965424638
100
AcDbArc
 50
242.6396479055
 51
278.4154907561
  0
LWPOLYLINE
  5
A3
330
1F
100
AcDbEntity
  8
0
  6
Continuous
 62
     7
370
    15
100
AcDbPolyline
 90
        3
 70
   128
 43
0.0
 10
226.0430050528
 20
159.6963448697
 10
226.064388708
 20
159.7147477509
 10
226.1074788431
 20
159.7734534946
  0
ARC
  5
A4
330
1F
100
AcDbEntity
  8
0
  6
Continuous
 62
     7
370
    15
100
AcDbCircle
 10
226.6048465858
 20
159.5225130453
 30
0.0
 40
0.5570868698277803
100
AcDbArc
 50
98.5628724702
 51
153.2273638182
  0
ARC
  5
A5
330
1F
100
AcDbEntity
  8
0
  6
Continuous
 62
     7
370
    15
100
AcDbCircle
 10
227.6276507446
 20
160.6472408062
 30
0.0
 40
0.5722445774130007
100
AcDbArc
 50
123.877230411
 51
212.4573866058
  0
ARC
  5
A6
330
1F
100
AcDbEntity
  8
0
  6
Continuous
 62
     7
370
    15
100
AcDbCircle
 10
226.3634607304
 20
162.0639978148
 30
0.0
 40
0.2266974224404952
100
AcDbArc
 50
2.9992156753
 51
69.5840745385
  0
ARC
  5
A7
330
1F
100
AcDbEntity
  8
0
  6
Continuous
 62
     7
370
    15
100
AcDbCircle
 10
227.155568566
 20
162.1036501457
 30
0.0
 40
0.566403135983835
100
AcDbArc
 50
182.8123905075
 51
272.0572030286
  0
ARC
  5
A8
330
1F
100
AcDbEntity
  8
0
  6
Continuous
 62
     7
370
    15
100
AcDbCircle
 10
226.9527359928
 20
160.2180378716
 30
0.0
 40
0.2275835839368426
100
AcDbArc
 50
307.4081705457
 51
32.4446776879
  0
ARC
  5
A9
330
1F
100
AcDbEntity
  8
0
  6
Continuous
 62
     7
370
    15
100
AcDbCircle
 10
227.182886906
 20
161.3109834156
 30
0.0
 40
0.226736298442401
100
AcDbArc
 50
303.6947250969
 51
91.7656327681
  0
LINE
  5
AA
330
1F
100
AcDbEntity
  8
0
  6
Continuous
 62
     7
370
    15
100
AcDbLine
 10
220.4262821973
 20
165.9646389711
 30
0.0
 11
219.4415634155
 21
165.3860076796
 31
0.0
  0
LINE
  5
AB
330
1F
100
AcDbEntity
  8
0
  6
Continuous
 62
     7
370
    15
100
AcDbLine
 10
233.3362450716
 20
165.9646389711
 30
0.0
 11
220.4262821973
 21
165.9646389711
 31
0.0
  0
LINE
  5
AC
330
1F
100
AcDbEntity
  8
0
  6
Continuous
 62
     7
370
    15
100
AcDbLine
 10
233.8597756193
 20
165.6647386733
 30
0.0
 11
233.3362450716
 21
165.9646389711
 31
0.0
  0
LINE
  5
AD
330
1F
100
AcDbEntity
  8
0
  6
Continuous
 62
     7
370
    15
100
AcDbLine
 10
233.8606712213
 20
165.4648051413
 30
0.0
 11
233.8597756193
 21
165.6647386733
 31
0.0
  0
LINE
  5
AE
330
1F
100
AcDbEntity
  8
0
  6
Continuous
 62
     7
370
    15
100
AcDbLine
 10
233.3398274796
 20
165.1649048435
 30
0.0
 11
233.8606712213
 21
165.4648051413
 31
0.0
  0
LINE
  5
AF
330
1F
100
AcDbEntity
  8
0
  6
Continuous
 62
     7
370
    15
100
AcDbLine
 10
233.3450114359
 20
164.0076422604
 30
0.0
 11
233.3398274796
 21
165.1649048435
 31
0.0
  0
LINE
  5
B0
330
1F
100
AcDbEntity
  8
0
  6
Continuous
 62
     7
370
    15
100
AcDbLine
 10
226.9408686146
 20
152.6584671152
 30
0.0
 11
233.3450114359
 21
164.0076422604
 31
0.0
  0
LINE
  5
B1
330
1F
100
AcDbEntity
  8
0
  6
Continuous
 62
     7
370
    15
100
AcDbLine
 10
226.4253017662
 20
152.3493614619
 30
0.0
 11
226.9408686146
 21
152.6584671152
 31
0.0
  0
LINE
  5
B2
330
1F
100
AcDbEntity
  8
0
  6
Continuous
 62
     7
370
    15
100
AcDbLine
 10
226.2542820222
 20
152.4493282279
 30
0.0
 11
226.4253017662
 21
152.3493614619
 31
0.0
  0
LINE
  5
B3
330
1F
100
AcDbEntity
  8
0
  6
Continuous
 62
     7
370
    15
100
AcDbLine
 10
226.2567896387
 20
153.0583341791
 30
0.0
 11
226.2542820222
 21
152.4493282279
 31
0.0
  0
LINE
  5
B4
330
1F
100
AcDbEntity
  8
0
  6
Continuous
 62
     7
370
    15
100
AcDbLine
 10
225.2668869006
 20
153.6369654706
 30
0.0
 11
226.2567896387
 21
153.0583341791
 31
0.0
  0
LINE
  5
B5
330
1F
100
AcDbEntity
  8
0
  6
Continuous
 62
     7
370
    15
100
AcDbLine
 10
218.7610668476
 20
164.9861406158
 30
0.0
 11
225.2668869006
 21
153.6369654706
 31
0.0
  0
LINE
  5
B6
330
1F
100
AcDbEntity
  8
0
  6
Continuous
 62
     7
370
    15
100
AcDbLine
 10
218.7531031483
 20
165.5951465669
 30
0.0
 11
218.7610668476
 21
164.9861406158
 31
0.0
  0
LINE
  5
B7
330
1F
100
AcDbEntity
  8
0
  6
Continuous
 62
     7
370
    15
100
AcDbLine
 10
218.9232272903
 20
165.6951133329
 30
0.0
 11
218.7531031483
 21
165.5951465669
 31
0.0
  0
LINE
  5
B8
330
1F
100
AcDbEntity
  8
0
  6
Continuous
 62
     7
370
    15
100
AcDbLine
 10
219.4415634155
 20
165.3860076796
 30
0.0
 11
218.9232272903
 21
165.6951133329
 31
0.0
  0
CIRCLE
  5
B9
330
1F
100
AcDbEntity
  8
0
  6
Continuous
 62
     7
370
    15
100
AcDbCircle
 10
226.3107872384
 20
161.2121547898
 30
0.0
 40
2.837755502924639
  0
LINE
  5
BA
330
1F
100
AcDbEntity
  8
0
  6
Continuous
 62
     7
370
    15
100
AcDbLine
 10
218.7263372121
 20
164.9809847635
 30
0.0
 11
218.7610668476
 21
164.9861406158
 31
0.0
  0
LINE
  5
BB
330
1F
100
AcDbEntity
  8
0
  6
Continuous
 62
     7
370
    15
100
AcDbLine
 10
218.1366521176
 20
165.5036301881
 30
0.0
 11
218.1372523239
 21
165.4577307644
 31
0.0
  0
LINE
  5
BC
330
1F
100
AcDbEntity
  8
0
  6
Continuous
 62
     7
370
    15
100
AcDbLine
 10
218.1366521176
 20
165.5036301881
 30
0.0
 11
218.7531031483
 21
165.5951465669
 31
0.0
  0
LINE
  5
BD
330
1F
100
AcDbEntity
  8
0
  6
Continuous
 62
     7
370
    15
100
AcDbLine
 10
224.6504358699
 20
153.5454490917
 30
0.0
 11
225.2668869006
 21
153.6369654706
 31
0.0
  0
LINE
  5
BE
330
1F
100
AcDbEntity
  8
0
  6
Continuous
 62
     7
370
    15
100
AcDbLine
 10
223.4621314351
 20
155.6184045449
 30
0.0
 11
224.6504358699
 21
153.5454490917
 31
0.0
  0
LINE
  5
BF
330
1F
100
AcDbEntity
  8
0
  6
Continuous
 62
     7
370
    15
100
AcDbLine
 10
218.3067762596
 20
165.6035969541
 30
0.0
 11
218.1366521176
 21
165.5036301881
 31
0.0
  0
LINE
  5
C0
330
1F
100
AcDbEntity
  8
0
  6
Continuous
 62
     7
370
    15
100
AcDbLine
 10
218.3067762596
 20
165.6035969541
 30
0.0
 11
218.9232272903
 21
165.6951133329
 31
0.0
  0
LINE
  5
C1
330
1F
100
AcDbEntity
  8
0
  6
Continuous
 62
     7
370
    15
100
AcDbLine
 10
219.8098311666
 20
165.8731225923
 30
0.0
 11
219.2129083184
 21
165.5223643403
 31
0.0
  0
LINE
  5
C2
330
1F
100
AcDbEntity
  8
0
  6
Continuous
 62
     7
370
    15
100
AcDbLine
 10
219.8098311666
 20
165.8731225923
 30
0.0
 11
220.4262821973
 21
165.9646389711
 31
0.0
  0
LINE
  5
C3
330
1F
100
AcDbEntity
  8
0
  6
Continuous
 62
     7
370
    15
100
AcDbLine
 10
225.6403386079
 20
152.9668178002
 30
0.0
 11
226.2567896387
 21
153.0583341791
 31
0.0
  0
LINE
  5
C4
330
1F
100
AcDbEntity
  8
0
  6
Continuous
 62
     7
370
    15
100
AcDbLine
 10
224.6504358699
 20
153.5454490917
 30
0.0
 11
225.6403386079
 21
152.9668178002
 31
0.0
  0
LINE
  5
C5
330
1F
100
AcDbEntity
  8
0
  6
Continuous
 62
     7
370
    15
100
AcDbLine
 10
225.6378309915
 20
152.3578118491
 30
0.0
 11
226.2542820222
 21
152.4493282279
 31
0.0
  0
LINE
  5
C6
330
1F
100
AcDbEntity
  8
0
  6
Continuous
 62
     7
370
    15
100
AcDbLine
 10
225.6403386079
 20
152.9668178002
 30
0.0
 11
225.6378309915
 21
152.3578118491
 31
0.0
  0
LINE
  5
C7
330
1F
100
AcDbEntity
  8
0
  6
Continuous
 62
     7
370
    15
100
AcDbLine
 10
225.8088507354
 20
152.2578450831
 30
0.0
 11
226.4253017662
 21
152.3493614619
 31
0.0
  0
LINE
  5
C8
330
1F
100
AcDbEntity
  8
0
  6
Continuous
 62
     7
370
    15
100
AcDbLine
 10
225.6378309915
 20
152.3578118491
 30
0.0
 11
225.8088507354
 21
152.2578450831
 31
0.0
  0
LWPOLYLINE
  5
C9
330
1F
100
AcDbEntity
  8
0
  6
Continuous
 62
     7
370
    15
100
AcDbPolyline
 90
        3
 70
   128
 43
0.0
 10
219.3276984744
 20
165.5898162641
 10
219.306785318
 20
165.5895453534
 10
219.1051959054
 20
165.5865977869
  0
ARC
  5
CA
330
1F
100
AcDbEntity
  8
0
  6
Continuous
 62
     7
370
    15
100
AcDbCircle
 10
218.2759582401
 20
163.1461764469
 30
0.0
 40
2.417265505605698
100
AcDbArc
 50
90.9013831581
 51
98.8164280832
  0
ARC
  5
CB
330
1F
100
AcDbEntity
  8
0
  6
Continuous
 62
     7
370
    15
100
AcDbCircle
 10
225.7548637744
 20
154.1702915694
 30
0.0
 40
1.28526799743225
100
AcDbArc
 50
209.6111520398
 51
264.8736920366
  0
LINE
  5
CC
330
1F
100
AcDbEntity
  8
0
  6
Continuous
 62
     7
370
    15
100
AcDbLine
 10
223.4527843398
 20
155.6018399828
 30
0.0
 11
224.6374533554
 21
153.5352263911
 31
0.0
  0
LINE
  5
CD
330
1F
100
AcDbEntity
  8
0
  6
Continuous
 62
     7
370
    15
100
AcDbLine
 10
223.2004127669
 20
155.1545968057
 30
0.0
 11
224.1686032757
 21
153.4656223846
 31
0.0
  0
ARC
  5
CE
330
1F
100
AcDbEntity
  8
0
  6
Continuous
 62
     7
370
    15
100
AcDbCircle
 10
225.281876336
 20
154.0952773757
 30
0.0
 40
1.279000513926867
100
AcDbArc
 50
209.4920226823
 51
278.2458543036
  0
LINE
  5
CF
330
1F
100
AcDbEntity
  8
0
  6
Continuous
 62
     7
370
    15
100
AcDbLine
 10
174.4482281693
 20
106.2627204465
 30
0.0
 11
174.4482281693
 21
155.6627204442
 31
0.0
  0
ELLIPSE
  5
D0
330
1F
100
AcDbEntity
  8
0
  6
Continuous
 62
     7
370
    15
100
AcDbEllipse
 10
237.9165868105
 20
130.9627204465
 30
0.0
 11
141.781995509807
 21
-0.6754078701926289
 31
0.0
210
0.0
220
0.0
230
1.0
 40
0.1762626822
 41
1.793765967245606
 42
1.796301052684808
  0
SPLINE
  5
D1
330
1F
100
AcDbEntity
  8
0
  6
Continuous
 62
     7
370
    15
100
AcDbSpline
210
0.0
220
0.0
230
1.0
 70
     8
 71
     3
 72
    18
 73
    14
 74
     0
 42
0.000000001
 43
0.00000001
 40
0.0
 40
0.0
 40
0.0
 40
0.0
 40
0.2500000000000023
 40
0.2500000000000023
 40
0.3750000000000022
 40
0.3750000000000022
 40
0.500000000000002
 40
0.500000000000002
 40
0.6250000000000018
 40
0.6250000000000018
 40
0.7500000000000017
 40
0.7500000000000017
 40
1.0
 40
1.0
 40
1.0
 40
1.0
 10
206.3304033654748
 20
155.4718807631
 30
0.0
 10
206.0436585875046
 20
155.4616539402791
 30
0.0
 10
205.771666652494
 20
155.4433548446619
 30
0.0
 10
205.3852046227792
 20
155.4021846393422
 30
0.0
 10
205.2603535616721
 20
155.3860996494395
 30
0.0
 10
205.0260279450567
 20
155.3498275618917
 30
0.0
 10
204.9154566969572
 20
155.3295354348916
 30
0.0
 10
204.7073885009998
 20
155.2841512202275
 30
0.0
 10
204.6092600339449
 20
155.2588309515534
 30
0.0
 10
204.4313421989521
 20
155.2041415186596
 30
0.0
 10
204.3511066431837
 20
155.1747408377669
 30
0.0
 10
204.1356801585902
 20
155.0798429329758
 30
0.0
 10
204.0254564394969
 20
155.0070138598038
 30
0.0
 10
203.9535704196083
 20
154.9266214010408
 30
0.0
  0
ELLIPSE
  5
D2
330
1F
100
AcDbEntity
  8
0
  6
Continuous
 62
     7
370
    15
100
AcDbEllipse
 10
206.0294967352
 20
130.9627204465
 30
0.0
 11
-0.1889046786406538
 21
24.99994879916483
 31
0.0
210
0.0
220
0.0
230
1.0
 40
0.2678431773
 41
0.2868824609032097
 42
2.798302566017131
  0
SPLINE
  5
D3
330
1F
100
AcDbEntity
  8
0
  6
Continuous
 62
     7
370
    15
100
AcDbSpline
210
0.0
220
0.0
230
1.0
 70
     8
 71
     3
 72
    10
 73
     6
 74
     0
 42
0.000000001
 43
0.00000001
 40
0.0
 40
0.0
 40
0.0
 40
0.0
 40
0.5
 40
0.5
 40
1.0
 40
1.0
 40
1.0
 40
1.0
 10
203.9535704196084
 20
107.404429341847
 30
0.0
 10
204.0391030416302
 20
107.2920634501654
 30
0.0
 10
204.1746282830464
 20
107.1934492593329
 30
0.0
 10
204.5510077109537
 20
107.0196415348708
 30
0.0
 10
204.7821980969827
 20
106.948978447644
 30
0.0
 10
205.0562101633001
 20
106.8919678317315
 30
0.0
  0
ELLIPSE
  5
D4
330
1F
100
AcDbEntity
  8
0
  6
Continuous
 62
     7
370
    15
100
AcDbEllipse
 10
223.7237839647
 20
130.9627204465
 30
0.0
 11
20.71094926285767
 21
24.92696435777356
 31
0.0
210
0.0
220
0.0
230
1.0
 40
0.0922008664
 41
3.218049821375983
 42
3.491554747458581
  0
SPLINE
  5
D5
330
1F
100
AcDbEntity
  8
0
  6
Continuous
 62
     7
370
    15
100
AcDbSpline
210
0.0
220
0.0
230
1.0
 70
     8
 71
     3
 72
    12
 73
     8
 74
     0
 42
0.000000001
 43
0.00000001
 40
0.0
 40
0.0
 40
0.0
 40
0.0
 40
0.2499999999999991
 40
0.2499999999999991
 40
0.4999999999999982
 40
0.4999999999999982
 40
1.0
 40
1.0
 40
1.0
 40
1.0
 10
182.9759849828711
 20
107.1359893310154
 30
0.0
 10
182.9123484286575
 20
107.1359893310154
 30
0.0
 10
182.8527683017912
 20
107.1442461019472
 30
0.0
 10
182.7541315604248
 20
107.168448163955
 30
0.0
 10
182.7151729360445
 20
107.1836949829891
 30
0.0
 10
182.6157939965367
 20
107.2332998550492
 30
0.0
 10
182.5738360913712
 20
107.270731503168
 30
0.0
 10
182.5429722809787
 20
107.3100789692857
 30
0.0
  0
LINE
  5
D6
330
1F
100
AcDbEntity
  8
0
  6
Continuous
 62
     7
370
    15
100
AcDbLine
 10
185.9204713557
 20
107.135989331
 30
0.0
 11
182.9759849829
 21
107.135989331
 31
0.0
  0
SPLINE
  5
D7
330
1F
100
AcDbEntity
  8
0
  6
Continuous
 62
     7
370
    15
100
AcDbSpline
210
0.0
220
0.0
230
1.0
 70
     8
 71
     3
 72
    12
 73
     8
 74
     0
 42
0.000000001
 43
0.00000001
 40
0.0
 40
0.0
 40
0.0
 40
0.0
 40
0.4999999999999968
 40
0.4999999999999968
 40
0.7499999999999983
 40
0.7499999999999983
 40
1.0
 40
1.0
 40
1.0
 40
1.0
 10
186.3534840576305
 20
107.3100789692857
 30
0.0
 10
186.3226323470662
 20
107.2707469289232
 30
0.0
 10
186.2807394836056
 20
107.233335163395
 30
0.0
 10
186.1812186058124
 20
107.1836642387791
 30
0.0
 10
186.1416044410881
 20
107.1682751561712
 30
0.0
 10
186.0445014073086
 20
107.144441940504
 30
0.0
 10
185.9840027346582
 20
107.1359893310152
 30
0.0
 10
185.9204713557383
 20
107.1359893310152
 30
0.0
  0
ELLIPSE
  5
D8
330
1F
100
AcDbEntity
  8
0
  6
Continuous
 62
     7
370
    15
100
AcDbEllipse
 10
173.3919705143
 20
130.9627204465
 30
0.0
 11
-11.7092723497272
 21
24.67718644093742
 31
0.0
210
0.0
220
0.0
230
1.0
 40
0.3419987131
 41
3.310521928178952
 42
4.221709151398942
  0
SPLINE
  5
D9
330
1F
100
AcDbEntity
  8
0
  6
Continuous
 62
     7
370
    15
100
AcDbSpline
210
0.0
220
0.0
230
1.0
 70
     8
 71
     3
 72
    12
 73
     8
 74
     0
 42
0.000000001
 43
0.00000001
 40
0.0
 40
0.0
 40
0.0
 40
0.0
 40
0.2500000000000016
 40
0.2500000000000016
 40
0.5000000000000032
 40
0.5000000000000032
 40
1.0
 40
1.0
 40
1.0
 40
1.0
 10
185.9204713557382
 20
123.3939104773366
 30
0.0
 10
185.9841079099519
 20
123.3939104773366
 30
0.0
 10
186.0436880368182
 20
123.3678635742787
 30
0.0
 10
186.1423247781846
 20
123.2923764153787
 30
0.0
 10
186.1812834025648
 20
123.245157376848
 30
0.0
 10
186.2806623420727
 20
123.0934177257545
 30
0.0
 10
186.3226202472382
 20
122.9812155015703
 30
0.0
 10
186.3534840576306
 20
122.8662674484731
 30
0.0
  0
LINE
  5
DA
330
1F
100
AcDbEntity
  8
0
  6
Continuous
 62
     7
370
    15
100
AcDbLine
 10
182.9759849829
 20
123.3939104773
 30
0.0
 11
185.9204713557
 21
123.3939104773
 31
0.0
  0
SPLINE
  5
DB
330
1F
100
AcDbEntity
  8
0
  6
Continuous
 62
     7
370
    15
100
AcDbSpline
210
0.0
220
0.0
230
1.0
 70
     8
 71
     3
 72
    12
 73
     8
 74
     0
 42
0.000000001
 43
0.00000001
 40
0.0
 40
0.0
 40
0.0
 40
0.0
 40
0.5000000000000064
 40
0.5000000000000064
 40
0.7500000000000032
 40
0.7500000000000032
 40
1.0
 40
1.0
 40
1.0
 40
1.0
 10
182.5429722809789
 20
122.866267448473
 30
0.0
 10
182.5738239915431
 20
122.9811704374098
 30
0.0
 10
182.6157168550037
 20
123.0933093334587
 30
0.0
 10
182.7152377327969
 20
123.2452516150596
 30
0.0
 10
182.7548518975212
 20
123.2929162245845
 30
0.0
 10
182.8519549313007
 20
123.3672525551999
 30
0.0
 10
182.9124536039511
 20
123.393910477337
 30
0.0
 10
182.975984982871
 20
123.393910477337
 30
0.0
  0
ELLIPSE
  5
DC
330
1F
100
AcDbEntity
  8
0
  6
Continuous
 62
     7
370
    15
100
AcDbEllipse
 10
195.5044858243
 20
130.9627204465
 30
0.0
 11
11.70927234972708
 21
24.67718644093742
 31
0.0
210
0.0
220
0.0
230
1.0
 40
0.3419987131
 41
2.061476155780656
 42
2.972663379000672
  0
SPLINE
  5
DD
330
1F
100
AcDbEntity
  8
0
  6
Continuous
 62
     7
370
    15
100
AcDbSpline
210
0.0
220
0.0
230
1.0
 70
     8
 71
     3
 72
    12
 73
     8
 74
     0
 42
0.000000001
 43
0.00000001
 40
0.0
 40
0.0
 40
0.0
 40
0.0
 40
0.25
 40
0.25
 40
0.5
 40
0.5
 40
1.0
 40
1.0
 40
1.0
 40
1.0
 10
182.9759849828711
 20
138.5315304156978
 30
0.0
 10
182.9123197463406
 20
138.5315304156978
 30
0.0
 10
182.8527135141173
 20
138.5576025641775
 30
0.0
 10
182.7540529891864
 20
138.6331413149986
 30
0.0
 10
182.7150859991712
 20
138.6803922520948
 30
0.0
 10
182.6156991672467
 20
138.8322160700613
 30
0.0
 10
182.5736229198232
 20
138.9450193198264
 30
0.0
 10
182.5429722809789
 20
139.0591734445615
 30
0.0
  0
LINE
  5
DE
330
1F
100
AcDbEntity
  8
0
  6
Continuous
 62
     7
370
    15
100
AcDbLine
 10
185.9204713557
 20
138.5315304157
 30
0.0
 11
182.9759849829
 21
138.5315304157
 31
0.0
  0
SPLINE
  5
DF
330
1F
100
AcDbEntity
  8
0
  6
Continuous
 62
     7
370
    15
100
AcDbSpline
210
0.0
220
0.0
230
1.0
 70
     8
 71
     3
 72
    12
 73
     8
 74
     0
 42
0.000000001
 43
0.00000001
 40
0.0
 40
0.0
 40
0.0
 40
0.0
 40
0.4999999999999991
 40
0.4999999999999991
 40
0.7499999999999996
 40
0.7499999999999996
 40
1.0
 40
1.0
 40
1.0
 40
1.0
 10
186.3534840576305
 20
139.0591734445615
 30
0.0
 10
186.3227846742632
 20
138.9448377774976
 30
0.0
 10
186.2814346061566
 20
138.8334844246562
 30
0.0
 10
186.1816786779372
 20
138.6807476524075
 30
0.0
 10
186.1419817602045
 20
138.6328877665554
 30
0.0
 10
186.0447236085568
 20
138.5582846532059
 30
0.0
 10
185.9839474505662
 20
138.5315304156978
 30
0.0
 10
185.9204713557382
 20
138.5315304156978
 30
0.0
  0
ELLIPSE
  5
E0
330
1F
100
AcDbEntity
  8
0
  6
Continuous
 62
     7
370
    15
100
AcDbEllipse
 10
173.3919705143
 20
130.9627204465
 30
0.0
 11
11.70927234972711
 21
24.67718644093742
 31
0.0
210
0.0
220
0.0
230
1.0
 40
0.3419987131
 41
5.203068809370452
 42
6.114256032590495
  0
SPLINE
  5
E1
330
1F
100
AcDbEntity
  8
0
  6
Continuous
 62
     7
370
    15
100
AcDbSpline
210
0.0
220
0.0
230
1.0
 70
     8
 71
     3
 72
    12
 73
     8
 74
     0
 42
0.000000001
 43
0.00000001
 40
0.0
 40
0.0
 40
0.0
 40
0.0
 40
0.2500000000000009
 40
0.2500000000000009
 40
0.5000000000000018
 40
0.5000000000000018
 40
1.0
 40
1.0
 40
1.0
 40
1.0
 10
185.9204713557382
 20
154.7894515620193
 30
0.0
 10
185.9841365922687
 20
154.7894515620193
 30
0.0
 10
186.0437428244921
 20
154.7811867863534
 30
0.0
 10
186.142403349423
 20
154.7569680047703
 30
0.0
 10
186.1813703394382
 20
154.7417106854611
 30
0.0
 10
186.2807571713627
 20
154.6920773311992
 30
0.0
 10
186.3228334187861
 20
154.6544376230251
 30
0.0
 10
186.3534840576305
 20
154.6153619237489
 30
0.0
  0
LINE
  5
E2
330
1F
100
AcDbEntity
  8
0
  6
Continuous
 62
     7
370
    15
100
AcDbLine
 10
182.9759849829
 20
154.789451562
 30
0.0
 11
185.9204713557
 21
154.789451562
 31
0.0
  0
SPLINE
  5
E3
330
1F
100
AcDbEntity
  8
0
  6
Continuous
 62
     7
370
    15
100
AcDbSpline
210
0.0
220
0.0
230
1.0
 70
     8
 71
     3
 72
    12
 73
     8
 74
     0
 42
0.000000001
 43
0.00000001
 40
0.0
 40
0.0
 40
0.0
 40
0.0
 40
0.4999999999999964
 40
0.4999999999999964
 40
0.7499999999999982
 40
0.7499999999999982
 40
1.0
 40
1.0
 40
1.0
 40
1.0
 10
182.5429722809789
 20
154.6153619237489
 30
0.0
 10
182.5736716643462
 20
154.6544997661449
 30
0.0
 10
182.6150217324527
 20
154.6916595488703
 30
0.0
 10
182.7147776606722
 20
154.7415960544981
 30
0.0
 10
182.7544745784049
 20
154.7570489246419
 30
0.0
 10
182.8517327300525
 20
154.7809684682409
 30
0.0
 10
182.9125088880432
 20
154.7894515620193
 30
0.0
 10
182.9759849828711
 20
154.7894515620193
 30
0.0
  0
ELLIPSE
  5
E4
330
1F
100
AcDbEntity
  8
0
  6
Continuous
 62
     7
370
    15
100
AcDbEllipse
 10
195.5044858243
 20
130.9627204465
 30
0.0
 11
-11.70927234972695
 21
24.67718644093742
 31
0.0
210
0.0
220
0.0
230
1.0
 40
0.3419987131
 41
0.1689292745891325
 42
1.080116497809148
  0
SPLINE
  5
E5
330
1F
100
AcDbEntity
  8
0
  6
Continuous
 62
     7
370
    15
100
AcDbSpline
210
0.0
220
0.0
230
1.0
 70
    11
 71
     3
 72
    70
 73
    66
 74
     0
 42
0.000000001
 43
0.00000001
 40
0.0
 40
0.0
 40
0.0
 40
0.0
 40
0.0312500000000001
 40
0.0312500000000001
 40
0.0625000000000003
 40
0.0625000000000003
 40
0.0937500000000004
 40
0.0937500000000004
 40
0.1250000000000006
 40
0.1250000000000006
 40
0.1562500000000007
 40
0.1562500000000007
 40
0.1875000000000009
 40
0.1875000000000009
 40
0.218750000000001
 40
0.218750000000001
 40
0.2500000000000012
 40
0.2500000000000012
 40
0.2812500000000013
 40
0.2812500000000013
 40
0.3125000000000014
 40
0.3125000000000014
 40
0.3437500000000016
 40
0.3437500000000016
 40
0.3750000000000018
 40
0.3750000000000018
 40
0.4062500000000017
 40
0.4062500000000017
 40
0.4375000000000016
 40
0.4375000000000016
 40
0.4687500000000014
 40
0.4687500000000014
 40
0.5000000000000013
 40
0.5000000000000013
 40
0.5312500000000012
 40
0.5312500000000012
 40
0.5625000000000012
 40
0.5625000000000012
 40
0.5937500000000011
 40
0.5937500000000011
 40
0.625000000000001
 40
0.625000000000001
 40
0.656250000000001
 40
0.656250000000001
 40
0.6875000000000009
 40
0.6875000000000009
 40
0.7187500000000008
 40
0.7187500000000008
 40
0.7500000000000007
 40
0.7500000000000007
 40
0.7812500000000007
 40
0.7812500000000007
 40
0.8125000000000006
 40
0.8125000000000006
 40
0.8437500000000004
 40
0.8437500000000004
 40
0.8750000000000004
 40
0.8750000000000004
 40
0.9062500000000003
 40
0.9062500000000003
 40
0.9375000000000002
 40
0.9375000000000002
 40
0.9687500000000002
 40
0.9687500000000002
 40
1.0
 40
1.0
 40
1.0
 40
1.0
 10
192.4482281693047
 20
141.9642941014887
 30
0.0
 10
192.2498422553651
 20
141.9642941014887
 30
0.0
 10
192.054807566224
 20
141.9819297637485
 30
0.0
 10
191.6711553865386
 20
142.0508543807816
 30
0.0
 10
191.4805362576673
 20
142.1029892907832
 30
0.0
 10
191.117321896086
 20
142.2384773018844
 30
0.0
 10
190.9450822545749
 20
142.3211843223701
 30
0.0
 10
190.6191121930977
 20
142.5156513996151
 30
0.0
 10
190.4649129711953
 20
142.6283347361752
 30
0.0
 10
190.188459726953
 20
142.87305998206
 30
0.0
 10
190.064341172324
 20
143.0059969924303
 30
0.0
 10
189.8450237693186
 20
143.2929076506513
 30
0.0
 10
189.7519345437372
 20
143.4445786166863
 30
0.0
 10
189.6022575964562
 20
143.7563020974142
 30
0.0
 10
189.5445704360069
 20
143.9186622195186
 30
0.0
 10
189.4674365450105
 20
144.248445654606
 30
0.0
 10
189.4483369953212
 20
144.4130499341488
 30
0.0
 10
189.4481202618338
 20
144.7415582448056
 30
0.0
 10
189.4676330764595
 20
144.9071266547645
 30
0.0
 10
189.5442341195388
 20
145.2250102253227
 30
0.0
 10
189.6009092845517
 20
145.3783204893443
 30
0.0
 10
189.7512584974961
 20
145.6740273222891
 30
0.0
 10
189.8451144015373
 20
145.8156697542905
 30
0.0
 10
190.0621444688786
 20
146.0763231887713
 30
0.0
 10
190.1861623158061
 20
146.1970775829251
 30
0.0
 10
190.4659775381283
 20
146.4189525517087
 30
0.0
 10
190.6173058942859
 20
146.516567052219
 30
0.0
 10
190.9419715640222
 20
146.686939536834
 30
0.0
 10
191.1173931822887
 20
146.7602814430124
 30
0.0
 10
191.4805745699278
 20
146.8774510006655
 30
0.0
 10
191.6675622880068
 20
146.9214821808825
 30
0.0
 10
192.052286489791
 20
146.9810431396079
 30
0.0
 10
192.2512423563097
 20
146.9962607701543
 30
0.0
 10
192.6429714058924
 20
146.9963739242751
 30
0.0
 10
192.8377600710663
 20
146.981761669796
 30
0.0
 10
193.2251346487701
 20
146.9223308933077
 30
0.0
 10
193.4144583366126
 20
146.8777624457907
 30
0.0
 10
193.7755987356048
 20
146.7615449295612
 30
0.0
 10
193.9501856197296
 20
146.6889898972236
 30
0.0
 10
194.2780947989165
 20
146.5173233593554
 30
0.0
 10
194.4291064712378
 20
146.4197322978056
 30
0.0
 10
194.7059255358703
 20
146.2008435895591
 30
0.0
 10
194.8326720151105
 20
146.0780788933342
 30
0.0
 10
195.0505529652001
 20
145.8168287029487
 30
0.0
 10
195.1428509896544
 20
145.6778721255972
 30
0.0
 10
195.293822810006
 20
145.3824621595857
 30
0.0
 10
195.3517420841004
 20
145.2263413064689
 30
0.0
 10
195.428384658616
 20
144.9096003126815
 30
0.0
 10
195.448045310067
 20
144.7473584289228
 30
0.0
 10
195.4484085143891
 20
144.4146406224355
 30
0.0
 10
195.429100216772
 20
144.2497524495171
 30
0.0
 10
195.3531328757047
 20
143.9230472969188
 30
0.0
 10
195.2955364815634
 20
143.7594741049325
 30
0.0
 10
195.1452204160515
 20
143.4456528072431
 30
0.0
 10
195.0532135139447
 20
143.2957335015401
 30
0.0
 10
194.8357828473189
 20
143.0103112859358
 30
0.0
 10
194.7093296224818
 20
142.8744016469466
 30
0.0
 10
194.4330726776707
 20
142.6295285549766
 30
0.0
 10
194.2822691153578
 20
142.5189318305247
 30
0.0
 10
193.9545620454141
 20
142.3227522665875
 30
0.0
 10
193.7803396629592
 20
142.2390930746137
 30
0.0
 10
193.4195728860354
 20
142.1041879052924
 30
0.0
 10
193.2305985080924
 20
142.0520053932086
 30
0.0
 10
192.8427548859863
 20
141.9819324587856
 30
0.0
 10
192.6466140832442
 20
141.9642941014887
 30
0.0
 10
192.4482281693047
 20
141.9642941014887
 30
0.0
  0
ELLIPSE
  5
E6
330
1F
100
AcDbEntity
  8
0
  6
Continuous
 62
     7
370
    15
100
AcDbEllipse
 10
203.2861394806
 20
146.3237636302
 30
0.0
 11
0.193433208809779
 21
3.076624510345596
 31
0.0
210
0.0
220
0.0
230
1.0
 40
0.2286720529
 41
5.396651151153215
 42
10.84793947378244
  0
SPLINE
  5
E7
330
1F
100
AcDbEntity
  8
0
  6
Continuous
 62
     7
370
    15
100
AcDbSpline
210
0.0
220
0.0
230
1.0
 70
     8
 71
     3
 72
    16
 73
    12
 74
     0
 42
0.000000001
 43
0.00000001
 40
0.0
 40
0.0
 40
0.0
 40
0.0
 40
0.2499999999999993
 40
0.2499999999999993
 40
0.4999999999999986
 40
0.4999999999999986
 40
0.6249999999999989
 40
0.6249999999999989
 40
0.7499999999999991
 40
0.7499999999999991
 40
1.0
 40
1.0
 40
1.0
 40
1.0
 10
173.4073671411756
 20
113.6135631653248
 30
0.0
 10
173.4390951023683
 20
113.6127660485039
 30
0.0
 10
173.4737226927188
 20
113.6121749736486
 30
0.0
 10
173.5534164547825
 20
113.6111634482142
 30
0.0
 10
173.5984579147862
 20
113.6107633400393
 30
0.0
 10
173.6813106416366
 20
113.6098054681354
 30
0.0
 10
173.7112251028365
 20
113.609423786875
 30
0.0
 10
173.7772114333944
 20
113.6083475728165
 30
0.0
 10
173.8139450588562
 20
113.6076300069223
 30
0.0
 10
173.926441778426
 20
113.6048691292407
 30
0.0
 10
173.9967831265243
 20
113.6023820373691
 30
0.0
 10
174.0532512804294
 20
113.600208758962
 30
0.0
  0
SPLINE
  5
E8
330
1F
100
AcDbEntity
  8
0
  6
Continuous
 62
     7
370
    15
100
AcDbSpline
210
0.0
220
0.0
230
1.0
 70
     8
 71
     3
 72
    14
 73
    10
 74
     0
 42
0.000000001
 43
0.00000001
 40
0.0
 40
0.0
 40
0.0
 40
0.0
 40
0.1249999999999989
 40
0.1249999999999989
 40
0.2499999999999979
 40
0.2499999999999979
 40
0.4999999999999958
 40
0.4999999999999958
 40
1.0
 40
1.0
 40
1.0
 40
1.0
 10
174.0532512803978
 20
113.6002087589847
 30
0.0
 10
174.0658430743426
 20
113.5997241411623
 30
0.0
 10
174.0807141826367
 20
113.59801396323
 30
0.0
 10
174.1128982740698
 20
113.5898984144791
 30
0.0
 10
174.1285024055457
 20
113.5836826262178
 30
0.0
 10
174.1643895452578
 20
113.5654635145162
 30
0.0
 10
174.1782415865264
 20
113.5536984861826
 30
0.0
 10
174.2117313284591
 20
113.5219033497653
 30
0.0
 10
174.2223935890348
 20
113.5041099179222
 30
0.0
 10
174.2305315459297
 20
113.4876787870778
 30
0.0
  0
LINE
  5
E9
330
1F
100
AcDbEntity
  8
0
  6
Continuous
 62
     7
370
    15
100
AcDbLine
 10
174.2482281693
 20
124.9782402139
 30
0.0
 11
174.2482281693
 21
113.1229001676
 31
0.0
  0
SPLINE
  5
EA
330
1F
100
AcDbEntity
  8
0
  6
Continuous
 62
     7
370
    15
100
AcDbSpline
210
0.0
220
0.0
230
1.0
 70
     8
 71
     3
 72
    16
 73
    12
 74
     0
 42
0.000000001
 43
0.00000001
 40
0.0
 40
0.0
 40
0.0
 40
0.0
 40
0.4999999999999973
 40
0.4999999999999973
 40
0.7499999999999978
 40
0.7499999999999978
 40
0.874999999999999
 40
0.874999999999999
 40
0.9374999999999996
 40
0.9374999999999996
 40
1.0
 40
1.0
 40
1.0
 40
1.0
 10
174.2482281693047
 20
124.9782402139428
 30
0.0
 10
174.2482281693047
 20
125.0927699446417
 30
0.0
 10
174.2441708671896
 20
125.2080860198312
 30
0.0
 10
174.2185136243948
 20
125.3830091096588
 30
0.0
 10
174.2071981786527
 20
125.4428384126537
 30
0.0
 10
174.1731668113441
 20
125.5274295989019
 30
0.0
 10
174.1592878301403
 20
125.556099185046
 30
0.0
 10
174.1233521483729
 20
125.5859069719923
 30
0.0
 10
174.1084018291102
 20
125.5922421253518
 30
0.0
 10
174.0785033163683
 20
125.5910166624816
 30
0.0
 10
174.064970456003
 20
125.5844180764468
 30
0.0
 10
174.053251280429
 20
125.5757703883904
 30
0.0
  0
SPLINE
  5
EB
330
1F
100
AcDbEntity
  8
0
  6
Continuous
 62
     7
370
    15
100
AcDbSpline
210
0.0
220
0.0
230
1.0
 70
     8
 71
     3
 72
    14
 73
    10
 74
     0
 42
0.000000001
 43
0.00000001
 40
0.0
 40
0.0
 40
0.0
 40
0.0
 40
0.25
 40
0.25
 40
0.5
 40
0.5
 40
0.75
 40
0.75
 40
1.0
 40
1.0
 40
1.0
 40
1.0
 10
174.0532512804359
 20
125.5757703883817
 30
0.0
 10
173.9967916145521
 20
125.5341082786829
 30
0.0
 10
173.9259191396899
 20
125.5032747980947
 30
0.0
 10
173.777452781808
 20
125.5089893067079
 30
0.0
 10
173.7082575786002
 20
125.5445602341408
 30
0.0
 10
173.5985403925307
 20
125.6315041466147
 30
0.0
 10
173.5532945035987
 20
125.6839364599798
 30
0.0
 10
173.4736773726318
 20
125.7924895414983
 30
0.0
 10
173.4390747531749
 20
125.8494726277408
 30
0.0
 10
173.4073671411761
 20
125.9080387103987
 30
0.0
  0
SPLINE
  5
EC
330
1F
100
AcDbEntity
  8
0
  6
Continuous
 62
     7
370
    15
100
AcDbSpline
210
0.0
220
0.0
230
1.0
 70
     8
 71
     3
 72
    10
 73
     6
 74
     0
 42
0.000000001
 43
0.00000001
 40
0.0
 40
0.0
 40
0.0
 40
0.0
 40
0.5
 40
0.5
 40
1.0
 40
1.0
 40
1.0
 40
1.0
 10
173.1269078257451
 20
126.760857302045
 30
0.0
 10
173.157786409357
 20
126.6112287501853
 30
0.0
 10
173.1937791170804
 20
126.4647333326617
 30
0.0
 10
173.2831193685775
 20
126.179541694121
 30
0.0
 10
173.335577671423
 20
126.040638668405
 30
0.0
 10
173.4073671411762
 20
125.9080387103985
 30
0.0
  0
SPLINE
  5
ED
330
1F
100
AcDbEntity
  8
0
  6
Continuous
 62
     7
370
    15
100
AcDbSpline
210
0.0
220
0.0
230
1.0
 70
     8
 71
     3
 72
    10
 73
     6
 74
     0
 42
0.000000001
 43
0.00000001
 40
0.0
 40
0.0
 40
0.0
 40
0.0
 40
0.5
 40
0.5
 40
1.0
 40
1.0
 40
1.0
 40
1.0
 10
173.4073671411755
 20
136.017402182635
 30
0.0
 10
173.3355776714226
 20
135.8848022246287
 30
0.0
 10
173.2831193685772
 20
135.7458991989129
 30
0.0
 10
173.1937791170803
 20
135.4607075603726
 30
0.0
 10
173.157786409357
 20
135.3142121428493
 30
0.0
 10
173.1269078257451
 20
135.1645835909898
 30
0.0
  0
SPLINE
  5
EE
330
1F
100
AcDbEntity
  8
0
  6
Continuous
 62
     7
370
    15
100
AcDbSpline
210
0.0
220
0.0
230
1.0
 70
     8
 71
     3
 72
    14
 73
    10
 74
     0
 42
0.000000001
 43
0.00000001
 40
0.0
 40
0.0
 40
0.0
 40
0.0
 40
0.25
 40
0.25
 40
0.5
 40
0.5
 40
0.75
 40
0.75
 40
1.0
 40
1.0
 40
1.0
 40
1.0
 10
173.4073671411748
 20
136.0174021826338
 30
0.0
 10
173.4390758406602
 20
136.0759702739524
 30
0.0
 10
173.4736836593008
 20
136.1329645358924
 30
0.0
 10
173.5533420697901
 20
136.2415646706563
 30
0.0
 10
173.598404339685
 20
136.2938928060349
 30
0.0
 10
173.7089861852634
 20
136.3813938173972
 30
0.0
 10
173.7766303060787
 20
136.4164392736514
 30
0.0
 10
173.9268785964758
 20
136.4221836624075
 30
0.0
 10
173.9968309947061
 20
136.3913035553575
 30
0.0
 10
174.0532512804297
 20
136.3496705046445
 30
0.0
  0
SPLINE
  5
EF
330
1F
100
AcDbEntity
  8
0
  6
Continuous
 62
     7
370
    15
100
AcDbSpline
210
0.0
220
0.0
230
1.0
 70
     8
 71
     3
 72
    16
 73
    12
 74
     0
 42
0.000000001
 43
0.00000001
 40
0.0
 40
0.0
 40
0.0
 40
0.0
 40
0.0625000000000007
 40
0.0625000000000007
 40
0.1250000000000014
 40
0.1250000000000014
 40
0.2500000000000012
 40
0.2500000000000012
 40
0.5000000000000009
 40
0.5000000000000009
 40
1.0
 40
1.0
 40
1.0
 40
1.0
 10
174.0532512803978
 20
136.349670504591
 30
0.0
 10
174.0649855148447
 20
136.3410117044468
 30
0.0
 10
174.0785172703237
 20
136.3344076192115
 30
0.0
 10
174.1085047307535
 20
136.3332106520373
 30
0.0
 10
174.1234994371618
 20
136.3396323991032
 30
0.0
 10
174.1592398595565
 20
136.3693495525125
 30
0.0
 10
174.1732531965578
 20
136.3981569498959
 30
0.0
 10
174.2073972853391
 20
136.4832366715218
 30
0.0
 10
174.2183691894575
 20
136.5416116207915
 30
0.0
 10
174.2442147297238
 20
136.7173271455801
 30
0.0
 10
174.2482281693047
 20
136.8331221534446
 30
0.0
 10
174.2482281693047
 20
136.947200679092
 30
0.0
  0
LINE
  5
F0
330
1F
100
AcDbEntity
  8
0
  6
Continuous
 62
     7
370
    15
100
AcDbLine
 10
174.2482281693
 20
148.8025407254
 30
0.0
 11
174.2482281693
 21
136.9472006791
 31
0.0
  0
SPLINE
  5
F1
330
1F
100
AcDbEntity
  8
0
  6
Continuous
 62
     7
370
    15
100
AcDbSpline
210
0.0
220
0.0
230
1.0
 70
     8
 71
     3
 72
    16
 73
    12
 74
     0
 42
0.000000001
 43
0.00000001
 40
0.0
 40
0.0
 40
0.0
 40
0.0
 40
0.4999999999999978
 40
0.4999999999999978
 40
0.7499999999999993
 40
0.7499999999999993
 40
0.8750000000000001
 40
0.8750000000000001
 40
0.9375
 40
0.9375
 40
1.0
 40
1.0
 40
1.0
 40
1.0
 10
174.2482281693048
 20
148.509474912185
 30
0.0
 10
174.2482281693046
 20
148.4874598976056
 30
0.0
 10
174.2441036264506
 20
148.4621062629019
 30
0.0
 10
174.2181871808175
 20
148.4149457607134
 30
0.0
 10
174.2069095997977
 20
148.3977467724846
 30
0.0
 10
174.1731742212563
 20
148.3677688069154
 30
0.0
 10
174.1587854060119
 20
148.3564173983735
 30
0.0
 10
174.1235387165729
 20
148.3397295388961
 30
0.0
 10
174.1083332921159
 20
148.3341665120108
 30
0.0
 10
174.0786867129465
 20
148.3271969289756
 30
0.0
 10
174.0649813769491
 20
148.3256835879203
 30
0.0
 10
174.0532512804254
 20
148.3252321340704
 30
0.0
  0
SPLINE
  5
F2
330
1F
100
AcDbEntity
  8
0
  6
Continuous
 62
     7
370
    15
100
AcDbSpline
210
0.0
220
0.0
230
1.0
 70
     8
 71
     3
 72
    14
 73
    10
 74
     0
 42
0.000000001
 43
0.00000001
 40
0.0
 40
0.0
 40
0.0
 40
0.0
 40
0.25
 40
0.25
 40
0.5
 40
0.5
 40
0.75
 40
0.75
 40
1.0
 40
1.0
 40
1.0
 40
1.0
 10
174.0532512804359
 20
148.3252321340729
 30
0.0
 10
173.9968041983774
 20
148.3230596666536
 30
0.0
 10
173.9259538143342
 20
148.3205615687362
 30
0.0
 10
173.7775173795172
 20
148.316915109948
 30
0.0
 10
173.7083281278302
 20
148.3159473630967
 30
0.0
 10
173.5986165795892
 20
148.3146798037341
 30
0.0
 10
173.5533749302468
 20
148.3142769628057
 30
0.0
 10
173.4737269120629
 20
148.3132659278781
 30
0.0
 10
173.4390999962968
 20
148.3126749674835
 30
0.0
 10
173.4073671411754
 20
148.31187772771
 30
0.0
  0
SPLINE
  5
F3
330
1F
100
AcDbEntity
  8
0
  6
Continuous
 62
     7
370
    15
100
AcDbSpline
210
0.0
220
0.0
230
1.0
 70
     8
 71
     3
 72
    18
 73
    14
 74
     0
 42
0.000000001
 43
0.00000001
 40
0.0
 40
0.0
 40
0.0
 40
0.0
 40
0.2500000000000002
 40
0.2500000000000002
 40
0.3750000000000001
 40
0.3750000000000001
 40
0.5
 40
0.5
 40
0.625
 40
0.625
 40
0.7499999999999999
 40
0.7499999999999999
 40
1.0
 40
1.0
 40
1.0
 40
1.0
 10
173.1269078257451
 20
135.1645835909898
 30
0.0
 10
172.9916222194427
 20
134.5090292555686
 30
0.0
 10
172.8904544731998
 20
133.829408161771
 30
0.0
 10
172.7875931303308
 20
132.7740441552769
 30
0.0
 10
172.7614902848075
 20
132.4152300906923
 30
0.0
 10
172.7266003012627
 20
131.6891171465694
 30
0.0
 10
172.7180140429727
 20
131.3270274675533
 30
0.0
 10
172.7179143334071
 20
130.6047178101349
 30
0.0
 10
172.7264027045556
 20
130.2444980080265
 30
0.0
 10
172.7605460840762
 20
129.5259319389326
 30
0.0
 10
172.78634306593
 20
129.1661662230172
 30
0.0
 10
172.889744197318
 20
128.0995216360228
 30
0.0
 10
172.9916021894893
 20
127.4165086967405
 30
0.0
 10
173.1269078257451
 20
126.760857302045
 30
0.0
  0
LINE
  5
F4
330
1F
100
AcDbEntity
  8
0
  6
Continuous
 62
     7
370
    15
100
AcDbLine
 10
172.2482281693
 20
136.1028729343
 30
0.0
 11
172.2482281693
 21
125.8225679587
 31
0.0
  0
LINE
  5
F5
330
1F
100
AcDbEntity
  8
0
  6
Continuous
 62
     7
370
    15
100
AcDbLine
 10
145.9482281693
 20
135.772499163
 30
0.0
 11
145.9482281693
 21
126.15294173
 31
0.0
  0
LINE
  5
F6
330
1F
100
AcDbEntity
  8
0
  6
Continuous
 62
     7
370
    15
100
AcDbLine
 10
144.4482281693
 20
135.3394864611
 30
0.0
 11
144.4482281693
 21
126.5859544319
 31
0.0
  0
LINE
  5
F7
330
1F
100
AcDbEntity
  8
0
  6
Continuous
 62
     7
370
    15
100
AcDbLine
 10
145.9482281693
 20
114.1033692046
 30
0.0
 11
145.9482281693
 21
126.15294173
 31
0.0
  0
LINE
  5
F8
330
1F
100
AcDbEntity
  8
0
  6
Continuous
 62
     7
370
    15
100
AcDbLine
 10
172.2482281693
 20
113.442621662
 30
0.0
 11
172.2482281693
 21
125.8225679587
 31
0.0
  0
LINE
  5
F9
330
1F
100
AcDbEntity
  8
0
  6
Continuous
 62
     7
370
    15
100
AcDbLine
 10
145.9482281693
 20
114.1033692046
 30
0.0
 11
172.2482281693
 21
113.442621662
 31
0.0
  0
LINE
  5
FA
330
1F
100
AcDbEntity
  8
0
  6
Continuous
 62
     7
370
    15
100
AcDbLine
 10
145.9482281693
 20
135.772499163
 30
0.0
 11
145.9482281693
 21
147.8220716885
 31
0.0
  0
LINE
  5
FB
330
1F
100
AcDbEntity
  8
0
  6
Continuous
 62
     7
370
    15
100
AcDbLine
 10
145.9482281693
 20
147.8220716885
 30
0.0
 11
172.2482281693
 21
148.4828192311
 31
0.0
  0
LINE
  5
FC
330
1F
100
AcDbEntity
  8
0
  6
Continuous
 62
     7
370
    15
100
AcDbLine
 10
172.2482281693
 20
136.1028729343
 30
0.0
 11
172.2482281693
 21
148.4828192311
 31
0.0
  0
ARC
  5
FD
330
1F
100
AcDbEntity
  8
0
  6
Continuous
 62
     7
370
    15
100
AcDbCircle
 10
172.4481650802
 20
113.4375985508
 30
0.0
 40
0.2000000000000059
100
AcDbArc
 50
88.5608333333
 51
178.5608333333
  0
ARC
  5
FE
330
1F
100
AcDbEntity
  8
0
  6
Continuous
 62
     7
370
    15
100
AcDbCircle
 10
172.4481650802
 20
148.4878423422
 30
0.0
 40
0.2000000000000059
100
AcDbArc
 50
181.4391666667
 51
271.4391666667
  0
LINE
  5
FF
330
1F
100
AcDbEntity
  8
0
  6
Continuous
 62
     7
370
    15
100
AcDbLine
 10
172.4531881914
 20
113.6375354618
 30
0.0
 11
173.4073671412
 21
113.6135631653
 31
0.0
  0
LINE
  5
100
330
1F
100
AcDbEntity
  8
0
  6
Continuous
 62
     7
370
    15
100
AcDbLine
 10
172.4531881914
 20
148.2879054313
 30
0.0
 11
173.4073671412
 21
148.3118777277
 31
0.0
  0
LINE
  5
101
330
1F
100
AcDbEntity
  8
0
  6
Continuous
 62
     7
370
    15
100
AcDbLine
 10
144.4482281693
 20
146.9560462847
 30
0.0
 11
145.9482281693
 21
147.8220716885
 31
0.0
  0
LINE
  5
102
330
1F
100
AcDbEntity
  8
0
  6
Continuous
 62
     7
370
    15
100
AcDbLine
 10
144.4482281693
 20
135.3394864611
 30
0.0
 11
144.4482281693
 21
146.9560462847
 31
0.0
  0
LINE
  5
103
330
1F
100
AcDbEntity
  8
0
  6
Continuous
 62
     7
370
    15
100
AcDbLine
 10
144.4482281693
 20
114.9693946084
 30
0.0
 11
145.9482281693
 21
114.1033692046
 31
0.0
  0
LINE
  5
104
330
1F
100
AcDbEntity
  8
0
  6
Continuous
 62
     7
370
    15
100
AcDbLine
 10
144.4482281693
 20
114.9693946084
 30
0.0
 11
144.4482281693
 21
126.5859544319
 31
0.0
  0
SPLINE
  5
105
330
1F
100
AcDbEntity
  8
0
  6
Continuous
 62
     7
370
    15
100
AcDbSpline
210
0.0
220
0.0
230
1.0
 70
     8
 71
     3
 72
    12
 73
     8
 74
     0
 42
0.000000001
 43
0.00000001
 40
0.0
 40
0.0
 40
0.0
 40
0.0
 40
0.4999999999999979
 40
0.4999999999999979
 40
0.7499999999999989
 40
0.7499999999999989
 40
1.0
 40
1.0
 40
1.0
 40
1.0
 10
203.9535704196084
 20
145.8274433734187
 30
0.0
 10
203.990929790301
 20
146.2122469191319
 30
0.0
 10
204.0228307387078
 20
146.6092938444182
 30
0.0
 10
204.0283561327754
 20
147.2310760737475
 30
0.0
 10
204.0228902833767
 20
147.4375243803605
 30
0.0
 10
203.9973063500456
 20
147.842874039474
 30
0.0
 10
203.9768267677689
 20
148.043960680744
 30
0.0
 10
203.9535704196084
 20
148.2342271078697
 30
0.0
  0
ELLIPSE
  5
106
330
1F
100
AcDbEntity
  8
0
  6
Continuous
 62
     7
370
    15
100
AcDbEllipse
 10
206.8513478985
 20
108.6376053392
 30
0.0
 11
2.986923855311602
 21
3.718428699710387
 31
0.0
210
0.0
220
0.0
230
1.0
 40
0.0752458006
 41
1.65192812800807
 42
2.118871903377521
  0
LINE
  5
107
330
1F
100
AcDbEntity
  8
0
  6
Continuous
 62
     7
370
    15
100
AcDbLine
 10
218.4530465409
 20
165.4577307644
 30
0.0
 11
223.7752591273
 21
156.1733173758
 31
0.0
  0
LINE
  5
108
330
1F
100
AcDbEntity
  8
0
  6
Continuous
 62
     7
370
    15
100
AcDbLine
 10
223.7752591273
 20
156.1733173758
 30
0.0
 11
222.2553012424
 21
153.4797065786
 31
0.0
  0
ARC
  5
109
330
1F
100
AcDbEntity
  8
0
  6
Continuous
 62
     7
370
    15
100
AcDbCircle
 10
224.1754388546
 20
152.3485205162
 30
0.0
 40
2.228566884263717
100
AcDbArc
 50
149.4969303422
 51
329.8876384212
  0
LINE
  5
10A
330
1F
100
AcDbEntity
  8
0
  6
Continuous
 62
     7
370
    15
100
AcDbLine
 10
226.1032454821
 20
151.2304543445
 30
0.0
 11
226.8927789937
 21
152.6296352116
 31
0.0
  0
LINE
  5
10B
330
1F
100
AcDbEntity
  8
0
  6
Continuous
 62
     7
370
    15
100
AcDbLine
 10
230.9666713982
 20
158.9852042861
 30
0.0
 11
230.512120645
 21
158.987302357
 31
0.0
  0
LINE
  5
10C
330
1F
100
AcDbEntity
  8
0
  6
Continuous
 62
     7
370
    15
100
AcDbLine
 10
230.9666713982
 20
158.9852042861
 30
0.0
 11
230.9666713982
 21
139.6172979966
 31
0.0
  0
SPLINE
  5
10D
330
1F
100
AcDbEntity
  8
0
  6
Continuous
 62
     7
370
    15
100
AcDbSpline
210
0.0
220
0.0
230
1.0
 70
     8
 71
     3
 72
    10
 73
     6
 74
     0
 42
0.000000001
 43
0.00000001
 40
0.0
 40
0.0
 40
0.0
 40
0.0
 40
0.5
 40
0.5
 40
1.0
 40
1.0
 40
1.0
 40
1.0
 10
207.6468270076149
 20
156.2755632095333
 30
0.0
 10
207.5904280384646
 20
156.0586303504182
 30
0.0
 10
207.4633561044683
 20
155.8600241651105
 30
0.0
 10
207.1199466477142
 20
155.5772531574441
 30
0.0
 10
206.9046723309844
 20
155.4921746772213
 30
0.0
 10
206.6809011813257
 20
155.484298977788
 30
0.0
  0
SPLINE
  5
10E
330
1F
100
AcDbEntity
  8
0
  6
Continuous
 62
     7
370
    15
100
AcDbSpline
210
0.0
220
0.0
230
1.0
 70
     8
 71
     3
 72
     8
 73
     4
 74
     0
 42
0.000000001
 43
0.00000001
 40
0.0
 40
0.0
 40
0.0
 40
0.0
 40
1.0
 40
1.0
 40
1.0
 40
1.0
 10
209.9291212553057
 20
164.9818041502287
 30
0.0
 10
209.1639490546249
 20
162.0809332370166
 30
0.0
 10
208.4017376980282
 20
159.1792498710932
 30
0.0
 10
207.6468270076148
 20
156.275563209533
 30
0.0
  0
SPLINE
  5
10F
330
1F
100
AcDbEntity
  8
0
  6
Continuous
 62
     7
370
    15
100
AcDbSpline
210
0.0
220
0.0
230
1.0
 70
     8
 71
     3
 72
     8
 73
     4
 74
     0
 42
0.000000001
 43
0.00000001
 40
0.0
 40
0.0
 40
0.0
 40
0.0
 40
1.0
 40
1.0
 40
1.0
 40
1.0
 10
210.2056466266522
 20
165.4577307643839
 30
0.0
 10
210.0738352680996
 20
165.328373464254
 30
0.0
 10
209.9770686856382
 20
165.1635793191264
 30
0.0
 10
209.9291212553057
 20
164.9818041502287
 30
0.0
  0
LINE
  5
110
330
1F
100
AcDbEntity
  8
0
  6
Continuous
 62
     7
370
    15
100
AcDbLine
 10
210.2056466267
 20
165.4577307644
 30
0.0
 11
218.4530465409
 21
165.4577307644
 31
0.0
  0
LINE
  5
111
330
1F
100
AcDbEntity
  8
0
  6
Continuous
 62
     7
370
    15
100
AcDbLine
 10
230.9666713982
 20
139.6172979966
 30
0.0
 11
206.3304033655
 21
108.5602675543
 31
0.0
  0
SPLINE
  5
112
330
1F
100
AcDbEntity
  8
0
  6
Continuous
 62
     7
370
    15
100
AcDbSpline
210
0.0
220
0.0
230
1.0
 70
     8
 71
     3
 72
     9
 73
     5
 74
     0
 42
0.000000001
 43
0.00000001
 40
0.0
 40
0.0
 40
0.0
 40
0.0
 40
0.4713007813495563
 40
1.0
 40
1.0
 40
1.0
 40
1.0
 10
210.2056466266522
 20
165.4577307643839
 30
0.0
 10
210.1377759319247
 20
165.4415781302467
 30
0.0
 10
209.9937687555878
 20
165.4073056766961
 30
0.0
 10
210.0009622475374
 20
165.3735082448123
 30
0.0
 10
210.0047654411106
 20
165.3556395689829
 30
0.0
  0
ARC
  5
113
330
1F
100
AcDbEntity
  8
0
  6
Continuous
 62
     7
370
    15
100
AcDbCircle
 10
223.020356231
 20
152.1427194509
 30
0.0
 40
2.211804817674984
100
AcDbArc
 50
294.0182406687
 51
330.662008611
  0
LINE
  5
114
330
1F
100
AcDbEntity
  8
0
  6
Continuous
 62
     7
370
    15
100
AcDbLine
 10
224.9484851007
 20
151.0590222545
 30
0.0
 11
225.6705706418
 21
152.3386744273
 31
0.0
  0
LINE
  5
115
330
1F
100
AcDbEntity
  8
0
  6
HIDDEN
 62
     7
370
     0
100
AcDbLine
 10
174.4482281693
 20
106.2627204465
 30
0.0
 11
174.4482281693
 21
155.6627204465
 31
0.0
  0
ELLIPSE
  5
116
330
1F
100
AcDbEntity
  8
0
  6
HIDDEN
 62
     7
370
     0
100
AcDbEllipse
 10
223.7237839647
 20
130.9627204465
 30
0.0
 11
20.71094926285767
 21
24.92696435777356
 31
0.0
210
0.0
220
0.0
230
1.0
 40
0.0922008664
 41
2.417981847075738
 42
3.218049821375983
  0
SPLINE
  5
117
330
1F
100
AcDbEntity
  8
0
  6
HIDDEN
 62
     7
370
     0
100
AcDbSpline
210
0.0
220
0.0
230
1.0
 70
     8
 71
     3
 72
    12
 73
     8
 74
     0
 42
0.000000001
 43
0.00000001
 40
0.0
 40
0.0
 40
0.0
 40
0.0
 40
0.2499999999999984
 40
0.2499999999999984
 40
0.4999999999999968
 40
0.4999999999999968
 40
1.0
 40
1.0
 40
1.0
 40
1.0
 10
182.9759849828711
 20
154.7894515620195
 30
0.0
 10
182.9123197463406
 20
154.7894515620195
 30
0.0
 10
182.8527135141173
 20
154.7811867863536
 30
0.0
 10
182.7540529891864
 20
154.7569680047704
 30
0.0
 10
182.7150859991712
 20
154.7417106854613
 30
0.0
 10
182.6156991672467
 20
154.6920773311994
 30
0.0
 10
182.5736229198232
 20
154.6544376230252
 30
0.0
 10
182.5429722809789
 20
154.6153619237491
 30
0.0
  0
LINE
  5
118
330
1F
100
AcDbEntity
  8
0
  6
HIDDEN
 62
     7
370
     0
100
AcDbLine
 10
185.9204713557
 20
154.789451562
 30
0.0
 11
182.9759849829
 21
154.789451562
 31
0.0
  0
SPLINE
  5
119
330
1F
100
AcDbEntity
  8
0
  6
HIDDEN
 62
     7
370
     0
100
AcDbSpline
210
0.0
220
0.0
230
1.0
 70
     8
 71
     3
 72
    12
 73
     8
 74
     0
 42
0.000000001
 43
0.00000001
 40
0.0
 40
0.0
 40
0.0
 40
0.0
 40
0.5
 40
0.5
 40
0.75
 40
0.75
 40
1.0
 40
1.0
 40
1.0
 40
1.0
 10
186.3534840576305
 20
154.6153619237491
 30
0.0
 10
186.3227846742632
 20
154.654499766145
 30
0.0
 10
186.2814346061566
 20
154.6916595488705
 30
0.0
 10
186.1816786779372
 20
154.7415960544983
 30
0.0
 10
186.1419817602045
 20
154.757048924642
 30
0.0
 10
186.0447236085568
 20
154.7809684682411
 30
0.0
 10
185.9839474505662
 20
154.7894515620195
 30
0.0
 10
185.9204713557382
 20
154.7894515620195
 30
0.0
  0
ELLIPSE
  5
11A
330
1F
100
AcDbEntity
  8
0
  6
HIDDEN
 62
     7
370
     0
100
AcDbEllipse
 10
173.3919705143
 20
130.9627204465
 30
0.0
 11
11.70927234972726
 21
24.67718644093742
 31
0.0
210
0.0
220
0.0
230
1.0
 40
0.3419987131
 41
5.203068809370469
 42
6.114256032590513
  0
SPLINE
  5
11B
330
1F
100
AcDbEntity
  8
0
  6
HIDDEN
 62
     7
370
     0
100
AcDbSpline
210
0.0
220
0.0
230
1.0
 70
     8
 71
     3
 72
    12
 73
     8
 74
     0
 42
0.000000001
 43
0.00000001
 40
0.0
 40
0.0
 40
0.0
 40
0.0
 40
0.2500000000000007
 40
0.2500000000000007
 40
0.5000000000000013
 40
0.5000000000000013
 40
1.0
 40
1.0
 40
1.0
 40
1.0
 10
185.9204713557382
 20
138.5315304156983
 30
0.0
 10
185.9841365922687
 20
138.5315304156983
 30
0.0
 10
186.0437428244921
 20
138.557602564178
 30
0.0
 10
186.142403349423
 20
138.6331413149992
 30
0.0
 10
186.1813703394382
 20
138.6803922520953
 30
0.0
 10
186.2807571713627
 20
138.8322160700618
 30
0.0
 10
186.3228334187861
 20
138.9450193198269
 30
0.0
 10
186.3534840576305
 20
139.059173444562
 30
0.0
  0
LINE
  5
11C
330
1F
100
AcDbEntity
  8
0
  6
HIDDEN
 62
     7
370
     0
100
AcDbLine
 10
182.9759849829
 20
138.5315304157
 30
0.0
 11
185.9204713557
 21
138.5315304157
 31
0.0
  0
SPLINE
  5
11D
330
1F
100
AcDbEntity
  8
0
  6
HIDDEN
 62
     7
370
     0
100
AcDbSpline
210
0.0
220
0.0
230
1.0
 70
     8
 71
     3
 72
    12
 73
     8
 74
     0
 42
0.000000001
 43
0.00000001
 40
0.0
 40
0.0
 40
0.0
 40
0.0
 40
0.5000000000000036
 40
0.5000000000000036
 40
0.7500000000000018
 40
0.7500000000000018
 40
1.0
 40
1.0
 40
1.0
 40
1.0
 10
182.5429722809789
 20
139.0591734445619
 30
0.0
 10
182.5736716643462
 20
138.9448377774981
 30
0.0
 10
182.6150217324527
 20
138.8334844246567
 30
0.0
 10
182.7147776606722
 20
138.680747652408
 30
0.0
 10
182.7544745784049
 20
138.6328877665559
 30
0.0
 10
182.8517327300525
 20
138.5582846532064
 30
0.0
 10
182.9125088880432
 20
138.5315304156983
 30
0.0
 10
182.9759849828711
 20
138.5315304156983
 30
0.0
  0
ELLIPSE
  5
11E
330
1F
100
AcDbEntity
  8
0
  6
HIDDEN
 62
     7
370
     0
100
AcDbEllipse
 10
195.5044858243
 20
130.9627204465
 30
0.0
 11
-11.70927234972711
 21
24.67718644093745
 31
0.0
210
0.0
220
0.0
230
1.0
 40
0.3419987131
 41
0.1689292745891146
 42
1.080116497809133
  0
SPLINE
  5
11F
330
1F
100
AcDbEntity
  8
0
  6
HIDDEN
 62
     7
370
     0
100
AcDbSpline
210
0.0
220
0.0
230
1.0
 70
     8
 71
     3
 72
    12
 73
     8
 74
     0
 42
0.000000001
 43
0.00000001
 40
0.0
 40
0.0
 40
0.0
 40
0.0
 40
0.2499999999999993
 40
0.2499999999999993
 40
0.4999999999999987
 40
0.4999999999999987
 40
1.0
 40
1.0
 40
1.0
 40
1.0
 10
182.9759849828711
 20
123.3939104773368
 30
0.0
 10
182.9123197463406
 20
123.3939104773368
 30
0.0
 10
182.8527135141173
 20
123.3678383288571
 30
0.0
 10
182.7540529891864
 20
123.292299578036
 30
0.0
 10
182.7150859991711
 20
123.2450486409398
 30
0.0
 10
182.6156991672467
 20
123.0932248229734
 30
0.0
 10
182.5736229198232
 20
122.9804215732083
 30
0.0
 10
182.5429722809789
 20
122.8662674484732
 30
0.0
  0
LINE
  5
120
330
1F
100
AcDbEntity
  8
0
  6
HIDDEN
 62
     7
370
     0
100
AcDbLine
 10
185.9204713557
 20
123.3939104773
 30
0.0
 11
182.9759849829
 21
123.3939104773
 31
0.0
  0
SPLINE
  5
121
330
1F
100
AcDbEntity
  8
0
  6
HIDDEN
 62
     7
370
     0
100
AcDbSpline
210
0.0
220
0.0
230
1.0
 70
     8
 71
     3
 72
    12
 73
     8
 74
     0
 42
0.000000001
 43
0.00000001
 40
0.0
 40
0.0
 40
0.0
 40
0.0
 40
0.5000000000000004
 40
0.5000000000000004
 40
0.7500000000000002
 40
0.7500000000000002
 40
1.0
 40
1.0
 40
1.0
 40
1.0
 10
186.3534840576305
 20
122.8662674484732
 30
0.0
 10
186.3227846742632
 20
122.9806031155371
 30
0.0
 10
186.2814346061566
 20
123.0919564683784
 30
0.0
 10
186.1816786779372
 20
123.2446932406272
 30
0.0
 10
186.1419817602045
 20
123.2925531264793
 30
0.0
 10
186.0447236085569
 20
123.3671562398288
 30
0.0
 10
185.9839474505662
 20
123.3939104773368
 30
0.0
 10
185.9204713557382
 20
123.3939104773368
 30
0.0
  0
ELLIPSE
  5
122
330
1F
100
AcDbEntity
  8
0
  6
HIDDEN
 62
     7
370
     0
100
AcDbEllipse
 10
173.3919705143
 20
130.9627204465
 30
0.0
 11
-11.70927234972715
 21
24.67718644093742
 31
0.0
210
0.0
220
0.0
230
1.0
 40
0.3419987131
 41
3.310521928178956
 42
4.221709151398948
  0
SPLINE
  5
123
330
1F
100
AcDbEntity
  8
0
  6
HIDDEN
 62
     7
370
     0
100
AcDbSpline
210
0.0
220
0.0
230
1.0
 70
     8
 71
     3
 72
    12
 73
     8
 74
     0
 42
0.000000001
 43
0.00000001
 40
0.0
 40
0.0
 40
0.0
 40
0.0
 40
0.25
 40
0.25
 40
0.5
 40
0.5
 40
1.0
 40
1.0
 40
1.0
 40
1.0
 10
185.9204713557382
 20
107.1359893310155
 30
0.0
 10
185.9841365922687
 20
107.1359893310155
 30
0.0
 10
186.0437428244921
 20
107.1442541066813
 30
0.0
 10
186.142403349423
 20
107.1684728882645
 30
0.0
 10
186.1813703394382
 20
107.1837302075736
 30
0.0
 10
186.2807571713627
 20
107.2333635618355
 30
0.0
 10
186.3228334187861
 20
107.2710032700097
 30
0.0
 10
186.3534840576305
 20
107.3100789692858
 30
0.0
  0
LINE
  5
124
330
1F
100
AcDbEntity
  8
0
  6
HIDDEN
 62
     7
370
     0
100
AcDbLine
 10
182.9759849829
 20
107.135989331
 30
0.0
 11
185.9204713557
 21
107.135989331
 31
0.0
  0
SPLINE
  5
125
330
1F
100
AcDbEntity
  8
0
  6
HIDDEN
 62
     7
370
     0
100
AcDbSpline
210
0.0
220
0.0
230
1.0
 70
     8
 71
     3
 72
    12
 73
     8
 74
     0
 42
0.000000001
 43
0.00000001
 40
0.0
 40
0.0
 40
0.0
 40
0.0
 40
0.4999999999999991
 40
0.4999999999999991
 40
0.7499999999999996
 40
0.7499999999999996
 40
1.0
 40
1.0
 40
1.0
 40
1.0
 10
182.5429722809789
 20
107.3100789692858
 30
0.0
 10
182.5736716643462
 20
107.2709411268899
 30
0.0
 10
182.6150217324527
 20
107.2337813441644
 30
0.0
 10
182.7147776606722
 20
107.1838448385366
 30
0.0
 10
182.7544745784049
 20
107.1683919683929
 30
0.0
 10
182.8517327300525
 20
107.1444724247938
 30
0.0
 10
182.9125088880432
 20
107.1359893310154
 30
0.0
 10
182.9759849828711
 20
107.1359893310155
 30
0.0
  0
ELLIPSE
  5
126
330
1F
100
AcDbEntity
  8
0
  6
HIDDEN
 62
     7
370
     0
100
AcDbEllipse
 10
195.5044858243
 20
130.9627204465
 30
0.0
 11
11.70927234972703
 21
24.67718644093742
 31
0.0
210
0.0
220
0.0
230
1.0
 40
0.3419987131
 41
2.061476155780649
 42
2.97266337900067
  0
SPLINE
  5
127
330
1F
100
AcDbEntity
  8
0
  6
HIDDEN
 62
     7
370
     0
100
AcDbSpline
210
0.0
220
0.0
230
1.0
 70
    11
 71
     3
 72
    58
 73
    54
 74
     0
 42
0.000000001
 43
0.00000001
 40
0.0
 40
0.0
 40
0.0
 40
0.0
 40
0.03125
 40
0.03125
 40
0.0624999999999999
 40
0.0624999999999999
 40
0.0937499999999999
 40
0.0937499999999999
 40
0.1249999999999998
 40
0.1249999999999998
 40
0.1875000000000001
 40
0.1875000000000001
 40
0.2500000000000003
 40
0.2500000000000003
 40
0.2812500000000002
 40
0.2812500000000002
 40
0.3125000000000001
 40
0.3125000000000001
 40
0.34375
 40
0.34375
 40
0.3749999999999999
 40
0.3749999999999999
 40
0.4062499999999998
 40
0.4062499999999998
 40
0.4374999999999997
 40
0.4374999999999997
 40
0.4687499999999996
 40
0.4687499999999996
 40
0.4999999999999996
 40
0.4999999999999996
 40
0.5624999999999993
 40
0.5624999999999993
 40
0.6249999999999991
 40
0.6249999999999991
 40
0.6562499999999992
 40
0.6562499999999992
 40
0.6874999999999993
 40
0.6874999999999993
 40
0.7187499999999993
 40
0.7187499999999993
 40
0.7499999999999994
 40
0.7499999999999994
 40
0.7812499999999996
 40
0.7812499999999996
 40
0.8124999999999996
 40
0.8124999999999996
 40
0.8437499999999997
 40
0.8437499999999997
 40
0.8749999999999997
 40
0.8749999999999997
 40
0.9374999999999999
 40
0.9374999999999999
 40
1.0
 40
1.0
 40
1.0
 40
1.0
 10
184.4482281693047
 20
130.9627204465174
 30
0.0
 10
184.4482281693047
 20
131.0949066317891
 30
0.0
 10
184.4612040613152
 20
131.2248733713339
 30
0.0
 10
184.5120363634211
 20
131.480552709466
 30
0.0
 10
184.5505134347425
 20
131.6075938013075
 30
0.0
 10
184.6509183958989
 20
131.849771987248
 30
0.0
 10
184.7123526382182
 20
131.9646256458375
 30
0.0
 10
184.8574869043999
 20
132.1819907676433
 30
0.0
 10
184.9419288255472
 20
132.2848662397276
 30
0.0
 10
185.2186008551571
 20
132.5614841921447
 30
0.0
 10
185.4416470101252
 20
132.7104763119776
 30
0.0
 10
185.9229110086697
 20
132.9100001069689
 30
0.0
 10
186.1861688639895
 20
132.9625789714711
 30
0.0
 10
186.5776348952743
 20
132.9627907450586
 30
0.0
 10
186.7101836388878
 20
132.9497997734692
 30
0.0
 10
186.9667279479031
 20
132.8987635501794
 30
0.0
 10
187.0914238342748
 20
132.8610020087766
 30
0.0
 10
187.3336268047085
 20
132.7608424694832
 30
0.0
 10
187.4506901679592
 20
132.6982446597327
 30
0.0
 10
187.6673764872053
 20
132.5535226756971
 30
0.0
 10
187.768390455273
 20
132.4708985705288
 30
0.0
 10
187.9551836495584
 20
132.2842781999178
 30
0.0
 10
188.0379840135128
 20
132.1832298320266
 30
0.0
 10
188.1828624524074
 20
131.9667178111527
 30
0.0
 10
188.2455132357347
 20
131.8498284559538
 30
0.0
 10
188.3459536301086
 20
131.6075710538948
 30
0.0
 10
188.3838126418786
 20
131.4829083890795
 30
0.0
 10
188.4350503463421
 20
131.2265771934247
 30
0.0
 10
188.4481807211152
 20
131.0939892540743
 30
0.0
 10
188.4483226715541
 20
130.7023575855049
 30
0.0
 10
188.395981755306
 20
130.4391447524707
 30
0.0
 10
188.1968515285679
 20
129.9576374217793
 30
0.0
 10
188.0480144409256
 20
129.7344369405038
 30
0.0
 10
187.7717024043862
 20
129.457590860542
 30
0.0
 10
187.6689368671349
 20
129.3730787663233
 30
0.0
 10
187.4516199347811
 20
129.2277001695919
 30
0.0
 10
187.3368330242443
 20
129.16618473799
 30
0.0
 10
187.0949135341384
 20
129.0656286777444
 30
0.0
 10
186.9677866316384
 20
129.0269899519098
 30
0.0
 10
186.7121177960022
 20
128.9759250850224
 30
0.0
 10
186.5822225906242
 20
128.9628506046461
 30
0.0
 10
186.3181478081998
 20
128.9625922033725
 30
0.0
 10
186.1878186687145
 20
128.9754682713355
 30
0.0
 10
185.9321293545707
 20
129.0260670626635
 30
0.0
 10
185.805201488183
 20
129.0643724085011
 30
0.0
 10
185.5627491993409
 20
129.164628240921
 30
0.0
 10
185.4478325053593
 20
129.2259792598331
 30
0.0
 10
185.2304417135888
 20
129.3708480954033
 30
0.0
 10
185.1274564339073
 20
129.4552120486726
 30
0.0
 10
184.85049206625
 20
129.7317381024587
 30
0.0
 10
184.7013597878915
 20
129.9545979444544
 30
0.0
 10
184.501407669177
 20
130.4357004645152
 30
0.0
 10
184.4482281693047
 20
130.6983480759739
 30
0.0
 10
184.4482281693047
 20
130.9627204465174
 30
0.0
  0
LWPOLYLINE
  5
128
330
1F
100
AcDbEntity
  8
0
  6
HIDDEN
 62
     7
370
     0
100
AcDbPolyline
 90
       31
 70
   128
 43
0.0
 10
192.4482281693
 20
138.250211373
 10
193.0719632418
 20
138.3051922653
 10
193.6684380985
 20
138.4677320134
 10
194.2115839262
 20
138.7307268503
 10
194.6776626457
 20
139.0826826398
 10
195.0463043807
 20
139.5082172249
 10
195.3013977182
 20
139.9887327023
 10
195.4317938554
 20
140.5032282398
 10
195.4317938554
 20
141.0292179138
 10
195.3013977182
 20
141.5437134513
 10
195.0463043807
 20
142.0242289287
 10
194.6776626457
 20
142.4497635138
 10
194.2115839262
 20
142.8017193032
 10
193.6684380985
 20
143.0647141402
 10
193.0719632418
 20
143.2272538883
 10
192.4482281693
 20
143.2822347806
 10
191.8244930969
 20
143.2272538883
 10
191.2280182401
 20
143.0647141402
 10
190.6848724124
 20
142.8017193032
 10
190.2187936929
 20
142.4497635138
 10
189.850151958
 20
142.0242289287
 10
189.5950586204
 20
141.5437134513
 10
189.4646624832
 20
141.0292179138
 10
189.4646624832
 20
140.5032282398
 10
189.5950586204
 20
139.9887327023
 10
189.850151958
 20
139.5082172249
 10
190.2187936929
 20
139.0826826398
 10
190.6848724124
 20
138.7307268503
 10
191.2280182401
 20
138.4677320134
 10
191.8244930969
 20
138.3051922653
 10
192.4482281693
 20
138.250211373
  0
LINE
  5
129
330
1F
100
AcDbEntity
  8
0
  6
HIDDEN
 62
     7
370
     0
100
AcDbLine
 10
174.4482281693
 20
111.4127204465
 30
0.0
 11
174.4482281693
 21
150.5127204465
 31
0.0
  0
SPLINE
  5
12A
330
1F
100
AcDbEntity
  8
0
  6
HIDDEN
 62
     7
370
     0
100
AcDbSpline
210
0.0
220
0.0
230
1.0
 70
     8
 71
     3
 72
    14
 73
    10
 74
     0
 42
0.000000001
 43
0.00000001
 40
0.0
 40
0.0
 40
0.0
 40
0.0
 40
0.25
 40
0.25
 40
0.5
 40
0.5
 40
0.75
 40
0.75
 40
1.0
 40
1.0
 40
1.0
 40
1.0
 10
173.4073671411763
 20
143.2571959915908
 30
0.0
 10
173.439082275507
 20
143.1994128092476
 30
0.0
 10
173.4736968008074
 20
143.1430001481727
 30
0.0
 10
173.5533679962227
 20
143.0354006981573
 30
0.0
 10
173.5984238732531
 20
142.9834880712362
 30
0.0
 10
173.7089782857586
 20
142.897289446539
 30
0.0
 10
173.7763636999627
 20
142.8632000265673
 30
0.0
 10
173.9269932198607
 20
142.8610976345504
 30
0.0
 10
173.9968204566262
 20
142.8944694073952
 30
0.0
 10
174.0532512804296
 20
142.9382820759459
 30
0.0
  0
SPLINE
  5
12B
330
1F
100
AcDbEntity
  8
0
  6
HIDDEN
 62
     7
370
     0
100
AcDbSpline
210
0.0
220
0.0
230
1.0
 70
     8
 71
     3
 72
    16
 73
    12
 74
     0
 42
0.000000001
 43
0.00000001
 40
0.0
 40
0.0
 40
0.0
 40
0.0
 40
0.0625000000000021
 40
0.0625000000000021
 40
0.1250000000000042
 40
0.1250000000000042
 40
0.2500000000000043
 40
0.2500000000000043
 40
0.5000000000000046
 40
0.5000000000000046
 40
1.0
 40
1.0
 40
1.0
 40
1.0
 10
174.0532512803978
 20
142.9382820759765
 30
0.0
 10
174.0649855148447
 20
142.9473924892244
 30
0.0
 10
174.0785172703236
 20
142.9554698451708
 30
0.0
 10
174.1085047307535
 20
142.9637166868478
 30
0.0
 10
174.1234994371618
 20
142.9627893692602
 30
0.0
 10
174.1592398595565
 20
142.9500228497284
 30
0.0
 10
174.1732531965578
 20
142.932374203218
 30
0.0
 10
174.2073972853391
 20
142.8777212831865
 30
0.0
 10
174.2183691894575
 20
142.836321615528
 30
0.0
 10
174.2442147297238
 20
142.7078318718052
 30
0.0
 10
174.2482281693047
 20
142.6172137841665
 30
0.0
 10
174.2482281693047
 20
142.5249946796124
 30
0.0
  0
LINE
  5
12C
330
1F
100
AcDbEntity
  8
0
  6
HIDDEN
 62
     7
370
     0
100
AcDbLine
 10
174.2482281693
 20
119.4004462134
 30
0.0
 11
174.2482281693
 21
142.5249946796
 31
0.0
  0
SPLINE
  5
12D
330
1F
100
AcDbEntity
  8
0
  6
HIDDEN
 62
     7
370
     0
100
AcDbSpline
210
0.0
220
0.0
230
1.0
 70
     8
 71
     3
 72
    16
 73
    12
 74
     0
 42
0.000000001
 43
0.00000001
 40
0.0
 40
0.0
 40
0.0
 40
0.0
 40
0.499999999999998
 40
0.499999999999998
 40
0.749999999999997
 40
0.749999999999997
 40
0.8749999999999964
 40
0.8749999999999964
 40
0.9374999999999982
 40
0.9374999999999982
 40
1.0
 40
1.0
 40
1.0
 40
1.0
 10
174.2482281693047
 20
119.4004462134223
 30
0.0
 10
174.2482281693047
 20
119.3078623625184
 30
0.0
 10
174.2441708671896
 20
119.2176499066582
 30
0.0
 10
174.2185136243948
 20
119.0897087795398
 30
0.0
 10
174.2071981786527
 20
119.0472955651279
 30
0.0
 10
174.1731668113441
 20
118.9929815216768
 30
0.0
 10
174.1592878301403
 20
118.9754001862869
 30
0.0
 10
174.1233521483729
 20
118.9626164983519
 30
0.0
 10
174.1084018291102
 20
118.9617410002038
 30
0.0
 10
174.0785033163683
 20
118.9699864353232
 30
0.0
 10
174.0649704560031
 20
118.9780600954949
 30
0.0
 10
174.053251280429
 20
118.987158817089
 30
0.0
  0
SPLINE
  5
12E
330
1F
100
AcDbEntity
  8
0
  6
HIDDEN
 62
     7
370
     0
100
AcDbSpline
210
0.0
220
0.0
230
1.0
 70
     8
 71
     3
 72
    14
 73
    10
 74
     0
 42
0.000000001
 43
0.00000001
 40
0.0
 40
0.0
 40
0.0
 40
0.0
 40
0.25
 40
0.25
 40
0.5
 40
0.5
 40
0.75
 40
0.75
 40
1.0
 40
1.0
 40
1.0
 40
1.0
 10
174.0532512804359
 20
118.9871588170976
 30
0.0
 10
173.9967955158271
 20
119.0309908495923
 30
0.0
 10
173.9259298895772
 20
119.0643218860141
 30
0.0
 10
173.7774728084046
 20
119.0622628758667
 30
0.0
 10
173.7082794490971
 20
119.027666851465
 30
0.0
 10
173.5985640109629
 20
118.9420014948022
 30
0.0
 10
173.5533194316315
 20
118.8899790500942
 30
0.0
 10
173.4736927222077
 20
118.7824307897642
 30
0.0
 10
173.4390825736743
 20
118.7260286270312
 30
0.0
 10
173.4073671411751
 20
118.6682449014417
 30
0.0
  0
SPLINE
  5
12F
330
1F
100
AcDbEntity
  8
0
  6
HIDDEN
 62
     7
370
     0
100
AcDbSpline
210
0.0
220
0.0
230
1.0
 70
     8
 71
     3
 72
    10
 73
     6
 74
     0
 42
0.000000001
 43
0.00000001
 40
0.0
 40
0.0
 40
0.0
 40
0.0
 40
0.5
 40
0.5
 40
1.0
 40
1.0
 40
1.0
 40
1.0
 10
173.4073671411756
 20
118.6682449014427
 30
0.0
 10
173.3355873532522
 20
118.5374661845408
 30
0.0
 10
173.2831278389441
 20
118.4033660350376
 30
0.0
 10
173.1937847748429
 20
118.1352734720489
 30
0.0
 10
173.1577891653432
 20
118.00102810046
 30
0.0
 10
173.1269078257451
 20
117.867673722985
 30
0.0
  0
SPLINE
  5
130
330
1F
100
AcDbEntity
  8
0
  6
HIDDEN
 62
     7
370
     0
100
AcDbSpline
210
0.0
220
0.0
230
1.0
 70
     8
 71
     3
 72
    10
 73
     6
 74
     0
 42
0.000000001
 43
0.00000001
 40
0.0
 40
0.0
 40
0.0
 40
0.0
 40
0.5
 40
0.5
 40
1.0
 40
1.0
 40
1.0
 40
1.0
 10
173.1269078257451
 20
113.6658105785126
 30
0.0
 10
173.1577808575573
 20
113.6495274311455
 30
0.0
 10
173.1937677204703
 20
113.6372698414199
 30
0.0
 10
173.2831023063614
 20
113.6201668525911
 30
0.0
 10
173.335558165784
 20
113.6153672567328
 30
0.0
 10
173.4073671411763
 20
113.6135631653249
 30
0.0
  0
SPLINE
  5
131
330
1F
100
AcDbEntity
  8
0
  6
HIDDEN
 62
     7
370
     0
100
AcDbSpline
210
0.0
220
0.0
230
1.0
 70
     8
 71
     3
 72
     8
 73
     4
 74
     0
 42
0.000000001
 43
0.00000001
 40
0.0
 40
0.0
 40
0.0
 40
0.0
 40
1.0
 40
1.0
 40
1.0
 40
1.0
 10
174.2305315459297
 20
113.4876787870778
 30
0.0
 10
174.2445183544718
 20
113.4594383964961
 30
0.0
 10
174.2482281693045
 20
113.4363063536853
 30
0.0
 10
174.2482281693048
 20
113.4159659808502
 30
0.0
  0
LINE
  5
132
330
1F
100
AcDbEntity
  8
0
  6
HIDDEN
 62
     7
370
     0
100
AcDbLine
 10
174.2482281693
 20
113.1229001676
 30
0.0
 11
174.2482281693
 21
113.4159659808
 31
0.0
  0
LINE
  5
133
330
1F
100
AcDbEntity
  8
0
  6
HIDDEN
 62
     7
370
     0
100
AcDbLine
 10
174.2482281693
 20
148.5094749122
 30
0.0
 11
174.2482281693
 21
148.8025407254
 31
0.0
  0
SPLINE
  5
134
330
1F
100
AcDbEntity
  8
0
  6
HIDDEN
 62
     7
370
     0
100
AcDbSpline
210
0.0
220
0.0
230
1.0
 70
     8
 71
     3
 72
    10
 73
     6
 74
     0
 42
0.000000001
 43
0.00000001
 40
0.0
 40
0.0
 40
0.0
 40
0.0
 40
0.5
 40
0.5
 40
1.0
 40
1.0
 40
1.0
 40
1.0
 10
173.4073671411763
 20
148.3118777277099
 30
0.0
 10
173.335558165784
 20
148.310073636302
 30
0.0
 10
173.2831023063614
 20
148.3052740404437
 30
0.0
 10
173.1937677204702
 20
148.2881710516149
 30
0.0
 10
173.1577808575573
 20
148.2759134618894
 30
0.0
 10
173.1269078257451
 20
148.2596303145222
 30
0.0
  0
SPLINE
  5
135
330
1F
100
AcDbEntity
  8
0
  6
HIDDEN
 62
     7
370
     0
100
AcDbSpline
210
0.0
220
0.0
230
1.0
 70
     8
 71
     3
 72
    10
 73
     6
 74
     0
 42
0.000000001
 43
0.00000001
 40
0.0
 40
0.0
 40
0.0
 40
0.0
 40
0.5
 40
0.5
 40
1.0
 40
1.0
 40
1.0
 40
1.0
 10
173.1269078257451
 20
144.0577671700498
 30
0.0
 10
173.1577891653432
 20
143.9244127925745
 30
0.0
 10
173.193784774843
 20
143.7901674209854
 30
0.0
 10
173.2831278389444
 20
143.5220748579962
 30
0.0
 10
173.3355873532526
 20
143.3879747084929
 30
0.0
 10
173.4073671411763
 20
143.2571959915908
 30
0.0
  0
LINE
  5
136
330
1F
100
AcDbEntity
  8
0
  6
HIDDEN
 62
     7
370
     0
100
AcDbLine
 10
174.2482281693
 20
113.4159659808
 30
0.0
 11
174.2482281693
 21
124.9782402139
 31
0.0
  0
LINE
  5
137
330
1F
100
AcDbEntity
  8
0
  6
HIDDEN
 62
     7
370
     0
100
AcDbLine
 10
174.2482281693
 20
136.9472006791
 30
0.0
 11
174.2482281693
 21
148.5094749122
 31
0.0
  0
SPLINE
  5
138
330
1F
100
AcDbEntity
  8
0
  6
HIDDEN
 62
     7
370
     0
100
AcDbSpline
210
0.0
220
0.0
230
1.0
 70
     8
 71
     3
 72
    14
 73
    10
 74
     0
 42
0.000000001
 43
0.00000001
 40
0.0
 40
0.0
 40
0.0
 40
0.0
 40
0.25
 40
0.25
 40
0.5
 40
0.5
 40
0.75
 40
0.75
 40
1.0
 40
1.0
 40
1.0
 40
1.0
 10
194.1501846735587
 20
142.1383821381818
 30
0.0
 10
194.2253397946818
 20
142.1240820935406
 30
0.0
 10
194.2968562819513
 20
142.1017865682705
 30
0.0
 10
194.430035949426
 20
142.0349721313719
 30
0.0
 10
194.4905416696936
 20
141.9903448874817
 30
0.0
 10
194.5893172645176
 20
141.8799431524534
 30
0.0
 10
194.6272062963922
 20
141.814609877336
 30
0.0
 10
194.6785986068116
 20
141.6724145251299
 30
0.0
 10
194.6921300191975
 20
141.596508530948
 30
0.0
 10
194.6964922587882
 20
141.519516951834
 30
0.0
  0
LWPOLYLINE
  5
139
330
1F
100
AcDbEntity
  8
0
  6
HIDDEN
 62
     7
370
     0
100
AcDbPolyline
 90
       27
 70
   128
 43
0.0
 10
194.1501846736
 20
142.1383821382
 10
193.6934110461
 20
142.4206985446
 10
193.172494029
 20
142.6093586716
 10
192.6142677396
 20
142.694644027
 10
192.0474882159
 20
142.6721612869
 10
191.5013521008
 20
142.5430686098
 10
191.0039926286
 20
142.3140159762
 10
190.5810303912
 20
141.9968026266
 10
190.2542535389
 20
141.6077692448
 10
190.0404954021
 20
141.1669561959
 10
189.9507673526
 20
140.6970711833
 10
189.9896915718
 20
140.2223195006
 10
190.1552629475
 20
139.7671571397
 10
190.4389523637
 20
139.355030983
 10
190.8261460627
 20
139.0071709792
 10
191.2968984473
 20
138.7414965201
 10
191.8269595425
 20
138.5716933547
 10
192.3890241902
 20
138.5065085921
 10
192.9541386259
 20
138.54930011
 10
193.4931919809
 20
138.6978635791
 10
193.9784158768
 20
138.9445460154
 10
194.3848148642
 20
139.2766400105
 10
194.6914540195
 20
139.6770383306
 10
194.8825373699
 20
140.1251151657
 10
194.9482215952
 20
140.5977886315
 10
194.8851230889
 20
141.0707097921
 10
194.6964922587
 20
141.5195169518
  0
SPLINE
  5
13A
330
1F
100
AcDbEntity
  8
0
  6
HIDDEN
 62
     7
370
     0
100
AcDbSpline
210
0.0
220
0.0
230
1.0
 70
    11
 71
     3
 72
    66
 73
    62
 74
     0
 42
0.000000001
 43
0.00000001
 40
0.0
 40
0.0
 40
0.0
 40
0.0
 40
0.0312499999999999
 40
0.0312499999999999
 40
0.0624999999999998
 40
0.0624999999999998
 40
0.0937499999999998
 40
0.0937499999999998
 40
0.1249999999999997
 40
0.1249999999999997
 40
0.1874999999999999
 40
0.1874999999999999
 40
0.2187500000000001
 40
0.2187500000000001
 40
0.2500000000000002
 40
0.2500000000000002
 40
0.2812500000000003
 40
0.2812500000000003
 40
0.3125000000000003
 40
0.3125000000000003
 40
0.3437500000000004
 40
0.3437500000000004
 40
0.3750000000000004
 40
0.3750000000000004
 40
0.4062500000000004
 40
0.4062500000000004
 40
0.4375000000000005
 40
0.4375000000000005
 40
0.4687500000000005
 40
0.4687500000000005
 40
0.5000000000000006
 40
0.5000000000000006
 40
0.5312500000000006
 40
0.5312500000000006
 40
0.5625000000000007
 40
0.5625000000000007
 40
0.5937500000000007
 40
0.5937500000000007
 40
0.6250000000000007
 40
0.6250000000000007
 40
0.6875000000000008
 40
0.6875000000000008
 40
0.7187500000000007
 40
0.7187500000000007
 40
0.7500000000000006
 40
0.7500000000000006
 40
0.7812500000000006
 40
0.7812500000000006
 40
0.8125000000000004
 40
0.8125000000000004
 40
0.8437500000000003
 40
0.8437500000000003
 40
0.8750000000000003
 40
0.8750000000000003
 40
0.9062500000000002
 40
0.9062500000000002
 40
0.9375000000000001
 40
0.9375000000000001
 40
0.9687500000000001
 40
0.9687500000000001
 40
1.0
 40
1.0
 40
1.0
 40
1.0
 10
192.4482281693047
 20
132.5724917342002
 30
0.0
 10
192.6147810770614
 20
132.5724917342002
 30
0.0
 10
192.7782720306513
 20
132.5896393222783
 30
0.0
 10
193.0994741760202
 20
132.6561363751672
 30
0.0
 10
193.2588865335765
 20
132.7063568444291
 30
0.0
 10
193.5609252607169
 20
132.8349385406784
 30
0.0
 10
193.7039732980786
 20
132.9129221223725
 30
0.0
 10
193.9747065200295
 20
133.0945125778277
 30
0.0
 10
194.101776034996
 20
133.1981556209267
 30
0.0
 10
194.4447840459688
 20
133.5328361449797
 30
0.0
 10
194.6306163073727
 20
133.7960032174286
 30
0.0
 10
194.8184216705314
 20
134.2067550719095
 30
0.0
 10
194.8671617473098
 20
134.3489559770921
 30
0.0
 10
194.9319257994245
 20
134.6320970338385
 30
0.0
 10
194.9481179099586
 20
134.7719526900196
 30
0.0
 10
194.9483373171254
 20
135.0479579125069
 30
0.0
 10
194.931789223092
 20
135.184936961992
 30
0.0
 10
194.8673600693884
 20
135.4429181264649
 30
0.0
 10
194.8197016002035
 20
135.5655015105201
 30
0.0
 10
194.6930056324048
 20
135.7986769446702
 30
0.0
 10
194.6154320466058
 20
135.9063315492534
 30
0.0
 10
194.4348254204257
 20
136.1036842898615
 30
0.0
 10
194.33027237131
 20
136.194630212069
 30
0.0
 10
194.1002637309658
 20
136.3558896594835
 30
0.0
 10
193.975383672591
 20
136.4262633011422
 30
0.0
 10
193.7054841009612
 20
136.5485655665502
 30
0.0
 10
193.5593877344782
 20
136.6005301743669
 30
0.0
 10
193.2586751106695
 20
136.6826227214459
 30
0.0
 10
193.1027274223121
 20
136.7135139103143
 30
0.0
 10
192.7789475585636
 20
136.7553586276275
 30
0.0
 10
192.6132492148136
 20
136.7658025866426
 30
0.0
 10
192.2852053348063
 20
136.7658863062319
 30
0.0
 10
192.1198797834695
 20
136.755570431543
 30
0.0
 10
191.7955513274592
 20
136.7138428399549
 30
0.0
 10
191.6391985265975
 20
136.6829613496936
 30
0.0
 10
191.3374823483683
 20
136.6006911164835
 30
0.0
 10
191.1913918186537
 20
136.548720378683
 30
0.0
 10
190.9216780412486
 20
136.4265728036098
 30
0.0
 10
190.7964967076055
 20
136.3561259421076
 30
0.0
 10
190.449886167178
 20
136.1130474036242
 30
0.0
 10
190.2667433322896
 20
135.9150176834328
 30
0.0
 10
190.0770767721503
 20
135.5661665712204
 30
0.0
 10
190.0294390247218
 20
135.4438646879313
 30
0.0
 10
189.9649207897896
 20
135.1863746439193
 30
0.0
 10
189.9482236840478
 20
135.0494648810108
 30
0.0
 10
189.9482326564153
 20
134.7731278306246
 30
0.0
 10
189.9643634923619
 20
134.633143857541
 30
0.0
 10
190.0290231690305
 20
134.3498282270103
 30
0.0
 10
190.0776935236697
 20
134.2075867310179
 30
0.0
 10
190.2031228959885
 20
133.9330875539879
 30
0.0
 10
190.2808665484786
 20
133.7983456072239
 30
0.0
 10
190.4631660354915
 20
133.5414324785557
 30
0.0
 10
190.5661291887857
 20
133.4211129842345
 30
0.0
 10
190.7953301610783
 20
133.1975667208551
 30
0.0
 10
190.9229611391863
 20
133.0936319598625
 30
0.0
 10
191.1928068006229
 20
132.9127734955962
 30
0.0
 10
191.33566154401
 20
132.834859400974
 30
0.0
 10
191.638059071256
 20
132.7061722046721
 30
0.0
 10
191.7972743022008
 20
132.6560664763639
 30
0.0
 10
192.1181620335189
 20
132.5896533600184
 30
0.0
 10
192.2816752615479
 20
132.5724917342002
 30
0.0
 10
192.4482281693047
 20
132.5724917342002
 30
0.0
  0
SPLINE
  5
13B
330
1F
100
AcDbEntity
  8
0
  6
HIDDEN
 62
     7
370
     0
100
AcDbSpline
210
0.0
220
0.0
230
1.0
 70
     8
 71
     3
 72
    18
 73
    14
 74
     0
 42
0.000000001
 43
0.00000001
 40
0.0
 40
0.0
 40
0.0
 40
0.0
 40
0.124999999999999
 40
0.124999999999999
 40
0.249999999999998
 40
0.249999999999998
 40
0.4999999999999982
 40
0.4999999999999982
 40
0.6249999999999989
 40
0.6249999999999989
 40
0.7499999999999996
 40
0.7499999999999996
 40
1.0
 40
1.0
 40
1.0
 40
1.0
 10
191.3632122543676
 20
141.4392752173943
 30
0.0
 10
191.4827993059274
 20
141.5286424041038
 30
0.0
 10
191.5948753254497
 20
141.6131556974739
 30
0.0
 10
191.8183376276448
 20
141.7716907427848
 30
0.0
 10
191.9292178193175
 20
141.8456921898974
 30
0.0
 10
192.2660284349788
 20
142.0498363976454
 30
0.0
 10
192.4976461624308
 20
142.1626762598183
 30
0.0
 10
192.8495481864924
 20
142.2775780191196
 30
0.0
 10
192.9680121586023
 20
142.3071297327876
 30
0.0
 10
193.208432774041
 20
142.3450922455121
 30
0.0
 10
193.3306450510779
 20
142.3532939594341
 30
0.0
 10
193.6915751887777
 20
142.3380800579255
 30
0.0
 10
193.9326374584038
 20
142.2744206913839
 30
0.0
 10
194.1501846735268
 20
142.138382138124
 30
0.0
  0
SPLINE
  5
13C
330
1F
100
AcDbEntity
  8
0
  6
HIDDEN
 62
     7
370
     0
100
AcDbSpline
210
0.0
220
0.0
230
1.0
 70
     8
 71
     3
 72
    10
 73
     6
 74
     0
 42
0.000000001
 43
0.00000001
 40
0.0
 40
0.0
 40
0.0
 40
0.0
 40
0.5
 40
0.5
 40
1.0
 40
1.0
 40
1.0
 40
1.0
 10
191.5738031311446
 20
140.574548247672
 30
0.0
 10
191.4888522345833
 20
140.6983701989116
 30
0.0
 10
191.4257986226905
 20
140.8291370406612
 30
0.0
 10
191.3549192714172
 20
141.1181031622123
 30
0.0
 10
191.3477204190588
 20
141.273772934724
 30
0.0
 10
191.3632122543676
 20
141.4392752173943
 30
0.0
  0
SPLINE
  5
13D
330
1F
100
AcDbEntity
  8
0
  6
HIDDEN
 62
     7
370
     0
100
AcDbSpline
210
0.0
220
0.0
230
1.0
 70
     8
 71
     3
 72
    52
 73
    48
 74
     0
 42
0.000000001
 43
0.00000001
 40
0.0
 40
0.0
 40
0.0
 40
0.0
 40
0.0624999999999998
 40
0.0624999999999998
 40
0.1249999999999995
 40
0.1249999999999995
 40
0.1874999999999993
 40
0.1874999999999993
 40
0.249999999999999
 40
0.249999999999999
 40
0.281249999999999
 40
0.281249999999999
 40
0.3124999999999989
 40
0.3124999999999989
 40
0.3437499999999989
 40
0.3437499999999989
 40
0.3749999999999989
 40
0.3749999999999989
 40
0.4062499999999989
 40
0.4062499999999989
 40
0.4374999999999989
 40
0.4374999999999989
 40
0.4999999999999989
 40
0.4999999999999989
 40
0.5624999999999989
 40
0.5624999999999989
 40
0.5937499999999987
 40
0.5937499999999987
 40
0.6249999999999983
 40
0.6249999999999983
 40
0.6562499999999981
 40
0.6562499999999981
 40
0.6874999999999981
 40
0.6874999999999981
 40
0.7187499999999981
 40
0.7187499999999981
 40
0.7499999999999981
 40
0.7499999999999981
 40
0.7812499999999981
 40
0.7812499999999981
 40
0.8124999999999981
 40
0.8124999999999981
 40
0.8749999999999987
 40
0.8749999999999987
 40
0.9374999999999993
 40
0.9374999999999993
 40
1.0
 40
1.0
 40
1.0
 40
1.0
 10
194.6964922587065
 20
141.51951695181
 30
0.0
 10
194.8040076206304
 20
141.3059301388447
 30
0.0
 10
194.8718189585732
 20
141.0735099694878
 30
0.0
 10
194.94881567904
 20
140.5806417431867
 30
0.0
 10
194.9558062377774
 20
140.3341166084123
 30
0.0
 10
194.9270639427543
 20
139.8410212335328
 30
0.0
 10
194.8907156740545
 20
139.5973340733933
 30
0.0
 10
194.7904257217562
 20
139.129361452822
 30
0.0
 10
194.7256479967656
 20
138.902083753944
 30
0.0
 10
194.617877701693
 20
138.5721702873837
 30
0.0
 10
194.580502026518
 20
138.4649815780066
 30
0.0
 10
194.5075167620586
 20
138.2568952197403
 30
0.0
 10
194.4715432240045
 20
138.1555702641473
 30
0.0
 10
194.4147778216361
 20
137.9678864633047
 30
0.0
 10
194.3942614851761
 20
137.8798022173401
 30
0.0
 10
194.3949399606031
 20
137.7452438656551
 30
0.0
 10
194.4171857053738
 20
137.7008608267786
 30
0.0
 10
194.4825524478316
 20
137.6520364912087
 30
0.0
 10
194.5233407005486
 20
137.6451820877232
 30
0.0
 10
194.6057741638724
 20
137.6493179811755
 30
0.0
 10
194.6473628664183
 20
137.6607806343628
 30
0.0
 10
194.7633609838917
 20
137.7133988810275
 30
0.0
 10
194.830046254184
 20
137.7725119696534
 30
0.0
 10
194.9238208894019
 20
137.9307436057473
 30
0.0
 10
194.949796464015
 20
138.0279144542807
 30
0.0
 10
194.947335498126
 20
138.2013107490274
 30
0.0
 10
194.939377799461
 20
138.2644190525463
 30
0.0
 10
194.9076920775785
 20
138.397423792368
 30
0.0
 10
194.8840879922088
 20
138.4674822376631
 30
0.0
 10
194.8195124181113
 20
138.6151770258722
 30
0.0
 10
194.7779402669112
 20
138.6936436376919
 30
0.0
 10
194.6787192231523
 20
138.8524817562559
 30
0.0
 10
194.6210210006799
 20
138.9332990961467
 30
0.0
 10
194.4886963962252
 20
139.0976323426559
 30
0.0
 10
194.4131132735948
 20
139.1820029850521
 30
0.0
 10
194.2508825082368
 20
139.346077318305
 30
0.0
 10
194.1638442741536
 20
139.4264532153339
 30
0.0
 10
193.9782980063417
 20
139.5838251026363
 30
0.0
 10
193.8800247631818
 20
139.6604794750696
 30
0.0
 10
193.679735927873
 20
139.8049328925263
 30
0.0
 10
193.5768400014989
 20
139.8734975467325
 30
0.0
 10
193.2602580168132
 20
140.0686523130921
 30
0.0
 10
193.04815853904
 20
140.1792939925599
 30
0.0
 10
192.6217799168332
 20
140.3660397453656
 30
0.0
 10
192.4085011856087
 20
140.4415497103248
 30
0.0
 10
191.9912683486923
 20
140.5479393373063
 30
0.0
 10
191.7845893200278
 20
140.5823331720545
 30
0.0
 10
191.5738031311446
 20
140.574548247672
 30
0.0
  0
ARC
  5
13E
330
1F
100
AcDbEntity
  8
0
  6
HIDDEN
 62
     7
370
     0
100
AcDbCircle
 10
192.9337176789
 20
141.3637409589
 30
0.0
 40
1.572320804660332
100
AcDbArc
 50
177.2464521366
 51
210.1276744809
  0
CIRCLE
  5
13F
330
1F
100
AcDbEntity
  8
0
  6
HIDDEN
 62
     7
370
     0
100
AcDbCircle
 10
160.4482281693
 20
130.9627204465
 30
0.0
 40
3.050000000000011
  0
LINE
  5
140
330
1F
100
AcDbEntity
  8
0
  6
HIDDEN
 62
     7
370
     0
100
AcDbLine
 10
149.4762680249
 20
141.7513955811
 30
0.0
 11
149.4762680249
 21
120.1740453119
 31
0.0
  0
LINE
  5
141
330
1F
100
AcDbEntity
  8
0
  6
HIDDEN
 62
     7
370
     0
100
AcDbLine
 10
145.4762680249
 20
142.1325934276
 30
0.0
 11
145.4762680249
 21
119.7928474654
 31
0.0
  0
LINE
  5
142
330
1F
100
AcDbEntity
  8
0
  6
HIDDEN
 62
     7
370
     0
100
AcDbLine
 10
144.4482281693
 20
119.1993083781
 30
0.0
 11
144.4482281693
 21
142.726132515
 31
0.0
  0
LINE
  5
143
330
1F
100
AcDbEntity
  8
0
  6
HIDDEN
 62
     7
370
     0
100
AcDbLine
 10
154.0762680249
 20
141.4627204465
 30
0.0
 11
154.0762680249
 21
120.4627204465
 31
0.0
  0
LINE
  5
144
330
1F
100
AcDbEntity
  8
0
  6
HIDDEN
 62
     7
370
     0
100
AcDbLine
 10
147.9762680249
 20
141.4627204465
 30
0.0
 11
147.9762680249
 21
120.4627204465
 31
0.0
  0
LINE
  5
145
330
1F
100
AcDbEntity
  8
0
  6
HIDDEN
 62
     7
370
     0
100
AcDbLine
 10
148.9762680249
 20
141.4627204465
 30
0.0
 11
148.9762680249
 21
120.4627204465
 31
0.0
  0
SPLINE
  5
146
330
1F
100
AcDbEntity
  8
0
  6
HIDDEN
 62
     7
370
     0
100
AcDbSpline
210
0.0
220
0.0
230
1.0
 70
    11
 71
     3
 72
    66
 73
    62
 74
     0
 42
0.000000001
 43
0.00000001
 40
0.0
 40
0.0
 40
0.0
 40
0.0
 40
0.0312499999999999
 40
0.0312499999999999
 40
0.0624999999999998
 40
0.0624999999999998
 40
0.0937499999999997
 40
0.0937499999999997
 40
0.1249999999999996
 40
0.1249999999999996
 40
0.1874999999999995
 40
0.1874999999999995
 40
0.2187499999999994
 40
0.2187499999999994
 40
0.2499999999999994
 40
0.2499999999999994
 40
0.2812499999999993
 40
0.2812499999999993
 40
0.3124999999999993
 40
0.3124999999999993
 40
0.3437499999999993
 40
0.3437499999999993
 40
0.3749999999999992
 40
0.3749999999999992
 40
0.4062499999999992
 40
0.4062499999999992
 40
0.4374999999999991
 40
0.4374999999999991
 40
0.4687499999999991
 40
0.4687499999999991
 40
0.4999999999999991
 40
0.4999999999999991
 40
0.531249999999999
 40
0.531249999999999
 40
0.5624999999999989
 40
0.5624999999999989
 40
0.5937499999999988
 40
0.5937499999999988
 40
0.6249999999999989
 40
0.6249999999999989
 40
0.6562499999999991
 40
0.6562499999999991
 40
0.6874999999999992
 40
0.6874999999999992
 40
0.7187499999999993
 40
0.7187499999999993
 40
0.7499999999999994
 40
0.7499999999999994
 40
0.7812499999999996
 40
0.7812499999999996
 40
0.8124999999999997
 40
0.8124999999999997
 40
0.875
 40
0.875
 40
0.9062500000000002
 40
0.9062500000000002
 40
0.9375000000000001
 40
0.9375000000000001
 40
0.96875
 40
0.96875
 40
1.0
 40
1.0
 40
1.0
 40
1.0
 10
160.4482281693047
 20
134.0127204465174
 30
0.0
 10
160.6509068162525
 20
134.0127204465174
 30
0.0
 10
160.8499667075883
 20
133.9927208869008
 30
0.0
 10
161.2412206921681
 20
133.9145773842006
 30
0.0
 10
161.4354934509157
 20
133.8554162826799
 30
0.0
 10
161.804256877467
 20
133.7019845957856
 30
0.0
 10
161.9789820358453
 20
133.6082577859434
 30
0.0
 10
162.309659339379
 20
133.3870036835385
 30
0.0
 10
162.4653068833819
 20
133.2590223165439
 30
0.0
 10
162.8847742530505
 20
132.8394672195438
 30
0.0
 10
163.1116623945808
 20
132.5009886608404
 30
0.0
 10
163.3404590179656
 20
131.9511097731223
 30
0.0
 10
163.3996512728145
 20
131.7577099273789
 30
0.0
 10
163.478458683075
 20
131.363481777021
 30
0.0
 10
163.4980980993554
 20
131.1648429495886
 30
0.0
 10
163.498356963777
 20
130.7645426636902
 30
0.0
 10
163.478286279144
 20
130.5612033369691
 30
0.0
 10
163.3999485965141
 20
130.1691118163615
 30
0.0
 10
163.3419988284756
 20
129.9784059480463
 30
0.0
 10
163.1880556865956
 20
129.6076821314597
 30
0.0
 10
163.0931170728729
 20
129.4309554716509
 30
0.0
 10
162.8727596569958
 20
129.1017023607265
 30
0.0
 10
162.7454796310675
 20
128.9465811371301
 30
0.0
 10
162.463724039737
 20
128.6649044421997
 30
0.0
 10
162.3109357102794
 20
128.5394712572953
 30
0.0
 10
161.9815086281226
 20
128.3186956639412
 30
0.0
 10
161.8029626249709
 20
128.222864411241
 30
0.0
 10
161.4353902994207
 20
128.0700352807459
 30
0.0
 10
161.2452362727097
 20
128.0118635228017
 30
0.0
 10
160.8516958500072
 20
127.9328702304568
 30
0.0
 10
160.6492617787461
 20
127.9128071048145
 30
0.0
 10
160.2498327033807
 20
127.9126343586958
 30
0.0
 10
160.0498137248247
 20
127.9321177327851
 30
0.0
 10
159.6536977773754
 20
128.0111093043863
 30
0.0
 10
159.4629649491835
 20
128.0693895242382
 30
0.0
 10
159.0953335086038
 20
128.2219571448463
 30
0.0
 10
158.916847076436
 20
128.3175659316196
 30
0.0
 10
158.586641817472
 20
128.5385779767045
 30
0.0
 10
158.4337532394101
 20
128.6640278754747
 30
0.0
 10
158.1521568448719
 20
128.94525836448
 30
0.0
 10
158.0245259219965
 20
129.1006412423939
 30
0.0
 10
157.8042004869967
 20
129.4294921004369
 30
0.0
 10
157.7099740300313
 20
129.6043802068509
 30
0.0
 10
157.5550395094282
 20
129.9765240582117
 30
0.0
 10
157.497027223826
 20
130.1673301000206
 30
0.0
 10
157.4186079695478
 20
130.5582031179394
 30
0.0
 10
157.3982938895813
 20
130.7606606793217
 30
0.0
 10
157.3981627732773
 20
131.1627912842411
 30
0.0
 10
157.4177874666366
 20
131.3615153294162
 30
0.0
 10
157.4959539170503
 20
131.7543548005529
 30
0.0
 10
157.5552413623902
 20
131.9489990779555
 30
0.0
 10
157.7843222054731
 20
132.5004388313697
 30
0.0
 10
158.0111530563672
 20
132.8387783970689
 30
0.0
 10
158.430491757688
 20
133.2584440597204
 30
0.0
 10
158.5858447534379
 20
133.3862900654936
 30
0.0
 10
158.9168125865751
 20
133.6078911401954
 30
0.0
 10
159.0913738867715
 20
133.7015318741724
 30
0.0
 10
159.4589471943463
 20
133.8546859948716
 30
0.0
 10
159.6536340559844
 20
133.9141897405177
 30
0.0
 10
160.0461100059208
 20
133.9927124895806
 30
0.0
 10
160.2455495223569
 20
134.0127204465174
 30
0.0
 10
160.4482281693047
 20
134.0127204465174
 30
0.0
  0
SPLINE
  5
147
330
1F
100
AcDbEntity
  8
0
  6
HIDDEN
 62
     7
370
     0
100
AcDbSpline
210
0.0
220
0.0
230
1.0
 70
    11
 71
     3
 72
    66
 73
    62
 74
     0
 42
0.000000001
 43
0.00000001
 40
0.0
 40
0.0
 40
0.0
 40
0.0
 40
0.0312499999999999
 40
0.0312499999999999
 40
0.0624999999999998
 40
0.0624999999999998
 40
0.0937499999999996
 40
0.0937499999999996
 40
0.1249999999999995
 40
0.1249999999999995
 40
0.1874999999999993
 40
0.1874999999999993
 40
0.2187499999999991
 40
0.2187499999999991
 40
0.2499999999999989
 40
0.2499999999999989
 40
0.2812499999999988
 40
0.2812499999999988
 40
0.3124999999999987
 40
0.3124999999999987
 40
0.3437499999999986
 40
0.3437499999999986
 40
0.3749999999999985
 40
0.3749999999999985
 40
0.4062499999999983
 40
0.4062499999999983
 40
0.4374999999999984
 40
0.4374999999999984
 40
0.4687499999999986
 40
0.4687499999999986
 40
0.4999999999999987
 40
0.4999999999999987
 40
0.5312499999999988
 40
0.5312499999999988
 40
0.5624999999999989
 40
0.5624999999999989
 40
0.593749999999999
 40
0.593749999999999
 40
0.6249999999999991
 40
0.6249999999999991
 40
0.6562499999999992
 40
0.6562499999999992
 40
0.6874999999999993
 40
0.6874999999999993
 40
0.7187499999999994
 40
0.7187499999999994
 40
0.7499999999999994
 40
0.7499999999999994
 40
0.7812499999999996
 40
0.7812499999999996
 40
0.8124999999999997
 40
0.8124999999999997
 40
0.8749999999999999
 40
0.8749999999999999
 40
0.9062499999999999
 40
0.9062499999999999
 40
0.9374999999999999
 40
0.9374999999999999
 40
0.9687499999999999
 40
0.9687499999999999
 40
1.0
 40
1.0
 40
1.0
 40
1.0
 10
160.4482281693047
 20
134.0127204465174
 30
0.0
 10
160.2455495223569
 20
134.0127204465174
 30
0.0
 10
160.046489631021
 20
133.9927208869008
 30
0.0
 10
159.6552356464413
 20
133.9145773842006
 30
0.0
 10
159.4609628876937
 20
133.8554162826799
 30
0.0
 10
159.0921994611424
 20
133.7019845957856
 30
0.0
 10
158.9174743027641
 20
133.6082577859434
 30
0.0
 10
158.5867969992303
 20
133.3870036835385
 30
0.0
 10
158.4311494552275
 20
133.2590223165439
 30
0.0
 10
158.0116820855588
 20
132.8394672195438
 30
0.0
 10
157.7847939440285
 20
132.5009886608404
 30
0.0
 10
157.5559973206437
 20
131.9511097731223
 30
0.0
 10
157.4968050657949
 20
131.7577099273788
 30
0.0
 10
157.4179976555344
 20
131.363481777021
 30
0.0
 10
157.398358239254
 20
131.1648429495886
 30
0.0
 10
157.3980993748324
 20
130.7645426636902
 30
0.0
 10
157.4181700594654
 20
130.5612033369691
 30
0.0
 10
157.4965077420953
 20
130.1691118163615
 30
0.0
 10
157.5544575101337
 20
129.9784059480463
 30
0.0
 10
157.7084006520138
 20
129.6076821314597
 30
0.0
 10
157.8033392657364
 20
129.4309554716509
 30
0.0
 10
158.0236966816136
 20
129.1017023607265
 30
0.0
 10
158.1509767075418
 20
128.9465811371301
 30
0.0
 10
158.4327322988724
 20
128.6649044421997
 30
0.0
 10
158.5855206283299
 20
128.5394712572953
 30
0.0
 10
158.9149477104868
 20
128.3186956639412
 30
0.0
 10
159.0934937136385
 20
128.222864411241
 30
0.0
 10
159.4610660391887
 20
128.0700352807459
 30
0.0
 10
159.6512200658997
 20
128.0118635228017
 30
0.0
 10
160.0447604886022
 20
127.9328702304568
 30
0.0
 10
160.2471945598633
 20
127.9128071048145
 30
0.0
 10
160.6466236352287
 20
127.9126343586958
 30
0.0
 10
160.8466426137846
 20
127.9321177327851
 30
0.0
 10
161.242758561234
 20
128.0111093043863
 30
0.0
 10
161.4334913894258
 20
128.0693895242382
 30
0.0
 10
161.8011228300056
 20
128.2219571448463
 30
0.0
 10
161.9796092621733
 20
128.3175659316196
 30
0.0
 10
162.3098145211374
 20
128.5385779767045
 30
0.0
 10
162.4627030991993
 20
128.6640278754747
 30
0.0
 10
162.7442994937374
 20
128.94525836448
 30
0.0
 10
162.8719304166129
 20
129.100641242394
 30
0.0
 10
163.0922558516127
 20
129.4294921004369
 30
0.0
 10
163.1864823085781
 20
129.6043802068509
 30
0.0
 10
163.3414168291812
 20
129.9765240582117
 30
0.0
 10
163.3994291147834
 20
130.1673301000206
 30
0.0
 10
163.4778483690615
 20
130.5582031179394
 30
0.0
 10
163.4981624490281
 20
130.7606606793217
 30
0.0
 10
163.4982935653321
 20
131.1627912842411
 30
0.0
 10
163.4786688719727
 20
131.3615153294162
 30
0.0
 10
163.4005024215591
 20
131.7543548005529
 30
0.0
 10
163.3412149762191
 20
131.9489990779555
 30
0.0
 10
163.1121341331363
 20
132.5004388313697
 30
0.0
 10
162.8853032822421
 20
132.8387783970689
 30
0.0
 10
162.4659645809214
 20
133.2584440597204
 30
0.0
 10
162.3106115851714
 20
133.3862900654936
 30
0.0
 10
161.9796437520342
 20
133.6078911401954
 30
0.0
 10
161.8050824518379
 20
133.7015318741724
 30
0.0
 10
161.4375091442631
 20
133.8546859948716
 30
0.0
 10
161.242822282625
 20
133.9141897405177
 30
0.0
 10
160.8503463326886
 20
133.9927124895806
 30
0.0
 10
160.6509068162525
 20
134.0127204465174
 30
0.0
 10
160.4482281693047
 20
134.0127204465174
 30
0.0
  0
LINE
  5
148
330
1F
100
AcDbEntity
  8
0
  6
HIDDEN
 62
     7
370
     0
100
AcDbLine
 10
164.4482281693
 20
140.9627204465
 30
0.0
 11
164.4482281693
 21
120.9627204465
 31
0.0
  0
LINE
  5
149
330
1F
100
AcDbEntity
  8
0
  6
HIDDEN
 62
     7
370
     0
100
AcDbLine
 10
165.4482281693
 20
138.2127204465
 30
0.0
 11
165.4482281693
 21
123.7127204465
 31
0.0
  0
LINE
  5
14A
330
1F
100
AcDbEntity
  8
0
  6
HIDDEN
 62
     7
370
     0
100
AcDbLine
 10
164.4482281693
 20
122.7127204465
 30
0.0
 11
164.4482281693
 21
139.1970729086
 31
0.0
  0
LINE
  5
14B
330
1F
100
AcDbEntity
  8
0
  6
HIDDEN
 62
     7
370
     0
100
AcDbLine
 10
198.4482281693
 20
138.2127204465
 30
0.0
 11
198.4482281693
 21
123.7127204465
 31
0.0
  0
LINE
  5
14C
330
1F
100
AcDbEntity
  8
0
  6
HIDDEN
 62
     7
370
     0
100
AcDbLine
 10
226.8927789937
 20
152.6296352116
 30
0.0
 11
230.4803830302
 21
158.9874488484
 31
0.0
  0
LINE
  5
14D
330
1F
100
AcDbEntity
  8
0
  6
HIDDEN
 62
     7
370
     0
100
AcDbLine
 10
230.512120645
 20
158.987302357
 30
0.0
 11
230.4803830302
 21
158.9874488484
 31
0.0
  0
SPLINE
  5
14E
330
1F
100
AcDbEntity
  8
0
  6
HIDDEN
 62
     7
370
     0
100
AcDbSpline
210
0.0
220
0.0
230
1.0
 70
     8
 71
     3
 72
    18
 73
    14
 74
     0
 42
0.000000001
 43
0.00000001
 40
0.0
 40
0.0
 40
0.0
 40
0.0
 40
0.0312499999999999
 40
0.0312499999999999
 40
0.0624999999999998
 40
0.0624999999999998
 40
0.1250000000000003
 40
0.1250000000000003
 40
0.2500000000000004
 40
0.2500000000000004
 40
0.5000000000000018
 40
0.5000000000000018
 40
1.0
 40
1.0
 40
1.0
 40
1.0
 10
210.8950470815948
 20
162.9919229004902
 30
0.0
 10
210.855675265601
 20
162.9919229004902
 30
0.0
 10
210.8171116008213
 20
162.9848405260237
 30
0.0
 10
210.7489601086857
 20
162.9626446260953
 30
0.0
 10
210.7186185530167
 20
162.9477221098096
 30
0.0
 10
210.63736033131
 20
162.8988914810806
 30
0.0
 10
210.5940439681415
 20
162.8603090123321
 30
0.0
 10
210.4803351382262
 20
162.7417201253572
 30
0.0
 10
210.4234698923637
 20
162.6553687730871
 30
0.0
 10
210.274921352724
 20
162.3919780135755
 30
0.0
 10
210.206244222453
 20
162.2086678667134
 30
0.0
 10
210.033352887633
 20
161.6422666460942
 30
0.0
 10
209.9667950248666
 20
161.240840685908
 30
0.0
 10
209.9291212553057
 20
160.826645963026
 30
0.0
  0
SPLINE
  5
14F
330
1F
100
AcDbEntity
  8
0
  6
HIDDEN
 62
     7
370
     0
100
AcDbSpline
210
0.0
220
0.0
230
1.0
 70
     8
 71
     3
 72
    18
 73
    14
 74
     0
 42
0.000000001
 43
0.00000001
 40
0.0
 40
0.0
 40
0.0
 40
0.0
 40
0.2479173262277511
 40
0.5122759447506744
 40
0.7761475244996465
 40
0.8490177675937917
 40
0.8963968533580439
 40
0.9281159401171734
 40
0.9618906550595997
 40
0.976312187058249
 40
0.9908897572233545
 40
0.9994342826332013
 40
1.0
 40
1.0
 40
1.0
 40
1.0
 10
210.0047654411106
 20
165.3556395689829
 30
0.0
 10
209.9908797298959
 20
165.3395743643246
 30
0.0
 10
209.9621874398521
 20
165.3063785485293
 30
0.0
 10
210.0094231247134
 20
165.2564960108024
 30
0.0
 10
210.1380856488395
 20
165.2183107259461
 30
0.0
 10
210.3213116894561
 20
165.1947571441037
 30
0.0
 10
210.4245511557518
 20
165.185747225668
 30
0.0
 10
210.526361253052
 20
165.1793913676418
 30
0.0
 10
210.6225921139668
 20
165.1752175392492
 30
0.0
 10
210.7281658068757
 20
165.1726295503813
 30
0.0
 10
210.8098588013095
 20
165.1716184460281
 30
0.0
 10
210.870448230208
 20
165.1716058773818
 30
0.0
 10
210.8936088783335
 20
165.171719083499
 30
0.0
 10
210.8950470815946
 20
165.1717261132422
 30
0.0
  0
LINE
  5
150
330
1F
100
AcDbEntity
  8
0
  6
HIDDEN
 62
     7
370
     0
100
AcDbLine
 10
207.5469265851
 20
130.9627204465
 30
0.0
 11
207.5469265851
 21
114.9678299291
 31
0.0
  0
SPLINE
  5
151
330
1F
100
AcDbEntity
  8
0
  6
HIDDEN
 62
     7
370
     0
100
AcDbSpline
210
0.0
220
0.0
230
1.0
 70
     8
 71
     3
 72
    10
 73
     6
 74
     0
 42
0.000000001
 43
0.00000001
 40
0.0
 40
0.0
 40
0.0
 40
0.0
 40
0.5
 40
0.5
 40
1.0
 40
1.0
 40
1.0
 40
1.0
 10
207.6468270076148
 20
134.4781716199484
 30
0.0
 10
207.6253878141223
 20
133.8922987485092
 30
0.0
 10
207.5988662221956
 20
133.3064637181207
 30
0.0
 10
207.559438603691
 20
132.1346922825094
 30
0.0
 10
207.5469265851102
 20
131.548752943696
 30
0.0
 10
207.5469265851102
 20
130.9627204465174
 30
0.0
  0
SPLINE
  5
152
330
1F
100
AcDbEntity
  8
0
  6
HIDDEN
 62
     7
370
     0
100
AcDbSpline
210
0.0
220
0.0
230
1.0
 70
     8
 71
     3
 72
    12
 73
     8
 74
     0
 42
0.000000001
 43
0.00000001
 40
0.0
 40
0.0
 40
0.0
 40
0.0
 40
0.2499999999999987
 40
0.2499999999999987
 40
0.4999999999999973
 40
0.4999999999999973
 40
1.0
 40
1.0
 40
1.0
 40
1.0
 10
207.5469265851102
 20
114.9678299291272
 30
0.0
 10
207.4979225946468
 20
114.872916193694
 30
0.0
 10
207.4399325197237
 20
114.7681127612217
 30
0.0
 10
207.3141130603006
 20
114.5493698510564
 30
0.0
 10
207.2459138630338
 20
114.4347825149226
 30
0.0
 10
207.0280390354627
 20
114.0779279822279
 30
0.0
 10
206.8666381862451
 20
113.824098686739
 30
0.0
 10
206.6809011813257
 20
113.5462717975312
 30
0.0
  0
SPLINE
  5
153
330
1F
100
AcDbEntity
  8
0
  6
HIDDEN
 62
     7
370
     0
100
AcDbSpline
210
0.0
220
0.0
230
1.0
 70
     8
 71
     3
 72
     8
 73
     4
 74
     0
 42
0.000000001
 43
0.00000001
 40
0.0
 40
0.0
 40
0.0
 40
0.0
 40
1.0
 40
1.0
 40
1.0
 40
1.0
 10
208.0888121197579
 20
140.9627204465174
 30
0.0
 10
207.8782902162259
 20
138.8106928419853
 30
0.0
 10
207.7262975081148
 20
136.6498769286824
 30
0.0
 10
207.6468270076148
 20
134.4781716199483
 30
0.0
  0
SPLINE
  5
154
330
1F
100
AcDbEntity
  8
0
  6
HIDDEN
 62
     7
370
     0
100
AcDbSpline
210
0.0
220
0.0
230
1.0
 70
     8
 71
     3
 72
    20
 73
    16
 74
     0
 42
0.000000001
 43
0.00000001
 40
0.0
 40
0.0
 40
0.0
 40
0.0
 40
0.2499999999999997
 40
0.2499999999999997
 40
0.3749999999999996
 40
0.3749999999999996
 40
0.4374999999999996
 40
0.4374999999999996
 40
0.4999999999999996
 40
0.4999999999999996
 40
0.7499999999999998
 40
0.7499999999999998
 40
0.8749999999999999
 40
0.8749999999999999
 40
1.0
 40
1.0
 40
1.0
 40
1.0
 10
209.9291212553058
 20
160.826645963026
 30
0.0
 10
209.8134451402751
 20
159.5548741980102
 30
0.0
 10
209.6880186651671
 20
158.1627155370452
 30
0.0
 10
209.4837862128987
 20
155.901091723855
 30
0.0
 10
209.4130064762535
 20
155.1180844206104
 30
0.0
 10
209.3023904817422
 20
153.8986470036069
 30
0.0
 10
209.2647655238906
 20
153.4845592890942
 30
0.0
 10
209.188847611371
 20
152.6508897379547
 30
0.0
 10
209.1504485604
 20
152.2301366004945
 30
0.0
 10
208.9561778775398
 20
150.107126214128
 30
0.0
 10
208.7935463113239
 20
148.3477394539225
 30
0.0
 10
208.5365914830447
 20
145.6164298789361
 30
0.0
 10
208.4485312600755
 20
144.6882000932509
 30
0.0
 10
208.2705915960871
 20
142.8311495491465
 30
0.0
 10
208.1803877144941
 20
141.898837802799
 30
0.0
 10
208.0888121197579
 20
140.9627204465174
 30
0.0
  0
LINE
  5
155
330
1F
100
AcDbEntity
  8
0
  6
HIDDEN
 62
     7
370
     0
100
AcDbLine
 10
217.2982861594
 20
165.2862986745
 30
0.0
 11
218.4530465409
 21
165.4577307644
 31
0.0
  0
ARC
  5
156
330
1F
100
AcDbEntity
  8
0
  6
HIDDEN
 62
     7
370
     0
100
AcDbCircle
 10
223.038917756
 20
152.1830256206
 30
0.0
 40
2.241314347120628
100
AcDbArc
 50
149.8643688327
 51
293.1654088866
  0
LINE
  5
157
330
1F
100
AcDbEntity
  8
0
  6
HIDDEN
 62
     7
370
     0
100
AcDbLine
 10
222.6204987459
 20
156.0018852858
 30
0.0
 11
223.7752591273
 21
156.1733173758
 31
0.0
  0
LINE
  5
158
330
1F
100
AcDbEntity
  8
0
  6
HIDDEN
 62
     7
370
     0
100
AcDbLine
 10
225.6705706418
 20
152.3386744273
 30
0.0
 11
229.3256226487
 21
158.8160167585
 31
0.0
  0
LINE
  5
159
330
1F
100
AcDbEntity
  8
0
  6
HIDDEN
 62
     7
370
     0
100
AcDbLine
 10
229.3256226487
 20
158.8160167585
 30
0.0
 11
230.4803830302
 21
158.9874488484
 31
0.0
  0
LINE
  5
15A
330
1F
100
AcDbEntity
  8
0
  6
HIDDEN
 62
     7
370
     0
100
AcDbLine
 10
226.292537018
 20
138.9233907252
 30
0.0
 11
230.9666713982
 21
139.6172979966
 31
0.0
  0
LINE
  5
15B
330
1F
100
AcDbEntity
  8
0
  6
HIDDEN
 62
     7
370
     0
100
AcDbLine
 10
230.9666713982
 20
158.9852042861
 30
0.0
 11
229.8119110167
 21
158.8137721962
 31
0.0
  0
SPLINE
  5
15C
330
1F
100
AcDbEntity
  8
0
  6
HIDDEN
 62
     7
370
     0
100
AcDbSpline
210
0.0
220
0.0
230
1.0
 70
     8
 71
     3
 72
    30
 73
    26
 74
     0
 42
0.000000001
 43
0.00000001
 40
0.0
 40
0.0
 40
0.0
 40
0.0
 40
0.1250000000000018
 40
0.1250000000000018
 40
0.2500000000000039
 40
0.2500000000000039
 40
0.3125000000000041
 40
0.3125000000000041
 40
0.3750000000000042
 40
0.3750000000000042
 40
0.4375000000000043
 40
0.4375000000000043
 40
0.5000000000000044
 40
0.5000000000000044
 40
0.5625000000000046
 40
0.5625000000000046
 40
0.6250000000000047
 40
0.6250000000000047
 40
0.6875000000000048
 40
0.6875000000000048
 40
0.7500000000000049
 40
0.7500000000000049
 40
0.8750000000000024
 40
0.8750000000000024
 40
1.0
 40
1.0
 40
1.0
 40
1.0
 10
223.1295096815852
 20
165.2339971120399
 30
0.0
 10
223.0461463537642
 20
165.1768436625457
 30
0.0
 10
222.9175228179738
 20
165.1180343329258
 30
0.0
 10
222.5888143877607
 20
165.0084759076086
 30
0.0
 10
222.3839052936837
 20
164.9561746609032
 30
0.0
 10
222.0376213788257
 20
164.8899516197652
 30
0.0
 10
221.9155564722587
 20
164.8697896816049
 30
0.0
 10
221.6577660999816
 20
164.8338050946038
 30
0.0
 10
221.5215841929964
 20
164.8180039583505
 30
0.0
 10
221.2451284570847
 20
164.7923345801449
 30
0.0
 10
221.1036969568916
 20
164.7822796333064
 30
0.0
 10
220.8143471188908
 20
164.7680213893119
 30
0.0
 10
220.6652433178119
 20
164.7638477542201
 30
0.0
 10
220.370473549588
 20
164.7618898126757
 30
0.0
 10
220.2238903696248
 20
164.7640126675287
 30
0.0
 10
219.9323151588115
 20
164.7743667585967
 30
0.0
 10
219.7860514225121
 20
164.7827224708506
 30
0.0
 10
219.5037379216364
 20
164.8049926800387
 30
0.0
 10
219.3672557889363
 20
164.8188587814832
 30
0.0
 10
219.1034270726758
 20
164.8516334997194
 30
0.0
 10
218.9750412958078
 20
164.8707393354562
 30
0.0
 10
218.6132124081702
 20
164.9337773187259
 30
0.0
 10
218.4011723892808
 20
164.9834621329709
 30
0.0
 10
218.0459957798567
 20
165.091850874224
 30
0.0
 10
217.9077117405506
 20
165.148827486695
 30
0.0
 10
217.8096382988152
 20
165.2068757279946
 30
0.0
  0
ELLIPSE
  5
15D
330
1F
100
AcDbEntity
  8
0
  6
HIDDEN
 62
     7
370
     0
100
AcDbEllipse
 10
220.4482281693
 20
165.2424739297
 30
0.0
 11
2.79999998189507
 21
0.01254234474481564
 31
0.0
210
0.0
220
0.0
230
1.0
 40
0.0253871077
 41
5.990830203271079
 42
6.760998560063841
  0
LINE
  5
15E
330
1F
100
AcDbEntity
  8
0
  6
HIDDEN
 62
     7
370
     0
100
AcDbLine
 10
222.9344890017
 20
162.33232745
 30
0.0
 11
222.9344890017
 21
165.2862986745
 31
0.0
  0
LWPOLYLINE
  5
15F
330
1F
100
AcDbEntity
  8
0
  6
HIDDEN
 62
     7
370
     0
100
AcDbPolyline
 90
       23
 70
   128
 43
0.0
 10
219.0599271301
 20
162.3622675343
 10
218.5786504288
 20
162.3531789338
 10
218.1813554817
 20
162.341639356
 10
217.8858888463
 20
162.3281671608
 10
217.7055229347
 20
162.3133675215
 10
217.6483598149
 20
162.2979052404
 10
217.7169672638
 20
162.2824748859
 10
217.9082634232
 20
162.2677695922
 10
218.2136552366
 20
162.2544499236
 10
218.6194244511
 20
162.2431142019
 10
219.1073438437
 20
162.2342716296
 10
219.6554959913
 20
162.2283194167
 10
220.2392578048
 20
162.2255249376
 10
220.8324066031
 20
162.2260137207
 10
221.40829804
 20
162.2297638099
 10
221.9410629729
 20
162.2366067504
 10
222.4067695092
 20
162.2462351562
 10
222.7844980311
 20
162.2582165178
 10
223.0572809083
 20
162.2720126301
 10
223.212864687
 20
162.2870037696
 10
223.2442605169
 20
162.3025165316
 10
223.1500580921
 20
162.3178540801
 10
222.9344890017
 20
162.33232745
  0
LINE
  5
160
330
1F
100
AcDbEntity
  8
0
  6
HIDDEN
 62
     7
370
     0
100
AcDbLine
 10
218.5523711409
 20
165.2862986745
 30
0.0
 11
218.5523711409
 21
163.0985913621
 31
0.0
  0
ELLIPSE
  5
161
330
1F
100
AcDbEntity
  8
0
  6
HIDDEN
 62
     7
370
     0
100
AcDbEllipse
 10
220.4482281693
 20
159.2325410789
 30
0.0
 11
-2.771815418740488
 21
4.805403477891133
 31
0.0
210
0.0
220
0.0
230
1.0
 40
0.0824658796
 41
5.373175885343684
 42
5.598198502037117
  0
ELLIPSE
  5
162
330
1F
100
AcDbEntity
  8
0
  6
HIDDEN
 62
     7
370
     0
100
AcDbEllipse
 10
220.4482281693
 20
165.2424739297
 30
0.0
 11
2.79999998189507
 21
0.01254234474481564
 31
0.0
210
0.0
220
0.0
230
1.0
 40
0.0253871077
 41
2.314486111837706
 42
3.48267976262973
  0
LINE
  5
163
330
1F
100
AcDbEntity
  8
0
  6
HIDDEN
 62
     7
370
     0
100
AcDbLine
 10
218.9811653918
 20
162.3505748147
 30
0.0
 11
219.0599271301
 21
162.3622675343
 31
0.0
  0
LINE
  5
164
330
1F
100
AcDbEntity
  8
0
  6
HIDDEN
 62
     7
370
     0
100
AcDbLine
 10
217.2982861594
 20
165.2862986745
 30
0.0
 11
218.5523711409
 21
163.0985913621
 31
0.0
  0
LINE
  5
165
330
1F
100
AcDbEntity
  8
0
  6
HIDDEN
 62
     7
370
     0
100
AcDbLine
 10
218.5523711409
 20
165.2862986745
 30
0.0
 11
217.2982861594
 21
165.2862986745
 31
0.0
  0
LINE
  5
166
330
1F
100
AcDbEntity
  8
0
  6
HIDDEN
 62
     7
370
     0
100
AcDbLine
 10
145.9482281693
 20
147.8220716885
 30
0.0
 11
145.9482281693
 21
143.012292972
 31
0.0
  0
LINE
  5
167
330
1F
100
AcDbEntity
  8
0
  6
HIDDEN
 62
     7
370
     0
100
AcDbLine
 10
144.4482281693
 20
146.9560462847
 30
0.0
 11
144.4482281693
 21
142.5792802701
 31
0.0
  0
LINE
  5
168
330
1F
100
AcDbEntity
  8
0
  6
HIDDEN
 62
     7
370
     0
100
AcDbLine
 10
145.9482281693
 20
118.9131479211
 30
0.0
 11
145.9482281693
 21
114.1033692046
 31
0.0
  0
LINE
  5
169
330
1F
100
AcDbEntity
  8
0
  6
HIDDEN
 62
     7
370
     0
100
AcDbLine
 10
144.4482281693
 20
119.346160623
 30
0.0
 11
144.4482281693
 21
114.9693946084
 31
0.0
  0
LINE
  5
16A
330
1F
100
AcDbEntity
  8
0
  6
HIDDEN
 62
     7
370
     0
100
AcDbLine
 10
172.2482281693
 20
118.5827741498
 30
0.0
 11
172.2482281693
 21
113.442621662
 31
0.0
  0
LINE
  5
16B
330
1F
100
AcDbEntity
  8
0
  6
HIDDEN
 62
     7
370
     0
100
AcDbLine
 10
172.2482281693
 20
148.4828192311
 30
0.0
 11
172.2482281693
 21
143.3426667433
 31
0.0
  0
SPLINE
  5
16C
330
1F
100
AcDbEntity
  8
0
  6
HIDDEN
 62
     7
370
     0
100
AcDbSpline
210
0.0
220
0.0
230
1.0
 70
     8
 71
     3
 72
    18
 73
    14
 74
     0
 42
0.000000001
 43
0.00000001
 40
0.0
 40
0.0
 40
0.0
 40
0.0
 40
0.2500000000000008
 40
0.2500000000000008
 40
0.3750000000000007
 40
0.3750000000000007
 40
0.5000000000000007
 40
0.5000000000000007
 40
0.6250000000000006
 40
0.6250000000000006
 40
0.7500000000000006
 40
0.7500000000000006
 40
1.0
 40
1.0
 40
1.0
 40
1.0
 10
173.1269078257451
 20
117.867673722985
 30
0.0
 10
172.9916222194427
 20
117.2834721292533
 30
0.0
 10
172.8904544731998
 20
116.7492544420451
 30
0.0
 10
172.7875931303308
 20
116.0233576711567
 30
0.0
 10
172.7614902848075
 20
115.7934771833768
 30
0.0
 10
172.7266003012627
 20
115.36290623859
 30
0.0
 10
172.7180140429727
 20
115.1652113330958
 30
0.0
 10
172.7179143334071
 20
114.803863290418
 30
0.0
 10
172.7264027045556
 20
114.6402132804719
 30
0.0
 10
172.7605460840762
 20
114.347002007503
 30
0.0
 10
172.78634306593
 20
114.2170059413871
 30
0.0
 10
172.889744197318
 20
113.8829500488252
 30
0.0
 10
172.9916021894893
 20
113.7371738844604
 30
0.0
 10
173.1269078257451
 20
113.6658105785126
 30
0.0
  0
SPLINE
  5
16D
330
1F
100
AcDbEntity
  8
0
  6
HIDDEN
 62
     7
370
     0
100
AcDbSpline
210
0.0
220
0.0
230
1.0
 70
     8
 71
     3
 72
    18
 73
    14
 74
     0
 42
0.000000001
 43
0.00000001
 40
0.0
 40
0.0
 40
0.0
 40
0.0
 40
0.2499999999999999
 40
0.2499999999999999
 40
0.375
 40
0.375
 40
0.5000000000000001
 40
0.5000000000000001
 40
0.6250000000000002
 40
0.6250000000000002
 40
0.7500000000000002
 40
0.7500000000000002
 40
1.0
 40
1.0
 40
1.0
 40
1.0
 10
173.1269078257451
 20
148.2596303145222
 30
0.0
 10
172.9916222194427
 20
148.1882775728327
 30
0.0
 10
172.8904544731997
 20
148.0428741662433
 30
0.0
 10
172.7875931303308
 20
147.7134069306376
 30
0.0
 10
172.7614902848075
 20
147.5844733538329
 30
0.0
 10
172.7266003012627
 20
147.2889313544968
 30
0.0
 10
172.7180140429727
 20
147.1245365809748
 30
0.0
 10
172.7179143334071
 20
146.7635749662342
 30
0.0
 10
172.7264027045556
 20
146.567005174072
 30
0.0
 10
172.7605460840762
 20
146.141650377947
 30
0.0
 10
172.78634306593
 20
145.9118807281474
 30
0.0
 10
172.889744197318
 20
145.179292033715
 30
0.0
 10
172.9916021894893
 20
144.6420552587974
 30
0.0
 10
173.1269078257451
 20
144.0577671700498
 30
0.0
  0
CIRCLE
  5
16E
330
1F
100
AcDbEntity
  8
0
  6
HIDDEN
 62
     7
370
     0
100
AcDbCircle
 10
225.1694457028
 20
160.834756462
 30
0.0
 40
1.281462553684246
  0
LINE
  5
16F
330
1F
100
AcDbEntity
  8
0
  6
HIDDEN
 62
     7
370
     0
100
AcDbLine
 10
229.3195122307
 20
165.2862986745
 30
0.0
 11
222.9344890017
 21
165.2862986745
 31
0.0
  0
LINE
  5
170
330
1F
100
AcDbEntity
  8
0
  6
HIDDEN
 62
     7
370
     0
100
AcDbLine
 10
229.8119110167
 20
164.786470012
 30
0.0
 11
229.3195122307
 21
165.2862986745
 31
0.0
  0
LINE
  5
171
330
1F
100
AcDbEntity
  8
0
  6
HIDDEN
 62
     7
370
     0
100
AcDbLine
 10
222.9344890017
 20
162.33232745
 30
0.0
 11
218.9811653918
 21
162.3505748147
 31
0.0
  0
LINE
  5
172
330
1F
100
AcDbEntity
  8
0
  6
HIDDEN
 62
     7
370
     0
100
AcDbLine
 10
229.3256226487
 20
158.8160167585
 30
0.0
 11
229.8119110167
 21
158.8137721962
 31
0.0
  0
LINE
  5
173
330
1F
100
AcDbEntity
  8
0
  6
HIDDEN
 62
     7
370
     0
100
AcDbLine
 10
229.8119110167
 20
164.786470012
 30
0.0
 11
229.8119110167
 21
158.8137721962
 31
0.0
  0
LINE
  5
174
330
1F
100
AcDbEntity
  8
0
  6
HIDDEN
 62
     7
370
     0
100
AcDbLine
 10
222.6204987459
 20
156.0018852858
 30
0.0
 11
221.1005408609
 21
153.3082744887
 31
0.0
  0
LINE
  5
175
330
1F
100
AcDbEntity
  8
0
  6
HIDDEN
 62
     7
370
     0
100
AcDbLine
 10
218.9811653918
 20
162.3505748147
 30
0.0
 11
222.6204987459
 21
156.0018852858
 31
0.0
  0
LWPOLYLINE
  5
176
330
1F
100
AcDbEntity
  8
0
  6
HIDDEN
 62
     7
370
     0
100
AcDbPolyline
 90
       21
 70
   128
 43
0.0
 10
220.4482281693
 20
154.3351007763
 10
220.8465665259
 20
154.3334492569
 10
221.2059127488
 20
154.3286563612
 10
221.4910915259
 20
154.3211912511
 10
221.6741875716
 20
154.3117846636
 10
221.7372781693
 20
154.301357381
 10
221.6741875716
 20
154.2909300985
 10
221.4910915259
 20
154.281523511
 10
221.2059127488
 20
154.2740584009
 10
220.8465665259
 20
154.2692655051
 10
220.4482281693
 20
154.2676139858
 10
220.0498898127
 20
154.2692655051
 10
219.6905435898
 20
154.2740584009
 10
219.4053648127
 20
154.281523511
 10
219.222268767
 20
154.2909300985
 10
219.1591781693
 20
154.301357381
 10
219.222268767
 20
154.3117846636
 10
219.4053648127
 20
154.3211912511
 10
219.6905435898
 20
154.3286563612
 10
220.0498898127
 20
154.3334492569
 10
220.4482281693
 20
154.3351007763
  0
LWPOLYLINE
  5
177
330
1F
100
AcDbEntity
  8
0
  6
HIDDEN
 62
     7
370
     0
100
AcDbPolyline
 90
       21
 70
   128
 43
0.0
 10
220.4482281693
 20
162.3323593761
 10
220.8465665259
 20
162.3307078567
 10
221.2059127488
 20
162.325914961
 10
221.4910915259
 20
162.3184498509
 10
221.6741875716
 20
162.3090432634
 10
221.7372781693
 20
162.2986159808
 10
221.6741875716
 20
162.2881886983
 10
221.4910915259
 20
162.2787821108
 10
221.2059127488
 20
162.2713170007
 10
220.8465665259
 20
162.2665241049
 10
220.4482281693
 20
162.2648725856
 10
220.0498898127
 20
162.2665241049
 10
219.6905435898
 20
162.2713170007
 10
219.4053648127
 20
162.2787821108
 10
219.222268767
 20
162.2881886983
 10
219.1591781693
 20
162.2986159808
 10
219.222268767
 20
162.3090432634
 10
219.4053648127
 20
162.3184498509
 10
219.6905435898
 20
162.325914961
 10
220.0498898127
 20
162.3307078567
 10
220.4482281693
 20
162.3323593761
  0
CIRCLE
  5
178
330
1F
100
AcDbEntity
  8
0
  6
HIDDEN
 62
     7
370
     0
100
AcDbCircle
 10
223.6934361926
 20
160.615632738
 30
0.0
 40
1.281462553684216
  0
LINE
  5
179
330
1F
100
AcDbEntity
  8
0
  6
HIDDEN
 62
     7
370
     0
100
AcDbLine
 10
229.3195122307
 20
165.2862986745
 30
0.0
 11
229.1754308736
 21
165.2649088099
 31
0.0
  0
LINE
  5
17A
330
1F
100
AcDbEntity
  8
0
  6
HIDDEN
 62
     7
370
     0
100
AcDbLine
 10
229.7023999943
 20
164.7702123504
 30
0.0
 11
229.8119110167
 21
164.786470012
 31
0.0
  0
LINE
  5
17B
330
1F
100
AcDbEntity
  8
0
  6
HIDDEN
 62
     7
370
     0
100
AcDbLine
 10
229.7023999943
 20
164.7702123504
 30
0.0
 11
229.1730427175
 21
165.267147999
 31
0.0
  0
SPLINE
  5
17C
330
1F
100
AcDbEntity
  8
0
  6
HIDDEN
 62
     7
370
     0
100
AcDbSpline
210
0.0
220
0.0
230
1.0
 70
     8
 71
     3
 72
    23
 73
    19
 74
     0
 42
0.000000001
 43
0.00000001
 40
0.0
 40
0.0
 40
0.0
 40
0.0
 40
0.062758179871812
 40
0.1253940390331909
 40
0.1879262413937218
 40
0.2503735438041998
 40
0.3127547796988668
 40
0.3750888423954341
 40
0.4373946681253467
 40
0.4996912188695563
 40
0.5619974650771304
 40
0.6243323683452395
 40
0.6867148641395202
 40
0.749163844633324
 40
0.8116981417431558
 40
0.8743365104355065
 40
0.9370976123774744
 40
1.0
 40
1.0
 40
1.0
 40
1.0
 10
228.0833516043227
 20
161.5800668721438
 30
0.0
 10
228.1155909190783
 20
161.6723281984083
 30
0.0
 10
228.1800067115873
 20
161.8566710262357
 30
0.0
 10
228.2775206315387
 20
162.1209097569821
 30
0.0
 10
228.375552949789
 20
162.3757678851555
 30
0.0
 10
228.4741752607156
 20
162.6203923763727
 30
0.0
 10
228.5733683950575
 20
162.8550111420253
 30
0.0
 10
228.673137447771
 20
163.0795631081926
 30
0.0
 10
228.7734810216841
 20
163.2940645369384
 30
0.0
 10
228.8743994588843
 20
163.4985109010986
 30
0.0
 10
228.9758926229385
 20
163.6929036565715
 30
0.0
 10
229.0779605494234
 20
163.8772411636579
 30
0.0
 10
229.1806030607371
 20
164.0515282576286
 30
0.0
 10
229.283820658596
 20
164.2157470096501
 30
0.0
 10
229.3876113351695
 20
164.3699642870769
 30
0.0
 10
229.4919824612737
 20
164.5139299342296
 30
0.0
 10
229.5969063147068
 20
164.6485801671255
 30
0.0
 10
229.6672072282068
 20
164.7297007513289
 30
0.0
 10
229.7023972052361
 20
164.7703066460832
 30
0.0
  0
SPLINE
  5
17D
330
1F
100
AcDbEntity
  8
0
  6
HIDDEN
 62
     7
370
     0
100
AcDbSpline
210
0.0
220
0.0
230
1.0
 70
     8
 71
     3
 72
    21
 73
    17
 74
     0
 42
0.000000001
 43
0.00000001
 40
0.0
 40
0.0
 40
0.0
 40
0.0
 40
0.0796450497041294
 40
0.1580259055153201
 40
0.2351425931464519
 40
0.3109951396872017
 40
0.3855835736958232
 40
0.4589079252988841
 40
0.530968226299724
 40
0.6017645102965867
 40
0.6712968128114715
 40
0.7395651714309348
 40
0.8065696259601235
 40
0.872310218591632
 40
0.936786994090879
 40
1.0
 40
1.0
 40
1.0
 40
1.0
 10
229.1663051432538
 20
165.2648622077497
 30
0.0
 10
229.1321925331231
 20
165.2242374702519
 30
0.0
 10
229.0645087771906
 20
165.1436328256035
 30
0.0
 10
228.9642239584977
 20
165.0112613319173
 30
0.0
 10
228.865880012458
 20
164.8722815335053
 30
0.0
 10
228.7695062665451
 20
164.7263017687752
 30
0.0
 10
228.6750950455474
 20
164.5740389728486
 30
0.0
 10
228.5826483532932
 20
164.4159089233043
 30
0.0
 10
228.4921656421096
 20
164.2523948459295
 30
0.0
 10
228.4036471091779
 20
164.0839494995493
 30
0.0
 10
228.3170924699562
 20
163.9110254452595
 30
0.0
 10
228.2325026062068
 20
163.734049122391
 30
0.0
 10
228.1498743151322
 20
163.5534922171165
 30
0.0
 10
228.0692191714564
 20
163.3696179398006
 30
0.0
 10
227.9904951704678
 20
163.1833992681325
 30
0.0
 10
227.9388906541366
 20
163.0553260277813
 30
0.0
 10
227.9133437657341
 20
162.9919231899831
 30
0.0
  0
ELLIPSE
  5
17E
330
1F
100
AcDbEntity
  8
0
  6
HIDDEN
 62
     7
370
     0
100
AcDbEllipse
 10
-7467.84512115
 20
130.9627204465
 30
0.0
 11
7815.893409457532
 21
34.98871934723553
 31
0.0
210
0.0
220
0.0
230
1.0
 40
0.0001136848
 41
6.104157324909948
 42
6.108548016964281
  0
ELLIPSE
  5
17F
330
1F
100
AcDbEntity
  8
0
  6
HIDDEN
 62
     7
370
     0
100
AcDbEllipse
 10
-7467.84512115
 20
130.9627204465
 30
0.0
 11
7815.893409457532
 21
34.98871934723553
 31
0.0
210
0.0
220
0.0
230
1.0
 40
0.0001136848
 41
6.095570532791068
 42
6.100374548235945
  0
LINE
  5
180
330
1F
100
AcDbEntity
  8
0
  6
HIDDEN
 62
     7
370
     0
100
AcDbLine
 10
144.4482281693
 20
142.5792802701
 30
0.0
 11
144.4482281693
 21
133.3018913748
 31
0.0
  0
LINE
  5
181
330
1F
100
AcDbEntity
  8
0
  6
HIDDEN
 62
     7
370
     0
100
AcDbLine
 10
144.4482281693
 20
128.6235495183
 30
0.0
 11
144.4482281693
 21
119.346160623
 31
0.0
  0
LINE
  5
182
330
1F
100
AcDbEntity
  8
0
  6
HIDDEN
 62
     7
370
     0
100
AcDbLine
 10
145.9482281693
 20
127.8142433282
 30
0.0
 11
145.9482281693
 21
118.9131479211
 31
0.0
  0
LINE
  5
183
330
1F
100
AcDbEntity
  8
0
  6
HIDDEN
 62
     7
370
     0
100
AcDbLine
 10
145.9482281693
 20
143.012292972
 30
0.0
 11
145.9482281693
 21
134.1111975649
 31
0.0
  0
LINE
  5
184
330
1F
100
AcDbEntity
  8
0
  6
HIDDEN
 62
     7
370
     0
100
AcDbLine
 10
172.2482281693
 20
143.3426667433
 30
0.0
 11
172.2482281693
 21
118.5827741498
 31
0.0
  0
LINE
  5
185
330
1F
100
AcDbEntity
  8
0
  6
HIDDEN
 62
     7
370
     0
100
AcDbLine
 10
174.2482281693
 20
142.5249946796
 30
0.0
 11
174.2482281693
 21
119.4004462134
 31
0.0
  0
LINE
  5
186
330
1F
100
AcDbEntity
  8
0
  6
HIDDEN
 62
     7
370
     0
100
AcDbLine
 10
227.9133481913
 20
162.9919229005
 30
0.0
 11
210.8950470816
 21
162.9919229005
 31
0.0
  0
SPLINE
  5
187
330
1F
100
AcDbEntity
  8
0
  6
HIDDEN
 62
     7
370
     0
100
AcDbSpline
210
0.0
220
0.0
230
1.0
 70
     8
 71
     3
 72
    12
 73
     8
 74
     0
 42
0.000000001
 43
0.00000001
 40
0.0
 40
0.0
 40
0.0
 40
0.0
 40
0.1997900825682478
 40
0.3996784107528774
 40
0.5996717030046935
 40
0.7997766672021509
 40
1.0
 40
1.0
 40
1.0
 40
1.0
 10
227.9134171461758
 20
162.991933799975
 30
0.0
 10
227.9227723896701
 20
162.9024430112407
 30
0.0
 10
227.9414874770453
 20
162.7234174271948
 30
0.0
 10
227.9729478333149
 20
162.4468946713409
 30
0.0
 10
228.0069560447347
 20
162.1644155875726
 30
0.0
 10
228.043514081689
 20
161.8760163607286
 30
0.0
 10
228.0701377816729
 20
161.6786924825239
 30
0.0
 10
228.083453567697
 20
161.5800013711753
 30
0.0
  0
ELLIPSE
  5
188
330
1F
100
AcDbEntity
  8
0
  6
HIDDEN
 62
     7
370
     0
100
AcDbEllipse
 10
231.0611470189
 20
140.9627204465
 30
0.0
 11
0.1286200409376477
 21
26.99999048202957
 31
0.0
210
0.0
220
0.0
230
1.0
 40
0.1762626822
 41
0.7027614162293612
 42
1.571635990352919
  0
SPLINE
  5
189
330
1F
100
AcDbEntity
  8
0
  6
HIDDEN
 62
     7
370
     0
100
AcDbSpline
210
0.0
220
0.0
230
1.0
 70
     8
 71
     3
 72
     8
 73
     4
 74
     0
 42
0.000000001
 43
0.00000001
 40
0.0000202085968836
 40
0.0000202085968836
 40
0.0000202085968836
 40
0.0000202085968836
 40
0.0040218806502652
 40
0.0040218806502652
 40
0.0040218806502652
 40
0.0040218806502652
 10
145.9482281693047
 20
127.8142433281807
 30
0.0
 10
147.2815512950953
 20
127.790245097017
 30
0.0
 10
148.6148851683179
 20
127.7669173568487
 30
0.0
 10
149.9482281693047
 20
127.7442226860683
 30
0.0
  0
SPLINE
  5
18A
330
1F
100
AcDbEntity
  8
0
  6
HIDDEN
 62
     7
370
     0
100
AcDbSpline
210
0.0
220
0.0
230
1.0
 70
     8
 71
     3
 72
     8
 73
     4
 74
     0
 42
0.000000001
 43
0.00000001
 40
0.0000202082942178
 40
0.0000202082942178
 40
0.0000202082942178
 40
0.0000202082942178
 40
0.0040218803475994
 40
0.0040218803475994
 40
0.0040218803475994
 40
0.0040218803475994
 10
149.9482281693047
 20
134.1812182069665
 30
0.0
 10
148.6148851683179
 20
134.1585235361861
 30
0.0
 10
147.2815512950953
 20
134.1351957960178
 30
0.0
 10
145.9482281693047
 20
134.1111975648541
 30
0.0
  0
SPLINE
  5
18B
330
1F
100
AcDbEntity
  8
0
  6
HIDDEN
 62
     7
370
     0
100
AcDbSpline
210
0.0
220
0.0
230
1.0
 70
     8
 71
     3
 72
     8
 73
     4
 74
     0
 42
0.000000001
 43
0.00000001
 40
0.0
 40
0.0
 40
0.0
 40
0.0
 40
1.0
 40
1.0
 40
1.0
 40
1.0
 10
144.4482281693037
 20
128.623549518283
 30
0.0
 10
144.9224395797417
 20
128.2888202909879
 30
0.0
 10
145.4271759268436
 20
128.029761877155
 30
0.0
 10
145.9482281693047
 20
127.8142433281807
 30
0.0
  0
SPLINE
  5
18C
330
1F
100
AcDbEntity
  8
0
  6
HIDDEN
 62
     7
370
     0
100
AcDbSpline
210
0.0
220
0.0
230
1.0
 70
     8
 71
     3
 72
     8
 73
     4
 74
     0
 42
0.000000001
 43
0.00000001
 40
0.0
 40
0.0
 40
0.0
 40
0.0
 40
1.0
 40
1.0
 40
1.0
 40
1.0
 10
145.9482281693047
 20
134.1111975648541
 30
0.0
 10
145.4271759268439
 20
133.8956790158799
 30
0.0
 10
144.9224395797424
 20
133.6366206020472
 30
0.0
 10
144.4482281693047
 20
133.3018913747524
 30
0.0
  0
LINE
  5
18D
330
1F
100
AcDbEntity
  8
0
  6
HIDDEN
 62
     7
370
     0
100
AcDbLine
 10
144.4482281693
 20
128.6235495183
 30
0.0
 11
144.4482281693
 21
133.3018913748
 31
0.0
  0
LINE
  5
18E
330
1F
100
AcDbEntity
  8
0
  6
HIDDEN
 62
     7
370
     0
100
AcDbLine
 10
149.9482281693
 20
127.7442226861
 30
0.0
 11
149.9482281693
 21
134.181218207
 31
0.0
  0
SPLINE
  5
18F
330
1F
100
AcDbEntity
  8
0
  6
HIDDEN
 62
     7
370
     0
100
AcDbSpline
210
0.0
220
0.0
230
1.0
 70
     8
 71
     3
 72
    26
 73
    22
 74
     0
 42
0.000000001
 43
0.00000001
 40
0.0
 40
0.0
 40
0.0
 40
0.0
 40
0.1249999999999998
 40
0.1249999999999998
 40
0.2499999999999997
 40
0.2499999999999997
 40
0.3749999999999995
 40
0.3749999999999995
 40
0.4374999999999994
 40
0.4374999999999994
 40
0.4999999999999993
 40
0.4999999999999993
 40
0.5624999999999992
 40
0.5624999999999992
 40
0.6249999999999991
 40
0.6249999999999991
 40
0.7499999999999994
 40
0.7499999999999994
 40
0.8749999999999997
 40
0.8749999999999997
 40
1.0
 40
1.0
 40
1.0
 40
1.0
 10
149.9482281693047
 20
127.7442226860683
 30
0.0
 10
150.1588715313046
 20
127.9788397170134
 30
0.0
 10
150.3660679690616
 20
128.2167228529729
 30
0.0
 10
150.767567103694
 20
128.7040371592417
 30
0.0
 10
150.96284352274
 20
128.9541623840307
 30
0.0
 10
151.3226240154355
 20
129.4727525294817
 30
0.0
 10
151.4878828755848
 20
129.7401835133685
 30
0.0
 10
151.680540785011
 20
130.171598645767
 30
0.0
 10
151.735505525221
 20
130.3216175276914
 30
0.0
 10
151.8132413101852
 20
130.6343547064214
 30
0.0
 10
151.8345074484935
 20
130.7921089532286
 30
0.0
 10
151.8364013777792
 20
131.1108142330744
 30
0.0
 10
151.8161756407122
 20
131.273251033255
 30
0.0
 10
151.7417112304263
 20
131.5842030328376
 30
0.0
 10
151.6880721046804
 20
131.7348742711653
 30
0.0
 10
151.4933277992797
 20
132.1769580291339
 30
0.0
 10
151.3262776861015
 20
132.4470020423016
 30
0.0
 10
150.9660215673979
 20
132.967109670583
 30
0.0
 10
150.7712691923774
 20
133.2167708833927
 30
0.0
 10
150.3682599679052
 20
133.7061949952354
 30
0.0
 10
150.1598234495416
 20
133.9455409183994
 30
0.0
 10
149.9482281693056
 20
134.1812182069673
 30
0.0
  0
SPLINE
  5
190
330
1F
100
AcDbEntity
  8
0
  6
HIDDEN
 62
     7
370
     0
100
AcDbSpline
210
0.0
220
0.0
230
1.0
 70
    11
 71
     3
 72
    68
 73
    64
 74
     0
 42
0.000000001
 43
0.00000001
 40
0.0
 40
0.0
 40
0.0
 40
0.0
 40
0.0312500000000005
 40
0.0312500000000005
 40
0.062500000000001
 40
0.062500000000001
 40
0.0937500000000011
 40
0.0937500000000011
 40
0.1250000000000012
 40
0.1250000000000012
 40
0.187500000000001
 40
0.187500000000001
 40
0.218750000000001
 40
0.218750000000001
 40
0.2500000000000009
 40
0.2500000000000009
 40
0.2812500000000009
 40
0.2812500000000009
 40
0.3125000000000009
 40
0.3125000000000009
 40
0.3437500000000008
 40
0.3437500000000008
 40
0.3750000000000008
 40
0.3750000000000008
 40
0.4062500000000008
 40
0.4062500000000008
 40
0.4375000000000007
 40
0.4375000000000007
 40
0.4687500000000007
 40
0.4687500000000007
 40
0.5000000000000007
 40
0.5000000000000007
 40
0.5312500000000007
 40
0.5312500000000007
 40
0.5625000000000006
 40
0.5625000000000006
 40
0.5937500000000006
 40
0.5937500000000006
 40
0.6250000000000006
 40
0.6250000000000006
 40
0.6562500000000004
 40
0.6562500000000004
 40
0.6875000000000004
 40
0.6875000000000004
 40
0.7187500000000004
 40
0.7187500000000004
 40
0.7500000000000003
 40
0.7500000000000003
 40
0.7812500000000003
 40
0.7812500000000003
 40
0.8125000000000003
 40
0.8125000000000003
 40
0.8437500000000003
 40
0.8437500000000003
 40
0.8750000000000002
 40
0.8750000000000002
 40
0.9062500000000002
 40
0.9062500000000002
 40
0.9375000000000002
 40
0.9375000000000002
 40
0.9687500000000001
 40
0.9687500000000001
 40
1.0
 40
1.0
 40
1.0
 40
1.0
 10
157.977286697787
 20
133.0187541436343
 30
0.0
 10
158.122518938933
 20
133.1779702641346
 30
0.0
 10
158.2814352373145
 20
133.3204877898382
 30
0.0
 10
158.6250159229523
 20
133.5742023269279
 30
0.0
 10
158.811187275858
 20
133.6857661534369
 30
0.0
 10
159.1957173484437
 20
133.8700151901059
 30
0.0
 10
159.3953278506084
 20
133.9439294561948
 30
0.0
 10
159.809167435582
 20
134.0555713457549
 30
0.0
 10
160.0219772452532
 20
134.0924954000437
 30
0.0
 10
160.6579087195939
 20
134.1450972206192
 30
0.0
 10
161.0929749402217
 20
134.102888829959
 30
0.0
 10
161.7052178072093
 20
133.9290542247636
 30
0.0
 10
161.9050628953214
 20
133.8524359969516
 30
0.0
 10
162.2894402040495
 20
133.6622611286086
 30
0.0
 10
162.469988594912
 20
133.5509016943901
 30
0.0
 10
162.8080485226216
 20
133.2957964256677
 30
0.0
 10
162.9670803390328
 20
133.150290637475
 30
0.0
 10
163.2518770192552
 20
132.8320519833021
 30
0.0
 10
163.3768225481301
 20
132.660999664783
 30
0.0
 10
163.5911246885438
 20
132.2944390786699
 30
0.0
 10
163.6810234677186
 20
132.0963703448673
 30
0.0
 10
163.8146757568476
 20
131.6917875916578
 30
0.0
 10
163.8596836921616
 20
131.4841724116408
 30
0.0
 10
163.904463172779
 20
131.0578826552119
 30
0.0
 10
163.9033895117632
 20
130.8412443572635
 30
0.0
 10
163.8553697180477
 20
130.4182843303062
 30
0.0
 10
163.8079567408228
 20
130.2072876450468
 30
0.0
 10
163.6696414920061
 20
129.801498929615
 30
0.0
 10
163.579960633784
 20
129.6085522709525
 30
0.0
 10
163.3612779234568
 20
129.2416456479691
 30
0.0
 10
163.2318302056281
 20
129.068140499747
 30
0.0
 10
162.9453246015986
 20
128.7541384017564
 30
0.0
 10
162.7864657833607
 20
128.611035475302
 30
0.0
 10
162.4414679614077
 20
128.355704559449
 30
0.0
 10
162.2592508572874
 20
128.2461723818485
 30
0.0
 10
161.8764107806484
 20
128.0612455550603
 30
0.0
 10
161.6736665555752
 20
127.9854297282188
 30
0.0
 10
161.2618379811119
 20
127.8728492359767
 30
0.0
 10
161.0526192045124
 20
127.835509016392
 30
0.0
 10
160.6276263702779
 20
127.7982779968619
 30
0.0
 10
160.4104690932047
 20
127.7988439607935
 30
0.0
 10
159.9860912540516
 20
127.8382416646829
 30
0.0
 10
159.7769746062019
 20
127.8766708993171
 30
0.0
 10
159.3650336173079
 20
127.9918759338546
 30
0.0
 10
159.1624655124148
 20
128.069140864359
 30
0.0
 10
158.7808650699475
 20
128.2568231344909
 30
0.0
 10
158.5995541340683
 20
128.3677364863029
 30
0.0
 10
158.2569622371342
 20
128.6256899250337
 30
0.0
 10
158.0981386201801
 20
128.7714056206431
 30
0.0
 10
157.8150938410797
 20
129.0877267783526
 30
0.0
 10
157.6890839090939
 20
129.2597604897517
 30
0.0
 10
157.471976865279
 20
129.6323030677408
 30
0.0
 10
157.3845415690051
 20
129.8264248530148
 30
0.0
 10
157.2513482884575
 20
130.2301995820944
 30
0.0
 10
157.2054477063529
 20
130.4426965087019
 30
0.0
 10
157.1611311654191
 20
130.86829236956
 30
0.0
 10
157.1619733529015
 20
131.0811262078292
 30
0.0
 10
157.2098120473225
 20
131.5068659376591
 30
0.0
 10
157.2573479027917
 20
131.7186281030723
 30
0.0
 10
157.3940864980196
 20
132.1221176375296
 30
0.0
 10
157.4843700432952
 20
132.3178762584826
 30
0.0
 10
157.7040809355602
 20
132.6874764852308
 30
0.0
 10
157.8320544566412
 20
132.859538023134
 30
0.0
 10
157.9772866977871
 20
133.0187541436343
 30
0.0
  0
CIRCLE
  5
191
330
1F
100
AcDbEntity
  8
0
  6
HIDDEN
 62
     7
370
     0
100
AcDbCircle
 10
160.4482281693
 20
130.9627204465
 30
0.0
 40
3.050000000000011
  0
ELLIPSE
  5
192
330
1F
100
AcDbEntity
  8
0
  6
HIDDEN
 62
     7
370
     0
100
AcDbEllipse
 10
223.7237839647
 20
130.9627204465
 30
0.0
 11
21.1251682481149
 21
25.42550364492914
 31
0.0
210
0.0
220
0.0
230
1.0
 40
0.0922008664
 41
1.647253494580917
 42
2.325271453078435
  0
CIRCLE
  5
193
330
1F
100
AcDbEntity
  8
0
  6
HIDDEN
 62
     7
370
     0
100
AcDbCircle
 10
186.4482281693
 20
130.9627204465
 30
0.0
 40
2.0
  0
LINE
  5
194
330
1F
100
AcDbEntity
  8
0
  6
HIDDEN
 62
     7
370
     0
100
AcDbLine
 10
226.292537018
 20
138.9233907252
 30
0.0
 11
226.3019499568
 21
140.9627204465
 31
0.0
  0
LINE
  5
195
330
1F
100
AcDbEntity
  8
0
  6
HIDDEN
 62
     7
370
     0
100
AcDbLine
 10
219.7727817028
 20
130.9627204465
 30
0.0
 11
226.292537018
 21
138.9233907252
 31
0.0
  0
LINE
  5
196
330
1F
100
AcDbEntity
  8
0
  6
HIDDEN
 62
     7
370
     0
100
AcDbLine
 10
189.4482281693
 20
144.5780551895
 30
0.0
 11
189.4482281693
 21
140.7662230768
 31
0.0
  0
LINE
  5
197
330
1F
100
AcDbEntity
  8
0
  6
HIDDEN
 62
     7
370
     0
100
AcDbLine
 10
195.4482281693
 20
140.7662230768
 30
0.0
 11
195.4482281693
 21
144.5786873659
 31
0.0
  0
LINE
  5
198
330
1F
100
AcDbEntity
  8
0
  6
HIDDEN
 62
     7
370
     0
100
AcDbLine
 10
174.4482281693
 20
111.4127204465
 30
0.0
 11
174.5411213881
 21
111.5056136653
 31
0.0
  0
LINE
  5
199
330
1F
100
AcDbEntity
  8
0
  6
HIDDEN
 62
     7
370
     0
100
AcDbLine
 10
174.5411213881
 20
150.4198272277
 30
0.0
 11
174.4482281693
 21
150.5127204465
 31
0.0
  0
ARC
  5
19A
330
1F
100
AcDbEntity
  8
0
  6
HIDDEN
 62
     7
370
     0
100
AcDbCircle
 10
173.8340146069
 20
112.2127204465
 30
0.0
 40
1.0
100
AcDbArc
 50
315.0
 51
0.0
  0
ARC
  5
19B
330
1F
100
AcDbEntity
  8
0
  6
HIDDEN
 62
     7
370
     0
100
AcDbCircle
 10
173.8340146069
 20
112.2127204465
 30
0.0
 40
1.0
100
AcDbArc
 50
0.0
 51
52.1052014664
  0
ARC
  5
19C
330
1F
100
AcDbEntity
  8
0
  6
HIDDEN
 62
     7
370
     0
100
AcDbCircle
 10
173.8340146069
 20
149.7127204465
 30
0.0
 40
1.000000000000006
100
AcDbArc
 50
351.8087250651
 51
45.0
  0
ARC
  5
19D
330
1F
100
AcDbEntity
  8
0
  6
HIDDEN
 62
     7
370
     0
100
AcDbCircle
 10
173.8340146069
 20
149.7127204465
 30
0.0
 40
1.000000000000006
100
AcDbArc
 50
307.8947985336
 51
351.8087250651
  0
LINE
  5
19E
330
1F
100
AcDbEntity
  8
0
  6
HIDDEN
 62
     7
370
     0
100
AcDbLine
 10
174.8340146069
 20
112.2127204465
 30
0.0
 11
174.8340146069
 21
149.7127204465
 31
0.0
  0
LINE
  5
19F
330
1F
100
AcDbEntity
  8
0
  6
HIDDEN
 62
     7
370
     0
100
AcDbLine
 10
174.8340146069
 20
112.2127204465
 30
0.0
 11
174.8340146069
 21
149.7127204465
 31
0.0
  0
LINE
  5
1A0
330
1F
100
AcDbEntity
  8
0
  6
HIDDEN
 62
     7
370
     0
100
AcDbLine
 10
189.9482281693
 20
140.6025970029
 30
0.0
 11
189.9482281693
 21
134.9098442871
 31
0.0
  0
LINE
  5
1A1
330
1F
100
AcDbEntity
  8
0
  6
HIDDEN
 62
     7
370
     0
100
AcDbLine
 10
194.9482281693
 20
140.3150560763
 30
0.0
 11
194.9482281693
 21
140.6025970029
 31
0.0
  0
LINE
  5
1A2
330
1F
100
AcDbEntity
  8
0
  6
HIDDEN
 62
     7
370
     0
100
AcDbLine
 10
194.9482281693
 20
134.9096670228
 30
0.0
 11
194.9482281693
 21
138.1371550964
 31
0.0
  0
LINE
  5
1A3
330
1F
100
AcDbEntity
  8
0
  6
HIDDEN
 62
     7
370
     0
100
AcDbLine
 10
203.3575498668
 20
149.363384404
 30
0.0
 11
191.8841011949
 21
141.8140862913
 31
0.0
  0
LINE
  5
1A4
330
1F
100
AcDbEntity
  8
0
  6
HIDDEN
 62
     7
370
     0
100
AcDbLine
 10
194.742380337
 20
137.7095080354
 30
0.0
 11
203.2147290943
 21
143.2841428565
 31
0.0
  0
ARC
  5
1A5
330
1F
100
AcDbEntity
  8
0
  6
HIDDEN
 62
     7
370
     0
100
AcDbCircle
 10
150.9482281693
 20
120.4627204465
 30
0.0
 40
1.500000000000014
100
AcDbArc
 50
191.0958032831
 51
270.0
  0
ARC
  5
1A6
330
1F
100
AcDbEntity
  8
0
  6
HIDDEN
 62
     7
370
     0
100
AcDbCircle
 10
150.9482281693
 20
141.4627204465
 30
0.0
 40
1.500000000000014
100
AcDbArc
 50
90.0
 51
168.9041967169
  0
LINE
  5
1A7
330
1F
100
AcDbEntity
  8
0
  6
HIDDEN
 62
     7
370
     0
100
AcDbLine
 10
150.9482281693
 20
118.9627204465
 30
0.0
 11
151.9549476814
 21
118.9627204465
 31
0.0
  0
LINE
  5
1A8
330
1F
100
AcDbEntity
  8
0
  6
HIDDEN
 62
     7
370
     0
100
AcDbLine
 10
151.9549476814
 20
142.9627204465
 30
0.0
 11
150.9482281693
 21
142.9627204465
 31
0.0
  0
ARC
  5
1A9
330
1F
100
AcDbEntity
  8
0
  6
HIDDEN
 62
     7
370
     0
100
AcDbCircle
 10
151.9549476814
 20
120.4627204465
 30
0.0
 40
1.500000000000014
100
AcDbArc
 50
270.0
 51
315.0
  0
ARC
  5
1AA
330
1F
100
AcDbEntity
  8
0
  6
HIDDEN
 62
     7
370
     0
100
AcDbCircle
 10
151.9549476814
 20
141.4627204465
 30
0.0
 40
1.5
100
AcDbArc
 50
45.0
 51
90.0
  0
LINE
  5
1AB
330
1F
100
AcDbEntity
  8
0
  6
HIDDEN
 62
     7
370
     0
100
AcDbLine
 10
191.3503022817
 20
141.2921012786
 30
0.0
 11
191.3586693934
 21
141.1805358514
 31
0.0
  0
LINE
  5
1AC
330
1F
100
AcDbEntity
  8
0
  6
HIDDEN
 62
     7
370
     0
100
AcDbLine
 10
144.4482281693
 20
119.1993083781
 30
0.0
 11
145.4762680249
 21
119.7928474654
 31
0.0
  0
LINE
  5
1AD
330
1F
100
AcDbEntity
  8
0
  6
HIDDEN
 62
     7
370
     0
100
AcDbLine
 10
145.4762680249
 20
142.1325934276
 30
0.0
 11
144.4482281693
 21
142.726132515
 31
0.0
  0
LINE
  5
1AE
330
1F
100
AcDbEntity
  8
0
  6
HIDDEN
 62
     7
370
     0
100
AcDbLine
 10
153.0156078531
 20
119.4020602747
 30
0.0
 11
154.0762680249
 21
120.4627204465
 31
0.0
  0
LINE
  5
1AF
330
1F
100
AcDbEntity
  8
0
  6
HIDDEN
 62
     7
370
     0
100
AcDbLine
 10
154.0762680249
 20
141.4627204465
 30
0.0
 11
153.0156078531
 21
142.5233806183
 31
0.0
  0
LINE
  5
1B0
330
1F
100
AcDbEntity
  8
0
  6
HIDDEN
 62
     7
370
     0
100
AcDbLine
 10
145.4762680249
 20
119.7928474654
 30
0.0
 11
147.9762680249
 21
120.4627204465
 31
0.0
  0
LINE
  5
1B1
330
1F
100
AcDbEntity
  8
0
  6
HIDDEN
 62
     7
370
     0
100
AcDbLine
 10
147.9762680249
 20
141.4627204465
 30
0.0
 11
145.4762680249
 21
142.1325934276
 31
0.0
  0
LINE
  5
1B2
330
1F
100
AcDbEntity
  8
0
  6
HIDDEN
 62
     7
370
     0
100
AcDbLine
 10
149.4762680249
 20
141.7513955811
 30
0.0
 11
148.9762680249
 21
141.4627204465
 31
0.0
  0
LINE
  5
1B3
330
1F
100
AcDbEntity
  8
0
  6
HIDDEN
 62
     7
370
     0
100
AcDbLine
 10
148.9762680249
 20
120.4627204465
 30
0.0
 11
149.4762680249
 21
120.1740453119
 31
0.0
  0
LINE
  5
1B4
330
1F
100
AcDbEntity
  8
0
  6
HIDDEN
 62
     7
370
     0
100
AcDbLine
 10
147.9762680249
 20
120.4627204465
 30
0.0
 11
148.9762680249
 21
120.4627204465
 31
0.0
  0
LINE
  5
1B5
330
1F
100
AcDbEntity
  8
0
  6
HIDDEN
 62
     7
370
     0
100
AcDbLine
 10
148.9762680249
 20
141.4627204465
 30
0.0
 11
147.9762680249
 21
141.4627204465
 31
0.0
  0
LINE
  5
1B6
330
1F
100
AcDbEntity
  8
0
  6
HIDDEN
 62
     7
370
     0
100
AcDbLine
 10
154.0762680249
 20
120.4627204465
 30
0.0
 11
163.9482281693
 21
120.4627204465
 31
0.0
  0
LINE
  5
1B7
330
1F
100
AcDbEntity
  8
0
  6
HIDDEN
 62
     7
370
     0
100
AcDbLine
 10
163.9482281693
 20
141.4627204465
 30
0.0
 11
154.0762680249
 21
141.4627204465
 31
0.0
  0
ARC
  5
1B8
330
1F
100
AcDbEntity
  8
0
  6
HIDDEN
 62
     7
370
     0
100
AcDbCircle
 10
163.9482281693
 20
120.9627204465
 30
0.0
 40
0.5
100
AcDbArc
 50
270.0
 51
0.0
  0
ARC
  5
1B9
330
1F
100
AcDbEntity
  8
0
  6
HIDDEN
 62
     7
370
     0
100
AcDbCircle
 10
163.9482281693
 20
140.9627204465
 30
0.0
 40
0.5
100
AcDbArc
 50
0.0
 51
90.0
  0
LINE
  5
1BA
330
1F
100
AcDbEntity
  8
0
  6
HIDDEN
 62
     7
370
     0
100
AcDbLine
 10
164.4482281693
 20
122.7127204465
 30
0.0
 11
165.4482281693
 21
123.7127204465
 31
0.0
  0
LINE
  5
1BB
330
1F
100
AcDbEntity
  8
0
  6
HIDDEN
 62
     7
370
     0
100
AcDbLine
 10
165.4482281693
 20
138.2127204465
 30
0.0
 11
164.4482281693
 21
139.2127204465
 31
0.0
  0
LINE
  5
1BC
330
1F
100
AcDbEntity
  8
0
  6
HIDDEN
 62
     7
370
     0
100
AcDbLine
 10
165.4482281693
 20
123.7127204465
 30
0.0
 11
198.4482281693
 21
123.7127204465
 31
0.0
  0
LINE
  5
1BD
330
1F
100
AcDbEntity
  8
0
  6
HIDDEN
 62
     7
370
     0
100
AcDbLine
 10
198.4482281693
 20
138.2127204465
 30
0.0
 11
165.4482281693
 21
138.2127204465
 31
0.0
  0
LINE
  5
1BE
330
1F
100
AcDbEntity
  8
0
  6
HIDDEN
 62
     7
370
     0
100
AcDbLine
 10
198.4482281693
 20
123.7127204465
 30
0.0
 11
202.8044676573
 21
130.9627204465
 31
0.0
  0
LINE
  5
1BF
330
1F
100
AcDbEntity
  8
0
  6
HIDDEN
 62
     7
370
     0
100
AcDbLine
 10
202.8044676573
 20
130.9627204465
 30
0.0
 11
198.4482281693
 21
138.2127204465
 31
0.0
  0
LINE
  5
1C0
330
1F
100
AcDbEntity
  8
0
  6
HIDDEN
 62
     7
370
     0
100
AcDbLine
 10
223.3549197493
 20
149.9580402823
 30
0.0
 11
224.5096801308
 21
150.1294723722
 31
0.0
  0
LINE
  5
1C1
330
1F
100
AcDbEntity
  8
0
  6
HIDDEN
 62
     7
370
     0
100
AcDbLine
 10
217.6482281693
 20
165.2299396686
 30
0.0
 11
217.6482281693
 21
162.2986159808
 31
0.0
  0
LINE
  5
1C2
330
1F
100
AcDbEntity
  8
0
  6
HIDDEN
 62
     7
370
     0
100
AcDbLine
 10
223.2482281693
 20
162.2986159808
 30
0.0
 11
223.2482281693
 21
165.2550081907
 31
0.0
  0
LINE
  5
1C3
330
1F
100
AcDbEntity
  8
0
  6
HIDDEN
 62
     7
370
     0
100
AcDbLine
 10
219.1591781693
 20
162.2986159808
 30
0.0
 11
219.1591781693
 21
154.301357381
 31
0.0
  0
LINE
  5
1C4
330
1F
100
AcDbEntity
  8
0
  6
HIDDEN
 62
     7
370
     0
100
AcDbLine
 10
221.7372781693
 20
154.301357381
 30
0.0
 11
221.7372781693
 21
162.2986159808
 31
0.0
  0
LINE
  5
1C5
330
1F
100
AcDbEntity
  8
0
  6
HIDDEN
 62
     7
370
     0
100
AcDbLine
 10
219.1604028824
 20
154.2998868205
 30
0.0
 11
220.4482281693
 21
153.5270834154
 31
0.0
  0
LINE
  5
1C6
330
1F
100
AcDbEntity
  8
0
  6
HIDDEN
 62
     7
370
     0
100
AcDbLine
 10
220.4482281693
 20
153.5270834154
 30
0.0
 11
221.7360534562
 21
154.2998868205
 31
0.0
  0
LINE
  5
1C7
330
1F
100
AcDbEntity
  8
0
  6
HIDDEN
 62
     7
370
     0
100
AcDbLine
 10
224.9681777926
 20
162.1003552799
 30
0.0
 11
223.4921682825
 21
161.8812315559
 31
0.0
  0
LINE
  5
1C8
330
1F
100
AcDbEntity
  8
0
  6
HIDDEN
 62
     7
370
     0
100
AcDbLine
 10
223.8707557003
 20
159.3310803492
 30
0.0
 11
225.3467652104
 21
159.5502040731
 31
0.0
  0
LINE
  5
1C9
330
1F
100
AcDbEntity
  8
VERMASSUNG
  6
CENTERX2
100
AcDbLine
 10
234.4482281693
 20
165.9627204465
 30
0.0
 11
234.4482281693
 21
130.9627204465
 31
0.0
  0
LINE
  5
1CA
330
1F
100
AcDbEntity
  8
VERMASSUNG
  6
CENTERX2
100
AcDbLine
 10
232.862170023
 20
165.9627204465
 30
0.0
 11
234.4482281693
 21
165.9627204465
 31
0.0
  0
LINE
  5
1CB
330
1F
100
AcDbEntity
  8
VERMASSUNG
  6
CENTERX2
100
AcDbLine
 10
142.121273845
 20
130.9627204465
 30
0.0
 11
234.4482281693
 21
130.9627204465
 31
0.0
  0
DIMENSION
  5
1CC
330
1F
100
AcDbEntity
  8
VERMASSUNG
100
AcDbDimension
  2
_D
 10
234.4482281693
 20
172.9820710245
 30
0.0
 11
204.4482281693
 21
172.9820710245
 31
0.0
 70
   160
  1
<>
 71
     2
 42
-1.0
  3
SLDDIMSTYLE0
100
AcDbAlignedDimension
 13
174.4482281693
 23
155.6627204465
 33
0.0
 14
234.4482281693
 24
165.9627204465
 34
0.0
100
AcDbRotatedDimension
  0
DIMENSION
  5
1D7
330
1F
100
AcDbEntity
  8
VERMASSUNG
100
AcDbDimension
  2
_D_1
 10
240.9497032959
 20
165.9627204465
 30
0.0
 11
240.9497032959
 21
148.4627204465
 31
0.0
 70
   160
  1
<>
 71
     2
 42
-1.0
  3
SLDDIMSTYLE0
100
AcDbAlignedDimension
 13
234.4482281693
 23
130.9627204465
 33
0.0
 14
234.4482281693
 24
165.9627204465
 34
0.0
 50
90.0
100
AcDbRotatedDimension
  0
DIMENSION
  5
1E1
330
1F
100
AcDbEntity
  8
VERMASSUNG
100
AcDbDimension
  2
_D_2
 10
234.4482281693
 20
180.9531923736
 30
0.0
 11
189.4482281693
 21
180.9531923736
 31
0.0
 70
   160
  1
<>
 71
     2
 42
-1.0
  3
SLDDIMSTYLE0
100
AcDbAlignedDimension
 13
144.4482281693
 23
146.9560462847
 33
0.0
 14
234.4482281693
 24
165.9627204465
 34
0.0
100
AcDbRotatedDimension
  0
DIMENSION
  5
1EB
330
1F
100
AcDbEntity
  8
VERMASSUNG
100
AcDbDimension
  2
_D_3
 10
137.6954314163
 20
155.9627204465
 30
0.0
 11
137.6954314163
 21
130.9627204465
 31
0.0
 70
   160
  1
PSC%%c<>
 71
     2
 42
-1.0
  3
SLDDIMSTYLE0
100
AcDbAlignedDimension
 13
174.7482281693
 23
105.9627204465
 33
0.0
 14
174.7482281693
 24
155.9627204465
 34
0.0
 50
90.0
100
AcDbRotatedDimension
  0
LINE
  5
1F7
330
1F
100
AcDbEntity
  8
0
  6
Continuous
 62
     7
370
    15
100
AcDbLine
 10
69.1707328214
 20
163.6199607427
 30
0.0
 11
69.04595699
 21
163.4032465218
 31
0.0
  0
LINE
  5
1F8
330
1F
100
AcDbEntity
  8
0
  6
Continuous
 62
     7
370
    15
100
AcDbLine
 10
68.9203754999
 20
158.607482901
 30
0.0
 11
68.9714550764
 21
158.5069374918
 31
0.0
  0
LINE
  5
1F9
330
1F
100
AcDbEntity
  8
0
  6
Continuous
 62
     7
370
    15
100
AcDbLine
 10
69.4099292668
 20
163.7451322077
 30
0.0
 11
69.3199641373
 21
163.7474880276
 31
0.0
  0
LINE
  5
1FA
330
1F
100
AcDbEntity
  8
0
  6
Continuous
 62
     7
370
    15
100
AcDbLine
 10
69.3097750512
 20
161.5680178267
 30
0.0
 11
69.3199104689
 21
161.5677524215
 31
0.0
  0
LINE
  5
1FB
330
1F
100
AcDbEntity
  8
0
  6
Continuous
 62
     7
370
    15
100
AcDbLine
 10
69.2684430605
 20
160.1078679256
 30
0.0
 11
69.1757123173
 21
160.1102961656
 31
0.0
  0
LINE
  5
1FC
330
1F
100
AcDbEntity
  8
0
  6
Continuous
 62
     7
370
    15
100
AcDbLine
 10
69.0577173324
 20
161.8934390719
 30
0.0
 11
69.2294408284
 21
161.8889423339
 31
0.0
  0
LINE
  5
1FD
330
1F
100
AcDbEntity
  8
0
  6
Continuous
 62
     7
370
    15
100
AcDbLine
 10
69.2736832465
 20
160.4265515881
 30
0.0
 11
68.9236545985
 21
160.4357174108
 31
0.0
  0
ARC
  5
1FE
330
1F
100
AcDbEntity
  8
0
  6
Continuous
 62
     7
370
    15
100
AcDbCircle
 10
79.4235863747
 20
165.2631722926
 30
0.0
 40
0.1999999999999926
100
AcDbArc
 50
358.5
 51
88.5
  0
LINE
  5
1FF
330
1F
100
AcDbEntity
  8
0
  6
Continuous
 62
     7
370
    15
100
AcDbLine
 10
79.6104267261
 20
164.7580074459
 30
0.0
 11
79.6235178396
 21
165.257936903
 31
0.0
  0
LWPOLYLINE
  5
200
330
1F
100
AcDbEntity
  8
0
  6
Continuous
 62
     7
370
    15
100
AcDbPolyline
 90
        5
 70
   128
 43
0.0
 10
69.1707328214
 20
163.6199607427
 10
69.1861268664
 20
163.6452668776
 10
69.2904980863
 20
163.7430623042
 10
69.3928810921
 20
163.7125217927
 10
69.4346668124
 20
163.6607331064
  0
LWPOLYLINE
  5
201
330
1F
100
AcDbEntity
  8
0
  6
Continuous
 62
     7
370
    15
100
AcDbPolyline
 90
       29
 70
   128
 43
0.0
 10
68.7026858026
 20
161.5364032824
 10
68.7476411819
 20
162.0705890364
 10
68.8111034548
 20
162.5511846359
 10
68.8898903578
 20
162.9540910108
 10
68.9800511869
 20
163.259104753
 10
69.0770649013
 20
163.4509311999
 10
69.1760668285
 20
163.5199513725
 10
69.2720925985
 20
163.4627043111
 10
69.360327078
 20
163.2820606223
 10
69.4363458219
 20
162.9870785351
 10
69.496336933
 20
162.592549683
 10
69.5372922064
 20
162.1182573901
 10
69.5571579738
 20
161.5879846525
 10
69.5549380825
 20
161.0283215593
 10
69.5307438472
 20
160.4673319551
 10
69.4857884679
 20
159.9331462012
 10
69.422326195
 20
159.4525506016
 10
69.3435392919
 20
159.0496442267
 10
69.2533784629
 20
158.7446304845
 10
69.1563647484
 20
158.5528040376
 10
69.0573628212
 20
158.483783865
 10
68.9613370513
 20
158.5410309264
 10
68.8731025717
 20
158.7216746152
 10
68.7970838278
 20
159.0166567024
 10
68.7370927167
 20
159.4111855545
 10
68.6961374433
 20
159.8854778474
 10
68.676271676
 20
160.415750585
 10
68.6784915673
 20
160.9754136782
 10
68.7026858026
 20
161.5364032824
  0
ARC
  5
202
330
1F
100
AcDbEntity
  8
0
  6
Continuous
 62
     7
370
    15
100
AcDbCircle
 10
69.5002863076
 20
160.660577599
 30
0.0
 40
0.6235410157005985
100
AcDbArc
 50
162.2703086394
 51
201.190320787
  0
ARC
  5
203
330
1F
100
AcDbEntity
  8
0
  6
Continuous
 62
     7
370
    15
100
AcDbCircle
 10
68.2642217815
 20
160.050069218
 30
0.0
 40
0.7595578120657496
100
AcDbArc
 50
348.3693552949
 51
30.4662225588
  0
LWPOLYLINE
  5
204
330
1F
100
AcDbEntity
  8
0
  6
Continuous
 62
     7
370
    15
100
AcDbPolyline
 90
        9
 70
   128
 43
0.0
 10
69.0081840205
 20
159.8969409814
 10
69.0090897295
 20
159.8252684524
 10
69.0140652634
 20
159.762399408
 10
69.0225861222
 20
159.7149612432
 10
69.0337540719
 20
159.6879546938
 10
69.0463918334
 20
159.6842266788
 10
69.0591671861
 20
159.70417019
 10
69.070733405
 20
159.7456828649
 10
69.0798712269
 20
159.8043886085
  0
LWPOLYLINE
  5
205
330
1F
100
AcDbEntity
  8
0
  6
Continuous
 62
     7
370
    15
100
AcDbPolyline
 90
        9
 70
   128
 43
0.0
 10
69.0798712269
 20
159.8043886085
 10
69.0927466553
 20
159.8972188685
 10
69.1082083809
 20
159.9765439182
 10
69.1256690031
 20
160.0393501498
 10
69.1444651822
 20
160.0832515155
 10
69.1638828395
 20
160.1065801751
 10
69.1831842862
 20
160.1084498585
 10
69.2016362484
 20
160.0887895351
 10
69.2185377245
 20
160.0483461128
  0
LWPOLYLINE
  5
206
330
1F
100
AcDbEntity
  8
0
  6
Continuous
 62
     7
370
    15
100
AcDbPolyline
 90
        9
 70
   128
 43
0.0
 10
69.2185377245
 20
160.0483461128
 10
69.2301211472
 20
160.0260954843
 10
69.2429015245
 20
160.0274160456
 10
69.2555316018
 20
160.0521685884
 10
69.2666799683
 20
160.097743802
 10
69.2751714094
 20
160.1593373352
 10
69.2801107923
 20
160.2304562521
 10
69.2809774277
 20
160.3036034898
 10
69.2776799584
 20
160.3710681682
  0
ARC
  5
207
330
1F
100
AcDbEntity
  8
0
  6
Continuous
 62
     7
370
    15
100
AcDbCircle
 10
71.8194188481
 20
160.6032437056
 30
0.0
 40
2.552320917084322
100
AcDbArc
 50
167.5550477938
 51
185.2192078732
  0
ARC
  5
208
330
1F
100
AcDbEntity
  8
0
  6
Continuous
 62
     7
370
    15
100
AcDbCircle
 10
68.7331433421
 20
161.3431576385
 30
0.0
 40
0.623541015700265
100
AcDbArc
 50
342.2703086394
 51
21.190320787
  0
ARC
  5
209
330
1F
100
AcDbEntity
  8
0
  6
Continuous
 62
     7
370
    15
100
AcDbCircle
 10
69.9692078682
 20
161.9536660195
 30
0.0
 40
0.7595578120657669
100
AcDbArc
 50
168.3693552949
 51
210.4662225589
  0
LWPOLYLINE
  5
20A
330
1F
100
AcDbEntity
  8
0
  6
Continuous
 62
     7
370
    15
100
AcDbPolyline
 90
        9
 70
   128
 43
0.0
 10
69.2252456292
 20
162.1067942561
 10
69.2243399203
 20
162.1784667851
 10
69.2193643863
 20
162.2413358295
 10
69.2108435276
 20
162.2887739943
 10
69.1996755779
 20
162.3157805437
 10
69.1870378163
 20
162.3195085587
 10
69.1742624636
 20
162.2995650475
 10
69.1626962448
 20
162.2580523726
 10
69.1535584229
 20
162.199346629
  0
LWPOLYLINE
  5
20B
330
1F
100
AcDbEntity
  8
0
  6
Continuous
 62
     7
370
    15
100
AcDbPolyline
 90
        9
 70
   128
 43
0.0
 10
69.1535584229
 20
162.199346629
 10
69.1406829945
 20
162.106516369
 10
69.1252212689
 20
162.0271913193
 10
69.1077606466
 20
161.9643850877
 10
69.0889644676
 20
161.920483722
 10
69.0695468103
 20
161.8971550624
 10
69.0502453635
 20
161.895285379
 10
69.0317934014
 20
161.9149457024
 10
69.0148919252
 20
161.9553891247
  0
LWPOLYLINE
  5
20C
330
1F
100
AcDbEntity
  8
0
  6
Continuous
 62
     7
370
    15
100
AcDbPolyline
 90
        9
 70
   128
 43
0.0
 10
69.0148919252
 20
161.9553891247
 10
69.0033085025
 20
161.9776397532
 10
68.9905281252
 20
161.976319192
 10
68.977898048
 20
161.9515666491
 10
68.9667496814
 20
161.9059914355
 10
68.9582582403
 20
161.8443979023
 10
68.9533188574
 20
161.7732789854
 10
68.9524522221
 20
161.7001317478
 10
68.9557496914
 20
161.6326670693
  0
ARC
  5
20D
330
1F
100
AcDbEntity
  8
0
  6
Continuous
 62
     7
370
    15
100
AcDbCircle
 10
66.4140108016
 20
161.4004915319
 30
0.0
 40
2.552320917083823
100
AcDbArc
 50
347.5550477938
 51
5.2192078732
  0
LINE
  5
20E
330
1F
100
AcDbEntity
  8
0
  6
Continuous
 62
     7
370
    15
100
AcDbLine
 10
68.2023361909
 20
165.9646389711
 30
0.0
 11
68.0134921877
 21
165.3860076796
 31
0.0
  0
LINE
  5
20F
330
1F
100
AcDbEntity
  8
0
  6
Continuous
 62
     7
370
    15
100
AcDbLine
 10
70.4794912897
 20
165.9646389711
 30
0.0
 11
68.2023361909
 21
165.9646389711
 31
0.0
  0
LINE
  5
210
330
1F
100
AcDbEntity
  8
0
  6
Continuous
 62
     7
370
    15
100
AcDbLine
 10
70.5639823289
 20
165.6647386733
 30
0.0
 11
70.4794912897
 21
165.9646389711
 31
0.0
  0
LINE
  5
211
330
1F
100
AcDbEntity
  8
0
  6
Continuous
 62
     7
370
    15
100
AcDbLine
 10
70.558904858
 20
165.4648051413
 30
0.0
 11
70.5639823289
 21
165.6647386733
 31
0.0
  0
LINE
  5
212
330
1F
100
AcDbEntity
  8
0
  6
Continuous
 62
     7
370
    15
100
AcDbLine
 10
70.4591814063
 20
165.1649048435
 30
0.0
 11
70.558904858
 21
165.4648051413
 31
0.0
  0
LINE
  5
213
330
1F
100
AcDbEntity
  8
0
  6
Continuous
 62
     7
370
    15
100
AcDbLine
 10
70.4297918038
 20
164.0076422604
 30
0.0
 11
70.4591814063
 21
165.1649048435
 31
0.0
  0
LINE
  5
214
330
1F
100
AcDbEntity
  8
0
  6
Continuous
 62
     7
370
    15
100
AcDbLine
 10
69.0029929366
 20
152.6584671152
 30
0.0
 11
70.4297918038
 21
164.0076422604
 31
0.0
  0
LINE
  5
215
330
1F
100
AcDbEntity
  8
0
  6
Continuous
 62
     7
370
    15
100
AcDbLine
 10
68.9039592118
 20
152.3493614619
 30
0.0
 11
69.0029929366
 21
152.6584671152
 31
0.0
  0
LINE
  5
216
330
1F
100
AcDbEntity
  8
0
  6
Continuous
 62
     7
370
    15
100
AcDbLine
 10
68.8764112015
 20
152.4493282279
 30
0.0
 11
68.9039592118
 21
152.3493614619
 31
0.0
  0
LINE
  5
217
330
1F
100
AcDbEntity
  8
0
  6
Continuous
 62
     7
370
    15
100
AcDbLine
 10
68.8928008956
 20
153.0583341791
 30
0.0
 11
68.8764112015
 21
152.4493282279
 31
0.0
  0
LINE
  5
218
330
1F
100
AcDbEntity
  8
0
  6
Continuous
 62
     7
370
    15
100
AcDbLine
 10
68.733346495
 20
153.6369654706
 30
0.0
 11
68.8928008956
 21
153.0583341791
 31
0.0
  0
LINE
  5
219
330
1F
100
AcDbEntity
  8
0
  6
Continuous
 62
     7
370
    15
100
AcDbLine
 10
67.8829902633
 20
164.9861406158
 30
0.0
 11
68.733346495
 21
153.6369654706
 31
0.0
  0
LINE
  5
21A
330
1F
100
AcDbEntity
  8
0
  6
Continuous
 62
     7
370
    15
100
AcDbLine
 10
67.8975329489
 20
165.5951465669
 30
0.0
 11
67.8829902633
 21
164.9861406158
 31
0.0
  0
LINE
  5
21B
330
1F
100
AcDbEntity
  8
0
  6
Continuous
 62
     7
370
    15
100
AcDbLine
 10
67.93015843
 20
165.6951133329
 30
0.0
 11
67.8975329489
 21
165.5951465669
 31
0.0
  0
LINE
  5
21C
330
1F
100
AcDbEntity
  8
0
  6
Continuous
 62
     7
370
    15
100
AcDbLine
 10
68.0134921877
 20
165.3860076796
 30
0.0
 11
67.93015843
 21
165.6951133329
 31
0.0
  0
LWPOLYLINE
  5
21D
330
1F
100
AcDbEntity
  8
0
  6
Continuous
 62
     7
370
    15
100
AcDbPolyline
 90
       30
 70
   128
 43
0.0
 10
69.5867379356
 20
162.627608649
 10
69.5361268219
 20
163.124711786
 10
69.4661434075
 20
163.5319616609
 10
69.3800600392
 20
163.8303157222
 10
69.2819018794
 20
164.0058232655
 10
69.1762586947
 20
164.0502777533
 10
69.068070243
 20
163.9616005429
 10
68.962395296
 20
163.7439380824
 10
68.8641750969
 20
163.4074680263
 10
68.7780023129
 20
162.9679233405
 10
68.7079062876
 20
162.4458566461
 10
68.6571646334
 20
161.8656792015
 10
68.6281499735
 20
161.2545194591
 10
68.6222190012
 20
160.6409545692
 10
68.6396490422
 20
160.0536741441
 10
68.6796250871
 20
159.5201387639
 10
68.7402779006
 20
159.0652959498
 10
68.8187714243
 20
158.7104136465
 10
68.9114353885
 20
158.4720857559
 10
69.0139369292
 20
158.3614562253
 10
69.1214831881
 20
158.3836979686
 10
69.2290454219
 20
158.5377709867
 10
69.33159414
 20
158.8164709965
 10
69.4243342782
 20
159.2067662951
 10
69.5029294109
 20
159.6904071084
 10
69.5637045169
 20
160.2447789292
 10
69.6038178198
 20
160.8439599476
 10
69.6213936663
 20
161.4599331249
 10
69.6156102292
 20
162.06389624
 10
69.5867379356
 20
162.627608649
  0
LINE
  5
21E
330
1F
100
AcDbEntity
  8
0
  6
Continuous
 62
     7
370
    15
100
AcDbLine
 10
73.9246613119
 20
163.9161258816
 30
0.0
 11
70.4297918038
 21
164.0076422604
 31
0.0
  0
LINE
  5
21F
330
1F
100
AcDbEntity
  8
0
  6
Continuous
 62
     7
370
    15
100
AcDbLine
 10
73.2941793767
 20
158.9010883219
 30
0.0
 11
73.9246613119
 21
163.9161258816
 31
0.0
  0
LINE
  5
220
330
1F
100
AcDbEntity
  8
0
  6
Continuous
 62
     7
370
    15
100
AcDbLine
 10
69.1998869934
 20
152.6533112629
 30
0.0
 11
69.0029929366
 21
152.6584671152
 31
0.0
  0
LINE
  5
221
330
1F
100
AcDbEntity
  8
0
  6
Continuous
 62
     7
370
    15
100
AcDbLine
 10
74.0064180017
 20
163.9403339696
 30
0.0
 11
73.9246613119
 21
163.9161258816
 31
0.0
  0
LINE
  5
222
330
1F
100
AcDbEntity
  8
0
  6
Continuous
 62
     7
370
    15
100
AcDbLine
 10
74.0064180017
 20
163.9403339696
 30
0.0
 11
73.3726343893
 21
158.8990339051
 31
0.0
  0
LINE
  5
223
330
1F
100
AcDbEntity
  8
0
  6
Continuous
 62
     7
370
    15
100
AcDbLine
 10
74.058851837
 20
165.5732222944
 30
0.0
 11
70.5639823289
 21
165.6647386733
 31
0.0
  0
LINE
  5
224
330
1F
100
AcDbEntity
  8
0
  6
Continuous
 62
     7
370
    15
100
AcDbLine
 10
74.0537743662
 20
165.3732887625
 30
0.0
 11
74.058851837
 21
165.5732222944
 31
0.0
  0
LINE
  5
225
330
1F
100
AcDbEntity
  8
0
  6
Continuous
 62
     7
370
    15
100
AcDbLine
 10
74.0537743662
 20
165.3732887625
 30
0.0
 11
70.558904858
 21
165.4648051413
 31
0.0
  0
LINE
  5
226
330
1F
100
AcDbEntity
  8
0
  6
Continuous
 62
     7
370
    15
100
AcDbLine
 10
73.9540509145
 20
165.0733884646
 30
0.0
 11
74.0537743662
 21
165.3732887625
 31
0.0
  0
LINE
  5
227
330
1F
100
AcDbEntity
  8
0
  6
Continuous
 62
     7
370
    15
100
AcDbLine
 10
73.9540509145
 20
165.0733884646
 30
0.0
 11
70.4591814063
 21
165.1649048435
 31
0.0
  0
LINE
  5
228
330
1F
100
AcDbEntity
  8
0
  6
Continuous
 62
     7
370
    15
100
AcDbLine
 10
73.9743607979
 20
165.8731225923
 30
0.0
 11
70.4794912897
 21
165.9646389711
 31
0.0
  0
LINE
  5
229
330
1F
100
AcDbEntity
  8
0
  6
Continuous
 62
     7
370
    15
100
AcDbLine
 10
74.058851837
 20
165.5732222944
 30
0.0
 11
73.9743607979
 21
165.8731225923
 31
0.0
  0
LINE
  5
22A
330
1F
100
AcDbEntity
  8
0
  6
Continuous
 62
     7
370
    15
100
AcDbLine
 10
73.9246613119
 20
163.9161258816
 30
0.0
 11
73.9540509145
 21
165.0733884646
 31
0.0
  0
LINE
  5
22B
330
1F
100
AcDbEntity
  8
0
  6
Continuous
 62
     7
370
    15
100
AcDbLine
 10
74.058851837
 20
165.5732222944
 30
0.0
 11
74.138447728
 21
165.5123454734
 31
0.0
  0
LINE
  5
22C
330
1F
100
AcDbEntity
  8
0
  6
Continuous
 62
     7
370
    15
100
AcDbLine
 10
74.0537743662
 20
165.3732887625
 30
0.0
 11
74.1363313506
 21
165.4290097312
 31
0.0
  0
LINE
  5
22D
330
1F
100
AcDbEntity
  8
0
  6
Continuous
 62
     7
370
    15
100
AcDbLine
 10
74.138447728
 20
165.5123454734
 30
0.0
 11
74.1363313506
 21
165.4290097312
 31
0.0
  0
LINE
  5
22E
330
1F
100
AcDbEntity
  8
0
  6
Continuous
 62
     7
370
    15
100
AcDbLine
 10
73.9540509145
 20
165.0733884646
 30
0.0
 11
74.0366078989
 21
165.1291094333
 31
0.0
  0
LINE
  5
22F
330
1F
100
AcDbEntity
  8
0
  6
Continuous
 62
     7
370
    15
100
AcDbLine
 10
74.1363313506
 20
165.4290097312
 30
0.0
 11
74.0366078989
 21
165.1291094333
 31
0.0
  0
LINE
  5
230
330
1F
100
AcDbEntity
  8
0
  6
Continuous
 62
     7
370
    15
100
AcDbLine
 10
73.9743607979
 20
165.8731225923
 30
0.0
 11
74.065695796
 21
165.7705779002
 31
0.0
  0
LINE
  5
231
330
1F
100
AcDbEntity
  8
0
  6
Continuous
 62
     7
370
    15
100
AcDbLine
 10
74.065695796
 20
165.7705779002
 30
0.0
 11
74.138447728
 21
165.5123454734
 31
0.0
  0
LINE
  5
232
330
1F
100
AcDbEntity
  8
0
  6
Continuous
 62
     7
370
    15
100
AcDbLine
 10
74.0366078989
 20
165.1291094333
 30
0.0
 11
74.0064180017
 21
163.9403339696
 31
0.0
  0
LINE
  5
233
330
1F
100
AcDbEntity
  8
0
  6
Continuous
 62
     7
370
    15
100
AcDbLine
 10
69.1608293158
 20
152.3426350815
 30
0.0
 11
68.9039592118
 21
152.3493614619
 31
0.0
  0
LINE
  5
234
330
1F
100
AcDbEntity
  8
0
  6
Continuous
 62
     7
370
    15
100
AcDbLine
 10
68.1128119415
 20
165.6903303824
 30
0.0
 11
67.93015843
 21
165.6951133329
 31
0.0
  0
LINE
  5
235
330
1F
100
AcDbEntity
  8
0
  6
Continuous
 62
     7
370
    15
100
AcDbLine
 10
78.438355522
 20
165.489040029
 30
0.0
 11
76.3949244775
 21
165.542549154
 31
0.0
  0
LINE
  5
236
330
1F
100
AcDbEntity
  8
0
  6
Continuous
 62
     7
370
    15
100
AcDbLine
 10
79.4288217643
 20
165.4631037576
 30
0.0
 11
78.438355522
 21
165.489040029
 31
0.0
  0
LINE
  5
237
330
1F
100
AcDbEntity
  8
0
  6
Continuous
 62
     7
370
    15
100
AcDbLine
 10
76.9548432427
 20
163.9950462288
 30
0.0
 11
76.9633064586
 21
164.328298886
 31
0.0
  0
ARC
  5
238
330
1F
100
AcDbEntity
  8
0
  6
Continuous
 62
     7
370
    15
100
AcDbCircle
 10
76.6101955281
 20
163.9945220151
 30
0.0
 40
0.3446481131853051
100
AcDbArc
 50
345.467469106
 51
0.0871475718
  0
ARC
  5
239
330
1F
100
AcDbEntity
  8
0
  6
Continuous
 62
     7
370
    15
100
AcDbCircle
 10
76.6245976528
 20
164.3463314819
 30
0.0
 40
0.3391884869097413
100
AcDbArc
 50
356.9524939535
 51
11.7329386165
  0
LINE
  5
23A
330
1F
100
AcDbEntity
  8
0
  6
Continuous
 62
     7
370
    15
100
AcDbLine
 10
76.7515443353
 20
163.3298150085
 30
0.0
 11
76.9438167372
 21
163.9080395846
 31
0.0
  0
LINE
  5
23B
330
1F
100
AcDbEntity
  8
0
  6
Continuous
 62
     7
370
    15
100
AcDbLine
 10
73.9916951491
 20
165.8536607677
 30
0.0
 11
76.0782603472
 21
165.7990221351
 31
0.0
  0
LINE
  5
23C
330
1F
100
AcDbEntity
  8
0
  6
Continuous
 62
     7
370
    15
100
AcDbLine
 10
76.7113138878
 20
165.2862986745
 30
0.0
 11
76.0782603472
 21
165.7990221351
 31
0.0
  0
LINE
  5
23D
330
1F
100
AcDbEntity
  8
0
  6
Continuous
 62
     7
370
    15
100
AcDbLine
 10
76.9566991588
 20
164.4153055301
 30
0.0
 11
76.7113138878
 21
165.2862986745
 31
0.0
  0
LINE
  5
23E
330
1F
100
AcDbEntity
  8
0
  6
Continuous
 62
     7
370
    15
100
AcDbLine
 10
73.4827764992
 20
159.6155905888
 30
0.0
 11
73.48785397
 21
159.8155241207
 31
0.0
  0
LINE
  5
23F
330
1F
100
AcDbEntity
  8
0
  6
Continuous
 62
     7
370
    15
100
AcDbLine
 10
73.4827764992
 20
159.6155905888
 30
0.0
 11
73.3926264051
 21
158.8985103958
 31
0.0
  0
ARC
  5
240
330
1F
100
AcDbEntity
  8
0
  6
Continuous
 62
     7
370
    15
100
AcDbCircle
 10
77.585597358
 20
163.1136089324
 30
0.0
 40
0.8616202829708505
100
AcDbArc
 50
165.467469106
 51
180.0871475717
  0
LINE
  5
241
330
1F
100
AcDbEntity
  8
0
  6
Continuous
 62
     7
370
    15
100
AcDbLine
 10
76.1408462659
 20
159.5459865823
 30
0.0
 11
76.6584687622
 21
160.5327646111
 31
0.0
  0
LINE
  5
242
330
1F
100
AcDbEntity
  8
0
  6
Continuous
 62
     7
370
    15
100
AcDbLine
 10
73.4827764992
 20
159.6155905888
 30
0.0
 11
76.1408462659
 21
159.5459865823
 31
0.0
  0
LINE
  5
243
330
1F
100
AcDbEntity
  8
0
  6
Continuous
 62
     7
370
    15
100
AcDbLine
 10
76.6584687622
 20
160.5327646111
 30
0.0
 11
76.7239780717
 21
163.1122983981
 31
0.0
  0
LINE
  5
244
330
1F
100
AcDbEntity
  8
0
  6
Continuous
 62
     7
370
    15
100
AcDbLine
 10
76.0506961719
 20
158.8289063893
 30
0.0
 11
76.1408462659
 21
159.5459865823
 31
0.0
  0
LINE
  5
245
330
1F
100
AcDbEntity
  8
0
  6
Continuous
 62
     7
370
    15
100
AcDbLine
 10
76.6584687622
 20
160.5327646111
 30
0.0
 11
76.4429712351
 21
158.8186343053
 31
0.0
  0
ARC
  5
246
330
1F
100
AcDbEntity
  8
0
  6
Continuous
 62
     7
370
    15
100
AcDbCircle
 10
69.0740034166
 20
140.9627204465
 30
0.0
 40
27.00000000000004
100
AcDbArc
 50
0.0
 51
49.7828460235
  0
LINE
  5
247
330
1F
100
AcDbEntity
  8
0
  6
Continuous
 62
     7
370
    15
100
AcDbLine
 10
96.0740034166
 20
138.9233907252
 30
0.0
 11
96.0740034166
 21
140.9627204465
 31
0.0
  0
LINE
  5
248
330
1F
100
AcDbEntity
  8
0
  6
Continuous
 62
     7
370
    15
100
AcDbLine
 10
96.0740034166
 20
138.9233907252
 30
0.0
 11
69.574753827
 21
139.6172979966
 31
0.0
  0
LINE
  5
249
330
1F
100
AcDbEntity
  8
0
  6
Continuous
 62
     7
370
    15
100
AcDbLine
 10
70.0819203021
 20
158.9852042861
 30
0.0
 11
69.574753827
 21
139.6172979966
 31
0.0
  0
LINE
  5
24A
330
1F
100
AcDbEntity
  8
0
  6
Continuous
 62
     7
370
    15
100
AcDbLine
 10
70.0819203021
 20
158.9852042861
 30
0.0
 11
76.6286476906
 21
158.8137721962
 31
0.0
  0
LINE
  5
24B
330
1F
100
AcDbEntity
  8
0
  6
Continuous
 62
     7
370
    15
100
AcDbLine
 10
76.7464460301
 20
163.3123092876
 30
0.0
 11
76.6286476906
 21
158.8137721962
 31
0.0
  0
LINE
  5
24C
330
1F
100
AcDbEntity
  8
0
  6
Continuous
 62
     7
370
    15
100
AcDbLine
 10
77.4059033335
 20
164.7702123504
 30
0.0
 11
76.8526294016
 21
164.7847003382
 31
0.0
  0
SPLINE
  5
24D
330
1F
100
AcDbEntity
  8
0
  6
Continuous
 62
     7
370
    15
100
AcDbSpline
210
0.0
220
0.0
230
1.0
 70
     8
 71
     3
 72
    23
 73
    19
 74
     0
 42
0.000000001
 43
0.00000001
 40
0.0
 40
0.0
 40
0.0
 40
0.0
 40
0.062758179871812
 40
0.1253940390331909
 40
0.1879262413937218
 40
0.2503735438041998
 40
0.3127547796988668
 40
0.3750888423954341
 40
0.4373946681253467
 40
0.4996912188695563
 40
0.5619974650771304
 40
0.6243323683452395
 40
0.6867148641395202
 40
0.749163844633324
 40
0.8116981417431558
 40
0.8743365104355065
 40
0.9370976123774744
 40
1.0
 40
1.0
 40
1.0
 40
1.0
 10
86.50759368121302
 20
161.5800668721438
 30
0.0
 10
86.32710871384062
 20
161.6723281984083
 30
0.0
 10
85.96649055872793
 20
161.8566710262357
 30
0.0
 10
85.42019139786485
 20
162.1209097569821
 30
0.0
 10
84.87070560662687
 20
162.3757678851555
 30
0.0
 10
84.31760467644716
 20
162.6203923763727
 30
0.0
 10
83.7610033269425
 20
162.8550111420253
 30
0.0
 10
83.20087105399816
 20
163.0795631081926
 30
0.0
 10
82.6372162099242
 20
163.2940645369384
 30
0.0
 10
82.07003673543265
 20
163.4985109010986
 30
0.0
 10
81.49933344266293
 20
163.6929036565715
 30
0.0
 10
80.92510608684402
 20
163.8772411636579
 30
0.0
 10
80.3473558021676
 20
164.0515282576286
 30
0.0
 10
79.7660792727997
 20
164.2157470096501
 30
0.0
 10
79.1812896406006
 20
164.3699642870769
 30
0.0
 10
78.5929385387079
 20
164.5139299342296
 30
0.0
 10
78.00120775711504
 20
164.6485801671255
 30
0.0
 10
77.60449901163996
 20
164.7297007513289
 30
0.0
 10
77.40592162557819
 20
164.7703066460832
 30
0.0
  0
LINE
  5
24E
330
1F
100
AcDbEntity
  8
0
  6
Continuous
 62
     7
370
    15
100
AcDbLine
 10
68.6166877513
 20
155.1939370843
 30
0.0
 11
68.4011776272
 21
153.4797065786
 31
0.0
  0
LWPOLYLINE
  5
24F
330
1F
100
AcDbEntity
  8
0
  6
Continuous
 62
     7
370
    15
100
AcDbPolyline
 90
       14
 70
   128
 43
0.0
 10
68.4011776272
 20
153.4797065786
 10
68.3515776972
 20
152.9808617138
 10
68.3228714748
 20
152.4456487173
 10
68.3167272614
 20
151.9051722229
 10
68.3335021362
 20
151.39084276
 10
68.3722212047
 20
150.9325512875
 10
68.4306342551
 20
150.5569320399
 10
68.5053465334
 20
150.2858146425
 10
68.5920160336
 20
150.1349554531
 10
68.6856058392
 20
150.1131218593
 10
68.780676851
 20
150.2215827503
 10
68.8717038874
 20
150.4540347734
 10
68.9533967878
 20
150.7969686618
 10
69.0210078578
 20
151.2304543445
  0
LINE
  5
250
330
1F
100
AcDbEntity
  8
0
  6
Continuous
 62
     7
370
    15
100
AcDbLine
 10
69.0210078578
 20
151.2304543445
 30
0.0
 11
69.9962039253
 21
158.9874488484
 31
0.0
  0
LINE
  5
251
330
1F
100
AcDbEntity
  8
0
  6
Continuous
 62
     7
370
    15
100
AcDbLine
 10
70.0819203021
 20
158.9852042861
 30
0.0
 11
69.9962039253
 21
158.9874488484
 31
0.0
  0
LINE
  5
252
330
1F
100
AcDbEntity
  8
0
  6
Continuous
 62
     7
370
    15
100
AcDbLine
 10
69.574753827
 20
139.6172979966
 30
0.0
 11
64.4159690017
 21
108.5602675543
 31
0.0
  0
ARC
  5
253
330
1F
100
AcDbEntity
  8
0
  6
Continuous
 62
     7
370
    15
100
AcDbCircle
 10
70.5740034166
 20
130.9627204465
 30
0.0
 40
25.0
100
AcDbArc
 50
101.2271101793
 51
101.3723598757
  0
SPLINE
  5
254
330
1F
100
AcDbEntity
  8
0
  6
Continuous
 62
     7
370
    15
100
AcDbSpline
210
0.0
220
0.0
230
1.0
 70
     8
 71
     3
 72
    10
 73
     6
 74
     0
 42
0.000000001
 43
0.00000001
 40
0.0
 40
0.0
 40
0.0
 40
0.0
 40
0.5
 40
0.5
 40
1.0
 40
1.0
 40
1.0
 40
1.0
 10
65.8976385668545
 20
156.2755632095333
 30
0.0
 10
65.88200991111984
 20
156.0586303504182
 30
0.0
 10
65.85439533399317
 20
155.8600241651105
 30
0.0
 10
65.78641760501641
 20
155.5772531574441
 30
0.0
 10
65.74621806436588
 20
155.4921746772213
 30
0.0
 10
65.70654141520323
 20
155.484298977788
 30
0.0
  0
SPLINE
  5
255
330
1F
100
AcDbEntity
  8
0
  6
Continuous
 62
     7
370
    15
100
AcDbSpline
210
0.0
220
0.0
230
1.0
 70
     8
 71
     3
 72
     8
 73
     4
 74
     0
 42
0.000000001
 43
0.00000001
 40
0.0
 40
0.0
 40
0.0
 40
0.0
 40
1.0
 40
1.0
 40
1.0
 40
1.0
 10
66.52818751307414
 20
164.9818041502287
 30
0.0
 10
66.31725878125475
 20
162.0809332370166
 30
0.0
 10
66.10683103027405
 20
159.1792498710932
 30
0.0
 10
65.89763856685448
 20
156.275563209533
 30
0.0
  0
SPLINE
  5
256
330
1F
100
AcDbEntity
  8
0
  6
Continuous
 62
     7
370
    15
100
AcDbSpline
210
0.0
220
0.0
230
1.0
 70
     8
 71
     3
 72
     8
 73
     4
 74
     0
 42
0.000000001
 43
0.00000001
 40
0.0
 40
0.0
 40
0.0
 40
0.0
 40
1.0
 40
1.0
 40
1.0
 40
1.0
 10
66.58942568806314
 20
165.4577307643839
 30
0.0
 10
66.56278848192248
 20
165.328373464254
 30
0.0
 10
66.541404787127
 20
165.1635793191264
 30
0.0
 10
66.52818751307414
 20
164.9818041502287
 30
0.0
  0
LINE
  5
257
330
1F
100
AcDbEntity
  8
0
  6
Continuous
 62
     7
370
    15
100
AcDbLine
 10
66.5894256881
 20
165.4577307644
 30
0.0
 11
67.8942515445
 21
165.4577307644
 31
0.0
  0
ARC
  5
258
330
1F
100
AcDbEntity
  8
0
  6
Continuous
 62
     7
370
    15
100
AcDbCircle
 10
70.5740034166
 20
130.9627204465
 30
0.0
 40
25.5
100
AcDbArc
 50
321.152432544
 51
0.0
  0
SPLINE
  5
259
330
1F
100
AcDbEntity
  8
0
  6
Continuous
 62
     7
370
    15
100
AcDbSpline
210
0.0
220
0.0
230
1.0
 70
     8
 71
     3
 72
    12
 73
     8
 74
     0
 42
0.000000001
 43
0.00000001
 40
0.0
 40
0.0
 40
0.0
 40
0.0
 40
0.2499999999999987
 40
0.2499999999999987
 40
0.4999999999999973
 40
0.4999999999999973
 40
1.0
 40
1.0
 40
1.0
 40
1.0
 10
90.43384927036777
 20
114.9678299291272
 30
0.0
 10
90.24842444048788
 20
114.872916193694
 30
0.0
 10
90.06872090363629
 20
114.7681127612217
 30
0.0
 10
89.72452557580809
 20
114.5493698510564
 30
0.0
 10
89.5589960976927
 20
114.4347825149226
 30
0.0
 10
89.07889464441335
 20
114.0779279822279
 30
0.0
 10
88.77888243647539
 20
113.824098686739
 30
0.0
 10
88.50908960139618
 20
113.5462717975312
 30
0.0
  0
ARC
  5
25A
330
1F
100
AcDbEntity
  8
0
  6
Continuous
 62
     7
370
    15
100
AcDbCircle
 10
70.5740034166
 20
130.9627204465
 30
0.0
 40
25.00000000000002
100
AcDbArc
 50
254.3293220594
 51
315.840518251
  0
ELLIPSE
  5
25B
330
1F
100
AcDbEntity
  8
0
  6
Continuous
 62
     7
370
    15
100
AcDbEllipse
 10
61.4625581497
 20
108.6376053392
 30
0.0
 11
1.341303565215135
 21
3.585340379616894
 31
0.0
210
0.0
220
0.0
230
1.0
 40
0.7539063887
 41
4.499584528362824
 42
4.966528303732279
  0
LINE
  5
25C
330
1F
100
AcDbEntity
  8
0
  6
Continuous
 62
     7
370
    15
100
AcDbLine
 10
96.0740034166
 20
130.9627204465
 30
0.0
 11
96.0740034166
 21
138.9233907252
 31
0.0
  0
LINE
  5
25D
330
1F
100
AcDbEntity
  8
0
  6
Continuous
 62
     7
370
    15
100
AcDbLine
 10
76.7112838078
 20
165.2862986745
 30
0.0
 11
77.5281297804
 21
165.2649088099
 31
0.0
  0
LINE
  5
25E
330
1F
100
AcDbEntity
  8
0
  6
Continuous
 62
     7
370
    15
100
AcDbLine
 10
77.4059033335
 20
164.7702123504
 30
0.0
 11
77.5286972554
 21
165.267147999
 31
0.0
  0
SPLINE
  5
25F
330
1F
100
AcDbEntity
  8
0
  6
Continuous
 62
     7
370
    15
100
AcDbSpline
210
0.0
220
0.0
230
1.0
 70
     8
 71
     3
 72
    21
 73
    17
 74
     0
 42
0.000000001
 43
0.00000001
 40
0.0
 40
0.0
 40
0.0
 40
0.0
 40
0.0796450497041294
 40
0.1580259055153201
 40
0.2351425931464519
 40
0.3109951396872017
 40
0.3855835736958232
 40
0.4589079252988841
 40
0.530968226299724
 40
0.6017645102965867
 40
0.6712968128114715
 40
0.7395651714309348
 40
0.8065696259601235
 40
0.872310218591632
 40
0.936786994090879
 40
1.0
 40
1.0
 40
1.0
 40
1.0
 10
77.52835964790357
 20
165.2648622077497
 30
0.0
 10
77.72378485536018
 20
165.2242374702519
 30
0.0
 10
78.11153331535326
 20
165.1436328256035
 30
0.0
 10
78.68588244630924
 20
165.0112613319173
 30
0.0
 10
79.2489159114904
 20
164.8722815335053
 30
0.0
 10
79.80041730715759
 20
164.7263017687752
 30
0.0
 10
80.3404038946668
 20
164.5740389728486
 30
0.0
 10
80.86884826191884
 20
164.4159089233043
 30
0.0
 10
81.38575040665573
 20
164.2523948459295
 30
0.0
 10
81.89111750032342
 20
164.0839494995493
 30
0.0
 10
82.38497046201788
 20
163.9110254452595
 30
0.0
 10
82.86733381852294
 20
163.734049122391
 30
0.0
 10
83.33826525242381
 20
163.5534922171165
 30
0.0
 10
83.79774666509003
 20
163.3696179398006
 30
0.0
 10
84.24607615973039
 20
163.1833992681325
 30
0.0
 10
84.53989635276255
 20
163.0553260277813
 30
0.0
 10
84.68535245264388
 20
162.9919231899831
 30
0.0
  0
SPLINE
  5
260
330
1F
100
AcDbEntity
  8
0
  6
Continuous
 62
     7
370
    15
100
AcDbSpline
210
0.0
220
0.0
230
1.0
 70
     8
 71
     3
 72
    12
 73
     8
 74
     0
 42
0.000000001
 43
0.00000001
 40
0.0
 40
0.0
 40
0.0
 40
0.0
 40
0.1997900825682478
 40
0.3996784107528774
 40
0.5996717030046935
 40
0.7997766672021509
 40
1.0
 40
1.0
 40
1.0
 40
1.0
 10
84.6853377294265
 20
162.991933799975
 30
0.0
 10
84.81030401531845
 20
162.9024430112407
 30
0.0
 10
85.06029803854997
 20
162.7234174271948
 30
0.0
 10
85.42935131590518
 20
162.4468946713409
 30
0.0
 10
85.79391126187943
 20
162.1644155875726
 30
0.0
 10
86.15392177573544
 20
161.8760163607286
 30
0.0
 10
86.38963503008348
 20
161.6786924825239
 30
0.0
 10
86.50752650496652
 20
161.5800013711753
 30
0.0
  0
SPLINE
  5
261
330
1F
100
AcDbEntity
  8
0
  6
Continuous
 62
     7
370
    15
100
AcDbSpline
210
0.0
220
0.0
230
1.0
 70
     8
 71
     3
 72
    12
 73
     8
 74
     0
 42
0.000000001
 43
0.00000001
 40
0.0
 40
0.0
 40
0.0
 40
0.0
 40
0.4999999999999979
 40
0.4999999999999979
 40
0.7499999999999989
 40
0.7499999999999989
 40
1.0
 40
1.0
 40
1.0
 40
1.0
 10
63.21313163062926
 20
145.8274433734187
 30
0.0
 10
63.36268293021299
 20
146.2122469191319
 30
0.0
 10
63.45702969613389
 20
146.6092938444182
 30
0.0
 10
63.48876908366792
 20
147.2310760737475
 30
0.0
 10
63.47962041523196
 20
147.4375243803605
 30
0.0
 10
63.41472299945416
 20
147.842874039474
 30
0.0
 10
63.35799680421693
 20
148.043960680744
 30
0.0
 10
63.27615548073359
 20
148.2342271078697
 30
0.0
  0
SPLINE
  5
262
330
1F
100
AcDbEntity
  8
0
  6
Continuous
 62
     7
370
    15
100
AcDbSpline
210
0.0
220
0.0
230
1.0
 70
     8
 71
     3
 72
    18
 73
    14
 74
     0
 42
0.000000001
 43
0.00000001
 40
0.0
 40
0.0
 40
0.0
 40
0.0
 40
0.2500000000000023
 40
0.2500000000000023
 40
0.3750000000000022
 40
0.3750000000000022
 40
0.500000000000002
 40
0.500000000000002
 40
0.6250000000000018
 40
0.6250000000000018
 40
0.7500000000000017
 40
0.7500000000000017
 40
1.0
 40
1.0
 40
1.0
 40
1.0
 10
65.644392825856
 20
155.4718807631
 30
0.0
 10
65.59354685426568
 20
155.4616539402791
 30
0.0
 10
65.50291371581679
 20
155.4433548446619
 30
0.0
 10
65.3093151266681
 20
155.4021846393422
 30
0.0
 10
65.23494503928582
 20
155.3860996494395
 30
0.0
 10
65.07164005261112
 20
155.3498275618917
 30
0.0
 10
64.98219945307737
 20
155.3295354348916
 30
0.0
 10
64.78799016361097
 20
155.2841512202275
 30
0.0
 10
64.68231553613901
 20
155.2588309515534
 30
0.0
 10
64.46119095777182
 20
155.2041415186596
 30
0.0
 10
64.3455538885276
 20
155.1747408377669
 30
0.0
 10
63.9841276384017
 20
155.0798429329758
 30
0.0
 10
63.7218813871534
 20
155.0070138598038
 30
0.0
 10
63.45140199280469
 20
154.9266214010408
 30
0.0
  0
SPLINE
  5
263
330
1F
100
AcDbEntity
  8
0
  6
Continuous
 62
     7
370
    15
100
AcDbSpline
210
0.0
220
0.0
230
1.0
 70
     8
 71
     3
 72
    10
 73
     6
 74
     0
 42
0.000000001
 43
0.00000001
 40
0.0
 40
0.0
 40
0.0
 40
0.0
 40
0.5
 40
0.5
 40
1.0
 40
1.0
 40
1.0
 40
1.0
 10
62.20698959874675
 20
107.404429341847
 30
0.0
 10
62.52336870891774
 20
107.2920634501654
 30
0.0
 10
62.82118375603513
 20
107.1934492593329
 30
0.0
 10
63.3758482578257
 20
107.0196415348708
 30
0.0
 10
63.61808908732117
 20
106.948978447644
 30
0.0
 10
63.82130998669977
 20
106.8919678317315
 30
0.0
  0
ELLIPSE
  5
264
330
1F
100
AcDbEntity
  8
0
  6
Continuous
 62
     7
370
    15
100
AcDbEllipse
 10
60.7343882018
 20
146.3237636302
 30
0.0
 11
1.851268314269362
 21
2.760230515593207
 31
0.0
210
0.0
220
0.0
230
1.0
 40
0.7344532154
 41
5.839979489974893
 42
11.2912678126041
  0
ARC
  5
265
330
1F
100
AcDbEntity
  8
0
  6
Continuous
 62
     7
370
    15
100
AcDbCircle
 10
70.5740034166
 20
130.9627204465
 30
0.0
 40
25.00000000000001
100
AcDbArc
 50
106.5531136963
 51
250.4468863037
  0
INSERT
  5
271
330
1F
100
AcDbEntity
  8
VERMASSUNG
100
AcDbBlockReference
  2
SW_CENTERMARKSYMBOL_0
 10
70.5740034166
 20
130.9627204465
 30
0.0
  0
LINE
  5
272
330
1F
100
AcDbEntity
  8
0
  6
Continuous
 62
     7
370
    15
100
AcDbLine
 10
252.5444863347
 20
52.1793686758
 30
0.0
 11
252.579371955
 21
52.3633006366
 31
0.0
  0
LINE
  5
273
330
1F
100
AcDbEntity
  8
0
  6
Continuous
 62
     7
370
    15
100
AcDbLine
 10
248.8566790956
 20
52.5578427574
 30
0.0
 11
248.9382609829
 21
52.9879774761
 31
0.0
  0
LINE
  5
274
330
1F
100
AcDbEntity
  8
0
  6
Continuous
 62
     7
370
    15
100
AcDbLine
 10
250.8544220518
 20
52.9617813454
 30
0.0
 11
250.7486012993
 21
52.4038489282
 31
0.0
  0
LINE
  5
275
330
1F
100
AcDbEntity
  8
0
  6
Continuous
 62
     7
370
    15
100
AcDbLine
 10
255.489888393
 20
46.1067237418
 30
0.0
 11
255.7694873217
 21
47.5808892764
 31
0.0
  0
LINE
  5
276
330
1F
100
AcDbEntity
  8
0
  6
Continuous
 62
     7
370
    15
100
AcDbLine
 10
188.917846684
 20
33.5961446186
 30
0.0
 11
202.1280676558
 21
25.9700463776
 31
0.0
  0
LINE
  5
277
330
1F
100
AcDbEntity
  8
0
  6
Continuous
 62
     7
370
    15
100
AcDbLine
 10
179.670658441
 20
38.9344327627
 30
0.0
 11
184.141341753
 21
36.353562222
 31
0.0
  0
LINE
  5
278
330
1F
100
AcDbEntity
  8
0
  6
Continuous
 62
     7
370
    15
100
AcDbLine
 10
209.1393100689
 20
79.656005341
 30
0.0
 11
204.6686267569
 21
82.2368758817
 31
0.0
  0
LINE
  5
279
330
1F
100
AcDbEntity
  8
0
  6
Continuous
 62
     7
370
    15
100
AcDbLine
 10
223.3516656168
 20
71.4513871234
 30
0.0
 11
213.9158149999
 21
76.8985877377
 31
0.0
  0
SPLINE
  5
27A
330
1F
100
AcDbEntity
  8
0
  6
Continuous
 62
     7
370
    15
100
AcDbSpline
210
0.0
220
0.0
230
1.0
 70
     8
 71
     3
 72
    10
 73
     6
 74
     0
 42
0.000000001
 43
0.00000001
 40
0.0
 40
0.0
 40
0.0
 40
0.0
 40
0.2049955051649812
 40
0.6995071130070051
 40
1.0
 40
1.0
 40
1.0
 40
1.0
 10
174.6726556508327
 20
54.10058719239061
 30
0.0
 10
174.6345556856775
 20
53.84639251732991
 30
0.0
 10
174.5045469978773
 20
52.97900284871076
 30
0.0
 10
174.4231985358598
 20
51.7786935218952
 30
0.0
 10
174.4093423964287
 20
50.85293061412917
 30
0.0
 10
174.4041051035993
 20
50.50301414116209
 30
0.0
  0
SPLINE
  5
27B
330
1F
100
AcDbEntity
  8
0
  6
Continuous
 62
     7
370
    15
100
AcDbSpline
210
0.0
220
0.0
230
1.0
 70
     8
 71
     3
 72
    13
 73
     9
 74
     0
 42
0.000000001
 43
0.00000001
 40
0.0
 40
0.0
 40
0.0
 40
0.0
 40
0.1598661368275207
 40
0.3360690599010535
 40
0.5122941280240929
 40
0.6885001397924025
 40
0.8646719885870111
 40
1.0
 40
1.0
 40
1.0
 40
1.0
 10
194.6816730351998
 20
82.31233012279773
 30
0.0
 10
194.2357004750648
 20
82.1240851898169
 30
0.0
 10
193.2981812355279
 20
81.7283584967633
 30
0.0
 10
191.8578386192607
 20
80.94140603334144
 30
0.0
 10
190.3755156597298
 20
80.00179337653516
 30
0.0
 10
188.9071405861957
 20
78.91949426954478
 30
0.0
 10
187.5692830409202
 20
77.8163572706836
 30
0.0
 10
186.7411235279448
 20
77.02301863488763
 30
0.0
 10
186.3813378768403
 20
76.67836056702266
 30
0.0
  0
SPLINE
  5
27C
330
1F
100
AcDbEntity
  8
0
  6
Continuous
 62
     7
370
    15
100
AcDbSpline
210
0.0
220
0.0
230
1.0
 70
     8
 71
     3
 72
    10
 73
     6
 74
     0
 42
0.000000001
 43
0.00000001
 40
0.0
 40
0.0
 40
0.0
 40
0.0
 40
0.2720488431894197
 40
0.7889186932235099
 40
1.0
 40
1.0
 40
1.0
 40
1.0
 10
174.4041051035993
 20
50.50301414116209
 30
0.0
 10
174.4081117146783
 20
50.20460704523137
 30
0.0
 10
174.4197305487804
 20
49.33925164283266
 30
0.0
 10
174.4903151472519
 20
48.27304239606586
 30
0.0
 10
174.6157680270154
 20
47.55090721932891
 30
0.0
 10
174.6521451349458
 20
47.34151235080125
 30
0.0
  0
LINE
  5
27D
330
1F
100
AcDbEntity
  8
0
  6
Continuous
 62
     7
370
    15
100
AcDbLine
 10
161.7915717301
 20
57.6932044151
 30
0.0
 11
174.4161985198
 21
49.8777812317
 31
0.0
  0
LINE
  5
27E
330
1F
100
AcDbEntity
  8
0
  6
Continuous
 62
     7
370
    15
100
AcDbLine
 10
190.9051075992
 20
80.3135050812
 30
0.0
 11
178.5182563488
 21
86.9648990467
 31
0.0
  0
LINE
  5
27F
330
1F
100
AcDbEntity
  8
0
  6
Continuous
 62
     7
370
    15
100
AcDbLine
 10
174.2313432133
 20
87.9067913566
 30
0.0
 11
172.9522423083
 21
87.7323692257
 31
0.0
  0
LINE
  5
280
330
1F
100
AcDbEntity
  8
0
  6
Continuous
 62
     7
370
    15
100
AcDbLine
 10
159.8428693536
 20
60.697187449
 30
0.0
 11
160.3314779392
 21
59.5022883506
 31
0.0
  0
ARC
  5
281
330
1F
100
AcDbEntity
  8
0
  6
Continuous
 62
     7
370
    15
100
AcDbCircle
 10
208.9659407818
 20
63.3489795311
 30
0.0
 40
13.47481476694326
100
AcDbArc
 50
59.3404520444
 51
76.9680849505
  0
ARC
  5
282
330
1F
100
AcDbEntity
  8
0
  6
Continuous
 62
     7
370
    15
100
AcDbCircle
 10
209.6944539524
 20
65.0693188293
 30
0.0
 40
11.54641202678394
100
AcDbArc
 50
59.3847067672
 51
77.4001548374
  0
LWPOLYLINE
  5
283
330
1F
100
AcDbEntity
  8
0
  6
Continuous
 62
     7
370
    15
100
AcDbPolyline
 90
       12
 70
   128
 43
0.0
 10
248.4169736152
 20
54.5643848682
 10
249.0910143573
 20
54.6982757604
 10
249.8233880575
 20
54.6969979687
 10
250.5597779091
 20
54.5606462612
 10
251.2455692453
 20
54.2993332201
 10
251.8299000602
 20
53.9324392383
 10
252.2694332103
 20
53.4871751641
 10
252.5315705326
 20
52.9965641968
 10
252.5968705011
 20
52.4969927075
 10
252.4604901158
 20
52.0255116281
 10
252.1325440861
 20
51.6170885535
 10
251.8757787804
 20
51.4287116077
  0
LWPOLYLINE
  5
284
330
1F
100
AcDbEntity
  8
0
  6
Continuous
 62
     7
370
    15
100
AcDbPolyline
 90
        3
 70
   128
 43
0.0
 10
247.8170023382
 20
54.2829676993
 10
247.8512563497
 20
54.3052553671
 10
248.4169736152
 20
54.5643848682
  0
LWPOLYLINE
  5
285
330
1F
100
AcDbEntity
  8
0
  6
Continuous
 62
     7
370
    15
100
AcDbPolyline
 90
       23
 70
   128
 43
0.0
 10
248.5584315239
 20
54.5217092557
 10
249.2055693725
 20
54.6470229198
 10
249.9086694722
 20
54.6368694613
 10
250.6107708342
 20
54.4920714532
 10
251.2549933819
 20
54.2243595689
 10
251.7891460357
 20
53.8554222332
 10
252.1699549244
 20
53.4151485547
 10
252.3665691766
 20
52.9392068886
 10
252.3630602748
 20
52.4661551981
 10
252.1597124894
 20
52.0343173178
 10
251.7729998486
 20
51.6786781845
 10
251.2342515108
 20
51.4280495658
 10
250.5871136622
 20
51.3027359018
 10
249.8840135625
 20
51.3128893602
 10
249.1819122005
 20
51.4576873683
 10
248.5376896528
 20
51.7253992526
 10
248.003536999
 20
52.0943365884
 10
247.6227281103
 20
52.5346102668
 10
247.4261138581
 20
53.0105519329
 10
247.4296227599
 20
53.4836036234
 10
247.6329705453
 20
53.9154415037
 10
248.019683186
 20
54.271080637
 10
248.5584315239
 20
54.5217092557
  0
LWPOLYLINE
  5
286
330
1F
100
AcDbEntity
  8
0
  6
Continuous
 62
     7
370
    15
100
AcDbPolyline
 90
        9
 70
   128
 43
0.0
 10
248.9619039105
 20
53.5624727657
 10
248.8893402919
 20
53.5727331997
 10
248.8194014088
 20
53.5670761158
 10
248.7594599296
 20
53.5460978606
 10
248.7158346377
 20
53.512009875
 10
248.6931243315
 20
53.4684055739
 10
248.6937230377
 20
53.4198815428
 10
248.7175676431
 20
53.3715529848
 10
248.7621445479
 20
53.3285144972
  0
LWPOLYLINE
  5
287
330
1F
100
AcDbEntity
  8
0
  6
Continuous
 62
     7
370
    15
100
AcDbPolyline
 90
        9
 70
   128
 43
0.0
 10
248.7621445479
 20
53.3285144972
 10
248.8350004437
 20
53.2659765233
 10
248.8905501831
 20
53.1969036271
 10
248.926683397
 20
53.1239199306
 10
248.9420273621
 20
53.04979813
 10
248.9359991518
 20
52.9773541585
 10
248.9088277814
 20
52.9093402074
 10
248.8615455082
 20
52.8483401692
 10
248.7959486151
 20
52.7966714731
  0
LWPOLYLINE
  5
288
330
1F
100
AcDbEntity
  8
0
  6
Continuous
 62
     7
370
    15
100
AcDbPolyline
 90
        9
 70
   128
 43
0.0
 10
248.7959486151
 20
52.7966714731
 10
248.7564231276
 20
52.760235469
 10
248.7385137263
 20
52.7151848219
 10
248.7441083463
 20
52.6662685851
 10
248.772617226
 20
52.6186433064
 10
248.8210350768
 20
52.5773294463
 10
248.8842578887
 20
52.5466821413
 10
248.9556209737
 20
52.5299321041
 10
249.0276015299
 20
52.5288450543
  0
ARC
  5
289
330
1F
100
AcDbEntity
  8
0
  6
Continuous
 62
     7
370
    15
100
AcDbCircle
 10
249.1315169708
 20
51.8250561323
 30
0.0
 40
0.7114191911886177
100
AcDbArc
 50
32.6698247299
 51
98.3991183993
  0
LWPOLYLINE
  5
28A
330
1F
100
AcDbEntity
  8
0
  6
Continuous
 62
     7
370
    15
100
AcDbPolyline
 90
        9
 70
   128
 43
0.0
 10
249.7303862219
 20
52.2090781182
 10
249.763424353
 20
52.1623816801
 10
249.8154538348
 20
52.1229881168
 10
249.8809899341
 20
52.0950501353
 10
249.9531241056
 20
52.0815128422
 10
250.0242522627
 20
52.0838032831
 10
250.0868763684
 20
52.1016800093
 10
250.134394848
 20
52.13325853
 10
250.1617984993
 20
52.1752099678
  0
ARC
  5
28B
330
1F
100
AcDbEntity
  8
0
  6
Continuous
 62
     7
370
    15
100
AcDbCircle
 10
250.6250363015
 20
51.8751221872
 30
0.0
 40
0.5519437810487535
100
AcDbArc
 50
68.1140363801
 51
147.0646304382
  0
LWPOLYLINE
  5
28C
330
1F
100
AcDbEntity
  8
0
  6
Continuous
 62
     7
370
    15
100
AcDbPolyline
 90
        9
 70
   128
 43
0.0
 10
250.8307791242
 20
52.3872860559
 10
250.9033427428
 20
52.3770256218
 10
250.9732816259
 20
52.3826827057
 10
251.0332231051
 20
52.403660961
 10
251.076848397
 20
52.4377489465
 10
251.0995587032
 20
52.4813532476
 10
251.098959997
 20
52.5298772787
 10
251.0751153916
 20
52.5782058367
 10
251.0305384868
 20
52.6212443244
  0
LWPOLYLINE
  5
28D
330
1F
100
AcDbEntity
  8
0
  6
Continuous
 62
     7
370
    15
100
AcDbPolyline
 90
        9
 70
   128
 43
0.0
 10
251.0305384868
 20
52.6212443244
 10
250.957682591
 20
52.6837822982
 10
250.9021328516
 20
52.7528551945
 10
250.8659996377
 20
52.8258388909
 10
250.8506556725
 20
52.8999606915
 10
250.8566838829
 20
52.9724046631
 10
250.8838552533
 20
53.0404186141
 10
250.9311375265
 20
53.1014186523
 10
250.9967344196
 20
53.1530873484
  0
LWPOLYLINE
  5
28E
330
1F
100
AcDbEntity
  8
0
  6
Continuous
 62
     7
370
    15
100
AcDbPolyline
 90
        9
 70
   128
 43
0.0
 10
250.9967344196
 20
53.1530873484
 10
251.0362599071
 20
53.1895233525
 10
251.0541693084
 20
53.2345739996
 10
251.0485746884
 20
53.2834902365
 10
251.0200658087
 20
53.3311155151
 10
250.9716479579
 20
53.3724293753
 10
250.908425146
 20
53.4030766802
 10
250.837062061
 20
53.4198267174
 10
250.7650815048
 20
53.4209137673
  0
ARC
  5
28F
330
1F
100
AcDbEntity
  8
0
  6
Continuous
 62
     7
370
    15
100
AcDbCircle
 10
250.6611660639
 20
54.1247026893
 30
0.0
 40
0.7114191911884971
100
AcDbArc
 50
212.6698247299
 51
278.3991183993
  0
LWPOLYLINE
  5
290
330
1F
100
AcDbEntity
  8
0
  6
Continuous
 62
     7
370
    15
100
AcDbPolyline
 90
        9
 70
   128
 43
0.0
 10
250.0622968128
 20
53.7406807033
 10
250.0292586817
 20
53.7873771414
 10
249.9772291999
 20
53.8267707047
 10
249.9116931006
 20
53.8547086863
 10
249.8395589291
 20
53.8682459794
 10
249.768430772
 20
53.8659555384
 10
249.7058066663
 20
53.8480788122
 10
249.6582881867
 20
53.8165002915
 10
249.6308845354
 20
53.7745488537
  0
ARC
  5
291
330
1F
100
AcDbEntity
  8
0
  6
Continuous
 62
     7
370
    15
100
AcDbCircle
 10
249.1676467332
 20
54.0746366343
 30
0.0
 40
0.551943781048691
100
AcDbArc
 50
248.1140363801
 51
327.0646304382
  0
LWPOLYLINE
  5
292
330
1F
100
AcDbEntity
  8
0
  6
Continuous
 62
     7
370
    15
100
AcDbPolyline
 90
        9
 70
   128
 43
0.0
 10
249.8930770192
 20
52.8484813349
 10
249.8600388881
 20
52.895177773
 10
249.8080094062
 20
52.9345713363
 10
249.742473307
 20
52.9625093178
 10
249.6703391354
 20
52.9760466109
 10
249.5992109784
 20
52.9737561699
 10
249.5365868727
 20
52.9558794438
 10
249.4890683931
 20
52.9243009231
 10
249.4616647418
 20
52.8823494852
  0
ARC
  5
293
330
1F
100
AcDbEntity
  8
0
  6
Continuous
 62
     7
370
    15
100
AcDbCircle
 10
250.4919462703
 20
53.2325033208
 30
0.0
 40
0.7114191911886272
100
AcDbArc
 50
212.6698247299
 51
278.3991183993
  0
ARC
  5
294
330
1F
100
AcDbEntity
  8
0
  6
Continuous
 62
     7
370
    15
100
AcDbCircle
 10
250.6268839834
 20
52.1933336846
 30
0.0
 40
0.336812417883827
100
AcDbArc
 50
65.4576821469
 51
95.2847459067
  0
ARC
  5
295
330
1F
100
AcDbEntity
  8
0
  6
Continuous
 62
     7
370
    15
100
AcDbCircle
 10
249.0136063002
 20
53.1649579164
 30
0.0
 40
0.5297394570970579
100
AcDbArc
 50
254.8165416631
 51
327.7587257298
  0
LINE
  5
296
330
1F
100
AcDbEntity
  8
0
  6
Continuous
 62
     7
370
    15
100
AcDbLine
 10
249.2189982968
 20
58.1641755902
 30
0.0
 11
248.1135428586
 21
58.4841409865
 31
0.0
  0
LINE
  5
297
330
1F
100
AcDbEntity
  8
0
  6
Continuous
 62
     7
370
    15
100
AcDbLine
 10
258.3477205901
 20
51.0348863101
 30
0.0
 11
249.2189982968
 21
58.1641755902
 31
0.0
  0
LINE
  5
298
330
1F
100
AcDbEntity
  8
0
  6
Continuous
 62
     7
370
    15
100
AcDbLine
 10
258.5058510562
 20
50.6297681174
 30
0.0
 11
258.3477205901
 21
51.0348863101
 31
0.0
  0
LINE
  5
299
330
1F
100
AcDbEntity
  8
0
  6
Continuous
 62
     7
370
    15
100
AcDbLine
 10
258.3651099863
 20
50.5519348126
 30
0.0
 11
258.5058510562
 21
50.6297681174
 31
0.0
  0
LINE
  5
29A
330
1F
100
AcDbEntity
  8
0
  6
Continuous
 62
     7
370
    15
100
AcDbLine
 10
257.7847563103
 20
50.7235530907
 30
0.0
 11
258.3651099863
 21
50.5519348126
 31
0.0
  0
LINE
  5
29B
330
1F
100
AcDbEntity
  8
0
  6
Continuous
 62
     7
370
    15
100
AcDbLine
 10
256.9701137008
 20
50.2730355085
 30
0.0
 11
257.7847563103
 21
50.7235530907
 31
0.0
  0
LINE
  5
29C
330
1F
100
AcDbEntity
  8
0
  6
Continuous
 62
     7
370
    15
100
AcDbLine
 10
244.4166221782
 20
49.4194927627
 30
0.0
 11
256.9701137008
 21
50.2730355085
 31
0.0
  0
LINE
  5
29D
330
1F
100
AcDbEntity
  8
0
  6
Continuous
 62
     7
370
    15
100
AcDbLine
 10
243.8334906599
 20
49.584636138
 30
0.0
 11
244.4166221782
 21
49.4194927627
 31
0.0
  0
LINE
  5
29E
330
1F
100
AcDbEntity
  8
0
  6
Continuous
 62
     7
370
    15
100
AcDbLine
 10
243.7832486173
 20
49.7177480051
 30
0.0
 11
243.8334906599
 21
49.584636138
 31
0.0
  0
LINE
  5
29F
330
1F
100
AcDbEntity
  8
0
  6
Continuous
 62
     7
370
    15
100
AcDbLine
 10
244.2156540078
 20
49.9519402311
 30
0.0
 11
243.7832486173
 21
49.7177480051
 31
0.0
  0
LINE
  5
2A0
330
1F
100
AcDbEntity
  8
0
  6
Continuous
 62
     7
370
    15
100
AcDbLine
 10
243.924841179
 20
50.7224232096
 30
0.0
 11
244.2156540078
 21
49.9519402311
 31
0.0
  0
LINE
  5
2A1
330
1F
100
AcDbEntity
  8
0
  6
Continuous
 62
     7
370
    15
100
AcDbLine
 10
247.3496104084
 20
58.7052552356
 30
0.0
 11
243.924841179
 21
50.7224232096
 31
0.0
  0
LINE
  5
2A2
330
1F
100
AcDbEntity
  8
0
  6
Continuous
 62
     7
370
    15
100
AcDbLine
 10
247.7746114605
 20
58.9452300529
 30
0.0
 11
247.3496104084
 21
58.7052552356
 31
0.0
  0
LINE
  5
2A3
330
1F
100
AcDbEntity
  8
0
  6
Continuous
 62
     7
370
    15
100
AcDbLine
 10
247.9655945731
 20
58.8899514906
 30
0.0
 11
247.7746114605
 21
58.9452300529
 31
0.0
  0
LINE
  5
2A4
330
1F
100
AcDbEntity
  8
0
  6
Continuous
 62
     7
370
    15
100
AcDbLine
 10
248.1135428586
 20
58.4841409865
 30
0.0
 11
247.9655945731
 21
58.8899514906
 31
0.0
  0
LWPOLYLINE
  5
2A5
330
1F
100
AcDbEntity
  8
0
  6
Continuous
 62
     7
370
    15
100
AcDbPolyline
 90
       25
 70
   128
 43
0.0
 10
252.759493746
 20
52.2654919237
 10
252.859466183
 20
52.7415124497
 10
252.7671592986
 20
53.2387747465
 10
252.4888636546
 20
53.7233912103
 10
252.0435446391
 20
54.1623360301
 10
251.4615500071
 20
54.5256958417
 10
250.7825417311
 20
54.7887082744
 10
250.0527931028
 20
54.9334494657
 10
249.3220352853
 20
54.9500555425
 10
248.6400682164
 20
54.8373948281
 10
248.0533668246
 20
54.6031449641
 10
247.6019138404
 20
54.2632696915
 10
247.3164750385
 20
53.8409309485
 10
247.2165026015
 20
53.3649104225
 10
247.3088094858
 20
52.8676481257
 10
247.5871051298
 20
52.3830316619
 10
248.0324241453
 20
51.9440868421
 10
248.6144187773
 20
51.5807270305
 10
249.2934270534
 20
51.3177145978
 10
250.0231756817
 20
51.1729734065
 10
250.7539334991
 20
51.1563673297
 10
251.4359005681
 20
51.2690280441
 10
252.0226019598
 20
51.5032779081
 10
252.4740549441
 20
51.8431531807
 10
252.759493746
 20
52.2654919237
  0
LINE
  5
2A6
330
1F
100
AcDbEntity
  8
0
  6
Continuous
 62
     7
370
    15
100
AcDbLine
 10
256.4695051447
 20
47.6336123769
 30
0.0
 11
256.9701137008
 21
50.2730355085
 31
0.0
  0
LINE
  5
2A7
330
1F
100
AcDbEntity
  8
0
  6
Continuous
 62
     7
370
    15
100
AcDbLine
 10
251.3208055023
 20
47.2835396324
 30
0.0
 11
256.4695051447
 21
47.6336123769
 31
0.0
  0
LINE
  5
2A8
330
1F
100
AcDbEntity
  8
0
  6
Continuous
 62
     7
370
    15
100
AcDbLine
 10
244.3884188792
 20
49.2707928679
 30
0.0
 11
244.4166221782
 21
49.4194927627
 31
0.0
  0
LINE
  5
2A9
330
1F
100
AcDbEntity
  8
0
  6
Continuous
 62
     7
370
    15
100
AcDbLine
 10
243.7659378725
 20
49.2284688542
 30
0.0
 11
243.8334906599
 21
49.584636138
 31
0.0
  0
LINE
  5
2AA
330
1F
100
AcDbEntity
  8
0
  6
Continuous
 62
     7
370
    15
100
AcDbLine
 10
243.6894628376
 20
49.2232691286
 30
0.0
 11
243.7832486173
 21
49.7177480051
 31
0.0
  0
LINE
  5
2AB
330
1F
100
AcDbEntity
  8
0
  6
Continuous
 62
     7
370
    15
100
AcDbLine
 10
243.6398631451
 20
49.2198967236
 30
0.0
 11
243.924841179
 21
50.7224232096
 31
0.0
  0
LINE
  5
2AC
330
1F
100
AcDbEntity
  8
0
  6
Continuous
 62
     7
370
    15
100
AcDbLine
 10
256.4046235191
 20
47.6240737476
 30
0.0
 11
251.3198203489
 21
47.2783454813
 31
0.0
  0
LINE
  5
2AD
330
1F
100
AcDbEntity
  8
0
  6
Continuous
 62
     7
370
    15
100
AcDbLine
 10
256.4046235191
 20
47.6240737476
 30
0.0
 11
256.4695051447
 21
47.6336123769
 31
0.0
  0
LINE
  5
2AE
330
1F
100
AcDbEntity
  8
0
  6
Continuous
 62
     7
370
    15
100
AcDbLine
 10
257.2841477541
 20
48.0841299591
 30
0.0
 11
257.7847563103
 21
50.7235530907
 31
0.0
  0
LINE
  5
2AF
330
1F
100
AcDbEntity
  8
0
  6
Continuous
 62
     7
370
    15
100
AcDbLine
 10
256.4695051447
 20
47.6336123769
 30
0.0
 11
257.2841477541
 21
48.0841299591
 31
0.0
  0
LINE
  5
2B0
330
1F
100
AcDbEntity
  8
0
  6
Continuous
 62
     7
370
    15
100
AcDbLine
 10
258.0052425001
 20
47.9903449858
 30
0.0
 11
258.5058510562
 21
50.6297681174
 31
0.0
  0
LINE
  5
2B1
330
1F
100
AcDbEntity
  8
0
  6
Continuous
 62
     7
370
    15
100
AcDbLine
 10
257.8645014301
 20
47.9125116809
 30
0.0
 11
258.0052425001
 21
47.9903449858
 31
0.0
  0
LINE
  5
2B2
330
1F
100
AcDbEntity
  8
0
  6
Continuous
 62
     7
370
    15
100
AcDbLine
 10
257.8645014301
 20
47.9125116809
 30
0.0
 11
258.3651099863
 21
50.5519348126
 31
0.0
  0
LINE
  5
2B3
330
1F
100
AcDbEntity
  8
0
  6
Continuous
 62
     7
370
    15
100
AcDbLine
 10
257.2841477541
 20
48.0841299591
 30
0.0
 11
257.8645014301
 21
47.9125116809
 31
0.0
  0
LINE
  5
2B4
330
1F
100
AcDbEntity
  8
0
  6
Continuous
 62
     7
370
    15
100
AcDbLine
 10
257.8645014301
 20
47.9125116809
 30
0.0
 11
257.8218029596
 21
47.915240887
 31
0.0
  0
LINE
  5
2B5
330
1F
100
AcDbEntity
  8
0
  6
Continuous
 62
     7
370
    15
100
AcDbLine
 10
257.8218029596
 20
47.915240887
 30
0.0
 11
257.2724865619
 21
48.0776810304
 31
0.0
  0
LINE
  5
2B6
330
1F
100
AcDbEntity
  8
0
  6
Continuous
 62
     7
370
    15
100
AcDbLine
 10
251.7013688912
 20
47.2360239311
 30
0.0
 11
251.8421099612
 21
47.3138572359
 31
0.0
  0
LINE
  5
2B7
330
1F
100
AcDbEntity
  8
0
  6
Continuous
 62
     7
370
    15
100
AcDbLine
 10
251.7013688912
 20
47.2360239311
 30
0.0
 11
251.3067038528
 21
47.209189685
 31
0.0
  0
LINE
  5
2B8
330
1F
100
AcDbEntity
  8
0
  6
Continuous
 62
     7
370
    15
100
AcDbLine
 10
251.7013688912
 20
47.2360239311
 30
0.0
 11
251.3206243556
 21
45.2285753521
 31
0.0
  0
LINE
  5
2B9
330
1F
100
AcDbEntity
  8
0
  6
Continuous
 62
     7
370
    15
100
AcDbLine
 10
250.9259593171
 20
45.201741106
 30
0.0
 11
251.3206243556
 21
45.2285753521
 31
0.0
  0
LINE
  5
2BA
330
1F
100
AcDbEntity
  8
0
  6
Continuous
 62
     7
370
    15
100
AcDbLine
 10
251.3206243556
 20
45.2285753521
 30
0.0
 11
251.953821458
 21
45.2459921394
 31
0.0
  0
LINE
  5
2BB
330
1F
100
AcDbEntity
  8
0
  6
Continuous
 62
     7
370
    15
100
AcDbLine
 10
251.953821458
 20
45.2459921394
 30
0.0
 11
250.9210335506
 21
45.1757703509
 31
0.0
  0
LINE
  5
2BC
330
1F
100
AcDbEntity
  8
0
  6
Continuous
 62
     7
370
    15
100
AcDbLine
 10
251.953821458
 20
45.2459921394
 30
0.0
 11
253.7696566592
 21
46.2501940742
 31
0.0
  0
LINE
  5
2BD
330
1F
100
AcDbEntity
  8
0
  6
Continuous
 62
     7
370
    15
100
AcDbLine
 10
254.011138756
 20
46.2658627729
 30
0.0
 11
255.1300931576
 21
45.9349731178
 31
0.0
  0
ARC
  5
2BE
330
1F
100
AcDbEntity
  8
0
  6
Continuous
 62
     7
370
    15
100
AcDbCircle
 10
255.1705774993
 20
46.058504659
 30
0.0
 40
0.1299962445258113
100
AcDbArc
 50
251.8547501935
 51
295.5701778652
  0
ARC
  5
2BF
330
1F
100
AcDbEntity
  8
0
  6
Continuous
 62
     7
370
    15
100
AcDbCircle
 10
253.9099279016
 20
45.95703392
 30
0.0
 40
0.324990611317039
100
AcDbArc
 50
71.8547501937
 51
115.5701778651
  0
LINE
  5
2C0
330
1F
100
AcDbEntity
  8
0
  6
Continuous
 62
     7
370
    15
100
AcDbLine
 10
255.2266859963
 20
45.9412405973
 30
0.0
 11
255.4612756376
 21
46.0709744914
 31
0.0
  0
ARC
  5
2C1
330
1F
100
AcDbEntity
  8
0
  6
Continuous
 62
     7
370
    15
100
AcDbCircle
 10
255.4384913486
 20
46.1185355062
 30
0.0
 40
0.0527368368357322
100
AcDbArc
 50
295.596932154
 51
347.0573531288
  0
ELLIPSE
  5
2C2
330
1F
100
AcDbEntity
  8
0
  6
Continuous
 62
     7
370
    15
100
AcDbEllipse
 10
226.8005902142
 20
40.593633806
 30
0.0
 11
32.78565275083844
 21
5.190547693856531
 31
0.0
210
0.0
220
0.0
230
1.0
 40
0.567020192
 41
3.859867244292208
 42
4.537885202789711
  0
SPLINE
  5
2C3
330
1F
100
AcDbEntity
  8
0
  6
Continuous
 62
     7
370
    15
100
AcDbSpline
210
0.0
220
0.0
230
1.0
 70
     8
 71
     3
 72
    12
 73
     8
 74
     0
 42
0.000000001
 43
0.00000001
 40
0.0
 40
0.0
 40
0.0
 40
0.0
 40
0.2499999999999987
 40
0.2499999999999987
 40
0.4999999999999973
 40
0.4999999999999973
 40
1.0
 40
1.0
 40
1.0
 40
1.0
 10
204.0517291136325
 20
24.4515387597829
 30
0.0
 10
203.9499639137181
 20
24.58420515681422
 30
0.0
 10
203.8348515207056
 20
24.71183102627135
 30
0.0
 10
203.5912091326279
 20
24.95494882922121
 30
0.0
 10
203.4619595353509
 20
25.07117457724091
 30
0.0
 10
203.0555645073599
 20
25.40646492836832
 30
0.0
 10
202.7619524562848
 20
25.61370747356412
 30
0.0
 10
202.4341632832343
 20
25.79641286988571
 30
0.0
  0
ELLIPSE
  5
2C4
330
1F
100
AcDbEntity
  8
0
  6
Continuous
 62
     7
370
    15
100
AcDbEllipse
 10
226.8005902142
 20
40.593633806
 30
0.0
 11
32.14279681454752
 21
5.088772248878954
 31
0.0
210
0.0
220
0.0
230
1.0
 40
0.567020192
 41
2.693583949912179
 42
3.767156850294906
  0
ELLIPSE
  5
2C5
330
1F
100
AcDbEntity
  8
0
  6
Continuous
 62
     7
370
    15
100
AcDbEllipse
 10
199.0837359735
 20
45.8076950215
 30
0.0
 11
4.741556902734771
 21
0.01149029393810253
 31
0.0
210
0.0
220
0.0
230
1.0
 40
0.4721272403
 41
4.154960709210331
 42
4.621904484579787
  0
LINE
  5
2C6
330
1F
100
AcDbEntity
  8
0
  6
Continuous
 62
     7
370
    15
100
AcDbLine
 10
238.0417955078
 20
41.9858195084
 30
0.0
 11
198.6606864895
 21
43.5771966004
 31
0.0
  0
LINE
  5
2C7
330
1F
100
AcDbEntity
  8
0
  6
Continuous
 62
     7
370
    15
100
AcDbLine
 10
234.2460168542
 20
21.9728455834
 30
0.0
 11
238.0417955078
 21
41.9858195084
 31
0.0
  0
LINE
  5
2C8
330
1F
100
AcDbEntity
  8
0
  6
Continuous
 62
     7
370
    15
100
AcDbLine
 10
224.0068097223
 20
21.3846582511
 30
0.0
 11
234.2460168542
 21
21.9728455834
 31
0.0
  0
LINE
  5
2C9
330
1F
100
AcDbEntity
  8
0
  6
Continuous
 62
     7
370
    15
100
AcDbLine
 10
247.4652717528
 20
58.8918910102
 30
0.0
 11
247.396579852
 21
58.7317763079
 31
0.0
  0
LINE
  5
2CA
330
1F
100
AcDbEntity
  8
0
  6
Continuous
 62
     7
370
    15
100
AcDbLine
 10
244.6269118461
 20
52.3588874004
 30
0.0
 11
241.6841297091
 21
52.1588004094
 31
0.0
  0
LWPOLYLINE
  5
2CB
330
1F
100
AcDbEntity
  8
0
  6
Continuous
 62
     7
370
    15
100
AcDbPolyline
 90
       11
 70
   128
 43
0.0
 10
241.6841297091
 20
52.1588004094
 10
241.0459820381
 20
52.0402369554
 10
240.5256286707
 20
51.7866927522
 10
240.17400542
 20
51.4229864728
 10
240.0255316198
 20
50.984720222
 10
240.09474092
 20
50.5147945541
 10
240.3748586321
 20
50.0592090675
 10
240.8384648828
 20
49.6625596439
 10
241.4401786621
 20
49.3636730926
 10
242.121100033
 20
49.1918065116
 10
242.8145756673
 20
49.1637833993
  0
LINE
  5
2CC
330
1F
100
AcDbEntity
  8
0
  6
Continuous
 62
     7
370
    15
100
AcDbLine
 10
242.8145756673
 20
49.1637833993
 30
0.0
 11
251.3947027251
 21
49.7471673285
 31
0.0
  0
LINE
  5
2CD
330
1F
100
AcDbEntity
  8
0
  6
Continuous
 62
     7
370
    15
100
AcDbLine
 10
251.7369733825
 20
49.4777552849
 30
0.0
 11
251.3947027251
 21
49.7471673285
 31
0.0
  0
LINE
  5
2CE
330
1F
100
AcDbEntity
  8
0
  6
Continuous
 62
     7
370
    15
100
AcDbLine
 10
251.7369733825
 20
49.4777552849
 30
0.0
 11
238.0417955078
 21
41.9858195084
 31
0.0
  0
ELLIPSE
  5
2CF
330
1F
100
AcDbEntity
  8
0
  6
Continuous
 62
     7
370
    15
100
AcDbEllipse
 10
236.8364173505
 20
34.8000741196
 30
0.0
 11
100.7127997593134
 21
-77.77759629610438
 31
0.0
210
0.0
220
0.0
230
1.0
 40
0.1453034859
 41
1.729405585815653
 42
1.731940671254855
  0
SPLINE
  5
2D0
330
1F
100
AcDbEntity
  8
0
  6
Continuous
 62
     7
370
    15
100
AcDbSpline
210
0.0
220
0.0
230
1.0
 70
     8
 71
     3
 72
    10
 73
     6
 74
     0
 42
0.000000001
 43
0.00000001
 40
0.0
 40
0.0
 40
0.0
 40
0.0
 40
0.5
 40
0.5
 40
1.0
 40
1.0
 40
1.0
 40
1.0
 10
233.3313476978494
 20
61.30756067614188
 30
0.0
 10
233.1380729085689
 20
61.25479152638935
 30
0.0
 10
232.9077837019249
 20
61.24813938409432
 30
0.0
 10
232.4650072492867
 20
61.32839883496492
 30
0.0
 10
232.2526257498131
 20
61.41436986905006
 30
0.0
 10
232.0888266919797
 20
61.53489687080506
 30
0.0
  0
SPLINE
  5
2D1
330
1F
100
AcDbEntity
  8
0
  6
Continuous
 62
     7
370
    15
100
AcDbSpline
210
0.0
220
0.0
230
1.0
 70
     8
 71
     3
 72
     8
 73
     4
 74
     0
 42
0.000000001
 43
0.00000001
 40
0.0
 40
0.0
 40
0.0
 40
0.0
 40
1.0
 40
1.0
 40
1.0
 40
1.0
 10
241.1014154448644
 20
63.4149728227048
 30
0.0
 10
238.5091314989084
 20
62.71540386397473
 30
0.0
 10
235.9183666950608
 20
62.01388555888782
 30
0.0
 10
233.3313476978491
 20
61.30756067614182
 30
0.0
  0
SPLINE
  5
2D2
330
1F
100
AcDbEntity
  8
0
  6
Continuous
 62
     7
370
    15
100
AcDbSpline
210
0.0
220
0.0
230
1.0
 70
     8
 71
     3
 72
     8
 73
     4
 74
     0
 42
0.000000001
 43
0.00000001
 40
0.0
 40
0.0
 40
0.0
 40
0.0
 40
1.0
 40
1.0
 40
1.0
 40
1.0
 10
241.6334793463298
 20
63.44636574964915
 30
0.0
 10
241.4488052167421
 20
63.46911787217923
 30
0.0
 10
241.2638538525718
 20
63.45880940469456
 30
0.0
 10
241.1014154448644
 20
63.4149728227048
 30
0.0
  0
LINE
  5
2D3
330
1F
100
AcDbEntity
  8
0
  6
Continuous
 62
     7
370
    15
100
AcDbLine
 10
241.6334793463
 20
63.4463657496
 30
0.0
 11
247.4652717528
 21
58.8918910102
 31
0.0
  0
SPLINE
  5
2D4
330
1F
100
AcDbEntity
  8
0
  6
Continuous
 62
     7
370
    15
100
AcDbSpline
210
0.0
220
0.0
230
1.0
 70
     8
 71
     3
 72
    18
 73
    14
 74
     0
 42
0.000000001
 43
0.00000001
 40
0.0
 40
0.0
 40
0.0
 40
0.0
 40
0.2500000000000023
 40
0.2500000000000023
 40
0.3750000000000022
 40
0.3750000000000022
 40
0.500000000000002
 40
0.500000000000002
 40
0.6250000000000018
 40
0.6250000000000018
 40
0.7500000000000017
 40
0.7500000000000017
 40
1.0
 40
1.0
 40
1.0
 40
1.0
 10
231.8322063057843
 20
61.72364919482374
 30
0.0
 10
231.622215673045
 20
61.8780427565715
 30
0.0
 10
231.4169489167706
 20
62.05560685902039
 30
0.0
 10
231.1145672635236
 20
62.35463753137491
 30
0.0
 10
231.014910426141
 20
62.45976249431724
 30
0.0
 10
230.8235689545537
 20
62.67395393457458
 30
0.0
 10
230.7310345746118
 20
62.78383813773025
 30
0.0
 10
230.5518166563533
 20
63.00882620962264
 30
0.0
 10
230.4645252181903
 20
63.12483445761692
 30
0.0
 10
230.3000470417145
 20
63.35569403390507
 30
0.0
 10
230.2225225153077
 20
63.47086742241584
 30
0.0
 10
230.0030900352062
 20
63.81518696125907
 30
0.0
 10
229.8736521644803
 20
64.04458637430177
 30
0.0
 10
229.765975019597
 20
64.26197147571176
 30
0.0
  0
ELLIPSE
  5
2D5
330
1F
100
AcDbEntity
  8
0
  6
Continuous
 62
     7
370
    15
100
AcDbEllipse
 10
214.288839726
 20
47.8165136195
 30
0.0
 11
5.434907954689039
 21
25.04434674121971
 31
0.0
210
0.0
220
0.0
230
1.0
 40
0.6927618609
 41
5.568346462193367
 42
8.079766567307274
  0
SPLINE
  5
2D6
330
1F
100
AcDbEntity
  8
0
  6
Continuous
 62
     7
370
    15
100
AcDbSpline
210
0.0
220
0.0
230
1.0
 70
     8
 71
     3
 72
    10
 73
     6
 74
     0
 42
0.000000001
 43
0.00000001
 40
0.0
 40
0.0
 40
0.0
 40
0.0
 40
0.5
 40
0.5
 40
1.0
 40
1.0
 40
1.0
 40
1.0
 10
196.1627107576915
 20
45.8793334379152
 30
0.0
 10
196.1437367707537
 20
45.54021400647996
 30
0.0
 10
196.1698368249222
 20
45.20145920022222
 30
0.0
 10
196.3130766501048
 20
44.52396437049843
 30
0.0
 10
196.4265865916534
 20
44.20294703483641
 30
0.0
 10
196.580029788762
 20
43.90188407518075
 30
0.0
  0
ARC
  5
2D7
330
1F
100
AcDbEntity
  8
0
  6
Continuous
 62
     7
370
    15
100
AcDbCircle
 10
199.6816946068
 20
72.2008392542
 30
0.0
 40
11.20676239856439
100
AcDbArc
 50
63.5771014982
 51
115.6869699588
  0
ARC
  5
2D8
330
1F
100
AcDbEntity
  8
0
  6
Continuous
 62
     7
370
    15
100
AcDbCircle
 10
185.920471406
 20
48.2849760668
 30
0.0
 40
11.24690278165833
100
AcDbArc
 50
185.4699852686
 51
236.2416144751
  0
SPLINE
  5
2D9
330
1F
100
AcDbEntity
  8
0
  6
Continuous
 62
     7
370
    15
100
AcDbSpline
210
0.0
220
0.0
230
1.0
 70
     8
 71
     3
 72
    12
 73
     8
 74
     0
 42
0.000000001
 43
0.00000001
 40
0.0
 40
0.0
 40
0.0
 40
0.0
 40
0.2499999999999991
 40
0.2499999999999991
 40
0.4999999999999982
 40
0.4999999999999982
 40
1.0
 40
1.0
 40
1.0
 40
1.0
 10
181.1395020904536
 20
53.68112457660901
 30
0.0
 10
181.0945042514378
 20
53.70710127614326
 30
0.0
 10
181.0582131584233
 20
53.75606093233486
 30
0.0
 10
181.0055798918934
 20
53.86784257611062
 30
0.0
 10
180.988813113539
 20
53.92852573002319
 30
0.0
 10
180.9536175329195
 20
54.11324314406958
 30
0.0
 10
180.9504169858684
 20
54.23726797694793
 30
0.0
 10
180.9564158363609
 20
54.3597882813908
 30
0.0
  0
LINE
  5
2DA
330
1F
100
AcDbEntity
  8
0
  6
Continuous
 62
     7
370
    15
100
AcDbLine
 10
183.2215683718
 20
52.4791732966
 30
0.0
 11
181.1395020905
 21
53.6811245766
 31
0.0
  0
SPLINE
  5
2DB
330
1F
100
AcDbEntity
  8
0
  6
Continuous
 62
     7
370
    15
100
AcDbSpline
210
0.0
220
0.0
230
1.0
 70
     8
 71
     3
 72
    12
 73
     8
 74
     0
 42
0.000000001
 43
0.00000001
 40
0.0
 40
0.0
 40
0.0
 40
0.0
 40
0.4999999999999968
 40
0.4999999999999968
 40
0.7499999999999983
 40
0.7499999999999983
 40
1.0
 40
1.0
 40
1.0
 40
1.0
 10
183.6508545534226
 20
52.80432191906364
 30
0.0
 10
183.6012271472132
 20
52.70703723416992
 30
0.0
 10
183.5451503062756
 20
52.61730045129716
 30
0.0
 10
183.4396557710947
 20
52.51358233039295
 30
0.0
 10
183.4007626019189
 20
52.48455100820801
 30
0.0
 10
183.3152477598438
 20
52.45376139738399
 30
0.0
 10
183.2664918406717
 20
52.45323953007575
 30
0.0
 10
183.2215683718193
 20
52.47917329662848
 30
0.0
  0
ELLIPSE
  5
2DC
330
1F
100
AcDbEntity
  8
0
  6
Continuous
 62
     7
370
    15
100
AcDbEllipse
 10
191.210623614
 20
61.1392841978
 30
0.0
 11
12.49982297888368
 21
21.65073731825643
 31
0.0
210
0.0
220
0.0
230
1.0
 40
0.1059897947
 41
1.115125557425489
 42
2.026312780645512
  0
SPLINE
  5
2DD
330
1F
100
AcDbEntity
  8
0
  6
Continuous
 62
     7
370
    15
100
AcDbSpline
210
0.0
220
0.0
230
1.0
 70
     8
 71
     3
 72
    12
 73
     8
 74
     0
 42
0.000000001
 43
0.00000001
 40
0.0
 40
0.0
 40
0.0
 40
0.0
 40
0.2500000000000016
 40
0.2500000000000016
 40
0.5000000000000032
 40
0.5000000000000032
 40
1.0
 40
1.0
 40
1.0
 40
1.0
 10
194.7176546623793
 20
72.39097878163591
 30
0.0
 10
194.7626525013952
 20
72.36500208210165
 30
0.0
 10
194.786364071345
 20
72.32330679075078
 30
0.0
 10
194.8027332980887
 20
72.23246673706979
 30
0.0
 10
194.7968923032275
 20
72.18483901554775
 30
0.0
 10
194.7598676889976
 20
72.04182698584404
 30
0.0
 10
194.7101974546796
 20
71.94833372743855
 30
0.0
 10
194.6507409164721
 20
71.8566839214327
 30
0.0
  0
LINE
  5
2DE
330
1F
100
AcDbEntity
  8
0
  6
Continuous
 62
     7
370
    15
100
AcDbLine
 10
192.635588381
 20
73.5929300616
 30
0.0
 11
194.7176546624
 21
72.3909787816
 31
0.0
  0
SPLINE
  5
2DF
330
1F
100
AcDbEntity
  8
0
  6
Continuous
 62
     7
370
    15
100
AcDbSpline
210
0.0
220
0.0
230
1.0
 70
     8
 71
     3
 72
    12
 73
     8
 74
     0
 42
0.000000001
 43
0.00000001
 40
0.0
 40
0.0
 40
0.0
 40
0.0
 40
0.5000000000000064
 40
0.5000000000000064
 40
0.7500000000000032
 40
0.7500000000000032
 40
1.0
 40
1.0
 40
1.0
 40
1.0
 10
191.9563021994104
 20
73.41215028375989
 30
0.0
 10
192.0593663358174
 20
73.47857657266682
 30
0.0
 10
192.1682832374847
 20
73.53779952147957
 30
0.0
 10
192.3460945427108
 20
73.59975648824341
 30
0.0
 10
192.4078099558361
 20
73.61560852646969
 30
0.0
 10
192.529035892962
 20
73.62577585916918
 30
0.0
 10
192.5906649121614
 20
73.61886382816908
 30
0.0
 10
192.6355883810138
 20
73.59293006161636
 30
0.0
  0
ELLIPSE
  5
2E0
330
1F
100
AcDbEntity
  8
0
  6
Continuous
 62
     7
370
    15
100
AcDbEllipse
 10
206.8465331388
 20
52.1128657619
 30
0.0
 11
22.70219620007464
 21
-13.11730493221867
 31
0.0
210
0.0
220
0.0
230
1.0
 40
0.9534948969
 41
2.686319833441778
 42
3.597507056661805
  0
SPLINE
  5
2E1
330
1F
100
AcDbEntity
  8
0
  6
Continuous
 62
     7
370
    15
100
AcDbSpline
210
0.0
220
0.0
230
1.0
 70
     8
 71
     3
 72
    12
 73
     8
 74
     0
 42
0.000000001
 43
0.00000001
 40
0.0
 40
0.0
 40
0.0
 40
0.0
 40
0.25
 40
0.25
 40
0.5
 40
0.5
 40
1.0
 40
1.0
 40
1.0
 40
1.0
 10
203.3395020904535
 20
79.77216791729968
 30
0.0
 10
203.2944839699769
 20
79.79815632507199
 30
0.0
 10
203.2707717919609
 20
79.82638206094664
 30
0.0
 10
203.2544222286948
 20
79.87771528826862
 30
0.0
 10
203.2602798638508
 20
79.9004515719119
 30
0.0
 10
203.2973584122661
 20
79.96246911869986
 30
0.0
 10
203.3473699552348
 20
79.99495719975809
 30
0.0
 10
203.4064158363609
 20
80.02216018835456
 30
0.0
  0
LINE
  5
2E2
330
1F
100
AcDbEntity
  8
0
  6
Continuous
 62
     7
370
    15
100
AcDbLine
 10
205.4215683718
 20
78.5702166373
 30
0.0
 11
203.3395020905
 21
79.7721679173
 31
0.0
  0
SPLINE
  5
2E3
330
1F
100
AcDbEntity
  8
0
  6
Continuous
 62
     7
370
    15
100
AcDbSpline
210
0.0
220
0.0
230
1.0
 70
     8
 71
     3
 72
    12
 73
     8
 74
     0
 42
0.000000001
 43
0.00000001
 40
0.0
 40
0.0
 40
0.0
 40
0.0
 40
0.4999999999999991
 40
0.4999999999999991
 40
0.7499999999999996
 40
0.7499999999999996
 40
1.0
 40
1.0
 40
1.0
 40
1.0
 10
206.1008545534224
 20
78.46669382602741
 30
0.0
 10
205.9982992857528
 20
78.46451080140652
 30
0.0
 10
205.8903216612902
 20
78.4662776558068
 30
0.0
 10
205.711782360589
 20
78.48542585523647
 30
0.0
 10
205.6498703510351
 20
78.494711597675
 30
0.0
 10
205.5283460851324
 20
78.52349075974543
 30
0.0
 10
205.4664527489153
 20
78.54430543795745
 30
0.0
 10
205.4215683718192
 20
78.57021663731962
 30
0.0
  0
ELLIPSE
  5
2E4
330
1F
100
AcDbEntity
  8
0
  6
Continuous
 62
     7
370
    15
100
AcDbEllipse
 10
191.210623614
 20
61.1392841978
 30
0.0
 11
25.24558057051161
 21
13.2098491763476
 31
0.0
210
0.0
220
0.0
230
1.0
 40
0.4445305117
 41
0.2747775750656684
 42
0.7302899226136031
  0
ELLIPSE
  5
2E5
330
1F
100
AcDbEntity
  8
0
  6
Continuous
 62
     7
370
    15
100
AcDbEllipse
 10
206.8465331388
 20
52.1128657619
 30
0.0
 11
-1.184292268249493
 21
28.46789501682915
 31
0.0
210
0.0
220
0.0
230
1.0
 40
0.4444802122
 41
5.829499913454022
 42
6.463971794465674
  0
ELLIPSE
  5
2E6
330
1F
100
AcDbEntity
  8
0
  6
Continuous
 62
     7
370
    15
100
AcDbEllipse
 10
191.210623614
 20
61.1392841978
 30
0.0
 11
-1.18429226824955
 21
28.46789501682921
 31
0.0
210
0.0
220
0.0
230
1.0
 40
0.4444802122
 41
2.411191917655856
 42
2.866866793327964
  0
SPLINE
  5
2E7
330
1F
100
AcDbEntity
  8
0
  6
Continuous
 62
     7
370
    15
100
AcDbSpline
210
0.0
220
0.0
230
1.0
 70
     8
 71
     3
 72
    12
 73
     8
 74
     0
 42
0.000000001
 43
0.00000001
 40
0.0
 40
0.0
 40
0.0
 40
0.0
 40
0.25
 40
0.25
 40
0.5
 40
0.5
 40
1.0
 40
1.0
 40
1.0
 40
1.0
 10
183.2215683718194
 20
40.1186888221413
 30
0.0
 10
183.266586492296
 20
40.092700414369
 30
0.0
 10
183.3145785422205
 20
40.0504536502786
 30
0.0
 10
183.401467333124
 20
39.95838575579067
 30
0.0
 10
183.4398097099524
 20
39.9101250535052
 30
0.0
 10
183.5451828941385
 20
39.76584513854176
 30
0.0
 10
183.6015505869103
 20
39.67192566807945
 30
0.0
 10
183.6508545534226
 20
39.58215331022771
 30
0.0
  0
LINE
  5
2E8
330
1F
100
AcDbEntity
  8
0
  6
Continuous
 62
     7
370
    15
100
AcDbLine
 10
181.1395020905
 20
41.3206401021
 30
0.0
 11
183.2215683718
 21
40.1186888221
 31
0.0
  0
SPLINE
  5
2E9
330
1F
100
AcDbEntity
  8
0
  6
Continuous
 62
     7
370
    15
100
AcDbSpline
210
0.0
220
0.0
230
1.0
 70
     8
 71
     3
 72
    12
 73
     8
 74
     0
 42
0.000000001
 43
0.00000001
 40
0.0
 40
0.0
 40
0.0
 40
0.0
 40
0.4999999999999991
 40
0.4999999999999991
 40
0.7499999999999996
 40
0.7499999999999996
 40
1.0
 40
1.0
 40
1.0
 40
1.0
 10
180.9564158363611
 20
41.13761967255486
 30
0.0
 10
180.9504489447592
 20
41.20247157215655
 30
0.0
 10
180.9534119239672
 20
41.26134808975321
 30
0.0
 10
180.9886395755166
 20
41.32495883913433
 30
0.0
 10
181.0057827059701
 20
41.34152602209097
 30
0.0
 10
181.0576409330441
 20
41.35297728214887
 30
0.0
 10
181.0946177133576
 20
41.34655130148354
 30
0.0
 10
181.1395020904537
 20
41.32064010212137
 30
0.0
  0
ELLIPSE
  5
2EA
330
1F
100
AcDbEntity
  8
0
  6
Continuous
 62
     7
370
    15
100
AcDbEllipse
 10
206.8465331388
 20
52.1128657619
 30
0.0
 11
25.24558057051155
 21
13.2098491763476
 31
0.0
210
0.0
220
0.0
230
1.0
 40
0.4445305117
 41
2.960695352983357
 42
3.595329762119253
  0
SPLINE
  5
2EB
330
1F
100
AcDbEntity
  8
0
  6
Continuous
 62
     7
370
    15
100
AcDbSpline
210
0.0
220
0.0
230
1.0
 70
    11
 71
     3
 72
    70
 73
    66
 74
     0
 42
0.000000001
 43
0.00000001
 40
0.0
 40
0.0
 40
0.0
 40
0.0
 40
0.0312500000000001
 40
0.0312500000000001
 40
0.0625000000000003
 40
0.0625000000000003
 40
0.0937500000000004
 40
0.0937500000000004
 40
0.1250000000000006
 40
0.1250000000000006
 40
0.1562500000000007
 40
0.1562500000000007
 40
0.1875000000000009
 40
0.1875000000000009
 40
0.218750000000001
 40
0.218750000000001
 40
0.2500000000000012
 40
0.2500000000000012
 40
0.2812500000000013
 40
0.2812500000000013
 40
0.3125000000000014
 40
0.3125000000000014
 40
0.3437500000000016
 40
0.3437500000000016
 40
0.3750000000000018
 40
0.3750000000000018
 40
0.4062500000000017
 40
0.4062500000000017
 40
0.4375000000000016
 40
0.4375000000000016
 40
0.4687500000000014
 40
0.4687500000000014
 40
0.5000000000000013
 40
0.5000000000000013
 40
0.5312500000000012
 40
0.5312500000000012
 40
0.5625000000000012
 40
0.5625000000000012
 40
0.5937500000000011
 40
0.5937500000000011
 40
0.625000000000001
 40
0.625000000000001
 40
0.656250000000001
 40
0.656250000000001
 40
0.6875000000000009
 40
0.6875000000000009
 40
0.7187500000000008
 40
0.7187500000000008
 40
0.7500000000000007
 40
0.7500000000000007
 40
0.7812500000000007
 40
0.7812500000000007
 40
0.8125000000000006
 40
0.8125000000000006
 40
0.8437500000000004
 40
0.8437500000000004
 40
0.8750000000000004
 40
0.8750000000000004
 40
0.9062500000000003
 40
0.9062500000000003
 40
0.9375000000000002
 40
0.9375000000000002
 40
0.9687500000000002
 40
0.9687500000000002
 40
1.0
 40
1.0
 40
1.0
 40
1.0
 10
212.4647199610625
 20
76.18199562626523
 30
0.0
 10
212.3244399360239
 20
76.26297756097102
 30
0.0
 10
212.1989998811402
 20
76.34275323638686
 30
0.0
 10
211.9764538873624
 20
76.49975387557112
 30
0.0
 10
211.8785307571123
 20
76.57779682340049
 30
0.0
 10
211.717503910433
 20
76.72588210706992
 30
0.0
 10
211.6541947869685
 20
76.79578101912786
 30
0.0
 10
211.5612081350716
 20
76.92636316717515
 30
0.0
 10
211.5318519710192
 20
76.98719644437627
 30
0.0
 10
211.5094168882272
 20
77.0930976022259
 30
0.0
 10
211.5156524780813
 20
77.13893020523534
 30
0.0
 10
211.5634481272068
 20
77.21478053822119
 30
0.0
 10
211.6048716731352
 20
77.24401217852144
 30
0.0
 10
211.7194558758033
 20
77.28323107707872
 30
0.0
 10
211.7934708367965
 20
77.29350250034993
 30
0.0
 10
211.972121042687
 20
77.29357496999194
 30
0.0
 10
212.0750084238611
 20
77.28353222025703
 30
0.0
 10
212.307145624284
 20
77.24354705801625
 30
0.0
 10
212.4380178132581
 20
77.21307125124984
 30
0.0
 10
212.7169605586349
 20
77.13422049717735
 30
0.0
 10
212.8654426794556
 20
77.0859404340893
 30
0.0
 10
213.180851934293
 20
76.97222340577406
 30
0.0
 10
213.3473744046669
 20
76.90680136142069
 30
0.0
 10
213.6851476480663
 20
76.76526079105916
 30
0.0
 10
213.8582277595811
 20
76.68848722809349
 30
0.0
 10
214.2129762957669
 20
76.52397325358615
 30
0.0
 10
214.3890054778446
 20
76.43886720852639
 30
0.0
 10
214.7390503137325
 20
76.26433779602138
 30
0.0
 10
214.9149526887794
 20
76.17390104937796
 30
0.0
 10
215.2546120995449
 20
75.99499115937614
 30
0.0
 10
215.4179671291122
 20
75.90679921127115
 30
0.0
 10
215.7321241788891
 20
75.73360683395295
 30
0.0
 10
215.8835677110142
 20
75.64819396523639
 30
0.0
 10
216.160641990408
 20
75.48825753581127
 30
0.0
 10
216.2880459522202
 20
75.41277684953276
 30
0.0
 10
216.5199372379078
 20
75.27076343055879
 30
0.0
 10
216.6222946499542
 20
75.20548721542137
 30
0.0
 10
216.7954812812235
 20
75.08848337826436
 30
0.0
 10
216.8676286955193
 20
75.03585881730105
 30
0.0
 10
216.9781089267062
 20
74.9443401056143
 30
0.0
 10
217.0158830028378
 20
74.90601451758796
 30
0.0
 10
217.0568459506749
 20
74.84266425530205
 30
0.0
 10
217.0596614964462
 20
74.81754326206243
 30
0.0
 10
217.0289948125381
 20
74.7816968573809
 30
0.0
 10
216.9960022333841
 20
74.77063653516925
 30
0.0
 10
216.893869041126
 20
74.76137231310572
 30
0.0
 10
216.8244300386761
 20
74.76335536287678
 30
0.0
 10
216.6546548182568
 20
74.7795153912385
 30
0.0
 10
216.5538346620221
 20
74.79361135464471
 30
0.0
 10
216.3188244690725
 20
74.83411830993057
 30
0.0
 10
216.1885778956863
 20
74.85985036151729
 30
0.0
 10
215.903845444818
 20
74.92203045637503
 30
0.0
 10
215.7474549306749
 20
74.95897184640671
 30
0.0
 10
215.4192602537533
 20
75.04239243967913
 30
0.0
 10
215.2481925916642
 20
75.08861634810103
 30
0.0
 10
214.8926219087001
 20
75.19102740489048
 30
0.0
 10
214.707103348557
 20
75.24761465137163
 30
0.0
 10
214.3386087656691
 20
75.36735101757924
 30
0.0
 10
214.1537708502935
 20
75.43099461894279
 30
0.0
 10
213.7833270589034
 20
75.56729008990908
 30
0.0
 10
213.6009772488818
 20
75.6388238169683
 30
0.0
 10
213.250484254448
 20
75.78627539182425
 30
0.0
 10
213.0799605821801
 20
75.86318849666887
 30
0.0
 10
212.7561646798409
 20
76.0211108672476
 30
0.0
 10
212.6049999861009
 20
76.10101369155944
 30
0.0
 10
212.4647199610624
 20
76.18199562626523
 30
0.0
  0
ELLIPSE
  5
2EC
330
1F
100
AcDbEntity
  8
0
  6
Continuous
 62
     7
370
    15
100
AcDbEllipse
 10
223.2108910093
 20
63.2412507044
 30
0.0
 11
0.2248650927209042
 21
2.494920970590826
 31
0.0
210
0.0
220
0.0
230
1.0
 40
0.941138617
 41
4.120281391073075
 42
9.571569713702292
  0
SPLINE
  5
2ED
330
1F
100
AcDbEntity
  8
0
  6
Continuous
 62
     7
370
    15
100
AcDbSpline
210
0.0
220
0.0
230
1.0
 70
     8
 71
     3
 72
    12
 73
     8
 74
     0
 42
0.000000001
 43
0.00000001
 40
0.0
 40
0.0
 40
0.0
 40
0.0
 40
0.4999999999999979
 40
0.4999999999999979
 40
0.7499999999999989
 40
0.7499999999999989
 40
1.0
 40
1.0
 40
1.0
 40
1.0
 10
223.3318845330418
 20
60.74220757435592
 30
0.0
 10
223.6303987939979
 20
60.76192095622142
 30
0.0
 10
223.9337107442617
 20
60.83393704013952
 30
0.0
 10
224.3772842186557
 20
61.05957907451065
 30
0.0
 10
224.5194002770515
 20
61.15355355365203
 30
0.0
 10
224.7879351970145
 20
61.38245378248482
 30
0.0
 10
224.9156436731588
 20
61.51921726710377
 30
0.0
 10
225.0337376325216
 20
61.67320491072791
 30
0.0
  0
ARC
  5
2EE
330
1F
100
AcDbEntity
  8
0
  6
Continuous
 62
     7
370
    15
100
AcDbCircle
 10
214.2492442285
 20
47.9020601878
 30
0.0
 40
40.00405129957509
100
AcDbArc
 50
134.2523186287
 51
170.8055351343
  0
ELLIPSE
  5
2EF
330
1F
100
AcDbEntity
  8
0
  6
Continuous
 62
     7
370
    15
100
AcDbEllipse
 10
239.0599571977
 20
42.9053442245
 30
0.0
 11
16.61879112154478
 21
21.51937141505391
 31
0.0
210
0.0
220
0.0
230
1.0
 40
0.4716471575
 41
3.990430270797086
 42
4.859304844920632
  0
LINE
  5
2F0
330
1F
100
AcDbEntity
  8
0
  6
Continuous
 62
     7
370
    15
100
AcDbLine
 10
234.2460168542
 20
21.9728455834
 30
0.0
 11
235.6946966821
 21
22.8014658472
 31
0.0
  0
LINE
  5
2F1
330
1F
100
AcDbEntity
  8
0
  6
Continuous
 62
     7
370
    15
100
AcDbLine
 10
251.7369733825
 20
49.4777552849
 30
0.0
 11
250.7992136928
 21
44.5334837848
 31
0.0
  0
LINE
  5
2F2
330
1F
100
AcDbEntity
  8
0
  6
Continuous
 62
     7
370
    15
100
AcDbLine
 10
253.9801597756
 20
46.2736177195
 30
0.0
 11
250.7992136928
 21
44.5334837848
 31
0.0
  0
SPLINE
  5
2F3
330
1F
100
AcDbEntity
  8
0
  6
Continuous
 62
     7
370
    15
100
AcDbSpline
210
0.0
220
0.0
230
1.0
 70
     8
 71
     3
 72
     9
 73
     5
 74
     0
 42
0.000000001
 43
0.00000001
 40
0.0
 40
0.0
 40
0.0
 40
0.0
 40
0.5222197765920483
 40
0.9999999999999999
 40
0.9999999999999999
 40
0.9999999999999999
 40
0.9999999999999999
 10
251.5330033347279
 20
38.30173887470067
 30
0.0
 10
252.2087450782163
 20
39.6714295247199
 30
0.0
 10
253.5027246894408
 20
42.29425369073996
 30
0.0
 10
254.3843350251987
 20
44.82283729553448
 30
0.0
 10
254.8055510083759
 20
46.03094453513886
 30
0.0
  0
ARC
  5
2F4
330
1F
100
AcDbEntity
  8
0
  6
Continuous
 62
     7
370
    15
100
AcDbCircle
 10
197.0682016482
 20
60.2526580207
 30
0.0
 40
37.22785501754244
100
AcDbArc
 50
140.3510260334
 51
177.2376142263
  0
LINE
  5
2F5
330
1F
100
AcDbEntity
  8
0
  6
Continuous
 62
     7
370
    15
100
AcDbLine
 10
181.1395020905
 20
41.3206401021
 30
0.0
 11
183.2246272304
 21
40.1165316731
 31
0.0
  0
LINE
  5
2F6
330
1F
100
AcDbEntity
  8
0
  6
Continuous
 62
     7
370
    15
100
AcDbLine
 10
247.4394999352
 20
58.7560109282
 30
0.0
 11
247.4652717528
 21
58.8918910102
 31
0.0
  0
ARC
  5
2F7
330
1F
100
AcDbEntity
  8
0
  6
Continuous
 62
     7
370
    15
100
AcDbCircle
 10
175.7312432513
 20
79.1692203676
 30
0.0
 40
8.780342073794449
100
AcDbArc
 50
93.4295381122
 51
146.5650853551
  0
ARC
  5
2F8
330
1F
100
AcDbEntity
  8
0
  6
Continuous
 62
     7
370
    15
100
AcDbCircle
 10
164.7629387615
 20
61.5902913555
 30
0.0
 40
4.90064369812165
100
AcDbArc
 50
174.6547638622
 51
232.6759834224
  0
ARC
  5
2F9
330
1F
100
AcDbEntity
  8
0
  6
Continuous
 62
     7
370
    15
100
AcDbCircle
 10
174.518324003
 20
79.4372178889
 30
0.0
 40
8.524402758293114
100
AcDbArc
 50
62.0154699427
 51
85.3728752634
  0
ARC
  5
2FA
330
1F
100
AcDbEntity
  8
0
  6
Continuous
 62
     7
370
    15
100
AcDbCircle
 10
195.283650545
 20
61.2829540521
 30
0.0
 40
35.89003709472789
100
AcDbArc
 50
140.3510260334
 51
177.2376142263
  0
ARC
  5
2FB
330
1F
100
AcDbEntity
  8
0
  6
Continuous
 62
     7
370
    15
100
AcDbCircle
 10
175.0919245261
 20
78.79865745
 30
0.0
 40
9.186372847039157
100
AcDbArc
 50
103.4689958683
 51
144.1118487458
  0
ARC
  5
2FC
330
1F
100
AcDbEntity
  8
0
  6
Continuous
 62
     7
370
    15
100
AcDbCircle
 10
165.5256185095
 20
62.8910227799
 30
0.0
 40
6.091514707190184
100
AcDbArc
 50
178.8560094402
 51
201.1091694604
  0
LINE
  5
2FD
330
1F
100
AcDbEntity
  8
0
  6
Continuous
 62
     7
370
     0
100
AcDbLine
 10
248.7641801499
 20
52.6291744923
 30
0.0
 11
248.7959486151
 21
52.7966714731
 31
0.0
  0
LINE
  5
2FE
330
1F
100
AcDbEntity
  8
0
  6
Continuous
 62
     7
370
     0
100
AcDbLine
 10
250.985841897
 20
52.3855847224
 30
0.0
 11
251.0305384868
 21
52.6212443244
 31
0.0
  0
LINE
  5
2FF
330
1F
100
AcDbEntity
  8
0
  6
Continuous
 62
     7
370
     0
100
AcDbLine
 10
248.8921067432
 20
53.1944721481
 30
0.0
 11
248.9619039105
 21
53.5624727657
 31
0.0
  0
LINE
  5
300
330
1F
100
AcDbEntity
  8
0
  6
Continuous
 62
     7
370
     0
100
AcDbLine
 10
249.4616647418
 20
52.8823494852
 30
0.0
 11
249.6308845354
 21
53.7745488537
 31
0.0
  0
LINE
  5
301
330
1F
100
AcDbEntity
  8
0
  6
Continuous
 62
     7
370
     0
100
AcDbLine
 10
250.5958617112
 20
52.5287143988
 30
0.0
 11
250.7650815048
 21
53.4209137673
 31
0.0
  0
LINE
  5
302
330
1F
100
AcDbEntity
  8
0
  6
Continuous
 62
     7
370
     0
100
AcDbLine
 10
249.8930770192
 20
52.8484813349
 30
0.0
 11
250.0622968128
 21
53.7406807033
 31
0.0
  0
LINE
  5
303
330
1F
100
AcDbEntity
  8
0
  6
Continuous
 62
     7
370
     0
100
AcDbLine
 10
253.7696566592
 20
46.2501940742
 30
0.0
 11
253.9992149911
 21
47.4605241092
 31
0.0
  0
LINE
  5
304
330
1F
100
AcDbEntity
  8
0
  6
Continuous
 62
     7
370
     0
100
AcDbLine
 10
254.2408412462
 20
47.4769528722
 30
0.0
 11
254.011138756
 21
46.2658627729
 31
0.0
  0
LINE
  5
305
330
1F
100
AcDbEntity
  8
0
  6
Continuous
 62
     7
370
     0
100
AcDbLine
 10
255.1300931576
 20
45.9349731178
 30
0.0
 11
255.4379924136
 21
47.5583501227
 31
0.0
  0
LINE
  5
306
330
1F
100
AcDbEntity
  8
0
  6
Continuous
 62
     7
370
     0
100
AcDbLine
 10
255.5346429156
 20
47.5649216279
 30
0.0
 11
255.2266859963
 21
45.9412405973
 31
0.0
  0
LINE
  5
307
330
1F
100
AcDbEntity
  8
0
  6
Continuous
 62
     7
370
     0
100
AcDbLine
 10
255.4612756376
 20
46.0709744914
 30
0.0
 11
255.7473697551
 21
47.5793854487
 31
0.0
  0
LINE
  5
308
330
1F
100
AcDbEntity
  8
0
  6
Continuous
 62
     7
370
     0
100
AcDbLine
 10
198.6606864895
 20
43.5771966004
 30
0.0
 11
231.8322063058
 21
61.7236491948
 31
0.0
  0
LWPOLYLINE
  5
309
330
1F
100
AcDbEntity
  8
0
  6
Continuous
 62
     7
370
     0
100
AcDbPolyline
 90
       21
 70
   128
 43
0.0
 10
174.4919730692
 20
50.3805529244
 10
174.5611489354
 20
52.224636361
 10
174.768135139
 20
54.1341560994
 10
175.1113117323
 20
56.0941675586
 10
175.5879928931
 20
58.0893309916
 10
176.1944479451
 20
60.1040315393
 10
176.9259305553
 20
62.1225014382
 10
177.7767158804
 20
64.1289434248
 10
178.7401453717
 20
66.1076543699
 10
179.8086788872
 20
68.0431481777
 10
180.9739537034
 20
69.9202769848
 10
182.2268499648
 20
71.7243497132
 10
183.5575620595
 20
73.4412470478
 10
184.9556753612
 20
75.0575319391
 10
186.4102477375
 20
76.5605547663
 10
187.9098951876
 20
77.9385523379
 10
189.4428809366
 20
79.1807399547
 10
190.9972072928
 20
80.2773958142
 10
192.5607095449
 20
81.2199370975
 10
194.1211511679
 20
82.0009871411
 10
194.8240769031
 20
82.3001003015
  0
LWPOLYLINE
  5
30A
330
1F
100
AcDbEntity
  8
0
  6
Continuous
 62
     7
370
     0
100
AcDbPolyline
 90
        3
 70
   128
 43
0.0
 10
174.72478397
 20
47.2128729855
 10
174.5611489354
 20
48.6163382428
 10
174.4919730692
 20
50.3805529244
  0
LINE
  5
30B
330
1F
100
AcDbEntity
  8
0
  6
Continuous
 62
     7
370
     0
100
AcDbLine
 10
196.1627107577
 20
45.8793334379
 30
0.0
 11
223.331884533
 21
60.7422075744
 31
0.0
  0
LINE
  5
30C
330
1F
100
AcDbEntity
  8
0
  6
Continuous
 62
     7
370
     0
100
AcDbLine
 10
225.0337376325
 20
61.6732049107
 30
0.0
 11
229.7659750196
 21
64.2619714757
 31
0.0
  0
LINE
  5
30D
330
1F
100
AcDbEntity
  8
0
  6
Continuous
 62
     7
370
     0
100
AcDbLine
 10
194.7176546624
 20
72.3909787816
 30
0.0
 11
191.6380320315
 21
67.0569159325
 31
0.0
  0
LINE
  5
30E
330
1F
100
AcDbEntity
  8
0
  6
Continuous
 62
     7
370
     0
100
AcDbLine
 10
186.3013717145
 20
57.8135491478
 30
0.0
 11
183.2215683718
 21
52.4791732966
 31
0.0
  0
LINE
  5
30F
330
1F
100
AcDbEntity
  8
0
  6
Continuous
 62
     7
370
     0
100
AcDbLine
 10
192.635588381
 20
73.5929300616
 30
0.0
 11
181.1395020905
 21
53.6811245766
 31
0.0
  0
LINE
  5
310
330
1F
100
AcDbEntity
  8
0
  6
Continuous
 62
     7
370
     0
100
AcDbLine
 10
191.9563021994
 20
73.4121502838
 30
0.0
 11
180.9564158364
 21
54.3597882814
 31
0.0
  0
LINE
  5
311
330
1F
100
AcDbEntity
  8
0
  6
Continuous
 62
     7
370
     0
100
AcDbLine
 10
241.1750558185
 20
49.4747444023
 30
0.0
 11
241.6841297091
 21
52.1588004094
 31
0.0
  0
LINE
  5
312
330
1F
100
AcDbEntity
  8
0
  6
Continuous
 62
     7
370
     0
100
AcDbLine
 10
168.4039401543
 20
84.0070955476
 30
0.0
 11
184.6471513828
 21
74.8048091612
 31
0.0
  0
LINE
  5
313
330
1F
100
AcDbEntity
  8
0
  6
Continuous
 62
     7
370
     0
100
AcDbLine
 10
159.8836057111
 20
62.0468191634
 30
0.0
 11
174.5494884336
 21
53.1440094238
 31
0.0
  0
LINE
  5
314
330
1F
100
AcDbEntity
  8
0
  6
Continuous
 62
     7
370
     0
100
AcDbLine
 10
180.9564158364
 20
41.1376196726
 30
0.0
 11
183.651261274
 21
39.581412784
 31
0.0
  0
LINE
  5
315
330
1F
100
AcDbEntity
  8
0
  6
Continuous
 62
     7
370
     0
100
AcDbLine
 10
206.099921806
 20
78.4667268095
 30
0.0
 11
203.4064158364
 21
80.0221601884
 31
0.0
  0
LINE
  5
316
330
1F
100
AcDbEntity
  8
0
  6
Continuous
 62
     7
370
     0
100
AcDbLine
 10
175.2059944472
 20
87.9338379078
 30
0.0
 11
190.2136282732
 21
79.8574644764
 31
0.0
  0
LINE
  5
317
330
1F
100
AcDbEntity
  8
0
  6
Continuous
 62
     7
370
     0
100
AcDbLine
 10
167.6494662004
 20
84.1837535637
 30
0.0
 11
168.4039401543
 21
84.0070955476
 31
0.0
  0
LINE
  5
318
330
1F
100
AcDbEntity
  8
0
  6
Continuous
 62
     7
370
     0
100
AcDbLine
 10
159.4353179751
 20
63.0126403297
 30
0.0
 11
159.8836057111
 21
62.0468191634
 31
0.0
  0
OLE2FRAME
  5
319
330
1F
100
AcDbEntity
  8
0
100
AcDbOle2Frame
 70
     2
  3
Paintbrush-Bild
 10
13.8511154363
 20
38.264191557
 30
0.0
 11
51.6290888628
 21
31.9806341108
 31
0.0
 71
     2
 72
     0
 73
     1
 90
    12928
310
80552BED0767C5B32B40DDAF6807D121434000000000000000006FFBDDFB85D0
310
4940DDAF6807D121434000000000000000006FFBDDFB85D04940416F4BD60AFB
310
3F4000000000000000002BED0767C5B32B40416F4BD60AFB3F40000000000000
310
0000000000000100000000010000010000000100000000000100000000320000
310
D0CF11E0A1B11AE1000000000000000000000000000000003E000300FEFF0900
310
0600000000000000000000000100000001000000000000000010000002000000
310
01000000FEFFFFFF0000000000000000FFFFFFFFFFFFFFFFFFFFFFFFFFFFFFFF
310
FFFFFFFFFFFFFFFFFFFFFFFFFFFFFFFFFFFFFFFFFFFFFFFFFFFFFFFFFFFFFFFF
310
FFFFFFFFFFFFFFFFFFFFFFFFFFFFFFFFFFFFFFFFFFFFFFFFFFFFFFFFFFFFFFFF
310
FFFFFFFFFFFFFFFFFFFFFFFFFFFFFFFFFFFFFFFFFFFFFFFFFFFFFFFFFFFFFFFF
310
FFFFFFFFFFFFFFFFFFFFFFFFFFFFFFFFFFFFFFFFFFFFFFFFFFFFFFFFFFFFFFFF
310
FFFFFFFFFFFFFFFFFFFFFFFFFFFFFFFFFFFFFFFFFFFFFFFFFFFFFFFFFFFFFFFF
310
FFFFFFFFFFFFFFFFFFFFFFFFFFFFFFFFFFFFFFFFFFFFFFFFFFFFFFFFFFFFFFFF
310
FFFFFFFFFFFFFFFFFFFFFFFFFFFFFFFFFFFFFFFFFFFFFFFFFFFFFFFFFFFFFFFF
310
FFFFFFFFFFFFFFFFFFFFFFFFFFFFFFFFFFFFFFFFFFFFFFFFFFFFFFFFFFFFFFFF
310
FFFFFFFFFFFFFFFFFFFFFFFFFFFFFFFFFFFFFFFFFFFFFFFFFFFFFFFFFFFFFFFF
310
FFFFFFFFFFFFFFFFFFFFFFFFFFFFFFFFFFFFFFFFFFFFFFFFFFFFFFFFFFFFFFFF
310
FFFFFFFFFFFFFFFFFFFFFFFFFFFFFFFFFFFFFFFFFFFFFFFFFFFFFFFFFFFFFFFF
310
FFFFFFFFFFFFFFFFFFFFFFFFFFFFFFFFFFFFFFFFFFFFFFFFFFFFFFFFFFFFFFFF
310
FFFFFFFFFFFFFFFFFFFFFFFFFFFFFFFFFFFFFFFFFFFFFFFFFFFFFFFFFFFFFFFF
310
FDFFFFFFFEFFFFFFFEFFFFFFFEFFFFFF05000000060000000700000008000000
310
090000000A0000000B0000000C0000000D0000000E0000000F00000010000000
310
11000000120000001300000014000000150000001600000017000000FEFFFFFF
310
FFFFFFFFFFFFFFFFFFFFFFFFFFFFFFFFFFFFFFFFFFFFFFFFFFFFFFFFFFFFFFFF
310
FFFFFFFFFFFFFFFFFFFFFFFFFFFFFFFFFFFFFFFFFFFFFFFFFFFFFFFFFFFFFFFF
310
FFFFFFFFFFFFFFFFFFFFFFFFFFFFFFFFFFFFFFFFFFFFFFFFFFFFFFFFFFFFFFFF
310
FFFFFFFFFFFFFFFFFFFFFFFFFFFFFFFFFFFFFFFFFFFFFFFFFFFFFFFFFFFFFFFF
310
FFFFFFFFFFFFFFFFFFFFFFFFFFFFFFFFFFFFFFFFFFFFFFFFFFFFFFFFFFFFFFFF
310
FFFFFFFFFFFFFFFFFFFFFFFFFFFFFFFFFFFFFFFFFFFFFFFFFFFFFFFFFFFFFFFF
310
FFFFFFFFFFFFFFFFFFFFFFFFFFFFFFFFFFFFFFFFFFFFFFFFFFFFFFFFFFFFFFFF
310
FFFFFFFFFFFFFFFFFFFFFFFFFFFFFFFFFFFFFFFFFFFFFFFFFFFFFFFFFFFFFFFF
310
FFFFFFFFFFFFFFFFFFFFFFFFFFFFFFFFFFFFFFFFFFFFFFFFFFFFFFFFFFFFFFFF
310
FFFFFFFFFFFFFFFFFFFFFFFFFFFFFFFFFFFFFFFFFFFFFFFFFFFFFFFFFFFFFFFF
310
FFFFFFFFFFFFFFFFFFFFFFFFFFFFFFFFFFFFFFFFFFFFFFFFFFFFFFFFFFFFFFFF
310
FFFFFFFFFFFFFFFFFFFFFFFFFFFFFFFFFFFFFFFFFFFFFFFFFFFFFFFFFFFFFFFF
310
FFFFFFFFFFFFFFFFFFFFFFFFFFFFFFFFFFFFFFFFFFFFFFFFFFFFFFFFFFFFFFFF
310
52006F006F007400200045006E00740072007900000000000000000000000000
310
0000000000000000000000000000000000000000000000000000000000000000
310
16000500FFFFFFFFFFFFFFFF020000000A00030000000000C000000000000046
310
00000000000000000000000000552DF2A2C8D20103000000C000000000000000
310
01004F006C006500000000000000000000000000000000000000000000000000
310
0000000000000000000000000000000000000000000000000000000000000000
310
0A000200FFFFFFFFFFFFFFFFFFFFFFFF00000000000000000000000000000000
310
0000000000000000000000000000000000000000000000001400000000000000
310
010043006F006D0070004F0062006A0000000000000000000000000000000000
310
0000000000000000000000000000000000000000000000000000000000000000
310
120002010100000003000000FFFFFFFF00000000000000000000000000000000
310
0000000000000000000000000000000000000000010000004D00000000000000
310
01004F006C006500310030004E00610074006900760065000000000000000000
310
0000000000000000000000000000000000000000000000000000000000000000
310
1A000200FFFFFFFFFFFFFFFFFFFFFFFF00000000000000000000000000000000
310
0000000000000000000000000000000000000000040000002426000000000000
310
FEFFFFFF02000000FEFFFFFFFFFFFFFFFFFFFFFFFFFFFFFFFFFFFFFFFFFFFFFF
310
FFFFFFFFFFFFFFFFFFFFFFFFFFFFFFFFFFFFFFFFFFFFFFFFFFFFFFFFFFFFFFFF
310
FFFFFFFFFFFFFFFFFFFFFFFFFFFFFFFFFFFFFFFFFFFFFFFFFFFFFFFFFFFFFFFF
310
FFFFFFFFFFFFFFFFFFFFFFFFFFFFFFFFFFFFFFFFFFFFFFFFFFFFFFFFFFFFFFFF
310
FFFFFFFFFFFFFFFFFFFFFFFFFFFFFFFFFFFFFFFFFFFFFFFFFFFFFFFFFFFFFFFF
310
FFFFFFFFFFFFFFFFFFFFFFFFFFFFFFFFFFFFFFFFFFFFFFFFFFFFFFFFFFFFFFFF
310
FFFFFFFFFFFFFFFFFFFFFFFFFFFFFFFFFFFFFFFFFFFFFFFFFFFFFFFFFFFFFFFF
310
FFFFFFFFFFFFFFFFFFFFFFFFFFFFFFFFFFFFFFFFFFFFFFFFFFFFFFFFFFFFFFFF
310
FFFFFFFFFFFFFFFFFFFFFFFFFFFFFFFFFFFFFFFFFFFFFFFFFFFFFFFFFFFFFFFF
310
FFFFFFFFFFFFFFFFFFFFFFFFFFFFFFFFFFFFFFFFFFFFFFFFFFFFFFFFFFFFFFFF
310
FFFFFFFFFFFFFFFFFFFFFFFFFFFFFFFFFFFFFFFFFFFFFFFFFFFFFFFFFFFFFFFF
310
FFFFFFFFFFFFFFFFFFFFFFFFFFFFFFFFFFFFFFFFFFFFFFFFFFFFFFFFFFFFFFFF
310
FFFFFFFFFFFFFFFFFFFFFFFFFFFFFFFFFFFFFFFFFFFFFFFFFFFFFFFFFFFFFFFF
310
FFFFFFFFFFFFFFFFFFFFFFFFFFFFFFFFFFFFFFFFFFFFFFFFFFFFFFFFFFFFFFFF
310
FFFFFFFFFFFFFFFFFFFFFFFFFFFFFFFFFFFFFFFFFFFFFFFFFFFFFFFFFFFFFFFF
310
FFFFFFFFFFFFFFFFFFFFFFFFFFFFFFFFFFFFFFFFFFFFFFFFFFFFFFFFFFFFFFFF
310
0100000200000000000000000000000000000000000000000000000000000000
310
0000000000000000000000000000000000000000000000000000000000000000
310
0100FEFF030A0000FFFFFFFF0A00030000000000C00000000000004607000000
310
5042727573680007000000504272757368000700000050427275736800F439B2
310
7100000000000000000000000000000000000000000000000000000000000000
310
0000000000000000000000000000000000000000000000000000000000000000
310
0000000000000000000000000000000000000000000000000000000000000000
310
0000000000000000000000000000000000000000000000000000000000000000
310
0000000000000000000000000000000000000000000000000000000000000000
310
0000000000000000000000000000000000000000000000000000000000000000
310
0000000000000000000000000000000000000000000000000000000000000000
310
0000000000000000000000000000000000000000000000000000000000000000
310
0000000000000000000000000000000000000000000000000000000000000000
310
0000000000000000000000000000000000000000000000000000000000000000
310
0000000000000000000000000000000000000000000000000000000000000000
310
0000000000000000000000000000000000000000000000000000000000000000
310
20260000424D0E260000000000003E00000028000000B40200006E0000000100
310
01000000000000000000130B0000130B00000200000002000000000000FFFFFF
310
FFFFFFFFFFFFFFFFFFFFFFFFFFFFFFFFFFFFFFFFFFFFFFFFFFFFFFFFFFFFFFFF
310
FFFFFFFFFFFFFFFFFFFFFFFFFFFFFFFFFFFFFFFFFFFFFFFFFFFFFFFFFFFFFFFF
310
FFFFFFFFFFFFFFFFFFFFFFFFFFFFFFFFFFFFFFFFFFFFFFFFF000FFFFFFFFFFFF
310
FFFFFFFFFFFFFFFFFFFFFFFFFFFFFFFFFFFFFFFFFFFFFFFFFFFFFFFFFFFFFFFF
310
FFFFFFFFFFFFFFFFFFFFFFFFFFFFFFFFFFFFFFFFFFFFFFFFFFFFFFFFFFFFFFFF
310
FFFFFFFFFFFFFFFFFFFFFFFFFFFFFFFFF000FFFFFFFFFFFFFFFFFFFFFFFFFFFF
310
FFFFFFFFFFFFFFFFFFFFFFFFFFFFFFFFFFFFFFFFFFFFFFFFFFFFFFFFFFFFFFFF
310
FFFFFFFFFFFFFFFFFFFFFFFFFFFFFFFFFFFFFFFFFFFFFFFFFFFFFFFFFFFFFFFF
310
FFFFFFFFFFFFFFFFF000FFFFFFFFFFFFFFFFFFFFFFFFFFFFFFFFFFFFFFFFFFFF
310
FFFFFFFFFFFFFFFFFFFFFFFFFFFFFFFFFFFFFFFFFFFFFFFFFFFFFFFFFFFFFFFF
310
FFFFFFFFFFFFFFFFFFFFFFFFFFFFFFFFFFFFFFFFFFFFFFFFFFFFFFFFFFFFFFFF
310
F000FFFFFFFFFFFFFFFFFFFFFFFFFFFFFFFFFFFFFFFFFFFFFFFFFFFFFFFFFFFF
310
FFFFFFFFFFFFFFFFFFFFFFFFFFFFFFFFFFFFFFFFFFFFFFFFFFFFFFFFFFFFFFFF
310
FFFFFFFFFFFFFFFFFFFFFFFFFFFFFFFFFFFFFFFFFFFFFFFFF000FFFFFFFFFFFF
310
FFFFFFFFFFFFFFFFFFFFFFFFFFFFFFFFFFFFFFFFFFFFFFFFFFFFFFFFFFFFFFFF
310
FFFFFFFFFFFFFFFFFFFFFFFFFFFFFFFFFFFFFFFFFFFFFFFFFFFFFFFFFFFFFFFF
310
FFFFFFFFFFFFFFFFFFFFFFFFFFFFFFFFF000FFFFFFFFFFFFFFFFFFFFFFFFFFFF
310
FFFFFFFFFFFFFFFFFFFFFFFFFFFFFFFFFFFFFFFFFFFFFFFFFFFFFFFFFFFFFFFF
310
FFFFFFFFFFFFFFFFFFFFFFFFFFFFFFFFFFFFFFFFFFFFFFFFFFFFFFFFFFFFFFFF
310
FFFFFFFFFFFFFFFFF000FFFFFFFFFFFFFFFFFFFFFFFFFFFFFFFFFFFFFFFFFFFF
310
FFFFFFFFFFFFFFFFFFFFFFFFFFFFFFFFFFFFFFFFFFFFFFFFFFFFFFFFFFFFFFFF
310
FFFFFFFFFFFFFFFFFFFFFFFFFFFFFFFFFFFFFFFFFFFFFFFFFFFFFFFFFFFFFFFF
310
F000FFFFFFFFFFFFFFFFFFFFFFFFFFFFFFFFFFFFFFFFFFFFFFFFFFFFFFFFFFFF
310
FFFFFFFFFFFFFFFFFFFFFFFFFFFFFFFFFFFFFFFFFFFFFFFFFFFFFFFFFFFFFFFF
310
FFFFFFFFFFFFFFFFFFFFFFFFFFFFFFFFFFFFFFFFFFFFFFFFF000FFFFFFFFFFFF
310
FFFFFFFFFFFFFFFFFFFFFFFFFFFFFFFFFFFFFFFFFFFFFFFFFFFFFFFFFFFFFFFF
310
FFFFFFFFFFFFFFFFFFFFFFFFFFFFFFFFFFFFFFFFFFFFFFFFFFFFFFFFFFFFFFFF
310
FFFFFFFFFFFFFFFFFFFFFFFFFFFFFFFFF000FFFFFFFFFFFFFFFFFFFFFFFFFFFF
310
FFFFFFFFFFFFFFFFFFFFFFFFFFFFFFFFFFFFFFFFFFFFFFFFFFFFFFFFFFFFFFFF
310
FFFFFFFFFFFFFFFFFFFFFFFFFFFFFFFFFFFFFFFFFFFFFFFFFFFFFFFFFFFFFFFF
310
FFFFFFFFFFFFFFFFF000FFFFFFFFFFFFFFFFFFFFFFFFFFFFFFFFFFFFFFFFFFFF
310
FFFFFFFFFFFFFFFFFFFFFFFFFFFFFFFFFFFFFFFFFFFFFFFFFFFFFFFFFFFFFFFF
310
FFFFFFFFFFFFFFFFFFFFFFFFFFFFFFFFFFFFFFFFFFFFFFFFFFFFFFFFFFFFFFFF
310
F000FFFFFFFFFFFFFFFFFFFFFFFFFFFFFFFFFFFFFFFFFFFFFFFFFFFFFFFFFFFF
310
FFFFFFFFFFFFFFFFFFFFFFFFFFFFFFFFFFFFFFFFFFFFFFFFFFFFFFFFFFFFFFFF
310
FFFFFFFFFFFFFFFFFFFFFFFFFFFFFFFFFFFFFFFFFFFFFFFFF000FFFFFFFFFFFF
310
FFFFFFFFFFFFFFFFFFFFFFFFFFFFFFFFFFFFFFFFFFFFFFFFFFFFFFFFFFFFFFFF
310
FFFFFFFFFFFFFFFFFFFFFFFFFFFFFFFFFFFFFFFFFFFFFFFFFFFFFFFFFFFFFFFF
310
FFFFFFFFFFFFFFFFFFFFFFFFFFFFFFFFF000FFFFFFFFFFFFFFFFFFFFFFFFFFFF
310
FFFFFFFFFFFFFFFFFFFFFFFFFFFFFFFFFFFFFFFFFFFFFFFFFFFFFFFFFFFFFFFF
310
FFFFFFFFFFFFFFFFFFFFFFFFFFFFFFFFFFFFFFFFFFFFFFFFFFFFFFFFFFFFFFFF
310
FFFFFFFFFFFFFFFFF000FFFFFFFFFFFFFFFFFFFFFFFFFFFFFFFFFFFFFFFFFFFF
310
FFFFFFFFFFFFFFFFFFFFFFFFFFFFFFFFFFFFFFFFFFFFFFFFFFFFFFFFFFFFFFFF
310
FFFFFFFFFFFFFFFFFFFFFFFFFFFFFFFFFFFFFFFFFFFFFFFFFFFFFFFFFFFFFFFF
310
F000FFFFFFFFFFFFFFFFFFFFFFFFFFFFFFFFFFFFFFFFFFFFFFFFFFFFFFFFFFFF
310
FFFFFFFFFFFFFFFFFFFFFFFFFFFFFFFFFFFFFFFFFFFFFFFFFFFFFFFFFFFFFFFF
310
FFFFFFFFFFFFFFFFFFFFFFFFFFFFFFFFFFFFFFFFFFFFFFFFF000FFFFFFFFFFFF
310
FFFFFFFFFFFFFFFFFFFFFFFFFFFFFFFFFFFFFFFFFFFFFFFFFFFFFFFFFFFFFFFF
310
FFFFFFFFFFFFFFFFFFFFFFFFFFFFFFFFFFFFFFFFFFFFFFFFFFFFFFFFFFFFFFFF
310
FFFFFFFFFFFFFFFFFFFFFFFFFFFFFFFFF000FFFFFFFFFFFFFFFFFFFFFFFFFFFF
310
FFFFFFFFFFFFFFFFFFFFFFFFFFFFFFFFFFFFFFFFFFFFFFFFFFFFFFFFFFFFFFFF
310
FFFFFFFFFFFFFFFFFFFFFFFFFFFFFFFFFFFFFFFFFFFFFFFFFFFFFFFFFFFFFFFF
310
FFFFFFFFFFFFFFFFF000FFFFF80003FFFFFFFFFFFFFFFFFFFFFFFFFFFFFFFFFF
310
FFFFF00007FFFFFFFFFF00007FFFFFF800000000000000007FFFFFFFFFFFFFFF
310
FFFFFFFC001FFFFFFFFFFFFFFC001FFFFFFFFFFFFFFFFFFFFFFFFFFE0007FFFF
310
F000FFFF8000007FFFFFFFF8000FFFFFC0007FFFFF80007FFFFF0000007FFFFF
310
FFF8000007FFFFF800000000000000007FFFFFF0001FFFFFFFFFFFC00001FFFF
310
FFFFFFFFC00001FFFFFFFF000000000003FFFFE000007FFFF000FFFE0000000F
310
FFFFFFF0000FFFFF80007FFFFF80007FFFFC0000001FFFFFFFC0000001FFFFF8
310
00000000000000007FFFFFF0001FFFFFFFFFFE0000003FFFFFFFFFFE0000003F
310
FFFFFF000000000003FFFF0000000FFFF000FFF800000003FFFFFFF00007FFFF
310
80007FFFFF80007FFFF000000007FFFFFF000000003FFFF80000000000000000
310
7FFFFFF0001FFFFFFFFFF80000000FFFFFFFFFF80000000FFFFFFF0000000000
310
03FFFC00000003FFF000FFE000000000FFFFFFF00007FFFF80003FFFFF80007F
310
FFC000000001FFFFFC000000001FFFF800000000000000007FFFFFF0001FFFFF
310
FFFFE000000003FFFFFFFFE000000003FFFFFF000000000003FFF000000000FF
310
F000FF80000000007FFFFFF00007FFFF80003FFFFF80007FFF8000000000FFFF
310
F80000000007FFF800000000000000007FFFFFF0001FFFFFFFFFC000000001FF
310
FFFFFFC000000001FFFFFF000000000003FFC0000000007FF000FF0000000000
310
3FFFFFE00007FFFF00003FFFFF80007FFE00000000003FFFF00000000003FFF8
310
00000000000000007FFFFFF0001FFFFFFFFF8000000000FFFFFFFF8000000000
310
FFFFFF000000000003FF80000000003FF000FE00000000001FFFFFE00003FFFF
310
00003FFFFF80007FFC00000000001FFFE00000000001FFF8000001FFFE000000
310
7FFFFFF0001FFFFFFFFE00000000003FFFFFFE00000000003FFFFF0000000000
310
03FF00000000001FF000FC00000000000FFFFFE00003FFFF00001FFFFF80007F
310
F800000000001FFFC00000000000FFF8000001FFFE0000007FFFFFF0001FFFFF
310
FFFC00000000001FFFFFFC00000000001FFFFF000000000003FE00000000000F
310
F000F8000000000007FFFFE00003FFFF00001FFFFF80007FF800000000000FFF
310
800000000000FFF8000001FFFE0000007FFFFFF0001FFFFFFFF800000000000F
310
FFFFF800000000000FFFFF000000000003FC000000000007F000F80000000000
310
03FFFFC00003FFFE00001FFFFF80007FF0000000000007FF0000000000007FF8
310
000001FFFE0000007FFFFFF0001FFFFFFFF0000000000007FFFFF00000000000
310
07FFFF000000000003F8000000000003F000F0000000000003FFFFC00001FFFE
310
00001FFFFF80007FE0000000000007FE0000000000003FF8000001FFFE000000
310
7FFFFFF0001FFFFFFFF0000000000007FFFFF0000000000007FFFF0000000000
310
03F800001F800003F000E00001FFF00001FFFFC00001FFFE00000FFFFF80007F
310
E00001FFE00003FE00001FFF00003FF8000001FFFE0000007FFFFFF0001FFFFF
310
FFE000003E000003FFFFE000003E000003FFFF000000000003F00001FFF80001
310
F000E00007FFFC0001FFFFC00001FFFE00000FFFFF80007FC0000FFFFC0003FC
310
0000FFFFC0001FF8000001FFFE0000007FFFFFF0001FFFFFFFC00003FFE00001
310
FFFFC00003FFE00001FFFF0001FFFFFFFFF00007FFFE0001F000E0000FFFFF00
310
00FFFF800001FFFC00000FFFFF80007FC0001FFFFE0001FC0001FFFFE0001FF8
310
000001FFFE0000007FFFFFF0001FFFFFFF80000FFFF80000FFFF80000FFFF800
310
00FFFF0003FFFFFFFFE0000FFFFF8000F000C0003FFFFF8000FFFF800000FFFC
310
000007FFFF80007F80003FFFFF0001FC0003FFFFF0001FF8000001FFFE000000
310
7FFFFFF0001FFFFFFF80003FFFFE0000FFFF80003FFFFE0000FFFF0003FFFFFF
310
FFE0003FFFFF8000F000C0003FFFFF8000FFFF800000FFFC000007FFFF80007F
310
80007FFFFF8001F80007FFFFF8000FF8000001FFFE0000007FFFFFF0001FFFFF
310
FF00007FFFFF00007FFF00007FFFFF00007FFF0003FFFFFFFFE0003FFFFFC000
310
F000C0007FFFFFC000FFFF000000FFFC000007FFFF80007F8000FFFFFF8000F8
310
000FFFFFF8000FF8000001FFFE0000007FFFFFF0001FFFFFFF0000FFFFFF8000
310
7FFF0000FFFFFF80007FFF0003FFFFFFFFC0007FFFFFC00070008000FFFFFFC0
310
00FFFF000000FFF8000007FFFF80007F8000FFFFFF8000F8000FFFFFF8000FF8
310
000001FFFE0000007FFFFFF0001FFFFFFE0001FFFFFFC0003FFE0001FFFFFFC0
310
003FFF0003FFFFFFFFC0007FFFFFE00070008000FFFFFFC0007FFF0000007FF8
310
000003FFFF80007F0001FFFFFF8000F8000FFFFFF8000FF8000001FFFE000000
310
7FFFFFF0001FFFFFFE0001FFFFFFC0003FFE0001FFFFFFC0003FFF0003FFFFFF
310
FFC000FFFFFFE00070008000FFFFFFC0007FFF0000007FF8000003FFFF80007F
310
0001FFFFFF8000F8001FFFFFF8000FF8000001FFFE0000007FFFFFF0001FFFFF
310
FE0003FFFFFFE0003FFE0003FFFFFFE0003FFF0003FFFFFFFFC000FFFFFFE000
310
70008000FFFFFFC0007FFE0000007FF8000003FFFF80007F0001FFFFFF8000F0
310
001FFFFFF8000FF8000001FFFE0000007FFFFFF0001FFFFFFC0003FFFFFFE000
310
1FFC0003FFFFFFE0001FFF0003FFFFFFFFC000FFFFFFC00070008000FFFFFF80
310
007FFE0000007FF0000003FFFF80007F0001FFFFFF0000F0001FFFFFF8000FF8
310
000001FFFE0000007FFFFFF0001FFFFFFC0007FFFFFFF0001FFC0007FFFFFFF0
310
001FFF0003FFFFFFFFC000FFFFFFC00070008001FFFFFF0000FFFE0000003FF0
310
000001FFFF80007F0001FFFFFF0000F8001FFFFFF0000FF8000001FFFE000000
310
7FFFFFF0001FFFFFFC0007FFFFFFF0001FFC0007FFFFFFF0001FFF0003FFFFFF
310
FFC001FFFFFF80007000FFFFFFFFFE0000FFFE0008003FF0008001FFFF80007F
310
FFFFFFFFFC0000FFFFFFFFFFE0000FF8000001FFFE0000007FFFFFF0001FFFFF
310
F8000FFFFFFFF8000FF8000FFFFFFFF8000FFF0003FFFFFFFFFFFFFFFFFF0000
310
7000FFFFFFFFFC0000FFFC0008003FF0008001FFFF80007FFFFFFFFFF80001FF
310
FFFFFFFF80000FF8000001FFFE0000007FFFFFF0001FFFFFF8000FFFFFFFF800
310
0FF8000FFFFFFFF8000FFF0003FFFFFFFFFFFFFFFFFE0000F000FFFFFFFFE000
310
00FFFC000C003FE000C001FFFF80007FFFFFFFFFC00001FFFFFFFFFE00001FF8
310
000001FFFE0000007FFFFFF0001FFFFFF8000FFFFFFFF8000FF8000FFFFFFFF8
310
000FFF0003FFFFFFFFFFFFFFFFF00000F000FFFFFFFE000001FFFC000C001FE0
310
00C000FFFF80007FFFFFFFFE000001FFFFFFFFE000001FF80FFFFFFFFFFFFFC0
310
7FFFFFF0001FFFFFF8000FFFFFFFF8000FF8000FFFFFFFF8000FFF0003FFFFFF
310
FFFFFFFFFF800000F000FFFFFFC0000001FFFC001C001FE001C000FFFF80007F
310
FFFFFF80000003FFFFFFF80000001FF80FFFFFFFFFFFFFC07FFFFFF0001FFFFF
310
F8001FFFFFFFFC000FF8001FFFFFFFFC000FFF0003FFFFFFFFFFFFFFF0000001
310
F000FFFFF800000001FFF8001C001FE001C000FFFF80007FFFFFF800000003FF
310
FFFF800000003FF80FFFFFFFFFFFFFC07FFFFFF0001FFFFFF8001FFFFFFFFC00
310
0FF8001FFFFFFFFC000FFF0003FFFFFFFFFFFFFE00000001F000FFFFC0000000
310
03FFF8001E001FC001E000FFFF80007FFFFF8000000007FFFFFC000000003FF8
310
0FFFFFFFFFFFFFC07FFFFFF0001FFFFFF8001FFFFFFFFC000FF8001FFFFFFFFC
310
000FFF0003FFFFFFFFFFFFE000000003F000FFFE0000000007FFF8001E000FC0
310
01E0007FFF80007FFFFE0000000007FFFFE0000000007FF80FFFFFFFFFFFFFC0
310
7FFFFFF0001FFFFFF0001FFFFFFFFC0007F0001FFFFFFFFC0007FF0003FFFFFF
310
FFFFFF0000000003F000FFF80000000007FFF8001E000FC003E0007FFF80007F
310
FFF0000000000FFFFF8000000000FFF80FFFFFFFFFFFFFC07FFFFFF0001FFFFF
310
F0001FFFFFFFFC0007F0001FFFFFFFFC0007FF0003FFFFFFFFFFFC0000000007
310
F000FFE0000000000FFFF0003E000FC003E0007FFF80007FFFC0000000001FFF
310
FE0000000001FFF80FFFFFFFFFFFFFC07FFFFFF0001FFFFFF0001FFFFFFFFC00
310
07F0001FFFFFFFFC0007FF0003FFFFFFFFFFF0000000000FF000FFC000000000
310
1FFFF0003F000F8003F0003FFF80007FFF80000000003FFFF80000000003FFF8
310
0FFFFFFFFFFFFFC07FFFFFF0001FFFFFF0001FFFFFFFFC0007F0001FFFFFFFFC
310
0007FF0003FFFFFFFFFFE0000000001FF000FF00000000007FFFF0003F000780
310
03F0003FFF80007FFF00000000007FFFF00000000007FFF80FFFFFFFFFFFFFC0
310
7FFFFFF0001FFFFFF0001FFFFFFFFC0007F0001FFFFFFFFC0007FF0003FFFFFF
310
FFFF80000000007FF000FE0000000000FFFFE0003F00078007F0003FFF80007F
310
FE0000000001FFFFE0000000001FFFF80FFFFFFFFFFFFFC07FFFFFF0001FFFFF
310
F0001FFFFFFFFC0007F0001FFFFFFFFC0007FF0003FFFFFFFFFF0000000000FF
310
F000FC0000000003FFFFE0007F00078007F0003FFF80007FFC0000000007FFFF
310
C0000000007FFFF80FFFFFFFFFFFFFC07FFFFFF0001FFFFFF8001FFFFFFFFC00
310
0FF8001FFFFFFFFC000FFF0003FFFFFFFFFE0000000003FFF000FC000000000F
310
FFFFE0007F80070007F8001FFF80007FF8000000001FFFFF8000000001FFFFF8
310
0FFFFFFFFFFFFFC07FFFFFF0001FFFFFF8001FFFFFFFFC000FF8001FFFFFFFFC
310
000FFF0003FFFFFFFFFC000000000FFFF000F8000000007FFFFFE0007F800700
310
07F8001FFF80007FF000000000FFFFFF800000000FFFFFF80FFFFFFFFFFFFFC0
310
7FFFFFF0001FFFFFF8000FFFFFFFF8000FF8000FFFFFFFF8000FFF0003FFFFFF
310
FFFC000000007FFFF000F800000007FFFFFFC0007F8003000FF8001FFF80007F
310
F000000007FFFFFF000000007FFFFFF80FFFFFFFFFFFFFC07FFFFFF0001FFFFF
310
F8000FFFFFFFF8000FF8000FFFFFFFF8000FFF0003FFFFFFFFF80000000FFFFF
310
F000F0000000FFFFFFFFC000FF8003000FF8001FFF80007FE0000000FFFFFFFF
310
0000000FFFFFFFF8000001FFFE0000007FFFFFF0001FFFFFF8000FFFFFFFF800
310
0FF8000FFFFFFFF8000FFF0003FFFFFFFFF8000000FFFFFFF000F000000FFFFF
310
FFFFC000FFC002000FF8000FFF80007FE000001FFFFFFFFE000001FFFFFFFFF8
310
000001FFFE0000007FFFFFF0001FFFFFF8000FFFFFFFF8000FF8000FFFFFFFF8
310
000FFF0003FFFFFFFFF000001FFFFFFFF000E00000FFFFFFFFFFC000FFC00200
310
0FFC000FFF80007FE00001FFFFFFFFFE00001FFFFFFFFFF8000001FFFE000000
310
7FFFFFF0001FFFFFFC000FFFFFFFF8001FFC000FFFFFFFF8001FFF0003FFFFFF
310
FFF00001FFFFFFFFF000E00007FFFFFFFFFF8000FFC000001FFC000FFF80007F
310
C0000FFFFFFFFFFE0000FFFFFFFFFFF8000001FFFE0000007FFFFFF0001FFFFF
310
FC0007FFFFFFF0001FFC0007FFFFFFF0001FFF0003FFFFFFFFF00007FFFFFFFF
310
F000E0001FFFFFFFFFFF8000FFC000001FFC000FFF80007FC0003FFFFFFFFFFE
310
0001FFFFFFFFFFF8000001FFFE0000007FFFFFF0001FFFFFFC0007FFFFFFF000
310
1FFC0007FFFFFFF0001FFF0003FFFFFFFFF0001FFFFFFFFFF000E0003FFFFF00
310
03FF8001FFE000001FFC0007FF80007FC0007FFFFF0007FC0003FFFFF0003FF8
310
000001FFFE0000007FFFFFF0001FFFFFFC0003FFFFFFE0001FFC0003FFFFFFE0
310
001FFF0003FFFFFFFFF0003FFFFFFFFFF000E0003FFFFF0001FF8001FFE00000
310
1FFE0007FF80007FC0007FFFFE0003FC0007FFFFE0003FF8000001FFFE000000
310
7FFFFFF0001FFFFFFE0003FFFFFFE0003FFE0003FFFFFFE0003FFF0003FFFFFF
310
FFF0003FFFFF8001F000E0003FFFFF0001FF0001FFE000001FFE0007FF80007F
310
C0007FFFFE0003FC0007FFFFE0003FF8000001FFFE0000007FFFFFF0001FFFFF
310
FE0001FFFFFFC0003FFE0001FFFFFFC0003FFF0003FFFFFFFFF0003FFFFF0001
310
F000E0003FFFFF0003FF0001FFE000003FFE0007FF80007FC0007FFFFE0003FC
310
0007FFFFE0003FF8000001FFFE0000007FFFFFF0001FFFFFFF0001FFFFFFC000
310
7FFF0001FFFFFFC0007FFF0003FFFFFFFFF0003FFFFF0001F000E0003FFFFE00
310
03FF0003FFF000003FFE0003FF80007FC0007FFFFC0003FE0007FFFFE0003FF8
310
000001FFFE0000007FFFFFF0001FFFFFFF0000FFFFFF80007FFF0000FFFFFF80
310
007FFF0003FFFFFFFFF0003FFFFF0001F000E0003FFFFE0003FF0003FFF00000
310
3FFF0003FF80007FC0007FFFFC0007FE0007FFFFC0003FF8000001FFFE000000
310
7FFFFFF0001FFFFFFF80007FFFFF0000FFFF80007FFFFF0000FFFF0003FFFFFF
310
FFF0003FFFFF0003F000E0003FFFFC0003FE0003FFF000003FFF0003FF80007F
310
E0003FFFF80007FE0003FFFFC0007FF8000001FFFE0000007FFFFFF0001FFFFF
310
FF80003FFFFE0000FFFF80003FFFFE0000FFFF0003FFFFFFFFF0001FFFFE0003
310
F000F0001FFFF80003FE0003FFF000007FFF0001FF80007FE0003FFFF00007FE
310
0001FFFF80007FF8000001FFFE0000007FFFFFF0001FFFFFFFC0000FFFF80001
310
FFFFC0000FFFF80001FFFF0003FFFFFFFFF0001FFFFC0003F000F0000FFFF000
310
07FE0007FFF800007FFF0001FF80007FE0001FFFE00007FF0000FFFE00007FF8
310
000001FFFE0000007FFFFFF0001FFFFFFFC00003FFE00001FFFFC00003FFE000
310
01FFFF0003FFFFFFFFF8000FFFF80003F000F00003FFC00007FC0007FFF80000
310
7FFF8001FF80007FF00007FF80000FFF00007FF80000FFF8000001FFFE000000
310
7F80000000000001FFE000003E000003FFFFE000003E000003FFFF0003FFFFFF
310
FFF80003FFE00007F000F800000000000FFC0007FFF800007FFF8001FF80007F
310
F000000000000FFF000000000000FFF8000001FFFE0000007F80000000000001
310
FFF0000000000007FFFFF0000000000007FFFF0003FFFFFFFFFC00007E000007
310
F000F800000000000FFC0007FFF80000FFFF8000FF80007FF800000000001FFF
310
800000000001FFF8000001FFFE0000007F80000000000001FFF800000000000F
310
FFFFF800000000000FFFFF0003FFFFFFFFFC00000000000FF000FC0000000000
310
1FFC0007FFFC0000FFFF8000FF80007FF800000000003FFFC00000000001FFF8
310
000001FFFE0000007F80000000000001FFF800000000000FFFFFF80000000000
310
0FFFFF0003FFFFFFFFFE00000000001FF000FE00000000003FF8000FFFFC0000
310
FFFF8000FF80007FFC00000000003FFFC00000000003FFF8000001FFFE000000
310
7F80000000000001FFFC00000000001FFFFFFC00000000001FFFFF0003FFFFFF
310
FFFF00000000001FF000FF00000000003FF8000FFFFC0000FFFFC000FF80007F
310
FE00000000007FFFE00000000007FFF8000001FFFE0000007F80000000000001
310
FFFE00000000003FFFFFFE00000000003FFFFF0003FFFFFFFFFF80000000003F
310
F000FF80000000007FF8000FFFFC0001FFFFC0007F80007FFF0000000000FFFF
310
F0000000000FFFF800000000000000007F80000000000001FFFF8000000000FF
310
FFFFFF8000000000FFFFFF0003FFFFFFFFFFC0000000007FF000FFC000000000
310
FFF8000FFFFE0001FFFFC0007F80007FFF8000000001FFFFF8000000001FFFF8
310
00000000000000007F80000000000001FFFFC000000001FFFFFFFFC000000001
310
FFFFFF0003FFFFFFFFFFE000000000FFF000FFE000000003FFF0001FFFFE0001
310
FFFFC0007F80007FFFC000000007FFFFFE000000003FFFF80000000000000000
310
7F80000000000001FFFFE000000003FFFFFFFFE000000003FFFFFF0003FFFFFF
310
FFFFF000000003FFF000FFF80000000FFFF0001FFFFE0001FFFFE0007F80007F
310
FFF00000000FFFFFFF00000000FFFFF800000000000000007F80000000000001
310
FFFFF80000000FFFFFFFFFF80000000FFFFFFF0003FFFFFFFFFFFC0000000FFF
310
F000FFFE0000003FFFF0001FFFFE0003FFFFE0003F80007FFFFC0000003FFFFF
310
FFC0000003FFFFF800000000000000007F80000000000001FFFFFE0000003FFF
310
FFFFFFFE0000003FFFFFFF0003FFFFFFFFFFFF0000003FFFF000FFFF800000FF
310
FFF0001FFFFF0003FFFFE0003F80007FFFFF000001FFFFFFFFF800001FFFFFF8
310
00000000000000007F80000000000001FFFFFFC00001FFFFFFFFFFFFC00001FF
310
FFFFFF0003FFFFFFFFFFFFC00000FFFFF000FFFFF8000FFFFFFFFFFFFFFFFFFF
310
FFFFFFFFFFFFFFFFFFFFF0001FFFFFFFFFFF0000FFFFFFF80000000000000000
310
7FFFFFFFFFFFFFFFFFFFFFFC001FFFFFFFFFFFFFFC001FFFFFFFFFFFFFFFFFFF
310
FFFFFFFC001FFFFFF000FFFFFFFFFFFFFFFFFFFFFFFFFFFFFFFFFFFFFFFFFFFF
310
FFFFFFFFFFFFFFFFFFFFFFFFFFFFFFFFFFFFFFFFFFFFFFFFFFFFFFFFFFFFFFFF
310
FFFFFFFFFFFFFFFFFFFFFFFFFFFFFFFFFFFFFFFFFFFFFFFFFFFFFFFFFFFFFFFF
310
F000FFFFFFFFFFFFFFFFFFFFFFFFFFFFFFFFFFFFFFFFFFFFFFFFFFFFFFFFFFFF
310
FFFFFFFFFFFFFFFFFFFFFFFFFFFFFFFFFFFFFFFFFFFFFFFFFFFFFFFFFFFFFFFF
310
FFFFFFFFFFFFFFFFFFFFFFFFFFFFFFFFFFFFFFFFFFFFFFFFF000FFFFFFFFFFFF
310
FFFFFFFFFFFFFFFFFFFFFFFFFFFFFFFFFFFFFFFFFFFFFFFFFFFFFFFFFFFFFFFF
310
FFFFFFFFFFFFFFFFFFFFFFFFFFFFFFFFFFFFFFFFFFFFFFFFFFFFFFFFFFFFFFFF
310
FFFFFFFFFFFFFFFFFFFFFFFFFFFFFFFFF000FFFFFFFFFFFFFFFFFFFFFFFFFFFF
310
FFFFFFFFFFFFFFFFFFFFFFFFFFFFFFFFFFFFFFFFFFFFFFFFFFFFFFFFFFFFFFFF
310
FFFFFFFFFFFFFFFFFFFFFFFFFFFFFFFFFFFFFFFFFFFFFFFFFFFFFFFFFFFFFFFF
310
FFFFFFFFFFFFFFFFF000FFFFFFFFFFFFFFFFFFFFFFFFFFFFFFFFFFFFFFFFFFFF
310
FFFFFFFFFFFFFFFFFFFFFFFFFFFFFFFFFFFFFFFFFFFFFFFFFFFFFFFFFFFFFFFF
310
FFFFFFFFFFFFFFFFFFFFFFFFFFFFFFFFFFFFFFFFFFFFFFFFFFFFFFFFFFFFFFFF
310
F000FFFFFFFFFFFFFFFFFFFFFFFFFFFFFFFFFFFFFFFFFFFFFFFFFFFFFFFFFFFF
310
FFFFFFFFFFFFFFFFFFFFFFFFFFFFFFFFFFFFFFFFFFFFFFFFFFFFFFFFFFFFFFFF
310
FFFFFFFFFFFFFFFFFFFFFFFFFFFFFFFFFFFFFFFFFFFFFFFFF000FFFFFFFFFFFF
310
FFFFFFFFFFFFFFFFFFFFFFFFFFFFFFFFFFFFFFFFFFFFFFFFFFFFFFFFFFFFFFFF
310
FFFFFFFFFFFFFFFFFFFFFFFFFFFFFFFFFFFFFFFFFFFFFFFFFFFFFFFFFFFFFFFF
310
FFFFFFFFFFFFFFFFFFFFFFFFFFFFFFFFF000FFFFFFFFFFFFFFFFFFFFFFFFFFFF
310
FFFFFFFFFFFFFFFFFFFFFFFFFFFFFFFFFFFFFFFFFFFFFFFFFFFFFFFFFFFFFFFF
310
FFFFFFFFFFFFFFFFFFFFFFFFFFFFFFFFFFFFFFFFFFFFFFFFFFFFFFFFFFFFFFFF
310
FFFFFFFFFFFFFFFFF000FFFFFFFFFFFFFFFFFFFFFFFFFFFFFFFFFFFFFFFFFFFF
310
FFFFFFFFFFFFFFFFFFFFFFFFFFFFFFFFFFFFFFFFFFFFFFFFFFFFFFFFFFFFFFFF
310
FFFFFFFFFFFFFFFFFFFFFFFFFFFFFFFFFFFFFFFFFFFFFFFFFFFFFFFFFFFFFFFF
310
F000FFFFFFFFFFFFFFFFFFFFFFFFFFFFFFFFFFFFFFFFFFFFFFFFFFFFFFFFFFFF
310
FFFFFFFFFFFFFFFFFFFFFFFFFFFFFFFFFFFFFFFFFFFFFFFFFFFFFFFFFFFFFFFF
310
FFFFFFFFFFFFFFFFFFFFFFFFFFFFFFFFFFFFFFFFFFFFFFFFF000FFFFFFFFFFFF
310
FFFFFFFFFFFFFFFFFFFFFFFFFFFFFFFFFFFFFFFFFFFFFFFFFFFFFFFFFFFFFFFF
310
FFFFFFFFFFFFFFFFFFFFFFFFFFFFFFFFFFFFFFFFFFFFFFFFFFFFFFFFFFFFFFFF
310
FFFFFFFFFFFFFFFFFFFFFFFFFFFFFFFFF000FFFFFFFFFFFFFFFFFFFFFFFFFFFF
310
FFFFFFFFFFFFFFFFFFFFFFFFFFFFFFFFFFFFFFFFFFFFFFFFFFFFFFFFFFFFFFFF
310
FFFFFFFFFFFFFFFFFFFFFFFFFFFFFFFFFFFFFFFFFFFFFFFFFFFFFFFFFFFFFFFF
310
FFFFFFFFFFFFFFFFF000FFFFFFFFFFFFFFFFFFFFFFFFFFFFFFFFFFFFFFFFFFFF
310
FFFFFFFFFFFFFFFFFFFFFFFFFFFFFFFFFFFFFFFFFFFFFFFFFFFFFFFFFFFFFFFF
310
FFFFFFFFFFFFFFFFFFFFFFFFFFFFFFFFFFFFFFFFFFFFFFFFFFFFFFFFFFFFFFFF
310
F000FFFFFFFFFFFFFFFFFFFFFFFFFFFFFFFFFFFFFFFFFFFFFFFFFFFFFFFFFFFF
310
FFFFFFFFFFFFFFFFFFFFFFFFFFFFFFFFFFFFFFFFFFFFFFFFFFFFFFFFFFFFFFFF
310
FFFFFFFFFFFFFFFFFFFFFFFFFFFFFFFFFFFFFFFFFFFFFFFFF000FFFFFFFFFFFF
310
FFFFFFFFFFFFFFFFFFFFFFFFFFFFFFFFFFFFFFFFFFFFFFFFFFFFFFFFFFFFFFFF
310
FFFFFFFFFFFFFFFFFFFFFFFFFFFFFFFFFFFFFFFFFFFFFFFFFFFFFFFFFFFFFFFF
310
FFFFFFFFFFFFFFFFFFFFFFFFFFFFFFFFF000FFFFFFFFFFFFFFFFFFFFFFFFFFFF
310
FFFFFFFFFFFFFFFFFFFFFFFFFFFFFFFFFFFFFFFFFFFFFFFFFFFFFFFFFFFFFFFF
310
FFFFFFFFFFFFFFFFFFFFFFFFFFFFFFFFFFFFFFFFFFFFFFFFFFFFFFFFFFFFFFFF
310
FFFFFFFFFFFFFFFFF000FFFFFFFFFFFFFFFFFFFFFFFFFFFFFFFFFFFFFFFFFFFF
310
FFFFFFFFFFFFFFFFFFFFFFFFFFFFFFFFFFFFFFFFFFFFFFFFFFFFFFFFFFFFFFFF
310
FFFFFFFFFFFFFFFFFFFFFFFFFFFFFFFFFFFFFFFFFFFFFFFFFFFFFFFFFFFFFFFF
310
F000FFFFFFFFFFFFFFFFFFFFFFFFFFFFFFFFFFFFFFFFFFFFFFFFFFFFFFFFFFFF
310
FFFFFFFFFFFFFFFFFFFFFFFFFFFFFFFFFFFFFFFFFFFFFFFFFFFFFFFFFFFFFFFF
310
FFFFFFFFFFFFFFFFFFFFFFFFFFFFFFFFFFFFFFFFFFFFFFFFF000FFFFFFFFFFFF
310
FFFFFFFFFFFFFFFFFFFFFFFFFFFFFFFFFFFFFFFFFFFFFFFFFFFFFFFFFFFFFFFF
310
FFFFFFFFFFFFFFFFFFFFFFFFFFFFFFFFFFFFFFFFFFFFFFFFFFFFFFFFFFFFFFFF
310
FFFFFFFFFFFFFFFFFFFFFFFFFFFFFFFFF000FFFFFFFFFFFFFFFFFFFFFFFFFFFF
310
FFFFFFFFFFFFFFFFFFFFFFFFFFFFFFFFFFFFFFFFFFFFFFFFFFFFFFFFFFFFFFFF
310
FFFFFFFFFFFFFFFFFFFFFFFFFFFFFFFFFFFFFFFFFFFFFFFFFFFFFFFFFFFFFFFF
310
FFFFFFFFFFFFFFFFF000FFFFFFFFFFFFFFFFFFFFFFFFFFFFFFFFFFFFFFFFFFFF
310
FFFFFFFFFFFFFFFFFFFFFFFFFFFFFFFFFFFFFFFFFFFFFFFFFFFFFFFFFFFFFFFF
310
FFFFFFFFFFFFFFFFFFFFFFFFFFFFFFFFFFFFFFFFFFFFFFFFFFFFFFFFFFFFFFFF
310
F000FFFFFFFFFFFFFFFFFFFFFFFFFFFFFFFFFFFFFFFFFFFFFFFFFFFFFFFFFFFF
310
FFFFFFFFFFFFFFFFFFFFFFFFFFFFFFFFFFFFFFFFFFFFFFFFFFFFFFFFFFFFFFFF
310
FFFFFFFFFFFFFFFFFFFFFFFFFFFFFFFFFFFFFFFFFFFFFFFFF000FFFFFFFFFFFF
310
FFFFFFFFFFFFFFFFFFFFFFFFFFFFFFFFFFFFFFFFFFFFFFFFFFFFFFFFFFFFFFFF
310
FFFFFFFFFFFFFFFFFFFFFFFFFFFFFFFFFFFFFFFFFFFFFFFFFFFFFFFFFFFFFFFF
310
FFFFFFFFFFFFFFFFFFFFFFFFFFFFFFFFF0000000000000000000000000000000
310
0000000000000000000000000000000000000000000000000000000000000000
310
0000000000000000000000000000000000000000000000000000000000000000
310
0000000000000000000000000000000000000000000000000000000000000000
310
0000000000000000000000000000000000000000000000000000000000000000
310
0000000000000000000000000000000000000000000000000000000000000000
310
0000000000000000000000000000000000000000000000000000000000000000
310
0000000000000000000000000000000000000000000000000000000000000000
310
0000000000000000000000000000000000000000000000000000000000000000
310
0000000000000000000000000000000000000000000000000000000000000000
310
0000000000000000000000000000000000000000000000000000000000000000
310
0000000000000000000000000000000000000000000000000000000000000000
310
0000000000000000000000000000000000000000000000000000000000000000
310
0000000000000000000000000000000000000000000000000000000000000000
310
0000000000000000000000000000000000000000000000000000000000000000
310
0000000000000000000000000000000000000000000000000000000000000000
  1
OLE
  0
ENDSEC
  0
SECTION
  2
OBJECTS
  0
DICTIONARY
  5
C
330
0
100
AcDbDictionary
281
     1
  3
ACAD_GROUP
350
D
  3
ACAD_LAYOUT
350
1A
  3
ACAD_MLINESTYLE
350
17
  3
ACAD_PLOTSETTINGS
350
19
  3
ACAD_PLOTSTYLENAME
350
E
  3
ACAD_SCALELIST
350
47
  0
DICTIONARY
  5
D
102
{ACAD_REACTORS
330
C
102
}
330
C
100
AcDbDictionary
281
     1
  0
DICTIONARY
  5
1A
102
{ACAD_REACTORS
330
C
102
}
330
C
100
AcDbDictionary
281
     1
  3
Layout1
350
1E
  3
Layout2
350
26
  3
Model
350
22
  0
DICTIONARY
  5
17
102
{ACAD_REACTORS
330
C
102
}
330
C
100
AcDbDictionary
281
     1
  3
Standard
350
18
  0
DICTIONARY
  5
19
102
{ACAD_REACTORS
330
C
102
}
330
C
100
AcDbDictionary
281
     1
  0
ACDBDICTIONARYWDFLT
  5
E
102
{ACAD_REACTORS
330
C
102
}
330
C
100
AcDbDictionary
281
     1
  3
Normal
350
F
100
AcDbDictionaryWithDefault
340
F
  0
DICTIONARY
  5
47
102
{ACAD_REACTORS
330
C
102
}
330
C
100
AcDbDictionary
281
     1
  3
A0
350
48
  3
A1
350
49
  3
A2
350
4A
  3
A3
350
4B
  3
A4
350
4C
  3
A5
350
4D
  3
A6
350
4E
  3
A7
350
4F
  3
A8
350
50
  3
A9
350
51
  3
B0
350
52
  3
B1
350
53
  3
B2
350
54
  3
B3
350
55
  3
B4
350
56
  3
B5
350
57
  3
B6
350
58
  3
B7
350
59
  3
B8
350
5A
  3
B9
350
5B
  3
C0
350
5C
  3
C1
350
5D
  3
C2
350
5E
  3
C3
350
5F
  3
C4
350
60
  3
C5
350
61
  3
C6
350
62
  3
C7
350
63
  3
C8
350
64
  3
C9
350
65
  3
D0
350
66
  3
D1
350
67
  3
D2
350
68
  0
LAYOUT
  5
1E
102
{ACAD_REACTORS
330
1A
102
}
330
1A
100
AcDbPlotSettings
  1

  2
none_device
  4

  6

 40
0.0
 41
0.0
 42
0.0
 43
0.0
 44
0.0
 45
0.0
 46
0.0
 47
0.0
 48
0.0
 49
0.0
140
0.0
141
0.0
142
1.0
143
1.0
 70
   688
 72
     1
 73
     0
 74
     5
  7

 75
    16
147
1.0
148
0.0
149
0.0
100
AcDbLayout
  1
Layout1
 70
     1
 71
     1
 10
0.0
 20
0.0
 11
420.0
 21
297.0
 12
0.0
 22
0.0
 32
0.0
 14
1.0000000000E+20
 24
1.0000000000E+20
 34
1.0000000000E+20
 15
-1.0000000000E+20
 25
-1.0000000000E+20
 35
-1.0000000000E+20
146
0.0
 13
0.0
 23
0.0
 33
0.0
 16
1.0
 26
0.0
 36
0.0
 17
0.0
 27
1.0
 37
0.0
 76
     0
330
1B
  0
LAYOUT
  5
26
102
{ACAD_REACTORS
330
1A
102
}
330
1A
100
AcDbPlotSettings
  1

  2
none_device
  4

  6

 40
0.0
 41
0.0
 42
0.0
 43
0.0
 44
0.0
 45
0.0
 46
0.0
 47
0.0
 48
0.0
 49
0.0
140
0.0
141
0.0
142
1.0
143
1.0
 70
   688
 72
     1
 73
     0
 74
     5
  7

 75
    16
147
1.0
148
0.0
149
0.0
100
AcDbLayout
  1
Layout2
 70
     1
 71
     2
 10
0.0
 20
0.0
 11
0.0
 21
0.0
 12
0.0
 22
0.0
 32
0.0
 14
0.0
 24
0.0
 34
0.0
 15
0.0
 25
0.0
 35
0.0
146
0.0
 13
0.0
 23
0.0
 33
0.0
 16
1.0
 26
0.0
 36
0.0
 17
0.0
 27
1.0
 37
0.0
 76
     0
330
23
  0
LAYOUT
  5
22
102
{ACAD_REACTORS
330
1A
102
}
330
1A
100
AcDbPlotSettings
  1

  2
none_device
  4
Letter_(8.50_x_11.00_Inches)
  6

 40
6.35
 41
6.35
 42
6.35000508
 43
6.35000508
 44
215.9
 45
279.4
 46
0.0
 47
0.0
 48
0.0
 49
0.0
140
0.0
141
0.0
142
1.0
143
1.0
 70
  1712
 72
     1
 73
     0
 74
     0
  7

 75
     0
147
1.0
148
0.0
149
0.0
100
AcDbLayout
  1
Model
 70
     1
 71
     0
 10
0.0
 20
0.0
 11
297.0
 21
210.0
 12
0.0
 22
0.0
 32
0.0
 14
0.0
 24
0.0
 34
0.0
 15
297.0
 25
210.0
 35
0.0
146
0.0
 13
0.0
 23
0.0
 33
0.0
 16
1.0
 26
0.0
 36
0.0
 17
0.0
 27
1.0
 37
0.0
 76
     0
330
1F
331
29
  0
MLINESTYLE
  5
18
102
{ACAD_REACTORS
330
17
102
}
330
17
100
AcDbMlineStyle
  2
Standard
 70
     0
  3

 62
   256
 51
90.0
 52
90.0
 71
     2
 49
0.5
 62
   256
  6
BYLAYER
 49
-0.5
 62
   256
  6
BYLAYER
  0
ACDBPLACEHOLDER
  5
F
102
{ACAD_REACTORS
330
E
102
}
330
E
  0
SCALE
  5
48
102
{ACAD_REACTORS
330
47
102
}
330
47
100
AcDbScale
 70
     0
300
1:1
140
1.0
141
1.0
290
     1
  0
SCALE
  5
49
102
{ACAD_REACTORS
330
47
102
}
330
47
100
AcDbScale
 70
     0
300
1:2
140
1.0
141
2.0
290
     0
  0
SCALE
  5
4A
102
{ACAD_REACTORS
330
47
102
}
330
47
100
AcDbScale
 70
     0
300
1:4
140
1.0
141
4.0
290
     0
  0
SCALE
  5
4B
102
{ACAD_REACTORS
330
47
102
}
330
47
100
AcDbScale
 70
     0
300
1:5
140
1.0
141
5.0
290
     0
  0
SCALE
  5
4C
102
{ACAD_REACTORS
330
47
102
}
330
47
100
AcDbScale
 70
     0
300
1:8
140
1.0
141
8.0
290
     0
  0
SCALE
  5
4D
102
{ACAD_REACTORS
330
47
102
}
330
47
100
AcDbScale
 70
     0
300
1:10
140
1.0
141
10.0
290
     0
  0
SCALE
  5
4E
102
{ACAD_REACTORS
330
47
102
}
330
47
100
AcDbScale
 70
     0
300
1:16
140
1.0
141
16.0
290
     0
  0
SCALE
  5
4F
102
{ACAD_REACTORS
330
47
102
}
330
47
100
AcDbScale
 70
     0
300
1:20
140
1.0
141
20.0
290
     0
  0
SCALE
  5
50
102
{ACAD_REACTORS
330
47
102
}
330
47
100
AcDbScale
 70
     0
300
1:30
140
1.0
141
30.0
290
     0
  0
SCALE
  5
51
102
{ACAD_REACTORS
330
47
102
}
330
47
100
AcDbScale
 70
     0
300
1:40
140
1.0
141
40.0
290
     0
  0
SCALE
  5
52
102
{ACAD_REACTORS
330
47
102
}
330
47
100
AcDbScale
 70
     0
300
1:50
140
1.0
141
50.0
290
     0
  0
SCALE
  5
53
102
{ACAD_REACTORS
330
47
102
}
330
47
100
AcDbScale
 70
     0
300
1:100
140
1.0
141
100.0
290
     0
  0
SCALE
  5
54
102
{ACAD_REACTORS
330
47
102
}
330
47
100
AcDbScale
 70
     0
300
2:1
140
2.0
141
1.0
290
     0
  0
SCALE
  5
55
102
{ACAD_REACTORS
330
47
102
}
330
47
100
AcDbScale
 70
     0
300
4:1
140
4.0
141
1.0
290
     0
  0
SCALE
  5
56
102
{ACAD_REACTORS
330
47
102
}
330
47
100
AcDbScale
 70
     0
300
8:1
140
8.0
141
1.0
290
     0
  0
SCALE
  5
57
102
{ACAD_REACTORS
330
47
102
}
330
47
100
AcDbScale
 70
     0
300
10:1
140
10.0
141
1.0
290
     0
  0
SCALE
  5
58
102
{ACAD_REACTORS
330
47
102
}
330
47
100
AcDbScale
 70
     0
300
100:1
140
100.0
141
1.0
290
     0
  0
SCALE
  5
59
102
{ACAD_REACTORS
330
47
102
}
330
47
100
AcDbScale
 70
     0
300
1/128" = 1'-0"
140
0.0078125
141
12.0
290
     0
  0
SCALE
  5
5A
102
{ACAD_REACTORS
330
47
102
}
330
47
100
AcDbScale
 70
     0
300
1/64" = 1'-0"
140
0.015625
141
12.0
290
     0
  0
SCALE
  5
5B
102
{ACAD_REACTORS
330
47
102
}
330
47
100
AcDbScale
 70
     0
300
1/32" = 1'-0"
140
0.03125
141
12.0
290
     0
  0
SCALE
  5
5C
102
{ACAD_REACTORS
330
47
102
}
330
47
100
AcDbScale
 70
     0
300
1/16" = 1'-0"
140
0.0625
141
12.0
290
     0
  0
SCALE
  5
5D
102
{ACAD_REACTORS
330
47
102
}
330
47
100
AcDbScale
 70
     0
300
3/32" = 1'-0"
140
0.09375
141
12.0
290
     0
  0
SCALE
  5
5E
102
{ACAD_REACTORS
330
47
102
}
330
47
100
AcDbScale
 70
     0
300
1/8" = 1'-0"
140
0.125
141
12.0
290
     0
  0
SCALE
  5
5F
102
{ACAD_REACTORS
330
47
102
}
330
47
100
AcDbScale
 70
     0
300
3/16" = 1'-0"
140
0.1875
141
12.0
290
     0
  0
SCALE
  5
60
102
{ACAD_REACTORS
330
47
102
}
330
47
100
AcDbScale
 70
     0
300
1/4" = 1'-0"
140
0.25
141
12.0
290
     0
  0
SCALE
  5
61
102
{ACAD_REACTORS
330
47
102
}
330
47
100
AcDbScale
 70
     0
300
3/8" = 1'-0"
140
0.375
141
12.0
290
     0
  0
SCALE
  5
62
102
{ACAD_REACTORS
330
47
102
}
330
47
100
AcDbScale
 70
     0
300
1/2" = 1'-0"
140
0.5
141
12.0
290
     0
  0
SCALE
  5
63
102
{ACAD_REACTORS
330
47
102
}
330
47
100
AcDbScale
 70
     0
300
3/4" = 1'-0"
140
0.75
141
12.0
290
     0
  0
SCALE
  5
64
102
{ACAD_REACTORS
330
47
102
}
330
47
100
AcDbScale
 70
     0
300
1" = 1'-0"
140
1.0
141
12.0
290
     0
  0
SCALE
  5
65
102
{ACAD_REACTORS
330
47
102
}
330
47
100
AcDbScale
 70
     0
300
1-1/2" = 1'-0"
140
1.5
141
12.0
290
     0
  0
SCALE
  5
66
102
{ACAD_REACTORS
330
47
102
}
330
47
100
AcDbScale
 70
     0
300
3" = 1'-0"
140
3.0
141
12.0
290
     0
  0
SCALE
  5
67
102
{ACAD_REACTORS
330
47
102
}
330
47
100
AcDbScale
 70
     0
300
6" = 1'-0"
140
6.0
141
12.0
290
     0
  0
SCALE
  5
68
102
{ACAD_REACTORS
330
47
102
}
330
47
100
AcDbScale
 70
     0
300
1'-0" = 1'-0"
140
12.0
141
12.0
290
     0
  0
ENDSEC
  0
EOF
