  0
SECTION
  2
HEADER
  9
$ACADVER
  1
AC1015
  9
$ACADMAINTVER
 70
     6
  9
$DWGCODEPAGE
  3
ANSI_1252
  9
$INSBASE
 10
0.0
 20
0.0
 30
0.0
  9
$EXTMIN
 10
0.0
 20
0.0
 30
0.0
  9
$EXTMAX
 10
297.0
 20
210.0
 30
0.0
  9
$LIMMIN
 10
0.0
 20
0.0
  9
$LIMMAX
 10
297.0
 20
210.0
  9
$ORTHOMODE
 70
     0
  9
$REGENMODE
 70
     1
  9
$FILLMODE
 70
     1
  9
$QTEXTMODE
 70
     0
  9
$MIRRTEXT
 70
     1
  9
$LTSCALE
 40
1.0
  9
$ATTMODE
 70
     1
  9
$TEXTSIZE
 40
2.0
  9
$TRACEWID
 40
1.0
  9
$TEXTSTYLE
  7
Standard
  9
$CLAYER
  8
0
  9
$CELTYPE
  6
ByLayer
  9
$CECOLOR
 62
   256
  9
$CELTSCALE
 40
1.0
  9
$DISPSILH
 70
     0
  9
$DIMSCALE
 40
1.0
  9
$DIMASZ
 40
3.0
  9
$DIMEXO
 40
0.0
  9
$DIMDLI
 40
3.75
  9
$DIMRND
 40
0.0
  9
$DIMDLE
 40
0.0
  9
$DIMEXE
 40
1.0
  9
$DIMTP
 40
0.0
  9
$DIMTM
 40
0.0
  9
$DIMTXT
 40
2.0
  9
$DIMCEN
 40
2.5
  9
$DIMTSZ
 40
0.0
  9
$DIMTOL
 70
     0
  9
$DIMLIM
 70
     0
  9
$DIMTIH
 70
     1
  9
$DIMTOH
 70
     1
  9
$DIMSE1
 70
     0
  9
$DIMSE2
 70
     0
  9
$DIMTAD
 70
     1
  9
$DIMZIN
 70
     0
  9
$DIMBLK
  1

  9
$DIMASO
 70
     1
  9
$DIMSHO
 70
     1
  9
$DIMPOST
  1

  9
$DIMAPOST
  1

  9
$DIMALT
 70
     0
  9
$DIMALTD
 70
     3
  9
$DIMALTF
 40
0.0393700787
  9
$DIMLFAC
 40
1.0
  9
$DIMTOFL
 70
     1
  9
$DIMTVP
 40
0.0
  9
$DIMTIX
 70
     0
  9
$DIMSOXD
 70
     0
  9
$DIMSAH
 70
     0
  9
$DIMBLK1
  1

  9
$DIMBLK2
  1

  9
$DIMSTYLE
  2
ISO-25
  9
$DIMCLRD
 70
     0
  9
$DIMCLRE
 70
     0
  9
$DIMCLRT
 70
     0
  9
$DIMTFAC
 40
1.0
  9
$DIMGAP
 40
1.524
  9
$DIMJUST
 70
     0
  9
$DIMSD1
 70
     0
  9
$DIMSD2
 70
     0
  9
$DIMTOLJ
 70
     0
  9
$DIMTZIN
 70
     0
  9
$DIMALTZ
 70
     0
  9
$DIMALTTZ
 70
     0
  9
$DIMUPT
 70
     0
  9
$DIMDEC
 70
     2
  9
$DIMTDEC
 70
     3
  9
$DIMALTU
 70
     2
  9
$DIMALTTD
 70
     3
  9
$DIMTXSTY
  7
Standard
  9
$DIMAUNIT
 70
     0
  9
$DIMADEC
 70
     2
  9
$DIMALTRND
 40
0.0
  9
$DIMAZIN
 70
     0
  9
$DIMDSEP
 70
    44
  9
$DIMATFIT
 70
     3
  9
$DIMFRAC
 70
     0
  9
$DIMLDRBLK
  1

  9
$DIMLUNIT
 70
     2
  9
$DIMLWD
 70
    -2
  9
$DIMLWE
 70
    -2
  9
$DIMTMOVE
 70
     0
  9
$LUNITS
 70
     2
  9
$LUPREC
 70
     2
  9
$SKETCHINC
 40
1.0
  9
$FILLETRAD
 40
10.0
  9
$AUNITS
 70
     0
  9
$AUPREC
 70
     2
  9
$MENU
  1
.
  9
$ELEVATION
 40
0.0
  9
$PELEVATION
 40
0.0
  9
$THICKNESS
 40
0.0
  9
$LIMCHECK
 70
     0
  9
$CHAMFERA
 40
10.0
  9
$CHAMFERB
 40
10.0
  9
$CHAMFERC
 40
20.0
  9
$CHAMFERD
 40
0.0
  9
$SKPOLY
 70
     0
  9
$TDCREATE
 40
2456071.486264838
  9
$TDUCREATE
 40
2456071.402931504
  9
$TDUPDATE
 40
2456071.486266285
  9
$TDUUPDATE
 40
2456071.402932951
  9
$TDINDWG
 40
0.0000000116
  9
$TDUSRTIMER
 40
0.0000000116
  9
$USRTIMER
 70
     1
  9
$ANGBASE
 50
0.0
  9
$ANGDIR
 70
     0
  9
$PDMODE
 70
     0
  9
$PDSIZE
 40
-1.0
  9
$PLINEWID
 40
0.0
  9
$SPLFRAME
 70
     0
  9
$SPLINETYPE
 70
     6
  9
$SPLINESEGS
 70
     8
  9
$HANDSEED
  5
1F0
  9
$SURFTAB1
 70
     6
  9
$SURFTAB2
 70
     6
  9
$SURFTYPE
 70
     6
  9
$SURFU
 70
     6
  9
$SURFV
 70
     6
  9
$UCSBASE
  2

  9
$UCSNAME
  2

  9
$UCSORG
 10
0.0
 20
0.0
 30
0.0
  9
$UCSXDIR
 10
1.0
 20
0.0
 30
0.0
  9
$UCSYDIR
 10
0.0
 20
1.0
 30
0.0
  9
$UCSORTHOREF
  2

  9
$UCSORTHOVIEW
 70
     0
  9
$UCSORGTOP
 10
0.0
 20
0.0
 30
0.0
  9
$UCSORGBOTTOM
 10
0.0
 20
0.0
 30
0.0
  9
$UCSORGLEFT
 10
0.0
 20
0.0
 30
0.0
  9
$UCSORGRIGHT
 10
0.0
 20
0.0
 30
0.0
  9
$UCSORGFRONT
 10
0.0
 20
0.0
 30
0.0
  9
$UCSORGBACK
 10
0.0
 20
0.0
 30
0.0
  9
$PUCSBASE
  2

  9
$PUCSNAME
  2

  9
$PUCSORG
 10
0.0
 20
0.0
 30
0.0
  9
$PUCSXDIR
 10
1.0
 20
0.0
 30
0.0
  9
$PUCSYDIR
 10
0.0
 20
1.0
 30
0.0
  9
$PUCSORTHOREF
  2

  9
$PUCSORTHOVIEW
 70
     0
  9
$PUCSORGTOP
 10
0.0
 20
0.0
 30
0.0
  9
$PUCSORGBOTTOM
 10
0.0
 20
0.0
 30
0.0
  9
$PUCSORGLEFT
 10
0.0
 20
0.0
 30
0.0
  9
$PUCSORGRIGHT
 10
0.0
 20
0.0
 30
0.0
  9
$PUCSORGFRONT
 10
0.0
 20
0.0
 30
0.0
  9
$PUCSORGBACK
 10
0.0
 20
0.0
 30
0.0
  9
$USERI1
 70
     0
  9
$USERI2
 70
     0
  9
$USERI3
 70
     0
  9
$USERI4
 70
     0
  9
$USERI5
 70
     0
  9
$USERR1
 40
0.0
  9
$USERR2
 40
0.0
  9
$USERR3
 40
0.0
  9
$USERR4
 40
0.0
  9
$USERR5
 40
0.0
  9
$WORLDVIEW
 70
     1
  9
$SHADEDGE
 70
     3
  9
$SHADEDIF
 70
    70
  9
$TILEMODE
 70
     1
  9
$MAXACTVP
 70
    64
  9
$PINSBASE
 10
0.0
 20
0.0
 30
0.0
  9
$PLIMCHECK
 70
     0
  9
$PEXTMIN
 10
1.0000000000E+20
 20
1.0000000000E+20
 30
1.0000000000E+20
  9
$PEXTMAX
 10
-1.0000000000E+20
 20
-1.0000000000E+20
 30
-1.0000000000E+20
  9
$PLIMMIN
 10
0.0
 20
0.0
  9
$PLIMMAX
 10
420.0
 20
297.0
  9
$UNITMODE
 70
     0
  9
$VISRETAIN
 70
     1
  9
$PLINEGEN
 70
     0
  9
$PSLTSCALE
 70
     1
  9
$TREEDEPTH
 70
  3020
  9
$CMLSTYLE
  2
Standard
  9
$CMLJUST
 70
     0
  9
$CMLSCALE
 40
20.0
  9
$PROXYGRAPHICS
 70
     1
  9
$MEASUREMENT
 70
     1
  9
$CELWEIGHT
370
    -1
  9
$ENDCAPS
280
     0
  9
$JOINSTYLE
280
     0
  9
$LWDISPLAY
290
     1
  9
$INSUNITS
 70
     4
  9
$HYPERLINKBASE
  1

  9
$STYLESHEET
  1

  9
$XEDIT
290
     1
  9
$CEPSNTYPE
380
     0
  9
$PSTYLEMODE
290
     1
  9
$FINGERPRINTGUID
  2
{1FE80737-EBA1-4DBF-9F19-7F1E62A2A638}
  9
$VERSIONGUID
  2
{FAEB1C32-E019-11D5-929B-00C0DF256EC4}
  9
$EXTNAMES
290
     1
  9
$PSVPSCALE
 40
0.0
  9
$OLESTARTUP
290
     0
  0
ENDSEC
  0
SECTION
  2
CLASSES
  0
CLASS
  1
ACDBDICTIONARYWDFLT
  2
AcDbDictionaryWithDefault
  3
ObjectDBX Classes
 90
        0
280
     0
281
     0
  0
CLASS
  1
VISUALSTYLE
  2
AcDbVisualStyle
  3
ObjectDBX Classes
 90
     4095
280
     0
281
     0
  0
CLASS
  1
MATERIAL
  2
AcDbMaterial
  3
ObjectDBX Classes
 90
     1153
280
     0
281
     0
  0
CLASS
  1
ACDBPLACEHOLDER
  2
AcDbPlaceHolder
  3
ObjectDBX Classes
 90
        0
280
     0
281
     0
  0
CLASS
  1
LAYOUT
  2
AcDbLayout
  3
ObjectDBX Classes
 90
        0
280
     0
281
     0
  0
ENDSEC
  0
SECTION
  2
TABLES
  0
TABLE
  2
VPORT
  5
8
330
0
100
AcDbSymbolTable
 70
     1
  0
VPORT
  5
29
330
8
100
AcDbSymbolTableRecord
100
AcDbViewportTableRecord
  2
*Active
 70
     0
 10
0.0
 20
0.0
 11
1.0
 21
1.0
 12
148.5
 22
105.0
 13
0.0
 23
0.0
 14
10.0
 24
10.0
 15
10.0
 25
10.0
 16
0.0
 26
0.0
 36
1.0
 17
0.0
 27
0.0
 37
0.0
 40
210.0
 41
1.4142857143
 42
50.0
 43
0.0
 44
0.0
 50
0.0
 51
0.0
 71
     0
 72
  2000
 73
     1
 74
     3
 75
     0
 76
     0
 77
     0
 78
     0
281
     0
 65
     1
110
0.0
120
0.0
130
0.0
111
1.0
121
0.0
131
0.0
112
0.0
122
1.0
132
0.0
 79
     0
146
0.0
  0
ENDTAB
  0
TABLE
  2
LTYPE
  5
5
330
0
100
AcDbSymbolTable
 70
     6
  0
LTYPE
  5
14
330
5
100
AcDbSymbolTableRecord
100
AcDbLinetypeTableRecord
  2
ByBlock
 70
     0
  3

 72
    65
 73
     0
 40
0.0
  0
LTYPE
  5
15
330
5
100
AcDbSymbolTableRecord
100
AcDbLinetypeTableRecord
  2
ByLayer
 70
     0
  3

 72
    65
 73
     0
 40
0.0
  0
LTYPE
  5
16
330
5
100
AcDbSymbolTableRecord
100
AcDbLinetypeTableRecord
  2
Continuous
 70
     0
  3
Solid line
 72
    65
 73
     0
 40
0.0
  0
LTYPE
  5
3F
330
5
100
AcDbSymbolTableRecord
100
AcDbLinetypeTableRecord
  2
HIDDEN
 70
     0
  3
Hidden __ __ __ __ __ __ __ __ __ __ __ __ __ __
 72
    65
 73
     2
 40
1.905
 49
1.27
 74
     0
 49
-0.635
 74
     0
  0
LTYPE
  5
40
330
5
100
AcDbSymbolTableRecord
100
AcDbLinetypeTableRecord
  2
PHANTOM
 70
     0
  3
Phantom ______  __  __  ______  __  __  ______
 72
    65
 73
     6
 40
12.7
 49
6.35
 74
     0
 49
-1.27
 74
     0
 49
1.27
 74
     0
 49
-1.27
 74
     0
 49
1.27
 74
     0
 49
-1.27
 74
     0
  0
LTYPE
  5
41
330
5
100
AcDbSymbolTableRecord
100
AcDbLinetypeTableRecord
  2
CENTER
 70
     0
  3
Center ____ _ ____ _ ____ _ ____ _ ____ _ ____
 72
    65
 73
     4
 40
10.16
 49
6.35
 74
     0
 49
-1.27
 74
     0
 49
1.27
 74
     0
 49
-1.27
 74
     0
  0
LTYPE
  5
42
330
5
100
AcDbSymbolTableRecord
100
AcDbLinetypeTableRecord
  2
CENTERX2
 70
     0
  3
Center (2x) ________  __  ________  __  _____
 72
    65
 73
     4
 40
20.32
 49
12.7
 74
     0
 49
-2.54
 74
     0
 49
2.54
 74
     0
 49
-2.54
 74
     0
  0
LTYPE
  5
43
330
5
100
AcDbSymbolTableRecord
100
AcDbLinetypeTableRecord
  2
DOT2
 70
     0
  3
Dot (.5x) ........................................
 72
    65
 73
     2
 40
0.635
 49
0.0
 74
     0
 49
-0.635
 74
     0
  0
ENDTAB
  0
TABLE
  2
LAYER
  5
2
330
0
100
AcDbSymbolTable
 70
     5
  0
LAYER
  5
10
330
2
100
AcDbSymbolTableRecord
100
AcDbLayerTableRecord
  2
0
 70
     0
 62
     7
  6
Continuous
370
    -3
390
F
  0
LAYER
  5
44
330
2
100
AcDbSymbolTableRecord
100
AcDbLayerTableRecord
  2
FORMAT
 70
     0
 62
     7
  6
Continuous
370
    -3
390
F
  0
LAYER
  5
45
330
2
100
AcDbSymbolTableRecord
100
AcDbLayerTableRecord
  2
VERMASSUNG
 70
     0
 62
     7
  6
Continuous
370
    -3
390
F
  0
LAYER
  5
46
330
2
100
AcDbSymbolTableRecord
100
AcDbLayerTableRecord
  2
KOPF_DÜNN
 70
     0
 62
     7
  6
Continuous
370
    -3
390
F
  0
LAYER
  5
47
330
2
100
AcDbSymbolTableRecord
100
AcDbLayerTableRecord
  2
KOPF_DICK
 70
     0
 62
     7
  6
Continuous
370
    15
390
F
  0
ENDTAB
  0
TABLE
  2
STYLE
  5
3
330
0
100
AcDbSymbolTable
 70
     2
  0
STYLE
  5
11
330
3
100
AcDbSymbolTableRecord
100
AcDbTextStyleTableRecord
  2
Standard
 70
     0
 40
0.0
 41
1.0
 50
0.0
 71
     0
 42
2.0
  3
txt
  4

  0
STYLE
  5
48
330
3
100
AcDbSymbolTableRecord
100
AcDbTextStyleTableRecord
  2
SLDTEXTSTYLE0
 70
     0
 40
0.0
 41
0.7
 50
0.0
 71
     0
 42
0.2
  3
TXT
  4

  0
ENDTAB
  0
TABLE
  2
VIEW
  5
6
330
0
100
AcDbSymbolTable
 70
     0
  0
ENDTAB
  0
TABLE
  2
UCS
  5
7
330
0
100
AcDbSymbolTable
 70
     0
  0
ENDTAB
  0
TABLE
  2
APPID
  5
9
330
0
100
AcDbSymbolTable
 70
     1
  0
APPID
  5
12
330
9
100
AcDbSymbolTableRecord
100
AcDbRegAppTableRecord
  2
ACAD
 70
     0
  0
ENDTAB
  0
TABLE
  2
DIMSTYLE
  5
A
330
0
100
AcDbSymbolTable
 70
     5
100
AcDbDimStyleTable
  0
DIMSTYLE
105
27
330
A
100
AcDbSymbolTableRecord
100
AcDbDimStyleTableRecord
  2
ISO-25
 70
     0
 41
2.5
 42
0.625
 43
3.75
 44
1.25
 73
     0
 74
     0
 77
     1
 78
     8
140
2.5
141
2.5
143
0.0393700787
147
0.625
171
     3
172
     1
178
     0
271
     2
272
     2
274
     3
278
    44
283
     0
284
     8
340
11
  0
DIMSTYLE
105
183
102
{ACAD_REACTORS
330
182
330
18F
102
}
330
A
100
AcDbSymbolTableRecord
100
AcDbDimStyleTableRecord
  2
SLDDIMSTYLE0
 70
     0
 41
3.0
 44
0.0
 45
0.000000001
 47
0.1
 48
0.1
 71
     1
 73
     0
 74
     0
 77
     1
 78
    12
 79
     3
140
2.0
147
0.5
173
     1
178
     0
271
     2
272
     1
276
     2
284
     8
340
48
  0
DIMSTYLE
105
19C
102
{ACAD_REACTORS
330
19B
330
1AF
102
}
330
A
100
AcDbSymbolTableRecord
100
AcDbDimStyleTableRecord
  2
SLDDIMSTYLE1
 70
     0
 41
3.0
 44
0.0
 45
0.000000001
 73
     0
 74
     0
 77
     1
 78
    12
 79
     3
140
2.0
147
0.5
173
     1
178
     0
271
     2
272
     3
276
     2
284
    12
340
48
  0
DIMSTYLE
105
1A7
102
{ACAD_REACTORS
330
1A6
102
}
330
A
100
AcDbSymbolTableRecord
100
AcDbDimStyleTableRecord
  2
SLDDIMSTYLE2
 70
     0
 41
3.0
 44
0.0
 73
     0
 74
     0
 77
     1
 78
    12
 79
     3
140
2.0
147
0.5
173
     1
178
     0
179
     2
272
     3
276
     2
284
    12
340
48
  0
DIMSTYLE
105
1D5
102
{ACAD_REACTORS
330
1D4
102
}
330
A
100
AcDbSymbolTableRecord
100
AcDbDimStyleTableRecord
  2
SLDDIMSTYLE3
 70
     0
 41
3.0
 44
0.0
 45
0.000000001
 73
     0
 74
     0
 77
     1
 78
    12
 79
     3
140
2.0
147
0.5
172
     1
173
     1
178
     0
271
     2
272
     3
276
     2
284
    12
289
     0
340
48
  0
ENDTAB
  0
TABLE
  2
BLOCK_RECORD
  5
1
330
0
100
AcDbSymbolTable
 70
     8
  0
BLOCK_RECORD
  5
1F
330
1
100
AcDbSymbolTableRecord
100
AcDbBlockTableRecord
  2
*Model_Space
340
22
  0
BLOCK_RECORD
  5
1B
330
1
100
AcDbSymbolTableRecord
100
AcDbBlockTableRecord
  2
*Paper_Space
340
1E
  0
BLOCK_RECORD
  5
23
330
1
100
AcDbSymbolTableRecord
100
AcDbBlockTableRecord
  2
*Paper_Space0
340
26
  0
BLOCK_RECORD
  5
184
330
1
100
AcDbSymbolTableRecord
100
AcDbBlockTableRecord
  2
_D
340
0
  0
BLOCK_RECORD
  5
190
330
1
100
AcDbSymbolTableRecord
100
AcDbBlockTableRecord
  2
_D_1
340
0
  0
BLOCK_RECORD
  5
19D
330
1
100
AcDbSymbolTableRecord
100
AcDbBlockTableRecord
  2
_D_2
340
0
  0
BLOCK_RECORD
  5
1A8
330
1
100
AcDbSymbolTableRecord
100
AcDbBlockTableRecord
  2
_D_3
340
0
  0
BLOCK_RECORD
  5
1B0
330
1
100
AcDbSymbolTableRecord
100
AcDbBlockTableRecord
  2
_D_4
340
0
  0
BLOCK_RECORD
  5
1D6
330
1
100
AcDbSymbolTableRecord
100
AcDbBlockTableRecord
  2
_D_5
340
0
  0
BLOCK_RECORD
  5
1E3
330
1
100
AcDbSymbolTableRecord
100
AcDbBlockTableRecord
  2
SW_CENTERMARKSYMBOL_0
340
0
102
{BLKREFS
331
1EE
102
}
  0
ENDTAB
  0
ENDSEC
  0
SECTION
  2
BLOCKS
  0
BLOCK
  5
20
330
1F
100
AcDbEntity
  8
0
100
AcDbBlockBegin
  2
*Model_Space
 70
     0
 10
0.0
 20
0.0
 30
0.0
  3
*Model_Space
  1

  0
ENDBLK
  5
21
330
1F
100
AcDbEntity
  8
0
100
AcDbBlockEnd
  0
BLOCK
  5
1C
330
1B
100
AcDbEntity
 67
     1
  8
0
100
AcDbBlockBegin
  2
*Paper_Space
 70
     0
 10
0.0
 20
0.0
 30
0.0
  3
*Paper_Space
  1

  0
ENDBLK
  5
1D
330
1B
100
AcDbEntity
 67
     1
  8
0
100
AcDbBlockEnd
  0
BLOCK
  5
24
330
23
100
AcDbEntity
  8
0
100
AcDbBlockBegin
  2
*Paper_Space0
 70
     0
 10
0.0
 20
0.0
 30
0.0
  3
*Paper_Space0
  1

  0
ENDBLK
  5
25
330
23
100
AcDbEntity
  8
0
100
AcDbBlockEnd
  0
BLOCK
  5
185
330
184
100
AcDbEntity
  8
0
100
AcDbBlockBegin
  2
_D
 70
     0
 10
0.0
 20
0.0
 30
0.0
  3
_D
  1

  0
SOLID
  5
187
330
184
100
AcDbEntity
  8
VERMASSUNG
100
AcDbTrace
 10
264.8406060531
 20
154.0694902123
 30
0.0
 11
264.3906060531
 21
151.0694902123
 31
0.0
 12
265.2906060531
 22
151.0694902123
 32
0.0
 13
265.2906060531
 23
151.0694902123
 33
0.0
  0
SOLID
  5
188
330
184
100
AcDbEntity
  8
VERMASSUNG
100
AcDbTrace
 10
264.8406060531
 20
119.0694902123
 30
0.0
 11
265.2906060531
 21
122.0694902123
 31
0.0
 12
264.3906060531
 22
122.0694902123
 32
0.0
 13
264.3906060531
 23
122.0694902123
 33
0.0
  0
LINE
  5
189
330
184
100
AcDbEntity
  8
VERMASSUNG
100
AcDbLine
 10
249.7150150095
 20
154.0694902123
 30
0.0
 11
265.8406060531
 21
154.0694902123
 31
0.0
  0
LINE
  5
18A
330
184
100
AcDbEntity
  8
VERMASSUNG
100
AcDbLine
 10
249.7150150095
 20
119.0694902123
 30
0.0
 11
265.8406060531
 21
119.0694902123
 31
0.0
  0
LINE
  5
18B
330
184
100
AcDbEntity
  8
VERMASSUNG
100
AcDbLine
 10
264.8406060531
 20
154.0694902123
 30
0.0
 11
264.8406060531
 21
119.0694902123
 31
0.0
  0
MTEXT
  5
18C
330
184
100
AcDbEntity
  8
VERMASSUNG
100
AcDbMText
 10
262.26247069
 20
132.0194900253
 30
0.1
 40
2.0
 41
0.0
 71
     1
 72
     1
  1
35
  7
SLDTEXTSTYLE0
 11
-7.044195017643634E-15
 21
1.0
 31
0.0
 73
     1
 44
1.0
  0
MTEXT
  5
18D
330
184
100
AcDbEntity
  8
VERMASSUNG
100
AcDbMText
 10
262.26247069
 20
137.8069901273
 30
0.1
 40
2.0
 41
0.0
 71
     1
 72
     1
  1

  7
SLDTEXTSTYLE0
 11
-7.044195017643634E-15
 21
1.0
 31
0.0
 73
     1
 44
1.0
  0
MTEXT
  5
18E
330
184
100
AcDbEntity
  8
VERMASSUNG
100
AcDbMText
 10
262.7570045528
 20
137.8194904172
 30
0.1
 40
1.5
 41
0.0
 71
     1
 72
     1
  1
±0.1
  7
SLDTEXTSTYLE0
 11
-7.044195017643634E-15
 21
1.0
 31
0.0
 73
     1
 44
1.0
  0
ENDBLK
  5
186
330
184
100
AcDbEntity
  8
0
100
AcDbBlockEnd
  0
BLOCK
  5
191
330
190
100
AcDbEntity
  8
0
100
AcDbBlockBegin
  2
_D_1
 70
     0
 10
0.0
 20
0.0
 30
0.0
  3
_D_1
  1

  0
SOLID
  5
193
330
190
100
AcDbEntity
  8
VERMASSUNG
100
AcDbTrace
 10
189.7150150095
 20
161.4602552425
 30
0.0
 11
192.7150150095
 21
161.0102552425
 31
0.0
 12
192.7150150095
 22
161.9102552425
 32
0.0
 13
192.7150150095
 23
161.9102552425
 33
0.0
  0
SOLID
  5
194
330
190
100
AcDbEntity
  8
VERMASSUNG
100
AcDbTrace
 10
249.7150150095
 20
161.4602552425
 30
0.0
 11
246.7150150095
 21
161.9102552425
 31
0.0
 12
246.7150150095
 22
161.0102552425
 32
0.0
 13
246.7150150095
 23
161.0102552425
 33
0.0
  0
LINE
  5
195
330
190
100
AcDbEntity
  8
VERMASSUNG
100
AcDbLine
 10
189.7150150095
 20
143.7694902123
 30
0.0
 11
189.7150150095
 21
162.4602552425
 31
0.0
  0
LINE
  5
196
330
190
100
AcDbEntity
  8
VERMASSUNG
100
AcDbLine
 10
249.7150150095
 20
154.0694902123
 30
0.0
 11
249.7150150095
 21
162.4602552425
 31
0.0
  0
LINE
  5
197
330
190
100
AcDbEntity
  8
VERMASSUNG
100
AcDbLine
 10
189.7150150095
 20
161.4602552425
 30
0.0
 11
249.7150150095
 21
161.4602552425
 31
0.0
  0
MTEXT
  5
198
330
190
100
AcDbEntity
  8
VERMASSUNG
100
AcDbMText
 10
215.1650148225
 20
164.0383906056
 30
0.1
 40
2.0
 41
0.0
 71
     1
 72
     1
  1
60
  7
SLDTEXTSTYLE0
 73
     1
 44
1.0
  0
MTEXT
  5
199
330
190
100
AcDbEntity
  8
VERMASSUNG
100
AcDbMText
 10
220.9525149246
 20
164.0383906056
 30
0.1
 40
2.0
 41
0.0
 71
     1
 72
     1
  1

  7
SLDTEXTSTYLE0
 73
     1
 44
1.0
  0
MTEXT
  5
19A
330
190
100
AcDbEntity
  8
VERMASSUNG
100
AcDbMText
 10
220.9650152144
 20
163.5438567428
 30
0.1
 40
1.5
 41
0.0
 71
     1
 72
     1
  1
±0.1
  7
SLDTEXTSTYLE0
 73
     1
 44
1.0
  0
ENDBLK
  5
192
330
190
100
AcDbEntity
  8
0
100
AcDbBlockEnd
  0
BLOCK
  5
19E
330
19D
100
AcDbEntity
  8
0
100
AcDbBlockBegin
  2
_D_2
 70
     0
 10
0.0
 20
0.0
 30
0.0
  3
_D_2
  1

  0
SOLID
  5
1A0
330
19D
100
AcDbEntity
  8
VERMASSUNG
100
AcDbTrace
 10
159.7150150095
 20
169.2644319988
 30
0.0
 11
162.7150150095
 21
168.8144319988
 31
0.0
 12
162.7150150095
 22
169.7144319988
 32
0.0
 13
162.7150150095
 23
169.7144319988
 33
0.0
  0
SOLID
  5
1A1
330
19D
100
AcDbEntity
  8
VERMASSUNG
100
AcDbTrace
 10
249.7150150095
 20
169.2644319988
 30
0.0
 11
246.7150150095
 21
169.7144319988
 31
0.0
 12
246.7150150095
 22
168.8144319988
 32
0.0
 13
246.7150150095
 23
168.8144319988
 33
0.0
  0
LINE
  5
1A2
330
19D
100
AcDbEntity
  8
VERMASSUNG
100
AcDbLine
 10
159.7150150095
 20
135.0628160504
 30
0.0
 11
159.7150150095
 21
170.2644319988
 31
0.0
  0
LINE
  5
1A3
330
19D
100
AcDbEntity
  8
VERMASSUNG
100
AcDbLine
 10
249.7150150095
 20
154.0694902123
 30
0.0
 11
249.7150150095
 21
170.2644319988
 31
0.0
  0
LINE
  5
1A4
330
19D
100
AcDbEntity
  8
VERMASSUNG
100
AcDbLine
 10
159.7150150095
 20
169.2644319988
 30
0.0
 11
249.7150150095
 21
169.2644319988
 31
0.0
  0
MTEXT
  5
1A5
330
19D
100
AcDbEntity
  8
VERMASSUNG
100
AcDbMText
 10
202.4150149585
 20
171.8425673619
 30
0.1
 40
2.0
 41
0.0
 71
     1
 72
     1
  1
90
  7
SLDTEXTSTYLE0
 73
     1
 44
1.0
  0
ENDBLK
  5
19F
330
19D
100
AcDbEntity
  8
0
100
AcDbBlockEnd
  0
BLOCK
  5
1A9
330
1A8
100
AcDbEntity
  8
0
100
AcDbBlockBegin
  2
_D_3
 70
     0
 10
0.0
 20
0.0
 30
0.0
  3
_D_3
  1

  0
ARC
  5
1AB
330
1A8
100
AcDbEntity
  8
VERMASSUNG
100
AcDbCircle
 10
249.8605461751
 20
154.0694902123
 30
0.0
 40
10.04621273268
100
AcDbArc
 50
252.5
 51
0.0
  0
SOLID
  5
1AC
330
1A8
100
AcDbEntity
  8
VERMASSUNG
100
AcDbTrace
 10
246.8395917434
 20
144.4882468383
 30
0.0
 11
249.7292689988
 21
143.5650646463
 31
0.0
 12
249.8729552395
 22
144.4535207591
 32
0.0
 13
249.8729552395
 23
144.4535207591
 33
0.0
  0
SOLID
  5
1AD
330
1A8
100
AcDbEntity
  8
VERMASSUNG
100
AcDbTrace
 10
259.9067589078
 20
154.0694902123
 30
0.0
 11
259.0277277629
 21
151.1660776948
 31
0.0
 12
259.9182707035
 22
151.0359497925
 32
0.0
 13
259.9182707035
 23
151.0359497925
 33
0.0
  0
MTEXT
  5
1AE
330
1A8
100
AcDbEntity
  8
VERMASSUNG
100
AcDbMText
 10
250.7281361389
 20
145.4451370746
 30
0.1
 40
2.0
 41
0.0
 71
     1
 72
     1
  1
107.5°
  7
SLDTEXTSTYLE0
 11
0.8064446042674817
 21
0.5913096483635836
 31
0.0
 73
     1
 44
1.0
  0
ENDBLK
  5
1AA
330
1A8
100
AcDbEntity
  8
0
100
AcDbBlockEnd
  0
BLOCK
  5
1B1
330
1B0
100
AcDbEntity
  8
0
100
AcDbBlockBegin
  2
_D_4
 70
     0
 10
0.0
 20
0.0
 30
0.0
  3
_D_4
  1

  0
SOLID
  5
1B3
330
1B0
100
AcDbEntity
  8
VERMASSUNG
100
AcDbTrace
 10
149.7150150095
 20
144.0694902123
 30
0.0
 11
149.2650150095
 21
141.0694902123
 31
0.0
 12
150.1650150095
 22
141.0694902123
 32
0.0
 13
150.1650150095
 23
141.0694902123
 33
0.0
  0
SOLID
  5
1B4
330
1B0
100
AcDbEntity
  8
VERMASSUNG
100
AcDbTrace
 10
149.7150150095
 20
94.0694902123
 30
0.0
 11
150.1650150095
 21
97.0694902123
 31
0.0
 12
149.2650150095
 22
97.0694902123
 32
0.0
 13
149.2650150095
 23
97.0694902123
 33
0.0
  0
LINE
  5
1B5
330
1B0
100
AcDbEntity
  8
VERMASSUNG
100
AcDbLine
 10
190.0150150095
 20
144.0694902123
 30
0.0
 11
148.7150150095
 21
144.0694902123
 31
0.0
  0
LINE
  5
1B6
330
1B0
100
AcDbEntity
  8
VERMASSUNG
100
AcDbLine
 10
190.0150150095
 20
94.0694902123
 30
0.0
 11
148.7150150095
 21
94.0694902123
 31
0.0
  0
LINE
  5
1B7
330
1B0
100
AcDbEntity
  8
VERMASSUNG
100
AcDbLine
 10
149.7150150095
 20
144.0694902123
 30
0.0
 11
149.7150150095
 21
94.0694902123
 31
0.0
  0
MTEXT
  5
1B8
330
1B0
100
AcDbEntity
  8
VERMASSUNG
100
AcDbMText
 10
146.9368795205
 20
112.664490103
 30
0.35
 40
2.0
 41
0.0
 71
     1
 72
     1
  1
PSC
  7
SLDTEXTSTYLE0
 11
-7.044195017643634E-15
 21
1.0
 31
0.0
 73
     1
 44
1.0
  0
MTEXT
  5
1B9
330
1B0
100
AcDbEntity
  8
VERMASSUNG
100
AcDbMText
 10
147.13687953
 20
117.2644902051
 30
0.35
 40
2.0
 41
0.0
 71
     1
 72
     1
  1
%%c
  7
SLDTEXTSTYLE0
 11
-7.044195017643634E-15
 21
1.0
 31
0.0
 73
     1
 44
1.0
  0
MTEXT
  5
1BA
330
1B0
100
AcDbEntity
  8
VERMASSUNG
100
AcDbMText
 10
146.9368795205
 20
120.8744906851
 30
0.35
 40
2.0
 41
0.0
 71
     1
 72
     1
  1
50
  7
SLDTEXTSTYLE0
 11
-7.044195017643634E-15
 21
1.0
 31
0.0
 73
     1
 44
1.0
  0
ENDBLK
  5
1B2
330
1B0
100
AcDbEntity
  8
0
100
AcDbBlockEnd
  0
BLOCK
  5
1D7
330
1D6
100
AcDbEntity
  8
0
100
AcDbBlockBegin
  2
_D_5
 70
     0
 10
0.0
 20
0.0
 30
0.0
  3
_D_5
  1

  0
SOLID
  5
1D9
330
1D6
100
AcDbEntity
  8
VERMASSUNG
100
AcDbTrace
 10
109.1025060364
 20
98.4187522004
 30
0.0
 11
110.9056283284
 21
95.9792338053
 31
0.0
 12
111.5420244315
 22
96.6156299084
 32
0.0
 13
111.5420244315
 23
96.6156299084
 33
0.0
  0
SOLID
  5
1DA
330
1D6
100
AcDbEntity
  8
VERMASSUNG
100
AcDbTrace
 10
63.1405652593
 20
144.3806929776
 30
0.0
 11
61.3374429672
 21
146.8202113727
 31
0.0
 12
60.7010468642
 22
146.1838152696
 32
0.0
 13
60.7010468642
 23
146.1838152696
 33
0.0
  0
LINE
  5
1DB
330
1D6
100
AcDbEntity
  8
VERMASSUNG
100
AcDbLine
 10
109.1025060364
 20
98.4187522004
 30
0.0
 11
108.3953992552
 21
97.7116454192
 31
0.0
  0
LINE
  5
1DC
330
1D6
100
AcDbEntity
  8
VERMASSUNG
100
AcDbLine
 10
63.1405652593
 20
144.3806929776
 30
0.0
 11
62.4334584781
 21
143.6735861964
 31
0.0
  0
LINE
  5
1DD
330
1D6
100
AcDbEntity
  8
VERMASSUNG
100
AcDbLine
 10
109.1025060364
 20
98.4187522004
 30
0.0
 11
113.3451467235
 21
94.1761115133
 31
0.0
  0
LINE
  5
1DE
330
1D6
100
AcDbEntity
  8
VERMASSUNG
100
AcDbLine
 10
109.1025060364
 20
98.4187522004
 30
0.0
 11
63.1405652593
 21
144.3806929776
 31
0.0
  0
LINE
  5
1DF
330
1D6
100
AcDbEntity
  8
VERMASSUNG
100
AcDbLine
 10
63.1405652593
 20
144.3806929776
 30
0.0
 11
49.4248314782
 21
158.0964267586
 31
0.0
  0
MTEXT
  5
1E0
330
1D6
100
AcDbEntity
  8
VERMASSUNG
100
AcDbMText
 10
51.2478485586
 20
159.919443839
 30
0.1
 40
2.0
 41
0.0
 71
     1
 72
     1
  1
%%c
  7
SLDTEXTSTYLE0
 11
0.707106781186546
 21
-0.7071067811865491
 31
0.0
 73
     1
 44
1.0
  0
MTEXT
  5
1E1
330
1D6
100
AcDbEntity
  8
VERMASSUNG
100
AcDbMText
 10
53.9419254118
 20
157.5082097118
 30
0.1
 40
2.0
 41
0.0
 71
     1
 72
     1
  1
65
  7
SLDTEXTSTYLE0
 11
0.707106781186546
 21
-0.7071067811865491
 31
0.0
 73
     1
 44
1.0
  0
MTEXT
  5
1E2
330
1D6
100
AcDbEntity
  8
VERMASSUNG
100
AcDbMText
 10
58.0343063093
 20
153.4158288142
 30
0.1
 40
2.0
 41
0.0
 71
     1
 72
     1
  1
min.
  7
SLDTEXTSTYLE0
 11
0.707106781186546
 21
-0.7071067811865491
 31
0.0
 73
     1
 44
1.0
  0
ENDBLK
  5
1D8
330
1D6
100
AcDbEntity
  8
0
100
AcDbBlockEnd
  0
BLOCK
  5
1E4
330
1E3
100
AcDbEntity
  8
0
100
AcDbBlockBegin
  2
SW_CENTERMARKSYMBOL_0
 70
     0
 10
0.0
 20
0.0
 30
0.0
  3
SW_CENTERMARKSYMBOL_0
  1

  0
LINE
  5
1E6
330
1E3
100
AcDbEntity
  8
VERMASSUNG
 62
     0
100
AcDbLine
 10
0.0
 20
0.0
 30
0.0
 11
0.0
 21
2.5
 31
0.0
  0
LINE
  5
1E7
330
1E3
100
AcDbEntity
  8
VERMASSUNG
 62
     0
100
AcDbLine
 10
0.0
 20
0.0
 30
0.0
 11
-2.5
 21
0.0
 31
0.0
  0
LINE
  5
1E8
330
1E3
100
AcDbEntity
  8
VERMASSUNG
 62
     0
100
AcDbLine
 10
0.0
 20
0.0
 30
0.0
 11
0.0
 21
-2.5
 31
0.0
  0
LINE
  5
1E9
330
1E3
100
AcDbEntity
  8
VERMASSUNG
 62
     0
100
AcDbLine
 10
0.0
 20
0.0
 30
0.0
 11
2.5
 21
0.0
 31
0.0
  0
LINE
  5
1EA
330
1E3
100
AcDbEntity
  8
VERMASSUNG
 62
     0
100
AcDbLine
 10
0.0
 20
5.0
 30
0.0
 11
0.0
 21
27.5
 31
0.0
  0
LINE
  5
1EB
330
1E3
100
AcDbEntity
  8
VERMASSUNG
 62
     0
100
AcDbLine
 10
-5.0
 20
0.0
 30
0.0
 11
-27.5
 21
0.0
 31
0.0
  0
LINE
  5
1EC
330
1E3
100
AcDbEntity
  8
VERMASSUNG
 62
     0
100
AcDbLine
 10
0.0
 20
-5.0
 30
0.0
 11
0.0
 21
-27.5
 31
0.0
  0
LINE
  5
1ED
330
1E3
100
AcDbEntity
  8
VERMASSUNG
 62
     0
100
AcDbLine
 10
5.0
 20
0.0
 30
0.0
 11
27.5
 21
0.0
 31
0.0
  0
ENDBLK
  5
1E5
330
1E3
100
AcDbEntity
  8
0
100
AcDbBlockEnd
  0
ENDSEC
  0
SECTION
  2
ENTITIES
  0
MTEXT
  5
49
330
1F
100
AcDbEntity
  8
KOPF_DÜNN
100
AcDbMText
 10
13.8892156294
 20
23.8442973028
 30
0.0
 40
3.0
 41
0.0
 71
     1
 72
     1
  1
PS5.KDB.RHA.060
  7
SLDTEXTSTYLE0
 73
     1
 44
1.0
  0
MTEXT
  5
4A
330
1F
100
AcDbEntity
  8
VERMASSUNG
100
AcDbMText
 10
13.9329988022
 20
28.8834360957
 30
0.0
 40
3.0
 41
0.0
 71
     1
 72
     1
  1
Klemmhalter rechts_Turning tool right 107.5° /55°
  7
SLDTEXTSTYLE0
 73
     1
 44
1.0
  0
MTEXT
  5
4B
330
1F
100
AcDbEntity
  8
VERMASSUNG
100
AcDbMText
 10
98.8601118557
 20
13.8365368179
 30
0.0
 40
2.0
 41
0.0
 71
     1
 72
     1
  1
Datum: 23.05.2012
  7
SLDTEXTSTYLE0
 73
     1
 44
1.0
  0
MTEXT
  5
4C
330
1F
100
AcDbEntity
  8
VERMASSUNG
100
AcDbMText
 10
13.933048693
 20
18.0482802738
 30
0.0
 40
2.0
 41
0.0
 71
     1
 72
     1
  1
PSC ø50 / DC..11 T3..
  7
SLDTEXTSTYLE0
 73
     1
 44
1.0
  0
MTEXT
  5
4D
330
1F
100
AcDbEntity
  8
VERMASSUNG
100
AcDbMText
 10
13.9808475933
 20
13.9090973692
 30
0.0
 40
2.0
 41
0.0
 71
     1
 72
     1
  1
Gewicht: 706g
  7
SLDTEXTSTYLE0
 73
     1
 44
1.0
  0
ARC
  5
4E
330
1F
100
AcDbEntity
  8
0
  6
Continuous
 62
     7
370
    15
100
AcDbCircle
 10
207.7150150095
 20
130.3915798135
 30
0.0
 40
2.500000000000006
100
AcDbArc
 50
92.0182820652
 51
156.2435108243
  0
ARC
  5
4F
330
1F
100
AcDbEntity
  8
0
  6
Continuous
 62
     7
370
    15
100
AcDbCircle
 10
207.7150150095
 20
130.3915798135
 30
0.0
 40
2.500000000000015
100
AcDbArc
 50
23.7564891757
 51
92.0182820652
  0
LINE
  5
50
330
1F
100
AcDbEntity
  8
0
  6
Continuous
 62
     7
370
    15
100
AcDbLine
 10
220.7216522933
 20
144.0694902123
 30
0.0
 11
190.0150150095
 21
144.0694902123
 31
0.0
  0
LINE
  5
51
330
1F
100
AcDbEntity
  8
0
  6
Continuous
 62
     7
370
    15
100
AcDbLine
 10
190.0150150095
 20
94.0694902123
 30
0.0
 11
220.7332716179
 21
94.0694902123
 31
0.0
  0
ARC
  5
52
330
1F
100
AcDbEntity
  8
0
  6
Continuous
 62
     7
370
    15
100
AcDbCircle
 10
190.0150150095
 20
94.3694902123
 30
0.0
 40
0.2999999999999972
100
AcDbArc
 50
180.0
 51
270.0
  0
ARC
  5
53
330
1F
100
AcDbEntity
  8
0
  6
Continuous
 62
     7
370
    15
100
AcDbCircle
 10
190.0150150095
 20
143.7694902123
 30
0.0
 40
0.3000000000000114
100
AcDbArc
 50
90.0
 51
180.0
  0
LWPOLYLINE
  5
54
330
1F
100
AcDbEntity
  8
0
  6
Continuous
 62
     7
370
    15
100
AcDbPolyline
 90
        3
 70
   128
 43
0.0
 10
189.5150150095
 20
101.2296699334
 10
189.640469953
 20
101.1613678184
 10
189.7150150095
 20
101.1086300603
  0
LWPOLYLINE
  5
55
330
1F
100
AcDbEntity
  8
0
  6
Continuous
 62
     7
370
    15
100
AcDbPolyline
 90
        3
 70
   128
 43
0.0
 10
189.7150150095
 20
137.0303503642
 10
189.640469953
 20
136.9776126061
 10
189.5150150095
 20
136.9093104911
  0
ARC
  5
56
330
1F
100
AcDbEntity
  8
0
  6
Continuous
 62
     7
370
    15
100
AcDbCircle
 10
207.7052113746
 20
131.7330264006
 30
0.0
 40
3.040944010254957
100
AcDbArc
 50
8.2066639233
 51
169.008685996
  0
LWPOLYLINE
  5
57
330
1F
100
AcDbEntity
  8
0
  6
Continuous
 62
     7
370
    15
100
AcDbPolyline
 90
       20
 70
   128
 43
0.0
 10
204.9666626139
 20
131.5797106999
 10
204.8857406772
 20
131.8927052281
 10
204.8606394448
 20
132.3937066255
 10
204.9602881214
 20
132.8881368276
 10
205.1803315817
 20
133.3543868619
 10
205.5111528705
 20
133.7720793648
 10
205.9382935101
 20
134.1229591694
 10
206.4430854049
 20
134.3916911446
 10
207.0034667268
 20
134.5665304136
 10
207.594946123
 20
134.6398356614
 10
208.1916731058
 20
134.6084030968
 10
208.7675678424
 20
134.4736064738
 10
209.2974609696
 20
134.2413370516
 10
209.7581936149
 20
133.9217461186
 10
210.1296295509
 20
133.528801332
 10
210.3955352448
 20
133.0796762646
 10
210.5442893418
 20
132.5939998369
 10
210.5693905742
 20
132.0929984395
 10
210.4697418976
 20
131.5985682375
 10
210.4440344928
 20
131.5257853575
  0
LWPOLYLINE
  5
58
330
1F
100
AcDbEntity
  8
0
  6
Continuous
 62
     7
370
    15
100
AcDbPolyline
 90
       29
 70
   128
 43
0.0
 10
207.8199703299
 20
130.1485246226
 10
207.2615270034
 20
130.1814593856
 10
206.7258234591
 20
130.3177860806
 10
206.2397221096
 20
130.550668718
 10
205.8275981065
 20
130.8684295898
 10
205.510117068
 20
131.2551348392
 10
205.3031988192
 20
131.6913934502
 10
205.217219105
 20
132.1553295944
 10
205.2564893073
 20
132.6236795762
 10
205.4190402543
 20
133.0729583719
 10
205.6967209627
 20
133.4806372667
 10
206.0756073622
 20
133.8262735385
 10
206.5367005067
 20
134.0925355414
 10
207.0568792607
 20
134.2660717867
 10
207.6100596892
 20
134.3381804424
 10
208.1685030157
 20
134.3052456795
 10
208.70420656
 20
134.1689189844
 10
209.1903079094
 20
133.9360363471
 10
209.6024319126
 20
133.6182754752
 10
209.919912951
 20
133.2315702258
 10
210.1268311999
 20
132.7953116148
 10
210.2128109141
 20
132.3313754706
 10
210.1735407117
 20
131.8630254888
 10
210.0109897647
 20
131.4137466931
 10
209.7333090564
 20
131.0060677983
 10
209.3544226568
 20
130.6604315265
 10
208.8933295123
 20
130.3941695236
 10
208.3731507584
 20
130.2206332784
 10
207.8199703299
 20
130.1485246226
  0
ELLIPSE
  5
59
330
1F
100
AcDbEntity
  8
0
  6
Continuous
 62
     7
370
    15
100
AcDbEllipse
 10
219.6346302518
 20
119.0694902123
 30
0.0
 11
0.0
 21
25.00000000000002
 31
0.0
210
0.0
220
0.0
230
1.0
 40
0.2679491924
 41
0.077017833721855
 42
3.064574819867939
  0
ELLIPSE
  5
5A
330
1F
100
AcDbEntity
  8
0
  6
Continuous
 62
     7
370
    15
100
AcDbEllipse
 10
217.1923773306
 20
133.0864826599
 30
0.0
 11
0.206987687708903
 21
3.097652266562762
 31
0.0
210
0.0
220
0.0
230
1.0
 40
0.2251679941
 41
0.0
 42
6.283185307179586
  0
SPLINE
  5
5B
330
1F
100
AcDbEntity
  8
0
  6
Continuous
 62
     7
370
    15
100
AcDbSpline
210
0.0
220
0.0
230
1.0
 70
     8
 71
     3
 72
    70
 73
    66
 74
     0
 42
0.00000001
 43
0.00000001
 12
1.0
 22
0.0
 32
0.0
 13
1.0
 23
0.0
 33
0.0
 40
-0.0312500000000002
 40
-0.0312500000000002
 40
0.0
 40
0.0
 40
0.03125
 40
0.03125
 40
0.0625
 40
0.0625
 40
0.09375
 40
0.09375
 40
0.1249999999999999
 40
0.1249999999999999
 40
0.1562499999999999
 40
0.1562499999999999
 40
0.1874999999999999
 40
0.1874999999999999
 40
0.2187499999999999
 40
0.2187499999999999
 40
0.2499999999999999
 40
0.2499999999999999
 40
0.2812499999999999
 40
0.2812499999999999
 40
0.3124999999999999
 40
0.3124999999999999
 40
0.3437499999999998
 40
0.3437499999999998
 40
0.3749999999999998
 40
0.3749999999999998
 40
0.4062499999999998
 40
0.4062499999999998
 40
0.4374999999999998
 40
0.4374999999999998
 40
0.4687499999999998
 40
0.4687499999999998
 40
0.4999999999999998
 40
0.4999999999999998
 40
0.5312499999999998
 40
0.5312499999999998
 40
0.5624999999999998
 40
0.5624999999999998
 40
0.5937499999999998
 40
0.5937499999999998
 40
0.6249999999999998
 40
0.6249999999999998
 40
0.6562499999999997
 40
0.6562499999999997
 40
0.6874999999999997
 40
0.6874999999999997
 40
0.7187499999999997
 40
0.7187499999999997
 40
0.7499999999999997
 40
0.7499999999999997
 40
0.7812499999999997
 40
0.7812499999999997
 40
0.8124999999999997
 40
0.8124999999999997
 40
0.8437499999999997
 40
0.8437499999999997
 40
0.8749999999999996
 40
0.8749999999999996
 40
0.9062499999999996
 40
0.9062499999999996
 40
0.9374999999999997
 40
0.9374999999999997
 40
0.9687499999999998
 40
0.9687499999999998
 40
1.0
 40
1.0
 40
1.03125
 40
1.03125
 10
207.5166290955873
 20
135.1030872749127
 30
0.0
 10
207.9134009234664
 20
135.1030872749127
 30
0.0
 10
208.1084356126076
 20
135.0880409614369
 30
0.0
 10
208.4920877922929
 20
135.0289678891862
 30
0.0
 10
208.6827069211643
 20
134.9842117178903
 30
0.0
 10
209.0459212827456
 20
134.8670248976412
 30
0.0
 10
209.2181609242567
 20
134.7951540329023
 30
0.0
 10
209.5441309857339
 20
134.6244695308054
 30
0.0
 10
209.6983302076362
 20
134.5248124661181
 30
0.0
 10
209.9747834518785
 20
134.3057344714884
 30
0.0
 10
210.0989020065076
 20
134.1855447217571
 30
0.0
 10
210.3182194095129
 20
133.9225153644897
 30
0.0
 10
210.4113086350943
 20
133.7817479581651
 30
0.0
 10
210.5609855823753
 20
133.4881157986822
 30
0.0
 10
210.6186727428246
 20
133.3330743878506
 30
0.0
 10
210.695806633821
 20
133.0131819285235
 30
0.0
 10
210.7149061835104
 20
132.8510982503755
 30
0.0
 10
210.7151229169978
 20
132.5226182696785
 30
0.0
 10
210.695610102372
 20
132.3544758420469
 30
0.0
 10
210.6190090592928
 20
132.0267693933832
 30
0.0
 10
210.5623338942798
 20
131.866263676053
 30
0.0
 10
210.4119846813355
 20
131.5523777097894
 30
0.0
 10
210.3181287772942
 20
131.3997483560523
 30
0.0
 10
210.1010987099529
 20
131.1154528066066
 30
0.0
 10
209.9770808630254
 20
130.9819337592834
 30
0.0
 10
209.6972656407032
 20
130.734092152427
 30
0.0
 10
209.5459372845456
 20
130.6237031940451
 30
0.0
 10
209.2212716148094
 20
130.4296085065983
 30
0.0
 10
209.0458499965428
 20
130.3452167293663
 30
0.0
 10
208.6826686089037
 20
130.2097485129759
 30
0.0
 10
208.4956808908247
 20
130.1584583463954
 30
0.0
 10
208.1109566890406
 20
130.0889667398572
 30
0.0
 10
207.9120008225218
 20
130.0711302726033
 30
0.0
 10
207.5202717729392
 20
130.0709978409503
 30
0.0
 10
207.3254831077653
 20
130.0881265108599
 30
0.0
 10
206.9381085300614
 20
130.1574699757335
 30
0.0
 10
206.748784842219
 20
130.2093847857078
 30
0.0
 10
206.3876444432268
 20
130.3437595149622
 30
0.0
 10
206.2130575591019
 20
130.4272633140561
 30
0.0
 10
205.885148379915
 20
130.6228507747328
 30
0.0
 10
205.7341367075938
 20
130.7332024812885
 30
0.0
 10
205.4573176429613
 20
130.9777452920319
 30
0.0
 10
205.3305711637211
 20
131.1135242162946
 30
0.0
 10
205.1126902136315
 20
131.3984977733077
 30
0.0
 10
205.0203921891771
 20
131.5482558510165
 30
0.0
 10
204.8694203688256
 20
131.861906992517
 30
0.0
 10
204.8115010947311
 20
132.0253775036087
 30
0.0
 10
204.7348585202156
 20
132.3519451880753
 30
0.0
 10
204.7151978687646
 20
132.5167800784774
 30
0.0
 10
204.7148346644424
 20
132.8495453606055
 30
0.0
 10
204.7341429620595
 20
133.0118865393279
 30
0.0
 10
204.8101103031268
 20
133.3288481373593
 30
0.0
 10
204.8677066972682
 20
133.4851088015471
 30
0.0
 10
205.01802276278
 20
133.7807549350028
 30
0.0
 10
205.1100296648868
 20
133.9198964037303
 30
0.0
 10
205.3274603315127
 20
134.1816171555832
 30
0.0
 10
205.4539135563498
 20
134.3045250994882
 30
0.0
 10
205.7301705011609
 20
134.523751987953
 30
0.0
 10
205.8809740634738
 20
134.6215777558125
 30
0.0
 10
206.2086811334175
 20
134.7937900645548
 30
0.0
 10
206.3829035158724
 20
134.8664891490906
 30
0.0
 10
206.7436702927961
 20
134.9831781174285
 30
0.0
 10
206.9326446707392
 20
135.0279803615265
 30
0.0
 10
207.3204882928453
 20
135.0880396666876
 30
0.0
 10
207.5166290955873
 20
135.1030872749127
 30
0.0
 10
207.9134009234664
 20
135.1030872749127
 30
0.0
  0
SPLINE
  5
5C
330
1F
100
AcDbEntity
  8
0
  6
Continuous
 62
     7
370
    15
100
AcDbSpline
210
0.0
220
0.0
230
1.0
 70
     8
 71
     3
 72
    12
 73
     8
 74
     0
 42
0.00000001
 43
0.00000001
 12
1.0
 22
0.0
 32
0.0
 13
1.0
 23
0.0
 33
0.0
 40
0.0
 40
0.0
 40
0.0
 40
0.0
 40
0.4999999999999987
 40
0.4999999999999987
 40
0.7499999999999993
 40
0.7499999999999993
 40
1.0
 40
1.0
 40
1.0
 40
1.0
 10
197.8097591212011
 20
127.1659432103128
 30
0.0
 10
197.8404585045684
 20
127.051607543249
 30
0.0
 10
197.8818085726749
 20
126.9402541904076
 30
0.0
 10
197.9815645008944
 20
126.7875174181589
 30
0.0
 10
198.0212614186271
 20
126.7396575323067
 30
0.0
 10
198.1185195702747
 20
126.6650544189573
 30
0.0
 10
198.1792957282654
 20
126.6383001814492
 30
0.0
 10
198.2427718230933
 20
126.6383001814492
 30
0.0
  0
LINE
  5
5D
330
1F
100
AcDbEntity
  8
0
  6
Continuous
 62
     7
370
    15
100
AcDbLine
 10
198.2427718231
 20
126.6383001814
 30
0.0
 11
201.187258196
 21
126.6383001814
 31
0.0
  0
SPLINE
  5
5E
330
1F
100
AcDbEntity
  8
0
  6
Continuous
 62
     7
370
    15
100
AcDbSpline
210
0.0
220
0.0
230
1.0
 70
     8
 71
     3
 72
    12
 73
     8
 74
     0
 42
0.00000001
 43
0.00000001
 12
1.0
 22
0.0
 32
0.0
 13
1.0
 23
0.0
 33
0.0
 40
0.0
 40
0.0
 40
0.0
 40
0.0
 40
0.2500000000000009
 40
0.2500000000000009
 40
0.5000000000000019
 40
0.5000000000000019
 40
1.0
 40
1.0
 40
1.0
 40
1.0
 10
201.1872581959604
 20
126.6383001814492
 30
0.0
 10
201.2509234324909
 20
126.6383001814492
 30
0.0
 10
201.3105296647143
 20
126.6643723299289
 30
0.0
 10
201.4091901896452
 20
126.73991108075
 30
0.0
 10
201.4481571796604
 20
126.7871620178462
 30
0.0
 10
201.5475440115849
 20
126.9389858358126
 30
0.0
 10
201.5896202590083
 20
127.0517890855777
 30
0.0
 10
201.6202708978526
 20
127.1659432103128
 30
0.0
  0
ELLIPSE
  5
5F
330
1F
100
AcDbEntity
  8
0
  6
Continuous
 62
     7
370
    15
100
AcDbEllipse
 10
188.6587573545
 20
119.0694902123
 30
0.0
 11
11.70927234972706
 21
24.67718644093745
 31
0.0
210
0.0
220
0.0
230
1.0
 40
0.3419987131
 41
5.203068809370452
 42
6.114256032590495
  0
SPLINE
  5
60
330
1F
100
AcDbEntity
  8
0
  6
Continuous
 62
     7
370
    15
100
AcDbSpline
210
0.0
220
0.0
230
1.0
 70
     8
 71
     3
 72
    12
 73
     8
 74
     0
 42
0.00000001
 43
0.00000001
 12
1.0
 22
0.0
 32
0.0
 13
1.0
 23
0.0
 33
0.0
 40
0.0
 40
0.0
 40
0.0
 40
0.0
 40
0.4999999999999963
 40
0.4999999999999963
 40
0.7499999999999981
 40
0.7499999999999981
 40
1.0
 40
1.0
 40
1.0
 40
1.0
 10
201.6202708978526
 20
142.7221316895003
 30
0.0
 10
201.5895715144853
 20
142.7612695318962
 30
0.0
 10
201.5482214463788
 20
142.7984293146217
 30
0.0
 10
201.4484655181594
 20
142.8483658202494
 30
0.0
 10
201.4087686004267
 20
142.8638186903932
 30
0.0
 10
201.311510448779
 20
142.8877382339922
 30
0.0
 10
201.2507342907884
 20
142.8962213277706
 30
0.0
 10
201.1872581959604
 20
142.8962213277706
 30
0.0
  0
LINE
  5
61
330
1F
100
AcDbEntity
  8
0
  6
Continuous
 62
     7
370
    15
100
AcDbLine
 10
201.187258196
 20
142.8962213278
 30
0.0
 11
198.2427718231
 21
142.8962213278
 31
0.0
  0
SPLINE
  5
62
330
1F
100
AcDbEntity
  8
0
  6
Continuous
 62
     7
370
    15
100
AcDbSpline
210
0.0
220
0.0
230
1.0
 70
     8
 71
     3
 72
    12
 73
     8
 74
     0
 42
0.00000001
 43
0.00000001
 12
1.0
 22
0.0
 32
0.0
 13
1.0
 23
0.0
 33
0.0
 40
0.0
 40
0.0
 40
0.0
 40
0.0
 40
0.2499999999999993
 40
0.2499999999999993
 40
0.4999999999999987
 40
0.4999999999999987
 40
1.0
 40
1.0
 40
1.0
 40
1.0
 10
198.2427718230933
 20
142.8962213277706
 30
0.0
 10
198.1791065865628
 20
142.8962213277706
 30
0.0
 10
198.1195003543394
 20
142.8879565521048
 30
0.0
 10
198.0208398294086
 20
142.8637377705216
 30
0.0
 10
197.9818728393934
 20
142.8484804512125
 30
0.0
 10
197.8824860074689
 20
142.7988470969505
 30
0.0
 10
197.8404097600454
 20
142.7612073887764
 30
0.0
 10
197.8097591212011
 20
142.7221316895003
 30
0.0
  0
ELLIPSE
  5
63
330
1F
100
AcDbEntity
  8
0
  6
Continuous
 62
     7
370
    15
100
AcDbEllipse
 10
210.7712726645
 20
119.0694902123
 30
0.0
 11
-11.70927234972697
 21
24.67718644093745
 31
0.0
210
0.0
220
0.0
230
1.0
 40
0.3419987131
 41
0.1689292745891373
 42
1.08011649780915
  0
SPLINE
  5
64
330
1F
100
AcDbEntity
  8
0
  6
Continuous
 62
     7
370
    15
100
AcDbSpline
210
0.0
220
0.0
230
1.0
 70
     8
 71
     3
 72
    12
 73
     8
 74
     0
 42
0.00000001
 43
0.00000001
 12
1.0
 22
0.0
 32
0.0
 13
1.0
 23
0.0
 33
0.0
 40
0.0
 40
0.0
 40
0.0
 40
0.0
 40
0.5000000000000014
 40
0.5000000000000014
 40
0.7500000000000007
 40
0.7500000000000007
 40
1.0
 40
1.0
 40
1.0
 40
1.0
 10
197.8097591212011
 20
95.41684873503708
 30
0.0
 10
197.8406108317653
 20
95.3775166946746
 30
0.0
 10
197.8825036952259
 20
95.34010492914632
 30
0.0
 10
197.9820245730191
 20
95.29043400453041
 30
0.0
 10
198.0216387377434
 20
95.27504492192259
 30
0.0
 10
198.1187417715229
 20
95.25121170625532
 30
0.0
 10
198.1792404441733
 20
95.24275909676653
 30
0.0
 10
198.2427718230932
 20
95.24275909676653
 30
0.0
  0
LINE
  5
65
330
1F
100
AcDbEntity
  8
0
  6
Continuous
 62
     7
370
    15
100
AcDbLine
 10
198.2427718231
 20
95.2427590968
 30
0.0
 11
201.187258196
 21
95.2427590968
 31
0.0
  0
SPLINE
  5
66
330
1F
100
AcDbEntity
  8
0
  6
Continuous
 62
     7
370
    15
100
AcDbSpline
210
0.0
220
0.0
230
1.0
 70
     8
 71
     3
 72
    12
 73
     8
 74
     0
 42
0.00000001
 43
0.00000001
 12
1.0
 22
0.0
 32
0.0
 13
1.0
 23
0.0
 33
0.0
 40
0.0
 40
0.0
 40
0.0
 40
0.0
 40
0.2499999999999977
 40
0.2499999999999977
 40
0.4999999999999954
 40
0.4999999999999954
 40
1.0
 40
1.0
 40
1.0
 40
1.0
 10
201.1872581959604
 20
95.24275909676675
 30
0.0
 10
201.2508947501741
 20
95.24275909676675
 30
0.0
 10
201.3104748770403
 20
95.25101586769848
 30
0.0
 10
201.4091116184067
 20
95.27521792970632
 30
0.0
 10
201.448070242787
 20
95.29046474874046
 30
0.0
 10
201.5474491822949
 20
95.34006962080058
 30
0.0
 10
201.5894070874604
 20
95.37750126891939
 30
0.0
 10
201.6202708978528
 20
95.41684873503706
 30
0.0
  0
ELLIPSE
  5
67
330
1F
100
AcDbEntity
  8
0
  6
Continuous
 62
     7
370
    15
100
AcDbEllipse
 10
188.6587573545
 20
119.0694902123
 30
0.0
 11
-11.7092723497272
 21
24.67718644093745
 31
0.0
210
0.0
220
0.0
230
1.0
 40
0.3419987131
 41
3.310521928178952
 42
4.221709151398942
  0
SPLINE
  5
68
330
1F
100
AcDbEntity
  8
0
  6
Continuous
 62
     7
370
    15
100
AcDbSpline
210
0.0
220
0.0
230
1.0
 70
     8
 71
     3
 72
    12
 73
     8
 74
     0
 42
0.00000001
 43
0.00000001
 12
1.0
 22
0.0
 32
0.0
 13
1.0
 23
0.0
 33
0.0
 40
0.0
 40
0.0
 40
0.0
 40
0.0
 40
0.4999999999999949
 40
0.4999999999999949
 40
0.7499999999999974
 40
0.7499999999999974
 40
1.0
 40
1.0
 40
1.0
 40
1.0
 10
201.6202708978526
 20
110.9730372142244
 30
0.0
 10
201.5894191872884
 20
111.0879402031612
 30
0.0
 10
201.5475263238278
 20
111.20007909921
 30
0.0
 10
201.4480054460346
 20
111.3520213808109
 30
0.0
 10
201.4083912813103
 20
111.3996859903358
 30
0.0
 10
201.3112882475309
 20
111.4740223209512
 30
0.0
 10
201.2507895748804
 20
111.5006802430883
 30
0.0
 10
201.1872581959605
 20
111.5006802430884
 30
0.0
  0
LINE
  5
69
330
1F
100
AcDbEntity
  8
0
  6
Continuous
 62
     7
370
    15
100
AcDbLine
 10
201.187258196
 20
111.5006802431
 30
0.0
 11
198.2427718231
 21
111.5006802431
 31
0.0
  0
SPLINE
  5
6A
330
1F
100
AcDbEntity
  8
0
  6
Continuous
 62
     7
370
    15
100
AcDbSpline
210
0.0
220
0.0
230
1.0
 70
     8
 71
     3
 72
    12
 73
     8
 74
     0
 42
0.00000001
 43
0.00000001
 12
1.0
 22
0.0
 32
0.0
 13
1.0
 23
0.0
 33
0.0
 40
0.0
 40
0.0
 40
0.0
 40
0.0
 40
0.2499999999999991
 40
0.2499999999999991
 40
0.4999999999999982
 40
0.4999999999999982
 40
1.0
 40
1.0
 40
1.0
 40
1.0
 10
198.2427718230933
 20
111.500680243088
 30
0.0
 10
198.1791352688796
 20
111.500680243088
 30
0.0
 10
198.1195551420134
 20
111.47463334003
 30
0.0
 10
198.020918400647
 20
111.3991461811301
 30
0.0
 10
197.9819597762667
 20
111.3519271425994
 30
0.0
 10
197.8825808367588
 20
111.2001874915058
 30
0.0
 10
197.8406229315934
 20
111.0879852673217
 30
0.0
 10
197.8097591212009
 20
110.9730372142244
 30
0.0
  0
ELLIPSE
  5
6B
330
1F
100
AcDbEntity
  8
0
  6
Continuous
 62
     7
370
    15
100
AcDbEllipse
 10
210.7712726645
 20
119.0694902123
 30
0.0
 11
11.70927234972706
 21
24.67718644093745
 31
0.0
210
0.0
220
0.0
230
1.0
 40
0.3419987131
 41
2.061476155780652
 42
2.972663379000666
  0
SPLINE
  5
6C
330
1F
100
AcDbEntity
  8
0
  6
Continuous
 62
     7
370
    15
100
AcDbSpline
210
0.0
220
0.0
230
1.0
 70
     8
 71
     3
 72
    18
 73
    14
 74
     0
 42
0.00000001
 43
0.00000001
 12
1.0
 22
0.0
 32
0.0
 13
1.0
 23
0.0
 33
0.0
 40
0.0
 40
0.0
 40
0.0
 40
0.0
 40
0.2500000000000002
 40
0.2500000000000002
 40
0.5000000000000003
 40
0.5000000000000003
 40
0.6250000000000016
 40
0.6250000000000016
 40
0.7500000000000028
 40
0.7500000000000028
 40
0.8750000000000013
 40
0.8750000000000013
 40
1.0
 40
1.0
 40
1.0
 40
1.0
 10
219.1192184945965
 20
143.995380022819
 30
0.0
 10
219.2029688515436
 20
144.0195004731625
 30
0.0
 10
219.3338806150693
 20
144.0361039878626
 30
0.0
 10
219.6898579817535
 20
144.0588038374525
 30
0.0
 10
219.907407426858
 20
144.0643978609969
 30
0.0
 10
220.2880647805102
 20
144.0685089097946
 30
0.0
 10
220.4232313448171
 20
144.0691403232791
 30
0.0
 10
220.7032427116526
 20
144.0696104591358
 30
0.0
 10
220.8490080315186
 20
144.0694573859394
 30
0.0
 10
221.1523019273397
 20
144.0689218389424
 30
0.0
 10
221.3094479203068
 20
144.0685413318389
 30
0.0
 10
221.6254314271792
 20
144.0679543048834
 30
0.0
 10
221.7854943192817
 20
144.0677446042228
 30
0.0
 10
221.9476880215479
 20
144.0676997437973
 30
0.0
  0
SPLINE
  5
6D
330
1F
100
AcDbEntity
  8
0
  6
Continuous
 62
     7
370
    15
100
AcDbSpline
210
0.0
220
0.0
230
1.0
 70
     8
 71
     3
 72
    18
 73
    14
 74
     0
 42
0.00000001
 43
0.00000001
 12
1.0
 22
0.0
 32
0.0
 13
1.0
 23
0.0
 33
0.0
 40
0.0
 40
0.0
 40
0.0
 40
0.0
 40
0.2499999999999982
 40
0.2499999999999982
 40
0.4999999999999989
 40
0.4999999999999989
 40
0.6249999999999992
 40
0.6249999999999992
 40
0.7499999999999996
 40
0.7499999999999996
 40
0.8749999999999998
 40
0.8749999999999998
 40
1.0
 40
1.0
 40
1.0
 40
1.0
 10
221.9476880215479
 20
94.07128068074022
 30
0.0
 10
221.6232944590069
 20
94.07119095818601
 30
0.0
 10
221.3088203224066
 20
94.07033841778563
 30
0.0
 10
220.6995529798302
 20
94.06925571860639
 30
0.0
 10
220.4181749808421
 20
94.06909299358396
 30
0.0
 10
220.0372679403669
 20
94.07316700094385
 30
0.0
 10
219.9181684329319
 20
94.07527352456712
 30
0.0
 10
219.7014081215112
 20
94.08156943842852
 30
0.0
 10
219.6027463512131
 20
94.08576496866908
 30
0.0
 10
219.4252311713964
 20
94.09701853950803
 30
0.0
 10
219.3467693232472
 20
94.1040996830698
 30
0.0
 10
219.2150956742759
 20
94.12134099780425
 30
0.0
 10
219.1610946411261
 20
94.13153989774257
 30
0.0
 10
219.1192184945965
 20
94.14360040171852
 30
0.0
  0
LINE
  5
6E
330
1F
100
AcDbEntity
  8
0
  6
Continuous
 62
     7
370
    15
100
AcDbLine
 10
189.7150150095
 20
94.3694902123
 30
0.0
 11
189.7150150095
 21
143.7694902113
 31
0.0
  0
SPLINE
  5
6F
330
1F
100
AcDbEntity
  8
0
  6
Continuous
 62
     7
370
    15
100
AcDbSpline
210
0.0
220
0.0
230
1.0
 70
     8
 71
     3
 72
    16
 73
    12
 74
     0
 42
0.00000001
 43
0.00000001
 12
1.0
 22
0.0
 32
0.0
 13
1.0
 23
0.0
 33
0.0
 40
0.0
 40
0.0
 40
0.0
 40
0.0
 40
0.2499999999999999
 40
0.2499999999999999
 40
0.4999999999999998
 40
0.4999999999999998
 40
0.6249999999999998
 40
0.6249999999999998
 40
0.7499999999999999
 40
0.7499999999999999
 40
1.0
 40
1.0
 40
1.0
 40
1.0
 10
188.6741539813978
 20
101.7203329310762
 30
0.0
 10
188.7058819425905
 20
101.7195358142552
 30
0.0
 10
188.740509532941
 20
101.7189447394
 30
0.0
 10
188.8202032950047
 20
101.7179332139655
 30
0.0
 10
188.8652447550084
 20
101.7175331057906
 30
0.0
 10
188.9480974818588
 20
101.7165752338868
 30
0.0
 10
188.9780119430586
 20
101.7161935526264
 30
0.0
 10
189.0439982736166
 20
101.7151173385678
 30
0.0
 10
189.0807318990784
 20
101.7143997726737
 30
0.0
 10
189.1932286186482
 20
101.711638894992
 30
0.0
 10
189.2635699667465
 20
101.7091518031204
 30
0.0
 10
189.3200381206516
 20
101.7069785247133
 30
0.0
  0
SPLINE
  5
70
330
1F
100
AcDbEntity
  8
0
  6
Continuous
 62
     7
370
    15
100
AcDbSpline
210
0.0
220
0.0
230
1.0
 70
     8
 71
     3
 72
    14
 73
    10
 74
     0
 42
0.00000001
 43
0.00000001
 12
1.0
 22
0.0
 32
0.0
 13
1.0
 23
0.0
 33
0.0
 40
0.0
 40
0.0
 40
0.0
 40
0.0
 40
0.1250000000000004
 40
0.1250000000000004
 40
0.2500000000000007
 40
0.2500000000000007
 40
0.5000000000000014
 40
0.5000000000000014
 40
1.0
 40
1.0
 40
1.0
 40
1.0
 10
189.32003812062
 20
101.706978524736
 30
0.0
 10
189.3326299145648
 20
101.7064939069137
 30
0.0
 10
189.3475010228588
 20
101.7047837289814
 30
0.0
 10
189.379685114292
 20
101.6966681802305
 30
0.0
 10
189.3952892457678
 20
101.6904523919692
 30
0.0
 10
189.4311763854799
 20
101.6722332802676
 30
0.0
 10
189.4450284267486
 20
101.660468251934
 30
0.0
 10
189.4785181686812
 20
101.6286731155167
 30
0.0
 10
189.4891804292569
 20
101.6108796836736
 30
0.0
 10
189.4973183861519
 20
101.5944485528292
 30
0.0
  0
LINE
  5
71
330
1F
100
AcDbEntity
  8
0
  6
Continuous
 62
     7
370
    15
100
AcDbLine
 10
189.5150150095
 20
113.0850099797
 30
0.0
 11
189.5150150095
 21
101.2296699334
 31
0.0
  0
SPLINE
  5
72
330
1F
100
AcDbEntity
  8
0
  6
Continuous
 62
     7
370
    15
100
AcDbSpline
210
0.0
220
0.0
230
1.0
 70
     8
 71
     3
 72
    16
 73
    12
 74
     0
 42
0.00000001
 43
0.00000001
 12
1.0
 22
0.0
 32
0.0
 13
1.0
 23
0.0
 33
0.0
 40
0.0
 40
0.0
 40
0.0
 40
0.0
 40
0.499999999999998
 40
0.499999999999998
 40
0.7499999999999972
 40
0.7499999999999972
 40
0.8749999999999978
 40
0.8749999999999978
 40
0.9374999999999989
 40
0.9374999999999989
 40
1.0
 40
1.0
 40
1.0
 40
1.0
 10
189.5150150095268
 20
113.0850099796942
 30
0.0
 10
189.5150150095268
 20
113.1995397103931
 30
0.0
 10
189.5109577074118
 20
113.3148557855826
 30
0.0
 10
189.485300464617
 20
113.4897788754102
 30
0.0
 10
189.4739850188749
 20
113.5496081784051
 30
0.0
 10
189.4399536515662
 20
113.6341993646533
 30
0.0
 10
189.4260746703625
 20
113.6628689507973
 30
0.0
 10
189.3901389885951
 20
113.6926767377436
 30
0.0
 10
189.3751886693323
 20
113.6990118911032
 30
0.0
 10
189.3452901565905
 20
113.697786428233
 30
0.0
 10
189.3317572962252
 20
113.6911878421982
 30
0.0
 10
189.3200381206512
 20
113.6825401541417
 30
0.0
  0
SPLINE
  5
73
330
1F
100
AcDbEntity
  8
0
  6
Continuous
 62
     7
370
    15
100
AcDbSpline
210
0.0
220
0.0
230
1.0
 70
     8
 71
     3
 72
    14
 73
    10
 74
     0
 42
0.00000001
 43
0.00000001
 12
1.0
 22
0.0
 32
0.0
 13
1.0
 23
0.0
 33
0.0
 40
0.0
 40
0.0
 40
0.0
 40
0.0
 40
0.25
 40
0.25
 40
0.5
 40
0.5
 40
0.75
 40
0.75
 40
1.0
 40
1.0
 40
1.0
 40
1.0
 10
189.3200381206581
 20
113.6825401541331
 30
0.0
 10
189.2635784547743
 20
113.6408780444343
 30
0.0
 10
189.1927059799121
 20
113.610044563846
 30
0.0
 10
189.0442396220301
 20
113.6157590724592
 30
0.0
 10
188.9750444188224
 20
113.6513299998921
 30
0.0
 10
188.8653272327528
 20
113.738273912366
 30
0.0
 10
188.8200813438208
 20
113.7907062257311
 30
0.0
 10
188.740464212854
 20
113.8992593072497
 30
0.0
 10
188.7058615933971
 20
113.9562423934921
 30
0.0
 10
188.6741539813983
 20
114.01480847615
 30
0.0
  0
SPLINE
  5
74
330
1F
100
AcDbEntity
  8
0
  6
Continuous
 62
     7
370
    15
100
AcDbSpline
210
0.0
220
0.0
230
1.0
 70
     8
 71
     3
 72
    10
 73
     6
 74
     0
 42
0.00000001
 43
0.00000001
 12
1.0
 22
0.0
 32
0.0
 13
1.0
 23
0.0
 33
0.0
 40
0.0
 40
0.0
 40
0.0
 40
0.0
 40
0.5
 40
0.5
 40
1.0
 40
1.0
 40
1.0
 40
1.0
 10
188.3936946659673
 20
114.8676270677963
 30
0.0
 10
188.4245732495792
 20
114.7179985159366
 30
0.0
 10
188.4605659573026
 20
114.571503098413
 30
0.0
 10
188.5499062087997
 20
114.2863114598723
 30
0.0
 10
188.6023645116452
 20
114.1474084341563
 30
0.0
 10
188.6741539813984
 20
114.0148084761499
 30
0.0
  0
SPLINE
  5
75
330
1F
100
AcDbEntity
  8
0
  6
Continuous
 62
     7
370
    15
100
AcDbSpline
210
0.0
220
0.0
230
1.0
 70
     8
 71
     3
 72
    10
 73
     6
 74
     0
 42
0.00000001
 43
0.00000001
 12
1.0
 22
0.0
 32
0.0
 13
1.0
 23
0.0
 33
0.0
 40
0.0
 40
0.0
 40
0.0
 40
0.0
 40
0.5
 40
0.5
 40
1.0
 40
1.0
 40
1.0
 40
1.0
 10
188.6741539813977
 20
124.1241719483863
 30
0.0
 10
188.6023645116448
 20
123.99157199038
 30
0.0
 10
188.5499062087993
 20
123.8526689646643
 30
0.0
 10
188.4605659573025
 20
123.567477326124
 30
0.0
 10
188.4245732495792
 20
123.4209819086006
 30
0.0
 10
188.3936946659673
 20
123.2713533567412
 30
0.0
  0
SPLINE
  5
76
330
1F
100
AcDbEntity
  8
0
  6
Continuous
 62
     7
370
    15
100
AcDbSpline
210
0.0
220
0.0
230
1.0
 70
     8
 71
     3
 72
    14
 73
    10
 74
     0
 42
0.00000001
 43
0.00000001
 12
1.0
 22
0.0
 32
0.0
 13
1.0
 23
0.0
 33
0.0
 40
0.0
 40
0.0
 40
0.0
 40
0.0
 40
0.25
 40
0.25
 40
0.5
 40
0.5
 40
0.75
 40
0.75
 40
1.0
 40
1.0
 40
1.0
 40
1.0
 10
188.674153981397
 20
124.1241719483851
 30
0.0
 10
188.7058626808824
 20
124.1827400397037
 30
0.0
 10
188.740470499523
 20
124.2397343016437
 30
0.0
 10
188.8201289100123
 20
124.3483344364077
 30
0.0
 10
188.8651911799072
 20
124.4006625717863
 30
0.0
 10
188.9757730254856
 20
124.4881635831485
 30
0.0
 10
189.0434171463009
 20
124.5232090394028
 30
0.0
 10
189.193665436698
 20
124.5289534281588
 30
0.0
 10
189.2636178349283
 20
124.4980733211088
 30
0.0
 10
189.3200381206518
 20
124.4564402703957
 30
0.0
  0
SPLINE
  5
77
330
1F
100
AcDbEntity
  8
0
  6
Continuous
 62
     7
370
    15
100
AcDbSpline
210
0.0
220
0.0
230
1.0
 70
     8
 71
     3
 72
    16
 73
    12
 74
     0
 42
0.00000001
 43
0.00000001
 12
1.0
 22
0.0
 32
0.0
 13
1.0
 23
0.0
 33
0.0
 40
0.0
 40
0.0
 40
0.0
 40
0.0
 40
0.0624999999999996
 40
0.0624999999999996
 40
0.1249999999999991
 40
0.1249999999999991
 40
0.2499999999999983
 40
0.2499999999999983
 40
0.4999999999999966
 40
0.4999999999999966
 40
1.0
 40
1.0
 40
1.0
 40
1.0
 10
189.32003812062
 20
124.4564402703423
 30
0.0
 10
189.3317723550669
 20
124.4477814701981
 30
0.0
 10
189.3453041105458
 20
124.4411773849628
 30
0.0
 10
189.3752915709757
 20
124.4399804177886
 30
0.0
 10
189.390286277384
 20
124.4464021648546
 30
0.0
 10
189.4260266997787
 20
124.4761193182639
 30
0.0
 10
189.44004003678
 20
124.5049267156472
 30
0.0
 10
189.4741841255613
 20
124.5900064372731
 30
0.0
 10
189.4851560296797
 20
124.6483813865429
 30
0.0
 10
189.511001569946
 20
124.8240969113315
 30
0.0
 10
189.5150150095269
 20
124.9398919191959
 30
0.0
 10
189.5150150095269
 20
125.0539704448433
 30
0.0
  0
LINE
  5
78
330
1F
100
AcDbEntity
  8
0
  6
Continuous
 62
     7
370
    15
100
AcDbLine
 10
189.5150150095
 20
136.9093104911
 30
0.0
 11
189.5150150095
 21
125.0539704448
 31
0.0
  0
SPLINE
  5
79
330
1F
100
AcDbEntity
  8
0
  6
Continuous
 62
     7
370
    15
100
AcDbSpline
210
0.0
220
0.0
230
1.0
 70
     8
 71
     3
 72
    16
 73
    12
 74
     0
 42
0.00000001
 43
0.00000001
 12
1.0
 22
0.0
 32
0.0
 13
1.0
 23
0.0
 33
0.0
 40
0.0
 40
0.0
 40
0.0
 40
0.0
 40
0.500000000000002
 40
0.500000000000002
 40
0.7500000000000011
 40
0.7500000000000011
 40
0.8750000000000006
 40
0.8750000000000006
 40
0.9375000000000003
 40
0.9375000000000003
 40
1.0
 40
1.0
 40
1.0
 40
1.0
 10
189.515015009527
 20
136.6162446779363
 30
0.0
 10
189.5150150095267
 20
136.594229663357
 30
0.0
 10
189.5108904666728
 20
136.5688760286532
 30
0.0
 10
189.4849740210396
 20
136.5217155264647
 30
0.0
 10
189.4736964400199
 20
136.5045165382359
 30
0.0
 10
189.4399610614785
 20
136.4745385726667
 30
0.0
 10
189.4255722462341
 20
136.4631871641248
 30
0.0
 10
189.3903255567951
 20
136.4464993046474
 30
0.0
 10
189.3751201323381
 20
136.4409362777621
 30
0.0
 10
189.3454735531688
 20
136.433966694727
 30
0.0
 10
189.3317682171713
 20
136.4324533536716
 30
0.0
 10
189.3200381206476
 20
136.4320018998217
 30
0.0
  0
SPLINE
  5
7A
330
1F
100
AcDbEntity
  8
0
  6
Continuous
 62
     7
370
    15
100
AcDbSpline
210
0.0
220
0.0
230
1.0
 70
     8
 71
     3
 72
    14
 73
    10
 74
     0
 42
0.00000001
 43
0.00000001
 12
1.0
 22
0.0
 32
0.0
 13
1.0
 23
0.0
 33
0.0
 40
0.0
 40
0.0
 40
0.0
 40
0.0
 40
0.25
 40
0.25
 40
0.5
 40
0.5
 40
0.75
 40
0.75
 40
1.0
 40
1.0
 40
1.0
 40
1.0
 10
189.3200381206581
 20
136.4320018998242
 30
0.0
 10
189.2635910385998
 20
136.429829432405
 30
0.0
 10
189.192740654557
 20
136.4273313344875
 30
0.0
 10
189.0443042197406
 20
136.4236848756993
 30
0.0
 10
188.9751149680537
 20
136.4227171288481
 30
0.0
 10
188.8654034198127
 20
136.4214495694854
 30
0.0
 10
188.8201617704704
 20
136.4210467285571
 30
0.0
 10
188.7405137522865
 20
136.4200356936294
 30
0.0
 10
188.7058868365205
 20
136.4194447332348
 30
0.0
 10
188.6741539813991
 20
136.4186474934613
 30
0.0
  0
SPLINE
  5
7B
330
1F
100
AcDbEntity
  8
0
  6
Continuous
 62
     7
370
    15
100
AcDbSpline
210
0.0
220
0.0
230
1.0
 70
     8
 71
     3
 72
    18
 73
    14
 74
     0
 42
0.00000001
 43
0.00000001
 12
1.0
 22
0.0
 32
0.0
 13
1.0
 23
0.0
 33
0.0
 40
0.0
 40
0.0
 40
0.0
 40
0.0
 40
0.2499999999999999
 40
0.2499999999999999
 40
0.3749999999999999
 40
0.3749999999999999
 40
0.5
 40
0.5
 40
0.625
 40
0.625
 40
0.7500000000000001
 40
0.7500000000000001
 40
1.0
 40
1.0
 40
1.0
 40
1.0
 10
188.3936946659672
 20
123.2713533567412
 30
0.0
 10
188.2584090596649
 20
122.61579902132
 30
0.0
 10
188.1572413134219
 20
121.9361779275223
 30
0.0
 10
188.054379970553
 20
120.8808139210283
 30
0.0
 10
188.0282771250297
 20
120.5219998564436
 30
0.0
 10
187.9933871414849
 20
119.7958869123207
 30
0.0
 10
187.9848008831949
 20
119.4337972333046
 30
0.0
 10
187.9847011736292
 20
118.7114875758862
 30
0.0
 10
187.9931895447778
 20
118.3512677737779
 30
0.0
 10
188.0273329242984
 20
117.6327017046839
 30
0.0
 10
188.0531299061522
 20
117.2729359887685
 30
0.0
 10
188.1565310375402
 20
116.2062914017741
 30
0.0
 10
188.2583890297115
 20
115.5232784624918
 30
0.0
 10
188.3936946659672
 20
114.8676270677963
 30
0.0
  0
LINE
  5
7C
330
1F
100
AcDbEntity
  8
0
  6
Continuous
 62
     7
370
    15
100
AcDbLine
 10
187.5150150095
 20
124.2096427001
 30
0.0
 11
187.5150150095
 21
113.9293377245
 31
0.0
  0
LINE
  5
7D
330
1F
100
AcDbEntity
  8
0
  6
Continuous
 62
     7
370
    15
100
AcDbLine
 10
161.2150150095
 20
123.8792689288
 30
0.0
 11
161.2150150095
 21
114.2597114958
 31
0.0
  0
LINE
  5
7E
330
1F
100
AcDbEntity
  8
0
  6
Continuous
 62
     7
370
    15
100
AcDbLine
 10
159.7150150095
 20
123.4462562269
 30
0.0
 11
159.7150150095
 21
114.6927241977
 31
0.0
  0
LINE
  5
7F
330
1F
100
AcDbEntity
  8
0
  6
Continuous
 62
     7
370
    15
100
AcDbLine
 10
187.5150150095
 20
124.2096427001
 30
0.0
 11
187.5150150095
 21
136.5895889968
 31
0.0
  0
ARC
  5
80
330
1F
100
AcDbEntity
  8
0
  6
Continuous
 62
     7
370
    15
100
AcDbCircle
 10
187.7149519205
 20
136.594612108
 30
0.0
 40
0.2000000000000066
100
AcDbArc
 50
181.4391666667
 51
271.4391666667
  0
LINE
  5
81
330
1F
100
AcDbEntity
  8
0
  6
Continuous
 62
     7
370
    15
100
AcDbLine
 10
161.2150150095
 20
123.8792689288
 30
0.0
 11
161.2150150095
 21
135.9288414542
 31
0.0
  0
LINE
  5
82
330
1F
100
AcDbEntity
  8
0
  6
Continuous
 62
     7
370
    15
100
AcDbLine
 10
161.2150150095
 20
135.9288414542
 30
0.0
 11
187.5150150095
 21
136.5895889968
 31
0.0
  0
LINE
  5
83
330
1F
100
AcDbEntity
  8
0
  6
Continuous
 62
     7
370
    15
100
AcDbLine
 10
187.5150150095
 20
101.5493914277
 30
0.0
 11
187.5150150095
 21
113.9293377245
 31
0.0
  0
ARC
  5
84
330
1F
100
AcDbEntity
  8
0
  6
Continuous
 62
     7
370
    15
100
AcDbCircle
 10
187.7149519205
 20
101.5443683166
 30
0.0
 40
0.2000000000000066
100
AcDbArc
 50
88.5608333333
 51
178.5608333333
  0
LINE
  5
85
330
1F
100
AcDbEntity
  8
0
  6
Continuous
 62
     7
370
    15
100
AcDbLine
 10
161.2150150095
 20
102.2101389703
 30
0.0
 11
161.2150150095
 21
114.2597114958
 31
0.0
  0
LINE
  5
86
330
1F
100
AcDbEntity
  8
0
  6
Continuous
 62
     7
370
    15
100
AcDbLine
 10
161.2150150095
 20
102.2101389703
 30
0.0
 11
187.5150150095
 21
101.5493914277
 31
0.0
  0
LINE
  5
87
330
1F
100
AcDbEntity
  8
0
  6
Continuous
 62
     7
370
    15
100
AcDbLine
 10
187.7199750316
 20
101.7443052275
 30
0.0
 11
188.6741539814
 21
101.7203329311
 31
0.0
  0
LINE
  5
88
330
1F
100
AcDbEntity
  8
0
  6
Continuous
 62
     7
370
    15
100
AcDbLine
 10
187.7199750316
 20
136.394675197
 30
0.0
 11
188.6741539814
 21
136.4186474935
 31
0.0
  0
LINE
  5
89
330
1F
100
AcDbEntity
  8
0
  6
Continuous
 62
     7
370
    15
100
AcDbLine
 10
159.7150150095
 20
103.0761643741
 30
0.0
 11
161.2150150095
 21
102.2101389703
 31
0.0
  0
LINE
  5
8A
330
1F
100
AcDbEntity
  8
0
  6
Continuous
 62
     7
370
    15
100
AcDbLine
 10
159.7150150095
 20
103.0761643741
 30
0.0
 11
159.7150150095
 21
114.6927241977
 31
0.0
  0
LINE
  5
8B
330
1F
100
AcDbEntity
  8
0
  6
Continuous
 62
     7
370
    15
100
AcDbLine
 10
159.7150150095
 20
135.0628160504
 30
0.0
 11
161.2150150095
 21
135.9288414542
 31
0.0
  0
LINE
  5
8C
330
1F
100
AcDbEntity
  8
0
  6
Continuous
 62
     7
370
    15
100
AcDbLine
 10
159.7150150095
 20
123.4462562269
 30
0.0
 11
159.7150150095
 21
135.0628160504
 31
0.0
  0
SPLINE
  5
8D
330
1F
100
AcDbEntity
  8
0
  6
Continuous
 62
     7
370
    15
100
AcDbSpline
210
0.0
220
0.0
230
1.0
 70
     8
 71
     3
 72
     8
 73
     4
 74
     0
 42
0.00000001
 43
0.00000001
 12
1.0
 22
0.0
 32
0.0
 13
1.0
 23
0.0
 33
0.0
 40
0.0
 40
0.0
 40
0.0
 40
0.0
 40
1.0
 40
1.0
 40
1.0
 40
1.0
 10
221.9476880215479
 20
144.0676997437972
 30
0.0
 10
221.9707084435368
 20
144.0676933766824
 30
0.0
 10
221.993945610106
 20
144.0684934682706
 30
0.0
 10
222.0169959734637
 20
144.0700950079636
 30
0.0
  0
SPLINE
  5
8E
330
1F
100
AcDbEntity
  8
0
  6
Continuous
 62
     7
370
    15
100
AcDbSpline
210
0.0
220
0.0
230
1.0
 70
     8
 71
     3
 72
     8
 73
     4
 74
     0
 42
0.00000001
 43
0.00000001
 12
1.0
 22
0.0
 32
0.0
 13
1.0
 23
0.0
 33
0.0
 40
0.0
 40
0.0
 40
0.0
 40
0.0
 40
1.0
 40
1.0
 40
1.0
 40
1.0
 10
222.0169959734637
 20
94.06888541657385
 30
0.0
 10
221.9939998323348
 20
94.07048318890543
 30
0.0
 10
221.9708979263285
 20
94.07128710026325
 30
0.0
 10
221.9476880215479
 20
94.07128068074022
 30
0.0
  0
LINE
  5
8F
330
1F
100
AcDbEntity
  8
0
  6
Continuous
 62
     7
370
    15
100
AcDbLine
 10
236.4681632516
 20
143.2697563514
 30
0.0
 11
234.2607580733
 21
142.5737641721
 31
0.0
  0
ARC
  5
90
330
1F
100
AcDbEntity
  8
0
  6
Continuous
 62
     7
370
    15
100
AcDbCircle
 10
234.7167611269
 20
141.1275072577
 30
0.0
 40
1.516442497159304
100
AcDbArc
 50
107.5
 51
287.5
  0
LINE
  5
91
330
1F
100
AcDbEntity
  8
0
  6
Continuous
 62
     7
370
    15
100
AcDbLine
 10
235.1727641804
 20
139.6812503434
 30
0.0
 11
235.902019544
 21
139.9111836763
 31
0.0
  0
LINE
  5
92
330
1F
100
AcDbEntity
  8
0
  6
Continuous
 62
     7
370
    15
100
AcDbLine
 10
246.1552505147
 20
143.105392027
 30
0.0
 11
230.5371970953
 21
93.5712549792
 31
0.0
  0
LINE
  5
93
330
1F
100
AcDbEntity
  8
0
  6
Continuous
 62
     7
370
    15
100
AcDbLine
 10
230.5371970953
 20
93.5712549792
 30
0.0
 11
222.8137134253
 21
93.5712549792
 31
0.0
  0
LINE
  5
94
330
1F
100
AcDbEntity
  8
0
  6
Continuous
 62
     7
370
    15
100
AcDbLine
 10
222.9136138478
 20
144.8089229363
 30
0.0
 11
223.1280125596
 21
145.6091225292
 31
0.0
  0
ELLIPSE
  5
95
330
1F
100
AcDbEntity
  8
0
  6
Continuous
 62
     7
370
    15
100
AcDbEllipse
 10
216.4269870724
 20
170.9194108551
 30
0.0
 11
1.506350599811412E-12
 21
26.19525546193009
 31
0.0
210
-7.265021917390860E-15
220
4.177729871277400E-28
230
1.0
 40
0.9925461516
 41
3.402266559625078
 42
3.4448861582828
  0
LINE
  5
96
330
1F
100
AcDbEntity
  8
0
  6
Continuous
 62
     7
370
    15
100
AcDbLine
 10
224.192277161
 20
145.9197589194
 30
0.0
 11
238.7510409905
 21
150.5101195224
 31
0.0
  0
SPLINE
  5
97
330
1F
100
AcDbEntity
  8
0
  6
Continuous
 62
     7
370
    15
100
AcDbSpline
210
0.0
220
0.0
230
1.0
 70
     8
 71
     3
 72
    10
 73
     6
 74
     0
 42
0.00000001
 43
0.00000001
 12
1.0
 22
0.0
 32
0.0
 13
1.0
 23
0.0
 33
0.0
 40
0.0
 40
0.0
 40
0.0
 40
0.0
 40
0.5
 40
0.5
 40
1.0
 40
1.0
 40
1.0
 40
1.0
 10
222.0169959734637
 20
144.0700950079636
 30
0.0
 10
222.2234119671928
 20
144.0844367952107
 30
0.0
 10
222.4243600309526
 20
144.164443697712
 30
0.0
 10
222.7444626663128
 20
144.4287845740402
 30
0.0
 10
222.8599457183404
 20
144.6086171463173
 30
0.0
 10
222.913613847837
 20
144.8089229362581
 30
0.0
  0
SPLINE
  5
98
330
1F
100
AcDbEntity
  8
0
  6
Continuous
 62
     7
370
    15
100
AcDbSpline
210
0.0
220
0.0
230
1.0
 70
     8
 71
     3
 72
    12
 73
     8
 74
     0
 42
0.00000001
 43
0.00000001
 12
1.0
 22
0.0
 32
0.0
 13
1.0
 23
0.0
 33
0.0
 40
0.0
 40
0.0
 40
0.0
 40
0.0
 40
0.25
 40
0.25
 40
0.5
 40
0.5
 40
1.0
 40
1.0
 40
1.0
 40
1.0
 10
222.8137134253319
 20
93.57125497921861
 30
0.0
 10
222.773202734999
 20
93.64142640944718
 30
0.0
 10
222.7233713657967
 20
93.70760193887115
 30
0.0
 10
222.6103923339533
 20
93.82455418748486
 30
0.0
 10
222.547445575456
 20
93.87565614733114
 30
0.0
 10
222.3386768575538
 20
94.00620376588567
 30
0.0
 10
222.1794933051157
 20
94.05759509881956
 30
0.0
 10
222.0169959734637
 20
94.06888541657385
 30
0.0
  0
LINE
  5
99
330
1F
100
AcDbEntity
  8
0
  6
Continuous
 62
     7
370
    15
100
AcDbLine
 10
235.0926433762
 20
139.9353610693
 30
0.0
 11
235.610881621
 21
140.0987609602
 31
0.0
  0
LINE
  5
9A
330
1F
100
AcDbEntity
  8
0
  6
Continuous
 62
     7
370
    15
100
AcDbLine
 10
234.3408788775
 20
142.3196534462
 30
0.0
 11
236.3703538099
 21
142.9595444344
 31
0.0
  0
ARC
  5
9B
330
1F
100
AcDbEntity
  8
0
  6
Continuous
 62
     7
370
    15
100
AcDbCircle
 10
234.7167611269
 20
141.1275072577
 30
0.0
 40
1.250000000000031
100
AcDbArc
 50
107.5
 51
287.5
  0
ARC
  5
9C
330
1F
100
AcDbEntity
  8
0
  6
Continuous
 62
     7
370
    15
100
AcDbCircle
 10
242.5437338053
 20
146.898209008
 30
0.0
 40
1.675000000000022
100
AcDbArc
 50
321.8568829838
 51
20.456816111
  0
ARC
  5
9D
330
1F
100
AcDbEntity
  8
0
  6
Continuous
 62
     7
370
    15
100
AcDbCircle
 10
242.5437338053
 20
146.898209008
 30
0.0
 40
1.675000000000022
100
AcDbArc
 50
20.456816111
 51
80.5636578458
  0
ARC
  5
9E
330
1F
100
AcDbEntity
  8
0
  6
Continuous
 62
     7
370
    15
100
AcDbCircle
 10
242.5437338053
 20
146.898209008
 30
0.0
 40
1.675000000000004
100
AcDbArc
 50
80.5636578458
 51
139.163590973
  0
LINE
  5
9F
330
1F
100
AcDbEntity
  8
0
  6
Continuous
 62
     7
370
    15
100
AcDbLine
 10
241.2225529048
 20
147.9278235127
 30
0.0
 11
241.2764628381
 21
147.9934940375
 31
0.0
  0
ARC
  5
A0
330
1F
100
AcDbEntity
  8
0
  6
Continuous
 62
     7
370
    15
100
AcDbCircle
 10
242.5437338053
 20
146.898209008
 30
0.0
 40
1.675000000000034
100
AcDbArc
 50
142.0702217449
 51
198.5139399112
  0
LINE
  5
A1
330
1F
100
AcDbEntity
  8
0
  6
Continuous
 62
     7
370
    15
100
AcDbLine
 10
240.9975031387
 20
146.2541626388
 30
0.0
 11
240.9554210388
 21
146.3663372605
 31
0.0
  0
ARC
  5
A2
330
1F
100
AcDbEntity
  8
0
  6
Continuous
 62
     7
370
    15
100
AcDbCircle
 10
242.5437338053
 20
146.898209008
 30
0.0
 40
1.675000000000016
100
AcDbArc
 50
202.6130318114
 51
258.4074421454
  0
LINE
  5
A3
330
1F
100
AcDbEntity
  8
0
  6
Continuous
 62
     7
370
    15
100
AcDbLine
 10
242.3252918186
 20
145.2375139432
 30
0.0
 11
242.2071414121
 21
145.2573767312
 31
0.0
  0
ARC
  5
A4
330
1F
100
AcDbEntity
  8
0
  6
Continuous
 62
     7
370
    15
100
AcDbCircle
 10
242.5437338053
 20
146.898209008
 30
0.0
 40
1.675000000000009
100
AcDbArc
 50
262.5065340457
 51
318.950252212
  0
LINE
  5
A5
330
1F
100
AcDbEntity
  8
0
  6
Continuous
 62
     7
370
    15
100
AcDbLine
 10
243.8610718237
 20
145.8636822828
 30
0.0
 11
243.8069177429
 21
145.7982129445
 31
0.0
  0
CIRCLE
  5
A6
330
1F
100
AcDbEntity
  8
0
  6
Continuous
 62
     7
370
    15
100
AcDbCircle
 10
242.5437338053
 20
146.898209008
 30
0.0
 40
1.799999999999983
  0
SPLINE
  5
A7
330
1F
100
AcDbEntity
  8
0
  6
Continuous
 62
     7
370
    15
100
AcDbSpline
210
0.0
220
0.0
230
1.0
 70
     8
 71
     3
 72
    11
 73
     7
 74
     0
 42
0.00000001
 43
0.00000001
 12
1.0
 22
0.0
 32
0.0
 13
1.0
 23
0.0
 33
0.0
 40
0.0
 40
0.0
 40
0.0
 40
0.0
 40
0.26690104679506
 40
0.5546143410792042
 40
0.8439070439785645
 40
1.0
 40
1.0
 40
1.0
 40
1.0
 10
240.9975031387069
 20
146.2541626388304
 30
0.0
 10
241.018024431485
 20
146.2259670773188
 30
0.0
 10
241.0606672139277
 20
146.1673773379495
 30
0.0
 10
241.1567632005749
 20
146.1104045159798
 30
0.0
 10
241.2503746419014
 20
146.0880440695094
 30
0.0
 10
241.3074362614221
 20
146.0922404047516
 30
0.0
 10
241.3274344735063
 20
146.0937110815893
 30
0.0
  0
SPLINE
  5
A8
330
1F
100
AcDbEntity
  8
0
  6
Continuous
 62
     7
370
    15
100
AcDbSpline
210
0.0
220
0.0
230
1.0
 70
     8
 71
     3
 72
    12
 73
     8
 74
     0
 42
0.00000001
 43
0.00000001
 12
1.0
 22
0.0
 32
0.0
 13
1.0
 23
0.0
 33
0.0
 40
0.0
 40
0.0
 40
0.0
 40
0.0
 40
0.2058401281338099
 40
0.412061993550983
 40
0.6141387330969393
 40
0.8132772113524499
 40
1.0
 40
1.0
 40
1.0
 40
1.0
 10
241.3274344735063
 20
146.0937110815893
 30
0.0
 10
241.3929749836843
 20
146.0956919940858
 30
0.0
 10
241.5241775510707
 20
146.0996574927461
 30
0.0
 10
241.7103892738748
 20
146.0229216626506
 30
0.0
 10
241.859140827856
 20
145.8948095795327
 30
0.0
 10
241.9587684931383
 20
145.7304657625248
 30
0.0
 10
241.9775099487253
 20
145.6092227941961
 30
0.0
 10
241.9865791586997
 20
145.5505519010745
 30
0.0
  0
SPLINE
  5
A9
330
1F
100
AcDbEntity
  8
0
  6
Continuous
 62
     7
370
    15
100
AcDbSpline
210
0.0
220
0.0
230
1.0
 70
     8
 71
     3
 72
    11
 73
     7
 74
     0
 42
0.00000001
 43
0.00000001
 12
1.0
 22
0.0
 32
0.0
 13
1.0
 23
0.0
 33
0.0
 40
0.0
 40
0.0
 40
0.0
 40
0.0
 40
0.2928993220619401
 40
0.5864344719079042
 40
0.8775178868032256
 40
1.0
 40
1.0
 40
1.0
 40
1.0
 10
241.9865791586997
 20
145.5505519010745
 30
0.0
 10
241.9927352525586
 20
145.5131482968269
 30
0.0
 10
242.0050608039657
 20
145.4382598923404
 30
0.0
 10
242.0697757689526
 20
145.3418808609886
 30
0.0
 10
242.1427978678598
 20
145.2837763421191
 30
0.0
 10
242.1924394851763
 20
145.2634088072036
 30
0.0
 10
242.2071414121465
 20
145.2573767311538
 30
0.0
  0
SPLINE
  5
AA
330
1F
100
AcDbEntity
  8
0
  6
Continuous
 62
     7
370
    15
100
AcDbSpline
210
0.0
220
0.0
230
1.0
 70
     8
 71
     3
 72
    12
 73
     8
 74
     0
 42
0.00000001
 43
0.00000001
 12
1.0
 22
0.0
 32
0.0
 13
1.0
 23
0.0
 33
0.0
 40
0.0
 40
0.0
 40
0.0
 40
0.0
 40
0.2057904614204145
 40
0.4120344203360334
 40
0.6141302471428044
 40
0.8132633242113139
 40
1.0
 40
1.0
 40
1.0
 40
1.0
 10
242.6298352249209
 20
145.4430258974642
 30
0.0
 10
242.6608801786225
 20
145.5007611972878
 30
0.0
 10
242.7230384993458
 20
145.6163590273891
 30
0.0
 10
242.8825835718063
 20
145.7392630641804
 30
0.0
 10
243.0679171967004
 20
145.8040431280972
 30
0.0
 10
243.2600711055766
 20
145.8081572732553
 30
0.0
 10
243.37444665056
 20
145.7637652801974
 30
0.0
 10
243.4297972161421
 20
145.7422823493537
 30
0.0
  0
SPLINE
  5
AB
330
1F
100
AcDbEntity
  8
0
  6
Continuous
 62
     7
370
    15
100
AcDbSpline
210
0.0
220
0.0
230
1.0
 70
     8
 71
     3
 72
    11
 73
     7
 74
     0
 42
0.00000001
 43
0.00000001
 12
1.0
 22
0.0
 32
0.0
 13
1.0
 23
0.0
 33
0.0
 40
0.0
 40
0.0
 40
0.0
 40
0.0
 40
0.2802371411013345
 40
0.561286987592461
 40
0.8399906057825257
 40
1.0
 40
1.0
 40
1.0
 40
1.0
 10
243.4297972161421
 20
145.7422823493537
 30
0.0
 10
243.4652436531178
 20
145.7289163163036
 30
0.0
 10
243.5362393239728
 20
145.7021454878643
 30
0.0
 10
243.6519779895837
 20
145.7100167053863
 30
0.0
 10
243.7444813210986
 20
145.7461800919315
 30
0.0
 10
243.7902315225006
 20
145.7843070924235
 30
0.0
 10
243.8069177428875
 20
145.7982129444942
 30
0.0
  0
SPLINE
  5
AC
330
1F
100
AcDbEntity
  8
0
  6
Continuous
 62
     7
370
    15
100
AcDbSpline
210
0.0
220
0.0
230
1.0
 70
     8
 71
     3
 72
    11
 73
     7
 74
     0
 42
0.00000001
 43
0.00000001
 12
1.0
 22
0.0
 32
0.0
 13
1.0
 23
0.0
 33
0.0
 40
0.0
 40
0.0
 40
0.0
 40
0.0
 40
0.2657596322625304
 40
0.5530029385954063
 40
0.8418208483438714
 40
0.9999999999999999
 40
0.9999999999999999
 40
0.9999999999999999
 40
0.9999999999999999
 10
242.3252918185877
 20
145.2375139431827
 30
0.0
 10
242.3598843659671
 20
145.2411057767147
 30
0.0
 10
242.4318658787027
 20
145.248579803079
 30
0.0
 10
242.5293141723886
 20
145.3030042350119
 30
0.0
 10
242.5958957459943
 20
145.3729358976274
 30
0.0
 10
242.6209642252544
 20
145.4247059825791
 30
0.0
 10
242.6298352249209
 20
145.4430258974642
 30
0.0
  0
SPLINE
  5
AD
330
1F
100
AcDbEntity
  8
0
  6
Continuous
 62
     7
370
    15
100
AcDbSpline
210
0.0
220
0.0
230
1.0
 70
     8
 71
     3
 72
    11
 73
     7
 74
     0
 42
0.00000001
 43
0.00000001
 12
1.0
 22
0.0
 32
0.0
 13
1.0
 23
0.0
 33
0.0
 40
0.0
 40
0.0
 40
0.0
 40
0.0
 40
0.2431090893442846
 40
0.518279365562224
 40
0.794779408575198
 40
1.0
 40
1.0
 40
1.0
 40
1.0
 10
241.2225529048414
 20
147.9278235127301
 30
0.0
 10
241.2074168753252
 20
147.8983214283027
 30
0.0
 10
241.1751486791999
 20
147.8354265293869
 30
0.0
 10
241.1665349775896
 20
147.7259009864821
 30
0.0
 10
241.1892296788173
 20
147.6243666566614
 30
0.0
 10
241.2246530724697
 20
147.5700889638709
 30
0.0
 10
241.2397439971176
 20
147.5469658102849
 30
0.0
  0
SPLINE
  5
AE
330
1F
100
AcDbEntity
  8
0
  6
Continuous
 62
     7
370
    15
100
AcDbSpline
210
0.0
220
0.0
230
1.0
 70
     8
 71
     3
 72
    12
 73
     8
 74
     0
 42
0.00000001
 43
0.00000001
 12
1.0
 22
0.0
 32
0.0
 13
1.0
 23
0.0
 33
0.0
 40
0.0
 40
0.0
 40
0.0
 40
0.0
 40
0.2058179564998905
 40
0.4120215045907296
 40
0.6140779969167834
 40
0.813213000645392
 40
0.9999999999999999
 40
0.9999999999999999
 40
0.9999999999999999
 40
0.9999999999999999
 10
241.2397439971176
 20
147.5469658102849
 30
0.0
 10
241.2742272083062
 20
147.4912017970534
 30
0.0
 10
241.3432582335805
 20
147.3795692989741
 30
0.0
 10
241.3699149167091
 20
147.1799537515692
 30
0.0
 10
241.3333573404425
 20
146.9870866825225
 30
0.0
 10
241.2408568040455
 20
146.8186186866831
 30
0.0
 10
241.1452166914288
 20
146.7417532153557
 30
0.0
 10
241.0989266910897
 20
146.7045501778805
 30
0.0
  0
SPLINE
  5
AF
330
1F
100
AcDbEntity
  8
0
  6
Continuous
 62
     7
370
    15
100
AcDbSpline
210
0.0
220
0.0
230
1.0
 70
     8
 71
     3
 72
    11
 73
     7
 74
     0
 42
0.00000001
 43
0.00000001
 12
1.0
 22
0.0
 32
0.0
 13
1.0
 23
0.0
 33
0.0
 40
0.0
 40
0.0
 40
0.0
 40
0.0
 40
0.2908641666076818
 40
0.5839560789892131
 40
0.8745988053617763
 40
1.0
 40
1.0
 40
1.0
 40
1.0
 10
241.0989266910897
 20
146.7045501778805
 30
0.0
 10
241.0697600469659
 20
146.6806629898374
 30
0.0
 10
241.0112033696741
 20
146.6327056603719
 30
0.0
 10
240.9599984485821
 20
146.528753488548
 30
0.0
 10
240.9459451519256
 20
146.4360667821776
 30
0.0
 10
240.953226379547
 20
146.3824869404661
 30
0.0
 10
240.955421038803
 20
146.3663372605409
 30
0.0
  0
SPLINE
  5
B0
330
1F
100
AcDbEntity
  8
0
  6
Continuous
 62
     7
370
    15
100
AcDbSpline
210
0.0
220
0.0
230
1.0
 70
     8
 71
     3
 72
    12
 73
     8
 74
     0
 42
0.00000001
 43
0.00000001
 12
1.0
 22
0.0
 32
0.0
 13
1.0
 23
0.0
 33
0.0
 40
0.0
 40
0.0
 40
0.0
 40
0.0
 40
0.2058585741214089
 40
0.4121026961457176
 40
0.6141937841967389
 40
0.8133180967416284
 40
0.9999999999999999
 40
0.9999999999999999
 40
0.9999999999999999
 40
0.9999999999999999
 10
243.8445454999468
 20
146.2455954420346
 30
0.0
 10
243.8100578879337
 20
146.3013685273839
 30
0.0
 10
243.7410180728333
 20
146.4130191542424
 30
0.0
 10
243.7143722678139
 20
146.6126659177455
 30
0.0
 10
243.7509583146467
 20
146.8055523520192
 30
0.0
 10
243.8434780586684
 20
146.9739895216518
 30
0.0
 10
243.9390957939817
 20
147.0508299351663
 30
0.0
 10
243.9853628059746
 20
147.088011074439
 30
0.0
  0
SPLINE
  5
B1
330
1F
100
AcDbEntity
  8
0
  6
Continuous
 62
     7
370
    15
100
AcDbSpline
210
0.0
220
0.0
230
1.0
 70
     8
 71
     3
 72
    11
 73
     7
 74
     0
 42
0.00000001
 43
0.00000001
 12
1.0
 22
0.0
 32
0.0
 13
1.0
 23
0.0
 33
0.0
 40
0.0
 40
0.0
 40
0.0
 40
0.0
 40
0.252478226533554
 40
0.506890241793365
 40
0.7591786113117367
 40
1.0
 40
1.0
 40
1.0
 40
1.0
 10
243.9853628059746
 20
147.088011074439
 30
0.0
 10
244.0145405542431
 20
147.1119034649766
 30
0.0
 10
244.0731195298556
 20
147.1598712433585
 30
0.0
 10
244.1241374046448
 20
147.2637192911367
 30
0.0
 10
244.1419029329315
 20
147.3766348085063
 30
0.0
 10
244.1225519091521
 20
147.4485179390052
 30
0.0
 10
244.113101395668
 20
147.4836237040441
 30
0.0
  0
SPLINE
  5
B2
330
1F
100
AcDbEntity
  8
0
  6
Continuous
 62
     7
370
    15
100
AcDbSpline
210
0.0
220
0.0
230
1.0
 70
     8
 71
     3
 72
    11
 73
     7
 74
     0
 42
0.00000001
 43
0.00000001
 12
1.0
 22
0.0
 32
0.0
 13
1.0
 23
0.0
 33
0.0
 40
0.0
 40
0.0
 40
0.0
 40
0.0
 40
0.2423611237745713
 40
0.5166847928458516
 40
0.7923341374633345
 40
1.0
 40
1.0
 40
1.0
 40
1.0
 10
243.861071823739
 20
145.8636822828316
 30
0.0
 10
243.8763177292051
 20
145.8931279758205
 30
0.0
 10
243.9088201676525
 20
145.9559026549657
 30
0.0
 10
243.9178393089648
 20
146.0653923424699
 30
0.0
 10
243.895440133772
 20
146.1674356603236
 30
0.0
 10
243.8598412562206
 20
146.2221054808813
 30
0.0
 10
243.8445454999467
 20
146.2455954420346
 30
0.0
  0
SPLINE
  5
B3
330
1F
100
AcDbEntity
  8
0
  6
Continuous
 62
     7
370
    15
100
AcDbSpline
210
0.0
220
0.0
230
1.0
 70
     8
 71
     3
 72
    12
 73
     8
 74
     0
 42
0.00000001
 43
0.00000001
 12
1.0
 22
0.0
 32
0.0
 13
1.0
 23
0.0
 33
0.0
 40
0.0
 40
0.0
 40
0.0
 40
0.0
 40
0.009173520518971
 40
0.257677521552491
 40
0.5061895192298741
 40
0.7560357430218413
 40
1.0
 40
1.0
 40
1.0
 40
1.0
 10
242.8183529068953
 20
148.5505435229124
 30
0.0
 10
242.8169989934335
 20
148.550762958208
 30
0.0
 10
242.778968548687
 20
148.5569267361141
 30
0.0
 10
242.7014798779974
 20
148.5557584802259
 30
0.0
 10
242.5954401596449
 20
148.5167498393782
 30
0.0
 10
242.506316151532
 20
148.4465753813906
 30
0.0
 10
242.471603740976
 20
148.381624143966
 30
0.0
 10
242.4544542721434
 20
148.3495353548553
 30
0.0
  0
SPLINE
  5
B4
330
1F
100
AcDbEntity
  8
0
  6
Continuous
 62
     7
370
    15
100
AcDbSpline
210
0.0
220
0.0
230
1.0
 70
     8
 71
     3
 72
    12
 73
     8
 74
     0
 42
0.00000001
 43
0.00000001
 12
1.0
 22
0.0
 32
0.0
 13
1.0
 23
0.0
 33
0.0
 40
0.0
 40
0.0
 40
0.0
 40
0.0
 40
0.205753278780392
 40
0.4119604088044561
 40
0.6140154573249045
 40
0.8131414684041058
 40
1.0
 40
1.0
 40
1.0
 40
1.0
 10
242.4544542721434
 20
148.3495353548553
 30
0.0
 10
242.4234146063986
 20
148.2918078252278
 30
0.0
 10
242.3612668075147
 20
148.1762254304025
 30
0.0
 10
242.2017529472016
 20
148.0533279492639
 30
0.0
 10
242.0164538198487
 20
147.9885357184783
 30
0.0
 10
241.8242860916609
 20
147.9843877695636
 30
0.0
 10
241.7098781685653
 20
148.0287855464328
 30
0.0
 10
241.6544922809221
 20
148.0502789029657
 30
0.0
  0
SPLINE
  5
B5
330
1F
100
AcDbEntity
  8
0
  6
Continuous
 62
     7
370
    15
100
AcDbSpline
210
0.0
220
0.0
230
1.0
 70
     8
 71
     3
 72
    11
 73
     7
 74
     0
 42
0.00000001
 43
0.00000001
 12
1.0
 22
0.0
 32
0.0
 13
1.0
 23
0.0
 33
0.0
 40
0.0
 40
0.0
 40
0.0
 40
0.0
 40
0.2794069064555645
 40
0.5596240257155696
 40
0.8375007392219738
 40
0.9999999999999999
 40
0.9999999999999999
 40
0.9999999999999999
 40
0.9999999999999999
 10
241.6544922809221
 20
148.0502789029657
 30
0.0
 10
241.619042666824
 20
148.0636458971678
 30
0.0
 10
241.548040643276
 20
148.0904186466391
 30
0.0
 10
241.4322972274904
 20
148.0825393836689
 30
0.0
 10
241.3393933485621
 20
148.0462266767621
 30
0.0
 10
241.2934251560974
 20
148.0077076167125
 30
0.0
 10
241.2764628381441
 20
147.9934940375224
 30
0.0
  0
SPLINE
  5
B6
330
1F
100
AcDbEntity
  8
0
  6
Continuous
 62
     7
370
    15
100
AcDbSpline
210
0.0
220
0.0
230
1.0
 70
     8
 71
     3
 72
    12
 73
     8
 74
     0
 42
0.00000001
 43
0.00000001
 12
1.0
 22
0.0
 32
0.0
 13
1.0
 23
0.0
 33
0.0
 40
0.0
 40
0.0
 40
0.0
 40
0.0
 40
0.00916817714918
 40
0.2573268097002613
 40
0.5054934687429942
 40
0.7549925359453309
 40
1.0
 40
1.0
 40
1.0
 40
1.0
 10
244.113101395668
 20
147.4836237040441
 30
0.0
 10
244.1126164716349
 20
147.4849078864144
 30
0.0
 10
244.0990059193565
 20
147.5209515346798
 30
0.0
 10
244.0593724901731
 20
147.5875494683328
 30
0.0
 10
243.9727052112947
 20
147.6600375899272
 30
0.0
 10
243.8672497082751
 20
147.702413831509
 30
0.0
 10
243.7934297495525
 20
147.7000308427603
 30
0.0
 10
243.756855023558
 20
147.6988501707301
 30
0.0
  0
SPLINE
  5
B7
330
1F
100
AcDbEntity
  8
0
  6
Continuous
 62
     7
370
    15
100
AcDbSpline
210
0.0
220
0.0
230
1.0
 70
     8
 71
     3
 72
    12
 73
     8
 74
     0
 42
0.00000001
 43
0.00000001
 12
1.0
 22
0.0
 32
0.0
 13
1.0
 23
0.0
 33
0.0
 40
0.0
 40
0.0
 40
0.0
 40
0.0
 40
0.205843556409532
 40
0.4120691620553321
 40
0.614139721772713
 40
0.8132604579561359
 40
1.0
 40
1.0
 40
1.0
 40
1.0
 10
243.756855023558
 20
147.6988501707301
 30
0.0
 10
243.6913138306079
 20
147.6968692879742
 30
0.0
 10
243.5601097991088
 20
147.6929038459092
 30
0.0
 10
243.3738977642253
 20
147.7696409455309
 30
0.0
 10
243.2251503807653
 20
147.8977514054997
 30
0.0
 10
243.1255228300348
 20
148.0620915179802
 30
0.0
 10
243.1067807078857
 20
148.1833335141245
 30
0.0
 10
243.0977103383646
 20
148.2420093512449
 30
0.0
  0
SPLINE
  5
B8
330
1F
100
AcDbEntity
  8
0
  6
Continuous
 62
     7
370
    15
100
AcDbSpline
210
0.0
220
0.0
230
1.0
 70
     8
 71
     3
 72
    11
 73
     7
 74
     0
 42
0.00000001
 43
0.00000001
 12
1.0
 22
0.0
 32
0.0
 13
1.0
 23
0.0
 33
0.0
 40
0.0
 40
0.0
 40
0.0
 40
0.0
 40
0.2535086227484091
 40
0.5075674742604649
 40
0.7595056251924438
 40
1.0
 40
1.0
 40
1.0
 40
1.0
 10
243.0977103383646
 20
148.2420093512449
 30
0.0
 10
243.091554564002
 20
148.2794285758921
 30
0.0
 10
243.0792296544526
 20
148.3543482418862
 30
0.0
 10
243.0145016405692
 20
148.4505122567504
 30
0.0
 10
242.9254642826945
 20
148.5221906294711
 30
0.0
 10
242.8534992268603
 20
148.5412401239281
 30
0.0
 10
242.8183529068953
 20
148.5505435229124
 30
0.0
  0
CIRCLE
  5
B9
330
1F
100
AcDbEntity
  8
0
  6
Continuous
 62
     7
370
    15
100
AcDbCircle
 10
242.5437338053
 20
146.898209008
 30
0.0
 40
2.625
  0
LINE
  5
BA
330
1F
100
AcDbEntity
  8
0
  6
Continuous
 62
     7
370
    15
100
AcDbLine
 10
246.1121198706
 20
143.5112046372
 30
0.0
 11
246.2263880743
 21
143.1487921962
 31
0.0
  0
LINE
  5
BB
330
1F
100
AcDbEntity
  8
0
  6
Continuous
 62
     7
370
    15
100
AcDbLine
 10
236.0681024994
 20
139.945897057
 30
0.0
 11
246.2263880743
 21
143.1487921962
 31
0.0
  0
LINE
  5
BC
330
1F
100
AcDbEntity
  8
0
  6
Continuous
 62
     7
370
    15
100
AcDbLine
 10
235.9538342956
 20
140.3083094983
 30
0.0
 11
236.0681024994
 21
139.945897057
 31
0.0
  0
LINE
  5
BD
330
1F
100
AcDbEntity
  8
0
  6
Continuous
 62
     7
370
    15
100
AcDbLine
 10
237.3733214272
 20
141.7277966299
 30
0.0
 11
235.9538342956
 21
140.3083094983
 31
0.0
  0
LINE
  5
BE
330
1F
100
AcDbEntity
  8
0
  6
Continuous
 62
     7
370
    15
100
AcDbLine
 10
245.9363592941
 20
143.6869652138
 30
0.0
 11
246.1121198706
 21
143.5112046372
 31
0.0
  0
SPLINE
  5
BF
330
1F
100
AcDbEntity
  8
0
  6
Continuous
 62
     7
370
    15
100
AcDbSpline
210
0.0
220
0.0
230
1.0
 70
    24
 71
     3
 72
    11
 73
     7
 74
     0
 42
0.00000001
 43
0.00000001
 12
1.0
 22
0.0
 32
0.0
 13
1.0
 23
0.0
 33
0.0
 40
0.0
 40
0.0
 40
0.0
 40
0.0
 40
0.3277695037502217
 40
0.655150956890989
 40
0.990786190160996
 40
1.0
 40
1.0
 40
1.0
 40
1.0
 10
245.9363592940578
 20
143.6869652137801
 30
0.0
 10
245.8837998937992
 20
143.7395246140388
 30
0.0
 10
245.7787433190443
 20
143.8445811887936
 30
0.0
 10
245.6055146994455
 20
144.0178098083926
 30
0.0
 10
245.496257561172
 20
144.1270669466658
 30
0.0
 10
245.4452603514831
 20
144.1780641563549
 30
0.0
 10
245.4438977883507
 20
144.1794267194873
 30
0.0
  0
LINE
  5
C0
330
1F
100
AcDbEntity
  8
0
  6
Continuous
 62
     7
370
    15
100
AcDbLine
 10
239.1567294345
 20
150.4665950734
 30
0.0
 11
239.0424612307
 21
150.8290075147
 31
0.0
  0
LINE
  5
C1
330
1F
100
AcDbEntity
  8
0
  6
Continuous
 62
     7
370
    15
100
AcDbLine
 10
249.2007468057
 20
154.0319026536
 30
0.0
 11
239.0424612307
 21
150.8290075147
 31
0.0
  0
LINE
  5
C2
330
1F
100
AcDbEntity
  8
0
  6
Continuous
 62
     7
370
    15
100
AcDbLine
 10
249.3150150095
 20
153.6694902123
 30
0.0
 11
249.2007468057
 21
154.0319026536
 31
0.0
  0
LINE
  5
C3
330
1F
100
AcDbEntity
  8
0
  6
Continuous
 62
     7
370
    15
100
AcDbLine
 10
247.8955278779
 20
152.2500030807
 30
0.0
 11
249.3150150095
 21
153.6694902123
 31
0.0
  0
LINE
  5
C4
330
1F
100
AcDbEntity
  8
0
  6
Continuous
 62
     7
370
    15
100
AcDbLine
 10
239.332490011
 20
150.2908344968
 30
0.0
 11
239.1567294345
 21
150.4665950734
 31
0.0
  0
SPLINE
  5
C5
330
1F
100
AcDbEntity
  8
0
  6
Continuous
 62
     7
370
    15
100
AcDbSpline
210
0.0
220
0.0
230
1.0
 70
    24
 71
     3
 72
    11
 73
     7
 74
     0
 42
0.00000001
 43
0.00000001
 12
1.0
 22
0.0
 32
0.0
 13
1.0
 23
0.0
 33
0.0
 40
0.0
 40
0.0
 40
0.0
 40
0.0
 40
0.0092138098390301
 40
0.3448490431109745
 40
0.6722304962507598
 40
1.0
 40
1.0
 40
1.0
 40
1.0
 10
239.8249515167456
 20
149.7983729910924
 30
0.0
 10
239.8235889536132
 20
149.7997355542248
 30
0.0
 10
239.7725917439234
 20
149.8507327639141
 30
0.0
 10
239.6633346056501
 20
149.9599899021883
 30
0.0
 10
239.4901059860504
 20
150.1332185217875
 30
0.0
 10
239.3850494112957
 20
150.2382750965422
 30
0.0
 10
239.3324900110372
 20
150.2908344968008
 30
0.0
  0
LINE
  5
C6
330
1F
100
AcDbEntity
  8
0
  6
Continuous
 62
     7
370
    15
100
AcDbLine
 10
236.065827695
 20
139.9242092315
 30
0.0
 11
246.2338871631
 21
143.130186067
 31
0.0
  0
LINE
  5
C7
330
1F
100
AcDbEntity
  8
0
  6
Continuous
 62
     7
370
    15
100
AcDbLine
 10
238.7757108643
 20
150.5883623659
 30
0.0
 11
235.5697340287
 21
140.4203028977
 31
0.0
  0
LINE
  5
C8
330
1F
100
AcDbEntity
  8
0
  6
Continuous
 62
     7
370
    15
100
AcDbLine
 10
249.2030216101
 20
154.0535904791
 30
0.0
 11
239.034962142
 21
150.8476136436
 31
0.0
  0
LINE
  5
C9
330
1F
100
AcDbEntity
  8
0
  6
Continuous
 62
     7
370
    15
100
AcDbLine
 10
246.4931384408
 20
143.3894373447
 30
0.0
 11
249.6991152764
 21
153.5574968129
 31
0.0
  0
ARC
  5
CA
330
1F
100
AcDbEntity
  8
0
  6
Continuous
 62
     7
370
    15
100
AcDbCircle
 10
235.9538342956
 20
140.3083094983
 30
0.0
 40
0.3800000000000106
100
AcDbArc
 50
162.5
 51
287.5
  0
ARC
  5
CB
330
1F
100
AcDbEntity
  8
0
  6
Continuous
 62
     7
370
    15
100
AcDbCircle
 10
246.1121198706
 20
143.5112046372
 30
0.0
 40
0.3799999999999664
100
AcDbArc
 50
287.5
 51
342.5
  0
LINE
  5
CC
330
1F
100
AcDbEntity
  8
0
  6
Continuous
 62
     7
370
    15
100
AcDbLine
 10
246.4745323119
 20
143.3969364334
 30
0.0
 11
249.6774274508
 21
153.5552220085
 31
0.0
  0
ARC
  5
CD
330
1F
100
AcDbEntity
  8
0
  6
Continuous
 62
     7
370
    15
100
AcDbCircle
 10
249.3150150095
 20
153.6694902123
 30
0.0
 40
0.3800000000000378
100
AcDbArc
 50
342.5
 51
107.5
  0
ARC
  5
CE
330
1F
100
AcDbEntity
  8
0
  6
Continuous
 62
     7
370
    15
100
AcDbCircle
 10
239.1567294345
 20
150.4665950734
 30
0.0
 40
0.3800000000000207
100
AcDbArc
 50
107.5
 51
162.5
  0
LINE
  5
CF
330
1F
100
AcDbEntity
  8
0
  6
Continuous
 62
     7
370
    15
100
AcDbLine
 10
238.7943169932
 20
150.5808632772
 30
0.0
 11
235.5914218543
 21
140.4225777021
 31
0.0
  0
SPLINE
  5
D0
330
1F
100
AcDbEntity
  8
0
  6
Continuous
 62
     7
370
    15
100
AcDbSpline
210
0.0
220
0.0
230
1.0
 70
     8
 71
     3
 72
    10
 73
     6
 74
     0
 42
0.00000001
 43
0.00000001
 12
1.0
 22
0.0
 32
0.0
 13
1.0
 23
0.0
 33
0.0
 40
0.0
 40
0.0
 40
0.0
 40
0.0
 40
0.3518022785810572
 40
0.7034245935031952
 40
1.0
 40
1.0
 40
1.0
 40
1.0
 10
239.0349621419836
 20
150.8476136435767
 30
0.0
 10
238.9937880844413
 20
150.8299440050666
 30
0.0
 10
238.9114610318526
 20
150.7946137669098
 30
0.0
 10
238.8213973421088
 20
150.6992895406116
 30
0.0
 10
238.790052387468
 20
150.6231837118189
 30
0.0
 10
238.7757108642613
 20
150.5883623658544
 30
0.0
  0
SPLINE
  5
D1
330
1F
100
AcDbEntity
  8
0
  6
Continuous
 62
     7
370
    15
100
AcDbSpline
210
0.0
220
0.0
230
1.0
 70
     8
 71
     3
 72
    10
 73
     6
 74
     0
 42
0.00000001
 43
0.00000001
 12
1.0
 22
0.0
 32
0.0
 13
1.0
 23
0.0
 33
0.0
 40
0.0
 40
0.0
 40
0.0
 40
0.0
 40
0.3518022785809645
 40
0.703424593503228
 40
1.0
 40
1.0
 40
1.0
 40
1.0
 10
246.2338871631126
 20
143.130186067003
 30
0.0
 10
246.2750612206548
 20
143.1478557055132
 30
0.0
 10
246.3573882732434
 20
143.18318594367
 30
0.0
 10
246.4474519629874
 20
143.278510169968
 30
0.0
 10
246.4787969176282
 20
143.3546159987607
 30
0.0
 10
246.4931384408349
 20
143.3894373447253
 30
0.0
  0
SPLINE
  5
D2
330
1F
100
AcDbEntity
  8
0
  6
Continuous
 62
     7
370
    15
100
AcDbSpline
210
0.0
220
0.0
230
1.0
 70
     8
 71
     3
 72
    14
 73
    10
 74
     0
 42
0.00000001
 43
0.00000001
 12
1.0
 22
0.0
 32
0.0
 13
1.0
 23
0.0
 33
0.0
 40
0.0
 40
0.0
 40
0.0
 40
0.0
 40
0.1588501103507994
 40
0.3173321153184903
 40
0.4720153553660617
 40
0.6236441635915373
 40
0.7746618341644331
 40
0.9277417761107717
 40
1.0
 40
1.0
 40
1.0
 40
1.0
 10
235.5697340287107
 20
140.4203028977254
 30
0.0
 10
235.5602027848295
 20
140.3752064678893
 30
0.0
 10
235.54116238394
 20
140.285118110748
 30
0.0
 10
235.5716597022281
 20
140.1487771939573
 30
0.0
 10
235.6422218085939
 20
140.03284286632
 30
0.0
 10
235.7468211678421
 20
139.9486801817513
 30
0.0
 10
235.8723393649758
 20
139.9044751255894
 30
0.0
 10
235.9830437532797
 20
139.9022264405654
 30
0.0
 10
236.0457272475299
 20
139.9188716753515
 30
0.0
 10
236.0658276949836
 20
139.9242092314525
 30
0.0
  0
SPLINE
  5
D3
330
1F
100
AcDbEntity
  8
0
  6
Continuous
 62
     7
370
    15
100
AcDbSpline
210
0.0
220
0.0
230
1.0
 70
     8
 71
     3
 72
    14
 73
    10
 74
     0
 42
0.00000001
 43
0.00000001
 12
1.0
 22
0.0
 32
0.0
 13
1.0
 23
0.0
 33
0.0
 40
0.0
 40
0.0
 40
0.0
 40
0.0
 40
0.1588501103508092
 40
0.317332115318511
 40
0.4720153553661056
 40
0.6236441635916247
 40
0.7746618341644379
 40
0.9277417761108204
 40
1.0
 40
1.0
 40
1.0
 40
1.0
 10
249.6991152763855
 20
153.5574968128543
 30
0.0
 10
249.7086465202667
 20
153.6025932426904
 30
0.0
 10
249.7276869211562
 20
153.6926815998316
 30
0.0
 10
249.6971896028681
 20
153.8290225166223
 30
0.0
 10
249.6266274965023
 20
153.9449568442598
 30
0.0
 10
249.522028137254
 20
154.0291195288283
 30
0.0
 10
249.3965099401204
 20
154.0733245849904
 30
0.0
 10
249.2858055518166
 20
154.0755732700143
 30
0.0
 10
249.2231220575663
 20
154.0589280352282
 30
0.0
 10
249.2030216101126
 20
154.0535904791272
 30
0.0
  0
LINE
  5
D4
330
1F
100
AcDbEntity
  8
0
  6
Continuous
 62
     7
370
    15
100
AcDbLine
 10
249.3150150095
 20
153.6694902123
 30
0.0
 11
249.6774274508
 21
153.5552220085
 31
0.0
  0
LINE
  5
D5
330
1F
100
AcDbEntity
  8
0
  6
Continuous
 62
     7
370
    15
100
AcDbLine
 10
246.1121198706
 20
143.5112046372
 30
0.0
 11
246.4745323119
 21
143.3969364334
 31
0.0
  0
ARC
  5
D6
330
1F
100
AcDbEntity
  8
0
  6
Continuous
 62
     7
370
    15
100
AcDbCircle
 10
245.9153793436
 20
150.2698545464
 30
0.0
 40
1.000000000000021
100
AcDbArc
 50
342.5
 51
107.5
  0
LINE
  5
D7
330
1F
100
AcDbEntity
  8
0
  6
Continuous
 62
     7
370
    15
100
AcDbLine
 10
245.2960985098
 20
144.9802371493
 30
0.0
 11
246.8690962944
 21
149.9691487469
 31
0.0
  0
LINE
  5
D8
330
1F
100
AcDbEntity
  8
0
  6
Continuous
 62
     7
370
    15
100
AcDbLine
 10
245.6146735441
 20
151.2235714971
 30
0.0
 11
240.6257619465
 21
149.6505737126
 31
0.0
  0
ARC
  5
D9
330
1F
100
AcDbEntity
  8
0
  6
Continuous
 62
     7
370
    15
100
AcDbCircle
 10
244.3423815591
 20
145.2809429488
 30
0.0
 40
1.000000000000047
100
AcDbArc
 50
287.5
 51
342.5
  0
LINE
  5
DA
330
1F
100
AcDbEntity
  8
0
  6
Continuous
 62
     7
370
    15
100
AcDbLine
 10
239.654175761
 20
142.7542282135
 30
0.0
 11
244.6430873586
 21
144.327225998
 31
0.0
  0
ARC
  5
DB
330
1F
100
AcDbEntity
  8
0
  6
Continuous
 62
     7
370
    15
100
AcDbCircle
 10
239.3534699615
 20
143.7079451642
 30
0.0
 40
1.000000000295342
100
AcDbArc
 50
162.5
 51
287.5
  0
LINE
  5
DC
330
1F
100
AcDbEntity
  8
0
  6
Continuous
 62
     7
370
    15
100
AcDbLine
 10
239.9727507953
 20
148.9975625613
 30
0.0
 11
238.3997530104
 21
144.0086509638
 31
0.0
  0
ARC
  5
DD
330
1F
100
AcDbEntity
  8
0
  6
Continuous
 62
     7
370
    15
100
AcDbCircle
 10
240.926467746
 20
148.6968567618
 30
0.0
 40
1.000000000000003
100
AcDbArc
 50
107.5
 51
162.5
  0
CIRCLE
  5
DE
330
1F
100
AcDbEntity
  8
0
  6
Continuous
 62
     7
370
    15
100
AcDbCircle
 10
242.6344246525
 20
146.9888998553
 30
0.0
 40
3.049999999999998
  0
LINE
  5
DF
330
1F
100
AcDbEntity
  8
0
  6
Continuous
 62
     7
370
    15
100
AcDbLine
 10
235.9538342956
 20
140.3083094983
 30
0.0
 11
235.5914218543
 21
140.4225777021
 31
0.0
  0
LINE
  5
E0
330
1F
100
AcDbEntity
  8
0
  6
Continuous
 62
     7
370
    15
100
AcDbLine
 10
239.1567294345
 20
150.4665950734
 30
0.0
 11
238.7943169932
 21
150.5808632772
 31
0.0
  0
SPLINE
  5
E1
330
1F
100
AcDbEntity
  8
0
  6
Continuous
 62
     7
370
    15
100
AcDbSpline
210
0.0
220
0.0
230
1.0
 70
    24
 71
     3
 72
    11
 73
     7
 74
     0
 42
0.00000001
 43
0.00000001
 12
1.0
 22
0.0
 32
0.0
 13
1.0
 23
0.0
 33
0.0
 40
0.0
 40
0.0
 40
0.0
 40
0.0
 40
0.4125701671612896
 40
0.8731537903910442
 40
0.9927012761302945
 40
1.0
 40
1.0
 40
1.0
 40
1.0
 10
247.8955278779437
 20
152.2500030806854
 30
0.0
 10
247.8263511964786
 20
152.1808263992203
 30
0.0
 10
247.6799472961592
 20
152.0344224989007
 30
0.0
 10
247.516154468563
 20
151.8706296713055
 30
0.0
 10
247.4288515005988
 20
151.78332670334
 30
0.0
 10
247.4104178879518
 20
151.7648930906935
 30
0.0
 10
247.4093572189019
 20
151.7638324216436
 30
0.0
  0
SPLINE
  5
E2
330
1F
100
AcDbEntity
  8
0
  6
Continuous
 62
     7
370
    15
100
AcDbSpline
210
0.0
220
0.0
230
1.0
 70
    24
 71
     3
 72
    11
 73
     7
 74
     0
 42
0.00000001
 43
0.00000001
 12
1.0
 22
0.0
 32
0.0
 13
1.0
 23
0.0
 33
0.0
 40
0.0
 40
0.0
 40
0.0
 40
0.0
 40
0.0072987238691259
 40
0.1268462096078983
 40
0.5874298328382889
 40
1.0
 40
1.0
 40
1.0
 40
1.0
 10
237.8594920861942
 20
142.213967288936
 30
0.0
 10
237.8584314171443
 20
142.2129066198862
 30
0.0
 10
237.8399978044972
 20
142.1944730072389
 30
0.0
 10
237.7526948365339
 20
142.1071700392758
 30
0.0
 10
237.5889020089373
 20
141.9433772116788
 30
0.0
 10
237.4424981086175
 20
141.7969733113599
 30
0.0
 10
237.3733214271523
 20
141.7277966298953
 30
0.0
  0
SPLINE
  5
E3
330
1F
100
AcDbEntity
  8
0
  6
HIDDEN
 62
     7
370
     0
100
AcDbSpline
210
0.0
220
0.0
230
1.0
 70
     8
 71
     3
 72
    58
 73
    54
 74
     0
 42
0.00000001
 43
0.00000001
 12
1.0
 22
0.0
 32
0.0
 13
1.0
 23
0.0
 33
0.0
 40
-0.0624999999999999
 40
-0.0624999999999999
 40
0.0
 40
0.0
 40
0.03125
 40
0.03125
 40
0.0625000000000001
 40
0.0625000000000001
 40
0.0937500000000001
 40
0.0937500000000001
 40
0.1250000000000001
 40
0.1250000000000001
 40
0.1875000000000002
 40
0.1875000000000002
 40
0.2500000000000004
 40
0.2500000000000004
 40
0.2812500000000005
 40
0.2812500000000005
 40
0.3125000000000005
 40
0.3125000000000005
 40
0.3437500000000006
 40
0.3437500000000006
 40
0.3750000000000006
 40
0.3750000000000006
 40
0.4062500000000006
 40
0.4062500000000006
 40
0.4375000000000006
 40
0.4375000000000006
 40
0.4687500000000007
 40
0.4687500000000007
 40
0.5000000000000007
 40
0.5000000000000007
 40
0.5625000000000008
 40
0.5625000000000008
 40
0.6250000000000009
 40
0.6250000000000009
 40
0.6562500000000008
 40
0.6562500000000008
 40
0.6875000000000008
 40
0.6875000000000008
 40
0.7187500000000007
 40
0.7187500000000007
 40
0.7500000000000006
 40
0.7500000000000006
 40
0.7812500000000004
 40
0.7812500000000004
 40
0.8125000000000003
 40
0.8125000000000003
 40
0.8437500000000003
 40
0.8437500000000003
 40
0.8750000000000002
 40
0.8750000000000002
 40
0.9375000000000001
 40
0.9375000000000001
 40
1.0
 40
1.0
 40
1.03125
 40
1.03125
 10
203.7150150095268
 20
118.8051178417253
 30
0.0
 10
203.7150150095269
 20
119.2016763975405
 30
0.0
 10
203.7020391175164
 20
119.3316431370852
 30
0.0
 10
203.6512068154105
 20
119.5873224752173
 30
0.0
 10
203.612729744089
 20
119.7143635670588
 30
0.0
 10
203.5123247829327
 20
119.9565417529993
 30
0.0
 10
203.4508905406134
 20
120.0713954115888
 30
0.0
 10
203.3057562744316
 20
120.2887605333947
 30
0.0
 10
203.2213143532843
 20
120.3916360054789
 30
0.0
 10
202.9446423236745
 20
120.6682539578961
 30
0.0
 10
202.7215961687063
 20
120.817246077729
 30
0.0
 10
202.2403321701618
 20
121.0167698727202
 30
0.0
 10
201.977074314842
 20
121.0693487372225
 30
0.0
 10
201.5856082835572
 20
121.06956051081
 30
0.0
 10
201.4530595399437
 20
121.0565695392206
 30
0.0
 10
201.1965152309285
 20
121.0055333159308
 30
0.0
 10
201.0718193445568
 20
120.967771774528
 30
0.0
 10
200.829616374123
 20
120.8676122352346
 30
0.0
 10
200.7125530108724
 20
120.805014425484
 30
0.0
 10
200.4958666916262
 20
120.6602924414484
 30
0.0
 10
200.3948527235586
 20
120.5776683362801
 30
0.0
 10
200.2080595292731
 20
120.3910479656691
 30
0.0
 10
200.1252591653188
 20
120.2899995977779
 30
0.0
 10
199.9803807264242
 20
120.0734875769041
 30
0.0
 10
199.9177299430968
 20
119.9565982217051
 30
0.0
 10
199.8172895487229
 20
119.7143408196462
 30
0.0
 10
199.779430536953
 20
119.5896781548308
 30
0.0
 10
199.7281928324895
 20
119.333346959176
 30
0.0
 10
199.7150624577164
 20
119.2007590198256
 30
0.0
 10
199.7149205072775
 20
118.8091273512563
 30
0.0
 10
199.7672614235255
 20
118.545914518222
 30
0.0
 10
199.9663916502636
 20
118.0644071875307
 30
0.0
 10
200.1152287379059
 20
117.8412067062551
 30
0.0
 10
200.3915407744453
 20
117.5643606262934
 30
0.0
 10
200.4943063116966
 20
117.4798485320746
 30
0.0
 10
200.7116232440504
 20
117.3344699353432
 30
0.0
 10
200.8264101545873
 20
117.2729545037413
 30
0.0
 10
201.0683296446931
 20
117.1723984434958
 30
0.0
 10
201.1954565471932
 20
117.1337597176611
 30
0.0
 10
201.4511253828293
 20
117.0826948507738
 30
0.0
 10
201.5810205882073
 20
117.0696203703975
 30
0.0
 10
201.8450953706317
 20
117.0693619691239
 30
0.0
 10
201.975424510117
 20
117.0822380370868
 30
0.0
 10
202.2311138242609
 20
117.1328368284148
 30
0.0
 10
202.3580416906485
 20
117.1711421742524
 30
0.0
 10
202.6004939794907
 20
117.2713980066723
 30
0.0
 10
202.7154106734723
 20
117.3327490255844
 30
0.0
 10
202.9328014652427
 20
117.4776178611547
 30
0.0
 10
203.0357867449243
 20
117.561981814424
 30
0.0
 10
203.3127511125816
 20
117.8385078682101
 30
0.0
 10
203.46188339094
 20
118.0613677102058
 30
0.0
 10
203.6618355096545
 20
118.5424702302665
 30
0.0
 10
203.7150150095268
 20
118.8051178417253
 30
0.0
 10
203.7150150095269
 20
119.2016763975405
 30
0.0
  0
SPLINE
  5
E4
330
1F
100
AcDbEntity
  8
0
  6
HIDDEN
 62
     7
370
     0
100
AcDbSpline
210
0.0
220
0.0
230
1.0
 70
     8
 71
     3
 72
    12
 73
     8
 74
     0
 42
0.00000001
 43
0.00000001
 12
1.0
 22
0.0
 32
0.0
 13
1.0
 23
0.0
 33
0.0
 40
0.0
 40
0.0
 40
0.0
 40
0.0
 40
0.5
 40
0.5
 40
0.75
 40
0.75
 40
1.0
 40
1.0
 40
1.0
 40
1.0
 10
197.8097591212011
 20
110.9730372142245
 30
0.0
 10
197.8404585045684
 20
111.0873728812884
 30
0.0
 10
197.8818085726749
 20
111.1987262341297
 30
0.0
 10
197.9815645008944
 20
111.3514630063785
 30
0.0
 10
198.0212614186271
 20
111.3993228922306
 30
0.0
 10
198.1185195702747
 20
111.4739260055801
 30
0.0
 10
198.1792957282654
 20
111.5006802430881
 30
0.0
 10
198.2427718230933
 20
111.5006802430881
 30
0.0
  0
LINE
  5
E5
330
1F
100
AcDbEntity
  8
0
  6
HIDDEN
 62
     7
370
     0
100
AcDbLine
 10
198.2427718231
 20
111.5006802431
 30
0.0
 11
201.187258196
 21
111.5006802431
 31
0.0
  0
SPLINE
  5
E6
330
1F
100
AcDbEntity
  8
0
  6
HIDDEN
 62
     7
370
     0
100
AcDbSpline
210
0.0
220
0.0
230
1.0
 70
     8
 71
     3
 72
    12
 73
     8
 74
     0
 42
0.00000001
 43
0.00000001
 12
1.0
 22
0.0
 32
0.0
 13
1.0
 23
0.0
 33
0.0
 40
0.0
 40
0.0
 40
0.0
 40
0.0
 40
0.2500000000000016
 40
0.2500000000000016
 40
0.5000000000000032
 40
0.5000000000000032
 40
1.0
 40
1.0
 40
1.0
 40
1.0
 10
201.1872581959604
 20
111.5006802430881
 30
0.0
 10
201.2509234324909
 20
111.5006802430881
 30
0.0
 10
201.3105296647143
 20
111.4746080946084
 30
0.0
 10
201.4091901896452
 20
111.3990693437873
 30
0.0
 10
201.4481571796604
 20
111.3518184066911
 30
0.0
 10
201.5475440115849
 20
111.1999945887247
 30
0.0
 10
201.5896202590083
 20
111.0871913389596
 30
0.0
 10
201.6202708978526
 20
110.9730372142245
 30
0.0
  0
ELLIPSE
  5
E7
330
1F
100
AcDbEntity
  8
0
  6
HIDDEN
 62
     7
370
     0
100
AcDbEllipse
 10
188.6587573545
 20
119.0694902123
 30
0.0
 11
-11.70927234972717
 21
24.67718644093745
 31
0.0
210
0.0
220
0.0
230
1.0
 40
0.3419987131
 41
3.310521928178955
 42
4.221709151398947
  0
SPLINE
  5
E8
330
1F
100
AcDbEntity
  8
0
  6
HIDDEN
 62
     7
370
     0
100
AcDbSpline
210
0.0
220
0.0
230
1.0
 70
     8
 71
     3
 72
    12
 73
     8
 74
     0
 42
0.00000001
 43
0.00000001
 12
1.0
 22
0.0
 32
0.0
 13
1.0
 23
0.0
 33
0.0
 40
0.0
 40
0.0
 40
0.0
 40
0.0
 40
0.500000000000005
 40
0.500000000000005
 40
0.7500000000000024
 40
0.7500000000000024
 40
1.0
 40
1.0
 40
1.0
 40
1.0
 10
201.6202708978526
 20
95.41684873503712
 30
0.0
 10
201.5895715144853
 20
95.37771089264123
 30
0.0
 10
201.5482214463788
 20
95.34055110991574
 30
0.0
 10
201.4484655181594
 20
95.290614604288
 30
0.0
 10
201.4087686004267
 20
95.27516173414423
 30
0.0
 10
201.311510448779
 20
95.25124219054518
 30
0.0
 10
201.2507342907884
 20
95.2427590967668
 30
0.0
 10
201.1872581959604
 20
95.2427590967668
 30
0.0
  0
LINE
  5
E9
330
1F
100
AcDbEntity
  8
0
  6
HIDDEN
 62
     7
370
     0
100
AcDbLine
 10
201.187258196
 20
95.2427590968
 30
0.0
 11
198.2427718231
 21
95.2427590968
 31
0.0
  0
SPLINE
  5
EA
330
1F
100
AcDbEntity
  8
0
  6
HIDDEN
 62
     7
370
     0
100
AcDbSpline
210
0.0
220
0.0
230
1.0
 70
     8
 71
     3
 72
    12
 73
     8
 74
     0
 42
0.00000001
 43
0.00000001
 12
1.0
 22
0.0
 32
0.0
 13
1.0
 23
0.0
 33
0.0
 40
0.0
 40
0.0
 40
0.0
 40
0.0
 40
0.2499999999999986
 40
0.2499999999999986
 40
0.4999999999999971
 40
0.4999999999999971
 40
1.0
 40
1.0
 40
1.0
 40
1.0
 10
198.2427718230933
 20
95.2427590967668
 30
0.0
 10
198.1791065865628
 20
95.24275909676679
 30
0.0
 10
198.1195003543394
 20
95.25102387243264
 30
0.0
 10
198.0208398294086
 20
95.2752426540158
 30
0.0
 10
197.9818728393933
 20
95.29049997332496
 30
0.0
 10
197.8824860074689
 20
95.3401333275869
 30
0.0
 10
197.8404097600454
 20
95.37777303576101
 30
0.0
 10
197.8097591212011
 20
95.41684873503714
 30
0.0
  0
ELLIPSE
  5
EB
330
1F
100
AcDbEntity
  8
0
  6
HIDDEN
 62
     7
370
     0
100
AcDbEllipse
 10
210.7712726645
 20
119.0694902123
 30
0.0
 11
11.709272349727
 21
24.67718644093745
 31
0.0
210
0.0
220
0.0
230
1.0
 40
0.3419987131
 41
2.061476155780647
 42
2.972663379000661
  0
SPLINE
  5
EC
330
1F
100
AcDbEntity
  8
0
  6
HIDDEN
 62
     7
370
     0
100
AcDbSpline
210
0.0
220
0.0
230
1.0
 70
     8
 71
     3
 72
    12
 73
     8
 74
     0
 42
0.00000001
 43
0.00000001
 12
1.0
 22
0.0
 32
0.0
 13
1.0
 23
0.0
 33
0.0
 40
0.0
 40
0.0
 40
0.0
 40
0.0
 40
0.4999999999999991
 40
0.4999999999999991
 40
0.7499999999999996
 40
0.7499999999999996
 40
1.0
 40
1.0
 40
1.0
 40
1.0
 10
197.8097591212011
 20
142.7221316895005
 30
0.0
 10
197.8404585045684
 20
142.7612695318963
 30
0.0
 10
197.8818085726749
 20
142.7984293146218
 30
0.0
 10
197.9815645008944
 20
142.8483658202496
 30
0.0
 10
198.0212614186271
 20
142.8638186903933
 30
0.0
 10
198.1185195702747
 20
142.8877382339924
 30
0.0
 10
198.1792957282654
 20
142.8962213277708
 30
0.0
 10
198.2427718230933
 20
142.8962213277708
 30
0.0
  0
LINE
  5
ED
330
1F
100
AcDbEntity
  8
0
  6
HIDDEN
 62
     7
370
     0
100
AcDbLine
 10
198.2427718231
 20
142.8962213278
 30
0.0
 11
201.187258196
 21
142.8962213278
 31
0.0
  0
SPLINE
  5
EE
330
1F
100
AcDbEntity
  8
0
  6
HIDDEN
 62
     7
370
     0
100
AcDbSpline
210
0.0
220
0.0
230
1.0
 70
     8
 71
     3
 72
    12
 73
     8
 74
     0
 42
0.00000001
 43
0.00000001
 12
1.0
 22
0.0
 32
0.0
 13
1.0
 23
0.0
 33
0.0
 40
0.0
 40
0.0
 40
0.0
 40
0.0
 40
0.2499999999999982
 40
0.2499999999999982
 40
0.4999999999999963
 40
0.4999999999999963
 40
1.0
 40
1.0
 40
1.0
 40
1.0
 10
201.1872581959604
 20
142.8962213277708
 30
0.0
 10
201.2509234324909
 20
142.8962213277708
 30
0.0
 10
201.3105296647143
 20
142.8879565521049
 30
0.0
 10
201.4091901896452
 20
142.8637377705218
 30
0.0
 10
201.4481571796604
 20
142.8484804512126
 30
0.0
 10
201.5475440115849
 20
142.7988470969507
 30
0.0
 10
201.5896202590083
 20
142.7612073887766
 30
0.0
 10
201.6202708978526
 20
142.7221316895005
 30
0.0
  0
ELLIPSE
  5
EF
330
1F
100
AcDbEntity
  8
0
  6
HIDDEN
 62
     7
370
     0
100
AcDbEllipse
 10
188.6587573545
 20
119.0694902123
 30
0.0
 11
11.70927234972723
 21
24.67718644093745
 31
0.0
210
0.0
220
0.0
230
1.0
 40
0.3419987131
 41
5.203068809370468
 42
6.114256032590513
  0
SPLINE
  5
F0
330
1F
100
AcDbEntity
  8
0
  6
HIDDEN
 62
     7
370
     0
100
AcDbSpline
210
0.0
220
0.0
230
1.0
 70
     8
 71
     3
 72
    12
 73
     8
 74
     0
 42
0.00000001
 43
0.00000001
 12
1.0
 22
0.0
 32
0.0
 13
1.0
 23
0.0
 33
0.0
 40
0.0
 40
0.0
 40
0.0
 40
0.0
 40
0.4999999999999987
 40
0.4999999999999987
 40
0.7499999999999993
 40
0.7499999999999993
 40
1.0
 40
1.0
 40
1.0
 40
1.0
 10
201.6202708978526
 20
127.1659432103133
 30
0.0
 10
201.5895715144853
 20
127.0516075432494
 30
0.0
 10
201.5482214463788
 20
126.9402541904081
 30
0.0
 10
201.4484655181594
 20
126.7875174181593
 30
0.0
 10
201.4087686004267
 20
126.7396575323072
 30
0.0
 10
201.311510448779
 20
126.6650544189578
 30
0.0
 10
201.2507342907884
 20
126.6383001814497
 30
0.0
 10
201.1872581959604
 20
126.6383001814497
 30
0.0
  0
LINE
  5
F1
330
1F
100
AcDbEntity
  8
0
  6
HIDDEN
 62
     7
370
     0
100
AcDbLine
 10
201.187258196
 20
126.6383001814
 30
0.0
 11
198.2427718231
 21
126.6383001814
 31
0.0
  0
SPLINE
  5
F2
330
1F
100
AcDbEntity
  8
0
  6
HIDDEN
 62
     7
370
     0
100
AcDbSpline
210
0.0
220
0.0
230
1.0
 70
     8
 71
     3
 72
    12
 73
     8
 74
     0
 42
0.00000001
 43
0.00000001
 12
1.0
 22
0.0
 32
0.0
 13
1.0
 23
0.0
 33
0.0
 40
0.0
 40
0.0
 40
0.0
 40
0.0
 40
0.2499999999999993
 40
0.2499999999999993
 40
0.4999999999999987
 40
0.4999999999999987
 40
1.0
 40
1.0
 40
1.0
 40
1.0
 10
198.2427718230933
 20
126.6383001814497
 30
0.0
 10
198.1791065865628
 20
126.6383001814497
 30
0.0
 10
198.1195003543394
 20
126.6643723299293
 30
0.0
 10
198.0208398294086
 20
126.7399110807504
 30
0.0
 10
197.9818728393934
 20
126.7871620178467
 30
0.0
 10
197.8824860074689
 20
126.9389858358131
 30
0.0
 10
197.8404097600454
 20
127.0517890855782
 30
0.0
 10
197.8097591212011
 20
127.1659432103133
 30
0.0
  0
ELLIPSE
  5
F3
330
1F
100
AcDbEntity
  8
0
  6
HIDDEN
 62
     7
370
     0
100
AcDbEllipse
 10
210.7712726645
 20
119.0694902123
 30
0.0
 11
-11.70927234972714
 21
24.67718644093745
 31
0.0
210
0.0
220
0.0
230
1.0
 40
0.3419987131
 41
0.1689292745891169
 42
1.080116497809134
  0
LINE
  5
F4
330
1F
100
AcDbEntity
  8
0
  6
HIDDEN
 62
     7
370
     0
100
AcDbLine
 10
189.7150150095
 20
143.7694902113
 30
0.0
 11
189.7150150095
 21
94.3694902123
 31
0.0
  0
LWPOLYLINE
  5
F5
330
1F
100
AcDbEntity
  8
0
  6
HIDDEN
 62
     7
370
     0
100
AcDbPolyline
 90
       32
 70
   128
 43
0.0
 10
207.7150150095
 20
131.3890045464
 10
208.3189105698
 20
131.337501639
 10
208.8980825749
 20
131.1851014519
 10
209.4288196548
 20
130.9380432667
 10
209.8893933712
 20
130.6064416745
 10
210.260947782
 20
130.2038724834
 10
210.528271406
 20
129.7468169235
 10
210.6804199825
 20
129.253986903
 10
210.711164531
 20
128.745558941
 10
210.6192463661
 20
128.2423481378
 10
210.4084286282
 20
127.7649560029
 10
210.0873422203
 20
127.3329270265
 10
209.6691324577
 20
126.9639485255
 10
209.1709208971
 20
126.6731265231
 10
208.6131043784
 20
126.4723673063
 10
208.0185199755
 20
126.3698899811
 10
207.4115100436
 20
126.3698899811
 10
206.8169256406
 20
126.4723673063
 10
206.2591091219
 20
126.6731265231
 10
205.7608975614
 20
126.9639485255
 10
205.3426877987
 20
127.3329270265
 10
205.0216013908
 20
127.7649560029
 10
204.8107836529
 20
128.2423481378
 10
204.718865488
 20
128.745558941
 10
204.7496100365
 20
129.253986903
 10
204.9017586131
 20
129.7468169235
 10
205.169082237
 20
130.2038724834
 10
205.5406366478
 20
130.6064416745
 10
206.0012103642
 20
130.9380432667
 10
206.5319474442
 20
131.1851014519
 10
207.1111194493
 20
131.337501639
 10
207.7150150095
 20
131.3890045464
  0
LINE
  5
F6
330
1F
100
AcDbEntity
  8
0
  6
HIDDEN
 62
     7
370
     0
100
AcDbLine
 10
189.7150150095
 20
99.5194902123
 30
0.0
 11
189.7150150095
 21
138.6040339281
 31
0.0
  0
SPLINE
  5
F7
330
1F
100
AcDbEntity
  8
0
  6
HIDDEN
 62
     7
370
     0
100
AcDbSpline
210
0.0
220
0.0
230
1.0
 70
     8
 71
     3
 72
    14
 73
    10
 74
     0
 42
0.00000001
 43
0.00000001
 12
1.0
 22
0.0
 32
0.0
 13
1.0
 23
0.0
 33
0.0
 40
0.0
 40
0.0
 40
0.0
 40
0.0
 40
0.25
 40
0.25
 40
0.5
 40
0.5
 40
0.75
 40
0.75
 40
1.0
 40
1.0
 40
1.0
 40
1.0
 10
188.6741539813985
 20
131.3639657573422
 30
0.0
 10
188.7058691157292
 20
131.306182574999
 30
0.0
 10
188.7404836410296
 20
131.2497699139241
 30
0.0
 10
188.8201548364449
 20
131.1421704639087
 30
0.0
 10
188.8652107134753
 20
131.0902578369876
 30
0.0
 10
188.9757651259808
 20
131.0040592122904
 30
0.0
 10
189.0431505401849
 20
130.9699697923186
 30
0.0
 10
189.193780060083
 20
130.9678674003018
 30
0.0
 10
189.2636072968484
 20
131.0012391731465
 30
0.0
 10
189.3200381206518
 20
131.0450518416972
 30
0.0
  0
SPLINE
  5
F8
330
1F
100
AcDbEntity
  8
0
  6
HIDDEN
 62
     7
370
     0
100
AcDbSpline
210
0.0
220
0.0
230
1.0
 70
     8
 71
     3
 72
    16
 73
    12
 74
     0
 42
0.00000001
 43
0.00000001
 12
1.0
 22
0.0
 32
0.0
 13
1.0
 23
0.0
 33
0.0
 40
0.0
 40
0.0
 40
0.0
 40
0.0
 40
0.0625000000000008
 40
0.0625000000000008
 40
0.1250000000000017
 40
0.1250000000000017
 40
0.2500000000000014
 40
0.2500000000000014
 40
0.500000000000001
 40
0.500000000000001
 40
1.0
 40
1.0
 40
1.0
 40
1.0
 10
189.32003812062
 20
131.0450518417279
 30
0.0
 10
189.3317723550669
 20
131.0541622549758
 30
0.0
 10
189.3453041105459
 20
131.0622396109222
 30
0.0
 10
189.3752915709757
 20
131.0704864525991
 30
0.0
 10
189.390286277384
 20
131.0695591350115
 30
0.0
 10
189.4260266997787
 20
131.0567926154797
 30
0.0
 10
189.44004003678
 20
131.0391439689694
 30
0.0
 10
189.4741841255613
 20
130.9844910489378
 30
0.0
 10
189.4851560296797
 20
130.9430913812793
 30
0.0
 10
189.511001569946
 20
130.8146016375566
 30
0.0
 10
189.5150150095269
 20
130.7239835499179
 30
0.0
 10
189.5150150095269
 20
130.6317644453638
 30
0.0
  0
LINE
  5
F9
330
1F
100
AcDbEntity
  8
0
  6
HIDDEN
 62
     7
370
     0
100
AcDbLine
 10
189.5150150095
 20
107.5072159792
 30
0.0
 11
189.5150150095
 21
130.6317644454
 31
0.0
  0
SPLINE
  5
FA
330
1F
100
AcDbEntity
  8
0
  6
HIDDEN
 62
     7
370
     0
100
AcDbSpline
210
0.0
220
0.0
230
1.0
 70
     8
 71
     3
 72
    16
 73
    12
 74
     0
 42
0.00000001
 43
0.00000001
 12
1.0
 22
0.0
 32
0.0
 13
1.0
 23
0.0
 33
0.0
 40
0.0
 40
0.0
 40
0.0
 40
0.0
 40
0.4999999999999999
 40
0.4999999999999999
 40
0.7500000000000022
 40
0.7500000000000022
 40
0.875000000000003
 40
0.875000000000003
 40
0.9375000000000014
 40
0.9375000000000014
 40
1.0
 40
1.0
 40
1.0
 40
1.0
 10
189.5150150095268
 20
107.5072159791737
 30
0.0
 10
189.5150150095268
 20
107.4146321282698
 30
0.0
 10
189.5109577074118
 20
107.3244196724095
 30
0.0
 10
189.485300464617
 20
107.1964785452911
 30
0.0
 10
189.4739850188749
 20
107.1540653308792
 30
0.0
 10
189.4399536515663
 20
107.0997512874281
 30
0.0
 10
189.4260746703625
 20
107.0821699520382
 30
0.0
 10
189.3901389885951
 20
107.0693862641032
 30
0.0
 10
189.3751886693323
 20
107.0685107659551
 30
0.0
 10
189.3452901565905
 20
107.0767562010745
 30
0.0
 10
189.3317572962252
 20
107.0848298612462
 30
0.0
 10
189.3200381206512
 20
107.0939285828403
 30
0.0
  0
SPLINE
  5
FB
330
1F
100
AcDbEntity
  8
0
  6
HIDDEN
 62
     7
370
     0
100
AcDbSpline
210
0.0
220
0.0
230
1.0
 70
     8
 71
     3
 72
    14
 73
    10
 74
     0
 42
0.00000001
 43
0.00000001
 12
1.0
 22
0.0
 32
0.0
 13
1.0
 23
0.0
 33
0.0
 40
0.0
 40
0.0
 40
0.0
 40
0.0
 40
0.25
 40
0.25
 40
0.5
 40
0.5
 40
0.75
 40
0.75
 40
1.0
 40
1.0
 40
1.0
 40
1.0
 10
189.3200381206581
 20
107.0939285828489
 30
0.0
 10
189.2635823560493
 20
107.1377606153436
 30
0.0
 10
189.1927167297994
 20
107.1710916517655
 30
0.0
 10
189.0442596486268
 20
107.169032641618
 30
0.0
 10
188.9750662893193
 20
107.1344366172163
 30
0.0
 10
188.8653508511851
 20
107.0487712605535
 30
0.0
 10
188.8201062718537
 20
106.9967488158455
 30
0.0
 10
188.74047956243
 20
106.8892005555156
 30
0.0
 10
188.7058694138965
 20
106.8327983927825
 30
0.0
 10
188.6741539813973
 20
106.775014667193
 30
0.0
  0
SPLINE
  5
FC
330
1F
100
AcDbEntity
  8
0
  6
HIDDEN
 62
     7
370
     0
100
AcDbSpline
210
0.0
220
0.0
230
1.0
 70
     8
 71
     3
 72
    10
 73
     6
 74
     0
 42
0.00000001
 43
0.00000001
 12
1.0
 22
0.0
 32
0.0
 13
1.0
 23
0.0
 33
0.0
 40
0.0
 40
0.0
 40
0.0
 40
0.0
 40
0.5
 40
0.5
 40
1.0
 40
1.0
 40
1.0
 40
1.0
 10
188.6741539813978
 20
106.7750146671941
 30
0.0
 10
188.6023741934744
 20
106.6442359502922
 30
0.0
 10
188.5499146791663
 20
106.510135800789
 30
0.0
 10
188.4605716150651
 20
106.2420432378003
 30
0.0
 10
188.4245760055654
 20
106.1077978662114
 30
0.0
 10
188.3936946659673
 20
105.9744434887363
 30
0.0
  0
SPLINE
  5
FD
330
1F
100
AcDbEntity
  8
0
  6
HIDDEN
 62
     7
370
     0
100
AcDbSpline
210
0.0
220
0.0
230
1.0
 70
     8
 71
     3
 72
    10
 73
     6
 74
     0
 42
0.00000001
 43
0.00000001
 12
1.0
 22
0.0
 32
0.0
 13
1.0
 23
0.0
 33
0.0
 40
0.0
 40
0.0
 40
0.0
 40
0.0
 40
0.5
 40
0.5
 40
1.0
 40
1.0
 40
1.0
 40
1.0
 10
188.3936946659673
 20
101.7725803442639
 30
0.0
 10
188.4245676977795
 20
101.7562971968968
 30
0.0
 10
188.4605545606924
 20
101.7440396071712
 30
0.0
 10
188.5498891465836
 20
101.7269366183425
 30
0.0
 10
188.6023450060062
 20
101.7221370224841
 30
0.0
 10
188.6741539813985
 20
101.7203329310762
 30
0.0
  0
SPLINE
  5
FE
330
1F
100
AcDbEntity
  8
0
  6
HIDDEN
 62
     7
370
     0
100
AcDbSpline
210
0.0
220
0.0
230
1.0
 70
     8
 71
     3
 72
     8
 73
     4
 74
     0
 42
0.00000001
 43
0.00000001
 12
1.0
 22
0.0
 32
0.0
 13
1.0
 23
0.0
 33
0.0
 40
0.0
 40
0.0
 40
0.0
 40
0.0
 40
1.0
 40
1.0
 40
1.0
 40
1.0
 10
189.4973183861519
 20
101.5944485528292
 30
0.0
 10
189.511305194694
 20
101.5662081622475
 30
0.0
 10
189.5150150095266
 20
101.5430761194367
 30
0.0
 10
189.5150150095269
 20
101.5227357466015
 30
0.0
  0
LINE
  5
FF
330
1F
100
AcDbEntity
  8
0
  6
HIDDEN
 62
     7
370
     0
100
AcDbLine
 10
189.5150150095
 20
101.2296699334
 30
0.0
 11
189.5150150095
 21
101.5227357466
 31
0.0
  0
LINE
  5
100
330
1F
100
AcDbEntity
  8
0
  6
HIDDEN
 62
     7
370
     0
100
AcDbLine
 10
189.5150150095
 20
136.6162446779
 30
0.0
 11
189.5150150095
 21
136.9093104911
 31
0.0
  0
SPLINE
  5
101
330
1F
100
AcDbEntity
  8
0
  6
HIDDEN
 62
     7
370
     0
100
AcDbSpline
210
0.0
220
0.0
230
1.0
 70
     8
 71
     3
 72
    10
 73
     6
 74
     0
 42
0.00000001
 43
0.00000001
 12
1.0
 22
0.0
 32
0.0
 13
1.0
 23
0.0
 33
0.0
 40
0.0
 40
0.0
 40
0.0
 40
0.0
 40
0.5
 40
0.5
 40
1.0
 40
1.0
 40
1.0
 40
1.0
 10
188.6741539813993
 20
136.4186474934613
 30
0.0
 10
188.6023450060067
 20
136.4168434020534
 30
0.0
 10
188.549889146584
 20
136.4120438061951
 30
0.0
 10
188.4605545606926
 20
136.3949408173663
 30
0.0
 10
188.4245676977796
 20
136.3826832276407
 30
0.0
 10
188.3936946659673
 20
136.3664000802736
 30
0.0
  0
SPLINE
  5
102
330
1F
100
AcDbEntity
  8
0
  6
HIDDEN
 62
     7
370
     0
100
AcDbSpline
210
0.0
220
0.0
230
1.0
 70
     8
 71
     3
 72
    10
 73
     6
 74
     0
 42
0.00000001
 43
0.00000001
 12
1.0
 22
0.0
 32
0.0
 13
1.0
 23
0.0
 33
0.0
 40
0.0
 40
0.0
 40
0.0
 40
0.0
 40
0.5
 40
0.5
 40
1.0
 40
1.0
 40
1.0
 40
1.0
 10
188.3936946659673
 20
132.1645369358011
 30
0.0
 10
188.4245760055655
 20
132.0311825583259
 30
0.0
 10
188.4605716150652
 20
131.8969371867368
 30
0.0
 10
188.5499146791666
 20
131.6288446237476
 30
0.0
 10
188.6023741934748
 20
131.4947444742442
 30
0.0
 10
188.6741539813985
 20
131.3639657573422
 30
0.0
  0
LINE
  5
103
330
1F
100
AcDbEntity
  8
0
  6
HIDDEN
 62
     7
370
     0
100
AcDbLine
 10
189.5150150095
 20
101.5227357466
 30
0.0
 11
189.5150150095
 21
113.0850099797
 31
0.0
  0
LINE
  5
104
330
1F
100
AcDbEntity
  8
0
  6
HIDDEN
 62
     7
370
     0
100
AcDbLine
 10
189.5150150095
 20
125.0539704448
 30
0.0
 11
189.5150150095
 21
136.6162446779
 31
0.0
  0
LWPOLYLINE
  5
105
330
1F
100
AcDbEntity
  8
0
  6
HIDDEN
 62
     7
370
     0
100
AcDbPolyline
 90
       29
 70
   128
 43
0.0
 10
207.7150150095
 20
130.8060431885
 10
208.2713173444
 20
130.7534751332
 10
208.7997243573
 20
130.598406949
 10
209.2737395142
 20
130.3486144023
 10
209.6695937157
 20
130.0166231343
 10
209.9674371793
 20
129.6190805734
 10
210.15233479
 20
129.1759211638
 10
210.2150150095
 20
128.7093667687
 10
210.15233479
 20
128.2428123735
 10
209.9674371793
 20
127.7996529639
 10
209.6695937157
 20
127.4021104031
 10
209.2737395142
 20
127.0701191351
 10
208.7997243573
 20
126.8203265883
 10
208.2713173444
 20
126.6652584041
 10
207.7150150095
 20
126.6126903488
 10
207.1587126746
 20
126.6652584041
 10
206.6303056617
 20
126.8203265883
 10
206.1562905049
 20
127.0701191351
 10
205.7604363034
 20
127.4021104031
 10
205.4625928398
 20
127.7996529639
 10
205.2776952291
 20
128.2428123735
 10
205.2150150095
 20
128.7093667687
 10
205.2776952291
 20
129.1759211638
 10
205.4625928398
 20
129.6190805734
 10
205.7604363034
 20
130.0166231343
 10
206.1562905049
 20
130.3486144023
 10
206.6303056617
 20
130.598406949
 10
207.1587126746
 20
130.7534751332
 10
207.7150150095
 20
130.8060431885
  0
SPLINE
  5
106
330
1F
100
AcDbEntity
  8
0
  6
HIDDEN
 62
     7
370
     0
100
AcDbSpline
210
0.0
220
0.0
230
1.0
 70
     8
 71
     3
 72
    12
 73
     8
 74
     0
 42
0.00000001
 43
0.00000001
 12
1.0
 22
0.0
 32
0.0
 13
1.0
 23
0.0
 33
0.0
 40
0.0
 40
0.0
 40
0.0
 40
0.0
 40
0.5000000000000002
 40
0.5000000000000002
 40
0.7500000000000001
 40
0.7500000000000001
 40
1.0
 40
1.0
 40
1.0
 40
1.0
 10
206.8425714517595
 20
127.7153669128997
 30
0.0
 10
206.6759901977244
 20
127.8783363599418
 30
0.0
 10
206.5515182271715
 20
128.0438637763152
 30
0.0
 10
206.4615991113027
 20
128.3538713674331
 30
0.0
 10
206.4483231408119
 20
128.4669843691961
 30
0.0
 10
206.4511349984319
 20
128.7056187009503
 30
0.0
 10
206.4666852536992
 20
128.8318142968084
 30
0.0
 10
206.492189548327
 20
128.9621437074446
 30
0.0
  0
SPLINE
  5
107
330
1F
100
AcDbEntity
  8
0
  6
HIDDEN
 62
     7
370
     0
100
AcDbSpline
210
0.0
220
0.0
230
1.0
 70
     8
 71
     3
 72
    68
 73
    64
 74
     0
 42
0.00000001
 43
0.00000001
 12
1.0
 22
0.0
 32
0.0
 13
1.0
 23
0.0
 33
0.0
 40
0.0
 40
0.0
 40
0.0
 40
0.0
 40
0.0312500000000002
 40
0.0312500000000002
 40
0.0625000000000004
 40
0.0625000000000004
 40
0.1250000000000009
 40
0.1250000000000009
 40
0.1562500000000009
 40
0.1562500000000009
 40
0.1875000000000008
 40
0.1875000000000008
 40
0.2187500000000007
 40
0.2187500000000007
 40
0.2500000000000007
 40
0.2500000000000007
 40
0.2812500000000006
 40
0.2812500000000006
 40
0.3125000000000006
 40
0.3125000000000006
 40
0.3437500000000006
 40
0.3437500000000006
 40
0.3750000000000006
 40
0.3750000000000006
 40
0.4062500000000005
 40
0.4062500000000005
 40
0.4375000000000005
 40
0.4375000000000005
 40
0.4687500000000004
 40
0.4687500000000004
 40
0.5000000000000004
 40
0.5000000000000004
 40
0.5312500000000004
 40
0.5312500000000004
 40
0.5625000000000003
 40
0.5625000000000003
 40
0.5937500000000003
 40
0.5937500000000003
 40
0.6250000000000003
 40
0.6250000000000003
 40
0.6562500000000003
 40
0.6562500000000003
 40
0.6875000000000002
 40
0.6875000000000002
 40
0.7187500000000002
 40
0.7187500000000002
 40
0.7500000000000002
 40
0.7500000000000002
 40
0.7812500000000002
 40
0.7812500000000002
 40
0.8125000000000001
 40
0.8125000000000001
 40
0.8437500000000001
 40
0.8437500000000001
 40
0.8750000000000001
 40
0.8750000000000001
 40
0.9062500000000001
 40
0.9062500000000001
 40
0.9375
 40
0.9375
 40
0.96875
 40
0.96875
 40
1.0
 40
1.0
 40
1.0
 40
1.0
 10
206.492189548327
 20
128.9621437074444
 30
0.0
 10
206.6287825091429
 20
129.0518580975135
 30
0.0
 10
206.7612370250183
 20
129.1371531082151
 30
0.0
 10
207.0252306285352
 20
129.2975266867624
 30
0.0
 10
207.1576534490685
 20
129.3729803222772
 30
0.0
 10
207.5535758038757
 20
129.5756095968527
 30
0.0
 10
207.8132525241595
 20
129.679073658332
 30
0.0
 10
208.2148970834615
 20
129.7702772736233
 30
0.0
 10
208.3506284444197
 20
129.7894906870107
 30
0.0
 10
208.6186874146727
 20
129.7995201684056
 30
0.0
 10
208.7521681146557
 20
129.7907223176572
 30
0.0
 10
209.0183972244001
 20
129.7375611516451
 30
0.0
 10
209.1466669974173
 20
129.6940564212144
 30
0.0
 10
209.3927675008638
 20
129.5670182229491
 30
0.0
 10
209.5100162572988
 20
129.4827361067391
 30
0.0
 10
209.7175551919216
 20
129.2801844798254
 30
0.0
 10
209.8111908792345
 20
129.158448798422
 30
0.0
 10
209.9661696250814
 20
128.891729253292
 30
0.0
 10
210.028994275071
 20
128.7451446533172
 30
0.0
 10
210.1253900986253
 20
128.4404013394849
 30
0.0
 10
210.1588412121617
 20
128.2841992984268
 30
0.0
 10
210.2030547272637
 20
127.965789160647
 30
0.0
 10
210.2134587718719
 20
127.8040146580079
 30
0.0
 10
210.2162416196718
 20
127.4873509100358
 30
0.0
 10
210.2088138543056
 20
127.3307800626948
 30
0.0
 10
210.1810995726193
 20
127.0209769033904
 30
0.0
 10
210.1606168238995
 20
126.8673579358697
 30
0.0
 10
210.1126741905185
 20
126.5714638397227
 30
0.0
 10
210.085058281099
 20
126.4281416319707
 30
0.0
 10
210.029605355329
 20
126.1521657658137
 30
0.0
 10
210.0013383062829
 20
126.0179400619531
 30
0.0
 10
209.9588767047372
 20
125.7752069668801
 30
0.0
 10
209.9451210589498
 20
125.664643255757
 30
0.0
 10
209.9476889158776
 20
125.4948145527127
 30
0.0
 10
209.964382617454
 20
125.4342965389783
 30
0.0
 10
210.014570123239
 20
125.3644960388944
 30
0.0
 10
210.0470634920177
 20
125.3530336025467
 30
0.0
 10
210.10897298703
 20
125.361617440579
 30
0.0
 10
210.1382166203071
 20
125.3813385221962
 30
0.0
 10
210.1846897471468
 20
125.443187969181
 30
0.0
 10
210.202092146073
 20
125.4860106267109
 30
0.0
 10
210.2180037655634
 20
125.5897375709923
 30
0.0
 10
210.2167586410336
 20
125.6504627948667
 30
0.0
 10
210.1910070336394
 20
125.7886801245297
 30
0.0
 10
210.1659802175931
 20
125.8673093957763
 30
0.0
 10
210.0886356712241
 20
126.0362238036297
 30
0.0
 10
210.0366911456881
 20
126.1264532828821
 30
0.0
 10
209.9013535322434
 20
126.3183796040271
 30
0.0
 10
209.8196269027476
 20
126.4174282691254
 30
0.0
 10
209.6304760022101
 20
126.6160271699924
 30
0.0
 10
209.5207882624756
 20
126.7175777625518
 30
0.0
 10
209.2846595749813
 20
126.9110586539447
 30
0.0
 10
209.1569942503544
 20
127.0043523211219
 30
0.0
 10
208.8873431646789
 20
127.1798742169877
 30
0.0
 10
208.7484650391789
 20
127.2602218765913
 30
0.0
 10
208.4626899768695
 20
127.4063246339139
 30
0.0
 10
208.3160560381343
 20
127.4717573751838
 30
0.0
 10
208.0238658378334
 20
127.5828690208246
 30
0.0
 10
207.876605152218
 20
127.6294001907527
 30
0.0
 10
207.5801990889206
 20
127.7008132880255
 30
0.0
 10
207.4335225659877
 20
127.7252690023153
 30
0.0
 10
207.1394953876996
 20
127.7457004443626
 30
0.0
 10
206.9908428729938
 20
127.7417064962666
 30
0.0
 10
206.8425714517594
 20
127.7153669128998
 30
0.0
  0
SPLINE
  5
108
330
1F
100
AcDbEntity
  8
0
  6
HIDDEN
 62
     7
370
     0
100
AcDbSpline
210
0.0
220
0.0
230
1.0
 70
     8
 71
     3
 72
    66
 73
    62
 74
     0
 42
0.00000001
 43
0.00000001
 12
1.0
 22
0.0
 32
0.0
 13
1.0
 23
0.0
 33
0.0
 40
-0.03125
 40
-0.03125
 40
0.0
 40
0.0
 40
0.0312500000000001
 40
0.0312500000000001
 40
0.0625000000000002
 40
0.0625000000000002
 40
0.0937500000000003
 40
0.0937500000000003
 40
0.1250000000000004
 40
0.1250000000000004
 40
0.1875000000000004
 40
0.1875000000000004
 40
0.2187500000000005
 40
0.2187500000000005
 40
0.2500000000000005
 40
0.2500000000000005
 40
0.2812500000000005
 40
0.2812500000000005
 40
0.3125000000000004
 40
0.3125000000000004
 40
0.3437500000000004
 40
0.3437500000000004
 40
0.3750000000000004
 40
0.3750000000000004
 40
0.4062500000000004
 40
0.4062500000000004
 40
0.4375000000000004
 40
0.4375000000000004
 40
0.4687500000000003
 40
0.4687500000000003
 40
0.5000000000000003
 40
0.5000000000000003
 40
0.5312500000000003
 40
0.5312500000000003
 40
0.5625000000000003
 40
0.5625000000000003
 40
0.5937500000000002
 40
0.5937500000000002
 40
0.6250000000000002
 40
0.6250000000000002
 40
0.6875000000000002
 40
0.6875000000000002
 40
0.7187500000000002
 40
0.7187500000000002
 40
0.7500000000000001
 40
0.7500000000000001
 40
0.7812500000000001
 40
0.7812500000000001
 40
0.8125000000000001
 40
0.8125000000000001
 40
0.8437500000000001
 40
0.8437500000000001
 40
0.8750000000000001
 40
0.8750000000000001
 40
0.9062500000000001
 40
0.9062500000000001
 40
0.9375
 40
0.9375
 40
0.96875
 40
0.96875
 40
1.0
 40
1.0
 40
1.03125
 40
1.03125
 10
207.8815679172838
 20
124.8726143396787
 30
0.0
 10
207.5484621017702
 20
124.8726143396787
 30
0.0
 10
207.3849711481804
 20
124.8621279315715
 30
0.0
 10
207.0637690028114
 20
124.8207908183722
 30
0.0
 10
206.9043566452551
 20
124.7893806943005
 30
0.0
 10
206.6023179181147
 20
124.706834014857
 30
0.0
 10
206.4592698807531
 20
124.6559441253928
 30
0.0
 10
206.1885366588022
 20
124.5334151133772
 30
0.0
 10
206.0614671438357
 20
124.4616833466075
 30
0.0
 10
205.7184591328628
 20
124.2209463126219
 30
0.0
 10
205.5326268714589
 20
124.0198792843391
 30
0.0
 10
205.3448215083003
 20
123.6748210512794
 30
0.0
 10
205.2960814315219
 20
123.5504377416428
 30
0.0
 10
205.2313173794071
 20
123.2912040726549
 30
0.0
 10
205.215125268873
 20
123.1574825616346
 30
0.0
 10
205.2149058617063
 20
122.8815597513433
 30
0.0
 10
205.2314539557397
 20
122.7383138605346
 30
0.0
 10
205.2958831094433
 20
122.4565486695561
 30
0.0
 10
205.3435415786282
 20
122.3165269432394
 30
0.0
 10
205.4702375464269
 20
122.0390245350653
 30
0.0
 10
205.5478111322259
 20
121.9050187342785
 30
0.0
 10
205.728417758406
 20
121.6502409586646
 30
0.0
 10
205.8329708075217
 20
121.5277756005869
 30
0.0
 10
206.0629794478659
 20
121.3035492548404
 30
0.0
 10
206.1878595062407
 20
121.2018344254028
 30
0.0
 10
206.4577590778705
 20
121.020608136511
 30
0.0
 10
206.6038554443535
 20
120.9409876686242
 30
0.0
 10
206.9045680681621
 20
120.8131030838194
 30
0.0
 10
207.0605157565196
 20
120.7637189245224
 30
0.0
 10
207.3842956202681
 20
120.6964113408113
 30
0.0
 10
207.5499939640181
 20
120.6793297974052
 30
0.0
 10
207.8780378440254
 20
120.6791936172544
 30
0.0
 10
208.0433633953621
 20
120.6960674241319
 30
0.0
 10
208.3676918513725
 20
120.7631930251144
 30
0.0
 10
208.5240446522342
 20
120.8125701592809
 30
0.0
 10
208.8257608304634
 20
120.9407423247629
 30
0.0
 10
208.971851360178
 20
121.020372144454
 30
0.0
 10
209.2415651375831
 20
121.2013823756578
 30
0.0
 10
209.3667464712261
 20
121.3032258955152
 30
0.0
 10
209.7133570116537
 20
121.6412036244237
 30
0.0
 10
209.8964998465421
 20
121.9005430530947
 30
0.0
 10
210.0861664066814
 20
122.3157475289716
 30
0.0
 10
210.1338041541099
 20
122.4554768681497
 30
0.0
 10
210.1983223890421
 20
122.7367812583102
 30
0.0
 10
210.2150194947838
 20
122.8800134702145
 30
0.0
 10
210.2150105224164
 20
123.1563471504617
 30
0.0
 10
210.1988796864698
 20
123.2902198615781
 30
0.0
 10
210.1342200098012
 20
123.5496647445965
 30
0.0
 10
210.085549655162
 20
123.6741106728197
 30
0.0
 10
209.9601202828432
 20
123.9047312272118
 30
0.0
 10
209.8823766303531
 20
124.0130460734027
 30
0.0
 10
209.7000771433402
 20
124.2120134944736
 30
0.0
 10
209.5971139900459
 20
124.3013154677362
 30
0.0
 10
209.3679130177534
 20
124.4621006831528
 30
0.0
 10
209.2402820396454
 20
124.5340159324797
 30
0.0
 10
208.9704363782088
 20
124.6560377562398
 30
0.0
 10
208.8275816348217
 20
124.7068859970511
 30
0.0
 10
208.5251841075757
 20
124.7894980504257
 30
0.0
 10
208.3659688766309
 20
124.8208343967919
 30
0.0
 10
208.0450811453128
 20
124.8621190784202
 30
0.0
 10
207.8815679172838
 20
124.8726143396787
 30
0.0
 10
207.5484621017702
 20
124.8726143396787
 30
0.0
  0
CIRCLE
  5
109
330
1F
100
AcDbEntity
  8
0
  6
HIDDEN
 62
     7
370
     0
100
AcDbCircle
 10
175.7150150095
 20
119.0694902123
 30
0.0
 40
3.050000000000011
  0
LWPOLYLINE
  5
10A
330
1F
100
AcDbEntity
  8
0
  6
HIDDEN
 62
     7
370
     0
100
AcDbPolyline
 90
        9
 70
   128
 43
0.0
 10
206.4921895483
 20
128.9621437074
 10
206.4477859889
 20
128.9211337076
 10
206.4290714996
 20
128.8429350754
 10
206.4363859347
 20
128.7289678945
 10
206.4695964645
 20
128.5813018041
 10
206.5280999871
 20
128.4026184137
 10
206.6108340812
 20
128.1961626061
 10
206.7162962992
 20
127.9656836097
 10
206.8425714518
 20
127.7153669129
  0
LINE
  5
10B
330
1F
100
AcDbEntity
  8
0
  6
HIDDEN
 62
     7
370
     0
100
AcDbLine
 10
164.7430548651
 20
129.8581653469
 30
0.0
 11
164.7430548651
 21
108.2808150777
 31
0.0
  0
LINE
  5
10C
330
1F
100
AcDbEntity
  8
0
  6
HIDDEN
 62
     7
370
     0
100
AcDbLine
 10
160.7430548651
 20
130.2393631933
 30
0.0
 11
160.7430548651
 21
107.8996172312
 31
0.0
  0
LINE
  5
10D
330
1F
100
AcDbEntity
  8
0
  6
HIDDEN
 62
     7
370
     0
100
AcDbLine
 10
159.7150150095
 20
107.3060781438
 30
0.0
 11
159.7150150095
 21
130.8173050537
 31
0.0
  0
LINE
  5
10E
330
1F
100
AcDbEntity
  8
0
  6
HIDDEN
 62
     7
370
     0
100
AcDbLine
 10
169.3430548651
 20
129.5694902123
 30
0.0
 11
169.3430548651
 21
108.5694902123
 31
0.0
  0
LINE
  5
10F
330
1F
100
AcDbEntity
  8
0
  6
HIDDEN
 62
     7
370
     0
100
AcDbLine
 10
163.2430548651
 20
129.5694902123
 30
0.0
 11
163.2430548651
 21
108.5694902123
 31
0.0
  0
LINE
  5
110
330
1F
100
AcDbEntity
  8
0
  6
HIDDEN
 62
     7
370
     0
100
AcDbLine
 10
164.2430548651
 20
129.5694902123
 30
0.0
 11
164.2430548651
 21
108.5694902123
 31
0.0
  0
LINE
  5
111
330
1F
100
AcDbEntity
  8
0
  6
HIDDEN
 62
     7
370
     0
100
AcDbLine
 10
179.7150150095
 20
129.0694901784
 30
0.0
 11
179.7150150095
 21
109.0694902123
 31
0.0
  0
SPLINE
  5
112
330
1F
100
AcDbEntity
  8
0
  6
HIDDEN
 62
     7
370
     0
100
AcDbSpline
210
0.0
220
0.0
230
1.0
 70
     8
 71
     3
 72
    66
 73
    62
 74
     0
 42
0.00000001
 43
0.00000001
 12
1.0
 22
0.0
 32
0.0
 13
1.0
 23
0.0
 33
0.0
 40
-0.0312499999999996
 40
-0.0312499999999996
 40
0.0
 40
0.0
 40
0.0312500000000001
 40
0.0312500000000001
 40
0.0625000000000002
 40
0.0625000000000002
 40
0.0937500000000004
 40
0.0937500000000004
 40
0.1250000000000005
 40
0.1250000000000005
 40
0.1875000000000006
 40
0.1875000000000006
 40
0.2187500000000006
 40
0.2187500000000006
 40
0.2500000000000007
 40
0.2500000000000007
 40
0.2812500000000008
 40
0.2812500000000008
 40
0.3125000000000008
 40
0.3125000000000008
 40
0.3437500000000009
 40
0.3437500000000009
 40
0.375000000000001
 40
0.375000000000001
 40
0.4062500000000011
 40
0.4062500000000011
 40
0.4375000000000011
 40
0.4375000000000011
 40
0.4687500000000012
 40
0.4687500000000012
 40
0.5000000000000012
 40
0.5000000000000012
 40
0.5312500000000013
 40
0.5312500000000013
 40
0.5625000000000014
 40
0.5625000000000014
 40
0.5937500000000016
 40
0.5937500000000016
 40
0.6250000000000019
 40
0.6250000000000019
 40
0.6562500000000019
 40
0.6562500000000019
 40
0.6875000000000018
 40
0.6875000000000018
 40
0.7187500000000017
 40
0.7187500000000017
 40
0.7500000000000016
 40
0.7500000000000016
 40
0.7812500000000014
 40
0.7812500000000014
 40
0.8125000000000013
 40
0.8125000000000013
 40
0.8750000000000011
 40
0.8750000000000011
 40
0.9062500000000011
 40
0.9062500000000011
 40
0.9375000000000008
 40
0.9375000000000008
 40
0.9687500000000004
 40
0.9687500000000004
 40
1.0
 40
1.0
 40
1.03125
 40
1.03125
 10
175.5123363625791
 20
122.1194902122687
 30
0.0
 10
175.9176936564747
 20
122.1194902122687
 30
0.0
 10
176.1167535478105
 20
122.0994906526522
 30
0.0
 10
176.5080075323902
 20
122.021347149952
 30
0.0
 10
176.7022802911379
 20
121.9621860484312
 30
0.0
 10
177.0710437176892
 20
121.8087543615369
 30
0.0
 10
177.2457688760674
 20
121.7150275516947
 30
0.0
 10
177.5764461796012
 20
121.4937734492898
 30
0.0
 10
177.7320937236041
 20
121.3657920822952
 30
0.0
 10
178.1515610932727
 20
120.9462369852952
 30
0.0
 10
178.378449234803
 20
120.6077584265918
 30
0.0
 10
178.6072458581878
 20
120.0578795388736
 30
0.0
 10
178.6664381130366
 20
119.8644796931302
 30
0.0
 10
178.7452455232972
 20
119.4702515427723
 30
0.0
 10
178.7648849395776
 20
119.2716127153399
 30
0.0
 10
178.7651438039992
 20
118.8713124294415
 30
0.0
 10
178.7450731193662
 20
118.6679731027204
 30
0.0
 10
178.6667354367363
 20
118.2758815821128
 30
0.0
 10
178.6087856686978
 20
118.0851757137976
 30
0.0
 10
178.4548425268178
 20
117.714451897211
 30
0.0
 10
178.3599039130951
 20
117.5377252374022
 30
0.0
 10
178.139546497218
 20
117.2084721264778
 30
0.0
 10
178.0122664712897
 20
117.0533509028814
 30
0.0
 10
177.7305108799592
 20
116.771674207951
 30
0.0
 10
177.5777225505016
 20
116.6462410230466
 30
0.0
 10
177.2482954683447
 20
116.4254654296925
 30
0.0
 10
177.069749465193
 20
116.3296341769923
 30
0.0
 10
176.7021771396428
 20
116.1768050464973
 30
0.0
 10
176.5120231129318
 20
116.118633288553
 30
0.0
 10
176.1184826902294
 20
116.0396399962081
 30
0.0
 10
175.9160486189682
 20
116.0195768705659
 30
0.0
 10
175.5166195436028
 20
116.0194041244471
 30
0.0
 10
175.3166005650469
 20
116.0388874985364
 30
0.0
 10
174.9204846175976
 20
116.1178790701376
 30
0.0
 10
174.7297517894057
 20
116.1761592899896
 30
0.0
 10
174.362120348826
 20
116.3287269105976
 30
0.0
 10
174.1836339166582
 20
116.4243356973709
 30
0.0
 10
173.8534286576942
 20
116.6453477424559
 30
0.0
 10
173.7005400796322
 20
116.7707976412261
 30
0.0
 10
173.4189436850941
 20
117.0520281302314
 30
0.0
 10
173.2913127622186
 20
117.2074110081453
 30
0.0
 10
173.0709873272189
 20
117.5362618661882
 30
0.0
 10
172.9767608702535
 20
117.7111499726022
 30
0.0
 10
172.8218263496504
 20
118.083293823963
 30
0.0
 10
172.7638140640481
 20
118.274099865772
 30
0.0
 10
172.68539480977
 20
118.6649728836907
 30
0.0
 10
172.6650807298035
 20
118.867430445073
 30
0.0
 10
172.6649496134995
 20
119.2695610499924
 30
0.0
 10
172.6845743068588
 20
119.4682850951676
 30
0.0
 10
172.7627407572725
 20
119.8611245663042
 30
0.0
 10
172.8220282026124
 20
120.0557688437068
 30
0.0
 10
173.0511090456953
 20
120.6072085971211
 30
0.0
 10
173.2779398965895
 20
120.9455481628202
 30
0.0
 10
173.6972785979102
 20
121.3652138254717
 30
0.0
 10
173.8526315936601
 20
121.493059831245
 30
0.0
 10
174.1835994267973
 20
121.7146609059468
 30
0.0
 10
174.3581607269937
 20
121.8083016399237
 30
0.0
 10
174.7257340345685
 20
121.9614557606229
 30
0.0
 10
174.9204208962065
 20
122.020959506269
 30
0.0
 10
175.312896846143
 20
122.099482255332
 30
0.0
 10
175.5123363625791
 20
122.1194902122687
 30
0.0
 10
175.9176936564747
 20
122.1194902122687
 30
0.0
  0
SPLINE
  5
113
330
1F
100
AcDbEntity
  8
0
  6
HIDDEN
 62
     7
370
     0
100
AcDbSpline
210
0.0
220
0.0
230
1.0
 70
     8
 71
     3
 72
    66
 73
    62
 74
     0
 42
0.00000001
 43
0.00000001
 12
1.0
 22
0.0
 32
0.0
 13
1.0
 23
0.0
 33
0.0
 40
-0.0312500000000001
 40
-0.0312500000000001
 40
0.0
 40
0.0
 40
0.0312499999999999
 40
0.0312499999999999
 40
0.0624999999999998
 40
0.0624999999999998
 40
0.0937499999999996
 40
0.0937499999999996
 40
0.1249999999999995
 40
0.1249999999999995
 40
0.1874999999999993
 40
0.1874999999999993
 40
0.2187499999999991
 40
0.2187499999999991
 40
0.249999999999999
 40
0.249999999999999
 40
0.2812499999999989
 40
0.2812499999999989
 40
0.3124999999999988
 40
0.3124999999999988
 40
0.3437499999999986
 40
0.3437499999999986
 40
0.3749999999999985
 40
0.3749999999999985
 40
0.4062499999999984
 40
0.4062499999999984
 40
0.4374999999999984
 40
0.4374999999999984
 40
0.4687499999999986
 40
0.4687499999999986
 40
0.4999999999999987
 40
0.4999999999999987
 40
0.5312499999999988
 40
0.5312499999999988
 40
0.5624999999999989
 40
0.5624999999999989
 40
0.593749999999999
 40
0.593749999999999
 40
0.624999999999999
 40
0.624999999999999
 40
0.6562499999999991
 40
0.6562499999999991
 40
0.6874999999999992
 40
0.6874999999999992
 40
0.7187499999999993
 40
0.7187499999999993
 40
0.7499999999999994
 40
0.7499999999999994
 40
0.7812499999999996
 40
0.7812499999999996
 40
0.8124999999999997
 40
0.8124999999999997
 40
0.8749999999999996
 40
0.8749999999999996
 40
0.9062499999999997
 40
0.9062499999999997
 40
0.9374999999999998
 40
0.9374999999999998
 40
0.9687499999999999
 40
0.9687499999999999
 40
1.0
 40
1.0
 40
1.03125
 40
1.03125
 10
175.9176936564747
 20
122.1194902122687
 30
0.0
 10
175.5123363625791
 20
122.1194902122687
 30
0.0
 10
175.3132764712432
 20
122.0994906526522
 30
0.0
 10
174.9220224866635
 20
122.021347149952
 30
0.0
 10
174.7277497279159
 20
121.9621860484312
 30
0.0
 10
174.3589863013646
 20
121.8087543615369
 30
0.0
 10
174.1842611429863
 20
121.7150275516947
 30
0.0
 10
173.8535838394525
 20
121.4937734492898
 30
0.0
 10
173.6979362954496
 20
121.3657920822952
 30
0.0
 10
173.278468925781
 20
120.9462369852952
 30
0.0
 10
173.0515807842507
 20
120.6077584265918
 30
0.0
 10
172.822784160866
 20
120.0578795388736
 30
0.0
 10
172.7635919060171
 20
119.8644796931302
 30
0.0
 10
172.6847844957566
 20
119.4702515427723
 30
0.0
 10
172.6651450794762
 20
119.2716127153399
 30
0.0
 10
172.6648862150546
 20
118.8713124294415
 30
0.0
 10
172.6849568996875
 20
118.6679731027204
 30
0.0
 10
172.7632945823175
 20
118.2758815821128
 30
0.0
 10
172.8212443503559
 20
118.0851757137976
 30
0.0
 10
172.9751874922359
 20
117.714451897211
 30
0.0
 10
173.0701261059586
 20
117.5377252374022
 30
0.0
 10
173.2904835218358
 20
117.2084721264778
 30
0.0
 10
173.4177635477641
 20
117.0533509028814
 30
0.0
 10
173.6995191390946
 20
116.771674207951
 30
0.0
 10
173.8523074685521
 20
116.6462410230466
 30
0.0
 10
174.181734550709
 20
116.4254654296925
 30
0.0
 10
174.3602805538607
 20
116.3296341769923
 30
0.0
 10
174.7278528794109
 20
116.1768050464973
 30
0.0
 10
174.9180069061219
 20
116.118633288553
 30
0.0
 10
175.3115473288243
 20
116.0396399962081
 30
0.0
 10
175.5139814000855
 20
116.0195768705659
 30
0.0
 10
175.9134104754509
 20
116.0194041244471
 30
0.0
 10
176.1134294540068
 20
116.0388874985364
 30
0.0
 10
176.5095454014562
 20
116.1178790701376
 30
0.0
 10
176.700278229648
 20
116.1761592899896
 30
0.0
 10
177.0679096702277
 20
116.3287269105976
 30
0.0
 10
177.2463961023955
 20
116.4243356973709
 30
0.0
 10
177.5766013613596
 20
116.6453477424559
 30
0.0
 10
177.7294899394215
 20
116.7707976412261
 30
0.0
 10
178.0110863339596
 20
117.0520281302314
 30
0.0
 10
178.1387172568351
 20
117.2074110081453
 30
0.0
 10
178.3590426918349
 20
117.5362618661882
 30
0.0
 10
178.4532691488002
 20
117.7111499726023
 30
0.0
 10
178.6082036694033
 20
118.083293823963
 30
0.0
 10
178.6662159550056
 20
118.274099865772
 30
0.0
 10
178.7446352092837
 20
118.6649728836907
 30
0.0
 10
178.7649492892503
 20
118.867430445073
 30
0.0
 10
178.7650804055542
 20
119.2695610499924
 30
0.0
 10
178.7454557121949
 20
119.4682850951676
 30
0.0
 10
178.6672892617812
 20
119.8611245663042
 30
0.0
 10
178.6080018164413
 20
120.0557688437068
 30
0.0
 10
178.3789209733584
 20
120.6072085971211
 30
0.0
 10
178.1520901224643
 20
120.9455481628202
 30
0.0
 10
177.7327514211436
 20
121.3652138254717
 30
0.0
 10
177.5773984253936
 20
121.493059831245
 30
0.0
 10
177.2464305922564
 20
121.7146609059468
 30
0.0
 10
177.0718692920601
 20
121.8083016399237
 30
0.0
 10
176.7042959844852
 20
121.9614557606229
 30
0.0
 10
176.5096091228472
 20
122.020959506269
 30
0.0
 10
176.1171331729107
 20
122.099482255332
 30
0.0
 10
175.9176936564747
 20
122.1194902122687
 30
0.0
 10
175.5123363625791
 20
122.1194902122687
 30
0.0
  0
LINE
  5
114
330
1F
100
AcDbEntity
  8
0
  6
HIDDEN
 62
     7
370
     0
100
AcDbLine
 10
180.7150150095
 20
126.3194902123
 30
0.0
 11
180.7150150095
 21
111.8194902123
 31
0.0
  0
LINE
  5
115
330
1F
100
AcDbEntity
  8
0
  6
HIDDEN
 62
     7
370
     0
100
AcDbLine
 10
179.7150150095
 20
110.8194902123
 30
0.0
 11
179.7150150095
 21
127.3038426743
 31
0.0
  0
LINE
  5
116
330
1F
100
AcDbEntity
  8
0
  6
HIDDEN
 62
     7
370
     0
100
AcDbLine
 10
213.7150150095
 20
111.8194902123
 30
0.0
 11
213.7150150095
 21
126.3194902123
 31
0.0
  0
LINE
  5
117
330
1F
100
AcDbEntity
  8
0
  6
HIDDEN
 62
     7
370
     0
100
AcDbLine
 10
238.7939274306
 20
150.5236415651
 30
0.0
 11
236.5110496918
 21
143.283278394
 31
0.0
  0
LINE
  5
118
330
1F
100
AcDbEntity
  8
0
  6
HIDDEN
 62
     7
370
     0
100
AcDbLine
 10
236.5110496918
 20
143.283278394
 30
0.0
 11
236.4681632516
 21
143.2697563514
 31
0.0
  0
LINE
  5
119
330
1F
100
AcDbEntity
  8
0
  6
HIDDEN
 62
     7
370
     0
100
AcDbLine
 10
235.902019544
 20
139.9111836763
 30
0.0
 11
246.1687725573
 21
143.1482784671
 31
0.0
  0
LINE
  5
11A
330
1F
100
AcDbEntity
  8
0
  6
HIDDEN
 62
     7
370
     0
100
AcDbLine
 10
246.1687725573
 20
143.1482784671
 30
0.0
 11
246.1552505147
 21
143.105392027
 31
0.0
  0
LINE
  5
11B
330
1F
100
AcDbEntity
  8
0
  6
HIDDEN
 62
     7
370
     0
100
AcDbLine
 10
238.7510409905
 20
150.5101195224
 30
0.0
 11
238.7939274306
 21
150.5236415651
 31
0.0
  0
LINE
  5
11C
330
1F
100
AcDbEntity
  8
0
  6
HIDDEN
 62
     7
370
     0
100
AcDbLine
 10
235.610881621
 20
140.0987609602
 30
0.0
 11
245.9563700821
 21
143.3606809424
 31
0.0
  0
LINE
  5
11D
330
1F
100
AcDbEntity
  8
0
  6
HIDDEN
 62
     7
370
     0
100
AcDbLine
 10
246.1687725573
 20
143.1482784671
 30
0.0
 11
245.9563700821
 21
143.3606809424
 31
0.0
  0
LINE
  5
11E
330
1F
100
AcDbEntity
  8
0
  6
HIDDEN
 62
     7
370
     0
100
AcDbLine
 10
236.5110496918
 20
143.283278394
 30
0.0
 11
236.723452167
 21
143.0708759188
 31
0.0
  0
LINE
  5
11F
330
1F
100
AcDbEntity
  8
0
  6
HIDDEN
 62
     7
370
     0
100
AcDbLine
 10
236.3703538099
 20
142.9595444344
 30
0.0
 11
236.723452167
 21
143.0708759188
 31
0.0
  0
SPLINE
  5
120
330
1F
100
AcDbEntity
  8
0
  6
HIDDEN
 62
     7
370
     0
100
AcDbSpline
210
0.0
220
0.0
230
1.0
 70
     8
 71
     3
 72
     8
 73
     4
 74
     0
 42
0.00000001
 43
0.00000001
 12
1.0
 22
0.0
 32
0.0
 13
1.0
 23
0.0
 33
0.0
 40
0.0
 40
0.0
 40
0.0
 40
0.0
 40
1.0
 40
1.0
 40
1.0
 40
1.0
 10
224.7716971526689
 20
143.470971662902
 30
0.0
 10
224.564562016539
 20
143.5607581479898
 30
0.0
 10
224.3702985255063
 20
143.6548175052405
 30
0.0
 10
224.1922771609806
 20
143.7542685998869
 30
0.0
  0
LINE
  5
121
330
1F
100
AcDbEntity
  8
0
  6
HIDDEN
 62
     7
370
     0
100
AcDbLine
 10
239.0108568251
 20
150.3255966433
 30
0.0
 11
236.723452167
 21
143.0708759188
 31
0.0
  0
LINE
  5
122
330
1F
100
AcDbEntity
  8
0
  6
HIDDEN
 62
     7
370
     0
100
AcDbLine
 10
239.0108568251
 20
150.3255966433
 30
0.0
 11
238.7939274306
 21
150.5236415651
 31
0.0
  0
ELLIPSE
  5
123
330
1F
100
AcDbEntity
  8
0
  6
HIDDEN
 62
     7
370
     0
100
AcDbEllipse
 10
238.6153827393
 20
119.0694902123
 30
0.0
 11
8.157301636775088
 21
25.48215150066849
 31
0.0
210
0.0
220
0.0
230
1.0
 40
0.1169400867
 41
1.608213510505989
 42
3.167244860012919
  0
LINE
  5
124
330
1F
100
AcDbEntity
  8
0
  6
HIDDEN
 62
     7
370
     0
100
AcDbLine
 10
222.8137134253
 20
93.5712549792
 30
0.0
 11
222.8137134253
 21
119.0694902123
 31
0.0
  0
SPLINE
  5
125
330
1F
100
AcDbEntity
  8
0
  6
HIDDEN
 62
     7
370
     0
100
AcDbSpline
210
0.0
220
0.0
230
1.0
 70
     8
 71
     3
 72
    10
 73
     6
 74
     0
 42
0.00000001
 43
0.00000001
 12
1.0
 22
0.0
 32
0.0
 13
1.0
 23
0.0
 33
0.0
 40
0.0
 40
0.0
 40
0.0
 40
0.0
 40
0.5
 40
0.5
 40
1.0
 40
1.0
 40
1.0
 40
1.0
 10
224.1922771609806
 20
143.7542685998869
 30
0.0
 10
223.7798054989317
 20
143.9846946412258
 30
0.0
 10
223.4594473352735
 20
144.2553166619299
 30
0.0
 10
223.0847787837854
 20
144.8740008184356
 30
0.0
 10
223.0332234338038
 20
145.222052716564
 30
0.0
 10
223.1280125595715
 20
145.6091225292261
 30
0.0
  0
LINE
  5
126
330
1F
100
AcDbEntity
  8
0
  6
HIDDEN
 62
     7
370
     0
100
AcDbLine
 10
245.9563700821
 20
143.3606809424
 30
0.0
 11
245.7419378814
 21
143.2930707292
 31
0.0
  0
LINE
  5
127
330
1F
100
AcDbEntity
  8
0
  6
HIDDEN
 62
     7
370
     0
100
AcDbLine
 10
238.9463758187
 20
150.1210890187
 30
0.0
 11
239.0108568251
 21
150.3255966433
 31
0.0
  0
LINE
  5
128
330
1F
100
AcDbEntity
  8
0
  6
HIDDEN
 62
     7
370
     0
100
AcDbLine
 10
248.3932540952
 20
153.0996782979
 30
0.0
 11
247.661113199
 21
152.3853750933
 31
0.0
  0
LINE
  5
129
330
1F
100
AcDbEntity
  8
0
  6
HIDDEN
 62
     7
370
     0
100
AcDbLine
 10
247.6577739987
 20
151.7204012735
 30
0.0
 11
248.728411092
 21
152.7649536414
 31
0.0
  0
CIRCLE
  5
12A
330
1F
100
AcDbEntity
  8
0
  6
HIDDEN
 62
     7
370
     0
100
AcDbCircle
 10
242.5437338053
 20
146.898209008
 30
0.0
 40
2.400000000000006
  0
LINE
  5
12B
330
1F
100
AcDbEntity
  8
0
  6
HIDDEN
 62
     7
370
     0
100
AcDbLine
 10
248.728411092
 20
152.7649536414
 30
0.0
 11
248.3932540952
 21
153.0996782979
 31
0.0
  0
LINE
  5
12C
330
1F
100
AcDbEntity
  8
0
  6
HIDDEN
 62
     7
370
     0
100
AcDbLine
 10
236.723452167
 20
143.0708759188
 30
0.0
 11
234.3408788775
 21
142.3196534462
 31
0.0
  0
ARC
  5
12D
330
1F
100
AcDbEntity
  8
0
  6
HIDDEN
 62
     7
370
     0
100
AcDbCircle
 10
234.7167611269
 20
141.1275072577
 30
0.0
 40
1.250000000000004
100
AcDbArc
 50
107.5
 51
287.5
  0
LINE
  5
12E
330
1F
100
AcDbEntity
  8
0
  6
HIDDEN
 62
     7
370
     0
100
AcDbLine
 10
238.9463758187
 20
150.1210890187
 30
0.0
 11
236.723452167
 21
143.0708759188
 31
0.0
  0
LINE
  5
12F
330
1F
100
AcDbEntity
  8
0
  6
HIDDEN
 62
     7
370
     0
100
AcDbLine
 10
235.0926433762
 20
139.9353610693
 30
0.0
 11
245.7419378814
 21
143.2930707292
 31
0.0
  0
LINE
  5
130
330
1F
100
AcDbEntity
  8
0
  6
HIDDEN
 62
     7
370
     0
100
AcDbLine
 10
248.3932540952
 20
153.0996782979
 30
0.0
 11
238.9463758187
 21
150.1210890187
 31
0.0
  0
LINE
  5
131
330
1F
100
AcDbEntity
  8
0
  6
HIDDEN
 62
     7
370
     0
100
AcDbLine
 10
245.7419378814
 20
143.2930707292
 30
0.0
 11
248.728411092
 21
152.7649536414
 31
0.0
  0
CIRCLE
  5
132
330
1F
100
AcDbEntity
  8
0
  6
HIDDEN
 62
     7
370
     0
100
AcDbCircle
 10
242.5437338053
 20
146.898209008
 30
0.0
 40
1.650000000000006
  0
SPLINE
  5
133
330
1F
100
AcDbEntity
  8
0
  6
HIDDEN
 62
     7
370
     0
100
AcDbSpline
210
0.0
220
0.0
230
1.0
 70
     8
 71
     3
 72
    18
 73
    14
 74
     0
 42
0.00000001
 43
0.00000001
 12
1.0
 22
0.0
 32
0.0
 13
1.0
 23
0.0
 33
0.0
 40
0.0
 40
0.0
 40
0.0
 40
0.0
 40
0.2500000000000004
 40
0.2500000000000004
 40
0.3750000000000004
 40
0.3750000000000004
 40
0.5000000000000004
 40
0.5000000000000004
 40
0.6250000000000004
 40
0.6250000000000004
 40
0.7500000000000004
 40
0.7500000000000004
 40
1.0
 40
1.0
 40
1.0
 40
1.0
 10
188.3936946659672
 20
136.3664000802736
 30
0.0
 10
188.2584090596649
 20
136.295047338584
 30
0.0
 10
188.157241313422
 20
136.1496439319946
 30
0.0
 10
188.054379970553
 20
135.8201766963889
 30
0.0
 10
188.0282771250297
 20
135.6912431195842
 30
0.0
 10
187.9933871414849
 20
135.3957011202481
 30
0.0
 10
187.9848008831949
 20
135.2313063467261
 30
0.0
 10
187.9847011736292
 20
134.8703447319856
 30
0.0
 10
187.9931895447778
 20
134.6737749398233
 30
0.0
 10
188.0273329242984
 20
134.2484201436984
 30
0.0
 10
188.0531299061522
 20
134.0186504938988
 30
0.0
 10
188.1565310375402
 20
133.2860617994663
 30
0.0
 10
188.2583890297115
 20
132.7488250245488
 30
0.0
 10
188.3936946659672
 20
132.1645369358011
 30
0.0
  0
LINE
  5
134
330
1F
100
AcDbEntity
  8
0
  6
HIDDEN
 62
     7
370
     0
100
AcDbLine
 10
187.5150150095
 20
136.5895889968
 30
0.0
 11
187.5150150095
 21
131.449436509
 31
0.0
  0
LINE
  5
135
330
1F
100
AcDbEntity
  8
0
  6
HIDDEN
 62
     7
370
     0
100
AcDbLine
 10
161.2150150095
 20
135.9288414542
 30
0.0
 11
161.2150150095
 21
131.1190627377
 31
0.0
  0
LINE
  5
136
330
1F
100
AcDbEntity
  8
0
  6
HIDDEN
 62
     7
370
     0
100
AcDbLine
 10
159.7150150095
 20
135.0628160504
 30
0.0
 11
159.7150150095
 21
130.6860500358
 31
0.0
  0
LINE
  5
137
330
1F
100
AcDbEntity
  8
0
  6
HIDDEN
 62
     7
370
     0
100
AcDbLine
 10
161.2150150095
 20
107.0199176868
 30
0.0
 11
161.2150150095
 21
102.2101389703
 31
0.0
  0
LINE
  5
138
330
1F
100
AcDbEntity
  8
0
  6
HIDDEN
 62
     7
370
     0
100
AcDbLine
 10
159.7150150095
 20
107.4529303887
 30
0.0
 11
159.7150150095
 21
103.0761643741
 31
0.0
  0
SPLINE
  5
139
330
1F
100
AcDbEntity
  8
0
  6
HIDDEN
 62
     7
370
     0
100
AcDbSpline
210
0.0
220
0.0
230
1.0
 70
     8
 71
     3
 72
    18
 73
    14
 74
     0
 42
0.00000001
 43
0.00000001
 12
1.0
 22
0.0
 32
0.0
 13
1.0
 23
0.0
 33
0.0
 40
0.0
 40
0.0
 40
0.0
 40
0.0
 40
0.2500000000000005
 40
0.2500000000000005
 40
0.3750000000000005
 40
0.3750000000000005
 40
0.5000000000000006
 40
0.5000000000000006
 40
0.6250000000000006
 40
0.6250000000000006
 40
0.7500000000000006
 40
0.7500000000000006
 40
1.0
 40
1.0
 40
1.0
 40
1.0
 10
188.3936946659672
 20
105.9744434887363
 30
0.0
 10
188.2584090596649
 20
105.3902418950047
 30
0.0
 10
188.1572413134219
 20
104.8560242077965
 30
0.0
 10
188.054379970553
 20
104.1301274369081
 30
0.0
 10
188.0282771250297
 20
103.9002469491281
 30
0.0
 10
187.9933871414849
 20
103.4696760043413
 30
0.0
 10
187.9848008831949
 20
103.2719810988472
 30
0.0
 10
187.9847011736292
 20
102.9106330561694
 30
0.0
 10
187.9931895447778
 20
102.7469830462232
 30
0.0
 10
188.0273329242984
 20
102.4537717732543
 30
0.0
 10
188.0531299061522
 20
102.3237757071385
 30
0.0
 10
188.1565310375402
 20
101.9897198145765
 30
0.0
 10
188.2583890297115
 20
101.8439436502117
 30
0.0
 10
188.3936946659672
 20
101.7725803442639
 30
0.0
  0
LINE
  5
13A
330
1F
100
AcDbEntity
  8
0
  6
HIDDEN
 62
     7
370
     0
100
AcDbLine
 10
187.5150150095
 20
106.6895439155
 30
0.0
 11
187.5150150095
 21
101.5493914277
 31
0.0
  0
ELLIPSE
  5
13B
330
1F
100
AcDbEntity
  8
0
  6
HIDDEN
 62
     7
370
     0
100
AcDbEllipse
 10
282.8431099282
 20
121.0694902123
 30
0.0
 11
34.72603646860273
 21
-32.42013145337226
 31
0.0
210
0.0
220
0.0
230
1.0
 40
0.1773639145
 41
3.274705636529019
 42
3.333444026241519
  0
ELLIPSE
  5
13C
330
1F
100
AcDbEntity
  8
0
  6
HIDDEN
 62
     7
370
     0
100
AcDbEllipse
 10
144.2869100416
 20
121.0694902123
 30
0.0
 11
105.4424577115224
 21
32.79560776950161
 31
0.0
210
0.0
220
0.0
230
1.0
 40
0.0347788424
 41
5.569917107961819
 42
6.073686857052047
  0
ELLIPSE
  5
13D
330
1F
100
AcDbEntity
  8
0
  6
HIDDEN
 62
     7
370
     0
100
AcDbEllipse
 10
239.5678382877
 20
121.0694902123
 30
0.0
 11
10.55650800053249
 21
32.97690194204158
 31
0.0
210
0.0
220
0.0
230
1.0
 40
0.1169400867
 41
0.4170102824427949
 42
1.050532880766594
  0
SPLINE
  5
13E
330
1F
100
AcDbEntity
  8
0
  6
HIDDEN
 62
     7
370
     0
100
AcDbSpline
210
0.0
220
0.0
230
1.0
 70
     8
 71
     3
 72
     8
 73
     4
 74
     0
 42
0.00000001
 43
0.00000001
 12
1.0
 22
0.0
 32
0.0
 13
1.0
 23
0.0
 33
0.0
 40
0.0
 40
0.0
 40
0.0
 40
0.0
 40
1.0
 40
1.0
 40
1.0
 40
1.0
 10
224.7716971526689
 20
143.470971662902
 30
0.0
 10
224.7181513940685
 20
141.9563618816479
 30
0.0
 10
224.664904351095
 20
140.3127829334471
 30
0.0
 10
224.6120142585859
 20
138.5337394088417
 30
0.0
  0
LINE
  5
13F
330
1F
100
AcDbEntity
  8
0
  6
HIDDEN
 62
     7
370
     0
100
AcDbLine
 10
159.7150150095
 20
130.6860500358
 30
0.0
 11
159.7150150095
 21
121.4086611405
 31
0.0
  0
LINE
  5
140
330
1F
100
AcDbEntity
  8
0
  6
HIDDEN
 62
     7
370
     0
100
AcDbLine
 10
159.7150150095
 20
116.730319284
 30
0.0
 11
159.7150150095
 21
107.4529303887
 31
0.0
  0
LINE
  5
141
330
1F
100
AcDbEntity
  8
0
  6
HIDDEN
 62
     7
370
     0
100
AcDbLine
 10
161.2150150095
 20
115.9210130939
 30
0.0
 11
161.2150150095
 21
107.0199176868
 31
0.0
  0
LINE
  5
142
330
1F
100
AcDbEntity
  8
0
  6
HIDDEN
 62
     7
370
     0
100
AcDbLine
 10
161.2150150095
 20
131.1190627377
 30
0.0
 11
161.2150150095
 21
122.2179673306
 31
0.0
  0
LINE
  5
143
330
1F
100
AcDbEntity
  8
0
  6
HIDDEN
 62
     7
370
     0
100
AcDbLine
 10
187.5150150095
 20
131.449436509
 30
0.0
 11
187.5150150095
 21
106.6895439155
 31
0.0
  0
LINE
  5
144
330
1F
100
AcDbEntity
  8
0
  6
HIDDEN
 62
     7
370
     0
100
AcDbLine
 10
189.5150150095
 20
130.6317644454
 30
0.0
 11
189.5150150095
 21
107.5072159792
 31
0.0
  0
CIRCLE
  5
145
330
1F
100
AcDbEntity
  8
0
  6
HIDDEN
 62
     7
370
     0
100
AcDbCircle
 10
242.5437338053
 20
146.898209008
 30
0.0
 40
1.650000000000006
  0
SPLINE
  5
146
330
1F
100
AcDbEntity
  8
0
  6
HIDDEN
 62
     7
370
     0
100
AcDbSpline
210
0.0
220
0.0
230
1.0
 70
     8
 71
     3
 72
     8
 73
     4
 74
     0
 42
0.00000001
 43
0.00000001
 12
1.0
 22
0.0
 32
0.0
 13
1.0
 23
0.0
 33
0.0
 40
0.0000202085968836
 40
0.0000202085968836
 40
0.0000202085968836
 40
0.0000202085968836
 40
0.0040218806502652
 40
0.0040218806502652
 40
0.0040218806502652
 40
0.0040218806502652
 10
161.2150150095269
 20
115.921013093932
 30
0.0
 10
162.5483381353175
 20
115.8970148627684
 30
0.0
 10
163.8816720085401
 20
115.8736871226001
 30
0.0
 10
165.2150150095269
 20
115.8509924518197
 30
0.0
  0
SPLINE
  5
147
330
1F
100
AcDbEntity
  8
0
  6
HIDDEN
 62
     7
370
     0
100
AcDbSpline
210
0.0
220
0.0
230
1.0
 70
     8
 71
     3
 72
     8
 73
     4
 74
     0
 42
0.00000001
 43
0.00000001
 12
1.0
 22
0.0
 32
0.0
 13
1.0
 23
0.0
 33
0.0
 40
0.0000202082942178
 40
0.0000202082942178
 40
0.0000202082942178
 40
0.0000202082942178
 40
0.0040218803475994
 40
0.0040218803475994
 40
0.0040218803475994
 40
0.0040218803475994
 10
165.2150150095269
 20
122.2879879727178
 30
0.0
 10
163.8816720085401
 20
122.2652933019374
 30
0.0
 10
162.5483381353175
 20
122.2419655617691
 30
0.0
 10
161.2150150095269
 20
122.2179673306055
 30
0.0
  0
SPLINE
  5
148
330
1F
100
AcDbEntity
  8
0
  6
HIDDEN
 62
     7
370
     0
100
AcDbSpline
210
0.0
220
0.0
230
1.0
 70
     8
 71
     3
 72
     8
 73
     4
 74
     0
 42
0.00000001
 43
0.00000001
 12
1.0
 22
0.0
 32
0.0
 13
1.0
 23
0.0
 33
0.0
 40
0.0
 40
0.0
 40
0.0
 40
0.0
 40
1.0
 40
1.0
 40
1.0
 40
1.0
 10
159.7150150095269
 20
116.7303192840337
 30
0.0
 10
160.1892264199645
 20
116.3955900567389
 30
0.0
 10
160.6939627670662
 20
116.1365316429062
 30
0.0
 10
161.2150150095269
 20
115.921013093932
 30
0.0
  0
SPLINE
  5
149
330
1F
100
AcDbEntity
  8
0
  6
HIDDEN
 62
     7
370
     0
100
AcDbSpline
210
0.0
220
0.0
230
1.0
 70
     8
 71
     3
 72
     8
 73
     4
 74
     0
 42
0.00000001
 43
0.00000001
 12
1.0
 22
0.0
 32
0.0
 13
1.0
 23
0.0
 33
0.0
 40
0.0
 40
0.0
 40
0.0
 40
0.0
 40
1.0
 40
1.0
 40
1.0
 40
1.0
 10
161.2150150095269
 20
122.2179673306055
 30
0.0
 10
160.6939627670662
 20
122.0024487816313
 30
0.0
 10
160.1892264199645
 20
121.7433903677986
 30
0.0
 10
159.7150150095269
 20
121.4086611405038
 30
0.0
  0
LINE
  5
14A
330
1F
100
AcDbEntity
  8
0
  6
HIDDEN
 62
     7
370
     0
100
AcDbLine
 10
159.7150150095
 20
116.730319284
 30
0.0
 11
159.7150150095
 21
121.4086611405
 31
0.0
  0
LINE
  5
14B
330
1F
100
AcDbEntity
  8
0
  6
HIDDEN
 62
     7
370
     0
100
AcDbLine
 10
165.2150150095
 20
115.8509924518
 30
0.0
 11
165.2150150095
 21
122.2879879727
 31
0.0
  0
SPLINE
  5
14C
330
1F
100
AcDbEntity
  8
0
  6
HIDDEN
 62
     7
370
     0
100
AcDbSpline
210
0.0
220
0.0
230
1.0
 70
     8
 71
     3
 72
    26
 73
    22
 74
     0
 42
0.00000001
 43
0.00000001
 12
1.0
 22
0.0
 32
0.0
 13
1.0
 23
0.0
 33
0.0
 40
0.0
 40
0.0
 40
0.0
 40
0.0
 40
0.1250000000000002
 40
0.1250000000000002
 40
0.2500000000000004
 40
0.2500000000000004
 40
0.3750000000000006
 40
0.3750000000000006
 40
0.4375000000000007
 40
0.4375000000000007
 40
0.5000000000000008
 40
0.5000000000000008
 40
0.5625000000000009
 40
0.5625000000000009
 40
0.625000000000001
 40
0.625000000000001
 40
0.7500000000000007
 40
0.7500000000000007
 40
0.8750000000000003
 40
0.8750000000000003
 40
1.0
 40
1.0
 40
1.0
 40
1.0
 10
165.2150150095269
 20
115.8509924518197
 30
0.0
 10
165.4256583715268
 20
116.0856094827647
 30
0.0
 10
165.6328548092838
 20
116.3234926187242
 30
0.0
 10
166.0343539439162
 20
116.810806924993
 30
0.0
 10
166.2296303629622
 20
117.0609321497821
 30
0.0
 10
166.5894108556576
 20
117.579522295233
 30
0.0
 10
166.754669715807
 20
117.8469532791198
 30
0.0
 10
166.9473276252332
 20
118.2783684115183
 30
0.0
 10
167.0022923654432
 20
118.4283872934427
 30
0.0
 10
167.0800281504073
 20
118.7411244721727
 30
0.0
 10
167.1012942887156
 20
118.89887871898
 30
0.0
 10
167.1031882180014
 20
119.2175839988258
 30
0.0
 10
167.0829624809344
 20
119.3800207990063
 30
0.0
 10
167.0084980706486
 20
119.690972798589
 30
0.0
 10
166.9548589449026
 20
119.8416440369166
 30
0.0
 10
166.7601146395019
 20
120.2837277948852
 30
0.0
 10
166.5930645263237
 20
120.553771808053
 30
0.0
 10
166.23280840762
 20
121.0738794363344
 30
0.0
 10
166.0380560325996
 20
121.323540649144
 30
0.0
 10
165.6350468081274
 20
121.8129647609868
 30
0.0
 10
165.4266102897639
 20
122.0523106841508
 30
0.0
 10
165.2150150095278
 20
122.2879879727186
 30
0.0
  0
SPLINE
  5
14D
330
1F
100
AcDbEntity
  8
0
  6
HIDDEN
 62
     7
370
     0
100
AcDbSpline
210
0.0
220
0.0
230
1.0
 70
     8
 71
     3
 72
    68
 73
    64
 74
     0
 42
0.00000001
 43
0.00000001
 12
1.0
 22
0.0
 32
0.0
 13
1.0
 23
0.0
 33
0.0
 40
-0.03125
 40
-0.03125
 40
0.0
 40
0.0
 40
0.0312500000000001
 40
0.0312500000000001
 40
0.0625000000000002
 40
0.0625000000000002
 40
0.0937500000000003
 40
0.0937500000000003
 40
0.1250000000000004
 40
0.1250000000000004
 40
0.1562500000000004
 40
0.1562500000000004
 40
0.1875000000000006
 40
0.1875000000000006
 40
0.2500000000000004
 40
0.2500000000000004
 40
0.2812500000000005
 40
0.2812500000000005
 40
0.3125000000000004
 40
0.3125000000000004
 40
0.3437500000000004
 40
0.3437500000000004
 40
0.3750000000000004
 40
0.3750000000000004
 40
0.4062500000000004
 40
0.4062500000000004
 40
0.4375000000000004
 40
0.4375000000000004
 40
0.4687500000000003
 40
0.4687500000000003
 40
0.5000000000000003
 40
0.5000000000000003
 40
0.5312500000000003
 40
0.5312500000000003
 40
0.5625000000000003
 40
0.5625000000000003
 40
0.5937500000000002
 40
0.5937500000000002
 40
0.6250000000000002
 40
0.6250000000000002
 40
0.6562500000000002
 40
0.6562500000000002
 40
0.6875000000000002
 40
0.6875000000000002
 40
0.7187500000000002
 40
0.7187500000000002
 40
0.7500000000000001
 40
0.7500000000000001
 40
0.7812500000000001
 40
0.7812500000000001
 40
0.8125000000000001
 40
0.8125000000000001
 40
0.8437500000000001
 40
0.8437500000000001
 40
0.8750000000000001
 40
0.8750000000000001
 40
0.9062500000000001
 40
0.9062500000000001
 40
0.9375
 40
0.9375
 40
0.96875
 40
0.96875
 40
1.0
 40
1.0
 40
1.03125
 40
1.03125
 10
173.4347756742705
 20
121.3273779032605
 30
0.0
 10
173.7696631939434
 20
121.5986191400074
 30
0.0
 10
173.9479294158791
 20
121.7162604328791
 30
0.0
 10
174.3249541127724
 20
121.9175919568889
 30
0.0
 10
174.5251428341487
 20
122.0014001601025
 30
0.0
 10
174.9318108737796
 20
122.129492183671
 30
0.0
 10
175.1397260397998
 20
122.174796980631
 30
0.0
 10
175.5647143390232
 20
122.2279546919366
 30
0.0
 10
175.7807509900071
 20
122.2352368759721
 30
0.0
 10
176.2052619588587
 20
122.2116894384349
 30
0.0
 10
176.4157889322485
 20
122.1811852359579
 30
0.0
 10
176.8332741430355
 20
122.0813256224907
 30
0.0
 10
177.0361376766139
 20
122.0127297347299
 30
0.0
 10
177.6174541956287
 20
121.755388291511
 30
0.0
 10
177.9778614484045
 20
121.5088384002011
 30
0.0
 10
178.4226004451661
 20
121.0555998441262
 30
0.0
 10
178.5577896653087
 20
120.8880192646497
 30
0.0
 10
178.7907295399109
 20
120.5291571897384
 30
0.0
 10
178.8874128855656
 20
120.3403986693842
 30
0.0
 10
179.040644150215
 20
119.943884993176
 30
0.0
 10
179.0972611075832
 20
119.7335405840891
 30
0.0
 10
179.1627133094181
 20
119.3121520558062
 30
0.0
 10
179.1726716680452
 20
119.0996359366425
 30
0.0
 10
179.1458376588782
 20
118.6708611615423
 30
0.0
 10
179.1088179951053
 20
118.4582949333954
 30
0.0
 10
178.9916547160685
 20
118.0490002893174
 30
0.0
 10
178.9101158385736
 20
117.8481516176097
 30
0.0
 10
178.7088766271696
 20
117.4710248590986
 30
0.0
 10
178.5899448919988
 20
117.294804537569
 30
0.0
 10
178.3167710789066
 20
116.9660484165869
 30
0.0
 10
178.1629103041964
 20
116.8147502486874
 30
0.0
 10
177.8329877061804
 20
116.5471630952081
 30
0.0
 10
177.6546658811089
 20
116.4286919344973
 30
0.0
 10
177.2766418811864
 20
116.2258051305625
 30
0.0
 10
177.0807128824053
 20
116.1431861761145
 30
0.0
 10
176.675627594571
 20
116.0137459995837
 30
0.0
 10
176.464292796701
 20
115.9667707691531
 30
0.0
 10
176.0404080070485
 20
115.912055814235
 30
0.0
 10
175.8279727337863
 20
115.9038260657919
 30
0.0
 10
175.4021206664912
 20
115.9253175635926
 30
0.0
 10
175.1869765030817
 20
115.955715185811
 30
0.0
 10
174.7718469633413
 20
116.0534576426992
 30
0.0
 10
174.5702219975975
 20
116.1205761564481
 30
0.0
 10
174.1791354983265
 20
116.2922192566084
 30
0.0
 10
173.9893158894355
 20
116.397565315393
 30
0.0
 10
173.6387252692639
 20
116.6382682570876
 30
0.0
 10
173.4757187896173
 20
116.7743911334203
 30
0.0
 10
173.1756564669287
 20
117.0800446026543
 30
0.0
 10
173.0403875697245
 20
117.2484962821431
 30
0.0
 10
172.8094436168916
 20
117.6047769684266
 30
0.0
 10
172.7119613974193
 20
117.7945306478333
 30
0.0
 10
172.5569788380147
 20
118.1971390101175
 30
0.0
 10
172.5021123171976
 20
118.4029787537905
 30
0.0
 10
172.4367044465335
 20
118.8235583901129
 30
0.0
 10
172.4265582007005
 20
119.0410602074107
 30
0.0
 10
172.45322656324
 20
119.4678003463713
 30
0.0
 10
172.4892639550665
 20
119.6777030554585
 30
0.0
 10
172.6066751006344
 20
120.0905918761169
 30
0.0
 10
172.6878026352526
 20
120.2909148209009
 30
0.0
 10
172.887559679442
 20
120.6671533393659
 30
0.0
 10
173.0080621785681
 20
120.8466080846137
 30
0.0
 10
173.282142623934
 20
121.1769560127035
 30
0.0
 10
173.4347756742705
 20
121.3273779032605
 30
0.0
 10
173.7696631939434
 20
121.5986191400074
 30
0.0
  0
CIRCLE
  5
14E
330
1F
100
AcDbEntity
  8
0
  6
HIDDEN
 62
     7
370
     0
100
AcDbCircle
 10
175.7150150095
 20
119.0694902123
 30
0.0
 40
3.050000000000011
  0
CIRCLE
  5
14F
330
1F
100
AcDbEntity
  8
0
  6
HIDDEN
 62
     7
370
     0
100
AcDbCircle
 10
201.7150150095
 20
119.0694902123
 30
0.0
 40
2.0
  0
LINE
  5
150
330
1F
100
AcDbEntity
  8
0
  6
HIDDEN
 62
     7
370
     0
100
AcDbLine
 10
224.6120142586
 20
138.5337394088
 30
0.0
 11
241.4694856377
 21
138.5337394088
 31
0.0
  0
LINE
  5
151
330
1F
100
AcDbEntity
  8
0
  6
HIDDEN
 62
     7
370
     0
100
AcDbLine
 10
241.4694856377
 20
138.5337394088
 30
0.0
 11
235.3324314396
 21
119.0694902123
 31
0.0
  0
SPLINE
  5
152
330
1F
100
AcDbEntity
  8
0
  6
HIDDEN
 62
     7
370
     0
100
AcDbSpline
210
0.0
220
0.0
230
1.0
 70
     8
 71
     3
 72
     8
 73
     4
 74
     0
 42
0.00000001
 43
0.00000001
 12
1.0
 22
0.0
 32
0.0
 13
1.0
 23
0.0
 33
0.0
 40
0.0
 40
0.0
 40
0.0
 40
0.0
 40
1.0
 40
1.0
 40
1.0
 40
1.0
 10
224.6120142585859
 20
138.5337394088417
 30
0.0
 10
223.7548153369964
 20
133.2611764672592
 30
0.0
 10
223.1101856708855
 20
127.9566965524085
 30
0.0
 10
222.913613847837
 20
122.5849413856996
 30
0.0
  0
SPLINE
  5
153
330
1F
100
AcDbEntity
  8
0
  6
HIDDEN
 62
     7
370
     0
100
AcDbSpline
210
0.0
220
0.0
230
1.0
 70
     8
 71
     3
 72
    10
 73
     6
 74
     0
 42
0.00000001
 43
0.00000001
 12
1.0
 22
0.0
 32
0.0
 13
1.0
 23
0.0
 33
0.0
 40
0.0
 40
0.0
 40
0.0
 40
0.0
 40
0.5
 40
0.5
 40
1.0
 40
1.0
 40
1.0
 40
1.0
 10
222.913613847837
 20
122.5849413856996
 30
0.0
 10
222.8921746543445
 20
121.9990685142604
 30
0.0
 10
222.8656530624178
 20
121.4132334838719
 30
0.0
 10
222.8262254439132
 20
120.2414620482607
 30
0.0
 10
222.8137134253323
 20
119.6555227094474
 30
0.0
 10
222.8137134253323
 20
119.0694902122687
 30
0.0
  0
LINE
  5
154
330
1F
100
AcDbEntity
  8
0
  6
HIDDEN
 62
     7
370
     0
100
AcDbLine
 10
210.7150150095
 20
128.8729928425
 30
0.0
 11
210.7150150095
 21
132.6848249553
 31
0.0
  0
LINE
  5
155
330
1F
100
AcDbEntity
  8
0
  6
HIDDEN
 62
     7
370
     0
100
AcDbLine
 10
204.7150150095
 20
132.6854571317
 30
0.0
 11
204.7150150095
 21
128.8729928425
 31
0.0
  0
LINE
  5
156
330
1F
100
AcDbEntity
  8
0
  6
HIDDEN
 62
     7
370
     0
100
AcDbLine
 10
189.7150150095
 20
99.5194902123
 30
0.0
 11
189.8079082283
 21
99.6123834311
 31
0.0
  0
LINE
  5
157
330
1F
100
AcDbEntity
  8
0
  6
HIDDEN
 62
     7
370
     0
100
AcDbLine
 10
189.8079082283
 20
138.5265969935
 30
0.0
 11
189.7150150095
 21
138.6194902123
 31
0.0
  0
ARC
  5
158
330
1F
100
AcDbEntity
  8
0
  6
HIDDEN
 62
     7
370
     0
100
AcDbCircle
 10
189.1008014472
 20
100.3194902123
 30
0.0
 40
1.000000000000008
100
AcDbArc
 50
315.0
 51
0.0
  0
ARC
  5
159
330
1F
100
AcDbEntity
  8
0
  6
HIDDEN
 62
     7
370
     0
100
AcDbCircle
 10
189.1008014472
 20
100.3194902123
 30
0.0
 40
1.0
100
AcDbArc
 50
0.0
 51
52.1052014664
  0
ARC
  5
15A
330
1F
100
AcDbEntity
  8
0
  6
HIDDEN
 62
     7
370
     0
100
AcDbCircle
 10
189.1008014472
 20
137.8194902123
 30
0.0
 40
0.999999999999988
100
AcDbArc
 50
351.8087250651
 51
45.0
  0
ARC
  5
15B
330
1F
100
AcDbEntity
  8
0
  6
HIDDEN
 62
     7
370
     0
100
AcDbCircle
 10
189.1008014472
 20
137.8194902123
 30
0.0
 40
1.000000000000026
100
AcDbArc
 50
307.8947985336
 51
351.8087250651
  0
LINE
  5
15C
330
1F
100
AcDbEntity
  8
0
  6
HIDDEN
 62
     7
370
     0
100
AcDbLine
 10
190.1008014472
 20
100.3194902123
 30
0.0
 11
190.1008014472
 21
137.8194902123
 31
0.0
  0
LINE
  5
15D
330
1F
100
AcDbEntity
  8
0
  6
HIDDEN
 62
     7
370
     0
100
AcDbLine
 10
190.1008014472
 20
100.3194902123
 30
0.0
 11
190.1008014472
 21
137.8194902123
 31
0.0
  0
LINE
  5
15E
330
1F
100
AcDbEntity
  8
0
  6
HIDDEN
 62
     7
370
     0
100
AcDbLine
 10
210.2150150095
 20
127.6066846375
 30
0.0
 11
210.2150150095
 21
128.7093667687
 31
0.0
  0
LINE
  5
15F
330
1F
100
AcDbEntity
  8
0
  6
HIDDEN
 62
     7
370
     0
100
AcDbLine
 10
210.2150150095
 20
123.0180824759
 30
0.0
 11
210.2150150095
 21
125.6072119024
 31
0.0
  0
LINE
  5
160
330
1F
100
AcDbEntity
  8
0
  6
HIDDEN
 62
     7
370
     0
100
AcDbLine
 10
205.2150150095
 20
128.7093667687
 30
0.0
 11
205.2150150095
 21
123.0180137983
 31
0.0
  0
LINE
  5
161
330
1F
100
AcDbEntity
  8
0
  6
HIDDEN
 62
     7
370
     0
100
AcDbLine
 10
210.1235340528
 20
125.3754642838
 30
0.0
 11
217.1070929725
 21
130.0260741549
 31
0.0
  0
LINE
  5
162
330
1F
100
AcDbEntity
  8
0
  6
HIDDEN
 62
     7
370
     0
100
AcDbLine
 10
217.2776616887
 20
136.1468911649
 30
0.0
 11
206.4766866693
 21
128.9541228901
 31
0.0
  0
ARC
  5
163
330
1F
100
AcDbEntity
  8
0
  6
HIDDEN
 62
     7
370
     0
100
AcDbCircle
 10
166.2150150095
 20
108.5694902123
 30
0.0
 40
1.5
100
AcDbArc
 50
191.0958032831
 51
270.0
  0
ARC
  5
164
330
1F
100
AcDbEntity
  8
0
  6
HIDDEN
 62
     7
370
     0
100
AcDbCircle
 10
166.2150150095
 20
129.5694902123
 30
0.0
 40
1.5
100
AcDbArc
 50
90.0
 51
168.9041967169
  0
LINE
  5
165
330
1F
100
AcDbEntity
  8
0
  6
HIDDEN
 62
     7
370
     0
100
AcDbLine
 10
166.2150150095
 20
107.0694902123
 30
0.0
 11
167.2217345216
 21
107.0694902123
 31
0.0
  0
LINE
  5
166
330
1F
100
AcDbEntity
  8
0
  6
HIDDEN
 62
     7
370
     0
100
AcDbLine
 10
167.2217345216
 20
131.0694902123
 30
0.0
 11
166.2150150095
 21
131.0694902123
 31
0.0
  0
ARC
  5
167
330
1F
100
AcDbEntity
  8
0
  6
HIDDEN
 62
     7
370
     0
100
AcDbCircle
 10
167.2217345216
 20
108.5694902123
 30
0.0
 40
1.5
100
AcDbArc
 50
270.0
 51
315.0
  0
ARC
  5
168
330
1F
100
AcDbEntity
  8
0
  6
HIDDEN
 62
     7
370
     0
100
AcDbCircle
 10
167.2217345216
 20
129.5694902123
 30
0.0
 40
1.499999999999972
100
AcDbArc
 50
45.0
 51
90.0
  0
LINE
  5
169
330
1F
100
AcDbEntity
  8
0
  6
HIDDEN
 62
     7
370
     0
100
AcDbLine
 10
159.7150150095
 20
107.3060781438
 30
0.0
 11
160.7430548651
 21
107.8996172312
 31
0.0
  0
LINE
  5
16A
330
1F
100
AcDbEntity
  8
0
  6
HIDDEN
 62
     7
370
     0
100
AcDbLine
 10
160.7430548651
 20
130.2393631933
 30
0.0
 11
159.7150150095
 21
130.8329022807
 31
0.0
  0
LINE
  5
16B
330
1F
100
AcDbEntity
  8
0
  6
HIDDEN
 62
     7
370
     0
100
AcDbLine
 10
168.2823946934
 20
107.5088300405
 30
0.0
 11
169.3430548651
 21
108.5694902123
 31
0.0
  0
LINE
  5
16C
330
1F
100
AcDbEntity
  8
0
  6
HIDDEN
 62
     7
370
     0
100
AcDbLine
 10
169.3430548651
 20
129.5694902123
 30
0.0
 11
168.2823946934
 21
130.630150384
 31
0.0
  0
LINE
  5
16D
330
1F
100
AcDbEntity
  8
0
  6
HIDDEN
 62
     7
370
     0
100
AcDbLine
 10
206.4298503666
 20
128.7848382411
 30
0.0
 11
206.4528666365
 21
128.473735292
 31
0.0
  0
LINE
  5
16E
330
1F
100
AcDbEntity
  8
0
  6
HIDDEN
 62
     7
370
     0
100
AcDbLine
 10
160.7430548651
 20
107.8996172312
 30
0.0
 11
163.2430548651
 21
108.5694902123
 31
0.0
  0
LINE
  5
16F
330
1F
100
AcDbEntity
  8
0
  6
HIDDEN
 62
     7
370
     0
100
AcDbLine
 10
163.2430548651
 20
129.5694902123
 30
0.0
 11
160.7430548651
 21
130.2393631933
 31
0.0
  0
LINE
  5
170
330
1F
100
AcDbEntity
  8
0
  6
HIDDEN
 62
     7
370
     0
100
AcDbLine
 10
164.7430548651
 20
129.8581653469
 30
0.0
 11
164.2430548651
 21
129.5694902123
 31
0.0
  0
LINE
  5
171
330
1F
100
AcDbEntity
  8
0
  6
HIDDEN
 62
     7
370
     0
100
AcDbLine
 10
164.2430548651
 20
108.5694902123
 30
0.0
 11
164.7430548651
 21
108.2808150777
 31
0.0
  0
ARC
  5
172
330
1F
100
AcDbEntity
  8
0
  6
HIDDEN
 62
     7
370
     0
100
AcDbCircle
 10
179.2150150095
 20
109.0694902123
 30
0.0
 40
0.5
100
AcDbArc
 50
270.0
 51
0.0
  0
ARC
  5
173
330
1F
100
AcDbEntity
  8
0
  6
HIDDEN
 62
     7
370
     0
100
AcDbCircle
 10
179.2150150095
 20
129.0694902123
 30
0.0
 40
0.5
100
AcDbArc
 50
0.0
 51
90.0
  0
LINE
  5
174
330
1F
100
AcDbEntity
  8
0
  6
HIDDEN
 62
     7
370
     0
100
AcDbLine
 10
163.2430548651
 20
108.5694902123
 30
0.0
 11
164.2430548651
 21
108.5694902123
 31
0.0
  0
LINE
  5
175
330
1F
100
AcDbEntity
  8
0
  6
HIDDEN
 62
     7
370
     0
100
AcDbLine
 10
164.2430548651
 20
129.5694902123
 30
0.0
 11
163.2430548651
 21
129.5694902123
 31
0.0
  0
LINE
  5
176
330
1F
100
AcDbEntity
  8
0
  6
HIDDEN
 62
     7
370
     0
100
AcDbLine
 10
169.3430548651
 20
108.5694902123
 30
0.0
 11
179.2150150095
 21
108.5694902123
 31
0.0
  0
LINE
  5
177
330
1F
100
AcDbEntity
  8
0
  6
HIDDEN
 62
     7
370
     0
100
AcDbLine
 10
179.2150150095
 20
129.5694902123
 30
0.0
 11
169.3430548651
 21
129.5694902123
 31
0.0
  0
LINE
  5
178
330
1F
100
AcDbEntity
  8
0
  6
HIDDEN
 62
     7
370
     0
100
AcDbLine
 10
179.7150150095
 20
110.8194902123
 30
0.0
 11
180.7150150095
 21
111.8194902123
 31
0.0
  0
LINE
  5
179
330
1F
100
AcDbEntity
  8
0
  6
HIDDEN
 62
     7
370
     0
100
AcDbLine
 10
180.7150150095
 20
126.3194902123
 30
0.0
 11
179.7150150095
 21
127.3194902123
 31
0.0
  0
LINE
  5
17A
330
1F
100
AcDbEntity
  8
0
  6
HIDDEN
 62
     7
370
     0
100
AcDbLine
 10
213.7150150095
 20
126.3194902123
 30
0.0
 11
180.7150150095
 21
126.3194902123
 31
0.0
  0
LINE
  5
17B
330
1F
100
AcDbEntity
  8
0
  6
HIDDEN
 62
     7
370
     0
100
AcDbLine
 10
180.7150150095
 20
111.8194902123
 30
0.0
 11
213.7150150095
 21
111.8194902123
 31
0.0
  0
LINE
  5
17C
330
1F
100
AcDbEntity
  8
0
  6
HIDDEN
 62
     7
370
     0
100
AcDbLine
 10
213.7150150095
 20
111.8194902123
 30
0.0
 11
218.0712544975
 21
119.0694902123
 31
0.0
  0
LINE
  5
17D
330
1F
100
AcDbEntity
  8
0
  6
HIDDEN
 62
     7
370
     0
100
AcDbLine
 10
218.0712544975
 20
119.0694902123
 30
0.0
 11
213.7150150095
 21
126.3194902123
 31
0.0
  0
LINE
  5
17E
330
1F
100
AcDbEntity
  8
0
  6
HIDDEN
 62
     7
370
     0
100
AcDbLine
 10
189.5150150095
 20
107.2996007195
 30
0.0
 11
189.5150150095
 21
107.5072159792
 31
0.0
  0
LINE
  5
17F
330
1F
100
AcDbEntity
  8
VERMASSUNG
  6
CENTERX2
100
AcDbLine
 10
155.4142210895
 20
119.0694902123
 30
0.0
 11
249.7150150095
 21
119.0694902123
 31
0.0
  0
LINE
  5
180
330
1F
100
AcDbEntity
  8
VERMASSUNG
  6
CENTERX2
100
AcDbLine
 10
249.7150150095
 20
154.0694902123
 30
0.0
 11
249.7150150095
 21
119.0694902123
 31
0.0
  0
LINE
  5
181
330
1F
100
AcDbEntity
  8
VERMASSUNG
  6
CENTERX2
100
AcDbLine
 10
249.7150150095
 20
154.0694902123
 30
0.0
 11
266.1388031291
 21
154.0694902123
 31
0.0
  0
DIMENSION
  5
182
330
1F
100
AcDbEntity
  8
VERMASSUNG
100
AcDbDimension
  2
_D
 10
264.8406060531
 20
119.0694902123
 30
0.0
 11
264.8406060531
 21
136.5694902123
 31
0.0
 70
   160
  1
<>
 71
     2
 42
-1.0
  3
SLDDIMSTYLE0
100
AcDbAlignedDimension
 13
249.7150150095
 23
154.0694902123
 33
0.0
 14
249.7150150095
 24
119.0694902123
 34
0.0
 50
90.0
100
AcDbRotatedDimension
  0
DIMENSION
  5
18F
330
1F
100
AcDbEntity
  8
VERMASSUNG
100
AcDbDimension
  2
_D_1
 10
249.7150150095
 20
161.4602552425
 30
0.0
 11
219.7150150095
 21
161.4602552425
 31
0.0
 70
   160
  1
<>
 71
     2
 42
-1.0
  3
SLDDIMSTYLE0
100
AcDbAlignedDimension
 13
189.7150150095
 23
143.7694902123
 33
0.0
 14
249.7150150095
 24
154.0694902123
 34
0.0
100
AcDbRotatedDimension
  0
DIMENSION
  5
19B
330
1F
100
AcDbEntity
  8
VERMASSUNG
100
AcDbDimension
  2
_D_2
 10
249.7150150095
 20
169.2644319988
 30
0.0
 11
204.7150150095
 21
169.2644319988
 31
0.0
 70
   160
  1
<>
 71
     2
 42
-1.0
  3
SLDDIMSTYLE1
100
AcDbAlignedDimension
 13
159.7150150095
 23
135.0628160504
 33
0.0
 14
249.7150150095
 24
154.0694902123
 34
0.0
100
AcDbRotatedDimension
  0
DIMENSION
  5
1A6
330
1F
100
AcDbEntity
  8
VERMASSUNG
100
AcDbDimension
  2
_D_3
 10
249.7150150095
 20
154.0694902123
 30
0.0
 11
255.8009686935
 21
145.9677761607
 31
0.0
 70
   162
  1
<>
 71
     1
 42
-1.0
  3
SLDDIMSTYLE2
100
AcDb2LineAngularDimension
 13
246.4931384408
 23
143.3894373447
 33
0.0
 14
249.6991152764
 24
153.5574968129
 34
0.0
 15
266.1388031291
 25
154.0694902123
 35
0.0
 16
255.8009686935
 26
145.9677761607
 36
0.0
  0
DIMENSION
  5
1AF
330
1F
100
AcDbEntity
  8
VERMASSUNG
100
AcDbDimension
  2
_D_4
 10
149.7150150095
 20
94.0694902123
 30
0.0
 11
149.7150150095
 21
119.0694902123
 31
0.0
 70
   160
  1
PSC%%c<>
 71
     2
 42
-1.0
  3
SLDDIMSTYLE1
100
AcDbAlignedDimension
 13
190.0150150095
 23
144.0694902123
 33
0.0
 14
190.0150150095
 24
94.0694902123
 34
0.0
 50
90.0
100
AcDbRotatedDimension
  0
LINE
  5
1BB
330
1F
100
AcDbEntity
  8
0
  6
Continuous
 62
     7
370
    15
100
AcDbLine
 10
86.1213306273
 20
145.2374846324
 30
0.0
 11
86.1215356477
 21
145.2374846324
 31
0.0
  0
SPLINE
  5
1BC
330
1F
100
AcDbEntity
  8
0
  6
Continuous
 62
     7
370
    15
100
AcDbSpline
210
0.0
220
0.0
230
1.0
 70
     8
 71
     3
 72
    10
 73
     6
 74
     0
 42
0.00000001
 43
0.00000001
 12
1.0
 22
0.0
 32
0.0
 13
1.0
 23
0.0
 33
0.0
 40
0.0
 40
0.0
 40
0.0
 40
0.0
 40
0.3321546972350468
 40
0.6673755279958873
 40
1.0
 40
1.0
 40
1.0
 40
1.0
 10
90.12243739818447
 20
153.4769650949325
 30
0.0
 10
89.67727187817843
 20
153.5522779526563
 30
0.0
 10
88.7828314971371
 20
153.7035988841582
 30
0.0
 10
87.41846924907638
 20
153.862117465786
 30
0.0
 10
86.52070427770917
 20
154.0076630314803
 30
0.0
 10
86.07356689671914
 20
154.0801528981323
 30
0.0
  0
LINE
  5
1BD
330
1F
100
AcDbEntity
  8
0
  6
Continuous
 62
     7
370
    15
100
AcDbLine
 10
86.0735668967
 20
139.8976468124
 30
0.0
 11
86.4215356478
 21
139.9513728547
 31
0.0
  0
LINE
  5
1BE
330
1F
100
AcDbEntity
  8
0
  6
Continuous
 62
     7
370
    15
100
AcDbLine
 10
111.6215356478
 20
138.5337394088
 30
0.0
 11
111.6215356478
 21
119.0694902123
 31
0.0
  0
ARC
  5
1BF
330
1F
100
AcDbEntity
  8
0
  6
Continuous
 62
     7
370
    15
100
AcDbCircle
 10
86.1215356478
 20
119.0694902123
 30
0.0
 40
25.5
100
AcDbArc
 50
270.6740835447
 51
0.0
  0
LINE
  5
1C0
330
1F
100
AcDbEntity
  8
0
  6
Continuous
 62
     7
370
    15
100
AcDbLine
 10
86.4215356478
 20
143.1482784671
 30
0.0
 11
86.4215356478
 21
93.5712549792
 31
0.0
  0
LINE
  5
1C1
330
1F
100
AcDbEntity
  8
0
  6
Continuous
 62
     7
370
    15
100
AcDbLine
 10
88.5915356478
 20
143.3606809424
 30
0.0
 11
90.0915356478
 21
143.2930707292
 31
0.0
  0
LINE
  5
1C2
330
1F
100
AcDbEntity
  8
0
  6
Continuous
 62
     7
370
    15
100
AcDbLine
 10
90.0915356478
 20
143.2930707292
 30
0.0
 11
90.0915356478
 21
143.5075029299
 31
0.0
  0
LINE
  5
1C3
330
1F
100
AcDbEntity
  8
0
  6
Continuous
 62
     7
370
    15
100
AcDbLine
 10
95.8494402565
 20
151.7204012735
 30
0.0
 11
90.0915356478
 21
152.7649536414
 31
0.0
  0
ARC
  5
1C4
330
1F
100
AcDbEntity
  8
0
  6
Continuous
 62
     7
370
    15
100
AcDbCircle
 10
83.6215356478
 20
121.0694902123
 30
0.0
 40
33.00000000000002
100
AcDbArc
 50
31.9527464003
 51
68.2509175104
  0
LINE
  5
1C5
330
1F
100
AcDbEntity
  8
0
  6
Continuous
 62
     7
370
    15
100
AcDbLine
 10
90.0915356478
 20
153.0996782979
 30
0.0
 11
94.0290019156
 21
152.3853750933
 31
0.0
  0
ARC
  5
1C6
330
1F
100
AcDbEntity
  8
0
  6
Continuous
 62
     7
370
    15
100
AcDbCircle
 10
83.6215356478
 20
121.0694902123
 30
0.0
 40
32.99999999999999
100
AcDbArc
 50
68.2509175104
 51
71.6163793363
  0
SPLINE
  5
1C7
330
1F
100
AcDbEntity
  8
0
  6
Continuous
 62
     7
370
    15
100
AcDbSpline
210
0.0
220
0.0
230
1.0
 70
     8
 71
     3
 72
    18
 73
    14
 74
     0
 42
0.00000001
 43
0.00000001
 12
1.0
 22
0.0
 32
0.0
 13
1.0
 23
0.0
 33
0.0
 40
0.0
 40
0.0
 40
0.0
 40
0.0
 40
0.2499999999999982
 40
0.2499999999999982
 40
0.4999999999999989
 40
0.4999999999999989
 40
0.6249999999999992
 40
0.6249999999999992
 40
0.7499999999999996
 40
0.7499999999999996
 40
0.8749999999999998
 40
0.8749999999999998
 40
1.0
 40
1.0
 40
1.0
 40
1.0
 10
86.42073494227716
 20
94.07128068074022
 30
0.0
 10
86.41323859034215
 20
94.07119095818601
 30
0.0
 10
86.35466140180984
 20
94.07033841778563
 30
0.0
 10
86.13614121769369
 20
94.06925571860639
 30
0.0
 10
85.9804448460614
 20
94.06909299358396
 30
0.0
 10
85.68134496009216
 20
94.07316700094385
 30
0.0
 10
85.57107770994399
 20
94.07527352456712
 30
0.0
 10
85.33560487896578
 20
94.08156943842852
 30
0.0
 10
85.20964158453422
 20
94.08576496866908
 30
0.0
 10
84.9409695194342
 20
94.09701853950803
 30
0.0
 10
84.79836418183432
 20
94.1040996830698
 30
0.0
 10
84.50556603900225
 20
94.12134099780425
 30
0.0
 10
84.35427668961304
 20
94.13153989774257
 30
0.0
 10
84.19799278313943
 20
94.14360040171852
 30
0.0
  0
SPLINE
  5
1C8
330
1F
100
AcDbEntity
  8
0
  6
Continuous
 62
     7
370
    15
100
AcDbSpline
210
0.0
220
0.0
230
1.0
 70
     8
 71
     3
 72
    13
 73
     9
 74
     0
 42
0.00000001
 43
0.00000001
 12
1.0
 22
0.0
 32
0.0
 13
1.0
 23
0.0
 33
0.0
 40
0.0
 40
0.0
 40
0.0
 40
0.0
 40
0.1920559039461748
 40
0.3896863335229678
 40
0.5817422042004328
 40
0.7793563463769945
 40
0.9716435838205647
 40
1.0
 40
1.0
 40
1.0
 40
1.0
 10
84.19799278313943
 20
143.995380022819
 30
0.0
 10
84.35556900853709
 20
144.0066402566183
 30
0.0
 10
84.67529519379833
 20
144.0294875585429
 30
0.0
 10
85.1122198242472
 20
144.050159850205
 30
0.0
 10
85.50910760947451
 20
144.0629063290797
 30
0.0
 10
85.83612361818625
 20
144.0684153616112
 30
0.0
 10
86.04259757552975
 20
144.0696644302836
 30
0.0
 10
86.11254608863152
 20
144.0694292916859
 30
0.0
 10
86.12153564766065
 20
144.0693990724258
 30
0.0
  0
ELLIPSE
  5
1C9
330
1F
100
AcDbEntity
  8
0
  6
Continuous
 62
     7
370
    15
100
AcDbEllipse
 10
77.0069236609
 20
133.0864826599
 30
0.0
 11
1.756445035685346
 21
2.815924377711212
 31
0.0
210
0.0
220
0.0
230
1.0
 40
0.7353403728
 41
0.0
 42
6.283185307179586
  0
ARC
  5
1CA
330
1F
100
AcDbEntity
  8
0
  6
Continuous
 62
     7
370
    15
100
AcDbCircle
 10
86.1215356478
 20
119.0694902123
 30
0.0
 40
25.00000000000002
100
AcDbArc
 50
94.4127968195
 51
265.5872031805
  0
SPLINE
  5
1CB
330
1F
100
AcDbEntity
  8
0
  6
Continuous
 62
     7
370
    15
100
AcDbSpline
210
0.0
220
0.0
230
1.0
 70
    24
 71
     3
 72
    13
 73
     9
 74
     0
 42
0.00000001
 43
0.00000001
 12
1.0
 22
0.0
 32
0.0
 13
1.0
 23
0.0
 33
0.0
 40
0.0
 40
0.0
 40
0.0
 40
0.0
 40
0.1940404522884945
 40
0.3876312521664848
 40
0.5765817401075957
 40
0.7618011426189846
 40
0.9462740210878122
 40
1.0
 40
1.0
 40
1.0
 40
1.0
 10
86.12153564783122
 20
153.5574968128543
 30
0.0
 10
86.12153564783121
 20
153.6026066586443
 30
0.0
 10
86.1215356478312
 20
153.6927218166045
 30
0.0
 10
86.12153564783131
 20
153.8288636862694
 30
0.0
 10
86.12153564783085
 20
153.9455317614863
 30
0.0
 10
86.12153564783131
 20
154.0270221932373
 30
0.0
 10
86.12153564783121
 20
154.0682056211966
 30
0.0
 10
86.12153564783122
 20
154.066990234004
 30
0.0
 10
86.12153564783122
 20
154.0667161022663
 30
0.0
  0
SPLINE
  5
1CC
330
1F
100
AcDbEntity
  8
0
  6
Continuous
 62
     7
370
    15
100
AcDbSpline
210
0.0
220
0.0
230
1.0
 70
    24
 71
     3
 72
    14
 73
    10
 74
     0
 42
0.00000001
 43
0.00000001
 12
1.0
 22
0.0
 32
0.0
 13
1.0
 23
0.0
 33
0.0
 40
0.0
 40
0.0
 40
0.0
 40
0.0
 40
0.1583203796597218
 40
0.3168008057739141
 40
0.4713744813488125
 40
0.6221259069004699
 40
0.7721262731744172
 40
0.9245922366697865
 40
1.0
 40
1.0
 40
1.0
 40
1.0
 10
90.09153564783122
 20
153.4782304490948
 30
0.0
 10
90.09153564783094
 20
153.4806361616205
 30
0.0
 10
90.09153564783038
 20
153.4854500186125
 30
0.0
 10
90.09153564783144
 20
153.4779582561566
 30
0.0
 10
90.09153564783118
 20
153.4603438127922
 30
0.0
 10
90.09153564783124
 20
153.4342064924681
 30
0.0
 10
90.09153564783122
 20
153.4028572376426
 30
0.0
 10
90.09153564783124
 20
153.374934045815
 30
0.0
 10
90.09153564783122
 20
153.3589970557922
 30
0.0
 10
90.09153564783122
 20
153.3537232017653
 30
0.0
  0
LINE
  5
1CD
330
1F
100
AcDbEntity
  8
0
  6
Continuous
 62
     7
370
    15
100
AcDbLine
 10
90.0915356478
 20
143.6301990277
 30
0.0
 11
90.0915356478
 21
153.3537232018
 31
0.0
  0
LINE
  5
1CE
330
1F
100
AcDbEntity
  8
0
  6
Continuous
 62
     7
370
    15
100
AcDbLine
 10
86.1215356478
 20
143.3894373447
 30
0.0
 11
86.1215356478
 21
153.5574968129
 31
0.0
  0
SPLINE
  5
1CF
330
1F
100
AcDbEntity
  8
0
  6
Continuous
 62
     7
370
    15
100
AcDbSpline
210
0.0
220
0.0
230
1.0
 70
    24
 71
     3
 72
    10
 73
     6
 74
     0
 42
0.00000001
 43
0.00000001
 12
1.0
 22
0.0
 32
0.0
 13
1.0
 23
0.0
 33
0.0
 40
0.0
 40
0.0
 40
0.0
 40
0.0
 40
0.2657122957250074
 40
0.6165157621683593
 40
0.9999999999999999
 40
0.9999999999999999
 40
0.9999999999999999
 40
0.9999999999999999
 10
90.09153564783125
 20
143.6301990277136
 30
0.0
 10
90.09153564783111
 20
143.6223855491709
 30
0.0
 10
90.09153564783081
 20
143.604256419445
 30
0.0
 10
90.09153564783139
 20
143.5797192705855
 30
0.0
 10
90.0915356478313
 20
143.5703025640475
 30
0.0
 10
90.09153564783125
 20
143.565384657199
 30
0.0
  0
SPLINE
  5
1D0
330
1F
100
AcDbEntity
  8
0
  6
Continuous
 62
     7
370
    15
100
AcDbSpline
210
0.0
220
0.0
230
1.0
 70
    24
 71
     3
 72
    10
 73
     6
 74
     0
 42
0.00000001
 43
0.00000001
 12
1.0
 22
0.0
 32
0.0
 13
1.0
 23
0.0
 33
0.0
 40
0.0
 40
0.0
 40
0.0
 40
0.0
 40
0.3518022785809666
 40
0.703424593503225
 40
1.0
 40
1.0
 40
1.0
 40
1.0
 10
86.12153564783124
 20
143.130186067003
 30
0.0
 10
86.12153564783124
 20
143.1478557055132
 30
0.0
 10
86.12153564783125
 20
143.18318594367
 30
0.0
 10
86.12153564783124
 20
143.278510169968
 30
0.0
 10
86.12153564783124
 20
143.3546159987607
 30
0.0
 10
86.12153564783125
 20
143.3894373447253
 30
0.0
  0
LINE
  5
1D1
330
1F
100
AcDbEntity
  8
0
  6
Continuous
 62
     7
370
    15
100
AcDbLine
 10
90.0915356478
 20
143.5075029299
 30
0.0
 11
90.0915356478
 21
143.5653846572
 31
0.0
  0
LINE
  5
1D2
330
1F
100
AcDbEntity
  8
0
  6
Continuous
 62
     7
370
    15
100
AcDbLine
 10
86.1215356478
 20
139.9242092315
 30
0.0
 11
86.1215356478
 21
143.130186067
 31
0.0
  0
CIRCLE
  5
1D3
330
1F
100
AcDbEntity
  8
VERMASSUNG
  6
CENTERX2
100
AcDbCircle
 10
86.1215356478
 20
121.399722589
 30
0.0
 40
32.50000000000001
  0
DIMENSION
  5
1D4
330
1F
100
AcDbEntity
  8
VERMASSUNG
100
AcDbDimension
  2
_D_5
 10
63.1405652593
 20
144.3806929776
 30
0.0
 11
54.3074036082
 21
153.2138546286
 31
0.0
 70
   160
  1
%%c<> min. 
 71
     2
 42
-1.0
  3
SLDDIMSTYLE3
100
AcDbAlignedDimension
 13
109.1025060364
 23
98.4187522004
 33
0.0
 14
63.1405652593
 24
144.3806929776
 34
0.0
 50
-45.0
100
AcDbRotatedDimension
  0
INSERT
  5
1EE
330
1F
100
AcDbEntity
  8
VERMASSUNG
100
AcDbBlockReference
  2
SW_CENTERMARKSYMBOL_0
 10
86.1215356478
 20
119.0694902123
 30
0.0
  0
OLE2FRAME
  5
1EF
330
1F
100
AcDbEntity
  8
0
100
AcDbOle2Frame
 70
     2
  3
Paintbrush-Bild
 10
13.8511154363
 20
38.264191557
 30
0.0
 11
51.6290888628
 21
31.9806341108
 31
0.0
 71
     2
 72
     0
 73
     1
 90
    12928
310
80552BED0767C5B32B40DDAF6807D121434000000000000000006FFBDDFB85D0
310
4940DDAF6807D121434000000000000000006FFBDDFB85D04940416F4BD60AFB
310
3F4000000000000000002BED0767C5B32B40416F4BD60AFB3F40000000000000
310
0000000000000100000000010000010000000100000000000100000000320000
310
D0CF11E0A1B11AE1000000000000000000000000000000003E000300FEFF0900
310
0600000000000000000000000100000001000000000000000010000002000000
310
01000000FEFFFFFF0000000000000000FFFFFFFFFFFFFFFFFFFFFFFFFFFFFFFF
310
FFFFFFFFFFFFFFFFFFFFFFFFFFFFFFFFFFFFFFFFFFFFFFFFFFFFFFFFFFFFFFFF
310
FFFFFFFFFFFFFFFFFFFFFFFFFFFFFFFFFFFFFFFFFFFFFFFFFFFFFFFFFFFFFFFF
310
FFFFFFFFFFFFFFFFFFFFFFFFFFFFFFFFFFFFFFFFFFFFFFFFFFFFFFFFFFFFFFFF
310
FFFFFFFFFFFFFFFFFFFFFFFFFFFFFFFFFFFFFFFFFFFFFFFFFFFFFFFFFFFFFFFF
310
FFFFFFFFFFFFFFFFFFFFFFFFFFFFFFFFFFFFFFFFFFFFFFFFFFFFFFFFFFFFFFFF
310
FFFFFFFFFFFFFFFFFFFFFFFFFFFFFFFFFFFFFFFFFFFFFFFFFFFFFFFFFFFFFFFF
310
FFFFFFFFFFFFFFFFFFFFFFFFFFFFFFFFFFFFFFFFFFFFFFFFFFFFFFFFFFFFFFFF
310
FFFFFFFFFFFFFFFFFFFFFFFFFFFFFFFFFFFFFFFFFFFFFFFFFFFFFFFFFFFFFFFF
310
FFFFFFFFFFFFFFFFFFFFFFFFFFFFFFFFFFFFFFFFFFFFFFFFFFFFFFFFFFFFFFFF
310
FFFFFFFFFFFFFFFFFFFFFFFFFFFFFFFFFFFFFFFFFFFFFFFFFFFFFFFFFFFFFFFF
310
FFFFFFFFFFFFFFFFFFFFFFFFFFFFFFFFFFFFFFFFFFFFFFFFFFFFFFFFFFFFFFFF
310
FFFFFFFFFFFFFFFFFFFFFFFFFFFFFFFFFFFFFFFFFFFFFFFFFFFFFFFFFFFFFFFF
310
FFFFFFFFFFFFFFFFFFFFFFFFFFFFFFFFFFFFFFFFFFFFFFFFFFFFFFFFFFFFFFFF
310
FDFFFFFFFEFFFFFFFEFFFFFFFEFFFFFF05000000060000000700000008000000
310
090000000A0000000B0000000C0000000D0000000E0000000F00000010000000
310
11000000120000001300000014000000150000001600000017000000FEFFFFFF
310
FFFFFFFFFFFFFFFFFFFFFFFFFFFFFFFFFFFFFFFFFFFFFFFFFFFFFFFFFFFFFFFF
310
FFFFFFFFFFFFFFFFFFFFFFFFFFFFFFFFFFFFFFFFFFFFFFFFFFFFFFFFFFFFFFFF
310
FFFFFFFFFFFFFFFFFFFFFFFFFFFFFFFFFFFFFFFFFFFFFFFFFFFFFFFFFFFFFFFF
310
FFFFFFFFFFFFFFFFFFFFFFFFFFFFFFFFFFFFFFFFFFFFFFFFFFFFFFFFFFFFFFFF
310
FFFFFFFFFFFFFFFFFFFFFFFFFFFFFFFFFFFFFFFFFFFFFFFFFFFFFFFFFFFFFFFF
310
FFFFFFFFFFFFFFFFFFFFFFFFFFFFFFFFFFFFFFFFFFFFFFFFFFFFFFFFFFFFFFFF
310
FFFFFFFFFFFFFFFFFFFFFFFFFFFFFFFFFFFFFFFFFFFFFFFFFFFFFFFFFFFFFFFF
310
FFFFFFFFFFFFFFFFFFFFFFFFFFFFFFFFFFFFFFFFFFFFFFFFFFFFFFFFFFFFFFFF
310
FFFFFFFFFFFFFFFFFFFFFFFFFFFFFFFFFFFFFFFFFFFFFFFFFFFFFFFFFFFFFFFF
310
FFFFFFFFFFFFFFFFFFFFFFFFFFFFFFFFFFFFFFFFFFFFFFFFFFFFFFFFFFFFFFFF
310
FFFFFFFFFFFFFFFFFFFFFFFFFFFFFFFFFFFFFFFFFFFFFFFFFFFFFFFFFFFFFFFF
310
FFFFFFFFFFFFFFFFFFFFFFFFFFFFFFFFFFFFFFFFFFFFFFFFFFFFFFFFFFFFFFFF
310
FFFFFFFFFFFFFFFFFFFFFFFFFFFFFFFFFFFFFFFFFFFFFFFFFFFFFFFFFFFFFFFF
310
52006F006F007400200045006E00740072007900000000000000000000000000
310
0000000000000000000000000000000000000000000000000000000000000000
310
16000500FFFFFFFFFFFFFFFF020000000A00030000000000C000000000000046
310
000000000000000000000000F0A5730DC838CD0103000000C000000000000000
310
01004F006C006500000000000000000000000000000000000000000000000000
310
0000000000000000000000000000000000000000000000000000000000000000
310
0A000200FFFFFFFFFFFFFFFFFFFFFFFF00000000000000000000000000000000
310
0000000000000000000000000000000000000000000000001400000000000000
310
010043006F006D0070004F0062006A0000000000000000000000000000000000
310
0000000000000000000000000000000000000000000000000000000000000000
310
120002010100000003000000FFFFFFFF00000000000000000000000000000000
310
0000000000000000000000000000000000000000010000004D00000000000000
310
01004F006C006500310030004E00610074006900760065000000000000000000
310
0000000000000000000000000000000000000000000000000000000000000000
310
1A000200FFFFFFFFFFFFFFFFFFFFFFFF00000000000000000000000000000000
310
0000000000000000000000000000000000000000040000002426000000000000
310
FEFFFFFF02000000FEFFFFFFFFFFFFFFFFFFFFFFFFFFFFFFFFFFFFFFFFFFFFFF
310
FFFFFFFFFFFFFFFFFFFFFFFFFFFFFFFFFFFFFFFFFFFFFFFFFFFFFFFFFFFFFFFF
310
FFFFFFFFFFFFFFFFFFFFFFFFFFFFFFFFFFFFFFFFFFFFFFFFFFFFFFFFFFFFFFFF
310
FFFFFFFFFFFFFFFFFFFFFFFFFFFFFFFFFFFFFFFFFFFFFFFFFFFFFFFFFFFFFFFF
310
FFFFFFFFFFFFFFFFFFFFFFFFFFFFFFFFFFFFFFFFFFFFFFFFFFFFFFFFFFFFFFFF
310
FFFFFFFFFFFFFFFFFFFFFFFFFFFFFFFFFFFFFFFFFFFFFFFFFFFFFFFFFFFFFFFF
310
FFFFFFFFFFFFFFFFFFFFFFFFFFFFFFFFFFFFFFFFFFFFFFFFFFFFFFFFFFFFFFFF
310
FFFFFFFFFFFFFFFFFFFFFFFFFFFFFFFFFFFFFFFFFFFFFFFFFFFFFFFFFFFFFFFF
310
FFFFFFFFFFFFFFFFFFFFFFFFFFFFFFFFFFFFFFFFFFFFFFFFFFFFFFFFFFFFFFFF
310
FFFFFFFFFFFFFFFFFFFFFFFFFFFFFFFFFFFFFFFFFFFFFFFFFFFFFFFFFFFFFFFF
310
FFFFFFFFFFFFFFFFFFFFFFFFFFFFFFFFFFFFFFFFFFFFFFFFFFFFFFFFFFFFFFFF
310
FFFFFFFFFFFFFFFFFFFFFFFFFFFFFFFFFFFFFFFFFFFFFFFFFFFFFFFFFFFFFFFF
310
FFFFFFFFFFFFFFFFFFFFFFFFFFFFFFFFFFFFFFFFFFFFFFFFFFFFFFFFFFFFFFFF
310
FFFFFFFFFFFFFFFFFFFFFFFFFFFFFFFFFFFFFFFFFFFFFFFFFFFFFFFFFFFFFFFF
310
FFFFFFFFFFFFFFFFFFFFFFFFFFFFFFFFFFFFFFFFFFFFFFFFFFFFFFFFFFFFFFFF
310
FFFFFFFFFFFFFFFFFFFFFFFFFFFFFFFFFFFFFFFFFFFFFFFFFFFFFFFFFFFFFFFF
310
0100000200000000000000000000000000000000000000000000000000000000
310
0000000000000000000000000000000000000000000000000000000000000000
310
0100FEFF030A0000FFFFFFFF0A00030000000000C00000000000004607000000
310
5042727573680007000000504272757368000700000050427275736800F439B2
310
7100000000000000000000000000000000000000000000000000000000000000
310
0000000000000000000000000000000000000000000000000000000000000000
310
0000000000000000000000000000000000000000000000000000000000000000
310
0000000000000000000000000000000000000000000000000000000000000000
310
0000000000000000000000000000000000000000000000000000000000000000
310
0000000000000000000000000000000000000000000000000000000000000000
310
0000000000000000000000000000000000000000000000000000000000000000
310
0000000000000000000000000000000000000000000000000000000000000000
310
0000000000000000000000000000000000000000000000000000000000000000
310
0000000000000000000000000000000000000000000000000000000000000000
310
0000000000000000000000000000000000000000000000000000000000000000
310
0000000000000000000000000000000000000000000000000000000000000000
310
20260000424D0E260000000000003E00000028000000B40200006E0000000100
310
01000000000000000000130B0000130B00000200000002000000000000FFFFFF
310
FFFFFFFFFFFFFFFFFFFFFFFFFFFFFFFFFFFFFFFFFFFFFFFFFFFFFFFFFFFFFFFF
310
FFFFFFFFFFFFFFFFFFFFFFFFFFFFFFFFFFFFFFFFFFFFFFFFFFFFFFFFFFFFFFFF
310
FFFFFFFFFFFFFFFFFFFFFFFFFFFFFFFFFFFFFFFFFFFFFFFFF000FFFFFFFFFFFF
310
FFFFFFFFFFFFFFFFFFFFFFFFFFFFFFFFFFFFFFFFFFFFFFFFFFFFFFFFFFFFFFFF
310
FFFFFFFFFFFFFFFFFFFFFFFFFFFFFFFFFFFFFFFFFFFFFFFFFFFFFFFFFFFFFFFF
310
FFFFFFFFFFFFFFFFFFFFFFFFFFFFFFFFF000FFFFFFFFFFFFFFFFFFFFFFFFFFFF
310
FFFFFFFFFFFFFFFFFFFFFFFFFFFFFFFFFFFFFFFFFFFFFFFFFFFFFFFFFFFFFFFF
310
FFFFFFFFFFFFFFFFFFFFFFFFFFFFFFFFFFFFFFFFFFFFFFFFFFFFFFFFFFFFFFFF
310
FFFFFFFFFFFFFFFFF000FFFFFFFFFFFFFFFFFFFFFFFFFFFFFFFFFFFFFFFFFFFF
310
FFFFFFFFFFFFFFFFFFFFFFFFFFFFFFFFFFFFFFFFFFFFFFFFFFFFFFFFFFFFFFFF
310
FFFFFFFFFFFFFFFFFFFFFFFFFFFFFFFFFFFFFFFFFFFFFFFFFFFFFFFFFFFFFFFF
310
F000FFFFFFFFFFFFFFFFFFFFFFFFFFFFFFFFFFFFFFFFFFFFFFFFFFFFFFFFFFFF
310
FFFFFFFFFFFFFFFFFFFFFFFFFFFFFFFFFFFFFFFFFFFFFFFFFFFFFFFFFFFFFFFF
310
FFFFFFFFFFFFFFFFFFFFFFFFFFFFFFFFFFFFFFFFFFFFFFFFF000FFFFFFFFFFFF
310
FFFFFFFFFFFFFFFFFFFFFFFFFFFFFFFFFFFFFFFFFFFFFFFFFFFFFFFFFFFFFFFF
310
FFFFFFFFFFFFFFFFFFFFFFFFFFFFFFFFFFFFFFFFFFFFFFFFFFFFFFFFFFFFFFFF
310
FFFFFFFFFFFFFFFFFFFFFFFFFFFFFFFFF000FFFFFFFFFFFFFFFFFFFFFFFFFFFF
310
FFFFFFFFFFFFFFFFFFFFFFFFFFFFFFFFFFFFFFFFFFFFFFFFFFFFFFFFFFFFFFFF
310
FFFFFFFFFFFFFFFFFFFFFFFFFFFFFFFFFFFFFFFFFFFFFFFFFFFFFFFFFFFFFFFF
310
FFFFFFFFFFFFFFFFF000FFFFFFFFFFFFFFFFFFFFFFFFFFFFFFFFFFFFFFFFFFFF
310
FFFFFFFFFFFFFFFFFFFFFFFFFFFFFFFFFFFFFFFFFFFFFFFFFFFFFFFFFFFFFFFF
310
FFFFFFFFFFFFFFFFFFFFFFFFFFFFFFFFFFFFFFFFFFFFFFFFFFFFFFFFFFFFFFFF
310
F000FFFFFFFFFFFFFFFFFFFFFFFFFFFFFFFFFFFFFFFFFFFFFFFFFFFFFFFFFFFF
310
FFFFFFFFFFFFFFFFFFFFFFFFFFFFFFFFFFFFFFFFFFFFFFFFFFFFFFFFFFFFFFFF
310
FFFFFFFFFFFFFFFFFFFFFFFFFFFFFFFFFFFFFFFFFFFFFFFFF000FFFFFFFFFFFF
310
FFFFFFFFFFFFFFFFFFFFFFFFFFFFFFFFFFFFFFFFFFFFFFFFFFFFFFFFFFFFFFFF
310
FFFFFFFFFFFFFFFFFFFFFFFFFFFFFFFFFFFFFFFFFFFFFFFFFFFFFFFFFFFFFFFF
310
FFFFFFFFFFFFFFFFFFFFFFFFFFFFFFFFF000FFFFFFFFFFFFFFFFFFFFFFFFFFFF
310
FFFFFFFFFFFFFFFFFFFFFFFFFFFFFFFFFFFFFFFFFFFFFFFFFFFFFFFFFFFFFFFF
310
FFFFFFFFFFFFFFFFFFFFFFFFFFFFFFFFFFFFFFFFFFFFFFFFFFFFFFFFFFFFFFFF
310
FFFFFFFFFFFFFFFFF000FFFFFFFFFFFFFFFFFFFFFFFFFFFFFFFFFFFFFFFFFFFF
310
FFFFFFFFFFFFFFFFFFFFFFFFFFFFFFFFFFFFFFFFFFFFFFFFFFFFFFFFFFFFFFFF
310
FFFFFFFFFFFFFFFFFFFFFFFFFFFFFFFFFFFFFFFFFFFFFFFFFFFFFFFFFFFFFFFF
310
F000FFFFFFFFFFFFFFFFFFFFFFFFFFFFFFFFFFFFFFFFFFFFFFFFFFFFFFFFFFFF
310
FFFFFFFFFFFFFFFFFFFFFFFFFFFFFFFFFFFFFFFFFFFFFFFFFFFFFFFFFFFFFFFF
310
FFFFFFFFFFFFFFFFFFFFFFFFFFFFFFFFFFFFFFFFFFFFFFFFF000FFFFFFFFFFFF
310
FFFFFFFFFFFFFFFFFFFFFFFFFFFFFFFFFFFFFFFFFFFFFFFFFFFFFFFFFFFFFFFF
310
FFFFFFFFFFFFFFFFFFFFFFFFFFFFFFFFFFFFFFFFFFFFFFFFFFFFFFFFFFFFFFFF
310
FFFFFFFFFFFFFFFFFFFFFFFFFFFFFFFFF000FFFFFFFFFFFFFFFFFFFFFFFFFFFF
310
FFFFFFFFFFFFFFFFFFFFFFFFFFFFFFFFFFFFFFFFFFFFFFFFFFFFFFFFFFFFFFFF
310
FFFFFFFFFFFFFFFFFFFFFFFFFFFFFFFFFFFFFFFFFFFFFFFFFFFFFFFFFFFFFFFF
310
FFFFFFFFFFFFFFFFF000FFFFFFFFFFFFFFFFFFFFFFFFFFFFFFFFFFFFFFFFFFFF
310
FFFFFFFFFFFFFFFFFFFFFFFFFFFFFFFFFFFFFFFFFFFFFFFFFFFFFFFFFFFFFFFF
310
FFFFFFFFFFFFFFFFFFFFFFFFFFFFFFFFFFFFFFFFFFFFFFFFFFFFFFFFFFFFFFFF
310
F000FFFFFFFFFFFFFFFFFFFFFFFFFFFFFFFFFFFFFFFFFFFFFFFFFFFFFFFFFFFF
310
FFFFFFFFFFFFFFFFFFFFFFFFFFFFFFFFFFFFFFFFFFFFFFFFFFFFFFFFFFFFFFFF
310
FFFFFFFFFFFFFFFFFFFFFFFFFFFFFFFFFFFFFFFFFFFFFFFFF000FFFFFFFFFFFF
310
FFFFFFFFFFFFFFFFFFFFFFFFFFFFFFFFFFFFFFFFFFFFFFFFFFFFFFFFFFFFFFFF
310
FFFFFFFFFFFFFFFFFFFFFFFFFFFFFFFFFFFFFFFFFFFFFFFFFFFFFFFFFFFFFFFF
310
FFFFFFFFFFFFFFFFFFFFFFFFFFFFFFFFF000FFFFFFFFFFFFFFFFFFFFFFFFFFFF
310
FFFFFFFFFFFFFFFFFFFFFFFFFFFFFFFFFFFFFFFFFFFFFFFFFFFFFFFFFFFFFFFF
310
FFFFFFFFFFFFFFFFFFFFFFFFFFFFFFFFFFFFFFFFFFFFFFFFFFFFFFFFFFFFFFFF
310
FFFFFFFFFFFFFFFFF000FFFFF80003FFFFFFFFFFFFFFFFFFFFFFFFFFFFFFFFFF
310
FFFFF00007FFFFFFFFFF00007FFFFFF800000000000000007FFFFFFFFFFFFFFF
310
FFFFFFFC001FFFFFFFFFFFFFFC001FFFFFFFFFFFFFFFFFFFFFFFFFFE0007FFFF
310
F000FFFF8000007FFFFFFFF8000FFFFFC0007FFFFF80007FFFFF0000007FFFFF
310
FFF8000007FFFFF800000000000000007FFFFFF0001FFFFFFFFFFFC00001FFFF
310
FFFFFFFFC00001FFFFFFFF000000000003FFFFE000007FFFF000FFFE0000000F
310
FFFFFFF0000FFFFF80007FFFFF80007FFFFC0000001FFFFFFFC0000001FFFFF8
310
00000000000000007FFFFFF0001FFFFFFFFFFE0000003FFFFFFFFFFE0000003F
310
FFFFFF000000000003FFFF0000000FFFF000FFF800000003FFFFFFF00007FFFF
310
80007FFFFF80007FFFF000000007FFFFFF000000003FFFF80000000000000000
310
7FFFFFF0001FFFFFFFFFF80000000FFFFFFFFFF80000000FFFFFFF0000000000
310
03FFFC00000003FFF000FFE000000000FFFFFFF00007FFFF80003FFFFF80007F
310
FFC000000001FFFFFC000000001FFFF800000000000000007FFFFFF0001FFFFF
310
FFFFE000000003FFFFFFFFE000000003FFFFFF000000000003FFF000000000FF
310
F000FF80000000007FFFFFF00007FFFF80003FFFFF80007FFF8000000000FFFF
310
F80000000007FFF800000000000000007FFFFFF0001FFFFFFFFFC000000001FF
310
FFFFFFC000000001FFFFFF000000000003FFC0000000007FF000FF0000000000
310
3FFFFFE00007FFFF00003FFFFF80007FFE00000000003FFFF00000000003FFF8
310
00000000000000007FFFFFF0001FFFFFFFFF8000000000FFFFFFFF8000000000
310
FFFFFF000000000003FF80000000003FF000FE00000000001FFFFFE00003FFFF
310
00003FFFFF80007FFC00000000001FFFE00000000001FFF8000001FFFE000000
310
7FFFFFF0001FFFFFFFFE00000000003FFFFFFE00000000003FFFFF0000000000
310
03FF00000000001FF000FC00000000000FFFFFE00003FFFF00001FFFFF80007F
310
F800000000001FFFC00000000000FFF8000001FFFE0000007FFFFFF0001FFFFF
310
FFFC00000000001FFFFFFC00000000001FFFFF000000000003FE00000000000F
310
F000F8000000000007FFFFE00003FFFF00001FFFFF80007FF800000000000FFF
310
800000000000FFF8000001FFFE0000007FFFFFF0001FFFFFFFF800000000000F
310
FFFFF800000000000FFFFF000000000003FC000000000007F000F80000000000
310
03FFFFC00003FFFE00001FFFFF80007FF0000000000007FF0000000000007FF8
310
000001FFFE0000007FFFFFF0001FFFFFFFF0000000000007FFFFF00000000000
310
07FFFF000000000003F8000000000003F000F0000000000003FFFFC00001FFFE
310
00001FFFFF80007FE0000000000007FE0000000000003FF8000001FFFE000000
310
7FFFFFF0001FFFFFFFF0000000000007FFFFF0000000000007FFFF0000000000
310
03F800001F800003F000E00001FFF00001FFFFC00001FFFE00000FFFFF80007F
310
E00001FFE00003FE00001FFF00003FF8000001FFFE0000007FFFFFF0001FFFFF
310
FFE000003E000003FFFFE000003E000003FFFF000000000003F00001FFF80001
310
F000E00007FFFC0001FFFFC00001FFFE00000FFFFF80007FC0000FFFFC0003FC
310
0000FFFFC0001FF8000001FFFE0000007FFFFFF0001FFFFFFFC00003FFE00001
310
FFFFC00003FFE00001FFFF0001FFFFFFFFF00007FFFE0001F000E0000FFFFF00
310
00FFFF800001FFFC00000FFFFF80007FC0001FFFFE0001FC0001FFFFE0001FF8
310
000001FFFE0000007FFFFFF0001FFFFFFF80000FFFF80000FFFF80000FFFF800
310
00FFFF0003FFFFFFFFE0000FFFFF8000F000C0003FFFFF8000FFFF800000FFFC
310
000007FFFF80007F80003FFFFF0001FC0003FFFFF0001FF8000001FFFE000000
310
7FFFFFF0001FFFFFFF80003FFFFE0000FFFF80003FFFFE0000FFFF0003FFFFFF
310
FFE0003FFFFF8000F000C0003FFFFF8000FFFF800000FFFC000007FFFF80007F
310
80007FFFFF8001F80007FFFFF8000FF8000001FFFE0000007FFFFFF0001FFFFF
310
FF00007FFFFF00007FFF00007FFFFF00007FFF0003FFFFFFFFE0003FFFFFC000
310
F000C0007FFFFFC000FFFF000000FFFC000007FFFF80007F8000FFFFFF8000F8
310
000FFFFFF8000FF8000001FFFE0000007FFFFFF0001FFFFFFF0000FFFFFF8000
310
7FFF0000FFFFFF80007FFF0003FFFFFFFFC0007FFFFFC00070008000FFFFFFC0
310
00FFFF000000FFF8000007FFFF80007F8000FFFFFF8000F8000FFFFFF8000FF8
310
000001FFFE0000007FFFFFF0001FFFFFFE0001FFFFFFC0003FFE0001FFFFFFC0
310
003FFF0003FFFFFFFFC0007FFFFFE00070008000FFFFFFC0007FFF0000007FF8
310
000003FFFF80007F0001FFFFFF8000F8000FFFFFF8000FF8000001FFFE000000
310
7FFFFFF0001FFFFFFE0001FFFFFFC0003FFE0001FFFFFFC0003FFF0003FFFFFF
310
FFC000FFFFFFE00070008000FFFFFFC0007FFF0000007FF8000003FFFF80007F
310
0001FFFFFF8000F8001FFFFFF8000FF8000001FFFE0000007FFFFFF0001FFFFF
310
FE0003FFFFFFE0003FFE0003FFFFFFE0003FFF0003FFFFFFFFC000FFFFFFE000
310
70008000FFFFFFC0007FFE0000007FF8000003FFFF80007F0001FFFFFF8000F0
310
001FFFFFF8000FF8000001FFFE0000007FFFFFF0001FFFFFFC0003FFFFFFE000
310
1FFC0003FFFFFFE0001FFF0003FFFFFFFFC000FFFFFFC00070008000FFFFFF80
310
007FFE0000007FF0000003FFFF80007F0001FFFFFF0000F0001FFFFFF8000FF8
310
000001FFFE0000007FFFFFF0001FFFFFFC0007FFFFFFF0001FFC0007FFFFFFF0
310
001FFF0003FFFFFFFFC000FFFFFFC00070008001FFFFFF0000FFFE0000003FF0
310
000001FFFF80007F0001FFFFFF0000F8001FFFFFF0000FF8000001FFFE000000
310
7FFFFFF0001FFFFFFC0007FFFFFFF0001FFC0007FFFFFFF0001FFF0003FFFFFF
310
FFC001FFFFFF80007000FFFFFFFFFE0000FFFE0008003FF0008001FFFF80007F
310
FFFFFFFFFC0000FFFFFFFFFFE0000FF8000001FFFE0000007FFFFFF0001FFFFF
310
F8000FFFFFFFF8000FF8000FFFFFFFF8000FFF0003FFFFFFFFFFFFFFFFFF0000
310
7000FFFFFFFFFC0000FFFC0008003FF0008001FFFF80007FFFFFFFFFF80001FF
310
FFFFFFFF80000FF8000001FFFE0000007FFFFFF0001FFFFFF8000FFFFFFFF800
310
0FF8000FFFFFFFF8000FFF0003FFFFFFFFFFFFFFFFFE0000F000FFFFFFFFE000
310
00FFFC000C003FE000C001FFFF80007FFFFFFFFFC00001FFFFFFFFFE00001FF8
310
000001FFFE0000007FFFFFF0001FFFFFF8000FFFFFFFF8000FF8000FFFFFFFF8
310
000FFF0003FFFFFFFFFFFFFFFFF00000F000FFFFFFFE000001FFFC000C001FE0
310
00C000FFFF80007FFFFFFFFE000001FFFFFFFFE000001FF80FFFFFFFFFFFFFC0
310
7FFFFFF0001FFFFFF8000FFFFFFFF8000FF8000FFFFFFFF8000FFF0003FFFFFF
310
FFFFFFFFFF800000F000FFFFFFC0000001FFFC001C001FE001C000FFFF80007F
310
FFFFFF80000003FFFFFFF80000001FF80FFFFFFFFFFFFFC07FFFFFF0001FFFFF
310
F8001FFFFFFFFC000FF8001FFFFFFFFC000FFF0003FFFFFFFFFFFFFFF0000001
310
F000FFFFF800000001FFF8001C001FE001C000FFFF80007FFFFFF800000003FF
310
FFFF800000003FF80FFFFFFFFFFFFFC07FFFFFF0001FFFFFF8001FFFFFFFFC00
310
0FF8001FFFFFFFFC000FFF0003FFFFFFFFFFFFFE00000001F000FFFFC0000000
310
03FFF8001E001FC001E000FFFF80007FFFFF8000000007FFFFFC000000003FF8
310
0FFFFFFFFFFFFFC07FFFFFF0001FFFFFF8001FFFFFFFFC000FF8001FFFFFFFFC
310
000FFF0003FFFFFFFFFFFFE000000003F000FFFE0000000007FFF8001E000FC0
310
01E0007FFF80007FFFFE0000000007FFFFE0000000007FF80FFFFFFFFFFFFFC0
310
7FFFFFF0001FFFFFF0001FFFFFFFFC0007F0001FFFFFFFFC0007FF0003FFFFFF
310
FFFFFF0000000003F000FFF80000000007FFF8001E000FC003E0007FFF80007F
310
FFF0000000000FFFFF8000000000FFF80FFFFFFFFFFFFFC07FFFFFF0001FFFFF
310
F0001FFFFFFFFC0007F0001FFFFFFFFC0007FF0003FFFFFFFFFFFC0000000007
310
F000FFE0000000000FFFF0003E000FC003E0007FFF80007FFFC0000000001FFF
310
FE0000000001FFF80FFFFFFFFFFFFFC07FFFFFF0001FFFFFF0001FFFFFFFFC00
310
07F0001FFFFFFFFC0007FF0003FFFFFFFFFFF0000000000FF000FFC000000000
310
1FFFF0003F000F8003F0003FFF80007FFF80000000003FFFF80000000003FFF8
310
0FFFFFFFFFFFFFC07FFFFFF0001FFFFFF0001FFFFFFFFC0007F0001FFFFFFFFC
310
0007FF0003FFFFFFFFFFE0000000001FF000FF00000000007FFFF0003F000780
310
03F0003FFF80007FFF00000000007FFFF00000000007FFF80FFFFFFFFFFFFFC0
310
7FFFFFF0001FFFFFF0001FFFFFFFFC0007F0001FFFFFFFFC0007FF0003FFFFFF
310
FFFF80000000007FF000FE0000000000FFFFE0003F00078007F0003FFF80007F
310
FE0000000001FFFFE0000000001FFFF80FFFFFFFFFFFFFC07FFFFFF0001FFFFF
310
F0001FFFFFFFFC0007F0001FFFFFFFFC0007FF0003FFFFFFFFFF0000000000FF
310
F000FC0000000003FFFFE0007F00078007F0003FFF80007FFC0000000007FFFF
310
C0000000007FFFF80FFFFFFFFFFFFFC07FFFFFF0001FFFFFF8001FFFFFFFFC00
310
0FF8001FFFFFFFFC000FFF0003FFFFFFFFFE0000000003FFF000FC000000000F
310
FFFFE0007F80070007F8001FFF80007FF8000000001FFFFF8000000001FFFFF8
310
0FFFFFFFFFFFFFC07FFFFFF0001FFFFFF8001FFFFFFFFC000FF8001FFFFFFFFC
310
000FFF0003FFFFFFFFFC000000000FFFF000F8000000007FFFFFE0007F800700
310
07F8001FFF80007FF000000000FFFFFF800000000FFFFFF80FFFFFFFFFFFFFC0
310
7FFFFFF0001FFFFFF8000FFFFFFFF8000FF8000FFFFFFFF8000FFF0003FFFFFF
310
FFFC000000007FFFF000F800000007FFFFFFC0007F8003000FF8001FFF80007F
310
F000000007FFFFFF000000007FFFFFF80FFFFFFFFFFFFFC07FFFFFF0001FFFFF
310
F8000FFFFFFFF8000FF8000FFFFFFFF8000FFF0003FFFFFFFFF80000000FFFFF
310
F000F0000000FFFFFFFFC000FF8003000FF8001FFF80007FE0000000FFFFFFFF
310
0000000FFFFFFFF8000001FFFE0000007FFFFFF0001FFFFFF8000FFFFFFFF800
310
0FF8000FFFFFFFF8000FFF0003FFFFFFFFF8000000FFFFFFF000F000000FFFFF
310
FFFFC000FFC002000FF8000FFF80007FE000001FFFFFFFFE000001FFFFFFFFF8
310
000001FFFE0000007FFFFFF0001FFFFFF8000FFFFFFFF8000FF8000FFFFFFFF8
310
000FFF0003FFFFFFFFF000001FFFFFFFF000E00000FFFFFFFFFFC000FFC00200
310
0FFC000FFF80007FE00001FFFFFFFFFE00001FFFFFFFFFF8000001FFFE000000
310
7FFFFFF0001FFFFFFC000FFFFFFFF8001FFC000FFFFFFFF8001FFF0003FFFFFF
310
FFF00001FFFFFFFFF000E00007FFFFFFFFFF8000FFC000001FFC000FFF80007F
310
C0000FFFFFFFFFFE0000FFFFFFFFFFF8000001FFFE0000007FFFFFF0001FFFFF
310
FC0007FFFFFFF0001FFC0007FFFFFFF0001FFF0003FFFFFFFFF00007FFFFFFFF
310
F000E0001FFFFFFFFFFF8000FFC000001FFC000FFF80007FC0003FFFFFFFFFFE
310
0001FFFFFFFFFFF8000001FFFE0000007FFFFFF0001FFFFFFC0007FFFFFFF000
310
1FFC0007FFFFFFF0001FFF0003FFFFFFFFF0001FFFFFFFFFF000E0003FFFFF00
310
03FF8001FFE000001FFC0007FF80007FC0007FFFFF0007FC0003FFFFF0003FF8
310
000001FFFE0000007FFFFFF0001FFFFFFC0003FFFFFFE0001FFC0003FFFFFFE0
310
001FFF0003FFFFFFFFF0003FFFFFFFFFF000E0003FFFFF0001FF8001FFE00000
310
1FFE0007FF80007FC0007FFFFE0003FC0007FFFFE0003FF8000001FFFE000000
310
7FFFFFF0001FFFFFFE0003FFFFFFE0003FFE0003FFFFFFE0003FFF0003FFFFFF
310
FFF0003FFFFF8001F000E0003FFFFF0001FF0001FFE000001FFE0007FF80007F
310
C0007FFFFE0003FC0007FFFFE0003FF8000001FFFE0000007FFFFFF0001FFFFF
310
FE0001FFFFFFC0003FFE0001FFFFFFC0003FFF0003FFFFFFFFF0003FFFFF0001
310
F000E0003FFFFF0003FF0001FFE000003FFE0007FF80007FC0007FFFFE0003FC
310
0007FFFFE0003FF8000001FFFE0000007FFFFFF0001FFFFFFF0001FFFFFFC000
310
7FFF0001FFFFFFC0007FFF0003FFFFFFFFF0003FFFFF0001F000E0003FFFFE00
310
03FF0003FFF000003FFE0003FF80007FC0007FFFFC0003FE0007FFFFE0003FF8
310
000001FFFE0000007FFFFFF0001FFFFFFF0000FFFFFF80007FFF0000FFFFFF80
310
007FFF0003FFFFFFFFF0003FFFFF0001F000E0003FFFFE0003FF0003FFF00000
310
3FFF0003FF80007FC0007FFFFC0007FE0007FFFFC0003FF8000001FFFE000000
310
7FFFFFF0001FFFFFFF80007FFFFF0000FFFF80007FFFFF0000FFFF0003FFFFFF
310
FFF0003FFFFF0003F000E0003FFFFC0003FE0003FFF000003FFF0003FF80007F
310
E0003FFFF80007FE0003FFFFC0007FF8000001FFFE0000007FFFFFF0001FFFFF
310
FF80003FFFFE0000FFFF80003FFFFE0000FFFF0003FFFFFFFFF0001FFFFE0003
310
F000F0001FFFF80003FE0003FFF000007FFF0001FF80007FE0003FFFF00007FE
310
0001FFFF80007FF8000001FFFE0000007FFFFFF0001FFFFFFFC0000FFFF80001
310
FFFFC0000FFFF80001FFFF0003FFFFFFFFF0001FFFFC0003F000F0000FFFF000
310
07FE0007FFF800007FFF0001FF80007FE0001FFFE00007FF0000FFFE00007FF8
310
000001FFFE0000007FFFFFF0001FFFFFFFC00003FFE00001FFFFC00003FFE000
310
01FFFF0003FFFFFFFFF8000FFFF80003F000F00003FFC00007FC0007FFF80000
310
7FFF8001FF80007FF00007FF80000FFF00007FF80000FFF8000001FFFE000000
310
7F80000000000001FFE000003E000003FFFFE000003E000003FFFF0003FFFFFF
310
FFF80003FFE00007F000F800000000000FFC0007FFF800007FFF8001FF80007F
310
F000000000000FFF000000000000FFF8000001FFFE0000007F80000000000001
310
FFF0000000000007FFFFF0000000000007FFFF0003FFFFFFFFFC00007E000007
310
F000F800000000000FFC0007FFF80000FFFF8000FF80007FF800000000001FFF
310
800000000001FFF8000001FFFE0000007F80000000000001FFF800000000000F
310
FFFFF800000000000FFFFF0003FFFFFFFFFC00000000000FF000FC0000000000
310
1FFC0007FFFC0000FFFF8000FF80007FF800000000003FFFC00000000001FFF8
310
000001FFFE0000007F80000000000001FFF800000000000FFFFFF80000000000
310
0FFFFF0003FFFFFFFFFE00000000001FF000FE00000000003FF8000FFFFC0000
310
FFFF8000FF80007FFC00000000003FFFC00000000003FFF8000001FFFE000000
310
7F80000000000001FFFC00000000001FFFFFFC00000000001FFFFF0003FFFFFF
310
FFFF00000000001FF000FF00000000003FF8000FFFFC0000FFFFC000FF80007F
310
FE00000000007FFFE00000000007FFF8000001FFFE0000007F80000000000001
310
FFFE00000000003FFFFFFE00000000003FFFFF0003FFFFFFFFFF80000000003F
310
F000FF80000000007FF8000FFFFC0001FFFFC0007F80007FFF0000000000FFFF
310
F0000000000FFFF800000000000000007F80000000000001FFFF8000000000FF
310
FFFFFF8000000000FFFFFF0003FFFFFFFFFFC0000000007FF000FFC000000000
310
FFF8000FFFFE0001FFFFC0007F80007FFF8000000001FFFFF8000000001FFFF8
310
00000000000000007F80000000000001FFFFC000000001FFFFFFFFC000000001
310
FFFFFF0003FFFFFFFFFFE000000000FFF000FFE000000003FFF0001FFFFE0001
310
FFFFC0007F80007FFFC000000007FFFFFE000000003FFFF80000000000000000
310
7F80000000000001FFFFE000000003FFFFFFFFE000000003FFFFFF0003FFFFFF
310
FFFFF000000003FFF000FFF80000000FFFF0001FFFFE0001FFFFE0007F80007F
310
FFF00000000FFFFFFF00000000FFFFF800000000000000007F80000000000001
310
FFFFF80000000FFFFFFFFFF80000000FFFFFFF0003FFFFFFFFFFFC0000000FFF
310
F000FFFE0000003FFFF0001FFFFE0003FFFFE0003F80007FFFFC0000003FFFFF
310
FFC0000003FFFFF800000000000000007F80000000000001FFFFFE0000003FFF
310
FFFFFFFE0000003FFFFFFF0003FFFFFFFFFFFF0000003FFFF000FFFF800000FF
310
FFF0001FFFFF0003FFFFE0003F80007FFFFF000001FFFFFFFFF800001FFFFFF8
310
00000000000000007F80000000000001FFFFFFC00001FFFFFFFFFFFFC00001FF
310
FFFFFF0003FFFFFFFFFFFFC00000FFFFF000FFFFF8000FFFFFFFFFFFFFFFFFFF
310
FFFFFFFFFFFFFFFFFFFFF0001FFFFFFFFFFF0000FFFFFFF80000000000000000
310
7FFFFFFFFFFFFFFFFFFFFFFC001FFFFFFFFFFFFFFC001FFFFFFFFFFFFFFFFFFF
310
FFFFFFFC001FFFFFF000FFFFFFFFFFFFFFFFFFFFFFFFFFFFFFFFFFFFFFFFFFFF
310
FFFFFFFFFFFFFFFFFFFFFFFFFFFFFFFFFFFFFFFFFFFFFFFFFFFFFFFFFFFFFFFF
310
FFFFFFFFFFFFFFFFFFFFFFFFFFFFFFFFFFFFFFFFFFFFFFFFFFFFFFFFFFFFFFFF
310
F000FFFFFFFFFFFFFFFFFFFFFFFFFFFFFFFFFFFFFFFFFFFFFFFFFFFFFFFFFFFF
310
FFFFFFFFFFFFFFFFFFFFFFFFFFFFFFFFFFFFFFFFFFFFFFFFFFFFFFFFFFFFFFFF
310
FFFFFFFFFFFFFFFFFFFFFFFFFFFFFFFFFFFFFFFFFFFFFFFFF000FFFFFFFFFFFF
310
FFFFFFFFFFFFFFFFFFFFFFFFFFFFFFFFFFFFFFFFFFFFFFFFFFFFFFFFFFFFFFFF
310
FFFFFFFFFFFFFFFFFFFFFFFFFFFFFFFFFFFFFFFFFFFFFFFFFFFFFFFFFFFFFFFF
310
FFFFFFFFFFFFFFFFFFFFFFFFFFFFFFFFF000FFFFFFFFFFFFFFFFFFFFFFFFFFFF
310
FFFFFFFFFFFFFFFFFFFFFFFFFFFFFFFFFFFFFFFFFFFFFFFFFFFFFFFFFFFFFFFF
310
FFFFFFFFFFFFFFFFFFFFFFFFFFFFFFFFFFFFFFFFFFFFFFFFFFFFFFFFFFFFFFFF
310
FFFFFFFFFFFFFFFFF000FFFFFFFFFFFFFFFFFFFFFFFFFFFFFFFFFFFFFFFFFFFF
310
FFFFFFFFFFFFFFFFFFFFFFFFFFFFFFFFFFFFFFFFFFFFFFFFFFFFFFFFFFFFFFFF
310
FFFFFFFFFFFFFFFFFFFFFFFFFFFFFFFFFFFFFFFFFFFFFFFFFFFFFFFFFFFFFFFF
310
F000FFFFFFFFFFFFFFFFFFFFFFFFFFFFFFFFFFFFFFFFFFFFFFFFFFFFFFFFFFFF
310
FFFFFFFFFFFFFFFFFFFFFFFFFFFFFFFFFFFFFFFFFFFFFFFFFFFFFFFFFFFFFFFF
310
FFFFFFFFFFFFFFFFFFFFFFFFFFFFFFFFFFFFFFFFFFFFFFFFF000FFFFFFFFFFFF
310
FFFFFFFFFFFFFFFFFFFFFFFFFFFFFFFFFFFFFFFFFFFFFFFFFFFFFFFFFFFFFFFF
310
FFFFFFFFFFFFFFFFFFFFFFFFFFFFFFFFFFFFFFFFFFFFFFFFFFFFFFFFFFFFFFFF
310
FFFFFFFFFFFFFFFFFFFFFFFFFFFFFFFFF000FFFFFFFFFFFFFFFFFFFFFFFFFFFF
310
FFFFFFFFFFFFFFFFFFFFFFFFFFFFFFFFFFFFFFFFFFFFFFFFFFFFFFFFFFFFFFFF
310
FFFFFFFFFFFFFFFFFFFFFFFFFFFFFFFFFFFFFFFFFFFFFFFFFFFFFFFFFFFFFFFF
310
FFFFFFFFFFFFFFFFF000FFFFFFFFFFFFFFFFFFFFFFFFFFFFFFFFFFFFFFFFFFFF
310
FFFFFFFFFFFFFFFFFFFFFFFFFFFFFFFFFFFFFFFFFFFFFFFFFFFFFFFFFFFFFFFF
310
FFFFFFFFFFFFFFFFFFFFFFFFFFFFFFFFFFFFFFFFFFFFFFFFFFFFFFFFFFFFFFFF
310
F000FFFFFFFFFFFFFFFFFFFFFFFFFFFFFFFFFFFFFFFFFFFFFFFFFFFFFFFFFFFF
310
FFFFFFFFFFFFFFFFFFFFFFFFFFFFFFFFFFFFFFFFFFFFFFFFFFFFFFFFFFFFFFFF
310
FFFFFFFFFFFFFFFFFFFFFFFFFFFFFFFFFFFFFFFFFFFFFFFFF000FFFFFFFFFFFF
310
FFFFFFFFFFFFFFFFFFFFFFFFFFFFFFFFFFFFFFFFFFFFFFFFFFFFFFFFFFFFFFFF
310
FFFFFFFFFFFFFFFFFFFFFFFFFFFFFFFFFFFFFFFFFFFFFFFFFFFFFFFFFFFFFFFF
310
FFFFFFFFFFFFFFFFFFFFFFFFFFFFFFFFF000FFFFFFFFFFFFFFFFFFFFFFFFFFFF
310
FFFFFFFFFFFFFFFFFFFFFFFFFFFFFFFFFFFFFFFFFFFFFFFFFFFFFFFFFFFFFFFF
310
FFFFFFFFFFFFFFFFFFFFFFFFFFFFFFFFFFFFFFFFFFFFFFFFFFFFFFFFFFFFFFFF
310
FFFFFFFFFFFFFFFFF000FFFFFFFFFFFFFFFFFFFFFFFFFFFFFFFFFFFFFFFFFFFF
310
FFFFFFFFFFFFFFFFFFFFFFFFFFFFFFFFFFFFFFFFFFFFFFFFFFFFFFFFFFFFFFFF
310
FFFFFFFFFFFFFFFFFFFFFFFFFFFFFFFFFFFFFFFFFFFFFFFFFFFFFFFFFFFFFFFF
310
F000FFFFFFFFFFFFFFFFFFFFFFFFFFFFFFFFFFFFFFFFFFFFFFFFFFFFFFFFFFFF
310
FFFFFFFFFFFFFFFFFFFFFFFFFFFFFFFFFFFFFFFFFFFFFFFFFFFFFFFFFFFFFFFF
310
FFFFFFFFFFFFFFFFFFFFFFFFFFFFFFFFFFFFFFFFFFFFFFFFF000FFFFFFFFFFFF
310
FFFFFFFFFFFFFFFFFFFFFFFFFFFFFFFFFFFFFFFFFFFFFFFFFFFFFFFFFFFFFFFF
310
FFFFFFFFFFFFFFFFFFFFFFFFFFFFFFFFFFFFFFFFFFFFFFFFFFFFFFFFFFFFFFFF
310
FFFFFFFFFFFFFFFFFFFFFFFFFFFFFFFFF000FFFFFFFFFFFFFFFFFFFFFFFFFFFF
310
FFFFFFFFFFFFFFFFFFFFFFFFFFFFFFFFFFFFFFFFFFFFFFFFFFFFFFFFFFFFFFFF
310
FFFFFFFFFFFFFFFFFFFFFFFFFFFFFFFFFFFFFFFFFFFFFFFFFFFFFFFFFFFFFFFF
310
FFFFFFFFFFFFFFFFF000FFFFFFFFFFFFFFFFFFFFFFFFFFFFFFFFFFFFFFFFFFFF
310
FFFFFFFFFFFFFFFFFFFFFFFFFFFFFFFFFFFFFFFFFFFFFFFFFFFFFFFFFFFFFFFF
310
FFFFFFFFFFFFFFFFFFFFFFFFFFFFFFFFFFFFFFFFFFFFFFFFFFFFFFFFFFFFFFFF
310
F000FFFFFFFFFFFFFFFFFFFFFFFFFFFFFFFFFFFFFFFFFFFFFFFFFFFFFFFFFFFF
310
FFFFFFFFFFFFFFFFFFFFFFFFFFFFFFFFFFFFFFFFFFFFFFFFFFFFFFFFFFFFFFFF
310
FFFFFFFFFFFFFFFFFFFFFFFFFFFFFFFFFFFFFFFFFFFFFFFFF000FFFFFFFFFFFF
310
FFFFFFFFFFFFFFFFFFFFFFFFFFFFFFFFFFFFFFFFFFFFFFFFFFFFFFFFFFFFFFFF
310
FFFFFFFFFFFFFFFFFFFFFFFFFFFFFFFFFFFFFFFFFFFFFFFFFFFFFFFFFFFFFFFF
310
FFFFFFFFFFFFFFFFFFFFFFFFFFFFFFFFF000FFFFFFFFFFFFFFFFFFFFFFFFFFFF
310
FFFFFFFFFFFFFFFFFFFFFFFFFFFFFFFFFFFFFFFFFFFFFFFFFFFFFFFFFFFFFFFF
310
FFFFFFFFFFFFFFFFFFFFFFFFFFFFFFFFFFFFFFFFFFFFFFFFFFFFFFFFFFFFFFFF
310
FFFFFFFFFFFFFFFFF000FFFFFFFFFFFFFFFFFFFFFFFFFFFFFFFFFFFFFFFFFFFF
310
FFFFFFFFFFFFFFFFFFFFFFFFFFFFFFFFFFFFFFFFFFFFFFFFFFFFFFFFFFFFFFFF
310
FFFFFFFFFFFFFFFFFFFFFFFFFFFFFFFFFFFFFFFFFFFFFFFFFFFFFFFFFFFFFFFF
310
F000FFFFFFFFFFFFFFFFFFFFFFFFFFFFFFFFFFFFFFFFFFFFFFFFFFFFFFFFFFFF
310
FFFFFFFFFFFFFFFFFFFFFFFFFFFFFFFFFFFFFFFFFFFFFFFFFFFFFFFFFFFFFFFF
310
FFFFFFFFFFFFFFFFFFFFFFFFFFFFFFFFFFFFFFFFFFFFFFFFF000FFFFFFFFFFFF
310
FFFFFFFFFFFFFFFFFFFFFFFFFFFFFFFFFFFFFFFFFFFFFFFFFFFFFFFFFFFFFFFF
310
FFFFFFFFFFFFFFFFFFFFFFFFFFFFFFFFFFFFFFFFFFFFFFFFFFFFFFFFFFFFFFFF
310
FFFFFFFFFFFFFFFFFFFFFFFFFFFFFFFFF0000000000000000000000000000000
310
0000000000000000000000000000000000000000000000000000000000000000
310
0000000000000000000000000000000000000000000000000000000000000000
310
0000000000000000000000000000000000000000000000000000000000000000
310
0000000000000000000000000000000000000000000000000000000000000000
310
0000000000000000000000000000000000000000000000000000000000000000
310
0000000000000000000000000000000000000000000000000000000000000000
310
0000000000000000000000000000000000000000000000000000000000000000
310
0000000000000000000000000000000000000000000000000000000000000000
310
0000000000000000000000000000000000000000000000000000000000000000
310
0000000000000000000000000000000000000000000000000000000000000000
310
0000000000000000000000000000000000000000000000000000000000000000
310
0000000000000000000000000000000000000000000000000000000000000000
310
0000000000000000000000000000000000000000000000000000000000000000
310
0000000000000000000000000000000000000000000000000000000000000000
310
0000000000000000000000000000000000000000000000000000000000000000
  1
OLE
  0
ENDSEC
  0
SECTION
  2
OBJECTS
  0
DICTIONARY
  5
C
330
0
100
AcDbDictionary
281
     1
  3
ACAD_GROUP
350
D
  3
ACAD_LAYOUT
350
1A
  3
ACAD_MLINESTYLE
350
17
  3
ACAD_PLOTSETTINGS
350
19
  3
ACAD_PLOTSTYLENAME
350
E
  0
DICTIONARY
  5
D
102
{ACAD_REACTORS
330
C
102
}
330
C
100
AcDbDictionary
281
     1
  0
DICTIONARY
  5
1A
102
{ACAD_REACTORS
330
C
102
}
330
C
100
AcDbDictionary
281
     1
  3
Layout1
350
1E
  3
Layout2
350
26
  3
Model
350
22
  0
DICTIONARY
  5
17
102
{ACAD_REACTORS
330
C
102
}
330
C
100
AcDbDictionary
281
     1
  3
Standard
350
18
  0
DICTIONARY
  5
19
102
{ACAD_REACTORS
330
C
102
}
330
C
100
AcDbDictionary
281
     1
  0
ACDBDICTIONARYWDFLT
  5
E
102
{ACAD_REACTORS
330
C
102
}
330
C
100
AcDbDictionary
281
     1
  3
Normal
350
F
100
AcDbDictionaryWithDefault
340
F
  0
LAYOUT
  5
1E
102
{ACAD_REACTORS
330
1A
102
}
330
1A
100
AcDbPlotSettings
  1

  2
none_device
  4

  6

 40
0.0
 41
0.0
 42
0.0
 43
0.0
 44
0.0
 45
0.0
 46
0.0
 47
0.0
 48
0.0
 49
0.0
140
0.0
141
0.0
142
1.0
143
1.0
 70
   688
 72
     0
 73
     0
 74
     5
  7

 75
    16
147
1.0
148
0.0
149
0.0
100
AcDbLayout
  1
Layout1
 70
     1
 71
     1
 10
0.0
 20
0.0
 11
420.0
 21
297.0
 12
0.0
 22
0.0
 32
0.0
 14
1.0000000000E+20
 24
1.0000000000E+20
 34
1.0000000000E+20
 15
-1.0000000000E+20
 25
-1.0000000000E+20
 35
-1.0000000000E+20
146
0.0
 13
0.0
 23
0.0
 33
0.0
 16
1.0
 26
0.0
 36
0.0
 17
0.0
 27
1.0
 37
0.0
 76
     0
330
1B
  0
LAYOUT
  5
26
102
{ACAD_REACTORS
330
1A
102
}
330
1A
100
AcDbPlotSettings
  1

  2
none_device
  4

  6

 40
0.0
 41
0.0
 42
0.0
 43
0.0
 44
0.0
 45
0.0
 46
0.0
 47
0.0
 48
0.0
 49
0.0
140
0.0
141
0.0
142
1.0
143
1.0
 70
   688
 72
     0
 73
     0
 74
     5
  7

 75
    16
147
1.0
148
0.0
149
0.0
100
AcDbLayout
  1
Layout2
 70
     1
 71
     2
 10
0.0
 20
0.0
 11
0.0
 21
0.0
 12
0.0
 22
0.0
 32
0.0
 14
0.0
 24
0.0
 34
0.0
 15
0.0
 25
0.0
 35
0.0
146
0.0
 13
0.0
 23
0.0
 33
0.0
 16
1.0
 26
0.0
 36
0.0
 17
0.0
 27
1.0
 37
0.0
 76
     0
330
23
  0
LAYOUT
  5
22
102
{ACAD_REACTORS
330
1A
102
}
330
1A
100
AcDbPlotSettings
  1

  2
none_device
  4

  6

 40
0.0
 41
0.0
 42
0.0
 43
0.0
 44
0.0
 45
0.0
 46
0.0
 47
0.0
 48
0.0
 49
0.0
140
0.0
141
0.0
142
1.0
143
1.0
 70
  1712
 72
     0
 73
     0
 74
     0
  7

 75
     0
147
1.0
148
0.0
149
0.0
100
AcDbLayout
  1
Model
 70
     1
 71
     0
 10
0.0
 20
0.0
 11
297.0
 21
210.0
 12
0.0
 22
0.0
 32
0.0
 14
0.0
 24
0.0
 34
0.0
 15
297.0
 25
210.0
 35
0.0
146
0.0
 13
0.0
 23
0.0
 33
0.0
 16
1.0
 26
0.0
 36
0.0
 17
0.0
 27
1.0
 37
0.0
 76
     0
330
1F
331
29
  0
MLINESTYLE
  5
18
102
{ACAD_REACTORS
330
17
102
}
330
17
100
AcDbMlineStyle
  2
Standard
 70
     0
  3

 62
   256
 51
90.0
 52
90.0
 71
     2
 49
0.5
 62
   256
  6
BYLAYER
 49
-0.5
 62
   256
  6
BYLAYER
  0
ACDBPLACEHOLDER
  5
F
102
{ACAD_REACTORS
330
E
102
}
330
E
  0
ENDSEC
  0
EOF
