  0
SECTION
  2
HEADER
  9
$ACADVER
  1
AC1015
  9
$ACADMAINTVER
 70
     6
  9
$DWGCODEPAGE
  3
ANSI_1252
  9
$INSBASE
 10
0.0
 20
0.0
 30
0.0
  9
$EXTMIN
 10
0.0
 20
0.0
 30
0.0
  9
$EXTMAX
 10
297.0
 20
210.0
 30
0.0
  9
$LIMMIN
 10
0.0
 20
0.0
  9
$LIMMAX
 10
297.0
 20
210.0
  9
$ORTHOMODE
 70
     0
  9
$REGENMODE
 70
     1
  9
$FILLMODE
 70
     1
  9
$QTEXTMODE
 70
     0
  9
$MIRRTEXT
 70
     1
  9
$LTSCALE
 40
1.0
  9
$ATTMODE
 70
     1
  9
$TEXTSIZE
 40
2.0
  9
$TRACEWID
 40
1.0
  9
$TEXTSTYLE
  7
Standard
  9
$CLAYER
  8
0
  9
$CELTYPE
  6
ByLayer
  9
$CECOLOR
 62
   256
  9
$CELTSCALE
 40
1.0
  9
$DISPSILH
 70
     0
  9
$DIMSCALE
 40
1.0
  9
$DIMASZ
 40
3.0
  9
$DIMEXO
 40
0.0
  9
$DIMDLI
 40
3.75
  9
$DIMRND
 40
0.0
  9
$DIMDLE
 40
0.0
  9
$DIMEXE
 40
1.0
  9
$DIMTP
 40
0.0
  9
$DIMTM
 40
0.0
  9
$DIMTXT
 40
2.0
  9
$DIMCEN
 40
2.5
  9
$DIMTSZ
 40
0.0
  9
$DIMTOL
 70
     0
  9
$DIMLIM
 70
     0
  9
$DIMTIH
 70
     1
  9
$DIMTOH
 70
     1
  9
$DIMSE1
 70
     0
  9
$DIMSE2
 70
     0
  9
$DIMTAD
 70
     1
  9
$DIMZIN
 70
     0
  9
$DIMBLK
  1

  9
$DIMASO
 70
     1
  9
$DIMSHO
 70
     1
  9
$DIMPOST
  1

  9
$DIMAPOST
  1

  9
$DIMALT
 70
     0
  9
$DIMALTD
 70
     3
  9
$DIMALTF
 40
0.0393700787
  9
$DIMLFAC
 40
1.0
  9
$DIMTOFL
 70
     1
  9
$DIMTVP
 40
0.0
  9
$DIMTIX
 70
     0
  9
$DIMSOXD
 70
     0
  9
$DIMSAH
 70
     0
  9
$DIMBLK1
  1

  9
$DIMBLK2
  1

  9
$DIMSTYLE
  2
ISO-25
  9
$DIMCLRD
 70
     0
  9
$DIMCLRE
 70
     0
  9
$DIMCLRT
 70
     0
  9
$DIMTFAC
 40
1.0
  9
$DIMGAP
 40
1.524
  9
$DIMJUST
 70
     0
  9
$DIMSD1
 70
     0
  9
$DIMSD2
 70
     0
  9
$DIMTOLJ
 70
     0
  9
$DIMTZIN
 70
     0
  9
$DIMALTZ
 70
     0
  9
$DIMALTTZ
 70
     0
  9
$DIMUPT
 70
     0
  9
$DIMDEC
 70
     2
  9
$DIMTDEC
 70
     3
  9
$DIMALTU
 70
     2
  9
$DIMALTTD
 70
     3
  9
$DIMTXSTY
  7
Standard
  9
$DIMAUNIT
 70
     0
  9
$DIMADEC
 70
     2
  9
$DIMALTRND
 40
0.0
  9
$DIMAZIN
 70
     0
  9
$DIMDSEP
 70
    44
  9
$DIMATFIT
 70
     3
  9
$DIMFRAC
 70
     0
  9
$DIMLDRBLK
  1

  9
$DIMLUNIT
 70
     2
  9
$DIMLWD
 70
    -2
  9
$DIMLWE
 70
    -2
  9
$DIMTMOVE
 70
     0
  9
$LUNITS
 70
     2
  9
$LUPREC
 70
     2
  9
$SKETCHINC
 40
1.0
  9
$FILLETRAD
 40
10.0
  9
$AUNITS
 70
     0
  9
$AUPREC
 70
     2
  9
$MENU
  1
.
  9
$ELEVATION
 40
0.0
  9
$PELEVATION
 40
0.0
  9
$THICKNESS
 40
0.0
  9
$LIMCHECK
 70
     0
  9
$CHAMFERA
 40
0.0
  9
$CHAMFERB
 40
0.0
  9
$CHAMFERC
 40
0.0
  9
$CHAMFERD
 40
0.0
  9
$SKPOLY
 70
     0
  9
$TDCREATE
 40
2457716.67266243
  9
$TDUCREATE
 40
2457716.630995764
  9
$TDUPDATE
 40
2457716.672663449
  9
$TDUUPDATE
 40
2457716.630996782
  9
$TDINDWG
 40
0.0000000116
  9
$TDUSRTIMER
 40
0.0000000116
  9
$USRTIMER
 70
     1
  9
$ANGBASE
 50
0.0
  9
$ANGDIR
 70
     0
  9
$PDMODE
 70
     0
  9
$PDSIZE
 40
-1.0
  9
$PLINEWID
 40
0.0
  9
$SPLFRAME
 70
     0
  9
$SPLINETYPE
 70
     6
  9
$SPLINESEGS
 70
     8
  9
$HANDSEED
  5
21F
  9
$SURFTAB1
 70
     6
  9
$SURFTAB2
 70
     6
  9
$SURFTYPE
 70
     6
  9
$SURFU
 70
     6
  9
$SURFV
 70
     6
  9
$UCSBASE
  2

  9
$UCSNAME
  2

  9
$UCSORG
 10
0.0
 20
0.0
 30
0.0
  9
$UCSXDIR
 10
1.0
 20
0.0
 30
0.0
  9
$UCSYDIR
 10
0.0
 20
1.0
 30
0.0
  9
$UCSORTHOREF
  2

  9
$UCSORTHOVIEW
 70
     0
  9
$UCSORGTOP
 10
0.0
 20
0.0
 30
0.0
  9
$UCSORGBOTTOM
 10
0.0
 20
0.0
 30
0.0
  9
$UCSORGLEFT
 10
0.0
 20
0.0
 30
0.0
  9
$UCSORGRIGHT
 10
0.0
 20
0.0
 30
0.0
  9
$UCSORGFRONT
 10
0.0
 20
0.0
 30
0.0
  9
$UCSORGBACK
 10
0.0
 20
0.0
 30
0.0
  9
$PUCSBASE
  2

  9
$PUCSNAME
  2

  9
$PUCSORG
 10
0.0
 20
0.0
 30
0.0
  9
$PUCSXDIR
 10
1.0
 20
0.0
 30
0.0
  9
$PUCSYDIR
 10
0.0
 20
1.0
 30
0.0
  9
$PUCSORTHOREF
  2

  9
$PUCSORTHOVIEW
 70
     0
  9
$PUCSORGTOP
 10
0.0
 20
0.0
 30
0.0
  9
$PUCSORGBOTTOM
 10
0.0
 20
0.0
 30
0.0
  9
$PUCSORGLEFT
 10
0.0
 20
0.0
 30
0.0
  9
$PUCSORGRIGHT
 10
0.0
 20
0.0
 30
0.0
  9
$PUCSORGFRONT
 10
0.0
 20
0.0
 30
0.0
  9
$PUCSORGBACK
 10
0.0
 20
0.0
 30
0.0
  9
$USERI1
 70
     0
  9
$USERI2
 70
     0
  9
$USERI3
 70
     0
  9
$USERI4
 70
     0
  9
$USERI5
 70
     0
  9
$USERR1
 40
0.0
  9
$USERR2
 40
0.0
  9
$USERR3
 40
0.0
  9
$USERR4
 40
0.0
  9
$USERR5
 40
0.0
  9
$WORLDVIEW
 70
     1
  9
$SHADEDGE
 70
     3
  9
$SHADEDIF
 70
    70
  9
$TILEMODE
 70
     1
  9
$MAXACTVP
 70
    64
  9
$PINSBASE
 10
0.0
 20
0.0
 30
0.0
  9
$PLIMCHECK
 70
     0
  9
$PEXTMIN
 10
1.0000000000E+20
 20
1.0000000000E+20
 30
1.0000000000E+20
  9
$PEXTMAX
 10
-1.0000000000E+20
 20
-1.0000000000E+20
 30
-1.0000000000E+20
  9
$PLIMMIN
 10
0.0
 20
0.0
  9
$PLIMMAX
 10
420.0
 20
297.0
  9
$UNITMODE
 70
     0
  9
$VISRETAIN
 70
     1
  9
$PLINEGEN
 70
     0
  9
$PSLTSCALE
 70
     1
  9
$TREEDEPTH
 70
  3020
  9
$CMLSTYLE
  2
Standard
  9
$CMLJUST
 70
     0
  9
$CMLSCALE
 40
20.0
  9
$PROXYGRAPHICS
 70
     1
  9
$MEASUREMENT
 70
     1
  9
$CELWEIGHT
370
    -1
  9
$ENDCAPS
280
     0
  9
$JOINSTYLE
280
     0
  9
$LWDISPLAY
290
     1
  9
$INSUNITS
 70
     4
  9
$HYPERLINKBASE
  1

  9
$STYLESHEET
  1

  9
$XEDIT
290
     1
  9
$CEPSNTYPE
380
     0
  9
$PSTYLEMODE
290
     1
  9
$FINGERPRINTGUID
  2
{DCE76E5C-1442-4134-B5A9-1239C7D22465}
  9
$VERSIONGUID
  2
{FAEB1C32-E019-11D5-929B-00C0DF256EC4}
  9
$EXTNAMES
290
     1
  9
$PSVPSCALE
 40
0.0
  9
$OLESTARTUP
290
     0
  0
ENDSEC
  0
SECTION
  2
CLASSES
  0
CLASS
  1
ACDBDICTIONARYWDFLT
  2
AcDbDictionaryWithDefault
  3
ObjectDBX Classes
 90
        0
280
     0
281
     0
  0
CLASS
  1
VISUALSTYLE
  2
AcDbVisualStyle
  3
ObjectDBX Classes
 90
     4095
280
     0
281
     0
  0
CLASS
  1
MATERIAL
  2
AcDbMaterial
  3
ObjectDBX Classes
 90
     1153
280
     0
281
     0
  0
CLASS
  1
SCALE
  2
AcDbScale
  3
ObjectDBX Classes
 90
     1153
280
     0
281
     0
  0
CLASS
  1
TABLESTYLE
  2
AcDbTableStyle
  3
ObjectDBX Classes
 90
     4095
280
     0
281
     0
  0
CLASS
  1
MLEADERSTYLE
  2
AcDbMLeaderStyle
  3
ACDB_MLEADERSTYLE_CLASS
 90
     4095
280
     0
281
     0
  0
CLASS
  1
SUN
  2
AcDbSun
  3
SCENEOE
 90
     1153
280
     0
281
     0
  0
CLASS
  1
ACDBPLACEHOLDER
  2
AcDbPlaceHolder
  3
ObjectDBX Classes
 90
        0
280
     0
281
     0
  0
CLASS
  1
LAYOUT
  2
AcDbLayout
  3
ObjectDBX Classes
 90
        0
280
     0
281
     0
  0
ENDSEC
  0
SECTION
  2
TABLES
  0
TABLE
  2
VPORT
  5
8
330
0
100
AcDbSymbolTable
 70
     1
  0
VPORT
  5
29
330
8
100
AcDbSymbolTableRecord
100
AcDbViewportTableRecord
  2
*Active
 70
     0
 10
0.0
 20
0.0
 11
1.0
 21
1.0
 12
148.5
 22
105.0
 13
0.0
 23
0.0
 14
10.0
 24
10.0
 15
10.0
 25
10.0
 16
0.0
 26
0.0
 36
1.0
 17
0.0
 27
0.0
 37
0.0
 40
210.0
 41
1.4142857143
 42
50.0
 43
0.0
 44
0.0
 50
0.0
 51
0.0
 71
     0
 72
  2000
 73
     1
 74
     3
 75
     0
 76
     0
 77
     0
 78
     0
281
     0
 65
     1
110
0.0
120
0.0
130
0.0
111
1.0
121
0.0
131
0.0
112
0.0
122
1.0
132
0.0
 79
     0
146
0.0
  0
ENDTAB
  0
TABLE
  2
LTYPE
  5
5
330
0
100
AcDbSymbolTable
 70
     6
  0
LTYPE
  5
14
330
5
100
AcDbSymbolTableRecord
100
AcDbLinetypeTableRecord
  2
ByBlock
 70
     0
  3

 72
    65
 73
     0
 40
0.0
  0
LTYPE
  5
15
330
5
100
AcDbSymbolTableRecord
100
AcDbLinetypeTableRecord
  2
ByLayer
 70
     0
  3

 72
    65
 73
     0
 40
0.0
  0
LTYPE
  5
16
330
5
100
AcDbSymbolTableRecord
100
AcDbLinetypeTableRecord
  2
Continuous
 70
     0
  3
Solid line
 72
    65
 73
     0
 40
0.0
  0
LTYPE
  5
6E
330
5
100
AcDbSymbolTableRecord
100
AcDbLinetypeTableRecord
  2
HIDDEN
 70
     0
  3
Hidden __ __ __ __ __ __ __ __ __ __ __ __ __ __
 72
    65
 73
     2
 40
1.905
 49
1.27
 74
     0
 49
-0.635
 74
     0
  0
LTYPE
  5
6F
330
5
100
AcDbSymbolTableRecord
100
AcDbLinetypeTableRecord
  2
PHANTOM
 70
     0
  3
Phantom ______  __  __  ______  __  __  ______
 72
    65
 73
     6
 40
12.7
 49
6.35
 74
     0
 49
-1.27
 74
     0
 49
1.27
 74
     0
 49
-1.27
 74
     0
 49
1.27
 74
     0
 49
-1.27
 74
     0
  0
LTYPE
  5
70
330
5
100
AcDbSymbolTableRecord
100
AcDbLinetypeTableRecord
  2
CENTER
 70
     0
  3
Center ____ _ ____ _ ____ _ ____ _ ____ _ ____
 72
    65
 73
     4
 40
10.16
 49
6.35
 74
     0
 49
-1.27
 74
     0
 49
1.27
 74
     0
 49
-1.27
 74
     0
  0
LTYPE
  5
71
330
5
100
AcDbSymbolTableRecord
100
AcDbLinetypeTableRecord
  2
CENTERX2
 70
     0
  3
Center (2x) ________  __  ________  __  _____
 72
    65
 73
     4
 40
20.32
 49
12.7
 74
     0
 49
-2.54
 74
     0
 49
2.54
 74
     0
 49
-2.54
 74
     0
  0
LTYPE
  5
72
330
5
100
AcDbSymbolTableRecord
100
AcDbLinetypeTableRecord
  2
DOT2
 70
     0
  3
Dot (.5x) ........................................
 72
    65
 73
     2
 40
0.635
 49
0.0
 74
     0
 49
-0.635
 74
     0
  0
ENDTAB
  0
TABLE
  2
LAYER
  5
2
330
0
100
AcDbSymbolTable
 70
     5
  0
LAYER
  5
10
330
2
100
AcDbSymbolTableRecord
100
AcDbLayerTableRecord
  2
0
 70
     0
 62
     7
  6
Continuous
370
    -3
390
F
  0
LAYER
  5
73
330
2
100
AcDbSymbolTableRecord
100
AcDbLayerTableRecord
  2
FORMAT
 70
     0
 62
     7
  6
Continuous
370
    -3
390
F
  0
LAYER
  5
74
330
2
100
AcDbSymbolTableRecord
100
AcDbLayerTableRecord
  2
VERMASSUNG
 70
     0
 62
     7
  6
Continuous
370
    -3
390
F
  0
LAYER
  5
75
330
2
100
AcDbSymbolTableRecord
100
AcDbLayerTableRecord
  2
KOPF_DÜNN
 70
     0
 62
     7
  6
Continuous
370
    -3
390
F
  0
LAYER
  5
76
330
2
100
AcDbSymbolTableRecord
100
AcDbLayerTableRecord
  2
KOPF_DICK
 70
     0
 62
     7
  6
Continuous
370
    15
390
F
  0
ENDTAB
  0
TABLE
  2
STYLE
  5
3
330
0
100
AcDbSymbolTable
 70
     2
  0
STYLE
  5
11
330
3
100
AcDbSymbolTableRecord
100
AcDbTextStyleTableRecord
  2
Standard
 70
     0
 40
0.0
 41
1.0
 50
0.0
 71
     0
 42
2.0
  3
txt
  4

  0
STYLE
  5
77
330
3
100
AcDbSymbolTableRecord
100
AcDbTextStyleTableRecord
  2
SLDTEXTSTYLE0
 70
     0
 40
0.0
 41
0.7
 50
0.0
 71
     0
 42
2.0
  3
TXT
  4

  0
ENDTAB
  0
TABLE
  2
VIEW
  5
6
330
0
100
AcDbSymbolTable
 70
     0
  0
ENDTAB
  0
TABLE
  2
UCS
  5
7
330
0
100
AcDbSymbolTable
 70
     0
  0
ENDTAB
  0
TABLE
  2
APPID
  5
9
330
0
100
AcDbSymbolTable
 70
     1
  0
APPID
  5
12
330
9
100
AcDbSymbolTableRecord
100
AcDbRegAppTableRecord
  2
ACAD
 70
     0
  0
ENDTAB
  0
TABLE
  2
DIMSTYLE
  5
A
330
0
100
AcDbSymbolTable
 70
     5
100
AcDbDimStyleTable
  0
DIMSTYLE
105
27
330
A
100
AcDbSymbolTableRecord
100
AcDbDimStyleTableRecord
  2
ISO-25
 70
     0
 41
2.5
 42
0.625
 43
3.75
 44
1.25
 73
     0
 74
     0
 77
     1
 78
     8
140
2.5
141
2.5
143
0.0393700787
147
0.625
171
     3
172
     1
178
     0
271
     2
272
     2
274
     3
278
    44
283
     0
284
     8
340
11
  0
DIMSTYLE
105
1A5
102
{ACAD_REACTORS
330
1A4
330
1D3
102
}
330
A
100
AcDbSymbolTableRecord
100
AcDbDimStyleTableRecord
  2
SLDDIMSTYLE0
 70
     0
 41
3.0
 44
0.0
 45
0.000000001
 73
     0
 74
     0
 77
     1
 78
    12
 79
     3
140
2.0
147
0.5
173
     1
178
     0
271
     2
272
     3
276
     2
284
    12
340
77
  0
DIMSTYLE
105
1B0
102
{ACAD_REACTORS
330
1AF
330
1BC
102
}
330
A
100
AcDbSymbolTableRecord
100
AcDbDimStyleTableRecord
  2
SLDDIMSTYLE1
 70
     0
 41
3.0
 44
0.0
 45
0.000000001
 47
0.1
 48
0.1
 71
     1
 73
     0
 74
     0
 77
     1
 78
    12
 79
     3
140
2.0
147
0.5
173
     1
178
     0
271
     2
272
     1
276
     2
284
     8
340
77
  0
DIMSTYLE
105
1C9
102
{ACAD_REACTORS
330
1C8
102
}
330
A
100
AcDbSymbolTableRecord
100
AcDbDimStyleTableRecord
  2
SLDDIMSTYLE2
 70
     0
 41
3.0
 44
0.0
 73
     0
 74
     0
 77
     1
 78
    12
 79
     3
140
2.0
147
0.5
173
     1
178
     0
179
     2
272
     3
276
     2
284
    12
340
77
  0
DIMSTYLE
105
204
102
{ACAD_REACTORS
330
203
102
}
330
A
100
AcDbSymbolTableRecord
100
AcDbDimStyleTableRecord
  2
SLDDIMSTYLE3
 70
     0
 41
3.0
 44
0.0
 45
0.000000001
 73
     0
 74
     0
 77
     1
 78
    12
 79
     3
140
2.0
147
0.5
172
     1
173
     1
178
     0
271
     2
272
     3
276
     2
284
     8
289
     0
340
77
  0
ENDTAB
  0
TABLE
  2
BLOCK_RECORD
  5
1
330
0
100
AcDbSymbolTable
 70
     8
  0
BLOCK_RECORD
  5
1F
330
1
100
AcDbSymbolTableRecord
100
AcDbBlockTableRecord
  2
*Model_Space
340
22
  0
BLOCK_RECORD
  5
1B
330
1
100
AcDbSymbolTableRecord
100
AcDbBlockTableRecord
  2
*Paper_Space
340
1E
  0
BLOCK_RECORD
  5
23
330
1
100
AcDbSymbolTableRecord
100
AcDbBlockTableRecord
  2
*Paper_Space0
340
26
  0
BLOCK_RECORD
  5
1A6
330
1
100
AcDbSymbolTableRecord
100
AcDbBlockTableRecord
  2
_D
340
0
  0
BLOCK_RECORD
  5
1B1
330
1
100
AcDbSymbolTableRecord
100
AcDbBlockTableRecord
  2
_D_1
340
0
  0
BLOCK_RECORD
  5
1BD
330
1
100
AcDbSymbolTableRecord
100
AcDbBlockTableRecord
  2
_D_2
340
0
  0
BLOCK_RECORD
  5
1CA
330
1
100
AcDbSymbolTableRecord
100
AcDbBlockTableRecord
  2
_D_3
340
0
  0
BLOCK_RECORD
  5
1D4
330
1
100
AcDbSymbolTableRecord
100
AcDbBlockTableRecord
  2
_D_4
340
0
  0
BLOCK_RECORD
  5
205
330
1
100
AcDbSymbolTableRecord
100
AcDbBlockTableRecord
  2
_D_5
340
0
  0
BLOCK_RECORD
  5
212
330
1
100
AcDbSymbolTableRecord
100
AcDbBlockTableRecord
  2
SW_CENTERMARKSYMBOL_0
340
0
102
{BLKREFS
331
21D
102
}
  0
ENDTAB
  0
ENDSEC
  0
SECTION
  2
BLOCKS
  0
BLOCK
  5
20
330
1F
100
AcDbEntity
  8
0
100
AcDbBlockBegin
  2
*Model_Space
 70
     0
 10
0.0
 20
0.0
 30
0.0
  3
*Model_Space
  1

  0
ENDBLK
  5
21
330
1F
100
AcDbEntity
  8
0
100
AcDbBlockEnd
  0
BLOCK
  5
1C
330
1B
100
AcDbEntity
 67
     1
  8
0
100
AcDbBlockBegin
  2
*Paper_Space
 70
     0
 10
0.0
 20
0.0
 30
0.0
  3
*Paper_Space
  1

  0
ENDBLK
  5
1D
330
1B
100
AcDbEntity
 67
     1
  8
0
100
AcDbBlockEnd
  0
BLOCK
  5
24
330
23
100
AcDbEntity
  8
0
100
AcDbBlockBegin
  2
*Paper_Space0
 70
     0
 10
0.0
 20
0.0
 30
0.0
  3
*Paper_Space0
  1

  0
ENDBLK
  5
25
330
23
100
AcDbEntity
  8
0
100
AcDbBlockEnd
  0
BLOCK
  5
1A7
330
1A6
100
AcDbEntity
  8
0
100
AcDbBlockBegin
  2
_D
 70
     0
 10
0.0
 20
0.0
 30
0.0
  3
_D
  1

  0
SOLID
  5
1A9
330
1A6
100
AcDbEntity
  8
VERMASSUNG
100
AcDbTrace
 10
154.9203084913
 20
168.2938431265
 30
0.0
 11
157.9203084913
 21
167.8438431265
 31
0.0
 12
157.9203084913
 22
168.7438431265
 32
0.0
 13
157.9203084913
 23
168.7438431265
 33
0.0
  0
SOLID
  5
1AA
330
1A6
100
AcDbEntity
  8
VERMASSUNG
100
AcDbTrace
 10
244.9203084913
 20
168.2938431265
 30
0.0
 11
241.9203084913
 21
168.7438431265
 31
0.0
 12
241.9203084913
 22
167.8438431265
 32
0.0
 13
241.9203084913
 23
167.8438431265
 33
0.0
  0
LINE
  5
1AB
330
1A6
100
AcDbEntity
  8
VERMASSUNG
100
AcDbLine
 10
154.9203084913
 20
130.5869090798
 30
0.0
 11
154.9203084913
 21
169.2938431265
 31
0.0
  0
LINE
  5
1AC
330
1A6
100
AcDbEntity
  8
VERMASSUNG
100
AcDbLine
 10
244.9203084913
 20
149.5935832416
 30
0.0
 11
244.9203084913
 21
169.2938431265
 31
0.0
  0
LINE
  5
1AD
330
1A6
100
AcDbEntity
  8
VERMASSUNG
100
AcDbLine
 10
154.9203084913
 20
168.2938431265
 30
0.0
 11
244.9203084913
 21
168.2938431265
 31
0.0
  0
MTEXT
  5
1AE
330
1A6
100
AcDbEntity
  8
VERMASSUNG
100
AcDbMText
 10
198.5203085412
 20
170.8719787225
 30
0.0
 40
2.0
 41
0.0
 71
     1
 72
     1
  1
90
  7
SLDTEXTSTYLE0
 73
     1
 44
1.0
  0
ENDBLK
  5
1A8
330
1A6
100
AcDbEntity
  8
0
100
AcDbBlockEnd
  0
BLOCK
  5
1B2
330
1B1
100
AcDbEntity
  8
0
100
AcDbBlockBegin
  2
_D_1
 70
     0
 10
0.0
 20
0.0
 30
0.0
  3
_D_1
  1

  0
SOLID
  5
1B4
330
1B1
100
AcDbEntity
  8
VERMASSUNG
100
AcDbTrace
 10
262.8345630068
 20
149.5935832416
 30
0.0
 11
262.3845630068
 21
146.5935832416
 31
0.0
 12
263.2845630068
 22
146.5935832416
 32
0.0
 13
263.2845630068
 23
146.5935832416
 33
0.0
  0
SOLID
  5
1B5
330
1B1
100
AcDbEntity
  8
VERMASSUNG
100
AcDbTrace
 10
262.8345630068
 20
114.5935832416
 30
0.0
 11
263.2845630068
 21
117.5935832416
 31
0.0
 12
262.3845630068
 22
117.5935832416
 32
0.0
 13
262.3845630068
 23
117.5935832416
 33
0.0
  0
LINE
  5
1B6
330
1B1
100
AcDbEntity
  8
VERMASSUNG
100
AcDbLine
 10
244.9203084913
 20
149.5935832416
 30
0.0
 11
263.8345630068
 21
149.5935832416
 31
0.0
  0
LINE
  5
1B7
330
1B1
100
AcDbEntity
  8
VERMASSUNG
100
AcDbLine
 10
244.9203084913
 20
114.5935832416
 30
0.0
 11
263.8345630068
 21
114.5935832416
 31
0.0
  0
LINE
  5
1B8
330
1B1
100
AcDbEntity
  8
VERMASSUNG
100
AcDbLine
 10
262.8345630068
 20
149.5935832416
 30
0.0
 11
262.8345630068
 21
114.5935832416
 31
0.0
  0
MTEXT
  5
1B9
330
1B1
100
AcDbEntity
  8
VERMASSUNG
100
AcDbMText
 10
260.2564274108
 20
128.4435831556
 30
0.0
 40
2.0
 41
0.0
 71
     1
 72
     1
  1
35
  7
SLDTEXTSTYLE0
 11
-7.044195017643634E-15
 21
1.0
 31
0.0
 73
     1
 44
1.0
  0
MTEXT
  5
1BA
330
1B1
100
AcDbEntity
  8
VERMASSUNG
100
AcDbMText
 10
260.2564274108
 20
132.4310830558
 30
0.0
 40
2.0
 41
0.0
 71
     1
 72
     1
  1

  7
SLDTEXTSTYLE0
 11
-7.044195017643634E-15
 21
1.0
 31
0.0
 73
     1
 44
1.0
  0
MTEXT
  5
1BB
330
1B1
100
AcDbEntity
  8
VERMASSUNG
100
AcDbMText
 10
260.7509612445
 20
132.4435828799
 30
0.0
 40
1.5
 41
0.0
 71
     1
 72
     1
  1
±0.1
  7
SLDTEXTSTYLE0
 11
-7.044195017643634E-15
 21
1.0
 31
0.0
 73
     1
 44
1.0
  0
ENDBLK
  5
1B3
330
1B1
100
AcDbEntity
  8
0
100
AcDbBlockEnd
  0
BLOCK
  5
1BE
330
1BD
100
AcDbEntity
  8
0
100
AcDbBlockBegin
  2
_D_2
 70
     0
 10
0.0
 20
0.0
 30
0.0
  3
_D_2
  1

  0
SOLID
  5
1C0
330
1BD
100
AcDbEntity
  8
VERMASSUNG
100
AcDbTrace
 10
184.9203084913
 20
158.8752006452
 30
0.0
 11
187.9203084913
 21
158.4252006452
 31
0.0
 12
187.9203084913
 22
159.3252006452
 32
0.0
 13
187.9203084913
 23
159.3252006452
 33
0.0
  0
SOLID
  5
1C1
330
1BD
100
AcDbEntity
  8
VERMASSUNG
100
AcDbTrace
 10
244.9203084913
 20
158.8752006452
 30
0.0
 11
241.9203084913
 21
159.3252006452
 31
0.0
 12
241.9203084913
 22
158.4252006452
 32
0.0
 13
241.9203084913
 23
158.4252006452
 33
0.0
  0
LINE
  5
1C2
330
1BD
100
AcDbEntity
  8
VERMASSUNG
100
AcDbLine
 10
184.9203084913
 20
139.2935832416
 30
0.0
 11
184.9203084913
 21
159.8752006452
 31
0.0
  0
LINE
  5
1C3
330
1BD
100
AcDbEntity
  8
VERMASSUNG
100
AcDbLine
 10
244.9203084913
 20
149.5935832416
 30
0.0
 11
244.9203084913
 21
159.8752006452
 31
0.0
  0
LINE
  5
1C4
330
1BD
100
AcDbEntity
  8
VERMASSUNG
100
AcDbLine
 10
184.9203084913
 20
158.8752006452
 30
0.0
 11
244.9203084913
 21
158.8752006452
 31
0.0
  0
MTEXT
  5
1C5
330
1BD
100
AcDbEntity
  8
VERMASSUNG
100
AcDbMText
 10
211.2703084053
 20
161.4533362412
 30
0.0
 40
2.0
 41
0.0
 71
     1
 72
     1
  1
60
  7
SLDTEXTSTYLE0
 73
     1
 44
1.0
  0
MTEXT
  5
1C6
330
1BD
100
AcDbEntity
  8
VERMASSUNG
100
AcDbMText
 10
215.2578083054
 20
161.4533362412
 30
0.0
 40
2.0
 41
0.0
 71
     1
 72
     1
  1

  7
SLDTEXTSTYLE0
 73
     1
 44
1.0
  0
MTEXT
  5
1C7
330
1BD
100
AcDbEntity
  8
VERMASSUNG
100
AcDbMText
 10
215.2703081296
 20
160.9588024075
 30
0.0
 40
1.5
 41
0.0
 71
     1
 72
     1
  1
±0.1
  7
SLDTEXTSTYLE0
 73
     1
 44
1.0
  0
ENDBLK
  5
1BF
330
1BD
100
AcDbEntity
  8
0
100
AcDbBlockEnd
  0
BLOCK
  5
1CB
330
1CA
100
AcDbEntity
  8
0
100
AcDbBlockBegin
  2
_D_3
 70
     0
 10
0.0
 20
0.0
 30
0.0
  3
_D_3
  1

  0
ARC
  5
1CD
330
1CA
100
AcDbEntity
  8
VERMASSUNG
100
AcDbCircle
 10
244.9568318917
 20
149.5935832416
 30
0.0
 40
13.69185402786447
100
AcDbArc
 50
265.0
 51
0.0
  0
SOLID
  5
1CE
330
1CA
100
AcDbEntity
  8
VERMASSUNG
100
AcDbTrace
 10
243.7635081844
 20
135.953830852
 30
0.0
 11
246.7721345616
 21
135.5656719646
 31
0.0
 12
246.753610825
 22
136.4654813173
 32
0.0
 13
246.753610825
 23
136.4654813173
 33
0.0
  0
SOLID
  5
1CF
330
1CA
100
AcDbEntity
  8
VERMASSUNG
100
AcDbTrace
 10
258.6486859196
 20
149.5935832416
 30
0.0
 11
257.8783778223
 21
146.6594521206
 31
0.0
 12
258.7731486787
 22
146.5625753199
 32
0.0
 13
258.7731486787
 23
146.5625753199
 33
0.0
  0
LINE
  5
1D0
330
1CA
100
AcDbEntity
  8
VERMASSUNG
100
AcDbLine
 10
243.8656332698
 20
137.1211259205
 30
0.0
 11
243.6763524416
 21
134.957636154
 31
0.0
  0
LINE
  5
1D1
330
1CA
100
AcDbEntity
  8
VERMASSUNG
100
AcDbLine
 10
255.2649121527
 20
149.5935832416
 30
0.0
 11
259.6486859196
 21
149.5935832416
 31
0.0
  0
MTEXT
  5
1D2
330
1CA
100
AcDbEntity
  8
VERMASSUNG
100
AcDbMText
 10
250.9905966625
 20
140.048510192
 30
0.0
 40
2.0
 41
0.0
 71
     1
 72
     1
  1
95°
  7
SLDTEXTSTYLE0
 11
0.7372773368101224
 21
0.675590207615662
 31
0.0
 73
     1
 44
1.0
  0
ENDBLK
  5
1CC
330
1CA
100
AcDbEntity
  8
0
100
AcDbBlockEnd
  0
BLOCK
  5
1D5
330
1D4
100
AcDbEntity
  8
0
100
AcDbBlockBegin
  2
_D_4
 70
     0
 10
0.0
 20
0.0
 30
0.0
  3
_D_4
  1

  0
SOLID
  5
1D7
330
1D4
100
AcDbEntity
  8
VERMASSUNG
100
AcDbTrace
 10
144.9203084913
 20
139.5935832416
 30
0.0
 11
144.4703084913
 21
136.5935832416
 31
0.0
 12
145.3703084913
 22
136.5935832416
 32
0.0
 13
145.3703084913
 23
136.5935832416
 33
0.0
  0
SOLID
  5
1D8
330
1D4
100
AcDbEntity
  8
VERMASSUNG
100
AcDbTrace
 10
144.9203084913
 20
89.5935832416
 30
0.0
 11
145.3703084913
 21
92.5935832416
 31
0.0
 12
144.4703084913
 22
92.5935832416
 32
0.0
 13
144.4703084913
 23
92.5935832416
 33
0.0
  0
LINE
  5
1D9
330
1D4
100
AcDbEntity
  8
VERMASSUNG
100
AcDbLine
 10
185.2203084913
 20
139.5935832416
 30
0.0
 11
143.9203084913
 21
139.5935832416
 31
0.0
  0
LINE
  5
1DA
330
1D4
100
AcDbEntity
  8
VERMASSUNG
100
AcDbLine
 10
185.2203084913
 20
89.5935832416
 30
0.0
 11
143.9203084913
 21
89.5935832416
 31
0.0
  0
LINE
  5
1DB
330
1D4
100
AcDbEntity
  8
VERMASSUNG
100
AcDbLine
 10
144.9203084913
 20
139.5935832416
 30
0.0
 11
144.9203084913
 21
89.5935832416
 31
0.0
  0
MTEXT
  5
1DC
330
1D4
100
AcDbEntity
  8
VERMASSUNG
100
AcDbMText
 10
142.1421732351
 20
109.0885839319
 30
0.0
 40
2.0
 41
0.0
 71
     1
 72
     1
  1
PSC
  7
SLDTEXTSTYLE0
 11
-7.044195017643634E-15
 21
1.0
 31
0.0
 73
     1
 44
1.0
  0
MTEXT
  5
1DD
330
1D4
100
AcDbEntity
  8
VERMASSUNG
100
AcDbMText
 10
142.3421731864
 20
113.6885835683
 30
0.0
 40
2.0
 41
0.0
 71
     1
 72
     1
  1
%%c
  7
SLDTEXTSTYLE0
 11
-7.044195017643634E-15
 21
1.0
 31
0.0
 73
     1
 44
1.0
  0
MTEXT
  5
1DE
330
1D4
100
AcDbEntity
  8
VERMASSUNG
100
AcDbMText
 10
142.1421732351
 20
117.2985835826
 30
0.0
 40
2.0
 41
0.0
 71
     1
 72
     1
  1
50
  7
SLDTEXTSTYLE0
 11
-7.044195017643634E-15
 21
1.0
 31
0.0
 73
     1
 44
1.0
  0
ENDBLK
  5
1D6
330
1D4
100
AcDbEntity
  8
0
100
AcDbBlockEnd
  0
BLOCK
  5
206
330
205
100
AcDbEntity
  8
0
100
AcDbBlockBegin
  2
_D_5
 70
     0
 10
0.0
 20
0.0
 30
0.0
  3
_D_5
  1

  0
SOLID
  5
208
330
205
100
AcDbEntity
  8
VERMASSUNG
100
AcDbTrace
 10
105.1814333867
 20
94.06164759
 30
0.0
 11
106.9845556787
 21
91.6221291949
 31
0.0
 12
107.6209517818
 22
92.258525298
 32
0.0
 13
107.6209517818
 23
92.258525298
 33
0.0
  0
SOLID
  5
209
330
205
100
AcDbEntity
  8
VERMASSUNG
100
AcDbTrace
 10
59.2194926096
 20
140.0235883671
 30
0.0
 11
57.4163703175
 21
142.4631067622
 31
0.0
 12
56.7799742145
 22
141.8267106591
 32
0.0
 13
56.7799742145
 23
141.8267106591
 33
0.0
  0
LINE
  5
20A
330
205
100
AcDbEntity
  8
VERMASSUNG
100
AcDbLine
 10
105.1814333867
 20
94.06164759
 30
0.0
 11
104.4743266055
 21
93.3545408088
 31
0.0
  0
LINE
  5
20B
330
205
100
AcDbEntity
  8
VERMASSUNG
100
AcDbLine
 10
59.2194926096
 20
140.0235883671
 30
0.0
 11
58.5123858284
 21
139.3164815859
 31
0.0
  0
LINE
  5
20C
330
205
100
AcDbEntity
  8
VERMASSUNG
100
AcDbLine
 10
105.1814333867
 20
94.06164759
 30
0.0
 11
109.4240740738
 21
89.8190069029
 31
0.0
  0
LINE
  5
20D
330
205
100
AcDbEntity
  8
VERMASSUNG
100
AcDbLine
 10
105.1814333867
 20
94.06164759
 30
0.0
 11
59.2194926096
 21
140.0235883671
 31
0.0
  0
LINE
  5
20E
330
205
100
AcDbEntity
  8
VERMASSUNG
100
AcDbLine
 10
59.2194926096
 20
140.0235883671
 30
0.0
 11
47.6946986144
 21
151.5483823623
 31
0.0
  0
MTEXT
  5
20F
330
205
100
AcDbEntity
  8
VERMASSUNG
100
AcDbMText
 10
49.5177155713
 20
153.3713993192
 30
0.0
 40
2.0
 41
0.0
 71
     1
 72
     1
  1
%%c
  7
SLDTEXTSTYLE0
 11
0.7071067811865464
 21
-0.7071067811865488
 31
0.0
 73
     1
 44
1.0
  0
MTEXT
  5
210
330
205
100
AcDbEntity
  8
VERMASSUNG
100
AcDbMText
 10
52.2117923833
 20
150.9601651508
 30
0.0
 40
2.0
 41
0.0
 71
     1
 72
     1
  1
65
  7
SLDTEXTSTYLE0
 11
0.7071067811865464
 21
-0.7071067811865488
 31
0.0
 73
     1
 44
1.0
  0
MTEXT
  5
211
330
205
100
AcDbEntity
  8
VERMASSUNG
100
AcDbMText
 10
55.0313806027
 20
148.1405769314
 30
0.0
 40
2.0
 41
0.0
 71
     1
 72
     1
  1
min.
  7
SLDTEXTSTYLE0
 11
0.7071067811865464
 21
-0.7071067811865488
 31
0.0
 73
     1
 44
1.0
  0
ENDBLK
  5
207
330
205
100
AcDbEntity
  8
0
100
AcDbBlockEnd
  0
BLOCK
  5
213
330
212
100
AcDbEntity
  8
0
100
AcDbBlockBegin
  2
SW_CENTERMARKSYMBOL_0
 70
     0
 10
0.0
 20
0.0
 30
0.0
  3
SW_CENTERMARKSYMBOL_0
  1

  0
LINE
  5
215
330
212
100
AcDbEntity
  8
VERMASSUNG
 62
     0
100
AcDbLine
 10
0.0
 20
0.0
 30
0.0
 11
0.0
 21
2.5
 31
0.0
  0
LINE
  5
216
330
212
100
AcDbEntity
  8
VERMASSUNG
 62
     0
100
AcDbLine
 10
0.0
 20
0.0
 30
0.0
 11
-2.5
 21
0.0
 31
0.0
  0
LINE
  5
217
330
212
100
AcDbEntity
  8
VERMASSUNG
 62
     0
100
AcDbLine
 10
0.0
 20
0.0
 30
0.0
 11
0.0
 21
-2.5
 31
0.0
  0
LINE
  5
218
330
212
100
AcDbEntity
  8
VERMASSUNG
 62
     0
100
AcDbLine
 10
0.0
 20
0.0
 30
0.0
 11
2.5
 21
0.0
 31
0.0
  0
LINE
  5
219
330
212
100
AcDbEntity
  8
VERMASSUNG
 62
     0
100
AcDbLine
 10
0.0
 20
5.0
 30
0.0
 11
0.0
 21
27.5
 31
0.0
  0
LINE
  5
21A
330
212
100
AcDbEntity
  8
VERMASSUNG
 62
     0
100
AcDbLine
 10
-5.0
 20
0.0
 30
0.0
 11
-27.5
 21
0.0
 31
0.0
  0
LINE
  5
21B
330
212
100
AcDbEntity
  8
VERMASSUNG
 62
     0
100
AcDbLine
 10
0.0
 20
-5.0
 30
0.0
 11
0.0
 21
-27.5
 31
0.0
  0
LINE
  5
21C
330
212
100
AcDbEntity
  8
VERMASSUNG
 62
     0
100
AcDbLine
 10
5.0
 20
0.0
 30
0.0
 11
27.5
 21
0.0
 31
0.0
  0
ENDBLK
  5
214
330
212
100
AcDbEntity
  8
0
100
AcDbBlockEnd
  0
ENDSEC
  0
SECTION
  2
ENTITIES
  0
MTEXT
  5
78
330
1F
100
AcDbEntity
  8
KOPF_DÜNN
100
AcDbMText
 10
13.8892156294
 20
23.8442973028
 30
0.0
 40
3.0
 41
0.0
 71
     1
 72
     1
  1
PS5.KCC.RLA.060
  7
SLDTEXTSTYLE0
 73
     1
 44
1.0
  0
MTEXT
  5
79
330
1F
100
AcDbEntity
  8
VERMASSUNG
100
AcDbMText
 10
13.9329988022
 20
28.8834360957
 30
0.0
 40
3.0
 41
0.0
 71
     1
 72
     1
  1
Klemmhalter rechts_Turning tool right 95° /80°
  7
SLDTEXTSTYLE0
 73
     1
 44
1.0
  0
MTEXT
  5
7A
330
1F
100
AcDbEntity
  8
VERMASSUNG
100
AcDbMText
 10
98.8601118557
 20
13.8365368761
 30
0.0
 40
2.0
 41
0.0
 71
     1
 72
     1
  1
Datum: 27.04.2012
  7
SLDTEXTSTYLE0
 73
     1
 44
1.0
  0
MTEXT
  5
7B
330
1F
100
AcDbEntity
  8
VERMASSUNG
100
AcDbMText
 10
13.933048693
 20
18.0482802738
 30
0.0
 40
2.0
 41
0.0
 71
     1
 72
     1
  1
PSC ø50 / CC..12 04..
  7
SLDTEXTSTYLE0
 73
     1
 44
1.0
  0
MTEXT
  5
7C
330
1F
100
AcDbEntity
  8
VERMASSUNG
100
AcDbMText
 10
13.9808475933
 20
13.9090974274
 30
0.0
 40
2.0
 41
0.0
 71
     1
 72
     1
  1
Gewicht: 741g
  7
SLDTEXTSTYLE0
 73
     1
 44
1.0
  0
LINE
  5
7D
330
1F
100
AcDbEntity
  8
0
  6
Continuous
 62
     7
370
    15
100
AcDbLine
 10
216.0071322137
 20
139.5935832416
 30
0.0
 11
185.2203084913
 21
139.5935832416
 31
0.0
  0
LINE
  5
7E
330
1F
100
AcDbEntity
  8
0
  6
Continuous
 62
     7
370
    15
100
AcDbLine
 10
185.2203084913
 20
89.5935832416
 30
0.0
 11
215.980855317
 21
89.5935832416
 31
0.0
  0
ARC
  5
7F
330
1F
100
AcDbEntity
  8
0
  6
Continuous
 62
     7
370
    15
100
AcDbCircle
 10
185.2203084913
 20
89.8935832416
 30
0.0
 40
0.2999999999999972
100
AcDbArc
 50
180.0
 51
270.0
  0
ARC
  5
80
330
1F
100
AcDbEntity
  8
0
  6
Continuous
 62
     7
370
    15
100
AcDbCircle
 10
185.2203084913
 20
139.2935832416
 30
0.0
 40
0.2999999999999829
100
AcDbArc
 50
90.0
 51
180.0
  0
LWPOLYLINE
  5
81
330
1F
100
AcDbEntity
  8
0
  6
Continuous
 62
     7
370
    15
100
AcDbPolyline
 90
        3
 70
   128
 43
0.0
 10
184.7203084913
 20
96.7537629628
 10
184.8457634348
 20
96.6854608478
 10
184.9203084913
 20
96.6327230897
  0
LWPOLYLINE
  5
82
330
1F
100
AcDbEntity
  8
0
  6
Continuous
 62
     7
370
    15
100
AcDbPolyline
 90
        3
 70
   128
 43
0.0
 10
184.9203084913
 20
132.5544433936
 10
184.8457634348
 20
132.5017056355
 10
184.7203084913
 20
132.4334035205
  0
LINE
  5
83
330
1F
100
AcDbEntity
  8
0
  6
Continuous
 62
     7
370
    15
100
AcDbLine
 10
231.4644226637
 20
135.7043572377
 30
0.0
 11
243.5020176877
 21
136.7575103384
 31
0.0
  0
ARC
  5
84
330
1F
100
AcDbEntity
  8
0
  6
Continuous
 62
     7
370
    15
100
AcDbCircle
 10
231.4295603666
 20
136.1028351169
 30
0.0
 40
0.4000000000000102
100
AcDbArc
 50
175.0
 51
275.0
  0
LINE
  5
85
330
1F
100
AcDbEntity
  8
0
  6
Continuous
 62
     7
370
    15
100
AcDbLine
 10
232.084235588
 20
148.175292438
 30
0.0
 11
231.0310824873
 21
136.137697414
 31
0.0
  0
ARC
  5
86
330
1F
100
AcDbEntity
  8
0
  6
Continuous
 62
     7
370
    15
100
AcDbCircle
 10
232.4827134673
 20
148.1404301409
 30
0.0
 40
0.4000000000000102
100
AcDbArc
 50
95.0
 51
175.0
  0
LINE
  5
87
330
1F
100
AcDbEntity
  8
0
  6
Continuous
 62
     7
370
    15
100
AcDbLine
 10
244.4854461942
 20
149.5920611209
 30
0.0
 11
232.4478511702
 21
148.5389080202
 31
0.0
  0
ARC
  5
88
330
1F
100
AcDbEntity
  8
0
  6
Continuous
 62
     7
370
    15
100
AcDbCircle
 10
244.5203084913
 20
149.1935832416
 30
0.0
 40
0.4000000000000385
100
AcDbArc
 50
355.0
 51
95.0
  0
LINE
  5
89
330
1F
100
AcDbEntity
  8
0
  6
Continuous
 62
     7
370
    15
100
AcDbLine
 10
243.8656332698
 20
137.1211259205
 30
0.0
 11
244.9187863706
 21
149.1587209445
 31
0.0
  0
ARC
  5
8A
330
1F
100
AcDbEntity
  8
0
  6
Continuous
 62
     7
370
    15
100
AcDbCircle
 10
243.4671553906
 20
137.1559882176
 30
0.0
 40
0.4000000000000102
100
AcDbArc
 50
275.0
 51
355.0
  0
ARC
  5
8B
330
1F
100
AcDbEntity
  8
0
  6
Continuous
 62
     7
370
    15
100
AcDbCircle
 10
244.5203084913
 20
149.1935832416
 30
0.0
 40
0.3799999999999979
100
AcDbArc
 50
355.0
 51
95.0
  0
LINE
  5
8C
330
1F
100
AcDbEntity
  8
0
  6
Continuous
 62
     7
370
    15
100
AcDbLine
 10
244.4871893091
 20
149.5721372269
 30
0.0
 11
232.4495942851
 21
148.5189841259
 31
0.0
  0
ARC
  5
8D
330
1F
100
AcDbEntity
  8
0
  6
Continuous
 62
     7
370
    15
100
AcDbCircle
 10
232.4827134673
 20
148.1404301409
 30
0.0
 40
0.3799999999999979
100
AcDbArc
 50
95.0
 51
175.0
  0
LINE
  5
8E
330
1F
100
AcDbEntity
  8
0
  6
Continuous
 62
     7
370
    15
100
AcDbLine
 10
232.104159482
 20
148.1735493232
 30
0.0
 11
231.0510063813
 21
136.1359542991
 31
0.0
  0
ARC
  5
8F
330
1F
100
AcDbEntity
  8
0
  6
Continuous
 62
     7
370
    15
100
AcDbCircle
 10
231.4295603666
 20
136.1028351169
 30
0.0
 40
0.3799999999999979
100
AcDbArc
 50
175.0
 51
275.0
  0
LINE
  5
90
330
1F
100
AcDbEntity
  8
0
  6
Continuous
 62
     7
370
    15
100
AcDbLine
 10
231.4626795488
 20
135.7242811316
 30
0.0
 11
243.5002745728
 21
136.7774342323
 31
0.0
  0
ARC
  5
91
330
1F
100
AcDbEntity
  8
0
  6
Continuous
 62
     7
370
    15
100
AcDbCircle
 10
243.4671553906
 20
137.1559882176
 30
0.0
 40
0.3800000000000287
100
AcDbArc
 50
275.0
 51
355.0
  0
LINE
  5
92
330
1F
100
AcDbEntity
  8
0
  6
Continuous
 62
     7
370
    15
100
AcDbLine
 10
243.8457093759
 20
137.1228690354
 30
0.0
 11
244.8988624766
 21
149.1604640594
 31
0.0
  0
LINE
  5
93
330
1F
100
AcDbEntity
  8
0
  6
Continuous
 62
     7
370
    15
100
AcDbLine
 10
244.5203084913
 20
149.1935832416
 30
0.0
 11
244.8988624766
 21
149.1604640594
 31
0.0
  0
LINE
  5
94
330
1F
100
AcDbEntity
  8
0
  6
Continuous
 62
     7
370
    15
100
AcDbLine
 10
243.4671553906
 20
137.1559882176
 30
0.0
 11
243.8457093759
 21
137.1228690354
 31
0.0
  0
LINE
  5
95
330
1F
100
AcDbEntity
  8
0
  6
Continuous
 62
     7
370
    15
100
AcDbLine
 10
242.8934610614
 20
137.7296825468
 30
0.0
 11
243.4671553906
 21
137.1559882176
 31
0.0
  0
LINE
  5
96
330
1F
100
AcDbEntity
  8
0
  6
Continuous
 62
     7
370
    15
100
AcDbLine
 10
243.6013081468
 20
148.2745828971
 30
0.0
 11
244.5203084913
 21
149.1935832416
 31
0.0
  0
LINE
  5
97
330
1F
100
AcDbEntity
  8
0
  6
Continuous
 62
     7
370
    15
100
AcDbLine
 10
244.5203084913
 20
149.1935832416
 30
0.0
 11
244.4871893091
 21
149.5721372269
 31
0.0
  0
LINE
  5
98
330
1F
100
AcDbEntity
  8
0
  6
Continuous
 62
     7
370
    15
100
AcDbLine
 10
232.4827134673
 20
148.1404301409
 30
0.0
 11
232.4495942851
 21
148.5189841259
 31
0.0
  0
LINE
  5
99
330
1F
100
AcDbEntity
  8
0
  6
Continuous
 62
     7
370
    15
100
AcDbLine
 10
233.0564077965
 20
147.5667358117
 30
0.0
 11
232.4827134673
 21
148.1404301409
 31
0.0
  0
LINE
  5
9A
330
1F
100
AcDbEntity
  8
0
  6
Continuous
 62
     7
370
    15
100
AcDbLine
 10
243.4671553906
 20
137.1559882176
 30
0.0
 11
243.5002745728
 21
136.7774342323
 31
0.0
  0
LINE
  5
9B
330
1F
100
AcDbEntity
  8
0
  6
Continuous
 62
     7
370
    15
100
AcDbLine
 10
231.4295603666
 20
136.1028351169
 30
0.0
 11
231.4626795488
 21
135.7242811316
 31
0.0
  0
LINE
  5
9C
330
1F
100
AcDbEntity
  8
0
  6
Continuous
 62
     7
370
    15
100
AcDbLine
 10
232.3485607111
 20
137.0218354614
 30
0.0
 11
231.4295603666
 21
136.1028351169
 31
0.0
  0
ARC
  5
9D
330
1F
100
AcDbEntity
  8
0
  6
Continuous
 62
     7
370
    15
100
AcDbCircle
 10
241.6381437781
 20
146.3114185285
 30
0.0
 40
1.000000000295385
100
AcDbArc
 50
355.0
 51
95.0
  0
LINE
  5
9E
330
1F
100
AcDbEntity
  8
0
  6
Continuous
 62
     7
370
    15
100
AcDbLine
 10
242.0449267409
 20
139.4872558227
 30
0.0
 11
242.6343384765
 21
146.2242627857
 31
0.0
  0
ARC
  5
9F
330
1F
100
AcDbEntity
  8
0
  6
Continuous
 62
     7
370
    15
100
AcDbCircle
 10
241.0487320428
 20
139.5744115654
 30
0.0
 40
1.00000000000001
100
AcDbArc
 50
275.0
 51
355.0
  0
LINE
  5
A0
330
1F
100
AcDbEntity
  8
0
  6
Continuous
 62
     7
370
    15
100
AcDbLine
 10
234.3988808225
 20
137.988805132
 30
0.0
 11
241.1358877855
 21
138.5782168673
 31
0.0
  0
ARC
  5
A1
330
1F
100
AcDbEntity
  8
0
  6
Continuous
 62
     7
370
    15
100
AcDbCircle
 10
234.3117250797
 20
138.9849998301
 30
0.0
 40
1.00000000000001
100
AcDbArc
 50
175.0
 51
275.0
  0
LINE
  5
A2
330
1F
100
AcDbEntity
  8
0
  6
Continuous
 62
     7
370
    15
100
AcDbLine
 10
233.904942117
 20
145.8091625359
 30
0.0
 11
233.3155303816
 21
139.0721555728
 31
0.0
  0
ARC
  5
A3
330
1F
100
AcDbEntity
  8
0
  6
Continuous
 62
     7
370
    15
100
AcDbCircle
 10
234.9011368151
 20
145.7220067931
 30
0.0
 40
1.000000000000012
100
AcDbArc
 50
95.0
 51
175.0
  0
LINE
  5
A4
330
1F
100
AcDbEntity
  8
0
  6
Continuous
 62
     7
370
    15
100
AcDbLine
 10
241.5509880354
 20
147.3076132266
 30
0.0
 11
234.8139810724
 21
146.7182014912
 31
0.0
  0
CIRCLE
  5
A5
330
1F
100
AcDbEntity
  8
0
  6
Continuous
 62
     7
370
    15
100
AcDbCircle
 10
237.9749344289
 20
142.6482091793
 30
0.0
 40
3.800000000000022
  0
LINE
  5
A6
330
1F
100
AcDbEntity
  8
0
  6
Continuous
 62
     7
370
    15
100
AcDbLine
 10
231.4295603666
 20
136.1028351169
 30
0.0
 11
231.0510063813
 21
136.1359542991
 31
0.0
  0
LINE
  5
A7
330
1F
100
AcDbEntity
  8
0
  6
Continuous
 62
     7
370
    15
100
AcDbLine
 10
232.4827134673
 20
148.1404301409
 30
0.0
 11
232.104159482
 21
148.1735493232
 31
0.0
  0
SPLINE
  5
A8
330
1F
100
AcDbEntity
  8
0
  6
Continuous
 62
     7
370
    15
100
AcDbSpline
210
0.0
220
0.0
230
1.0
 70
    24
 71
     3
 72
    11
 73
     7
 74
     0
 42
0.000000001
 43
0.00000001
 40
0.0
 40
0.0
 40
0.0
 40
0.0
 40
0.0081164391031464
 40
0.3263678516928566
 40
0.6627685813478694
 40
1.0
 40
1.0
 40
1.0
 40
1.0
 10
242.4028052279066
 20
138.2203383802998
 30
0.0
 10
242.4039978502634
 20
138.219145757943
 30
0.0
 10
242.4519540526735
 20
138.1711895555331
 30
0.0
 10
242.5574326968683
 20
138.065710911338
 30
0.0
 10
242.7288848659218
 20
137.8942587422847
 30
0.0
 10
242.8385572487415
 20
137.7845863594649
 30
0.0
 10
242.8934610613612
 20
137.7296825468452
 30
0.0
  0
SPLINE
  5
A9
330
1F
100
AcDbEntity
  8
0
  6
Continuous
 62
     7
370
    15
100
AcDbSpline
210
0.0
220
0.0
230
1.0
 70
    24
 71
     3
 72
    11
 73
     7
 74
     0
 42
0.000000001
 43
0.00000001
 40
0.0
 40
0.0
 40
0.0
 40
0.0
 40
0.0076282660081476
 40
0.3209888652278656
 40
0.6632168868568697
 40
0.9999999999999999
 40
0.9999999999999999
 40
0.9999999999999999
 40
0.9999999999999999
 10
243.1123805692215
 20
147.7856553195561
 30
0.0
 10
243.1134961298957
 20
147.7867708802303
 30
0.0
 10
243.1604376700214
 20
147.8337124203557
 30
0.0
 10
243.2644936427356
 20
147.9377683930616
 30
0.0
 10
243.4339415068192
 20
148.1072162571561
 30
0.0
 10
243.545818309013
 20
148.219093059348
 30
0.0
 10
243.6013081468107
 20
148.2745828971448
 30
0.0
  0
SPLINE
  5
AA
330
1F
100
AcDbEntity
  8
0
  6
Continuous
 62
     7
370
    15
100
AcDbSpline
210
0.0
220
0.0
230
1.0
 70
    24
 71
     3
 72
    11
 73
     7
 74
     0
 42
0.000000001
 43
0.00000001
 40
0.0
 40
0.0
 40
0.0
 40
0.0
 40
0.3367831131415097
 40
0.6790111347691518
 40
0.9923717339918822
 40
1.0
 40
1.0
 40
1.0
 40
1.0
 10
232.3485607110613
 20
137.0218354613958
 30
0.0
 10
232.4040505488582
 20
137.0773252991928
 30
0.0
 10
232.5159273510506
 20
137.1892021013852
 30
0.0
 10
232.68537521514
 20
137.3586499654743
 30
0.0
 10
232.7894311878498
 20
137.4627059381849
 30
0.0
 10
232.8363727279761
 20
137.5096474783107
 30
0.0
 10
232.8374882886503
 20
137.5107630389849
 30
0.0
  0
SPLINE
  5
AB
330
1F
100
AcDbEntity
  8
0
  6
Continuous
 62
     7
370
    15
100
AcDbSpline
210
0.0
220
0.0
230
1.0
 70
    24
 71
     3
 72
    11
 73
     7
 74
     0
 42
0.000000001
 43
0.00000001
 40
0.0
 40
0.0
 40
0.0
 40
0.0
 40
0.3372314186520097
 40
0.6736321483069098
 40
0.9918835608965212
 40
1.0
 40
1.0
 40
1.0
 40
1.0
 10
233.0564077965106
 20
147.5667358116958
 30
0.0
 10
233.1113116091303
 20
147.5118319990761
 30
0.0
 10
233.2209839919501
 20
147.4021596162563
 30
0.0
 10
233.3924361610034
 20
147.2307074472029
 30
0.0
 10
233.4979148051987
 20
147.125228803008
 30
0.0
 10
233.5458710076086
 20
147.0772726005978
 30
0.0
 10
233.5470636299654
 20
147.076079978241
 30
0.0
  0
CIRCLE
  5
AC
330
1F
100
AcDbEntity
  8
0
  6
Continuous
 62
     7
370
    15
100
AcDbCircle
 10
237.895172289
 20
142.5684470393
 30
0.0
 40
3.499999999999988
  0
CIRCLE
  5
AD
330
1F
100
AcDbEntity
  8
0
  6
Continuous
 62
     7
370
    15
100
AcDbCircle
 10
237.895172289
 20
142.5684470393
 30
0.0
 40
2.633974596215557
  0
CIRCLE
  5
AE
330
1F
100
AcDbEntity
  8
0
  6
Continuous
 62
     7
370
    15
100
AcDbCircle
 10
237.895172289
 20
142.5684470393
 30
0.0
 40
1.999999999999981
  0
SPLINE
  5
AF
330
1F
100
AcDbEntity
  8
0
  6
Continuous
 62
     7
370
    15
100
AcDbSpline
210
0.0
220
0.0
230
1.0
 70
     8
 71
     3
 72
    15
 73
    11
 74
     0
 42
0.000000001
 43
0.00000001
 40
0.0
 40
0.0
 40
0.0
 40
0.0
 40
0.1262470803730152
 40
0.2533633350513239
 40
0.3794185517357345
 40
0.5042689738350742
 40
0.6284502821607499
 40
0.7526361292231346
 40
0.8774891912115215
 40
1.0
 40
1.0
 40
1.0
 40
1.0
 10
239.2869246702879
 20
141.5746303816038
 30
0.0
 10
239.3311785292168
 20
141.5717723803578
 30
0.0
 10
239.4199909219787
 20
141.5660367013612
 30
0.0
 10
239.5478380355534
 20
141.6141660677838
 30
0.0
 10
239.6526588376789
 20
141.6989702596605
 30
0.0
 10
239.7229374957602
 20
141.8138270039474
 30
0.0
 10
239.7514633137527
 20
141.9446900967292
 30
0.0
 10
239.7351023108386
 20
142.0767108965045
 30
0.0
 10
239.6784292956766
 20
142.1976930937001
 30
0.0
 10
239.6130728100948
 20
142.2548676013581
 30
0.0
 10
239.5807039929225
 20
142.2831841665593
 30
0.0
  0
SPLINE
  5
B0
330
1F
100
AcDbEntity
  8
0
  6
Continuous
 62
     7
370
    15
100
AcDbSpline
210
0.0
220
0.0
230
1.0
 70
     8
 71
     3
 72
    12
 73
     8
 74
     0
 42
0.000000001
 43
0.00000001
 40
0.0
 40
0.0
 40
0.0
 40
0.0
 40
0.2058748011360258
 40
0.4120995812662986
 40
0.6141693366125275
 40
0.8132901286728289
 40
1.0
 40
1.0
 40
1.0
 40
1.0
 10
239.5807039929225
 20
142.2831841665593
 30
0.0
 10
239.5227576344466
 20
142.334090716836
 30
0.0
 10
239.4067664109843
 20
142.4359903565053
 30
0.0
 10
239.3082652463134
 20
142.651426854112
 30
0.0
 10
239.2832093793784
 20
142.8809479772203
 30
0.0
 10
239.3294574162498
 20
143.1021806413822
 30
0.0
 10
239.4106434431148
 20
143.2214482152254
 30
0.0
 10
239.4499307109966
 20
143.279163776685
 30
0.0
  0
SPLINE
  5
B1
330
1F
100
AcDbEntity
  8
0
  6
Continuous
 62
     7
370
    15
100
AcDbSpline
210
0.0
220
0.0
230
1.0
 70
     8
 71
     3
 72
    15
 73
    11
 74
     0
 42
0.000000001
 43
0.00000001
 40
0.0
 40
0.0
 40
0.0
 40
0.0
 40
0.12687655089703
 40
0.2539936290345158
 40
0.3800496379883571
 40
0.5049006370991588
 40
0.629082197326562
 40
0.7532679407718609
 40
0.8781205851189818
 40
1.0
 40
1.0
 40
1.0
 40
1.0
 10
239.4499307109966
 20
143.279163776685
 30
0.0
 10
239.4746401801381
 20
143.3162583728574
 30
0.0
 10
239.5241059615956
 20
143.3905178875809
 30
0.0
 10
239.546153448385
 20
143.5255684370651
 30
0.0
 10
239.5248970733924
 20
143.6587112050622
 30
0.0
 10
239.4603669649779
 20
143.7768945733563
 30
0.0
 10
239.3611468709624
 20
143.866862104654
 30
0.0
 10
239.2385441431822
 20
143.9184973441266
 30
0.0
 10
239.1056455492216
 20
143.9296588211362
 30
0.0
 10
239.0236824825099
 20
143.9016812434679
 30
0.0
 10
238.9831947945948
 20
143.887861025671
 30
0.0
  0
SPLINE
  5
B2
330
1F
100
AcDbEntity
  8
0
  6
Continuous
 62
     7
370
    15
100
AcDbSpline
210
0.0
220
0.0
230
1.0
 70
     8
 71
     3
 72
    12
 73
     8
 74
     0
 42
0.000000001
 43
0.00000001
 40
0.0
 40
0.0
 40
0.0
 40
0.0
 40
0.2057949882088127
 40
0.4120010155283845
 40
0.6140549927930972
 40
0.8131810826684704
 40
1.0
 40
1.0
 40
1.0
 40
1.0
 10
238.9831947945948
 20
143.887861025671
 30
0.0
 10
238.9101632685244
 20
143.8631379422078
 30
0.0
 10
238.76395434882
 20
143.8136423952924
 30
0.0
 10
238.5281670136427
 20
143.8360202930305
 30
0.0
 10
238.316865336108
 20
143.9290435535818
 30
0.0
 10
238.1483444359744
 20
144.0797043587424
 30
0.0
 10
238.085624471759
 20
144.2096816064599
 30
0.0
 10
238.0552645096116
 20
144.2725978464497
 30
0.0
  0
SPLINE
  5
B3
330
1F
100
AcDbEntity
  8
0
  6
Continuous
 62
     7
370
    15
100
AcDbSpline
210
0.0
220
0.0
230
1.0
 70
     8
 71
     3
 72
    15
 73
    11
 74
     0
 42
0.000000001
 43
0.00000001
 40
0.0
 40
0.0
 40
0.0
 40
0.0
 40
0.1268036956060963
 40
0.2539263442698936
 40
0.3799872671766556
 40
0.5048410097957339
 40
0.6290227167746426
 40
0.7532063308915009
 40
0.8780553361591631
 40
1.0
 40
1.0
 40
1.0
 40
1.0
 10
238.0552645096116
 20
144.2725978464497
 30
0.0
 10
238.035508462716
 20
144.3125212763663
 30
0.0
 10
237.9959466759601
 20
144.3924685567745
 30
0.0
 10
237.890049986968
 20
144.4790928579357
 30
0.0
 10
237.7641222222829
 20
144.5272805446153
 30
0.0
 10
237.6295052607366
 20
144.5305116417244
 30
0.0
 10
237.5019727531858
 20
144.4895900594527
 30
0.0
 10
237.3959406363632
 20
144.4092492806172
 30
0.0
 10
237.3197920590668
 20
144.2997307258034
 30
0.0
 10
237.3030311174877
 20
144.2147377078687
 30
0.0
 10
237.2947492705752
 20
144.1727413104801
 30
0.0
  0
SPLINE
  5
B4
330
1F
100
AcDbEntity
  8
0
  6
Continuous
 62
     7
370
    15
100
AcDbSpline
210
0.0
220
0.0
230
1.0
 70
     8
 71
     3
 72
    12
 73
     8
 74
     0
 42
0.000000001
 43
0.00000001
 40
0.0
 40
0.0
 40
0.0
 40
0.0
 40
0.2058497400954075
 40
0.412052448633722
 40
0.6141081262895012
 40
0.8132431903674633
 40
1.0
 40
1.0
 40
1.0
 40
1.0
 10
237.2947492705752
 20
144.1727413104801
 30
0.0
 10
237.2796382710763
 20
144.097112187498
 30
0.0
 10
237.2493903614022
 20
143.9457242610505
 30
0.0
 10
237.112087070594
 20
143.7527108043998
 30
0.0
 10
236.9258629793881
 20
143.6162450014228
 30
0.0
 10
236.7111388062704
 20
143.5456587233885
 30
0.0
 10
236.5672357879617
 20
143.5563327184726
 30
0.0
 10
236.4975922675179
 20
143.5614985211332
 30
0.0
  0
SPLINE
  5
B5
330
1F
100
AcDbEntity
  8
0
  6
Continuous
 62
     7
370
    15
100
AcDbSpline
210
0.0
220
0.0
230
1.0
 70
     8
 71
     3
 72
    15
 73
    11
 74
     0
 42
0.000000001
 43
0.00000001
 40
0.0
 40
0.0
 40
0.0
 40
0.0
 40
0.1262564375372592
 40
0.2533820972841654
 40
0.3794454811307665
 40
0.5043002379033822
 40
0.6284814530466103
 40
0.7526634909000712
 40
0.8775104621121711
 40
1.0
 40
1.0
 40
1.0
 40
1.0
 10
236.4975922675179
 20
143.5614985211332
 30
0.0
 10
236.4533362703105
 20
143.5643564469287
 30
0.0
 10
236.3645195920599
 20
143.5700919741309
 30
0.0
 10
236.2366676563104
 20
143.5219572926788
 30
0.0
 10
236.1318455014959
 20
143.4371452263654
 30
0.0
 10
236.0615706405952
 20
143.3222809118548
 30
0.0
 10
236.033052481747
 20
143.1914144169523
 30
0.0
 10
236.0494214631696
 20
143.0593956396451
 30
0.0
 10
236.1060977365967
 20
142.9384244780873
 30
0.0
 10
236.1714488353103
 20
142.8812563550335
 30
0.0
 10
236.2038129448833
 20
142.8529447361776
 30
0.0
  0
SPLINE
  5
B6
330
1F
100
AcDbEntity
  8
0
  6
Continuous
 62
     7
370
    15
100
AcDbSpline
210
0.0
220
0.0
230
1.0
 70
     8
 71
     3
 72
    12
 73
     8
 74
     0
 42
0.000000001
 43
0.00000001
 40
0.0
 40
0.0
 40
0.0
 40
0.0
 40
0.2058713741444514
 40
0.4120924153877225
 40
0.6141683533432769
 40
0.8133068872803555
 40
1.0
 40
1.0
 40
1.0
 40
1.0
 10
236.2038129448833
 20
142.8529447361776
 30
0.0
 10
236.261758740628
 20
142.8020387590069
 30
0.0
 10
236.3777487515231
 20
142.7001403422058
 30
0.0
 10
236.4762506668204
 20
142.484705184809
 30
0.0
 10
236.5013088152814
 20
142.255179317165
 30
0.0
 10
236.4550579018172
 20
142.033943377364
 30
0.0
 10
236.373870522612
 20
141.9146755046513
 30
0.0
 10
236.3345862268093
 20
141.856965126052
 30
0.0
  0
SPLINE
  5
B7
330
1F
100
AcDbEntity
  8
0
  6
Continuous
 62
     7
370
    15
100
AcDbSpline
210
0.0
220
0.0
230
1.0
 70
     8
 71
     3
 72
    15
 73
    11
 74
     0
 42
0.000000001
 43
0.00000001
 40
0.0
 40
0.0
 40
0.0
 40
0.0
 40
0.1268702503425294
 40
0.2539810595566339
 40
0.3800301963394505
 40
0.5048749967545244
 40
0.6290527571813268
 40
0.7532384607996261
 40
0.8780953942141992
 40
1.0
 40
1.0
 40
1.0
 40
1.0
 10
236.3345862268093
 20
141.856965126052
 30
0.0
 10
236.3098774129793
 20
141.8198717821518
 30
0.0
 10
236.2604129349006
 20
141.7456147616066
 30
0.0
 10
236.238363992995
 20
141.6105686333353
 30
0.0
 10
236.2596163332528
 20
141.4774297553963
 30
0.0
 10
236.3241397124158
 20
141.3592482408395
 30
0.0
 10
236.4233523711287
 20
141.2692785473621
 30
0.0
 10
236.5459502373411
 20
141.2176370780427
 30
0.0
 10
236.6788553903008
 20
141.2064668684804
 30
0.0
 10
236.7608268022679
 20
141.2344457902203
 30
0.0
 10
236.801322143211
 20
141.248267877066
 30
0.0
  0
SPLINE
  5
B8
330
1F
100
AcDbEntity
  8
0
  6
Continuous
 62
     7
370
    15
100
AcDbSpline
210
0.0
220
0.0
230
1.0
 70
     8
 71
     3
 72
    12
 73
     8
 74
     0
 42
0.000000001
 43
0.00000001
 40
0.0
 40
0.0
 40
0.0
 40
0.0
 40
0.2058321750920697
 40
0.4120750343576077
 40
0.6141697879283404
 40
0.8133029339856297
 40
1.0
 40
1.0
 40
1.0
 40
1.0
 10
236.801322143211
 20
141.248267877066
 30
0.0
 10
236.8743644525655
 20
141.2729933967179
 30
0.0
 10
237.0205948080643
 20
141.3224937693178
 30
0.0
 10
237.2564142397976
 20
141.3000964532719
 30
0.0
 10
237.4677358078195
 20
141.2070350427898
 30
0.0
 10
237.6362176949042
 20
141.0563562718639
 30
0.0
 10
237.6989144645591
 20
140.9264099851692
 30
0.0
 10
237.7292524281941
 20
140.8635310562872
 30
0.0
  0
SPLINE
  5
B9
330
1F
100
AcDbEntity
  8
0
  6
Continuous
 62
     7
370
    15
100
AcDbSpline
210
0.0
220
0.0
230
1.0
 70
     8
 71
     3
 72
    15
 73
    11
 74
     0
 42
0.000000001
 43
0.00000001
 40
0.0
 40
0.0
 40
0.0
 40
0.0
 40
0.1267880291974372
 40
0.2538950064075772
 40
0.3799409022876962
 40
0.504784128969199
 40
0.6289621452108787
 40
0.7531495391280331
 40
0.8780089278148444
 40
1.0
 40
1.0
 40
1.0
 40
1.0
 10
237.7292524281941
 20
140.8635310562872
 30
0.0
 10
237.7490065833932
 20
140.823610631756
 30
0.0
 10
237.7885645873514
 20
140.743669358859
 30
0.0
 10
237.8944497040452
 20
140.657047514984
 30
0.0
 10
238.0203645956758
 20
140.6088555044719
 30
0.0
 10
238.1549719492382
 20
140.6056124326609
 30
0.0
 10
238.2825035133982
 20
140.6465181748885
 30
0.0
 10
238.3885443417948
 20
140.7268457538231
 30
0.0
 10
238.4647149171218
 20
140.8363683377685
 30
0.0
 10
238.4814816918914
 20
140.9213770981707
 30
0.0
 10
238.4897676672306
 20
140.9633875922568
 30
0.0
  0
SPLINE
  5
BA
330
1F
100
AcDbEntity
  8
0
  6
Continuous
 62
     7
370
    15
100
AcDbSpline
210
0.0
220
0.0
230
1.0
 70
     8
 71
     3
 72
    12
 73
     8
 74
     0
 42
0.000000001
 43
0.00000001
 40
0.0
 40
0.0
 40
0.0
 40
0.0
 40
0.2058903596432764
 40
0.4121336430767557
 40
0.6142239121176176
 40
0.813348277736689
 40
1.0
 40
1.0
 40
1.0
 40
1.0
 10
238.4897676672306
 20
140.9633875922568
 30
0.0
 10
238.5048821644566
 20
141.0390280467906
 30
0.0
 10
238.5351370671913
 20
141.1904386137789
 30
0.0
 10
238.6724747652164
 20
141.3834701756422
 30
0.0
 10
238.8587388737447
 20
141.5199297747933
 30
0.0
 10
239.0734548157915
 20
141.5904741379775
 30
0.0
 10
239.2173184853911
 20
141.5797965603985
 30
0.0
 10
239.2869246702879
 20
141.5746303816038
 30
0.0
  0
SPLINE
  5
BB
330
1F
100
AcDbEntity
  8
0
  6
Continuous
 62
     7
370
    15
100
AcDbSpline
210
0.0
220
0.0
230
1.0
 70
     8
 71
     3
 72
    12
 73
     8
 74
     0
 42
0.000000001
 43
0.00000001
 40
0.0
 40
0.0
 40
0.0
 40
0.0
 40
0.4999999999999987
 40
0.4999999999999987
 40
0.7499999999999993
 40
0.7499999999999993
 40
1.0
 40
1.0
 40
1.0
 40
1.0
 10
193.0150526029877
 20
122.6900362396922
 30
0.0
 10
193.045751986355
 20
122.5757005726283
 30
0.0
 10
193.0871020544615
 20
122.464347219787
 30
0.0
 10
193.186857982681
 20
122.3116104475382
 30
0.0
 10
193.2265549004137
 20
122.2637505616861
 30
0.0
 10
193.3238130520613
 20
122.1891474483366
 30
0.0
 10
193.384589210052
 20
122.1623932108285
 30
0.0
 10
193.4480653048799
 20
122.1623932108285
 30
0.0
  0
LINE
  5
BC
330
1F
100
AcDbEntity
  8
0
  6
Continuous
 62
     7
370
    15
100
AcDbLine
 10
193.4480653049
 20
122.1623932108
 30
0.0
 11
196.3925516777
 21
122.1623932108
 31
0.0
  0
SPLINE
  5
BD
330
1F
100
AcDbEntity
  8
0
  6
Continuous
 62
     7
370
    15
100
AcDbSpline
210
0.0
220
0.0
230
1.0
 70
     8
 71
     3
 72
    12
 73
     8
 74
     0
 42
0.000000001
 43
0.00000001
 40
0.0
 40
0.0
 40
0.0
 40
0.0
 40
0.2500000000000007
 40
0.2500000000000007
 40
0.5000000000000014
 40
0.5000000000000014
 40
1.0
 40
1.0
 40
1.0
 40
1.0
 10
196.3925516777471
 20
122.1623932108285
 30
0.0
 10
196.4562169142776
 20
122.1623932108285
 30
0.0
 10
196.515823146501
 20
122.1884653593082
 30
0.0
 10
196.6144836714318
 20
122.2640041101293
 30
0.0
 10
196.653450661447
 20
122.3112550472256
 30
0.0
 10
196.7528374933715
 20
122.463078865192
 30
0.0
 10
196.794913740795
 20
122.5758821149571
 30
0.0
 10
196.8255643796393
 20
122.6900362396922
 30
0.0
  0
ELLIPSE
  5
BE
330
1F
100
AcDbEntity
  8
0
  6
Continuous
 62
     7
370
    15
100
AcDbEllipse
 10
183.8640508363
 20
114.5935832416
 30
0.0
 11
11.70927234972706
 21
24.67718644093742
 31
0.0
210
0.0
220
0.0
230
1.0
 40
0.3419987131
 41
5.203068809370453
 42
6.114256032590495
  0
SPLINE
  5
BF
330
1F
100
AcDbEntity
  8
0
  6
Continuous
 62
     7
370
    15
100
AcDbSpline
210
0.0
220
0.0
230
1.0
 70
     8
 71
     3
 72
    12
 73
     8
 74
     0
 42
0.000000001
 43
0.00000001
 40
0.0
 40
0.0
 40
0.0
 40
0.0
 40
0.5
 40
0.5
 40
0.75
 40
0.75
 40
1.0
 40
1.0
 40
1.0
 40
1.0
 10
196.8255643796393
 20
138.2462247188797
 30
0.0
 10
196.794864996272
 20
138.2853625612755
 30
0.0
 10
196.7535149281655
 20
138.322522344001
 30
0.0
 10
196.653758999946
 20
138.3724588496288
 30
0.0
 10
196.6140620822133
 20
138.3879117197725
 30
0.0
 10
196.5168039305657
 20
138.4118312633716
 30
0.0
 10
196.456027772575
 20
138.42031435715
 30
0.0
 10
196.3925516777471
 20
138.42031435715
 30
0.0
  0
LINE
  5
C0
330
1F
100
AcDbEntity
  8
0
  6
Continuous
 62
     7
370
    15
100
AcDbLine
 10
196.3925516777
 20
138.4203143571
 30
0.0
 11
193.4480653049
 21
138.4203143572
 31
0.0
  0
SPLINE
  5
C1
330
1F
100
AcDbEntity
  8
0
  6
Continuous
 62
     7
370
    15
100
AcDbSpline
210
0.0
220
0.0
230
1.0
 70
     8
 71
     3
 72
    12
 73
     8
 74
     0
 42
0.000000001
 43
0.00000001
 40
0.0
 40
0.0
 40
0.0
 40
0.0
 40
0.2499999999999993
 40
0.2499999999999993
 40
0.4999999999999987
 40
0.4999999999999987
 40
1.0
 40
1.0
 40
1.0
 40
1.0
 10
193.4480653048799
 20
138.42031435715
 30
0.0
 10
193.3844000683494
 20
138.42031435715
 30
0.0
 10
193.3247938361261
 20
138.4120495814841
 30
0.0
 10
193.2261333111953
 20
138.387830799901
 30
0.0
 10
193.18716632118
 20
138.3725734805919
 30
0.0
 10
193.0877794892555
 20
138.3229401263299
 30
0.0
 10
193.0457032418321
 20
138.2853004181558
 30
0.0
 10
193.0150526029877
 20
138.2462247188797
 30
0.0
  0
ELLIPSE
  5
C2
330
1F
100
AcDbEntity
  8
0
  6
Continuous
 62
     7
370
    15
100
AcDbEllipse
 10
205.9765661463
 20
114.5935832416
 30
0.0
 11
-11.70927234972695
 21
24.67718644093742
 31
0.0
210
0.0
220
0.0
230
1.0
 40
0.3419987131
 41
0.1689292745891349
 42
1.080116497809151
  0
SPLINE
  5
C3
330
1F
100
AcDbEntity
  8
0
  6
Continuous
 62
     7
370
    15
100
AcDbSpline
210
0.0
220
0.0
230
1.0
 70
     8
 71
     3
 72
    12
 73
     8
 74
     0
 42
0.000000001
 43
0.00000001
 40
0.0
 40
0.0
 40
0.0
 40
0.0
 40
0.4999999999999982
 40
0.4999999999999982
 40
0.7499999999999991
 40
0.7499999999999991
 40
1.0
 40
1.0
 40
1.0
 40
1.0
 10
193.0150526029877
 20
90.94094176441646
 30
0.0
 10
193.0459043135519
 20
90.90160972405397
 30
0.0
 10
193.0877971770126
 20
90.8641979585257
 30
0.0
 10
193.1873180548058
 20
90.8145270339098
 30
0.0
 10
193.2269322195301
 20
90.79913795130196
 30
0.0
 10
193.3240352533095
 20
90.7753047356347
 30
0.0
 10
193.3845339259599
 20
90.76685212614592
 30
0.0
 10
193.4480653048799
 20
90.7668521261459
 30
0.0
  0
LINE
  5
C4
330
1F
100
AcDbEntity
  8
0
  6
Continuous
 62
     7
370
    15
100
AcDbLine
 10
193.4480653049
 20
90.7668521261
 30
0.0
 11
196.3925516777
 21
90.7668521261
 31
0.0
  0
SPLINE
  5
C5
330
1F
100
AcDbEntity
  8
0
  6
Continuous
 62
     7
370
    15
100
AcDbSpline
210
0.0
220
0.0
230
1.0
 70
     8
 71
     3
 72
    12
 73
     8
 74
     0
 42
0.000000001
 43
0.00000001
 40
0.0
 40
0.0
 40
0.0
 40
0.0
 40
0.2499999999999982
 40
0.2499999999999982
 40
0.4999999999999963
 40
0.4999999999999963
 40
1.0
 40
1.0
 40
1.0
 40
1.0
 10
196.3925516777471
 20
90.76685212614612
 30
0.0
 10
196.4561882319608
 20
90.76685212614613
 30
0.0
 10
196.515768358827
 20
90.77510889707789
 30
0.0
 10
196.6144051001934
 20
90.7993109590857
 30
0.0
 10
196.6533637245736
 20
90.81455777811983
 30
0.0
 10
196.7527426640816
 20
90.86416265017995
 30
0.0
 10
196.794700569247
 20
90.90159429829878
 30
0.0
 10
196.8255643796395
 20
90.94094176441644
 30
0.0
  0
ELLIPSE
  5
C6
330
1F
100
AcDbEntity
  8
0
  6
Continuous
 62
     7
370
    15
100
AcDbEllipse
 10
183.8640508363
 20
114.5935832416
 30
0.0
 11
-11.70927234972723
 21
24.67718644093742
 31
0.0
210
0.0
220
0.0
230
1.0
 40
0.3419987131
 41
3.310521928178949
 42
4.22170915139894
  0
SPLINE
  5
C7
330
1F
100
AcDbEntity
  8
0
  6
Continuous
 62
     7
370
    15
100
AcDbSpline
210
0.0
220
0.0
230
1.0
 70
     8
 71
     3
 72
    12
 73
     8
 74
     0
 42
0.000000001
 43
0.00000001
 40
0.0
 40
0.0
 40
0.0
 40
0.0
 40
0.5
 40
0.5
 40
0.75
 40
0.75
 40
1.0
 40
1.0
 40
1.0
 40
1.0
 10
196.8255643796393
 20
106.4971302436037
 30
0.0
 10
196.7947126690751
 20
106.6120332325406
 30
0.0
 10
196.7528198056145
 20
106.7241721285894
 30
0.0
 10
196.6532989278213
 20
106.8761144101903
 30
0.0
 10
196.613684763097
 20
106.9237790197152
 30
0.0
 10
196.5165817293175
 20
106.9981153503306
 30
0.0
 10
196.4560830566671
 20
107.0247732724677
 30
0.0
 10
196.3925516777472
 20
107.0247732724677
 30
0.0
  0
LINE
  5
C8
330
1F
100
AcDbEntity
  8
0
  6
Continuous
 62
     7
370
    15
100
AcDbLine
 10
196.3925516777
 20
107.0247732725
 30
0.0
 11
193.4480653049
 21
107.0247732725
 31
0.0
  0
SPLINE
  5
C9
330
1F
100
AcDbEntity
  8
0
  6
Continuous
 62
     7
370
    15
100
AcDbSpline
210
0.0
220
0.0
230
1.0
 70
     8
 71
     3
 72
    12
 73
     8
 74
     0
 42
0.000000001
 43
0.00000001
 40
0.0
 40
0.0
 40
0.0
 40
0.0
 40
0.2500000000000012
 40
0.2500000000000012
 40
0.5000000000000023
 40
0.5000000000000023
 40
1.0
 40
1.0
 40
1.0
 40
1.0
 10
193.4480653048799
 20
107.0247732724673
 30
0.0
 10
193.3844287506663
 20
107.0247732724673
 30
0.0
 10
193.3248486238001
 20
106.9987263694094
 30
0.0
 10
193.2262118824337
 20
106.9232392105095
 30
0.0
 10
193.1872532580534
 20
106.8760201719788
 30
0.0
 10
193.0878743185455
 20
106.7242805208852
 30
0.0
 10
193.04591641338
 20
106.612078296701
 30
0.0
 10
193.0150526029875
 20
106.4971302436038
 30
0.0
  0
ELLIPSE
  5
CA
330
1F
100
AcDbEntity
  8
0
  6
Continuous
 62
     7
370
    15
100
AcDbEllipse
 10
205.9765661463
 20
114.5935832416
 30
0.0
 11
11.70927234972708
 21
24.67718644093742
 31
0.0
210
0.0
220
0.0
230
1.0
 40
0.3419987131
 41
2.061476155780654
 42
2.972663379000674
  0
SPLINE
  5
CB
330
1F
100
AcDbEntity
  8
0
  6
Continuous
 62
     7
370
    15
100
AcDbSpline
210
0.0
220
0.0
230
1.0
 70
     8
 71
     3
 72
    18
 73
    14
 74
     0
 42
0.000000001
 43
0.00000001
 40
0.0
 40
0.0
 40
0.0
 40
0.0
 40
0.2499999999999977
 40
0.2499999999999977
 40
0.4999999999999954
 40
0.4999999999999954
 40
0.6249999999999953
 40
0.6249999999999953
 40
0.7499999999999951
 40
0.7499999999999951
 40
0.8749999999999976
 40
0.8749999999999976
 40
1.0
 40
1.0
 40
1.0
 40
1.0
 10
214.3245119763832
 20
139.5194730521983
 30
0.0
 10
214.4082623333302
 20
139.5435935025419
 30
0.0
 10
214.5391740968559
 20
139.560197017242
 30
0.0
 10
214.8951514635401
 20
139.5828968668319
 30
0.0
 10
215.1127009086447
 20
139.5884908903763
 30
0.0
 10
215.4933582622969
 20
139.5926019391739
 30
0.0
 10
215.6285248266038
 20
139.5932333526585
 30
0.0
 10
215.9085361934392
 20
139.5937034885151
 30
0.0
 10
216.0543015133052
 20
139.5935504153187
 30
0.0
 10
216.3575954091264
 20
139.5930148683218
 30
0.0
 10
216.5147414020934
 20
139.5926343612182
 30
0.0
 10
216.8307249089658
 20
139.5920473342628
 30
0.0
 10
216.9907878010683
 20
139.5918376336021
 30
0.0
 10
217.1529815033346
 20
139.5917927731766
 30
0.0
  0
ELLIPSE
  5
CC
330
1F
100
AcDbEntity
  8
0
  6
Continuous
 62
     7
370
    15
100
AcDbEllipse
 10
214.8399237336
 20
114.5935832416
 30
0.0
 11
0.0
 21
24.99999999999997
 31
0.0
210
0.0
220
0.0
230
1.0
 40
0.2679491924
 41
0.0770178337218591
 42
3.064574819867934
  0
SPLINE
  5
CD
330
1F
100
AcDbEntity
  8
0
  6
Continuous
 62
     7
370
    15
100
AcDbSpline
210
0.0
220
0.0
230
1.0
 70
     8
 71
     3
 72
    18
 73
    14
 74
     0
 42
0.000000001
 43
0.00000001
 40
0.0
 40
0.0
 40
0.0
 40
0.0
 40
0.2499999999999972
 40
0.2499999999999972
 40
0.4999999999999968
 40
0.4999999999999968
 40
0.6249999999999976
 40
0.6249999999999976
 40
0.7499999999999983
 40
0.7499999999999983
 40
0.8749999999999992
 40
0.8749999999999992
 40
1.0
 40
1.0
 40
1.0
 40
1.0
 10
217.1529815033346
 20
89.59537371011957
 30
0.0
 10
216.8285879407935
 20
89.5952839875654
 30
0.0
 10
216.5141138041933
 20
89.59443144716501
 30
0.0
 10
215.9048464616168
 20
89.59334874798576
 30
0.0
 10
215.6234684626288
 20
89.59318602296332
 30
0.0
 10
215.2425614221536
 20
89.59726003032323
 30
0.0
 10
215.1234619147186
 20
89.5993665539465
 30
0.0
 10
214.9067016032978
 20
89.6056624678079
 30
0.0
 10
214.8080398329998
 20
89.60985799804845
 30
0.0
 10
214.6305246531831
 20
89.62111156888739
 30
0.0
 10
214.5520628050339
 20
89.62819271244918
 30
0.0
 10
214.4203891560626
 20
89.64543402718363
 30
0.0
 10
214.3663881229128
 20
89.65563292712197
 30
0.0
 10
214.3245119763832
 20
89.66769343109789
 30
0.0
  0
LINE
  5
CE
330
1F
100
AcDbEntity
  8
0
  6
Continuous
 62
     7
370
    15
100
AcDbLine
 10
184.9203084913
 20
89.8935832416
 30
0.0
 11
184.9203084913
 21
139.2935832416
 31
0.0
  0
ELLIPSE
  5
CF
330
1F
100
AcDbEntity
  8
0
  6
Continuous
 62
     7
370
    15
100
AcDbEllipse
 10
211.5962150696
 20
128.6259208275
 30
0.0
 11
0.2809431294510603
 21
3.082253567941251
 31
0.0
210
0.0
220
0.0
230
1.0
 40
0.2393976103
 41
0.0
 42
6.283185307179586
  0
SPLINE
  5
D0
330
1F
100
AcDbEntity
  8
0
  6
Continuous
 62
     7
370
    15
100
AcDbSpline
210
0.0
220
0.0
230
1.0
 70
     8
 71
     3
 72
    16
 73
    12
 74
     0
 42
0.000000001
 43
0.00000001
 40
0.0
 40
0.0
 40
0.0
 40
0.0
 40
0.2500000000000005
 40
0.2500000000000005
 40
0.500000000000001
 40
0.500000000000001
 40
0.6250000000000008
 40
0.6250000000000008
 40
0.7500000000000006
 40
0.7500000000000006
 40
1.0
 40
1.0
 40
1.0
 40
1.0
 10
183.8794474631845
 20
97.24442596045553
 30
0.0
 10
183.9111754243771
 20
97.24362884363461
 30
0.0
 10
183.9458030147277
 20
97.24303776877932
 30
0.0
 10
184.0254967767913
 20
97.24202624334488
 30
0.0
 10
184.070538236795
 20
97.24162613516998
 30
0.0
 10
184.1533909636454
 20
97.24066826326616
 30
0.0
 10
184.1833054248453
 20
97.24028658200574
 30
0.0
 10
184.2492917554032
 20
97.2392103679472
 30
0.0
 10
184.286025380865
 20
97.23849280205305
 30
0.0
 10
184.3985221004348
 20
97.23573192437138
 30
0.0
 10
184.4688634485331
 20
97.23324483249979
 30
0.0
 10
184.5253316024383
 20
97.2310715540927
 30
0.0
  0
SPLINE
  5
D1
330
1F
100
AcDbEntity
  8
0
  6
Continuous
 62
     7
370
    15
100
AcDbSpline
210
0.0
220
0.0
230
1.0
 70
     8
 71
     3
 72
    14
 73
    10
 74
     0
 42
0.000000001
 43
0.00000001
 40
0.0
 40
0.0
 40
0.0
 40
0.0
 40
0.125000000000005
 40
0.125000000000005
 40
0.25000000000001
 40
0.25000000000001
 40
0.5000000000000085
 40
0.5000000000000085
 40
1.0
 40
1.0
 40
1.0
 40
1.0
 10
184.5253316024066
 20
97.2310715541154
 30
0.0
 10
184.5379233963514
 20
97.23058693629308
 30
0.0
 10
184.5527945046455
 20
97.22887675836073
 30
0.0
 10
184.5849785960787
 20
97.22076120960985
 30
0.0
 10
184.6005827275546
 20
97.21454542134852
 30
0.0
 10
184.6364698672666
 20
97.19632630964693
 30
0.0
 10
184.6503219085353
 20
97.18456128131331
 30
0.0
 10
184.6838116504679
 20
97.152766144896
 30
0.0
 10
184.6944739110436
 20
97.13497271305285
 30
0.0
 10
184.7026118679386
 20
97.11854158220845
 30
0.0
  0
LINE
  5
D2
330
1F
100
AcDbEntity
  8
0
  6
Continuous
 62
     7
370
    15
100
AcDbLine
 10
184.7203084913
 20
108.6091030091
 30
0.0
 11
184.7203084913
 21
96.7537629628
 31
0.0
  0
SPLINE
  5
D3
330
1F
100
AcDbEntity
  8
0
  6
Continuous
 62
     7
370
    15
100
AcDbSpline
210
0.0
220
0.0
230
1.0
 70
     8
 71
     3
 72
    16
 73
    12
 74
     0
 42
0.000000001
 43
0.00000001
 40
0.0
 40
0.0
 40
0.0
 40
0.0
 40
0.5000000000000017
 40
0.5000000000000017
 40
0.7500000000000007
 40
0.7500000000000007
 40
0.8750000000000008
 40
0.8750000000000008
 40
0.9375000000000004
 40
0.9375000000000004
 40
1.0
 40
1.0
 40
1.0
 40
1.0
 10
184.7203084913135
 20
108.6091030090735
 30
0.0
 10
184.7203084913135
 20
108.7236327397725
 30
0.0
 10
184.7162511891985
 20
108.838948814962
 30
0.0
 10
184.6905939464037
 20
109.0138719047895
 30
0.0
 10
184.6792785006616
 20
109.0737012077844
 30
0.0
 10
184.6452471333529
 20
109.1582923940326
 30
0.0
 10
184.6313681521491
 20
109.1869619801767
 30
0.0
 10
184.5954324703817
 20
109.216769767123
 30
0.0
 10
184.580482151119
 20
109.2231049204825
 30
0.0
 10
184.5505836383771
 20
109.2218794576123
 30
0.0
 10
184.5370507780119
 20
109.2152808715775
 30
0.0
 10
184.5253316024378
 20
109.2066331835211
 30
0.0
  0
SPLINE
  5
D4
330
1F
100
AcDbEntity
  8
0
  6
Continuous
 62
     7
370
    15
100
AcDbSpline
210
0.0
220
0.0
230
1.0
 70
     8
 71
     3
 72
    14
 73
    10
 74
     0
 42
0.000000001
 43
0.00000001
 40
0.0
 40
0.0
 40
0.0
 40
0.0
 40
0.25
 40
0.25
 40
0.5
 40
0.5
 40
0.75
 40
0.75
 40
1.0
 40
1.0
 40
1.0
 40
1.0
 10
184.5253316024447
 20
109.2066331835124
 30
0.0
 10
184.468871936561
 20
109.1649710738136
 30
0.0
 10
184.3979994616988
 20
109.1341375932254
 30
0.0
 10
184.2495331038168
 20
109.1398521018386
 30
0.0
 10
184.180337900609
 20
109.1754230292715
 30
0.0
 10
184.0706207145395
 20
109.2623669417454
 30
0.0
 10
184.0253748256075
 20
109.3147992551105
 30
0.0
 10
183.9457576946406
 20
109.423352336629
 30
0.0
 10
183.9111550751837
 20
109.4803354228715
 30
0.0
 10
183.8794474631849
 20
109.5389015055294
 30
0.0
  0
SPLINE
  5
D5
330
1F
100
AcDbEntity
  8
0
  6
Continuous
 62
     7
370
    15
100
AcDbSpline
210
0.0
220
0.0
230
1.0
 70
     8
 71
     3
 72
    10
 73
     6
 74
     0
 42
0.000000001
 43
0.00000001
 40
0.0
 40
0.0
 40
0.0
 40
0.0
 40
0.5
 40
0.5
 40
1.0
 40
1.0
 40
1.0
 40
1.0
 10
183.5989881477539
 20
110.3917200971757
 30
0.0
 10
183.6298667313659
 20
110.242091545316
 30
0.0
 10
183.6658594390892
 20
110.0955961277924
 30
0.0
 10
183.7551996905863
 20
109.8104044892517
 30
0.0
 10
183.8076579934319
 20
109.6715014635357
 30
0.0
 10
183.879447463185
 20
109.5389015055292
 30
0.0
  0
SPLINE
  5
D6
330
1F
100
AcDbEntity
  8
0
  6
Continuous
 62
     7
370
    15
100
AcDbSpline
210
0.0
220
0.0
230
1.0
 70
     8
 71
     3
 72
    10
 73
     6
 74
     0
 42
0.000000001
 43
0.00000001
 40
0.0
 40
0.0
 40
0.0
 40
0.0
 40
0.5
 40
0.5
 40
1.0
 40
1.0
 40
1.0
 40
1.0
 10
183.8794474631843
 20
119.6482649777657
 30
0.0
 10
183.8076579934314
 20
119.5156650197594
 30
0.0
 10
183.755199690586
 20
119.3767619940436
 30
0.0
 10
183.6658594390891
 20
119.0915703555033
 30
0.0
 10
183.6298667313658
 20
118.94507493798
 30
0.0
 10
183.5989881477539
 20
118.7954463861205
 30
0.0
  0
SPLINE
  5
D7
330
1F
100
AcDbEntity
  8
0
  6
Continuous
 62
     7
370
    15
100
AcDbSpline
210
0.0
220
0.0
230
1.0
 70
     8
 71
     3
 72
    14
 73
    10
 74
     0
 42
0.000000001
 43
0.00000001
 40
0.0
 40
0.0
 40
0.0
 40
0.0
 40
0.25
 40
0.25
 40
0.5
 40
0.5
 40
0.75
 40
0.75
 40
1.0
 40
1.0
 40
1.0
 40
1.0
 10
183.8794474631837
 20
119.6482649777645
 30
0.0
 10
183.911156162669
 20
119.7068330690831
 30
0.0
 10
183.9457639813096
 20
119.7638273310231
 30
0.0
 10
184.025422391799
 20
119.872427465787
 30
0.0
 10
184.0704846616939
 20
119.9247556011656
 30
0.0
 10
184.1810665072722
 20
120.0122566125279
 30
0.0
 10
184.2487106280875
 20
120.0473020687821
 30
0.0
 10
184.3989589184846
 20
120.0530464575382
 30
0.0
 10
184.468911316715
 20
120.0221663504882
 30
0.0
 10
184.5253316024385
 20
119.9805332997751
 30
0.0
  0
SPLINE
  5
D8
330
1F
100
AcDbEntity
  8
0
  6
Continuous
 62
     7
370
    15
100
AcDbSpline
210
0.0
220
0.0
230
1.0
 70
     8
 71
     3
 72
    16
 73
    12
 74
     0
 42
0.000000001
 43
0.00000001
 40
0.0
 40
0.0
 40
0.0
 40
0.0
 40
0.0624999999999997
 40
0.0624999999999997
 40
0.1249999999999994
 40
0.1249999999999994
 40
0.2499999999999991
 40
0.2499999999999991
 40
0.4999999999999981
 40
0.4999999999999981
 40
1.0
 40
1.0
 40
1.0
 40
1.0
 10
184.5253316024067
 20
119.9805332997217
 30
0.0
 10
184.5370658368536
 20
119.9718744995775
 30
0.0
 10
184.5505975923325
 20
119.9652704143422
 30
0.0
 10
184.5805850527623
 20
119.964073447168
 30
0.0
 10
184.5955797591706
 20
119.970495194234
 30
0.0
 10
184.6313201815654
 20
120.0002123476432
 30
0.0
 10
184.6453335185666
 20
120.0290197450266
 30
0.0
 10
184.679477607348
 20
120.1140994666525
 30
0.0
 10
184.6904495114663
 20
120.1724744159223
 30
0.0
 10
184.7162950517326
 20
120.3481899407109
 30
0.0
 10
184.7203084913135
 20
120.4639849485753
 30
0.0
 10
184.7203084913135
 20
120.5780634742227
 30
0.0
  0
LINE
  5
D9
330
1F
100
AcDbEntity
  8
0
  6
Continuous
 62
     7
370
    15
100
AcDbLine
 10
184.7203084913
 20
132.4334035205
 30
0.0
 11
184.7203084913
 21
120.5780634742
 31
0.0
  0
SPLINE
  5
DA
330
1F
100
AcDbEntity
  8
0
  6
Continuous
 62
     7
370
    15
100
AcDbSpline
210
0.0
220
0.0
230
1.0
 70
     8
 71
     3
 72
    16
 73
    12
 74
     0
 42
0.000000001
 43
0.00000001
 40
0.0
 40
0.0
 40
0.0
 40
0.0
 40
0.4999999999999961
 40
0.4999999999999961
 40
0.749999999999995
 40
0.749999999999995
 40
0.874999999999997
 40
0.874999999999997
 40
0.9374999999999984
 40
0.9374999999999984
 40
1.0
 40
1.0
 40
1.0
 40
1.0
 10
184.7203084913137
 20
132.1403377073157
 30
0.0
 10
184.7203084913134
 20
132.1183226927363
 30
0.0
 10
184.7161839484594
 20
132.0929690580326
 30
0.0
 10
184.6902675028263
 20
132.045808555844
 30
0.0
 10
184.6789899218065
 20
132.0286095676153
 30
0.0
 10
184.6452545432651
 20
131.9986316020461
 30
0.0
 10
184.6308657280208
 20
131.9872801935042
 30
0.0
 10
184.5956190385817
 20
131.9705923340268
 30
0.0
 10
184.5804136141248
 20
131.9650293071415
 30
0.0
 10
184.5507670349554
 20
131.9580597241063
 30
0.0
 10
184.537061698958
 20
131.9565463830509
 30
0.0
 10
184.5253316024342
 20
131.9560949292011
 30
0.0
  0
SPLINE
  5
DB
330
1F
100
AcDbEntity
  8
0
  6
Continuous
 62
     7
370
    15
100
AcDbSpline
210
0.0
220
0.0
230
1.0
 70
     8
 71
     3
 72
    14
 73
    10
 74
     0
 42
0.000000001
 43
0.00000001
 40
0.0
 40
0.0
 40
0.0
 40
0.0
 40
0.25
 40
0.25
 40
0.5
 40
0.5
 40
0.75
 40
0.75
 40
1.0
 40
1.0
 40
1.0
 40
1.0
 10
184.5253316024447
 20
131.9560949292036
 30
0.0
 10
184.4688845203865
 20
131.9539224617844
 30
0.0
 10
184.3980341363436
 20
131.9514243638669
 30
0.0
 10
184.2495977015272
 20
131.9477779050787
 30
0.0
 10
184.1804084498403
 20
131.9468101582275
 30
0.0
 10
184.0706969015994
 20
131.9455425988648
 30
0.0
 10
184.025455252257
 20
131.9451397579364
 30
0.0
 10
183.9458072340732
 20
131.9441287230088
 30
0.0
 10
183.9111803183071
 20
131.9435377626142
 30
0.0
 10
183.8794474631858
 20
131.9427405228407
 30
0.0
  0
SPLINE
  5
DC
330
1F
100
AcDbEntity
  8
0
  6
Continuous
 62
     7
370
    15
100
AcDbSpline
210
0.0
220
0.0
230
1.0
 70
     8
 71
     3
 72
    18
 73
    14
 74
     0
 42
0.000000001
 43
0.00000001
 40
0.0
 40
0.0
 40
0.0
 40
0.0
 40
0.2500000000000001
 40
0.2500000000000001
 40
0.3750000000000001
 40
0.3750000000000001
 40
0.5
 40
0.5
 40
0.6249999999999999
 40
0.6249999999999999
 40
0.7499999999999999
 40
0.7499999999999999
 40
1.0
 40
1.0
 40
1.0
 40
1.0
 10
183.5989881477539
 20
118.7954463861205
 30
0.0
 10
183.4637025414516
 20
118.1398920506993
 30
0.0
 10
183.3625347952086
 20
117.4602709569017
 30
0.0
 10
183.2596734523397
 20
116.4049069504077
 30
0.0
 10
183.2335706068164
 20
116.046092885823
 30
0.0
 10
183.1986806232715
 20
115.3199799417001
 30
0.0
 10
183.1900943649815
 20
114.957890262684
 30
0.0
 10
183.1899946554159
 20
114.2355806052656
 30
0.0
 10
183.1984830265644
 20
113.8753608031572
 30
0.0
 10
183.232626406085
 20
113.1567947340633
 30
0.0
 10
183.2584233879388
 20
112.7970290181479
 30
0.0
 10
183.3618245193268
 20
111.7303844311535
 30
0.0
 10
183.4636825114982
 20
111.0473714918711
 30
0.0
 10
183.5989881477539
 20
110.3917200971757
 30
0.0
  0
LINE
  5
DD
330
1F
100
AcDbEntity
  8
0
  6
Continuous
 62
     7
370
    15
100
AcDbLine
 10
182.7203084913
 20
119.7337357295
 30
0.0
 11
182.7203084913
 21
109.4534307538
 31
0.0
  0
LINE
  5
DE
330
1F
100
AcDbEntity
  8
0
  6
Continuous
 62
     7
370
    15
100
AcDbLine
 10
156.4203084913
 20
119.4033619581
 30
0.0
 11
156.4203084913
 21
109.7838045252
 31
0.0
  0
LINE
  5
DF
330
1F
100
AcDbEntity
  8
0
  6
Continuous
 62
     7
370
    15
100
AcDbLine
 10
154.9203084913
 20
118.9703492563
 30
0.0
 11
154.9203084913
 21
110.216817227
 31
0.0
  0
LINE
  5
E0
330
1F
100
AcDbEntity
  8
0
  6
Continuous
 62
     7
370
    15
100
AcDbLine
 10
182.7203084913
 20
119.7337357295
 30
0.0
 11
182.7203084913
 21
132.1136820262
 31
0.0
  0
ARC
  5
E1
330
1F
100
AcDbEntity
  8
0
  6
Continuous
 62
     7
370
    15
100
AcDbCircle
 10
182.9202454022
 20
132.1187051373
 30
0.0
 40
0.2000000000000052
100
AcDbArc
 50
181.4391666667
 51
271.4391666667
  0
LINE
  5
E2
330
1F
100
AcDbEntity
  8
0
  6
Continuous
 62
     7
370
    15
100
AcDbLine
 10
156.4203084913
 20
119.4033619581
 30
0.0
 11
156.4203084913
 21
131.4529344836
 31
0.0
  0
LINE
  5
E3
330
1F
100
AcDbEntity
  8
0
  6
Continuous
 62
     7
370
    15
100
AcDbLine
 10
156.4203084913
 20
131.4529344836
 30
0.0
 11
182.7203084913
 21
132.1136820262
 31
0.0
  0
LINE
  5
E4
330
1F
100
AcDbEntity
  8
0
  6
Continuous
 62
     7
370
    15
100
AcDbLine
 10
156.4203084913
 20
97.7342319997
 30
0.0
 11
156.4203084913
 21
109.7838045252
 31
0.0
  0
LINE
  5
E5
330
1F
100
AcDbEntity
  8
0
  6
Continuous
 62
     7
370
    15
100
AcDbLine
 10
182.7203084913
 20
97.0734844571
 30
0.0
 11
182.7203084913
 21
109.4534307538
 31
0.0
  0
LINE
  5
E6
330
1F
100
AcDbEntity
  8
0
  6
Continuous
 62
     7
370
    15
100
AcDbLine
 10
156.4203084913
 20
97.7342319997
 30
0.0
 11
182.7203084913
 21
97.0734844571
 31
0.0
  0
ARC
  5
E7
330
1F
100
AcDbEntity
  8
0
  6
Continuous
 62
     7
370
    15
100
AcDbCircle
 10
182.9202454022
 20
97.068461346
 30
0.0
 40
0.2000000000000059
100
AcDbArc
 50
88.5608333333
 51
178.5608333333
  0
LINE
  5
E8
330
1F
100
AcDbEntity
  8
0
  6
Continuous
 62
     7
370
    15
100
AcDbLine
 10
182.9252685134
 20
97.2683982569
 30
0.0
 11
183.8794474632
 21
97.2444259605
 31
0.0
  0
LINE
  5
E9
330
1F
100
AcDbEntity
  8
0
  6
Continuous
 62
     7
370
    15
100
AcDbLine
 10
182.9252685134
 20
131.9187682264
 30
0.0
 11
183.8794474632
 21
131.9427405228
 31
0.0
  0
LINE
  5
EA
330
1F
100
AcDbEntity
  8
0
  6
Continuous
 62
     7
370
    15
100
AcDbLine
 10
154.9203084913
 20
98.6002574035
 30
0.0
 11
156.4203084913
 21
97.7342319997
 31
0.0
  0
LINE
  5
EB
330
1F
100
AcDbEntity
  8
0
  6
Continuous
 62
     7
370
    15
100
AcDbLine
 10
154.9203084913
 20
98.6002574035
 30
0.0
 11
154.9203084913
 21
110.216817227
 31
0.0
  0
LINE
  5
EC
330
1F
100
AcDbEntity
  8
0
  6
Continuous
 62
     7
370
    15
100
AcDbLine
 10
154.9203084913
 20
130.5869090798
 30
0.0
 11
156.4203084913
 21
131.4529344836
 31
0.0
  0
LINE
  5
ED
330
1F
100
AcDbEntity
  8
0
  6
Continuous
 62
     7
370
    15
100
AcDbLine
 10
154.9203084913
 20
118.9703492563
 30
0.0
 11
154.9203084913
 21
130.5869090798
 31
0.0
  0
SPLINE
  5
EE
330
1F
100
AcDbEntity
  8
0
  6
Continuous
 62
     7
370
    15
100
AcDbSpline
210
0.0
220
0.0
230
1.0
 70
     8
 71
     3
 72
     8
 73
     4
 74
     0
 42
0.000000001
 43
0.00000001
 40
0.0
 40
0.0
 40
0.0
 40
0.0
 40
1.0
 40
1.0
 40
1.0
 40
1.0
 10
217.1529815033346
 20
139.5917927731766
 30
0.0
 10
217.1760019253234
 20
139.5917864060618
 30
0.0
 10
217.1992390918926
 20
139.5925864976499
 30
0.0
 10
217.2222894552504
 20
139.594188037343
 30
0.0
  0
SPLINE
  5
EF
330
1F
100
AcDbEntity
  8
0
  6
Continuous
 62
     7
370
    15
100
AcDbSpline
210
0.0
220
0.0
230
1.0
 70
     8
 71
     3
 72
     8
 73
     4
 74
     0
 42
0.000000001
 43
0.00000001
 40
0.0
 40
0.0
 40
0.0
 40
0.0
 40
1.0
 40
1.0
 40
1.0
 40
1.0
 10
217.2222894552504
 20
89.59297844595321
 30
0.0
 10
217.1992933141214
 20
89.59457621828479
 30
0.0
 10
217.1761914081151
 20
89.5953801296426
 30
0.0
 10
217.1529815033346
 20
89.59537371011959
 30
0.0
  0
ARC
  5
F0
330
1F
100
AcDbEntity
  8
0
  6
Continuous
 62
     7
370
    15
100
AcDbCircle
 10
232.1748453773
 20
136.8481201277
 30
0.0
 40
2.100000000000011
100
AcDbArc
 50
115.8700037428
 51
334.1299962572
  0
LINE
  5
F1
330
1F
100
AcDbEntity
  8
0
  6
Continuous
 62
     7
370
    15
100
AcDbLine
 10
243.4956502659
 20
136.7569532612
 30
0.0
 11
241.7825992496
 21
117.1766905471
 31
0.0
  0
LINE
  5
F2
330
1F
100
AcDbEntity
  8
0
  6
Continuous
 62
     7
370
    15
100
AcDbLine
 10
241.7825992496
 20
117.1766905471
 30
0.0
 11
222.1198315211
 21
89.0953480086
 31
0.0
  0
LINE
  5
F3
330
1F
100
AcDbEntity
  8
0
  6
Continuous
 62
     7
370
    15
100
AcDbLine
 10
222.1198315211
 20
89.0953480086
 30
0.0
 11
218.0190069071
 21
89.0953480086
 31
0.0
  0
LINE
  5
F4
330
1F
100
AcDbEntity
  8
0
  6
Continuous
 62
     7
370
    15
100
AcDbLine
 10
218.1189073296
 20
140.3330159656
 30
0.0
 11
219.8602458685
 21
146.8321322826
 31
0.0
  0
LINE
  5
F5
330
1F
100
AcDbEntity
  8
0
  6
Continuous
 62
     7
370
    15
100
AcDbLine
 10
232.0601052732
 20
147.8994816772
 30
0.0
 11
219.8602458685
 21
146.8321322826
 31
0.0
  0
SPLINE
  5
F6
330
1F
100
AcDbEntity
  8
0
  6
Continuous
 62
     7
370
    15
100
AcDbSpline
210
0.0
220
0.0
230
1.0
 70
     8
 71
     3
 72
    10
 73
     6
 74
     0
 42
0.000000001
 43
0.00000001
 40
0.0
 40
0.0
 40
0.0
 40
0.0
 40
0.5
 40
0.5
 40
1.0
 40
1.0
 40
1.0
 40
1.0
 10
217.2222894552504
 20
139.594188037343
 30
0.0
 10
217.4287054489794
 20
139.6085298245901
 30
0.0
 10
217.6296535127393
 20
139.6885367270914
 30
0.0
 10
217.9497561480995
 20
139.9528776034196
 30
0.0
 10
218.0652392001271
 20
140.1327101756967
 30
0.0
 10
218.1189073296236
 20
140.3330159656375
 30
0.0
  0
SPLINE
  5
F7
330
1F
100
AcDbEntity
  8
0
  6
Continuous
 62
     7
370
    15
100
AcDbSpline
210
0.0
220
0.0
230
1.0
 70
     8
 71
     3
 72
    12
 73
     8
 74
     0
 42
0.000000001
 43
0.00000001
 40
0.0
 40
0.0
 40
0.0
 40
0.0
 40
0.2499999999999986
 40
0.2499999999999986
 40
0.4999999999999971
 40
0.4999999999999971
 40
1.0
 40
1.0
 40
1.0
 40
1.0
 10
218.0190069071185
 20
89.09534800859798
 30
0.0
 10
217.9784962167856
 20
89.16551943882655
 30
0.0
 10
217.9286648475833
 20
89.23169496825054
 30
0.0
 10
217.81568581574
 20
89.34864721686425
 30
0.0
 10
217.7527390572426
 20
89.39974917671053
 30
0.0
 10
217.5439703393405
 20
89.53029679526504
 30
0.0
 10
217.3847867869024
 20
89.58168812819895
 30
0.0
 10
217.2222894552504
 20
89.59297844595322
 30
0.0
  0
SPLINE
  5
F8
330
1F
100
AcDbEntity
  8
0
  6
HIDDEN
 62
     7
370
     0
100
AcDbSpline
210
0.0
220
0.0
230
1.0
 70
    11
 71
     3
 72
    70
 73
    66
 74
     0
 42
0.000000001
 43
0.00000001
 40
0.0
 40
0.0
 40
0.0
 40
0.0
 40
0.03125
 40
0.03125
 40
0.0624999999999999
 40
0.0624999999999999
 40
0.0937499999999999
 40
0.0937499999999999
 40
0.1249999999999999
 40
0.1249999999999999
 40
0.1562499999999999
 40
0.1562499999999999
 40
0.1874999999999998
 40
0.1874999999999998
 40
0.2187499999999998
 40
0.2187499999999998
 40
0.2499999999999998
 40
0.2499999999999998
 40
0.2812499999999998
 40
0.2812499999999998
 40
0.3124999999999997
 40
0.3124999999999997
 40
0.3437499999999997
 40
0.3437499999999997
 40
0.3749999999999997
 40
0.3749999999999997
 40
0.4062499999999997
 40
0.4062499999999997
 40
0.4374999999999996
 40
0.4374999999999996
 40
0.4687499999999996
 40
0.4687499999999996
 40
0.4999999999999996
 40
0.4999999999999996
 40
0.5312499999999996
 40
0.5312499999999996
 40
0.5624999999999996
 40
0.5624999999999996
 40
0.5937499999999994
 40
0.5937499999999994
 40
0.6249999999999994
 40
0.6249999999999994
 40
0.6562499999999996
 40
0.6562499999999996
 40
0.6874999999999996
 40
0.6874999999999996
 40
0.7187499999999997
 40
0.7187499999999997
 40
0.7499999999999998
 40
0.7499999999999998
 40
0.7812499999999999
 40
0.7812499999999999
 40
0.8124999999999999
 40
0.8124999999999999
 40
0.84375
 40
0.84375
 40
0.8750000000000001
 40
0.8750000000000001
 40
0.9062500000000001
 40
0.9062500000000001
 40
0.9375
 40
0.9375
 40
0.96875
 40
0.96875
 40
1.0
 40
1.0
 40
1.0
 40
1.0
 10
207.9203084913135
 20
100.6137606548794
 30
0.0
 10
207.9203084913135
 20
100.7782298557832
 30
0.0
 10
207.9008241289251
 20
100.9412405582017
 30
0.0
 10
207.8245138553742
 20
101.2643274725618
 30
0.0
 10
207.7667487595319
 20
101.4261227708967
 30
0.0
 10
207.6161066442562
 20
101.7365910576074
 30
0.0
 10
207.5239488182219
 20
101.8849246536713
 30
0.0
 10
207.3062498766193
 20
102.1673423281629
 30
0.0
 10
207.1796548612004
 20
102.3018570989329
 30
0.0
 10
206.9031421588161
 20
102.544213093433
 30
0.0
 10
206.7522326880782
 20
102.6536645554225
 30
0.0
 10
206.424370997409
 20
102.8477777986326
 30
0.0
 10
206.2500259575303
 20
102.9305724934787
 30
0.0
 10
205.8891271548534
 20
103.063993665143
 30
0.0
 10
205.6999001456961
 20
103.1155990132866
 30
0.0
 10
205.3125760555052
 20
103.1846574983729
 30
0.0
 10
205.1178111981963
 20
103.2017954426636
 30
0.0
 10
204.7261280399583
 20
103.2019899023555
 30
0.0
 10
204.5271758843995
 20
103.1844818339964
 30
0.0
 10
204.1422872690401
 20
103.1159004068006
 30
0.0
 10
203.9551968734964
 20
103.0651974351846
 30
0.0
 10
203.5917712545688
 20
102.931173279826
 30
0.0
 10
203.416333997929
 20
102.8477004781886
 30
0.0
 10
203.0914470703666
 20
102.6556060770325
 30
0.0
 10
202.9398527881453
 20
102.546227866673
 30
0.0
 10
202.6598163264976
 20
102.3009219843002
 30
0.0
 10
202.5358074305965
 20
102.1689171436899
 30
0.0
 10
202.3185161381732
 20
101.8876112854768
 30
0.0
 10
202.224476568083
 20
101.7365298907526
 30
0.0
 10
202.0738566296112
 20
101.4260904420175
 30
0.0
 10
202.0170272011258
 20
101.2673664058242
 30
0.0
 10
201.9400879343364
 20
100.9433495855321
 30
0.0
 10
201.9203818661294
 20
100.7770736960535
 30
0.0
 10
201.92023553512
 20
100.4523057714588
 30
0.0
 10
201.9391589324293
 20
100.2921003532187
 30
0.0
 10
202.0159324897663
 20
99.97600537548493
 30
0.0
 10
202.0734543564214
 20
99.82279614352655
 30
0.0
 10
202.2228543755753
 20
99.53266909671481
 30
0.0
 10
202.3158946170973
 20
99.39352615857713
 30
0.0
 10
202.5348482007299
 20
99.13392079152992
 30
0.0
 10
202.6588213198278
 20
99.01526730702878
 30
0.0
 10
202.9351116356571
 20
98.79894466271948
 30
0.0
 10
203.0892500919787
 20
98.70055915404697
 30
0.0
 10
203.4148972410471
 20
98.53214201250421
 30
0.0
 10
203.5870222030113
 20
98.46119315348265
 30
0.0
 10
203.95013000117
 20
98.34544572888454
 30
0.0
 10
204.1406633065931
 20
98.30122591802062
 30
0.0
 10
204.5241899944937
 20
98.24276525065167
 30
0.0
 10
204.7191862845255
 20
98.22780698825535
 30
0.0
 10
205.1159340079144
 20
98.22753022797582
 30
0.0
 10
205.3110236882246
 20
98.24222018788173
 30
0.0
 10
205.694764780205
 20
98.30016400649926
 30
0.0
 10
205.8854424162088
 20
98.34413517740224
 30
0.0
 10
206.2487930101403
 20
98.45937295814211
 30
0.0
 10
206.4211245766033
 20
98.53009263112664
 30
0.0
 10
206.7473202140549
 20
98.6981477341419
 30
0.0
 10
206.9016217836227
 20
98.79629633034348
 30
0.0
 10
207.1783102179839
 20
99.01215636440693
 30
0.0
 10
207.3025691952177
 20
99.13063167674007
 30
0.0
 10
207.5222009844347
 20
99.39004511763127
 30
0.0
 10
207.6154201126796
 20
99.52888031475115
 30
0.0
 10
207.7654178850072
 20
99.8186682070835
 30
0.0
 10
207.8232390777212
 20
99.97157194319092
 30
0.0
 10
207.9008217414338
 20
100.2880031944925
 30
0.0
 10
207.9203084913135
 20
100.4492914539756
 30
0.0
 10
207.9203084913135
 20
100.6137606548794
 30
0.0
  0
SPLINE
  5
F9
330
1F
100
AcDbEntity
  8
0
  6
HIDDEN
 62
     7
370
     0
100
AcDbSpline
210
0.0
220
0.0
230
1.0
 70
    11
 71
     3
 72
    58
 73
    54
 74
     0
 42
0.000000001
 43
0.00000001
 40
0.0
 40
0.0
 40
0.0
 40
0.0
 40
0.03125
 40
0.03125
 40
0.0625000000000001
 40
0.0625000000000001
 40
0.0937500000000001
 40
0.0937500000000001
 40
0.1250000000000002
 40
0.1250000000000002
 40
0.1875000000000003
 40
0.1875000000000003
 40
0.2500000000000004
 40
0.2500000000000004
 40
0.2812500000000004
 40
0.2812500000000004
 40
0.3125000000000005
 40
0.3125000000000005
 40
0.3437500000000005
 40
0.3437500000000005
 40
0.3750000000000006
 40
0.3750000000000006
 40
0.4062500000000006
 40
0.4062500000000006
 40
0.4375000000000007
 40
0.4375000000000007
 40
0.4687500000000007
 40
0.4687500000000007
 40
0.5000000000000008
 40
0.5000000000000008
 40
0.5625000000000009
 40
0.5625000000000009
 40
0.625000000000001
 40
0.625000000000001
 40
0.6562500000000009
 40
0.6562500000000009
 40
0.6875000000000008
 40
0.6875000000000008
 40
0.7187500000000008
 40
0.7187500000000008
 40
0.7500000000000007
 40
0.7500000000000007
 40
0.7812500000000006
 40
0.7812500000000006
 40
0.8125000000000006
 40
0.8125000000000006
 40
0.8437500000000004
 40
0.8437500000000004
 40
0.8750000000000003
 40
0.8750000000000003
 40
0.9375000000000002
 40
0.9375000000000002
 40
1.0
 40
1.0
 40
1.0
 40
1.0
 10
198.9203084913135
 20
114.5935832416481
 30
0.0
 10
198.9203084913135
 20
114.7257694269198
 30
0.0
 10
198.907332599303
 20
114.8557361664646
 30
0.0
 10
198.8565002971971
 20
115.1114155045967
 30
0.0
 10
198.8180232258757
 20
115.2384565964382
 30
0.0
 10
198.7176182647193
 20
115.4806347823787
 30
0.0
 10
198.6561840224
 20
115.5954884409682
 30
0.0
 10
198.5110497562183
 20
115.812853562774
 30
0.0
 10
198.426607835071
 20
115.9157290348583
 30
0.0
 10
198.1499358054611
 20
116.1923469872754
 30
0.0
 10
197.926889650493
 20
116.3413391071083
 30
0.0
 10
197.4456256519485
 20
116.5408629020996
 30
0.0
 10
197.1823677966287
 20
116.5934417666018
 30
0.0
 10
196.7909017653439
 20
116.5936535401894
 30
0.0
 10
196.6583530217303
 20
116.5806625686
 30
0.0
 10
196.4018087127151
 20
116.5296263453101
 30
0.0
 10
196.2771128263434
 20
116.4918648039073
 30
0.0
 10
196.0349098559097
 20
116.3917052646139
 30
0.0
 10
195.917846492659
 20
116.3291074548634
 30
0.0
 10
195.7011601734129
 20
116.1843854708278
 30
0.0
 10
195.6001462053452
 20
116.1017613656595
 30
0.0
 10
195.4133530110597
 20
115.9151409950485
 30
0.0
 10
195.3305526471054
 20
115.8140926271573
 30
0.0
 10
195.1856742082108
 20
115.5975806062834
 30
0.0
 10
195.1230234248835
 20
115.4806912510845
 30
0.0
 10
195.0225830305096
 20
115.2384338490256
 30
0.0
 10
194.9847240187396
 20
115.1137711842102
 30
0.0
 10
194.9334863142761
 20
114.8574399885554
 30
0.0
 10
194.920355939503
 20
114.724852049205
 30
0.0
 10
194.9202139890641
 20
114.3332203806357
 30
0.0
 10
194.9725549053122
 20
114.0700075476014
 30
0.0
 10
195.1716851320503
 20
113.5885002169101
 30
0.0
 10
195.3205222196926
 20
113.3652997356345
 30
0.0
 10
195.596834256232
 20
113.0884536556728
 30
0.0
 10
195.6995997934833
 20
113.003941561454
 30
0.0
 10
195.916916725837
 20
112.8585629647225
 30
0.0
 10
196.0317036363739
 20
112.7970475331207
 30
0.0
 10
196.2736231264798
 20
112.6964914728751
 30
0.0
 10
196.4007500289798
 20
112.6578527470405
 30
0.0
 10
196.656418864616
 20
112.6067878801531
 30
0.0
 10
196.786314069994
 20
112.5937133997768
 30
0.0
 10
197.0503888524184
 20
112.5934549985032
 30
0.0
 10
197.1807179919037
 20
112.6063310664662
 30
0.0
 10
197.4364073060475
 20
112.6569298577942
 30
0.0
 10
197.5633351724352
 20
112.6952352036318
 30
0.0
 10
197.8057874612773
 20
112.7954910360517
 30
0.0
 10
197.9207041552589
 20
112.8568420549637
 30
0.0
 10
198.1380949470294
 20
113.001710890534
 30
0.0
 10
198.2410802267109
 20
113.0860748438033
 30
0.0
 10
198.5180445943682
 20
113.3626008975894
 30
0.0
 10
198.6671768727267
 20
113.5854607395851
 30
0.0
 10
198.8671289914411
 20
114.0665632596459
 30
0.0
 10
198.9203084913135
 20
114.3292108711046
 30
0.0
 10
198.9203084913135
 20
114.5935832416481
 30
0.0
  0
SPLINE
  5
FA
330
1F
100
AcDbEntity
  8
0
  6
HIDDEN
 62
     7
370
     0
100
AcDbSpline
210
0.0
220
0.0
230
1.0
 70
     8
 71
     3
 72
    12
 73
     8
 74
     0
 42
0.000000001
 43
0.00000001
 40
0.0
 40
0.0
 40
0.0
 40
0.0
 40
0.5000000000000018
 40
0.5000000000000018
 40
0.7500000000000009
 40
0.7500000000000009
 40
1.0
 40
1.0
 40
1.0
 40
1.0
 10
193.0150526029877
 20
106.4971302436038
 30
0.0
 10
193.045751986355
 20
106.6114659106677
 30
0.0
 10
193.0871020544616
 20
106.7228192635091
 30
0.0
 10
193.186857982681
 20
106.8755560357578
 30
0.0
 10
193.2265549004137
 20
106.9234159216099
 30
0.0
 10
193.3238130520613
 20
106.9980190349594
 30
0.0
 10
193.384589210052
 20
107.0247732724675
 30
0.0
 10
193.4480653048799
 20
107.0247732724675
 30
0.0
  0
LINE
  5
FB
330
1F
100
AcDbEntity
  8
0
  6
HIDDEN
 62
     7
370
     0
100
AcDbLine
 10
193.4480653049
 20
107.0247732725
 30
0.0
 11
196.3925516777
 21
107.0247732725
 31
0.0
  0
SPLINE
  5
FC
330
1F
100
AcDbEntity
  8
0
  6
HIDDEN
 62
     7
370
     0
100
AcDbSpline
210
0.0
220
0.0
230
1.0
 70
     8
 71
     3
 72
    12
 73
     8
 74
     0
 42
0.000000001
 43
0.00000001
 40
0.0
 40
0.0
 40
0.0
 40
0.0
 40
0.25
 40
0.25
 40
0.5
 40
0.5
 40
1.0
 40
1.0
 40
1.0
 40
1.0
 10
196.3925516777471
 20
107.0247732724675
 30
0.0
 10
196.4562169142776
 20
107.0247732724675
 30
0.0
 10
196.515823146501
 20
106.9987011239878
 30
0.0
 10
196.6144836714318
 20
106.9231623731667
 30
0.0
 10
196.653450661447
 20
106.8759114360705
 30
0.0
 10
196.7528374933715
 20
106.724087618104
 30
0.0
 10
196.794913740795
 20
106.611284368339
 30
0.0
 10
196.8255643796393
 20
106.4971302436038
 30
0.0
  0
ELLIPSE
  5
FD
330
1F
100
AcDbEntity
  8
0
  6
HIDDEN
 62
     7
370
     0
100
AcDbEllipse
 10
183.8640508363
 20
114.5935832416
 30
0.0
 11
-11.70927234972715
 21
24.67718644093742
 31
0.0
210
0.0
220
0.0
230
1.0
 40
0.3419987131
 41
3.310521928178957
 42
4.221709151398946
  0
SPLINE
  5
FE
330
1F
100
AcDbEntity
  8
0
  6
HIDDEN
 62
     7
370
     0
100
AcDbSpline
210
0.0
220
0.0
230
1.0
 70
     8
 71
     3
 72
    12
 73
     8
 74
     0
 42
0.000000001
 43
0.00000001
 40
0.0
 40
0.0
 40
0.0
 40
0.0
 40
0.5
 40
0.5
 40
0.75
 40
0.75
 40
1.0
 40
1.0
 40
1.0
 40
1.0
 10
196.8255643796393
 20
90.94094176441651
 30
0.0
 10
196.794864996272
 20
90.90180392202062
 30
0.0
 10
196.7535149281655
 20
90.86464413929512
 30
0.0
 10
196.653758999946
 20
90.81470763366737
 30
0.0
 10
196.6140620822133
 20
90.79925476352362
 30
0.0
 10
196.5168039305657
 20
90.77533521992456
 30
0.0
 10
196.456027772575
 20
90.76685212614618
 30
0.0
 10
196.3925516777471
 20
90.76685212614618
 30
0.0
  0
LINE
  5
FF
330
1F
100
AcDbEntity
  8
0
  6
HIDDEN
 62
     7
370
     0
100
AcDbLine
 10
196.3925516777
 20
90.7668521261
 30
0.0
 11
193.4480653049
 21
90.7668521261
 31
0.0
  0
SPLINE
  5
100
330
1F
100
AcDbEntity
  8
0
  6
HIDDEN
 62
     7
370
     0
100
AcDbSpline
210
0.0
220
0.0
230
1.0
 70
     8
 71
     3
 72
    12
 73
     8
 74
     0
 42
0.000000001
 43
0.00000001
 40
0.0
 40
0.0
 40
0.0
 40
0.0
 40
0.2499999999999998
 40
0.2499999999999998
 40
0.4999999999999996
 40
0.4999999999999996
 40
1.0
 40
1.0
 40
1.0
 40
1.0
 10
193.4480653048799
 20
90.76685212614618
 30
0.0
 10
193.3844000683494
 20
90.76685212614618
 30
0.0
 10
193.3247938361261
 20
90.77511690181203
 30
0.0
 10
193.2261333111953
 20
90.79933568339519
 30
0.0
 10
193.18716632118
 20
90.81459300270434
 30
0.0
 10
193.0877794892555
 20
90.86422635696627
 30
0.0
 10
193.0457032418321
 20
90.9018660651404
 30
0.0
 10
193.0150526029877
 20
90.94094176441651
 30
0.0
  0
ELLIPSE
  5
101
330
1F
100
AcDbEntity
  8
0
  6
HIDDEN
 62
     7
370
     0
100
AcDbEllipse
 10
205.9765661463
 20
114.5935832416
 30
0.0
 11
11.70927234972703
 21
24.67718644093742
 31
0.0
210
0.0
220
0.0
230
1.0
 40
0.3419987131
 41
2.061476155780651
 42
2.972663379000668
  0
SPLINE
  5
102
330
1F
100
AcDbEntity
  8
0
  6
HIDDEN
 62
     7
370
     0
100
AcDbSpline
210
0.0
220
0.0
230
1.0
 70
     8
 71
     3
 72
    12
 73
     8
 74
     0
 42
0.000000001
 43
0.00000001
 40
0.0
 40
0.0
 40
0.0
 40
0.0
 40
0.4999999999999982
 40
0.4999999999999982
 40
0.7499999999999991
 40
0.7499999999999991
 40
1.0
 40
1.0
 40
1.0
 40
1.0
 10
193.0150526029877
 20
138.2462247188798
 30
0.0
 10
193.045751986355
 20
138.2853625612757
 30
0.0
 10
193.0871020544616
 20
138.3225223440012
 30
0.0
 10
193.186857982681
 20
138.3724588496289
 30
0.0
 10
193.2265549004137
 20
138.3879117197727
 30
0.0
 10
193.3238130520613
 20
138.4118312633718
 30
0.0
 10
193.384589210052
 20
138.4203143571501
 30
0.0
 10
193.4480653048799
 20
138.4203143571501
 30
0.0
  0
LINE
  5
103
330
1F
100
AcDbEntity
  8
0
  6
HIDDEN
 62
     7
370
     0
100
AcDbLine
 10
193.4480653049
 20
138.4203143572
 30
0.0
 11
196.3925516777
 21
138.4203143572
 31
0.0
  0
SPLINE
  5
104
330
1F
100
AcDbEntity
  8
0
  6
HIDDEN
 62
     7
370
     0
100
AcDbSpline
210
0.0
220
0.0
230
1.0
 70
     8
 71
     3
 72
    12
 73
     8
 74
     0
 42
0.000000001
 43
0.00000001
 40
0.0
 40
0.0
 40
0.0
 40
0.0
 40
0.2500000000000009
 40
0.2500000000000009
 40
0.5000000000000019
 40
0.5000000000000019
 40
1.0
 40
1.0
 40
1.0
 40
1.0
 10
196.3925516777471
 20
138.4203143571501
 30
0.0
 10
196.4562169142776
 20
138.4203143571501
 30
0.0
 10
196.515823146501
 20
138.4120495814843
 30
0.0
 10
196.6144836714318
 20
138.3878307999011
 30
0.0
 10
196.653450661447
 20
138.372573480592
 30
0.0
 10
196.7528374933715
 20
138.3229401263301
 30
0.0
 10
196.794913740795
 20
138.2853004181559
 30
0.0
 10
196.8255643796393
 20
138.2462247188798
 30
0.0
  0
ELLIPSE
  5
105
330
1F
100
AcDbEntity
  8
0
  6
HIDDEN
 62
     7
370
     0
100
AcDbEllipse
 10
183.8640508363
 20
114.5935832416
 30
0.0
 11
11.70927234972726
 21
24.67718644093742
 31
0.0
210
0.0
220
0.0
230
1.0
 40
0.3419987131
 41
5.203068809370469
 42
6.114256032590515
  0
SPLINE
  5
106
330
1F
100
AcDbEntity
  8
0
  6
HIDDEN
 62
     7
370
     0
100
AcDbSpline
210
0.0
220
0.0
230
1.0
 70
     8
 71
     3
 72
    12
 73
     8
 74
     0
 42
0.000000001
 43
0.00000001
 40
0.0
 40
0.0
 40
0.0
 40
0.0
 40
0.5000000000000028
 40
0.5000000000000028
 40
0.7500000000000013
 40
0.7500000000000013
 40
1.0
 40
1.0
 40
1.0
 40
1.0
 10
196.8255643796393
 20
122.6900362396927
 30
0.0
 10
196.794864996272
 20
122.5757005726288
 30
0.0
 10
196.7535149281655
 20
122.4643472197875
 30
0.0
 10
196.653758999946
 20
122.3116104475387
 30
0.0
 10
196.6140620822133
 20
122.2637505616866
 30
0.0
 10
196.5168039305657
 20
122.1891474483371
 30
0.0
 10
196.456027772575
 20
122.1623932108291
 30
0.0
 10
196.3925516777471
 20
122.1623932108291
 30
0.0
  0
LINE
  5
107
330
1F
100
AcDbEntity
  8
0
  6
HIDDEN
 62
     7
370
     0
100
AcDbLine
 10
196.3925516777
 20
122.1623932108
 30
0.0
 11
193.4480653049
 21
122.1623932108
 31
0.0
  0
SPLINE
  5
108
330
1F
100
AcDbEntity
  8
0
  6
HIDDEN
 62
     7
370
     0
100
AcDbSpline
210
0.0
220
0.0
230
1.0
 70
     8
 71
     3
 72
    12
 73
     8
 74
     0
 42
0.000000001
 43
0.00000001
 40
0.0
 40
0.0
 40
0.0
 40
0.0
 40
0.2499999999999991
 40
0.2499999999999991
 40
0.4999999999999982
 40
0.4999999999999982
 40
1.0
 40
1.0
 40
1.0
 40
1.0
 10
193.4480653048799
 20
122.1623932108291
 30
0.0
 10
193.3844000683494
 20
122.1623932108291
 30
0.0
 10
193.3247938361261
 20
122.1884653593087
 30
0.0
 10
193.2261333111953
 20
122.2640041101298
 30
0.0
 10
193.18716632118
 20
122.3112550472261
 30
0.0
 10
193.0877794892556
 20
122.4630788651925
 30
0.0
 10
193.0457032418321
 20
122.5758821149575
 30
0.0
 10
193.0150526029877
 20
122.6900362396926
 30
0.0
  0
ELLIPSE
  5
109
330
1F
100
AcDbEntity
  8
0
  6
HIDDEN
 62
     7
370
     0
100
AcDbEllipse
 10
205.9765661463
 20
114.5935832416
 30
0.0
 11
-11.70927234972714
 21
24.67718644093745
 31
0.0
210
0.0
220
0.0
230
1.0
 40
0.3419987131
 41
0.1689292745891142
 42
1.080116497809132
  0
LINE
  5
10A
330
1F
100
AcDbEntity
  8
0
  6
HIDDEN
 62
     7
370
     0
100
AcDbLine
 10
184.9203084913
 20
139.2935832416
 30
0.0
 11
184.9203084913
 21
89.8935832416
 31
0.0
  0
LINE
  5
10B
330
1F
100
AcDbEntity
  8
0
  6
HIDDEN
 62
     7
370
     0
100
AcDbLine
 10
184.9203084913
 20
95.0435832416
 30
0.0
 11
184.9203084913
 21
134.1435832416
 31
0.0
  0
SPLINE
  5
10C
330
1F
100
AcDbEntity
  8
0
  6
HIDDEN
 62
     7
370
     0
100
AcDbSpline
210
0.0
220
0.0
230
1.0
 70
     8
 71
     3
 72
    14
 73
    10
 74
     0
 42
0.000000001
 43
0.00000001
 40
0.0
 40
0.0
 40
0.0
 40
0.0
 40
0.25
 40
0.25
 40
0.5
 40
0.5
 40
0.75
 40
0.75
 40
1.0
 40
1.0
 40
1.0
 40
1.0
 10
183.8794474631851
 20
126.8880587867215
 30
0.0
 10
183.9111625975159
 20
126.8302756043784
 30
0.0
 10
183.9457771228162
 20
126.7738629433034
 30
0.0
 10
184.0254483182316
 20
126.666263493288
 30
0.0
 10
184.070504195262
 20
126.614350866367
 30
0.0
 10
184.1810586077674
 20
126.5281522416697
 30
0.0
 10
184.2484440219716
 20
126.494062821698
 30
0.0
 10
184.3990735418696
 20
126.4919604296812
 30
0.0
 10
184.468900778635
 20
126.5253322025259
 30
0.0
 10
184.5253316024384
 20
126.5691448710766
 30
0.0
  0
SPLINE
  5
10D
330
1F
100
AcDbEntity
  8
0
  6
HIDDEN
 62
     7
370
     0
100
AcDbSpline
210
0.0
220
0.0
230
1.0
 70
     8
 71
     3
 72
    16
 73
    12
 74
     0
 42
0.000000001
 43
0.00000001
 40
0.0
 40
0.0
 40
0.0
 40
0.0
 40
0.0625
 40
0.0625
 40
0.125
 40
0.125
 40
0.2499999999999982
 40
0.2499999999999982
 40
0.4999999999999988
 40
0.4999999999999988
 40
1.0
 40
1.0
 40
1.0
 40
1.0
 10
184.5253316024067
 20
126.5691448711072
 30
0.0
 10
184.5370658368536
 20
126.5782552843551
 30
0.0
 10
184.5505975923325
 20
126.5863326403015
 30
0.0
 10
184.5805850527624
 20
126.5945794819785
 30
0.0
 10
184.5955797591706
 20
126.5936521643909
 30
0.0
 10
184.6313201815654
 20
126.5808856448591
 30
0.0
 10
184.6453335185666
 20
126.5632369983487
 30
0.0
 10
184.679477607348
 20
126.5085840783172
 30
0.0
 10
184.6904495114663
 20
126.4671844106587
 30
0.0
 10
184.7162950517326
 20
126.3386946669359
 30
0.0
 10
184.7203084913135
 20
126.2480765792972
 30
0.0
 10
184.7203084913135
 20
126.1558574747431
 30
0.0
  0
LINE
  5
10E
330
1F
100
AcDbEntity
  8
0
  6
HIDDEN
 62
     7
370
     0
100
AcDbLine
 10
184.7203084913
 20
103.0313090086
 30
0.0
 11
184.7203084913
 21
126.1558574747
 31
0.0
  0
SPLINE
  5
10F
330
1F
100
AcDbEntity
  8
0
  6
HIDDEN
 62
     7
370
     0
100
AcDbSpline
210
0.0
220
0.0
230
1.0
 70
     8
 71
     3
 72
    16
 73
    12
 74
     0
 42
0.000000001
 43
0.00000001
 40
0.0
 40
0.0
 40
0.0
 40
0.0
 40
0.4999999999999968
 40
0.4999999999999968
 40
0.7499999999999928
 40
0.7499999999999928
 40
0.8749999999999953
 40
0.8749999999999953
 40
0.9374999999999978
 40
0.9374999999999978
 40
1.0
 40
1.0
 40
1.0
 40
1.0
 10
184.7203084913135
 20
103.0313090085531
 30
0.0
 10
184.7203084913135
 20
102.9387251576492
 30
0.0
 10
184.7162511891985
 20
102.8485127017889
 30
0.0
 10
184.6905939464037
 20
102.7205715746705
 30
0.0
 10
184.6792785006616
 20
102.6781583602586
 30
0.0
 10
184.6452471333529
 20
102.6238443168075
 30
0.0
 10
184.6313681521491
 20
102.6062629814176
 30
0.0
 10
184.5954324703818
 20
102.5934792934826
 30
0.0
 10
184.580482151119
 20
102.5926037953345
 30
0.0
 10
184.5505836383771
 20
102.6008492304539
 30
0.0
 10
184.5370507780119
 20
102.6089228906256
 30
0.0
 10
184.5253316024379
 20
102.6180216122197
 30
0.0
  0
SPLINE
  5
110
330
1F
100
AcDbEntity
  8
0
  6
HIDDEN
 62
     7
370
     0
100
AcDbSpline
210
0.0
220
0.0
230
1.0
 70
     8
 71
     3
 72
    14
 73
    10
 74
     0
 42
0.000000001
 43
0.00000001
 40
0.0
 40
0.0
 40
0.0
 40
0.0
 40
0.25
 40
0.25
 40
0.5
 40
0.5
 40
0.75
 40
0.75
 40
1.0
 40
1.0
 40
1.0
 40
1.0
 10
184.5253316024447
 20
102.6180216122283
 30
0.0
 10
184.4688758378359
 20
102.661853644723
 30
0.0
 10
184.398010211586
 20
102.6951846811449
 30
0.0
 10
184.2495531304134
 20
102.6931256709974
 30
0.0
 10
184.1803597711059
 20
102.6585296465957
 30
0.0
 10
184.0706443329717
 20
102.5728642899329
 30
0.0
 10
184.0253997536404
 20
102.5208418452249
 30
0.0
 10
183.9457730442166
 20
102.4132935848949
 30
0.0
 10
183.9111628956831
 20
102.3568914221619
 30
0.0
 10
183.8794474631839
 20
102.2991076965724
 30
0.0
  0
SPLINE
  5
111
330
1F
100
AcDbEntity
  8
0
  6
HIDDEN
 62
     7
370
     0
100
AcDbSpline
210
0.0
220
0.0
230
1.0
 70
     8
 71
     3
 72
    10
 73
     6
 74
     0
 42
0.000000001
 43
0.00000001
 40
0.0
 40
0.0
 40
0.0
 40
0.0
 40
0.5
 40
0.5
 40
1.0
 40
1.0
 40
1.0
 40
1.0
 10
183.8794474631844
 20
102.2991076965734
 30
0.0
 10
183.807667675261
 20
102.1683289796716
 30
0.0
 10
183.7552081609529
 20
102.0342288301684
 30
0.0
 10
183.6658650968518
 20
101.7661362671796
 30
0.0
 10
183.629869487352
 20
101.6318908955908
 30
0.0
 10
183.5989881477539
 20
101.4985365181157
 30
0.0
  0
SPLINE
  5
112
330
1F
100
AcDbEntity
  8
0
  6
HIDDEN
 62
     7
370
     0
100
AcDbSpline
210
0.0
220
0.0
230
1.0
 70
     8
 71
     3
 72
    10
 73
     6
 74
     0
 42
0.000000001
 43
0.00000001
 40
0.0
 40
0.0
 40
0.0
 40
0.0
 40
0.5
 40
0.5
 40
1.0
 40
1.0
 40
1.0
 40
1.0
 10
183.5989881477539
 20
97.29667337364329
 30
0.0
 10
183.6298611795661
 20
97.28039022627614
 30
0.0
 10
183.6658480424791
 20
97.26813263655058
 30
0.0
 10
183.7551826283702
 20
97.25102964772184
 30
0.0
 10
183.8076384877928
 20
97.24623005186349
 30
0.0
 10
183.8794474631851
 20
97.24442596045557
 30
0.0
  0
SPLINE
  5
113
330
1F
100
AcDbEntity
  8
0
  6
HIDDEN
 62
     7
370
     0
100
AcDbSpline
210
0.0
220
0.0
230
1.0
 70
     8
 71
     3
 72
     8
 73
     4
 74
     0
 42
0.000000001
 43
0.00000001
 40
0.0
 40
0.0
 40
0.0
 40
0.0
 40
1.0
 40
1.0
 40
1.0
 40
1.0
 10
184.7026118679386
 20
97.11854158220845
 30
0.0
 10
184.7165986764806
 20
97.09030119162678
 30
0.0
 10
184.7203084913133
 20
97.06716914881602
 30
0.0
 10
184.7203084913136
 20
97.04682877598087
 30
0.0
  0
LINE
  5
114
330
1F
100
AcDbEntity
  8
0
  6
HIDDEN
 62
     7
370
     0
100
AcDbLine
 10
184.7203084913
 20
96.7537629628
 30
0.0
 11
184.7203084913
 21
97.046828776
 31
0.0
  0
LINE
  5
115
330
1F
100
AcDbEntity
  8
0
  6
HIDDEN
 62
     7
370
     0
100
AcDbLine
 10
184.7203084913
 20
132.1403377073
 30
0.0
 11
184.7203084913
 21
132.4334035205
 31
0.0
  0
SPLINE
  5
116
330
1F
100
AcDbEntity
  8
0
  6
HIDDEN
 62
     7
370
     0
100
AcDbSpline
210
0.0
220
0.0
230
1.0
 70
     8
 71
     3
 72
    10
 73
     6
 74
     0
 42
0.000000001
 43
0.00000001
 40
0.0
 40
0.0
 40
0.0
 40
0.0
 40
0.5
 40
0.5
 40
1.0
 40
1.0
 40
1.0
 40
1.0
 10
183.879447463186
 20
131.9427405228407
 30
0.0
 10
183.8076384877934
 20
131.9409364314328
 30
0.0
 10
183.7551826283706
 20
131.9361368355744
 30
0.0
 10
183.6658480424792
 20
131.9190338467457
 30
0.0
 10
183.6298611795662
 20
131.9067762570201
 30
0.0
 10
183.5989881477539
 20
131.8904931096529
 30
0.0
  0
SPLINE
  5
117
330
1F
100
AcDbEntity
  8
0
  6
HIDDEN
 62
     7
370
     0
100
AcDbSpline
210
0.0
220
0.0
230
1.0
 70
     8
 71
     3
 72
    10
 73
     6
 74
     0
 42
0.000000001
 43
0.00000001
 40
0.0
 40
0.0
 40
0.0
 40
0.0
 40
0.5
 40
0.5
 40
1.0
 40
1.0
 40
1.0
 40
1.0
 10
183.5989881477539
 20
127.6886299651805
 30
0.0
 10
183.6298694873521
 20
127.5552755877052
 30
0.0
 10
183.6658650968519
 20
127.4210302161162
 30
0.0
 10
183.7552081609533
 20
127.152937653127
 30
0.0
 10
183.8076676752614
 20
127.0188375036236
 30
0.0
 10
183.8794474631851
 20
126.8880587867215
 30
0.0
  0
SPLINE
  5
118
330
1F
100
AcDbEntity
  8
0
  6
HIDDEN
 62
     7
370
     0
100
AcDbSpline
210
0.0
220
0.0
230
1.0
 70
     8
 71
     3
 72
    10
 73
     6
 74
     0
 42
0.000000001
 43
0.00000001
 40
0.0
 40
0.0
 40
0.0
 40
0.0
 40
0.5
 40
0.5
 40
1.0
 40
1.0
 40
1.0
 40
1.0
 10
203.1920584118299
 20
125.6333493204828
 30
0.0
 10
203.1729400025236
 20
125.7058636670645
 30
0.0
 10
203.1605493780724
 20
125.7843027945465
 30
0.0
 10
203.1508753060286
 20
125.956143000111
 30
0.0
 10
203.1537225067659
 20
126.0490674781202
 30
0.0
 10
203.1635396099412
 20
126.1467230413133
 30
0.0
  0
SPLINE
  5
119
330
1F
100
AcDbEntity
  8
0
  6
HIDDEN
 62
     7
370
     0
100
AcDbSpline
210
0.0
220
0.0
230
1.0
 70
     8
 71
     3
 72
    64
 73
    60
 74
     0
 42
0.000000001
 43
0.00000001
 40
0.0
 40
0.0
 40
0.0
 40
0.0
 40
0.0624999999999996
 40
0.0624999999999996
 40
0.1249999999999992
 40
0.1249999999999992
 40
0.1874999999999988
 40
0.1874999999999988
 40
0.218749999999999
 40
0.218749999999999
 40
0.2499999999999992
 40
0.2499999999999992
 40
0.2656249999999992
 40
0.2656249999999992
 40
0.2812499999999991
 40
0.2812499999999991
 40
0.2968749999999991
 40
0.2968749999999991
 40
0.3124999999999991
 40
0.3124999999999991
 40
0.3437499999999992
 40
0.3437499999999992
 40
0.3749999999999994
 40
0.3749999999999994
 40
0.4374999999999996
 40
0.4374999999999996
 40
0.4999999999999997
 40
0.4999999999999997
 40
0.5312499999999997
 40
0.5312499999999997
 40
0.5624999999999997
 40
0.5624999999999997
 40
0.5937499999999998
 40
0.5937499999999998
 40
0.6249999999999998
 40
0.6249999999999998
 40
0.6562499999999998
 40
0.6562499999999998
 40
0.6874999999999998
 40
0.6874999999999998
 40
0.7187499999999998
 40
0.7187499999999998
 40
0.7499999999999998
 40
0.7499999999999998
 40
0.8125000000000004
 40
0.8125000000000004
 40
0.875000000000001
 40
0.875000000000001
 40
0.9062500000000009
 40
0.9062500000000009
 40
0.9375000000000009
 40
0.9375000000000009
 40
0.9531250000000007
 40
0.9531250000000007
 40
0.9687500000000004
 40
0.9687500000000004
 40
0.9843750000000002
 40
0.9843750000000002
 40
1.0
 40
1.0
 40
1.0
 40
1.0
 10
207.3114937611744
 20
126.3822598781482
 30
0.0
 10
207.3883916173877
 20
126.1220437366283
 30
0.0
 10
207.4202977953444
 20
125.8520424263952
 30
0.0
 10
207.4203191821119
 20
125.2980631559059
 30
0.0
 10
207.3878131502458
 20
125.0247598997152
 30
0.0
 10
207.2769692685127
 20
124.4910085955013
 30
0.0
 10
207.1972956928707
 20
124.2283104479229
 30
0.0
 10
207.0554006525235
 20
123.8559410800093
 30
0.0
 10
207.0041686872517
 20
123.7347137435553
 30
0.0
 10
206.8959799473033
 20
123.4977029425339
 30
0.0
 10
206.838654891499
 20
123.3819088882681
 30
0.0
 10
206.753581782578
 20
123.2123385277655
 30
0.0
 10
206.7252281731348
 20
123.1562857117824
 30
0.0
 10
206.6738744915491
 20
123.046659574221
 30
0.0
 10
206.6505039996546
 20
122.9926772508677
 30
0.0
 10
206.6295831419327
 20
122.9003954876297
 30
0.0
 10
206.6358581813788
 20
122.8648736245833
 30
0.0
 10
206.6727425212104
 20
122.8219053651066
 30
0.0
 10
206.6998799242859
 20
122.8113361076095
 30
0.0
 10
206.7848701756541
 20
122.7912372499254
 30
0.0
 10
206.8463691341376
 20
122.7933956272009
 30
0.0
 10
206.9625598333013
 20
122.8081689413255
 30
0.0
 10
207.0183452327623
 20
122.8220924496491
 30
0.0
 10
207.1727270134868
 20
122.8790793903366
 30
0.0
 10
207.2571867785005
 20
122.9365201436925
 30
0.0
 10
207.3789122881198
 20
123.0901721787758
 30
0.0
 10
207.4164494150038
 20
123.1885032852121
 30
0.0
 10
207.4218111482343
 20
123.3662474732696
 30
0.0
 10
207.4152993785615
 20
123.4305824659032
 30
0.0
 10
207.3825503717296
 20
123.5711973391723
 30
0.0
 10
207.3562708748401
 20
123.6469269160814
 30
0.0
 10
207.2829706540799
 20
123.8061439659795
 30
0.0
 10
207.23535136868
 20
123.8909333627304
 30
0.0
 10
207.1177868423651
 20
124.0673671246134
 30
0.0
 10
207.0492155775534
 20
124.1571542126699
 30
0.0
 10
206.8921717024427
 20
124.3398634940032
 30
0.0
 10
206.802385772926
 20
124.4339066213272
 30
0.0
 10
206.6110945170432
 20
124.6161995098403
 30
0.0
 10
206.5091234549948
 20
124.7052293031198
 30
0.0
 10
206.2932698818652
 20
124.8792631152517
 30
0.0
 10
206.1822663739306
 20
124.9619320644035
 30
0.0
 10
205.9563418816049
 20
125.1187576427467
 30
0.0
 10
205.8402837128004
 20
125.1935873276423
 30
0.0
 10
205.4959576455627
 20
125.4009562869243
 30
0.0
 10
205.2687092454548
 20
125.518861521076
 30
0.0
 10
204.8210791302393
 20
125.7197393590769
 30
0.0
 10
204.6078912947815
 20
125.7997475592484
 30
0.0
 10
204.2986059389374
 20
125.8921722322411
 30
0.0
 10
204.1973190162356
 20
125.9183244386669
 30
0.0
 10
203.9964868722149
 20
125.9591930242949
 30
0.0
 10
203.8977774951489
 20
125.9744041210698
 30
0.0
 10
203.7478657526002
 20
125.9802391450145
 30
0.0
 10
203.6977045623538
 20
125.9794397740008
 30
0.0
 10
203.5924458150457
 20
125.9643436254319
 30
0.0
 10
203.5365786206308
 20
125.9494111493862
 30
0.0
 10
203.4241550697553
 20
125.8885085997158
 30
0.0
 10
203.3691863524476
 20
125.8419286047781
 30
0.0
 10
203.2740081555299
 20
125.7417834596937
 30
0.0
 10
203.2319314549968
 20
125.6883502637463
 30
0.0
 10
203.1920584118287
 20
125.6333493204873
 30
0.0
  0
LWPOLYLINE
  5
11A
330
1F
100
AcDbEntity
  8
0
  6
HIDDEN
 62
     7
370
     0
100
AcDbPolyline
 90
       26
 70
   128
 43
0.0
 10
206.3233154733
 20
127.4928824043
 10
205.8282246645
 20
127.7085273791
 10
205.2876981513
 20
127.8275331945
 10
204.7287860112
 20
127.8439443302
 10
204.179458411
 20
127.7569395084
 10
203.6672058693
 20
127.5708727933
 10
203.2176635228
 20
127.2950556968
 10
202.8533282427
 20
126.9432911938
 10
202.5924328025
 20
126.5331829667
 10
202.4480334386
 20
126.0852544479
 10
202.4273564645
 20
125.6219217462
 10
202.5314366374
 20
125.1663718567
 10
202.7550653752
 20
124.7414022916
 10
203.0870514143
 20
124.3682802033
 10
203.5107808645
 20
124.065678092
 10
204.0050486337
 20
123.8487393601
 10
204.5451196142
 20
123.7283204772
 10
205.1039665253
 20
123.7104476787
 10
205.6536224643
 20
123.79601539
 10
206.1665804813
 20
123.9807414655
 10
206.6171701348
 20
124.2553814841
 10
206.9828421425
 20
124.6061913767
 10
207.2452968354
 20
125.0156152332
 10
207.3913999461
 20
125.4631638699
 10
207.413839899
 20
125.9264401887
 10
207.3114937103
 20
126.3822600163
  0
SPLINE
  5
11B
330
1F
100
AcDbEntity
  8
0
  6
HIDDEN
 62
     7
370
     0
100
AcDbSpline
210
0.0
220
0.0
230
1.0
 70
     8
 71
     3
 72
    26
 73
    22
 74
     0
 42
0.000000001
 43
0.00000001
 40
0.0
 40
0.0
 40
0.0
 40
0.0
 40
0.0625000000000015
 40
0.0625000000000015
 40
0.0937500000000009
 40
0.0937500000000009
 40
0.1250000000000004
 40
0.1250000000000004
 40
0.1874999999999994
 40
0.1874999999999994
 40
0.2499999999999983
 40
0.2499999999999983
 40
0.3749999999999984
 40
0.3749999999999984
 40
0.4999999999999985
 40
0.4999999999999985
 40
0.7499999999999986
 40
0.7499999999999986
 40
0.8749999999999993
 40
0.8749999999999993
 40
1.0
 40
1.0
 40
1.0
 40
1.0
 10
203.1635396099406
 20
126.1467230413073
 30
0.0
 10
203.2147175434571
 20
126.1600496347406
 30
0.0
 10
203.2698294406836
 20
126.1743437630545
 30
0.0
 10
203.364938342213
 20
126.2127508039775
 30
0.0
 10
203.3993749541654
 20
126.2291164331769
 30
0.0
 10
203.4698751383621
 20
126.270826424683
 30
0.0
 10
203.50626579635
 20
126.296509409362
 30
0.0
 10
203.6095637275148
 20
126.3777020022965
 30
0.0
 10
203.6732817108596
 20
126.4370249852004
 30
0.0
 10
203.7959902507953
 20
126.5502848194838
 30
0.0
 10
203.8559008027742
 20
126.6059027774547
 30
0.0
 10
204.0368553587463
 20
126.7681619836825
 30
0.0
 10
204.1574295627254
 20
126.868880002833
 30
0.0
 10
204.4040681128047
 20
127.053326993342
 30
0.0
 10
204.5299791663444
 20
127.1372677864144
 30
0.0
 10
204.918568520746
 20
127.3613816131929
 30
0.0
 10
205.1954436264865
 20
127.4751760474018
 30
0.0
 10
205.617084542624
 20
127.5579386686083
 30
0.0
 10
205.7607637518095
 20
127.5711825170348
 30
0.0
 10
206.0453357105035
 20
127.561051605003
 30
0.0
 10
206.1855751264242
 20
127.538126975496
 30
0.0
 10
206.3233153439778
 20
127.4928824578776
 30
0.0
  0
LINE
  5
11C
330
1F
100
AcDbEntity
  8
0
  6
HIDDEN
 62
     7
370
     0
100
AcDbLine
 10
206.0756019436
 20
122.656944167
 30
0.0
 11
206.0875383208
 21
122.4803659865
 31
0.0
  0
SPLINE
  5
11D
330
1F
100
AcDbEntity
  8
0
  6
HIDDEN
 62
     7
370
     0
100
AcDbSpline
210
0.0
220
0.0
230
1.0
 70
     8
 71
     3
 72
    10
 73
     6
 74
     0
 42
0.000000001
 43
0.00000001
 40
0.0
 40
0.0
 40
0.0
 40
0.0
 40
0.5
 40
0.5
 40
1.0
 40
1.0
 40
1.0
 40
1.0
 10
206.0875383207859
 20
122.4803659864759
 30
0.0
 10
206.1066233395312
 20
122.5179446217349
 30
0.0
 10
206.1181749479894
 20
122.5545507611568
 30
0.0
 10
206.1136311245879
 20
122.6149299725109
 30
0.0
 10
206.0979073061368
 20
122.6382288706879
 30
0.0
 10
206.0756019436103
 20
122.6569441670288
 30
0.0
  0
SPLINE
  5
11E
330
1F
100
AcDbEntity
  8
0
  6
HIDDEN
 62
     7
370
     0
100
AcDbSpline
210
0.0
220
0.0
230
1.0
 70
    11
 71
     3
 72
    66
 73
    62
 74
     0
 42
0.000000001
 43
0.00000001
 40
0.0
 40
0.0
 40
0.0
 40
0.0
 40
0.03125
 40
0.03125
 40
0.0624999999999999
 40
0.0624999999999999
 40
0.0937499999999999
 40
0.0937499999999999
 40
0.1249999999999999
 40
0.1249999999999999
 40
0.1874999999999998
 40
0.1874999999999998
 40
0.2187499999999998
 40
0.2187499999999998
 40
0.2499999999999998
 40
0.2499999999999998
 40
0.2812499999999998
 40
0.2812499999999998
 40
0.3124999999999998
 40
0.3124999999999998
 40
0.3437499999999998
 40
0.3437499999999998
 40
0.3749999999999998
 40
0.3749999999999998
 40
0.4062499999999999
 40
0.4062499999999999
 40
0.4374999999999999
 40
0.4374999999999999
 40
0.4687499999999999
 40
0.4687499999999999
 40
0.5
 40
0.5
 40
0.5312500000000001
 40
0.5312500000000001
 40
0.5625000000000001
 40
0.5625000000000001
 40
0.5937500000000002
 40
0.5937500000000002
 40
0.6250000000000003
 40
0.6250000000000003
 40
0.6875000000000003
 40
0.6875000000000003
 40
0.7187500000000003
 40
0.7187500000000003
 40
0.7500000000000002
 40
0.7500000000000002
 40
0.7812500000000002
 40
0.7812500000000002
 40
0.8125000000000002
 40
0.8125000000000002
 40
0.8437500000000002
 40
0.8437500000000002
 40
0.8750000000000001
 40
0.8750000000000001
 40
0.9062500000000001
 40
0.9062500000000001
 40
0.9375000000000001
 40
0.9375000000000001
 40
0.96875
 40
0.96875
 40
1.0
 40
1.0
 40
1.0
 40
1.0
 10
204.9203084913136
 20
116.3264808778787
 30
0.0
 10
205.0868613990703
 20
116.3264808778787
 30
0.0
 10
205.2503523526601
 20
116.3435587636741
 30
0.0
 10
205.5715544980291
 20
116.4097726858363
 30
0.0
 10
205.7309668555854
 20
116.4597756748113
 30
0.0
 10
206.0330055827258
 20
116.5877599325019
 30
0.0
 10
206.1760536200875
 20
116.6653653913342
 30
0.0
 10
206.4467868420383
 20
116.8459984053661
 30
0.0
 10
206.5738563570048
 20
116.9490606355631
 30
0.0
 10
206.9168643679777
 20
117.2816917089739
 30
0.0
 10
207.1026966293815
 20
117.5430223980624
 30
0.0
 10
207.2905019925403
 20
117.9503113577671
 30
0.0
 10
207.3392420693186
 20
118.0912193270809
 30
0.0
 10
207.4040061214334
 20
118.3715649447518
 30
0.0
 10
207.4201982319675
 20
118.5099314015934
 30
0.0
 10
207.4204176391342
 20
118.7827679941922
 30
0.0
 10
207.4038695451008
 20
118.9180539762213
 30
0.0
 10
207.3394403913972
 20
119.172617590345
 30
0.0
 10
207.2917819222123
 20
119.2934598352208
 30
0.0
 10
207.1650859544136
 20
119.5231101851528
 30
0.0
 10
207.0875123686147
 20
119.6290248514734
 30
0.0
 10
206.9069057424345
 20
119.823013742555
 30
0.0
 10
206.8023526933189
 20
119.9123129086858
 30
0.0
 10
206.5723440529746
 20
120.0705172032626
 30
0.0
 10
206.4474639945998
 20
120.1394837879365
 30
0.0
 10
206.17756442297
 20
120.2592555991037
 30
0.0
 10
206.031468056487
 20
120.3100950012902
 30
0.0
 10
205.7307554326784
 20
120.3903698181085
 30
0.0
 10
205.5748077443209
 20
120.420552899456
 30
0.0
 10
205.2510278805725
 20
120.4614305435386
 30
0.0
 10
205.0853295368225
 20
120.4716277382668
 30
0.0
 10
204.7572856568151
 20
120.4717094940418
 30
0.0
 10
204.5919601054784
 20
120.4616373907808
 30
0.0
 10
204.2676316494681
 20
120.420874288083
 30
0.0
 10
204.1112788486064
 20
120.3907008450183
 30
0.0
 10
203.8095626703771
 20
120.3102524824067
 30
0.0
 10
203.6634721406625
 20
120.2594070821954
 30
0.0
 10
203.3937583632575
 20
120.1397870122209
 30
0.0
 10
203.2685770296144
 20
120.0707491084209
 30
0.0
 10
202.9219664891868
 20
119.8322755350153
 30
0.0
 10
202.7388236542984
 20
119.637691653105
 30
0.0
 10
202.5491570941591
 20
119.2941150723992
 30
0.0
 10
202.5015193467306
 20
119.1735508869894
 30
0.0
 10
202.4370011117985
 20
118.9194733315298
 30
0.0
 10
202.4203040060567
 20
118.7842569025806
 30
0.0
 10
202.4203129784242
 20
118.5110938034906
 30
0.0
 10
202.4364438143707
 20
118.3726009407596
 30
0.0
 10
202.5011034910393
 20
118.0920834544408
 30
0.0
 10
202.5497738456785
 20
117.9511357813641
 30
0.0
 10
202.6752032179973
 20
117.6789512513042
 30
0.0
 10
202.7529468704875
 20
117.5452520902836
 30
0.0
 10
202.9352463575004
 20
117.2901828765898
 30
0.0
 10
203.0382095107946
 20
117.1706528157253
 30
0.0
 10
203.2674104830871
 20
116.9484752220595
 30
0.0
 10
203.3950414611952
 20
116.8451225569174
 30
0.0
 10
203.6648871226318
 20
116.6652174210453
 30
0.0
 10
203.8077418660188
 20
116.5876811829803
 30
0.0
 10
204.1101393932649
 20
116.4595918704431
 30
0.0
 10
204.2693546242097
 20
116.4097030870671
 30
0.0
 10
204.5902423555277
 20
116.3435727392228
 30
0.0
 10
204.7537555835568
 20
116.3264808778787
 30
0.0
 10
204.9203084913135
 20
116.3264808778787
 30
0.0
  0
LINE
  5
11F
330
1F
100
AcDbEntity
  8
0
  6
HIDDEN
 62
     7
370
     0
100
AcDbLine
 10
184.7203084913
 20
97.046828776
 30
0.0
 11
184.7203084913
 21
108.6091030091
 31
0.0
  0
LINE
  5
120
330
1F
100
AcDbEntity
  8
0
  6
HIDDEN
 62
     7
370
     0
100
AcDbLine
 10
184.7203084913
 20
120.5780634742
 30
0.0
 11
184.7203084913
 21
132.1403377073
 31
0.0
  0
ARC
  5
121
330
1F
100
AcDbEntity
  8
0
  6
HIDDEN
 62
     7
370
     0
100
AcDbCircle
 10
204.4404047919
 20
125.9601761251
 30
0.0
 40
1.290420259017135
100
AcDbArc
 50
171.6880305202
 51
194.6711934842
  0
SPLINE
  5
122
330
1F
100
AcDbEntity
  8
0
  6
HIDDEN
 62
     7
370
     0
100
AcDbSpline
210
0.0
220
0.0
230
1.0
 70
     8
 71
     3
 72
    12
 73
     8
 74
     0
 42
0.000000001
 43
0.00000001
 40
0.0
 40
0.0
 40
0.0
 40
0.0
 40
0.5000000000000013
 40
0.5000000000000013
 40
0.7500000000000007
 40
0.7500000000000007
 40
1.0
 40
1.0
 40
1.0
 40
1.0
 10
206.3233154422172
 20
127.4928824054064
 30
0.0
 10
206.4247201650456
 20
127.3367991683373
 30
0.0
 10
206.5768083324812
 20
127.1615239258693
 30
0.0
 10
206.8306274464822
 20
126.8764578111642
 30
0.0
 10
206.9214075485964
 20
126.7764503311405
 30
0.0
 10
207.1093967902157
 20
126.577788584676
 30
0.0
 10
207.2071671608241
 20
126.4786261037162
 30
0.0
 10
207.3114936911204
 20
126.3822600042023
 30
0.0
  0
CIRCLE
  5
123
330
1F
100
AcDbEntity
  8
0
  6
HIDDEN
 62
     7
370
     0
100
AcDbCircle
 10
170.9203084913
 20
114.5935832416
 30
0.0
 40
3.049999999999997
  0
LINE
  5
124
330
1F
100
AcDbEntity
  8
0
  6
HIDDEN
 62
     7
370
     0
100
AcDbLine
 10
159.9483483469
 20
125.3822583762
 30
0.0
 11
159.9483483469
 21
103.8049081071
 31
0.0
  0
LINE
  5
125
330
1F
100
AcDbEntity
  8
0
  6
HIDDEN
 62
     7
370
     0
100
AcDbLine
 10
155.9483483469
 20
125.7634562227
 30
0.0
 11
155.9483483469
 21
103.4237102606
 31
0.0
  0
LINE
  5
126
330
1F
100
AcDbEntity
  8
0
  6
HIDDEN
 62
     7
370
     0
100
AcDbLine
 10
154.9203084913
 20
102.8301711732
 30
0.0
 11
154.9203084913
 21
126.3569953101
 31
0.0
  0
LINE
  5
127
330
1F
100
AcDbEntity
  8
0
  6
HIDDEN
 62
     7
370
     0
100
AcDbLine
 10
164.5483483469
 20
125.0935832416
 30
0.0
 11
164.5483483469
 21
104.0935832416
 31
0.0
  0
LINE
  5
128
330
1F
100
AcDbEntity
  8
0
  6
HIDDEN
 62
     7
370
     0
100
AcDbLine
 10
158.4483483469
 20
125.0935832416
 30
0.0
 11
158.4483483469
 21
104.0935832416
 31
0.0
  0
LINE
  5
129
330
1F
100
AcDbEntity
  8
0
  6
HIDDEN
 62
     7
370
     0
100
AcDbLine
 10
159.4483483469
 20
125.0935832416
 30
0.0
 11
159.4483483469
 21
104.0935832416
 31
0.0
  0
SPLINE
  5
12A
330
1F
100
AcDbEntity
  8
0
  6
HIDDEN
 62
     7
370
     0
100
AcDbSpline
210
0.0
220
0.0
230
1.0
 70
    11
 71
     3
 72
    66
 73
    62
 74
     0
 42
0.000000001
 43
0.00000001
 40
0.0
 40
0.0
 40
0.0
 40
0.0
 40
0.0312499999999998
 40
0.0312499999999998
 40
0.0624999999999997
 40
0.0624999999999997
 40
0.0937499999999995
 40
0.0937499999999995
 40
0.1249999999999994
 40
0.1249999999999994
 40
0.1874999999999993
 40
0.1874999999999993
 40
0.2187499999999992
 40
0.2187499999999992
 40
0.2499999999999991
 40
0.2499999999999991
 40
0.2812499999999989
 40
0.2812499999999989
 40
0.3124999999999988
 40
0.3124999999999988
 40
0.3437499999999987
 40
0.3437499999999987
 40
0.3749999999999986
 40
0.3749999999999986
 40
0.4062499999999986
 40
0.4062499999999986
 40
0.4374999999999986
 40
0.4374999999999986
 40
0.4687499999999985
 40
0.4687499999999985
 40
0.4999999999999984
 40
0.4999999999999984
 40
0.5312499999999984
 40
0.5312499999999984
 40
0.5624999999999983
 40
0.5624999999999983
 40
0.5937499999999983
 40
0.5937499999999983
 40
0.6249999999999984
 40
0.6249999999999984
 40
0.6562499999999987
 40
0.6562499999999987
 40
0.6874999999999988
 40
0.6874999999999988
 40
0.718749999999999
 40
0.718749999999999
 40
0.7499999999999991
 40
0.7499999999999991
 40
0.7812499999999993
 40
0.7812499999999993
 40
0.8124999999999996
 40
0.8124999999999996
 40
0.8749999999999996
 40
0.8749999999999996
 40
0.9062499999999994
 40
0.9062499999999994
 40
0.9374999999999997
 40
0.9374999999999997
 40
0.9687499999999998
 40
0.9687499999999998
 40
1.0
 40
1.0
 40
1.0
 40
1.0
 10
170.9203084913135
 20
117.6435832416481
 30
0.0
 10
171.1229871382613
 20
117.6435832416481
 30
0.0
 10
171.3220470295972
 20
117.6235836820315
 30
0.0
 10
171.7133010141769
 20
117.5454401793314
 30
0.0
 10
171.9075737729245
 20
117.4862790778106
 30
0.0
 10
172.2763371994758
 20
117.3328473909163
 30
0.0
 10
172.4510623578541
 20
117.239120581074
 30
0.0
 10
172.7817396613879
 20
117.0178664786692
 30
0.0
 10
172.9373872053907
 20
116.8898851116746
 30
0.0
 10
173.3568545750594
 20
116.4703300146745
 30
0.0
 10
173.5837427165897
 20
116.1318514559712
 30
0.0
 10
173.8125393399744
 20
115.581972568253
 30
0.0
 10
173.8717315948233
 20
115.3885727225096
 30
0.0
 10
173.9505390050838
 20
114.9943445721517
 30
0.0
 10
173.9701784213642
 20
114.7957057447193
 30
0.0
 10
173.9704372857858
 20
114.3954054588209
 30
0.0
 10
173.9503666011528
 20
114.1920661320998
 30
0.0
 10
173.8720289185229
 20
113.7999746114922
 30
0.0
 10
173.8140791504844
 20
113.609268743177
 30
0.0
 10
173.6601360086044
 20
113.2385449265904
 30
0.0
 10
173.5651973948818
 20
113.0618182667816
 30
0.0
 10
173.3448399790046
 20
112.7325651558572
 30
0.0
 10
173.2175599530763
 20
112.5774439322608
 30
0.0
 10
172.9358043617458
 20
112.2957672373304
 30
0.0
 10
172.7830160322883
 20
112.170334052426
 30
0.0
 10
172.4535889501313
 20
111.9495584590719
 30
0.0
 10
172.2750429469797
 20
111.8537272063717
 30
0.0
 10
171.9074706214295
 20
111.7008980758766
 30
0.0
 10
171.7173165947185
 20
111.6427263179324
 30
0.0
 10
171.323776172016
 20
111.5637330255875
 30
0.0
 10
171.1213421007548
 20
111.5436698999452
 30
0.0
 10
170.7219130253895
 20
111.5434971538265
 30
0.0
 10
170.5218940468336
 20
111.5629805279158
 30
0.0
 10
170.1257780993842
 20
111.641972099517
 30
0.0
 10
169.9350452711924
 20
111.700252319369
 30
0.0
 10
169.5674138306126
 20
111.852819939977
 30
0.0
 10
169.3889273984448
 20
111.9484287267503
 30
0.0
 10
169.0587221394808
 20
112.1694407718353
 30
0.0
 10
168.9058335614189
 20
112.2948906706054
 30
0.0
 10
168.6242371668808
 20
112.5761211596107
 30
0.0
 10
168.4966062440053
 20
112.7315040375247
 30
0.0
 10
168.2762808090055
 20
113.0603548955676
 30
0.0
 10
168.1820543520401
 20
113.2352430019816
 30
0.0
 10
168.027119831437
 20
113.6073868533424
 30
0.0
 10
167.9691075458348
 20
113.7981928951513
 30
0.0
 10
167.8906882915566
 20
114.1890659130701
 30
0.0
 10
167.8703742115901
 20
114.3915234744524
 30
0.0
 10
167.8702430952861
 20
114.7936540793718
 30
0.0
 10
167.8898677886455
 20
114.9923781245469
 30
0.0
 10
167.9680342390591
 20
115.3852175956836
 30
0.0
 10
168.0273216843991
 20
115.5798618730862
 30
0.0
 10
168.2564025274819
 20
116.1313016265004
 30
0.0
 10
168.4832333783761
 20
116.4696411921996
 30
0.0
 10
168.9025720796968
 20
116.8893068548511
 30
0.0
 10
169.0579250754467
 20
117.0171528606243
 30
0.0
 10
169.3888929085839
 20
117.2387539353261
 30
0.0
 10
169.5634542087803
 20
117.3323946693031
 30
0.0
 10
169.9310275163551
 20
117.4855487900023
 30
0.0
 10
170.1257143779932
 20
117.5450525356484
 30
0.0
 10
170.5181903279296
 20
117.6235752847114
 30
0.0
 10
170.7176298443657
 20
117.6435832416481
 30
0.0
 10
170.9203084913135
 20
117.6435832416481
 30
0.0
  0
SPLINE
  5
12B
330
1F
100
AcDbEntity
  8
0
  6
HIDDEN
 62
     7
370
     0
100
AcDbSpline
210
0.0
220
0.0
230
1.0
 70
    11
 71
     3
 72
    66
 73
    62
 74
     0
 42
0.000000001
 43
0.00000001
 40
0.0
 40
0.0
 40
0.0
 40
0.0
 40
0.0312500000000001
 40
0.0312500000000001
 40
0.0625000000000001
 40
0.0625000000000001
 40
0.0937500000000002
 40
0.0937500000000002
 40
0.1250000000000003
 40
0.1250000000000003
 40
0.1875000000000004
 40
0.1875000000000004
 40
0.2187500000000004
 40
0.2187500000000004
 40
0.2500000000000004
 40
0.2500000000000004
 40
0.2812500000000004
 40
0.2812500000000004
 40
0.3125000000000003
 40
0.3125000000000003
 40
0.3437500000000003
 40
0.3437500000000003
 40
0.3750000000000003
 40
0.3750000000000003
 40
0.4062500000000002
 40
0.4062500000000002
 40
0.4375000000000002
 40
0.4375000000000002
 40
0.4687500000000002
 40
0.4687500000000002
 40
0.5000000000000001
 40
0.5000000000000001
 40
0.5312500000000001
 40
0.5312500000000001
 40
0.5625
 40
0.5625
 40
0.59375
 40
0.59375
 40
0.6249999999999999
 40
0.6249999999999999
 40
0.6562499999999999
 40
0.6562499999999999
 40
0.6874999999999999
 40
0.6874999999999999
 40
0.7187499999999998
 40
0.7187499999999998
 40
0.7499999999999998
 40
0.7499999999999998
 40
0.7812499999999998
 40
0.7812499999999998
 40
0.8124999999999997
 40
0.8124999999999997
 40
0.8749999999999997
 40
0.8749999999999997
 40
0.9062499999999998
 40
0.9062499999999998
 40
0.9374999999999999
 40
0.9374999999999999
 40
0.9687499999999999
 40
0.9687499999999999
 40
1.0
 40
1.0
 40
1.0
 40
1.0
 10
170.9203084913135
 20
117.6435832416481
 30
0.0
 10
170.7176298443657
 20
117.6435832416481
 30
0.0
 10
170.5185699530299
 20
117.6235836820315
 30
0.0
 10
170.1273159684501
 20
117.5454401793314
 30
0.0
 10
169.9330432097025
 20
117.4862790778106
 30
0.0
 10
169.5642797831512
 20
117.3328473909163
 30
0.0
 10
169.3895546247729
 20
117.239120581074
 30
0.0
 10
169.0588773212392
 20
117.0178664786692
 30
0.0
 10
168.9032297772363
 20
116.8898851116746
 30
0.0
 10
168.4837624075676
 20
116.4703300146745
 30
0.0
 10
168.2568742660373
 20
116.1318514559712
 30
0.0
 10
168.0280776426526
 20
115.581972568253
 30
0.0
 10
167.9688853878037
 20
115.3885727225096
 30
0.0
 10
167.8900779775432
 20
114.9943445721517
 30
0.0
 10
167.8704385612628
 20
114.7957057447193
 30
0.0
 10
167.8701796968412
 20
114.3954054588209
 30
0.0
 10
167.8902503814741
 20
114.1920661320998
 30
0.0
 10
167.9685880641041
 20
113.7999746114922
 30
0.0
 10
168.0265378321426
 20
113.609268743177
 30
0.0
 10
168.1804809740225
 20
113.2385449265904
 30
0.0
 10
168.2754195877452
 20
113.0618182667816
 30
0.0
 10
168.4957770036224
 20
112.7325651558572
 30
0.0
 10
168.6230570295507
 20
112.5774439322608
 30
0.0
 10
168.9048126208812
 20
112.2957672373304
 30
0.0
 10
169.0576009503387
 20
112.170334052426
 30
0.0
 10
169.3870280324956
 20
111.9495584590719
 30
0.0
 10
169.5655740356473
 20
111.8537272063717
 30
0.0
 10
169.9331463611975
 20
111.7008980758766
 30
0.0
 10
170.1233003879085
 20
111.6427263179324
 30
0.0
 10
170.516840810611
 20
111.5637330255875
 30
0.0
 10
170.7192748818721
 20
111.5436698999452
 30
0.0
 10
171.1187039572375
 20
111.5434971538265
 30
0.0
 10
171.3187229357934
 20
111.5629805279158
 30
0.0
 10
171.7148388832428
 20
111.641972099517
 30
0.0
 10
171.9055717114346
 20
111.700252319369
 30
0.0
 10
172.2732031520144
 20
111.852819939977
 30
0.0
 10
172.4516895841821
 20
111.9484287267503
 30
0.0
 10
172.7818948431462
 20
112.1694407718353
 30
0.0
 10
172.9347834212081
 20
112.2948906706054
 30
0.0
 10
173.2163798157462
 20
112.5761211596107
 30
0.0
 10
173.3440107386217
 20
112.7315040375247
 30
0.0
 10
173.5643361736215
 20
113.0603548955676
 30
0.0
 10
173.6585626305869
 20
113.2352430019816
 30
0.0
 10
173.81349715119
 20
113.6073868533424
 30
0.0
 10
173.8715094367922
 20
113.7981928951513
 30
0.0
 10
173.9499286910703
 20
114.1890659130701
 30
0.0
 10
173.9702427710369
 20
114.3915234744524
 30
0.0
 10
173.9703738873409
 20
114.7936540793718
 30
0.0
 10
173.9507491939815
 20
114.9923781245469
 30
0.0
 10
173.8725827435679
 20
115.3852175956836
 30
0.0
 10
173.813295298228
 20
115.5798618730862
 30
0.0
 10
173.5842144551451
 20
116.1313016265004
 30
0.0
 10
173.3573836042509
 20
116.4696411921996
 30
0.0
 10
172.9380449029302
 20
116.8893068548511
 30
0.0
 10
172.7826919071803
 20
117.0171528606243
 30
0.0
 10
172.4517240740431
 20
117.2387539353261
 30
0.0
 10
172.2771627738467
 20
117.3323946693031
 30
0.0
 10
171.9095894662719
 20
117.4855487900023
 30
0.0
 10
171.7149026046338
 20
117.5450525356484
 30
0.0
 10
171.3224266546974
 20
117.6235752847114
 30
0.0
 10
171.1229871382613
 20
117.6435832416481
 30
0.0
 10
170.9203084913135
 20
117.6435832416481
 30
0.0
  0
LINE
  5
12C
330
1F
100
AcDbEntity
  8
0
  6
HIDDEN
 62
     7
370
     0
100
AcDbLine
 10
174.9203084913
 20
124.5935832164
 30
0.0
 11
174.9203084913
 21
104.5935832416
 31
0.0
  0
LINE
  5
12D
330
1F
100
AcDbEntity
  8
0
  6
HIDDEN
 62
     7
370
     0
100
AcDbLine
 10
175.9203084913
 20
121.8435832416
 30
0.0
 11
175.9203084913
 21
107.3435832416
 31
0.0
  0
LINE
  5
12E
330
1F
100
AcDbEntity
  8
0
  6
HIDDEN
 62
     7
370
     0
100
AcDbLine
 10
174.9203084913
 20
106.3435832416
 30
0.0
 11
174.9203084913
 21
122.8279357037
 31
0.0
  0
SPLINE
  5
12F
330
1F
100
AcDbEntity
  8
0
  6
HIDDEN
 62
     7
370
     0
100
AcDbSpline
210
0.0
220
0.0
230
1.0
 70
    11
 71
     3
 72
    66
 73
    62
 74
     0
 42
0.000000001
 43
0.00000001
 40
0.0
 40
0.0
 40
0.0
 40
0.0
 40
0.0312500000000001
 40
0.0312500000000001
 40
0.0625000000000002
 40
0.0625000000000002
 40
0.0937500000000002
 40
0.0937500000000002
 40
0.1250000000000003
 40
0.1250000000000003
 40
0.1875000000000004
 40
0.1875000000000004
 40
0.2187500000000004
 40
0.2187500000000004
 40
0.2500000000000004
 40
0.2500000000000004
 40
0.2812500000000004
 40
0.2812500000000004
 40
0.3125000000000005
 40
0.3125000000000005
 40
0.3437500000000005
 40
0.3437500000000005
 40
0.3750000000000005
 40
0.3750000000000005
 40
0.4062500000000006
 40
0.4062500000000006
 40
0.4375000000000006
 40
0.4375000000000006
 40
0.4687500000000006
 40
0.4687500000000006
 40
0.5000000000000006
 40
0.5000000000000006
 40
0.5312500000000007
 40
0.5312500000000007
 40
0.5625000000000006
 40
0.5625000000000006
 40
0.5937500000000006
 40
0.5937500000000006
 40
0.6250000000000006
 40
0.6250000000000006
 40
0.6875000000000004
 40
0.6875000000000004
 40
0.7187500000000004
 40
0.7187500000000004
 40
0.7500000000000003
 40
0.7500000000000003
 40
0.7812500000000003
 40
0.7812500000000003
 40
0.8125000000000003
 40
0.8125000000000003
 40
0.8437500000000003
 40
0.8437500000000003
 40
0.8750000000000002
 40
0.8750000000000002
 40
0.9062500000000002
 40
0.9062500000000002
 40
0.9375000000000002
 40
0.9375000000000002
 40
0.9687500000000001
 40
0.9687500000000001
 40
1.0
 40
1.0
 40
1.0
 40
1.0
 10
204.9203084913135
 20
108.7154977426424
 30
0.0
 10
204.7537555835568
 20
108.7154977426424
 30
0.0
 10
204.5902646299669
 20
108.7257364481202
 30
0.0
 10
204.269062484598
 20
108.7661181055682
 30
0.0
 10
204.1096501270416
 20
108.7968080984744
 30
0.0
 10
203.8076113999013
 20
108.8775271895977
 30
0.0
 10
203.6645633625396
 20
108.9273149573544
 30
0.0
 10
203.3938301405887
 20
109.0473082854349
 30
0.0
 10
203.2667606256222
 20
109.117606504761
 30
0.0
 10
202.9237526146494
 20
109.3537837259951
 30
0.0
 10
202.7379203532455
 20
109.5513549307823
 30
0.0
 10
202.5501149900868
 20
109.8911948011999
 30
0.0
 10
202.5013749133084
 20
110.013809052389
 30
0.0
 10
202.4366108611937
 20
110.2696084280251
 30
0.0
 10
202.4204187506596
 20
110.4016768228067
 30
0.0
 10
202.4201993434928
 20
110.6744288009872
 30
0.0
 10
202.4367474375262
 20
110.8161490871518
 30
0.0
 10
202.5011765912298
 20
111.0951322855925
 30
0.0
 10
202.5488350604147
 20
111.2338788608855
 30
0.0
 10
202.6755310282134
 20
111.5090406922077
 30
0.0
 10
202.7531046140124
 20
111.642010712566
 30
0.0
 10
202.9337112401925
 20
111.8949591529863
 30
0.0
 10
203.0382642893082
 20
112.0166200187509
 30
0.0
 10
203.2682729296524
 20
112.2394738159105
 30
0.0
 10
203.3931529880273
 20
112.3406190889734
 30
0.0
 10
203.663052559657
 20
112.520889493994
 30
0.0
 10
203.8091489261401
 20
112.6001237773703
 30
0.0
 10
204.1098615499487
 20
112.727414288778
 30
0.0
 10
204.2658092383061
 20
112.7765845105303
 30
0.0
 10
204.5895891020546
 20
112.8436054408564
 30
0.0
 10
204.7552874458046
 20
112.8606175898001
 30
0.0
 10
205.0833313258119
 20
112.8607532079901
 30
0.0
 10
205.2486568771487
 20
112.8439479311857
 30
0.0
 10
205.572985333159
 20
112.7771081323596
 30
0.0
 10
205.7293381340207
 20
112.7279448039727
 30
0.0
 10
206.0310543122499
 20
112.6003679156187
 30
0.0
 10
206.1771448419645
 20
112.5211243263035
 30
0.0
 10
206.4468586193696
 20
112.3410686696899
 30
0.0
 10
206.5720399530126
 20
112.2397951246373
 30
0.0
 10
206.9186504934403
 20
111.90388646043
 30
0.0
 10
207.1017933283287
 20
111.6463545492902
 30
0.0
 10
207.2914598884679
 20
111.2346515073923
 30
0.0
 10
207.3390976358964
 20
111.0961941688442
 30
0.0
 10
207.4036158708286
 20
110.8176658992218
 30
0.0
 10
207.4203129765704
 20
110.6759580725141
 30
0.0
 10
207.4203040042029
 20
110.4027984336202
 30
0.0
 10
207.4041731682564
 20
110.2705801382699
 30
0.0
 10
207.3395134915877
 20
110.0145712746373
 30
0.0
 10
207.2908431369485
 20
109.8918947032812
 30
0.0
 10
207.1654137646297
 20
109.66476132236
 30
0.0
 10
207.0876701121396
 20
109.5581954480664
 30
0.0
 10
206.9053706251267
 20
109.3626203697391
 30
0.0
 10
206.8024074718325
 20
109.2749366815069
 30
0.0
 10
206.5732064995399
 20
109.1171972393118
 30
0.0
 10
206.4455755214319
 20
109.0467197126466
 30
0.0
 10
206.1757298599953
 20
108.9272234525985
 30
0.0
 10
206.0328751166083
 20
108.8774763232908
 30
0.0
 10
205.7304775893622
 20
108.7966933756942
 30
0.0
 10
205.5712623584174
 20
108.7660755305172
 30
0.0
 10
205.2503746270993
 20
108.7257451005373
 30
0.0
 10
205.0868613990703
 20
108.7154977426424
 30
0.0
 10
204.9203084913135
 20
108.7154977426424
 30
0.0
  0
LINE
  5
130
330
1F
100
AcDbEntity
  8
0
  6
HIDDEN
 62
     7
370
     0
100
AcDbLine
 10
208.9203084913
 20
107.3435832416
 30
0.0
 11
208.9203084913
 21
121.8435832416
 31
0.0
  0
LINE
  5
131
330
1F
100
AcDbEntity
  8
0
  6
HIDDEN
 62
     7
370
     0
100
AcDbLine
 10
232.0973665543
 20
147.9027416168
 30
0.0
 11
231.2971210549
 21
138.7558937027
 31
0.0
  0
LINE
  5
132
330
1F
100
AcDbEntity
  8
0
  6
HIDDEN
 62
     7
370
     0
100
AcDbLine
 10
231.2971210549
 20
138.7558937027
 30
0.0
 11
231.2585507395
 21
138.7376714333
 31
0.0
  0
LINE
  5
133
330
1F
100
AcDbEntity
  8
0
  6
HIDDEN
 62
     7
370
     0
100
AcDbLine
 10
234.064396683
 20
135.9318254898
 30
0.0
 11
234.0826189524
 21
135.9703958052
 31
0.0
  0
LINE
  5
134
330
1F
100
AcDbEntity
  8
0
  6
HIDDEN
 62
     7
370
     0
100
AcDbLine
 10
234.0826189524
 20
135.9703958052
 30
0.0
 11
243.4989102056
 21
136.7942145423
 31
0.0
  0
LINE
  5
135
330
1F
100
AcDbEntity
  8
0
  6
HIDDEN
 62
     7
370
     0
100
AcDbLine
 10
243.4989102056
 20
136.7942145423
 30
0.0
 11
243.4956502659
 21
136.7569532612
 31
0.0
  0
LINE
  5
136
330
1F
100
AcDbEntity
  8
0
  6
HIDDEN
 62
     7
370
     0
100
AcDbLine
 10
232.0973665543
 20
147.9027416168
 30
0.0
 11
232.0601052732
 21
147.8994816772
 31
0.0
  0
ARC
  5
137
330
1F
100
AcDbEntity
  8
0
  6
HIDDEN
 62
     7
370
     0
100
AcDbCircle
 10
232.1748453773
 20
136.8481201277
 30
0.0
 40
2.1
100
AcDbArc
 50
335.2938894515
 51
342.6073121946
  0
LINE
  5
138
330
1F
100
AcDbEntity
  8
0
  6
HIDDEN
 62
     7
370
     0
100
AcDbLine
 10
234.1788301956
 20
136.2203902111
 30
0.0
 11
243.276768108
 21
137.0163566399
 31
0.0
  0
LINE
  5
139
330
1F
100
AcDbEntity
  8
0
  6
HIDDEN
 62
     7
370
     0
100
AcDbLine
 10
243.4989102056
 20
136.7942145423
 30
0.0
 11
243.276768108
 21
137.0163566399
 31
0.0
  0
LINE
  5
13A
330
1F
100
AcDbEntity
  8
0
  6
HIDDEN
 62
     7
370
     0
100
AcDbLine
 10
241.7825992496
 20
117.1766905471
 30
0.0
 11
238.7724617052
 21
118.2722910143
 31
0.0
  0
LINE
  5
13B
330
1F
100
AcDbEntity
  8
0
  6
HIDDEN
 62
     7
370
     0
100
AcDbLine
 10
232.336234013
 20
147.871771271
 30
0.0
 11
231.5471154608
 21
138.852104946
 31
0.0
  0
LINE
  5
13C
330
1F
100
AcDbEntity
  8
0
  6
HIDDEN
 62
     7
370
     0
100
AcDbLine
 10
232.0973665543
 20
147.9027416168
 30
0.0
 11
232.1222074085
 21
147.90491491
 31
0.0
  0
ELLIPSE
  5
13D
330
1F
100
AcDbEntity
  8
0
  6
HIDDEN
 62
     7
370
     0
100
AcDbEllipse
 10
229.4671995915
 20
117.5580366981
 30
0.0
 11
2.734991905295345
 21
30.34682881340565
 31
0.0
210
0.0
220
0.0
230
1.0
 40
0.1208634283
 41
6.246119101105323
 42
6.304819472938838
  0
ARC
  5
13E
330
1F
100
AcDbEntity
  8
0
  6
HIDDEN
 62
     7
370
     0
100
AcDbCircle
 10
232.1748453773
 20
136.8481201277
 30
0.0
 40
2.099999999999982
100
AcDbArc
 50
107.3926878054
 51
114.7061105485
  0
SPLINE
  5
13F
330
1F
100
AcDbEntity
  8
0
  6
HIDDEN
 62
     7
370
     0
100
AcDbSpline
210
0.0
220
0.0
230
1.0
 70
    24
 71
     3
 72
     8
 73
     4
 74
     0
 42
0.000000001
 43
0.00000001
 40
0.0000002000005835
 40
0.0000002000005835
 40
0.0000002000005835
 40
0.0000002000005835
 40
0.0002002011682396
 40
0.0002002011682396
 40
0.0002002011682396
 40
0.0002002011682396
 10
219.8602458685192
 20
146.8321322826407
 30
0.0
 10
219.8604160808439
 20
146.8321471742895
 30
0.0
 10
219.8606430259502
 20
146.8321670294135
 30
0.0
 10
219.8609266886224
 20
146.8321918466816
 30
0.0
  0
ELLIPSE
  5
140
330
1F
100
AcDbEntity
  8
0
  6
HIDDEN
 62
     7
370
     0
100
AcDbEllipse
 10
240.0188557238
 20
114.5935832416
 30
0.0
 11
18.08151684771545
 21
25.43571304338343
 31
0.0
210
0.0
220
0.0
230
1.0
 40
0.1000778042
 41
1.641819099524553
 42
3.200850449031484
  0
LINE
  5
141
330
1F
100
AcDbEntity
  8
0
  6
HIDDEN
 62
     7
370
     0
100
AcDbLine
 10
218.0190069071
 20
89.0953480086
 30
0.0
 11
218.0190069071
 21
114.5935832416
 31
0.0
  0
LINE
  5
142
330
1F
100
AcDbEntity
  8
0
  6
HIDDEN
 62
     7
370
     0
100
AcDbLine
 10
232.336234013
 20
147.871771271
 30
0.0
 11
232.3139028215
 21
147.6165245844
 31
0.0
  0
LINE
  5
143
330
1F
100
AcDbEntity
  8
0
  6
HIDDEN
 62
     7
370
     0
100
AcDbLine
 10
219.7036183079
 20
133.3503028116
 30
0.0
 11
239.781770931
 21
135.1069135507
 31
0.0
  0
SPLINE
  5
144
330
1F
100
AcDbEntity
  8
0
  6
HIDDEN
 62
     7
370
     0
100
AcDbSpline
210
0.0
220
0.0
230
1.0
 70
     8
 71
     3
 72
    43
 73
    39
 74
     0
 42
0.000000001
 43
0.00000001
 40
0.0
 40
0.0
 40
0.0
 40
0.0
 40
0.0213204426461256
 40
0.0428816081208041
 40
0.064683664140223
 40
0.0867267729134687
 40
0.1090110913770968
 40
0.1315367714175231
 40
0.1543039600819787
 40
0.1773127997787129
 40
0.2005634284670925
 40
0.224055979838184
 40
0.2477905834863814
 40
0.2717673650726095
 40
0.295986446479569
 40
0.3204479459594912
 40
0.3451519782748271
 40
0.3700986548322593
 40
0.3952880838104142
 40
0.4207203702816222
 40
0.4463956163280512
 40
0.4723139211525166
 40
0.4984753811842576
 40
0.5198521471091677
 40
0.5429513654548563
 40
0.5677731021850922
 40
0.5943174073280336
 40
0.6225843186524684
 40
0.6525738642884431
 40
0.6842860646362438
 40
0.7177209337836661
 40
0.7528784805761063
 40
0.7897587094367537
 40
0.8283616210037974
 40
0.8686872126315299
 40
0.9107354787888078
 40
0.9545064113791112
 40
1.0
 40
1.0
 40
1.0
 40
1.0
 10
243.4433350596011
 20
148.5902218533144
 30
0.0
 10
243.419148034543
 20
148.5613680527805
 30
0.0
 10
243.370500895862
 20
148.5033346719626
 30
0.0
 10
243.2962371605336
 20
148.4032215295827
 30
0.0
 10
243.2205437990047
 20
148.2926182758436
 30
0.0
 10
243.1433782249772
 20
148.1703276862821
 30
0.0
 10
243.0647835282858
 20
148.0363159329855
 30
0.0
 10
242.9847791444633
 20
147.8902358482825
 30
0.0
 10
242.9033905887121
 20
147.7318297646168
 30
0.0
 10
242.8206413067728
 20
147.5608203730912
 30
0.0
 10
242.7365548418482
 20
147.3769410422756
 30
0.0
 10
242.6511541906112
 20
147.1799281793383
 30
0.0
 10
242.5644619232227
 20
146.9695239445309
 30
0.0
 10
242.4765000924943
 20
146.745476165835
 30
0.0
 10
242.3872902035835
 20
146.5075390338075
 30
0.0
 10
242.2968531476729
 20
146.2554736027177
 30
0.0
 10
242.205209211976
 20
145.9890483597087
 30
0.0
 10
242.112377809636
 20
145.7080398015202
 30
0.0
 10
242.0183782608217
 20
145.4122329924992
 30
0.0
 10
241.9232265889084
 20
145.1014222705497
 30
0.0
 10
241.8269473987013
 20
144.7754114491963
 30
0.0
 10
241.7295286538086
 20
144.4340159862392
 30
0.0
 10
241.637398687142
 20
144.0999255428159
 30
0.0
 10
241.5484071484881
 20
143.7686628244977
 30
0.0
 10
241.4606761351311
 20
143.434624486284
 30
0.0
 10
241.3662697569946
 20
143.0653311372283
 30
0.0
 10
241.2653392471782
 20
142.6587293631941
 30
0.0
 10
241.1580782954471
 20
142.2126897932584
 30
0.0
 10
241.0446754118813
 20
141.7250234205916
 30
0.0
 10
240.9253260128877
 20
141.193499329226
 30
0.0
 10
240.800226557443
 20
140.6158654535758
 30
0.0
 10
240.6695739810194
 20
139.9898675425949
 30
0.0
 10
240.5335623801801
 20
139.3132859790804
 30
0.0
 10
240.3923840961583
 20
138.5839121884985
 30
0.0
 10
240.2462138728461
 20
137.7997780584631
 30
0.0
 10
240.0952589639813
 20
136.958388961649
 30
0.0
 10
239.9395462453753
 20
136.0599286018367
 30
0.0
 10
239.8350328520843
 20
135.4286463926569
 30
0.0
 10
239.7817676885543
 20
135.1069139424243
 30
0.0
  0
LINE
  5
145
330
1F
100
AcDbEntity
  8
0
  6
HIDDEN
 62
     7
370
     0
100
AcDbLine
 10
243.4432448339
 20
148.590215843
 30
0.0
 11
232.3139028215
 21
147.6165245844
 31
0.0
  0
SPLINE
  5
146
330
1F
100
AcDbEntity
  8
0
  6
HIDDEN
 62
     7
370
     0
100
AcDbSpline
210
0.0
220
0.0
230
1.0
 70
     8
 71
     3
 72
    26
 73
    22
 74
     0
 42
0.000000001
 43
0.00000001
 40
0.0
 40
0.0
 40
0.0
 40
0.0
 40
0.2499999999999971
 40
0.2499999999999971
 40
0.3749999999999976
 40
0.3749999999999976
 40
0.4374999999999981
 40
0.4374999999999981
 40
0.4687499999999983
 40
0.4687499999999983
 40
0.4999999999999987
 40
0.4999999999999987
 40
0.531249999999999
 40
0.531249999999999
 40
0.5624999999999992
 40
0.5624999999999992
 40
0.6249999999999997
 40
0.6249999999999997
 40
0.749999999999999
 40
0.749999999999999
 40
1.0
 40
1.0
 40
1.0
 40
1.0
 10
235.982625069316
 20
143.4357204290278
 30
0.0
 10
236.2890823922556
 20
143.3383110738207
 30
0.0
 10
236.5945440252304
 20
143.2377077122798
 30
0.0
 10
237.0532318846556
 20
143.0836985320827
 30
0.0
 10
237.2059899137277
 20
143.0316411790529
 30
0.0
 10
237.43817479192
 20
142.9554206759248
 30
0.0
 10
237.5159670656063
 20
142.930120674852
 30
0.0
 10
237.6364992320565
 20
142.8960373192706
 30
0.0
 10
237.6771728093397
 20
142.8853213824286
 30
0.0
 10
237.7620715124511
 20
142.8687118899773
 30
0.0
 10
237.8080718933871
 20
142.8626296313507
 30
0.0
 10
237.902688099766
 20
142.8676666880231
 30
0.0
 10
237.9491735787126
 20
142.8794040668479
 30
0.0
 10
238.0339532447703
 20
142.9092962402215
 30
0.0
 10
238.0734404014842
 20
142.9269987657537
 30
0.0
 10
238.1885367415102
 20
142.9814362767021
 30
0.0
 10
238.2615918442381
 20
143.0202165125758
 30
0.0
 10
238.4798656426251
 20
143.1367929270326
 30
0.0
 10
238.622974776985
 20
143.2155899583603
 30
0.0
 10
239.0530558145288
 20
143.4497427488211
 30
0.0
 10
239.3397576344472
 20
143.6037197871624
 30
0.0
 10
239.6280631752969
 20
143.7546549368865
 30
0.0
  0
SPLINE
  5
147
330
1F
100
AcDbEntity
  8
0
  6
HIDDEN
 62
     7
370
     0
100
AcDbSpline
210
0.0
220
0.0
230
1.0
 70
     8
 71
     3
 72
    28
 73
    24
 74
     0
 42
0.000000001
 43
0.00000001
 40
0.0
 40
0.0
 40
0.0
 40
0.0
 40
0.1249999999999995
 40
0.1249999999999995
 40
0.2499999999999991
 40
0.2499999999999991
 40
0.3749999999999986
 40
0.3749999999999986
 40
0.4374999999999986
 40
0.4374999999999986
 40
0.4999999999999986
 40
0.4999999999999986
 40
0.5624999999999986
 40
0.5624999999999986
 40
0.6249999999999986
 40
0.6249999999999986
 40
0.6874999999999986
 40
0.6874999999999986
 40
0.7499999999999984
 40
0.7499999999999984
 40
0.8749999999999992
 40
0.8749999999999992
 40
1.0
 40
1.0
 40
1.0
 40
1.0
 10
239.6280631752968
 20
143.7546549368865
 30
0.0
 10
239.5454355294812
 20
143.8753628622728
 30
0.0
 10
239.4496306369012
 20
143.9887514068027
 30
0.0
 10
239.2263603844204
 20
144.1998708059322
 30
0.0
 10
239.0993548082774
 20
144.2977495205738
 30
0.0
 10
238.7969403630364
 20
144.4730091811406
 30
0.0
 10
238.6199658545362
 20
144.5509124678992
 30
0.0
 10
238.3099125514598
 20
144.6298456511354
 30
0.0
 10
238.2005520361619
 20
144.6494920074306
 30
0.0
 10
237.9648124276596
 20
144.6706257187765
 30
0.0
 10
237.8418537478479
 20
144.6714647725113
 30
0.0
 10
237.5935349591481
 20
144.6504031805931
 30
0.0
 10
237.4727182446828
 20
144.62897045057
 30
0.0
 10
237.24214106176
 20
144.5678905529293
 30
0.0
 10
237.1370187067547
 20
144.5297266198571
 30
0.0
 10
236.9418865331696
 20
144.4426563966302
 30
0.0
 10
236.8525297790955
 20
144.3938393378631
 30
0.0
 10
236.6908080154062
 20
144.2914290890018
 30
0.0
 10
236.6174215662087
 20
144.2373192307857
 30
0.0
 10
236.4142379760745
 20
144.0677664731971
 30
0.0
 10
236.3035710109577
 20
143.9471594460233
 30
0.0
 10
236.1183366799502
 20
143.6984460424459
 30
0.0
 10
236.0432437309377
 20
143.5693992137386
 30
0.0
 10
235.982625069316
 20
143.4357204290278
 30
0.0
  0
LINE
  5
148
330
1F
100
AcDbEntity
  8
0
  6
HIDDEN
 62
     7
370
     0
100
AcDbLine
 10
219.8609266886
 20
146.8321918467
 30
0.0
 11
232.1222074085
 21
147.90491491
 31
0.0
  0
SPLINE
  5
149
330
1F
100
AcDbEntity
  8
0
  6
HIDDEN
 62
     7
370
     0
100
AcDbSpline
210
0.0
220
0.0
230
1.0
 70
     8
 71
     3
 72
    20
 73
    16
 74
     0
 42
0.000000001
 43
0.00000001
 40
0.0
 40
0.0
 40
0.0
 40
0.0
 40
0.2500000000000001
 40
0.2500000000000001
 40
0.3125000000000001
 40
0.3125000000000001
 40
0.3750000000000001
 40
0.3750000000000001
 40
0.5
 40
0.5
 40
0.625
 40
0.625
 40
0.75
 40
0.75
 40
1.0
 40
1.0
 40
1.0
 40
1.0
 10
219.8609266886224
 20
146.8321918466816
 30
0.0
 10
219.8715204502372
 20
146.833118680727
 30
0.0
 10
219.8757712027805
 20
146.5271000176733
 30
0.0
 10
219.8733575305012
 20
145.7654441093517
 30
0.0
 10
219.8724783665618
 20
145.5933681660812
 30
0.0
 10
219.8699597883872
 20
145.2148241801403
 30
0.0
 10
219.8683207983713
 20
145.0080341611872
 30
0.0
 10
219.862294053057
 20
144.3361595764105
 30
0.0
 10
219.8568004343075
 20
143.8197600269155
 30
0.0
 10
219.842918346188
 20
142.6508177407084
 30
0.0
 10
219.8345132975613
 20
141.997062316262
 30
0.0
 10
219.8148056020798
 20
140.5530092657996
 30
0.0
 10
219.8036930086481
 20
139.7764776819199
 30
0.0
 10
219.7668170097175
 20
137.2908294322521
 30
0.0
 10
219.7375673213306
 20
135.4279797938463
 30
0.0
 10
219.703618307866
 20
133.3503028116214
 30
0.0
  0
LINE
  5
14A
330
1F
100
AcDbEntity
  8
0
  6
HIDDEN
 62
     7
370
     0
100
AcDbLine
 10
243.276768108
 20
137.0163566399
 30
0.0
 11
242.9662574317
 21
136.9891904758
 31
0.0
  0
LWPOLYLINE
  5
14B
330
1F
100
AcDbEntity
  8
0
  6
HIDDEN
 62
     7
370
     0
100
AcDbPolyline
 90
       29
 70
   128
 43
0.0
 10
204.9203084913
 20
102.6235155449
 10
205.4766108262
 20
102.6754798019
 10
206.0050178391
 20
102.8287668683
 10
206.479032996
 20
103.0756902903
 10
206.8748871975
 20
103.4038682966
 10
207.1727306611
 20
103.7968446716
 10
207.3576282718
 20
104.2349139389
 10
207.4203084913
 20
104.6961094762
 10
207.3576282718
 20
105.1573050136
 10
207.1727306611
 20
105.5953742809
 10
206.8748871975
 20
105.9883506559
 10
206.479032996
 20
106.3165286622
 10
206.0050178391
 20
106.5634520842
 10
205.4766108262
 20
106.7167391506
 10
204.9203084913
 20
106.7687034076
 10
204.3640061564
 20
106.7167391506
 10
203.8355991435
 20
106.5634520842
 10
203.3615839867
 20
106.3165286622
 10
202.9657297851
 20
105.9883506559
 10
202.6678863216
 20
105.5953742809
 10
202.4829887109
 20
105.1573050136
 10
202.4203084913
 20
104.6961094762
 10
202.4829887109
 20
104.2349139389
 10
202.6678863216
 20
103.7968446716
 10
202.9657297851
 20
103.4038682966
 10
203.3615839867
 20
103.0756902903
 10
203.8355991435
 20
102.8287668683
 10
204.3640061564
 20
102.6754798019
 10
204.9203084913
 20
102.6235155449
  0
LINE
  5
14C
330
1F
100
AcDbEntity
  8
0
  6
HIDDEN
 62
     7
370
     0
100
AcDbLine
 10
182.7203084913
 20
132.1136820262
 30
0.0
 11
182.7203084913
 21
126.9735295384
 31
0.0
  0
SPLINE
  5
14D
330
1F
100
AcDbEntity
  8
0
  6
HIDDEN
 62
     7
370
     0
100
AcDbSpline
210
0.0
220
0.0
230
1.0
 70
     8
 71
     3
 72
    18
 73
    14
 74
     0
 42
0.000000001
 43
0.00000001
 40
0.0
 40
0.0
 40
0.0
 40
0.0
 40
0.2499999999999999
 40
0.2499999999999999
 40
0.3749999999999998
 40
0.3749999999999998
 40
0.4999999999999998
 40
0.4999999999999998
 40
0.6249999999999998
 40
0.6249999999999998
 40
0.7499999999999997
 40
0.7499999999999997
 40
1.0
 40
1.0
 40
1.0
 40
1.0
 10
183.5989881477539
 20
131.8904931096529
 30
0.0
 10
183.4637025414515
 20
131.8191403679634
 30
0.0
 10
183.3625347952086
 20
131.673736961374
 30
0.0
 10
183.2596734523397
 20
131.3442697257683
 30
0.0
 10
183.2335706068164
 20
131.2153361489636
 30
0.0
 10
183.1986806232715
 20
130.9197941496275
 30
0.0
 10
183.1900943649815
 20
130.7553993761055
 30
0.0
 10
183.1899946554159
 20
130.3944377613649
 30
0.0
 10
183.1984830265644
 20
130.1978679692027
 30
0.0
 10
183.232626406085
 20
129.7725131730777
 30
0.0
 10
183.2584233879388
 20
129.5427435232781
 30
0.0
 10
183.3618245193268
 20
128.8101548288457
 30
0.0
 10
183.4636825114982
 20
128.2729180539282
 30
0.0
 10
183.5989881477539
 20
127.6886299651805
 30
0.0
  0
LINE
  5
14E
330
1F
100
AcDbEntity
  8
0
  6
HIDDEN
 62
     7
370
     0
100
AcDbLine
 10
156.4203084913
 20
131.4529344836
 30
0.0
 11
156.4203084913
 21
126.6431557671
 31
0.0
  0
LINE
  5
14F
330
1F
100
AcDbEntity
  8
0
  6
HIDDEN
 62
     7
370
     0
100
AcDbLine
 10
154.9203084913
 20
130.5869090798
 30
0.0
 11
154.9203084913
 21
126.2101430652
 31
0.0
  0
LINE
  5
150
330
1F
100
AcDbEntity
  8
0
  6
HIDDEN
 62
     7
370
     0
100
AcDbLine
 10
182.7203084913
 20
102.2136369449
 30
0.0
 11
182.7203084913
 21
97.0734844571
 31
0.0
  0
SPLINE
  5
151
330
1F
100
AcDbEntity
  8
0
  6
HIDDEN
 62
     7
370
     0
100
AcDbSpline
210
0.0
220
0.0
230
1.0
 70
     8
 71
     3
 72
    18
 73
    14
 74
     0
 42
0.000000001
 43
0.00000001
 40
0.0
 40
0.0
 40
0.0
 40
0.0
 40
0.2500000000000005
 40
0.2500000000000005
 40
0.3750000000000005
 40
0.3750000000000005
 40
0.5000000000000006
 40
0.5000000000000006
 40
0.6250000000000006
 40
0.6250000000000006
 40
0.7500000000000006
 40
0.7500000000000006
 40
1.0
 40
1.0
 40
1.0
 40
1.0
 10
183.5989881477539
 20
101.4985365181157
 30
0.0
 10
183.4637025414515
 20
100.9143349243841
 30
0.0
 10
183.3625347952086
 20
100.3801172371759
 30
0.0
 10
183.2596734523397
 20
99.65422046628746
 30
0.0
 10
183.2335706068164
 20
99.42433997850753
 30
0.0
 10
183.1986806232715
 20
98.99376903372072
 30
0.0
 10
183.1900943649815
 20
98.79607412822655
 30
0.0
 10
183.1899946554159
 20
98.43472608554875
 30
0.0
 10
183.1984830265644
 20
98.27107607560262
 30
0.0
 10
183.232626406085
 20
97.97786480263365
 30
0.0
 10
183.2584233879388
 20
97.84786873651782
 30
0.0
 10
183.3618245193268
 20
97.51381284395589
 30
0.0
 10
183.4636825114982
 20
97.36803667959111
 30
0.0
 10
183.5989881477539
 20
97.29667337364329
 30
0.0
  0
LINE
  5
152
330
1F
100
AcDbEntity
  8
0
  6
HIDDEN
 62
     7
370
     0
100
AcDbLine
 10
156.4203084913
 20
102.5440107162
 30
0.0
 11
156.4203084913
 21
97.7342319997
 31
0.0
  0
LINE
  5
153
330
1F
100
AcDbEntity
  8
0
  6
HIDDEN
 62
     7
370
     0
100
AcDbLine
 10
154.9203084913
 20
102.9770234181
 30
0.0
 11
154.9203084913
 21
98.6002574035
 31
0.0
  0
SPLINE
  5
154
330
1F
100
AcDbEntity
  8
0
  6
HIDDEN
 62
     7
370
     0
100
AcDbSpline
210
0.0
220
0.0
230
1.0
 70
     8
 71
     3
 72
    29
 73
    25
 74
     0
 42
0.000000001
 43
0.00000001
 40
0.0
 40
0.0
 40
0.0
 40
0.0
 40
0.0209104556513029
 40
0.0418007501635892
 40
0.0626773707539135
 40
0.0835468173908505
 40
0.1044155967463593
 40
0.1252902161163777
 40
0.1461771773385066
 40
0.1670829707351614
 40
0.1880140691103021
 40
0.2089769218272716
 40
0.229977948994394
 40
0.2510235357838467
 40
0.3765867188468734
 40
0.5015777308114647
 40
0.626316791866282
 40
0.7513055277853711
 40
0.7930444716602865
 40
0.8345967117005069
 40
0.8760149921430512
 40
0.9173525700010343
 40
0.958663014411653
 40
1.0
 40
1.0
 40
1.0
 40
1.0
 10
240.174608456424
 20
134.2989017087455
 30
0.0
 10
240.1996454056566
 20
134.4505123339915
 30
0.0
 10
240.2496951643601
 20
134.7535874067559
 30
0.0
 10
240.3254097558562
 20
135.2014179981641
 30
0.0
 10
240.4015353259369
 20
135.6439305797906
 30
0.0
 10
240.4781213593784
 20
136.0806619787705
 30
0.0
 10
240.5551545805901
 20
136.5117360342092
 30
0.0
 10
240.6326385146059
 20
136.9371194098583
 30
0.0
 10
240.7105721964242
 20
137.3568209160722
 30
0.0
 10
240.7889558228134
 20
137.7708379519983
 30
0.0
 10
240.8677894329273
 20
138.1791714571486
 30
0.0
 10
240.9470725320681
 20
138.581819675404
 30
0.0
 10
241.0268069245433
 20
138.9787881610017
 30
0.0
 10
241.239637022256
 20
140.017386239873
 30
0.0
 10
241.5886365114737
 20
141.6023076152953
 30
0.0
 10
242.0746899319184
 20
143.5249451776613
 30
0.0
 10
242.558476994672
 20
145.1582490273087
 30
0.0
 10
242.9293500074527
 20
146.1886003417082
 30
0.0
 10
243.1896357544784
 20
146.8070396944487
 30
0.0
 10
243.3439261581441
 20
147.1412764011334
 30
0.0
 10
243.4959538768435
 20
147.4379683251527
 30
0.0
 10
243.6456616344506
 20
147.6962044675489
 30
0.0
 10
243.7932789112101
 20
147.9194328372471
 30
0.0
 10
243.8896470647187
 20
148.0362267144095
 30
0.0
 10
243.9378466151803
 20
148.0946424064294
 30
0.0
  0
CIRCLE
  5
155
330
1F
100
AcDbEntity
  8
0
  6
HIDDEN
 62
     7
370
     0
100
AcDbCircle
 10
237.895172289
 20
142.5684470393
 30
0.0
 40
2.599999999999994
  0
LINE
  5
156
330
1F
100
AcDbEntity
  8
0
  6
HIDDEN
 62
     7
370
     0
100
AcDbLine
 10
243.9378608687
 20
148.0946566131
 30
0.0
 11
243.4432977209
 21
148.5908256903
 31
0.0
  0
LINE
  5
157
330
1F
100
AcDbEntity
  8
0
  6
HIDDEN
 62
     7
370
     0
100
AcDbLine
 10
231.5471154608
 20
138.852104946
 30
0.0
 11
232.3139028215
 21
147.6165245844
 31
0.0
  0
LINE
  5
158
330
1F
100
AcDbEntity
  8
0
  6
HIDDEN
 62
     7
370
     0
100
AcDbLine
 10
242.9662574317
 20
136.9891904758
 30
0.0
 11
234.1788301956
 21
136.2203902111
 31
0.0
  0
ARC
  5
159
330
1F
100
AcDbEntity
  8
0
  6
HIDDEN
 62
     7
370
     0
100
AcDbCircle
 10
232.1748453773
 20
136.8481201277
 30
0.0
 40
2.099999999999998
100
AcDbArc
 50
342.6073121946
 51
107.3926878054
  0
LINE
  5
15A
330
1F
100
AcDbEntity
  8
0
  6
HIDDEN
 62
     7
370
     0
100
AcDbLine
 10
243.937858488
 20
148.0946413677
 30
0.0
 11
242.9662574317
 21
136.9891904758
 31
0.0
  0
CIRCLE
  5
15B
330
1F
100
AcDbEntity
  8
0
  6
HIDDEN
 62
     7
370
     0
100
AcDbCircle
 10
237.895172289
 20
142.5684470393
 30
0.0
 40
2.099999999999994
  0
CIRCLE
  5
15C
330
1F
100
AcDbEntity
  8
0
  6
HIDDEN
 62
     7
370
     0
100
AcDbCircle
 10
232.1748453773
 20
136.8481201277
 30
0.0
 40
2.100000000000023
  0
LINE
  5
15D
330
1F
100
AcDbEntity
  8
0
  6
HIDDEN
 62
     7
370
     0
100
AcDbLine
 10
154.9203084913
 20
126.2101430652
 30
0.0
 11
154.9203084913
 21
116.9327541699
 31
0.0
  0
LINE
  5
15E
330
1F
100
AcDbEntity
  8
0
  6
HIDDEN
 62
     7
370
     0
100
AcDbLine
 10
154.9203084913
 20
112.2544123134
 30
0.0
 11
154.9203084913
 21
102.9770234181
 31
0.0
  0
LINE
  5
15F
330
1F
100
AcDbEntity
  8
0
  6
HIDDEN
 62
     7
370
     0
100
AcDbLine
 10
156.4203084913
 20
111.4451061233
 30
0.0
 11
156.4203084913
 21
102.5440107162
 31
0.0
  0
LINE
  5
160
330
1F
100
AcDbEntity
  8
0
  6
HIDDEN
 62
     7
370
     0
100
AcDbLine
 10
156.4203084913
 20
126.6431557671
 30
0.0
 11
156.4203084913
 21
117.74206036
 31
0.0
  0
LINE
  5
161
330
1F
100
AcDbEntity
  8
0
  6
HIDDEN
 62
     7
370
     0
100
AcDbLine
 10
182.7203084913
 20
126.9735295384
 30
0.0
 11
182.7203084913
 21
102.2136369449
 31
0.0
  0
LINE
  5
162
330
1F
100
AcDbEntity
  8
0
  6
HIDDEN
 62
     7
370
     0
100
AcDbLine
 10
184.7203084913
 20
126.1558574747
 30
0.0
 11
184.7203084913
 21
103.0313090086
 31
0.0
  0
LWPOLYLINE
  5
163
330
1F
100
AcDbEntity
  8
0
  6
HIDDEN
 62
     7
370
     0
100
AcDbPolyline
 90
       32
 70
   128
 43
0.0
 10
204.9203084913
 20
102.0409982615
 10
205.5242040516
 20
102.091909605
 10
206.1033760567
 20
102.2425593189
 10
206.6341131366
 20
102.4867797864
 10
207.094686853
 20
102.8145725927
 10
207.4662412638
 20
103.2125178619
 10
207.7335648878
 20
103.6643236679
 10
207.8857134643
 20
104.1514930279
 10
207.9164580128
 20
104.6540811711
 10
207.8245398479
 20
105.1515120799
 10
207.61372211
 20
105.6234208743
 10
207.2926357021
 20
106.0504875529
 10
206.8744259395
 20
106.4152279558
 10
206.3762143789
 20
106.7027095678
 10
205.8183978602
 20
106.9011628582
 10
205.2238134573
 20
107.0024631258
 10
204.6168035254
 20
107.0024631258
 10
204.0222191224
 20
106.9011628582
 10
203.4644026037
 20
106.7027095678
 10
202.9661910431
 20
106.4152279558
 10
202.5479812805
 20
106.0504875529
 10
202.2268948726
 20
105.6234208743
 10
202.0160771347
 20
105.1515120799
 10
201.9241589698
 20
104.6540811711
 10
201.9549035183
 20
104.1514930279
 10
202.1070520949
 20
103.6643236679
 10
202.3743757188
 20
103.2125178619
 10
202.7459301296
 20
102.8145725927
 10
203.206503846
 20
102.4867797864
 10
203.737240926
 20
102.2425593189
 10
204.316412931
 20
102.091909605
 10
204.9203084913
 20
102.0409982615
  0
SPLINE
  5
164
330
1F
100
AcDbEntity
  8
0
  6
HIDDEN
 62
     7
370
     0
100
AcDbSpline
210
0.0
220
0.0
230
1.0
 70
     8
 71
     3
 72
     8
 73
     4
 74
     0
 42
0.000000001
 43
0.00000001
 40
0.0000202085968836
 40
0.0000202085968836
 40
0.0000202085968836
 40
0.0000202085968836
 40
0.0040218806502652
 40
0.0040218806502652
 40
0.0040218806502652
 40
0.0040218806502652
 10
156.4203084913135
 20
111.4451061233114
 30
0.0
 10
157.7536316171042
 20
111.4211078921478
 30
0.0
 10
159.0869654903267
 20
111.3977801519794
 30
0.0
 10
160.4203084913135
 20
111.375085481199
 30
0.0
  0
SPLINE
  5
165
330
1F
100
AcDbEntity
  8
0
  6
HIDDEN
 62
     7
370
     0
100
AcDbSpline
210
0.0
220
0.0
230
1.0
 70
     8
 71
     3
 72
     8
 73
     4
 74
     0
 42
0.000000001
 43
0.00000001
 40
0.0000202082942178
 40
0.0000202082942178
 40
0.0000202082942178
 40
0.0000202082942178
 40
0.0040218803475994
 40
0.0040218803475994
 40
0.0040218803475994
 40
0.0040218803475994
 10
160.4203084913135
 20
117.8120810020972
 30
0.0
 10
159.0869654903267
 20
117.7893863313168
 30
0.0
 10
157.7536316171042
 20
117.7660585911485
 30
0.0
 10
156.4203084913135
 20
117.7420603599848
 30
0.0
  0
SPLINE
  5
166
330
1F
100
AcDbEntity
  8
0
  6
HIDDEN
 62
     7
370
     0
100
AcDbSpline
210
0.0
220
0.0
230
1.0
 70
     8
 71
     3
 72
     8
 73
     4
 74
     0
 42
0.000000001
 43
0.00000001
 40
0.0
 40
0.0
 40
0.0
 40
0.0
 40
1.0
 40
1.0
 40
1.0
 40
1.0
 10
154.9203084913135
 20
112.2544123134131
 30
0.0
 10
155.3945199017512
 20
111.9196830861183
 30
0.0
 10
155.8992562488528
 20
111.6606246722856
 30
0.0
 10
156.4203084913135
 20
111.4451061233114
 30
0.0
  0
SPLINE
  5
167
330
1F
100
AcDbEntity
  8
0
  6
HIDDEN
 62
     7
370
     0
100
AcDbSpline
210
0.0
220
0.0
230
1.0
 70
     8
 71
     3
 72
     8
 73
     4
 74
     0
 42
0.000000001
 43
0.00000001
 40
0.0
 40
0.0
 40
0.0
 40
0.0
 40
1.0
 40
1.0
 40
1.0
 40
1.0
 10
156.4203084913135
 20
117.7420603599848
 30
0.0
 10
155.8992562488528
 20
117.5265418110107
 30
0.0
 10
155.3945199017512
 20
117.2674833971779
 30
0.0
 10
154.9203084913135
 20
116.9327541698832
 30
0.0
  0
LINE
  5
168
330
1F
100
AcDbEntity
  8
0
  6
HIDDEN
 62
     7
370
     0
100
AcDbLine
 10
154.9203084913
 20
112.2544123134
 30
0.0
 11
154.9203084913
 21
116.9327541699
 31
0.0
  0
LINE
  5
169
330
1F
100
AcDbEntity
  8
0
  6
HIDDEN
 62
     7
370
     0
100
AcDbLine
 10
160.4203084913
 20
111.3750854812
 30
0.0
 11
160.4203084913
 21
117.8120810021
 31
0.0
  0
SPLINE
  5
16A
330
1F
100
AcDbEntity
  8
0
  6
HIDDEN
 62
     7
370
     0
100
AcDbSpline
210
0.0
220
0.0
230
1.0
 70
     8
 71
     3
 72
    26
 73
    22
 74
     0
 42
0.000000001
 43
0.00000001
 40
0.0
 40
0.0
 40
0.0
 40
0.0
 40
0.1249999999999998
 40
0.1249999999999998
 40
0.2499999999999996
 40
0.2499999999999996
 40
0.3749999999999993
 40
0.3749999999999993
 40
0.4374999999999992
 40
0.4374999999999992
 40
0.4999999999999991
 40
0.4999999999999991
 40
0.562499999999999
 40
0.562499999999999
 40
0.6249999999999989
 40
0.6249999999999989
 40
0.7499999999999992
 40
0.7499999999999992
 40
0.8749999999999996
 40
0.8749999999999996
 40
1.0
 40
1.0
 40
1.0
 40
1.0
 10
160.4203084913135
 20
111.375085481199
 30
0.0
 10
160.6309518533134
 20
111.6097025121441
 30
0.0
 10
160.8381482910705
 20
111.8475856481035
 30
0.0
 10
161.2396474257028
 20
112.3348999543724
 30
0.0
 10
161.4349238447488
 20
112.5850251791614
 30
0.0
 10
161.7947043374442
 20
113.1036153246124
 30
0.0
 10
161.9599631975936
 20
113.3710463084992
 30
0.0
 10
162.1526211070198
 20
113.8024614408977
 30
0.0
 10
162.2075858472298
 20
113.9524803228221
 30
0.0
 10
162.285321632194
 20
114.2652175015521
 30
0.0
 10
162.3065877705023
 20
114.4229717483594
 30
0.0
 10
162.3084816997881
 20
114.7416770282052
 30
0.0
 10
162.288255962721
 20
114.9041138283857
 30
0.0
 10
162.2137915524352
 20
115.2150658279683
 30
0.0
 10
162.1601524266892
 20
115.365737066296
 30
0.0
 10
161.9654081212886
 20
115.8078208242646
 30
0.0
 10
161.7983580081103
 20
116.0778648374323
 30
0.0
 10
161.4381018894067
 20
116.5979724657137
 30
0.0
 10
161.2433495143863
 20
116.8476336785234
 30
0.0
 10
160.840340289914
 20
117.3370577903662
 30
0.0
 10
160.6319037715505
 20
117.5764037135301
 30
0.0
 10
160.4203084913144
 20
117.812081002098
 30
0.0
  0
SPLINE
  5
16B
330
1F
100
AcDbEntity
  8
0
  6
HIDDEN
 62
     7
370
     0
100
AcDbSpline
210
0.0
220
0.0
230
1.0
 70
    11
 71
     3
 72
    68
 73
    64
 74
     0
 42
0.000000001
 43
0.00000001
 40
0.0
 40
0.0
 40
0.0
 40
0.0
 40
0.0312500000000002
 40
0.0312500000000002
 40
0.0625000000000002
 40
0.0625000000000002
 40
0.0937500000000002
 40
0.0937500000000002
 40
0.1250000000000002
 40
0.1250000000000002
 40
0.1562500000000001
 40
0.1562500000000001
 40
0.1875000000000001
 40
0.1875000000000001
 40
0.2500000000000004
 40
0.2500000000000004
 40
0.2812500000000004
 40
0.2812500000000004
 40
0.3125000000000003
 40
0.3125000000000003
 40
0.3437500000000003
 40
0.3437500000000003
 40
0.3750000000000003
 40
0.3750000000000003
 40
0.4062500000000003
 40
0.4062500000000003
 40
0.4375000000000003
 40
0.4375000000000003
 40
0.4687500000000003
 40
0.4687500000000003
 40
0.5000000000000002
 40
0.5000000000000002
 40
0.5312500000000003
 40
0.5312500000000003
 40
0.5625000000000003
 40
0.5625000000000003
 40
0.5937500000000003
 40
0.5937500000000003
 40
0.6250000000000002
 40
0.6250000000000002
 40
0.6562500000000002
 40
0.6562500000000002
 40
0.6875000000000002
 40
0.6875000000000002
 40
0.7187500000000002
 40
0.7187500000000002
 40
0.7500000000000002
 40
0.7500000000000002
 40
0.7812500000000002
 40
0.7812500000000002
 40
0.8125000000000002
 40
0.8125000000000002
 40
0.8437500000000002
 40
0.8437500000000002
 40
0.8750000000000001
 40
0.8750000000000001
 40
0.9062500000000001
 40
0.9062500000000001
 40
0.9375000000000001
 40
0.9375000000000001
 40
0.9687500000000001
 40
0.9687500000000001
 40
1.0
 40
1.0
 40
1.0
 40
1.0
 10
168.8075129158936
 20
116.9870915510133
 30
0.0
 10
168.97495667573
 20
117.1227121693868
 30
0.0
 10
169.1532228976657
 20
117.2403534622585
 30
0.0
 10
169.530247594559
 20
117.4416849862683
 30
0.0
 10
169.7304363159354
 20
117.5254931894819
 30
0.0
 10
170.1371043555663
 20
117.6535852130503
 30
0.0
 10
170.3450195215864
 20
117.6988900100104
 30
0.0
 10
170.7700078208098
 20
117.752047721316
 30
0.0
 10
170.9860444717938
 20
117.7593299053515
 30
0.0
 10
171.4105554406453
 20
117.7357824678142
 30
0.0
 10
171.6210824140351
 20
117.7052782653373
 30
0.0
 10
172.0385676248221
 20
117.60541865187
 30
0.0
 10
172.2414311584005
 20
117.5368227641093
 30
0.0
 10
172.8227476774154
 20
117.2794813208903
 30
0.0
 10
173.1831549301911
 20
117.0329314295804
 30
0.0
 10
173.6278939269527
 20
116.5796928735055
 30
0.0
 10
173.7630831470953
 20
116.4121122940291
 30
0.0
 10
173.9960230216976
 20
116.0532502191177
 30
0.0
 10
174.0927063673523
 20
115.8644916987636
 30
0.0
 10
174.2459376320017
 20
115.4679780225553
 30
0.0
 10
174.3025545893698
 20
115.2576336134684
 30
0.0
 10
174.3680067912047
 20
114.8362450851856
 30
0.0
 10
174.3779651498319
 20
114.6237289660219
 30
0.0
 10
174.3511311406648
 20
114.1949541909216
 30
0.0
 10
174.3141114768919
 20
113.9823879627747
 30
0.0
 10
174.1969481978551
 20
113.5730933186967
 30
0.0
 10
174.1154093203603
 20
113.3722446469891
 30
0.0
 10
173.9141701089563
 20
112.995117888478
 30
0.0
 10
173.7952383737855
 20
112.8188975669484
 30
0.0
 10
173.5220645606932
 20
112.4901414459663
 30
0.0
 10
173.368203785983
 20
112.3388432780667
 30
0.0
 10
173.038281187967
 20
112.0712561245874
 30
0.0
 10
172.8599593628955
 20
111.9527849638766
 30
0.0
 10
172.4819353629731
 20
111.7498981599418
 30
0.0
 10
172.2860063641919
 20
111.6672792054938
 30
0.0
 10
171.8809210763576
 20
111.537839028963
 30
0.0
 10
171.6695862784876
 20
111.4908637985325
 30
0.0
 10
171.2457014888352
 20
111.4361488436143
 30
0.0
 10
171.0332662155729
 20
111.4279190951712
 30
0.0
 10
170.6074141482779
 20
111.4494105929719
 30
0.0
 10
170.3922699848683
 20
111.4798082151904
 30
0.0
 10
169.977140445128
 20
111.5775506720785
 30
0.0
 10
169.7755154793842
 20
111.6446691858274
 30
0.0
 10
169.3844289801132
 20
111.8163122859877
 30
0.0
 10
169.1946093712222
 20
111.9216583447723
 30
0.0
 10
168.8440187510505
 20
112.1623612864669
 30
0.0
 10
168.681012271404
 20
112.2984841627996
 30
0.0
 10
168.3809499487154
 20
112.6041376320337
 30
0.0
 10
168.2456810515111
 20
112.7725893115225
 30
0.0
 10
168.0147370986783
 20
113.1288699978059
 30
0.0
 10
167.917254879206
 20
113.3186236772127
 30
0.0
 10
167.7622723198014
 20
113.7212320394969
 30
0.0
 10
167.7074057989843
 20
113.9270717831699
 30
0.0
 10
167.6419979283201
 20
114.3476514194923
 30
0.0
 10
167.6318516824871
 20
114.56515323679
 30
0.0
 10
167.6585200450266
 20
114.9918933757506
 30
0.0
 10
167.6945574368532
 20
115.2017960848379
 30
0.0
 10
167.8119685824211
 20
115.6146849054963
 30
0.0
 10
167.8930961170393
 20
115.8150078502802
 30
0.0
 10
168.0928531612286
 20
116.1912463687453
 30
0.0
 10
168.2133556603547
 20
116.3707011139931
 30
0.0
 10
168.4874361057207
 20
116.7010490420828
 30
0.0
 10
168.6400691560572
 20
116.8514709326399
 30
0.0
 10
168.8075129158936
 20
116.9870915510133
 30
0.0
  0
CIRCLE
  5
16C
330
1F
100
AcDbEntity
  8
0
  6
HIDDEN
 62
     7
370
     0
100
AcDbCircle
 10
170.9203084913
 20
114.5935832416
 30
0.0
 40
3.050000000000011
  0
ARC
  5
16D
330
1F
100
AcDbEntity
  8
0
  6
HIDDEN
 62
     7
370
     0
100
AcDbCircle
 10
237.895172289
 20
142.5684470393
 30
0.0
 40
2.100000000000065
100
AcDbArc
 50
155.6073672349
 51
34.3926327651
  0
CIRCLE
  5
16E
330
1F
100
AcDbEntity
  8
0
  6
HIDDEN
 62
     7
370
     0
100
AcDbCircle
 10
196.9203084913
 20
114.5935832416
 30
0.0
 40
2.0
  0
LINE
  5
16F
330
1F
100
AcDbEntity
  8
0
  6
HIDDEN
 62
     7
370
     0
100
AcDbLine
 10
239.7821019819
 20
135.1073854233
 30
0.0
 11
240.174892254
 21
134.2983036746
 31
0.0
  0
LINE
  5
170
330
1F
100
AcDbEntity
  8
0
  6
HIDDEN
 62
     7
370
     0
100
AcDbLine
 10
238.7724617052
 20
118.2722910143
 30
0.0
 11
236.1966027919
 21
114.5935832416
 31
0.0
  0
LINE
  5
171
330
1F
100
AcDbEntity
  8
0
  6
HIDDEN
 62
     7
370
     0
100
AcDbLine
 10
240.1746084557
 20
134.2989017088
 30
0.0
 11
238.7724617052
 21
118.2722910143
 31
0.0
  0
SPLINE
  5
172
330
1F
100
AcDbEntity
  8
0
  6
HIDDEN
 62
     7
370
     0
100
AcDbSpline
210
0.0
220
0.0
230
1.0
 70
     8
 71
     3
 72
     8
 73
     4
 74
     0
 42
0.000000001
 43
0.00000001
 40
0.0
 40
0.0
 40
0.0
 40
0.0
 40
1.0
 40
1.0
 40
1.0
 40
1.0
 10
219.703618307866
 20
133.3503028116214
 30
0.0
 10
218.9034939355173
 20
128.3107035185398
 30
0.0
 10
218.3066888788945
 20
123.2405761175703
 30
0.0
 10
218.1189073296236
 20
118.109034415079
 30
0.0
  0
SPLINE
  5
173
330
1F
100
AcDbEntity
  8
0
  6
HIDDEN
 62
     7
370
     0
100
AcDbSpline
210
0.0
220
0.0
230
1.0
 70
     8
 71
     3
 72
    10
 73
     6
 74
     0
 42
0.000000001
 43
0.00000001
 40
0.0
 40
0.0
 40
0.0
 40
0.0
 40
0.5
 40
0.5
 40
1.0
 40
1.0
 40
1.0
 40
1.0
 10
218.1189073296236
 20
118.109034415079
 30
0.0
 10
218.0974681361311
 20
117.5231615436398
 30
0.0
 10
218.0709465442044
 20
116.9373265132513
 30
0.0
 10
218.0315189256998
 20
115.7655550776401
 30
0.0
 10
218.019006907119
 20
115.1796157388267
 30
0.0
 10
218.019006907119
 20
114.5935832416481
 30
0.0
  0
LINE
  5
174
330
1F
100
AcDbEntity
  8
0
  6
HIDDEN
 62
     7
370
     0
100
AcDbLine
 10
184.9203084913
 20
95.0435832416
 30
0.0
 11
185.0132017101
 21
95.1364764605
 31
0.0
  0
LINE
  5
175
330
1F
100
AcDbEntity
  8
0
  6
HIDDEN
 62
     7
370
     0
100
AcDbLine
 10
185.0132017101
 20
134.0506900228
 30
0.0
 11
184.9203084913
 21
134.1435832416
 31
0.0
  0
ARC
  5
176
330
1F
100
AcDbEntity
  8
0
  6
HIDDEN
 62
     7
370
     0
100
AcDbCircle
 10
184.3060949289
 20
95.8435832416
 30
0.0
 40
1.000000000000008
100
AcDbArc
 50
315.0
 51
0.0
  0
ARC
  5
177
330
1F
100
AcDbEntity
  8
0
  6
HIDDEN
 62
     7
370
     0
100
AcDbCircle
 10
184.3060949289
 20
95.8435832416
 30
0.0
 40
1.00000000000001
100
AcDbArc
 50
0.0
 51
52.1052014664
  0
ARC
  5
178
330
1F
100
AcDbEntity
  8
0
  6
HIDDEN
 62
     7
370
     0
100
AcDbCircle
 10
184.3060949289
 20
133.3435832416
 30
0.0
 40
1.000000000000008
100
AcDbArc
 50
351.8087250651
 51
45.0
  0
ARC
  5
179
330
1F
100
AcDbEntity
  8
0
  6
HIDDEN
 62
     7
370
     0
100
AcDbCircle
 10
184.3060949289
 20
133.3435832416
 30
0.0
 40
1.000000000000021
100
AcDbArc
 50
307.8947985336
 51
351.8087250651
  0
LINE
  5
17A
330
1F
100
AcDbEntity
  8
0
  6
HIDDEN
 62
     7
370
     0
100
AcDbLine
 10
185.3060949289
 20
95.8435832416
 30
0.0
 11
185.3060949289
 21
133.3435832416
 31
0.0
  0
LINE
  5
17B
330
1F
100
AcDbEntity
  8
0
  6
HIDDEN
 62
     7
370
     0
100
AcDbLine
 10
185.3060949289
 20
95.8435832416
 30
0.0
 11
185.3060949289
 21
133.3435832416
 31
0.0
  0
LINE
  5
17C
330
1F
100
AcDbEntity
  8
0
  6
HIDDEN
 62
     7
370
     0
100
AcDbLine
 10
202.4203084913
 20
125.7774413111
 30
0.0
 11
202.4203084913
 21
118.6430309956
 31
0.0
  0
LINE
  5
17D
330
1F
100
AcDbEntity
  8
0
  6
HIDDEN
 62
     7
370
     0
100
AcDbLine
 10
207.4203084913
 20
125.5717449102
 30
0.0
 11
207.4203084913
 21
125.7774413111
 31
0.0
  0
LINE
  5
17E
330
1F
100
AcDbEntity
  8
0
  6
HIDDEN
 62
     7
370
     0
100
AcDbLine
 10
207.4203084913
 20
118.6425899471
 30
0.0
 11
207.4203084913
 21
123.3379373709
 31
0.0
  0
LINE
  5
17F
330
1F
100
AcDbEntity
  8
0
  6
HIDDEN
 62
     7
370
     0
100
AcDbLine
 10
211.739784933
 20
131.6699588208
 30
0.0
 11
204.5416496862
 21
127.140861271
 31
0.0
  0
LINE
  5
180
330
1F
100
AcDbEntity
  8
0
  6
HIDDEN
 62
     7
370
     0
100
AcDbLine
 10
207.1864280703
 20
122.8975607266
 30
0.0
 11
211.4526452062
 21
125.5818828343
 31
0.0
  0
LINE
  5
181
330
1F
100
AcDbEntity
  8
0
  6
HIDDEN
 62
     7
370
     0
100
AcDbLine
 10
203.1559894577
 20
125.852979565
 30
0.0
 11
203.1601571902
 21
125.8127521224
 31
0.0
  0
ARC
  5
182
330
1F
100
AcDbEntity
  8
0
  6
HIDDEN
 62
     7
370
     0
100
AcDbCircle
 10
161.4203084913
 20
104.0935832416
 30
0.0
 40
1.500000000000012
100
AcDbArc
 50
191.0958032831
 51
270.0
  0
ARC
  5
183
330
1F
100
AcDbEntity
  8
0
  6
HIDDEN
 62
     7
370
     0
100
AcDbCircle
 10
161.4203084913
 20
125.0935832416
 30
0.0
 40
1.500000000000012
100
AcDbArc
 50
90.0
 51
168.9041967169
  0
LINE
  5
184
330
1F
100
AcDbEntity
  8
0
  6
HIDDEN
 62
     7
370
     0
100
AcDbLine
 10
161.4203084913
 20
102.5935832416
 30
0.0
 11
162.4270280034
 21
102.5935832416
 31
0.0
  0
LINE
  5
185
330
1F
100
AcDbEntity
  8
0
  6
HIDDEN
 62
     7
370
     0
100
AcDbLine
 10
162.4270280034
 20
126.5935832416
 30
0.0
 11
161.4203084913
 21
126.5935832416
 31
0.0
  0
ARC
  5
186
330
1F
100
AcDbEntity
  8
0
  6
HIDDEN
 62
     7
370
     0
100
AcDbCircle
 10
162.4270280034
 20
104.0935832416
 30
0.0
 40
1.500000000000002
100
AcDbArc
 50
270.0
 51
315.0
  0
ARC
  5
187
330
1F
100
AcDbEntity
  8
0
  6
HIDDEN
 62
     7
370
     0
100
AcDbCircle
 10
162.4270280034
 20
125.0935832416
 30
0.0
 40
1.500000000000012
100
AcDbArc
 50
45.0
 51
90.0
  0
LINE
  5
188
330
1F
100
AcDbEntity
  8
0
  6
HIDDEN
 62
     7
370
     0
100
AcDbLine
 10
154.9203084913
 20
102.8301711732
 30
0.0
 11
155.9483483469
 21
103.4237102606
 31
0.0
  0
LINE
  5
189
330
1F
100
AcDbEntity
  8
0
  6
HIDDEN
 62
     7
370
     0
100
AcDbLine
 10
155.9483483469
 20
125.7634562227
 30
0.0
 11
154.9203084913
 21
126.3569953101
 31
0.0
  0
LINE
  5
18A
330
1F
100
AcDbEntity
  8
0
  6
HIDDEN
 62
     7
370
     0
100
AcDbLine
 10
163.4876881751
 20
103.0329230699
 30
0.0
 11
164.5483483469
 21
104.0935832416
 31
0.0
  0
LINE
  5
18B
330
1F
100
AcDbEntity
  8
0
  6
HIDDEN
 62
     7
370
     0
100
AcDbLine
 10
164.5483483469
 20
125.0935832416
 30
0.0
 11
163.4876881751
 21
126.1542434134
 31
0.0
  0
LINE
  5
18C
330
1F
100
AcDbEntity
  8
0
  6
HIDDEN
 62
     7
370
     0
100
AcDbLine
 10
155.9483483469
 20
103.4237102606
 30
0.0
 11
158.4483483469
 21
104.0935832416
 31
0.0
  0
LINE
  5
18D
330
1F
100
AcDbEntity
  8
0
  6
HIDDEN
 62
     7
370
     0
100
AcDbLine
 10
158.4483483469
 20
125.0935832416
 30
0.0
 11
155.9483483469
 21
125.7634562227
 31
0.0
  0
LINE
  5
18E
330
1F
100
AcDbEntity
  8
0
  6
HIDDEN
 62
     7
370
     0
100
AcDbLine
 10
159.9483483469
 20
125.3822583762
 30
0.0
 11
159.4483483469
 21
125.0935832416
 31
0.0
  0
LINE
  5
18F
330
1F
100
AcDbEntity
  8
0
  6
HIDDEN
 62
     7
370
     0
100
AcDbLine
 10
159.4483483469
 20
104.0935832416
 30
0.0
 11
159.9483483469
 21
103.8049081071
 31
0.0
  0
LINE
  5
190
330
1F
100
AcDbEntity
  8
0
  6
HIDDEN
 62
     7
370
     0
100
AcDbLine
 10
164.5483483469
 20
104.0935832416
 30
0.0
 11
174.4203084913
 21
104.0935832416
 31
0.0
  0
LINE
  5
191
330
1F
100
AcDbEntity
  8
0
  6
HIDDEN
 62
     7
370
     0
100
AcDbLine
 10
174.4203084913
 20
125.0935832416
 30
0.0
 11
164.5483483469
 21
125.0935832416
 31
0.0
  0
LINE
  5
192
330
1F
100
AcDbEntity
  8
0
  6
HIDDEN
 62
     7
370
     0
100
AcDbLine
 10
158.4483483469
 20
104.0935832416
 30
0.0
 11
159.4483483469
 21
104.0935832416
 31
0.0
  0
LINE
  5
193
330
1F
100
AcDbEntity
  8
0
  6
HIDDEN
 62
     7
370
     0
100
AcDbLine
 10
159.4483483469
 20
125.0935832416
 30
0.0
 11
158.4483483469
 21
125.0935832416
 31
0.0
  0
ARC
  5
194
330
1F
100
AcDbEntity
  8
0
  6
HIDDEN
 62
     7
370
     0
100
AcDbCircle
 10
174.4203084913
 20
104.5935832416
 30
0.0
 40
0.5
100
AcDbArc
 50
270.0
 51
0.0
  0
ARC
  5
195
330
1F
100
AcDbEntity
  8
0
  6
HIDDEN
 62
     7
370
     0
100
AcDbCircle
 10
174.4203084913
 20
124.5935832416
 30
0.0
 40
0.5
100
AcDbArc
 50
0.0
 51
90.0
  0
LINE
  5
196
330
1F
100
AcDbEntity
  8
0
  6
HIDDEN
 62
     7
370
     0
100
AcDbLine
 10
174.9203084913
 20
106.3435832416
 30
0.0
 11
175.9203084913
 21
107.3435832416
 31
0.0
  0
LINE
  5
197
330
1F
100
AcDbEntity
  8
0
  6
HIDDEN
 62
     7
370
     0
100
AcDbLine
 10
175.9203084913
 20
121.8435832416
 30
0.0
 11
174.9203084913
 21
122.8435832416
 31
0.0
  0
LINE
  5
198
330
1F
100
AcDbEntity
  8
0
  6
HIDDEN
 62
     7
370
     0
100
AcDbLine
 10
208.9203084913
 20
121.8435832416
 30
0.0
 11
175.9203084913
 21
121.8435832416
 31
0.0
  0
LINE
  5
199
330
1F
100
AcDbEntity
  8
0
  6
HIDDEN
 62
     7
370
     0
100
AcDbLine
 10
175.9203084913
 20
107.3435832416
 30
0.0
 11
208.9203084913
 21
107.3435832416
 31
0.0
  0
LINE
  5
19A
330
1F
100
AcDbEntity
  8
0
  6
HIDDEN
 62
     7
370
     0
100
AcDbLine
 10
208.9203084913
 20
107.3435832416
 30
0.0
 11
213.2765479793
 21
114.5935832416
 31
0.0
  0
LINE
  5
19B
330
1F
100
AcDbEntity
  8
0
  6
HIDDEN
 62
     7
370
     0
100
AcDbLine
 10
213.2765479793
 20
114.5935832416
 30
0.0
 11
208.9203084913
 21
121.8435832416
 31
0.0
  0
LINE
  5
19C
330
1F
100
AcDbEntity
  8
0
  6
HIDDEN
 62
     7
370
     0
100
AcDbLine
 10
202.4203084913
 20
110.5445765362
 30
0.0
 11
202.4203084913
 21
104.6961094762
 31
0.0
  0
LINE
  5
19D
330
1F
100
AcDbEntity
  8
0
  6
HIDDEN
 62
     7
370
     0
100
AcDbLine
 10
207.4203084913
 20
104.6961094762
 30
0.0
 11
207.4203084913
 21
110.5441354876
 31
0.0
  0
LINE
  5
19E
330
1F
100
AcDbEntity
  8
0
  6
HIDDEN
 62
     7
370
     0
100
AcDbLine
 10
184.7203084913
 20
102.8240164617
 30
0.0
 11
184.7203084913
 21
103.0313090086
 31
0.0
  0
LINE
  5
19F
330
1F
100
AcDbEntity
  8
0
  6
HIDDEN
 62
     7
370
     0
100
AcDbLine
 10
201.9203084913
 20
104.5281109792
 30
0.0
 11
201.9203084913
 21
100.6162562129
 31
0.0
  0
LINE
  5
1A0
330
1F
100
AcDbEntity
  8
0
  6
HIDDEN
 62
     7
370
     0
100
AcDbLine
 10
207.9203084913
 20
100.6137606549
 30
0.0
 11
207.9203084913
 21
104.5281109792
 31
0.0
  0
LINE
  5
1A1
330
1F
100
AcDbEntity
  8
VERMASSUNG
  6
CENTERX2
100
AcDbLine
 10
151.5632273062
 20
114.5935832416
 30
0.0
 11
244.9203084913
 21
114.5935832416
 31
0.0
  0
LINE
  5
1A2
330
1F
100
AcDbEntity
  8
VERMASSUNG
  6
CENTERX2
100
AcDbLine
 10
244.9203084913
 20
149.5935832416
 30
0.0
 11
244.9203084913
 21
114.5935832416
 31
0.0
  0
LINE
  5
1A3
330
1F
100
AcDbEntity
  8
VERMASSUNG
  6
CENTERX2
100
AcDbLine
 10
244.9203084913
 20
149.5935832416
 30
0.0
 11
255.2649121527
 21
149.5935832416
 31
0.0
  0
DIMENSION
  5
1A4
330
1F
100
AcDbEntity
  8
VERMASSUNG
100
AcDbDimension
  2
_D
 10
244.9203084913
 20
168.2938431265
 30
0.0
 11
199.9203084913
 21
168.2938431265
 31
0.0
 70
   160
  1
<>
 71
     2
 42
-1.0
  3
SLDDIMSTYLE0
100
AcDbAlignedDimension
 13
154.9203084913
 23
130.5869090798
 33
0.0
 14
244.9203084913
 24
149.5935832416
 34
0.0
100
AcDbRotatedDimension
  0
DIMENSION
  5
1AF
330
1F
100
AcDbEntity
  8
VERMASSUNG
100
AcDbDimension
  2
_D_1
 10
262.8345630068
 20
114.5935832416
 30
0.0
 11
262.8345630068
 21
132.0935832416
 31
0.0
 70
   160
  1
<>
 71
     2
 42
-1.0
  3
SLDDIMSTYLE1
100
AcDbAlignedDimension
 13
244.9203084913
 23
149.5935832416
 33
0.0
 14
244.9203084913
 24
114.5935832416
 34
0.0
 50
90.0
100
AcDbRotatedDimension
  0
DIMENSION
  5
1BC
330
1F
100
AcDbEntity
  8
VERMASSUNG
100
AcDbDimension
  2
_D_2
 10
244.9203084913
 20
158.8752006452
 30
0.0
 11
214.9203084913
 21
158.8752006452
 31
0.0
 70
   160
  1
<>
 71
     2
 42
-1.0
  3
SLDDIMSTYLE1
100
AcDbAlignedDimension
 13
184.9203084913
 23
139.2935832416
 33
0.0
 14
244.9203084913
 24
149.5935832416
 34
0.0
100
AcDbRotatedDimension
  0
DIMENSION
  5
1C8
330
1F
100
AcDbEntity
  8
VERMASSUNG
100
AcDbDimension
  2
_D_3
 10
255.2649121527
 20
149.5935832416
 30
0.0
 11
254.2069143971
 21
139.498889568
 31
0.0
 70
   162
  1
<>
 71
     1
 42
-1.0
  3
SLDDIMSTYLE2
100
AcDb2LineAngularDimension
 13
243.8656332698
 23
137.1211259205
 33
0.0
 14
244.9187863706
 24
149.1587209445
 34
0.0
 15
244.9203084913
 25
149.5935832416
 35
0.0
 16
254.2069143971
 26
139.498889568
 36
0.0
  0
DIMENSION
  5
1D3
330
1F
100
AcDbEntity
  8
VERMASSUNG
100
AcDbDimension
  2
_D_4
 10
144.9203084913
 20
89.5935832416
 30
0.0
 11
144.9203084913
 21
114.5935832416
 31
0.0
 70
   160
  1
PSC%%c<>
 71
     2
 42
-1.0
  3
SLDDIMSTYLE0
100
AcDbAlignedDimension
 13
185.2203084913
 23
139.5935832416
 33
0.0
 14
185.2203084913
 24
89.5935832416
 34
0.0
 50
90.0
100
AcDbRotatedDimension
  0
LINE
  5
1DF
330
1F
100
AcDbEntity
  8
0
  6
Continuous
 62
     7
370
    15
100
AcDbLine
 10
85.4582015693
 20
149.1935832416
 30
0.0
 11
82.2004629981
 21
149.5935832416
 31
0.0
  0
LINE
  5
1E0
330
1F
100
AcDbEntity
  8
0
  6
Continuous
 62
     7
370
    15
100
AcDbLine
 10
82.2004629981
 20
135.7028351169
 30
0.0
 11
82.5004629981
 21
135.7396704852
 31
0.0
  0
LINE
  5
1E1
330
1F
100
AcDbEntity
  8
0
  6
Continuous
 62
     7
370
    15
100
AcDbLine
 10
82.2004629981
 20
149.1587209445
 30
0.0
 11
82.2004629981
 21
149.5935832416
 31
0.0
  0
LINE
  5
1E2
330
1F
100
AcDbEntity
  8
0
  6
Continuous
 62
     7
370
    15
100
AcDbLine
 10
85.4582015693
 20
149.1935832416
 30
0.0
 11
82.2004629981
 21
149.1587209445
 31
0.0
  0
LINE
  5
1E3
330
1F
100
AcDbEntity
  8
0
  6
Continuous
 62
     7
370
    15
100
AcDbLine
 10
86.9604629981
 20
148.9906716845
 30
0.0
 11
85.4582015693
 21
149.1935832416
 31
0.0
  0
LINE
  5
1E4
330
1F
100
AcDbEntity
  8
0
  6
Continuous
 62
     7
370
    15
100
AcDbLine
 10
86.9604629981
 20
137.3262512303
 30
0.0
 11
86.9604629981
 21
148.9906716845
 31
0.0
  0
LINE
  5
1E5
330
1F
100
AcDbEntity
  8
0
  6
Continuous
 62
     7
370
    15
100
AcDbLine
 10
86.9604629981
 20
137.3262512303
 30
0.0
 11
85.4582015693
 21
137.1559882176
 31
0.0
  0
LINE
  5
1E6
330
1F
100
AcDbEntity
  8
0
  6
Continuous
 62
     7
370
    15
100
AcDbLine
 10
85.4582015693
 20
137.1559882176
 30
0.0
 11
82.2004629981
 21
137.1211259205
 31
0.0
  0
LINE
  5
1E7
330
1F
100
AcDbEntity
  8
0
  6
Continuous
 62
     7
370
    15
100
AcDbLine
 10
82.2004629981
 20
137.1211259205
 30
0.0
 11
82.2004629981
 21
149.1587209445
 31
0.0
  0
LINE
  5
1E8
330
1F
100
AcDbEntity
  8
0
  6
Continuous
 62
     7
370
    15
100
AcDbLine
 10
85.4582015693
 20
137.1559882176
 30
0.0
 11
82.5014658759
 21
136.7943282063
 31
0.0
  0
LINE
  5
1E9
330
1F
100
AcDbEntity
  8
0
  6
Continuous
 62
     7
370
    15
100
AcDbLine
 10
82.5004629981
 20
136.7942055369
 30
0.0
 11
82.2004629981
 21
136.7575103384
 31
0.0
  0
LINE
  5
1EA
330
1F
100
AcDbEntity
  8
0
  6
Continuous
 62
     7
370
    15
100
AcDbLine
 10
82.2004629981
 20
136.7575103384
 30
0.0
 11
82.2004629981
 21
137.1211259205
 31
0.0
  0
LINE
  5
1EB
330
1F
100
AcDbEntity
  8
0
  6
Continuous
 62
     7
370
    15
100
AcDbLine
 10
82.5004629981
 20
135.7410524362
 30
0.0
 11
82.2004629981
 21
135.7043572377
 31
0.0
  0
LINE
  5
1EC
330
1F
100
AcDbEntity
  8
0
  6
Continuous
 62
     7
370
    15
100
AcDbLine
 10
82.2004629981
 20
135.7043572377
 30
0.0
 11
82.2004629981
 21
136.7575103384
 31
0.0
  0
LINE
  5
1ED
330
1F
100
AcDbEntity
  8
0
  6
Continuous
 62
     7
370
    15
100
AcDbLine
 10
82.2004629981
 20
135.7028351169
 30
0.0
 11
82.2004629981
 21
135.7043572377
 31
0.0
  0
LINE
  5
1EE
330
1F
100
AcDbEntity
  8
0
  6
Continuous
 62
     7
370
    15
100
AcDbLine
 10
107.7004629981
 20
135.1073854233
 30
0.0
 11
107.7004629981
 21
134.2983036746
 31
0.0
  0
SPLINE
  5
1EF
330
1F
100
AcDbEntity
  8
0
  6
Continuous
 62
     7
370
    15
100
AcDbSpline
210
0.0
220
0.0
230
1.0
 70
     8
 71
     3
 72
    29
 73
    25
 74
     0
 42
0.000000001
 43
0.00000001
 40
0.0
 40
0.0
 40
0.0
 40
0.0
 40
0.0209104556513029
 40
0.0418007501635892
 40
0.0626773707539135
 40
0.0835468173908505
 40
0.1044155967463593
 40
0.1252902161163777
 40
0.1461771773385066
 40
0.1670829707351614
 40
0.1880140691103021
 40
0.2089769218272716
 40
0.229977948994394
 40
0.2510235357838467
 40
0.3765867188468734
 40
0.5015777308114647
 40
0.626316791866282
 40
0.7513055277853711
 40
0.7930444716602865
 40
0.8345967117005069
 40
0.8760149921430512
 40
0.9173525700010343
 40
0.958663014411653
 40
1.0
 40
1.0
 40
1.0
 40
1.0
 10
107.700462991927
 20
134.2989017087455
 30
0.0
 10
107.6049465903221
 20
134.4505123339915
 30
0.0
 10
107.4140058807271
 20
134.7535874067559
 30
0.0
 10
107.1175885907215
 20
135.2014179981641
 30
0.0
 10
106.8140620210728
 20
135.6439305797906
 30
0.0
 10
106.5026959118331
 20
136.0806619787705
 30
0.0
 10
106.1836858768663
 20
136.5117360342092
 30
0.0
 10
105.8569796533671
 20
136.9371194098583
 30
0.0
 10
105.5225913245586
 20
137.3568209160722
 30
0.0
 10
105.1805174478354
 20
137.7708379519983
 30
0.0
 10
104.8307583724192
 20
138.1791714571486
 30
0.0
 10
104.4733168654294
 20
138.581819675404
 30
0.0
 10
104.1081822304227
 20
138.9787881610017
 30
0.0
 10
103.1186406540068
 20
140.017386239873
 30
0.0
 10
101.4121032882092
 20
141.6023076152953
 30
0.0
 10
98.83331868104487
 20
143.5249451776613
 30
0.0
 10
96.06754508317006
 20
145.1582490273087
 30
0.0
 10
93.78989150161665
 20
146.1886003417082
 30
0.0
 10
92.11708558421985
 20
146.8070396944487
 30
0.0
 10
91.10252290013729
 20
147.1412764011334
 30
0.0
 10
90.07966789782478
 20
147.4379683251527
 30
0.0
 10
89.04833862755395
 20
147.6962044675489
 30
0.0
 10
88.00912072301571
 20
147.9194328372471
 30
0.0
 10
87.31015510513537
 20
148.0362267144095
 30
0.0
 10
86.96056006420753
 20
148.0946424064294
 30
0.0
  0
SPLINE
  5
1F0
330
1F
100
AcDbEntity
  8
0
  6
Continuous
 62
     7
370
    15
100
AcDbSpline
210
0.0
220
0.0
230
1.0
 70
     8
 71
     3
 72
    43
 73
    39
 74
     0
 42
0.000000001
 43
0.00000001
 40
0.0
 40
0.0
 40
0.0
 40
0.0
 40
0.0213204426461256
 40
0.0428816081208041
 40
0.064683664140223
 40
0.0867267729134687
 40
0.1090110913770968
 40
0.1315367714175231
 40
0.1543039600819787
 40
0.1773127997787129
 40
0.2005634284670925
 40
0.224055979838184
 40
0.2477905834863814
 40
0.2717673650726095
 40
0.295986446479569
 40
0.3204479459594912
 40
0.3451519782748271
 40
0.3700986548322593
 40
0.3952880838104142
 40
0.4207203702816222
 40
0.4463956163280512
 40
0.4723139211525166
 40
0.4984753811842576
 40
0.5198521471091677
 40
0.5429513654548563
 40
0.5677731021850922
 40
0.5943174073280336
 40
0.6225843186524684
 40
0.6525738642884431
 40
0.6842860646362438
 40
0.7177209337836661
 40
0.7528784805761063
 40
0.7897587094367537
 40
0.8283616210037974
 40
0.8686872126315299
 40
0.9107354787888078
 40
0.9545064113791112
 40
1.0
 40
1.0
 40
1.0
 40
1.0
 10
86.96047607730732
 20
148.5902218533144
 30
0.0
 10
87.13948591433046
 20
148.5613680527805
 30
0.0
 10
87.49952673564005
 20
148.5033346719626
 30
0.0
 10
88.04035641709886
 20
148.4032215295827
 30
0.0
 10
88.58530404622739
 20
148.2926182758436
 30
0.0
 10
89.13397093875416
 20
148.1703276862821
 30
0.0
 10
89.6861388378583
 20
148.0363159329855
 30
0.0
 10
90.24152492997788
 20
147.8902358482825
 30
0.0
 10
90.79984837337562
 20
147.7318297646168
 30
0.0
 10
91.36081198490565
 20
147.5608203730912
 30
0.0
 10
91.92410704993371
 20
147.3769410422756
 30
0.0
 10
92.48941185258656
 20
147.1799281793383
 30
0.0
 10
93.05639193394407
 20
146.9695239445309
 30
0.0
 10
93.62469989885997
 20
146.745476165835
 30
0.0
 10
94.19397536692783
 20
146.5075390338075
 30
0.0
 10
94.76384490236818
 20
146.2554736027177
 30
0.0
 10
95.3339219852733
 20
145.9890483597087
 30
0.0
 10
95.90380694669257
 20
145.7080398015202
 30
0.0
 10
96.47308712362508
 20
145.4122329924992
 30
0.0
 10
97.04133628025642
 20
145.1014222705497
 30
0.0
 10
97.60811690779279
 20
144.7754114491963
 30
0.0
 10
98.17297173278752
 20
144.4340159862392
 30
0.0
 10
98.6994217982092
 20
144.0999255428159
 30
0.0
 10
99.19909180250819
 20
143.7686628244977
 30
0.0
 10
99.68308908136878
 20
143.434624486284
 30
0.0
 10
100.1958656812921
 20
143.0653311372283
 30
0.0
 10
100.7356375716118
 20
142.6587293631941
 30
0.0
 10
101.3004220274469
 20
142.2126897932584
 30
0.0
 10
101.8880173191029
 20
141.7250234205916
 30
0.0
 10
102.4959904778279
 20
141.193499329226
 30
0.0
 10
103.1216641791624
 20
140.6158654535758
 30
0.0
 10
103.7620988573855
 20
139.9898675425949
 30
0.0
 10
104.4140989872099
 20
139.3132859790804
 30
0.0
 10
105.0741251364677
 20
138.5839121884985
 30
0.0
 10
105.7385877619018
 20
137.7997780584631
 30
0.0
 10
106.402626069786
 20
136.958388961649
 30
0.0
 10
107.0649154245367
 20
136.0599286018367
 30
0.0
 10
107.4859053752953
 20
135.4286463926569
 30
0.0
 10
107.7004625518025
 20
135.1069139424243
 30
0.0
  0
LINE
  5
1F1
330
1F
100
AcDbEntity
  8
0
  6
Continuous
 62
     7
370
    15
100
AcDbLine
 10
82.5004629981
 20
117.1766905471
 30
0.0
 11
107.7004629981
 21
118.2722910143
 31
0.0
  0
LINE
  5
1F2
330
1F
100
AcDbEntity
  8
0
  6
Continuous
 62
     7
370
    15
100
AcDbLine
 10
82.5004629981
 20
136.7942145423
 30
0.0
 11
82.5004629981
 21
117.1766905471
 31
0.0
  0
LINE
  5
1F3
330
1F
100
AcDbEntity
  8
0
  6
Continuous
 62
     7
370
    15
100
AcDbLine
 10
82.5004629981
 20
136.7942145423
 30
0.0
 11
84.4604629981
 21
137.0163566399
 31
0.0
  0
LINE
  5
1F4
330
1F
100
AcDbEntity
  8
0
  6
Continuous
 62
     7
370
    15
100
AcDbLine
 10
84.4604629981
 20
137.0163566399
 30
0.0
 11
86.9604629981
 21
136.9891904758
 31
0.0
  0
LINE
  5
1F5
330
1F
100
AcDbEntity
  8
0
  6
Continuous
 62
     7
370
    15
100
AcDbLine
 10
86.9604629981
 20
137.3262512303
 30
0.0
 11
86.9604629981
 21
136.9891904758
 31
0.0
  0
LINE
  5
1F6
330
1F
100
AcDbEntity
  8
0
  6
Continuous
 62
     7
370
    15
100
AcDbLine
 10
107.7004629981
 20
134.2989017088
 30
0.0
 11
107.7004629981
 21
118.2722910143
 31
0.0
  0
LINE
  5
1F7
330
1F
100
AcDbEntity
  8
0
  6
Continuous
 62
     7
370
    15
100
AcDbLine
 10
107.7004629981
 20
118.2722910143
 30
0.0
 11
107.7004629981
 21
114.5935832416
 31
0.0
  0
ARC
  5
1F8
330
1F
100
AcDbEntity
  8
0
  6
Continuous
 62
     7
370
    15
100
AcDbCircle
 10
82.2004629981
 20
114.5935832416
 30
0.0
 40
25.5
100
AcDbArc
 50
270.6740835447
 51
0.0
  0
LINE
  5
1F9
330
1F
100
AcDbEntity
  8
0
  6
Continuous
 62
     7
370
    15
100
AcDbLine
 10
82.5004629981
 20
117.1766905471
 30
0.0
 11
82.5004629981
 21
89.0953480086
 31
0.0
  0
SPLINE
  5
1FA
330
1F
100
AcDbEntity
  8
0
  6
Continuous
 62
     7
370
    15
100
AcDbSpline
210
0.0
220
0.0
230
1.0
 70
     8
 71
     3
 72
    18
 73
    14
 74
     0
 42
0.000000001
 43
0.00000001
 40
0.0
 40
0.0
 40
0.0
 40
0.0
 40
0.2499999999999972
 40
0.2499999999999972
 40
0.4999999999999968
 40
0.4999999999999968
 40
0.6249999999999976
 40
0.6249999999999976
 40
0.7499999999999983
 40
0.7499999999999983
 40
0.8749999999999992
 40
0.8749999999999992
 40
1.0
 40
1.0
 40
1.0
 40
1.0
 10
82.49966229256127
 20
89.59537371011957
 30
0.0
 10
82.49216594062626
 20
89.5952839875654
 30
0.0
 10
82.43358875209395
 20
89.59443144716501
 30
0.0
 10
82.21506856797781
 20
89.59334874798576
 30
0.0
 10
82.05937219634552
 20
89.59318602296332
 30
0.0
 10
81.7602723103763
 20
89.59726003032323
 30
0.0
 10
81.6500050602281
 20
89.5993665539465
 30
0.0
 10
81.4145322292499
 20
89.6056624678079
 30
0.0
 10
81.28856893481834
 20
89.60985799804845
 30
0.0
 10
81.01989686971834
 20
89.62111156888739
 30
0.0
 10
80.87729153211842
 20
89.62819271244918
 30
0.0
 10
80.58449338928638
 20
89.64543402718363
 30
0.0
 10
80.43320403989715
 20
89.65563292712197
 30
0.0
 10
80.27692013342354
 20
89.66769343109789
 30
0.0
  0
SPLINE
  5
1FB
330
1F
100
AcDbEntity
  8
0
  6
Continuous
 62
     7
370
    15
100
AcDbSpline
210
0.0
220
0.0
230
1.0
 70
     8
 71
     3
 72
    10
 73
     6
 74
     0
 42
0.000000001
 43
0.00000001
 40
0.0
 40
0.0
 40
0.0
 40
0.0
 40
0.3791579889474846
 40
0.7583051088726527
 40
1.0
 40
1.0
 40
1.0
 40
1.0
 10
80.27692013342354
 20
139.5194730521983
 30
0.0
 10
80.5900242410196
 20
139.5399836280179
 30
0.0
 10
81.2162234807038
 20
139.5810041916967
 30
0.0
 10
81.89197815186184
 20
139.5932168648466
 30
0.0
 10
82.11402123400586
 20
139.5927933539561
 30
0.0
 10
82.2004629979474
 20
139.5926284804187
 30
0.0
  0
ELLIPSE
  5
1FC
330
1F
100
AcDbEntity
  8
0
  6
Continuous
 62
     7
370
    15
100
AcDbEllipse
 10
70.0947774591
 20
128.6259208275
 30
0.0
 11
2.295783159904417
 21
2.62627592737627
 31
0.0
210
0.0
220
0.0
230
1.0
 40
0.7033638942
 41
0.0
 42
6.283185307179586
  0
ARC
  5
1FD
330
1F
100
AcDbEntity
  8
0
  6
Continuous
 62
     7
370
    15
100
AcDbCircle
 10
82.2004629981
 20
114.5935832416
 30
0.0
 40
24.99999999999999
100
AcDbArc
 50
94.4127968195
 51
265.5872031805
  0
SPLINE
  5
1FE
330
1F
100
AcDbEntity
  8
0
  6
Continuous
 62
     7
370
    15
100
AcDbSpline
210
0.0
220
0.0
230
1.0
 70
     8
 71
     3
 72
    15
 73
    11
 74
     0
 42
0.000000001
 43
0.00000001
 40
0.0
 40
0.0
 40
0.0
 40
0.0
 40
0.1030582161828354
 40
0.4209889186923803
 40
0.5725983512087505
 40
0.7094803385389502
 40
0.7752764101143526
 40
0.8293837852226065
 40
0.8833935293246401
 40
0.9999999999999999
 40
0.9999999999999999
 40
0.9999999999999999
 40
0.9999999999999999
 10
70.11056894004402
 20
125.7415156701761
 30
0.0
 10
70.07392516396192
 20
125.7649221780101
 30
0.0
 10
69.92423672337958
 20
125.8605368780154
 30
0.0
 10
69.6570681022158
 20
125.9338289296597
 30
0.0
 10
69.36818952235056
 20
125.9800851827493
 30
0.0
 10
69.1953363334632
 20
125.9826551981789
 30
0.0
 10
69.0876367096933
 20
125.9482176641956
 30
0.0
 10
69.04134796279033
 20
125.8937441496978
 30
0.0
 10
69.02744383349118
 20
125.7908865031849
 30
0.0
 10
69.0490055414322
 20
125.697306158874
 30
0.0
 10
69.0637417414353
 20
125.6333493204873
 30
0.0
  0
ARC
  5
1FF
330
1F
100
AcDbEntity
  8
0
  6
Continuous
 62
     7
370
    15
100
AcDbCircle
 10
67.0336389294
 20
123.3243275227
 30
0.0
 40
3.074556730663419
100
AcDbArc
 50
48.6779133985
 51
66.6331902321
  0
SPLINE
  5
200
330
1F
100
AcDbEntity
  8
0
  6
Continuous
 62
     7
370
    15
100
AcDbSpline
210
0.0
220
0.0
230
1.0
 70
     8
 71
     3
 72
    15
 73
    11
 74
     0
 42
0.000000001
 43
0.00000001
 40
0.0
 40
0.0
 40
0.0
 40
0.0
 40
0.0617442957909373
 40
0.1008352942861069
 40
0.1331289823116439
 40
0.1746728445458181
 40
0.309213618135612
 40
0.5224976720577577
 40
0.7421185766225609
 40
0.9999999999999999
 40
0.9999999999999999
 40
0.9999999999999999
 40
0.9999999999999999
 10
68.25305790032907
 20
126.1467230413073
 30
0.0
 10
68.30955243793649
 20
126.1580221272523
 30
0.0
 10
68.401814293906
 20
126.1764747898317
 30
0.0
 10
68.49874769111427
 20
126.2229454248898
 30
0.0
 10
68.54257637498922
 20
126.2890366383352
 30
0.0
 10
68.53259031180679
 20
126.4452807377364
 30
0.0
 10
68.36557564461084
 20
126.7440603790358
 30
0.0
 10
68.07570982862235
 20
127.1075167121001
 30
0.0
 10
67.6645573830748
 20
127.4549520817664
 30
0.0
 10
67.34652181701459
 20
127.5243904671894
 30
0.0
 10
67.17476251939253
 20
127.5618915820992
 30
0.0
  0
SPLINE
  5
201
330
1F
100
AcDbEntity
  8
0
  6
Continuous
 62
     7
370
    15
100
AcDbSpline
210
0.0
220
0.0
230
1.0
 70
     8
 71
     3
 72
    10
 73
     6
 74
     0
 42
0.000000001
 43
0.00000001
 40
0.0
 40
0.0
 40
0.0
 40
0.0
 40
0.5
 40
0.5
 40
1.0
 40
1.0
 40
1.0
 40
1.0
 10
69.063741741444
 20
125.6333493204828
 30
0.0
 10
68.92352498865262
 20
125.7058636670645
 30
0.0
 10
68.78510111334116
 20
125.7843027945465
 30
0.0
 10
68.513099364575
 20
125.956143000111
 30
0.0
 10
68.38049881506852
 20
126.0490674781202
 30
0.0
 10
68.2530579003213
 20
126.1467230413133
 30
0.0
  0
CIRCLE
  5
202
330
1F
100
AcDbEntity
  8
VERMASSUNG
  6
CENTERX2
100
AcDbCircle
 10
82.2004629981
 20
117.0426179785
 30
0.0
 40
32.50000000000001
  0
DIMENSION
  5
203
330
1F
100
AcDbEntity
  8
VERMASSUNG
100
AcDbDimension
  2
_D_5
 10
59.2194926096
 20
140.0235883671
 30
0.0
 11
51.9408747345
 21
147.3022062421
 31
0.0
 70
   160
  1
%%c<> min. 
 71
     2
 42
-1.0
  3
SLDDIMSTYLE3
100
AcDbAlignedDimension
 13
105.1814333867
 23
94.06164759
 33
0.0
 14
59.2194926096
 24
140.0235883671
 34
0.0
 50
-45.0
100
AcDbRotatedDimension
  0
INSERT
  5
21D
330
1F
100
AcDbEntity
  8
VERMASSUNG
100
AcDbBlockReference
  2
SW_CENTERMARKSYMBOL_0
 10
82.2004629981
 20
114.5935832416
 30
0.0
  0
OLE2FRAME
  5
21E
330
1F
100
AcDbEntity
  8
0
100
AcDbOle2Frame
 70
     2
  3
Paintbrush-Bild
 10
13.8511154363
 20
38.264191557
 30
0.0
 11
51.6290888628
 21
31.9806341108
 31
0.0
 71
     2
 72
     0
 73
     1
 90
    12928
310
80552BED0767C5B32B40DDAF6807D121434000000000000000006FFBDDFB85D0
310
4940DDAF6807D121434000000000000000006FFBDDFB85D04940416F4BD60AFB
310
3F4000000000000000002BED0767C5B32B40416F4BD60AFB3F40000000000000
310
0000000000000100000000010000010000000100000000000100000000320000
310
D0CF11E0A1B11AE1000000000000000000000000000000003E000300FEFF0900
310
0600000000000000000000000100000001000000000000000010000002000000
310
01000000FEFFFFFF0000000000000000FFFFFFFFFFFFFFFFFFFFFFFFFFFFFFFF
310
FFFFFFFFFFFFFFFFFFFFFFFFFFFFFFFFFFFFFFFFFFFFFFFFFFFFFFFFFFFFFFFF
310
FFFFFFFFFFFFFFFFFFFFFFFFFFFFFFFFFFFFFFFFFFFFFFFFFFFFFFFFFFFFFFFF
310
FFFFFFFFFFFFFFFFFFFFFFFFFFFFFFFFFFFFFFFFFFFFFFFFFFFFFFFFFFFFFFFF
310
FFFFFFFFFFFFFFFFFFFFFFFFFFFFFFFFFFFFFFFFFFFFFFFFFFFFFFFFFFFFFFFF
310
FFFFFFFFFFFFFFFFFFFFFFFFFFFFFFFFFFFFFFFFFFFFFFFFFFFFFFFFFFFFFFFF
310
FFFFFFFFFFFFFFFFFFFFFFFFFFFFFFFFFFFFFFFFFFFFFFFFFFFFFFFFFFFFFFFF
310
FFFFFFFFFFFFFFFFFFFFFFFFFFFFFFFFFFFFFFFFFFFFFFFFFFFFFFFFFFFFFFFF
310
FFFFFFFFFFFFFFFFFFFFFFFFFFFFFFFFFFFFFFFFFFFFFFFFFFFFFFFFFFFFFFFF
310
FFFFFFFFFFFFFFFFFFFFFFFFFFFFFFFFFFFFFFFFFFFFFFFFFFFFFFFFFFFFFFFF
310
FFFFFFFFFFFFFFFFFFFFFFFFFFFFFFFFFFFFFFFFFFFFFFFFFFFFFFFFFFFFFFFF
310
FFFFFFFFFFFFFFFFFFFFFFFFFFFFFFFFFFFFFFFFFFFFFFFFFFFFFFFFFFFFFFFF
310
FFFFFFFFFFFFFFFFFFFFFFFFFFFFFFFFFFFFFFFFFFFFFFFFFFFFFFFFFFFFFFFF
310
FFFFFFFFFFFFFFFFFFFFFFFFFFFFFFFFFFFFFFFFFFFFFFFFFFFFFFFFFFFFFFFF
310
FDFFFFFFFEFFFFFFFEFFFFFFFEFFFFFF05000000060000000700000008000000
310
090000000A0000000B0000000C0000000D0000000E0000000F00000010000000
310
11000000120000001300000014000000150000001600000017000000FEFFFFFF
310
FFFFFFFFFFFFFFFFFFFFFFFFFFFFFFFFFFFFFFFFFFFFFFFFFFFFFFFFFFFFFFFF
310
FFFFFFFFFFFFFFFFFFFFFFFFFFFFFFFFFFFFFFFFFFFFFFFFFFFFFFFFFFFFFFFF
310
FFFFFFFFFFFFFFFFFFFFFFFFFFFFFFFFFFFFFFFFFFFFFFFFFFFFFFFFFFFFFFFF
310
FFFFFFFFFFFFFFFFFFFFFFFFFFFFFFFFFFFFFFFFFFFFFFFFFFFFFFFFFFFFFFFF
310
FFFFFFFFFFFFFFFFFFFFFFFFFFFFFFFFFFFFFFFFFFFFFFFFFFFFFFFFFFFFFFFF
310
FFFFFFFFFFFFFFFFFFFFFFFFFFFFFFFFFFFFFFFFFFFFFFFFFFFFFFFFFFFFFFFF
310
FFFFFFFFFFFFFFFFFFFFFFFFFFFFFFFFFFFFFFFFFFFFFFFFFFFFFFFFFFFFFFFF
310
FFFFFFFFFFFFFFFFFFFFFFFFFFFFFFFFFFFFFFFFFFFFFFFFFFFFFFFFFFFFFFFF
310
FFFFFFFFFFFFFFFFFFFFFFFFFFFFFFFFFFFFFFFFFFFFFFFFFFFFFFFFFFFFFFFF
310
FFFFFFFFFFFFFFFFFFFFFFFFFFFFFFFFFFFFFFFFFFFFFFFFFFFFFFFFFFFFFFFF
310
FFFFFFFFFFFFFFFFFFFFFFFFFFFFFFFFFFFFFFFFFFFFFFFFFFFFFFFFFFFFFFFF
310
FFFFFFFFFFFFFFFFFFFFFFFFFFFFFFFFFFFFFFFFFFFFFFFFFFFFFFFFFFFFFFFF
310
FFFFFFFFFFFFFFFFFFFFFFFFFFFFFFFFFFFFFFFFFFFFFFFFFFFFFFFFFFFFFFFF
310
52006F006F007400200045006E00740072007900000000000000000000000000
310
0000000000000000000000000000000000000000000000000000000000000000
310
16000500FFFFFFFFFFFFFFFF020000000A00030000000000C000000000000046
310
0000000000000000000000009095E9779B45D20103000000C000000000000000
310
01004F006C006500000000000000000000000000000000000000000000000000
310
0000000000000000000000000000000000000000000000000000000000000000
310
0A000200FFFFFFFFFFFFFFFFFFFFFFFF00000000000000000000000000000000
310
0000000000000000000000000000000000000000000000001400000000000000
310
010043006F006D0070004F0062006A0000000000000000000000000000000000
310
0000000000000000000000000000000000000000000000000000000000000000
310
120002010100000003000000FFFFFFFF00000000000000000000000000000000
310
0000000000000000000000000000000000000000010000004D00000000000000
310
01004F006C006500310030004E00610074006900760065000000000000000000
310
0000000000000000000000000000000000000000000000000000000000000000
310
1A000200FFFFFFFFFFFFFFFFFFFFFFFF00000000000000000000000000000000
310
0000000000000000000000000000000000000000040000002426000000000000
310
FEFFFFFF02000000FEFFFFFFFFFFFFFFFFFFFFFFFFFFFFFFFFFFFFFFFFFFFFFF
310
FFFFFFFFFFFFFFFFFFFFFFFFFFFFFFFFFFFFFFFFFFFFFFFFFFFFFFFFFFFFFFFF
310
FFFFFFFFFFFFFFFFFFFFFFFFFFFFFFFFFFFFFFFFFFFFFFFFFFFFFFFFFFFFFFFF
310
FFFFFFFFFFFFFFFFFFFFFFFFFFFFFFFFFFFFFFFFFFFFFFFFFFFFFFFFFFFFFFFF
310
FFFFFFFFFFFFFFFFFFFFFFFFFFFFFFFFFFFFFFFFFFFFFFFFFFFFFFFFFFFFFFFF
310
FFFFFFFFFFFFFFFFFFFFFFFFFFFFFFFFFFFFFFFFFFFFFFFFFFFFFFFFFFFFFFFF
310
FFFFFFFFFFFFFFFFFFFFFFFFFFFFFFFFFFFFFFFFFFFFFFFFFFFFFFFFFFFFFFFF
310
FFFFFFFFFFFFFFFFFFFFFFFFFFFFFFFFFFFFFFFFFFFFFFFFFFFFFFFFFFFFFFFF
310
FFFFFFFFFFFFFFFFFFFFFFFFFFFFFFFFFFFFFFFFFFFFFFFFFFFFFFFFFFFFFFFF
310
FFFFFFFFFFFFFFFFFFFFFFFFFFFFFFFFFFFFFFFFFFFFFFFFFFFFFFFFFFFFFFFF
310
FFFFFFFFFFFFFFFFFFFFFFFFFFFFFFFFFFFFFFFFFFFFFFFFFFFFFFFFFFFFFFFF
310
FFFFFFFFFFFFFFFFFFFFFFFFFFFFFFFFFFFFFFFFFFFFFFFFFFFFFFFFFFFFFFFF
310
FFFFFFFFFFFFFFFFFFFFFFFFFFFFFFFFFFFFFFFFFFFFFFFFFFFFFFFFFFFFFFFF
310
FFFFFFFFFFFFFFFFFFFFFFFFFFFFFFFFFFFFFFFFFFFFFFFFFFFFFFFFFFFFFFFF
310
FFFFFFFFFFFFFFFFFFFFFFFFFFFFFFFFFFFFFFFFFFFFFFFFFFFFFFFFFFFFFFFF
310
FFFFFFFFFFFFFFFFFFFFFFFFFFFFFFFFFFFFFFFFFFFFFFFFFFFFFFFFFFFFFFFF
310
0100000200000000000000000000000000000000000000000000000000000000
310
0000000000000000000000000000000000000000000000000000000000000000
310
0100FEFF030A0000FFFFFFFF0A00030000000000C00000000000004607000000
310
5042727573680007000000504272757368000700000050427275736800F439B2
310
7100000000000000000000000000000000000000000000000000000000000000
310
0000000000000000000000000000000000000000000000000000000000000000
310
0000000000000000000000000000000000000000000000000000000000000000
310
0000000000000000000000000000000000000000000000000000000000000000
310
0000000000000000000000000000000000000000000000000000000000000000
310
0000000000000000000000000000000000000000000000000000000000000000
310
0000000000000000000000000000000000000000000000000000000000000000
310
0000000000000000000000000000000000000000000000000000000000000000
310
0000000000000000000000000000000000000000000000000000000000000000
310
0000000000000000000000000000000000000000000000000000000000000000
310
0000000000000000000000000000000000000000000000000000000000000000
310
0000000000000000000000000000000000000000000000000000000000000000
310
20260000424D0E260000000000003E00000028000000B40200006E0000000100
310
01000000000000000000130B0000130B00000200000002000000000000FFFFFF
310
FFFFFFFFFFFFFFFFFFFFFFFFFFFFFFFFFFFFFFFFFFFFFFFFFFFFFFFFFFFFFFFF
310
FFFFFFFFFFFFFFFFFFFFFFFFFFFFFFFFFFFFFFFFFFFFFFFFFFFFFFFFFFFFFFFF
310
FFFFFFFFFFFFFFFFFFFFFFFFFFFFFFFFFFFFFFFFFFFFFFFFF000FFFFFFFFFFFF
310
FFFFFFFFFFFFFFFFFFFFFFFFFFFFFFFFFFFFFFFFFFFFFFFFFFFFFFFFFFFFFFFF
310
FFFFFFFFFFFFFFFFFFFFFFFFFFFFFFFFFFFFFFFFFFFFFFFFFFFFFFFFFFFFFFFF
310
FFFFFFFFFFFFFFFFFFFFFFFFFFFFFFFFF000FFFFFFFFFFFFFFFFFFFFFFFFFFFF
310
FFFFFFFFFFFFFFFFFFFFFFFFFFFFFFFFFFFFFFFFFFFFFFFFFFFFFFFFFFFFFFFF
310
FFFFFFFFFFFFFFFFFFFFFFFFFFFFFFFFFFFFFFFFFFFFFFFFFFFFFFFFFFFFFFFF
310
FFFFFFFFFFFFFFFFF000FFFFFFFFFFFFFFFFFFFFFFFFFFFFFFFFFFFFFFFFFFFF
310
FFFFFFFFFFFFFFFFFFFFFFFFFFFFFFFFFFFFFFFFFFFFFFFFFFFFFFFFFFFFFFFF
310
FFFFFFFFFFFFFFFFFFFFFFFFFFFFFFFFFFFFFFFFFFFFFFFFFFFFFFFFFFFFFFFF
310
F000FFFFFFFFFFFFFFFFFFFFFFFFFFFFFFFFFFFFFFFFFFFFFFFFFFFFFFFFFFFF
310
FFFFFFFFFFFFFFFFFFFFFFFFFFFFFFFFFFFFFFFFFFFFFFFFFFFFFFFFFFFFFFFF
310
FFFFFFFFFFFFFFFFFFFFFFFFFFFFFFFFFFFFFFFFFFFFFFFFF000FFFFFFFFFFFF
310
FFFFFFFFFFFFFFFFFFFFFFFFFFFFFFFFFFFFFFFFFFFFFFFFFFFFFFFFFFFFFFFF
310
FFFFFFFFFFFFFFFFFFFFFFFFFFFFFFFFFFFFFFFFFFFFFFFFFFFFFFFFFFFFFFFF
310
FFFFFFFFFFFFFFFFFFFFFFFFFFFFFFFFF000FFFFFFFFFFFFFFFFFFFFFFFFFFFF
310
FFFFFFFFFFFFFFFFFFFFFFFFFFFFFFFFFFFFFFFFFFFFFFFFFFFFFFFFFFFFFFFF
310
FFFFFFFFFFFFFFFFFFFFFFFFFFFFFFFFFFFFFFFFFFFFFFFFFFFFFFFFFFFFFFFF
310
FFFFFFFFFFFFFFFFF000FFFFFFFFFFFFFFFFFFFFFFFFFFFFFFFFFFFFFFFFFFFF
310
FFFFFFFFFFFFFFFFFFFFFFFFFFFFFFFFFFFFFFFFFFFFFFFFFFFFFFFFFFFFFFFF
310
FFFFFFFFFFFFFFFFFFFFFFFFFFFFFFFFFFFFFFFFFFFFFFFFFFFFFFFFFFFFFFFF
310
F000FFFFFFFFFFFFFFFFFFFFFFFFFFFFFFFFFFFFFFFFFFFFFFFFFFFFFFFFFFFF
310
FFFFFFFFFFFFFFFFFFFFFFFFFFFFFFFFFFFFFFFFFFFFFFFFFFFFFFFFFFFFFFFF
310
FFFFFFFFFFFFFFFFFFFFFFFFFFFFFFFFFFFFFFFFFFFFFFFFF000FFFFFFFFFFFF
310
FFFFFFFFFFFFFFFFFFFFFFFFFFFFFFFFFFFFFFFFFFFFFFFFFFFFFFFFFFFFFFFF
310
FFFFFFFFFFFFFFFFFFFFFFFFFFFFFFFFFFFFFFFFFFFFFFFFFFFFFFFFFFFFFFFF
310
FFFFFFFFFFFFFFFFFFFFFFFFFFFFFFFFF000FFFFFFFFFFFFFFFFFFFFFFFFFFFF
310
FFFFFFFFFFFFFFFFFFFFFFFFFFFFFFFFFFFFFFFFFFFFFFFFFFFFFFFFFFFFFFFF
310
FFFFFFFFFFFFFFFFFFFFFFFFFFFFFFFFFFFFFFFFFFFFFFFFFFFFFFFFFFFFFFFF
310
FFFFFFFFFFFFFFFFF000FFFFFFFFFFFFFFFFFFFFFFFFFFFFFFFFFFFFFFFFFFFF
310
FFFFFFFFFFFFFFFFFFFFFFFFFFFFFFFFFFFFFFFFFFFFFFFFFFFFFFFFFFFFFFFF
310
FFFFFFFFFFFFFFFFFFFFFFFFFFFFFFFFFFFFFFFFFFFFFFFFFFFFFFFFFFFFFFFF
310
F000FFFFFFFFFFFFFFFFFFFFFFFFFFFFFFFFFFFFFFFFFFFFFFFFFFFFFFFFFFFF
310
FFFFFFFFFFFFFFFFFFFFFFFFFFFFFFFFFFFFFFFFFFFFFFFFFFFFFFFFFFFFFFFF
310
FFFFFFFFFFFFFFFFFFFFFFFFFFFFFFFFFFFFFFFFFFFFFFFFF000FFFFFFFFFFFF
310
FFFFFFFFFFFFFFFFFFFFFFFFFFFFFFFFFFFFFFFFFFFFFFFFFFFFFFFFFFFFFFFF
310
FFFFFFFFFFFFFFFFFFFFFFFFFFFFFFFFFFFFFFFFFFFFFFFFFFFFFFFFFFFFFFFF
310
FFFFFFFFFFFFFFFFFFFFFFFFFFFFFFFFF000FFFFFFFFFFFFFFFFFFFFFFFFFFFF
310
FFFFFFFFFFFFFFFFFFFFFFFFFFFFFFFFFFFFFFFFFFFFFFFFFFFFFFFFFFFFFFFF
310
FFFFFFFFFFFFFFFFFFFFFFFFFFFFFFFFFFFFFFFFFFFFFFFFFFFFFFFFFFFFFFFF
310
FFFFFFFFFFFFFFFFF000FFFFFFFFFFFFFFFFFFFFFFFFFFFFFFFFFFFFFFFFFFFF
310
FFFFFFFFFFFFFFFFFFFFFFFFFFFFFFFFFFFFFFFFFFFFFFFFFFFFFFFFFFFFFFFF
310
FFFFFFFFFFFFFFFFFFFFFFFFFFFFFFFFFFFFFFFFFFFFFFFFFFFFFFFFFFFFFFFF
310
F000FFFFFFFFFFFFFFFFFFFFFFFFFFFFFFFFFFFFFFFFFFFFFFFFFFFFFFFFFFFF
310
FFFFFFFFFFFFFFFFFFFFFFFFFFFFFFFFFFFFFFFFFFFFFFFFFFFFFFFFFFFFFFFF
310
FFFFFFFFFFFFFFFFFFFFFFFFFFFFFFFFFFFFFFFFFFFFFFFFF000FFFFFFFFFFFF
310
FFFFFFFFFFFFFFFFFFFFFFFFFFFFFFFFFFFFFFFFFFFFFFFFFFFFFFFFFFFFFFFF
310
FFFFFFFFFFFFFFFFFFFFFFFFFFFFFFFFFFFFFFFFFFFFFFFFFFFFFFFFFFFFFFFF
310
FFFFFFFFFFFFFFFFFFFFFFFFFFFFFFFFF000FFFFFFFFFFFFFFFFFFFFFFFFFFFF
310
FFFFFFFFFFFFFFFFFFFFFFFFFFFFFFFFFFFFFFFFFFFFFFFFFFFFFFFFFFFFFFFF
310
FFFFFFFFFFFFFFFFFFFFFFFFFFFFFFFFFFFFFFFFFFFFFFFFFFFFFFFFFFFFFFFF
310
FFFFFFFFFFFFFFFFF000FFFFF80003FFFFFFFFFFFFFFFFFFFFFFFFFFFFFFFFFF
310
FFFFF00007FFFFFFFFFF00007FFFFFF800000000000000007FFFFFFFFFFFFFFF
310
FFFFFFFC001FFFFFFFFFFFFFFC001FFFFFFFFFFFFFFFFFFFFFFFFFFE0007FFFF
310
F000FFFF8000007FFFFFFFF8000FFFFFC0007FFFFF80007FFFFF0000007FFFFF
310
FFF8000007FFFFF800000000000000007FFFFFF0001FFFFFFFFFFFC00001FFFF
310
FFFFFFFFC00001FFFFFFFF000000000003FFFFE000007FFFF000FFFE0000000F
310
FFFFFFF0000FFFFF80007FFFFF80007FFFFC0000001FFFFFFFC0000001FFFFF8
310
00000000000000007FFFFFF0001FFFFFFFFFFE0000003FFFFFFFFFFE0000003F
310
FFFFFF000000000003FFFF0000000FFFF000FFF800000003FFFFFFF00007FFFF
310
80007FFFFF80007FFFF000000007FFFFFF000000003FFFF80000000000000000
310
7FFFFFF0001FFFFFFFFFF80000000FFFFFFFFFF80000000FFFFFFF0000000000
310
03FFFC00000003FFF000FFE000000000FFFFFFF00007FFFF80003FFFFF80007F
310
FFC000000001FFFFFC000000001FFFF800000000000000007FFFFFF0001FFFFF
310
FFFFE000000003FFFFFFFFE000000003FFFFFF000000000003FFF000000000FF
310
F000FF80000000007FFFFFF00007FFFF80003FFFFF80007FFF8000000000FFFF
310
F80000000007FFF800000000000000007FFFFFF0001FFFFFFFFFC000000001FF
310
FFFFFFC000000001FFFFFF000000000003FFC0000000007FF000FF0000000000
310
3FFFFFE00007FFFF00003FFFFF80007FFE00000000003FFFF00000000003FFF8
310
00000000000000007FFFFFF0001FFFFFFFFF8000000000FFFFFFFF8000000000
310
FFFFFF000000000003FF80000000003FF000FE00000000001FFFFFE00003FFFF
310
00003FFFFF80007FFC00000000001FFFE00000000001FFF8000001FFFE000000
310
7FFFFFF0001FFFFFFFFE00000000003FFFFFFE00000000003FFFFF0000000000
310
03FF00000000001FF000FC00000000000FFFFFE00003FFFF00001FFFFF80007F
310
F800000000001FFFC00000000000FFF8000001FFFE0000007FFFFFF0001FFFFF
310
FFFC00000000001FFFFFFC00000000001FFFFF000000000003FE00000000000F
310
F000F8000000000007FFFFE00003FFFF00001FFFFF80007FF800000000000FFF
310
800000000000FFF8000001FFFE0000007FFFFFF0001FFFFFFFF800000000000F
310
FFFFF800000000000FFFFF000000000003FC000000000007F000F80000000000
310
03FFFFC00003FFFE00001FFFFF80007FF0000000000007FF0000000000007FF8
310
000001FFFE0000007FFFFFF0001FFFFFFFF0000000000007FFFFF00000000000
310
07FFFF000000000003F8000000000003F000F0000000000003FFFFC00001FFFE
310
00001FFFFF80007FE0000000000007FE0000000000003FF8000001FFFE000000
310
7FFFFFF0001FFFFFFFF0000000000007FFFFF0000000000007FFFF0000000000
310
03F800001F800003F000E00001FFF00001FFFFC00001FFFE00000FFFFF80007F
310
E00001FFE00003FE00001FFF00003FF8000001FFFE0000007FFFFFF0001FFFFF
310
FFE000003E000003FFFFE000003E000003FFFF000000000003F00001FFF80001
310
F000E00007FFFC0001FFFFC00001FFFE00000FFFFF80007FC0000FFFFC0003FC
310
0000FFFFC0001FF8000001FFFE0000007FFFFFF0001FFFFFFFC00003FFE00001
310
FFFFC00003FFE00001FFFF0001FFFFFFFFF00007FFFE0001F000E0000FFFFF00
310
00FFFF800001FFFC00000FFFFF80007FC0001FFFFE0001FC0001FFFFE0001FF8
310
000001FFFE0000007FFFFFF0001FFFFFFF80000FFFF80000FFFF80000FFFF800
310
00FFFF0003FFFFFFFFE0000FFFFF8000F000C0003FFFFF8000FFFF800000FFFC
310
000007FFFF80007F80003FFFFF0001FC0003FFFFF0001FF8000001FFFE000000
310
7FFFFFF0001FFFFFFF80003FFFFE0000FFFF80003FFFFE0000FFFF0003FFFFFF
310
FFE0003FFFFF8000F000C0003FFFFF8000FFFF800000FFFC000007FFFF80007F
310
80007FFFFF8001F80007FFFFF8000FF8000001FFFE0000007FFFFFF0001FFFFF
310
FF00007FFFFF00007FFF00007FFFFF00007FFF0003FFFFFFFFE0003FFFFFC000
310
F000C0007FFFFFC000FFFF000000FFFC000007FFFF80007F8000FFFFFF8000F8
310
000FFFFFF8000FF8000001FFFE0000007FFFFFF0001FFFFFFF0000FFFFFF8000
310
7FFF0000FFFFFF80007FFF0003FFFFFFFFC0007FFFFFC00070008000FFFFFFC0
310
00FFFF000000FFF8000007FFFF80007F8000FFFFFF8000F8000FFFFFF8000FF8
310
000001FFFE0000007FFFFFF0001FFFFFFE0001FFFFFFC0003FFE0001FFFFFFC0
310
003FFF0003FFFFFFFFC0007FFFFFE00070008000FFFFFFC0007FFF0000007FF8
310
000003FFFF80007F0001FFFFFF8000F8000FFFFFF8000FF8000001FFFE000000
310
7FFFFFF0001FFFFFFE0001FFFFFFC0003FFE0001FFFFFFC0003FFF0003FFFFFF
310
FFC000FFFFFFE00070008000FFFFFFC0007FFF0000007FF8000003FFFF80007F
310
0001FFFFFF8000F8001FFFFFF8000FF8000001FFFE0000007FFFFFF0001FFFFF
310
FE0003FFFFFFE0003FFE0003FFFFFFE0003FFF0003FFFFFFFFC000FFFFFFE000
310
70008000FFFFFFC0007FFE0000007FF8000003FFFF80007F0001FFFFFF8000F0
310
001FFFFFF8000FF8000001FFFE0000007FFFFFF0001FFFFFFC0003FFFFFFE000
310
1FFC0003FFFFFFE0001FFF0003FFFFFFFFC000FFFFFFC00070008000FFFFFF80
310
007FFE0000007FF0000003FFFF80007F0001FFFFFF0000F0001FFFFFF8000FF8
310
000001FFFE0000007FFFFFF0001FFFFFFC0007FFFFFFF0001FFC0007FFFFFFF0
310
001FFF0003FFFFFFFFC000FFFFFFC00070008001FFFFFF0000FFFE0000003FF0
310
000001FFFF80007F0001FFFFFF0000F8001FFFFFF0000FF8000001FFFE000000
310
7FFFFFF0001FFFFFFC0007FFFFFFF0001FFC0007FFFFFFF0001FFF0003FFFFFF
310
FFC001FFFFFF80007000FFFFFFFFFE0000FFFE0008003FF0008001FFFF80007F
310
FFFFFFFFFC0000FFFFFFFFFFE0000FF8000001FFFE0000007FFFFFF0001FFFFF
310
F8000FFFFFFFF8000FF8000FFFFFFFF8000FFF0003FFFFFFFFFFFFFFFFFF0000
310
7000FFFFFFFFFC0000FFFC0008003FF0008001FFFF80007FFFFFFFFFF80001FF
310
FFFFFFFF80000FF8000001FFFE0000007FFFFFF0001FFFFFF8000FFFFFFFF800
310
0FF8000FFFFFFFF8000FFF0003FFFFFFFFFFFFFFFFFE0000F000FFFFFFFFE000
310
00FFFC000C003FE000C001FFFF80007FFFFFFFFFC00001FFFFFFFFFE00001FF8
310
000001FFFE0000007FFFFFF0001FFFFFF8000FFFFFFFF8000FF8000FFFFFFFF8
310
000FFF0003FFFFFFFFFFFFFFFFF00000F000FFFFFFFE000001FFFC000C001FE0
310
00C000FFFF80007FFFFFFFFE000001FFFFFFFFE000001FF80FFFFFFFFFFFFFC0
310
7FFFFFF0001FFFFFF8000FFFFFFFF8000FF8000FFFFFFFF8000FFF0003FFFFFF
310
FFFFFFFFFF800000F000FFFFFFC0000001FFFC001C001FE001C000FFFF80007F
310
FFFFFF80000003FFFFFFF80000001FF80FFFFFFFFFFFFFC07FFFFFF0001FFFFF
310
F8001FFFFFFFFC000FF8001FFFFFFFFC000FFF0003FFFFFFFFFFFFFFF0000001
310
F000FFFFF800000001FFF8001C001FE001C000FFFF80007FFFFFF800000003FF
310
FFFF800000003FF80FFFFFFFFFFFFFC07FFFFFF0001FFFFFF8001FFFFFFFFC00
310
0FF8001FFFFFFFFC000FFF0003FFFFFFFFFFFFFE00000001F000FFFFC0000000
310
03FFF8001E001FC001E000FFFF80007FFFFF8000000007FFFFFC000000003FF8
310
0FFFFFFFFFFFFFC07FFFFFF0001FFFFFF8001FFFFFFFFC000FF8001FFFFFFFFC
310
000FFF0003FFFFFFFFFFFFE000000003F000FFFE0000000007FFF8001E000FC0
310
01E0007FFF80007FFFFE0000000007FFFFE0000000007FF80FFFFFFFFFFFFFC0
310
7FFFFFF0001FFFFFF0001FFFFFFFFC0007F0001FFFFFFFFC0007FF0003FFFFFF
310
FFFFFF0000000003F000FFF80000000007FFF8001E000FC003E0007FFF80007F
310
FFF0000000000FFFFF8000000000FFF80FFFFFFFFFFFFFC07FFFFFF0001FFFFF
310
F0001FFFFFFFFC0007F0001FFFFFFFFC0007FF0003FFFFFFFFFFFC0000000007
310
F000FFE0000000000FFFF0003E000FC003E0007FFF80007FFFC0000000001FFF
310
FE0000000001FFF80FFFFFFFFFFFFFC07FFFFFF0001FFFFFF0001FFFFFFFFC00
310
07F0001FFFFFFFFC0007FF0003FFFFFFFFFFF0000000000FF000FFC000000000
310
1FFFF0003F000F8003F0003FFF80007FFF80000000003FFFF80000000003FFF8
310
0FFFFFFFFFFFFFC07FFFFFF0001FFFFFF0001FFFFFFFFC0007F0001FFFFFFFFC
310
0007FF0003FFFFFFFFFFE0000000001FF000FF00000000007FFFF0003F000780
310
03F0003FFF80007FFF00000000007FFFF00000000007FFF80FFFFFFFFFFFFFC0
310
7FFFFFF0001FFFFFF0001FFFFFFFFC0007F0001FFFFFFFFC0007FF0003FFFFFF
310
FFFF80000000007FF000FE0000000000FFFFE0003F00078007F0003FFF80007F
310
FE0000000001FFFFE0000000001FFFF80FFFFFFFFFFFFFC07FFFFFF0001FFFFF
310
F0001FFFFFFFFC0007F0001FFFFFFFFC0007FF0003FFFFFFFFFF0000000000FF
310
F000FC0000000003FFFFE0007F00078007F0003FFF80007FFC0000000007FFFF
310
C0000000007FFFF80FFFFFFFFFFFFFC07FFFFFF0001FFFFFF8001FFFFFFFFC00
310
0FF8001FFFFFFFFC000FFF0003FFFFFFFFFE0000000003FFF000FC000000000F
310
FFFFE0007F80070007F8001FFF80007FF8000000001FFFFF8000000001FFFFF8
310
0FFFFFFFFFFFFFC07FFFFFF0001FFFFFF8001FFFFFFFFC000FF8001FFFFFFFFC
310
000FFF0003FFFFFFFFFC000000000FFFF000F8000000007FFFFFE0007F800700
310
07F8001FFF80007FF000000000FFFFFF800000000FFFFFF80FFFFFFFFFFFFFC0
310
7FFFFFF0001FFFFFF8000FFFFFFFF8000FF8000FFFFFFFF8000FFF0003FFFFFF
310
FFFC000000007FFFF000F800000007FFFFFFC0007F8003000FF8001FFF80007F
310
F000000007FFFFFF000000007FFFFFF80FFFFFFFFFFFFFC07FFFFFF0001FFFFF
310
F8000FFFFFFFF8000FF8000FFFFFFFF8000FFF0003FFFFFFFFF80000000FFFFF
310
F000F0000000FFFFFFFFC000FF8003000FF8001FFF80007FE0000000FFFFFFFF
310
0000000FFFFFFFF8000001FFFE0000007FFFFFF0001FFFFFF8000FFFFFFFF800
310
0FF8000FFFFFFFF8000FFF0003FFFFFFFFF8000000FFFFFFF000F000000FFFFF
310
FFFFC000FFC002000FF8000FFF80007FE000001FFFFFFFFE000001FFFFFFFFF8
310
000001FFFE0000007FFFFFF0001FFFFFF8000FFFFFFFF8000FF8000FFFFFFFF8
310
000FFF0003FFFFFFFFF000001FFFFFFFF000E00000FFFFFFFFFFC000FFC00200
310
0FFC000FFF80007FE00001FFFFFFFFFE00001FFFFFFFFFF8000001FFFE000000
310
7FFFFFF0001FFFFFFC000FFFFFFFF8001FFC000FFFFFFFF8001FFF0003FFFFFF
310
FFF00001FFFFFFFFF000E00007FFFFFFFFFF8000FFC000001FFC000FFF80007F
310
C0000FFFFFFFFFFE0000FFFFFFFFFFF8000001FFFE0000007FFFFFF0001FFFFF
310
FC0007FFFFFFF0001FFC0007FFFFFFF0001FFF0003FFFFFFFFF00007FFFFFFFF
310
F000E0001FFFFFFFFFFF8000FFC000001FFC000FFF80007FC0003FFFFFFFFFFE
310
0001FFFFFFFFFFF8000001FFFE0000007FFFFFF0001FFFFFFC0007FFFFFFF000
310
1FFC0007FFFFFFF0001FFF0003FFFFFFFFF0001FFFFFFFFFF000E0003FFFFF00
310
03FF8001FFE000001FFC0007FF80007FC0007FFFFF0007FC0003FFFFF0003FF8
310
000001FFFE0000007FFFFFF0001FFFFFFC0003FFFFFFE0001FFC0003FFFFFFE0
310
001FFF0003FFFFFFFFF0003FFFFFFFFFF000E0003FFFFF0001FF8001FFE00000
310
1FFE0007FF80007FC0007FFFFE0003FC0007FFFFE0003FF8000001FFFE000000
310
7FFFFFF0001FFFFFFE0003FFFFFFE0003FFE0003FFFFFFE0003FFF0003FFFFFF
310
FFF0003FFFFF8001F000E0003FFFFF0001FF0001FFE000001FFE0007FF80007F
310
C0007FFFFE0003FC0007FFFFE0003FF8000001FFFE0000007FFFFFF0001FFFFF
310
FE0001FFFFFFC0003FFE0001FFFFFFC0003FFF0003FFFFFFFFF0003FFFFF0001
310
F000E0003FFFFF0003FF0001FFE000003FFE0007FF80007FC0007FFFFE0003FC
310
0007FFFFE0003FF8000001FFFE0000007FFFFFF0001FFFFFFF0001FFFFFFC000
310
7FFF0001FFFFFFC0007FFF0003FFFFFFFFF0003FFFFF0001F000E0003FFFFE00
310
03FF0003FFF000003FFE0003FF80007FC0007FFFFC0003FE0007FFFFE0003FF8
310
000001FFFE0000007FFFFFF0001FFFFFFF0000FFFFFF80007FFF0000FFFFFF80
310
007FFF0003FFFFFFFFF0003FFFFF0001F000E0003FFFFE0003FF0003FFF00000
310
3FFF0003FF80007FC0007FFFFC0007FE0007FFFFC0003FF8000001FFFE000000
310
7FFFFFF0001FFFFFFF80007FFFFF0000FFFF80007FFFFF0000FFFF0003FFFFFF
310
FFF0003FFFFF0003F000E0003FFFFC0003FE0003FFF000003FFF0003FF80007F
310
E0003FFFF80007FE0003FFFFC0007FF8000001FFFE0000007FFFFFF0001FFFFF
310
FF80003FFFFE0000FFFF80003FFFFE0000FFFF0003FFFFFFFFF0001FFFFE0003
310
F000F0001FFFF80003FE0003FFF000007FFF0001FF80007FE0003FFFF00007FE
310
0001FFFF80007FF8000001FFFE0000007FFFFFF0001FFFFFFFC0000FFFF80001
310
FFFFC0000FFFF80001FFFF0003FFFFFFFFF0001FFFFC0003F000F0000FFFF000
310
07FE0007FFF800007FFF0001FF80007FE0001FFFE00007FF0000FFFE00007FF8
310
000001FFFE0000007FFFFFF0001FFFFFFFC00003FFE00001FFFFC00003FFE000
310
01FFFF0003FFFFFFFFF8000FFFF80003F000F00003FFC00007FC0007FFF80000
310
7FFF8001FF80007FF00007FF80000FFF00007FF80000FFF8000001FFFE000000
310
7F80000000000001FFE000003E000003FFFFE000003E000003FFFF0003FFFFFF
310
FFF80003FFE00007F000F800000000000FFC0007FFF800007FFF8001FF80007F
310
F000000000000FFF000000000000FFF8000001FFFE0000007F80000000000001
310
FFF0000000000007FFFFF0000000000007FFFF0003FFFFFFFFFC00007E000007
310
F000F800000000000FFC0007FFF80000FFFF8000FF80007FF800000000001FFF
310
800000000001FFF8000001FFFE0000007F80000000000001FFF800000000000F
310
FFFFF800000000000FFFFF0003FFFFFFFFFC00000000000FF000FC0000000000
310
1FFC0007FFFC0000FFFF8000FF80007FF800000000003FFFC00000000001FFF8
310
000001FFFE0000007F80000000000001FFF800000000000FFFFFF80000000000
310
0FFFFF0003FFFFFFFFFE00000000001FF000FE00000000003FF8000FFFFC0000
310
FFFF8000FF80007FFC00000000003FFFC00000000003FFF8000001FFFE000000
310
7F80000000000001FFFC00000000001FFFFFFC00000000001FFFFF0003FFFFFF
310
FFFF00000000001FF000FF00000000003FF8000FFFFC0000FFFFC000FF80007F
310
FE00000000007FFFE00000000007FFF8000001FFFE0000007F80000000000001
310
FFFE00000000003FFFFFFE00000000003FFFFF0003FFFFFFFFFF80000000003F
310
F000FF80000000007FF8000FFFFC0001FFFFC0007F80007FFF0000000000FFFF
310
F0000000000FFFF800000000000000007F80000000000001FFFF8000000000FF
310
FFFFFF8000000000FFFFFF0003FFFFFFFFFFC0000000007FF000FFC000000000
310
FFF8000FFFFE0001FFFFC0007F80007FFF8000000001FFFFF8000000001FFFF8
310
00000000000000007F80000000000001FFFFC000000001FFFFFFFFC000000001
310
FFFFFF0003FFFFFFFFFFE000000000FFF000FFE000000003FFF0001FFFFE0001
310
FFFFC0007F80007FFFC000000007FFFFFE000000003FFFF80000000000000000
310
7F80000000000001FFFFE000000003FFFFFFFFE000000003FFFFFF0003FFFFFF
310
FFFFF000000003FFF000FFF80000000FFFF0001FFFFE0001FFFFE0007F80007F
310
FFF00000000FFFFFFF00000000FFFFF800000000000000007F80000000000001
310
FFFFF80000000FFFFFFFFFF80000000FFFFFFF0003FFFFFFFFFFFC0000000FFF
310
F000FFFE0000003FFFF0001FFFFE0003FFFFE0003F80007FFFFC0000003FFFFF
310
FFC0000003FFFFF800000000000000007F80000000000001FFFFFE0000003FFF
310
FFFFFFFE0000003FFFFFFF0003FFFFFFFFFFFF0000003FFFF000FFFF800000FF
310
FFF0001FFFFF0003FFFFE0003F80007FFFFF000001FFFFFFFFF800001FFFFFF8
310
00000000000000007F80000000000001FFFFFFC00001FFFFFFFFFFFFC00001FF
310
FFFFFF0003FFFFFFFFFFFFC00000FFFFF000FFFFF8000FFFFFFFFFFFFFFFFFFF
310
FFFFFFFFFFFFFFFFFFFFF0001FFFFFFFFFFF0000FFFFFFF80000000000000000
310
7FFFFFFFFFFFFFFFFFFFFFFC001FFFFFFFFFFFFFFC001FFFFFFFFFFFFFFFFFFF
310
FFFFFFFC001FFFFFF000FFFFFFFFFFFFFFFFFFFFFFFFFFFFFFFFFFFFFFFFFFFF
310
FFFFFFFFFFFFFFFFFFFFFFFFFFFFFFFFFFFFFFFFFFFFFFFFFFFFFFFFFFFFFFFF
310
FFFFFFFFFFFFFFFFFFFFFFFFFFFFFFFFFFFFFFFFFFFFFFFFFFFFFFFFFFFFFFFF
310
F000FFFFFFFFFFFFFFFFFFFFFFFFFFFFFFFFFFFFFFFFFFFFFFFFFFFFFFFFFFFF
310
FFFFFFFFFFFFFFFFFFFFFFFFFFFFFFFFFFFFFFFFFFFFFFFFFFFFFFFFFFFFFFFF
310
FFFFFFFFFFFFFFFFFFFFFFFFFFFFFFFFFFFFFFFFFFFFFFFFF000FFFFFFFFFFFF
310
FFFFFFFFFFFFFFFFFFFFFFFFFFFFFFFFFFFFFFFFFFFFFFFFFFFFFFFFFFFFFFFF
310
FFFFFFFFFFFFFFFFFFFFFFFFFFFFFFFFFFFFFFFFFFFFFFFFFFFFFFFFFFFFFFFF
310
FFFFFFFFFFFFFFFFFFFFFFFFFFFFFFFFF000FFFFFFFFFFFFFFFFFFFFFFFFFFFF
310
FFFFFFFFFFFFFFFFFFFFFFFFFFFFFFFFFFFFFFFFFFFFFFFFFFFFFFFFFFFFFFFF
310
FFFFFFFFFFFFFFFFFFFFFFFFFFFFFFFFFFFFFFFFFFFFFFFFFFFFFFFFFFFFFFFF
310
FFFFFFFFFFFFFFFFF000FFFFFFFFFFFFFFFFFFFFFFFFFFFFFFFFFFFFFFFFFFFF
310
FFFFFFFFFFFFFFFFFFFFFFFFFFFFFFFFFFFFFFFFFFFFFFFFFFFFFFFFFFFFFFFF
310
FFFFFFFFFFFFFFFFFFFFFFFFFFFFFFFFFFFFFFFFFFFFFFFFFFFFFFFFFFFFFFFF
310
F000FFFFFFFFFFFFFFFFFFFFFFFFFFFFFFFFFFFFFFFFFFFFFFFFFFFFFFFFFFFF
310
FFFFFFFFFFFFFFFFFFFFFFFFFFFFFFFFFFFFFFFFFFFFFFFFFFFFFFFFFFFFFFFF
310
FFFFFFFFFFFFFFFFFFFFFFFFFFFFFFFFFFFFFFFFFFFFFFFFF000FFFFFFFFFFFF
310
FFFFFFFFFFFFFFFFFFFFFFFFFFFFFFFFFFFFFFFFFFFFFFFFFFFFFFFFFFFFFFFF
310
FFFFFFFFFFFFFFFFFFFFFFFFFFFFFFFFFFFFFFFFFFFFFFFFFFFFFFFFFFFFFFFF
310
FFFFFFFFFFFFFFFFFFFFFFFFFFFFFFFFF000FFFFFFFFFFFFFFFFFFFFFFFFFFFF
310
FFFFFFFFFFFFFFFFFFFFFFFFFFFFFFFFFFFFFFFFFFFFFFFFFFFFFFFFFFFFFFFF
310
FFFFFFFFFFFFFFFFFFFFFFFFFFFFFFFFFFFFFFFFFFFFFFFFFFFFFFFFFFFFFFFF
310
FFFFFFFFFFFFFFFFF000FFFFFFFFFFFFFFFFFFFFFFFFFFFFFFFFFFFFFFFFFFFF
310
FFFFFFFFFFFFFFFFFFFFFFFFFFFFFFFFFFFFFFFFFFFFFFFFFFFFFFFFFFFFFFFF
310
FFFFFFFFFFFFFFFFFFFFFFFFFFFFFFFFFFFFFFFFFFFFFFFFFFFFFFFFFFFFFFFF
310
F000FFFFFFFFFFFFFFFFFFFFFFFFFFFFFFFFFFFFFFFFFFFFFFFFFFFFFFFFFFFF
310
FFFFFFFFFFFFFFFFFFFFFFFFFFFFFFFFFFFFFFFFFFFFFFFFFFFFFFFFFFFFFFFF
310
FFFFFFFFFFFFFFFFFFFFFFFFFFFFFFFFFFFFFFFFFFFFFFFFF000FFFFFFFFFFFF
310
FFFFFFFFFFFFFFFFFFFFFFFFFFFFFFFFFFFFFFFFFFFFFFFFFFFFFFFFFFFFFFFF
310
FFFFFFFFFFFFFFFFFFFFFFFFFFFFFFFFFFFFFFFFFFFFFFFFFFFFFFFFFFFFFFFF
310
FFFFFFFFFFFFFFFFFFFFFFFFFFFFFFFFF000FFFFFFFFFFFFFFFFFFFFFFFFFFFF
310
FFFFFFFFFFFFFFFFFFFFFFFFFFFFFFFFFFFFFFFFFFFFFFFFFFFFFFFFFFFFFFFF
310
FFFFFFFFFFFFFFFFFFFFFFFFFFFFFFFFFFFFFFFFFFFFFFFFFFFFFFFFFFFFFFFF
310
FFFFFFFFFFFFFFFFF000FFFFFFFFFFFFFFFFFFFFFFFFFFFFFFFFFFFFFFFFFFFF
310
FFFFFFFFFFFFFFFFFFFFFFFFFFFFFFFFFFFFFFFFFFFFFFFFFFFFFFFFFFFFFFFF
310
FFFFFFFFFFFFFFFFFFFFFFFFFFFFFFFFFFFFFFFFFFFFFFFFFFFFFFFFFFFFFFFF
310
F000FFFFFFFFFFFFFFFFFFFFFFFFFFFFFFFFFFFFFFFFFFFFFFFFFFFFFFFFFFFF
310
FFFFFFFFFFFFFFFFFFFFFFFFFFFFFFFFFFFFFFFFFFFFFFFFFFFFFFFFFFFFFFFF
310
FFFFFFFFFFFFFFFFFFFFFFFFFFFFFFFFFFFFFFFFFFFFFFFFF000FFFFFFFFFFFF
310
FFFFFFFFFFFFFFFFFFFFFFFFFFFFFFFFFFFFFFFFFFFFFFFFFFFFFFFFFFFFFFFF
310
FFFFFFFFFFFFFFFFFFFFFFFFFFFFFFFFFFFFFFFFFFFFFFFFFFFFFFFFFFFFFFFF
310
FFFFFFFFFFFFFFFFFFFFFFFFFFFFFFFFF000FFFFFFFFFFFFFFFFFFFFFFFFFFFF
310
FFFFFFFFFFFFFFFFFFFFFFFFFFFFFFFFFFFFFFFFFFFFFFFFFFFFFFFFFFFFFFFF
310
FFFFFFFFFFFFFFFFFFFFFFFFFFFFFFFFFFFFFFFFFFFFFFFFFFFFFFFFFFFFFFFF
310
FFFFFFFFFFFFFFFFF000FFFFFFFFFFFFFFFFFFFFFFFFFFFFFFFFFFFFFFFFFFFF
310
FFFFFFFFFFFFFFFFFFFFFFFFFFFFFFFFFFFFFFFFFFFFFFFFFFFFFFFFFFFFFFFF
310
FFFFFFFFFFFFFFFFFFFFFFFFFFFFFFFFFFFFFFFFFFFFFFFFFFFFFFFFFFFFFFFF
310
F000FFFFFFFFFFFFFFFFFFFFFFFFFFFFFFFFFFFFFFFFFFFFFFFFFFFFFFFFFFFF
310
FFFFFFFFFFFFFFFFFFFFFFFFFFFFFFFFFFFFFFFFFFFFFFFFFFFFFFFFFFFFFFFF
310
FFFFFFFFFFFFFFFFFFFFFFFFFFFFFFFFFFFFFFFFFFFFFFFFF000FFFFFFFFFFFF
310
FFFFFFFFFFFFFFFFFFFFFFFFFFFFFFFFFFFFFFFFFFFFFFFFFFFFFFFFFFFFFFFF
310
FFFFFFFFFFFFFFFFFFFFFFFFFFFFFFFFFFFFFFFFFFFFFFFFFFFFFFFFFFFFFFFF
310
FFFFFFFFFFFFFFFFFFFFFFFFFFFFFFFFF000FFFFFFFFFFFFFFFFFFFFFFFFFFFF
310
FFFFFFFFFFFFFFFFFFFFFFFFFFFFFFFFFFFFFFFFFFFFFFFFFFFFFFFFFFFFFFFF
310
FFFFFFFFFFFFFFFFFFFFFFFFFFFFFFFFFFFFFFFFFFFFFFFFFFFFFFFFFFFFFFFF
310
FFFFFFFFFFFFFFFFF000FFFFFFFFFFFFFFFFFFFFFFFFFFFFFFFFFFFFFFFFFFFF
310
FFFFFFFFFFFFFFFFFFFFFFFFFFFFFFFFFFFFFFFFFFFFFFFFFFFFFFFFFFFFFFFF
310
FFFFFFFFFFFFFFFFFFFFFFFFFFFFFFFFFFFFFFFFFFFFFFFFFFFFFFFFFFFFFFFF
310
F000FFFFFFFFFFFFFFFFFFFFFFFFFFFFFFFFFFFFFFFFFFFFFFFFFFFFFFFFFFFF
310
FFFFFFFFFFFFFFFFFFFFFFFFFFFFFFFFFFFFFFFFFFFFFFFFFFFFFFFFFFFFFFFF
310
FFFFFFFFFFFFFFFFFFFFFFFFFFFFFFFFFFFFFFFFFFFFFFFFF000FFFFFFFFFFFF
310
FFFFFFFFFFFFFFFFFFFFFFFFFFFFFFFFFFFFFFFFFFFFFFFFFFFFFFFFFFFFFFFF
310
FFFFFFFFFFFFFFFFFFFFFFFFFFFFFFFFFFFFFFFFFFFFFFFFFFFFFFFFFFFFFFFF
310
FFFFFFFFFFFFFFFFFFFFFFFFFFFFFFFFF0000000000000000000000000000000
310
0000000000000000000000000000000000000000000000000000000000000000
310
0000000000000000000000000000000000000000000000000000000000000000
310
0000000000000000000000000000000000000000000000000000000000000000
310
0000000000000000000000000000000000000000000000000000000000000000
310
0000000000000000000000000000000000000000000000000000000000000000
310
0000000000000000000000000000000000000000000000000000000000000000
310
0000000000000000000000000000000000000000000000000000000000000000
310
0000000000000000000000000000000000000000000000000000000000000000
310
0000000000000000000000000000000000000000000000000000000000000000
310
0000000000000000000000000000000000000000000000000000000000000000
310
0000000000000000000000000000000000000000000000000000000000000000
310
0000000000000000000000000000000000000000000000000000000000000000
310
0000000000000000000000000000000000000000000000000000000000000000
310
0000000000000000000000000000000000000000000000000000000000000000
310
0000000000000000000000000000000000000000000000000000000000000000
  1
OLE
  0
ENDSEC
  0
SECTION
  2
OBJECTS
  0
DICTIONARY
  5
C
330
0
100
AcDbDictionary
281
     1
  3
ACAD_GROUP
350
D
  3
ACAD_LAYOUT
350
1A
  3
ACAD_MLINESTYLE
350
17
  3
ACAD_PLOTSETTINGS
350
19
  3
ACAD_PLOTSTYLENAME
350
E
  3
ACAD_SCALELIST
350
47
  0
DICTIONARY
  5
D
102
{ACAD_REACTORS
330
C
102
}
330
C
100
AcDbDictionary
281
     1
  0
DICTIONARY
  5
1A
102
{ACAD_REACTORS
330
C
102
}
330
C
100
AcDbDictionary
281
     1
  3
Layout1
350
1E
  3
Layout2
350
26
  3
Model
350
22
  0
DICTIONARY
  5
17
102
{ACAD_REACTORS
330
C
102
}
330
C
100
AcDbDictionary
281
     1
  3
Standard
350
18
  0
DICTIONARY
  5
19
102
{ACAD_REACTORS
330
C
102
}
330
C
100
AcDbDictionary
281
     1
  0
ACDBDICTIONARYWDFLT
  5
E
102
{ACAD_REACTORS
330
C
102
}
330
C
100
AcDbDictionary
281
     1
  3
Normal
350
F
100
AcDbDictionaryWithDefault
340
F
  0
DICTIONARY
  5
47
102
{ACAD_REACTORS
330
C
102
}
330
C
100
AcDbDictionary
281
     1
  3
A0
350
48
  3
A1
350
49
  3
A2
350
4A
  3
A3
350
4B
  3
A4
350
4C
  3
A5
350
4D
  3
A6
350
4E
  3
A7
350
4F
  3
A8
350
50
  3
A9
350
51
  3
B0
350
52
  3
B1
350
53
  3
B2
350
54
  3
B3
350
55
  3
B4
350
56
  3
B5
350
57
  3
B6
350
58
  3
B7
350
59
  3
B8
350
5A
  3
B9
350
5B
  3
C0
350
5C
  3
C1
350
5D
  3
C2
350
5E
  3
C3
350
5F
  3
C4
350
60
  3
C5
350
61
  3
C6
350
62
  3
C7
350
63
  3
C8
350
64
  3
C9
350
65
  3
D0
350
66
  3
D1
350
67
  3
D2
350
68
  0
LAYOUT
  5
1E
102
{ACAD_REACTORS
330
1A
102
}
330
1A
100
AcDbPlotSettings
  1

  2
none_device
  4

  6

 40
0.0
 41
0.0
 42
0.0
 43
0.0
 44
0.0
 45
0.0
 46
0.0
 47
0.0
 48
0.0
 49
0.0
140
0.0
141
0.0
142
1.0
143
1.0
 70
   688
 72
     1
 73
     0
 74
     5
  7

 75
    16
147
1.0
148
0.0
149
0.0
100
AcDbLayout
  1
Layout1
 70
     1
 71
     1
 10
0.0
 20
0.0
 11
420.0
 21
297.0
 12
0.0
 22
0.0
 32
0.0
 14
1.0000000000E+20
 24
1.0000000000E+20
 34
1.0000000000E+20
 15
-1.0000000000E+20
 25
-1.0000000000E+20
 35
-1.0000000000E+20
146
0.0
 13
0.0
 23
0.0
 33
0.0
 16
1.0
 26
0.0
 36
0.0
 17
0.0
 27
1.0
 37
0.0
 76
     0
330
1B
  0
LAYOUT
  5
26
102
{ACAD_REACTORS
330
1A
102
}
330
1A
100
AcDbPlotSettings
  1

  2
none_device
  4

  6

 40
0.0
 41
0.0
 42
0.0
 43
0.0
 44
0.0
 45
0.0
 46
0.0
 47
0.0
 48
0.0
 49
0.0
140
0.0
141
0.0
142
1.0
143
1.0
 70
   688
 72
     1
 73
     0
 74
     5
  7

 75
    16
147
1.0
148
0.0
149
0.0
100
AcDbLayout
  1
Layout2
 70
     1
 71
     2
 10
0.0
 20
0.0
 11
0.0
 21
0.0
 12
0.0
 22
0.0
 32
0.0
 14
0.0
 24
0.0
 34
0.0
 15
0.0
 25
0.0
 35
0.0
146
0.0
 13
0.0
 23
0.0
 33
0.0
 16
1.0
 26
0.0
 36
0.0
 17
0.0
 27
1.0
 37
0.0
 76
     0
330
23
  0
LAYOUT
  5
22
102
{ACAD_REACTORS
330
1A
102
}
330
1A
100
AcDbPlotSettings
  1

  2
none_device
  4
Letter_(8.50_x_11.00_Inches)
  6

 40
6.35
 41
6.35
 42
6.35000508
 43
6.35000508
 44
215.9
 45
279.4
 46
0.0
 47
0.0
 48
0.0
 49
0.0
140
0.0
141
0.0
142
1.0
143
1.0
 70
  1712
 72
     1
 73
     0
 74
     0
  7

 75
     0
147
1.0
148
0.0
149
0.0
100
AcDbLayout
  1
Model
 70
     1
 71
     0
 10
0.0
 20
0.0
 11
297.0
 21
210.0
 12
0.0
 22
0.0
 32
0.0
 14
0.0
 24
0.0
 34
0.0
 15
297.0
 25
210.0
 35
0.0
146
0.0
 13
0.0
 23
0.0
 33
0.0
 16
1.0
 26
0.0
 36
0.0
 17
0.0
 27
1.0
 37
0.0
 76
     0
330
1F
331
29
  0
MLINESTYLE
  5
18
102
{ACAD_REACTORS
330
17
102
}
330
17
100
AcDbMlineStyle
  2
Standard
 70
     0
  3

 62
   256
 51
90.0
 52
90.0
 71
     2
 49
0.5
 62
   256
  6
BYLAYER
 49
-0.5
 62
   256
  6
BYLAYER
  0
ACDBPLACEHOLDER
  5
F
102
{ACAD_REACTORS
330
E
102
}
330
E
  0
SCALE
  5
48
102
{ACAD_REACTORS
330
47
102
}
330
47
100
AcDbScale
 70
     0
300
1:1
140
1.0
141
1.0
290
     1
  0
SCALE
  5
49
102
{ACAD_REACTORS
330
47
102
}
330
47
100
AcDbScale
 70
     0
300
1:2
140
1.0
141
2.0
290
     0
  0
SCALE
  5
4A
102
{ACAD_REACTORS
330
47
102
}
330
47
100
AcDbScale
 70
     0
300
1:4
140
1.0
141
4.0
290
     0
  0
SCALE
  5
4B
102
{ACAD_REACTORS
330
47
102
}
330
47
100
AcDbScale
 70
     0
300
1:5
140
1.0
141
5.0
290
     0
  0
SCALE
  5
4C
102
{ACAD_REACTORS
330
47
102
}
330
47
100
AcDbScale
 70
     0
300
1:8
140
1.0
141
8.0
290
     0
  0
SCALE
  5
4D
102
{ACAD_REACTORS
330
47
102
}
330
47
100
AcDbScale
 70
     0
300
1:10
140
1.0
141
10.0
290
     0
  0
SCALE
  5
4E
102
{ACAD_REACTORS
330
47
102
}
330
47
100
AcDbScale
 70
     0
300
1:16
140
1.0
141
16.0
290
     0
  0
SCALE
  5
4F
102
{ACAD_REACTORS
330
47
102
}
330
47
100
AcDbScale
 70
     0
300
1:20
140
1.0
141
20.0
290
     0
  0
SCALE
  5
50
102
{ACAD_REACTORS
330
47
102
}
330
47
100
AcDbScale
 70
     0
300
1:30
140
1.0
141
30.0
290
     0
  0
SCALE
  5
51
102
{ACAD_REACTORS
330
47
102
}
330
47
100
AcDbScale
 70
     0
300
1:40
140
1.0
141
40.0
290
     0
  0
SCALE
  5
52
102
{ACAD_REACTORS
330
47
102
}
330
47
100
AcDbScale
 70
     0
300
1:50
140
1.0
141
50.0
290
     0
  0
SCALE
  5
53
102
{ACAD_REACTORS
330
47
102
}
330
47
100
AcDbScale
 70
     0
300
1:100
140
1.0
141
100.0
290
     0
  0
SCALE
  5
54
102
{ACAD_REACTORS
330
47
102
}
330
47
100
AcDbScale
 70
     0
300
2:1
140
2.0
141
1.0
290
     0
  0
SCALE
  5
55
102
{ACAD_REACTORS
330
47
102
}
330
47
100
AcDbScale
 70
     0
300
4:1
140
4.0
141
1.0
290
     0
  0
SCALE
  5
56
102
{ACAD_REACTORS
330
47
102
}
330
47
100
AcDbScale
 70
     0
300
8:1
140
8.0
141
1.0
290
     0
  0
SCALE
  5
57
102
{ACAD_REACTORS
330
47
102
}
330
47
100
AcDbScale
 70
     0
300
10:1
140
10.0
141
1.0
290
     0
  0
SCALE
  5
58
102
{ACAD_REACTORS
330
47
102
}
330
47
100
AcDbScale
 70
     0
300
100:1
140
100.0
141
1.0
290
     0
  0
SCALE
  5
59
102
{ACAD_REACTORS
330
47
102
}
330
47
100
AcDbScale
 70
     0
300
1/128" = 1'-0"
140
0.0078125
141
12.0
290
     0
  0
SCALE
  5
5A
102
{ACAD_REACTORS
330
47
102
}
330
47
100
AcDbScale
 70
     0
300
1/64" = 1'-0"
140
0.015625
141
12.0
290
     0
  0
SCALE
  5
5B
102
{ACAD_REACTORS
330
47
102
}
330
47
100
AcDbScale
 70
     0
300
1/32" = 1'-0"
140
0.03125
141
12.0
290
     0
  0
SCALE
  5
5C
102
{ACAD_REACTORS
330
47
102
}
330
47
100
AcDbScale
 70
     0
300
1/16" = 1'-0"
140
0.0625
141
12.0
290
     0
  0
SCALE
  5
5D
102
{ACAD_REACTORS
330
47
102
}
330
47
100
AcDbScale
 70
     0
300
3/32" = 1'-0"
140
0.09375
141
12.0
290
     0
  0
SCALE
  5
5E
102
{ACAD_REACTORS
330
47
102
}
330
47
100
AcDbScale
 70
     0
300
1/8" = 1'-0"
140
0.125
141
12.0
290
     0
  0
SCALE
  5
5F
102
{ACAD_REACTORS
330
47
102
}
330
47
100
AcDbScale
 70
     0
300
3/16" = 1'-0"
140
0.1875
141
12.0
290
     0
  0
SCALE
  5
60
102
{ACAD_REACTORS
330
47
102
}
330
47
100
AcDbScale
 70
     0
300
1/4" = 1'-0"
140
0.25
141
12.0
290
     0
  0
SCALE
  5
61
102
{ACAD_REACTORS
330
47
102
}
330
47
100
AcDbScale
 70
     0
300
3/8" = 1'-0"
140
0.375
141
12.0
290
     0
  0
SCALE
  5
62
102
{ACAD_REACTORS
330
47
102
}
330
47
100
AcDbScale
 70
     0
300
1/2" = 1'-0"
140
0.5
141
12.0
290
     0
  0
SCALE
  5
63
102
{ACAD_REACTORS
330
47
102
}
330
47
100
AcDbScale
 70
     0
300
3/4" = 1'-0"
140
0.75
141
12.0
290
     0
  0
SCALE
  5
64
102
{ACAD_REACTORS
330
47
102
}
330
47
100
AcDbScale
 70
     0
300
1" = 1'-0"
140
1.0
141
12.0
290
     0
  0
SCALE
  5
65
102
{ACAD_REACTORS
330
47
102
}
330
47
100
AcDbScale
 70
     0
300
1-1/2" = 1'-0"
140
1.5
141
12.0
290
     0
  0
SCALE
  5
66
102
{ACAD_REACTORS
330
47
102
}
330
47
100
AcDbScale
 70
     0
300
3" = 1'-0"
140
3.0
141
12.0
290
     0
  0
SCALE
  5
67
102
{ACAD_REACTORS
330
47
102
}
330
47
100
AcDbScale
 70
     0
300
6" = 1'-0"
140
6.0
141
12.0
290
     0
  0
SCALE
  5
68
102
{ACAD_REACTORS
330
47
102
}
330
47
100
AcDbScale
 70
     0
300
1'-0" = 1'-0"
140
12.0
141
12.0
290
     0
  0
ENDSEC
  0
EOF
