  0
SECTION
  2
HEADER
  9
$ACADVER
  1
AC1015
  9
$ACADMAINTVER
 70
     6
  9
$DWGCODEPAGE
  3
ANSI_1252
  9
$INSBASE
 10
0.0
 20
0.0
 30
0.0
  9
$EXTMIN
 10
0.0
 20
0.0
 30
0.0
  9
$EXTMAX
 10
297.0
 20
210.0
 30
0.0
  9
$LIMMIN
 10
0.0
 20
0.0
  9
$LIMMAX
 10
297.0
 20
210.0
  9
$ORTHOMODE
 70
     0
  9
$REGENMODE
 70
     1
  9
$FILLMODE
 70
     1
  9
$QTEXTMODE
 70
     0
  9
$MIRRTEXT
 70
     1
  9
$LTSCALE
 40
1.0
  9
$ATTMODE
 70
     1
  9
$TEXTSIZE
 40
2.0
  9
$TRACEWID
 40
1.0
  9
$TEXTSTYLE
  7
Standard
  9
$CLAYER
  8
0
  9
$CELTYPE
  6
ByLayer
  9
$CECOLOR
 62
   256
  9
$CELTSCALE
 40
1.0
  9
$DISPSILH
 70
     0
  9
$DIMSCALE
 40
1.0
  9
$DIMASZ
 40
3.0
  9
$DIMEXO
 40
0.0
  9
$DIMDLI
 40
3.75
  9
$DIMRND
 40
0.0
  9
$DIMDLE
 40
0.0
  9
$DIMEXE
 40
1.0
  9
$DIMTP
 40
0.0
  9
$DIMTM
 40
0.0
  9
$DIMTXT
 40
2.0
  9
$DIMCEN
 40
2.5
  9
$DIMTSZ
 40
0.0
  9
$DIMTOL
 70
     0
  9
$DIMLIM
 70
     0
  9
$DIMTIH
 70
     1
  9
$DIMTOH
 70
     1
  9
$DIMSE1
 70
     0
  9
$DIMSE2
 70
     0
  9
$DIMTAD
 70
     1
  9
$DIMZIN
 70
     0
  9
$DIMBLK
  1

  9
$DIMASO
 70
     1
  9
$DIMSHO
 70
     1
  9
$DIMPOST
  1

  9
$DIMAPOST
  1

  9
$DIMALT
 70
     0
  9
$DIMALTD
 70
     3
  9
$DIMALTF
 40
0.0393700787
  9
$DIMLFAC
 40
1.0
  9
$DIMTOFL
 70
     1
  9
$DIMTVP
 40
0.0
  9
$DIMTIX
 70
     0
  9
$DIMSOXD
 70
     0
  9
$DIMSAH
 70
     0
  9
$DIMBLK1
  1

  9
$DIMBLK2
  1

  9
$DIMSTYLE
  2
ISO-25
  9
$DIMCLRD
 70
     0
  9
$DIMCLRE
 70
     0
  9
$DIMCLRT
 70
     0
  9
$DIMTFAC
 40
1.0
  9
$DIMGAP
 40
1.524
  9
$DIMJUST
 70
     0
  9
$DIMSD1
 70
     0
  9
$DIMSD2
 70
     0
  9
$DIMTOLJ
 70
     0
  9
$DIMTZIN
 70
     0
  9
$DIMALTZ
 70
     0
  9
$DIMALTTZ
 70
     0
  9
$DIMUPT
 70
     0
  9
$DIMDEC
 70
     2
  9
$DIMTDEC
 70
     3
  9
$DIMALTU
 70
     2
  9
$DIMALTTD
 70
     3
  9
$DIMTXSTY
  7
Standard
  9
$DIMAUNIT
 70
     0
  9
$DIMADEC
 70
     2
  9
$DIMALTRND
 40
0.0
  9
$DIMAZIN
 70
     0
  9
$DIMDSEP
 70
    44
  9
$DIMATFIT
 70
     3
  9
$DIMFRAC
 70
     0
  9
$DIMLDRBLK
  1

  9
$DIMLUNIT
 70
     2
  9
$DIMLWD
 70
    -2
  9
$DIMLWE
 70
    -2
  9
$DIMTMOVE
 70
     0
  9
$LUNITS
 70
     2
  9
$LUPREC
 70
     2
  9
$SKETCHINC
 40
1.0
  9
$FILLETRAD
 40
10.0
  9
$AUNITS
 70
     0
  9
$AUPREC
 70
     2
  9
$MENU
  1
.
  9
$ELEVATION
 40
0.0
  9
$PELEVATION
 40
0.0
  9
$THICKNESS
 40
0.0
  9
$LIMCHECK
 70
     0
  9
$CHAMFERA
 40
0.0
  9
$CHAMFERB
 40
0.0
  9
$CHAMFERC
 40
0.0
  9
$CHAMFERD
 40
0.0
  9
$SKPOLY
 70
     0
  9
$TDCREATE
 40
2457716.671796609
  9
$TDUCREATE
 40
2457716.630129942
  9
$TDUPDATE
 40
2457716.671797789
  9
$TDUUPDATE
 40
2457716.630131123
  9
$TDINDWG
 40
0.0000000116
  9
$TDUSRTIMER
 40
0.0000000116
  9
$USRTIMER
 70
     1
  9
$ANGBASE
 50
0.0
  9
$ANGDIR
 70
     0
  9
$PDMODE
 70
     0
  9
$PDSIZE
 40
-1.0
  9
$PLINEWID
 40
0.0
  9
$SPLFRAME
 70
     0
  9
$SPLINETYPE
 70
     6
  9
$SPLINESEGS
 70
     8
  9
$HANDSEED
  5
21D
  9
$SURFTAB1
 70
     6
  9
$SURFTAB2
 70
     6
  9
$SURFTYPE
 70
     6
  9
$SURFU
 70
     6
  9
$SURFV
 70
     6
  9
$UCSBASE
  2

  9
$UCSNAME
  2

  9
$UCSORG
 10
0.0
 20
0.0
 30
0.0
  9
$UCSXDIR
 10
1.0
 20
0.0
 30
0.0
  9
$UCSYDIR
 10
0.0
 20
1.0
 30
0.0
  9
$UCSORTHOREF
  2

  9
$UCSORTHOVIEW
 70
     0
  9
$UCSORGTOP
 10
0.0
 20
0.0
 30
0.0
  9
$UCSORGBOTTOM
 10
0.0
 20
0.0
 30
0.0
  9
$UCSORGLEFT
 10
0.0
 20
0.0
 30
0.0
  9
$UCSORGRIGHT
 10
0.0
 20
0.0
 30
0.0
  9
$UCSORGFRONT
 10
0.0
 20
0.0
 30
0.0
  9
$UCSORGBACK
 10
0.0
 20
0.0
 30
0.0
  9
$PUCSBASE
  2

  9
$PUCSNAME
  2

  9
$PUCSORG
 10
0.0
 20
0.0
 30
0.0
  9
$PUCSXDIR
 10
1.0
 20
0.0
 30
0.0
  9
$PUCSYDIR
 10
0.0
 20
1.0
 30
0.0
  9
$PUCSORTHOREF
  2

  9
$PUCSORTHOVIEW
 70
     0
  9
$PUCSORGTOP
 10
0.0
 20
0.0
 30
0.0
  9
$PUCSORGBOTTOM
 10
0.0
 20
0.0
 30
0.0
  9
$PUCSORGLEFT
 10
0.0
 20
0.0
 30
0.0
  9
$PUCSORGRIGHT
 10
0.0
 20
0.0
 30
0.0
  9
$PUCSORGFRONT
 10
0.0
 20
0.0
 30
0.0
  9
$PUCSORGBACK
 10
0.0
 20
0.0
 30
0.0
  9
$USERI1
 70
     0
  9
$USERI2
 70
     0
  9
$USERI3
 70
     0
  9
$USERI4
 70
     0
  9
$USERI5
 70
     0
  9
$USERR1
 40
0.0
  9
$USERR2
 40
0.0
  9
$USERR3
 40
0.0
  9
$USERR4
 40
0.0
  9
$USERR5
 40
0.0
  9
$WORLDVIEW
 70
     1
  9
$SHADEDGE
 70
     3
  9
$SHADEDIF
 70
    70
  9
$TILEMODE
 70
     1
  9
$MAXACTVP
 70
    64
  9
$PINSBASE
 10
0.0
 20
0.0
 30
0.0
  9
$PLIMCHECK
 70
     0
  9
$PEXTMIN
 10
1.0000000000E+20
 20
1.0000000000E+20
 30
1.0000000000E+20
  9
$PEXTMAX
 10
-1.0000000000E+20
 20
-1.0000000000E+20
 30
-1.0000000000E+20
  9
$PLIMMIN
 10
0.0
 20
0.0
  9
$PLIMMAX
 10
420.0
 20
297.0
  9
$UNITMODE
 70
     0
  9
$VISRETAIN
 70
     1
  9
$PLINEGEN
 70
     0
  9
$PSLTSCALE
 70
     1
  9
$TREEDEPTH
 70
  3020
  9
$CMLSTYLE
  2
Standard
  9
$CMLJUST
 70
     0
  9
$CMLSCALE
 40
20.0
  9
$PROXYGRAPHICS
 70
     1
  9
$MEASUREMENT
 70
     1
  9
$CELWEIGHT
370
    -1
  9
$ENDCAPS
280
     0
  9
$JOINSTYLE
280
     0
  9
$LWDISPLAY
290
     1
  9
$INSUNITS
 70
     4
  9
$HYPERLINKBASE
  1

  9
$STYLESHEET
  1

  9
$XEDIT
290
     1
  9
$CEPSNTYPE
380
     0
  9
$PSTYLEMODE
290
     1
  9
$FINGERPRINTGUID
  2
{D489F200-4D7F-4CE5-AB2F-DC750D6DCA72}
  9
$VERSIONGUID
  2
{FAEB1C32-E019-11D5-929B-00C0DF256EC4}
  9
$EXTNAMES
290
     1
  9
$PSVPSCALE
 40
0.0
  9
$OLESTARTUP
290
     0
  0
ENDSEC
  0
SECTION
  2
CLASSES
  0
CLASS
  1
ACDBDICTIONARYWDFLT
  2
AcDbDictionaryWithDefault
  3
ObjectDBX Classes
 90
        0
280
     0
281
     0
  0
CLASS
  1
VISUALSTYLE
  2
AcDbVisualStyle
  3
ObjectDBX Classes
 90
     4095
280
     0
281
     0
  0
CLASS
  1
MATERIAL
  2
AcDbMaterial
  3
ObjectDBX Classes
 90
     1153
280
     0
281
     0
  0
CLASS
  1
SCALE
  2
AcDbScale
  3
ObjectDBX Classes
 90
     1153
280
     0
281
     0
  0
CLASS
  1
TABLESTYLE
  2
AcDbTableStyle
  3
ObjectDBX Classes
 90
     4095
280
     0
281
     0
  0
CLASS
  1
MLEADERSTYLE
  2
AcDbMLeaderStyle
  3
ACDB_MLEADERSTYLE_CLASS
 90
     4095
280
     0
281
     0
  0
CLASS
  1
SUN
  2
AcDbSun
  3
SCENEOE
 90
     1153
280
     0
281
     0
  0
CLASS
  1
ACDBPLACEHOLDER
  2
AcDbPlaceHolder
  3
ObjectDBX Classes
 90
        0
280
     0
281
     0
  0
CLASS
  1
LAYOUT
  2
AcDbLayout
  3
ObjectDBX Classes
 90
        0
280
     0
281
     0
  0
ENDSEC
  0
SECTION
  2
TABLES
  0
TABLE
  2
VPORT
  5
8
330
0
100
AcDbSymbolTable
 70
     1
  0
VPORT
  5
29
330
8
100
AcDbSymbolTableRecord
100
AcDbViewportTableRecord
  2
*Active
 70
     0
 10
0.0
 20
0.0
 11
1.0
 21
1.0
 12
148.5
 22
105.0
 13
0.0
 23
0.0
 14
10.0
 24
10.0
 15
10.0
 25
10.0
 16
0.0
 26
0.0
 36
1.0
 17
0.0
 27
0.0
 37
0.0
 40
210.0
 41
1.4142857143
 42
50.0
 43
0.0
 44
0.0
 50
0.0
 51
0.0
 71
     0
 72
  2000
 73
     1
 74
     3
 75
     0
 76
     0
 77
     0
 78
     0
281
     0
 65
     1
110
0.0
120
0.0
130
0.0
111
1.0
121
0.0
131
0.0
112
0.0
122
1.0
132
0.0
 79
     0
146
0.0
  0
ENDTAB
  0
TABLE
  2
LTYPE
  5
5
330
0
100
AcDbSymbolTable
 70
     6
  0
LTYPE
  5
14
330
5
100
AcDbSymbolTableRecord
100
AcDbLinetypeTableRecord
  2
ByBlock
 70
     0
  3

 72
    65
 73
     0
 40
0.0
  0
LTYPE
  5
15
330
5
100
AcDbSymbolTableRecord
100
AcDbLinetypeTableRecord
  2
ByLayer
 70
     0
  3

 72
    65
 73
     0
 40
0.0
  0
LTYPE
  5
16
330
5
100
AcDbSymbolTableRecord
100
AcDbLinetypeTableRecord
  2
Continuous
 70
     0
  3
Solid line
 72
    65
 73
     0
 40
0.0
  0
LTYPE
  5
6E
330
5
100
AcDbSymbolTableRecord
100
AcDbLinetypeTableRecord
  2
HIDDEN
 70
     0
  3
Hidden __ __ __ __ __ __ __ __ __ __ __ __ __ __
 72
    65
 73
     2
 40
1.905
 49
1.27
 74
     0
 49
-0.635
 74
     0
  0
LTYPE
  5
6F
330
5
100
AcDbSymbolTableRecord
100
AcDbLinetypeTableRecord
  2
PHANTOM
 70
     0
  3
Phantom ______  __  __  ______  __  __  ______
 72
    65
 73
     6
 40
12.7
 49
6.35
 74
     0
 49
-1.27
 74
     0
 49
1.27
 74
     0
 49
-1.27
 74
     0
 49
1.27
 74
     0
 49
-1.27
 74
     0
  0
LTYPE
  5
70
330
5
100
AcDbSymbolTableRecord
100
AcDbLinetypeTableRecord
  2
CENTER
 70
     0
  3
Center ____ _ ____ _ ____ _ ____ _ ____ _ ____
 72
    65
 73
     4
 40
10.16
 49
6.35
 74
     0
 49
-1.27
 74
     0
 49
1.27
 74
     0
 49
-1.27
 74
     0
  0
LTYPE
  5
71
330
5
100
AcDbSymbolTableRecord
100
AcDbLinetypeTableRecord
  2
CENTERX2
 70
     0
  3
Center (2x) ________  __  ________  __  _____
 72
    65
 73
     4
 40
20.32
 49
12.7
 74
     0
 49
-2.54
 74
     0
 49
2.54
 74
     0
 49
-2.54
 74
     0
  0
LTYPE
  5
72
330
5
100
AcDbSymbolTableRecord
100
AcDbLinetypeTableRecord
  2
DOT2
 70
     0
  3
Dot (.5x) ........................................
 72
    65
 73
     2
 40
0.635
 49
0.0
 74
     0
 49
-0.635
 74
     0
  0
ENDTAB
  0
TABLE
  2
LAYER
  5
2
330
0
100
AcDbSymbolTable
 70
     5
  0
LAYER
  5
10
330
2
100
AcDbSymbolTableRecord
100
AcDbLayerTableRecord
  2
0
 70
     0
 62
     7
  6
Continuous
370
    -3
390
F
  0
LAYER
  5
73
330
2
100
AcDbSymbolTableRecord
100
AcDbLayerTableRecord
  2
FORMAT
 70
     0
 62
     7
  6
Continuous
370
    -3
390
F
  0
LAYER
  5
74
330
2
100
AcDbSymbolTableRecord
100
AcDbLayerTableRecord
  2
VERMASSUNG
 70
     0
 62
     7
  6
Continuous
370
    -3
390
F
  0
LAYER
  5
75
330
2
100
AcDbSymbolTableRecord
100
AcDbLayerTableRecord
  2
KOPF_DÜNN
 70
     0
 62
     7
  6
Continuous
370
    -3
390
F
  0
LAYER
  5
76
330
2
100
AcDbSymbolTableRecord
100
AcDbLayerTableRecord
  2
KOPF_DICK
 70
     0
 62
     7
  6
Continuous
370
    15
390
F
  0
ENDTAB
  0
TABLE
  2
STYLE
  5
3
330
0
100
AcDbSymbolTable
 70
     2
  0
STYLE
  5
11
330
3
100
AcDbSymbolTableRecord
100
AcDbTextStyleTableRecord
  2
Standard
 70
     0
 40
0.0
 41
1.0
 50
0.0
 71
     0
 42
2.0
  3
txt
  4

  0
STYLE
  5
77
330
3
100
AcDbSymbolTableRecord
100
AcDbTextStyleTableRecord
  2
SLDTEXTSTYLE0
 70
     0
 40
0.0
 41
0.7
 50
0.0
 71
     0
 42
2.0
  3
TXT
  4

  0
ENDTAB
  0
TABLE
  2
VIEW
  5
6
330
0
100
AcDbSymbolTable
 70
     0
  0
ENDTAB
  0
TABLE
  2
UCS
  5
7
330
0
100
AcDbSymbolTable
 70
     0
  0
ENDTAB
  0
TABLE
  2
APPID
  5
9
330
0
100
AcDbSymbolTable
 70
     1
  0
APPID
  5
12
330
9
100
AcDbSymbolTableRecord
100
AcDbRegAppTableRecord
  2
ACAD
 70
     0
  0
ENDTAB
  0
TABLE
  2
DIMSTYLE
  5
A
330
0
100
AcDbSymbolTable
 70
     5
100
AcDbDimStyleTable
  0
DIMSTYLE
105
27
330
A
100
AcDbSymbolTableRecord
100
AcDbDimStyleTableRecord
  2
ISO-25
 70
     0
 41
2.5
 42
0.625
 43
3.75
 44
1.25
 73
     0
 74
     0
 77
     1
 78
     8
140
2.5
141
2.5
143
0.0393700787
147
0.625
171
     3
172
     1
178
     0
271
     2
272
     2
274
     3
278
    44
283
     0
284
     8
340
11
  0
DIMSTYLE
105
1A5
102
{ACAD_REACTORS
330
1A4
330
1D1
102
}
330
A
100
AcDbSymbolTableRecord
100
AcDbDimStyleTableRecord
  2
SLDDIMSTYLE0
 70
     0
 41
3.0
 44
0.0
 45
0.000000001
 73
     0
 74
     0
 77
     1
 78
    12
 79
     3
140
2.0
147
0.5
173
     1
178
     0
271
     2
272
     3
276
     2
284
    12
340
77
  0
DIMSTYLE
105
1B0
102
{ACAD_REACTORS
330
1AF
330
1BC
102
}
330
A
100
AcDbSymbolTableRecord
100
AcDbDimStyleTableRecord
  2
SLDDIMSTYLE1
 70
     0
 41
3.0
 44
0.0
 45
0.000000001
 47
0.1
 48
0.1
 71
     1
 73
     0
 74
     0
 77
     1
 78
    12
 79
     3
140
2.0
147
0.5
173
     1
178
     0
271
     2
272
     1
276
     2
284
     8
340
77
  0
DIMSTYLE
105
1C9
102
{ACAD_REACTORS
330
1C8
102
}
330
A
100
AcDbSymbolTableRecord
100
AcDbDimStyleTableRecord
  2
SLDDIMSTYLE2
 70
     0
 41
3.0
 44
0.0
 73
     0
 74
     0
 77
     1
 78
    12
 79
     3
140
2.0
147
0.5
173
     1
178
     0
179
     2
272
     3
276
     2
284
    12
340
77
  0
DIMSTYLE
105
202
102
{ACAD_REACTORS
330
201
102
}
330
A
100
AcDbSymbolTableRecord
100
AcDbDimStyleTableRecord
  2
SLDDIMSTYLE3
 70
     0
 41
3.0
 44
0.0
 45
0.000000001
 73
     0
 74
     0
 77
     1
 78
    12
 79
     3
140
2.0
147
0.5
172
     1
173
     1
178
     0
271
     2
272
     3
276
     2
284
     8
289
     0
340
77
  0
ENDTAB
  0
TABLE
  2
BLOCK_RECORD
  5
1
330
0
100
AcDbSymbolTable
 70
     8
  0
BLOCK_RECORD
  5
1F
330
1
100
AcDbSymbolTableRecord
100
AcDbBlockTableRecord
  2
*Model_Space
340
22
  0
BLOCK_RECORD
  5
1B
330
1
100
AcDbSymbolTableRecord
100
AcDbBlockTableRecord
  2
*Paper_Space
340
1E
  0
BLOCK_RECORD
  5
23
330
1
100
AcDbSymbolTableRecord
100
AcDbBlockTableRecord
  2
*Paper_Space0
340
26
  0
BLOCK_RECORD
  5
1A6
330
1
100
AcDbSymbolTableRecord
100
AcDbBlockTableRecord
  2
_D
340
0
  0
BLOCK_RECORD
  5
1B1
330
1
100
AcDbSymbolTableRecord
100
AcDbBlockTableRecord
  2
_D_1
340
0
  0
BLOCK_RECORD
  5
1BD
330
1
100
AcDbSymbolTableRecord
100
AcDbBlockTableRecord
  2
_D_2
340
0
  0
BLOCK_RECORD
  5
1CA
330
1
100
AcDbSymbolTableRecord
100
AcDbBlockTableRecord
  2
_D_3
340
0
  0
BLOCK_RECORD
  5
1D2
330
1
100
AcDbSymbolTableRecord
100
AcDbBlockTableRecord
  2
_D_4
340
0
  0
BLOCK_RECORD
  5
203
330
1
100
AcDbSymbolTableRecord
100
AcDbBlockTableRecord
  2
_D_5
340
0
  0
BLOCK_RECORD
  5
210
330
1
100
AcDbSymbolTableRecord
100
AcDbBlockTableRecord
  2
SW_CENTERMARKSYMBOL_0
340
0
102
{BLKREFS
331
21B
102
}
  0
ENDTAB
  0
ENDSEC
  0
SECTION
  2
BLOCKS
  0
BLOCK
  5
20
330
1F
100
AcDbEntity
  8
0
100
AcDbBlockBegin
  2
*Model_Space
 70
     0
 10
0.0
 20
0.0
 30
0.0
  3
*Model_Space
  1

  0
ENDBLK
  5
21
330
1F
100
AcDbEntity
  8
0
100
AcDbBlockEnd
  0
BLOCK
  5
1C
330
1B
100
AcDbEntity
 67
     1
  8
0
100
AcDbBlockBegin
  2
*Paper_Space
 70
     0
 10
0.0
 20
0.0
 30
0.0
  3
*Paper_Space
  1

  0
ENDBLK
  5
1D
330
1B
100
AcDbEntity
 67
     1
  8
0
100
AcDbBlockEnd
  0
BLOCK
  5
24
330
23
100
AcDbEntity
  8
0
100
AcDbBlockBegin
  2
*Paper_Space0
 70
     0
 10
0.0
 20
0.0
 30
0.0
  3
*Paper_Space0
  1

  0
ENDBLK
  5
25
330
23
100
AcDbEntity
  8
0
100
AcDbBlockEnd
  0
BLOCK
  5
1A7
330
1A6
100
AcDbEntity
  8
0
100
AcDbBlockBegin
  2
_D
 70
     0
 10
0.0
 20
0.0
 30
0.0
  3
_D
  1

  0
SOLID
  5
1A9
330
1A6
100
AcDbEntity
  8
VERMASSUNG
100
AcDbTrace
 10
153.1942910102
 20
60.4079819194
 30
0.0
 11
156.1942910102
 21
59.9579819194
 31
0.0
 12
156.1942910102
 22
60.8579819194
 32
0.0
 13
156.1942910102
 23
60.8579819194
 33
0.0
  0
SOLID
  5
1AA
330
1A6
100
AcDbEntity
  8
VERMASSUNG
100
AcDbTrace
 10
243.1942910102
 20
60.4079819194
 30
0.0
 11
240.1942910102
 21
60.8579819194
 31
0.0
 12
240.1942910102
 22
59.9579819194
 32
0.0
 13
240.1942910102
 23
59.9579819194
 33
0.0
  0
LINE
  5
1AB
330
1A6
100
AcDbEntity
  8
VERMASSUNG
100
AcDbLine
 10
153.1942910102
 20
99.4210139017
 30
0.0
 11
153.1942910102
 21
59.4079819194
 31
0.0
  0
LINE
  5
1AC
330
1A6
100
AcDbEntity
  8
VERMASSUNG
100
AcDbLine
 10
243.1942910102
 20
80.4143397399
 30
0.0
 11
243.1942910102
 21
59.4079819194
 31
0.0
  0
LINE
  5
1AD
330
1A6
100
AcDbEntity
  8
VERMASSUNG
100
AcDbLine
 10
153.1942910102
 20
60.4079819194
 30
0.0
 11
243.1942910102
 21
60.4079819194
 31
0.0
  0
MTEXT
  5
1AE
330
1A6
100
AcDbEntity
  8
VERMASSUNG
100
AcDbMText
 10
196.7942910602
 20
62.9861175154
 30
0.0
 40
2.0
 41
0.0
 71
     1
 72
     1
  1
90
  7
SLDTEXTSTYLE0
 73
     1
 44
1.0
  0
ENDBLK
  5
1A8
330
1A6
100
AcDbEntity
  8
0
100
AcDbBlockEnd
  0
BLOCK
  5
1B2
330
1B1
100
AcDbEntity
  8
0
100
AcDbBlockBegin
  2
_D_1
 70
     0
 10
0.0
 20
0.0
 30
0.0
  3
_D_1
  1

  0
SOLID
  5
1B4
330
1B1
100
AcDbEntity
  8
VERMASSUNG
100
AcDbTrace
 10
260.2647845253
 20
80.4143397399
 30
0.0
 11
260.7147845253
 21
83.4143397399
 31
0.0
 12
259.8147845253
 22
83.4143397399
 32
0.0
 13
259.8147845253
 23
83.4143397399
 33
0.0
  0
SOLID
  5
1B5
330
1B1
100
AcDbEntity
  8
VERMASSUNG
100
AcDbTrace
 10
260.2647845253
 20
115.4143397399
 30
0.0
 11
259.8147845253
 21
112.4143397399
 31
0.0
 12
260.7147845253
 22
112.4143397399
 32
0.0
 13
260.7147845253
 23
112.4143397399
 33
0.0
  0
LINE
  5
1B6
330
1B1
100
AcDbEntity
  8
VERMASSUNG
100
AcDbLine
 10
243.1942910102
 20
80.4143397399
 30
0.0
 11
261.2647845253
 21
80.4143397399
 31
0.0
  0
LINE
  5
1B7
330
1B1
100
AcDbEntity
  8
VERMASSUNG
100
AcDbLine
 10
243.1942910102
 20
115.4143397399
 30
0.0
 11
261.2647845253
 21
115.4143397399
 31
0.0
  0
LINE
  5
1B8
330
1B1
100
AcDbEntity
  8
VERMASSUNG
100
AcDbLine
 10
260.2647845253
 20
80.4143397399
 30
0.0
 11
260.2647845253
 21
115.4143397399
 31
0.0
  0
MTEXT
  5
1B9
330
1B1
100
AcDbEntity
  8
VERMASSUNG
100
AcDbMText
 10
257.6866489293
 20
94.2643396538
 30
0.0
 40
2.0
 41
0.0
 71
     1
 72
     1
  1
35
  7
SLDTEXTSTYLE0
 11
6.123233995736766E-17
 21
1.0
 31
0.0
 73
     1
 44
1.0
  0
MTEXT
  5
1BA
330
1B1
100
AcDbEntity
  8
VERMASSUNG
100
AcDbMText
 10
257.6866489293
 20
98.251839554
 30
0.0
 40
2.0
 41
0.0
 71
     1
 72
     1
  1

  7
SLDTEXTSTYLE0
 11
6.123233995736766E-17
 21
1.0
 31
0.0
 73
     1
 44
1.0
  0
MTEXT
  5
1BB
330
1B1
100
AcDbEntity
  8
VERMASSUNG
100
AcDbMText
 10
258.181182763
 20
98.2643393781
 30
0.0
 40
1.5
 41
0.0
 71
     1
 72
     1
  1
±0.1
  7
SLDTEXTSTYLE0
 11
6.123233995736766E-17
 21
1.0
 31
0.0
 73
     1
 44
1.0
  0
ENDBLK
  5
1B3
330
1B1
100
AcDbEntity
  8
0
100
AcDbBlockEnd
  0
BLOCK
  5
1BE
330
1BD
100
AcDbEntity
  8
0
100
AcDbBlockBegin
  2
_D_2
 70
     0
 10
0.0
 20
0.0
 30
0.0
  3
_D_2
  1

  0
SOLID
  5
1C0
330
1BD
100
AcDbEntity
  8
VERMASSUNG
100
AcDbTrace
 10
243.1942910102
 20
70.3809995635
 30
0.0
 11
240.1942910102
 21
70.8309995635
 31
0.0
 12
240.1942910102
 22
69.9309995635
 32
0.0
 13
240.1942910102
 23
69.9309995635
 33
0.0
  0
SOLID
  5
1C1
330
1BD
100
AcDbEntity
  8
VERMASSUNG
100
AcDbTrace
 10
183.1942910102
 20
70.3809995635
 30
0.0
 11
186.1942910102
 21
69.9309995635
 31
0.0
 12
186.1942910102
 22
70.8309995635
 32
0.0
 13
186.1942910102
 23
70.8309995635
 33
0.0
  0
LINE
  5
1C2
330
1BD
100
AcDbEntity
  8
VERMASSUNG
100
AcDbLine
 10
243.1942910102
 20
80.4143397399
 30
0.0
 11
243.1942910102
 21
69.3809995635
 31
0.0
  0
LINE
  5
1C3
330
1BD
100
AcDbEntity
  8
VERMASSUNG
100
AcDbLine
 10
183.1942910102
 20
90.7143397399
 30
0.0
 11
183.1942910102
 21
69.3809995635
 31
0.0
  0
LINE
  5
1C4
330
1BD
100
AcDbEntity
  8
VERMASSUNG
100
AcDbLine
 10
243.1942910102
 20
70.3809995635
 30
0.0
 11
183.1942910102
 21
70.3809995635
 31
0.0
  0
MTEXT
  5
1C5
330
1BD
100
AcDbEntity
  8
VERMASSUNG
100
AcDbMText
 10
209.5442909242
 20
72.9591351595
 30
0.0
 40
2.0
 41
0.0
 71
     1
 72
     1
  1
60
  7
SLDTEXTSTYLE0
 73
     1
 44
1.0
  0
MTEXT
  5
1C6
330
1BD
100
AcDbEntity
  8
VERMASSUNG
100
AcDbMText
 10
213.5317908243
 20
72.9591351595
 30
0.0
 40
2.0
 41
0.0
 71
     1
 72
     1
  1

  7
SLDTEXTSTYLE0
 73
     1
 44
1.0
  0
MTEXT
  5
1C7
330
1BD
100
AcDbEntity
  8
VERMASSUNG
100
AcDbMText
 10
213.5442906485
 20
72.4646013258
 30
0.0
 40
1.5
 41
0.0
 71
     1
 72
     1
  1
±0.1
  7
SLDTEXTSTYLE0
 73
     1
 44
1.0
  0
ENDBLK
  5
1BF
330
1BD
100
AcDbEntity
  8
0
100
AcDbBlockEnd
  0
BLOCK
  5
1CB
330
1CA
100
AcDbEntity
  8
0
100
AcDbBlockBegin
  2
_D_3
 70
     0
 10
0.0
 20
0.0
 30
0.0
  3
_D_3
  1

  0
ARC
  5
1CD
330
1CA
100
AcDbEntity
  8
VERMASSUNG
100
AcDbCircle
 10
243.2308144107
 20
80.4143397399
 30
0.0
 40
11.08309580811772
100
AcDbArc
 50
0.0
 51
95.0
  0
SOLID
  5
1CE
330
1CA
100
AcDbEntity
  8
VERMASSUNG
100
AcDbTrace
 10
254.3139102188
 20
80.4143397399
 30
0.0
 11
254.3646169606
 21
83.4474781848
 31
0.0
 12
253.4724669979
 22
83.328867713
 32
0.0
 13
253.4724669979
 23
83.328867713
 33
0.0
  0
SOLID
  5
1CF
330
1CA
100
AcDbEntity
  8
VERMASSUNG
100
AcDbTrace
 10
242.2648589636
 20
91.4552610223
 30
0.0
 11
245.2416328867
 21
90.8710375972
 31
0.0
 12
245.2820360173
 22
91.7701302438
 32
0.0
 13
245.2820360173
 23
91.7701302438
 33
0.0
  0
MTEXT
  5
1D0
330
1CA
100
AcDbEntity
  8
VERMASSUNG
100
AcDbMText
 10
250.9856539992
 20
91.8376363691
 30
0.0
 40
2.0
 41
0.0
 71
     1
 72
     1
  1
95°
  7
SLDTEXTSTYLE0
 11
0.7372773368101201
 21
-0.6755902076156646
 31
0.0
 73
     1
 44
1.0
  0
ENDBLK
  5
1CC
330
1CA
100
AcDbEntity
  8
0
100
AcDbBlockEnd
  0
BLOCK
  5
1D3
330
1D2
100
AcDbEntity
  8
0
100
AcDbBlockBegin
  2
_D_4
 70
     0
 10
0.0
 20
0.0
 30
0.0
  3
_D_4
  1

  0
SOLID
  5
1D5
330
1D2
100
AcDbEntity
  8
VERMASSUNG
100
AcDbTrace
 10
143.1942910102
 20
140.4143397399
 30
0.0
 11
142.7442910102
 21
137.4143397399
 31
0.0
 12
143.6442910102
 22
137.4143397399
 32
0.0
 13
143.6442910102
 23
137.4143397399
 33
0.0
  0
SOLID
  5
1D6
330
1D2
100
AcDbEntity
  8
VERMASSUNG
100
AcDbTrace
 10
143.1942910102
 20
90.4143397399
 30
0.0
 11
143.6442910102
 21
93.4143397399
 31
0.0
 12
142.7442910102
 22
93.4143397399
 32
0.0
 13
142.7442910102
 23
93.4143397399
 33
0.0
  0
LINE
  5
1D7
330
1D2
100
AcDbEntity
  8
VERMASSUNG
100
AcDbLine
 10
183.4942910102
 20
140.4143397399
 30
0.0
 11
142.1942910102
 21
140.4143397399
 31
0.0
  0
LINE
  5
1D8
330
1D2
100
AcDbEntity
  8
VERMASSUNG
100
AcDbLine
 10
183.4942910102
 20
90.4143397399
 30
0.0
 11
142.1942910102
 21
90.4143397399
 31
0.0
  0
LINE
  5
1D9
330
1D2
100
AcDbEntity
  8
VERMASSUNG
100
AcDbLine
 10
143.1942910102
 20
140.4143397399
 30
0.0
 11
143.1942910102
 21
90.4143397399
 31
0.0
  0
MTEXT
  5
1DA
330
1D2
100
AcDbEntity
  8
VERMASSUNG
100
AcDbMText
 10
140.416155754
 20
109.9093404301
 30
0.0
 40
2.0
 41
0.0
 71
     1
 72
     1
  1
PSC
  7
SLDTEXTSTYLE0
 11
-7.044195017643634E-15
 21
1.0
 31
0.0
 73
     1
 44
1.0
  0
MTEXT
  5
1DB
330
1D2
100
AcDbEntity
  8
VERMASSUNG
100
AcDbMText
 10
140.6161557053
 20
114.5093400665
 30
0.0
 40
2.0
 41
0.0
 71
     1
 72
     1
  1
%%c
  7
SLDTEXTSTYLE0
 11
-7.044195017643634E-15
 21
1.0
 31
0.0
 73
     1
 44
1.0
  0
MTEXT
  5
1DC
330
1D2
100
AcDbEntity
  8
VERMASSUNG
100
AcDbMText
 10
140.416155754
 20
118.1193400808
 30
0.0
 40
2.0
 41
0.0
 71
     1
 72
     1
  1
50
  7
SLDTEXTSTYLE0
 11
-7.044195017643634E-15
 21
1.0
 31
0.0
 73
     1
 44
1.0
  0
ENDBLK
  5
1D4
330
1D2
100
AcDbEntity
  8
0
100
AcDbBlockEnd
  0
BLOCK
  5
204
330
203
100
AcDbEntity
  8
0
100
AcDbBlockBegin
  2
_D_5
 70
     0
 10
0.0
 20
0.0
 30
0.0
  3
_D_5
  1

  0
SOLID
  5
206
330
203
100
AcDbEntity
  8
VERMASSUNG
100
AcDbTrace
 10
48.6386233633
 20
92.6607455447
 30
0.0
 11
46.0995300553
 21
91.0007741071
 31
0.0
 12
46.6983081777
 22
90.3288628331
 32
0.0
 13
46.6983081777
 23
90.3288628331
 33
0.0
  0
SOLID
  5
207
330
203
100
AcDbEntity
  8
VERMASSUNG
100
AcDbTrace
 10
97.1655487105
 20
135.9058321598
 30
0.0
 11
99.7046420184
 21
137.5658035973
 31
0.0
 12
99.1058638961
 22
138.2377148714
 32
0.0
 13
99.1058638961
 23
138.2377148714
 33
0.0
  0
LINE
  5
208
330
203
100
AcDbEntity
  8
VERMASSUNG
100
AcDbLine
 10
49.0334923409
 20
92.2176483307
 30
0.0
 11
47.9733143384
 21
93.4073136269
 31
0.0
  0
LINE
  5
209
330
203
100
AcDbEntity
  8
VERMASSUNG
100
AcDbLine
 10
97.5604176881
 20
135.4627349458
 30
0.0
 11
96.5002396856
 21
136.6524002421
 31
0.0
  0
LINE
  5
20A
330
203
100
AcDbEntity
  8
VERMASSUNG
100
AcDbLine
 10
48.6386233633
 20
92.6607455447
 30
0.0
 11
44.1592148697
 21
88.6688913956
 31
0.0
  0
LINE
  5
20B
330
203
100
AcDbEntity
  8
VERMASSUNG
100
AcDbLine
 10
48.6386233633
 20
92.6607455447
 30
0.0
 11
97.1655487105
 21
135.9058321598
 31
0.0
  0
LINE
  5
20C
330
203
100
AcDbEntity
  8
VERMASSUNG
100
AcDbLine
 10
97.1655487105
 20
135.9058321598
 30
0.0
 11
108.5194668228
 21
146.0239504761
 31
0.0
  0
MTEXT
  5
20D
330
203
100
AcDbEntity
  8
VERMASSUNG
100
AcDbMText
 10
97.8379276821
 20
139.9583428079
 30
0.0
 40
2.0
 41
0.0
 71
     1
 72
     1
  1
%%c
  7
SLDTEXTSTYLE0
 11
0.7465680822643321
 21
0.6653090248479705
 31
0.0
 73
     1
 44
1.0
  0
MTEXT
  5
20E
330
203
100
AcDbEntity
  8
VERMASSUNG
100
AcDbMText
 10
100.3999766972
 20
142.5094219772
 30
0.0
 40
2.0
 41
0.0
 71
     1
 72
     1
  1
65
  7
SLDTEXTSTYLE0
 11
0.7465680822643321
 21
0.6653090248479705
 31
0.0
 73
     1
 44
1.0
  0
MTEXT
  5
20F
330
203
100
AcDbEntity
  8
VERMASSUNG
100
AcDbMText
 10
103.3769168507
 20
145.1623416473
 30
0.0
 40
2.0
 41
0.0
 71
     1
 72
     1
  1
min.
  7
SLDTEXTSTYLE0
 11
0.7465680822643321
 21
0.6653090248479705
 31
0.0
 73
     1
 44
1.0
  0
ENDBLK
  5
205
330
203
100
AcDbEntity
  8
0
100
AcDbBlockEnd
  0
BLOCK
  5
211
330
210
100
AcDbEntity
  8
0
100
AcDbBlockBegin
  2
SW_CENTERMARKSYMBOL_0
 70
     0
 10
0.0
 20
0.0
 30
0.0
  3
SW_CENTERMARKSYMBOL_0
  1

  0
LINE
  5
213
330
210
100
AcDbEntity
  8
VERMASSUNG
 62
     0
100
AcDbLine
 10
0.0
 20
0.0
 30
0.0
 11
0.0
 21
2.5
 31
0.0
  0
LINE
  5
214
330
210
100
AcDbEntity
  8
VERMASSUNG
 62
     0
100
AcDbLine
 10
0.0
 20
0.0
 30
0.0
 11
-2.5
 21
0.0
 31
0.0
  0
LINE
  5
215
330
210
100
AcDbEntity
  8
VERMASSUNG
 62
     0
100
AcDbLine
 10
0.0
 20
0.0
 30
0.0
 11
0.0
 21
-2.5
 31
0.0
  0
LINE
  5
216
330
210
100
AcDbEntity
  8
VERMASSUNG
 62
     0
100
AcDbLine
 10
0.0
 20
0.0
 30
0.0
 11
2.5
 21
0.0
 31
0.0
  0
LINE
  5
217
330
210
100
AcDbEntity
  8
VERMASSUNG
 62
     0
100
AcDbLine
 10
0.0
 20
5.0
 30
0.0
 11
0.0
 21
27.5
 31
0.0
  0
LINE
  5
218
330
210
100
AcDbEntity
  8
VERMASSUNG
 62
     0
100
AcDbLine
 10
-5.0
 20
0.0
 30
0.0
 11
-27.5
 21
0.0
 31
0.0
  0
LINE
  5
219
330
210
100
AcDbEntity
  8
VERMASSUNG
 62
     0
100
AcDbLine
 10
0.0
 20
-5.0
 30
0.0
 11
0.0
 21
-27.5
 31
0.0
  0
LINE
  5
21A
330
210
100
AcDbEntity
  8
VERMASSUNG
 62
     0
100
AcDbLine
 10
5.0
 20
0.0
 30
0.0
 11
27.5
 21
0.0
 31
0.0
  0
ENDBLK
  5
212
330
210
100
AcDbEntity
  8
0
100
AcDbBlockEnd
  0
ENDSEC
  0
SECTION
  2
ENTITIES
  0
MTEXT
  5
78
330
1F
100
AcDbEntity
  8
KOPF_DÜNN
100
AcDbMText
 10
13.8892156294
 20
23.8442973028
 30
0.0
 40
3.0
 41
0.0
 71
     1
 72
     1
  1
PS5.KCC.LLA.060
  7
SLDTEXTSTYLE0
 73
     1
 44
1.0
  0
MTEXT
  5
79
330
1F
100
AcDbEntity
  8
VERMASSUNG
100
AcDbMText
 10
13.9329988022
 20
28.8834360957
 30
0.0
 40
3.0
 41
0.0
 71
     1
 72
     1
  1
Klemmhalter links_Turning tool left 95° /80°
  7
SLDTEXTSTYLE0
 73
     1
 44
1.0
  0
MTEXT
  5
7A
330
1F
100
AcDbEntity
  8
VERMASSUNG
100
AcDbMText
 10
98.8601118557
 20
13.8365368761
 30
0.0
 40
2.0
 41
0.0
 71
     1
 72
     1
  1
Datum: 27.04.2012
  7
SLDTEXTSTYLE0
 73
     1
 44
1.0
  0
MTEXT
  5
7B
330
1F
100
AcDbEntity
  8
VERMASSUNG
100
AcDbMText
 10
13.933048693
 20
18.0482802738
 30
0.0
 40
2.0
 41
0.0
 71
     1
 72
     1
  1
PSC ø50 / CC..12 04..
  7
SLDTEXTSTYLE0
 73
     1
 44
1.0
  0
MTEXT
  5
7C
330
1F
100
AcDbEntity
  8
VERMASSUNG
100
AcDbMText
 10
13.9808475933
 20
13.9090974274
 30
0.0
 40
2.0
 41
0.0
 71
     1
 72
     1
  1
Gewicht: 741g
  7
SLDTEXTSTYLE0
 73
     1
 44
1.0
  0
LINE
  5
7D
330
1F
100
AcDbEntity
  8
0
  6
Continuous
 62
     7
370
    15
100
AcDbLine
 10
214.2548378359
 20
140.4143397399
 30
0.0
 11
183.4942910102
 21
140.4143397399
 31
0.0
  0
LINE
  5
7E
330
1F
100
AcDbEntity
  8
0
  6
Continuous
 62
     7
370
    15
100
AcDbLine
 10
183.4942910102
 20
90.4143397399
 30
0.0
 11
214.2811147326
 21
90.4143397399
 31
0.0
  0
ARC
  5
7F
330
1F
100
AcDbEntity
  8
0
  6
Continuous
 62
     7
370
    15
100
AcDbCircle
 10
183.4942910102
 20
90.7143397399
 30
0.0
 40
0.3000000000000114
100
AcDbArc
 50
180.0
 51
270.0
  0
ARC
  5
80
330
1F
100
AcDbEntity
  8
0
  6
Continuous
 62
     7
370
    15
100
AcDbCircle
 10
183.4942910102
 20
140.1143397399
 30
0.0
 40
0.3000000000000114
100
AcDbArc
 50
90.0
 51
180.0
  0
LWPOLYLINE
  5
81
330
1F
100
AcDbEntity
  8
0
  6
Continuous
 62
     7
370
    15
100
AcDbPolyline
 90
        3
 70
   128
 43
0.0
 10
182.9942910102
 20
97.574519461
 10
183.1197459537
 20
97.506217346
 10
183.1942910102
 20
97.4534795879
  0
LWPOLYLINE
  5
82
330
1F
100
AcDbEntity
  8
0
  6
Continuous
 62
     7
370
    15
100
AcDbPolyline
 90
        3
 70
   128
 43
0.0
 10
183.1942910102
 20
133.3751998918
 10
183.1197459537
 20
133.3224621337
 10
182.9942910102
 20
133.2541600187
  0
ELLIPSE
  5
83
330
1F
100
AcDbEntity
  8
0
  6
Continuous
 62
     7
370
    15
100
AcDbEllipse
 10
213.1139062525
 20
115.4143397399
 30
0.0
 11
0.0
 21
25.00000000000001
 31
0.0
210
0.0
220
0.0
230
1.0
 40
0.2679491924
 41
0.077017833721855
 42
3.064574819867939
  0
ELLIPSE
  5
84
330
1F
100
AcDbEntity
  8
0
  6
Continuous
 62
     7
370
    15
100
AcDbEllipse
 10
209.8701975885
 20
101.382002154
 30
0.0
 11
-0.2809431294510887
 21
3.082253567941236
 31
0.0
210
0.0
220
0.0
230
1.0
 40
0.2393976103
 41
0.0
 42
6.283185307179586
  0
SPLINE
  5
85
330
1F
100
AcDbEntity
  8
0
  6
Continuous
 62
     7
370
    15
100
AcDbSpline
210
0.0
220
0.0
230
1.0
 70
     8
 71
     3
 72
    18
 73
    14
 74
     0
 42
0.000000001
 43
0.00000001
 40
0.0
 40
0.0
 40
0.0
 40
0.0
 40
0.2499999999999988
 40
0.2499999999999988
 40
0.4999999999999976
 40
0.4999999999999976
 40
0.6249999999999969
 40
0.6249999999999969
 40
0.7499999999999963
 40
0.7499999999999963
 40
0.8749999999999981
 40
0.8749999999999981
 40
1.0
 40
1.0
 40
1.0
 40
1.0
 10
212.5984944953097
 20
90.48844992930778
 30
0.0
 10
212.6822448522567
 20
90.46432947896426
 30
0.0
 10
212.8131566157824
 20
90.4477259642641
 30
0.0
 10
213.1691339824666
 20
90.42502611467422
 30
0.0
 10
213.3866834275712
 20
90.41943209112982
 30
0.0
 10
213.7673407812233
 20
90.4153210423322
 30
0.0
 10
213.9025073455303
 20
90.41468962884764
 30
0.0
 10
214.1825187123657
 20
90.41421949299098
 30
0.0
 10
214.3282840322317
 20
90.41437256618737
 30
0.0
 10
214.6315779280528
 20
90.41490811318434
 30
0.0
 10
214.7887239210199
 20
90.41528862028785
 30
0.0
 10
215.1047074278923
 20
90.4158756472433
 30
0.0
 10
215.2647703199948
 20
90.41608534790397
 30
0.0
 10
215.426964022261
 20
90.41613020832948
 30
0.0
  0
SPLINE
  5
86
330
1F
100
AcDbEntity
  8
0
  6
Continuous
 62
     7
370
    15
100
AcDbSpline
210
0.0
220
0.0
230
1.0
 70
     8
 71
     3
 72
    18
 73
    14
 74
     0
 42
0.000000001
 43
0.00000001
 40
0.0
 40
0.0
 40
0.0
 40
0.0
 40
0.25
 40
0.25
 40
0.5
 40
0.5
 40
0.625
 40
0.625
 40
0.75
 40
0.75
 40
0.875
 40
0.875
 40
1.0
 40
1.0
 40
1.0
 40
1.0
 10
215.426964022261
 20
140.4125492713865
 30
0.0
 10
215.10257045972
 20
140.4126389939407
 30
0.0
 10
214.7880963231198
 20
140.4134915343411
 30
0.0
 10
214.1788289805433
 20
140.4145742335204
 30
0.0
 10
213.8974509815553
 20
140.4147369585428
 30
0.0
 10
213.51654394108
 20
140.4106629511829
 30
0.0
 10
213.3974444336451
 20
140.4085564275596
 30
0.0
 10
213.1806841222243
 20
140.4022605136982
 30
0.0
 10
213.0820223519262
 20
140.3980649834576
 30
0.0
 10
212.9045071721095
 20
140.3868114126187
 30
0.0
 10
212.8260453239604
 20
140.3797302690569
 30
0.0
 10
212.6943716749891
 20
140.3624889543225
 30
0.0
 10
212.6403706418392
 20
140.3522900543842
 30
0.0
 10
212.5984944953097
 20
140.3402295504082
 30
0.0
  0
SPLINE
  5
87
330
1F
100
AcDbEntity
  8
0
  6
Continuous
 62
     7
370
    15
100
AcDbSpline
210
0.0
220
0.0
230
1.0
 70
     8
 71
     3
 72
    12
 73
     8
 74
     0
 42
0.000000001
 43
0.00000001
 40
0.0
 40
0.0
 40
0.0
 40
0.0
 40
0.5000000000000018
 40
0.5000000000000018
 40
0.7500000000000009
 40
0.7500000000000009
 40
1.0
 40
1.0
 40
1.0
 40
1.0
 10
191.2890351219142
 20
91.76169826262635
 30
0.0
 10
191.3198868324784
 20
91.72236622226386
 30
0.0
 10
191.3617796959391
 20
91.6849544567356
 30
0.0
 10
191.4613005737322
 20
91.63528353211969
 30
0.0
 10
191.5009147384566
 20
91.61989444951186
 30
0.0
 10
191.598017772236
 20
91.59606123384461
 30
0.0
 10
191.6585164448864
 20
91.58760862435581
 30
0.0
 10
191.7220478238063
 20
91.58760862435581
 30
0.0
  0
LINE
  5
88
330
1F
100
AcDbEntity
  8
0
  6
Continuous
 62
     7
370
    15
100
AcDbLine
 10
191.7220478238
 20
91.5876086244
 30
0.0
 11
194.6665341967
 21
91.5876086244
 31
0.0
  0
SPLINE
  5
89
330
1F
100
AcDbEntity
  8
0
  6
Continuous
 62
     7
370
    15
100
AcDbSpline
210
0.0
220
0.0
230
1.0
 70
     8
 71
     3
 72
    12
 73
     8
 74
     0
 42
0.000000001
 43
0.00000001
 40
0.0
 40
0.0
 40
0.0
 40
0.0
 40
0.25
 40
0.25
 40
0.5
 40
0.5
 40
1.0
 40
1.0
 40
1.0
 40
1.0
 10
194.6665341966736
 20
91.58760862435601
 30
0.0
 10
194.7301707508873
 20
91.58760862435601
 30
0.0
 10
194.7897508777535
 20
91.59586539528777
 30
0.0
 10
194.8883876191199
 20
91.62006745729559
 30
0.0
 10
194.9273462435001
 20
91.63531427632974
 30
0.0
 10
195.026725183008
 20
91.68491914838985
 30
0.0
 10
195.0686830881735
 20
91.72235079650868
 30
0.0
 10
195.099546898566
 20
91.76169826262633
 30
0.0
  0
ELLIPSE
  5
8A
330
1F
100
AcDbEntity
  8
0
  6
Continuous
 62
     7
370
    15
100
AcDbEllipse
 10
182.1380333553
 20
115.4143397399
 30
0.0
 11
-11.70927234972723
 21
24.67718644093744
 31
0.0
210
0.0
220
0.0
230
1.0
 40
0.3419987131
 41
3.310521928178947
 42
4.221709151398938
  0
SPLINE
  5
8B
330
1F
100
AcDbEntity
  8
0
  6
Continuous
 62
     7
370
    15
100
AcDbSpline
210
0.0
220
0.0
230
1.0
 70
     8
 71
     3
 72
    12
 73
     8
 74
     0
 42
0.000000001
 43
0.00000001
 40
0.0
 40
0.0
 40
0.0
 40
0.0
 40
0.4999999999999982
 40
0.4999999999999982
 40
0.7499999999999991
 40
0.7499999999999991
 40
1.0
 40
1.0
 40
1.0
 40
1.0
 10
195.0995468985658
 20
107.3178867418136
 30
0.0
 10
195.0686951880016
 20
107.4327897307504
 30
0.0
 10
195.0268023245409
 20
107.5449286267993
 30
0.0
 10
194.9272814467477
 20
107.6968709084002
 30
0.0
 10
194.8876672820234
 20
107.7445355179251
 30
0.0
 10
194.790564248244
 20
107.8188718485405
 30
0.0
 10
194.7300655755936
 20
107.8455297706776
 30
0.0
 10
194.6665341966736
 20
107.8455297706776
 30
0.0
  0
LINE
  5
8C
330
1F
100
AcDbEntity
  8
0
  6
Continuous
 62
     7
370
    15
100
AcDbLine
 10
194.6665341967
 20
107.8455297707
 30
0.0
 11
191.7220478238
 21
107.8455297707
 31
0.0
  0
SPLINE
  5
8D
330
1F
100
AcDbEntity
  8
0
  6
Continuous
 62
     7
370
    15
100
AcDbSpline
210
0.0
220
0.0
230
1.0
 70
     8
 71
     3
 72
    12
 73
     8
 74
     0
 42
0.000000001
 43
0.00000001
 40
0.0
 40
0.0
 40
0.0
 40
0.0
 40
0.2499999999999982
 40
0.2499999999999982
 40
0.4999999999999963
 40
0.4999999999999963
 40
1.0
 40
1.0
 40
1.0
 40
1.0
 10
191.7220478238064
 20
107.8455297706772
 30
0.0
 10
191.6584112695927
 20
107.8455297706772
 30
0.0
 10
191.5988311427265
 20
107.8194828676193
 30
0.0
 10
191.5001944013601
 20
107.7439957087194
 30
0.0
 10
191.4612357769799
 20
107.6967766701887
 30
0.0
 10
191.3618568374719
 20
107.5450370190951
 30
0.0
 10
191.3198989323065
 20
107.4328347949109
 30
0.0
 10
191.289035121914
 20
107.3178867418137
 30
0.0
  0
ELLIPSE
  5
8E
330
1F
100
AcDbEntity
  8
0
  6
Continuous
 62
     7
370
    15
100
AcDbEllipse
 10
204.2505486652
 20
115.4143397399
 30
0.0
 11
11.70927234972706
 21
24.67718644093743
 31
0.0
210
0.0
220
0.0
230
1.0
 40
0.3419987131
 41
2.061476155780655
 42
2.97266337900067
  0
SPLINE
  5
8F
330
1F
100
AcDbEntity
  8
0
  6
Continuous
 62
     7
370
    15
100
AcDbSpline
210
0.0
220
0.0
230
1.0
 70
     8
 71
     3
 72
    12
 73
     8
 74
     0
 42
0.000000001
 43
0.00000001
 40
0.0
 40
0.0
 40
0.0
 40
0.0
 40
0.5
 40
0.5
 40
0.75
 40
0.75
 40
1.0
 40
1.0
 40
1.0
 40
1.0
 10
191.2890351219142
 20
123.5107927379021
 30
0.0
 10
191.3197345052815
 20
123.3964570708382
 30
0.0
 10
191.361084573388
 20
123.2851037179969
 30
0.0
 10
191.4608405016075
 20
123.1323669457481
 30
0.0
 10
191.5005374193402
 20
123.084507059896
 30
0.0
 10
191.5977955709878
 20
123.0099039465465
 30
0.0
 10
191.6585717289785
 20
122.9831497090384
 30
0.0
 10
191.7220478238064
 20
122.9831497090384
 30
0.0
  0
LINE
  5
90
330
1F
100
AcDbEntity
  8
0
  6
Continuous
 62
     7
370
    15
100
AcDbLine
 10
191.7220478238
 20
122.983149709
 30
0.0
 11
194.6665341967
 21
122.983149709
 31
0.0
  0
SPLINE
  5
91
330
1F
100
AcDbEntity
  8
0
  6
Continuous
 62
     7
370
    15
100
AcDbSpline
210
0.0
220
0.0
230
1.0
 70
     8
 71
     3
 72
    12
 73
     8
 74
     0
 42
0.000000001
 43
0.00000001
 40
0.0
 40
0.0
 40
0.0
 40
0.0
 40
0.2499999999999984
 40
0.2499999999999984
 40
0.4999999999999968
 40
0.4999999999999968
 40
1.0
 40
1.0
 40
1.0
 40
1.0
 10
194.6665341966736
 20
122.9831497090384
 30
0.0
 10
194.730199433204
 20
122.9831497090384
 30
0.0
 10
194.7898056654274
 20
123.0092218575181
 30
0.0
 10
194.8884661903583
 20
123.0847606083392
 30
0.0
 10
194.9274331803735
 20
123.1320115454355
 30
0.0
 10
195.026820012298
 20
123.2838353634019
 30
0.0
 10
195.0688962597214
 20
123.396638613167
 30
0.0
 10
195.0995468985658
 20
123.5107927379021
 30
0.0
  0
ELLIPSE
  5
92
330
1F
100
AcDbEntity
  8
0
  6
Continuous
 62
     7
370
    15
100
AcDbEllipse
 10
182.1380333553
 20
115.4143397399
 30
0.0
 11
11.70927234972706
 21
24.67718644093743
 31
0.0
210
0.0
220
0.0
230
1.0
 40
0.3419987131
 41
5.203068809370452
 42
6.114256032590495
  0
SPLINE
  5
93
330
1F
100
AcDbEntity
  8
0
  6
Continuous
 62
     7
370
    15
100
AcDbSpline
210
0.0
220
0.0
230
1.0
 70
     8
 71
     3
 72
    12
 73
     8
 74
     0
 42
0.000000001
 43
0.00000001
 40
0.0
 40
0.0
 40
0.0
 40
0.0
 40
0.5000000000000046
 40
0.5000000000000046
 40
0.7500000000000022
 40
0.7500000000000022
 40
1.0
 40
1.0
 40
1.0
 40
1.0
 10
195.0995468985658
 20
139.0669812170895
 30
0.0
 10
195.0688475151985
 20
139.1061190594854
 30
0.0
 10
195.027497447092
 20
139.1432788422109
 30
0.0
 10
194.9277415188725
 20
139.1932153478387
 30
0.0
 10
194.8880446011398
 20
139.2086682179824
 30
0.0
 10
194.7907864494921
 20
139.2325877615815
 30
0.0
 10
194.7300102915015
 20
139.2410708553599
 30
0.0
 10
194.6665341966736
 20
139.2410708553599
 30
0.0
  0
LINE
  5
94
330
1F
100
AcDbEntity
  8
0
  6
Continuous
 62
     7
370
    15
100
AcDbLine
 10
194.6665341967
 20
139.2410708554
 30
0.0
 11
191.7220478238
 21
139.2410708554
 31
0.0
  0
SPLINE
  5
95
330
1F
100
AcDbEntity
  8
0
  6
Continuous
 62
     7
370
    15
100
AcDbSpline
210
0.0
220
0.0
230
1.0
 70
     8
 71
     3
 72
    12
 73
     8
 74
     0
 42
0.000000001
 43
0.00000001
 40
0.0
 40
0.0
 40
0.0
 40
0.0
 40
0.2500000000000002
 40
0.2500000000000002
 40
0.5000000000000004
 40
0.5000000000000004
 40
1.0
 40
1.0
 40
1.0
 40
1.0
 10
191.7220478238064
 20
139.2410708553599
 30
0.0
 10
191.658382587276
 20
139.2410708553599
 30
0.0
 10
191.5987763550526
 20
139.232806079694
 30
0.0
 10
191.5001158301217
 20
139.2085872981109
 30
0.0
 10
191.4611488401065
 20
139.1933299788017
 30
0.0
 10
191.361762008182
 20
139.1436966245398
 30
0.0
 10
191.3196857607585
 20
139.1060569163657
 30
0.0
 10
191.2890351219142
 20
139.0669812170895
 30
0.0
  0
ELLIPSE
  5
96
330
1F
100
AcDbEntity
  8
0
  6
Continuous
 62
     7
370
    15
100
AcDbEllipse
 10
204.2505486652
 20
115.4143397399
 30
0.0
 11
-11.70927234972695
 21
24.67718644093744
 31
0.0
210
0.0
220
0.0
230
1.0
 40
0.3419987131
 41
0.1689292745891373
 42
1.08011649780915
  0
LINE
  5
97
330
1F
100
AcDbEntity
  8
0
  6
Continuous
 62
     7
370
    15
100
AcDbLine
 10
183.1942910102
 20
90.7143397399
 30
0.0
 11
183.1942910102
 21
140.1143397398
 31
0.0
  0
SPLINE
  5
98
330
1F
100
AcDbEntity
  8
0
  6
Continuous
 62
     7
370
    15
100
AcDbSpline
210
0.0
220
0.0
230
1.0
 70
     8
 71
     3
 72
    16
 73
    12
 74
     0
 42
0.000000001
 43
0.00000001
 40
0.0
 40
0.0
 40
0.0
 40
0.0
 40
0.2499999999999996
 40
0.2499999999999996
 40
0.4999999999999991
 40
0.4999999999999991
 40
0.6249999999999992
 40
0.6249999999999992
 40
0.7499999999999993
 40
0.7499999999999993
 40
1.0
 40
1.0
 40
1.0
 40
1.0
 10
182.1534299821109
 20
98.06518245866542
 30
0.0
 10
182.1851579433036
 20
98.06438534184448
 30
0.0
 10
182.2197855336541
 20
98.06379426698922
 30
0.0
 10
182.2994792957178
 20
98.06278274155477
 30
0.0
 10
182.3445207557215
 20
98.0623826333799
 30
0.0
 10
182.4273734825719
 20
98.06142476147605
 30
0.0
 10
182.4572879437718
 20
98.06104308021563
 30
0.0
 10
182.5232742743297
 20
98.05996686615708
 30
0.0
 10
182.5600078997915
 20
98.05924930026293
 30
0.0
 10
182.6725046193613
 20
98.05648842258127
 30
0.0
 10
182.7428459674596
 20
98.0540013307097
 30
0.0
 10
182.7993141213647
 20
98.05182805230258
 30
0.0
  0
SPLINE
  5
99
330
1F
100
AcDbEntity
  8
0
  6
Continuous
 62
     7
370
    15
100
AcDbSpline
210
0.0
220
0.0
230
1.0
 70
     8
 71
     3
 72
    14
 73
    10
 74
     0
 42
0.000000001
 43
0.00000001
 40
0.0
 40
0.0
 40
0.0
 40
0.0
 40
0.1249999999999974
 40
0.1249999999999974
 40
0.2499999999999947
 40
0.2499999999999947
 40
0.4999999999999993
 40
0.4999999999999993
 40
1.0
 40
1.0
 40
1.0
 40
1.0
 10
182.7993141213331
 20
98.0518280523253
 30
0.0
 10
182.8119059152779
 20
98.05134343450295
 30
0.0
 10
182.826777023572
 20
98.04963325657062
 30
0.0
 10
182.8589611150052
 20
98.04151770781974
 30
0.0
 10
182.874565246481
 20
98.03530191955842
 30
0.0
 10
182.9104523861931
 20
98.01708280785682
 30
0.0
 10
182.9243044274618
 20
98.00531777952321
 30
0.0
 10
182.9577941693944
 20
97.9735226431059
 30
0.0
 10
182.9684564299701
 20
97.95572921126275
 30
0.0
 10
182.9765943868651
 20
97.93929808041835
 30
0.0
  0
LINE
  5
9A
330
1F
100
AcDbEntity
  8
0
  6
Continuous
 62
     7
370
    15
100
AcDbLine
 10
182.9942910102
 20
109.4298595073
 30
0.0
 11
182.9942910102
 21
97.574519461
 31
0.0
  0
SPLINE
  5
9B
330
1F
100
AcDbEntity
  8
0
  6
Continuous
 62
     7
370
    15
100
AcDbSpline
210
0.0
220
0.0
230
1.0
 70
     8
 71
     3
 72
    16
 73
    12
 74
     0
 42
0.000000001
 43
0.00000001
 40
0.0
 40
0.0
 40
0.0
 40
0.0
 40
0.5000000000000014
 40
0.5000000000000014
 40
0.7500000000000022
 40
0.7500000000000022
 40
0.8750000000000014
 40
0.8750000000000014
 40
0.9375000000000007
 40
0.9375000000000007
 40
1.0
 40
1.0
 40
1.0
 40
1.0
 10
182.99429101024
 20
109.4298595072834
 30
0.0
 10
182.99429101024
 20
109.5443892379823
 30
0.0
 10
182.9902337081249
 20
109.6597053131718
 30
0.0
 10
182.9645764653301
 20
109.8346284029994
 30
0.0
 10
182.953261019588
 20
109.8944577059943
 30
0.0
 10
182.9192296522794
 20
109.9790488922425
 30
0.0
 10
182.9053506710756
 20
110.0077184783865
 30
0.0
 10
182.8694149893082
 20
110.0375262653328
 30
0.0
 10
182.8544646700454
 20
110.0438614186925
 30
0.0
 10
182.8245661573036
 20
110.0426359558222
 30
0.0
 10
182.8110332969383
 20
110.0360373697874
 30
0.0
 10
182.7993141213643
 20
110.027389681731
 30
0.0
  0
SPLINE
  5
9C
330
1F
100
AcDbEntity
  8
0
  6
Continuous
 62
     7
370
    15
100
AcDbSpline
210
0.0
220
0.0
230
1.0
 70
     8
 71
     3
 72
    14
 73
    10
 74
     0
 42
0.000000001
 43
0.00000001
 40
0.0
 40
0.0
 40
0.0
 40
0.0
 40
0.25
 40
0.25
 40
0.5
 40
0.5
 40
0.75
 40
0.75
 40
1.0
 40
1.0
 40
1.0
 40
1.0
 10
182.7993141213712
 20
110.0273896817223
 30
0.0
 10
182.7428544554874
 20
109.9857275720235
 30
0.0
 10
182.6719819806252
 20
109.9548940914353
 30
0.0
 10
182.5235156227433
 20
109.9606086000485
 30
0.0
 10
182.4543204195355
 20
109.9961795274814
 30
0.0
 10
182.3446032334659
 20
110.0831234399553
 30
0.0
 10
182.2993573445339
 20
110.1355557533204
 30
0.0
 10
182.2197402135671
 20
110.2441088348389
 30
0.0
 10
182.1851375941102
 20
110.3010919210814
 30
0.0
 10
182.1534299821114
 20
110.3596580037393
 30
0.0
  0
SPLINE
  5
9D
330
1F
100
AcDbEntity
  8
0
  6
Continuous
 62
     7
370
    15
100
AcDbSpline
210
0.0
220
0.0
230
1.0
 70
     8
 71
     3
 72
    10
 73
     6
 74
     0
 42
0.000000001
 43
0.00000001
 40
0.0
 40
0.0
 40
0.0
 40
0.0
 40
0.5
 40
0.5
 40
1.0
 40
1.0
 40
1.0
 40
1.0
 10
181.8729706666804
 20
111.2124765953856
 30
0.0
 10
181.9038492502924
 20
111.0628480435259
 30
0.0
 10
181.9398419580157
 20
110.9163526260023
 30
0.0
 10
182.0291822095128
 20
110.6311609874616
 30
0.0
 10
182.0816405123584
 20
110.4922579617456
 30
0.0
 10
182.1534299821115
 20
110.3596580037391
 30
0.0
  0
SPLINE
  5
9E
330
1F
100
AcDbEntity
  8
0
  6
Continuous
 62
     7
370
    15
100
AcDbSpline
210
0.0
220
0.0
230
1.0
 70
     8
 71
     3
 72
    10
 73
     6
 74
     0
 42
0.000000001
 43
0.00000001
 40
0.0
 40
0.0
 40
0.0
 40
0.0
 40
0.5
 40
0.5
 40
1.0
 40
1.0
 40
1.0
 40
1.0
 10
182.1534299821108
 20
120.4690214759756
 30
0.0
 10
182.0816405123579
 20
120.3364215179693
 30
0.0
 10
182.0291822095125
 20
120.1975184922535
 30
0.0
 10
181.9398419580156
 20
119.9123268537132
 30
0.0
 10
181.9038492502923
 20
119.7658314361899
 30
0.0
 10
181.8729706666804
 20
119.6162028843304
 30
0.0
  0
SPLINE
  5
9F
330
1F
100
AcDbEntity
  8
0
  6
Continuous
 62
     7
370
    15
100
AcDbSpline
210
0.0
220
0.0
230
1.0
 70
     8
 71
     3
 72
    14
 73
    10
 74
     0
 42
0.000000001
 43
0.00000001
 40
0.0
 40
0.0
 40
0.0
 40
0.0
 40
0.25
 40
0.25
 40
0.5
 40
0.5
 40
0.75
 40
0.75
 40
1.0
 40
1.0
 40
1.0
 40
1.0
 10
182.1534299821101
 20
120.4690214759744
 30
0.0
 10
182.1851386815955
 20
120.527589567293
 30
0.0
 10
182.2197465002361
 20
120.584583829233
 30
0.0
 10
182.2994049107254
 20
120.6931839639969
 30
0.0
 10
182.3444671806203
 20
120.7455120993755
 30
0.0
 10
182.4550490261987
 20
120.8330131107378
 30
0.0
 10
182.522693147014
 20
120.868058566992
 30
0.0
 10
182.6729414374111
 20
120.8738029557481
 30
0.0
 10
182.7428938356414
 20
120.8429228486981
 30
0.0
 10
182.799314121365
 20
120.801289797985
 30
0.0
  0
SPLINE
  5
A0
330
1F
100
AcDbEntity
  8
0
  6
Continuous
 62
     7
370
    15
100
AcDbSpline
210
0.0
220
0.0
230
1.0
 70
     8
 71
     3
 72
    16
 73
    12
 74
     0
 42
0.000000001
 43
0.00000001
 40
0.0
 40
0.0
 40
0.0
 40
0.0
 40
0.0624999999999999
 40
0.0624999999999999
 40
0.1249999999999998
 40
0.1249999999999998
 40
0.2499999999999995
 40
0.2499999999999995
 40
0.500000000000002
 40
0.500000000000002
 40
1.0
 40
1.0
 40
1.0
 40
1.0
 10
182.7993141213331
 20
120.8012897979316
 30
0.0
 10
182.81104835578
 20
120.7926309977874
 30
0.0
 10
182.824580111259
 20
120.7860269125521
 30
0.0
 10
182.8545675716888
 20
120.7848299453779
 30
0.0
 10
182.8695622780971
 20
120.7912516924439
 30
0.0
 10
182.9053027004919
 20
120.8209688458532
 30
0.0
 10
182.9193160374931
 20
120.8497762432365
 30
0.0
 10
182.9534601262744
 20
120.9348559648624
 30
0.0
 10
182.9644320303928
 20
120.9932309141322
 30
0.0
 10
182.9902775706591
 20
121.1689464389208
 30
0.0
 10
182.99429101024
 20
121.2847414467852
 30
0.0
 10
182.99429101024
 20
121.3988199724326
 30
0.0
  0
LINE
  5
A1
330
1F
100
AcDbEntity
  8
0
  6
Continuous
 62
     7
370
    15
100
AcDbLine
 10
182.9942910102
 20
133.2541600187
 30
0.0
 11
182.9942910102
 21
121.3988199724
 31
0.0
  0
SPLINE
  5
A2
330
1F
100
AcDbEntity
  8
0
  6
Continuous
 62
     7
370
    15
100
AcDbSpline
210
0.0
220
0.0
230
1.0
 70
     8
 71
     3
 72
    16
 73
    12
 74
     0
 42
0.000000001
 43
0.00000001
 40
0.0
 40
0.0
 40
0.0
 40
0.0
 40
0.4999999999999981
 40
0.4999999999999981
 40
0.7499999999999971
 40
0.7499999999999971
 40
0.874999999999999
 40
0.874999999999999
 40
0.9374999999999994
 40
0.9374999999999994
 40
1.0
 40
1.0
 40
1.0
 40
1.0
 10
182.9942910102401
 20
132.9610942055256
 30
0.0
 10
182.9942910102399
 20
132.9390791909462
 30
0.0
 10
182.9901664673859
 20
132.9137255562425
 30
0.0
 10
182.9642500217528
 20
132.866565054054
 30
0.0
 10
182.952972440733
 20
132.8493660658252
 30
0.0
 10
182.9192370621916
 20
132.819388100256
 30
0.0
 10
182.9048482469472
 20
132.8080366917141
 30
0.0
 10
182.8696015575082
 20
132.7913488322367
 30
0.0
 10
182.8543961330512
 20
132.7857858053514
 30
0.0
 10
182.8247495538819
 20
132.7788162223162
 30
0.0
 10
182.8110442178845
 20
132.7773028812609
 30
0.0
 10
182.7993141213607
 20
132.776851427411
 30
0.0
  0
SPLINE
  5
A3
330
1F
100
AcDbEntity
  8
0
  6
Continuous
 62
     7
370
    15
100
AcDbSpline
210
0.0
220
0.0
230
1.0
 70
     8
 71
     3
 72
    14
 73
    10
 74
     0
 42
0.000000001
 43
0.00000001
 40
0.0
 40
0.0
 40
0.0
 40
0.0
 40
0.25
 40
0.25
 40
0.5
 40
0.5
 40
0.75
 40
0.75
 40
1.0
 40
1.0
 40
1.0
 40
1.0
 10
182.7993141213712
 20
132.7768514274135
 30
0.0
 10
182.7428670393129
 20
132.7746789599942
 30
0.0
 10
182.6720166552701
 20
132.7721808620768
 30
0.0
 10
182.5235802204537
 20
132.7685344032886
 30
0.0
 10
182.4543909687668
 20
132.7675666564373
 30
0.0
 10
182.3446794205258
 20
132.7662990970747
 30
0.0
 10
182.2994377711835
 20
132.7658962561463
 30
0.0
 10
182.2197897529996
 20
132.7648852212187
 30
0.0
 10
182.1851628372336
 20
132.7642942608241
 30
0.0
 10
182.1534299821123
 20
132.7634970210506
 30
0.0
  0
SPLINE
  5
A4
330
1F
100
AcDbEntity
  8
0
  6
Continuous
 62
     7
370
    15
100
AcDbSpline
210
0.0
220
0.0
230
1.0
 70
     8
 71
     3
 72
    18
 73
    14
 74
     0
 42
0.000000001
 43
0.00000001
 40
0.0
 40
0.0
 40
0.0
 40
0.0
 40
0.2499999999999999
 40
0.2499999999999999
 40
0.375
 40
0.375
 40
0.5000000000000001
 40
0.5000000000000001
 40
0.6250000000000002
 40
0.6250000000000002
 40
0.7500000000000002
 40
0.7500000000000002
 40
1.0
 40
1.0
 40
1.0
 40
1.0
 10
181.8729706666804
 20
119.6162028843304
 30
0.0
 10
181.737685060378
 20
118.9606485489092
 30
0.0
 10
181.6365173141351
 20
118.2810274551116
 30
0.0
 10
181.5336559712661
 20
117.2256634486176
 30
0.0
 10
181.5075531257428
 20
116.8668493840329
 30
0.0
 10
181.472663142198
 20
116.14073643991
 30
0.0
 10
181.464076883908
 20
115.7786467608939
 30
0.0
 10
181.4639771743424
 20
115.0563371034755
 30
0.0
 10
181.4724655454909
 20
114.6961173013671
 30
0.0
 10
181.5066089250115
 20
113.9775512322732
 30
0.0
 10
181.5324059068653
 20
113.6177855163578
 30
0.0
 10
181.6358070382533
 20
112.5511409293634
 30
0.0
 10
181.7376650304247
 20
111.868127990081
 30
0.0
 10
181.8729706666804
 20
111.2124765953855
 30
0.0
  0
LINE
  5
A5
330
1F
100
AcDbEntity
  8
0
  6
Continuous
 62
     7
370
    15
100
AcDbLine
 10
180.9942910102
 20
120.5544922277
 30
0.0
 11
180.9942910102
 21
110.2741872521
 31
0.0
  0
LINE
  5
A6
330
1F
100
AcDbEntity
  8
0
  6
Continuous
 62
     7
370
    15
100
AcDbLine
 10
154.6942910102
 20
120.2241184564
 30
0.0
 11
154.6942910102
 21
110.6045610234
 31
0.0
  0
LINE
  5
A7
330
1F
100
AcDbEntity
  8
0
  6
Continuous
 62
     7
370
    15
100
AcDbLine
 10
153.1942910102
 20
119.7911057545
 30
0.0
 11
153.1942910102
 21
111.0375737253
 31
0.0
  0
LINE
  5
A8
330
1F
100
AcDbEntity
  8
0
  6
Continuous
 62
     7
370
    15
100
AcDbLine
 10
180.9942910102
 20
120.5544922277
 30
0.0
 11
180.9942910102
 21
132.9344385244
 31
0.0
  0
ARC
  5
A9
330
1F
100
AcDbEntity
  8
0
  6
Continuous
 62
     7
370
    15
100
AcDbCircle
 10
181.1942279212
 20
132.9394616355
 30
0.0
 40
0.2000000000000066
100
AcDbArc
 50
181.4391666667
 51
271.4391666667
  0
LINE
  5
AA
330
1F
100
AcDbEntity
  8
0
  6
Continuous
 62
     7
370
    15
100
AcDbLine
 10
154.6942910102
 20
120.2241184564
 30
0.0
 11
154.6942910102
 21
132.2736909818
 31
0.0
  0
LINE
  5
AB
330
1F
100
AcDbEntity
  8
0
  6
Continuous
 62
     7
370
    15
100
AcDbLine
 10
154.6942910102
 20
132.2736909818
 30
0.0
 11
180.9942910102
 21
132.9344385244
 31
0.0
  0
LINE
  5
AC
330
1F
100
AcDbEntity
  8
0
  6
Continuous
 62
     7
370
    15
100
AcDbLine
 10
154.6942910102
 20
98.5549884979
 30
0.0
 11
154.6942910102
 21
110.6045610234
 31
0.0
  0
LINE
  5
AD
330
1F
100
AcDbEntity
  8
0
  6
Continuous
 62
     7
370
    15
100
AcDbLine
 10
180.9942910102
 20
97.8942409553
 30
0.0
 11
180.9942910102
 21
110.2741872521
 31
0.0
  0
LINE
  5
AE
330
1F
100
AcDbEntity
  8
0
  6
Continuous
 62
     7
370
    15
100
AcDbLine
 10
154.6942910102
 20
98.5549884979
 30
0.0
 11
180.9942910102
 21
97.8942409553
 31
0.0
  0
ARC
  5
AF
330
1F
100
AcDbEntity
  8
0
  6
Continuous
 62
     7
370
    15
100
AcDbCircle
 10
181.1942279212
 20
97.8892178442
 30
0.0
 40
0.2000000000000059
100
AcDbArc
 50
88.5608333333
 51
178.5608333333
  0
LINE
  5
B0
330
1F
100
AcDbEntity
  8
0
  6
Continuous
 62
     7
370
    15
100
AcDbLine
 10
181.1992510323
 20
98.0891547551
 30
0.0
 11
182.1534299821
 21
98.0651824587
 31
0.0
  0
LINE
  5
B1
330
1F
100
AcDbEntity
  8
0
  6
Continuous
 62
     7
370
    15
100
AcDbLine
 10
181.1992510323
 20
132.7395247246
 30
0.0
 11
182.1534299821
 21
132.7634970211
 31
0.0
  0
LINE
  5
B2
330
1F
100
AcDbEntity
  8
0
  6
Continuous
 62
     7
370
    15
100
AcDbLine
 10
153.1942910102
 20
131.407665578
 30
0.0
 11
154.6942910102
 21
132.2736909818
 31
0.0
  0
LINE
  5
B3
330
1F
100
AcDbEntity
  8
0
  6
Continuous
 62
     7
370
    15
100
AcDbLine
 10
153.1942910102
 20
119.7911057545
 30
0.0
 11
153.1942910102
 21
131.407665578
 31
0.0
  0
LINE
  5
B4
330
1F
100
AcDbEntity
  8
0
  6
Continuous
 62
     7
370
    15
100
AcDbLine
 10
153.1942910102
 20
99.4210139017
 30
0.0
 11
154.6942910102
 21
98.5549884979
 31
0.0
  0
LINE
  5
B5
330
1F
100
AcDbEntity
  8
0
  6
Continuous
 62
     7
370
    15
100
AcDbLine
 10
153.1942910102
 20
99.4210139017
 30
0.0
 11
153.1942910102
 21
111.0375737253
 31
0.0
  0
SPLINE
  5
B6
330
1F
100
AcDbEntity
  8
0
  6
Continuous
 62
     7
370
    15
100
AcDbSpline
210
0.0
220
0.0
230
1.0
 70
     8
 71
     3
 72
     8
 73
     4
 74
     0
 42
0.000000001
 43
0.00000001
 40
0.0
 40
0.0
 40
0.0
 40
0.0
 40
1.0
 40
1.0
 40
1.0
 40
1.0
 10
215.4962719741827
 20
140.4149445355533
 30
0.0
 10
215.4732758330518
 20
140.4133467632215
 30
0.0
 10
215.4501739270436
 20
140.4125428518635
 30
0.0
 10
215.426964022261
 20
140.4125492713865
 30
0.0
  0
SPLINE
  5
B7
330
1F
100
AcDbEntity
  8
0
  6
Continuous
 62
     7
370
    15
100
AcDbSpline
210
0.0
220
0.0
230
1.0
 70
     8
 71
     3
 72
     8
 73
     4
 74
     0
 42
0.000000001
 43
0.00000001
 40
0.0
 40
0.0
 40
0.0
 40
0.0
 40
1.0
 40
1.0
 40
1.0
 40
1.0
 10
215.426964022261
 20
90.4161302083295
 30
0.0
 10
215.4499844442499
 20
90.41613657544431
 30
0.0
 10
215.4732216108191
 20
90.4153364838562
 30
0.0
 10
215.4962719741769
 20
90.41373494416311
 30
0.0
  0
LINE
  5
B8
330
1F
100
AcDbEntity
  8
0
  6
Continuous
 62
     7
370
    15
100
AcDbLine
 10
216.292989426
 20
140.9125749729
 30
0.0
 11
220.39381404
 21
140.9125749729
 31
0.0
  0
LINE
  5
B9
330
1F
100
AcDbEntity
  8
0
  6
Continuous
 62
     7
370
    15
100
AcDbLine
 10
240.0565817685
 20
112.8312324344
 30
0.0
 11
220.39381404
 21
140.9125749729
 31
0.0
  0
LINE
  5
BA
330
1F
100
AcDbEntity
  8
0
  6
Continuous
 62
     7
370
    15
100
AcDbLine
 10
241.7696327848
 20
93.2509697204
 30
0.0
 11
240.0565817685
 21
112.8312324344
 31
0.0
  0
ARC
  5
BB
330
1F
100
AcDbEntity
  8
0
  6
Continuous
 62
     7
370
    15
100
AcDbCircle
 10
230.4488278963
 20
93.1598028538
 30
0.0
 40
2.099999999999997
100
AcDbArc
 50
25.8700037428
 51
244.1299962572
  0
LINE
  5
BC
330
1F
100
AcDbEntity
  8
0
  6
Continuous
 62
     7
370
    15
100
AcDbLine
 10
230.3340877921
 20
82.1084413043
 30
0.0
 11
218.1342283874
 21
83.1757906989
 31
0.0
  0
LINE
  5
BD
330
1F
100
AcDbEntity
  8
0
  6
Continuous
 62
     7
370
    15
100
AcDbLine
 10
216.3928898486
 20
89.6749070159
 30
0.0
 11
218.1342283874
 21
83.1757906989
 31
0.0
  0
SPLINE
  5
BE
330
1F
100
AcDbEntity
  8
0
  6
Continuous
 62
     7
370
    15
100
AcDbSpline
210
0.0
220
0.0
230
1.0
 70
     8
 71
     3
 72
    12
 73
     8
 74
     0
 42
0.000000001
 43
0.00000001
 40
0.0
 40
0.0
 40
0.0
 40
0.0
 40
0.2499999999999968
 40
0.2499999999999968
 40
0.4999999999999936
 40
0.4999999999999936
 40
1.0
 40
1.0
 40
1.0
 40
1.0
 10
215.4962719741769
 20
90.41373494416312
 30
0.0
 10
215.59934441223
 20
90.40657346916844
 30
0.0
 10
215.7024430268366
 20
90.38300614289253
 30
0.0
 10
215.894722505592
 20
90.30603404498369
 30
0.0
 10
215.9834826531317
 20
90.25344305443411
 30
0.0
 10
216.2239967429422
 20
90.05484391532143
 30
0.0
 10
216.3393029610533
 20
89.8749095859452
 30
0.0
 10
216.3928898485501
 20
89.67490701586861
 30
0.0
  0
SPLINE
  5
BF
330
1F
100
AcDbEntity
  8
0
  6
Continuous
 62
     7
370
    15
100
AcDbSpline
210
0.0
220
0.0
230
1.0
 70
     8
 71
     3
 72
    10
 73
     6
 74
     0
 42
0.000000001
 43
0.00000001
 40
0.0
 40
0.0
 40
0.0
 40
0.0
 40
0.5
 40
0.5
 40
1.0
 40
1.0
 40
1.0
 40
1.0
 10
216.292989426045
 20
140.9125749729081
 30
0.0
 10
216.2119669541335
 20
140.7722302222273
 30
0.0
 10
216.0936228020607
 20
140.6497184360682
 30
0.0
 10
215.818058190662
 20
140.4779849467217
 30
0.0
 10
215.658596064332
 20
140.4262228164855
 30
0.0
 10
215.4962719741827
 20
140.4149445355533
 30
0.0
  0
LINE
  5
C0
330
1F
100
AcDbEntity
  8
0
  6
Continuous
 62
     7
370
    15
100
AcDbLine
 10
229.3050650062
 20
93.8702255675
 30
0.0
 11
230.358218107
 21
81.8326305435
 31
0.0
  0
ARC
  5
C1
330
1F
100
AcDbEntity
  8
0
  6
Continuous
 62
     7
370
    15
100
AcDbCircle
 10
229.7035428855
 20
93.9050878646
 30
0.0
 40
0.399999999999996
100
AcDbArc
 50
85.0
 51
185.0
  0
LINE
  5
C2
330
1F
100
AcDbEntity
  8
0
  6
Continuous
 62
     7
370
    15
100
AcDbLine
 10
241.7760002066
 20
93.2504126431
 30
0.0
 11
229.7384051826
 21
94.3035657438
 31
0.0
  0
ARC
  5
C3
330
1F
100
AcDbEntity
  8
0
  6
Continuous
 62
     7
370
    15
100
AcDbCircle
 10
241.7411379095
 20
92.8519347639
 30
0.0
 40
0.399999999999996
100
AcDbArc
 50
5.0
 51
85.0
  0
LINE
  5
C4
330
1F
100
AcDbEntity
  8
0
  6
Continuous
 62
     7
370
    15
100
AcDbLine
 10
243.1927688895
 20
80.849202037
 30
0.0
 11
242.1396157888
 21
92.886797061
 31
0.0
  0
ARC
  5
C5
330
1F
100
AcDbEntity
  8
0
  6
Continuous
 62
     7
370
    15
100
AcDbCircle
 10
242.7942910102
 20
80.8143397399
 30
0.0
 40
0.400000000000009
100
AcDbArc
 50
265.0
 51
5.0
  0
LINE
  5
C6
330
1F
100
AcDbEntity
  8
0
  6
Continuous
 62
     7
370
    15
100
AcDbLine
 10
230.7218336891
 20
81.4690149613
 30
0.0
 11
242.7594287131
 21
80.4158618606
 31
0.0
  0
ARC
  5
C7
330
1F
100
AcDbEntity
  8
0
  6
Continuous
 62
     7
370
    15
100
AcDbCircle
 10
230.7566959862
 20
81.8674928406
 30
0.0
 40
0.400000000000009
100
AcDbArc
 50
185.0
 51
265.0
  0
ARC
  5
C8
330
1F
100
AcDbEntity
  8
0
  6
Continuous
 62
     7
370
    15
100
AcDbCircle
 10
242.7942910102
 20
80.8143397399
 30
0.0
 40
0.3800000000000121
100
AcDbArc
 50
265.0
 51
5.0
  0
LINE
  5
C9
330
1F
100
AcDbEntity
  8
0
  6
Continuous
 62
     7
370
    15
100
AcDbLine
 10
243.1728449955
 20
80.8474589221
 30
0.0
 11
242.1196918945
 21
92.8850539461
 31
0.0
  0
ARC
  5
CA
330
1F
100
AcDbEntity
  8
0
  6
Continuous
 62
     7
370
    15
100
AcDbCircle
 10
241.7411379095
 20
92.8519347639
 30
0.0
 40
0.3799999999999979
100
AcDbArc
 50
5.0
 51
85.0
  0
LINE
  5
CB
330
1F
100
AcDbEntity
  8
0
  6
Continuous
 62
     7
370
    15
100
AcDbLine
 10
241.7742570918
 20
93.2304887492
 30
0.0
 11
229.7366620677
 21
94.2836418499
 31
0.0
  0
ARC
  5
CC
330
1F
100
AcDbEntity
  8
0
  6
Continuous
 62
     7
370
    15
100
AcDbCircle
 10
229.7035428855
 20
93.9050878646
 30
0.0
 40
0.3800000000000145
100
AcDbArc
 50
85.0
 51
185.0
  0
LINE
  5
CD
330
1F
100
AcDbEntity
  8
0
  6
Continuous
 62
     7
370
    15
100
AcDbLine
 10
229.3249889002
 20
93.8719686824
 30
0.0
 11
230.3781420009
 21
81.8343736583
 31
0.0
  0
ARC
  5
CE
330
1F
100
AcDbEntity
  8
0
  6
Continuous
 62
     7
370
    15
100
AcDbCircle
 10
230.7566959862
 20
81.8674928406
 30
0.0
 40
0.3800000000000004
100
AcDbArc
 50
185.0
 51
265.0
  0
LINE
  5
CF
330
1F
100
AcDbEntity
  8
0
  6
Continuous
 62
     7
370
    15
100
AcDbLine
 10
230.723576804
 20
81.4889388553
 30
0.0
 11
242.761171828
 21
80.4357857546
 31
0.0
  0
LINE
  5
D0
330
1F
100
AcDbEntity
  8
0
  6
Continuous
 62
     7
370
    15
100
AcDbLine
 10
241.7411379095
 20
92.8519347639
 30
0.0
 11
242.1196918945
 21
92.8850539461
 31
0.0
  0
LINE
  5
D1
330
1F
100
AcDbEntity
  8
0
  6
Continuous
 62
     7
370
    15
100
AcDbLine
 10
242.7942910102
 20
80.8143397399
 30
0.0
 11
243.1728449955
 21
80.8474589221
 31
0.0
  0
LINE
  5
D2
330
1F
100
AcDbEntity
  8
0
  6
Continuous
 62
     7
370
    15
100
AcDbLine
 10
241.8752906657
 20
81.7333400844
 30
0.0
 11
242.7942910102
 21
80.8143397399
 31
0.0
  0
LINE
  5
D3
330
1F
100
AcDbEntity
  8
0
  6
Continuous
 62
     7
370
    15
100
AcDbLine
 10
241.1674435803
 20
92.2782404347
 30
0.0
 11
241.7411379095
 21
92.8519347639
 31
0.0
  0
LINE
  5
D4
330
1F
100
AcDbEntity
  8
0
  6
Continuous
 62
     7
370
    15
100
AcDbLine
 10
242.7942910102
 20
80.8143397399
 30
0.0
 11
242.761171828
 21
80.4357857546
 31
0.0
  0
LINE
  5
D5
330
1F
100
AcDbEntity
  8
0
  6
Continuous
 62
     7
370
    15
100
AcDbLine
 10
230.7566959862
 20
81.8674928406
 30
0.0
 11
230.723576804
 21
81.4889388553
 31
0.0
  0
LINE
  5
D6
330
1F
100
AcDbEntity
  8
0
  6
Continuous
 62
     7
370
    15
100
AcDbLine
 10
231.3303903154
 20
82.4411871698
 30
0.0
 11
230.7566959862
 21
81.8674928406
 31
0.0
  0
LINE
  5
D7
330
1F
100
AcDbEntity
  8
0
  6
Continuous
 62
     7
370
    15
100
AcDbLine
 10
240.9083209952
 20
83.7836601958
 30
0.0
 11
240.3189092598
 21
90.5206671588
 31
0.0
  0
LINE
  5
D8
330
1F
100
AcDbEntity
  8
0
  6
Continuous
 62
     7
370
    15
100
AcDbLine
 10
241.7411379095
 20
92.8519347639
 30
0.0
 11
241.7742570918
 21
93.2304887492
 31
0.0
  0
LINE
  5
D9
330
1F
100
AcDbEntity
  8
0
  6
Continuous
 62
     7
370
    15
100
AcDbLine
 10
229.7035428855
 20
93.9050878646
 30
0.0
 11
229.7366620677
 21
94.2836418499
 31
0.0
  0
LINE
  5
DA
330
1F
100
AcDbEntity
  8
0
  6
Continuous
 62
     7
370
    15
100
AcDbLine
 10
230.62254323
 20
92.9860875201
 30
0.0
 11
229.7035428855
 21
93.9050878646
 31
0.0
  0
ARC
  5
DB
330
1F
100
AcDbEntity
  8
0
  6
Continuous
 62
     7
370
    15
100
AcDbCircle
 10
239.9121262971
 20
83.696504453
 30
0.0
 40
1.000000000295387
100
AcDbArc
 50
265.0
 51
5.0
  0
LINE
  5
DC
330
1F
100
AcDbEntity
  8
0
  6
Continuous
 62
     7
370
    15
100
AcDbLine
 10
231.5895129006
 20
90.9357674087
 30
0.0
 11
232.1789246359
 21
84.1987604457
 31
0.0
  0
ARC
  5
DD
330
1F
100
AcDbEntity
  8
0
  6
Continuous
 62
     7
370
    15
100
AcDbCircle
 10
232.5857075987
 20
91.0229231514
 30
0.0
 40
0.9999999999999983
100
AcDbArc
 50
85.0
 51
185.0
  0
LINE
  5
DE
330
1F
100
AcDbEntity
  8
0
  6
Continuous
 62
     7
370
    15
100
AcDbLine
 10
239.4098703044
 20
91.4297061142
 30
0.0
 11
232.6728633414
 21
92.0191178495
 31
0.0
  0
ARC
  5
DF
330
1F
100
AcDbEntity
  8
0
  6
Continuous
 62
     7
370
    15
100
AcDbCircle
 10
239.3227145617
 20
90.4335114161
 30
0.0
 40
1.00000000000001
100
AcDbArc
 50
5.0
 51
85.0
  0
LINE
  5
E0
330
1F
100
AcDbEntity
  8
0
  6
Continuous
 62
     7
370
    15
100
AcDbLine
 10
233.0879635913
 20
83.2897214903
 30
0.0
 11
239.8249705543
 21
82.7003097547
 31
0.0
  0
ARC
  5
E1
330
1F
100
AcDbEntity
  8
0
  6
Continuous
 62
     7
370
    15
100
AcDbCircle
 10
233.175119334
 20
84.2859161884
 30
0.0
 40
0.9999999999999959
100
AcDbArc
 50
185.0
 51
265.0
  0
CIRCLE
  5
E2
330
1F
100
AcDbEntity
  8
0
  6
Continuous
 62
     7
370
    15
100
AcDbCircle
 10
236.2489169479
 20
87.3597138022
 30
0.0
 40
3.80000000000001
  0
LINE
  5
E3
330
1F
100
AcDbEntity
  8
0
  6
Continuous
 62
     7
370
    15
100
AcDbLine
 10
230.7566959862
 20
81.8674928406
 30
0.0
 11
230.3781420009
 21
81.8343736583
 31
0.0
  0
LINE
  5
E4
330
1F
100
AcDbEntity
  8
0
  6
Continuous
 62
     7
370
    15
100
AcDbLine
 10
229.7035428855
 20
93.9050878646
 30
0.0
 11
229.3249889002
 21
93.8719686824
 31
0.0
  0
SPLINE
  5
E5
330
1F
100
AcDbEntity
  8
0
  6
Continuous
 62
     7
370
    15
100
AcDbSpline
210
0.0
220
0.0
230
1.0
 70
    24
 71
     3
 72
    11
 73
     7
 74
     0
 42
0.000000001
 43
0.00000001
 40
0.0
 40
0.0
 40
0.0
 40
0.0
 40
0.0076282660081477
 40
0.3209888652278506
 40
0.6632168868568658
 40
1.0
 40
1.0
 40
1.0
 40
1.0
 10
241.386363088148
 20
82.22226766195001
 30
0.0
 10
241.3874786488222
 20
82.22115210127579
 30
0.0
 10
241.4344201889477
 20
82.17421056114999
 30
0.0
 10
241.5384761616535
 20
82.07015458843595
 30
0.0
 10
241.707924025748
 20
81.90070672435232
 30
0.0
 10
241.81980082794
 20
81.78882992215851
 30
0.0
 10
241.8752906657368
 20
81.7333400843608
 30
0.0
  0
SPLINE
  5
E6
330
1F
100
AcDbEntity
  8
0
  6
Continuous
 62
     7
370
    15
100
AcDbSpline
210
0.0
220
0.0
230
1.0
 70
    24
 71
     3
 72
    11
 73
     7
 74
     0
 42
0.000000001
 43
0.00000001
 40
0.0
 40
0.0
 40
0.0
 40
0.0
 40
0.3372314186520149
 40
0.6736321483069124
 40
0.99188356089653
 40
1.0
 40
1.0
 40
1.0
 40
1.0
 10
241.1674435802877
 20
92.27824043466087
 30
0.0
 10
241.112539767668
 20
92.22333662204117
 30
0.0
 10
241.0028673848483
 20
92.11366423922141
 30
0.0
 10
240.8314152157949
 20
91.94221207016814
 30
0.0
 10
240.7259365715998
 20
91.8367334259727
 30
0.0
 10
240.6779803691898
 20
91.78877722356296
 30
0.0
 10
240.6767877468329
 20
91.78758460120609
 30
0.0
  0
SPLINE
  5
E7
330
1F
100
AcDbEntity
  8
0
  6
Continuous
 62
     7
370
    15
100
AcDbSpline
210
0.0
220
0.0
230
1.0
 70
    24
 71
     3
 72
    11
 73
     7
 74
     0
 42
0.000000001
 43
0.00000001
 40
0.0
 40
0.0
 40
0.0
 40
0.0
 40
0.0081164391031346
 40
0.3263678516928539
 40
0.6627685813478752
 40
1.0
 40
1.0
 40
1.0
 40
1.0
 10
231.8210461488918
 20
82.93184300326497
 30
0.0
 10
231.819853526535
 20
82.93065038090813
 30
0.0
 10
231.771897324125
 20
82.88269417849818
 30
0.0
 10
231.66641867993
 20
82.77721553430317
 30
0.0
 10
231.4949665108766
 20
82.60576336524977
 30
0.0
 10
231.3852941280569
 20
82.49609098243003
 30
0.0
 10
231.3303903154371
 20
82.44118716981033
 30
0.0
  0
SPLINE
  5
E8
330
1F
100
AcDbEntity
  8
0
  6
Continuous
 62
     7
370
    15
100
AcDbSpline
210
0.0
220
0.0
230
1.0
 70
    24
 71
     3
 72
    11
 73
     7
 74
     0
 42
0.000000001
 43
0.00000001
 40
0.0
 40
0.0
 40
0.0
 40
0.0
 40
0.336783113141518
 40
0.6790111347691479
 40
0.9923717339918704
 40
1.0
 40
1.0
 40
1.0
 40
1.0
 10
230.6225432299878
 20
92.98608752011026
 30
0.0
 10
230.6780330677848
 20
92.93059768231329
 30
0.0
 10
230.7899098699772
 20
92.81872088012089
 30
0.0
 10
230.9593577340664
 20
92.64927301603154
 30
0.0
 10
231.0634137067766
 20
92.54521704332173
 30
0.0
 10
231.1103552469026
 20
92.49827550319542
 30
0.0
 10
231.1114708075769
 20
92.4971599425212
 30
0.0
  0
CIRCLE
  5
E9
330
1F
100
AcDbEntity
  8
0
  6
Continuous
 62
     7
370
    15
100
AcDbCircle
 10
236.1691548079
 20
87.4394759422
 30
0.0
 40
3.499999999999988
  0
CIRCLE
  5
EA
330
1F
100
AcDbEntity
  8
0
  6
Continuous
 62
     7
370
    15
100
AcDbCircle
 10
236.1691548079
 20
87.4394759422
 30
0.0
 40
2.633974596215571
  0
CIRCLE
  5
EB
330
1F
100
AcDbEntity
  8
0
  6
Continuous
 62
     7
370
    15
100
AcDbCircle
 10
236.1691548079
 20
87.4394759422
 30
0.0
 40
1.999999999999981
  0
SPLINE
  5
EC
330
1F
100
AcDbEntity
  8
0
  6
Continuous
 62
     7
370
    15
100
AcDbSpline
210
0.0
220
0.0
230
1.0
 70
     8
 71
     3
 72
    15
 73
    11
 74
     0
 42
0.000000001
 43
0.00000001
 40
0.0
 40
0.0
 40
0.0
 40
0.0
 40
0.1262470803730149
 40
0.2533633350513272
 40
0.3794185517357324
 40
0.5042689738350773
 40
0.6284502821607528
 40
0.7526361292231372
 40
0.877489191211515
 40
1.0
 40
1.0
 40
1.0
 40
1.0
 10
237.5609071892144
 20
86.44565928443215
 30
0.0
 10
237.6051610481433
 20
86.44280128318616
 30
0.0
 10
237.6939734409052
 20
86.43706560418963
 30
0.0
 10
237.8218205544799
 20
86.48519497061216
 30
0.0
 10
237.9266413566054
 20
86.56999916248891
 30
0.0
 10
237.9969200146867
 20
86.6848559067757
 30
0.0
 10
238.0254458326791
 20
86.81571899955756
 30
0.0
 10
238.0090848297651
 20
86.94773979933287
 30
0.0
 10
237.9524118146031
 20
87.06872199652851
 30
0.0
 10
237.8870553290213
 20
87.1258965041865
 30
0.0
 10
237.854686511849
 20
87.15421306938767
 30
0.0
  0
SPLINE
  5
ED
330
1F
100
AcDbEntity
  8
0
  6
Continuous
 62
     7
370
    15
100
AcDbSpline
210
0.0
220
0.0
230
1.0
 70
     8
 71
     3
 72
    12
 73
     8
 74
     0
 42
0.000000001
 43
0.00000001
 40
0.0
 40
0.0
 40
0.0
 40
0.0
 40
0.2058748011360251
 40
0.4120995812663029
 40
0.6141693366125257
 40
0.8132901286728306
 40
1.0
 40
1.0
 40
1.0
 40
1.0
 10
237.854686511849
 20
87.15421306938767
 30
0.0
 10
237.7967401533731
 20
87.20511961966439
 30
0.0
 10
237.6807489299108
 20
87.30701925933367
 30
0.0
 10
237.58224776524
 20
87.52245575694037
 30
0.0
 10
237.5571918983049
 20
87.75197688004869
 30
0.0
 10
237.6034399351764
 20
87.97320954421055
 30
0.0
 10
237.6846259620413
 20
88.09247711805374
 30
0.0
 10
237.7239132299231
 20
88.1501926795134
 30
0.0
  0
SPLINE
  5
EE
330
1F
100
AcDbEntity
  8
0
  6
Continuous
 62
     7
370
    15
100
AcDbSpline
210
0.0
220
0.0
230
1.0
 70
     8
 71
     3
 72
    15
 73
    11
 74
     0
 42
0.000000001
 43
0.00000001
 40
0.0
 40
0.0
 40
0.0
 40
0.0
 40
0.1268765508970241
 40
0.2539936290345179
 40
0.3800496379883587
 40
0.5049006370991534
 40
0.6290821973265659
 40
0.7532679407718557
 40
0.8781205851189697
 40
1.0
 40
1.0
 40
1.0
 40
1.0
 10
237.7239132299231
 20
88.15019267951341
 30
0.0
 10
237.7486226990646
 20
88.18728727568579
 30
0.0
 10
237.7980884805221
 20
88.26154679040924
 30
0.0
 10
237.8201359673115
 20
88.39659733989346
 30
0.0
 10
237.7988795923189
 20
88.52974010789053
 30
0.0
 10
237.7343494839044
 20
88.64792347618466
 30
0.0
 10
237.635129389889
 20
88.73789100748242
 30
0.0
 10
237.5125266621087
 20
88.789526246955
 30
0.0
 10
237.3796280681481
 20
88.80068772396454
 30
0.0
 10
237.2976650014364
 20
88.77271014629623
 30
0.0
 10
237.2571773135213
 20
88.75888992849937
 30
0.0
  0
SPLINE
  5
EF
330
1F
100
AcDbEntity
  8
0
  6
Continuous
 62
     7
370
    15
100
AcDbSpline
210
0.0
220
0.0
230
1.0
 70
     8
 71
     3
 72
    12
 73
     8
 74
     0
 42
0.000000001
 43
0.00000001
 40
0.0
 40
0.0
 40
0.0
 40
0.0
 40
0.2057949882088078
 40
0.4120010155283858
 40
0.6140549927930993
 40
0.8131810826684569
 40
1.0
 40
1.0
 40
1.0
 40
1.0
 10
237.2571773135213
 20
88.75888992849937
 30
0.0
 10
237.1841457874509
 20
88.73416684503616
 30
0.0
 10
237.0379368677465
 20
88.68467129812078
 30
0.0
 10
236.8021495325693
 20
88.70704919585894
 30
0.0
 10
236.5908478550345
 20
88.8000724564102
 30
0.0
 10
236.4223269549009
 20
88.9507332615708
 30
0.0
 10
236.3596069906855
 20
89.08071050928824
 30
0.0
 10
236.3292470285381
 20
89.14362674927806
 30
0.0
  0
SPLINE
  5
F0
330
1F
100
AcDbEntity
  8
0
  6
Continuous
 62
     7
370
    15
100
AcDbSpline
210
0.0
220
0.0
230
1.0
 70
     8
 71
     3
 72
    15
 73
    11
 74
     0
 42
0.000000001
 43
0.00000001
 40
0.0
 40
0.0
 40
0.0
 40
0.0
 40
0.1268036956060975
 40
0.2539263442698959
 40
0.379987267176659
 40
0.5048410097957383
 40
0.6290227167746367
 40
0.7532063308915014
 40
0.8780553361591621
 40
1.0
 40
1.0
 40
1.0
 40
1.0
 10
236.3292470285381
 20
89.14362674927806
 30
0.0
 10
236.3094909816425
 20
89.1835501791946
 30
0.0
 10
236.2699291948867
 20
89.26349745960289
 30
0.0
 10
236.1640325058945
 20
89.35012176076407
 30
0.0
 10
236.0381047412093
 20
89.39830944744361
 30
0.0
 10
235.9034877796631
 20
89.40154054455277
 30
0.0
 10
235.7759552721123
 20
89.36061896228108
 30
0.0
 10
235.6699231552897
 20
89.28027818344562
 30
0.0
 10
235.5937745779933
 20
89.17075962863174
 30
0.0
 10
235.5770136364142
 20
89.08576661069708
 30
0.0
 10
235.5687317895017
 20
89.04377021330852
 30
0.0
  0
SPLINE
  5
F1
330
1F
100
AcDbEntity
  8
0
  6
Continuous
 62
     7
370
    15
100
AcDbSpline
210
0.0
220
0.0
230
1.0
 70
     8
 71
     3
 72
    12
 73
     8
 74
     0
 42
0.000000001
 43
0.00000001
 40
0.0
 40
0.0
 40
0.0
 40
0.0
 40
0.2058497400954127
 40
0.4120524486337228
 40
0.6141081262894963
 40
0.813243190367469
 40
0.9999999999999999
 40
0.9999999999999999
 40
0.9999999999999999
 40
0.9999999999999999
 10
235.5687317895017
 20
89.04377021330852
 30
0.0
 10
235.5536207900028
 20
88.96814109032636
 30
0.0
 10
235.5233728803287
 20
88.8167531638788
 30
0.0
 10
235.3860695895206
 20
88.62373970722813
 30
0.0
 10
235.1998454983146
 20
88.48727390425117
 30
0.0
 10
234.9851213251969
 20
88.41668762621691
 30
0.0
 10
234.8412183068882
 20
88.42736162130093
 30
0.0
 10
234.7715747864445
 20
88.43252742396157
 30
0.0
  0
SPLINE
  5
F2
330
1F
100
AcDbEntity
  8
0
  6
Continuous
 62
     7
370
    15
100
AcDbSpline
210
0.0
220
0.0
230
1.0
 70
     8
 71
     3
 72
    15
 73
    11
 74
     0
 42
0.000000001
 43
0.00000001
 40
0.0
 40
0.0
 40
0.0
 40
0.0
 40
0.1262564375372658
 40
0.2533820972841699
 40
0.379445481130768
 40
0.5043002379033817
 40
0.6284814530466099
 40
0.7526634909000774
 40
0.8775104621121802
 40
1.0
 40
1.0
 40
1.0
 40
1.0
 10
234.7715747864445
 20
88.43252742396157
 30
0.0
 10
234.727318789237
 20
88.43538534975706
 30
0.0
 10
234.6385021109864
 20
88.44112087695925
 30
0.0
 10
234.5106501752369
 20
88.39298619550725
 30
0.0
 10
234.4058280204224
 20
88.30817412919377
 30
0.0
 10
234.3355531595217
 20
88.19330981468322
 30
0.0
 10
234.3070350006736
 20
88.06244331978067
 30
0.0
 10
234.323403982096
 20
87.93042454247343
 30
0.0
 10
234.3800802555232
 20
87.80945338091561
 30
0.0
 10
234.4454313542369
 20
87.75228525786186
 30
0.0
 10
234.4777954638098
 20
87.72397363900603
 30
0.0
  0
SPLINE
  5
F3
330
1F
100
AcDbEntity
  8
0
  6
Continuous
 62
     7
370
    15
100
AcDbSpline
210
0.0
220
0.0
230
1.0
 70
     8
 71
     3
 72
    12
 73
     8
 74
     0
 42
0.000000001
 43
0.00000001
 40
0.0
 40
0.0
 40
0.0
 40
0.0
 40
0.2058713741444495
 40
0.4120924153877241
 40
0.614168353343273
 40
0.8133068872803515
 40
1.0
 40
1.0
 40
1.0
 40
1.0
 10
234.4777954638098
 20
87.72397363900603
 30
0.0
 10
234.5357412595546
 20
87.67306766183525
 30
0.0
 10
234.6517312704497
 20
87.57116924503416
 30
0.0
 10
234.7502331857469
 20
87.35573408763733
 30
0.0
 10
234.7752913342078
 20
87.12620821999336
 30
0.0
 10
234.7290404207437
 20
86.90497228019238
 30
0.0
 10
234.6478530415386
 20
86.78570440747971
 30
0.0
 10
234.6085687457358
 20
86.72799402888033
 30
0.0
  0
SPLINE
  5
F4
330
1F
100
AcDbEntity
  8
0
  6
Continuous
 62
     7
370
    15
100
AcDbSpline
210
0.0
220
0.0
230
1.0
 70
     8
 71
     3
 72
    15
 73
    11
 74
     0
 42
0.000000001
 43
0.00000001
 40
0.0
 40
0.0
 40
0.0
 40
0.0
 40
0.1268702503425243
 40
0.2539810595566294
 40
0.3800301963394497
 40
0.5048749967545213
 40
0.6290527571813241
 40
0.7532384607996326
 40
0.8780953942141995
 40
1.0
 40
1.0
 40
1.0
 40
1.0
 10
234.6085687457358
 20
86.72799402888033
 30
0.0
 10
234.5838599319058
 20
86.69090068498018
 30
0.0
 10
234.5343954538271
 20
86.61664366443497
 30
0.0
 10
234.5123465119215
 20
86.48159753616366
 30
0.0
 10
234.5335988521793
 20
86.3484586582247
 30
0.0
 10
234.5981222313424
 20
86.23027714366785
 30
0.0
 10
234.6973348900552
 20
86.14030745019049
 30
0.0
 10
234.8199327562676
 20
86.08866598087111
 30
0.0
 10
234.9528379092273
 20
86.07749577130879
 30
0.0
 10
235.0348093211944
 20
86.10547469304863
 30
0.0
 10
235.0753046621375
 20
86.11929677989434
 30
0.0
  0
SPLINE
  5
F5
330
1F
100
AcDbEntity
  8
0
  6
Continuous
 62
     7
370
    15
100
AcDbSpline
210
0.0
220
0.0
230
1.0
 70
     8
 71
     3
 72
    12
 73
     8
 74
     0
 42
0.000000001
 43
0.00000001
 40
0.0
 40
0.0
 40
0.0
 40
0.0
 40
0.205832175092069
 40
0.4120750343576062
 40
0.6141697879283395
 40
0.8133029339856304
 40
1.0
 40
1.0
 40
1.0
 40
1.0
 10
235.0753046621375
 20
86.11929677989434
 30
0.0
 10
235.148346971492
 20
86.14402229954631
 30
0.0
 10
235.2945773269908
 20
86.19352267214617
 30
0.0
 10
235.5303967587241
 20
86.17112535610026
 30
0.0
 10
235.7417183267461
 20
86.07806394561814
 30
0.0
 10
235.9102002138308
 20
85.9273851746923
 30
0.0
 10
235.9728969834856
 20
85.79743888799756
 30
0.0
 10
236.0032349471207
 20
85.73455995911559
 30
0.0
  0
SPLINE
  5
F6
330
1F
100
AcDbEntity
  8
0
  6
Continuous
 62
     7
370
    15
100
AcDbSpline
210
0.0
220
0.0
230
1.0
 70
     8
 71
     3
 72
    15
 73
    11
 74
     0
 42
0.000000001
 43
0.00000001
 40
0.0
 40
0.0
 40
0.0
 40
0.0
 40
0.1267880291974307
 40
0.2538950064075696
 40
0.3799409022876961
 40
0.5047841289691912
 40
0.6289621452108732
 40
0.7531495391280338
 40
0.8780089278148406
 40
1.0
 40
1.0
 40
1.0
 40
1.0
 10
236.0032349471207
 20
85.73455995911559
 30
0.0
 10
236.0229891023197
 20
85.69463953458437
 30
0.0
 10
236.0625471062779
 20
85.61469826168735
 30
0.0
 10
236.1684322229717
 20
85.52807641781234
 30
0.0
 10
236.2943471146023
 20
85.47988440730029
 30
0.0
 10
236.4289544681648
 20
85.47664133548929
 30
0.0
 10
236.5564860323247
 20
85.51754707771691
 30
0.0
 10
236.6625268607213
 20
85.5978746566514
 30
0.0
 10
236.7386974360483
 20
85.70739724059689
 30
0.0
 10
236.7554642108179
 20
85.79240600099911
 30
0.0
 10
236.7637501861571
 20
85.83441649508515
 30
0.0
  0
SPLINE
  5
F7
330
1F
100
AcDbEntity
  8
0
  6
Continuous
 62
     7
370
    15
100
AcDbSpline
210
0.0
220
0.0
230
1.0
 70
     8
 71
     3
 72
    12
 73
     8
 74
     0
 42
0.000000001
 43
0.00000001
 40
0.0
 40
0.0
 40
0.0
 40
0.0
 40
0.205890359643278
 40
0.4121336430767538
 40
0.6142239121176254
 40
0.8133482777366876
 40
1.0
 40
1.0
 40
1.0
 40
1.0
 10
236.7637501861571
 20
85.83441649508515
 30
0.0
 10
236.7788646833831
 20
85.91005694961898
 30
0.0
 10
236.8091195861178
 20
86.06146751660727
 30
0.0
 10
236.946457284143
 20
86.25449907847053
 30
0.0
 10
237.1327213926712
 20
86.39095867762161
 30
0.0
 10
237.347437334718
 20
86.46150304080582
 30
0.0
 10
237.4913010043176
 20
86.45082546322683
 30
0.0
 10
237.5609071892144
 20
86.44565928443215
 30
0.0
  0
SPLINE
  5
F8
330
1F
100
AcDbEntity
  8
0
  6
HIDDEN
 62
     7
370
     0
100
AcDbSpline
210
0.0
220
0.0
230
1.0
 70
    11
 71
     3
 72
    70
 73
    66
 74
     0
 42
0.000000001
 43
0.00000001
 40
0.0
 40
0.0
 40
0.0
 40
0.0
 40
0.0312500000000001
 40
0.0312500000000001
 40
0.0625000000000002
 40
0.0625000000000002
 40
0.0937500000000002
 40
0.0937500000000002
 40
0.1250000000000003
 40
0.1250000000000003
 40
0.1562500000000004
 40
0.1562500000000004
 40
0.1875000000000004
 40
0.1875000000000004
 40
0.2187500000000005
 40
0.2187500000000005
 40
0.2500000000000006
 40
0.2500000000000006
 40
0.2812500000000007
 40
0.2812500000000007
 40
0.3125000000000008
 40
0.3125000000000008
 40
0.3437500000000008
 40
0.3437500000000008
 40
0.3750000000000009
 40
0.3750000000000009
 40
0.4062500000000008
 40
0.4062500000000008
 40
0.4375000000000007
 40
0.4375000000000007
 40
0.4687500000000007
 40
0.4687500000000007
 40
0.5000000000000006
 40
0.5000000000000006
 40
0.5312500000000006
 40
0.5312500000000006
 40
0.5625000000000004
 40
0.5625000000000004
 40
0.5937500000000004
 40
0.5937500000000004
 40
0.6250000000000004
 40
0.6250000000000004
 40
0.6562500000000003
 40
0.6562500000000003
 40
0.6875000000000003
 40
0.6875000000000003
 40
0.7187500000000003
 40
0.7187500000000003
 40
0.7500000000000002
 40
0.7500000000000002
 40
0.7812500000000002
 40
0.7812500000000002
 40
0.8125000000000002
 40
0.8125000000000002
 40
0.8437500000000002
 40
0.8437500000000002
 40
0.8750000000000001
 40
0.8750000000000001
 40
0.9062500000000001
 40
0.9062500000000001
 40
0.9375000000000001
 40
0.9375000000000001
 40
0.96875
 40
0.96875
 40
1.0
 40
1.0
 40
1.0
 40
1.0
 10
206.19429101024
 20
129.3941623266267
 30
0.0
 10
206.19429101024
 20
129.5586315275305
 30
0.0
 10
206.1748066478515
 20
129.7190035610717
 30
0.0
 10
206.0984963743007
 20
130.0320431709218
 30
0.0
 10
206.0407312784584
 20
130.1863105612256
 30
0.0
 10
205.8900891631827
 20
130.4780843991052
 30
0.0
 10
205.7979313371484
 20
130.6153393013267
 30
0.0
 10
205.5802323955458
 20
130.8734064280335
 30
0.0
 10
205.4536373801269
 20
130.9945666257305
 30
0.0
 10
205.1771246777426
 20
131.210589926808
 30
0.0
 10
205.0262152070046
 20
131.3069342096069
 30
0.0
 10
204.6983535163355
 20
131.4764603289316
 30
0.0
 10
204.5240084764568
 20
131.5480124778086
 30
0.0
 10
204.1631096737799
 20
131.6627637075924
 30
0.0
 10
203.9738826646226
 20
131.7068069739437
 30
0.0
 10
203.5865585744317
 20
131.7656419435931
 30
0.0
 10
203.3917937171228
 20
131.780172411112
 30
0.0
 10
203.0001105588848
 20
131.7803375524742
 30
0.0
 10
202.801158403326
 20
131.765492170958
 30
0.0
 10
202.4162697879666
 20
131.707063862389
 30
0.0
 10
202.2291793924229
 20
131.663795784495
 30
0.0
 10
201.8657537734952
 20
131.5485323980039
 30
0.0
 10
201.6903165168555
 20
131.4763879178192
 30
0.0
 10
201.3654295892931
 20
131.3086346478813
 30
0.0
 10
201.2138353070718
 20
131.212382096538
 30
0.0
 10
200.9337988454241
 20
130.9937367903007
 30
0.0
 10
200.809789949523
 20
130.8748281260025
 30
0.0
 10
200.5924986570997
 20
130.6178113605929
 30
0.0
 10
200.4984590870095
 20
130.4780273475464
 30
0.0
 10
200.3478391485377
 20
130.1862797466457
 30
0.0
 10
200.2910097200522
 20
130.0349614800618
 30
0.0
 10
200.2140704532629
 20
129.721072710344
 30
0.0
 10
200.1943643850558
 20
129.5574655204391
 30
0.0
 10
200.1942180540465
 20
129.2327172343859
 30
0.0
 10
200.2131414513557
 20
129.0699475055998
 30
0.0
 10
200.2899150086928
 20
128.7437428627798
 30
0.0
 10
200.3474368753479
 20
128.5830387371664
 30
0.0
 10
200.4968368945017
 20
128.2743645448469
 30
0.0
 10
200.5898771360237
 20
128.1240280418045
 30
0.0
 10
200.8088307196564
 20
127.8399303688369
 30
0.0
 10
200.9328038387543
 20
127.7081946846357
 30
0.0
 10
201.2090941545836
 20
127.4655327926055
 30
0.0
 10
201.3632326109052
 20
127.3537656410917
 30
0.0
 10
201.6888797599736
 20
127.1609239298713
 30
0.0
 10
201.8610047219377
 20
127.0788379916136
 30
0.0
 10
202.2241125200964
 20
126.9442661581348
 30
0.0
 10
202.4146458255196
 20
126.8924522326252
 30
0.0
 10
202.7981725134202
 20
126.8238345727861
 30
0.0
 10
202.993168803452
 20
126.8061939728272
 30
0.0
 10
203.3899165268409
 20
126.8058680779963
 30
0.0
 10
203.5850062071511
 20
126.8231927963758
 30
0.0
 10
203.9687472991315
 20
126.8912077829452
 30
0.0
 10
204.1594249351353
 20
126.9427348023358
 30
0.0
 10
204.5227755290668
 20
127.0767292308379
 30
0.0
 10
204.6951070955297
 20
127.1585618569122
 30
0.0
 10
205.0213027329814
 20
127.3510195828702
 30
0.0
 10
205.1756043025492
 20
127.4625372552707
 30
0.0
 10
205.4522927369104
 20
127.7047290513865
 30
0.0
 10
205.5765517141442
 20
127.8362974708056
 30
0.0
 10
205.7961835033612
 20
128.1202511957063
 30
0.0
 10
205.8894026316061
 20
128.2702918274639
 30
0.0
 10
206.0394004039337
 20
128.5786875142881
 30
0.0
 10
206.0972215966477
 20
128.7391209015211
 30
0.0
 10
206.1748042603603
 20
129.0657647989054
 30
0.0
 10
206.19429101024
 20
129.2296931257229
 30
0.0
 10
206.19429101024
 20
129.3941623266267
 30
0.0
  0
SPLINE
  5
F9
330
1F
100
AcDbEntity
  8
0
  6
HIDDEN
 62
     7
370
     0
100
AcDbSpline
210
0.0
220
0.0
230
1.0
 70
     8
 71
     3
 72
    12
 73
     8
 74
     0
 42
0.000000001
 43
0.00000001
 40
0.0
 40
0.0
 40
0.0
 40
0.0
 40
0.5000000000000018
 40
0.5000000000000018
 40
0.7500000000000009
 40
0.7500000000000009
 40
1.0
 40
1.0
 40
1.0
 40
1.0
 10
191.2890351219142
 20
139.0669812170897
 30
0.0
 10
191.3197345052815
 20
139.1061190594856
 30
0.0
 10
191.361084573388
 20
139.1432788422111
 30
0.0
 10
191.4608405016075
 20
139.1932153478388
 30
0.0
 10
191.5005374193402
 20
139.2086682179826
 30
0.0
 10
191.5977955709878
 20
139.2325877615816
 30
0.0
 10
191.6585717289785
 20
139.2410708553601
 30
0.0
 10
191.7220478238064
 20
139.24107085536
 30
0.0
  0
LINE
  5
FA
330
1F
100
AcDbEntity
  8
0
  6
HIDDEN
 62
     7
370
     0
100
AcDbLine
 10
191.7220478238
 20
139.2410708554
 30
0.0
 11
194.6665341967
 21
139.2410708554
 31
0.0
  0
SPLINE
  5
FB
330
1F
100
AcDbEntity
  8
0
  6
HIDDEN
 62
     7
370
     0
100
AcDbSpline
210
0.0
220
0.0
230
1.0
 70
     8
 71
     3
 72
    12
 73
     8
 74
     0
 42
0.000000001
 43
0.00000001
 40
0.0
 40
0.0
 40
0.0
 40
0.0
 40
0.2500000000000004
 40
0.2500000000000004
 40
0.5000000000000009
 40
0.5000000000000009
 40
1.0
 40
1.0
 40
1.0
 40
1.0
 10
194.6665341966736
 20
139.24107085536
 30
0.0
 10
194.730199433204
 20
139.2410708553601
 30
0.0
 10
194.7898056654274
 20
139.2328060796942
 30
0.0
 10
194.8884661903583
 20
139.208587298111
 30
0.0
 10
194.9274331803735
 20
139.1933299788019
 30
0.0
 10
195.026820012298
 20
139.14369662454
 30
0.0
 10
195.0688962597214
 20
139.1060569163658
 30
0.0
 10
195.0995468985658
 20
139.0669812170897
 30
0.0
  0
ELLIPSE
  5
FC
330
1F
100
AcDbEntity
  8
0
  6
HIDDEN
 62
     7
370
     0
100
AcDbEllipse
 10
182.1380333553
 20
115.4143397399
 30
0.0
 11
11.70927234972726
 21
24.67718644093744
 31
0.0
210
0.0
220
0.0
230
1.0
 40
0.3419987131
 41
5.203068809370469
 42
6.114256032590515
  0
SPLINE
  5
FD
330
1F
100
AcDbEntity
  8
0
  6
HIDDEN
 62
     7
370
     0
100
AcDbSpline
210
0.0
220
0.0
230
1.0
 70
     8
 71
     3
 72
    12
 73
     8
 74
     0
 42
0.000000001
 43
0.00000001
 40
0.0
 40
0.0
 40
0.0
 40
0.0
 40
0.5000000000000028
 40
0.5000000000000028
 40
0.7500000000000013
 40
0.7500000000000013
 40
1.0
 40
1.0
 40
1.0
 40
1.0
 10
195.0995468985658
 20
123.5107927379026
 30
0.0
 10
195.0688475151985
 20
123.3964570708387
 30
0.0
 10
195.0274974470919
 20
123.2851037179973
 30
0.0
 10
194.9277415188725
 20
123.1323669457486
 30
0.0
 10
194.8880446011398
 20
123.0845070598965
 30
0.0
 10
194.7907864494921
 20
123.009903946547
 30
0.0
 10
194.7300102915015
 20
122.983149709039
 30
0.0
 10
194.6665341966736
 20
122.983149709039
 30
0.0
  0
LINE
  5
FE
330
1F
100
AcDbEntity
  8
0
  6
HIDDEN
 62
     7
370
     0
100
AcDbLine
 10
194.6665341967
 20
122.983149709
 30
0.0
 11
191.7220478238
 21
122.983149709
 31
0.0
  0
SPLINE
  5
FF
330
1F
100
AcDbEntity
  8
0
  6
HIDDEN
 62
     7
370
     0
100
AcDbSpline
210
0.0
220
0.0
230
1.0
 70
     8
 71
     3
 72
    12
 73
     8
 74
     0
 42
0.000000001
 43
0.00000001
 40
0.0
 40
0.0
 40
0.0
 40
0.0
 40
0.25
 40
0.25
 40
0.5
 40
0.5
 40
1.0
 40
1.0
 40
1.0
 40
1.0
 10
191.7220478238064
 20
122.9831497090389
 30
0.0
 10
191.658382587276
 20
122.9831497090389
 30
0.0
 10
191.5987763550526
 20
123.0092218575186
 30
0.0
 10
191.5001158301217
 20
123.0847606083397
 30
0.0
 10
191.4611488401065
 20
123.1320115454359
 30
0.0
 10
191.361762008182
 20
123.2838353634024
 30
0.0
 10
191.3196857607585
 20
123.3966386131674
 30
0.0
 10
191.2890351219142
 20
123.5107927379025
 30
0.0
  0
ELLIPSE
  5
100
330
1F
100
AcDbEntity
  8
0
  6
HIDDEN
 62
     7
370
     0
100
AcDbEllipse
 10
204.2505486652
 20
115.4143397399
 30
0.0
 11
-11.70927234972714
 21
24.67718644093743
 31
0.0
210
0.0
220
0.0
230
1.0
 40
0.3419987131
 41
0.1689292745891143
 42
1.080116497809132
  0
SPLINE
  5
101
330
1F
100
AcDbEntity
  8
0
  6
HIDDEN
 62
     7
370
     0
100
AcDbSpline
210
0.0
220
0.0
230
1.0
 70
     8
 71
     3
 72
    12
 73
     8
 74
     0
 42
0.000000001
 43
0.00000001
 40
0.0
 40
0.0
 40
0.0
 40
0.0
 40
0.5
 40
0.5
 40
0.75
 40
0.75
 40
1.0
 40
1.0
 40
1.0
 40
1.0
 10
191.2890351219142
 20
107.3178867418138
 30
0.0
 10
191.3197345052815
 20
107.4322224088776
 30
0.0
 10
191.361084573388
 20
107.543575761719
 30
0.0
 10
191.4608405016075
 20
107.6963125339677
 30
0.0
 10
191.5005374193402
 20
107.7441724198198
 30
0.0
 10
191.5977955709878
 20
107.8187755331693
 30
0.0
 10
191.6585717289785
 20
107.8455297706774
 30
0.0
 10
191.7220478238064
 20
107.8455297706774
 30
0.0
  0
LINE
  5
102
330
1F
100
AcDbEntity
  8
0
  6
HIDDEN
 62
     7
370
     0
100
AcDbLine
 10
191.7220478238
 20
107.8455297707
 30
0.0
 11
194.6665341967
 21
107.8455297707
 31
0.0
  0
SPLINE
  5
103
330
1F
100
AcDbEntity
  8
0
  6
HIDDEN
 62
     7
370
     0
100
AcDbSpline
210
0.0
220
0.0
230
1.0
 70
     8
 71
     3
 72
    12
 73
     8
 74
     0
 42
0.000000001
 43
0.00000001
 40
0.0
 40
0.0
 40
0.0
 40
0.0
 40
0.2500000000000009
 40
0.2500000000000009
 40
0.5000000000000019
 40
0.5000000000000019
 40
1.0
 40
1.0
 40
1.0
 40
1.0
 10
194.6665341966736
 20
107.8455297706774
 30
0.0
 10
194.730199433204
 20
107.8455297706774
 30
0.0
 10
194.7898056654274
 20
107.8194576221977
 30
0.0
 10
194.8884661903583
 20
107.7439188713766
 30
0.0
 10
194.9274331803735
 20
107.6966679342804
 30
0.0
 10
195.026820012298
 20
107.5448441163139
 30
0.0
 10
195.0688962597214
 20
107.4320408665489
 30
0.0
 10
195.0995468985658
 20
107.3178867418138
 30
0.0
  0
ELLIPSE
  5
104
330
1F
100
AcDbEntity
  8
0
  6
HIDDEN
 62
     7
370
     0
100
AcDbEllipse
 10
182.1380333553
 20
115.4143397399
 30
0.0
 11
-11.70927234972714
 21
24.6771864409374
 31
0.0
210
0.0
220
0.0
230
1.0
 40
0.3419987131
 41
3.310521928178957
 42
4.221709151398947
  0
SPLINE
  5
105
330
1F
100
AcDbEntity
  8
0
  6
HIDDEN
 62
     7
370
     0
100
AcDbSpline
210
0.0
220
0.0
230
1.0
 70
     8
 71
     3
 72
    12
 73
     8
 74
     0
 42
0.000000001
 43
0.00000001
 40
0.0
 40
0.0
 40
0.0
 40
0.0
 40
0.4999999999999968
 40
0.4999999999999968
 40
0.7499999999999983
 40
0.7499999999999983
 40
1.0
 40
1.0
 40
1.0
 40
1.0
 10
195.0995468985658
 20
91.7616982626264
 30
0.0
 10
195.0688475151985
 20
91.7225604202305
 30
0.0
 10
195.027497447092
 20
91.68540063750501
 30
0.0
 10
194.9277415188725
 20
91.63546413187726
 30
0.0
 10
194.8880446011398
 20
91.6200112617335
 30
0.0
 10
194.7907864494921
 20
91.59609171813446
 30
0.0
 10
194.7300102915015
 20
91.58760862435606
 30
0.0
 10
194.6665341966736
 20
91.58760862435606
 30
0.0
  0
LINE
  5
106
330
1F
100
AcDbEntity
  8
0
  6
HIDDEN
 62
     7
370
     0
100
AcDbLine
 10
194.6665341967
 20
91.5876086244
 30
0.0
 11
191.7220478238
 21
91.5876086244
 31
0.0
  0
SPLINE
  5
107
330
1F
100
AcDbEntity
  8
0
  6
HIDDEN
 62
     7
370
     0
100
AcDbSpline
210
0.0
220
0.0
230
1.0
 70
     8
 71
     3
 72
    12
 73
     8
 74
     0
 42
0.000000001
 43
0.00000001
 40
0.0
 40
0.0
 40
0.0
 40
0.0
 40
0.2500000000000002
 40
0.2500000000000002
 40
0.5000000000000004
 40
0.5000000000000004
 40
1.0
 40
1.0
 40
1.0
 40
1.0
 10
191.7220478238064
 20
91.58760862435606
 30
0.0
 10
191.658382587276
 20
91.58760862435605
 30
0.0
 10
191.5987763550526
 20
91.59587340002193
 30
0.0
 10
191.5001158301217
 20
91.62009218160507
 30
0.0
 10
191.4611488401065
 20
91.63534950091423
 30
0.0
 10
191.361762008182
 20
91.68498285517614
 30
0.0
 10
191.3196857607585
 20
91.72262256335026
 30
0.0
 10
191.2890351219142
 20
91.76169826262641
 30
0.0
  0
ELLIPSE
  5
108
330
1F
100
AcDbEntity
  8
0
  6
HIDDEN
 62
     7
370
     0
100
AcDbEllipse
 10
204.2505486652
 20
115.4143397399
 30
0.0
 11
11.709272349727
 21
24.67718644093743
 31
0.0
210
0.0
220
0.0
230
1.0
 40
0.3419987131
 41
2.061476155780649
 42
2.972663379000664
  0
SPLINE
  5
109
330
1F
100
AcDbEntity
  8
0
  6
HIDDEN
 62
     7
370
     0
100
AcDbSpline
210
0.0
220
0.0
230
1.0
 70
    11
 71
     3
 72
    58
 73
    54
 74
     0
 42
0.000000001
 43
0.00000001
 40
0.0
 40
0.0
 40
0.0
 40
0.0
 40
0.0312499999999998
 40
0.0312499999999998
 40
0.0624999999999997
 40
0.0624999999999997
 40
0.0937499999999995
 40
0.0937499999999995
 40
0.1249999999999994
 40
0.1249999999999994
 40
0.1874999999999993
 40
0.1874999999999993
 40
0.2499999999999993
 40
0.2499999999999993
 40
0.2812499999999993
 40
0.2812499999999993
 40
0.3124999999999993
 40
0.3124999999999993
 40
0.3437499999999993
 40
0.3437499999999993
 40
0.3749999999999993
 40
0.3749999999999993
 40
0.4062499999999994
 40
0.4062499999999994
 40
0.4374999999999994
 40
0.4374999999999994
 40
0.4687499999999994
 40
0.4687499999999994
 40
0.4999999999999993
 40
0.4999999999999993
 40
0.5624999999999992
 40
0.5624999999999992
 40
0.6249999999999991
 40
0.6249999999999991
 40
0.6562499999999992
 40
0.6562499999999992
 40
0.6874999999999992
 40
0.6874999999999992
 40
0.7187499999999993
 40
0.7187499999999993
 40
0.7499999999999993
 40
0.7499999999999993
 40
0.7812499999999994
 40
0.7812499999999994
 40
0.8124999999999996
 40
0.8124999999999996
 40
0.8437499999999996
 40
0.8437499999999996
 40
0.8749999999999997
 40
0.8749999999999997
 40
0.9374999999999999
 40
0.9374999999999999
 40
1.0
 40
1.0
 40
1.0
 40
1.0
 10
197.19429101024
 20
115.414339739858
 30
0.0
 10
197.19429101024
 20
115.5465259251297
 30
0.0
 10
197.1813151182295
 20
115.6764926646745
 30
0.0
 10
197.1304828161236
 20
115.9321720028066
 30
0.0
 10
197.0920057448022
 20
116.059213094648
 30
0.0
 10
196.9916007836458
 20
116.3013912805886
 30
0.0
 10
196.9301665413265
 20
116.4162449391781
 30
0.0
 10
196.7850322751448
 20
116.6336100609839
 30
0.0
 10
196.7005903539975
 20
116.7364855330682
 30
0.0
 10
196.4239183243876
 20
117.0131034854853
 30
0.0
 10
196.2008721694194
 20
117.1620956053182
 30
0.0
 10
195.719608170875
 20
117.3616194003095
 30
0.0
 10
195.4563503155552
 20
117.4141982648117
 30
0.0
 10
195.0648842842703
 20
117.4144100383993
 30
0.0
 10
194.9323355406569
 20
117.4014190668099
 30
0.0
 10
194.6757912316416
 20
117.3503828435201
 30
0.0
 10
194.5510953452699
 20
117.3126213021172
 30
0.0
 10
194.3088923748361
 20
117.2124617628238
 30
0.0
 10
194.1918290115855
 20
117.1498639530733
 30
0.0
 10
193.9751426923394
 20
117.0051419690377
 30
0.0
 10
193.8741287242717
 20
116.9225178638694
 30
0.0
 10
193.6873355299862
 20
116.7358974932584
 30
0.0
 10
193.6045351660319
 20
116.6348491253672
 30
0.0
 10
193.4596567271373
 20
116.4183371044933
 30
0.0
 10
193.3970059438099
 20
116.3014477492944
 30
0.0
 10
193.2965655494361
 20
116.0591903472354
 30
0.0
 10
193.2587065376661
 20
115.9345276824201
 30
0.0
 10
193.2074688332026
 20
115.6781964867653
 30
0.0
 10
193.1943384584295
 20
115.5456085474149
 30
0.0
 10
193.1941965079906
 20
115.1539768788455
 30
0.0
 10
193.2465374242387
 20
114.8907640458113
 30
0.0
 10
193.4456676509768
 20
114.40925671512
 30
0.0
 10
193.5945047386191
 20
114.1860562338444
 30
0.0
 10
193.8708167751584
 20
113.9092101538827
 30
0.0
 10
193.9735823124097
 20
113.8246980596639
 30
0.0
 10
194.1908992447635
 20
113.6793194629324
 30
0.0
 10
194.3056861553004
 20
113.6178040313306
 30
0.0
 10
194.5476056454063
 20
113.517247971085
 30
0.0
 10
194.6747325479063
 20
113.4786092452504
 30
0.0
 10
194.9304013835425
 20
113.427544378363
 30
0.0
 10
195.0602965889204
 20
113.4144698979867
 30
0.0
 10
195.3243713713449
 20
113.4142114967131
 30
0.0
 10
195.4547005108302
 20
113.4270875646761
 30
0.0
 10
195.710389824974
 20
113.4776863560041
 30
0.0
 10
195.8373176913617
 20
113.5159917018417
 30
0.0
 10
196.0797699802038
 20
113.6162475342616
 30
0.0
 10
196.1946866741854
 20
113.6775985531737
 30
0.0
 10
196.4120774659559
 20
113.8224673887439
 30
0.0
 10
196.5150627456374
 20
113.9068313420132
 30
0.0
 10
196.7920271132947
 20
114.1833573957993
 30
0.0
 10
196.9411593916532
 20
114.406217237795
 30
0.0
 10
197.1411115103676
 20
114.8873197578558
 30
0.0
 10
197.19429101024
 20
115.1499673693145
 30
0.0
 10
197.19429101024
 20
115.414339739858
 30
0.0
  0
LINE
  5
10A
330
1F
100
AcDbEntity
  8
0
  6
HIDDEN
 62
     7
370
     0
100
AcDbLine
 10
183.1942910102
 20
140.1143397398
 30
0.0
 11
183.1942910102
 21
90.7143397399
 31
0.0
  0
LINE
  5
10B
330
1F
100
AcDbEntity
  8
0
  6
HIDDEN
 62
     7
370
     0
100
AcDbLine
 10
183.1942910102
 20
95.8643397399
 30
0.0
 11
183.1942910102
 21
134.9488834557
 31
0.0
  0
SPLINE
  5
10C
330
1F
100
AcDbEntity
  8
0
  6
HIDDEN
 62
     7
370
     0
100
AcDbSpline
210
0.0
220
0.0
230
1.0
 70
     8
 71
     3
 72
    14
 73
    10
 74
     0
 42
0.000000001
 43
0.00000001
 40
0.0
 40
0.0
 40
0.0
 40
0.0
 40
0.25
 40
0.25
 40
0.5
 40
0.5
 40
0.75
 40
0.75
 40
1.0
 40
1.0
 40
1.0
 40
1.0
 10
182.1534299821116
 20
127.7088152849314
 30
0.0
 10
182.1851451164424
 20
127.6510321025883
 30
0.0
 10
182.2197596417427
 20
127.5946194415133
 30
0.0
 10
182.299430837158
 20
127.4870199914979
 30
0.0
 10
182.3444867141885
 20
127.4351073645769
 30
0.0
 10
182.4550411266939
 20
127.3489087398796
 30
0.0
 10
182.522426540898
 20
127.3148193199079
 30
0.0
 10
182.6730560607961
 20
127.3127169278911
 30
0.0
 10
182.7428832975615
 20
127.3460887007358
 30
0.0
 10
182.7993141213649
 20
127.3899013692865
 30
0.0
  0
SPLINE
  5
10D
330
1F
100
AcDbEntity
  8
0
  6
HIDDEN
 62
     7
370
     0
100
AcDbSpline
210
0.0
220
0.0
230
1.0
 70
     8
 71
     3
 72
    16
 73
    12
 74
     0
 42
0.000000001
 43
0.00000001
 40
0.0
 40
0.0
 40
0.0
 40
0.0
 40
0.0624999999999982
 40
0.0624999999999982
 40
0.1249999999999965
 40
0.1249999999999965
 40
0.249999999999997
 40
0.249999999999997
 40
0.499999999999998
 40
0.499999999999998
 40
1.0
 40
1.0
 40
1.0
 40
1.0
 10
182.7993141213331
 20
127.3899013693171
 30
0.0
 10
182.81104835578
 20
127.399011782565
 30
0.0
 10
182.824580111259
 20
127.4070891385114
 30
0.0
 10
182.8545675716888
 20
127.4153359801883
 30
0.0
 10
182.8695622780971
 20
127.4144086626008
 30
0.0
 10
182.9053027004919
 20
127.401642143069
 30
0.0
 10
182.9193160374931
 20
127.3839934965586
 30
0.0
 10
182.9534601262744
 20
127.3293405765271
 30
0.0
 10
182.9644320303928
 20
127.2879409088686
 30
0.0
 10
182.9902775706591
 20
127.1594511651458
 30
0.0
 10
182.99429101024
 20
127.0688330775071
 30
0.0
 10
182.99429101024
 20
126.976613972953
 30
0.0
  0
LINE
  5
10E
330
1F
100
AcDbEntity
  8
0
  6
HIDDEN
 62
     7
370
     0
100
AcDbLine
 10
182.9942910102
 20
103.8520655068
 30
0.0
 11
182.9942910102
 21
126.976613973
 31
0.0
  0
SPLINE
  5
10F
330
1F
100
AcDbEntity
  8
0
  6
HIDDEN
 62
     7
370
     0
100
AcDbSpline
210
0.0
220
0.0
230
1.0
 70
     8
 71
     3
 72
    16
 73
    12
 74
     0
 42
0.000000001
 43
0.00000001
 40
0.0
 40
0.0
 40
0.0
 40
0.0
 40
0.500000000000003
 40
0.500000000000003
 40
0.750000000000007
 40
0.750000000000007
 40
0.8750000000000043
 40
0.8750000000000043
 40
0.9375000000000022
 40
0.9375000000000022
 40
1.0
 40
1.0
 40
1.0
 40
1.0
 10
182.99429101024
 20
103.852065506763
 30
0.0
 10
182.99429101024
 20
103.759481655859
 30
0.0
 10
182.9902337081249
 20
103.6692691999988
 30
0.0
 10
182.9645764653301
 20
103.5413280728804
 30
0.0
 10
182.953261019588
 20
103.4989148584685
 30
0.0
 10
182.9192296522794
 20
103.4446008150174
 30
0.0
 10
182.9053506710756
 20
103.4270194796275
 30
0.0
 10
182.8694149893082
 20
103.4142357916925
 30
0.0
 10
182.8544646700454
 20
103.4133602935444
 30
0.0
 10
182.8245661573036
 20
103.4216057286638
 30
0.0
 10
182.8110332969383
 20
103.4296793888355
 30
0.0
 10
182.7993141213643
 20
103.4387781104296
 30
0.0
  0
SPLINE
  5
110
330
1F
100
AcDbEntity
  8
0
  6
HIDDEN
 62
     7
370
     0
100
AcDbSpline
210
0.0
220
0.0
230
1.0
 70
     8
 71
     3
 72
    14
 73
    10
 74
     0
 42
0.000000001
 43
0.00000001
 40
0.0
 40
0.0
 40
0.0
 40
0.0
 40
0.25
 40
0.25
 40
0.5
 40
0.5
 40
0.75
 40
0.75
 40
1.0
 40
1.0
 40
1.0
 40
1.0
 10
182.7993141213712
 20
103.4387781104382
 30
0.0
 10
182.7428583567624
 20
103.4826101429329
 30
0.0
 10
182.6719927305125
 20
103.5159411793548
 30
0.0
 10
182.5235356493399
 20
103.5138821692073
 30
0.0
 10
182.4543422900324
 20
103.4792861448056
 30
0.0
 10
182.3446268518982
 20
103.3936207881428
 30
0.0
 10
182.2993822725668
 20
103.3415983434348
 30
0.0
 10
182.2197555631431
 20
103.2340500831048
 30
0.0
 10
182.1851454146096
 20
103.1776479203718
 30
0.0
 10
182.1534299821104
 20
103.1198641947823
 30
0.0
  0
SPLINE
  5
111
330
1F
100
AcDbEntity
  8
0
  6
HIDDEN
 62
     7
370
     0
100
AcDbSpline
210
0.0
220
0.0
230
1.0
 70
     8
 71
     3
 72
    10
 73
     6
 74
     0
 42
0.000000001
 43
0.00000001
 40
0.0
 40
0.0
 40
0.0
 40
0.0
 40
0.5
 40
0.5
 40
1.0
 40
1.0
 40
1.0
 40
1.0
 10
182.1534299821109
 20
103.1198641947833
 30
0.0
 10
182.0816501941875
 20
102.9890854778815
 30
0.0
 10
182.0291906798794
 20
102.8549853283783
 30
0.0
 10
181.9398476157783
 20
102.5868927653895
 30
0.0
 10
181.9038520062785
 20
102.4526473938006
 30
0.0
 10
181.8729706666804
 20
102.3192930163256
 30
0.0
  0
SPLINE
  5
112
330
1F
100
AcDbEntity
  8
0
  6
HIDDEN
 62
     7
370
     0
100
AcDbSpline
210
0.0
220
0.0
230
1.0
 70
     8
 71
     3
 72
    10
 73
     6
 74
     0
 42
0.000000001
 43
0.00000001
 40
0.0
 40
0.0
 40
0.0
 40
0.0
 40
0.5
 40
0.5
 40
1.0
 40
1.0
 40
1.0
 40
1.0
 10
181.8729706666804
 20
98.11742987185318
 30
0.0
 10
181.9038436984926
 20
98.10114672448604
 30
0.0
 10
181.9398305614056
 20
98.08888913476046
 30
0.0
 10
182.0291651472967
 20
98.07178614593174
 30
0.0
 10
182.0816210067193
 20
98.06698655007338
 30
0.0
 10
182.1534299821116
 20
98.06518245866545
 30
0.0
  0
SPLINE
  5
113
330
1F
100
AcDbEntity
  8
0
  6
HIDDEN
 62
     7
370
     0
100
AcDbSpline
210
0.0
220
0.0
230
1.0
 70
     8
 71
     3
 72
     8
 73
     4
 74
     0
 42
0.000000001
 43
0.00000001
 40
0.0
 40
0.0
 40
0.0
 40
0.0
 40
1.0
 40
1.0
 40
1.0
 40
1.0
 10
182.9765943868651
 20
97.93929808041835
 30
0.0
 10
182.9905811954071
 20
97.91105768983667
 30
0.0
 10
182.9942910102398
 20
97.88792564702591
 30
0.0
 10
182.9942910102401
 20
97.86758527419076
 30
0.0
  0
LINE
  5
114
330
1F
100
AcDbEntity
  8
0
  6
HIDDEN
 62
     7
370
     0
100
AcDbLine
 10
182.9942910102
 20
97.574519461
 30
0.0
 11
182.9942910102
 21
97.8675852742
 31
0.0
  0
LINE
  5
115
330
1F
100
AcDbEntity
  8
0
  6
HIDDEN
 62
     7
370
     0
100
AcDbLine
 10
182.9942910102
 20
132.9610942055
 30
0.0
 11
182.9942910102
 21
133.2541600187
 31
0.0
  0
SPLINE
  5
116
330
1F
100
AcDbEntity
  8
0
  6
HIDDEN
 62
     7
370
     0
100
AcDbSpline
210
0.0
220
0.0
230
1.0
 70
     8
 71
     3
 72
    10
 73
     6
 74
     0
 42
0.000000001
 43
0.00000001
 40
0.0
 40
0.0
 40
0.0
 40
0.0
 40
0.5
 40
0.5
 40
1.0
 40
1.0
 40
1.0
 40
1.0
 10
182.1534299821124
 20
132.7634970210506
 30
0.0
 10
182.0816210067198
 20
132.7616929296427
 30
0.0
 10
182.0291651472971
 20
132.7568933337843
 30
0.0
 10
181.9398305614057
 20
132.7397903449556
 30
0.0
 10
181.9038436984927
 20
132.72753275523
 30
0.0
 10
181.8729706666804
 20
132.7112496078628
 30
0.0
  0
SPLINE
  5
117
330
1F
100
AcDbEntity
  8
0
  6
HIDDEN
 62
     7
370
     0
100
AcDbSpline
210
0.0
220
0.0
230
1.0
 70
     8
 71
     3
 72
    10
 73
     6
 74
     0
 42
0.000000001
 43
0.00000001
 40
0.0
 40
0.0
 40
0.0
 40
0.0
 40
0.5
 40
0.5
 40
1.0
 40
1.0
 40
1.0
 40
1.0
 10
181.8729706666804
 20
128.5093864633904
 30
0.0
 10
181.9038520062785
 20
128.3760320859151
 30
0.0
 10
181.9398476157783
 20
128.2417867143261
 30
0.0
 10
182.0291906798797
 20
127.9736941513369
 30
0.0
 10
182.0816501941879
 20
127.8395940018335
 30
0.0
 10
182.1534299821116
 20
127.7088152849314
 30
0.0
  0
SPLINE
  5
118
330
1F
100
AcDbEntity
  8
0
  6
HIDDEN
 62
     7
370
     0
100
AcDbSpline
210
0.0
220
0.0
230
1.0
 70
     8
 71
     3
 72
     8
 73
     4
 74
     0
 42
0.000000001
 43
0.00000001
 40
0.0
 40
0.0
 40
0.0
 40
0.0
 40
1.0
 40
1.0
 40
1.0
 40
1.0
 10
201.4375221288668
 20
103.8611999402007
 30
0.0
 10
201.4179360200062
 20
104.0560326171586
 30
0.0
 10
201.4270585392319
 20
104.2267170792153
 30
0.0
 10
201.4660409307548
 20
104.3745736610177
 30
0.0
  0
SPLINE
  5
119
330
1F
100
AcDbEntity
  8
0
  6
HIDDEN
 62
     7
370
     0
100
AcDbSpline
210
0.0
220
0.0
230
1.0
 70
     8
 71
     3
 72
    26
 73
    22
 74
     0
 42
0.000000001
 43
0.00000001
 40
0.0
 40
0.0
 40
0.0
 40
0.0
 40
0.1249999999999997
 40
0.1249999999999997
 40
0.2499999999999994
 40
0.2499999999999994
 40
0.4999999999999974
 40
0.4999999999999974
 40
0.6249999999999964
 40
0.6249999999999964
 40
0.7499999999999956
 40
0.7499999999999956
 40
0.8124999999999959
 40
0.8124999999999959
 40
0.8749999999999963
 40
0.8749999999999963
 40
0.9062499999999969
 40
0.9062499999999969
 40
0.9374999999999974
 40
0.9374999999999974
 40
1.0
 40
1.0
 40
1.0
 40
1.0
 10
204.5972979840624
 20
102.5150405726796
 30
0.0
 10
204.4592336144749
 20
102.4696895649173
 30
0.0
 10
204.3194363749205
 20
102.4469791013654
 30
0.0
 10
204.0370596131039
 20
102.4367201893176
 30
0.0
 10
203.8930299836778
 20
102.4496957270365
 30
0.0
 10
203.4695872024394
 20
102.5325232936192
 30
0.0
 10
203.1973587408487
 20
102.6439573658919
 30
0.0
 10
202.8039409498506
 20
102.8705736208459
 30
0.0
 10
202.6770450518438
 20
102.9552642537947
 30
0.0
 10
202.4293833654512
 20
103.1406449235354
 30
0.0
 10
202.3089625727174
 20
103.2413797244281
 30
0.0
 10
202.1282729778226
 20
103.4034962603608
 30
0.0
 10
202.0679215417046
 20
103.4595482050179
 30
0.0
 10
201.944468393521
 20
103.5734611265188
 30
0.0
 10
201.8814808761557
 20
103.6320863482847
 30
0.0
 10
201.7776929530773
 20
103.7132947379143
 30
0.0
 10
201.7420052621877
 20
103.7383401949552
 30
0.0
 10
201.670987107559
 20
103.7800521681481
 30
0.0
 10
201.6372425345734
 20
103.795929615561
 30
0.0
 10
201.5420915087791
 20
103.8341080237356
 30
0.0
 10
201.4883270433603
 20
103.8479704798956
 30
0.0
 10
201.4375221288666
 20
103.861199940199
 30
0.0
  0
LWPOLYLINE
  5
11A
330
1F
100
AcDbEntity
  8
0
  6
HIDDEN
 62
     7
370
     0
100
AcDbPolyline
 90
       26
 70
   128
 43
0.0
 10
205.5854762687
 20
103.6256630723
 10
205.6878224268
 20
104.0814828955
 10
205.6653824478
 20
104.5447592045
 10
205.5192793167
 20
104.9923078273
 10
205.2568246096
 20
105.4017316675
 10
204.8911525944
 20
105.7525415429
 10
204.4405629396
 20
106.0271815449
 10
203.9276049268
 20
106.2119076059
 10
203.3779489962
 20
106.2974753058
 10
202.8191020963
 20
106.2796024997
 10
202.279031128
 20
106.1591836134
 10
201.7847633705
 20
105.9422448823
 10
201.36103393
 20
105.6396427753
 10
201.0290478972
 20
105.2665206943
 10
200.8054191614
 20
104.8415511383
 10
200.7013389855
 20
104.3860012583
 10
200.7220159518
 20
103.9226685654
 10
200.8664153033
 20
103.4747400531
 10
201.1273107276
 20
103.0646318292
 10
201.4916459895
 20
102.712867325
 10
201.9411883171
 20
102.4370502224
 10
202.453440841
 20
102.250983496
 10
203.0027684264
 20
102.1639786579
 10
203.5616805566
 20
102.180389773
 10
204.1022070663
 20
102.2993955645
 10
204.5972978792
 20
102.5150405137
  0
SPLINE
  5
11B
330
1F
100
AcDbEntity
  8
0
  6
HIDDEN
 62
     7
370
     0
100
AcDbSpline
210
0.0
220
0.0
230
1.0
 70
     8
 71
     3
 72
    62
 73
    58
 74
     0
 42
0.000000001
 43
0.00000001
 40
0.0
 40
0.0
 40
0.0
 40
0.0
 40
0.0156249999999994
 40
0.0156249999999994
 40
0.0312499999999988
 40
0.0312499999999988
 40
0.0468749999999982
 40
0.0468749999999982
 40
0.0624999999999976
 40
0.0624999999999976
 40
0.0937499999999966
 40
0.0937499999999966
 40
0.1249999999999957
 40
0.1249999999999957
 40
0.1874999999999941
 40
0.1874999999999941
 40
0.2499999999999925
 40
0.2499999999999925
 40
0.2812499999999921
 40
0.2812499999999921
 40
0.3124999999999917
 40
0.3124999999999917
 40
0.3437499999999913
 40
0.3437499999999913
 40
0.374999999999991
 40
0.374999999999991
 40
0.4062499999999906
 40
0.4062499999999906
 40
0.4374999999999902
 40
0.4374999999999902
 40
0.49999999999999
 40
0.49999999999999
 40
0.5624999999999898
 40
0.5624999999999898
 40
0.6249999999999896
 40
0.6249999999999896
 40
0.6562499999999898
 40
0.6562499999999898
 40
0.68749999999999
 40
0.68749999999999
 40
0.7031249999999903
 40
0.7031249999999903
 40
0.7187499999999906
 40
0.7187499999999906
 40
0.7343749999999909
 40
0.7343749999999909
 40
0.7499999999999911
 40
0.7499999999999911
 40
0.7812499999999921
 40
0.7812499999999921
 40
0.812499999999993
 40
0.812499999999993
 40
0.8749999999999953
 40
0.8749999999999953
 40
0.9374999999999977
 40
0.9374999999999977
 40
1.0
 40
1.0
 40
1.0
 40
1.0
 10
201.4660409307553
 20
104.3745736610199
 30
0.0
 10
201.5062187467818
 20
104.319152313564
 30
0.0
 10
201.5486975881953
 20
104.2652078169599
 30
0.0
 10
201.6451654089811
 20
104.1640868864189
 30
0.0
 10
201.7001072582326
 20
104.1180006823407
 30
0.0
 10
201.812589994956
 20
104.0577719896295
 30
0.0
 10
201.8685080267577
 20
104.0430962455305
 30
0.0
 10
201.973933523876
 20
104.0283536237217
 30
0.0
 10
202.0242326050566
 20
104.0276886394278
 30
0.0
 10
202.1734471277675
 20
104.0337663790342
 30
0.0
 10
202.2713443327682
 20
104.0488809705047
 30
0.0
 10
202.4718536546494
 20
104.0897381242442
 30
0.0
 10
202.57346318943
 20
104.1159902582191
 30
0.0
 10
202.8825149985759
 20
104.2084110638813
 30
0.0
 10
203.0950361553075
 20
104.2882451515213
 30
0.0
 10
203.5397059906147
 20
104.487649091741
 30
0.0
 10
203.7688371980435
 20
104.6064008249081
 30
0.0
 10
204.1122009522982
 20
104.8130432144302
 30
0.0
 10
204.2281039503254
 20
104.8877076485829
 30
0.0
 10
204.4534866677561
 20
105.0439917104788
 30
0.0
 10
204.5636005938532
 20
105.1259045162481
 30
0.0
 10
204.7779417677534
 20
105.2983486624937
 30
0.0
 10
204.8815726407594
 20
105.3886217955583
 30
0.0
 10
205.0716470364997
 20
105.5692894093049
 30
0.0
 10
205.1594701301547
 20
105.6607462932272
 30
0.0
 10
205.3195097935091
 20
105.8460435816247
 30
0.0
 10
205.3887336053398
 20
105.9364797180173
 30
0.0
 10
205.5060632401954
 20
106.1116266725505
 30
0.0
 10
205.5546126045836
 20
106.1973299462287
 30
0.0
 10
205.6660517379295
 20
106.4375309269202
 30
0.0
 10
205.6971057771605
 20
106.5794590961399
 30
0.0
 10
205.6910690786165
 20
106.8165625056943
 30
0.0
 10
205.6543076963993
 20
106.9151159243572
 30
0.0
 10
205.5327920899034
 20
107.0701848945889
 30
0.0
 10
205.448447625345
 20
107.1277878282506
 30
0.0
 10
205.2949637779394
 20
107.1850575803567
 30
0.0
 10
205.2391291044063
 20
107.1992247008681
 30
0.0
 10
205.1226220509828
 20
107.2144309323021
 30
0.0
 10
205.0607074954625
 20
107.2166338211272
 30
0.0
 10
204.9760973008908
 20
107.1973470842218
 30
0.0
 10
204.9487095733172
 20
107.1870889237589
 30
0.0
 10
204.9108335667647
 20
107.1453510462902
 30
0.0
 10
204.9034512105375
 20
107.1111384660173
 30
0.0
 10
204.9228658667305
 20
107.0195430072049
 30
0.0
 10
204.945757684579
 20
106.966079521693
 30
0.0
 10
204.9966213476838
 20
106.8568593112969
 30
0.0
 10
205.0247542751557
 20
106.8011859026551
 30
0.0
 10
205.1098265301768
 20
106.6316159295978
 30
0.0
 10
205.1676255142026
 20
106.5151509651762
 30
0.0
 10
205.2771007903479
 20
106.2756933164844
 30
0.0
 10
205.3290554229108
 20
106.1528032698762
 30
0.0
 10
205.4713067904289
 20
105.7796147378357
 30
0.0
 10
205.5492300770375
 20
105.5230788531073
 30
0.0
 10
205.6605666624841
 20
104.9911514925194
 30
0.0
 10
205.6938929502411
 20
104.712711924767
 30
0.0
 10
205.6946819067049
 20
104.1632704744834
 30
0.0
 10
205.6622995064945
 20
103.8856266603291
 30
0.0
 10
205.5854762341259
 20
103.6256629705826
 30
0.0
  0
SPLINE
  5
11C
330
1F
100
AcDbEntity
  8
0
  6
HIDDEN
 62
     7
370
     0
100
AcDbSpline
210
0.0
220
0.0
230
1.0
 70
     8
 71
     3
 72
     8
 73
     4
 74
     0
 42
0.000000001
 43
0.00000001
 40
0.0
 40
0.0
 40
0.0
 40
0.0
 40
1.0
 40
1.0
 40
1.0
 40
1.0
 10
204.3495844625363
 20
107.3509788144798
 30
0.0
 10
204.3576999910289
 20
107.4144722415783
 30
0.0
 10
204.3616900325244
 20
107.4734980462424
 30
0.0
 10
204.3615208397124
 20
107.5275569950292
 30
0.0
  0
SPLINE
  5
11D
330
1F
100
AcDbEntity
  8
0
  6
HIDDEN
 62
     7
370
     0
100
AcDbSpline
210
0.0
220
0.0
230
1.0
 70
     8
 71
     3
 72
    10
 73
     6
 74
     0
 42
0.000000001
 43
0.00000001
 40
0.0
 40
0.0
 40
0.0
 40
0.0
 40
0.5
 40
0.5
 40
1.0
 40
1.0
 40
1.0
 40
1.0
 10
204.3495844625352
 20
107.3509788144714
 30
0.0
 10
204.3718599242019
 20
107.3696690225184
 30
0.0
 10
204.3876409335406
 20
107.3930716273281
 30
0.0
 10
204.3921411198917
 20
107.4534397030434
 30
0.0
 10
204.3806348525612
 20
107.489921270031
 30
0.0
 10
204.36152083971
 20
107.5275569950375
 30
0.0
  0
SPLINE
  5
11E
330
1F
100
AcDbEntity
  8
0
  6
HIDDEN
 62
     7
370
     0
100
AcDbSpline
210
0.0
220
0.0
230
1.0
 70
    11
 71
     3
 72
    66
 73
    62
 74
     0
 42
0.000000001
 43
0.00000001
 40
0.0
 40
0.0
 40
0.0
 40
0.0
 40
0.0312499999999998
 40
0.0312499999999998
 40
0.0624999999999996
 40
0.0624999999999996
 40
0.0937499999999993
 40
0.0937499999999993
 40
0.1249999999999991
 40
0.1249999999999991
 40
0.1874999999999987
 40
0.1874999999999987
 40
0.2187499999999985
 40
0.2187499999999985
 40
0.2499999999999983
 40
0.2499999999999983
 40
0.2812499999999983
 40
0.2812499999999983
 40
0.3124999999999983
 40
0.3124999999999983
 40
0.3437499999999983
 40
0.3437499999999983
 40
0.3749999999999983
 40
0.3749999999999983
 40
0.4062499999999983
 40
0.4062499999999983
 40
0.4374999999999983
 40
0.4374999999999983
 40
0.4687499999999983
 40
0.4687499999999983
 40
0.4999999999999983
 40
0.4999999999999983
 40
0.5312499999999983
 40
0.5312499999999983
 40
0.5624999999999983
 40
0.5624999999999983
 40
0.5937499999999983
 40
0.5937499999999983
 40
0.6249999999999983
 40
0.6249999999999983
 40
0.6874999999999988
 40
0.6874999999999988
 40
0.7187499999999989
 40
0.7187499999999989
 40
0.749999999999999
 40
0.749999999999999
 40
0.7812499999999991
 40
0.7812499999999991
 40
0.8124999999999992
 40
0.8124999999999992
 40
0.8437499999999993
 40
0.8437499999999993
 40
0.8749999999999994
 40
0.8749999999999994
 40
0.9062499999999996
 40
0.9062499999999996
 40
0.9374999999999997
 40
0.9374999999999997
 40
0.9687499999999998
 40
0.9687499999999998
 40
1.0
 40
1.0
 40
1.0
 40
1.0
 10
203.19429101024
 20
109.5362542408523
 30
0.0
 10
203.3608439179968
 20
109.5362542408523
 30
0.0
 10
203.5243348715866
 20
109.5464929463301
 30
0.0
 10
203.8455370169556
 20
109.5868746037781
 30
0.0
 10
204.0049493745119
 20
109.6175645966843
 30
0.0
 10
204.3069881016523
 20
109.6982836878076
 30
0.0
 10
204.4500361390139
 20
109.7480714555643
 30
0.0
 10
204.7207693609648
 20
109.8680647836448
 30
0.0
 10
204.8478388759313
 20
109.9383630029709
 30
0.0
 10
205.1908468869042
 20
110.174540224205
 30
0.0
 10
205.376679148308
 20
110.3721114289922
 30
0.0
 10
205.5644845114667
 20
110.7119512994098
 30
0.0
 10
205.6132245882451
 20
110.8345655505989
 30
0.0
 10
205.6779886403598
 20
111.090364926235
 30
0.0
 10
205.6941807508939
 20
111.2224333210166
 30
0.0
 10
205.6944001580607
 20
111.4951852991971
 30
0.0
 10
205.6778520640273
 20
111.6369055853617
 30
0.0
 10
205.6134229103237
 20
111.9158887838024
 30
0.0
 10
205.5657644411388
 20
112.0546353590954
 30
0.0
 10
205.4390684733401
 20
112.3297971904176
 30
0.0
 10
205.3614948875411
 20
112.4627672107759
 30
0.0
 10
205.180888261361
 20
112.7157156511962
 30
0.0
 10
205.0763352122453
 20
112.8373765169608
 30
0.0
 10
204.8463265719011
 20
113.0602303141203
 30
0.0
 10
204.7214465135263
 20
113.1613755871833
 30
0.0
 10
204.4515469418965
 20
113.3416459922039
 30
0.0
 10
204.3054505754135
 20
113.4208802755802
 30
0.0
 10
204.0047379516048
 20
113.5481707869879
 30
0.0
 10
203.8487902632474
 20
113.5973410087402
 30
0.0
 10
203.5250103994989
 20
113.6643619390663
 30
0.0
 10
203.3593120557489
 20
113.68137408801
 30
0.0
 10
203.0312681757416
 20
113.6815097062
 30
0.0
 10
202.8659426244048
 20
113.6647044293956
 30
0.0
 10
202.5416141683945
 20
113.5978646305695
 30
0.0
 10
202.3852613675328
 20
113.5487013021826
 30
0.0
 10
202.0835451893036
 20
113.4211244138287
 30
0.0
 10
201.937454659589
 20
113.3418808245134
 30
0.0
 10
201.6677408821839
 20
113.1618251678998
 30
0.0
 10
201.5425595485409
 20
113.0605516228471
 30
0.0
 10
201.1959490081133
 20
112.7246429586398
 30
0.0
 10
201.0128061732249
 20
112.4671110475001
 30
0.0
 10
200.8231396130856
 20
112.0554080056022
 30
0.0
 10
200.7755018656571
 20
111.9169506670541
 30
0.0
 10
200.7109836307249
 20
111.6384223974317
 30
0.0
 10
200.6942865249832
 20
111.4967145707241
 30
0.0
 10
200.6942954973506
 20
111.2235549318301
 30
0.0
 10
200.7104263332971
 20
111.0913366364798
 30
0.0
 10
200.7750860099658
 20
110.8353277728472
 30
0.0
 10
200.823756364605
 20
110.7126512014911
 30
0.0
 10
200.9491857369238
 20
110.4855178205699
 30
0.0
 10
201.026929389414
 20
110.3789519462763
 30
0.0
 10
201.2092288764268
 20
110.183376867949
 30
0.0
 10
201.312192029721
 20
110.0956931797167
 30
0.0
 10
201.5413930020136
 20
109.9379537375217
 30
0.0
 10
201.6690239801217
 20
109.8674762108565
 30
0.0
 10
201.9388696415582
 20
109.7479799508084
 30
0.0
 10
202.0817243849453
 20
109.6982328215007
 30
0.0
 10
202.3841219121913
 20
109.6174498739041
 30
0.0
 10
202.5433371431361
 20
109.5868320287271
 30
0.0
 10
202.8642248744542
 20
109.5465015987472
 30
0.0
 10
203.0277381024832
 20
109.5362542408523
 30
0.0
 10
203.19429101024
 20
109.5362542408523
 30
0.0
  0
LINE
  5
11F
330
1F
100
AcDbEntity
  8
0
  6
HIDDEN
 62
     7
370
     0
100
AcDbLine
 10
182.9942910102
 20
97.8675852742
 30
0.0
 11
182.9942910102
 21
109.4298595073
 31
0.0
  0
LINE
  5
120
330
1F
100
AcDbEntity
  8
0
  6
HIDDEN
 62
     7
370
     0
100
AcDbLine
 10
182.9942910102
 20
121.3988199724
 30
0.0
 11
182.9942910102
 21
132.9610942055
 31
0.0
  0
ARC
  5
121
330
1F
100
AcDbEntity
  8
0
  6
HIDDEN
 62
     7
370
     0
100
AcDbCircle
 10
202.7143873108
 20
104.0477468564
 30
0.0
 40
1.29042025900327
100
AcDbArc
 50
165.3288065161
 51
188.3119694796
  0
SPLINE
  5
122
330
1F
100
AcDbEntity
  8
0
  6
HIDDEN
 62
     7
370
     0
100
AcDbSpline
210
0.0
220
0.0
230
1.0
 70
     8
 71
     3
 72
    12
 73
     8
 74
     0
 42
0.000000001
 43
0.00000001
 40
0.0
 40
0.0
 40
0.0
 40
0.0
 40
0.2499999999999988
 40
0.2499999999999988
 40
0.4999999999999976
 40
0.4999999999999976
 40
1.0
 40
1.0
 40
1.0
 40
1.0
 10
205.5854762945109
 20
103.6256630553227
 30
0.0
 10
205.481089170817
 20
103.5292409907351
 30
0.0
 10
205.3831147356945
 20
103.4298724284146
 30
0.0
 10
205.1945151808692
 20
103.230530362538
 30
0.0
 10
205.1039818924716
 20
103.1307680762543
 30
0.0
 10
204.8506662467389
 20
102.8462424446826
 30
0.0
 10
204.6986083119452
 20
102.6709785707902
 30
0.0
 10
204.5972979215311
 20
102.5150405151268
 30
0.0
  0
CIRCLE
  5
123
330
1F
100
AcDbEntity
  8
0
  6
HIDDEN
 62
     7
370
     0
100
AcDbCircle
 10
169.1942910102
 20
115.4143397399
 30
0.0
 40
3.049999999999997
  0
LINE
  5
124
330
1F
100
AcDbEntity
  8
0
  6
HIDDEN
 62
     7
370
     0
100
AcDbLine
 10
158.2223308659
 20
126.2030148745
 30
0.0
 11
158.2223308659
 21
104.6256646053
 31
0.0
  0
LINE
  5
125
330
1F
100
AcDbEntity
  8
0
  6
HIDDEN
 62
     7
370
     0
100
AcDbLine
 10
154.2223308659
 20
126.5842127209
 30
0.0
 11
154.2223308659
 21
104.2444667588
 31
0.0
  0
LINE
  5
126
330
1F
100
AcDbEntity
  8
0
  6
HIDDEN
 62
     7
370
     0
100
AcDbLine
 10
153.1942910102
 20
103.6509276714
 30
0.0
 11
153.1942910102
 21
127.1777518083
 31
0.0
  0
LINE
  5
127
330
1F
100
AcDbEntity
  8
0
  6
HIDDEN
 62
     7
370
     0
100
AcDbLine
 10
162.8223308659
 20
125.9143397399
 30
0.0
 11
162.8223308659
 21
104.9143397399
 31
0.0
  0
LINE
  5
128
330
1F
100
AcDbEntity
  8
0
  6
HIDDEN
 62
     7
370
     0
100
AcDbLine
 10
156.7223308659
 20
125.9143397399
 30
0.0
 11
156.7223308659
 21
104.9143397399
 31
0.0
  0
LINE
  5
129
330
1F
100
AcDbEntity
  8
0
  6
HIDDEN
 62
     7
370
     0
100
AcDbLine
 10
157.7223308659
 20
125.9143397399
 30
0.0
 11
157.7223308659
 21
104.9143397399
 31
0.0
  0
SPLINE
  5
12A
330
1F
100
AcDbEntity
  8
0
  6
HIDDEN
 62
     7
370
     0
100
AcDbSpline
210
0.0
220
0.0
230
1.0
 70
    11
 71
     3
 72
    66
 73
    62
 74
     0
 42
0.000000001
 43
0.00000001
 40
0.0
 40
0.0
 40
0.0
 40
0.0
 40
0.0312499999999999
 40
0.0312499999999999
 40
0.0624999999999999
 40
0.0624999999999999
 40
0.0937499999999998
 40
0.0937499999999998
 40
0.1249999999999998
 40
0.1249999999999998
 40
0.1874999999999998
 40
0.1874999999999998
 40
0.2187499999999998
 40
0.2187499999999998
 40
0.2499999999999997
 40
0.2499999999999997
 40
0.2812499999999997
 40
0.2812499999999997
 40
0.3124999999999997
 40
0.3124999999999997
 40
0.3437499999999997
 40
0.3437499999999997
 40
0.3749999999999996
 40
0.3749999999999996
 40
0.4062499999999995
 40
0.4062499999999995
 40
0.4374999999999994
 40
0.4374999999999994
 40
0.4687499999999994
 40
0.4687499999999994
 40
0.4999999999999993
 40
0.4999999999999993
 40
0.5312499999999992
 40
0.5312499999999992
 40
0.5624999999999992
 40
0.5624999999999992
 40
0.5937499999999991
 40
0.5937499999999991
 40
0.6249999999999993
 40
0.6249999999999993
 40
0.6562499999999994
 40
0.6562499999999994
 40
0.6874999999999997
 40
0.6874999999999997
 40
0.7187499999999998
 40
0.7187499999999998
 40
0.7499999999999999
 40
0.7499999999999999
 40
0.7812500000000001
 40
0.7812500000000001
 40
0.8125000000000002
 40
0.8125000000000002
 40
0.8750000000000004
 40
0.8750000000000004
 40
0.9062500000000006
 40
0.9062500000000006
 40
0.9375000000000003
 40
0.9375000000000003
 40
0.9687500000000002
 40
0.9687500000000002
 40
1.0
 40
1.0
 40
1.0
 40
1.0
 10
169.19429101024
 20
118.464339739858
 30
0.0
 10
169.3969696571878
 20
118.464339739858
 30
0.0
 10
169.5960295485237
 20
118.4443401802414
 30
0.0
 10
169.9872835331034
 20
118.3661966775413
 30
0.0
 10
170.181556291851
 20
118.3070355760205
 30
0.0
 10
170.5503197184023
 20
118.1536038891262
 30
0.0
 10
170.7250448767805
 20
118.059877079284
 30
0.0
 10
171.0557221803143
 20
117.8386229768791
 30
0.0
 10
171.2113697243172
 20
117.7106416098845
 30
0.0
 10
171.6308370939859
 20
117.2910865128844
 30
0.0
 10
171.8577252355161
 20
116.9526079541811
 30
0.0
 10
172.0865218589009
 20
116.4027290664628
 30
0.0
 10
172.1457141137498
 20
116.2093292207195
 30
0.0
 10
172.2245215240103
 20
115.8151010703615
 30
0.0
 10
172.2441609402907
 20
115.6164622429292
 30
0.0
 10
172.2444198047123
 20
115.2161619570308
 30
0.0
 10
172.2243491200793
 20
115.0128226303097
 30
0.0
 10
172.1460114374494
 20
114.6207311097021
 30
0.0
 10
172.0880616694109
 20
114.4300252413869
 30
0.0
 10
171.9341185275309
 20
114.0593014248003
 30
0.0
 10
171.8391799138083
 20
113.8825747649915
 30
0.0
 10
171.6188224979311
 20
113.5533216540671
 30
0.0
 10
171.4915424720028
 20
113.3982004304707
 30
0.0
 10
171.2097868806723
 20
113.1165237355403
 30
0.0
 10
171.0569985512147
 20
112.9910905506359
 30
0.0
 10
170.7275714690578
 20
112.7703149572818
 30
0.0
 10
170.5490254659061
 20
112.6744837045816
 30
0.0
 10
170.181453140356
 20
112.5216545740865
 30
0.0
 10
169.991299113645
 20
112.4634828161423
 30
0.0
 10
169.5977586909425
 20
112.3844895237974
 30
0.0
 10
169.3953246196814
 20
112.3644263981551
 30
0.0
 10
168.995895544316
 20
112.3642536520364
 30
0.0
 10
168.7958765657601
 20
112.3837370261257
 30
0.0
 10
168.3997606183107
 20
112.4627285977269
 30
0.0
 10
168.2090277901188
 20
112.5210088175789
 30
0.0
 10
167.8413963495391
 20
112.6735764381869
 30
0.0
 10
167.6629099173713
 20
112.7691852249601
 30
0.0
 10
167.3327046584073
 20
112.9901972700452
 30
0.0
 10
167.1798160803454
 20
113.1156471688153
 30
0.0
 10
166.8982196858072
 20
113.3968776578206
 30
0.0
 10
166.7705887629318
 20
113.5522605357346
 30
0.0
 10
166.550263327932
 20
113.8811113937775
 30
0.0
 10
166.4560368709666
 20
114.0559995001915
 30
0.0
 10
166.3011023503635
 20
114.4281433515523
 30
0.0
 10
166.2430900647613
 20
114.6189493933612
 30
0.0
 10
166.1646708104831
 20
115.00982241128
 30
0.0
 10
166.1443567305166
 20
115.2122799726623
 30
0.0
 10
166.1442256142126
 20
115.6144105775817
 30
0.0
 10
166.163850307572
 20
115.8131346227568
 30
0.0
 10
166.2420167579856
 20
116.2059740938935
 30
0.0
 10
166.3013042033255
 20
116.4006183712961
 30
0.0
 10
166.5303850464084
 20
116.9520581247103
 30
0.0
 10
166.7572158973026
 20
117.2903976904095
 30
0.0
 10
167.1765545986233
 20
117.710063353061
 30
0.0
 10
167.3319075943732
 20
117.8379093588342
 30
0.0
 10
167.6628754275104
 20
118.059510433536
 30
0.0
 10
167.8374367277068
 20
118.153151167513
 30
0.0
 10
168.2050100352816
 20
118.3063052882122
 30
0.0
 10
168.3996968969197
 20
118.3658090338583
 30
0.0
 10
168.7921728468561
 20
118.4443317829212
 30
0.0
 10
168.9916123632922
 20
118.464339739858
 30
0.0
 10
169.19429101024
 20
118.464339739858
 30
0.0
  0
SPLINE
  5
12B
330
1F
100
AcDbEntity
  8
0
  6
HIDDEN
 62
     7
370
     0
100
AcDbSpline
210
0.0
220
0.0
230
1.0
 70
    11
 71
     3
 72
    66
 73
    62
 74
     0
 42
0.000000001
 43
0.00000001
 40
0.0
 40
0.0
 40
0.0
 40
0.0
 40
0.0312499999999999
 40
0.0312499999999999
 40
0.0624999999999998
 40
0.0624999999999998
 40
0.0937499999999998
 40
0.0937499999999998
 40
0.1249999999999997
 40
0.1249999999999997
 40
0.1874999999999996
 40
0.1874999999999996
 40
0.2187499999999996
 40
0.2187499999999996
 40
0.2499999999999996
 40
0.2499999999999996
 40
0.2812499999999997
 40
0.2812499999999997
 40
0.3124999999999997
 40
0.3124999999999997
 40
0.3437499999999997
 40
0.3437499999999997
 40
0.3749999999999997
 40
0.3749999999999997
 40
0.4062499999999998
 40
0.4062499999999998
 40
0.4374999999999998
 40
0.4374999999999998
 40
0.4687499999999998
 40
0.4687499999999998
 40
0.4999999999999999
 40
0.4999999999999999
 40
0.5312499999999999
 40
0.5312499999999999
 40
0.5625
 40
0.5625
 40
0.59375
 40
0.59375
 40
0.625
 40
0.625
 40
0.6562500000000001
 40
0.6562500000000001
 40
0.6875000000000001
 40
0.6875000000000001
 40
0.7187500000000001
 40
0.7187500000000001
 40
0.7500000000000001
 40
0.7500000000000001
 40
0.7812500000000002
 40
0.7812500000000002
 40
0.8125000000000002
 40
0.8125000000000002
 40
0.8750000000000003
 40
0.8750000000000003
 40
0.9062500000000002
 40
0.9062500000000002
 40
0.9375000000000001
 40
0.9375000000000001
 40
0.9687500000000001
 40
0.9687500000000001
 40
1.0
 40
1.0
 40
1.0
 40
1.0
 10
169.19429101024
 20
118.464339739858
 30
0.0
 10
168.9916123632922
 20
118.464339739858
 30
0.0
 10
168.7925524719563
 20
118.4443401802414
 30
0.0
 10
168.4012984873766
 20
118.3661966775413
 30
0.0
 10
168.207025728629
 20
118.3070355760205
 30
0.0
 10
167.8382623020777
 20
118.1536038891262
 30
0.0
 10
167.6635371436994
 20
118.059877079284
 30
0.0
 10
167.3328598401656
 20
117.8386229768791
 30
0.0
 10
167.1772122961628
 20
117.7106416098845
 30
0.0
 10
166.7577449264942
 20
117.2910865128844
 30
0.0
 10
166.5308567849638
 20
116.9526079541811
 30
0.0
 10
166.302060161579
 20
116.4027290664629
 30
0.0
 10
166.2428679067302
 20
116.2093292207195
 30
0.0
 10
166.1640604964697
 20
115.8151010703615
 30
0.0
 10
166.1444210801893
 20
115.6164622429292
 30
0.0
 10
166.1441622157677
 20
115.2161619570308
 30
0.0
 10
166.1642329004006
 20
115.0128226303097
 30
0.0
 10
166.2425705830306
 20
114.6207311097021
 30
0.0
 10
166.3005203510691
 20
114.4300252413869
 30
0.0
 10
166.454463492949
 20
114.0593014248003
 30
0.0
 10
166.5494021066717
 20
113.8825747649915
 30
0.0
 10
166.7697595225489
 20
113.5533216540671
 30
0.0
 10
166.8970395484772
 20
113.3982004304707
 30
0.0
 10
167.1787951398077
 20
113.1165237355403
 30
0.0
 10
167.3315834692652
 20
112.9910905506359
 30
0.0
 10
167.6610105514221
 20
112.7703149572818
 30
0.0
 10
167.8395565545738
 20
112.6744837045816
 30
0.0
 10
168.207128880124
 20
112.5216545740865
 30
0.0
 10
168.397282906835
 20
112.4634828161423
 30
0.0
 10
168.7908233295375
 20
112.3844895237974
 30
0.0
 10
168.9932574007986
 20
112.3644263981551
 30
0.0
 10
169.392686476164
 20
112.3642536520364
 30
0.0
 10
169.5927054547199
 20
112.3837370261257
 30
0.0
 10
169.9888214021693
 20
112.4627285977269
 30
0.0
 10
170.1795542303611
 20
112.5210088175789
 30
0.0
 10
170.5471856709408
 20
112.6735764381869
 30
0.0
 10
170.7256721031086
 20
112.7691852249601
 30
0.0
 10
171.0558773620727
 20
112.9901972700452
 30
0.0
 10
171.2087659401346
 20
113.1156471688153
 30
0.0
 10
171.4903623346727
 20
113.3968776578206
 30
0.0
 10
171.6179932575482
 20
113.5522605357346
 30
0.0
 10
171.838318692548
 20
113.8811113937775
 30
0.0
 10
171.9325451495134
 20
114.0559995001915
 30
0.0
 10
172.0874796701164
 20
114.4281433515523
 30
0.0
 10
172.1454919557187
 20
114.6189493933612
 30
0.0
 10
172.2239112099968
 20
115.00982241128
 30
0.0
 10
172.2442252899634
 20
115.2122799726623
 30
0.0
 10
172.2443564062674
 20
115.6144105775817
 30
0.0
 10
172.224731712908
 20
115.8131346227568
 30
0.0
 10
172.1465652624944
 20
116.2059740938935
 30
0.0
 10
172.0872778171544
 20
116.4006183712961
 30
0.0
 10
171.8581969740716
 20
116.9520581247103
 30
0.0
 10
171.6313661231774
 20
117.2903976904095
 30
0.0
 10
171.2120274218567
 20
117.710063353061
 30
0.0
 10
171.0566744261068
 20
117.8379093588342
 30
0.0
 10
170.7257065929696
 20
118.059510433536
 30
0.0
 10
170.5511452927732
 20
118.153151167513
 30
0.0
 10
170.1835719851984
 20
118.3063052882122
 30
0.0
 10
169.9888851235603
 20
118.3658090338583
 30
0.0
 10
169.5964091736238
 20
118.4443317829212
 30
0.0
 10
169.3969696571878
 20
118.464339739858
 30
0.0
 10
169.19429101024
 20
118.464339739858
 30
0.0
  0
LINE
  5
12C
330
1F
100
AcDbEntity
  8
0
  6
HIDDEN
 62
     7
370
     0
100
AcDbLine
 10
173.1942910102
 20
125.4143397118
 30
0.0
 11
173.1942910102
 21
105.4143397399
 31
0.0
  0
LINE
  5
12D
330
1F
100
AcDbEntity
  8
0
  6
HIDDEN
 62
     7
370
     0
100
AcDbLine
 10
174.1942910102
 20
122.6643397399
 30
0.0
 11
174.1942910102
 21
108.1643397399
 31
0.0
  0
LINE
  5
12E
330
1F
100
AcDbEntity
  8
0
  6
HIDDEN
 62
     7
370
     0
100
AcDbLine
 10
173.1942910102
 20
107.1643397399
 30
0.0
 11
173.1942910102
 21
123.6486922019
 31
0.0
  0
LINE
  5
12F
330
1F
100
AcDbEntity
  8
0
  6
HIDDEN
 62
     7
370
     0
100
AcDbLine
 10
207.1942910102
 20
108.1643397399
 30
0.0
 11
207.1942910102
 21
122.6643397399
 31
0.0
  0
SPLINE
  5
130
330
1F
100
AcDbEntity
  8
0
  6
HIDDEN
 62
     7
370
     0
100
AcDbSpline
210
0.0
220
0.0
230
1.0
 70
    11
 71
     3
 72
    66
 73
    62
 74
     0
 42
0.000000001
 43
0.00000001
 40
0.0
 40
0.0
 40
0.0
 40
0.0
 40
0.03125
 40
0.03125
 40
0.0624999999999999
 40
0.0624999999999999
 40
0.0937499999999999
 40
0.0937499999999999
 40
0.1249999999999998
 40
0.1249999999999998
 40
0.1874999999999998
 40
0.1874999999999998
 40
0.2187499999999998
 40
0.2187499999999998
 40
0.2499999999999998
 40
0.2499999999999998
 40
0.2812499999999997
 40
0.2812499999999997
 40
0.3124999999999997
 40
0.3124999999999997
 40
0.3437499999999997
 40
0.3437499999999997
 40
0.3749999999999996
 40
0.3749999999999996
 40
0.4062499999999996
 40
0.4062499999999996
 40
0.4374999999999995
 40
0.4374999999999995
 40
0.4687499999999995
 40
0.4687499999999995
 40
0.4999999999999994
 40
0.4999999999999994
 40
0.5312499999999994
 40
0.5312499999999994
 40
0.5624999999999993
 40
0.5624999999999993
 40
0.5937499999999993
 40
0.5937499999999993
 40
0.6249999999999992
 40
0.6249999999999992
 40
0.6874999999999993
 40
0.6874999999999993
 40
0.7187499999999993
 40
0.7187499999999993
 40
0.7499999999999994
 40
0.7499999999999994
 40
0.7812499999999996
 40
0.7812499999999996
 40
0.8124999999999996
 40
0.8124999999999996
 40
0.8437499999999997
 40
0.8437499999999997
 40
0.8749999999999997
 40
0.8749999999999997
 40
0.9062499999999998
 40
0.9062499999999998
 40
0.9374999999999999
 40
0.9374999999999999
 40
0.9687499999999999
 40
0.9687499999999999
 40
1.0
 40
1.0
 40
1.0
 40
1.0
 10
203.19429101024
 20
117.1472373760886
 30
0.0
 10
203.0277381024832
 20
117.1472373760886
 30
0.0
 10
202.8642471488934
 20
117.164315261884
 30
0.0
 10
202.5430450035244
 20
117.2305291840462
 30
0.0
 10
202.3836326459682
 20
117.2805321730212
 30
0.0
 10
202.0815939188277
 20
117.4085164307118
 30
0.0
 10
201.9385458814661
 20
117.4861218895441
 30
0.0
 10
201.6678126595152
 20
117.666754903576
 30
0.0
 10
201.5407431445487
 20
117.769817133773
 30
0.0
 10
201.1977351335759
 20
118.1024482071838
 30
0.0
 10
201.011902872172
 20
118.3637788962723
 30
0.0
 10
200.8240975090133
 20
118.7710678559771
 30
0.0
 10
200.7753574322349
 20
118.9119758252908
 30
0.0
 10
200.7105933801201
 20
119.1923214429617
 30
0.0
 10
200.6944012695861
 20
119.3306878998033
 30
0.0
 10
200.6941818624193
 20
119.6035244924021
 30
0.0
 10
200.7107299564527
 20
119.7388104744312
 30
0.0
 10
200.7751591101563
 20
119.9933740885549
 30
0.0
 10
200.8228175793412
 20
120.1142163334307
 30
0.0
 10
200.9495135471399
 20
120.3438666833626
 30
0.0
 10
201.0270871329389
 20
120.4497813496833
 30
0.0
 10
201.207693759119
 20
120.6437702407649
 30
0.0
 10
201.3122468082347
 20
120.7330694068957
 30
0.0
 10
201.5422554485789
 20
120.8912737014725
 30
0.0
 10
201.6671355069537
 20
120.9602402861464
 30
0.0
 10
201.9370350785835
 20
121.0800120973136
 30
0.0
 10
202.0831314450665
 20
121.1308514995001
 30
0.0
 10
202.3838440688752
 20
121.2111263163184
 30
0.0
 10
202.5397917572326
 20
121.2413093976659
 30
0.0
 10
202.8635716209811
 20
121.2821870417485
 30
0.0
 10
203.0292699647311
 20
121.2923842364767
 30
0.0
 10
203.3573138447384
 20
121.2924659922517
 30
0.0
 10
203.5226393960752
 20
121.2823938889907
 30
0.0
 10
203.8469678520854
 20
121.2416307862929
 30
0.0
 10
204.0033206529472
 20
121.2114573432282
 30
0.0
 10
204.3050368311764
 20
121.1310089806166
 30
0.0
 10
204.451127360891
 20
121.0801635804053
 30
0.0
 10
204.7208411382961
 20
120.9605435104308
 30
0.0
 10
204.8460224719391
 20
120.8915056066308
 30
0.0
 10
205.1926330123668
 20
120.6530320332252
 30
0.0
 10
205.3757758472551
 20
120.4584481513149
 30
0.0
 10
205.5654424073944
 20
120.114871570609
 30
0.0
 10
205.6130801548229
 20
119.9943073851993
 30
0.0
 10
205.6775983897551
 20
119.7402298297397
 30
0.0
 10
205.6942954954968
 20
119.6050134007904
 30
0.0
 10
205.6942865231293
 20
119.3318503017005
 30
0.0
 10
205.6781556871829
 20
119.1933574389695
 30
0.0
 10
205.6134960105142
 20
118.9128399526507
 30
0.0
 10
205.564825655875
 20
118.7718922795739
 30
0.0
 10
205.4393962835562
 20
118.4997077495141
 30
0.0
 10
205.3616526310661
 20
118.3660085884935
 30
0.0
 10
205.1793531440532
 20
118.1109393747997
 30
0.0
 10
205.0763899907589
 20
117.9914093139352
 30
0.0
 10
204.8471890184664
 20
117.7692317202694
 30
0.0
 10
204.7195580403584
 20
117.6658790551273
 30
0.0
 10
204.4497123789218
 20
117.4859739192552
 30
0.0
 10
204.3068576355348
 20
117.4084376811902
 30
0.0
 10
204.0044601082886
 20
117.280348368653
 30
0.0
 10
203.8452448773439
 20
117.230459585277
 30
0.0
 10
203.5243571460257
 20
117.1643292374327
 30
0.0
 10
203.3608439179968
 20
117.1472373760886
 30
0.0
 10
203.19429101024
 20
117.1472373760886
 30
0.0
  0
LINE
  5
131
330
1F
100
AcDbEntity
  8
0
  6
HIDDEN
 62
     7
370
     0
100
AcDbLine
 10
241.7728927245
 20
93.2137084392
 30
0.0
 11
241.7696327848
 21
93.2509697204
 31
0.0
  0
LINE
  5
132
330
1F
100
AcDbEntity
  8
0
  6
HIDDEN
 62
     7
370
     0
100
AcDbLine
 10
232.3566014713
 20
94.0375271763
 30
0.0
 11
241.7728927245
 21
93.2137084392
 31
0.0
  0
LINE
  5
133
330
1F
100
AcDbEntity
  8
0
  6
HIDDEN
 62
     7
370
     0
100
AcDbLine
 10
232.3566014713
 20
94.0375271763
 30
0.0
 11
232.3383792019
 21
94.0760974917
 31
0.0
  0
LINE
  5
134
330
1F
100
AcDbEntity
  8
0
  6
HIDDEN
 62
     7
370
     0
100
AcDbLine
 10
229.5325332584
 20
91.2702515482
 30
0.0
 11
229.5711035738
 21
91.2520292788
 31
0.0
  0
LINE
  5
135
330
1F
100
AcDbEntity
  8
0
  6
HIDDEN
 62
     7
370
     0
100
AcDbLine
 10
230.3713490733
 20
82.1051813647
 30
0.0
 11
229.5711035738
 21
91.2520292788
 31
0.0
  0
LINE
  5
136
330
1F
100
AcDbEntity
  8
0
  6
HIDDEN
 62
     7
370
     0
100
AcDbLine
 10
230.3713490733
 20
82.1051813647
 30
0.0
 11
230.3340877921
 21
82.1084413043
 31
0.0
  0
ARC
  5
137
330
1F
100
AcDbEntity
  8
0
  6
HIDDEN
 62
     7
370
     0
100
AcDbCircle
 10
230.4488278963
 20
93.1598028538
 30
0.0
 40
2.099999999999998
100
AcDbArc
 50
17.3926878054
 51
24.7061105485
  0
LINE
  5
138
330
1F
100
AcDbEntity
  8
0
  6
HIDDEN
 62
     7
370
     0
100
AcDbLine
 10
241.5507506269
 20
92.9915663416
 30
0.0
 11
241.7728927245
 21
93.2137084392
 31
0.0
  0
LINE
  5
139
330
1F
100
AcDbEntity
  8
0
  6
HIDDEN
 62
     7
370
     0
100
AcDbLine
 10
241.5507506269
 20
92.9915663416
 30
0.0
 11
232.4528127145
 21
93.7875327704
 31
0.0
  0
LINE
  5
13A
330
1F
100
AcDbEntity
  8
0
  6
HIDDEN
 62
     7
370
     0
100
AcDbLine
 10
230.3961899274
 20
82.1030080715
 30
0.0
 11
230.3713490733
 21
82.1051813647
 31
0.0
  0
LINE
  5
13B
330
1F
100
AcDbEntity
  8
0
  6
HIDDEN
 62
     7
370
     0
100
AcDbLine
 10
229.8210979797
 20
91.1558180356
 30
0.0
 11
230.6102165319
 21
82.1361517106
 31
0.0
  0
ELLIPSE
  5
13C
330
1F
100
AcDbEntity
  8
0
  6
HIDDEN
 62
     7
370
     0
100
AcDbEllipse
 10
227.7411821104
 20
112.4498862834
 30
0.0
 11
-2.734991905295317
 21
30.34682881340566
 31
0.0
210
0.0
220
0.0
230
1.0
 40
0.1208634283
 41
3.119958487830549
 42
3.178658859664295
  0
ARC
  5
13D
330
1F
100
AcDbEntity
  8
0
  6
HIDDEN
 62
     7
370
     0
100
AcDbCircle
 10
230.4488278963
 20
93.1598028538
 30
0.0
 40
2.099999999999998
100
AcDbArc
 50
245.2938894515
 51
252.6073121946
  0
SPLINE
  5
13E
330
1F
100
AcDbEntity
  8
0
  6
HIDDEN
 62
     7
370
     0
100
AcDbSpline
210
0.0
220
0.0
230
1.0
 70
    24
 71
     3
 72
     8
 73
     4
 74
     0
 42
0.000000001
 43
0.00000001
 40
0.0000002000017519
 40
0.0000002000017519
 40
0.0000002000017519
 40
0.0000002000017519
 40
0.0002002011694081
 40
0.0002002011694081
 40
0.0002002011694081
 40
0.0002002011694081
 10
218.1349092075489
 20
83.17573113482449
 30
0.0
 10
218.1346255448767
 20
83.17575595209259
 30
0.0
 10
218.1343985997704
 20
83.17577580721662
 30
0.0
 10
218.1342283874456
 20
83.17579069886544
 30
0.0
  0
LINE
  5
13F
330
1F
100
AcDbEntity
  8
0
  6
HIDDEN
 62
     7
370
     0
100
AcDbLine
 10
237.0464442241
 20
111.7356319672
 30
0.0
 11
240.0565817685
 21
112.8312324344
 31
0.0
  0
ELLIPSE
  5
140
330
1F
100
AcDbEntity
  8
0
  6
HIDDEN
 62
     7
370
     0
100
AcDbEllipse
 10
238.2928382428
 20
115.4143397399
 30
0.0
 11
-18.08151684771554
 21
25.43571304338348
 31
0.0
210
0.0
220
0.0
230
1.0
 40
0.1000778042
 41
6.223927511738152
 42
7.782958861244827
  0
LINE
  5
141
330
1F
100
AcDbEntity
  8
0
  6
HIDDEN
 62
     7
370
     0
100
AcDbLine
 10
216.292989426
 20
140.9125749729
 30
0.0
 11
216.292989426
 21
115.4143397399
 31
0.0
  0
SPLINE
  5
142
330
1F
100
AcDbEntity
  8
0
  6
HIDDEN
 62
     7
370
     0
100
AcDbSpline
210
0.0
220
0.0
230
1.0
 70
     8
 71
     3
 72
    26
 73
    22
 74
     0
 42
0.000000001
 43
0.00000001
 40
0.0
 40
0.0
 40
0.0
 40
0.0
 40
0.2499999999999967
 40
0.2499999999999967
 40
0.3749999999999961
 40
0.3749999999999961
 40
0.4374999999999963
 40
0.4374999999999963
 40
0.468749999999996
 40
0.468749999999996
 40
0.4999999999999957
 40
0.4999999999999957
 40
0.5312499999999953
 40
0.5312499999999953
 40
0.562499999999995
 40
0.562499999999995
 40
0.624999999999995
 40
0.624999999999995
 40
0.7499999999999954
 40
0.7499999999999954
 40
1.0
 40
1.0
 40
1.0
 40
1.0
 10
237.9020456942234
 20
86.25326804461959
 30
0.0
 10
237.6171591036445
 20
86.40241328850456
 30
0.0
 10
237.3338077096419
 20
86.5545311148424
 30
0.0
 10
236.9088317629527
 20
86.78585086044266
 30
0.0
 10
236.7674341360753
 20
86.86364349868015
 30
0.0
 10
236.5520122193685
 20
86.97902452207903
 30
0.0
 10
236.479795084199
 20
87.01744864584897
 30
0.0
 10
236.367012584777
 20
87.07194438972856
 30
0.0
 10
236.3288177334304
 20
87.08956041998573
 30
0.0
 10
236.2480930404817
 20
87.12066008200692
 30
0.0
 10
236.2038476818211
 20
87.1346378197797
 30
0.0
 10
236.1097942325066
 20
87.14610721913192
 30
0.0
 10
236.061976797994
 20
87.1426202761723
 30
0.0
 10
235.9732944041297
 20
87.12790406659363
 30
0.0
 10
235.9313331347546
 20
87.11732735500631
 30
0.0
 10
235.8085323921809
 20
87.08370314187128
 30
0.0
 10
235.7298530433283
 20
87.05819795037718
 30
0.0
 10
235.494652032468
 20
86.98129544092413
 30
0.0
 10
235.3400340865278
 20
86.92854615394727
 30
0.0
 10
234.875826740972
 20
86.77263345893064
 30
0.0
 10
234.5667427338031
 20
86.6707809263489
 30
0.0
 10
234.2566075882425
 20
86.57220255247836
 30
0.0
  0
SPLINE
  5
143
330
1F
100
AcDbEntity
  8
0
  6
HIDDEN
 62
     7
370
     0
100
AcDbSpline
210
0.0
220
0.0
230
1.0
 70
     8
 71
     3
 72
    28
 73
    24
 74
     0
 42
0.000000001
 43
0.00000001
 40
0.0
 40
0.0
 40
0.0
 40
0.0
 40
0.1250000000000022
 40
0.1250000000000022
 40
0.2500000000000045
 40
0.2500000000000045
 40
0.3750000000000055
 40
0.3750000000000055
 40
0.437500000000005
 40
0.437500000000005
 40
0.5000000000000044
 40
0.5000000000000044
 40
0.5625000000000039
 40
0.5625000000000039
 40
0.6250000000000033
 40
0.6250000000000033
 40
0.6875000000000028
 40
0.6875000000000028
 40
0.7500000000000022
 40
0.7500000000000022
 40
0.8750000000000012
 40
0.8750000000000012
 40
1.0
 40
1.0
 40
1.0
 40
1.0
 10
234.2566075882425
 20
86.57220255247833
 30
0.0
 10
234.3170192231817
 20
86.43898031158712
 30
0.0
 10
234.391678910045
 20
86.3106780488232
 30
0.0
 10
234.5748966867761
 20
86.06399555527867
 30
0.0
 10
234.6829763024076
 20
85.94554955139395
 30
0.0
 10
234.9503628720279
 20
85.72043876156116
 30
0.0
 10
235.1111209763046
 20
85.61298769988169
 30
0.0
 10
235.4027572695949
 20
85.48141349800186
 30
0.0
 10
235.5070447989652
 20
85.4430753598137
 30
0.0
 10
235.7355331626478
 20
85.38132696361004
 30
0.0
 10
235.8564781236744
 20
85.35914910630915
 30
0.0
 10
236.10468169906
 20
85.33677062018286
 30
0.0
 10
236.2273846906699
 20
85.3368981365792
 30
0.0
 10
236.4650653009973
 20
85.35701078570283
 30
0.0
 10
236.575217708652
 20
85.37634061749903
 30
0.0
 10
236.7825049716531
 20
85.42820370204215
 30
0.0
 10
236.8789811891433
 20
85.46076248248805
 30
0.0
 10
237.0560293889446
 20
85.53353420000077
 30
0.0
 10
237.1376970113532
 20
85.57407858471778
 30
0.0
 10
237.3672363135759
 20
85.70577299477704
 30
0.0
 10
237.4971651893079
 20
85.80533061338507
 30
0.0
 10
237.7227740239006
 20
86.01809989748541
 30
0.0
 10
237.8191348889234
 20
86.13214646114628
 30
0.0
 10
237.9020456942234
 20
86.2532680446196
 30
0.0
  0
LINE
  5
144
330
1F
100
AcDbEntity
  8
0
  6
HIDDEN
 62
     7
370
     0
100
AcDbLine
 10
230.5878853405
 20
82.3913983971
 30
0.0
 11
230.6102165319
 21
82.1361517106
 31
0.0
  0
LINE
  5
145
330
1F
100
AcDbEntity
  8
0
  6
HIDDEN
 62
     7
370
     0
100
AcDbLine
 10
230.5878853405
 20
82.3913983971
 30
0.0
 11
241.7172273528
 21
81.4177071385
 31
0.0
  0
SPLINE
  5
146
330
1F
100
AcDbEntity
  8
0
  6
HIDDEN
 62
     7
370
     0
100
AcDbSpline
210
0.0
220
0.0
230
1.0
 70
     8
 71
     3
 72
    51
 73
    47
 74
     0
 42
0.000000001
 43
0.00000001
 40
0.0
 40
0.0
 40
0.0
 40
0.0
 40
0.0208921188598929
 40
0.041428358831231
 40
0.0616087204460307
 40
0.081433204295925
 40
0.1009018110359475
 40
0.1200145413887121
 40
0.1387713961489691
 40
0.1571723761885979
 40
0.1752174824621014
 40
0.1929067160126527
 40
0.2102400779787544
 40
0.2272175696016122
 40
0.2438391922332706
 40
0.260104947345666
 40
0.2760148365406823
 40
0.291568861561343
 40
0.3067670243043409
 40
0.3216093268340408
 40
0.3360957713982263
 40
0.3502263604458138
 40
0.364001096646858
 40
0.3774199829152114
 40
0.3904830224342661
 40
0.4031902186863124
 40
0.4155415754861004
 40
0.4275370970193986
 40
0.4391767878874495
 40
0.4504606531584119
 40
0.4613886984271893
 40
0.4719609298853264
 40
0.4821773544030682
 40
0.4920379796262222
 40
0.5015428140911415
 40
0.5512718890257972
 40
0.6001156613904173
 40
0.6480748247383369
 40
0.6951501121539223
 40
0.7413422992368409
 40
0.7866522073702772
 40
0.8310807073057357
 40
0.8746287231013747
 40
0.9172972364558567
 40
0.959087291485598
 40
0.9999999999999999
 40
0.9999999999999999
 40
0.9999999999999999
 40
0.9999999999999999
 10
238.0557502074807
 20
94.9010090390818
 30
0.0
 10
238.0801720482661
 20
94.75269517780319
 30
0.0
 10
238.1285997252365
 20
94.45859385156139
 30
0.0
 10
238.2010385372617
 20
94.02763718615793
 30
0.0
 10
238.2725254814572
 20
93.60881951148795
 30
0.0
 10
238.3430770517441
 20
93.20243777590622
 30
0.0
 10
238.4126717768632
 20
92.80821823859544
 30
0.0
 10
238.4812971889077
 20
92.42602574742426
 30
0.0
 10
238.5489376490142
 20
92.05567959786563
 30
0.0
 10
238.6155776003091
 20
91.69700244643239
 30
0.0
 10
238.681200795685
 20
91.34980842581173
 30
0.0
 10
238.7457905722927
 20
91.01390707878836
 30
0.0
 10
238.8093298510005
 20
90.68910314434915
 30
0.0
 10
238.8718012050897
 20
90.37519739656797
 30
0.0
 10
238.9331869085736
 20
90.07198718250864
 30
0.0
 10
238.9934689874663
 20
89.77926701150082
 30
0.0
 10
239.0526292679548
 20
89.49682910436731
 30
0.0
 10
239.1106494230697
 20
89.22446392661689
 30
0.0
 10
239.1675110174662
 20
88.96196069967289
 30
0.0
 10
239.2231955504512
 20
88.709107892031
 30
0.0
 10
239.2776844972537
 20
88.46569369025248
 30
0.0
 10
239.3309593485863
 20
88.23150645025119
 30
0.0
 10
239.3830016485101
 20
88.00633512922654
 30
0.0
 10
239.4337930307061
 20
87.78996969864808
 30
0.0
 10
239.483315252965
 20
87.5822015387214
 30
0.0
 10
239.5315502307523
 20
87.3828238147426
 30
0.0
 10
239.5784800669681
 20
87.19163183591627
 30
0.0
 10
239.6240870884206
 20
87.00842339667268
 30
0.0
 10
239.6683538516264
 20
86.83299910250736
 30
0.0
 10
239.7112632515893
 20
86.66516267530672
 30
0.0
 10
239.7527982574908
 20
86.50472125833161
 30
0.0
 10
239.7929429696109
 20
86.3514856513128
 30
0.0
 10
239.8316789779432
 20
86.20527072500056
 30
0.0
 10
239.8689983741806
 20
86.06589513299464
 30
0.0
 10
239.9558906717196
 20
85.7443167065019
 30
0.0
 10
240.0913803957668
 20
85.26031315477037
 30
0.0
 10
240.274444221242
 20
84.64837622555206
 30
0.0
 10
240.4533026764062
 20
84.091243682897
 30
0.0
 10
240.6278625018879
 20
83.58747942871557
 30
0.0
 10
240.7979779051296
 20
83.13552159313892
 30
0.0
 10
240.9635070048817
 20
82.7336856702458
 30
0.0
 10
241.1242906303389
 20
82.38029083774626
 30
0.0
 10
241.2801885689042
 20
82.07324869416358
 30
0.0
 10
241.4309657179698
 20
81.81161884127194
 30
0.0
 10
241.5767060989857
 20
81.59003581518792
 30
0.0
 10
241.6707797432511
 20
81.47473831535437
 30
0.0
 10
241.7173175785275
 20
81.41770112819181
 30
0.0
  0
LINE
  5
147
330
1F
100
AcDbEntity
  8
0
  6
HIDDEN
 62
     7
370
     0
100
AcDbLine
 10
217.9776008268
 20
96.6576201699
 30
0.0
 11
238.0557534499
 21
94.9010094308
 31
0.0
  0
LINE
  5
148
330
1F
100
AcDbEntity
  8
0
  6
HIDDEN
 62
     7
370
     0
100
AcDbLine
 10
218.1349092075
 20
83.1757311348
 30
0.0
 11
230.3961899274
 21
82.1030080715
 31
0.0
  0
SPLINE
  5
149
330
1F
100
AcDbEntity
  8
0
  6
HIDDEN
 62
     7
370
     0
100
AcDbSpline
210
0.0
220
0.0
230
1.0
 70
     8
 71
     3
 72
    20
 73
    16
 74
     0
 42
0.000000001
 43
0.00000001
 40
0.0
 40
0.0
 40
0.0
 40
0.0
 40
0.2500000000000008
 40
0.2500000000000008
 40
0.3125000000000008
 40
0.3125000000000008
 40
0.3750000000000009
 40
0.3750000000000009
 40
0.5000000000000008
 40
0.5000000000000008
 40
0.6250000000000006
 40
0.6250000000000006
 40
0.7500000000000004
 40
0.7500000000000004
 40
1.0
 40
1.0
 40
1.0
 40
1.0
 10
217.9776008267924
 20
96.65762016988475
 30
0.0
 10
218.0115383455028
 20
94.58064666572794
 30
0.0
 10
218.0408555356031
 20
92.71373243443703
 30
0.0
 10
218.0716880681678
 20
90.63492853013932
 30
0.0
 10
218.0775596967511
 20
90.23209217472848
 30
0.0
 10
218.0886950065619
 20
89.45281683862576
 30
0.0
 10
218.0939695775822
 20
89.07552845600078
 30
0.0
 10
218.1086558511145
 20
87.99855786077502
 30
0.0
 10
218.1170022304153
 20
87.34897545543078
 30
0.0
 10
218.1308390595093
 20
86.18302819425912
 30
0.0
 10
218.1363295430443
 20
85.66666721609921
 30
0.0
 10
218.1443606676586
 20
84.769711553965
 30
0.0
 10
218.1468904117562
 20
84.38833428479352
 30
0.0
 10
218.1497289591077
 20
83.48061376179477
 30
0.0
 10
218.1454992538079
 20
83.17480462583062
 30
0.0
 10
218.1349092075489
 20
83.17573113482449
 30
0.0
  0
LINE
  5
14A
330
1F
100
AcDbEntity
  8
0
  6
HIDDEN
 62
     7
370
     0
100
AcDbLine
 10
241.2402399506
 20
93.0187325057
 30
0.0
 11
241.5507506269
 21
92.9915663416
 31
0.0
  0
LWPOLYLINE
  5
14B
330
1F
100
AcDbEntity
  8
0
  6
HIDDEN
 62
     7
370
     0
100
AcDbPolyline
 90
       29
 70
   128
 43
0.0
 10
203.1942910102
 20
123.2392195739
 10
203.7505933451
 20
123.2911838309
 10
204.279000358
 20
123.4444708973
 10
204.7530155149
 20
123.6913943193
 10
205.1488697164
 20
124.0195723256
 10
205.44671318
 20
124.4125487006
 10
205.6316107907
 20
124.8506179679
 10
205.6942910102
 20
125.3118135053
 10
205.6316107907
 20
125.7730090426
 10
205.44671318
 20
126.2110783099
 10
205.1488697164
 20
126.6040546849
 10
204.7530155149
 20
126.9322326912
 10
204.279000358
 20
127.1791561132
 10
203.7505933451
 20
127.3324431796
 10
203.1942910102
 20
127.3844074367
 10
202.6379886753
 20
127.3324431796
 10
202.1095816624
 20
127.1791561132
 10
201.6355665056
 20
126.9322326912
 10
201.2397123041
 20
126.6040546849
 10
200.9418688405
 20
126.2110783099
 10
200.7569712298
 20
125.7730090426
 10
200.6942910102
 20
125.3118135053
 10
200.7569712298
 20
124.8506179679
 10
200.9418688405
 20
124.4125487006
 10
201.2397123041
 20
124.0195723256
 10
201.6355665056
 20
123.6913943193
 10
202.1095816624
 20
123.4444708973
 10
202.6379886753
 20
123.2911838309
 10
203.1942910102
 20
123.2392195739
  0
LINE
  5
14C
330
1F
100
AcDbEntity
  8
0
  6
HIDDEN
 62
     7
370
     0
100
AcDbLine
 10
180.9942910102
 20
132.9344385244
 30
0.0
 11
180.9942910102
 21
127.7942860366
 31
0.0
  0
SPLINE
  5
14D
330
1F
100
AcDbEntity
  8
0
  6
HIDDEN
 62
     7
370
     0
100
AcDbSpline
210
0.0
220
0.0
230
1.0
 70
     8
 71
     3
 72
    18
 73
    14
 74
     0
 42
0.000000001
 43
0.00000001
 40
0.0
 40
0.0
 40
0.0
 40
0.0
 40
0.2500000000000006
 40
0.2500000000000006
 40
0.3750000000000006
 40
0.3750000000000006
 40
0.5000000000000006
 40
0.5000000000000006
 40
0.6250000000000006
 40
0.6250000000000006
 40
0.7500000000000004
 40
0.7500000000000004
 40
1.0
 40
1.0
 40
1.0
 40
1.0
 10
181.8729706666804
 20
132.7112496078628
 30
0.0
 10
181.737685060378
 20
132.6398968661733
 30
0.0
 10
181.6365173141351
 20
132.4944934595839
 30
0.0
 10
181.5336559712661
 20
132.1650262239782
 30
0.0
 10
181.5075531257428
 20
132.0360926471735
 30
0.0
 10
181.472663142198
 20
131.7405506478374
 30
0.0
 10
181.464076883908
 20
131.5761558743154
 30
0.0
 10
181.4639771743424
 20
131.2151942595748
 30
0.0
 10
181.4724655454909
 20
131.0186244674126
 30
0.0
 10
181.5066089250115
 20
130.5932696712876
 30
0.0
 10
181.5324059068653
 20
130.3635000214881
 30
0.0
 10
181.6358070382533
 20
129.6309113270556
 30
0.0
 10
181.7376650304247
 20
129.093674552138
 30
0.0
 10
181.8729706666804
 20
128.5093864633904
 30
0.0
  0
LINE
  5
14E
330
1F
100
AcDbEntity
  8
0
  6
HIDDEN
 62
     7
370
     0
100
AcDbLine
 10
154.6942910102
 20
132.2736909818
 30
0.0
 11
154.6942910102
 21
127.4639122653
 31
0.0
  0
LINE
  5
14F
330
1F
100
AcDbEntity
  8
0
  6
HIDDEN
 62
     7
370
     0
100
AcDbLine
 10
153.1942910102
 20
131.407665578
 30
0.0
 11
153.1942910102
 21
127.0308995634
 31
0.0
  0
SPLINE
  5
150
330
1F
100
AcDbEntity
  8
0
  6
HIDDEN
 62
     7
370
     0
100
AcDbSpline
210
0.0
220
0.0
230
1.0
 70
     8
 71
     3
 72
    18
 73
    14
 74
     0
 42
0.000000001
 43
0.00000001
 40
0.0
 40
0.0
 40
0.0
 40
0.0
 40
0.2500000000000002
 40
0.2500000000000002
 40
0.3750000000000001
 40
0.3750000000000001
 40
0.5
 40
0.5
 40
0.6249999999999999
 40
0.6249999999999999
 40
0.7499999999999998
 40
0.7499999999999998
 40
1.0
 40
1.0
 40
1.0
 40
1.0
 10
181.8729706666804
 20
102.3192930163256
 30
0.0
 10
181.737685060378
 20
101.7350914225939
 30
0.0
 10
181.6365173141351
 20
101.2008737353858
 30
0.0
 10
181.5336559712661
 20
100.4749769644973
 30
0.0
 10
181.5075531257428
 20
100.2450964767174
 30
0.0
 10
181.472663142198
 20
99.81452553193063
 30
0.0
 10
181.464076883908
 20
99.61683062643645
 30
0.0
 10
181.4639771743424
 20
99.25548258375865
 30
0.0
 10
181.4724655454909
 20
99.09183257381251
 30
0.0
 10
181.5066089250115
 20
98.79862130084354
 30
0.0
 10
181.5324059068653
 20
98.66862523472771
 30
0.0
 10
181.6358070382533
 20
98.3345693421658
 30
0.0
 10
181.7376650304247
 20
98.18879317780102
 30
0.0
 10
181.8729706666804
 20
98.11742987185318
 30
0.0
  0
LINE
  5
151
330
1F
100
AcDbEntity
  8
0
  6
HIDDEN
 62
     7
370
     0
100
AcDbLine
 10
180.9942910102
 20
103.0343934431
 30
0.0
 11
180.9942910102
 21
97.8942409553
 31
0.0
  0
LINE
  5
152
330
1F
100
AcDbEntity
  8
0
  6
HIDDEN
 62
     7
370
     0
100
AcDbLine
 10
154.6942910102
 20
103.3647672144
 30
0.0
 11
154.6942910102
 21
98.5549884979
 31
0.0
  0
LINE
  5
153
330
1F
100
AcDbEntity
  8
0
  6
HIDDEN
 62
     7
370
     0
100
AcDbLine
 10
153.1942910102
 20
103.7977799163
 30
0.0
 11
153.1942910102
 21
99.4210139017
 31
0.0
  0
SPLINE
  5
154
330
1F
100
AcDbEntity
  8
0
  6
HIDDEN
 62
     7
370
     0
100
AcDbSpline
210
0.0
220
0.0
230
1.0
 70
     8
 71
     3
 72
    29
 73
    25
 74
     0
 42
0.000000001
 43
0.00000001
 40
0.0
 40
0.0
 40
0.0
 40
0.0
 40
0.0206702913774932
 40
0.0413282813996396
 40
0.0619806742916052
 40
0.0826341797291213
 40
0.1032955063040359
 40
0.12397135499514
 40
0.1446684126759787
 40
0.1653933456909457
 40
0.1861527935301868
 40
0.2069533626327339
 40
0.2278016203458835
 40
0.2487040890671214
 40
0.3736551926334384
 40
0.4984318191730664
 40
0.6233850629603355
 40
0.7489859508265677
 40
0.7910206670695547
 40
0.8329067825857578
 40
0.8746958233575295
 40
0.916439674837631
 40
0.9581903909553289
 40
0.9999999999999999
 40
0.9999999999999999
 40
0.9999999999999999
 40
0.9999999999999999
 10
242.2118291341068
 20
81.91328057507667
 30
0.0
 10
242.1877894807189
 20
81.94157688627612
 30
0.0
 10
242.1397244804816
 20
81.99815266890377
 30
0.0
 10
242.0668556701901
 20
82.09502232094259
 30
0.0
 10
241.9934611440565
 20
82.2006387816219
 30
0.0
 10
241.919483002672
 20
82.31586544950825
 30
0.0
 10
241.8449367855987
 20
82.4404709870371
 30
0.0
 10
241.7698183610258
 20
82.57451732033338
 30
0.0
 10
241.6941288593127
 20
82.71798780246515
 30
0.0
 10
241.6178680414511
 20
82.87088666466511
 30
0.0
 10
241.5410358808255
 20
83.03321319394932
 30
0.0
 10
241.4636328742367
 20
83.20496548390499
 30
0.0
 10
241.3856572042059
 20
83.38615132943325
 30
0.0
 10
241.1768837453801
 20
83.89276330796257
 30
0.0
 10
240.8325006081462
 20
84.84956770681049
 30
0.0
 10
240.3487734744887
 20
86.4826073703145
 30
0.0
 10
239.8626608819379
 20
88.40541769312019
 30
0.0
 10
239.4867152132059
 20
90.11275928185775
 30
0.0
 10
239.2210819747549
 20
91.42194544295482
 30
0.0
 10
239.0629119615195
 20
92.2331742872621
 30
0.0
 10
238.9065204456158
 20
93.06713341070608
 30
0.0
 10
238.751955462454
 20
93.92433900091675
 30
0.0
 10
238.5990213972344
 20
94.80293059566226
 30
0.0
 10
238.4987580043689
 20
95.40684916739814
 30
0.0
 10
238.4485909753505
 20
95.70902127276071
 30
0.0
  0
CIRCLE
  5
155
330
1F
100
AcDbEntity
  8
0
  6
HIDDEN
 62
     7
370
     0
100
AcDbCircle
 10
236.1691548079
 20
87.4394759422
 30
0.0
 40
2.599999999999994
  0
LINE
  5
156
330
1F
100
AcDbEntity
  8
0
  6
HIDDEN
 62
     7
370
     0
100
AcDbLine
 10
241.7172802399
 20
81.4170972913
 30
0.0
 11
242.2118433876
 21
81.9132663684
 31
0.0
  0
LINE
  5
157
330
1F
100
AcDbEntity
  8
0
  6
HIDDEN
 62
     7
370
     0
100
AcDbLine
 10
230.5878853405
 20
82.3913983971
 30
0.0
 11
229.8210979797
 21
91.1558180356
 31
0.0
  0
LINE
  5
158
330
1F
100
AcDbEntity
  8
0
  6
HIDDEN
 62
     7
370
     0
100
AcDbLine
 10
232.4528127145
 20
93.7875327704
 30
0.0
 11
241.2402399506
 21
93.0187325057
 31
0.0
  0
ARC
  5
159
330
1F
100
AcDbEntity
  8
0
  6
HIDDEN
 62
     7
370
     0
100
AcDbCircle
 10
230.4488278963
 20
93.1598028538
 30
0.0
 40
2.100000000000003
100
AcDbArc
 50
252.6073121946
 51
17.3926878054
  0
LINE
  5
15A
330
1F
100
AcDbEntity
  8
0
  6
HIDDEN
 62
     7
370
     0
100
AcDbLine
 10
241.2402399506
 20
93.0187325057
 30
0.0
 11
242.211841007
 21
81.9132816138
 31
0.0
  0
CIRCLE
  5
15B
330
1F
100
AcDbEntity
  8
0
  6
HIDDEN
 62
     7
370
     0
100
AcDbCircle
 10
236.1691548079
 20
87.4394759422
 30
0.0
 40
2.099999999999994
  0
CIRCLE
  5
15C
330
1F
100
AcDbEntity
  8
0
  6
HIDDEN
 62
     7
370
     0
100
AcDbCircle
 10
230.4488278963
 20
93.1598028538
 30
0.0
 40
2.100000000000009
  0
LINE
  5
15D
330
1F
100
AcDbEntity
  8
0
  6
HIDDEN
 62
     7
370
     0
100
AcDbLine
 10
153.1942910102
 20
127.0308995634
 30
0.0
 11
153.1942910102
 21
117.7535106681
 31
0.0
  0
LINE
  5
15E
330
1F
100
AcDbEntity
  8
0
  6
HIDDEN
 62
     7
370
     0
100
AcDbLine
 10
153.1942910102
 20
113.0751688116
 30
0.0
 11
153.1942910102
 21
103.7977799163
 31
0.0
  0
LINE
  5
15F
330
1F
100
AcDbEntity
  8
0
  6
HIDDEN
 62
     7
370
     0
100
AcDbLine
 10
154.6942910102
 20
112.2658626215
 30
0.0
 11
154.6942910102
 21
103.3647672144
 31
0.0
  0
LINE
  5
160
330
1F
100
AcDbEntity
  8
0
  6
HIDDEN
 62
     7
370
     0
100
AcDbLine
 10
154.6942910102
 20
127.4639122653
 30
0.0
 11
154.6942910102
 21
118.5628168582
 31
0.0
  0
LINE
  5
161
330
1F
100
AcDbEntity
  8
0
  6
HIDDEN
 62
     7
370
     0
100
AcDbLine
 10
180.9942910102
 20
127.7942860366
 30
0.0
 11
180.9942910102
 21
103.0343934431
 31
0.0
  0
LINE
  5
162
330
1F
100
AcDbEntity
  8
0
  6
HIDDEN
 62
     7
370
     0
100
AcDbLine
 10
182.9942910102
 20
126.976613973
 30
0.0
 11
182.9942910102
 21
103.8520655068
 31
0.0
  0
LWPOLYLINE
  5
163
330
1F
100
AcDbEntity
  8
0
  6
HIDDEN
 62
     7
370
     0
100
AcDbPolyline
 90
       32
 70
   128
 43
0.0
 10
203.1942910102
 20
122.9926992847
 10
203.7981865705
 20
123.0436106281
 10
204.3773585756
 20
123.1942603421
 10
204.9080956555
 20
123.4384808095
 10
205.3686693719
 20
123.7662736158
 10
205.7402237827
 20
124.1642188851
 10
206.0075474067
 20
124.6160246911
 10
206.1596959832
 20
125.1031940511
 10
206.1904405318
 20
125.6057821943
 10
206.0985223668
 20
126.103213103
 10
205.887704629
 20
126.5751218975
 10
205.5666182211
 20
127.0021885761
 10
205.1484084584
 20
127.3669289789
 10
204.6501968978
 20
127.654410591
 10
204.0923803792
 20
127.8528638813
 10
203.4977959762
 20
127.954164149
 10
202.8907860443
 20
127.954164149
 10
202.2962016413
 20
127.8528638813
 10
201.7383851226
 20
127.654410591
 10
201.2401735621
 20
127.3669289789
 10
200.8219637994
 20
127.0021885761
 10
200.5008773915
 20
126.5751218975
 10
200.2900596536
 20
126.103213103
 10
200.1981414887
 20
125.6057821943
 10
200.2288860373
 20
125.1031940511
 10
200.3810346138
 20
124.6160246911
 10
200.6483582378
 20
124.1642188851
 10
201.0199126486
 20
123.7662736158
 10
201.480486365
 20
123.4384808095
 10
202.0112234449
 20
123.1942603421
 10
202.59039545
 20
123.0436106281
 10
203.1942910102
 20
122.9926992847
  0
SPLINE
  5
164
330
1F
100
AcDbEntity
  8
0
  6
HIDDEN
 62
     7
370
     0
100
AcDbSpline
210
0.0
220
0.0
230
1.0
 70
     8
 71
     3
 72
     8
 73
     4
 74
     0
 42
0.000000001
 43
0.00000001
 40
0.0000202085968836
 40
0.0000202085968836
 40
0.0000202085968836
 40
0.0000202085968836
 40
0.0040218806502652
 40
0.0040218806502652
 40
0.0040218806502652
 40
0.0040218806502652
 10
154.69429101024
 20
112.2658626215213
 30
0.0
 10
156.0276141360306
 20
112.2418643903576
 30
0.0
 10
157.3609480092532
 20
112.2185366501893
 30
0.0
 10
158.69429101024
 20
112.1958419794089
 30
0.0
  0
SPLINE
  5
165
330
1F
100
AcDbEntity
  8
0
  6
HIDDEN
 62
     7
370
     0
100
AcDbSpline
210
0.0
220
0.0
230
1.0
 70
     8
 71
     3
 72
     8
 73
     4
 74
     0
 42
0.000000001
 43
0.00000001
 40
0.0000202082942178
 40
0.0000202082942178
 40
0.0000202082942178
 40
0.0000202082942178
 40
0.0040218803475994
 40
0.0040218803475994
 40
0.0040218803475994
 40
0.0040218803475994
 10
158.69429101024
 20
118.6328375003071
 30
0.0
 10
157.3609480092532
 20
118.6101428295267
 30
0.0
 10
156.0276141360306
 20
118.5868150893583
 30
0.0
 10
154.69429101024
 20
118.5628168581947
 30
0.0
  0
SPLINE
  5
166
330
1F
100
AcDbEntity
  8
0
  6
HIDDEN
 62
     7
370
     0
100
AcDbSpline
210
0.0
220
0.0
230
1.0
 70
     8
 71
     3
 72
     8
 73
     4
 74
     0
 42
0.000000001
 43
0.00000001
 40
0.0
 40
0.0
 40
0.0
 40
0.0
 40
1.0
 40
1.0
 40
1.0
 40
1.0
 10
153.19429101024
 20
113.075168811623
 30
0.0
 10
153.6685024206777
 20
112.7404395843282
 30
0.0
 10
154.1732387677793
 20
112.4813811704954
 30
0.0
 10
154.69429101024
 20
112.2658626215213
 30
0.0
  0
SPLINE
  5
167
330
1F
100
AcDbEntity
  8
0
  6
HIDDEN
 62
     7
370
     0
100
AcDbSpline
210
0.0
220
0.0
230
1.0
 70
     8
 71
     3
 72
     8
 73
     4
 74
     0
 42
0.000000001
 43
0.00000001
 40
0.0
 40
0.0
 40
0.0
 40
0.0
 40
1.0
 40
1.0
 40
1.0
 40
1.0
 10
154.69429101024
 20
118.5628168581947
 30
0.0
 10
154.1732387677793
 20
118.3472983092206
 30
0.0
 10
153.6685024206777
 20
118.0882398953878
 30
0.0
 10
153.19429101024
 20
117.753510668093
 30
0.0
  0
LINE
  5
168
330
1F
100
AcDbEntity
  8
0
  6
HIDDEN
 62
     7
370
     0
100
AcDbLine
 10
153.1942910102
 20
113.0751688116
 30
0.0
 11
153.1942910102
 21
117.7535106681
 31
0.0
  0
LINE
  5
169
330
1F
100
AcDbEntity
  8
0
  6
HIDDEN
 62
     7
370
     0
100
AcDbLine
 10
158.6942910102
 20
112.1958419794
 30
0.0
 11
158.6942910102
 21
118.6328375003
 31
0.0
  0
SPLINE
  5
16A
330
1F
100
AcDbEntity
  8
0
  6
HIDDEN
 62
     7
370
     0
100
AcDbSpline
210
0.0
220
0.0
230
1.0
 70
     8
 71
     3
 72
    26
 73
    22
 74
     0
 42
0.000000001
 43
0.00000001
 40
0.0
 40
0.0
 40
0.0
 40
0.0
 40
0.1250000000000003
 40
0.1250000000000003
 40
0.2500000000000006
 40
0.2500000000000006
 40
0.3750000000000008
 40
0.3750000000000008
 40
0.4375000000000008
 40
0.4375000000000008
 40
0.5000000000000009
 40
0.5000000000000009
 40
0.562500000000001
 40
0.562500000000001
 40
0.6250000000000011
 40
0.6250000000000011
 40
0.7500000000000008
 40
0.7500000000000008
 40
0.8750000000000003
 40
0.8750000000000003
 40
1.0
 40
1.0
 40
1.0
 40
1.0
 10
158.69429101024
 20
112.1958419794089
 30
0.0
 10
158.9049343722399
 20
112.430459010354
 30
0.0
 10
159.1121308099969
 20
112.6683421463134
 30
0.0
 10
159.5136299446293
 20
113.1556564525823
 30
0.0
 10
159.7089063636753
 20
113.4057816773713
 30
0.0
 10
160.0686868563707
 20
113.9243718228223
 30
0.0
 10
160.2339457165201
 20
114.1918028067091
 30
0.0
 10
160.4266036259463
 20
114.6232179391076
 30
0.0
 10
160.4815683661563
 20
114.773236821032
 30
0.0
 10
160.5593041511205
 20
115.085973999762
 30
0.0
 10
160.5805702894288
 20
115.2437282465692
 30
0.0
 10
160.5824642187145
 20
115.562433526415
 30
0.0
 10
160.5622384816475
 20
115.7248703265956
 30
0.0
 10
160.4877740713617
 20
116.0358223261782
 30
0.0
 10
160.4341349456157
 20
116.1864935645059
 30
0.0
 10
160.239390640215
 20
116.6285773224745
 30
0.0
 10
160.0723405270368
 20
116.8986213356422
 30
0.0
 10
159.7120844083331
 20
117.4187289639236
 30
0.0
 10
159.5173320333127
 20
117.6683901767333
 30
0.0
 10
159.1143228088405
 20
118.1578142885761
 30
0.0
 10
158.905886290477
 20
118.39716021174
 30
0.0
 10
158.6942910102409
 20
118.6328375003079
 30
0.0
  0
SPLINE
  5
16B
330
1F
100
AcDbEntity
  8
0
  6
HIDDEN
 62
     7
370
     0
100
AcDbSpline
210
0.0
220
0.0
230
1.0
 70
    11
 71
     3
 72
    68
 73
    64
 74
     0
 42
0.000000001
 43
0.00000001
 40
0.0
 40
0.0
 40
0.0
 40
0.0
 40
0.0312499999999999
 40
0.0312499999999999
 40
0.0624999999999999
 40
0.0624999999999999
 40
0.0937499999999998
 40
0.0937499999999998
 40
0.1249999999999998
 40
0.1249999999999998
 40
0.1562499999999997
 40
0.1562499999999997
 40
0.1874999999999997
 40
0.1874999999999997
 40
0.2499999999999996
 40
0.2499999999999996
 40
0.2812499999999994
 40
0.2812499999999994
 40
0.3124999999999993
 40
0.3124999999999993
 40
0.3437499999999992
 40
0.3437499999999992
 40
0.3749999999999991
 40
0.3749999999999991
 40
0.406249999999999
 40
0.406249999999999
 40
0.4374999999999989
 40
0.4374999999999989
 40
0.4687499999999988
 40
0.4687499999999988
 40
0.4999999999999987
 40
0.4999999999999987
 40
0.5312499999999987
 40
0.5312499999999987
 40
0.5624999999999986
 40
0.5624999999999986
 40
0.5937499999999986
 40
0.5937499999999986
 40
0.6249999999999984
 40
0.6249999999999984
 40
0.6562499999999984
 40
0.6562499999999984
 40
0.6874999999999983
 40
0.6874999999999983
 40
0.7187499999999986
 40
0.7187499999999986
 40
0.7499999999999987
 40
0.7499999999999987
 40
0.7812499999999988
 40
0.7812499999999988
 40
0.812499999999999
 40
0.812499999999999
 40
0.8437499999999991
 40
0.8437499999999991
 40
0.8749999999999993
 40
0.8749999999999993
 40
0.9062499999999994
 40
0.9062499999999994
 40
0.9374999999999997
 40
0.9374999999999997
 40
0.9687499999999998
 40
0.9687499999999998
 40
1.0
 40
1.0
 40
1.0
 40
1.0
 10
167.0814954348201
 20
117.8078480492232
 30
0.0
 10
167.2489391946565
 20
117.9434686675966
 30
0.0
 10
167.4272054165922
 20
118.0611099604684
 30
0.0
 10
167.8042301134855
 20
118.2624414844782
 30
0.0
 10
168.0044188348619
 20
118.3462496876918
 30
0.0
 10
168.4110868744928
 20
118.4743417112602
 30
0.0
 10
168.6190020405129
 20
118.5196465082203
 30
0.0
 10
169.0439903397363
 20
118.5728042195258
 30
0.0
 10
169.2600269907203
 20
118.5800864035614
 30
0.0
 10
169.6845379595718
 20
118.5565389660241
 30
0.0
 10
169.8950649329616
 20
118.5260347635472
 30
0.0
 10
170.3125501437486
 20
118.4261751500799
 30
0.0
 10
170.515413677327
 20
118.3575792623192
 30
0.0
 10
171.0967301963418
 20
118.1002378191002
 30
0.0
 10
171.4571374491176
 20
117.8536879277903
 30
0.0
 10
171.9018764458792
 20
117.4004493717154
 30
0.0
 10
172.0370656660218
 20
117.232868792239
 30
0.0
 10
172.270005540624
 20
116.8740067173277
 30
0.0
 10
172.3666888862787
 20
116.6852481969735
 30
0.0
 10
172.5199201509282
 20
116.2887345207652
 30
0.0
 10
172.5765371082963
 20
116.0783901116783
 30
0.0
 10
172.6419893101312
 20
115.6570015833955
 30
0.0
 10
172.6519476687584
 20
115.4444854642318
 30
0.0
 10
172.6251136595913
 20
115.0157106891316
 30
0.0
 10
172.5880939958184
 20
114.8031444609846
 30
0.0
 10
172.4709307167816
 20
114.3938498169067
 30
0.0
 10
172.3893918392868
 20
114.193001145199
 30
0.0
 10
172.1881526278828
 20
113.8158743866879
 30
0.0
 10
172.0692208927119
 20
113.6396540651583
 30
0.0
 10
171.7960470796197
 20
113.3108979441761
 30
0.0
 10
171.6421863049095
 20
113.1595997762766
 30
0.0
 10
171.3122637068935
 20
112.8920126227973
 30
0.0
 10
171.133941881822
 20
112.7735414620865
 30
0.0
 10
170.7559178818996
 20
112.5706546581517
 30
0.0
 10
170.5599888831184
 20
112.4880357037037
 30
0.0
 10
170.1549035952841
 20
112.3585955271729
 30
0.0
 10
169.9435687974141
 20
112.3116202967424
 30
0.0
 10
169.5196840077616
 20
112.2569053418242
 30
0.0
 10
169.3072487344994
 20
112.2486755933811
 30
0.0
 10
168.8813966672044
 20
112.2701670911818
 30
0.0
 10
168.6662525037948
 20
112.3005647134003
 30
0.0
 10
168.2511229640544
 20
112.3983071702884
 30
0.0
 10
168.0494979983106
 20
112.4654256840373
 30
0.0
 10
167.6584114990397
 20
112.6370687841976
 30
0.0
 10
167.4685918901487
 20
112.7424148429822
 30
0.0
 10
167.118001269977
 20
112.9831177846768
 30
0.0
 10
166.9549947903305
 20
113.1192406610095
 30
0.0
 10
166.6549324676419
 20
113.4248941302436
 30
0.0
 10
166.5196635704376
 20
113.5933458097324
 30
0.0
 10
166.2887196176047
 20
113.9496264960158
 30
0.0
 10
166.1912373981324
 20
114.1393801754225
 30
0.0
 10
166.0362548387279
 20
114.5419885377068
 30
0.0
 10
165.9813883179108
 20
114.7478282813798
 30
0.0
 10
165.9159804472466
 20
115.1684079177022
 30
0.0
 10
165.9058342014136
 20
115.3859097349999
 30
0.0
 10
165.9325025639531
 20
115.8126498739605
 30
0.0
 10
165.9685399557796
 20
116.0225525830477
 30
0.0
 10
166.0859511013475
 20
116.4354414037062
 30
0.0
 10
166.1670786359657
 20
116.6357643484901
 30
0.0
 10
166.3668356801551
 20
117.0120028669552
 30
0.0
 10
166.4873381792812
 20
117.191457612203
 30
0.0
 10
166.7614186246471
 20
117.5218055402927
 30
0.0
 10
166.9140516749836
 20
117.6722274308497
 30
0.0
 10
167.0814954348201
 20
117.8078480492232
 30
0.0
  0
CIRCLE
  5
16C
330
1F
100
AcDbEntity
  8
0
  6
HIDDEN
 62
     7
370
     0
100
AcDbCircle
 10
169.1942910102
 20
115.4143397399
 30
0.0
 40
3.049999999999997
  0
ARC
  5
16D
330
1F
100
AcDbEntity
  8
0
  6
HIDDEN
 62
     7
370
     0
100
AcDbCircle
 10
236.1691548079
 20
87.4394759422
 30
0.0
 40
2.100000000000006
100
AcDbArc
 50
325.6073672349
 51
204.3926327651
  0
CIRCLE
  5
16E
330
1F
100
AcDbEntity
  8
0
  6
HIDDEN
 62
     7
370
     0
100
AcDbCircle
 10
195.1942910102
 20
115.4143397399
 30
0.0
 40
2.0
  0
LINE
  5
16F
330
1F
100
AcDbEntity
  8
0
  6
HIDDEN
 62
     7
370
     0
100
AcDbLine
 10
238.4488747729
 20
95.7096193069
 30
0.0
 11
238.0560845008
 21
94.9005375583
 31
0.0
  0
LINE
  5
170
330
1F
100
AcDbEntity
  8
0
  6
HIDDEN
 62
     7
370
     0
100
AcDbLine
 10
237.0464442241
 20
111.7356319672
 30
0.0
 11
234.4705853108
 21
115.4143397399
 31
0.0
  0
LINE
  5
171
330
1F
100
AcDbEntity
  8
0
  6
HIDDEN
 62
     7
370
     0
100
AcDbLine
 10
238.4485909746
 20
95.7090212727
 30
0.0
 11
237.0464442241
 21
111.7356319672
 31
0.0
  0
SPLINE
  5
172
330
1F
100
AcDbEntity
  8
0
  6
HIDDEN
 62
     7
370
     0
100
AcDbSpline
210
0.0
220
0.0
230
1.0
 70
     8
 71
     3
 72
     8
 73
     4
 74
     0
 42
0.000000001
 43
0.00000001
 40
0.0
 40
0.0
 40
0.0
 40
0.0
 40
1.0
 40
1.0
 40
1.0
 40
1.0
 10
217.9776008267924
 20
96.65762016988477
 30
0.0
 10
217.1774764544438
 20
101.6972194629663
 30
0.0
 10
216.5806713978209
 20
106.7673468639359
 30
0.0
 10
216.3928898485501
 20
111.8988885664271
 30
0.0
  0
SPLINE
  5
173
330
1F
100
AcDbEntity
  8
0
  6
HIDDEN
 62
     7
370
     0
100
AcDbSpline
210
0.0
220
0.0
230
1.0
 70
     8
 71
     3
 72
    10
 73
     6
 74
     0
 42
0.000000001
 43
0.00000001
 40
0.0
 40
0.0
 40
0.0
 40
0.0
 40
0.5
 40
0.5
 40
1.0
 40
1.0
 40
1.0
 40
1.0
 10
216.3928898485501
 20
111.8988885664272
 30
0.0
 10
216.3714506550576
 20
112.4847614378663
 30
0.0
 10
216.3449290631309
 20
113.0705964682548
 30
0.0
 10
216.3055014446263
 20
114.242367903866
 30
0.0
 10
216.2929894260455
 20
114.8283072426794
 30
0.0
 10
216.2929894260455
 20
115.414339739858
 30
0.0
  0
LINE
  5
174
330
1F
100
AcDbEntity
  8
0
  6
HIDDEN
 62
     7
370
     0
100
AcDbLine
 10
183.1942910102
 20
95.8643397399
 30
0.0
 11
183.2871842291
 21
95.9572329587
 31
0.0
  0
LINE
  5
175
330
1F
100
AcDbEntity
  8
0
  6
HIDDEN
 62
     7
370
     0
100
AcDbLine
 10
183.2871842291
 20
134.871446521
 30
0.0
 11
183.1942910102
 21
134.9643397399
 31
0.0
  0
ARC
  5
176
330
1F
100
AcDbEntity
  8
0
  6
HIDDEN
 62
     7
370
     0
100
AcDbCircle
 10
182.5800774479
 20
96.6643397399
 30
0.0
 40
1.0
100
AcDbArc
 50
315.0
 51
0.0
  0
ARC
  5
177
330
1F
100
AcDbEntity
  8
0
  6
HIDDEN
 62
     7
370
     0
100
AcDbCircle
 10
182.5800774479
 20
96.6643397399
 30
0.0
 40
1.0
100
AcDbArc
 50
0.0
 51
52.1052014664
  0
ARC
  5
178
330
1F
100
AcDbEntity
  8
0
  6
HIDDEN
 62
     7
370
     0
100
AcDbCircle
 10
182.5800774479
 20
134.1643397399
 30
0.0
 40
1.000000000000006
100
AcDbArc
 50
351.8087250651
 51
45.0
  0
ARC
  5
179
330
1F
100
AcDbEntity
  8
0
  6
HIDDEN
 62
     7
370
     0
100
AcDbCircle
 10
182.5800774479
 20
134.1643397399
 30
0.0
 40
1.000000000000006
100
AcDbArc
 50
307.8947985336
 51
351.8087250651
  0
LINE
  5
17A
330
1F
100
AcDbEntity
  8
0
  6
HIDDEN
 62
     7
370
     0
100
AcDbLine
 10
183.5800774479
 20
96.6643397399
 30
0.0
 11
183.5800774479
 21
134.1643397399
 31
0.0
  0
LINE
  5
17B
330
1F
100
AcDbEntity
  8
0
  6
HIDDEN
 62
     7
370
     0
100
AcDbLine
 10
183.5800774479
 20
96.6643397399
 30
0.0
 11
183.5800774479
 21
134.1643397399
 31
0.0
  0
LINE
  5
17C
330
1F
100
AcDbEntity
  8
0
  6
HIDDEN
 62
     7
370
     0
100
AcDbLine
 10
205.6942910102
 20
106.6689424502
 30
0.0
 11
205.6942910102
 21
111.3653330344
 31
0.0
  0
LINE
  5
17D
330
1F
100
AcDbEntity
  8
0
  6
HIDDEN
 62
     7
370
     0
100
AcDbLine
 10
205.6942910102
 20
104.2304816704
 30
0.0
 11
205.6942910102
 21
104.4460888256
 31
0.0
  0
LINE
  5
17E
330
1F
100
AcDbEntity
  8
0
  6
HIDDEN
 62
     7
370
     0
100
AcDbLine
 10
200.6942910102
 20
111.3648919859
 30
0.0
 11
200.6942910102
 21
104.2304816704
 31
0.0
  0
LINE
  5
17F
330
1F
100
AcDbEntity
  8
0
  6
HIDDEN
 62
     7
370
     0
100
AcDbLine
 10
202.8031235018
 20
102.8749322403
 30
0.0
 11
210.0137674519
 21
98.3379641607
 31
0.0
  0
LINE
  5
180
330
1F
100
AcDbEntity
  8
0
  6
HIDDEN
 62
     7
370
     0
100
AcDbLine
 10
209.7266277251
 20
104.4260401472
 30
0.0
 11
205.4495200301
 21
107.1172146414
 31
0.0
  0
LINE
  5
181
330
1F
100
AcDbEntity
  8
0
  6
HIDDEN
 62
     7
370
     0
100
AcDbLine
 10
201.4331242867
 20
104.1853698833
 30
0.0
 11
201.4299719767
 21
104.1549434165
 31
0.0
  0
ARC
  5
182
330
1F
100
AcDbEntity
  8
0
  6
HIDDEN
 62
     7
370
     0
100
AcDbCircle
 10
159.6942910102
 20
104.9143397399
 30
0.0
 40
1.5
100
AcDbArc
 50
191.0958032831
 51
270.0
  0
ARC
  5
183
330
1F
100
AcDbEntity
  8
0
  6
HIDDEN
 62
     7
370
     0
100
AcDbCircle
 10
159.6942910102
 20
125.9143397399
 30
0.0
 40
1.5
100
AcDbArc
 50
90.0
 51
168.9041967169
  0
LINE
  5
184
330
1F
100
AcDbEntity
  8
0
  6
HIDDEN
 62
     7
370
     0
100
AcDbLine
 10
159.6942910102
 20
103.4143397399
 30
0.0
 11
160.7010105223
 21
103.4143397399
 31
0.0
  0
LINE
  5
185
330
1F
100
AcDbEntity
  8
0
  6
HIDDEN
 62
     7
370
     0
100
AcDbLine
 10
160.7010105223
 20
127.4143397399
 30
0.0
 11
159.6942910102
 21
127.4143397399
 31
0.0
  0
ARC
  5
186
330
1F
100
AcDbEntity
  8
0
  6
HIDDEN
 62
     7
370
     0
100
AcDbCircle
 10
160.7010105223
 20
104.9143397399
 30
0.0
 40
1.5
100
AcDbArc
 50
270.0
 51
315.0
  0
ARC
  5
187
330
1F
100
AcDbEntity
  8
0
  6
HIDDEN
 62
     7
370
     0
100
AcDbCircle
 10
160.7010105223
 20
125.9143397399
 30
0.0
 40
1.5
100
AcDbArc
 50
45.0
 51
90.0
  0
LINE
  5
188
330
1F
100
AcDbEntity
  8
0
  6
HIDDEN
 62
     7
370
     0
100
AcDbLine
 10
153.1942910102
 20
103.6509276714
 30
0.0
 11
154.2223308659
 21
104.2444667588
 31
0.0
  0
LINE
  5
189
330
1F
100
AcDbEntity
  8
0
  6
HIDDEN
 62
     7
370
     0
100
AcDbLine
 10
154.2223308659
 20
126.5842127209
 30
0.0
 11
153.1942910102
 21
127.1777518083
 31
0.0
  0
LINE
  5
18A
330
1F
100
AcDbEntity
  8
0
  6
HIDDEN
 62
     7
370
     0
100
AcDbLine
 10
161.7616706941
 20
103.8536795681
 30
0.0
 11
162.8223308659
 21
104.9143397399
 31
0.0
  0
LINE
  5
18B
330
1F
100
AcDbEntity
  8
0
  6
HIDDEN
 62
     7
370
     0
100
AcDbLine
 10
162.8223308659
 20
125.9143397399
 30
0.0
 11
161.7616706941
 21
126.9749999116
 31
0.0
  0
LINE
  5
18C
330
1F
100
AcDbEntity
  8
0
  6
HIDDEN
 62
     7
370
     0
100
AcDbLine
 10
154.2223308659
 20
104.2444667588
 30
0.0
 11
156.7223308659
 21
104.9143397399
 31
0.0
  0
LINE
  5
18D
330
1F
100
AcDbEntity
  8
0
  6
HIDDEN
 62
     7
370
     0
100
AcDbLine
 10
156.7223308659
 20
125.9143397399
 30
0.0
 11
154.2223308659
 21
126.5842127209
 31
0.0
  0
LINE
  5
18E
330
1F
100
AcDbEntity
  8
0
  6
HIDDEN
 62
     7
370
     0
100
AcDbLine
 10
158.2223308659
 20
126.2030148745
 30
0.0
 11
157.7223308659
 21
125.9143397399
 31
0.0
  0
LINE
  5
18F
330
1F
100
AcDbEntity
  8
0
  6
HIDDEN
 62
     7
370
     0
100
AcDbLine
 10
157.7223308659
 20
104.9143397399
 30
0.0
 11
158.2223308659
 21
104.6256646053
 31
0.0
  0
LINE
  5
190
330
1F
100
AcDbEntity
  8
0
  6
HIDDEN
 62
     7
370
     0
100
AcDbLine
 10
162.8223308659
 20
104.9143397399
 30
0.0
 11
172.6942910102
 21
104.9143397399
 31
0.0
  0
LINE
  5
191
330
1F
100
AcDbEntity
  8
0
  6
HIDDEN
 62
     7
370
     0
100
AcDbLine
 10
172.6942910102
 20
125.9143397399
 30
0.0
 11
162.8223308659
 21
125.9143397399
 31
0.0
  0
LINE
  5
192
330
1F
100
AcDbEntity
  8
0
  6
HIDDEN
 62
     7
370
     0
100
AcDbLine
 10
156.7223308659
 20
104.9143397399
 30
0.0
 11
157.7223308659
 21
104.9143397399
 31
0.0
  0
LINE
  5
193
330
1F
100
AcDbEntity
  8
0
  6
HIDDEN
 62
     7
370
     0
100
AcDbLine
 10
157.7223308659
 20
125.9143397399
 30
0.0
 11
156.7223308659
 21
125.9143397399
 31
0.0
  0
ARC
  5
194
330
1F
100
AcDbEntity
  8
0
  6
HIDDEN
 62
     7
370
     0
100
AcDbCircle
 10
172.6942910102
 20
105.4143397399
 30
0.0
 40
0.5
100
AcDbArc
 50
270.0
 51
0.0
  0
ARC
  5
195
330
1F
100
AcDbEntity
  8
0
  6
HIDDEN
 62
     7
370
     0
100
AcDbCircle
 10
172.6942910102
 20
125.4143397399
 30
0.0
 40
0.5
100
AcDbArc
 50
0.0
 51
90.0
  0
LINE
  5
196
330
1F
100
AcDbEntity
  8
0
  6
HIDDEN
 62
     7
370
     0
100
AcDbLine
 10
173.1942910102
 20
107.1643397399
 30
0.0
 11
174.1942910102
 21
108.1643397399
 31
0.0
  0
LINE
  5
197
330
1F
100
AcDbEntity
  8
0
  6
HIDDEN
 62
     7
370
     0
100
AcDbLine
 10
174.1942910102
 20
122.6643397399
 30
0.0
 11
173.1942910102
 21
123.6643397399
 31
0.0
  0
LINE
  5
198
330
1F
100
AcDbEntity
  8
0
  6
HIDDEN
 62
     7
370
     0
100
AcDbLine
 10
207.1942910102
 20
108.1643397399
 30
0.0
 11
211.5505304982
 21
115.4143397399
 31
0.0
  0
LINE
  5
199
330
1F
100
AcDbEntity
  8
0
  6
HIDDEN
 62
     7
370
     0
100
AcDbLine
 10
211.5505304982
 20
115.4143397399
 30
0.0
 11
207.1942910102
 21
122.6643397399
 31
0.0
  0
LINE
  5
19A
330
1F
100
AcDbEntity
  8
0
  6
HIDDEN
 62
     7
370
     0
100
AcDbLine
 10
207.1942910102
 20
122.6643397399
 30
0.0
 11
174.1942910102
 21
122.6643397399
 31
0.0
  0
LINE
  5
19B
330
1F
100
AcDbEntity
  8
0
  6
HIDDEN
 62
     7
370
     0
100
AcDbLine
 10
174.1942910102
 20
108.1643397399
 30
0.0
 11
207.1942910102
 21
108.1643397399
 31
0.0
  0
LINE
  5
19C
330
1F
100
AcDbEntity
  8
0
  6
HIDDEN
 62
     7
370
     0
100
AcDbLine
 10
205.6942910102
 20
119.4637874939
 30
0.0
 11
205.6942910102
 21
125.3118135053
 31
0.0
  0
LINE
  5
19D
330
1F
100
AcDbEntity
  8
0
  6
HIDDEN
 62
     7
370
     0
100
AcDbLine
 10
200.6942910102
 20
125.3118135053
 30
0.0
 11
200.6942910102
 21
119.4633464454
 31
0.0
  0
LINE
  5
19E
330
1F
100
AcDbEntity
  8
0
  6
HIDDEN
 62
     7
370
     0
100
AcDbLine
 10
182.9942910102
 20
103.6446629062
 30
0.0
 11
182.9942910102
 21
103.8520655068
 31
0.0
  0
LINE
  5
19F
330
1F
100
AcDbEntity
  8
0
  6
HIDDEN
 62
     7
370
     0
100
AcDbLine
 10
206.1942910102
 20
125.4798120023
 30
0.0
 11
206.1942910102
 21
129.3941623266
 31
0.0
  0
LINE
  5
1A0
330
1F
100
AcDbEntity
  8
0
  6
HIDDEN
 62
     7
370
     0
100
AcDbLine
 10
200.1942910102
 20
129.3916667686
 30
0.0
 11
200.1942910102
 21
125.4798120023
 31
0.0
  0
LINE
  5
1A1
330
1F
100
AcDbEntity
  8
VERMASSUNG
  6
CENTERX2
100
AcDbLine
 10
150.5800817008
 20
115.4143397399
 30
0.0
 11
243.1942910102
 21
115.4143397399
 31
0.0
  0
LINE
  5
1A2
330
1F
100
AcDbEntity
  8
VERMASSUNG
  6
CENTERX2
100
AcDbLine
 10
243.1942910102
 20
80.4143397399
 30
0.0
 11
243.1942910102
 21
115.4143397399
 31
0.0
  0
LINE
  5
1A3
330
1F
100
AcDbEntity
  8
VERMASSUNG
  6
CENTERX2
100
AcDbLine
 10
243.1942910102
 20
80.4143397399
 30
0.0
 11
262.1592729932
 21
80.4143397399
 31
0.0
  0
DIMENSION
  5
1A4
330
1F
100
AcDbEntity
  8
VERMASSUNG
100
AcDbDimension
  2
_D
 10
243.1942910102
 20
60.4079819194
 30
0.0
 11
198.1942910102
 21
60.4079819194
 31
0.0
 70
   160
  1
<>
 71
     2
 42
-1.0
  3
SLDDIMSTYLE0
100
AcDbAlignedDimension
 13
153.1942910102
 23
99.4210139017
 33
0.0
 14
243.1942910102
 24
80.4143397399
 34
0.0
 50
0.0
100
AcDbRotatedDimension
  0
DIMENSION
  5
1AF
330
1F
100
AcDbEntity
  8
VERMASSUNG
100
AcDbDimension
  2
_D_1
 10
260.2647845253
 20
115.4143397399
 30
0.0
 11
260.2647845253
 21
97.9143397399
 31
0.0
 70
   160
  1
<>
 71
     2
 42
-1.0
  3
SLDDIMSTYLE1
100
AcDbAlignedDimension
 13
243.1942910102
 23
80.4143397399
 33
0.0
 14
243.1942910102
 24
115.4143397399
 34
0.0
 50
90.0
100
AcDbRotatedDimension
  0
DIMENSION
  5
1BC
330
1F
100
AcDbEntity
  8
VERMASSUNG
100
AcDbDimension
  2
_D_2
 10
183.1942910102
 20
70.3809995635
 30
0.0
 11
213.1942910102
 21
70.3809995635
 31
0.0
 70
   160
  1
<>
 71
     2
 42
-1.0
  3
SLDDIMSTYLE1
100
AcDbAlignedDimension
 13
243.1942910102
 23
80.4143397399
 33
0.0
 14
183.1942910102
 24
90.7143397399
 34
0.0
100
AcDbRotatedDimension
  0
DIMENSION
  5
1C8
330
1F
100
AcDbEntity
  8
VERMASSUNG
100
AcDbDimension
  2
_D_3
 10
243.1927688895
 20
80.849202037
 30
0.0
 11
250.7184454087
 21
88.5856551009
 31
0.0
 70
   162
  1
<>
 71
     1
 42
-1.0
  3
SLDDIMSTYLE2
100
AcDb2LineAngularDimension
 13
243.1942910102
 23
80.4143397399
 33
0.0
 14
262.1592729932
 24
80.4143397399
 34
0.0
 15
242.1396157888
 25
92.886797061
 35
0.0
 16
250.7184454087
 26
88.5856551009
 36
0.0
  0
DIMENSION
  5
1D1
330
1F
100
AcDbEntity
  8
VERMASSUNG
100
AcDbDimension
  2
_D_4
 10
143.1942910102
 20
90.4143397399
 30
0.0
 11
143.1942910102
 21
115.4143397399
 31
0.0
 70
   160
  1
PSC%%c<>
 71
     2
 42
-1.0
  3
SLDDIMSTYLE0
100
AcDbAlignedDimension
 13
183.4942910102
 23
140.4143397399
 33
0.0
 14
183.4942910102
 24
90.4143397399
 34
0.0
 50
90.0
100
AcDbRotatedDimension
  0
LINE
  5
1DD
330
1F
100
AcDbEntity
  8
0
  6
Continuous
 62
     7
370
    15
100
AcDbLine
 10
73.2969550145
 20
80.4143397399
 30
0.0
 11
76.5546935857
 21
80.8143397399
 31
0.0
  0
LINE
  5
1DE
330
1F
100
AcDbEntity
  8
0
  6
Continuous
 62
     7
370
    15
100
AcDbLine
 10
73.5969550145
 20
94.2682524963
 30
0.0
 11
73.2969550145
 21
94.3050878646
 31
0.0
  0
SPLINE
  5
1DF
330
1F
100
AcDbEntity
  8
0
  6
Continuous
 62
     7
370
    15
100
AcDbSpline
210
0.0
220
0.0
230
1.0
 70
     8
 71
     3
 72
    29
 73
    25
 74
     0
 42
0.000000001
 43
0.00000001
 40
0.0
 40
0.0
 40
0.0
 40
0.0
 40
0.0206702913774932
 40
0.0413282813996396
 40
0.0619806742916052
 40
0.0826341797291213
 40
0.1032955063040359
 40
0.12397135499514
 40
0.1446684126759787
 40
0.1653933456909457
 40
0.1861527935301868
 40
0.2069533626327339
 40
0.2278016203458835
 40
0.2487040890671214
 40
0.3736551926334384
 40
0.4984318191730664
 40
0.6233850629603355
 40
0.7489859508265677
 40
0.7910206670695547
 40
0.8329067825857578
 40
0.8746958233575295
 40
0.916439674837631
 40
0.9581903909553289
 40
0.9999999999999999
 40
0.9999999999999999
 40
0.9999999999999999
 40
0.9999999999999999
 10
78.05705208058662
 20
81.91328057507667
 30
0.0
 10
78.23200884283244
 20
81.94157688627612
 30
0.0
 10
78.58181824661953
 20
81.99815266890377
 30
0.0
 10
79.10426810125796
 20
82.09502232094259
 30
0.0
 10
79.62477455790336
 20
82.2006387816219
 30
0.0
 10
80.1431945117633
 20
82.31586544950825
 30
0.0
 10
80.65956609440533
 20
82.4404709870371
 30
0.0
 10
81.17387887186707
 20
82.57451732033338
 30
0.0
 10
81.68613548957785
 20
82.71798780246515
 30
0.0
 10
82.19633488325503
 20
82.87088666466511
 30
0.0
 10
82.70447777493439
 20
83.03321319394932
 30
0.0
 10
83.21056148711756
 20
83.20496548390499
 30
0.0
 10
83.71459523262477
 20
83.38615132943325
 30
0.0
 10
85.04884172344076
 20
83.89276330796257
 30
0.0
 10
87.16377910212374
 20
84.84956770681049
 30
0.0
 10
89.92925400032529
 20
86.4826073703145
 30
0.0
 10
92.50839606182726
 20
88.40541769312019
 30
0.0
 10
94.34666022151677
 20
90.11275928185775
 30
0.0
 10
95.57254180149357
 20
91.42194544295482
 30
0.0
 10
96.27999944502444
 20
92.2331742872621
 30
0.0
 10
96.95689295291854
 20
93.06713341070608
 30
0.0
 10
97.60246619316365
 20
93.92433900091675
 30
0.0
 10
98.21962686352997
 20
94.80293059566226
 30
0.0
 10
98.6044218928008
 20
95.40684916739814
 30
0.0
 10
98.7969550083061
 20
95.70902127276071
 30
0.0
  0
LINE
  5
1E0
330
1F
100
AcDbEntity
  8
0
  6
Continuous
 62
     7
370
    15
100
AcDbLine
 10
98.7969550145
 20
95.7096193069
 30
0.0
 11
98.7969550145
 21
94.9005375583
 31
0.0
  0
SPLINE
  5
1E1
330
1F
100
AcDbEntity
  8
0
  6
Continuous
 62
     7
370
    15
100
AcDbSpline
210
0.0
220
0.0
230
1.0
 70
     8
 71
     3
 72
    51
 73
    47
 74
     0
 42
0.000000001
 43
0.00000001
 40
0.0
 40
0.0
 40
0.0
 40
0.0
 40
0.0208921188598929
 40
0.041428358831231
 40
0.0616087204460307
 40
0.081433204295925
 40
0.1009018110359475
 40
0.1200145413887121
 40
0.1387713961489691
 40
0.1571723761885979
 40
0.1752174824621014
 40
0.1929067160126527
 40
0.2102400779787544
 40
0.2272175696016122
 40
0.2438391922332706
 40
0.260104947345666
 40
0.2760148365406823
 40
0.291568861561343
 40
0.3067670243043409
 40
0.3216093268340408
 40
0.3360957713982263
 40
0.3502263604458138
 40
0.364001096646858
 40
0.3774199829152114
 40
0.3904830224342661
 40
0.4031902186863124
 40
0.4155415754861004
 40
0.4275370970193986
 40
0.4391767878874495
 40
0.4504606531584119
 40
0.4613886984271893
 40
0.4719609298853264
 40
0.4821773544030682
 40
0.4920379796262222
 40
0.5015428140911415
 40
0.5512718890257972
 40
0.6001156613904173
 40
0.6480748247383369
 40
0.6951501121539223
 40
0.7413422992368409
 40
0.7866522073702772
 40
0.8310807073057357
 40
0.8746287231013747
 40
0.9172972364558567
 40
0.959087291485598
 40
0.9999999999999999
 40
0.9999999999999999
 40
0.9999999999999999
 40
0.9999999999999999
 10
98.7969545681816
 20
94.9010090390818
 30
0.0
 10
98.69929702586347
 20
94.75269517780319
 30
0.0
 10
98.50564545165676
 20
94.45859385156139
 30
0.0
 10
98.20822011009922
 20
94.02763718615793
 30
0.0
 10
97.90940050894277
 20
93.60881951148795
 30
0.0
 10
97.60896292520674
 20
93.20243777590622
 30
0.0
 10
97.30752345125589
 20
92.80821823859544
 30
0.0
 10
97.00546206965261
 20
92.42602574742426
 30
0.0
 10
96.70320346017763
 20
92.05567959786563
 30
0.0
 10
96.401143882239
 20
91.69700244643239
 30
0.0
 10
96.0996703736364
 20
91.34980842581173
 30
0.0
 10
95.79915591377322
 20
91.01390707878836
 30
0.0
 10
95.4999608708783
 20
90.68910314434915
 30
0.0
 10
95.20243283419086
 20
90.37519739656797
 30
0.0
 10
94.90690688560045
 20
90.07198718250864
 30
0.0
 10
94.6137057744607
 20
89.77926701150082
 30
0.0
 10
94.32314013332865
 20
89.49682910436731
 30
0.0
 10
94.03550869719906
 20
89.22446392661689
 30
0.0
 10
93.75109853437975
 20
88.96196069967289
 30
0.0
 10
93.47018528537804
 20
88.709107892031
 30
0.0
 10
93.1930334092845
 20
88.46569369025248
 30
0.0
 10
92.91989643638937
 20
88.23150645025119
 30
0.0
 10
92.65101722601958
 20
88.00633512922654
 30
0.0
 10
92.38662822857974
 20
87.78996969864808
 30
0.0
 10
92.12695175082206
 20
87.5822015387214
 30
0.0
 10
91.87220022347472
 20
87.3828238147426
 30
0.0
 10
91.62257647016955
 20
87.19163183591627
 30
0.0
 10
91.37827397748511
 20
87.00842339667268
 30
0.0
 10
91.13947716298338
 20
86.83299910250736
 30
0.0
 10
90.90636164879285
 20
86.66516267530672
 30
0.0
 10
90.67909451041989
 20
86.50472125833161
 30
0.0
 10
90.45783460545256
 20
86.3514856513128
 30
0.0
 10
90.24273260724597
 20
86.20527072500056
 30
0.0
 10
90.03393207052812
 20
86.06589513299464
 30
0.0
 10
89.54357362456281
 20
85.7443167065019
 30
0.0
 10
88.76398734756948
 20
85.26031315477037
 30
0.0
 10
87.68077166324765
 20
84.64837622555206
 30
0.0
 10
86.59347865528169
 20
84.091243682897
 30
0.0
 10
85.50507120273357
 20
83.58747942871557
 30
0.0
 10
84.41830570132551
 20
83.13552159313892
 30
0.0
 10
83.33577699759448
 20
82.7336856702458
 30
0.0
 10
82.25988972037982
 20
82.38029083774626
 30
0.0
 10
81.19293350366483
 20
82.07324869416358
 30
0.0
 10
80.13682928789744
 20
81.81161884127194
 30
0.0
 10
79.094058355227
 20
81.59003581518792
 30
0.0
 10
78.40021130480727
 20
81.47473831535437
 30
0.0
 10
78.05696809368715
 20
81.41770112819181
 30
0.0
  0
LINE
  5
1E2
330
1F
100
AcDbEntity
  8
0
  6
Continuous
 62
     7
370
    15
100
AcDbLine
 10
78.0569550145
 20
93.0187325057
 30
0.0
 11
75.5569550145
 21
92.9915663416
 31
0.0
  0
LINE
  5
1E3
330
1F
100
AcDbEntity
  8
0
  6
Continuous
 62
     7
370
    15
100
AcDbLine
 10
75.5569550145
 20
92.9915663416
 30
0.0
 11
73.5969550145
 21
93.2137084392
 31
0.0
  0
LINE
  5
1E4
330
1F
100
AcDbEntity
  8
0
  6
Continuous
 62
     7
370
    15
100
AcDbLine
 10
73.5969550145
 20
93.2137084392
 30
0.0
 11
73.5969550145
 21
112.8312324344
 31
0.0
  0
LINE
  5
1E5
330
1F
100
AcDbEntity
  8
0
  6
Continuous
 62
     7
370
    15
100
AcDbLine
 10
98.7969550145
 20
111.7356319672
 30
0.0
 11
73.5969550145
 21
112.8312324344
 31
0.0
  0
LINE
  5
1E6
330
1F
100
AcDbEntity
  8
0
  6
Continuous
 62
     7
370
    15
100
AcDbLine
 10
98.7969550145
 20
95.7090212727
 30
0.0
 11
98.7969550145
 21
111.7356319672
 31
0.0
  0
LINE
  5
1E7
330
1F
100
AcDbEntity
  8
0
  6
Continuous
 62
     7
370
    15
100
AcDbLine
 10
78.0569550145
 20
93.0187325057
 30
0.0
 11
78.0569550145
 21
92.6816717512
 31
0.0
  0
LINE
  5
1E8
330
1F
100
AcDbEntity
  8
0
  6
Continuous
 62
     7
370
    15
100
AcDbLine
 10
98.7969550145
 20
111.7356319672
 30
0.0
 11
98.7969550145
 21
115.4143397399
 31
0.0
  0
ARC
  5
1E9
330
1F
100
AcDbEntity
  8
0
  6
Continuous
 62
     7
370
    15
100
AcDbCircle
 10
73.2969550145
 20
115.4143397399
 30
0.0
 40
25.50000000000002
100
AcDbArc
 50
0.0
 51
89.3259164553
  0
LINE
  5
1EA
330
1F
100
AcDbEntity
  8
0
  6
Continuous
 62
     7
370
    15
100
AcDbLine
 10
73.5969550145
 20
112.8312324344
 30
0.0
 11
73.5969550145
 21
140.9125749729
 31
0.0
  0
SPLINE
  5
1EB
330
1F
100
AcDbEntity
  8
0
  6
Continuous
 62
     7
370
    15
100
AcDbSpline
210
0.0
220
0.0
230
1.0
 70
     8
 71
     3
 72
    18
 73
    14
 74
     0
 42
0.000000001
 43
0.00000001
 40
0.0
 40
0.0
 40
0.0
 40
0.0
 40
0.25
 40
0.25
 40
0.5
 40
0.5
 40
0.625
 40
0.625
 40
0.75
 40
0.75
 40
0.875
 40
0.875
 40
1.0
 40
1.0
 40
1.0
 40
1.0
 10
73.59615430894036
 20
140.4125492713865
 30
0.0
 10
73.58865795700534
 20
140.4126389939407
 30
0.0
 10
73.53008076847303
 20
140.4134915343411
 30
0.0
 10
73.31156058435688
 20
140.4145742335204
 30
0.0
 10
73.1558642127246
 20
140.4147369585428
 30
0.0
 10
72.85676432675537
 20
140.4106629511829
 30
0.0
 10
72.74649707660718
 20
140.4085564275596
 30
0.0
 10
72.51102424562897
 20
140.4022605136982
 30
0.0
 10
72.38506095119742
 20
140.3980649834576
 30
0.0
 10
72.11638888609741
 20
140.3868114126187
 30
0.0
 10
71.9737835484975
 20
140.3797302690569
 30
0.0
 10
71.68098540566545
 20
140.3624889543225
 30
0.0
 10
71.52969605627624
 20
140.3522900543842
 30
0.0
 10
71.37341214980262
 20
140.3402295504082
 30
0.0
  0
SPLINE
  5
1EC
330
1F
100
AcDbEntity
  8
0
  6
Continuous
 62
     7
370
    15
100
AcDbSpline
210
0.0
220
0.0
230
1.0
 70
     8
 71
     3
 72
    10
 73
     6
 74
     0
 42
0.000000001
 43
0.00000001
 40
0.0
 40
0.0
 40
0.0
 40
0.0
 40
0.379157988948329
 40
0.758305108874343
 40
1.0
 40
1.0
 40
1.0
 40
1.0
 10
71.37341214980262
 20
90.48844992930776
 30
0.0
 10
71.68651625739865
 20
90.46793935348818
 30
0.0
 10
72.31271549708282
 20
90.42691878980943
 30
0.0
 10
72.98847016823964
 20
90.41470611665954
 30
0.0
 10
73.21051325038303
 20
90.41512962755
 30
0.0
 10
73.2969550143238
 20
90.41529450108746
 30
0.0
  0
ELLIPSE
  5
1ED
330
1F
100
AcDbEntity
  8
0
  6
Continuous
 62
     7
370
    15
100
AcDbEllipse
 10
61.1912694754
 20
101.382002154
 30
0.0
 11
-2.295783159904374
 21
2.626275927376284
 31
0.0
210
0.0
220
0.0
230
1.0
 40
0.7033638942
 41
0.0
 42
6.283185307179586
  0
ARC
  5
1EE
330
1F
100
AcDbEntity
  8
0
  6
Continuous
 62
     7
370
    15
100
AcDbCircle
 10
73.2969550145
 20
115.4143397399
 30
0.0
 40
25.0
100
AcDbArc
 50
94.4127968195
 51
265.5872031805
  0
SPLINE
  5
1EF
330
1F
100
AcDbEntity
  8
0
  6
Continuous
 62
     7
370
    15
100
AcDbSpline
210
0.0
220
0.0
230
1.0
 70
     8
 71
     3
 72
    15
 73
    11
 74
     0
 42
0.000000001
 43
0.00000001
 40
0.0
 40
0.0
 40
0.0
 40
0.0
 40
0.0447516964222237
 40
0.3710588765319658
 40
0.7322400464645094
 40
0.7981382663869774
 40
0.8535657825527263
 40
0.8875764319468886
 40
0.9215628704881301
 40
0.9999999999999999
 40
0.9999999999999999
 40
0.9999999999999999
 40
0.9999999999999999
 10
58.29206837744277
 20
102.4661357328999
 30
0.0
 10
58.32192960194868
 20
102.4616684069267
 30
0.0
 10
58.56952406881517
 20
102.4246275550879
 30
0.0
 10
59.02787943322321
 20
102.7540070914375
 30
0.0
 10
59.44481834949826
 20
103.2056892299282
 30
0.0
 10
59.61686115712854
 20
103.5668540256349
 30
0.0
 10
59.64459946867314
 20
103.6855692008038
 30
0.0
 10
59.61489190131475
 20
103.7655257009499
 30
0.0
 10
59.52348945132927
 20
103.8272482509734
 30
0.0
 10
59.42103303491087
 20
103.8472469730407
 30
0.0
 10
59.34954991670797
 20
103.861199940199
 30
0.0
  0
ARC
  5
1F0
330
1F
100
AcDbEntity
  8
0
  6
Continuous
 62
     7
370
    15
100
AcDbCircle
 10
58.1301309458
 20
106.6835954587
 30
0.0
 40
3.074556730564801
100
AcDbArc
 50
293.3668097677
 51
311.3220866014
  0
SPLINE
  5
1F1
330
1F
100
AcDbEntity
  8
0
  6
Continuous
 62
     7
370
    15
100
AcDbSpline
210
0.0
220
0.0
230
1.0
 70
     8
 71
     3
 72
    14
 73
    10
 74
     0
 42
0.000000001
 43
0.00000001
 40
0.0
 40
0.0
 40
0.0
 40
0.0
 40
0.1022310256015678
 40
0.1673768184427236
 40
0.2333082023519407
 40
0.3169006129344387
 40
0.6440555774839745
 40
0.9678535157466099
 40
1.0
 40
1.0
 40
1.0
 40
1.0
 10
60.16023375781526
 20
104.3745736610199
 30
0.0
 10
60.1479105271878
 20
104.3205498676164
 30
0.0
 10
60.1277344297338
 20
104.2320999023844
 30
0.0
 10
60.13214152374486
 20
104.1233751686265
 30
0.0
 10
60.18498079822067
 20
104.0551659332324
 30
0.0
 10
60.38839323223302
 20
104.005399081385
 30
0.0
 10
60.74052247451461
 20
104.0731034668515
 30
0.0
 10
61.04513628548433
 20
104.1549842512368
 30
0.0
 10
61.16480040546479
 20
104.2354662552207
 30
0.0
 10
61.17560765655601
 20
104.2427348435454
 30
0.0
  0
SPLINE
  5
1F2
330
1F
100
AcDbEntity
  8
0
  6
Continuous
 62
     7
370
    15
100
AcDbSpline
210
0.0
220
0.0
230
1.0
 70
     8
 71
     3
 72
     8
 73
     4
 74
     0
 42
0.000000001
 43
0.00000001
 40
0.0
 40
0.0
 40
0.0
 40
0.0
 40
1.0
 40
1.0
 40
1.0
 40
1.0
 10
59.34954991671064
 20
103.8611999402007
 30
0.0
 10
59.60380736771911
 20
104.0560326171586
 30
0.0
 10
59.87433212928817
 20
104.2267170792153
 30
0.0
 10
60.16023375781209
 20
104.3745736610177
 30
0.0
  0
LINE
  5
1F3
330
1F
100
AcDbEntity
  8
0
  6
Continuous
 62
     7
370
    15
100
AcDbLine
 10
76.5546935857
 20
92.8519347639
 30
0.0
 11
73.2969550145
 21
92.886797061
 31
0.0
  0
LINE
  5
1F4
330
1F
100
AcDbEntity
  8
0
  6
Continuous
 62
     7
370
    15
100
AcDbLine
 10
78.0569550145
 20
92.6816717512
 30
0.0
 11
76.5546935857
 21
92.8519347639
 31
0.0
  0
LINE
  5
1F5
330
1F
100
AcDbEntity
  8
0
  6
Continuous
 62
     7
370
    15
100
AcDbLine
 10
78.0569550145
 20
81.017251297
 30
0.0
 11
78.0569550145
 21
92.6816717512
 31
0.0
  0
LINE
  5
1F6
330
1F
100
AcDbEntity
  8
0
  6
Continuous
 62
     7
370
    15
100
AcDbLine
 10
78.0569550145
 20
81.017251297
 30
0.0
 11
76.5546935857
 21
80.8143397399
 31
0.0
  0
LINE
  5
1F7
330
1F
100
AcDbEntity
  8
0
  6
Continuous
 62
     7
370
    15
100
AcDbLine
 10
76.5546935857
 20
80.8143397399
 30
0.0
 11
73.2969550145
 21
80.849202037
 31
0.0
  0
LINE
  5
1F8
330
1F
100
AcDbEntity
  8
0
  6
Continuous
 62
     7
370
    15
100
AcDbLine
 10
73.2969550145
 20
80.849202037
 30
0.0
 11
73.2969550145
 21
92.886797061
 31
0.0
  0
LINE
  5
1F9
330
1F
100
AcDbEntity
  8
0
  6
Continuous
 62
     7
370
    15
100
AcDbLine
 10
73.2969550145
 20
80.4143397399
 30
0.0
 11
73.2969550145
 21
80.849202037
 31
0.0
  0
LINE
  5
1FA
330
1F
100
AcDbEntity
  8
0
  6
Continuous
 62
     7
370
    15
100
AcDbLine
 10
76.5546935857
 20
92.8519347639
 30
0.0
 11
73.5979578923
 21
93.2135947752
 31
0.0
  0
LINE
  5
1FB
330
1F
100
AcDbEntity
  8
0
  6
Continuous
 62
     7
370
    15
100
AcDbLine
 10
73.5969550145
 20
93.2137174446
 30
0.0
 11
73.2969550145
 21
93.2504126431
 31
0.0
  0
LINE
  5
1FC
330
1F
100
AcDbEntity
  8
0
  6
Continuous
 62
     7
370
    15
100
AcDbLine
 10
73.2969550145
 20
92.886797061
 30
0.0
 11
73.2969550145
 21
93.2504126431
 31
0.0
  0
LINE
  5
1FD
330
1F
100
AcDbEntity
  8
0
  6
Continuous
 62
     7
370
    15
100
AcDbLine
 10
73.5969550145
 20
94.2668705453
 30
0.0
 11
73.2969550145
 21
94.3035657438
 31
0.0
  0
LINE
  5
1FE
330
1F
100
AcDbEntity
  8
0
  6
Continuous
 62
     7
370
    15
100
AcDbLine
 10
73.2969550145
 20
93.2504126431
 30
0.0
 11
73.2969550145
 21
94.3035657438
 31
0.0
  0
LINE
  5
1FF
330
1F
100
AcDbEntity
  8
0
  6
Continuous
 62
     7
370
    15
100
AcDbLine
 10
73.2969550145
 20
94.3035657438
 30
0.0
 11
73.2969550145
 21
94.3050878646
 31
0.0
  0
CIRCLE
  5
200
330
1F
100
AcDbEntity
  8
VERMASSUNG
  6
CENTERX2
100
AcDbCircle
 10
73.2969550145
 20
113.8401916382
 30
0.0
 40
32.50000000000001
  0
DIMENSION
  5
201
330
1F
100
AcDbEntity
  8
VERMASSUNG
100
AcDbDimension
  2
_D_5
 10
97.1655487105
 20
135.9058321598
 30
0.0
 11
104.0363255953
 21
142.0287698768
 31
0.0
 70
   160
  1
%%c<> min. 
 71
     2
 42
-1.0
  3
SLDDIMSTYLE3
100
AcDbAlignedDimension
 13
49.0334923409
 23
92.2176483307
 33
0.0
 14
97.5604176881
 24
135.4627349458
 34
0.0
 50
41.706037304
100
AcDbRotatedDimension
  0
INSERT
  5
21B
330
1F
100
AcDbEntity
  8
VERMASSUNG
100
AcDbBlockReference
  2
SW_CENTERMARKSYMBOL_0
 10
73.2969550145
 20
115.4143397399
 30
0.0
  0
OLE2FRAME
  5
21C
330
1F
100
AcDbEntity
  8
0
100
AcDbOle2Frame
 70
     2
  3
Paintbrush-Bild
 10
13.8511154363
 20
38.264191557
 30
0.0
 11
51.6290888628
 21
31.9806341108
 31
0.0
 71
     2
 72
     0
 73
     1
 90
    12928
310
80552BED0767C5B32B40DDAF6807D121434000000000000000006FFBDDFB85D0
310
4940DDAF6807D121434000000000000000006FFBDDFB85D04940416F4BD60AFB
310
3F4000000000000000002BED0767C5B32B40416F4BD60AFB3F40000000000000
310
0000000000000100000000010000010000000100000000000100000000320000
310
D0CF11E0A1B11AE1000000000000000000000000000000003E000300FEFF0900
310
0600000000000000000000000100000001000000000000000010000002000000
310
01000000FEFFFFFF0000000000000000FFFFFFFFFFFFFFFFFFFFFFFFFFFFFFFF
310
FFFFFFFFFFFFFFFFFFFFFFFFFFFFFFFFFFFFFFFFFFFFFFFFFFFFFFFFFFFFFFFF
310
FFFFFFFFFFFFFFFFFFFFFFFFFFFFFFFFFFFFFFFFFFFFFFFFFFFFFFFFFFFFFFFF
310
FFFFFFFFFFFFFFFFFFFFFFFFFFFFFFFFFFFFFFFFFFFFFFFFFFFFFFFFFFFFFFFF
310
FFFFFFFFFFFFFFFFFFFFFFFFFFFFFFFFFFFFFFFFFFFFFFFFFFFFFFFFFFFFFFFF
310
FFFFFFFFFFFFFFFFFFFFFFFFFFFFFFFFFFFFFFFFFFFFFFFFFFFFFFFFFFFFFFFF
310
FFFFFFFFFFFFFFFFFFFFFFFFFFFFFFFFFFFFFFFFFFFFFFFFFFFFFFFFFFFFFFFF
310
FFFFFFFFFFFFFFFFFFFFFFFFFFFFFFFFFFFFFFFFFFFFFFFFFFFFFFFFFFFFFFFF
310
FFFFFFFFFFFFFFFFFFFFFFFFFFFFFFFFFFFFFFFFFFFFFFFFFFFFFFFFFFFFFFFF
310
FFFFFFFFFFFFFFFFFFFFFFFFFFFFFFFFFFFFFFFFFFFFFFFFFFFFFFFFFFFFFFFF
310
FFFFFFFFFFFFFFFFFFFFFFFFFFFFFFFFFFFFFFFFFFFFFFFFFFFFFFFFFFFFFFFF
310
FFFFFFFFFFFFFFFFFFFFFFFFFFFFFFFFFFFFFFFFFFFFFFFFFFFFFFFFFFFFFFFF
310
FFFFFFFFFFFFFFFFFFFFFFFFFFFFFFFFFFFFFFFFFFFFFFFFFFFFFFFFFFFFFFFF
310
FFFFFFFFFFFFFFFFFFFFFFFFFFFFFFFFFFFFFFFFFFFFFFFFFFFFFFFFFFFFFFFF
310
FDFFFFFFFEFFFFFFFEFFFFFFFEFFFFFF05000000060000000700000008000000
310
090000000A0000000B0000000C0000000D0000000E0000000F00000010000000
310
11000000120000001300000014000000150000001600000017000000FEFFFFFF
310
FFFFFFFFFFFFFFFFFFFFFFFFFFFFFFFFFFFFFFFFFFFFFFFFFFFFFFFFFFFFFFFF
310
FFFFFFFFFFFFFFFFFFFFFFFFFFFFFFFFFFFFFFFFFFFFFFFFFFFFFFFFFFFFFFFF
310
FFFFFFFFFFFFFFFFFFFFFFFFFFFFFFFFFFFFFFFFFFFFFFFFFFFFFFFFFFFFFFFF
310
FFFFFFFFFFFFFFFFFFFFFFFFFFFFFFFFFFFFFFFFFFFFFFFFFFFFFFFFFFFFFFFF
310
FFFFFFFFFFFFFFFFFFFFFFFFFFFFFFFFFFFFFFFFFFFFFFFFFFFFFFFFFFFFFFFF
310
FFFFFFFFFFFFFFFFFFFFFFFFFFFFFFFFFFFFFFFFFFFFFFFFFFFFFFFFFFFFFFFF
310
FFFFFFFFFFFFFFFFFFFFFFFFFFFFFFFFFFFFFFFFFFFFFFFFFFFFFFFFFFFFFFFF
310
FFFFFFFFFFFFFFFFFFFFFFFFFFFFFFFFFFFFFFFFFFFFFFFFFFFFFFFFFFFFFFFF
310
FFFFFFFFFFFFFFFFFFFFFFFFFFFFFFFFFFFFFFFFFFFFFFFFFFFFFFFFFFFFFFFF
310
FFFFFFFFFFFFFFFFFFFFFFFFFFFFFFFFFFFFFFFFFFFFFFFFFFFFFFFFFFFFFFFF
310
FFFFFFFFFFFFFFFFFFFFFFFFFFFFFFFFFFFFFFFFFFFFFFFFFFFFFFFFFFFFFFFF
310
FFFFFFFFFFFFFFFFFFFFFFFFFFFFFFFFFFFFFFFFFFFFFFFFFFFFFFFFFFFFFFFF
310
FFFFFFFFFFFFFFFFFFFFFFFFFFFFFFFFFFFFFFFFFFFFFFFFFFFFFFFFFFFFFFFF
310
52006F006F007400200045006E00740072007900000000000000000000000000
310
0000000000000000000000000000000000000000000000000000000000000000
310
16000500FFFFFFFFFFFFFFFF020000000A00030000000000C000000000000046
310
000000000000000000000000F0EC544B9B45D20103000000C000000000000000
310
01004F006C006500000000000000000000000000000000000000000000000000
310
0000000000000000000000000000000000000000000000000000000000000000
310
0A000200FFFFFFFFFFFFFFFFFFFFFFFF00000000000000000000000000000000
310
0000000000000000000000000000000000000000000000001400000000000000
310
010043006F006D0070004F0062006A0000000000000000000000000000000000
310
0000000000000000000000000000000000000000000000000000000000000000
310
120002010100000003000000FFFFFFFF00000000000000000000000000000000
310
0000000000000000000000000000000000000000010000004D00000000000000
310
01004F006C006500310030004E00610074006900760065000000000000000000
310
0000000000000000000000000000000000000000000000000000000000000000
310
1A000200FFFFFFFFFFFFFFFFFFFFFFFF00000000000000000000000000000000
310
0000000000000000000000000000000000000000040000002426000000000000
310
FEFFFFFF02000000FEFFFFFFFFFFFFFFFFFFFFFFFFFFFFFFFFFFFFFFFFFFFFFF
310
FFFFFFFFFFFFFFFFFFFFFFFFFFFFFFFFFFFFFFFFFFFFFFFFFFFFFFFFFFFFFFFF
310
FFFFFFFFFFFFFFFFFFFFFFFFFFFFFFFFFFFFFFFFFFFFFFFFFFFFFFFFFFFFFFFF
310
FFFFFFFFFFFFFFFFFFFFFFFFFFFFFFFFFFFFFFFFFFFFFFFFFFFFFFFFFFFFFFFF
310
FFFFFFFFFFFFFFFFFFFFFFFFFFFFFFFFFFFFFFFFFFFFFFFFFFFFFFFFFFFFFFFF
310
FFFFFFFFFFFFFFFFFFFFFFFFFFFFFFFFFFFFFFFFFFFFFFFFFFFFFFFFFFFFFFFF
310
FFFFFFFFFFFFFFFFFFFFFFFFFFFFFFFFFFFFFFFFFFFFFFFFFFFFFFFFFFFFFFFF
310
FFFFFFFFFFFFFFFFFFFFFFFFFFFFFFFFFFFFFFFFFFFFFFFFFFFFFFFFFFFFFFFF
310
FFFFFFFFFFFFFFFFFFFFFFFFFFFFFFFFFFFFFFFFFFFFFFFFFFFFFFFFFFFFFFFF
310
FFFFFFFFFFFFFFFFFFFFFFFFFFFFFFFFFFFFFFFFFFFFFFFFFFFFFFFFFFFFFFFF
310
FFFFFFFFFFFFFFFFFFFFFFFFFFFFFFFFFFFFFFFFFFFFFFFFFFFFFFFFFFFFFFFF
310
FFFFFFFFFFFFFFFFFFFFFFFFFFFFFFFFFFFFFFFFFFFFFFFFFFFFFFFFFFFFFFFF
310
FFFFFFFFFFFFFFFFFFFFFFFFFFFFFFFFFFFFFFFFFFFFFFFFFFFFFFFFFFFFFFFF
310
FFFFFFFFFFFFFFFFFFFFFFFFFFFFFFFFFFFFFFFFFFFFFFFFFFFFFFFFFFFFFFFF
310
FFFFFFFFFFFFFFFFFFFFFFFFFFFFFFFFFFFFFFFFFFFFFFFFFFFFFFFFFFFFFFFF
310
FFFFFFFFFFFFFFFFFFFFFFFFFFFFFFFFFFFFFFFFFFFFFFFFFFFFFFFFFFFFFFFF
310
0100000200000000000000000000000000000000000000000000000000000000
310
0000000000000000000000000000000000000000000000000000000000000000
310
0100FEFF030A0000FFFFFFFF0A00030000000000C00000000000004607000000
310
5042727573680007000000504272757368000700000050427275736800F439B2
310
7100000000000000000000000000000000000000000000000000000000000000
310
0000000000000000000000000000000000000000000000000000000000000000
310
0000000000000000000000000000000000000000000000000000000000000000
310
0000000000000000000000000000000000000000000000000000000000000000
310
0000000000000000000000000000000000000000000000000000000000000000
310
0000000000000000000000000000000000000000000000000000000000000000
310
0000000000000000000000000000000000000000000000000000000000000000
310
0000000000000000000000000000000000000000000000000000000000000000
310
0000000000000000000000000000000000000000000000000000000000000000
310
0000000000000000000000000000000000000000000000000000000000000000
310
0000000000000000000000000000000000000000000000000000000000000000
310
0000000000000000000000000000000000000000000000000000000000000000
310
20260000424D0E260000000000003E00000028000000B40200006E0000000100
310
01000000000000000000130B0000130B00000200000002000000000000FFFFFF
310
FFFFFFFFFFFFFFFFFFFFFFFFFFFFFFFFFFFFFFFFFFFFFFFFFFFFFFFFFFFFFFFF
310
FFFFFFFFFFFFFFFFFFFFFFFFFFFFFFFFFFFFFFFFFFFFFFFFFFFFFFFFFFFFFFFF
310
FFFFFFFFFFFFFFFFFFFFFFFFFFFFFFFFFFFFFFFFFFFFFFFFF000FFFFFFFFFFFF
310
FFFFFFFFFFFFFFFFFFFFFFFFFFFFFFFFFFFFFFFFFFFFFFFFFFFFFFFFFFFFFFFF
310
FFFFFFFFFFFFFFFFFFFFFFFFFFFFFFFFFFFFFFFFFFFFFFFFFFFFFFFFFFFFFFFF
310
FFFFFFFFFFFFFFFFFFFFFFFFFFFFFFFFF000FFFFFFFFFFFFFFFFFFFFFFFFFFFF
310
FFFFFFFFFFFFFFFFFFFFFFFFFFFFFFFFFFFFFFFFFFFFFFFFFFFFFFFFFFFFFFFF
310
FFFFFFFFFFFFFFFFFFFFFFFFFFFFFFFFFFFFFFFFFFFFFFFFFFFFFFFFFFFFFFFF
310
FFFFFFFFFFFFFFFFF000FFFFFFFFFFFFFFFFFFFFFFFFFFFFFFFFFFFFFFFFFFFF
310
FFFFFFFFFFFFFFFFFFFFFFFFFFFFFFFFFFFFFFFFFFFFFFFFFFFFFFFFFFFFFFFF
310
FFFFFFFFFFFFFFFFFFFFFFFFFFFFFFFFFFFFFFFFFFFFFFFFFFFFFFFFFFFFFFFF
310
F000FFFFFFFFFFFFFFFFFFFFFFFFFFFFFFFFFFFFFFFFFFFFFFFFFFFFFFFFFFFF
310
FFFFFFFFFFFFFFFFFFFFFFFFFFFFFFFFFFFFFFFFFFFFFFFFFFFFFFFFFFFFFFFF
310
FFFFFFFFFFFFFFFFFFFFFFFFFFFFFFFFFFFFFFFFFFFFFFFFF000FFFFFFFFFFFF
310
FFFFFFFFFFFFFFFFFFFFFFFFFFFFFFFFFFFFFFFFFFFFFFFFFFFFFFFFFFFFFFFF
310
FFFFFFFFFFFFFFFFFFFFFFFFFFFFFFFFFFFFFFFFFFFFFFFFFFFFFFFFFFFFFFFF
310
FFFFFFFFFFFFFFFFFFFFFFFFFFFFFFFFF000FFFFFFFFFFFFFFFFFFFFFFFFFFFF
310
FFFFFFFFFFFFFFFFFFFFFFFFFFFFFFFFFFFFFFFFFFFFFFFFFFFFFFFFFFFFFFFF
310
FFFFFFFFFFFFFFFFFFFFFFFFFFFFFFFFFFFFFFFFFFFFFFFFFFFFFFFFFFFFFFFF
310
FFFFFFFFFFFFFFFFF000FFFFFFFFFFFFFFFFFFFFFFFFFFFFFFFFFFFFFFFFFFFF
310
FFFFFFFFFFFFFFFFFFFFFFFFFFFFFFFFFFFFFFFFFFFFFFFFFFFFFFFFFFFFFFFF
310
FFFFFFFFFFFFFFFFFFFFFFFFFFFFFFFFFFFFFFFFFFFFFFFFFFFFFFFFFFFFFFFF
310
F000FFFFFFFFFFFFFFFFFFFFFFFFFFFFFFFFFFFFFFFFFFFFFFFFFFFFFFFFFFFF
310
FFFFFFFFFFFFFFFFFFFFFFFFFFFFFFFFFFFFFFFFFFFFFFFFFFFFFFFFFFFFFFFF
310
FFFFFFFFFFFFFFFFFFFFFFFFFFFFFFFFFFFFFFFFFFFFFFFFF000FFFFFFFFFFFF
310
FFFFFFFFFFFFFFFFFFFFFFFFFFFFFFFFFFFFFFFFFFFFFFFFFFFFFFFFFFFFFFFF
310
FFFFFFFFFFFFFFFFFFFFFFFFFFFFFFFFFFFFFFFFFFFFFFFFFFFFFFFFFFFFFFFF
310
FFFFFFFFFFFFFFFFFFFFFFFFFFFFFFFFF000FFFFFFFFFFFFFFFFFFFFFFFFFFFF
310
FFFFFFFFFFFFFFFFFFFFFFFFFFFFFFFFFFFFFFFFFFFFFFFFFFFFFFFFFFFFFFFF
310
FFFFFFFFFFFFFFFFFFFFFFFFFFFFFFFFFFFFFFFFFFFFFFFFFFFFFFFFFFFFFFFF
310
FFFFFFFFFFFFFFFFF000FFFFFFFFFFFFFFFFFFFFFFFFFFFFFFFFFFFFFFFFFFFF
310
FFFFFFFFFFFFFFFFFFFFFFFFFFFFFFFFFFFFFFFFFFFFFFFFFFFFFFFFFFFFFFFF
310
FFFFFFFFFFFFFFFFFFFFFFFFFFFFFFFFFFFFFFFFFFFFFFFFFFFFFFFFFFFFFFFF
310
F000FFFFFFFFFFFFFFFFFFFFFFFFFFFFFFFFFFFFFFFFFFFFFFFFFFFFFFFFFFFF
310
FFFFFFFFFFFFFFFFFFFFFFFFFFFFFFFFFFFFFFFFFFFFFFFFFFFFFFFFFFFFFFFF
310
FFFFFFFFFFFFFFFFFFFFFFFFFFFFFFFFFFFFFFFFFFFFFFFFF000FFFFFFFFFFFF
310
FFFFFFFFFFFFFFFFFFFFFFFFFFFFFFFFFFFFFFFFFFFFFFFFFFFFFFFFFFFFFFFF
310
FFFFFFFFFFFFFFFFFFFFFFFFFFFFFFFFFFFFFFFFFFFFFFFFFFFFFFFFFFFFFFFF
310
FFFFFFFFFFFFFFFFFFFFFFFFFFFFFFFFF000FFFFFFFFFFFFFFFFFFFFFFFFFFFF
310
FFFFFFFFFFFFFFFFFFFFFFFFFFFFFFFFFFFFFFFFFFFFFFFFFFFFFFFFFFFFFFFF
310
FFFFFFFFFFFFFFFFFFFFFFFFFFFFFFFFFFFFFFFFFFFFFFFFFFFFFFFFFFFFFFFF
310
FFFFFFFFFFFFFFFFF000FFFFFFFFFFFFFFFFFFFFFFFFFFFFFFFFFFFFFFFFFFFF
310
FFFFFFFFFFFFFFFFFFFFFFFFFFFFFFFFFFFFFFFFFFFFFFFFFFFFFFFFFFFFFFFF
310
FFFFFFFFFFFFFFFFFFFFFFFFFFFFFFFFFFFFFFFFFFFFFFFFFFFFFFFFFFFFFFFF
310
F000FFFFFFFFFFFFFFFFFFFFFFFFFFFFFFFFFFFFFFFFFFFFFFFFFFFFFFFFFFFF
310
FFFFFFFFFFFFFFFFFFFFFFFFFFFFFFFFFFFFFFFFFFFFFFFFFFFFFFFFFFFFFFFF
310
FFFFFFFFFFFFFFFFFFFFFFFFFFFFFFFFFFFFFFFFFFFFFFFFF000FFFFFFFFFFFF
310
FFFFFFFFFFFFFFFFFFFFFFFFFFFFFFFFFFFFFFFFFFFFFFFFFFFFFFFFFFFFFFFF
310
FFFFFFFFFFFFFFFFFFFFFFFFFFFFFFFFFFFFFFFFFFFFFFFFFFFFFFFFFFFFFFFF
310
FFFFFFFFFFFFFFFFFFFFFFFFFFFFFFFFF000FFFFFFFFFFFFFFFFFFFFFFFFFFFF
310
FFFFFFFFFFFFFFFFFFFFFFFFFFFFFFFFFFFFFFFFFFFFFFFFFFFFFFFFFFFFFFFF
310
FFFFFFFFFFFFFFFFFFFFFFFFFFFFFFFFFFFFFFFFFFFFFFFFFFFFFFFFFFFFFFFF
310
FFFFFFFFFFFFFFFFF000FFFFF80003FFFFFFFFFFFFFFFFFFFFFFFFFFFFFFFFFF
310
FFFFF00007FFFFFFFFFF00007FFFFFF800000000000000007FFFFFFFFFFFFFFF
310
FFFFFFFC001FFFFFFFFFFFFFFC001FFFFFFFFFFFFFFFFFFFFFFFFFFE0007FFFF
310
F000FFFF8000007FFFFFFFF8000FFFFFC0007FFFFF80007FFFFF0000007FFFFF
310
FFF8000007FFFFF800000000000000007FFFFFF0001FFFFFFFFFFFC00001FFFF
310
FFFFFFFFC00001FFFFFFFF000000000003FFFFE000007FFFF000FFFE0000000F
310
FFFFFFF0000FFFFF80007FFFFF80007FFFFC0000001FFFFFFFC0000001FFFFF8
310
00000000000000007FFFFFF0001FFFFFFFFFFE0000003FFFFFFFFFFE0000003F
310
FFFFFF000000000003FFFF0000000FFFF000FFF800000003FFFFFFF00007FFFF
310
80007FFFFF80007FFFF000000007FFFFFF000000003FFFF80000000000000000
310
7FFFFFF0001FFFFFFFFFF80000000FFFFFFFFFF80000000FFFFFFF0000000000
310
03FFFC00000003FFF000FFE000000000FFFFFFF00007FFFF80003FFFFF80007F
310
FFC000000001FFFFFC000000001FFFF800000000000000007FFFFFF0001FFFFF
310
FFFFE000000003FFFFFFFFE000000003FFFFFF000000000003FFF000000000FF
310
F000FF80000000007FFFFFF00007FFFF80003FFFFF80007FFF8000000000FFFF
310
F80000000007FFF800000000000000007FFFFFF0001FFFFFFFFFC000000001FF
310
FFFFFFC000000001FFFFFF000000000003FFC0000000007FF000FF0000000000
310
3FFFFFE00007FFFF00003FFFFF80007FFE00000000003FFFF00000000003FFF8
310
00000000000000007FFFFFF0001FFFFFFFFF8000000000FFFFFFFF8000000000
310
FFFFFF000000000003FF80000000003FF000FE00000000001FFFFFE00003FFFF
310
00003FFFFF80007FFC00000000001FFFE00000000001FFF8000001FFFE000000
310
7FFFFFF0001FFFFFFFFE00000000003FFFFFFE00000000003FFFFF0000000000
310
03FF00000000001FF000FC00000000000FFFFFE00003FFFF00001FFFFF80007F
310
F800000000001FFFC00000000000FFF8000001FFFE0000007FFFFFF0001FFFFF
310
FFFC00000000001FFFFFFC00000000001FFFFF000000000003FE00000000000F
310
F000F8000000000007FFFFE00003FFFF00001FFFFF80007FF800000000000FFF
310
800000000000FFF8000001FFFE0000007FFFFFF0001FFFFFFFF800000000000F
310
FFFFF800000000000FFFFF000000000003FC000000000007F000F80000000000
310
03FFFFC00003FFFE00001FFFFF80007FF0000000000007FF0000000000007FF8
310
000001FFFE0000007FFFFFF0001FFFFFFFF0000000000007FFFFF00000000000
310
07FFFF000000000003F8000000000003F000F0000000000003FFFFC00001FFFE
310
00001FFFFF80007FE0000000000007FE0000000000003FF8000001FFFE000000
310
7FFFFFF0001FFFFFFFF0000000000007FFFFF0000000000007FFFF0000000000
310
03F800001F800003F000E00001FFF00001FFFFC00001FFFE00000FFFFF80007F
310
E00001FFE00003FE00001FFF00003FF8000001FFFE0000007FFFFFF0001FFFFF
310
FFE000003E000003FFFFE000003E000003FFFF000000000003F00001FFF80001
310
F000E00007FFFC0001FFFFC00001FFFE00000FFFFF80007FC0000FFFFC0003FC
310
0000FFFFC0001FF8000001FFFE0000007FFFFFF0001FFFFFFFC00003FFE00001
310
FFFFC00003FFE00001FFFF0001FFFFFFFFF00007FFFE0001F000E0000FFFFF00
310
00FFFF800001FFFC00000FFFFF80007FC0001FFFFE0001FC0001FFFFE0001FF8
310
000001FFFE0000007FFFFFF0001FFFFFFF80000FFFF80000FFFF80000FFFF800
310
00FFFF0003FFFFFFFFE0000FFFFF8000F000C0003FFFFF8000FFFF800000FFFC
310
000007FFFF80007F80003FFFFF0001FC0003FFFFF0001FF8000001FFFE000000
310
7FFFFFF0001FFFFFFF80003FFFFE0000FFFF80003FFFFE0000FFFF0003FFFFFF
310
FFE0003FFFFF8000F000C0003FFFFF8000FFFF800000FFFC000007FFFF80007F
310
80007FFFFF8001F80007FFFFF8000FF8000001FFFE0000007FFFFFF0001FFFFF
310
FF00007FFFFF00007FFF00007FFFFF00007FFF0003FFFFFFFFE0003FFFFFC000
310
F000C0007FFFFFC000FFFF000000FFFC000007FFFF80007F8000FFFFFF8000F8
310
000FFFFFF8000FF8000001FFFE0000007FFFFFF0001FFFFFFF0000FFFFFF8000
310
7FFF0000FFFFFF80007FFF0003FFFFFFFFC0007FFFFFC00070008000FFFFFFC0
310
00FFFF000000FFF8000007FFFF80007F8000FFFFFF8000F8000FFFFFF8000FF8
310
000001FFFE0000007FFFFFF0001FFFFFFE0001FFFFFFC0003FFE0001FFFFFFC0
310
003FFF0003FFFFFFFFC0007FFFFFE00070008000FFFFFFC0007FFF0000007FF8
310
000003FFFF80007F0001FFFFFF8000F8000FFFFFF8000FF8000001FFFE000000
310
7FFFFFF0001FFFFFFE0001FFFFFFC0003FFE0001FFFFFFC0003FFF0003FFFFFF
310
FFC000FFFFFFE00070008000FFFFFFC0007FFF0000007FF8000003FFFF80007F
310
0001FFFFFF8000F8001FFFFFF8000FF8000001FFFE0000007FFFFFF0001FFFFF
310
FE0003FFFFFFE0003FFE0003FFFFFFE0003FFF0003FFFFFFFFC000FFFFFFE000
310
70008000FFFFFFC0007FFE0000007FF8000003FFFF80007F0001FFFFFF8000F0
310
001FFFFFF8000FF8000001FFFE0000007FFFFFF0001FFFFFFC0003FFFFFFE000
310
1FFC0003FFFFFFE0001FFF0003FFFFFFFFC000FFFFFFC00070008000FFFFFF80
310
007FFE0000007FF0000003FFFF80007F0001FFFFFF0000F0001FFFFFF8000FF8
310
000001FFFE0000007FFFFFF0001FFFFFFC0007FFFFFFF0001FFC0007FFFFFFF0
310
001FFF0003FFFFFFFFC000FFFFFFC00070008001FFFFFF0000FFFE0000003FF0
310
000001FFFF80007F0001FFFFFF0000F8001FFFFFF0000FF8000001FFFE000000
310
7FFFFFF0001FFFFFFC0007FFFFFFF0001FFC0007FFFFFFF0001FFF0003FFFFFF
310
FFC001FFFFFF80007000FFFFFFFFFE0000FFFE0008003FF0008001FFFF80007F
310
FFFFFFFFFC0000FFFFFFFFFFE0000FF8000001FFFE0000007FFFFFF0001FFFFF
310
F8000FFFFFFFF8000FF8000FFFFFFFF8000FFF0003FFFFFFFFFFFFFFFFFF0000
310
7000FFFFFFFFFC0000FFFC0008003FF0008001FFFF80007FFFFFFFFFF80001FF
310
FFFFFFFF80000FF8000001FFFE0000007FFFFFF0001FFFFFF8000FFFFFFFF800
310
0FF8000FFFFFFFF8000FFF0003FFFFFFFFFFFFFFFFFE0000F000FFFFFFFFE000
310
00FFFC000C003FE000C001FFFF80007FFFFFFFFFC00001FFFFFFFFFE00001FF8
310
000001FFFE0000007FFFFFF0001FFFFFF8000FFFFFFFF8000FF8000FFFFFFFF8
310
000FFF0003FFFFFFFFFFFFFFFFF00000F000FFFFFFFE000001FFFC000C001FE0
310
00C000FFFF80007FFFFFFFFE000001FFFFFFFFE000001FF80FFFFFFFFFFFFFC0
310
7FFFFFF0001FFFFFF8000FFFFFFFF8000FF8000FFFFFFFF8000FFF0003FFFFFF
310
FFFFFFFFFF800000F000FFFFFFC0000001FFFC001C001FE001C000FFFF80007F
310
FFFFFF80000003FFFFFFF80000001FF80FFFFFFFFFFFFFC07FFFFFF0001FFFFF
310
F8001FFFFFFFFC000FF8001FFFFFFFFC000FFF0003FFFFFFFFFFFFFFF0000001
310
F000FFFFF800000001FFF8001C001FE001C000FFFF80007FFFFFF800000003FF
310
FFFF800000003FF80FFFFFFFFFFFFFC07FFFFFF0001FFFFFF8001FFFFFFFFC00
310
0FF8001FFFFFFFFC000FFF0003FFFFFFFFFFFFFE00000001F000FFFFC0000000
310
03FFF8001E001FC001E000FFFF80007FFFFF8000000007FFFFFC000000003FF8
310
0FFFFFFFFFFFFFC07FFFFFF0001FFFFFF8001FFFFFFFFC000FF8001FFFFFFFFC
310
000FFF0003FFFFFFFFFFFFE000000003F000FFFE0000000007FFF8001E000FC0
310
01E0007FFF80007FFFFE0000000007FFFFE0000000007FF80FFFFFFFFFFFFFC0
310
7FFFFFF0001FFFFFF0001FFFFFFFFC0007F0001FFFFFFFFC0007FF0003FFFFFF
310
FFFFFF0000000003F000FFF80000000007FFF8001E000FC003E0007FFF80007F
310
FFF0000000000FFFFF8000000000FFF80FFFFFFFFFFFFFC07FFFFFF0001FFFFF
310
F0001FFFFFFFFC0007F0001FFFFFFFFC0007FF0003FFFFFFFFFFFC0000000007
310
F000FFE0000000000FFFF0003E000FC003E0007FFF80007FFFC0000000001FFF
310
FE0000000001FFF80FFFFFFFFFFFFFC07FFFFFF0001FFFFFF0001FFFFFFFFC00
310
07F0001FFFFFFFFC0007FF0003FFFFFFFFFFF0000000000FF000FFC000000000
310
1FFFF0003F000F8003F0003FFF80007FFF80000000003FFFF80000000003FFF8
310
0FFFFFFFFFFFFFC07FFFFFF0001FFFFFF0001FFFFFFFFC0007F0001FFFFFFFFC
310
0007FF0003FFFFFFFFFFE0000000001FF000FF00000000007FFFF0003F000780
310
03F0003FFF80007FFF00000000007FFFF00000000007FFF80FFFFFFFFFFFFFC0
310
7FFFFFF0001FFFFFF0001FFFFFFFFC0007F0001FFFFFFFFC0007FF0003FFFFFF
310
FFFF80000000007FF000FE0000000000FFFFE0003F00078007F0003FFF80007F
310
FE0000000001FFFFE0000000001FFFF80FFFFFFFFFFFFFC07FFFFFF0001FFFFF
310
F0001FFFFFFFFC0007F0001FFFFFFFFC0007FF0003FFFFFFFFFF0000000000FF
310
F000FC0000000003FFFFE0007F00078007F0003FFF80007FFC0000000007FFFF
310
C0000000007FFFF80FFFFFFFFFFFFFC07FFFFFF0001FFFFFF8001FFFFFFFFC00
310
0FF8001FFFFFFFFC000FFF0003FFFFFFFFFE0000000003FFF000FC000000000F
310
FFFFE0007F80070007F8001FFF80007FF8000000001FFFFF8000000001FFFFF8
310
0FFFFFFFFFFFFFC07FFFFFF0001FFFFFF8001FFFFFFFFC000FF8001FFFFFFFFC
310
000FFF0003FFFFFFFFFC000000000FFFF000F8000000007FFFFFE0007F800700
310
07F8001FFF80007FF000000000FFFFFF800000000FFFFFF80FFFFFFFFFFFFFC0
310
7FFFFFF0001FFFFFF8000FFFFFFFF8000FF8000FFFFFFFF8000FFF0003FFFFFF
310
FFFC000000007FFFF000F800000007FFFFFFC0007F8003000FF8001FFF80007F
310
F000000007FFFFFF000000007FFFFFF80FFFFFFFFFFFFFC07FFFFFF0001FFFFF
310
F8000FFFFFFFF8000FF8000FFFFFFFF8000FFF0003FFFFFFFFF80000000FFFFF
310
F000F0000000FFFFFFFFC000FF8003000FF8001FFF80007FE0000000FFFFFFFF
310
0000000FFFFFFFF8000001FFFE0000007FFFFFF0001FFFFFF8000FFFFFFFF800
310
0FF8000FFFFFFFF8000FFF0003FFFFFFFFF8000000FFFFFFF000F000000FFFFF
310
FFFFC000FFC002000FF8000FFF80007FE000001FFFFFFFFE000001FFFFFFFFF8
310
000001FFFE0000007FFFFFF0001FFFFFF8000FFFFFFFF8000FF8000FFFFFFFF8
310
000FFF0003FFFFFFFFF000001FFFFFFFF000E00000FFFFFFFFFFC000FFC00200
310
0FFC000FFF80007FE00001FFFFFFFFFE00001FFFFFFFFFF8000001FFFE000000
310
7FFFFFF0001FFFFFFC000FFFFFFFF8001FFC000FFFFFFFF8001FFF0003FFFFFF
310
FFF00001FFFFFFFFF000E00007FFFFFFFFFF8000FFC000001FFC000FFF80007F
310
C0000FFFFFFFFFFE0000FFFFFFFFFFF8000001FFFE0000007FFFFFF0001FFFFF
310
FC0007FFFFFFF0001FFC0007FFFFFFF0001FFF0003FFFFFFFFF00007FFFFFFFF
310
F000E0001FFFFFFFFFFF8000FFC000001FFC000FFF80007FC0003FFFFFFFFFFE
310
0001FFFFFFFFFFF8000001FFFE0000007FFFFFF0001FFFFFFC0007FFFFFFF000
310
1FFC0007FFFFFFF0001FFF0003FFFFFFFFF0001FFFFFFFFFF000E0003FFFFF00
310
03FF8001FFE000001FFC0007FF80007FC0007FFFFF0007FC0003FFFFF0003FF8
310
000001FFFE0000007FFFFFF0001FFFFFFC0003FFFFFFE0001FFC0003FFFFFFE0
310
001FFF0003FFFFFFFFF0003FFFFFFFFFF000E0003FFFFF0001FF8001FFE00000
310
1FFE0007FF80007FC0007FFFFE0003FC0007FFFFE0003FF8000001FFFE000000
310
7FFFFFF0001FFFFFFE0003FFFFFFE0003FFE0003FFFFFFE0003FFF0003FFFFFF
310
FFF0003FFFFF8001F000E0003FFFFF0001FF0001FFE000001FFE0007FF80007F
310
C0007FFFFE0003FC0007FFFFE0003FF8000001FFFE0000007FFFFFF0001FFFFF
310
FE0001FFFFFFC0003FFE0001FFFFFFC0003FFF0003FFFFFFFFF0003FFFFF0001
310
F000E0003FFFFF0003FF0001FFE000003FFE0007FF80007FC0007FFFFE0003FC
310
0007FFFFE0003FF8000001FFFE0000007FFFFFF0001FFFFFFF0001FFFFFFC000
310
7FFF0001FFFFFFC0007FFF0003FFFFFFFFF0003FFFFF0001F000E0003FFFFE00
310
03FF0003FFF000003FFE0003FF80007FC0007FFFFC0003FE0007FFFFE0003FF8
310
000001FFFE0000007FFFFFF0001FFFFFFF0000FFFFFF80007FFF0000FFFFFF80
310
007FFF0003FFFFFFFFF0003FFFFF0001F000E0003FFFFE0003FF0003FFF00000
310
3FFF0003FF80007FC0007FFFFC0007FE0007FFFFC0003FF8000001FFFE000000
310
7FFFFFF0001FFFFFFF80007FFFFF0000FFFF80007FFFFF0000FFFF0003FFFFFF
310
FFF0003FFFFF0003F000E0003FFFFC0003FE0003FFF000003FFF0003FF80007F
310
E0003FFFF80007FE0003FFFFC0007FF8000001FFFE0000007FFFFFF0001FFFFF
310
FF80003FFFFE0000FFFF80003FFFFE0000FFFF0003FFFFFFFFF0001FFFFE0003
310
F000F0001FFFF80003FE0003FFF000007FFF0001FF80007FE0003FFFF00007FE
310
0001FFFF80007FF8000001FFFE0000007FFFFFF0001FFFFFFFC0000FFFF80001
310
FFFFC0000FFFF80001FFFF0003FFFFFFFFF0001FFFFC0003F000F0000FFFF000
310
07FE0007FFF800007FFF0001FF80007FE0001FFFE00007FF0000FFFE00007FF8
310
000001FFFE0000007FFFFFF0001FFFFFFFC00003FFE00001FFFFC00003FFE000
310
01FFFF0003FFFFFFFFF8000FFFF80003F000F00003FFC00007FC0007FFF80000
310
7FFF8001FF80007FF00007FF80000FFF00007FF80000FFF8000001FFFE000000
310
7F80000000000001FFE000003E000003FFFFE000003E000003FFFF0003FFFFFF
310
FFF80003FFE00007F000F800000000000FFC0007FFF800007FFF8001FF80007F
310
F000000000000FFF000000000000FFF8000001FFFE0000007F80000000000001
310
FFF0000000000007FFFFF0000000000007FFFF0003FFFFFFFFFC00007E000007
310
F000F800000000000FFC0007FFF80000FFFF8000FF80007FF800000000001FFF
310
800000000001FFF8000001FFFE0000007F80000000000001FFF800000000000F
310
FFFFF800000000000FFFFF0003FFFFFFFFFC00000000000FF000FC0000000000
310
1FFC0007FFFC0000FFFF8000FF80007FF800000000003FFFC00000000001FFF8
310
000001FFFE0000007F80000000000001FFF800000000000FFFFFF80000000000
310
0FFFFF0003FFFFFFFFFE00000000001FF000FE00000000003FF8000FFFFC0000
310
FFFF8000FF80007FFC00000000003FFFC00000000003FFF8000001FFFE000000
310
7F80000000000001FFFC00000000001FFFFFFC00000000001FFFFF0003FFFFFF
310
FFFF00000000001FF000FF00000000003FF8000FFFFC0000FFFFC000FF80007F
310
FE00000000007FFFE00000000007FFF8000001FFFE0000007F80000000000001
310
FFFE00000000003FFFFFFE00000000003FFFFF0003FFFFFFFFFF80000000003F
310
F000FF80000000007FF8000FFFFC0001FFFFC0007F80007FFF0000000000FFFF
310
F0000000000FFFF800000000000000007F80000000000001FFFF8000000000FF
310
FFFFFF8000000000FFFFFF0003FFFFFFFFFFC0000000007FF000FFC000000000
310
FFF8000FFFFE0001FFFFC0007F80007FFF8000000001FFFFF8000000001FFFF8
310
00000000000000007F80000000000001FFFFC000000001FFFFFFFFC000000001
310
FFFFFF0003FFFFFFFFFFE000000000FFF000FFE000000003FFF0001FFFFE0001
310
FFFFC0007F80007FFFC000000007FFFFFE000000003FFFF80000000000000000
310
7F80000000000001FFFFE000000003FFFFFFFFE000000003FFFFFF0003FFFFFF
310
FFFFF000000003FFF000FFF80000000FFFF0001FFFFE0001FFFFE0007F80007F
310
FFF00000000FFFFFFF00000000FFFFF800000000000000007F80000000000001
310
FFFFF80000000FFFFFFFFFF80000000FFFFFFF0003FFFFFFFFFFFC0000000FFF
310
F000FFFE0000003FFFF0001FFFFE0003FFFFE0003F80007FFFFC0000003FFFFF
310
FFC0000003FFFFF800000000000000007F80000000000001FFFFFE0000003FFF
310
FFFFFFFE0000003FFFFFFF0003FFFFFFFFFFFF0000003FFFF000FFFF800000FF
310
FFF0001FFFFF0003FFFFE0003F80007FFFFF000001FFFFFFFFF800001FFFFFF8
310
00000000000000007F80000000000001FFFFFFC00001FFFFFFFFFFFFC00001FF
310
FFFFFF0003FFFFFFFFFFFFC00000FFFFF000FFFFF8000FFFFFFFFFFFFFFFFFFF
310
FFFFFFFFFFFFFFFFFFFFF0001FFFFFFFFFFF0000FFFFFFF80000000000000000
310
7FFFFFFFFFFFFFFFFFFFFFFC001FFFFFFFFFFFFFFC001FFFFFFFFFFFFFFFFFFF
310
FFFFFFFC001FFFFFF000FFFFFFFFFFFFFFFFFFFFFFFFFFFFFFFFFFFFFFFFFFFF
310
FFFFFFFFFFFFFFFFFFFFFFFFFFFFFFFFFFFFFFFFFFFFFFFFFFFFFFFFFFFFFFFF
310
FFFFFFFFFFFFFFFFFFFFFFFFFFFFFFFFFFFFFFFFFFFFFFFFFFFFFFFFFFFFFFFF
310
F000FFFFFFFFFFFFFFFFFFFFFFFFFFFFFFFFFFFFFFFFFFFFFFFFFFFFFFFFFFFF
310
FFFFFFFFFFFFFFFFFFFFFFFFFFFFFFFFFFFFFFFFFFFFFFFFFFFFFFFFFFFFFFFF
310
FFFFFFFFFFFFFFFFFFFFFFFFFFFFFFFFFFFFFFFFFFFFFFFFF000FFFFFFFFFFFF
310
FFFFFFFFFFFFFFFFFFFFFFFFFFFFFFFFFFFFFFFFFFFFFFFFFFFFFFFFFFFFFFFF
310
FFFFFFFFFFFFFFFFFFFFFFFFFFFFFFFFFFFFFFFFFFFFFFFFFFFFFFFFFFFFFFFF
310
FFFFFFFFFFFFFFFFFFFFFFFFFFFFFFFFF000FFFFFFFFFFFFFFFFFFFFFFFFFFFF
310
FFFFFFFFFFFFFFFFFFFFFFFFFFFFFFFFFFFFFFFFFFFFFFFFFFFFFFFFFFFFFFFF
310
FFFFFFFFFFFFFFFFFFFFFFFFFFFFFFFFFFFFFFFFFFFFFFFFFFFFFFFFFFFFFFFF
310
FFFFFFFFFFFFFFFFF000FFFFFFFFFFFFFFFFFFFFFFFFFFFFFFFFFFFFFFFFFFFF
310
FFFFFFFFFFFFFFFFFFFFFFFFFFFFFFFFFFFFFFFFFFFFFFFFFFFFFFFFFFFFFFFF
310
FFFFFFFFFFFFFFFFFFFFFFFFFFFFFFFFFFFFFFFFFFFFFFFFFFFFFFFFFFFFFFFF
310
F000FFFFFFFFFFFFFFFFFFFFFFFFFFFFFFFFFFFFFFFFFFFFFFFFFFFFFFFFFFFF
310
FFFFFFFFFFFFFFFFFFFFFFFFFFFFFFFFFFFFFFFFFFFFFFFFFFFFFFFFFFFFFFFF
310
FFFFFFFFFFFFFFFFFFFFFFFFFFFFFFFFFFFFFFFFFFFFFFFFF000FFFFFFFFFFFF
310
FFFFFFFFFFFFFFFFFFFFFFFFFFFFFFFFFFFFFFFFFFFFFFFFFFFFFFFFFFFFFFFF
310
FFFFFFFFFFFFFFFFFFFFFFFFFFFFFFFFFFFFFFFFFFFFFFFFFFFFFFFFFFFFFFFF
310
FFFFFFFFFFFFFFFFFFFFFFFFFFFFFFFFF000FFFFFFFFFFFFFFFFFFFFFFFFFFFF
310
FFFFFFFFFFFFFFFFFFFFFFFFFFFFFFFFFFFFFFFFFFFFFFFFFFFFFFFFFFFFFFFF
310
FFFFFFFFFFFFFFFFFFFFFFFFFFFFFFFFFFFFFFFFFFFFFFFFFFFFFFFFFFFFFFFF
310
FFFFFFFFFFFFFFFFF000FFFFFFFFFFFFFFFFFFFFFFFFFFFFFFFFFFFFFFFFFFFF
310
FFFFFFFFFFFFFFFFFFFFFFFFFFFFFFFFFFFFFFFFFFFFFFFFFFFFFFFFFFFFFFFF
310
FFFFFFFFFFFFFFFFFFFFFFFFFFFFFFFFFFFFFFFFFFFFFFFFFFFFFFFFFFFFFFFF
310
F000FFFFFFFFFFFFFFFFFFFFFFFFFFFFFFFFFFFFFFFFFFFFFFFFFFFFFFFFFFFF
310
FFFFFFFFFFFFFFFFFFFFFFFFFFFFFFFFFFFFFFFFFFFFFFFFFFFFFFFFFFFFFFFF
310
FFFFFFFFFFFFFFFFFFFFFFFFFFFFFFFFFFFFFFFFFFFFFFFFF000FFFFFFFFFFFF
310
FFFFFFFFFFFFFFFFFFFFFFFFFFFFFFFFFFFFFFFFFFFFFFFFFFFFFFFFFFFFFFFF
310
FFFFFFFFFFFFFFFFFFFFFFFFFFFFFFFFFFFFFFFFFFFFFFFFFFFFFFFFFFFFFFFF
310
FFFFFFFFFFFFFFFFFFFFFFFFFFFFFFFFF000FFFFFFFFFFFFFFFFFFFFFFFFFFFF
310
FFFFFFFFFFFFFFFFFFFFFFFFFFFFFFFFFFFFFFFFFFFFFFFFFFFFFFFFFFFFFFFF
310
FFFFFFFFFFFFFFFFFFFFFFFFFFFFFFFFFFFFFFFFFFFFFFFFFFFFFFFFFFFFFFFF
310
FFFFFFFFFFFFFFFFF000FFFFFFFFFFFFFFFFFFFFFFFFFFFFFFFFFFFFFFFFFFFF
310
FFFFFFFFFFFFFFFFFFFFFFFFFFFFFFFFFFFFFFFFFFFFFFFFFFFFFFFFFFFFFFFF
310
FFFFFFFFFFFFFFFFFFFFFFFFFFFFFFFFFFFFFFFFFFFFFFFFFFFFFFFFFFFFFFFF
310
F000FFFFFFFFFFFFFFFFFFFFFFFFFFFFFFFFFFFFFFFFFFFFFFFFFFFFFFFFFFFF
310
FFFFFFFFFFFFFFFFFFFFFFFFFFFFFFFFFFFFFFFFFFFFFFFFFFFFFFFFFFFFFFFF
310
FFFFFFFFFFFFFFFFFFFFFFFFFFFFFFFFFFFFFFFFFFFFFFFFF000FFFFFFFFFFFF
310
FFFFFFFFFFFFFFFFFFFFFFFFFFFFFFFFFFFFFFFFFFFFFFFFFFFFFFFFFFFFFFFF
310
FFFFFFFFFFFFFFFFFFFFFFFFFFFFFFFFFFFFFFFFFFFFFFFFFFFFFFFFFFFFFFFF
310
FFFFFFFFFFFFFFFFFFFFFFFFFFFFFFFFF000FFFFFFFFFFFFFFFFFFFFFFFFFFFF
310
FFFFFFFFFFFFFFFFFFFFFFFFFFFFFFFFFFFFFFFFFFFFFFFFFFFFFFFFFFFFFFFF
310
FFFFFFFFFFFFFFFFFFFFFFFFFFFFFFFFFFFFFFFFFFFFFFFFFFFFFFFFFFFFFFFF
310
FFFFFFFFFFFFFFFFF000FFFFFFFFFFFFFFFFFFFFFFFFFFFFFFFFFFFFFFFFFFFF
310
FFFFFFFFFFFFFFFFFFFFFFFFFFFFFFFFFFFFFFFFFFFFFFFFFFFFFFFFFFFFFFFF
310
FFFFFFFFFFFFFFFFFFFFFFFFFFFFFFFFFFFFFFFFFFFFFFFFFFFFFFFFFFFFFFFF
310
F000FFFFFFFFFFFFFFFFFFFFFFFFFFFFFFFFFFFFFFFFFFFFFFFFFFFFFFFFFFFF
310
FFFFFFFFFFFFFFFFFFFFFFFFFFFFFFFFFFFFFFFFFFFFFFFFFFFFFFFFFFFFFFFF
310
FFFFFFFFFFFFFFFFFFFFFFFFFFFFFFFFFFFFFFFFFFFFFFFFF000FFFFFFFFFFFF
310
FFFFFFFFFFFFFFFFFFFFFFFFFFFFFFFFFFFFFFFFFFFFFFFFFFFFFFFFFFFFFFFF
310
FFFFFFFFFFFFFFFFFFFFFFFFFFFFFFFFFFFFFFFFFFFFFFFFFFFFFFFFFFFFFFFF
310
FFFFFFFFFFFFFFFFFFFFFFFFFFFFFFFFF000FFFFFFFFFFFFFFFFFFFFFFFFFFFF
310
FFFFFFFFFFFFFFFFFFFFFFFFFFFFFFFFFFFFFFFFFFFFFFFFFFFFFFFFFFFFFFFF
310
FFFFFFFFFFFFFFFFFFFFFFFFFFFFFFFFFFFFFFFFFFFFFFFFFFFFFFFFFFFFFFFF
310
FFFFFFFFFFFFFFFFF000FFFFFFFFFFFFFFFFFFFFFFFFFFFFFFFFFFFFFFFFFFFF
310
FFFFFFFFFFFFFFFFFFFFFFFFFFFFFFFFFFFFFFFFFFFFFFFFFFFFFFFFFFFFFFFF
310
FFFFFFFFFFFFFFFFFFFFFFFFFFFFFFFFFFFFFFFFFFFFFFFFFFFFFFFFFFFFFFFF
310
F000FFFFFFFFFFFFFFFFFFFFFFFFFFFFFFFFFFFFFFFFFFFFFFFFFFFFFFFFFFFF
310
FFFFFFFFFFFFFFFFFFFFFFFFFFFFFFFFFFFFFFFFFFFFFFFFFFFFFFFFFFFFFFFF
310
FFFFFFFFFFFFFFFFFFFFFFFFFFFFFFFFFFFFFFFFFFFFFFFFF000FFFFFFFFFFFF
310
FFFFFFFFFFFFFFFFFFFFFFFFFFFFFFFFFFFFFFFFFFFFFFFFFFFFFFFFFFFFFFFF
310
FFFFFFFFFFFFFFFFFFFFFFFFFFFFFFFFFFFFFFFFFFFFFFFFFFFFFFFFFFFFFFFF
310
FFFFFFFFFFFFFFFFFFFFFFFFFFFFFFFFF0000000000000000000000000000000
310
0000000000000000000000000000000000000000000000000000000000000000
310
0000000000000000000000000000000000000000000000000000000000000000
310
0000000000000000000000000000000000000000000000000000000000000000
310
0000000000000000000000000000000000000000000000000000000000000000
310
0000000000000000000000000000000000000000000000000000000000000000
310
0000000000000000000000000000000000000000000000000000000000000000
310
0000000000000000000000000000000000000000000000000000000000000000
310
0000000000000000000000000000000000000000000000000000000000000000
310
0000000000000000000000000000000000000000000000000000000000000000
310
0000000000000000000000000000000000000000000000000000000000000000
310
0000000000000000000000000000000000000000000000000000000000000000
310
0000000000000000000000000000000000000000000000000000000000000000
310
0000000000000000000000000000000000000000000000000000000000000000
310
0000000000000000000000000000000000000000000000000000000000000000
310
0000000000000000000000000000000000000000000000000000000000000000
  1
OLE
  0
ENDSEC
  0
SECTION
  2
OBJECTS
  0
DICTIONARY
  5
C
330
0
100
AcDbDictionary
281
     1
  3
ACAD_GROUP
350
D
  3
ACAD_LAYOUT
350
1A
  3
ACAD_MLINESTYLE
350
17
  3
ACAD_PLOTSETTINGS
350
19
  3
ACAD_PLOTSTYLENAME
350
E
  3
ACAD_SCALELIST
350
47
  0
DICTIONARY
  5
D
102
{ACAD_REACTORS
330
C
102
}
330
C
100
AcDbDictionary
281
     1
  0
DICTIONARY
  5
1A
102
{ACAD_REACTORS
330
C
102
}
330
C
100
AcDbDictionary
281
     1
  3
Layout1
350
1E
  3
Layout2
350
26
  3
Model
350
22
  0
DICTIONARY
  5
17
102
{ACAD_REACTORS
330
C
102
}
330
C
100
AcDbDictionary
281
     1
  3
Standard
350
18
  0
DICTIONARY
  5
19
102
{ACAD_REACTORS
330
C
102
}
330
C
100
AcDbDictionary
281
     1
  0
ACDBDICTIONARYWDFLT
  5
E
102
{ACAD_REACTORS
330
C
102
}
330
C
100
AcDbDictionary
281
     1
  3
Normal
350
F
100
AcDbDictionaryWithDefault
340
F
  0
DICTIONARY
  5
47
102
{ACAD_REACTORS
330
C
102
}
330
C
100
AcDbDictionary
281
     1
  3
A0
350
48
  3
A1
350
49
  3
A2
350
4A
  3
A3
350
4B
  3
A4
350
4C
  3
A5
350
4D
  3
A6
350
4E
  3
A7
350
4F
  3
A8
350
50
  3
A9
350
51
  3
B0
350
52
  3
B1
350
53
  3
B2
350
54
  3
B3
350
55
  3
B4
350
56
  3
B5
350
57
  3
B6
350
58
  3
B7
350
59
  3
B8
350
5A
  3
B9
350
5B
  3
C0
350
5C
  3
C1
350
5D
  3
C2
350
5E
  3
C3
350
5F
  3
C4
350
60
  3
C5
350
61
  3
C6
350
62
  3
C7
350
63
  3
C8
350
64
  3
C9
350
65
  3
D0
350
66
  3
D1
350
67
  3
D2
350
68
  0
LAYOUT
  5
1E
102
{ACAD_REACTORS
330
1A
102
}
330
1A
100
AcDbPlotSettings
  1

  2
none_device
  4

  6

 40
0.0
 41
0.0
 42
0.0
 43
0.0
 44
0.0
 45
0.0
 46
0.0
 47
0.0
 48
0.0
 49
0.0
140
0.0
141
0.0
142
1.0
143
1.0
 70
   688
 72
     1
 73
     0
 74
     5
  7

 75
    16
147
1.0
148
0.0
149
0.0
100
AcDbLayout
  1
Layout1
 70
     1
 71
     1
 10
0.0
 20
0.0
 11
420.0
 21
297.0
 12
0.0
 22
0.0
 32
0.0
 14
1.0000000000E+20
 24
1.0000000000E+20
 34
1.0000000000E+20
 15
-1.0000000000E+20
 25
-1.0000000000E+20
 35
-1.0000000000E+20
146
0.0
 13
0.0
 23
0.0
 33
0.0
 16
1.0
 26
0.0
 36
0.0
 17
0.0
 27
1.0
 37
0.0
 76
     0
330
1B
  0
LAYOUT
  5
26
102
{ACAD_REACTORS
330
1A
102
}
330
1A
100
AcDbPlotSettings
  1

  2
none_device
  4

  6

 40
0.0
 41
0.0
 42
0.0
 43
0.0
 44
0.0
 45
0.0
 46
0.0
 47
0.0
 48
0.0
 49
0.0
140
0.0
141
0.0
142
1.0
143
1.0
 70
   688
 72
     1
 73
     0
 74
     5
  7

 75
    16
147
1.0
148
0.0
149
0.0
100
AcDbLayout
  1
Layout2
 70
     1
 71
     2
 10
0.0
 20
0.0
 11
0.0
 21
0.0
 12
0.0
 22
0.0
 32
0.0
 14
0.0
 24
0.0
 34
0.0
 15
0.0
 25
0.0
 35
0.0
146
0.0
 13
0.0
 23
0.0
 33
0.0
 16
1.0
 26
0.0
 36
0.0
 17
0.0
 27
1.0
 37
0.0
 76
     0
330
23
  0
LAYOUT
  5
22
102
{ACAD_REACTORS
330
1A
102
}
330
1A
100
AcDbPlotSettings
  1

  2
none_device
  4
Letter_(8.50_x_11.00_Inches)
  6

 40
6.35
 41
6.35
 42
6.35000508
 43
6.35000508
 44
215.9
 45
279.4
 46
0.0
 47
0.0
 48
0.0
 49
0.0
140
0.0
141
0.0
142
1.0
143
1.0
 70
  1712
 72
     1
 73
     0
 74
     0
  7

 75
     0
147
1.0
148
0.0
149
0.0
100
AcDbLayout
  1
Model
 70
     1
 71
     0
 10
0.0
 20
0.0
 11
297.0
 21
210.0
 12
0.0
 22
0.0
 32
0.0
 14
0.0
 24
0.0
 34
0.0
 15
297.0
 25
210.0
 35
0.0
146
0.0
 13
0.0
 23
0.0
 33
0.0
 16
1.0
 26
0.0
 36
0.0
 17
0.0
 27
1.0
 37
0.0
 76
     0
330
1F
331
29
  0
MLINESTYLE
  5
18
102
{ACAD_REACTORS
330
17
102
}
330
17
100
AcDbMlineStyle
  2
Standard
 70
     0
  3

 62
   256
 51
90.0
 52
90.0
 71
     2
 49
0.5
 62
   256
  6
BYLAYER
 49
-0.5
 62
   256
  6
BYLAYER
  0
ACDBPLACEHOLDER
  5
F
102
{ACAD_REACTORS
330
E
102
}
330
E
  0
SCALE
  5
48
102
{ACAD_REACTORS
330
47
102
}
330
47
100
AcDbScale
 70
     0
300
1:1
140
1.0
141
1.0
290
     1
  0
SCALE
  5
49
102
{ACAD_REACTORS
330
47
102
}
330
47
100
AcDbScale
 70
     0
300
1:2
140
1.0
141
2.0
290
     0
  0
SCALE
  5
4A
102
{ACAD_REACTORS
330
47
102
}
330
47
100
AcDbScale
 70
     0
300
1:4
140
1.0
141
4.0
290
     0
  0
SCALE
  5
4B
102
{ACAD_REACTORS
330
47
102
}
330
47
100
AcDbScale
 70
     0
300
1:5
140
1.0
141
5.0
290
     0
  0
SCALE
  5
4C
102
{ACAD_REACTORS
330
47
102
}
330
47
100
AcDbScale
 70
     0
300
1:8
140
1.0
141
8.0
290
     0
  0
SCALE
  5
4D
102
{ACAD_REACTORS
330
47
102
}
330
47
100
AcDbScale
 70
     0
300
1:10
140
1.0
141
10.0
290
     0
  0
SCALE
  5
4E
102
{ACAD_REACTORS
330
47
102
}
330
47
100
AcDbScale
 70
     0
300
1:16
140
1.0
141
16.0
290
     0
  0
SCALE
  5
4F
102
{ACAD_REACTORS
330
47
102
}
330
47
100
AcDbScale
 70
     0
300
1:20
140
1.0
141
20.0
290
     0
  0
SCALE
  5
50
102
{ACAD_REACTORS
330
47
102
}
330
47
100
AcDbScale
 70
     0
300
1:30
140
1.0
141
30.0
290
     0
  0
SCALE
  5
51
102
{ACAD_REACTORS
330
47
102
}
330
47
100
AcDbScale
 70
     0
300
1:40
140
1.0
141
40.0
290
     0
  0
SCALE
  5
52
102
{ACAD_REACTORS
330
47
102
}
330
47
100
AcDbScale
 70
     0
300
1:50
140
1.0
141
50.0
290
     0
  0
SCALE
  5
53
102
{ACAD_REACTORS
330
47
102
}
330
47
100
AcDbScale
 70
     0
300
1:100
140
1.0
141
100.0
290
     0
  0
SCALE
  5
54
102
{ACAD_REACTORS
330
47
102
}
330
47
100
AcDbScale
 70
     0
300
2:1
140
2.0
141
1.0
290
     0
  0
SCALE
  5
55
102
{ACAD_REACTORS
330
47
102
}
330
47
100
AcDbScale
 70
     0
300
4:1
140
4.0
141
1.0
290
     0
  0
SCALE
  5
56
102
{ACAD_REACTORS
330
47
102
}
330
47
100
AcDbScale
 70
     0
300
8:1
140
8.0
141
1.0
290
     0
  0
SCALE
  5
57
102
{ACAD_REACTORS
330
47
102
}
330
47
100
AcDbScale
 70
     0
300
10:1
140
10.0
141
1.0
290
     0
  0
SCALE
  5
58
102
{ACAD_REACTORS
330
47
102
}
330
47
100
AcDbScale
 70
     0
300
100:1
140
100.0
141
1.0
290
     0
  0
SCALE
  5
59
102
{ACAD_REACTORS
330
47
102
}
330
47
100
AcDbScale
 70
     0
300
1/128" = 1'-0"
140
0.0078125
141
12.0
290
     0
  0
SCALE
  5
5A
102
{ACAD_REACTORS
330
47
102
}
330
47
100
AcDbScale
 70
     0
300
1/64" = 1'-0"
140
0.015625
141
12.0
290
     0
  0
SCALE
  5
5B
102
{ACAD_REACTORS
330
47
102
}
330
47
100
AcDbScale
 70
     0
300
1/32" = 1'-0"
140
0.03125
141
12.0
290
     0
  0
SCALE
  5
5C
102
{ACAD_REACTORS
330
47
102
}
330
47
100
AcDbScale
 70
     0
300
1/16" = 1'-0"
140
0.0625
141
12.0
290
     0
  0
SCALE
  5
5D
102
{ACAD_REACTORS
330
47
102
}
330
47
100
AcDbScale
 70
     0
300
3/32" = 1'-0"
140
0.09375
141
12.0
290
     0
  0
SCALE
  5
5E
102
{ACAD_REACTORS
330
47
102
}
330
47
100
AcDbScale
 70
     0
300
1/8" = 1'-0"
140
0.125
141
12.0
290
     0
  0
SCALE
  5
5F
102
{ACAD_REACTORS
330
47
102
}
330
47
100
AcDbScale
 70
     0
300
3/16" = 1'-0"
140
0.1875
141
12.0
290
     0
  0
SCALE
  5
60
102
{ACAD_REACTORS
330
47
102
}
330
47
100
AcDbScale
 70
     0
300
1/4" = 1'-0"
140
0.25
141
12.0
290
     0
  0
SCALE
  5
61
102
{ACAD_REACTORS
330
47
102
}
330
47
100
AcDbScale
 70
     0
300
3/8" = 1'-0"
140
0.375
141
12.0
290
     0
  0
SCALE
  5
62
102
{ACAD_REACTORS
330
47
102
}
330
47
100
AcDbScale
 70
     0
300
1/2" = 1'-0"
140
0.5
141
12.0
290
     0
  0
SCALE
  5
63
102
{ACAD_REACTORS
330
47
102
}
330
47
100
AcDbScale
 70
     0
300
3/4" = 1'-0"
140
0.75
141
12.0
290
     0
  0
SCALE
  5
64
102
{ACAD_REACTORS
330
47
102
}
330
47
100
AcDbScale
 70
     0
300
1" = 1'-0"
140
1.0
141
12.0
290
     0
  0
SCALE
  5
65
102
{ACAD_REACTORS
330
47
102
}
330
47
100
AcDbScale
 70
     0
300
1-1/2" = 1'-0"
140
1.5
141
12.0
290
     0
  0
SCALE
  5
66
102
{ACAD_REACTORS
330
47
102
}
330
47
100
AcDbScale
 70
     0
300
3" = 1'-0"
140
3.0
141
12.0
290
     0
  0
SCALE
  5
67
102
{ACAD_REACTORS
330
47
102
}
330
47
100
AcDbScale
 70
     0
300
6" = 1'-0"
140
6.0
141
12.0
290
     0
  0
SCALE
  5
68
102
{ACAD_REACTORS
330
47
102
}
330
47
100
AcDbScale
 70
     0
300
1'-0" = 1'-0"
140
12.0
141
12.0
290
     0
  0
ENDSEC
  0
EOF
