  0
SECTION
  2
HEADER
  9
$ACADVER
  1
AC1015
  9
$ACADMAINTVER
 70
     6
  9
$DWGCODEPAGE
  3
ANSI_1252
  9
$INSBASE
 10
0.0
 20
0.0
 30
0.0
  9
$EXTMIN
 10
0.0
 20
0.0
 30
0.0
  9
$EXTMAX
 10
297.0
 20
210.0
 30
0.0
  9
$LIMMIN
 10
0.0
 20
0.0
  9
$LIMMAX
 10
297.0
 20
210.0
  9
$ORTHOMODE
 70
     0
  9
$REGENMODE
 70
     1
  9
$FILLMODE
 70
     1
  9
$QTEXTMODE
 70
     0
  9
$MIRRTEXT
 70
     1
  9
$LTSCALE
 40
1.0
  9
$ATTMODE
 70
     1
  9
$TEXTSIZE
 40
2.0
  9
$TRACEWID
 40
1.0
  9
$TEXTSTYLE
  7
Standard
  9
$CLAYER
  8
0
  9
$CELTYPE
  6
ByLayer
  9
$CECOLOR
 62
   256
  9
$CELTSCALE
 40
1.0
  9
$DISPSILH
 70
     0
  9
$DIMSCALE
 40
1.0
  9
$DIMASZ
 40
3.0
  9
$DIMEXO
 40
0.0
  9
$DIMDLI
 40
3.75
  9
$DIMRND
 40
0.0
  9
$DIMDLE
 40
0.0
  9
$DIMEXE
 40
1.0
  9
$DIMTP
 40
0.0
  9
$DIMTM
 40
0.0
  9
$DIMTXT
 40
2.0
  9
$DIMCEN
 40
2.5
  9
$DIMTSZ
 40
0.0
  9
$DIMTOL
 70
     0
  9
$DIMLIM
 70
     0
  9
$DIMTIH
 70
     1
  9
$DIMTOH
 70
     1
  9
$DIMSE1
 70
     0
  9
$DIMSE2
 70
     0
  9
$DIMTAD
 70
     1
  9
$DIMZIN
 70
     0
  9
$DIMBLK
  1

  9
$DIMASO
 70
     1
  9
$DIMSHO
 70
     1
  9
$DIMPOST
  1

  9
$DIMAPOST
  1

  9
$DIMALT
 70
     0
  9
$DIMALTD
 70
     3
  9
$DIMALTF
 40
0.0393700787
  9
$DIMLFAC
 40
1.0
  9
$DIMTOFL
 70
     1
  9
$DIMTVP
 40
0.0
  9
$DIMTIX
 70
     0
  9
$DIMSOXD
 70
     0
  9
$DIMSAH
 70
     0
  9
$DIMBLK1
  1

  9
$DIMBLK2
  1

  9
$DIMSTYLE
  2
ISO-25
  9
$DIMCLRD
 70
     0
  9
$DIMCLRE
 70
     0
  9
$DIMCLRT
 70
     0
  9
$DIMTFAC
 40
1.0
  9
$DIMGAP
 40
1.524
  9
$DIMJUST
 70
     0
  9
$DIMSD1
 70
     0
  9
$DIMSD2
 70
     0
  9
$DIMTOLJ
 70
     0
  9
$DIMTZIN
 70
     0
  9
$DIMALTZ
 70
     0
  9
$DIMALTTZ
 70
     0
  9
$DIMUPT
 70
     0
  9
$DIMDEC
 70
     2
  9
$DIMTDEC
 70
     3
  9
$DIMALTU
 70
     2
  9
$DIMALTTD
 70
     3
  9
$DIMTXSTY
  7
Standard
  9
$DIMAUNIT
 70
     0
  9
$DIMADEC
 70
     2
  9
$DIMALTRND
 40
0.0
  9
$DIMAZIN
 70
     0
  9
$DIMDSEP
 70
    44
  9
$DIMATFIT
 70
     3
  9
$DIMFRAC
 70
     0
  9
$DIMLDRBLK
  1

  9
$DIMLUNIT
 70
     2
  9
$DIMLWD
 70
    -2
  9
$DIMLWE
 70
    -2
  9
$DIMTMOVE
 70
     0
  9
$LUNITS
 70
     2
  9
$LUPREC
 70
     2
  9
$SKETCHINC
 40
1.0
  9
$FILLETRAD
 40
10.0
  9
$AUNITS
 70
     0
  9
$AUPREC
 70
     2
  9
$MENU
  1
.
  9
$ELEVATION
 40
0.0
  9
$PELEVATION
 40
0.0
  9
$THICKNESS
 40
0.0
  9
$LIMCHECK
 70
     0
  9
$CHAMFERA
 40
0.0
  9
$CHAMFERB
 40
0.0
  9
$CHAMFERC
 40
0.0
  9
$CHAMFERD
 40
0.0
  9
$SKPOLY
 70
     0
  9
$TDCREATE
 40
2458135.327230764
  9
$TDUCREATE
 40
2458135.285564097
  9
$TDUPDATE
 40
2458135.327232882
  9
$TDUUPDATE
 40
2458135.285566215
  9
$TDINDWG
 40
0.0000000116
  9
$TDUSRTIMER
 40
0.0000000116
  9
$USRTIMER
 70
     1
  9
$ANGBASE
 50
0.0
  9
$ANGDIR
 70
     0
  9
$PDMODE
 70
     0
  9
$PDSIZE
 40
-1.0
  9
$PLINEWID
 40
0.0
  9
$SPLFRAME
 70
     0
  9
$SPLINETYPE
 70
     6
  9
$SPLINESEGS
 70
     8
  9
$HANDSEED
  5
2A4
  9
$SURFTAB1
 70
     6
  9
$SURFTAB2
 70
     6
  9
$SURFTYPE
 70
     6
  9
$SURFU
 70
     6
  9
$SURFV
 70
     6
  9
$UCSBASE
  2

  9
$UCSNAME
  2

  9
$UCSORG
 10
0.0
 20
0.0
 30
0.0
  9
$UCSXDIR
 10
1.0
 20
0.0
 30
0.0
  9
$UCSYDIR
 10
0.0
 20
1.0
 30
0.0
  9
$UCSORTHOREF
  2

  9
$UCSORTHOVIEW
 70
     0
  9
$UCSORGTOP
 10
0.0
 20
0.0
 30
0.0
  9
$UCSORGBOTTOM
 10
0.0
 20
0.0
 30
0.0
  9
$UCSORGLEFT
 10
0.0
 20
0.0
 30
0.0
  9
$UCSORGRIGHT
 10
0.0
 20
0.0
 30
0.0
  9
$UCSORGFRONT
 10
0.0
 20
0.0
 30
0.0
  9
$UCSORGBACK
 10
0.0
 20
0.0
 30
0.0
  9
$PUCSBASE
  2

  9
$PUCSNAME
  2

  9
$PUCSORG
 10
0.0
 20
0.0
 30
0.0
  9
$PUCSXDIR
 10
1.0
 20
0.0
 30
0.0
  9
$PUCSYDIR
 10
0.0
 20
1.0
 30
0.0
  9
$PUCSORTHOREF
  2

  9
$PUCSORTHOVIEW
 70
     0
  9
$PUCSORGTOP
 10
0.0
 20
0.0
 30
0.0
  9
$PUCSORGBOTTOM
 10
0.0
 20
0.0
 30
0.0
  9
$PUCSORGLEFT
 10
0.0
 20
0.0
 30
0.0
  9
$PUCSORGRIGHT
 10
0.0
 20
0.0
 30
0.0
  9
$PUCSORGFRONT
 10
0.0
 20
0.0
 30
0.0
  9
$PUCSORGBACK
 10
0.0
 20
0.0
 30
0.0
  9
$USERI1
 70
     0
  9
$USERI2
 70
     0
  9
$USERI3
 70
     0
  9
$USERI4
 70
     0
  9
$USERI5
 70
     0
  9
$USERR1
 40
0.0
  9
$USERR2
 40
0.0
  9
$USERR3
 40
0.0
  9
$USERR4
 40
0.0
  9
$USERR5
 40
0.0
  9
$WORLDVIEW
 70
     1
  9
$SHADEDGE
 70
     3
  9
$SHADEDIF
 70
    70
  9
$TILEMODE
 70
     1
  9
$MAXACTVP
 70
    64
  9
$PINSBASE
 10
0.0
 20
0.0
 30
0.0
  9
$PLIMCHECK
 70
     0
  9
$PEXTMIN
 10
1.0000000000E+20
 20
1.0000000000E+20
 30
1.0000000000E+20
  9
$PEXTMAX
 10
-1.0000000000E+20
 20
-1.0000000000E+20
 30
-1.0000000000E+20
  9
$PLIMMIN
 10
0.0
 20
0.0
  9
$PLIMMAX
 10
420.0
 20
297.0
  9
$UNITMODE
 70
     0
  9
$VISRETAIN
 70
     1
  9
$PLINEGEN
 70
     0
  9
$PSLTSCALE
 70
     1
  9
$TREEDEPTH
 70
  3020
  9
$CMLSTYLE
  2
Standard
  9
$CMLJUST
 70
     0
  9
$CMLSCALE
 40
20.0
  9
$PROXYGRAPHICS
 70
     1
  9
$MEASUREMENT
 70
     1
  9
$CELWEIGHT
370
    -1
  9
$ENDCAPS
280
     0
  9
$JOINSTYLE
280
     0
  9
$LWDISPLAY
290
     1
  9
$INSUNITS
 70
     4
  9
$HYPERLINKBASE
  1

  9
$STYLESHEET
  1

  9
$XEDIT
290
     1
  9
$CEPSNTYPE
380
     0
  9
$PSTYLEMODE
290
     1
  9
$FINGERPRINTGUID
  2
{014D8917-5186-4034-B441-0F66936C3D58}
  9
$VERSIONGUID
  2
{FAEB1C32-E019-11D5-929B-00C0DF256EC4}
  9
$EXTNAMES
290
     1
  9
$PSVPSCALE
 40
0.0
  9
$OLESTARTUP
290
     0
  0
ENDSEC
  0
SECTION
  2
CLASSES
  0
CLASS
  1
ACDBDICTIONARYWDFLT
  2
AcDbDictionaryWithDefault
  3
ObjectDBX Classes
 90
        0
280
     0
281
     0
  0
CLASS
  1
VISUALSTYLE
  2
AcDbVisualStyle
  3
ObjectDBX Classes
 90
     4095
280
     0
281
     0
  0
CLASS
  1
MATERIAL
  2
AcDbMaterial
  3
ObjectDBX Classes
 90
     1153
280
     0
281
     0
  0
CLASS
  1
SCALE
  2
AcDbScale
  3
ObjectDBX Classes
 90
     1153
280
     0
281
     0
  0
CLASS
  1
TABLESTYLE
  2
AcDbTableStyle
  3
ObjectDBX Classes
 90
     4095
280
     0
281
     0
  0
CLASS
  1
MLEADERSTYLE
  2
AcDbMLeaderStyle
  3
ACDB_MLEADERSTYLE_CLASS
 90
     4095
280
     0
281
     0
  0
CLASS
  1
SUN
  2
AcDbSun
  3
SCENEOE
 90
     1153
280
     0
281
     0
  0
CLASS
  1
ACDBPLACEHOLDER
  2
AcDbPlaceHolder
  3
ObjectDBX Classes
 90
        0
280
     0
281
     0
  0
CLASS
  1
LAYOUT
  2
AcDbLayout
  3
ObjectDBX Classes
 90
        0
280
     0
281
     0
  0
ENDSEC
  0
SECTION
  2
TABLES
  0
TABLE
  2
VPORT
  5
8
330
0
100
AcDbSymbolTable
 70
     1
  0
VPORT
  5
29
330
8
100
AcDbSymbolTableRecord
100
AcDbViewportTableRecord
  2
*Active
 70
     0
 10
0.0
 20
0.0
 11
1.0
 21
1.0
 12
148.5
 22
105.0
 13
0.0
 23
0.0
 14
10.0
 24
10.0
 15
10.0
 25
10.0
 16
0.0
 26
0.0
 36
1.0
 17
0.0
 27
0.0
 37
0.0
 40
210.0
 41
1.4142857143
 42
50.0
 43
0.0
 44
0.0
 50
0.0
 51
0.0
 71
     0
 72
  2000
 73
     1
 74
     3
 75
     0
 76
     0
 77
     0
 78
     0
281
     0
 65
     1
110
0.0
120
0.0
130
0.0
111
1.0
121
0.0
131
0.0
112
0.0
122
1.0
132
0.0
 79
     0
146
0.0
  0
ENDTAB
  0
TABLE
  2
LTYPE
  5
5
330
0
100
AcDbSymbolTable
 70
     6
  0
LTYPE
  5
14
330
5
100
AcDbSymbolTableRecord
100
AcDbLinetypeTableRecord
  2
ByBlock
 70
     0
  3

 72
    65
 73
     0
 40
0.0
  0
LTYPE
  5
15
330
5
100
AcDbSymbolTableRecord
100
AcDbLinetypeTableRecord
  2
ByLayer
 70
     0
  3

 72
    65
 73
     0
 40
0.0
  0
LTYPE
  5
16
330
5
100
AcDbSymbolTableRecord
100
AcDbLinetypeTableRecord
  2
Continuous
 70
     0
  3
Solid line
 72
    65
 73
     0
 40
0.0
  0
LTYPE
  5
6E
330
5
100
AcDbSymbolTableRecord
100
AcDbLinetypeTableRecord
  2
HIDDEN
 70
     0
  3
Hidden __ __ __ __ __ __ __ __ __ __ __ __ __ __
 72
    65
 73
     2
 40
1.905
 49
1.27
 74
     0
 49
-0.635
 74
     0
  0
LTYPE
  5
6F
330
5
100
AcDbSymbolTableRecord
100
AcDbLinetypeTableRecord
  2
PHANTOM
 70
     0
  3
Phantom ______  __  __  ______  __  __  ______
 72
    65
 73
     6
 40
12.7
 49
6.35
 74
     0
 49
-1.27
 74
     0
 49
1.27
 74
     0
 49
-1.27
 74
     0
 49
1.27
 74
     0
 49
-1.27
 74
     0
  0
LTYPE
  5
70
330
5
100
AcDbSymbolTableRecord
100
AcDbLinetypeTableRecord
  2
CENTER
 70
     0
  3
Center ____ _ ____ _ ____ _ ____ _ ____ _ ____
 72
    65
 73
     4
 40
10.16
 49
6.35
 74
     0
 49
-1.27
 74
     0
 49
1.27
 74
     0
 49
-1.27
 74
     0
  0
LTYPE
  5
71
330
5
100
AcDbSymbolTableRecord
100
AcDbLinetypeTableRecord
  2
CENTERX2
 70
     0
  3
Center (2x) ________  __  ________  __  _____
 72
    65
 73
     4
 40
20.32
 49
12.7
 74
     0
 49
-2.54
 74
     0
 49
2.54
 74
     0
 49
-2.54
 74
     0
  0
LTYPE
  5
72
330
5
100
AcDbSymbolTableRecord
100
AcDbLinetypeTableRecord
  2
DOT2
 70
     0
  3
Dot (.5x) ........................................
 72
    65
 73
     2
 40
0.635
 49
0.0
 74
     0
 49
-0.635
 74
     0
  0
ENDTAB
  0
TABLE
  2
LAYER
  5
2
330
0
100
AcDbSymbolTable
 70
     5
  0
LAYER
  5
10
330
2
100
AcDbSymbolTableRecord
100
AcDbLayerTableRecord
  2
0
 70
     0
 62
     7
  6
Continuous
370
    -3
390
F
  0
LAYER
  5
73
330
2
100
AcDbSymbolTableRecord
100
AcDbLayerTableRecord
  2
FORMAT
 70
     0
 62
     7
  6
Continuous
370
    -3
390
F
  0
LAYER
  5
74
330
2
100
AcDbSymbolTableRecord
100
AcDbLayerTableRecord
  2
VERMASSUNG
 70
     0
 62
     7
  6
Continuous
370
    -3
390
F
  0
LAYER
  5
75
330
2
100
AcDbSymbolTableRecord
100
AcDbLayerTableRecord
  2
KOPF_DÜNN
 70
     0
 62
     7
  6
Continuous
370
    -3
390
F
  0
LAYER
  5
76
330
2
100
AcDbSymbolTableRecord
100
AcDbLayerTableRecord
  2
KOPF_DICK
 70
     0
 62
     7
  6
Continuous
370
    25
390
F
  0
ENDTAB
  0
TABLE
  2
STYLE
  5
3
330
0
100
AcDbSymbolTable
 70
     2
  0
STYLE
  5
11
330
3
100
AcDbSymbolTableRecord
100
AcDbTextStyleTableRecord
  2
Standard
 70
     0
 40
0.0
 41
1.0
 50
0.0
 71
     0
 42
2.0
  3
txt
  4

  0
STYLE
  5
77
330
3
100
AcDbSymbolTableRecord
100
AcDbTextStyleTableRecord
  2
SLDTEXTSTYLE0
 70
     0
 40
0.0
 41
0.7
 50
0.0
 71
     0
 42
2.0
  3
TXT
  4

  0
ENDTAB
  0
TABLE
  2
VIEW
  5
6
330
0
100
AcDbSymbolTable
 70
     0
  0
ENDTAB
  0
TABLE
  2
UCS
  5
7
330
0
100
AcDbSymbolTable
 70
     0
  0
ENDTAB
  0
TABLE
  2
APPID
  5
9
330
0
100
AcDbSymbolTable
 70
     1
  0
APPID
  5
12
330
9
100
AcDbSymbolTableRecord
100
AcDbRegAppTableRecord
  2
ACAD
 70
     0
  0
ENDTAB
  0
TABLE
  2
DIMSTYLE
  5
A
330
0
100
AcDbSymbolTable
 70
     5
100
AcDbDimStyleTable
  0
DIMSTYLE
105
27
330
A
100
AcDbSymbolTableRecord
100
AcDbDimStyleTableRecord
  2
ISO-25
 70
     0
 41
2.5
 42
0.625
 43
3.75
 44
1.25
 73
     0
 74
     0
 77
     1
 78
     8
140
2.5
141
2.5
143
0.0393700787
147
0.625
171
     3
172
     1
178
     0
271
     2
272
     2
274
     3
278
    44
283
     0
284
     8
340
11
  0
DIMSTYLE
105
19A
102
{ACAD_REACTORS
330
199
330
1A6
330
1B1
330
1BC
330
1C6
330
1D0
330
1DA
102
}
330
A
100
AcDbSymbolTableRecord
100
AcDbDimStyleTableRecord
  2
SLDDIMSTYLE0
 70
     0
 41
3.0
 44
0.0
 45
0.000000001
 73
     0
 74
     0
 77
     1
 78
    12
 79
     3
140
2.0
147
0.5
173
     1
178
     0
271
     2
272
     3
276
     2
284
    12
340
77
  0
DIMSTYLE
105
1E5
102
{ACAD_REACTORS
330
1E4
102
}
330
A
100
AcDbSymbolTableRecord
100
AcDbDimStyleTableRecord
  2
SLDDIMSTYLE1
 70
     0
 41
3.0
 44
0.0
 45
0.000000001
 73
     0
 74
     0
 77
     1
 78
     8
 79
     2
140
2.0
141
0.0
147
0.5
173
     1
178
     0
271
     2
272
     3
276
     2
279
     1
284
    12
340
77
  0
DIMSTYLE
105
1ED
102
{ACAD_REACTORS
330
1EC
102
}
330
A
100
AcDbSymbolTableRecord
100
AcDbDimStyleTableRecord
  2
SLDDIMSTYLE2
 70
     0
 41
3.0
 44
0.0
 45
0.000000001
 73
     0
 74
     0
 77
     1
 78
     8
 79
     2
140
2.0
141
0.0
147
0.5
173
     1
178
     0
271
     2
272
     3
276
     2
284
    12
340
77
  0
DIMSTYLE
105
1F6
102
{ACAD_REACTORS
330
1F5
102
}
330
A
100
AcDbSymbolTableRecord
100
AcDbDimStyleTableRecord
  2
SLDDIMSTYLE3
 70
     0
 41
3.0
 44
0.0
 73
     0
 74
     0
 77
     1
 78
    12
 79
     3
140
2.0
147
0.5
173
     1
178
     0
179
     2
272
     3
276
     2
284
    12
340
77
  0
ENDTAB
  0
TABLE
  2
BLOCK_RECORD
  5
1
330
0
100
AcDbSymbolTable
 70
    14
  0
BLOCK_RECORD
  5
1F
330
1
100
AcDbSymbolTableRecord
100
AcDbBlockTableRecord
  2
*Model_Space
340
22
  0
BLOCK_RECORD
  5
1B
330
1
100
AcDbSymbolTableRecord
100
AcDbBlockTableRecord
  2
*Paper_Space
340
1E
  0
BLOCK_RECORD
  5
23
330
1
100
AcDbSymbolTableRecord
100
AcDbBlockTableRecord
  2
*Paper_Space0
340
26
  0
BLOCK_RECORD
  5
19B
330
1
100
AcDbSymbolTableRecord
100
AcDbBlockTableRecord
  2
_D
340
0
  0
BLOCK_RECORD
  5
1A7
330
1
100
AcDbSymbolTableRecord
100
AcDbBlockTableRecord
  2
_D_1
340
0
  0
BLOCK_RECORD
  5
1B2
330
1
100
AcDbSymbolTableRecord
100
AcDbBlockTableRecord
  2
_D_2
340
0
  0
BLOCK_RECORD
  5
1BD
330
1
100
AcDbSymbolTableRecord
100
AcDbBlockTableRecord
  2
_D_3
340
0
  0
BLOCK_RECORD
  5
1C7
330
1
100
AcDbSymbolTableRecord
100
AcDbBlockTableRecord
  2
_D_4
340
0
  0
BLOCK_RECORD
  5
1D1
330
1
100
AcDbSymbolTableRecord
100
AcDbBlockTableRecord
  2
_D_5
340
0
  0
BLOCK_RECORD
  5
1DB
330
1
100
AcDbSymbolTableRecord
100
AcDbBlockTableRecord
  2
_D_6
340
0
  0
BLOCK_RECORD
  5
1E6
330
1
100
AcDbSymbolTableRecord
100
AcDbBlockTableRecord
  2
_D_7
340
0
  0
BLOCK_RECORD
  5
1EE
330
1
100
AcDbSymbolTableRecord
100
AcDbBlockTableRecord
  2
_D_8
340
0
  0
BLOCK_RECORD
  5
1F7
330
1
100
AcDbSymbolTableRecord
100
AcDbBlockTableRecord
  2
_D_9
340
0
  0
BLOCK_RECORD
  5
1FF
330
1
100
AcDbSymbolTableRecord
100
AcDbBlockTableRecord
  2
SW_CENTERMARKSYMBOL_0
340
0
102
{BLKREFS
331
20A
102
}
  0
BLOCK_RECORD
  5
20B
330
1
100
AcDbSymbolTableRecord
100
AcDbBlockTableRecord
  2
SW_CENTERMARKSYMBOL_1
340
0
102
{BLKREFS
331
216
102
}
  0
BLOCK_RECORD
  5
230
330
1
100
AcDbSymbolTableRecord
100
AcDbBlockTableRecord
  2
SW_CENTERMARKSYMBOL_2
340
0
102
{BLKREFS
331
23B
102
}
  0
ENDTAB
  0
ENDSEC
  0
SECTION
  2
BLOCKS
  0
BLOCK
  5
20
330
1F
100
AcDbEntity
  8
0
100
AcDbBlockBegin
  2
*Model_Space
 70
     0
 10
0.0
 20
0.0
 30
0.0
  3
*Model_Space
  1

  0
ENDBLK
  5
21
330
1F
100
AcDbEntity
  8
0
100
AcDbBlockEnd
  0
BLOCK
  5
1C
330
1B
100
AcDbEntity
 67
     1
  8
0
100
AcDbBlockBegin
  2
*Paper_Space
 70
     0
 10
0.0
 20
0.0
 30
0.0
  3
*Paper_Space
  1

  0
ENDBLK
  5
1D
330
1B
100
AcDbEntity
 67
     1
  8
0
100
AcDbBlockEnd
  0
BLOCK
  5
24
330
23
100
AcDbEntity
  8
0
100
AcDbBlockBegin
  2
*Paper_Space0
 70
     0
 10
0.0
 20
0.0
 30
0.0
  3
*Paper_Space0
  1

  0
ENDBLK
  5
25
330
23
100
AcDbEntity
  8
0
100
AcDbBlockEnd
  0
BLOCK
  5
19C
330
19B
100
AcDbEntity
  8
0
100
AcDbBlockBegin
  2
_D
 70
     0
 10
0.0
 20
0.0
 30
0.0
  3
_D
  1

  0
SOLID
  5
19E
330
19B
100
AcDbEntity
  8
VERMASSUNG
100
AcDbTrace
 10
131.1272311998
 20
162.2386083736
 30
0.0
 11
130.6772311998
 21
159.2386083736
 31
0.0
 12
131.5772311998
 22
159.2386083736
 32
0.0
 13
131.5772311998
 23
159.2386083736
 33
0.0
  0
SOLID
  5
19F
330
19B
100
AcDbEntity
  8
VERMASSUNG
100
AcDbTrace
 10
131.1272311998
 20
112.2386083736
 30
0.0
 11
131.5772311998
 21
115.2386083736
 31
0.0
 12
130.6772311998
 22
115.2386083736
 32
0.0
 13
130.6772311998
 23
115.2386083736
 33
0.0
  0
LINE
  5
1A0
330
19B
100
AcDbEntity
  8
VERMASSUNG
100
AcDbLine
 10
169.4519359356
 20
162.2386083736
 30
0.0
 11
130.1272311998
 21
162.2386083736
 31
0.0
  0
LINE
  5
1A1
330
19B
100
AcDbEntity
  8
VERMASSUNG
100
AcDbLine
 10
169.4519359356
 20
112.2386083736
 30
0.0
 11
130.1272311998
 21
112.2386083736
 31
0.0
  0
LINE
  5
1A2
330
19B
100
AcDbEntity
  8
VERMASSUNG
100
AcDbLine
 10
131.1272311998
 20
162.2386083736
 30
0.0
 11
131.1272311998
 21
112.2386083736
 31
0.0
  0
MTEXT
  5
1A3
330
19B
100
AcDbEntity
  8
VERMASSUNG
100
AcDbMText
 10
128.3490959436
 20
131.7336090639
 30
0.0
 40
2.0
 41
0.0
 71
     1
 72
     1
  1
PSC
  7
SLDTEXTSTYLE0
 11
-7.044195017643634E-15
 21
1.0
 31
0.0
 73
     1
 44
1.0
  0
MTEXT
  5
1A4
330
19B
100
AcDbEntity
  8
VERMASSUNG
100
AcDbMText
 10
128.5490958949
 20
136.3336087003
 30
0.0
 40
2.0
 41
0.0
 71
     1
 72
     1
  1
%%c
  7
SLDTEXTSTYLE0
 11
-7.044195017643634E-15
 21
1.0
 31
0.0
 73
     1
 44
1.0
  0
MTEXT
  5
1A5
330
19B
100
AcDbEntity
  8
VERMASSUNG
100
AcDbMText
 10
128.3490959436
 20
139.9436087146
 30
0.0
 40
2.0
 41
0.0
 71
     1
 72
     1
  1
50
  7
SLDTEXTSTYLE0
 11
-7.044195017643634E-15
 21
1.0
 31
0.0
 73
     1
 44
1.0
  0
ENDBLK
  5
19D
330
19B
100
AcDbEntity
  8
0
100
AcDbBlockEnd
  0
BLOCK
  5
1A8
330
1A7
100
AcDbEntity
  8
0
100
AcDbBlockBegin
  2
_D_1
 70
     0
 10
0.0
 20
0.0
 30
0.0
  3
_D_1
  1

  0
SOLID
  5
1AA
330
1A7
100
AcDbEntity
  8
VERMASSUNG
100
AcDbTrace
 10
253.9519359356
 20
153.2386083736
 30
0.0
 11
253.5019359356
 21
150.2386083736
 31
0.0
 12
254.4019359356
 22
150.2386083736
 32
0.0
 13
254.4019359356
 23
150.2386083736
 33
0.0
  0
SOLID
  5
1AB
330
1A7
100
AcDbEntity
  8
VERMASSUNG
100
AcDbTrace
 10
253.9519359356
 20
121.2386083736
 30
0.0
 11
254.4019359356
 21
124.2386083736
 31
0.0
 12
253.5019359356
 22
124.2386083736
 32
0.0
 13
253.5019359356
 23
124.2386083736
 33
0.0
  0
LINE
  5
1AC
330
1A7
100
AcDbEntity
  8
VERMASSUNG
100
AcDbLine
 10
242.9519359356
 20
153.2386083736
 30
0.0
 11
254.9519359356
 21
153.2386083736
 31
0.0
  0
LINE
  5
1AD
330
1A7
100
AcDbEntity
  8
VERMASSUNG
100
AcDbLine
 10
242.9519359356
 20
121.2386083736
 30
0.0
 11
254.9519359356
 21
121.2386083736
 31
0.0
  0
LINE
  5
1AE
330
1A7
100
AcDbEntity
  8
VERMASSUNG
100
AcDbLine
 10
253.9519359356
 20
153.2386083736
 30
0.0
 11
253.9519359356
 21
121.2386083736
 31
0.0
  0
MTEXT
  5
1AF
330
1A7
100
AcDbEntity
  8
VERMASSUNG
100
AcDbMText
 10
251.3738006306
 20
134.0336084164
 30
0.0
 40
2.0
 41
0.0
 71
     1
 72
     1
  1
%%c
  7
SLDTEXTSTYLE0
 11
-7.044195017643634E-15
 21
1.0
 31
0.0
 73
     1
 44
1.0
  0
MTEXT
  5
1B0
330
1A7
100
AcDbEntity
  8
VERMASSUNG
100
AcDbMText
 10
251.1738006794
 20
137.6436084307
 30
0.0
 40
2.0
 41
0.0
 71
     1
 72
     1
  1
32
  7
SLDTEXTSTYLE0
 11
-7.044195017643634E-15
 21
1.0
 31
0.0
 73
     1
 44
1.0
  0
ENDBLK
  5
1A9
330
1A7
100
AcDbEntity
  8
0
100
AcDbBlockEnd
  0
BLOCK
  5
1B3
330
1B2
100
AcDbEntity
  8
0
100
AcDbBlockBegin
  2
_D_2
 70
     0
 10
0.0
 20
0.0
 30
0.0
  3
_D_2
  1

  0
SOLID
  5
1B5
330
1B2
100
AcDbEntity
  8
VERMASSUNG
100
AcDbTrace
 10
262.9530055443
 20
111.2386083736
 30
0.0
 11
263.4030055443
 21
114.2386083736
 31
0.0
 12
262.5030055443
 22
114.2386083736
 32
0.0
 13
262.5030055443
 23
114.2386083736
 33
0.0
  0
SOLID
  5
1B6
330
1B2
100
AcDbEntity
  8
VERMASSUNG
100
AcDbTrace
 10
262.9530055443
 20
163.2386083736
 30
0.0
 11
262.5030055443
 21
160.2386083736
 31
0.0
 12
263.4030055443
 22
160.2386083736
 32
0.0
 13
263.4030055443
 23
160.2386083736
 33
0.0
  0
LINE
  5
1B7
330
1B2
100
AcDbEntity
  8
VERMASSUNG
100
AcDbLine
 10
243.1519359356
 20
111.2386083736
 30
0.0
 11
263.9530055443
 21
111.2386083736
 31
0.0
  0
LINE
  5
1B8
330
1B2
100
AcDbEntity
  8
VERMASSUNG
100
AcDbLine
 10
243.1519359356
 20
163.2386083736
 30
0.0
 11
263.9530055443
 21
163.2386083736
 31
0.0
  0
LINE
  5
1B9
330
1B2
100
AcDbEntity
  8
VERMASSUNG
100
AcDbLine
 10
262.9530055443
 20
111.2386083736
 30
0.0
 11
262.9530055443
 21
163.2386083736
 31
0.0
  0
MTEXT
  5
1BA
330
1B2
100
AcDbEntity
  8
VERMASSUNG
100
AcDbMText
 10
260.3748702394
 20
134.0336084164
 30
0.0
 40
2.0
 41
0.0
 71
     1
 72
     1
  1
%%c
  7
SLDTEXTSTYLE0
 11
6.123233995736766E-17
 21
1.0
 31
0.0
 73
     1
 44
1.0
  0
MTEXT
  5
1BB
330
1B2
100
AcDbEntity
  8
VERMASSUNG
100
AcDbMText
 10
260.1748702881
 20
137.6436084307
 30
0.0
 40
2.0
 41
0.0
 71
     1
 72
     1
  1
52
  7
SLDTEXTSTYLE0
 11
6.123233995736766E-17
 21
1.0
 31
0.0
 73
     1
 44
1.0
  0
ENDBLK
  5
1B4
330
1B2
100
AcDbEntity
  8
0
100
AcDbBlockEnd
  0
BLOCK
  5
1BE
330
1BD
100
AcDbEntity
  8
0
100
AcDbBlockBegin
  2
_D_3
 70
     0
 10
0.0
 20
0.0
 30
0.0
  3
_D_3
  1

  0
SOLID
  5
1C0
330
1BD
100
AcDbEntity
  8
VERMASSUNG
100
AcDbTrace
 10
169.1519359356
 20
185.2386083736
 30
0.0
 11
172.1519359356
 21
184.7886083736
 31
0.0
 12
172.1519359356
 22
185.6886083736
 32
0.0
 13
172.1519359356
 23
185.6886083736
 33
0.0
  0
SOLID
  5
1C1
330
1BD
100
AcDbEntity
  8
VERMASSUNG
100
AcDbTrace
 10
244.1519359356
 20
185.2386083736
 30
0.0
 11
241.1519359356
 21
185.6886083736
 31
0.0
 12
241.1519359356
 22
184.7886083736
 32
0.0
 13
241.1519359356
 23
184.7886083736
 33
0.0
  0
LINE
  5
1C2
330
1BD
100
AcDbEntity
  8
VERMASSUNG
100
AcDbLine
 10
169.1519359356
 20
161.9386083736
 30
0.0
 11
169.1519359356
 21
186.2386083736
 31
0.0
  0
LINE
  5
1C3
330
1BD
100
AcDbEntity
  8
VERMASSUNG
100
AcDbLine
 10
244.1519359356
 20
162.2386083736
 30
0.0
 11
244.1519359356
 21
186.2386083736
 31
0.0
  0
LINE
  5
1C4
330
1BD
100
AcDbEntity
  8
VERMASSUNG
100
AcDbLine
 10
169.1519359356
 20
185.2386083736
 30
0.0
 11
244.1519359356
 21
185.2386083736
 31
0.0
  0
MTEXT
  5
1C5
330
1BD
100
AcDbEntity
  8
VERMASSUNG
100
AcDbMText
 10
205.2519359855
 20
187.8167439696
 30
0.0
 40
2.0
 41
0.0
 71
     1
 72
     1
  1
75
  7
SLDTEXTSTYLE0
 73
     1
 44
1.0
  0
ENDBLK
  5
1BF
330
1BD
100
AcDbEntity
  8
0
100
AcDbBlockEnd
  0
BLOCK
  5
1C8
330
1C7
100
AcDbEntity
  8
0
100
AcDbBlockBegin
  2
_D_4
 70
     0
 10
0.0
 20
0.0
 30
0.0
  3
_D_4
  1

  0
SOLID
  5
1CA
330
1C7
100
AcDbEntity
  8
VERMASSUNG
100
AcDbTrace
 10
139.1519359356
 20
193.1562801107
 30
0.0
 11
142.1519359356
 21
192.7062801107
 31
0.0
 12
142.1519359356
 22
193.6062801107
 32
0.0
 13
142.1519359356
 23
193.6062801107
 33
0.0
  0
SOLID
  5
1CB
330
1C7
100
AcDbEntity
  8
VERMASSUNG
100
AcDbTrace
 10
244.1519359356
 20
193.1562801107
 30
0.0
 11
241.1519359356
 21
193.6062801107
 31
0.0
 12
241.1519359356
 22
192.7062801107
 32
0.0
 13
241.1519359356
 23
192.7062801107
 33
0.0
  0
LINE
  5
1CC
330
1C7
100
AcDbEntity
  8
VERMASSUNG
100
AcDbLine
 10
139.1519359356
 20
153.2319342118
 30
0.0
 11
139.1519359356
 21
194.1562801107
 31
0.0
  0
LINE
  5
1CD
330
1C7
100
AcDbEntity
  8
VERMASSUNG
100
AcDbLine
 10
244.1519359356
 20
162.2386083736
 30
0.0
 11
244.1519359356
 21
194.1562801107
 31
0.0
  0
LINE
  5
1CE
330
1C7
100
AcDbEntity
  8
VERMASSUNG
100
AcDbLine
 10
139.1519359356
 20
193.1562801107
 30
0.0
 11
244.1519359356
 21
193.1562801107
 31
0.0
  0
MTEXT
  5
1CF
330
1C7
100
AcDbEntity
  8
VERMASSUNG
100
AcDbMText
 10
189.7519359035
 20
195.7344157066
 30
0.0
 40
2.0
 41
0.0
 71
     1
 72
     1
  1
105
  7
SLDTEXTSTYLE0
 73
     1
 44
1.0
  0
ENDBLK
  5
1C9
330
1C7
100
AcDbEntity
  8
0
100
AcDbBlockEnd
  0
BLOCK
  5
1D2
330
1D1
100
AcDbEntity
  8
0
100
AcDbBlockBegin
  2
_D_5
 70
     0
 10
0.0
 20
0.0
 30
0.0
  3
_D_5
  1

  0
SOLID
  5
1D4
330
1D1
100
AcDbEntity
  8
VERMASSUNG
100
AcDbTrace
 10
244.1519359356
 20
102.8903707851
 30
0.0
 11
241.1519359356
 21
103.3403707851
 31
0.0
 12
241.1519359356
 22
102.4403707851
 32
0.0
 13
241.1519359356
 23
102.4403707851
 33
0.0
  0
SOLID
  5
1D5
330
1D1
100
AcDbEntity
  8
VERMASSUNG
100
AcDbTrace
 10
181.1519359356
 20
102.8903707851
 30
0.0
 11
184.1519359356
 21
102.4403707851
 31
0.0
 12
184.1519359356
 22
103.3403707851
 32
0.0
 13
184.1519359356
 23
103.3403707851
 33
0.0
  0
LINE
  5
1D6
330
1D1
100
AcDbEntity
  8
VERMASSUNG
100
AcDbLine
 10
244.1519359356
 20
112.2386083736
 30
0.0
 11
244.1519359356
 21
101.8903707851
 31
0.0
  0
LINE
  5
1D7
330
1D1
100
AcDbEntity
  8
VERMASSUNG
100
AcDbLine
 10
181.1519359356
 20
129.9886083736
 30
0.0
 11
181.1519359356
 21
101.8903707851
 31
0.0
  0
LINE
  5
1D8
330
1D1
100
AcDbEntity
  8
VERMASSUNG
100
AcDbLine
 10
244.1519359356
 20
102.8903707851
 30
0.0
 11
181.1519359356
 21
102.8903707851
 31
0.0
  0
MTEXT
  5
1D9
330
1D1
100
AcDbEntity
  8
VERMASSUNG
100
AcDbMText
 10
211.2519359855
 20
105.468506381
 30
0.0
 40
2.0
 41
0.0
 71
     1
 72
     1
  1
63
  7
SLDTEXTSTYLE0
 73
     1
 44
1.0
  0
ENDBLK
  5
1D3
330
1D1
100
AcDbEntity
  8
0
100
AcDbBlockEnd
  0
BLOCK
  5
1DC
330
1DB
100
AcDbEntity
  8
0
100
AcDbBlockBegin
  2
_D_6
 70
     0
 10
0.0
 20
0.0
 30
0.0
  3
_D_6
  1

  0
SOLID
  5
1DE
330
1DB
100
AcDbEntity
  8
VERMASSUNG
100
AcDbTrace
 10
169.1519359356
 20
177.3685884905
 30
0.0
 11
172.1519359356
 21
176.9185884905
 31
0.0
 12
172.1519359356
 22
177.8185884905
 32
0.0
 13
172.1519359356
 23
177.8185884905
 33
0.0
  0
SOLID
  5
1DF
330
1DB
100
AcDbEntity
  8
VERMASSUNG
100
AcDbTrace
 10
189.1519359356
 20
177.3685884905
 30
0.0
 11
186.1519359356
 21
177.8185884905
 31
0.0
 12
186.1519359356
 22
176.9185884905
 32
0.0
 13
186.1519359356
 23
176.9185884905
 33
0.0
  0
LINE
  5
1E0
330
1DB
100
AcDbEntity
  8
VERMASSUNG
100
AcDbLine
 10
169.1519359356
 20
161.9386083736
 30
0.0
 11
169.1519359356
 21
178.3685884905
 31
0.0
  0
LINE
  5
1E1
330
1DB
100
AcDbEntity
  8
VERMASSUNG
100
AcDbLine
 10
189.1519359356
 20
162.8386083736
 30
0.0
 11
189.1519359356
 21
178.3685884905
 31
0.0
  0
LINE
  5
1E2
330
1DB
100
AcDbEntity
  8
VERMASSUNG
100
AcDbLine
 10
169.1519359356
 20
177.3685884905
 30
0.0
 11
189.1519359356
 21
177.3685884905
 31
0.0
  0
MTEXT
  5
1E3
330
1DB
100
AcDbEntity
  8
VERMASSUNG
100
AcDbMText
 10
177.7519359855
 20
179.9467240864
 30
0.0
 40
2.0
 41
0.0
 71
     1
 72
     1
  1
20
  7
SLDTEXTSTYLE0
 73
     1
 44
1.0
  0
ENDBLK
  5
1DD
330
1DB
100
AcDbEntity
  8
0
100
AcDbBlockEnd
  0
BLOCK
  5
1E7
330
1E6
100
AcDbEntity
  8
0
100
AcDbBlockBegin
  2
_D_7
 70
     0
 10
0.0
 20
0.0
 30
0.0
  3
_D_7
  1

  0
SOLID
  5
1E9
330
1E6
100
AcDbEntity
  8
VERMASSUNG
100
AcDbTrace
 10
189.6715511778
 20
162.5386083736
 30
0.0
 11
187.2746239532
 21
164.3979738245
 31
0.0
 12
186.8345770973
 22
163.6128886287
 32
0.0
 13
186.8345770973
 23
163.6128886287
 33
0.0
  0
LINE
  5
1EA
330
1E6
100
AcDbEntity
  8
VERMASSUNG
100
AcDbLine
 10
189.6715511778
 20
162.5386083736
 30
0.0
 11
182.4594250796
 21
166.5810657157
 31
0.0
  0
MTEXT
  5
1EB
330
1E6
100
AcDbEntity
  8
VERMASSUNG
100
AcDbMText
 10
183.7484928776
 20
168.8137966362
 30
0.0
 40
2.0
 41
0.0
 71
     1
 72
     1
  1
R0.6
  7
SLDTEXTSTYLE0
 11
0.8660254037844392
 21
-0.4999999999999991
 31
0.0
 73
     1
 44
1.0
  0
ENDBLK
  5
1E8
330
1E6
100
AcDbEntity
  8
0
100
AcDbBlockEnd
  0
BLOCK
  5
1EF
330
1EE
100
AcDbEntity
  8
0
100
AcDbBlockBegin
  2
_D_8
 70
     0
 10
0.0
 20
0.0
 30
0.0
  3
_D_8
  1

  0
SOLID
  5
1F1
330
1EE
100
AcDbEntity
  8
VERMASSUNG
100
AcDbTrace
 10
190.1221065278
 20
163.1582236159
 30
0.0
 11
189.0118179595
 21
165.9812998273
 31
0.0
 12
188.2323950961
 22
165.5312998273
 32
0.0
 13
188.2323950961
 23
165.5312998273
 33
0.0
  0
LINE
  5
1F2
330
1EE
100
AcDbEntity
  8
VERMASSUNG
100
AcDbLine
 10
190.1221065278
 20
163.1582236159
 30
0.0
 11
184.2619632893
 21
173.3082894446
 31
0.0
  0
LINE
  5
1F3
330
1EE
100
AcDbEntity
  8
VERMASSUNG
100
AcDbLine
 10
190.1221065278
 20
163.1582236159
 30
0.0
 11
190.4221065278
 21
162.6386083736
 31
0.0
  0
MTEXT
  5
1F4
330
1EE
100
AcDbEntity
  8
VERMASSUNG
100
AcDbMText
 10
186.4657526131
 20
174.5806478039
 30
0.0
 40
2.0
 41
0.0
 71
     1
 72
     1
  1
R0.6
  7
SLDTEXTSTYLE0
 11
0.4999999999999957
 21
-0.8660254037844412
 31
0.0
 73
     1
 44
1.0
  0
ENDBLK
  5
1F0
330
1EE
100
AcDbEntity
  8
0
100
AcDbBlockEnd
  0
BLOCK
  5
1F8
330
1F7
100
AcDbEntity
  8
0
100
AcDbBlockBegin
  2
_D_9
 70
     0
 10
0.0
 20
0.0
 30
0.0
  3
_D_9
  1

  0
ARC
  5
1FA
330
1F7
100
AcDbEntity
  8
VERMASSUNG
100
AcDbCircle
 10
190.0756963663
 20
163.2386083736
 30
0.0
 40
10.57439194135313
100
AcDbArc
 50
0.0
 51
60.0
  0
SOLID
  5
1FB
330
1F7
100
AcDbEntity
  8
VERMASSUNG
100
AcDbTrace
 10
200.6500883076
 20
163.2386083736
 30
0.0
 11
200.682455121
 21
166.2719979611
 31
0.0
 12
199.7910386097
 22
166.1479955284
 32
0.0
 13
199.7910386097
 23
166.1479955284
 33
0.0
  0
SOLID
  5
1FC
330
1F7
100
AcDbEntity
  8
VERMASSUNG
100
AcDbTrace
 10
195.3628923369
 20
172.3963004244
 30
0.0
 11
197.4529706735
 21
170.1976479855
 31
0.0
 12
198.006068186
 22
170.9076361133
 32
0.0
 13
198.006068186
 23
170.9076361133
 33
0.0
  0
LINE
  5
1FD
330
1F7
100
AcDbEntity
  8
VERMASSUNG
100
AcDbLine
 10
189.9024912855
 20
162.9386083736
 30
0.0
 11
195.8628923369
 21
173.2623258282
 31
0.0
  0
MTEXT
  5
1FE
330
1F7
100
AcDbEntity
  8
VERMASSUNG
100
AcDbMText
 10
200.4661194065
 20
171.5469228305
 30
0.0
 40
2.0
 41
0.0
 71
     1
 72
     1
  1
60°
  7
SLDTEXTSTYLE0
 11
0.5000000000000095
 21
-0.8660254037844332
 31
0.0
 73
     1
 44
1.0
  0
ENDBLK
  5
1F9
330
1F7
100
AcDbEntity
  8
0
100
AcDbBlockEnd
  0
BLOCK
  5
200
330
1FF
100
AcDbEntity
  8
0
100
AcDbBlockBegin
  2
SW_CENTERMARKSYMBOL_0
 70
     0
 10
0.0
 20
0.0
 30
0.0
  3
SW_CENTERMARKSYMBOL_0
  1

  0
LINE
  5
202
330
1FF
100
AcDbEntity
  8
VERMASSUNG
 62
     0
100
AcDbLine
 10
0.0
 20
0.0
 30
0.0
 11
0.0
 21
2.5
 31
0.0
  0
LINE
  5
203
330
1FF
100
AcDbEntity
  8
VERMASSUNG
 62
     0
100
AcDbLine
 10
0.0
 20
0.0
 30
0.0
 11
-2.5
 21
0.0
 31
0.0
  0
LINE
  5
204
330
1FF
100
AcDbEntity
  8
VERMASSUNG
 62
     0
100
AcDbLine
 10
0.0
 20
0.0
 30
0.0
 11
0.0
 21
-2.5
 31
0.0
  0
LINE
  5
205
330
1FF
100
AcDbEntity
  8
VERMASSUNG
 62
     0
100
AcDbLine
 10
0.0
 20
0.0
 30
0.0
 11
2.5
 21
0.0
 31
0.0
  0
LINE
  5
206
330
1FF
100
AcDbEntity
  8
VERMASSUNG
 62
     0
100
AcDbLine
 10
0.0
 20
5.0
 30
0.0
 11
0.0
 21
8.5
 31
0.0
  0
LINE
  5
207
330
1FF
100
AcDbEntity
  8
VERMASSUNG
 62
     0
100
AcDbLine
 10
-5.0
 20
0.0
 30
0.0
 11
-8.5
 21
0.0
 31
0.0
  0
LINE
  5
208
330
1FF
100
AcDbEntity
  8
VERMASSUNG
 62
     0
100
AcDbLine
 10
0.0
 20
-5.0
 30
0.0
 11
0.0
 21
-8.5
 31
0.0
  0
LINE
  5
209
330
1FF
100
AcDbEntity
  8
VERMASSUNG
 62
     0
100
AcDbLine
 10
5.0
 20
0.0
 30
0.0
 11
8.5
 21
0.0
 31
0.0
  0
ENDBLK
  5
201
330
1FF
100
AcDbEntity
  8
0
100
AcDbBlockEnd
  0
BLOCK
  5
20C
330
20B
100
AcDbEntity
  8
0
100
AcDbBlockBegin
  2
SW_CENTERMARKSYMBOL_1
 70
     0
 10
0.0
 20
0.0
 30
0.0
  3
SW_CENTERMARKSYMBOL_1
  1

  0
LINE
  5
20E
330
20B
100
AcDbEntity
  8
VERMASSUNG
 62
     0
100
AcDbLine
 10
0.0
 20
0.0
 30
0.0
 11
0.0
 21
2.5
 31
0.0
  0
LINE
  5
20F
330
20B
100
AcDbEntity
  8
VERMASSUNG
 62
     0
100
AcDbLine
 10
0.0
 20
0.0
 30
0.0
 11
-2.5
 21
0.0
 31
0.0
  0
LINE
  5
210
330
20B
100
AcDbEntity
  8
VERMASSUNG
 62
     0
100
AcDbLine
 10
0.0
 20
0.0
 30
0.0
 11
0.0
 21
-2.5
 31
0.0
  0
LINE
  5
211
330
20B
100
AcDbEntity
  8
VERMASSUNG
 62
     0
100
AcDbLine
 10
0.0
 20
0.0
 30
0.0
 11
2.5
 21
0.0
 31
0.0
  0
LINE
  5
212
330
20B
100
AcDbEntity
  8
VERMASSUNG
 62
     0
100
AcDbLine
 10
0.0
 20
5.0
 30
0.0
 11
0.0
 21
8.5
 31
0.0
  0
LINE
  5
213
330
20B
100
AcDbEntity
  8
VERMASSUNG
 62
     0
100
AcDbLine
 10
-5.0
 20
0.0
 30
0.0
 11
-8.5
 21
0.0
 31
0.0
  0
LINE
  5
214
330
20B
100
AcDbEntity
  8
VERMASSUNG
 62
     0
100
AcDbLine
 10
0.0
 20
-5.0
 30
0.0
 11
0.0
 21
-8.5
 31
0.0
  0
LINE
  5
215
330
20B
100
AcDbEntity
  8
VERMASSUNG
 62
     0
100
AcDbLine
 10
5.0
 20
0.0
 30
0.0
 11
8.5
 21
0.0
 31
0.0
  0
ENDBLK
  5
20D
330
20B
100
AcDbEntity
  8
0
100
AcDbBlockEnd
  0
BLOCK
  5
231
330
230
100
AcDbEntity
  8
0
100
AcDbBlockBegin
  2
SW_CENTERMARKSYMBOL_2
 70
     0
 10
0.0
 20
0.0
 30
0.0
  3
SW_CENTERMARKSYMBOL_2
  1

  0
LINE
  5
233
330
230
100
AcDbEntity
  8
VERMASSUNG
 62
     0
100
AcDbLine
 10
0.0
 20
0.0
 30
0.0
 11
0.0
 21
2.5
 31
0.0
  0
LINE
  5
234
330
230
100
AcDbEntity
  8
VERMASSUNG
 62
     0
100
AcDbLine
 10
0.0
 20
0.0
 30
0.0
 11
-2.5
 21
0.0
 31
0.0
  0
LINE
  5
235
330
230
100
AcDbEntity
  8
VERMASSUNG
 62
     0
100
AcDbLine
 10
0.0
 20
0.0
 30
0.0
 11
0.0
 21
-2.5
 31
0.0
  0
LINE
  5
236
330
230
100
AcDbEntity
  8
VERMASSUNG
 62
     0
100
AcDbLine
 10
0.0
 20
0.0
 30
0.0
 11
2.5
 21
0.0
 31
0.0
  0
LINE
  5
237
330
230
100
AcDbEntity
  8
VERMASSUNG
 62
     0
100
AcDbLine
 10
0.0
 20
5.0
 30
0.0
 11
0.0
 21
28.5
 31
0.0
  0
LINE
  5
238
330
230
100
AcDbEntity
  8
VERMASSUNG
 62
     0
100
AcDbLine
 10
-5.0
 20
0.0
 30
0.0
 11
-28.5
 21
0.0
 31
0.0
  0
LINE
  5
239
330
230
100
AcDbEntity
  8
VERMASSUNG
 62
     0
100
AcDbLine
 10
0.0
 20
-5.0
 30
0.0
 11
0.0
 21
-28.5
 31
0.0
  0
LINE
  5
23A
330
230
100
AcDbEntity
  8
VERMASSUNG
 62
     0
100
AcDbLine
 10
5.0
 20
0.0
 30
0.0
 11
28.5
 21
0.0
 31
0.0
  0
ENDBLK
  5
232
330
230
100
AcDbEntity
  8
0
100
AcDbBlockEnd
  0
ENDSEC
  0
SECTION
  2
ENTITIES
  0
MTEXT
  5
78
330
1F
100
AcDbEntity
  8
KOPF_DÜNN
100
AcDbMText
 10
13.8892156294
 20
23.8442973028
 30
0.0
 40
3.0
 41
0.0
 71
     1
 72
     1
  1
PS5.K32.K01.075
  7
SLDTEXTSTYLE0
 73
     1
 44
1.0
  0
MTEXT
  5
79
330
1F
100
AcDbEntity
  8
VERMASSUNG
100
AcDbMText
 10
13.9329988022
 20
28.8834360957
 30
0.0
 40
3.0
 41
0.0
 71
     1
 72
     1
  1
Werkzeughalter / Toolholder
  7
SLDTEXTSTYLE0
 73
     1
 44
1.0
  0
MTEXT
  5
7A
330
1F
100
AcDbEntity
  8
VERMASSUNG
100
AcDbMText
 10
98.8601118557
 20
13.8365368761
 30
0.0
 40
2.0
 41
0.0
 71
     1
 72
     1
  1
Datum: 29.11.2017
  7
SLDTEXTSTYLE0
 73
     1
 44
1.0
  0
MTEXT
  5
7B
330
1F
100
AcDbEntity
  8
VERMASSUNG
100
AcDbMText
 10
13.933048693
 20
18.0482802738
 30
0.0
 40
2.0
 41
0.0
 71
     1
 72
     1
  1
für Wendeplattenbohrer Schaft-Ø 32 / for indexable insert drills shaft-Ø 32
  7
SLDTEXTSTYLE0
 73
     1
 44
1.0
  0
MTEXT
  5
7C
330
1F
100
AcDbEntity
  8
VERMASSUNG
100
AcDbMText
 10
13.9808475933
 20
13.9090974274
 30
0.0
 40
2.0
 41
0.0
 71
     1
 72
     1
  1
Gewicht: 941g
  7
SLDTEXTSTYLE0
 73
     1
 44
1.0
  0
LINE
  5
7D
330
1F
100
AcDbEntity
  8
0
  6
Continuous
 62
     7
370
    25
100
AcDbLine
 10
243.1519359356
 20
111.2386083736
 30
0.0
 11
244.1519359356
 21
112.2386083736
 31
0.0
  0
LINE
  5
7E
330
1F
100
AcDbEntity
  8
0
  6
Continuous
 62
     7
370
    25
100
AcDbLine
 10
244.1519359356
 20
162.2386083736
 30
0.0
 11
243.1519359356
 21
163.2386083736
 31
0.0
  0
LINE
  5
7F
330
1F
100
AcDbEntity
  8
0
  6
Continuous
 62
     7
370
    25
100
AcDbLine
 10
190.4221065278
 20
111.2386083736
 30
0.0
 11
243.1519359356
 21
111.2386083736
 31
0.0
  0
LINE
  5
80
330
1F
100
AcDbEntity
  8
0
  6
Continuous
 62
     7
370
    25
100
AcDbLine
 10
243.1519359356
 20
163.2386083736
 30
0.0
 11
190.4221065278
 21
163.2386083736
 31
0.0
  0
ARC
  5
81
330
1F
100
AcDbEntity
  8
0
  6
Continuous
 62
     7
370
    25
100
AcDbCircle
 10
190.4221065278
 20
111.8386083736
 30
0.0
 40
0.6000000000000155
100
AcDbArc
 50
210.0
 51
270.0
  0
ARC
  5
82
330
1F
100
AcDbEntity
  8
0
  6
Continuous
 62
     7
370
    25
100
AcDbCircle
 10
190.4221065278
 20
162.6386083736
 30
0.0
 40
0.6000000000000013
100
AcDbArc
 50
90.0
 51
150.0
  0
LINE
  5
83
330
1F
100
AcDbEntity
  8
0
  6
Continuous
 62
     7
370
    25
100
AcDbLine
 10
189.9024912855
 20
162.9386083736
 30
0.0
 11
189.6715511778
 21
162.5386083736
 31
0.0
  0
LINE
  5
84
330
1F
100
AcDbEntity
  8
0
  6
Continuous
 62
     7
370
    25
100
AcDbLine
 10
189.6715511778
 20
111.9386083736
 30
0.0
 11
189.9024912855
 21
111.5386083736
 31
0.0
  0
ARC
  5
85
330
1F
100
AcDbEntity
  8
0
  6
Continuous
 62
     7
370
    25
100
AcDbCircle
 10
189.1519359356
 20
111.6386083736
 30
0.0
 40
0.5999999999999943
100
AcDbArc
 50
30.0
 51
90.0
  0
ARC
  5
86
330
1F
100
AcDbEntity
  8
0
  6
Continuous
 62
     7
370
    25
100
AcDbCircle
 10
189.1519359356
 20
162.8386083736
 30
0.0
 40
0.6000000000000227
100
AcDbArc
 50
270.0
 51
330.0
  0
LINE
  5
87
330
1F
100
AcDbEntity
  8
0
  6
Continuous
 62
     7
370
    25
100
AcDbLine
 10
169.4519359356
 20
112.2386083736
 30
0.0
 11
189.1519359356
 21
112.2386083736
 31
0.0
  0
LINE
  5
88
330
1F
100
AcDbEntity
  8
0
  6
Continuous
 62
     7
370
    25
100
AcDbLine
 10
189.1519359356
 20
162.2386083736
 30
0.0
 11
169.4519359356
 21
162.2386083736
 31
0.0
  0
ARC
  5
89
330
1F
100
AcDbEntity
  8
0
  6
Continuous
 62
     7
370
    25
100
AcDbCircle
 10
169.4519359356
 20
112.5386083736
 30
0.0
 40
0.2999999999999972
100
AcDbArc
 50
180.0
 51
270.0
  0
ARC
  5
8A
330
1F
100
AcDbEntity
  8
0
  6
Continuous
 62
     7
370
    25
100
AcDbCircle
 10
169.4519359356
 20
161.9386083736
 30
0.0
 40
0.3000000000000114
100
AcDbArc
 50
90.0
 51
180.0
  0
LWPOLYLINE
  5
8B
330
1F
100
AcDbEntity
  8
0
  6
Continuous
 62
     7
370
    25
100
AcDbPolyline
 90
        3
 70
   128
 43
0.0
 10
168.9519359356
 20
119.3987880948
 10
169.0773908791
 20
119.3304859798
 10
169.1519359356
 20
119.2777482217
  0
LWPOLYLINE
  5
8C
330
1F
100
AcDbEntity
  8
0
  6
Continuous
 62
     7
370
    25
100
AcDbPolyline
 90
        3
 70
   128
 43
0.0
 10
169.1519359356
 20
155.1994685256
 10
169.0773908791
 20
155.1467307675
 10
168.9519359356
 20
155.0784286525
  0
CIRCLE
  5
8D
330
1F
100
AcDbEntity
  8
0
  6
Continuous
 62
     7
370
    25
100
AcDbCircle
 10
227.1519359356
 20
137.2386083736
 30
0.0
 40
3.999999999999996
  0
SPLINE
  5
8E
330
1F
100
AcDbEntity
  8
0
  6
Continuous
 62
     7
370
    25
100
AcDbSpline
210
0.0
220
0.0
230
1.0
 70
    24
 71
     3
 72
    11
 73
     7
 74
     0
 42
0.000000001
 43
0.00000001
 40
0.0
 40
0.0
 40
0.0
 40
0.0
 40
0.2164553779443449
 40
0.4403112895790608
 40
0.7519005688038723
 40
1.0
 40
1.0
 40
1.0
 40
1.0
 10
226.0082311276198
 20
133.9687552710811
 30
0.0
 10
225.8534241816675
 20
134.1485979867649
 30
0.0
 10
225.5385174944076
 20
134.5144321777013
 30
0.0
 10
224.9541347892115
 20
135.1933227278286
 30
0.0
 10
224.3272795119052
 20
135.9215546215463
 30
0.0
 10
223.9261297768245
 20
136.387579303507
 30
0.0
 10
223.7483076781384
 20
136.5941592404703
 30
0.0
  0
SPLINE
  5
8F
330
1F
100
AcDbEntity
  8
0
  6
Continuous
 62
     7
370
    25
100
AcDbSpline
210
0.0
220
0.0
230
1.0
 70
    24
 71
     3
 72
    13
 73
     9
 74
     0
 42
0.000000001
 43
0.00000001
 40
0.0
 40
0.0
 40
0.0
 40
0.0
 40
0.1858585508580238
 40
0.354508803597379
 40
0.5287517039503478
 40
0.7072103787973079
 40
0.8922150243135881
 40
1.0
 40
1.0
 40
1.0
 40
1.0
 10
229.4118593850479
 20
134.6132044042455
 30
0.0
 10
229.2119125271303
 20
134.5753461043613
 30
0.0
 10
228.830531519605
 20
134.5031347342833
 30
0.0
 10
228.2219529928664
 20
134.3879053748011
 30
0.0
 10
227.6019123486152
 20
134.2705057572482
 30
0.0
 10
226.9675258822409
 20
134.1503898757756
 30
0.0
 10
226.436312888752
 20
134.0498090463526
 30
0.0
 10
226.1234176186598
 20
133.9905648897259
 30
0.0
 10
226.0082311276198
 20
133.9687552710811
 30
0.0
  0
SPLINE
  5
90
330
1F
100
AcDbEntity
  8
0
  6
Continuous
 62
     7
370
    25
100
AcDbSpline
210
0.0
220
0.0
230
1.0
 70
    24
 71
     3
 72
    11
 73
     7
 74
     0
 42
0.000000001
 43
0.00000001
 40
0.0
 40
0.0
 40
0.0
 40
0.0
 40
0.2164553779443393
 40
0.4403112895790551
 40
0.7519005688038737
 40
1.0
 40
1.0
 40
1.0
 40
1.0
 10
230.5555641929948
 20
137.883057506799
 30
0.0
 10
230.4772193055032
 20
137.6590694010802
 30
0.0
 10
230.3178509462093
 20
137.2034351146233
 30
0.0
 10
230.0221058360078
 20
136.3578995713277
 30
0.0
 10
229.7048661548555
 20
135.4509110298251
 30
0.0
 10
229.5018518090272
 20
134.8704928275436
 30
0.0
 10
229.4118593850479
 20
134.6132044042455
 30
0.0
  0
SPLINE
  5
91
330
1F
100
AcDbEntity
  8
0
  6
Continuous
 62
     7
370
    25
100
AcDbSpline
210
0.0
220
0.0
230
1.0
 70
    24
 71
     3
 72
    11
 73
     7
 74
     0
 42
0.000000001
 43
0.00000001
 40
0.0
 40
0.0
 40
0.0
 40
0.0
 40
0.2164553779443492
 40
0.4403112895790515
 40
0.7519005688038692
 40
1.0
 40
1.0
 40
1.0
 40
1.0
 10
228.2956407435135
 20
140.5084614761882
 30
0.0
 10
228.4504476894658
 20
140.3286187605045
 30
0.0
 10
228.7653543767257
 20
139.9627845695681
 30
0.0
 10
229.3497370819216
 20
139.2838940194407
 30
0.0
 10
229.9765923592281
 20
138.5556621257231
 30
0.0
 10
230.3777420943087
 20
138.0896374437623
 30
0.0
 10
230.5555641929948
 20
137.883057506799
 30
0.0
  0
SPLINE
  5
92
330
1F
100
AcDbEntity
  8
0
  6
Continuous
 62
     7
370
    25
100
AcDbSpline
210
0.0
220
0.0
230
1.0
 70
    24
 71
     3
 72
    13
 73
     9
 74
     0
 42
0.000000001
 43
0.00000001
 40
0.0
 40
0.0
 40
0.0
 40
0.0
 40
0.1077852362604632
 40
0.2867886602058463
 40
0.4712404514100923
 40
0.6395159303143882
 40
0.8141409998222515
 40
0.9999999999999999
 40
0.9999999999999999
 40
0.9999999999999999
 40
0.9999999999999999
 10
224.8920124860853
 20
139.8640123430239
 30
0.0
 10
225.0072023396186
 20
139.8858225983292
 30
0.0
 10
225.3136927729119
 20
139.9438540515668
 30
0.0
 10
225.8442271645653
 20
140.0443063932903
 30
0.0
 10
226.4715568494089
 20
140.1630861309785
 30
0.0
 10
227.0985495894391
 20
140.2818020709261
 30
0.0
 10
227.7079074802926
 20
140.3971789966202
 30
0.0
 10
228.0957013232134
 20
140.4706045845561
 30
0.0
 10
228.2956407435135
 20
140.5084614761882
 30
0.0
  0
SPLINE
  5
93
330
1F
100
AcDbEntity
  8
0
  6
Continuous
 62
     7
370
    25
100
AcDbSpline
210
0.0
220
0.0
230
1.0
 70
    24
 71
     3
 72
    11
 73
     7
 74
     0
 42
0.000000001
 43
0.00000001
 40
0.0
 40
0.0
 40
0.0
 40
0.0
 40
0.2164553779443427
 40
0.4403112895790581
 40
0.7519005688038751
 40
1.0
 40
1.0
 40
1.0
 40
1.0
 10
223.7483076781384
 20
136.5941592404703
 30
0.0
 10
223.82665256563
 20
136.8181473461891
 30
0.0
 10
223.986020924924
 20
137.273781632646
 30
0.0
 10
224.2817660351255
 20
138.1193171759417
 30
0.0
 10
224.5990057162778
 20
139.0263057174442
 30
0.0
 10
224.802020062106
 20
139.6067239197258
 30
0.0
 10
224.8920124860853
 20
139.8640123430239
 30
0.0
  0
CIRCLE
  5
94
330
1F
100
AcDbEntity
  8
0
  6
Continuous
 62
     7
370
    25
100
AcDbCircle
 10
227.1519359356
 20
137.2386083736
 30
0.0
 40
5.000000000000026
  0
CIRCLE
  5
95
330
1F
100
AcDbEntity
  8
0
  6
Continuous
 62
     7
370
    25
100
AcDbCircle
 10
227.1519359356
 20
137.2386083736
 30
0.0
 40
6.000000000000022
  0
ARC
  5
96
330
1F
100
AcDbEntity
  8
0
  6
Continuous
 62
     7
370
    25
100
AcDbCircle
 10
227.1519359356
 20
137.2386083736
 30
0.0
 40
3.000000000000032
100
AcDbArc
 50
220.7215651153
 51
280.7215651153
  0
ARC
  5
97
330
1F
100
AcDbEntity
  8
0
  6
Continuous
 62
     7
370
    25
100
AcDbCircle
 10
227.1519359356
 20
137.2386083736
 30
0.0
 40
3.000000000000032
100
AcDbArc
 50
160.7215651153
 51
220.7215651153
  0
ARC
  5
98
330
1F
100
AcDbEntity
  8
0
  6
Continuous
 62
     7
370
    25
100
AcDbCircle
 10
227.1519359356
 20
137.2386083736
 30
0.0
 40
3.000000000000056
100
AcDbArc
 50
280.7215651153
 51
340.7215651153
  0
ARC
  5
99
330
1F
100
AcDbEntity
  8
0
  6
Continuous
 62
     7
370
    25
100
AcDbCircle
 10
227.1519359356
 20
137.2386083736
 30
0.0
 40
3.0
100
AcDbArc
 50
40.7215651153
 51
100.7215651153
  0
ARC
  5
9A
330
1F
100
AcDbEntity
  8
0
  6
Continuous
 62
     7
370
    25
100
AcDbCircle
 10
227.1519359356
 20
137.2386083736
 30
0.0
 40
3.0
100
AcDbArc
 50
100.7215651153
 51
160.7215651153
  0
ARC
  5
9B
330
1F
100
AcDbEntity
  8
0
  6
Continuous
 62
     7
370
    25
100
AcDbCircle
 10
227.1519359356
 20
137.2386083736
 30
0.0
 40
3.000000000000056
100
AcDbArc
 50
340.7215651153
 51
40.7215651153
  0
CIRCLE
  5
9C
330
1F
100
AcDbEntity
  8
0
  6
Continuous
 62
     7
370
    25
100
AcDbCircle
 10
200.1519359356
 20
137.2386083736
 30
0.0
 40
4.000000000000011
  0
CIRCLE
  5
9D
330
1F
100
AcDbEntity
  8
0
  6
Continuous
 62
     7
370
    25
100
AcDbCircle
 10
200.1519359356
 20
137.2386083736
 30
0.0
 40
5.036000000000018
  0
SPLINE
  5
9E
330
1F
100
AcDbEntity
  8
0
  6
Continuous
 62
     7
370
    25
100
AcDbSpline
210
0.0
220
0.0
230
1.0
 70
    24
 71
     3
 72
    13
 73
     9
 74
     0
 42
0.000000001
 43
0.00000001
 40
0.0
 40
0.0
 40
0.0
 40
0.0
 40
0.1858585508580266
 40
0.3545088035973574
 40
0.5287517039503259
 40
0.7072103787972865
 40
0.892215024313592
 40
1.0
 40
1.0
 40
1.0
 40
1.0
 10
201.9104710860463
 20
140.2231609572772
 30
0.0
 10
201.7069796787675
 20
140.2249620749664
 30
0.0
 10
201.3188377557635
 20
140.2283975482021
 30
0.0
 10
200.699470679254
 20
140.2338796125923
 30
0.0
 10
200.0684382910344
 20
140.2394649275303
 30
0.0
 10
199.4228057657445
 20
140.2451794693752
 30
0.0
 10
198.8821757166621
 20
140.2499646264375
 30
0.0
 10
198.5637336090687
 20
140.2527831813859
 30
0.0
 10
198.4465051544415
 20
140.2538207792193
 30
0.0
  0
SPLINE
  5
9F
330
1F
100
AcDbEntity
  8
0
  6
Continuous
 62
     7
370
    25
100
AcDbSpline
210
0.0
220
0.0
230
1.0
 70
    24
 71
     3
 72
    11
 73
     7
 74
     0
 42
0.000000001
 43
0.00000001
 40
0.0
 40
0.0
 40
0.0
 40
0.0
 40
0.2164553779443475
 40
0.4403112895790635
 40
0.7519005688038936
 40
1.0
 40
1.0
 40
1.0
 40
1.0
 10
198.4465051544415
 20
140.2538207792193
 30
0.0
 10
198.3260437927711
 20
140.0493760354764
 30
0.0
 10
198.0810025375928
 20
139.6334966536843
 30
0.0
 10
197.6262714144411
 20
138.8617355955701
 30
0.0
 10
197.1384907156479
 20
138.0338834230179
 30
0.0
 10
196.8263403594459
 20
137.5041077447589
 30
0.0
 10
196.6879700039618
 20
137.2692681955768
 30
0.0
  0
SPLINE
  5
A0
330
1F
100
AcDbEntity
  8
0
  6
Continuous
 62
     7
370
    25
100
AcDbSpline
210
0.0
220
0.0
230
1.0
 70
    24
 71
     3
 72
    11
 73
     7
 74
     0
 42
0.000000001
 43
0.00000001
 40
0.0
 40
0.0
 40
0.0
 40
0.0
 40
0.2164553779443524
 40
0.4403112895790618
 40
0.7519005688038951
 40
0.9999999999999999
 40
0.9999999999999999
 40
0.9999999999999999
 40
0.9999999999999999
 10
198.3934007850869
 20
134.2540557899922
 30
0.0
 10
198.2765771241706
 20
134.4606007612447
 30
0.0
 10
198.0389356422175
 20
134.8807524041003
 30
0.0
 10
197.5979365218149
 20
135.6604416376983
 30
0.0
 10
197.1248858592032
 20
136.4967982006049
 30
0.0
 10
196.8221618416248
 20
137.0320161780058
 30
0.0
 10
196.6879700039618
 20
137.2692681955768
 30
0.0
  0
SPLINE
  5
A1
330
1F
100
AcDbEntity
  8
0
  6
Continuous
 62
     7
370
    25
100
AcDbSpline
210
0.0
220
0.0
230
1.0
 70
    24
 71
     3
 72
    13
 73
     9
 74
     0
 42
0.000000001
 43
0.00000001
 40
0.0
 40
0.0
 40
0.0
 40
0.0
 40
0.1858585508580109
 40
0.3545088035973751
 40
0.5287517039503368
 40
0.7072103787972889
 40
0.892215024313593
 40
1.0
 40
1.0
 40
1.0
 40
1.0
 10
201.8573667166916
 20
134.2233959680501
 30
0.0
 10
201.6538753094128
 20
134.2251970857392
 30
0.0
 10
201.2657333864089
 20
134.228632558975
 30
0.0
 10
200.6463663098993
 20
134.2341146233652
 30
0.0
 10
200.0153339216798
 20
134.2396999383032
 30
0.0
 10
199.3697013963898
 20
134.245414480148
 30
0.0
 10
198.8290713473074
 20
134.2501996372104
 30
0.0
 10
198.5106292397141
 20
134.2530181921588
 30
0.0
 10
198.3934007850869
 20
134.2540557899922
 30
0.0
  0
SPLINE
  5
A2
330
1F
100
AcDbEntity
  8
0
  6
Continuous
 62
     7
370
    25
100
AcDbSpline
210
0.0
220
0.0
230
1.0
 70
    24
 71
     3
 72
    11
 73
     7
 74
     0
 42
0.000000001
 43
0.00000001
 40
0.0
 40
0.0
 40
0.0
 40
0.0
 40
0.2164553779443385
 40
0.4403112895790617
 40
0.751900568803891
 40
1.0
 40
1.0
 40
1.0
 40
1.0
 10
201.8573667166916
 20
134.2233959680501
 30
0.0
 10
201.9778280783621
 20
134.427840711793
 30
0.0
 10
202.2228693335402
 20
134.8437200935851
 30
0.0
 10
202.6776004566921
 20
135.6154811516993
 30
0.0
 10
203.1653811554852
 20
136.4433333242515
 30
0.0
 10
203.4775315116872
 20
136.9731090025105
 30
0.0
 10
203.6159018671713
 20
137.2079485516926
 30
0.0
  0
SPLINE
  5
A3
330
1F
100
AcDbEntity
  8
0
  6
Continuous
 62
     7
370
    25
100
AcDbSpline
210
0.0
220
0.0
230
1.0
 70
    24
 71
     3
 72
    11
 73
     7
 74
     0
 42
0.000000001
 43
0.00000001
 40
0.0
 40
0.0
 40
0.0
 40
0.0
 40
0.2164553779443397
 40
0.4403112895790631
 40
0.7519005688038927
 40
1.0
 40
1.0
 40
1.0
 40
1.0
 10
201.9104710860463
 20
140.2231609572772
 30
0.0
 10
202.0272947469626
 20
140.0166159860247
 30
0.0
 10
202.2649362289155
 20
139.5964643431691
 30
0.0
 10
202.7059353493183
 20
138.8167751095711
 30
0.0
 10
203.17898601193
 20
137.9804185466645
 30
0.0
 10
203.4817100295084
 20
137.4452005692636
 30
0.0
 10
203.6159018671713
 20
137.2079485516926
 30
0.0
  0
CIRCLE
  5
A4
330
1F
100
AcDbEntity
  8
0
  6
Continuous
 62
     7
370
    25
100
AcDbCircle
 10
200.1519359356
 20
137.2386083736
 30
0.0
 40
6.000000000000002
  0
ARC
  5
A5
330
1F
100
AcDbEntity
  8
0
  6
Continuous
 62
     7
370
    25
100
AcDbCircle
 10
200.1519359356
 20
137.2386083736
 30
0.0
 40
3.000000000000031
100
AcDbArc
 50
149.492884006
 51
209.492884006
  0
ARC
  5
A6
330
1F
100
AcDbEntity
  8
0
  6
Continuous
 62
     7
370
    25
100
AcDbCircle
 10
200.1519359356
 20
137.2386083736
 30
0.0
 40
2.99999999999998
100
AcDbArc
 50
329.492884006
 51
29.492884006
  0
ARC
  5
A7
330
1F
100
AcDbEntity
  8
0
  6
Continuous
 62
     7
370
    25
100
AcDbCircle
 10
200.1519359356
 20
137.2386083736
 30
0.0
 40
3.000000000000019
100
AcDbArc
 50
89.492884006
 51
149.492884006
  0
ARC
  5
A8
330
1F
100
AcDbEntity
  8
0
  6
Continuous
 62
     7
370
    25
100
AcDbCircle
 10
200.1519359356
 20
137.2386083736
 30
0.0
 40
3.000000000000031
100
AcDbArc
 50
209.492884006
 51
269.492884006
  0
ARC
  5
A9
330
1F
100
AcDbEntity
  8
0
  6
Continuous
 62
     7
370
    25
100
AcDbCircle
 10
200.1519359356
 20
137.2386083736
 30
0.0
 40
3.0
100
AcDbArc
 50
29.492884006
 51
89.492884006
  0
ARC
  5
AA
330
1F
100
AcDbEntity
  8
0
  6
Continuous
 62
     7
370
    25
100
AcDbCircle
 10
200.1519359356
 20
137.2386083736
 30
0.0
 40
3.000000000000001
100
AcDbArc
 50
269.492884006
 51
329.492884006
  0
LINE
  5
AB
330
1F
100
AcDbEntity
  8
0
  6
Continuous
 62
     7
370
    25
100
AcDbLine
 10
244.1519359356
 20
112.2386083736
 30
0.0
 11
244.1519359356
 21
162.2386083736
 31
0.0
  0
LINE
  5
AC
330
1F
100
AcDbEntity
  8
0
  6
Continuous
 62
     7
370
    25
100
AcDbLine
 10
243.1519359356
 20
111.2386083736
 30
0.0
 11
243.1519359356
 21
163.2386083736
 31
0.0
  0
SPLINE
  5
AD
330
1F
100
AcDbEntity
  8
0
  6
Continuous
 62
     7
370
    25
100
AcDbSpline
210
0.0
220
0.0
230
1.0
 70
    11
 71
     3
 72
    93
 73
    89
 74
     0
 42
0.000000001
 43
0.00000001
 40
0.0
 40
0.0
 40
0.0
 40
0.0
 40
0.0312499999999999
 40
0.0312499999999999
 40
0.0624999999999999
 40
0.0624999999999999
 40
0.0937499999999998
 40
0.0937499999999998
 40
0.1093749999999998
 40
0.1093749999999998
 40
0.1249999999999998
 40
0.1406249999999998
 40
0.1406249999999998
 40
0.1562499999999998
 40
0.1562499999999998
 40
0.1874999999999998
 40
0.1874999999999998
 40
0.2031249999999998
 40
0.2031249999999998
 40
0.2187499999999999
 40
0.2187499999999999
 40
0.2500000000000001
 40
0.2500000000000001
 40
0.2812500000000002
 40
0.2812500000000002
 40
0.2968750000000003
 40
0.2968750000000003
 40
0.3125000000000004
 40
0.3125000000000004
 40
0.3437500000000006
 40
0.3437500000000006
 40
0.3750000000000007
 40
0.3750000000000007
 40
0.4062500000000008
 40
0.4062500000000008
 40
0.437500000000001
 40
0.437500000000001
 40
0.4531250000000011
 40
0.4531250000000011
 40
0.4687500000000012
 40
0.4687500000000012
 40
0.5000000000000013
 40
0.5000000000000013
 40
0.5156250000000012
 40
0.5156250000000012
 40
0.531250000000001
 40
0.531250000000001
 40
0.5625000000000012
 40
0.5625000000000012
 40
0.5781250000000013
 40
0.5781250000000013
 40
0.5937500000000013
 40
0.5937500000000013
 40
0.6250000000000014
 40
0.6250000000000014
 40
0.6406250000000014
 40
0.6406250000000014
 40
0.6562500000000016
 40
0.6562500000000016
 40
0.6718750000000016
 40
0.6718750000000016
 40
0.6875000000000016
 40
0.6875000000000016
 40
0.7187500000000016
 40
0.7187500000000016
 40
0.7500000000000016
 40
0.7500000000000016
 40
0.7812500000000017
 40
0.7812500000000017
 40
0.8125000000000017
 40
0.8125000000000017
 40
0.8281250000000017
 40
0.8281250000000017
 40
0.8437500000000017
 40
0.8437500000000017
 40
0.8750000000000016
 40
0.8750000000000016
 40
0.8906250000000014
 40
0.8906250000000014
 40
0.9062500000000013
 40
0.9062500000000013
 40
0.9375000000000008
 40
0.9375000000000008
 40
0.9531250000000006
 40
0.9531250000000006
 40
0.9687500000000003
 40
0.9687500000000003
 40
1.0
 40
1.0
 40
1.0
 40
1.0
 10
195.4488226772588
 20
141.85127493578
 30
0.0
 10
195.1105061848239
 20
141.5769500363176
 30
0.0
 10
194.802930206618
 20
141.2745175209074
 30
0.0
 10
194.2513631743868
 20
140.6106520497322
 30
0.0
 10
194.0060351619567
 20
140.2451539619451
 30
0.0
 10
193.6065689831026
 20
139.4820734181261
 30
0.0
 10
193.4492015498327
 20
139.0819261645584
 30
0.0
 10
193.2821777279984
 20
138.4511470116232
 30
0.0
 10
193.2381813257785
 20
138.2349335255159
 30
0.0
 10
193.1767550382623
 20
137.8045776274902
 30
0.0
 10
193.1409131955127
 20
137.373350768396
 30
0.0
 10
193.1557048371421
 20
136.9403986696922
 30
0.0
 10
193.1963610925391
 20
136.5065656116931
 30
0.0
 10
193.2299586097444
 20
136.2884415804604
 30
0.0
 10
193.3668652193196
 20
135.6502507499903
 30
0.0
 10
193.5060338536039
 20
135.2405778038792
 30
0.0
 10
193.7836080929093
 20
134.6485943747523
 30
0.0
 10
193.8874558363646
 20
134.4559123937097
 30
0.0
 10
194.1128773683368
 20
134.0863279392601
 30
0.0
 10
194.2349378995064
 20
133.9083490045305
 30
0.0
 10
194.62802450152
 20
133.3938971369712
 30
0.0
 10
194.9289918094975
 20
133.0744406079806
 30
0.0
 10
195.5789332465094
 20
132.5057282136686
 30
0.0
 10
195.928829163059
 20
132.2540769957711
 30
0.0
 10
196.4898078316522
 20
131.9232965966837
 30
0.0
 10
196.6830827530269
 20
131.8209012793531
 30
0.0
 10
197.0745539270188
 20
131.6352158464421
 30
0.0
 10
197.2736110286572
 20
131.5513802652328
 30
0.0
 10
197.8804861091087
 20
131.3260211964029
 30
0.0
 10
198.2983588933283
 20
131.2103372971377
 30
0.0
 10
199.1587379380634
 20
131.0497196497342
 30
0.0
 10
199.589966889211
 20
131.0068203710398
 30
0.0
 10
200.4544156513779
 20
130.9924070118457
 30
0.0
 10
200.889748120748
 20
131.0212316142855
 30
0.0
 10
201.7533421628725
 20
131.1528122201051
 30
0.0
 10
202.173552322619
 20
131.253959940505
 30
0.0
 10
202.7869064678436
 20
131.4578693793477
 30
0.0
 10
202.988513472839
 20
131.5345934453886
 30
0.0
 10
203.3858864308293
 20
131.706125902167
 30
0.0
 10
203.5826365225965
 20
131.8014905550895
 30
0.0
 10
204.1555684204421
 20
132.1118859168001
 30
0.0
 10
204.5134555641031
 20
132.3498012520901
 30
0.0
 10
205.0138432884891
 20
132.7542945808368
 30
0.0
 10
205.1745231469367
 20
132.8971178299095
 30
0.0
 10
205.4830138753647
 20
133.1997088283931
 30
0.0
 10
205.6316290996003
 20
133.3605385564015
 30
0.0
 10
206.0476971831998
 20
133.8597222966945
 30
0.0
 10
206.2876069272268
 20
134.2156691235508
 30
0.0
 10
206.5887529043706
 20
134.7863178475196
 30
0.0
 10
206.6792756797379
 20
134.9826999686569
 30
0.0
 10
206.8391245547995
 20
135.3887817729394
 30
0.0
 10
206.9078228479794
 20
135.5974404519819
 30
0.0
 10
207.0752965512939
 20
136.2257622160092
 30
0.0
 10
207.1381145452659
 20
136.6531456125503
 30
0.0
 10
207.155820249003
 20
137.3075856880021
 30
0.0
 10
207.148606156045
 20
137.5285609277614
 30
0.0
 10
207.1086089774741
 20
137.9623702947188
 30
0.0
 10
207.0759560314196
 20
138.1767762020515
 30
0.0
 10
206.9860384404967
 20
138.6007360266026
 30
0.0
 10
206.9287725449473
 20
138.8102896802879
 30
0.0
 10
206.7895210989344
 20
139.2245376000556
 30
0.0
 10
206.7076867254941
 20
139.4282750735682
 30
0.0
 10
206.4320623486119
 20
140.0179588988305
 30
0.0
 10
206.206947486968
 20
140.3873928207844
 30
0.0
 10
205.6778119378318
 20
141.0815840542849
 30
0.0
 10
205.3809481183701
 20
141.3967312082561
 30
0.0
 10
204.7317472496649
 20
141.9662516665879
 30
0.0
 10
204.3753224407617
 20
142.2228457774018
 30
0.0
 10
203.6299553882713
 20
142.6626080794958
 30
0.0
 10
203.2398278822066
 20
142.8477058175628
 30
0.0
 10
202.6290322759077
 20
143.0749820918326
 30
0.0
 10
202.4201558079498
 20
143.1425154834062
 30
0.0
 10
202.0000775077157
 20
143.2586026920888
 30
0.0
 10
201.7886363390629
 20
143.3073517298809
 30
0.0
 10
201.150220240383
 20
143.4265770752005
 30
0.0
 10
200.7191847291397
 20
143.4702554650998
 30
0.0
 10
200.0643403596794
 20
143.4812532257913
 30
0.0
 10
199.8443362661354
 20
143.4756533929398
 30
0.0
 10
199.4098867507724
 20
143.4462764307849
 30
0.0
 10
199.1944035638282
 20
143.4225559951358
 30
0.0
 10
198.5530914096653
 20
143.3246976632031
 30
0.0
 10
198.1323556346562
 20
143.2241072464582
 30
0.0
 10
197.5118768065093
 20
143.0175680368445
 30
0.0
 10
197.3071736073592
 20
142.9393752052644
 30
0.0
 10
196.9094002018813
 20
142.7670876172864
 30
0.0
 10
196.7153075801454
 20
142.672676668752
 30
0.0
 10
196.1473924411377
 20
142.3645078674831
 30
0.0
 10
195.7871391696936
 20
142.1255998352424
 30
0.0
 10
195.4488226772588
 20
141.85127493578
 30
0.0
  0
SPLINE
  5
AE
330
1F
100
AcDbEntity
  8
0
  6
Continuous
 62
     7
370
    25
100
AcDbSpline
210
0.0
220
0.0
230
1.0
 70
    11
 71
     3
 72
    93
 73
    89
 74
     0
 42
0.000000001
 43
0.00000001
 40
0.0
 40
0.0
 40
0.0
 40
0.0
 40
0.0312500000000006
 40
0.0312500000000006
 40
0.0625000000000012
 40
0.0625000000000012
 40
0.0937500000000018
 40
0.0937500000000018
 40
0.1093750000000022
 40
0.1093750000000022
 40
0.1250000000000025
 40
0.1406250000000029
 40
0.1406250000000029
 40
0.1562500000000033
 40
0.1562500000000033
 40
0.187500000000004
 40
0.187500000000004
 40
0.2031250000000044
 40
0.2031250000000044
 40
0.2187500000000048
 40
0.2187500000000048
 40
0.2500000000000058
 40
0.2500000000000058
 40
0.2812500000000069
 40
0.2812500000000069
 40
0.2968750000000072
 40
0.2968750000000072
 40
0.3125000000000075
 40
0.3125000000000075
 40
0.3437500000000077
 40
0.3437500000000077
 40
0.3750000000000079
 40
0.3750000000000079
 40
0.4062500000000082
 40
0.4062500000000082
 40
0.4375000000000084
 40
0.4375000000000084
 40
0.4531250000000082
 40
0.4531250000000082
 40
0.4687500000000081
 40
0.4687500000000081
 40
0.5000000000000079
 40
0.5000000000000079
 40
0.5156250000000075
 40
0.5156250000000075
 40
0.5312500000000071
 40
0.5312500000000071
 40
0.5625000000000071
 40
0.5625000000000071
 40
0.5781250000000069
 40
0.5781250000000069
 40
0.5937500000000066
 40
0.5937500000000066
 40
0.6250000000000058
 40
0.6250000000000058
 40
0.6406250000000054
 40
0.6406250000000054
 40
0.656250000000005
 40
0.656250000000005
 40
0.6718750000000047
 40
0.6718750000000047
 40
0.6875000000000043
 40
0.6875000000000043
 40
0.7187500000000031
 40
0.7187500000000031
 40
0.750000000000002
 40
0.750000000000002
 40
0.7812500000000016
 40
0.7812500000000016
 40
0.8125000000000012
 40
0.8125000000000012
 40
0.8281250000000008
 40
0.8281250000000008
 40
0.8437500000000002
 40
0.8437500000000002
 40
0.8749999999999994
 40
0.8749999999999994
 40
0.8906249999999993
 40
0.8906249999999993
 40
0.9062499999999991
 40
0.9062499999999991
 40
0.9374999999999993
 40
0.9374999999999993
 40
0.9531249999999994
 40
0.9531249999999994
 40
0.9687499999999994
 40
0.9687499999999994
 40
1.0
 40
1.0
 40
1.0
 40
1.0
 10
222.4488226772588
 20
141.85127493578
 30
0.0
 10
222.1105061848239
 20
141.5769500363176
 30
0.0
 10
221.802930206618
 20
141.2745175209073
 30
0.0
 10
221.2513631743868
 20
140.6106520497322
 30
0.0
 10
221.0060351619566
 20
140.2451539619451
 30
0.0
 10
220.6065689831026
 20
139.4820734181261
 30
0.0
 10
220.4492015498326
 20
139.0819261645584
 30
0.0
 10
220.2821777279984
 20
138.4511470116232
 30
0.0
 10
220.2381813257785
 20
138.2349335255159
 30
0.0
 10
220.1767550382623
 20
137.8045776274902
 30
0.0
 10
220.1409131955127
 20
137.373350768396
 30
0.0
 10
220.1557048371421
 20
136.9403986696922
 30
0.0
 10
220.1963610925391
 20
136.5065656116931
 30
0.0
 10
220.2299586097444
 20
136.2884415804604
 30
0.0
 10
220.3668652193196
 20
135.6502507499903
 30
0.0
 10
220.5060338536039
 20
135.2405778038792
 30
0.0
 10
220.7836080929093
 20
134.6485943747523
 30
0.0
 10
220.8874558363646
 20
134.4559123937097
 30
0.0
 10
221.1128773683369
 20
134.0863279392602
 30
0.0
 10
221.2349378995064
 20
133.9083490045305
 30
0.0
 10
221.62802450152
 20
133.3938971369712
 30
0.0
 10
221.9289918094975
 20
133.0744406079806
 30
0.0
 10
222.5789332465093
 20
132.5057282136686
 30
0.0
 10
222.928829163059
 20
132.2540769957711
 30
0.0
 10
223.4898078316522
 20
131.9232965966837
 30
0.0
 10
223.6830827530268
 20
131.8209012793531
 30
0.0
 10
224.0745539270188
 20
131.6352158464421
 30
0.0
 10
224.2736110286572
 20
131.5513802652328
 30
0.0
 10
224.8804861091087
 20
131.3260211964029
 30
0.0
 10
225.2983588933283
 20
131.2103372971377
 30
0.0
 10
226.1587379380634
 20
131.0497196497342
 30
0.0
 10
226.589966889211
 20
131.0068203710398
 30
0.0
 10
227.4544156513779
 20
130.9924070118457
 30
0.0
 10
227.889748120748
 20
131.0212316142855
 30
0.0
 10
228.7533421628725
 20
131.1528122201051
 30
0.0
 10
229.173552322619
 20
131.253959940505
 30
0.0
 10
229.7869064678435
 20
131.4578693793477
 30
0.0
 10
229.988513472839
 20
131.5345934453886
 30
0.0
 10
230.3858864308293
 20
131.706125902167
 30
0.0
 10
230.5826365225965
 20
131.8014905550895
 30
0.0
 10
231.155568420442
 20
132.1118859168001
 30
0.0
 10
231.5134555641031
 20
132.3498012520901
 30
0.0
 10
232.0138432884891
 20
132.7542945808368
 30
0.0
 10
232.1745231469367
 20
132.8971178299095
 30
0.0
 10
232.4830138753647
 20
133.1997088283931
 30
0.0
 10
232.6316290996003
 20
133.3605385564015
 30
0.0
 10
233.0476971831998
 20
133.8597222966945
 30
0.0
 10
233.2876069272268
 20
134.2156691235508
 30
0.0
 10
233.5887529043705
 20
134.7863178475196
 30
0.0
 10
233.6792756797378
 20
134.9826999686569
 30
0.0
 10
233.8391245547994
 20
135.3887817729394
 30
0.0
 10
233.9078228479794
 20
135.5974404519819
 30
0.0
 10
234.0752965512939
 20
136.2257622160092
 30
0.0
 10
234.138114545266
 20
136.6531456125502
 30
0.0
 10
234.155820249003
 20
137.3075856880021
 30
0.0
 10
234.148606156045
 20
137.5285609277614
 30
0.0
 10
234.108608977474
 20
137.9623702947188
 30
0.0
 10
234.0759560314196
 20
138.1767762020515
 30
0.0
 10
233.9860384404967
 20
138.6007360266026
 30
0.0
 10
233.9287725449473
 20
138.8102896802879
 30
0.0
 10
233.7895210989344
 20
139.2245376000556
 30
0.0
 10
233.7076867254941
 20
139.4282750735682
 30
0.0
 10
233.4320623486119
 20
140.0179588988305
 30
0.0
 10
233.206947486968
 20
140.3873928207844
 30
0.0
 10
232.6778119378318
 20
141.0815840542849
 30
0.0
 10
232.3809481183701
 20
141.3967312082561
 30
0.0
 10
231.7317472496649
 20
141.9662516665879
 30
0.0
 10
231.3753224407617
 20
142.2228457774017
 30
0.0
 10
230.6299553882714
 20
142.6626080794958
 30
0.0
 10
230.2398278822066
 20
142.8477058175628
 30
0.0
 10
229.6290322759078
 20
143.0749820918326
 30
0.0
 10
229.4201558079498
 20
143.1425154834062
 30
0.0
 10
229.0000775077157
 20
143.2586026920888
 30
0.0
 10
228.7886363390629
 20
143.3073517298809
 30
0.0
 10
228.150220240383
 20
143.4265770752005
 30
0.0
 10
227.7191847291398
 20
143.4702554650998
 30
0.0
 10
227.0643403596793
 20
143.4812532257913
 30
0.0
 10
226.8443362661354
 20
143.4756533929398
 30
0.0
 10
226.4098867507725
 20
143.4462764307849
 30
0.0
 10
226.1944035638282
 20
143.4225559951358
 30
0.0
 10
225.5530914096653
 20
143.3246976632031
 30
0.0
 10
225.1323556346562
 20
143.2241072464582
 30
0.0
 10
224.5118768065093
 20
143.0175680368445
 30
0.0
 10
224.3071736073592
 20
142.9393752052644
 30
0.0
 10
223.9094002018813
 20
142.7670876172864
 30
0.0
 10
223.7153075801454
 20
142.672676668752
 30
0.0
 10
223.1473924411377
 20
142.3645078674832
 30
0.0
 10
222.7871391696936
 20
142.1255998352424
 30
0.0
 10
222.4488226772588
 20
141.85127493578
 30
0.0
  0
SPLINE
  5
AF
330
1F
100
AcDbEntity
  8
0
  6
Continuous
 62
     7
370
    25
100
AcDbSpline
210
0.0
220
0.0
230
1.0
 70
     8
 71
     3
 72
    12
 73
     8
 74
     0
 42
0.000000001
 43
0.00000001
 40
0.0
 40
0.0
 40
0.0
 40
0.0
 40
0.25
 40
0.25
 40
0.5
 40
0.5
 40
1.0
 40
1.0
 40
1.0
 40
1.0
 10
177.6796927491331
 20
144.8074183428151
 30
0.0
 10
177.6160275126026
 20
144.8074183428151
 30
0.0
 10
177.5564212803792
 20
144.8334904912948
 30
0.0
 10
177.4577607554483
 20
144.9090292421159
 30
0.0
 10
177.4187937654331
 20
144.9562801792121
 30
0.0
 10
177.3194069335086
 20
145.1081039971785
 30
0.0
 10
177.2773306860852
 20
145.2209072469437
 30
0.0
 10
177.2466800472408
 20
145.3350613716787
 30
0.0
  0
LINE
  5
B0
330
1F
100
AcDbEntity
  8
0
  6
Continuous
 62
     7
370
    25
100
AcDbLine
 10
180.624179122
 20
144.8074183428
 30
0.0
 11
177.6796927491
 21
144.8074183428
 31
0.0
  0
SPLINE
  5
B1
330
1F
100
AcDbEntity
  8
0
  6
Continuous
 62
     7
370
    25
100
AcDbSpline
210
0.0
220
0.0
230
1.0
 70
     8
 71
     3
 72
    12
 73
     8
 74
     0
 42
0.000000001
 43
0.00000001
 40
0.0
 40
0.0
 40
0.0
 40
0.0
 40
0.5000000000000018
 40
0.5000000000000018
 40
0.7500000000000009
 40
0.7500000000000009
 40
1.0
 40
1.0
 40
1.0
 40
1.0
 10
181.0571918238924
 20
145.3350613716787
 30
0.0
 10
181.0264924405251
 20
145.2207257046149
 30
0.0
 10
180.9851423724186
 20
145.1093723517735
 30
0.0
 10
180.8853864441991
 20
144.9566355795248
 30
0.0
 10
180.8456895264664
 20
144.9087756936727
 30
0.0
 10
180.7484313748188
 20
144.8341725803232
 30
0.0
 10
180.6876552168281
 20
144.8074183428151
 30
0.0
 10
180.6241791220002
 20
144.8074183428151
 30
0.0
  0
ELLIPSE
  5
B2
330
1F
100
AcDbEntity
  8
0
  6
Continuous
 62
     7
370
    25
100
AcDbEllipse
 10
168.0956782806
 20
137.2386083736
 30
0.0
 11
11.70927234972706
 21
24.67718644093742
 31
0.0
210
0.0
220
0.0
230
1.0
 40
0.3419987131
 41
5.203068809370448
 42
6.114256032590491
  0
SPLINE
  5
B3
330
1F
100
AcDbEntity
  8
0
  6
Continuous
 62
     7
370
    25
100
AcDbSpline
210
0.0
220
0.0
230
1.0
 70
     8
 71
     3
 72
    12
 73
     8
 74
     0
 42
0.000000001
 43
0.00000001
 40
0.0
 40
0.0
 40
0.0
 40
0.0
 40
0.2500000000000002
 40
0.2500000000000002
 40
0.5000000000000004
 40
0.5000000000000004
 40
1.0
 40
1.0
 40
1.0
 40
1.0
 10
180.6241791220002
 20
161.0653394891366
 30
0.0
 10
180.6878443585307
 20
161.0653394891366
 30
0.0
 10
180.7474505907541
 20
161.0570747134707
 30
0.0
 10
180.8461111156849
 20
161.0328559318876
 30
0.0
 10
180.8850781057002
 20
161.0175986125784
 30
0.0
 10
180.9844649376246
 20
160.9679652583165
 30
0.0
 10
181.026541185048
 20
160.9303255501424
 30
0.0
 10
181.0571918238924
 20
160.8912498508662
 30
0.0
  0
LINE
  5
B4
330
1F
100
AcDbEntity
  8
0
  6
Continuous
 62
     7
370
    25
100
AcDbLine
 10
177.6796927491
 20
161.0653394891
 30
0.0
 11
180.624179122
 21
161.0653394891
 31
0.0
  0
SPLINE
  5
B5
330
1F
100
AcDbEntity
  8
0
  6
Continuous
 62
     7
370
    25
100
AcDbSpline
210
0.0
220
0.0
230
1.0
 70
     8
 71
     3
 72
    12
 73
     8
 74
     0
 42
0.000000001
 43
0.00000001
 40
0.0
 40
0.0
 40
0.0
 40
0.0
 40
0.4999999999999982
 40
0.4999999999999982
 40
0.7499999999999991
 40
0.7499999999999991
 40
1.0
 40
1.0
 40
1.0
 40
1.0
 10
177.2466800472408
 20
160.8912498508662
 30
0.0
 10
177.2773794306081
 20
160.9303876932622
 30
0.0
 10
177.3187294987146
 20
160.9675474759877
 30
0.0
 10
177.4184854269341
 20
161.0174839816154
 30
0.0
 10
177.4581823446668
 20
161.0329368517592
 30
0.0
 10
177.5554404963144
 20
161.0568563953582
 30
0.0
 10
177.6162166543051
 20
161.0653394891366
 30
0.0
 10
177.6796927491331
 20
161.0653394891366
 30
0.0
  0
ELLIPSE
  5
B6
330
1F
100
AcDbEntity
  8
0
  6
Continuous
 62
     7
370
    25
100
AcDbEllipse
 10
190.2081935905
 20
137.2386083736
 30
0.0
 11
-11.70927234972697
 21
24.67718644093745
 31
0.0
210
0.0
220
0.0
230
1.0
 40
0.3419987131
 41
0.168929274589133
 42
1.080116497809152
  0
SPLINE
  5
B7
330
1F
100
AcDbEntity
  8
0
  6
Continuous
 62
     7
370
    25
100
AcDbSpline
210
0.0
220
0.0
230
1.0
 70
     8
 71
     3
 72
    12
 73
     8
 74
     0
 42
0.000000001
 43
0.00000001
 40
0.0
 40
0.0
 40
0.0
 40
0.0
 40
0.2499999999999984
 40
0.2499999999999984
 40
0.4999999999999968
 40
0.4999999999999968
 40
1.0
 40
1.0
 40
1.0
 40
1.0
 10
177.6796927491331
 20
113.4118772581327
 30
0.0
 10
177.6160561949194
 20
113.4118772581327
 30
0.0
 10
177.5564760680532
 20
113.4201340290644
 30
0.0
 10
177.4578393266868
 20
113.4443360910723
 30
0.0
 10
177.4188807023065
 20
113.4595829101064
 30
0.0
 10
177.3195017627986
 20
113.5091877821665
 30
0.0
 10
177.2775438576331
 20
113.5466194302853
 30
0.0
 10
177.2466800472407
 20
113.585966896403
 30
0.0
  0
LINE
  5
B8
330
1F
100
AcDbEntity
  8
0
  6
Continuous
 62
     7
370
    25
100
AcDbLine
 10
180.624179122
 20
113.4118772581
 30
0.0
 11
177.6796927491
 21
113.4118772581
 31
0.0
  0
SPLINE
  5
B9
330
1F
100
AcDbEntity
  8
0
  6
Continuous
 62
     7
370
    25
100
AcDbSpline
210
0.0
220
0.0
230
1.0
 70
     8
 71
     3
 72
    12
 73
     8
 74
     0
 42
0.000000001
 43
0.00000001
 40
0.0
 40
0.0
 40
0.0
 40
0.0
 40
0.5000000000000037
 40
0.5000000000000037
 40
0.7500000000000018
 40
0.7500000000000018
 40
1.0
 40
1.0
 40
1.0
 40
1.0
 10
181.0571918238924
 20
113.585966896403
 30
0.0
 10
181.0263401133282
 20
113.5466348560405
 30
0.0
 10
180.9844472498676
 20
113.5092230905123
 30
0.0
 10
180.8849263720743
 20
113.4595521658963
 30
0.0
 10
180.84531220735
 20
113.4441630832885
 30
0.0
 10
180.7482091735706
 20
113.4203298676213
 30
0.0
 10
180.6877105009202
 20
113.4118772581325
 30
0.0
 10
180.6241791220003
 20
113.4118772581325
 30
0.0
  0
ELLIPSE
  5
BA
330
1F
100
AcDbEntity
  8
0
  6
Continuous
 62
     7
370
    25
100
AcDbEllipse
 10
168.0956782806
 20
137.2386083736
 30
0.0
 11
-11.70927234972717
 21
24.67718644093745
 31
0.0
210
0.0
220
0.0
230
1.0
 40
0.3419987131
 41
3.310521928178954
 42
4.221709151398944
  0
SPLINE
  5
BB
330
1F
100
AcDbEntity
  8
0
  6
Continuous
 62
     7
370
    25
100
AcDbSpline
210
0.0
220
0.0
230
1.0
 70
     8
 71
     3
 72
    12
 73
     8
 74
     0
 42
0.000000001
 43
0.00000001
 40
0.0
 40
0.0
 40
0.0
 40
0.0
 40
0.2500000000000007
 40
0.2500000000000007
 40
0.5000000000000013
 40
0.5000000000000013
 40
1.0
 40
1.0
 40
1.0
 40
1.0
 10
180.6241791220002
 20
129.6697984044539
 30
0.0
 10
180.6878156762139
 20
129.6697984044539
 30
0.0
 10
180.7473958030801
 20
129.643751501396
 30
0.0
 10
180.8460325444465
 20
129.568264342496
 30
0.0
 10
180.8849911688268
 20
129.5210453039654
 30
0.0
 10
180.9843701083346
 20
129.3693056528718
 30
0.0
 10
181.0263280135001
 20
129.2571034286876
 30
0.0
 10
181.0571918238926
 20
129.1421553755904
 30
0.0
  0
LINE
  5
BC
330
1F
100
AcDbEntity
  8
0
  6
Continuous
 62
     7
370
    25
100
AcDbLine
 10
177.6796927491
 20
129.6697984045
 30
0.0
 11
180.624179122
 21
129.6697984045
 31
0.0
  0
SPLINE
  5
BD
330
1F
100
AcDbEntity
  8
0
  6
Continuous
 62
     7
370
    25
100
AcDbSpline
210
0.0
220
0.0
230
1.0
 70
     8
 71
     3
 72
    12
 73
     8
 74
     0
 42
0.000000001
 43
0.00000001
 40
0.0
 40
0.0
 40
0.0
 40
0.0
 40
0.4999999999999996
 40
0.4999999999999996
 40
0.7499999999999998
 40
0.7499999999999998
 40
1.0
 40
1.0
 40
1.0
 40
1.0
 10
177.2466800472408
 20
129.1421553755903
 30
0.0
 10
177.2775317578051
 20
129.2570583645272
 30
0.0
 10
177.3194246212657
 20
129.369197260576
 30
0.0
 10
177.4189454990589
 20
129.5211395421769
 30
0.0
 10
177.4585596637832
 20
129.5688041517018
 30
0.0
 10
177.5556626975626
 20
129.6431404823172
 30
0.0
 10
177.616161370213
 20
129.6697984044543
 30
0.0
 10
177.679692749133
 20
129.6697984044543
 30
0.0
  0
ELLIPSE
  5
BE
330
1F
100
AcDbEntity
  8
0
  6
Continuous
 62
     7
370
    25
100
AcDbEllipse
 10
190.2081935905
 20
137.2386083736
 30
0.0
 11
11.70927234972709
 21
24.67718644093745
 31
0.0
210
0.0
220
0.0
230
1.0
 40
0.3419987131
 41
2.061476155780655
 42
2.972663379000674
  0
LINE
  5
BF
330
1F
100
AcDbEntity
  8
0
  6
Continuous
 62
     7
370
    25
100
AcDbLine
 10
169.1519359356
 20
112.5386083736
 30
0.0
 11
169.1519359356
 21
161.9386083665
 31
0.0
  0
SPLINE
  5
C0
330
1F
100
AcDbEntity
  8
0
  6
Continuous
 62
     7
370
    25
100
AcDbSpline
210
0.0
220
0.0
230
1.0
 70
     8
 71
     3
 72
    16
 73
    12
 74
     0
 42
0.000000001
 43
0.00000001
 40
0.0
 40
0.0
 40
0.0
 40
0.0
 40
0.2500000000000001
 40
0.2500000000000001
 40
0.5000000000000001
 40
0.5000000000000001
 40
0.6250000000000001
 40
0.6250000000000001
 40
0.7500000000000002
 40
0.7500000000000002
 40
1.0
 40
1.0
 40
1.0
 40
1.0
 10
168.1110749074376
 20
119.8894510924421
 30
0.0
 10
168.1428028686302
 20
119.8886539756212
 30
0.0
 10
168.1774304589808
 20
119.8880629007659
 30
0.0
 10
168.2571242210444
 20
119.8870513753315
 30
0.0
 10
168.3021656810481
 20
119.8866512671566
 30
0.0
 10
168.3850184078985
 20
119.8856933952527
 30
0.0
 10
168.4149328690984
 20
119.8853117139923
 30
0.0
 10
168.4809191996563
 20
119.8842354999338
 30
0.0
 10
168.5176528251181
 20
119.8835179340396
 30
0.0
 10
168.6301495446879
 20
119.880757056358
 30
0.0
 10
168.7004908927862
 20
119.8782699644864
 30
0.0
 10
168.7569590466914
 20
119.8760966860793
 30
0.0
  0
SPLINE
  5
C1
330
1F
100
AcDbEntity
  8
0
  6
Continuous
 62
     7
370
    25
100
AcDbSpline
210
0.0
220
0.0
230
1.0
 70
     8
 71
     3
 72
    14
 73
    10
 74
     0
 42
0.000000001
 43
0.00000001
 40
0.0
 40
0.0
 40
0.0
 40
0.0
 40
0.1250000000000032
 40
0.1250000000000032
 40
0.2500000000000065
 40
0.2500000000000065
 40
0.5000000000000014
 40
0.5000000000000014
 40
1.0
 40
1.0
 40
1.0
 40
1.0
 10
168.7569590466597
 20
119.876096686102
 30
0.0
 10
168.7695508406045
 20
119.8756120682797
 30
0.0
 10
168.7844219488986
 20
119.8739018903473
 30
0.0
 10
168.8166060403318
 20
119.8657863415964
 30
0.0
 10
168.8322101718076
 20
119.8595705533351
 30
0.0
 10
168.8680973115197
 20
119.8413514416335
 30
0.0
 10
168.8819493527884
 20
119.8295864132999
 30
0.0
 10
168.915439094721
 20
119.7977912768826
 30
0.0
 10
168.9261013552967
 20
119.7799978450395
 30
0.0
 10
168.9342393121916
 20
119.7635667141951
 30
0.0
  0
LINE
  5
C2
330
1F
100
AcDbEntity
  8
0
  6
Continuous
 62
     7
370
    25
100
AcDbLine
 10
168.9519359356
 20
131.2541281411
 30
0.0
 11
168.9519359356
 21
119.3987880948
 31
0.0
  0
SPLINE
  5
C3
330
1F
100
AcDbEntity
  8
0
  6
Continuous
 62
     7
370
    25
100
AcDbSpline
210
0.0
220
0.0
230
1.0
 70
     8
 71
     3
 72
    16
 73
    12
 74
     0
 42
0.000000001
 43
0.00000001
 40
0.0
 40
0.0
 40
0.0
 40
0.0
 40
0.5000000000000011
 40
0.5000000000000011
 40
0.7499999999999999
 40
0.7499999999999999
 40
0.8749999999999999
 40
0.8749999999999999
 40
0.9375
 40
0.9375
 40
1.0
 40
1.0
 40
1.0
 40
1.0
 10
168.9519359355666
 20
131.2541281410601
 30
0.0
 10
168.9519359355666
 20
131.368657871759
 30
0.0
 10
168.9478786334516
 20
131.4839739469485
 30
0.0
 10
168.9222213906568
 20
131.6588970367761
 30
0.0
 10
168.9109059449146
 20
131.718726339771
 30
0.0
 10
168.876874577606
 20
131.8033175260192
 30
0.0
 10
168.8629955964022
 20
131.8319871121632
 30
0.0
 10
168.8270599146349
 20
131.8617948991096
 30
0.0
 10
168.8121095953721
 20
131.8681300524691
 30
0.0
 10
168.7822110826302
 20
131.8669045895989
 30
0.0
 10
168.768678222265
 20
131.8603060035641
 30
0.0
 10
168.756959046691
 20
131.8516583155076
 30
0.0
  0
SPLINE
  5
C4
330
1F
100
AcDbEntity
  8
0
  6
Continuous
 62
     7
370
    25
100
AcDbSpline
210
0.0
220
0.0
230
1.0
 70
     8
 71
     3
 72
    14
 73
    10
 74
     0
 42
0.000000001
 43
0.00000001
 40
0.0
 40
0.0
 40
0.0
 40
0.0
 40
0.25
 40
0.25
 40
0.5
 40
0.5
 40
0.75
 40
0.75
 40
1.0
 40
1.0
 40
1.0
 40
1.0
 10
168.7569590466978
 20
131.851658315499
 30
0.0
 10
168.7004993808141
 20
131.8099962058002
 30
0.0
 10
168.6296269059519
 20
131.779162725212
 30
0.0
 10
168.4811605480699
 20
131.7848772338252
 30
0.0
 10
168.4119653448621
 20
131.8204481612581
 30
0.0
 10
168.3022481587926
 20
131.907392073732
 30
0.0
 10
168.2570022698606
 20
131.9598243870971
 30
0.0
 10
168.1773851388937
 20
132.0683774686156
 30
0.0
 10
168.1427825194368
 20
132.1253605548581
 30
0.0
 10
168.111074907438
 20
132.183926637516
 30
0.0
  0
SPLINE
  5
C5
330
1F
100
AcDbEntity
  8
0
  6
Continuous
 62
     7
370
    25
100
AcDbSpline
210
0.0
220
0.0
230
1.0
 70
     8
 71
     3
 72
    10
 73
     6
 74
     0
 42
0.000000001
 43
0.00000001
 40
0.0
 40
0.0
 40
0.0
 40
0.0
 40
0.5
 40
0.5
 40
1.0
 40
1.0
 40
1.0
 40
1.0
 10
167.830615592007
 20
133.0367452291623
 30
0.0
 10
167.8614941584908
 20
132.8871167603007
 30
0.0
 10
167.8974868481806
 20
132.7406213933992
 30
0.0
 10
167.9868270821979
 20
132.4554297679034
 30
0.0
 10
168.0392853775112
 20
132.3165267066673
 30
0.0
 10
168.1110749074381
 20
132.1839266375158
 30
0.0
  0
SPLINE
  5
C6
330
1F
100
AcDbEntity
  8
0
  6
Continuous
 62
     7
370
    25
100
AcDbSpline
210
0.0
220
0.0
230
1.0
 70
     8
 71
     3
 72
    10
 73
     6
 74
     0
 42
0.000000001
 43
0.00000001
 40
0.0
 40
0.0
 40
0.0
 40
0.0
 40
0.5
 40
0.5
 40
1.0
 40
1.0
 40
1.0
 40
1.0
 10
168.1110749074374
 20
142.2932901097523
 30
0.0
 10
168.0392853775108
 20
142.160690040601
 30
0.0
 10
167.9868270821975
 20
142.0217869793651
 30
0.0
 10
167.8974868481804
 20
141.7365953538697
 30
0.0
 10
167.8614941584907
 20
141.5900999869684
 30
0.0
 10
167.830615592007
 20
141.4404715181071
 30
0.0
  0
SPLINE
  5
C7
330
1F
100
AcDbEntity
  8
0
  6
Continuous
 62
     7
370
    25
100
AcDbSpline
210
0.0
220
0.0
230
1.0
 70
     8
 71
     3
 72
    14
 73
    10
 74
     0
 42
0.000000001
 43
0.00000001
 40
0.0
 40
0.0
 40
0.0
 40
0.0
 40
0.25
 40
0.25
 40
0.5
 40
0.5
 40
0.75
 40
0.75
 40
1.0
 40
1.0
 40
1.0
 40
1.0
 10
168.1110749074368
 20
142.2932901097511
 30
0.0
 10
168.1427836069221
 20
142.3518582010697
 30
0.0
 10
168.1773914255628
 20
142.4088524630097
 30
0.0
 10
168.2570498360521
 20
142.5174525977737
 30
0.0
 10
168.3021121059469
 20
142.5697807331522
 30
0.0
 10
168.4126939515254
 20
142.6572817445145
 30
0.0
 10
168.4803380723406
 20
142.6923272007687
 30
0.0
 10
168.6305863627377
 20
142.6980715895248
 30
0.0
 10
168.7005387609681
 20
142.6671914824748
 30
0.0
 10
168.7569590466916
 20
142.6255584317617
 30
0.0
  0
SPLINE
  5
C8
330
1F
100
AcDbEntity
  8
0
  6
Continuous
 62
     7
370
    25
100
AcDbSpline
210
0.0
220
0.0
230
1.0
 70
     8
 71
     3
 72
    16
 73
    12
 74
     0
 42
0.000000001
 43
0.00000001
 40
0.0
 40
0.0
 40
0.0
 40
0.0
 40
0.0624999999999992
 40
0.0624999999999992
 40
0.1249999999999984
 40
0.1249999999999984
 40
0.2499999999999981
 40
0.2499999999999981
 40
0.4999999999999976
 40
0.4999999999999976
 40
1.0
 40
1.0
 40
1.0
 40
1.0
 10
168.7569590466597
 20
142.6255584317083
 30
0.0
 10
168.7686932811066
 20
142.6168996315641
 30
0.0
 10
168.7822250365856
 20
142.6102955463288
 30
0.0
 10
168.8122124970155
 20
142.6090985791546
 30
0.0
 10
168.8272072034238
 20
142.6155203262205
 30
0.0
 10
168.8629476258185
 20
142.6452374796299
 30
0.0
 10
168.8769609628197
 20
142.6740448770132
 30
0.0
 10
168.9111050516011
 20
142.7591245986391
 30
0.0
 10
168.9220769557194
 20
142.8174995479089
 30
0.0
 10
168.9479224959857
 20
142.9932150726975
 30
0.0
 10
168.9519359355666
 20
143.1090100805619
 30
0.0
 10
168.9519359355666
 20
143.2230886062093
 30
0.0
  0
LINE
  5
C9
330
1F
100
AcDbEntity
  8
0
  6
Continuous
 62
     7
370
    25
100
AcDbLine
 10
168.9519359356
 20
155.0784286525
 30
0.0
 11
168.9519359356
 21
143.2230886062
 31
0.0
  0
SPLINE
  5
CA
330
1F
100
AcDbEntity
  8
0
  6
Continuous
 62
     7
370
    25
100
AcDbSpline
210
0.0
220
0.0
230
1.0
 70
     8
 71
     3
 72
    14
 73
    10
 74
     0
 42
0.000000001
 43
0.00000001
 40
0.0
 40
0.0
 40
0.0
 40
0.0
 40
0.4999999999999946
 40
0.4999999999999946
 40
0.7499999999999931
 40
0.7499999999999931
 40
0.8749999999999966
 40
0.8749999999999966
 40
1.0
 40
1.0
 40
1.0
 40
1.0
 10
168.9393361546133
 20
154.7248706553196
 30
0.0
 10
168.9321015492353
 20
154.7073951340467
 30
0.0
 10
168.9218955969981
 20
154.6880458305269
 30
0.0
 10
168.889501704602
 20
154.6540763009362
 30
0.0
 10
168.8763464550085
 20
154.6416237394073
 30
0.0
 10
168.8400645562406
 20
154.6211788188513
 30
0.0
 10
168.824232058112
 20
154.6139830440433
 30
0.0
 10
168.7882563671241
 20
154.6038245228956
 30
0.0
 10
168.7710589638024
 20
154.6016627218428
 30
0.0
 10
168.7569590466873
 20
154.6011200611877
 30
0.0
  0
SPLINE
  5
CB
330
1F
100
AcDbEntity
  8
0
  6
Continuous
 62
     7
370
    25
100
AcDbSpline
210
0.0
220
0.0
230
1.0
 70
     8
 71
     3
 72
    14
 73
    10
 74
     0
 42
0.000000001
 43
0.00000001
 40
0.0
 40
0.0
 40
0.0
 40
0.0
 40
0.25
 40
0.25
 40
0.5
 40
0.5
 40
0.75
 40
0.75
 40
1.0
 40
1.0
 40
1.0
 40
1.0
 10
168.7569590466978
 20
154.6011200611902
 30
0.0
 10
168.7005119646395
 20
154.598947593771
 30
0.0
 10
168.6296615805967
 20
154.5964494958535
 30
0.0
 10
168.4812251457803
 20
154.5928030370653
 30
0.0
 10
168.4120358940934
 20
154.591835290214
 30
0.0
 10
168.3023243458525
 20
154.5905677308513
 30
0.0
 10
168.2570826965101
 20
154.590164889923
 30
0.0
 10
168.1774346783263
 20
154.5891538549953
 30
0.0
 10
168.1428077625602
 20
154.5885628946008
 30
0.0
 10
168.1110749074389
 20
154.5877656548273
 30
0.0
  0
SPLINE
  5
CC
330
1F
100
AcDbEntity
  8
0
  6
Continuous
 62
     7
370
    25
100
AcDbSpline
210
0.0
220
0.0
230
1.0
 70
     8
 71
     3
 72
    18
 73
    14
 74
     0
 42
0.000000001
 43
0.00000001
 40
0.0
 40
0.0
 40
0.0
 40
0.0
 40
0.2499999999999998
 40
0.2499999999999998
 40
0.3749999999999998
 40
0.3749999999999998
 40
0.4999999999999998
 40
0.4999999999999998
 40
0.6249999999999998
 40
0.6249999999999998
 40
0.7499999999999998
 40
0.7499999999999998
 40
1.0
 40
1.0
 40
1.0
 40
1.0
 10
167.830615592007
 20
141.4404715181071
 30
0.0
 10
167.6953299857046
 20
140.7849171826859
 30
0.0
 10
167.5941622394617
 20
140.1052960888883
 30
0.0
 10
167.4913008965927
 20
139.0499320823942
 30
0.0
 10
167.4651980510695
 20
138.6911180178096
 30
0.0
 10
167.4303080675246
 20
137.9650050736867
 30
0.0
 10
167.4217218092346
 20
137.6029153946706
 30
0.0
 10
167.421622099669
 20
136.8806057372522
 30
0.0
 10
167.4301104708175
 20
136.5203859351438
 30
0.0
 10
167.4642538503381
 20
135.8018198660499
 30
0.0
 10
167.4900508321919
 20
135.4420541501345
 30
0.0
 10
167.5934519635799
 20
134.3754095631401
 30
0.0
 10
167.6953099557513
 20
133.6923966238578
 30
0.0
 10
167.830615592007
 20
133.0367452291623
 30
0.0
  0
LINE
  5
CD
330
1F
100
AcDbEntity
  8
0
  6
Continuous
 62
     7
370
    25
100
AcDbLine
 10
166.9519359356
 20
142.3787608614
 30
0.0
 11
166.9519359356
 21
132.0984558858
 31
0.0
  0
LINE
  5
CE
330
1F
100
AcDbEntity
  8
0
  6
Continuous
 62
     7
370
    25
100
AcDbLine
 10
140.6519359356
 20
142.0483870901
 30
0.0
 11
140.6519359356
 21
132.4288296571
 31
0.0
  0
LINE
  5
CF
330
1F
100
AcDbEntity
  8
0
  6
Continuous
 62
     7
370
    25
100
AcDbLine
 10
139.1519359356
 20
141.6153743882
 30
0.0
 11
139.1519359356
 21
132.861842359
 31
0.0
  0
LINE
  5
D0
330
1F
100
AcDbEntity
  8
0
  6
Continuous
 62
     7
370
    25
100
AcDbLine
 10
140.6519359356
 20
120.3792571317
 30
0.0
 11
140.6519359356
 21
132.4288296571
 31
0.0
  0
LINE
  5
D1
330
1F
100
AcDbEntity
  8
0
  6
Continuous
 62
     7
370
    25
100
AcDbLine
 10
166.9519359356
 20
119.7185095891
 30
0.0
 11
166.9519359356
 21
132.0984558858
 31
0.0
  0
LINE
  5
D2
330
1F
100
AcDbEntity
  8
0
  6
Continuous
 62
     7
370
    25
100
AcDbLine
 10
140.6519359356
 20
120.3792571317
 30
0.0
 11
166.9519359356
 21
119.7185095891
 31
0.0
  0
ARC
  5
D3
330
1F
100
AcDbEntity
  8
0
  6
Continuous
 62
     7
370
    25
100
AcDbCircle
 10
167.1518728465
 20
119.7134864779
 30
0.0
 40
0.2000000000000063
100
AcDbArc
 50
88.5608333333
 51
178.5608333333
  0
LINE
  5
D4
330
1F
100
AcDbEntity
  8
0
  6
Continuous
 62
     7
370
    25
100
AcDbLine
 10
166.9519359356
 20
142.3787608614
 30
0.0
 11
166.9519359356
 21
154.7587071582
 31
0.0
  0
ARC
  5
D5
330
1F
100
AcDbEntity
  8
0
  6
Continuous
 62
     7
370
    25
100
AcDbCircle
 10
167.1518728465
 20
154.7637302693
 30
0.0
 40
0.2000000000000066
100
AcDbArc
 50
181.4391666667
 51
271.4391666667
  0
LINE
  5
D6
330
1F
100
AcDbEntity
  8
0
  6
Continuous
 62
     7
370
    25
100
AcDbLine
 10
140.6519359356
 20
142.0483870901
 30
0.0
 11
140.6519359356
 21
154.0979596156
 31
0.0
  0
LINE
  5
D7
330
1F
100
AcDbEntity
  8
0
  6
Continuous
 62
     7
370
    25
100
AcDbLine
 10
140.6519359356
 20
154.0979596156
 30
0.0
 11
166.9519359356
 21
154.7587071582
 31
0.0
  0
LINE
  5
D8
330
1F
100
AcDbEntity
  8
0
  6
Continuous
 62
     7
370
    25
100
AcDbLine
 10
167.1568959576
 20
119.9134233889
 30
0.0
 11
168.1110749074
 21
119.8894510924
 31
0.0
  0
LINE
  5
D9
330
1F
100
AcDbEntity
  8
0
  6
Continuous
 62
     7
370
    25
100
AcDbLine
 10
167.1568959576
 20
154.5637933584
 30
0.0
 11
168.1110749074
 21
154.5877656548
 31
0.0
  0
LINE
  5
DA
330
1F
100
AcDbEntity
  8
0
  6
Continuous
 62
     7
370
    25
100
AcDbLine
 10
139.1519359356
 20
153.2319342118
 30
0.0
 11
140.6519359356
 21
154.0979596156
 31
0.0
  0
LINE
  5
DB
330
1F
100
AcDbEntity
  8
0
  6
Continuous
 62
     7
370
    25
100
AcDbLine
 10
139.1519359356
 20
141.6153743882
 30
0.0
 11
139.1519359356
 21
153.2319342118
 31
0.0
  0
LINE
  5
DC
330
1F
100
AcDbEntity
  8
0
  6
Continuous
 62
     7
370
    25
100
AcDbLine
 10
139.1519359356
 20
121.2452825355
 30
0.0
 11
140.6519359356
 21
120.3792571317
 31
0.0
  0
LINE
  5
DD
330
1F
100
AcDbEntity
  8
0
  6
Continuous
 62
     7
370
    25
100
AcDbLine
 10
139.1519359356
 20
121.2452825355
 30
0.0
 11
139.1519359356
 21
132.861842359
 31
0.0
  0
LINE
  5
DE
330
1F
100
AcDbEntity
  8
0
  6
Continuous
 62
     7
370
    18
100
AcDbLine
 10
190.4221065278
 20
111.2386083736
 30
0.0
 11
190.4221065278
 21
163.2386083736
 31
0.0
  0
LINE
  5
DF
330
1F
100
AcDbEntity
  8
0
  6
Continuous
 62
     7
370
    18
100
AcDbLine
 10
189.9024912855
 20
111.5386083736
 30
0.0
 11
189.9024912855
 21
162.9386083736
 31
0.0
  0
LINE
  5
E0
330
1F
100
AcDbEntity
  8
0
  6
Continuous
 62
     7
370
    18
100
AcDbLine
 10
189.6715511778
 20
111.9386083736
 30
0.0
 11
189.6715511778
 21
162.5386083736
 31
0.0
  0
LINE
  5
E1
330
1F
100
AcDbEntity
  8
0
  6
Continuous
 62
     7
370
    18
100
AcDbLine
 10
189.1519359356
 20
112.2386083736
 30
0.0
 11
189.1519359356
 21
162.2386083736
 31
0.0
  0
LINE
  5
E2
330
1F
100
AcDbEntity
  8
0
  6
Continuous
 62
     7
370
    18
100
AcDbLine
 10
169.4519359356
 20
112.2386083736
 30
0.0
 11
169.4519359356
 21
162.2386083736
 31
0.0
  0
LINE
  5
E3
330
1F
100
AcDbEntity
  8
0
  6
Continuous
 62
     7
370
    18
100
AcDbLine
 10
181.0571918239
 20
160.8912498509
 30
0.0
 11
181.0571918239
 21
145.3350613717
 31
0.0
  0
LINE
  5
E4
330
1F
100
AcDbEntity
  8
0
  6
Continuous
 62
     7
370
    18
100
AcDbLine
 10
180.624179122
 20
161.0653394891
 30
0.0
 11
180.624179122
 21
144.8074183428
 31
0.0
  0
LINE
  5
E5
330
1F
100
AcDbEntity
  8
0
  6
Continuous
 62
     7
370
    18
100
AcDbLine
 10
177.2466800472
 20
129.1421553756
 30
0.0
 11
177.2466800472
 21
113.5859668964
 31
0.0
  0
LINE
  5
E6
330
1F
100
AcDbEntity
  8
0
  6
Continuous
 62
     7
370
    18
100
AcDbLine
 10
177.6796927491
 20
129.6697984045
 30
0.0
 11
177.6796927491
 21
113.4118772581
 31
0.0
  0
LINE
  5
E7
330
1F
100
AcDbEntity
  8
0
  6
Continuous
 62
     7
370
    18
100
AcDbLine
 10
180.624179122
 20
129.6697984045
 30
0.0
 11
180.624179122
 21
113.4118772581
 31
0.0
  0
LINE
  5
E8
330
1F
100
AcDbEntity
  8
0
  6
Continuous
 62
     7
370
    18
100
AcDbLine
 10
181.0571918239
 20
129.1421553756
 30
0.0
 11
181.0571918239
 21
113.5859668964
 31
0.0
  0
LINE
  5
E9
330
1F
100
AcDbEntity
  8
0
  6
Continuous
 62
     7
370
    18
100
AcDbLine
 10
177.6796927491
 20
161.0653394891
 30
0.0
 11
177.6796927491
 21
144.8074183428
 31
0.0
  0
LINE
  5
EA
330
1F
100
AcDbEntity
  8
0
  6
Continuous
 62
     7
370
    18
100
AcDbLine
 10
177.2466800472
 20
160.8912498509
 30
0.0
 11
177.2466800472
 21
145.3350613717
 31
0.0
  0
LINE
  5
EB
330
1F
100
AcDbEntity
  8
0
  6
Continuous
 62
     7
370
    18
100
AcDbLine
 10
167.830615592
 20
133.0367452292
 30
0.0
 11
167.830615592
 21
141.4404715181
 31
0.0
  0
LINE
  5
EC
330
1F
100
AcDbEntity
  8
0
  6
Continuous
 62
     7
370
    18
100
AcDbLine
 10
167.1568959576
 20
132.1959127857
 30
0.0
 11
168.1110749074
 21
132.1839266375
 31
0.0
  0
LINE
  5
ED
330
1F
100
AcDbEntity
  8
0
  6
Continuous
 62
     7
370
    18
100
AcDbLine
 10
167.1568959576
 20
142.2813039615
 30
0.0
 11
167.1568959576
 21
132.1959127857
 31
0.0
  0
LINE
  5
EE
330
1F
100
AcDbEntity
  8
0
  6
Continuous
 62
     7
370
    18
100
AcDbLine
 10
167.1568959576
 20
142.2813039615
 30
0.0
 11
168.1110749074
 21
142.2932901098
 31
0.0
  0
LWPOLYLINE
  5
EF
330
1F
100
AcDbEntity
  8
0
  6
Continuous
 62
     7
370
    18
100
AcDbPolyline
 90
        9
 70
   128
 43
0.0
 10
166.9519359356
 20
132.0984558858
 10
166.9567576276
 20
132.1179105052
 10
166.9690774881
 20
132.1365209767
 10
166.9884220717
 20
132.1535721105
 10
167.0140479769
 20
132.168408641
 10
167.0449704146
 20
132.1804604087
 10
167.0800010527
 20
132.1892642709
 10
167.1177936836
 20
132.1944819001
 10
167.1568959576
 20
132.1959127857
  0
LWPOLYLINE
  5
F0
330
1F
100
AcDbEntity
  8
0
  6
Continuous
 62
     7
370
    18
100
AcDbPolyline
 90
        9
 70
   128
 43
0.0
 10
166.9519359356
 20
142.3787608614
 10
166.9567576276
 20
142.3593062421
 10
166.9690774881
 20
142.3406957706
 10
166.9884220717
 20
142.3236446368
 10
167.0140479769
 20
142.3088081063
 10
167.0449704146
 20
142.2967563386
 10
167.0800010527
 20
142.2879524764
 10
167.1177936836
 20
142.2827348472
 10
167.1568959576
 20
142.2813039615
  0
LINE
  5
F1
330
1F
100
AcDbEntity
  8
0
  6
Continuous
 62
     7
370
    18
100
AcDbLine
 10
140.6519359356
 20
132.4288296571
 30
0.0
 11
166.9519359356
 21
132.0984558858
 31
0.0
  0
LINE
  5
F2
330
1F
100
AcDbEntity
  8
0
  6
Continuous
 62
     7
370
    18
100
AcDbLine
 10
140.6519359356
 20
142.0483870901
 30
0.0
 11
166.9519359356
 21
142.3787608614
 31
0.0
  0
LINE
  5
F3
330
1F
100
AcDbEntity
  8
0
  6
Continuous
 62
     7
370
    18
100
AcDbLine
 10
139.1519359356
 20
132.861842359
 30
0.0
 11
140.6519359356
 21
132.4288296571
 31
0.0
  0
LINE
  5
F4
330
1F
100
AcDbEntity
  8
0
  6
Continuous
 62
     7
370
    18
100
AcDbLine
 10
139.1519359356
 20
141.6153743882
 30
0.0
 11
140.6519359356
 21
142.0483870901
 31
0.0
  0
LINE
  5
F5
330
1F
100
AcDbEntity
  8
0
  6
Continuous
 62
     7
370
    18
100
AcDbLine
 10
167.1568959576
 20
119.9134233889
 30
0.0
 11
167.1568959576
 21
132.1959127857
 31
0.0
  0
LINE
  5
F6
330
1F
100
AcDbEntity
  8
0
  6
Continuous
 62
     7
370
    18
100
AcDbLine
 10
167.1568959576
 20
142.2813039615
 30
0.0
 11
167.1568959576
 21
154.5637933584
 31
0.0
  0
LINE
  5
F7
330
1F
100
AcDbEntity
  8
0
  6
Continuous
 62
     7
370
    18
100
AcDbLine
 10
168.7569590467
 20
119.8760966861
 30
0.0
 11
168.7569590467
 21
131.8516583155
 31
0.0
  0
LINE
  5
F8
330
1F
100
AcDbEntity
  8
0
  6
Continuous
 62
     7
370
    18
100
AcDbLine
 10
168.7569590467
 20
142.6255584318
 30
0.0
 11
168.7569590467
 21
154.6011200612
 31
0.0
  0
LINE
  5
F9
330
1F
100
AcDbEntity
  8
0
  6
HIDDEN
 62
     7
370
    18
100
AcDbLine
 10
244.1519359356
 20
162.2386083736
 30
0.0
 11
244.1519359356
 21
112.2386083736
 31
0.0
  0
LINE
  5
FA
330
1F
100
AcDbEntity
  8
0
  6
HIDDEN
 62
     7
370
    18
100
AcDbLine
 10
243.1519359356
 20
163.2386083736
 30
0.0
 11
243.1519359356
 21
111.2386083736
 31
0.0
  0
CIRCLE
  5
FB
330
1F
100
AcDbEntity
  8
0
  6
HIDDEN
 62
     7
370
    18
100
AcDbCircle
 10
200.1519359356
 20
137.2386083736
 30
0.0
 40
5.5
  0
CIRCLE
  5
FC
330
1F
100
AcDbEntity
  8
0
  6
HIDDEN
 62
     7
370
    18
100
AcDbCircle
 10
227.1519359356
 20
137.2386083736
 30
0.0
 40
5.5
  0
SPLINE
  5
FD
330
1F
100
AcDbEntity
  8
0
  6
HIDDEN
 62
     7
370
    18
100
AcDbSpline
210
0.0
220
0.0
230
1.0
 70
    11
 71
     3
 72
    58
 73
    54
 74
     0
 42
0.000000001
 43
0.00000001
 40
0.0
 40
0.0
 40
0.0
 40
0.0
 40
0.03125
 40
0.03125
 40
0.0625000000000001
 40
0.0625000000000001
 40
0.0937500000000001
 40
0.0937500000000001
 40
0.1250000000000001
 40
0.1250000000000001
 40
0.1875000000000003
 40
0.1875000000000003
 40
0.2500000000000004
 40
0.2500000000000004
 40
0.2812500000000005
 40
0.2812500000000005
 40
0.3125000000000006
 40
0.3125000000000006
 40
0.3437500000000007
 40
0.3437500000000007
 40
0.3750000000000008
 40
0.3750000000000008
 40
0.4062500000000008
 40
0.4062500000000008
 40
0.4375000000000009
 40
0.4375000000000009
 40
0.468750000000001
 40
0.468750000000001
 40
0.500000000000001
 40
0.500000000000001
 40
0.5625000000000011
 40
0.5625000000000011
 40
0.6250000000000012
 40
0.6250000000000012
 40
0.6562500000000011
 40
0.6562500000000011
 40
0.687500000000001
 40
0.687500000000001
 40
0.7187500000000009
 40
0.7187500000000009
 40
0.7500000000000009
 40
0.7500000000000009
 40
0.7812500000000008
 40
0.7812500000000008
 40
0.8125000000000007
 40
0.8125000000000007
 40
0.8437500000000006
 40
0.8437500000000006
 40
0.8750000000000004
 40
0.8750000000000004
 40
0.9375000000000003
 40
0.9375000000000003
 40
1.0
 40
1.0
 40
1.0
 40
1.0
 10
179.1519359355666
 20
137.2386083736347
 30
0.0
 10
179.1519359355666
 20
137.3707945589064
 30
0.0
 10
179.1649118275771
 20
137.5007612984512
 30
0.0
 10
179.215744129683
 20
137.7564406365833
 30
0.0
 10
179.2542212010044
 20
137.8834817284247
 30
0.0
 10
179.3546261621608
 20
138.1256599143653
 30
0.0
 10
179.4160604044801
 20
138.2405135729548
 30
0.0
 10
179.5611946706618
 20
138.4578786947606
 30
0.0
 10
179.6456365918092
 20
138.5607541668449
 30
0.0
 10
179.922308621419
 20
138.837372119262
 30
0.0
 10
180.1453547763872
 20
138.9863642390949
 30
0.0
 10
180.6266187749316
 20
139.1858880340862
 30
0.0
 10
180.8898766302515
 20
139.2384668985884
 30
0.0
 10
181.2813426615363
 20
139.238678672176
 30
0.0
 10
181.4138914051497
 20
139.2256877005865
 30
0.0
 10
181.670435714165
 20
139.1746514772967
 30
0.0
 10
181.7951316005367
 20
139.1368899358939
 30
0.0
 10
182.0373345709705
 20
139.0367303966005
 30
0.0
 10
182.1543979342211
 20
138.97413258685
 30
0.0
 10
182.3710842534672
 20
138.8294106028144
 30
0.0
 10
182.4720982215349
 20
138.7467864976461
 30
0.0
 10
182.6588914158204
 20
138.5601661270351
 30
0.0
 10
182.7416917797747
 20
138.4591177591439
 30
0.0
 10
182.8865702186693
 20
138.24260573827
 30
0.0
 10
182.9492210019966
 20
138.1257163830711
 30
0.0
 10
183.0496613963705
 20
137.8834589810122
 30
0.0
 10
183.0875204081405
 20
137.7587963161968
 30
0.0
 10
183.138758112604
 20
137.502465120542
 30
0.0
 10
183.1518884873771
 20
137.3698771811916
 30
0.0
 10
183.152030437816
 20
136.9782455126222
 30
0.0
 10
183.099689521568
 20
136.715032679588
 30
0.0
 10
182.9005592948298
 20
136.2335253488966
 30
0.0
 10
182.7517222071875
 20
136.0103248676211
 30
0.0
 10
182.4754101706481
 20
135.7334787876594
 30
0.0
 10
182.3726446333969
 20
135.6489666934406
 30
0.0
 10
182.1553277010431
 20
135.5035880967091
 30
0.0
 10
182.0405407905062
 20
135.4420726651073
 30
0.0
 10
181.7986213004003
 20
135.3415166048617
 30
0.0
 10
181.6714943979003
 20
135.3028778790271
 30
0.0
 10
181.4158255622641
 20
135.2518130121397
 30
0.0
 10
181.2859303568862
 20
135.2387385317634
 30
0.0
 10
181.0218555744618
 20
135.2384801304898
 30
0.0
 10
180.8915264349764
 20
135.2513561984528
 30
0.0
 10
180.6358371208326
 20
135.3019549897807
 30
0.0
 10
180.5089092544449
 20
135.3402603356184
 30
0.0
 10
180.2664569656028
 20
135.4405161680383
 30
0.0
 10
180.1515402716212
 20
135.5018671869503
 30
0.0
 10
179.9341494798507
 20
135.6467360225206
 30
0.0
 10
179.8311642001692
 20
135.7310999757899
 30
0.0
 10
179.5541998325119
 20
136.007626029576
 30
0.0
 10
179.4050675541534
 20
136.2304858715717
 30
0.0
 10
179.205115435439
 20
136.7115883916325
 30
0.0
 10
179.1519359355666
 20
136.9742360030912
 30
0.0
 10
179.1519359355666
 20
137.2386083736347
 30
0.0
  0
SPLINE
  5
FE
330
1F
100
AcDbEntity
  8
0
  6
HIDDEN
 62
     7
370
    18
100
AcDbSpline
210
0.0
220
0.0
230
1.0
 70
     8
 71
     3
 72
    12
 73
     8
 74
     0
 42
0.000000001
 43
0.00000001
 40
0.0
 40
0.0
 40
0.0
 40
0.0
 40
0.25
 40
0.25
 40
0.5
 40
0.5
 40
1.0
 40
1.0
 40
1.0
 40
1.0
 10
177.6796927491331
 20
129.6697984044541
 30
0.0
 10
177.6160275126026
 20
129.6697984044541
 30
0.0
 10
177.5564212803792
 20
129.6437262559744
 30
0.0
 10
177.4577607554483
 20
129.5681875051533
 30
0.0
 10
177.4187937654331
 20
129.5209365680571
 30
0.0
 10
177.3194069335086
 20
129.3691127500907
 30
0.0
 10
177.2773306860852
 20
129.2563095003256
 30
0.0
 10
177.2466800472408
 20
129.1421553755905
 30
0.0
  0
LINE
  5
FF
330
1F
100
AcDbEntity
  8
0
  6
HIDDEN
 62
     7
370
    18
100
AcDbLine
 10
180.624179122
 20
129.6697984045
 30
0.0
 11
177.6796927491
 21
129.6697984045
 31
0.0
  0
SPLINE
  5
100
330
1F
100
AcDbEntity
  8
0
  6
HIDDEN
 62
     7
370
    18
100
AcDbSpline
210
0.0
220
0.0
230
1.0
 70
     8
 71
     3
 72
    12
 73
     8
 74
     0
 42
0.000000001
 43
0.00000001
 40
0.0
 40
0.0
 40
0.0
 40
0.0
 40
0.5000000000000004
 40
0.5000000000000004
 40
0.7500000000000002
 40
0.7500000000000002
 40
1.0
 40
1.0
 40
1.0
 40
1.0
 10
181.0571918238924
 20
129.1421553755905
 30
0.0
 10
181.0264924405251
 20
129.2564910426543
 30
0.0
 10
180.9851423724186
 20
129.3678443954957
 30
0.0
 10
180.8853864441991
 20
129.5205811677444
 30
0.0
 10
180.8456895264664
 20
129.5684410535966
 30
0.0
 10
180.7484313748188
 20
129.643044166946
 30
0.0
 10
180.6876552168281
 20
129.6697984044541
 30
0.0
 10
180.6241791220002
 20
129.6697984044541
 30
0.0
  0
ELLIPSE
  5
101
330
1F
100
AcDbEntity
  8
0
  6
HIDDEN
 62
     7
370
    18
100
AcDbEllipse
 10
168.0956782806
 20
137.2386083736
 30
0.0
 11
-11.70927234972714
 21
24.67718644093745
 31
0.0
210
0.0
220
0.0
230
1.0
 40
0.3419987131
 41
3.310521928178959
 42
4.221709151398949
  0
SPLINE
  5
102
330
1F
100
AcDbEntity
  8
0
  6
HIDDEN
 62
     7
370
    18
100
AcDbSpline
210
0.0
220
0.0
230
1.0
 70
     8
 71
     3
 72
    12
 73
     8
 74
     0
 42
0.000000001
 43
0.00000001
 40
0.0
 40
0.0
 40
0.0
 40
0.0
 40
0.2500000000000007
 40
0.2500000000000007
 40
0.5000000000000014
 40
0.5000000000000014
 40
1.0
 40
1.0
 40
1.0
 40
1.0
 10
180.6241791220002
 20
113.4118772581327
 30
0.0
 10
180.6878443585307
 20
113.4118772581327
 30
0.0
 10
180.7474505907541
 20
113.4201420337986
 30
0.0
 10
180.8461111156849
 20
113.4443608153818
 30
0.0
 10
180.8850781057002
 20
113.4596181346909
 30
0.0
 10
180.9844649376246
 20
113.5092514889528
 30
0.0
 10
181.026541185048
 20
113.5468911971269
 30
0.0
 10
181.0571918238924
 20
113.5859668964031
 30
0.0
  0
LINE
  5
103
330
1F
100
AcDbEntity
  8
0
  6
HIDDEN
 62
     7
370
    18
100
AcDbLine
 10
177.6796927491
 20
113.4118772581
 30
0.0
 11
180.624179122
 21
113.4118772581
 31
0.0
  0
SPLINE
  5
104
330
1F
100
AcDbEntity
  8
0
  6
HIDDEN
 62
     7
370
    18
100
AcDbSpline
210
0.0
220
0.0
230
1.0
 70
     8
 71
     3
 72
    12
 73
     8
 74
     0
 42
0.000000001
 43
0.00000001
 40
0.0
 40
0.0
 40
0.0
 40
0.0
 40
0.5
 40
0.5
 40
0.75
 40
0.75
 40
1.0
 40
1.0
 40
1.0
 40
1.0
 10
177.2466800472408
 20
113.5859668964031
 30
0.0
 10
177.2773794306081
 20
113.5468290540072
 30
0.0
 10
177.3187294987147
 20
113.5096692712817
 30
0.0
 10
177.4184854269341
 20
113.4597327656539
 30
0.0
 10
177.4581823446668
 20
113.4442798955102
 30
0.0
 10
177.5554404963144
 20
113.4203603519111
 30
0.0
 10
177.6162166543051
 20
113.4118772581327
 30
0.0
 10
177.6796927491331
 20
113.4118772581327
 30
0.0
  0
ELLIPSE
  5
105
330
1F
100
AcDbEntity
  8
0
  6
HIDDEN
 62
     7
370
    18
100
AcDbEllipse
 10
190.2081935905
 20
137.2386083736
 30
0.0
 11
11.709272349727
 21
24.67718644093745
 31
0.0
210
0.0
220
0.0
230
1.0
 40
0.3419987131
 41
2.061476155780648
 42
2.972663379000666
  0
SPLINE
  5
106
330
1F
100
AcDbEntity
  8
0
  6
HIDDEN
 62
     7
370
    18
100
AcDbSpline
210
0.0
220
0.0
230
1.0
 70
     8
 71
     3
 72
    12
 73
     8
 74
     0
 42
0.000000001
 43
0.00000001
 40
0.0
 40
0.0
 40
0.0
 40
0.0
 40
0.2499999999999993
 40
0.2499999999999993
 40
0.4999999999999987
 40
0.4999999999999987
 40
1.0
 40
1.0
 40
1.0
 40
1.0
 10
177.6796927491331
 20
161.0653394891368
 30
0.0
 10
177.6160275126026
 20
161.0653394891368
 30
0.0
 10
177.5564212803792
 20
161.0570747134709
 30
0.0
 10
177.4577607554483
 20
161.0328559318877
 30
0.0
 10
177.4187937654331
 20
161.0175986125786
 30
0.0
 10
177.3194069335086
 20
160.9679652583167
 30
0.0
 10
177.2773306860852
 20
160.9303255501426
 30
0.0
 10
177.2466800472408
 20
160.8912498508664
 30
0.0
  0
LINE
  5
107
330
1F
100
AcDbEntity
  8
0
  6
HIDDEN
 62
     7
370
    18
100
AcDbLine
 10
180.624179122
 20
161.0653394891
 30
0.0
 11
177.6796927491
 21
161.0653394891
 31
0.0
  0
SPLINE
  5
108
330
1F
100
AcDbEntity
  8
0
  6
HIDDEN
 62
     7
370
    18
100
AcDbSpline
210
0.0
220
0.0
230
1.0
 70
     8
 71
     3
 72
    12
 73
     8
 74
     0
 42
0.000000001
 43
0.00000001
 40
0.0
 40
0.0
 40
0.0
 40
0.0
 40
0.5000000000000004
 40
0.5000000000000004
 40
0.7500000000000002
 40
0.7500000000000002
 40
1.0
 40
1.0
 40
1.0
 40
1.0
 10
181.0571918238924
 20
160.8912498508664
 30
0.0
 10
181.0264924405251
 20
160.9303876932623
 30
0.0
 10
180.9851423724186
 20
160.9675474759878
 30
0.0
 10
180.8853864441991
 20
161.0174839816156
 30
0.0
 10
180.8456895264664
 20
161.0329368517593
 30
0.0
 10
180.7484313748188
 20
161.0568563953584
 30
0.0
 10
180.6876552168281
 20
161.0653394891368
 30
0.0
 10
180.6241791220002
 20
161.0653394891368
 30
0.0
  0
ELLIPSE
  5
109
330
1F
100
AcDbEntity
  8
0
  6
HIDDEN
 62
     7
370
    18
100
AcDbEllipse
 10
168.0956782806
 20
137.2386083736
 30
0.0
 11
11.70927234972723
 21
24.67718644093745
 31
0.0
210
0.0
220
0.0
230
1.0
 40
0.3419987131
 41
5.203068809370468
 42
6.114256032590513
  0
SPLINE
  5
10A
330
1F
100
AcDbEntity
  8
0
  6
HIDDEN
 62
     7
370
    18
100
AcDbSpline
210
0.0
220
0.0
230
1.0
 70
     8
 71
     3
 72
    12
 73
     8
 74
     0
 42
0.000000001
 43
0.00000001
 40
0.0
 40
0.0
 40
0.0
 40
0.0
 40
0.2500000000000002
 40
0.2500000000000002
 40
0.5000000000000004
 40
0.5000000000000004
 40
1.0
 40
1.0
 40
1.0
 40
1.0
 10
180.6241791220002
 20
144.8074183428156
 30
0.0
 10
180.6878443585307
 20
144.8074183428156
 30
0.0
 10
180.7474505907541
 20
144.8334904912953
 30
0.0
 10
180.8461111156849
 20
144.9090292421164
 30
0.0
 10
180.8850781057002
 20
144.9562801792126
 30
0.0
 10
180.9844649376246
 20
145.1081039971791
 30
0.0
 10
181.026541185048
 20
145.2209072469441
 30
0.0
 10
181.0571918238924
 20
145.3350613716792
 30
0.0
  0
LINE
  5
10B
330
1F
100
AcDbEntity
  8
0
  6
HIDDEN
 62
     7
370
    18
100
AcDbLine
 10
177.6796927491
 20
144.8074183428
 30
0.0
 11
180.624179122
 21
144.8074183428
 31
0.0
  0
SPLINE
  5
10C
330
1F
100
AcDbEntity
  8
0
  6
HIDDEN
 62
     7
370
    18
100
AcDbSpline
210
0.0
220
0.0
230
1.0
 70
     8
 71
     3
 72
    12
 73
     8
 74
     0
 42
0.000000001
 43
0.00000001
 40
0.0
 40
0.0
 40
0.0
 40
0.0
 40
0.4999999999999996
 40
0.4999999999999996
 40
0.7499999999999998
 40
0.7499999999999998
 40
1.0
 40
1.0
 40
1.0
 40
1.0
 10
177.2466800472408
 20
145.3350613716792
 30
0.0
 10
177.2773794306081
 20
145.2207257046154
 30
0.0
 10
177.3187294987147
 20
145.109372351774
 30
0.0
 10
177.4184854269341
 20
144.9566355795253
 30
0.0
 10
177.4581823446668
 20
144.9087756936732
 30
0.0
 10
177.5554404963144
 20
144.8341725803237
 30
0.0
 10
177.6162166543051
 20
144.8074183428156
 30
0.0
 10
177.6796927491331
 20
144.8074183428156
 30
0.0
  0
ELLIPSE
  5
10D
330
1F
100
AcDbEntity
  8
0
  6
HIDDEN
 62
     7
370
    18
100
AcDbEllipse
 10
190.2081935905
 20
137.2386083736
 30
0.0
 11
-11.70927234972714
 21
24.67718644093745
 31
0.0
210
0.0
220
0.0
230
1.0
 40
0.3419987131
 41
0.1689292745891129
 42
1.080116497809134
  0
LINE
  5
10E
330
1F
100
AcDbEntity
  8
0
  6
HIDDEN
 62
     7
370
    18
100
AcDbLine
 10
169.1519359356
 20
161.9386083665
 30
0.0
 11
169.1519359356
 21
112.5386083736
 31
0.0
  0
LINE
  5
10F
330
1F
100
AcDbEntity
  8
0
  6
HIDDEN
 62
     7
370
    18
100
AcDbLine
 10
169.1519359356
 20
117.6886083736
 30
0.0
 11
169.1519359356
 21
156.7723388508
 31
0.0
  0
SPLINE
  5
110
330
1F
100
AcDbEntity
  8
0
  6
HIDDEN
 62
     7
370
    18
100
AcDbSpline
210
0.0
220
0.0
230
1.0
 70
     8
 71
     3
 72
    14
 73
    10
 74
     0
 42
0.000000001
 43
0.00000001
 40
0.0
 40
0.0
 40
0.0
 40
0.0
 40
0.25
 40
0.25
 40
0.5
 40
0.5
 40
0.75
 40
0.75
 40
1.0
 40
1.0
 40
1.0
 40
1.0
 10
168.1110749074382
 20
149.5330839187081
 30
0.0
 10
168.142790041769
 20
149.4753007363649
 30
0.0
 10
168.1774045670693
 20
149.41888807529
 30
0.0
 10
168.2570757624847
 20
149.3112886252746
 30
0.0
 10
168.3021316395151
 20
149.2593759983535
 30
0.0
 10
168.4126860520205
 20
149.1731773736563
 30
0.0
 10
168.4800714662246
 20
149.1390879536845
 30
0.0
 10
168.6307009861227
 20
149.1369855616677
 30
0.0
 10
168.7005282228881
 20
149.1703573345125
 30
0.0
 10
168.7569590466915
 20
149.2141700030631
 30
0.0
  0
SPLINE
  5
111
330
1F
100
AcDbEntity
  8
0
  6
HIDDEN
 62
     7
370
    18
100
AcDbSpline
210
0.0
220
0.0
230
1.0
 70
     8
 71
     3
 72
    16
 73
    12
 74
     0
 42
0.000000001
 43
0.00000001
 40
0.0
 40
0.0
 40
0.0
 40
0.0
 40
0.0624999999999997
 40
0.0624999999999997
 40
0.1249999999999994
 40
0.1249999999999994
 40
0.2500000000000009
 40
0.2500000000000009
 40
0.499999999999999
 40
0.499999999999999
 40
1.0
 40
1.0
 40
1.0
 40
1.0
 10
168.7569590466597
 20
149.2141700030938
 30
0.0
 10
168.7686932811066
 20
149.2232804163417
 30
0.0
 10
168.7822250365856
 20
149.2313577722881
 30
0.0
 10
168.8122124970155
 20
149.239604613965
 30
0.0
 10
168.8272072034237
 20
149.2386772963775
 30
0.0
 10
168.8629476258185
 20
149.2259107768457
 30
0.0
 10
168.8769609628197
 20
149.2082621303353
 30
0.0
 10
168.911105051601
 20
149.1536092103038
 30
0.0
 10
168.9220769557194
 20
149.1122095426453
 30
0.0
 10
168.9479224959857
 20
148.9837197989225
 30
0.0
 10
168.9519359355666
 20
148.8931017112838
 30
0.0
 10
168.9519359355666
 20
148.8008826067297
 30
0.0
  0
LINE
  5
112
330
1F
100
AcDbEntity
  8
0
  6
HIDDEN
 62
     7
370
    18
100
AcDbLine
 10
168.9519359356
 20
125.6763341405
 30
0.0
 11
168.9519359356
 21
148.8008826067
 31
0.0
  0
SPLINE
  5
113
330
1F
100
AcDbEntity
  8
0
  6
HIDDEN
 62
     7
370
    18
100
AcDbSpline
210
0.0
220
0.0
230
1.0
 70
     8
 71
     3
 72
    16
 73
    12
 74
     0
 42
0.000000001
 43
0.00000001
 40
0.0
 40
0.0
 40
0.0
 40
0.0
 40
0.4999999999999996
 40
0.4999999999999996
 40
0.7500000000000018
 40
0.7500000000000018
 40
0.8750000000000029
 40
0.8750000000000029
 40
0.9375000000000013
 40
0.9375000000000013
 40
1.0
 40
1.0
 40
1.0
 40
1.0
 10
168.9519359355666
 20
125.6763341405397
 30
0.0
 10
168.9519359355666
 20
125.5837502896358
 30
0.0
 10
168.9478786334516
 20
125.4935378337755
 30
0.0
 10
168.9222213906568
 20
125.3655967066571
 30
0.0
 10
168.9109059449146
 20
125.3231834922452
 30
0.0
 10
168.876874577606
 20
125.268869448794
 30
0.0
 10
168.8629955964022
 20
125.2512881134042
 30
0.0
 10
168.8270599146348
 20
125.2385044254692
 30
0.0
 10
168.8121095953721
 20
125.2376289273211
 30
0.0
 10
168.7822110826302
 20
125.2458743624405
 30
0.0
 10
168.768678222265
 20
125.2539480226122
 30
0.0
 10
168.756959046691
 20
125.2630467442063
 30
0.0
  0
SPLINE
  5
114
330
1F
100
AcDbEntity
  8
0
  6
HIDDEN
 62
     7
370
    18
100
AcDbSpline
210
0.0
220
0.0
230
1.0
 70
     8
 71
     3
 72
    14
 73
    10
 74
     0
 42
0.000000001
 43
0.00000001
 40
0.0
 40
0.0
 40
0.0
 40
0.0
 40
0.25
 40
0.25
 40
0.5
 40
0.5
 40
0.75
 40
0.75
 40
1.0
 40
1.0
 40
1.0
 40
1.0
 10
168.7569590466978
 20
125.2630467442149
 30
0.0
 10
168.700503282089
 20
125.3068787767096
 30
0.0
 10
168.6296376558391
 20
125.3402098131315
 30
0.0
 10
168.4811805746665
 20
125.338150802984
 30
0.0
 10
168.411987215359
 20
125.3035547785823
 30
0.0
 10
168.3022717772248
 20
125.2178894219195
 30
0.0
 10
168.2570271978934
 20
125.1658669772114
 30
0.0
 10
168.1774004884697
 20
125.0583187168815
 30
0.0
 10
168.1427903399362
 20
125.0019165541485
 30
0.0
 10
168.111074907437
 20
124.944132828559
 30
0.0
  0
SPLINE
  5
115
330
1F
100
AcDbEntity
  8
0
  6
HIDDEN
 62
     7
370
    18
100
AcDbSpline
210
0.0
220
0.0
230
1.0
 70
     8
 71
     3
 72
    10
 73
     6
 74
     0
 42
0.000000001
 43
0.00000001
 40
0.0
 40
0.0
 40
0.0
 40
0.0
 40
0.5
 40
0.5
 40
1.0
 40
1.0
 40
1.0
 40
1.0
 10
168.1110749074375
 20
124.94413282856
 30
0.0
 10
168.0392951195141
 20
124.8133541116581
 30
0.0
 10
167.986835605206
 20
124.6792539621549
 30
0.0
 10
167.8974925411049
 20
124.4111613991662
 30
0.0
 10
167.8614969316051
 20
124.2769160275773
 30
0.0
 10
167.830615592007
 20
124.1435616501023
 30
0.0
  0
SPLINE
  5
116
330
1F
100
AcDbEntity
  8
0
  6
HIDDEN
 62
     7
370
    18
100
AcDbSpline
210
0.0
220
0.0
230
1.0
 70
     8
 71
     3
 72
    10
 73
     6
 74
     0
 42
0.000000001
 43
0.00000001
 40
0.0
 40
0.0
 40
0.0
 40
0.0
 40
0.5
 40
0.5
 40
1.0
 40
1.0
 40
1.0
 40
1.0
 10
167.830615592007
 20
119.9416985056299
 30
0.0
 10
167.8614886238192
 20
119.9254153582627
 30
0.0
 10
167.8974754867322
 20
119.9131577685372
 30
0.0
 10
167.9868100726233
 20
119.8960547797084
 30
0.0
 10
168.0392659320459
 20
119.8912551838501
 30
0.0
 10
168.1110749074382
 20
119.8894510924421
 30
0.0
  0
SPLINE
  5
117
330
1F
100
AcDbEntity
  8
0
  6
HIDDEN
 62
     7
370
    18
100
AcDbSpline
210
0.0
220
0.0
230
1.0
 70
     8
 71
     3
 72
     8
 73
     4
 74
     0
 42
0.000000001
 43
0.00000001
 40
0.0
 40
0.0
 40
0.0
 40
0.0
 40
1.0
 40
1.0
 40
1.0
 40
1.0
 10
168.9342393121916
 20
119.7635667141951
 30
0.0
 10
168.9482261207337
 20
119.7353263236134
 30
0.0
 10
168.9519359355664
 20
119.7121942808026
 30
0.0
 10
168.9519359355667
 20
119.6918539079675
 30
0.0
  0
LINE
  5
118
330
1F
100
AcDbEntity
  8
0
  6
HIDDEN
 62
     7
370
    18
100
AcDbLine
 10
168.9519359356
 20
119.3987880948
 30
0.0
 11
168.9519359356
 21
119.691853908
 31
0.0
  0
LINE
  5
119
330
1F
100
AcDbEntity
  8
0
  6
HIDDEN
 62
     7
370
    18
100
AcDbLine
 10
168.9519359356
 20
154.7853628393
 30
0.0
 11
168.9519359356
 21
155.0784286525
 31
0.0
  0
SPLINE
  5
11A
330
1F
100
AcDbEntity
  8
0
  6
HIDDEN
 62
     7
370
    18
100
AcDbSpline
210
0.0
220
0.0
230
1.0
 70
     8
 71
     3
 72
     8
 73
     4
 74
     0
 42
0.000000001
 43
0.00000001
 40
0.0
 40
0.0
 40
0.0
 40
0.0
 40
1.0
 40
1.0
 40
1.0
 40
1.0
 10
168.9519359355668
 20
154.7853628393023
 30
0.0
 10
168.9519359355665
 20
154.7677954978313
 30
0.0
 10
168.948941587333
 20
154.7480730188292
 30
0.0
 10
168.9393361546133
 20
154.7248706553196
 30
0.0
  0
SPLINE
  5
11B
330
1F
100
AcDbEntity
  8
0
  6
HIDDEN
 62
     7
370
    18
100
AcDbSpline
210
0.0
220
0.0
230
1.0
 70
     8
 71
     3
 72
    10
 73
     6
 74
     0
 42
0.000000001
 43
0.00000001
 40
0.0
 40
0.0
 40
0.0
 40
0.0
 40
0.5
 40
0.5
 40
1.0
 40
1.0
 40
1.0
 40
1.0
 10
168.111074907439
 20
154.5877656548273
 30
0.0
 10
168.0392659320464
 20
154.5859615634194
 30
0.0
 10
167.9868100726237
 20
154.581161967561
 30
0.0
 10
167.8974754867323
 20
154.5640589787323
 30
0.0
 10
167.8614886238193
 20
154.5518013890067
 30
0.0
 10
167.830615592007
 20
154.5355182416395
 30
0.0
  0
SPLINE
  5
11C
330
1F
100
AcDbEntity
  8
0
  6
HIDDEN
 62
     7
370
    18
100
AcDbSpline
210
0.0
220
0.0
230
1.0
 70
     8
 71
     3
 72
    10
 73
     6
 74
     0
 42
0.000000001
 43
0.00000001
 40
0.0
 40
0.0
 40
0.0
 40
0.0
 40
0.5
 40
0.5
 40
1.0
 40
1.0
 40
1.0
 40
1.0
 10
167.830615592007
 20
150.3336550971671
 30
0.0
 10
167.8614969316052
 20
150.2003007196919
 30
0.0
 10
167.897492541105
 20
150.0660553481027
 30
0.0
 10
167.9868356052063
 20
149.7979627851136
 30
0.0
 10
168.0392951195145
 20
149.6638626356101
 30
0.0
 10
168.1110749074382
 20
149.5330839187081
 30
0.0
  0
LINE
  5
11D
330
1F
100
AcDbEntity
  8
0
  6
HIDDEN
 62
     7
370
    18
100
AcDbLine
 10
244.1519359356
 20
120.0386083736
 30
0.0
 11
244.1519359356
 21
154.4386083736
 31
0.0
  0
LINE
  5
11E
330
1F
100
AcDbEntity
  8
0
  6
HIDDEN
 62
     7
370
    18
100
AcDbLine
 10
168.9519359356
 20
119.691853908
 30
0.0
 11
168.9519359356
 21
131.2541281411
 31
0.0
  0
LINE
  5
11F
330
1F
100
AcDbEntity
  8
0
  6
HIDDEN
 62
     7
370
    18
100
AcDbLine
 10
168.9519359356
 20
143.2230886062
 30
0.0
 11
168.9519359356
 21
154.7853628393
 31
0.0
  0
LINE
  5
120
330
1F
100
AcDbEntity
  8
0
  6
HIDDEN
 62
     7
370
    18
100
AcDbLine
 10
181.1519359356
 20
153.1386083736
 30
0.0
 11
181.1519359356
 21
121.3386083736
 31
0.0
  0
LINE
  5
121
330
1F
100
AcDbEntity
  8
0
  6
HIDDEN
 62
     7
370
    18
100
AcDbLine
 10
187.1519359356
 20
153.2386083736
 30
0.0
 11
187.1519359356
 21
121.2386083736
 31
0.0
  0
SPLINE
  5
122
330
1F
100
AcDbEntity
  8
0
  6
HIDDEN
 62
     7
370
    18
100
AcDbSpline
210
0.0
220
0.0
230
1.0
 70
    11
 71
     3
 72
    85
 73
    81
 74
     0
 42
0.000000001
 43
0.00000001
 40
0.0
 40
0.0
 40
0.0
 40
0.0
 40
0.0312499999999998
 40
0.0312499999999998
 40
0.0624999999999997
 40
0.0624999999999997
 40
0.0937499999999995
 40
0.0937499999999995
 40
0.1093749999999997
 40
0.1093749999999997
 40
0.1249999999999998
 40
0.1249999999999998
 40
0.1562500000000001
 40
0.1562500000000001
 40
0.1875000000000005
 40
0.1875000000000005
 40
0.2031250000000006
 40
0.2031250000000006
 40
0.2187500000000007
 40
0.2187500000000007
 40
0.2500000000000011
 40
0.2500000000000011
 40
0.2812500000000014
 40
0.2812500000000014
 40
0.3125000000000017
 40
0.3125000000000017
 40
0.3437500000000021
 40
0.3437500000000021
 40
0.3593750000000021
 40
0.3593750000000021
 40
0.3750000000000021
 40
0.3750000000000021
 40
0.4062500000000022
 40
0.4062500000000022
 40
0.4375000000000023
 40
0.4375000000000023
 40
0.4687500000000024
 40
0.4687500000000024
 40
0.4843750000000028
 40
0.4843750000000028
 40
0.5000000000000031
 40
0.5156250000000034
 40
0.5156250000000034
 40
0.5312500000000038
 40
0.5312500000000038
 40
0.562500000000004
 40
0.562500000000004
 40
0.5937500000000041
 40
0.5937500000000041
 40
0.6250000000000043
 40
0.6250000000000043
 40
0.6562500000000044
 40
0.6562500000000044
 40
0.6718750000000042
 40
0.6718750000000042
 40
0.6875000000000039
 40
0.6875000000000039
 40
0.7187500000000032
 40
0.7187500000000032
 40
0.7500000000000027
 40
0.7500000000000027
 40
0.7812500000000021
 40
0.7812500000000021
 40
0.7968750000000019
 40
0.7968750000000019
 40
0.8125000000000016
 40
0.8125000000000016
 40
0.843750000000001
 40
0.843750000000001
 40
0.8750000000000006
 40
0.8750000000000006
 40
0.9062500000000003
 40
0.9062500000000003
 40
0.9375000000000002
 40
0.9375000000000002
 40
0.9531250000000001
 40
0.9531250000000001
 40
0.96875
 40
0.96875
 40
1.0
 40
1.0
 40
1.0
 40
1.0
 10
227.1519359355666
 20
131.7386083736347
 30
0.0
 10
226.7855399423321
 20
131.7386083736347
 30
0.0
 10
226.4258755469805
 20
131.7748491632935
 30
0.0
 10
225.7192548091224
 20
131.9162730604106
 30
0.0
 10
225.3685554483907
 20
132.0233315092299
 30
0.0
 10
224.7040591892848
 20
132.30024243241
 30
0.0
 10
224.3893452893267
 20
132.4692726176443
 30
0.0
 10
223.9426241148909
 20
132.7684366436352
 30
0.0
 10
223.7973085746862
 20
132.8764289996041
 30
0.0
 10
223.520381457485
 20
133.1041258553126
 30
0.0
 10
223.3883632186534
 20
133.2239896082381
 30
0.0
 10
223.0110354011962
 20
133.6013681461649
 30
0.0
 10
222.7842500364358
 20
133.8764758230881
 30
0.0
 10
222.3818511421928
 20
134.4769229344625
 30
0.0
 10
222.2129260408362
 20
134.792317406149
 30
0.0
 10
222.0063468369096
 20
135.2879796577474
 30
0.0
 10
221.9453495701291
 20
135.4569889452682
 30
0.0
 10
221.8395532352739
 20
135.8028857632663
 30
0.0
 10
221.7946512089867
 20
135.9806748462702
 30
0.0
 10
221.6877965765468
 20
136.514200568
 30
0.0
 10
221.6521784361003
 20
136.8730103930304
 30
0.0
 10
221.6516958792894
 20
137.5968733030953
 30
0.0
 10
221.6880970263843
 20
137.9643982224395
 30
0.0
 10
221.8298302658284
 20
138.6723090991219
 30
0.0
 10
221.9346709493679
 20
139.0167296260201
 30
0.0
 10
222.2133765408989
 20
139.6865054772196
 30
0.0
 10
222.3840506360534
 20
140.003506010187
 30
0.0
 10
222.6820508526897
 20
140.4482773033463
 30
0.0
 10
222.7885803065533
 20
140.5917116736217
 30
0.0
 10
223.0163292030635
 20
140.8688881203899
 30
0.0
 10
223.1379089720606
 20
141.0028578106827
 30
0.0
 10
223.5174546179971
 20
141.3820961200286
 30
0.0
 10
223.7922064582452
 20
141.6078170835289
 30
0.0
 10
224.3859891853305
 20
142.0059247556525
 30
0.0
 10
224.7074184521971
 20
142.1785196380816
 30
0.0
 10
225.3690117764054
 20
142.4539291183049
 30
0.0
 10
225.7120916357827
 20
142.559209651305
 30
0.0
 10
226.2462826450699
 20
142.6665711137707
 30
0.0
 10
226.4279014890472
 20
142.6937590781232
 30
0.0
 10
226.7888657804384
 20
142.7296077390922
 30
0.0
 10
227.1497633296736
 20
142.7474634290738
 30
0.0
 10
227.5105292323643
 20
142.7298971284598
 30
0.0
 10
227.8712285525223
 20
142.6943814144209
 30
0.0
 10
228.0526020128295
 20
142.6674107540577
 30
0.0
 10
228.5877537965335
 20
142.5603379556223
 30
0.0
 10
228.9317277359238
 20
142.4550752918016
 30
0.0
 10
229.5954827533126
 20
142.1790805079991
 30
0.0
 10
229.916900031798
 20
142.0064733673524
 30
0.0
 10
230.5103106034681
 20
141.608835214631
 30
0.0
 10
230.7857143986406
 20
141.3828558652829
 30
0.0
 10
231.2940618394379
 20
140.8748050387247
 30
0.0
 10
231.5220014873775
 20
140.5971016729039
 30
0.0
 10
231.819597355435
 20
140.1531708470708
 30
0.0
 10
231.911742975231
 20
140.0002116500043
 30
0.0
 10
232.0816684682205
 20
139.6840025887641
 30
0.0
 10
232.1598320326691
 20
139.5197737258695
 30
0.0
 10
232.3684830352709
 20
139.0186620500761
 30
0.0
 10
232.4732812803803
 20
138.6749764008452
 30
0.0
 10
232.6152096780798
 20
137.9683407922167
 30
0.0
 10
232.6519427099972
 20
137.6009467460651
 30
0.0
 10
232.651929159214
 20
136.8760643697534
 30
0.0
 10
232.6164443654154
 20
136.5168954361963
 30
0.0
 10
232.5097796615297
 20
135.9830443194557
 30
0.0
 10
232.4649570766625
 20
135.8052282692008
 30
0.0
 10
232.3592010816585
 20
135.4589561975577
 30
0.0
 10
232.2981685142996
 20
135.2896389611893
 30
0.0
 10
232.0912224046889
 20
134.7927516165475
 30
0.0
 10
231.9202313317009
 20
134.4740134660612
 30
0.0
 10
231.5191374068571
 20
133.87599372177
 30
0.0
 10
231.2926064227186
 20
133.6010353495971
 30
0.0
 10
230.7883755807625
 20
133.09694248957
 30
0.0
 10
230.507583110093
 20
132.8662841039281
 30
0.0
 10
229.9138651234694
 20
132.4689821156996
 30
0.0
 10
229.5995792144205
 20
132.300099822799
 30
0.0
 10
229.1006723008188
 20
132.0922618384174
 30
0.0
 10
228.9287480739184
 20
132.0303730843968
 30
0.0
 10
228.5823968517657
 20
131.924800156331
 30
0.0
 10
228.4075528251198
 20
131.880826647274
 30
0.0
 10
227.878058488923
 20
131.774878764647
 30
0.0
 10
227.5183319288011
 20
131.7386083736347
 30
0.0
 10
227.1519359355666
 20
131.7386083736347
 30
0.0
  0
SPLINE
  5
123
330
1F
100
AcDbEntity
  8
0
  6
HIDDEN
 62
     7
370
    18
100
AcDbSpline
210
0.0
220
0.0
230
1.0
 70
    11
 71
     3
 72
    85
 73
    81
 74
     0
 42
0.000000001
 43
0.00000001
 40
0.0
 40
0.0
 40
0.0
 40
0.0
 40
0.03125
 40
0.03125
 40
0.0625
 40
0.0625
 40
0.09375
 40
0.09375
 40
0.1093749999999999
 40
0.1093749999999999
 40
0.1249999999999998
 40
0.1249999999999998
 40
0.1562499999999997
 40
0.1562499999999997
 40
0.1874999999999997
 40
0.1874999999999997
 40
0.2031249999999996
 40
0.2031249999999996
 40
0.2187499999999996
 40
0.2187499999999996
 40
0.2499999999999996
 40
0.2499999999999996
 40
0.2812499999999996
 40
0.2812499999999996
 40
0.3124999999999995
 40
0.3124999999999995
 40
0.3437499999999994
 40
0.3437499999999994
 40
0.3593749999999993
 40
0.3593749999999993
 40
0.3749999999999992
 40
0.3749999999999992
 40
0.4062499999999991
 40
0.4062499999999991
 40
0.4374999999999989
 40
0.4374999999999989
 40
0.4687499999999987
 40
0.4687499999999987
 40
0.4843749999999985
 40
0.4843749999999985
 40
0.4999999999999983
 40
0.515624999999998
 40
0.515624999999998
 40
0.5312499999999978
 40
0.5312499999999978
 40
0.5624999999999979
 40
0.5624999999999979
 40
0.593749999999998
 40
0.593749999999998
 40
0.6249999999999981
 40
0.6249999999999981
 40
0.6562499999999982
 40
0.6562499999999982
 40
0.6718749999999982
 40
0.6718749999999982
 40
0.6874999999999982
 40
0.6874999999999982
 40
0.7187499999999983
 40
0.7187499999999983
 40
0.7499999999999984
 40
0.7499999999999984
 40
0.7812499999999986
 40
0.7812499999999986
 40
0.7968749999999987
 40
0.7968749999999987
 40
0.8124999999999988
 40
0.8124999999999988
 40
0.843749999999999
 40
0.843749999999999
 40
0.8749999999999992
 40
0.8749999999999992
 40
0.9062499999999994
 40
0.9062499999999994
 40
0.9374999999999997
 40
0.9374999999999997
 40
0.9531249999999998
 40
0.9531249999999998
 40
0.9687499999999999
 40
0.9687499999999999
 40
1.0
 40
1.0
 40
1.0
 40
1.0
 10
200.1519359355666
 20
131.7386083736347
 30
0.0
 10
199.7855399423321
 20
131.7386083736347
 30
0.0
 10
199.4258755469805
 20
131.7748491632935
 30
0.0
 10
198.7192548091224
 20
131.9162730604106
 30
0.0
 10
198.3685554483907
 20
132.0233315092299
 30
0.0
 10
197.7040591892848
 20
132.30024243241
 30
0.0
 10
197.3893452893267
 20
132.4692726176443
 30
0.0
 10
196.9426241148909
 20
132.7684366436352
 30
0.0
 10
196.7973085746862
 20
132.8764289996041
 30
0.0
 10
196.520381457485
 20
133.1041258553126
 30
0.0
 10
196.3883632186534
 20
133.2239896082381
 30
0.0
 10
196.0110354011962
 20
133.6013681461649
 30
0.0
 10
195.7842500364357
 20
133.8764758230881
 30
0.0
 10
195.3818511421928
 20
134.4769229344625
 30
0.0
 10
195.2129260408363
 20
134.792317406149
 30
0.0
 10
195.0063468369096
 20
135.2879796577474
 30
0.0
 10
194.9453495701291
 20
135.4569889452682
 30
0.0
 10
194.8395532352739
 20
135.8028857632663
 30
0.0
 10
194.7946512089867
 20
135.9806748462702
 30
0.0
 10
194.6877965765468
 20
136.514200568
 30
0.0
 10
194.6521784361003
 20
136.8730103930304
 30
0.0
 10
194.6516958792894
 20
137.5968733030953
 30
0.0
 10
194.6880970263843
 20
137.9643982224395
 30
0.0
 10
194.8298302658284
 20
138.6723090991219
 30
0.0
 10
194.9346709493678
 20
139.0167296260201
 30
0.0
 10
195.2133765408989
 20
139.6865054772196
 30
0.0
 10
195.3840506360534
 20
140.003506010187
 30
0.0
 10
195.6820508526897
 20
140.4482773033463
 30
0.0
 10
195.7885803065533
 20
140.5917116736217
 30
0.0
 10
196.0163292030634
 20
140.8688881203899
 30
0.0
 10
196.1379089720606
 20
141.0028578106827
 30
0.0
 10
196.5174546179971
 20
141.3820961200286
 30
0.0
 10
196.7922064582452
 20
141.6078170835289
 30
0.0
 10
197.3859891853305
 20
142.0059247556525
 30
0.0
 10
197.7074184521971
 20
142.1785196380816
 30
0.0
 10
198.3690117764054
 20
142.4539291183049
 30
0.0
 10
198.7120916357827
 20
142.559209651305
 30
0.0
 10
199.2462826450699
 20
142.6665711137707
 30
0.0
 10
199.4279014890472
 20
142.6937590781232
 30
0.0
 10
199.7888657807814
 20
142.7296078410479
 30
0.0
 10
200.1497633296736
 20
142.7474634290738
 30
0.0
 10
200.5105292323643
 20
142.7298971284598
 30
0.0
 10
200.8712285525223
 20
142.6943814144209
 30
0.0
 10
201.0526020128295
 20
142.6674107540577
 30
0.0
 10
201.5877537965335
 20
142.5603379556223
 30
0.0
 10
201.9317277359238
 20
142.4550752918016
 30
0.0
 10
202.5954827533127
 20
142.1790805079991
 30
0.0
 10
202.9169000317979
 20
142.0064733673524
 30
0.0
 10
203.5103106034681
 20
141.608835214631
 30
0.0
 10
203.7857143986406
 20
141.3828558652829
 30
0.0
 10
204.2940618394378
 20
140.8748050387247
 30
0.0
 10
204.5220014873774
 20
140.5971016729039
 30
0.0
 10
204.819597355435
 20
140.1531708470708
 30
0.0
 10
204.911742975231
 20
140.0002116500043
 30
0.0
 10
205.0816684682205
 20
139.6840025887641
 30
0.0
 10
205.1598320326691
 20
139.5197737258695
 30
0.0
 10
205.3684830352709
 20
139.0186620500761
 30
0.0
 10
205.4732812803803
 20
138.6749764008452
 30
0.0
 10
205.6152096780798
 20
137.9683407922167
 30
0.0
 10
205.6519427099971
 20
137.6009467460651
 30
0.0
 10
205.651929159214
 20
136.8760643697534
 30
0.0
 10
205.6164443654155
 20
136.5168954361963
 30
0.0
 10
205.5097796615297
 20
135.9830443194557
 30
0.0
 10
205.4649570766626
 20
135.8052282692008
 30
0.0
 10
205.3592010816586
 20
135.4589561975577
 30
0.0
 10
205.2981685142996
 20
135.2896389611893
 30
0.0
 10
205.0912224046889
 20
134.7927516165475
 30
0.0
 10
204.9202313317009
 20
134.4740134660612
 30
0.0
 10
204.5191374068571
 20
133.87599372177
 30
0.0
 10
204.2926064227186
 20
133.6010353495971
 30
0.0
 10
203.7883755807625
 20
133.09694248957
 30
0.0
 10
203.507583110093
 20
132.8662841039281
 30
0.0
 10
202.9138651234694
 20
132.4689821156996
 30
0.0
 10
202.5995792144205
 20
132.300099822799
 30
0.0
 10
202.1006723008188
 20
132.0922618384174
 30
0.0
 10
201.9287480739184
 20
132.0303730843968
 30
0.0
 10
201.5823968517657
 20
131.924800156331
 30
0.0
 10
201.4075528251198
 20
131.880826647274
 30
0.0
 10
200.878058488923
 20
131.774878764647
 30
0.0
 10
200.5183319288011
 20
131.7386083736347
 30
0.0
 10
200.1519359355666
 20
131.7386083736347
 30
0.0
  0
CIRCLE
  5
124
330
1F
100
AcDbEntity
  8
0
  6
HIDDEN
 62
     7
370
    18
100
AcDbCircle
 10
155.1519359356
 20
137.2386083736
 30
0.0
 40
3.050000000000011
  0
LINE
  5
125
330
1F
100
AcDbEntity
  8
0
  6
HIDDEN
 62
     7
370
    18
100
AcDbLine
 10
144.1799757912
 20
148.0272835082
 30
0.0
 11
144.1799757912
 21
126.449933239
 31
0.0
  0
LINE
  5
126
330
1F
100
AcDbEntity
  8
0
  6
HIDDEN
 62
     7
370
    18
100
AcDbLine
 10
140.1799757912
 20
148.4084813547
 30
0.0
 11
140.1799757912
 21
126.0687353926
 31
0.0
  0
LINE
  5
127
330
1F
100
AcDbEntity
  8
0
  6
HIDDEN
 62
     7
370
    18
100
AcDbLine
 10
139.1519359356
 20
125.4751963052
 30
0.0
 11
139.1519359356
 21
149.0020204421
 31
0.0
  0
LINE
  5
128
330
1F
100
AcDbEntity
  8
0
  6
HIDDEN
 62
     7
370
    18
100
AcDbLine
 10
148.7799757912
 20
147.7386083736
 30
0.0
 11
148.7799757912
 21
126.7386083736
 31
0.0
  0
LINE
  5
129
330
1F
100
AcDbEntity
  8
0
  6
HIDDEN
 62
     7
370
    18
100
AcDbLine
 10
142.6799757912
 20
147.7386083736
 30
0.0
 11
142.6799757912
 21
126.7386083736
 31
0.0
  0
LINE
  5
12A
330
1F
100
AcDbEntity
  8
0
  6
HIDDEN
 62
     7
370
    18
100
AcDbLine
 10
143.6799757912
 20
147.7386083736
 30
0.0
 11
143.6799757912
 21
126.7386083736
 31
0.0
  0
SPLINE
  5
12B
330
1F
100
AcDbEntity
  8
0
  6
HIDDEN
 62
     7
370
    18
100
AcDbSpline
210
0.0
220
0.0
230
1.0
 70
    11
 71
     3
 72
    66
 73
    62
 74
     0
 42
0.000000001
 43
0.00000001
 40
0.0
 40
0.0
 40
0.0
 40
0.0
 40
0.0312499999999998
 40
0.0312499999999998
 40
0.0624999999999997
 40
0.0624999999999997
 40
0.0937499999999995
 40
0.0937499999999995
 40
0.1249999999999994
 40
0.1249999999999994
 40
0.1874999999999992
 40
0.1874999999999992
 40
0.2187499999999991
 40
0.2187499999999991
 40
0.249999999999999
 40
0.249999999999999
 40
0.2812499999999989
 40
0.2812499999999989
 40
0.3124999999999988
 40
0.3124999999999988
 40
0.3437499999999988
 40
0.3437499999999988
 40
0.3749999999999987
 40
0.3749999999999987
 40
0.4062499999999987
 40
0.4062499999999987
 40
0.4374999999999986
 40
0.4374999999999986
 40
0.4687499999999986
 40
0.4687499999999986
 40
0.4999999999999986
 40
0.4999999999999986
 40
0.5312499999999986
 40
0.5312499999999986
 40
0.5624999999999984
 40
0.5624999999999984
 40
0.5937499999999984
 40
0.5937499999999984
 40
0.6249999999999986
 40
0.6249999999999986
 40
0.6562499999999988
 40
0.6562499999999988
 40
0.687499999999999
 40
0.687499999999999
 40
0.7187499999999991
 40
0.7187499999999991
 40
0.7499999999999993
 40
0.7499999999999993
 40
0.7812499999999996
 40
0.7812499999999996
 40
0.8124999999999997
 40
0.8124999999999997
 40
0.8749999999999999
 40
0.8749999999999999
 40
0.9062500000000001
 40
0.9062500000000001
 40
0.9375000000000001
 40
0.9375000000000001
 40
0.96875
 40
0.96875
 40
1.0
 40
1.0
 40
1.0
 40
1.0
 10
155.1519359355666
 20
140.2886083736347
 30
0.0
 10
155.3546145825144
 20
140.2886083736347
 30
0.0
 10
155.5536744738503
 20
140.2686088140181
 30
0.0
 10
155.94492845843
 20
140.190465311318
 30
0.0
 10
156.1392012171776
 20
140.1313042097972
 30
0.0
 10
156.5079646437289
 20
139.9778725229029
 30
0.0
 10
156.6826898021072
 20
139.8841457130606
 30
0.0
 10
157.013367105641
 20
139.6628916106557
 30
0.0
 10
157.1690146496438
 20
139.5349102436612
 30
0.0
 10
157.5884820193125
 20
139.1153551466611
 30
0.0
 10
157.8153701608428
 20
138.7768765879578
 30
0.0
 10
158.0441667842276
 20
138.2269977002396
 30
0.0
 10
158.1033590390764
 20
138.0335978544962
 30
0.0
 10
158.1821664493369
 20
137.6393697041382
 30
0.0
 10
158.2018058656173
 20
137.4407308767059
 30
0.0
 10
158.2020647300389
 20
137.0404305908075
 30
0.0
 10
158.181994045406
 20
136.8370912640864
 30
0.0
 10
158.103656362776
 20
136.4449997434788
 30
0.0
 10
158.0457065947376
 20
136.2542938751635
 30
0.0
 10
157.8917634528576
 20
135.883570058577
 30
0.0
 10
157.7968248391349
 20
135.7068433987682
 30
0.0
 10
157.5764674232577
 20
135.3775902878438
 30
0.0
 10
157.4491873973294
 20
135.2224690642473
 30
0.0
 10
157.1674318059989
 20
134.940792369317
 30
0.0
 10
157.0146434765414
 20
134.8153591844126
 30
0.0
 10
156.6852163943845
 20
134.5945835910585
 30
0.0
 10
156.5066703912328
 20
134.4987523383583
 30
0.0
 10
156.1390980656826
 20
134.3459232078632
 30
0.0
 10
155.9489440389716
 20
134.287751449919
 30
0.0
 10
155.5554036162691
 20
134.2087581575741
 30
0.0
 10
155.352969545008
 20
134.1886950319318
 30
0.0
 10
154.9535404696426
 20
134.1885222858131
 30
0.0
 10
154.7535214910867
 20
134.2080056599024
 30
0.0
 10
154.3574055436373
 20
134.2869972315036
 30
0.0
 10
154.1666727154455
 20
134.3452774513555
 30
0.0
 10
153.7990412748657
 20
134.4978450719636
 30
0.0
 10
153.620554842698
 20
134.5934538587368
 30
0.0
 10
153.290349583734
 20
134.8144659038219
 30
0.0
 10
153.137461005672
 20
134.939915802592
 30
0.0
 10
152.8558646111339
 20
135.2211462915973
 30
0.0
 10
152.7282336882584
 20
135.3765291695113
 30
0.0
 10
152.5079082532586
 20
135.7053800275542
 30
0.0
 10
152.4136817962932
 20
135.8802681339682
 30
0.0
 10
152.2587472756901
 20
136.252411985329
 30
0.0
 10
152.2007349900879
 20
136.4432180271379
 30
0.0
 10
152.1223157358098
 20
136.8340910450567
 30
0.0
 10
152.1020016558432
 20
137.036548606439
 30
0.0
 10
152.1018705395392
 20
137.4386792113584
 30
0.0
 10
152.1214952328986
 20
137.6374032565335
 30
0.0
 10
152.1996616833122
 20
138.0302427276702
 30
0.0
 10
152.2589491286521
 20
138.2248870050728
 30
0.0
 10
152.488029971735
 20
138.776326758487
 30
0.0
 10
152.7148608226292
 20
139.1146663241862
 30
0.0
 10
153.1341995239499
 20
139.5343319868377
 30
0.0
 10
153.2895525196998
 20
139.6621779926109
 30
0.0
 10
153.620520352837
 20
139.8837790673127
 30
0.0
 10
153.7950816530334
 20
139.9774198012897
 30
0.0
 10
154.1626549606082
 20
140.1305739219889
 30
0.0
 10
154.3573418222463
 20
140.190077667635
 30
0.0
 10
154.7498177721828
 20
140.2686004166979
 30
0.0
 10
154.9492572886188
 20
140.2886083736347
 30
0.0
 10
155.1519359355666
 20
140.2886083736347
 30
0.0
  0
SPLINE
  5
12C
330
1F
100
AcDbEntity
  8
0
  6
HIDDEN
 62
     7
370
    18
100
AcDbSpline
210
0.0
220
0.0
230
1.0
 70
    11
 71
     3
 72
    66
 73
    62
 74
     0
 42
0.000000001
 43
0.00000001
 40
0.0
 40
0.0
 40
0.0
 40
0.0
 40
0.03125
 40
0.03125
 40
0.0625000000000001
 40
0.0625000000000001
 40
0.0937500000000001
 40
0.0937500000000001
 40
0.1250000000000001
 40
0.1250000000000001
 40
0.1874999999999999
 40
0.1874999999999999
 40
0.2187499999999998
 40
0.2187499999999998
 40
0.2499999999999996
 40
0.2499999999999996
 40
0.2812499999999995
 40
0.2812499999999995
 40
0.3124999999999993
 40
0.3124999999999993
 40
0.3437499999999992
 40
0.3437499999999992
 40
0.3749999999999991
 40
0.3749999999999991
 40
0.4062499999999989
 40
0.4062499999999989
 40
0.4374999999999991
 40
0.4374999999999991
 40
0.4687499999999991
 40
0.4687499999999991
 40
0.4999999999999992
 40
0.4999999999999992
 40
0.5312499999999992
 40
0.5312499999999992
 40
0.5624999999999993
 40
0.5624999999999993
 40
0.5937499999999993
 40
0.5937499999999993
 40
0.6249999999999993
 40
0.6249999999999993
 40
0.6562499999999994
 40
0.6562499999999994
 40
0.6874999999999994
 40
0.6874999999999994
 40
0.7187499999999994
 40
0.7187499999999994
 40
0.7499999999999994
 40
0.7499999999999994
 40
0.7812499999999997
 40
0.7812499999999997
 40
0.8124999999999998
 40
0.8124999999999998
 40
0.875
 40
0.875
 40
0.90625
 40
0.90625
 40
0.9375
 40
0.9375
 40
0.9687500000000001
 40
0.9687500000000001
 40
1.0
 40
1.0
 40
1.0
 40
1.0
 10
155.1519359355666
 20
140.2886083736347
 30
0.0
 10
154.9492572886188
 20
140.2886083736347
 30
0.0
 10
154.750197397283
 20
140.2686088140181
 30
0.0
 10
154.3589434127032
 20
140.190465311318
 30
0.0
 10
154.1646706539556
 20
140.1313042097972
 30
0.0
 10
153.7959072274043
 20
139.9778725229029
 30
0.0
 10
153.621182069026
 20
139.8841457130606
 30
0.0
 10
153.2905047654922
 20
139.6628916106557
 30
0.0
 10
153.1348572214894
 20
139.5349102436612
 30
0.0
 10
152.7153898518208
 20
139.1153551466611
 30
0.0
 10
152.4885017102904
 20
138.7768765879578
 30
0.0
 10
152.2597050869057
 20
138.2269977002396
 30
0.0
 10
152.2005128320568
 20
138.0335978544962
 30
0.0
 10
152.1217054217963
 20
137.6393697041382
 30
0.0
 10
152.1020660055159
 20
137.4407308767059
 30
0.0
 10
152.1018071410943
 20
137.0404305908075
 30
0.0
 10
152.1218778257273
 20
136.8370912640864
 30
0.0
 10
152.2002155083572
 20
136.4449997434788
 30
0.0
 10
152.2581652763957
 20
136.2542938751635
 30
0.0
 10
152.4121084182757
 20
135.883570058577
 30
0.0
 10
152.5070470319984
 20
135.7068433987682
 30
0.0
 10
152.7274044478755
 20
135.3775902878438
 30
0.0
 10
152.8546844738038
 20
135.2224690642473
 30
0.0
 10
153.1364400651343
 20
134.940792369317
 30
0.0
 10
153.2892283945918
 20
134.8153591844126
 30
0.0
 10
153.6186554767488
 20
134.5945835910585
 30
0.0
 10
153.7972014799005
 20
134.4987523383583
 30
0.0
 10
154.1647738054506
 20
134.3459232078632
 30
0.0
 10
154.3549278321616
 20
134.287751449919
 30
0.0
 10
154.7484682548641
 20
134.2087581575741
 30
0.0
 10
154.9509023261253
 20
134.1886950319318
 30
0.0
 10
155.3503314014906
 20
134.1885222858131
 30
0.0
 10
155.5503503800466
 20
134.2080056599024
 30
0.0
 10
155.9464663274959
 20
134.2869972315036
 30
0.0
 10
156.1371991556878
 20
134.3452774513555
 30
0.0
 10
156.5048305962675
 20
134.4978450719636
 30
0.0
 10
156.6833170284353
 20
134.5934538587368
 30
0.0
 10
157.0135222873993
 20
134.8144659038219
 30
0.0
 10
157.1664108654612
 20
134.939915802592
 30
0.0
 10
157.4480072599993
 20
135.2211462915973
 30
0.0
 10
157.5756381828749
 20
135.3765291695113
 30
0.0
 10
157.7959636178746
 20
135.7053800275542
 30
0.0
 10
157.89019007484
 20
135.8802681339682
 30
0.0
 10
158.0451245954431
 20
136.252411985329
 30
0.0
 10
158.1031368810453
 20
136.4432180271379
 30
0.0
 10
158.1815561353235
 20
136.8340910450567
 30
0.0
 10
158.20187021529
 20
137.036548606439
 30
0.0
 10
158.202001331594
 20
137.4386792113584
 30
0.0
 10
158.1823766382346
 20
137.6374032565335
 30
0.0
 10
158.104210187821
 20
138.0302427276702
 30
0.0
 10
158.0449227424811
 20
138.2248870050728
 30
0.0
 10
157.8158418993982
 20
138.776326758487
 30
0.0
 10
157.589011048504
 20
139.1146663241862
 30
0.0
 10
157.1696723471833
 20
139.5343319868377
 30
0.0
 10
157.0143193514334
 20
139.6621779926109
 30
0.0
 10
156.6833515182962
 20
139.8837790673127
 30
0.0
 10
156.5087902180998
 20
139.9774198012897
 30
0.0
 10
156.141216910525
 20
140.1305739219889
 30
0.0
 10
155.9465300488869
 20
140.190077667635
 30
0.0
 10
155.5540540989504
 20
140.2686004166979
 30
0.0
 10
155.3546145825144
 20
140.2886083736347
 30
0.0
 10
155.1519359355666
 20
140.2886083736347
 30
0.0
  0
LINE
  5
12D
330
1F
100
AcDbEntity
  8
0
  6
HIDDEN
 62
     7
370
    18
100
AcDbLine
 10
159.1519359356
 20
147.2386083397
 30
0.0
 11
159.1519359356
 21
127.2386083736
 31
0.0
  0
LINE
  5
12E
330
1F
100
AcDbEntity
  8
0
  6
HIDDEN
 62
     7
370
    18
100
AcDbLine
 10
160.1519359356
 20
144.4886083736
 30
0.0
 11
160.1519359356
 21
129.9886083736
 31
0.0
  0
LINE
  5
12F
330
1F
100
AcDbEntity
  8
0
  6
HIDDEN
 62
     7
370
    18
100
AcDbLine
 10
159.1519359356
 20
128.9886083736
 30
0.0
 11
159.1519359356
 21
145.4886083736
 31
0.0
  0
LINE
  5
130
330
1F
100
AcDbEntity
  8
0
  6
HIDDEN
 62
     7
370
    18
100
AcDbLine
 10
181.1519359356
 20
129.9886083736
 30
0.0
 11
181.1519359356
 21
144.4724182437
 31
0.0
  0
LINE
  5
131
330
1F
100
AcDbEntity
  8
0
  6
HIDDEN
 62
     7
370
    18
100
AcDbLine
 10
140.6519359356
 20
154.0979596156
 30
0.0
 11
140.6519359356
 21
149.2881808991
 31
0.0
  0
LINE
  5
132
330
1F
100
AcDbEntity
  8
0
  6
HIDDEN
 62
     7
370
    18
100
AcDbLine
 10
139.1519359356
 20
153.2319342118
 30
0.0
 11
139.1519359356
 21
148.8551681972
 31
0.0
  0
LINE
  5
133
330
1F
100
AcDbEntity
  8
0
  6
HIDDEN
 62
     7
370
    18
100
AcDbLine
 10
166.9519359356
 20
154.7587071582
 30
0.0
 11
166.9519359356
 21
149.6185546704
 31
0.0
  0
SPLINE
  5
134
330
1F
100
AcDbEntity
  8
0
  6
HIDDEN
 62
     7
370
    18
100
AcDbSpline
210
0.0
220
0.0
230
1.0
 70
     8
 71
     3
 72
    18
 73
    14
 74
     0
 42
0.000000001
 43
0.00000001
 40
0.0
 40
0.0
 40
0.0
 40
0.0
 40
0.2500000000000001
 40
0.2500000000000001
 40
0.3750000000000001
 40
0.3750000000000001
 40
0.5000000000000001
 40
0.5000000000000001
 40
0.6250000000000001
 40
0.6250000000000001
 40
0.7500000000000002
 40
0.7500000000000002
 40
1.0
 40
1.0
 40
1.0
 40
1.0
 10
167.830615592007
 20
124.1435616501023
 30
0.0
 10
167.6953299857046
 20
123.5593600563706
 30
0.0
 10
167.5941622394617
 20
123.0251423691624
 30
0.0
 10
167.4913008965927
 20
122.299245598274
 30
0.0
 10
167.4651980510695
 20
122.0693651104941
 30
0.0
 10
167.4303080675246
 20
121.6387941657073
 30
0.0
 10
167.4217218092346
 20
121.4410992602132
 30
0.0
 10
167.421622099669
 20
121.0797512175353
 30
0.0
 10
167.4301104708175
 20
120.9161012075892
 30
0.0
 10
167.4642538503381
 20
120.6228899346202
 30
0.0
 10
167.4900508321919
 20
120.4928938685044
 30
0.0
 10
167.5934519635799
 20
120.1588379759425
 30
0.0
 10
167.6953099557513
 20
120.0130618115777
 30
0.0
 10
167.830615592007
 20
119.9416985056299
 30
0.0
  0
LINE
  5
135
330
1F
100
AcDbEntity
  8
0
  6
HIDDEN
 62
     7
370
    18
100
AcDbLine
 10
166.9519359356
 20
124.8586620769
 30
0.0
 11
166.9519359356
 21
119.7185095891
 31
0.0
  0
SPLINE
  5
136
330
1F
100
AcDbEntity
  8
0
  6
HIDDEN
 62
     7
370
    18
100
AcDbSpline
210
0.0
220
0.0
230
1.0
 70
     8
 71
     3
 72
    18
 73
    14
 74
     0
 42
0.000000001
 43
0.00000001
 40
0.0
 40
0.0
 40
0.0
 40
0.0
 40
0.2499999999999998
 40
0.2499999999999998
 40
0.3749999999999999
 40
0.3749999999999999
 40
0.5
 40
0.5
 40
0.6250000000000001
 40
0.6250000000000001
 40
0.7500000000000002
 40
0.7500000000000002
 40
1.0
 40
1.0
 40
1.0
 40
1.0
 10
167.830615592007
 20
154.5355182416395
 30
0.0
 10
167.6953299857046
 20
154.46416549995
 30
0.0
 10
167.5941622394617
 20
154.3187620933605
 30
0.0
 10
167.4913008965927
 20
153.9892948577549
 30
0.0
 10
167.4651980510695
 20
153.8603612809502
 30
0.0
 10
167.4303080675246
 20
153.5648192816141
 30
0.0
 10
167.4217218092346
 20
153.4004245080921
 30
0.0
 10
167.421622099669
 20
153.0394628933515
 30
0.0
 10
167.4301104708175
 20
152.8428931011893
 30
0.0
 10
167.4642538503381
 20
152.4175383050643
 30
0.0
 10
167.4900508321919
 20
152.1877686552648
 30
0.0
 10
167.5934519635799
 20
151.4551799608323
 30
0.0
 10
167.6953099557513
 20
150.9179431859147
 30
0.0
 10
167.830615592007
 20
150.3336550971671
 30
0.0
  0
LINE
  5
137
330
1F
100
AcDbEntity
  8
0
  6
HIDDEN
 62
     7
370
    18
100
AcDbLine
 10
140.6519359356
 20
125.1890358482
 30
0.0
 11
140.6519359356
 21
120.3792571317
 31
0.0
  0
LINE
  5
138
330
1F
100
AcDbEntity
  8
0
  6
HIDDEN
 62
     7
370
    18
100
AcDbLine
 10
139.1519359356
 20
125.6220485501
 30
0.0
 11
139.1519359356
 21
121.2452825355
 31
0.0
  0
LINE
  5
139
330
1F
100
AcDbEntity
  8
0
  6
HIDDEN
 62
     7
370
    18
100
AcDbLine
 10
139.1519359356
 20
148.8551681972
 30
0.0
 11
139.1519359356
 21
139.5777793019
 31
0.0
  0
LINE
  5
13A
330
1F
100
AcDbEntity
  8
0
  6
HIDDEN
 62
     7
370
    18
100
AcDbLine
 10
139.1519359356
 20
134.8994374454
 30
0.0
 11
139.1519359356
 21
125.6220485501
 31
0.0
  0
LINE
  5
13B
330
1F
100
AcDbEntity
  8
0
  6
HIDDEN
 62
     7
370
    18
100
AcDbLine
 10
140.6519359356
 20
134.0901312553
 30
0.0
 11
140.6519359356
 21
125.1890358482
 31
0.0
  0
LINE
  5
13C
330
1F
100
AcDbEntity
  8
0
  6
HIDDEN
 62
     7
370
    18
100
AcDbLine
 10
140.6519359356
 20
149.2881808991
 30
0.0
 11
140.6519359356
 21
140.387085492
 31
0.0
  0
LINE
  5
13D
330
1F
100
AcDbEntity
  8
0
  6
HIDDEN
 62
     7
370
    18
100
AcDbLine
 10
166.9519359356
 20
149.6185546704
 30
0.0
 11
166.9519359356
 21
124.8586620769
 31
0.0
  0
LINE
  5
13E
330
1F
100
AcDbEntity
  8
0
  6
HIDDEN
 62
     7
370
    18
100
AcDbLine
 10
168.9519359356
 20
148.8008826067
 30
0.0
 11
168.9519359356
 21
125.6763341405
 31
0.0
  0
SPLINE
  5
13F
330
1F
100
AcDbEntity
  8
0
  6
HIDDEN
 62
     7
370
    18
100
AcDbSpline
210
0.0
220
0.0
230
1.0
 70
     8
 71
     3
 72
    26
 73
    22
 74
     0
 42
0.000000001
 43
0.00000001
 40
0.0
 40
0.0
 40
0.0
 40
0.0
 40
0.1250000000000002
 40
0.1250000000000002
 40
0.2500000000000003
 40
0.2500000000000003
 40
0.3750000000000005
 40
0.3750000000000005
 40
0.4375000000000006
 40
0.4375000000000006
 40
0.5000000000000007
 40
0.5000000000000007
 40
0.5625000000000008
 40
0.5625000000000008
 40
0.6250000000000009
 40
0.6250000000000009
 40
0.7500000000000006
 40
0.7500000000000006
 40
0.8750000000000002
 40
0.8750000000000002
 40
1.0
 40
1.0
 40
1.0
 40
1.0
 10
144.6519359355666
 20
134.0201106131856
 30
0.0
 10
144.8625792975666
 20
134.2547276441307
 30
0.0
 10
145.0697757353236
 20
134.4926107800901
 30
0.0
 10
145.4712748699559
 20
134.979925086359
 30
0.0
 10
145.6665512890019
 20
135.230050311148
 30
0.0
 10
146.0263317816974
 20
135.748640456599
 30
0.0
 10
146.1915906418467
 20
136.0160714404858
 30
0.0
 10
146.3842485512729
 20
136.4474865728843
 30
0.0
 10
146.4392132914829
 20
136.5975054548087
 30
0.0
 10
146.5169490764471
 20
136.9102426335387
 30
0.0
 10
146.5382152147554
 20
137.067996880346
 30
0.0
 10
146.5401091440412
 20
137.3867021601918
 30
0.0
 10
146.5198834069741
 20
137.5491389603723
 30
0.0
 10
146.4454189966883
 20
137.8600909599549
 30
0.0
 10
146.3917798709423
 20
138.0107621982826
 30
0.0
 10
146.1970355655417
 20
138.4528459562512
 30
0.0
 10
146.0299854523634
 20
138.7228899694189
 30
0.0
 10
145.6697293336598
 20
139.2429975977003
 30
0.0
 10
145.4749769586394
 20
139.49265881051
 30
0.0
 10
145.0719677341671
 20
139.9820829223528
 30
0.0
 10
144.8635312158036
 20
140.2214288455167
 30
0.0
 10
144.6519359355675
 20
140.4571061340846
 30
0.0
  0
LINE
  5
140
330
1F
100
AcDbEntity
  8
0
  6
HIDDEN
 62
     7
370
    18
100
AcDbLine
 10
144.6519359356
 20
134.0201106132
 30
0.0
 11
144.6519359356
 21
140.4571061341
 31
0.0
  0
SPLINE
  5
141
330
1F
100
AcDbEntity
  8
0
  6
HIDDEN
 62
     7
370
    18
100
AcDbSpline
210
0.0
220
0.0
230
1.0
 70
     8
 71
     3
 72
     8
 73
     4
 74
     0
 42
0.000000001
 43
0.00000001
 40
0.0000202085968836
 40
0.0000202085968836
 40
0.0000202085968836
 40
0.0000202085968836
 40
0.0040218806502652
 40
0.0040218806502652
 40
0.0040218806502652
 40
0.0040218806502652
 10
140.6519359355666
 20
134.090131255298
 30
0.0
 10
141.9852590613572
 20
134.0661330241343
 30
0.0
 10
143.3185929345798
 20
134.042805283966
 30
0.0
 10
144.6519359355666
 20
134.0201106131856
 30
0.0
  0
SPLINE
  5
142
330
1F
100
AcDbEntity
  8
0
  6
HIDDEN
 62
     7
370
    18
100
AcDbSpline
210
0.0
220
0.0
230
1.0
 70
     8
 71
     3
 72
     8
 73
     4
 74
     0
 42
0.000000001
 43
0.00000001
 40
0.0000202082942178
 40
0.0000202082942178
 40
0.0000202082942178
 40
0.0000202082942178
 40
0.0040218803475994
 40
0.0040218803475994
 40
0.0040218803475994
 40
0.0040218803475994
 10
144.6519359355666
 20
140.4571061340838
 30
0.0
 10
143.3185929345798
 20
140.4344114633033
 30
0.0
 10
141.9852590613572
 20
140.4110837231351
 30
0.0
 10
140.6519359355666
 20
140.3870854919714
 30
0.0
  0
SPLINE
  5
143
330
1F
100
AcDbEntity
  8
0
  6
HIDDEN
 62
     7
370
    18
100
AcDbSpline
210
0.0
220
0.0
230
1.0
 70
     8
 71
     3
 72
     8
 73
     4
 74
     0
 42
0.000000001
 43
0.00000001
 40
0.0
 40
0.0
 40
0.0
 40
0.0
 40
1.0
 40
1.0
 40
1.0
 40
1.0
 10
139.1519359355657
 20
134.8994374454003
 30
0.0
 10
139.6261473460036
 20
134.5647082181052
 30
0.0
 10
140.1308836931055
 20
134.3056498042723
 30
0.0
 10
140.6519359355666
 20
134.090131255298
 30
0.0
  0
SPLINE
  5
144
330
1F
100
AcDbEntity
  8
0
  6
HIDDEN
 62
     7
370
    18
100
AcDbSpline
210
0.0
220
0.0
230
1.0
 70
     8
 71
     3
 72
     8
 73
     4
 74
     0
 42
0.000000001
 43
0.00000001
 40
0.0
 40
0.0
 40
0.0
 40
0.0
 40
1.0
 40
1.0
 40
1.0
 40
1.0
 10
140.6519359355666
 20
140.3870854919714
 30
0.0
 10
140.1308836931059
 20
140.1715669429973
 30
0.0
 10
139.6261473460043
 20
139.9125085291645
 30
0.0
 10
139.1519359355666
 20
139.5777793018697
 30
0.0
  0
LINE
  5
145
330
1F
100
AcDbEntity
  8
0
  6
HIDDEN
 62
     7
370
    18
100
AcDbLine
 10
139.1519359356
 20
134.8994374454
 30
0.0
 11
139.1519359356
 21
139.5777793019
 31
0.0
  0
SPLINE
  5
146
330
1F
100
AcDbEntity
  8
0
  6
HIDDEN
 62
     7
370
    18
100
AcDbSpline
210
0.0
220
0.0
230
1.0
 70
    11
 71
     3
 72
    68
 73
    64
 74
     0
 42
0.000000001
 43
0.00000001
 40
0.0
 40
0.0
 40
0.0
 40
0.0
 40
0.03125
 40
0.03125
 40
0.0624999999999999
 40
0.0624999999999999
 40
0.0937499999999997
 40
0.0937499999999997
 40
0.1249999999999995
 40
0.1249999999999995
 40
0.1562499999999993
 40
0.1562499999999993
 40
0.1874999999999991
 40
0.1874999999999991
 40
0.249999999999999
 40
0.249999999999999
 40
0.2812499999999991
 40
0.2812499999999991
 40
0.3124999999999991
 40
0.3124999999999991
 40
0.3437499999999991
 40
0.3437499999999991
 40
0.3749999999999992
 40
0.3749999999999992
 40
0.4062499999999992
 40
0.4062499999999992
 40
0.4374999999999992
 40
0.4374999999999992
 40
0.4687499999999993
 40
0.4687499999999993
 40
0.4999999999999993
 40
0.4999999999999993
 40
0.5312499999999993
 40
0.5312499999999993
 40
0.5624999999999994
 40
0.5624999999999994
 40
0.5937499999999994
 40
0.5937499999999994
 40
0.6249999999999994
 40
0.6249999999999994
 40
0.6562499999999996
 40
0.6562499999999996
 40
0.6874999999999996
 40
0.6874999999999996
 40
0.7187499999999997
 40
0.7187499999999997
 40
0.7499999999999997
 40
0.7499999999999997
 40
0.7812499999999997
 40
0.7812499999999997
 40
0.8124999999999998
 40
0.8124999999999998
 40
0.8437499999999998
 40
0.8437499999999998
 40
0.8749999999999998
 40
0.8749999999999998
 40
0.9062499999999999
 40
0.9062499999999999
 40
0.9374999999999999
 40
0.9374999999999999
 40
0.96875
 40
0.96875
 40
1.0
 40
1.0
 40
1.0
 40
1.0
 10
153.0391403601467
 20
139.6321166829999
 30
0.0
 10
153.2065841199831
 20
139.7677373013734
 30
0.0
 10
153.3848503419188
 20
139.8853785942451
 30
0.0
 10
153.7618750388121
 20
140.0867101182549
 30
0.0
 10
153.9620637601885
 20
140.1705183214685
 30
0.0
 10
154.3687317998194
 20
140.2986103450369
 30
0.0
 10
154.5766469658395
 20
140.343915141997
 30
0.0
 10
155.0016352650629
 20
140.3970728533025
 30
0.0
 10
155.2176719160469
 20
140.4043550373381
 30
0.0
 10
155.6421828848985
 20
140.3808075998008
 30
0.0
 10
155.8527098582882
 20
140.3503033973238
 30
0.0
 10
156.2701950690752
 20
140.2504437838566
 30
0.0
 10
156.4730586026536
 20
140.1818478960959
 30
0.0
 10
157.0543751216684
 20
139.9245064528769
 30
0.0
 10
157.4147823744442
 20
139.677956561567
 30
0.0
 10
157.8595213712059
 20
139.2247180054921
 30
0.0
 10
157.9947105913484
 20
139.0571374260157
 30
0.0
 10
158.2276504659507
 20
138.6982753511043
 30
0.0
 10
158.3243338116054
 20
138.5095168307502
 30
0.0
 10
158.4775650762548
 20
138.1130031545419
 30
0.0
 10
158.5341820336229
 20
137.902658745455
 30
0.0
 10
158.5996342354578
 20
137.4812702171722
 30
0.0
 10
158.609592594085
 20
137.2687540980085
 30
0.0
 10
158.5827585849179
 20
136.8399793229082
 30
0.0
 10
158.545738921145
 20
136.6274130947613
 30
0.0
 10
158.4285756421083
 20
136.2181184506834
 30
0.0
 10
158.3470367646134
 20
136.0172697789756
 30
0.0
 10
158.1457975532094
 20
135.6401430204646
 30
0.0
 10
158.0268658180385
 20
135.463922698935
 30
0.0
 10
157.7536920049463
 20
135.1351665779528
 30
0.0
 10
157.5998312302361
 20
134.9838684100533
 30
0.0
 10
157.2699086322202
 20
134.716281256574
 30
0.0
 10
157.0915868071486
 20
134.5978100958632
 30
0.0
 10
156.7135628072262
 20
134.3949232919284
 30
0.0
 10
156.517633808445
 20
134.3123043374804
 30
0.0
 10
156.1125485206107
 20
134.1828641609496
 30
0.0
 10
155.9012137227407
 20
134.1358889305191
 30
0.0
 10
155.4773289330882
 20
134.0811739756009
 30
0.0
 10
155.264893659826
 20
134.0729442271578
 30
0.0
 10
154.839041592531
 20
134.0944357249585
 30
0.0
 10
154.6238974291214
 20
134.1248333471769
 30
0.0
 10
154.2087678893811
 20
134.2225758040651
 30
0.0
 10
154.0071429236373
 20
134.289694317814
 30
0.0
 10
153.6160564243663
 20
134.4613374179743
 30
0.0
 10
153.4262368154753
 20
134.5666834767589
 30
0.0
 10
153.0756461953036
 20
134.8073864184535
 30
0.0
 10
152.9126397156571
 20
134.9435092947862
 30
0.0
 10
152.6125773929685
 20
135.2491627640203
 30
0.0
 10
152.4773084957642
 20
135.4176144435091
 30
0.0
 10
152.2463645429314
 20
135.7738951297925
 30
0.0
 10
152.148882323459
 20
135.9636488091992
 30
0.0
 10
151.9938997640545
 20
136.3662571714835
 30
0.0
 10
151.9390332432374
 20
136.5720969151565
 30
0.0
 10
151.8736253725733
 20
136.9926765514789
 30
0.0
 10
151.8634791267402
 20
137.2101783687766
 30
0.0
 10
151.8901474892798
 20
137.6369185077372
 30
0.0
 10
151.9261848811062
 20
137.8468212168244
 30
0.0
 10
152.0435960266742
 20
138.2597100374829
 30
0.0
 10
152.1247235612924
 20
138.4600329822668
 30
0.0
 10
152.3244806054818
 20
138.8362715007318
 30
0.0
 10
152.4449831046078
 20
139.0157262459796
 30
0.0
 10
152.7190635499738
 20
139.3460741740694
 30
0.0
 10
152.8716966003103
 20
139.4964960646264
 30
0.0
 10
153.0391403601467
 20
139.6321166829999
 30
0.0
  0
CIRCLE
  5
147
330
1F
100
AcDbEntity
  8
0
  6
HIDDEN
 62
     7
370
    18
100
AcDbCircle
 10
155.1519359356
 20
137.2386083736
 30
0.0
 40
3.050000000000011
  0
CIRCLE
  5
148
330
1F
100
AcDbEntity
  8
0
  6
HIDDEN
 62
     7
370
    18
100
AcDbCircle
 10
181.1519359356
 20
137.2386083736
 30
0.0
 40
2.0
  0
LINE
  5
149
330
1F
100
AcDbEntity
  8
0
  6
HIDDEN
 62
     7
370
    18
100
AcDbLine
 10
169.1519359356
 20
117.6886083736
 30
0.0
 11
169.2448291544
 21
117.7815015924
 31
0.0
  0
LINE
  5
14A
330
1F
100
AcDbEntity
  8
0
  6
HIDDEN
 62
     7
370
    18
100
AcDbLine
 10
169.2448291544
 20
156.6957151548
 30
0.0
 11
169.1519359356
 21
156.7886083736
 31
0.0
  0
ARC
  5
14B
330
1F
100
AcDbEntity
  8
0
  6
HIDDEN
 62
     7
370
    18
100
AcDbCircle
 10
168.5377223732
 20
118.4886083736
 30
0.0
 40
1.000000000000008
100
AcDbArc
 50
315.0
 51
0.0
  0
ARC
  5
14C
330
1F
100
AcDbEntity
  8
0
  6
HIDDEN
 62
     7
370
    18
100
AcDbCircle
 10
168.5377223732
 20
118.4886083736
 30
0.0
 40
1.0
100
AcDbArc
 50
0.0
 51
52.1052014664
  0
ARC
  5
14D
330
1F
100
AcDbEntity
  8
0
  6
HIDDEN
 62
     7
370
    18
100
AcDbCircle
 10
168.5377223732
 20
155.9886083736
 30
0.0
 40
1.000000000000006
100
AcDbArc
 50
351.8087250651
 51
45.0
  0
ARC
  5
14E
330
1F
100
AcDbEntity
  8
0
  6
HIDDEN
 62
     7
370
    18
100
AcDbCircle
 10
168.5377223732
 20
155.9886083736
 30
0.0
 40
1.000000000000006
100
AcDbArc
 50
307.8947985336
 51
351.8087250651
  0
LINE
  5
14F
330
1F
100
AcDbEntity
  8
0
  6
HIDDEN
 62
     7
370
    18
100
AcDbLine
 10
169.5377223732
 20
118.4886083736
 30
0.0
 11
169.5377223732
 21
155.9886083736
 31
0.0
  0
LINE
  5
150
330
1F
100
AcDbEntity
  8
0
  6
HIDDEN
 62
     7
370
    18
100
AcDbLine
 10
169.5377223732
 20
118.4886083736
 30
0.0
 11
169.5377223732
 21
155.9886083736
 31
0.0
  0
ARC
  5
151
330
1F
100
AcDbEntity
  8
0
  6
HIDDEN
 62
     7
370
    18
100
AcDbCircle
 10
242.9519359356
 20
120.0386083736
 30
0.0
 40
1.200000000000017
100
AcDbArc
 50
0.0
 51
90.0
  0
ARC
  5
152
330
1F
100
AcDbEntity
  8
0
  6
HIDDEN
 62
     7
370
    18
100
AcDbCircle
 10
242.9519359356
 20
154.4386083736
 30
0.0
 40
1.200000000000017
100
AcDbArc
 50
270.0
 51
0.0
  0
LINE
  5
153
330
1F
100
AcDbEntity
  8
0
  6
HIDDEN
 62
     7
370
    18
100
AcDbLine
 10
181.5519359356
 20
120.9386083736
 30
0.0
 11
186.2571619174
 21
120.9386083736
 31
0.0
  0
LINE
  5
154
330
1F
100
AcDbEntity
  8
0
  6
HIDDEN
 62
     7
370
    18
100
AcDbLine
 10
186.2571619174
 20
153.5386083736
 30
0.0
 11
181.5519359356
 21
153.5386083736
 31
0.0
  0
ARC
  5
155
330
1F
100
AcDbEntity
  8
0
  6
HIDDEN
 62
     7
370
    18
100
AcDbCircle
 10
181.5519359356
 20
121.3386083736
 30
0.0
 40
0.4000000000000057
100
AcDbArc
 50
180.0
 51
270.0
  0
ARC
  5
156
330
1F
100
AcDbEntity
  8
0
  6
HIDDEN
 62
     7
370
    18
100
AcDbCircle
 10
181.5519359356
 20
153.1386083736
 30
0.0
 40
0.4000000000000057
100
AcDbArc
 50
90.0
 51
180.0
  0
ARC
  5
157
330
1F
100
AcDbEntity
  8
0
  6
HIDDEN
 62
     7
370
    18
100
AcDbCircle
 10
186.2571619174
 20
121.3386083736
 30
0.0
 40
0.4000000000000074
100
AcDbArc
 50
270.0
 51
290.0
  0
ARC
  5
158
330
1F
100
AcDbEntity
  8
0
  6
HIDDEN
 62
     7
370
    18
100
AcDbCircle
 10
186.2571619174
 20
153.1386083736
 30
0.0
 40
0.4000000000000057
100
AcDbArc
 50
70.0
 51
90.0
  0
LINE
  5
159
330
1F
100
AcDbEntity
  8
0
  6
HIDDEN
 62
     7
370
    18
100
AcDbLine
 10
186.3939699748
 20
120.9627313253
 30
0.0
 11
187.1519359356
 21
121.2386083736
 31
0.0
  0
LINE
  5
15A
330
1F
100
AcDbEntity
  8
0
  6
HIDDEN
 62
     7
370
    18
100
AcDbLine
 10
187.1519359356
 20
153.2386083736
 30
0.0
 11
186.3939699748
 21
153.5144854219
 31
0.0
  0
LINE
  5
15B
330
1F
100
AcDbEntity
  8
0
  6
HIDDEN
 62
     7
370
    18
100
AcDbLine
 10
187.1519359356
 20
121.2386083736
 30
0.0
 11
242.9519359356
 21
121.2386083736
 31
0.0
  0
LINE
  5
15C
330
1F
100
AcDbEntity
  8
0
  6
HIDDEN
 62
     7
370
    18
100
AcDbLine
 10
242.9519359356
 20
153.2386083736
 30
0.0
 11
187.1519359356
 21
153.2386083736
 31
0.0
  0
LINE
  5
15D
330
1F
100
AcDbEntity
  8
0
  6
HIDDEN
 62
     7
370
    18
100
AcDbLine
 10
145.6519359356
 20
125.2386083736
 30
0.0
 11
146.6586554476
 21
125.2386083736
 31
0.0
  0
LINE
  5
15E
330
1F
100
AcDbEntity
  8
0
  6
HIDDEN
 62
     7
370
    18
100
AcDbLine
 10
146.6586554476
 20
149.2386083736
 30
0.0
 11
145.6519359356
 21
149.2386083736
 31
0.0
  0
ARC
  5
15F
330
1F
100
AcDbEntity
  8
0
  6
HIDDEN
 62
     7
370
    18
100
AcDbCircle
 10
146.6586554476
 20
126.7386083736
 30
0.0
 40
1.5
100
AcDbArc
 50
270.0
 51
315.0
  0
ARC
  5
160
330
1F
100
AcDbEntity
  8
0
  6
HIDDEN
 62
     7
370
    18
100
AcDbCircle
 10
146.6586554476
 20
147.7386083736
 30
0.0
 40
1.5
100
AcDbArc
 50
45.0
 51
90.0
  0
ARC
  5
161
330
1F
100
AcDbEntity
  8
0
  6
HIDDEN
 62
     7
370
    18
100
AcDbCircle
 10
145.6519359356
 20
126.7386083736
 30
0.0
 40
1.5
100
AcDbArc
 50
191.0958032831
 51
270.0
  0
ARC
  5
162
330
1F
100
AcDbEntity
  8
0
  6
HIDDEN
 62
     7
370
    18
100
AcDbCircle
 10
145.6519359356
 20
147.7386083736
 30
0.0
 40
1.5
100
AcDbArc
 50
90.0
 51
168.9041967169
  0
LINE
  5
163
330
1F
100
AcDbEntity
  8
0
  6
HIDDEN
 62
     7
370
    18
100
AcDbLine
 10
139.1519359356
 20
125.4751963052
 30
0.0
 11
140.1799757912
 21
126.0687353926
 31
0.0
  0
LINE
  5
164
330
1F
100
AcDbEntity
  8
0
  6
HIDDEN
 62
     7
370
    18
100
AcDbLine
 10
140.1799757912
 20
148.4084813547
 30
0.0
 11
139.1519359356
 21
149.0020204421
 31
0.0
  0
LINE
  5
165
330
1F
100
AcDbEntity
  8
0
  6
HIDDEN
 62
     7
370
    18
100
AcDbLine
 10
147.7193156194
 20
125.6779482019
 30
0.0
 11
148.7799757912
 21
126.7386083736
 31
0.0
  0
LINE
  5
166
330
1F
100
AcDbEntity
  8
0
  6
HIDDEN
 62
     7
370
    18
100
AcDbLine
 10
148.7799757912
 20
147.7386083736
 30
0.0
 11
147.7193156194
 21
148.7992685454
 31
0.0
  0
LINE
  5
167
330
1F
100
AcDbEntity
  8
0
  6
HIDDEN
 62
     7
370
    18
100
AcDbLine
 10
140.1799757912
 20
126.0687353926
 30
0.0
 11
142.6799757912
 21
126.7386083736
 31
0.0
  0
LINE
  5
168
330
1F
100
AcDbEntity
  8
0
  6
HIDDEN
 62
     7
370
    18
100
AcDbLine
 10
142.6799757912
 20
147.7386083736
 30
0.0
 11
140.1799757912
 21
148.4084813547
 31
0.0
  0
LINE
  5
169
330
1F
100
AcDbEntity
  8
0
  6
HIDDEN
 62
     7
370
    18
100
AcDbLine
 10
144.1799757912
 20
148.0272835082
 30
0.0
 11
143.6799757912
 21
147.7386083736
 31
0.0
  0
LINE
  5
16A
330
1F
100
AcDbEntity
  8
0
  6
HIDDEN
 62
     7
370
    18
100
AcDbLine
 10
143.6799757912
 20
126.7386083736
 30
0.0
 11
144.1799757912
 21
126.449933239
 31
0.0
  0
LINE
  5
16B
330
1F
100
AcDbEntity
  8
0
  6
HIDDEN
 62
     7
370
    18
100
AcDbLine
 10
142.6799757912
 20
126.7386083736
 30
0.0
 11
143.6799757912
 21
126.7386083736
 31
0.0
  0
LINE
  5
16C
330
1F
100
AcDbEntity
  8
0
  6
HIDDEN
 62
     7
370
    18
100
AcDbLine
 10
143.6799757912
 20
147.7386083736
 30
0.0
 11
142.6799757912
 21
147.7386083736
 31
0.0
  0
LINE
  5
16D
330
1F
100
AcDbEntity
  8
0
  6
HIDDEN
 62
     7
370
    18
100
AcDbLine
 10
148.7799757912
 20
126.7386083736
 30
0.0
 11
158.6519359356
 21
126.7386083736
 31
0.0
  0
LINE
  5
16E
330
1F
100
AcDbEntity
  8
0
  6
HIDDEN
 62
     7
370
    18
100
AcDbLine
 10
158.6519359356
 20
147.7386083736
 30
0.0
 11
148.7799757912
 21
147.7386083736
 31
0.0
  0
ARC
  5
16F
330
1F
100
AcDbEntity
  8
0
  6
HIDDEN
 62
     7
370
    18
100
AcDbCircle
 10
158.6519359356
 20
127.2386083736
 30
0.0
 40
0.5
100
AcDbArc
 50
270.0
 51
0.0
  0
ARC
  5
170
330
1F
100
AcDbEntity
  8
0
  6
HIDDEN
 62
     7
370
    18
100
AcDbCircle
 10
158.6519359356
 20
147.2386083736
 30
0.0
 40
0.5
100
AcDbArc
 50
0.0
 51
90.0
  0
LINE
  5
171
330
1F
100
AcDbEntity
  8
0
  6
HIDDEN
 62
     7
370
    18
100
AcDbLine
 10
159.1519359356
 20
128.9886083736
 30
0.0
 11
160.1519359356
 21
129.9886083736
 31
0.0
  0
LINE
  5
172
330
1F
100
AcDbEntity
  8
0
  6
HIDDEN
 62
     7
370
    18
100
AcDbLine
 10
160.1519359356
 20
144.4886083736
 30
0.0
 11
159.1519359356
 21
145.4886083736
 31
0.0
  0
LINE
  5
173
330
1F
100
AcDbEntity
  8
0
  6
HIDDEN
 62
     7
370
    18
100
AcDbLine
 10
160.1519359356
 20
129.9886083736
 30
0.0
 11
181.1519359356
 21
129.9886083736
 31
0.0
  0
LINE
  5
174
330
1F
100
AcDbEntity
  8
0
  6
HIDDEN
 62
     7
370
    18
100
AcDbLine
 10
181.1519359356
 20
144.4886083736
 30
0.0
 11
160.1519359356
 21
144.4886083736
 31
0.0
  0
LINE
  5
175
330
1F
100
AcDbEntity
  8
0
  6
HIDDEN
 62
     7
370
    18
100
AcDbLine
 10
190.4221065278
 20
163.2386083736
 30
0.0
 11
190.4221065278
 21
111.2386083736
 31
0.0
  0
LINE
  5
176
330
1F
100
AcDbEntity
  8
0
  6
HIDDEN
 62
     7
370
    18
100
AcDbLine
 10
189.9024912855
 20
162.9386083736
 30
0.0
 11
189.9024912855
 21
111.5386083736
 31
0.0
  0
LINE
  5
177
330
1F
100
AcDbEntity
  8
0
  6
HIDDEN
 62
     7
370
    18
100
AcDbLine
 10
189.6715511778
 20
162.5386083736
 30
0.0
 11
189.6715511778
 21
111.9386083736
 31
0.0
  0
LINE
  5
178
330
1F
100
AcDbEntity
  8
0
  6
HIDDEN
 62
     7
370
    18
100
AcDbLine
 10
189.1519359356
 20
162.2386083736
 30
0.0
 11
189.1519359356
 21
112.2386083736
 31
0.0
  0
LINE
  5
179
330
1F
100
AcDbEntity
  8
0
  6
HIDDEN
 62
     7
370
    18
100
AcDbLine
 10
169.4519359356
 20
162.2386083736
 30
0.0
 11
169.4519359356
 21
112.2386083736
 31
0.0
  0
LINE
  5
17A
330
1F
100
AcDbEntity
  8
0
  6
HIDDEN
 62
     7
370
    18
100
AcDbLine
 10
169.2448291544
 20
117.7815015924
 30
0.0
 11
169.2448291544
 21
156.6795229378
 31
0.0
  0
LINE
  5
17B
330
1F
100
AcDbEntity
  8
0
  6
HIDDEN
 62
     7
370
    18
100
AcDbLine
 10
167.830615592
 20
124.1435616501
 30
0.0
 11
167.830615592
 21
119.9416985056
 31
0.0
  0
LINE
  5
17C
330
1F
100
AcDbEntity
  8
0
  6
HIDDEN
 62
     7
370
    18
100
AcDbLine
 10
167.830615592
 20
154.5355182416
 30
0.0
 11
167.830615592
 21
150.3336550972
 31
0.0
  0
LINE
  5
17D
330
1F
100
AcDbEntity
  8
0
  6
HIDDEN
 62
     7
370
    18
100
AcDbLine
 10
242.9519359356
 20
121.2386083736
 30
0.0
 11
242.9519359356
 21
153.2386083736
 31
0.0
  0
LINE
  5
17E
330
1F
100
AcDbEntity
  8
0
  6
HIDDEN
 62
     7
370
    18
100
AcDbLine
 10
181.5519359356
 20
120.9386083736
 30
0.0
 11
181.5519359356
 21
153.5386083736
 31
0.0
  0
LINE
  5
17F
330
1F
100
AcDbEntity
  8
0
  6
HIDDEN
 62
     7
370
    18
100
AcDbLine
 10
186.2571619174
 20
120.9386083736
 30
0.0
 11
186.2571619174
 21
153.5386083736
 31
0.0
  0
LINE
  5
180
330
1F
100
AcDbEntity
  8
0
  6
HIDDEN
 62
     7
370
    18
100
AcDbLine
 10
186.3939699748
 20
120.9627313253
 30
0.0
 11
186.3939699748
 21
153.5144854219
 31
0.0
  0
LINE
  5
181
330
1F
100
AcDbEntity
  8
0
  6
HIDDEN
 62
     7
370
    18
100
AcDbLine
 10
145.6519359356
 20
125.2386083736
 30
0.0
 11
145.6519359356
 21
149.2386083736
 31
0.0
  0
LINE
  5
182
330
1F
100
AcDbEntity
  8
0
  6
HIDDEN
 62
     7
370
    18
100
AcDbLine
 10
146.6586554476
 20
125.2386083736
 30
0.0
 11
146.6586554476
 21
149.2386083736
 31
0.0
  0
LINE
  5
183
330
1F
100
AcDbEntity
  8
0
  6
HIDDEN
 62
     7
370
    18
100
AcDbLine
 10
147.7193156194
 20
125.6779482019
 30
0.0
 11
147.7193156194
 21
148.7828835718
 31
0.0
  0
LINE
  5
184
330
1F
100
AcDbEntity
  8
0
  6
HIDDEN
 62
     7
370
    18
100
AcDbLine
 10
158.6519359356
 20
126.7386083736
 30
0.0
 11
158.6519359356
 21
147.7386083736
 31
0.0
  0
LINE
  5
185
330
1F
100
AcDbEntity
  8
0
  6
HIDDEN
 62
     7
370
    18
100
AcDbLine
 10
139.1519359356
 20
148.8551681972
 30
0.0
 11
140.6519359356
 21
149.2881808991
 31
0.0
  0
LINE
  5
186
330
1F
100
AcDbEntity
  8
0
  6
HIDDEN
 62
     7
370
    18
100
AcDbLine
 10
140.6519359356
 20
149.2881808991
 30
0.0
 11
166.9519359356
 21
149.6185546704
 31
0.0
  0
LINE
  5
187
330
1F
100
AcDbEntity
  8
0
  6
HIDDEN
 62
     7
370
    18
100
AcDbLine
 10
167.1568959576
 20
124.9561189768
 30
0.0
 11
168.1110749074
 21
124.9441328286
 31
0.0
  0
LINE
  5
188
330
1F
100
AcDbEntity
  8
0
  6
HIDDEN
 62
     7
370
    18
100
AcDbLine
 10
167.1568959576
 20
124.9561189768
 30
0.0
 11
167.1568959576
 21
119.9134233889
 31
0.0
  0
LWPOLYLINE
  5
189
330
1F
100
AcDbEntity
  8
0
  6
HIDDEN
 62
     7
370
    18
100
AcDbPolyline
 90
        9
 70
   128
 43
0.0
 10
166.9519359356
 20
124.8586620769
 10
166.9567576276
 20
124.8781166962
 10
166.9690774881
 20
124.8967271678
 10
166.9884220717
 20
124.9137783015
 10
167.0140479769
 20
124.928614832
 10
167.0449704146
 20
124.9406665997
 10
167.0800010527
 20
124.9494704619
 10
167.1177936836
 20
124.9546880911
 10
167.1568959576
 20
124.9561189768
  0
LWPOLYLINE
  5
18A
330
1F
100
AcDbEntity
  8
0
  6
HIDDEN
 62
     7
370
    18
100
AcDbPolyline
 90
        9
 70
   128
 43
0.0
 10
166.9519359356
 20
149.6185546704
 10
166.9567576276
 20
149.5991000511
 10
166.9690774881
 20
149.5804895795
 10
166.9884220717
 20
149.5634384457
 10
167.0140479769
 20
149.5486019152
 10
167.0449704146
 20
149.5365501475
 10
167.0800010527
 20
149.5277462854
 10
167.1177936836
 20
149.5225286561
 10
167.1568959576
 20
149.5210977705
  0
LINE
  5
18B
330
1F
100
AcDbEntity
  8
0
  6
HIDDEN
 62
     7
370
    18
100
AcDbLine
 10
167.1568959576
 20
154.5637933584
 30
0.0
 11
167.1568959576
 21
149.5210977705
 31
0.0
  0
LINE
  5
18C
330
1F
100
AcDbEntity
  8
0
  6
HIDDEN
 62
     7
370
    18
100
AcDbLine
 10
167.1568959576
 20
149.5210977705
 30
0.0
 11
168.1110749074
 21
149.5330839187
 31
0.0
  0
LINE
  5
18D
330
1F
100
AcDbEntity
  8
0
  6
HIDDEN
 62
     7
370
    18
100
AcDbLine
 10
140.6519359356
 20
125.1890358482
 30
0.0
 11
166.9519359356
 21
124.8586620769
 31
0.0
  0
LINE
  5
18E
330
1F
100
AcDbEntity
  8
0
  6
HIDDEN
 62
     7
370
    18
100
AcDbLine
 10
139.1519359356
 20
125.6220485501
 30
0.0
 11
140.6519359356
 21
125.1890358482
 31
0.0
  0
LINE
  5
18F
330
1F
100
AcDbEntity
  8
0
  6
HIDDEN
 62
     7
370
    18
100
AcDbLine
 10
177.6796927491
 20
144.8074183428
 30
0.0
 11
177.6796927491
 21
161.0653394891
 31
0.0
  0
LINE
  5
190
330
1F
100
AcDbEntity
  8
0
  6
HIDDEN
 62
     7
370
    18
100
AcDbLine
 10
180.624179122
 20
144.8074183428
 30
0.0
 11
180.624179122
 21
161.0653394891
 31
0.0
  0
LINE
  5
191
330
1F
100
AcDbEntity
  8
0
  6
HIDDEN
 62
     7
370
    18
100
AcDbLine
 10
180.624179122
 20
113.4118772581
 30
0.0
 11
180.624179122
 21
129.6697984045
 31
0.0
  0
LINE
  5
192
330
1F
100
AcDbEntity
  8
0
  6
HIDDEN
 62
     7
370
    18
100
AcDbLine
 10
177.6796927491
 20
113.4118772581
 30
0.0
 11
177.6796927491
 21
129.6697984045
 31
0.0
  0
LINE
  5
193
330
1F
100
AcDbEntity
  8
0
  6
HIDDEN
 62
     7
370
    18
100
AcDbLine
 10
181.0571918239
 20
145.3350613717
 30
0.0
 11
181.0571918239
 21
160.8912498509
 31
0.0
  0
LINE
  5
194
330
1F
100
AcDbEntity
  8
0
  6
HIDDEN
 62
     7
370
    18
100
AcDbLine
 10
177.2466800472
 20
145.3350613717
 30
0.0
 11
177.2466800472
 21
160.8912498509
 31
0.0
  0
LINE
  5
195
330
1F
100
AcDbEntity
  8
0
  6
HIDDEN
 62
     7
370
    18
100
AcDbLine
 10
177.2466800472
 20
113.5859668964
 30
0.0
 11
177.2466800472
 21
129.1421553756
 31
0.0
  0
LINE
  5
196
330
1F
100
AcDbEntity
  8
0
  6
HIDDEN
 62
     7
370
    18
100
AcDbLine
 10
181.0571918239
 20
113.5859668964
 30
0.0
 11
181.0571918239
 21
129.1421553756
 31
0.0
  0
LINE
  5
197
330
1F
100
AcDbEntity
  8
0
  6
HIDDEN
 62
     7
370
    18
100
AcDbLine
 10
167.1568959576
 20
149.5210977705
 30
0.0
 11
167.1568959576
 21
124.9561189768
 31
0.0
  0
LINE
  5
198
330
1F
100
AcDbEntity
  8
0
  6
HIDDEN
 62
     7
370
    18
100
AcDbLine
 10
168.7569590467
 20
149.2141700031
 30
0.0
 11
168.7569590467
 21
125.2630467442
 31
0.0
  0
DIMENSION
  5
199
330
1F
100
AcDbEntity
  8
VERMASSUNG
100
AcDbDimension
  2
_D
 10
131.1272311998
 20
112.2386083736
 30
0.0
 11
131.1272311998
 21
137.2386083736
 31
0.0
 70
   160
  1
PSC%%c<>
 71
     2
 42
-1.0
  3
SLDDIMSTYLE0
100
AcDbAlignedDimension
 13
169.4519359356
 23
162.2386083736
 33
0.0
 14
169.4519359356
 24
112.2386083736
 34
0.0
 50
90.0
100
AcDbRotatedDimension
  0
DIMENSION
  5
1A6
330
1F
100
AcDbEntity
  8
VERMASSUNG
100
AcDbDimension
  2
_D_1
 10
253.9519359356
 20
121.2386083736
 30
0.0
 11
253.9519359356
 21
137.2386083736
 31
0.0
 70
   160
  1
%%c<>
 71
     2
 42
-1.0
  3
SLDDIMSTYLE0
100
AcDbAlignedDimension
 13
242.9519359356
 23
153.2386083736
 33
0.0
 14
242.9519359356
 24
121.2386083736
 34
0.0
 50
90.0
100
AcDbRotatedDimension
  0
DIMENSION
  5
1B1
330
1F
100
AcDbEntity
  8
VERMASSUNG
100
AcDbDimension
  2
_D_2
 10
262.9530055443
 20
163.2386083736
 30
0.0
 11
262.9530055443
 21
137.2386083736
 31
0.0
 70
   160
  1
%%c<>
 71
     2
 42
-1.0
  3
SLDDIMSTYLE0
100
AcDbAlignedDimension
 13
243.1519359356
 23
111.2386083736
 33
0.0
 14
243.1519359356
 24
163.2386083736
 34
0.0
 50
90.0
100
AcDbRotatedDimension
  0
DIMENSION
  5
1BC
330
1F
100
AcDbEntity
  8
VERMASSUNG
100
AcDbDimension
  2
_D_3
 10
244.1519359356
 20
185.2386083736
 30
0.0
 11
206.6519359356
 21
185.2386083736
 31
0.0
 70
   160
  1
<>
 71
     2
 42
-1.0
  3
SLDDIMSTYLE0
100
AcDbAlignedDimension
 13
169.1519359356
 23
161.9386083736
 33
0.0
 14
244.1519359356
 24
162.2386083736
 34
0.0
100
AcDbRotatedDimension
  0
DIMENSION
  5
1C6
330
1F
100
AcDbEntity
  8
VERMASSUNG
100
AcDbDimension
  2
_D_4
 10
244.1519359356
 20
193.1562801107
 30
0.0
 11
191.6519359356
 21
193.1562801107
 31
0.0
 70
   160
  1
<>
 71
     2
 42
-1.0
  3
SLDDIMSTYLE0
100
AcDbAlignedDimension
 13
139.1519359356
 23
153.2319342118
 33
0.0
 14
244.1519359356
 24
162.2386083736
 34
0.0
100
AcDbRotatedDimension
  0
DIMENSION
  5
1D0
330
1F
100
AcDbEntity
  8
VERMASSUNG
100
AcDbDimension
  2
_D_5
 10
181.1519359356
 20
102.8903707851
 30
0.0
 11
212.6519359356
 21
102.8903707851
 31
0.0
 70
   160
  1
<>
 71
     2
 42
-1.0
  3
SLDDIMSTYLE0
100
AcDbAlignedDimension
 13
244.1519359356
 23
112.2386083736
 33
0.0
 14
181.1519359356
 24
129.9886083736
 34
0.0
100
AcDbRotatedDimension
  0
DIMENSION
  5
1DA
330
1F
100
AcDbEntity
  8
VERMASSUNG
100
AcDbDimension
  2
_D_6
 10
189.1519359356
 20
177.3685884905
 30
0.0
 11
179.1519359356
 21
177.3685884905
 31
0.0
 70
   160
  1
<>
 71
     2
 42
-1.0
  3
SLDDIMSTYLE0
100
AcDbAlignedDimension
 13
169.1519359356
 23
161.9386083736
 33
0.0
 14
189.1519359356
 24
162.8386083736
 34
0.0
100
AcDbRotatedDimension
  0
DIMENSION
  5
1E4
330
1F
100
AcDbEntity
  8
VERMASSUNG
100
AcDbDimension
  2
_D_7
 10
189.1519359356
 20
162.8386083736
 30
0.0
 11
184.4148271087
 21
165.5735952035
 31
0.0
 70
   164
  1
<>
 71
     1
 42
-1.0
  3
SLDDIMSTYLE1
100
AcDbRadialDimension
 15
189.6715511778
 25
162.5386083736
 35
0.0
 40
0.0
  0
DIMENSION
  5
1EC
330
1F
100
AcDbEntity
  8
VERMASSUNG
100
AcDbDimension
  2
_D_8
 10
190.4221065278
 20
162.6386083736
 30
0.0
 11
185.4240630868
 21
171.2955008723
 31
0.0
 70
   164
  1
<>
 71
     1
 42
-1.0
  3
SLDDIMSTYLE2
100
AcDbRadialDimension
 15
190.1221065278
 25
163.1582236159
 35
0.0
 40
0.0
  0
DIMENSION
  5
1F5
330
1F
100
AcDbEntity
  8
VERMASSUNG
100
AcDbDimension
  2
_D_9
 10
243.1519359356
 20
163.2386083736
 30
0.0
 11
199.2333884171
 21
168.5258043443
 31
0.0
 70
   162
  1
<>
 71
     1
 42
-1.0
  3
SLDDIMSTYLE3
100
AcDb2LineAngularDimension
 13
189.9024912855
 23
162.9386083736
 33
0.0
 14
189.6715511778
 24
162.5386083736
 34
0.0
 15
190.4221065278
 25
163.2386083736
 35
0.0
 16
199.2333884171
 26
168.5258043443
 36
0.0
  0
INSERT
  5
20A
330
1F
100
AcDbEntity
  8
VERMASSUNG
100
AcDbBlockReference
  2
SW_CENTERMARKSYMBOL_0
 10
200.1519359356
 20
137.2386083736
 30
0.0
  0
INSERT
  5
216
330
1F
100
AcDbEntity
  8
VERMASSUNG
100
AcDbBlockReference
  2
SW_CENTERMARKSYMBOL_1
 10
227.1519359356
 20
137.2386083736
 30
0.0
  0
LINE
  5
217
330
1F
100
AcDbEntity
  8
VERMASSUNG
  6
CENTERX2
370
    18
100
AcDbLine
 10
137.1817370192
 20
137.2386083736
 30
0.0
 11
246.4052642917
 21
137.2386083736
 31
0.0
  0
LINE
  5
218
330
1F
100
AcDbEntity
  8
0
  6
Continuous
 62
     7
370
    25
100
AcDbLine
 10
53.5809208536
 20
133.2450207387
 30
0.0
 11
57.0745084885
 21
136.7386083736
 31
0.0
  0
LINE
  5
219
330
1F
100
AcDbEntity
  8
0
  6
Continuous
 62
     7
370
    25
100
AcDbLine
 10
57.0745084885
 20
137.7386083736
 30
0.0
 11
53.5809208536
 21
141.2321960086
 31
0.0
  0
LINE
  5
21A
330
1F
100
AcDbEntity
  8
0
  6
Continuous
 62
     7
370
    25
100
AcDbLine
 10
43.6876485219
 20
142.851748407
 30
0.0
 11
43.0745084885
 21
142.2386083736
 31
0.0
  0
LINE
  5
21B
330
1F
100
AcDbEntity
  8
0
  6
Continuous
 62
     7
370
    25
100
AcDbLine
 10
43.0745084885
 20
132.2386083736
 30
0.0
 11
43.6876485219
 21
131.6254683403
 31
0.0
  0
LINE
  5
21C
330
1F
100
AcDbEntity
  8
0
  6
Continuous
 62
     7
370
    25
100
AcDbLine
 10
53.9899847484
 20
131.9040846335
 30
0.0
 11
55.0745084885
 21
132.9886083736
 31
0.0
  0
LINE
  5
21D
330
1F
100
AcDbEntity
  8
0
  6
Continuous
 62
     7
370
    25
100
AcDbLine
 10
55.0745084885
 20
141.4886083736
 30
0.0
 11
53.9899847484
 21
142.5731321138
 31
0.0
  0
LINE
  5
21E
330
1F
100
AcDbEntity
  8
0
  6
Continuous
 62
     7
370
    25
100
AcDbLine
 10
43.7762872072
 20
143.2386083736
 30
0.0
 11
43.631074148
 21
143.2386083736
 31
0.0
  0
LINE
  5
21F
330
1F
100
AcDbEntity
  8
0
  6
Continuous
 62
     7
370
    25
100
AcDbLine
 10
43.631074148
 20
131.2386083736
 30
0.0
 11
43.7762872072
 21
131.2386083736
 31
0.0
  0
LINE
  5
220
330
1F
100
AcDbEntity
  8
0
  6
Continuous
 62
     7
370
    25
100
AcDbLine
 10
43.631074148
 20
143.2386083736
 30
0.0
 11
43.0745084885
 21
142.2746083736
 31
0.0
  0
LINE
  5
221
330
1F
100
AcDbEntity
  8
0
  6
Continuous
 62
     7
370
    25
100
AcDbLine
 10
43.0745084885
 20
132.2026083736
 30
0.0
 11
43.631074148
 21
131.2386083736
 31
0.0
  0
LINE
  5
222
330
1F
100
AcDbEntity
  8
0
  6
Continuous
 62
     7
370
    25
100
AcDbLine
 10
57.0745084885
 20
137.3316265938
 30
0.0
 11
57.0745084885
 21
137.7386083736
 31
0.0
  0
LINE
  5
223
330
1F
100
AcDbEntity
  8
0
  6
Continuous
 62
     7
370
    25
100
AcDbLine
 10
57.0745084885
 20
136.7386083736
 30
0.0
 11
57.0745084885
 21
137.3316265938
 31
0.0
  0
LINE
  5
224
330
1F
100
AcDbEntity
  8
0
  6
Continuous
 62
     7
370
    25
100
AcDbLine
 10
43.0745084885
 20
138.1687905749
 30
0.0
 11
43.0745084885
 21
142.2386083736
 31
0.0
  0
LINE
  5
225
330
1F
100
AcDbEntity
  8
0
  6
Continuous
 62
     7
370
    25
100
AcDbLine
 10
43.0745084885
 20
132.2386083736
 30
0.0
 11
43.0745084885
 21
138.1687905749
 31
0.0
  0
LINE
  5
226
330
1F
100
AcDbEntity
  8
0
  6
Continuous
 62
     7
370
    25
100
AcDbLine
 10
55.0745084885
 20
141.4886083736
 30
0.0
 11
55.0745084885
 21
139.7386083736
 31
0.0
  0
LINE
  5
227
330
1F
100
AcDbEntity
  8
0
  6
Continuous
 62
     7
370
    25
100
AcDbLine
 10
55.0745084885
 20
134.7386083736
 30
0.0
 11
55.0745084885
 21
132.9886083736
 31
0.0
  0
LINE
  5
228
330
1F
100
AcDbEntity
  8
0
  6
Continuous
 62
     7
370
    25
100
AcDbLine
 10
43.631074148
 20
143.2386083736
 30
0.0
 11
43.631074148
 21
142.7951740331
 31
0.0
  0
LINE
  5
229
330
1F
100
AcDbEntity
  8
0
  6
Continuous
 62
     7
370
    25
100
AcDbLine
 10
43.631074148
 20
131.6820427141
 30
0.0
 11
43.631074148
 21
131.2386083736
 31
0.0
  0
LINE
  5
22A
330
1F
100
AcDbEntity
  8
0
  6
Continuous
 62
     7
370
    25
100
AcDbLine
 10
43.0745084885
 20
142.2746083736
 30
0.0
 11
43.0745084885
 21
142.2386083736
 31
0.0
  0
LINE
  5
22B
330
1F
100
AcDbEntity
  8
0
  6
Continuous
 62
     7
370
    25
100
AcDbLine
 10
43.0745084885
 20
132.2386083736
 30
0.0
 11
43.0745084885
 21
132.2026083736
 31
0.0
  0
CIRCLE
  5
22C
330
1F
100
AcDbEntity
  8
0
  6
Continuous
 62
     7
370
    25
100
AcDbCircle
 10
69.0745084885
 20
137.2386083736
 30
0.0
 40
25.0
  0
CIRCLE
  5
22D
330
1F
100
AcDbEntity
  8
0
  6
Continuous
 62
     7
370
    25
100
AcDbCircle
 10
69.0745084885
 20
137.2386083736
 30
0.0
 40
26.0
  0
CIRCLE
  5
22E
330
1F
100
AcDbEntity
  8
0
  6
Continuous
 62
     7
370
    25
100
AcDbCircle
 10
69.0745084885
 20
137.2386083736
 30
0.0
 40
16.0
  0
CIRCLE
  5
22F
330
1F
100
AcDbEntity
  8
0
  6
Continuous
 62
     7
370
    25
100
AcDbCircle
 10
69.0745084885
 20
137.2386083736
 30
0.0
 40
7.25
  0
INSERT
  5
23B
330
1F
100
AcDbEntity
  8
VERMASSUNG
100
AcDbBlockReference
  2
SW_CENTERMARKSYMBOL_2
 10
69.0745084885
 20
137.2386083736
 30
0.0
  0
LINE
  5
23C
330
1F
100
AcDbEntity
  8
0
  6
Continuous
 62
     7
370
    25
100
AcDbLine
 10
230.8340201006
 20
68.1075856419
 30
0.0
 11
230.1267984227
 21
68.5159887371
 31
0.0
  0
LINE
  5
23D
330
1F
100
AcDbEntity
  8
0
  6
Continuous
 62
     7
370
    25
100
AcDbLine
 10
223.0545816436
 20
68.5159887371
 30
0.0
 11
222.3473599656
 21
68.1075856419
 31
0.0
  0
LINE
  5
23E
330
1F
100
AcDbEntity
  8
0
  6
Continuous
 62
     7
370
    25
100
AcDbLine
 10
213.4988069411
 20
76.6802688515
 30
0.0
 11
213.4988069411
 21
77.0423510879
 31
0.0
  0
LINE
  5
23F
330
1F
100
AcDbEntity
  8
0
  6
Continuous
 62
     7
370
    25
100
AcDbLine
 10
201.4988069411
 20
77.0423510879
 30
0.0
 11
201.4988069411
 21
76.6802688515
 31
0.0
  0
LINE
  5
240
330
1F
100
AcDbEntity
  8
0
  6
Continuous
 62
     7
370
    25
100
AcDbLine
 10
237.9073865753
 20
17.4856382821
 30
0.0
 11
238.6143784318
 21
17.8939086827
 31
0.0
  0
LINE
  5
241
330
1F
100
AcDbEntity
  8
0
  6
Continuous
 62
     7
370
    25
100
AcDbLine
 10
256.289174843
 20
48.510871492
 30
0.0
 11
256.289174843
 21
49.3272796038
 31
0.0
  0
LINE
  5
242
330
1F
100
AcDbEntity
  8
0
  6
Continuous
 62
     7
370
    25
100
AcDbLine
 10
187.6198350628
 20
37.72123396
 30
0.0
 11
224.9054550078
 21
16.1967037283
 31
0.0
  0
LINE
  5
243
330
1F
100
AcDbEntity
  8
0
  6
Continuous
 62
     7
370
    25
100
AcDbLine
 10
250.9033420564
 20
61.2312445721
 30
0.0
 11
213.6177221113
 21
82.7557748038
 31
0.0
  0
SPLINE
  5
244
330
1F
100
AcDbEntity
  8
0
  6
Continuous
 62
     7
370
    25
100
AcDbSpline
210
0.0
220
0.0
230
1.0
 70
     8
 71
     3
 72
    15
 73
    11
 74
     0
 42
0.000000001
 43
0.00000001
 40
0.0
 40
0.0
 40
0.0
 40
0.0
 40
0.0356832048508683
 40
0.1809057118844721
 40
0.3246253064253305
 40
0.4644044437378612
 40
0.60067493818287
 40
0.7347373063368224
 40
0.8676816427066155
 40
0.9999999999999999
 40
0.9999999999999999
 40
0.9999999999999999
 40
0.9999999999999999
 10
229.7186710650907
 20
24.98358634357524
 30
0.0
 10
229.6534266241269
 20
25.01690004541249
 30
0.0
 10
229.322652185889
 20
25.18579291732696
 30
0.0
 10
228.8141977611887
 20
25.63783233796155
 30
0.0
 10
228.2014661721388
 20
26.34685427737484
 30
0.0
 10
227.6977552731003
 20
27.20646537173686
 30
0.0
 10
227.2998497460473
 20
28.18587527869585
 30
0.0
 10
227.0151582344351
 20
29.28000584319225
 30
0.0
 10
226.8346140456599
 20
30.47050567872479
 30
0.0
 10
226.8120139306042
 20
31.34052306166209
 30
0.0
 10
226.8007405394705
 20
31.77450519965972
 30
0.0
  0
SPLINE
  5
245
330
1F
100
AcDbEntity
  8
0
  6
Continuous
 62
     7
370
    25
100
AcDbSpline
210
0.0
220
0.0
230
1.0
 70
     8
 71
     3
 72
    31
 73
    27
 74
     0
 42
0.000000001
 43
0.00000001
 40
0.0
 40
0.0
 40
0.0
 40
0.0
 40
0.022472176902415
 40
0.0654798480821072
 40
0.1085654606926235
 40
0.1517269852350707
 40
0.1949641599074254
 40
0.2382666694202948
 40
0.2816191957372685
 40
0.3250041005263827
 40
0.368402736226755
 40
0.4117940196648929
 40
0.4551542487895452
 40
0.4984640912297249
 40
0.5417046550611571
 40
0.5848585840277947
 40
0.6279123650810661
 40
0.6708607365904974
 40
0.7137145635629185
 40
0.7565140773675784
 40
0.7993216066118125
 40
0.8422697976863215
 40
0.8855980444765564
 40
0.9296598840676741
 40
0.9748579447272964
 40
1.0
 40
1.0
 40
1.0
 40
1.0
 10
226.8007405394705
 20
31.77450519965972
 30
0.0
 10
226.8039561588838
 20
32.00763180611194
 30
0.0
 10
226.8133258906897
 20
32.68692045895038
 30
0.0
 10
226.9185798915306
 20
33.86967399378633
 30
0.0
 10
227.156300912248
 20
35.32877279145456
 30
0.0
 10
227.5129046222246
 20
36.82987344160765
 30
0.0
 10
227.9835065161192
 20
38.35422879598278
 30
0.0
 10
228.5642113693904
 20
39.88474165479467
 30
0.0
 10
229.2489107723951
 20
41.40368282645285
 30
0.0
 10
230.0302496787024
 20
42.89360320602582
 30
0.0
 10
230.8994871332383
 20
44.33737856591266
 30
0.0
 10
231.8466443545084
 20
45.71845084483989
 30
0.0
 10
232.8606214931864
 20
47.0210817623359
 30
0.0
 10
233.9293391007909
 20
48.23058426676354
 30
0.0
 10
235.0398868921246
 20
49.33354423855457
 30
0.0
 10
236.1786273681988
 20
50.31799515737276
 30
0.0
 10
237.3313639245935
 20
51.17365954829682
 30
0.0
 10
238.4835649313113
 20
51.89220294574282
 30
0.0
 10
239.6207031556438
 20
52.46751394845671
 30
0.0
 10
240.7284679848428
 20
52.89575786823651
 30
0.0
 10
241.7936136310423
 20
53.17583863889919
 30
0.0
 10
242.8045122868731
 20
53.30833062493537
 30
0.0
 10
243.7546511314809
 20
53.29809979016679
 30
0.0
 10
244.6357582091469
 20
53.13853854963072
 30
0.0
 10
245.3357836652294
 20
52.90427693891083
 30
0.0
 10
245.7101904552947
 20
52.66481843809924
 30
0.0
 10
245.8440167375736
 20
52.57922746653025
 30
0.0
  0
SPLINE
  5
246
330
1F
100
AcDbEntity
  8
0
  6
Continuous
 62
     7
370
    25
100
AcDbSpline
210
0.0
220
0.0
230
1.0
 70
     8
 71
     3
 72
    12
 73
     8
 74
     0
 42
0.000000001
 43
0.00000001
 40
0.0
 40
0.0
 40
0.0
 40
0.0
 40
0.2071708141417316
 40
0.4354477913609942
 40
0.6647985415459415
 40
0.8950261136718993
 40
1.0
 40
1.0
 40
1.0
 40
1.0
 10
209.9076642625677
 20
83.94915668535695
 30
0.0
 10
209.5010569305886
 20
83.98455284771528
 30
0.0
 10
208.6464178956696
 20
84.05895126520205
 30
0.0
 10
207.2787501798414
 20
83.97388999507876
 30
0.0
 10
205.8279327075984
 20
83.72985050675338
 30
0.0
 10
204.6138013932087
 20
83.4221653482663
 30
0.0
 10
203.8806976149681
 20
83.14119212837869
 30
0.0
 10
203.6511140295067
 20
83.05320071276329
 30
0.0
  0
SPLINE
  5
247
330
1F
100
AcDbEntity
  8
0
  6
Continuous
 62
     7
370
    25
100
AcDbSpline
210
0.0
220
0.0
230
1.0
 70
     8
 71
     3
 72
    14
 73
    10
 74
     0
 42
0.000000001
 43
0.00000001
 40
0.0
 40
0.0
 40
0.0
 40
0.0
 40
0.0810953102585376
 40
0.2350258688046243
 40
0.389020629138999
 40
0.5429364444810061
 40
0.6966421052639565
 40
0.849963329856087
 40
1.0
 40
1.0
 40
1.0
 40
1.0
 10
182.0582663449251
 20
49.87012136177514
 30
0.0
 10
182.0618256107661
 20
49.56141885040453
 30
0.0
 10
182.0721408749152
 20
48.66675458799843
 30
0.0
 10
182.1868375075093
 20
47.24237235533661
 30
0.0
 10
182.4443260361477
 20
45.63489086010858
 30
0.0
 10
182.8295323891267
 20
44.12551507441637
 30
0.0
 10
183.3410437171838
 20
42.72788477331657
 30
0.0
 10
183.9614200517761
 20
41.44770815852227
 30
0.0
 10
184.4719856480122
 20
40.7047970817815
 30
0.0
 10
184.7245044163666
 20
40.33736341316311
 30
0.0
  0
LINE
  5
248
330
1F
100
AcDbEntity
  8
0
  6
Continuous
 62
     7
370
    25
100
AcDbLine
 10
182.5388328437
 20
41.8091033673
 30
0.0
 11
184.506084466
 21
40.6734331791
 31
0.0
  0
LINE
  5
249
330
1F
100
AcDbEntity
  8
0
  6
Continuous
 62
     7
370
    25
100
AcDbLine
 10
173.2916446007
 20
47.1473915113
 30
0.0
 11
177.7623279127
 21
44.5665209707
 31
0.0
  0
LINE
  5
24A
330
1F
100
AcDbEntity
  8
0
  6
Continuous
 62
     7
370
    25
100
AcDbLine
 10
202.7602962286
 20
87.8689640897
 30
0.0
 11
198.2896129166
 21
90.4498346303
 31
0.0
  0
LINE
  5
24B
330
1F
100
AcDbEntity
  8
0
  6
Continuous
 62
     7
370
    25
100
AcDbLine
 10
209.507008434
 20
83.9741700366
 30
0.0
 11
207.5368011596
 21
85.1115464863
 31
0.0
  0
SPLINE
  5
24C
330
1F
100
AcDbEntity
  8
0
  6
Continuous
 62
     7
370
    25
100
AcDbSpline
210
0.0
220
0.0
230
1.0
 70
     8
 71
     3
 72
    12
 73
     8
 74
     0
 42
0.000000001
 43
0.00000001
 40
0.0
 40
0.0
 40
0.0
 40
0.0
 40
0.2410443112197272
 40
0.4831696208332305
 40
0.7253683348608648
 40
0.95489621470761
 40
1.0
 40
1.0
 40
1.0
 40
1.0
 10
169.0871143069969
 20
66.29321721156528
 30
0.0
 10
168.9294920521307
 20
65.66149480726727
 30
0.0
 10
168.6135406623916
 20
64.39521694735015
 30
0.0
 10
168.2916821008524
 20
62.5297969640463
 30
0.0
 10
168.0888270413653
 20
60.73655648768012
 30
0.0
 10
168.0283876040395
 20
59.47651838135161
 30
0.0
 10
168.025556264792
 20
58.82325996263555
 30
0.0
 10
168.0250912633603
 20
58.71597288980916
 30
0.0
  0
SPLINE
  5
24D
330
1F
100
AcDbEntity
  8
0
  6
Continuous
 62
     7
370
    25
100
AcDbSpline
210
0.0
220
0.0
230
1.0
 70
     8
 71
     3
 72
    12
 73
     8
 74
     0
 42
0.000000001
 43
0.00000001
 40
0.0
 40
0.0
 40
0.0
 40
0.0
 40
0.0181185670474814
 40
0.3261031965774767
 40
0.6341961483819063
 40
0.94229540890093
 40
1.0
 40
1.0
 40
1.0
 40
1.0
 10
188.0163773858572
 20
90.40952248178918
 30
0.0
 10
187.9874538155051
 20
90.39868916743146
 30
0.0
 10
187.4668790524175
 20
90.20370805041917
 30
0.0
 10
186.4394264729866
 20
89.6837023745785
 30
0.0
 10
184.9477420701382
 20
88.83032705362254
 30
0.0
 10
183.8583084876282
 20
88.1237715560994
 30
0.0
 10
183.2771665139496
 20
87.67191687202663
 30
0.0
 10
183.1854929030423
 20
87.60063798946352
 30
0.0
  0
SPLINE
  5
24E
330
1F
100
AcDbEntity
  8
0
  6
Continuous
 62
     7
370
    25
100
AcDbSpline
210
0.0
220
0.0
230
1.0
 70
     8
 71
     3
 72
    10
 73
     6
 74
     0
 42
0.000000001
 43
0.00000001
 40
0.0
 40
0.0
 40
0.0
 40
0.0
 40
0.3361005204894978
 40
0.9746710289854013
 40
1.0
 40
1.0
 40
1.0
 40
1.0
 10
168.0250912633603
 20
58.71597288980916
 30
0.0
 10
168.0296302599174
 20
58.41604309139815
 30
0.0
 10
168.0427930733473
 20
57.54626495236143
 30
0.0
 10
168.0896225188386
 20
56.66992699975368
 30
0.0
 10
168.1787934376063
 20
56.13054240126615
 30
0.0
 10
168.1821954701225
 20
56.10996389912471
 30
0.0
  0
LINE
  5
24F
330
1F
100
AcDbEntity
  8
0
  6
Continuous
 62
     7
370
    25
100
AcDbLine
 10
155.4125578899
 20
65.9061631638
 30
0.0
 11
168.0372631135
 21
58.0906914248
 31
0.0
  0
LINE
  5
250
330
1F
100
AcDbEntity
  8
0
  6
Continuous
 62
     7
370
    25
100
AcDbLine
 10
184.5246792863
 20
88.5272233623
 30
0.0
 11
172.1392425086
 21
95.1778577954
 31
0.0
  0
LINE
  5
251
330
1F
100
AcDbEntity
  8
0
  6
Continuous
 62
     7
370
    25
100
AcDbLine
 10
167.8523293731
 20
96.1197501052
 30
0.0
 11
166.573228468
 21
95.9453279743
 31
0.0
  0
LINE
  5
252
330
1F
100
AcDbEntity
  8
0
  6
Continuous
 62
     7
370
    25
100
AcDbLine
 10
153.4638555134
 20
68.9101461976
 30
0.0
 11
153.9524640989
 21
67.7152470993
 31
0.0
  0
LWPOLYLINE
  5
253
330
1F
100
AcDbEntity
  8
0
  6
Continuous
 62
     7
370
    25
100
AcDbPolyline
 90
       32
 70
   128
 43
0.0
 10
230.7222417191
 20
64.8496144282
 10
231.2045404241
 20
65.3630082071
 10
231.497947552
 20
65.9219393489
 10
231.5904509805
 20
66.5035251471
 10
231.4782636084
 20
67.0839554107
 10
231.1659783999
 20
67.6394672566
 10
230.666380348
 20
68.1473179646
 10
229.9999230558
 20
68.5867160669
 10
229.1938913631
 20
68.9396725536
 10
228.281284302
 20
69.1917373448
 10
227.2994641129
 20
69.3325908781
 10
226.2886266298
 20
69.3564665935
 10
225.2901556579
 20
69.2623870164
 10
224.344928716
 20
69.0542037756
 10
223.4916435064
 20
68.7404399175
 10
222.7652336257
 20
68.3339409714
 10
222.1954383798
 20
67.8513490518
 10
221.805585253
 20
67.3124215286
 10
221.6116348782
 20
66.739222158
 10
221.6215276064
 20
66.1552177895
 10
221.8348584281
 20
65.5843176307
 10
222.2428935546
 20
65.049894401
 10
222.8289279798
 20
64.5738274503
 10
223.5689693854
 20
64.1756070155
 10
224.4327203894
 20
63.871536288
 10
225.3848189241
 20
63.6740639591
 10
226.3862859637
 20
63.5912745691
 10
227.39612133
 20
63.6265575254
 10
228.3729822443
 20
63.7784683396
 10
229.276875906
 20
64.0407877652
 10
230.0707968026
 20
64.402776414
 10
230.7222417191
 20
64.8496144282
  0
ARC
  5
254
330
1F
100
AcDbEntity
  8
0
  6
Continuous
 62
     7
370
    25
100
AcDbCircle
 10
229.9742062481
 20
65.7100992891
 30
0.0
 40
2.547002291475449
100
AcDbArc
 50
308.1787690901
 51
70.2705730184
  0
ARC
  5
255
330
1F
100
AcDbEntity
  8
0
  6
Continuous
 62
     7
370
    25
100
AcDbCircle
 10
223.6614495911
 20
65.310432784
 30
0.0
 40
3.090452338079375
100
AcDbArc
 50
115.1639234061
 51
173.5284098428
  0
LINE
  5
256
330
1F
100
AcDbEntity
  8
0
  6
Continuous
 62
     7
370
    25
100
AcDbLine
 10
231.1929704564
 20
63.4364629517
 30
0.0
 11
231.5485520563
 21
63.7079364712
 31
0.0
  0
LWPOLYLINE
  5
257
330
1F
100
AcDbEntity
  8
0
  6
Continuous
 62
     7
370
    25
100
AcDbPolyline
 90
       29
 70
   128
 43
0.0
 10
229.8959313819
 20
65.1747515733
 10
230.3143706633
 20
65.6319457207
 10
230.5460890491
 20
66.1314291809
 10
230.579467212
 20
66.6481557675
 10
230.4128314314
 20
67.1562146519
 10
230.0545375213
 20
67.6301296401
 10
229.5225518343
 20
68.0461366557
 10
228.8435503543
 20
68.3833753699
 10
228.0515810506
 20
68.6249352253
 10
227.1863565711
 20
68.7587034021
 10
226.2912628842
 20
68.7779722054
 10
225.4111837248
 20
68.6817754168
 10
224.5902499368
 20
68.4749367452
 10
223.8696265685
 20
68.1678279451
 10
223.2854486844
 20
67.7758487342
 10
222.867009403
 20
67.3186545868
 10
222.6352910172
 20
66.8191711266
 10
222.6019128543
 20
66.30244454
 10
222.7685486348
 20
65.7943856556
 10
223.126842545
 20
65.3204706674
 10
223.6588282319
 20
64.9044636518
 10
224.337829712
 20
64.5672249377
 10
225.1297990157
 20
64.3256650823
 10
225.9950234951
 20
64.1918969055
 10
226.8901171821
 20
64.1726281022
 10
227.7701963415
 20
64.2688248907
 10
228.5911301294
 20
64.4756635623
 10
229.3117534978
 20
64.7827723624
 10
229.8959313819
 20
65.1747515733
  0
SPLINE
  5
258
330
1F
100
AcDbEntity
  8
0
  6
Continuous
 62
     7
370
    25
100
AcDbSpline
210
0.0
220
0.0
230
1.0
 70
     8
 71
     3
 72
    11
 73
     7
 74
     0
 42
0.000000001
 43
0.00000001
 40
0.0
 40
0.0
 40
0.0
 40
0.0
 40
0.216455377944343
 40
0.4403112895790606
 40
0.7519005688038725
 40
1.0
 40
1.0
 40
1.0
 40
1.0
 10
223.4698333054574
 20
65.16981489417276
 30
0.0
 10
223.4875362680067
 20
65.21769641279576
 30
0.0
 10
223.5235474512053
 20
65.31509650242216
 30
0.0
 10
223.5903745892315
 20
65.68033851691207
 30
0.0
 10
223.6620586821497
 20
66.32418860515169
 30
0.0
 10
223.7079321970177
 20
66.90608270167786
 30
0.0
 10
223.7282670594758
 20
67.16402536101067
 30
0.0
  0
SPLINE
  5
259
330
1F
100
AcDbEntity
  8
0
  6
Continuous
 62
     7
370
    25
100
AcDbSpline
210
0.0
220
0.0
230
1.0
 70
     8
 71
     3
 72
     9
 73
     5
 74
     0
 42
0.000000001
 43
0.00000001
 40
0.0
 40
0.0
 40
0.0
 40
0.0
 40
0.2909508108976683
 40
1.0
 40
1.0
 40
1.0
 40
1.0
 10
223.8878052043382
 20
64.83132681308437
 30
0.0
 10
223.8457441247867
 20
64.86093422775781
 30
0.0
 10
223.7011798961401
 20
64.96269512191752
 30
0.0
 10
223.5658142248897
 20
65.08388518103105
 30
0.0
 10
223.4698333054574
 20
65.16981489417276
 30
0.0
  0
LINE
  5
25A
330
1F
100
AcDbEntity
  8
0
  6
Continuous
 62
     7
370
    25
100
AcDbLine
 10
229.4531130068
 20
64.911409142
 30
0.0
 11
229.1199481843
 21
64.6938598163
 31
0.0
  0
SPLINE
  5
25B
330
1F
100
AcDbEntity
  8
0
  6
Continuous
 62
     7
370
    25
100
AcDbSpline
210
0.0
220
0.0
230
1.0
 70
     8
 71
     3
 72
    11
 73
     7
 74
     0
 42
0.000000001
 43
0.00000001
 40
0.0
 40
0.0
 40
0.0
 40
0.0
 40
0.2164553779443497
 40
0.4403112895790516
 40
0.7519005688038692
 40
1.0
 40
1.0
 40
1.0
 40
1.0
 10
229.7115467608062
 20
66.90561960882768
 30
0.0
 10
229.6938437982568
 20
66.68029042907231
 30
0.0
 10
229.6578326150583
 20
66.22192814368995
 30
0.0
 10
229.5910054770319
 20
65.55582362508511
 30
0.0
 10
229.5193213841138
 20
65.09336955467384
 30
0.0
 10
229.4734478692457
 20
64.96729542276232
 30
0.0
 10
229.4531130067877
 20
64.9114091419898
 30
0.0
  0
SPLINE
  5
25C
330
1F
100
AcDbEntity
  8
0
  6
Continuous
 62
     7
370
    25
100
AcDbSpline
210
0.0
220
0.0
230
1.0
 70
     8
 71
     3
 72
    13
 73
     9
 74
     0
 42
0.000000001
 43
0.00000001
 40
0.0
 40
0.0
 40
0.0
 40
0.0
 40
0.1077852362604667
 40
0.2867886602058499
 40
0.4712404514100959
 40
0.6395159303143918
 40
0.8141409998222553
 40
1.0
 40
1.0
 40
1.0
 40
1.0
 10
226.8491237871502
 20
68.0319277183381
 30
0.0
 10
226.9459974931333
 20
67.94808137524728
 30
0.0
 10
227.2037533909902
 20
67.72498792356093
 30
0.0
 10
227.6499283889997
 20
67.39933245666575
 30
0.0
 10
228.1775074211792
 20
67.11316797551345
 30
0.0
 10
228.7048030855812
 20
66.94243221031073
 30
0.0
 10
229.2172679889239
 20
66.8736184979818
 30
0.0
 10
229.5433993760977
 20
66.89473323578761
 30
0.0
 10
229.7115467608062
 20
66.90561960882768
 30
0.0
  0
SPLINE
  5
25D
330
1F
100
AcDbEntity
  8
0
  6
Continuous
 62
     7
370
    25
100
AcDbSpline
210
0.0
220
0.0
230
1.0
 70
     8
 71
     3
 72
    11
 73
     7
 74
     0
 42
0.000000001
 43
0.00000001
 40
0.0
 40
0.0
 40
0.0
 40
0.0
 40
0.2164553779443428
 40
0.440311289579058
 40
0.751900568803875
 40
1.0
 40
1.0
 40
1.0
 40
1.0
 10
223.7282670594758
 20
67.16402536101067
 30
0.0
 10
223.9420487691513
 20
67.13475368284082
 30
0.0
 10
224.3769213104094
 20
67.07520953805906
 30
0.0
 10
225.1839285997343
 20
67.14920497069195
 30
0.0
 10
226.0495886776935
 20
67.4806408563701
 30
0.0
 10
226.6035591450642
 20
67.86260862359829
 30
0.0
 10
226.8491237871502
 20
68.0319277183381
 30
0.0
  0
LINE
  5
25E
330
1F
100
AcDbEntity
  8
0
  6
Continuous
 62
     7
370
    25
100
AcDbLine
 10
223.7282670595
 20
64.950730197
 30
0.0
 11
223.7282670595
 21
67.164025361
 31
0.0
  0
LINE
  5
25F
330
1F
100
AcDbEntity
  8
0
  6
Continuous
 62
     7
370
    25
100
AcDbLine
 10
226.8491237872
 20
64.1709738322
 30
0.0
 11
226.8491237872
 21
68.0319277183
 31
0.0
  0
LWPOLYLINE
  5
260
330
1F
100
AcDbEntity
  8
0
  6
Continuous
 62
     7
370
    25
100
AcDbPolyline
 90
       32
 70
   128
 43
0.0
 10
203.969474022
 20
79.57063935
 10
204.7648579606
 20
79.9383216972
 10
205.6721700916
 20
80.2060482548
 10
206.6542649498
 20
80.3628582661
 10
207.6709354564
 20
80.402331911
 10
208.6805590014
 20
80.3228531336
 10
209.6418014782
 20
80.1276758045
 10
210.5153095068
 20
79.8247905064
 10
211.265321566
 20
79.4265973992
 10
211.8611320738
 20
78.9493985552
 10
212.2783484782
 20
78.4127305514
 10
212.4998898905
 20
77.8385646388
 10
212.5166863793
 20
77.2504072374
 10
212.3280502942
 20
76.6723375802
 10
211.9417044189
 20
76.128021907
 10
211.3734657988
 20
75.6397445653
 10
210.6465981898
 20
75.227495687
 10
209.7908596373
 20
74.9081527895
 10
208.841284178
 20
74.6947898086
 10
207.836747543
 20
74.5961418497
 10
206.81837558
 20
74.6162475719
 10
205.8278605569
 20
74.7542838447
 10
204.905754275
 20
75.0045994466
 10
204.089807874
 20
75.3569464277
 10
203.4134262954
 20
75.7968996611
 10
202.9043006803
 20
76.3064474096
 10
202.5832746915
 20
76.8647287288
 10
202.4634911705
 20
77.4488875156
 10
202.5498540687
 20
78.0350082408
 10
202.838827679
 20
78.599095053
 10
203.3185813879
 20
79.1180541719
 10
203.969474022
 20
79.57063935
  0
LWPOLYLINE
  5
261
330
1F
100
AcDbEntity
  8
0
  6
Continuous
 62
     7
370
    25
100
AcDbPolyline
 90
       35
 70
   128
 43
0.0
 10
203.2938828914
 20
79.51315691
 10
204.1519322383
 20
79.9171296934
 10
205.1239553891
 20
80.2232053393
 10
206.1768512612
 20
80.4209608088
 10
207.2747647485
 20
80.5036617763
 10
208.3803077239
 20
80.4684919598
 10
209.4558322474
 20
80.3166490251
 10
210.4647126213
 20
80.0533038012
 10
211.3725926345
 20
79.6874241939
 10
212.1485555219
 20
79.2314697943
 10
212.7661767983
 20
78.7009675828
 10
213.2044241116
 20
78.1139831759
 10
213.4483734753
 20
77.4905056235
 10
213.4897174865
 20
76.8517667059
 10
213.3270482243
 20
76.2195179108
 10
212.9659051954
 20
75.6152897127
 10
212.4185866925
 20
75.0596583781
 10
211.7037309908
 20
74.5715452658
 10
210.8456816439
 20
74.1675724824
 10
209.8736584931
 20
73.8614968365
 10
208.820762621
 20
73.663741367
 10
207.7228491337
 20
73.5810403995
 10
206.6173061583
 20
73.616210216
 10
205.5417816348
 20
73.7680531507
 10
204.5329012609
 20
74.0313983746
 10
203.6250212477
 20
74.3972779819
 10
202.8490583602
 20
74.8532323814
 10
202.2314370839
 20
75.3837345929
 10
201.7931897706
 20
75.9707189999
 10
201.5492404069
 20
76.5941965523
 10
201.5078963957
 20
77.2329354699
 10
201.6705656579
 20
77.865184265
 10
202.0317086868
 20
78.4694124631
 10
202.5790271897
 20
79.0250437977
 10
203.2938828914
 20
79.51315691
  0
LWPOLYLINE
  5
262
330
1F
100
AcDbEntity
  8
0
  6
Continuous
 62
     7
370
    25
100
AcDbPolyline
 90
       29
 70
   128
 43
0.0
 10
204.6955242413
 20
79.1440135448
 10
205.4007384936
 20
79.4628204778
 10
206.2111586587
 20
79.6830434193
 10
207.0861468854
 20
79.7936394713
 10
207.9818276104
 20
79.789062886
 10
208.8532876622
 20
79.6695431526
 10
209.6568283947
 20
79.4410734894
 10
210.3521569205
 20
79.1151103195
 10
210.9044065637
 20
78.7079987972
 10
211.2858852214
 20
78.2401531943
 10
211.4774639605
 20
77.7350332428
 10
211.4695362234
 20
77.2179677663
 10
211.2624995396
 20
76.7148845868
 10
210.8667355932
 20
76.2510103958
 10
210.3020896409
 20
75.849605782
 10
209.5968753886
 20
75.5307988489
 10
208.7864552235
 20
75.3105759075
 10
207.9114669968
 20
75.1999798554
 10
207.0157862718
 20
75.2045564407
 10
206.14432622
 20
75.3240761742
 10
205.3407854875
 20
75.5525458373
 10
204.6454569617
 20
75.8785090073
 10
204.0932073185
 20
76.2856205295
 10
203.7117286608
 20
76.7534661325
 10
203.5201499216
 20
77.258586084
 10
203.5280776588
 20
77.7756515605
 10
203.7351143426
 20
78.2787347399
 10
204.130878289
 20
78.742608931
 10
204.6955242413
 20
79.1440135448
  0
SPLINE
  5
263
330
1F
100
AcDbEntity
  8
0
  6
Continuous
 62
     7
370
    25
100
AcDbSpline
210
0.0
220
0.0
230
1.0
 70
     8
 71
     3
 72
    13
 73
     9
 74
     0
 42
0.000000001
 43
0.00000001
 40
0.0
 40
0.0
 40
0.0
 40
0.0
 40
0.1858585508580302
 40
0.3545088035973573
 40
0.5287517039503258
 40
0.7072103787972864
 40
0.8922150243135919
 40
1.0
 40
1.0
 40
1.0
 40
1.0
 10
210.8526764416556
 20
77.55969204994193
 30
0.0
 10
210.7100598701872
 20
77.56643670967293
 30
0.0
 10
210.4380313307899
 20
77.57930155361406
 30
0.0
 10
210.0039490758515
 20
77.70020668536492
 30
0.0
 10
209.5616912090609
 20
77.92175819279542
 30
0.0
 10
209.1092008635636
 20
78.26506619980192
 30
0.0
 10
208.7303013067521
 20
78.63686168635448
 30
0.0
 10
208.5071217523746
 20
78.89221057875115
 30
0.0
 10
208.4249624096238
 20
78.98621245643201
 30
0.0
  0
SPLINE
  5
264
330
1F
100
AcDbEntity
  8
0
  6
Continuous
 62
     7
370
    25
100
AcDbSpline
210
0.0
220
0.0
230
1.0
 70
     8
 71
     3
 72
    11
 73
     7
 74
     0
 42
0.000000001
 43
0.00000001
 40
0.0
 40
0.0
 40
0.0
 40
0.0
 40
0.2164553779443474
 40
0.4403112895790633
 40
0.7519005688038934
 40
1.0
 40
1.0
 40
1.0
 40
1.0
 10
208.4249624096238
 20
78.98621245643201
 30
0.0
 10
208.1952190992372
 20
78.86320626867472
 30
0.0
 10
207.7278776350093
 20
78.61298835460866
 30
0.0
 10
206.8606166965638
 20
78.3331441972542
 30
0.0
 10
205.9303237716837
 20
78.2850236512802
 30
0.0
 10
205.3349921634588
 20
78.42409809445483
 30
0.0
 10
205.0710929090633
 20
78.48574716759693
 30
0.0
  0
SPLINE
  5
265
330
1F
100
AcDbEntity
  8
0
  6
Continuous
 62
     7
370
    25
100
AcDbSpline
210
0.0
220
0.0
230
1.0
 70
     8
 71
     3
 72
    11
 73
     7
 74
     0
 42
0.000000001
 43
0.00000001
 40
0.0
 40
0.0
 40
0.0
 40
0.0
 40
0.2164553779443535
 40
0.4403112895790619
 40
0.7519005688038961
 40
1.0
 40
1.0
 40
1.0
 40
1.0
 10
204.1449374405344
 20
76.55876147227175
 30
0.0
 10
204.20837998749
 20
76.60203802891138
 30
0.0
 10
204.3374341598997
 20
76.6900707525309
 30
0.0
 10
204.5769242356611
 20
77.03792943758023
 30
0.0
 10
204.8338203014046
 20
77.66313278679065
 30
0.0
 10
204.99821835698
 20
78.23309409006694
 30
0.0
 10
205.0710929090633
 20
78.48574716759693
 30
0.0
  0
SPLINE
  5
266
330
1F
100
AcDbEntity
  8
0
  6
Continuous
 62
     7
370
    25
100
AcDbSpline
210
0.0
220
0.0
230
1.0
 70
     8
 71
     3
 72
    11
 73
     7
 74
     0
 42
0.000000001
 43
0.00000001
 40
0.0
 40
0.0
 40
0.0
 40
0.0
 40
0.0709807427657295
 40
0.4227943131130572
 40
0.7875126151275305
 40
1.0
 40
1.0
 40
1.0
 40
1.0
 10
205.3768334449236
 20
75.46478652711153
 30
0.0
 10
205.3464988237345
 20
75.47959162953366
 30
0.0
 10
205.1658117129852
 20
75.56777770459054
 30
0.0
 10
204.8289734188095
 20
75.84391710874414
 30
0.0
 10
204.4503036600225
 20
76.20856031560045
 30
0.0
 10
204.2271041350742
 20
76.46453077604113
 30
0.0
 10
204.1449374405344
 20
76.55876147227175
 30
0.0
  0
SPLINE
  5
267
330
1F
100
AcDbEntity
  8
0
  6
Continuous
 62
     7
370
    25
100
AcDbSpline
210
0.0
220
0.0
230
1.0
 70
     8
 71
     3
 72
    11
 73
     7
 74
     0
 42
0.000000001
 43
0.00000001
 40
0.0
 40
0.0
 40
0.0
 40
0.0
 40
0.2164553779443379
 40
0.4403112895790631
 40
0.7519005688038928
 40
1.0
 40
1.0
 40
1.0
 40
1.0
 10
210.8526764416556
 20
77.55969204994193
 30
0.0
 10
210.7892338946998
 20
77.33896783216996
 30
0.0
 10
210.6601797222901
 20
76.88997291279448
 30
0.0
 10
210.4206896465289
 20
76.2412517236302
 30
0.0
 10
210.1637935807853
 20
75.79744439224814
 30
0.0
 10
209.9993955252099
 20
75.68330305358647
 30
0.0
 10
209.9265209731267
 20
75.63270635461674
 30
0.0
  0
LINE
  5
268
330
1F
100
AcDbEntity
  8
0
  6
Continuous
 62
     7
370
    25
100
AcDbLine
 10
205.0710929091
 20
75.6615971742
 30
0.0
 11
205.0710929091
 21
78.4857471676
 31
0.0
  0
LINE
  5
269
330
1F
100
AcDbEntity
  8
0
  6
Continuous
 62
     7
370
    25
100
AcDbLine
 10
208.4249624096
 20
75.2504084792
 30
0.0
 11
208.4249624096
 21
78.9862124564
 31
0.0
  0
LWPOLYLINE
  5
26A
330
1F
100
AcDbEntity
  8
0
  6
Continuous
 62
     7
370
    25
100
AcDbPolyline
 90
       72
 70
   128
 43
0.0
 10
220.9338357836
 20
28.1006686965
 10
221.0030116498
 20
29.944752133
 10
221.2099978534
 20
31.8542718714
 10
221.5531744466
 20
33.8142833307
 10
222.0298556075
 20
35.8094467637
 10
222.6363106595
 20
37.8241473114
 10
223.3677932697
 20
39.8426172103
 10
224.2185785948
 20
41.8490591969
 10
225.1820080861
 20
43.827770142
 10
226.2505416016
 20
45.7632639498
 10
227.4158164177
 20
47.6403927569
 10
228.6687126792
 20
49.4444654853
 10
229.9994247739
 20
51.1613628199
 10
231.3975380756
 20
52.7776477111
 10
232.8521104519
 20
54.2806705383
 10
234.351757902
 20
55.65866811
 10
235.884743651
 20
56.9008557267
 10
237.4390700072
 20
57.9975115863
 10
239.0025722593
 20
58.9400528696
 10
240.5630138823
 20
59.7211029132
 10
242.1081823048
 20
60.3345489415
 10
243.6259844889
 20
60.7755899076
 10
245.1045415745
 20
61.0407740679
 10
246.5322818479
 20
61.1280259969
 10
247.8980313054
 20
61.0366628299
 10
249.1911011059
 20
60.7673996076
 10
250.401371225
 20
60.3223436797
 10
251.5193696581
 20
59.7049782124
 10
252.5363465515
 20
58.9201349273
 10
253.4443426822
 20
57.9739562875
 10
254.2362517494
 20
56.8738474237
 10
254.905875991
 20
55.6284181791
 10
255.4479746893
 20
54.2474157264
 10
255.8583051869
 20
52.7416482822
 10
256.1336560915
 20
51.1229005182
 10
256.2718724088
 20
49.4038413306
 10
256.2718724088
 20
47.5979246882
 10
256.1336560915
 20
45.7192843374
 10
255.8583051869
 20
43.782623186
 10
255.4479746893
 20
41.8030982333
 10
254.905875991
 20
39.7962019461
 10
254.2362517494
 20
37.7776410089
 10
253.4443426822
 20
35.7632133978
 10
252.5363465515
 20
33.7686847402
 10
251.5193696581
 20
31.8096649271
 10
250.401371225
 20
29.9014859447
 10
249.1911011059
 20
28.0590818807
 10
247.8980313054
 20
26.296872045
 10
246.5322818479
 20
24.6286481187
 10
245.1045415745
 20
23.067466216
 10
243.6259844889
 20
21.6255447021
 10
242.1081823048
 20
20.3141685677
 10
240.5630138823
 20
19.1436011092
 10
239.0025722593
 20
18.123003604
 10
237.4390700072
 20
17.2603636114
 10
235.884743651
 20
16.5624324589
 10
234.351757902
 20
16.0346724042
 10
232.8521104519
 20
15.6812138851
 10
231.3975380756
 20
15.5048231939
 10
229.9994247739
 20
15.5068808269
 10
228.6687126792
 20
15.6873706802
 10
227.4158164177
 20
16.0448801761
 10
226.2505416016
 20
16.5766113181
 10
225.1820080861
 20
17.278402589
 10
224.2185785948
 20
18.1447615205
 10
223.3677932697
 20
19.1689076795
 10
222.6363106595
 20
20.3428257335
 10
222.0298556075
 20
21.6573281823
 10
221.5531744466
 20
23.1021272618
 10
221.2099978534
 20
24.6659154603
 10
221.0030116498
 20
26.3364540149
 10
220.9338357836
 20
28.1006686965
  0
LWPOLYLINE
  5
26B
330
1F
100
AcDbEntity
  8
0
  6
Continuous
 62
     7
370
    25
100
AcDbPolyline
 90
       38
 70
   128
 43
0.0
 10
219.5196222213
 20
28.1006686965
 10
219.5895818456
 20
29.9913772725
 10
219.7989282838
 20
31.9484700776
 10
220.1460682829
 20
33.9570524538
 10
220.628359898
 20
36.0018378765
 10
221.2421325987
 20
38.0672642938
 10
221.982715204
 20
40.1376125636
 10
222.8444714333
 20
42.1971260855
 10
223.8208428012
 20
44.230130718
 10
224.9043985321
 20
46.2211540682
 10
226.0868921126
 20
48.1550432463
 10
227.3593240526
 20
50.017080188
 10
228.7120103767
 20
51.7930936676
 10
230.1346563251
 20
53.4695671504
 10
231.6164347033
 20
55.0337416607
 10
233.1460682829
 20
56.4737128862
 10
234.7119156289
 20
57.7785217762
 10
236.3020596975
 20
58.9382379473
 10
237.9043985321
 20
59.9440352592
 10
239.5067373667
 20
60.788258987
 10
241.0968814353
 20
61.4644840783
 10
242.6627287813
 20
61.967564052
 10
244.192362361
 20
62.2936701656
 10
245.6741407391
 20
62.4403205547
 10
247.0967866875
 20
62.4063991213
 10
248.4494730116
 20
62.192164028
 10
249.7219049516
 20
61.7992457333
 10
250.9043985321
 20
61.2306345825
 10
251.987954263
 20
60.4906580499
 10
252.9643256309
 20
59.5849478036
 10
253.8260818602
 20
58.5203968457
 10
254.5666644656
 20
57.3051070516
 10
255.1804371662
 20
55.9483275105
 10
255.6627287813
 20
54.4603841339
 10
256.0098687804
 20
52.8526010694
 10
256.2192152186
 20
51.1372145169
 10
256.289174843
 20
49.3272796038
 10
256.289174843
 20
49.3272796038
  0
LWPOLYLINE
  5
26C
330
1F
100
AcDbEntity
  8
0
  6
Continuous
 62
     7
370
    25
100
AcDbPolyline
 90
       20
 70
   128
 43
0.0
 10
237.9073865753
 20
17.4856382821
 10
237.9043985321
 20
17.4839130411
 10
236.3020596975
 20
16.6396893133
 10
234.7119156289
 20
15.963464222
 10
233.1460682829
 20
15.4603842483
 10
231.6164347033
 20
15.1342781347
 10
230.1346563251
 20
14.9876277456
 10
228.7120103767
 20
15.021549179
 10
227.3593240526
 20
15.2357842723
 10
226.0868921126
 20
15.6287025671
 10
224.9043985321
 20
16.1973137178
 10
223.8208428012
 20
16.9372902505
 10
222.8444714333
 20
17.8430004967
 10
221.982715204
 20
18.9075514546
 10
221.2421325987
 20
20.1228412487
 10
220.628359898
 20
21.4796207898
 10
220.1460682829
 20
22.9675641664
 10
219.7989282838
 20
24.5753472309
 10
219.5895818456
 20
26.2907337834
 10
219.5196222213
 20
28.1006686965
  0
SPLINE
  5
26D
330
1F
100
AcDbEntity
  8
0
  6
Continuous
 62
     7
370
    25
100
AcDbSpline
210
0.0
220
0.0
230
1.0
 70
    11
 71
     3
 72
    93
 73
    89
 74
     0
 42
0.000000001
 43
0.00000001
 40
0.0
 40
0.0
 40
0.0
 40
0.0
 40
0.0312499999999999
 40
0.0312499999999999
 40
0.0624999999999999
 40
0.0624999999999999
 40
0.0937499999999998
 40
0.0937499999999998
 40
0.1093749999999998
 40
0.1093749999999998
 40
0.1249999999999998
 40
0.1406249999999998
 40
0.1406249999999998
 40
0.1562499999999998
 40
0.1562499999999998
 40
0.1874999999999998
 40
0.1874999999999998
 40
0.2031249999999998
 40
0.2031249999999998
 40
0.2187499999999999
 40
0.2187499999999999
 40
0.2500000000000001
 40
0.2500000000000001
 40
0.2812500000000002
 40
0.2812500000000002
 40
0.2968750000000003
 40
0.2968750000000003
 40
0.3125000000000004
 40
0.3125000000000004
 40
0.3437500000000006
 40
0.3437500000000006
 40
0.3750000000000007
 40
0.3750000000000007
 40
0.4062500000000008
 40
0.4062500000000008
 40
0.437500000000001
 40
0.437500000000001
 40
0.4531250000000011
 40
0.4531250000000011
 40
0.4687500000000012
 40
0.4687500000000012
 40
0.5000000000000013
 40
0.5000000000000013
 40
0.5156250000000012
 40
0.5156250000000012
 40
0.531250000000001
 40
0.531250000000001
 40
0.5625000000000012
 40
0.5625000000000012
 40
0.5781250000000013
 40
0.5781250000000013
 40
0.5937500000000013
 40
0.5937500000000013
 40
0.6250000000000014
 40
0.6250000000000014
 40
0.6406250000000014
 40
0.6406250000000014
 40
0.6562500000000016
 40
0.6562500000000016
 40
0.6718750000000016
 40
0.6718750000000016
 40
0.6875000000000016
 40
0.6875000000000016
 40
0.7187500000000016
 40
0.7187500000000016
 40
0.7500000000000016
 40
0.7500000000000016
 40
0.7812500000000017
 40
0.7812500000000017
 40
0.8125000000000017
 40
0.8125000000000017
 40
0.8281250000000017
 40
0.8281250000000017
 40
0.8437500000000017
 40
0.8437500000000017
 40
0.8750000000000016
 40
0.8750000000000016
 40
0.8906250000000014
 40
0.8906250000000014
 40
0.9062500000000013
 40
0.9062500000000013
 40
0.9375000000000008
 40
0.9375000000000008
 40
0.9531250000000006
 40
0.9531250000000006
 40
0.9687500000000003
 40
0.9687500000000003
 40
1.0
 40
1.0
 40
1.0
 40
1.0
 10
207.4348514689026
 20
80.96277601273027
 30
0.0
 10
207.0016485862564
 20
81.0292776377633
 30
0.0
 10
206.5703074438391
 20
81.07222338335724
 30
0.0
 10
205.7108668786059
 20
81.10440256859741
 30
0.0
 10
205.2789476010166
 20
81.09278084231691
 30
0.0
 10
204.4569029299682
 20
81.0075829641676
 30
0.0
 10
204.0626805142942
 20
80.93471262287858
 30
0.0
 10
203.498548620784
 20
80.77363357997872
 30
0.0
 10
203.314552444216
 20
80.71087130735197
 30
0.0
 10
202.9668099259526
 20
80.5708352128157
 30
0.0
 10
202.6365424795988
 20
80.4156533427347
 30
0.0
 10
202.3408583847775
 20
80.23031187267136
 30
0.0
 10
202.0628404014523
 20
80.0296035882541
 30
0.0
 10
201.9323604520748
 20
79.921058038231
 30
0.0
 10
201.5778989801782
 20
79.58132923410265
 30
0.0
 10
201.3866235469453
 20
79.33378345627163
 30
0.0
 10
201.1643026767551
 20
78.93415333044646
 30
0.0
 10
201.1014873849556
 20
78.79669197975254
 30
0.0
 10
200.9995488048762
 20
78.51913806840888
 30
0.0
 10
200.9600085225258
 20
78.37832797281789
 30
0.0
 10
200.8741903202579
 20
77.95077069470328
 30
0.0
 10
200.8611164667006
 20
77.65627305163125
 30
0.0
 10
200.918554073623
 20
77.07817094618404
 30
0.0
 10
200.9880235662555
 20
76.79300886539629
 30
0.0
 10
201.1507983236405
 20
76.37380034890658
 30
0.0
 10
201.2150599079316
 20
76.23541102569365
 30
0.0
 10
201.3605724009215
 20
75.96693141121486
 30
0.0
 10
201.4420463193555
 20
75.83617707025833
 30
0.0
 10
201.7118188783044
 20
75.45463263234718
 30
0.0
 10
201.9254986880548
 20
75.2142732610862
 30
0.0
 10
202.4203047173206
 20
74.76579763455406
 30
0.0
 10
202.6948952620481
 20
74.56353068330205
 30
0.0
 10
203.2959610597389
 20
74.20186647526538
 30
0.0
 10
203.6241696727513
 20
74.04181226821333
 30
0.0
 10
204.3278644147775
 20
73.7691647317259
 30
0.0
 10
204.6965201072541
 20
73.65887196601751
 30
0.0
 10
205.2744127295649
 20
73.53017448866323
 30
0.0
 10
205.4712225173096
 20
73.49342949115007
 30
0.0
 10
205.8734993939463
 20
73.43223861358247
 30
0.0
 10
206.080055710801
 20
73.4077131148904
 30
0.0
 10
206.7046624060401
 20
73.3536673773047
 30
0.0
 10
207.1259583791541
 20
73.34331044256392
 30
0.0
 10
207.7658059079915
 20
73.36379279963427
 30
0.0
 10
207.9804150134302
 20
73.37666391163496
 30
0.0
 10
208.4125150463886
 20
73.41460243595203
 30
0.0
 10
208.6313256705243
 20
73.43989365960367
 30
0.0
 10
209.2785064416921
 20
73.53261215338199
 30
0.0
 10
209.6998406635781
 20
73.61655759827647
 30
0.0
 10
210.3162926085374
 20
73.77417379815157
 30
0.0
 10
210.5191650064115
 20
73.83204203665555
 30
0.0
 10
210.9193384274572
 20
73.95881787099997
 30
0.0
 10
211.115459423325
 20
74.02745370023975
 30
0.0
 10
211.6781717947199
 20
74.24386853461834
 30
0.0
 10
212.0247965220988
 20
74.40364158543812
 30
0.0
 10
212.5000753605092
 20
74.66662506162298
 30
0.0
 10
212.6512273169666
 20
74.75851919274936
 30
0.0
 10
212.9296945858886
 20
74.94502222928853
 30
0.0
 10
213.0582133373092
 20
75.04024255149464
 30
0.0
 10
213.2944168659103
 20
75.23468059430769
 30
0.0
 10
213.4021005723799
 20
75.33389815785586
 30
0.0
 10
213.5965524437744
 20
75.53664289856795
 30
0.0
 10
213.6827509524831
 20
75.639747640043
 30
0.0
 10
213.9048245181285
 20
75.94859146804636
 30
0.0
 10
214.0068735043281
 20
76.15615179916571
 30
0.0
 10
214.1235854980155
 20
76.57860538196528
 30
0.0
 10
214.1365137678299
 20
76.78773876978859
 30
0.0
 10
214.0801712093271
 20
77.20457399277127
 30
0.0
 10
214.0095802457375
 20
77.41445008265799
 30
0.0
 10
213.7934850543695
 20
77.82486652866272
 30
0.0
 10
213.6485071150731
 20
78.02643993308442
 30
0.0
 10
213.3773179946793
 20
78.32637872695219
 30
0.0
 10
213.2773733468941
 20
78.42639036859187
 30
0.0
 10
213.0624191846378
 20
78.62292440084644
 30
0.0
 10
212.9473784756605
 20
78.71959018281316
 30
0.0
 10
212.5802551732301
 20
79.00533172152605
 30
0.0
 10
212.3063523259868
 20
79.19023257389887
 30
0.0
 10
211.8510840228824
 20
79.45981230100526
 30
0.0
 10
211.6915579566659
 20
79.54846686867317
 30
0.0
 10
211.3635831091191
 20
79.71973166319438
 30
0.0
 10
211.194440605499
 20
79.80277699723679
 30
0.0
 10
210.6717681423278
 20
80.04407421021317
 30
0.0
 10
210.3031348569284
 20
80.19461141233015
 30
0.0
 10
209.7183447942643
 20
80.40251217124535
 30
0.0
 10
209.5183070925643
 20
80.46865092738818
 30
0.0
 10
209.1152130984017
 20
80.59180867019522
 30
0.0
 10
208.911210267467
 20
80.64917666864257
 30
0.0
 10
208.2917253724087
 20
80.80792403521228
 30
0.0
 10
207.8680543515487
 20
80.89627438769725
 30
0.0
 10
207.4348514689025
 20
80.96277601273027
 30
0.0
  0
ARC
  5
26E
330
1F
100
AcDbEntity
  8
0
  6
Continuous
 62
     7
370
    25
100
AcDbCircle
 10
209.0851403587
 20
74.8107057215
 30
0.0
 40
9.14704433504103
100
AcDbArc
 50
60.2956779138
 51
83.8768580413
  0
ARC
  5
26F
330
1F
100
AcDbEntity
  8
0
  6
Continuous
 62
     7
370
    25
100
AcDbCircle
 10
192.1842992866
 20
45.5653170666
 30
0.0
 40
9.07545995713766
100
AcDbArc
 50
215.9924317951
 51
239.8049171027
  0
SPLINE
  5
270
330
1F
100
AcDbEntity
  8
0
  6
Continuous
 62
     7
370
    25
100
AcDbSpline
210
0.0
220
0.0
230
1.0
 70
    11
 71
     3
 72
    93
 73
    89
 74
     0
 42
0.000000001
 43
0.00000001
 40
0.0
 40
0.0
 40
0.0
 40
0.0
 40
0.0312500000000006
 40
0.0312500000000006
 40
0.0625000000000012
 40
0.0625000000000012
 40
0.0937500000000018
 40
0.0937500000000018
 40
0.1093750000000022
 40
0.1093750000000022
 40
0.1250000000000025
 40
0.1406250000000029
 40
0.1406250000000029
 40
0.1562500000000033
 40
0.1562500000000033
 40
0.187500000000004
 40
0.187500000000004
 40
0.2031250000000044
 40
0.2031250000000044
 40
0.2187500000000048
 40
0.2187500000000048
 40
0.2500000000000058
 40
0.2500000000000058
 40
0.2812500000000069
 40
0.2812500000000069
 40
0.2968750000000072
 40
0.2968750000000072
 40
0.3125000000000075
 40
0.3125000000000075
 40
0.3437500000000077
 40
0.3437500000000077
 40
0.3750000000000079
 40
0.3750000000000079
 40
0.4062500000000082
 40
0.4062500000000082
 40
0.4375000000000084
 40
0.4375000000000084
 40
0.4531250000000082
 40
0.4531250000000082
 40
0.4687500000000081
 40
0.4687500000000081
 40
0.5000000000000079
 40
0.5000000000000079
 40
0.5156250000000075
 40
0.5156250000000075
 40
0.5312500000000071
 40
0.5312500000000071
 40
0.5625000000000071
 40
0.5625000000000071
 40
0.5781250000000069
 40
0.5781250000000069
 40
0.5937500000000066
 40
0.5937500000000066
 40
0.6250000000000058
 40
0.6250000000000058
 40
0.6406250000000054
 40
0.6406250000000054
 40
0.656250000000005
 40
0.656250000000005
 40
0.6718750000000047
 40
0.6718750000000047
 40
0.6875000000000043
 40
0.6875000000000043
 40
0.7187500000000031
 40
0.7187500000000031
 40
0.750000000000002
 40
0.750000000000002
 40
0.7812500000000016
 40
0.7812500000000016
 40
0.8125000000000012
 40
0.8125000000000012
 40
0.8281250000000008
 40
0.8281250000000008
 40
0.8437500000000002
 40
0.8437500000000002
 40
0.8749999999999994
 40
0.8749999999999994
 40
0.8906249999999993
 40
0.8906249999999993
 40
0.9062499999999991
 40
0.9062499999999991
 40
0.9374999999999993
 40
0.9374999999999993
 40
0.9531249999999994
 40
0.9531249999999994
 40
0.9687499999999994
 40
0.9687499999999994
 40
1.0
 40
1.0
 40
1.0
 40
1.0
 10
226.5267345609393
 20
69.94126650312369
 30
0.0
 10
226.0935316782931
 20
70.0077681281567
 30
0.0
 10
225.6621905358758
 20
70.05071387375064
 30
0.0
 10
224.8027499706427
 20
70.08289305899083
 30
0.0
 10
224.3708306930533
 20
70.07127133271031
 30
0.0
 10
223.548786022005
 20
69.98607345456101
 30
0.0
 10
223.154563606331
 20
69.91320311327198
 30
0.0
 10
222.5904317128208
 20
69.75212407037213
 30
0.0
 10
222.4064355362528
 20
69.68936179774539
 30
0.0
 10
222.0586930179893
 20
69.54932570320909
 30
0.0
 10
221.7284255716356
 20
69.39414383312814
 30
0.0
 10
221.4327414768142
 20
69.20880236306478
 30
0.0
 10
221.154723493489
 20
69.00809407864753
 30
0.0
 10
221.0242435441116
 20
68.89954852862441
 30
0.0
 10
220.6697820722149
 20
68.55981972449608
 30
0.0
 10
220.478506638982
 20
68.31227394666506
 30
0.0
 10
220.2561857687918
 20
67.91264382083989
 30
0.0
 10
220.1933704769923
 20
67.77518247014595
 30
0.0
 10
220.0914318969129
 20
67.49762855880229
 30
0.0
 10
220.0518916145625
 20
67.35681846321128
 30
0.0
 10
219.9660734122946
 20
66.9292611850967
 30
0.0
 10
219.9529995587374
 20
66.63476354202466
 30
0.0
 10
220.0104371656597
 20
66.05666143657746
 30
0.0
 10
220.0799066582923
 20
65.77149935578971
 30
0.0
 10
220.2426814156772
 20
65.3522908393
 30
0.0
 10
220.3069429999683
 20
65.21390151608706
 30
0.0
 10
220.4524554929582
 20
64.94542190160827
 30
0.0
 10
220.5339294113923
 20
64.81466756065174
 30
0.0
 10
220.8037019703411
 20
64.43312312274058
 30
0.0
 10
221.0173817800915
 20
64.19276375147965
 30
0.0
 10
221.5121878093573
 20
63.74428812494748
 30
0.0
 10
221.7867783540849
 20
63.54202117369547
 30
0.0
 10
222.3878441517756
 20
63.1803569656588
 30
0.0
 10
222.7160527647881
 20
63.02030275860676
 30
0.0
 10
223.4197475068142
 20
62.74765522211931
 30
0.0
 10
223.7884031992908
 20
62.63736245641093
 30
0.0
 10
224.3662958216017
 20
62.50866497905666
 30
0.0
 10
224.5631056093463
 20
62.47191998154347
 30
0.0
 10
224.9653824859831
 20
62.41072910397589
 30
0.0
 10
225.1719388028377
 20
62.38620360528382
 30
0.0
 10
225.7965454980768
 20
62.33215786769811
 30
0.0
 10
226.2178414711908
 20
62.32180093295732
 30
0.0
 10
226.8576890000282
 20
62.34228329002769
 30
0.0
 10
227.072298105467
 20
62.35515440202838
 30
0.0
 10
227.5043981384253
 20
62.39309292634543
 30
0.0
 10
227.723208762561
 20
62.41838414999708
 30
0.0
 10
228.3703895337288
 20
62.51110264377539
 30
0.0
 10
228.7917237556149
 20
62.59504808866986
 30
0.0
 10
229.4081757005741
 20
62.75266428854499
 30
0.0
 10
229.6110480984482
 20
62.81053252704898
 30
0.0
 10
230.0112215194939
 20
62.93730836139338
 30
0.0
 10
230.2073425153618
 20
63.00594419063317
 30
0.0
 10
230.7700548867567
 20
63.22235902501172
 30
0.0
 10
231.1166796141356
 20
63.38213207583151
 30
0.0
 10
231.591958452546
 20
63.64511555201638
 30
0.0
 10
231.7431104090033
 20
63.73700968314276
 30
0.0
 10
232.0215776779253
 20
63.92351271968195
 30
0.0
 10
232.1500964293459
 20
64.01873304188807
 30
0.0
 10
232.3862999579471
 20
64.2131710847011
 30
0.0
 10
232.4939836644166
 20
64.31238864824924
 30
0.0
 10
232.6884355358111
 20
64.51513338896136
 30
0.0
 10
232.7746340445199
 20
64.61823813043641
 30
0.0
 10
232.9967076101652
 20
64.92708195843976
 30
0.0
 10
233.0987565963648
 20
65.1346422895591
 30
0.0
 10
233.2154685900522
 20
65.55709587235869
 30
0.0
 10
233.2283968598666
 20
65.766229260182
 30
0.0
 10
233.1720543013638
 20
66.18306448316467
 30
0.0
 10
233.1014633377742
 20
66.39294057305138
 30
0.0
 10
232.8853681464063
 20
66.80335701905612
 30
0.0
 10
232.7403902071099
 20
67.00493042347782
 30
0.0
 10
232.469201086716
 20
67.30486921734557
 30
0.0
 10
232.3692564389309
 20
67.40488085898527
 30
0.0
 10
232.1543022766745
 20
67.60141489123986
 30
0.0
 10
232.0392615676972
 20
67.69808067320655
 30
0.0
 10
231.6721382652668
 20
67.98382221191946
 30
0.0
 10
231.3982354180236
 20
68.16872306429227
 30
0.0
 10
230.9429671149192
 20
68.43830279139866
 30
0.0
 10
230.7834410487026
 20
68.52695735906659
 30
0.0
 10
230.4554662011559
 20
68.69822215358776
 30
0.0
 10
230.2863236975358
 20
68.78126748763019
 30
0.0
 10
229.7636512343645
 20
69.02256470060658
 30
0.0
 10
229.3950179489652
 20
69.17310190272354
 30
0.0
 10
228.8102278863011
 20
69.38100266163876
 30
0.0
 10
228.610190184601
 20
69.44714141778158
 30
0.0
 10
228.2070961904384
 20
69.57029916058863
 30
0.0
 10
228.0030933595037
 20
69.62766715903598
 30
0.0
 10
227.3836084644455
 20
69.7864145256057
 30
0.0
 10
226.9599374435855
 20
69.87476487809067
 30
0.0
 10
226.5267345609393
 20
69.94126650312369
 30
0.0
  0
LWPOLYLINE
  5
271
330
1F
100
AcDbEntity
  8
0
  6
Continuous
 62
     7
370
    25
100
AcDbPolyline
 90
        3
 70
   128
 43
0.0
 10
245.762327037
 20
52.6523967594
 10
245.7629771759
 20
52.6520213812
 10
245.8710547891
 20
52.5878999048
  0
LWPOLYLINE
  5
272
330
1F
100
AcDbEntity
  8
0
  6
Continuous
 62
     7
370
    25
100
AcDbPolyline
 90
        3
 70
   128
 43
0.0
 10
229.7636273148
 20
24.9388331632
 10
229.7629771759
 20
24.9392085415
 10
229.7013534819
 20
24.9753471279
  0
LWPOLYLINE
  5
273
330
1F
100
AcDbEntity
  8
0
  6
Continuous
 62
     7
370
    25
100
AcDbPolyline
 90
       21
 70
   128
 43
0.0
 10
182.0787108492
 20
49.9597691944
 10
182.1478632471
 20
51.8286619023
 10
182.3547941494
 20
53.7631728673
 10
182.697928687
 20
55.7485792931
 10
183.1746553989
 20
57.7697710378
 10
183.7813461068
 20
59.8113656118
 10
184.5133835283
 20
61.8578252477
 10
185.3651964164
 20
63.8935751521
 10
186.3303019609
 20
65.9031220388
 10
187.4013551256
 20
67.8711720427
 10
188.5702045495
 20
69.7827471149
 10
189.8279545825
 20
71.6232990149
 10
191.1650329874
 20
73.3788200313
 10
192.5712637903
 20
75.0359495892
 10
194.0359447256
 20
76.5820759322
 10
195.547928687
 20
78.005432105
 10
197.0957085636
 20
79.2951855078
 10
198.667504816
 20
80.4415203385
 10
200.2513551256
 20
81.4357122968
 10
201.8352054353
 20
82.2701949816
 10
203.403183593
 20
82.9371902764
  0
ELLIPSE
  5
274
330
1F
100
AcDbEntity
  8
0
  6
Continuous
 62
     7
370
    25
100
AcDbEllipse
 10
184.8316097738
 20
69.3522429464
 30
0.0
 11
-1.184292268249521
 21
28.46789501682922
 31
0.0
210
0.0
220
0.0
230
1.0
 40
0.4444802122
 41
2.41119191765586
 42
2.86686679332797
  0
SPLINE
  5
275
330
1F
100
AcDbEntity
  8
0
  6
Continuous
 62
     7
370
    25
100
AcDbSpline
210
0.0
220
0.0
230
1.0
 70
     8
 71
     3
 72
    12
 73
     8
 74
     0
 42
0.000000001
 43
0.00000001
 40
0.0
 40
0.0
 40
0.0
 40
0.0
 40
0.2500000000000007
 40
0.2500000000000007
 40
0.5000000000000014
 40
0.5000000000000014
 40
1.0
 40
1.0
 40
1.0
 40
1.0
 10
176.8425545315804
 20
48.33164757078838
 30
0.0
 10
176.8875726520569
 20
48.30565916301607
 30
0.0
 10
176.9355647019814
 20
48.26341239892568
 30
0.0
 10
177.022453492885
 20
48.17134450443775
 30
0.0
 10
177.0607958697134
 20
48.12308380215229
 30
0.0
 10
177.1661690538995
 20
47.97880388718882
 30
0.0
 10
177.2225367466713
 20
47.88488441672653
 30
0.0
 10
177.2718407131836
 20
47.79511205887478
 30
0.0
  0
LINE
  5
276
330
1F
100
AcDbEntity
  8
0
  6
Continuous
 62
     7
370
    25
100
AcDbLine
 10
174.7604882502
 20
49.5335988508
 30
0.0
 11
176.8425545316
 21
48.3316475708
 31
0.0
  0
SPLINE
  5
277
330
1F
100
AcDbEntity
  8
0
  6
Continuous
 62
     7
370
    25
100
AcDbSpline
210
0.0
220
0.0
230
1.0
 70
     8
 71
     3
 72
    12
 73
     8
 74
     0
 42
0.000000001
 43
0.00000001
 40
0.0
 40
0.0
 40
0.0
 40
0.0
 40
0.5
 40
0.5
 40
0.75
 40
0.75
 40
1.0
 40
1.0
 40
1.0
 40
1.0
 10
174.5774019961221
 20
49.35057842120194
 30
0.0
 10
174.5714351045202
 20
49.41543032080363
 30
0.0
 10
174.5743980837282
 20
49.47430683840028
 30
0.0
 10
174.6096257352776
 20
49.53791758778139
 30
0.0
 10
174.6267688657312
 20
49.55448477073803
 30
0.0
 10
174.6786270928051
 20
49.56593603079592
 30
0.0
 10
174.7156038731186
 20
49.55951005013063
 30
0.0
 10
174.7604882502147
 20
49.53359885076846
 30
0.0
  0
ELLIPSE
  5
278
330
1F
100
AcDbEntity
  8
0
  6
Continuous
 62
     7
370
    25
100
AcDbEllipse
 10
200.4675192986
 20
60.3258245105
 30
0.0
 11
25.24558057051157
 21
13.20984917634761
 31
0.0
210
0.0
220
0.0
230
1.0
 40
0.4445305117
 41
2.960695352983358
 42
3.595329762119251
  0
SPLINE
  5
279
330
1F
100
AcDbEntity
  8
0
  6
Continuous
 62
     7
370
    25
100
AcDbSpline
210
0.0
220
0.0
230
1.0
 70
     8
 71
     3
 72
    12
 73
     8
 74
     0
 42
0.000000001
 43
0.00000001
 40
0.0
 40
0.0
 40
0.0
 40
0.0
 40
0.25
 40
0.25
 40
0.5
 40
0.5
 40
1.0
 40
1.0
 40
1.0
 40
1.0
 10
196.9604882502145
 20
87.98512666594675
 30
0.0
 10
196.9154701297379
 20
88.01111507371905
 30
0.0
 10
196.8917579517219
 20
88.03934080959371
 30
0.0
 10
196.8754083884558
 20
88.09067403691569
 30
0.0
 10
196.8812660236118
 20
88.11341032055897
 30
0.0
 10
196.918344572027
 20
88.17542786734691
 30
0.0
 10
196.9683561149958
 20
88.20791594840516
 30
0.0
 10
197.0274019961219
 20
88.23511893700163
 30
0.0
  0
LINE
  5
27A
330
1F
100
AcDbEntity
  8
0
  6
Continuous
 62
     7
370
    25
100
AcDbLine
 10
199.0425545316
 20
86.783175386
 30
0.0
 11
196.9604882502
 21
87.9851266659
 31
0.0
  0
SPLINE
  5
27B
330
1F
100
AcDbEntity
  8
0
  6
Continuous
 62
     7
370
    25
100
AcDbSpline
210
0.0
220
0.0
230
1.0
 70
     8
 71
     3
 72
    12
 73
     8
 74
     0
 42
0.000000001
 43
0.00000001
 40
0.0
 40
0.0
 40
0.0
 40
0.0
 40
0.5000000000000018
 40
0.5000000000000018
 40
0.7500000000000009
 40
0.7500000000000009
 40
1.0
 40
1.0
 40
1.0
 40
1.0
 10
199.7218407131834
 20
86.67965257467446
 30
0.0
 10
199.6192854455138
 20
86.67746955005359
 30
0.0
 10
199.5113078210512
 20
86.67923640445387
 30
0.0
 10
199.33276852035
 20
86.69838460388354
 30
0.0
 10
199.2708565107962
 20
86.70767034632208
 30
0.0
 10
199.1493322448934
 20
86.73644950839248
 30
0.0
 10
199.0874389086763
 20
86.75726418660452
 30
0.0
 10
199.0425545315802
 20
86.7831753859667
 30
0.0
  0
ELLIPSE
  5
27C
330
1F
100
AcDbEntity
  8
0
  6
Continuous
 62
     7
370
    25
100
AcDbEllipse
 10
184.8316097738
 20
69.3522429464
 30
0.0
 11
25.24558057051163
 21
13.2098491763476
 31
0.0
210
0.0
220
0.0
230
1.0
 40
0.4445305117
 41
0.2747775750656706
 42
0.7302899226136048
  0
ELLIPSE
  5
27D
330
1F
100
AcDbEntity
  8
0
  6
Continuous
 62
     7
370
    25
100
AcDbEllipse
 10
200.4675192986
 20
60.3258245105
 30
0.0
 11
-1.184292268249465
 21
28.46789501682917
 31
0.0
210
0.0
220
0.0
230
1.0
 40
0.4444802122
 41
5.829499913454024
 42
6.463971794465675
  0
SPLINE
  5
27E
330
1F
100
AcDbEntity
  8
0
  6
Continuous
 62
     7
370
    25
100
AcDbSpline
210
0.0
220
0.0
230
1.0
 70
     8
 71
     3
 72
    12
 73
     8
 74
     0
 42
0.000000001
 43
0.00000001
 40
0.0
 40
0.0
 40
0.0
 40
0.0
 40
0.2499999999999984
 40
0.2499999999999984
 40
0.4999999999999968
 40
0.4999999999999968
 40
1.0
 40
1.0
 40
1.0
 40
1.0
 10
174.7604882502147
 20
61.89408332525606
 30
0.0
 10
174.7154904111988
 20
61.92006002479031
 30
0.0
 10
174.6791993181843
 20
61.96901968098191
 30
0.0
 10
174.6265660516544
 20
62.08080132475767
 30
0.0
 10
174.6097992733
 20
62.14148447867024
 30
0.0
 10
174.5746036926804
 20
62.32620189271662
 30
0.0
 10
174.5714031456293
 20
62.45022672559499
 30
0.0
 10
174.5774019961219
 20
62.57274703003786
 30
0.0
  0
LINE
  5
27F
330
1F
100
AcDbEntity
  8
0
  6
Continuous
 62
     7
370
    25
100
AcDbLine
 10
176.8425545316
 20
60.6921320453
 30
0.0
 11
174.7604882502
 21
61.8940833253
 31
0.0
  0
SPLINE
  5
280
330
1F
100
AcDbEntity
  8
0
  6
Continuous
 62
     7
370
    25
100
AcDbSpline
210
0.0
220
0.0
230
1.0
 70
     8
 71
     3
 72
    12
 73
     8
 74
     0
 42
0.000000001
 43
0.00000001
 40
0.0
 40
0.0
 40
0.0
 40
0.0
 40
0.5000000000000037
 40
0.5000000000000037
 40
0.7500000000000018
 40
0.7500000000000018
 40
1.0
 40
1.0
 40
1.0
 40
1.0
 10
177.2718407131835
 20
61.01728066771069
 30
0.0
 10
177.2222133069742
 20
60.91999598281698
 30
0.0
 10
177.1661364660366
 20
60.83025919994421
 30
0.0
 10
177.0606419308557
 20
60.72654107904001
 30
0.0
 10
177.0217487616799
 20
60.69750975685506
 30
0.0
 10
176.9362339196048
 20
60.66672014603106
 30
0.0
 10
176.8874780004327
 20
60.66619827872281
 30
0.0
 10
176.8425545315803
 20
60.69213204527554
 30
0.0
  0
ELLIPSE
  5
281
330
1F
100
AcDbEntity
  8
0
  6
Continuous
 62
     7
370
    25
100
AcDbEllipse
 10
184.8316097738
 20
69.3522429464
 30
0.0
 11
12.49982297888369
 21
21.65073731825645
 31
0.0
210
0.0
220
0.0
230
1.0
 40
0.1059897947
 41
1.115125557425487
 42
2.02631278064551
  0
SPLINE
  5
282
330
1F
100
AcDbEntity
  8
0
  6
Continuous
 62
     7
370
    25
100
AcDbSpline
210
0.0
220
0.0
230
1.0
 70
     8
 71
     3
 72
    12
 73
     8
 74
     0
 42
0.000000001
 43
0.00000001
 40
0.0
 40
0.0
 40
0.0
 40
0.0
 40
0.2500000000000007
 40
0.2500000000000007
 40
0.5000000000000013
 40
0.5000000000000013
 40
1.0
 40
1.0
 40
1.0
 40
1.0
 10
188.3386408221403
 20
80.60393753028299
 30
0.0
 10
188.3836386611561
 20
80.57796083074872
 30
0.0
 10
188.4073502311061
 20
80.53626553939787
 30
0.0
 10
188.4237194578497
 20
80.44542548571688
 30
0.0
 10
188.4178784629885
 20
80.39779776419485
 30
0.0
 10
188.3808538487586
 20
80.25478573449114
 30
0.0
 10
188.3311836144406
 20
80.16129247608563
 30
0.0
 10
188.2717270762331
 20
80.06964267007977
 30
0.0
  0
LINE
  5
283
330
1F
100
AcDbEntity
  8
0
  6
Continuous
 62
     7
370
    25
100
AcDbLine
 10
186.2565745408
 20
81.8058888103
 30
0.0
 11
188.3386408221
 21
80.6039375303
 31
0.0
  0
SPLINE
  5
284
330
1F
100
AcDbEntity
  8
0
  6
Continuous
 62
     7
370
    25
100
AcDbSpline
210
0.0
220
0.0
230
1.0
 70
     8
 71
     3
 72
    12
 73
     8
 74
     0
 42
0.000000001
 43
0.00000001
 40
0.0
 40
0.0
 40
0.0
 40
0.0
 40
0.4999999999999996
 40
0.4999999999999996
 40
0.7499999999999998
 40
0.7499999999999998
 40
1.0
 40
1.0
 40
1.0
 40
1.0
 10
185.5772883591714
 20
81.62510903240697
 30
0.0
 10
185.6803524955784
 20
81.69153532131392
 30
0.0
 10
185.7892693972457
 20
81.75075827012665
 30
0.0
 10
185.9670807024718
 20
81.81271523689048
 30
0.0
 10
186.0287961155971
 20
81.82856727511675
 30
0.0
 10
186.150022052723
 20
81.83873460781624
 30
0.0
 10
186.2116510719224
 20
81.83182257681618
 30
0.0
 10
186.2565745407748
 20
81.80588881026344
 30
0.0
  0
ELLIPSE
  5
285
330
1F
100
AcDbEntity
  8
0
  6
Continuous
 62
     7
370
    25
100
AcDbEllipse
 10
200.4675192986
 20
60.3258245105
 30
0.0
 11
22.7021962000747
 21
-13.11730493221872
 31
0.0
210
0.0
220
0.0
230
1.0
 40
0.9534948969
 41
2.686319833441776
 42
3.597507056661809
  0
ARC
  5
286
330
1F
100
AcDbEntity
  8
0
  6
Continuous
 62
     7
370
    25
100
AcDbCircle
 10
193.2788336037
 20
80.3172293358
 30
0.0
 40
11.30387541412023
100
AcDbArc
 50
63.6866685197
 51
116.9211975185
  0
ARC
  5
287
330
1F
100
AcDbEntity
  8
0
  6
Continuous
 62
     7
370
    25
100
AcDbCircle
 10
179.6781811228
 20
56.6247091194
 30
0.0
 40
11.42835936577243
100
AcDbArc
 50
183.1864042224
 51
236.0249170409
  0
ARC
  5
288
330
1F
100
AcDbEntity
  8
0
  6
Continuous
 62
     7
370
    25
100
AcDbCircle
 10
207.7791532737
 20
56.0161993658
 30
0.0
 40
39.97043376204179
100
AcDbArc
 50
128.265148387
 51
164.8587936034
  0
ARC
  5
289
330
1F
100
AcDbEntity
  8
0
  6
Continuous
 62
     7
370
    25
100
AcDbCircle
 10
190.689187808
 20
68.4656167694
 30
0.0
 40
37.22785501754241
100
AcDbArc
 50
140.3510260334
 51
177.2376142263
  0
LINE
  5
28A
330
1F
100
AcDbEntity
  8
0
  6
Continuous
 62
     7
370
    25
100
AcDbLine
 10
174.7604882502
 20
49.5335988508
 30
0.0
 11
176.8456133901
 21
48.3294904218
 31
0.0
  0
ARC
  5
28B
330
1F
100
AcDbEntity
  8
0
  6
Continuous
 62
     7
370
    25
100
AcDbCircle
 10
169.3522294111
 20
87.3821791162
 30
0.0
 40
8.780342073794415
100
AcDbArc
 50
93.4295381122
 51
146.5650853551
  0
ARC
  5
28C
330
1F
100
AcDbEntity
  8
0
  6
Continuous
 62
     7
370
    25
100
AcDbCircle
 10
158.3839249213
 20
69.8032501041
 30
0.0
 40
4.90064369812176
100
AcDbArc
 50
174.6547638622
 51
232.6759834224
  0
ARC
  5
28D
330
1F
100
AcDbEntity
  8
0
  6
Continuous
 62
     7
370
    25
100
AcDbCircle
 10
168.1393101627
 20
87.6501766375
 30
0.0
 40
8.524402758293354
100
AcDbArc
 50
62.0154699427
 51
85.3728752634
  0
ARC
  5
28E
330
1F
100
AcDbEntity
  8
0
  6
Continuous
 62
     7
370
    25
100
AcDbCircle
 10
188.9046367047
 20
69.4959128008
 30
0.0
 40
35.89003709472815
100
AcDbArc
 50
140.3510260334
 51
177.2376142263
  0
ARC
  5
28F
330
1F
100
AcDbEntity
  8
0
  6
Continuous
 62
     7
370
    25
100
AcDbCircle
 10
168.7129106859
 20
87.0116161986
 30
0.0
 40
9.18637284703944
100
AcDbArc
 50
103.4689958683
 51
144.1118487458
  0
ARC
  5
290
330
1F
100
AcDbEntity
  8
0
  6
Continuous
 62
     7
370
    25
100
AcDbCircle
 10
159.1466046692
 20
71.1039815286
 30
0.0
 40
6.091514707189391
100
AcDbArc
 50
178.8560094402
 51
201.1091694604
  0
LWPOLYLINE
  5
291
330
1F
100
AcDbEntity
  8
0
  6
Continuous
 62
     7
370
    18
100
AcDbPolyline
 90
       26
 70
   128
 43
0.0
 10
182.2340022762
 20
49.6251989282
 10
182.3039619006
 20
51.5159075043
 10
182.5133083387
 20
53.4730003094
 10
182.8604483379
 20
55.4815826856
 10
183.342739953
 20
57.5263681083
 10
183.9565126536
 20
59.5917945256
 10
184.697095259
 20
61.6621427954
 10
185.5588514882
 20
63.7216563173
 10
186.5352228562
 20
65.7546609498
 10
187.6187785871
 20
67.7456843
 10
188.8012721676
 20
69.6795734781
 10
190.0737041076
 20
71.5416104197
 10
191.4263904316
 20
73.3176238994
 10
192.8490363801
 20
74.9940973821
 10
194.3308147582
 20
76.5582718925
 10
195.8604483379
 20
77.9982431179
 10
197.4262956839
 20
79.303052008
 10
199.0164397524
 20
80.4627681791
 10
200.6187785871
 20
81.468565491
 10
202.2211174217
 20
82.3127892187
 10
203.8112614903
 20
82.9890143101
 10
205.3771088363
 20
83.4920942837
 10
206.9067424159
 20
83.8182003973
 10
208.388520794
 20
83.9648507865
 10
209.8111667425
 20
83.9309293531
 10
210.0608160545
 20
83.9055656436
  0
ARC
  5
292
330
1F
100
AcDbEntity
  8
0
  6
Continuous
 62
     7
370
    18
100
AcDbCircle
 10
198.0621847833
 20
48.9602231818
 30
0.0
 40
15.84214487440456
100
AcDbArc
 50
177.5942966596
 51
213.4327662632
  0
LWPOLYLINE
  5
293
330
1F
100
AcDbEntity
  8
0
  6
Continuous
 62
     7
370
    18
100
AcDbPolyline
 90
       59
 70
   128
 43
0.0
 10
226.4492686769
 20
31.2846603326
 10
226.5205642292
 20
32.8442961455
 10
226.7336150108
 20
34.4679627469
 10
227.0859231961
 20
36.1366241306
 10
227.5733582939
 20
37.8307167674
 10
228.1902055731
 20
39.5303789702
 10
228.9292330636
 20
41.2156837535
 10
229.7817763436
 20
42.8668724598
 10
230.7378401226
 20
44.464586411
 10
231.7862154271
 20
45.9900938721
 10
232.914611015
 20
47.4255096626
 10
234.1097974799
 20
48.754004845
 10
235.3577623532
 20
49.9600040278
 10
236.6438743877
 20
51.0293679734
 10
237.9530550959
 20
51.9495593671
 10
239.2699555308
 20
52.7097898062
 10
240.5791362389
 20
53.3011462839
 10
241.8652482734
 20
53.7166956862
 10
243.1132131467
 20
53.9515660762
 10
244.3083996116
 20
54.0030038135
 10
245.4367951995
 20
53.8704058375
 10
246.485170504
 20
53.5553267384
 10
247.441234283
 20
53.0614605303
 10
248.293777563
 20
52.3945973432
 10
249.0328050535
 20
51.5625555381
 10
249.6496523327
 20
50.5750900445
 10
250.1370874305
 20
49.4437779924
 10
250.4893956158
 20
48.1818829812
 10
250.7024463975
 20
46.8041995763
 10
250.7737419497
 20
45.3268798559
 10
250.7024463975
 20
43.767244043
 10
250.4893956158
 20
42.1435774416
 10
250.1370874305
 20
40.4749160579
 10
249.6496523327
 20
38.780823421
 10
249.0328050535
 20
37.0811612183
 10
248.293777563
 20
35.395856435
 10
247.441234283
 20
33.7446677287
 10
246.485170504
 20
32.1469537774
 10
245.4367951995
 20
30.6214463164
 10
244.3083996116
 20
29.1860305259
 10
243.1132131467
 20
27.8575353435
 10
241.8652482734
 20
26.6515361606
 10
240.5791362389
 20
25.5821722151
 10
239.2699555308
 20
24.6619808214
 10
237.9530550959
 20
23.9017503823
 10
236.6438743877
 20
23.3103939046
 10
235.3577623532
 20
22.8948445023
 10
234.1097974799
 20
22.6599741122
 10
232.914611015
 20
22.608536375
 10
231.7862154271
 20
22.7411343509
 10
230.7378401226
 20
23.0562134501
 10
229.7817763436
 20
23.5500796582
 10
228.9292330636
 20
24.2169428453
 10
228.1902055731
 20
25.0489846504
 10
227.5733582939
 20
26.036450144
 10
227.0859231961
 20
27.1677621961
 10
226.7336150108
 20
28.4296572073
 10
226.5205642292
 20
29.8073406122
 10
226.4492686769
 20
31.2846603326
  0
LWPOLYLINE
  5
294
330
1F
100
AcDbEntity
  8
0
  6
Continuous
 62
     7
370
    18
100
AcDbPolyline
 90
       29
 70
   128
 43
0.0
 10
245.8710547891
 20
52.5878999048
 10
246.6083906639
 20
52.0476413805
 10
247.342567945
 20
51.2766094585
 10
247.956276314
 20
50.348621789
 10
248.441798032
 20
49.2753483555
 10
248.7930273818
 20
48.0702861941
 10
249.0055474505
 20
46.7485896606
 10
249.0766856749
 20
45.3268798559
 10
249.0055474505
 20
43.8230356056
 10
248.7930273818
 20
42.2559686237
 10
248.441798032
 20
40.6453856868
 10
247.956276314
 20
39.0115408097
 10
247.342567945
 20
37.3749805398
 10
246.6083906639
 20
35.7562855721
 10
245.7629771759
 20
34.1758119348
 10
244.8169590462
 20
32.6534350011
 10
243.7822330017
 20
31.2082995442
 10
242.6718113227
 20
29.8585789809
 10
241.4996582062
 20
28.6212468304
 10
240.2805141576
 20
27.5118632625
 10
239.0297106208
 20
26.5443794192
 10
237.7629771759
 20
25.7309619712
 10
236.496243731
 20
25.0818401148
 10
235.2454401942
 20
24.605176934
 10
234.0262961456
 20
24.3069667449
 10
232.8541430291
 20
24.1909597136
 10
231.7437213501
 20
24.2586146959
 10
230.7089953056
 20
24.5090808911
 10
229.7636273148
 20
24.9388331632
  0
LWPOLYLINE
  5
295
330
1F
100
AcDbEntity
  8
0
  6
Continuous
 62
     7
370
    18
100
AcDbPolyline
 90
       21
 70
   128
 43
0.0
 10
182.0695933925
 20
49.4471904412
 10
182.0429628184
 20
50.5518917716
 10
182.1121386845
 20
52.3959752082
 10
182.3191248881
 20
54.3054949466
 10
182.6623014814
 20
56.2655064058
 10
183.1389826422
 20
58.2606698388
 10
183.7454376943
 20
60.2753703865
 10
184.4769203044
 20
62.2938402854
 10
185.3277056295
 20
64.300282272
 10
186.2911351208
 20
66.2789932171
 10
187.3596686363
 20
68.2144870249
 10
188.5249434525
 20
70.091615832
 10
189.7778397139
 20
71.8956885604
 10
191.1085518087
 20
73.612585895
 10
192.5066651103
 20
75.2288707862
 10
193.9612374867
 20
76.7318936134
 10
195.4608849367
 20
78.1098911851
 10
196.9938706858
 20
79.3520788019
 10
198.548197042
 20
80.4487346614
 10
200.111699294
 20
81.3912759447
 10
201.1503933993
 20
81.9290199509
  0
LWPOLYLINE
  5
296
330
1F
100
AcDbEntity
  8
0
  6
Continuous
 62
     7
370
    18
100
AcDbPolyline
 90
       21
 70
   128
 43
0.0
 10
168.112959229
 20
58.593511673
 10
168.1821350952
 20
60.4375951096
 10
168.3891212987
 20
62.347114848
 10
168.732297892
 20
64.3071263073
 10
169.2089790529
 20
66.3022897403
 10
169.8154341049
 20
68.3169902879
 10
170.546916715
 20
70.3354601869
 10
171.3977020401
 20
72.3419021734
 10
172.3611315315
 20
74.3206131186
 10
173.429665047
 20
76.2561069263
 10
174.5949398631
 20
78.1332357335
 10
175.8478361246
 20
79.9373084619
 10
177.1785482193
 20
81.6542057965
 10
178.576661521
 20
83.2704906877
 10
180.0312338973
 20
84.7735135149
 10
181.5308813473
 20
86.1515110866
 10
183.0638670964
 20
87.3936987033
 10
184.6181934526
 20
88.4903545628
 10
186.1816957047
 20
89.4328958461
 10
187.7421373277
 20
90.2139458897
 10
188.1608388203
 20
90.3961047083
  0
LWPOLYLINE
  5
297
330
1F
100
AcDbEntity
  8
0
  6
Continuous
 62
     7
370
    18
100
AcDbPolyline
 90
        3
 70
   128
 43
0.0
 10
168.2674902061
 20
55.9894685373
 10
168.1821350952
 20
56.8292969915
 10
168.112959229
 20
58.593511673
  0
LINE
  5
298
330
1F
100
AcDbEntity
  8
0
  6
Continuous
 62
     7
370
    18
100
AcDbLine
 10
188.3386408221
 20
80.6039375303
 30
0.0
 11
185.2590181913
 21
75.2698746811
 31
0.0
  0
LINE
  5
299
330
1F
100
AcDbEntity
  8
0
  6
Continuous
 62
     7
370
    18
100
AcDbLine
 10
179.9223578742
 20
66.0265078964
 30
0.0
 11
176.8425545316
 21
60.6921320453
 31
0.0
  0
LINE
  5
29A
330
1F
100
AcDbEntity
  8
0
  6
Continuous
 62
     7
370
    18
100
AcDbLine
 10
186.2565745408
 20
81.8058888103
 30
0.0
 11
174.7604882502
 21
61.8940833253
 31
0.0
  0
LINE
  5
29B
330
1F
100
AcDbEntity
  8
0
  6
Continuous
 62
     7
370
    18
100
AcDbLine
 10
185.5772883592
 20
81.6251090324
 30
0.0
 11
174.5774019961
 21
62.57274703
 31
0.0
  0
LINE
  5
29C
330
1F
100
AcDbEntity
  8
0
  6
Continuous
 62
     7
370
    18
100
AcDbLine
 10
162.0249263141
 20
92.2200542962
 30
0.0
 11
178.2681375426
 21
83.0177679098
 31
0.0
  0
LINE
  5
29D
330
1F
100
AcDbEntity
  8
0
  6
Continuous
 62
     7
370
    18
100
AcDbLine
 10
153.5045918709
 20
70.2597779121
 30
0.0
 11
168.1778216697
 21
61.3525081871
 31
0.0
  0
LINE
  5
29E
330
1F
100
AcDbEntity
  8
0
  6
Continuous
 62
     7
370
    18
100
AcDbLine
 10
174.5774019961
 20
49.3505784212
 30
0.0
 11
177.2722474337
 21
47.7943715326
 31
0.0
  0
LINE
  5
29F
330
1F
100
AcDbEntity
  8
0
  6
Continuous
 62
     7
370
    18
100
AcDbLine
 10
199.7209079658
 20
86.6796855582
 30
0.0
 11
197.0274019961
 21
88.235118937
 31
0.0
  0
LINE
  5
2A0
330
1F
100
AcDbEntity
  8
0
  6
Continuous
 62
     7
370
    18
100
AcDbLine
 10
168.8269806069
 20
96.1467966565
 30
0.0
 11
183.8400700205
 21
88.067487295
 31
0.0
  0
LINE
  5
2A1
330
1F
100
AcDbEntity
  8
0
  6
Continuous
 62
     7
370
    18
100
AcDbLine
 10
161.2704523601
 20
92.3967123124
 30
0.0
 11
162.0249263141
 21
92.2200542962
 31
0.0
  0
LINE
  5
2A2
330
1F
100
AcDbEntity
  8
0
  6
Continuous
 62
     7
370
    18
100
AcDbLine
 10
153.0563041348
 20
71.2255990783
 30
0.0
 11
153.5045918709
 21
70.2597779121
 31
0.0
  0
OLE2FRAME
  5
2A3
330
1F
100
AcDbEntity
  8
0
100
AcDbOle2Frame
 70
     2
  3
Paintbrush-Bild
 10
13.8511154363
 20
38.264191557
 30
0.0
 11
51.6290888628
 21
31.9806341108
 31
0.0
 71
     2
 72
     0
 73
     1
 90
    12928
310
80552BED0767C5B32B40DDAF6807D121434000000000000000006FFBDDFB85D0
310
4940DDAF6807D121434000000000000000006FFBDDFB85D04940416F4BD60AFB
310
3F4000000000000000002BED0767C5B32B40416F4BD60AFB3F40000000000000
310
0000000000000100000000010000010000000100000000000100000000320000
310
D0CF11E0A1B11AE1000000000000000000000000000000003E000300FEFF0900
310
0600000000000000000000000100000001000000000000000010000002000000
310
01000000FEFFFFFF0000000000000000FFFFFFFFFFFFFFFFFFFFFFFFFFFFFFFF
310
FFFFFFFFFFFFFFFFFFFFFFFFFFFFFFFFFFFFFFFFFFFFFFFFFFFFFFFFFFFFFFFF
310
FFFFFFFFFFFFFFFFFFFFFFFFFFFFFFFFFFFFFFFFFFFFFFFFFFFFFFFFFFFFFFFF
310
FFFFFFFFFFFFFFFFFFFFFFFFFFFFFFFFFFFFFFFFFFFFFFFFFFFFFFFFFFFFFFFF
310
FFFFFFFFFFFFFFFFFFFFFFFFFFFFFFFFFFFFFFFFFFFFFFFFFFFFFFFFFFFFFFFF
310
FFFFFFFFFFFFFFFFFFFFFFFFFFFFFFFFFFFFFFFFFFFFFFFFFFFFFFFFFFFFFFFF
310
FFFFFFFFFFFFFFFFFFFFFFFFFFFFFFFFFFFFFFFFFFFFFFFFFFFFFFFFFFFFFFFF
310
FFFFFFFFFFFFFFFFFFFFFFFFFFFFFFFFFFFFFFFFFFFFFFFFFFFFFFFFFFFFFFFF
310
FFFFFFFFFFFFFFFFFFFFFFFFFFFFFFFFFFFFFFFFFFFFFFFFFFFFFFFFFFFFFFFF
310
FFFFFFFFFFFFFFFFFFFFFFFFFFFFFFFFFFFFFFFFFFFFFFFFFFFFFFFFFFFFFFFF
310
FFFFFFFFFFFFFFFFFFFFFFFFFFFFFFFFFFFFFFFFFFFFFFFFFFFFFFFFFFFFFFFF
310
FFFFFFFFFFFFFFFFFFFFFFFFFFFFFFFFFFFFFFFFFFFFFFFFFFFFFFFFFFFFFFFF
310
FFFFFFFFFFFFFFFFFFFFFFFFFFFFFFFFFFFFFFFFFFFFFFFFFFFFFFFFFFFFFFFF
310
FFFFFFFFFFFFFFFFFFFFFFFFFFFFFFFFFFFFFFFFFFFFFFFFFFFFFFFFFFFFFFFF
310
FDFFFFFFFEFFFFFFFEFFFFFFFEFFFFFF05000000060000000700000008000000
310
090000000A0000000B0000000C0000000D0000000E0000000F00000010000000
310
11000000120000001300000014000000150000001600000017000000FEFFFFFF
310
FFFFFFFFFFFFFFFFFFFFFFFFFFFFFFFFFFFFFFFFFFFFFFFFFFFFFFFFFFFFFFFF
310
FFFFFFFFFFFFFFFFFFFFFFFFFFFFFFFFFFFFFFFFFFFFFFFFFFFFFFFFFFFFFFFF
310
FFFFFFFFFFFFFFFFFFFFFFFFFFFFFFFFFFFFFFFFFFFFFFFFFFFFFFFFFFFFFFFF
310
FFFFFFFFFFFFFFFFFFFFFFFFFFFFFFFFFFFFFFFFFFFFFFFFFFFFFFFFFFFFFFFF
310
FFFFFFFFFFFFFFFFFFFFFFFFFFFFFFFFFFFFFFFFFFFFFFFFFFFFFFFFFFFFFFFF
310
FFFFFFFFFFFFFFFFFFFFFFFFFFFFFFFFFFFFFFFFFFFFFFFFFFFFFFFFFFFFFFFF
310
FFFFFFFFFFFFFFFFFFFFFFFFFFFFFFFFFFFFFFFFFFFFFFFFFFFFFFFFFFFFFFFF
310
FFFFFFFFFFFFFFFFFFFFFFFFFFFFFFFFFFFFFFFFFFFFFFFFFFFFFFFFFFFFFFFF
310
FFFFFFFFFFFFFFFFFFFFFFFFFFFFFFFFFFFFFFFFFFFFFFFFFFFFFFFFFFFFFFFF
310
FFFFFFFFFFFFFFFFFFFFFFFFFFFFFFFFFFFFFFFFFFFFFFFFFFFFFFFFFFFFFFFF
310
FFFFFFFFFFFFFFFFFFFFFFFFFFFFFFFFFFFFFFFFFFFFFFFFFFFFFFFFFFFFFFFF
310
FFFFFFFFFFFFFFFFFFFFFFFFFFFFFFFFFFFFFFFFFFFFFFFFFFFFFFFFFFFFFFFF
310
FFFFFFFFFFFFFFFFFFFFFFFFFFFFFFFFFFFFFFFFFFFFFFFFFFFFFFFFFFFFFFFF
310
52006F006F007400200045006E00740072007900000000000000000000000000
310
0000000000000000000000000000000000000000000000000000000000000000
310
16000500FFFFFFFFFFFFFFFF020000000A00030000000000C000000000000046
310
000000000000000000000000706ADE65968ED30103000000C000000000000000
310
01004F006C006500000000000000000000000000000000000000000000000000
310
0000000000000000000000000000000000000000000000000000000000000000
310
0A000200FFFFFFFFFFFFFFFFFFFFFFFF00000000000000000000000000000000
310
0000000000000000000000000000000000000000000000001400000000000000
310
010043006F006D0070004F0062006A0000000000000000000000000000000000
310
0000000000000000000000000000000000000000000000000000000000000000
310
120002010100000003000000FFFFFFFF00000000000000000000000000000000
310
0000000000000000000000000000000000000000010000004D00000000000000
310
01004F006C006500310030004E00610074006900760065000000000000000000
310
0000000000000000000000000000000000000000000000000000000000000000
310
1A000200FFFFFFFFFFFFFFFFFFFFFFFF00000000000000000000000000000000
310
0000000000000000000000000000000000000000040000002426000000000000
310
FEFFFFFF02000000FEFFFFFFFFFFFFFFFFFFFFFFFFFFFFFFFFFFFFFFFFFFFFFF
310
FFFFFFFFFFFFFFFFFFFFFFFFFFFFFFFFFFFFFFFFFFFFFFFFFFFFFFFFFFFFFFFF
310
FFFFFFFFFFFFFFFFFFFFFFFFFFFFFFFFFFFFFFFFFFFFFFFFFFFFFFFFFFFFFFFF
310
FFFFFFFFFFFFFFFFFFFFFFFFFFFFFFFFFFFFFFFFFFFFFFFFFFFFFFFFFFFFFFFF
310
FFFFFFFFFFFFFFFFFFFFFFFFFFFFFFFFFFFFFFFFFFFFFFFFFFFFFFFFFFFFFFFF
310
FFFFFFFFFFFFFFFFFFFFFFFFFFFFFFFFFFFFFFFFFFFFFFFFFFFFFFFFFFFFFFFF
310
FFFFFFFFFFFFFFFFFFFFFFFFFFFFFFFFFFFFFFFFFFFFFFFFFFFFFFFFFFFFFFFF
310
FFFFFFFFFFFFFFFFFFFFFFFFFFFFFFFFFFFFFFFFFFFFFFFFFFFFFFFFFFFFFFFF
310
FFFFFFFFFFFFFFFFFFFFFFFFFFFFFFFFFFFFFFFFFFFFFFFFFFFFFFFFFFFFFFFF
310
FFFFFFFFFFFFFFFFFFFFFFFFFFFFFFFFFFFFFFFFFFFFFFFFFFFFFFFFFFFFFFFF
310
FFFFFFFFFFFFFFFFFFFFFFFFFFFFFFFFFFFFFFFFFFFFFFFFFFFFFFFFFFFFFFFF
310
FFFFFFFFFFFFFFFFFFFFFFFFFFFFFFFFFFFFFFFFFFFFFFFFFFFFFFFFFFFFFFFF
310
FFFFFFFFFFFFFFFFFFFFFFFFFFFFFFFFFFFFFFFFFFFFFFFFFFFFFFFFFFFFFFFF
310
FFFFFFFFFFFFFFFFFFFFFFFFFFFFFFFFFFFFFFFFFFFFFFFFFFFFFFFFFFFFFFFF
310
FFFFFFFFFFFFFFFFFFFFFFFFFFFFFFFFFFFFFFFFFFFFFFFFFFFFFFFFFFFFFFFF
310
FFFFFFFFFFFFFFFFFFFFFFFFFFFFFFFFFFFFFFFFFFFFFFFFFFFFFFFFFFFFFFFF
310
0100000200000000000000000000000000000000000000000000000000000000
310
0000000000000000000000000000000000000000000000000000000000000000
310
0100FEFF030A0000FFFFFFFF0A00030000000000C00000000000004607000000
310
5042727573680007000000504272757368000700000050427275736800F439B2
310
7100000000000000000000000000000000000000000000000000000000000000
310
0000000000000000000000000000000000000000000000000000000000000000
310
0000000000000000000000000000000000000000000000000000000000000000
310
0000000000000000000000000000000000000000000000000000000000000000
310
0000000000000000000000000000000000000000000000000000000000000000
310
0000000000000000000000000000000000000000000000000000000000000000
310
0000000000000000000000000000000000000000000000000000000000000000
310
0000000000000000000000000000000000000000000000000000000000000000
310
0000000000000000000000000000000000000000000000000000000000000000
310
0000000000000000000000000000000000000000000000000000000000000000
310
0000000000000000000000000000000000000000000000000000000000000000
310
0000000000000000000000000000000000000000000000000000000000000000
310
20260000424D0E260000000000003E00000028000000B40200006E0000000100
310
01000000000000000000130B0000130B00000200000002000000000000FFFFFF
310
FFFFFFFFFFFFFFFFFFFFFFFFFFFFFFFFFFFFFFFFFFFFFFFFFFFFFFFFFFFFFFFF
310
FFFFFFFFFFFFFFFFFFFFFFFFFFFFFFFFFFFFFFFFFFFFFFFFFFFFFFFFFFFFFFFF
310
FFFFFFFFFFFFFFFFFFFFFFFFFFFFFFFFFFFFFFFFFFFFFFFFF000FFFFFFFFFFFF
310
FFFFFFFFFFFFFFFFFFFFFFFFFFFFFFFFFFFFFFFFFFFFFFFFFFFFFFFFFFFFFFFF
310
FFFFFFFFFFFFFFFFFFFFFFFFFFFFFFFFFFFFFFFFFFFFFFFFFFFFFFFFFFFFFFFF
310
FFFFFFFFFFFFFFFFFFFFFFFFFFFFFFFFF000FFFFFFFFFFFFFFFFFFFFFFFFFFFF
310
FFFFFFFFFFFFFFFFFFFFFFFFFFFFFFFFFFFFFFFFFFFFFFFFFFFFFFFFFFFFFFFF
310
FFFFFFFFFFFFFFFFFFFFFFFFFFFFFFFFFFFFFFFFFFFFFFFFFFFFFFFFFFFFFFFF
310
FFFFFFFFFFFFFFFFF000FFFFFFFFFFFFFFFFFFFFFFFFFFFFFFFFFFFFFFFFFFFF
310
FFFFFFFFFFFFFFFFFFFFFFFFFFFFFFFFFFFFFFFFFFFFFFFFFFFFFFFFFFFFFFFF
310
FFFFFFFFFFFFFFFFFFFFFFFFFFFFFFFFFFFFFFFFFFFFFFFFFFFFFFFFFFFFFFFF
310
F000FFFFFFFFFFFFFFFFFFFFFFFFFFFFFFFFFFFFFFFFFFFFFFFFFFFFFFFFFFFF
310
FFFFFFFFFFFFFFFFFFFFFFFFFFFFFFFFFFFFFFFFFFFFFFFFFFFFFFFFFFFFFFFF
310
FFFFFFFFFFFFFFFFFFFFFFFFFFFFFFFFFFFFFFFFFFFFFFFFF000FFFFFFFFFFFF
310
FFFFFFFFFFFFFFFFFFFFFFFFFFFFFFFFFFFFFFFFFFFFFFFFFFFFFFFFFFFFFFFF
310
FFFFFFFFFFFFFFFFFFFFFFFFFFFFFFFFFFFFFFFFFFFFFFFFFFFFFFFFFFFFFFFF
310
FFFFFFFFFFFFFFFFFFFFFFFFFFFFFFFFF000FFFFFFFFFFFFFFFFFFFFFFFFFFFF
310
FFFFFFFFFFFFFFFFFFFFFFFFFFFFFFFFFFFFFFFFFFFFFFFFFFFFFFFFFFFFFFFF
310
FFFFFFFFFFFFFFFFFFFFFFFFFFFFFFFFFFFFFFFFFFFFFFFFFFFFFFFFFFFFFFFF
310
FFFFFFFFFFFFFFFFF000FFFFFFFFFFFFFFFFFFFFFFFFFFFFFFFFFFFFFFFFFFFF
310
FFFFFFFFFFFFFFFFFFFFFFFFFFFFFFFFFFFFFFFFFFFFFFFFFFFFFFFFFFFFFFFF
310
FFFFFFFFFFFFFFFFFFFFFFFFFFFFFFFFFFFFFFFFFFFFFFFFFFFFFFFFFFFFFFFF
310
F000FFFFFFFFFFFFFFFFFFFFFFFFFFFFFFFFFFFFFFFFFFFFFFFFFFFFFFFFFFFF
310
FFFFFFFFFFFFFFFFFFFFFFFFFFFFFFFFFFFFFFFFFFFFFFFFFFFFFFFFFFFFFFFF
310
FFFFFFFFFFFFFFFFFFFFFFFFFFFFFFFFFFFFFFFFFFFFFFFFF000FFFFFFFFFFFF
310
FFFFFFFFFFFFFFFFFFFFFFFFFFFFFFFFFFFFFFFFFFFFFFFFFFFFFFFFFFFFFFFF
310
FFFFFFFFFFFFFFFFFFFFFFFFFFFFFFFFFFFFFFFFFFFFFFFFFFFFFFFFFFFFFFFF
310
FFFFFFFFFFFFFFFFFFFFFFFFFFFFFFFFF000FFFFFFFFFFFFFFFFFFFFFFFFFFFF
310
FFFFFFFFFFFFFFFFFFFFFFFFFFFFFFFFFFFFFFFFFFFFFFFFFFFFFFFFFFFFFFFF
310
FFFFFFFFFFFFFFFFFFFFFFFFFFFFFFFFFFFFFFFFFFFFFFFFFFFFFFFFFFFFFFFF
310
FFFFFFFFFFFFFFFFF000FFFFFFFFFFFFFFFFFFFFFFFFFFFFFFFFFFFFFFFFFFFF
310
FFFFFFFFFFFFFFFFFFFFFFFFFFFFFFFFFFFFFFFFFFFFFFFFFFFFFFFFFFFFFFFF
310
FFFFFFFFFFFFFFFFFFFFFFFFFFFFFFFFFFFFFFFFFFFFFFFFFFFFFFFFFFFFFFFF
310
F000FFFFFFFFFFFFFFFFFFFFFFFFFFFFFFFFFFFFFFFFFFFFFFFFFFFFFFFFFFFF
310
FFFFFFFFFFFFFFFFFFFFFFFFFFFFFFFFFFFFFFFFFFFFFFFFFFFFFFFFFFFFFFFF
310
FFFFFFFFFFFFFFFFFFFFFFFFFFFFFFFFFFFFFFFFFFFFFFFFF000FFFFFFFFFFFF
310
FFFFFFFFFFFFFFFFFFFFFFFFFFFFFFFFFFFFFFFFFFFFFFFFFFFFFFFFFFFFFFFF
310
FFFFFFFFFFFFFFFFFFFFFFFFFFFFFFFFFFFFFFFFFFFFFFFFFFFFFFFFFFFFFFFF
310
FFFFFFFFFFFFFFFFFFFFFFFFFFFFFFFFF000FFFFFFFFFFFFFFFFFFFFFFFFFFFF
310
FFFFFFFFFFFFFFFFFFFFFFFFFFFFFFFFFFFFFFFFFFFFFFFFFFFFFFFFFFFFFFFF
310
FFFFFFFFFFFFFFFFFFFFFFFFFFFFFFFFFFFFFFFFFFFFFFFFFFFFFFFFFFFFFFFF
310
FFFFFFFFFFFFFFFFF000FFFFFFFFFFFFFFFFFFFFFFFFFFFFFFFFFFFFFFFFFFFF
310
FFFFFFFFFFFFFFFFFFFFFFFFFFFFFFFFFFFFFFFFFFFFFFFFFFFFFFFFFFFFFFFF
310
FFFFFFFFFFFFFFFFFFFFFFFFFFFFFFFFFFFFFFFFFFFFFFFFFFFFFFFFFFFFFFFF
310
F000FFFFFFFFFFFFFFFFFFFFFFFFFFFFFFFFFFFFFFFFFFFFFFFFFFFFFFFFFFFF
310
FFFFFFFFFFFFFFFFFFFFFFFFFFFFFFFFFFFFFFFFFFFFFFFFFFFFFFFFFFFFFFFF
310
FFFFFFFFFFFFFFFFFFFFFFFFFFFFFFFFFFFFFFFFFFFFFFFFF000FFFFFFFFFFFF
310
FFFFFFFFFFFFFFFFFFFFFFFFFFFFFFFFFFFFFFFFFFFFFFFFFFFFFFFFFFFFFFFF
310
FFFFFFFFFFFFFFFFFFFFFFFFFFFFFFFFFFFFFFFFFFFFFFFFFFFFFFFFFFFFFFFF
310
FFFFFFFFFFFFFFFFFFFFFFFFFFFFFFFFF000FFFFFFFFFFFFFFFFFFFFFFFFFFFF
310
FFFFFFFFFFFFFFFFFFFFFFFFFFFFFFFFFFFFFFFFFFFFFFFFFFFFFFFFFFFFFFFF
310
FFFFFFFFFFFFFFFFFFFFFFFFFFFFFFFFFFFFFFFFFFFFFFFFFFFFFFFFFFFFFFFF
310
FFFFFFFFFFFFFFFFF000FFFFF80003FFFFFFFFFFFFFFFFFFFFFFFFFFFFFFFFFF
310
FFFFF00007FFFFFFFFFF00007FFFFFF800000000000000007FFFFFFFFFFFFFFF
310
FFFFFFFC001FFFFFFFFFFFFFFC001FFFFFFFFFFFFFFFFFFFFFFFFFFE0007FFFF
310
F000FFFF8000007FFFFFFFF8000FFFFFC0007FFFFF80007FFFFF0000007FFFFF
310
FFF8000007FFFFF800000000000000007FFFFFF0001FFFFFFFFFFFC00001FFFF
310
FFFFFFFFC00001FFFFFFFF000000000003FFFFE000007FFFF000FFFE0000000F
310
FFFFFFF0000FFFFF80007FFFFF80007FFFFC0000001FFFFFFFC0000001FFFFF8
310
00000000000000007FFFFFF0001FFFFFFFFFFE0000003FFFFFFFFFFE0000003F
310
FFFFFF000000000003FFFF0000000FFFF000FFF800000003FFFFFFF00007FFFF
310
80007FFFFF80007FFFF000000007FFFFFF000000003FFFF80000000000000000
310
7FFFFFF0001FFFFFFFFFF80000000FFFFFFFFFF80000000FFFFFFF0000000000
310
03FFFC00000003FFF000FFE000000000FFFFFFF00007FFFF80003FFFFF80007F
310
FFC000000001FFFFFC000000001FFFF800000000000000007FFFFFF0001FFFFF
310
FFFFE000000003FFFFFFFFE000000003FFFFFF000000000003FFF000000000FF
310
F000FF80000000007FFFFFF00007FFFF80003FFFFF80007FFF8000000000FFFF
310
F80000000007FFF800000000000000007FFFFFF0001FFFFFFFFFC000000001FF
310
FFFFFFC000000001FFFFFF000000000003FFC0000000007FF000FF0000000000
310
3FFFFFE00007FFFF00003FFFFF80007FFE00000000003FFFF00000000003FFF8
310
00000000000000007FFFFFF0001FFFFFFFFF8000000000FFFFFFFF8000000000
310
FFFFFF000000000003FF80000000003FF000FE00000000001FFFFFE00003FFFF
310
00003FFFFF80007FFC00000000001FFFE00000000001FFF8000001FFFE000000
310
7FFFFFF0001FFFFFFFFE00000000003FFFFFFE00000000003FFFFF0000000000
310
03FF00000000001FF000FC00000000000FFFFFE00003FFFF00001FFFFF80007F
310
F800000000001FFFC00000000000FFF8000001FFFE0000007FFFFFF0001FFFFF
310
FFFC00000000001FFFFFFC00000000001FFFFF000000000003FE00000000000F
310
F000F8000000000007FFFFE00003FFFF00001FFFFF80007FF800000000000FFF
310
800000000000FFF8000001FFFE0000007FFFFFF0001FFFFFFFF800000000000F
310
FFFFF800000000000FFFFF000000000003FC000000000007F000F80000000000
310
03FFFFC00003FFFE00001FFFFF80007FF0000000000007FF0000000000007FF8
310
000001FFFE0000007FFFFFF0001FFFFFFFF0000000000007FFFFF00000000000
310
07FFFF000000000003F8000000000003F000F0000000000003FFFFC00001FFFE
310
00001FFFFF80007FE0000000000007FE0000000000003FF8000001FFFE000000
310
7FFFFFF0001FFFFFFFF0000000000007FFFFF0000000000007FFFF0000000000
310
03F800001F800003F000E00001FFF00001FFFFC00001FFFE00000FFFFF80007F
310
E00001FFE00003FE00001FFF00003FF8000001FFFE0000007FFFFFF0001FFFFF
310
FFE000003E000003FFFFE000003E000003FFFF000000000003F00001FFF80001
310
F000E00007FFFC0001FFFFC00001FFFE00000FFFFF80007FC0000FFFFC0003FC
310
0000FFFFC0001FF8000001FFFE0000007FFFFFF0001FFFFFFFC00003FFE00001
310
FFFFC00003FFE00001FFFF0001FFFFFFFFF00007FFFE0001F000E0000FFFFF00
310
00FFFF800001FFFC00000FFFFF80007FC0001FFFFE0001FC0001FFFFE0001FF8
310
000001FFFE0000007FFFFFF0001FFFFFFF80000FFFF80000FFFF80000FFFF800
310
00FFFF0003FFFFFFFFE0000FFFFF8000F000C0003FFFFF8000FFFF800000FFFC
310
000007FFFF80007F80003FFFFF0001FC0003FFFFF0001FF8000001FFFE000000
310
7FFFFFF0001FFFFFFF80003FFFFE0000FFFF80003FFFFE0000FFFF0003FFFFFF
310
FFE0003FFFFF8000F000C0003FFFFF8000FFFF800000FFFC000007FFFF80007F
310
80007FFFFF8001F80007FFFFF8000FF8000001FFFE0000007FFFFFF0001FFFFF
310
FF00007FFFFF00007FFF00007FFFFF00007FFF0003FFFFFFFFE0003FFFFFC000
310
F000C0007FFFFFC000FFFF000000FFFC000007FFFF80007F8000FFFFFF8000F8
310
000FFFFFF8000FF8000001FFFE0000007FFFFFF0001FFFFFFF0000FFFFFF8000
310
7FFF0000FFFFFF80007FFF0003FFFFFFFFC0007FFFFFC00070008000FFFFFFC0
310
00FFFF000000FFF8000007FFFF80007F8000FFFFFF8000F8000FFFFFF8000FF8
310
000001FFFE0000007FFFFFF0001FFFFFFE0001FFFFFFC0003FFE0001FFFFFFC0
310
003FFF0003FFFFFFFFC0007FFFFFE00070008000FFFFFFC0007FFF0000007FF8
310
000003FFFF80007F0001FFFFFF8000F8000FFFFFF8000FF8000001FFFE000000
310
7FFFFFF0001FFFFFFE0001FFFFFFC0003FFE0001FFFFFFC0003FFF0003FFFFFF
310
FFC000FFFFFFE00070008000FFFFFFC0007FFF0000007FF8000003FFFF80007F
310
0001FFFFFF8000F8001FFFFFF8000FF8000001FFFE0000007FFFFFF0001FFFFF
310
FE0003FFFFFFE0003FFE0003FFFFFFE0003FFF0003FFFFFFFFC000FFFFFFE000
310
70008000FFFFFFC0007FFE0000007FF8000003FFFF80007F0001FFFFFF8000F0
310
001FFFFFF8000FF8000001FFFE0000007FFFFFF0001FFFFFFC0003FFFFFFE000
310
1FFC0003FFFFFFE0001FFF0003FFFFFFFFC000FFFFFFC00070008000FFFFFF80
310
007FFE0000007FF0000003FFFF80007F0001FFFFFF0000F0001FFFFFF8000FF8
310
000001FFFE0000007FFFFFF0001FFFFFFC0007FFFFFFF0001FFC0007FFFFFFF0
310
001FFF0003FFFFFFFFC000FFFFFFC00070008001FFFFFF0000FFFE0000003FF0
310
000001FFFF80007F0001FFFFFF0000F8001FFFFFF0000FF8000001FFFE000000
310
7FFFFFF0001FFFFFFC0007FFFFFFF0001FFC0007FFFFFFF0001FFF0003FFFFFF
310
FFC001FFFFFF80007000FFFFFFFFFE0000FFFE0008003FF0008001FFFF80007F
310
FFFFFFFFFC0000FFFFFFFFFFE0000FF8000001FFFE0000007FFFFFF0001FFFFF
310
F8000FFFFFFFF8000FF8000FFFFFFFF8000FFF0003FFFFFFFFFFFFFFFFFF0000
310
7000FFFFFFFFFC0000FFFC0008003FF0008001FFFF80007FFFFFFFFFF80001FF
310
FFFFFFFF80000FF8000001FFFE0000007FFFFFF0001FFFFFF8000FFFFFFFF800
310
0FF8000FFFFFFFF8000FFF0003FFFFFFFFFFFFFFFFFE0000F000FFFFFFFFE000
310
00FFFC000C003FE000C001FFFF80007FFFFFFFFFC00001FFFFFFFFFE00001FF8
310
000001FFFE0000007FFFFFF0001FFFFFF8000FFFFFFFF8000FF8000FFFFFFFF8
310
000FFF0003FFFFFFFFFFFFFFFFF00000F000FFFFFFFE000001FFFC000C001FE0
310
00C000FFFF80007FFFFFFFFE000001FFFFFFFFE000001FF80FFFFFFFFFFFFFC0
310
7FFFFFF0001FFFFFF8000FFFFFFFF8000FF8000FFFFFFFF8000FFF0003FFFFFF
310
FFFFFFFFFF800000F000FFFFFFC0000001FFFC001C001FE001C000FFFF80007F
310
FFFFFF80000003FFFFFFF80000001FF80FFFFFFFFFFFFFC07FFFFFF0001FFFFF
310
F8001FFFFFFFFC000FF8001FFFFFFFFC000FFF0003FFFFFFFFFFFFFFF0000001
310
F000FFFFF800000001FFF8001C001FE001C000FFFF80007FFFFFF800000003FF
310
FFFF800000003FF80FFFFFFFFFFFFFC07FFFFFF0001FFFFFF8001FFFFFFFFC00
310
0FF8001FFFFFFFFC000FFF0003FFFFFFFFFFFFFE00000001F000FFFFC0000000
310
03FFF8001E001FC001E000FFFF80007FFFFF8000000007FFFFFC000000003FF8
310
0FFFFFFFFFFFFFC07FFFFFF0001FFFFFF8001FFFFFFFFC000FF8001FFFFFFFFC
310
000FFF0003FFFFFFFFFFFFE000000003F000FFFE0000000007FFF8001E000FC0
310
01E0007FFF80007FFFFE0000000007FFFFE0000000007FF80FFFFFFFFFFFFFC0
310
7FFFFFF0001FFFFFF0001FFFFFFFFC0007F0001FFFFFFFFC0007FF0003FFFFFF
310
FFFFFF0000000003F000FFF80000000007FFF8001E000FC003E0007FFF80007F
310
FFF0000000000FFFFF8000000000FFF80FFFFFFFFFFFFFC07FFFFFF0001FFFFF
310
F0001FFFFFFFFC0007F0001FFFFFFFFC0007FF0003FFFFFFFFFFFC0000000007
310
F000FFE0000000000FFFF0003E000FC003E0007FFF80007FFFC0000000001FFF
310
FE0000000001FFF80FFFFFFFFFFFFFC07FFFFFF0001FFFFFF0001FFFFFFFFC00
310
07F0001FFFFFFFFC0007FF0003FFFFFFFFFFF0000000000FF000FFC000000000
310
1FFFF0003F000F8003F0003FFF80007FFF80000000003FFFF80000000003FFF8
310
0FFFFFFFFFFFFFC07FFFFFF0001FFFFFF0001FFFFFFFFC0007F0001FFFFFFFFC
310
0007FF0003FFFFFFFFFFE0000000001FF000FF00000000007FFFF0003F000780
310
03F0003FFF80007FFF00000000007FFFF00000000007FFF80FFFFFFFFFFFFFC0
310
7FFFFFF0001FFFFFF0001FFFFFFFFC0007F0001FFFFFFFFC0007FF0003FFFFFF
310
FFFF80000000007FF000FE0000000000FFFFE0003F00078007F0003FFF80007F
310
FE0000000001FFFFE0000000001FFFF80FFFFFFFFFFFFFC07FFFFFF0001FFFFF
310
F0001FFFFFFFFC0007F0001FFFFFFFFC0007FF0003FFFFFFFFFF0000000000FF
310
F000FC0000000003FFFFE0007F00078007F0003FFF80007FFC0000000007FFFF
310
C0000000007FFFF80FFFFFFFFFFFFFC07FFFFFF0001FFFFFF8001FFFFFFFFC00
310
0FF8001FFFFFFFFC000FFF0003FFFFFFFFFE0000000003FFF000FC000000000F
310
FFFFE0007F80070007F8001FFF80007FF8000000001FFFFF8000000001FFFFF8
310
0FFFFFFFFFFFFFC07FFFFFF0001FFFFFF8001FFFFFFFFC000FF8001FFFFFFFFC
310
000FFF0003FFFFFFFFFC000000000FFFF000F8000000007FFFFFE0007F800700
310
07F8001FFF80007FF000000000FFFFFF800000000FFFFFF80FFFFFFFFFFFFFC0
310
7FFFFFF0001FFFFFF8000FFFFFFFF8000FF8000FFFFFFFF8000FFF0003FFFFFF
310
FFFC000000007FFFF000F800000007FFFFFFC0007F8003000FF8001FFF80007F
310
F000000007FFFFFF000000007FFFFFF80FFFFFFFFFFFFFC07FFFFFF0001FFFFF
310
F8000FFFFFFFF8000FF8000FFFFFFFF8000FFF0003FFFFFFFFF80000000FFFFF
310
F000F0000000FFFFFFFFC000FF8003000FF8001FFF80007FE0000000FFFFFFFF
310
0000000FFFFFFFF8000001FFFE0000007FFFFFF0001FFFFFF8000FFFFFFFF800
310
0FF8000FFFFFFFF8000FFF0003FFFFFFFFF8000000FFFFFFF000F000000FFFFF
310
FFFFC000FFC002000FF8000FFF80007FE000001FFFFFFFFE000001FFFFFFFFF8
310
000001FFFE0000007FFFFFF0001FFFFFF8000FFFFFFFF8000FF8000FFFFFFFF8
310
000FFF0003FFFFFFFFF000001FFFFFFFF000E00000FFFFFFFFFFC000FFC00200
310
0FFC000FFF80007FE00001FFFFFFFFFE00001FFFFFFFFFF8000001FFFE000000
310
7FFFFFF0001FFFFFFC000FFFFFFFF8001FFC000FFFFFFFF8001FFF0003FFFFFF
310
FFF00001FFFFFFFFF000E00007FFFFFFFFFF8000FFC000001FFC000FFF80007F
310
C0000FFFFFFFFFFE0000FFFFFFFFFFF8000001FFFE0000007FFFFFF0001FFFFF
310
FC0007FFFFFFF0001FFC0007FFFFFFF0001FFF0003FFFFFFFFF00007FFFFFFFF
310
F000E0001FFFFFFFFFFF8000FFC000001FFC000FFF80007FC0003FFFFFFFFFFE
310
0001FFFFFFFFFFF8000001FFFE0000007FFFFFF0001FFFFFFC0007FFFFFFF000
310
1FFC0007FFFFFFF0001FFF0003FFFFFFFFF0001FFFFFFFFFF000E0003FFFFF00
310
03FF8001FFE000001FFC0007FF80007FC0007FFFFF0007FC0003FFFFF0003FF8
310
000001FFFE0000007FFFFFF0001FFFFFFC0003FFFFFFE0001FFC0003FFFFFFE0
310
001FFF0003FFFFFFFFF0003FFFFFFFFFF000E0003FFFFF0001FF8001FFE00000
310
1FFE0007FF80007FC0007FFFFE0003FC0007FFFFE0003FF8000001FFFE000000
310
7FFFFFF0001FFFFFFE0003FFFFFFE0003FFE0003FFFFFFE0003FFF0003FFFFFF
310
FFF0003FFFFF8001F000E0003FFFFF0001FF0001FFE000001FFE0007FF80007F
310
C0007FFFFE0003FC0007FFFFE0003FF8000001FFFE0000007FFFFFF0001FFFFF
310
FE0001FFFFFFC0003FFE0001FFFFFFC0003FFF0003FFFFFFFFF0003FFFFF0001
310
F000E0003FFFFF0003FF0001FFE000003FFE0007FF80007FC0007FFFFE0003FC
310
0007FFFFE0003FF8000001FFFE0000007FFFFFF0001FFFFFFF0001FFFFFFC000
310
7FFF0001FFFFFFC0007FFF0003FFFFFFFFF0003FFFFF0001F000E0003FFFFE00
310
03FF0003FFF000003FFE0003FF80007FC0007FFFFC0003FE0007FFFFE0003FF8
310
000001FFFE0000007FFFFFF0001FFFFFFF0000FFFFFF80007FFF0000FFFFFF80
310
007FFF0003FFFFFFFFF0003FFFFF0001F000E0003FFFFE0003FF0003FFF00000
310
3FFF0003FF80007FC0007FFFFC0007FE0007FFFFC0003FF8000001FFFE000000
310
7FFFFFF0001FFFFFFF80007FFFFF0000FFFF80007FFFFF0000FFFF0003FFFFFF
310
FFF0003FFFFF0003F000E0003FFFFC0003FE0003FFF000003FFF0003FF80007F
310
E0003FFFF80007FE0003FFFFC0007FF8000001FFFE0000007FFFFFF0001FFFFF
310
FF80003FFFFE0000FFFF80003FFFFE0000FFFF0003FFFFFFFFF0001FFFFE0003
310
F000F0001FFFF80003FE0003FFF000007FFF0001FF80007FE0003FFFF00007FE
310
0001FFFF80007FF8000001FFFE0000007FFFFFF0001FFFFFFFC0000FFFF80001
310
FFFFC0000FFFF80001FFFF0003FFFFFFFFF0001FFFFC0003F000F0000FFFF000
310
07FE0007FFF800007FFF0001FF80007FE0001FFFE00007FF0000FFFE00007FF8
310
000001FFFE0000007FFFFFF0001FFFFFFFC00003FFE00001FFFFC00003FFE000
310
01FFFF0003FFFFFFFFF8000FFFF80003F000F00003FFC00007FC0007FFF80000
310
7FFF8001FF80007FF00007FF80000FFF00007FF80000FFF8000001FFFE000000
310
7F80000000000001FFE000003E000003FFFFE000003E000003FFFF0003FFFFFF
310
FFF80003FFE00007F000F800000000000FFC0007FFF800007FFF8001FF80007F
310
F000000000000FFF000000000000FFF8000001FFFE0000007F80000000000001
310
FFF0000000000007FFFFF0000000000007FFFF0003FFFFFFFFFC00007E000007
310
F000F800000000000FFC0007FFF80000FFFF8000FF80007FF800000000001FFF
310
800000000001FFF8000001FFFE0000007F80000000000001FFF800000000000F
310
FFFFF800000000000FFFFF0003FFFFFFFFFC00000000000FF000FC0000000000
310
1FFC0007FFFC0000FFFF8000FF80007FF800000000003FFFC00000000001FFF8
310
000001FFFE0000007F80000000000001FFF800000000000FFFFFF80000000000
310
0FFFFF0003FFFFFFFFFE00000000001FF000FE00000000003FF8000FFFFC0000
310
FFFF8000FF80007FFC00000000003FFFC00000000003FFF8000001FFFE000000
310
7F80000000000001FFFC00000000001FFFFFFC00000000001FFFFF0003FFFFFF
310
FFFF00000000001FF000FF00000000003FF8000FFFFC0000FFFFC000FF80007F
310
FE00000000007FFFE00000000007FFF8000001FFFE0000007F80000000000001
310
FFFE00000000003FFFFFFE00000000003FFFFF0003FFFFFFFFFF80000000003F
310
F000FF80000000007FF8000FFFFC0001FFFFC0007F80007FFF0000000000FFFF
310
F0000000000FFFF800000000000000007F80000000000001FFFF8000000000FF
310
FFFFFF8000000000FFFFFF0003FFFFFFFFFFC0000000007FF000FFC000000000
310
FFF8000FFFFE0001FFFFC0007F80007FFF8000000001FFFFF8000000001FFFF8
310
00000000000000007F80000000000001FFFFC000000001FFFFFFFFC000000001
310
FFFFFF0003FFFFFFFFFFE000000000FFF000FFE000000003FFF0001FFFFE0001
310
FFFFC0007F80007FFFC000000007FFFFFE000000003FFFF80000000000000000
310
7F80000000000001FFFFE000000003FFFFFFFFE000000003FFFFFF0003FFFFFF
310
FFFFF000000003FFF000FFF80000000FFFF0001FFFFE0001FFFFE0007F80007F
310
FFF00000000FFFFFFF00000000FFFFF800000000000000007F80000000000001
310
FFFFF80000000FFFFFFFFFF80000000FFFFFFF0003FFFFFFFFFFFC0000000FFF
310
F000FFFE0000003FFFF0001FFFFE0003FFFFE0003F80007FFFFC0000003FFFFF
310
FFC0000003FFFFF800000000000000007F80000000000001FFFFFE0000003FFF
310
FFFFFFFE0000003FFFFFFF0003FFFFFFFFFFFF0000003FFFF000FFFF800000FF
310
FFF0001FFFFF0003FFFFE0003F80007FFFFF000001FFFFFFFFF800001FFFFFF8
310
00000000000000007F80000000000001FFFFFFC00001FFFFFFFFFFFFC00001FF
310
FFFFFF0003FFFFFFFFFFFFC00000FFFFF000FFFFF8000FFFFFFFFFFFFFFFFFFF
310
FFFFFFFFFFFFFFFFFFFFF0001FFFFFFFFFFF0000FFFFFFF80000000000000000
310
7FFFFFFFFFFFFFFFFFFFFFFC001FFFFFFFFFFFFFFC001FFFFFFFFFFFFFFFFFFF
310
FFFFFFFC001FFFFFF000FFFFFFFFFFFFFFFFFFFFFFFFFFFFFFFFFFFFFFFFFFFF
310
FFFFFFFFFFFFFFFFFFFFFFFFFFFFFFFFFFFFFFFFFFFFFFFFFFFFFFFFFFFFFFFF
310
FFFFFFFFFFFFFFFFFFFFFFFFFFFFFFFFFFFFFFFFFFFFFFFFFFFFFFFFFFFFFFFF
310
F000FFFFFFFFFFFFFFFFFFFFFFFFFFFFFFFFFFFFFFFFFFFFFFFFFFFFFFFFFFFF
310
FFFFFFFFFFFFFFFFFFFFFFFFFFFFFFFFFFFFFFFFFFFFFFFFFFFFFFFFFFFFFFFF
310
FFFFFFFFFFFFFFFFFFFFFFFFFFFFFFFFFFFFFFFFFFFFFFFFF000FFFFFFFFFFFF
310
FFFFFFFFFFFFFFFFFFFFFFFFFFFFFFFFFFFFFFFFFFFFFFFFFFFFFFFFFFFFFFFF
310
FFFFFFFFFFFFFFFFFFFFFFFFFFFFFFFFFFFFFFFFFFFFFFFFFFFFFFFFFFFFFFFF
310
FFFFFFFFFFFFFFFFFFFFFFFFFFFFFFFFF000FFFFFFFFFFFFFFFFFFFFFFFFFFFF
310
FFFFFFFFFFFFFFFFFFFFFFFFFFFFFFFFFFFFFFFFFFFFFFFFFFFFFFFFFFFFFFFF
310
FFFFFFFFFFFFFFFFFFFFFFFFFFFFFFFFFFFFFFFFFFFFFFFFFFFFFFFFFFFFFFFF
310
FFFFFFFFFFFFFFFFF000FFFFFFFFFFFFFFFFFFFFFFFFFFFFFFFFFFFFFFFFFFFF
310
FFFFFFFFFFFFFFFFFFFFFFFFFFFFFFFFFFFFFFFFFFFFFFFFFFFFFFFFFFFFFFFF
310
FFFFFFFFFFFFFFFFFFFFFFFFFFFFFFFFFFFFFFFFFFFFFFFFFFFFFFFFFFFFFFFF
310
F000FFFFFFFFFFFFFFFFFFFFFFFFFFFFFFFFFFFFFFFFFFFFFFFFFFFFFFFFFFFF
310
FFFFFFFFFFFFFFFFFFFFFFFFFFFFFFFFFFFFFFFFFFFFFFFFFFFFFFFFFFFFFFFF
310
FFFFFFFFFFFFFFFFFFFFFFFFFFFFFFFFFFFFFFFFFFFFFFFFF000FFFFFFFFFFFF
310
FFFFFFFFFFFFFFFFFFFFFFFFFFFFFFFFFFFFFFFFFFFFFFFFFFFFFFFFFFFFFFFF
310
FFFFFFFFFFFFFFFFFFFFFFFFFFFFFFFFFFFFFFFFFFFFFFFFFFFFFFFFFFFFFFFF
310
FFFFFFFFFFFFFFFFFFFFFFFFFFFFFFFFF000FFFFFFFFFFFFFFFFFFFFFFFFFFFF
310
FFFFFFFFFFFFFFFFFFFFFFFFFFFFFFFFFFFFFFFFFFFFFFFFFFFFFFFFFFFFFFFF
310
FFFFFFFFFFFFFFFFFFFFFFFFFFFFFFFFFFFFFFFFFFFFFFFFFFFFFFFFFFFFFFFF
310
FFFFFFFFFFFFFFFFF000FFFFFFFFFFFFFFFFFFFFFFFFFFFFFFFFFFFFFFFFFFFF
310
FFFFFFFFFFFFFFFFFFFFFFFFFFFFFFFFFFFFFFFFFFFFFFFFFFFFFFFFFFFFFFFF
310
FFFFFFFFFFFFFFFFFFFFFFFFFFFFFFFFFFFFFFFFFFFFFFFFFFFFFFFFFFFFFFFF
310
F000FFFFFFFFFFFFFFFFFFFFFFFFFFFFFFFFFFFFFFFFFFFFFFFFFFFFFFFFFFFF
310
FFFFFFFFFFFFFFFFFFFFFFFFFFFFFFFFFFFFFFFFFFFFFFFFFFFFFFFFFFFFFFFF
310
FFFFFFFFFFFFFFFFFFFFFFFFFFFFFFFFFFFFFFFFFFFFFFFFF000FFFFFFFFFFFF
310
FFFFFFFFFFFFFFFFFFFFFFFFFFFFFFFFFFFFFFFFFFFFFFFFFFFFFFFFFFFFFFFF
310
FFFFFFFFFFFFFFFFFFFFFFFFFFFFFFFFFFFFFFFFFFFFFFFFFFFFFFFFFFFFFFFF
310
FFFFFFFFFFFFFFFFFFFFFFFFFFFFFFFFF000FFFFFFFFFFFFFFFFFFFFFFFFFFFF
310
FFFFFFFFFFFFFFFFFFFFFFFFFFFFFFFFFFFFFFFFFFFFFFFFFFFFFFFFFFFFFFFF
310
FFFFFFFFFFFFFFFFFFFFFFFFFFFFFFFFFFFFFFFFFFFFFFFFFFFFFFFFFFFFFFFF
310
FFFFFFFFFFFFFFFFF000FFFFFFFFFFFFFFFFFFFFFFFFFFFFFFFFFFFFFFFFFFFF
310
FFFFFFFFFFFFFFFFFFFFFFFFFFFFFFFFFFFFFFFFFFFFFFFFFFFFFFFFFFFFFFFF
310
FFFFFFFFFFFFFFFFFFFFFFFFFFFFFFFFFFFFFFFFFFFFFFFFFFFFFFFFFFFFFFFF
310
F000FFFFFFFFFFFFFFFFFFFFFFFFFFFFFFFFFFFFFFFFFFFFFFFFFFFFFFFFFFFF
310
FFFFFFFFFFFFFFFFFFFFFFFFFFFFFFFFFFFFFFFFFFFFFFFFFFFFFFFFFFFFFFFF
310
FFFFFFFFFFFFFFFFFFFFFFFFFFFFFFFFFFFFFFFFFFFFFFFFF000FFFFFFFFFFFF
310
FFFFFFFFFFFFFFFFFFFFFFFFFFFFFFFFFFFFFFFFFFFFFFFFFFFFFFFFFFFFFFFF
310
FFFFFFFFFFFFFFFFFFFFFFFFFFFFFFFFFFFFFFFFFFFFFFFFFFFFFFFFFFFFFFFF
310
FFFFFFFFFFFFFFFFFFFFFFFFFFFFFFFFF000FFFFFFFFFFFFFFFFFFFFFFFFFFFF
310
FFFFFFFFFFFFFFFFFFFFFFFFFFFFFFFFFFFFFFFFFFFFFFFFFFFFFFFFFFFFFFFF
310
FFFFFFFFFFFFFFFFFFFFFFFFFFFFFFFFFFFFFFFFFFFFFFFFFFFFFFFFFFFFFFFF
310
FFFFFFFFFFFFFFFFF000FFFFFFFFFFFFFFFFFFFFFFFFFFFFFFFFFFFFFFFFFFFF
310
FFFFFFFFFFFFFFFFFFFFFFFFFFFFFFFFFFFFFFFFFFFFFFFFFFFFFFFFFFFFFFFF
310
FFFFFFFFFFFFFFFFFFFFFFFFFFFFFFFFFFFFFFFFFFFFFFFFFFFFFFFFFFFFFFFF
310
F000FFFFFFFFFFFFFFFFFFFFFFFFFFFFFFFFFFFFFFFFFFFFFFFFFFFFFFFFFFFF
310
FFFFFFFFFFFFFFFFFFFFFFFFFFFFFFFFFFFFFFFFFFFFFFFFFFFFFFFFFFFFFFFF
310
FFFFFFFFFFFFFFFFFFFFFFFFFFFFFFFFFFFFFFFFFFFFFFFFF000FFFFFFFFFFFF
310
FFFFFFFFFFFFFFFFFFFFFFFFFFFFFFFFFFFFFFFFFFFFFFFFFFFFFFFFFFFFFFFF
310
FFFFFFFFFFFFFFFFFFFFFFFFFFFFFFFFFFFFFFFFFFFFFFFFFFFFFFFFFFFFFFFF
310
FFFFFFFFFFFFFFFFFFFFFFFFFFFFFFFFF000FFFFFFFFFFFFFFFFFFFFFFFFFFFF
310
FFFFFFFFFFFFFFFFFFFFFFFFFFFFFFFFFFFFFFFFFFFFFFFFFFFFFFFFFFFFFFFF
310
FFFFFFFFFFFFFFFFFFFFFFFFFFFFFFFFFFFFFFFFFFFFFFFFFFFFFFFFFFFFFFFF
310
FFFFFFFFFFFFFFFFF000FFFFFFFFFFFFFFFFFFFFFFFFFFFFFFFFFFFFFFFFFFFF
310
FFFFFFFFFFFFFFFFFFFFFFFFFFFFFFFFFFFFFFFFFFFFFFFFFFFFFFFFFFFFFFFF
310
FFFFFFFFFFFFFFFFFFFFFFFFFFFFFFFFFFFFFFFFFFFFFFFFFFFFFFFFFFFFFFFF
310
F000FFFFFFFFFFFFFFFFFFFFFFFFFFFFFFFFFFFFFFFFFFFFFFFFFFFFFFFFFFFF
310
FFFFFFFFFFFFFFFFFFFFFFFFFFFFFFFFFFFFFFFFFFFFFFFFFFFFFFFFFFFFFFFF
310
FFFFFFFFFFFFFFFFFFFFFFFFFFFFFFFFFFFFFFFFFFFFFFFFF000FFFFFFFFFFFF
310
FFFFFFFFFFFFFFFFFFFFFFFFFFFFFFFFFFFFFFFFFFFFFFFFFFFFFFFFFFFFFFFF
310
FFFFFFFFFFFFFFFFFFFFFFFFFFFFFFFFFFFFFFFFFFFFFFFFFFFFFFFFFFFFFFFF
310
FFFFFFFFFFFFFFFFFFFFFFFFFFFFFFFFF0000000000000000000000000000000
310
0000000000000000000000000000000000000000000000000000000000000000
310
0000000000000000000000000000000000000000000000000000000000000000
310
0000000000000000000000000000000000000000000000000000000000000000
310
0000000000000000000000000000000000000000000000000000000000000000
310
0000000000000000000000000000000000000000000000000000000000000000
310
0000000000000000000000000000000000000000000000000000000000000000
310
0000000000000000000000000000000000000000000000000000000000000000
310
0000000000000000000000000000000000000000000000000000000000000000
310
0000000000000000000000000000000000000000000000000000000000000000
310
0000000000000000000000000000000000000000000000000000000000000000
310
0000000000000000000000000000000000000000000000000000000000000000
310
0000000000000000000000000000000000000000000000000000000000000000
310
0000000000000000000000000000000000000000000000000000000000000000
310
0000000000000000000000000000000000000000000000000000000000000000
310
0000000000000000000000000000000000000000000000000000000000000000
  1
OLE
  0
ENDSEC
  0
SECTION
  2
OBJECTS
  0
DICTIONARY
  5
C
330
0
100
AcDbDictionary
281
     1
  3
ACAD_GROUP
350
D
  3
ACAD_LAYOUT
350
1A
  3
ACAD_MLINESTYLE
350
17
  3
ACAD_PLOTSETTINGS
350
19
  3
ACAD_PLOTSTYLENAME
350
E
  3
ACAD_SCALELIST
350
47
  0
DICTIONARY
  5
D
102
{ACAD_REACTORS
330
C
102
}
330
C
100
AcDbDictionary
281
     1
  0
DICTIONARY
  5
1A
102
{ACAD_REACTORS
330
C
102
}
330
C
100
AcDbDictionary
281
     1
  3
Layout1
350
1E
  3
Layout2
350
26
  3
Model
350
22
  0
DICTIONARY
  5
17
102
{ACAD_REACTORS
330
C
102
}
330
C
100
AcDbDictionary
281
     1
  3
Standard
350
18
  0
DICTIONARY
  5
19
102
{ACAD_REACTORS
330
C
102
}
330
C
100
AcDbDictionary
281
     1
  0
ACDBDICTIONARYWDFLT
  5
E
102
{ACAD_REACTORS
330
C
102
}
330
C
100
AcDbDictionary
281
     1
  3
Normal
350
F
100
AcDbDictionaryWithDefault
340
F
  0
DICTIONARY
  5
47
102
{ACAD_REACTORS
330
C
102
}
330
C
100
AcDbDictionary
281
     1
  3
A0
350
48
  3
A1
350
49
  3
A2
350
4A
  3
A3
350
4B
  3
A4
350
4C
  3
A5
350
4D
  3
A6
350
4E
  3
A7
350
4F
  3
A8
350
50
  3
A9
350
51
  3
B0
350
52
  3
B1
350
53
  3
B2
350
54
  3
B3
350
55
  3
B4
350
56
  3
B5
350
57
  3
B6
350
58
  3
B7
350
59
  3
B8
350
5A
  3
B9
350
5B
  3
C0
350
5C
  3
C1
350
5D
  3
C2
350
5E
  3
C3
350
5F
  3
C4
350
60
  3
C5
350
61
  3
C6
350
62
  3
C7
350
63
  3
C8
350
64
  3
C9
350
65
  3
D0
350
66
  3
D1
350
67
  3
D2
350
68
  0
LAYOUT
  5
1E
102
{ACAD_REACTORS
330
1A
102
}
330
1A
100
AcDbPlotSettings
  1

  2
none_device
  4

  6

 40
0.0
 41
0.0
 42
0.0
 43
0.0
 44
0.0
 45
0.0
 46
0.0
 47
0.0
 48
0.0
 49
0.0
140
0.0
141
0.0
142
1.0
143
1.0
 70
   688
 72
     1
 73
     0
 74
     5
  7

 75
    16
147
1.0
148
0.0
149
0.0
100
AcDbLayout
  1
Layout1
 70
     1
 71
     1
 10
0.0
 20
0.0
 11
420.0
 21
297.0
 12
0.0
 22
0.0
 32
0.0
 14
1.0000000000E+20
 24
1.0000000000E+20
 34
1.0000000000E+20
 15
-1.0000000000E+20
 25
-1.0000000000E+20
 35
-1.0000000000E+20
146
0.0
 13
0.0
 23
0.0
 33
0.0
 16
1.0
 26
0.0
 36
0.0
 17
0.0
 27
1.0
 37
0.0
 76
     0
330
1B
  0
LAYOUT
  5
26
102
{ACAD_REACTORS
330
1A
102
}
330
1A
100
AcDbPlotSettings
  1

  2
none_device
  4

  6

 40
0.0
 41
0.0
 42
0.0
 43
0.0
 44
0.0
 45
0.0
 46
0.0
 47
0.0
 48
0.0
 49
0.0
140
0.0
141
0.0
142
1.0
143
1.0
 70
   688
 72
     1
 73
     0
 74
     5
  7

 75
    16
147
1.0
148
0.0
149
0.0
100
AcDbLayout
  1
Layout2
 70
     1
 71
     2
 10
0.0
 20
0.0
 11
0.0
 21
0.0
 12
0.0
 22
0.0
 32
0.0
 14
0.0
 24
0.0
 34
0.0
 15
0.0
 25
0.0
 35
0.0
146
0.0
 13
0.0
 23
0.0
 33
0.0
 16
1.0
 26
0.0
 36
0.0
 17
0.0
 27
1.0
 37
0.0
 76
     0
330
23
  0
LAYOUT
  5
22
102
{ACAD_REACTORS
330
1A
102
}
330
1A
100
AcDbPlotSettings
  1

  2
none_device
  4
Letter_(8.50_x_11.00_Inches)
  6

 40
6.35
 41
6.35
 42
6.35000508
 43
6.35000508
 44
215.9
 45
279.4
 46
0.0
 47
0.0
 48
0.0
 49
0.0
140
0.0
141
0.0
142
1.0
143
1.0
 70
  1712
 72
     1
 73
     0
 74
     0
  7

 75
     0
147
1.0
148
0.0
149
0.0
100
AcDbLayout
  1
Model
 70
     1
 71
     0
 10
0.0
 20
0.0
 11
297.0
 21
210.0
 12
0.0
 22
0.0
 32
0.0
 14
0.0
 24
0.0
 34
0.0
 15
297.0
 25
210.0
 35
0.0
146
0.0
 13
0.0
 23
0.0
 33
0.0
 16
1.0
 26
0.0
 36
0.0
 17
0.0
 27
1.0
 37
0.0
 76
     0
330
1F
331
29
  0
MLINESTYLE
  5
18
102
{ACAD_REACTORS
330
17
102
}
330
17
100
AcDbMlineStyle
  2
Standard
 70
     0
  3

 62
   256
 51
90.0
 52
90.0
 71
     2
 49
0.5
 62
   256
  6
BYLAYER
 49
-0.5
 62
   256
  6
BYLAYER
  0
ACDBPLACEHOLDER
  5
F
102
{ACAD_REACTORS
330
E
102
}
330
E
  0
SCALE
  5
48
102
{ACAD_REACTORS
330
47
102
}
330
47
100
AcDbScale
 70
     0
300
1:1
140
1.0
141
1.0
290
     1
  0
SCALE
  5
49
102
{ACAD_REACTORS
330
47
102
}
330
47
100
AcDbScale
 70
     0
300
1:2
140
1.0
141
2.0
290
     0
  0
SCALE
  5
4A
102
{ACAD_REACTORS
330
47
102
}
330
47
100
AcDbScale
 70
     0
300
1:4
140
1.0
141
4.0
290
     0
  0
SCALE
  5
4B
102
{ACAD_REACTORS
330
47
102
}
330
47
100
AcDbScale
 70
     0
300
1:5
140
1.0
141
5.0
290
     0
  0
SCALE
  5
4C
102
{ACAD_REACTORS
330
47
102
}
330
47
100
AcDbScale
 70
     0
300
1:8
140
1.0
141
8.0
290
     0
  0
SCALE
  5
4D
102
{ACAD_REACTORS
330
47
102
}
330
47
100
AcDbScale
 70
     0
300
1:10
140
1.0
141
10.0
290
     0
  0
SCALE
  5
4E
102
{ACAD_REACTORS
330
47
102
}
330
47
100
AcDbScale
 70
     0
300
1:16
140
1.0
141
16.0
290
     0
  0
SCALE
  5
4F
102
{ACAD_REACTORS
330
47
102
}
330
47
100
AcDbScale
 70
     0
300
1:20
140
1.0
141
20.0
290
     0
  0
SCALE
  5
50
102
{ACAD_REACTORS
330
47
102
}
330
47
100
AcDbScale
 70
     0
300
1:30
140
1.0
141
30.0
290
     0
  0
SCALE
  5
51
102
{ACAD_REACTORS
330
47
102
}
330
47
100
AcDbScale
 70
     0
300
1:40
140
1.0
141
40.0
290
     0
  0
SCALE
  5
52
102
{ACAD_REACTORS
330
47
102
}
330
47
100
AcDbScale
 70
     0
300
1:50
140
1.0
141
50.0
290
     0
  0
SCALE
  5
53
102
{ACAD_REACTORS
330
47
102
}
330
47
100
AcDbScale
 70
     0
300
1:100
140
1.0
141
100.0
290
     0
  0
SCALE
  5
54
102
{ACAD_REACTORS
330
47
102
}
330
47
100
AcDbScale
 70
     0
300
2:1
140
2.0
141
1.0
290
     0
  0
SCALE
  5
55
102
{ACAD_REACTORS
330
47
102
}
330
47
100
AcDbScale
 70
     0
300
4:1
140
4.0
141
1.0
290
     0
  0
SCALE
  5
56
102
{ACAD_REACTORS
330
47
102
}
330
47
100
AcDbScale
 70
     0
300
8:1
140
8.0
141
1.0
290
     0
  0
SCALE
  5
57
102
{ACAD_REACTORS
330
47
102
}
330
47
100
AcDbScale
 70
     0
300
10:1
140
10.0
141
1.0
290
     0
  0
SCALE
  5
58
102
{ACAD_REACTORS
330
47
102
}
330
47
100
AcDbScale
 70
     0
300
100:1
140
100.0
141
1.0
290
     0
  0
SCALE
  5
59
102
{ACAD_REACTORS
330
47
102
}
330
47
100
AcDbScale
 70
     0
300
1/128" = 1'-0"
140
0.0078125
141
12.0
290
     0
  0
SCALE
  5
5A
102
{ACAD_REACTORS
330
47
102
}
330
47
100
AcDbScale
 70
     0
300
1/64" = 1'-0"
140
0.015625
141
12.0
290
     0
  0
SCALE
  5
5B
102
{ACAD_REACTORS
330
47
102
}
330
47
100
AcDbScale
 70
     0
300
1/32" = 1'-0"
140
0.03125
141
12.0
290
     0
  0
SCALE
  5
5C
102
{ACAD_REACTORS
330
47
102
}
330
47
100
AcDbScale
 70
     0
300
1/16" = 1'-0"
140
0.0625
141
12.0
290
     0
  0
SCALE
  5
5D
102
{ACAD_REACTORS
330
47
102
}
330
47
100
AcDbScale
 70
     0
300
3/32" = 1'-0"
140
0.09375
141
12.0
290
     0
  0
SCALE
  5
5E
102
{ACAD_REACTORS
330
47
102
}
330
47
100
AcDbScale
 70
     0
300
1/8" = 1'-0"
140
0.125
141
12.0
290
     0
  0
SCALE
  5
5F
102
{ACAD_REACTORS
330
47
102
}
330
47
100
AcDbScale
 70
     0
300
3/16" = 1'-0"
140
0.1875
141
12.0
290
     0
  0
SCALE
  5
60
102
{ACAD_REACTORS
330
47
102
}
330
47
100
AcDbScale
 70
     0
300
1/4" = 1'-0"
140
0.25
141
12.0
290
     0
  0
SCALE
  5
61
102
{ACAD_REACTORS
330
47
102
}
330
47
100
AcDbScale
 70
     0
300
3/8" = 1'-0"
140
0.375
141
12.0
290
     0
  0
SCALE
  5
62
102
{ACAD_REACTORS
330
47
102
}
330
47
100
AcDbScale
 70
     0
300
1/2" = 1'-0"
140
0.5
141
12.0
290
     0
  0
SCALE
  5
63
102
{ACAD_REACTORS
330
47
102
}
330
47
100
AcDbScale
 70
     0
300
3/4" = 1'-0"
140
0.75
141
12.0
290
     0
  0
SCALE
  5
64
102
{ACAD_REACTORS
330
47
102
}
330
47
100
AcDbScale
 70
     0
300
1" = 1'-0"
140
1.0
141
12.0
290
     0
  0
SCALE
  5
65
102
{ACAD_REACTORS
330
47
102
}
330
47
100
AcDbScale
 70
     0
300
1-1/2" = 1'-0"
140
1.5
141
12.0
290
     0
  0
SCALE
  5
66
102
{ACAD_REACTORS
330
47
102
}
330
47
100
AcDbScale
 70
     0
300
3" = 1'-0"
140
3.0
141
12.0
290
     0
  0
SCALE
  5
67
102
{ACAD_REACTORS
330
47
102
}
330
47
100
AcDbScale
 70
     0
300
6" = 1'-0"
140
6.0
141
12.0
290
     0
  0
SCALE
  5
68
102
{ACAD_REACTORS
330
47
102
}
330
47
100
AcDbScale
 70
     0
300
1'-0" = 1'-0"
140
12.0
141
12.0
290
     0
  0
ENDSEC
  0
EOF
