  0
SECTION
  2
HEADER
  9
$ACADVER
  1
AC1015
  9
$ACADMAINTVER
 70
     6
  9
$DWGCODEPAGE
  3
ANSI_1252
  9
$INSBASE
 10
0.0
 20
0.0
 30
0.0
  9
$EXTMIN
 10
0.0
 20
0.0
 30
0.0
  9
$EXTMAX
 10
297.0
 20
210.0
 30
0.0
  9
$LIMMIN
 10
0.0
 20
0.0
  9
$LIMMAX
 10
297.0
 20
210.0
  9
$ORTHOMODE
 70
     0
  9
$REGENMODE
 70
     1
  9
$FILLMODE
 70
     1
  9
$QTEXTMODE
 70
     0
  9
$MIRRTEXT
 70
     1
  9
$LTSCALE
 40
1.0
  9
$ATTMODE
 70
     1
  9
$TEXTSIZE
 40
2.0
  9
$TRACEWID
 40
1.0
  9
$TEXTSTYLE
  7
Standard
  9
$CLAYER
  8
0
  9
$CELTYPE
  6
ByLayer
  9
$CECOLOR
 62
   256
  9
$CELTSCALE
 40
1.0
  9
$DISPSILH
 70
     0
  9
$DIMSCALE
 40
1.0
  9
$DIMASZ
 40
3.0
  9
$DIMEXO
 40
0.0
  9
$DIMDLI
 40
3.75
  9
$DIMRND
 40
0.0
  9
$DIMDLE
 40
0.0
  9
$DIMEXE
 40
1.0
  9
$DIMTP
 40
0.0
  9
$DIMTM
 40
0.0
  9
$DIMTXT
 40
2.0
  9
$DIMCEN
 40
2.5
  9
$DIMTSZ
 40
0.0
  9
$DIMTOL
 70
     0
  9
$DIMLIM
 70
     0
  9
$DIMTIH
 70
     1
  9
$DIMTOH
 70
     1
  9
$DIMSE1
 70
     0
  9
$DIMSE2
 70
     0
  9
$DIMTAD
 70
     1
  9
$DIMZIN
 70
     0
  9
$DIMBLK
  1

  9
$DIMASO
 70
     1
  9
$DIMSHO
 70
     1
  9
$DIMPOST
  1

  9
$DIMAPOST
  1

  9
$DIMALT
 70
     0
  9
$DIMALTD
 70
     3
  9
$DIMALTF
 40
0.0393700787
  9
$DIMLFAC
 40
1.0
  9
$DIMTOFL
 70
     1
  9
$DIMTVP
 40
0.0
  9
$DIMTIX
 70
     0
  9
$DIMSOXD
 70
     0
  9
$DIMSAH
 70
     0
  9
$DIMBLK1
  1

  9
$DIMBLK2
  1

  9
$DIMSTYLE
  2
ISO-25
  9
$DIMCLRD
 70
     0
  9
$DIMCLRE
 70
     0
  9
$DIMCLRT
 70
     0
  9
$DIMTFAC
 40
1.0
  9
$DIMGAP
 40
1.524
  9
$DIMJUST
 70
     0
  9
$DIMSD1
 70
     0
  9
$DIMSD2
 70
     0
  9
$DIMTOLJ
 70
     0
  9
$DIMTZIN
 70
     0
  9
$DIMALTZ
 70
     0
  9
$DIMALTTZ
 70
     0
  9
$DIMUPT
 70
     0
  9
$DIMDEC
 70
     2
  9
$DIMTDEC
 70
     3
  9
$DIMALTU
 70
     2
  9
$DIMALTTD
 70
     3
  9
$DIMTXSTY
  7
Standard
  9
$DIMAUNIT
 70
     0
  9
$DIMADEC
 70
     2
  9
$DIMALTRND
 40
0.0
  9
$DIMAZIN
 70
     0
  9
$DIMDSEP
 70
    44
  9
$DIMATFIT
 70
     3
  9
$DIMFRAC
 70
     0
  9
$DIMLDRBLK
  1

  9
$DIMLUNIT
 70
     2
  9
$DIMLWD
 70
    -2
  9
$DIMLWE
 70
    -2
  9
$DIMTMOVE
 70
     0
  9
$LUNITS
 70
     2
  9
$LUPREC
 70
     2
  9
$SKETCHINC
 40
1.0
  9
$FILLETRAD
 40
10.0
  9
$AUNITS
 70
     0
  9
$AUPREC
 70
     2
  9
$MENU
  1
.
  9
$ELEVATION
 40
0.0
  9
$PELEVATION
 40
0.0
  9
$THICKNESS
 40
0.0
  9
$LIMCHECK
 70
     0
  9
$CHAMFERA
 40
0.0
  9
$CHAMFERB
 40
0.0
  9
$CHAMFERC
 40
0.0
  9
$CHAMFERD
 40
0.0
  9
$SKPOLY
 70
     0
  9
$TDCREATE
 40
2458135.327317975
  9
$TDUCREATE
 40
2458135.285651308
  9
$TDUPDATE
 40
2458135.327319907
  9
$TDUUPDATE
 40
2458135.285653241
  9
$TDINDWG
 40
0.0000000116
  9
$TDUSRTIMER
 40
0.0000000116
  9
$USRTIMER
 70
     1
  9
$ANGBASE
 50
0.0
  9
$ANGDIR
 70
     0
  9
$PDMODE
 70
     0
  9
$PDSIZE
 40
-1.0
  9
$PLINEWID
 40
0.0
  9
$SPLFRAME
 70
     0
  9
$SPLINETYPE
 70
     6
  9
$SPLINESEGS
 70
     8
  9
$HANDSEED
  5
29F
  9
$SURFTAB1
 70
     6
  9
$SURFTAB2
 70
     6
  9
$SURFTYPE
 70
     6
  9
$SURFU
 70
     6
  9
$SURFV
 70
     6
  9
$UCSBASE
  2

  9
$UCSNAME
  2

  9
$UCSORG
 10
0.0
 20
0.0
 30
0.0
  9
$UCSXDIR
 10
1.0
 20
0.0
 30
0.0
  9
$UCSYDIR
 10
0.0
 20
1.0
 30
0.0
  9
$UCSORTHOREF
  2

  9
$UCSORTHOVIEW
 70
     0
  9
$UCSORGTOP
 10
0.0
 20
0.0
 30
0.0
  9
$UCSORGBOTTOM
 10
0.0
 20
0.0
 30
0.0
  9
$UCSORGLEFT
 10
0.0
 20
0.0
 30
0.0
  9
$UCSORGRIGHT
 10
0.0
 20
0.0
 30
0.0
  9
$UCSORGFRONT
 10
0.0
 20
0.0
 30
0.0
  9
$UCSORGBACK
 10
0.0
 20
0.0
 30
0.0
  9
$PUCSBASE
  2

  9
$PUCSNAME
  2

  9
$PUCSORG
 10
0.0
 20
0.0
 30
0.0
  9
$PUCSXDIR
 10
1.0
 20
0.0
 30
0.0
  9
$PUCSYDIR
 10
0.0
 20
1.0
 30
0.0
  9
$PUCSORTHOREF
  2

  9
$PUCSORTHOVIEW
 70
     0
  9
$PUCSORGTOP
 10
0.0
 20
0.0
 30
0.0
  9
$PUCSORGBOTTOM
 10
0.0
 20
0.0
 30
0.0
  9
$PUCSORGLEFT
 10
0.0
 20
0.0
 30
0.0
  9
$PUCSORGRIGHT
 10
0.0
 20
0.0
 30
0.0
  9
$PUCSORGFRONT
 10
0.0
 20
0.0
 30
0.0
  9
$PUCSORGBACK
 10
0.0
 20
0.0
 30
0.0
  9
$USERI1
 70
     0
  9
$USERI2
 70
     0
  9
$USERI3
 70
     0
  9
$USERI4
 70
     0
  9
$USERI5
 70
     0
  9
$USERR1
 40
0.0
  9
$USERR2
 40
0.0
  9
$USERR3
 40
0.0
  9
$USERR4
 40
0.0
  9
$USERR5
 40
0.0
  9
$WORLDVIEW
 70
     1
  9
$SHADEDGE
 70
     3
  9
$SHADEDIF
 70
    70
  9
$TILEMODE
 70
     1
  9
$MAXACTVP
 70
    64
  9
$PINSBASE
 10
0.0
 20
0.0
 30
0.0
  9
$PLIMCHECK
 70
     0
  9
$PEXTMIN
 10
1.0000000000E+20
 20
1.0000000000E+20
 30
1.0000000000E+20
  9
$PEXTMAX
 10
-1.0000000000E+20
 20
-1.0000000000E+20
 30
-1.0000000000E+20
  9
$PLIMMIN
 10
0.0
 20
0.0
  9
$PLIMMAX
 10
420.0
 20
297.0
  9
$UNITMODE
 70
     0
  9
$VISRETAIN
 70
     1
  9
$PLINEGEN
 70
     0
  9
$PSLTSCALE
 70
     1
  9
$TREEDEPTH
 70
  3020
  9
$CMLSTYLE
  2
Standard
  9
$CMLJUST
 70
     0
  9
$CMLSCALE
 40
20.0
  9
$PROXYGRAPHICS
 70
     1
  9
$MEASUREMENT
 70
     1
  9
$CELWEIGHT
370
    -1
  9
$ENDCAPS
280
     0
  9
$JOINSTYLE
280
     0
  9
$LWDISPLAY
290
     1
  9
$INSUNITS
 70
     4
  9
$HYPERLINKBASE
  1

  9
$STYLESHEET
  1

  9
$XEDIT
290
     1
  9
$CEPSNTYPE
380
     0
  9
$PSTYLEMODE
290
     1
  9
$FINGERPRINTGUID
  2
{E1CE774E-72DD-4954-9ED4-A4332B6BAECC}
  9
$VERSIONGUID
  2
{FAEB1C32-E019-11D5-929B-00C0DF256EC4}
  9
$EXTNAMES
290
     1
  9
$PSVPSCALE
 40
0.0
  9
$OLESTARTUP
290
     0
  0
ENDSEC
  0
SECTION
  2
CLASSES
  0
CLASS
  1
ACDBDICTIONARYWDFLT
  2
AcDbDictionaryWithDefault
  3
ObjectDBX Classes
 90
        0
280
     0
281
     0
  0
CLASS
  1
VISUALSTYLE
  2
AcDbVisualStyle
  3
ObjectDBX Classes
 90
     4095
280
     0
281
     0
  0
CLASS
  1
MATERIAL
  2
AcDbMaterial
  3
ObjectDBX Classes
 90
     1153
280
     0
281
     0
  0
CLASS
  1
SCALE
  2
AcDbScale
  3
ObjectDBX Classes
 90
     1153
280
     0
281
     0
  0
CLASS
  1
TABLESTYLE
  2
AcDbTableStyle
  3
ObjectDBX Classes
 90
     4095
280
     0
281
     0
  0
CLASS
  1
MLEADERSTYLE
  2
AcDbMLeaderStyle
  3
ACDB_MLEADERSTYLE_CLASS
 90
     4095
280
     0
281
     0
  0
CLASS
  1
SUN
  2
AcDbSun
  3
SCENEOE
 90
     1153
280
     0
281
     0
  0
CLASS
  1
ACDBPLACEHOLDER
  2
AcDbPlaceHolder
  3
ObjectDBX Classes
 90
        0
280
     0
281
     0
  0
CLASS
  1
LAYOUT
  2
AcDbLayout
  3
ObjectDBX Classes
 90
        0
280
     0
281
     0
  0
ENDSEC
  0
SECTION
  2
TABLES
  0
TABLE
  2
VPORT
  5
8
330
0
100
AcDbSymbolTable
 70
     1
  0
VPORT
  5
29
330
8
100
AcDbSymbolTableRecord
100
AcDbViewportTableRecord
  2
*Active
 70
     0
 10
0.0
 20
0.0
 11
1.0
 21
1.0
 12
148.5
 22
105.0
 13
0.0
 23
0.0
 14
10.0
 24
10.0
 15
10.0
 25
10.0
 16
0.0
 26
0.0
 36
1.0
 17
0.0
 27
0.0
 37
0.0
 40
210.0
 41
1.4142857143
 42
50.0
 43
0.0
 44
0.0
 50
0.0
 51
0.0
 71
     0
 72
  2000
 73
     1
 74
     3
 75
     0
 76
     0
 77
     0
 78
     0
281
     0
 65
     1
110
0.0
120
0.0
130
0.0
111
1.0
121
0.0
131
0.0
112
0.0
122
1.0
132
0.0
 79
     0
146
0.0
  0
ENDTAB
  0
TABLE
  2
LTYPE
  5
5
330
0
100
AcDbSymbolTable
 70
     6
  0
LTYPE
  5
14
330
5
100
AcDbSymbolTableRecord
100
AcDbLinetypeTableRecord
  2
ByBlock
 70
     0
  3

 72
    65
 73
     0
 40
0.0
  0
LTYPE
  5
15
330
5
100
AcDbSymbolTableRecord
100
AcDbLinetypeTableRecord
  2
ByLayer
 70
     0
  3

 72
    65
 73
     0
 40
0.0
  0
LTYPE
  5
16
330
5
100
AcDbSymbolTableRecord
100
AcDbLinetypeTableRecord
  2
Continuous
 70
     0
  3
Solid line
 72
    65
 73
     0
 40
0.0
  0
LTYPE
  5
6E
330
5
100
AcDbSymbolTableRecord
100
AcDbLinetypeTableRecord
  2
HIDDEN
 70
     0
  3
Hidden __ __ __ __ __ __ __ __ __ __ __ __ __ __
 72
    65
 73
     2
 40
1.905
 49
1.27
 74
     0
 49
-0.635
 74
     0
  0
LTYPE
  5
6F
330
5
100
AcDbSymbolTableRecord
100
AcDbLinetypeTableRecord
  2
PHANTOM
 70
     0
  3
Phantom ______  __  __  ______  __  __  ______
 72
    65
 73
     6
 40
12.7
 49
6.35
 74
     0
 49
-1.27
 74
     0
 49
1.27
 74
     0
 49
-1.27
 74
     0
 49
1.27
 74
     0
 49
-1.27
 74
     0
  0
LTYPE
  5
70
330
5
100
AcDbSymbolTableRecord
100
AcDbLinetypeTableRecord
  2
CENTER
 70
     0
  3
Center ____ _ ____ _ ____ _ ____ _ ____ _ ____
 72
    65
 73
     4
 40
10.16
 49
6.35
 74
     0
 49
-1.27
 74
     0
 49
1.27
 74
     0
 49
-1.27
 74
     0
  0
LTYPE
  5
71
330
5
100
AcDbSymbolTableRecord
100
AcDbLinetypeTableRecord
  2
CENTERX2
 70
     0
  3
Center (2x) ________  __  ________  __  _____
 72
    65
 73
     4
 40
20.32
 49
12.7
 74
     0
 49
-2.54
 74
     0
 49
2.54
 74
     0
 49
-2.54
 74
     0
  0
LTYPE
  5
72
330
5
100
AcDbSymbolTableRecord
100
AcDbLinetypeTableRecord
  2
DOT2
 70
     0
  3
Dot (.5x) ........................................
 72
    65
 73
     2
 40
0.635
 49
0.0
 74
     0
 49
-0.635
 74
     0
  0
ENDTAB
  0
TABLE
  2
LAYER
  5
2
330
0
100
AcDbSymbolTable
 70
     5
  0
LAYER
  5
10
330
2
100
AcDbSymbolTableRecord
100
AcDbLayerTableRecord
  2
0
 70
     0
 62
     7
  6
Continuous
370
    -3
390
F
  0
LAYER
  5
73
330
2
100
AcDbSymbolTableRecord
100
AcDbLayerTableRecord
  2
FORMAT
 70
     0
 62
     7
  6
Continuous
370
    -3
390
F
  0
LAYER
  5
74
330
2
100
AcDbSymbolTableRecord
100
AcDbLayerTableRecord
  2
VERMASSUNG
 70
     0
 62
     7
  6
Continuous
370
    -3
390
F
  0
LAYER
  5
75
330
2
100
AcDbSymbolTableRecord
100
AcDbLayerTableRecord
  2
KOPF_DÜNN
 70
     0
 62
     7
  6
Continuous
370
    -3
390
F
  0
LAYER
  5
76
330
2
100
AcDbSymbolTableRecord
100
AcDbLayerTableRecord
  2
KOPF_DICK
 70
     0
 62
     7
  6
Continuous
370
    25
390
F
  0
ENDTAB
  0
TABLE
  2
STYLE
  5
3
330
0
100
AcDbSymbolTable
 70
     2
  0
STYLE
  5
11
330
3
100
AcDbSymbolTableRecord
100
AcDbTextStyleTableRecord
  2
Standard
 70
     0
 40
0.0
 41
1.0
 50
0.0
 71
     0
 42
2.0
  3
txt
  4

  0
STYLE
  5
77
330
3
100
AcDbSymbolTableRecord
100
AcDbTextStyleTableRecord
  2
SLDTEXTSTYLE0
 70
     0
 40
0.0
 41
0.7
 50
0.0
 71
     0
 42
2.0
  3
TXT
  4

  0
ENDTAB
  0
TABLE
  2
VIEW
  5
6
330
0
100
AcDbSymbolTable
 70
     0
  0
ENDTAB
  0
TABLE
  2
UCS
  5
7
330
0
100
AcDbSymbolTable
 70
     0
  0
ENDTAB
  0
TABLE
  2
APPID
  5
9
330
0
100
AcDbSymbolTable
 70
     1
  0
APPID
  5
12
330
9
100
AcDbSymbolTableRecord
100
AcDbRegAppTableRecord
  2
ACAD
 70
     0
  0
ENDTAB
  0
TABLE
  2
DIMSTYLE
  5
A
330
0
100
AcDbSymbolTable
 70
     4
100
AcDbDimStyleTable
  0
DIMSTYLE
105
27
330
A
100
AcDbSymbolTableRecord
100
AcDbDimStyleTableRecord
  2
ISO-25
 70
     0
 41
2.5
 42
0.625
 43
3.75
 44
1.25
 73
     0
 74
     0
 77
     1
 78
     8
140
2.5
141
2.5
143
0.0393700787
147
0.625
171
     3
172
     1
178
     0
271
     2
272
     2
274
     3
278
    44
283
     0
284
     8
340
11
  0
DIMSTYLE
105
197
102
{ACAD_REACTORS
330
196
330
1A3
330
1AE
330
1B8
330
1C2
330
1CE
330
1D8
102
}
330
A
100
AcDbSymbolTableRecord
100
AcDbDimStyleTableRecord
  2
SLDDIMSTYLE0
 70
     0
 41
3.0
 44
0.0
 45
0.000000001
 73
     0
 74
     0
 77
     1
 78
    12
 79
     3
140
2.0
147
0.5
173
     1
178
     0
271
     2
272
     3
276
     2
284
    12
340
77
  0
DIMSTYLE
105
1E5
102
{ACAD_REACTORS
330
1E4
102
}
330
A
100
AcDbSymbolTableRecord
100
AcDbDimStyleTableRecord
  2
SLDDIMSTYLE1
 70
     0
 41
3.0
 44
0.0
 45
0.000000001
 73
     0
 74
     0
 77
     1
 78
    12
 79
     3
140
2.0
141
0.0
147
0.5
173
     1
178
     0
271
     2
272
     3
276
     2
279
     1
284
    12
340
77
  0
DIMSTYLE
105
1ED
102
{ACAD_REACTORS
330
1EC
102
}
330
A
100
AcDbSymbolTableRecord
100
AcDbDimStyleTableRecord
  2
SLDDIMSTYLE2
 70
     0
 41
3.0
 44
0.0
 45
0.000000001
 73
     0
 74
     0
 77
     1
 78
     8
 79
     2
140
2.0
141
0.0
147
0.5
173
     1
178
     0
271
     2
272
     3
276
     2
284
    12
340
77
  0
ENDTAB
  0
TABLE
  2
BLOCK_RECORD
  5
1
330
0
100
AcDbSymbolTable
 70
    13
  0
BLOCK_RECORD
  5
1F
330
1
100
AcDbSymbolTableRecord
100
AcDbBlockTableRecord
  2
*Model_Space
340
22
  0
BLOCK_RECORD
  5
1B
330
1
100
AcDbSymbolTableRecord
100
AcDbBlockTableRecord
  2
*Paper_Space
340
1E
  0
BLOCK_RECORD
  5
23
330
1
100
AcDbSymbolTableRecord
100
AcDbBlockTableRecord
  2
*Paper_Space0
340
26
  0
BLOCK_RECORD
  5
198
330
1
100
AcDbSymbolTableRecord
100
AcDbBlockTableRecord
  2
_D
340
0
  0
BLOCK_RECORD
  5
1A4
330
1
100
AcDbSymbolTableRecord
100
AcDbBlockTableRecord
  2
_D_1
340
0
  0
BLOCK_RECORD
  5
1AF
330
1
100
AcDbSymbolTableRecord
100
AcDbBlockTableRecord
  2
_D_2
340
0
  0
BLOCK_RECORD
  5
1B9
330
1
100
AcDbSymbolTableRecord
100
AcDbBlockTableRecord
  2
_D_3
340
0
  0
BLOCK_RECORD
  5
1C3
330
1
100
AcDbSymbolTableRecord
100
AcDbBlockTableRecord
  2
_D_4
340
0
  0
BLOCK_RECORD
  5
1CF
330
1
100
AcDbSymbolTableRecord
100
AcDbBlockTableRecord
  2
_D_5
340
0
  0
BLOCK_RECORD
  5
1D9
330
1
100
AcDbSymbolTableRecord
100
AcDbBlockTableRecord
  2
_D_6
340
0
  0
BLOCK_RECORD
  5
1E6
330
1
100
AcDbSymbolTableRecord
100
AcDbBlockTableRecord
  2
_D_7
340
0
  0
BLOCK_RECORD
  5
1EE
330
1
100
AcDbSymbolTableRecord
100
AcDbBlockTableRecord
  2
_D_8
340
0
  0
BLOCK_RECORD
  5
1F5
330
1
100
AcDbSymbolTableRecord
100
AcDbBlockTableRecord
  2
SW_CENTERMARKSYMBOL_0
340
0
102
{BLKREFS
331
200
102
}
  0
BLOCK_RECORD
  5
201
330
1
100
AcDbSymbolTableRecord
100
AcDbBlockTableRecord
  2
SW_CENTERMARKSYMBOL_1
340
0
102
{BLKREFS
331
20C
102
}
  0
BLOCK_RECORD
  5
227
330
1
100
AcDbSymbolTableRecord
100
AcDbBlockTableRecord
  2
SW_CENTERMARKSYMBOL_2
340
0
102
{BLKREFS
331
232
102
}
  0
ENDTAB
  0
ENDSEC
  0
SECTION
  2
BLOCKS
  0
BLOCK
  5
20
330
1F
100
AcDbEntity
  8
0
100
AcDbBlockBegin
  2
*Model_Space
 70
     0
 10
0.0
 20
0.0
 30
0.0
  3
*Model_Space
  1

  0
ENDBLK
  5
21
330
1F
100
AcDbEntity
  8
0
100
AcDbBlockEnd
  0
BLOCK
  5
1C
330
1B
100
AcDbEntity
 67
     1
  8
0
100
AcDbBlockBegin
  2
*Paper_Space
 70
     0
 10
0.0
 20
0.0
 30
0.0
  3
*Paper_Space
  1

  0
ENDBLK
  5
1D
330
1B
100
AcDbEntity
 67
     1
  8
0
100
AcDbBlockEnd
  0
BLOCK
  5
24
330
23
100
AcDbEntity
  8
0
100
AcDbBlockBegin
  2
*Paper_Space0
 70
     0
 10
0.0
 20
0.0
 30
0.0
  3
*Paper_Space0
  1

  0
ENDBLK
  5
25
330
23
100
AcDbEntity
  8
0
100
AcDbBlockEnd
  0
BLOCK
  5
199
330
198
100
AcDbEntity
  8
0
100
AcDbBlockBegin
  2
_D
 70
     0
 10
0.0
 20
0.0
 30
0.0
  3
_D
  1

  0
SOLID
  5
19B
330
198
100
AcDbEntity
  8
VERMASSUNG
100
AcDbTrace
 10
252.3271631392
 20
135.9354315298
 30
0.0
 11
251.8771631392
 21
132.9354315298
 31
0.0
 12
252.7771631392
 22
132.9354315298
 32
0.0
 13
252.7771631392
 23
132.9354315298
 33
0.0
  0
SOLID
  5
19C
330
198
100
AcDbEntity
  8
VERMASSUNG
100
AcDbTrace
 10
252.3271631392
 20
110.9354315298
 30
0.0
 11
252.7771631392
 21
113.9354315298
 31
0.0
 12
251.8771631392
 22
113.9354315298
 32
0.0
 13
251.8771631392
 23
113.9354315298
 33
0.0
  0
LINE
  5
19D
330
198
100
AcDbEntity
  8
VERMASSUNG
100
AcDbLine
 10
238.9699044923
 20
135.9354315298
 30
0.0
 11
253.3271631392
 21
135.9354315298
 31
0.0
  0
LINE
  5
19E
330
198
100
AcDbEntity
  8
VERMASSUNG
100
AcDbLine
 10
238.9699044923
 20
110.9354315298
 30
0.0
 11
253.3271631392
 21
110.9354315298
 31
0.0
  0
LINE
  5
19F
330
198
100
AcDbEntity
  8
VERMASSUNG
100
AcDbLine
 10
252.3271631392
 20
135.9354315298
 30
0.0
 11
252.3271631392
 21
110.9354315298
 31
0.0
  0
MTEXT
  5
1A0
330
198
100
AcDbEntity
  8
VERMASSUNG
100
AcDbMText
 10
249.549027883
 20
117.4304321381
 30
0.0
 40
2.0
 41
0.0
 71
     1
 72
     1
  1
K25
  7
SLDTEXTSTYLE0
 11
-7.044195017643634E-15
 21
1.0
 31
0.0
 73
     1
 44
1.0
  0
MTEXT
  5
1A1
330
198
100
AcDbEntity
  8
VERMASSUNG
100
AcDbMText
 10
249.7490278343
 20
123.0304319384
 30
0.0
 40
2.0
 41
0.0
 71
     1
 72
     1
  1
%%c
  7
SLDTEXTSTYLE0
 11
-7.044195017643634E-15
 21
1.0
 31
0.0
 73
     1
 44
1.0
  0
MTEXT
  5
1A2
330
198
100
AcDbEntity
  8
VERMASSUNG
100
AcDbMText
 10
249.549027883
 20
126.6404319527
 30
0.0
 40
2.0
 41
0.0
 71
     1
 72
     1
  1
25
  7
SLDTEXTSTYLE0
 11
-7.044195017643634E-15
 21
1.0
 31
0.0
 73
     1
 44
1.0
  0
ENDBLK
  5
19A
330
198
100
AcDbEntity
  8
0
100
AcDbBlockEnd
  0
BLOCK
  5
1A5
330
1A4
100
AcDbEntity
  8
0
100
AcDbBlockBegin
  2
_D_1
 70
     0
 10
0.0
 20
0.0
 30
0.0
  3
_D_1
  1

  0
SOLID
  5
1A7
330
1A4
100
AcDbEntity
  8
VERMASSUNG
100
AcDbTrace
 10
262.1699044923
 20
100.9354315298
 30
0.0
 11
262.6199044923
 21
103.9354315298
 31
0.0
 12
261.7199044923
 22
103.9354315298
 32
0.0
 13
261.7199044923
 23
103.9354315298
 33
0.0
  0
SOLID
  5
1A8
330
1A4
100
AcDbEntity
  8
VERMASSUNG
100
AcDbTrace
 10
262.1699044923
 20
145.9354315298
 30
0.0
 11
261.7199044923
 21
142.9354315298
 31
0.0
 12
262.6199044923
 22
142.9354315298
 32
0.0
 13
262.6199044923
 23
142.9354315298
 33
0.0
  0
LINE
  5
1A9
330
1A4
100
AcDbEntity
  8
VERMASSUNG
100
AcDbLine
 10
238.6699044923
 20
100.9354315298
 30
0.0
 11
263.1699044923
 21
100.9354315298
 31
0.0
  0
LINE
  5
1AA
330
1A4
100
AcDbEntity
  8
VERMASSUNG
100
AcDbLine
 10
238.6699044923
 20
145.9354315298
 30
0.0
 11
263.1699044923
 21
145.9354315298
 31
0.0
  0
LINE
  5
1AB
330
1A4
100
AcDbEntity
  8
VERMASSUNG
100
AcDbLine
 10
262.1699044923
 20
100.9354315298
 30
0.0
 11
262.1699044923
 21
145.9354315298
 31
0.0
  0
MTEXT
  5
1AC
330
1A4
100
AcDbEntity
  8
VERMASSUNG
100
AcDbMText
 10
259.5917691874
 20
120.1304315096
 30
0.0
 40
2.0
 41
0.0
 71
     1
 72
     1
  1
%%c
  7
SLDTEXTSTYLE0
 11
6.123233995736766E-17
 21
1.0
 31
0.0
 73
     1
 44
1.0
  0
MTEXT
  5
1AD
330
1A4
100
AcDbEntity
  8
VERMASSUNG
100
AcDbMText
 10
259.3917692361
 20
123.7404315239
 30
0.0
 40
2.0
 41
0.0
 71
     1
 72
     1
  1
45
  7
SLDTEXTSTYLE0
 11
6.123233995736766E-17
 21
1.0
 31
0.0
 73
     1
 44
1.0
  0
ENDBLK
  5
1A6
330
1A4
100
AcDbEntity
  8
0
100
AcDbBlockEnd
  0
BLOCK
  5
1B0
330
1AF
100
AcDbEntity
  8
0
100
AcDbBlockBegin
  2
_D_2
 70
     0
 10
0.0
 20
0.0
 30
0.0
  3
_D_2
  1

  0
SOLID
  5
1B2
330
1AF
100
AcDbEntity
  8
VERMASSUNG
100
AcDbTrace
 10
189.1699044923
 20
161.0545657016
 30
0.0
 11
192.1699044923
 21
160.6045657016
 31
0.0
 12
192.1699044923
 22
161.5045657016
 32
0.0
 13
192.1699044923
 23
161.5045657016
 33
0.0
  0
SOLID
  5
1B3
330
1AF
100
AcDbEntity
  8
VERMASSUNG
100
AcDbTrace
 10
240.1699044923
 20
161.0545657016
 30
0.0
 11
237.1699044923
 21
161.5045657016
 31
0.0
 12
237.1699044923
 22
160.6045657016
 32
0.0
 13
237.1699044923
 23
160.6045657016
 33
0.0
  0
LINE
  5
1B4
330
1AF
100
AcDbEntity
  8
VERMASSUNG
100
AcDbLine
 10
189.1699044923
 20
147.8354315298
 30
0.0
 11
189.1699044923
 21
162.0545657016
 31
0.0
  0
LINE
  5
1B5
330
1AF
100
AcDbEntity
  8
VERMASSUNG
100
AcDbLine
 10
240.1699044923
 20
144.4354315298
 30
0.0
 11
240.1699044923
 21
162.0545657016
 31
0.0
  0
LINE
  5
1B6
330
1AF
100
AcDbEntity
  8
VERMASSUNG
100
AcDbLine
 10
189.1699044923
 20
161.0545657016
 30
0.0
 11
240.1699044923
 21
161.0545657016
 31
0.0
  0
MTEXT
  5
1B7
330
1AF
100
AcDbEntity
  8
VERMASSUNG
100
AcDbMText
 10
213.4699044353
 20
163.6327012975
 30
0.0
 40
2.0
 41
0.0
 71
     1
 72
     1
  1
51
  7
SLDTEXTSTYLE0
 73
     1
 44
1.0
  0
ENDBLK
  5
1B1
330
1AF
100
AcDbEntity
  8
0
100
AcDbBlockEnd
  0
BLOCK
  5
1BA
330
1B9
100
AcDbEntity
  8
0
100
AcDbBlockBegin
  2
_D_3
 70
     0
 10
0.0
 20
0.0
 30
0.0
  3
_D_3
  1

  0
SOLID
  5
1BC
330
1B9
100
AcDbEntity
  8
VERMASSUNG
100
AcDbTrace
 10
169.1699044923
 20
170.4354315298
 30
0.0
 11
172.1699044923
 21
169.9854315298
 31
0.0
 12
172.1699044923
 22
170.8854315298
 32
0.0
 13
172.1699044923
 23
170.8854315298
 33
0.0
  0
SOLID
  5
1BD
330
1B9
100
AcDbEntity
  8
VERMASSUNG
100
AcDbTrace
 10
240.1699044923
 20
170.4354315298
 30
0.0
 11
237.1699044923
 21
170.8854315298
 31
0.0
 12
237.1699044923
 22
169.9854315298
 32
0.0
 13
237.1699044923
 23
169.9854315298
 33
0.0
  0
LINE
  5
1BE
330
1B9
100
AcDbEntity
  8
VERMASSUNG
100
AcDbLine
 10
169.1699044923
 20
148.1354315298
 30
0.0
 11
169.1699044923
 21
171.4354315298
 31
0.0
  0
LINE
  5
1BF
330
1B9
100
AcDbEntity
  8
VERMASSUNG
100
AcDbLine
 10
240.1699044923
 20
144.4354315298
 30
0.0
 11
240.1699044923
 21
171.4354315298
 31
0.0
  0
LINE
  5
1C0
330
1B9
100
AcDbEntity
  8
VERMASSUNG
100
AcDbLine
 10
169.1699044923
 20
170.4354315298
 30
0.0
 11
240.1699044923
 21
170.4354315298
 31
0.0
  0
MTEXT
  5
1C1
330
1B9
100
AcDbEntity
  8
VERMASSUNG
100
AcDbMText
 10
203.4699044353
 20
173.0135671257
 30
0.0
 40
2.0
 41
0.0
 71
     1
 72
     1
  1
71
  7
SLDTEXTSTYLE0
 73
     1
 44
1.0
  0
ENDBLK
  5
1BB
330
1B9
100
AcDbEntity
  8
0
100
AcDbBlockEnd
  0
BLOCK
  5
1C4
330
1C3
100
AcDbEntity
  8
0
100
AcDbBlockBegin
  2
_D_4
 70
     0
 10
0.0
 20
0.0
 30
0.0
  3
_D_4
  1

  0
ARC
  5
1C6
330
1C3
100
AcDbEntity
  8
VERMASSUNG
100
AcDbCircle
 10
191.7699044465
 20
181.0828510444
 30
0.0
 40
4.24852922888762
100
AcDbArc
 50
153.4349488229
 51
206.5650511771
  0
ARC
  5
1C7
330
1C3
100
AcDbEntity
  8
VERMASSUNG
100
AcDbCircle
 10
187.5699045963
 20
181.0828510444
 30
0.0
 40
4.24852922888762
100
AcDbArc
 50
333.4349488229
 51
26.5650511771
  0
SOLID
  5
1C8
330
1C3
100
AcDbEntity
  8
VERMASSUNG
100
AcDbTrace
 10
139.1699044923
 20
179.1828507795
 30
0.0
 11
142.1699044923
 21
178.7328507795
 31
0.0
 12
142.1699044923
 22
179.6328507795
 32
0.0
 13
142.1699044923
 23
179.6328507795
 33
0.0
  0
SOLID
  5
1C9
330
1C3
100
AcDbEntity
  8
VERMASSUNG
100
AcDbTrace
 10
240.1699044923
 20
179.1828507795
 30
0.0
 11
237.1699044923
 21
179.6328507795
 31
0.0
 12
237.1699044923
 22
178.7328507795
 32
0.0
 13
237.1699044923
 23
178.7328507795
 33
0.0
  0
LINE
  5
1CA
330
1C3
100
AcDbEntity
  8
VERMASSUNG
100
AcDbLine
 10
139.1699044923
 20
139.428757368
 30
0.0
 11
139.1699044923
 21
180.1828507795
 31
0.0
  0
LINE
  5
1CB
330
1C3
100
AcDbEntity
  8
VERMASSUNG
100
AcDbLine
 10
240.1699044923
 20
144.4354315298
 30
0.0
 11
240.1699044923
 21
180.1828507795
 31
0.0
  0
LINE
  5
1CC
330
1C3
100
AcDbEntity
  8
VERMASSUNG
100
AcDbLine
 10
139.1699044923
 20
179.1828507795
 30
0.0
 11
240.1699044923
 21
179.1828507795
 31
0.0
  0
MTEXT
  5
1CD
330
1C3
100
AcDbEntity
  8
VERMASSUNG
100
AcDbMText
 10
187.9699043825
 20
181.7609866083
 30
0.0
 40
2.0
 41
0.0
 71
     1
 72
     1
  1
101
  7
SLDTEXTSTYLE0
 73
     1
 44
1.0
  0
ENDBLK
  5
1C5
330
1C3
100
AcDbEntity
  8
0
100
AcDbBlockEnd
  0
BLOCK
  5
1D0
330
1CF
100
AcDbEntity
  8
0
100
AcDbBlockBegin
  2
_D_5
 70
     0
 10
0.0
 20
0.0
 30
0.0
  3
_D_5
  1

  0
SOLID
  5
1D2
330
1CF
100
AcDbEntity
  8
VERMASSUNG
100
AcDbTrace
 10
181.1699044923
 20
88.4354315298
 30
0.0
 11
184.1699044923
 21
87.9854315298
 31
0.0
 12
184.1699044923
 22
88.8854315298
 32
0.0
 13
184.1699044923
 23
88.8854315298
 33
0.0
  0
SOLID
  5
1D3
330
1CF
100
AcDbEntity
  8
VERMASSUNG
100
AcDbTrace
 10
240.1699044923
 20
88.4354315298
 30
0.0
 11
237.1699044923
 21
88.8854315298
 31
0.0
 12
237.1699044923
 22
87.9854315298
 32
0.0
 13
237.1699044923
 23
87.9854315298
 33
0.0
  0
LINE
  5
1D4
330
1CF
100
AcDbEntity
  8
VERMASSUNG
100
AcDbLine
 10
181.1699044923
 20
116.1854315298
 30
0.0
 11
181.1699044923
 21
87.4354315298
 31
0.0
  0
LINE
  5
1D5
330
1CF
100
AcDbEntity
  8
VERMASSUNG
100
AcDbLine
 10
240.1699044923
 20
102.4354315298
 30
0.0
 11
240.1699044923
 21
87.4354315298
 31
0.0
  0
LINE
  5
1D6
330
1CF
100
AcDbEntity
  8
VERMASSUNG
100
AcDbLine
 10
181.1699044923
 20
88.4354315298
 30
0.0
 11
240.1699044923
 21
88.4354315298
 31
0.0
  0
MTEXT
  5
1D7
330
1CF
100
AcDbEntity
  8
VERMASSUNG
100
AcDbMText
 10
209.2699045422
 20
91.0135671257
 30
0.0
 40
2.0
 41
0.0
 71
     1
 72
     1
  1
59
  7
SLDTEXTSTYLE0
 73
     1
 44
1.0
  0
ENDBLK
  5
1D1
330
1CF
100
AcDbEntity
  8
0
100
AcDbBlockEnd
  0
BLOCK
  5
1DA
330
1D9
100
AcDbEntity
  8
0
100
AcDbBlockBegin
  2
_D_6
 70
     0
 10
0.0
 20
0.0
 30
0.0
  3
_D_6
  1

  0
SOLID
  5
1DC
330
1D9
100
AcDbEntity
  8
VERMASSUNG
100
AcDbTrace
 10
129.1699044923
 20
148.4354315298
 30
0.0
 11
128.7199044923
 21
145.4354315298
 31
0.0
 12
129.6199044923
 22
145.4354315298
 32
0.0
 13
129.6199044923
 23
145.4354315298
 33
0.0
  0
SOLID
  5
1DD
330
1D9
100
AcDbEntity
  8
VERMASSUNG
100
AcDbTrace
 10
129.1699044923
 20
98.4354315298
 30
0.0
 11
129.6199044923
 21
101.4354315298
 31
0.0
 12
128.7199044923
 22
101.4354315298
 32
0.0
 13
128.7199044923
 23
101.4354315298
 33
0.0
  0
LINE
  5
1DE
330
1D9
100
AcDbEntity
  8
VERMASSUNG
100
AcDbLine
 10
169.4699044923
 20
148.4354315298
 30
0.0
 11
128.1699044923
 21
148.4354315298
 31
0.0
  0
LINE
  5
1DF
330
1D9
100
AcDbEntity
  8
VERMASSUNG
100
AcDbLine
 10
169.4699044923
 20
98.4354315298
 30
0.0
 11
128.1699044923
 21
98.4354315298
 31
0.0
  0
LINE
  5
1E0
330
1D9
100
AcDbEntity
  8
VERMASSUNG
100
AcDbLine
 10
129.1699044923
 20
148.4354315298
 30
0.0
 11
129.1699044923
 21
98.4354315298
 31
0.0
  0
MTEXT
  5
1E1
330
1D9
100
AcDbEntity
  8
VERMASSUNG
100
AcDbMText
 10
126.3917692361
 20
117.93043222
 30
0.0
 40
2.0
 41
0.0
 71
     1
 72
     1
  1
PSC
  7
SLDTEXTSTYLE0
 11
-7.044195017643634E-15
 21
1.0
 31
0.0
 73
     1
 44
1.0
  0
MTEXT
  5
1E2
330
1D9
100
AcDbEntity
  8
VERMASSUNG
100
AcDbMText
 10
126.5917691874
 20
122.5304318564
 30
0.0
 40
2.0
 41
0.0
 71
     1
 72
     1
  1
%%c
  7
SLDTEXTSTYLE0
 11
-7.044195017643634E-15
 21
1.0
 31
0.0
 73
     1
 44
1.0
  0
MTEXT
  5
1E3
330
1D9
100
AcDbEntity
  8
VERMASSUNG
100
AcDbMText
 10
126.3917692361
 20
126.1404318707
 30
0.0
 40
2.0
 41
0.0
 71
     1
 72
     1
  1
50
  7
SLDTEXTSTYLE0
 11
-7.044195017643634E-15
 21
1.0
 31
0.0
 73
     1
 44
1.0
  0
ENDBLK
  5
1DB
330
1D9
100
AcDbEntity
  8
0
100
AcDbBlockEnd
  0
BLOCK
  5
1E7
330
1E6
100
AcDbEntity
  8
0
100
AcDbBlockBegin
  2
_D_7
 70
     0
 10
0.0
 20
0.0
 30
0.0
  3
_D_7
  1

  0
SOLID
  5
1E9
330
1E6
100
AcDbEntity
  8
VERMASSUNG
100
AcDbTrace
 10
189.2423410796
 20
146.5617657494
 30
0.0
 11
192.1965409505
 21
147.2511155319
 31
0.0
 12
191.8642730494
 22
148.087535308
 32
0.0
 13
191.8642730494
 23
148.087535308
 33
0.0
  0
LINE
  5
1EA
330
1E6
100
AcDbEntity
  8
VERMASSUNG
100
AcDbLine
 10
189.2423410796
 20
146.5617657494
 30
0.0
 11
198.7695855617
 21
150.3464652726
 31
0.0
  0
MTEXT
  5
1EB
330
1E6
100
AcDbEntity
  8
VERMASSUNG
100
AcDbMText
 10
195.3945596328
 20
151.7663184928
 30
0.0
 40
2.0
 41
0.0
 71
     1
 72
     1
  1
R1
  7
SLDTEXTSTYLE0
 11
0.9275634127019147
 21
0.3736657803663288
 31
0.0
 73
     1
 44
1.0
  0
ENDBLK
  5
1E8
330
1E6
100
AcDbEntity
  8
0
100
AcDbBlockEnd
  0
BLOCK
  5
1EF
330
1EE
100
AcDbEntity
  8
0
100
AcDbBlockBegin
  2
_D_8
 70
     0
 10
0.0
 20
0.0
 30
0.0
  3
_D_8
  1

  0
SOLID
  5
1F1
330
1EE
100
AcDbEntity
  8
VERMASSUNG
100
AcDbTrace
 10
188.994168561
 20
148.2596955985
 30
0.0
 11
191.4336869561
 21
150.0628178905
 31
0.0
 12
190.797290853
 22
150.6992139936
 32
0.0
 13
190.797290853
 23
150.6992139936
 33
0.0
  0
LINE
  5
1F2
330
1EE
100
AcDbEntity
  8
VERMASSUNG
100
AcDbLine
 10
188.994168561
 20
148.2596955985
 30
0.0
 11
195.8469394227
 21
155.1124664602
 31
0.0
  0
LINE
  5
1F3
330
1EE
100
AcDbEntity
  8
VERMASSUNG
100
AcDbLine
 10
188.994168561
 20
148.2596955985
 30
0.0
 11
188.5699044923
 21
147.8354315298
 31
0.0
  0
MTEXT
  5
1F4
330
1EE
100
AcDbEntity
  8
VERMASSUNG
100
AcDbMText
 10
190.5246820404
 20
153.3636561887
 30
0.0
 40
2.0
 41
0.0
 71
     1
 72
     1
  1
R0.6
  7
SLDTEXTSTYLE0
 11
0.7071067811865465
 21
0.7071067811865487
 31
0.0
 73
     1
 44
1.0
  0
ENDBLK
  5
1F0
330
1EE
100
AcDbEntity
  8
0
100
AcDbBlockEnd
  0
BLOCK
  5
1F6
330
1F5
100
AcDbEntity
  8
0
100
AcDbBlockBegin
  2
SW_CENTERMARKSYMBOL_0
 70
     0
 10
0.0
 20
0.0
 30
0.0
  3
SW_CENTERMARKSYMBOL_0
  1

  0
LINE
  5
1F8
330
1F5
100
AcDbEntity
  8
VERMASSUNG
 62
     0
100
AcDbLine
 10
0.0
 20
0.0
 30
0.0
 11
0.0
 21
2.5
 31
0.0
  0
LINE
  5
1F9
330
1F5
100
AcDbEntity
  8
VERMASSUNG
 62
     0
100
AcDbLine
 10
0.0
 20
0.0
 30
0.0
 11
-2.5
 21
0.0
 31
0.0
  0
LINE
  5
1FA
330
1F5
100
AcDbEntity
  8
VERMASSUNG
 62
     0
100
AcDbLine
 10
0.0
 20
0.0
 30
0.0
 11
0.0
 21
-2.5
 31
0.0
  0
LINE
  5
1FB
330
1F5
100
AcDbEntity
  8
VERMASSUNG
 62
     0
100
AcDbLine
 10
0.0
 20
0.0
 30
0.0
 11
2.5
 21
0.0
 31
0.0
  0
LINE
  5
1FC
330
1F5
100
AcDbEntity
  8
VERMASSUNG
 62
     0
100
AcDbLine
 10
0.0
 20
5.0
 30
0.0
 11
0.0
 21
8.5
 31
0.0
  0
LINE
  5
1FD
330
1F5
100
AcDbEntity
  8
VERMASSUNG
 62
     0
100
AcDbLine
 10
-5.0
 20
0.0
 30
0.0
 11
-8.5
 21
0.0
 31
0.0
  0
LINE
  5
1FE
330
1F5
100
AcDbEntity
  8
VERMASSUNG
 62
     0
100
AcDbLine
 10
0.0
 20
-5.0
 30
0.0
 11
0.0
 21
-8.5
 31
0.0
  0
LINE
  5
1FF
330
1F5
100
AcDbEntity
  8
VERMASSUNG
 62
     0
100
AcDbLine
 10
5.0
 20
0.0
 30
0.0
 11
8.5
 21
0.0
 31
0.0
  0
ENDBLK
  5
1F7
330
1F5
100
AcDbEntity
  8
0
100
AcDbBlockEnd
  0
BLOCK
  5
202
330
201
100
AcDbEntity
  8
0
100
AcDbBlockBegin
  2
SW_CENTERMARKSYMBOL_1
 70
     0
 10
0.0
 20
0.0
 30
0.0
  3
SW_CENTERMARKSYMBOL_1
  1

  0
LINE
  5
204
330
201
100
AcDbEntity
  8
VERMASSUNG
 62
     0
100
AcDbLine
 10
0.0
 20
0.0
 30
0.0
 11
0.0
 21
2.5
 31
0.0
  0
LINE
  5
205
330
201
100
AcDbEntity
  8
VERMASSUNG
 62
     0
100
AcDbLine
 10
0.0
 20
0.0
 30
0.0
 11
-2.5
 21
0.0
 31
0.0
  0
LINE
  5
206
330
201
100
AcDbEntity
  8
VERMASSUNG
 62
     0
100
AcDbLine
 10
0.0
 20
0.0
 30
0.0
 11
0.0
 21
-2.5
 31
0.0
  0
LINE
  5
207
330
201
100
AcDbEntity
  8
VERMASSUNG
 62
     0
100
AcDbLine
 10
0.0
 20
0.0
 30
0.0
 11
2.5
 21
0.0
 31
0.0
  0
LINE
  5
208
330
201
100
AcDbEntity
  8
VERMASSUNG
 62
     0
100
AcDbLine
 10
0.0
 20
5.0
 30
0.0
 11
0.0
 21
8.5
 31
0.0
  0
LINE
  5
209
330
201
100
AcDbEntity
  8
VERMASSUNG
 62
     0
100
AcDbLine
 10
-5.0
 20
0.0
 30
0.0
 11
-8.5
 21
0.0
 31
0.0
  0
LINE
  5
20A
330
201
100
AcDbEntity
  8
VERMASSUNG
 62
     0
100
AcDbLine
 10
0.0
 20
-5.0
 30
0.0
 11
0.0
 21
-8.5
 31
0.0
  0
LINE
  5
20B
330
201
100
AcDbEntity
  8
VERMASSUNG
 62
     0
100
AcDbLine
 10
5.0
 20
0.0
 30
0.0
 11
8.5
 21
0.0
 31
0.0
  0
ENDBLK
  5
203
330
201
100
AcDbEntity
  8
0
100
AcDbBlockEnd
  0
BLOCK
  5
228
330
227
100
AcDbEntity
  8
0
100
AcDbBlockBegin
  2
SW_CENTERMARKSYMBOL_2
 70
     0
 10
0.0
 20
0.0
 30
0.0
  3
SW_CENTERMARKSYMBOL_2
  1

  0
LINE
  5
22A
330
227
100
AcDbEntity
  8
VERMASSUNG
 62
     0
100
AcDbLine
 10
0.0
 20
0.0
 30
0.0
 11
0.0
 21
2.5
 31
0.0
  0
LINE
  5
22B
330
227
100
AcDbEntity
  8
VERMASSUNG
 62
     0
100
AcDbLine
 10
0.0
 20
0.0
 30
0.0
 11
-2.5
 21
0.0
 31
0.0
  0
LINE
  5
22C
330
227
100
AcDbEntity
  8
VERMASSUNG
 62
     0
100
AcDbLine
 10
0.0
 20
0.0
 30
0.0
 11
0.0
 21
-2.5
 31
0.0
  0
LINE
  5
22D
330
227
100
AcDbEntity
  8
VERMASSUNG
 62
     0
100
AcDbLine
 10
0.0
 20
0.0
 30
0.0
 11
2.5
 21
0.0
 31
0.0
  0
LINE
  5
22E
330
227
100
AcDbEntity
  8
VERMASSUNG
 62
     0
100
AcDbLine
 10
0.0
 20
5.0
 30
0.0
 11
0.0
 21
27.5
 31
0.0
  0
LINE
  5
22F
330
227
100
AcDbEntity
  8
VERMASSUNG
 62
     0
100
AcDbLine
 10
-5.0
 20
0.0
 30
0.0
 11
-27.5
 21
0.0
 31
0.0
  0
LINE
  5
230
330
227
100
AcDbEntity
  8
VERMASSUNG
 62
     0
100
AcDbLine
 10
0.0
 20
-5.0
 30
0.0
 11
0.0
 21
-27.5
 31
0.0
  0
LINE
  5
231
330
227
100
AcDbEntity
  8
VERMASSUNG
 62
     0
100
AcDbLine
 10
5.0
 20
0.0
 30
0.0
 11
27.5
 21
0.0
 31
0.0
  0
ENDBLK
  5
229
330
227
100
AcDbEntity
  8
0
100
AcDbBlockEnd
  0
ENDSEC
  0
SECTION
  2
ENTITIES
  0
MTEXT
  5
78
330
1F
100
AcDbEntity
  8
KOPF_DÜNN
100
AcDbMText
 10
13.8892156294
 20
23.8442973028
 30
0.0
 40
3.0
 41
0.0
 71
     1
 72
     1
  1
PS5.K25.K01.071
  7
SLDTEXTSTYLE0
 73
     1
 44
1.0
  0
MTEXT
  5
79
330
1F
100
AcDbEntity
  8
VERMASSUNG
100
AcDbMText
 10
13.9329988022
 20
28.8834360957
 30
0.0
 40
3.0
 41
0.0
 71
     1
 72
     1
  1
Werkzeughalter / Toolholder
  7
SLDTEXTSTYLE0
 73
     1
 44
1.0
  0
MTEXT
  5
7A
330
1F
100
AcDbEntity
  8
VERMASSUNG
100
AcDbMText
 10
98.8601118557
 20
13.8365368761
 30
0.0
 40
2.0
 41
0.0
 71
     1
 72
     1
  1
Datum: 29.11.2017
  7
SLDTEXTSTYLE0
 73
     1
 44
1.0
  0
MTEXT
  5
7B
330
1F
100
AcDbEntity
  8
VERMASSUNG
100
AcDbMText
 10
13.933048693
 20
18.0482802738
 30
0.0
 40
2.0
 41
0.0
 71
     1
 72
     1
  1
für Wendeplattenbohrer Schaft-Ø 25 / for indexable insert drills shaft-Ø 25
  7
SLDTEXTSTYLE0
 73
     1
 44
1.0
  0
MTEXT
  5
7C
330
1F
100
AcDbEntity
  8
VERMASSUNG
100
AcDbMText
 10
13.9808475933
 20
13.9090974274
 30
0.0
 40
2.0
 41
0.0
 71
     1
 72
     1
  1
Gewicht: 834g
  7
SLDTEXTSTYLE0
 73
     1
 44
1.0
  0
ARC
  5
7D
330
1F
100
AcDbEntity
  8
0
  6
Continuous
 62
     7
370
    25
100
AcDbCircle
 10
169.4699044923
 20
98.7354315298
 30
0.0
 40
0.3000000000000114
100
AcDbArc
 50
180.0
 51
270.0
  0
ARC
  5
7E
330
1F
100
AcDbEntity
  8
0
  6
Continuous
 62
     7
370
    25
100
AcDbCircle
 10
169.4699044923
 20
148.1354315298
 30
0.0
 40
0.3000000000000114
100
AcDbArc
 50
90.0
 51
180.0
  0
LINE
  5
7F
330
1F
100
AcDbEntity
  8
0
  6
Continuous
 62
     7
370
    25
100
AcDbLine
 10
169.4699044923
 20
98.4354315298
 30
0.0
 11
188.5699044923
 21
98.4354315298
 31
0.0
  0
LINE
  5
80
330
1F
100
AcDbEntity
  8
0
  6
Continuous
 62
     7
370
    25
100
AcDbLine
 10
188.5699044923
 20
148.4354315298
 30
0.0
 11
169.4699044923
 21
148.4354315298
 31
0.0
  0
ARC
  5
81
330
1F
100
AcDbEntity
  8
0
  6
Continuous
 62
     7
370
    25
100
AcDbCircle
 10
188.5699044923
 20
99.0354315298
 30
0.0
 40
0.6000000000000085
100
AcDbArc
 50
270.0
 51
0.0
  0
ARC
  5
82
330
1F
100
AcDbEntity
  8
0
  6
Continuous
 62
     7
370
    25
100
AcDbCircle
 10
188.5699044923
 20
147.8354315298
 30
0.0
 40
0.6000000000000227
100
AcDbArc
 50
0.0
 51
90.0
  0
ARC
  5
83
330
1F
100
AcDbEntity
  8
0
  6
Continuous
 62
     7
370
    25
100
AcDbCircle
 10
190.1699044923
 20
99.9354315298
 30
0.0
 40
1.0
100
AcDbArc
 50
90.0
 51
180.0
  0
ARC
  5
84
330
1F
100
AcDbEntity
  8
0
  6
Continuous
 62
     7
370
    25
100
AcDbCircle
 10
190.1699044923
 20
146.9354315298
 30
0.0
 40
1.0
100
AcDbArc
 50
180.0
 51
270.0
  0
LINE
  5
85
330
1F
100
AcDbEntity
  8
0
  6
Continuous
 62
     7
370
    25
100
AcDbLine
 10
238.6699044923
 20
100.9354315298
 30
0.0
 11
240.1699044923
 21
102.4354315298
 31
0.0
  0
LINE
  5
86
330
1F
100
AcDbEntity
  8
0
  6
Continuous
 62
     7
370
    25
100
AcDbLine
 10
240.1699044923
 20
144.4354315298
 30
0.0
 11
238.6699044923
 21
145.9354315298
 31
0.0
  0
LINE
  5
87
330
1F
100
AcDbEntity
  8
0
  6
Continuous
 62
     7
370
    25
100
AcDbLine
 10
190.1699044923
 20
100.9354315298
 30
0.0
 11
238.6699044923
 21
100.9354315298
 31
0.0
  0
LINE
  5
88
330
1F
100
AcDbEntity
  8
0
  6
Continuous
 62
     7
370
    25
100
AcDbLine
 10
238.6699044923
 20
145.9354315298
 30
0.0
 11
190.1699044923
 21
145.9354315298
 31
0.0
  0
LWPOLYLINE
  5
89
330
1F
100
AcDbEntity
  8
0
  6
Continuous
 62
     7
370
    25
100
AcDbPolyline
 90
        3
 70
   128
 43
0.0
 10
168.9699044923
 20
105.5956112509
 10
169.0953594358
 20
105.527309136
 10
169.1699044923
 20
105.4745713778
  0
LWPOLYLINE
  5
8A
330
1F
100
AcDbEntity
  8
0
  6
Continuous
 62
     7
370
    25
100
AcDbPolyline
 90
        3
 70
   128
 43
0.0
 10
169.1699044923
 20
141.3962916817
 10
169.0953594358
 20
141.3435539236
 10
168.9699044923
 20
141.2752518087
  0
LINE
  5
8B
330
1F
100
AcDbEntity
  8
0
  6
Continuous
 62
     7
370
    25
100
AcDbLine
 10
169.1699044923
 20
98.7354315298
 30
0.0
 11
169.1699044923
 21
148.1354315235
 31
0.0
  0
SPLINE
  5
8C
330
1F
100
AcDbEntity
  8
0
  6
Continuous
 62
     7
370
    25
100
AcDbSpline
210
0.0
220
0.0
230
1.0
 70
     8
 71
     3
 72
    12
 73
     8
 74
     0
 42
0.000000001
 43
0.00000001
 40
0.0
 40
0.0
 40
0.0
 40
0.0
 40
0.25
 40
0.25
 40
0.5
 40
0.5
 40
1.0
 40
1.0
 40
1.0
 40
1.0
 10
177.6976613058719
 20
131.0042414989696
 30
0.0
 10
177.6339960693414
 20
131.0042414989696
 30
0.0
 10
177.574389837118
 20
131.0303136474493
 30
0.0
 10
177.4757293121872
 20
131.1058523982704
 30
0.0
 10
177.4367623221719
 20
131.1531033353666
 30
0.0
 10
177.3373754902474
 20
131.3049271533331
 30
0.0
 10
177.295299242824
 20
131.4177304030981
 30
0.0
 10
177.2646486039797
 20
131.5318845278332
 30
0.0
  0
LINE
  5
8D
330
1F
100
AcDbEntity
  8
0
  6
Continuous
 62
     7
370
    25
100
AcDbLine
 10
180.6421476787
 20
131.004241499
 30
0.0
 11
177.6976613059
 21
131.004241499
 31
0.0
  0
SPLINE
  5
8E
330
1F
100
AcDbEntity
  8
0
  6
Continuous
 62
     7
370
    25
100
AcDbSpline
210
0.0
220
0.0
230
1.0
 70
     8
 71
     3
 72
    12
 73
     8
 74
     0
 42
0.000000001
 43
0.00000001
 40
0.0
 40
0.0
 40
0.0
 40
0.0
 40
0.5000000000000018
 40
0.5000000000000018
 40
0.7500000000000009
 40
0.7500000000000009
 40
1.0
 40
1.0
 40
1.0
 40
1.0
 10
181.0751603806312
 20
131.5318845278332
 30
0.0
 10
181.0444609972639
 20
131.4175488607694
 30
0.0
 10
181.0031109291574
 20
131.306195507928
 30
0.0
 10
180.9033550009379
 20
131.1534587356793
 30
0.0
 10
180.8636580832052
 20
131.1055988498271
 30
0.0
 10
180.7663999315576
 20
131.0309957364777
 30
0.0
 10
180.7056237735669
 20
131.0042414989696
 30
0.0
 10
180.642147678739
 20
131.0042414989696
 30
0.0
  0
ELLIPSE
  5
8F
330
1F
100
AcDbEntity
  8
0
  6
Continuous
 62
     7
370
    25
100
AcDbEllipse
 10
168.1136468373
 20
123.4354315298
 30
0.0
 11
11.70927234972711
 21
24.67718644093742
 31
0.0
210
0.0
220
0.0
230
1.0
 40
0.3419987131
 41
5.20306880937045
 42
6.114256032590495
  0
SPLINE
  5
90
330
1F
100
AcDbEntity
  8
0
  6
Continuous
 62
     7
370
    25
100
AcDbSpline
210
0.0
220
0.0
230
1.0
 70
     8
 71
     3
 72
    12
 73
     8
 74
     0
 42
0.000000001
 43
0.00000001
 40
0.0
 40
0.0
 40
0.0
 40
0.0
 40
0.2500000000000002
 40
0.2500000000000002
 40
0.5000000000000004
 40
0.5000000000000004
 40
1.0
 40
1.0
 40
1.0
 40
1.0
 10
180.642147678739
 20
147.2621626452911
 30
0.0
 10
180.7058129152695
 20
147.2621626452911
 30
0.0
 10
180.7654191474928
 20
147.2538978696252
 30
0.0
 10
180.8640796724237
 20
147.2296790880421
 30
0.0
 10
180.903046662439
 20
147.2144217687329
 30
0.0
 10
181.0024334943634
 20
147.164788414471
 30
0.0
 10
181.0445097417869
 20
147.1271487062969
 30
0.0
 10
181.0751603806312
 20
147.0880730070207
 30
0.0
  0
LINE
  5
91
330
1F
100
AcDbEntity
  8
0
  6
Continuous
 62
     7
370
    25
100
AcDbLine
 10
177.6976613059
 20
147.2621626453
 30
0.0
 11
180.6421476787
 21
147.2621626453
 31
0.0
  0
SPLINE
  5
92
330
1F
100
AcDbEntity
  8
0
  6
Continuous
 62
     7
370
    25
100
AcDbSpline
210
0.0
220
0.0
230
1.0
 70
     8
 71
     3
 72
    12
 73
     8
 74
     0
 42
0.000000001
 43
0.00000001
 40
0.0
 40
0.0
 40
0.0
 40
0.0
 40
0.4999999999999982
 40
0.4999999999999982
 40
0.7499999999999991
 40
0.7499999999999991
 40
1.0
 40
1.0
 40
1.0
 40
1.0
 10
177.2646486039797
 20
147.0880730070208
 30
0.0
 10
177.295347987347
 20
147.1272108494167
 30
0.0
 10
177.3366980554535
 20
147.1643706321421
 30
0.0
 10
177.4364539836729
 20
147.2143071377699
 30
0.0
 10
177.4761509014056
 20
147.2297600079137
 30
0.0
 10
177.5734090530532
 20
147.2536795515127
 30
0.0
 10
177.6341852110439
 20
147.2621626452911
 30
0.0
 10
177.6976613058719
 20
147.2621626452911
 30
0.0
  0
ELLIPSE
  5
93
330
1F
100
AcDbEntity
  8
0
  6
Continuous
 62
     7
370
    25
100
AcDbEllipse
 10
190.2261621473
 20
123.4354315298
 30
0.0
 11
-11.70927234972698
 21
24.67718644093743
 31
0.0
210
0.0
220
0.0
230
1.0
 40
0.3419987131
 41
0.1689292745891272
 42
1.080116497809149
  0
SPLINE
  5
94
330
1F
100
AcDbEntity
  8
0
  6
Continuous
 62
     7
370
    25
100
AcDbSpline
210
0.0
220
0.0
230
1.0
 70
     8
 71
     3
 72
    12
 73
     8
 74
     0
 42
0.000000001
 43
0.00000001
 40
0.0
 40
0.0
 40
0.0
 40
0.0
 40
0.2499999999999984
 40
0.2499999999999984
 40
0.4999999999999968
 40
0.4999999999999968
 40
1.0
 40
1.0
 40
1.0
 40
1.0
 10
177.6976613058719
 20
99.60870041428717
 30
0.0
 10
177.6340247516582
 20
99.60870041428717
 30
0.0
 10
177.574444624792
 20
99.61695718521894
 30
0.0
 10
177.4758078834256
 20
99.64115924722675
 30
0.0
 10
177.4368492590453
 20
99.65640606626089
 30
0.0
 10
177.3374703195374
 20
99.706010938321
 30
0.0
 10
177.295512414372
 20
99.74344258643983
 30
0.0
 10
177.2646486039795
 20
99.78279005255749
 30
0.0
  0
LINE
  5
95
330
1F
100
AcDbEntity
  8
0
  6
Continuous
 62
     7
370
    25
100
AcDbLine
 10
180.6421476787
 20
99.6087004143
 30
0.0
 11
177.6976613059
 21
99.6087004143
 31
0.0
  0
SPLINE
  5
96
330
1F
100
AcDbEntity
  8
0
  6
Continuous
 62
     7
370
    25
100
AcDbSpline
210
0.0
220
0.0
230
1.0
 70
     8
 71
     3
 72
    12
 73
     8
 74
     0
 42
0.000000001
 43
0.00000001
 40
0.0
 40
0.0
 40
0.0
 40
0.0
 40
0.5000000000000037
 40
0.5000000000000037
 40
0.7500000000000018
 40
0.7500000000000018
 40
1.0
 40
1.0
 40
1.0
 40
1.0
 10
181.0751603806312
 20
99.78279005255752
 30
0.0
 10
181.044308670067
 20
99.74345801219503
 30
0.0
 10
181.0024158066064
 20
99.70604624666674
 30
0.0
 10
180.9028949288132
 20
99.65637532205085
 30
0.0
 10
180.8632807640888
 20
99.64098623944302
 30
0.0
 10
180.7661777303094
 20
99.61715302377576
 30
0.0
 10
180.705679057659
 20
99.60870041428699
 30
0.0
 10
180.6421476787391
 20
99.60870041428696
 30
0.0
  0
ELLIPSE
  5
97
330
1F
100
AcDbEntity
  8
0
  6
Continuous
 62
     7
370
    25
100
AcDbEllipse
 10
168.1136468373
 20
123.4354315298
 30
0.0
 11
-11.70927234972717
 21
24.67718644093742
 31
0.0
210
0.0
220
0.0
230
1.0
 40
0.3419987131
 41
3.310521928178955
 42
4.221709151398943
  0
SPLINE
  5
98
330
1F
100
AcDbEntity
  8
0
  6
Continuous
 62
     7
370
    25
100
AcDbSpline
210
0.0
220
0.0
230
1.0
 70
     8
 71
     3
 72
    12
 73
     8
 74
     0
 42
0.000000001
 43
0.00000001
 40
0.0
 40
0.0
 40
0.0
 40
0.0
 40
0.2500000000000007
 40
0.2500000000000007
 40
0.5000000000000013
 40
0.5000000000000013
 40
1.0
 40
1.0
 40
1.0
 40
1.0
 10
180.642147678739
 20
115.8666215606084
 30
0.0
 10
180.7057842329527
 20
115.8666215606084
 30
0.0
 10
180.7653643598189
 20
115.8405746575505
 30
0.0
 10
180.8640011011853
 20
115.7650874986505
 30
0.0
 10
180.9029597255656
 20
115.7178684601198
 30
0.0
 10
181.0023386650735
 20
115.5661288090263
 30
0.0
 10
181.0442965702389
 20
115.4539265848421
 30
0.0
 10
181.0751603806314
 20
115.3389785317449
 30
0.0
  0
LINE
  5
99
330
1F
100
AcDbEntity
  8
0
  6
Continuous
 62
     7
370
    25
100
AcDbLine
 10
177.6976613059
 20
115.8666215606
 30
0.0
 11
180.6421476787
 21
115.8666215606
 31
0.0
  0
SPLINE
  5
9A
330
1F
100
AcDbEntity
  8
0
  6
Continuous
 62
     7
370
    25
100
AcDbSpline
210
0.0
220
0.0
230
1.0
 70
     8
 71
     3
 72
    12
 73
     8
 74
     0
 42
0.000000001
 43
0.00000001
 40
0.0
 40
0.0
 40
0.0
 40
0.0
 40
0.4999999999999996
 40
0.4999999999999996
 40
0.7499999999999998
 40
0.7499999999999998
 40
1.0
 40
1.0
 40
1.0
 40
1.0
 10
177.2646486039797
 20
115.3389785317448
 30
0.0
 10
177.2955003145439
 20
115.4538815206816
 30
0.0
 10
177.3373931780045
 20
115.5660204167305
 30
0.0
 10
177.4369140557977
 20
115.7179626983314
 30
0.0
 10
177.476528220522
 20
115.7656273078563
 30
0.0
 10
177.5736312543015
 20
115.8399636384717
 30
0.0
 10
177.6341299269519
 20
115.8666215606088
 30
0.0
 10
177.6976613058718
 20
115.8666215606088
 30
0.0
  0
ELLIPSE
  5
9B
330
1F
100
AcDbEntity
  8
0
  6
Continuous
 62
     7
370
    25
100
AcDbEllipse
 10
190.2261621473
 20
123.4354315298
 30
0.0
 11
11.70927234972709
 21
24.67718644093745
 31
0.0
210
0.0
220
0.0
230
1.0
 40
0.3419987131
 41
2.061476155780655
 42
2.972663379000676
  0
LINE
  5
9C
330
1F
100
AcDbEntity
  8
0
  6
Continuous
 62
     7
370
    25
100
AcDbLine
 10
189.1699044923
 20
99.0354315298
 30
0.0
 11
189.1699044923
 21
147.8354315265
 31
0.0
  0
LINE
  5
9D
330
1F
100
AcDbEntity
  8
0
  6
Continuous
 62
     7
370
    25
100
AcDbLine
 10
240.1699044923
 20
102.4354315298
 30
0.0
 11
240.1699044923
 21
144.4354315298
 31
0.0
  0
LINE
  5
9E
330
1F
100
AcDbEntity
  8
0
  6
Continuous
 62
     7
370
    25
100
AcDbLine
 10
238.6699044923
 20
100.9354315298
 30
0.0
 11
238.6699044923
 21
145.9354315298
 31
0.0
  0
SPLINE
  5
9F
330
1F
100
AcDbEntity
  8
0
  6
Continuous
 62
     7
370
    25
100
AcDbSpline
210
0.0
220
0.0
230
1.0
 70
    11
 71
     3
 72
    84
 73
    80
 74
     0
 42
0.000000001
 43
0.00000001
 40
0.0
 40
0.0
 40
0.0
 40
0.0
 40
0.0312499999999996
 40
0.0312499999999996
 40
0.0624999999999993
 40
0.0624999999999993
 40
0.0937499999999989
 40
0.0937499999999989
 40
0.1093749999999988
 40
0.1093749999999988
 40
0.1249999999999987
 40
0.1249999999999987
 40
0.1406249999999985
 40
0.1406249999999985
 40
0.1562499999999984
 40
0.1562499999999984
 40
0.1874999999999981
 40
0.1874999999999981
 40
0.2187499999999978
 40
0.2187499999999978
 40
0.2499999999999976
 40
0.2499999999999976
 40
0.2812499999999973
 40
0.2812499999999973
 40
0.3124999999999971
 40
0.3124999999999971
 40
0.3437499999999968
 40
0.3437499999999968
 40
0.3749999999999966
 40
0.3749999999999966
 40
0.3906249999999964
 40
0.3906249999999964
 40
0.4062499999999963
 40
0.4062499999999963
 40
0.4374999999999961
 40
0.4374999999999961
 40
0.4531249999999959
 40
0.4531249999999959
 40
0.4687499999999958
 40
0.4687499999999958
 40
0.499999999999996
 40
0.499999999999996
 40
0.5156249999999961
 40
0.5156249999999961
 40
0.5312499999999963
 40
0.5312499999999963
 40
0.5624999999999964
 40
0.5624999999999964
 40
0.5781249999999967
 40
0.5781249999999967
 40
0.5937499999999968
 40
0.5937499999999968
 40
0.624999999999997
 40
0.624999999999997
 40
0.6406249999999971
 40
0.6406249999999971
 40
0.6562499999999973
 40
0.6562499999999973
 40
0.6874999999999974
 40
0.6874999999999974
 40
0.7187499999999977
 40
0.7187499999999977
 40
0.7499999999999979
 40
0.7499999999999979
 40
0.7812499999999981
 40
0.7812499999999981
 40
0.8124999999999982
 40
0.8124999999999982
 40
0.8281249999999984
 40
0.8281249999999984
 40
0.8437499999999986
 40
0.8437499999999986
 40
0.8749999999999989
 40
0.8749999999999989
 40
0.9062499999999992
 40
0.9062499999999992
 40
0.9374999999999994
 40
0.9374999999999994
 40
1.0
 40
1.0
 40
1.0
 40
1.0
 10
195.5152921335463
 20
128.0141734219999
 30
0.0
 10
195.1753810770242
 20
127.7476302058841
 30
0.0
 10
194.865171204371
 20
127.4530166824327
 30
0.0
 10
194.306619887963
 20
126.8042057613448
 30
0.0
 10
194.0568934088388
 20
126.4459951788653
 30
0.0
 10
193.6481159686227
 20
125.6959234434511
 30
0.0
 10
193.485753109955
 20
125.3015181946043
 30
0.0
 10
193.3115122537797
 20
124.6776461483253
 30
0.0
 10
193.2651295051327
 20
124.4632968960812
 30
0.0
 10
193.1994486209431
 20
124.0364138675203
 30
0.0
 10
193.1796197540354
 20
123.8224037121105
 30
0.0
 10
193.1657570788204
 20
123.3932547385019
 30
0.0
 10
193.1717223310285
 20
123.178115961104
 30
0.0
 10
193.2100575650628
 20
122.7466834878991
 30
0.0
 10
193.2427574672831
 20
122.5297853798905
 30
0.0
 10
193.3776173004792
 20
121.8956412713422
 30
0.0
 10
193.5163126193241
 20
121.4886906625875
 30
0.0
 10
193.8868866020239
 20
120.7047334930472
 30
0.0
 10
194.1140247866746
 20
120.3385008086881
 30
0.0
 10
194.6383007442199
 20
119.6600424940967
 30
0.0
 10
194.9388647083558
 20
119.3449498660625
 30
0.0
 10
195.5861590589912
 20
118.7848901973647
 30
0.0
 10
195.9348417369868
 20
118.5366834304046
 30
0.0
 10
196.6809316643424
 20
118.101002521744
 30
0.0
 10
197.0707215263278
 20
117.9182644754244
 30
0.0
 10
197.874654893264
 20
117.6211619145522
 30
0.0
 10
198.2925731287689
 20
117.5057079067322
 30
0.0
 10
199.1444284338106
 20
117.3456244833652
 30
0.0
 10
199.5722344539222
 20
117.3016822259798
 30
0.0
 10
200.2166725803407
 20
117.287951327458
 30
0.0
 10
200.4319428092673
 20
117.292127177428
 30
0.0
 10
200.8634152136068
 20
117.3183166778873
 30
0.0
 10
201.0806305910911
 20
117.3405148186733
 30
0.0
 10
201.7233674939766
 20
117.4333335186718
 30
0.0
 10
202.1414041820876
 20
117.5296510679093
 30
0.0
 10
202.7530558871351
 20
117.7254084989736
 30
0.0
 10
202.9543573422174
 20
117.7992616291584
 30
0.0
 10
203.3516443372346
 20
117.9648082555064
 30
0.0
 10
203.5485156710363
 20
118.0570243290064
 30
0.0
 10
204.1202921527815
 20
118.3564160794182
 30
0.0
 10
204.4788265145948
 20
118.5866541758744
 30
0.0
 10
204.9820384184438
 20
118.9797144316792
 30
0.0
 10
205.1439708360516
 20
119.1187406252589
 30
0.0
 10
205.455559269872
 20
119.4138909872397
 30
0.0
 10
205.6058187263857
 20
119.5708631047295
 30
0.0
 10
206.0266646710105
 20
120.0578554695918
 30
0.0
 10
206.2708908443047
 20
120.4062909131156
 30
0.0
 10
206.5794318473881
 20
120.9673395750269
 30
0.0
 10
206.6725728409587
 20
121.1608022858585
 30
0.0
 10
206.8377937022567
 20
121.5617984378877
 30
0.0
 10
206.9090307279485
 20
121.767787082556
 30
0.0
 10
207.0838785244575
 20
122.3891378731731
 30
0.0
 10
207.1512292376211
 20
122.8128899952751
 30
0.0
 10
207.1742394864719
 20
123.4636677171931
 30
0.0
 10
207.1685244774023
 20
123.6833834799649
 30
0.0
 10
207.1309796650511
 20
124.1146022266266
 30
0.0
 10
207.0992841440898
 20
124.3278018282275
 30
0.0
 10
206.966473269095
 20
124.960379665207
 30
0.0
 10
206.8252188578839
 20
125.3770789554228
 30
0.0
 10
206.4581848697106
 20
126.1564188525741
 30
0.0
 10
206.2316926763737
 20
126.5240043721073
 30
0.0
 10
205.7031759783578
 20
127.209364042936
 30
0.0
 10
205.4075117003591
 20
127.5195548114638
 30
0.0
 10
204.7590742853546
 20
128.0819431908781
 30
0.0
 10
204.403995447173
 20
128.3346075005004
 30
0.0
 10
203.6633328698488
 20
128.7673976682095
 30
0.0
 10
203.2751202557484
 20
128.9502346229883
 30
0.0
 10
202.6662139395091
 20
129.1754639567644
 30
0.0
 10
202.4588065140407
 20
129.2421826738593
 30
0.0
 10
202.0426229787666
 20
129.3569767475436
 30
0.0
 10
201.8329140832542
 20
129.4054223010628
 30
0.0
 10
201.1990307822923
 20
129.5245703878086
 30
0.0
 10
200.7701366600485
 20
129.5693031467236
 30
0.0
 10
199.8993323953053
 20
129.5875020591367
 30
0.0
 10
199.466977354912
 20
129.5605379721528
 30
0.0
 10
198.6163940422288
 20
129.437340161289
 30
0.0
 10
198.1967804938242
 20
129.3411590831812
 30
0.0
 10
196.9558144374829
 20
128.9425776657504
 30
0.0
 10
196.1951142465905
 20
128.5472598542313
 30
0.0
 10
195.5152921335463
 20
128.0141734219999
 30
0.0
  0
SPLINE
  5
A0
330
1F
100
AcDbEntity
  8
0
  6
Continuous
 62
     7
370
    25
100
AcDbSpline
210
0.0
220
0.0
230
1.0
 70
    11
 71
     3
 72
    84
 73
    80
 74
     0
 42
0.000000001
 43
0.00000001
 40
0.0
 40
0.0
 40
0.0
 40
0.0
 40
0.0312499999999994
 40
0.0312499999999994
 40
0.0624999999999987
 40
0.0624999999999987
 40
0.0937499999999981
 40
0.0937499999999981
 40
0.1093749999999978
 40
0.1093749999999978
 40
0.1249999999999974
 40
0.1249999999999974
 40
0.1406249999999971
 40
0.1406249999999971
 40
0.1562499999999968
 40
0.1562499999999968
 40
0.1874999999999961
 40
0.1874999999999961
 40
0.2187499999999953
 40
0.2187499999999953
 40
0.2499999999999946
 40
0.2499999999999946
 40
0.2812499999999938
 40
0.2812499999999938
 40
0.3124999999999931
 40
0.3124999999999931
 40
0.3437499999999923
 40
0.3437499999999923
 40
0.3749999999999916
 40
0.3749999999999916
 40
0.3906249999999915
 40
0.3906249999999915
 40
0.4062499999999914
 40
0.4062499999999914
 40
0.4374999999999912
 40
0.4374999999999912
 40
0.4531249999999911
 40
0.4531249999999911
 40
0.468749999999991
 40
0.468749999999991
 40
0.4999999999999912
 40
0.4999999999999912
 40
0.5156249999999913
 40
0.5156249999999913
 40
0.5312499999999915
 40
0.5312499999999915
 40
0.5624999999999917
 40
0.5624999999999917
 40
0.578124999999992
 40
0.578124999999992
 40
0.5937499999999922
 40
0.5937499999999922
 40
0.6249999999999928
 40
0.6249999999999928
 40
0.640624999999993
 40
0.640624999999993
 40
0.6562499999999932
 40
0.6562499999999932
 40
0.6874999999999938
 40
0.6874999999999938
 40
0.7187499999999944
 40
0.7187499999999944
 40
0.749999999999995
 40
0.749999999999995
 40
0.7812499999999956
 40
0.7812499999999956
 40
0.8124999999999961
 40
0.8124999999999961
 40
0.8281249999999964
 40
0.8281249999999964
 40
0.8437499999999967
 40
0.8437499999999967
 40
0.8749999999999972
 40
0.8749999999999972
 40
0.9062499999999978
 40
0.9062499999999978
 40
0.9374999999999983
 40
0.9374999999999983
 40
1.0
 40
1.0
 40
1.0
 40
1.0
 10
218.5152921335463
 20
128.0141734219999
 30
0.0
 10
218.1753810770242
 20
127.7476302058841
 30
0.0
 10
217.865171204371
 20
127.4530166824327
 30
0.0
 10
217.306619887963
 20
126.8042057613448
 30
0.0
 10
217.0568934088387
 20
126.4459951788653
 30
0.0
 10
216.6481159686227
 20
125.6959234434511
 30
0.0
 10
216.485753109955
 20
125.3015181946043
 30
0.0
 10
216.3115122537797
 20
124.6776461483254
 30
0.0
 10
216.2651295051326
 20
124.4632968960812
 30
0.0
 10
216.1994486209431
 20
124.0364138675203
 30
0.0
 10
216.1796197540354
 20
123.8224037121105
 30
0.0
 10
216.1657570788204
 20
123.3932547385019
 30
0.0
 10
216.1717223310285
 20
123.178115961104
 30
0.0
 10
216.2100575650628
 20
122.7466834878991
 30
0.0
 10
216.242757467283
 20
122.5297853798905
 30
0.0
 10
216.3776173004793
 20
121.8956412713423
 30
0.0
 10
216.5163126193241
 20
121.4886906625875
 30
0.0
 10
216.886886602024
 20
120.7047334930472
 30
0.0
 10
217.1140247866746
 20
120.3385008086881
 30
0.0
 10
217.63830074422
 20
119.6600424940967
 30
0.0
 10
217.9388647083558
 20
119.3449498660625
 30
0.0
 10
218.5861590589911
 20
118.7848901973647
 30
0.0
 10
218.9348417369868
 20
118.5366834304046
 30
0.0
 10
219.6809316643424
 20
118.101002521744
 30
0.0
 10
220.0707215263278
 20
117.9182644754244
 30
0.0
 10
220.874654893264
 20
117.6211619145522
 30
0.0
 10
221.2925731287689
 20
117.5057079067322
 30
0.0
 10
222.1444284338106
 20
117.3456244833652
 30
0.0
 10
222.5722344539222
 20
117.3016822259798
 30
0.0
 10
223.2166725803406
 20
117.287951327458
 30
0.0
 10
223.4319428092674
 20
117.292127177428
 30
0.0
 10
223.8634152136068
 20
117.3183166778873
 30
0.0
 10
224.0806305910911
 20
117.3405148186733
 30
0.0
 10
224.7233674939766
 20
117.4333335186718
 30
0.0
 10
225.1414041820876
 20
117.5296510679093
 30
0.0
 10
225.7530558871352
 20
117.7254084989736
 30
0.0
 10
225.9543573422173
 20
117.7992616291584
 30
0.0
 10
226.3516443372345
 20
117.9648082555064
 30
0.0
 10
226.5485156710363
 20
118.0570243290064
 30
0.0
 10
227.1202921527814
 20
118.3564160794182
 30
0.0
 10
227.4788265145948
 20
118.5866541758744
 30
0.0
 10
227.9820384184438
 20
118.9797144316792
 30
0.0
 10
228.1439708360516
 20
119.1187406252589
 30
0.0
 10
228.455559269872
 20
119.4138909872397
 30
0.0
 10
228.6058187263857
 20
119.5708631047295
 30
0.0
 10
229.0266646710105
 20
120.0578554695918
 30
0.0
 10
229.2708908443047
 20
120.4062909131156
 30
0.0
 10
229.579431847388
 20
120.9673395750269
 30
0.0
 10
229.6725728409587
 20
121.1608022858585
 30
0.0
 10
229.8377937022567
 20
121.5617984378877
 30
0.0
 10
229.9090307279485
 20
121.767787082556
 30
0.0
 10
230.0838785244575
 20
122.3891378731731
 30
0.0
 10
230.1512292376211
 20
122.8128899952751
 30
0.0
 10
230.1742394864719
 20
123.4636677171931
 30
0.0
 10
230.1685244774023
 20
123.6833834799649
 30
0.0
 10
230.1309796650511
 20
124.1146022266266
 30
0.0
 10
230.0992841440898
 20
124.3278018282275
 30
0.0
 10
229.966473269095
 20
124.960379665207
 30
0.0
 10
229.8252188578839
 20
125.3770789554228
 30
0.0
 10
229.4581848697106
 20
126.1564188525741
 30
0.0
 10
229.2316926763737
 20
126.5240043721073
 30
0.0
 10
228.7031759783578
 20
127.209364042936
 30
0.0
 10
228.4075117003591
 20
127.5195548114638
 30
0.0
 10
227.7590742853546
 20
128.0819431908781
 30
0.0
 10
227.403995447173
 20
128.3346075005004
 30
0.0
 10
226.6633328698488
 20
128.7673976682095
 30
0.0
 10
226.2751202557484
 20
128.9502346229883
 30
0.0
 10
225.6662139395091
 20
129.1754639567644
 30
0.0
 10
225.4588065140407
 20
129.2421826738593
 30
0.0
 10
225.0426229787666
 20
129.3569767475436
 30
0.0
 10
224.8329140832543
 20
129.4054223010628
 30
0.0
 10
224.1990307822923
 20
129.5245703878086
 30
0.0
 10
223.7701366600485
 20
129.5693031467236
 30
0.0
 10
222.8993323953053
 20
129.5875020591366
 30
0.0
 10
222.466977354912
 20
129.5605379721528
 30
0.0
 10
221.6163940422288
 20
129.437340161289
 30
0.0
 10
221.1967804938241
 20
129.3411590831812
 30
0.0
 10
219.9558144374828
 20
128.9425776657504
 30
0.0
 10
219.1951142465906
 20
128.5472598542314
 30
0.0
 10
218.5152921335463
 20
128.0141734219998
 30
0.0
  0
SPLINE
  5
A1
330
1F
100
AcDbEntity
  8
0
  6
Continuous
 62
     7
370
    25
100
AcDbSpline
210
0.0
220
0.0
230
1.0
 70
     8
 71
     3
 72
    16
 73
    12
 74
     0
 42
0.000000001
 43
0.00000001
 40
0.0
 40
0.0
 40
0.0
 40
0.0
 40
0.2499999999999993
 40
0.2499999999999993
 40
0.4999999999999987
 40
0.4999999999999987
 40
0.624999999999999
 40
0.624999999999999
 40
0.7499999999999993
 40
0.7499999999999993
 40
1.0
 40
1.0
 40
1.0
 40
1.0
 10
168.1290434641764
 20
106.0862742485966
 30
0.0
 10
168.1607714253691
 20
106.0854771317757
 30
0.0
 10
168.1953990157196
 20
106.0848860569204
 30
0.0
 10
168.2750927777832
 20
106.083874531486
 30
0.0
 10
168.3201342377869
 20
106.0834744233111
 30
0.0
 10
168.4029869646374
 20
106.0825165514072
 30
0.0
 10
168.4329014258372
 20
106.0821348701468
 30
0.0
 10
168.4988877563952
 20
106.0810586560883
 30
0.0
 10
168.535621381857
 20
106.0803410901941
 30
0.0
 10
168.6481181014267
 20
106.0775802125125
 30
0.0
 10
168.7184594495251
 20
106.0750931206409
 30
0.0
 10
168.7749276034302
 20
106.0729198422338
 30
0.0
  0
SPLINE
  5
A2
330
1F
100
AcDbEntity
  8
0
  6
Continuous
 62
     7
370
    25
100
AcDbSpline
210
0.0
220
0.0
230
1.0
 70
     8
 71
     3
 72
    14
 73
    10
 74
     0
 42
0.000000001
 43
0.00000001
 40
0.0
 40
0.0
 40
0.0
 40
0.0
 40
0.1250000000000044
 40
0.1250000000000044
 40
0.2500000000000088
 40
0.2500000000000088
 40
0.5000000000000077
 40
0.5000000000000077
 40
1.0
 40
1.0
 40
1.0
 40
1.0
 10
168.7749276033985
 20
106.0729198422565
 30
0.0
 10
168.7875193973433
 20
106.0724352244341
 30
0.0
 10
168.8023905056374
 20
106.0707250465018
 30
0.0
 10
168.8345745970705
 20
106.0626094977509
 30
0.0
 10
168.8501787285464
 20
106.0563937094896
 30
0.0
 10
168.8860658682585
 20
106.0381745977881
 30
0.0
 10
168.8999179095271
 20
106.0264095694544
 30
0.0
 10
168.9334076514598
 20
105.9946144330371
 30
0.0
 10
168.9440699120355
 20
105.976821001194
 30
0.0
 10
168.9522078689305
 20
105.9603898703496
 30
0.0
  0
LINE
  5
A3
330
1F
100
AcDbEntity
  8
0
  6
Continuous
 62
     7
370
    25
100
AcDbLine
 10
168.9699044923
 20
117.4509512972
 30
0.0
 11
168.9699044923
 21
105.5956112509
 31
0.0
  0
SPLINE
  5
A4
330
1F
100
AcDbEntity
  8
0
  6
Continuous
 62
     7
370
    25
100
AcDbSpline
210
0.0
220
0.0
230
1.0
 70
     8
 71
     3
 72
    15
 73
    11
 74
     0
 42
0.000000001
 43
0.00000001
 40
0.0
 40
0.0
 40
0.0
 40
0.0
 40
0.5385957032643561
 40
0.6665467163648386
 40
0.7952665234228525
 40
0.8495303466675592
 40
0.8843861377668513
 40
0.9195014210589374
 40
0.9503467310622499
 40
1.0
 40
1.0
 40
1.0
 40
1.0
 10
168.9594798624221
 20
117.5728381103536
 30
0.0
 10
168.9578354790035
 20
117.676659384672
 30
0.0
 10
168.9558004490888
 20
117.8051448684334
 30
0.0
 10
168.9138502472998
 20
117.9567952562567
 30
0.0
 10
168.8887246562219
 20
118.0146066703728
 30
0.0
 10
168.8595997503094
 20
118.0483155619953
 30
0.0
 10
168.8380556809851
 20
118.0616465657193
 30
0.0
 10
168.8181330949317
 20
118.0655409683322
 30
0.0
 10
168.7958267056906
 20
118.0618447858473
 30
0.0
 10
168.7829006653728
 20
118.0535796108274
 30
0.0
 10
168.7749276034301
 20
118.0484814716617
 30
0.0
  0
SPLINE
  5
A5
330
1F
100
AcDbEntity
  8
0
  6
Continuous
 62
     7
370
    25
100
AcDbSpline
210
0.0
220
0.0
230
1.0
 70
     8
 71
     3
 72
    14
 73
    10
 74
     0
 42
0.000000001
 43
0.00000001
 40
0.0
 40
0.0
 40
0.0
 40
0.0
 40
0.25
 40
0.25
 40
0.5
 40
0.5
 40
0.75
 40
0.75
 40
1.0
 40
1.0
 40
1.0
 40
1.0
 10
168.7749276034366
 20
118.0484814716535
 30
0.0
 10
168.7184679375529
 20
118.0068193619547
 30
0.0
 10
168.6475954626907
 20
117.9759858813665
 30
0.0
 10
168.4991291048087
 20
117.9817003899797
 30
0.0
 10
168.4299339016009
 20
118.0172713174126
 30
0.0
 10
168.3202167155314
 20
118.1042152298865
 30
0.0
 10
168.2749708265994
 20
118.1566475432516
 30
0.0
 10
168.1953536956325
 20
118.2652006247701
 30
0.0
 10
168.1607510761756
 20
118.3221837110126
 30
0.0
 10
168.1290434641768
 20
118.3807497936705
 30
0.0
  0
SPLINE
  5
A6
330
1F
100
AcDbEntity
  8
0
  6
Continuous
 62
     7
370
    25
100
AcDbSpline
210
0.0
220
0.0
230
1.0
 70
     8
 71
     3
 72
    10
 73
     6
 74
     0
 42
0.000000001
 43
0.00000001
 40
0.0
 40
0.0
 40
0.0
 40
0.0
 40
0.5
 40
0.5
 40
1.0
 40
1.0
 40
1.0
 40
1.0
 10
167.8485841487458
 20
119.2335683853168
 30
0.0
 10
167.8794627152296
 20
119.0839399164552
 30
0.0
 10
167.9154554049194
 20
118.9374445495537
 30
0.0
 10
168.0047956389367
 20
118.6522529240579
 30
0.0
 10
168.05725393425
 20
118.5133498628218
 30
0.0
 10
168.1290434641769
 20
118.3807497936703
 30
0.0
  0
SPLINE
  5
A7
330
1F
100
AcDbEntity
  8
0
  6
Continuous
 62
     7
370
    25
100
AcDbSpline
210
0.0
220
0.0
230
1.0
 70
     8
 71
     3
 72
    10
 73
     6
 74
     0
 42
0.000000001
 43
0.00000001
 40
0.0
 40
0.0
 40
0.0
 40
0.0
 40
0.5
 40
0.5
 40
1.0
 40
1.0
 40
1.0
 40
1.0
 10
168.1290434641762
 20
128.4901132659068
 30
0.0
 10
168.0572539342496
 20
128.3575131967555
 30
0.0
 10
168.0047956389364
 20
128.2186101355196
 30
0.0
 10
167.9154554049192
 20
127.9334185100242
 30
0.0
 10
167.8794627152296
 20
127.7869231431229
 30
0.0
 10
167.8485841487458
 20
127.6372946742616
 30
0.0
  0
SPLINE
  5
A8
330
1F
100
AcDbEntity
  8
0
  6
Continuous
 62
     7
370
    25
100
AcDbSpline
210
0.0
220
0.0
230
1.0
 70
     8
 71
     3
 72
    14
 73
    10
 74
     0
 42
0.000000001
 43
0.00000001
 40
0.0
 40
0.0
 40
0.0
 40
0.0
 40
0.25
 40
0.25
 40
0.5
 40
0.5
 40
0.75
 40
0.75
 40
1.0
 40
1.0
 40
1.0
 40
1.0
 10
168.1290434641756
 20
128.4901132659056
 30
0.0
 10
168.1607521636609
 20
128.5486813572242
 30
0.0
 10
168.1953599823016
 20
128.6056756191642
 30
0.0
 10
168.2750183927909
 20
128.7142757539281
 30
0.0
 10
168.3200806626858
 20
128.7666038893067
 30
0.0
 10
168.4306625082642
 20
128.854104900669
 30
0.0
 10
168.4983066290795
 20
128.8891503569232
 30
0.0
 10
168.6485549194766
 20
128.8948947456792
 30
0.0
 10
168.7185073177069
 20
128.8640146386293
 30
0.0
 10
168.7749276034304
 20
128.8223815879162
 30
0.0
  0
SPLINE
  5
A9
330
1F
100
AcDbEntity
  8
0
  6
Continuous
 62
     7
370
    25
100
AcDbSpline
210
0.0
220
0.0
230
1.0
 70
     8
 71
     3
 72
    16
 73
    12
 74
     0
 42
0.000000001
 43
0.00000001
 40
0.0
 40
0.0
 40
0.0
 40
0.0
 40
0.0625000000000016
 40
0.0625000000000016
 40
0.1250000000000032
 40
0.1250000000000032
 40
0.2500000000000041
 40
0.2500000000000041
 40
0.5000000000000027
 40
0.5000000000000027
 40
1.0
 40
1.0
 40
1.0
 40
1.0
 10
168.7749276033986
 20
128.8223815878628
 30
0.0
 10
168.7866618378455
 20
128.8137227877185
 30
0.0
 10
168.8001935933244
 20
128.8071187024833
 30
0.0
 10
168.8301810537542
 20
128.8059217353091
 30
0.0
 10
168.8451757601625
 20
128.812343482375
 30
0.0
 10
168.8809161825573
 20
128.8420606357843
 30
0.0
 10
168.8949295195585
 20
128.8708680331677
 30
0.0
 10
168.9290736083399
 20
128.9559477547936
 30
0.0
 10
168.9400455124582
 20
129.0143227040633
 30
0.0
 10
168.9658910527245
 20
129.1900382288519
 30
0.0
 10
168.9699044923055
 20
129.3058332367164
 30
0.0
 10
168.9699044923055
 20
129.4199117623638
 30
0.0
  0
LINE
  5
AA
330
1F
100
AcDbEntity
  8
0
  6
Continuous
 62
     7
370
    25
100
AcDbLine
 10
168.9699044923
 20
141.2752518087
 30
0.0
 11
168.9699044923
 21
129.4199117624
 31
0.0
  0
SPLINE
  5
AB
330
1F
100
AcDbEntity
  8
0
  6
Continuous
 62
     7
370
    25
100
AcDbSpline
210
0.0
220
0.0
230
1.0
 70
     8
 71
     3
 72
    16
 73
    12
 74
     0
 42
0.000000001
 43
0.00000001
 40
0.0
 40
0.0
 40
0.0
 40
0.0
 40
0.4999999999999994
 40
0.4999999999999994
 40
0.75
 40
0.75
 40
0.8750000000000003
 40
0.8750000000000003
 40
0.9375000000000002
 40
0.9375000000000002
 40
1.0
 40
1.0
 40
1.0
 40
1.0
 10
168.9699044923056
 20
140.9821859954567
 30
0.0
 10
168.9699044923053
 20
140.9601709808774
 30
0.0
 10
168.9657799494513
 20
140.9348173461737
 30
0.0
 10
168.9398635038182
 20
140.8876568439851
 30
0.0
 10
168.9285859227984
 20
140.8704578557564
 30
0.0
 10
168.8948505442571
 20
140.8404798901871
 30
0.0
 10
168.8804617290127
 20
140.8291284816453
 30
0.0
 10
168.8452150395736
 20
140.8124406221679
 30
0.0
 10
168.8300096151167
 20
140.8068775952826
 30
0.0
 10
168.8003630359473
 20
140.7999080122474
 30
0.0
 10
168.7866576999499
 20
140.7983946711921
 30
0.0
 10
168.7749276034262
 20
140.7979432173422
 30
0.0
  0
SPLINE
  5
AC
330
1F
100
AcDbEntity
  8
0
  6
Continuous
 62
     7
370
    25
100
AcDbSpline
210
0.0
220
0.0
230
1.0
 70
     8
 71
     3
 72
    14
 73
    10
 74
     0
 42
0.000000001
 43
0.00000001
 40
0.0
 40
0.0
 40
0.0
 40
0.0
 40
0.25
 40
0.25
 40
0.5
 40
0.5
 40
0.75
 40
0.75
 40
1.0
 40
1.0
 40
1.0
 40
1.0
 10
168.7749276034366
 20
140.7979432173447
 30
0.0
 10
168.7184805213781
 20
140.7957707499255
 30
0.0
 10
168.6476301373349
 20
140.793272652008
 30
0.0
 10
168.499193702518
 20
140.7896261932198
 30
0.0
 10
168.430004450831
 20
140.7886584463685
 30
0.0
 10
168.32029290259
 20
140.7873908870058
 30
0.0
 10
168.2750512532476
 20
140.7869880460775
 30
0.0
 10
168.1954032350636
 20
140.7859770111498
 30
0.0
 10
168.1607763192976
 20
140.7853860507552
 30
0.0
 10
168.1290434641762
 20
140.7845888109818
 30
0.0
  0
SPLINE
  5
AD
330
1F
100
AcDbEntity
  8
0
  6
Continuous
 62
     7
370
    25
100
AcDbSpline
210
0.0
220
0.0
230
1.0
 70
     8
 71
     3
 72
    18
 73
    14
 74
     0
 42
0.000000001
 43
0.00000001
 40
0.0
 40
0.0
 40
0.0
 40
0.0
 40
0.2500000000000002
 40
0.2500000000000002
 40
0.3750000000000002
 40
0.3750000000000002
 40
0.5000000000000002
 40
0.5000000000000002
 40
0.6250000000000002
 40
0.6250000000000002
 40
0.7500000000000002
 40
0.7500000000000002
 40
1.0
 40
1.0
 40
1.0
 40
1.0
 10
167.8485841487458
 20
127.6372946742616
 30
0.0
 10
167.7132985424434
 20
126.9817403388404
 30
0.0
 10
167.6121307962005
 20
126.3021192450428
 30
0.0
 10
167.5092694533316
 20
125.2467552385487
 30
0.0
 10
167.4831666078083
 20
124.8879411739641
 30
0.0
 10
167.4482766242635
 20
124.1618282298412
 30
0.0
 10
167.4396903659735
 20
123.799738550825
 30
0.0
 10
167.4395906564078
 20
123.0774288934067
 30
0.0
 10
167.4480790275563
 20
122.7172090912983
 30
0.0
 10
167.4822224070769
 20
121.9986430222044
 30
0.0
 10
167.5080193889308
 20
121.638877306289
 30
0.0
 10
167.6114205203187
 20
120.5722327192946
 30
0.0
 10
167.7132785124901
 20
119.8892197800123
 30
0.0
 10
167.8485841487458
 20
119.2335683853168
 30
0.0
  0
LINE
  5
AE
330
1F
100
AcDbEntity
  8
0
  6
Continuous
 62
     7
370
    25
100
AcDbLine
 10
166.9699044923
 20
128.5755840176
 30
0.0
 11
166.9699044923
 21
118.295279042
 31
0.0
  0
LINE
  5
AF
330
1F
100
AcDbEntity
  8
0
  6
Continuous
 62
     7
370
    25
100
AcDbLine
 10
140.6699044923
 20
128.2452102463
 30
0.0
 11
140.6699044923
 21
118.6256528133
 31
0.0
  0
LINE
  5
B0
330
1F
100
AcDbEntity
  8
0
  6
Continuous
 62
     7
370
    25
100
AcDbLine
 10
139.1699044923
 20
127.8121975444
 30
0.0
 11
139.1699044923
 21
119.0586655152
 31
0.0
  0
LINE
  5
B1
330
1F
100
AcDbEntity
  8
0
  6
Continuous
 62
     7
370
    25
100
AcDbLine
 10
140.6699044923
 20
106.5760802878
 30
0.0
 11
140.6699044923
 21
118.6256528133
 31
0.0
  0
LINE
  5
B2
330
1F
100
AcDbEntity
  8
0
  6
Continuous
 62
     7
370
    25
100
AcDbLine
 10
166.9699044923
 20
105.9153327452
 30
0.0
 11
166.9699044923
 21
118.295279042
 31
0.0
  0
LINE
  5
B3
330
1F
100
AcDbEntity
  8
0
  6
Continuous
 62
     7
370
    25
100
AcDbLine
 10
140.6699044923
 20
106.5760802878
 30
0.0
 11
166.9699044923
 21
105.9153327452
 31
0.0
  0
ARC
  5
B4
330
1F
100
AcDbEntity
  8
0
  6
Continuous
 62
     7
370
    25
100
AcDbCircle
 10
167.1698414032
 20
105.9103096341
 30
0.0
 40
0.2000000000000059
100
AcDbArc
 50
88.5608333333
 51
178.5608333333
  0
LINE
  5
B5
330
1F
100
AcDbEntity
  8
0
  6
Continuous
 62
     7
370
    25
100
AcDbLine
 10
166.9699044923
 20
128.5755840176
 30
0.0
 11
166.9699044923
 21
140.9555303144
 31
0.0
  0
ARC
  5
B6
330
1F
100
AcDbEntity
  8
0
  6
Continuous
 62
     7
370
    25
100
AcDbCircle
 10
167.1698414032
 20
140.9605534255
 30
0.0
 40
0.2000000000000052
100
AcDbArc
 50
181.4391666667
 51
271.4391666667
  0
LINE
  5
B7
330
1F
100
AcDbEntity
  8
0
  6
Continuous
 62
     7
370
    25
100
AcDbLine
 10
140.6699044923
 20
128.2452102463
 30
0.0
 11
140.6699044923
 21
140.2947827717
 31
0.0
  0
LINE
  5
B8
330
1F
100
AcDbEntity
  8
0
  6
Continuous
 62
     7
370
    25
100
AcDbLine
 10
140.6699044923
 20
140.2947827717
 30
0.0
 11
166.9699044923
 21
140.9555303144
 31
0.0
  0
LINE
  5
B9
330
1F
100
AcDbEntity
  8
0
  6
Continuous
 62
     7
370
    25
100
AcDbLine
 10
167.1748645144
 20
106.110246545
 30
0.0
 11
168.1290434642
 21
106.0862742486
 31
0.0
  0
LINE
  5
BA
330
1F
100
AcDbEntity
  8
0
  6
Continuous
 62
     7
370
    25
100
AcDbLine
 10
167.1748645144
 20
140.7606165145
 30
0.0
 11
168.1290434642
 21
140.784588811
 31
0.0
  0
LINE
  5
BB
330
1F
100
AcDbEntity
  8
0
  6
Continuous
 62
     7
370
    25
100
AcDbLine
 10
139.1699044923
 20
139.428757368
 30
0.0
 11
140.6699044923
 21
140.2947827717
 31
0.0
  0
LINE
  5
BC
330
1F
100
AcDbEntity
  8
0
  6
Continuous
 62
     7
370
    25
100
AcDbLine
 10
139.1699044923
 20
127.8121975444
 30
0.0
 11
139.1699044923
 21
139.428757368
 31
0.0
  0
LINE
  5
BD
330
1F
100
AcDbEntity
  8
0
  6
Continuous
 62
     7
370
    25
100
AcDbLine
 10
139.1699044923
 20
107.4421056916
 30
0.0
 11
140.6699044923
 21
106.5760802878
 31
0.0
  0
LINE
  5
BE
330
1F
100
AcDbEntity
  8
0
  6
Continuous
 62
     7
370
    25
100
AcDbLine
 10
139.1699044923
 20
107.4421056916
 30
0.0
 11
139.1699044923
 21
119.0586655152
 31
0.0
  0
CIRCLE
  5
BF
330
1F
100
AcDbEntity
  8
0
  6
Continuous
 62
     7
370
    25
100
AcDbCircle
 10
223.1699044923
 20
123.4354315298
 30
0.0
 40
4.000000000000026
  0
SPLINE
  5
C0
330
1F
100
AcDbEntity
  8
0
  6
Continuous
 62
     7
370
    25
100
AcDbSpline
210
0.0
220
0.0
230
1.0
 70
    24
 71
     3
 72
    11
 73
     7
 74
     0
 42
0.000000001
 43
0.00000001
 40
0.0
 40
0.0
 40
0.0
 40
0.0
 40
0.2164553779443427
 40
0.44031128957906
 40
0.751900568803873
 40
1.0
 40
1.0
 40
1.0
 40
1.0
 10
221.4069740015081
 20
120.4534730987212
 30
0.0
 10
221.2904547775429
 20
120.660189966311
 30
0.0
 10
221.053432578085
 20
121.0806912789169
 30
0.0
 10
220.6135826805932
 20
121.8610294061803
 30
0.0
 10
220.1417647656998
 20
122.698082023941
 30
0.0
 10
219.8398296326351
 20
123.2337454346506
 30
0.0
 10
219.7059874925727
 20
123.4711949043919
 30
0.0
  0
SPLINE
  5
C1
330
1F
100
AcDbEntity
  8
0
  6
Continuous
 62
     7
370
    25
100
AcDbSpline
210
0.0
220
0.0
230
1.0
 70
    24
 71
     3
 72
    13
 73
     9
 74
     0
 42
0.000000001
 43
0.00000001
 40
0.0
 40
0.0
 40
0.0
 40
0.0
 40
0.1858585508580224
 40
0.3545088035973841
 40
0.528751703950346
 40
0.7072103787973153
 40
0.8922150243135893
 40
1.0
 40
1.0
 40
1.0
 40
1.0
 10
224.8708910012408
 20
120.4177097241185
 30
0.0
 10
224.6674024684751
 20
120.4198106510822
 30
0.0
 10
224.2792660283515
 20
120.423817984083
 30
0.0
 10
223.6599077010015
 20
120.430212578375
 30
0.0
 10
223.0288842267252
 20
120.4367276100271
 30
0.0
 10
222.3832608216198
 20
120.4433933793544
 30
0.0
 10
221.8426384094602
 20
120.4489750609727
 30
0.0
 10
221.5242008001699
 20
120.4522627851039
 30
0.0
 10
221.4069740015081
 20
120.4534730987212
 30
0.0
  0
SPLINE
  5
C2
330
1F
100
AcDbEntity
  8
0
  6
Continuous
 62
     7
370
    25
100
AcDbSpline
210
0.0
220
0.0
230
1.0
 70
    24
 71
     3
 72
    11
 73
     7
 74
     0
 42
0.000000001
 43
0.00000001
 40
0.0
 40
0.0
 40
0.0
 40
0.0
 40
0.2164553779443395
 40
0.4403112895790562
 40
0.7519005688038751
 40
1.0
 40
1.0
 40
1.0
 40
1.0
 10
226.6338214920381
 20
123.3996681551865
 30
0.0
 10
226.5130590452972
 20
123.1954011134085
 30
0.0
 10
226.2674053259848
 20
122.7798832111141
 30
0.0
 10
225.8115376329789
 20
122.0087929624026
 30
0.0
 10
225.3225377591407
 20
121.1816603532639
 30
0.0
 10
225.0096072041207
 20
120.6523451523801
 30
0.0
 10
224.8708910012408
 20
120.4177097241185
 30
0.0
  0
SPLINE
  5
C3
330
1F
100
AcDbEntity
  8
0
  6
Continuous
 62
     7
370
    25
100
AcDbSpline
210
0.0
220
0.0
230
1.0
 70
    24
 71
     3
 72
    11
 73
     7
 74
     0
 42
0.000000001
 43
0.00000001
 40
0.0
 40
0.0
 40
0.0
 40
0.0
 40
0.2164553779443498
 40
0.4403112895790516
 40
0.7519005688038695
 40
1.0
 40
1.0
 40
1.0
 40
1.0
 10
224.9328349831028
 20
126.4173899608571
 30
0.0
 10
225.0493542070679
 20
126.2106730932673
 30
0.0
 10
225.2863764065259
 20
125.7901717806615
 30
0.0
 10
225.7262263040176
 20
125.0098336533981
 30
0.0
 10
226.1980442189111
 20
124.1727810356374
 30
0.0
 10
226.4999793519758
 20
123.6371176249278
 30
0.0
 10
226.6338214920381
 20
123.3996681551865
 30
0.0
  0
SPLINE
  5
C4
330
1F
100
AcDbEntity
  8
0
  6
Continuous
 62
     7
370
    25
100
AcDbSpline
210
0.0
220
0.0
230
1.0
 70
    24
 71
     3
 72
    13
 73
     9
 74
     0
 42
0.000000001
 43
0.00000001
 40
0.0
 40
0.0
 40
0.0
 40
0.0
 40
0.1077852362604677
 40
0.2867886602058502
 40
0.4712404514100964
 40
0.6395159303143921
 40
0.8141409998222572
 40
1.0
 40
1.0
 40
1.0
 40
1.0
 10
221.4689179833701
 20
126.4531533354598
 30
0.0
 10
221.5861482040852
 20
126.4519429865114
 30
0.0
 10
221.898067527185
 20
126.4487225607336
 30
0.0
 10
222.4379993173798
 20
126.4431480094744
 30
0.0
 10
223.0764409436133
 20
126.4365563887622
 30
0.0
 10
223.7145396567028
 20
126.4299683084729
 30
0.0
 10
224.3346911531072
 20
126.4235655250696
 30
0.0
 10
224.7293540196977
 20
126.4194908096705
 30
0.0
 10
224.9328349831028
 20
126.4173899608571
 30
0.0
  0
SPLINE
  5
C5
330
1F
100
AcDbEntity
  8
0
  6
Continuous
 62
     7
370
    25
100
AcDbSpline
210
0.0
220
0.0
230
1.0
 70
    24
 71
     3
 72
    11
 73
     7
 74
     0
 42
0.000000001
 43
0.00000001
 40
0.0
 40
0.0
 40
0.0
 40
0.0
 40
0.2164553779443432
 40
0.4403112895790584
 40
0.7519005688038749
 40
1.0
 40
1.0
 40
1.0
 40
1.0
 10
219.7059874925727
 20
123.4711949043919
 30
0.0
 10
219.8267499393136
 20
123.6754619461699
 30
0.0
 10
220.072403658626
 20
124.0909798484642
 30
0.0
 10
220.5282713516319
 20
124.8620700971758
 30
0.0
 10
221.0172712254702
 20
125.6892027063144
 30
0.0
 10
221.3302017804902
 20
126.2185179071983
 30
0.0
 10
221.4689179833701
 20
126.4531533354598
 30
0.0
  0
CIRCLE
  5
C6
330
1F
100
AcDbEntity
  8
0
  6
Continuous
 62
     7
370
    25
100
AcDbCircle
 10
223.1699044923
 20
123.4354315298
 30
0.0
 40
5.000000000000061
  0
CIRCLE
  5
C7
330
1F
100
AcDbEntity
  8
0
  6
Continuous
 62
     7
370
    25
100
AcDbCircle
 10
223.1699044923
 20
123.4354315298
 30
0.0
 40
6.000000000000039
  0
ARC
  5
C8
330
1F
100
AcDbEntity
  8
0
  6
Continuous
 62
     7
370
    25
100
AcDbCircle
 10
223.1699044923
 20
123.4354315298
 30
0.0
 40
3.000000000000064
100
AcDbArc
 50
269.4084680371
 51
329.4084680371
  0
ARC
  5
C9
330
1F
100
AcDbEntity
  8
0
  6
Continuous
 62
     7
370
    25
100
AcDbCircle
 10
223.1699044923
 20
123.4354315298
 30
0.0
 40
3.000000000000019
100
AcDbArc
 50
209.4084680371
 51
269.4084680371
  0
ARC
  5
CA
330
1F
100
AcDbEntity
  8
0
  6
Continuous
 62
     7
370
    25
100
AcDbCircle
 10
223.1699044923
 20
123.4354315298
 30
0.0
 40
3.000000000000006
100
AcDbArc
 50
29.4084680371
 51
89.4084680371
  0
ARC
  5
CB
330
1F
100
AcDbEntity
  8
0
  6
Continuous
 62
     7
370
    25
100
AcDbCircle
 10
223.1699044923
 20
123.4354315298
 30
0.0
 40
2.99999999999998
100
AcDbArc
 50
149.4084680371
 51
209.4084680371
  0
ARC
  5
CC
330
1F
100
AcDbEntity
  8
0
  6
Continuous
 62
     7
370
    25
100
AcDbCircle
 10
223.1699044923
 20
123.4354315298
 30
0.0
 40
3.000000000000006
100
AcDbArc
 50
89.4084680371
 51
149.4084680371
  0
ARC
  5
CD
330
1F
100
AcDbEntity
  8
0
  6
Continuous
 62
     7
370
    25
100
AcDbCircle
 10
223.1699044923
 20
123.4354315298
 30
0.0
 40
3.000000000000064
100
AcDbArc
 50
329.4084680371
 51
29.4084680371
  0
CIRCLE
  5
CE
330
1F
100
AcDbEntity
  8
0
  6
Continuous
 62
     7
370
    25
100
AcDbCircle
 10
200.1699044923
 20
123.4354315298
 30
0.0
 40
3.999999999999982
  0
SPLINE
  5
CF
330
1F
100
AcDbEntity
  8
0
  6
Continuous
 62
     7
370
    25
100
AcDbSpline
210
0.0
220
0.0
230
1.0
 70
    24
 71
     3
 72
    13
 73
     9
 74
     0
 42
0.000000001
 43
0.00000001
 40
0.0
 40
0.0
 40
0.0
 40
0.0
 40
0.185858550858032
 40
0.3545088035973573
 40
0.5287517039503258
 40
0.7072103787972865
 40
0.892215024313592
 40
1.0
 40
1.0
 40
1.0
 40
1.0
 10
201.9284396427851
 20
126.4199841134317
 30
0.0
 10
201.7249482355063
 20
126.4217852311208
 30
0.0
 10
201.3368063125023
 20
126.4252207043566
 30
0.0
 10
200.7174392359928
 20
126.4307027687468
 30
0.0
 10
200.0864068477733
 20
126.4362880836848
 30
0.0
 10
199.4407743224833
 20
126.4420026255296
 30
0.0
 10
198.9001442734009
 20
126.446787782592
 30
0.0
 10
198.5817021658076
 20
126.4496063375404
 30
0.0
 10
198.4644737111803
 20
126.4506439353737
 30
0.0
  0
SPLINE
  5
D0
330
1F
100
AcDbEntity
  8
0
  6
Continuous
 62
     7
370
    25
100
AcDbSpline
210
0.0
220
0.0
230
1.0
 70
    24
 71
     3
 72
    11
 73
     7
 74
     0
 42
0.000000001
 43
0.00000001
 40
0.0
 40
0.0
 40
0.0
 40
0.0
 40
0.2164553779443473
 40
0.4403112895790632
 40
0.7519005688038934
 40
0.9999999999999999
 40
0.9999999999999999
 40
0.9999999999999999
 40
0.9999999999999999
 10
198.4644737111803
 20
126.4506439353737
 30
0.0
 10
198.3440123495099
 20
126.2461991916309
 30
0.0
 10
198.0989710943317
 20
125.8303198098388
 30
0.0
 10
197.6442399711799
 20
125.0585587517245
 30
0.0
 10
197.1564592723868
 20
124.2307065791724
 30
0.0
 10
196.8443089161847
 20
123.7009309009134
 30
0.0
 10
196.7059385607006
 20
123.4660913517312
 30
0.0
  0
SPLINE
  5
D1
330
1F
100
AcDbEntity
  8
0
  6
Continuous
 62
     7
370
    25
100
AcDbSpline
210
0.0
220
0.0
230
1.0
 70
    24
 71
     3
 72
    11
 73
     7
 74
     0
 42
0.000000001
 43
0.00000001
 40
0.0
 40
0.0
 40
0.0
 40
0.0
 40
0.2164553779443539
 40
0.4403112895790617
 40
0.7519005688038964
 40
0.9999999999999999
 40
0.9999999999999999
 40
0.9999999999999999
 40
0.9999999999999999
 10
198.4113693418257
 20
120.4508789461467
 30
0.0
 10
198.2945456809094
 20
120.6574239173992
 30
0.0
 10
198.0569041989563
 20
121.0775755602548
 30
0.0
 10
197.6159050785538
 20
121.8572647938528
 30
0.0
 10
197.142854415942
 20
122.6936213567594
 30
0.0
 10
196.8401303983636
 20
123.2288393341602
 30
0.0
 10
196.7059385607006
 20
123.4660913517312
 30
0.0
  0
SPLINE
  5
D2
330
1F
100
AcDbEntity
  8
0
  6
Continuous
 62
     7
370
    25
100
AcDbSpline
210
0.0
220
0.0
230
1.0
 70
    24
 71
     3
 72
    13
 73
     9
 74
     0
 42
0.000000001
 43
0.00000001
 40
0.0
 40
0.0
 40
0.0
 40
0.0
 40
0.185858550858011
 40
0.3545088035973807
 40
0.5287517039503395
 40
0.7072103787972888
 40
0.8922150243135929
 40
1.0
 40
1.0
 40
1.0
 40
1.0
 10
201.8753352734305
 20
120.4202191242046
 30
0.0
 10
201.6718438661517
 20
120.4220202418937
 30
0.0
 10
201.2837019431477
 20
120.4254557151295
 30
0.0
 10
200.6643348666381
 20
120.4309377795197
 30
0.0
 10
200.0333024784186
 20
120.4365230944577
 30
0.0
 10
199.3876699531286
 20
120.4422376363025
 30
0.0
 10
198.8470399040463
 20
120.4470227933649
 30
0.0
 10
198.5285977964529
 20
120.4498413483133
 30
0.0
 10
198.4113693418257
 20
120.4508789461467
 30
0.0
  0
SPLINE
  5
D3
330
1F
100
AcDbEntity
  8
0
  6
Continuous
 62
     7
370
    25
100
AcDbSpline
210
0.0
220
0.0
230
1.0
 70
    24
 71
     3
 72
    11
 73
     7
 74
     0
 42
0.000000001
 43
0.00000001
 40
0.0
 40
0.0
 40
0.0
 40
0.0
 40
0.2164553779443356
 40
0.4403112895790618
 40
0.751900568803891
 40
1.0
 40
1.0
 40
1.0
 40
1.0
 10
201.8753352734305
 20
120.4202191242046
 30
0.0
 10
201.9957966351009
 20
120.6246638679475
 30
0.0
 10
202.240837890279
 20
121.0405432497396
 30
0.0
 10
202.6955690134309
 20
121.8123043078538
 30
0.0
 10
203.183349712224
 20
122.640156480406
 30
0.0
 10
203.4955000684261
 20
123.169932158665
 30
0.0
 10
203.6338704239102
 20
123.4047717078471
 30
0.0
  0
SPLINE
  5
D4
330
1F
100
AcDbEntity
  8
0
  6
Continuous
 62
     7
370
    25
100
AcDbSpline
210
0.0
220
0.0
230
1.0
 70
    24
 71
     3
 72
    11
 73
     7
 74
     0
 42
0.000000001
 43
0.00000001
 40
0.0
 40
0.0
 40
0.0
 40
0.0
 40
0.2164553779443369
 40
0.440311289579063
 40
0.7519005688038928
 40
0.9999999999999999
 40
0.9999999999999999
 40
0.9999999999999999
 40
0.9999999999999999
 10
201.9284396427851
 20
126.4199841134317
 30
0.0
 10
202.0452633037014
 20
126.2134391421792
 30
0.0
 10
202.2829047856543
 20
125.7932874993235
 30
0.0
 10
202.7239039060571
 20
125.0135982657256
 30
0.0
 10
203.1969545686688
 20
124.1772417028189
 30
0.0
 10
203.4996785862472
 20
123.6420237254181
 30
0.0
 10
203.6338704239102
 20
123.4047717078471
 30
0.0
  0
CIRCLE
  5
D5
330
1F
100
AcDbEntity
  8
0
  6
Continuous
 62
     7
370
    25
100
AcDbCircle
 10
200.1699044923
 20
123.4354315298
 30
0.0
 40
5.035999999999961
  0
CIRCLE
  5
D6
330
1F
100
AcDbEntity
  8
0
  6
Continuous
 62
     7
370
    25
100
AcDbCircle
 10
200.1699044923
 20
123.4354315298
 30
0.0
 40
5.999999999999973
  0
ARC
  5
D7
330
1F
100
AcDbEntity
  8
0
  6
Continuous
 62
     7
370
    25
100
AcDbCircle
 10
200.1699044923
 20
123.4354315298
 30
0.0
 40
2.999999999999986
100
AcDbArc
 50
29.492884006
 51
89.492884006
  0
ARC
  5
D8
330
1F
100
AcDbEntity
  8
0
  6
Continuous
 62
     7
370
    25
100
AcDbCircle
 10
200.1699044923
 20
123.4354315298
 30
0.0
 40
3.000000000000024
100
AcDbArc
 50
209.492884006
 51
269.492884006
  0
ARC
  5
D9
330
1F
100
AcDbEntity
  8
0
  6
Continuous
 62
     7
370
    25
100
AcDbCircle
 10
200.1699044923
 20
123.4354315298
 30
0.0
 40
2.999999999999988
100
AcDbArc
 50
89.492884006
 51
149.492884006
  0
ARC
  5
DA
330
1F
100
AcDbEntity
  8
0
  6
Continuous
 62
     7
370
    25
100
AcDbCircle
 10
200.1699044923
 20
123.4354315298
 30
0.0
 40
3.000000000000005
100
AcDbArc
 50
269.492884006
 51
329.492884006
  0
ARC
  5
DB
330
1F
100
AcDbEntity
  8
0
  6
Continuous
 62
     7
370
    25
100
AcDbCircle
 10
200.1699044923
 20
123.4354315298
 30
0.0
 40
3.000000000000005
100
AcDbArc
 50
329.492884006
 51
29.492884006
  0
ARC
  5
DC
330
1F
100
AcDbEntity
  8
0
  6
Continuous
 62
     7
370
    25
100
AcDbCircle
 10
200.1699044923
 20
123.4354315298
 30
0.0
 40
3.000000000000024
100
AcDbArc
 50
149.492884006
 51
209.492884006
  0
LINE
  5
DD
330
1F
100
AcDbEntity
  8
0
  6
Continuous
 62
     7
370
    18
100
AcDbLine
 10
169.4699044923
 20
98.4354315298
 30
0.0
 11
169.4699044923
 21
148.4354315298
 31
0.0
  0
LINE
  5
DE
330
1F
100
AcDbEntity
  8
0
  6
Continuous
 62
     7
370
    18
100
AcDbLine
 10
188.5699044923
 20
98.4354315298
 30
0.0
 11
188.5699044923
 21
148.4354315298
 31
0.0
  0
LINE
  5
DF
330
1F
100
AcDbEntity
  8
0
  6
Continuous
 62
     7
370
    18
100
AcDbLine
 10
181.0751603806
 20
147.088073007
 30
0.0
 11
181.0751603806
 21
131.5318845278
 31
0.0
  0
LINE
  5
E0
330
1F
100
AcDbEntity
  8
0
  6
Continuous
 62
     7
370
    18
100
AcDbLine
 10
180.6421476787
 20
147.2621626453
 30
0.0
 11
180.6421476787
 21
131.004241499
 31
0.0
  0
LINE
  5
E1
330
1F
100
AcDbEntity
  8
0
  6
Continuous
 62
     7
370
    18
100
AcDbLine
 10
177.264648604
 20
115.3389785317
 30
0.0
 11
177.264648604
 21
99.7827900526
 31
0.0
  0
LINE
  5
E2
330
1F
100
AcDbEntity
  8
0
  6
Continuous
 62
     7
370
    18
100
AcDbLine
 10
177.6976613059
 20
115.8666215606
 30
0.0
 11
177.6976613059
 21
99.6087004143
 31
0.0
  0
LINE
  5
E3
330
1F
100
AcDbEntity
  8
0
  6
Continuous
 62
     7
370
    18
100
AcDbLine
 10
180.6421476787
 20
115.8666215606
 30
0.0
 11
180.6421476787
 21
99.6087004143
 31
0.0
  0
LINE
  5
E4
330
1F
100
AcDbEntity
  8
0
  6
Continuous
 62
     7
370
    18
100
AcDbLine
 10
181.0751603806
 20
115.3389785317
 30
0.0
 11
181.0751603806
 21
99.7827900526
 31
0.0
  0
LINE
  5
E5
330
1F
100
AcDbEntity
  8
0
  6
Continuous
 62
     7
370
    18
100
AcDbLine
 10
177.6976613059
 20
147.2621626453
 30
0.0
 11
177.6976613059
 21
131.004241499
 31
0.0
  0
LINE
  5
E6
330
1F
100
AcDbEntity
  8
0
  6
Continuous
 62
     7
370
    18
100
AcDbLine
 10
177.264648604
 20
147.088073007
 30
0.0
 11
177.264648604
 21
131.5318845278
 31
0.0
  0
LINE
  5
E7
330
1F
100
AcDbEntity
  8
0
  6
Continuous
 62
     7
370
    18
100
AcDbLine
 10
190.1699044923
 20
145.9354315298
 30
0.0
 11
190.1699044923
 21
100.9354315298
 31
0.0
  0
LINE
  5
E8
330
1F
100
AcDbEntity
  8
0
  6
Continuous
 62
     7
370
    18
100
AcDbLine
 10
167.8485841487
 20
119.2335683853
 30
0.0
 11
167.8485841487
 21
127.6372946743
 31
0.0
  0
LINE
  5
E9
330
1F
100
AcDbEntity
  8
0
  6
Continuous
 62
     7
370
    18
100
AcDbLine
 10
167.1748645144
 20
118.3927359419
 30
0.0
 11
168.1290434642
 21
118.3807497937
 31
0.0
  0
LINE
  5
EA
330
1F
100
AcDbEntity
  8
0
  6
Continuous
 62
     7
370
    18
100
AcDbLine
 10
167.1748645144
 20
128.4781271177
 30
0.0
 11
167.1748645144
 21
118.3927359419
 31
0.0
  0
LINE
  5
EB
330
1F
100
AcDbEntity
  8
0
  6
Continuous
 62
     7
370
    18
100
AcDbLine
 10
167.1748645144
 20
128.4781271177
 30
0.0
 11
168.1290434642
 21
128.4901132659
 31
0.0
  0
LINE
  5
EC
330
1F
100
AcDbEntity
  8
0
  6
Continuous
 62
     7
370
    18
100
AcDbLine
 10
140.6699044923
 20
118.6256528133
 30
0.0
 11
166.9699044923
 21
118.295279042
 31
0.0
  0
LINE
  5
ED
330
1F
100
AcDbEntity
  8
0
  6
Continuous
 62
     7
370
    18
100
AcDbLine
 10
140.6699044923
 20
128.2452102463
 30
0.0
 11
166.9699044923
 21
128.5755840176
 31
0.0
  0
LWPOLYLINE
  5
EE
330
1F
100
AcDbEntity
  8
0
  6
Continuous
 62
     7
370
    18
100
AcDbPolyline
 90
        9
 70
   128
 43
0.0
 10
166.9699044923
 20
118.295279042
 10
166.9747261844
 20
118.3147336613
 10
166.9870460448
 20
118.3333441329
 10
167.0063906284
 20
118.3503952666
 10
167.0320165336
 20
118.3652317972
 10
167.0629389713
 20
118.3772835648
 10
167.0979696095
 20
118.386087427
 10
167.1357622404
 20
118.3913050562
 10
167.1748645144
 20
118.3927359419
  0
LWPOLYLINE
  5
EF
330
1F
100
AcDbEntity
  8
0
  6
Continuous
 62
     7
370
    18
100
AcDbPolyline
 90
        9
 70
   128
 43
0.0
 10
166.9699044923
 20
128.5755840176
 10
166.9747261844
 20
128.5561293983
 10
166.9870460448
 20
128.5375189267
 10
167.0063906284
 20
128.5204677929
 10
167.0320165336
 20
128.5056312624
 10
167.0629389713
 20
128.4935794947
 10
167.0979696095
 20
128.4847756326
 10
167.1357622404
 20
128.4795580033
 10
167.1748645144
 20
128.4781271177
  0
LINE
  5
F0
330
1F
100
AcDbEntity
  8
0
  6
Continuous
 62
     7
370
    18
100
AcDbLine
 10
139.1699044923
 20
119.0586655152
 30
0.0
 11
140.6699044923
 21
118.6256528133
 31
0.0
  0
LINE
  5
F1
330
1F
100
AcDbEntity
  8
0
  6
Continuous
 62
     7
370
    18
100
AcDbLine
 10
139.1699044923
 20
127.8121975444
 30
0.0
 11
140.6699044923
 21
128.2452102463
 31
0.0
  0
LINE
  5
F2
330
1F
100
AcDbEntity
  8
0
  6
Continuous
 62
     7
370
    18
100
AcDbLine
 10
167.1748645144
 20
106.110246545
 30
0.0
 11
167.1748645144
 21
118.3927359419
 31
0.0
  0
LINE
  5
F3
330
1F
100
AcDbEntity
  8
0
  6
Continuous
 62
     7
370
    18
100
AcDbLine
 10
167.1748645144
 20
128.4781271177
 30
0.0
 11
167.1748645144
 21
140.7606165145
 31
0.0
  0
LINE
  5
F4
330
1F
100
AcDbEntity
  8
0
  6
Continuous
 62
     7
370
    18
100
AcDbLine
 10
168.7749276034
 20
106.0729198422
 30
0.0
 11
168.7749276034
 21
118.0484814717
 31
0.0
  0
LINE
  5
F5
330
1F
100
AcDbEntity
  8
0
  6
Continuous
 62
     7
370
    18
100
AcDbLine
 10
168.7749276034
 20
128.8223815879
 30
0.0
 11
168.7749276034
 21
140.7979432173
 31
0.0
  0
LINE
  5
F6
330
1F
100
AcDbEntity
  8
0
  6
HIDDEN
 62
     7
370
    18
100
AcDbLine
 10
169.1699044923
 20
98.7354315298
 30
0.0
 11
169.1699044923
 21
148.1354315298
 31
0.0
  0
SPLINE
  5
F7
330
1F
100
AcDbEntity
  8
0
  6
HIDDEN
 62
     7
370
    18
100
AcDbSpline
210
0.0
220
0.0
230
1.0
 70
    11
 71
     3
 72
    58
 73
    54
 74
     0
 42
0.000000001
 43
0.00000001
 40
0.0
 40
0.0
 40
0.0
 40
0.0
 40
0.03125
 40
0.03125
 40
0.0625000000000001
 40
0.0625000000000001
 40
0.0937500000000001
 40
0.0937500000000001
 40
0.1250000000000001
 40
0.1250000000000001
 40
0.1875000000000003
 40
0.1875000000000003
 40
0.2500000000000004
 40
0.2500000000000004
 40
0.2812500000000005
 40
0.2812500000000005
 40
0.3125000000000006
 40
0.3125000000000006
 40
0.3437500000000007
 40
0.3437500000000007
 40
0.3750000000000008
 40
0.3750000000000008
 40
0.4062500000000008
 40
0.4062500000000008
 40
0.4375000000000009
 40
0.4375000000000009
 40
0.468750000000001
 40
0.468750000000001
 40
0.500000000000001
 40
0.500000000000001
 40
0.5625000000000011
 40
0.5625000000000011
 40
0.6250000000000012
 40
0.6250000000000012
 40
0.6562500000000011
 40
0.6562500000000011
 40
0.687500000000001
 40
0.687500000000001
 40
0.7187500000000009
 40
0.7187500000000009
 40
0.7500000000000009
 40
0.7500000000000009
 40
0.7812500000000008
 40
0.7812500000000008
 40
0.8125000000000007
 40
0.8125000000000007
 40
0.8437500000000006
 40
0.8437500000000006
 40
0.8750000000000004
 40
0.8750000000000004
 40
0.9375000000000003
 40
0.9375000000000003
 40
1.0
 40
1.0
 40
1.0
 40
1.0
 10
179.1699044923054
 20
123.4354315297892
 30
0.0
 10
179.1699044923054
 20
123.5676177150609
 30
0.0
 10
179.1828803843159
 20
123.6975844546057
 30
0.0
 10
179.2337126864218
 20
123.9532637927378
 30
0.0
 10
179.2721897577433
 20
124.0803048845792
 30
0.0
 10
179.3725947188996
 20
124.3224830705198
 30
0.0
 10
179.4340289612189
 20
124.4373367291093
 30
0.0
 10
179.5791632274006
 20
124.6547018509151
 30
0.0
 10
179.663605148548
 20
124.7575773229994
 30
0.0
 10
179.9402771781578
 20
125.0341952754165
 30
0.0
 10
180.163323333126
 20
125.1831873952494
 30
0.0
 10
180.6445873316705
 20
125.3827111902407
 30
0.0
 10
180.9078451869903
 20
125.4352900547429
 30
0.0
 10
181.2993112182751
 20
125.4355018283304
 30
0.0
 10
181.4318599618886
 20
125.4225108567411
 30
0.0
 10
181.6884042709038
 20
125.3714746334512
 30
0.0
 10
181.8131001572755
 20
125.3337130920484
 30
0.0
 10
182.0553031277093
 20
125.233553552755
 30
0.0
 10
182.1723664909599
 20
125.1709557430045
 30
0.0
 10
182.389052810206
 20
125.0262337589689
 30
0.0
 10
182.4900667782738
 20
124.9436096538006
 30
0.0
 10
182.6768599725592
 20
124.7569892831896
 30
0.0
 10
182.7596603365135
 20
124.6559409152984
 30
0.0
 10
182.9045387754081
 20
124.4394288944245
 30
0.0
 10
182.9671895587354
 20
124.3225395392256
 30
0.0
 10
183.0676299531094
 20
124.0802821371666
 30
0.0
 10
183.1054889648793
 20
123.9556194723513
 30
0.0
 10
183.1567266693428
 20
123.6992882766965
 30
0.0
 10
183.1698570441159
 20
123.566700337346
 30
0.0
 10
183.1699989945548
 20
123.1750686687767
 30
0.0
 10
183.1176580783068
 20
122.9118558357425
 30
0.0
 10
182.9185278515687
 20
122.4303485050511
 30
0.0
 10
182.7696907639263
 20
122.2071480237756
 30
0.0
 10
182.493378727387
 20
121.9303019438138
 30
0.0
 10
182.3906131901357
 20
121.8457898495951
 30
0.0
 10
182.1732962577819
 20
121.7004112528636
 30
0.0
 10
182.058509347245
 20
121.6388958212618
 30
0.0
 10
181.8165898571391
 20
121.5383397610162
 30
0.0
 10
181.6894629546391
 20
121.4997010351816
 30
0.0
 10
181.433794119003
 20
121.4486361682942
 30
0.0
 10
181.303898913625
 20
121.4355616879179
 30
0.0
 10
181.0398241312006
 20
121.4353032866443
 30
0.0
 10
180.9094949917153
 20
121.4481793546073
 30
0.0
 10
180.6538056775714
 20
121.4987781459352
 30
0.0
 10
180.5268778111838
 20
121.5370834917729
 30
0.0
 10
180.2844255223416
 20
121.6373393241928
 30
0.0
 10
180.16950882836
 20
121.6986903431048
 30
0.0
 10
179.9521180365896
 20
121.8435591786751
 30
0.0
 10
179.849132756908
 20
121.9279231319444
 30
0.0
 10
179.5721683892507
 20
122.2044491857305
 30
0.0
 10
179.4230361108922
 20
122.4273090277262
 30
0.0
 10
179.2230839921778
 20
122.908411547787
 30
0.0
 10
179.1699044923054
 20
123.1710591592457
 30
0.0
 10
179.1699044923054
 20
123.4354315297892
 30
0.0
  0
SPLINE
  5
F8
330
1F
100
AcDbEntity
  8
0
  6
HIDDEN
 62
     7
370
    18
100
AcDbSpline
210
0.0
220
0.0
230
1.0
 70
     8
 71
     3
 72
    12
 73
     8
 74
     0
 42
0.000000001
 43
0.00000001
 40
0.0
 40
0.0
 40
0.0
 40
0.0
 40
0.25
 40
0.25
 40
0.5
 40
0.5
 40
1.0
 40
1.0
 40
1.0
 40
1.0
 10
177.6976613058719
 20
115.8666215606086
 30
0.0
 10
177.6339960693414
 20
115.8666215606086
 30
0.0
 10
177.574389837118
 20
115.8405494121289
 30
0.0
 10
177.4757293121872
 20
115.7650106613078
 30
0.0
 10
177.4367623221719
 20
115.7177597242116
 30
0.0
 10
177.3373754902474
 20
115.5659359062451
 30
0.0
 10
177.295299242824
 20
115.4531326564801
 30
0.0
 10
177.2646486039797
 20
115.338978531745
 30
0.0
  0
LINE
  5
F9
330
1F
100
AcDbEntity
  8
0
  6
HIDDEN
 62
     7
370
    18
100
AcDbLine
 10
180.6421476787
 20
115.8666215606
 30
0.0
 11
177.6976613059
 21
115.8666215606
 31
0.0
  0
SPLINE
  5
FA
330
1F
100
AcDbEntity
  8
0
  6
HIDDEN
 62
     7
370
    18
100
AcDbSpline
210
0.0
220
0.0
230
1.0
 70
     8
 71
     3
 72
    12
 73
     8
 74
     0
 42
0.000000001
 43
0.00000001
 40
0.0
 40
0.0
 40
0.0
 40
0.0
 40
0.5000000000000004
 40
0.5000000000000004
 40
0.7500000000000002
 40
0.7500000000000002
 40
1.0
 40
1.0
 40
1.0
 40
1.0
 10
181.0751603806312
 20
115.338978531745
 30
0.0
 10
181.0444609972639
 20
115.4533141988088
 30
0.0
 10
181.0031109291574
 20
115.5646675516502
 30
0.0
 10
180.9033550009379
 20
115.7174043238989
 30
0.0
 10
180.8636580832052
 20
115.765264209751
 30
0.0
 10
180.7663999315576
 20
115.8398673231005
 30
0.0
 10
180.7056237735669
 20
115.8666215606086
 30
0.0
 10
180.642147678739
 20
115.8666215606086
 30
0.0
  0
ELLIPSE
  5
FB
330
1F
100
AcDbEntity
  8
0
  6
HIDDEN
 62
     7
370
    18
100
AcDbEllipse
 10
168.1136468373
 20
123.4354315298
 30
0.0
 11
-11.70927234972715
 21
24.67718644093742
 31
0.0
210
0.0
220
0.0
230
1.0
 40
0.3419987131
 41
3.310521928178956
 42
4.221709151398949
  0
SPLINE
  5
FC
330
1F
100
AcDbEntity
  8
0
  6
HIDDEN
 62
     7
370
    18
100
AcDbSpline
210
0.0
220
0.0
230
1.0
 70
     8
 71
     3
 72
    12
 73
     8
 74
     0
 42
0.000000001
 43
0.00000001
 40
0.0
 40
0.0
 40
0.0
 40
0.0
 40
0.2500000000000007
 40
0.2500000000000007
 40
0.5000000000000014
 40
0.5000000000000014
 40
1.0
 40
1.0
 40
1.0
 40
1.0
 10
180.642147678739
 20
99.60870041428723
 30
0.0
 10
180.7058129152695
 20
99.60870041428723
 30
0.0
 10
180.7654191474928
 20
99.61696518995308
 30
0.0
 10
180.8640796724237
 20
99.64118397153625
 30
0.0
 10
180.903046662439
 20
99.65644129084541
 30
0.0
 10
181.0024334943634
 20
99.70607464510731
 30
0.0
 10
181.0445097417869
 20
99.74371435328145
 30
0.0
 10
181.0751603806312
 20
99.78279005255756
 30
0.0
  0
LINE
  5
FD
330
1F
100
AcDbEntity
  8
0
  6
HIDDEN
 62
     7
370
    18
100
AcDbLine
 10
177.6976613059
 20
99.6087004143
 30
0.0
 11
180.6421476787
 21
99.6087004143
 31
0.0
  0
SPLINE
  5
FE
330
1F
100
AcDbEntity
  8
0
  6
HIDDEN
 62
     7
370
    18
100
AcDbSpline
210
0.0
220
0.0
230
1.0
 70
     8
 71
     3
 72
    12
 73
     8
 74
     0
 42
0.000000001
 43
0.00000001
 40
0.0
 40
0.0
 40
0.0
 40
0.0
 40
0.5
 40
0.5
 40
0.75
 40
0.75
 40
1.0
 40
1.0
 40
1.0
 40
1.0
 10
177.2646486039797
 20
99.78279005255756
 30
0.0
 10
177.295347987347
 20
99.74365221016167
 30
0.0
 10
177.3366980554535
 20
99.70649242743617
 30
0.0
 10
177.4364539836729
 20
99.65655592180843
 30
0.0
 10
177.4761509014056
 20
99.64110305166466
 30
0.0
 10
177.5734090530532
 20
99.61718350806562
 30
0.0
 10
177.6341852110439
 20
99.60870041428723
 30
0.0
 10
177.6976613058719
 20
99.60870041428723
 30
0.0
  0
ELLIPSE
  5
FF
330
1F
100
AcDbEntity
  8
0
  6
HIDDEN
 62
     7
370
    18
100
AcDbEllipse
 10
190.2261621473
 20
123.4354315298
 30
0.0
 11
11.70927234972706
 21
24.67718644093742
 31
0.0
210
0.0
220
0.0
230
1.0
 40
0.3419987131
 41
2.061476155780649
 42
2.972663379000676
  0
SPLINE
  5
100
330
1F
100
AcDbEntity
  8
0
  6
HIDDEN
 62
     7
370
    18
100
AcDbSpline
210
0.0
220
0.0
230
1.0
 70
     8
 71
     3
 72
    12
 73
     8
 74
     0
 42
0.000000001
 43
0.00000001
 40
0.0
 40
0.0
 40
0.0
 40
0.0
 40
0.2499999999999993
 40
0.2499999999999993
 40
0.4999999999999987
 40
0.4999999999999987
 40
1.0
 40
1.0
 40
1.0
 40
1.0
 10
177.6976613058719
 20
147.2621626452912
 30
0.0
 10
177.6339960693414
 20
147.2621626452912
 30
0.0
 10
177.574389837118
 20
147.2538978696254
 30
0.0
 10
177.4757293121872
 20
147.2296790880422
 30
0.0
 10
177.4367623221719
 20
147.2144217687331
 30
0.0
 10
177.3373754902474
 20
147.1647884144711
 30
0.0
 10
177.295299242824
 20
147.127148706297
 30
0.0
 10
177.2646486039797
 20
147.0880730070209
 30
0.0
  0
LINE
  5
101
330
1F
100
AcDbEntity
  8
0
  6
HIDDEN
 62
     7
370
    18
100
AcDbLine
 10
180.6421476787
 20
147.2621626453
 30
0.0
 11
177.6976613059
 21
147.2621626453
 31
0.0
  0
SPLINE
  5
102
330
1F
100
AcDbEntity
  8
0
  6
HIDDEN
 62
     7
370
    18
100
AcDbSpline
210
0.0
220
0.0
230
1.0
 70
     8
 71
     3
 72
    12
 73
     8
 74
     0
 42
0.000000001
 43
0.00000001
 40
0.0
 40
0.0
 40
0.0
 40
0.0
 40
0.5000000000000004
 40
0.5000000000000004
 40
0.7500000000000002
 40
0.7500000000000002
 40
1.0
 40
1.0
 40
1.0
 40
1.0
 10
181.0751603806312
 20
147.0880730070209
 30
0.0
 10
181.0444609972639
 20
147.1272108494168
 30
0.0
 10
181.0031109291574
 20
147.1643706321423
 30
0.0
 10
180.9033550009379
 20
147.21430713777
 30
0.0
 10
180.8636580832053
 20
147.2297600079138
 30
0.0
 10
180.7663999315576
 20
147.2536795515129
 30
0.0
 10
180.7056237735669
 20
147.2621626452913
 30
0.0
 10
180.642147678739
 20
147.2621626452912
 30
0.0
  0
ELLIPSE
  5
103
330
1F
100
AcDbEntity
  8
0
  6
HIDDEN
 62
     7
370
    18
100
AcDbEllipse
 10
168.1136468373
 20
123.4354315298
 30
0.0
 11
11.70927234972729
 21
24.67718644093742
 31
0.0
210
0.0
220
0.0
230
1.0
 40
0.3419987131
 41
5.203068809370469
 42
6.114256032590515
  0
SPLINE
  5
104
330
1F
100
AcDbEntity
  8
0
  6
HIDDEN
 62
     7
370
    18
100
AcDbSpline
210
0.0
220
0.0
230
1.0
 70
     8
 71
     3
 72
    12
 73
     8
 74
     0
 42
0.000000001
 43
0.00000001
 40
0.0
 40
0.0
 40
0.0
 40
0.0
 40
0.2500000000000002
 40
0.2500000000000002
 40
0.5000000000000004
 40
0.5000000000000004
 40
1.0
 40
1.0
 40
1.0
 40
1.0
 10
180.642147678739
 20
131.0042414989701
 30
0.0
 10
180.7058129152695
 20
131.0042414989701
 30
0.0
 10
180.7654191474928
 20
131.0303136474498
 30
0.0
 10
180.8640796724237
 20
131.1058523982709
 30
0.0
 10
180.903046662439
 20
131.1531033353671
 30
0.0
 10
181.0024334943634
 20
131.3049271533336
 30
0.0
 10
181.0445097417869
 20
131.4177304030986
 30
0.0
 10
181.0751603806312
 20
131.5318845278337
 30
0.0
  0
LINE
  5
105
330
1F
100
AcDbEntity
  8
0
  6
HIDDEN
 62
     7
370
    18
100
AcDbLine
 10
177.6976613059
 20
131.004241499
 30
0.0
 11
180.6421476787
 21
131.004241499
 31
0.0
  0
SPLINE
  5
106
330
1F
100
AcDbEntity
  8
0
  6
HIDDEN
 62
     7
370
    18
100
AcDbSpline
210
0.0
220
0.0
230
1.0
 70
     8
 71
     3
 72
    12
 73
     8
 74
     0
 42
0.000000001
 43
0.00000001
 40
0.0
 40
0.0
 40
0.0
 40
0.0
 40
0.4999999999999996
 40
0.4999999999999996
 40
0.7499999999999998
 40
0.7499999999999998
 40
1.0
 40
1.0
 40
1.0
 40
1.0
 10
177.2646486039797
 20
131.5318845278337
 30
0.0
 10
177.295347987347
 20
131.4175488607699
 30
0.0
 10
177.3366980554535
 20
131.3061955079285
 30
0.0
 10
177.4364539836729
 20
131.1534587356798
 30
0.0
 10
177.4761509014056
 20
131.1055988498276
 30
0.0
 10
177.5734090530532
 20
131.0309957364782
 30
0.0
 10
177.6341852110439
 20
131.0042414989701
 30
0.0
 10
177.6976613058719
 20
131.0042414989701
 30
0.0
  0
ELLIPSE
  5
107
330
1F
100
AcDbEntity
  8
0
  6
HIDDEN
 62
     7
370
    18
100
AcDbEllipse
 10
190.2261621473
 20
123.4354315298
 30
0.0
 11
-11.70927234972711
 21
24.67718644093745
 31
0.0
210
0.0
220
0.0
230
1.0
 40
0.3419987131
 41
0.1689292745891127
 42
1.080116497809133
  0
LINE
  5
108
330
1F
100
AcDbEntity
  8
0
  6
HIDDEN
 62
     7
370
    18
100
AcDbLine
 10
189.1699044923
 20
99.0354315298
 30
0.0
 11
189.1699044923
 21
147.8354315298
 31
0.0
  0
LINE
  5
109
330
1F
100
AcDbEntity
  8
0
  6
HIDDEN
 62
     7
370
    18
100
AcDbLine
 10
189.1699044923
 20
99.9354315298
 30
0.0
 11
189.1699044923
 21
146.9354315298
 31
0.0
  0
LINE
  5
10A
330
1F
100
AcDbEntity
  8
0
  6
HIDDEN
 62
     7
370
    18
100
AcDbLine
 10
240.1699044923
 20
144.4354315298
 30
0.0
 11
240.1699044923
 21
102.4354315298
 31
0.0
  0
LINE
  5
10B
330
1F
100
AcDbEntity
  8
0
  6
HIDDEN
 62
     7
370
    18
100
AcDbLine
 10
238.6699044923
 20
145.9354315298
 30
0.0
 11
238.6699044923
 21
100.9354315298
 31
0.0
  0
CIRCLE
  5
10C
330
1F
100
AcDbEntity
  8
0
  6
HIDDEN
 62
     7
370
    18
100
AcDbCircle
 10
200.1699044923
 20
123.4354315298
 30
0.0
 40
5.0
  0
CIRCLE
  5
10D
330
1F
100
AcDbEntity
  8
0
  6
HIDDEN
 62
     7
370
    18
100
AcDbCircle
 10
223.1699044923
 20
123.4354315298
 30
0.0
 40
5.0
  0
LINE
  5
10E
330
1F
100
AcDbEntity
  8
0
  6
HIDDEN
 62
     7
370
    18
100
AcDbLine
 10
169.1699044923
 20
103.8854315298
 30
0.0
 11
169.1699044923
 21
142.9699752456
 31
0.0
  0
SPLINE
  5
10F
330
1F
100
AcDbEntity
  8
0
  6
HIDDEN
 62
     7
370
    18
100
AcDbSpline
210
0.0
220
0.0
230
1.0
 70
     8
 71
     3
 72
    14
 73
    10
 74
     0
 42
0.000000001
 43
0.00000001
 40
0.0
 40
0.0
 40
0.0
 40
0.0
 40
0.25
 40
0.25
 40
0.5
 40
0.5
 40
0.75
 40
0.75
 40
1.0
 40
1.0
 40
1.0
 40
1.0
 10
168.1290434641771
 20
135.7299070748626
 30
0.0
 10
168.1607585985078
 20
135.6721238925194
 30
0.0
 10
168.1953731238081
 20
135.6157112314445
 30
0.0
 10
168.2750443192235
 20
135.5081117814291
 30
0.0
 10
168.3201001962539
 20
135.456199154508
 30
0.0
 10
168.4306546087593
 20
135.3700005298107
 30
0.0
 10
168.4980400229635
 20
135.3359111098391
 30
0.0
 10
168.6486695428615
 20
135.3338087178223
 30
0.0
 10
168.7184967796269
 20
135.367180490667
 30
0.0
 10
168.7749276034303
 20
135.4109931592176
 30
0.0
  0
SPLINE
  5
110
330
1F
100
AcDbEntity
  8
0
  6
HIDDEN
 62
     7
370
    18
100
AcDbSpline
210
0.0
220
0.0
230
1.0
 70
     8
 71
     3
 72
    16
 73
    12
 74
     0
 42
0.000000001
 43
0.00000001
 40
0.0
 40
0.0
 40
0.0
 40
0.0
 40
0.0625000000000015
 40
0.0625000000000015
 40
0.1250000000000029
 40
0.1250000000000029
 40
0.2500000000000018
 40
0.2500000000000018
 40
0.4999999999999995
 40
0.4999999999999995
 40
1.0
 40
1.0
 40
1.0
 40
1.0
 10
168.7749276033985
 20
135.4109931592483
 30
0.0
 10
168.7866618378454
 20
135.4201035724962
 30
0.0
 10
168.8001935933244
 20
135.4281809284426
 30
0.0
 10
168.8301810537542
 20
135.4364277701195
 30
0.0
 10
168.8451757601625
 20
135.435500452532
 30
0.0
 10
168.8809161825573
 20
135.4227339330002
 30
0.0
 10
168.8949295195585
 20
135.4050852864899
 30
0.0
 10
168.9290736083399
 20
135.3504323664583
 30
0.0
 10
168.9400455124582
 20
135.3090326987998
 30
0.0
 10
168.9658910527245
 20
135.180542955077
 30
0.0
 10
168.9699044923055
 20
135.0899248674383
 30
0.0
 10
168.9699044923055
 20
134.9977057628842
 30
0.0
  0
LINE
  5
111
330
1F
100
AcDbEntity
  8
0
  6
HIDDEN
 62
     7
370
    18
100
AcDbLine
 10
168.9699044923
 20
111.8731572967
 30
0.0
 11
168.9699044923
 21
134.9977057629
 31
0.0
  0
SPLINE
  5
112
330
1F
100
AcDbEntity
  8
0
  6
HIDDEN
 62
     7
370
    18
100
AcDbSpline
210
0.0
220
0.0
230
1.0
 70
     8
 71
     3
 72
    16
 73
    12
 74
     0
 42
0.000000001
 43
0.00000001
 40
0.0
 40
0.0
 40
0.0
 40
0.0
 40
0.4999999999999994
 40
0.4999999999999994
 40
0.7499999999999991
 40
0.7499999999999991
 40
0.8750000000000016
 40
0.8750000000000016
 40
0.9375000000000008
 40
0.9375000000000008
 40
1.0
 40
1.0
 40
1.0
 40
1.0
 10
168.9699044923054
 20
111.8731572966941
 30
0.0
 10
168.9699044923054
 20
111.7805734457902
 30
0.0
 10
168.9658471901904
 20
111.69036098993
 30
0.0
 10
168.9401899473956
 20
111.5624198628116
 30
0.0
 10
168.9288745016535
 20
111.5200066483997
 30
0.0
 10
168.8948431343448
 20
111.4656926049485
 30
0.0
 10
168.880964153141
 20
111.4481112695587
 30
0.0
 10
168.8450284713737
 20
111.4353275816237
 30
0.0
 10
168.8300781521109
 20
111.4344520834756
 30
0.0
 10
168.800179639369
 20
111.4426975185949
 30
0.0
 10
168.7866467790038
 20
111.4507711787667
 30
0.0
 10
168.7749276034298
 20
111.4598699003608
 30
0.0
  0
SPLINE
  5
113
330
1F
100
AcDbEntity
  8
0
  6
HIDDEN
 62
     7
370
    18
100
AcDbSpline
210
0.0
220
0.0
230
1.0
 70
     8
 71
     3
 72
    14
 73
    10
 74
     0
 42
0.000000001
 43
0.00000001
 40
0.0
 40
0.0
 40
0.0
 40
0.0
 40
0.25
 40
0.25
 40
0.5
 40
0.5
 40
0.75
 40
0.75
 40
1.0
 40
1.0
 40
1.0
 40
1.0
 10
168.7749276034366
 20
111.4598699003693
 30
0.0
 10
168.7184718388278
 20
111.5037019328641
 30
0.0
 10
168.647606212578
 20
111.5370329692859
 30
0.0
 10
168.4991491314053
 20
111.5349739591385
 30
0.0
 10
168.4299557720978
 20
111.5003779347368
 30
0.0
 10
168.3202403339636
 20
111.4147125780739
 30
0.0
 10
168.2749957546322
 20
111.3626901333659
 30
0.0
 10
168.1953690452085
 20
111.255141873036
 30
0.0
 10
168.160758896675
 20
111.198739710303
 30
0.0
 10
168.1290434641758
 20
111.1409559847135
 30
0.0
  0
SPLINE
  5
114
330
1F
100
AcDbEntity
  8
0
  6
HIDDEN
 62
     7
370
    18
100
AcDbSpline
210
0.0
220
0.0
230
1.0
 70
     8
 71
     3
 72
    10
 73
     6
 74
     0
 42
0.000000001
 43
0.00000001
 40
0.0
 40
0.0
 40
0.0
 40
0.0
 40
0.5
 40
0.5
 40
1.0
 40
1.0
 40
1.0
 40
1.0
 10
168.1290434641764
 20
111.1409559847145
 30
0.0
 10
168.0572636762529
 20
111.0101772678126
 30
0.0
 10
168.0048041619449
 20
110.8760771183094
 30
0.0
 10
167.9154610978437
 20
110.6079845553207
 30
0.0
 10
167.8794654883439
 20
110.4737391837318
 30
0.0
 10
167.8485841487458
 20
110.3403848062568
 30
0.0
  0
SPLINE
  5
115
330
1F
100
AcDbEntity
  8
0
  6
HIDDEN
 62
     7
370
    18
100
AcDbSpline
210
0.0
220
0.0
230
1.0
 70
     8
 71
     3
 72
    10
 73
     6
 74
     0
 42
0.000000001
 43
0.00000001
 40
0.0
 40
0.0
 40
0.0
 40
0.0
 40
0.5
 40
0.5
 40
1.0
 40
1.0
 40
1.0
 40
1.0
 10
167.8485841487458
 20
106.1385216617844
 30
0.0
 10
167.8794571805581
 20
106.1222385144172
 30
0.0
 10
167.915444043471
 20
106.1099809246917
 30
0.0
 10
168.0047786293622
 20
106.0928779358629
 30
0.0
 10
168.0572344887847
 20
106.0880783400046
 30
0.0
 10
168.129043464177
 20
106.0862742485966
 30
0.0
  0
SPLINE
  5
116
330
1F
100
AcDbEntity
  8
0
  6
HIDDEN
 62
     7
370
    18
100
AcDbSpline
210
0.0
220
0.0
230
1.0
 70
     8
 71
     3
 72
     8
 73
     4
 74
     0
 42
0.000000001
 43
0.00000001
 40
0.0
 40
0.0
 40
0.0
 40
0.0
 40
1.0
 40
1.0
 40
1.0
 40
1.0
 10
168.9522078689305
 20
105.9603898703496
 30
0.0
 10
168.9661946774725
 20
105.9321494797679
 30
0.0
 10
168.9699044923052
 20
105.9090174369571
 30
0.0
 10
168.9699044923055
 20
105.8886770641219
 30
0.0
  0
LINE
  5
117
330
1F
100
AcDbEntity
  8
0
  6
HIDDEN
 62
     7
370
    18
100
AcDbLine
 10
168.9699044923
 20
105.5956112509
 30
0.0
 11
168.9699044923
 21
105.8886770641
 31
0.0
  0
LINE
  5
118
330
1F
100
AcDbEntity
  8
0
  6
HIDDEN
 62
     7
370
    18
100
AcDbLine
 10
168.9699044923
 20
117.4509512972
 30
0.0
 11
168.9594798624
 21
117.5728381104
 31
0.0
  0
LINE
  5
119
330
1F
100
AcDbEntity
  8
0
  6
HIDDEN
 62
     7
370
    18
100
AcDbLine
 10
168.9699044923
 20
140.9821859955
 30
0.0
 11
168.9699044923
 21
141.2752518087
 31
0.0
  0
SPLINE
  5
11A
330
1F
100
AcDbEntity
  8
0
  6
HIDDEN
 62
     7
370
    18
100
AcDbSpline
210
0.0
220
0.0
230
1.0
 70
     8
 71
     3
 72
    10
 73
     6
 74
     0
 42
0.000000001
 43
0.00000001
 40
0.0
 40
0.0
 40
0.0
 40
0.0
 40
0.5
 40
0.5
 40
1.0
 40
1.0
 40
1.0
 40
1.0
 10
168.129043464177
 20
140.7845888109817
 30
0.0
 10
168.0572344887847
 20
140.7827847195738
 30
0.0
 10
168.0047786293622
 20
140.7779851237154
 30
0.0
 10
167.915444043471
 20
140.7608821348867
 30
0.0
 10
167.8794571805581
 20
140.7486245451611
 30
0.0
 10
167.8485841487458
 20
140.732341397794
 30
0.0
  0
SPLINE
  5
11B
330
1F
100
AcDbEntity
  8
0
  6
HIDDEN
 62
     7
370
    18
100
AcDbSpline
210
0.0
220
0.0
230
1.0
 70
     8
 71
     3
 72
    10
 73
     6
 74
     0
 42
0.000000001
 43
0.00000001
 40
0.0
 40
0.0
 40
0.0
 40
0.0
 40
0.5
 40
0.5
 40
1.0
 40
1.0
 40
1.0
 40
1.0
 10
167.8485841487458
 20
136.5304782533216
 30
0.0
 10
167.879465488344
 20
136.3971238758463
 30
0.0
 10
167.9154610978438
 20
136.2628785042573
 30
0.0
 10
168.0048041619451
 20
135.9947859412681
 30
0.0
 10
168.0572636762533
 20
135.8606857917646
 30
0.0
 10
168.1290434641771
 20
135.7299070748626
 30
0.0
  0
LINE
  5
11C
330
1F
100
AcDbEntity
  8
0
  6
HIDDEN
 62
     7
370
    18
100
AcDbLine
 10
168.9699044923
 20
105.8886770641
 30
0.0
 11
168.9699044923
 21
117.4509512972
 31
0.0
  0
LINE
  5
11D
330
1F
100
AcDbEntity
  8
0
  6
HIDDEN
 62
     7
370
    18
100
AcDbLine
 10
168.9699044923
 20
129.4199117624
 30
0.0
 11
168.9699044923
 21
140.9821859955
 31
0.0
  0
CIRCLE
  5
11E
330
1F
100
AcDbEntity
  8
0
  6
HIDDEN
 62
     7
370
    18
100
AcDbCircle
 10
155.1699044923
 20
123.4354315298
 30
0.0
 40
3.050000000000011
  0
LINE
  5
11F
330
1F
100
AcDbEntity
  8
0
  6
HIDDEN
 62
     7
370
    18
100
AcDbLine
 10
240.1699044923
 20
109.7354315298
 30
0.0
 11
240.1699044923
 21
137.1354315298
 31
0.0
  0
LINE
  5
120
330
1F
100
AcDbEntity
  8
0
  6
HIDDEN
 62
     7
370
    18
100
AcDbLine
 10
181.1699044923
 20
135.8354315298
 30
0.0
 11
181.1699044923
 21
111.0354315298
 31
0.0
  0
LINE
  5
121
330
1F
100
AcDbEntity
  8
0
  6
HIDDEN
 62
     7
370
    18
100
AcDbLine
 10
187.1699044923
 20
135.9354315298
 30
0.0
 11
187.1699044923
 21
110.9354315298
 31
0.0
  0
SPLINE
  5
122
330
1F
100
AcDbEntity
  8
0
  6
HIDDEN
 62
     7
370
    18
100
AcDbSpline
210
0.0
220
0.0
230
1.0
 70
    11
 71
     3
 72
    76
 73
    72
 74
     0
 42
0.000000001
 43
0.00000001
 40
0.0
 40
0.0
 40
0.0
 40
0.0
 40
0.0312500000000001
 40
0.0312500000000001
 40
0.0625000000000003
 40
0.0625000000000003
 40
0.0937500000000004
 40
0.0937500000000004
 40
0.1250000000000006
 40
0.1250000000000006
 40
0.1562500000000007
 40
0.1562500000000007
 40
0.1875000000000009
 40
0.1875000000000009
 40
0.203125000000001
 40
0.203125000000001
 40
0.2187500000000011
 40
0.2187500000000011
 40
0.2500000000000012
 40
0.2500000000000012
 40
0.2812500000000013
 40
0.2812500000000013
 40
0.3125000000000013
 40
0.3125000000000013
 40
0.3437500000000014
 40
0.3437500000000014
 40
0.3750000000000015
 40
0.3750000000000015
 40
0.4062500000000016
 40
0.4062500000000016
 40
0.4375000000000017
 40
0.4375000000000017
 40
0.4687500000000018
 40
0.4687500000000018
 40
0.5000000000000019
 40
0.5000000000000019
 40
0.515625000000002
 40
0.515625000000002
 40
0.531250000000002
 40
0.531250000000002
 40
0.5625000000000016
 40
0.5625000000000016
 40
0.593750000000001
 40
0.593750000000001
 40
0.6250000000000004
 40
0.6250000000000004
 40
0.65625
 40
0.65625
 40
0.6718749999999998
 40
0.6718749999999998
 40
0.6874999999999997
 40
0.6874999999999997
 40
0.7187499999999997
 40
0.7187499999999997
 40
0.7499999999999997
 40
0.7499999999999997
 40
0.7812499999999998
 40
0.7812499999999998
 40
0.8124999999999998
 40
0.8124999999999998
 40
0.8437499999999998
 40
0.8437499999999998
 40
0.8749999999999999
 40
0.8749999999999999
 40
0.9062499999999999
 40
0.9062499999999999
 40
0.9374999999999999
 40
0.9374999999999999
 40
0.96875
 40
0.96875
 40
1.0
 40
1.0
 40
1.0
 40
1.0
 10
223.1699044923054
 20
118.4354315297892
 30
0.0
 10
222.8358673867427
 20
118.4354315297892
 30
0.0
 10
222.5081980726993
 20
118.4685613461689
 30
0.0
 10
221.8647997631777
 20
118.5976266088883
 30
0.0
 10
221.5457128253649
 20
118.6952993858494
 30
0.0
 10
220.9423911985428
 20
118.9471093667665
 30
0.0
 10
220.6567999487648
 20
119.1006700626002
 30
0.0
 10
220.1162472709769
 20
119.462897200319
 30
0.0
 10
219.8634443779897
 20
119.6709587790014
 30
0.0
 10
219.4073852503624
 20
120.1267486297527
 30
0.0
 10
219.2008296338378
 20
120.3770799689751
 30
0.0
 10
218.8360939524688
 20
120.9204453058797
 30
0.0
 10
218.6824886563656
 20
121.2063137090945
 30
0.0
 10
218.4942022164277
 20
121.6565906113405
 30
0.0
 10
218.4385155130064
 20
121.8102868716096
 30
0.0
 10
218.3418063516577
 20
122.1252387280549
 30
0.0
 10
218.3007693430477
 20
122.2870639749818
 30
0.0
 10
218.2030945735098
 20
122.772332893659
 30
0.0
 10
218.1703172093459
 20
123.099130452122
 30
0.0
 10
218.1694994462754
 20
123.7593463185963
 30
0.0
 10
218.2026150815879
 20
124.0942619209728
 30
0.0
 10
218.3315978721471
 20
124.7388158259605
 30
0.0
 10
218.4271762195166
 20
125.0527368566219
 30
0.0
 10
218.6812071222816
 20
125.6627042813967
 30
0.0
 10
218.8355617168859
 20
125.9490993535135
 30
0.0
 10
219.1963636653166
 20
126.4876481864359
 30
0.0
 10
219.4053412006253
 20
126.7419023119438
 30
0.0
 10
219.8628789182687
 20
127.1995074672504
 30
0.0
 10
220.1116412808743
 20
127.4043741644903
 30
0.0
 10
220.6507803502547
 20
127.7666545747129
 30
0.0
 10
220.9415380749014
 20
127.9231963977299
 30
0.0
 10
221.5413171992263
 20
128.1739285308391
 30
0.0
 10
221.8532928629368
 20
128.2703675115742
 30
0.0
 10
222.5036601592679
 20
128.4019384128252
 30
0.0
 10
222.8338715728015
 20
128.4349529238744
 30
0.0
 10
223.3271231868343
 20
128.4356630599603
 30
0.0
 10
223.4917019092559
 20
128.4278103370744
 30
0.0
 10
223.8211881066044
 20
128.3955957797644
 30
0.0
 10
223.9868567257161
 20
128.3710066139173
 30
0.0
 10
224.4730532899534
 20
128.2739284722447
 30
0.0
 10
224.7859846663944
 20
128.1783712222622
 30
0.0
 10
225.3906726158358
 20
127.9271328775004
 30
0.0
 10
225.6816465688332
 20
127.770856573407
 30
0.0
 10
226.2196310040574
 20
127.4108468252452
 30
0.0
 10
226.4707821680732
 20
127.2051231128637
 30
0.0
 10
226.9325096562146
 20
126.7443846032565
 30
0.0
 10
227.1377160164109
 20
126.4950261762149
 30
0.0
 10
227.4085959919555
 20
126.092432902316
 30
0.0
 10
227.4926828926162
 20
125.9534398792264
 30
0.0
 10
227.6480777425816
 20
125.665396436809
 30
0.0
 10
227.7193963631342
 20
125.5160400788113
 30
0.0
 10
227.9089549490317
 20
125.0628938601084
 30
0.0
 10
228.00497743954
 20
124.7508235149827
 30
0.0
 10
228.1356268814209
 20
124.1060936161097
 30
0.0
 10
228.1695151040149
 20
123.7708974456432
 30
0.0
 10
228.1702870249022
 20
123.1116751752278
 30
0.0
 10
228.1383992444153
 20
122.7839242026889
 30
0.0
 10
228.0085004213405
 20
122.1322080898014
 30
0.0
 10
227.9118683470635
 20
121.8166740761133
 30
0.0
 10
227.66109491235
 20
121.2137642494424
 30
0.0
 10
227.5045121502187
 20
120.9220692938451
 30
0.0
 10
227.1423242322401
 20
120.3816314893663
 30
0.0
 10
226.9373069573152
 20
120.1321192715559
 30
0.0
 10
226.4789791178586
 20
119.6730893960544
 30
0.0
 10
226.2254399240625
 20
119.4645229566008
 30
0.0
 10
225.6889134074028
 20
119.1042647404582
 30
0.0
 10
225.4036246572664
 20
118.9500064934187
 30
0.0
 10
224.795761098909
 20
118.6956916817579
 30
0.0
 10
224.4809093644507
 20
118.5992007641794
 30
0.0
 10
223.8370425845271
 20
118.4692671588762
 30
0.0
 10
223.503941597868
 20
118.4354315297892
 30
0.0
 10
223.1699044923054
 20
118.4354315297892
 30
0.0
  0
SPLINE
  5
123
330
1F
100
AcDbEntity
  8
0
  6
HIDDEN
 62
     7
370
    18
100
AcDbSpline
210
0.0
220
0.0
230
1.0
 70
    11
 71
     3
 72
    76
 73
    72
 74
     0
 42
0.000000001
 43
0.00000001
 40
0.0
 40
0.0
 40
0.0
 40
0.0
 40
0.0312500000000002
 40
0.0312500000000002
 40
0.0625000000000003
 40
0.0625000000000003
 40
0.0937500000000005
 40
0.0937500000000005
 40
0.1250000000000006
 40
0.1250000000000006
 40
0.1562500000000008
 40
0.1562500000000008
 40
0.1875000000000009
 40
0.1875000000000009
 40
0.2031250000000009
 40
0.2031250000000009
 40
0.2187500000000009
 40
0.2187500000000009
 40
0.2500000000000009
 40
0.2500000000000009
 40
0.281250000000001
 40
0.281250000000001
 40
0.3125000000000011
 40
0.3125000000000011
 40
0.3437500000000012
 40
0.3437500000000012
 40
0.3750000000000013
 40
0.3750000000000013
 40
0.4062500000000014
 40
0.4062500000000014
 40
0.4375000000000015
 40
0.4375000000000015
 40
0.4687500000000016
 40
0.4687500000000016
 40
0.5000000000000017
 40
0.5000000000000017
 40
0.5156250000000017
 40
0.5156250000000017
 40
0.5312500000000014
 40
0.5312500000000014
 40
0.5625000000000019
 40
0.5625000000000019
 40
0.5937500000000022
 40
0.5937500000000022
 40
0.6250000000000027
 40
0.6250000000000027
 40
0.656250000000003
 40
0.656250000000003
 40
0.671875000000003
 40
0.671875000000003
 40
0.687500000000003
 40
0.687500000000003
 40
0.7187500000000027
 40
0.7187500000000027
 40
0.7500000000000023
 40
0.7500000000000023
 40
0.7812500000000021
 40
0.7812500000000021
 40
0.8125000000000018
 40
0.8125000000000018
 40
0.8437500000000016
 40
0.8437500000000016
 40
0.8750000000000012
 40
0.8750000000000012
 40
0.906250000000001
 40
0.906250000000001
 40
0.9375000000000007
 40
0.9375000000000007
 40
0.9687500000000004
 40
0.9687500000000004
 40
1.0
 40
1.0
 40
1.0
 40
1.0
 10
200.1699044923054
 20
118.4354315297892
 30
0.0
 10
199.8358673867427
 20
118.4354315297892
 30
0.0
 10
199.5081980726993
 20
118.4685613461689
 30
0.0
 10
198.8647997631777
 20
118.5976266088883
 30
0.0
 10
198.5457128253649
 20
118.6952993858494
 30
0.0
 10
197.9423911985428
 20
118.9471093667665
 30
0.0
 10
197.6567999487648
 20
119.1006700626002
 30
0.0
 10
197.1162472709769
 20
119.462897200319
 30
0.0
 10
196.8634443779896
 20
119.6709587790014
 30
0.0
 10
196.4073852503624
 20
120.1267486297527
 30
0.0
 10
196.2008296338378
 20
120.3770799689751
 30
0.0
 10
195.8360939524688
 20
120.9204453058797
 30
0.0
 10
195.6824886563655
 20
121.2063137090945
 30
0.0
 10
195.4942022164277
 20
121.6565906113405
 30
0.0
 10
195.4385155130063
 20
121.8102868716096
 30
0.0
 10
195.3418063516577
 20
122.1252387280549
 30
0.0
 10
195.3007693430477
 20
122.2870639749818
 30
0.0
 10
195.2030945735098
 20
122.772332893659
 30
0.0
 10
195.1703172093459
 20
123.099130452122
 30
0.0
 10
195.1694994462754
 20
123.7593463185963
 30
0.0
 10
195.2026150815879
 20
124.0942619209728
 30
0.0
 10
195.3315978721471
 20
124.7388158259605
 30
0.0
 10
195.4271762195166
 20
125.0527368566219
 30
0.0
 10
195.6812071222816
 20
125.6627042813967
 30
0.0
 10
195.8355617168859
 20
125.9490993535135
 30
0.0
 10
196.1963636653166
 20
126.4876481864359
 30
0.0
 10
196.4053412006253
 20
126.7419023119438
 30
0.0
 10
196.8628789182687
 20
127.1995074672504
 30
0.0
 10
197.1116412808743
 20
127.4043741644903
 30
0.0
 10
197.6507803502547
 20
127.7666545747129
 30
0.0
 10
197.9415380749014
 20
127.9231963977299
 30
0.0
 10
198.5413171992263
 20
128.1739285308391
 30
0.0
 10
198.8532928629368
 20
128.2703675115742
 30
0.0
 10
199.5036601592679
 20
128.4019384128252
 30
0.0
 10
199.8338715728015
 20
128.4349529238744
 30
0.0
 10
200.3271231868343
 20
128.4356630599603
 30
0.0
 10
200.4917019092559
 20
128.4278103370744
 30
0.0
 10
200.8211881066044
 20
128.3955957797644
 30
0.0
 10
200.9868567257161
 20
128.3710066139173
 30
0.0
 10
201.4730532899533
 20
128.2739284722447
 30
0.0
 10
201.7859846663944
 20
128.1783712222622
 30
0.0
 10
202.3906726158358
 20
127.9271328775004
 30
0.0
 10
202.6816465688332
 20
127.770856573407
 30
0.0
 10
203.2196310040574
 20
127.4108468252452
 30
0.0
 10
203.4707821680732
 20
127.2051231128637
 30
0.0
 10
203.9325096562146
 20
126.7443846032565
 30
0.0
 10
204.137716016411
 20
126.4950261762149
 30
0.0
 10
204.4085959919555
 20
126.092432902316
 30
0.0
 10
204.4926828926162
 20
125.9534398792264
 30
0.0
 10
204.6480777425816
 20
125.665396436809
 30
0.0
 10
204.7193963631342
 20
125.5160400788114
 30
0.0
 10
204.9089549490317
 20
125.0628938601084
 30
0.0
 10
205.00497743954
 20
124.7508235149827
 30
0.0
 10
205.135626881421
 20
124.1060936161097
 30
0.0
 10
205.1695151040149
 20
123.7708974456432
 30
0.0
 10
205.1702870249022
 20
123.1116751752278
 30
0.0
 10
205.1383992444152
 20
122.783924202689
 30
0.0
 10
205.0085004213405
 20
122.1322080898014
 30
0.0
 10
204.9118683470635
 20
121.8166740761133
 30
0.0
 10
204.66109491235
 20
121.2137642494424
 30
0.0
 10
204.5045121502187
 20
120.9220692938451
 30
0.0
 10
204.1423242322401
 20
120.3816314893663
 30
0.0
 10
203.9373069573152
 20
120.1321192715559
 30
0.0
 10
203.4789791178586
 20
119.6730893960544
 30
0.0
 10
203.2254399240625
 20
119.4645229566008
 30
0.0
 10
202.6889134074029
 20
119.1042647404582
 30
0.0
 10
202.4036246572665
 20
118.9500064934187
 30
0.0
 10
201.795761098909
 20
118.6956916817579
 30
0.0
 10
201.4809093644507
 20
118.5992007641794
 30
0.0
 10
200.8370425845272
 20
118.4692671588762
 30
0.0
 10
200.5039415978681
 20
118.4354315297892
 30
0.0
 10
200.1699044923054
 20
118.4354315297892
 30
0.0
  0
LINE
  5
124
330
1F
100
AcDbEntity
  8
0
  6
HIDDEN
 62
     7
370
    18
100
AcDbLine
 10
144.1979443479
 20
134.2241066644
 30
0.0
 11
144.1979443479
 21
112.6467563952
 31
0.0
  0
LINE
  5
125
330
1F
100
AcDbEntity
  8
0
  6
HIDDEN
 62
     7
370
    18
100
AcDbLine
 10
140.1979443479
 20
134.6053045109
 30
0.0
 11
140.1979443479
 21
112.2655585487
 31
0.0
  0
LINE
  5
126
330
1F
100
AcDbEntity
  8
0
  6
HIDDEN
 62
     7
370
    18
100
AcDbLine
 10
139.1699044923
 20
111.6720194613
 30
0.0
 11
139.1699044923
 21
135.1832463712
 31
0.0
  0
LINE
  5
127
330
1F
100
AcDbEntity
  8
0
  6
HIDDEN
 62
     7
370
    18
100
AcDbLine
 10
148.7979443479
 20
133.9354315298
 30
0.0
 11
148.7979443479
 21
112.9354315298
 31
0.0
  0
LINE
  5
128
330
1F
100
AcDbEntity
  8
0
  6
HIDDEN
 62
     7
370
    18
100
AcDbLine
 10
142.6979443479
 20
133.9354315298
 30
0.0
 11
142.6979443479
 21
112.9354315298
 31
0.0
  0
LINE
  5
129
330
1F
100
AcDbEntity
  8
0
  6
HIDDEN
 62
     7
370
    18
100
AcDbLine
 10
143.6979443479
 20
133.9354315298
 30
0.0
 11
143.6979443479
 21
112.9354315298
 31
0.0
  0
SPLINE
  5
12A
330
1F
100
AcDbEntity
  8
0
  6
HIDDEN
 62
     7
370
    18
100
AcDbSpline
210
0.0
220
0.0
230
1.0
 70
    11
 71
     3
 72
    66
 73
    62
 74
     0
 42
0.000000001
 43
0.00000001
 40
0.0
 40
0.0
 40
0.0
 40
0.0
 40
0.0312499999999998
 40
0.0312499999999998
 40
0.0624999999999997
 40
0.0624999999999997
 40
0.0937499999999995
 40
0.0937499999999995
 40
0.1249999999999994
 40
0.1249999999999994
 40
0.1874999999999992
 40
0.1874999999999992
 40
0.2187499999999991
 40
0.2187499999999991
 40
0.249999999999999
 40
0.249999999999999
 40
0.2812499999999989
 40
0.2812499999999989
 40
0.3124999999999988
 40
0.3124999999999988
 40
0.3437499999999988
 40
0.3437499999999988
 40
0.3749999999999987
 40
0.3749999999999987
 40
0.4062499999999987
 40
0.4062499999999987
 40
0.4374999999999986
 40
0.4374999999999986
 40
0.4687499999999986
 40
0.4687499999999986
 40
0.4999999999999986
 40
0.4999999999999986
 40
0.5312499999999986
 40
0.5312499999999986
 40
0.5624999999999984
 40
0.5624999999999984
 40
0.5937499999999984
 40
0.5937499999999984
 40
0.6249999999999986
 40
0.6249999999999986
 40
0.6562499999999988
 40
0.6562499999999988
 40
0.687499999999999
 40
0.687499999999999
 40
0.7187499999999991
 40
0.7187499999999991
 40
0.7499999999999993
 40
0.7499999999999993
 40
0.7812499999999996
 40
0.7812499999999996
 40
0.8124999999999997
 40
0.8124999999999997
 40
0.8749999999999999
 40
0.8749999999999999
 40
0.9062500000000001
 40
0.9062500000000001
 40
0.9375000000000001
 40
0.9375000000000001
 40
0.96875
 40
0.96875
 40
1.0
 40
1.0
 40
1.0
 40
1.0
 10
155.1699044923054
 20
126.4854315297892
 30
0.0
 10
155.3725831392532
 20
126.4854315297892
 30
0.0
 10
155.5716430305891
 20
126.4654319701726
 30
0.0
 10
155.9628970151688
 20
126.3872884674724
 30
0.0
 10
156.1571697739165
 20
126.3281273659517
 30
0.0
 10
156.5259332004677
 20
126.1746956790574
 30
0.0
 10
156.700658358846
 20
126.0809688692151
 30
0.0
 10
157.0313356623798
 20
125.8597147668103
 30
0.0
 10
157.1869832063826
 20
125.7317333998157
 30
0.0
 10
157.6064505760513
 20
125.3121783028156
 30
0.0
 10
157.8333387175816
 20
124.9736997441123
 30
0.0
 10
158.0621353409664
 20
124.423820856394
 30
0.0
 10
158.1213275958152
 20
124.2304210106506
 30
0.0
 10
158.2001350060758
 20
123.8361928602927
 30
0.0
 10
158.2197744223562
 20
123.6375540328604
 30
0.0
 10
158.2200332867777
 20
123.237253746962
 30
0.0
 10
158.1999626021448
 20
123.0339144202409
 30
0.0
 10
158.1216249195148
 20
122.6418228996333
 30
0.0
 10
158.0636751514764
 20
122.4511170313181
 30
0.0
 10
157.9097320095964
 20
122.0803932147315
 30
0.0
 10
157.8147933958737
 20
121.9036665549227
 30
0.0
 10
157.5944359799965
 20
121.5744134439983
 30
0.0
 10
157.4671559540682
 20
121.4192922204018
 30
0.0
 10
157.1854003627377
 20
121.1376155254714
 30
0.0
 10
157.0326120332802
 20
121.0121823405671
 30
0.0
 10
156.7031849511233
 20
120.791406747213
 30
0.0
 10
156.5246389479716
 20
120.6955754945128
 30
0.0
 10
156.1570666224214
 20
120.5427463640177
 30
0.0
 10
155.9669125957104
 20
120.4845746060735
 30
0.0
 10
155.573372173008
 20
120.4055813137286
 30
0.0
 10
155.3709381017468
 20
120.3855181880863
 30
0.0
 10
154.9715090263814
 20
120.3853454419676
 30
0.0
 10
154.7714900478255
 20
120.4048288160569
 30
0.0
 10
154.3753741003761
 20
120.4838203876581
 30
0.0
 10
154.1846412721843
 20
120.54210060751
 30
0.0
 10
153.8170098316046
 20
120.694668228118
 30
0.0
 10
153.6385233994368
 20
120.7902770148913
 30
0.0
 10
153.3083181404727
 20
121.0112890599763
 30
0.0
 10
153.1554295624108
 20
121.1367389587465
 30
0.0
 10
152.8738331678727
 20
121.4179694477518
 30
0.0
 10
152.7462022449972
 20
121.5733523256658
 30
0.0
 10
152.5258768099974
 20
121.9022031837087
 30
0.0
 10
152.431650353032
 20
122.0770912901227
 30
0.0
 10
152.276715832429
 20
122.4492351414835
 30
0.0
 10
152.2187035468267
 20
122.6400411832924
 30
0.0
 10
152.1402842925486
 20
123.0309142012112
 30
0.0
 10
152.119970212582
 20
123.2333717625934
 30
0.0
 10
152.119839096278
 20
123.6355023675129
 30
0.0
 10
152.1394637896374
 20
123.834226412688
 30
0.0
 10
152.2176302400511
 20
124.2270658838247
 30
0.0
 10
152.2769176853909
 20
124.4217101612273
 30
0.0
 10
152.5059985284738
 20
124.9731499146415
 30
0.0
 10
152.732829379368
 20
125.3114894803407
 30
0.0
 10
153.1521680806887
 20
125.7311551429922
 30
0.0
 10
153.3075210764387
 20
125.8590011487654
 30
0.0
 10
153.6384889095758
 20
126.0806022234672
 30
0.0
 10
153.8130502097722
 20
126.1742429574442
 30
0.0
 10
154.180623517347
 20
126.3273970781434
 30
0.0
 10
154.3753103789851
 20
126.3869008237894
 30
0.0
 10
154.7677863289216
 20
126.4654235728524
 30
0.0
 10
154.9672258453576
 20
126.4854315297892
 30
0.0
 10
155.1699044923054
 20
126.4854315297892
 30
0.0
  0
SPLINE
  5
12B
330
1F
100
AcDbEntity
  8
0
  6
HIDDEN
 62
     7
370
    18
100
AcDbSpline
210
0.0
220
0.0
230
1.0
 70
    11
 71
     3
 72
    66
 73
    62
 74
     0
 42
0.000000001
 43
0.00000001
 40
0.0
 40
0.0
 40
0.0
 40
0.0
 40
0.03125
 40
0.03125
 40
0.0625000000000001
 40
0.0625000000000001
 40
0.0937500000000001
 40
0.0937500000000001
 40
0.1250000000000001
 40
0.1250000000000001
 40
0.1874999999999999
 40
0.1874999999999999
 40
0.2187499999999998
 40
0.2187499999999998
 40
0.2499999999999996
 40
0.2499999999999996
 40
0.2812499999999995
 40
0.2812499999999995
 40
0.3124999999999993
 40
0.3124999999999993
 40
0.3437499999999992
 40
0.3437499999999992
 40
0.3749999999999991
 40
0.3749999999999991
 40
0.4062499999999989
 40
0.4062499999999989
 40
0.4374999999999991
 40
0.4374999999999991
 40
0.4687499999999991
 40
0.4687499999999991
 40
0.4999999999999992
 40
0.4999999999999992
 40
0.5312499999999992
 40
0.5312499999999992
 40
0.5624999999999993
 40
0.5624999999999993
 40
0.5937499999999993
 40
0.5937499999999993
 40
0.6249999999999993
 40
0.6249999999999993
 40
0.6562499999999994
 40
0.6562499999999994
 40
0.6874999999999994
 40
0.6874999999999994
 40
0.7187499999999994
 40
0.7187499999999994
 40
0.7499999999999994
 40
0.7499999999999994
 40
0.7812499999999997
 40
0.7812499999999997
 40
0.8124999999999998
 40
0.8124999999999998
 40
0.875
 40
0.875
 40
0.90625
 40
0.90625
 40
0.9375
 40
0.9375
 40
0.9687500000000001
 40
0.9687500000000001
 40
1.0
 40
1.0
 40
1.0
 40
1.0
 10
155.1699044923054
 20
126.4854315297892
 30
0.0
 10
154.9672258453576
 20
126.4854315297892
 30
0.0
 10
154.7681659540218
 20
126.4654319701726
 30
0.0
 10
154.3769119694421
 20
126.3872884674724
 30
0.0
 10
154.1826392106944
 20
126.3281273659517
 30
0.0
 10
153.8138757841431
 20
126.1746956790574
 30
0.0
 10
153.6391506257648
 20
126.0809688692151
 30
0.0
 10
153.3084733222311
 20
125.8597147668103
 30
0.0
 10
153.1528257782282
 20
125.7317333998157
 30
0.0
 10
152.7333584085596
 20
125.3121783028156
 30
0.0
 10
152.5064702670292
 20
124.9736997441123
 30
0.0
 10
152.2776736436445
 20
124.423820856394
 30
0.0
 10
152.2184813887957
 20
124.2304210106506
 30
0.0
 10
152.1396739785351
 20
123.8361928602927
 30
0.0
 10
152.1200345622547
 20
123.6375540328604
 30
0.0
 10
152.1197756978331
 20
123.237253746962
 30
0.0
 10
152.1398463824661
 20
123.0339144202409
 30
0.0
 10
152.218184065096
 20
122.6418228996333
 30
0.0
 10
152.2761338331345
 20
122.4511170313181
 30
0.0
 10
152.4300769750145
 20
122.0803932147315
 30
0.0
 10
152.5250155887371
 20
121.9036665549227
 30
0.0
 10
152.7453730046143
 20
121.5744134439983
 30
0.0
 10
152.8726530305426
 20
121.4192922204018
 30
0.0
 10
153.1544086218732
 20
121.1376155254714
 30
0.0
 10
153.3071969513307
 20
121.0121823405671
 30
0.0
 10
153.6366240334876
 20
120.791406747213
 30
0.0
 10
153.8151700366393
 20
120.6955754945128
 30
0.0
 10
154.1827423621895
 20
120.5427463640177
 30
0.0
 10
154.3728963889004
 20
120.4845746060735
 30
0.0
 10
154.7664368116029
 20
120.4055813137286
 30
0.0
 10
154.9688708828641
 20
120.3855181880863
 30
0.0
 10
155.3682999582294
 20
120.3853454419676
 30
0.0
 10
155.5683189367853
 20
120.4048288160569
 30
0.0
 10
155.9644348842347
 20
120.4838203876581
 30
0.0
 10
156.1551677124266
 20
120.54210060751
 30
0.0
 10
156.5227991530063
 20
120.694668228118
 30
0.0
 10
156.7012855851741
 20
120.7902770148913
 30
0.0
 10
157.0314908441381
 20
121.0112890599763
 30
0.0
 10
157.1843794222001
 20
121.1367389587465
 30
0.0
 10
157.4659758167382
 20
121.4179694477518
 30
0.0
 10
157.5936067396136
 20
121.5733523256658
 30
0.0
 10
157.8139321746135
 20
121.9022031837087
 30
0.0
 10
157.9081586315788
 20
122.0770912901227
 30
0.0
 10
158.0630931521819
 20
122.4492351414835
 30
0.0
 10
158.1211054377842
 20
122.6400411832924
 30
0.0
 10
158.1995246920623
 20
123.0309142012112
 30
0.0
 10
158.2198387720288
 20
123.2333717625934
 30
0.0
 10
158.2199698883328
 20
123.6355023675129
 30
0.0
 10
158.2003451949734
 20
123.834226412688
 30
0.0
 10
158.1221787445598
 20
124.2270658838247
 30
0.0
 10
158.0628912992199
 20
124.4217101612273
 30
0.0
 10
157.833810456137
 20
124.9731499146415
 30
0.0
 10
157.6069796052428
 20
125.3114894803407
 30
0.0
 10
157.1876409039222
 20
125.7311551429922
 30
0.0
 10
157.0322879081722
 20
125.8590011487654
 30
0.0
 10
156.701320075035
 20
126.0806022234672
 30
0.0
 10
156.5267587748386
 20
126.1742429574442
 30
0.0
 10
156.1591854672638
 20
126.3273970781434
 30
0.0
 10
155.9644986056257
 20
126.3869008237894
 30
0.0
 10
155.5720226556893
 20
126.4654235728524
 30
0.0
 10
155.3725831392532
 20
126.4854315297892
 30
0.0
 10
155.1699044923054
 20
126.4854315297892
 30
0.0
  0
LINE
  5
12C
330
1F
100
AcDbEntity
  8
0
  6
HIDDEN
 62
     7
370
    18
100
AcDbLine
 10
159.1699044923
 20
133.4354315298
 30
0.0
 11
159.1699044923
 21
113.4354315298
 31
0.0
  0
LINE
  5
12D
330
1F
100
AcDbEntity
  8
0
  6
HIDDEN
 62
     7
370
    18
100
AcDbLine
 10
160.1699044923
 20
130.6854315298
 30
0.0
 11
160.1699044923
 21
116.1854315298
 31
0.0
  0
LINE
  5
12E
330
1F
100
AcDbEntity
  8
0
  6
HIDDEN
 62
     7
370
    18
100
AcDbLine
 10
159.1699044923
 20
115.1854315298
 30
0.0
 11
159.1699044923
 21
131.6697839919
 31
0.0
  0
LINE
  5
12F
330
1F
100
AcDbEntity
  8
0
  6
HIDDEN
 62
     7
370
    18
100
AcDbLine
 10
181.1699044923
 20
116.1854315298
 30
0.0
 11
181.1699044923
 21
130.6854315298
 31
0.0
  0
LINE
  5
130
330
1F
100
AcDbEntity
  8
0
  6
HIDDEN
 62
     7
370
    18
100
AcDbLine
 10
140.6699044923
 20
140.2947827717
 30
0.0
 11
140.6699044923
 21
135.4850040552
 31
0.0
  0
LINE
  5
131
330
1F
100
AcDbEntity
  8
0
  6
HIDDEN
 62
     7
370
    18
100
AcDbLine
 10
139.1699044923
 20
139.428757368
 30
0.0
 11
139.1699044923
 21
135.0519913533
 31
0.0
  0
LINE
  5
132
330
1F
100
AcDbEntity
  8
0
  6
HIDDEN
 62
     7
370
    18
100
AcDbLine
 10
166.9699044923
 20
140.9555303144
 30
0.0
 11
166.9699044923
 21
135.8153778265
 31
0.0
  0
SPLINE
  5
133
330
1F
100
AcDbEntity
  8
0
  6
HIDDEN
 62
     7
370
    18
100
AcDbSpline
210
0.0
220
0.0
230
1.0
 70
     8
 71
     3
 72
    18
 73
    14
 74
     0
 42
0.000000001
 43
0.00000001
 40
0.0
 40
0.0
 40
0.0
 40
0.0
 40
0.2499999999999993
 40
0.2499999999999993
 40
0.3749999999999993
 40
0.3749999999999993
 40
0.4999999999999994
 40
0.4999999999999994
 40
0.6249999999999996
 40
0.6249999999999996
 40
0.7499999999999996
 40
0.7499999999999996
 40
1.0
 40
1.0
 40
1.0
 40
1.0
 10
167.8485841487458
 20
110.3403848062568
 30
0.0
 10
167.7132985424434
 20
109.7561832125251
 30
0.0
 10
167.6121307962005
 20
109.2219655253169
 30
0.0
 10
167.5092694533316
 20
108.4960687544285
 30
0.0
 10
167.4831666078083
 20
108.2661882666486
 30
0.0
 10
167.4482766242635
 20
107.8356173218618
 30
0.0
 10
167.4396903659735
 20
107.6379224163676
 30
0.0
 10
167.4395906564078
 20
107.2765743736898
 30
0.0
 10
167.4480790275563
 20
107.1129243637437
 30
0.0
 10
167.4822224070769
 20
106.8197130907747
 30
0.0
 10
167.5080193889308
 20
106.6897170246589
 30
0.0
 10
167.6114205203187
 20
106.355661132097
 30
0.0
 10
167.7132785124901
 20
106.2098849677322
 30
0.0
 10
167.8485841487458
 20
106.1385216617844
 30
0.0
  0
LINE
  5
134
330
1F
100
AcDbEntity
  8
0
  6
HIDDEN
 62
     7
370
    18
100
AcDbLine
 10
166.9699044923
 20
111.055485233
 30
0.0
 11
166.9699044923
 21
105.9153327452
 31
0.0
  0
SPLINE
  5
135
330
1F
100
AcDbEntity
  8
0
  6
HIDDEN
 62
     7
370
    18
100
AcDbSpline
210
0.0
220
0.0
230
1.0
 70
     8
 71
     3
 72
    18
 73
    14
 74
     0
 42
0.000000001
 43
0.00000001
 40
0.0
 40
0.0
 40
0.0
 40
0.0
 40
0.2500000000000004
 40
0.2500000000000004
 40
0.3750000000000004
 40
0.3750000000000004
 40
0.5000000000000004
 40
0.5000000000000004
 40
0.6250000000000004
 40
0.6250000000000004
 40
0.7500000000000003
 40
0.7500000000000003
 40
1.0
 40
1.0
 40
1.0
 40
1.0
 10
167.8485841487458
 20
140.732341397794
 30
0.0
 10
167.7132985424435
 20
140.6609886561045
 30
0.0
 10
167.6121307962005
 20
140.5155852495151
 30
0.0
 10
167.5092694533316
 20
140.1861180139094
 30
0.0
 10
167.4831666078083
 20
140.0571844371047
 30
0.0
 10
167.4482766242635
 20
139.7616424377686
 30
0.0
 10
167.4396903659735
 20
139.5972476642466
 30
0.0
 10
167.4395906564078
 20
139.236286049506
 30
0.0
 10
167.4480790275563
 20
139.0397162573438
 30
0.0
 10
167.4822224070769
 20
138.6143614612188
 30
0.0
 10
167.5080193889308
 20
138.3845918114192
 30
0.0
 10
167.6114205203187
 20
137.6520031169868
 30
0.0
 10
167.7132785124901
 20
137.1147663420692
 30
0.0
 10
167.8485841487458
 20
136.5304782533216
 30
0.0
  0
LINE
  5
136
330
1F
100
AcDbEntity
  8
0
  6
HIDDEN
 62
     7
370
    18
100
AcDbLine
 10
140.6699044923
 20
111.3858590043
 30
0.0
 11
140.6699044923
 21
106.5760802878
 31
0.0
  0
LINE
  5
137
330
1F
100
AcDbEntity
  8
0
  6
HIDDEN
 62
     7
370
    18
100
AcDbLine
 10
139.1699044923
 20
111.8188717062
 30
0.0
 11
139.1699044923
 21
107.4421056916
 31
0.0
  0
LINE
  5
138
330
1F
100
AcDbEntity
  8
0
  6
HIDDEN
 62
     7
370
    18
100
AcDbLine
 10
139.1699044923
 20
135.0519913533
 30
0.0
 11
139.1699044923
 21
125.774602458
 31
0.0
  0
LINE
  5
139
330
1F
100
AcDbEntity
  8
0
  6
HIDDEN
 62
     7
370
    18
100
AcDbLine
 10
139.1699044923
 20
121.0962606016
 30
0.0
 11
139.1699044923
 21
111.8188717062
 31
0.0
  0
LINE
  5
13A
330
1F
100
AcDbEntity
  8
0
  6
HIDDEN
 62
     7
370
    18
100
AcDbLine
 10
140.6699044923
 20
120.2869544115
 30
0.0
 11
140.6699044923
 21
111.3858590043
 31
0.0
  0
LINE
  5
13B
330
1F
100
AcDbEntity
  8
0
  6
HIDDEN
 62
     7
370
    18
100
AcDbLine
 10
140.6699044923
 20
135.4850040552
 30
0.0
 11
140.6699044923
 21
126.5839086481
 31
0.0
  0
LINE
  5
13C
330
1F
100
AcDbEntity
  8
0
  6
HIDDEN
 62
     7
370
    18
100
AcDbLine
 10
166.9699044923
 20
135.8153778265
 30
0.0
 11
166.9699044923
 21
111.055485233
 31
0.0
  0
LINE
  5
13D
330
1F
100
AcDbEntity
  8
0
  6
HIDDEN
 62
     7
370
    18
100
AcDbLine
 10
168.9699044923
 20
134.9977057629
 30
0.0
 11
168.9699044923
 21
111.8731572967
 31
0.0
  0
SPLINE
  5
13E
330
1F
100
AcDbEntity
  8
0
  6
HIDDEN
 62
     7
370
    18
100
AcDbSpline
210
0.0
220
0.0
230
1.0
 70
     8
 71
     3
 72
    26
 73
    22
 74
     0
 42
0.000000001
 43
0.00000001
 40
0.0
 40
0.0
 40
0.0
 40
0.0
 40
0.1250000000000002
 40
0.1250000000000002
 40
0.2500000000000003
 40
0.2500000000000003
 40
0.3750000000000005
 40
0.3750000000000005
 40
0.4375000000000006
 40
0.4375000000000006
 40
0.5000000000000007
 40
0.5000000000000007
 40
0.5625000000000008
 40
0.5625000000000008
 40
0.6250000000000009
 40
0.6250000000000009
 40
0.7500000000000006
 40
0.7500000000000006
 40
0.8750000000000002
 40
0.8750000000000002
 40
1.0
 40
1.0
 40
1.0
 40
1.0
 10
144.6699044923054
 20
120.2169337693401
 30
0.0
 10
144.8805478543054
 20
120.4515508002852
 30
0.0
 10
145.0877442920624
 20
120.6894339362446
 30
0.0
 10
145.4892434266947
 20
121.1767482425135
 30
0.0
 10
145.6845198457407
 20
121.4268734673025
 30
0.0
 10
146.0443003384362
 20
121.9454636127534
 30
0.0
 10
146.2095591985855
 20
122.2128945966403
 30
0.0
 10
146.4022171080117
 20
122.6443097290388
 30
0.0
 10
146.4571818482218
 20
122.7943286109632
 30
0.0
 10
146.5349176331859
 20
123.1070657896932
 30
0.0
 10
146.5561837714942
 20
123.2648200365004
 30
0.0
 10
146.55807770078
 20
123.5835253163462
 30
0.0
 10
146.5378519637129
 20
123.7459621165268
 30
0.0
 10
146.4633875534271
 20
124.0569141161094
 30
0.0
 10
146.4097484276811
 20
124.2075853544371
 30
0.0
 10
146.2150041222805
 20
124.6496691124057
 30
0.0
 10
146.0479540091022
 20
124.9197131255734
 30
0.0
 10
145.6876978903986
 20
125.4398207538548
 30
0.0
 10
145.4929455153782
 20
125.6894819666645
 30
0.0
 10
145.0899362909059
 20
126.1789060785073
 30
0.0
 10
144.8814997725424
 20
126.4182520016712
 30
0.0
 10
144.6699044923064
 20
126.6539292902391
 30
0.0
  0
LINE
  5
13F
330
1F
100
AcDbEntity
  8
0
  6
HIDDEN
 62
     7
370
    18
100
AcDbLine
 10
144.6699044923
 20
120.2169337693
 30
0.0
 11
144.6699044923
 21
126.6539292902
 31
0.0
  0
SPLINE
  5
140
330
1F
100
AcDbEntity
  8
0
  6
HIDDEN
 62
     7
370
    18
100
AcDbSpline
210
0.0
220
0.0
230
1.0
 70
     8
 71
     3
 72
     8
 73
     4
 74
     0
 42
0.000000001
 43
0.00000001
 40
0.0000202085968836
 40
0.0000202085968836
 40
0.0000202085968836
 40
0.0000202085968836
 40
0.0040218806502652
 40
0.0040218806502652
 40
0.0040218806502652
 40
0.0040218806502652
 10
140.6699044923054
 20
120.2869544114525
 30
0.0
 10
142.003227618096
 20
120.2629561802888
 30
0.0
 10
143.3365614913186
 20
120.2396284401205
 30
0.0
 10
144.6699044923054
 20
120.2169337693401
 30
0.0
  0
SPLINE
  5
141
330
1F
100
AcDbEntity
  8
0
  6
HIDDEN
 62
     7
370
    18
100
AcDbSpline
210
0.0
220
0.0
230
1.0
 70
     8
 71
     3
 72
     8
 73
     4
 74
     0
 42
0.000000001
 43
0.00000001
 40
0.0000202082942178
 40
0.0000202082942178
 40
0.0000202082942178
 40
0.0000202082942178
 40
0.0040218803475994
 40
0.0040218803475994
 40
0.0040218803475994
 40
0.0040218803475994
 10
144.6699044923054
 20
126.6539292902383
 30
0.0
 10
143.3365614913186
 20
126.6312346194579
 30
0.0
 10
142.003227618096
 20
126.6079068792895
 30
0.0
 10
140.6699044923054
 20
126.5839086481259
 30
0.0
  0
SPLINE
  5
142
330
1F
100
AcDbEntity
  8
0
  6
HIDDEN
 62
     7
370
    18
100
AcDbSpline
210
0.0
220
0.0
230
1.0
 70
     8
 71
     3
 72
     8
 73
     4
 74
     0
 42
0.000000001
 43
0.00000001
 40
0.0
 40
0.0
 40
0.0
 40
0.0
 40
1.0
 40
1.0
 40
1.0
 40
1.0
 10
139.1699044923045
 20
121.0962606015548
 30
0.0
 10
139.6441159027425
 20
120.7615313742597
 30
0.0
 10
140.1488522498444
 20
120.5024729604268
 30
0.0
 10
140.6699044923054
 20
120.2869544114525
 30
0.0
  0
SPLINE
  5
143
330
1F
100
AcDbEntity
  8
0
  6
HIDDEN
 62
     7
370
    18
100
AcDbSpline
210
0.0
220
0.0
230
1.0
 70
     8
 71
     3
 72
     8
 73
     4
 74
     0
 42
0.000000001
 43
0.00000001
 40
0.0
 40
0.0
 40
0.0
 40
0.0
 40
1.0
 40
1.0
 40
1.0
 40
1.0
 10
140.6699044923054
 20
126.5839086481259
 30
0.0
 10
140.1488522498447
 20
126.3683900991517
 30
0.0
 10
139.6441159027431
 20
126.109331685319
 30
0.0
 10
139.1699044923054
 20
125.7746024580242
 30
0.0
  0
LINE
  5
144
330
1F
100
AcDbEntity
  8
0
  6
HIDDEN
 62
     7
370
    18
100
AcDbLine
 10
139.1699044923
 20
121.0962606016
 30
0.0
 11
139.1699044923
 21
125.774602458
 31
0.0
  0
SPLINE
  5
145
330
1F
100
AcDbEntity
  8
0
  6
HIDDEN
 62
     7
370
    18
100
AcDbSpline
210
0.0
220
0.0
230
1.0
 70
    11
 71
     3
 72
    68
 73
    64
 74
     0
 42
0.000000001
 43
0.00000001
 40
0.0
 40
0.0
 40
0.0
 40
0.0
 40
0.03125
 40
0.03125
 40
0.0624999999999999
 40
0.0624999999999999
 40
0.0937499999999997
 40
0.0937499999999997
 40
0.1249999999999995
 40
0.1249999999999995
 40
0.1562499999999993
 40
0.1562499999999993
 40
0.1874999999999991
 40
0.1874999999999991
 40
0.249999999999999
 40
0.249999999999999
 40
0.2812499999999991
 40
0.2812499999999991
 40
0.3124999999999991
 40
0.3124999999999991
 40
0.3437499999999991
 40
0.3437499999999991
 40
0.3749999999999992
 40
0.3749999999999992
 40
0.4062499999999992
 40
0.4062499999999992
 40
0.4374999999999992
 40
0.4374999999999992
 40
0.4687499999999993
 40
0.4687499999999993
 40
0.4999999999999993
 40
0.4999999999999993
 40
0.5312499999999993
 40
0.5312499999999993
 40
0.5624999999999994
 40
0.5624999999999994
 40
0.5937499999999994
 40
0.5937499999999994
 40
0.6249999999999994
 40
0.6249999999999994
 40
0.6562499999999996
 40
0.6562499999999996
 40
0.6874999999999996
 40
0.6874999999999996
 40
0.7187499999999997
 40
0.7187499999999997
 40
0.7499999999999997
 40
0.7499999999999997
 40
0.7812499999999997
 40
0.7812499999999997
 40
0.8124999999999998
 40
0.8124999999999998
 40
0.8437499999999998
 40
0.8437499999999998
 40
0.8749999999999998
 40
0.8749999999999998
 40
0.9062499999999999
 40
0.9062499999999999
 40
0.9374999999999999
 40
0.9374999999999999
 40
0.96875
 40
0.96875
 40
1.0
 40
1.0
 40
1.0
 40
1.0
 10
153.0571089168855
 20
125.8289398391544
 30
0.0
 10
153.2245526767219
 20
125.9645604575279
 30
0.0
 10
153.4028188986576
 20
126.0822017503995
 30
0.0
 10
153.7798435955509
 20
126.2835332744094
 30
0.0
 10
153.9800323169273
 20
126.367341477623
 30
0.0
 10
154.3867003565582
 20
126.4954335011914
 30
0.0
 10
154.5946155225783
 20
126.5407382981515
 30
0.0
 10
155.0196038218018
 20
126.593896009457
 30
0.0
 10
155.2356404727857
 20
126.6011781934926
 30
0.0
 10
155.6601514416373
 20
126.5776307559553
 30
0.0
 10
155.870678415027
 20
126.5471265534783
 30
0.0
 10
156.288163625814
 20
126.4472669400111
 30
0.0
 10
156.4910271593924
 20
126.3786710522503
 30
0.0
 10
157.0723436784072
 20
126.1213296090314
 30
0.0
 10
157.432750931183
 20
125.8747797177215
 30
0.0
 10
157.8774899279447
 20
125.4215411616466
 30
0.0
 10
158.0126791480872
 20
125.2539605821702
 30
0.0
 10
158.2456190226895
 20
124.8950985072588
 30
0.0
 10
158.3423023683442
 20
124.7063399869047
 30
0.0
 10
158.4955336329936
 20
124.3098263106964
 30
0.0
 10
158.5521505903617
 20
124.0994819016095
 30
0.0
 10
158.6176027921966
 20
123.6780933733266
 30
0.0
 10
158.6275611508238
 20
123.465577254163
 30
0.0
 10
158.6007271416567
 20
123.0368024790627
 30
0.0
 10
158.5637074778838
 20
122.8242362509158
 30
0.0
 10
158.4465441988471
 20
122.4149416068378
 30
0.0
 10
158.3650053213522
 20
122.2140929351302
 30
0.0
 10
158.1637661099482
 20
121.8369661766191
 30
0.0
 10
158.0448343747774
 20
121.6607458550895
 30
0.0
 10
157.7716605616851
 20
121.3319897341073
 30
0.0
 10
157.6177997869749
 20
121.1806915662078
 30
0.0
 10
157.287877188959
 20
120.9131044127285
 30
0.0
 10
157.1095553638874
 20
120.7946332520177
 30
0.0
 10
156.731531363965
 20
120.5917464480829
 30
0.0
 10
156.5356023651838
 20
120.5091274936349
 30
0.0
 10
156.1305170773495
 20
120.3796873171041
 30
0.0
 10
155.9191822794795
 20
120.3327120866736
 30
0.0
 10
155.4952974898271
 20
120.2779971317554
 30
0.0
 10
155.2828622165648
 20
120.2697673833123
 30
0.0
 10
154.8570101492698
 20
120.291258881113
 30
0.0
 10
154.6418659858602
 20
120.3216565033314
 30
0.0
 10
154.2267364461199
 20
120.4193989602196
 30
0.0
 10
154.0251114803761
 20
120.4865174739685
 30
0.0
 10
153.6340249811051
 20
120.6581605741288
 30
0.0
 10
153.4442053722141
 20
120.7635066329134
 30
0.0
 10
153.0936147520424
 20
121.004209574608
 30
0.0
 10
152.9306082723959
 20
121.1403324509407
 30
0.0
 10
152.6305459497073
 20
121.4459859201747
 30
0.0
 10
152.495277052503
 20
121.6144375996635
 30
0.0
 10
152.2643330996702
 20
121.970718285947
 30
0.0
 10
152.1668508801979
 20
122.1604719653537
 30
0.0
 10
152.0118683207933
 20
122.5630803276379
 30
0.0
 10
151.9570017999762
 20
122.768920071311
 30
0.0
 10
151.8915939293121
 20
123.1894997076334
 30
0.0
 10
151.881447683479
 20
123.4070015249311
 30
0.0
 10
151.9081160460186
 20
123.8337416638917
 30
0.0
 10
151.9441534378451
 20
124.0436443729789
 30
0.0
 10
152.061564583413
 20
124.4565331936374
 30
0.0
 10
152.1426921180312
 20
124.6568561384213
 30
0.0
 10
152.3424491622206
 20
125.0330946568863
 30
0.0
 10
152.4629516613467
 20
125.2125494021341
 30
0.0
 10
152.7370321067126
 20
125.5428973302239
 30
0.0
 10
152.8896651570491
 20
125.6933192207809
 30
0.0
 10
153.0571089168855
 20
125.8289398391544
 30
0.0
  0
CIRCLE
  5
146
330
1F
100
AcDbEntity
  8
0
  6
HIDDEN
 62
     7
370
    18
100
AcDbCircle
 10
155.1699044923
 20
123.4354315298
 30
0.0
 40
3.050000000000011
  0
CIRCLE
  5
147
330
1F
100
AcDbEntity
  8
0
  6
HIDDEN
 62
     7
370
    18
100
AcDbCircle
 10
181.1699044923
 20
123.4354315298
 30
0.0
 40
2.0
  0
LINE
  5
148
330
1F
100
AcDbEntity
  8
0
  6
HIDDEN
 62
     7
370
    18
100
AcDbLine
 10
169.1699044923
 20
103.8854315298
 30
0.0
 11
169.2627977111
 21
103.9783247486
 31
0.0
  0
LINE
  5
149
330
1F
100
AcDbEntity
  8
0
  6
HIDDEN
 62
     7
370
    18
100
AcDbLine
 10
169.2627977111
 20
142.892538311
 30
0.0
 11
169.1699044923
 21
142.9854315298
 31
0.0
  0
ARC
  5
14A
330
1F
100
AcDbEntity
  8
0
  6
HIDDEN
 62
     7
370
    18
100
AcDbCircle
 10
168.5556909299
 20
104.6854315298
 30
0.0
 40
1.000000000000008
100
AcDbArc
 50
315.0
 51
0.0
  0
ARC
  5
14B
330
1F
100
AcDbEntity
  8
0
  6
HIDDEN
 62
     7
370
    18
100
AcDbCircle
 10
168.5556909299
 20
104.6854315298
 30
0.0
 40
1.0
100
AcDbArc
 50
0.0
 51
52.1052014664
  0
ARC
  5
14C
330
1F
100
AcDbEntity
  8
0
  6
HIDDEN
 62
     7
370
    18
100
AcDbCircle
 10
168.5556909299
 20
142.1854315298
 30
0.0
 40
1.000000000000008
100
AcDbArc
 50
351.8087250651
 51
45.0
  0
ARC
  5
14D
330
1F
100
AcDbEntity
  8
0
  6
HIDDEN
 62
     7
370
    18
100
AcDbCircle
 10
168.5556909299
 20
142.1854315298
 30
0.0
 40
1.000000000000006
100
AcDbArc
 50
307.8947985336
 51
351.8087250651
  0
LINE
  5
14E
330
1F
100
AcDbEntity
  8
0
  6
HIDDEN
 62
     7
370
    18
100
AcDbLine
 10
169.5556909299
 20
104.6854315298
 30
0.0
 11
169.5556909299
 21
142.1854315298
 31
0.0
  0
LINE
  5
14F
330
1F
100
AcDbEntity
  8
0
  6
HIDDEN
 62
     7
370
    18
100
AcDbLine
 10
169.5556909299
 20
104.6854315298
 30
0.0
 11
169.5556909299
 21
142.1854315298
 31
0.0
  0
ARC
  5
150
330
1F
100
AcDbEntity
  8
0
  6
HIDDEN
 62
     7
370
    18
100
AcDbCircle
 10
238.9699044923
 20
109.7354315298
 30
0.0
 40
1.200000000000017
100
AcDbArc
 50
0.0
 51
90.0
  0
ARC
  5
151
330
1F
100
AcDbEntity
  8
0
  6
HIDDEN
 62
     7
370
    18
100
AcDbCircle
 10
238.9699044923
 20
137.1354315298
 30
0.0
 40
1.200000000000017
100
AcDbArc
 50
270.0
 51
0.0
  0
LINE
  5
152
330
1F
100
AcDbEntity
  8
0
  6
HIDDEN
 62
     7
370
    18
100
AcDbLine
 10
181.5699044923
 20
110.6354315298
 30
0.0
 11
186.2751304742
 21
110.6354315298
 31
0.0
  0
LINE
  5
153
330
1F
100
AcDbEntity
  8
0
  6
HIDDEN
 62
     7
370
    18
100
AcDbLine
 10
186.2751304742
 20
136.2354315298
 30
0.0
 11
181.5699044923
 21
136.2354315298
 31
0.0
  0
ARC
  5
154
330
1F
100
AcDbEntity
  8
0
  6
HIDDEN
 62
     7
370
    18
100
AcDbCircle
 10
186.2751304742
 20
111.0354315298
 30
0.0
 40
0.4000000000000057
100
AcDbArc
 50
270.0
 51
290.0
  0
ARC
  5
155
330
1F
100
AcDbEntity
  8
0
  6
HIDDEN
 62
     7
370
    18
100
AcDbCircle
 10
186.2751304742
 20
135.8354315298
 30
0.0
 40
0.4000000000000057
100
AcDbArc
 50
70.0
 51
90.0
  0
ARC
  5
156
330
1F
100
AcDbEntity
  8
0
  6
HIDDEN
 62
     7
370
    18
100
AcDbCircle
 10
181.5699044923
 20
111.0354315298
 30
0.0
 40
0.4000000000000057
100
AcDbArc
 50
180.0
 51
270.0
  0
ARC
  5
157
330
1F
100
AcDbEntity
  8
0
  6
HIDDEN
 62
     7
370
    18
100
AcDbCircle
 10
181.5699044923
 20
135.8354315298
 30
0.0
 40
0.4000000000000057
100
AcDbArc
 50
90.0
 51
180.0
  0
LINE
  5
158
330
1F
100
AcDbEntity
  8
0
  6
HIDDEN
 62
     7
370
    18
100
AcDbLine
 10
186.4119385315
 20
110.6595544815
 30
0.0
 11
187.1699044923
 21
110.9354315298
 31
0.0
  0
LINE
  5
159
330
1F
100
AcDbEntity
  8
0
  6
HIDDEN
 62
     7
370
    18
100
AcDbLine
 10
187.1699044923
 20
135.9354315298
 30
0.0
 11
186.4119385315
 21
136.2113085781
 31
0.0
  0
LINE
  5
15A
330
1F
100
AcDbEntity
  8
0
  6
HIDDEN
 62
     7
370
    18
100
AcDbLine
 10
187.1699044923
 20
110.9354315298
 30
0.0
 11
238.9699044923
 21
110.9354315298
 31
0.0
  0
LINE
  5
15B
330
1F
100
AcDbEntity
  8
0
  6
HIDDEN
 62
     7
370
    18
100
AcDbLine
 10
238.9699044923
 20
135.9354315298
 30
0.0
 11
187.1699044923
 21
135.9354315298
 31
0.0
  0
ARC
  5
15C
330
1F
100
AcDbEntity
  8
0
  6
HIDDEN
 62
     7
370
    18
100
AcDbCircle
 10
145.6699044923
 20
112.9354315298
 30
0.0
 40
1.500000000000048
100
AcDbArc
 50
191.0958032831
 51
270.0
  0
ARC
  5
15D
330
1F
100
AcDbEntity
  8
0
  6
HIDDEN
 62
     7
370
    18
100
AcDbCircle
 10
145.6699044923
 20
133.9354315298
 30
0.0
 40
1.500000000000048
100
AcDbArc
 50
90.0
 51
168.9041967169
  0
LINE
  5
15E
330
1F
100
AcDbEntity
  8
0
  6
HIDDEN
 62
     7
370
    18
100
AcDbLine
 10
145.6699044923
 20
111.4354315298
 30
0.0
 11
146.6766240044
 21
111.4354315298
 31
0.0
  0
LINE
  5
15F
330
1F
100
AcDbEntity
  8
0
  6
HIDDEN
 62
     7
370
    18
100
AcDbLine
 10
146.6766240044
 20
135.4354315298
 30
0.0
 11
145.6699044923
 21
135.4354315298
 31
0.0
  0
ARC
  5
160
330
1F
100
AcDbEntity
  8
0
  6
HIDDEN
 62
     7
370
    18
100
AcDbCircle
 10
146.6766240044
 20
112.9354315298
 30
0.0
 40
1.500000000000002
100
AcDbArc
 50
270.0
 51
315.0
  0
ARC
  5
161
330
1F
100
AcDbEntity
  8
0
  6
HIDDEN
 62
     7
370
    18
100
AcDbCircle
 10
146.6766240044
 20
133.9354315298
 30
0.0
 40
1.5
100
AcDbArc
 50
45.0
 51
90.0
  0
LINE
  5
162
330
1F
100
AcDbEntity
  8
0
  6
HIDDEN
 62
     7
370
    18
100
AcDbLine
 10
139.1699044923
 20
111.6720194613
 30
0.0
 11
140.1979443479
 21
112.2655585487
 31
0.0
  0
LINE
  5
163
330
1F
100
AcDbEntity
  8
0
  6
HIDDEN
 62
     7
370
    18
100
AcDbLine
 10
140.1979443479
 20
134.6053045109
 30
0.0
 11
139.1699044923
 21
135.1988435982
 31
0.0
  0
LINE
  5
164
330
1F
100
AcDbEntity
  8
0
  6
HIDDEN
 62
     7
370
    18
100
AcDbLine
 10
147.7372841761
 20
111.874771358
 30
0.0
 11
148.7979443479
 21
112.9354315298
 31
0.0
  0
LINE
  5
165
330
1F
100
AcDbEntity
  8
0
  6
HIDDEN
 62
     7
370
    18
100
AcDbLine
 10
148.7979443479
 20
133.9354315298
 30
0.0
 11
147.7372841761
 21
134.9960917016
 31
0.0
  0
LINE
  5
166
330
1F
100
AcDbEntity
  8
0
  6
HIDDEN
 62
     7
370
    18
100
AcDbLine
 10
140.1979443479
 20
112.2655585487
 30
0.0
 11
142.6979443479
 21
112.9354315298
 31
0.0
  0
LINE
  5
167
330
1F
100
AcDbEntity
  8
0
  6
HIDDEN
 62
     7
370
    18
100
AcDbLine
 10
142.6979443479
 20
133.9354315298
 30
0.0
 11
140.1979443479
 21
134.6053045109
 31
0.0
  0
LINE
  5
168
330
1F
100
AcDbEntity
  8
0
  6
HIDDEN
 62
     7
370
    18
100
AcDbLine
 10
144.1979443479
 20
134.2241066644
 30
0.0
 11
143.6979443479
 21
133.9354315298
 31
0.0
  0
LINE
  5
169
330
1F
100
AcDbEntity
  8
0
  6
HIDDEN
 62
     7
370
    18
100
AcDbLine
 10
143.6979443479
 20
112.9354315298
 30
0.0
 11
144.1979443479
 21
112.6467563952
 31
0.0
  0
LINE
  5
16A
330
1F
100
AcDbEntity
  8
0
  6
HIDDEN
 62
     7
370
    18
100
AcDbLine
 10
142.6979443479
 20
112.9354315298
 30
0.0
 11
143.6979443479
 21
112.9354315298
 31
0.0
  0
LINE
  5
16B
330
1F
100
AcDbEntity
  8
0
  6
HIDDEN
 62
     7
370
    18
100
AcDbLine
 10
143.6979443479
 20
133.9354315298
 30
0.0
 11
142.6979443479
 21
133.9354315298
 31
0.0
  0
LINE
  5
16C
330
1F
100
AcDbEntity
  8
0
  6
HIDDEN
 62
     7
370
    18
100
AcDbLine
 10
148.7979443479
 20
112.9354315298
 30
0.0
 11
158.6699044923
 21
112.9354315298
 31
0.0
  0
LINE
  5
16D
330
1F
100
AcDbEntity
  8
0
  6
HIDDEN
 62
     7
370
    18
100
AcDbLine
 10
158.6699044923
 20
133.9354315298
 30
0.0
 11
148.7979443479
 21
133.9354315298
 31
0.0
  0
ARC
  5
16E
330
1F
100
AcDbEntity
  8
0
  6
HIDDEN
 62
     7
370
    18
100
AcDbCircle
 10
158.6699044923
 20
113.4354315298
 30
0.0
 40
0.5
100
AcDbArc
 50
270.0
 51
0.0
  0
ARC
  5
16F
330
1F
100
AcDbEntity
  8
0
  6
HIDDEN
 62
     7
370
    18
100
AcDbCircle
 10
158.6699044923
 20
133.4354315298
 30
0.0
 40
0.5
100
AcDbArc
 50
0.0
 51
90.0
  0
LINE
  5
170
330
1F
100
AcDbEntity
  8
0
  6
HIDDEN
 62
     7
370
    18
100
AcDbLine
 10
159.1699044923
 20
115.1854315298
 30
0.0
 11
160.1699044923
 21
116.1854315298
 31
0.0
  0
LINE
  5
171
330
1F
100
AcDbEntity
  8
0
  6
HIDDEN
 62
     7
370
    18
100
AcDbLine
 10
160.1699044923
 20
130.6854315298
 30
0.0
 11
159.1699044923
 21
131.6854315298
 31
0.0
  0
LINE
  5
172
330
1F
100
AcDbEntity
  8
0
  6
HIDDEN
 62
     7
370
    18
100
AcDbLine
 10
160.1699044923
 20
116.1854315298
 30
0.0
 11
181.1699044923
 21
116.1854315298
 31
0.0
  0
LINE
  5
173
330
1F
100
AcDbEntity
  8
0
  6
HIDDEN
 62
     7
370
    18
100
AcDbLine
 10
181.1699044923
 20
130.6854315298
 30
0.0
 11
160.1699044923
 21
130.6854315298
 31
0.0
  0
LINE
  5
174
330
1F
100
AcDbEntity
  8
0
  6
HIDDEN
 62
     7
370
    18
100
AcDbLine
 10
169.4699044923
 20
148.4354315298
 30
0.0
 11
169.4699044923
 21
98.4354315298
 31
0.0
  0
LINE
  5
175
330
1F
100
AcDbEntity
  8
0
  6
HIDDEN
 62
     7
370
    18
100
AcDbLine
 10
188.5699044923
 20
148.4354315298
 30
0.0
 11
188.5699044923
 21
98.4354315298
 31
0.0
  0
LINE
  5
176
330
1F
100
AcDbEntity
  8
0
  6
HIDDEN
 62
     7
370
    18
100
AcDbLine
 10
190.1699044923
 20
100.9354315298
 30
0.0
 11
190.1699044923
 21
145.9354315298
 31
0.0
  0
LINE
  5
177
330
1F
100
AcDbEntity
  8
0
  6
HIDDEN
 62
     7
370
    18
100
AcDbLine
 10
169.2627977111
 20
103.9783247486
 30
0.0
 11
169.2627977111
 21
142.892538311
 31
0.0
  0
LINE
  5
178
330
1F
100
AcDbEntity
  8
0
  6
HIDDEN
 62
     7
370
    18
100
AcDbLine
 10
167.8485841487
 20
110.3403848063
 30
0.0
 11
167.8485841487
 21
106.1385216618
 31
0.0
  0
LINE
  5
179
330
1F
100
AcDbEntity
  8
0
  6
HIDDEN
 62
     7
370
    18
100
AcDbLine
 10
167.8485841487
 20
140.7323413978
 30
0.0
 11
167.8485841487
 21
136.5304782533
 31
0.0
  0
LINE
  5
17A
330
1F
100
AcDbEntity
  8
0
  6
HIDDEN
 62
     7
370
    18
100
AcDbLine
 10
238.9699044923
 20
110.9354315298
 30
0.0
 11
238.9699044923
 21
135.919893045
 31
0.0
  0
LINE
  5
17B
330
1F
100
AcDbEntity
  8
0
  6
HIDDEN
 62
     7
370
    18
100
AcDbLine
 10
181.5699044923
 20
110.6354315298
 30
0.0
 11
181.5699044923
 21
136.2195201214
 31
0.0
  0
LINE
  5
17C
330
1F
100
AcDbEntity
  8
0
  6
HIDDEN
 62
     7
370
    18
100
AcDbLine
 10
186.2751304742
 20
110.6354315298
 30
0.0
 11
186.2751304742
 21
136.2195201214
 31
0.0
  0
LINE
  5
17D
330
1F
100
AcDbEntity
  8
0
  6
HIDDEN
 62
     7
370
    18
100
AcDbLine
 10
186.4119385315
 20
110.6595544815
 30
0.0
 11
186.4119385315
 21
136.1954271564
 31
0.0
  0
LINE
  5
17E
330
1F
100
AcDbEntity
  8
0
  6
HIDDEN
 62
     7
370
    18
100
AcDbLine
 10
145.6699044923
 20
111.4354315298
 30
0.0
 11
145.6699044923
 21
135.4195206084
 31
0.0
  0
LINE
  5
17F
330
1F
100
AcDbEntity
  8
0
  6
HIDDEN
 62
     7
370
    18
100
AcDbLine
 10
146.6766240044
 20
111.4354315298
 30
0.0
 11
146.6766240044
 21
135.4195206084
 31
0.0
  0
LINE
  5
180
330
1F
100
AcDbEntity
  8
0
  6
HIDDEN
 62
     7
370
    18
100
AcDbLine
 10
147.7372841761
 20
111.874771358
 30
0.0
 11
147.7372841761
 21
134.9960917016
 31
0.0
  0
LINE
  5
181
330
1F
100
AcDbEntity
  8
0
  6
HIDDEN
 62
     7
370
    18
100
AcDbLine
 10
158.6699044923
 20
112.9354315298
 30
0.0
 11
158.6699044923
 21
133.9194874523
 31
0.0
  0
LINE
  5
182
330
1F
100
AcDbEntity
  8
0
  6
HIDDEN
 62
     7
370
    18
100
AcDbLine
 10
139.1699044923
 20
135.0519913533
 30
0.0
 11
140.6699044923
 21
135.4850040552
 31
0.0
  0
LINE
  5
183
330
1F
100
AcDbEntity
  8
0
  6
HIDDEN
 62
     7
370
    18
100
AcDbLine
 10
140.6699044923
 20
135.4850040552
 30
0.0
 11
166.9699044923
 21
135.8153778265
 31
0.0
  0
LINE
  5
184
330
1F
100
AcDbEntity
  8
0
  6
HIDDEN
 62
     7
370
    18
100
AcDbLine
 10
167.1748645144
 20
111.1529421329
 30
0.0
 11
168.1290434642
 21
111.1409559847
 31
0.0
  0
LINE
  5
185
330
1F
100
AcDbEntity
  8
0
  6
HIDDEN
 62
     7
370
    18
100
AcDbLine
 10
167.1748645144
 20
111.1529421329
 30
0.0
 11
167.1748645144
 21
106.110246545
 31
0.0
  0
LWPOLYLINE
  5
186
330
1F
100
AcDbEntity
  8
0
  6
HIDDEN
 62
     7
370
    18
100
AcDbPolyline
 90
        9
 70
   128
 43
0.0
 10
166.9699044923
 20
111.055485233
 10
166.9747261844
 20
111.0749398524
 10
166.9870460448
 20
111.0935503239
 10
167.0063906284
 20
111.1106014577
 10
167.0320165336
 20
111.1254379882
 10
167.0629389713
 20
111.1374897559
 10
167.0979696095
 20
111.1462936181
 10
167.1357622404
 20
111.1515112473
 10
167.1748645144
 20
111.1529421329
  0
LWPOLYLINE
  5
187
330
1F
100
AcDbEntity
  8
0
  6
HIDDEN
 62
     7
370
    18
100
AcDbPolyline
 90
        9
 70
   128
 43
0.0
 10
166.9699044923
 20
135.8153778265
 10
166.9747261844
 20
135.7959232072
 10
166.9870460448
 20
135.7773127357
 10
167.0063906284
 20
135.7602616019
 10
167.0320165336
 20
135.7454250714
 10
167.0629389713
 20
135.7333733037
 10
167.0979696095
 20
135.7245694415
 10
167.1357622404
 20
135.7193518123
 10
167.1748645144
 20
135.7179209266
  0
LINE
  5
188
330
1F
100
AcDbEntity
  8
0
  6
HIDDEN
 62
     7
370
    18
100
AcDbLine
 10
167.1748645144
 20
140.7606165145
 30
0.0
 11
167.1748645144
 21
135.7179209266
 31
0.0
  0
LINE
  5
189
330
1F
100
AcDbEntity
  8
0
  6
HIDDEN
 62
     7
370
    18
100
AcDbLine
 10
167.1748645144
 20
135.7179209266
 30
0.0
 11
168.1290434642
 21
135.7299070749
 31
0.0
  0
LINE
  5
18A
330
1F
100
AcDbEntity
  8
0
  6
HIDDEN
 62
     7
370
    18
100
AcDbLine
 10
140.6699044923
 20
111.3858590043
 30
0.0
 11
166.9699044923
 21
111.055485233
 31
0.0
  0
LINE
  5
18B
330
1F
100
AcDbEntity
  8
0
  6
HIDDEN
 62
     7
370
    18
100
AcDbLine
 10
139.1699044923
 20
111.8188717062
 30
0.0
 11
140.6699044923
 21
111.3858590043
 31
0.0
  0
LINE
  5
18C
330
1F
100
AcDbEntity
  8
0
  6
HIDDEN
 62
     7
370
    18
100
AcDbLine
 10
177.6976613059
 20
131.004241499
 30
0.0
 11
177.6976613059
 21
147.2621626453
 31
0.0
  0
LINE
  5
18D
330
1F
100
AcDbEntity
  8
0
  6
HIDDEN
 62
     7
370
    18
100
AcDbLine
 10
180.6421476787
 20
131.004241499
 30
0.0
 11
180.6421476787
 21
147.2621626453
 31
0.0
  0
LINE
  5
18E
330
1F
100
AcDbEntity
  8
0
  6
HIDDEN
 62
     7
370
    18
100
AcDbLine
 10
180.6421476787
 20
99.6087004143
 30
0.0
 11
180.6421476787
 21
115.8666215606
 31
0.0
  0
LINE
  5
18F
330
1F
100
AcDbEntity
  8
0
  6
HIDDEN
 62
     7
370
    18
100
AcDbLine
 10
177.6976613059
 20
99.6087004143
 30
0.0
 11
177.6976613059
 21
115.8666215606
 31
0.0
  0
LINE
  5
190
330
1F
100
AcDbEntity
  8
0
  6
HIDDEN
 62
     7
370
    18
100
AcDbLine
 10
181.0751603806
 20
131.5318845278
 30
0.0
 11
181.0751603806
 21
147.088073007
 31
0.0
  0
LINE
  5
191
330
1F
100
AcDbEntity
  8
0
  6
HIDDEN
 62
     7
370
    18
100
AcDbLine
 10
177.264648604
 20
131.5318845278
 30
0.0
 11
177.264648604
 21
147.088073007
 31
0.0
  0
LINE
  5
192
330
1F
100
AcDbEntity
  8
0
  6
HIDDEN
 62
     7
370
    18
100
AcDbLine
 10
177.264648604
 20
99.7827900526
 30
0.0
 11
177.264648604
 21
115.3389785317
 31
0.0
  0
LINE
  5
193
330
1F
100
AcDbEntity
  8
0
  6
HIDDEN
 62
     7
370
    18
100
AcDbLine
 10
181.0751603806
 20
99.7827900526
 30
0.0
 11
181.0751603806
 21
115.3389785317
 31
0.0
  0
LINE
  5
194
330
1F
100
AcDbEntity
  8
0
  6
HIDDEN
 62
     7
370
    18
100
AcDbLine
 10
167.1748645144
 20
135.7179209266
 30
0.0
 11
167.1748645144
 21
111.1529421329
 31
0.0
  0
LINE
  5
195
330
1F
100
AcDbEntity
  8
0
  6
HIDDEN
 62
     7
370
    18
100
AcDbLine
 10
168.7749276034
 20
135.4109931592
 30
0.0
 11
168.7749276034
 21
111.4598699004
 31
0.0
  0
DIMENSION
  5
196
330
1F
100
AcDbEntity
  8
VERMASSUNG
100
AcDbDimension
  2
_D
 10
252.3271631392
 20
110.9354315298
 30
0.0
 11
252.3271631392
 21
123.4354315298
 31
0.0
 70
   160
  1
K25 %%c<>
 71
     2
 42
-1.0
  3
SLDDIMSTYLE0
100
AcDbAlignedDimension
 13
238.9699044923
 23
135.9354315298
 33
0.0
 14
238.9699044923
 24
110.9354315298
 34
0.0
 50
90.0
100
AcDbRotatedDimension
  0
DIMENSION
  5
1A3
330
1F
100
AcDbEntity
  8
VERMASSUNG
100
AcDbDimension
  2
_D_1
 10
262.1699044923
 20
145.9354315298
 30
0.0
 11
262.1699044923
 21
123.4354315298
 31
0.0
 70
   160
  1
%%c<>
 71
     2
 42
-1.0
  3
SLDDIMSTYLE0
100
AcDbAlignedDimension
 13
238.6699044923
 23
100.9354315298
 33
0.0
 14
238.6699044923
 24
145.9354315298
 34
0.0
 50
90.0
100
AcDbRotatedDimension
  0
DIMENSION
  5
1AE
330
1F
100
AcDbEntity
  8
VERMASSUNG
100
AcDbDimension
  2
_D_2
 10
240.1699044923
 20
161.0545657016
 30
0.0
 11
214.6699044923
 21
161.0545657016
 31
0.0
 70
   160
  1
<>
 71
     2
 42
-1.0
  3
SLDDIMSTYLE0
100
AcDbAlignedDimension
 13
189.1699044923
 23
147.8354315298
 33
0.0
 14
240.1699044923
 24
144.4354315298
 34
0.0
100
AcDbRotatedDimension
  0
DIMENSION
  5
1B8
330
1F
100
AcDbEntity
  8
VERMASSUNG
100
AcDbDimension
  2
_D_3
 10
240.1699044923
 20
170.4354315298
 30
0.0
 11
204.6699044923
 21
170.4354315298
 31
0.0
 70
   160
  1
<>
 71
     2
 42
-1.0
  3
SLDDIMSTYLE0
100
AcDbAlignedDimension
 13
169.1699044923
 23
148.1354315298
 33
0.0
 14
240.1699044923
 24
144.4354315298
 34
0.0
100
AcDbRotatedDimension
  0
DIMENSION
  5
1C2
330
1F
100
AcDbEntity
  8
VERMASSUNG
100
AcDbDimension
  2
_D_4
 10
240.1699044923
 20
179.1828507795
 30
0.0
 11
189.6699044923
 21
179.1828507795
 31
0.0
 70
   160
  1
(<>)
 71
     2
 42
-1.0
  3
SLDDIMSTYLE0
100
AcDbAlignedDimension
 13
139.1699044923
 23
139.428757368
 33
0.0
 14
240.1699044923
 24
144.4354315298
 34
0.0
100
AcDbRotatedDimension
  0
DIMENSION
  5
1CE
330
1F
100
AcDbEntity
  8
VERMASSUNG
100
AcDbDimension
  2
_D_5
 10
240.1699044923
 20
88.4354315298
 30
0.0
 11
210.6699044923
 21
88.4354315298
 31
0.0
 70
   160
  1
<>
 71
     2
 42
-1.0
  3
SLDDIMSTYLE0
100
AcDbAlignedDimension
 13
181.1699044923
 23
116.1854315298
 33
0.0
 14
240.1699044923
 24
102.4354315298
 34
0.0
100
AcDbRotatedDimension
  0
DIMENSION
  5
1D8
330
1F
100
AcDbEntity
  8
VERMASSUNG
100
AcDbDimension
  2
_D_6
 10
129.1699044923
 20
98.4354315298
 30
0.0
 11
129.1699044923
 21
123.4354315298
 31
0.0
 70
   160
  1
PSC%%c<>
 71
     2
 42
-1.0
  3
SLDDIMSTYLE0
100
AcDbAlignedDimension
 13
169.4699044923
 23
148.4354315298
 33
0.0
 14
169.4699044923
 24
98.4354315298
 34
0.0
 50
90.0
100
AcDbRotatedDimension
  0
DIMENSION
  5
1E4
330
1F
100
AcDbEntity
  8
VERMASSUNG
100
AcDbDimension
  2
_D_7
 10
190.1699044923
 20
146.9354315298
 30
0.0
 11
197.7423922987
 21
149.9859885761
 31
0.0
 70
   164
  1
<>
 71
     1
 42
-1.0
  3
SLDDIMSTYLE1
100
AcDbRadialDimension
 15
189.2423410796
 25
146.5617657494
 35
0.0
 40
0.0
  0
DIMENSION
  5
1EC
330
1F
100
AcDbEntity
  8
VERMASSUNG
100
AcDbDimension
  2
_D_8
 10
188.5699044923
 20
147.8354315298
 30
0.0
 11
194.232142873
 21
153.4976699105
 31
0.0
 70
   164
  1
<>
 71
     1
 42
-1.0
  3
SLDDIMSTYLE2
100
AcDbRadialDimension
 15
188.994168561
 25
148.2596955985
 35
0.0
 40
0.0
  0
INSERT
  5
200
330
1F
100
AcDbEntity
  8
VERMASSUNG
100
AcDbBlockReference
  2
SW_CENTERMARKSYMBOL_0
 10
223.1699044923
 20
123.4354315298
 30
0.0
  0
INSERT
  5
20C
330
1F
100
AcDbEntity
  8
VERMASSUNG
100
AcDbBlockReference
  2
SW_CENTERMARKSYMBOL_1
 10
200.1699044923
 20
123.4354315298
 30
0.0
  0
LINE
  5
20D
330
1F
100
AcDbEntity
  8
VERMASSUNG
  6
CENTERX2
370
    18
100
AcDbLine
 10
244.0985775646
 20
123.4354315298
 30
0.0
 11
134.3310528949
 21
123.4354315298
 31
0.0
  0
LINE
  5
20E
330
1F
100
AcDbEntity
  8
0
  6
Continuous
 62
     7
370
    25
100
AcDbLine
 10
56.5912211983
 20
119.5534901446
 30
0.0
 11
59.9731625835
 21
122.9354315298
 31
0.0
  0
LINE
  5
20F
330
1F
100
AcDbEntity
  8
0
  6
Continuous
 62
     7
370
    25
100
AcDbLine
 10
59.9731625835
 20
123.9354315298
 30
0.0
 11
56.5912211983
 21
127.317372915
 31
0.0
  0
LINE
  5
210
330
1F
100
AcDbEntity
  8
0
  6
Continuous
 62
     7
370
    25
100
AcDbLine
 10
46.7192572867
 20
129.181526233
 30
0.0
 11
45.9731625835
 21
128.4354315298
 31
0.0
  0
LINE
  5
211
330
1F
100
AcDbEntity
  8
0
  6
Continuous
 62
     7
370
    25
100
AcDbLine
 10
45.9731625835
 20
118.4354315298
 30
0.0
 11
46.7192572867
 21
117.6893368266
 31
0.0
  0
LINE
  5
212
330
1F
100
AcDbEntity
  8
0
  6
Continuous
 62
     7
370
    25
100
AcDbLine
 10
57.0801897364
 20
118.2924586827
 30
0.0
 11
57.9731625835
 21
119.1854315298
 31
0.0
  0
LINE
  5
213
330
1F
100
AcDbEntity
  8
0
  6
Continuous
 62
     7
370
    25
100
AcDbLine
 10
57.9731625835
 20
127.6854315298
 30
0.0
 11
57.0801897364
 21
128.5784043769
 31
0.0
  0
LINE
  5
214
330
1F
100
AcDbEntity
  8
0
  6
Continuous
 62
     7
370
    25
100
AcDbLine
 10
46.7879141413
 20
129.4354315298
 30
0.0
 11
46.529728243
 21
129.4354315298
 31
0.0
  0
LINE
  5
215
330
1F
100
AcDbEntity
  8
0
  6
Continuous
 62
     7
370
    25
100
AcDbLine
 10
46.529728243
 20
117.4354315298
 30
0.0
 11
46.7879141413
 21
117.4354315298
 31
0.0
  0
LINE
  5
216
330
1F
100
AcDbEntity
  8
0
  6
Continuous
 62
     7
370
    25
100
AcDbLine
 10
46.529728243
 20
129.4354315298
 30
0.0
 11
45.9731625835
 21
128.4714315298
 31
0.0
  0
LINE
  5
217
330
1F
100
AcDbEntity
  8
0
  6
Continuous
 62
     7
370
    25
100
AcDbLine
 10
45.9731625835
 20
118.3994315298
 30
0.0
 11
46.529728243
 21
117.4354315298
 31
0.0
  0
CIRCLE
  5
218
330
1F
100
AcDbEntity
  8
0
  6
Continuous
 62
     7
370
    25
100
AcDbCircle
 10
68.4731625835
 20
123.4354315298
 30
0.0
 40
21.0
  0
CIRCLE
  5
219
330
1F
100
AcDbEntity
  8
0
  6
Continuous
 62
     7
370
    25
100
AcDbCircle
 10
68.4731625835
 20
123.4354315298
 30
0.0
 40
22.50000000000001
  0
CIRCLE
  5
21A
330
1F
100
AcDbEntity
  8
0
  6
Continuous
 62
     7
370
    25
100
AcDbCircle
 10
68.4731625835
 20
123.4354315298
 30
0.0
 40
12.5
  0
CIRCLE
  5
21B
330
1F
100
AcDbEntity
  8
0
  6
Continuous
 62
     7
370
    25
100
AcDbCircle
 10
68.4731625835
 20
123.4354315298
 30
0.0
 40
25.00000000000001
  0
CIRCLE
  5
21C
330
1F
100
AcDbEntity
  8
0
  6
Continuous
 62
     7
370
    25
100
AcDbCircle
 10
68.4731625835
 20
123.4354315298
 30
0.0
 40
7.25
  0
LINE
  5
21D
330
1F
100
AcDbEntity
  8
0
  6
Continuous
 62
     7
370
    25
100
AcDbLine
 10
59.9731625835
 20
123.4302695313
 30
0.0
 11
59.9731625835
 21
123.9354315298
 31
0.0
  0
LINE
  5
21E
330
1F
100
AcDbEntity
  8
0
  6
Continuous
 62
     7
370
    25
100
AcDbLine
 10
59.9731625835
 20
122.9354315298
 30
0.0
 11
59.9731625835
 21
123.4302695313
 31
0.0
  0
LINE
  5
21F
330
1F
100
AcDbEntity
  8
0
  6
Continuous
 62
     7
370
    25
100
AcDbLine
 10
45.9731625835
 20
123.3838115449
 30
0.0
 11
45.9731625835
 21
128.4354315298
 31
0.0
  0
LINE
  5
220
330
1F
100
AcDbEntity
  8
0
  6
Continuous
 62
     7
370
    25
100
AcDbLine
 10
45.9731625835
 20
118.4354315298
 30
0.0
 11
45.9731625835
 21
123.3838115449
 31
0.0
  0
LINE
  5
221
330
1F
100
AcDbEntity
  8
0
  6
Continuous
 62
     7
370
    25
100
AcDbLine
 10
57.9731625835
 20
127.6854315298
 30
0.0
 11
57.9731625835
 21
125.9354315298
 31
0.0
  0
LINE
  5
222
330
1F
100
AcDbEntity
  8
0
  6
Continuous
 62
     7
370
    25
100
AcDbLine
 10
57.9731625835
 20
120.9354315298
 30
0.0
 11
57.9731625835
 21
119.1854315298
 31
0.0
  0
LINE
  5
223
330
1F
100
AcDbEntity
  8
0
  6
Continuous
 62
     7
370
    25
100
AcDbLine
 10
46.529728243
 20
129.4354315298
 30
0.0
 11
46.529728243
 21
128.9919971893
 31
0.0
  0
LINE
  5
224
330
1F
100
AcDbEntity
  8
0
  6
Continuous
 62
     7
370
    25
100
AcDbLine
 10
46.529728243
 20
117.8788658703
 30
0.0
 11
46.529728243
 21
117.4354315298
 31
0.0
  0
LINE
  5
225
330
1F
100
AcDbEntity
  8
0
  6
Continuous
 62
     7
370
    25
100
AcDbLine
 10
45.9731625835
 20
128.4714315298
 30
0.0
 11
45.9731625835
 21
128.4354315298
 31
0.0
  0
LINE
  5
226
330
1F
100
AcDbEntity
  8
0
  6
Continuous
 62
     7
370
    25
100
AcDbLine
 10
45.9731625835
 20
118.4354315298
 30
0.0
 11
45.9731625835
 21
118.3994315298
 31
0.0
  0
INSERT
  5
232
330
1F
100
AcDbEntity
  8
VERMASSUNG
100
AcDbBlockReference
  2
SW_CENTERMARKSYMBOL_2
 10
68.4731625835
 20
123.4354315298
 30
0.0
  0
LINE
  5
233
330
1F
100
AcDbEntity
  8
0
  6
Continuous
 62
     7
370
    25
100
AcDbLine
 10
209.595676303
 20
29.9976273602
 30
0.0
 11
210.1259201953
 21
30.3038301606
 31
0.0
  0
LINE
  5
234
330
1F
100
AcDbEntity
  8
0
  6
Continuous
 62
     7
370
    25
100
AcDbLine
 10
217.549334688
 20
43.1629545406
 30
0.0
 11
217.549334688
 21
43.7752606244
 31
0.0
  0
LINE
  5
235
330
1F
100
AcDbEntity
  8
0
  6
Continuous
 62
     7
370
    25
100
AcDbLine
 10
186.8225010848
 20
39.3388636495
 30
0.0
 11
203.9698405286
 21
29.4399152936
 31
0.0
  0
LINE
  5
236
330
1F
100
AcDbEntity
  8
0
  6
Continuous
 62
     7
370
    25
100
AcDbLine
 10
215.2189262707
 20
48.9260146972
 30
0.0
 11
198.071586827
 21
58.8249630531
 31
0.0
  0
SPLINE
  5
237
330
1F
100
AcDbEntity
  8
0
  6
Continuous
 62
     7
370
    25
100
AcDbSpline
210
0.0
220
0.0
230
1.0
 70
     8
 71
     3
 72
    15
 73
    11
 74
     0
 42
0.000000001
 43
0.00000001
 40
0.0
 40
0.0
 40
0.0
 40
0.0
 40
0.0649975338088156
 40
0.2255470929671141
 40
0.3831632443368896
 40
0.5340672400708099
 40
0.6800603690478753
 40
0.8235204917614956
 40
0.957834788925196
 40
1.0
 40
1.0
 40
1.0
 40
1.0
 10
206.6134555927891
 20
33.69869784534793
 30
0.0
 10
206.5676899279421
 20
33.72115532299251
 30
0.0
 10
206.408879092222
 20
33.79908472279108
 30
0.0
 10
206.1812684956362
 20
34.0062583667499
 30
0.0
 10
205.9311758143888
 20
34.32180477404368
 30
0.0
 10
205.7323949919693
 20
34.7077251957434
 30
0.0
 10
205.5847358952378
 20
35.14933877062663
 30
0.0
 10
205.4921747355822
 20
35.63385653433848
 30
0.0
 10
205.4593783799582
 20
36.03582327396816
 30
0.0
 10
205.4572713790385
 20
36.26966594889434
 30
0.0
 10
205.4567679656994
 20
36.32553660404844
 30
0.0
  0
SPLINE
  5
238
330
1F
100
AcDbEntity
  8
0
  6
Continuous
 62
     7
370
    25
100
AcDbSpline
210
0.0
220
0.0
230
1.0
 70
     8
 71
     3
 72
    29
 73
    25
 74
     0
 42
0.000000001
 43
0.00000001
 40
0.0
 40
0.0
 40
0.0
 40
0.0
 40
0.0246911126105663
 40
0.0720143858538352
 40
0.1194574181562963
 40
0.1670197166227183
 40
0.2146955785483166
 40
0.2624638627698648
 40
0.310296413971104
 40
0.3581621473221594
 40
0.4060286733450416
 40
0.453852518322003
 40
0.5016007732258443
 40
0.549241212094717
 40
0.5967443994667183
 40
0.6440884615296317
 40
0.6912686903846322
 40
0.7383154522499712
 40
0.7853175669321253
 40
0.8324124375182862
 40
0.8799292189657862
 40
0.9284210282570902
 40
0.9786349280640052
 40
1.0
 40
1.0
 40
1.0
 40
1.0
 10
205.4567679656994
 20
36.32553660404844
 30
0.0
 10
205.4582824732729
 20
36.42560749466242
 30
0.0
 10
205.4626997036543
 20
36.71747541665827
 30
0.0
 10
205.512503271554
 20
37.22931359002157
 30
0.0
 10
205.6252701697563
 20
37.86312915851686
 30
0.0
 10
205.7944962503216
 20
38.51603766208459
 30
0.0
 10
206.0175852342122
 20
39.17798487469589
 30
0.0
 10
206.2921915966478
 20
39.83972289390452
 30
0.0
 10
206.6147262500525
 20
40.49173221676368
 30
0.0
 10
206.9808378803662
 20
41.1247193402863
 30
0.0
 10
207.3853465912286
 20
41.72964226009008
 30
0.0
 10
207.8223654716575
 20
42.29793231157554
 30
0.0
 10
208.2853724118323
 20
42.8216358758651
 30
0.0
 10
208.7673316910143
 20
43.29359369238404
 30
0.0
 10
209.260752431236
 20
43.70755238898154
 30
0.0
 10
209.757802599054
 20
44.05833651187065
 30
0.0
 10
210.2504839021124
 20
44.34205212887009
 30
0.0
 10
210.7308484233586
 20
44.55622883258813
 30
0.0
 10
211.1912915452099
 20
44.70005462973779
 30
0.0
 10
211.6250023092385
 20
44.77397024905424
 30
0.0
 10
212.0281216601419
 20
44.78134102181657
 30
0.0
 10
212.3964882167414
 20
44.7191900373672
 30
0.0
 10
212.6715063868956
 20
44.62937061975323
 30
0.0
 10
212.8113368468606
 20
44.53482749784567
 30
0.0
 10
212.8530737950627
 20
44.50660802847604
 30
0.0
  0
SPLINE
  5
239
330
1F
100
AcDbEntity
  8
0
  6
Continuous
 62
     7
370
    25
100
AcDbSpline
210
0.0
220
0.0
230
1.0
 70
     8
 71
     3
 72
    11
 73
     7
 74
     0
 42
0.000000001
 43
0.00000001
 40
0.0
 40
0.0
 40
0.0
 40
0.0
 40
0.0618089993085172
 40
0.4400376441604272
 40
0.8201699889130658
 40
1.0
 40
1.0
 40
1.0
 40
1.0
 10
187.2735787326954
 20
38.02908183587772
 30
0.0
 10
187.3073142780018
 20
38.02245473843661
 30
0.0
 10
187.547488201656
 20
37.97527435405519
 30
0.0
 10
188.0237948879
 20
37.96560511226605
 30
0.0
 10
188.5761424317074
 20
37.98230823865966
 30
0.0
 10
188.9186049863624
 20
38.04513993736808
 30
0.0
 10
189.0285856740966
 20
38.0653181242721
 30
0.0
  0
SPLINE
  5
23A
330
1F
100
AcDbEntity
  8
0
  6
Continuous
 62
     7
370
    25
100
AcDbSpline
210
0.0
220
0.0
230
1.0
 70
     8
 71
     3
 72
    11
 73
     7
 74
     0
 42
0.000000001
 43
0.00000001
 40
0.0
 40
0.0
 40
0.0
 40
0.0
 40
0.1515315298148797
 40
0.5501364610862173
 40
0.9471836769431994
 40
0.9999999999999999
 40
0.9999999999999999
 40
0.9999999999999999
 40
0.9999999999999999
 10
200.2781577746463
 20
57.55113675911289
 30
0.0
 10
200.2482288930323
 20
57.63722246750262
 30
0.0
 10
200.1395718430074
 20
57.94975733745006
 30
0.0
 10
199.8868299688242
 20
58.42582469463677
 30
0.0
 10
199.6448885531751
 20
58.83686907247053
 30
0.0
 10
199.487604454337
 20
59.0204069082491
 30
0.0
 10
199.4691384817534
 20
59.04195520631973
 30
0.0
  0
LINE
  5
23B
330
1F
100
AcDbEntity
  8
0
  6
Continuous
 62
     7
370
    25
100
AcDbLine
 10
183.5025908131
 20
39.8120704782
 30
0.0
 11
185.631866452
 21
38.5828658162
 31
0.0
  0
LINE
  5
23C
330
1F
100
AcDbEntity
  8
0
  6
Continuous
 62
     7
370
    25
100
AcDbLine
 10
178.8789966916
 20
42.4812145502
 30
0.0
 11
181.1143383476
 21
41.1907792799
 31
0.0
  0
LINE
  5
23D
330
1F
100
AcDbEntity
  8
0
  6
Continuous
 62
     7
370
    25
100
AcDbLine
 10
193.6133225056
 20
62.8420008394
 30
0.0
 11
191.3779808496
 21
64.1324361097
 31
0.0
  0
LINE
  5
23E
330
1F
100
AcDbEntity
  8
0
  6
Continuous
 62
     7
370
    25
100
AcDbLine
 10
198.1308506099
 20
60.2340873758
 30
0.0
 11
196.0015749711
 21
61.4632920377
 31
0.0
  0
SPLINE
  5
23F
330
1F
100
AcDbEntity
  8
0
  6
Continuous
 62
     7
370
    25
100
AcDbSpline
210
0.0
220
0.0
230
1.0
 70
     8
 71
     3
 72
    10
 73
     6
 74
     0
 42
0.000000001
 43
0.00000001
 40
0.0
 40
0.0
 40
0.0
 40
0.0
 40
0.2066565592155308
 40
0.7008641428873043
 40
1.0
 40
1.0
 40
1.0
 40
1.0
 10
176.3766829787666
 20
50.04113869362156
 30
0.0
 10
176.3579772029842
 20
49.91470216889345
 30
0.0
 10
176.2945376123873
 20
49.48589977873656
 30
0.0
 10
176.2549598006111
 20
48.89356210260587
 30
0.0
 10
176.2482500011458
 20
48.43747584652851
 30
0.0
 10
176.245720022941
 20
48.26550523945559
 30
0.0
  0
SPLINE
  5
240
330
1F
100
AcDbEntity
  8
0
  6
Continuous
 62
     7
370
    25
100
AcDbSpline
210
0.0
220
0.0
230
1.0
 70
     8
 71
     3
 72
    14
 73
    10
 74
     0
 42
0.000000001
 43
0.00000001
 40
0.0
 40
0.0
 40
0.0
 40
0.0
 40
0.1073016942858149
 40
0.2620640340731825
 40
0.4168834850823508
 40
0.5717097990521075
 40
0.7265152726866221
 40
0.8812893513626059
 40
1.0
 40
1.0
 40
1.0
 40
1.0
 10
186.7534540356256
 20
64.30465900796104
 30
0.0
 10
186.5867259899366
 20
64.24574421005758
 30
0.0
 10
186.1795243652352
 20
64.10185599181509
 30
0.0
 10
185.5225881062308
 20
63.78755233797834
 30
0.0
 10
184.7899885876862
 20
63.37636599451543
 30
0.0
 10
184.0594054656151
 20
62.89437400290479
 30
0.0
 10
183.3370920294528
 20
62.34628306465279
 30
0.0
 10
182.6799903683628
 20
61.79000518897616
 30
0.0
 10
182.2739570620081
 20
61.39238076564152
 30
0.0
 10
182.0977114718456
 20
61.21978519267543
 30
0.0
  0
SPLINE
  5
241
330
1F
100
AcDbEntity
  8
0
  6
Continuous
 62
     7
370
    25
100
AcDbSpline
210
0.0
220
0.0
230
1.0
 70
     8
 71
     3
 72
    11
 73
     7
 74
     0
 42
0.000000001
 43
0.00000001
 40
0.0
 40
0.0
 40
0.0
 40
0.0
 40
0.1985580338558721
 40
0.5757920268780653
 40
0.9531481925930654
 40
1.0
 40
1.0
 40
1.0
 40
1.0
 10
176.245720022941
 20
48.26550523945559
 30
0.0
 10
176.2472959444366
 20
48.11794724154389
 30
0.0
 10
176.2518659082631
 20
47.69004857106594
 30
0.0
 10
176.3106302076412
 20
47.01331246483987
 30
0.0
 10
176.3846001436502
 20
46.45984785129292
 30
0.0
 10
176.4541539293726
 20
46.19150324795895
 30
0.0
 10
176.4618358231124
 20
46.16186582841313
 30
0.0
  0
LINE
  5
242
330
1F
100
AcDbEntity
  8
0
  6
Continuous
 62
     7
370
    25
100
AcDbLine
 10
169.9394533362
 20
51.8606003764
 30
0.0
 11
176.2516858194
 21
47.952938874
 31
0.0
  0
LINE
  5
243
330
1F
100
AcDbEntity
  8
0
  6
Continuous
 62
     7
370
    25
100
AcDbLine
 10
184.4963713098
 20
63.1706701427
 30
0.0
 11
178.3027956455
 21
66.4964476922
 31
0.0
  0
LINE
  5
244
330
1F
100
AcDbEntity
  8
0
  6
Continuous
 62
     7
370
    25
100
AcDbLine
 10
176.1593390778
 20
66.9673938472
 30
0.0
 11
175.5197886253
 21
66.8801827817
 31
0.0
  0
LINE
  5
245
330
1F
100
AcDbEntity
  8
0
  6
Continuous
 62
     7
370
    25
100
AcDbLine
 10
168.965102148
 20
53.3625918934
 30
0.0
 11
169.2094064407
 21
52.7651423442
 31
0.0
  0
LINE
  5
246
330
1F
100
AcDbEntity
  8
0
  6
Continuous
 62
     7
370
    25
100
AcDbLine
 10
206.2359708792
 20
52.3487733065
 30
0.0
 11
205.8823600402
 21
52.5529748541
 31
0.0
  0
LINE
  5
247
330
1F
100
AcDbEntity
  8
0
  6
Continuous
 62
     7
370
    25
100
AcDbLine
 10
202.3462516507
 20
52.5529748541
 30
0.0
 11
201.9926408117
 21
52.3487733065
 31
0.0
  0
LINE
  5
248
330
1F
100
AcDbEntity
  8
0
  6
Continuous
 62
     7
370
    25
100
AcDbLine
 10
198.9825778618
 20
55.8187067995
 30
0.0
 11
198.9825778618
 21
55.9997479177
 31
0.0
  0
LINE
  5
249
330
1F
100
AcDbEntity
  8
0
  6
Continuous
 62
     7
370
    25
100
AcDbLine
 10
192.9825778618
 20
55.9997479177
 30
0.0
 11
192.9825778618
 21
55.8187067995
 31
0.0
  0
LWPOLYLINE
  5
24A
330
1F
100
AcDbEntity
  8
0
  6
Continuous
 62
     7
370
    25
100
AcDbPolyline
 90
       67
 70
   128
 43
0.0
 10
202.7000922831
 20
34.5906693664
 10
202.7337115428
 20
35.4250573091
 10
202.8342648605
 20
36.2907048763
 10
203.00084161
 20
37.1797726296
 10
203.2319332464
 20
38.0842090339
 10
203.525446968
 20
38.9958233729
 10
203.878724669
 20
39.9063599262
 10
204.2885670121
 20
40.8075727335
 10
204.7512624013
 20
41.6913002722
 10
205.2626205956
 20
42.5495393689
 10
205.8180106561
 20
43.3745176774
 10
206.4124028843
 20
44.1587640663
 10
207.0404143722
 20
44.895176279
 10
207.6963577504
 20
45.5770852524
 10
208.3742926943
 20
46.1983155132
 10
209.0680797199
 20
46.753241104
 10
209.7714357845
 20
47.2368365328
 10
210.4779911866
 20
47.6447222844
 10
211.1813472512
 20
47.9732044822
 10
211.8751342768
 20
48.2193083408
 10
212.5530692206
 20
48.3808051053
 10
213.2090125989
 20
48.4562322361
 10
213.8370240868
 20
48.4449066534
 10
214.431416315
 20
48.3469309234
 10
214.9868063754
 20
48.1631923296
 10
215.4981645698
 20
47.8953548371
 10
215.960859959
 20
47.5458440236
 10
216.370702302
 20
47.1178251133
 10
216.7239800031
 20
46.6151743117
 10
217.0174937247
 20
46.0424437022
 10
217.248585361
 20
45.404820022
 10
217.4151621105
 20
44.7080776899
 10
217.5157154283
 20
43.9585265122
 10
217.549334688
 20
43.1629545406
 10
217.5157154283
 20
42.3285665979
 10
217.4151621105
 20
41.4629190307
 10
217.248585361
 20
40.5738512774
 10
217.0174937247
 20
39.6694148731
 10
216.7239800031
 20
38.757800534
 10
216.370702302
 20
37.8472639808
 10
215.960859959
 20
36.9460511735
 10
215.4981645698
 20
36.0623236348
 10
214.9868063754
 20
35.2040845381
 10
214.431416315
 20
34.3791062296
 10
213.8370240868
 20
33.5948598407
 10
213.2090125989
 20
32.858447628
 10
212.5530692206
 20
32.1765386546
 10
211.8751342768
 20
31.5553083938
 10
211.1813472512
 20
31.0003828029
 10
210.4779911866
 20
30.5167873742
 10
209.7714357845
 20
30.1089016226
 10
209.0680797199
 20
29.7804194248
 10
208.3742926943
 20
29.5343155662
 10
207.6963577504
 20
29.3728188017
 10
207.0404143722
 20
29.2973916709
 10
206.4124028843
 20
29.3087172536
 10
205.8180106561
 20
29.4066929835
 10
205.2626205956
 20
29.5904315774
 10
204.7512624013
 20
29.8582690699
 10
204.2885670121
 20
30.2077798833
 10
203.878724669
 20
30.6357987937
 10
203.525446968
 20
31.1384495953
 10
203.2319332464
 20
31.7111802048
 10
203.00084161
 20
32.348803885
 10
202.8342648605
 20
33.0455462171
 10
202.7337115428
 20
33.7950973948
 10
202.7000922831
 20
34.5906693664
  0
LWPOLYLINE
  5
24B
330
1F
100
AcDbEntity
  8
0
  6
Continuous
 62
     7
370
    25
100
AcDbPolyline
 90
       36
 70
   128
 43
0.0
 10
201.6394321113
 20
34.5906693664
 10
201.6733665311
 20
35.4578442029
 10
201.7748802739
 20
36.3568004565
 10
201.9431072603
 20
37.2798685495
 10
202.176612237
 20
38.2191731904
 10
202.4734030218
 20
39.1667005631
 10
202.8309475004
 20
40.1143666982
 10
203.2461952294
 20
41.0540864424
 10
203.7156034615
 20
41.9778424381
 10
204.2351673713
 20
42.877753525
 10
204.8004542226
 20
43.7461419788
 10
205.4066411873
 20
44.5755990156
 10
206.0485564921
 20
45.3590480003
 10
206.7207235418
 20
46.0898048224
 10
207.4174076442
 20
46.7616349224
 10
208.1326649362
 20
47.3688064828
 10
208.8603930947
 20
47.9061393298
 10
209.5943833996
 20
48.3690491291
 10
210.3283737046
 20
48.7535864975
 10
211.0561018631
 20
49.0564706978
 10
211.7713591551
 20
49.2751176287
 10
212.4680432575
 20
49.4076618717
 10
213.1402103072
 20
49.4529726061
 10
213.782125612
 20
49.4106632567
 10
214.3883125767
 20
49.2810947919
 10
214.953599428
 20
49.0653726442
 10
215.4731633378
 20
48.7653372788
 10
215.9425715699
 20
48.3835484918
 10
216.3578192989
 20
47.9232635704
 10
216.7153637775
 20
47.3884095033
 10
217.0121545623
 20
46.7835494769
 10
217.245659539
 20
46.1138439435
 10
217.4138865254
 20
45.3850065947
 10
217.5154002682
 20
44.6032556138
 10
217.549334688
 20
43.7752606244
 10
217.549334688
 20
43.7752606244
  0
LWPOLYLINE
  5
24C
330
1F
100
AcDbEntity
  8
0
  6
Continuous
 62
     7
370
    25
100
AcDbPolyline
 90
       19
 70
   128
 43
0.0
 10
209.595676303
 20
29.9976273602
 10
209.5943833996
 20
29.9968808617
 10
208.8603930947
 20
29.6123434933
 10
208.1326649362
 20
29.3094592931
 10
207.4174076442
 20
29.0908123622
 10
206.7207235418
 20
28.9582681191
 10
206.0485564921
 20
28.9129573847
 10
205.4066411873
 20
28.9552667341
 10
204.8004542226
 20
29.0848351989
 10
204.2351673713
 20
29.3005573467
 10
203.7156034615
 20
29.600592712
 10
203.2461952294
 20
29.982381499
 10
202.8309475004
 20
30.4426664204
 10
202.4734030218
 20
30.9775204875
 10
202.176612237
 20
31.582380514
 10
201.9431072603
 20
32.2520860473
 10
201.7748802739
 20
32.9809233961
 10
201.6733665311
 20
33.7626743771
 10
201.6394321113
 20
34.5906693664
  0
SPLINE
  5
24D
330
1F
100
AcDbEntity
  8
0
  6
Continuous
 62
     7
370
    25
100
AcDbSpline
210
0.0
220
0.0
230
1.0
 70
     8
 71
     3
 72
    41
 73
    37
 74
     0
 42
0.000000001
 43
0.00000001
 40
0.0
 40
0.0
 40
0.0
 40
0.0
 40
0.0272314383338688
 40
0.0550531920670057
 40
0.0860314258063184
 40
0.1181986117585165
 40
0.1450549337758326
 40
0.1728431507019217
 40
0.1975150275722807
 40
0.2228527035628477
 40
0.2485802770935693
 40
0.2749033475779306
 40
0.3038391610710539
 40
0.3334333417019597
 40
0.3661591244762952
 40
0.3997052509759951
 40
0.4348668395648435
 40
0.4710115799640981
 40
0.5067901230526803
 40
0.5436193677752323
 40
0.5790985030159203
 40
0.6157354014845943
 40
0.6489528959214766
 40
0.6834602245652901
 40
0.7120251928351563
 40
0.7416702061881216
 40
0.7667692780485456
 40
0.7926105192345524
 40
0.8176142806117971
 40
0.8432215148514146
 40
0.870778444419014
 40
0.8989566228897757
 40
0.9303082147282368
 40
0.9624106771715554
 40
0.9968991540577868
 40
1.0
 40
1.0
 40
1.0
 40
1.0
 10
195.9557536011142
 20
57.91930508086122
 30
0.0
 10
195.7975689049712
 20
57.94346187137645
 30
0.0
 10
195.4777704296922
 20
57.99229911646254
 30
0.0
 10
194.9769718428465
 20
58.01352975003291
 30
0.0
 10
194.4622766108496
 20
57.98003551623919
 30
0.0
 10
193.9869915786049
 20
57.8757394412969
 30
0.0
 10
193.5802125219374
 20
57.70978343447873
 30
0.0
 10
193.2651586499341
 20
57.50555441500059
 30
0.0
 10
193.0196652550413
 20
57.26337617908021
 30
0.0
 10
192.843721372059
 20
56.99714373503398
 30
0.0
 10
192.7309541108797
 20
56.70338746980825
 30
0.0
 10
192.6827420796238
 20
56.38333668925994
 30
0.0
 10
192.7062231825444
 20
56.04466257878586
 30
0.0
 10
192.8102775078523
 20
55.68851627724985
 30
0.0
 10
193.0013557409329
 20
55.3348332672235
 30
0.0
 10
193.2875213827246
 20
54.99611754017681
 30
0.0
 10
193.6642997672286
 20
54.69526921293483
 30
0.0
 10
194.1238806943356
 20
54.44999330541664
 30
0.0
 10
194.6542281312955
 20
54.27103426833176
 30
0.0
 10
195.2315164238445
 20
54.16653003305699
 30
0.0
 10
195.8482336107667
 20
54.13496057096869
 30
0.0
 10
196.4628469133347
 20
54.17374168867335
 30
0.0
 10
197.0699213139381
 20
54.27529499295791
 30
0.0
 10
197.6095566990967
 20
54.421469356098
 30
0.0
 10
198.0870804444811
 20
54.60277768416511
 30
0.0
 10
198.4648362152828
 20
54.79342344782575
 30
0.0
 10
198.7685315469741
 20
54.99570966631197
 30
0.0
 10
198.9935737067671
 20
55.19689432067972
 30
0.0
 10
199.1546624690949
 20
55.40515687883571
 30
0.0
 10
199.2524898553245
 20
55.62049838956912
 30
0.0
 10
199.2834542591256
 20
55.84470509334638
 30
0.0
 10
199.2407877324275
 20
56.08294155773099
 30
0.0
 10
199.1185102450009
 20
56.33094618710907
 30
0.0
 10
198.8972708039184
 20
56.59015644015894
 30
0.0
 10
198.7034549731561
 20
56.77340572435379
 30
0.0
 10
198.5611897634539
 20
56.86641340305157
 30
0.0
 10
198.5494539176065
 20
56.87408586058428
 30
0.0
  0
SPLINE
  5
24E
330
1F
100
AcDbEntity
  8
0
  6
Continuous
 62
     7
370
    25
100
AcDbSpline
210
0.0
220
0.0
230
1.0
 70
     8
 71
     3
 72
    10
 73
     6
 74
     0
 42
0.000000001
 43
0.00000001
 40
0.0
 40
0.0
 40
0.0
 40
0.0
 40
0.1585527316443645
 40
0.5728879680873661
 40
1.0
 40
1.0
 40
1.0
 40
1.0
 10
197.3669748816704
 20
57.50605452295156
 30
0.0
 10
197.299695749753
 20
57.53486871694639
 30
0.0
 10
197.0566005676073
 20
57.63898111462364
 30
0.0
 10
196.5817212123551
 20
57.78873872524796
 30
0.0
 10
196.1665110406688
 20
57.87534452111016
 30
0.0
 10
195.9557536150177
 20
57.91930494363123
 30
0.0
  0
SPLINE
  5
24F
330
1F
100
AcDbEntity
  8
0
  6
Continuous
 62
     7
370
    25
100
AcDbSpline
210
0.0
220
0.0
230
1.0
 70
    11
 71
     3
 72
    84
 73
    80
 74
     0
 42
0.000000001
 43
0.00000001
 40
0.0
 40
0.0
 40
0.0
 40
0.0
 40
0.0312499999999994
 40
0.0312499999999994
 40
0.0624999999999987
 40
0.0624999999999987
 40
0.0937499999999981
 40
0.0937499999999981
 40
0.1093749999999978
 40
0.1093749999999978
 40
0.1249999999999974
 40
0.1249999999999974
 40
0.1406249999999971
 40
0.1406249999999971
 40
0.1562499999999968
 40
0.1562499999999968
 40
0.1874999999999961
 40
0.1874999999999961
 40
0.2187499999999953
 40
0.2187499999999953
 40
0.2499999999999946
 40
0.2499999999999946
 40
0.2812499999999938
 40
0.2812499999999938
 40
0.3124999999999931
 40
0.3124999999999931
 40
0.3437499999999923
 40
0.3437499999999923
 40
0.3749999999999916
 40
0.3749999999999916
 40
0.3906249999999915
 40
0.3906249999999915
 40
0.4062499999999914
 40
0.4062499999999914
 40
0.4374999999999912
 40
0.4374999999999912
 40
0.4531249999999911
 40
0.4531249999999911
 40
0.468749999999991
 40
0.468749999999991
 40
0.4999999999999912
 40
0.4999999999999912
 40
0.5156249999999913
 40
0.5156249999999913
 40
0.5312499999999915
 40
0.5312499999999915
 40
0.5624999999999917
 40
0.5624999999999917
 40
0.578124999999992
 40
0.578124999999992
 40
0.5937499999999922
 40
0.5937499999999922
 40
0.6249999999999928
 40
0.6249999999999928
 40
0.640624999999993
 40
0.640624999999993
 40
0.6562499999999932
 40
0.6562499999999932
 40
0.6874999999999938
 40
0.6874999999999938
 40
0.7187499999999944
 40
0.7187499999999944
 40
0.749999999999995
 40
0.749999999999995
 40
0.7812499999999956
 40
0.7812499999999956
 40
0.8124999999999961
 40
0.8124999999999961
 40
0.8281249999999964
 40
0.8281249999999964
 40
0.8437499999999967
 40
0.8437499999999967
 40
0.8749999999999972
 40
0.8749999999999972
 40
0.9062499999999978
 40
0.9062499999999978
 40
0.9374999999999983
 40
0.9374999999999983
 40
1.0
 40
1.0
 40
1.0
 40
1.0
 10
204.0874815847595
 20
53.22495843788063
 30
0.0
 10
203.8730676204286
 20
53.26255143164033
 30
0.0
 10
203.6592302580257
 20
53.28870364086961
 30
0.0
 10
203.2323632452847
 20
53.3143587429519
 30
0.0
 10
203.0174250358874
 20
53.31347464053346
 30
0.0
 10
202.6077099806571
 20
53.2799347879146
 30
0.0
 10
202.4108627284711
 20
53.24768467365937
 30
0.0
 10
202.1286872057322
 20
53.17236473427442
 30
0.0
 10
202.036504522781
 20
53.14252248400221
 30
0.0
 10
201.8623568813442
 20
53.07511301093763
 30
0.0
 10
201.7796823021508
 20
53.03740275284969
 30
0.0
 10
201.6230540316369
 20
52.95398448758642
 30
0.0
 10
201.5491000225837
 20
52.90827675877314
 30
0.0
 10
201.4101191608421
 20
52.80869227184282
 30
0.0
 10
201.3449952606444
 20
52.754593431445
 30
0.0
 10
201.1684716122238
 20
52.58476892213064
 30
0.0
 10
201.0736290449315
 20
52.4602745924425
 30
0.0
 10
200.9274760176098
 20
52.19118255191804
 30
0.0
 10
200.8782986856251
 20
52.0502053089354
 30
0.0
 10
200.8237869905217
 20
51.76192060323879
 30
0.0
 10
200.8186503321397
 20
51.61309277096456
 30
0.0
 10
200.8494924497161
 20
51.32139173316601
 30
0.0
 10
200.8850160487356
 20
51.17726934112242
 30
0.0
 10
200.994762209766
 20
50.89452962941735
 30
0.0
 10
201.0679660812231
 20
50.75889031761117
 30
0.0
 10
201.2471578311641
 20
50.50260559301498
 30
0.0
 10
201.3540950843953
 20
50.38084361740174
 30
0.0
 10
201.5986733786785
 20
50.15618973727632
 30
0.0
 10
201.7343897135163
 20
50.05477718918146
 30
0.0
 10
201.9573783924108
 20
49.91885259776369
 30
0.0
 10
202.0349642976571
 20
49.87625339553025
 30
0.0
 10
202.1967722158441
 20
49.79656205927338
 30
0.0
 10
202.2814176769824
 20
49.7593219851764
 30
0.0
 10
202.5414758543519
 20
49.65768811562032
 30
0.0
 10
202.7233275389325
 20
49.60294761746994
 30
0.0
 10
203.0087897766008
 20
49.5392881562755
 30
0.0
 10
203.1060716131593
 20
49.52115761628339
 30
0.0
 10
203.3050633483328
 20
49.49107337574651
 30
0.0
 10
203.4072711813622
 20
49.4790959638262
 30
0.0
 10
203.7152756636184
 20
49.45300141129584
 30
0.0
 10
203.9234381625276
 20
49.44835098572235
 30
0.0
 10
204.2403182234675
 20
49.45928409780145
 30
0.0
 10
204.3467231608811
 20
49.46593307799924
 30
0.0
 10
204.5612377193411
 20
49.48529964702317
 30
0.0
 10
204.6698604840274
 20
49.4981188576976
 30
0.0
 10
204.990829796457
 20
49.54478692569747
 30
0.0
 10
205.2003673205575
 20
49.58682330255141
 30
0.0
 10
205.5078136950412
 20
49.66558094544138
 30
0.0
 10
205.6091434064892
 20
49.69447403625784
 30
0.0
 10
205.8093313513627
 20
49.75775261318504
 30
0.0
 10
205.907345427078
 20
49.79191732531599
 30
0.0
 10
206.188844137142
 20
49.89955119954706
 30
0.0
 10
206.3624752096801
 20
49.97885751494956
 30
0.0
 10
206.6006952312864
 20
50.10921436726382
 30
0.0
 10
206.6763559233473
 20
50.15466968005255
 30
0.0
 10
206.8155406776109
 20
50.24671731381344
 30
0.0
 10
206.8797120607276
 20
50.29364173872063
 30
0.0
 10
207.0564063646438
 20
50.43718062509765
 30
0.0
 10
207.1537908355375
 20
50.53769140218314
 30
0.0
 10
207.2995629876183
 20
50.73852214558293
 30
0.0
 10
207.3494470114851
 20
50.83993400423559
 30
0.0
 10
207.4048993763137
 20
51.04451224397806
 30
0.0
 10
207.4100352662937
 20
51.14535984294219
 30
0.0
 10
207.3796123380035
 20
51.34708209365454
 30
0.0
 10
207.3434033341854
 20
51.44842893634431
 30
0.0
 10
207.2345539998958
 20
51.64667939038653
 30
0.0
 10
207.1619427391974
 20
51.74445625925109
 30
0.0
 10
207.0262924411549
 20
51.89078247296407
 30
0.0
 10
206.9765514712913
 20
51.93947730131306
 30
0.0
 10
206.8699942052571
 20
52.03519874126474
 30
0.0
 10
206.812979003917
 20
52.0824519877802
 30
0.0
 10
206.6309926236731
 20
52.22266449559618
 30
0.0
 10
206.4951710711333
 20
52.31411506820698
 30
0.0
 10
206.1937295579791
 20
52.49345374008818
 30
0.0
 10
206.0313357231305
 20
52.5793544691699
 30
0.0
 10
205.6870521052047
 20
52.74189084597695
 30
0.0
 10
205.5046911661515
 20
52.81881816025895
 30
0.0
 10
204.9250235977607
 20
53.03394829349211
 30
0.0
 10
204.5163095134213
 20
53.14977245036123
 30
0.0
 10
204.0874815847595
 20
53.22495843788063
 30
0.0
  0
LINE
  5
250
330
1F
100
AcDbEntity
  8
0
  6
Continuous
 62
     7
370
    25
100
AcDbLine
 10
198.071586827
 20
58.8249630531
 30
0.0
 11
197.9261030263
 21
58.9047131723
 31
0.0
  0
LINE
  5
251
330
1F
100
AcDbEntity
  8
0
  6
Continuous
 62
     7
370
    25
100
AcDbLine
 10
212.8251954563
 20
44.5345397769
 30
0.0
 11
212.8657261029
 21
44.5105270253
 31
0.0
  0
LINE
  5
252
330
1F
100
AcDbEntity
  8
0
  6
Continuous
 62
     7
370
    25
100
AcDbLine
 10
206.6164614002
 20
33.6860057522
 30
0.0
 11
206.5757033773
 21
33.7089289972
 31
0.0
  0
ARC
  5
253
330
1F
100
AcDbEntity
  8
0
  6
Continuous
 62
     7
370
    25
100
AcDbCircle
 10
195.9700037394
 20
56.4906075953
 30
0.0
 40
4.319059930794946
100
AcDbArc
 50
37.106522714
 51
82.5934267428
  0
ARC
  5
254
330
1F
100
AcDbEntity
  8
0
  6
Continuous
 62
     7
370
    25
100
AcDbCircle
 10
187.7909241645
 20
42.3234553395
 30
0.0
 40
4.315760333320164
100
AcDbArc
 50
217.3527671766
 51
262.154008506
  0
ELLIPSE
  5
255
330
1F
100
AcDbEntity
  8
0
  6
Continuous
 62
     7
370
    25
100
AcDbEllipse
 10
184.6489792782
 20
53.5836402678
 30
0.0
 11
-0.5921461341247607
 21
14.23394750841462
 31
0.0
210
0.0
220
0.0
230
1.0
 40
0.4444802122
 41
2.41119191765586
 42
2.866866793327968
  0
SPLINE
  5
256
330
1F
100
AcDbEntity
  8
0
  6
Continuous
 62
     7
370
    25
100
AcDbSpline
210
0.0
220
0.0
230
1.0
 70
     8
 71
     3
 72
    12
 73
     8
 74
     0
 42
0.000000001
 43
0.00000001
 40
0.0
 40
0.0
 40
0.0
 40
0.0
 40
0.2500000000000007
 40
0.2500000000000007
 40
0.5000000000000014
 40
0.5000000000000014
 40
1.0
 40
1.0
 40
1.0
 40
1.0
 10
180.654451657051
 20
43.0733425799452
 30
0.0
 10
180.6769607172893
 20
43.06034837605905
 30
0.0
 10
180.7009567422515
 20
43.03922499401385
 30
0.0
 10
180.7444011377033
 20
42.99319104676988
 30
0.0
 10
180.7635723261175
 20
42.96906069562715
 30
0.0
 10
180.8162589182105
 20
42.89692073814542
 30
0.0
 10
180.8444427645965
 20
42.84996100291427
 30
0.0
 10
180.8690947478526
 20
42.8050748239884
 30
0.0
  0
LINE
  5
257
330
1F
100
AcDbEntity
  8
0
  6
Continuous
 62
     7
370
    25
100
AcDbLine
 10
179.6134185164
 20
43.6743182199
 30
0.0
 11
180.6544516571
 21
43.0733425799
 31
0.0
  0
SPLINE
  5
258
330
1F
100
AcDbEntity
  8
0
  6
Continuous
 62
     7
370
    25
100
AcDbSpline
210
0.0
220
0.0
230
1.0
 70
     8
 71
     3
 72
    12
 73
     8
 74
     0
 42
0.000000001
 43
0.00000001
 40
0.0
 40
0.0
 40
0.0
 40
0.0
 40
0.5
 40
0.5
 40
0.75
 40
0.75
 40
1.0
 40
1.0
 40
1.0
 40
1.0
 10
179.5218753893218
 20
43.58280800515197
 30
0.0
 10
179.5188919435209
 20
43.61523395495282
 30
0.0
 10
179.5203734331249
 20
43.64467221375115
 30
0.0
 10
179.5379872588996
 20
43.67647758844171
 30
0.0
 10
179.5465588241264
 20
43.68476117992002
 30
0.0
 10
179.5724879376633
 20
43.69048680994897
 30
0.0
 10
179.5909763278201
 20
43.68727381961632
 30
0.0
 10
179.6134185163682
 20
43.67431821993523
 30
0.0
  0
ELLIPSE
  5
259
330
1F
100
AcDbEntity
  8
0
  6
Continuous
 62
     7
370
    25
100
AcDbEllipse
 10
192.4669340405
 20
49.0704310498
 30
0.0
 11
12.62279028525577
 21
6.60492458817381
 31
0.0
210
0.0
220
0.0
230
1.0
 40
0.4445305117
 41
2.960695352983356
 42
3.59532976211925
  0
SPLINE
  5
25A
330
1F
100
AcDbEntity
  8
0
  6
Continuous
 62
     7
370
    25
100
AcDbSpline
210
0.0
220
0.0
230
1.0
 70
     8
 71
     3
 72
    12
 73
     8
 74
     0
 42
0.000000001
 43
0.00000001
 40
0.0
 40
0.0
 40
0.0
 40
0.0
 40
0.25
 40
0.25
 40
0.5
 40
0.5
 40
1.0
 40
1.0
 40
1.0
 40
1.0
 10
190.7134185163681
 20
62.90008212752438
 30
0.0
 10
190.6909094561298
 20
62.91307633141054
 30
0.0
 10
190.6790533671218
 20
62.92718919934786
 30
0.0
 10
190.6708785854887
 20
62.95285581300886
 30
0.0
 10
190.6738074030667
 20
62.96422395483049
 30
0.0
 10
190.6923466772743
 20
62.99523272822447
 30
0.0
 10
190.7173524487587
 20
63.01147676875359
 30
0.0
 10
190.7468753893218
 20
63.02507826305182
 30
0.0
  0
LINE
  5
25B
330
1F
100
AcDbEntity
  8
0
  6
Continuous
 62
     7
370
    25
100
AcDbLine
 10
191.7544516571
 20
62.2991064875
 30
0.0
 11
190.7134185164
 21
62.9000821275
 31
0.0
  0
SPLINE
  5
25C
330
1F
100
AcDbEntity
  8
0
  6
Continuous
 62
     7
370
    25
100
AcDbSpline
210
0.0
220
0.0
230
1.0
 70
     8
 71
     3
 72
    12
 73
     8
 74
     0
 42
0.000000001
 43
0.00000001
 40
0.0
 40
0.0
 40
0.0
 40
0.0
 40
0.5000000000000018
 40
0.5000000000000018
 40
0.7500000000000009
 40
0.7500000000000009
 40
1.0
 40
1.0
 40
1.0
 40
1.0
 10
192.0940947478525
 20
62.24734508188824
 30
0.0
 10
192.0428171140177
 20
62.2462535695778
 30
0.0
 10
191.9888283017864
 20
62.24713699677795
 30
0.0
 10
191.8995586514358
 20
62.25671109649278
 30
0.0
 10
191.8686026466589
 20
62.26135396771204
 30
0.0
 10
191.8078405137075
 20
62.27574354874725
 30
0.0
 10
191.7768938455989
 20
62.28615088785326
 30
0.0
 10
191.7544516570509
 20
62.29910648753435
 30
0.0
  0
ELLIPSE
  5
25D
330
1F
100
AcDbEntity
  8
0
  6
Continuous
 62
     7
370
    25
100
AcDbEllipse
 10
184.6489792782
 20
53.5836402678
 30
0.0
 11
12.6227902852558
 21
6.604924588173794
 31
0.0
210
0.0
220
0.0
230
1.0
 40
0.4445305117
 41
0.2747775750656666
 42
0.7302899226136025
  0
ELLIPSE
  5
25E
330
1F
100
AcDbEntity
  8
0
  6
Continuous
 62
     7
370
    25
100
AcDbEllipse
 10
192.4669340405
 20
49.0704310498
 30
0.0
 11
-0.5921461341247608
 21
14.23394750841459
 31
0.0
210
0.0
220
0.0
230
1.0
 40
0.4444802122
 41
5.829499913454022
 42
6.463971794465672
  0
SPLINE
  5
25F
330
1F
100
AcDbEntity
  8
0
  6
Continuous
 62
     7
370
    25
100
AcDbSpline
210
0.0
220
0.0
230
1.0
 70
     8
 71
     3
 72
    12
 73
     8
 74
     0
 42
0.000000001
 43
0.00000001
 40
0.0
 40
0.0
 40
0.0
 40
0.0
 40
0.2499999999999984
 40
0.2499999999999984
 40
0.4999999999999968
 40
0.4999999999999968
 40
1.0
 40
1.0
 40
1.0
 40
1.0
 10
179.6134185163681
 20
49.85456045717903
 30
0.0
 10
179.5909195968602
 20
49.86754880694616
 30
0.0
 10
179.572774050353
 20
49.89202863504196
 30
0.0
 10
179.546457417088
 20
49.94791945692984
 30
0.0
 10
179.5380740279108
 20
49.97826103388613
 30
0.0
 10
179.520476237601
 20
50.07061974090931
 30
0.0
 10
179.5188759640755
 20
50.1326321573485
 30
0.0
 10
179.5218753893217
 20
50.19389230956994
 30
0.0
  0
LINE
  5
260
330
1F
100
AcDbEntity
  8
0
  6
Continuous
 62
     7
370
    25
100
AcDbLine
 10
180.6544516571
 20
49.2535848172
 30
0.0
 11
179.6134185164
 21
49.8545604572
 31
0.0
  0
SPLINE
  5
261
330
1F
100
AcDbEntity
  8
0
  6
Continuous
 62
     7
370
    25
100
AcDbSpline
210
0.0
220
0.0
230
1.0
 70
     8
 71
     3
 72
    12
 73
     8
 74
     0
 42
0.000000001
 43
0.00000001
 40
0.0
 40
0.0
 40
0.0
 40
0.0
 40
0.5000000000000037
 40
0.5000000000000037
 40
0.7500000000000018
 40
0.7500000000000018
 40
1.0
 40
1.0
 40
1.0
 40
1.0
 10
180.8690947478526
 20
49.41615912840635
 30
0.0
 10
180.8442810447479
 20
49.3675167859595
 30
0.0
 10
180.8162426242791
 20
49.32264839452311
 30
0.0
 10
180.7634953566887
 20
49.27078933407102
 30
0.0
 10
180.7440487721007
 20
49.25627367297854
 30
0.0
 10
180.7012913510632
 20
49.24087886756654
 30
0.0
 10
180.6769133914772
 20
49.24061793391241
 30
0.0
 10
180.654451657051
 20
49.25358481718878
 30
0.0
  0
ELLIPSE
  5
262
330
1F
100
AcDbEntity
  8
0
  6
Continuous
 62
     7
370
    25
100
AcDbEllipse
 10
184.6489792782
 20
53.5836402678
 30
0.0
 11
6.249911489441843
 21
10.82536865912822
 31
0.0
210
0.0
220
0.0
230
1.0
 40
0.1059897947
 41
1.115125557425494
 42
2.02631278064551
  0
SPLINE
  5
263
330
1F
100
AcDbEntity
  8
0
  6
Continuous
 62
     7
370
    25
100
AcDbSpline
210
0.0
220
0.0
230
1.0
 70
     8
 71
     3
 72
    12
 73
     8
 74
     0
 42
0.000000001
 43
0.00000001
 40
0.0
 40
0.0
 40
0.0
 40
0.0
 40
0.2500000000000007
 40
0.2500000000000007
 40
0.5000000000000013
 40
0.5000000000000013
 40
1.0
 40
1.0
 40
1.0
 40
1.0
 10
186.402494802331
 20
59.2094875596925
 30
0.0
 10
186.4249937218389
 20
59.19649920992537
 30
0.0
 10
186.4368495068138
 20
59.17565156424995
 30
0.0
 10
186.4450341201857
 20
59.13023153740945
 30
0.0
 10
186.4421136227551
 20
59.10641767664843
 30
0.0
 10
186.4236013156401
 20
59.03491166179657
 30
0.0
 10
186.3987661984811
 20
58.98816503259383
 30
0.0
 10
186.3690379293774
 20
58.9423401295909
 30
0.0
  0
LINE
  5
264
330
1F
100
AcDbEntity
  8
0
  6
Continuous
 62
     7
370
    25
100
AcDbLine
 10
185.3614616616
 20
59.8104631997
 30
0.0
 11
186.4024948023
 21
59.2094875597
 31
0.0
  0
SPLINE
  5
265
330
1F
100
AcDbEntity
  8
0
  6
Continuous
 62
     7
370
    25
100
AcDbSpline
210
0.0
220
0.0
230
1.0
 70
     8
 71
     3
 72
    12
 73
     8
 74
     0
 42
0.000000001
 43
0.00000001
 40
0.0
 40
0.0
 40
0.0
 40
0.0
 40
0.4999999999999996
 40
0.4999999999999996
 40
0.7499999999999998
 40
0.7499999999999998
 40
1.0
 40
1.0
 40
1.0
 40
1.0
 10
185.0218185708465
 20
59.72007331075449
 30
0.0
 10
185.07335063905
 20
59.75328645520796
 30
0.0
 10
185.1278090898837
 20
59.78289792961433
 30
0.0
 10
185.2167147424967
 20
59.81387641299626
 30
0.0
 10
185.2475724490594
 20
59.82180243210939
 30
0.0
 10
185.3081854176223
 20
59.82688609845913
 30
0.0
 10
185.338999927222
 20
59.82343008295909
 30
0.0
 10
185.3614616616482
 20
59.81046319968272
 30
0.0
  0
ELLIPSE
  5
266
330
1F
100
AcDbEntity
  8
0
  6
Continuous
 62
     7
370
    25
100
AcDbEllipse
 10
192.4669340405
 20
49.0704310498
 30
0.0
 11
11.35109810003735
 21
-6.558652466109365
 31
0.0
210
0.0
220
0.0
230
1.0
 40
0.9534948969
 41
2.686319833441776
 42
3.597507056661809
  0
ARC
  5
267
330
1F
100
AcDbEntity
  8
0
  6
Continuous
 62
     7
370
    25
100
AcDbCircle
 10
188.9202861179
 20
59.3839656665
 30
0.0
 40
5.34679669933202
100
AcDbArc
 50
62.6349968835
 51
113.0599014044
  0
ARC
  5
268
330
1F
100
AcDbEntity
  8
0
  6
Continuous
 62
     7
370
    25
100
AcDbCircle
 10
181.7127304156
 20
46.9319066091
 30
0.0
 40
5.276239818460573
100
AcDbArc
 50
189.0395006897
 51
237.5152932121
  0
ARC
  5
269
330
1F
100
AcDbEntity
  8
0
  6
Continuous
 62
     7
370
    25
100
AcDbCircle
 10
196.2068189387
 20
46.9460531828
 30
0.0
 40
20.04296199282032
100
AcDbArc
 50
134.9222624331
 51
170.7875615002
  0
ARC
  5
26A
330
1F
100
AcDbEntity
  8
0
  6
Continuous
 62
     7
370
    25
100
AcDbCircle
 10
187.5777682952
 20
53.1403271792
 30
0.0
 40
18.61392750877099
100
AcDbArc
 50
140.3510260334
 51
177.2376142263
  0
LINE
  5
26B
330
1F
100
AcDbEntity
  8
0
  6
Continuous
 62
     7
370
    25
100
AcDbLine
 10
179.6134185164
 20
43.6743182199
 30
0.0
 11
180.6559810863
 21
43.0722640054
 31
0.0
  0
ARC
  5
26C
330
1F
100
AcDbEntity
  8
0
  6
Continuous
 62
     7
370
    25
100
AcDbCircle
 10
176.9092890968
 20
62.5986083527
 30
0.0
 40
4.390171036897208
100
AcDbArc
 50
93.4295381122
 51
146.5650853551
  0
ARC
  5
26D
330
1F
100
AcDbEntity
  8
0
  6
Continuous
 62
     7
370
    25
100
AcDbCircle
 10
171.4251368519
 20
53.8091438466
 30
0.0
 40
2.450321849060718
100
AcDbArc
 50
174.6547638622
 51
232.6759834224
  0
ARC
  5
26E
330
1F
100
AcDbEntity
  8
0
  6
Continuous
 62
     7
370
    25
100
AcDbCircle
 10
176.3028294726
 20
62.7326071133
 30
0.0
 40
4.262201379146468
100
AcDbArc
 50
62.0154699427
 51
85.3728752634
  0
ARC
  5
26F
330
1F
100
AcDbEntity
  8
0
  6
Continuous
 62
     7
370
    25
100
AcDbCircle
 10
186.6854927436
 20
53.6554751949
 30
0.0
 40
17.9450185473638
100
AcDbArc
 50
140.3510260334
 51
177.2376142263
  0
ARC
  5
270
330
1F
100
AcDbEntity
  8
0
  6
Continuous
 62
     7
370
    25
100
AcDbCircle
 10
176.5896297342
 20
62.4133268939
 30
0.0
 40
4.593186423519398
100
AcDbArc
 50
103.4689958683
 51
144.1118487458
  0
ARC
  5
271
330
1F
100
AcDbEntity
  8
0
  6
Continuous
 62
     7
370
    25
100
AcDbCircle
 10
171.8064767259
 20
54.4595095588
 30
0.0
 40
3.045757353594796
100
AcDbArc
 50
178.8560094402
 51
201.1091694604
  0
LWPOLYLINE
  5
272
330
1F
100
AcDbEntity
  8
0
  6
Continuous
 62
     7
370
    25
100
AcDbPolyline
 90
       33
 70
   128
 43
0.0
 10
205.8637281666
 20
50.501639066
 10
206.1785298321
 20
50.7184748983
 10
206.4140045274
 20
50.9665982763
 10
206.5611030921
 20
51.2364739575
 10
206.6141726108
 20
51.517730771
 10
206.5711736516
 20
51.7995601751
 10
206.4337586404
 20
52.0711316239
 10
206.2072083591
 20
52.3220087789
 10
205.9002290079
 20
52.5425505717
 10
205.5246176312
 20
52.7242817049
 10
205.0948087634
 20
52.8602183531
 10
204.6273197184
 20
52.9451365469
 10
204.1401158379
 20
52.9757729279
 10
203.6519200939
 20
52.9509501571
 10
203.181493575
 20
52.8716221598
 10
202.7469145085
 20
52.7408374662
 10
202.3648835243
 20
52.5636220589
 10
202.0500818588
 20
52.3467862266
 10
201.8146071635
 20
52.0986628487
 10
201.6675085988
 20
51.8287871674
 10
201.6144390801
 20
51.5475303539
 10
201.6574380393
 20
51.2657009498
 10
201.7948530505
 20
50.994129501
 10
202.0214033318
 20
50.743252346
 10
202.328382683
 20
50.5227105532
 10
202.7039940597
 20
50.34097942
 10
203.1338029275
 20
50.2050427719
 10
203.6012919725
 20
50.120124578
 10
204.088495853
 20
50.089488197
 10
204.576691597
 20
50.1143109678
 10
205.0471181159
 20
50.1936389652
 10
205.4816971824
 20
50.3244236587
 10
205.8637281666
 20
50.501639066
  0
LWPOLYLINE
  5
273
330
1F
100
AcDbEntity
  8
0
  6
Continuous
 62
     7
370
    25
100
AcDbPolyline
 90
       10
 70
   128
 43
0.0
 10
206.3251632883
 20
49.9537167003
 10
206.5625425802
 20
50.1234463268
 10
206.8327841865
 20
50.3918924869
 10
207.0156516622
 20
50.6838807605
 10
207.1052674961
 20
50.9900264043
 10
207.0987513615
 20
51.3004896455
 10
206.9963126925
 20
51.60529194
 10
206.8012439521
 20
51.8946366912
 10
206.5198148101
 20
52.1592241209
 10
206.2359708792
 20
52.3487733065
  0
ARC
  5
274
330
1F
100
AcDbEntity
  8
0
  6
Continuous
 62
     7
370
    25
100
AcDbCircle
 10
202.6320034833
 20
50.9628811932
 30
0.0
 40
1.526263927226865
100
AcDbArc
 50
114.7656022317
 51
173.9267310172
  0
LWPOLYLINE
  5
275
330
1F
100
AcDbEntity
  8
0
  6
Continuous
 62
     7
370
    25
100
AcDbPolyline
 90
       29
 70
   128
 43
0.0
 10
205.5138437024
 20
50.7078373653
 10
205.7966785984
 20
50.9082993277
 10
205.9951522996
 20
51.1400678652
 10
206.0993125059
 20
51.3915211356
 10
206.1039361895
 20
51.6500502218
 10
206.0087914997
 20
51.902691396
 10
205.8186493886
 20
52.1367761748
 10
205.5430443754
 20
52.3405665698
 10
205.1957964465
 20
52.5038436799
 10
204.794318063
 20
52.6184201087
 10
204.3587410273
 20
52.6785505159
 10
203.910906991
 20
52.6812197117
 10
203.4732722225
 20
52.6262938514
 10
203.0677815567
 20
52.5165271471
 10
202.7147679885
 20
52.3574237596
 10
202.4319330925
 20
52.1569617972
 10
202.2334593913
 20
51.9251932597
 10
202.129299185
 20
51.6737399893
 10
202.1246755014
 20
51.4152109031
 10
202.2198201912
 20
51.1625697289
 10
202.4099623023
 20
50.9284849501
 10
202.6855673155
 20
50.7246945551
 10
203.0328152444
 20
50.561417445
 10
203.4342936279
 20
50.4468410162
 10
203.8698706636
 20
50.386710609
 10
204.3177046999
 20
50.3840414132
 10
204.7553394684
 20
50.4389672735
 10
205.1608301342
 20
50.5487339778
 10
205.5138437024
 20
50.7078373653
  0
SPLINE
  5
276
330
1F
100
AcDbEntity
  8
0
  6
Continuous
 62
     7
370
    25
100
AcDbSpline
210
0.0
220
0.0
230
1.0
 70
     8
 71
     3
 72
    11
 73
     7
 74
     0
 42
0.000000001
 43
0.00000001
 40
0.0
 40
0.0
 40
0.0
 40
0.0
 40
0.2164553779443439
 40
0.4403112895790609
 40
0.7519005688038735
 40
0.9999999999999999
 40
0.9999999999999999
 40
0.9999999999999999
 40
0.9999999999999999
 10
202.4367342791397
 20
51.0650330365799
 30
0.0
 10
202.4686239618667
 20
51.08664426309164
 30
0.0
 10
202.5334936244232
 20
51.13060559639339
 30
0.0
 10
202.653874392516
 20
51.30443282070444
 30
0.0
 10
202.7830043600771
 20
51.61692495520766
 30
0.0
 10
202.8656397851159
 20
51.90183550775838
 30
0.0
 10
202.9022705078143
 20
52.02813097292231
 30
0.0
  0
SPLINE
  5
277
330
1F
100
AcDbEntity
  8
0
  6
Continuous
 62
     7
370
    25
100
AcDbSpline
210
0.0
220
0.0
230
1.0
 70
     8
 71
     3
 72
    10
 73
     6
 74
     0
 42
0.000000001
 43
0.00000001
 40
0.0
 40
0.0
 40
0.0
 40
0.0
 40
0.2457765857251117
 40
0.7223468781584083
 40
1.0
 40
1.0
 40
1.0
 40
1.0
 10
202.9022705078143
 20
50.61882110875013
 30
0.0
 10
202.8622054626646
 20
50.6476084196301
 30
0.0
 10
202.7444527475237
 20
50.7322154381684
 30
0.0
 10
202.5892674966404
 20
50.89102792104487
 30
0.0
 10
202.4777772940172
 20
51.01821245111864
 30
0.0
 10
202.4367342791397
 20
51.0650330365799
 30
0.0
  0
SPLINE
  5
278
330
1F
100
AcDbEntity
  8
0
  6
Continuous
 62
     7
370
    25
100
AcDbSpline
210
0.0
220
0.0
230
1.0
 70
     8
 71
     3
 72
    11
 73
     7
 74
     0
 42
0.000000001
 43
0.00000001
 40
0.0
 40
0.0
 40
0.0
 40
0.0
 40
0.2164553779443499
 40
0.4403112895790516
 40
0.7519005688038695
 40
1.0
 40
1.0
 40
1.0
 40
1.0
 10
205.7918774117675
 20
51.56264518606763
 30
0.0
 10
205.7599877290405
 20
51.45231012898969
 30
0.0
 10
205.695118066484
 20
51.22786769780996
 30
0.0
 10
205.5747372983911
 20
50.90360922144145
 30
0.0
 10
205.4456073308301
 20
50.68181509585241
 30
0.0
 10
205.3629719057912
 20
50.62481452560901
 30
0.0
 10
205.3263411830929
 20
50.59954724972523
 30
0.0
  0
SPLINE
  5
279
330
1F
100
AcDbEntity
  8
0
  6
Continuous
 62
     7
370
    25
100
AcDbSpline
210
0.0
220
0.0
230
1.0
 70
     8
 71
     3
 72
    13
 73
     9
 74
     0
 42
0.000000001
 43
0.00000001
 40
0.0
 40
0.0
 40
0.0
 40
0.0
 40
0.1077852362604681
 40
0.2867886602058513
 40
0.4712404514100944
 40
0.6395159303143908
 40
0.8141409998222565
 40
1.0
 40
1.0
 40
1.0
 40
1.0
 10
204.5798420741282
 20
52.27693704766615
 30
0.0
 10
204.6208612931675
 20
52.22989888102818
 30
0.0
 10
204.7300028349882
 20
52.10474247504285
 30
0.0
 10
204.9189266486019
 20
51.91835640961984
 30
0.0
 10
205.1423193604003
 20
51.74741765077438
 30
0.0
 10
205.3655920858225
 20
51.63420821190786
 30
0.0
 10
205.5825850242763
 20
51.57274287337086
 30
0.0
 10
205.7206787894556
 20
51.56608029153489
 30
0.0
 10
205.7918774117675
 20
51.56264518606763
 30
0.0
  0
SPLINE
  5
27A
330
1F
100
AcDbEntity
  8
0
  6
Continuous
 62
     7
370
    25
100
AcDbSpline
210
0.0
220
0.0
230
1.0
 70
     8
 71
     3
 72
    11
 73
     7
 74
     0
 42
0.000000001
 43
0.00000001
 40
0.0
 40
0.0
 40
0.0
 40
0.0
 40
0.2164553779443428
 40
0.4403112895790595
 40
0.7519005688038755
 40
1.0
 40
1.0
 40
1.0
 40
1.0
 10
202.9022705078143
 20
52.02813097292231
 30
0.0
 10
203.0171857855229
 20
52.0008125148299
 30
0.0
 10
203.250945254106
 20
51.94524159011453
 30
0.0
 10
203.6847403945156
 20
51.93436352696272
 30
0.0
 10
204.1500634963421
 20
52.04872610841279
 30
0.0
 10
204.4478423390546
 20
52.20684564460575
 30
0.0
 10
204.5798420741282
 20
52.27693704766615
 30
0.0
  0
LINE
  5
27B
330
1F
100
AcDbEntity
  8
0
  6
Continuous
 62
     7
370
    25
100
AcDbLine
 10
202.9022705078
 20
50.614222175
 30
0.0
 11
202.9022705078
 21
52.0281309729
 31
0.0
  0
LINE
  5
27C
330
1F
100
AcDbEntity
  8
0
  6
Continuous
 62
     7
370
    25
100
AcDbLine
 10
204.5798420741
 20
50.409768711
 30
0.0
 11
204.5798420741
 21
52.2769370477
 31
0.0
  0
LWPOLYLINE
  5
27D
330
1F
100
AcDbEntity
  8
0
  6
Continuous
 62
     7
370
    25
100
AcDbPolyline
 90
       33
 70
   128
 43
0.0
 10
194.2179114023
 20
57.2638920488
 10
194.6022370518
 20
57.442710485
 10
195.0396084245
 20
57.574808973
 10
195.5132175838
 20
57.6551110421
 10
196.0048639955
 20
57.6805307288
 10
196.4956539635
 20
57.6500911687
 10
196.9667267047
 20
57.5649621371
 10
197.3999791577
 20
57.4284150949
 10
197.7787616738
 20
57.2456974685
 10
198.0885178534
 20
57.0238309936
 10
198.3173439401
 20
56.7713418745
 10
198.4564462757
 20
56.4979331264
 10
198.5004792356
 20
56.2141116943
 10
198.4477506578
 20
55.9307846766
 10
198.3002868718
 20
55.6588401716
 10
198.0637548284
 20
55.4087288542
 10
197.7472443213
 20
55.1900623621
 10
197.3629186719
 20
55.0112439259
 10
196.9255472991
 20
54.8791454379
 10
196.4519381398
 20
54.7988433688
 10
195.9602917281
 20
54.7734236821
 10
195.4695017601
 20
54.8038632422
 10
194.998429019
 20
54.8889922738
 10
194.5651765659
 20
55.0255393159
 10
194.1863940498
 20
55.2082569424
 10
193.8766378702
 20
55.4301234173
 10
193.6478117835
 20
55.6826125364
 10
193.5087094479
 20
55.9560212844
 10
193.464676488
 20
56.2398427166
 10
193.5174050659
 20
56.5231697343
 10
193.6648688518
 20
56.7951142393
 10
193.9014008952
 20
57.0452255566
 10
194.2179114023
 20
57.2638920488
  0
LWPOLYLINE
  5
27E
330
1F
100
AcDbEntity
  8
0
  6
Continuous
 62
     7
370
    25
100
AcDbPolyline
 90
       36
 70
   128
 43
0.0
 10
193.8801158369
 20
57.2351508287
 10
194.2960172507
 20
57.4320164507
 10
194.7661261102
 20
57.5828477836
 10
195.2753327299
 20
57.6827969841
 10
195.8072707901
 20
57.7286516029
 10
196.3448433638
 20
57.7189378347
 10
196.8707724262
 20
57.653967888
 10
197.3681541845
 20
57.5358299503
 10
197.8210023797
 20
57.3683210723
 10
198.2147620982
 20
57.156825127
 10
198.5367775788
 20
56.9081397681
 10
198.7766989788
 20
56.6302579477
 10
198.9268150272
 20
56.3321110162
 10
198.9823008705
 20
56.0232816612
 10
198.9413731481
 20
55.7136959123
 10
198.8053473107
 20
55.4133041103
 10
198.5785953407
 20
55.1317610948
 10
198.2684052328
 20
54.8781158899
 10
197.8847467525
 20
54.6605208613
 10
197.4399509989
 20
54.4859696922
 10
196.9483140736
 20
54.3600726008
 10
196.4256375918
 20
54.2868760232
 10
195.8887208057
 20
54.2687325577
 10
195.3548206627
 20
54.3062253501
 10
194.8410971525
 20
54.3981493513
 10
194.3640617716
 20
54.5415500482
 10
193.9390468295
 20
54.7318184244
 10
193.5797126562
 20
54.9628390978
 10
193.2976085477
 20
55.2271868739
 10
193.1018015622
 20
55.5163653975
 10
192.9985850972
 20
55.8210802331
 10
192.991276615
 20
56.1315375951
 10
193.080111016
 20
56.4377591284
 10
193.2622330896
 20
56.729902621
 10
193.5317892826
 20
56.9985783407
 10
193.8801158369
 20
57.2351508287
  0
LWPOLYLINE
  5
27F
330
1F
100
AcDbEntity
  8
0
  6
Continuous
 62
     7
370
    25
100
AcDbPolyline
 90
       29
 70
   128
 43
0.0
 10
194.5809365119
 20
57.0505791461
 10
194.9335436381
 20
57.2099826127
 10
195.3387537206
 20
57.3200940834
 10
195.776247834
 20
57.3753921094
 10
196.2240881965
 20
57.3731038168
 10
196.6598182223
 20
57.31334395
 10
197.0615885886
 20
57.1991091185
 10
197.4092528515
 20
57.0361275335
 10
197.6853776731
 20
56.8325717724
 10
197.8761170019
 20
56.5986489709
 10
197.9719063715
 20
56.3460889951
 10
197.9679425029
 20
56.0875562569
 10
197.8644241611
 20
55.8360146672
 10
197.6665421879
 20
55.6040775716
 10
197.3842192117
 20
55.4033752647
 10
197.0316120855
 20
55.2439717982
 10
196.626402003
 20
55.1338603275
 10
196.1889078897
 20
55.0785623015
 10
195.7410675271
 20
55.0808505941
 10
195.3053375013
 20
55.1406104608
 10
194.903567135
 20
55.2548452924
 10
194.5559028721
 20
55.4178268774
 10
194.2797780505
 20
55.6213826385
 10
194.0890387217
 20
55.85530544
 10
193.9932493521
 20
56.1078654157
 10
193.9972132207
 20
56.366398154
 10
194.1007315625
 20
56.6179397437
 10
194.2986135358
 20
56.8498768392
 10
194.5809365119
 20
57.0505791461
  0
SPLINE
  5
280
330
1F
100
AcDbEntity
  8
0
  6
Continuous
 62
     7
370
    25
100
AcDbSpline
210
0.0
220
0.0
230
1.0
 70
     8
 71
     3
 72
    13
 73
     9
 74
     0
 42
0.000000001
 43
0.00000001
 40
0.0
 40
0.0
 40
0.0
 40
0.0
 40
0.1858585508580355
 40
0.3545088035973571
 40
0.5287517039503257
 40
0.7072103787972863
 40
0.8922150243135919
 40
0.9999999999999999
 40
0.9999999999999999
 40
0.9999999999999999
 40
0.9999999999999999
 10
197.6595126120886
 20
56.25841839872191
 30
0.0
 10
197.5882043263544
 20
56.26179072858742
 30
0.0
 10
197.4521900566558
 20
56.26822315055798
 30
0.0
 10
197.2351489291866
 20
56.3286757164334
 30
0.0
 10
197.0140199957912
 20
56.43945147014865
 30
0.0
 10
196.7877748230426
 20
56.6111054736519
 30
0.0
 10
196.5983250446369
 20
56.79700321692819
 30
0.0
 10
196.4867352674482
 20
56.92467766312652
 30
0.0
 10
196.4456555960728
 20
56.97167860196695
 30
0.0
  0
SPLINE
  5
281
330
1F
100
AcDbEntity
  8
0
  6
Continuous
 62
     7
370
    25
100
AcDbSpline
210
0.0
220
0.0
230
1.0
 70
     8
 71
     3
 72
    11
 73
     7
 74
     0
 42
0.000000001
 43
0.00000001
 40
0.0
 40
0.0
 40
0.0
 40
0.0
 40
0.2164553779443472
 40
0.4403112895790633
 40
0.7519005688038936
 40
1.0
 40
1.0
 40
1.0
 40
1.0
 10
196.4456555960728
 20
56.97167860196695
 30
0.0
 10
196.3307839408794
 20
56.91017550808831
 30
0.0
 10
196.0971132087655
 20
56.78506655105527
 30
0.0
 10
195.6634827395427
 20
56.64514447237804
 30
0.0
 10
195.1983362771026
 20
56.62108419939105
 30
0.0
 10
194.9006704729902
 20
56.69062142097837
 30
0.0
 10
194.7687208457924
 20
56.72144595754941
 30
0.0
  0
SPLINE
  5
282
330
1F
100
AcDbEntity
  8
0
  6
Continuous
 62
     7
370
    25
100
AcDbSpline
210
0.0
220
0.0
230
1.0
 70
     8
 71
     3
 72
    11
 73
     7
 74
     0
 42
0.000000001
 43
0.00000001
 40
0.0
 40
0.0
 40
0.0
 40
0.0
 40
0.2164553779443548
 40
0.4403112895790617
 40
0.7519005688038974
 40
1.0
 40
1.0
 40
1.0
 40
1.0
 10
194.305643111528
 20
55.75795310988682
 30
0.0
 10
194.3373643850059
 20
55.77959138820664
 30
0.0
 10
194.4018914712107
 20
55.8236077500164
 30
0.0
 10
194.5216365090914
 20
55.99753709254106
 30
0.0
 10
194.6500845419631
 20
56.31013876714627
 30
0.0
 10
194.7322835697508
 20
56.59511941878442
 30
0.0
 10
194.7687208457924
 20
56.72144595754941
 30
0.0
  0
SPLINE
  5
283
330
1F
100
AcDbEntity
  8
0
  6
Continuous
 62
     7
370
    25
100
AcDbSpline
210
0.0
220
0.0
230
1.0
 70
     8
 71
     3
 72
    11
 73
     7
 74
     0
 42
0.000000001
 43
0.00000001
 40
0.0
 40
0.0
 40
0.0
 40
0.0
 40
0.0709807427657352
 40
0.4227943131130573
 40
0.7875126151275306
 40
1.0
 40
1.0
 40
1.0
 40
1.0
 10
194.9215911137226
 20
55.21096563730671
 30
0.0
 10
194.9064238031281
 20
55.21836818851777
 30
0.0
 10
194.8160802477534
 20
55.26246122604622
 30
0.0
 10
194.6476611006656
 20
55.40053092812302
 30
0.0
 10
194.458326221272
 20
55.58285253155118
 30
0.0
 10
194.3467264587979
 20
55.7108377617715
 30
0.0
 10
194.305643111528
 20
55.75795310988682
 30
0.0
  0
SPLINE
  5
284
330
1F
100
AcDbEntity
  8
0
  6
Continuous
 62
     7
370
    25
100
AcDbSpline
210
0.0
220
0.0
230
1.0
 70
     8
 71
     3
 72
    11
 73
     7
 74
     0
 42
0.000000001
 43
0.00000001
 40
0.0
 40
0.0
 40
0.0
 40
0.0
 40
0.2164553779443351
 40
0.440311289579063
 40
0.7519005688038929
 40
1.0
 40
1.0
 40
1.0
 40
1.0
 10
197.6595126120886
 20
56.25841839872191
 30
0.0
 10
197.6277913386107
 20
56.14805628983592
 30
0.0
 10
197.5632642524058
 20
55.92355883014818
 30
0.0
 10
197.4435192145253
 20
55.59919823556604
 30
0.0
 10
197.3150711816535
 20
55.37729456987502
 30
0.0
 10
197.2328721538658
 20
55.32022390054419
 30
0.0
 10
197.1964348778241
 20
55.29492555105931
 30
0.0
  0
LINE
  5
285
330
1F
100
AcDbEntity
  8
0
  6
Continuous
 62
     7
370
    25
100
AcDbLine
 10
194.7687208458
 20
55.3093709609
 30
0.0
 11
194.7687208458
 21
56.7214459575
 31
0.0
  0
LINE
  5
286
330
1F
100
AcDbEntity
  8
0
  6
Continuous
 62
     7
370
    25
100
AcDbLine
 10
196.4456555961
 20
55.1037766134
 30
0.0
 11
196.4456555961
 21
56.971678602
 31
0.0
  0
LWPOLYLINE
  5
287
330
1F
100
AcDbEntity
  8
0
  6
Continuous
 62
     7
370
    18
100
AcDbPolyline
 90
       10
 70
   128
 43
0.0
 10
184.4920926675
 20
44.4896177223
 10
184.5260270873
 20
43.6616227329
 10
184.6275408301
 20
42.879871752
 10
184.7957678166
 20
42.1510344032
 10
185.0292727932
 20
41.4813288698
 10
185.326063578
 20
40.8764688434
 10
185.6836080566
 20
40.3416147763
 10
186.0988557856
 20
39.8813298549
 10
186.5682640177
 20
39.4995410679
 10
186.8225010848
 20
39.3388636495
  0
LWPOLYLINE
  5
288
330
1F
100
AcDbEntity
  8
0
  6
Continuous
 62
     7
370
    18
100
AcDbPolyline
 90
       27
 70
   128
 43
0.0
 10
197.9261030263
 20
58.9047131723
 10
197.8062599843
 20
58.964321
 10
197.2409731329
 20
59.1800431478
 10
196.6347861682
 20
59.3096116126
 10
195.9928708634
 20
59.351920962
 10
195.3207038137
 20
59.3066102276
 10
194.6240197113
 20
59.1740659846
 10
193.9087624194
 20
58.9554190537
 10
193.1810342609
 20
58.6525348534
 10
192.4470439559
 20
58.267997485
 10
191.7130536509
 20
57.8050876857
 10
190.9853254924
 20
57.2677548387
 10
190.2700682004
 20
56.6605832783
 10
189.573384098
 20
55.9887531783
 10
188.9012170483
 20
55.2579963562
 10
188.2593017436
 20
54.4745473715
 10
187.6531147788
 20
53.6450903347
 10
187.0878279275
 20
52.7767018808
 10
186.5682640177
 20
51.876790794
 10
186.0988557856
 20
50.9530347982
 10
185.6836080566
 20
50.013315054
 10
185.326063578
 20
49.0656489189
 10
185.0292727932
 20
48.1181215462
 10
184.7957678166
 20
47.1788169054
 10
184.6275408301
 20
46.2557488124
 10
184.5260270873
 20
45.3567925587
 10
184.4920926675
 20
44.4896177223
  0
LWPOLYLINE
  5
289
330
1F
100
AcDbEntity
  8
0
  6
Continuous
 62
     7
370
    18
100
AcDbPolyline
 90
       54
 70
   128
 43
0.0
 10
205.2810320344
 20
36.0806141705
 10
205.3150293695
 20
36.7617782807
 10
205.4165441265
 20
37.4726328274
 10
205.584151261
 20
38.2031989711
 10
205.815497936
 20
38.9432211644
 10
206.1073365515
 20
39.682311118
 10
206.4555703329
 20
40.410093629
 10
206.8553108413
 20
41.1163522263
 10
207.3009465962
 20
41.7911725873
 10
207.7862218484
 20
42.4250817133
 10
208.3043243972
 20
43.0091809099
 10
208.8479812185
 20
43.5352707045
 10
209.4095605622
 20
43.9959659497
 10
209.9811790852
 20
44.3847994942
 10
210.5548125167
 20
44.6963129672
 10
211.1224083005
 20
44.9261334025
 10
211.6759986361
 20
45.071034625
 10
212.2078123286
 20
45.128982539
 10
212.7103838796
 20
45.099163683
 10
213.1766582861
 20
44.9819966482
 10
213.6000900775
 20
44.779126203
 10
213.9747351998
 20
44.4934002039
 10
214.2953344565
 20
44.1288296173
 10
214.5573873369
 20
43.6905322154
 10
214.7572151929
 20
43.1846607328
 10
214.8920128796
 20
42.6183164962
 10
214.9598881328
 20
41.9994497374
 10
214.9598881328
 20
41.3367479889
 10
214.8920128796
 20
40.6395141308
 10
214.7572151929
 20
39.917535798
 10
214.5573873369
 20
39.1809479837
 10
214.2953344565
 20
38.4400907662
 10
213.9747351998
 20
37.7053641569
 10
213.6000900775
 20
36.9870821068
 10
213.1766582861
 20
36.2953277214
 10
212.7103838796
 20
35.639811716
 10
212.2078123286
 20
35.0297360983
 10
211.6759986361
 20
34.4736649927
 10
211.1224083005
 20
33.9794044186
 10
210.5548125167
 20
33.553892711
 10
209.9811790852
 20
33.2031031217
 10
209.4095605622
 20
32.9319599674
 10
208.8479812185
 20
32.7442695037
 10
208.3043243972
 20
32.6426664933
 10
207.7862218484
 20
32.6285772198
 10
207.3009465962
 20
32.7021994656
 10
206.8553108413
 20
32.8624997359
 10
206.4555703329
 20
33.1072277661
 10
206.1073365515
 20
33.4329481112
 10
205.815497936
 20
33.8350883716
 10
205.584151261
 20
34.3080033795
 10
205.4165441265
 20
34.8450544448
 10
205.3150293695
 20
35.4387025479
 10
205.2810320344
 20
36.0806141705
  0
LWPOLYLINE
  5
28A
330
1F
100
AcDbEntity
  8
0
  6
Continuous
 62
     7
370
    18
100
AcDbPolyline
 90
       27
 70
   128
 43
0.0
 10
212.8657261029
 20
44.5105270253
 10
213.1435316502
 20
44.3088139112
 10
213.4579138053
 20
43.9774558176
 10
213.7153366304
 20
43.5724899368
 10
213.9118978579
 20
43.1000551387
 10
214.04461782
 20
42.5673130533
 10
214.1114846173
 20
41.9823395076
 10
214.1114846173
 20
41.3540021041
 10
214.04461782
 20
40.6918257975
 10
213.9118978579
 20
40.0058485056
 10
213.7153366304
 20
39.3064689449
 10
213.4579138053
 20
38.6042889966
 10
213.1435316502
 20
37.909952993
 10
212.7769558781
 20
37.23398636
 10
212.3637434041
 20
36.5866360629
 10
211.910158108
 20
35.9777152723
 10
211.4230758807
 20
35.4164546066
 10
210.9098803921
 20
34.9113622054
 10
210.3783511627
 20
34.4700947546
 10
209.8365456339
 20
34.0993414191
 10
209.2926770252
 20
33.8047224414
 10
208.7549898302
 20
33.590703945
 10
208.2316348389
 20
33.460530232
 10
207.7305455793
 20
33.4161746033
 10
207.2593180539
 20
33.458309445
 10
206.8250955916
 20
33.5862960359
 10
206.6164614002
 20
33.6860057522
  0
LWPOLYLINE
  5
28B
330
1F
100
AcDbEntity
  8
0
  6
Continuous
 62
     7
370
    18
100
AcDbPolyline
 90
       33
 70
   128
 43
0.0
 10
183.4667878348
 20
44.3059258971
 10
183.5005456575
 20
45.2058386142
 10
183.6015549248
 20
46.1376842465
 10
183.7690251024
 20
47.0941698386
 10
184.0016455088
 20
48.0678095939
 10
184.2975955742
 20
49.0509834612
 10
184.654559088
 20
50.0359967719
 10
185.0697423266
 20
51.0151404613
 10
185.5398959184
 20
51.9807514025
 10
186.061340274
 20
52.9252723807
 10
186.6299943843
 20
53.8413112386
 10
187.2414077598
 20
54.7216987301
 10
187.8907952621
 20
55.5595446293
 10
188.5730745533
 20
56.3482916563
 10
189.2829058729
 20
57.0817667959
 10
190.0147338285
 20
57.7542296109
 10
190.7628308741
 20
58.3604171679
 10
191.5213421359
 20
58.8955852273
 10
192.2843312349
 20
59.3555453736
 10
193.045826747
 20
59.7366977949
 10
193.7998689371
 20
60.0360594567
 10
194.540556403
 20
60.2512874481
 10
195.2620922608
 20
60.3806973184
 10
195.9588295141
 20
60.4232762597
 10
196.6253152494
 20
60.3786910342
 10
197.2563333121
 20
60.2472905817
 10
197.8469451302
 20
60.0301032889
 10
198.3925283655
 20
59.7288289409
 10
198.8888130895
 20
59.3458254178
 10
199.3319152013
 20
58.8840902416
 10
199.7183668261
 20
58.347237116
 10
200.045143456
 20
57.7394676447
 10
200.0781775379
 20
57.6665828924
  0
LWPOLYLINE
  5
28C
330
1F
100
AcDbEntity
  8
0
  6
Continuous
 62
     7
370
    18
100
AcDbPolyline
 90
       15
 70
   128
 43
0.0
 10
188.8290917958
 20
38.1804834889
 10
188.5730745533
 20
38.1591532919
 10
187.8907952621
 20
38.1601574168
 10
187.2414077598
 20
38.2482364652
 10
186.6299943843
 20
38.4227010992
 10
186.061340274
 20
38.6821858965
 10
185.5398959184
 20
39.0246600367
 10
185.0697423266
 20
39.4474431953
 10
184.654559088
 20
39.9472265208
 10
184.2975955742
 20
40.5200985312
 10
184.0016455088
 20
41.1615757262
 10
183.7690251024
 20
41.866637677
 10
183.6015549248
 20
42.6297663179
 10
183.5005456575
 20
43.4449891325
 10
183.4667878348
 20
44.3059258971
  0
LWPOLYLINE
  5
28D
330
1F
100
AcDbEntity
  8
0
  6
Continuous
 62
     7
370
    18
100
AcDbPolyline
 90
       26
 70
   128
 43
0.0
 10
183.0425237661
 20
44.3059258971
 10
183.0761582009
 20
45.2149204048
 10
183.1768055269
 20
46.1558304073
 10
183.3436997573
 20
47.1214950112
 10
183.5755707261
 20
48.104564926
 10
183.8706537552
 20
49.0975583958
 10
184.2267030847
 20
50.092918141
 10
184.6410089642
 20
51.0830688726
 10
185.1104182757
 20
52.0604749459
 10
185.6313585309
 20
53.0176977105
 10
186.19986506
 20
53.947452123
 10
186.811611185
 20
54.8426621911
 10
187.4619411485
 20
55.6965148256
 10
188.1459055468
 20
56.5025116923
 10
188.8582989978
 20
57.2545186684
 10
189.5936997573
 20
57.9468125268
 10
190.3465109813
 20
58.5741244931
 10
191.111003322
 20
59.1316803446
 10
191.8813585309
 20
59.6152367446
 10
192.6517137399
 20
60.0211135368
 10
193.4162060805
 20
60.3462217538
 10
194.1690173046
 20
60.5880871257
 10
194.904418064
 20
60.7448689111
 10
195.6168115151
 20
60.8153739059
 10
196.3007759133
 20
60.7990655245
 10
196.5267710133
 20
60.7736309304
  0
ARC
  5
28E
330
1F
100
AcDbEntity
  8
0
  6
Continuous
 62
     7
370
    18
100
AcDbCircle
 10
190.5928783505
 20
43.97922742
 30
0.0
 40
7.557419284736198
100
AcDbArc
 50
177.5223977819
 51
214.4417333153
  0
LWPOLYLINE
  5
28F
330
1F
100
AcDbEntity
  8
0
  6
Continuous
 62
     7
370
    18
100
AcDbPolyline
 90
       22
 70
   128
 43
0.0
 10
176.2896540058
 20
48.2042746311
 10
176.3232884406
 20
49.1132691388
 10
176.4239357666
 20
50.0541791412
 10
176.5908299969
 20
51.0198437452
 10
176.8227009657
 20
52.0029136599
 10
177.1177839949
 20
52.9959071298
 10
177.4738333244
 20
53.9912668749
 10
177.8881392039
 20
54.9814176066
 10
178.3575485153
 20
55.9588236799
 10
178.8784887706
 20
56.9160464444
 10
179.4469952997
 20
57.845800857
 10
180.0587414247
 20
58.7410109251
 10
180.7090713882
 20
59.5948635595
 10
181.3930357865
 20
60.4008604262
 10
182.1054292375
 20
61.1528674023
 10
182.8408299969
 20
61.8451612607
 10
183.593641221
 20
62.4724732271
 10
184.3581335616
 20
63.0300290786
 10
185.1284887706
 20
63.5135854785
 10
185.8988439795
 20
63.9194622707
 10
186.6633363202
 20
64.2445704877
 10
186.8259817749
 20
64.3035311212
  0
ARC
  5
290
330
1F
100
AcDbEntity
  8
0
  6
Continuous
 62
     7
370
    18
100
AcDbCircle
 10
186.0806248487
 20
48.1323648926
 30
0.0
 40
9.791234909692657
100
AcDbArc
 50
179.5791989876
 51
191.9624588888
  0
LWPOLYLINE
  5
291
330
1F
100
AcDbEntity
  8
0
  6
Continuous
 62
     7
370
    18
100
AcDbPolyline
 90
       31
 70
   128
 43
0.0
 10
183.7849858863
 20
44.4896177223
 10
183.8184334835
 20
45.3689579194
 10
183.9185069747
 20
46.2798359601
 10
184.0844006269
 20
47.2149179898
 10
184.314778762
 20
48.1666752779
 10
184.6077865107
 20
49.1274448343
 10
184.961064747
 20
50.0894911075
 10
185.3717690822
 20
51.0450682667
 10
185.8365927664
 20
51.9864825662
 10
186.3517933127
 20
52.9061542918
 10
186.9132226293
 20
53.7966787875
 10
187.5163604173
 20
54.6508860737
 10
188.1563505659
 20
55.4618985755
 10
188.8280402508
 20
56.2231864972
 10
189.5260214216
 20
56.928620396
 10
190.2446743443
 20
57.5725205331
 10
190.9782128482
 20
58.149702603
 10
191.7207309124
 20
58.6555194751
 10
192.4662502182
 20
59.0858986095
 10
193.2087682824
 20
59.4373748463
 10
193.9423067862
 20
59.7071183056
 10
194.6609597089
 20
59.8929571716
 10
195.3589408797
 20
59.9933951791
 10
196.0306305646
 20
60.0076236603
 10
196.6706207133
 20
59.9355280558
 10
197.2737585013
 20
59.7776888371
 10
197.8351878178
 20
59.5353768326
 10
198.3503883642
 20
59.2105429963
 10
198.8152120484
 20
58.8058026992
 10
199.2259163836
 20
58.3244146721
 10
199.4137537165
 20
58.0501466002
  0
LWPOLYLINE
  5
292
330
1F
100
AcDbEntity
  8
0
  6
Continuous
 62
     7
370
    18
100
AcDbPolyline
 90
       14
 70
   128
 43
0.0
 10
188.1646679743
 20
38.5640471966
 10
188.1563505659
 20
38.5644070982
 10
187.5163604173
 20
38.6365027027
 10
186.9132226293
 20
38.7943419214
 10
186.3517933127
 20
39.0366539258
 10
185.8365927664
 20
39.3614877621
 10
185.3717690822
 20
39.7662280593
 10
184.961064747
 20
40.2476160864
 10
184.6077865107
 20
40.8017759901
 10
184.314778762
 20
41.4242460008
 10
184.0844006269
 20
42.1100143558
 10
183.9185069747
 20
42.8535596517
 10
183.8184334835
 20
43.6488952988
 10
183.7849858863
 20
44.4896177223
  0
LINE
  5
293
330
1F
100
AcDbEntity
  8
0
  6
Continuous
 62
     7
370
    18
100
AcDbLine
 10
186.4024948023
 20
59.2094875597
 30
0.0
 11
184.8626834869
 21
56.5424561351
 31
0.0
  0
LINE
  5
294
330
1F
100
AcDbEntity
  8
0
  6
Continuous
 62
     7
370
    18
100
AcDbLine
 10
182.1943533284
 20
51.9207727428
 30
0.0
 11
180.6544516571
 21
49.2535848172
 31
0.0
  0
LINE
  5
295
330
1F
100
AcDbEntity
  8
0
  6
Continuous
 62
     7
370
    18
100
AcDbLine
 10
185.3614616616
 20
59.8104631997
 30
0.0
 11
179.6134185164
 21
49.8545604572
 31
0.0
  0
LINE
  5
296
330
1F
100
AcDbEntity
  8
0
  6
Continuous
 62
     7
370
    18
100
AcDbLine
 10
185.0218185708
 20
59.7200733108
 30
0.0
 11
179.5218753893
 21
50.1938923096
 31
0.0
  0
LINE
  5
297
330
1F
100
AcDbEntity
  8
0
  6
Continuous
 62
     7
370
    18
100
AcDbLine
 10
173.2456375483
 20
65.0175459427
 30
0.0
 11
181.3672431625
 21
60.4164027495
 31
0.0
  0
LINE
  5
298
330
1F
100
AcDbEntity
  8
0
  6
Continuous
 62
     7
370
    18
100
AcDbLine
 10
168.9854703267
 20
54.0374077506
 30
0.0
 11
176.3178430041
 21
49.5863480959
 31
0.0
  0
LINE
  5
299
330
1F
100
AcDbEntity
  8
0
  6
Continuous
 62
     7
370
    18
100
AcDbLine
 10
179.5218753893
 20
43.5828080052
 30
0.0
 11
180.8692981081
 21
42.8047045609
 31
0.0
  0
LINE
  5
29A
330
1F
100
AcDbEntity
  8
0
  6
Continuous
 62
     7
370
    18
100
AcDbLine
 10
192.0936283742
 20
62.2473615736
 30
0.0
 11
190.7468753893
 21
63.0250782631
 31
0.0
  0
LINE
  5
29B
330
1F
100
AcDbEntity
  8
0
  6
Continuous
 62
     7
370
    18
100
AcDbLine
 10
176.6466646947
 20
66.9809171228
 30
0.0
 11
184.1506573607
 21
62.9426358254
 31
0.0
  0
LINE
  5
29C
330
1F
100
AcDbEntity
  8
0
  6
Continuous
 62
     7
370
    18
100
AcDbLine
 10
172.8684005713
 20
65.1058749507
 30
0.0
 11
173.2456375483
 21
65.0175459427
 31
0.0
  0
LINE
  5
29D
330
1F
100
AcDbEntity
  8
0
  6
Continuous
 62
     7
370
    18
100
AcDbLine
 10
168.7613264587
 20
54.5203183337
 30
0.0
 11
168.9854703267
 21
54.0374077506
 31
0.0
  0
OLE2FRAME
  5
29E
330
1F
100
AcDbEntity
  8
0
100
AcDbOle2Frame
 70
     2
  3
Paintbrush-Bild
 10
13.8511154363
 20
38.264191557
 30
0.0
 11
51.6290888628
 21
31.9806341108
 31
0.0
 71
     2
 72
     0
 73
     1
 90
    12928
310
80552BED0767C5B32B40DDAF6807D121434000000000000000006FFBDDFB85D0
310
4940DDAF6807D121434000000000000000006FFBDDFB85D04940416F4BD60AFB
310
3F4000000000000000002BED0767C5B32B40416F4BD60AFB3F40000000000000
310
0000000000000100000000010000010000000100000000000100000000320000
310
D0CF11E0A1B11AE1000000000000000000000000000000003E000300FEFF0900
310
0600000000000000000000000100000001000000000000000010000002000000
310
01000000FEFFFFFF0000000000000000FFFFFFFFFFFFFFFFFFFFFFFFFFFFFFFF
310
FFFFFFFFFFFFFFFFFFFFFFFFFFFFFFFFFFFFFFFFFFFFFFFFFFFFFFFFFFFFFFFF
310
FFFFFFFFFFFFFFFFFFFFFFFFFFFFFFFFFFFFFFFFFFFFFFFFFFFFFFFFFFFFFFFF
310
FFFFFFFFFFFFFFFFFFFFFFFFFFFFFFFFFFFFFFFFFFFFFFFFFFFFFFFFFFFFFFFF
310
FFFFFFFFFFFFFFFFFFFFFFFFFFFFFFFFFFFFFFFFFFFFFFFFFFFFFFFFFFFFFFFF
310
FFFFFFFFFFFFFFFFFFFFFFFFFFFFFFFFFFFFFFFFFFFFFFFFFFFFFFFFFFFFFFFF
310
FFFFFFFFFFFFFFFFFFFFFFFFFFFFFFFFFFFFFFFFFFFFFFFFFFFFFFFFFFFFFFFF
310
FFFFFFFFFFFFFFFFFFFFFFFFFFFFFFFFFFFFFFFFFFFFFFFFFFFFFFFFFFFFFFFF
310
FFFFFFFFFFFFFFFFFFFFFFFFFFFFFFFFFFFFFFFFFFFFFFFFFFFFFFFFFFFFFFFF
310
FFFFFFFFFFFFFFFFFFFFFFFFFFFFFFFFFFFFFFFFFFFFFFFFFFFFFFFFFFFFFFFF
310
FFFFFFFFFFFFFFFFFFFFFFFFFFFFFFFFFFFFFFFFFFFFFFFFFFFFFFFFFFFFFFFF
310
FFFFFFFFFFFFFFFFFFFFFFFFFFFFFFFFFFFFFFFFFFFFFFFFFFFFFFFFFFFFFFFF
310
FFFFFFFFFFFFFFFFFFFFFFFFFFFFFFFFFFFFFFFFFFFFFFFFFFFFFFFFFFFFFFFF
310
FFFFFFFFFFFFFFFFFFFFFFFFFFFFFFFFFFFFFFFFFFFFFFFFFFFFFFFFFFFFFFFF
310
FDFFFFFFFEFFFFFFFEFFFFFFFEFFFFFF05000000060000000700000008000000
310
090000000A0000000B0000000C0000000D0000000E0000000F00000010000000
310
11000000120000001300000014000000150000001600000017000000FEFFFFFF
310
FFFFFFFFFFFFFFFFFFFFFFFFFFFFFFFFFFFFFFFFFFFFFFFFFFFFFFFFFFFFFFFF
310
FFFFFFFFFFFFFFFFFFFFFFFFFFFFFFFFFFFFFFFFFFFFFFFFFFFFFFFFFFFFFFFF
310
FFFFFFFFFFFFFFFFFFFFFFFFFFFFFFFFFFFFFFFFFFFFFFFFFFFFFFFFFFFFFFFF
310
FFFFFFFFFFFFFFFFFFFFFFFFFFFFFFFFFFFFFFFFFFFFFFFFFFFFFFFFFFFFFFFF
310
FFFFFFFFFFFFFFFFFFFFFFFFFFFFFFFFFFFFFFFFFFFFFFFFFFFFFFFFFFFFFFFF
310
FFFFFFFFFFFFFFFFFFFFFFFFFFFFFFFFFFFFFFFFFFFFFFFFFFFFFFFFFFFFFFFF
310
FFFFFFFFFFFFFFFFFFFFFFFFFFFFFFFFFFFFFFFFFFFFFFFFFFFFFFFFFFFFFFFF
310
FFFFFFFFFFFFFFFFFFFFFFFFFFFFFFFFFFFFFFFFFFFFFFFFFFFFFFFFFFFFFFFF
310
FFFFFFFFFFFFFFFFFFFFFFFFFFFFFFFFFFFFFFFFFFFFFFFFFFFFFFFFFFFFFFFF
310
FFFFFFFFFFFFFFFFFFFFFFFFFFFFFFFFFFFFFFFFFFFFFFFFFFFFFFFFFFFFFFFF
310
FFFFFFFFFFFFFFFFFFFFFFFFFFFFFFFFFFFFFFFFFFFFFFFFFFFFFFFFFFFFFFFF
310
FFFFFFFFFFFFFFFFFFFFFFFFFFFFFFFFFFFFFFFFFFFFFFFFFFFFFFFFFFFFFFFF
310
FFFFFFFFFFFFFFFFFFFFFFFFFFFFFFFFFFFFFFFFFFFFFFFFFFFFFFFFFFFFFFFF
310
52006F006F007400200045006E00740072007900000000000000000000000000
310
0000000000000000000000000000000000000000000000000000000000000000
310
16000500FFFFFFFFFFFFFFFF020000000A00030000000000C000000000000046
310
00000000000000000000000070E0596A968ED30103000000C000000000000000
310
01004F006C006500000000000000000000000000000000000000000000000000
310
0000000000000000000000000000000000000000000000000000000000000000
310
0A000200FFFFFFFFFFFFFFFFFFFFFFFF00000000000000000000000000000000
310
0000000000000000000000000000000000000000000000001400000000000000
310
010043006F006D0070004F0062006A0000000000000000000000000000000000
310
0000000000000000000000000000000000000000000000000000000000000000
310
120002010100000003000000FFFFFFFF00000000000000000000000000000000
310
0000000000000000000000000000000000000000010000004D00000000000000
310
01004F006C006500310030004E00610074006900760065000000000000000000
310
0000000000000000000000000000000000000000000000000000000000000000
310
1A000200FFFFFFFFFFFFFFFFFFFFFFFF00000000000000000000000000000000
310
0000000000000000000000000000000000000000040000002426000000000000
310
FEFFFFFF02000000FEFFFFFFFFFFFFFFFFFFFFFFFFFFFFFFFFFFFFFFFFFFFFFF
310
FFFFFFFFFFFFFFFFFFFFFFFFFFFFFFFFFFFFFFFFFFFFFFFFFFFFFFFFFFFFFFFF
310
FFFFFFFFFFFFFFFFFFFFFFFFFFFFFFFFFFFFFFFFFFFFFFFFFFFFFFFFFFFFFFFF
310
FFFFFFFFFFFFFFFFFFFFFFFFFFFFFFFFFFFFFFFFFFFFFFFFFFFFFFFFFFFFFFFF
310
FFFFFFFFFFFFFFFFFFFFFFFFFFFFFFFFFFFFFFFFFFFFFFFFFFFFFFFFFFFFFFFF
310
FFFFFFFFFFFFFFFFFFFFFFFFFFFFFFFFFFFFFFFFFFFFFFFFFFFFFFFFFFFFFFFF
310
FFFFFFFFFFFFFFFFFFFFFFFFFFFFFFFFFFFFFFFFFFFFFFFFFFFFFFFFFFFFFFFF
310
FFFFFFFFFFFFFFFFFFFFFFFFFFFFFFFFFFFFFFFFFFFFFFFFFFFFFFFFFFFFFFFF
310
FFFFFFFFFFFFFFFFFFFFFFFFFFFFFFFFFFFFFFFFFFFFFFFFFFFFFFFFFFFFFFFF
310
FFFFFFFFFFFFFFFFFFFFFFFFFFFFFFFFFFFFFFFFFFFFFFFFFFFFFFFFFFFFFFFF
310
FFFFFFFFFFFFFFFFFFFFFFFFFFFFFFFFFFFFFFFFFFFFFFFFFFFFFFFFFFFFFFFF
310
FFFFFFFFFFFFFFFFFFFFFFFFFFFFFFFFFFFFFFFFFFFFFFFFFFFFFFFFFFFFFFFF
310
FFFFFFFFFFFFFFFFFFFFFFFFFFFFFFFFFFFFFFFFFFFFFFFFFFFFFFFFFFFFFFFF
310
FFFFFFFFFFFFFFFFFFFFFFFFFFFFFFFFFFFFFFFFFFFFFFFFFFFFFFFFFFFFFFFF
310
FFFFFFFFFFFFFFFFFFFFFFFFFFFFFFFFFFFFFFFFFFFFFFFFFFFFFFFFFFFFFFFF
310
FFFFFFFFFFFFFFFFFFFFFFFFFFFFFFFFFFFFFFFFFFFFFFFFFFFFFFFFFFFFFFFF
310
0100000200000000000000000000000000000000000000000000000000000000
310
0000000000000000000000000000000000000000000000000000000000000000
310
0100FEFF030A0000FFFFFFFF0A00030000000000C00000000000004607000000
310
5042727573680007000000504272757368000700000050427275736800F439B2
310
7100000000000000000000000000000000000000000000000000000000000000
310
0000000000000000000000000000000000000000000000000000000000000000
310
0000000000000000000000000000000000000000000000000000000000000000
310
0000000000000000000000000000000000000000000000000000000000000000
310
0000000000000000000000000000000000000000000000000000000000000000
310
0000000000000000000000000000000000000000000000000000000000000000
310
0000000000000000000000000000000000000000000000000000000000000000
310
0000000000000000000000000000000000000000000000000000000000000000
310
0000000000000000000000000000000000000000000000000000000000000000
310
0000000000000000000000000000000000000000000000000000000000000000
310
0000000000000000000000000000000000000000000000000000000000000000
310
0000000000000000000000000000000000000000000000000000000000000000
310
20260000424D0E260000000000003E00000028000000B40200006E0000000100
310
01000000000000000000130B0000130B00000200000002000000000000FFFFFF
310
FFFFFFFFFFFFFFFFFFFFFFFFFFFFFFFFFFFFFFFFFFFFFFFFFFFFFFFFFFFFFFFF
310
FFFFFFFFFFFFFFFFFFFFFFFFFFFFFFFFFFFFFFFFFFFFFFFFFFFFFFFFFFFFFFFF
310
FFFFFFFFFFFFFFFFFFFFFFFFFFFFFFFFFFFFFFFFFFFFFFFFF000FFFFFFFFFFFF
310
FFFFFFFFFFFFFFFFFFFFFFFFFFFFFFFFFFFFFFFFFFFFFFFFFFFFFFFFFFFFFFFF
310
FFFFFFFFFFFFFFFFFFFFFFFFFFFFFFFFFFFFFFFFFFFFFFFFFFFFFFFFFFFFFFFF
310
FFFFFFFFFFFFFFFFFFFFFFFFFFFFFFFFF000FFFFFFFFFFFFFFFFFFFFFFFFFFFF
310
FFFFFFFFFFFFFFFFFFFFFFFFFFFFFFFFFFFFFFFFFFFFFFFFFFFFFFFFFFFFFFFF
310
FFFFFFFFFFFFFFFFFFFFFFFFFFFFFFFFFFFFFFFFFFFFFFFFFFFFFFFFFFFFFFFF
310
FFFFFFFFFFFFFFFFF000FFFFFFFFFFFFFFFFFFFFFFFFFFFFFFFFFFFFFFFFFFFF
310
FFFFFFFFFFFFFFFFFFFFFFFFFFFFFFFFFFFFFFFFFFFFFFFFFFFFFFFFFFFFFFFF
310
FFFFFFFFFFFFFFFFFFFFFFFFFFFFFFFFFFFFFFFFFFFFFFFFFFFFFFFFFFFFFFFF
310
F000FFFFFFFFFFFFFFFFFFFFFFFFFFFFFFFFFFFFFFFFFFFFFFFFFFFFFFFFFFFF
310
FFFFFFFFFFFFFFFFFFFFFFFFFFFFFFFFFFFFFFFFFFFFFFFFFFFFFFFFFFFFFFFF
310
FFFFFFFFFFFFFFFFFFFFFFFFFFFFFFFFFFFFFFFFFFFFFFFFF000FFFFFFFFFFFF
310
FFFFFFFFFFFFFFFFFFFFFFFFFFFFFFFFFFFFFFFFFFFFFFFFFFFFFFFFFFFFFFFF
310
FFFFFFFFFFFFFFFFFFFFFFFFFFFFFFFFFFFFFFFFFFFFFFFFFFFFFFFFFFFFFFFF
310
FFFFFFFFFFFFFFFFFFFFFFFFFFFFFFFFF000FFFFFFFFFFFFFFFFFFFFFFFFFFFF
310
FFFFFFFFFFFFFFFFFFFFFFFFFFFFFFFFFFFFFFFFFFFFFFFFFFFFFFFFFFFFFFFF
310
FFFFFFFFFFFFFFFFFFFFFFFFFFFFFFFFFFFFFFFFFFFFFFFFFFFFFFFFFFFFFFFF
310
FFFFFFFFFFFFFFFFF000FFFFFFFFFFFFFFFFFFFFFFFFFFFFFFFFFFFFFFFFFFFF
310
FFFFFFFFFFFFFFFFFFFFFFFFFFFFFFFFFFFFFFFFFFFFFFFFFFFFFFFFFFFFFFFF
310
FFFFFFFFFFFFFFFFFFFFFFFFFFFFFFFFFFFFFFFFFFFFFFFFFFFFFFFFFFFFFFFF
310
F000FFFFFFFFFFFFFFFFFFFFFFFFFFFFFFFFFFFFFFFFFFFFFFFFFFFFFFFFFFFF
310
FFFFFFFFFFFFFFFFFFFFFFFFFFFFFFFFFFFFFFFFFFFFFFFFFFFFFFFFFFFFFFFF
310
FFFFFFFFFFFFFFFFFFFFFFFFFFFFFFFFFFFFFFFFFFFFFFFFF000FFFFFFFFFFFF
310
FFFFFFFFFFFFFFFFFFFFFFFFFFFFFFFFFFFFFFFFFFFFFFFFFFFFFFFFFFFFFFFF
310
FFFFFFFFFFFFFFFFFFFFFFFFFFFFFFFFFFFFFFFFFFFFFFFFFFFFFFFFFFFFFFFF
310
FFFFFFFFFFFFFFFFFFFFFFFFFFFFFFFFF000FFFFFFFFFFFFFFFFFFFFFFFFFFFF
310
FFFFFFFFFFFFFFFFFFFFFFFFFFFFFFFFFFFFFFFFFFFFFFFFFFFFFFFFFFFFFFFF
310
FFFFFFFFFFFFFFFFFFFFFFFFFFFFFFFFFFFFFFFFFFFFFFFFFFFFFFFFFFFFFFFF
310
FFFFFFFFFFFFFFFFF000FFFFFFFFFFFFFFFFFFFFFFFFFFFFFFFFFFFFFFFFFFFF
310
FFFFFFFFFFFFFFFFFFFFFFFFFFFFFFFFFFFFFFFFFFFFFFFFFFFFFFFFFFFFFFFF
310
FFFFFFFFFFFFFFFFFFFFFFFFFFFFFFFFFFFFFFFFFFFFFFFFFFFFFFFFFFFFFFFF
310
F000FFFFFFFFFFFFFFFFFFFFFFFFFFFFFFFFFFFFFFFFFFFFFFFFFFFFFFFFFFFF
310
FFFFFFFFFFFFFFFFFFFFFFFFFFFFFFFFFFFFFFFFFFFFFFFFFFFFFFFFFFFFFFFF
310
FFFFFFFFFFFFFFFFFFFFFFFFFFFFFFFFFFFFFFFFFFFFFFFFF000FFFFFFFFFFFF
310
FFFFFFFFFFFFFFFFFFFFFFFFFFFFFFFFFFFFFFFFFFFFFFFFFFFFFFFFFFFFFFFF
310
FFFFFFFFFFFFFFFFFFFFFFFFFFFFFFFFFFFFFFFFFFFFFFFFFFFFFFFFFFFFFFFF
310
FFFFFFFFFFFFFFFFFFFFFFFFFFFFFFFFF000FFFFFFFFFFFFFFFFFFFFFFFFFFFF
310
FFFFFFFFFFFFFFFFFFFFFFFFFFFFFFFFFFFFFFFFFFFFFFFFFFFFFFFFFFFFFFFF
310
FFFFFFFFFFFFFFFFFFFFFFFFFFFFFFFFFFFFFFFFFFFFFFFFFFFFFFFFFFFFFFFF
310
FFFFFFFFFFFFFFFFF000FFFFFFFFFFFFFFFFFFFFFFFFFFFFFFFFFFFFFFFFFFFF
310
FFFFFFFFFFFFFFFFFFFFFFFFFFFFFFFFFFFFFFFFFFFFFFFFFFFFFFFFFFFFFFFF
310
FFFFFFFFFFFFFFFFFFFFFFFFFFFFFFFFFFFFFFFFFFFFFFFFFFFFFFFFFFFFFFFF
310
F000FFFFFFFFFFFFFFFFFFFFFFFFFFFFFFFFFFFFFFFFFFFFFFFFFFFFFFFFFFFF
310
FFFFFFFFFFFFFFFFFFFFFFFFFFFFFFFFFFFFFFFFFFFFFFFFFFFFFFFFFFFFFFFF
310
FFFFFFFFFFFFFFFFFFFFFFFFFFFFFFFFFFFFFFFFFFFFFFFFF000FFFFFFFFFFFF
310
FFFFFFFFFFFFFFFFFFFFFFFFFFFFFFFFFFFFFFFFFFFFFFFFFFFFFFFFFFFFFFFF
310
FFFFFFFFFFFFFFFFFFFFFFFFFFFFFFFFFFFFFFFFFFFFFFFFFFFFFFFFFFFFFFFF
310
FFFFFFFFFFFFFFFFFFFFFFFFFFFFFFFFF000FFFFFFFFFFFFFFFFFFFFFFFFFFFF
310
FFFFFFFFFFFFFFFFFFFFFFFFFFFFFFFFFFFFFFFFFFFFFFFFFFFFFFFFFFFFFFFF
310
FFFFFFFFFFFFFFFFFFFFFFFFFFFFFFFFFFFFFFFFFFFFFFFFFFFFFFFFFFFFFFFF
310
FFFFFFFFFFFFFFFFF000FFFFF80003FFFFFFFFFFFFFFFFFFFFFFFFFFFFFFFFFF
310
FFFFF00007FFFFFFFFFF00007FFFFFF800000000000000007FFFFFFFFFFFFFFF
310
FFFFFFFC001FFFFFFFFFFFFFFC001FFFFFFFFFFFFFFFFFFFFFFFFFFE0007FFFF
310
F000FFFF8000007FFFFFFFF8000FFFFFC0007FFFFF80007FFFFF0000007FFFFF
310
FFF8000007FFFFF800000000000000007FFFFFF0001FFFFFFFFFFFC00001FFFF
310
FFFFFFFFC00001FFFFFFFF000000000003FFFFE000007FFFF000FFFE0000000F
310
FFFFFFF0000FFFFF80007FFFFF80007FFFFC0000001FFFFFFFC0000001FFFFF8
310
00000000000000007FFFFFF0001FFFFFFFFFFE0000003FFFFFFFFFFE0000003F
310
FFFFFF000000000003FFFF0000000FFFF000FFF800000003FFFFFFF00007FFFF
310
80007FFFFF80007FFFF000000007FFFFFF000000003FFFF80000000000000000
310
7FFFFFF0001FFFFFFFFFF80000000FFFFFFFFFF80000000FFFFFFF0000000000
310
03FFFC00000003FFF000FFE000000000FFFFFFF00007FFFF80003FFFFF80007F
310
FFC000000001FFFFFC000000001FFFF800000000000000007FFFFFF0001FFFFF
310
FFFFE000000003FFFFFFFFE000000003FFFFFF000000000003FFF000000000FF
310
F000FF80000000007FFFFFF00007FFFF80003FFFFF80007FFF8000000000FFFF
310
F80000000007FFF800000000000000007FFFFFF0001FFFFFFFFFC000000001FF
310
FFFFFFC000000001FFFFFF000000000003FFC0000000007FF000FF0000000000
310
3FFFFFE00007FFFF00003FFFFF80007FFE00000000003FFFF00000000003FFF8
310
00000000000000007FFFFFF0001FFFFFFFFF8000000000FFFFFFFF8000000000
310
FFFFFF000000000003FF80000000003FF000FE00000000001FFFFFE00003FFFF
310
00003FFFFF80007FFC00000000001FFFE00000000001FFF8000001FFFE000000
310
7FFFFFF0001FFFFFFFFE00000000003FFFFFFE00000000003FFFFF0000000000
310
03FF00000000001FF000FC00000000000FFFFFE00003FFFF00001FFFFF80007F
310
F800000000001FFFC00000000000FFF8000001FFFE0000007FFFFFF0001FFFFF
310
FFFC00000000001FFFFFFC00000000001FFFFF000000000003FE00000000000F
310
F000F8000000000007FFFFE00003FFFF00001FFFFF80007FF800000000000FFF
310
800000000000FFF8000001FFFE0000007FFFFFF0001FFFFFFFF800000000000F
310
FFFFF800000000000FFFFF000000000003FC000000000007F000F80000000000
310
03FFFFC00003FFFE00001FFFFF80007FF0000000000007FF0000000000007FF8
310
000001FFFE0000007FFFFFF0001FFFFFFFF0000000000007FFFFF00000000000
310
07FFFF000000000003F8000000000003F000F0000000000003FFFFC00001FFFE
310
00001FFFFF80007FE0000000000007FE0000000000003FF8000001FFFE000000
310
7FFFFFF0001FFFFFFFF0000000000007FFFFF0000000000007FFFF0000000000
310
03F800001F800003F000E00001FFF00001FFFFC00001FFFE00000FFFFF80007F
310
E00001FFE00003FE00001FFF00003FF8000001FFFE0000007FFFFFF0001FFFFF
310
FFE000003E000003FFFFE000003E000003FFFF000000000003F00001FFF80001
310
F000E00007FFFC0001FFFFC00001FFFE00000FFFFF80007FC0000FFFFC0003FC
310
0000FFFFC0001FF8000001FFFE0000007FFFFFF0001FFFFFFFC00003FFE00001
310
FFFFC00003FFE00001FFFF0001FFFFFFFFF00007FFFE0001F000E0000FFFFF00
310
00FFFF800001FFFC00000FFFFF80007FC0001FFFFE0001FC0001FFFFE0001FF8
310
000001FFFE0000007FFFFFF0001FFFFFFF80000FFFF80000FFFF80000FFFF800
310
00FFFF0003FFFFFFFFE0000FFFFF8000F000C0003FFFFF8000FFFF800000FFFC
310
000007FFFF80007F80003FFFFF0001FC0003FFFFF0001FF8000001FFFE000000
310
7FFFFFF0001FFFFFFF80003FFFFE0000FFFF80003FFFFE0000FFFF0003FFFFFF
310
FFE0003FFFFF8000F000C0003FFFFF8000FFFF800000FFFC000007FFFF80007F
310
80007FFFFF8001F80007FFFFF8000FF8000001FFFE0000007FFFFFF0001FFFFF
310
FF00007FFFFF00007FFF00007FFFFF00007FFF0003FFFFFFFFE0003FFFFFC000
310
F000C0007FFFFFC000FFFF000000FFFC000007FFFF80007F8000FFFFFF8000F8
310
000FFFFFF8000FF8000001FFFE0000007FFFFFF0001FFFFFFF0000FFFFFF8000
310
7FFF0000FFFFFF80007FFF0003FFFFFFFFC0007FFFFFC00070008000FFFFFFC0
310
00FFFF000000FFF8000007FFFF80007F8000FFFFFF8000F8000FFFFFF8000FF8
310
000001FFFE0000007FFFFFF0001FFFFFFE0001FFFFFFC0003FFE0001FFFFFFC0
310
003FFF0003FFFFFFFFC0007FFFFFE00070008000FFFFFFC0007FFF0000007FF8
310
000003FFFF80007F0001FFFFFF8000F8000FFFFFF8000FF8000001FFFE000000
310
7FFFFFF0001FFFFFFE0001FFFFFFC0003FFE0001FFFFFFC0003FFF0003FFFFFF
310
FFC000FFFFFFE00070008000FFFFFFC0007FFF0000007FF8000003FFFF80007F
310
0001FFFFFF8000F8001FFFFFF8000FF8000001FFFE0000007FFFFFF0001FFFFF
310
FE0003FFFFFFE0003FFE0003FFFFFFE0003FFF0003FFFFFFFFC000FFFFFFE000
310
70008000FFFFFFC0007FFE0000007FF8000003FFFF80007F0001FFFFFF8000F0
310
001FFFFFF8000FF8000001FFFE0000007FFFFFF0001FFFFFFC0003FFFFFFE000
310
1FFC0003FFFFFFE0001FFF0003FFFFFFFFC000FFFFFFC00070008000FFFFFF80
310
007FFE0000007FF0000003FFFF80007F0001FFFFFF0000F0001FFFFFF8000FF8
310
000001FFFE0000007FFFFFF0001FFFFFFC0007FFFFFFF0001FFC0007FFFFFFF0
310
001FFF0003FFFFFFFFC000FFFFFFC00070008001FFFFFF0000FFFE0000003FF0
310
000001FFFF80007F0001FFFFFF0000F8001FFFFFF0000FF8000001FFFE000000
310
7FFFFFF0001FFFFFFC0007FFFFFFF0001FFC0007FFFFFFF0001FFF0003FFFFFF
310
FFC001FFFFFF80007000FFFFFFFFFE0000FFFE0008003FF0008001FFFF80007F
310
FFFFFFFFFC0000FFFFFFFFFFE0000FF8000001FFFE0000007FFFFFF0001FFFFF
310
F8000FFFFFFFF8000FF8000FFFFFFFF8000FFF0003FFFFFFFFFFFFFFFFFF0000
310
7000FFFFFFFFFC0000FFFC0008003FF0008001FFFF80007FFFFFFFFFF80001FF
310
FFFFFFFF80000FF8000001FFFE0000007FFFFFF0001FFFFFF8000FFFFFFFF800
310
0FF8000FFFFFFFF8000FFF0003FFFFFFFFFFFFFFFFFE0000F000FFFFFFFFE000
310
00FFFC000C003FE000C001FFFF80007FFFFFFFFFC00001FFFFFFFFFE00001FF8
310
000001FFFE0000007FFFFFF0001FFFFFF8000FFFFFFFF8000FF8000FFFFFFFF8
310
000FFF0003FFFFFFFFFFFFFFFFF00000F000FFFFFFFE000001FFFC000C001FE0
310
00C000FFFF80007FFFFFFFFE000001FFFFFFFFE000001FF80FFFFFFFFFFFFFC0
310
7FFFFFF0001FFFFFF8000FFFFFFFF8000FF8000FFFFFFFF8000FFF0003FFFFFF
310
FFFFFFFFFF800000F000FFFFFFC0000001FFFC001C001FE001C000FFFF80007F
310
FFFFFF80000003FFFFFFF80000001FF80FFFFFFFFFFFFFC07FFFFFF0001FFFFF
310
F8001FFFFFFFFC000FF8001FFFFFFFFC000FFF0003FFFFFFFFFFFFFFF0000001
310
F000FFFFF800000001FFF8001C001FE001C000FFFF80007FFFFFF800000003FF
310
FFFF800000003FF80FFFFFFFFFFFFFC07FFFFFF0001FFFFFF8001FFFFFFFFC00
310
0FF8001FFFFFFFFC000FFF0003FFFFFFFFFFFFFE00000001F000FFFFC0000000
310
03FFF8001E001FC001E000FFFF80007FFFFF8000000007FFFFFC000000003FF8
310
0FFFFFFFFFFFFFC07FFFFFF0001FFFFFF8001FFFFFFFFC000FF8001FFFFFFFFC
310
000FFF0003FFFFFFFFFFFFE000000003F000FFFE0000000007FFF8001E000FC0
310
01E0007FFF80007FFFFE0000000007FFFFE0000000007FF80FFFFFFFFFFFFFC0
310
7FFFFFF0001FFFFFF0001FFFFFFFFC0007F0001FFFFFFFFC0007FF0003FFFFFF
310
FFFFFF0000000003F000FFF80000000007FFF8001E000FC003E0007FFF80007F
310
FFF0000000000FFFFF8000000000FFF80FFFFFFFFFFFFFC07FFFFFF0001FFFFF
310
F0001FFFFFFFFC0007F0001FFFFFFFFC0007FF0003FFFFFFFFFFFC0000000007
310
F000FFE0000000000FFFF0003E000FC003E0007FFF80007FFFC0000000001FFF
310
FE0000000001FFF80FFFFFFFFFFFFFC07FFFFFF0001FFFFFF0001FFFFFFFFC00
310
07F0001FFFFFFFFC0007FF0003FFFFFFFFFFF0000000000FF000FFC000000000
310
1FFFF0003F000F8003F0003FFF80007FFF80000000003FFFF80000000003FFF8
310
0FFFFFFFFFFFFFC07FFFFFF0001FFFFFF0001FFFFFFFFC0007F0001FFFFFFFFC
310
0007FF0003FFFFFFFFFFE0000000001FF000FF00000000007FFFF0003F000780
310
03F0003FFF80007FFF00000000007FFFF00000000007FFF80FFFFFFFFFFFFFC0
310
7FFFFFF0001FFFFFF0001FFFFFFFFC0007F0001FFFFFFFFC0007FF0003FFFFFF
310
FFFF80000000007FF000FE0000000000FFFFE0003F00078007F0003FFF80007F
310
FE0000000001FFFFE0000000001FFFF80FFFFFFFFFFFFFC07FFFFFF0001FFFFF
310
F0001FFFFFFFFC0007F0001FFFFFFFFC0007FF0003FFFFFFFFFF0000000000FF
310
F000FC0000000003FFFFE0007F00078007F0003FFF80007FFC0000000007FFFF
310
C0000000007FFFF80FFFFFFFFFFFFFC07FFFFFF0001FFFFFF8001FFFFFFFFC00
310
0FF8001FFFFFFFFC000FFF0003FFFFFFFFFE0000000003FFF000FC000000000F
310
FFFFE0007F80070007F8001FFF80007FF8000000001FFFFF8000000001FFFFF8
310
0FFFFFFFFFFFFFC07FFFFFF0001FFFFFF8001FFFFFFFFC000FF8001FFFFFFFFC
310
000FFF0003FFFFFFFFFC000000000FFFF000F8000000007FFFFFE0007F800700
310
07F8001FFF80007FF000000000FFFFFF800000000FFFFFF80FFFFFFFFFFFFFC0
310
7FFFFFF0001FFFFFF8000FFFFFFFF8000FF8000FFFFFFFF8000FFF0003FFFFFF
310
FFFC000000007FFFF000F800000007FFFFFFC0007F8003000FF8001FFF80007F
310
F000000007FFFFFF000000007FFFFFF80FFFFFFFFFFFFFC07FFFFFF0001FFFFF
310
F8000FFFFFFFF8000FF8000FFFFFFFF8000FFF0003FFFFFFFFF80000000FFFFF
310
F000F0000000FFFFFFFFC000FF8003000FF8001FFF80007FE0000000FFFFFFFF
310
0000000FFFFFFFF8000001FFFE0000007FFFFFF0001FFFFFF8000FFFFFFFF800
310
0FF8000FFFFFFFF8000FFF0003FFFFFFFFF8000000FFFFFFF000F000000FFFFF
310
FFFFC000FFC002000FF8000FFF80007FE000001FFFFFFFFE000001FFFFFFFFF8
310
000001FFFE0000007FFFFFF0001FFFFFF8000FFFFFFFF8000FF8000FFFFFFFF8
310
000FFF0003FFFFFFFFF000001FFFFFFFF000E00000FFFFFFFFFFC000FFC00200
310
0FFC000FFF80007FE00001FFFFFFFFFE00001FFFFFFFFFF8000001FFFE000000
310
7FFFFFF0001FFFFFFC000FFFFFFFF8001FFC000FFFFFFFF8001FFF0003FFFFFF
310
FFF00001FFFFFFFFF000E00007FFFFFFFFFF8000FFC000001FFC000FFF80007F
310
C0000FFFFFFFFFFE0000FFFFFFFFFFF8000001FFFE0000007FFFFFF0001FFFFF
310
FC0007FFFFFFF0001FFC0007FFFFFFF0001FFF0003FFFFFFFFF00007FFFFFFFF
310
F000E0001FFFFFFFFFFF8000FFC000001FFC000FFF80007FC0003FFFFFFFFFFE
310
0001FFFFFFFFFFF8000001FFFE0000007FFFFFF0001FFFFFFC0007FFFFFFF000
310
1FFC0007FFFFFFF0001FFF0003FFFFFFFFF0001FFFFFFFFFF000E0003FFFFF00
310
03FF8001FFE000001FFC0007FF80007FC0007FFFFF0007FC0003FFFFF0003FF8
310
000001FFFE0000007FFFFFF0001FFFFFFC0003FFFFFFE0001FFC0003FFFFFFE0
310
001FFF0003FFFFFFFFF0003FFFFFFFFFF000E0003FFFFF0001FF8001FFE00000
310
1FFE0007FF80007FC0007FFFFE0003FC0007FFFFE0003FF8000001FFFE000000
310
7FFFFFF0001FFFFFFE0003FFFFFFE0003FFE0003FFFFFFE0003FFF0003FFFFFF
310
FFF0003FFFFF8001F000E0003FFFFF0001FF0001FFE000001FFE0007FF80007F
310
C0007FFFFE0003FC0007FFFFE0003FF8000001FFFE0000007FFFFFF0001FFFFF
310
FE0001FFFFFFC0003FFE0001FFFFFFC0003FFF0003FFFFFFFFF0003FFFFF0001
310
F000E0003FFFFF0003FF0001FFE000003FFE0007FF80007FC0007FFFFE0003FC
310
0007FFFFE0003FF8000001FFFE0000007FFFFFF0001FFFFFFF0001FFFFFFC000
310
7FFF0001FFFFFFC0007FFF0003FFFFFFFFF0003FFFFF0001F000E0003FFFFE00
310
03FF0003FFF000003FFE0003FF80007FC0007FFFFC0003FE0007FFFFE0003FF8
310
000001FFFE0000007FFFFFF0001FFFFFFF0000FFFFFF80007FFF0000FFFFFF80
310
007FFF0003FFFFFFFFF0003FFFFF0001F000E0003FFFFE0003FF0003FFF00000
310
3FFF0003FF80007FC0007FFFFC0007FE0007FFFFC0003FF8000001FFFE000000
310
7FFFFFF0001FFFFFFF80007FFFFF0000FFFF80007FFFFF0000FFFF0003FFFFFF
310
FFF0003FFFFF0003F000E0003FFFFC0003FE0003FFF000003FFF0003FF80007F
310
E0003FFFF80007FE0003FFFFC0007FF8000001FFFE0000007FFFFFF0001FFFFF
310
FF80003FFFFE0000FFFF80003FFFFE0000FFFF0003FFFFFFFFF0001FFFFE0003
310
F000F0001FFFF80003FE0003FFF000007FFF0001FF80007FE0003FFFF00007FE
310
0001FFFF80007FF8000001FFFE0000007FFFFFF0001FFFFFFFC0000FFFF80001
310
FFFFC0000FFFF80001FFFF0003FFFFFFFFF0001FFFFC0003F000F0000FFFF000
310
07FE0007FFF800007FFF0001FF80007FE0001FFFE00007FF0000FFFE00007FF8
310
000001FFFE0000007FFFFFF0001FFFFFFFC00003FFE00001FFFFC00003FFE000
310
01FFFF0003FFFFFFFFF8000FFFF80003F000F00003FFC00007FC0007FFF80000
310
7FFF8001FF80007FF00007FF80000FFF00007FF80000FFF8000001FFFE000000
310
7F80000000000001FFE000003E000003FFFFE000003E000003FFFF0003FFFFFF
310
FFF80003FFE00007F000F800000000000FFC0007FFF800007FFF8001FF80007F
310
F000000000000FFF000000000000FFF8000001FFFE0000007F80000000000001
310
FFF0000000000007FFFFF0000000000007FFFF0003FFFFFFFFFC00007E000007
310
F000F800000000000FFC0007FFF80000FFFF8000FF80007FF800000000001FFF
310
800000000001FFF8000001FFFE0000007F80000000000001FFF800000000000F
310
FFFFF800000000000FFFFF0003FFFFFFFFFC00000000000FF000FC0000000000
310
1FFC0007FFFC0000FFFF8000FF80007FF800000000003FFFC00000000001FFF8
310
000001FFFE0000007F80000000000001FFF800000000000FFFFFF80000000000
310
0FFFFF0003FFFFFFFFFE00000000001FF000FE00000000003FF8000FFFFC0000
310
FFFF8000FF80007FFC00000000003FFFC00000000003FFF8000001FFFE000000
310
7F80000000000001FFFC00000000001FFFFFFC00000000001FFFFF0003FFFFFF
310
FFFF00000000001FF000FF00000000003FF8000FFFFC0000FFFFC000FF80007F
310
FE00000000007FFFE00000000007FFF8000001FFFE0000007F80000000000001
310
FFFE00000000003FFFFFFE00000000003FFFFF0003FFFFFFFFFF80000000003F
310
F000FF80000000007FF8000FFFFC0001FFFFC0007F80007FFF0000000000FFFF
310
F0000000000FFFF800000000000000007F80000000000001FFFF8000000000FF
310
FFFFFF8000000000FFFFFF0003FFFFFFFFFFC0000000007FF000FFC000000000
310
FFF8000FFFFE0001FFFFC0007F80007FFF8000000001FFFFF8000000001FFFF8
310
00000000000000007F80000000000001FFFFC000000001FFFFFFFFC000000001
310
FFFFFF0003FFFFFFFFFFE000000000FFF000FFE000000003FFF0001FFFFE0001
310
FFFFC0007F80007FFFC000000007FFFFFE000000003FFFF80000000000000000
310
7F80000000000001FFFFE000000003FFFFFFFFE000000003FFFFFF0003FFFFFF
310
FFFFF000000003FFF000FFF80000000FFFF0001FFFFE0001FFFFE0007F80007F
310
FFF00000000FFFFFFF00000000FFFFF800000000000000007F80000000000001
310
FFFFF80000000FFFFFFFFFF80000000FFFFFFF0003FFFFFFFFFFFC0000000FFF
310
F000FFFE0000003FFFF0001FFFFE0003FFFFE0003F80007FFFFC0000003FFFFF
310
FFC0000003FFFFF800000000000000007F80000000000001FFFFFE0000003FFF
310
FFFFFFFE0000003FFFFFFF0003FFFFFFFFFFFF0000003FFFF000FFFF800000FF
310
FFF0001FFFFF0003FFFFE0003F80007FFFFF000001FFFFFFFFF800001FFFFFF8
310
00000000000000007F80000000000001FFFFFFC00001FFFFFFFFFFFFC00001FF
310
FFFFFF0003FFFFFFFFFFFFC00000FFFFF000FFFFF8000FFFFFFFFFFFFFFFFFFF
310
FFFFFFFFFFFFFFFFFFFFF0001FFFFFFFFFFF0000FFFFFFF80000000000000000
310
7FFFFFFFFFFFFFFFFFFFFFFC001FFFFFFFFFFFFFFC001FFFFFFFFFFFFFFFFFFF
310
FFFFFFFC001FFFFFF000FFFFFFFFFFFFFFFFFFFFFFFFFFFFFFFFFFFFFFFFFFFF
310
FFFFFFFFFFFFFFFFFFFFFFFFFFFFFFFFFFFFFFFFFFFFFFFFFFFFFFFFFFFFFFFF
310
FFFFFFFFFFFFFFFFFFFFFFFFFFFFFFFFFFFFFFFFFFFFFFFFFFFFFFFFFFFFFFFF
310
F000FFFFFFFFFFFFFFFFFFFFFFFFFFFFFFFFFFFFFFFFFFFFFFFFFFFFFFFFFFFF
310
FFFFFFFFFFFFFFFFFFFFFFFFFFFFFFFFFFFFFFFFFFFFFFFFFFFFFFFFFFFFFFFF
310
FFFFFFFFFFFFFFFFFFFFFFFFFFFFFFFFFFFFFFFFFFFFFFFFF000FFFFFFFFFFFF
310
FFFFFFFFFFFFFFFFFFFFFFFFFFFFFFFFFFFFFFFFFFFFFFFFFFFFFFFFFFFFFFFF
310
FFFFFFFFFFFFFFFFFFFFFFFFFFFFFFFFFFFFFFFFFFFFFFFFFFFFFFFFFFFFFFFF
310
FFFFFFFFFFFFFFFFFFFFFFFFFFFFFFFFF000FFFFFFFFFFFFFFFFFFFFFFFFFFFF
310
FFFFFFFFFFFFFFFFFFFFFFFFFFFFFFFFFFFFFFFFFFFFFFFFFFFFFFFFFFFFFFFF
310
FFFFFFFFFFFFFFFFFFFFFFFFFFFFFFFFFFFFFFFFFFFFFFFFFFFFFFFFFFFFFFFF
310
FFFFFFFFFFFFFFFFF000FFFFFFFFFFFFFFFFFFFFFFFFFFFFFFFFFFFFFFFFFFFF
310
FFFFFFFFFFFFFFFFFFFFFFFFFFFFFFFFFFFFFFFFFFFFFFFFFFFFFFFFFFFFFFFF
310
FFFFFFFFFFFFFFFFFFFFFFFFFFFFFFFFFFFFFFFFFFFFFFFFFFFFFFFFFFFFFFFF
310
F000FFFFFFFFFFFFFFFFFFFFFFFFFFFFFFFFFFFFFFFFFFFFFFFFFFFFFFFFFFFF
310
FFFFFFFFFFFFFFFFFFFFFFFFFFFFFFFFFFFFFFFFFFFFFFFFFFFFFFFFFFFFFFFF
310
FFFFFFFFFFFFFFFFFFFFFFFFFFFFFFFFFFFFFFFFFFFFFFFFF000FFFFFFFFFFFF
310
FFFFFFFFFFFFFFFFFFFFFFFFFFFFFFFFFFFFFFFFFFFFFFFFFFFFFFFFFFFFFFFF
310
FFFFFFFFFFFFFFFFFFFFFFFFFFFFFFFFFFFFFFFFFFFFFFFFFFFFFFFFFFFFFFFF
310
FFFFFFFFFFFFFFFFFFFFFFFFFFFFFFFFF000FFFFFFFFFFFFFFFFFFFFFFFFFFFF
310
FFFFFFFFFFFFFFFFFFFFFFFFFFFFFFFFFFFFFFFFFFFFFFFFFFFFFFFFFFFFFFFF
310
FFFFFFFFFFFFFFFFFFFFFFFFFFFFFFFFFFFFFFFFFFFFFFFFFFFFFFFFFFFFFFFF
310
FFFFFFFFFFFFFFFFF000FFFFFFFFFFFFFFFFFFFFFFFFFFFFFFFFFFFFFFFFFFFF
310
FFFFFFFFFFFFFFFFFFFFFFFFFFFFFFFFFFFFFFFFFFFFFFFFFFFFFFFFFFFFFFFF
310
FFFFFFFFFFFFFFFFFFFFFFFFFFFFFFFFFFFFFFFFFFFFFFFFFFFFFFFFFFFFFFFF
310
F000FFFFFFFFFFFFFFFFFFFFFFFFFFFFFFFFFFFFFFFFFFFFFFFFFFFFFFFFFFFF
310
FFFFFFFFFFFFFFFFFFFFFFFFFFFFFFFFFFFFFFFFFFFFFFFFFFFFFFFFFFFFFFFF
310
FFFFFFFFFFFFFFFFFFFFFFFFFFFFFFFFFFFFFFFFFFFFFFFFF000FFFFFFFFFFFF
310
FFFFFFFFFFFFFFFFFFFFFFFFFFFFFFFFFFFFFFFFFFFFFFFFFFFFFFFFFFFFFFFF
310
FFFFFFFFFFFFFFFFFFFFFFFFFFFFFFFFFFFFFFFFFFFFFFFFFFFFFFFFFFFFFFFF
310
FFFFFFFFFFFFFFFFFFFFFFFFFFFFFFFFF000FFFFFFFFFFFFFFFFFFFFFFFFFFFF
310
FFFFFFFFFFFFFFFFFFFFFFFFFFFFFFFFFFFFFFFFFFFFFFFFFFFFFFFFFFFFFFFF
310
FFFFFFFFFFFFFFFFFFFFFFFFFFFFFFFFFFFFFFFFFFFFFFFFFFFFFFFFFFFFFFFF
310
FFFFFFFFFFFFFFFFF000FFFFFFFFFFFFFFFFFFFFFFFFFFFFFFFFFFFFFFFFFFFF
310
FFFFFFFFFFFFFFFFFFFFFFFFFFFFFFFFFFFFFFFFFFFFFFFFFFFFFFFFFFFFFFFF
310
FFFFFFFFFFFFFFFFFFFFFFFFFFFFFFFFFFFFFFFFFFFFFFFFFFFFFFFFFFFFFFFF
310
F000FFFFFFFFFFFFFFFFFFFFFFFFFFFFFFFFFFFFFFFFFFFFFFFFFFFFFFFFFFFF
310
FFFFFFFFFFFFFFFFFFFFFFFFFFFFFFFFFFFFFFFFFFFFFFFFFFFFFFFFFFFFFFFF
310
FFFFFFFFFFFFFFFFFFFFFFFFFFFFFFFFFFFFFFFFFFFFFFFFF000FFFFFFFFFFFF
310
FFFFFFFFFFFFFFFFFFFFFFFFFFFFFFFFFFFFFFFFFFFFFFFFFFFFFFFFFFFFFFFF
310
FFFFFFFFFFFFFFFFFFFFFFFFFFFFFFFFFFFFFFFFFFFFFFFFFFFFFFFFFFFFFFFF
310
FFFFFFFFFFFFFFFFFFFFFFFFFFFFFFFFF000FFFFFFFFFFFFFFFFFFFFFFFFFFFF
310
FFFFFFFFFFFFFFFFFFFFFFFFFFFFFFFFFFFFFFFFFFFFFFFFFFFFFFFFFFFFFFFF
310
FFFFFFFFFFFFFFFFFFFFFFFFFFFFFFFFFFFFFFFFFFFFFFFFFFFFFFFFFFFFFFFF
310
FFFFFFFFFFFFFFFFF000FFFFFFFFFFFFFFFFFFFFFFFFFFFFFFFFFFFFFFFFFFFF
310
FFFFFFFFFFFFFFFFFFFFFFFFFFFFFFFFFFFFFFFFFFFFFFFFFFFFFFFFFFFFFFFF
310
FFFFFFFFFFFFFFFFFFFFFFFFFFFFFFFFFFFFFFFFFFFFFFFFFFFFFFFFFFFFFFFF
310
F000FFFFFFFFFFFFFFFFFFFFFFFFFFFFFFFFFFFFFFFFFFFFFFFFFFFFFFFFFFFF
310
FFFFFFFFFFFFFFFFFFFFFFFFFFFFFFFFFFFFFFFFFFFFFFFFFFFFFFFFFFFFFFFF
310
FFFFFFFFFFFFFFFFFFFFFFFFFFFFFFFFFFFFFFFFFFFFFFFFF000FFFFFFFFFFFF
310
FFFFFFFFFFFFFFFFFFFFFFFFFFFFFFFFFFFFFFFFFFFFFFFFFFFFFFFFFFFFFFFF
310
FFFFFFFFFFFFFFFFFFFFFFFFFFFFFFFFFFFFFFFFFFFFFFFFFFFFFFFFFFFFFFFF
310
FFFFFFFFFFFFFFFFFFFFFFFFFFFFFFFFF000FFFFFFFFFFFFFFFFFFFFFFFFFFFF
310
FFFFFFFFFFFFFFFFFFFFFFFFFFFFFFFFFFFFFFFFFFFFFFFFFFFFFFFFFFFFFFFF
310
FFFFFFFFFFFFFFFFFFFFFFFFFFFFFFFFFFFFFFFFFFFFFFFFFFFFFFFFFFFFFFFF
310
FFFFFFFFFFFFFFFFF000FFFFFFFFFFFFFFFFFFFFFFFFFFFFFFFFFFFFFFFFFFFF
310
FFFFFFFFFFFFFFFFFFFFFFFFFFFFFFFFFFFFFFFFFFFFFFFFFFFFFFFFFFFFFFFF
310
FFFFFFFFFFFFFFFFFFFFFFFFFFFFFFFFFFFFFFFFFFFFFFFFFFFFFFFFFFFFFFFF
310
F000FFFFFFFFFFFFFFFFFFFFFFFFFFFFFFFFFFFFFFFFFFFFFFFFFFFFFFFFFFFF
310
FFFFFFFFFFFFFFFFFFFFFFFFFFFFFFFFFFFFFFFFFFFFFFFFFFFFFFFFFFFFFFFF
310
FFFFFFFFFFFFFFFFFFFFFFFFFFFFFFFFFFFFFFFFFFFFFFFFF000FFFFFFFFFFFF
310
FFFFFFFFFFFFFFFFFFFFFFFFFFFFFFFFFFFFFFFFFFFFFFFFFFFFFFFFFFFFFFFF
310
FFFFFFFFFFFFFFFFFFFFFFFFFFFFFFFFFFFFFFFFFFFFFFFFFFFFFFFFFFFFFFFF
310
FFFFFFFFFFFFFFFFFFFFFFFFFFFFFFFFF0000000000000000000000000000000
310
0000000000000000000000000000000000000000000000000000000000000000
310
0000000000000000000000000000000000000000000000000000000000000000
310
0000000000000000000000000000000000000000000000000000000000000000
310
0000000000000000000000000000000000000000000000000000000000000000
310
0000000000000000000000000000000000000000000000000000000000000000
310
0000000000000000000000000000000000000000000000000000000000000000
310
0000000000000000000000000000000000000000000000000000000000000000
310
0000000000000000000000000000000000000000000000000000000000000000
310
0000000000000000000000000000000000000000000000000000000000000000
310
0000000000000000000000000000000000000000000000000000000000000000
310
0000000000000000000000000000000000000000000000000000000000000000
310
0000000000000000000000000000000000000000000000000000000000000000
310
0000000000000000000000000000000000000000000000000000000000000000
310
0000000000000000000000000000000000000000000000000000000000000000
310
0000000000000000000000000000000000000000000000000000000000000000
  1
OLE
  0
ENDSEC
  0
SECTION
  2
OBJECTS
  0
DICTIONARY
  5
C
330
0
100
AcDbDictionary
281
     1
  3
ACAD_GROUP
350
D
  3
ACAD_LAYOUT
350
1A
  3
ACAD_MLINESTYLE
350
17
  3
ACAD_PLOTSETTINGS
350
19
  3
ACAD_PLOTSTYLENAME
350
E
  3
ACAD_SCALELIST
350
47
  0
DICTIONARY
  5
D
102
{ACAD_REACTORS
330
C
102
}
330
C
100
AcDbDictionary
281
     1
  0
DICTIONARY
  5
1A
102
{ACAD_REACTORS
330
C
102
}
330
C
100
AcDbDictionary
281
     1
  3
Layout1
350
1E
  3
Layout2
350
26
  3
Model
350
22
  0
DICTIONARY
  5
17
102
{ACAD_REACTORS
330
C
102
}
330
C
100
AcDbDictionary
281
     1
  3
Standard
350
18
  0
DICTIONARY
  5
19
102
{ACAD_REACTORS
330
C
102
}
330
C
100
AcDbDictionary
281
     1
  0
ACDBDICTIONARYWDFLT
  5
E
102
{ACAD_REACTORS
330
C
102
}
330
C
100
AcDbDictionary
281
     1
  3
Normal
350
F
100
AcDbDictionaryWithDefault
340
F
  0
DICTIONARY
  5
47
102
{ACAD_REACTORS
330
C
102
}
330
C
100
AcDbDictionary
281
     1
  3
A0
350
48
  3
A1
350
49
  3
A2
350
4A
  3
A3
350
4B
  3
A4
350
4C
  3
A5
350
4D
  3
A6
350
4E
  3
A7
350
4F
  3
A8
350
50
  3
A9
350
51
  3
B0
350
52
  3
B1
350
53
  3
B2
350
54
  3
B3
350
55
  3
B4
350
56
  3
B5
350
57
  3
B6
350
58
  3
B7
350
59
  3
B8
350
5A
  3
B9
350
5B
  3
C0
350
5C
  3
C1
350
5D
  3
C2
350
5E
  3
C3
350
5F
  3
C4
350
60
  3
C5
350
61
  3
C6
350
62
  3
C7
350
63
  3
C8
350
64
  3
C9
350
65
  3
D0
350
66
  3
D1
350
67
  3
D2
350
68
  0
LAYOUT
  5
1E
102
{ACAD_REACTORS
330
1A
102
}
330
1A
100
AcDbPlotSettings
  1

  2
none_device
  4

  6

 40
0.0
 41
0.0
 42
0.0
 43
0.0
 44
0.0
 45
0.0
 46
0.0
 47
0.0
 48
0.0
 49
0.0
140
0.0
141
0.0
142
1.0
143
1.0
 70
   688
 72
     1
 73
     0
 74
     5
  7

 75
    16
147
1.0
148
0.0
149
0.0
100
AcDbLayout
  1
Layout1
 70
     1
 71
     1
 10
0.0
 20
0.0
 11
420.0
 21
297.0
 12
0.0
 22
0.0
 32
0.0
 14
1.0000000000E+20
 24
1.0000000000E+20
 34
1.0000000000E+20
 15
-1.0000000000E+20
 25
-1.0000000000E+20
 35
-1.0000000000E+20
146
0.0
 13
0.0
 23
0.0
 33
0.0
 16
1.0
 26
0.0
 36
0.0
 17
0.0
 27
1.0
 37
0.0
 76
     0
330
1B
  0
LAYOUT
  5
26
102
{ACAD_REACTORS
330
1A
102
}
330
1A
100
AcDbPlotSettings
  1

  2
none_device
  4

  6

 40
0.0
 41
0.0
 42
0.0
 43
0.0
 44
0.0
 45
0.0
 46
0.0
 47
0.0
 48
0.0
 49
0.0
140
0.0
141
0.0
142
1.0
143
1.0
 70
   688
 72
     1
 73
     0
 74
     5
  7

 75
    16
147
1.0
148
0.0
149
0.0
100
AcDbLayout
  1
Layout2
 70
     1
 71
     2
 10
0.0
 20
0.0
 11
0.0
 21
0.0
 12
0.0
 22
0.0
 32
0.0
 14
0.0
 24
0.0
 34
0.0
 15
0.0
 25
0.0
 35
0.0
146
0.0
 13
0.0
 23
0.0
 33
0.0
 16
1.0
 26
0.0
 36
0.0
 17
0.0
 27
1.0
 37
0.0
 76
     0
330
23
  0
LAYOUT
  5
22
102
{ACAD_REACTORS
330
1A
102
}
330
1A
100
AcDbPlotSettings
  1

  2
none_device
  4
Letter_(8.50_x_11.00_Inches)
  6

 40
6.35
 41
6.35
 42
6.35000508
 43
6.35000508
 44
215.9
 45
279.4
 46
0.0
 47
0.0
 48
0.0
 49
0.0
140
0.0
141
0.0
142
1.0
143
1.0
 70
  1712
 72
     1
 73
     0
 74
     0
  7

 75
     0
147
1.0
148
0.0
149
0.0
100
AcDbLayout
  1
Model
 70
     1
 71
     0
 10
0.0
 20
0.0
 11
297.0
 21
210.0
 12
0.0
 22
0.0
 32
0.0
 14
0.0
 24
0.0
 34
0.0
 15
297.0
 25
210.0
 35
0.0
146
0.0
 13
0.0
 23
0.0
 33
0.0
 16
1.0
 26
0.0
 36
0.0
 17
0.0
 27
1.0
 37
0.0
 76
     0
330
1F
331
29
  0
MLINESTYLE
  5
18
102
{ACAD_REACTORS
330
17
102
}
330
17
100
AcDbMlineStyle
  2
Standard
 70
     0
  3

 62
   256
 51
90.0
 52
90.0
 71
     2
 49
0.5
 62
   256
  6
BYLAYER
 49
-0.5
 62
   256
  6
BYLAYER
  0
ACDBPLACEHOLDER
  5
F
102
{ACAD_REACTORS
330
E
102
}
330
E
  0
SCALE
  5
48
102
{ACAD_REACTORS
330
47
102
}
330
47
100
AcDbScale
 70
     0
300
1:1
140
1.0
141
1.0
290
     1
  0
SCALE
  5
49
102
{ACAD_REACTORS
330
47
102
}
330
47
100
AcDbScale
 70
     0
300
1:2
140
1.0
141
2.0
290
     0
  0
SCALE
  5
4A
102
{ACAD_REACTORS
330
47
102
}
330
47
100
AcDbScale
 70
     0
300
1:4
140
1.0
141
4.0
290
     0
  0
SCALE
  5
4B
102
{ACAD_REACTORS
330
47
102
}
330
47
100
AcDbScale
 70
     0
300
1:5
140
1.0
141
5.0
290
     0
  0
SCALE
  5
4C
102
{ACAD_REACTORS
330
47
102
}
330
47
100
AcDbScale
 70
     0
300
1:8
140
1.0
141
8.0
290
     0
  0
SCALE
  5
4D
102
{ACAD_REACTORS
330
47
102
}
330
47
100
AcDbScale
 70
     0
300
1:10
140
1.0
141
10.0
290
     0
  0
SCALE
  5
4E
102
{ACAD_REACTORS
330
47
102
}
330
47
100
AcDbScale
 70
     0
300
1:16
140
1.0
141
16.0
290
     0
  0
SCALE
  5
4F
102
{ACAD_REACTORS
330
47
102
}
330
47
100
AcDbScale
 70
     0
300
1:20
140
1.0
141
20.0
290
     0
  0
SCALE
  5
50
102
{ACAD_REACTORS
330
47
102
}
330
47
100
AcDbScale
 70
     0
300
1:30
140
1.0
141
30.0
290
     0
  0
SCALE
  5
51
102
{ACAD_REACTORS
330
47
102
}
330
47
100
AcDbScale
 70
     0
300
1:40
140
1.0
141
40.0
290
     0
  0
SCALE
  5
52
102
{ACAD_REACTORS
330
47
102
}
330
47
100
AcDbScale
 70
     0
300
1:50
140
1.0
141
50.0
290
     0
  0
SCALE
  5
53
102
{ACAD_REACTORS
330
47
102
}
330
47
100
AcDbScale
 70
     0
300
1:100
140
1.0
141
100.0
290
     0
  0
SCALE
  5
54
102
{ACAD_REACTORS
330
47
102
}
330
47
100
AcDbScale
 70
     0
300
2:1
140
2.0
141
1.0
290
     0
  0
SCALE
  5
55
102
{ACAD_REACTORS
330
47
102
}
330
47
100
AcDbScale
 70
     0
300
4:1
140
4.0
141
1.0
290
     0
  0
SCALE
  5
56
102
{ACAD_REACTORS
330
47
102
}
330
47
100
AcDbScale
 70
     0
300
8:1
140
8.0
141
1.0
290
     0
  0
SCALE
  5
57
102
{ACAD_REACTORS
330
47
102
}
330
47
100
AcDbScale
 70
     0
300
10:1
140
10.0
141
1.0
290
     0
  0
SCALE
  5
58
102
{ACAD_REACTORS
330
47
102
}
330
47
100
AcDbScale
 70
     0
300
100:1
140
100.0
141
1.0
290
     0
  0
SCALE
  5
59
102
{ACAD_REACTORS
330
47
102
}
330
47
100
AcDbScale
 70
     0
300
1/128" = 1'-0"
140
0.0078125
141
12.0
290
     0
  0
SCALE
  5
5A
102
{ACAD_REACTORS
330
47
102
}
330
47
100
AcDbScale
 70
     0
300
1/64" = 1'-0"
140
0.015625
141
12.0
290
     0
  0
SCALE
  5
5B
102
{ACAD_REACTORS
330
47
102
}
330
47
100
AcDbScale
 70
     0
300
1/32" = 1'-0"
140
0.03125
141
12.0
290
     0
  0
SCALE
  5
5C
102
{ACAD_REACTORS
330
47
102
}
330
47
100
AcDbScale
 70
     0
300
1/16" = 1'-0"
140
0.0625
141
12.0
290
     0
  0
SCALE
  5
5D
102
{ACAD_REACTORS
330
47
102
}
330
47
100
AcDbScale
 70
     0
300
3/32" = 1'-0"
140
0.09375
141
12.0
290
     0
  0
SCALE
  5
5E
102
{ACAD_REACTORS
330
47
102
}
330
47
100
AcDbScale
 70
     0
300
1/8" = 1'-0"
140
0.125
141
12.0
290
     0
  0
SCALE
  5
5F
102
{ACAD_REACTORS
330
47
102
}
330
47
100
AcDbScale
 70
     0
300
3/16" = 1'-0"
140
0.1875
141
12.0
290
     0
  0
SCALE
  5
60
102
{ACAD_REACTORS
330
47
102
}
330
47
100
AcDbScale
 70
     0
300
1/4" = 1'-0"
140
0.25
141
12.0
290
     0
  0
SCALE
  5
61
102
{ACAD_REACTORS
330
47
102
}
330
47
100
AcDbScale
 70
     0
300
3/8" = 1'-0"
140
0.375
141
12.0
290
     0
  0
SCALE
  5
62
102
{ACAD_REACTORS
330
47
102
}
330
47
100
AcDbScale
 70
     0
300
1/2" = 1'-0"
140
0.5
141
12.0
290
     0
  0
SCALE
  5
63
102
{ACAD_REACTORS
330
47
102
}
330
47
100
AcDbScale
 70
     0
300
3/4" = 1'-0"
140
0.75
141
12.0
290
     0
  0
SCALE
  5
64
102
{ACAD_REACTORS
330
47
102
}
330
47
100
AcDbScale
 70
     0
300
1" = 1'-0"
140
1.0
141
12.0
290
     0
  0
SCALE
  5
65
102
{ACAD_REACTORS
330
47
102
}
330
47
100
AcDbScale
 70
     0
300
1-1/2" = 1'-0"
140
1.5
141
12.0
290
     0
  0
SCALE
  5
66
102
{ACAD_REACTORS
330
47
102
}
330
47
100
AcDbScale
 70
     0
300
3" = 1'-0"
140
3.0
141
12.0
290
     0
  0
SCALE
  5
67
102
{ACAD_REACTORS
330
47
102
}
330
47
100
AcDbScale
 70
     0
300
6" = 1'-0"
140
6.0
141
12.0
290
     0
  0
SCALE
  5
68
102
{ACAD_REACTORS
330
47
102
}
330
47
100
AcDbScale
 70
     0
300
1'-0" = 1'-0"
140
12.0
141
12.0
290
     0
  0
ENDSEC
  0
EOF
