  0
SECTION
  2
HEADER
  9
$ACADVER
  1
AC1015
  9
$ACADMAINTVER
 70
     6
  9
$DWGCODEPAGE
  3
ANSI_1252
  9
$INSBASE
 10
0.0
 20
0.0
 30
0.0
  9
$EXTMIN
 10
0.0
 20
0.0
 30
0.0
  9
$EXTMAX
 10
297.0
 20
210.0
 30
0.0
  9
$LIMMIN
 10
0.0
 20
0.0
  9
$LIMMAX
 10
297.0
 20
210.0
  9
$ORTHOMODE
 70
     0
  9
$REGENMODE
 70
     1
  9
$FILLMODE
 70
     1
  9
$QTEXTMODE
 70
     0
  9
$MIRRTEXT
 70
     1
  9
$LTSCALE
 40
1.0
  9
$ATTMODE
 70
     1
  9
$TEXTSIZE
 40
2.0
  9
$TRACEWID
 40
1.0
  9
$TEXTSTYLE
  7
Standard
  9
$CLAYER
  8
0
  9
$CELTYPE
  6
ByLayer
  9
$CECOLOR
 62
   256
  9
$CELTSCALE
 40
1.0
  9
$DISPSILH
 70
     0
  9
$DIMSCALE
 40
1.0
  9
$DIMASZ
 40
3.0
  9
$DIMEXO
 40
0.0
  9
$DIMDLI
 40
3.75
  9
$DIMRND
 40
0.0
  9
$DIMDLE
 40
0.0
  9
$DIMEXE
 40
1.0
  9
$DIMTP
 40
0.0
  9
$DIMTM
 40
0.0
  9
$DIMTXT
 40
2.0
  9
$DIMCEN
 40
2.5
  9
$DIMTSZ
 40
0.0
  9
$DIMTOL
 70
     0
  9
$DIMLIM
 70
     0
  9
$DIMTIH
 70
     1
  9
$DIMTOH
 70
     1
  9
$DIMSE1
 70
     0
  9
$DIMSE2
 70
     0
  9
$DIMTAD
 70
     1
  9
$DIMZIN
 70
     0
  9
$DIMBLK
  1

  9
$DIMASO
 70
     1
  9
$DIMSHO
 70
     1
  9
$DIMPOST
  1

  9
$DIMAPOST
  1

  9
$DIMALT
 70
     0
  9
$DIMALTD
 70
     3
  9
$DIMALTF
 40
0.0393700787
  9
$DIMLFAC
 40
1.0
  9
$DIMTOFL
 70
     1
  9
$DIMTVP
 40
0.0
  9
$DIMTIX
 70
     0
  9
$DIMSOXD
 70
     0
  9
$DIMSAH
 70
     0
  9
$DIMBLK1
  1

  9
$DIMBLK2
  1

  9
$DIMSTYLE
  2
ISO-25
  9
$DIMCLRD
 70
     0
  9
$DIMCLRE
 70
     0
  9
$DIMCLRT
 70
     0
  9
$DIMTFAC
 40
1.0
  9
$DIMGAP
 40
1.524
  9
$DIMJUST
 70
     0
  9
$DIMSD1
 70
     0
  9
$DIMSD2
 70
     0
  9
$DIMTOLJ
 70
     0
  9
$DIMTZIN
 70
     0
  9
$DIMALTZ
 70
     0
  9
$DIMALTTZ
 70
     0
  9
$DIMUPT
 70
     0
  9
$DIMDEC
 70
     2
  9
$DIMTDEC
 70
     3
  9
$DIMALTU
 70
     2
  9
$DIMALTTD
 70
     3
  9
$DIMTXSTY
  7
Standard
  9
$DIMAUNIT
 70
     0
  9
$DIMADEC
 70
     2
  9
$DIMALTRND
 40
0.0
  9
$DIMAZIN
 70
     0
  9
$DIMDSEP
 70
    44
  9
$DIMATFIT
 70
     3
  9
$DIMFRAC
 70
     0
  9
$DIMLDRBLK
  1

  9
$DIMLUNIT
 70
     2
  9
$DIMLWD
 70
    -2
  9
$DIMLWE
 70
    -2
  9
$DIMTMOVE
 70
     0
  9
$LUNITS
 70
     2
  9
$LUPREC
 70
     2
  9
$SKETCHINC
 40
1.0
  9
$FILLETRAD
 40
10.0
  9
$AUNITS
 70
     0
  9
$AUPREC
 70
     2
  9
$MENU
  1
.
  9
$ELEVATION
 40
0.0
  9
$PELEVATION
 40
0.0
  9
$THICKNESS
 40
0.0
  9
$LIMCHECK
 70
     0
  9
$CHAMFERA
 40
10.0
  9
$CHAMFERB
 40
10.0
  9
$CHAMFERC
 40
20.0
  9
$CHAMFERD
 40
0.0
  9
$SKPOLY
 70
     0
  9
$TDCREATE
 40
2456098.392672234
  9
$TDUCREATE
 40
2456098.3093389
  9
$TDUPDATE
 40
2456098.39267404
  9
$TDUUPDATE
 40
2456098.309340706
  9
$TDINDWG
 40
0.0000000116
  9
$TDUSRTIMER
 40
0.0000000116
  9
$USRTIMER
 70
     1
  9
$ANGBASE
 50
0.0
  9
$ANGDIR
 70
     0
  9
$PDMODE
 70
     0
  9
$PDSIZE
 40
-1.0
  9
$PLINEWID
 40
0.0
  9
$SPLFRAME
 70
     0
  9
$SPLINETYPE
 70
     6
  9
$SPLINESEGS
 70
     8
  9
$HANDSEED
  5
24D
  9
$SURFTAB1
 70
     6
  9
$SURFTAB2
 70
     6
  9
$SURFTYPE
 70
     6
  9
$SURFU
 70
     6
  9
$SURFV
 70
     6
  9
$UCSBASE
  2

  9
$UCSNAME
  2

  9
$UCSORG
 10
0.0
 20
0.0
 30
0.0
  9
$UCSXDIR
 10
1.0
 20
0.0
 30
0.0
  9
$UCSYDIR
 10
0.0
 20
1.0
 30
0.0
  9
$UCSORTHOREF
  2

  9
$UCSORTHOVIEW
 70
     0
  9
$UCSORGTOP
 10
0.0
 20
0.0
 30
0.0
  9
$UCSORGBOTTOM
 10
0.0
 20
0.0
 30
0.0
  9
$UCSORGLEFT
 10
0.0
 20
0.0
 30
0.0
  9
$UCSORGRIGHT
 10
0.0
 20
0.0
 30
0.0
  9
$UCSORGFRONT
 10
0.0
 20
0.0
 30
0.0
  9
$UCSORGBACK
 10
0.0
 20
0.0
 30
0.0
  9
$PUCSBASE
  2

  9
$PUCSNAME
  2

  9
$PUCSORG
 10
0.0
 20
0.0
 30
0.0
  9
$PUCSXDIR
 10
1.0
 20
0.0
 30
0.0
  9
$PUCSYDIR
 10
0.0
 20
1.0
 30
0.0
  9
$PUCSORTHOREF
  2

  9
$PUCSORTHOVIEW
 70
     0
  9
$PUCSORGTOP
 10
0.0
 20
0.0
 30
0.0
  9
$PUCSORGBOTTOM
 10
0.0
 20
0.0
 30
0.0
  9
$PUCSORGLEFT
 10
0.0
 20
0.0
 30
0.0
  9
$PUCSORGRIGHT
 10
0.0
 20
0.0
 30
0.0
  9
$PUCSORGFRONT
 10
0.0
 20
0.0
 30
0.0
  9
$PUCSORGBACK
 10
0.0
 20
0.0
 30
0.0
  9
$USERI1
 70
     0
  9
$USERI2
 70
     0
  9
$USERI3
 70
     0
  9
$USERI4
 70
     0
  9
$USERI5
 70
     0
  9
$USERR1
 40
0.0
  9
$USERR2
 40
0.0
  9
$USERR3
 40
0.0
  9
$USERR4
 40
0.0
  9
$USERR5
 40
0.0
  9
$WORLDVIEW
 70
     1
  9
$SHADEDGE
 70
     3
  9
$SHADEDIF
 70
    70
  9
$TILEMODE
 70
     1
  9
$MAXACTVP
 70
    64
  9
$PINSBASE
 10
0.0
 20
0.0
 30
0.0
  9
$PLIMCHECK
 70
     0
  9
$PEXTMIN
 10
1.0000000000E+20
 20
1.0000000000E+20
 30
1.0000000000E+20
  9
$PEXTMAX
 10
-1.0000000000E+20
 20
-1.0000000000E+20
 30
-1.0000000000E+20
  9
$PLIMMIN
 10
0.0
 20
0.0
  9
$PLIMMAX
 10
420.0
 20
297.0
  9
$UNITMODE
 70
     0
  9
$VISRETAIN
 70
     1
  9
$PLINEGEN
 70
     0
  9
$PSLTSCALE
 70
     1
  9
$TREEDEPTH
 70
  3020
  9
$CMLSTYLE
  2
Standard
  9
$CMLJUST
 70
     0
  9
$CMLSCALE
 40
20.0
  9
$PROXYGRAPHICS
 70
     1
  9
$MEASUREMENT
 70
     1
  9
$CELWEIGHT
370
    -1
  9
$ENDCAPS
280
     0
  9
$JOINSTYLE
280
     0
  9
$LWDISPLAY
290
     1
  9
$INSUNITS
 70
     4
  9
$HYPERLINKBASE
  1

  9
$STYLESHEET
  1

  9
$XEDIT
290
     1
  9
$CEPSNTYPE
380
     0
  9
$PSTYLEMODE
290
     1
  9
$FINGERPRINTGUID
  2
{5BDAED5B-25F0-4299-9687-35AC067ECC44}
  9
$VERSIONGUID
  2
{FAEB1C32-E019-11D5-929B-00C0DF256EC4}
  9
$EXTNAMES
290
     1
  9
$PSVPSCALE
 40
0.0
  9
$OLESTARTUP
290
     0
  0
ENDSEC
  0
SECTION
  2
CLASSES
  0
CLASS
  1
ACDBDICTIONARYWDFLT
  2
AcDbDictionaryWithDefault
  3
ObjectDBX Classes
 90
        0
280
     0
281
     0
  0
CLASS
  1
VISUALSTYLE
  2
AcDbVisualStyle
  3
ObjectDBX Classes
 90
     4095
280
     0
281
     0
  0
CLASS
  1
MATERIAL
  2
AcDbMaterial
  3
ObjectDBX Classes
 90
     1153
280
     0
281
     0
  0
CLASS
  1
ACDBPLACEHOLDER
  2
AcDbPlaceHolder
  3
ObjectDBX Classes
 90
        0
280
     0
281
     0
  0
CLASS
  1
LAYOUT
  2
AcDbLayout
  3
ObjectDBX Classes
 90
        0
280
     0
281
     0
  0
ENDSEC
  0
SECTION
  2
TABLES
  0
TABLE
  2
VPORT
  5
8
330
0
100
AcDbSymbolTable
 70
     1
  0
VPORT
  5
29
330
8
100
AcDbSymbolTableRecord
100
AcDbViewportTableRecord
  2
*Active
 70
     0
 10
0.0
 20
0.0
 11
1.0
 21
1.0
 12
148.5
 22
105.0
 13
0.0
 23
0.0
 14
10.0
 24
10.0
 15
10.0
 25
10.0
 16
0.0
 26
0.0
 36
1.0
 17
0.0
 27
0.0
 37
0.0
 40
210.0
 41
1.4142857143
 42
50.0
 43
0.0
 44
0.0
 50
0.0
 51
0.0
 71
     0
 72
  2000
 73
     1
 74
     3
 75
     0
 76
     0
 77
     0
 78
     0
281
     0
 65
     1
110
0.0
120
0.0
130
0.0
111
1.0
121
0.0
131
0.0
112
0.0
122
1.0
132
0.0
 79
     0
146
0.0
  0
ENDTAB
  0
TABLE
  2
LTYPE
  5
5
330
0
100
AcDbSymbolTable
 70
     6
  0
LTYPE
  5
14
330
5
100
AcDbSymbolTableRecord
100
AcDbLinetypeTableRecord
  2
ByBlock
 70
     0
  3

 72
    65
 73
     0
 40
0.0
  0
LTYPE
  5
15
330
5
100
AcDbSymbolTableRecord
100
AcDbLinetypeTableRecord
  2
ByLayer
 70
     0
  3

 72
    65
 73
     0
 40
0.0
  0
LTYPE
  5
16
330
5
100
AcDbSymbolTableRecord
100
AcDbLinetypeTableRecord
  2
Continuous
 70
     0
  3
Solid line
 72
    65
 73
     0
 40
0.0
  0
LTYPE
  5
3F
330
5
100
AcDbSymbolTableRecord
100
AcDbLinetypeTableRecord
  2
HIDDEN
 70
     0
  3
Hidden __ __ __ __ __ __ __ __ __ __ __ __ __ __
 72
    65
 73
     2
 40
1.905
 49
1.27
 74
     0
 49
-0.635
 74
     0
  0
LTYPE
  5
40
330
5
100
AcDbSymbolTableRecord
100
AcDbLinetypeTableRecord
  2
PHANTOM
 70
     0
  3
Phantom ______  __  __  ______  __  __  ______
 72
    65
 73
     6
 40
12.7
 49
6.35
 74
     0
 49
-1.27
 74
     0
 49
1.27
 74
     0
 49
-1.27
 74
     0
 49
1.27
 74
     0
 49
-1.27
 74
     0
  0
LTYPE
  5
41
330
5
100
AcDbSymbolTableRecord
100
AcDbLinetypeTableRecord
  2
CENTER
 70
     0
  3
Center ____ _ ____ _ ____ _ ____ _ ____ _ ____
 72
    65
 73
     4
 40
10.16
 49
6.35
 74
     0
 49
-1.27
 74
     0
 49
1.27
 74
     0
 49
-1.27
 74
     0
  0
LTYPE
  5
42
330
5
100
AcDbSymbolTableRecord
100
AcDbLinetypeTableRecord
  2
CENTERX2
 70
     0
  3
Center (2x) ________  __  ________  __  _____
 72
    65
 73
     4
 40
20.32
 49
12.7
 74
     0
 49
-2.54
 74
     0
 49
2.54
 74
     0
 49
-2.54
 74
     0
  0
LTYPE
  5
43
330
5
100
AcDbSymbolTableRecord
100
AcDbLinetypeTableRecord
  2
DOT2
 70
     0
  3
Dot (.5x) ........................................
 72
    65
 73
     2
 40
0.635
 49
0.0
 74
     0
 49
-0.635
 74
     0
  0
ENDTAB
  0
TABLE
  2
LAYER
  5
2
330
0
100
AcDbSymbolTable
 70
     5
  0
LAYER
  5
10
330
2
100
AcDbSymbolTableRecord
100
AcDbLayerTableRecord
  2
0
 70
     0
 62
     7
  6
Continuous
370
    -3
390
F
  0
LAYER
  5
44
330
2
100
AcDbSymbolTableRecord
100
AcDbLayerTableRecord
  2
FORMAT
 70
     0
 62
     7
  6
Continuous
370
    -3
390
F
  0
LAYER
  5
45
330
2
100
AcDbSymbolTableRecord
100
AcDbLayerTableRecord
  2
VERMASSUNG
 70
     0
 62
     7
  6
Continuous
370
    -3
390
F
  0
LAYER
  5
46
330
2
100
AcDbSymbolTableRecord
100
AcDbLayerTableRecord
  2
KOPF_DÜNN
 70
     0
 62
     7
  6
Continuous
370
    -3
390
F
  0
LAYER
  5
47
330
2
100
AcDbSymbolTableRecord
100
AcDbLayerTableRecord
  2
KOPF_DICK
 70
     0
 62
     7
  6
Continuous
370
    15
390
F
  0
ENDTAB
  0
TABLE
  2
STYLE
  5
3
330
0
100
AcDbSymbolTable
 70
     3
  0
STYLE
  5
11
330
3
100
AcDbSymbolTableRecord
100
AcDbTextStyleTableRecord
  2
Standard
 70
     0
 40
0.0
 41
1.0
 50
0.0
 71
     0
 42
2.0
  3
txt
  4

  0
STYLE
  5
48
330
3
100
AcDbSymbolTableRecord
100
AcDbTextStyleTableRecord
  2
SLDTEXTSTYLE0
 70
     0
 40
0.0
 41
0.7
 50
0.0
 71
     0
 42
0.2
  3
TXT
  4

  0
STYLE
  5
4C
330
3
100
AcDbSymbolTableRecord
100
AcDbTextStyleTableRecord
  2
SLDTEXTSTYLE1
 70
     0
 40
0.0
 41
0.6538461538
 50
0.0
 71
     0
 42
0.2
  3
TXT
  4

  0
ENDTAB
  0
TABLE
  2
VIEW
  5
6
330
0
100
AcDbSymbolTable
 70
     0
  0
ENDTAB
  0
TABLE
  2
UCS
  5
7
330
0
100
AcDbSymbolTable
 70
     0
  0
ENDTAB
  0
TABLE
  2
APPID
  5
9
330
0
100
AcDbSymbolTable
 70
     1
  0
APPID
  5
12
330
9
100
AcDbSymbolTableRecord
100
AcDbRegAppTableRecord
  2
ACAD
 70
     0
  0
ENDTAB
  0
TABLE
  2
DIMSTYLE
  5
A
330
0
100
AcDbSymbolTable
 70
     2
100
AcDbDimStyleTable
  0
DIMSTYLE
105
27
330
A
100
AcDbSymbolTableRecord
100
AcDbDimStyleTableRecord
  2
ISO-25
 70
     0
 41
2.5
 42
0.625
 43
3.75
 44
1.25
 73
     0
 74
     0
 77
     1
 78
     8
140
2.5
141
2.5
143
0.0393700787
147
0.625
171
     3
172
     1
178
     0
271
     2
272
     2
274
     3
278
    44
283
     0
284
     8
340
11
  0
DIMSTYLE
105
187
102
{ACAD_REACTORS
330
186
330
192
330
19D
330
1A7
330
1B1
102
}
330
A
100
AcDbSymbolTableRecord
100
AcDbDimStyleTableRecord
  2
SLDDIMSTYLE0
 70
     0
 41
3.0
 44
0.0
 45
0.000000001
 73
     0
 74
     0
 77
     1
 78
    12
 79
     3
140
2.0
147
0.5
173
     1
178
     0
271
     2
272
     3
276
     2
284
    12
340
48
  0
ENDTAB
  0
TABLE
  2
BLOCK_RECORD
  5
1
330
0
100
AcDbSymbolTable
 70
     7
  0
BLOCK_RECORD
  5
1F
330
1
100
AcDbSymbolTableRecord
100
AcDbBlockTableRecord
  2
*Model_Space
340
22
  0
BLOCK_RECORD
  5
1B
330
1
100
AcDbSymbolTableRecord
100
AcDbBlockTableRecord
  2
*Paper_Space
340
1E
  0
BLOCK_RECORD
  5
23
330
1
100
AcDbSymbolTableRecord
100
AcDbBlockTableRecord
  2
*Paper_Space0
340
26
  0
BLOCK_RECORD
  5
188
330
1
100
AcDbSymbolTableRecord
100
AcDbBlockTableRecord
  2
_D
340
0
  0
BLOCK_RECORD
  5
193
330
1
100
AcDbSymbolTableRecord
100
AcDbBlockTableRecord
  2
_D_1
340
0
  0
BLOCK_RECORD
  5
19E
330
1
100
AcDbSymbolTableRecord
100
AcDbBlockTableRecord
  2
_D_2
340
0
  0
BLOCK_RECORD
  5
1A8
330
1
100
AcDbSymbolTableRecord
100
AcDbBlockTableRecord
  2
_D_3
340
0
  0
BLOCK_RECORD
  5
1B2
330
1
100
AcDbSymbolTableRecord
100
AcDbBlockTableRecord
  2
_D_4
340
0
  0
BLOCK_RECORD
  5
240
330
1
100
AcDbSymbolTableRecord
100
AcDbBlockTableRecord
  2
SW_CENTERMARKSYMBOL_0
340
0
102
{BLKREFS
331
24B
102
}
  0
ENDTAB
  0
ENDSEC
  0
SECTION
  2
BLOCKS
  0
BLOCK
  5
20
330
1F
100
AcDbEntity
  8
0
100
AcDbBlockBegin
  2
*Model_Space
 70
     0
 10
0.0
 20
0.0
 30
0.0
  3
*Model_Space
  1

  0
ENDBLK
  5
21
330
1F
100
AcDbEntity
  8
0
100
AcDbBlockEnd
  0
BLOCK
  5
1C
330
1B
100
AcDbEntity
 67
     1
  8
0
100
AcDbBlockBegin
  2
*Paper_Space
 70
     0
 10
0.0
 20
0.0
 30
0.0
  3
*Paper_Space
  1

  0
ENDBLK
  5
1D
330
1B
100
AcDbEntity
 67
     1
  8
0
100
AcDbBlockEnd
  0
BLOCK
  5
24
330
23
100
AcDbEntity
  8
0
100
AcDbBlockBegin
  2
*Paper_Space0
 70
     0
 10
0.0
 20
0.0
 30
0.0
  3
*Paper_Space0
  1

  0
ENDBLK
  5
25
330
23
100
AcDbEntity
  8
0
100
AcDbBlockEnd
  0
BLOCK
  5
189
330
188
100
AcDbEntity
  8
0
100
AcDbBlockBegin
  2
_D
 70
     0
 10
0.0
 20
0.0
 30
0.0
  3
_D
  1

  0
SOLID
  5
18B
330
188
100
AcDbEntity
  8
VERMASSUNG
100
AcDbTrace
 10
257.2980294215
 20
130.9576456072
 30
0.0
 11
256.8480294215
 21
127.9576456072
 31
0.0
 12
257.7480294215
 22
127.9576456072
 32
0.0
 13
257.7480294215
 23
127.9576456072
 33
0.0
  0
SOLID
  5
18C
330
188
100
AcDbEntity
  8
VERMASSUNG
100
AcDbTrace
 10
257.2980294215
 20
94.9576456072
 30
0.0
 11
257.7480294215
 21
97.9576456072
 31
0.0
 12
256.8480294215
 22
97.9576456072
 32
0.0
 13
256.8480294215
 23
97.9576456072
 33
0.0
  0
LINE
  5
18D
330
188
100
AcDbEntity
  8
VERMASSUNG
100
AcDbLine
 10
237.5202378859
 20
130.9576456072
 30
0.0
 11
258.2980294215
 21
130.9576456072
 31
0.0
  0
LINE
  5
18E
330
188
100
AcDbEntity
  8
VERMASSUNG
100
AcDbLine
 10
237.5202378859
 20
94.9576456072
 30
0.0
 11
258.2980294215
 21
94.9576456072
 31
0.0
  0
LINE
  5
18F
330
188
100
AcDbEntity
  8
VERMASSUNG
100
AcDbLine
 10
257.2980294215
 20
130.9576456072
 30
0.0
 11
257.2980294215
 21
94.9576456072
 31
0.0
  0
MTEXT
  5
190
330
188
100
AcDbEntity
  8
VERMASSUNG
100
AcDbMText
 10
254.7198939419
 20
108.3581293566
 30
0.1
 40
2.0
 41
0.0
 71
     1
 72
     1
  1
%%c
  7
SLDTEXTSTYLE0
 11
-7.044195017643634E-15
 21
1.0
 31
0.0
 73
     1
 44
1.0
  0
MTEXT
  5
191
330
188
100
AcDbEntity
  8
VERMASSUNG
100
AcDbMText
 10
254.5198939324
 20
111.9681293709
 30
0.1
 40
2.0
 41
0.0
 71
     1
 72
     1
  1
36
  7
SLDTEXTSTYLE0
 11
-7.044195017643634E-15
 21
1.0
 31
0.0
 73
     1
 44
1.0
  0
ENDBLK
  5
18A
330
188
100
AcDbEntity
  8
0
100
AcDbBlockEnd
  0
BLOCK
  5
194
330
193
100
AcDbEntity
  8
0
100
AcDbBlockBegin
  2
_D_1
 70
     0
 10
0.0
 20
0.0
 30
0.0
  3
_D_1
  1

  0
SOLID
  5
196
330
193
100
AcDbEntity
  8
VERMASSUNG
100
AcDbTrace
 10
248.5202378859
 20
118.9576456072
 30
0.0
 11
248.0702378859
 21
115.9576456072
 31
0.0
 12
248.9702378859
 22
115.9576456072
 32
0.0
 13
248.9702378859
 23
115.9576456072
 33
0.0
  0
SOLID
  5
197
330
193
100
AcDbEntity
  8
VERMASSUNG
100
AcDbTrace
 10
248.5202378859
 20
106.9576456072
 30
0.0
 11
248.9702378859
 21
109.9576456072
 31
0.0
 12
248.0702378859
 22
109.9576456072
 32
0.0
 13
248.0702378859
 23
109.9576456072
 33
0.0
  0
LINE
  5
198
330
193
100
AcDbEntity
  8
VERMASSUNG
100
AcDbLine
 10
238.2202378859
 20
118.9576456072
 30
0.0
 11
249.5202378859
 21
118.9576456072
 31
0.0
  0
LINE
  5
199
330
193
100
AcDbEntity
  8
VERMASSUNG
100
AcDbLine
 10
238.2202378859
 20
106.9576456072
 30
0.0
 11
249.5202378859
 21
106.9576456072
 31
0.0
  0
LINE
  5
19A
330
193
100
AcDbEntity
  8
VERMASSUNG
100
AcDbLine
 10
248.5202378859
 20
118.9576456072
 30
0.0
 11
248.5202378859
 21
106.9576456072
 31
0.0
  0
MTEXT
  5
19B
330
193
100
AcDbEntity
  8
VERMASSUNG
100
AcDbMText
 10
245.9421024063
 20
108.5581290169
 30
0.1
 40
2.0
 41
0.0
 71
     1
 72
     1
  1
%%c
  7
SLDTEXTSTYLE0
 11
-7.044195017643634E-15
 21
1.0
 31
0.0
 73
     1
 44
1.0
  0
MTEXT
  5
19C
330
193
100
AcDbEntity
  8
VERMASSUNG
100
AcDbMText
 10
245.7421023968
 20
112.1681290312
 30
0.1
 40
2.0
 41
0.0
 71
     1
 72
     1
  1
12
  7
SLDTEXTSTYLE0
 11
-7.044195017643634E-15
 21
1.0
 31
0.0
 73
     1
 44
1.0
  0
ENDBLK
  5
195
330
193
100
AcDbEntity
  8
0
100
AcDbBlockEnd
  0
BLOCK
  5
19F
330
19E
100
AcDbEntity
  8
0
100
AcDbBlockBegin
  2
_D_2
 70
     0
 10
0.0
 20
0.0
 30
0.0
  3
_D_2
  1

  0
SOLID
  5
1A1
330
19E
100
AcDbEntity
  8
VERMASSUNG
100
AcDbTrace
 10
168.5202378859
 20
144.3790736004
 30
0.0
 11
171.5202378859
 21
143.9290736004
 31
0.0
 12
171.5202378859
 22
144.8290736004
 32
0.0
 13
171.5202378859
 23
144.8290736004
 33
0.0
  0
SOLID
  5
1A2
330
19E
100
AcDbEntity
  8
VERMASSUNG
100
AcDbTrace
 10
238.5202378859
 20
144.3790736004
 30
0.0
 11
235.5202378859
 21
144.8290736004
 31
0.0
 12
235.5202378859
 22
143.9290736004
 32
0.0
 13
235.5202378859
 23
143.9290736004
 33
0.0
  0
LINE
  5
1A3
330
19E
100
AcDbEntity
  8
VERMASSUNG
100
AcDbLine
 10
168.5202378859
 20
137.6576456072
 30
0.0
 11
168.5202378859
 21
145.3790736004
 31
0.0
  0
LINE
  5
1A4
330
19E
100
AcDbEntity
  8
VERMASSUNG
100
AcDbLine
 10
238.5202378859
 20
129.9576456072
 30
0.0
 11
238.5202378859
 21
145.3790736004
 31
0.0
  0
LINE
  5
1A5
330
19E
100
AcDbEntity
  8
VERMASSUNG
100
AcDbLine
 10
168.5202378859
 20
144.3790736004
 30
0.0
 11
238.5202378859
 21
144.3790736004
 31
0.0
  0
MTEXT
  5
1A6
330
19E
100
AcDbEntity
  8
VERMASSUNG
100
AcDbMText
 10
204.8894244512
 20
146.9572089635
 30
0.1
 40
2.0
 41
0.0
 71
     1
 72
     1
  1
70
  7
SLDTEXTSTYLE0
 73
     1
 44
1.0
  0
ENDBLK
  5
1A0
330
19E
100
AcDbEntity
  8
0
100
AcDbBlockEnd
  0
BLOCK
  5
1A9
330
1A8
100
AcDbEntity
  8
0
100
AcDbBlockBegin
  2
_D_3
 70
     0
 10
0.0
 20
0.0
 30
0.0
  3
_D_3
  1

  0
SOLID
  5
1AB
330
1A8
100
AcDbEntity
  8
VERMASSUNG
100
AcDbTrace
 10
138.5202378859
 20
152.3131798496
 30
0.0
 11
141.5202378859
 21
151.8631798496
 31
0.0
 12
141.5202378859
 22
152.7631798496
 32
0.0
 13
141.5202378859
 23
152.7631798496
 33
0.0
  0
SOLID
  5
1AC
330
1A8
100
AcDbEntity
  8
VERMASSUNG
100
AcDbTrace
 10
238.5202378859
 20
152.3131798496
 30
0.0
 11
235.5202378859
 21
152.7631798496
 31
0.0
 12
235.5202378859
 22
151.8631798496
 32
0.0
 13
235.5202378859
 23
151.8631798496
 33
0.0
  0
LINE
  5
1AD
330
1A8
100
AcDbEntity
  8
VERMASSUNG
100
AcDbLine
 10
138.5202378859
 20
128.8982205263
 30
0.0
 11
138.5202378859
 21
153.3131798496
 31
0.0
  0
LINE
  5
1AE
330
1A8
100
AcDbEntity
  8
VERMASSUNG
100
AcDbLine
 10
238.5202378859
 20
129.9576456072
 30
0.0
 11
238.5202378859
 21
153.3131798496
 31
0.0
  0
LINE
  5
1AF
330
1A8
100
AcDbEntity
  8
VERMASSUNG
100
AcDbLine
 10
138.5202378859
 20
152.3131798496
 30
0.0
 11
238.5202378859
 21
152.3131798496
 31
0.0
  0
MTEXT
  5
1B0
330
1A8
100
AcDbEntity
  8
VERMASSUNG
100
AcDbMText
 10
191.3051088004
 20
154.8913152128
 30
0.1
 40
2.0
 41
0.0
 71
     1
 72
     1
  1
100
  7
SLDTEXTSTYLE0
 73
     1
 44
1.0
  0
ENDBLK
  5
1AA
330
1A8
100
AcDbEntity
  8
0
100
AcDbBlockEnd
  0
BLOCK
  5
1B3
330
1B2
100
AcDbEntity
  8
0
100
AcDbBlockBegin
  2
_D_4
 70
     0
 10
0.0
 20
0.0
 30
0.0
  3
_D_4
  1

  0
SOLID
  5
1B5
330
1B2
100
AcDbEntity
  8
VERMASSUNG
100
AcDbTrace
 10
128.5202378859
 20
137.9576456072
 30
0.0
 11
128.0702378859
 21
134.9576456072
 31
0.0
 12
128.9702378859
 22
134.9576456072
 32
0.0
 13
128.9702378859
 23
134.9576456072
 33
0.0
  0
SOLID
  5
1B6
330
1B2
100
AcDbEntity
  8
VERMASSUNG
100
AcDbTrace
 10
128.5202378859
 20
87.9576456072
 30
0.0
 11
128.9702378859
 21
90.9576456072
 31
0.0
 12
128.0702378859
 22
90.9576456072
 32
0.0
 13
128.0702378859
 23
90.9576456072
 33
0.0
  0
LINE
  5
1B7
330
1B2
100
AcDbEntity
  8
VERMASSUNG
100
AcDbLine
 10
168.8202378859
 20
137.9576456072
 30
0.0
 11
127.5202378859
 21
137.9576456072
 31
0.0
  0
LINE
  5
1B8
330
1B2
100
AcDbEntity
  8
VERMASSUNG
100
AcDbLine
 10
168.8202378859
 20
87.9576456072
 30
0.0
 11
127.5202378859
 21
87.9576456072
 31
0.0
  0
LINE
  5
1B9
330
1B2
100
AcDbEntity
  8
VERMASSUNG
100
AcDbLine
 10
128.5202378859
 20
137.9576456072
 30
0.0
 11
128.5202378859
 21
87.9576456072
 31
0.0
  0
MTEXT
  5
1BA
330
1B2
100
AcDbEntity
  8
VERMASSUNG
100
AcDbMText
 10
125.7421023968
 20
106.0581290727
 30
0.1
 40
2.0
 41
0.0
 71
     1
 72
     1
  1
PSC
  7
SLDTEXTSTYLE0
 11
-7.044195017643634E-15
 21
1.0
 31
0.0
 73
     1
 44
1.0
  0
MTEXT
  5
1BB
330
1B2
100
AcDbEntity
  8
VERMASSUNG
100
AcDbMText
 10
125.9421024063
 20
110.6581291748
 30
0.1
 40
2.0
 41
0.0
 71
     1
 72
     1
  1
%%c
  7
SLDTEXTSTYLE0
 11
-7.044195017643634E-15
 21
1.0
 31
0.0
 73
     1
 44
1.0
  0
MTEXT
  5
1BC
330
1B2
100
AcDbEntity
  8
VERMASSUNG
100
AcDbMText
 10
125.7421023968
 20
114.2681296548
 30
0.1
 40
2.0
 41
0.0
 71
     1
 72
     1
  1
50
  7
SLDTEXTSTYLE0
 11
-7.044195017643634E-15
 21
1.0
 31
0.0
 73
     1
 44
1.0
  0
ENDBLK
  5
1B4
330
1B2
100
AcDbEntity
  8
0
100
AcDbBlockEnd
  0
BLOCK
  5
241
330
240
100
AcDbEntity
  8
0
100
AcDbBlockBegin
  2
SW_CENTERMARKSYMBOL_0
 70
     0
 10
0.0
 20
0.0
 30
0.0
  3
SW_CENTERMARKSYMBOL_0
  1

  0
LINE
  5
243
330
240
100
AcDbEntity
  8
VERMASSUNG
 62
     0
100
AcDbLine
 10
0.0
 20
0.0
 30
0.0
 11
0.0
 21
2.5
 31
0.0
  0
LINE
  5
244
330
240
100
AcDbEntity
  8
VERMASSUNG
 62
     0
100
AcDbLine
 10
0.0
 20
0.0
 30
0.0
 11
-2.5
 21
0.0
 31
0.0
  0
LINE
  5
245
330
240
100
AcDbEntity
  8
VERMASSUNG
 62
     0
100
AcDbLine
 10
0.0
 20
0.0
 30
0.0
 11
0.0
 21
-2.5
 31
0.0
  0
LINE
  5
246
330
240
100
AcDbEntity
  8
VERMASSUNG
 62
     0
100
AcDbLine
 10
0.0
 20
0.0
 30
0.0
 11
2.5
 21
0.0
 31
0.0
  0
LINE
  5
247
330
240
100
AcDbEntity
  8
VERMASSUNG
 62
     0
100
AcDbLine
 10
0.0
 20
5.0
 30
0.0
 11
0.0
 21
27.5
 31
0.0
  0
LINE
  5
248
330
240
100
AcDbEntity
  8
VERMASSUNG
 62
     0
100
AcDbLine
 10
-5.0
 20
0.0
 30
0.0
 11
-27.5
 21
0.0
 31
0.0
  0
LINE
  5
249
330
240
100
AcDbEntity
  8
VERMASSUNG
 62
     0
100
AcDbLine
 10
0.0
 20
-5.0
 30
0.0
 11
0.0
 21
-27.5
 31
0.0
  0
LINE
  5
24A
330
240
100
AcDbEntity
  8
VERMASSUNG
 62
     0
100
AcDbLine
 10
5.0
 20
0.0
 30
0.0
 11
27.5
 21
0.0
 31
0.0
  0
ENDBLK
  5
242
330
240
100
AcDbEntity
  8
0
100
AcDbBlockEnd
  0
ENDSEC
  0
SECTION
  2
ENTITIES
  0
MTEXT
  5
49
330
1F
100
AcDbEntity
  8
KOPF_DÜNN
100
AcDbMText
 10
13.8892156294
 20
23.8442973028
 30
0.0
 40
3.0
 41
0.0
 71
     1
 72
     1
  1
PS5.B12.K01.070
  7
SLDTEXTSTYLE0
 73
     1
 44
1.0
  0
MTEXT
  5
4A
330
1F
100
AcDbEntity
  8
VERMASSUNG
100
AcDbMText
 10
13.9329988022
 20
28.8834360957
 30
0.0
 40
3.0
 41
0.0
 71
     1
 72
     1
  1
Bohrstangenhalter_Boring bar holder
  7
SLDTEXTSTYLE0
 73
     1
 44
1.0
  0
MTEXT
  5
4B
330
1F
100
AcDbEntity
  8
VERMASSUNG
100
AcDbMText
 10
98.8601118557
 20
13.8365368179
 30
0.0
 40
2.0
 41
0.0
 71
     1
 72
     1
  1
Datum: 18.06.2012
  7
SLDTEXTSTYLE0
 73
     1
 44
1.0
  0
MTEXT
  5
4D
330
1F
100
AcDbEntity
  8
VERMASSUNG
100
AcDbMText
 10
13.933048693
 20
18.0482802738
 30
0.0
 40
2.0
 41
0.0
 71
     1
 72
     1
  1
PSC ø50 / ø12
  7
SLDTEXTSTYLE1
 73
     1
 44
1.0
  0
MTEXT
  5
4E
330
1F
100
AcDbEntity
  8
VERMASSUNG
100
AcDbMText
 10
13.9808475933
 20
13.9090973692
 30
0.0
 40
2.0
 41
0.0
 71
     1
 72
     1
  1
Gewicht: 768g
  7
SLDTEXTSTYLE0
 73
     1
 44
1.0
  0
LINE
  5
4F
330
1F
100
AcDbEntity
  8
0
  6
Continuous
 62
     7
370
    15
100
AcDbLine
 10
182.495504253
 20
87.9576452346
 30
0.0
 11
187.9202384581
 21
87.9576452346
 31
0.0
  0
LINE
  5
50
330
1F
100
AcDbEntity
  8
0
  6
Continuous
 62
     7
370
    15
100
AcDbLine
 10
168.8202379001
 20
87.9576452346
 30
0.0
 11
178.5202376623
 21
87.9576452346
 31
0.0
  0
LINE
  5
51
330
1F
100
AcDbEntity
  8
0
  6
Continuous
 62
     7
370
    15
100
AcDbLine
 10
187.9202384581
 20
137.9576459797
 30
0.0
 11
168.8202379001
 21
137.9576459797
 31
0.0
  0
ARC
  5
52
330
1F
100
AcDbEntity
  8
0
  6
Continuous
 62
     7
370
    15
100
AcDbCircle
 10
168.8202378859
 20
88.2576456072
 30
0.0
 40
0.3000000000000114
100
AcDbArc
 50
180.0
 51
270.0
  0
ARC
  5
53
330
1F
100
AcDbEntity
  8
0
  6
Continuous
 62
     7
370
    15
100
AcDbCircle
 10
168.8202378859
 20
137.6576456072
 30
0.0
 40
0.3000000000000114
100
AcDbArc
 50
90.0
 51
180.0
  0
ARC
  5
54
330
1F
100
AcDbEntity
  8
0
  6
Continuous
 62
     7
370
    15
100
AcDbCircle
 10
187.9202378859
 20
88.5576456072
 30
0.0
 40
0.6000000000000227
100
AcDbArc
 50
270.0
 51
0.0
  0
ARC
  5
55
330
1F
100
AcDbEntity
  8
0
  6
Continuous
 62
     7
370
    15
100
AcDbCircle
 10
187.9202378859
 20
137.3576456072
 30
0.0
 40
0.6000000000000227
100
AcDbArc
 50
0.0
 51
90.0
  0
ARC
  5
56
330
1F
100
AcDbEntity
  8
0
  6
Continuous
 62
     7
370
    15
100
AcDbCircle
 10
191.5202378859
 20
91.9576456072
 30
0.0
 40
3.0
100
AcDbArc
 50
90.0
 51
180.0
  0
ARC
  5
57
330
1F
100
AcDbEntity
  8
0
  6
Continuous
 62
     7
370
    15
100
AcDbCircle
 10
191.5202378859
 20
133.9576456072
 30
0.0
 40
3.0
100
AcDbArc
 50
180.0
 51
270.0
  0
LWPOLYLINE
  5
58
330
1F
100
AcDbEntity
  8
0
  6
Continuous
 62
     7
370
    15
100
AcDbPolyline
 90
        3
 70
   128
 43
0.0
 10
168.3202378909
 20
95.1178245516
 10
168.4456928261
 20
95.0495232167
 10
168.5202378859
 20
94.9967861446
  0
ARC
  5
59
330
1F
100
AcDbEntity
  8
0
  6
Continuous
 62
     7
370
    15
100
AcDbCircle
 10
167.9060243235
 20
131.7076456072
 30
0.0
 40
1.000000000000008
100
AcDbArc
 50
225.0
 51
307.8947985336
  0
LINE
  5
5A
330
1F
100
AcDbEntity
  8
0
  6
Continuous
 62
     7
370
    15
100
AcDbLine
 10
206.0749303628
 20
130.9576448323
 30
0.0
 11
191.5202379306
 21
130.9576448323
 31
0.0
  0
LINE
  5
5B
330
1F
100
AcDbEntity
  8
0
  6
Continuous
 62
     7
370
    15
100
AcDbLine
 10
216.0749282767
 20
130.9576448323
 30
0.0
 11
215.0132801463
 21
130.9576448323
 31
0.0
  0
LINE
  5
5C
330
1F
100
AcDbEntity
  8
0
  6
Continuous
 62
     7
370
    15
100
AcDbLine
 10
226.0749299158
 20
130.9576448323
 30
0.0
 11
225.0132780601
 21
130.9576448323
 31
0.0
  0
LINE
  5
5D
330
1F
100
AcDbEntity
  8
0
  6
Continuous
 62
     7
370
    15
100
AcDbLine
 10
237.5202361573
 20
130.9576448323
 30
0.0
 11
235.0132796992
 21
130.9576448323
 31
0.0
  0
LINE
  5
5E
330
1F
100
AcDbEntity
  8
0
  6
Continuous
 62
     7
370
    15
100
AcDbLine
 10
235.0132796992
 20
94.957646382
 30
0.0
 11
237.5202361573
 21
94.957646382
 31
0.0
  0
LINE
  5
5F
330
1F
100
AcDbEntity
  8
0
  6
Continuous
 62
     7
370
    15
100
AcDbLine
 10
225.0132780601
 20
94.957646382
 30
0.0
 11
226.0749299158
 21
94.957646382
 31
0.0
  0
LINE
  5
60
330
1F
100
AcDbEntity
  8
0
  6
Continuous
 62
     7
370
    15
100
AcDbLine
 10
215.0132801463
 20
94.957646382
 30
0.0
 11
216.0749282767
 21
94.957646382
 31
0.0
  0
LINE
  5
61
330
1F
100
AcDbEntity
  8
0
  6
Continuous
 62
     7
370
    15
100
AcDbLine
 10
191.5202379306
 20
94.957646382
 30
0.0
 11
206.0749303628
 21
94.957646382
 31
0.0
  0
ARC
  5
62
330
1F
100
AcDbEntity
  8
0
  6
Continuous
 62
     7
370
    15
100
AcDbCircle
 10
237.5202378859
 20
129.9576456072
 30
0.0
 40
1.0
100
AcDbArc
 50
0.0
 51
90.0
  0
ARC
  5
63
330
1F
100
AcDbEntity
  8
0
  6
Continuous
 62
     7
370
    15
100
AcDbCircle
 10
237.5202378859
 20
95.9576456072
 30
0.0
 40
1.000000000000014
100
AcDbArc
 50
270.0
 51
0.0
  0
ARC
  5
64
330
1F
100
AcDbEntity
  8
0
  6
Continuous
 62
     7
370
    15
100
AcDbCircle
 10
166.5201747968
 20
96.5525237115
 30
0.0
 40
0.2000000000000332
100
AcDbArc
 50
88.5608333333
 51
178.5608333333
  0
LINE
  5
65
330
1F
100
AcDbEntity
  8
0
  6
Continuous
 62
     7
370
    15
100
AcDbLine
 10
157.933994763
 20
96.7682380499
 30
0.0
 11
166.3202378978
 21
96.5575468065
 31
0.0
  0
LINE
  5
66
330
1F
100
AcDbEntity
  8
0
  6
Continuous
 62
     7
370
    15
100
AcDbLine
 10
145.8772622128
 20
97.0711451294
 30
0.0
 11
151.2483671386
 21
96.9362039389
 31
0.0
  0
LINE
  5
67
330
1F
100
AcDbEntity
  8
0
  6
Continuous
 62
     7
370
    15
100
AcDbLine
 10
166.5251980149
 20
96.7524614455
 30
0.0
 11
168.1252609843
 21
96.7122618379
 31
0.0
  0
ARC
  5
68
330
1F
100
AcDbEntity
  8
0
  6
Continuous
 62
     7
370
    15
100
AcDbCircle
 10
168.1202378859
 20
96.5123245573
 30
0.0
 40
0.2000000000000052
100
AcDbArc
 50
0.0
 51
88.5608333333
  0
LINE
  5
69
330
1F
100
AcDbEntity
  8
0
  6
Continuous
 62
     7
370
    15
100
AcDbLine
 10
166.3202378978
 20
131.5977447005
 30
0.0
 11
140.0202378709
 21
130.9369974108
 31
0.0
  0
ARC
  5
6A
330
1F
100
AcDbEntity
  8
0
  6
Continuous
 62
     7
370
    15
100
AcDbCircle
 10
166.5201747968
 20
131.6027675029
 30
0.0
 40
0.2000000000000329
100
AcDbArc
 50
181.4391666666
 51
271.4391666667
  0
LINE
  5
6B
330
1F
100
AcDbEntity
  8
0
  6
Continuous
 62
     7
370
    15
100
AcDbLine
 10
166.7995116287
 20
131.4097218485
 30
0.0
 11
166.5251980149
 21
131.4028300615
 31
0.0
  0
LINE
  5
6C
330
1F
100
AcDbEntity
  8
0
  6
Continuous
 62
     7
370
    15
100
AcDbLine
 10
140.0202378709
 20
130.9369974108
 30
0.0
 11
138.5202385564
 21
130.0709717246
 31
0.0
  0
LINE
  5
6D
330
1F
100
AcDbEntity
  8
0
  6
Continuous
 62
     7
370
    15
100
AcDbLine
 10
167.1989175803
 20
131.0005396875
 30
0.0
 11
166.8063565003
 21
131.3930996032
 31
0.0
  0
LINE
  5
6E
330
1F
100
AcDbEntity
  8
0
  6
Continuous
 62
     7
370
    15
100
AcDbLine
 10
216.9309366573
 20
95.1191880079
 30
0.0
 11
217.2107394864
 21
94.957646382
 31
0.0
  0
LINE
  5
6F
330
1F
100
AcDbEntity
  8
0
  6
Continuous
 62
     7
370
    15
100
AcDbLine
 10
223.8297384311
 20
94.957646382
 30
0.0
 11
224.1117801596
 21
95.1204825463
 31
0.0
  0
LINE
  5
70
330
1F
100
AcDbEntity
  8
0
  6
Continuous
 62
     7
370
    15
100
AcDbLine
 10
214.1133058895
 20
130.7939276369
 30
0.0
 11
213.829736792
 21
130.9576448323
 31
0.0
  0
LINE
  5
71
330
1F
100
AcDbEntity
  8
0
  6
Continuous
 62
     7
370
    15
100
AcDbLine
 10
207.2107378472
 20
130.9576448323
 30
0.0
 11
206.9293703963
 21
130.7951979609
 31
0.0
  0
LINE
  5
72
330
1F
100
AcDbEntity
  8
0
  6
Continuous
 62
     7
370
    15
100
AcDbLine
 10
206.9309387435
 20
95.1191880079
 30
0.0
 11
207.2107378472
 21
94.957646382
 31
0.0
  0
LINE
  5
73
330
1F
100
AcDbEntity
  8
0
  6
Continuous
 62
     7
370
    15
100
AcDbLine
 10
213.829736792
 20
94.957646382
 30
0.0
 11
214.1117822458
 21
95.1204825463
 31
0.0
  0
LINE
  5
74
330
1F
100
AcDbEntity
  8
0
  6
Continuous
 62
     7
370
    15
100
AcDbLine
 10
234.1133017172
 20
130.7939276369
 30
0.0
 11
233.8297400702
 21
130.9576448323
 31
0.0
  0
LINE
  5
75
330
1F
100
AcDbEntity
  8
0
  6
Continuous
 62
     7
370
    15
100
AcDbLine
 10
227.2107374002
 20
130.9576448323
 30
0.0
 11
226.9293699492
 21
130.7951979609
 31
0.0
  0
LINE
  5
76
330
1F
100
AcDbEntity
  8
0
  6
Continuous
 62
     7
370
    15
100
AcDbLine
 10
224.1133038033
 20
130.7939276369
 30
0.0
 11
223.8297384311
 21
130.9576448323
 31
0.0
  0
LINE
  5
77
330
1F
100
AcDbEntity
  8
0
  6
Continuous
 62
     7
370
    15
100
AcDbLine
 10
217.2107394864
 20
130.9576448323
 30
0.0
 11
216.9293683101
 21
130.7951979609
 31
0.0
  0
LINE
  5
78
330
1F
100
AcDbEntity
  8
0
  6
Continuous
 62
     7
370
    15
100
AcDbLine
 10
226.9309382965
 20
95.1191880079
 30
0.0
 11
227.2107374002
 21
94.957646382
 31
0.0
  0
LINE
  5
79
330
1F
100
AcDbEntity
  8
0
  6
Continuous
 62
     7
370
    15
100
AcDbLine
 10
233.8297400702
 20
94.957646382
 30
0.0
 11
234.1117817987
 21
95.1204825463
 31
0.0
  0
ARC
  5
7A
330
1F
100
AcDbEntity
  8
0
  6
Continuous
 62
     7
370
    15
100
AcDbCircle
 10
180.520173063
 20
63.0011966273
 30
0.0
 40
25.0364547949486
100
AcDbArc
 50
85.4747630076
 51
94.581721871
  0
SPLINE
  5
7B
330
1F
100
AcDbEntity
  8
0
  6
Continuous
 62
     7
370
    15
100
AcDbSpline
210
0.0
220
0.0
230
1.0
 70
     8
 71
     3
 72
    12
 73
     8
 74
     0
 42
0.00000001
 43
0.00000001
 12
1.0
 22
0.0
 32
0.0
 13
1.0
 23
0.0
 33
0.0
 40
0.0
 40
0.0
 40
0.0
 40
0.0
 40
0.25
 40
0.25
 40
0.5
 40
0.5
 40
1.0
 40
1.0
 40
1.0
 40
1.0
 10
177.0479946994169
 20
89.1309144916712
 30
0.0
 10
176.9843294628864
 20
89.13091449167122
 30
0.0
 10
176.924723230663
 20
89.13917926733707
 30
0.0
 10
176.8260627057322
 20
89.16339804892021
 30
0.0
 10
176.7870957157169
 20
89.17865536822937
 30
0.0
 10
176.6877088837925
 20
89.2282887224913
 30
0.0
 10
176.645632636369
 20
89.26592843066541
 30
0.0
 10
176.6149819975247
 20
89.30500412994155
 30
0.0
  0
LINE
  5
7C
330
1F
100
AcDbEntity
  8
0
  6
Continuous
 62
     7
370
    15
100
AcDbLine
 10
179.9924807702
 20
89.1309142383
 30
0.0
 11
177.0479945545
 21
89.1309142383
 31
0.0
  0
SPLINE
  5
7D
330
1F
100
AcDbEntity
  8
0
  6
Continuous
 62
     7
370
    15
100
AcDbSpline
210
0.0
220
0.0
230
1.0
 70
     8
 71
     3
 72
    12
 73
     8
 74
     0
 42
0.00000001
 43
0.00000001
 12
1.0
 22
0.0
 32
0.0
 13
1.0
 23
0.0
 33
0.0
 40
0.0
 40
0.0
 40
0.0
 40
0.0
 40
0.5000000000000032
 40
0.5000000000000032
 40
0.7500000000000016
 40
0.7500000000000016
 40
1.0
 40
1.0
 40
1.0
 40
1.0
 10
180.4254937741762
 20
89.30500412994155
 30
0.0
 10
180.3947943908089
 20
89.26586628754565
 30
0.0
 10
180.3534443227024
 20
89.22870650482015
 30
0.0
 10
180.2536883944829
 20
89.17876999919241
 30
0.0
 10
180.2139914767502
 20
89.16331712904865
 30
0.0
 10
180.1167333251026
 20
89.1393975854496
 30
0.0
 10
180.055957167112
 20
89.1309144916712
 30
0.0
 10
179.992481072284
 20
89.13091449167122
 30
0.0
  0
ELLIPSE
  5
7E
330
1F
100
AcDbEntity
  8
0
  6
Continuous
 62
     7
370
    15
100
AcDbEllipse
 10
167.4639802309
 20
112.9576456072
 30
0.0
 11
-11.7092723497272
 21
24.67718644093745
 31
0.0
210
0.0
220
0.0
230
1.0
 40
0.3419987131
 41
3.310521928178948
 42
4.221709151398938
  0
SPLINE
  5
7F
330
1F
100
AcDbEntity
  8
0
  6
Continuous
 62
     7
370
    15
100
AcDbSpline
210
0.0
220
0.0
230
1.0
 70
     8
 71
     3
 72
    12
 73
     8
 74
     0
 42
0.00000001
 43
0.00000001
 12
1.0
 22
0.0
 32
0.0
 13
1.0
 23
0.0
 33
0.0
 40
0.0
 40
0.0
 40
0.0
 40
0.0
 40
0.2500000000000007
 40
0.2500000000000007
 40
0.5000000000000014
 40
0.5000000000000014
 40
1.0
 40
1.0
 40
1.0
 40
1.0
 10
179.992481072284
 20
105.3888356379924
 30
0.0
 10
180.0561463088145
 20
105.3888356379924
 30
0.0
 10
180.1157525410379
 20
105.3627634895127
 30
0.0
 10
180.2144130659687
 20
105.2872247386916
 30
0.0
 10
180.253380055984
 20
105.2399738015954
 30
0.0
 10
180.3527668879084
 20
105.088149983629
 30
0.0
 10
180.3948431353319
 20
104.9753467338639
 30
0.0
 10
180.4254937741762
 20
104.8611926091288
 30
0.0
  0
LINE
  5
80
330
1F
100
AcDbEntity
  8
0
  6
Continuous
 62
     7
370
    15
100
AcDbLine
 10
177.0479945545
 20
105.388835472
 30
0.0
 11
179.9924807702
 21
105.388835472
 31
0.0
  0
SPLINE
  5
81
330
1F
100
AcDbEntity
  8
0
  6
Continuous
 62
     7
370
    15
100
AcDbSpline
210
0.0
220
0.0
230
1.0
 70
     8
 71
     3
 72
    12
 73
     8
 74
     0
 42
0.00000001
 43
0.00000001
 12
1.0
 22
0.0
 32
0.0
 13
1.0
 23
0.0
 33
0.0
 40
0.0
 40
0.0
 40
0.0
 40
0.0
 40
0.5
 40
0.5
 40
0.75
 40
0.75
 40
1.0
 40
1.0
 40
1.0
 40
1.0
 10
176.6149819975247
 20
104.8611926091288
 30
0.0
 10
176.6456813808919
 20
104.9755282761927
 30
0.0
 10
176.6870314489985
 20
105.086881629034
 30
0.0
 10
176.7867873772179
 20
105.2396184012827
 30
0.0
 10
176.8264842949506
 20
105.2874782871349
 30
0.0
 10
176.9237424465983
 20
105.3620814004843
 30
0.0
 10
176.984518604589
 20
105.3888356379924
 30
0.0
 10
177.0479946994169
 20
105.3888356379924
 30
0.0
  0
ELLIPSE
  5
82
330
1F
100
AcDbEntity
  8
0
  6
Continuous
 62
     7
370
    15
100
AcDbEllipse
 10
189.5764955408
 20
112.9576456072
 30
0.0
 11
11.70927234972709
 21
24.67718644093745
 31
0.0
210
0.0
220
0.0
230
1.0
 40
0.3419987131
 41
2.061476155780655
 42
2.972663379000674
  0
SPLINE
  5
83
330
1F
100
AcDbEntity
  8
0
  6
Continuous
 62
     7
370
    15
100
AcDbSpline
210
0.0
220
0.0
230
1.0
 70
     8
 71
     3
 72
    12
 73
     8
 74
     0
 42
0.00000001
 43
0.00000001
 12
1.0
 22
0.0
 32
0.0
 13
1.0
 23
0.0
 33
0.0
 40
0.0
 40
0.0
 40
0.0
 40
0.0
 40
0.2499999999999984
 40
0.2499999999999984
 40
0.4999999999999968
 40
0.4999999999999968
 40
1.0
 40
1.0
 40
1.0
 40
1.0
 10
177.0479946994169
 20
120.5264555763539
 30
0.0
 10
176.9843581452032
 20
120.5264555763539
 30
0.0
 10
176.924778018337
 20
120.5525024794119
 30
0.0
 10
176.8261412769706
 20
120.6279896383118
 30
0.0
 10
176.7871826525903
 20
120.6752086768425
 30
0.0
 10
176.6878037130824
 20
120.826948327936
 30
0.0
 10
176.6458458079169
 20
120.9391505521202
 30
0.0
 10
176.6149819975245
 20
121.0540986052175
 30
0.0
  0
LINE
  5
84
330
1F
100
AcDbEntity
  8
0
  6
Continuous
 62
     7
370
    15
100
AcDbLine
 10
179.9924807702
 20
120.5264557423
 30
0.0
 11
177.0479945545
 21
120.5264557423
 31
0.0
  0
SPLINE
  5
85
330
1F
100
AcDbEntity
  8
0
  6
Continuous
 62
     7
370
    15
100
AcDbSpline
210
0.0
220
0.0
230
1.0
 70
     8
 71
     3
 72
    12
 73
     8
 74
     0
 42
0.00000001
 43
0.00000001
 12
1.0
 22
0.0
 32
0.0
 13
1.0
 23
0.0
 33
0.0
 40
0.0
 40
0.0
 40
0.0
 40
0.0
 40
0.5000000000000037
 40
0.5000000000000037
 40
0.7500000000000018
 40
0.7500000000000018
 40
1.0
 40
1.0
 40
1.0
 40
1.0
 10
180.4254937741762
 20
121.0540986052175
 30
0.0
 10
180.394642063612
 20
120.9391956162807
 30
0.0
 10
180.3527492001514
 20
120.8270567202319
 30
0.0
 10
180.2532283223582
 20
120.675114438631
 30
0.0
 10
180.2136141576339
 20
120.6274498291061
 30
0.0
 10
180.1165111238544
 20
120.5531134984907
 30
0.0
 10
180.056012451204
 20
120.5264555763536
 30
0.0
 10
179.9924810722841
 20
120.5264555763535
 30
0.0
  0
ELLIPSE
  5
86
330
1F
100
AcDbEntity
  8
0
  6
Continuous
 62
     7
370
    15
100
AcDbEllipse
 10
167.4639802309
 20
112.9576456072
 30
0.0
 11
11.70927234972717
 21
24.67718644093745
 31
0.0
210
0.0
220
0.0
230
1.0
 40
0.3419987131
 41
5.203068809370459
 42
6.114256032590505
  0
SPLINE
  5
87
330
1F
100
AcDbEntity
  8
0
  6
Continuous
 62
     7
370
    15
100
AcDbSpline
210
0.0
220
0.0
230
1.0
 70
     8
 71
     3
 72
    12
 73
     8
 74
     0
 42
0.00000001
 43
0.00000001
 12
1.0
 22
0.0
 32
0.0
 13
1.0
 23
0.0
 33
0.0
 40
0.0
 40
0.0
 40
0.0
 40
0.0
 40
0.2500000000000007
 40
0.2500000000000007
 40
0.5000000000000013
 40
0.5000000000000013
 40
1.0
 40
1.0
 40
1.0
 40
1.0
 10
179.992481072284
 20
136.7843767226752
 30
0.0
 10
180.0561176264977
 20
136.7843767226752
 30
0.0
 10
180.1156977533639
 20
136.7761199517435
 30
0.0
 10
180.2143344947303
 20
136.7519178897356
 30
0.0
 10
180.2532931191106
 20
136.7366710707015
 30
0.0
 10
180.3526720586185
 20
136.6870661986414
 30
0.0
 10
180.394629963784
 20
136.6496345505226
 30
0.0
 10
180.4254937741764
 20
136.6102870844049
 30
0.0
  0
LINE
  5
88
330
1F
100
AcDbEntity
  8
0
  6
Continuous
 62
     7
370
    15
100
AcDbLine
 10
177.0479945545
 20
136.7843769761
 30
0.0
 11
179.9924807702
 21
136.7843769761
 31
0.0
  0
SPLINE
  5
89
330
1F
100
AcDbEntity
  8
0
  6
Continuous
 62
     7
370
    15
100
AcDbSpline
210
0.0
220
0.0
230
1.0
 70
     8
 71
     3
 72
    12
 73
     8
 74
     0
 42
0.00000001
 43
0.00000001
 12
1.0
 22
0.0
 32
0.0
 13
1.0
 23
0.0
 33
0.0
 40
0.0
 40
0.0
 40
0.0
 40
0.0
 40
0.4999999999999996
 40
0.4999999999999996
 40
0.7499999999999998
 40
0.7499999999999998
 40
1.0
 40
1.0
 40
1.0
 40
1.0
 10
176.6149819975247
 20
136.6102870844049
 30
0.0
 10
176.6458337080889
 20
136.6496191247674
 30
0.0
 10
176.6877265715495
 20
136.6870308902957
 30
0.0
 10
176.7872474493427
 20
136.7367018149116
 30
0.0
 10
176.826861614067
 20
136.7520908975194
 30
0.0
 10
176.9239646478465
 20
136.7759241131866
 30
0.0
 10
176.9844633204969
 20
136.7843767226754
 30
0.0
 10
177.0479946994168
 20
136.7843767226754
 30
0.0
  0
ELLIPSE
  5
8A
330
1F
100
AcDbEntity
  8
0
  6
Continuous
 62
     7
370
    15
100
AcDbEllipse
 10
189.5764955408
 20
112.9576456072
 30
0.0
 11
-11.70927234972706
 21
24.67718644093745
 31
0.0
210
0.0
220
0.0
230
1.0
 40
0.3419987131
 41
0.1689292745891231
 42
1.080116497809142
  0
LINE
  5
8B
330
1F
100
AcDbEntity
  8
0
  6
Continuous
 62
     7
370
    15
100
AcDbLine
 10
168.5202378859
 20
112.9576456072
 30
0.0
 11
168.5202378859
 21
137.6576464893
 31
0.0
  0
LINE
  5
8C
330
1F
100
AcDbEntity
  8
0
  6
Continuous
 62
     7
370
    15
100
AcDbLine
 10
168.5202378859
 20
88.257644725
 30
0.0
 11
168.5202378859
 21
112.9576456072
 31
0.0
  0
LINE
  5
8D
330
1F
100
AcDbEntity
  8
0
  6
Continuous
 62
     7
370
    15
100
AcDbLine
 10
188.5202374388
 20
112.9576456072
 30
0.0
 11
188.5202374388
 21
137.3576451363
 31
0.0
  0
LINE
  5
8E
330
1F
100
AcDbEntity
  8
0
  6
Continuous
 62
     7
370
    15
100
AcDbLine
 10
188.5202374388
 20
88.557646078
 30
0.0
 11
188.5202374388
 21
112.9576456072
 31
0.0
  0
LINE
  5
8F
330
1F
100
AcDbEntity
  8
0
  6
Continuous
 62
     7
370
    15
100
AcDbLine
 10
168.3202378909
 20
99.3718806924
 30
0.0
 11
168.3202378909
 21
95.1178245516
 31
0.0
  0
SPLINE
  5
90
330
1F
100
AcDbEntity
  8
0
  6
Continuous
 62
     7
370
    15
100
AcDbSpline
210
0.0
220
0.0
230
1.0
 70
     8
 71
     3
 72
    16
 73
    12
 74
     0
 42
0.00000001
 43
0.00000001
 12
1.0
 22
0.0
 32
0.0
 13
1.0
 23
0.0
 33
0.0
 40
0.0
 40
0.0
 40
0.0
 40
0.0
 40
0.4999999999999996
 40
0.4999999999999996
 40
0.7500000000000018
 40
0.7500000000000018
 40
0.8750000000000029
 40
0.8750000000000029
 40
0.9375000000000013
 40
0.9375000000000013
 40
1.0
 40
1.0
 40
1.0
 40
1.0
 10
168.3202378858504
 20
99.37188091977765
 30
0.0
 10
168.3202378858504
 20
99.45067515023419
 30
0.0
 10
168.3161805837354
 20
99.53174649866412
 30
0.0
 10
168.2905233409406
 20
99.65986344048072
 30
0.0
 10
168.2792078951985
 20
99.70446108810191
 30
0.0
 10
168.2451765278898
 20
99.77078034879753
 30
0.0
 10
168.231297546686
 20
99.7937345466331
 30
0.0
 10
168.1953618649187
 20
99.8207729485974
 30
0.0
 10
168.1804115456559
 20
99.82758268450095
 30
0.0
 10
168.1505130329141
 20
99.83092814605068
 30
0.0
 10
168.1369801725488
 20
99.82797008507724
 30
0.0
 10
168.1252609969748
 20
99.8232377443844
 30
0.0
  0
SPLINE
  5
91
330
1F
100
AcDbEntity
  8
0
  6
Continuous
 62
     7
370
    15
100
AcDbSpline
210
0.0
220
0.0
230
1.0
 70
     8
 71
     3
 72
    14
 73
    10
 74
     0
 42
0.00000001
 43
0.00000001
 12
1.0
 22
0.0
 32
0.0
 13
1.0
 23
0.0
 33
0.0
 40
0.0
 40
0.0
 40
0.0
 40
0.0
 40
0.25
 40
0.25
 40
0.5
 40
0.5
 40
0.75
 40
0.75
 40
1.0
 40
1.0
 40
1.0
 40
1.0
 10
168.1252609969816
 20
99.82323774437934
 30
0.0
 10
168.0688052323728
 20
99.80044024377683
 30
0.0
 10
167.997939606123
 20
99.78408164968204
 30
0.0
 10
167.8494825249504
 20
99.78948109131406
 30
0.0
 10
167.7802891656428
 20
99.81057230910208
 30
0.0
 10
167.6705737275086
 20
99.86149470949185
 30
0.0
 10
167.6253291481773
 20
99.89199513962528
 30
0.0
 10
167.5457024387535
 20
99.9552555371116
 30
0.0
 10
167.51109229022
 20
99.98850160236111
 30
0.0
 10
167.4793768577208
 20
100.0227831196487
 30
0.0
  0
SPLINE
  5
92
330
1F
100
AcDbEntity
  8
0
  6
Continuous
 62
     7
370
    15
100
AcDbSpline
210
0.0
220
0.0
230
1.0
 70
     8
 71
     3
 72
    10
 73
     6
 74
     0
 42
0.00000001
 43
0.00000001
 12
1.0
 22
0.0
 32
0.0
 13
1.0
 23
0.0
 33
0.0
 40
0.0
 40
0.0
 40
0.0
 40
0.0
 40
0.5
 40
0.5
 40
1.0
 40
1.0
 40
1.0
 40
1.0
 10
167.4793768577214
 20
100.0227831196481
 30
0.0
 10
167.4075970697979
 20
100.1003705856444
 30
0.0
 10
167.3551375554899
 20
100.1833326264765
 30
0.0
 10
167.2657944913887
 20
100.3578626751864
 30
0.0
 10
167.2297988818889
 20
100.4495238168372
 30
0.0
 10
167.1989175422908
 20
100.5453232211729
 30
0.0
  0
SPLINE
  5
93
330
1F
100
AcDbEntity
  8
0
  6
Continuous
 62
     7
370
    15
100
AcDbSpline
210
0.0
220
0.0
230
1.0
 70
     8
 71
     3
 72
    10
 73
     6
 74
     0
 42
0.00000001
 43
0.00000001
 12
1.0
 22
0.0
 32
0.0
 13
1.0
 23
0.0
 33
0.0
 40
0.0
 40
0.0
 40
0.0
 40
0.0
 40
0.5
 40
0.5
 40
1.0
 40
1.0
 40
1.0
 40
1.0
 10
167.1989175422908
 20
107.8231636738502
 30
0.0
 10
167.2297905741031
 20
107.9865076995177
 30
0.0
 10
167.265777437016
 20
108.1485701685766
 30
0.0
 10
167.3551120229072
 20
108.4680018090805
 30
0.0
 10
167.4075678823297
 20
108.6256354506499
 30
0.0
 10
167.4793768577221
 20
108.7777487026961
 30
0.0
  0
SPLINE
  5
94
330
1F
100
AcDbEntity
  8
0
  6
Continuous
 62
     7
370
    15
100
AcDbSpline
210
0.0
220
0.0
230
1.0
 70
     8
 71
     3
 72
    16
 73
    12
 74
     0
 42
0.00000001
 43
0.00000001
 12
1.0
 22
0.0
 32
0.0
 13
1.0
 23
0.0
 33
0.0
 40
0.0
 40
0.0
 40
0.0
 40
0.0
 40
0.2500000000000001
 40
0.2500000000000001
 40
0.5000000000000001
 40
0.5000000000000001
 40
0.6250000000000001
 40
0.6250000000000001
 40
0.7500000000000002
 40
0.7500000000000002
 40
1.0
 40
1.0
 40
1.0
 40
1.0
 10
167.4793768577214
 20
108.7777487026964
 30
0.0
 10
167.5111048189141
 20
108.8449581752095
 30
0.0
 10
167.5457324092646
 20
108.9104598072866
 30
0.0
 10
167.6254261713283
 20
109.0353096357204
 30
0.0
 10
167.6704676313319
 20
109.0954444978466
 30
0.0
 10
167.7533203581824
 20
109.1705939536027
 30
0.0
 10
167.7832348193822
 20
109.1926852395216
 30
0.0
 10
167.8492211499402
 20
109.2258466916945
 30
0.0
 10
167.885954775402
 20
109.2366881023684
 30
0.0
 10
167.9984514949718
 20
109.2402122334042
 30
0.0
 10
168.06879284307
 20
109.2030781786066
 30
0.0
 10
168.1252609969752
 20
109.1537089428963
 30
0.0
  0
SPLINE
  5
95
330
1F
100
AcDbEntity
  8
0
  6
Continuous
 62
     7
370
    15
100
AcDbSpline
210
0.0
220
0.0
230
1.0
 70
     8
 71
     3
 72
    16
 73
    12
 74
     0
 42
0.00000001
 43
0.00000001
 12
1.0
 22
0.0
 32
0.0
 13
1.0
 23
0.0
 33
0.0
 40
0.0
 40
0.0
 40
0.0
 40
0.0
 40
0.0624999999999993
 40
0.0624999999999993
 40
0.1249999999999986
 40
0.1249999999999986
 40
0.2499999999999969
 40
0.2499999999999969
 40
0.4999999999999967
 40
0.4999999999999967
 40
1.0
 40
1.0
 40
1.0
 40
1.0
 10
168.1252609969436
 20
109.153708942848
 30
0.0
 10
168.1369673124455
 20
109.1434742918156
 30
0.0
 10
168.1504632257747
 20
109.1350143737619
 30
0.0
 10
168.180364217456
 20
109.1295194548169
 30
0.0
 10
168.1953403493434
 20
109.1336979035259
 30
0.0
 10
168.2310763909588
 20
109.1580751039633
 30
0.0
 10
168.2450926679885
 20
109.184804749819
 30
0.0
 10
168.2792593215112
 20
109.2652542846008
 30
0.0
 10
168.2902405820551
 20
109.3227096328367
 30
0.0
 10
168.31613136941
 20
109.4978860237801
 30
0.0
 10
168.3202378858502
 20
109.6174063824452
 30
0.0
 10
168.3202378858505
 20
109.737304739489
 30
0.0
  0
LINE
  5
96
330
1F
100
AcDbEntity
  8
0
  6
Continuous
 62
     7
370
    15
100
AcDbLine
 10
168.3202378909
 20
129.7637507589
 30
0.0
 11
168.3202378909
 21
109.7373046717
 31
0.0
  0
LINE
  5
97
330
1F
100
AcDbEntity
  8
0
  6
Continuous
 62
     7
370
    15
100
AcDbLine
 10
168.3202378909
 20
129.7637507589
 30
0.0
 11
168.3034694862
 21
129.8231430622
 31
0.0
  0
SPLINE
  5
98
330
1F
100
AcDbEntity
  8
0
  6
Continuous
 62
     7
370
    15
100
AcDbSpline
210
0.0
220
0.0
230
1.0
 70
     8
 71
     3
 72
    12
 73
     8
 74
     0
 42
0.00000001
 43
0.00000001
 12
1.0
 22
0.0
 32
0.0
 13
1.0
 23
0.0
 33
0.0
 40
0.0
 40
0.0
 40
0.0
 40
0.0
 40
0.4999999999999984
 40
0.4999999999999984
 40
0.7499999999999992
 40
0.7499999999999992
 40
1.0
 40
1.0
 40
1.0
 40
1.0
 10
168.2832517578466
 20
129.8947535281939
 30
0.0
 10
168.2731239875472
 20
129.90493829783
 30
0.0
 10
168.2606310195877
 20
129.9140180264047
 30
0.0
 10
168.2251898394538
 20
129.9200417403719
 30
0.0
 10
168.2097186699893
 20
129.9207944038577
 30
0.0
 10
168.166342778177
 20
129.9128841240953
 30
0.0
 10
168.142956638923
 20
129.9043154529825
 30
0.0
 10
168.1252609969748
 20
129.8959901342388
 30
0.0
  0
SPLINE
  5
99
330
1F
100
AcDbEntity
  8
0
  6
Continuous
 62
     7
370
    15
100
AcDbSpline
210
0.0
220
0.0
230
1.0
 70
     8
 71
     3
 72
    14
 73
    10
 74
     0
 42
0.00000001
 43
0.00000001
 12
1.0
 22
0.0
 32
0.0
 13
1.0
 23
0.0
 33
0.0
 40
0.0
 40
0.0
 40
0.0
 40
0.0
 40
0.25
 40
0.25
 40
0.5
 40
0.5
 40
0.75
 40
0.75
 40
1.0
 40
1.0
 40
1.0
 40
1.0
 10
168.1252609969816
 20
129.895990134234
 30
0.0
 10
168.0688013310979
 20
129.8694273954514
 30
0.0
 10
167.9979288562357
 20
129.8487403485718
 30
0.0
 10
167.8494624983537
 20
129.8478289035646
 30
0.0
 10
167.7802672951459
 20
129.8672487129616
 30
0.0
 10
167.6705501090764
 20
129.9159823959221
 30
0.0
 10
167.6253042201444
 20
129.9457889049051
 30
0.0
 10
167.5456870891775
 20
130.0072947033352
 30
0.0
 10
167.5110844697206
 20
130.0395116964789
 30
0.0
 10
167.4793768577218
 20
130.0724049991766
 30
0.0
  0
SPLINE
  5
9A
330
1F
100
AcDbEntity
  8
0
  6
Continuous
 62
     7
370
    15
100
AcDbSpline
210
0.0
220
0.0
230
1.0
 70
     8
 71
     3
 72
    10
 73
     6
 74
     0
 42
0.00000001
 43
0.00000001
 12
1.0
 22
0.0
 32
0.0
 13
1.0
 23
0.0
 33
0.0
 40
0.0
 40
0.0
 40
0.0
 40
0.0
 40
0.5
 40
0.5
 40
1.0
 40
1.0
 40
1.0
 40
1.0
 10
167.1989175422908
 20
130.5044499264967
 30
0.0
 10
167.2297961259028
 20
130.4368673819662
 30
0.0
 10
167.2657888336261
 20
130.366442522997
 30
0.0
 10
167.3551290851232
 20
130.2215344840756
 30
0.0
 10
167.4075873879688
 20
130.1468790011665
 30
0.0
 10
167.4793768577219
 20
130.0724049991765
 30
0.0
  0
SPLINE
  5
9B
330
1F
100
AcDbEntity
  8
0
  6
Continuous
 62
     7
370
    15
100
AcDbSpline
210
0.0
220
0.0
230
1.0
 70
     8
 71
     3
 72
    11
 73
     7
 74
     0
 42
0.00000001
 43
0.00000001
 12
1.0
 22
0.0
 32
0.0
 13
1.0
 23
0.0
 33
0.0
 40
0.0
 40
0.0
 40
0.0
 40
0.0
 40
0.3662395501175416
 40
0.5707685533731849
 40
0.7827070428678118
 40
1.0
 40
1.0
 40
1.0
 40
1.0
 10
207.4914049436031
 20
95.20653675216417
 30
0.0
 10
207.1873512469577
 20
95.16076069895665
 30
0.0
 10
206.7134966659154
 20
95.08942069305068
 30
0.0
 10
206.3001095308427
 20
95.01234545905064
 30
0.0
 10
206.0512152758913
 20
94.96400429131205
 30
0.0
 10
206.0669598649864
 20
94.96699892253481
 30
0.0
 10
206.0749303628383
 20
94.96851491647939
 30
0.0
  0
SPLINE
  5
9C
330
1F
100
AcDbEntity
  8
0
  6
Continuous
 62
     7
370
    15
100
AcDbSpline
210
0.0
220
0.0
230
1.0
 70
     8
 71
     3
 72
    18
 73
    14
 74
     0
 42
0.00000001
 43
0.00000001
 12
1.0
 22
0.0
 32
0.0
 13
1.0
 23
0.0
 33
0.0
 40
0.0
 40
0.0
 40
0.0
 40
0.0
 40
0.0084369616691242
 40
0.1291147538058537
 40
0.2498900093829609
 40
0.3809728358956339
 40
0.5267575191670366
 40
0.6047591023168266
 40
0.6848890188453167
 40
0.7652345199947365
 40
0.8479133516624762
 40
0.9229393194404012
 40
1.0
 40
1.0
 40
1.0
 40
1.0
 10
215.0132801462588
 20
94.95903032737951
 30
0.0
 10
215.0154761566337
 20
94.9585932886214
 30
0.0
 10
215.0490827261574
 20
94.9519050809621
 30
0.0
 10
214.8381136736066
 20
94.99459838603013
 30
0.0
 10
214.2380033635568
 20
95.10550100468703
 30
0.0
 10
213.2543972840783
 20
95.25505081130936
 30
0.0
 10
212.1749457045514
 20
95.36299150111272
 30
0.0
 10
211.1840335039783
 20
95.4115634297522
 30
0.0
 10
210.3881232327932
 20
95.42163162641148
 30
0.0
 10
209.5799525585695
 20
95.40154610226587
 30
0.0
 10
208.815933302509
 20
95.35394032134617
 30
0.0
 10
208.1028478971398
 20
95.28628970034195
 30
0.0
 10
207.697029029861
 20
95.23335712355053
 30
0.0
 10
207.491404943603
 20
95.20653675216417
 30
0.0
  0
SPLINE
  5
9D
330
1F
100
AcDbEntity
  8
0
  6
Continuous
 62
     7
370
    15
100
AcDbSpline
210
0.0
220
0.0
230
1.0
 70
     8
 71
     3
 72
    23
 73
    19
 74
     0
 42
0.00000001
 43
0.00000001
 12
1.0
 22
0.0
 32
0.0
 13
1.0
 23
0.0
 33
0.0
 40
0.0
 40
0.0
 40
0.0
 40
0.0
 40
0.0390464795613614
 40
0.127693226420805
 40
0.2195423755850313
 40
0.3207944016817437
 40
0.3762742869188083
 40
0.4331803851412014
 40
0.4920709882754149
 40
0.5526113321183467
 40
0.6124683552722161
 40
0.6740995070608045
 40
0.733164523783778
 40
0.7941623655234761
 40
0.8494609628104959
 40
0.9067991619283899
 40
0.9556711133312409
 40
1.0
 40
1.0
 40
1.0
 40
1.0
 10
206.0749303628383
 20
130.9467762978671
 30
0.0
 10
206.061436999981
 20
130.9494490151363
 30
0.0
 10
206.0173098198134
 20
130.9581895698611
 30
0.0
 10
206.3845804370472
 20
130.8853088820808
 30
0.0
 10
207.1105201507914
 20
130.7586092541375
 30
0.0
 10
208.0189133850494
 20
130.6354134967184
 30
0.0
 10
208.8934706857489
 20
130.5555686285762
 30
0.0
 10
209.6370410984185
 20
130.5117758778341
 30
0.0
 10
210.4255976539501
 20
130.4934520635611
 30
0.0
 10
211.2303405390553
 20
130.5049586138717
 30
0.0
 10
212.0272429273273
 20
130.5461172654408
 30
0.0
 10
212.7752012559033
 20
130.611568762594
 30
0.0
 10
213.4615587841253
 20
130.6938845843466
 30
0.0
 10
214.0375718268746
 20
130.7792704212675
 30
0.0
 10
214.5014758235115
 20
130.8583889425879
 30
0.0
 10
214.8119607280802
 20
130.9164859714959
 30
0.0
 10
214.9924076838227
 20
130.9520488798374
 30
0.0
 10
215.0065524877576
 20
130.9549032634638
 30
0.0
 10
215.0132801462588
 20
130.956260886967
 30
0.0
  0
SPLINE
  5
9E
330
1F
100
AcDbEntity
  8
0
  6
Continuous
 62
     7
370
    15
100
AcDbSpline
210
0.0
220
0.0
230
1.0
 70
     8
 71
     3
 72
    11
 73
     7
 74
     0
 42
0.00000001
 43
0.00000001
 12
1.0
 22
0.0
 32
0.0
 13
1.0
 23
0.0
 33
0.0
 40
0.0
 40
0.0
 40
0.0
 40
0.0
 40
0.3662395501175416
 40
0.5707685533731849
 40
0.7827070428678118
 40
1.0
 40
1.0
 40
1.0
 40
1.0
 10
227.4914044965682
 20
95.20653675216417
 30
0.0
 10
227.1873507999229
 20
95.16076069895665
 30
0.0
 10
226.7134962188806
 20
95.08942069305068
 30
0.0
 10
226.3001090838079
 20
95.01234545905064
 30
0.0
 10
226.0512148288565
 20
94.96400429131205
 30
0.0
 10
226.0669594179516
 20
94.96699892253481
 30
0.0
 10
226.0749299158034
 20
94.96851491647939
 30
0.0
  0
SPLINE
  5
9F
330
1F
100
AcDbEntity
  8
0
  6
Continuous
 62
     7
370
    15
100
AcDbSpline
210
0.0
220
0.0
230
1.0
 70
     8
 71
     3
 72
    18
 73
    14
 74
     0
 42
0.00000001
 43
0.00000001
 12
1.0
 22
0.0
 32
0.0
 13
1.0
 23
0.0
 33
0.0
 40
0.0
 40
0.0
 40
0.0
 40
0.0
 40
0.0084369346100528
 40
0.1291145777315596
 40
0.2498898251270474
 40
0.3809731841923132
 40
0.52675718695111
 40
0.6047591290914385
 40
0.6848890401917266
 40
0.7652345358983401
 40
0.847913361965208
 40
0.9229393246606854
 40
1.0
 40
1.0
 40
1.0
 40
1.0
 10
235.013279699224
 20
94.95903032737951
 30
0.0
 10
235.0154744130444
 20
94.9585932887691
 30
0.0
 10
235.0490612027083
 20
94.95190507104031
 30
0.0
 10
234.8381272231882
 20
94.99459838765844
 30
0.0
 10
234.2380037524347
 20
95.10550140680725
 30
0.0
 10
233.2543953683187
 20
95.2550499312304
 30
0.0
 10
232.174946177437
 20
95.36299197935341
 30
0.0
 10
231.1840341197565
 20
95.4115633078943
 30
0.0
 10
230.3881228272973
 20
95.42163165533086
 30
0.0
 10
229.579952099999
 20
95.40154609423477
 30
0.0
 10
228.815932858265
 20
95.35394032328917
 30
0.0
 10
228.1028474494144
 20
95.28628969986117
 30
0.0
 10
227.6970285825939
 20
95.23335712338886
 30
0.0
 10
227.4914044965682
 20
95.20653675216417
 30
0.0
  0
SPLINE
  5
A0
330
1F
100
AcDbEntity
  8
0
  6
Continuous
 62
     7
370
    15
100
AcDbSpline
210
0.0
220
0.0
230
1.0
 70
     8
 71
     3
 72
    23
 73
    19
 74
     0
 42
0.00000001
 43
0.00000001
 12
1.0
 22
0.0
 32
0.0
 13
1.0
 23
0.0
 33
0.0
 40
0.0
 40
0.0
 40
0.0
 40
0.0
 40
0.0390464764050134
 40
0.1276932160986385
 40
0.2195423578381779
 40
0.3207943757501158
 40
0.3762742565024271
 40
0.4331803501247781
 40
0.4920709484985306
 40
0.5526112874476435
 40
0.612468305762931
 40
0.6740994525695244
 40
0.7331646973273876
 40
0.7941623320236182
 40
0.8494609248405393
 40
0.9067991193234619
 40
0.9556711366072125
 40
0.9999999999999999
 40
0.9999999999999999
 40
0.9999999999999999
 40
0.9999999999999999
 10
226.0749299158034
 20
130.9467762978671
 30
0.0
 10
226.0614365529468
 20
130.9494490151362
 30
0.0
 10
226.0173093727813
 20
130.9581895698604
 30
0.0
 10
226.3845799899825
 20
130.8853088820879
 30
0.0
 10
227.1105197038749
 20
130.7586092541093
 30
0.0
 10
228.0189129376184
 20
130.6354134968127
 30
0.0
 10
228.8934702394792
 20
130.555568628394
 30
0.0
 10
229.6370406483437
 20
130.5117758785579
 30
0.0
 10
230.4255972188488
 20
130.4934520607198
 30
0.0
 10
231.2303400463638
 20
130.5049586247423
 30
0.0
 10
232.0272426504829
 20
130.5461172249194
 30
0.0
 10
232.7752011285265
 20
130.6115690005064
 30
0.0
 10
233.4615616140991
 20
130.6938841609171
 30
0.0
 10
234.0375711318192
 20
130.7792706386963
 30
0.0
 10
234.5014760665484
 20
130.8583889048113
 30
0.0
 10
234.8119584782348
 20
130.9164860204557
 30
0.0
 10
234.9924130638846
 20
130.9520488542024
 30
0.0
 10
235.0065539234023
 20
130.9549032561047
 30
0.0
 10
235.013279699224
 20
130.956260886967
 30
0.0
  0
SPLINE
  5
A1
330
1F
100
AcDbEntity
  8
0
  6
Continuous
 62
     7
370
    15
100
AcDbSpline
210
0.0
220
0.0
230
1.0
 70
     8
 71
     3
 72
    11
 73
     7
 74
     0
 42
0.00000001
 43
0.00000001
 12
1.0
 22
0.0
 32
0.0
 13
1.0
 23
0.0
 33
0.0
 40
0.0
 40
0.0
 40
0.0
 40
0.0
 40
0.3662394694328098
 40
0.5707689405457422
 40
0.7827070568801894
 40
1.0
 40
1.0
 40
1.0
 40
1.0
 10
217.4914065827308
 20
95.20653675216417
 30
0.0
 10
217.187353905953
 20
95.160760659536
 30
0.0
 10
216.7135004885064
 20
95.08942052808547
 30
0.0
 10
216.3001054565508
 20
95.01234560401844
 30
0.0
 10
216.0512192841265
 20
94.96400424749302
 30
0.0
 10
216.0669598226834
 20
94.96699890696453
 30
0.0
 10
216.0749282766757
 20
94.96851491647939
 30
0.0
  0
SPLINE
  5
A2
330
1F
100
AcDbEntity
  8
0
  6
Continuous
 62
     7
370
    15
100
AcDbSpline
210
0.0
220
0.0
230
1.0
 70
     8
 71
     3
 72
    18
 73
    14
 74
     0
 42
0.00000001
 43
0.00000001
 12
1.0
 22
0.0
 32
0.0
 13
1.0
 23
0.0
 33
0.0
 40
0.0
 40
0.0
 40
0.0
 40
0.0
 40
0.0084369626059359
 40
0.1291146977216467
 40
0.2498899667092291
 40
0.3809730784929283
 40
0.526757442633224
 40
0.6047593987186725
 40
0.6848893241445172
 40
0.7652344632672293
 40
0.8479133041153464
 40
0.9229396171638174
 40
1.0
 40
1.0
 40
1.0
 40
1.0
 10
225.0132780600963
 20
94.95903032737951
 30
0.0
 10
225.0154740667516
 20
94.9585932885956
 30
0.0
 10
225.0490805610236
 20
94.9519050841892
 30
0.0
 10
224.8381166661524
 20
94.99459838120585
 30
0.0
 10
224.2380046694798
 20
95.10550121091107
 30
0.0
 10
223.2543959596526
 20
95.25505035456136
 30
0.0
 10
222.1749454848377
 20
95.36299185032193
 30
0.0
 10
221.1840325084266
 20
95.41156331481234
 30
0.0
 10
220.3881224262595
 20
95.42163167190945
 30
0.0
 10
219.5799528953291
 20
95.40154604164557
 30
0.0
 10
218.8159342622012
 20
95.35394011153764
 30
0.0
 10
218.1028470901142
 20
95.28629008219663
 30
0.0
 10
217.6970292764327
 20
95.23335717762659
 30
0.0
 10
217.4914065827308
 20
95.20653675216417
 30
0.0
  0
SPLINE
  5
A3
330
1F
100
AcDbEntity
  8
0
  6
Continuous
 62
     7
370
    15
100
AcDbSpline
210
0.0
220
0.0
230
1.0
 70
     8
 71
     3
 72
    23
 73
    19
 74
     0
 42
0.00000001
 43
0.00000001
 12
1.0
 22
0.0
 32
0.0
 13
1.0
 23
0.0
 33
0.0
 40
0.0
 40
0.0
 40
0.0
 40
0.0
 40
0.0390464710515594
 40
0.1276932182650721
 40
0.219542207014135
 40
0.320794233515264
 40
0.3762743720060403
 40
0.4331804704557254
 40
0.492070797865886
 40
0.5526114188209792
 40
0.6124684422139272
 40
0.67409959424868
 40
0.7331643783984848
 40
0.7941622203818179
 40
0.8494609819018376
 40
0.9067991812487495
 40
0.9556711328468027
 40
1.0
 40
1.0
 40
1.0
 40
1.0
 10
216.0749282766757
 20
130.9467762978671
 30
0.0
 10
216.0614363494123
 20
130.9494490131054
 30
0.0
 10
216.017313857252
 20
130.9581895625349
 30
0.0
 10
216.3845817203917
 20
130.8853090019006
 30
0.0
 10
217.1105179510083
 20
130.7586091434806
 30
0.0
 10
218.0189119505039
 20
130.6354132034949
 30
0.0
 10
218.8934714408051
 20
130.5555687956253
 30
0.0
 10
219.6370414866294
 20
130.5117759265409
 30
0.0
 10
220.4255980301024
 20
130.4934520492331
 30
0.0
 10
221.2303409909356
 20
130.504958548424
 30
0.0
 10
222.0272444684726
 20
130.5461172950728
 30
0.0
 10
222.775202303305
 20
130.6115685605688
 30
0.0
 10
223.4615573632638
 20
130.6938847881376
 30
0.0
 10
224.0375693232615
 20
130.7792705598037
 30
0.0
 10
224.5014781001571
 20
130.8583888039137
 30
0.0
 10
224.8119618044643
 20
130.9164859896012
 30
0.0
 10
224.992410447109
 20
130.9520488714531
 30
0.0
 10
225.0065519657419
 20
130.9549032609757
 30
0.0
 10
225.0132780600963
 20
130.956260886967
 30
0.0
  0
LINE
  5
A4
330
1F
100
AcDbEntity
  8
0
  6
Continuous
 62
     7
370
    15
100
AcDbLine
 10
238.5202381839
 20
129.957646531
 30
0.0
 11
238.5202381839
 21
95.9576446833
 31
0.0
  0
SPLINE
  5
A5
330
1F
100
AcDbEntity
  8
0
  6
Continuous
 62
     7
370
    15
100
AcDbSpline
210
0.0
220
0.0
230
1.0
 70
     8
 71
     3
 72
    18
 73
    14
 74
     0
 42
0.00000001
 43
0.00000001
 12
1.0
 22
0.0
 32
0.0
 13
1.0
 23
0.0
 33
0.0
 40
0.0
 40
0.0
 40
0.0
 40
0.0
 40
0.2500000000000001
 40
0.2500000000000001
 40
0.3750000000000001
 40
0.3750000000000001
 40
0.5000000000000001
 40
0.5000000000000001
 40
0.6250000000000001
 40
0.6250000000000001
 40
0.7500000000000002
 40
0.7500000000000002
 40
1.0
 40
1.0
 40
1.0
 40
1.0
 10
167.1989175422908
 20
100.5453232211729
 30
0.0
 10
167.0636319359885
 20
100.9650032178186
 30
0.0
 10
166.9624641897455
 20
101.4413313352051
 30
0.0
 10
166.8596028468766
 20
102.2408640256135
 30
0.0
 10
166.8335000013533
 20
102.5224652576663
 30
0.0
 10
166.7986100178085
 20
103.1123180142913
 30
0.0
 10
166.7900237595185
 20
103.4162839546883
 30
0.0
 10
166.7899240499528
 20
104.0417109152747
 30
0.0
 10
166.7984124211014
 20
104.3631735374088
 30
0.0
 10
166.832555800622
 20
105.0236165568745
 30
0.0
 10
166.8583527824758
 20
105.3639849589669
 30
0.0
 10
166.9617539138637
 20
106.4027727783336
 30
0.0
 10
167.0636119060351
 20
107.1072842793055
 30
0.0
 10
167.1989175422908
 20
107.8231636738502
 30
0.0
  0
LINE
  5
A6
330
1F
100
AcDbEntity
  8
0
  6
Continuous
 62
     7
370
    15
100
AcDbLine
 10
166.3202378978
 20
108.7777488204
 30
0.0
 11
166.3202378978
 21
130.2204452725
 31
0.0
  0
LINE
  5
A7
330
1F
100
AcDbEntity
  8
0
  6
Continuous
 62
     7
370
    15
100
AcDbLine
 10
140.0202378709
 20
100.4469678076
 30
0.0
 11
140.0202378709
 21
108.7777488204
 31
0.0
  0
LINE
  5
A8
330
1F
100
AcDbEntity
  8
0
  6
Continuous
 62
     7
370
    15
100
AcDbLine
 10
166.3202378978
 20
99.87474366
 30
0.0
 11
166.3202378978
 21
108.7777488204
 31
0.0
  0
LINE
  5
A9
330
1F
100
AcDbEntity
  8
0
  6
Continuous
 62
     7
370
    15
100
AcDbLine
 10
140.0202378709
 20
108.7777488204
 30
0.0
 11
140.0202378709
 21
129.6482201936
 31
0.0
  0
LINE
  5
AA
330
1F
100
AcDbEntity
  8
0
  6
Continuous
 62
     7
370
    15
100
AcDbLine
 10
138.5202385564
 20
108.7777488204
 30
0.0
 11
138.5202385564
 21
128.8982205363
 31
0.0
  0
LINE
  5
AB
330
1F
100
AcDbEntity
  8
0
  6
Continuous
 62
     7
370
    15
100
AcDbLine
 10
138.5202385564
 20
101.1969674649
 30
0.0
 11
138.5202385564
 21
108.7777488204
 31
0.0
  0
LINE
  5
AC
330
1F
100
AcDbEntity
  8
0
  6
Continuous
 62
     7
370
    15
100
AcDbLine
 10
166.3202378978
 20
96.5575468065
 30
0.0
 11
166.3202378978
 21
99.87474366
 31
0.0
  0
SPLINE
  5
AD
330
1F
100
AcDbEntity
  8
0
  6
Continuous
 62
     7
370
    15
100
AcDbSpline
210
0.0
220
0.0
230
1.0
 70
     8
 71
     3
 72
     8
 73
     4
 74
     0
 42
0.00000001
 43
0.00000001
 12
1.0
 22
0.0
 32
0.0
 13
1.0
 23
0.0
 33
0.0
 40
0.0000202085968836
 40
0.0000202085968836
 40
0.0000202085968836
 40
0.0000202085968836
 40
0.0040218806502652
 40
0.0040218806502652
 40
0.0040218806502652
 40
0.0040218806502652
 10
140.0202378858504
 20
97.42484884876284
 30
0.0
 10
141.3535610116411
 20
97.39422393694949
 30
0.0
 10
142.6868948848637
 20
97.36353492546586
 30
0.0
 10
144.0202378858504
 20
97.33278184873589
 30
0.0
  0
LINE
  5
AE
330
1F
100
AcDbEntity
  8
0
  6
Continuous
 62
     7
370
    15
100
AcDbLine
 10
140.0202378709
 20
97.4248484047
 30
0.0
 11
140.0202378709
 21
100.4469678076
 31
0.0
  0
SPLINE
  5
AF
330
1F
100
AcDbEntity
  8
0
  6
Continuous
 62
     7
370
    15
100
AcDbSpline
210
0.0
220
0.0
230
1.0
 70
     8
 71
     3
 72
    11
 73
     7
 74
     0
 42
0.00000001
 43
0.00000001
 12
1.0
 22
0.0
 32
0.0
 13
1.0
 23
0.0
 33
0.0
 40
0.0
 40
0.0
 40
0.0
 40
0.0
 40
0.428224499852601
 40
0.6424796074349591
 40
0.8623811871476771
 40
1.0
 40
1.0
 40
1.0
 40
1.0
 10
144.0202385266004
 20
97.33278158026914
 30
0.0
 10
144.3787763405285
 20
97.27448341118982
 30
0.0
 10
144.9167026712789
 20
97.18701670903437
 30
0.0
 10
145.520319817674
 20
97.11215272587239
 30
0.0
 10
145.86535036913
 20
97.07461413316545
 30
0.0
 10
145.8739944773805
 20
97.07383351898082
 30
0.0
 10
145.8773218174157
 20
97.07353304046373
 30
0.0
  0
SPLINE
  5
B0
330
1F
100
AcDbEntity
  8
0
  6
Continuous
 62
     7
370
    15
100
AcDbSpline
210
0.0
220
0.0
230
1.0
 70
     8
 71
     3
 72
    18
 73
    14
 74
     0
 42
0.00000001
 43
0.00000001
 12
1.0
 22
0.0
 32
0.0
 13
1.0
 23
0.0
 33
0.0
 40
0.0
 40
0.0
 40
0.0
 40
0.0
 40
0.0279771543251818
 40
0.1242833627597227
 40
0.2219260222595688
 40
0.3252617294352271
 40
0.4355367004236273
 40
0.5507054895992286
 40
0.6672045047722097
 40
0.7817781294470422
 40
0.8914423023902794
 40
0.9944270153922599
 40
1.0
 40
1.0
 40
1.0
 40
1.0
 10
157.934102796453
 20
96.77253144699316
 30
0.0
 10
157.94481433743
 20
96.77099022862289
 30
0.0
 10
157.9923983882412
 20
96.76414364946122
 30
0.0
 10
157.732241349786
 20
96.80195304856385
 30
0.0
 10
157.1816558257619
 20
96.87387974718229
 30
0.0
 10
156.3296384202733
 20
96.96444474760344
 30
0.0
 10
155.2626293322181
 20
97.04013266464548
 30
0.0
 10
154.0761522824056
 20
97.07384591808652
 30
0.0
 10
152.9345384977101
 20
97.05547361484574
 30
0.0
 10
151.9869682672165
 20
97.00200935184631
 30
0.0
 10
151.4185855602448
 20
96.95407593767627
 30
0.0
 10
151.1871154965713
 20
96.931527299629
 30
0.0
 10
151.245402805258
 20
96.93700138921892
 30
0.0
 10
151.2483950783191
 20
96.93728241044263
 30
0.0
  0
SPLINE
  5
B1
330
1F
100
AcDbEntity
  8
0
  6
Continuous
 62
     7
370
    15
100
AcDbSpline
210
0.0
220
0.0
230
1.0
 70
     8
 71
     3
 72
     8
 73
     4
 74
     0
 42
0.00000001
 43
0.00000001
 12
1.0
 22
0.0
 32
0.0
 13
1.0
 23
0.0
 33
0.0
 40
0.0
 40
0.0
 40
0.0
 40
0.0
 40
1.0
 40
1.0
 40
1.0
 40
1.0
 10
138.5202378858496
 20
98.2023766235293
 30
0.0
 10
138.9944492962875
 20
97.96106574957021
 30
0.0
 10
139.4991856433894
 20
97.69987897541974
 30
0.0
 10
140.0202378858504
 20
97.42484884876284
 30
0.0
  0
LINE
  5
B2
330
1F
100
AcDbEntity
  8
0
  6
Continuous
 62
     7
370
    15
100
AcDbLine
 10
138.5202385564
 20
98.202377026
 30
0.0
 11
138.5202385564
 21
101.1969674649
 31
0.0
  0
LINE
  5
B3
330
1F
100
AcDbEntity
  8
0
  6
Continuous
 62
     7
370
    15
100
AcDbLine
 10
166.3202378978
 20
131.5977447005
 30
0.0
 11
166.3202378978
 21
130.2204452725
 31
0.0
  0
LINE
  5
B4
330
1F
100
AcDbEntity
  8
0
  6
Continuous
 62
     7
370
    15
100
AcDbLine
 10
140.0202378709
 20
130.9369974108
 30
0.0
 11
140.0202378709
 21
129.6482201936
 31
0.0
  0
SPLINE
  5
B5
330
1F
100
AcDbEntity
  8
0
  6
Continuous
 62
     7
370
    15
100
AcDbSpline
210
0.0
220
0.0
230
1.0
 70
     8
 71
     3
 72
    11
 73
     7
 74
     0
 42
0.00000001
 43
0.00000001
 12
1.0
 22
0.0
 32
0.0
 13
1.0
 23
0.0
 33
0.0
 40
0.0
 40
0.0
 40
0.0
 40
0.0
 40
0.0902262665792518
 40
0.4609960999419443
 40
0.728442519376138
 40
1.0
 40
1.0
 40
1.0
 40
1.0
 10
166.8000856726123
 20
131.3868709178565
 30
0.0
 10
166.7970402930436
 20
131.3936792067712
 30
0.0
 10
166.7814804327363
 20
131.4284650264218
 30
0.0
 10
166.8563550942583
 20
131.2610328347536
 30
0.0
 10
166.9965974431368
 20
130.9489148883899
 30
0.0
 10
167.1311354874789
 20
130.653356537641
 30
0.0
 10
167.198917580272
 20
130.5044502289889
 30
0.0
  0
LINE
  5
B6
330
1F
100
AcDbEntity
  8
0
  6
Continuous
 62
     7
370
    15
100
AcDbLine
 10
138.5202385564
 20
130.0709717246
 30
0.0
 11
138.5202385564
 21
128.8982205363
 31
0.0
  0
LINE
  5
B7
330
1F
100
AcDbEntity
  8
0
  6
Continuous
 62
     7
370
    15
100
AcDbLine
 10
222.108382367
 20
95.3563064607
 30
0.0
 11
218.9104106356
 21
95.3563064607
 31
0.0
  0
LINE
  5
B8
330
1F
100
AcDbEntity
  8
0
  6
Continuous
 62
     7
370
    15
100
AcDbLine
 10
223.8297384311
 20
94.957646382
 30
0.0
 11
217.2107394864
 21
94.957646382
 31
0.0
  0
LINE
  5
B9
330
1F
100
AcDbEntity
  8
0
  6
Continuous
 62
     7
370
    15
100
AcDbLine
 10
210.5202373196
 20
130.5589847537
 30
0.0
 11
212.1059965421
 21
130.5589847537
 31
0.0
  0
LINE
  5
BA
330
1F
100
AcDbEntity
  8
0
  6
Continuous
 62
     7
370
    15
100
AcDbLine
 10
208.9038115074
 20
130.5589847537
 30
0.0
 11
210.5202373196
 21
130.5589847537
 31
0.0
  0
LINE
  5
BB
330
1F
100
AcDbEntity
  8
0
  6
Continuous
 62
     7
370
    15
100
AcDbLine
 10
210.5202373196
 20
130.9576448323
 30
0.0
 11
213.829736792
 21
130.9576448323
 31
0.0
  0
LINE
  5
BC
330
1F
100
AcDbEntity
  8
0
  6
Continuous
 62
     7
370
    15
100
AcDbLine
 10
207.2107378472
 20
130.9576448323
 30
0.0
 11
210.5202373196
 21
130.9576448323
 31
0.0
  0
LINE
  5
BD
330
1F
100
AcDbEntity
  8
0
  6
Continuous
 62
     7
370
    15
100
AcDbLine
 10
212.1083807279
 20
95.3563064607
 30
0.0
 11
208.9104089965
 21
95.3563064607
 31
0.0
  0
LINE
  5
BE
330
1F
100
AcDbEntity
  8
0
  6
Continuous
 62
     7
370
    15
100
AcDbLine
 10
213.829736792
 20
94.957646382
 30
0.0
 11
207.2107378472
 21
94.957646382
 31
0.0
  0
LINE
  5
BF
330
1F
100
AcDbEntity
  8
0
  6
Continuous
 62
     7
370
    15
100
AcDbLine
 10
230.5202368726
 20
130.5589847537
 30
0.0
 11
232.1059960951
 21
130.5589847537
 31
0.0
  0
LINE
  5
C0
330
1F
100
AcDbEntity
  8
0
  6
Continuous
 62
     7
370
    15
100
AcDbLine
 10
228.9038110603
 20
130.5589847537
 30
0.0
 11
230.5202368726
 21
130.5589847537
 31
0.0
  0
LINE
  5
C1
330
1F
100
AcDbEntity
  8
0
  6
Continuous
 62
     7
370
    15
100
AcDbLine
 10
230.5202368726
 20
130.9576448323
 30
0.0
 11
233.8297400702
 21
130.9576448323
 31
0.0
  0
LINE
  5
C2
330
1F
100
AcDbEntity
  8
0
  6
Continuous
 62
     7
370
    15
100
AcDbLine
 10
227.2107374002
 20
130.9576448323
 30
0.0
 11
230.5202368726
 21
130.9576448323
 31
0.0
  0
LINE
  5
C3
330
1F
100
AcDbEntity
  8
0
  6
Continuous
 62
     7
370
    15
100
AcDbLine
 10
220.5202389587
 20
130.5589847537
 30
0.0
 11
222.1059981812
 21
130.5589847537
 31
0.0
  0
LINE
  5
C4
330
1F
100
AcDbEntity
  8
0
  6
Continuous
 62
     7
370
    15
100
AcDbLine
 10
218.8780155112
 20
130.5589847537
 30
0.0
 11
220.5202389587
 21
130.5589847537
 31
0.0
  0
LINE
  5
C5
330
1F
100
AcDbEntity
  8
0
  6
Continuous
 62
     7
370
    15
100
AcDbLine
 10
220.5202389587
 20
130.9576448323
 30
0.0
 11
223.8297384311
 21
130.9576448323
 31
0.0
  0
LINE
  5
C6
330
1F
100
AcDbEntity
  8
0
  6
Continuous
 62
     7
370
    15
100
AcDbLine
 10
217.2107394864
 20
130.9576448323
 30
0.0
 11
220.5202389587
 21
130.9576448323
 31
0.0
  0
LINE
  5
C7
330
1F
100
AcDbEntity
  8
0
  6
Continuous
 62
     7
370
    15
100
AcDbLine
 10
232.1083802809
 20
95.3563064607
 30
0.0
 11
228.9104085494
 21
95.3563064607
 31
0.0
  0
LINE
  5
C8
330
1F
100
AcDbEntity
  8
0
  6
Continuous
 62
     7
370
    15
100
AcDbLine
 10
233.8297400702
 20
94.957646382
 30
0.0
 11
227.2107374002
 21
94.957646382
 31
0.0
  0
SPLINE
  5
C9
330
1F
100
AcDbEntity
  8
0
  6
HIDDEN
 62
     7
370
     0
100
AcDbSpline
210
0.0
220
0.0
230
1.0
 70
     8
 71
     3
 72
    17
 73
    13
 74
     0
 42
0.00000001
 43
0.00000001
 12
1.0
 22
0.0
 32
0.0
 13
1.0
 23
0.0
 33
0.0
 40
0.0
 40
0.0
 40
0.0
 40
0.0
 40
0.10713733061689
 40
0.214266381017664
 40
0.3216098156908729
 40
0.4290956033398351
 40
0.5363476963701325
 40
0.6433543549574706
 40
0.7504869607540899
 40
0.857919952825008
 40
0.9653598706450023
 40
1.0
 40
1.0
 40
1.0
 40
1.0
 10
178.520237662333
 20
87.95764523464422
 30
0.0
 10
178.5422784558948
 20
87.95945895807203
 30
0.0
 10
178.5863583395734
 20
87.96308626475219
 30
0.0
 10
178.9298855721023
 20
87.98830999919478
 30
0.0
 10
179.4363740036953
 20
88.01643011499831
 30
0.0
 10
180.0698136876137
 20
88.03672901013101
 30
0.0
 10
180.7527719245242
 20
88.03977807903848
 30
0.0
 10
181.4077577989453
 20
88.02453728828065
 30
0.0
 10
181.9672901266481
 20
87.99727294184882
 30
0.0
 10
182.3491195394732
 20
87.97134388814369
 30
0.0
 10
182.5309525135681
 20
87.9568008187431
 30
0.0
 10
182.502452708815
 20
87.95905512209723
 30
0.0
 10
182.4955042530475
 20
87.95960473734121
 30
0.0
  0
SPLINE
  5
CA
330
1F
100
AcDbEntity
  8
0
  6
HIDDEN
 62
     7
370
     0
100
AcDbSpline
210
0.0
220
0.0
230
1.0
 70
     8
 71
     3
 72
    12
 73
     8
 74
     0
 42
0.00000001
 43
0.00000001
 12
1.0
 22
0.0
 32
0.0
 13
1.0
 23
0.0
 33
0.0
 40
0.0
 40
0.0
 40
0.0
 40
0.0
 40
0.2499999999999993
 40
0.2499999999999993
 40
0.4999999999999987
 40
0.4999999999999987
 40
1.0
 40
1.0
 40
1.0
 40
1.0
 10
177.0479946994169
 20
105.3888356379928
 30
0.0
 10
176.9843294628864
 20
105.3888356379928
 30
0.0
 10
176.924723230663
 20
105.3627634895131
 30
0.0
 10
176.8260627057322
 20
105.287224738692
 30
0.0
 10
176.7870957157169
 20
105.2399738015957
 30
0.0
 10
176.6877088837925
 20
105.0881499836293
 30
0.0
 10
176.645632636369
 20
104.9753467338642
 30
0.0
 10
176.6149819975247
 20
104.8611926091291
 30
0.0
  0
LINE
  5
CB
330
1F
100
AcDbEntity
  8
0
  6
HIDDEN
 62
     7
370
     0
100
AcDbLine
 10
179.9924807702
 20
105.388835472
 30
0.0
 11
177.0479945545
 21
105.388835472
 31
0.0
  0
SPLINE
  5
CC
330
1F
100
AcDbEntity
  8
0
  6
HIDDEN
 62
     7
370
     0
100
AcDbSpline
210
0.0
220
0.0
230
1.0
 70
     8
 71
     3
 72
    12
 73
     8
 74
     0
 42
0.00000001
 43
0.00000001
 12
1.0
 22
0.0
 32
0.0
 13
1.0
 23
0.0
 33
0.0
 40
0.0
 40
0.0
 40
0.0
 40
0.0
 40
0.4999999999999996
 40
0.4999999999999996
 40
0.7499999999999998
 40
0.7499999999999998
 40
1.0
 40
1.0
 40
1.0
 40
1.0
 10
180.4254937741762
 20
104.8611926091291
 30
0.0
 10
180.3947943908089
 20
104.975528276193
 30
0.0
 10
180.3534443227024
 20
105.0868816290343
 30
0.0
 10
180.253688394483
 20
105.2396184012831
 30
0.0
 10
180.2139914767502
 20
105.2874782871352
 30
0.0
 10
180.1167333251026
 20
105.3620814004847
 30
0.0
 10
180.055957167112
 20
105.3888356379928
 30
0.0
 10
179.992481072284
 20
105.3888356379928
 30
0.0
  0
ELLIPSE
  5
CD
330
1F
100
AcDbEntity
  8
0
  6
HIDDEN
 62
     7
370
     0
100
AcDbEllipse
 10
167.4639802309
 20
112.9576456072
 30
0.0
 11
-11.70927234972709
 21
24.67718644093745
 31
0.0
210
0.0
220
0.0
230
1.0
 40
0.3419987131
 41
3.310521928178965
 42
4.221709151398954
  0
SPLINE
  5
CE
330
1F
100
AcDbEntity
  8
0
  6
HIDDEN
 62
     7
370
     0
100
AcDbSpline
210
0.0
220
0.0
230
1.0
 70
     8
 71
     3
 72
    12
 73
     8
 74
     0
 42
0.00000001
 43
0.00000001
 12
1.0
 22
0.0
 32
0.0
 13
1.0
 23
0.0
 33
0.0
 40
0.0
 40
0.0
 40
0.0
 40
0.0
 40
0.2500000000000002
 40
0.2500000000000002
 40
0.5000000000000004
 40
0.5000000000000004
 40
1.0
 40
1.0
 40
1.0
 40
1.0
 10
179.992481072284
 20
89.13091449167132
 30
0.0
 10
180.0561463088145
 20
89.13091449167132
 30
0.0
 10
180.1157525410379
 20
89.1391792673372
 30
0.0
 10
180.2144130659687
 20
89.16339804892034
 30
0.0
 10
180.253380055984
 20
89.17865536822949
 30
0.0
 10
180.3527668879084
 20
89.22828872249141
 30
0.0
 10
180.3948431353319
 20
89.26592843066554
 30
0.0
 10
180.4254937741762
 20
89.30500412994166
 30
0.0
  0
LINE
  5
CF
330
1F
100
AcDbEntity
  8
0
  6
HIDDEN
 62
     7
370
     0
100
AcDbLine
 10
177.0479945545
 20
89.1309142383
 30
0.0
 11
179.9924807702
 21
89.1309142383
 31
0.0
  0
SPLINE
  5
D0
330
1F
100
AcDbEntity
  8
0
  6
HIDDEN
 62
     7
370
     0
100
AcDbSpline
210
0.0
220
0.0
230
1.0
 70
     8
 71
     3
 72
    12
 73
     8
 74
     0
 42
0.00000001
 43
0.00000001
 12
1.0
 22
0.0
 32
0.0
 13
1.0
 23
0.0
 33
0.0
 40
0.0
 40
0.0
 40
0.0
 40
0.0
 40
0.4999999999999953
 40
0.4999999999999953
 40
0.7499999999999977
 40
0.7499999999999977
 40
1.0
 40
1.0
 40
1.0
 40
1.0
 10
176.6149819975247
 20
89.30500412994166
 30
0.0
 10
176.6456813808919
 20
89.26586628754576
 30
0.0
 10
176.6870314489985
 20
89.22870650482027
 30
0.0
 10
176.7867873772179
 20
89.17876999919253
 30
0.0
 10
176.8264842949507
 20
89.16331712904876
 30
0.0
 10
176.9237424465983
 20
89.13939758544971
 30
0.0
 10
176.984518604589
 20
89.1309144916713
 30
0.0
 10
177.0479946994169
 20
89.13091449167132
 30
0.0
  0
ELLIPSE
  5
D1
330
1F
100
AcDbEntity
  8
0
  6
HIDDEN
 62
     7
370
     0
100
AcDbEllipse
 10
189.5764955408
 20
112.9576456072
 30
0.0
 11
11.709272349727
 21
24.67718644093745
 31
0.0
210
0.0
220
0.0
230
1.0
 40
0.3419987131
 41
2.061476155780644
 42
2.972663379000663
  0
SPLINE
  5
D2
330
1F
100
AcDbEntity
  8
0
  6
HIDDEN
 62
     7
370
     0
100
AcDbSpline
210
0.0
220
0.0
230
1.0
 70
     8
 71
     3
 72
    12
 73
     8
 74
     0
 42
0.00000001
 43
0.00000001
 12
1.0
 22
0.0
 32
0.0
 13
1.0
 23
0.0
 33
0.0
 40
0.0
 40
0.0
 40
0.0
 40
0.0
 40
0.25
 40
0.25
 40
0.5
 40
0.5
 40
1.0
 40
1.0
 40
1.0
 40
1.0
 10
177.0479946994169
 20
136.7843767226753
 30
0.0
 10
176.9843294628864
 20
136.7843767226753
 30
0.0
 10
176.924723230663
 20
136.7761119470095
 30
0.0
 10
176.8260627057322
 20
136.7518931654263
 30
0.0
 10
176.7870957157169
 20
136.7366358461172
 30
0.0
 10
176.6877088837925
 20
136.6870024918553
 30
0.0
 10
176.645632636369
 20
136.6493627836811
 30
0.0
 10
176.6149819975247
 20
136.610287084405
 30
0.0
  0
LINE
  5
D3
330
1F
100
AcDbEntity
  8
0
  6
HIDDEN
 62
     7
370
     0
100
AcDbLine
 10
179.9924807702
 20
136.7843769761
 30
0.0
 11
177.0479945545
 21
136.7843769761
 31
0.0
  0
SPLINE
  5
D4
330
1F
100
AcDbEntity
  8
0
  6
HIDDEN
 62
     7
370
     0
100
AcDbSpline
210
0.0
220
0.0
230
1.0
 70
     8
 71
     3
 72
    12
 73
     8
 74
     0
 42
0.00000001
 43
0.00000001
 12
1.0
 22
0.0
 32
0.0
 13
1.0
 23
0.0
 33
0.0
 40
0.0
 40
0.0
 40
0.0
 40
0.0
 40
0.5
 40
0.5
 40
0.75
 40
0.75
 40
1.0
 40
1.0
 40
1.0
 40
1.0
 10
180.4254937741762
 20
136.610287084405
 30
0.0
 10
180.3947943908089
 20
136.6494249268009
 30
0.0
 10
180.3534443227024
 20
136.6865847095264
 30
0.0
 10
180.2536883944829
 20
136.7365212151541
 30
0.0
 10
180.2139914767502
 20
136.7519740852979
 30
0.0
 10
180.1167333251026
 20
136.7758936288969
 30
0.0
 10
180.0559571671119
 20
136.7843767226753
 30
0.0
 10
179.992481072284
 20
136.7843767226753
 30
0.0
  0
ELLIPSE
  5
D5
330
1F
100
AcDbEntity
  8
0
  6
HIDDEN
 62
     7
370
     0
100
AcDbEllipse
 10
167.4639802309
 20
112.9576456072
 30
0.0
 11
11.70927234972729
 21
24.67718644093745
 31
0.0
210
0.0
220
0.0
230
1.0
 40
0.3419987131
 41
5.203068809370471
 42
6.114256032590517
  0
SPLINE
  5
D6
330
1F
100
AcDbEntity
  8
0
  6
HIDDEN
 62
     7
370
     0
100
AcDbSpline
210
0.0
220
0.0
230
1.0
 70
     8
 71
     3
 72
    12
 73
     8
 74
     0
 42
0.00000001
 43
0.00000001
 12
1.0
 22
0.0
 32
0.0
 13
1.0
 23
0.0
 33
0.0
 40
0.0
 40
0.0
 40
0.0
 40
0.0
 40
0.2500000000000002
 40
0.2500000000000002
 40
0.5000000000000004
 40
0.5000000000000004
 40
1.0
 40
1.0
 40
1.0
 40
1.0
 10
179.992481072284
 20
120.5264555763543
 30
0.0
 10
180.0561463088145
 20
120.5264555763543
 30
0.0
 10
180.1157525410379
 20
120.552527724834
 30
0.0
 10
180.2144130659687
 20
120.628066475655
 30
0.0
 10
180.253380055984
 20
120.6753174127513
 30
0.0
 10
180.3527668879084
 20
120.8271412307177
 30
0.0
 10
180.3948431353319
 20
120.9399444804828
 30
0.0
 10
180.4254937741762
 20
121.0540986052179
 30
0.0
  0
LINE
  5
D7
330
1F
100
AcDbEntity
  8
0
  6
HIDDEN
 62
     7
370
     0
100
AcDbLine
 10
177.0479945545
 20
120.5264557423
 30
0.0
 11
179.9924807702
 21
120.5264557423
 31
0.0
  0
SPLINE
  5
D8
330
1F
100
AcDbEntity
  8
0
  6
HIDDEN
 62
     7
370
     0
100
AcDbSpline
210
0.0
220
0.0
230
1.0
 70
     8
 71
     3
 72
    12
 73
     8
 74
     0
 42
0.00000001
 43
0.00000001
 12
1.0
 22
0.0
 32
0.0
 13
1.0
 23
0.0
 33
0.0
 40
0.0
 40
0.0
 40
0.0
 40
0.0
 40
0.4999999999999982
 40
0.4999999999999982
 40
0.7499999999999991
 40
0.7499999999999991
 40
1.0
 40
1.0
 40
1.0
 40
1.0
 10
176.6149819975247
 20
121.0540986052179
 30
0.0
 10
176.6456813808919
 20
120.939762938154
 30
0.0
 10
176.6870314489985
 20
120.8284095853127
 30
0.0
 10
176.7867873772179
 20
120.6756728130639
 30
0.0
 10
176.8264842949506
 20
120.6278129272118
 30
0.0
 10
176.9237424465983
 20
120.5532098138623
 30
0.0
 10
176.9845186045889
 20
120.5264555763543
 30
0.0
 10
177.0479946994169
 20
120.5264555763543
 30
0.0
  0
ELLIPSE
  5
D9
330
1F
100
AcDbEntity
  8
0
  6
HIDDEN
 62
     7
370
     0
100
AcDbEllipse
 10
189.5764955408
 20
112.9576456072
 30
0.0
 11
-11.70927234972717
 21
24.67718644093745
 31
0.0
210
0.0
220
0.0
230
1.0
 40
0.3419987131
 41
0.1689292745891094
 42
1.080116497809129
  0
LINE
  5
DA
330
1F
100
AcDbEntity
  8
0
  6
HIDDEN
 62
     7
370
     0
100
AcDbLine
 10
168.5202378859
 20
137.6576464893
 30
0.0
 11
168.5202378859
 21
88.257644725
 31
0.0
  0
LINE
  5
DB
330
1F
100
AcDbEntity
  8
0
  6
HIDDEN
 62
     7
370
     0
100
AcDbLine
 10
188.5202374388
 20
137.3576451363
 30
0.0
 11
188.5202374388
 21
88.557646078
 31
0.0
  0
LINE
  5
DC
330
1F
100
AcDbEntity
  8
0
  6
HIDDEN
 62
     7
370
     0
100
AcDbLine
 10
188.5202374388
 20
91.9730555536
 30
0.0
 11
188.5202374388
 21
133.9422356607
 31
0.0
  0
LINE
  5
DD
330
1F
100
AcDbEntity
  8
0
  6
HIDDEN
 62
     7
370
     0
100
AcDbLine
 10
168.5202378859
 20
93.4115093471
 30
0.0
 11
168.5202378859
 21
132.5037818672
 31
0.0
  0
SPLINE
  5
DE
330
1F
100
AcDbEntity
  8
0
  6
HIDDEN
 62
     7
370
     0
100
AcDbSpline
210
0.0
220
0.0
230
1.0
 70
     8
 71
     3
 72
    14
 73
    10
 74
     0
 42
0.00000001
 43
0.00000001
 12
1.0
 22
0.0
 32
0.0
 13
1.0
 23
0.0
 33
0.0
 40
0.0
 40
0.0
 40
0.0
 40
0.0
 40
0.25
 40
0.25
 40
0.5
 40
0.5
 40
0.75
 40
0.75
 40
1.0
 40
1.0
 40
1.0
 40
1.0
 10
167.4793768577221
 20
100.0227831196473
 30
0.0
 10
167.5110919920528
 20
99.98850192465308
 30
0.0
 10
167.5457065173532
 20
99.95524965628529
 30
0.0
 10
167.6253777127685
 20
99.89195919918046
 30
0.0
 10
167.6704335897989
 20
99.8615252904115
 30
0.0
 10
167.7809880023043
 20
99.81028259296123
 30
0.0
 10
167.8483734165085
 20
99.78952509251116
 30
0.0
 10
167.9990029364065
 20
99.78403931456728
 30
0.0
 10
168.0688301731719
 20
99.8004503151727
 30
0.0
 10
168.1252609969754
 20
99.82323774438443
 30
0.0
  0
SPLINE
  5
DF
330
1F
100
AcDbEntity
  8
0
  6
HIDDEN
 62
     7
370
     0
100
AcDbSpline
210
0.0
220
0.0
230
1.0
 70
     8
 71
     3
 72
    16
 73
    12
 74
     0
 42
0.00000001
 43
0.00000001
 12
1.0
 22
0.0
 32
0.0
 13
1.0
 23
0.0
 33
0.0
 40
0.0
 40
0.0
 40
0.0
 40
0.0
 40
0.0624999999999997
 40
0.0624999999999997
 40
0.1249999999999994
 40
0.1249999999999994
 40
0.2500000000000009
 40
0.2500000000000009
 40
0.499999999999999
 40
0.499999999999999
 40
1.0
 40
1.0
 40
1.0
 40
1.0
 10
168.1252609969436
 20
99.82323774442835
 30
0.0
 10
168.1369952313905
 20
99.8279761660755
 30
0.0
 10
168.1505269868694
 20
99.8309384432222
 30
0.0
 10
168.1805144472993
 20
99.82755926560048
 30
0.0
 10
168.1955091537075
 20
99.82067945786495
 30
0.0
 10
168.2312495761023
 20
99.79373579831245
 30
0.0
 10
168.2452629131035
 20
99.77066133185815
 30
0.0
 10
168.2794070018849
 20
99.70397360958377
 30
0.0
 10
168.2903789060032
 20
99.66047013350111
 30
0.0
 10
168.3162244462695
 20
99.53175491055256
 30
0.0
 10
168.3202378858504
 20
99.45036472992152
 30
0.0
 10
168.3202378858504
 20
99.37188091977767
 30
0.0
  0
LINE
  5
E0
330
1F
100
AcDbEntity
  8
0
  6
HIDDEN
 62
     7
370
     0
100
AcDbLine
 10
168.3202378909
 20
95.1178245516
 30
0.0
 11
168.3202378909
 21
99.3718806924
 31
0.0
  0
LINE
  5
E1
330
1F
100
AcDbEntity
  8
0
  6
HIDDEN
 62
     7
370
     0
100
AcDbLine
 10
168.3034694862
 20
129.8231430622
 30
0.0
 11
168.2832517536
 21
129.8947543176
 31
0.0
  0
SPLINE
  5
E2
330
1F
100
AcDbEntity
  8
0
  6
HIDDEN
 62
     7
370
     0
100
AcDbSpline
210
0.0
220
0.0
230
1.0
 70
     8
 71
     3
 72
    10
 73
     6
 74
     0
 42
0.00000001
 43
0.00000001
 12
1.0
 22
0.0
 32
0.0
 13
1.0
 23
0.0
 33
0.0
 40
0.0
 40
0.0
 40
0.0
 40
0.0
 40
0.5
 40
0.5
 40
1.0
 40
1.0
 40
1.0
 40
1.0
 10
167.4793768577212
 20
130.0724049991772
 30
0.0
 10
167.4075873879684
 20
130.1468790011671
 30
0.0
 10
167.3551290851229
 20
130.2215344840761
 30
0.0
 10
167.265788833626
 20
130.3664425229973
 30
0.0
 10
167.2297961259027
 20
130.4368673819663
 30
0.0
 10
167.1989175422908
 20
130.5044499264967
 30
0.0
  0
SPLINE
  5
E3
330
1F
100
AcDbEntity
  8
0
  6
HIDDEN
 62
     7
370
     0
100
AcDbSpline
210
0.0
220
0.0
230
1.0
 70
     8
 71
     3
 72
    14
 73
    10
 74
     0
 42
0.00000001
 43
0.00000001
 12
1.0
 22
0.0
 32
0.0
 13
1.0
 23
0.0
 33
0.0
 40
0.0
 40
0.0
 40
0.0
 40
0.0
 40
0.25
 40
0.25
 40
0.5
 40
0.5
 40
0.75
 40
0.75
 40
1.0
 40
1.0
 40
1.0
 40
1.0
 10
167.4793768577206
 20
130.0724049991778
 30
0.0
 10
167.5110855572059
 20
130.0395105683275
 30
0.0
 10
167.5456933758466
 20
130.0072872586699
 30
0.0
 10
167.6253517863359
 20
129.9457547489275
 30
0.0
 10
167.6704140562308
 20
129.916005303064
 30
0.0
 10
167.7809959018092
 20
129.8669628095733
 30
0.0
 10
167.8486400226245
 20
129.8478121981343
 30
0.0
 10
167.9988883130216
 20
129.8487579055697
 30
0.0
 10
168.0688407112519
 20
129.8694459227524
 30
0.0
 10
168.1252609969754
 20
129.8959901342388
 30
0.0
  0
SPLINE
  5
E4
330
1F
100
AcDbEntity
  8
0
  6
HIDDEN
 62
     7
370
     0
100
AcDbSpline
210
0.0
220
0.0
230
1.0
 70
     8
 71
     3
 72
    16
 73
    12
 74
     0
 42
0.00000001
 43
0.00000001
 12
1.0
 22
0.0
 32
0.0
 13
1.0
 23
0.0
 33
0.0
 40
0.0
 40
0.0
 40
0.0
 40
0.0
 40
0.0624999999999992
 40
0.0624999999999992
 40
0.1249999999999984
 40
0.1249999999999984
 40
0.2499999999999981
 40
0.2499999999999981
 40
0.4999999999999976
 40
0.4999999999999976
 40
1.0
 40
1.0
 40
1.0
 40
1.0
 10
168.1252609969436
 20
129.8959901342434
 30
0.0
 10
168.1369952313905
 20
129.9015107727315
 30
0.0
 10
168.1505269868694
 20
129.9070248296032
 30
0.0
 10
168.1805144472993
 20
129.9158563928073
 30
0.0
 10
168.1955091537076
 20
129.9184932160868
 30
0.0
 10
168.2312495761023
 20
129.9209089156306
 30
0.0
 10
168.2452629131035
 20
129.9171619726374
 30
0.0
 10
168.2794070018849
 20
129.9031750166363
 30
0.0
 10
168.2903789060032
 20
129.8890735907771
 30
0.0
 10
168.3162244462695
 20
129.8421558200617
 30
0.0
 10
168.3202378858504
 20
129.8043733444397
 30
0.0
 10
168.3202378858504
 20
129.7637511622536
 30
0.0
  0
LINE
  5
E5
330
1F
100
AcDbEntity
  8
0
  6
HIDDEN
 62
     7
370
     0
100
AcDbLine
 10
168.3202378909
 20
109.7373046717
 30
0.0
 11
168.3202378909
 21
129.7637507589
 31
0.0
  0
SPLINE
  5
E6
330
1F
100
AcDbEntity
  8
0
  6
HIDDEN
 62
     7
370
     0
100
AcDbSpline
210
0.0
220
0.0
230
1.0
 70
     8
 71
     3
 72
    16
 73
    12
 74
     0
 42
0.00000001
 43
0.00000001
 12
1.0
 22
0.0
 32
0.0
 13
1.0
 23
0.0
 33
0.0
 40
0.0
 40
0.0
 40
0.0
 40
0.0
 40
0.4999999999999987
 40
0.4999999999999987
 40
0.7499999999999989
 40
0.7499999999999989
 40
0.874999999999999
 40
0.874999999999999
 40
0.9374999999999994
 40
0.9374999999999994
 40
1.0
 40
1.0
 40
1.0
 40
1.0
 10
168.3202378858506
 20
109.7373047394889
 30
0.0
 10
168.3202378858503
 20
109.6173509609135
 30
0.0
 10
168.3161133429964
 20
109.4976196392596
 30
0.0
 10
168.2901968973632
 20
109.3224864930465
 30
0.0
 10
168.2789193163435
 20
109.2643947819077
 30
0.0
 10
168.2451839378021
 20
109.1850492185675
 30
0.0
 10
168.2307951225577
 20
109.1579089045915
 30
0.0
 10
168.1955484331186
 20
109.133827050474
 30
0.0
 10
168.1803430086617
 20
109.1295520650289
 30
0.0
 10
168.1506964294923
 20
109.1349430097154
 30
0.0
 10
168.1369910934949
 20
109.1434535004843
 30
0.0
 10
168.1252609969712
 20
109.1537089428918
 30
0.0
  0
SPLINE
  5
E7
330
1F
100
AcDbEntity
  8
0
  6
HIDDEN
 62
     7
370
     0
100
AcDbSpline
210
0.0
220
0.0
230
1.0
 70
     8
 71
     3
 72
    14
 73
    10
 74
     0
 42
0.00000001
 43
0.00000001
 12
1.0
 22
0.0
 32
0.0
 13
1.0
 23
0.0
 33
0.0
 40
0.0
 40
0.0
 40
0.0
 40
0.0
 40
0.25
 40
0.25
 40
0.5
 40
0.5
 40
0.75
 40
0.75
 40
1.0
 40
1.0
 40
1.0
 40
1.0
 10
168.1252609969816
 20
109.1537089429065
 30
0.0
 10
168.0688139149234
 20
109.2030597558277
 30
0.0
 10
167.9979635308805
 20
109.2401017277164
 30
0.0
 10
167.8495270960641
 20
109.2356417958968
 30
0.0
 10
167.7803378443772
 20
109.1951542622672
 30
0.0
 10
167.6706262961363
 20
109.0955334039566
 30
0.0
 10
167.6253846467939
 20
109.0352482460333
 30
0.0
 10
167.5457366286101
 20
108.9104627522085
 30
0.0
 10
167.511109712844
 20
108.844968542042
 30
0.0
 10
167.4793768577227
 20
108.7777487026997
 30
0.0
  0
SPLINE
  5
E8
330
1F
100
AcDbEntity
  8
0
  6
HIDDEN
 62
     7
370
     0
100
AcDbSpline
210
0.0
220
0.0
230
1.0
 70
     8
 71
     3
 72
    10
 73
     6
 74
     0
 42
0.00000001
 43
0.00000001
 12
1.0
 22
0.0
 32
0.0
 13
1.0
 23
0.0
 33
0.0
 40
0.0
 40
0.0
 40
0.0
 40
0.0
 40
0.5
 40
0.5
 40
1.0
 40
1.0
 40
1.0
 40
1.0
 10
167.4793768577229
 20
108.7777487026978
 30
0.0
 10
167.4075678823303
 20
108.6256354506514
 30
0.0
 10
167.3551120229075
 20
108.4680018090817
 30
0.0
 10
167.2657774370161
 20
108.1485701685772
 30
0.0
 10
167.2297905741031
 20
107.986507699518
 30
0.0
 10
167.1989175422908
 20
107.8231636738502
 30
0.0
  0
SPLINE
  5
E9
330
1F
100
AcDbEntity
  8
0
  6
HIDDEN
 62
     7
370
     0
100
AcDbSpline
210
0.0
220
0.0
230
1.0
 70
     8
 71
     3
 72
    10
 73
     6
 74
     0
 42
0.00000001
 43
0.00000001
 12
1.0
 22
0.0
 32
0.0
 13
1.0
 23
0.0
 33
0.0
 40
0.0
 40
0.0
 40
0.0
 40
0.0
 40
0.5
 40
0.5
 40
1.0
 40
1.0
 40
1.0
 40
1.0
 10
167.1989175422908
 20
100.5453232211729
 30
0.0
 10
167.229798881889
 20
100.4495238168371
 30
0.0
 10
167.2657944913888
 20
100.3578626751861
 30
0.0
 10
167.3551375554902
 20
100.1833326264759
 30
0.0
 10
167.4075970697984
 20
100.1003705856437
 30
0.0
 10
167.4793768577221
 20
100.0227831196473
 30
0.0
  0
SPLINE
  5
EA
330
1F
100
AcDbEntity
  8
0
  6
HIDDEN
 62
     7
370
     0
100
AcDbSpline
210
0.0
220
0.0
230
1.0
 70
     8
 71
     3
 72
    75
 73
    71
 74
     0
 42
0.00000001
 43
0.00000001
 12
1.0
 22
0.0
 32
0.0
 13
1.0
 23
0.0
 33
0.0
 40
-0.0312500000000002
 40
-0.0312500000000002
 40
0.0
 40
0.0
 40
0.0312499999999996
 40
0.0312499999999996
 40
0.0624999999999992
 40
0.0624999999999992
 40
0.0937499999999988
 40
0.0937499999999988
 40
0.1093749999999987
 40
0.1093749999999987
 40
0.1249999999999985
 40
0.1406249999999984
 40
0.1406249999999984
 40
0.1562499999999983
 40
0.1562499999999983
 40
0.1874999999999982
 40
0.1874999999999982
 40
0.2187499999999981
 40
0.2187499999999981
 40
0.2499999999999981
 40
0.2499999999999981
 40
0.281249999999998
 40
0.281249999999998
 40
0.3124999999999979
 40
0.3124999999999979
 40
0.3437499999999978
 40
0.3437499999999978
 40
0.3749999999999977
 40
0.3749999999999977
 40
0.4062499999999977
 40
0.4062499999999977
 40
0.4374999999999976
 40
0.4374999999999976
 40
0.4687499999999975
 40
0.4687499999999975
 40
0.4999999999999974
 40
0.4999999999999974
 40
0.5312499999999973
 40
0.5312499999999973
 40
0.5624999999999973
 40
0.5624999999999973
 40
0.5937499999999972
 40
0.5937499999999972
 40
0.6249999999999971
 40
0.6249999999999971
 40
0.6406249999999971
 40
0.6406249999999971
 40
0.6562499999999972
 40
0.6562499999999972
 40
0.6874999999999974
 40
0.6874999999999974
 40
0.7187499999999977
 40
0.7187499999999977
 40
0.7499999999999979
 40
0.7499999999999979
 40
0.7812499999999982
 40
0.7812499999999982
 40
0.8124999999999984
 40
0.8124999999999984
 40
0.8437499999999987
 40
0.8437499999999987
 40
0.874999999999999
 40
0.874999999999999
 40
0.9062499999999992
 40
0.9062499999999992
 40
0.9374999999999994
 40
0.9374999999999994
 40
0.9687499999999998
 40
0.9687499999999998
 40
1.0
 40
1.0
 40
1.03125
 40
1.03125
 10
227.7088517858008
 20
109.7965458681654
 30
0.0
 10
227.2739581273749
 20
110.1528071763538
 30
0.0
 10
227.0765174436393
 20
110.349045219871
 30
0.0
 10
226.7228676371656
 20
110.7793262348317
 30
0.0
 10
226.5658117661162
 20
111.0159821410311
 30
0.0
 10
226.3103216206518
 20
111.5095953124533
 30
0.0
 10
226.2098337641349
 20
111.7682030640856
 30
0.0
 10
226.1032789975872
 20
112.1753770154189
 30
0.0
 10
226.0752360858635
 20
112.3148392243759
 30
0.0
 10
226.0360736952198
 20
112.5924237948725
 30
0.0
 10
226.0132206958876
 20
112.8705378430306
 30
0.0
 10
226.0226270303025
 20
113.1497000166332
 30
0.0
 10
226.0484992433382
 20
113.4293969988242
 30
0.0
 10
226.0698886139342
 20
113.5700810111466
 30
0.0
 10
226.1571444130641
 20
113.9819467879412
 30
0.0
 10
226.2458944988179
 20
114.2464472213597
 30
0.0
 10
226.4820499765402
 20
114.7562399394686
 30
0.0
 10
226.6279460372733
 20
114.997084599183
 30
0.0
 10
226.9635375084186
 20
115.4413518687246
 30
0.0
 10
227.156444390213
 20
115.6485013804518
 30
0.0
 10
227.5741102220968
 20
116.0179794792507
 30
0.0
 10
227.7989964239491
 20
116.1814270669884
 30
0.0
 10
228.2796852348622
 20
116.4678627550827
 30
0.0
 10
228.5342911144342
 20
116.5895303031617
 30
0.0
 10
229.0556540738658
 20
116.7850707938926
 30
0.0
 10
229.3245066753501
 20
116.8602407735509
 30
0.0
 10
229.8788926690354
 20
116.9648192190157
 30
0.0
 10
230.157682456581
 20
116.9928567429926
 30
0.0
 10
230.7150561752202
 20
117.0022613288033
 30
0.0
 10
230.9949866986149
 20
116.983606310128
 30
0.0
 10
231.552455962116
 20
116.8979349150991
 30
0.0
 10
231.8234447045301
 20
116.8320673635375
 30
0.0
 10
232.3503559154163
 20
116.6552084446576
 30
0.0
 10
232.6077032201866
 20
116.5434553931425
 30
0.0
 10
233.0999217545291
 20
116.2741411459539
 30
0.0
 10
233.3301866737101
 20
116.1194400341794
 30
0.0
 10
233.7588698403029
 20
115.7692217187576
 30
0.0
 10
233.9590989749608
 20
115.5715202175025
 30
0.0
 10
234.3149575521339
 20
115.1398146572021
 30
0.0
 10
234.468548595511
 20
114.9092121325822
 30
0.0
 10
234.7252163029352
 20
114.4170671532396
 30
0.0
 10
234.8290860684318
 20
114.1513703659132
 30
0.0
 10
234.9714850661692
 20
113.6105206832936
 30
0.0
 10
235.0114570680543
 20
113.3348303668521
 30
0.0
 10
235.0227078705263
 20
112.9130591982759
 30
0.0
 10
235.018113781338
 20
112.7705953972567
 30
0.0
 10
234.9926211123293
 20
112.4907981249433
 30
0.0
 10
234.9718103947939
 20
112.3525102603448
 30
0.0
 10
234.8858562196368
 20
111.9423380809372
 30
0.0
 10
234.7957082048842
 20
111.6720267062785
 30
0.0
 10
234.560882461772
 20
111.1636158793926
 30
0.0
 10
234.416971269568
 20
110.9246763245208
 30
0.0
 10
234.078635273575
 20
110.4756066453493
 30
0.0
 10
233.8876704411962
 20
110.2704896619042
 30
0.0
 10
233.4710453800042
 20
109.9009805103229
 30
0.0
 10
233.2421636845461
 20
109.7343580832595
 30
0.0
 10
232.7621925008108
 20
109.4481780942077
 30
0.0
 10
232.5110629014566
 20
109.3278314826461
 30
0.0
 10
231.9871312444741
 20
109.1308489581669
 30
0.0
 10
231.7135029040419
 20
109.0546001287933
 30
0.0
 10
231.1645564221104
 20
108.9510179847112
 30
0.0
 10
230.8868037040801
 20
108.9225942159822
 30
0.0
 10
230.3246553211694
 20
108.9129254428669
 30
0.0
 10
230.0416663408527
 20
108.9322270295554
 30
0.0
 10
229.4902715577088
 20
109.0170557307782
 30
0.0
 10
229.2192391295159
 20
109.082448216383
 30
0.0
 10
228.6868449557556
 20
109.2612165599094
 30
0.0
 10
228.4282600983855
 20
109.3741297871165
 30
0.0
 10
227.9405510719682
 20
109.6413283014315
 30
0.0
 10
227.7088517858008
 20
109.7965458681654
 30
0.0
 10
227.2739581273749
 20
110.1528071763538
 30
0.0
  0
SPLINE
  5
EB
330
1F
100
AcDbEntity
  8
0
  6
HIDDEN
 62
     7
370
     0
100
AcDbSpline
210
0.0
220
0.0
230
1.0
 70
     8
 71
     3
 72
    75
 73
    71
 74
     0
 42
0.00000001
 43
0.00000001
 12
1.0
 22
0.0
 32
0.0
 13
1.0
 23
0.0
 33
0.0
 40
-0.0312500000000001
 40
-0.0312500000000001
 40
0.0
 40
0.0
 40
0.0312499999999997
 40
0.0312499999999997
 40
0.0624999999999994
 40
0.0624999999999994
 40
0.0937499999999991
 40
0.0937499999999991
 40
0.109374999999999
 40
0.109374999999999
 40
0.1249999999999989
 40
0.1406249999999989
 40
0.1406249999999989
 40
0.1562499999999989
 40
0.1562499999999989
 40
0.1874999999999989
 40
0.1874999999999989
 40
0.218749999999999
 40
0.218749999999999
 40
0.2499999999999991
 40
0.2499999999999991
 40
0.2812499999999991
 40
0.2812499999999991
 40
0.3124999999999991
 40
0.3124999999999991
 40
0.3437499999999991
 40
0.3437499999999991
 40
0.3749999999999992
 40
0.3749999999999992
 40
0.4062499999999993
 40
0.4062499999999993
 40
0.4374999999999993
 40
0.4374999999999993
 40
0.4687499999999994
 40
0.4687499999999994
 40
0.4999999999999994
 40
0.4999999999999994
 40
0.5312499999999994
 40
0.5312499999999994
 40
0.5624999999999994
 40
0.5624999999999994
 40
0.5937499999999996
 40
0.5937499999999996
 40
0.6249999999999996
 40
0.6249999999999996
 40
0.6406249999999996
 40
0.6406249999999996
 40
0.6562499999999997
 40
0.6562499999999997
 40
0.6874999999999997
 40
0.6874999999999997
 40
0.7187499999999997
 40
0.7187499999999997
 40
0.7499999999999997
 40
0.7499999999999997
 40
0.7812499999999998
 40
0.7812499999999998
 40
0.8124999999999998
 40
0.8124999999999998
 40
0.8437499999999998
 40
0.8437499999999998
 40
0.8749999999999998
 40
0.8749999999999998
 40
0.9062499999999998
 40
0.9062499999999998
 40
0.9374999999999999
 40
0.9374999999999999
 40
0.9687499999999999
 40
0.9687499999999999
 40
1.0
 40
1.0
 40
1.03125
 40
1.03125
 10
217.7088517858008
 20
109.7965458681654
 30
0.0
 10
217.2739581273749
 20
110.1528071763538
 30
0.0
 10
217.0765174436393
 20
110.349045219871
 30
0.0
 10
216.7228676371656
 20
110.7793262348317
 30
0.0
 10
216.5658117661162
 20
111.0159821410311
 30
0.0
 10
216.3103216206518
 20
111.5095953124533
 30
0.0
 10
216.209833764135
 20
111.7682030640856
 30
0.0
 10
216.1032789975872
 20
112.1753770154189
 30
0.0
 10
216.0752360858635
 20
112.3148392243759
 30
0.0
 10
216.0360736952198
 20
112.5924237948725
 30
0.0
 10
216.0132206958876
 20
112.8705378430306
 30
0.0
 10
216.0226270303025
 20
113.1497000166332
 30
0.0
 10
216.0484992433382
 20
113.4293969988242
 30
0.0
 10
216.0698886139342
 20
113.5700810111466
 30
0.0
 10
216.1571444130641
 20
113.9819467879412
 30
0.0
 10
216.2458944988179
 20
114.2464472213598
 30
0.0
 10
216.4820499765402
 20
114.7562399394686
 30
0.0
 10
216.6279460372733
 20
114.997084599183
 30
0.0
 10
216.9635375084186
 20
115.4413518687246
 30
0.0
 10
217.1564443902131
 20
115.6485013804518
 30
0.0
 10
217.5741102220968
 20
116.0179794792507
 30
0.0
 10
217.7989964239491
 20
116.1814270669884
 30
0.0
 10
218.2796852348622
 20
116.4678627550827
 30
0.0
 10
218.5342911144342
 20
116.5895303031618
 30
0.0
 10
219.0556540738658
 20
116.7850707938926
 30
0.0
 10
219.3245066753501
 20
116.8602407735509
 30
0.0
 10
219.8788926690354
 20
116.9648192190157
 30
0.0
 10
220.157682456581
 20
116.9928567429926
 30
0.0
 10
220.7150561752201
 20
117.0022613288033
 30
0.0
 10
220.994986698615
 20
116.983606310128
 30
0.0
 10
221.552455962116
 20
116.8979349150991
 30
0.0
 10
221.8234447045301
 20
116.8320673635375
 30
0.0
 10
222.3503559154163
 20
116.6552084446576
 30
0.0
 10
222.6077032201866
 20
116.5434553931425
 30
0.0
 10
223.0999217545291
 20
116.2741411459539
 30
0.0
 10
223.3301866737101
 20
116.1194400341794
 30
0.0
 10
223.7588698403029
 20
115.7692217187576
 30
0.0
 10
223.9590989749607
 20
115.5715202175024
 30
0.0
 10
224.314957552134
 20
115.1398146572021
 30
0.0
 10
224.468548595511
 20
114.9092121325822
 30
0.0
 10
224.7252163029352
 20
114.4170671532396
 30
0.0
 10
224.8290860684318
 20
114.1513703659133
 30
0.0
 10
224.9714850661692
 20
113.6105206832936
 30
0.0
 10
225.0114570680543
 20
113.3348303668521
 30
0.0
 10
225.0227078705263
 20
112.9130591982759
 30
0.0
 10
225.0181137813379
 20
112.7705953972567
 30
0.0
 10
224.9926211123293
 20
112.4907981249433
 30
0.0
 10
224.9718103947939
 20
112.3525102603448
 30
0.0
 10
224.8858562196368
 20
111.9423380809372
 30
0.0
 10
224.7957082048841
 20
111.6720267062785
 30
0.0
 10
224.560882461772
 20
111.1636158793926
 30
0.0
 10
224.416971269568
 20
110.9246763245208
 30
0.0
 10
224.078635273575
 20
110.4756066453493
 30
0.0
 10
223.8876704411962
 20
110.2704896619042
 30
0.0
 10
223.4710453800042
 20
109.9009805103229
 30
0.0
 10
223.2421636845461
 20
109.7343580832595
 30
0.0
 10
222.7621925008108
 20
109.4481780942076
 30
0.0
 10
222.5110629014566
 20
109.3278314826461
 30
0.0
 10
221.9871312444741
 20
109.1308489581669
 30
0.0
 10
221.7135029040418
 20
109.0546001287933
 30
0.0
 10
221.1645564221104
 20
108.9510179847112
 30
0.0
 10
220.8868037040801
 20
108.9225942159822
 30
0.0
 10
220.3246553211694
 20
108.9129254428669
 30
0.0
 10
220.0416663408527
 20
108.9322270295554
 30
0.0
 10
219.4902715577088
 20
109.0170557307782
 30
0.0
 10
219.2192391295159
 20
109.082448216383
 30
0.0
 10
218.6868449557556
 20
109.2612165599094
 30
0.0
 10
218.4282600983855
 20
109.3741297871165
 30
0.0
 10
217.9405510719682
 20
109.6413283014315
 30
0.0
 10
217.7088517858008
 20
109.7965458681654
 30
0.0
 10
217.2739581273749
 20
110.1528071763538
 30
0.0
  0
SPLINE
  5
EC
330
1F
100
AcDbEntity
  8
0
  6
HIDDEN
 62
     7
370
     0
100
AcDbSpline
210
0.0
220
0.0
230
1.0
 70
     8
 71
     3
 72
    75
 73
    71
 74
     0
 42
0.00000001
 43
0.00000001
 12
1.0
 22
0.0
 32
0.0
 13
1.0
 23
0.0
 33
0.0
 40
-0.0312500000000001
 40
-0.0312500000000001
 40
0.0
 40
0.0
 40
0.0312499999999997
 40
0.0312499999999997
 40
0.0624999999999994
 40
0.0624999999999994
 40
0.0937499999999991
 40
0.0937499999999991
 40
0.1093749999999991
 40
0.1093749999999991
 40
0.124999999999999
 40
0.1406249999999989
 40
0.1406249999999989
 40
0.1562499999999989
 40
0.1562499999999989
 40
0.1874999999999989
 40
0.1874999999999989
 40
0.2187499999999989
 40
0.2187499999999989
 40
0.2499999999999989
 40
0.2499999999999989
 40
0.281249999999999
 40
0.281249999999999
 40
0.312499999999999
 40
0.312499999999999
 40
0.3437499999999991
 40
0.3437499999999991
 40
0.3749999999999991
 40
0.3749999999999991
 40
0.4062499999999991
 40
0.4062499999999991
 40
0.4374999999999992
 40
0.4374999999999992
 40
0.4687499999999992
 40
0.4687499999999992
 40
0.4999999999999992
 40
0.4999999999999992
 40
0.5312499999999992
 40
0.5312499999999992
 40
0.5624999999999993
 40
0.5624999999999993
 40
0.5937499999999993
 40
0.5937499999999993
 40
0.6249999999999993
 40
0.6249999999999993
 40
0.6406249999999994
 40
0.6406249999999994
 40
0.6562499999999996
 40
0.6562499999999996
 40
0.6874999999999996
 40
0.6874999999999996
 40
0.7187499999999996
 40
0.7187499999999996
 40
0.7499999999999996
 40
0.7499999999999996
 40
0.7812499999999997
 40
0.7812499999999997
 40
0.8124999999999997
 40
0.8124999999999997
 40
0.8437499999999997
 40
0.8437499999999997
 40
0.8749999999999998
 40
0.8749999999999998
 40
0.9062499999999998
 40
0.9062499999999998
 40
0.9374999999999998
 40
0.9374999999999998
 40
0.9687499999999999
 40
0.9687499999999999
 40
1.0
 40
1.0
 40
1.03125
 40
1.03125
 10
207.7088517858008
 20
109.7965458681654
 30
0.0
 10
207.2739581273749
 20
110.1528071763538
 30
0.0
 10
207.0765174436393
 20
110.349045219871
 30
0.0
 10
206.7228676371656
 20
110.7793262348317
 30
0.0
 10
206.5658117661162
 20
111.0159821410311
 30
0.0
 10
206.3103216206518
 20
111.5095953124533
 30
0.0
 10
206.2098337641349
 20
111.7682030640856
 30
0.0
 10
206.1032789975872
 20
112.1753770154189
 30
0.0
 10
206.0752360858636
 20
112.3148392243759
 30
0.0
 10
206.0360736952198
 20
112.5924237948725
 30
0.0
 10
206.0132206958876
 20
112.8705378430306
 30
0.0
 10
206.0226270303025
 20
113.1497000166332
 30
0.0
 10
206.0484992433382
 20
113.4293969988242
 30
0.0
 10
206.0698886139342
 20
113.5700810111466
 30
0.0
 10
206.157144413064
 20
113.9819467879412
 30
0.0
 10
206.2458944988179
 20
114.2464472213598
 30
0.0
 10
206.4820499765402
 20
114.7562399394686
 30
0.0
 10
206.6279460372732
 20
114.997084599183
 30
0.0
 10
206.9635375084186
 20
115.4413518687246
 30
0.0
 10
207.1564443902131
 20
115.6485013804518
 30
0.0
 10
207.5741102220968
 20
116.0179794792507
 30
0.0
 10
207.7989964239491
 20
116.1814270669884
 30
0.0
 10
208.2796852348622
 20
116.4678627550827
 30
0.0
 10
208.5342911144342
 20
116.5895303031618
 30
0.0
 10
209.0556540738658
 20
116.7850707938926
 30
0.0
 10
209.3245066753502
 20
116.8602407735509
 30
0.0
 10
209.8788926690354
 20
116.9648192190157
 30
0.0
 10
210.157682456581
 20
116.9928567429926
 30
0.0
 10
210.7150561752202
 20
117.0022613288033
 30
0.0
 10
210.994986698615
 20
116.983606310128
 30
0.0
 10
211.552455962116
 20
116.8979349150991
 30
0.0
 10
211.8234447045301
 20
116.8320673635375
 30
0.0
 10
212.3503559154163
 20
116.6552084446576
 30
0.0
 10
212.6077032201866
 20
116.5434553931425
 30
0.0
 10
213.0999217545291
 20
116.2741411459539
 30
0.0
 10
213.3301866737101
 20
116.1194400341794
 30
0.0
 10
213.7588698403029
 20
115.7692217187576
 30
0.0
 10
213.9590989749607
 20
115.5715202175024
 30
0.0
 10
214.314957552134
 20
115.1398146572021
 30
0.0
 10
214.468548595511
 20
114.9092121325822
 30
0.0
 10
214.7252163029352
 20
114.4170671532395
 30
0.0
 10
214.8290860684318
 20
114.1513703659132
 30
0.0
 10
214.9714850661692
 20
113.6105206832936
 30
0.0
 10
215.0114570680543
 20
113.3348303668521
 30
0.0
 10
215.0227078705263
 20
112.9130591982759
 30
0.0
 10
215.0181137813379
 20
112.7705953972567
 30
0.0
 10
214.9926211123293
 20
112.4907981249433
 30
0.0
 10
214.9718103947939
 20
112.3525102603448
 30
0.0
 10
214.8858562196368
 20
111.9423380809372
 30
0.0
 10
214.7957082048842
 20
111.6720267062785
 30
0.0
 10
214.5608824617721
 20
111.1636158793926
 30
0.0
 10
214.4169712695681
 20
110.9246763245208
 30
0.0
 10
214.078635273575
 20
110.4756066453493
 30
0.0
 10
213.8876704411962
 20
110.2704896619042
 30
0.0
 10
213.4710453800042
 20
109.9009805103229
 30
0.0
 10
213.2421636845461
 20
109.7343580832595
 30
0.0
 10
212.7621925008108
 20
109.4481780942076
 30
0.0
 10
212.5110629014566
 20
109.3278314826461
 30
0.0
 10
211.9871312444741
 20
109.1308489581669
 30
0.0
 10
211.7135029040418
 20
109.0546001287932
 30
0.0
 10
211.1645564221104
 20
108.9510179847112
 30
0.0
 10
210.8868037040801
 20
108.9225942159822
 30
0.0
 10
210.3246553211693
 20
108.9129254428669
 30
0.0
 10
210.0416663408527
 20
108.9322270295554
 30
0.0
 10
209.4902715577088
 20
109.0170557307782
 30
0.0
 10
209.2192391295159
 20
109.082448216383
 30
0.0
 10
208.6868449557556
 20
109.2612165599094
 30
0.0
 10
208.4282600983854
 20
109.3741297871165
 30
0.0
 10
207.9405510719682
 20
109.6413283014315
 30
0.0
 10
207.7088517858008
 20
109.7965458681654
 30
0.0
 10
207.2739581273749
 20
110.1528071763538
 30
0.0
  0
SPLINE
  5
ED
330
1F
100
AcDbEntity
  8
0
  6
HIDDEN
 62
     7
370
     0
100
AcDbSpline
210
0.0
220
0.0
230
1.0
 70
     8
 71
     3
 72
    25
 73
    21
 74
     0
 42
0.00000001
 43
0.00000001
 12
1.0
 22
0.0
 32
0.0
 13
1.0
 23
0.0
 33
0.0
 40
0.0
 40
0.0
 40
0.0
 40
0.0
 40
0.0390464795613298
 40
0.1276932264207017
 40
0.2195423755848537
 40
0.2328003724818295
 40
0.3175551984930084
 40
0.3207944016822931
 40
0.3762742869193128
 40
0.4331803851416598
 40
0.4920709882758257
 40
0.5526113321187084
 40
0.6124683552725295
 40
0.674099507061068
 40
0.7331645237839938
 40
0.7941623655236425
 40
0.8494609628106176
 40
0.9067991619284652
 40
0.9556711133312766
 40
0.9999999999999999
 40
0.9999999999999999
 40
0.9999999999999999
 40
0.9999999999999999
 10
206.0749303628383
 20
94.96851491647939
 30
0.0
 10
206.0610973348746
 20
94.96585191669732
 30
0.0
 10
206.0158593520475
 20
94.9571431409523
 30
0.0
 10
206.39995693773
 20
95.02954242559117
 30
0.0
 10
206.8466872117545
 20
95.11817351586345
 30
0.0
 10
207.5339716186267
 20
95.20581595580232
 30
0.0
 10
207.891252197221
 20
95.2523159549113
 30
0.0
 10
208.400022579524
 20
95.31883210620606
 30
0.0
 10
208.9026547524905
 20
95.35866214741728
 30
0.0
 10
209.6344595106822
 20
95.40381341956476
 30
0.0
 10
210.4263214959846
 20
95.42175557235801
 30
0.0
 10
211.2301469592396
 20
95.41035495217007
 30
0.0
 10
212.0272963253051
 20
95.36916778330773
 30
0.0
 10
212.7751874528748
 20
95.30372404551933
 30
0.0
 10
213.4615625604472
 20
95.22140619396689
 30
0.0
 10
214.0375709080894
 20
95.13602089916655
 30
0.0
 10
214.501476070399
 20
95.05690224325176
 30
0.0
 10
214.8119606719454
 20
94.99880524933216
 30
0.0
 10
214.9924076954944
 20
94.96324233316139
 30
0.0
 10
215.0065524915196
 20
94.96038795044831
 30
0.0
 10
215.0132801462588
 20
94.95903032737951
 30
0.0
  0
SPLINE
  5
EE
330
1F
100
AcDbEntity
  8
0
  6
HIDDEN
 62
     7
370
     0
100
AcDbSpline
210
0.0
220
0.0
230
1.0
 70
     8
 71
     3
 72
    11
 73
     7
 74
     0
 42
0.00000001
 43
0.00000001
 12
1.0
 22
0.0
 32
0.0
 13
1.0
 23
0.0
 33
0.0
 40
0.0
 40
0.0
 40
0.0
 40
0.0
 40
0.3662395501175416
 40
0.5707685533731849
 40
0.7827070428678118
 40
1.0
 40
1.0
 40
1.0
 40
1.0
 10
207.4914049436031
 20
130.7087544621823
 30
0.0
 10
207.1873512469577
 20
130.7545305153899
 30
0.0
 10
206.7134966659154
 20
130.8258705212958
 30
0.0
 10
206.3001095308427
 20
130.9029457552959
 30
0.0
 10
206.0512152758913
 20
130.9512869230344
 30
0.0
 10
206.0669598649864
 20
130.9482922918117
 30
0.0
 10
206.0749303628383
 20
130.9467762978671
 30
0.0
  0
SPLINE
  5
EF
330
1F
100
AcDbEntity
  8
0
  6
HIDDEN
 62
     7
370
     0
100
AcDbSpline
210
0.0
220
0.0
230
1.0
 70
     8
 71
     3
 72
    19
 73
    15
 74
     0
 42
0.00000001
 43
0.00000001
 12
1.0
 22
0.0
 32
0.0
 13
1.0
 23
0.0
 33
0.0
 40
0.0
 40
0.0
 40
0.0
 40
0.0
 40
0.0084369616691174
 40
0.1291147538057489
 40
0.249890009382758
 40
0.3809728358953245
 40
0.5267575191666088
 40
0.6047591023163356
 40
0.6848890188447606
 40
0.7652345199941151
 40
0.8479133516617876
 40
0.9165449162290754
 40
0.9229393194404637
 40
0.9999999999999999
 40
0.9999999999999999
 40
0.9999999999999999
 40
0.9999999999999999
 10
215.0132801462588
 20
130.956260886967
 30
0.0
 10
215.0154761557304
 20
130.9566979255142
 30
0.0
 10
215.0490827114299
 20
130.9633861299455
 30
0.0
 10
214.8381148604719
 20
130.9206931054537
 30
0.0
 10
214.2379990139159
 20
130.8097891940026
 30
0.0
 10
213.2544158369348
 20
130.6602447351963
 30
0.0
 10
212.1748834518541
 20
130.5522851770035
 30
0.0
 10
211.1841506549374
 20
130.5037551397676
 30
0.0
 10
210.3876628328473
 20
130.4935520828799
 30
0.0
 10
209.5816980335122
 20
130.5141526868024
 30
0.0
 10
208.8302155047575
 20
130.5586149364291
 30
0.0
 10
208.3681352339555
 20
130.607707703307
 30
0.0
 10
207.9092828050858
 20
130.6504521116349
 30
0.0
 10
207.6920204565463
 20
130.6807645707835
 30
0.0
 10
207.491404943603
 20
130.7087544621823
 30
0.0
  0
SPLINE
  5
F0
330
1F
100
AcDbEntity
  8
0
  6
HIDDEN
 62
     7
370
     0
100
AcDbSpline
210
0.0
220
0.0
230
1.0
 70
     8
 71
     3
 72
    25
 73
    21
 74
     0
 42
0.00000001
 43
0.00000001
 12
1.0
 22
0.0
 32
0.0
 13
1.0
 23
0.0
 33
0.0
 40
0.0
 40
0.0
 40
0.0
 40
0.0
 40
0.0390464764049818
 40
0.1276932160985352
 40
0.2195423578380004
 40
0.2328003536632572
 40
0.3175551728232237
 40
0.3207943757506652
 40
0.3762742565029316
 40
0.4331803501252365
 40
0.4920709484989415
 40
0.5526112874480055
 40
0.6124683057632445
 40
0.674099452569788
 40
0.7331646973276035
 40
0.7941623320237847
 40
0.849460924840661
 40
0.9067991193235374
 40
0.9556711366072483
 40
1.0
 40
1.0
 40
1.0
 40
1.0
 10
226.0749299158034
 20
94.96851491647939
 30
0.0
 10
226.0610968878398
 20
94.96585191669732
 30
0.0
 10
226.0158589050127
 20
94.95714314095231
 30
0.0
 10
226.3999564906949
 20
95.02954242559112
 30
0.0
 10
226.8466867647202
 20
95.11817351586356
 30
0.0
 10
227.5339711715911
 20
95.20581595580217
 30
0.0
 10
227.8912517501975
 20
95.25231595491402
 30
0.0
 10
228.4000221324806
 20
95.318832106204
 30
0.0
 10
228.9026543062869
 20
95.35866214761523
 30
0.0
 10
229.6344590605888
 20
95.40381341883649
 30
0.0
 10
230.426321060888
 20
95.42175557520062
 30
0.0
 10
231.2301464665485
 20
95.41035494129893
 30
0.0
 10
232.0272960484546
 20
95.36916782382997
 30
0.0
 10
232.7751873254357
 20
95.30372380761406
 30
0.0
 10
233.4615653904136
 20
95.22140661739722
 30
0.0
 10
234.0375702130351
 20
95.13602068173758
 30
0.0
 10
234.5014763134358
 20
95.05690228102836
 30
0.0
 10
234.8119584221
 20
94.99880520037235
 30
0.0
 10
234.9924130755562
 20
94.96324235879645
 30
0.0
 10
235.0065539271643
 20
94.9603879578074
 30
0.0
 10
235.013279699224
 20
94.95903032737951
 30
0.0
  0
SPLINE
  5
F1
330
1F
100
AcDbEntity
  8
0
  6
HIDDEN
 62
     7
370
     0
100
AcDbSpline
210
0.0
220
0.0
230
1.0
 70
     8
 71
     3
 72
    11
 73
     7
 74
     0
 42
0.00000001
 43
0.00000001
 12
1.0
 22
0.0
 32
0.0
 13
1.0
 23
0.0
 33
0.0
 40
0.0
 40
0.0
 40
0.0
 40
0.0
 40
0.3662395501175416
 40
0.5707685533731849
 40
0.7827070428678118
 40
1.0
 40
1.0
 40
1.0
 40
1.0
 10
227.4914044965682
 20
130.7087544621823
 30
0.0
 10
227.1873507999229
 20
130.7545305153899
 30
0.0
 10
226.7134962188806
 20
130.8258705212958
 30
0.0
 10
226.3001090838079
 20
130.9029457552959
 30
0.0
 10
226.0512148288565
 20
130.9512869230344
 30
0.0
 10
226.0669594179516
 20
130.9482922918117
 30
0.0
 10
226.0749299158034
 20
130.9467762978671
 30
0.0
  0
SPLINE
  5
F2
330
1F
100
AcDbEntity
  8
0
  6
HIDDEN
 62
     7
370
     0
100
AcDbSpline
210
0.0
220
0.0
230
1.0
 70
     8
 71
     3
 72
    19
 73
    15
 74
     0
 42
0.00000001
 43
0.00000001
 12
1.0
 22
0.0
 32
0.0
 13
1.0
 23
0.0
 33
0.0
 40
0.0
 40
0.0
 40
0.0
 40
0.0
 40
0.0084369346100459
 40
0.1291145777314548
 40
0.2498898251268445
 40
0.3809731841920039
 40
0.5267571869506823
 40
0.6047591290909474
 40
0.6848890401911705
 40
0.7652345358977187
 40
0.8479133619645195
 40
0.9165449218825326
 40
0.9229393246607479
 40
0.9999999999999999
 40
0.9999999999999999
 40
0.9999999999999999
 40
0.9999999999999999
 10
235.013279699224
 20
130.956260886967
 30
0.0
 10
235.015474412141
 20
130.9566979253665
 30
0.0
 10
235.0490611879808
 20
130.9633861398673
 30
0.0
 10
234.8381284100537
 20
130.9206931038255
 30
0.0
 10
234.2379994027796
 20
130.8097887918788
 30
0.0
 10
233.254413921247
 20
130.6602456152929
 30
0.0
 10
232.1748839249347
 20
130.5522846988054
 30
0.0
 10
231.1841512713418
 20
130.5037552617772
 30
0.0
 10
230.3876624274425
 20
130.4935520539604
 30
0.0
 10
229.5816975748354
 20
130.5141526948898
 30
0.0
 10
228.8302150604453
 20
130.5586149345378
 30
0.0
 10
228.3681347868776
 20
130.6077077033369
 30
0.0
 10
227.9092823580891
 20
130.6504521116085
 30
0.0
 10
227.6920200095297
 20
130.6807645707708
 30
0.0
 10
227.4914044965682
 20
130.7087544621823
 30
0.0
  0
SPLINE
  5
F3
330
1F
100
AcDbEntity
  8
0
  6
HIDDEN
 62
     7
370
     0
100
AcDbSpline
210
0.0
220
0.0
230
1.0
 70
     8
 71
     3
 72
    25
 73
    21
 74
     0
 42
0.00000001
 43
0.00000001
 12
1.0
 22
0.0
 32
0.0
 13
1.0
 23
0.0
 33
0.0
 40
0.0
 40
0.0
 40
0.0
 40
0.0
 40
0.0390464710514787
 40
0.127693218264808
 40
0.2195422070136809
 40
0.2328002039635946
 40
0.3175552509913303
 40
0.3207942335166689
 40
0.3762743720073304
 40
0.4331804704568978
 40
0.4920707978669366
 40
0.5526114188219046
 40
0.6124684422147287
 40
0.6740995942493542
 40
0.7331643783990367
 40
0.7941622203822437
 40
0.849460981902149
 40
0.9067991812489422
 40
0.9556711328468944
 40
1.0
 40
1.0
 40
1.0
 40
1.0
 10
216.0749282766757
 20
94.96851491647939
 30
0.0
 10
216.0610966857128
 20
94.96585191816969
 30
0.0
 10
216.0158633953225
 20
94.95714314589804
 30
0.0
 10
216.3999581508513
 20
95.02954233124517
 30
0.0
 10
216.846686201655
 20
95.11817346871031
 30
0.0
 10
217.5339696109105
 20
95.2058162258419
 30
0.0
 10
217.8912643734106
 20
95.252313039998
 30
0.0
 10
218.4000144133035
 20
95.31883406548558
 30
0.0
 10
218.9026592189532
 20
95.35866114310126
 30
0.0
 10
219.6344588747435
 20
95.40381360400202
 30
0.0
 10
220.4263221654536
 20
95.42175552060421
 30
0.0
 10
221.2301473329144
 20
95.41035503526291
 30
0.0
 10
222.0272978879257
 20
95.36916774881963
 30
0.0
 10
222.7751884947878
 20
95.30372424879256
 30
0.0
 10
223.4615611410972
 20
95.22140598983326
 30
0.0
 10
224.0375684041038
 20
95.1360207607142
 30
0.0
 10
224.5014783471441
 20
95.05690238190346
 30
0.0
 10
224.811961748307
 20
94.99880523123204
 30
0.0
 10
224.9924104587853
 20
94.9632423415447
 30
0.0
 10
225.0065519695055
 20
94.96038795293612
 30
0.0
 10
225.0132780600963
 20
94.95903032737951
 30
0.0
  0
SPLINE
  5
F4
330
1F
100
AcDbEntity
  8
0
  6
HIDDEN
 62
     7
370
     0
100
AcDbSpline
210
0.0
220
0.0
230
1.0
 70
     8
 71
     3
 72
    11
 73
     7
 74
     0
 42
0.00000001
 43
0.00000001
 12
1.0
 22
0.0
 32
0.0
 13
1.0
 23
0.0
 33
0.0
 40
0.0
 40
0.0
 40
0.0
 40
0.0
 40
0.3662394694328098
 40
0.5707689405457422
 40
0.7827070568801894
 40
1.0
 40
1.0
 40
1.0
 40
1.0
 10
217.4914065827308
 20
130.7087544621823
 30
0.0
 10
217.187353905953
 20
130.7545305548105
 30
0.0
 10
216.7135004885064
 20
130.825870686261
 30
0.0
 10
216.3001054565508
 20
130.9029456103281
 30
0.0
 10
216.0512192841265
 20
130.9512869668535
 30
0.0
 10
216.0669598226834
 20
130.948292307382
 30
0.0
 10
216.0749282766757
 20
130.9467762978671
 30
0.0
  0
SPLINE
  5
F5
330
1F
100
AcDbEntity
  8
0
  6
HIDDEN
 62
     7
370
     0
100
AcDbSpline
210
0.0
220
0.0
230
1.0
 70
     8
 71
     3
 72
    19
 73
    15
 74
     0
 42
0.00000001
 43
0.00000001
 12
1.0
 22
0.0
 32
0.0
 13
1.0
 23
0.0
 33
0.0
 40
0.0
 40
0.0
 40
0.0
 40
0.0
 40
0.0084369626059318
 40
0.1291146977215847
 40
0.2498899667091091
 40
0.3809730784927454
 40
0.5267574426329711
 40
0.6047593987183821
 40
0.6848893241441883
 40
0.765234463266862
 40
0.8479133041149393
 40
0.9165448763028662
 40
0.9229396171638544
 40
1.0
 40
1.0
 40
1.0
 40
1.0
 10
225.0132780600963
 20
130.956260886967
 30
0.0
 10
225.015474065848
 20
130.9566979255399
 30
0.0
 10
225.049080546292
 20
130.9633861267167
 30
0.0
 10
224.8381178533436
 20
130.9206931104097
 30
0.0
 10
224.2380003186373
 20
130.8097889872944
 30
0.0
 10
223.2544145176401
 20
130.6602451940107
 30
0.0
 10
222.1748832151005
 20
130.5522848209021
 30
0.0
 10
221.1841496921396
 20
130.503755267838
 30
0.0
 10
220.3876619010138
 20
130.4935519865788
 30
0.0
 10
219.5816988400336
 20
130.5141529387962
 30
0.0
 10
218.8302158195968
 20
130.5586143827622
 30
0.0
 10
218.368138389258
 20
130.6077088427381
 30
0.0
 10
217.9092797760657
 20
130.650450746182
 30
0.0
 10
217.692019401709
 20
130.6807639784416
 30
0.0
 10
217.4914065827308
 20
130.7087544621823
 30
0.0
  0
LINE
  5
F6
330
1F
100
AcDbEntity
  8
0
  6
HIDDEN
 62
     7
370
     0
100
AcDbLine
 10
238.5202381839
 20
95.9576446833
 30
0.0
 11
238.5202381839
 21
129.957646531
 31
0.0
  0
LINE
  5
F7
330
1F
100
AcDbEntity
  8
0
  6
HIDDEN
 62
     7
370
     0
100
AcDbLine
 10
168.3202378909
 20
109.7373046717
 30
0.0
 11
168.3202378909
 21
129.7637507589
 31
0.0
  0
LINE
  5
F8
330
1F
100
AcDbEntity
  8
0
  6
HIDDEN
 62
     7
370
     0
100
AcDbLine
 10
166.3202378978
 20
99.87474366
 30
0.0
 11
166.3202378978
 21
96.5575468065
 31
0.0
  0
LINE
  5
F9
330
1F
100
AcDbEntity
  8
0
  6
HIDDEN
 62
     7
370
     0
100
AcDbLine
 10
140.0202378709
 20
100.4469678076
 30
0.0
 11
140.0202378709
 21
97.4248484047
 31
0.0
  0
SPLINE
  5
FA
330
1F
100
AcDbEntity
  8
0
  6
HIDDEN
 62
     7
370
     0
100
AcDbSpline
210
0.0
220
0.0
230
1.0
 70
     8
 71
     3
 72
     8
 73
     4
 74
     0
 42
0.00000001
 43
0.00000001
 12
1.0
 22
0.0
 32
0.0
 13
1.0
 23
0.0
 33
0.0
 40
0.0000202082942178
 40
0.0000202082942178
 40
0.0000202082942178
 40
0.0000202082942178
 40
0.0040218803475994
 40
0.0040218803475994
 40
0.0040218803475994
 40
0.0040218803475994
 10
144.0202378858504
 20
97.33278184873589
 30
0.0
 10
142.6868948848637
 20
97.36353492546584
 30
0.0
 10
141.3535610116411
 20
97.39422393694949
 30
0.0
 10
140.0202378858504
 20
97.42484884876284
 30
0.0
  0
SPLINE
  5
FB
330
1F
100
AcDbEntity
  8
0
  6
HIDDEN
 62
     7
370
     0
100
AcDbSpline
210
0.0
220
0.0
230
1.0
 70
     8
 71
     3
 72
    12
 73
     8
 74
     0
 42
0.00000001
 43
0.00000001
 12
1.0
 22
0.0
 32
0.0
 13
1.0
 23
0.0
 33
0.0
 40
0.0
 40
0.0
 40
0.0
 40
0.0
 40
0.0583245778705122
 40
0.2535553028598371
 40
0.5293292863279843
 40
0.8119597681484104
 40
0.9999999999999999
 40
0.9999999999999999
 40
0.9999999999999999
 40
0.9999999999999999
 10
145.8773218174157
 20
97.07353304046373
 30
0.0
 10
145.8859556179189
 20
97.07263069115695
 30
0.0
 10
145.9234894669643
 20
97.06870789462549
 30
0.0
 10
145.6605086626721
 20
97.09596515166128
 30
0.0
 10
145.1673938426485
 20
97.1549908723941
 30
0.0
 10
144.5707116162569
 20
97.23947501631194
 30
0.0
 10
144.177380423377
 20
97.30614563617405
 30
0.0
 10
144.0202385266004
 20
97.33278158026914
 30
0.0
  0
SPLINE
  5
FC
330
1F
100
AcDbEntity
  8
0
  6
HIDDEN
 62
     7
370
     0
100
AcDbSpline
210
0.0
220
0.0
230
1.0
 70
     8
 71
     3
 72
    14
 73
    10
 74
     0
 42
0.00000001
 43
0.00000001
 12
1.0
 22
0.0
 32
0.0
 13
1.0
 23
0.0
 33
0.0
 40
0.0
 40
0.0
 40
0.0
 40
0.0
 40
0.1264524072945767
 40
0.2788065386459896
 40
0.436224612018134
 40
0.5956113330038311
 40
0.7522966648091997
 40
0.9005846631935399
 40
0.9999999999999999
 40
0.9999999999999999
 40
0.9999999999999999
 40
0.9999999999999999
 10
152.4074427862344
 20
97.02471311110239
 30
0.0
 10
152.6691764318346
 20
97.03705780835875
 30
0.0
 10
153.2462556139416
 20
97.06427581382275
 30
0.0
 10
154.3331952223929
 20
97.07064224363188
 30
0.0
 10
155.5129284414445
 20
97.02690600977645
 30
0.0
 10
156.6111442752907
 20
96.93843388987224
 30
0.0
 10
157.444192932255
 20
96.84163593500071
 30
0.0
 10
157.9190766854829
 20
96.7748609484039
 30
0.0
 10
157.9297992944997
 20
96.77319861988249
 30
0.0
 10
157.934102796453
 20
96.77253144699316
 30
0.0
  0
SPLINE
  5
FD
330
1F
100
AcDbEntity
  8
0
  6
HIDDEN
 62
     7
370
     0
100
AcDbSpline
210
0.0
220
0.0
230
1.0
 70
     8
 71
     3
 72
    11
 73
     7
 74
     0
 42
0.00000001
 43
0.00000001
 12
1.0
 22
0.0
 32
0.0
 13
1.0
 23
0.0
 33
0.0
 40
0.0
 40
0.0
 40
0.0
 40
0.0
 40
0.3442157508901699
 40
0.7074269470749672
 40
0.8527145248448541
 40
1.0
 40
1.0
 40
1.0
 40
1.0
 10
151.2483950783191
 20
96.93728241044263
 30
0.0
 10
151.2762118310246
 20
96.93984173235486
 30
0.0
 10
151.3333803957784
 20
96.9451016116087
 30
0.0
 10
151.696856260361
 20
96.97981468055139
 30
0.0
 10
152.1310395894538
 20
97.00669855249154
 30
0.0
 10
152.3148899003101
 20
97.01868098337194
 30
0.0
 10
152.4074427862344
 20
97.02471311110239
 30
0.0
  0
LINE
  5
FE
330
1F
100
AcDbEntity
  8
0
  6
HIDDEN
 62
     7
370
     0
100
AcDbLine
 10
168.3202378909
 20
99.3718806924
 30
0.0
 11
168.3202378909
 21
96.5295791896
 31
0.0
  0
LINE
  5
FF
330
1F
100
AcDbEntity
  8
0
  6
HIDDEN
 62
     7
370
     0
100
AcDbLine
 10
143.5482777734
 20
102.1689702095
 30
0.0
 11
143.5482777734
 21
123.7463210048
 31
0.0
  0
LINE
  5
100
330
1F
100
AcDbEntity
  8
0
  6
HIDDEN
 62
     7
370
     0
100
AcDbLine
 10
139.5482771177
 20
101.7877724292
 30
0.0
 11
139.5482771177
 21
124.1275187852
 31
0.0
  0
LINE
  5
101
330
1F
100
AcDbEntity
  8
0
  6
HIDDEN
 62
     7
370
     0
100
AcDbLine
 10
138.5202385564
 20
101.1981334807
 30
0.0
 11
138.5202385564
 21
124.7171577336
 31
0.0
  0
LINE
  5
102
330
1F
100
AcDbEntity
  8
0
  6
HIDDEN
 62
     7
370
     0
100
AcDbLine
 10
148.1482774098
 20
102.4576457487
 30
0.0
 11
148.1482774098
 21
123.4576454656
 31
0.0
  0
LINE
  5
103
330
1F
100
AcDbEntity
  8
0
  6
HIDDEN
 62
     7
370
     0
100
AcDbLine
 10
142.0482784589
 20
102.4576457487
 30
0.0
 11
142.0482784589
 21
123.4576454656
 31
0.0
  0
LINE
  5
104
330
1F
100
AcDbEntity
  8
0
  6
HIDDEN
 62
     7
370
     0
100
AcDbLine
 10
143.0482786228
 20
102.4576457487
 30
0.0
 11
143.0482786228
 21
123.4576454656
 31
0.0
  0
SPLINE
  5
105
330
1F
100
AcDbEntity
  8
0
  6
HIDDEN
 62
     7
370
     0
100
AcDbSpline
210
0.0
220
0.0
230
1.0
 70
     8
 71
     3
 72
    66
 73
    62
 74
     0
 42
0.00000001
 43
0.00000001
 12
1.0
 22
0.0
 32
0.0
 13
1.0
 23
0.0
 33
0.0
 40
-0.03125
 40
-0.03125
 40
0.0
 40
0.0
 40
0.0312499999999998
 40
0.0312499999999998
 40
0.0624999999999997
 40
0.0624999999999997
 40
0.0937499999999995
 40
0.0937499999999995
 40
0.1249999999999994
 40
0.1249999999999994
 40
0.1874999999999992
 40
0.1874999999999992
 40
0.2187499999999991
 40
0.2187499999999991
 40
0.249999999999999
 40
0.249999999999999
 40
0.2812499999999989
 40
0.2812499999999989
 40
0.3124999999999988
 40
0.3124999999999988
 40
0.3437499999999988
 40
0.3437499999999988
 40
0.3749999999999987
 40
0.3749999999999987
 40
0.4062499999999987
 40
0.4062499999999987
 40
0.4374999999999986
 40
0.4374999999999986
 40
0.4687499999999986
 40
0.4687499999999986
 40
0.4999999999999986
 40
0.4999999999999986
 40
0.5312499999999986
 40
0.5312499999999986
 40
0.5624999999999984
 40
0.5624999999999984
 40
0.5937499999999984
 40
0.5937499999999984
 40
0.6249999999999986
 40
0.6249999999999986
 40
0.6562499999999988
 40
0.6562499999999988
 40
0.687499999999999
 40
0.687499999999999
 40
0.7187499999999991
 40
0.7187499999999991
 40
0.7499999999999993
 40
0.7499999999999993
 40
0.7812499999999996
 40
0.7812499999999996
 40
0.8124999999999997
 40
0.8124999999999997
 40
0.8749999999999999
 40
0.8749999999999999
 40
0.9062500000000001
 40
0.9062500000000001
 40
0.9375000000000001
 40
0.9375000000000001
 40
0.96875
 40
0.96875
 40
1.0
 40
1.0
 40
1.03125
 40
1.03125
 10
154.3175592389026
 20
102.910382298192
 30
0.0
 10
154.7229165327983
 20
102.910382298192
 30
0.0
 10
154.9219764241341
 20
102.9042502235624
 30
0.0
 10
155.3132304087138
 20
102.881029010945
 30
0.0
 10
155.5075031674615
 20
102.8636547102074
 30
0.0
 10
155.8762665940128
 20
102.8209413425163
 30
0.0
 10
156.050991752391
 20
102.7957497224605
 30
0.0
 10
156.3816690559248
 20
102.7407064093148
 30
0.0
 10
156.5373165999277
 20
102.7108208544159
 30
0.0
 10
156.9567839695963
 20
102.622777406854
 30
0.0
 10
157.1836721111266
 20
102.5643876668647
 30
0.0
 10
157.4124687345114
 20
102.5026417110812
 30
0.0
 10
157.4716609893602
 20
102.4859231095665
 30
0.0
 10
157.5504683996207
 20
102.4634390770188
 30
0.0
 10
157.5701078159012
 20
102.4576833893894
 30
0.0
 10
157.5703666803227
 20
102.4576081954528
 30
0.0
 10
157.5502959956898
 20
102.4634880499185
 30
0.0
 10
157.4719583130598
 20
102.4858384962736
 30
0.0
 10
157.4140085450214
 20
102.50222042501
 30
0.0
 10
157.2600654031414
 20
102.5437768766562
 30
0.0
 10
157.1651267894187
 20
102.5686358209676
 30
0.0
 10
156.9447693735415
 20
102.6225384495061
 30
0.0
 10
156.8174893476133
 20
102.6520213339218
 30
0.0
 10
156.5357337562827
 20
102.7111461567957
 30
0.0
 10
156.3829454268252
 20
102.7404638921812
 30
0.0
 10
156.0535183446683
 20
102.7953588674991
 30
0.0
 10
155.8749723415166
 20
102.8211037547999
 30
0.0
 10
155.5074000159664
 20
102.8636541097188
 30
0.0
 10
155.3172459892554
 20
102.8807343196182
 30
0.0
 10
154.923705566553
 20
102.9042031445273
 30
0.0
 10
154.7212714952918
 20
102.9103559917471
 30
0.0
 10
154.3218424199264
 20
102.9104084314605
 30
0.0
 10
154.1218234413705
 20
102.9044299587071
 30
0.0
 10
153.7257074939211
 20
102.880955210585
 30
0.0
 10
153.5349746657293
 20
102.8638402421261
 30
0.0
 10
153.1673432251496
 20
102.8213500758914
 30
0.0
 10
152.9888567929818
 20
102.7956514725193
 30
0.0
 10
152.6586515340178
 20
102.7406744079148
 30
0.0
 10
152.5057629559558
 20
102.7113459234796
 30
0.0
 10
152.2241665614177
 20
102.652283338346
 30
0.0
 10
152.0965356385422
 20
102.6227328128369
 30
0.0
 10
151.8762102035424
 20
102.5688549043176
 30
0.0
 10
151.781983746577
 20
102.5441941352615
 30
0.0
 10
151.627049225974
 20
102.5023849003209
 30
0.0
 10
151.5690369403717
 20
102.485985054292
 30
0.0
 10
151.4906176860936
 20
102.4636146243265
 30
0.0
 10
151.470303606127
 20
102.4576646973479
 30
0.0
 10
151.4701724898231
 20
102.4576266111853
 30
0.0
 10
151.4897971831824
 20
102.463377279657
 30
0.0
 10
151.5679636335961
 20
102.4856820788731
 30
0.0
 10
151.627251078936
 20
102.5024331928496
 30
0.0
 10
151.8563319220189
 20
102.564269310766
 30
0.0
 10
152.0831627729131
 20
102.6226503610638
 30
0.0
 10
152.5025014742338
 20
102.7106907846655
 30
0.0
 10
152.6578544699837
 20
102.7405351283563
 30
0.0
 10
152.9888223031209
 20
102.7956522871753
 30
0.0
 10
153.1633836033172
 20
102.8208201542309
 30
0.0
 10
153.5309569108921
 20
102.8634466014668
 30
0.0
 10
153.7256437725301
 20
102.8809146610615
 30
0.0
 10
154.1181197224666
 20
102.9042468896884
 30
0.0
 10
154.3175592389026
 20
102.910382298192
 30
0.0
 10
154.7229165327983
 20
102.910382298192
 30
0.0
  0
SPLINE
  5
106
330
1F
100
AcDbEntity
  8
0
  6
HIDDEN
 62
     7
370
     0
100
AcDbSpline
210
0.0
220
0.0
230
1.0
 70
     8
 71
     3
 72
    66
 73
    62
 74
     0
 42
0.00000001
 43
0.00000001
 12
1.0
 22
0.0
 32
0.0
 13
1.0
 23
0.0
 33
0.0
 40
-0.0312499999999999
 40
-0.0312499999999999
 40
0.0
 40
0.0
 40
0.03125
 40
0.03125
 40
0.0625000000000001
 40
0.0625000000000001
 40
0.0937500000000001
 40
0.0937500000000001
 40
0.1250000000000001
 40
0.1250000000000001
 40
0.1874999999999999
 40
0.1874999999999999
 40
0.2187499999999998
 40
0.2187499999999998
 40
0.2499999999999996
 40
0.2499999999999996
 40
0.2812499999999995
 40
0.2812499999999995
 40
0.3124999999999993
 40
0.3124999999999993
 40
0.3437499999999992
 40
0.3437499999999992
 40
0.3749999999999991
 40
0.3749999999999991
 40
0.4062499999999989
 40
0.4062499999999989
 40
0.4374999999999991
 40
0.4374999999999991
 40
0.4687499999999991
 40
0.4687499999999991
 40
0.4999999999999992
 40
0.4999999999999992
 40
0.5312499999999992
 40
0.5312499999999992
 40
0.5624999999999993
 40
0.5624999999999993
 40
0.5937499999999993
 40
0.5937499999999993
 40
0.6249999999999993
 40
0.6249999999999993
 40
0.6562499999999994
 40
0.6562499999999994
 40
0.6874999999999994
 40
0.6874999999999994
 40
0.7187499999999994
 40
0.7187499999999994
 40
0.7499999999999994
 40
0.7499999999999994
 40
0.7812499999999997
 40
0.7812499999999997
 40
0.8124999999999998
 40
0.8124999999999998
 40
0.875
 40
0.875
 40
0.90625
 40
0.90625
 40
0.9375
 40
0.9375
 40
0.9687500000000001
 40
0.9687500000000001
 40
1.0
 40
1.0
 40
1.03125
 40
1.03125
 10
154.7229165327983
 20
123.0049089161544
 30
0.0
 10
154.3175592389027
 20
123.0049089161544
 30
0.0
 10
154.1184993475668
 20
123.0110409907841
 30
0.0
 10
153.7272453629871
 20
123.0342622034016
 30
0.0
 10
153.5329726042394
 20
123.0516365041391
 30
0.0
 10
153.1642091776882
 20
123.0943498718302
 30
0.0
 10
152.9894840193098
 20
123.119541491886
 30
0.0
 10
152.6588067157761
 20
123.1745848050317
 30
0.0
 10
152.5031591717732
 20
123.2044703599306
 30
0.0
 10
152.0836918021046
 20
123.2925138074925
 30
0.0
 10
151.8568036605743
 20
123.3509035474818
 30
0.0
 10
151.6280070371895
 20
123.4126495032653
 30
0.0
 10
151.5688147823407
 20
123.42936810478
 30
0.0
 10
151.4900073720801
 20
123.4518521373277
 30
0.0
 10
151.4703679557997
 20
123.4576078249571
 30
0.0
 10
151.4701090913781
 20
123.4576830188937
 30
0.0
 10
151.4901797760111
 20
123.451803164428
 30
0.0
 10
151.568517458641
 20
123.4294527180729
 30
0.0
 10
151.6264672266795
 20
123.4130707893365
 30
0.0
 10
151.7804103685595
 20
123.3715143376903
 30
0.0
 10
151.8753489822822
 20
123.3466553933789
 30
0.0
 10
152.0957063981593
 20
123.2927527648404
 30
0.0
 10
152.2229864240876
 20
123.2632698804247
 30
0.0
 10
152.5047420154182
 20
123.2041450575508
 30
0.0
 10
152.6575303448757
 20
123.1748273221653
 30
0.0
 10
152.9869574270326
 20
123.1199323468474
 30
0.0
 10
153.1655034301843
 20
123.0941874595466
 30
0.0
 10
153.5330757557345
 20
123.0516371046277
 30
0.0
 10
153.7232297824455
 20
123.0345568947283
 30
0.0
 10
154.1167702051479
 20
123.0110880698192
 30
0.0
 10
154.3192042764091
 20
123.0049352225994
 30
0.0
 10
154.7186333517745
 20
123.004882782886
 30
0.0
 10
154.9186523303304
 20
123.0108612556394
 30
0.0
 10
155.3147682777798
 20
123.0343360037615
 30
0.0
 10
155.5055011059716
 20
123.0514509722204
 30
0.0
 10
155.8731325465513
 20
123.0939411384551
 30
0.0
 10
156.0516189787191
 20
123.1196397418272
 30
0.0
 10
156.3818242376832
 20
123.1746168064317
 30
0.0
 10
156.5347128157451
 20
123.2039452908669
 30
0.0
 10
156.8163092102832
 20
123.2630078760005
 30
0.0
 10
156.9439401331587
 20
123.2925584015096
 30
0.0
 10
157.1642655681585
 20
123.3464363100289
 30
0.0
 10
157.2584920251238
 20
123.371097079085
 30
0.0
 10
157.4134265457269
 20
123.4129063140256
 30
0.0
 10
157.4714388313292
 20
123.4293061600545
 30
0.0
 10
157.5498580856073
 20
123.45167659002
 30
0.0
 10
157.5701721655738
 20
123.4576265169986
 30
0.0
 10
157.5703032818778
 20
123.4576646031612
 30
0.0
 10
157.5506785885185
 20
123.4519139346895
 30
0.0
 10
157.4725121381048
 20
123.4296091354734
 30
0.0
 10
157.4132246927649
 20
123.4128580214969
 30
0.0
 10
157.184143849682
 20
123.3510219035805
 30
0.0
 10
156.9573129987878
 20
123.2926408532827
 30
0.0
 10
156.5379742974671
 20
123.204600429681
 30
0.0
 10
156.3826213017172
 20
123.1747560859902
 30
0.0
 10
156.05165346858
 20
123.1196389271712
 30
0.0
 10
155.8770921683837
 20
123.0944710601156
 30
0.0
 10
155.5095188608088
 20
123.0518446128797
 30
0.0
 10
155.3148319991708
 20
123.034376553285
 30
0.0
 10
154.9223560492343
 20
123.0110443246581
 30
0.0
 10
154.7229165327983
 20
123.0049089161544
 30
0.0
 10
154.3175592389027
 20
123.0049089161544
 30
0.0
  0
LINE
  5
107
330
1F
100
AcDbEntity
  8
0
  6
HIDDEN
 62
     7
370
     0
100
AcDbLine
 10
158.5202381094
 20
102.9576458307
 30
0.0
 11
158.5202381094
 21
122.9576453837
 31
0.0
  0
LINE
  5
108
330
1F
100
AcDbEntity
  8
0
  6
HIDDEN
 62
     7
370
     0
100
AcDbLine
 10
159.5202382733
 20
105.7076458158
 30
0.0
 11
159.5202382733
 21
120.2076453986
 31
0.0
  0
LINE
  5
109
330
1F
100
AcDbEntity
  8
0
  6
HIDDEN
 62
     7
370
     0
100
AcDbLine
 10
158.5202381094
 20
104.711558138
 30
0.0
 11
158.5202381094
 21
121.2037330763
 31
0.0
  0
LINE
  5
10A
330
1F
100
AcDbEntity
  8
0
  6
HIDDEN
 62
     7
370
     0
100
AcDbLine
 10
204.5202363361
 20
105.7076458158
 30
0.0
 11
204.5202363361
 21
120.2076453986
 31
0.0
  0
LINE
  5
10B
330
1F
100
AcDbEntity
  8
0
  6
HIDDEN
 62
     7
370
     0
100
AcDbLine
 10
205.2713144649
 20
106.957645555
 30
0.0
 11
205.2713144649
 21
118.9576456593
 31
0.0
  0
LINE
  5
10C
330
1F
100
AcDbEntity
  8
0
  6
HIDDEN
 62
     7
370
     0
100
AcDbLine
 10
238.5202381839
 20
119.2576456154
 30
0.0
 11
238.5202381839
 21
106.6729919324
 31
0.0
  0
SPLINE
  5
10D
330
1F
100
AcDbEntity
  8
0
  6
HIDDEN
 62
     7
370
     0
100
AcDbSpline
210
0.0
220
0.0
230
1.0
 70
     8
 71
     3
 72
    66
 73
    62
 74
     0
 42
0.00000001
 43
0.00000001
 12
1.0
 22
0.0
 32
0.0
 13
1.0
 23
0.0
 33
0.0
 40
-0.0312499999999982
 40
-0.0312499999999982
 40
0.0
 40
0.0
 40
0.0312500000000008
 40
0.0312500000000008
 40
0.0625000000000016
 40
0.0625000000000016
 40
0.1250000000000024
 40
0.1250000000000024
 40
0.1562500000000024
 40
0.1562500000000024
 40
0.1875000000000025
 40
0.1875000000000025
 40
0.2187500000000026
 40
0.2187500000000026
 40
0.2500000000000027
 40
0.2500000000000027
 40
0.2812500000000027
 40
0.2812500000000027
 40
0.3125000000000028
 40
0.3125000000000028
 40
0.3437500000000029
 40
0.3437500000000029
 40
0.375000000000003
 40
0.375000000000003
 40
0.4062500000000032
 40
0.4062500000000032
 40
0.4375000000000033
 40
0.4375000000000033
 40
0.4687500000000034
 40
0.4687500000000034
 40
0.5000000000000036
 40
0.5000000000000036
 40
0.5312500000000037
 40
0.5312500000000037
 40
0.5625000000000038
 40
0.5625000000000038
 40
0.593750000000004
 40
0.593750000000004
 40
0.6250000000000041
 40
0.6250000000000041
 40
0.6562500000000042
 40
0.6562500000000042
 40
0.6875000000000043
 40
0.6875000000000043
 40
0.7187500000000044
 40
0.7187500000000044
 40
0.7500000000000046
 40
0.7500000000000046
 40
0.7812500000000048
 40
0.7812500000000048
 40
0.8125000000000049
 40
0.8125000000000049
 40
0.8750000000000043
 40
0.8750000000000043
 40
0.9062500000000034
 40
0.9062500000000034
 40
0.9375000000000027
 40
0.9375000000000027
 40
0.9687500000000018
 40
0.9687500000000018
 40
1.0
 40
1.0
 40
1.031250000000001
 40
1.031250000000001
 10
230.7574504034651
 20
116.4576456071732
 30
0.0
 10
230.2830253682358
 20
116.4576456071732
 30
0.0
 10
230.0512733072326
 20
116.433798707342
 30
0.0
 10
229.5976165899148
 20
116.3417759380111
 30
0.0
 10
229.3738803905409
 20
116.2724048797194
 30
0.0
 10
228.7446419232457
 20
116.0079434853341
 30
0.0
 10
228.3668384889473
 20
115.7525216461429
 30
0.0
 10
227.8932325448873
 20
115.2811038481361
 30
0.0
 10
227.7482312254343
 20
115.1063147202883
 30
0.0
 10
227.4955355584199
 20
114.7330260490736
 30
0.0
 10
227.3875877606426
 20
114.5351620162006
 30
0.0
 10
227.2093011497474
 20
114.1151224999185
 30
0.0
 10
227.1387095068253
 20
113.8899255332214
 30
0.0
 10
227.0452091808113
 20
113.4351972146661
 30
0.0
 10
227.0210038802388
 20
113.2040022496794
 30
0.0
 10
227.019507310804
 20
112.7335570928061
 30
0.0
 10
227.042888652586
 20
112.497161504839
 30
0.0
 10
227.1342936495621
 20
112.0414660792788
 30
0.0
 10
227.2034057834825
 20
111.8168074306382
 30
0.0
 10
227.3811979505206
 20
111.3926167816422
 30
0.0
 10
227.4891563900912
 20
111.1930067680264
 30
0.0
 10
227.7421575374194
 20
110.8166937524551
 30
0.0
 10
227.8859911715272
 20
110.6423860692517
 30
0.0
 10
228.2009733763242
 20
110.3269242964465
 30
0.0
 10
228.3745125360314
 20
110.1833870747121
 30
0.0
 10
228.7474837862284
 20
109.9314284001535
 30
0.0
 10
228.9443542759855
 20
109.8243032320306
 30
0.0
 10
229.3611073656233
 20
109.6474099616665
 30
0.0
 10
229.5842580028356
 20
109.5770961041069
 30
0.0
 10
230.0401364303218
 20
109.4829260679169
 30
0.0
 10
230.2723559876284
 20
109.4584080211592
 30
0.0
 10
230.7461009133758
 20
109.4569178240349
 30
0.0
 10
230.9801673568054
 20
109.4802260990632
 30
0.0
 10
231.4357868027996
 20
109.5715340120969
 30
0.0
 10
231.6599853920365
 20
109.6405715390072
 30
0.0
 10
232.0807755241608
 20
109.8165109346426
 30
0.0
 10
232.2809126540472
 20
109.9243327010651
 30
0.0
 10
232.6559990377318
 20
110.1756522340967
 30
0.0
 10
232.8283484815373
 20
110.3170865260449
 30
0.0
 10
233.1453933266811
 20
110.6320304854627
 30
0.0
 10
233.2910044098751
 20
110.807409644127
 30
0.0
 10
233.5436013090219
 20
111.1800248830418
 30
0.0
 10
233.6519523852186
 20
111.3781021002138
 30
0.0
 10
233.8312860887698
 20
111.8002549238363
 30
0.0
 10
233.9017873423524
 20
112.025497760772
 30
0.0
 10
233.9952093091084
 20
112.4797858559291
 30
0.0
 10
234.0196100723399
 20
112.711632567155
 30
0.0
 10
234.0208420387446
 20
113.1854584254582
 30
0.0
 10
233.9973854354459
 20
113.4199195728244
 30
0.0
 10
233.9054659559901
 20
113.8766032852607
 30
0.0
 10
233.8357738638448
 20
114.1022245418605
 30
0.0
 10
233.568505473678
 20
114.7379331540091
 30
0.0
 10
233.3091077137848
 20
115.1190992840037
 30
0.0
 10
232.8347159697996
 20
115.5926238665676
 30
0.0
 10
232.6595453886488
 20
115.7368182954908
 30
0.0
 10
232.2868039675548
 20
115.9874445612279
 30
0.0
 10
232.0895258910971
 20
116.0943757428182
 30
0.0
 10
231.6703259601767
 20
116.2711087816429
 30
0.0
 10
231.4457831781456
 20
116.3410287017411
 30
0.0
 10
230.9907189296556
 20
116.4336437142092
 30
0.0
 10
230.7574504034651
 20
116.4576456071732
 30
0.0
 10
230.2830253682358
 20
116.4576456071732
 30
0.0
  0
SPLINE
  5
10E
330
1F
100
AcDbEntity
  8
0
  6
HIDDEN
 62
     7
370
     0
100
AcDbSpline
210
0.0
220
0.0
230
1.0
 70
     8
 71
     3
 72
    66
 73
    62
 74
     0
 42
0.00000001
 43
0.00000001
 12
1.0
 22
0.0
 32
0.0
 13
1.0
 23
0.0
 33
0.0
 40
-0.0312500000000002
 40
-0.0312500000000002
 40
0.0
 40
0.0
 40
0.0312499999999996
 40
0.0312499999999996
 40
0.0624999999999992
 40
0.0624999999999992
 40
0.1249999999999991
 40
0.1249999999999991
 40
0.1562499999999992
 40
0.1562499999999992
 40
0.1874999999999992
 40
0.1874999999999992
 40
0.2187499999999992
 40
0.2187499999999992
 40
0.2499999999999992
 40
0.2499999999999992
 40
0.2812499999999992
 40
0.2812499999999992
 40
0.3124999999999993
 40
0.3124999999999993
 40
0.3437499999999993
 40
0.3437499999999993
 40
0.3749999999999993
 40
0.3749999999999993
 40
0.4062499999999993
 40
0.4062499999999993
 40
0.4374999999999993
 40
0.4374999999999993
 40
0.4687499999999994
 40
0.4687499999999994
 40
0.4999999999999994
 40
0.4999999999999994
 40
0.5312499999999994
 40
0.5312499999999994
 40
0.5624999999999994
 40
0.5624999999999994
 40
0.5937499999999996
 40
0.5937499999999996
 40
0.6249999999999996
 40
0.6249999999999996
 40
0.6562499999999996
 40
0.6562499999999996
 40
0.6874999999999996
 40
0.6874999999999996
 40
0.7187499999999996
 40
0.7187499999999996
 40
0.7499999999999996
 40
0.7499999999999996
 40
0.7812499999999997
 40
0.7812499999999997
 40
0.8124999999999997
 40
0.8124999999999997
 40
0.8749999999999993
 40
0.8749999999999993
 40
0.9062499999999994
 40
0.9062499999999994
 40
0.9374999999999997
 40
0.9374999999999997
 40
0.9687499999999998
 40
0.9687499999999998
 40
1.0
 40
1.0
 40
1.03125
 40
1.03125
 10
220.7574504034651
 20
116.4576456071732
 30
0.0
 10
220.2830253682359
 20
116.4576456071732
 30
0.0
 10
220.0512733072326
 20
116.4337987073419
 30
0.0
 10
219.5976165899148
 20
116.3417759380111
 30
0.0
 10
219.3738803905409
 20
116.2724048797193
 30
0.0
 10
218.7446419232457
 20
116.0079434853341
 30
0.0
 10
218.3668384889473
 20
115.7525216461429
 30
0.0
 10
217.8932325448873
 20
115.2811038481361
 30
0.0
 10
217.7482312254343
 20
115.1063147202883
 30
0.0
 10
217.4955355584199
 20
114.7330260490736
 30
0.0
 10
217.3875877606426
 20
114.5351620162006
 30
0.0
 10
217.2093011497474
 20
114.1151224999185
 30
0.0
 10
217.1387095068252
 20
113.8899255332214
 30
0.0
 10
217.0452091808113
 20
113.4351972146661
 30
0.0
 10
217.0210038802387
 20
113.2040022496794
 30
0.0
 10
217.019507310804
 20
112.7335570928061
 30
0.0
 10
217.0428886525861
 20
112.497161504839
 30
0.0
 10
217.1342936495621
 20
112.0414660792788
 30
0.0
 10
217.2034057834824
 20
111.8168074306382
 30
0.0
 10
217.3811979505205
 20
111.3926167816422
 30
0.0
 10
217.4891563900912
 20
111.1930067680264
 30
0.0
 10
217.7421575374194
 20
110.8166937524551
 30
0.0
 10
217.8859911715271
 20
110.6423860692517
 30
0.0
 10
218.2009733763242
 20
110.3269242964465
 30
0.0
 10
218.3745125360315
 20
110.1833870747121
 30
0.0
 10
218.7474837862284
 20
109.9314284001535
 30
0.0
 10
218.9443542759855
 20
109.8243032320306
 30
0.0
 10
219.3611073656233
 20
109.6474099616665
 30
0.0
 10
219.5842580028356
 20
109.5770961041069
 30
0.0
 10
220.0401364303218
 20
109.4829260679169
 30
0.0
 10
220.2723559876284
 20
109.4584080211592
 30
0.0
 10
220.7461009133758
 20
109.4569178240349
 30
0.0
 10
220.9801673568054
 20
109.4802260990632
 30
0.0
 10
221.4357868027996
 20
109.5715340120969
 30
0.0
 10
221.6599853920365
 20
109.6405715390072
 30
0.0
 10
222.0807755241607
 20
109.8165109346426
 30
0.0
 10
222.2809126540472
 20
109.9243327010651
 30
0.0
 10
222.6559990377318
 20
110.1756522340967
 30
0.0
 10
222.8283484815373
 20
110.3170865260449
 30
0.0
 10
223.1453933266811
 20
110.6320304854627
 30
0.0
 10
223.291004409875
 20
110.807409644127
 30
0.0
 10
223.5436013090219
 20
111.1800248830418
 30
0.0
 10
223.6519523852186
 20
111.3781021002138
 30
0.0
 10
223.8312860887698
 20
111.8002549238363
 30
0.0
 10
223.9017873423523
 20
112.025497760772
 30
0.0
 10
223.9952093091084
 20
112.4797858559291
 30
0.0
 10
224.0196100723398
 20
112.711632567155
 30
0.0
 10
224.0208420387445
 20
113.1854584254582
 30
0.0
 10
223.997385435446
 20
113.4199195728244
 30
0.0
 10
223.9054659559901
 20
113.8766032852607
 30
0.0
 10
223.8357738638448
 20
114.1022245418605
 30
0.0
 10
223.568505473678
 20
114.7379331540091
 30
0.0
 10
223.3091077137847
 20
115.1190992840037
 30
0.0
 10
222.8347159697995
 20
115.5926238665676
 30
0.0
 10
222.6595453886488
 20
115.7368182954908
 30
0.0
 10
222.2868039675548
 20
115.9874445612279
 30
0.0
 10
222.0895258910972
 20
116.0943757428182
 30
0.0
 10
221.6703259601767
 20
116.2711087816429
 30
0.0
 10
221.4457831781456
 20
116.3410287017411
 30
0.0
 10
220.9907189296555
 20
116.4336437142092
 30
0.0
 10
220.7574504034651
 20
116.4576456071732
 30
0.0
 10
220.2830253682359
 20
116.4576456071732
 30
0.0
  0
SPLINE
  5
10F
330
1F
100
AcDbEntity
  8
0
  6
HIDDEN
 62
     7
370
     0
100
AcDbSpline
210
0.0
220
0.0
230
1.0
 70
     8
 71
     3
 72
    66
 73
    62
 74
     0
 42
0.00000001
 43
0.00000001
 12
1.0
 22
0.0
 32
0.0
 13
1.0
 23
0.0
 33
0.0
 40
-0.0312500000000002
 40
-0.0312500000000002
 40
0.0
 40
0.0
 40
0.0312499999999996
 40
0.0312499999999996
 40
0.0624999999999991
 40
0.0624999999999991
 40
0.1249999999999991
 40
0.1249999999999991
 40
0.1562499999999991
 40
0.1562499999999991
 40
0.1874999999999991
 40
0.1874999999999991
 40
0.2187499999999991
 40
0.2187499999999991
 40
0.2499999999999991
 40
0.2499999999999991
 40
0.2812499999999991
 40
0.2812499999999991
 40
0.3124999999999991
 40
0.3124999999999991
 40
0.3437499999999991
 40
0.3437499999999991
 40
0.3749999999999991
 40
0.3749999999999991
 40
0.4062499999999992
 40
0.4062499999999992
 40
0.4374999999999992
 40
0.4374999999999992
 40
0.4687499999999992
 40
0.4687499999999992
 40
0.4999999999999992
 40
0.4999999999999992
 40
0.5312499999999992
 40
0.5312499999999992
 40
0.5624999999999992
 40
0.5624999999999992
 40
0.5937499999999992
 40
0.5937499999999992
 40
0.6249999999999992
 40
0.6249999999999992
 40
0.6562499999999992
 40
0.6562499999999992
 40
0.6874999999999992
 40
0.6874999999999992
 40
0.7187499999999992
 40
0.7187499999999992
 40
0.7499999999999992
 40
0.7499999999999992
 40
0.7812499999999993
 40
0.7812499999999993
 40
0.8124999999999993
 40
0.8124999999999993
 40
0.8749999999999991
 40
0.8749999999999991
 40
0.9062499999999993
 40
0.9062499999999993
 40
0.9374999999999996
 40
0.9374999999999996
 40
0.9687499999999998
 40
0.9687499999999998
 40
1.0
 40
1.0
 40
1.03125
 40
1.03125
 10
210.7574504034651
 20
116.4576456071732
 30
0.0
 10
210.2830253682359
 20
116.4576456071732
 30
0.0
 10
210.0512733072326
 20
116.4337987073419
 30
0.0
 10
209.5976165899148
 20
116.3417759380111
 30
0.0
 10
209.3738803905409
 20
116.2724048797193
 30
0.0
 10
208.7446419232457
 20
116.0079434853341
 30
0.0
 10
208.3668384889473
 20
115.7525216461429
 30
0.0
 10
207.8932325448873
 20
115.2811038481361
 30
0.0
 10
207.7482312254343
 20
115.1063147202883
 30
0.0
 10
207.4955355584199
 20
114.7330260490736
 30
0.0
 10
207.3875877606426
 20
114.5351620162006
 30
0.0
 10
207.2093011497474
 20
114.1151224999185
 30
0.0
 10
207.1387095068253
 20
113.8899255332214
 30
0.0
 10
207.0452091808113
 20
113.4351972146661
 30
0.0
 10
207.0210038802387
 20
113.2040022496794
 30
0.0
 10
207.019507310804
 20
112.7335570928061
 30
0.0
 10
207.042888652586
 20
112.497161504839
 30
0.0
 10
207.1342936495621
 20
112.0414660792788
 30
0.0
 10
207.2034057834825
 20
111.8168074306382
 30
0.0
 10
207.3811979505206
 20
111.3926167816422
 30
0.0
 10
207.4891563900912
 20
111.1930067680264
 30
0.0
 10
207.7421575374194
 20
110.8166937524551
 30
0.0
 10
207.8859911715271
 20
110.6423860692517
 30
0.0
 10
208.2009733763242
 20
110.3269242964465
 30
0.0
 10
208.3745125360315
 20
110.1833870747121
 30
0.0
 10
208.7474837862284
 20
109.9314284001535
 30
0.0
 10
208.9443542759855
 20
109.8243032320306
 30
0.0
 10
209.3611073656233
 20
109.6474099616665
 30
0.0
 10
209.5842580028356
 20
109.5770961041069
 30
0.0
 10
210.0401364303218
 20
109.4829260679169
 30
0.0
 10
210.2723559876284
 20
109.4584080211592
 30
0.0
 10
210.7461009133758
 20
109.4569178240349
 30
0.0
 10
210.9801673568055
 20
109.4802260990632
 30
0.0
 10
211.4357868027996
 20
109.5715340120969
 30
0.0
 10
211.6599853920366
 20
109.6405715390072
 30
0.0
 10
212.0807755241608
 20
109.8165109346426
 30
0.0
 10
212.2809126540472
 20
109.9243327010651
 30
0.0
 10
212.6559990377318
 20
110.1756522340967
 30
0.0
 10
212.8283484815373
 20
110.3170865260449
 30
0.0
 10
213.1453933266811
 20
110.6320304854627
 30
0.0
 10
213.291004409875
 20
110.807409644127
 30
0.0
 10
213.5436013090219
 20
111.1800248830418
 30
0.0
 10
213.6519523852186
 20
111.3781021002138
 30
0.0
 10
213.8312860887698
 20
111.8002549238363
 30
0.0
 10
213.9017873423523
 20
112.025497760772
 30
0.0
 10
213.9952093091084
 20
112.4797858559291
 30
0.0
 10
214.0196100723398
 20
112.711632567155
 30
0.0
 10
214.0208420387446
 20
113.1854584254582
 30
0.0
 10
213.997385435446
 20
113.4199195728244
 30
0.0
 10
213.9054659559901
 20
113.8766032852607
 30
0.0
 10
213.8357738638448
 20
114.1022245418605
 30
0.0
 10
213.568505473678
 20
114.7379331540091
 30
0.0
 10
213.3091077137847
 20
115.1190992840037
 30
0.0
 10
212.8347159697995
 20
115.5926238665676
 30
0.0
 10
212.6595453886488
 20
115.7368182954908
 30
0.0
 10
212.2868039675548
 20
115.9874445612279
 30
0.0
 10
212.0895258910971
 20
116.0943757428182
 30
0.0
 10
211.6703259601767
 20
116.2711087816429
 30
0.0
 10
211.4457831781456
 20
116.3410287017411
 30
0.0
 10
210.9907189296556
 20
116.4336437142092
 30
0.0
 10
210.7574504034651
 20
116.4576456071732
 30
0.0
 10
210.2830253682359
 20
116.4576456071732
 30
0.0
  0
SPLINE
  5
110
330
1F
100
AcDbEntity
  8
0
  6
HIDDEN
 62
     7
370
     0
100
AcDbSpline
210
0.0
220
0.0
230
1.0
 70
     8
 71
     3
 72
    66
 73
    62
 74
     0
 42
0.00000001
 43
0.00000001
 12
1.0
 22
0.0
 32
0.0
 13
1.0
 23
0.0
 33
0.0
 40
-0.0312500000000001
 40
-0.0312500000000001
 40
0.0
 40
0.0
 40
0.0312499999999997
 40
0.0312499999999997
 40
0.0624999999999993
 40
0.0624999999999993
 40
0.1249999999999994
 40
0.1249999999999994
 40
0.1562499999999995
 40
0.1562499999999995
 40
0.1874999999999995
 40
0.1874999999999995
 40
0.2187499999999996
 40
0.2187499999999996
 40
0.2499999999999996
 40
0.2499999999999996
 40
0.2812499999999997
 40
0.2812499999999997
 40
0.3124999999999997
 40
0.3124999999999997
 40
0.3437499999999998
 40
0.3437499999999998
 40
0.3749999999999998
 40
0.3749999999999998
 40
0.4062499999999998
 40
0.4062499999999998
 40
0.4374999999999999
 40
0.4374999999999999
 40
0.4687499999999999
 40
0.4687499999999999
 40
0.5
 40
0.5
 40
0.53125
 40
0.53125
 40
0.5625
 40
0.5625
 40
0.59375
 40
0.59375
 40
0.625
 40
0.625
 40
0.65625
 40
0.65625
 40
0.6875
 40
0.6875
 40
0.71875
 40
0.71875
 40
0.7499999999999999
 40
0.7499999999999999
 40
0.7812499999999999
 40
0.7812499999999999
 40
0.8124999999999999
 40
0.8124999999999999
 40
0.8749999999999996
 40
0.8749999999999996
 40
0.9062499999999997
 40
0.9062499999999997
 40
0.9374999999999998
 40
0.9374999999999998
 40
0.9687499999999999
 40
0.9687499999999999
 40
1.0
 40
1.0
 40
1.03125
 40
1.03125
 10
210.7574504034651
 20
108.0842484347688
 30
0.0
 10
210.2830253682359
 20
108.0842484347688
 30
0.0
 10
210.0512733072326
 20
108.0668885577971
 30
0.0
 10
209.5976165899148
 20
108.0027685354652
 30
0.0
 10
209.3738803905409
 20
107.9553157746108
 30
0.0
 10
208.7446419232457
 20
107.7866288784065
 30
0.0
 10
208.3668384889473
 20
107.6371379103819
 30
0.0
 10
207.8932325448873
 20
107.4230882302272
 30
0.0
 10
207.7482312254343
 20
107.3520922662171
 30
0.0
 10
207.4955355584199
 20
107.2229240356864
 30
0.0
 10
207.3875877606426
 20
107.1647217290008
 30
0.0
 10
207.2093011497475
 20
107.0664002106707
 30
0.0
 10
207.1387095068253
 20
107.0260967265455
 30
0.0
 10
207.0452091808113
 20
106.9722999658615
 30
0.0
 10
207.0210038802388
 20
106.9580924357587
 30
0.0
 10
207.019507310804
 20
106.957219439836
 30
0.0
 10
207.042888652586
 20
106.9709469060027
 30
0.0
 10
207.1342936495621
 20
107.023572636627
 30
0.0
 10
207.2034057834825
 20
107.0630818021507
 30
0.0
 10
207.3811979505206
 20
107.1612606154928
 30
0.0
 10
207.4891563900912
 20
107.2195581986637
 30
0.0
 10
207.7421575374194
 20
107.3490876377751
 30
0.0
 10
207.8859911715271
 20
107.4196366076664
 30
0.0
 10
208.2009733763242
 20
107.562344337379
 30
0.0
 10
208.3745125360315
 20
107.6355972074791
 30
0.0
 10
208.7474837862284
 20
107.7747198900172
 30
0.0
 10
208.9443542759855
 20
107.8397204648174
 30
0.0
 10
209.3611073656233
 20
107.9523152310803
 30
0.0
 10
209.5842580028356
 20
108.0003100231255
 30
0.0
 10
210.0401364303218
 20
108.0658550189471
 30
0.0
 10
210.2723559876284
 20
108.0837008846568
 30
0.0
 10
210.7461009133758
 20
108.0847711136241
 30
0.0
 10
210.9801673568055
 20
108.0677937474686
 30
0.0
 10
211.4357868027996
 20
108.0041270687068
 30
0.0
 10
211.6599853920366
 20
107.9568543031333
 30
0.0
 10
212.0807755241608
 20
107.8445088977465
 30
0.0
 10
212.2809126540472
 20
107.778876480444
 30
0.0
 10
212.6559990377318
 20
107.6396431883617
 30
0.0
 10
212.8283484815373
 20
107.5671567666199
 30
0.0
 10
213.1453933266811
 20
107.423981675678
 30
0.0
 10
213.291004409875
 20
107.3527048456146
 30
0.0
 10
213.5436013090219
 20
107.2236295452409
 30
0.0
 10
213.6519523852186
 20
107.1652332964442
 30
0.0
 10
213.8312860887698
 20
107.0663431303021
 30
0.0
 10
213.9017873423524
 20
107.0260845043645
 30
0.0
 10
213.9952093091084
 20
106.9723330186742
 30
0.0
 10
214.0196100723398
 20
106.9580118309122
 30
0.0
 10
214.0208420387446
 20
106.9572931854453
 30
0.0
 10
213.997385435446
 20
106.9710653778841
 30
0.0
 10
213.9054659559901
 20
107.0239825861618
 30
0.0
 10
213.8357738638448
 20
107.0638131866064
 30
0.0
 10
213.5685054736781
 20
107.2113544199463
 30
0.0
 10
213.3091077137848
 20
107.349771644701
 30
0.0
 10
212.8347159697995
 20
107.5644162715587
 30
0.0
 10
212.6595453886488
 20
107.6381805382644
 30
0.0
 10
212.2868039675548
 20
107.7768321817698
 30
0.0
 10
212.0895258910971
 20
107.8417971443927
 30
0.0
 10
211.6703259601767
 20
107.9544523039488
 30
0.0
 10
211.4457831781456
 20
108.0022542068131
 30
0.0
 10
210.9907189296555
 20
108.066774288558
 30
0.0
 10
210.7574504034651
 20
108.0842484347688
 30
0.0
 10
210.2830253682359
 20
108.0842484347688
 30
0.0
  0
SPLINE
  5
111
330
1F
100
AcDbEntity
  8
0
  6
HIDDEN
 62
     7
370
     0
100
AcDbSpline
210
0.0
220
0.0
230
1.0
 70
     8
 71
     3
 72
    66
 73
    62
 74
     0
 42
0.00000001
 43
0.00000001
 12
1.0
 22
0.0
 32
0.0
 13
1.0
 23
0.0
 33
0.0
 40
-0.0312500000000001
 40
-0.0312500000000001
 40
0.0
 40
0.0
 40
0.0312499999999996
 40
0.0312499999999996
 40
0.0624999999999992
 40
0.0624999999999992
 40
0.1249999999999993
 40
0.1249999999999993
 40
0.1562499999999993
 40
0.1562499999999993
 40
0.1874999999999993
 40
0.1874999999999993
 40
0.2187499999999993
 40
0.2187499999999993
 40
0.2499999999999992
 40
0.2499999999999992
 40
0.2812499999999992
 40
0.2812499999999992
 40
0.3124999999999992
 40
0.3124999999999992
 40
0.3437499999999992
 40
0.3437499999999992
 40
0.3749999999999992
 40
0.3749999999999992
 40
0.4062499999999992
 40
0.4062499999999992
 40
0.4374999999999992
 40
0.4374999999999992
 40
0.4687499999999992
 40
0.4687499999999992
 40
0.4999999999999992
 40
0.4999999999999992
 40
0.5312499999999992
 40
0.5312499999999992
 40
0.5624999999999993
 40
0.5624999999999993
 40
0.5937499999999993
 40
0.5937499999999993
 40
0.6249999999999994
 40
0.6249999999999994
 40
0.6562499999999994
 40
0.6562499999999994
 40
0.6874999999999996
 40
0.6874999999999996
 40
0.7187499999999996
 40
0.7187499999999996
 40
0.7499999999999997
 40
0.7499999999999997
 40
0.7812499999999997
 40
0.7812499999999997
 40
0.8124999999999998
 40
0.8124999999999998
 40
0.8749999999999994
 40
0.8749999999999994
 40
0.9062499999999996
 40
0.9062499999999996
 40
0.9374999999999998
 40
0.9374999999999998
 40
0.9687499999999999
 40
0.9687499999999999
 40
1.0
 40
1.0
 40
1.03125
 40
1.03125
 10
210.7574504034651
 20
117.8310427795778
 30
0.0
 10
210.2830253682359
 20
117.8310427795778
 30
0.0
 10
210.0512733072326
 20
117.8484026565494
 30
0.0
 10
209.5976165899148
 20
117.9125226788813
 30
0.0
 10
209.3738803905409
 20
117.9599754397357
 30
0.0
 10
208.7446419232457
 20
118.1286623359401
 30
0.0
 10
208.3668384889473
 20
118.2781533039647
 30
0.0
 10
207.8932325448873
 20
118.4922029841193
 30
0.0
 10
207.7482312254343
 20
118.5631989481294
 30
0.0
 10
207.4955355584199
 20
118.6923671786601
 30
0.0
 10
207.3875877606426
 20
118.7505694853457
 30
0.0
 10
207.2093011497474
 20
118.8488910036758
 30
0.0
 10
207.1387095068253
 20
118.889194487801
 30
0.0
 10
207.0452091808113
 20
118.942991248485
 30
0.0
 10
207.0210038802388
 20
118.9571987785878
 30
0.0
 10
207.019507310804
 20
118.9580717745105
 30
0.0
 10
207.042888652586
 20
118.9443443083438
 30
0.0
 10
207.1342936495621
 20
118.8917185777194
 30
0.0
 10
207.2034057834825
 20
118.8522094121957
 30
0.0
 10
207.3811979505206
 20
118.7540305988537
 30
0.0
 10
207.4891563900912
 20
118.6957330156828
 30
0.0
 10
207.7421575374194
 20
118.5662035765714
 30
0.0
 10
207.8859911715271
 20
118.49565460668
 30
0.0
 10
208.2009733763242
 20
118.3529468769675
 30
0.0
 10
208.3745125360314
 20
118.2796940068674
 30
0.0
 10
208.7474837862284
 20
118.1405713243293
 30
0.0
 10
208.9443542759855
 20
118.075570749529
 30
0.0
 10
209.3611073656233
 20
117.9629759832662
 30
0.0
 10
209.5842580028356
 20
117.914981191221
 30
0.0
 10
210.0401364303218
 20
117.8494361953994
 30
0.0
 10
210.2723559876284
 20
117.8315903296897
 30
0.0
 10
210.7461009133758
 20
117.8305201007224
 30
0.0
 10
210.9801673568055
 20
117.8474974668779
 30
0.0
 10
211.4357868027996
 20
117.9111641456397
 30
0.0
 10
211.6599853920365
 20
117.9584369112132
 30
0.0
 10
212.0807755241608
 20
118.0707823166
 30
0.0
 10
212.2809126540472
 20
118.1364147339025
 30
0.0
 10
212.6559990377318
 20
118.2756480259847
 30
0.0
 10
212.8283484815373
 20
118.3481344477266
 30
0.0
 10
213.1453933266811
 20
118.4913095386685
 30
0.0
 10
213.291004409875
 20
118.5625863687319
 30
0.0
 10
213.5436013090219
 20
118.6916616691056
 30
0.0
 10
213.6519523852186
 20
118.7500579179023
 30
0.0
 10
213.8312860887698
 20
118.8489480840444
 30
0.0
 10
213.9017873423523
 20
118.889206709982
 30
0.0
 10
213.9952093091084
 20
118.9429581956723
 30
0.0
 10
214.0196100723398
 20
118.9572793834344
 30
0.0
 10
214.0208420387446
 20
118.9579980289013
 30
0.0
 10
213.997385435446
 20
118.9442258364624
 30
0.0
 10
213.9054659559901
 20
118.8913086281847
 30
0.0
 10
213.8357738638448
 20
118.8514780277402
 30
0.0
 10
213.568505473678
 20
118.7039367944002
 30
0.0
 10
213.3091077137848
 20
118.5655195696455
 30
0.0
 10
212.8347159697995
 20
118.3508749427879
 30
0.0
 10
212.6595453886488
 20
118.2771106760821
 30
0.0
 10
212.2868039675548
 20
118.1384590325767
 30
0.0
 10
212.0895258910971
 20
118.0734940699538
 30
0.0
 10
211.6703259601767
 20
117.9608389103978
 30
0.0
 10
211.4457831781456
 20
117.9130370075334
 30
0.0
 10
210.9907189296556
 20
117.8485169257886
 30
0.0
 10
210.7574504034651
 20
117.8310427795778
 30
0.0
 10
210.2830253682359
 20
117.8310427795778
 30
0.0
  0
SPLINE
  5
112
330
1F
100
AcDbEntity
  8
0
  6
HIDDEN
 62
     7
370
     0
100
AcDbSpline
210
0.0
220
0.0
230
1.0
 70
     8
 71
     3
 72
    66
 73
    62
 74
     0
 42
0.00000001
 43
0.00000001
 12
1.0
 22
0.0
 32
0.0
 13
1.0
 23
0.0
 33
0.0
 40
-0.0312499999999982
 40
-0.0312499999999982
 40
0.0
 40
0.0
 40
0.0312500000000008
 40
0.0312500000000008
 40
0.0625000000000016
 40
0.0625000000000016
 40
0.1250000000000023
 40
0.1250000000000023
 40
0.1562500000000024
 40
0.1562500000000024
 40
0.1875000000000025
 40
0.1875000000000025
 40
0.2187500000000026
 40
0.2187500000000026
 40
0.2500000000000027
 40
0.2500000000000027
 40
0.2812500000000028
 40
0.2812500000000028
 40
0.3125000000000029
 40
0.3125000000000029
 40
0.343750000000003
 40
0.343750000000003
 40
0.3750000000000031
 40
0.3750000000000031
 40
0.4062500000000033
 40
0.4062500000000033
 40
0.4375000000000034
 40
0.4375000000000034
 40
0.4687500000000035
 40
0.4687500000000035
 40
0.5000000000000036
 40
0.5000000000000036
 40
0.5312500000000038
 40
0.5312500000000038
 40
0.5625000000000039
 40
0.5625000000000039
 40
0.593750000000004
 40
0.593750000000004
 40
0.6250000000000041
 40
0.6250000000000041
 40
0.6562500000000042
 40
0.6562500000000042
 40
0.6875000000000043
 40
0.6875000000000043
 40
0.7187500000000044
 40
0.7187500000000044
 40
0.7500000000000046
 40
0.7500000000000046
 40
0.7812500000000048
 40
0.7812500000000048
 40
0.8125000000000049
 40
0.8125000000000049
 40
0.8750000000000044
 40
0.8750000000000044
 40
0.9062500000000036
 40
0.9062500000000036
 40
0.9375000000000027
 40
0.9375000000000027
 40
0.9687500000000018
 40
0.9687500000000018
 40
1.0
 40
1.0
 40
1.031250000000001
 40
1.031250000000001
 10
230.7574504034651
 20
108.0842484347688
 30
0.0
 10
230.2830253682359
 20
108.0842484347688
 30
0.0
 10
230.0512733072326
 20
108.0668885577971
 30
0.0
 10
229.5976165899148
 20
108.0027685354652
 30
0.0
 10
229.3738803905409
 20
107.9553157746108
 30
0.0
 10
228.7446419232457
 20
107.7866288784065
 30
0.0
 10
228.3668384889473
 20
107.6371379103819
 30
0.0
 10
227.8932325448873
 20
107.4230882302272
 30
0.0
 10
227.7482312254343
 20
107.3520922662171
 30
0.0
 10
227.4955355584199
 20
107.2229240356864
 30
0.0
 10
227.3875877606426
 20
107.1647217290008
 30
0.0
 10
227.2093011497474
 20
107.0664002106707
 30
0.0
 10
227.1387095068253
 20
107.0260967265455
 30
0.0
 10
227.0452091808113
 20
106.9722999658615
 30
0.0
 10
227.0210038802387
 20
106.9580924357587
 30
0.0
 10
227.019507310804
 20
106.957219439836
 30
0.0
 10
227.042888652586
 20
106.9709469060027
 30
0.0
 10
227.1342936495621
 20
107.0235726366271
 30
0.0
 10
227.2034057834824
 20
107.0630818021507
 30
0.0
 10
227.3811979505205
 20
107.1612606154928
 30
0.0
 10
227.4891563900912
 20
107.2195581986637
 30
0.0
 10
227.7421575374194
 20
107.3490876377751
 30
0.0
 10
227.8859911715271
 20
107.4196366076664
 30
0.0
 10
228.2009733763242
 20
107.562344337379
 30
0.0
 10
228.3745125360314
 20
107.6355972074792
 30
0.0
 10
228.7474837862284
 20
107.7747198900172
 30
0.0
 10
228.9443542759854
 20
107.8397204648174
 30
0.0
 10
229.3611073656233
 20
107.9523152310803
 30
0.0
 10
229.5842580028357
 20
108.0003100231255
 30
0.0
 10
230.0401364303218
 20
108.0658550189471
 30
0.0
 10
230.2723559876284
 20
108.0837008846568
 30
0.0
 10
230.7461009133758
 20
108.0847711136241
 30
0.0
 10
230.9801673568054
 20
108.0677937474686
 30
0.0
 10
231.4357868027996
 20
108.0041270687068
 30
0.0
 10
231.6599853920365
 20
107.9568543031333
 30
0.0
 10
232.0807755241608
 20
107.8445088977465
 30
0.0
 10
232.2809126540472
 20
107.778876480444
 30
0.0
 10
232.6559990377318
 20
107.6396431883617
 30
0.0
 10
232.8283484815373
 20
107.5671567666199
 30
0.0
 10
233.1453933266811
 20
107.423981675678
 30
0.0
 10
233.2910044098751
 20
107.3527048456146
 30
0.0
 10
233.5436013090219
 20
107.2236295452409
 30
0.0
 10
233.6519523852186
 20
107.1652332964442
 30
0.0
 10
233.8312860887698
 20
107.0663431303021
 30
0.0
 10
233.9017873423524
 20
107.0260845043645
 30
0.0
 10
233.9952093091084
 20
106.9723330186742
 30
0.0
 10
234.0196100723399
 20
106.9580118309122
 30
0.0
 10
234.0208420387446
 20
106.9572931854453
 30
0.0
 10
233.997385435446
 20
106.9710653778841
 30
0.0
 10
233.9054659559901
 20
107.0239825861618
 30
0.0
 10
233.8357738638448
 20
107.0638131866064
 30
0.0
 10
233.568505473678
 20
107.2113544199463
 30
0.0
 10
233.3091077137847
 20
107.349771644701
 30
0.0
 10
232.8347159697995
 20
107.5644162715587
 30
0.0
 10
232.6595453886488
 20
107.6381805382644
 30
0.0
 10
232.2868039675548
 20
107.7768321817698
 30
0.0
 10
232.0895258910971
 20
107.8417971443927
 30
0.0
 10
231.6703259601767
 20
107.9544523039488
 30
0.0
 10
231.4457831781456
 20
108.0022542068131
 30
0.0
 10
230.9907189296556
 20
108.066774288558
 30
0.0
 10
230.7574504034651
 20
108.0842484347688
 30
0.0
 10
230.2830253682359
 20
108.0842484347688
 30
0.0
  0
SPLINE
  5
113
330
1F
100
AcDbEntity
  8
0
  6
HIDDEN
 62
     7
370
     0
100
AcDbSpline
210
0.0
220
0.0
230
1.0
 70
     8
 71
     3
 72
    66
 73
    62
 74
     0
 42
0.00000001
 43
0.00000001
 12
1.0
 22
0.0
 32
0.0
 13
1.0
 23
0.0
 33
0.0
 40
-0.0312499999999982
 40
-0.0312499999999982
 40
0.0
 40
0.0
 40
0.0312500000000008
 40
0.0312500000000008
 40
0.0625000000000016
 40
0.0625000000000016
 40
0.1250000000000024
 40
0.1250000000000024
 40
0.1562500000000025
 40
0.1562500000000025
 40
0.1875000000000026
 40
0.1875000000000026
 40
0.2187500000000027
 40
0.2187500000000027
 40
0.2500000000000027
 40
0.2500000000000027
 40
0.2812500000000028
 40
0.2812500000000028
 40
0.3125000000000029
 40
0.3125000000000029
 40
0.343750000000003
 40
0.343750000000003
 40
0.3750000000000031
 40
0.3750000000000031
 40
0.4062500000000032
 40
0.4062500000000032
 40
0.4375000000000033
 40
0.4375000000000033
 40
0.4687500000000033
 40
0.4687500000000033
 40
0.5000000000000034
 40
0.5000000000000034
 40
0.5312500000000036
 40
0.5312500000000036
 40
0.5625000000000037
 40
0.5625000000000037
 40
0.5937500000000039
 40
0.5937500000000039
 40
0.625000000000004
 40
0.625000000000004
 40
0.6562500000000041
 40
0.6562500000000041
 40
0.6875000000000042
 40
0.6875000000000042
 40
0.7187500000000044
 40
0.7187500000000044
 40
0.7500000000000046
 40
0.7500000000000046
 40
0.7812500000000047
 40
0.7812500000000047
 40
0.8125000000000048
 40
0.8125000000000048
 40
0.8750000000000043
 40
0.8750000000000043
 40
0.9062500000000034
 40
0.9062500000000034
 40
0.9375000000000026
 40
0.9375000000000026
 40
0.9687500000000018
 40
0.9687500000000018
 40
1.0
 40
1.0
 40
1.031250000000001
 40
1.031250000000001
 10
230.7574504034651
 20
117.8310427795778
 30
0.0
 10
230.2830253682358
 20
117.8310427795778
 30
0.0
 10
230.0512733072326
 20
117.8484026565494
 30
0.0
 10
229.5976165899148
 20
117.9125226788813
 30
0.0
 10
229.373880390541
 20
117.9599754397357
 30
0.0
 10
228.7446419232457
 20
118.1286623359401
 30
0.0
 10
228.3668384889473
 20
118.2781533039647
 30
0.0
 10
227.8932325448872
 20
118.4922029841193
 30
0.0
 10
227.7482312254342
 20
118.5631989481294
 30
0.0
 10
227.4955355584199
 20
118.6923671786601
 30
0.0
 10
227.3875877606426
 20
118.7505694853457
 30
0.0
 10
227.2093011497474
 20
118.8488910036758
 30
0.0
 10
227.1387095068253
 20
118.889194487801
 30
0.0
 10
227.0452091808113
 20
118.942991248485
 30
0.0
 10
227.0210038802387
 20
118.9571987785878
 30
0.0
 10
227.019507310804
 20
118.9580717745105
 30
0.0
 10
227.042888652586
 20
118.9443443083438
 30
0.0
 10
227.1342936495621
 20
118.8917185777194
 30
0.0
 10
227.2034057834825
 20
118.8522094121958
 30
0.0
 10
227.3811979505206
 20
118.7540305988537
 30
0.0
 10
227.4891563900912
 20
118.6957330156828
 30
0.0
 10
227.7421575374194
 20
118.5662035765715
 30
0.0
 10
227.8859911715272
 20
118.49565460668
 30
0.0
 10
228.2009733763242
 20
118.3529468769675
 30
0.0
 10
228.3745125360314
 20
118.2796940068674
 30
0.0
 10
228.7474837862284
 20
118.1405713243293
 30
0.0
 10
228.9443542759855
 20
118.075570749529
 30
0.0
 10
229.3611073656234
 20
117.9629759832662
 30
0.0
 10
229.5842580028356
 20
117.914981191221
 30
0.0
 10
230.0401364303218
 20
117.8494361953994
 30
0.0
 10
230.2723559876284
 20
117.8315903296897
 30
0.0
 10
230.7461009133758
 20
117.8305201007224
 30
0.0
 10
230.9801673568054
 20
117.8474974668779
 30
0.0
 10
231.4357868027996
 20
117.9111641456397
 30
0.0
 10
231.6599853920365
 20
117.9584369112132
 30
0.0
 10
232.0807755241608
 20
118.0707823166
 30
0.0
 10
232.2809126540472
 20
118.1364147339025
 30
0.0
 10
232.6559990377318
 20
118.2756480259847
 30
0.0
 10
232.8283484815373
 20
118.3481344477266
 30
0.0
 10
233.1453933266811
 20
118.4913095386685
 30
0.0
 10
233.291004409875
 20
118.5625863687319
 30
0.0
 10
233.5436013090219
 20
118.6916616691056
 30
0.0
 10
233.6519523852186
 20
118.7500579179023
 30
0.0
 10
233.8312860887698
 20
118.8489480840444
 30
0.0
 10
233.9017873423523
 20
118.889206709982
 30
0.0
 10
233.9952093091084
 20
118.9429581956723
 30
0.0
 10
234.0196100723399
 20
118.9572793834344
 30
0.0
 10
234.0208420387446
 20
118.9579980289013
 30
0.0
 10
233.997385435446
 20
118.9442258364624
 30
0.0
 10
233.9054659559901
 20
118.8913086281847
 30
0.0
 10
233.8357738638448
 20
118.8514780277402
 30
0.0
 10
233.568505473678
 20
118.7039367944002
 30
0.0
 10
233.3091077137848
 20
118.5655195696455
 30
0.0
 10
232.8347159697995
 20
118.3508749427879
 30
0.0
 10
232.6595453886488
 20
118.2771106760821
 30
0.0
 10
232.2868039675548
 20
118.1384590325767
 30
0.0
 10
232.0895258910972
 20
118.0734940699538
 30
0.0
 10
231.6703259601767
 20
117.9608389103978
 30
0.0
 10
231.4457831781456
 20
117.9130370075334
 30
0.0
 10
230.9907189296556
 20
117.8485169257886
 30
0.0
 10
230.7574504034651
 20
117.8310427795778
 30
0.0
 10
230.2830253682358
 20
117.8310427795778
 30
0.0
  0
SPLINE
  5
114
330
1F
100
AcDbEntity
  8
0
  6
HIDDEN
 62
     7
370
     0
100
AcDbSpline
210
0.0
220
0.0
230
1.0
 70
     8
 71
     3
 72
    66
 73
    62
 74
     0
 42
0.00000001
 43
0.00000001
 12
1.0
 22
0.0
 32
0.0
 13
1.0
 23
0.0
 33
0.0
 40
-0.0312500000000002
 40
-0.0312500000000002
 40
0.0
 40
0.0
 40
0.0312499999999996
 40
0.0312499999999996
 40
0.0624999999999992
 40
0.0624999999999992
 40
0.1249999999999992
 40
0.1249999999999992
 40
0.1562499999999992
 40
0.1562499999999992
 40
0.1874999999999991
 40
0.1874999999999991
 40
0.2187499999999991
 40
0.2187499999999991
 40
0.2499999999999991
 40
0.2499999999999991
 40
0.2812499999999991
 40
0.2812499999999991
 40
0.3124999999999991
 40
0.3124999999999991
 40
0.3437499999999991
 40
0.3437499999999991
 40
0.3749999999999991
 40
0.3749999999999991
 40
0.4062499999999991
 40
0.4062499999999991
 40
0.4374999999999992
 40
0.4374999999999992
 40
0.4687499999999992
 40
0.4687499999999992
 40
0.4999999999999992
 40
0.4999999999999992
 40
0.5312499999999992
 40
0.5312499999999992
 40
0.5624999999999993
 40
0.5624999999999993
 40
0.5937499999999993
 40
0.5937499999999993
 40
0.6249999999999993
 40
0.6249999999999993
 40
0.6562499999999994
 40
0.6562499999999994
 40
0.6874999999999994
 40
0.6874999999999994
 40
0.7187499999999994
 40
0.7187499999999994
 40
0.7499999999999994
 40
0.7499999999999994
 40
0.7812499999999996
 40
0.7812499999999996
 40
0.8124999999999996
 40
0.8124999999999996
 40
0.8749999999999993
 40
0.8749999999999993
 40
0.9062499999999994
 40
0.9062499999999994
 40
0.9374999999999996
 40
0.9374999999999996
 40
0.9687499999999998
 40
0.9687499999999998
 40
1.0
 40
1.0
 40
1.03125
 40
1.03125
 10
220.7574504034651
 20
108.0842484347688
 30
0.0
 10
220.2830253682358
 20
108.0842484347688
 30
0.0
 10
220.0512733072326
 20
108.0668885577971
 30
0.0
 10
219.5976165899148
 20
108.0027685354652
 30
0.0
 10
219.3738803905409
 20
107.9553157746108
 30
0.0
 10
218.7446419232457
 20
107.7866288784065
 30
0.0
 10
218.3668384889473
 20
107.6371379103819
 30
0.0
 10
217.8932325448873
 20
107.4230882302272
 30
0.0
 10
217.7482312254343
 20
107.3520922662171
 30
0.0
 10
217.4955355584199
 20
107.2229240356864
 30
0.0
 10
217.3875877606426
 20
107.1647217290008
 30
0.0
 10
217.2093011497474
 20
107.0664002106707
 30
0.0
 10
217.1387095068252
 20
107.0260967265455
 30
0.0
 10
217.0452091808113
 20
106.9722999658615
 30
0.0
 10
217.0210038802387
 20
106.9580924357587
 30
0.0
 10
217.019507310804
 20
106.957219439836
 30
0.0
 10
217.042888652586
 20
106.9709469060027
 30
0.0
 10
217.1342936495621
 20
107.0235726366271
 30
0.0
 10
217.2034057834824
 20
107.0630818021507
 30
0.0
 10
217.3811979505205
 20
107.1612606154928
 30
0.0
 10
217.4891563900912
 20
107.2195581986637
 30
0.0
 10
217.7421575374194
 20
107.3490876377751
 30
0.0
 10
217.8859911715272
 20
107.4196366076664
 30
0.0
 10
218.2009733763242
 20
107.562344337379
 30
0.0
 10
218.3745125360314
 20
107.6355972074791
 30
0.0
 10
218.7474837862284
 20
107.7747198900172
 30
0.0
 10
218.9443542759855
 20
107.8397204648174
 30
0.0
 10
219.3611073656233
 20
107.9523152310803
 30
0.0
 10
219.5842580028356
 20
108.0003100231255
 30
0.0
 10
220.0401364303218
 20
108.0658550189471
 30
0.0
 10
220.2723559876284
 20
108.0837008846568
 30
0.0
 10
220.7461009133758
 20
108.0847711136241
 30
0.0
 10
220.9801673568054
 20
108.0677937474686
 30
0.0
 10
221.4357868027996
 20
108.0041270687068
 30
0.0
 10
221.6599853920365
 20
107.9568543031333
 30
0.0
 10
222.0807755241607
 20
107.8445088977465
 30
0.0
 10
222.2809126540472
 20
107.778876480444
 30
0.0
 10
222.6559990377318
 20
107.6396431883617
 30
0.0
 10
222.8283484815373
 20
107.5671567666199
 30
0.0
 10
223.1453933266811
 20
107.423981675678
 30
0.0
 10
223.291004409875
 20
107.3527048456146
 30
0.0
 10
223.5436013090219
 20
107.2236295452409
 30
0.0
 10
223.6519523852186
 20
107.1652332964442
 30
0.0
 10
223.8312860887698
 20
107.0663431303021
 30
0.0
 10
223.9017873423523
 20
107.0260845043645
 30
0.0
 10
223.9952093091084
 20
106.9723330186742
 30
0.0
 10
224.0196100723398
 20
106.9580118309122
 30
0.0
 10
224.0208420387446
 20
106.9572931854453
 30
0.0
 10
223.997385435446
 20
106.9710653778841
 30
0.0
 10
223.9054659559901
 20
107.0239825861618
 30
0.0
 10
223.8357738638448
 20
107.0638131866064
 30
0.0
 10
223.568505473678
 20
107.2113544199463
 30
0.0
 10
223.3091077137847
 20
107.349771644701
 30
0.0
 10
222.8347159697995
 20
107.5644162715587
 30
0.0
 10
222.6595453886488
 20
107.6381805382644
 30
0.0
 10
222.2868039675548
 20
107.7768321817698
 30
0.0
 10
222.0895258910971
 20
107.8417971443927
 30
0.0
 10
221.6703259601767
 20
107.9544523039488
 30
0.0
 10
221.4457831781456
 20
108.0022542068131
 30
0.0
 10
220.9907189296555
 20
108.066774288558
 30
0.0
 10
220.7574504034651
 20
108.0842484347688
 30
0.0
 10
220.2830253682358
 20
108.0842484347688
 30
0.0
  0
SPLINE
  5
115
330
1F
100
AcDbEntity
  8
0
  6
HIDDEN
 62
     7
370
     0
100
AcDbSpline
210
0.0
220
0.0
230
1.0
 70
     8
 71
     3
 72
    66
 73
    62
 74
     0
 42
0.00000001
 43
0.00000001
 12
1.0
 22
0.0
 32
0.0
 13
1.0
 23
0.0
 33
0.0
 40
-0.0312500000000001
 40
-0.0312500000000001
 40
0.0
 40
0.0
 40
0.0312499999999996
 40
0.0312499999999996
 40
0.0624999999999993
 40
0.0624999999999993
 40
0.1249999999999994
 40
0.1249999999999994
 40
0.1562499999999994
 40
0.1562499999999994
 40
0.1874999999999995
 40
0.1874999999999995
 40
0.2187499999999995
 40
0.2187499999999995
 40
0.2499999999999996
 40
0.2499999999999996
 40
0.2812499999999996
 40
0.2812499999999996
 40
0.3124999999999996
 40
0.3124999999999996
 40
0.3437499999999997
 40
0.3437499999999997
 40
0.3749999999999997
 40
0.3749999999999997
 40
0.4062499999999997
 40
0.4062499999999997
 40
0.4374999999999998
 40
0.4374999999999998
 40
0.4687499999999998
 40
0.4687499999999998
 40
0.4999999999999998
 40
0.4999999999999998
 40
0.5312499999999998
 40
0.5312499999999998
 40
0.5624999999999998
 40
0.5624999999999998
 40
0.5937499999999997
 40
0.5937499999999997
 40
0.6249999999999997
 40
0.6249999999999997
 40
0.6562499999999997
 40
0.6562499999999997
 40
0.6874999999999997
 40
0.6874999999999997
 40
0.7187499999999997
 40
0.7187499999999997
 40
0.7499999999999996
 40
0.7499999999999996
 40
0.7812499999999996
 40
0.7812499999999996
 40
0.8124999999999996
 40
0.8124999999999996
 40
0.8749999999999993
 40
0.8749999999999993
 40
0.9062499999999996
 40
0.9062499999999996
 40
0.9374999999999997
 40
0.9374999999999997
 40
0.9687499999999999
 40
0.9687499999999999
 40
1.0
 40
1.0
 40
1.03125
 40
1.03125
 10
220.7574504034651
 20
117.8310427795778
 30
0.0
 10
220.2830253682359
 20
117.8310427795778
 30
0.0
 10
220.0512733072326
 20
117.8484026565494
 30
0.0
 10
219.5976165899147
 20
117.9125226788813
 30
0.0
 10
219.3738803905409
 20
117.9599754397357
 30
0.0
 10
218.7446419232457
 20
118.1286623359401
 30
0.0
 10
218.3668384889473
 20
118.2781533039647
 30
0.0
 10
217.8932325448872
 20
118.4922029841193
 30
0.0
 10
217.7482312254343
 20
118.5631989481294
 30
0.0
 10
217.4955355584198
 20
118.6923671786601
 30
0.0
 10
217.3875877606426
 20
118.7505694853457
 30
0.0
 10
217.2093011497474
 20
118.8488910036758
 30
0.0
 10
217.1387095068252
 20
118.889194487801
 30
0.0
 10
217.0452091808113
 20
118.942991248485
 30
0.0
 10
217.0210038802387
 20
118.9571987785878
 30
0.0
 10
217.019507310804
 20
118.9580717745105
 30
0.0
 10
217.042888652586
 20
118.9443443083438
 30
0.0
 10
217.1342936495621
 20
118.8917185777194
 30
0.0
 10
217.2034057834825
 20
118.8522094121958
 30
0.0
 10
217.3811979505206
 20
118.7540305988537
 30
0.0
 10
217.4891563900912
 20
118.6957330156828
 30
0.0
 10
217.7421575374194
 20
118.5662035765714
 30
0.0
 10
217.8859911715271
 20
118.49565460668
 30
0.0
 10
218.2009733763242
 20
118.3529468769675
 30
0.0
 10
218.3745125360314
 20
118.2796940068674
 30
0.0
 10
218.7474837862284
 20
118.1405713243293
 30
0.0
 10
218.9443542759855
 20
118.075570749529
 30
0.0
 10
219.3611073656233
 20
117.9629759832662
 30
0.0
 10
219.5842580028356
 20
117.914981191221
 30
0.0
 10
220.0401364303218
 20
117.8494361953994
 30
0.0
 10
220.2723559876284
 20
117.8315903296897
 30
0.0
 10
220.7461009133758
 20
117.8305201007224
 30
0.0
 10
220.9801673568055
 20
117.8474974668779
 30
0.0
 10
221.4357868027996
 20
117.9111641456397
 30
0.0
 10
221.6599853920366
 20
117.9584369112132
 30
0.0
 10
222.0807755241608
 20
118.0707823166
 30
0.0
 10
222.2809126540472
 20
118.1364147339025
 30
0.0
 10
222.6559990377318
 20
118.2756480259848
 30
0.0
 10
222.8283484815373
 20
118.3481344477266
 30
0.0
 10
223.1453933266811
 20
118.4913095386685
 30
0.0
 10
223.291004409875
 20
118.5625863687319
 30
0.0
 10
223.5436013090219
 20
118.6916616691056
 30
0.0
 10
223.6519523852186
 20
118.7500579179023
 30
0.0
 10
223.8312860887698
 20
118.8489480840444
 30
0.0
 10
223.9017873423523
 20
118.889206709982
 30
0.0
 10
223.9952093091084
 20
118.9429581956723
 30
0.0
 10
224.0196100723399
 20
118.9572793834344
 30
0.0
 10
224.0208420387446
 20
118.9579980289013
 30
0.0
 10
223.997385435446
 20
118.9442258364624
 30
0.0
 10
223.9054659559901
 20
118.8913086281847
 30
0.0
 10
223.8357738638448
 20
118.8514780277402
 30
0.0
 10
223.568505473678
 20
118.7039367944002
 30
0.0
 10
223.3091077137848
 20
118.5655195696455
 30
0.0
 10
222.8347159697995
 20
118.3508749427879
 30
0.0
 10
222.6595453886488
 20
118.2771106760821
 30
0.0
 10
222.2868039675548
 20
118.1384590325767
 30
0.0
 10
222.0895258910971
 20
118.0734940699538
 30
0.0
 10
221.6703259601767
 20
117.9608389103978
 30
0.0
 10
221.4457831781456
 20
117.9130370075334
 30
0.0
 10
220.9907189296555
 20
117.8485169257886
 30
0.0
 10
220.7574504034651
 20
117.8310427795778
 30
0.0
 10
220.2830253682359
 20
117.8310427795778
 30
0.0
  0
LINE
  5
116
330
1F
100
AcDbEntity
  8
0
  6
HIDDEN
 62
     7
370
     0
100
AcDbLine
 10
166.3202378978
 20
130.2204452725
 30
0.0
 11
166.3202378978
 21
131.5977447005
 31
0.0
  0
LINE
  5
117
330
1F
100
AcDbEntity
  8
0
  6
HIDDEN
 62
     7
370
     0
100
AcDbLine
 10
140.0202378709
 20
129.6482201936
 30
0.0
 11
140.0202378709
 21
130.9369974108
 31
0.0
  0
SPLINE
  5
118
330
1F
100
AcDbEntity
  8
0
  6
HIDDEN
 62
     7
370
     0
100
AcDbSpline
210
0.0
220
0.0
230
1.0
 70
     8
 71
     3
 72
    10
 73
     6
 74
     0
 42
0.00000001
 43
0.00000001
 12
1.0
 22
0.0
 32
0.0
 13
1.0
 23
0.0
 33
0.0
 40
0.0
 40
0.0
 40
0.0
 40
0.0
 40
0.359941185125859
 40
0.7301023657646475
 40
1.0
 40
1.0
 40
1.0
 40
1.0
 10
167.198917580272
 20
130.5044502289889
 30
0.0
 10
167.1124540264177
 20
130.694601418585
 30
0.0
 10
166.9370719144778
 20
131.0803028584702
 30
0.0
 10
166.8070341176747
 20
131.3713948301183
 30
0.0
 10
166.8021466161726
 20
131.3822806328249
 30
0.0
 10
166.8000856726123
 20
131.3868709178565
 30
0.0
  0
LINE
  5
119
330
1F
100
AcDbEntity
  8
0
  6
HIDDEN
 62
     7
370
     0
100
AcDbLine
 10
138.5202385564
 20
128.8982205363
 30
0.0
 11
138.5202385564
 21
130.0709717246
 31
0.0
  0
LINE
  5
11A
330
1F
100
AcDbEntity
  8
0
  6
HIDDEN
 62
     7
370
     0
100
AcDbLine
 10
227.0202372302
 20
95.9576446833
 30
0.0
 11
234.0202365149
 21
95.9576446833
 31
0.0
  0
LINE
  5
11B
330
1F
100
AcDbEntity
  8
0
  6
HIDDEN
 62
     7
370
     0
100
AcDbLine
 10
217.0202393164
 20
95.9576446833
 30
0.0
 11
224.0202386011
 21
95.9576446833
 31
0.0
  0
LINE
  5
11C
330
1F
100
AcDbEntity
  8
0
  6
HIDDEN
 62
     7
370
     0
100
AcDbLine
 10
207.0202376772
 20
95.9576446833
 30
0.0
 11
214.020236962
 21
95.9576446833
 31
0.0
  0
LINE
  5
11D
330
1F
100
AcDbEntity
  8
0
  6
HIDDEN
 62
     7
370
     0
100
AcDbLine
 10
227.0202372302
 20
129.957646531
 30
0.0
 11
234.0202365149
 21
129.957646531
 31
0.0
  0
LINE
  5
11E
330
1F
100
AcDbEntity
  8
0
  6
HIDDEN
 62
     7
370
     0
100
AcDbLine
 10
207.0202376772
 20
129.957646531
 30
0.0
 11
214.020236962
 21
129.957646531
 31
0.0
  0
LINE
  5
11F
330
1F
100
AcDbEntity
  8
0
  6
HIDDEN
 62
     7
370
     0
100
AcDbLine
 10
217.0202393164
 20
129.957646531
 30
0.0
 11
224.0202386011
 21
129.957646531
 31
0.0
  0
LINE
  5
120
330
1F
100
AcDbEntity
  8
0
  6
HIDDEN
 62
     7
370
     0
100
AcDbLine
 10
151.4702379782
 20
97.1673283996
 30
0.0
 11
157.5702378605
 21
97.1673283996
 31
0.0
  0
SPLINE
  5
121
330
1F
100
AcDbEntity
  8
0
  6
HIDDEN
 62
     7
370
     0
100
AcDbSpline
210
0.0
220
0.0
230
1.0
 70
     8
 71
     3
 72
     8
 73
     4
 74
     0
 42
0.00000001
 43
0.00000001
 12
1.0
 22
0.0
 32
0.0
 13
1.0
 23
0.0
 33
0.0
 40
0.0
 40
0.0
 40
0.0
 40
0.0
 40
1.0
 40
1.0
 40
1.0
 40
1.0
 10
140.0202378858504
 20
97.42484884876284
 30
0.0
 10
139.4991856433897
 20
97.69987897541957
 30
0.0
 10
138.9944492962881
 20
97.96106574956988
 30
0.0
 10
138.5202378858504
 20
98.20237662352885
 30
0.0
  0
LINE
  5
122
330
1F
100
AcDbEntity
  8
0
  6
HIDDEN
 62
     7
370
     0
100
AcDbLine
 10
144.0202385266
 20
97.3327815803
 30
0.0
 11
144.0202385266
 21
98.957645175
 31
0.0
  0
LINE
  5
123
330
1F
100
AcDbEntity
  8
0
  6
HIDDEN
 62
     7
370
     0
100
AcDbLine
 10
138.5202385564
 20
98.202377026
 30
0.0
 11
138.5202385564
 21
98.957645175
 31
0.0
  0
LINE
  5
124
330
1F
100
AcDbEntity
  8
0
  6
HIDDEN
 62
     7
370
     0
100
AcDbLine
 10
151.4702379782
 20
126.9576460393
 30
0.0
 11
157.5702378605
 21
126.9576460393
 31
0.0
  0
LINE
  5
125
330
1F
100
AcDbEntity
  8
0
  6
HIDDEN
 62
     7
370
     0
100
AcDbLine
 10
178.5202376623
 20
88.4576462479
 30
0.0
 11
182.520238318
 21
88.4576462479
 31
0.0
  0
LINE
  5
126
330
1F
100
AcDbEntity
  8
0
  6
HIDDEN
 62
     7
370
     0
100
AcDbLine
 10
138.5202385564
 20
101.1969674649
 30
0.0
 11
138.5202385564
 21
98.202377026
 31
0.0
  0
LINE
  5
127
330
1F
100
AcDbEntity
  8
0
  6
HIDDEN
 62
     7
370
     0
100
AcDbLine
 10
138.5202385564
 20
128.8982205363
 30
0.0
 11
138.5202385564
 21
108.7777488204
 31
0.0
  0
LINE
  5
128
330
1F
100
AcDbEntity
  8
0
  6
HIDDEN
 62
     7
370
     0
100
AcDbLine
 10
140.0202378709
 20
129.6482201936
 30
0.0
 11
140.0202378709
 21
108.7777488204
 31
0.0
  0
LINE
  5
129
330
1F
100
AcDbEntity
  8
0
  6
HIDDEN
 62
     7
370
     0
100
AcDbLine
 10
166.3202378978
 20
130.2204452725
 30
0.0
 11
166.3202378978
 21
108.7777488204
 31
0.0
  0
LINE
  5
12A
330
1F
100
AcDbEntity
  8
0
  6
HIDDEN
 62
     7
370
     0
100
AcDbLine
 10
168.3202378909
 20
129.7637507589
 30
0.0
 11
168.3202378909
 21
109.7373046717
 31
0.0
  0
LINE
  5
12B
330
1F
100
AcDbEntity
  8
0
  6
HIDDEN
 62
     7
370
     0
100
AcDbLine
 10
138.5202385564
 20
108.7777488204
 30
0.0
 11
138.5202385564
 21
101.1969674649
 31
0.0
  0
LINE
  5
12C
330
1F
100
AcDbEntity
  8
0
  6
HIDDEN
 62
     7
370
     0
100
AcDbLine
 10
140.0202378709
 20
108.7777488204
 30
0.0
 11
140.0202378709
 21
100.4469678076
 31
0.0
  0
LINE
  5
12D
330
1F
100
AcDbEntity
  8
0
  6
HIDDEN
 62
     7
370
     0
100
AcDbLine
 10
166.3202378978
 20
108.7777488204
 30
0.0
 11
166.3202378978
 21
99.87474366
 31
0.0
  0
SPLINE
  5
12E
330
1F
100
AcDbEntity
  8
0
  6
HIDDEN
 62
     7
370
     0
100
AcDbSpline
210
0.0
220
0.0
230
1.0
 70
     8
 71
     3
 72
    18
 73
    14
 74
     0
 42
0.00000001
 43
0.00000001
 12
1.0
 22
0.0
 32
0.0
 13
1.0
 23
0.0
 33
0.0
 40
0.0
 40
0.0
 40
0.0
 40
0.0
 40
0.2499999999999998
 40
0.2499999999999998
 40
0.3749999999999999
 40
0.3749999999999999
 40
0.5
 40
0.5
 40
0.6250000000000001
 40
0.6250000000000001
 40
0.7500000000000002
 40
0.7500000000000002
 40
1.0
 40
1.0
 40
1.0
 40
1.0
 10
167.1989175422908
 20
107.8231636738502
 30
0.0
 10
167.0636319359885
 20
107.1073902544244
 30
0.0
 10
166.9624641897455
 20
106.4065801074578
 30
0.0
 10
166.8596028468766
 20
105.3781687181392
 30
0.0
 10
166.8335000013533
 20
105.038285759861
 30
0.0
 10
166.7986100178085
 20
104.3704740052317
 30
0.0
 10
166.7900237595185
 20
104.0472822246765
 30
0.0
 10
166.7899240499528
 20
103.4216321598165
 30
0.0
 10
166.7984124211014
 20
103.1191757828066
 30
0.0
 10
166.832555800622
 20
102.5350258620066
 30
0.0
 10
166.8583527824758
 20
102.2522617653121
 30
0.0
 10
166.9617539138637
 20
101.4435669663862
 30
0.0
 10
167.0636119060351
 20
100.9650653542941
 30
0.0
 10
167.1989175422908
 20
100.5453232211729
 30
0.0
  0
CIRCLE
  5
12F
330
1F
100
AcDbEntity
  8
0
  6
HIDDEN
 62
     7
370
     0
100
AcDbCircle
 10
220.5202378859
 20
112.9576456072
 30
0.0
 40
3.5
  0
CIRCLE
  5
130
330
1F
100
AcDbEntity
  8
0
  6
HIDDEN
 62
     7
370
     0
100
AcDbCircle
 10
230.5202378859
 20
112.9576456072
 30
0.0
 40
3.499999999999986
  0
CIRCLE
  5
131
330
1F
100
AcDbEntity
  8
0
  6
HIDDEN
 62
     7
370
     0
100
AcDbCircle
 10
210.5202378859
 20
112.9576456072
 30
0.0
 40
3.5
  0
LINE
  5
132
330
1F
100
AcDbEntity
  8
0
  6
HIDDEN
 62
     7
370
     0
100
AcDbLine
 10
168.5202378859
 20
93.4076462211
 30
0.0
 11
168.6131311063
 21
93.5005381973
 31
0.0
  0
LINE
  5
133
330
1F
100
AcDbEntity
  8
0
  6
HIDDEN
 62
     7
370
     0
100
AcDbLine
 10
168.6131311063
 20
132.414753017
 30
0.0
 11
168.5202378859
 21
132.5076449932
 31
0.0
  0
ARC
  5
134
330
1F
100
AcDbEntity
  8
0
  6
HIDDEN
 62
     7
370
     0
100
AcDbCircle
 10
167.9060243235
 20
94.2076456072
 30
0.0
 40
1.0
100
AcDbArc
 50
315.0
 51
0.0
  0
ARC
  5
135
330
1F
100
AcDbEntity
  8
0
  6
HIDDEN
 62
     7
370
     0
100
AcDbCircle
 10
167.9060243235
 20
94.2076456072
 30
0.0
 40
1.0
100
AcDbArc
 50
0.0
 51
52.1052014664
  0
ARC
  5
136
330
1F
100
AcDbEntity
  8
0
  6
HIDDEN
 62
     7
370
     0
100
AcDbCircle
 10
167.9060243235
 20
131.7076456072
 30
0.0
 40
0.9999999999999998
100
AcDbArc
 50
343.125
 51
45.0
  0
ARC
  5
137
330
1F
100
AcDbEntity
  8
0
  6
HIDDEN
 62
     7
370
     0
100
AcDbCircle
 10
167.9060243235
 20
131.7076456072
 30
0.0
 40
0.9999999999999998
100
AcDbArc
 50
307.8947985336
 51
343.125
  0
LINE
  5
138
330
1F
100
AcDbEntity
  8
0
  6
HIDDEN
 62
     7
370
     0
100
AcDbLine
 10
168.9060243217
 20
94.2076448621
 30
0.0
 11
168.9060243217
 21
131.7076463522
 31
0.0
  0
LINE
  5
139
330
1F
100
AcDbEntity
  8
0
  6
HIDDEN
 62
     7
370
     0
100
AcDbLine
 10
168.9060243217
 20
94.2076448621
 30
0.0
 11
168.9060243217
 21
131.7076463522
 31
0.0
  0
ARC
  5
13A
330
1F
100
AcDbEntity
  8
0
  6
HIDDEN
 62
     7
370
     0
100
AcDbCircle
 10
146.0269573979
 20
102.4576456072
 30
0.0
 40
1.500000000000014
100
AcDbArc
 50
270.0
 51
315.0
  0
ARC
  5
13B
330
1F
100
AcDbEntity
  8
0
  6
HIDDEN
 62
     7
370
     0
100
AcDbCircle
 10
146.0269573979
 20
123.4576456072
 30
0.0
 40
1.500000000000014
100
AcDbArc
 50
45.0
 51
90.0
  0
LINE
  5
13C
330
1F
100
AcDbEntity
  8
0
  6
HIDDEN
 62
     7
370
     0
100
AcDbLine
 10
145.0202386905
 20
100.9576455029
 30
0.0
 11
146.0269574155
 21
100.9576455029
 31
0.0
  0
LINE
  5
13D
330
1F
100
AcDbEntity
  8
0
  6
HIDDEN
 62
     7
370
     0
100
AcDbLine
 10
146.0269574155
 20
124.9576457115
 30
0.0
 11
145.0202386905
 21
124.9576457115
 31
0.0
  0
ARC
  5
13E
330
1F
100
AcDbEntity
  8
0
  6
HIDDEN
 62
     7
370
     0
100
AcDbCircle
 10
145.0202378859
 20
102.4576456072
 30
0.0
 40
1.500000000000014
100
AcDbArc
 50
191.0958032831
 51
270.0
  0
ARC
  5
13F
330
1F
100
AcDbEntity
  8
0
  6
HIDDEN
 62
     7
370
     0
100
AcDbCircle
 10
145.0202378859
 20
123.4576456072
 30
0.0
 40
1.5
100
AcDbArc
 50
90.0
 51
168.9041967169
  0
LINE
  5
140
330
1F
100
AcDbEntity
  8
0
  6
HIDDEN
 62
     7
370
     0
100
AcDbLine
 10
138.5202385564
 20
101.1942331018
 30
0.0
 11
139.5482771177
 21
101.7877724292
 31
0.0
  0
LINE
  5
141
330
1F
100
AcDbEntity
  8
0
  6
HIDDEN
 62
     7
370
     0
100
AcDbLine
 10
139.5482771177
 20
124.1275187852
 30
0.0
 11
138.5202385564
 21
124.7210581126
 31
0.0
  0
LINE
  5
142
330
1F
100
AcDbEntity
  8
0
  6
HIDDEN
 62
     7
370
     0
100
AcDbLine
 10
147.087618344
 20
101.3969857516
 30
0.0
 11
148.1482774098
 21
102.4576457487
 31
0.0
  0
LINE
  5
143
330
1F
100
AcDbEntity
  8
0
  6
HIDDEN
 62
     7
370
     0
100
AcDbLine
 10
148.1482774098
 20
123.4576454656
 30
0.0
 11
147.087618344
 21
124.5183054628
 31
0.0
  0
LINE
  5
144
330
1F
100
AcDbEntity
  8
0
  6
HIDDEN
 62
     7
370
     0
100
AcDbLine
 10
139.5482771177
 20
101.7877724292
 30
0.0
 11
142.0482784589
 21
102.4576457487
 31
0.0
  0
LINE
  5
145
330
1F
100
AcDbEntity
  8
0
  6
HIDDEN
 62
     7
370
     0
100
AcDbLine
 10
142.0482784589
 20
123.4576454656
 30
0.0
 11
139.5482771177
 21
124.1275187852
 31
0.0
  0
LINE
  5
146
330
1F
100
AcDbEntity
  8
0
  6
HIDDEN
 62
     7
370
     0
100
AcDbLine
 10
143.5482777734
 20
123.7463210048
 30
0.0
 11
143.0482786228
 21
123.4576454656
 31
0.0
  0
LINE
  5
147
330
1F
100
AcDbEntity
  8
0
  6
HIDDEN
 62
     7
370
     0
100
AcDbLine
 10
143.0482786228
 20
102.4576457487
 30
0.0
 11
143.5482777734
 21
102.1689702095
 31
0.0
  0
LINE
  5
148
330
1F
100
AcDbEntity
  8
0
  6
HIDDEN
 62
     7
370
     0
100
AcDbLine
 10
142.0482784589
 20
102.4576457487
 30
0.0
 11
143.0482786228
 21
102.4576457487
 31
0.0
  0
LINE
  5
149
330
1F
100
AcDbEntity
  8
0
  6
HIDDEN
 62
     7
370
     0
100
AcDbLine
 10
143.0482786228
 20
123.4576454656
 30
0.0
 11
142.0482784589
 21
123.4576454656
 31
0.0
  0
LINE
  5
14A
330
1F
100
AcDbEntity
  8
0
  6
HIDDEN
 62
     7
370
     0
100
AcDbLine
 10
157.5352853243
 20
102.4576457487
 30
0.0
 11
158.0202380274
 21
102.4576457487
 31
0.0
  0
LINE
  5
14B
330
1F
100
AcDbEntity
  8
0
  6
HIDDEN
 62
     7
370
     0
100
AcDbLine
 10
148.1482774098
 20
102.4576457487
 30
0.0
 11
151.4930777331
 21
102.4576457487
 31
0.0
  0
LINE
  5
14C
330
1F
100
AcDbEntity
  8
0
  6
HIDDEN
 62
     7
370
     0
100
AcDbLine
 10
151.5051905145
 20
123.4576454656
 30
0.0
 11
148.1482774098
 21
123.4576454656
 31
0.0
  0
LINE
  5
14D
330
1F
100
AcDbEntity
  8
0
  6
HIDDEN
 62
     7
370
     0
100
AcDbLine
 10
158.0202380274
 20
123.4576454656
 30
0.0
 11
157.5473981057
 21
123.4576454656
 31
0.0
  0
ARC
  5
14E
330
1F
100
AcDbEntity
  8
0
  6
HIDDEN
 62
     7
370
     0
100
AcDbCircle
 10
158.0202378859
 20
102.9576456072
 30
0.0
 40
0.5
100
AcDbArc
 50
270.0
 51
0.0
  0
ARC
  5
14F
330
1F
100
AcDbEntity
  8
0
  6
HIDDEN
 62
     7
370
     0
100
AcDbCircle
 10
158.0202378859
 20
122.9576456072
 30
0.0
 40
0.5
100
AcDbArc
 50
0.0
 51
90.0
  0
LINE
  5
150
330
1F
100
AcDbEntity
  8
0
  6
HIDDEN
 62
     7
370
     0
100
AcDbLine
 10
158.5202381094
 20
104.7076456519
 30
0.0
 11
159.5202382733
 21
105.7076458158
 31
0.0
  0
LINE
  5
151
330
1F
100
AcDbEntity
  8
0
  6
HIDDEN
 62
     7
370
     0
100
AcDbLine
 10
159.5202382733
 20
120.2076453986
 30
0.0
 11
158.5202381094
 21
121.2076455625
 31
0.0
  0
LINE
  5
152
330
1F
100
AcDbEntity
  8
0
  6
HIDDEN
 62
     7
370
     0
100
AcDbLine
 10
204.5202363361
 20
105.7076458158
 30
0.0
 11
205.2713144649
 21
106.957645555
 31
0.0
  0
LINE
  5
153
330
1F
100
AcDbEntity
  8
0
  6
HIDDEN
 62
     7
370
     0
100
AcDbLine
 10
205.2713144649
 20
118.9576456593
 30
0.0
 11
204.5202363361
 21
120.2076453986
 31
0.0
  0
LINE
  5
154
330
1F
100
AcDbEntity
  8
0
  6
HIDDEN
 62
     7
370
     0
100
AcDbLine
 10
159.5202382733
 20
105.7076458158
 30
0.0
 11
204.5202363361
 21
105.7076458158
 31
0.0
  0
LINE
  5
155
330
1F
100
AcDbEntity
  8
0
  6
HIDDEN
 62
     7
370
     0
100
AcDbLine
 10
204.5202363361
 20
120.2076453986
 30
0.0
 11
159.5202382733
 21
120.2076453986
 31
0.0
  0
ARC
  5
156
330
1F
100
AcDbEntity
  8
0
  6
HIDDEN
 62
     7
370
     0
100
AcDbCircle
 10
238.2202378859
 20
119.2576456072
 30
0.0
 40
0.2999999999999829
100
AcDbArc
 50
270.0
 51
0.0
  0
ARC
  5
157
330
1F
100
AcDbEntity
  8
0
  6
HIDDEN
 62
     7
370
     0
100
AcDbCircle
 10
238.2202378859
 20
106.6576456072
 30
0.0
 40
0.2999999999999972
100
AcDbArc
 50
0.0
 51
90.0
  0
LINE
  5
158
330
1F
100
AcDbEntity
  8
0
  6
HIDDEN
 62
     7
370
     0
100
AcDbLine
 10
207.0408869614
 20
118.9576456593
 30
0.0
 11
205.2713144649
 21
118.9576456593
 31
0.0
  0
LINE
  5
159
330
1F
100
AcDbEntity
  8
0
  6
HIDDEN
 62
     7
370
     0
100
AcDbLine
 10
217.0408848752
 20
118.9576456593
 30
0.0
 11
214.0169289042
 21
118.9576456593
 31
0.0
  0
LINE
  5
15A
330
1F
100
AcDbEntity
  8
0
  6
HIDDEN
 62
     7
370
     0
100
AcDbLine
 10
227.0408865143
 20
118.9576456593
 30
0.0
 11
224.016926818
 21
118.9576456593
 31
0.0
  0
LINE
  5
15B
330
1F
100
AcDbEntity
  8
0
  6
HIDDEN
 62
     7
370
     0
100
AcDbLine
 10
238.2202405561
 20
118.9576456593
 30
0.0
 11
234.0169284572
 21
118.9576456593
 31
0.0
  0
LINE
  5
15C
330
1F
100
AcDbEntity
  8
0
  6
HIDDEN
 62
     7
370
     0
100
AcDbLine
 10
234.0169284572
 20
106.957645555
 30
0.0
 11
238.2202405561
 21
106.957645555
 31
0.0
  0
LINE
  5
15D
330
1F
100
AcDbEntity
  8
0
  6
HIDDEN
 62
     7
370
     0
100
AcDbLine
 10
224.016926818
 20
106.957645555
 30
0.0
 11
227.0408865143
 21
106.957645555
 31
0.0
  0
LINE
  5
15E
330
1F
100
AcDbEntity
  8
0
  6
HIDDEN
 62
     7
370
     0
100
AcDbLine
 10
214.0169289042
 20
106.957645555
 30
0.0
 11
217.0408848752
 21
106.957645555
 31
0.0
  0
LINE
  5
15F
330
1F
100
AcDbEntity
  8
0
  6
HIDDEN
 62
     7
370
     0
100
AcDbLine
 10
205.2713144649
 20
106.957645555
 30
0.0
 11
207.0408869614
 21
106.957645555
 31
0.0
  0
LINE
  5
160
330
1F
100
AcDbEntity
  8
0
  6
HIDDEN
 62
     7
370
     0
100
AcDbLine
 10
235.0202385415
 20
94.957646382
 30
0.0
 11
234.0202365149
 21
95.9576446833
 31
0.0
  0
LINE
  5
161
330
1F
100
AcDbEntity
  8
0
  6
HIDDEN
 62
     7
370
     0
100
AcDbLine
 10
227.0202372302
 20
95.9576446833
 30
0.0
 11
226.0202389289
 21
94.957646382
 31
0.0
  0
LINE
  5
162
330
1F
100
AcDbEntity
  8
0
  6
HIDDEN
 62
     7
370
     0
100
AcDbLine
 10
225.0202369024
 20
94.957646382
 30
0.0
 11
224.0202386011
 21
95.9576446833
 31
0.0
  0
LINE
  5
163
330
1F
100
AcDbEntity
  8
0
  6
HIDDEN
 62
     7
370
     0
100
AcDbLine
 10
217.0202393164
 20
95.9576446833
 30
0.0
 11
216.0202372898
 21
94.957646382
 31
0.0
  0
LINE
  5
164
330
1F
100
AcDbEntity
  8
0
  6
HIDDEN
 62
     7
370
     0
100
AcDbLine
 10
215.0202389885
 20
94.957646382
 30
0.0
 11
214.020236962
 21
95.9576446833
 31
0.0
  0
LINE
  5
165
330
1F
100
AcDbEntity
  8
0
  6
HIDDEN
 62
     7
370
     0
100
AcDbLine
 10
207.0202376772
 20
95.9576446833
 30
0.0
 11
206.020239376
 21
94.957646382
 31
0.0
  0
LINE
  5
166
330
1F
100
AcDbEntity
  8
0
  6
HIDDEN
 62
     7
370
     0
100
AcDbLine
 10
226.0202389289
 20
130.9576448323
 30
0.0
 11
227.0202372302
 21
129.957646531
 31
0.0
  0
LINE
  5
167
330
1F
100
AcDbEntity
  8
0
  6
HIDDEN
 62
     7
370
     0
100
AcDbLine
 10
234.0202365149
 20
129.957646531
 30
0.0
 11
235.0202385415
 21
130.9576448323
 31
0.0
  0
LINE
  5
168
330
1F
100
AcDbEntity
  8
0
  6
HIDDEN
 62
     7
370
     0
100
AcDbLine
 10
206.020239376
 20
130.9576448323
 30
0.0
 11
207.0202376772
 21
129.957646531
 31
0.0
  0
LINE
  5
169
330
1F
100
AcDbEntity
  8
0
  6
HIDDEN
 62
     7
370
     0
100
AcDbLine
 10
214.020236962
 20
129.957646531
 30
0.0
 11
215.0202389885
 21
130.9576448323
 31
0.0
  0
LINE
  5
16A
330
1F
100
AcDbEntity
  8
0
  6
HIDDEN
 62
     7
370
     0
100
AcDbLine
 10
216.0202372898
 20
130.9576448323
 30
0.0
 11
217.0202393164
 21
129.957646531
 31
0.0
  0
LINE
  5
16B
330
1F
100
AcDbEntity
  8
0
  6
HIDDEN
 62
     7
370
     0
100
AcDbLine
 10
224.0202386011
 20
129.957646531
 30
0.0
 11
225.0202369024
 21
130.9576448323
 31
0.0
  0
LINE
  5
16C
330
1F
100
AcDbEntity
  8
0
  6
HIDDEN
 62
     7
370
     0
100
AcDbLine
 10
214.020236962
 20
95.9576446833
 30
0.0
 11
214.020236962
 21
106.9595617512
 31
0.0
  0
LINE
  5
16D
330
1F
100
AcDbEntity
  8
0
  6
HIDDEN
 62
     7
370
     0
100
AcDbLine
 10
207.0202376772
 20
106.9694072278
 30
0.0
 11
207.0202376772
 21
95.9576446833
 31
0.0
  0
LINE
  5
16E
330
1F
100
AcDbEntity
  8
0
  6
HIDDEN
 62
     7
370
     0
100
AcDbLine
 10
224.0202386011
 20
95.9576446833
 30
0.0
 11
224.0202386011
 21
106.9595617512
 31
0.0
  0
LINE
  5
16F
330
1F
100
AcDbEntity
  8
0
  6
HIDDEN
 62
     7
370
     0
100
AcDbLine
 10
217.0202393164
 20
106.9694072278
 30
0.0
 11
217.0202393164
 21
95.9576446833
 31
0.0
  0
LINE
  5
170
330
1F
100
AcDbEntity
  8
0
  6
HIDDEN
 62
     7
370
     0
100
AcDbLine
 10
234.0202365149
 20
95.9576446833
 30
0.0
 11
234.0202365149
 21
106.9595617512
 31
0.0
  0
LINE
  5
171
330
1F
100
AcDbEntity
  8
0
  6
HIDDEN
 62
     7
370
     0
100
AcDbLine
 10
227.0202372302
 20
106.9694072278
 30
0.0
 11
227.0202372302
 21
95.9576446833
 31
0.0
  0
LINE
  5
172
330
1F
100
AcDbEntity
  8
0
  6
HIDDEN
 62
     7
370
     0
100
AcDbLine
 10
227.0202372302
 20
129.957646531
 30
0.0
 11
227.0202372302
 21
118.9458839865
 31
0.0
  0
LINE
  5
173
330
1F
100
AcDbEntity
  8
0
  6
HIDDEN
 62
     7
370
     0
100
AcDbLine
 10
234.0202365149
 20
118.9557294631
 30
0.0
 11
234.0202365149
 21
129.957646531
 31
0.0
  0
LINE
  5
174
330
1F
100
AcDbEntity
  8
0
  6
HIDDEN
 62
     7
370
     0
100
AcDbLine
 10
217.0202393164
 20
129.957646531
 30
0.0
 11
217.0202393164
 21
118.9458839865
 31
0.0
  0
LINE
  5
175
330
1F
100
AcDbEntity
  8
0
  6
HIDDEN
 62
     7
370
     0
100
AcDbLine
 10
224.0202386011
 20
118.9557294631
 30
0.0
 11
224.0202386011
 21
129.957646531
 31
0.0
  0
LINE
  5
176
330
1F
100
AcDbEntity
  8
0
  6
HIDDEN
 62
     7
370
     0
100
AcDbLine
 10
207.0202376772
 20
129.957646531
 30
0.0
 11
207.0202376772
 21
118.9458839865
 31
0.0
  0
LINE
  5
177
330
1F
100
AcDbEntity
  8
0
  6
HIDDEN
 62
     7
370
     0
100
AcDbLine
 10
214.020236962
 20
118.9557294631
 30
0.0
 11
214.020236962
 21
129.957646531
 31
0.0
  0
LINE
  5
178
330
1F
100
AcDbEntity
  8
0
  6
HIDDEN
 62
     7
370
     0
100
AcDbLine
 10
157.9496130426
 20
96.7879522862
 30
0.0
 11
157.5702378605
 21
97.1673283996
 31
0.0
  0
LINE
  5
179
330
1F
100
AcDbEntity
  8
0
  6
HIDDEN
 62
     7
370
     0
100
AcDbLine
 10
151.4702379782
 20
97.1673283996
 30
0.0
 11
151.2442488302
 21
96.9413392516
 31
0.0
  0
LINE
  5
17A
330
1F
100
AcDbEntity
  8
0
  6
HIDDEN
 62
     7
370
     0
100
AcDbLine
 10
144.0202385266
 20
98.957645175
 30
0.0
 11
138.5202385564
 21
98.957645175
 31
0.0
  0
LINE
  5
17B
330
1F
100
AcDbEntity
  8
0
  6
HIDDEN
 62
     7
370
     0
100
AcDbLine
 10
145.8908762862
 20
97.0870074155
 30
0.0
 11
144.0202385266
 21
98.957645175
 31
0.0
  0
LINE
  5
17C
330
1F
100
AcDbEntity
  8
0
  6
HIDDEN
 62
     7
370
     0
100
AcDbLine
 10
157.5702378605
 20
123.4511774303
 30
0.0
 11
157.5702378605
 21
126.9576460393
 31
0.0
  0
LINE
  5
17D
330
1F
100
AcDbEntity
  8
0
  6
HIDDEN
 62
     7
370
     0
100
AcDbLine
 10
151.4702379782
 20
126.9576460393
 30
0.0
 11
151.4702379782
 21
123.4476402672
 31
0.0
  0
LINE
  5
17E
330
1F
100
AcDbEntity
  8
0
  6
HIDDEN
 62
     7
370
     0
100
AcDbLine
 10
157.5702378605
 20
97.1673283996
 30
0.0
 11
157.5702378605
 21
102.4676509472
 31
0.0
  0
LINE
  5
17F
330
1F
100
AcDbEntity
  8
0
  6
HIDDEN
 62
     7
370
     0
100
AcDbLine
 10
151.4702379782
 20
102.464113784
 30
0.0
 11
151.4702379782
 21
97.1673283996
 31
0.0
  0
LINE
  5
180
330
1F
100
AcDbEntity
  8
0
  6
HIDDEN
 62
     7
370
     0
100
AcDbLine
 10
157.5702378605
 20
126.9576460393
 30
0.0
 11
154.5202374537
 21
128.7902709367
 31
0.0
  0
LINE
  5
181
330
1F
100
AcDbEntity
  8
0
  6
HIDDEN
 62
     7
370
     0
100
AcDbLine
 10
154.5202374537
 20
128.7902709367
 30
0.0
 11
151.4702379782
 21
126.9576460393
 31
0.0
  0
LINE
  5
182
330
1F
100
AcDbEntity
  8
0
  6
HIDDEN
 62
     7
370
     0
100
AcDbLine
 10
182.520238318
 20
88.4576462479
 30
0.0
 11
180.5202379902
 21
89.6593671562
 31
0.0
  0
LINE
  5
183
330
1F
100
AcDbEntity
  8
0
  6
HIDDEN
 62
     7
370
     0
100
AcDbLine
 10
180.5202379902
 20
89.6593671562
 30
0.0
 11
178.5202376623
 21
88.4576462479
 31
0.0
  0
LINE
  5
184
330
1F
100
AcDbEntity
  8
0
  6
HIDDEN
 62
     7
370
     0
100
AcDbLine
 10
178.5202376623
 20
88.4576462479
 30
0.0
 11
178.5202376623
 21
87.9576452346
 31
0.0
  0
LINE
  5
185
330
1F
100
AcDbEntity
  8
0
  6
HIDDEN
 62
     7
370
     0
100
AcDbLine
 10
182.520238318
 20
87.9576452346
 30
0.0
 11
182.520238318
 21
88.4576462479
 31
0.0
  0
DIMENSION
  5
186
330
1F
100
AcDbEntity
  8
VERMASSUNG
100
AcDbDimension
  2
_D
 10
257.2980294215
 20
94.9576456072
 30
0.0
 11
257.2980294215
 21
112.463129182
 31
0.0
 70
   160
  1
%%c<>
 71
     2
 42
-1.0
  3
SLDDIMSTYLE0
100
AcDbAlignedDimension
 13
237.5202378859
 23
130.9576456072
 33
0.0
 14
237.5202378859
 24
94.9576456072
 34
0.0
 50
90.0
100
AcDbRotatedDimension
  0
DIMENSION
  5
192
330
1F
100
AcDbEntity
  8
VERMASSUNG
100
AcDbDimension
  2
_D_1
 10
248.5202378859
 20
106.9576456072
 30
0.0
 11
248.5202378859
 21
112.463129182
 31
0.0
 70
   160
  1
%%c<>
 71
     2
 42
-1.0
  3
SLDDIMSTYLE0
100
AcDbAlignedDimension
 13
238.2202378859
 23
118.9576456072
 33
0.0
 14
238.2202378859
 24
106.9576456072
 34
0.0
 50
90.0
100
AcDbRotatedDimension
  0
DIMENSION
  5
19D
330
1F
100
AcDbEntity
  8
VERMASSUNG
100
AcDbDimension
  2
_D_2
 10
238.5202378859
 20
144.3790736004
 30
0.0
 11
207.1894245022
 21
144.3790736004
 31
0.0
 70
   160
  1
<>
 71
     2
 42
-1.0
  3
SLDDIMSTYLE0
100
AcDbAlignedDimension
 13
168.5202378859
 23
137.6576456072
 33
0.0
 14
238.5202378859
 24
129.9576456072
 34
0.0
100
AcDbRotatedDimension
  0
DIMENSION
  5
1A7
330
1F
100
AcDbEntity
  8
VERMASSUNG
100
AcDbDimension
  2
_D_3
 10
238.5202378859
 20
152.3131798496
 30
0.0
 11
194.1051089334
 21
152.3131798496
 31
0.0
 70
   160
  1
<>
 71
     2
 42
-1.0
  3
SLDDIMSTYLE0
100
AcDbAlignedDimension
 13
138.5202378859
 23
128.8982205263
 33
0.0
 14
238.5202378859
 24
129.9576456072
 34
0.0
100
AcDbRotatedDimension
  0
DIMENSION
  5
1B1
330
1F
100
AcDbEntity
  8
VERMASSUNG
100
AcDbDimension
  2
_D_4
 10
128.5202378859
 20
87.9576456072
 30
0.0
 11
128.5202378859
 21
112.463129182
 31
0.0
 70
   160
  1
PSC%%c<>
 71
     2
 42
-1.0
  3
SLDDIMSTYLE0
100
AcDbAlignedDimension
 13
168.8202378859
 23
137.9576456072
 33
0.0
 14
168.8202378859
 24
87.9576456072
 34
0.0
 50
90.0
100
AcDbRotatedDimension
  0
LINE
  5
1BD
330
1F
100
AcDbEntity
  8
VERMASSUNG
  6
CENTERX2
370
     0
100
AcDbLine
 10
135.8623078689
 20
112.9576456072
 30
0.0
 11
241.2087170635
 21
112.9576456072
 31
0.0
  0
LINE
  5
1BE
330
1F
100
AcDbEntity
  8
0
  6
Continuous
 62
     7
370
    15
100
AcDbLine
 10
93.2981175385
 20
108.9576454172
 30
0.0
 11
93.6967776171
 21
109.6481456691
 31
0.0
  0
LINE
  5
1BF
330
1F
100
AcDbEntity
  8
0
  6
Continuous
 62
     7
370
    15
100
AcDbLine
 10
93.6967776171
 20
116.2671455452
 30
0.0
 11
93.2981175385
 21
116.9576457972
 31
0.0
  0
LINE
  5
1C0
330
1F
100
AcDbEntity
  8
0
  6
Continuous
 62
     7
370
    15
100
AcDbLine
 10
93.2981175385
 20
116.9576457972
 30
0.0
 11
93.2467066697
 21
116.9576457972
 31
0.0
  0
LINE
  5
1C1
330
1F
100
AcDbEntity
  8
0
  6
Continuous
 62
     7
370
    15
100
AcDbLine
 10
93.2467066697
 20
108.9576454172
 30
0.0
 11
93.2981175385
 21
108.9576454172
 31
0.0
  0
LINE
  5
1C2
330
1F
100
AcDbEntity
  8
0
  6
Continuous
 62
     7
370
    15
100
AcDbLine
 10
71.696778202
 20
130.5589847537
 30
0.0
 11
71.696778202
 21
130.5075738849
 31
0.0
  0
LINE
  5
1C3
330
1F
100
AcDbEntity
  8
0
  6
Continuous
 62
     7
370
    15
100
AcDbLine
 10
79.696778582
 20
130.5075738849
 30
0.0
 11
79.696778582
 21
130.5589847537
 31
0.0
  0
LINE
  5
1C4
330
1F
100
AcDbEntity
  8
0
  6
Continuous
 62
     7
370
    15
100
AcDbLine
 10
79.696778582
 20
130.5589847537
 30
0.0
 11
79.00627833
 21
130.9576448323
 31
0.0
  0
LINE
  5
1C5
330
1F
100
AcDbEntity
  8
0
  6
Continuous
 62
     7
370
    15
100
AcDbLine
 10
72.3872784539
 20
130.9576448323
 30
0.0
 11
71.696778202
 21
130.5589847537
 31
0.0
  0
LINE
  5
1C6
330
1F
100
AcDbEntity
  8
0
  6
Continuous
 62
     7
370
    15
100
AcDbLine
 10
71.696778202
 20
95.3563064607
 30
0.0
 11
72.3872784539
 21
94.957646382
 31
0.0
  0
LINE
  5
1C7
330
1F
100
AcDbEntity
  8
0
  6
Continuous
 62
     7
370
    15
100
AcDbLine
 10
79.00627833
 20
94.957646382
 30
0.0
 11
79.696778582
 21
95.3563064607
 31
0.0
  0
LINE
  5
1C8
330
1F
100
AcDbEntity
  8
0
  6
Continuous
 62
     7
370
    15
100
AcDbLine
 10
79.696778582
 20
95.3563064607
 30
0.0
 11
79.696778582
 21
95.4077173294
 31
0.0
  0
LINE
  5
1C9
330
1F
100
AcDbEntity
  8
0
  6
Continuous
 62
     7
370
    15
100
AcDbLine
 10
71.696778202
 20
95.4077173294
 30
0.0
 11
71.696778202
 21
95.3563064607
 31
0.0
  0
CIRCLE
  5
1CA
330
1F
100
AcDbEntity
  8
0
  6
Continuous
 62
     7
370
    15
100
AcDbCircle
 10
75.696778392
 20
112.9576456072
 30
0.0
 40
18.00000000000001
  0
CIRCLE
  5
1CB
330
1F
100
AcDbEntity
  8
0
  6
Continuous
 62
     7
370
    15
100
AcDbCircle
 10
75.696778392
 20
112.9576456072
 30
0.0
 40
6.0
  0
CIRCLE
  5
1CC
330
1F
100
AcDbEntity
  8
0
  6
Continuous
 62
     7
370
    15
100
AcDbCircle
 10
75.696778392
 20
112.9576456072
 30
0.0
 40
25.00000000000001
  0
LINE
  5
1CD
330
1F
100
AcDbEntity
  8
0
  6
Continuous
 62
     7
370
    15
100
AcDbLine
 10
93.6967776171
 20
116.2671455452
 30
0.0
 11
93.6967776171
 21
109.6481456691
 31
0.0
  0
LINE
  5
1CE
330
1F
100
AcDbEntity
  8
0
  6
Continuous
 62
     7
370
    15
100
AcDbLine
 10
93.2981175385
 20
116.9576457972
 30
0.0
 11
93.2981175385
 21
116.7249846542
 31
0.0
  0
LINE
  5
1CF
330
1F
100
AcDbEntity
  8
0
  6
Continuous
 62
     7
370
    15
100
AcDbLine
 10
93.2981175385
 20
109.1903065601
 30
0.0
 11
93.2981175385
 21
108.9576454172
 31
0.0
  0
LINE
  5
1D0
330
1F
100
AcDbEntity
  8
0
  6
Continuous
 62
     7
370
    15
100
AcDbLine
 10
71.696778202
 20
130.5589847537
 30
0.0
 11
71.9294393449
 21
130.5589847537
 31
0.0
  0
LINE
  5
1D1
330
1F
100
AcDbEntity
  8
0
  6
Continuous
 62
     7
370
    15
100
AcDbLine
 10
79.464117439
 20
130.5589847537
 30
0.0
 11
79.696778582
 21
130.5589847537
 31
0.0
  0
LINE
  5
1D2
330
1F
100
AcDbEntity
  8
0
  6
Continuous
 62
     7
370
    15
100
AcDbLine
 10
72.3872784539
 20
130.9576448323
 30
0.0
 11
79.00627833
 21
130.9576448323
 31
0.0
  0
LINE
  5
1D3
330
1F
100
AcDbEntity
  8
0
  6
Continuous
 62
     7
370
    15
100
AcDbLine
 10
79.00627833
 20
94.957646382
 30
0.0
 11
72.3872784539
 21
94.957646382
 31
0.0
  0
LINE
  5
1D4
330
1F
100
AcDbEntity
  8
0
  6
Continuous
 62
     7
370
    15
100
AcDbLine
 10
79.696778582
 20
95.3563064607
 30
0.0
 11
79.464117439
 21
95.3563064607
 31
0.0
  0
LINE
  5
1D5
330
1F
100
AcDbEntity
  8
0
  6
Continuous
 62
     7
370
    15
100
AcDbLine
 10
71.9294393449
 20
95.3563064607
 30
0.0
 11
71.696778202
 21
95.3563064607
 31
0.0
  0
LINE
  5
1D6
330
1F
100
AcDbEntity
  8
0
  6
HIDDEN
 62
     7
370
     0
100
AcDbLine
 10
92.6967793159
 20
109.4576454991
 30
0.0
 11
92.6967793159
 21
116.4576457152
 31
0.0
  0
SPLINE
  5
1D7
330
1F
100
AcDbEntity
  8
0
  6
HIDDEN
 62
     7
370
     0
100
AcDbSpline
210
0.0
220
0.0
230
1.0
 70
     8
 71
     3
 72
    75
 73
    71
 74
     0
 42
0.00000001
 43
0.00000001
 12
1.0
 22
0.0
 32
0.0
 13
1.0
 23
0.0
 33
0.0
 40
-0.0312500000000002
 40
-0.0312500000000002
 40
0.0
 40
0.0
 40
0.0312499999999996
 40
0.0312499999999996
 40
0.0624999999999992
 40
0.0624999999999992
 40
0.0937499999999988
 40
0.0937499999999988
 40
0.1093749999999987
 40
0.1093749999999987
 40
0.1249999999999985
 40
0.1406249999999984
 40
0.1406249999999984
 40
0.1562499999999983
 40
0.1562499999999983
 40
0.1874999999999982
 40
0.1874999999999982
 40
0.2187499999999981
 40
0.2187499999999981
 40
0.2499999999999981
 40
0.2499999999999981
 40
0.281249999999998
 40
0.281249999999998
 40
0.3124999999999979
 40
0.3124999999999979
 40
0.3437499999999978
 40
0.3437499999999978
 40
0.3749999999999977
 40
0.3749999999999977
 40
0.4062499999999977
 40
0.4062499999999977
 40
0.4374999999999976
 40
0.4374999999999976
 40
0.4687499999999975
 40
0.4687499999999975
 40
0.4999999999999974
 40
0.4999999999999974
 40
0.5312499999999973
 40
0.5312499999999973
 40
0.5624999999999973
 40
0.5624999999999973
 40
0.5937499999999972
 40
0.5937499999999972
 40
0.6249999999999971
 40
0.6249999999999971
 40
0.6406249999999971
 40
0.6406249999999971
 40
0.6562499999999972
 40
0.6562499999999972
 40
0.6874999999999974
 40
0.6874999999999974
 40
0.7187499999999977
 40
0.7187499999999977
 40
0.7499999999999979
 40
0.7499999999999979
 40
0.7812499999999982
 40
0.7812499999999982
 40
0.8124999999999984
 40
0.8124999999999984
 40
0.8437499999999987
 40
0.8437499999999987
 40
0.874999999999999
 40
0.874999999999999
 40
0.9062499999999992
 40
0.9062499999999992
 40
0.9374999999999994
 40
0.9374999999999994
 40
0.9687499999999998
 40
0.9687499999999998
 40
1.0
 40
1.0
 40
1.03125
 40
1.03125
 10
93.41795433562112
 20
109.7965458681654
 30
0.0
 10
93.47782194297665
 20
110.1528071763538
 30
0.0
 10
93.50807600224834
 20
110.349045219871
 30
0.0
 10
93.56580307869046
 20
110.7793262348317
 30
0.0
 10
93.59346527410827
 20
111.0159821410311
 30
0.0
 10
93.64015067025186
 20
111.5095953124533
 30
0.0
 10
93.65949264431269
 20
111.7682030640856
 30
0.0
 10
93.68028542117798
 20
112.1753770154189
 30
0.0
 10
93.68583279653171
 20
112.3148392243759
 30
0.0
 10
93.69360849961008
 20
112.5924237948725
 30
0.0
 10
93.69818489338435
 20
112.8705378430306
 30
0.0
 10
93.69629725656294
 20
113.1497000166332
 30
0.0
 10
93.69113903294598
 20
113.4293969988242
 30
0.0
 10
93.68688133190666
 20
113.5700810111466
 30
0.0
 10
93.66971167352023
 20
113.9819467879412
 30
0.0
 10
93.65240269082068
 20
114.2464472213597
 30
0.0
 10
93.60852068550581
 20
114.7562399394686
 30
0.0
 10
93.58227037249122
 20
114.997084599183
 30
0.0
 10
93.52600546421705
 20
115.4413518687246
 30
0.0
 10
93.49549513099313
 20
115.6485013804518
 30
0.0
 10
93.4357011027769
 20
116.0179794792507
 30
0.0
 10
93.40633762308993
 20
116.1814270669884
 30
0.0
 10
93.35179554392182
 20
116.4678627550827
 30
0.0
 10
93.32684933298403
 20
116.5895303031617
 30
0.0
 10
93.28543394804385
 20
116.7850707938926
 30
0.0
 10
93.26870554347582
 20
116.8602407735509
 30
0.0
 10
93.24515246180947
 20
116.9648192190157
 30
0.0
 10
93.23864529303167
 20
116.9928567429926
 30
0.0
 10
93.23647927167562
 20
117.0022613288033
 30
0.0
 10
93.24082495459119
 20
116.983606310128
 30
0.0
 10
93.26026465019908
 20
116.8979349150991
 30
0.0
 10
93.27508996569466
 20
116.8320673635375
 30
0.0
 10
93.31314041118347
 20
116.6552084446576
 30
0.0
 10
93.33652875083905
 20
116.5434553931425
 30
0.0
 10
93.3891406391552
 20
116.2741411459539
 30
0.0
 10
93.4177994498009
 20
116.1194400341794
 30
0.0
 10
93.47672696049808
 20
115.7692217187576
 30
0.0
 10
93.50731161902384
 20
115.5715202175025
 30
0.0
 10
93.56534219960747
 20
115.1398146572021
 30
0.0
 10
93.59237808281092
 20
114.9092121325822
 30
0.0
 10
93.63921938947091
 20
114.4170671532396
 30
0.0
 10
93.65919314378502
 20
114.1513703659132
 30
0.0
 10
93.68697229450571
 20
113.6105206832936
 30
0.0
 10
93.69502265460486
 20
113.3348303668521
 30
0.0
 10
93.69727222610705
 20
112.9130591982759
 30
0.0
 10
93.69635033986397
 20
112.7705953972567
 30
0.0
 10
93.69126731265838
 20
112.4907981249433
 30
0.0
 10
93.68712403869317
 20
112.3525102603448
 30
0.0
 10
93.67020465774148
 20
111.9423380809372
 30
0.0
 10
93.65262091796272
 20
111.6720267062785
 30
0.0
 10
93.60896849012451
 20
111.1636158793926
 30
0.0
 10
93.58303729301775
 20
110.9246763245208
 30
0.0
 10
93.52626812587725
 20
110.4756066453493
 30
0.0
 10
93.49605418657467
 20
110.2704896619042
 30
0.0
 10
93.43633375202027
 20
109.9009805103229
 30
0.0
 10
93.40642645125494
 20
109.7343580832595
 30
0.0
 10
93.35194348949854
 20
109.4481780942077
 30
0.0
 10
93.32727993838996
 20
109.3278314826461
 30
0.0
 10
93.28557490463925
 20
109.1308489581669
 30
0.0
 10
93.26860397621488
 20
109.0546001287933
 30
0.0
 10
93.24527557732318
 20
108.9510179847112
 30
0.0
 10
93.2386820766386
 20
108.9225942159822
 30
0.0
 10
93.23645522491638
 20
108.9129254428669
 30
0.0
 10
93.24094827466688
 20
108.9322270295554
 30
0.0
 10
93.2601961409166
 20
109.0170557307782
 30
0.0
 10
93.27492404199931
 20
109.082448216383
 30
0.0
 10
93.31338338867064
 20
109.2612165599094
 30
0.0
 10
93.33698654822038
 20
109.3741297871165
 30
0.0
 10
93.38916570844258
 20
109.6413283014315
 30
0.0
 10
93.41795433562112
 20
109.7965458681654
 30
0.0
 10
93.47782194297665
 20
110.1528071763538
 30
0.0
  0
LINE
  5
1D8
330
1F
100
AcDbEntity
  8
0
  6
HIDDEN
 62
     7
370
     0
100
AcDbLine
 10
79.1967785
 20
129.957646531
 30
0.0
 11
72.196778284
 21
129.957646531
 31
0.0
  0
SPLINE
  5
1D9
330
1F
100
AcDbEntity
  8
0
  6
HIDDEN
 62
     7
370
     0
100
AcDbSpline
210
0.0
220
0.0
230
1.0
 70
     8
 71
     3
 72
    75
 73
    71
 74
     0
 42
0.00000001
 43
0.00000001
 12
1.0
 22
0.0
 32
0.0
 13
1.0
 23
0.0
 33
0.0
 40
-0.0312499999999999
 40
-0.0312499999999999
 40
0.0
 40
0.0
 40
0.0312499999999992
 40
0.0312499999999992
 40
0.0624999999999984
 40
0.0624999999999984
 40
0.0937499999999976
 40
0.0937499999999976
 40
0.1093749999999973
 40
0.1093749999999973
 40
0.1249999999999971
 40
0.1406249999999968
 40
0.1406249999999968
 40
0.1562499999999965
 40
0.1562499999999965
 40
0.1874999999999961
 40
0.1874999999999961
 40
0.2187499999999957
 40
0.2187499999999957
 40
0.2499999999999953
 40
0.2499999999999953
 40
0.2812499999999949
 40
0.2812499999999949
 40
0.3124999999999944
 40
0.3124999999999944
 40
0.3437499999999941
 40
0.3437499999999941
 40
0.3749999999999937
 40
0.3749999999999937
 40
0.4062499999999933
 40
0.4062499999999933
 40
0.4374999999999936
 40
0.4374999999999936
 40
0.468749999999994
 40
0.468749999999994
 40
0.4999999999999943
 40
0.4999999999999943
 40
0.5312499999999947
 40
0.5312499999999947
 40
0.562499999999995
 40
0.562499999999995
 40
0.5937499999999953
 40
0.5937499999999953
 40
0.6249999999999956
 40
0.6249999999999956
 40
0.6406249999999958
 40
0.6406249999999958
 40
0.6562499999999959
 40
0.6562499999999959
 40
0.6874999999999966
 40
0.6874999999999966
 40
0.7187499999999972
 40
0.7187499999999972
 40
0.7499999999999979
 40
0.7499999999999979
 40
0.7812499999999986
 40
0.7812499999999986
 40
0.8124999999999992
 40
0.8124999999999992
 40
0.8437499999999999
 40
0.8437499999999999
 40
0.8750000000000004
 40
0.8750000000000004
 40
0.9062500000000003
 40
0.9062500000000003
 40
0.9375000000000002
 40
0.9375000000000002
 40
0.9687500000000001
 40
0.9687500000000001
 40
1.0
 40
1.0
 40
1.031249999999999
 40
1.031249999999999
 10
78.85787813099894
 20
130.6788215508035
 30
0.0
 10
78.50161682281052
 20
130.738689158159
 30
0.0
 10
78.30537877929332
 20
130.7689432174307
 30
0.0
 10
77.87509776433257
 20
130.8266702938728
 30
0.0
 10
77.63844185813316
 20
130.8543324892906
 30
0.0
 10
77.14482868671097
 20
130.9010178854342
 30
0.0
 10
76.88622093507867
 20
130.9203598594951
 30
0.0
 10
76.47904698374543
 20
130.9411526363604
 30
0.0
 10
76.33958477478845
 20
130.9467000117141
 30
0.0
 10
76.0620001918406
 20
130.9544756461609
 30
0.0
 10
75.78388615613372
 20
130.9590521085668
 30
0.0
 10
75.50472398253108
 20
130.9571644717454
 30
0.0
 10
75.22502700034008
 20
130.9520062481284
 30
0.0
 10
75.08434298801767
 20
130.9477485470891
 30
0.0
 10
74.67247721122312
 20
130.9305788887026
 30
0.0
 10
74.40797677780456
 20
130.9132699060031
 30
0.0
 10
73.89818405969568
 20
130.8693879006882
 30
0.0
 10
73.65733939998135
 20
130.8431375876736
 30
0.0
 10
73.2130721304397
 20
130.7868726793995
 30
0.0
 10
73.00592261871246
 20
130.7563623461755
 30
0.0
 10
72.63644451991361
 20
130.6965683179593
 30
0.0
 10
72.47299693217592
 20
130.6672048382723
 30
0.0
 10
72.18656124408162
 20
130.6126627591042
 30
0.0
 10
72.06489369600257
 20
130.5877165481664
 30
0.0
 10
71.86935320527172
 20
130.5463011632263
 30
0.0
 10
71.79418322561338
 20
130.5295727586582
 30
0.0
 10
71.68960478014858
 20
130.5060196769919
 30
0.0
 10
71.66156725617174
 20
130.4995125082141
 30
0.0
 10
71.65216267036104
 20
130.4973464868581
 30
0.0
 10
71.67081768903635
 20
130.5016921697736
 30
0.0
 10
71.75648908406517
 20
130.5211318653815
 30
0.0
 10
71.82235663562675
 20
130.5359571808771
 30
0.0
 10
71.99921555450668
 20
130.5740076263659
 30
0.0
 10
72.11096860602177
 20
130.5973959660215
 30
0.0
 10
72.38028285321036
 20
130.6500078543376
 30
0.0
 10
72.53498396498493
 20
130.6786666649833
 30
0.0
 10
72.88520228040672
 20
130.7375941756805
 30
0.0
 10
73.08290378166186
 20
130.7681788342063
 30
0.0
 10
73.51460934196224
 20
130.8262094147899
 30
0.0
 10
73.74521186658212
 20
130.8532452979933
 30
0.0
 10
74.23735684592475
 20
130.9000866046533
 30
0.0
 10
74.50305363325106
 20
130.9200603589674
 30
0.0
 10
75.04390331587066
 20
130.9478395096881
 30
0.0
 10
75.3195936323122
 20
130.9558898697872
 30
0.0
 10
75.74136480088839
 20
130.9581394412895
 30
0.0
 10
75.88382860190758
 20
130.9572175550464
 30
0.0
 10
76.16362587422105
 20
130.9521345278408
 30
0.0
 10
76.30191373881947
 20
130.9479912538756
 30
0.0
 10
76.71208591822707
 20
130.9310718729239
 30
0.0
 10
76.98239729288582
 20
130.9134881331451
 30
0.0
 10
77.49080811977171
 20
130.8698357053069
 30
0.0
 10
77.72974767464349
 20
130.8439045082001
 30
0.0
 10
78.17881735381503
 20
130.7871353410596
 30
0.0
 10
78.38393433726011
 20
130.756921401757
 30
0.0
 10
78.75344348884141
 20
130.6972009672026
 30
0.0
 10
78.92006591590479
 20
130.6672936664373
 30
0.0
 10
79.20624590495665
 20
130.6128107046809
 30
0.0
 10
79.3265925165182
 20
130.5881471535723
 30
0.0
 10
79.52357504099736
 20
130.5464421198216
 30
0.0
 10
79.59982387037105
 20
130.5294711913972
 30
0.0
 10
79.70340601445312
 20
130.5061427925055
 30
0.0
 10
79.73182978318212
 20
130.499549291821
 30
0.0
 10
79.7414985562974
 20
130.4973224400987
 30
0.0
 10
79.72219696960887
 20
130.5018154898492
 30
0.0
 10
79.63736826838613
 20
130.5210633560989
 30
0.0
 10
79.5719757827813
 20
130.5357912571817
 30
0.0
 10
79.39320743925485
 20
130.574250603853
 30
0.0
 10
79.28029421204782
 20
130.5978537634028
 30
0.0
 10
79.01309569773275
 20
130.6500329236249
 30
0.0
 10
78.85787813099894
 20
130.6788215508035
 30
0.0
 10
78.50161682281052
 20
130.738689158159
 30
0.0
  0
LINE
  5
1DA
330
1F
100
AcDbEntity
  8
0
  6
HIDDEN
 62
     7
370
     0
100
AcDbLine
 10
72.196778284
 20
95.9576446833
 30
0.0
 11
79.1967785
 21
95.9576446833
 31
0.0
  0
SPLINE
  5
1DB
330
1F
100
AcDbEntity
  8
0
  6
HIDDEN
 62
     7
370
     0
100
AcDbSpline
210
0.0
220
0.0
230
1.0
 70
     8
 71
     3
 72
    75
 73
    71
 74
     0
 42
0.00000001
 43
0.00000001
 12
1.0
 22
0.0
 32
0.0
 13
1.0
 23
0.0
 33
0.0
 40
-0.03125
 40
-0.03125
 40
0.0
 40
0.0
 40
0.0312499999999992
 40
0.0312499999999992
 40
0.0624999999999984
 40
0.0624999999999984
 40
0.0937499999999976
 40
0.0937499999999976
 40
0.1093749999999972
 40
0.1093749999999972
 40
0.1249999999999969
 40
0.1406249999999966
 40
0.1406249999999966
 40
0.1562499999999963
 40
0.1562499999999963
 40
0.1874999999999958
 40
0.1874999999999958
 40
0.2187499999999954
 40
0.2187499999999954
 40
0.2499999999999949
 40
0.2499999999999949
 40
0.2812499999999944
 40
0.2812499999999944
 40
0.312499999999994
 40
0.312499999999994
 40
0.3437499999999935
 40
0.3437499999999935
 40
0.374999999999993
 40
0.374999999999993
 40
0.4062499999999926
 40
0.4062499999999926
 40
0.4374999999999928
 40
0.4374999999999928
 40
0.4687499999999932
 40
0.4687499999999932
 40
0.4999999999999934
 40
0.4999999999999934
 40
0.5312499999999938
 40
0.5312499999999938
 40
0.562499999999994
 40
0.562499999999994
 40
0.5937499999999943
 40
0.5937499999999943
 40
0.6249999999999947
 40
0.6249999999999947
 40
0.6406249999999948
 40
0.6406249999999948
 40
0.6562499999999949
 40
0.6562499999999949
 40
0.6874999999999957
 40
0.6874999999999957
 40
0.7187499999999964
 40
0.7187499999999964
 40
0.7499999999999971
 40
0.7499999999999971
 40
0.7812499999999979
 40
0.7812499999999979
 40
0.8124999999999987
 40
0.8124999999999987
 40
0.8437499999999994
 40
0.8437499999999994
 40
0.8750000000000001
 40
0.8750000000000001
 40
0.9062500000000001
 40
0.9062500000000001
 40
0.9375000000000001
 40
0.9375000000000001
 40
0.96875
 40
0.96875
 40
1.0
 40
1.0
 40
1.031249999999999
 40
1.031249999999999
 10
72.53567865298291
 20
95.23646966354302
 30
0.0
 10
72.89193996117133
 20
95.17660205618748
 30
0.0
 10
73.08817800468853
 20
95.14634799691578
 30
0.0
 10
73.51845901964928
 20
95.08862092047369
 30
0.0
 10
73.75511492584869
 20
95.06095872505587
 30
0.0
 10
74.24872809727088
 20
95.01427332891225
 30
0.0
 10
74.50733584890318
 20
94.99493135485142
 30
0.0
 10
74.91450980023643
 20
94.97413857798614
 30
0.0
 10
75.05397200919342
 20
94.96859120263241
 30
0.0
 10
75.33155657969003
 20
94.96081549955406
 30
0.0
 10
75.60967062784813
 20
94.95623910577974
 30
0.0
 10
75.88883280145077
 20
94.95812674260117
 30
0.0
 10
76.16852978364177
 20
94.96328496621814
 30
0.0
 10
76.30921379596418
 20
94.96754266725746
 30
0.0
 10
76.72107957275873
 20
94.9847123256439
 30
0.0
 10
76.9855800061773
 20
95.00202130834344
 30
0.0
 10
77.49537272428617
 20
95.04590331365831
 30
0.0
 10
77.7362173840005
 20
95.07215362667289
 30
0.0
 10
78.18048465354215
 20
95.12841853494706
 30
0.0
 10
78.38763416526939
 20
95.15892886817099
 30
0.0
 10
78.75711226406824
 20
95.21872289638719
 30
0.0
 10
78.92055985180595
 20
95.2480863760742
 30
0.0
 10
79.20699553990023
 20
95.30262845524229
 30
0.0
 10
79.3286630879793
 20
95.32757466618008
 30
0.0
 10
79.52420357871014
 20
95.36899005112029
 30
0.0
 10
79.59937355836847
 20
95.3857184556883
 30
0.0
 10
79.70395200383327
 20
95.40927153735466
 30
0.0
 10
79.73198952781011
 20
95.41577870613244
 30
0.0
 10
79.74139411362081
 20
95.41794472748849
 30
0.0
 10
79.72273909494551
 20
95.41359904457292
 30
0.0
 10
79.63706769991668
 20
95.39415934896503
 30
0.0
 10
79.57120014835509
 20
95.37933403346946
 30
0.0
 10
79.39434122947516
 20
95.34128358798064
 30
0.0
 10
79.28258817796006
 20
95.31789524832506
 30
0.0
 10
79.01327393077149
 20
95.26528336000892
 30
0.0
 10
78.85857281899692
 20
95.23662454936321
 30
0.0
 10
78.50835450357512
 20
95.17769703866603
 30
0.0
 10
78.31065300232
 20
95.14711238014027
 30
0.0
 10
77.87894744201961
 20
95.08908179955665
 30
0.0
 10
77.64834491739973
 20
95.06204591635318
 30
0.0
 10
77.1561999380571
 20
95.0152046096932
 30
0.0
 10
76.8905031507308
 20
94.99523085537909
 30
0.0
 10
76.34965346811117
 20
94.96745170465843
 30
0.0
 10
76.07396315166964
 20
94.95940134455927
 30
0.0
 10
75.65219198309346
 20
94.95715177305708
 30
0.0
 10
75.50972818207426
 20
94.95807365930014
 30
0.0
 10
75.2299309097608
 20
94.96315668650574
 30
0.0
 10
75.09164304516237
 20
94.96729996047095
 30
0.0
 10
74.68147086575478
 20
94.98421934142264
 30
0.0
 10
74.41115949109602
 20
95.00180308120139
 30
0.0
 10
73.90274866421014
 20
95.04545550903961
 30
0.0
 10
73.66380910933836
 20
95.07138670614636
 30
0.0
 10
73.21473943016682
 20
95.12815587328689
 30
0.0
 10
73.00962244672174
 20
95.15836981258946
 30
0.0
 10
72.64011329514044
 20
95.21809024714385
 30
0.0
 10
72.47349086807705
 20
95.2479975479092
 30
0.0
 10
72.1873108790252
 20
95.3024805096656
 30
0.0
 10
72.06696426746365
 20
95.32714406077416
 30
0.0
 10
71.86998174298448
 20
95.36884909452489
 30
0.0
 10
71.7937329136108
 20
95.38582002294926
 30
0.0
 10
71.69015076952874
 20
95.40914842184097
 30
0.0
 10
71.66172700079973
 20
95.41574192252554
 30
0.0
 10
71.65205822768445
 20
95.41796877424774
 30
0.0
 10
71.67135981437298
 20
95.41347572449726
 30
0.0
 10
71.75618851559572
 20
95.39422785824753
 30
0.0
 10
71.82158100120056
 20
95.37949995716481
 30
0.0
 10
72.00034934472698
 20
95.3410406104935
 30
0.0
 10
72.11326257193403
 20
95.31743745094376
 30
0.0
 10
72.38046108624908
 20
95.26525829072155
 30
0.0
 10
72.53567865298291
 20
95.23646966354302
 30
0.0
 10
72.89193996117133
 20
95.17660205618748
 30
0.0
  0
SPLINE
  5
1DC
330
1F
100
AcDbEntity
  8
0
  6
HIDDEN
 62
     7
370
     0
100
AcDbSpline
210
0.0
220
0.0
230
1.0
 70
    11
 71
     3
 72
    66
 73
    62
 74
     0
 42
0.00000001
 43
0.00000001
 12
1.0
 22
0.0
 32
0.0
 13
1.0
 23
0.0
 33
0.0
 40
-0.0312499999999982
 40
-0.0312499999999982
 40
0.0
 40
0.0
 40
0.0312500000000008
 40
0.0312500000000008
 40
0.0625000000000016
 40
0.0625000000000016
 40
0.1250000000000024
 40
0.1250000000000024
 40
0.1562500000000024
 40
0.1562500000000024
 40
0.1875000000000025
 40
0.1875000000000025
 40
0.2187500000000026
 40
0.2187500000000026
 40
0.2500000000000027
 40
0.2500000000000027
 40
0.2812500000000027
 40
0.2812500000000027
 40
0.3125000000000028
 40
0.3125000000000028
 40
0.3437500000000029
 40
0.3437500000000029
 40
0.375000000000003
 40
0.375000000000003
 40
0.4062500000000032
 40
0.4062500000000032
 40
0.4375000000000033
 40
0.4375000000000033
 40
0.4687500000000034
 40
0.4687500000000034
 40
0.5000000000000036
 40
0.5000000000000036
 40
0.5312500000000037
 40
0.5312500000000037
 40
0.5625000000000038
 40
0.5625000000000038
 40
0.593750000000004
 40
0.593750000000004
 40
0.6250000000000041
 40
0.6250000000000041
 40
0.6562500000000042
 40
0.6562500000000042
 40
0.6875000000000043
 40
0.6875000000000043
 40
0.7187500000000044
 40
0.7187500000000044
 40
0.7500000000000046
 40
0.7500000000000046
 40
0.7812500000000048
 40
0.7812500000000048
 40
0.8125000000000049
 40
0.8125000000000049
 40
0.8750000000000043
 40
0.8750000000000043
 40
0.9062500000000034
 40
0.9062500000000034
 40
0.9375000000000027
 40
0.9375000000000027
 40
0.9687500000000018
 40
0.9687500000000018
 40
1.0
 40
1.0
 40
1.031250000000001
 40
1.031250000000001
 10
80.57017556439534
 20
116.4576456071732
 30
0.0
 10
80.57017556439534
 20
116.4576456071732
 30
0.0
 10
80.58753544136698
 20
116.433798707342
 30
0.0
 10
80.65165546369892
 20
116.3417759380111
 30
0.0
 10
80.69910822455331
 20
116.2724048797194
 30
0.0
 10
80.86779512075763
 20
116.0079434853341
 30
0.0
 10
81.01728608878224
 20
115.7525216461429
 30
0.0
 10
81.23133576893687
 20
115.2811038481361
 30
0.0
 10
81.302331732947
 20
115.1063147202883
 30
0.0
 10
81.43149996347772
 20
114.7330260490736
 30
0.0
 10
81.48970227016333
 20
114.5351620162006
 30
0.0
 10
81.58802378849339
 20
114.1151224999185
 30
0.0
 10
81.62832727261865
 20
113.8899255332214
 30
0.0
 10
81.68212403330264
 20
113.4351972146661
 30
0.0
 10
81.6963315634054
 20
113.2040022496794
 30
0.0
 10
81.69720455932813
 20
112.7335570928061
 30
0.0
 10
81.68347709316143
 20
112.497161504839
 30
0.0
 10
81.63085136253707
 20
112.0414660792788
 30
0.0
 10
81.59134219701338
 20
111.8168074306382
 30
0.0
 10
81.49316338367132
 20
111.3926167816422
 30
0.0
 10
81.4348658005004
 20
111.1930067680264
 30
0.0
 10
81.30533636138908
 20
110.8166937524551
 30
0.0
 10
81.23478739149769
 20
110.6423860692517
 30
0.0
 10
81.09207966178512
 20
110.3269242964465
 30
0.0
 10
81.01882679168499
 20
110.1833870747121
 30
0.0
 10
80.87970410914693
 20
109.9314284001535
 30
0.0
 10
80.81470353434669
 20
109.8243032320306
 30
0.0
 10
80.70210876808382
 20
109.6474099616665
 30
0.0
 10
80.65411397603862
 20
109.5770961041069
 30
0.0
 10
80.58856898021705
 20
109.4829260679169
 30
0.0
 10
80.5707231145073
 20
109.4584080211592
 30
0.0
 10
80.56965288554008
 20
109.4569178240349
 30
0.0
 10
80.58663025169552
 20
109.4802260990632
 30
0.0
 10
80.65029693045733
 20
109.5715340120969
 30
0.0
 10
80.69756969603085
 20
109.6405715390072
 30
0.0
 10
80.80991510141764
 20
109.8165109346426
 30
0.0
 10
80.87554751872014
 20
109.9243327010651
 30
0.0
 10
81.01478081080238
 20
110.1756522340967
 30
0.0
 10
81.08726723254422
 20
110.3170865260449
 30
0.0
 10
81.23044232348609
 20
110.6320304854627
 30
0.0
 10
81.30171915354956
 20
110.807409644127
 30
0.0
 10
81.4307944539232
 20
111.1800248830418
 30
0.0
 10
81.4891907027199
 20
111.3781021002138
 30
0.0
 10
81.588080868862
 20
111.8002549238363
 30
0.0
 10
81.62833949479958
 20
112.025497760772
 30
0.0
 10
81.68209098048987
 20
112.4797858559291
 30
0.0
 10
81.69641216825197
 20
112.711632567155
 30
0.0
 10
81.69713081371886
 20
113.1854584254582
 30
0.0
 10
81.68335862127998
 20
113.4199195728244
 30
0.0
 10
81.63044141300229
 20
113.8766032852607
 30
0.0
 10
81.59061081255776
 20
114.1022245418605
 30
0.0
 10
81.44306957921776
 20
114.7379331540091
 30
0.0
 10
81.30465235446313
 20
115.1190992840037
 30
0.0
 10
81.09000772760544
 20
115.5926238665676
 30
0.0
 10
81.01624346089969
 20
115.7368182954908
 30
0.0
 10
80.87759181739428
 20
115.9874445612279
 30
0.0
 10
80.8126268547714
 20
116.0943757428182
 30
0.0
 10
80.69997169521534
 20
116.2711087816429
 30
0.0
 10
80.65216979235102
 20
116.3410287017411
 30
0.0
 10
80.58764971060614
 20
116.4336437142092
 30
0.0
 10
80.57017556439534
 20
116.4576456071732
 30
0.0
 10
80.57017556439534
 20
116.4576456071732
 30
0.0
  0
SPLINE
  5
1DD
330
1F
100
AcDbEntity
  8
0
  6
HIDDEN
 62
     7
370
     0
100
AcDbSpline
210
0.0
220
0.0
230
1.0
 70
    11
 71
     3
 72
    66
 73
    62
 74
     0
 42
0.00000001
 43
0.00000001
 12
1.0
 22
0.0
 32
0.0
 13
1.0
 23
0.0
 33
0.0
 40
-0.0312499999999982
 40
-0.0312499999999982
 40
0.0
 40
0.0
 40
0.0312500000000008
 40
0.0312500000000008
 40
0.0625000000000016
 40
0.0625000000000016
 40
0.1250000000000023
 40
0.1250000000000023
 40
0.1562500000000024
 40
0.1562500000000024
 40
0.1875000000000025
 40
0.1875000000000025
 40
0.2187500000000026
 40
0.2187500000000026
 40
0.2500000000000027
 40
0.2500000000000027
 40
0.2812500000000028
 40
0.2812500000000028
 40
0.3125000000000029
 40
0.3125000000000029
 40
0.343750000000003
 40
0.343750000000003
 40
0.3750000000000031
 40
0.3750000000000031
 40
0.4062500000000033
 40
0.4062500000000033
 40
0.4375000000000034
 40
0.4375000000000034
 40
0.4687500000000035
 40
0.4687500000000035
 40
0.5000000000000036
 40
0.5000000000000036
 40
0.5312500000000038
 40
0.5312500000000038
 40
0.5625000000000039
 40
0.5625000000000039
 40
0.593750000000004
 40
0.593750000000004
 40
0.6250000000000041
 40
0.6250000000000041
 40
0.6562500000000042
 40
0.6562500000000042
 40
0.6875000000000043
 40
0.6875000000000043
 40
0.7187500000000044
 40
0.7187500000000044
 40
0.7500000000000046
 40
0.7500000000000046
 40
0.7812500000000048
 40
0.7812500000000048
 40
0.8125000000000049
 40
0.8125000000000049
 40
0.8750000000000044
 40
0.8750000000000044
 40
0.9062500000000036
 40
0.9062500000000036
 40
0.9375000000000027
 40
0.9375000000000027
 40
0.9687500000000018
 40
0.9687500000000018
 40
1.0
 40
1.0
 40
1.031250000000001
 40
1.031250000000001
 10
79.19677839199085
 20
108.0842484347688
 30
0.0
 10
79.19677839199085
 20
108.0842484347688
 30
0.0
 10
79.17293149215955
 20
108.0668885577971
 30
0.0
 10
79.0809087228287
 20
108.0027685354652
 30
0.0
 10
79.01153766453695
 20
107.9553157746108
 30
0.0
 10
78.74707627015168
 20
107.7866288784065
 30
0.0
 10
78.4916544309605
 20
107.6371379103819
 30
0.0
 10
78.02023663295371
 20
107.4230882302272
 30
0.0
 10
77.84544750510585
 20
107.3520922662171
 30
0.0
 10
77.47215883389119
 20
107.2229240356864
 30
0.0
 10
77.27429480101821
 20
107.1647217290008
 30
0.0
 10
76.85425528473604
 20
107.0664002106707
 30
0.0
 10
76.62905831803894
 20
107.0260967265455
 30
0.0
 10
76.17432999948372
 20
106.9722999658615
 30
0.0
 10
75.943135034497
 20
106.9580924357587
 30
0.0
 10
75.47268987762368
 20
106.957219439836
 30
0.0
 10
75.23629428965658
 20
106.9709469060027
 30
0.0
 10
74.78059886409638
 20
107.0235726366271
 30
0.0
 10
74.55594021545583
 20
107.0630818021507
 30
0.0
 10
74.13174956645983
 20
107.1612606154928
 30
0.0
 10
73.932139552844
 20
107.2195581986637
 30
0.0
 10
73.55582653727268
 20
107.3490876377751
 30
0.0
 10
73.3815188540693
 20
107.4196366076664
 30
0.0
 10
73.06605708126412
 20
107.562344337379
 30
0.0
 10
72.92251985952966
 20
107.6355972074792
 30
0.0
 10
72.67056118497104
 20
107.7747198900172
 30
0.0
 10
72.56343601684821
 20
107.8397204648174
 30
0.0
 10
72.38654274648408
 20
107.9523152310803
 30
0.0
 10
72.31622888892447
 20
108.0003100231255
 30
0.0
 10
72.22205885273448
 20
108.0658550189471
 30
0.0
 10
72.19754080597679
 20
108.0837008846568
 30
0.0
 10
72.19605060885249
 20
108.0847711136241
 30
0.0
 10
72.21935888388074
 20
108.0677937474686
 30
0.0
 10
72.31066679691445
 20
108.0041270687068
 30
0.0
 10
72.37970432382475
 20
107.9568543031333
 30
0.0
 10
72.55564371946019
 20
107.8445088977465
 30
0.0
 10
72.66346548588267
 20
107.778876480444
 30
0.0
 10
72.91478501891434
 20
107.6396431883617
 30
0.0
 10
73.05621931086245
 20
107.5671567666199
 30
0.0
 10
73.37116327028029
 20
107.423981675678
 30
0.0
 10
73.54654242894459
 20
107.3527048456146
 30
0.0
 10
73.91915766785942
 20
107.2236295452409
 30
0.0
 10
74.11723488503141
 20
107.1652332964442
 30
0.0
 10
74.5393877086539
 20
107.0663431303021
 30
0.0
 10
74.76463054558954
 20
107.0260845043645
 30
0.0
 10
75.21891864074671
 20
106.9723330186742
 30
0.0
 10
75.45076535197256
 20
106.9580118309122
 30
0.0
 10
75.92459121027582
 20
106.9572931854453
 30
0.0
 10
76.15905235764197
 20
106.9710653778841
 30
0.0
 10
76.61573607007827
 20
107.0239825861618
 30
0.0
 10
76.84135732667805
 20
107.0638131866064
 30
0.0
 10
77.47706593882666
 20
107.2113544199463
 30
0.0
 10
77.8582320688213
 20
107.349771644701
 30
0.0
 10
78.33175665138519
 20
107.5644162715587
 30
0.0
 10
78.47595108030836
 20
107.6381805382644
 30
0.0
 10
78.72657734604552
 20
107.7768321817698
 30
0.0
 10
78.83350852763574
 20
107.8417971443927
 30
0.0
 10
79.0102415664605
 20
107.9544523039488
 30
0.0
 10
79.08016148655868
 20
108.0022542068131
 30
0.0
 10
79.17277649902675
 20
108.066774288558
 30
0.0
 10
79.19677839199085
 20
108.0842484347688
 30
0.0
 10
79.19677839199085
 20
108.0842484347688
 30
0.0
  0
SPLINE
  5
1DE
330
1F
100
AcDbEntity
  8
0
  6
HIDDEN
 62
     7
370
     0
100
AcDbSpline
210
0.0
220
0.0
230
1.0
 70
    11
 71
     3
 72
    66
 73
    62
 74
     0
 42
0.00000001
 43
0.00000001
 12
1.0
 22
0.0
 32
0.0
 13
1.0
 23
0.0
 33
0.0
 40
-0.0312499999999982
 40
-0.0312499999999982
 40
0.0
 40
0.0
 40
0.0312500000000008
 40
0.0312500000000008
 40
0.0625000000000016
 40
0.0625000000000016
 40
0.1250000000000024
 40
0.1250000000000024
 40
0.1562500000000025
 40
0.1562500000000025
 40
0.1875000000000026
 40
0.1875000000000026
 40
0.2187500000000027
 40
0.2187500000000027
 40
0.2500000000000027
 40
0.2500000000000027
 40
0.2812500000000028
 40
0.2812500000000028
 40
0.3125000000000029
 40
0.3125000000000029
 40
0.343750000000003
 40
0.343750000000003
 40
0.3750000000000031
 40
0.3750000000000031
 40
0.4062500000000032
 40
0.4062500000000032
 40
0.4375000000000033
 40
0.4375000000000033
 40
0.4687500000000033
 40
0.4687500000000033
 40
0.5000000000000034
 40
0.5000000000000034
 40
0.5312500000000036
 40
0.5312500000000036
 40
0.5625000000000037
 40
0.5625000000000037
 40
0.5937500000000039
 40
0.5937500000000039
 40
0.625000000000004
 40
0.625000000000004
 40
0.6562500000000041
 40
0.6562500000000041
 40
0.6875000000000042
 40
0.6875000000000042
 40
0.7187500000000044
 40
0.7187500000000044
 40
0.7500000000000046
 40
0.7500000000000046
 40
0.7812500000000047
 40
0.7812500000000047
 40
0.8125000000000048
 40
0.8125000000000048
 40
0.8750000000000043
 40
0.8750000000000043
 40
0.9062500000000034
 40
0.9062500000000034
 40
0.9375000000000026
 40
0.9375000000000026
 40
0.9687500000000018
 40
0.9687500000000018
 40
1.0
 40
1.0
 40
1.031250000000001
 40
1.031250000000001
 10
72.19677839199092
 20
117.8310427795778
 30
0.0
 10
72.19677839199092
 20
117.8310427795778
 30
0.0
 10
72.2206252918222
 20
117.8484026565494
 30
0.0
 10
72.31264806115306
 20
117.9125226788813
 30
0.0
 10
72.38201911944482
 20
117.9599754397357
 30
0.0
 10
72.64648051383007
 20
118.1286623359401
 30
0.0
 10
72.90190235302126
 20
118.2781533039647
 30
0.0
 10
73.37332015102805
 20
118.4922029841193
 30
0.0
 10
73.54810927887591
 20
118.5631989481294
 30
0.0
 10
73.9213979500906
 20
118.6923671786601
 30
0.0
 10
74.11926198296355
 20
118.7505694853457
 30
0.0
 10
74.53930149924572
 20
118.8488910036758
 30
0.0
 10
74.76449846594282
 20
118.889194487801
 30
0.0
 10
75.21922678449805
 20
118.942991248485
 30
0.0
 10
75.45042174948478
 20
118.9571987785878
 30
0.0
 10
75.92086690635809
 20
118.9580717745105
 30
0.0
 10
76.15726249432518
 20
118.9443443083438
 30
0.0
 10
76.61295791988539
 20
118.8917185777194
 30
0.0
 10
76.83761656852593
 20
118.8522094121958
 30
0.0
 10
77.26180721752193
 20
118.7540305988537
 30
0.0
 10
77.46141723113777
 20
118.6957330156828
 30
0.0
 10
77.83773024670907
 20
118.5662035765715
 30
0.0
 10
78.01203792991247
 20
118.49565460668
 30
0.0
 10
78.32749970271765
 20
118.3529468769675
 30
0.0
 10
78.4710369244521
 20
118.2796940068674
 30
0.0
 10
78.72299559901072
 20
118.1405713243293
 30
0.0
 10
78.83012076713355
 20
118.075570749529
 30
0.0
 10
79.00701403749768
 20
117.9629759832662
 30
0.0
 10
79.07732789505728
 20
117.914981191221
 30
0.0
 10
79.17149793124729
 20
117.8494361953994
 30
0.0
 10
79.19601597800497
 20
117.8315903296897
 30
0.0
 10
79.19750617512926
 20
117.8305201007224
 30
0.0
 10
79.174197900101
 20
117.8474974668779
 30
0.0
 10
79.0828899870673
 20
117.9111641456397
 30
0.0
 10
79.01385246015701
 20
117.9584369112132
 30
0.0
 10
78.83791306452157
 20
118.0707823166
 30
0.0
 10
78.73009129809908
 20
118.1364147339025
 30
0.0
 10
78.47877176506744
 20
118.2756480259847
 30
0.0
 10
78.33733747311932
 20
118.3481344477266
 30
0.0
 10
78.02239351370147
 20
118.4913095386685
 30
0.0
 10
77.84701435503716
 20
118.5625863687319
 30
0.0
 10
77.47439911612234
 20
118.6916616691056
 30
0.0
 10
77.27632189895036
 20
118.7500579179023
 30
0.0
 10
76.85416907532786
 20
118.8489480840444
 30
0.0
 10
76.62892623839222
 20
118.889206709982
 30
0.0
 10
76.17463814323507
 20
118.9429581956723
 30
0.0
 10
75.94279143200922
 20
118.9572793834344
 30
0.0
 10
75.46896557370594
 20
118.9579980289013
 30
0.0
 10
75.23450442633981
 20
118.9442258364624
 30
0.0
 10
74.7778207139035
 20
118.8913086281847
 30
0.0
 10
74.55219945730373
 20
118.8514780277402
 30
0.0
 10
73.91649084515511
 20
118.7039367944002
 30
0.0
 10
73.53532471516047
 20
118.5655195696455
 30
0.0
 10
73.06180013259656
 20
118.3508749427879
 30
0.0
 10
72.9176057036734
 20
118.2771106760821
 30
0.0
 10
72.66697943793625
 20
118.1384590325767
 30
0.0
 10
72.56004825634602
 20
118.0734940699538
 30
0.0
 10
72.38331521752126
 20
117.9608389103978
 30
0.0
 10
72.31339529742309
 20
117.9130370075334
 30
0.0
 10
72.22078028495501
 20
117.8485169257886
 30
0.0
 10
72.19677839199092
 20
117.8310427795778
 30
0.0
 10
72.19677839199092
 20
117.8310427795778
 30
0.0
  0
LINE
  5
1DF
330
1F
100
AcDbEntity
  8
0
  6
HIDDEN
 62
     7
370
     0
100
AcDbLine
 10
79.1967785
 20
95.9576446833
 30
0.0
 11
72.2126266002
 21
95.9576446833
 31
0.0
  0
SPLINE
  5
1E0
330
1F
100
AcDbEntity
  8
0
  6
HIDDEN
 62
     7
370
     0
100
AcDbSpline
210
0.0
220
0.0
230
1.0
 70
     8
 71
     3
 72
    75
 73
    71
 74
     0
 42
0.00000001
 43
0.00000001
 12
1.0
 22
0.0
 32
0.0
 13
1.0
 23
0.0
 33
0.0
 40
-0.03125
 40
-0.03125
 40
0.0
 40
0.0
 40
0.0312499999999999
 40
0.0312499999999999
 40
0.0624999999999998
 40
0.0624999999999998
 40
0.0937499999999996
 40
0.0937499999999996
 40
0.1093749999999996
 40
0.1093749999999996
 40
0.1249999999999997
 40
0.1406249999999997
 40
0.1406249999999997
 40
0.1562499999999997
 40
0.1562499999999997
 40
0.1874999999999998
 40
0.1874999999999998
 40
0.2187499999999998
 40
0.2187499999999998
 40
0.2499999999999998
 40
0.2499999999999998
 40
0.2812499999999999
 40
0.2812499999999999
 40
0.3124999999999999
 40
0.3124999999999999
 40
0.3437499999999999
 40
0.3437499999999999
 40
0.375
 40
0.375
 40
0.4062500000000001
 40
0.4062500000000001
 40
0.4375000000000001
 40
0.4375000000000001
 40
0.4687500000000001
 40
0.4687500000000001
 40
0.5000000000000001
 40
0.5000000000000001
 40
0.5312500000000001
 40
0.5312500000000001
 40
0.5625000000000001
 40
0.5625000000000001
 40
0.5937500000000001
 40
0.5937500000000001
 40
0.625
 40
0.625
 40
0.6406250000000001
 40
0.6406250000000001
 40
0.6562500000000001
 40
0.6562500000000001
 40
0.6875000000000001
 40
0.6875000000000001
 40
0.7187500000000001
 40
0.7187500000000001
 40
0.7500000000000001
 40
0.7500000000000001
 40
0.7812500000000001
 40
0.7812500000000001
 40
0.8125000000000001
 40
0.8125000000000001
 40
0.8437500000000001
 40
0.8437500000000001
 40
0.875
 40
0.875
 40
0.90625
 40
0.90625
 40
0.9375
 40
0.9375
 40
0.96875
 40
0.96875
 40
1.0
 40
1.0
 40
1.03125
 40
1.03125
 10
72.53567865298291
 20
95.23646966354302
 30
0.0
 10
72.89193996117133
 20
95.17660205618748
 30
0.0
 10
73.08817800468853
 20
95.14634799691578
 30
0.0
 10
73.51845901964928
 20
95.08862092047369
 30
0.0
 10
73.75511492584869
 20
95.06095872505587
 30
0.0
 10
74.24872809727088
 20
95.01427332891225
 30
0.0
 10
74.50733584890318
 20
94.99493135485142
 30
0.0
 10
74.91450980023643
 20
94.97413857798612
 30
0.0
 10
75.05397200919342
 20
94.96859120263241
 30
0.0
 10
75.33155657969003
 20
94.96081549955406
 30
0.0
 10
75.60967062784815
 20
94.95623910577974
 30
0.0
 10
75.88883280145079
 20
94.95812674260117
 30
0.0
 10
76.16852978364179
 20
94.96328496621813
 30
0.0
 10
76.30921379596418
 20
94.96754266725746
 30
0.0
 10
76.72107957275873
 20
94.98471232564388
 30
0.0
 10
76.9855800061773
 20
95.00202130834346
 30
0.0
 10
77.49537272428618
 20
95.04590331365831
 30
0.0
 10
77.73621738400051
 20
95.07215362667287
 30
0.0
 10
78.18048465354217
 20
95.12841853494706
 30
0.0
 10
78.38763416526939
 20
95.15892886817099
 30
0.0
 10
78.75711226406824
 20
95.21872289638719
 30
0.0
 10
78.92055985180595
 20
95.24808637607418
 30
0.0
 10
79.20699553990025
 20
95.30262845524229
 30
0.0
 10
79.3286630879793
 20
95.3275746661801
 30
0.0
 10
79.52420357871014
 20
95.36899005112029
 30
0.0
 10
79.59937355836847
 20
95.38571845568829
 30
0.0
 10
79.70395200383327
 20
95.40927153735466
 30
0.0
 10
79.73198952781011
 20
95.41577870613244
 30
0.0
 10
79.74139411362081
 20
95.41794472748849
 30
0.0
 10
79.72273909494551
 20
95.41359904457292
 30
0.0
 10
79.63706769991668
 20
95.39415934896503
 30
0.0
 10
79.57120014835509
 20
95.37933403346946
 30
0.0
 10
79.39434122947516
 20
95.34128358798064
 30
0.0
 10
79.28258817796006
 20
95.31789524832504
 30
0.0
 10
79.01327393077149
 20
95.26528336000892
 30
0.0
 10
78.85857281899692
 20
95.23662454936321
 30
0.0
 10
78.50835450357512
 20
95.17769703866603
 30
0.0
 10
78.31065300231998
 20
95.14711238014026
 30
0.0
 10
77.87894744201961
 20
95.08908179955667
 30
0.0
 10
77.64834491739973
 20
95.0620459163532
 30
0.0
 10
77.1561999380571
 20
95.0152046096932
 30
0.0
 10
76.89050315073078
 20
94.99523085537909
 30
0.0
 10
76.34965346811117
 20
94.96745170465843
 30
0.0
 10
76.07396315166963
 20
94.95940134455928
 30
0.0
 10
75.65219198309345
 20
94.95715177305706
 30
0.0
 10
75.50972818207426
 20
94.95807365930014
 30
0.0
 10
75.2299309097608
 20
94.96315668650574
 30
0.0
 10
75.09164304516237
 20
94.96729996047095
 30
0.0
 10
74.68147086575478
 20
94.98421934142264
 30
0.0
 10
74.41115949109602
 20
95.00180308120139
 30
0.0
 10
73.90274866421014
 20
95.04545550903961
 30
0.0
 10
73.66380910933836
 20
95.07138670614637
 30
0.0
 10
73.21473943016682
 20
95.12815587328689
 30
0.0
 10
73.00962244672174
 20
95.15836981258946
 30
0.0
 10
72.64011329514044
 20
95.21809024714385
 30
0.0
 10
72.47349086807705
 20
95.24799754790918
 30
0.0
 10
72.18731087902519
 20
95.30248050966561
 30
0.0
 10
72.06696426746365
 20
95.32714406077416
 30
0.0
 10
71.86998174298448
 20
95.36884909452489
 30
0.0
 10
71.7937329136108
 20
95.38582002294926
 30
0.0
 10
71.69015076952873
 20
95.40914842184095
 30
0.0
 10
71.66172700079973
 20
95.41574192252554
 30
0.0
 10
71.65205822768445
 20
95.41796877424774
 30
0.0
 10
71.67135981437298
 20
95.41347572449726
 30
0.0
 10
71.75618851559572
 20
95.39422785824755
 30
0.0
 10
71.82158100120056
 20
95.37949995716482
 30
0.0
 10
72.00034934472698
 20
95.34104061049351
 30
0.0
 10
72.11326257193403
 20
95.31743745094376
 30
0.0
 10
72.38046108624908
 20
95.26525829072155
 30
0.0
 10
72.53567865298291
 20
95.23646966354302
 30
0.0
 10
72.89193996117133
 20
95.17660205618748
 30
0.0
  0
LINE
  5
1E1
330
1F
100
AcDbEntity
  8
0
  6
HIDDEN
 62
     7
370
     0
100
AcDbLine
 10
72.196778284
 20
129.957646531
 30
0.0
 11
79.1809301838
 21
129.957646531
 31
0.0
  0
SPLINE
  5
1E2
330
1F
100
AcDbEntity
  8
0
  6
HIDDEN
 62
     7
370
     0
100
AcDbSpline
210
0.0
220
0.0
230
1.0
 70
     8
 71
     3
 72
    75
 73
    71
 74
     0
 42
0.00000001
 43
0.00000001
 12
1.0
 22
0.0
 32
0.0
 13
1.0
 23
0.0
 33
0.0
 40
-0.0312499999999999
 40
-0.0312499999999999
 40
0.0
 40
0.0
 40
0.03125
 40
0.03125
 40
0.0625
 40
0.0625
 40
0.09375
 40
0.09375
 40
0.109375
 40
0.109375
 40
0.1249999999999999
 40
0.1406249999999998
 40
0.1406249999999998
 40
0.1562499999999997
 40
0.1562499999999997
 40
0.1874999999999998
 40
0.1874999999999998
 40
0.2187499999999998
 40
0.2187499999999998
 40
0.2499999999999998
 40
0.2499999999999998
 40
0.2812499999999998
 40
0.2812499999999998
 40
0.3124999999999998
 40
0.3124999999999998
 40
0.3437499999999998
 40
0.3437499999999998
 40
0.3749999999999998
 40
0.3749999999999998
 40
0.4062499999999998
 40
0.4062499999999998
 40
0.4374999999999998
 40
0.4374999999999998
 40
0.4687499999999999
 40
0.4687499999999999
 40
0.4999999999999999
 40
0.4999999999999999
 40
0.5312499999999999
 40
0.5312499999999999
 40
0.5624999999999999
 40
0.5624999999999999
 40
0.5937499999999999
 40
0.5937499999999999
 40
0.6249999999999999
 40
0.6249999999999999
 40
0.640625
 40
0.640625
 40
0.65625
 40
0.65625
 40
0.6875
 40
0.6875
 40
0.71875
 40
0.71875
 40
0.75
 40
0.75
 40
0.78125
 40
0.78125
 40
0.8125
 40
0.8125
 40
0.84375
 40
0.84375
 40
0.875
 40
0.875
 40
0.9062500000000001
 40
0.9062500000000001
 40
0.9375000000000001
 40
0.9375000000000001
 40
0.9687500000000001
 40
0.9687500000000001
 40
1.0
 40
1.0
 40
1.03125
 40
1.03125
 10
78.85787813099894
 20
130.6788215508035
 30
0.0
 10
78.50161682281052
 20
130.738689158159
 30
0.0
 10
78.30537877929332
 20
130.7689432174307
 30
0.0
 10
77.87509776433257
 20
130.8266702938728
 30
0.0
 10
77.63844185813316
 20
130.8543324892906
 30
0.0
 10
77.14482868671095
 20
130.9010178854342
 30
0.0
 10
76.88622093507867
 20
130.9203598594951
 30
0.0
 10
76.47904698374542
 20
130.9411526363604
 30
0.0
 10
76.33958477478843
 20
130.9467000117141
 30
0.0
 10
76.06200019184058
 20
130.9544756461609
 30
0.0
 10
75.78388615613372
 20
130.9590521085668
 30
0.0
 10
75.50472398253108
 20
130.9571644717454
 30
0.0
 10
75.22502700034006
 20
130.9520062481284
 30
0.0
 10
75.08434298801767
 20
130.9477485470891
 30
0.0
 10
74.67247721122312
 20
130.9305788887026
 30
0.0
 10
74.40797677780455
 20
130.9132699060031
 30
0.0
 10
73.89818405969567
 20
130.8693879006882
 30
0.0
 10
73.65733939998134
 20
130.8431375876736
 30
0.0
 10
73.2130721304397
 20
130.7868726793995
 30
0.0
 10
73.00592261871246
 20
130.7563623461755
 30
0.0
 10
72.63644451991361
 20
130.6965683179593
 30
0.0
 10
72.4729969321759
 20
130.6672048382723
 30
0.0
 10
72.1865612440816
 20
130.6126627591042
 30
0.0
 10
72.06489369600256
 20
130.5877165481664
 30
0.0
 10
71.86935320527171
 20
130.5463011632263
 30
0.0
 10
71.79418322561338
 20
130.5295727586582
 30
0.0
 10
71.68960478014858
 20
130.5060196769919
 30
0.0
 10
71.66156725617174
 20
130.4995125082141
 30
0.0
 10
71.65216267036104
 20
130.497346486858
 30
0.0
 10
71.67081768903634
 20
130.5016921697736
 30
0.0
 10
71.75648908406517
 20
130.5211318653815
 30
0.0
 10
71.82235663562676
 20
130.5359571808771
 30
0.0
 10
71.99921555450669
 20
130.5740076263659
 30
0.0
 10
72.11096860602179
 20
130.5973959660215
 30
0.0
 10
72.38028285321036
 20
130.6500078543376
 30
0.0
 10
72.53498396498493
 20
130.6786666649834
 30
0.0
 10
72.88520228040673
 20
130.7375941756805
 30
0.0
 10
73.08290378166187
 20
130.7681788342063
 30
0.0
 10
73.51460934196224
 20
130.8262094147899
 30
0.0
 10
73.74521186658212
 20
130.8532452979933
 30
0.0
 10
74.23735684592475
 20
130.9000866046533
 30
0.0
 10
74.50305363325107
 20
130.9200603589674
 30
0.0
 10
75.04390331587068
 20
130.9478395096881
 30
0.0
 10
75.31959363231222
 20
130.9558898697872
 30
0.0
 10
75.7413648008884
 20
130.9581394412894
 30
0.0
 10
75.8838286019076
 20
130.9572175550464
 30
0.0
 10
76.16362587422105
 20
130.9521345278408
 30
0.0
 10
76.30191373881948
 20
130.9479912538756
 30
0.0
 10
76.71208591822707
 20
130.9310718729239
 30
0.0
 10
76.98239729288584
 20
130.9134881331451
 30
0.0
 10
77.49080811977171
 20
130.8698357053069
 30
0.0
 10
77.72974767464349
 20
130.8439045082001
 30
0.0
 10
78.17881735381503
 20
130.7871353410596
 30
0.0
 10
78.38393433726011
 20
130.756921401757
 30
0.0
 10
78.75344348884141
 20
130.6972009672026
 30
0.0
 10
78.9200659159048
 20
130.6672936664373
 30
0.0
 10
79.20624590495666
 20
130.6128107046809
 30
0.0
 10
79.3265925165182
 20
130.5881471535723
 30
0.0
 10
79.52357504099737
 20
130.5464421198216
 30
0.0
 10
79.59982387037105
 20
130.5294711913972
 30
0.0
 10
79.70340601445312
 20
130.5061427925055
 30
0.0
 10
79.73182978318212
 20
130.499549291821
 30
0.0
 10
79.7414985562974
 20
130.4973224400987
 30
0.0
 10
79.72219696960887
 20
130.5018154898492
 30
0.0
 10
79.63736826838613
 20
130.5210633560989
 30
0.0
 10
79.5719757827813
 20
130.5357912571816
 30
0.0
 10
79.39320743925487
 20
130.574250603853
 30
0.0
 10
79.28029421204782
 20
130.5978537634028
 30
0.0
 10
79.01309569773277
 20
130.6500329236249
 30
0.0
 10
78.85787813099894
 20
130.6788215508035
 30
0.0
 10
78.50161682281052
 20
130.738689158159
 30
0.0
  0
SPLINE
  5
1E3
330
1F
100
AcDbEntity
  8
0
  6
HIDDEN
 62
     7
370
     0
100
AcDbSpline
210
0.0
220
0.0
230
1.0
 70
    11
 71
     3
 72
    66
 73
    62
 74
     0
 42
0.00000001
 43
0.00000001
 12
1.0
 22
0.0
 32
0.0
 13
1.0
 23
0.0
 33
0.0
 40
-0.0312500000000002
 40
-0.0312500000000002
 40
0.0
 40
0.0
 40
0.0312499999999996
 40
0.0312499999999996
 40
0.0624999999999992
 40
0.0624999999999992
 40
0.1249999999999992
 40
0.1249999999999992
 40
0.1562499999999992
 40
0.1562499999999992
 40
0.1874999999999991
 40
0.1874999999999991
 40
0.2187499999999991
 40
0.2187499999999991
 40
0.2499999999999991
 40
0.2499999999999991
 40
0.2812499999999991
 40
0.2812499999999991
 40
0.3124999999999991
 40
0.3124999999999991
 40
0.3437499999999991
 40
0.3437499999999991
 40
0.3749999999999991
 40
0.3749999999999991
 40
0.4062499999999991
 40
0.4062499999999991
 40
0.4374999999999992
 40
0.4374999999999992
 40
0.4687499999999992
 40
0.4687499999999992
 40
0.4999999999999992
 40
0.4999999999999992
 40
0.5312499999999992
 40
0.5312499999999992
 40
0.5624999999999993
 40
0.5624999999999993
 40
0.5937499999999993
 40
0.5937499999999993
 40
0.6249999999999993
 40
0.6249999999999993
 40
0.6562499999999994
 40
0.6562499999999994
 40
0.6874999999999994
 40
0.6874999999999994
 40
0.7187499999999994
 40
0.7187499999999994
 40
0.7499999999999994
 40
0.7499999999999994
 40
0.7812499999999996
 40
0.7812499999999996
 40
0.8124999999999996
 40
0.8124999999999996
 40
0.8749999999999993
 40
0.8749999999999993
 40
0.9062499999999994
 40
0.9062499999999994
 40
0.9374999999999996
 40
0.9374999999999996
 40
0.9687499999999998
 40
0.9687499999999998
 40
1.0
 40
1.0
 40
1.03125
 40
1.03125
 10
79.19677839199085
 20
108.0842484347688
 30
0.0
 10
79.19677839199085
 20
108.0842484347688
 30
0.0
 10
79.17293149215955
 20
108.0668885577971
 30
0.0
 10
79.0809087228287
 20
108.0027685354652
 30
0.0
 10
79.01153766453695
 20
107.9553157746108
 30
0.0
 10
78.74707627015168
 20
107.7866288784065
 30
0.0
 10
78.4916544309605
 20
107.6371379103819
 30
0.0
 10
78.02023663295371
 20
107.4230882302272
 30
0.0
 10
77.84544750510585
 20
107.3520922662171
 30
0.0
 10
77.47215883389119
 20
107.2229240356864
 30
0.0
 10
77.27429480101821
 20
107.1647217290008
 30
0.0
 10
76.85425528473604
 20
107.0664002106707
 30
0.0
 10
76.62905831803894
 20
107.0260967265455
 30
0.0
 10
76.17432999948372
 20
106.9722999658615
 30
0.0
 10
75.943135034497
 20
106.9580924357587
 30
0.0
 10
75.47268987762368
 20
106.957219439836
 30
0.0
 10
75.2362942896566
 20
106.9709469060027
 30
0.0
 10
74.78059886409638
 20
107.0235726366271
 30
0.0
 10
74.55594021545583
 20
107.0630818021507
 30
0.0
 10
74.13174956645983
 20
107.1612606154928
 30
0.0
 10
73.932139552844
 20
107.2195581986637
 30
0.0
 10
73.55582653727268
 20
107.3490876377751
 30
0.0
 10
73.3815188540693
 20
107.4196366076664
 30
0.0
 10
73.06605708126412
 20
107.562344337379
 30
0.0
 10
72.92251985952967
 20
107.6355972074791
 30
0.0
 10
72.67056118497105
 20
107.7747198900172
 30
0.0
 10
72.56343601684821
 20
107.8397204648174
 30
0.0
 10
72.38654274648408
 20
107.9523152310803
 30
0.0
 10
72.31622888892447
 20
108.0003100231255
 30
0.0
 10
72.22205885273448
 20
108.0658550189471
 30
0.0
 10
72.19754080597679
 20
108.0837008846568
 30
0.0
 10
72.19605060885249
 20
108.0847711136241
 30
0.0
 10
72.21935888388074
 20
108.0677937474686
 30
0.0
 10
72.31066679691445
 20
108.0041270687068
 30
0.0
 10
72.37970432382475
 20
107.9568543031333
 30
0.0
 10
72.55564371946019
 20
107.8445088977465
 30
0.0
 10
72.66346548588267
 20
107.778876480444
 30
0.0
 10
72.91478501891433
 20
107.6396431883617
 30
0.0
 10
73.05621931086245
 20
107.5671567666199
 30
0.0
 10
73.37116327028029
 20
107.423981675678
 30
0.0
 10
73.5465424289446
 20
107.3527048456146
 30
0.0
 10
73.91915766785944
 20
107.2236295452409
 30
0.0
 10
74.11723488503141
 20
107.1652332964442
 30
0.0
 10
74.5393877086539
 20
107.0663431303021
 30
0.0
 10
74.76463054558954
 20
107.0260845043645
 30
0.0
 10
75.21891864074671
 20
106.9723330186742
 30
0.0
 10
75.45076535197256
 20
106.9580118309122
 30
0.0
 10
75.92459121027582
 20
106.9572931854453
 30
0.0
 10
76.15905235764197
 20
106.9710653778841
 30
0.0
 10
76.61573607007827
 20
107.0239825861618
 30
0.0
 10
76.84135732667805
 20
107.0638131866064
 30
0.0
 10
77.47706593882666
 20
107.2113544199463
 30
0.0
 10
77.85823206882131
 20
107.349771644701
 30
0.0
 10
78.3317566513852
 20
107.5644162715587
 30
0.0
 10
78.47595108030836
 20
107.6381805382644
 30
0.0
 10
78.72657734604552
 20
107.7768321817698
 30
0.0
 10
78.83350852763576
 20
107.8417971443927
 30
0.0
 10
79.0102415664605
 20
107.9544523039488
 30
0.0
 10
79.08016148655868
 20
108.0022542068131
 30
0.0
 10
79.17277649902675
 20
108.066774288558
 30
0.0
 10
79.19677839199085
 20
108.0842484347688
 30
0.0
 10
79.19677839199085
 20
108.0842484347688
 30
0.0
  0
SPLINE
  5
1E4
330
1F
100
AcDbEntity
  8
0
  6
HIDDEN
 62
     7
370
     0
100
AcDbSpline
210
0.0
220
0.0
230
1.0
 70
    11
 71
     3
 72
    66
 73
    62
 74
     0
 42
0.00000001
 43
0.00000001
 12
1.0
 22
0.0
 32
0.0
 13
1.0
 23
0.0
 33
0.0
 40
-0.0312500000000001
 40
-0.0312500000000001
 40
0.0
 40
0.0
 40
0.0312499999999996
 40
0.0312499999999996
 40
0.0624999999999993
 40
0.0624999999999993
 40
0.1249999999999994
 40
0.1249999999999994
 40
0.1562499999999994
 40
0.1562499999999994
 40
0.1874999999999995
 40
0.1874999999999995
 40
0.2187499999999995
 40
0.2187499999999995
 40
0.2499999999999996
 40
0.2499999999999996
 40
0.2812499999999996
 40
0.2812499999999996
 40
0.3124999999999996
 40
0.3124999999999996
 40
0.3437499999999997
 40
0.3437499999999997
 40
0.3749999999999997
 40
0.3749999999999997
 40
0.4062499999999997
 40
0.4062499999999997
 40
0.4374999999999998
 40
0.4374999999999998
 40
0.4687499999999998
 40
0.4687499999999998
 40
0.4999999999999998
 40
0.4999999999999998
 40
0.5312499999999998
 40
0.5312499999999998
 40
0.5624999999999998
 40
0.5624999999999998
 40
0.5937499999999997
 40
0.5937499999999997
 40
0.6249999999999997
 40
0.6249999999999997
 40
0.6562499999999997
 40
0.6562499999999997
 40
0.6874999999999997
 40
0.6874999999999997
 40
0.7187499999999997
 40
0.7187499999999997
 40
0.7499999999999996
 40
0.7499999999999996
 40
0.7812499999999996
 40
0.7812499999999996
 40
0.8124999999999996
 40
0.8124999999999996
 40
0.8749999999999993
 40
0.8749999999999993
 40
0.9062499999999996
 40
0.9062499999999996
 40
0.9374999999999997
 40
0.9374999999999997
 40
0.9687499999999999
 40
0.9687499999999999
 40
1.0
 40
1.0
 40
1.03125
 40
1.03125
 10
72.19677839199092
 20
117.8310427795778
 30
0.0
 10
72.19677839199092
 20
117.8310427795778
 30
0.0
 10
72.22062529182222
 20
117.8484026565494
 30
0.0
 10
72.31264806115307
 20
117.9125226788813
 30
0.0
 10
72.38201911944482
 20
117.9599754397357
 30
0.0
 10
72.64648051383007
 20
118.1286623359401
 30
0.0
 10
72.90190235302127
 20
118.2781533039647
 30
0.0
 10
73.37332015102807
 20
118.4922029841193
 30
0.0
 10
73.54810927887591
 20
118.5631989481294
 30
0.0
 10
73.9213979500906
 20
118.6923671786601
 30
0.0
 10
74.11926198296355
 20
118.7505694853457
 30
0.0
 10
74.53930149924572
 20
118.8488910036758
 30
0.0
 10
74.76449846594282
 20
118.889194487801
 30
0.0
 10
75.21922678449805
 20
118.942991248485
 30
0.0
 10
75.45042174948478
 20
118.9571987785878
 30
0.0
 10
75.9208669063581
 20
118.9580717745105
 30
0.0
 10
76.15726249432518
 20
118.9443443083438
 30
0.0
 10
76.61295791988539
 20
118.8917185777194
 30
0.0
 10
76.83761656852593
 20
118.8522094121958
 30
0.0
 10
77.26180721752193
 20
118.7540305988537
 30
0.0
 10
77.46141723113777
 20
118.6957330156828
 30
0.0
 10
77.83773024670909
 20
118.5662035765714
 30
0.0
 10
78.01203792991247
 20
118.49565460668
 30
0.0
 10
78.32749970271765
 20
118.3529468769675
 30
0.0
 10
78.4710369244521
 20
118.2796940068674
 30
0.0
 10
78.72299559901072
 20
118.1405713243293
 30
0.0
 10
78.83012076713355
 20
118.075570749529
 30
0.0
 10
79.00701403749768
 20
117.9629759832662
 30
0.0
 10
79.07732789505728
 20
117.914981191221
 30
0.0
 10
79.17149793124729
 20
117.8494361953994
 30
0.0
 10
79.19601597800497
 20
117.8315903296897
 30
0.0
 10
79.19750617512926
 20
117.8305201007224
 30
0.0
 10
79.174197900101
 20
117.8474974668779
 30
0.0
 10
79.0828899870673
 20
117.9111641456397
 30
0.0
 10
79.01385246015703
 20
117.9584369112132
 30
0.0
 10
78.83791306452157
 20
118.0707823166
 30
0.0
 10
78.73009129809908
 20
118.1364147339025
 30
0.0
 10
78.47877176506744
 20
118.2756480259848
 30
0.0
 10
78.3373374731193
 20
118.3481344477266
 30
0.0
 10
78.02239351370146
 20
118.4913095386685
 30
0.0
 10
77.84701435503716
 20
118.5625863687319
 30
0.0
 10
77.47439911612233
 20
118.6916616691056
 30
0.0
 10
77.27632189895034
 20
118.7500579179023
 30
0.0
 10
76.85416907532786
 20
118.8489480840444
 30
0.0
 10
76.62892623839222
 20
118.889206709982
 30
0.0
 10
76.17463814323507
 20
118.9429581956723
 30
0.0
 10
75.9427914320092
 20
118.9572793834344
 30
0.0
 10
75.46896557370594
 20
118.9579980289013
 30
0.0
 10
75.23450442633981
 20
118.9442258364624
 30
0.0
 10
74.77782071390348
 20
118.8913086281847
 30
0.0
 10
74.55219945730373
 20
118.8514780277402
 30
0.0
 10
73.91649084515511
 20
118.7039367944002
 30
0.0
 10
73.53532471516044
 20
118.5655195696455
 30
0.0
 10
73.06180013259656
 20
118.3508749427879
 30
0.0
 10
72.9176057036734
 20
118.2771106760821
 30
0.0
 10
72.66697943793623
 20
118.1384590325767
 30
0.0
 10
72.56004825634602
 20
118.0734940699538
 30
0.0
 10
72.38331521752126
 20
117.9608389103978
 30
0.0
 10
72.31339529742309
 20
117.9130370075334
 30
0.0
 10
72.22078028495501
 20
117.8485169257886
 30
0.0
 10
72.19677839199092
 20
117.8310427795778
 30
0.0
 10
72.19677839199092
 20
117.8310427795778
 30
0.0
  0
LINE
  5
1E5
330
1F
100
AcDbEntity
  8
0
  6
HIDDEN
 62
     7
370
     0
100
AcDbLine
 10
79.1967785
 20
95.9576446833
 30
0.0
 11
72.2126266002
 21
95.9576446833
 31
0.0
  0
SPLINE
  5
1E6
330
1F
100
AcDbEntity
  8
0
  6
HIDDEN
 62
     7
370
     0
100
AcDbSpline
210
0.0
220
0.0
230
1.0
 70
     8
 71
     3
 72
    75
 73
    71
 74
     0
 42
0.00000001
 43
0.00000001
 12
1.0
 22
0.0
 32
0.0
 13
1.0
 23
0.0
 33
0.0
 40
-0.0312499999999999
 40
-0.0312499999999999
 40
0.0
 40
0.0
 40
0.03125
 40
0.03125
 40
0.0625
 40
0.0625
 40
0.0937500000000001
 40
0.0937500000000001
 40
0.109375
 40
0.109375
 40
0.1249999999999999
 40
0.1406249999999998
 40
0.1406249999999998
 40
0.1562499999999998
 40
0.1562499999999998
 40
0.1874999999999998
 40
0.1874999999999998
 40
0.2187499999999998
 40
0.2187499999999998
 40
0.2499999999999998
 40
0.2499999999999998
 40
0.2812499999999997
 40
0.2812499999999997
 40
0.3124999999999998
 40
0.3124999999999998
 40
0.3437499999999997
 40
0.3437499999999997
 40
0.3749999999999997
 40
0.3749999999999997
 40
0.4062499999999997
 40
0.4062499999999997
 40
0.4374999999999997
 40
0.4374999999999997
 40
0.4687499999999998
 40
0.4687499999999998
 40
0.4999999999999998
 40
0.4999999999999998
 40
0.5312499999999998
 40
0.5312499999999998
 40
0.5624999999999998
 40
0.5624999999999998
 40
0.5937499999999999
 40
0.5937499999999999
 40
0.6249999999999999
 40
0.6249999999999999
 40
0.6406249999999999
 40
0.6406249999999999
 40
0.6562499999999999
 40
0.6562499999999999
 40
0.6874999999999999
 40
0.6874999999999999
 40
0.7187499999999999
 40
0.7187499999999999
 40
0.7499999999999999
 40
0.7499999999999999
 40
0.78125
 40
0.78125
 40
0.8125
 40
0.8125
 40
0.84375
 40
0.84375
 40
0.875
 40
0.875
 40
0.90625
 40
0.90625
 40
0.9375000000000001
 40
0.9375000000000001
 40
0.9687500000000001
 40
0.9687500000000001
 40
1.0
 40
1.0
 40
1.03125
 40
1.03125
 10
72.53567865298291
 20
95.23646966354302
 30
0.0
 10
72.89193996117133
 20
95.17660205618748
 30
0.0
 10
73.08817800468853
 20
95.14634799691576
 30
0.0
 10
73.51845901964928
 20
95.08862092047367
 30
0.0
 10
73.75511492584869
 20
95.06095872505587
 30
0.0
 10
74.24872809727088
 20
95.01427332891225
 30
0.0
 10
74.50733584890318
 20
94.99493135485142
 30
0.0
 10
74.91450980023642
 20
94.97413857798611
 30
0.0
 10
75.05397200919342
 20
94.96859120263241
 30
0.0
 10
75.33155657969003
 20
94.96081549955404
 30
0.0
 10
75.60967062784813
 20
94.95623910577974
 30
0.0
 10
75.88883280145077
 20
94.95812674260115
 30
0.0
 10
76.16852978364177
 20
94.96328496621813
 30
0.0
 10
76.30921379596418
 20
94.96754266725745
 30
0.0
 10
76.72107957275873
 20
94.98471232564388
 30
0.0
 10
76.9855800061773
 20
95.00202130834346
 30
0.0
 10
77.49537272428618
 20
95.04590331365831
 30
0.0
 10
77.7362173840005
 20
95.07215362667289
 30
0.0
 10
78.18048465354215
 20
95.12841853494706
 30
0.0
 10
78.3876341652694
 20
95.15892886817099
 30
0.0
 10
78.75711226406824
 20
95.21872289638719
 30
0.0
 10
78.92055985180595
 20
95.24808637607418
 30
0.0
 10
79.20699553990025
 20
95.30262845524229
 30
0.0
 10
79.3286630879793
 20
95.3275746661801
 30
0.0
 10
79.52420357871014
 20
95.36899005112028
 30
0.0
 10
79.59937355836847
 20
95.38571845568829
 30
0.0
 10
79.70395200383327
 20
95.40927153735464
 30
0.0
 10
79.73198952781011
 20
95.41577870613244
 30
0.0
 10
79.74139411362081
 20
95.41794472748849
 30
0.0
 10
79.72273909494551
 20
95.41359904457292
 30
0.0
 10
79.63706769991668
 20
95.39415934896503
 30
0.0
 10
79.57120014835509
 20
95.37933403346945
 30
0.0
 10
79.39434122947516
 20
95.34128358798063
 30
0.0
 10
79.28258817796008
 20
95.31789524832504
 30
0.0
 10
79.01327393077149
 20
95.26528336000891
 30
0.0
 10
78.85857281899692
 20
95.23662454936321
 30
0.0
 10
78.50835450357513
 20
95.17769703866603
 30
0.0
 10
78.31065300232
 20
95.14711238014027
 30
0.0
 10
77.87894744201961
 20
95.08908179955665
 30
0.0
 10
77.64834491739973
 20
95.06204591635318
 30
0.0
 10
77.1561999380571
 20
95.0152046096932
 30
0.0
 10
76.8905031507308
 20
94.99523085537909
 30
0.0
 10
76.34965346811117
 20
94.96745170465843
 30
0.0
 10
76.07396315166963
 20
94.95940134455928
 30
0.0
 10
75.65219198309346
 20
94.95715177305708
 30
0.0
 10
75.50972818207426
 20
94.95807365930014
 30
0.0
 10
75.2299309097608
 20
94.96315668650576
 30
0.0
 10
75.09164304516239
 20
94.96729996047095
 30
0.0
 10
74.68147086575478
 20
94.98421934142264
 30
0.0
 10
74.41115949109603
 20
95.00180308120139
 30
0.0
 10
73.90274866421014
 20
95.04545550903961
 30
0.0
 10
73.66380910933836
 20
95.07138670614636
 30
0.0
 10
73.21473943016682
 20
95.12815587328689
 30
0.0
 10
73.00962244672174
 20
95.15836981258946
 30
0.0
 10
72.64011329514044
 20
95.21809024714385
 30
0.0
 10
72.47349086807705
 20
95.2479975479092
 30
0.0
 10
72.18731087902519
 20
95.3024805096656
 30
0.0
 10
72.06696426746365
 20
95.32714406077416
 30
0.0
 10
71.86998174298448
 20
95.36884909452489
 30
0.0
 10
71.7937329136108
 20
95.38582002294926
 30
0.0
 10
71.69015076952873
 20
95.40914842184095
 30
0.0
 10
71.66172700079973
 20
95.41574192252554
 30
0.0
 10
71.65205822768445
 20
95.41796877424775
 30
0.0
 10
71.67135981437298
 20
95.41347572449726
 30
0.0
 10
71.75618851559571
 20
95.39422785824755
 30
0.0
 10
71.82158100120056
 20
95.37949995716482
 30
0.0
 10
72.00034934472698
 20
95.34104061049351
 30
0.0
 10
72.11326257193403
 20
95.31743745094374
 30
0.0
 10
72.38046108624908
 20
95.26525829072155
 30
0.0
 10
72.53567865298291
 20
95.23646966354302
 30
0.0
 10
72.89193996117133
 20
95.17660205618748
 30
0.0
  0
LINE
  5
1E7
330
1F
100
AcDbEntity
  8
0
  6
HIDDEN
 62
     7
370
     0
100
AcDbLine
 10
72.196778284
 20
129.957646531
 30
0.0
 11
79.1809301838
 21
129.957646531
 31
0.0
  0
SPLINE
  5
1E8
330
1F
100
AcDbEntity
  8
0
  6
HIDDEN
 62
     7
370
     0
100
AcDbSpline
210
0.0
220
0.0
230
1.0
 70
     8
 71
     3
 72
    75
 73
    71
 74
     0
 42
0.00000001
 43
0.00000001
 12
1.0
 22
0.0
 32
0.0
 13
1.0
 23
0.0
 33
0.0
 40
-0.0312499999999999
 40
-0.0312499999999999
 40
0.0
 40
0.0
 40
0.0312499999999998
 40
0.0312499999999998
 40
0.0624999999999996
 40
0.0624999999999996
 40
0.0937499999999994
 40
0.0937499999999994
 40
0.1093749999999994
 40
0.1093749999999994
 40
0.1249999999999994
 40
0.1406249999999995
 40
0.1406249999999995
 40
0.1562499999999995
 40
0.1562499999999995
 40
0.1874999999999995
 40
0.1874999999999995
 40
0.2187499999999995
 40
0.2187499999999995
 40
0.2499999999999996
 40
0.2499999999999996
 40
0.2812499999999996
 40
0.2812499999999996
 40
0.3124999999999996
 40
0.3124999999999996
 40
0.3437499999999996
 40
0.3437499999999996
 40
0.3749999999999996
 40
0.3749999999999996
 40
0.4062499999999996
 40
0.4062499999999996
 40
0.4374999999999996
 40
0.4374999999999996
 40
0.4687499999999996
 40
0.4687499999999996
 40
0.4999999999999996
 40
0.4999999999999996
 40
0.5312499999999996
 40
0.5312499999999996
 40
0.5624999999999997
 40
0.5624999999999997
 40
0.5937499999999997
 40
0.5937499999999997
 40
0.6249999999999997
 40
0.6249999999999997
 40
0.6406249999999997
 40
0.6406249999999997
 40
0.6562499999999998
 40
0.6562499999999998
 40
0.6874999999999998
 40
0.6874999999999998
 40
0.7187499999999998
 40
0.7187499999999998
 40
0.7499999999999998
 40
0.7499999999999998
 40
0.7812499999999999
 40
0.7812499999999999
 40
0.8124999999999999
 40
0.8124999999999999
 40
0.8437499999999999
 40
0.8437499999999999
 40
0.875
 40
0.875
 40
0.90625
 40
0.90625
 40
0.9375
 40
0.9375
 40
0.9687500000000001
 40
0.9687500000000001
 40
1.0
 40
1.0
 40
1.03125
 40
1.03125
 10
78.85787813099894
 20
130.6788215508035
 30
0.0
 10
78.50161682281052
 20
130.738689158159
 30
0.0
 10
78.30537877929332
 20
130.7689432174307
 30
0.0
 10
77.87509776433257
 20
130.8266702938728
 30
0.0
 10
77.63844185813316
 20
130.8543324892906
 30
0.0
 10
77.14482868671095
 20
130.9010178854342
 30
0.0
 10
76.88622093507867
 20
130.9203598594951
 30
0.0
 10
76.47904698374543
 20
130.9411526363604
 30
0.0
 10
76.33958477478843
 20
130.9467000117141
 30
0.0
 10
76.06200020429182
 20
130.9544757147924
 30
0.0
 10
75.78388615613372
 20
130.9590521085668
 30
0.0
 10
75.50472398253108
 20
130.9571644717453
 30
0.0
 10
75.22502700034008
 20
130.9520062481284
 30
0.0
 10
75.08434298801767
 20
130.947748547089
 30
0.0
 10
74.67247721122312
 20
130.9305788887026
 30
0.0
 10
74.40797677780455
 20
130.9132699060031
 30
0.0
 10
73.89818405969567
 20
130.8693879006882
 30
0.0
 10
73.65733939998134
 20
130.8431375876736
 30
0.0
 10
73.2130721304397
 20
130.7868726793995
 30
0.0
 10
73.00592261871246
 20
130.7563623461755
 30
0.0
 10
72.63644451991361
 20
130.6965683179593
 30
0.0
 10
72.4729969321759
 20
130.6672048382723
 30
0.0
 10
72.18656124408162
 20
130.6126627591042
 30
0.0
 10
72.06489369600256
 20
130.5877165481664
 30
0.0
 10
71.86935320527171
 20
130.5463011632263
 30
0.0
 10
71.79418322561338
 20
130.5295727586582
 30
0.0
 10
71.68960478014858
 20
130.5060196769919
 30
0.0
 10
71.66156725617174
 20
130.4995125082141
 30
0.0
 10
71.65216267036104
 20
130.497346486858
 30
0.0
 10
71.67081768903635
 20
130.5016921697736
 30
0.0
 10
71.75648908406518
 20
130.5211318653815
 30
0.0
 10
71.82235663562676
 20
130.5359571808771
 30
0.0
 10
71.99921555450669
 20
130.5740076263659
 30
0.0
 10
72.11096860602179
 20
130.5973959660215
 30
0.0
 10
72.38028285321036
 20
130.6500078543376
 30
0.0
 10
72.53498396498493
 20
130.6786666649833
 30
0.0
 10
72.88520228040673
 20
130.7375941756805
 30
0.0
 10
73.08290378166186
 20
130.7681788342063
 30
0.0
 10
73.51460934196224
 20
130.8262094147899
 30
0.0
 10
73.74521186658212
 20
130.8532452979933
 30
0.0
 10
74.23735684592475
 20
130.9000866046533
 30
0.0
 10
74.50305363325106
 20
130.9200603589674
 30
0.0
 10
75.04390331587066
 20
130.9478395096881
 30
0.0
 10
75.31959363231222
 20
130.9558898697872
 30
0.0
 10
75.7413648008884
 20
130.9581394412894
 30
0.0
 10
75.8838286019076
 20
130.9572175550464
 30
0.0
 10
76.16362587422105
 20
130.9521345278408
 30
0.0
 10
76.30191373881947
 20
130.9479912538756
 30
0.0
 10
76.71208591822707
 20
130.9310718729239
 30
0.0
 10
76.98239729288584
 20
130.9134881331451
 30
0.0
 10
77.49080811977171
 20
130.8698357053069
 30
0.0
 10
77.72974767464349
 20
130.8439045082001
 30
0.0
 10
78.17881735381503
 20
130.7871353410596
 30
0.0
 10
78.38393433726011
 20
130.756921401757
 30
0.0
 10
78.75344348884141
 20
130.6972009672026
 30
0.0
 10
78.9200659159048
 20
130.6672936664373
 30
0.0
 10
79.20624590495665
 20
130.6128107046809
 30
0.0
 10
79.32659251651819
 20
130.5881471535723
 30
0.0
 10
79.52357504099736
 20
130.5464421198216
 30
0.0
 10
79.59982387037105
 20
130.5294711913972
 30
0.0
 10
79.70340601445312
 20
130.5061427925055
 30
0.0
 10
79.73182978318212
 20
130.499549291821
 30
0.0
 10
79.7414985562974
 20
130.4973224400987
 30
0.0
 10
79.72219696960886
 20
130.5018154898492
 30
0.0
 10
79.63736826838613
 20
130.5210633560989
 30
0.0
 10
79.5719757827813
 20
130.5357912571816
 30
0.0
 10
79.39320743925485
 20
130.574250603853
 30
0.0
 10
79.28029421204782
 20
130.5978537634027
 30
0.0
 10
79.01309569773275
 20
130.6500329236249
 30
0.0
 10
78.85787813099894
 20
130.6788215508035
 30
0.0
 10
78.50161682281052
 20
130.738689158159
 30
0.0
  0
SPLINE
  5
1E9
330
1F
100
AcDbEntity
  8
0
  6
HIDDEN
 62
     7
370
     0
100
AcDbSpline
210
0.0
220
0.0
230
1.0
 70
    11
 71
     3
 72
    66
 73
    62
 74
     0
 42
0.00000001
 43
0.00000001
 12
1.0
 22
0.0
 32
0.0
 13
1.0
 23
0.0
 33
0.0
 40
-0.0312500000000001
 40
-0.0312500000000001
 40
0.0
 40
0.0
 40
0.0312499999999997
 40
0.0312499999999997
 40
0.0624999999999993
 40
0.0624999999999993
 40
0.1249999999999994
 40
0.1249999999999994
 40
0.1562499999999995
 40
0.1562499999999995
 40
0.1874999999999995
 40
0.1874999999999995
 40
0.2187499999999996
 40
0.2187499999999996
 40
0.2499999999999996
 40
0.2499999999999996
 40
0.2812499999999997
 40
0.2812499999999997
 40
0.3124999999999997
 40
0.3124999999999997
 40
0.3437499999999998
 40
0.3437499999999998
 40
0.3749999999999998
 40
0.3749999999999998
 40
0.4062499999999998
 40
0.4062499999999998
 40
0.4374999999999999
 40
0.4374999999999999
 40
0.4687499999999999
 40
0.4687499999999999
 40
0.5
 40
0.5
 40
0.53125
 40
0.53125
 40
0.5625
 40
0.5625
 40
0.59375
 40
0.59375
 40
0.625
 40
0.625
 40
0.65625
 40
0.65625
 40
0.6875
 40
0.6875
 40
0.71875
 40
0.71875
 40
0.7499999999999999
 40
0.7499999999999999
 40
0.7812499999999999
 40
0.7812499999999999
 40
0.8124999999999999
 40
0.8124999999999999
 40
0.8749999999999996
 40
0.8749999999999996
 40
0.9062499999999997
 40
0.9062499999999997
 40
0.9374999999999998
 40
0.9374999999999998
 40
0.9687499999999999
 40
0.9687499999999999
 40
1.0
 40
1.0
 40
1.03125
 40
1.03125
 10
79.19677839199085
 20
108.0842484347688
 30
0.0
 10
79.19677839199085
 20
108.0842484347688
 30
0.0
 10
79.17293149215955
 20
108.0668885577971
 30
0.0
 10
79.0809087228287
 20
108.0027685354652
 30
0.0
 10
79.01153766453695
 20
107.9553157746108
 30
0.0
 10
78.74707627015168
 20
107.7866288784065
 30
0.0
 10
78.4916544309605
 20
107.6371379103819
 30
0.0
 10
78.02023663295371
 20
107.4230882302272
 30
0.0
 10
77.84544750510585
 20
107.3520922662171
 30
0.0
 10
77.47215883389119
 20
107.2229240356864
 30
0.0
 10
77.27429480101821
 20
107.1647217290008
 30
0.0
 10
76.85425528473604
 20
107.0664002106707
 30
0.0
 10
76.62905831803894
 20
107.0260967265455
 30
0.0
 10
76.17432999948372
 20
106.9722999658615
 30
0.0
 10
75.943135034497
 20
106.9580924357587
 30
0.0
 10
75.47268987762368
 20
106.957219439836
 30
0.0
 10
75.23629428965658
 20
106.9709469060027
 30
0.0
 10
74.78059886409638
 20
107.023572636627
 30
0.0
 10
74.55594021545583
 20
107.0630818021507
 30
0.0
 10
74.13174956645985
 20
107.1612606154928
 30
0.0
 10
73.932139552844
 20
107.2195581986637
 30
0.0
 10
73.5558265372727
 20
107.3490876377751
 30
0.0
 10
73.38151885406928
 20
107.4196366076664
 30
0.0
 10
73.06605708126412
 20
107.562344337379
 30
0.0
 10
72.92251985952967
 20
107.6355972074791
 30
0.0
 10
72.67056118497104
 20
107.7747198900172
 30
0.0
 10
72.56343601684821
 20
107.8397204648174
 30
0.0
 10
72.38654274648408
 20
107.9523152310803
 30
0.0
 10
72.31622888892447
 20
108.0003100231255
 30
0.0
 10
72.22205885273448
 20
108.0658550189471
 30
0.0
 10
72.19754080597679
 20
108.0837008846568
 30
0.0
 10
72.19605060885249
 20
108.0847711136241
 30
0.0
 10
72.21935888388074
 20
108.0677937474686
 30
0.0
 10
72.31066679691445
 20
108.0041270687068
 30
0.0
 10
72.37970432382475
 20
107.9568543031333
 30
0.0
 10
72.55564371946019
 20
107.8445088977465
 30
0.0
 10
72.66346548588267
 20
107.778876480444
 30
0.0
 10
72.91478501891433
 20
107.6396431883617
 30
0.0
 10
73.05621931086245
 20
107.5671567666199
 30
0.0
 10
73.37116327028029
 20
107.423981675678
 30
0.0
 10
73.5465424289446
 20
107.3527048456146
 30
0.0
 10
73.91915766785944
 20
107.2236295452409
 30
0.0
 10
74.11723488503141
 20
107.1652332964442
 30
0.0
 10
74.5393877086539
 20
107.0663431303021
 30
0.0
 10
74.76463054558954
 20
107.0260845043645
 30
0.0
 10
75.21891864074671
 20
106.9723330186742
 30
0.0
 10
75.45076535197255
 20
106.9580118309122
 30
0.0
 10
75.92459121027582
 20
106.9572931854453
 30
0.0
 10
76.15905235764197
 20
106.9710653778841
 30
0.0
 10
76.61573607007827
 20
107.0239825861618
 30
0.0
 10
76.84135732667805
 20
107.0638131866064
 30
0.0
 10
77.47706593882666
 20
107.2113544199463
 30
0.0
 10
77.85823206882131
 20
107.349771644701
 30
0.0
 10
78.3317566513852
 20
107.5644162715587
 30
0.0
 10
78.47595108030836
 20
107.6381805382644
 30
0.0
 10
78.72657734604552
 20
107.7768321817698
 30
0.0
 10
78.83350852763574
 20
107.8417971443927
 30
0.0
 10
79.0102415664605
 20
107.9544523039488
 30
0.0
 10
79.08016148655868
 20
108.0022542068131
 30
0.0
 10
79.17277649902674
 20
108.066774288558
 30
0.0
 10
79.19677839199085
 20
108.0842484347688
 30
0.0
 10
79.19677839199085
 20
108.0842484347688
 30
0.0
  0
SPLINE
  5
1EA
330
1F
100
AcDbEntity
  8
0
  6
HIDDEN
 62
     7
370
     0
100
AcDbSpline
210
0.0
220
0.0
230
1.0
 70
    11
 71
     3
 72
    66
 73
    62
 74
     0
 42
0.00000001
 43
0.00000001
 12
1.0
 22
0.0
 32
0.0
 13
1.0
 23
0.0
 33
0.0
 40
-0.0312500000000001
 40
-0.0312500000000001
 40
0.0
 40
0.0
 40
0.0312499999999996
 40
0.0312499999999996
 40
0.0624999999999992
 40
0.0624999999999992
 40
0.1249999999999993
 40
0.1249999999999993
 40
0.1562499999999993
 40
0.1562499999999993
 40
0.1874999999999993
 40
0.1874999999999993
 40
0.2187499999999993
 40
0.2187499999999993
 40
0.2499999999999992
 40
0.2499999999999992
 40
0.2812499999999992
 40
0.2812499999999992
 40
0.3124999999999992
 40
0.3124999999999992
 40
0.3437499999999992
 40
0.3437499999999992
 40
0.3749999999999992
 40
0.3749999999999992
 40
0.4062499999999992
 40
0.4062499999999992
 40
0.4374999999999992
 40
0.4374999999999992
 40
0.4687499999999992
 40
0.4687499999999992
 40
0.4999999999999992
 40
0.4999999999999992
 40
0.5312499999999992
 40
0.5312499999999992
 40
0.5624999999999993
 40
0.5624999999999993
 40
0.5937499999999993
 40
0.5937499999999993
 40
0.6249999999999994
 40
0.6249999999999994
 40
0.6562499999999994
 40
0.6562499999999994
 40
0.6874999999999996
 40
0.6874999999999996
 40
0.7187499999999996
 40
0.7187499999999996
 40
0.7499999999999997
 40
0.7499999999999997
 40
0.7812499999999997
 40
0.7812499999999997
 40
0.8124999999999998
 40
0.8124999999999998
 40
0.8749999999999994
 40
0.8749999999999994
 40
0.9062499999999996
 40
0.9062499999999996
 40
0.9374999999999998
 40
0.9374999999999998
 40
0.9687499999999999
 40
0.9687499999999999
 40
1.0
 40
1.0
 40
1.03125
 40
1.03125
 10
72.19677839199092
 20
117.8310427795778
 30
0.0
 10
72.19677839199092
 20
117.8310427795778
 30
0.0
 10
72.22062529182222
 20
117.8484026565494
 30
0.0
 10
72.31264806115307
 20
117.9125226788813
 30
0.0
 10
72.38201911944482
 20
117.9599754397357
 30
0.0
 10
72.64648051383007
 20
118.1286623359401
 30
0.0
 10
72.90190235302127
 20
118.2781533039647
 30
0.0
 10
73.37332015102805
 20
118.4922029841193
 30
0.0
 10
73.54810927887591
 20
118.5631989481294
 30
0.0
 10
73.92139795009058
 20
118.6923671786601
 30
0.0
 10
74.11926198296355
 20
118.7505694853457
 30
0.0
 10
74.53930149924572
 20
118.8488910036758
 30
0.0
 10
74.76449846594282
 20
118.889194487801
 30
0.0
 10
75.21922678449805
 20
118.942991248485
 30
0.0
 10
75.45042174948478
 20
118.9571987785878
 30
0.0
 10
75.92086690635809
 20
118.9580717745105
 30
0.0
 10
76.15726249432518
 20
118.9443443083438
 30
0.0
 10
76.61295791988539
 20
118.8917185777194
 30
0.0
 10
76.83761656852593
 20
118.8522094121957
 30
0.0
 10
77.26180721752193
 20
118.7540305988537
 30
0.0
 10
77.46141723113777
 20
118.6957330156828
 30
0.0
 10
77.83773024670907
 20
118.5662035765714
 30
0.0
 10
78.01203792991247
 20
118.49565460668
 30
0.0
 10
78.32749970271765
 20
118.3529468769675
 30
0.0
 10
78.4710369244521
 20
118.2796940068674
 30
0.0
 10
78.72299559901072
 20
118.1405713243293
 30
0.0
 10
78.83012076713355
 20
118.075570749529
 30
0.0
 10
79.00701403749768
 20
117.9629759832662
 30
0.0
 10
79.0773278950573
 20
117.914981191221
 30
0.0
 10
79.17149793124729
 20
117.8494361953994
 30
0.0
 10
79.19601597800497
 20
117.8315903296897
 30
0.0
 10
79.19750617512928
 20
117.8305201007224
 30
0.0
 10
79.174197900101
 20
117.8474974668779
 30
0.0
 10
79.0828899870673
 20
117.9111641456397
 30
0.0
 10
79.01385246015703
 20
117.9584369112132
 30
0.0
 10
78.83791306452157
 20
118.0707823166
 30
0.0
 10
78.73009129809908
 20
118.1364147339025
 30
0.0
 10
78.47877176506744
 20
118.2756480259847
 30
0.0
 10
78.33733747311932
 20
118.3481344477266
 30
0.0
 10
78.02239351370146
 20
118.4913095386685
 30
0.0
 10
77.84701435503716
 20
118.5625863687319
 30
0.0
 10
77.47439911612233
 20
118.6916616691056
 30
0.0
 10
77.27632189895036
 20
118.7500579179023
 30
0.0
 10
76.85416907532786
 20
118.8489480840444
 30
0.0
 10
76.62892623839222
 20
118.889206709982
 30
0.0
 10
76.17463814323507
 20
118.9429581956723
 30
0.0
 10
75.9427914320092
 20
118.9572793834344
 30
0.0
 10
75.46896557370593
 20
118.9579980289013
 30
0.0
 10
75.23450442633981
 20
118.9442258364624
 30
0.0
 10
74.77782071390348
 20
118.8913086281847
 30
0.0
 10
74.55219945730373
 20
118.8514780277402
 30
0.0
 10
73.91649084515511
 20
118.7039367944002
 30
0.0
 10
73.53532471516044
 20
118.5655195696455
 30
0.0
 10
73.06180013259656
 20
118.3508749427879
 30
0.0
 10
72.9176057036734
 20
118.2771106760821
 30
0.0
 10
72.66697943793625
 20
118.1384590325767
 30
0.0
 10
72.56004825634602
 20
118.0734940699538
 30
0.0
 10
72.38331521752126
 20
117.9608389103978
 30
0.0
 10
72.31339529742309
 20
117.9130370075334
 30
0.0
 10
72.22078028495501
 20
117.8485169257886
 30
0.0
 10
72.19677839199092
 20
117.8310427795778
 30
0.0
 10
72.19677839199092
 20
117.8310427795778
 30
0.0
  0
LINE
  5
1EB
330
1F
100
AcDbEntity
  8
0
  6
HIDDEN
 62
     7
370
     0
100
AcDbLine
 10
93.6967776171
 20
109.6481456691
 30
0.0
 11
93.6967776171
 21
116.2671455452
 31
0.0
  0
LINE
  5
1EC
330
1F
100
AcDbEntity
  8
0
  6
HIDDEN
 62
     7
370
     0
100
AcDbLine
 10
93.2981175385
 20
116.7249846542
 30
0.0
 11
93.2981175385
 21
109.1903065601
 31
0.0
  0
LINE
  5
1ED
330
1F
100
AcDbEntity
  8
0
  6
HIDDEN
 62
     7
370
     0
100
AcDbLine
 10
93.2981175385
 20
108.9576454172
 30
0.0
 11
93.2981175385
 21
116.9576457972
 31
0.0
  0
LINE
  5
1EE
330
1F
100
AcDbEntity
  8
0
  6
HIDDEN
 62
     7
370
     0
100
AcDbLine
 10
82.9467781834
 20
108.9576454172
 30
0.0
 11
82.9467781834
 21
116.9576457972
 31
0.0
  0
LINE
  5
1EF
330
1F
100
AcDbEntity
  8
0
  6
HIDDEN
 62
     7
370
     0
100
AcDbLine
 10
81.6967784441
 20
110.2076456221
 30
0.0
 11
81.6967784441
 21
115.7076455923
 31
0.0
  0
LINE
  5
1F0
330
1F
100
AcDbEntity
  8
0
  6
HIDDEN
 62
     7
370
     0
100
AcDbLine
 10
93.6967776171
 20
114.1123461341
 30
0.0
 11
93.6967776171
 21
111.8029450802
 31
0.0
  0
LINE
  5
1F1
330
1F
100
AcDbEntity
  8
0
  6
HIDDEN
 62
     7
370
     0
100
AcDbLine
 10
88.6967786602
 20
111.8029450802
 30
0.0
 11
93.6967776171
 21
111.8029450802
 31
0.0
  0
LINE
  5
1F2
330
1F
100
AcDbEntity
  8
0
  6
HIDDEN
 62
     7
370
     0
100
AcDbLine
 10
93.6967776171
 20
111.8029450802
 30
0.0
 11
93.6967776171
 21
110.6482445532
 31
0.0
  0
LINE
  5
1F3
330
1F
100
AcDbEntity
  8
0
  6
HIDDEN
 62
     7
370
     0
100
AcDbLine
 10
88.6967786602
 20
111.8029450802
 30
0.0
 11
88.6967786602
 21
110.6482445532
 31
0.0
  0
LINE
  5
1F4
330
1F
100
AcDbEntity
  8
0
  6
HIDDEN
 62
     7
370
     0
100
AcDbLine
 10
88.6967786602
 20
114.1123461341
 30
0.0
 11
88.6967786602
 21
111.8029450802
 31
0.0
  0
LINE
  5
1F5
330
1F
100
AcDbEntity
  8
0
  6
HIDDEN
 62
     7
370
     0
100
AcDbLine
 10
88.6967786602
 20
114.1123461341
 30
0.0
 11
88.6967786602
 21
115.2670466611
 31
0.0
  0
LINE
  5
1F6
330
1F
100
AcDbEntity
  8
0
  6
HIDDEN
 62
     7
370
     0
100
AcDbLine
 10
88.6967786602
 20
114.1123461341
 30
0.0
 11
93.6967776171
 21
114.1123461341
 31
0.0
  0
LINE
  5
1F7
330
1F
100
AcDbEntity
  8
0
  6
HIDDEN
 62
     7
370
     0
100
AcDbLine
 10
93.6967776171
 20
114.1123461341
 30
0.0
 11
93.6967776171
 21
115.2670466611
 31
0.0
  0
LINE
  5
1F8
330
1F
100
AcDbEntity
  8
0
  6
HIDDEN
 62
     7
370
     0
100
AcDbLine
 10
88.6967786602
 20
115.2670466611
 30
0.0
 11
93.6967776171
 21
115.2670466611
 31
0.0
  0
LINE
  5
1F9
330
1F
100
AcDbEntity
  8
0
  6
HIDDEN
 62
     7
370
     0
100
AcDbLine
 10
88.6967786602
 20
110.6482445532
 30
0.0
 11
93.6967776171
 21
110.6482445532
 31
0.0
  0
LINE
  5
1FA
330
1F
100
AcDbEntity
  8
0
  6
HIDDEN
 62
     7
370
     0
100
AcDbLine
 10
71.9294393449
 20
130.5589847537
 30
0.0
 11
79.464117439
 21
130.5589847537
 31
0.0
  0
LINE
  5
1FB
330
1F
100
AcDbEntity
  8
0
  6
HIDDEN
 62
     7
370
     0
100
AcDbLine
 10
79.696778582
 20
130.5589847537
 30
0.0
 11
71.696778202
 21
130.5589847537
 31
0.0
  0
LINE
  5
1FC
330
1F
100
AcDbEntity
  8
0
  6
HIDDEN
 62
     7
370
     0
100
AcDbLine
 10
79.696778582
 20
120.2076453986
 30
0.0
 11
71.696778202
 21
120.2076453986
 31
0.0
  0
LINE
  5
1FD
330
1F
100
AcDbEntity
  8
0
  6
HIDDEN
 62
     7
370
     0
100
AcDbLine
 10
78.4467783771
 20
118.9576456593
 30
0.0
 11
72.9467784069
 21
118.9576456593
 31
0.0
  0
LINE
  5
1FE
330
1F
100
AcDbEntity
  8
0
  6
HIDDEN
 62
     7
370
     0
100
AcDbLine
 10
79.00627833
 20
130.9576448323
 30
0.0
 11
72.3872784539
 21
130.9576448323
 31
0.0
  0
LINE
  5
1FF
330
1F
100
AcDbEntity
  8
0
  6
HIDDEN
 62
     7
370
     0
100
AcDbLine
 10
76.851478919
 20
125.9576458754
 30
0.0
 11
78.0061794459
 21
125.9576458754
 31
0.0
  0
LINE
  5
200
330
1F
100
AcDbEntity
  8
0
  6
HIDDEN
 62
     7
370
     0
100
AcDbLine
 10
76.851478919
 20
130.9576448323
 30
0.0
 11
78.0061794459
 21
130.9576448323
 31
0.0
  0
LINE
  5
201
330
1F
100
AcDbEntity
  8
0
  6
HIDDEN
 62
     7
370
     0
100
AcDbLine
 10
76.851478919
 20
125.9576458754
 30
0.0
 11
76.851478919
 21
130.9576448323
 31
0.0
  0
LINE
  5
202
330
1F
100
AcDbEntity
  8
0
  6
HIDDEN
 62
     7
370
     0
100
AcDbLine
 10
74.542077865
 20
125.9576458754
 30
0.0
 11
76.851478919
 21
125.9576458754
 31
0.0
  0
LINE
  5
203
330
1F
100
AcDbEntity
  8
0
  6
HIDDEN
 62
     7
370
     0
100
AcDbLine
 10
74.542077865
 20
130.9576448323
 30
0.0
 11
76.851478919
 21
130.9576448323
 31
0.0
  0
LINE
  5
204
330
1F
100
AcDbEntity
  8
0
  6
HIDDEN
 62
     7
370
     0
100
AcDbLine
 10
74.542077865
 20
125.9576458754
 30
0.0
 11
74.542077865
 21
130.9576448323
 31
0.0
  0
LINE
  5
205
330
1F
100
AcDbEntity
  8
0
  6
HIDDEN
 62
     7
370
     0
100
AcDbLine
 10
74.542077865
 20
125.9576458754
 30
0.0
 11
73.3873773381
 21
125.9576458754
 31
0.0
  0
LINE
  5
206
330
1F
100
AcDbEntity
  8
0
  6
HIDDEN
 62
     7
370
     0
100
AcDbLine
 10
74.542077865
 20
130.9576448323
 30
0.0
 11
73.3873773381
 21
130.9576448323
 31
0.0
  0
LINE
  5
207
330
1F
100
AcDbEntity
  8
0
  6
HIDDEN
 62
     7
370
     0
100
AcDbLine
 10
78.0061794459
 20
125.9576458754
 30
0.0
 11
78.0061794459
 21
130.9576448323
 31
0.0
  0
LINE
  5
208
330
1F
100
AcDbEntity
  8
0
  6
HIDDEN
 62
     7
370
     0
100
AcDbLine
 10
73.3873773381
 20
125.9576458754
 30
0.0
 11
73.3873773381
 21
130.9576448323
 31
0.0
  0
LINE
  5
209
330
1F
100
AcDbEntity
  8
0
  6
HIDDEN
 62
     7
370
     0
100
AcDbLine
 10
72.3872784539
 20
94.957646382
 30
0.0
 11
79.00627833
 21
94.957646382
 31
0.0
  0
LINE
  5
20A
330
1F
100
AcDbEntity
  8
0
  6
HIDDEN
 62
     7
370
     0
100
AcDbLine
 10
79.464117439
 20
95.3563064607
 30
0.0
 11
71.9294393449
 21
95.3563064607
 31
0.0
  0
LINE
  5
20B
330
1F
100
AcDbEntity
  8
0
  6
HIDDEN
 62
     7
370
     0
100
AcDbLine
 10
71.696778202
 20
95.3563064607
 30
0.0
 11
79.696778582
 21
95.3563064607
 31
0.0
  0
LINE
  5
20C
330
1F
100
AcDbEntity
  8
0
  6
HIDDEN
 62
     7
370
     0
100
AcDbLine
 10
71.696778202
 20
105.7076458158
 30
0.0
 11
79.696778582
 21
105.7076458158
 31
0.0
  0
LINE
  5
20D
330
1F
100
AcDbEntity
  8
0
  6
HIDDEN
 62
     7
370
     0
100
AcDbLine
 10
72.9467784069
 20
106.957645555
 30
0.0
 11
78.4467783771
 21
106.957645555
 31
0.0
  0
LINE
  5
20E
330
1F
100
AcDbEntity
  8
0
  6
HIDDEN
 62
     7
370
     0
100
AcDbLine
 10
76.851478919
 20
99.957645339
 30
0.0
 11
74.542077865
 21
99.957645339
 31
0.0
  0
LINE
  5
20F
330
1F
100
AcDbEntity
  8
0
  6
HIDDEN
 62
     7
370
     0
100
AcDbLine
 10
76.851478919
 20
94.957646382
 30
0.0
 11
74.542077865
 21
94.957646382
 31
0.0
  0
LINE
  5
210
330
1F
100
AcDbEntity
  8
0
  6
HIDDEN
 62
     7
370
     0
100
AcDbLine
 10
74.542077865
 20
99.957645339
 30
0.0
 11
74.542077865
 21
94.957646382
 31
0.0
  0
LINE
  5
211
330
1F
100
AcDbEntity
  8
0
  6
HIDDEN
 62
     7
370
     0
100
AcDbLine
 10
74.542077865
 20
99.957645339
 30
0.0
 11
73.3873773381
 21
99.957645339
 31
0.0
  0
LINE
  5
212
330
1F
100
AcDbEntity
  8
0
  6
HIDDEN
 62
     7
370
     0
100
AcDbLine
 10
74.542077865
 20
94.957646382
 30
0.0
 11
73.3873773381
 21
94.957646382
 31
0.0
  0
LINE
  5
213
330
1F
100
AcDbEntity
  8
0
  6
HIDDEN
 62
     7
370
     0
100
AcDbLine
 10
76.851478919
 20
99.957645339
 30
0.0
 11
76.851478919
 21
94.957646382
 31
0.0
  0
LINE
  5
214
330
1F
100
AcDbEntity
  8
0
  6
HIDDEN
 62
     7
370
     0
100
AcDbLine
 10
76.851478919
 20
99.957645339
 30
0.0
 11
78.0061794459
 21
99.957645339
 31
0.0
  0
LINE
  5
215
330
1F
100
AcDbEntity
  8
0
  6
HIDDEN
 62
     7
370
     0
100
AcDbLine
 10
76.851478919
 20
94.957646382
 30
0.0
 11
78.0061794459
 21
94.957646382
 31
0.0
  0
LINE
  5
216
330
1F
100
AcDbEntity
  8
0
  6
HIDDEN
 62
     7
370
     0
100
AcDbLine
 10
78.0061794459
 20
99.957645339
 30
0.0
 11
78.0061794459
 21
94.957646382
 31
0.0
  0
LINE
  5
217
330
1F
100
AcDbEntity
  8
0
  6
HIDDEN
 62
     7
370
     0
100
AcDbLine
 10
73.3873773381
 20
99.957645339
 30
0.0
 11
73.3873773381
 21
94.957646382
 31
0.0
  0
LINE
  5
218
330
1F
100
AcDbEntity
  8
0
  6
HIDDEN
 62
     7
370
     0
100
AcDbLine
 10
93.2348285816
 20
116.9956959123
 30
0.0
 11
92.6967793159
 21
116.4576457152
 31
0.0
  0
LINE
  5
219
330
1F
100
AcDbEntity
  8
0
  6
HIDDEN
 62
     7
370
     0
100
AcDbLine
 10
92.6967793159
 20
109.4576454991
 30
0.0
 11
93.234044408
 21
108.92037901
 31
0.0
  0
LINE
  5
21A
330
1F
100
AcDbEntity
  8
0
  6
HIDDEN
 62
     7
370
     0
100
AcDbLine
 10
71.6587280869
 20
130.4956957968
 30
0.0
 11
72.196778284
 21
129.957646531
 31
0.0
  0
LINE
  5
21B
330
1F
100
AcDbEntity
  8
0
  6
HIDDEN
 62
     7
370
     0
100
AcDbLine
 10
79.1967785
 20
129.957646531
 30
0.0
 11
79.7340449891
 21
130.4949116232
 31
0.0
  0
LINE
  5
21C
330
1F
100
AcDbEntity
  8
0
  6
HIDDEN
 62
     7
370
     0
100
AcDbLine
 10
79.7348286971
 20
95.4195954176
 30
0.0
 11
79.1967785
 21
95.9576446833
 31
0.0
  0
LINE
  5
21D
330
1F
100
AcDbEntity
  8
0
  6
HIDDEN
 62
     7
370
     0
100
AcDbLine
 10
72.196778284
 20
95.9576446833
 30
0.0
 11
71.6595117948
 21
95.4203795912
 31
0.0
  0
LINE
  5
21E
330
1F
100
AcDbEntity
  8
0
  6
HIDDEN
 62
     7
370
     0
100
AcDbLine
 10
92.6967793159
 20
116.4576457152
 30
0.0
 11
80.5701756864
 21
116.4576457152
 31
0.0
  0
LINE
  5
21F
330
1F
100
AcDbEntity
  8
0
  6
HIDDEN
 62
     7
370
     0
100
AcDbLine
 10
80.573792012
 20
109.4576454991
 30
0.0
 11
92.6967793159
 21
109.4576454991
 31
0.0
  0
LINE
  5
220
330
1F
100
AcDbEntity
  8
0
  6
HIDDEN
 62
     7
370
     0
100
AcDbLine
 10
79.1967785
 20
95.9576446833
 30
0.0
 11
79.1967785
 21
108.0842483127
 31
0.0
  0
LINE
  5
221
330
1F
100
AcDbEntity
  8
0
  6
HIDDEN
 62
     7
370
     0
100
AcDbLine
 10
72.196778284
 20
108.0806319872
 30
0.0
 11
72.196778284
 21
95.9576446833
 31
0.0
  0
LINE
  5
222
330
1F
100
AcDbEntity
  8
0
  6
HIDDEN
 62
     7
370
     0
100
AcDbLine
 10
72.196778284
 20
129.957646531
 30
0.0
 11
72.196778284
 21
117.8310429016
 31
0.0
  0
LINE
  5
223
330
1F
100
AcDbEntity
  8
0
  6
HIDDEN
 62
     7
370
     0
100
AcDbLine
 10
79.1967785
 20
117.8346592272
 30
0.0
 11
79.1967785
 21
129.957646531
 31
0.0
  0
LINE
  5
224
330
1F
100
AcDbEntity
  8
0
  6
HIDDEN
 62
     7
370
     0
100
AcDbLine
 10
79.7348286971
 20
95.4195954176
 30
0.0
 11
79.1967785
 21
95.9576446833
 31
0.0
  0
LINE
  5
225
330
1F
100
AcDbEntity
  8
0
  6
HIDDEN
 62
     7
370
     0
100
AcDbLine
 10
72.196778284
 20
95.9576446833
 30
0.0
 11
71.6595117948
 21
95.4203795912
 31
0.0
  0
LINE
  5
226
330
1F
100
AcDbEntity
  8
0
  6
HIDDEN
 62
     7
370
     0
100
AcDbLine
 10
71.6587280869
 20
130.4956957968
 30
0.0
 11
72.196778284
 21
129.957646531
 31
0.0
  0
LINE
  5
227
330
1F
100
AcDbEntity
  8
0
  6
HIDDEN
 62
     7
370
     0
100
AcDbLine
 10
79.1967785
 20
129.957646531
 30
0.0
 11
79.7340449891
 21
130.4949116232
 31
0.0
  0
LINE
  5
228
330
1F
100
AcDbEntity
  8
0
  6
HIDDEN
 62
     7
370
     0
100
AcDbLine
 10
79.1967785
 20
95.9576446833
 30
0.0
 11
79.1967785
 21
108.0842483127
 31
0.0
  0
LINE
  5
229
330
1F
100
AcDbEntity
  8
0
  6
HIDDEN
 62
     7
370
     0
100
AcDbLine
 10
72.196778284
 20
108.0806319872
 30
0.0
 11
72.196778284
 21
95.9576446833
 31
0.0
  0
LINE
  5
22A
330
1F
100
AcDbEntity
  8
0
  6
HIDDEN
 62
     7
370
     0
100
AcDbLine
 10
72.196778284
 20
129.957646531
 30
0.0
 11
72.196778284
 21
117.8310429016
 31
0.0
  0
LINE
  5
22B
330
1F
100
AcDbEntity
  8
0
  6
HIDDEN
 62
     7
370
     0
100
AcDbLine
 10
79.1967785
 20
117.8346592272
 30
0.0
 11
79.1967785
 21
129.957646531
 31
0.0
  0
LINE
  5
22C
330
1F
100
AcDbEntity
  8
0
  6
HIDDEN
 62
     7
370
     0
100
AcDbLine
 10
79.7348286971
 20
95.4195954176
 30
0.0
 11
79.1967785
 21
95.9576446833
 31
0.0
  0
LINE
  5
22D
330
1F
100
AcDbEntity
  8
0
  6
HIDDEN
 62
     7
370
     0
100
AcDbLine
 10
72.196778284
 20
95.9576446833
 30
0.0
 11
71.6595117948
 21
95.4203795912
 31
0.0
  0
LINE
  5
22E
330
1F
100
AcDbEntity
  8
0
  6
HIDDEN
 62
     7
370
     0
100
AcDbLine
 10
71.6587280869
 20
130.4956957968
 30
0.0
 11
72.196778284
 21
129.957646531
 31
0.0
  0
LINE
  5
22F
330
1F
100
AcDbEntity
  8
0
  6
HIDDEN
 62
     7
370
     0
100
AcDbLine
 10
79.1967785
 20
129.957646531
 30
0.0
 11
79.7340449891
 21
130.4949116232
 31
0.0
  0
LINE
  5
230
330
1F
100
AcDbEntity
  8
0
  6
HIDDEN
 62
     7
370
     0
100
AcDbLine
 10
79.1967785
 20
95.9576446833
 30
0.0
 11
79.1967785
 21
108.0842483127
 31
0.0
  0
LINE
  5
231
330
1F
100
AcDbEntity
  8
0
  6
HIDDEN
 62
     7
370
     0
100
AcDbLine
 10
72.196778284
 20
108.0806319872
 30
0.0
 11
72.196778284
 21
95.9576446833
 31
0.0
  0
LINE
  5
232
330
1F
100
AcDbEntity
  8
0
  6
HIDDEN
 62
     7
370
     0
100
AcDbLine
 10
72.196778284
 20
129.957646531
 30
0.0
 11
72.196778284
 21
117.8310429016
 31
0.0
  0
LINE
  5
233
330
1F
100
AcDbEntity
  8
0
  6
HIDDEN
 62
     7
370
     0
100
AcDbLine
 10
79.1967785
 20
117.8346592272
 30
0.0
 11
79.1967785
 21
129.957646531
 31
0.0
  0
LINE
  5
234
330
1F
100
AcDbEntity
  8
0
  6
HIDDEN
 62
     7
370
     0
100
AcDbLine
 10
93.2467066697
 20
116.9576457972
 30
0.0
 11
82.9467781834
 21
116.9576457972
 31
0.0
  0
LINE
  5
235
330
1F
100
AcDbEntity
  8
0
  6
HIDDEN
 62
     7
370
     0
100
AcDbLine
 10
82.9467781834
 20
108.9576454172
 30
0.0
 11
93.2467066697
 21
108.9576454172
 31
0.0
  0
LINE
  5
236
330
1F
100
AcDbEntity
  8
0
  6
HIDDEN
 62
     7
370
     0
100
AcDbLine
 10
82.9467781834
 20
116.9576457972
 30
0.0
 11
81.6967784441
 21
115.7076455923
 31
0.0
  0
LINE
  5
237
330
1F
100
AcDbEntity
  8
0
  6
HIDDEN
 62
     7
370
     0
100
AcDbLine
 10
81.6967784441
 20
110.2076456221
 30
0.0
 11
82.9467781834
 21
108.9576454172
 31
0.0
  0
LINE
  5
238
330
1F
100
AcDbEntity
  8
0
  6
HIDDEN
 62
     7
370
     0
100
AcDbLine
 10
71.696778202
 20
130.5075738849
 30
0.0
 11
71.696778202
 21
120.2076453986
 31
0.0
  0
LINE
  5
239
330
1F
100
AcDbEntity
  8
0
  6
HIDDEN
 62
     7
370
     0
100
AcDbLine
 10
79.696778582
 20
120.2076453986
 30
0.0
 11
79.696778582
 21
130.5075738849
 31
0.0
  0
LINE
  5
23A
330
1F
100
AcDbEntity
  8
0
  6
HIDDEN
 62
     7
370
     0
100
AcDbLine
 10
71.696778202
 20
120.2076453986
 30
0.0
 11
72.9467784069
 21
118.9576456593
 31
0.0
  0
LINE
  5
23B
330
1F
100
AcDbEntity
  8
0
  6
HIDDEN
 62
     7
370
     0
100
AcDbLine
 10
78.4467783771
 20
118.9576456593
 30
0.0
 11
79.696778582
 21
120.2076453986
 31
0.0
  0
LINE
  5
23C
330
1F
100
AcDbEntity
  8
0
  6
HIDDEN
 62
     7
370
     0
100
AcDbLine
 10
79.696778582
 20
95.4077173294
 30
0.0
 11
79.696778582
 21
105.7076458158
 31
0.0
  0
LINE
  5
23D
330
1F
100
AcDbEntity
  8
0
  6
HIDDEN
 62
     7
370
     0
100
AcDbLine
 10
71.696778202
 20
105.7076458158
 30
0.0
 11
71.696778202
 21
95.4077173294
 31
0.0
  0
LINE
  5
23E
330
1F
100
AcDbEntity
  8
0
  6
HIDDEN
 62
     7
370
     0
100
AcDbLine
 10
79.696778582
 20
105.7076458158
 30
0.0
 11
78.4467783771
 21
106.957645555
 31
0.0
  0
LINE
  5
23F
330
1F
100
AcDbEntity
  8
0
  6
HIDDEN
 62
     7
370
     0
100
AcDbLine
 10
72.9467784069
 20
106.957645555
 30
0.0
 11
71.696778202
 21
105.7076458158
 31
0.0
  0
INSERT
  5
24B
330
1F
100
AcDbEntity
  8
VERMASSUNG
100
AcDbBlockReference
  2
SW_CENTERMARKSYMBOL_0
 10
75.696778392
 20
112.9576456072
 30
0.0
  0
OLE2FRAME
  5
24C
330
1F
100
AcDbEntity
  8
0
100
AcDbOle2Frame
 70
     2
  3
Paintbrush-Bild
 10
13.8511154363
 20
38.264191557
 30
0.0
 11
51.6290888628
 21
31.9806341108
 31
0.0
 71
     2
 72
     0
 73
     1
 90
    12928
310
80552BED0767C5B32B40DDAF6807D121434000000000000000006FFBDDFB85D0
310
4940DDAF6807D121434000000000000000006FFBDDFB85D04940416F4BD60AFB
310
3F4000000000000000002BED0767C5B32B40416F4BD60AFB3F40000000000000
310
0000000000000100000000010000010000000100000000000100000000320000
310
D0CF11E0A1B11AE1000000000000000000000000000000003E000300FEFF0900
310
0600000000000000000000000100000001000000000000000010000002000000
310
01000000FEFFFFFF0000000000000000FFFFFFFFFFFFFFFFFFFFFFFFFFFFFFFF
310
FFFFFFFFFFFFFFFFFFFFFFFFFFFFFFFFFFFFFFFFFFFFFFFFFFFFFFFFFFFFFFFF
310
FFFFFFFFFFFFFFFFFFFFFFFFFFFFFFFFFFFFFFFFFFFFFFFFFFFFFFFFFFFFFFFF
310
FFFFFFFFFFFFFFFFFFFFFFFFFFFFFFFFFFFFFFFFFFFFFFFFFFFFFFFFFFFFFFFF
310
FFFFFFFFFFFFFFFFFFFFFFFFFFFFFFFFFFFFFFFFFFFFFFFFFFFFFFFFFFFFFFFF
310
FFFFFFFFFFFFFFFFFFFFFFFFFFFFFFFFFFFFFFFFFFFFFFFFFFFFFFFFFFFFFFFF
310
FFFFFFFFFFFFFFFFFFFFFFFFFFFFFFFFFFFFFFFFFFFFFFFFFFFFFFFFFFFFFFFF
310
FFFFFFFFFFFFFFFFFFFFFFFFFFFFFFFFFFFFFFFFFFFFFFFFFFFFFFFFFFFFFFFF
310
FFFFFFFFFFFFFFFFFFFFFFFFFFFFFFFFFFFFFFFFFFFFFFFFFFFFFFFFFFFFFFFF
310
FFFFFFFFFFFFFFFFFFFFFFFFFFFFFFFFFFFFFFFFFFFFFFFFFFFFFFFFFFFFFFFF
310
FFFFFFFFFFFFFFFFFFFFFFFFFFFFFFFFFFFFFFFFFFFFFFFFFFFFFFFFFFFFFFFF
310
FFFFFFFFFFFFFFFFFFFFFFFFFFFFFFFFFFFFFFFFFFFFFFFFFFFFFFFFFFFFFFFF
310
FFFFFFFFFFFFFFFFFFFFFFFFFFFFFFFFFFFFFFFFFFFFFFFFFFFFFFFFFFFFFFFF
310
FFFFFFFFFFFFFFFFFFFFFFFFFFFFFFFFFFFFFFFFFFFFFFFFFFFFFFFFFFFFFFFF
310
FDFFFFFFFEFFFFFFFEFFFFFFFEFFFFFF05000000060000000700000008000000
310
090000000A0000000B0000000C0000000D0000000E0000000F00000010000000
310
11000000120000001300000014000000150000001600000017000000FEFFFFFF
310
FFFFFFFFFFFFFFFFFFFFFFFFFFFFFFFFFFFFFFFFFFFFFFFFFFFFFFFFFFFFFFFF
310
FFFFFFFFFFFFFFFFFFFFFFFFFFFFFFFFFFFFFFFFFFFFFFFFFFFFFFFFFFFFFFFF
310
FFFFFFFFFFFFFFFFFFFFFFFFFFFFFFFFFFFFFFFFFFFFFFFFFFFFFFFFFFFFFFFF
310
FFFFFFFFFFFFFFFFFFFFFFFFFFFFFFFFFFFFFFFFFFFFFFFFFFFFFFFFFFFFFFFF
310
FFFFFFFFFFFFFFFFFFFFFFFFFFFFFFFFFFFFFFFFFFFFFFFFFFFFFFFFFFFFFFFF
310
FFFFFFFFFFFFFFFFFFFFFFFFFFFFFFFFFFFFFFFFFFFFFFFFFFFFFFFFFFFFFFFF
310
FFFFFFFFFFFFFFFFFFFFFFFFFFFFFFFFFFFFFFFFFFFFFFFFFFFFFFFFFFFFFFFF
310
FFFFFFFFFFFFFFFFFFFFFFFFFFFFFFFFFFFFFFFFFFFFFFFFFFFFFFFFFFFFFFFF
310
FFFFFFFFFFFFFFFFFFFFFFFFFFFFFFFFFFFFFFFFFFFFFFFFFFFFFFFFFFFFFFFF
310
FFFFFFFFFFFFFFFFFFFFFFFFFFFFFFFFFFFFFFFFFFFFFFFFFFFFFFFFFFFFFFFF
310
FFFFFFFFFFFFFFFFFFFFFFFFFFFFFFFFFFFFFFFFFFFFFFFFFFFFFFFFFFFFFFFF
310
FFFFFFFFFFFFFFFFFFFFFFFFFFFFFFFFFFFFFFFFFFFFFFFFFFFFFFFFFFFFFFFF
310
FFFFFFFFFFFFFFFFFFFFFFFFFFFFFFFFFFFFFFFFFFFFFFFFFFFFFFFFFFFFFFFF
310
52006F006F007400200045006E00740072007900000000000000000000000000
310
0000000000000000000000000000000000000000000000000000000000000000
310
16000500FFFFFFFFFFFFFFFF020000000A00030000000000C000000000000046
310
000000000000000000000000D0C1C0B2EC4DCD0103000000C000000000000000
310
01004F006C006500000000000000000000000000000000000000000000000000
310
0000000000000000000000000000000000000000000000000000000000000000
310
0A000200FFFFFFFFFFFFFFFFFFFFFFFF00000000000000000000000000000000
310
0000000000000000000000000000000000000000000000001400000000000000
310
010043006F006D0070004F0062006A0000000000000000000000000000000000
310
0000000000000000000000000000000000000000000000000000000000000000
310
120002010100000003000000FFFFFFFF00000000000000000000000000000000
310
0000000000000000000000000000000000000000010000004D00000000000000
310
01004F006C006500310030004E00610074006900760065000000000000000000
310
0000000000000000000000000000000000000000000000000000000000000000
310
1A000200FFFFFFFFFFFFFFFFFFFFFFFF00000000000000000000000000000000
310
0000000000000000000000000000000000000000040000002426000000000000
310
FEFFFFFF02000000FEFFFFFFFFFFFFFFFFFFFFFFFFFFFFFFFFFFFFFFFFFFFFFF
310
FFFFFFFFFFFFFFFFFFFFFFFFFFFFFFFFFFFFFFFFFFFFFFFFFFFFFFFFFFFFFFFF
310
FFFFFFFFFFFFFFFFFFFFFFFFFFFFFFFFFFFFFFFFFFFFFFFFFFFFFFFFFFFFFFFF
310
FFFFFFFFFFFFFFFFFFFFFFFFFFFFFFFFFFFFFFFFFFFFFFFFFFFFFFFFFFFFFFFF
310
FFFFFFFFFFFFFFFFFFFFFFFFFFFFFFFFFFFFFFFFFFFFFFFFFFFFFFFFFFFFFFFF
310
FFFFFFFFFFFFFFFFFFFFFFFFFFFFFFFFFFFFFFFFFFFFFFFFFFFFFFFFFFFFFFFF
310
FFFFFFFFFFFFFFFFFFFFFFFFFFFFFFFFFFFFFFFFFFFFFFFFFFFFFFFFFFFFFFFF
310
FFFFFFFFFFFFFFFFFFFFFFFFFFFFFFFFFFFFFFFFFFFFFFFFFFFFFFFFFFFFFFFF
310
FFFFFFFFFFFFFFFFFFFFFFFFFFFFFFFFFFFFFFFFFFFFFFFFFFFFFFFFFFFFFFFF
310
FFFFFFFFFFFFFFFFFFFFFFFFFFFFFFFFFFFFFFFFFFFFFFFFFFFFFFFFFFFFFFFF
310
FFFFFFFFFFFFFFFFFFFFFFFFFFFFFFFFFFFFFFFFFFFFFFFFFFFFFFFFFFFFFFFF
310
FFFFFFFFFFFFFFFFFFFFFFFFFFFFFFFFFFFFFFFFFFFFFFFFFFFFFFFFFFFFFFFF
310
FFFFFFFFFFFFFFFFFFFFFFFFFFFFFFFFFFFFFFFFFFFFFFFFFFFFFFFFFFFFFFFF
310
FFFFFFFFFFFFFFFFFFFFFFFFFFFFFFFFFFFFFFFFFFFFFFFFFFFFFFFFFFFFFFFF
310
FFFFFFFFFFFFFFFFFFFFFFFFFFFFFFFFFFFFFFFFFFFFFFFFFFFFFFFFFFFFFFFF
310
FFFFFFFFFFFFFFFFFFFFFFFFFFFFFFFFFFFFFFFFFFFFFFFFFFFFFFFFFFFFFFFF
310
0100000200000000000000000000000000000000000000000000000000000000
310
0000000000000000000000000000000000000000000000000000000000000000
310
0100FEFF030A0000FFFFFFFF0A00030000000000C00000000000004607000000
310
5042727573680007000000504272757368000700000050427275736800F439B2
310
7100000000000000000000000000000000000000000000000000000000000000
310
0000000000000000000000000000000000000000000000000000000000000000
310
0000000000000000000000000000000000000000000000000000000000000000
310
0000000000000000000000000000000000000000000000000000000000000000
310
0000000000000000000000000000000000000000000000000000000000000000
310
0000000000000000000000000000000000000000000000000000000000000000
310
0000000000000000000000000000000000000000000000000000000000000000
310
0000000000000000000000000000000000000000000000000000000000000000
310
0000000000000000000000000000000000000000000000000000000000000000
310
0000000000000000000000000000000000000000000000000000000000000000
310
0000000000000000000000000000000000000000000000000000000000000000
310
0000000000000000000000000000000000000000000000000000000000000000
310
20260000424D0E260000000000003E00000028000000B40200006E0000000100
310
01000000000000000000130B0000130B00000200000002000000000000FFFFFF
310
FFFFFFFFFFFFFFFFFFFFFFFFFFFFFFFFFFFFFFFFFFFFFFFFFFFFFFFFFFFFFFFF
310
FFFFFFFFFFFFFFFFFFFFFFFFFFFFFFFFFFFFFFFFFFFFFFFFFFFFFFFFFFFFFFFF
310
FFFFFFFFFFFFFFFFFFFFFFFFFFFFFFFFFFFFFFFFFFFFFFFFF000FFFFFFFFFFFF
310
FFFFFFFFFFFFFFFFFFFFFFFFFFFFFFFFFFFFFFFFFFFFFFFFFFFFFFFFFFFFFFFF
310
FFFFFFFFFFFFFFFFFFFFFFFFFFFFFFFFFFFFFFFFFFFFFFFFFFFFFFFFFFFFFFFF
310
FFFFFFFFFFFFFFFFFFFFFFFFFFFFFFFFF000FFFFFFFFFFFFFFFFFFFFFFFFFFFF
310
FFFFFFFFFFFFFFFFFFFFFFFFFFFFFFFFFFFFFFFFFFFFFFFFFFFFFFFFFFFFFFFF
310
FFFFFFFFFFFFFFFFFFFFFFFFFFFFFFFFFFFFFFFFFFFFFFFFFFFFFFFFFFFFFFFF
310
FFFFFFFFFFFFFFFFF000FFFFFFFFFFFFFFFFFFFFFFFFFFFFFFFFFFFFFFFFFFFF
310
FFFFFFFFFFFFFFFFFFFFFFFFFFFFFFFFFFFFFFFFFFFFFFFFFFFFFFFFFFFFFFFF
310
FFFFFFFFFFFFFFFFFFFFFFFFFFFFFFFFFFFFFFFFFFFFFFFFFFFFFFFFFFFFFFFF
310
F000FFFFFFFFFFFFFFFFFFFFFFFFFFFFFFFFFFFFFFFFFFFFFFFFFFFFFFFFFFFF
310
FFFFFFFFFFFFFFFFFFFFFFFFFFFFFFFFFFFFFFFFFFFFFFFFFFFFFFFFFFFFFFFF
310
FFFFFFFFFFFFFFFFFFFFFFFFFFFFFFFFFFFFFFFFFFFFFFFFF000FFFFFFFFFFFF
310
FFFFFFFFFFFFFFFFFFFFFFFFFFFFFFFFFFFFFFFFFFFFFFFFFFFFFFFFFFFFFFFF
310
FFFFFFFFFFFFFFFFFFFFFFFFFFFFFFFFFFFFFFFFFFFFFFFFFFFFFFFFFFFFFFFF
310
FFFFFFFFFFFFFFFFFFFFFFFFFFFFFFFFF000FFFFFFFFFFFFFFFFFFFFFFFFFFFF
310
FFFFFFFFFFFFFFFFFFFFFFFFFFFFFFFFFFFFFFFFFFFFFFFFFFFFFFFFFFFFFFFF
310
FFFFFFFFFFFFFFFFFFFFFFFFFFFFFFFFFFFFFFFFFFFFFFFFFFFFFFFFFFFFFFFF
310
FFFFFFFFFFFFFFFFF000FFFFFFFFFFFFFFFFFFFFFFFFFFFFFFFFFFFFFFFFFFFF
310
FFFFFFFFFFFFFFFFFFFFFFFFFFFFFFFFFFFFFFFFFFFFFFFFFFFFFFFFFFFFFFFF
310
FFFFFFFFFFFFFFFFFFFFFFFFFFFFFFFFFFFFFFFFFFFFFFFFFFFFFFFFFFFFFFFF
310
F000FFFFFFFFFFFFFFFFFFFFFFFFFFFFFFFFFFFFFFFFFFFFFFFFFFFFFFFFFFFF
310
FFFFFFFFFFFFFFFFFFFFFFFFFFFFFFFFFFFFFFFFFFFFFFFFFFFFFFFFFFFFFFFF
310
FFFFFFFFFFFFFFFFFFFFFFFFFFFFFFFFFFFFFFFFFFFFFFFFF000FFFFFFFFFFFF
310
FFFFFFFFFFFFFFFFFFFFFFFFFFFFFFFFFFFFFFFFFFFFFFFFFFFFFFFFFFFFFFFF
310
FFFFFFFFFFFFFFFFFFFFFFFFFFFFFFFFFFFFFFFFFFFFFFFFFFFFFFFFFFFFFFFF
310
FFFFFFFFFFFFFFFFFFFFFFFFFFFFFFFFF000FFFFFFFFFFFFFFFFFFFFFFFFFFFF
310
FFFFFFFFFFFFFFFFFFFFFFFFFFFFFFFFFFFFFFFFFFFFFFFFFFFFFFFFFFFFFFFF
310
FFFFFFFFFFFFFFFFFFFFFFFFFFFFFFFFFFFFFFFFFFFFFFFFFFFFFFFFFFFFFFFF
310
FFFFFFFFFFFFFFFFF000FFFFFFFFFFFFFFFFFFFFFFFFFFFFFFFFFFFFFFFFFFFF
310
FFFFFFFFFFFFFFFFFFFFFFFFFFFFFFFFFFFFFFFFFFFFFFFFFFFFFFFFFFFFFFFF
310
FFFFFFFFFFFFFFFFFFFFFFFFFFFFFFFFFFFFFFFFFFFFFFFFFFFFFFFFFFFFFFFF
310
F000FFFFFFFFFFFFFFFFFFFFFFFFFFFFFFFFFFFFFFFFFFFFFFFFFFFFFFFFFFFF
310
FFFFFFFFFFFFFFFFFFFFFFFFFFFFFFFFFFFFFFFFFFFFFFFFFFFFFFFFFFFFFFFF
310
FFFFFFFFFFFFFFFFFFFFFFFFFFFFFFFFFFFFFFFFFFFFFFFFF000FFFFFFFFFFFF
310
FFFFFFFFFFFFFFFFFFFFFFFFFFFFFFFFFFFFFFFFFFFFFFFFFFFFFFFFFFFFFFFF
310
FFFFFFFFFFFFFFFFFFFFFFFFFFFFFFFFFFFFFFFFFFFFFFFFFFFFFFFFFFFFFFFF
310
FFFFFFFFFFFFFFFFFFFFFFFFFFFFFFFFF000FFFFFFFFFFFFFFFFFFFFFFFFFFFF
310
FFFFFFFFFFFFFFFFFFFFFFFFFFFFFFFFFFFFFFFFFFFFFFFFFFFFFFFFFFFFFFFF
310
FFFFFFFFFFFFFFFFFFFFFFFFFFFFFFFFFFFFFFFFFFFFFFFFFFFFFFFFFFFFFFFF
310
FFFFFFFFFFFFFFFFF000FFFFFFFFFFFFFFFFFFFFFFFFFFFFFFFFFFFFFFFFFFFF
310
FFFFFFFFFFFFFFFFFFFFFFFFFFFFFFFFFFFFFFFFFFFFFFFFFFFFFFFFFFFFFFFF
310
FFFFFFFFFFFFFFFFFFFFFFFFFFFFFFFFFFFFFFFFFFFFFFFFFFFFFFFFFFFFFFFF
310
F000FFFFFFFFFFFFFFFFFFFFFFFFFFFFFFFFFFFFFFFFFFFFFFFFFFFFFFFFFFFF
310
FFFFFFFFFFFFFFFFFFFFFFFFFFFFFFFFFFFFFFFFFFFFFFFFFFFFFFFFFFFFFFFF
310
FFFFFFFFFFFFFFFFFFFFFFFFFFFFFFFFFFFFFFFFFFFFFFFFF000FFFFFFFFFFFF
310
FFFFFFFFFFFFFFFFFFFFFFFFFFFFFFFFFFFFFFFFFFFFFFFFFFFFFFFFFFFFFFFF
310
FFFFFFFFFFFFFFFFFFFFFFFFFFFFFFFFFFFFFFFFFFFFFFFFFFFFFFFFFFFFFFFF
310
FFFFFFFFFFFFFFFFFFFFFFFFFFFFFFFFF000FFFFFFFFFFFFFFFFFFFFFFFFFFFF
310
FFFFFFFFFFFFFFFFFFFFFFFFFFFFFFFFFFFFFFFFFFFFFFFFFFFFFFFFFFFFFFFF
310
FFFFFFFFFFFFFFFFFFFFFFFFFFFFFFFFFFFFFFFFFFFFFFFFFFFFFFFFFFFFFFFF
310
FFFFFFFFFFFFFFFFF000FFFFF80003FFFFFFFFFFFFFFFFFFFFFFFFFFFFFFFFFF
310
FFFFF00007FFFFFFFFFF00007FFFFFF800000000000000007FFFFFFFFFFFFFFF
310
FFFFFFFC001FFFFFFFFFFFFFFC001FFFFFFFFFFFFFFFFFFFFFFFFFFE0007FFFF
310
F000FFFF8000007FFFFFFFF8000FFFFFC0007FFFFF80007FFFFF0000007FFFFF
310
FFF8000007FFFFF800000000000000007FFFFFF0001FFFFFFFFFFFC00001FFFF
310
FFFFFFFFC00001FFFFFFFF000000000003FFFFE000007FFFF000FFFE0000000F
310
FFFFFFF0000FFFFF80007FFFFF80007FFFFC0000001FFFFFFFC0000001FFFFF8
310
00000000000000007FFFFFF0001FFFFFFFFFFE0000003FFFFFFFFFFE0000003F
310
FFFFFF000000000003FFFF0000000FFFF000FFF800000003FFFFFFF00007FFFF
310
80007FFFFF80007FFFF000000007FFFFFF000000003FFFF80000000000000000
310
7FFFFFF0001FFFFFFFFFF80000000FFFFFFFFFF80000000FFFFFFF0000000000
310
03FFFC00000003FFF000FFE000000000FFFFFFF00007FFFF80003FFFFF80007F
310
FFC000000001FFFFFC000000001FFFF800000000000000007FFFFFF0001FFFFF
310
FFFFE000000003FFFFFFFFE000000003FFFFFF000000000003FFF000000000FF
310
F000FF80000000007FFFFFF00007FFFF80003FFFFF80007FFF8000000000FFFF
310
F80000000007FFF800000000000000007FFFFFF0001FFFFFFFFFC000000001FF
310
FFFFFFC000000001FFFFFF000000000003FFC0000000007FF000FF0000000000
310
3FFFFFE00007FFFF00003FFFFF80007FFE00000000003FFFF00000000003FFF8
310
00000000000000007FFFFFF0001FFFFFFFFF8000000000FFFFFFFF8000000000
310
FFFFFF000000000003FF80000000003FF000FE00000000001FFFFFE00003FFFF
310
00003FFFFF80007FFC00000000001FFFE00000000001FFF8000001FFFE000000
310
7FFFFFF0001FFFFFFFFE00000000003FFFFFFE00000000003FFFFF0000000000
310
03FF00000000001FF000FC00000000000FFFFFE00003FFFF00001FFFFF80007F
310
F800000000001FFFC00000000000FFF8000001FFFE0000007FFFFFF0001FFFFF
310
FFFC00000000001FFFFFFC00000000001FFFFF000000000003FE00000000000F
310
F000F8000000000007FFFFE00003FFFF00001FFFFF80007FF800000000000FFF
310
800000000000FFF8000001FFFE0000007FFFFFF0001FFFFFFFF800000000000F
310
FFFFF800000000000FFFFF000000000003FC000000000007F000F80000000000
310
03FFFFC00003FFFE00001FFFFF80007FF0000000000007FF0000000000007FF8
310
000001FFFE0000007FFFFFF0001FFFFFFFF0000000000007FFFFF00000000000
310
07FFFF000000000003F8000000000003F000F0000000000003FFFFC00001FFFE
310
00001FFFFF80007FE0000000000007FE0000000000003FF8000001FFFE000000
310
7FFFFFF0001FFFFFFFF0000000000007FFFFF0000000000007FFFF0000000000
310
03F800001F800003F000E00001FFF00001FFFFC00001FFFE00000FFFFF80007F
310
E00001FFE00003FE00001FFF00003FF8000001FFFE0000007FFFFFF0001FFFFF
310
FFE000003E000003FFFFE000003E000003FFFF000000000003F00001FFF80001
310
F000E00007FFFC0001FFFFC00001FFFE00000FFFFF80007FC0000FFFFC0003FC
310
0000FFFFC0001FF8000001FFFE0000007FFFFFF0001FFFFFFFC00003FFE00001
310
FFFFC00003FFE00001FFFF0001FFFFFFFFF00007FFFE0001F000E0000FFFFF00
310
00FFFF800001FFFC00000FFFFF80007FC0001FFFFE0001FC0001FFFFE0001FF8
310
000001FFFE0000007FFFFFF0001FFFFFFF80000FFFF80000FFFF80000FFFF800
310
00FFFF0003FFFFFFFFE0000FFFFF8000F000C0003FFFFF8000FFFF800000FFFC
310
000007FFFF80007F80003FFFFF0001FC0003FFFFF0001FF8000001FFFE000000
310
7FFFFFF0001FFFFFFF80003FFFFE0000FFFF80003FFFFE0000FFFF0003FFFFFF
310
FFE0003FFFFF8000F000C0003FFFFF8000FFFF800000FFFC000007FFFF80007F
310
80007FFFFF8001F80007FFFFF8000FF8000001FFFE0000007FFFFFF0001FFFFF
310
FF00007FFFFF00007FFF00007FFFFF00007FFF0003FFFFFFFFE0003FFFFFC000
310
F000C0007FFFFFC000FFFF000000FFFC000007FFFF80007F8000FFFFFF8000F8
310
000FFFFFF8000FF8000001FFFE0000007FFFFFF0001FFFFFFF0000FFFFFF8000
310
7FFF0000FFFFFF80007FFF0003FFFFFFFFC0007FFFFFC00070008000FFFFFFC0
310
00FFFF000000FFF8000007FFFF80007F8000FFFFFF8000F8000FFFFFF8000FF8
310
000001FFFE0000007FFFFFF0001FFFFFFE0001FFFFFFC0003FFE0001FFFFFFC0
310
003FFF0003FFFFFFFFC0007FFFFFE00070008000FFFFFFC0007FFF0000007FF8
310
000003FFFF80007F0001FFFFFF8000F8000FFFFFF8000FF8000001FFFE000000
310
7FFFFFF0001FFFFFFE0001FFFFFFC0003FFE0001FFFFFFC0003FFF0003FFFFFF
310
FFC000FFFFFFE00070008000FFFFFFC0007FFF0000007FF8000003FFFF80007F
310
0001FFFFFF8000F8001FFFFFF8000FF8000001FFFE0000007FFFFFF0001FFFFF
310
FE0003FFFFFFE0003FFE0003FFFFFFE0003FFF0003FFFFFFFFC000FFFFFFE000
310
70008000FFFFFFC0007FFE0000007FF8000003FFFF80007F0001FFFFFF8000F0
310
001FFFFFF8000FF8000001FFFE0000007FFFFFF0001FFFFFFC0003FFFFFFE000
310
1FFC0003FFFFFFE0001FFF0003FFFFFFFFC000FFFFFFC00070008000FFFFFF80
310
007FFE0000007FF0000003FFFF80007F0001FFFFFF0000F0001FFFFFF8000FF8
310
000001FFFE0000007FFFFFF0001FFFFFFC0007FFFFFFF0001FFC0007FFFFFFF0
310
001FFF0003FFFFFFFFC000FFFFFFC00070008001FFFFFF0000FFFE0000003FF0
310
000001FFFF80007F0001FFFFFF0000F8001FFFFFF0000FF8000001FFFE000000
310
7FFFFFF0001FFFFFFC0007FFFFFFF0001FFC0007FFFFFFF0001FFF0003FFFFFF
310
FFC001FFFFFF80007000FFFFFFFFFE0000FFFE0008003FF0008001FFFF80007F
310
FFFFFFFFFC0000FFFFFFFFFFE0000FF8000001FFFE0000007FFFFFF0001FFFFF
310
F8000FFFFFFFF8000FF8000FFFFFFFF8000FFF0003FFFFFFFFFFFFFFFFFF0000
310
7000FFFFFFFFFC0000FFFC0008003FF0008001FFFF80007FFFFFFFFFF80001FF
310
FFFFFFFF80000FF8000001FFFE0000007FFFFFF0001FFFFFF8000FFFFFFFF800
310
0FF8000FFFFFFFF8000FFF0003FFFFFFFFFFFFFFFFFE0000F000FFFFFFFFE000
310
00FFFC000C003FE000C001FFFF80007FFFFFFFFFC00001FFFFFFFFFE00001FF8
310
000001FFFE0000007FFFFFF0001FFFFFF8000FFFFFFFF8000FF8000FFFFFFFF8
310
000FFF0003FFFFFFFFFFFFFFFFF00000F000FFFFFFFE000001FFFC000C001FE0
310
00C000FFFF80007FFFFFFFFE000001FFFFFFFFE000001FF80FFFFFFFFFFFFFC0
310
7FFFFFF0001FFFFFF8000FFFFFFFF8000FF8000FFFFFFFF8000FFF0003FFFFFF
310
FFFFFFFFFF800000F000FFFFFFC0000001FFFC001C001FE001C000FFFF80007F
310
FFFFFF80000003FFFFFFF80000001FF80FFFFFFFFFFFFFC07FFFFFF0001FFFFF
310
F8001FFFFFFFFC000FF8001FFFFFFFFC000FFF0003FFFFFFFFFFFFFFF0000001
310
F000FFFFF800000001FFF8001C001FE001C000FFFF80007FFFFFF800000003FF
310
FFFF800000003FF80FFFFFFFFFFFFFC07FFFFFF0001FFFFFF8001FFFFFFFFC00
310
0FF8001FFFFFFFFC000FFF0003FFFFFFFFFFFFFE00000001F000FFFFC0000000
310
03FFF8001E001FC001E000FFFF80007FFFFF8000000007FFFFFC000000003FF8
310
0FFFFFFFFFFFFFC07FFFFFF0001FFFFFF8001FFFFFFFFC000FF8001FFFFFFFFC
310
000FFF0003FFFFFFFFFFFFE000000003F000FFFE0000000007FFF8001E000FC0
310
01E0007FFF80007FFFFE0000000007FFFFE0000000007FF80FFFFFFFFFFFFFC0
310
7FFFFFF0001FFFFFF0001FFFFFFFFC0007F0001FFFFFFFFC0007FF0003FFFFFF
310
FFFFFF0000000003F000FFF80000000007FFF8001E000FC003E0007FFF80007F
310
FFF0000000000FFFFF8000000000FFF80FFFFFFFFFFFFFC07FFFFFF0001FFFFF
310
F0001FFFFFFFFC0007F0001FFFFFFFFC0007FF0003FFFFFFFFFFFC0000000007
310
F000FFE0000000000FFFF0003E000FC003E0007FFF80007FFFC0000000001FFF
310
FE0000000001FFF80FFFFFFFFFFFFFC07FFFFFF0001FFFFFF0001FFFFFFFFC00
310
07F0001FFFFFFFFC0007FF0003FFFFFFFFFFF0000000000FF000FFC000000000
310
1FFFF0003F000F8003F0003FFF80007FFF80000000003FFFF80000000003FFF8
310
0FFFFFFFFFFFFFC07FFFFFF0001FFFFFF0001FFFFFFFFC0007F0001FFFFFFFFC
310
0007FF0003FFFFFFFFFFE0000000001FF000FF00000000007FFFF0003F000780
310
03F0003FFF80007FFF00000000007FFFF00000000007FFF80FFFFFFFFFFFFFC0
310
7FFFFFF0001FFFFFF0001FFFFFFFFC0007F0001FFFFFFFFC0007FF0003FFFFFF
310
FFFF80000000007FF000FE0000000000FFFFE0003F00078007F0003FFF80007F
310
FE0000000001FFFFE0000000001FFFF80FFFFFFFFFFFFFC07FFFFFF0001FFFFF
310
F0001FFFFFFFFC0007F0001FFFFFFFFC0007FF0003FFFFFFFFFF0000000000FF
310
F000FC0000000003FFFFE0007F00078007F0003FFF80007FFC0000000007FFFF
310
C0000000007FFFF80FFFFFFFFFFFFFC07FFFFFF0001FFFFFF8001FFFFFFFFC00
310
0FF8001FFFFFFFFC000FFF0003FFFFFFFFFE0000000003FFF000FC000000000F
310
FFFFE0007F80070007F8001FFF80007FF8000000001FFFFF8000000001FFFFF8
310
0FFFFFFFFFFFFFC07FFFFFF0001FFFFFF8001FFFFFFFFC000FF8001FFFFFFFFC
310
000FFF0003FFFFFFFFFC000000000FFFF000F8000000007FFFFFE0007F800700
310
07F8001FFF80007FF000000000FFFFFF800000000FFFFFF80FFFFFFFFFFFFFC0
310
7FFFFFF0001FFFFFF8000FFFFFFFF8000FF8000FFFFFFFF8000FFF0003FFFFFF
310
FFFC000000007FFFF000F800000007FFFFFFC0007F8003000FF8001FFF80007F
310
F000000007FFFFFF000000007FFFFFF80FFFFFFFFFFFFFC07FFFFFF0001FFFFF
310
F8000FFFFFFFF8000FF8000FFFFFFFF8000FFF0003FFFFFFFFF80000000FFFFF
310
F000F0000000FFFFFFFFC000FF8003000FF8001FFF80007FE0000000FFFFFFFF
310
0000000FFFFFFFF8000001FFFE0000007FFFFFF0001FFFFFF8000FFFFFFFF800
310
0FF8000FFFFFFFF8000FFF0003FFFFFFFFF8000000FFFFFFF000F000000FFFFF
310
FFFFC000FFC002000FF8000FFF80007FE000001FFFFFFFFE000001FFFFFFFFF8
310
000001FFFE0000007FFFFFF0001FFFFFF8000FFFFFFFF8000FF8000FFFFFFFF8
310
000FFF0003FFFFFFFFF000001FFFFFFFF000E00000FFFFFFFFFFC000FFC00200
310
0FFC000FFF80007FE00001FFFFFFFFFE00001FFFFFFFFFF8000001FFFE000000
310
7FFFFFF0001FFFFFFC000FFFFFFFF8001FFC000FFFFFFFF8001FFF0003FFFFFF
310
FFF00001FFFFFFFFF000E00007FFFFFFFFFF8000FFC000001FFC000FFF80007F
310
C0000FFFFFFFFFFE0000FFFFFFFFFFF8000001FFFE0000007FFFFFF0001FFFFF
310
FC0007FFFFFFF0001FFC0007FFFFFFF0001FFF0003FFFFFFFFF00007FFFFFFFF
310
F000E0001FFFFFFFFFFF8000FFC000001FFC000FFF80007FC0003FFFFFFFFFFE
310
0001FFFFFFFFFFF8000001FFFE0000007FFFFFF0001FFFFFFC0007FFFFFFF000
310
1FFC0007FFFFFFF0001FFF0003FFFFFFFFF0001FFFFFFFFFF000E0003FFFFF00
310
03FF8001FFE000001FFC0007FF80007FC0007FFFFF0007FC0003FFFFF0003FF8
310
000001FFFE0000007FFFFFF0001FFFFFFC0003FFFFFFE0001FFC0003FFFFFFE0
310
001FFF0003FFFFFFFFF0003FFFFFFFFFF000E0003FFFFF0001FF8001FFE00000
310
1FFE0007FF80007FC0007FFFFE0003FC0007FFFFE0003FF8000001FFFE000000
310
7FFFFFF0001FFFFFFE0003FFFFFFE0003FFE0003FFFFFFE0003FFF0003FFFFFF
310
FFF0003FFFFF8001F000E0003FFFFF0001FF0001FFE000001FFE0007FF80007F
310
C0007FFFFE0003FC0007FFFFE0003FF8000001FFFE0000007FFFFFF0001FFFFF
310
FE0001FFFFFFC0003FFE0001FFFFFFC0003FFF0003FFFFFFFFF0003FFFFF0001
310
F000E0003FFFFF0003FF0001FFE000003FFE0007FF80007FC0007FFFFE0003FC
310
0007FFFFE0003FF8000001FFFE0000007FFFFFF0001FFFFFFF0001FFFFFFC000
310
7FFF0001FFFFFFC0007FFF0003FFFFFFFFF0003FFFFF0001F000E0003FFFFE00
310
03FF0003FFF000003FFE0003FF80007FC0007FFFFC0003FE0007FFFFE0003FF8
310
000001FFFE0000007FFFFFF0001FFFFFFF0000FFFFFF80007FFF0000FFFFFF80
310
007FFF0003FFFFFFFFF0003FFFFF0001F000E0003FFFFE0003FF0003FFF00000
310
3FFF0003FF80007FC0007FFFFC0007FE0007FFFFC0003FF8000001FFFE000000
310
7FFFFFF0001FFFFFFF80007FFFFF0000FFFF80007FFFFF0000FFFF0003FFFFFF
310
FFF0003FFFFF0003F000E0003FFFFC0003FE0003FFF000003FFF0003FF80007F
310
E0003FFFF80007FE0003FFFFC0007FF8000001FFFE0000007FFFFFF0001FFFFF
310
FF80003FFFFE0000FFFF80003FFFFE0000FFFF0003FFFFFFFFF0001FFFFE0003
310
F000F0001FFFF80003FE0003FFF000007FFF0001FF80007FE0003FFFF00007FE
310
0001FFFF80007FF8000001FFFE0000007FFFFFF0001FFFFFFFC0000FFFF80001
310
FFFFC0000FFFF80001FFFF0003FFFFFFFFF0001FFFFC0003F000F0000FFFF000
310
07FE0007FFF800007FFF0001FF80007FE0001FFFE00007FF0000FFFE00007FF8
310
000001FFFE0000007FFFFFF0001FFFFFFFC00003FFE00001FFFFC00003FFE000
310
01FFFF0003FFFFFFFFF8000FFFF80003F000F00003FFC00007FC0007FFF80000
310
7FFF8001FF80007FF00007FF80000FFF00007FF80000FFF8000001FFFE000000
310
7F80000000000001FFE000003E000003FFFFE000003E000003FFFF0003FFFFFF
310
FFF80003FFE00007F000F800000000000FFC0007FFF800007FFF8001FF80007F
310
F000000000000FFF000000000000FFF8000001FFFE0000007F80000000000001
310
FFF0000000000007FFFFF0000000000007FFFF0003FFFFFFFFFC00007E000007
310
F000F800000000000FFC0007FFF80000FFFF8000FF80007FF800000000001FFF
310
800000000001FFF8000001FFFE0000007F80000000000001FFF800000000000F
310
FFFFF800000000000FFFFF0003FFFFFFFFFC00000000000FF000FC0000000000
310
1FFC0007FFFC0000FFFF8000FF80007FF800000000003FFFC00000000001FFF8
310
000001FFFE0000007F80000000000001FFF800000000000FFFFFF80000000000
310
0FFFFF0003FFFFFFFFFE00000000001FF000FE00000000003FF8000FFFFC0000
310
FFFF8000FF80007FFC00000000003FFFC00000000003FFF8000001FFFE000000
310
7F80000000000001FFFC00000000001FFFFFFC00000000001FFFFF0003FFFFFF
310
FFFF00000000001FF000FF00000000003FF8000FFFFC0000FFFFC000FF80007F
310
FE00000000007FFFE00000000007FFF8000001FFFE0000007F80000000000001
310
FFFE00000000003FFFFFFE00000000003FFFFF0003FFFFFFFFFF80000000003F
310
F000FF80000000007FF8000FFFFC0001FFFFC0007F80007FFF0000000000FFFF
310
F0000000000FFFF800000000000000007F80000000000001FFFF8000000000FF
310
FFFFFF8000000000FFFFFF0003FFFFFFFFFFC0000000007FF000FFC000000000
310
FFF8000FFFFE0001FFFFC0007F80007FFF8000000001FFFFF8000000001FFFF8
310
00000000000000007F80000000000001FFFFC000000001FFFFFFFFC000000001
310
FFFFFF0003FFFFFFFFFFE000000000FFF000FFE000000003FFF0001FFFFE0001
310
FFFFC0007F80007FFFC000000007FFFFFE000000003FFFF80000000000000000
310
7F80000000000001FFFFE000000003FFFFFFFFE000000003FFFFFF0003FFFFFF
310
FFFFF000000003FFF000FFF80000000FFFF0001FFFFE0001FFFFE0007F80007F
310
FFF00000000FFFFFFF00000000FFFFF800000000000000007F80000000000001
310
FFFFF80000000FFFFFFFFFF80000000FFFFFFF0003FFFFFFFFFFFC0000000FFF
310
F000FFFE0000003FFFF0001FFFFE0003FFFFE0003F80007FFFFC0000003FFFFF
310
FFC0000003FFFFF800000000000000007F80000000000001FFFFFE0000003FFF
310
FFFFFFFE0000003FFFFFFF0003FFFFFFFFFFFF0000003FFFF000FFFF800000FF
310
FFF0001FFFFF0003FFFFE0003F80007FFFFF000001FFFFFFFFF800001FFFFFF8
310
00000000000000007F80000000000001FFFFFFC00001FFFFFFFFFFFFC00001FF
310
FFFFFF0003FFFFFFFFFFFFC00000FFFFF000FFFFF8000FFFFFFFFFFFFFFFFFFF
310
FFFFFFFFFFFFFFFFFFFFF0001FFFFFFFFFFF0000FFFFFFF80000000000000000
310
7FFFFFFFFFFFFFFFFFFFFFFC001FFFFFFFFFFFFFFC001FFFFFFFFFFFFFFFFFFF
310
FFFFFFFC001FFFFFF000FFFFFFFFFFFFFFFFFFFFFFFFFFFFFFFFFFFFFFFFFFFF
310
FFFFFFFFFFFFFFFFFFFFFFFFFFFFFFFFFFFFFFFFFFFFFFFFFFFFFFFFFFFFFFFF
310
FFFFFFFFFFFFFFFFFFFFFFFFFFFFFFFFFFFFFFFFFFFFFFFFFFFFFFFFFFFFFFFF
310
F000FFFFFFFFFFFFFFFFFFFFFFFFFFFFFFFFFFFFFFFFFFFFFFFFFFFFFFFFFFFF
310
FFFFFFFFFFFFFFFFFFFFFFFFFFFFFFFFFFFFFFFFFFFFFFFFFFFFFFFFFFFFFFFF
310
FFFFFFFFFFFFFFFFFFFFFFFFFFFFFFFFFFFFFFFFFFFFFFFFF000FFFFFFFFFFFF
310
FFFFFFFFFFFFFFFFFFFFFFFFFFFFFFFFFFFFFFFFFFFFFFFFFFFFFFFFFFFFFFFF
310
FFFFFFFFFFFFFFFFFFFFFFFFFFFFFFFFFFFFFFFFFFFFFFFFFFFFFFFFFFFFFFFF
310
FFFFFFFFFFFFFFFFFFFFFFFFFFFFFFFFF000FFFFFFFFFFFFFFFFFFFFFFFFFFFF
310
FFFFFFFFFFFFFFFFFFFFFFFFFFFFFFFFFFFFFFFFFFFFFFFFFFFFFFFFFFFFFFFF
310
FFFFFFFFFFFFFFFFFFFFFFFFFFFFFFFFFFFFFFFFFFFFFFFFFFFFFFFFFFFFFFFF
310
FFFFFFFFFFFFFFFFF000FFFFFFFFFFFFFFFFFFFFFFFFFFFFFFFFFFFFFFFFFFFF
310
FFFFFFFFFFFFFFFFFFFFFFFFFFFFFFFFFFFFFFFFFFFFFFFFFFFFFFFFFFFFFFFF
310
FFFFFFFFFFFFFFFFFFFFFFFFFFFFFFFFFFFFFFFFFFFFFFFFFFFFFFFFFFFFFFFF
310
F000FFFFFFFFFFFFFFFFFFFFFFFFFFFFFFFFFFFFFFFFFFFFFFFFFFFFFFFFFFFF
310
FFFFFFFFFFFFFFFFFFFFFFFFFFFFFFFFFFFFFFFFFFFFFFFFFFFFFFFFFFFFFFFF
310
FFFFFFFFFFFFFFFFFFFFFFFFFFFFFFFFFFFFFFFFFFFFFFFFF000FFFFFFFFFFFF
310
FFFFFFFFFFFFFFFFFFFFFFFFFFFFFFFFFFFFFFFFFFFFFFFFFFFFFFFFFFFFFFFF
310
FFFFFFFFFFFFFFFFFFFFFFFFFFFFFFFFFFFFFFFFFFFFFFFFFFFFFFFFFFFFFFFF
310
FFFFFFFFFFFFFFFFFFFFFFFFFFFFFFFFF000FFFFFFFFFFFFFFFFFFFFFFFFFFFF
310
FFFFFFFFFFFFFFFFFFFFFFFFFFFFFFFFFFFFFFFFFFFFFFFFFFFFFFFFFFFFFFFF
310
FFFFFFFFFFFFFFFFFFFFFFFFFFFFFFFFFFFFFFFFFFFFFFFFFFFFFFFFFFFFFFFF
310
FFFFFFFFFFFFFFFFF000FFFFFFFFFFFFFFFFFFFFFFFFFFFFFFFFFFFFFFFFFFFF
310
FFFFFFFFFFFFFFFFFFFFFFFFFFFFFFFFFFFFFFFFFFFFFFFFFFFFFFFFFFFFFFFF
310
FFFFFFFFFFFFFFFFFFFFFFFFFFFFFFFFFFFFFFFFFFFFFFFFFFFFFFFFFFFFFFFF
310
F000FFFFFFFFFFFFFFFFFFFFFFFFFFFFFFFFFFFFFFFFFFFFFFFFFFFFFFFFFFFF
310
FFFFFFFFFFFFFFFFFFFFFFFFFFFFFFFFFFFFFFFFFFFFFFFFFFFFFFFFFFFFFFFF
310
FFFFFFFFFFFFFFFFFFFFFFFFFFFFFFFFFFFFFFFFFFFFFFFFF000FFFFFFFFFFFF
310
FFFFFFFFFFFFFFFFFFFFFFFFFFFFFFFFFFFFFFFFFFFFFFFFFFFFFFFFFFFFFFFF
310
FFFFFFFFFFFFFFFFFFFFFFFFFFFFFFFFFFFFFFFFFFFFFFFFFFFFFFFFFFFFFFFF
310
FFFFFFFFFFFFFFFFFFFFFFFFFFFFFFFFF000FFFFFFFFFFFFFFFFFFFFFFFFFFFF
310
FFFFFFFFFFFFFFFFFFFFFFFFFFFFFFFFFFFFFFFFFFFFFFFFFFFFFFFFFFFFFFFF
310
FFFFFFFFFFFFFFFFFFFFFFFFFFFFFFFFFFFFFFFFFFFFFFFFFFFFFFFFFFFFFFFF
310
FFFFFFFFFFFFFFFFF000FFFFFFFFFFFFFFFFFFFFFFFFFFFFFFFFFFFFFFFFFFFF
310
FFFFFFFFFFFFFFFFFFFFFFFFFFFFFFFFFFFFFFFFFFFFFFFFFFFFFFFFFFFFFFFF
310
FFFFFFFFFFFFFFFFFFFFFFFFFFFFFFFFFFFFFFFFFFFFFFFFFFFFFFFFFFFFFFFF
310
F000FFFFFFFFFFFFFFFFFFFFFFFFFFFFFFFFFFFFFFFFFFFFFFFFFFFFFFFFFFFF
310
FFFFFFFFFFFFFFFFFFFFFFFFFFFFFFFFFFFFFFFFFFFFFFFFFFFFFFFFFFFFFFFF
310
FFFFFFFFFFFFFFFFFFFFFFFFFFFFFFFFFFFFFFFFFFFFFFFFF000FFFFFFFFFFFF
310
FFFFFFFFFFFFFFFFFFFFFFFFFFFFFFFFFFFFFFFFFFFFFFFFFFFFFFFFFFFFFFFF
310
FFFFFFFFFFFFFFFFFFFFFFFFFFFFFFFFFFFFFFFFFFFFFFFFFFFFFFFFFFFFFFFF
310
FFFFFFFFFFFFFFFFFFFFFFFFFFFFFFFFF000FFFFFFFFFFFFFFFFFFFFFFFFFFFF
310
FFFFFFFFFFFFFFFFFFFFFFFFFFFFFFFFFFFFFFFFFFFFFFFFFFFFFFFFFFFFFFFF
310
FFFFFFFFFFFFFFFFFFFFFFFFFFFFFFFFFFFFFFFFFFFFFFFFFFFFFFFFFFFFFFFF
310
FFFFFFFFFFFFFFFFF000FFFFFFFFFFFFFFFFFFFFFFFFFFFFFFFFFFFFFFFFFFFF
310
FFFFFFFFFFFFFFFFFFFFFFFFFFFFFFFFFFFFFFFFFFFFFFFFFFFFFFFFFFFFFFFF
310
FFFFFFFFFFFFFFFFFFFFFFFFFFFFFFFFFFFFFFFFFFFFFFFFFFFFFFFFFFFFFFFF
310
F000FFFFFFFFFFFFFFFFFFFFFFFFFFFFFFFFFFFFFFFFFFFFFFFFFFFFFFFFFFFF
310
FFFFFFFFFFFFFFFFFFFFFFFFFFFFFFFFFFFFFFFFFFFFFFFFFFFFFFFFFFFFFFFF
310
FFFFFFFFFFFFFFFFFFFFFFFFFFFFFFFFFFFFFFFFFFFFFFFFF000FFFFFFFFFFFF
310
FFFFFFFFFFFFFFFFFFFFFFFFFFFFFFFFFFFFFFFFFFFFFFFFFFFFFFFFFFFFFFFF
310
FFFFFFFFFFFFFFFFFFFFFFFFFFFFFFFFFFFFFFFFFFFFFFFFFFFFFFFFFFFFFFFF
310
FFFFFFFFFFFFFFFFFFFFFFFFFFFFFFFFF000FFFFFFFFFFFFFFFFFFFFFFFFFFFF
310
FFFFFFFFFFFFFFFFFFFFFFFFFFFFFFFFFFFFFFFFFFFFFFFFFFFFFFFFFFFFFFFF
310
FFFFFFFFFFFFFFFFFFFFFFFFFFFFFFFFFFFFFFFFFFFFFFFFFFFFFFFFFFFFFFFF
310
FFFFFFFFFFFFFFFFF000FFFFFFFFFFFFFFFFFFFFFFFFFFFFFFFFFFFFFFFFFFFF
310
FFFFFFFFFFFFFFFFFFFFFFFFFFFFFFFFFFFFFFFFFFFFFFFFFFFFFFFFFFFFFFFF
310
FFFFFFFFFFFFFFFFFFFFFFFFFFFFFFFFFFFFFFFFFFFFFFFFFFFFFFFFFFFFFFFF
310
F000FFFFFFFFFFFFFFFFFFFFFFFFFFFFFFFFFFFFFFFFFFFFFFFFFFFFFFFFFFFF
310
FFFFFFFFFFFFFFFFFFFFFFFFFFFFFFFFFFFFFFFFFFFFFFFFFFFFFFFFFFFFFFFF
310
FFFFFFFFFFFFFFFFFFFFFFFFFFFFFFFFFFFFFFFFFFFFFFFFF000FFFFFFFFFFFF
310
FFFFFFFFFFFFFFFFFFFFFFFFFFFFFFFFFFFFFFFFFFFFFFFFFFFFFFFFFFFFFFFF
310
FFFFFFFFFFFFFFFFFFFFFFFFFFFFFFFFFFFFFFFFFFFFFFFFFFFFFFFFFFFFFFFF
310
FFFFFFFFFFFFFFFFFFFFFFFFFFFFFFFFF0000000000000000000000000000000
310
0000000000000000000000000000000000000000000000000000000000000000
310
0000000000000000000000000000000000000000000000000000000000000000
310
0000000000000000000000000000000000000000000000000000000000000000
310
0000000000000000000000000000000000000000000000000000000000000000
310
0000000000000000000000000000000000000000000000000000000000000000
310
0000000000000000000000000000000000000000000000000000000000000000
310
0000000000000000000000000000000000000000000000000000000000000000
310
0000000000000000000000000000000000000000000000000000000000000000
310
0000000000000000000000000000000000000000000000000000000000000000
310
0000000000000000000000000000000000000000000000000000000000000000
310
0000000000000000000000000000000000000000000000000000000000000000
310
0000000000000000000000000000000000000000000000000000000000000000
310
0000000000000000000000000000000000000000000000000000000000000000
310
0000000000000000000000000000000000000000000000000000000000000000
310
0000000000000000000000000000000000000000000000000000000000000000
  1
OLE
  0
ENDSEC
  0
SECTION
  2
OBJECTS
  0
DICTIONARY
  5
C
330
0
100
AcDbDictionary
281
     1
  3
ACAD_GROUP
350
D
  3
ACAD_LAYOUT
350
1A
  3
ACAD_MLINESTYLE
350
17
  3
ACAD_PLOTSETTINGS
350
19
  3
ACAD_PLOTSTYLENAME
350
E
  0
DICTIONARY
  5
D
102
{ACAD_REACTORS
330
C
102
}
330
C
100
AcDbDictionary
281
     1
  0
DICTIONARY
  5
1A
102
{ACAD_REACTORS
330
C
102
}
330
C
100
AcDbDictionary
281
     1
  3
Layout1
350
1E
  3
Layout2
350
26
  3
Model
350
22
  0
DICTIONARY
  5
17
102
{ACAD_REACTORS
330
C
102
}
330
C
100
AcDbDictionary
281
     1
  3
Standard
350
18
  0
DICTIONARY
  5
19
102
{ACAD_REACTORS
330
C
102
}
330
C
100
AcDbDictionary
281
     1
  0
ACDBDICTIONARYWDFLT
  5
E
102
{ACAD_REACTORS
330
C
102
}
330
C
100
AcDbDictionary
281
     1
  3
Normal
350
F
100
AcDbDictionaryWithDefault
340
F
  0
LAYOUT
  5
1E
102
{ACAD_REACTORS
330
1A
102
}
330
1A
100
AcDbPlotSettings
  1

  2
none_device
  4

  6

 40
0.0
 41
0.0
 42
0.0
 43
0.0
 44
0.0
 45
0.0
 46
0.0
 47
0.0
 48
0.0
 49
0.0
140
0.0
141
0.0
142
1.0
143
1.0
 70
   688
 72
     0
 73
     0
 74
     5
  7

 75
    16
147
1.0
148
0.0
149
0.0
100
AcDbLayout
  1
Layout1
 70
     1
 71
     1
 10
0.0
 20
0.0
 11
420.0
 21
297.0
 12
0.0
 22
0.0
 32
0.0
 14
1.0000000000E+20
 24
1.0000000000E+20
 34
1.0000000000E+20
 15
-1.0000000000E+20
 25
-1.0000000000E+20
 35
-1.0000000000E+20
146
0.0
 13
0.0
 23
0.0
 33
0.0
 16
1.0
 26
0.0
 36
0.0
 17
0.0
 27
1.0
 37
0.0
 76
     0
330
1B
  0
LAYOUT
  5
26
102
{ACAD_REACTORS
330
1A
102
}
330
1A
100
AcDbPlotSettings
  1

  2
none_device
  4

  6

 40
0.0
 41
0.0
 42
0.0
 43
0.0
 44
0.0
 45
0.0
 46
0.0
 47
0.0
 48
0.0
 49
0.0
140
0.0
141
0.0
142
1.0
143
1.0
 70
   688
 72
     0
 73
     0
 74
     5
  7

 75
    16
147
1.0
148
0.0
149
0.0
100
AcDbLayout
  1
Layout2
 70
     1
 71
     2
 10
0.0
 20
0.0
 11
0.0
 21
0.0
 12
0.0
 22
0.0
 32
0.0
 14
0.0
 24
0.0
 34
0.0
 15
0.0
 25
0.0
 35
0.0
146
0.0
 13
0.0
 23
0.0
 33
0.0
 16
1.0
 26
0.0
 36
0.0
 17
0.0
 27
1.0
 37
0.0
 76
     0
330
23
  0
LAYOUT
  5
22
102
{ACAD_REACTORS
330
1A
102
}
330
1A
100
AcDbPlotSettings
  1

  2
none_device
  4

  6

 40
0.0
 41
0.0
 42
0.0
 43
0.0
 44
0.0
 45
0.0
 46
0.0
 47
0.0
 48
0.0
 49
0.0
140
0.0
141
0.0
142
1.0
143
1.0
 70
  1712
 72
     0
 73
     0
 74
     0
  7

 75
     0
147
1.0
148
0.0
149
0.0
100
AcDbLayout
  1
Model
 70
     1
 71
     0
 10
0.0
 20
0.0
 11
297.0
 21
210.0
 12
0.0
 22
0.0
 32
0.0
 14
0.0
 24
0.0
 34
0.0
 15
297.0
 25
210.0
 35
0.0
146
0.0
 13
0.0
 23
0.0
 33
0.0
 16
1.0
 26
0.0
 36
0.0
 17
0.0
 27
1.0
 37
0.0
 76
     0
330
1F
331
29
  0
MLINESTYLE
  5
18
102
{ACAD_REACTORS
330
17
102
}
330
17
100
AcDbMlineStyle
  2
Standard
 70
     0
  3

 62
   256
 51
90.0
 52
90.0
 71
     2
 49
0.5
 62
   256
  6
BYLAYER
 49
-0.5
 62
   256
  6
BYLAYER
  0
ACDBPLACEHOLDER
  5
F
102
{ACAD_REACTORS
330
E
102
}
330
E
  0
ENDSEC
  0
EOF
