  0
SECTION
  2
HEADER
  9
$ACADVER
  1
AC1015
  9
$ACADMAINTVER
 70
     6
  9
$DWGCODEPAGE
  3
ANSI_1252
  9
$INSBASE
 10
0.0
 20
0.0
 30
0.0
  9
$EXTMIN
 10
0.0
 20
0.0
 30
0.0
  9
$EXTMAX
 10
297.0
 20
210.0
 30
0.0
  9
$LIMMIN
 10
0.0
 20
0.0
  9
$LIMMAX
 10
297.0
 20
210.0
  9
$ORTHOMODE
 70
     0
  9
$REGENMODE
 70
     1
  9
$FILLMODE
 70
     1
  9
$QTEXTMODE
 70
     0
  9
$MIRRTEXT
 70
     1
  9
$LTSCALE
 40
1.0
  9
$ATTMODE
 70
     1
  9
$TEXTSIZE
 40
2.0
  9
$TRACEWID
 40
1.0
  9
$TEXTSTYLE
  7
Standard
  9
$CLAYER
  8
0
  9
$CELTYPE
  6
ByLayer
  9
$CECOLOR
 62
   256
  9
$CELTSCALE
 40
1.0
  9
$DISPSILH
 70
     0
  9
$DIMSCALE
 40
1.0
  9
$DIMASZ
 40
3.0
  9
$DIMEXO
 40
0.0
  9
$DIMDLI
 40
3.75
  9
$DIMRND
 40
0.0
  9
$DIMDLE
 40
0.0
  9
$DIMEXE
 40
1.0
  9
$DIMTP
 40
0.0
  9
$DIMTM
 40
0.0
  9
$DIMTXT
 40
2.0
  9
$DIMCEN
 40
2.5
  9
$DIMTSZ
 40
0.0
  9
$DIMTOL
 70
     0
  9
$DIMLIM
 70
     0
  9
$DIMTIH
 70
     1
  9
$DIMTOH
 70
     1
  9
$DIMSE1
 70
     0
  9
$DIMSE2
 70
     0
  9
$DIMTAD
 70
     1
  9
$DIMZIN
 70
     0
  9
$DIMBLK
  1

  9
$DIMASO
 70
     1
  9
$DIMSHO
 70
     1
  9
$DIMPOST
  1

  9
$DIMAPOST
  1

  9
$DIMALT
 70
     0
  9
$DIMALTD
 70
     3
  9
$DIMALTF
 40
0.0393700787
  9
$DIMLFAC
 40
1.0
  9
$DIMTOFL
 70
     1
  9
$DIMTVP
 40
0.0
  9
$DIMTIX
 70
     0
  9
$DIMSOXD
 70
     0
  9
$DIMSAH
 70
     0
  9
$DIMBLK1
  1

  9
$DIMBLK2
  1

  9
$DIMSTYLE
  2
ISO-25
  9
$DIMCLRD
 70
     0
  9
$DIMCLRE
 70
     0
  9
$DIMCLRT
 70
     0
  9
$DIMTFAC
 40
1.0
  9
$DIMGAP
 40
1.524
  9
$DIMJUST
 70
     0
  9
$DIMSD1
 70
     0
  9
$DIMSD2
 70
     0
  9
$DIMTOLJ
 70
     0
  9
$DIMTZIN
 70
     0
  9
$DIMALTZ
 70
     0
  9
$DIMALTTZ
 70
     0
  9
$DIMUPT
 70
     0
  9
$DIMDEC
 70
     2
  9
$DIMTDEC
 70
     3
  9
$DIMALTU
 70
     2
  9
$DIMALTTD
 70
     3
  9
$DIMTXSTY
  7
Standard
  9
$DIMAUNIT
 70
     0
  9
$DIMADEC
 70
     2
  9
$DIMALTRND
 40
0.0
  9
$DIMAZIN
 70
     0
  9
$DIMDSEP
 70
    44
  9
$DIMATFIT
 70
     3
  9
$DIMFRAC
 70
     0
  9
$DIMLDRBLK
  1

  9
$DIMLUNIT
 70
     2
  9
$DIMLWD
 70
    -2
  9
$DIMLWE
 70
    -2
  9
$DIMTMOVE
 70
     0
  9
$LUNITS
 70
     2
  9
$LUPREC
 70
     2
  9
$SKETCHINC
 40
1.0
  9
$FILLETRAD
 40
10.0
  9
$AUNITS
 70
     0
  9
$AUPREC
 70
     2
  9
$MENU
  1
.
  9
$ELEVATION
 40
0.0
  9
$PELEVATION
 40
0.0
  9
$THICKNESS
 40
0.0
  9
$LIMCHECK
 70
     0
  9
$CHAMFERA
 40
10.0
  9
$CHAMFERB
 40
10.0
  9
$CHAMFERC
 40
20.0
  9
$CHAMFERD
 40
0.0
  9
$SKPOLY
 70
     0
  9
$TDCREATE
 40
2456098.413079595
  9
$TDUCREATE
 40
2456098.329746262
  9
$TDUPDATE
 40
2456098.413081215
  9
$TDUUPDATE
 40
2456098.329747882
  9
$TDINDWG
 40
0.0000000116
  9
$TDUSRTIMER
 40
0.0000000116
  9
$USRTIMER
 70
     1
  9
$ANGBASE
 50
0.0
  9
$ANGDIR
 70
     0
  9
$PDMODE
 70
     0
  9
$PDSIZE
 40
-1.0
  9
$PLINEWID
 40
0.0
  9
$SPLFRAME
 70
     0
  9
$SPLINETYPE
 70
     6
  9
$SPLINESEGS
 70
     8
  9
$HANDSEED
  5
266
  9
$SURFTAB1
 70
     6
  9
$SURFTAB2
 70
     6
  9
$SURFTYPE
 70
     6
  9
$SURFU
 70
     6
  9
$SURFV
 70
     6
  9
$UCSBASE
  2

  9
$UCSNAME
  2

  9
$UCSORG
 10
0.0
 20
0.0
 30
0.0
  9
$UCSXDIR
 10
1.0
 20
0.0
 30
0.0
  9
$UCSYDIR
 10
0.0
 20
1.0
 30
0.0
  9
$UCSORTHOREF
  2

  9
$UCSORTHOVIEW
 70
     0
  9
$UCSORGTOP
 10
0.0
 20
0.0
 30
0.0
  9
$UCSORGBOTTOM
 10
0.0
 20
0.0
 30
0.0
  9
$UCSORGLEFT
 10
0.0
 20
0.0
 30
0.0
  9
$UCSORGRIGHT
 10
0.0
 20
0.0
 30
0.0
  9
$UCSORGFRONT
 10
0.0
 20
0.0
 30
0.0
  9
$UCSORGBACK
 10
0.0
 20
0.0
 30
0.0
  9
$PUCSBASE
  2

  9
$PUCSNAME
  2

  9
$PUCSORG
 10
0.0
 20
0.0
 30
0.0
  9
$PUCSXDIR
 10
1.0
 20
0.0
 30
0.0
  9
$PUCSYDIR
 10
0.0
 20
1.0
 30
0.0
  9
$PUCSORTHOREF
  2

  9
$PUCSORTHOVIEW
 70
     0
  9
$PUCSORGTOP
 10
0.0
 20
0.0
 30
0.0
  9
$PUCSORGBOTTOM
 10
0.0
 20
0.0
 30
0.0
  9
$PUCSORGLEFT
 10
0.0
 20
0.0
 30
0.0
  9
$PUCSORGRIGHT
 10
0.0
 20
0.0
 30
0.0
  9
$PUCSORGFRONT
 10
0.0
 20
0.0
 30
0.0
  9
$PUCSORGBACK
 10
0.0
 20
0.0
 30
0.0
  9
$USERI1
 70
     0
  9
$USERI2
 70
     0
  9
$USERI3
 70
     0
  9
$USERI4
 70
     0
  9
$USERI5
 70
     0
  9
$USERR1
 40
0.0
  9
$USERR2
 40
0.0
  9
$USERR3
 40
0.0
  9
$USERR4
 40
0.0
  9
$USERR5
 40
0.0
  9
$WORLDVIEW
 70
     1
  9
$SHADEDGE
 70
     3
  9
$SHADEDIF
 70
    70
  9
$TILEMODE
 70
     1
  9
$MAXACTVP
 70
    64
  9
$PINSBASE
 10
0.0
 20
0.0
 30
0.0
  9
$PLIMCHECK
 70
     0
  9
$PEXTMIN
 10
1.0000000000E+20
 20
1.0000000000E+20
 30
1.0000000000E+20
  9
$PEXTMAX
 10
-1.0000000000E+20
 20
-1.0000000000E+20
 30
-1.0000000000E+20
  9
$PLIMMIN
 10
0.0
 20
0.0
  9
$PLIMMAX
 10
420.0
 20
297.0
  9
$UNITMODE
 70
     0
  9
$VISRETAIN
 70
     1
  9
$PLINEGEN
 70
     0
  9
$PSLTSCALE
 70
     1
  9
$TREEDEPTH
 70
  3020
  9
$CMLSTYLE
  2
Standard
  9
$CMLJUST
 70
     0
  9
$CMLSCALE
 40
20.0
  9
$PROXYGRAPHICS
 70
     1
  9
$MEASUREMENT
 70
     1
  9
$CELWEIGHT
370
    -1
  9
$ENDCAPS
280
     0
  9
$JOINSTYLE
280
     0
  9
$LWDISPLAY
290
     1
  9
$INSUNITS
 70
     4
  9
$HYPERLINKBASE
  1

  9
$STYLESHEET
  1

  9
$XEDIT
290
     1
  9
$CEPSNTYPE
380
     0
  9
$PSTYLEMODE
290
     1
  9
$FINGERPRINTGUID
  2
{A5FFDB87-E311-45FB-8D3C-E9D9E3124256}
  9
$VERSIONGUID
  2
{FAEB1C32-E019-11D5-929B-00C0DF256EC4}
  9
$EXTNAMES
290
     1
  9
$PSVPSCALE
 40
0.0
  9
$OLESTARTUP
290
     0
  0
ENDSEC
  0
SECTION
  2
CLASSES
  0
CLASS
  1
ACDBDICTIONARYWDFLT
  2
AcDbDictionaryWithDefault
  3
ObjectDBX Classes
 90
        0
280
     0
281
     0
  0
CLASS
  1
VISUALSTYLE
  2
AcDbVisualStyle
  3
ObjectDBX Classes
 90
     4095
280
     0
281
     0
  0
CLASS
  1
MATERIAL
  2
AcDbMaterial
  3
ObjectDBX Classes
 90
     1153
280
     0
281
     0
  0
CLASS
  1
ACDBPLACEHOLDER
  2
AcDbPlaceHolder
  3
ObjectDBX Classes
 90
        0
280
     0
281
     0
  0
CLASS
  1
LAYOUT
  2
AcDbLayout
  3
ObjectDBX Classes
 90
        0
280
     0
281
     0
  0
ENDSEC
  0
SECTION
  2
TABLES
  0
TABLE
  2
VPORT
  5
8
330
0
100
AcDbSymbolTable
 70
     1
  0
VPORT
  5
29
330
8
100
AcDbSymbolTableRecord
100
AcDbViewportTableRecord
  2
*Active
 70
     0
 10
0.0
 20
0.0
 11
1.0
 21
1.0
 12
148.5
 22
105.0
 13
0.0
 23
0.0
 14
10.0
 24
10.0
 15
10.0
 25
10.0
 16
0.0
 26
0.0
 36
1.0
 17
0.0
 27
0.0
 37
0.0
 40
210.0
 41
1.4142857143
 42
50.0
 43
0.0
 44
0.0
 50
0.0
 51
0.0
 71
     0
 72
  2000
 73
     1
 74
     3
 75
     0
 76
     0
 77
     0
 78
     0
281
     0
 65
     1
110
0.0
120
0.0
130
0.0
111
1.0
121
0.0
131
0.0
112
0.0
122
1.0
132
0.0
 79
     0
146
0.0
  0
ENDTAB
  0
TABLE
  2
LTYPE
  5
5
330
0
100
AcDbSymbolTable
 70
     6
  0
LTYPE
  5
14
330
5
100
AcDbSymbolTableRecord
100
AcDbLinetypeTableRecord
  2
ByBlock
 70
     0
  3

 72
    65
 73
     0
 40
0.0
  0
LTYPE
  5
15
330
5
100
AcDbSymbolTableRecord
100
AcDbLinetypeTableRecord
  2
ByLayer
 70
     0
  3

 72
    65
 73
     0
 40
0.0
  0
LTYPE
  5
16
330
5
100
AcDbSymbolTableRecord
100
AcDbLinetypeTableRecord
  2
Continuous
 70
     0
  3
Solid line
 72
    65
 73
     0
 40
0.0
  0
LTYPE
  5
3F
330
5
100
AcDbSymbolTableRecord
100
AcDbLinetypeTableRecord
  2
HIDDEN
 70
     0
  3
Hidden __ __ __ __ __ __ __ __ __ __ __ __ __ __
 72
    65
 73
     2
 40
1.905
 49
1.27
 74
     0
 49
-0.635
 74
     0
  0
LTYPE
  5
40
330
5
100
AcDbSymbolTableRecord
100
AcDbLinetypeTableRecord
  2
PHANTOM
 70
     0
  3
Phantom ______  __  __  ______  __  __  ______
 72
    65
 73
     6
 40
12.7
 49
6.35
 74
     0
 49
-1.27
 74
     0
 49
1.27
 74
     0
 49
-1.27
 74
     0
 49
1.27
 74
     0
 49
-1.27
 74
     0
  0
LTYPE
  5
41
330
5
100
AcDbSymbolTableRecord
100
AcDbLinetypeTableRecord
  2
CENTER
 70
     0
  3
Center ____ _ ____ _ ____ _ ____ _ ____ _ ____
 72
    65
 73
     4
 40
10.16
 49
6.35
 74
     0
 49
-1.27
 74
     0
 49
1.27
 74
     0
 49
-1.27
 74
     0
  0
LTYPE
  5
42
330
5
100
AcDbSymbolTableRecord
100
AcDbLinetypeTableRecord
  2
CENTERX2
 70
     0
  3
Center (2x) ________  __  ________  __  _____
 72
    65
 73
     4
 40
20.32
 49
12.7
 74
     0
 49
-2.54
 74
     0
 49
2.54
 74
     0
 49
-2.54
 74
     0
  0
LTYPE
  5
43
330
5
100
AcDbSymbolTableRecord
100
AcDbLinetypeTableRecord
  2
DOT2
 70
     0
  3
Dot (.5x) ........................................
 72
    65
 73
     2
 40
0.635
 49
0.0
 74
     0
 49
-0.635
 74
     0
  0
ENDTAB
  0
TABLE
  2
LAYER
  5
2
330
0
100
AcDbSymbolTable
 70
     5
  0
LAYER
  5
10
330
2
100
AcDbSymbolTableRecord
100
AcDbLayerTableRecord
  2
0
 70
     0
 62
     7
  6
Continuous
370
    -3
390
F
  0
LAYER
  5
44
330
2
100
AcDbSymbolTableRecord
100
AcDbLayerTableRecord
  2
FORMAT
 70
     0
 62
     7
  6
Continuous
370
    -3
390
F
  0
LAYER
  5
45
330
2
100
AcDbSymbolTableRecord
100
AcDbLayerTableRecord
  2
VERMASSUNG
 70
     0
 62
     7
  6
Continuous
370
    -3
390
F
  0
LAYER
  5
46
330
2
100
AcDbSymbolTableRecord
100
AcDbLayerTableRecord
  2
KOPF_DÜNN
 70
     0
 62
     7
  6
Continuous
370
    -3
390
F
  0
LAYER
  5
47
330
2
100
AcDbSymbolTableRecord
100
AcDbLayerTableRecord
  2
KOPF_DICK
 70
     0
 62
     7
  6
Continuous
370
    15
390
F
  0
ENDTAB
  0
TABLE
  2
STYLE
  5
3
330
0
100
AcDbSymbolTable
 70
     3
  0
STYLE
  5
11
330
3
100
AcDbSymbolTableRecord
100
AcDbTextStyleTableRecord
  2
Standard
 70
     0
 40
0.0
 41
1.0
 50
0.0
 71
     0
 42
2.0
  3
txt
  4

  0
STYLE
  5
48
330
3
100
AcDbSymbolTableRecord
100
AcDbTextStyleTableRecord
  2
SLDTEXTSTYLE0
 70
     0
 40
0.0
 41
0.7
 50
0.0
 71
     0
 42
0.2
  3
TXT
  4

  0
STYLE
  5
4C
330
3
100
AcDbSymbolTableRecord
100
AcDbTextStyleTableRecord
  2
SLDTEXTSTYLE1
 70
     0
 40
0.0
 41
0.6384615385
 50
0.0
 71
     0
 42
0.2
  3
TXT
  4

  0
ENDTAB
  0
TABLE
  2
VIEW
  5
6
330
0
100
AcDbSymbolTable
 70
     0
  0
ENDTAB
  0
TABLE
  2
UCS
  5
7
330
0
100
AcDbSymbolTable
 70
     0
  0
ENDTAB
  0
TABLE
  2
APPID
  5
9
330
0
100
AcDbSymbolTable
 70
     1
  0
APPID
  5
12
330
9
100
AcDbSymbolTableRecord
100
AcDbRegAppTableRecord
  2
ACAD
 70
     0
  0
ENDTAB
  0
TABLE
  2
DIMSTYLE
  5
A
330
0
100
AcDbSymbolTable
 70
     3
100
AcDbDimStyleTable
  0
DIMSTYLE
105
27
330
A
100
AcDbSymbolTableRecord
100
AcDbDimStyleTableRecord
  2
ISO-25
 70
     0
 41
2.5
 42
0.625
 43
3.75
 44
1.25
 73
     0
 74
     0
 77
     1
 78
     8
140
2.5
141
2.5
143
0.0393700787
147
0.625
171
     3
172
     1
178
     0
271
     2
272
     2
274
     3
278
    44
283
     0
284
     8
340
11
  0
DIMSTYLE
105
196
102
{ACAD_REACTORS
330
195
330
1A0
330
1AA
330
1C3
102
}
330
A
100
AcDbSymbolTableRecord
100
AcDbDimStyleTableRecord
  2
SLDDIMSTYLE0
 70
     0
 41
3.0
 44
0.0
 45
0.000000001
 73
     0
 74
     0
 77
     1
 78
    12
 79
     3
140
2.0
147
0.5
173
     1
178
     0
271
     2
272
     3
276
     2
284
    12
340
48
  0
DIMSTYLE
105
1B6
102
{ACAD_REACTORS
330
1B5
102
}
330
A
100
AcDbSymbolTableRecord
100
AcDbDimStyleTableRecord
  2
SLDDIMSTYLE1
 70
     0
 41
3.0
 44
0.0
 45
0.000000001
 73
     0
 74
     0
 77
     1
 78
    12
 79
     3
140
2.0
147
0.5
172
     1
173
     1
178
     0
271
     2
272
     3
276
     2
284
    12
289
     0
340
48
  0
ENDTAB
  0
TABLE
  2
BLOCK_RECORD
  5
1
330
0
100
AcDbSymbolTable
 70
     7
  0
BLOCK_RECORD
  5
1F
330
1
100
AcDbSymbolTableRecord
100
AcDbBlockTableRecord
  2
*Model_Space
340
22
  0
BLOCK_RECORD
  5
1B
330
1
100
AcDbSymbolTableRecord
100
AcDbBlockTableRecord
  2
*Paper_Space
340
1E
  0
BLOCK_RECORD
  5
23
330
1
100
AcDbSymbolTableRecord
100
AcDbBlockTableRecord
  2
*Paper_Space0
340
26
  0
BLOCK_RECORD
  5
197
330
1
100
AcDbSymbolTableRecord
100
AcDbBlockTableRecord
  2
_D
340
0
  0
BLOCK_RECORD
  5
1A1
330
1
100
AcDbSymbolTableRecord
100
AcDbBlockTableRecord
  2
_D_1
340
0
  0
BLOCK_RECORD
  5
1AB
330
1
100
AcDbSymbolTableRecord
100
AcDbBlockTableRecord
  2
_D_2
340
0
  0
BLOCK_RECORD
  5
1B7
330
1
100
AcDbSymbolTableRecord
100
AcDbBlockTableRecord
  2
_D_3
340
0
  0
BLOCK_RECORD
  5
1C4
330
1
100
AcDbSymbolTableRecord
100
AcDbBlockTableRecord
  2
_D_4
340
0
  0
BLOCK_RECORD
  5
259
330
1
100
AcDbSymbolTableRecord
100
AcDbBlockTableRecord
  2
SW_CENTERMARKSYMBOL_0
340
0
102
{BLKREFS
331
264
102
}
  0
ENDTAB
  0
ENDSEC
  0
SECTION
  2
BLOCKS
  0
BLOCK
  5
20
330
1F
100
AcDbEntity
  8
0
100
AcDbBlockBegin
  2
*Model_Space
 70
     0
 10
0.0
 20
0.0
 30
0.0
  3
*Model_Space
  1

  0
ENDBLK
  5
21
330
1F
100
AcDbEntity
  8
0
100
AcDbBlockEnd
  0
BLOCK
  5
1C
330
1B
100
AcDbEntity
 67
     1
  8
0
100
AcDbBlockBegin
  2
*Paper_Space
 70
     0
 10
0.0
 20
0.0
 30
0.0
  3
*Paper_Space
  1

  0
ENDBLK
  5
1D
330
1B
100
AcDbEntity
 67
     1
  8
0
100
AcDbBlockEnd
  0
BLOCK
  5
24
330
23
100
AcDbEntity
  8
0
100
AcDbBlockBegin
  2
*Paper_Space0
 70
     0
 10
0.0
 20
0.0
 30
0.0
  3
*Paper_Space0
  1

  0
ENDBLK
  5
25
330
23
100
AcDbEntity
  8
0
100
AcDbBlockEnd
  0
BLOCK
  5
198
330
197
100
AcDbEntity
  8
0
100
AcDbBlockBegin
  2
_D
 70
     0
 10
0.0
 20
0.0
 30
0.0
  3
_D
  1

  0
SOLID
  5
19A
330
197
100
AcDbEntity
  8
VERMASSUNG
100
AcDbTrace
 10
166.236271613
 20
142.6233881363
 30
0.0
 11
169.236271613
 21
142.1733881363
 31
0.0
 12
169.236271613
 22
143.0733881363
 32
0.0
 13
169.236271613
 23
143.0733881363
 33
0.0
  0
SOLID
  5
19B
330
197
100
AcDbEntity
  8
VERMASSUNG
100
AcDbTrace
 10
236.236271613
 20
142.6233881363
 30
0.0
 11
233.236271613
 21
143.0733881363
 31
0.0
 12
233.236271613
 22
142.1733881363
 32
0.0
 13
233.236271613
 23
142.1733881363
 33
0.0
  0
LINE
  5
19C
330
197
100
AcDbEntity
  8
VERMASSUNG
100
AcDbLine
 10
166.236271613
 20
134.6730242588
 30
0.0
 11
166.236271613
 21
143.6233881363
 31
0.0
  0
LINE
  5
19D
330
197
100
AcDbEntity
  8
VERMASSUNG
100
AcDbLine
 10
236.236271613
 20
125.9730242588
 30
0.0
 11
236.236271613
 21
143.6233881363
 31
0.0
  0
LINE
  5
19E
330
197
100
AcDbEntity
  8
VERMASSUNG
100
AcDbLine
 10
166.236271613
 20
142.6233881363
 30
0.0
 11
236.236271613
 21
142.6233881363
 31
0.0
  0
MTEXT
  5
19F
330
197
100
AcDbEntity
  8
VERMASSUNG
100
AcDbMText
 10
195.9249711117
 20
145.2015234995
 30
0.1
 40
2.0
 41
0.0
 71
     1
 72
     1
  1
70
  7
SLDTEXTSTYLE0
 73
     1
 44
1.0
  0
ENDBLK
  5
199
330
197
100
AcDbEntity
  8
0
100
AcDbBlockEnd
  0
BLOCK
  5
1A2
330
1A1
100
AcDbEntity
  8
0
100
AcDbBlockBegin
  2
_D_1
 70
     0
 10
0.0
 20
0.0
 30
0.0
  3
_D_1
  1

  0
SOLID
  5
1A4
330
1A1
100
AcDbEntity
  8
VERMASSUNG
100
AcDbTrace
 10
136.236271613
 20
150.9730242588
 30
0.0
 11
139.236271613
 21
150.5230242588
 31
0.0
 12
139.236271613
 22
151.4230242588
 32
0.0
 13
139.236271613
 23
151.4230242588
 33
0.0
  0
SOLID
  5
1A5
330
1A1
100
AcDbEntity
  8
VERMASSUNG
100
AcDbTrace
 10
236.236271613
 20
150.9730242588
 30
0.0
 11
233.236271613
 21
151.4230242588
 31
0.0
 12
233.236271613
 22
150.5230242588
 32
0.0
 13
233.236271613
 23
150.5230242588
 33
0.0
  0
LINE
  5
1A6
330
1A1
100
AcDbEntity
  8
VERMASSUNG
100
AcDbLine
 10
136.236271613
 20
125.9135991779
 30
0.0
 11
136.236271613
 21
151.9730242588
 31
0.0
  0
LINE
  5
1A7
330
1A1
100
AcDbEntity
  8
VERMASSUNG
100
AcDbLine
 10
236.236271613
 20
125.9730242588
 30
0.0
 11
236.236271613
 21
151.9730242588
 31
0.0
  0
LINE
  5
1A8
330
1A1
100
AcDbEntity
  8
VERMASSUNG
100
AcDbLine
 10
136.236271613
 20
150.9730242588
 30
0.0
 11
236.236271613
 21
150.9730242588
 31
0.0
  0
MTEXT
  5
1A9
330
1A1
100
AcDbEntity
  8
VERMASSUNG
100
AcDbMText
 10
183.5145994439
 20
153.5511596219
 30
0.1
 40
2.0
 41
0.0
 71
     1
 72
     1
  1
100
  7
SLDTEXTSTYLE0
 73
     1
 44
1.0
  0
ENDBLK
  5
1A3
330
1A1
100
AcDbEntity
  8
0
100
AcDbBlockEnd
  0
BLOCK
  5
1AC
330
1AB
100
AcDbEntity
  8
0
100
AcDbBlockBegin
  2
_D_2
 70
     0
 10
0.0
 20
0.0
 30
0.0
  3
_D_2
  1

  0
SOLID
  5
1AE
330
1AB
100
AcDbEntity
  8
VERMASSUNG
100
AcDbTrace
 10
252.236271613
 20
126.9730242588
 30
0.0
 11
251.786271613
 21
123.9730242588
 31
0.0
 12
252.686271613
 22
123.9730242588
 32
0.0
 13
252.686271613
 23
123.9730242588
 33
0.0
  0
SOLID
  5
1AF
330
1AB
100
AcDbEntity
  8
VERMASSUNG
100
AcDbTrace
 10
252.236271613
 20
92.9730242588
 30
0.0
 11
252.686271613
 21
95.9730242588
 31
0.0
 12
251.786271613
 22
95.9730242588
 32
0.0
 13
251.786271613
 23
95.9730242588
 33
0.0
  0
LINE
  5
1B0
330
1AB
100
AcDbEntity
  8
VERMASSUNG
100
AcDbLine
 10
235.236271613
 20
126.9730242588
 30
0.0
 11
253.236271613
 21
126.9730242588
 31
0.0
  0
LINE
  5
1B1
330
1AB
100
AcDbEntity
  8
VERMASSUNG
100
AcDbLine
 10
235.236271613
 20
92.9730242588
 30
0.0
 11
253.236271613
 21
92.9730242588
 31
0.0
  0
LINE
  5
1B2
330
1AB
100
AcDbEntity
  8
VERMASSUNG
100
AcDbLine
 10
252.236271613
 20
126.9730242588
 30
0.0
 11
252.236271613
 21
92.9730242588
 31
0.0
  0
MTEXT
  5
1B3
330
1AB
100
AcDbEntity
  8
VERMASSUNG
100
AcDbMText
 10
249.6581361334
 20
106.1166396436
 30
0.1
 40
2.0
 41
0.0
 71
     1
 72
     1
  1
%%c
  7
SLDTEXTSTYLE0
 11
-7.044195017643634E-15
 21
1.0
 31
0.0
 73
     1
 44
1.0
  0
MTEXT
  5
1B4
330
1AB
100
AcDbEntity
  8
VERMASSUNG
100
AcDbMText
 10
249.4581361239
 20
109.7266396579
 30
0.1
 40
2.0
 41
0.0
 71
     1
 72
     1
  1
34
  7
SLDTEXTSTYLE0
 11
-7.044195017643634E-15
 21
1.0
 31
0.0
 73
     1
 44
1.0
  0
ENDBLK
  5
1AD
330
1AB
100
AcDbEntity
  8
0
100
AcDbBlockEnd
  0
BLOCK
  5
1B8
330
1B7
100
AcDbEntity
  8
0
100
AcDbBlockBegin
  2
_D_3
 70
     0
 10
0.0
 20
0.0
 30
0.0
  3
_D_3
  1

  0
SOLID
  5
1BA
330
1B7
100
AcDbEntity
  8
VERMASSUNG
100
AcDbTrace
 10
246.236271613
 20
113.9730242588
 30
0.0
 11
246.686271613
 21
116.9730242588
 31
0.0
 12
245.786271613
 22
116.9730242588
 32
0.0
 13
245.786271613
 23
116.9730242588
 33
0.0
  0
SOLID
  5
1BB
330
1B7
100
AcDbEntity
  8
VERMASSUNG
100
AcDbTrace
 10
246.236271613
 20
105.9730242588
 30
0.0
 11
245.786271613
 21
102.9730242588
 31
0.0
 12
246.686271613
 22
102.9730242588
 32
0.0
 13
246.686271613
 23
102.9730242588
 33
0.0
  0
LINE
  5
1BC
330
1B7
100
AcDbEntity
  8
VERMASSUNG
100
AcDbLine
 10
235.936271613
 20
113.9730242588
 30
0.0
 11
247.236271613
 21
113.9730242588
 31
0.0
  0
LINE
  5
1BD
330
1B7
100
AcDbEntity
  8
VERMASSUNG
100
AcDbLine
 10
235.936271613
 20
105.9730242588
 30
0.0
 11
247.236271613
 21
105.9730242588
 31
0.0
  0
LINE
  5
1BE
330
1B7
100
AcDbEntity
  8
VERMASSUNG
100
AcDbLine
 10
246.236271613
 20
113.9730242588
 30
0.0
 11
246.236271613
 21
119.9730242588
 31
0.0
  0
LINE
  5
1BF
330
1B7
100
AcDbEntity
  8
VERMASSUNG
100
AcDbLine
 10
246.236271613
 20
113.9730242588
 30
0.0
 11
246.236271613
 21
105.9730242588
 31
0.0
  0
LINE
  5
1C0
330
1B7
100
AcDbEntity
  8
VERMASSUNG
100
AcDbLine
 10
246.236271613
 20
105.9730242588
 30
0.0
 11
246.236271613
 21
99.9730242588
 31
0.0
  0
MTEXT
  5
1C1
330
1B7
100
AcDbEntity
  8
VERMASSUNG
100
AcDbMText
 10
243.6581361334
 20
106.9166396816
 30
0.1
 40
2.0
 41
0.0
 71
     1
 72
     1
  1
%%c
  7
SLDTEXTSTYLE0
 11
-7.044195017643634E-15
 21
1.0
 31
0.0
 73
     1
 44
1.0
  0
MTEXT
  5
1C2
330
1B7
100
AcDbEntity
  8
VERMASSUNG
100
AcDbMText
 10
243.4581361239
 20
110.5266396959
 30
0.1
 40
2.0
 41
0.0
 71
     1
 72
     1
  1
8
  7
SLDTEXTSTYLE0
 11
-7.044195017643634E-15
 21
1.0
 31
0.0
 73
     1
 44
1.0
  0
ENDBLK
  5
1B9
330
1B7
100
AcDbEntity
  8
0
100
AcDbBlockEnd
  0
BLOCK
  5
1C5
330
1C4
100
AcDbEntity
  8
0
100
AcDbBlockBegin
  2
_D_4
 70
     0
 10
0.0
 20
0.0
 30
0.0
  3
_D_4
  1

  0
SOLID
  5
1C7
330
1C4
100
AcDbEntity
  8
VERMASSUNG
100
AcDbTrace
 10
126.236271613
 20
134.9730242588
 30
0.0
 11
125.786271613
 21
131.9730242588
 31
0.0
 12
126.686271613
 22
131.9730242588
 32
0.0
 13
126.686271613
 23
131.9730242588
 33
0.0
  0
SOLID
  5
1C8
330
1C4
100
AcDbEntity
  8
VERMASSUNG
100
AcDbTrace
 10
126.236271613
 20
84.9730242588
 30
0.0
 11
126.686271613
 21
87.9730242588
 31
0.0
 12
125.786271613
 22
87.9730242588
 32
0.0
 13
125.786271613
 23
87.9730242588
 33
0.0
  0
LINE
  5
1C9
330
1C4
100
AcDbEntity
  8
VERMASSUNG
100
AcDbLine
 10
166.536271613
 20
134.9730242588
 30
0.0
 11
125.236271613
 21
134.9730242588
 31
0.0
  0
LINE
  5
1CA
330
1C4
100
AcDbEntity
  8
VERMASSUNG
100
AcDbLine
 10
166.536271613
 20
84.9730242588
 30
0.0
 11
125.236271613
 21
84.9730242588
 31
0.0
  0
LINE
  5
1CB
330
1C4
100
AcDbEntity
  8
VERMASSUNG
100
AcDbLine
 10
126.236271613
 20
134.9730242588
 30
0.0
 11
126.236271613
 21
84.9730242588
 31
0.0
  0
MTEXT
  5
1CC
330
1C4
100
AcDbEntity
  8
VERMASSUNG
100
AcDbMText
 10
123.4581361239
 20
102.7868734368
 30
0.1
 40
2.0
 41
0.0
 71
     1
 72
     1
  1
PSC
  7
SLDTEXTSTYLE0
 11
-7.044195017643634E-15
 21
1.0
 31
0.0
 73
     1
 44
1.0
  0
MTEXT
  5
1CD
330
1C4
100
AcDbEntity
  8
VERMASSUNG
100
AcDbMText
 10
123.6581361334
 20
107.3868735389
 30
0.1
 40
2.0
 41
0.0
 71
     1
 72
     1
  1
%%c
  7
SLDTEXTSTYLE0
 11
-7.044195017643634E-15
 21
1.0
 31
0.0
 73
     1
 44
1.0
  0
MTEXT
  5
1CE
330
1C4
100
AcDbEntity
  8
VERMASSUNG
100
AcDbMText
 10
123.4581361239
 20
110.9968740189
 30
0.1
 40
2.0
 41
0.0
 71
     1
 72
     1
  1
50
  7
SLDTEXTSTYLE0
 11
-7.044195017643634E-15
 21
1.0
 31
0.0
 73
     1
 44
1.0
  0
ENDBLK
  5
1C6
330
1C4
100
AcDbEntity
  8
0
100
AcDbBlockEnd
  0
BLOCK
  5
25A
330
259
100
AcDbEntity
  8
0
100
AcDbBlockBegin
  2
SW_CENTERMARKSYMBOL_0
 70
     0
 10
0.0
 20
0.0
 30
0.0
  3
SW_CENTERMARKSYMBOL_0
  1

  0
LINE
  5
25C
330
259
100
AcDbEntity
  8
VERMASSUNG
 62
     0
100
AcDbLine
 10
0.0
 20
0.0
 30
0.0
 11
0.0
 21
2.5
 31
0.0
  0
LINE
  5
25D
330
259
100
AcDbEntity
  8
VERMASSUNG
 62
     0
100
AcDbLine
 10
0.0
 20
0.0
 30
0.0
 11
-2.5
 21
0.0
 31
0.0
  0
LINE
  5
25E
330
259
100
AcDbEntity
  8
VERMASSUNG
 62
     0
100
AcDbLine
 10
0.0
 20
0.0
 30
0.0
 11
0.0
 21
-2.5
 31
0.0
  0
LINE
  5
25F
330
259
100
AcDbEntity
  8
VERMASSUNG
 62
     0
100
AcDbLine
 10
0.0
 20
0.0
 30
0.0
 11
2.5
 21
0.0
 31
0.0
  0
LINE
  5
260
330
259
100
AcDbEntity
  8
VERMASSUNG
 62
     0
100
AcDbLine
 10
0.0
 20
5.0
 30
0.0
 11
0.0
 21
27.5
 31
0.0
  0
LINE
  5
261
330
259
100
AcDbEntity
  8
VERMASSUNG
 62
     0
100
AcDbLine
 10
-5.0
 20
0.0
 30
0.0
 11
-27.5
 21
0.0
 31
0.0
  0
LINE
  5
262
330
259
100
AcDbEntity
  8
VERMASSUNG
 62
     0
100
AcDbLine
 10
0.0
 20
-5.0
 30
0.0
 11
0.0
 21
-27.5
 31
0.0
  0
LINE
  5
263
330
259
100
AcDbEntity
  8
VERMASSUNG
 62
     0
100
AcDbLine
 10
5.0
 20
0.0
 30
0.0
 11
27.5
 21
0.0
 31
0.0
  0
ENDBLK
  5
25B
330
259
100
AcDbEntity
  8
0
100
AcDbBlockEnd
  0
ENDSEC
  0
SECTION
  2
ENTITIES
  0
MTEXT
  5
49
330
1F
100
AcDbEntity
  8
KOPF_DÜNN
100
AcDbMText
 10
13.8892156294
 20
23.8442973028
 30
0.0
 40
3.0
 41
0.0
 71
     1
 72
     1
  1
PS5.B08.K01.070
  7
SLDTEXTSTYLE0
 73
     1
 44
1.0
  0
MTEXT
  5
4A
330
1F
100
AcDbEntity
  8
VERMASSUNG
100
AcDbMText
 10
13.9329988022
 20
28.8834360957
 30
0.0
 40
3.0
 41
0.0
 71
     1
 72
     1
  1
Bohrstangenhalter_Boring bar holder
  7
SLDTEXTSTYLE0
 73
     1
 44
1.0
  0
MTEXT
  5
4B
330
1F
100
AcDbEntity
  8
VERMASSUNG
100
AcDbMText
 10
98.8601118557
 20
13.8365368179
 30
0.0
 40
2.0
 41
0.0
 71
     1
 72
     1
  1
Datum: 18.06.2012
  7
SLDTEXTSTYLE0
 73
     1
 44
1.0
  0
MTEXT
  5
4D
330
1F
100
AcDbEntity
  8
VERMASSUNG
100
AcDbMText
 10
13.933048693
 20
18.0482802738
 30
0.0
 40
2.0
 41
0.0
 71
     1
 72
     1
  1
PSC ø50 / ø 8
  7
SLDTEXTSTYLE1
 73
     1
 44
1.0
  0
MTEXT
  5
4E
330
1F
100
AcDbEntity
  8
VERMASSUNG
100
AcDbMText
 10
13.9808475933
 20
13.9090973692
 30
0.0
 40
2.0
 41
0.0
 71
     1
 72
     1
  1
Gewicht: 752g
  7
SLDTEXTSTYLE0
 73
     1
 44
1.0
  0
LINE
  5
4F
330
1F
100
AcDbEntity
  8
0
  6
Continuous
 62
     7
370
    15
100
AcDbLine
 10
221.8394926718
 20
126.8034443803
 30
0.0
 11
221.5457721582
 21
126.9730251827
 31
0.0
  0
LINE
  5
50
330
1F
100
AcDbEntity
  8
0
  6
Continuous
 62
     7
370
    15
100
AcDbLine
 10
214.9267732135
 20
126.9730251827
 30
0.0
 11
214.634978675
 21
126.8045563795
 31
0.0
  0
LINE
  5
51
330
1F
100
AcDbEntity
  8
0
  6
Continuous
 62
     7
370
    15
100
AcDbLine
 10
204.6366161636
 20
93.1405459144
 30
0.0
 11
204.9267715744
 21
92.9730233349
 31
0.0
  0
LINE
  5
52
330
1F
100
AcDbEntity
  8
0
  6
Continuous
 62
     7
370
    15
100
AcDbLine
 10
211.5457705191
 20
92.9730233349
 30
0.0
 11
211.8379971913
 21
93.1417417325
 31
0.0
  0
LINE
  5
53
330
1F
100
AcDbEntity
  8
0
  6
Continuous
 62
     7
370
    15
100
AcDbLine
 10
214.6366140774
 20
93.1405459144
 30
0.0
 11
214.9267732135
 21
92.9730233349
 31
0.0
  0
LINE
  5
54
330
1F
100
AcDbEntity
  8
0
  6
Continuous
 62
     7
370
    15
100
AcDbLine
 10
221.5457721582
 20
92.9730233349
 30
0.0
 11
221.8379988304
 21
93.1417417325
 31
0.0
  0
LINE
  5
55
330
1F
100
AcDbEntity
  8
0
  6
Continuous
 62
     7
370
    15
100
AcDbLine
 10
224.6366157166
 20
93.1405459144
 30
0.0
 11
224.9267711273
 21
92.9730233349
 31
0.0
  0
LINE
  5
56
330
1F
100
AcDbEntity
  8
0
  6
Continuous
 62
     7
370
    15
100
AcDbLine
 10
231.5457737974
 20
92.9730233349
 30
0.0
 11
231.8380004695
 21
93.1417417325
 31
0.0
  0
LINE
  5
57
330
1F
100
AcDbEntity
  8
0
  6
Continuous
 62
     7
370
    15
100
AcDbLine
 10
211.8394910327
 20
126.8034443803
 30
0.0
 11
211.5457705191
 21
126.9730251827
 31
0.0
  0
LINE
  5
58
330
1F
100
AcDbEntity
  8
0
  6
Continuous
 62
     7
370
    15
100
AcDbLine
 10
204.9267715744
 20
126.9730251827
 30
0.0
 11
204.6349770359
 21
126.8045563795
 31
0.0
  0
LINE
  5
59
330
1F
100
AcDbEntity
  8
0
  6
Continuous
 62
     7
370
    15
100
AcDbLine
 10
231.8394905857
 20
126.8034443803
 30
0.0
 11
231.5457737974
 21
126.9730251827
 31
0.0
  0
LINE
  5
5A
330
1F
100
AcDbEntity
  8
0
  6
Continuous
 62
     7
370
    15
100
AcDbLine
 10
224.9267711273
 20
126.9730251827
 30
0.0
 11
224.6349765888
 21
126.8045563795
 31
0.0
  0
LINE
  5
5B
330
1F
100
AcDbEntity
  8
0
  6
Continuous
 62
     7
370
    15
100
AcDbLine
 10
180.2115379802
 20
84.9730238863
 30
0.0
 11
185.6362721852
 21
84.9730238863
 31
0.0
  0
LINE
  5
5C
330
1F
100
AcDbEntity
  8
0
  6
Continuous
 62
     7
370
    15
100
AcDbLine
 10
166.5362716272
 20
84.9730238863
 30
0.0
 11
176.2362713895
 21
84.9730238863
 31
0.0
  0
LINE
  5
5D
330
1F
100
AcDbEntity
  8
0
  6
Continuous
 62
     7
370
    15
100
AcDbLine
 10
185.6362721852
 20
134.9730246313
 30
0.0
 11
166.5362716272
 21
134.9730246313
 31
0.0
  0
ARC
  5
5E
330
1F
100
AcDbEntity
  8
0
  6
Continuous
 62
     7
370
    15
100
AcDbCircle
 10
166.536271613
 20
85.2730242588
 30
0.0
 40
0.3000000000000114
100
AcDbArc
 50
180.0
 51
270.0
  0
ARC
  5
5F
330
1F
100
AcDbEntity
  8
0
  6
Continuous
 62
     7
370
    15
100
AcDbCircle
 10
166.536271613
 20
134.6730242588
 30
0.0
 40
0.3000000000000114
100
AcDbArc
 50
90.0
 51
180.0
  0
ARC
  5
60
330
1F
100
AcDbEntity
  8
0
  6
Continuous
 62
     7
370
    15
100
AcDbCircle
 10
185.636271613
 20
85.5730242588
 30
0.0
 40
0.5999999999999801
100
AcDbArc
 50
270.0
 51
0.0
  0
ARC
  5
61
330
1F
100
AcDbEntity
  8
0
  6
Continuous
 62
     7
370
    15
100
AcDbCircle
 10
185.636271613
 20
134.3730242588
 30
0.0
 40
0.5999999999999659
100
AcDbArc
 50
0.0
 51
90.0
  0
ARC
  5
62
330
1F
100
AcDbEntity
  8
0
  6
Continuous
 62
     7
370
    15
100
AcDbCircle
 10
189.236271613
 20
89.9730242588
 30
0.0
 40
3.000000000000028
100
AcDbArc
 50
90.0
 51
180.0
  0
ARC
  5
63
330
1F
100
AcDbEntity
  8
0
  6
Continuous
 62
     7
370
    15
100
AcDbCircle
 10
189.236271613
 20
129.9730242588
 30
0.0
 40
3.000000000000028
100
AcDbArc
 50
180.0
 51
270.0
  0
LWPOLYLINE
  5
64
330
1F
100
AcDbEntity
  8
0
  6
Continuous
 62
     7
370
    15
100
AcDbPolyline
 90
        3
 70
   128
 43
0.0
 10
166.036271618
 20
92.1332032033
 10
166.1617265532
 20
92.0649018683
 10
166.236271613
 20
92.0121647962
  0
ARC
  5
65
330
1F
100
AcDbEntity
  8
0
  6
Continuous
 62
     7
370
    15
100
AcDbCircle
 10
165.6220580506
 20
128.7230242588
 30
0.0
 40
0.999999999999988
100
AcDbArc
 50
225.0
 51
307.8947985336
  0
ARC
  5
66
330
1F
100
AcDbEntity
  8
0
  6
Continuous
 62
     7
370
    15
100
AcDbCircle
 10
235.236271613
 20
125.9730242588
 30
0.0
 40
1.0
100
AcDbArc
 50
0.0
 51
90.0
  0
ARC
  5
67
330
1F
100
AcDbEntity
  8
0
  6
Continuous
 62
     7
370
    15
100
AcDbCircle
 10
235.236271613
 20
93.9730242588
 30
0.0
 40
1.0
100
AcDbArc
 50
270.0
 51
0.0
  0
LINE
  5
68
330
1F
100
AcDbEntity
  8
0
  6
Continuous
 62
     7
370
    15
100
AcDbLine
 10
203.790528231
 20
126.9730251827
 30
0.0
 11
189.2362716577
 21
126.9730251827
 31
0.0
  0
LINE
  5
69
330
1F
100
AcDbEntity
  8
0
  6
Continuous
 62
     7
370
    15
100
AcDbLine
 10
213.7905298701
 20
126.9730251827
 30
0.0
 11
212.7300105027
 21
126.9730251827
 31
0.0
  0
LINE
  5
6A
330
1F
100
AcDbEntity
  8
0
  6
Continuous
 62
     7
370
    15
100
AcDbLine
 10
223.790527784
 20
126.9730251827
 30
0.0
 11
222.7300084165
 21
126.9730251827
 31
0.0
  0
LINE
  5
6B
330
1F
100
AcDbEntity
  8
0
  6
Continuous
 62
     7
370
    15
100
AcDbLine
 10
235.2362698844
 20
126.9730251827
 30
0.0
 11
232.7300063303
 21
126.9730251827
 31
0.0
  0
LINE
  5
6C
330
1F
100
AcDbEntity
  8
0
  6
Continuous
 62
     7
370
    15
100
AcDbLine
 10
232.7300063303
 20
92.9730233349
 30
0.0
 11
235.2362698844
 21
92.9730233349
 31
0.0
  0
LINE
  5
6D
330
1F
100
AcDbEntity
  8
0
  6
Continuous
 62
     7
370
    15
100
AcDbLine
 10
222.7300084165
 20
92.9730233349
 30
0.0
 11
223.790527784
 21
92.9730233349
 31
0.0
  0
LINE
  5
6E
330
1F
100
AcDbEntity
  8
0
  6
Continuous
 62
     7
370
    15
100
AcDbLine
 10
212.7300105027
 20
92.9730233349
 30
0.0
 11
213.7905298701
 21
92.9730233349
 31
0.0
  0
LINE
  5
6F
330
1F
100
AcDbEntity
  8
0
  6
Continuous
 62
     7
370
    15
100
AcDbLine
 10
189.2362716577
 20
92.9730233349
 30
0.0
 11
203.790528231
 21
92.9730233349
 31
0.0
  0
LINE
  5
70
330
1F
100
AcDbEntity
  8
0
  6
Continuous
 62
     7
370
    15
100
AcDbLine
 10
155.6500284902
 20
93.7836167015
 30
0.0
 11
164.0362716249
 21
93.5729254581
 31
0.0
  0
LINE
  5
71
330
1F
100
AcDbEntity
  8
0
  6
Continuous
 62
     7
370
    15
100
AcDbLine
 10
143.5932959399
 20
94.086523781
 30
0.0
 11
148.9644008658
 21
93.9515825905
 31
0.0
  0
ARC
  5
72
330
1F
100
AcDbEntity
  8
0
  6
Continuous
 62
     7
370
    15
100
AcDbCircle
 10
164.2362085239
 20
93.5679023631
 30
0.0
 40
0.2000000000000048
100
AcDbArc
 50
88.5608333333
 51
178.5608333333
  0
LINE
  5
73
330
1F
100
AcDbEntity
  8
0
  6
Continuous
 62
     7
370
    15
100
AcDbLine
 10
164.241231742
 20
93.7678400971
 30
0.0
 11
165.8412947114
 21
93.7276404895
 31
0.0
  0
ARC
  5
74
330
1F
100
AcDbEntity
  8
0
  6
Continuous
 62
     7
370
    15
100
AcDbCircle
 10
165.836271613
 20
93.527703209
 30
0.0
 40
0.2000000000000052
100
AcDbArc
 50
0.0
 51
88.5608333333
  0
ARC
  5
75
330
1F
100
AcDbEntity
  8
0
  6
Continuous
 62
     7
370
    15
100
AcDbCircle
 10
164.2362085239
 20
128.6181461545
 30
0.0
 40
0.2000000000000052
100
AcDbArc
 50
181.4391666667
 51
271.4391666667
  0
LINE
  5
76
330
1F
100
AcDbEntity
  8
0
  6
Continuous
 62
     7
370
    15
100
AcDbLine
 10
164.0362716249
 20
128.6131233521
 30
0.0
 11
137.7362715981
 21
127.9523760625
 31
0.0
  0
LINE
  5
77
330
1F
100
AcDbEntity
  8
0
  6
Continuous
 62
     7
370
    15
100
AcDbLine
 10
164.5155453558
 20
128.4251005002
 30
0.0
 11
164.241231742
 21
128.4182087131
 31
0.0
  0
LINE
  5
78
330
1F
100
AcDbEntity
  8
0
  6
Continuous
 62
     7
370
    15
100
AcDbLine
 10
137.7362715981
 20
127.9523760625
 30
0.0
 11
136.2362722835
 21
127.0863503762
 31
0.0
  0
LINE
  5
79
330
1F
100
AcDbEntity
  8
0
  6
Continuous
 62
     7
370
    15
100
AcDbLine
 10
164.9149513074
 20
128.0159183391
 30
0.0
 11
164.5223902275
 21
128.4084782549
 31
0.0
  0
LINE
  5
7A
330
1F
100
AcDbEntity
  8
0
  6
Continuous
 62
     7
370
    15
100
AcDbLine
 10
218.2362726859
 20
126.5743632414
 30
0.0
 11
220.0318812362
 21
126.5743632414
 31
0.0
  0
LINE
  5
7B
330
1F
100
AcDbEntity
  8
0
  6
Continuous
 62
     7
370
    15
100
AcDbLine
 10
216.3775800696
 20
126.5743632414
 30
0.0
 11
218.2362726859
 21
126.5743632414
 31
0.0
  0
LINE
  5
7C
330
1F
100
AcDbEntity
  8
0
  6
Continuous
 62
     7
370
    15
100
AcDbLine
 10
218.2362726859
 20
126.9730251827
 30
0.0
 11
221.5457721582
 21
126.9730251827
 31
0.0
  0
LINE
  5
7D
330
1F
100
AcDbEntity
  8
0
  6
Continuous
 62
     7
370
    15
100
AcDbLine
 10
214.9267732135
 20
126.9730251827
 30
0.0
 11
218.2362726859
 21
126.9730251827
 31
0.0
  0
LINE
  5
7E
330
1F
100
AcDbEntity
  8
0
  6
Continuous
 62
     7
370
    15
100
AcDbLine
 10
210.0327736667
 20
93.3716852762
 30
0.0
 11
206.3789642385
 21
93.3716852762
 31
0.0
  0
LINE
  5
7F
330
1F
100
AcDbEntity
  8
0
  6
Continuous
 62
     7
370
    15
100
AcDbLine
 10
211.5457705191
 20
92.9730233349
 30
0.0
 11
204.9267715744
 21
92.9730233349
 31
0.0
  0
LINE
  5
80
330
1F
100
AcDbEntity
  8
0
  6
Continuous
 62
     7
370
    15
100
AcDbLine
 10
220.0327715806
 20
93.3716852762
 30
0.0
 11
216.3789621523
 21
93.3716852762
 31
0.0
  0
LINE
  5
81
330
1F
100
AcDbEntity
  8
0
  6
Continuous
 62
     7
370
    15
100
AcDbLine
 10
221.5457721582
 20
92.9730233349
 30
0.0
 11
214.9267732135
 21
92.9730233349
 31
0.0
  0
LINE
  5
82
330
1F
100
AcDbEntity
  8
0
  6
Continuous
 62
     7
370
    15
100
AcDbLine
 10
230.0327694944
 20
93.3716852762
 30
0.0
 11
226.3789637915
 21
93.3716852762
 31
0.0
  0
LINE
  5
83
330
1F
100
AcDbEntity
  8
0
  6
Continuous
 62
     7
370
    15
100
AcDbLine
 10
231.5457737974
 20
92.9730233349
 30
0.0
 11
224.9267711273
 21
92.9730233349
 31
0.0
  0
LINE
  5
84
330
1F
100
AcDbEntity
  8
0
  6
Continuous
 62
     7
370
    15
100
AcDbLine
 10
208.2362710467
 20
126.5743632414
 30
0.0
 11
210.0318833223
 21
126.5743632414
 31
0.0
  0
LINE
  5
85
330
1F
100
AcDbEntity
  8
0
  6
Continuous
 62
     7
370
    15
100
AcDbLine
 10
206.3775821558
 20
126.5743632414
 30
0.0
 11
208.2362710467
 21
126.5743632414
 31
0.0
  0
LINE
  5
86
330
1F
100
AcDbEntity
  8
0
  6
Continuous
 62
     7
370
    15
100
AcDbLine
 10
208.2362710467
 20
126.9730251827
 30
0.0
 11
211.5457705191
 21
126.9730251827
 31
0.0
  0
LINE
  5
87
330
1F
100
AcDbEntity
  8
0
  6
Continuous
 62
     7
370
    15
100
AcDbLine
 10
204.9267715744
 20
126.9730251827
 30
0.0
 11
208.2362710467
 21
126.9730251827
 31
0.0
  0
LINE
  5
88
330
1F
100
AcDbEntity
  8
0
  6
Continuous
 62
     7
370
    15
100
AcDbLine
 10
228.2362705997
 20
126.5743632414
 30
0.0
 11
230.0318828753
 21
126.5743632414
 31
0.0
  0
LINE
  5
89
330
1F
100
AcDbEntity
  8
0
  6
Continuous
 62
     7
370
    15
100
AcDbLine
 10
226.3775817088
 20
126.5743632414
 30
0.0
 11
228.2362705997
 21
126.5743632414
 31
0.0
  0
LINE
  5
8A
330
1F
100
AcDbEntity
  8
0
  6
Continuous
 62
     7
370
    15
100
AcDbLine
 10
228.2362705997
 20
126.9730251827
 30
0.0
 11
231.5457737974
 21
126.9730251827
 31
0.0
  0
LINE
  5
8B
330
1F
100
AcDbEntity
  8
0
  6
Continuous
 62
     7
370
    15
100
AcDbLine
 10
224.9267711273
 20
126.9730251827
 30
0.0
 11
228.2362705997
 21
126.9730251827
 31
0.0
  0
ARC
  5
8C
330
1F
100
AcDbEntity
  8
0
  6
Continuous
 62
     7
370
    15
100
AcDbCircle
 10
178.2362067901
 20
60.0165752789
 30
0.0
 40
25.0364547949486
100
AcDbArc
 50
85.4747630076
 51
94.581721871
  0
SPLINE
  5
8D
330
1F
100
AcDbEntity
  8
0
  6
Continuous
 62
     7
370
    15
100
AcDbSpline
210
0.0
220
0.0
230
1.0
 70
     8
 71
     3
 72
    12
 73
     8
 74
     0
 42
0.00000001
 43
0.00000001
 12
1.0
 22
0.0
 32
0.0
 13
1.0
 23
0.0
 33
0.0
 40
0.0
 40
0.0
 40
0.0
 40
0.0
 40
0.25
 40
0.25
 40
0.5
 40
0.5
 40
1.0
 40
1.0
 40
1.0
 40
1.0
 10
174.7640284265425
 20
86.14629314329314
 30
0.0
 10
174.700363190012
 20
86.14629314329315
 30
0.0
 10
174.6407569577887
 20
86.154557918959
 30
0.0
 10
174.5420964328578
 20
86.17877670054214
 30
0.0
 10
174.5031294428425
 20
86.1940340198513
 30
0.0
 10
174.4037426109181
 20
86.24366737411323
 30
0.0
 10
174.3616663634946
 20
86.28130708228734
 30
0.0
 10
174.3310157246503
 20
86.32038278156348
 30
0.0
  0
LINE
  5
8E
330
1F
100
AcDbEntity
  8
0
  6
Continuous
 62
     7
370
    15
100
AcDbLine
 10
177.7085144973
 20
86.1462928899
 30
0.0
 11
174.7640282816
 21
86.1462928899
 31
0.0
  0
SPLINE
  5
8F
330
1F
100
AcDbEntity
  8
0
  6
Continuous
 62
     7
370
    15
100
AcDbSpline
210
0.0
220
0.0
230
1.0
 70
     8
 71
     3
 72
    12
 73
     8
 74
     0
 42
0.00000001
 43
0.00000001
 12
1.0
 22
0.0
 32
0.0
 13
1.0
 23
0.0
 33
0.0
 40
0.0
 40
0.0
 40
0.0
 40
0.0
 40
0.5000000000000032
 40
0.5000000000000032
 40
0.7500000000000016
 40
0.7500000000000016
 40
1.0
 40
1.0
 40
1.0
 40
1.0
 10
178.1415275013018
 20
86.32038278156348
 30
0.0
 10
178.1108281179345
 20
86.28124493916758
 30
0.0
 10
178.069478049828
 20
86.24408515644208
 30
0.0
 10
177.9697221216086
 20
86.19414865081434
 30
0.0
 10
177.9300252038759
 20
86.17869578067058
 30
0.0
 10
177.8327670522282
 20
86.15477623707153
 30
0.0
 10
177.7719908942376
 20
86.14629314329314
 30
0.0
 10
177.7085147994096
 20
86.14629314329315
 30
0.0
  0
ELLIPSE
  5
90
330
1F
100
AcDbEntity
  8
0
  6
Continuous
 62
     7
370
    15
100
AcDbEllipse
 10
165.180013958
 20
109.9730242588
 30
0.0
 11
-11.70927234972726
 21
24.67718644093746
 31
0.0
210
0.0
220
0.0
230
1.0
 40
0.3419987131
 41
3.310521928178946
 42
4.221709151398939
  0
SPLINE
  5
91
330
1F
100
AcDbEntity
  8
0
  6
Continuous
 62
     7
370
    15
100
AcDbSpline
210
0.0
220
0.0
230
1.0
 70
     8
 71
     3
 72
    12
 73
     8
 74
     0
 42
0.00000001
 43
0.00000001
 12
1.0
 22
0.0
 32
0.0
 13
1.0
 23
0.0
 33
0.0
 40
0.0
 40
0.0
 40
0.0
 40
0.0
 40
0.2500000000000007
 40
0.2500000000000007
 40
0.5000000000000014
 40
0.5000000000000014
 40
1.0
 40
1.0
 40
1.0
 40
1.0
 10
177.7085147994096
 20
102.4042142896143
 30
0.0
 10
177.7721800359402
 20
102.4042142896143
 30
0.0
 10
177.8317862681635
 20
102.3781421411346
 30
0.0
 10
177.9304467930943
 20
102.3026033903135
 30
0.0
 10
177.9694137831096
 20
102.2553524532173
 30
0.0
 10
178.0688006150341
 20
102.1035286352509
 30
0.0
 10
178.1108768624575
 20
101.9907253854858
 30
0.0
 10
178.1415275013019
 20
101.8765712607507
 30
0.0
  0
LINE
  5
92
330
1F
100
AcDbEntity
  8
0
  6
Continuous
 62
     7
370
    15
100
AcDbLine
 10
174.7640282816
 20
102.4042141237
 30
0.0
 11
177.7085144973
 21
102.4042141237
 31
0.0
  0
SPLINE
  5
93
330
1F
100
AcDbEntity
  8
0
  6
Continuous
 62
     7
370
    15
100
AcDbSpline
210
0.0
220
0.0
230
1.0
 70
     8
 71
     3
 72
    12
 73
     8
 74
     0
 42
0.00000001
 43
0.00000001
 12
1.0
 22
0.0
 32
0.0
 13
1.0
 23
0.0
 33
0.0
 40
0.0
 40
0.0
 40
0.0
 40
0.0
 40
0.5
 40
0.5
 40
0.75
 40
0.75
 40
1.0
 40
1.0
 40
1.0
 40
1.0
 10
174.3310157246503
 20
101.8765712607507
 30
0.0
 10
174.3617151080176
 20
101.9909069278146
 30
0.0
 10
174.4030651761241
 20
102.1022602806559
 30
0.0
 10
174.5028211043436
 20
102.2549970529047
 30
0.0
 10
174.5425180220763
 20
102.3028569387568
 30
0.0
 10
174.6397761737239
 20
102.3774600521063
 30
0.0
 10
174.7005523317146
 20
102.4042142896143
 30
0.0
 10
174.7640284265425
 20
102.4042142896144
 30
0.0
  0
ELLIPSE
  5
94
330
1F
100
AcDbEntity
  8
0
  6
Continuous
 62
     7
370
    15
100
AcDbEllipse
 10
187.292529268
 20
109.9730242588
 30
0.0
 11
11.70927234972708
 21
24.67718644093746
 31
0.0
210
0.0
220
0.0
230
1.0
 40
0.3419987131
 41
2.061476155780655
 42
2.972663379000673
  0
SPLINE
  5
95
330
1F
100
AcDbEntity
  8
0
  6
Continuous
 62
     7
370
    15
100
AcDbSpline
210
0.0
220
0.0
230
1.0
 70
     8
 71
     3
 72
    12
 73
     8
 74
     0
 42
0.00000001
 43
0.00000001
 12
1.0
 22
0.0
 32
0.0
 13
1.0
 23
0.0
 33
0.0
 40
0.0
 40
0.0
 40
0.0
 40
0.0
 40
0.2499999999999984
 40
0.2499999999999984
 40
0.4999999999999968
 40
0.4999999999999968
 40
1.0
 40
1.0
 40
1.0
 40
1.0
 10
174.7640284265425
 20
117.5418342279759
 30
0.0
 10
174.7003918723288
 20
117.5418342279759
 30
0.0
 10
174.6408117454626
 20
117.5678811310338
 30
0.0
 10
174.5421750040962
 20
117.6433682899337
 30
0.0
 10
174.5032163797159
 20
117.6905873284644
 30
0.0
 10
174.403837440208
 20
117.842326979558
 30
0.0
 10
174.3618795350426
 20
117.9545292037422
 30
0.0
 10
174.3310157246501
 20
118.0694772568394
 30
0.0
  0
LINE
  5
96
330
1F
100
AcDbEntity
  8
0
  6
Continuous
 62
     7
370
    15
100
AcDbLine
 10
177.7085144973
 20
117.5418343939
 30
0.0
 11
174.7640282816
 21
117.5418343939
 31
0.0
  0
SPLINE
  5
97
330
1F
100
AcDbEntity
  8
0
  6
Continuous
 62
     7
370
    15
100
AcDbSpline
210
0.0
220
0.0
230
1.0
 70
     8
 71
     3
 72
    12
 73
     8
 74
     0
 42
0.00000001
 43
0.00000001
 12
1.0
 22
0.0
 32
0.0
 13
1.0
 23
0.0
 33
0.0
 40
0.0
 40
0.0
 40
0.0
 40
0.0
 40
0.5000000000000037
 40
0.5000000000000037
 40
0.7500000000000018
 40
0.7500000000000018
 40
1.0
 40
1.0
 40
1.0
 40
1.0
 10
178.1415275013019
 20
118.0694772568395
 30
0.0
 10
178.1106757907376
 20
117.9545742679026
 30
0.0
 10
178.068782927277
 20
117.8424353718538
 30
0.0
 10
177.9692620494838
 20
117.6904930902529
 30
0.0
 10
177.9296478847595
 20
117.642828480728
 30
0.0
 10
177.83254485098
 20
117.5684921501126
 30
0.0
 10
177.7720461783296
 20
117.5418342279755
 30
0.0
 10
177.7085147994097
 20
117.5418342279755
 30
0.0
  0
ELLIPSE
  5
98
330
1F
100
AcDbEntity
  8
0
  6
Continuous
 62
     7
370
    15
100
AcDbEllipse
 10
165.180013958
 20
109.9730242588
 30
0.0
 11
11.70927234972715
 21
24.67718644093746
 31
0.0
210
0.0
220
0.0
230
1.0
 40
0.3419987131
 41
5.203068809370457
 42
6.114256032590502
  0
SPLINE
  5
99
330
1F
100
AcDbEntity
  8
0
  6
Continuous
 62
     7
370
    15
100
AcDbSpline
210
0.0
220
0.0
230
1.0
 70
     8
 71
     3
 72
    12
 73
     8
 74
     0
 42
0.00000001
 43
0.00000001
 12
1.0
 22
0.0
 32
0.0
 13
1.0
 23
0.0
 33
0.0
 40
0.0
 40
0.0
 40
0.0
 40
0.0
 40
0.2500000000000007
 40
0.2500000000000007
 40
0.5000000000000013
 40
0.5000000000000013
 40
1.0
 40
1.0
 40
1.0
 40
1.0
 10
177.7085147994096
 20
133.7997553742972
 30
0.0
 10
177.7721513536233
 20
133.7997553742972
 30
0.0
 10
177.8317314804895
 20
133.7914986033654
 30
0.0
 10
177.9303682218559
 20
133.7672965413576
 30
0.0
 10
177.9693268462362
 20
133.7520497223235
 30
0.0
 10
178.0687057857441
 20
133.7024448502633
 30
0.0
 10
178.1106636909095
 20
133.6650132021445
 30
0.0
 10
178.141527501302
 20
133.6256657360269
 30
0.0
  0
LINE
  5
9A
330
1F
100
AcDbEntity
  8
0
  6
Continuous
 62
     7
370
    15
100
AcDbLine
 10
174.7640282816
 20
133.7997556277
 30
0.0
 11
177.7085144973
 21
133.7997556277
 31
0.0
  0
SPLINE
  5
9B
330
1F
100
AcDbEntity
  8
0
  6
Continuous
 62
     7
370
    15
100
AcDbSpline
210
0.0
220
0.0
230
1.0
 70
     8
 71
     3
 72
    12
 73
     8
 74
     0
 42
0.00000001
 43
0.00000001
 12
1.0
 22
0.0
 32
0.0
 13
1.0
 23
0.0
 33
0.0
 40
0.0
 40
0.0
 40
0.0
 40
0.0
 40
0.4999999999999996
 40
0.4999999999999996
 40
0.7499999999999998
 40
0.7499999999999998
 40
1.0
 40
1.0
 40
1.0
 40
1.0
 10
174.3310157246503
 20
133.6256657360268
 30
0.0
 10
174.3618674352145
 20
133.6649977763893
 30
0.0
 10
174.4037602986751
 20
133.7024095419176
 30
0.0
 10
174.5032811764683
 20
133.7520804665335
 30
0.0
 10
174.5428953411927
 20
133.7674695491413
 30
0.0
 10
174.6399983749721
 20
133.7913027648086
 30
0.0
 10
174.7004970476225
 20
133.7997553742974
 30
0.0
 10
174.7640284265424
 20
133.7997553742974
 30
0.0
  0
ELLIPSE
  5
9C
330
1F
100
AcDbEntity
  8
0
  6
Continuous
 62
     7
370
    15
100
AcDbEllipse
 10
187.292529268
 20
109.9730242588
 30
0.0
 11
-11.70927234972706
 21
24.67718644093747
 31
0.0
210
0.0
220
0.0
230
1.0
 40
0.3419987131
 41
0.1689292745891231
 42
1.080116497809143
  0
LINE
  5
9D
330
1F
100
AcDbEntity
  8
0
  6
Continuous
 62
     7
370
    15
100
AcDbLine
 10
166.236271613
 20
109.9730242588
 30
0.0
 11
166.236271613
 21
134.6730251409
 31
0.0
  0
LINE
  5
9E
330
1F
100
AcDbEntity
  8
0
  6
Continuous
 62
     7
370
    15
100
AcDbLine
 10
166.236271613
 20
85.2730233766
 30
0.0
 11
166.236271613
 21
109.9730242588
 31
0.0
  0
LINE
  5
9F
330
1F
100
AcDbEntity
  8
0
  6
Continuous
 62
     7
370
    15
100
AcDbLine
 10
186.2362711659
 20
109.9730242588
 30
0.0
 11
186.2362711659
 21
134.3730237879
 31
0.0
  0
LINE
  5
A0
330
1F
100
AcDbEntity
  8
0
  6
Continuous
 62
     7
370
    15
100
AcDbLine
 10
186.2362711659
 20
85.5730247297
 30
0.0
 11
186.2362711659
 21
109.9730242588
 31
0.0
  0
LINE
  5
A1
330
1F
100
AcDbEntity
  8
0
  6
Continuous
 62
     7
370
    15
100
AcDbLine
 10
166.036271618
 20
96.387259344
 30
0.0
 11
166.036271618
 21
92.1332032033
 31
0.0
  0
SPLINE
  5
A2
330
1F
100
AcDbEntity
  8
0
  6
Continuous
 62
     7
370
    15
100
AcDbSpline
210
0.0
220
0.0
230
1.0
 70
     8
 71
     3
 72
    16
 73
    12
 74
     0
 42
0.00000001
 43
0.00000001
 12
1.0
 22
0.0
 32
0.0
 13
1.0
 23
0.0
 33
0.0
 40
0.0
 40
0.0
 40
0.0
 40
0.0
 40
0.4999999999999977
 40
0.4999999999999977
 40
0.7500000000000013
 40
0.7500000000000013
 40
0.8750000000000007
 40
0.8750000000000007
 40
0.9375000000000004
 40
0.9375000000000004
 40
1.0
 40
1.0
 40
1.0
 40
1.0
 10
166.0362716129761
 20
96.38725957139958
 30
0.0
 10
166.0362716129761
 20
96.46605380185612
 30
0.0
 10
166.032214310861
 20
96.54712515028605
 30
0.0
 10
166.0065570680662
 20
96.67524209210265
 30
0.0
 10
165.9952416223241
 20
96.71983973972384
 30
0.0
 10
165.9612102550155
 20
96.78615900041946
 30
0.0
 10
165.9473312738116
 20
96.80911319825502
 30
0.0
 10
165.9113955920443
 20
96.83615160021932
 30
0.0
 10
165.8964452727815
 20
96.84296133612288
 30
0.0
 10
165.8665467600397
 20
96.84630679767261
 30
0.0
 10
165.8530138996744
 20
96.84334873669918
 30
0.0
 10
165.8412947241004
 20
96.83861639600633
 30
0.0
  0
SPLINE
  5
A3
330
1F
100
AcDbEntity
  8
0
  6
Continuous
 62
     7
370
    15
100
AcDbSpline
210
0.0
220
0.0
230
1.0
 70
     8
 71
     3
 72
    14
 73
    10
 74
     0
 42
0.00000001
 43
0.00000001
 12
1.0
 22
0.0
 32
0.0
 13
1.0
 23
0.0
 33
0.0
 40
0.0
 40
0.0
 40
0.0
 40
0.0
 40
0.25
 40
0.25
 40
0.5
 40
0.5
 40
0.75
 40
0.75
 40
1.0
 40
1.0
 40
1.0
 40
1.0
 10
165.8412947241073
 20
96.83861639600127
 30
0.0
 10
165.7848389594985
 20
96.81581889539878
 30
0.0
 10
165.7139733332486
 20
96.79946030130397
 30
0.0
 10
165.565516252076
 20
96.80485974293599
 30
0.0
 10
165.4963228927684
 20
96.82595096072401
 30
0.0
 10
165.3866074546342
 20
96.87687336111378
 30
0.0
 10
165.3413628753029
 20
96.90737379124721
 30
0.0
 10
165.2617361658791
 20
96.97063418873354
 30
0.0
 10
165.2271260173457
 20
97.00388025398304
 30
0.0
 10
165.1954105848464
 20
97.03816177127058
 30
0.0
  0
SPLINE
  5
A4
330
1F
100
AcDbEntity
  8
0
  6
Continuous
 62
     7
370
    15
100
AcDbSpline
210
0.0
220
0.0
230
1.0
 70
     8
 71
     3
 72
    10
 73
     6
 74
     0
 42
0.00000001
 43
0.00000001
 12
1.0
 22
0.0
 32
0.0
 13
1.0
 23
0.0
 33
0.0
 40
0.0
 40
0.0
 40
0.0
 40
0.0
 40
0.5
 40
0.5
 40
1.0
 40
1.0
 40
1.0
 40
1.0
 10
165.195410584847
 20
97.03816177127
 30
0.0
 10
165.1236307969235
 20
97.11574923726631
 30
0.0
 10
165.0711712826155
 20
97.1987112780984
 30
0.0
 10
164.9818282185143
 20
97.37324132680837
 30
0.0
 10
164.9458326090146
 20
97.46490246845916
 30
0.0
 10
164.9149512694165
 20
97.56070187279478
 30
0.0
  0
SPLINE
  5
A5
330
1F
100
AcDbEntity
  8
0
  6
Continuous
 62
     7
370
    15
100
AcDbSpline
210
0.0
220
0.0
230
1.0
 70
     8
 71
     3
 72
    10
 73
     6
 74
     0
 42
0.00000001
 43
0.00000001
 12
1.0
 22
0.0
 32
0.0
 13
1.0
 23
0.0
 33
0.0
 40
0.0
 40
0.0
 40
0.0
 40
0.0
 40
0.5
 40
0.5
 40
1.0
 40
1.0
 40
1.0
 40
1.0
 10
164.9149512694165
 20
104.8385423254721
 30
0.0
 10
164.9458243012287
 20
105.0018863511396
 30
0.0
 10
164.9818111641416
 20
105.1639488201985
 30
0.0
 10
165.0711457500328
 20
105.4833804607024
 30
0.0
 10
165.1236016094554
 20
105.6410141022718
 30
0.0
 10
165.1954105848477
 20
105.793127354318
 30
0.0
  0
SPLINE
  5
A6
330
1F
100
AcDbEntity
  8
0
  6
Continuous
 62
     7
370
    15
100
AcDbSpline
210
0.0
220
0.0
230
1.0
 70
     8
 71
     3
 72
    16
 73
    12
 74
     0
 42
0.00000001
 43
0.00000001
 12
1.0
 22
0.0
 32
0.0
 13
1.0
 23
0.0
 33
0.0
 40
0.0
 40
0.0
 40
0.0
 40
0.0
 40
0.2499999999999995
 40
0.2499999999999995
 40
0.499999999999999
 40
0.499999999999999
 40
0.6249999999999992
 40
0.6249999999999992
 40
0.7499999999999993
 40
0.7499999999999993
 40
1.0
 40
1.0
 40
1.0
 40
1.0
 10
165.195410584847
 20
105.7931273543184
 30
0.0
 10
165.2271385460397
 20
105.8603368268314
 30
0.0
 10
165.2617661363902
 20
105.9258384589086
 30
0.0
 10
165.3414598984539
 20
106.0506882873423
 30
0.0
 10
165.3865013584576
 20
106.1108231494685
 30
0.0
 10
165.469354085308
 20
106.1859726052247
 30
0.0
 10
165.4992685465078
 20
106.2080638911435
 30
0.0
 10
165.5652548770658
 20
106.2412253433164
 30
0.0
 10
165.6019885025276
 20
106.2520667539903
 30
0.0
 10
165.7144852220974
 20
106.2555908850261
 30
0.0
 10
165.7848265701957
 20
106.2184568302285
 30
0.0
 10
165.8412947241008
 20
106.1690875945182
 30
0.0
  0
SPLINE
  5
A7
330
1F
100
AcDbEntity
  8
0
  6
Continuous
 62
     7
370
    15
100
AcDbSpline
210
0.0
220
0.0
230
1.0
 70
     8
 71
     3
 72
    16
 73
    12
 74
     0
 42
0.00000001
 43
0.00000001
 12
1.0
 22
0.0
 32
0.0
 13
1.0
 23
0.0
 33
0.0
 40
0.0
 40
0.0
 40
0.0
 40
0.0
 40
0.0625000000000007
 40
0.0625000000000007
 40
0.1250000000000013
 40
0.1250000000000013
 40
0.2499999999999986
 40
0.2499999999999986
 40
0.4999999999999978
 40
0.4999999999999978
 40
1.0
 40
1.0
 40
1.0
 40
1.0
 10
165.8412947240692
 20
106.1690875944699
 30
0.0
 10
165.8530010395711
 20
106.1588529434375
 30
0.0
 10
165.8664969529003
 20
106.1503930253838
 30
0.0
 10
165.8963979445816
 20
106.1448981064388
 30
0.0
 10
165.9113740764691
 20
106.1490765551478
 30
0.0
 10
165.9471101180845
 20
106.1734537555852
 30
0.0
 10
165.9611263951141
 20
106.2001834014409
 30
0.0
 10
165.9952930486369
 20
106.2806329362228
 30
0.0
 10
166.0062743091808
 20
106.3380882844586
 30
0.0
 10
166.0321650965356
 20
106.513264675402
 30
0.0
 10
166.0362716129758
 20
106.6327850340671
 30
0.0
 10
166.0362716129761
 20
106.7526833911109
 30
0.0
  0
LINE
  5
A8
330
1F
100
AcDbEntity
  8
0
  6
Continuous
 62
     7
370
    15
100
AcDbLine
 10
166.036271618
 20
126.7791294106
 30
0.0
 11
166.036271618
 21
106.7526833233
 31
0.0
  0
LINE
  5
A9
330
1F
100
AcDbEntity
  8
0
  6
Continuous
 62
     7
370
    15
100
AcDbLine
 10
166.036271618
 20
126.7791294106
 30
0.0
 11
166.0195032133
 21
126.8385217138
 31
0.0
  0
SPLINE
  5
AA
330
1F
100
AcDbEntity
  8
0
  6
Continuous
 62
     7
370
    15
100
AcDbSpline
210
0.0
220
0.0
230
1.0
 70
     8
 71
     3
 72
    12
 73
     8
 74
     0
 42
0.00000001
 43
0.00000001
 12
1.0
 22
0.0
 32
0.0
 13
1.0
 23
0.0
 33
0.0
 40
0.0
 40
0.0
 40
0.0
 40
0.0
 40
0.5000000000000016
 40
0.5000000000000016
 40
0.7500000000000008
 40
0.7500000000000008
 40
1.0
 40
1.0
 40
1.0
 40
1.0
 10
165.9992854849722
 20
126.9101321798158
 30
0.0
 10
165.9891577146729
 20
126.920316949452
 30
0.0
 10
165.9766647467134
 20
126.9293966780267
 30
0.0
 10
165.9412235665795
 20
126.9354203919939
 30
0.0
 10
165.925752397115
 20
126.9361730554796
 30
0.0
 10
165.8823765053026
 20
126.9282627757173
 30
0.0
 10
165.8589903660486
 20
126.9196941046045
 30
0.0
 10
165.8412947241004
 20
126.9113687858607
 30
0.0
  0
SPLINE
  5
AB
330
1F
100
AcDbEntity
  8
0
  6
Continuous
 62
     7
370
    15
100
AcDbSpline
210
0.0
220
0.0
230
1.0
 70
     8
 71
     3
 72
    14
 73
    10
 74
     0
 42
0.00000001
 43
0.00000001
 12
1.0
 22
0.0
 32
0.0
 13
1.0
 23
0.0
 33
0.0
 40
0.0
 40
0.0
 40
0.0
 40
0.0
 40
0.25
 40
0.25
 40
0.5
 40
0.5
 40
0.75
 40
0.75
 40
1.0
 40
1.0
 40
1.0
 40
1.0
 10
165.8412947241073
 20
126.9113687858559
 30
0.0
 10
165.7848350582235
 20
126.8848060470733
 30
0.0
 10
165.7139625833613
 20
126.8641190001937
 30
0.0
 10
165.5654962254793
 20
126.8632075551866
 30
0.0
 10
165.4963010222716
 20
126.8826273645835
 30
0.0
 10
165.386583836202
 20
126.931361047544
 30
0.0
 10
165.34133794727
 20
126.961167556527
 30
0.0
 10
165.2617208163032
 20
127.0226733549571
 30
0.0
 10
165.2271181968463
 20
127.0548903481008
 30
0.0
 10
165.1954105848475
 20
127.0877836507985
 30
0.0
  0
SPLINE
  5
AC
330
1F
100
AcDbEntity
  8
0
  6
Continuous
 62
     7
370
    15
100
AcDbSpline
210
0.0
220
0.0
230
1.0
 70
     8
 71
     3
 72
    10
 73
     6
 74
     0
 42
0.00000001
 43
0.00000001
 12
1.0
 22
0.0
 32
0.0
 13
1.0
 23
0.0
 33
0.0
 40
0.0
 40
0.0
 40
0.0
 40
0.0
 40
0.5
 40
0.5
 40
1.0
 40
1.0
 40
1.0
 40
1.0
 10
164.9149512694165
 20
127.5198285781186
 30
0.0
 10
164.9458298530284
 20
127.4522460335881
 30
0.0
 10
164.9818225607517
 20
127.3818211746189
 30
0.0
 10
165.0711628122488
 20
127.2369131356976
 30
0.0
 10
165.1236211150944
 20
127.1622576527884
 30
0.0
 10
165.1954105848475
 20
127.0877836507984
 30
0.0
  0
SPLINE
  5
AD
330
1F
100
AcDbEntity
  8
0
  6
Continuous
 62
     7
370
    15
100
AcDbSpline
210
0.0
220
0.0
230
1.0
 70
     8
 71
     3
 72
    18
 73
    14
 74
     0
 42
0.00000001
 43
0.00000001
 12
1.0
 22
0.0
 32
0.0
 13
1.0
 23
0.0
 33
0.0
 40
0.0
 40
0.0
 40
0.0
 40
0.0
 40
0.2499999999999997
 40
0.2499999999999997
 40
0.3749999999999997
 40
0.3749999999999997
 40
0.4999999999999998
 40
0.4999999999999998
 40
0.6249999999999998
 40
0.6249999999999998
 40
0.7499999999999999
 40
0.7499999999999999
 40
1.0
 40
1.0
 40
1.0
 40
1.0
 10
164.9149512694164
 20
97.56070187279478
 30
0.0
 10
164.7796656631141
 20
97.98038186944052
 30
0.0
 10
164.6784979168712
 20
98.45670998682701
 30
0.0
 10
164.5756365740022
 20
99.25624267723549
 30
0.0
 10
164.5495337284789
 20
99.53784390928823
 30
0.0
 10
164.5146437449341
 20
100.1276966659132
 30
0.0
 10
164.5060574866441
 20
100.4316626063102
 30
0.0
 10
164.5059577770784
 20
101.0570895668966
 30
0.0
 10
164.514446148227
 20
101.3785521890307
 30
0.0
 10
164.5485895277476
 20
102.0389952084965
 30
0.0
 10
164.5743865096014
 20
102.3793636105888
 30
0.0
 10
164.6777876409894
 20
103.4181514299555
 30
0.0
 10
164.7796456331607
 20
104.1226629309274
 30
0.0
 10
164.9149512694164
 20
104.8385423254721
 30
0.0
  0
LINE
  5
AE
330
1F
100
AcDbEntity
  8
0
  6
Continuous
 62
     7
370
    15
100
AcDbLine
 10
137.7362715981
 20
97.4623464592
 30
0.0
 11
137.7362715981
 21
105.793127472
 31
0.0
  0
LINE
  5
AF
330
1F
100
AcDbEntity
  8
0
  6
Continuous
 62
     7
370
    15
100
AcDbLine
 10
164.0362716249
 20
96.8901223116
 30
0.0
 11
164.0362716249
 21
105.793127472
 31
0.0
  0
LINE
  5
B0
330
1F
100
AcDbEntity
  8
0
  6
Continuous
 62
     7
370
    15
100
AcDbLine
 10
164.0362716249
 20
105.793127472
 30
0.0
 11
164.0362716249
 21
127.2358239241
 31
0.0
  0
LINE
  5
B1
330
1F
100
AcDbEntity
  8
0
  6
Continuous
 62
     7
370
    15
100
AcDbLine
 10
137.7362715981
 20
105.793127472
 30
0.0
 11
137.7362715981
 21
126.6635988452
 31
0.0
  0
LINE
  5
B2
330
1F
100
AcDbEntity
  8
0
  6
Continuous
 62
     7
370
    15
100
AcDbLine
 10
236.236271911
 20
125.9730250188
 30
0.0
 11
236.236271911
 21
93.9730234988
 31
0.0
  0
SPLINE
  5
B3
330
1F
100
AcDbEntity
  8
0
  6
Continuous
 62
     7
370
    15
100
AcDbSpline
210
0.0
220
0.0
230
1.0
 70
     8
 71
     3
 72
    11
 73
     7
 74
     0
 42
0.00000001
 43
0.00000001
 12
1.0
 22
0.0
 32
0.0
 13
1.0
 23
0.0
 33
0.0
 40
0.0
 40
0.0
 40
0.0
 40
0.0
 40
0.3658544210184602
 40
0.5705076811710684
 40
0.7826781410675299
 40
1.0
 40
1.0
 40
1.0
 40
1.0
 10
205.2129334739189
 20
93.2345647909073
 30
0.0
 10
204.9086741023789
 20
93.18661609213173
 30
0.0
 10
204.4342167812166
 20
93.1118456386889
 30
0.0
 10
204.0183661551132
 20
93.03072940536235
 30
0.0
 10
203.767766531047
 20
92.97978371164207
 30
0.0
 10
203.7828805709506
 20
92.9827886246677
 30
0.0
 10
203.790528230999
 20
92.98430910188237
 30
0.0
  0
SPLINE
  5
B4
330
1F
100
AcDbEntity
  8
0
  6
Continuous
 62
     7
370
    15
100
AcDbSpline
210
0.0
220
0.0
230
1.0
 70
     8
 71
     3
 72
    18
 73
    14
 74
     0
 42
0.00000001
 43
0.00000001
 12
1.0
 22
0.0
 32
0.0
 13
1.0
 23
0.0
 33
0.0
 40
0.0
 40
0.0
 40
0.0
 40
0.0
 40
0.0074317334600697
 40
0.1269578224725106
 40
0.2464591934900472
 40
0.3766723752670753
 40
0.522314838812271
 40
0.6005706333990699
 40
0.6809567917166272
 40
0.7616464834115078
 40
0.8446767220873315
 40
0.9212666465631059
 40
1.0
 40
1.0
 40
1.0
 40
1.0
 10
212.7300105026703
 20
92.9743290491728
 30
0.0
 10
212.7320026240784
 20
92.97391396797111
 30
0.0
 10
212.7660344414786
 20
92.96682305091959
 30
0.0
 10
212.5592797239764
 20
93.0106056788935
 30
0.0
 10
211.9701512183443
 20
93.12484900642853
 30
0.0
 10
210.9994085002693
 20
93.2805827948148
 30
0.0
 10
209.9288261952186
 20
93.39481106026676
 30
0.0
 10
208.9408813354955
 20
93.44764421806005
 30
0.0
 10
208.1444204532246
 20
93.45982597055064
 30
0.0
 10
207.3342879327139
 20
93.44023402730815
 30
0.0
 10
206.5630272266651
 20
93.39112310217443
 30
0.0
 10
205.8380624906465
 20
93.31983859841108
 30
0.0
 10
205.4232180684372
 20
93.26324969842902
 30
0.0
 10
205.2129334739189
 20
93.2345647909073
 30
0.0
  0
SPLINE
  5
B5
330
1F
100
AcDbEntity
  8
0
  6
Continuous
 62
     7
370
    15
100
AcDbSpline
210
0.0
220
0.0
230
1.0
 70
     8
 71
     3
 72
    23
 73
    19
 74
     0
 42
0.00000001
 43
0.00000001
 12
1.0
 22
0.0
 32
0.0
 13
1.0
 23
0.0
 33
0.0
 40
0.0
 40
0.0
 40
0.0
 40
0.0
 40
0.0384476454022692
 40
0.1261306517382641
 40
0.2171277598122704
 40
0.317949964102821
 40
0.3734980111330654
 40
0.4304660473069651
 40
0.4895901111777741
 40
0.5503696337055477
 40
0.6104842570432584
 40
0.6723770968595132
 40
0.7317571095629835
 40
0.7930817896272333
 40
0.8486335091741767
 40
0.9062614245601641
 40
0.9550172570447809
 40
1.0
 40
1.0
 40
1.0
 40
1.0
 10
203.790528230999
 20
126.961739415708
 30
0.0
 10
203.777031392379
 20
126.9645374407338
 30
0.0
 10
203.732753907146
 20
126.9737165911448
 30
0.0
 10
204.0945210210881
 20
126.898569586937
 30
0.0
 10
204.8100111013312
 20
126.7674276277876
 30
0.0
 10
205.7086288655693
 20
126.638644883872
 30
0.0
 10
206.5775770467141
 20
126.5540727476922
 30
0.0
 10
207.3196991541877
 20
126.5069704595907
 30
0.0
 10
208.1082877436465
 20
126.4864050381096
 30
0.0
 10
208.9148058046265
 20
126.4972389826285
 30
0.0
 10
209.7144878498504
 20
126.5394517225544
 30
0.0
 10
210.4664241049058
 20
126.6075820242287
 30
0.0
 10
211.1578594993225
 20
126.693869224836
 30
0.0
 10
211.7394589680246
 20
126.7838253547375
 30
0.0
 10
212.209000725951
 20
126.86749373136
 30
0.0
 10
212.523549058152
 20
126.9290423733233
 30
0.0
 10
212.707300199874
 20
126.9669273111204
 30
0.0
 10
212.7226463013713
 20
126.9701655300439
 30
0.0
 10
212.7300105026703
 20
126.9717194684176
 30
0.0
  0
SPLINE
  5
B6
330
1F
100
AcDbEntity
  8
0
  6
Continuous
 62
     7
370
    15
100
AcDbSpline
210
0.0
220
0.0
230
1.0
 70
     8
 71
     3
 72
    11
 73
     7
 74
     0
 42
0.00000001
 43
0.00000001
 12
1.0
 22
0.0
 32
0.0
 13
1.0
 23
0.0
 33
0.0
 40
0.0
 40
0.0
 40
0.0
 40
0.0
 40
0.3658544896729967
 40
0.5705072705370022
 40
0.782678100285922
 40
0.9999999999999999
 40
0.9999999999999999
 40
0.9999999999999999
 40
0.9999999999999999
 10
225.2129330268841
 20
93.2345647909073
 30
0.0
 10
224.9086726867835
 20
93.18661613396586
 30
0.0
 10
224.4342142857986
 20
93.11184581360699
 30
0.0
 10
224.0183711674363
 20
93.03072925107354
 30
0.0
 10
223.7677646801948
 20
92.97978375616113
 30
0.0
 10
223.7828796561522
 20
92.9827886404014
 30
0.0
 10
223.7905277839641
 20
92.98430910188237
 30
0.0
  0
SPLINE
  5
B7
330
1F
100
AcDbEntity
  8
0
  6
Continuous
 62
     7
370
    15
100
AcDbSpline
210
0.0
220
0.0
230
1.0
 70
     8
 71
     3
 72
    18
 73
    14
 74
     0
 42
0.00000001
 43
0.00000001
 12
1.0
 22
0.0
 32
0.0
 13
1.0
 23
0.0
 33
0.0
 40
0.0
 40
0.0
 40
0.0
 40
0.0
 40
0.0074317614548891
 40
0.1269578538539742
 40
0.2464592282574546
 40
0.3766726836627555
 40
0.522314816422293
 40
0.6005702487566692
 40
0.6809567826768785
 40
0.7616464766580153
 40
0.8446767176864123
 40
0.9212666443322803
 40
1.0
 40
1.0
 40
1.0
 40
1.0
 10
232.7300063303451
 20
92.9743290491728
 30
0.0
 10
232.7319997361151
 20
92.97391396779378
 30
0.0
 10
232.76605337467
 20
92.96682307267093
 30
0.0
 10
232.5592705608743
 20
93.01060563486327
 30
0.0
 10
231.9701534294024
 20
93.12484921202275
 30
0.0
 10
230.9994041569877
 20
93.28058237815404
 30
0.0
 10
229.9288260495069
 20
93.39481097501468
 30
0.0
 10
228.9408821865408
 20
93.44764436910013
 30
0.0
 10
228.1444212384835
 20
93.45982594768708
 30
0.0
 10
227.3342874875358
 20
93.44023404197668
 30
0.0
 10
226.5630267791728
 20
93.39112309856023
 30
0.0
 10
225.8380620437258
 20
93.31983859931269
 30
0.0
 10
225.4232176214408
 20
93.26324969873228
 30
0.0
 10
225.2129330268841
 20
93.2345647909073
 30
0.0
  0
SPLINE
  5
B8
330
1F
100
AcDbEntity
  8
0
  6
Continuous
 62
     7
370
    15
100
AcDbSpline
210
0.0
220
0.0
230
1.0
 70
     8
 71
     3
 72
    23
 73
    19
 74
     0
 42
0.00000001
 43
0.00000001
 12
1.0
 22
0.0
 32
0.0
 13
1.0
 23
0.0
 33
0.0
 40
0.0
 40
0.0
 40
0.0
 40
0.0
 40
0.0384476468244965
 40
0.1261306564039971
 40
0.2171277678441022
 40
0.3179499758641943
 40
0.3734982778615968
 40
0.430466048209024
 40
0.4895901142669071
 40
0.5503699166541295
 40
0.6104845422155565
 40
0.6723771276090483
 40
0.731756908076869
 40
0.7930815904095967
 40
0.8486336438315628
 40
0.9062613200450425
 40
0.9550172966813691
 40
1.0
 40
1.0
 40
1.0
 40
1.0
 10
223.7905277839641
 20
126.961739415708
 30
0.0
 10
223.7770309460602
 20
126.9645374411017
 30
0.0
 10
223.7327534631762
 20
126.9737165927194
 30
0.0
 10
224.0945205413654
 20
126.8985695701435
 30
0.0
 10
224.8100107843732
 20
126.7674276946152
 30
0.0
 10
225.7086288988266
 20
126.6386445269366
 30
0.0
 10
226.5775784608641
 20
126.5540731023724
 30
0.0
 10
227.3196997154991
 20
126.5069702944551
 30
0.0
 10
228.1082885926808
 20
126.4864050684691
 30
0.0
 10
228.9148078093364
 20
126.4972389279477
 30
0.0
 10
229.7144901682931
 20
126.5394515853373
 30
0.0
 10
230.4664237087764
 20
126.607582032677
 30
0.0
 10
231.1578565761506
 20
126.6938693817926
 30
0.0
 10
231.7394529874231
 20
126.7838257143189
 30
0.0
 10
232.2090076870248
 20
126.8674932115913
 30
0.0
 10
232.5235394720387
 20
126.9290426548857
 30
0.0
 10
232.7073081128516
 20
126.9669272300552
 30
0.0
 10
232.7226460578387
 20
126.9701655058532
 30
0.0
 10
232.7300063303451
 20
126.9717194684176
 30
0.0
  0
SPLINE
  5
B9
330
1F
100
AcDbEntity
  8
0
  6
Continuous
 62
     7
370
    15
100
AcDbSpline
210
0.0
220
0.0
230
1.0
 70
     8
 71
     3
 72
    11
 73
     7
 74
     0
 42
0.00000001
 43
0.00000001
 12
1.0
 22
0.0
 32
0.0
 13
1.0
 23
0.0
 33
0.0
 40
0.0
 40
0.0
 40
0.0
 40
0.0
 40
0.3658543132697192
 40
0.5705075131493614
 40
0.7826782405963255
 40
0.9999999999999999
 40
0.9999999999999999
 40
0.9999999999999999
 40
0.9999999999999999
 10
215.2129351130466
 20
93.2345647909073
 30
0.0
 10
214.9086754784263
 20
93.18661609576348
 30
0.0
 10
214.4342177470205
 20
93.1118456479839
 30
0.0
 10
214.0183690156721
 20
93.03072935187534
 30
0.0
 10
213.7677623310726
 20
92.97978374299998
 30
0.0
 10
213.7828802525229
 20
92.98278863606093
 30
0.0
 10
213.7905298701267
 20
92.98430910188237
 30
0.0
  0
SPLINE
  5
BA
330
1F
100
AcDbEntity
  8
0
  6
Continuous
 62
     7
370
    15
100
AcDbSpline
210
0.0
220
0.0
230
1.0
 70
     8
 71
     3
 72
    18
 73
    14
 74
     0
 42
0.00000001
 43
0.00000001
 12
1.0
 22
0.0
 32
0.0
 13
1.0
 23
0.0
 33
0.0
 40
0.0
 40
0.0
 40
0.0
 40
0.0
 40
0.007431761934293
 40
0.1269578620436994
 40
0.2464594252132674
 40
0.3766726190794651
 40
0.5223147612340027
 40
0.6005705630861766
 40
0.6809567288668946
 40
0.7616468002148638
 40
0.8446770465993284
 40
0.9212666392533937
 40
1.0
 40
1.0
 40
1.0
 40
1.0
 10
222.7300084165077
 20
92.9743290491728
 30
0.0
 10
222.7320018215555
 20
92.97391396773529
 30
0.0
 10
222.7660554477745
 20
92.9668230716132
 30
0.0
 10
222.5592736854295
 20
93.01060576343963
 30
0.0
 10
221.9701509328759
 20
93.1248489003041
 30
0.0
 10
220.9994066055841
 20
93.2805825838507
 30
0.0
 10
219.9288269652553
 20
93.39481117773046
 30
0.0
 10
218.9408829310341
 20
93.44764421472146
 30
0.0
 10
218.1444208631611
 20
93.45982595485643
 30
0.0
 10
217.3342871103724
 20
93.44023408636527
 30
0.0
 10
216.5630259445734
 20
93.39112329443671
 30
0.0
 10
215.8380634221863
 20
93.31983837934162
 30
0.0
 10
215.423219774051
 20
93.26324966627509
 30
0.0
 10
215.2129351130466
 20
93.2345647909073
 30
0.0
  0
SPLINE
  5
BB
330
1F
100
AcDbEntity
  8
0
  6
Continuous
 62
     7
370
    15
100
AcDbSpline
210
0.0
220
0.0
230
1.0
 70
     8
 71
     3
 72
    23
 73
    19
 74
     0
 42
0.00000001
 43
0.00000001
 12
1.0
 22
0.0
 32
0.0
 13
1.0
 23
0.0
 33
0.0
 40
0.0
 40
0.0
 40
0.0
 40
0.0
 40
0.0384476462140268
 40
0.1261305706679449
 40
0.2171276806632028
 40
0.3179501074458288
 40
0.3734981556488772
 40
0.4304659250917732
 40
0.4895899902108876
 40
0.550369514021919
 40
0.6104844097523948
 40
0.6723769941631594
 40
0.7317570081203393
 40
0.793081689479357
 40
0.8486335761087781
 40
0.9062613720588211
 40
0.9550172767461784
 40
1.0
 40
1.0
 40
1.0
 40
1.0
 10
213.7905298701267
 20
126.961739415708
 30
0.0
 10
213.7770331286396
 20
126.9645374433451
 30
0.0
 10
213.732755991453
 20
126.9737165962288
 30
0.0
 10
214.0945178250326
 20
126.898569550991
 30
0.0
 10
214.8100096035386
 20
126.767427426332
 30
0.0
 10
215.7086297992217
 20
126.6386450048362
 30
0.0
 10
216.5775776233658
 20
126.5540729029955
 30
0.0
 10
217.3196981512698
 20
126.5069703444221
 30
0.0
 10
218.1082857239475
 20
126.4864050342956
 30
0.0
 10
218.9148047804706
 20
126.4972391049456
 30
0.0
 10
219.7144875412396
 20
126.5394513931963
 30
0.0
 10
220.4664226990622
 20
126.6075822585372
 30
0.0
 10
221.157857863601
 20
126.6938691674105
 30
0.0
 10
221.7394559260275
 20
126.7838255530226
 30
0.0
 10
222.2090042203819
 20
126.8674934665039
 30
0.0
 10
222.5235442619586
 20
126.9290425152249
 30
0.0
 10
222.7073041570239
 20
126.9669272703509
 30
0.0
 10
222.7226461798207
 20
126.9701655178717
 30
0.0
 10
222.7300084165077
 20
126.9717194684176
 30
0.0
  0
LINE
  5
BC
330
1F
100
AcDbEntity
  8
0
  6
Continuous
 62
     7
370
    15
100
AcDbLine
 10
136.2362722835
 20
105.793127472
 30
0.0
 11
136.2362722835
 21
125.9135991879
 31
0.0
  0
LINE
  5
BD
330
1F
100
AcDbEntity
  8
0
  6
Continuous
 62
     7
370
    15
100
AcDbLine
 10
136.2362722835
 20
98.2123461165
 30
0.0
 11
136.2362722835
 21
105.793127472
 31
0.0
  0
SPLINE
  5
BE
330
1F
100
AcDbEntity
  8
0
  6
Continuous
 62
     7
370
    15
100
AcDbSpline
210
0.0
220
0.0
230
1.0
 70
     8
 71
     3
 72
     8
 73
     4
 74
     0
 42
0.00000001
 43
0.00000001
 12
1.0
 22
0.0
 32
0.0
 13
1.0
 23
0.0
 33
0.0
 40
0.0000202085968836
 40
0.0000202085968836
 40
0.0000202085968836
 40
0.0000202085968836
 40
0.0040218806502652
 40
0.0040218806502652
 40
0.0040218806502652
 40
0.0040218806502652
 10
137.7362716129761
 20
94.44022750038476
 30
0.0
 10
139.0695947387667
 20
94.40960258857142
 30
0.0
 10
140.4029286119893
 20
94.37891357708779
 30
0.0
 10
141.7362716129761
 20
94.34816050035782
 30
0.0
  0
LINE
  5
BF
330
1F
100
AcDbEntity
  8
0
  6
Continuous
 62
     7
370
    15
100
AcDbLine
 10
137.7362715981
 20
94.4402270563
 30
0.0
 11
137.7362715981
 21
97.4623464592
 31
0.0
  0
LINE
  5
C0
330
1F
100
AcDbEntity
  8
0
  6
Continuous
 62
     7
370
    15
100
AcDbLine
 10
164.0362716249
 20
93.5729254581
 30
0.0
 11
164.0362716249
 21
96.8901223116
 31
0.0
  0
SPLINE
  5
C1
330
1F
100
AcDbEntity
  8
0
  6
Continuous
 62
     7
370
    15
100
AcDbSpline
210
0.0
220
0.0
230
1.0
 70
     8
 71
     3
 72
    11
 73
     7
 74
     0
 42
0.00000001
 43
0.00000001
 12
1.0
 22
0.0
 32
0.0
 13
1.0
 23
0.0
 33
0.0
 40
0.0
 40
0.0
 40
0.0
 40
0.0
 40
0.428224499852601
 40
0.6424796074349591
 40
0.8623811871476771
 40
1.0
 40
1.0
 40
1.0
 40
1.0
 10
141.736272253726
 20
94.34816023189107
 30
0.0
 10
142.0948100676541
 20
94.28986206281175
 30
0.0
 10
142.6327363984046
 20
94.20239536065631
 30
0.0
 10
143.2363535447996
 20
94.12753137749432
 30
0.0
 10
143.5813840962556
 20
94.08999278478738
 30
0.0
 10
143.5900282045061
 20
94.08921217060275
 30
0.0
 10
143.5933555445413
 20
94.08891169208566
 30
0.0
  0
SPLINE
  5
C2
330
1F
100
AcDbEntity
  8
0
  6
Continuous
 62
     7
370
    15
100
AcDbSpline
210
0.0
220
0.0
230
1.0
 70
     8
 71
     3
 72
    18
 73
    14
 74
     0
 42
0.00000001
 43
0.00000001
 12
1.0
 22
0.0
 32
0.0
 13
1.0
 23
0.0
 33
0.0
 40
0.0
 40
0.0
 40
0.0
 40
0.0
 40
0.0279771543251818
 40
0.1242833627597227
 40
0.2219260222595688
 40
0.3252617294352271
 40
0.4355367004236273
 40
0.5507054895992286
 40
0.6672045047722097
 40
0.7817781294470422
 40
0.8914423023902794
 40
0.9944270153922599
 40
1.0
 40
1.0
 40
1.0
 40
1.0
 10
155.6501365235786
 20
93.78791009861509
 30
0.0
 10
155.6608480645557
 20
93.78636888024482
 30
0.0
 10
155.7084321153668
 20
93.77952230108315
 30
0.0
 10
155.4482750769117
 20
93.81733170018578
 30
0.0
 10
154.8976895528875
 20
93.88925839880422
 30
0.0
 10
154.0456721473989
 20
93.97982339922537
 30
0.0
 10
152.9786630593437
 20
94.05551131626741
 30
0.0
 10
151.7921860095312
 20
94.08922456970845
 30
0.0
 10
150.6505722248357
 20
94.07085226646767
 30
0.0
 10
149.7030019943421
 20
94.01738800346824
 30
0.0
 10
149.1346192873705
 20
93.9694545892982
 30
0.0
 10
148.9031492236969
 20
93.94690595125093
 30
0.0
 10
148.9614365323835
 20
93.95238004084085
 30
0.0
 10
148.9644288054447
 20
93.95266106206456
 30
0.0
  0
SPLINE
  5
C3
330
1F
100
AcDbEntity
  8
0
  6
Continuous
 62
     7
370
    15
100
AcDbSpline
210
0.0
220
0.0
230
1.0
 70
     8
 71
     3
 72
     8
 73
     4
 74
     0
 42
0.00000001
 43
0.00000001
 12
1.0
 22
0.0
 32
0.0
 13
1.0
 23
0.0
 33
0.0
 40
0.0
 40
0.0
 40
0.0
 40
0.0
 40
1.0
 40
1.0
 40
1.0
 40
1.0
 10
136.2362716129752
 20
95.21775527515123
 30
0.0
 10
136.7104830234131
 20
94.97644440119214
 30
0.0
 10
137.215219370515
 20
94.71525762704167
 30
0.0
 10
137.7362716129761
 20
94.44022750038476
 30
0.0
  0
LINE
  5
C4
330
1F
100
AcDbEntity
  8
0
  6
Continuous
 62
     7
370
    15
100
AcDbLine
 10
136.2362722835
 20
95.2177556776
 30
0.0
 11
136.2362722835
 21
98.2123461165
 31
0.0
  0
LINE
  5
C5
330
1F
100
AcDbEntity
  8
0
  6
Continuous
 62
     7
370
    15
100
AcDbLine
 10
164.0362716249
 20
128.6131233521
 30
0.0
 11
164.0362716249
 21
127.2358239241
 31
0.0
  0
LINE
  5
C6
330
1F
100
AcDbEntity
  8
0
  6
Continuous
 62
     7
370
    15
100
AcDbLine
 10
137.7362715981
 20
127.9523760625
 30
0.0
 11
137.7362715981
 21
126.6635988452
 31
0.0
  0
SPLINE
  5
C7
330
1F
100
AcDbEntity
  8
0
  6
Continuous
 62
     7
370
    15
100
AcDbSpline
210
0.0
220
0.0
230
1.0
 70
     8
 71
     3
 72
    11
 73
     7
 74
     0
 42
0.00000001
 43
0.00000001
 12
1.0
 22
0.0
 32
0.0
 13
1.0
 23
0.0
 33
0.0
 40
0.0
 40
0.0
 40
0.0
 40
0.0
 40
0.0902262665792518
 40
0.4609960999419443
 40
0.728442519376138
 40
1.0
 40
1.0
 40
1.0
 40
1.0
 10
164.5161193997379
 20
128.4022495694784
 30
0.0
 10
164.5130740201692
 20
128.4090578583932
 30
0.0
 10
164.4975141598619
 20
128.4438436780437
 30
0.0
 10
164.572388821384
 20
128.2764114863755
 30
0.0
 10
164.7126311702625
 20
127.9642935400119
 30
0.0
 10
164.8471692146045
 20
127.6687351892629
 30
0.0
 10
164.9149513073976
 20
127.5198288806109
 30
0.0
  0
LINE
  5
C8
330
1F
100
AcDbEntity
  8
0
  6
Continuous
 62
     7
370
    15
100
AcDbLine
 10
136.2362722835
 20
127.0863503762
 30
0.0
 11
136.2362722835
 21
125.9135991879
 31
0.0
  0
SPLINE
  5
C9
330
1F
100
AcDbEntity
  8
0
  6
HIDDEN
 62
     7
370
     0
100
AcDbSpline
210
0.0
220
0.0
230
1.0
 70
     8
 71
     3
 72
    17
 73
    13
 74
     0
 42
0.00000001
 43
0.00000001
 12
1.0
 22
0.0
 32
0.0
 13
1.0
 23
0.0
 33
0.0
 40
0.0
 40
0.0
 40
0.0
 40
0.0
 40
0.10713733061689
 40
0.214266381017664
 40
0.3216098156908729
 40
0.4290956033398351
 40
0.5363476963701325
 40
0.6433543549574706
 40
0.7504869607540899
 40
0.857919952825008
 40
0.9653598706450023
 40
1.0
 40
1.0
 40
1.0
 40
1.0
 10
176.2362713894586
 20
84.97302388626615
 30
0.0
 10
176.2583121830204
 20
84.97483760969396
 30
0.0
 10
176.302392066699
 20
84.97846491637412
 30
0.0
 10
176.6459192992279
 20
85.00368865081671
 30
0.0
 10
177.1524077308209
 20
85.03180876662024
 30
0.0
 10
177.7858474147393
 20
85.05210766175294
 30
0.0
 10
178.4688056516499
 20
85.05515673066041
 30
0.0
 10
179.1237915260709
 20
85.03991593990258
 30
0.0
 10
179.6833238537737
 20
85.01265159347075
 30
0.0
 10
180.0651532665988
 20
84.98672253976562
 30
0.0
 10
180.2469862406937
 20
84.97217947036503
 30
0.0
 10
180.2184864359406
 20
84.97443377371916
 30
0.0
 10
180.2115379801731
 20
84.97498338896314
 30
0.0
  0
SPLINE
  5
CA
330
1F
100
AcDbEntity
  8
0
  6
HIDDEN
 62
     7
370
     0
100
AcDbSpline
210
0.0
220
0.0
230
1.0
 70
     8
 71
     3
 72
    12
 73
     8
 74
     0
 42
0.00000001
 43
0.00000001
 12
1.0
 22
0.0
 32
0.0
 13
1.0
 23
0.0
 33
0.0
 40
0.0
 40
0.0
 40
0.0
 40
0.0
 40
0.2499999999999993
 40
0.2499999999999993
 40
0.4999999999999987
 40
0.4999999999999987
 40
1.0
 40
1.0
 40
1.0
 40
1.0
 10
174.7640284265425
 20
102.4042142896147
 30
0.0
 10
174.700363190012
 20
102.4042142896147
 30
0.0
 10
174.6407569577887
 20
102.378142141135
 30
0.0
 10
174.5420964328578
 20
102.3026033903139
 30
0.0
 10
174.5031294428425
 20
102.2553524532177
 30
0.0
 10
174.4037426109181
 20
102.1035286352512
 30
0.0
 10
174.3616663634946
 20
101.9907253854861
 30
0.0
 10
174.3310157246503
 20
101.876571260751
 30
0.0
  0
LINE
  5
CB
330
1F
100
AcDbEntity
  8
0
  6
HIDDEN
 62
     7
370
     0
100
AcDbLine
 10
177.7085144973
 20
102.4042141237
 30
0.0
 11
174.7640282816
 21
102.4042141237
 31
0.0
  0
SPLINE
  5
CC
330
1F
100
AcDbEntity
  8
0
  6
HIDDEN
 62
     7
370
     0
100
AcDbSpline
210
0.0
220
0.0
230
1.0
 70
     8
 71
     3
 72
    12
 73
     8
 74
     0
 42
0.00000001
 43
0.00000001
 12
1.0
 22
0.0
 32
0.0
 13
1.0
 23
0.0
 33
0.0
 40
0.0
 40
0.0
 40
0.0
 40
0.0
 40
0.4999999999999996
 40
0.4999999999999996
 40
0.7499999999999998
 40
0.7499999999999998
 40
1.0
 40
1.0
 40
1.0
 40
1.0
 10
178.1415275013019
 20
101.876571260751
 30
0.0
 10
178.1108281179345
 20
101.9909069278149
 30
0.0
 10
178.069478049828
 20
102.1022602806563
 30
0.0
 10
177.9697221216086
 20
102.254997052905
 30
0.0
 10
177.9300252038759
 20
102.3028569387571
 30
0.0
 10
177.8327670522282
 20
102.3774600521066
 30
0.0
 10
177.7719908942376
 20
102.4042142896147
 30
0.0
 10
177.7085147994096
 20
102.4042142896147
 30
0.0
  0
ELLIPSE
  5
CD
330
1F
100
AcDbEntity
  8
0
  6
HIDDEN
 62
     7
370
     0
100
AcDbEllipse
 10
165.180013958
 20
109.9730242588
 30
0.0
 11
-11.70927234972715
 21
24.67718644093746
 31
0.0
210
0.0
220
0.0
230
1.0
 40
0.3419987131
 41
3.310521928178959
 42
4.221709151398951
  0
SPLINE
  5
CE
330
1F
100
AcDbEntity
  8
0
  6
HIDDEN
 62
     7
370
     0
100
AcDbSpline
210
0.0
220
0.0
230
1.0
 70
     8
 71
     3
 72
    12
 73
     8
 74
     0
 42
0.00000001
 43
0.00000001
 12
1.0
 22
0.0
 32
0.0
 13
1.0
 23
0.0
 33
0.0
 40
0.0
 40
0.0
 40
0.0
 40
0.0
 40
0.2500000000000002
 40
0.2500000000000002
 40
0.5000000000000004
 40
0.5000000000000004
 40
1.0
 40
1.0
 40
1.0
 40
1.0
 10
177.7085147994096
 20
86.14629314329325
 30
0.0
 10
177.7721800359402
 20
86.14629314329325
 30
0.0
 10
177.8317862681635
 20
86.15455791895913
 30
0.0
 10
177.9304467930943
 20
86.17877670054227
 30
0.0
 10
177.9694137831096
 20
86.19403401985141
 30
0.0
 10
178.0688006150341
 20
86.24366737411334
 30
0.0
 10
178.1108768624575
 20
86.28130708228747
 30
0.0
 10
178.1415275013019
 20
86.3203827815636
 30
0.0
  0
LINE
  5
CF
330
1F
100
AcDbEntity
  8
0
  6
HIDDEN
 62
     7
370
     0
100
AcDbLine
 10
174.7640282816
 20
86.1462928899
 30
0.0
 11
177.7085144973
 21
86.1462928899
 31
0.0
  0
SPLINE
  5
D0
330
1F
100
AcDbEntity
  8
0
  6
HIDDEN
 62
     7
370
     0
100
AcDbSpline
210
0.0
220
0.0
230
1.0
 70
     8
 71
     3
 72
    12
 73
     8
 74
     0
 42
0.00000001
 43
0.00000001
 12
1.0
 22
0.0
 32
0.0
 13
1.0
 23
0.0
 33
0.0
 40
0.0
 40
0.0
 40
0.0
 40
0.0
 40
0.4999999999999953
 40
0.4999999999999953
 40
0.7499999999999977
 40
0.7499999999999977
 40
1.0
 40
1.0
 40
1.0
 40
1.0
 10
174.3310157246503
 20
86.3203827815636
 30
0.0
 10
174.3617151080176
 20
86.28124493916769
 30
0.0
 10
174.4030651761241
 20
86.2440851564422
 30
0.0
 10
174.5028211043436
 20
86.19414865081445
 30
0.0
 10
174.5425180220763
 20
86.1786957806707
 30
0.0
 10
174.6397761737239
 20
86.15477623707164
 30
0.0
 10
174.7005523317146
 20
86.14629314329324
 30
0.0
 10
174.7640284265425
 20
86.14629314329325
 30
0.0
  0
ELLIPSE
  5
D1
330
1F
100
AcDbEntity
  8
0
  6
HIDDEN
 62
     7
370
     0
100
AcDbEllipse
 10
187.292529268
 20
109.9730242588
 30
0.0
 11
11.709272349727
 21
24.67718644093746
 31
0.0
210
0.0
220
0.0
230
1.0
 40
0.3419987131
 41
2.061476155780644
 42
2.972663379000662
  0
SPLINE
  5
D2
330
1F
100
AcDbEntity
  8
0
  6
HIDDEN
 62
     7
370
     0
100
AcDbSpline
210
0.0
220
0.0
230
1.0
 70
     8
 71
     3
 72
    12
 73
     8
 74
     0
 42
0.00000001
 43
0.00000001
 12
1.0
 22
0.0
 32
0.0
 13
1.0
 23
0.0
 33
0.0
 40
0.0
 40
0.0
 40
0.0
 40
0.0
 40
0.25
 40
0.25
 40
0.5
 40
0.5
 40
1.0
 40
1.0
 40
1.0
 40
1.0
 10
174.7640284265425
 20
133.7997553742973
 30
0.0
 10
174.700363190012
 20
133.7997553742973
 30
0.0
 10
174.6407569577886
 20
133.7914905986314
 30
0.0
 10
174.5420964328578
 20
133.7672718170483
 30
0.0
 10
174.5031294428425
 20
133.7520144977391
 30
0.0
 10
174.4037426109181
 20
133.7023811434772
 30
0.0
 10
174.3616663634946
 20
133.6647414353031
 30
0.0
 10
174.3310157246503
 20
133.6256657360269
 30
0.0
  0
LINE
  5
D3
330
1F
100
AcDbEntity
  8
0
  6
HIDDEN
 62
     7
370
     0
100
AcDbLine
 10
177.7085144973
 20
133.7997556277
 30
0.0
 11
174.7640282816
 21
133.7997556277
 31
0.0
  0
SPLINE
  5
D4
330
1F
100
AcDbEntity
  8
0
  6
HIDDEN
 62
     7
370
     0
100
AcDbSpline
210
0.0
220
0.0
230
1.0
 70
     8
 71
     3
 72
    12
 73
     8
 74
     0
 42
0.00000001
 43
0.00000001
 12
1.0
 22
0.0
 32
0.0
 13
1.0
 23
0.0
 33
0.0
 40
0.0
 40
0.0
 40
0.0
 40
0.0
 40
0.5
 40
0.5
 40
0.75
 40
0.75
 40
1.0
 40
1.0
 40
1.0
 40
1.0
 10
178.1415275013019
 20
133.6256657360269
 30
0.0
 10
178.1108281179345
 20
133.6648035784228
 30
0.0
 10
178.069478049828
 20
133.7019633611483
 30
0.0
 10
177.9697221216086
 20
133.7518998667761
 30
0.0
 10
177.9300252038759
 20
133.7673527369198
 30
0.0
 10
177.8327670522282
 20
133.7912722805189
 30
0.0
 10
177.7719908942376
 20
133.7997553742973
 30
0.0
 10
177.7085147994096
 20
133.7997553742973
 30
0.0
  0
ELLIPSE
  5
D5
330
1F
100
AcDbEntity
  8
0
  6
HIDDEN
 62
     7
370
     0
100
AcDbEllipse
 10
165.180013958
 20
109.9730242588
 30
0.0
 11
11.70927234972726
 21
24.67718644093746
 31
0.0
210
0.0
220
0.0
230
1.0
 40
0.3419987131
 41
5.203068809370471
 42
6.114256032590514
  0
SPLINE
  5
D6
330
1F
100
AcDbEntity
  8
0
  6
HIDDEN
 62
     7
370
     0
100
AcDbSpline
210
0.0
220
0.0
230
1.0
 70
     8
 71
     3
 72
    12
 73
     8
 74
     0
 42
0.00000001
 43
0.00000001
 12
1.0
 22
0.0
 32
0.0
 13
1.0
 23
0.0
 33
0.0
 40
0.0
 40
0.0
 40
0.0
 40
0.0
 40
0.2500000000000002
 40
0.2500000000000002
 40
0.5000000000000004
 40
0.5000000000000004
 40
1.0
 40
1.0
 40
1.0
 40
1.0
 10
177.7085147994096
 20
117.5418342279762
 30
0.0
 10
177.7721800359402
 20
117.5418342279762
 30
0.0
 10
177.8317862681635
 20
117.5679063764559
 30
0.0
 10
177.9304467930943
 20
117.643445127277
 30
0.0
 10
177.9694137831096
 20
117.6906960643732
 30
0.0
 10
178.0688006150341
 20
117.8425198823397
 30
0.0
 10
178.1108768624575
 20
117.9553231321047
 30
0.0
 10
178.1415275013019
 20
118.0694772568398
 30
0.0
  0
LINE
  5
D7
330
1F
100
AcDbEntity
  8
0
  6
HIDDEN
 62
     7
370
     0
100
AcDbLine
 10
174.7640282816
 20
117.5418343939
 30
0.0
 11
177.7085144973
 21
117.5418343939
 31
0.0
  0
SPLINE
  5
D8
330
1F
100
AcDbEntity
  8
0
  6
HIDDEN
 62
     7
370
     0
100
AcDbSpline
210
0.0
220
0.0
230
1.0
 70
     8
 71
     3
 72
    12
 73
     8
 74
     0
 42
0.00000001
 43
0.00000001
 12
1.0
 22
0.0
 32
0.0
 13
1.0
 23
0.0
 33
0.0
 40
0.0
 40
0.0
 40
0.0
 40
0.0
 40
0.4999999999999982
 40
0.4999999999999982
 40
0.7499999999999991
 40
0.7499999999999991
 40
1.0
 40
1.0
 40
1.0
 40
1.0
 10
174.3310157246503
 20
118.0694772568398
 30
0.0
 10
174.3617151080176
 20
117.9551415897759
 30
0.0
 10
174.4030651761241
 20
117.8437882369346
 30
0.0
 10
174.5028211043435
 20
117.6910514646859
 30
0.0
 10
174.5425180220763
 20
117.6431915788337
 30
0.0
 10
174.6397761737239
 20
117.5685884654843
 30
0.0
 10
174.7005523317146
 20
117.5418342279762
 30
0.0
 10
174.7640284265425
 20
117.5418342279762
 30
0.0
  0
ELLIPSE
  5
D9
330
1F
100
AcDbEntity
  8
0
  6
HIDDEN
 62
     7
370
     0
100
AcDbEllipse
 10
187.292529268
 20
109.9730242588
 30
0.0
 11
-11.70927234972717
 21
24.67718644093746
 31
0.0
210
0.0
220
0.0
230
1.0
 40
0.3419987131
 41
0.1689292745891094
 42
1.08011649780913
  0
LINE
  5
DA
330
1F
100
AcDbEntity
  8
0
  6
HIDDEN
 62
     7
370
     0
100
AcDbLine
 10
166.236271613
 20
134.6730251409
 30
0.0
 11
166.236271613
 21
85.2730233766
 31
0.0
  0
LINE
  5
DB
330
1F
100
AcDbEntity
  8
0
  6
HIDDEN
 62
     7
370
     0
100
AcDbLine
 10
186.2362711659
 20
134.3730237879
 30
0.0
 11
186.2362711659
 21
85.5730247297
 31
0.0
  0
LINE
  5
DC
330
1F
100
AcDbEntity
  8
0
  6
HIDDEN
 62
     7
370
     0
100
AcDbLine
 10
186.2362711659
 20
89.9730247058
 30
0.0
 11
186.2362711659
 21
129.9730238118
 31
0.0
  0
LINE
  5
DD
330
1F
100
AcDbEntity
  8
0
  6
HIDDEN
 62
     7
370
     0
100
AcDbLine
 10
166.236271613
 20
90.4268879988
 30
0.0
 11
166.236271613
 21
129.5191605188
 31
0.0
  0
SPLINE
  5
DE
330
1F
100
AcDbEntity
  8
0
  6
HIDDEN
 62
     7
370
     0
100
AcDbSpline
210
0.0
220
0.0
230
1.0
 70
     8
 71
     3
 72
    14
 73
    10
 74
     0
 42
0.00000001
 43
0.00000001
 12
1.0
 22
0.0
 32
0.0
 13
1.0
 23
0.0
 33
0.0
 40
0.0
 40
0.0
 40
0.0
 40
0.0
 40
0.25
 40
0.25
 40
0.5
 40
0.5
 40
0.75
 40
0.75
 40
1.0
 40
1.0
 40
1.0
 40
1.0
 10
165.1954105848477
 20
97.03816177126923
 30
0.0
 10
165.2271257191784
 20
97.00388057627501
 30
0.0
 10
165.2617402444788
 20
96.97062830790722
 30
0.0
 10
165.3414114398941
 20
96.90733785080238
 30
0.0
 10
165.3864673169245
 20
96.87690394203344
 30
0.0
 10
165.4970217294299
 20
96.82566124458316
 30
0.0
 10
165.5644071436341
 20
96.80490374413309
 30
0.0
 10
165.7150366635321
 20
96.79941796618922
 30
0.0
 10
165.7848639002976
 20
96.81582896679464
 30
0.0
 10
165.841294724101
 20
96.83861639600639
 30
0.0
  0
SPLINE
  5
DF
330
1F
100
AcDbEntity
  8
0
  6
HIDDEN
 62
     7
370
     0
100
AcDbSpline
210
0.0
220
0.0
230
1.0
 70
     8
 71
     3
 72
    16
 73
    12
 74
     0
 42
0.00000001
 43
0.00000001
 12
1.0
 22
0.0
 32
0.0
 13
1.0
 23
0.0
 33
0.0
 40
0.0
 40
0.0
 40
0.0
 40
0.0
 40
0.0625000000000021
 40
0.0625000000000021
 40
0.1250000000000043
 40
0.1250000000000043
 40
0.2500000000000047
 40
0.2500000000000047
 40
0.5000000000000014
 40
0.5000000000000014
 40
1.0
 40
1.0
 40
1.0
 40
1.0
 10
165.8412947240692
 20
96.83861639605028
 30
0.0
 10
165.8530289585161
 20
96.84335481769743
 30
0.0
 10
165.8665607139951
 20
96.84631709484412
 30
0.0
 10
165.8965481744249
 20
96.8429379172224
 30
0.0
 10
165.9115428808332
 20
96.83605810948687
 30
0.0
 10
165.9472833032279
 20
96.80911444993437
 30
0.0
 10
165.9612966402292
 20
96.78603998348007
 30
0.0
 10
165.9954407290105
 20
96.71935226120569
 30
0.0
 10
166.0064126331289
 20
96.67584878512305
 30
0.0
 10
166.0322581733952
 20
96.5471335621745
 30
0.0
 10
166.0362716129761
 20
96.46574338154345
 30
0.0
 10
166.0362716129761
 20
96.3872595713996
 30
0.0
  0
LINE
  5
E0
330
1F
100
AcDbEntity
  8
0
  6
HIDDEN
 62
     7
370
     0
100
AcDbLine
 10
166.036271618
 20
92.1332032033
 30
0.0
 11
166.036271618
 21
96.387259344
 31
0.0
  0
LINE
  5
E1
330
1F
100
AcDbEntity
  8
0
  6
HIDDEN
 62
     7
370
     0
100
AcDbLine
 10
166.0195032133
 20
126.8385217138
 30
0.0
 11
165.9992854808
 21
126.9101329692
 31
0.0
  0
SPLINE
  5
E2
330
1F
100
AcDbEntity
  8
0
  6
HIDDEN
 62
     7
370
     0
100
AcDbSpline
210
0.0
220
0.0
230
1.0
 70
     8
 71
     3
 72
    10
 73
     6
 74
     0
 42
0.00000001
 43
0.00000001
 12
1.0
 22
0.0
 32
0.0
 13
1.0
 23
0.0
 33
0.0
 40
0.0
 40
0.0
 40
0.0
 40
0.0
 40
0.5
 40
0.5
 40
1.0
 40
1.0
 40
1.0
 40
1.0
 10
165.1954105848469
 20
127.0877836507991
 30
0.0
 10
165.123621115094
 20
127.1622576527891
 30
0.0
 10
165.0711628122485
 20
127.2369131356981
 30
0.0
 10
164.9818225607517
 20
127.3818211746192
 30
0.0
 10
164.9458298530284
 20
127.4522460335882
 30
0.0
 10
164.9149512694165
 20
127.5198285781186
 30
0.0
  0
SPLINE
  5
E3
330
1F
100
AcDbEntity
  8
0
  6
HIDDEN
 62
     7
370
     0
100
AcDbSpline
210
0.0
220
0.0
230
1.0
 70
     8
 71
     3
 72
    14
 73
    10
 74
     0
 42
0.00000001
 43
0.00000001
 12
1.0
 22
0.0
 32
0.0
 13
1.0
 23
0.0
 33
0.0
 40
0.0
 40
0.0
 40
0.0
 40
0.0
 40
0.25
 40
0.25
 40
0.5
 40
0.5
 40
0.75
 40
0.75
 40
1.0
 40
1.0
 40
1.0
 40
1.0
 10
165.1954105848462
 20
127.0877836507998
 30
0.0
 10
165.2271192843316
 20
127.0548892199494
 30
0.0
 10
165.2617271029722
 20
127.0226659102918
 30
0.0
 10
165.3413855134615
 20
126.9611334005495
 30
0.0
 10
165.3864477833564
 20
126.9313839546859
 30
0.0
 10
165.4970296289348
 20
126.8823414611953
 30
0.0
 10
165.5646737497501
 20
126.8631908497563
 30
0.0
 10
165.7149220401472
 20
126.8641365571917
 30
0.0
 10
165.7848744383775
 20
126.8848245743744
 30
0.0
 10
165.8412947241011
 20
126.9113687858608
 30
0.0
  0
SPLINE
  5
E4
330
1F
100
AcDbEntity
  8
0
  6
HIDDEN
 62
     7
370
     0
100
AcDbSpline
210
0.0
220
0.0
230
1.0
 70
     8
 71
     3
 72
    16
 73
    12
 74
     0
 42
0.00000001
 43
0.00000001
 12
1.0
 22
0.0
 32
0.0
 13
1.0
 23
0.0
 33
0.0
 40
0.0
 40
0.0
 40
0.0
 40
0.0
 40
0.0625000000000001
 40
0.0625000000000001
 40
0.1250000000000001
 40
0.1250000000000001
 40
0.2499999999999982
 40
0.2499999999999982
 40
0.4999999999999976
 40
0.4999999999999976
 40
1.0
 40
1.0
 40
1.0
 40
1.0
 10
165.8412947240692
 20
126.9113687858654
 30
0.0
 10
165.8530289585161
 20
126.9168894243535
 30
0.0
 10
165.8665607139951
 20
126.9224034812251
 30
0.0
 10
165.8965481744249
 20
126.9312350444292
 30
0.0
 10
165.9115428808332
 20
126.9338718677087
 30
0.0
 10
165.9472833032279
 20
126.9362875672526
 30
0.0
 10
165.9612966402292
 20
126.9325406242593
 30
0.0
 10
165.9954407290105
 20
126.9185536682582
 30
0.0
 10
166.0064126331289
 20
126.9044522423991
 30
0.0
 10
166.0322581733952
 20
126.8575344716837
 30
0.0
 10
166.0362716129761
 20
126.8197519960617
 30
0.0
 10
166.0362716129761
 20
126.7791298138755
 30
0.0
  0
LINE
  5
E5
330
1F
100
AcDbEntity
  8
0
  6
HIDDEN
 62
     7
370
     0
100
AcDbLine
 10
166.036271618
 20
106.7526833233
 30
0.0
 11
166.036271618
 21
126.7791294106
 31
0.0
  0
SPLINE
  5
E6
330
1F
100
AcDbEntity
  8
0
  6
HIDDEN
 62
     7
370
     0
100
AcDbSpline
210
0.0
220
0.0
230
1.0
 70
     8
 71
     3
 72
    16
 73
    12
 74
     0
 42
0.00000001
 43
0.00000001
 12
1.0
 22
0.0
 32
0.0
 13
1.0
 23
0.0
 33
0.0
 40
0.0
 40
0.0
 40
0.0
 40
0.0
 40
0.5000000000000002
 40
0.5000000000000002
 40
0.7499999999999993
 40
0.7499999999999993
 40
0.8749999999999997
 40
0.8749999999999997
 40
0.9374999999999999
 40
0.9374999999999999
 40
1.0
 40
1.0
 40
1.0
 40
1.0
 10
166.0362716129762
 20
106.7526833911108
 30
0.0
 10
166.0362716129759
 20
106.6327296125354
 30
0.0
 10
166.032147070122
 20
106.5129982908815
 30
0.0
 10
166.0062306244889
 20
106.3378651446684
 30
0.0
 10
165.9949530434691
 20
106.2797734335296
 30
0.0
 10
165.9612176649277
 20
106.2004278701894
 30
0.0
 10
165.9468288496833
 20
106.1732875562134
 30
0.0
 10
165.9115821602442
 20
106.1492057020959
 30
0.0
 10
165.8963767357873
 20
106.1449307166508
 30
0.0
 10
165.866730156618
 20
106.1503216613373
 30
0.0
 10
165.8530248206205
 20
106.1588321521062
 30
0.0
 10
165.8412947240968
 20
106.1690875945137
 30
0.0
  0
SPLINE
  5
E7
330
1F
100
AcDbEntity
  8
0
  6
HIDDEN
 62
     7
370
     0
100
AcDbSpline
210
0.0
220
0.0
230
1.0
 70
     8
 71
     3
 72
    14
 73
    10
 74
     0
 42
0.00000001
 43
0.00000001
 12
1.0
 22
0.0
 32
0.0
 13
1.0
 23
0.0
 33
0.0
 40
0.0
 40
0.0
 40
0.0
 40
0.0
 40
0.2500000000000005
 40
0.2500000000000005
 40
0.500000000000001
 40
0.500000000000001
 40
0.7500000000000004
 40
0.7500000000000004
 40
1.0
 40
1.0
 40
1.0
 40
1.0
 10
165.8412947241073
 20
106.1690875945284
 30
0.0
 10
165.784847642049
 20
106.2184384074496
 30
0.0
 10
165.7139972580062
 20
106.2554803793383
 30
0.0
 10
165.5655608231897
 20
106.2510204475187
 30
0.0
 10
165.4963715715028
 20
106.2105329138892
 30
0.0
 10
165.3866600232619
 20
106.1109120555786
 30
0.0
 10
165.3414183739196
 20
106.0506268976552
 30
0.0
 10
165.2617703557357
 20
105.9258414038305
 30
0.0
 10
165.2271434399697
 20
105.8603471936639
 30
0.0
 10
165.1954105848483
 20
105.7931273543216
 30
0.0
  0
SPLINE
  5
E8
330
1F
100
AcDbEntity
  8
0
  6
HIDDEN
 62
     7
370
     0
100
AcDbSpline
210
0.0
220
0.0
230
1.0
 70
     8
 71
     3
 72
    10
 73
     6
 74
     0
 42
0.00000001
 43
0.00000001
 12
1.0
 22
0.0
 32
0.0
 13
1.0
 23
0.0
 33
0.0
 40
0.0
 40
0.0
 40
0.0
 40
0.0
 40
0.5
 40
0.5
 40
1.0
 40
1.0
 40
1.0
 40
1.0
 10
165.1954105848485
 20
105.7931273543198
 30
0.0
 10
165.1236016094559
 20
105.6410141022733
 30
0.0
 10
165.0711457500332
 20
105.4833804607036
 30
0.0
 10
164.9818111641418
 20
105.1639488201991
 30
0.0
 10
164.9458243012288
 20
105.0018863511399
 30
0.0
 10
164.9149512694165
 20
104.8385423254721
 30
0.0
  0
SPLINE
  5
E9
330
1F
100
AcDbEntity
  8
0
  6
HIDDEN
 62
     7
370
     0
100
AcDbSpline
210
0.0
220
0.0
230
1.0
 70
     8
 71
     3
 72
    10
 73
     6
 74
     0
 42
0.00000001
 43
0.00000001
 12
1.0
 22
0.0
 32
0.0
 13
1.0
 23
0.0
 33
0.0
 40
0.0
 40
0.0
 40
0.0
 40
0.0
 40
0.5
 40
0.5
 40
1.0
 40
1.0
 40
1.0
 40
1.0
 10
164.9149512694165
 20
97.56070187279478
 30
0.0
 10
164.9458326090146
 20
97.464902468459
 30
0.0
 10
164.9818282185144
 20
97.37324132680807
 30
0.0
 10
165.0711712826158
 20
97.19871127809785
 30
0.0
 10
165.123630796924
 20
97.11574923726563
 30
0.0
 10
165.1954105848477
 20
97.03816177126924
 30
0.0
  0
LINE
  5
EA
330
1F
100
AcDbEntity
  8
0
  6
HIDDEN
 62
     7
370
     0
100
AcDbLine
 10
166.036271618
 20
106.7526833233
 30
0.0
 11
166.036271618
 21
126.7791294106
 31
0.0
  0
LINE
  5
EB
330
1F
100
AcDbEntity
  8
0
  6
HIDDEN
 62
     7
370
     0
100
AcDbLine
 10
236.236271911
 20
93.9730234988
 30
0.0
 11
236.236271911
 21
125.9730250188
 31
0.0
  0
SPLINE
  5
EC
330
1F
100
AcDbEntity
  8
0
  6
HIDDEN
 62
     7
370
     0
100
AcDbSpline
210
0.0
220
0.0
230
1.0
 70
     8
 71
     3
 72
    73
 73
    69
 74
     0
 42
0.00000001
 43
0.00000001
 12
1.0
 22
0.0
 32
0.0
 13
1.0
 23
0.0
 33
0.0
 40
-0.0312499999999997
 40
-0.0312499999999997
 40
0.0
 40
0.0
 40
0.0312499999999995
 40
0.0312499999999995
 40
0.0624999999999991
 40
0.0624999999999991
 40
0.0937499999999986
 40
0.0937499999999986
 40
0.1093749999999984
 40
0.1093749999999984
 40
0.1249999999999981
 40
0.1406249999999979
 40
0.1406249999999979
 40
0.1562499999999977
 40
0.1562499999999977
 40
0.1874999999999973
 40
0.1874999999999973
 40
0.218749999999997
 40
0.218749999999997
 40
0.2499999999999967
 40
0.2499999999999967
 40
0.2812499999999964
 40
0.2812499999999964
 40
0.3124999999999961
 40
0.3124999999999961
 40
0.3749999999999954
 40
0.3749999999999954
 40
0.4062499999999951
 40
0.4062499999999951
 40
0.4374999999999955
 40
0.4374999999999955
 40
0.4687499999999959
 40
0.4687499999999959
 40
0.4999999999999963
 40
0.4999999999999963
 40
0.5312499999999968
 40
0.5312499999999968
 40
0.5624999999999972
 40
0.5624999999999972
 40
0.5937499999999976
 40
0.5937499999999976
 40
0.624999999999998
 40
0.624999999999998
 40
0.6406249999999982
 40
0.6406249999999982
 40
0.6562499999999984
 40
0.6562499999999984
 40
0.6874999999999989
 40
0.6874999999999989
 40
0.7187499999999993
 40
0.7187499999999993
 40
0.7499999999999997
 40
0.7499999999999997
 40
0.7812500000000001
 40
0.7812500000000001
 40
0.8125000000000006
 40
0.8125000000000006
 40
0.843750000000001
 40
0.843750000000001
 40
0.8750000000000014
 40
0.8750000000000014
 40
0.9062500000000011
 40
0.9062500000000011
 40
0.9375000000000007
 40
0.9375000000000007
 40
0.9687500000000003
 40
0.9687500000000003
 40
1.0
 40
1.0
 40
1.03125
 40
1.03125
 10
225.430484068875
 20
106.8258273711272
 30
0.0
 10
224.995382464943
 20
107.1791889338867
 30
0.0
 10
224.7976407101998
 20
107.3739538666118
 30
0.0
 10
224.4430957488207
 20
107.8013955203836
 30
0.0
 10
224.2854355307645
 20
108.0366837677778
 30
0.0
 10
224.0287203237164
 20
108.5278322257082
 30
0.0
 10
223.9275941191827
 20
108.7853410582227
 30
0.0
 10
223.8202197535229
 20
109.1911769133821
 30
0.0
 10
223.7919253386202
 20
109.3302662480093
 30
0.0
 10
223.7523783243574
 20
109.6071201882411
 30
0.0
 10
223.729245092291
 20
109.8845341244457
 30
0.0
 10
223.7385923766089
 20
110.1630571858777
 30
0.0
 10
223.7645287061728
 20
110.442146517434
 30
0.0
 10
223.786009210782
 20
110.5824889176533
 30
0.0
 10
223.8736443741084
 20
110.9931748158489
 30
0.0
 10
223.9628165577504
 20
111.256844554459
 30
0.0
 10
224.2000859389482
 20
111.764920739897
 30
0.0
 10
224.3462884780655
 20
112.0042582596332
 30
0.0
 10
224.6827157451169
 20
112.4461346130849
 30
0.0
 10
224.8759826339227
 20
112.6520036246654
 30
0.0
 10
225.2936189419008
 20
113.0186749927267
 30
0.0
 10
225.5184769803799
 20
113.1809266593301
 30
0.0
 10
225.9991691404042
 20
113.4653105926826
 30
0.0
 10
226.2529836562084
 20
113.5857322078025
 30
0.0
 10
227.0335521485976
 20
113.8765881499785
 30
0.0
 10
227.594910428972
 20
113.9810801367453
 30
0.0
 10
228.4290543094886
 20
113.9953193603033
 30
0.0
 10
228.7089454968154
 20
113.9768571409574
 30
0.0
 10
229.2646735285715
 20
113.8922139312033
 30
0.0
 10
229.5350300172113
 20
113.8270905680166
 30
0.0
 10
230.0611015694232
 20
113.6520167459234
 30
0.0
 10
230.3184894592656
 20
113.5411687355042
 30
0.0
 10
230.8099379273735
 20
113.2745409424217
 30
0.0
 10
231.0401135003532
 20
113.1212744934647
 30
0.0
 10
231.4691056291991
 20
112.7739161329483
 30
0.0
 10
231.6698275045989
 20
112.577534943942
 30
0.0
 10
232.026458385925
 20
112.1489196586716
 30
0.0
 10
232.1806374261973
 20
111.9197487976656
 30
0.0
 10
232.4386417469771
 20
111.4300354094697
 30
0.0
 10
232.5432682530223
 20
111.1652968088094
 30
0.0
 10
232.6868048674581
 20
110.6262717166013
 30
0.0
 10
232.7272251565031
 20
110.3513273658848
 30
0.0
 10
232.7387836703634
 20
109.9303820370353
 30
0.0
 10
232.7342265302291
 20
109.7882274279227
 30
0.0
 10
232.7087027395163
 20
109.5091214737545
 30
0.0
 10
232.6878214214269
 20
109.3711726667777
 30
0.0
 10
232.6014910117334
 20
108.9619986072416
 30
0.0
 10
232.5108373271972
 20
108.692372966856
 30
0.0
 10
232.2751538818479
 20
108.1861240812459
 30
0.0
 10
232.1307326308257
 20
107.9482293351145
 30
0.0
 10
231.7911984187835
 20
107.501166407006
 30
0.0
 10
231.6004012943302
 20
107.2978921567174
 30
0.0
 10
231.1833769014493
 20
106.9308168837842
 30
0.0
 10
230.9543564538524
 20
106.76537674444
 30
0.0
 10
230.4751169006258
 20
106.4816861547833
 30
0.0
 10
230.2242905213955
 20
106.362288403575
 30
0.0
 10
229.7007390106731
 20
106.1667863084734
 30
0.0
 10
229.4279384953459
 20
106.0912949879874
 30
0.0
 10
228.8803662116048
 20
105.9885869689119
 30
0.0
 10
228.6031320725633
 20
105.9603305476665
 30
0.0
 10
228.0416472657308
 20
105.9506498433926
 30
0.0
 10
227.759784604246
 20
105.9697144439551
 30
0.0
 10
227.2096674595197
 20
106.0536186917682
 30
0.0
 10
226.9390417540267
 20
106.1183561798784
 30
0.0
 10
226.4070088893779
 20
106.2956005604396
 30
0.0
 10
226.1492625158336
 20
106.4072783311878
 30
0.0
 10
225.6621607652649
 20
106.67195179043
 30
0.0
 10
225.430484068875
 20
106.8258273711272
 30
0.0
 10
224.995382464943
 20
107.1791889338867
 30
0.0
  0
SPLINE
  5
ED
330
1F
100
AcDbEntity
  8
0
  6
HIDDEN
 62
     7
370
     0
100
AcDbSpline
210
0.0
220
0.0
230
1.0
 70
     8
 71
     3
 72
    73
 73
    69
 74
     0
 42
0.00000001
 43
0.00000001
 12
1.0
 22
0.0
 32
0.0
 13
1.0
 23
0.0
 33
0.0
 40
-0.0312500000000001
 40
-0.0312500000000001
 40
0.0
 40
0.0
 40
0.0312499999999999
 40
0.0312499999999999
 40
0.0624999999999998
 40
0.0624999999999998
 40
0.0937499999999996
 40
0.0937499999999996
 40
0.1093749999999996
 40
0.1093749999999996
 40
0.1249999999999995
 40
0.1406249999999995
 40
0.1406249999999995
 40
0.1562499999999994
 40
0.1562499999999994
 40
0.1874999999999994
 40
0.1874999999999994
 40
0.2187499999999995
 40
0.2187499999999995
 40
0.2499999999999996
 40
0.2499999999999996
 40
0.2812499999999996
 40
0.2812499999999996
 40
0.3124999999999997
 40
0.3124999999999997
 40
0.3749999999999997
 40
0.3749999999999997
 40
0.4062499999999997
 40
0.4062499999999997
 40
0.4374999999999998
 40
0.4374999999999998
 40
0.4687499999999998
 40
0.4687499999999998
 40
0.4999999999999999
 40
0.4999999999999999
 40
0.5312499999999999
 40
0.5312499999999999
 40
0.5624999999999999
 40
0.5624999999999999
 40
0.5937499999999999
 40
0.5937499999999999
 40
0.6249999999999999
 40
0.6249999999999999
 40
0.6406249999999999
 40
0.6406249999999999
 40
0.65625
 40
0.65625
 40
0.6875
 40
0.6875
 40
0.71875
 40
0.71875
 40
0.7499999999999999
 40
0.7499999999999999
 40
0.7812499999999999
 40
0.7812499999999999
 40
0.8124999999999999
 40
0.8124999999999999
 40
0.8437499999999999
 40
0.8437499999999999
 40
0.8749999999999999
 40
0.8749999999999999
 40
0.9062499999999999
 40
0.9062499999999999
 40
0.9374999999999999
 40
0.9374999999999999
 40
0.9687499999999999
 40
0.9687499999999999
 40
1.0
 40
1.0
 40
1.03125
 40
1.03125
 10
215.430484068875
 20
106.8258273711272
 30
0.0
 10
214.995382464943
 20
107.1791889338867
 30
0.0
 10
214.7976407101998
 20
107.3739538666118
 30
0.0
 10
214.4430957488206
 20
107.8013955203836
 30
0.0
 10
214.2854355307645
 20
108.0366837677778
 30
0.0
 10
214.0287203237164
 20
108.5278322257082
 30
0.0
 10
213.9275941191826
 20
108.7853410582227
 30
0.0
 10
213.8202197535229
 20
109.1911769133821
 30
0.0
 10
213.7919253386202
 20
109.3302662480093
 30
0.0
 10
213.7523783243574
 20
109.6071201882411
 30
0.0
 10
213.729245092291
 20
109.8845341244457
 30
0.0
 10
213.738592376609
 20
110.1630571858777
 30
0.0
 10
213.7645287061729
 20
110.442146517434
 30
0.0
 10
213.786009210782
 20
110.5824889176533
 30
0.0
 10
213.8736443741084
 20
110.9931748158489
 30
0.0
 10
213.9628165577504
 20
111.256844554459
 30
0.0
 10
214.2000859389482
 20
111.764920739897
 30
0.0
 10
214.3462884780656
 20
112.0042582596332
 30
0.0
 10
214.6827157451169
 20
112.4461346130849
 30
0.0
 10
214.8759826339228
 20
112.6520036246654
 30
0.0
 10
215.2936189419008
 20
113.0186749927267
 30
0.0
 10
215.5184769803799
 20
113.1809266593301
 30
0.0
 10
215.9991691404042
 20
113.4653105926826
 30
0.0
 10
216.2529836562084
 20
113.5857322078025
 30
0.0
 10
217.0335521485976
 20
113.8765881499785
 30
0.0
 10
217.594910428972
 20
113.9810801367453
 30
0.0
 10
218.4290543094886
 20
113.9953193603033
 30
0.0
 10
218.7089454968153
 20
113.9768571409574
 30
0.0
 10
219.2646735285715
 20
113.8922139312033
 30
0.0
 10
219.5350300172114
 20
113.8270905680166
 30
0.0
 10
220.0611015694232
 20
113.6520167459234
 30
0.0
 10
220.3184894592656
 20
113.5411687355042
 30
0.0
 10
220.8099379273734
 20
113.2745409424217
 30
0.0
 10
221.0401135003533
 20
113.1212744934647
 30
0.0
 10
221.4691056291991
 20
112.7739161329483
 30
0.0
 10
221.6698275045989
 20
112.577534943942
 30
0.0
 10
222.026458385925
 20
112.1489196586716
 30
0.0
 10
222.1806374261973
 20
111.9197487976656
 30
0.0
 10
222.4386417469772
 20
111.4300354094697
 30
0.0
 10
222.5432682530223
 20
111.1652968088094
 30
0.0
 10
222.6868048674581
 20
110.6262717166012
 30
0.0
 10
222.7272251565031
 20
110.3513273658848
 30
0.0
 10
222.7387836703634
 20
109.9303820370353
 30
0.0
 10
222.7342265302291
 20
109.7882274279227
 30
0.0
 10
222.7087027395163
 20
109.5091214737545
 30
0.0
 10
222.6878214214268
 20
109.3711726667776
 30
0.0
 10
222.6014910117334
 20
108.9619986072416
 30
0.0
 10
222.5108373271972
 20
108.692372966856
 30
0.0
 10
222.2751538818479
 20
108.1861240812459
 30
0.0
 10
222.1307326308257
 20
107.9482293351145
 30
0.0
 10
221.7911984187835
 20
107.501166407006
 30
0.0
 10
221.6004012943302
 20
107.2978921567174
 30
0.0
 10
221.1833769014493
 20
106.9308168837842
 30
0.0
 10
220.9543564538525
 20
106.76537674444
 30
0.0
 10
220.4751169006258
 20
106.4816861547833
 30
0.0
 10
220.2242905213954
 20
106.362288403575
 30
0.0
 10
219.7007390106731
 20
106.1667863084734
 30
0.0
 10
219.4279384953458
 20
106.0912949879874
 30
0.0
 10
218.8803662116048
 20
105.9885869689119
 30
0.0
 10
218.6031320725632
 20
105.9603305476665
 30
0.0
 10
218.0416472657308
 20
105.9506498433926
 30
0.0
 10
217.759784604246
 20
105.9697144439551
 30
0.0
 10
217.2096674595197
 20
106.0536186917682
 30
0.0
 10
216.9390417540267
 20
106.1183561798784
 30
0.0
 10
216.4070088893779
 20
106.2956005604396
 30
0.0
 10
216.1492625158336
 20
106.4072783311878
 30
0.0
 10
215.6621607652649
 20
106.67195179043
 30
0.0
 10
215.430484068875
 20
106.8258273711272
 30
0.0
 10
214.995382464943
 20
107.1791889338867
 30
0.0
  0
SPLINE
  5
EE
330
1F
100
AcDbEntity
  8
0
  6
HIDDEN
 62
     7
370
     0
100
AcDbSpline
210
0.0
220
0.0
230
1.0
 70
     8
 71
     3
 72
    73
 73
    69
 74
     0
 42
0.00000001
 43
0.00000001
 12
1.0
 22
0.0
 32
0.0
 13
1.0
 23
0.0
 33
0.0
 40
-0.0312499999999999
 40
-0.0312499999999999
 40
0.0
 40
0.0
 40
0.0312499999999999
 40
0.0312499999999999
 40
0.0624999999999998
 40
0.0624999999999998
 40
0.0937499999999997
 40
0.0937499999999997
 40
0.1093749999999996
 40
0.1093749999999996
 40
0.1249999999999996
 40
0.1406249999999995
 40
0.1406249999999995
 40
0.1562499999999995
 40
0.1562499999999995
 40
0.1874999999999995
 40
0.1874999999999995
 40
0.2187499999999996
 40
0.2187499999999996
 40
0.2499999999999997
 40
0.2499999999999997
 40
0.2812499999999997
 40
0.2812499999999997
 40
0.3124999999999998
 40
0.3124999999999998
 40
0.3749999999999998
 40
0.3749999999999998
 40
0.4062499999999999
 40
0.4062499999999999
 40
0.4374999999999999
 40
0.4374999999999999
 40
0.4687499999999999
 40
0.4687499999999999
 40
0.4999999999999999
 40
0.4999999999999999
 40
0.5312499999999999
 40
0.5312499999999999
 40
0.5624999999999999
 40
0.5624999999999999
 40
0.5937499999999999
 40
0.5937499999999999
 40
0.6249999999999999
 40
0.6249999999999999
 40
0.640625
 40
0.640625
 40
0.65625
 40
0.65625
 40
0.6875
 40
0.6875
 40
0.71875
 40
0.71875
 40
0.75
 40
0.75
 40
0.7812500000000001
 40
0.7812500000000001
 40
0.8125000000000001
 40
0.8125000000000001
 40
0.8437500000000001
 40
0.8437500000000001
 40
0.8750000000000001
 40
0.8750000000000001
 40
0.9062500000000001
 40
0.9062500000000001
 40
0.9375000000000001
 40
0.9375000000000001
 40
0.9687500000000001
 40
0.9687500000000001
 40
1.0
 40
1.0
 40
1.03125
 40
1.03125
 10
205.430484068875
 20
106.8258273711272
 30
0.0
 10
204.995382464943
 20
107.1791889338867
 30
0.0
 10
204.7976407101998
 20
107.3739538666118
 30
0.0
 10
204.4430957488206
 20
107.8013955203836
 30
0.0
 10
204.2854355307645
 20
108.0366837677778
 30
0.0
 10
204.0287203237164
 20
108.5278322257082
 30
0.0
 10
203.9275941191826
 20
108.7853410582227
 30
0.0
 10
203.8202197535229
 20
109.1911769133821
 30
0.0
 10
203.7919253386202
 20
109.3302662480093
 30
0.0
 10
203.7523787573161
 20
109.6071202029365
 30
0.0
 10
203.729245092291
 20
109.8845341244457
 30
0.0
 10
203.7385923766089
 20
110.1630571858777
 30
0.0
 10
203.7645287061729
 20
110.442146517434
 30
0.0
 10
203.786009210782
 20
110.5824889176533
 30
0.0
 10
203.8736443741084
 20
110.9931748158489
 30
0.0
 10
203.9628165577504
 20
111.256844554459
 30
0.0
 10
204.2000859389482
 20
111.764920739897
 30
0.0
 10
204.3462884780656
 20
112.0042582596332
 30
0.0
 10
204.6827157451169
 20
112.4461346130849
 30
0.0
 10
204.8759826339227
 20
112.6520036246654
 30
0.0
 10
205.2936189419008
 20
113.0186749927267
 30
0.0
 10
205.5184769803799
 20
113.1809266593301
 30
0.0
 10
205.9991691404042
 20
113.4653105926826
 30
0.0
 10
206.2529836562084
 20
113.5857322078025
 30
0.0
 10
207.0335521485976
 20
113.8765881499785
 30
0.0
 10
207.594910428972
 20
113.9810801367453
 30
0.0
 10
208.4290543094886
 20
113.9953193603033
 30
0.0
 10
208.7089454968154
 20
113.9768571409574
 30
0.0
 10
209.2646735285715
 20
113.8922139312033
 30
0.0
 10
209.5350300172113
 20
113.8270905680166
 30
0.0
 10
210.0611015694232
 20
113.6520167459234
 30
0.0
 10
210.3184894592656
 20
113.5411687355042
 30
0.0
 10
210.8099379273734
 20
113.2745409424217
 30
0.0
 10
211.0401135003532
 20
113.1212744934647
 30
0.0
 10
211.4691056291991
 20
112.7739161329483
 30
0.0
 10
211.6698275045989
 20
112.577534943942
 30
0.0
 10
212.0264583859251
 20
112.1489196586716
 30
0.0
 10
212.1806374261973
 20
111.9197487976656
 30
0.0
 10
212.4386417469772
 20
111.4300354094697
 30
0.0
 10
212.5432682530223
 20
111.1652968088094
 30
0.0
 10
212.6868048674581
 20
110.6262717166013
 30
0.0
 10
212.7272251565031
 20
110.3513273658848
 30
0.0
 10
212.7387836703634
 20
109.9303820370353
 30
0.0
 10
212.7342265302292
 20
109.7882274279227
 30
0.0
 10
212.7087027395163
 20
109.5091214737545
 30
0.0
 10
212.6878214214269
 20
109.3711726667776
 30
0.0
 10
212.6014910117335
 20
108.9619986072416
 30
0.0
 10
212.5108373271972
 20
108.692372966856
 30
0.0
 10
212.2751538818479
 20
108.1861240812459
 30
0.0
 10
212.1307326308257
 20
107.9482293351145
 30
0.0
 10
211.7911984187835
 20
107.501166407006
 30
0.0
 10
211.6004012943302
 20
107.2978921567174
 30
0.0
 10
211.1833769014493
 20
106.9308168837842
 30
0.0
 10
210.9543564538525
 20
106.76537674444
 30
0.0
 10
210.4751169006258
 20
106.4816861547833
 30
0.0
 10
210.2242905213955
 20
106.362288403575
 30
0.0
 10
209.7007390106731
 20
106.1667863084734
 30
0.0
 10
209.4279384953458
 20
106.0912949879874
 30
0.0
 10
208.8803662116048
 20
105.9885869689119
 30
0.0
 10
208.6031320725632
 20
105.9603305476665
 30
0.0
 10
208.0416472657308
 20
105.9506498433926
 30
0.0
 10
207.7597846042461
 20
105.9697144439551
 30
0.0
 10
207.2096674595198
 20
106.0536186917682
 30
0.0
 10
206.9390417540267
 20
106.1183561798784
 30
0.0
 10
206.4070088893779
 20
106.2956005604396
 30
0.0
 10
206.1492625158336
 20
106.4072783311878
 30
0.0
 10
205.662160765265
 20
106.67195179043
 30
0.0
 10
205.430484068875
 20
106.8258273711272
 30
0.0
 10
204.995382464943
 20
107.1791889338867
 30
0.0
  0
SPLINE
  5
EF
330
1F
100
AcDbEntity
  8
0
  6
HIDDEN
 62
     7
370
     0
100
AcDbSpline
210
0.0
220
0.0
230
1.0
 70
     8
 71
     3
 72
    25
 73
    21
 74
     0
 42
0.00000001
 43
0.00000001
 12
1.0
 22
0.0
 32
0.0
 13
1.0
 23
0.0
 33
0.0
 40
0.0
 40
0.0
 40
0.0
 40
0.0
 40
0.0384476454021107
 40
0.1261306517377442
 40
0.2171277598113754
 40
0.231346284566437
 40
0.3163599697482722
 40
0.3179499641056323
 40
0.3734980111356477
 40
0.4304660473093126
 40
0.4895901111798778
 40
0.5503696337074009
 40
0.6104842570448639
 40
0.6723770968608634
 40
0.7317571095640891
 40
0.7930817896280861
 40
0.8486335091748005
 40
0.9062614245605505
 40
0.9550172570449662
 40
0.9999999999999999
 40
0.9999999999999999
 40
0.9999999999999999
 40
0.9999999999999999
 10
203.790528230999
 20
92.98430910188237
 30
0.0
 10
203.776704854329
 20
92.98151967986
 30
0.0
 10
203.7313561342613
 20
92.97236875230708
 30
0.0
 10
204.1094281214357
 20
93.04708618672569
 30
0.0
 10
204.5519955831908
 20
93.13894352932638
 30
0.0
 10
205.2374637428932
 20
93.23128308647044
 30
0.0
 10
205.5901739792386
 20
93.28006822210413
 30
0.0
 10
206.0922782280481
 20
93.34911477765456
 30
0.0
 10
206.5871463884396
 20
93.39086974530225
 30
0.0
 10
207.3170008265892
 20
93.43938993072582
 30
0.0
 10
208.1090451943557
 20
93.4595559333215
 30
0.0
 10
208.9146031587668
 20
93.44883295677201
 30
0.0
 10
209.7145437514551
 20
93.406590333928
 30
0.0
 10
210.4664096376305
 20
93.33846816548949
 30
0.0
 10
211.1578634594321
 20
93.25217883504486
 30
0.0
 10
211.739458005347
 20
93.16222327411911
 30
0.0
 10
212.2090009847304
 20
93.07855475632061
 30
0.0
 10
212.5235489998229
 20
93.01700615100879
 30
0.0
 10
212.7073002122048
 20
92.97912120504476
 30
0.0
 10
212.7226463053698
 20
92.97588298708432
 30
0.0
 10
212.7300105026703
 20
92.9743290491728
 30
0.0
  0
SPLINE
  5
F0
330
1F
100
AcDbEntity
  8
0
  6
HIDDEN
 62
     7
370
     0
100
AcDbSpline
210
0.0
220
0.0
230
1.0
 70
     8
 71
     3
 72
    11
 73
     7
 74
     0
 42
0.00000001
 43
0.00000001
 12
1.0
 22
0.0
 32
0.0
 13
1.0
 23
0.0
 33
0.0
 40
0.0
 40
0.0
 40
0.0
 40
0.0
 40
0.3658544210184602
 40
0.5705076811710684
 40
0.7826781410675299
 40
1.0
 40
1.0
 40
1.0
 40
1.0
 10
205.2129334739189
 20
126.7114837266831
 30
0.0
 10
204.9086741023789
 20
126.7594324254586
 30
0.0
 10
204.4342167812166
 20
126.8342028789015
 30
0.0
 10
204.0183661551132
 20
126.915319112228
 30
0.0
 10
203.767766531047
 20
126.9662648059483
 30
0.0
 10
203.7828805709506
 20
126.9632598929227
 30
0.0
 10
203.790528230999
 20
126.961739415708
 30
0.0
  0
SPLINE
  5
F1
330
1F
100
AcDbEntity
  8
0
  6
HIDDEN
 62
     7
370
     0
100
AcDbSpline
210
0.0
220
0.0
230
1.0
 70
     8
 71
     3
 72
    19
 73
    15
 74
     0
 42
0.00000001
 43
0.00000001
 12
1.0
 22
0.0
 32
0.0
 13
1.0
 23
0.0
 33
0.0
 40
0.0
 40
0.0
 40
0.0
 40
0.0
 40
0.007431733460041
 40
0.1269578224720207
 40
0.2464591934890962
 40
0.3766723752656218
 40
0.5223148388102555
 40
0.6005706333967525
 40
0.6809567917139995
 40
0.7616464834085688
 40
0.8446767220840721
 40
0.918356158785307
 40
0.9212666465634096
 40
1.0
 40
1.0
 40
1.0
 40
1.0
 10
212.7300105026703
 20
126.9717194684176
 30
0.0
 10
212.7320026234176
 20
126.9721345494552
 30
0.0
 10
212.7660344295278
 20
126.979225463704
 30
0.0
 10
212.5592808133296
 20
126.9354431091284
 30
0.0
 10
211.9701472271925
 20
126.8211985203601
 30
0.0
 10
210.9994256424947
 20
126.6654699783257
 30
0.0
 10
209.9287682580968
 20
126.5512230744579
 30
0.0
 10
208.9409908574514
 20
126.498431488309
 30
0.0
 10
208.1439899312891
 20
126.4861156701535
 30
0.0
 10
207.3359220669579
 20
126.5062201634088
 30
0.0
 10
206.5663733892616
 20
126.5528423868941
 30
0.0
 10
206.0981040447247
 20
126.6047015256751
 30
0.0
 10
205.6300565166357
 20
126.6502682711772
 30
0.0
 10
205.4177100696199
 20
126.681431460807
 30
0.0
 10
205.2129334739189
 20
126.7114837266831
 30
0.0
  0
SPLINE
  5
F2
330
1F
100
AcDbEntity
  8
0
  6
HIDDEN
 62
     7
370
     0
100
AcDbSpline
210
0.0
220
0.0
230
1.0
 70
     8
 71
     3
 72
    25
 73
    21
 74
     0
 42
0.00000001
 43
0.00000001
 12
1.0
 22
0.0
 32
0.0
 13
1.0
 23
0.0
 33
0.0
 40
0.0
 40
0.0
 40
0.0
 40
0.0
 40
0.038447646824338
 40
0.1261306564034773
 40
0.2171277678432072
 40
0.2313462931242301
 40
0.3163599814508296
 40
0.3179499758670055
 40
0.3734982778641791
 40
0.4304660482113714
 40
0.4895901142690109
 40
0.5503699166559828
 40
0.610484542217162
 40
0.6723771276103986
 40
0.7317569080779746
 40
0.7930815904104495
 40
0.8486336438321866
 40
0.9062613200454287
 40
0.9550172966815546
 40
1.0
 40
1.0
 40
1.0
 40
1.0
 10
223.7905277839641
 20
92.98430910188237
 30
0.0
 10
223.776704407296
 20
92.98151967985872
 30
0.0
 10
223.7313556872345
 20
92.97236875230162
 30
0.0
 10
224.1094276743155
 20
93.04708618678382
 30
0.0
 10
224.551995136364
 20
93.13894352918479
 30
0.0
 10
225.2374632955706
 20
93.23128308666631
 30
0.0
 10
225.5901735367625
 20
93.28006821900094
 30
0.0
 10
226.0922786711389
 20
93.34911490268135
 30
0.0
 10
226.5871478306537
 20
93.39086935654389
 30
0.0
 10
227.3170013766
 20
93.43939010586224
 30
0.0
 10
228.1090460519973
 20
93.45955589952649
 30
0.0
 10
228.9146051617905
 20
93.44883301230064
 30
0.0
 10
229.7145460699957
 20
93.40659047095372
 30
0.0
 10
230.4664092414997
 20
93.33846815708796
 30
0.0
 10
231.1578605362777
 20
93.25217867807352
 30
0.0
 10
231.739452024733
 20
93.16222291454228
 30
0.0
 10
232.2090079458052
 20
93.07855527608844
 30
0.0
 10
232.5235394137092
 20
93.01700586944654
 30
0.0
 10
232.7073081251825
 20
92.97912128610993
 30
0.0
 10
232.7226460618371
 20
92.97588301127502
 30
0.0
 10
232.7300063303452
 20
92.9743290491728
 30
0.0
  0
SPLINE
  5
F3
330
1F
100
AcDbEntity
  8
0
  6
HIDDEN
 62
     7
370
     0
100
AcDbSpline
210
0.0
220
0.0
230
1.0
 70
     8
 71
     3
 72
    11
 73
     7
 74
     0
 42
0.00000001
 43
0.00000001
 12
1.0
 22
0.0
 32
0.0
 13
1.0
 23
0.0
 33
0.0
 40
0.0
 40
0.0
 40
0.0
 40
0.0
 40
0.3658544896729967
 40
0.5705072705370022
 40
0.782678100285922
 40
0.9999999999999999
 40
0.9999999999999999
 40
0.9999999999999999
 40
0.9999999999999999
 10
225.2129330268841
 20
126.7114837266831
 30
0.0
 10
224.9086726867835
 20
126.7594323836245
 30
0.0
 10
224.4342142857986
 20
126.8342027039834
 30
0.0
 10
224.0183711674363
 20
126.9153192665168
 30
0.0
 10
223.7677646801948
 20
126.9662647614292
 30
0.0
 10
223.7828796561522
 20
126.963259877189
 30
0.0
 10
223.7905277839641
 20
126.961739415708
 30
0.0
  0
SPLINE
  5
F4
330
1F
100
AcDbEntity
  8
0
  6
HIDDEN
 62
     7
370
     0
100
AcDbSpline
210
0.0
220
0.0
230
1.0
 70
     8
 71
     3
 72
    19
 73
    15
 74
     0
 42
0.00000001
 43
0.00000001
 12
1.0
 22
0.0
 32
0.0
 13
1.0
 23
0.0
 33
0.0
 40
0.0
 40
0.0
 40
0.0
 40
0.0
 40
0.0074317614548605
 40
0.1269578538534842
 40
0.2464592282565036
 40
0.376672683661302
 40
0.5223148164202776
 40
0.6005702487543518
 40
0.6809567826742509
 40
0.7616464766550763
 40
0.8446767176831529
 40
0.918356156472016
 40
0.9212666443325841
 40
1.0
 40
1.0
 40
1.0
 40
1.0
 10
232.7300063303451
 20
126.9717194684176
 30
0.0
 10
232.7319997354542
 20
126.9721345496325
 30
0.0
 10
232.7660533627192
 20
126.9792254419526
 30
0.0
 10
232.5592716502273
 20
126.9354431531584
 30
0.0
 10
231.9701494382481
 20
126.8211983147655
 30
0.0
 10
230.9994212992299
 20
126.6654703949896
 30
0.0
 10
229.9287681126471
 20
126.5512231597785
 30
0.0
 10
228.9409917081383
 20
126.4984313371735
 30
0.0
 10
228.1439907142482
 20
126.4861156924715
 30
0.0
 10
227.3359216215512
 20
126.5062201485872
 30
0.0
 10
226.5663729418148
 20
126.5528423906446
 30
0.0
 10
226.0981035976924
 20
126.6047015256506
 30
0.0
 10
225.6300560695984
 20
126.6502682712007
 30
0.0
 10
225.4177096225839
 20
126.6814314608185
 30
0.0
 10
225.2129330268841
 20
126.7114837266831
 30
0.0
  0
SPLINE
  5
F5
330
1F
100
AcDbEntity
  8
0
  6
HIDDEN
 62
     7
370
     0
100
AcDbSpline
210
0.0
220
0.0
230
1.0
 70
     8
 71
     3
 72
    25
 73
    21
 74
     0
 42
0.00000001
 43
0.00000001
 12
1.0
 22
0.0
 32
0.0
 13
1.0
 23
0.0
 33
0.0
 40
0.0
 40
0.0
 40
0.0
 40
0.0
 40
0.0384476462138616
 40
0.126130570667403
 40
0.2171276806622698
 40
0.2313464260810876
 40
0.3163601130578295
 40
0.3179501074487593
 40
0.373498155651569
 40
0.4304659250942202
 40
0.4895899902130806
 40
0.5503695140238509
 40
0.6104844097540684
 40
0.6723769941645671
 40
0.7317570081214918
 40
0.7930816894802459
 40
0.8486335761094284
 40
0.9062613720592237
 40
0.9550172767463716
 40
0.9999999999999999
 40
0.9999999999999999
 40
0.9999999999999999
 40
0.9999999999999999
 10
213.7905298701267
 20
92.98430910188237
 30
0.0
 10
213.7767065682512
 20
92.98151968303134
 30
0.0
 10
213.7313581236581
 20
92.97236877195724
 30
0.0
 10
214.109425927546
 20
93.04708595914867
 30
0.0
 10
214.5519911298853
 20
93.1389443439653
 30
0.0
 10
215.2374674870582
 20
93.23128231981644
 30
0.0
 10
215.5901756032857
 20
93.2800682252402
 30
0.0
 10
216.0922798763574
 20
93.34911477577579
 30
0.0
 10
216.5871469661784
 20
93.39086957749296
 30
0.0
 10
217.3169998145346
 20
93.43939005044145
 30
0.0
 10
218.1090431785939
 20
93.45955593570055
 30
0.0
 10
218.9146021324833
 20
93.44883283496303
 30
0.0
 10
219.7145434429921
 20
93.40659066319675
 30
0.0
 10
220.4664082317342
 20
93.33846793120578
 30
0.0
 10
221.1578618237319
 20
93.25217889246274
 30
0.0
 10
221.7394549633414
 20
93.16222307583625
 30
0.0
 10
222.2090044791624
 20
93.07855502117629
 30
0.0
 10
222.5235442036292
 20
93.01700600910726
 30
0.0
 10
222.7073041693548
 20
92.97912124581427
 30
0.0
 10
222.7226461838192
 20
92.97588299925651
 30
0.0
 10
222.7300084165077
 20
92.9743290491728
 30
0.0
  0
SPLINE
  5
F6
330
1F
100
AcDbEntity
  8
0
  6
HIDDEN
 62
     7
370
     0
100
AcDbSpline
210
0.0
220
0.0
230
1.0
 70
     8
 71
     3
 72
    11
 73
     7
 74
     0
 42
0.00000001
 43
0.00000001
 12
1.0
 22
0.0
 32
0.0
 13
1.0
 23
0.0
 33
0.0
 40
0.0
 40
0.0
 40
0.0
 40
0.0
 40
0.3658543132697192
 40
0.5705075131493614
 40
0.7826782405963255
 40
0.9999999999999999
 40
0.9999999999999999
 40
0.9999999999999999
 40
0.9999999999999999
 10
215.2129351130466
 20
126.7114837266831
 30
0.0
 10
214.9086754784263
 20
126.7594324218269
 30
0.0
 10
214.4342177470205
 20
126.8342028696064
 30
0.0
 10
214.0183690156721
 20
126.915319165715
 30
0.0
 10
213.7677623310726
 20
126.9662647745904
 30
0.0
 10
213.7828802525229
 20
126.9632598815294
 30
0.0
 10
213.7905298701267
 20
126.961739415708
 30
0.0
  0
SPLINE
  5
F7
330
1F
100
AcDbEntity
  8
0
  6
HIDDEN
 62
     7
370
     0
100
AcDbSpline
210
0.0
220
0.0
230
1.0
 70
     8
 71
     3
 72
    19
 73
    15
 74
     0
 42
0.00000001
 43
0.00000001
 12
1.0
 22
0.0
 32
0.0
 13
1.0
 23
0.0
 33
0.0
 40
0.0
 40
0.0
 40
0.0
 40
0.0
 40
0.0074317619342645
 40
0.1269578620432132
 40
0.2464594252123236
 40
0.3766726190780228
 40
0.5223147612320027
 40
0.6005705630838769
 40
0.6809567288642872
 40
0.7616468002119473
 40
0.844677046596094
 40
0.9183561512053787
 40
0.921266639253695
 40
1.0
 40
1.0
 40
1.0
 40
1.0
 10
222.7300084165077
 20
126.9717194684176
 30
0.0
 10
222.7320018208947
 20
126.972134549691
 30
0.0
 10
222.7660554358234
 20
126.9792254430103
 30
0.0
 10
222.5592747748001
 20
126.9354430245898
 30
0.0
 10
221.9701469416565
 20
126.821198626456
 30
0.0
 10
220.9994237480524
 20
126.6654701894007
 30
0.0
 10
219.9287690274163
 20
126.551222956645
 30
0.0
 10
218.9409924546279
 20
126.4984314923777
 30
0.0
 10
218.1439903339766
 20
126.4861156827764
 30
0.0
 10
217.3359212772874
 20
126.5062201172895
 30
0.0
 10
216.5663720340837
 20
126.5528421594134
 30
0.0
 10
216.0981046692852
 20
126.6047016281083
 30
0.0
 10
215.6300581492871
 20
126.6502682683032
 30
0.0
 10
215.4177117055683
 20
126.681431459396
 30
0.0
 10
215.2129351130466
 20
126.7114837266831
 30
0.0
  0
LINE
  5
F8
330
1F
100
AcDbEntity
  8
0
  6
HIDDEN
 62
     7
370
     0
100
AcDbLine
 10
164.0362716249
 20
96.8901223116
 30
0.0
 11
164.0362716249
 21
93.5729254581
 31
0.0
  0
LINE
  5
F9
330
1F
100
AcDbEntity
  8
0
  6
HIDDEN
 62
     7
370
     0
100
AcDbLine
 10
137.7362715981
 20
97.4623464592
 30
0.0
 11
137.7362715981
 21
94.4402270563
 31
0.0
  0
SPLINE
  5
FA
330
1F
100
AcDbEntity
  8
0
  6
HIDDEN
 62
     7
370
     0
100
AcDbSpline
210
0.0
220
0.0
230
1.0
 70
     8
 71
     3
 72
     8
 73
     4
 74
     0
 42
0.00000001
 43
0.00000001
 12
1.0
 22
0.0
 32
0.0
 13
1.0
 23
0.0
 33
0.0
 40
0.0000202082942178
 40
0.0000202082942178
 40
0.0000202082942178
 40
0.0000202082942178
 40
0.0040218803475994
 40
0.0040218803475994
 40
0.0040218803475994
 40
0.0040218803475994
 10
141.7362716129761
 20
94.34816050035782
 30
0.0
 10
140.4029286119893
 20
94.37891357708777
 30
0.0
 10
139.0695947387667
 20
94.40960258857142
 30
0.0
 10
137.7362716129761
 20
94.44022750038476
 30
0.0
  0
SPLINE
  5
FB
330
1F
100
AcDbEntity
  8
0
  6
HIDDEN
 62
     7
370
     0
100
AcDbSpline
210
0.0
220
0.0
230
1.0
 70
     8
 71
     3
 72
    12
 73
     8
 74
     0
 42
0.00000001
 43
0.00000001
 12
1.0
 22
0.0
 32
0.0
 13
1.0
 23
0.0
 33
0.0
 40
0.0
 40
0.0
 40
0.0
 40
0.0
 40
0.0583245778705122
 40
0.2535553028598371
 40
0.5293292863279843
 40
0.8119597681484104
 40
0.9999999999999999
 40
0.9999999999999999
 40
0.9999999999999999
 40
0.9999999999999999
 10
143.5933555445413
 20
94.08891169208566
 30
0.0
 10
143.6019893450446
 20
94.08800934277888
 30
0.0
 10
143.6395231940899
 20
94.08408654624742
 30
0.0
 10
143.3765423897977
 20
94.1113438032832
 30
0.0
 10
142.8834275697741
 20
94.17036952401602
 30
0.0
 10
142.2867453433825
 20
94.25485366793387
 30
0.0
 10
141.8934141505026
 20
94.32152428779598
 30
0.0
 10
141.736272253726
 20
94.34816023189107
 30
0.0
  0
SPLINE
  5
FC
330
1F
100
AcDbEntity
  8
0
  6
HIDDEN
 62
     7
370
     0
100
AcDbSpline
210
0.0
220
0.0
230
1.0
 70
     8
 71
     3
 72
    14
 73
    10
 74
     0
 42
0.00000001
 43
0.00000001
 12
1.0
 22
0.0
 32
0.0
 13
1.0
 23
0.0
 33
0.0
 40
0.0
 40
0.0
 40
0.0
 40
0.0
 40
0.1264524072945767
 40
0.2788065386459896
 40
0.436224612018134
 40
0.5956113330038311
 40
0.7522966648091997
 40
0.9005846631935399
 40
0.9999999999999999
 40
0.9999999999999999
 40
0.9999999999999999
 40
0.9999999999999999
 10
150.12347651336
 20
94.04009176272432
 30
0.0
 10
150.3852101589603
 20
94.05243645998068
 30
0.0
 10
150.9622893410672
 20
94.07965446544468
 30
0.0
 10
152.0492289495186
 20
94.08602089525381
 30
0.0
 10
153.2289621685701
 20
94.04228466139838
 30
0.0
 10
154.3271780024163
 20
93.95381254149419
 30
0.0
 10
155.1602266593807
 20
93.85701458662264
 30
0.0
 10
155.6351104126086
 20
93.79023960002583
 30
0.0
 10
155.6458330216253
 20
93.78857727150442
 30
0.0
 10
155.6501365235786
 20
93.78791009861509
 30
0.0
  0
SPLINE
  5
FD
330
1F
100
AcDbEntity
  8
0
  6
HIDDEN
 62
     7
370
     0
100
AcDbSpline
210
0.0
220
0.0
230
1.0
 70
     8
 71
     3
 72
    11
 73
     7
 74
     0
 42
0.00000001
 43
0.00000001
 12
1.0
 22
0.0
 32
0.0
 13
1.0
 23
0.0
 33
0.0
 40
0.0
 40
0.0
 40
0.0
 40
0.0
 40
0.3442157508901699
 40
0.7074269470749672
 40
0.8527145248448541
 40
1.0
 40
1.0
 40
1.0
 40
1.0
 10
148.9644288054447
 20
93.95266106206456
 30
0.0
 10
148.9922455581503
 20
93.9552203839768
 30
0.0
 10
149.049414122904
 20
93.96048026323064
 30
0.0
 10
149.4128899874866
 20
93.99519333217332
 30
0.0
 10
149.8470733165795
 20
94.02207720411347
 30
0.0
 10
150.0309236274357
 20
94.03405963499387
 30
0.0
 10
150.12347651336
 20
94.04009176272432
 30
0.0
  0
LINE
  5
FE
330
1F
100
AcDbEntity
  8
0
  6
HIDDEN
 62
     7
370
     0
100
AcDbLine
 10
166.036271618
 20
96.387259344
 30
0.0
 11
166.036271618
 21
93.5449578412
 31
0.0
  0
LINE
  5
FF
330
1F
100
AcDbEntity
  8
0
  6
HIDDEN
 62
     7
370
     0
100
AcDbLine
 10
141.2643115005
 20
99.1843488612
 30
0.0
 11
141.2643115005
 21
120.7616996564
 31
0.0
  0
LINE
  5
100
330
1F
100
AcDbEntity
  8
0
  6
HIDDEN
 62
     7
370
     0
100
AcDbLine
 10
137.2643108449
 20
98.8031510808
 30
0.0
 11
137.2643108449
 21
121.1428974368
 31
0.0
  0
LINE
  5
101
330
1F
100
AcDbEntity
  8
0
  6
HIDDEN
 62
     7
370
     0
100
AcDbLine
 10
136.2362722835
 20
98.2135121323
 30
0.0
 11
136.2362722835
 21
121.7325363852
 31
0.0
  0
LINE
  5
102
330
1F
100
AcDbEntity
  8
0
  6
HIDDEN
 62
     7
370
     0
100
AcDbLine
 10
145.8643111369
 20
99.4730244004
 30
0.0
 11
145.8643111369
 21
120.4730241172
 31
0.0
  0
LINE
  5
103
330
1F
100
AcDbEntity
  8
0
  6
HIDDEN
 62
     7
370
     0
100
AcDbLine
 10
139.764312186
 20
99.4730244004
 30
0.0
 11
139.764312186
 21
120.4730241172
 31
0.0
  0
LINE
  5
104
330
1F
100
AcDbEntity
  8
0
  6
HIDDEN
 62
     7
370
     0
100
AcDbLine
 10
140.7643123499
 20
99.4730244004
 30
0.0
 11
140.7643123499
 21
120.4730241172
 31
0.0
  0
SPLINE
  5
105
330
1F
100
AcDbEntity
  8
0
  6
HIDDEN
 62
     7
370
     0
100
AcDbSpline
210
0.0
220
0.0
230
1.0
 70
     8
 71
     3
 72
    66
 73
    62
 74
     0
 42
0.00000001
 43
0.00000001
 12
1.0
 22
0.0
 32
0.0
 13
1.0
 23
0.0
 33
0.0
 40
-0.03125
 40
-0.03125
 40
0.0
 40
0.0
 40
0.0312499999999998
 40
0.0312499999999998
 40
0.0624999999999997
 40
0.0624999999999997
 40
0.0937499999999995
 40
0.0937499999999995
 40
0.1249999999999994
 40
0.1249999999999994
 40
0.1874999999999992
 40
0.1874999999999992
 40
0.2187499999999991
 40
0.2187499999999991
 40
0.249999999999999
 40
0.249999999999999
 40
0.2812499999999989
 40
0.2812499999999989
 40
0.3124999999999988
 40
0.3124999999999988
 40
0.3437499999999988
 40
0.3437499999999988
 40
0.3749999999999987
 40
0.3749999999999987
 40
0.4062499999999987
 40
0.4062499999999987
 40
0.4374999999999986
 40
0.4374999999999986
 40
0.4687499999999986
 40
0.4687499999999986
 40
0.4999999999999986
 40
0.4999999999999986
 40
0.5312499999999986
 40
0.5312499999999986
 40
0.5624999999999984
 40
0.5624999999999984
 40
0.5937499999999984
 40
0.5937499999999984
 40
0.6249999999999986
 40
0.6249999999999986
 40
0.6562499999999988
 40
0.6562499999999988
 40
0.687499999999999
 40
0.687499999999999
 40
0.7187499999999991
 40
0.7187499999999991
 40
0.7499999999999993
 40
0.7499999999999993
 40
0.7812499999999996
 40
0.7812499999999996
 40
0.8124999999999997
 40
0.8124999999999997
 40
0.8749999999999999
 40
0.8749999999999999
 40
0.9062500000000001
 40
0.9062500000000001
 40
0.9375000000000001
 40
0.9375000000000001
 40
0.96875
 40
0.96875
 40
1.0
 40
1.0
 40
1.03125
 40
1.03125
 10
152.0335929660283
 20
99.92576094981398
 30
0.0
 10
152.4389502599238
 20
99.92576094981398
 30
0.0
 10
152.6380101512597
 20
99.9196288751843
 30
0.0
 10
153.0292641358394
 20
99.89640766256689
 30
0.0
 10
153.2235368945871
 20
99.87903336182936
 30
0.0
 10
153.5923003211384
 20
99.83631999413822
 30
0.0
 10
153.7670254795167
 20
99.81112837408246
 30
0.0
 10
154.0977027830504
 20
99.75608506093673
 30
0.0
 10
154.2533503270533
 20
99.7261995060378
 30
0.0
 10
154.6728176967219
 20
99.63815605847597
 30
0.0
 10
154.8997058382522
 20
99.5797663184866
 30
0.0
 10
155.128502461637
 20
99.51802036270314
 30
0.0
 10
155.1876947164859
 20
99.50130176118843
 30
0.0
 10
155.2665021267464
 20
99.47881772864072
 30
0.0
 10
155.2861415430268
 20
99.47306204101133
 30
0.0
 10
155.2864004074484
 20
99.47298684707471
 30
0.0
 10
155.2663297228154
 20
99.47886670154047
 30
0.0
 10
155.1879920401855
 20
99.50121714789553
 30
0.0
 10
155.130042272147
 20
99.51759907663191
 30
0.0
 10
154.976099130267
 20
99.55915552827817
 30
0.0
 10
154.8811605165443
 20
99.58401447258954
 30
0.0
 10
154.6608031006672
 20
99.637917101128
 30
0.0
 10
154.5335230747389
 20
99.66739998554372
 30
0.0
 10
154.2517674834083
 20
99.72652480841761
 30
0.0
 10
154.0989791539508
 20
99.7558425438031
 30
0.0
 10
153.7695520717939
 20
99.81073751912105
 30
0.0
 10
153.5910060686422
 20
99.8364824064218
 30
0.0
 10
153.223433743092
 20
99.87903276134071
 30
0.0
 10
153.0332797163811
 20
99.89611297124017
 30
0.0
 10
152.6397392936786
 20
99.91958179614927
 30
0.0
 10
152.4373052224174
 20
99.925734643369
 30
0.0
 10
152.0378761470521
 20
99.9257870830824
 30
0.0
 10
151.8378571684961
 20
99.91980861032906
 30
0.0
 10
151.4417412210468
 20
99.89633386220696
 30
0.0
 10
151.2510083928549
 20
99.87921889374805
 30
0.0
 10
150.8833769522752
 20
99.83672872751336
 30
0.0
 10
150.7048905201074
 20
99.81103012414121
 30
0.0
 10
150.3746852611434
 20
99.75605305953678
 30
0.0
 10
150.2217966830814
 20
99.72672457510154
 30
0.0
 10
149.9402002885433
 20
99.66766198996791
 30
0.0
 10
149.8125693656678
 20
99.63811146445886
 30
0.0
 10
149.592243930668
 20
99.58423355593949
 30
0.0
 10
149.4980174737027
 20
99.55957278688345
 30
0.0
 10
149.3430829530996
 20
99.51776355194283
 30
0.0
 10
149.2850706674974
 20
99.50136370591397
 30
0.0
 10
149.2066514132192
 20
99.4789932759484
 30
0.0
 10
149.1863373332527
 20
99.47304334896984
 30
0.0
 10
149.1862062169487
 20
99.47300526280719
 30
0.0
 10
149.205830910308
 20
99.47875593127888
 30
0.0
 10
149.2839973607217
 20
99.50106073049503
 30
0.0
 10
149.3432848060616
 20
99.51781184447157
 30
0.0
 10
149.5723656491445
 20
99.57964796238792
 30
0.0
 10
149.7991965000387
 20
99.63802901268576
 30
0.0
 10
150.2185352013594
 20
99.7260694362874
 30
0.0
 10
150.3738881971093
 20
99.75591377997821
 30
0.0
 10
150.7048560302465
 20
99.81103093879723
 30
0.0
 10
150.8794173304429
 20
99.83619880585286
 30
0.0
 10
151.2469906380177
 20
99.87882525308873
 30
0.0
 10
151.4416774996558
 20
99.8962933126834
 30
0.0
 10
151.8341534495922
 20
99.9196255413103
 30
0.0
 10
152.0335929660283
 20
99.92576094981398
 30
0.0
 10
152.4389502599238
 20
99.92576094981398
 30
0.0
  0
SPLINE
  5
106
330
1F
100
AcDbEntity
  8
0
  6
HIDDEN
 62
     7
370
     0
100
AcDbSpline
210
0.0
220
0.0
230
1.0
 70
     8
 71
     3
 72
    66
 73
    62
 74
     0
 42
0.00000001
 43
0.00000001
 12
1.0
 22
0.0
 32
0.0
 13
1.0
 23
0.0
 33
0.0
 40
-0.0312499999999999
 40
-0.0312499999999999
 40
0.0
 40
0.0
 40
0.03125
 40
0.03125
 40
0.0625000000000001
 40
0.0625000000000001
 40
0.0937500000000001
 40
0.0937500000000001
 40
0.1250000000000001
 40
0.1250000000000001
 40
0.1874999999999999
 40
0.1874999999999999
 40
0.2187499999999998
 40
0.2187499999999998
 40
0.2499999999999996
 40
0.2499999999999996
 40
0.2812499999999995
 40
0.2812499999999995
 40
0.3124999999999993
 40
0.3124999999999993
 40
0.3437499999999992
 40
0.3437499999999992
 40
0.3749999999999991
 40
0.3749999999999991
 40
0.4062499999999989
 40
0.4062499999999989
 40
0.4374999999999991
 40
0.4374999999999991
 40
0.4687499999999991
 40
0.4687499999999991
 40
0.4999999999999992
 40
0.4999999999999992
 40
0.5312499999999992
 40
0.5312499999999992
 40
0.5624999999999993
 40
0.5624999999999993
 40
0.5937499999999993
 40
0.5937499999999993
 40
0.6249999999999993
 40
0.6249999999999993
 40
0.6562499999999994
 40
0.6562499999999994
 40
0.6874999999999994
 40
0.6874999999999994
 40
0.7187499999999994
 40
0.7187499999999994
 40
0.7499999999999994
 40
0.7499999999999994
 40
0.7812499999999997
 40
0.7812499999999997
 40
0.8124999999999998
 40
0.8124999999999998
 40
0.875
 40
0.875
 40
0.90625
 40
0.90625
 40
0.9375
 40
0.9375
 40
0.9687500000000001
 40
0.9687500000000001
 40
1.0
 40
1.0
 40
1.03125
 40
1.03125
 10
152.4389502599238
 20
120.0202875677764
 30
0.0
 10
152.0335929660283
 20
120.0202875677764
 30
0.0
 10
151.8345330746924
 20
120.0264196424061
 30
0.0
 10
151.4432790901127
 20
120.0496408550235
 30
0.0
 10
151.2490063313651
 20
120.067015155761
 30
0.0
 10
150.8802429048137
 20
120.1097285234522
 30
0.0
 10
150.7055177464355
 20
120.1349201435079
 30
0.0
 10
150.3748404429017
 20
120.1899634566536
 30
0.0
 10
150.2191928988989
 20
120.2198490115526
 30
0.0
 10
149.7997255292302
 20
120.3078924591144
 30
0.0
 10
149.5728373876999
 20
120.3662821991038
 30
0.0
 10
149.3440407643151
 20
120.4280281548872
 30
0.0
 10
149.2848485094663
 20
120.4447467564019
 30
0.0
 10
149.2060410992058
 20
120.4672307889496
 30
0.0
 10
149.1864016829254
 20
120.472986476579
 30
0.0
 10
149.1861428185038
 20
120.4730616705157
 30
0.0
 10
149.2062135031367
 20
120.4671818160499
 30
0.0
 10
149.2845511857667
 20
120.4448313696948
 30
0.0
 10
149.3425009538051
 20
120.4284494409585
 30
0.0
 10
149.4964440956851
 20
120.3868929893122
 30
0.0
 10
149.5913827094078
 20
120.3620340450008
 30
0.0
 10
149.811740125285
 20
120.3081314164624
 30
0.0
 10
149.9390201512132
 20
120.2786485320466
 30
0.0
 10
150.2207757425438
 20
120.2195237091728
 30
0.0
 10
150.3735640720013
 20
120.1902059737873
 30
0.0
 10
150.7029911541582
 20
120.1353109984693
 30
0.0
 10
150.8815371573099
 20
120.1095661111686
 30
0.0
 10
151.2491094828601
 20
120.0670157562497
 30
0.0
 10
151.4392635095711
 20
120.0499355463502
 30
0.0
 10
151.8328039322735
 20
120.0264667214411
 30
0.0
 10
152.0352380035347
 20
120.0203138742214
 30
0.0
 10
152.4346670789001
 20
120.020261434508
 30
0.0
 10
152.634686057456
 20
120.0262399072613
 30
0.0
 10
153.0308020049054
 20
120.0497146553834
 30
0.0
 10
153.2215348330972
 20
120.0668296238423
 30
0.0
 10
153.5891662736769
 20
120.109319790077
 30
0.0
 10
153.7676527058447
 20
120.1350183934492
 30
0.0
 10
154.0978579648088
 20
120.1899954580536
 30
0.0
 10
154.2507465428707
 20
120.2193239424888
 30
0.0
 10
154.5323429374088
 20
120.2783865276224
 30
0.0
 10
154.6599738602843
 20
120.3079370531315
 30
0.0
 10
154.8802992952841
 20
120.3618149616509
 30
0.0
 10
154.9745257522495
 20
120.3864757307069
 30
0.0
 10
155.1294602728526
 20
120.4282849656475
 30
0.0
 10
155.1874725584548
 20
120.4446848116764
 30
0.0
 10
155.2658918127329
 20
120.467055241642
 30
0.0
 10
155.2862058926995
 20
120.4730051686205
 30
0.0
 10
155.2863370090035
 20
120.4730432547831
 30
0.0
 10
155.2667123156441
 20
120.4672925863115
 30
0.0
 10
155.1885458652304
 20
120.4449877870953
 30
0.0
 10
155.1292584198905
 20
120.4282366731188
 30
0.0
 10
154.9001775768077
 20
120.3664005552024
 30
0.0
 10
154.6733467259135
 20
120.3080195049046
 30
0.0
 10
154.2540080245928
 20
120.219979081303
 30
0.0
 10
154.0986550288428
 20
120.1901347376122
 30
0.0
 10
153.7676871957056
 20
120.1350175787931
 30
0.0
 10
153.5931258955093
 20
120.1098497117375
 30
0.0
 10
153.2255525879345
 20
120.0672232645016
 30
0.0
 10
153.0308657262964
 20
120.049755204907
 30
0.0
 10
152.6383897763599
 20
120.0264229762801
 30
0.0
 10
152.4389502599238
 20
120.0202875677764
 30
0.0
 10
152.0335929660283
 20
120.0202875677764
 30
0.0
  0
LINE
  5
107
330
1F
100
AcDbEntity
  8
0
  6
HIDDEN
 62
     7
370
     0
100
AcDbLine
 10
156.2362718365
 20
99.9730244823
 30
0.0
 11
156.2362718365
 21
119.9730240353
 31
0.0
  0
LINE
  5
108
330
1F
100
AcDbEntity
  8
0
  6
HIDDEN
 62
     7
370
     0
100
AcDbLine
 10
157.2362720004
 20
102.7230244674
 30
0.0
 11
157.2362720004
 21
117.2230240502
 31
0.0
  0
LINE
  5
109
330
1F
100
AcDbEntity
  8
0
  6
HIDDEN
 62
     7
370
     0
100
AcDbLine
 10
156.2362718365
 20
101.7269367896
 30
0.0
 11
156.2362718365
 21
118.219111728
 31
0.0
  0
LINE
  5
10A
330
1F
100
AcDbEntity
  8
0
  6
HIDDEN
 62
     7
370
     0
100
AcDbLine
 10
181.2362712777
 20
102.7230244674
 30
0.0
 11
181.2362712777
 21
117.2230240502
 31
0.0
  0
LINE
  5
10B
330
1F
100
AcDbEntity
  8
0
  6
HIDDEN
 62
     7
370
     0
100
AcDbLine
 10
182.588207998
 20
104.9730243706
 30
0.0
 11
182.588207998
 21
114.973024147
 31
0.0
  0
LINE
  5
10C
330
1F
100
AcDbEntity
  8
0
  6
HIDDEN
 62
     7
370
     0
100
AcDbLine
 10
164.0362716249
 20
127.2358239241
 30
0.0
 11
164.0362716249
 21
128.6131233521
 31
0.0
  0
LINE
  5
10D
330
1F
100
AcDbEntity
  8
0
  6
HIDDEN
 62
     7
370
     0
100
AcDbLine
 10
137.7362715981
 20
126.6635988452
 30
0.0
 11
137.7362715981
 21
127.9523760625
 31
0.0
  0
SPLINE
  5
10E
330
1F
100
AcDbEntity
  8
0
  6
HIDDEN
 62
     7
370
     0
100
AcDbSpline
210
0.0
220
0.0
230
1.0
 70
     8
 71
     3
 72
    10
 73
     6
 74
     0
 42
0.00000001
 43
0.00000001
 12
1.0
 22
0.0
 32
0.0
 13
1.0
 23
0.0
 33
0.0
 40
0.0
 40
0.0
 40
0.0
 40
0.0
 40
0.359941185125859
 40
0.7301023657646475
 40
1.0
 40
1.0
 40
1.0
 40
1.0
 10
164.9149513073976
 20
127.5198288806109
 30
0.0
 10
164.8284877535432
 20
127.7099800702069
 30
0.0
 10
164.6531056416034
 20
128.0956815100921
 30
0.0
 10
164.5230678448003
 20
128.3867734817403
 30
0.0
 10
164.5181803432982
 20
128.3976592844468
 30
0.0
 10
164.5161193997379
 20
128.4022495694784
 30
0.0
  0
LINE
  5
10F
330
1F
100
AcDbEntity
  8
0
  6
HIDDEN
 62
     7
370
     0
100
AcDbLine
 10
202.2362700633
 20
104.9730243706
 30
0.0
 11
202.2362700633
 21
114.973024147
 31
0.0
  0
LINE
  5
110
330
1F
100
AcDbEntity
  8
0
  6
HIDDEN
 62
     7
370
     0
100
AcDbLine
 10
202.8371333114
 20
105.9730240688
 30
0.0
 11
202.8371333114
 21
113.9730244488
 31
0.0
  0
LINE
  5
111
330
1F
100
AcDbEntity
  8
0
  6
HIDDEN
 62
     7
370
     0
100
AcDbLine
 10
136.2362722835
 20
125.9135991879
 30
0.0
 11
136.2362722835
 21
127.0863503762
 31
0.0
  0
LINE
  5
112
330
1F
100
AcDbEntity
  8
0
  6
HIDDEN
 62
     7
370
     0
100
AcDbLine
 10
214.7362730435
 20
93.9730234988
 30
0.0
 11
221.7362723282
 21
93.9730234988
 31
0.0
  0
LINE
  5
113
330
1F
100
AcDbEntity
  8
0
  6
HIDDEN
 62
     7
370
     0
100
AcDbLine
 10
204.7362714044
 20
93.9730234988
 30
0.0
 11
211.7362706891
 21
93.9730234988
 31
0.0
  0
LINE
  5
114
330
1F
100
AcDbEntity
  8
0
  6
HIDDEN
 62
     7
370
     0
100
AcDbLine
 10
224.7362709573
 20
93.9730234988
 30
0.0
 11
231.7362702421
 21
93.9730234988
 31
0.0
  0
LINE
  5
115
330
1F
100
AcDbEntity
  8
0
  6
HIDDEN
 62
     7
370
     0
100
AcDbLine
 10
236.236271911
 20
114.2730244048
 30
0.0
 11
236.236271911
 21
105.6885152668
 31
0.0
  0
LINE
  5
116
330
1F
100
AcDbEntity
  8
0
  6
HIDDEN
 62
     7
370
     0
100
AcDbLine
 10
214.7362730435
 20
125.9730250188
 30
0.0
 11
221.7362723282
 21
125.9730250188
 31
0.0
  0
LINE
  5
117
330
1F
100
AcDbEntity
  8
0
  6
HIDDEN
 62
     7
370
     0
100
AcDbLine
 10
204.7362714044
 20
125.9730250188
 30
0.0
 11
211.7362706891
 21
125.9730250188
 31
0.0
  0
LINE
  5
118
330
1F
100
AcDbEntity
  8
0
  6
HIDDEN
 62
     7
370
     0
100
AcDbLine
 10
224.7362709573
 20
125.9730250188
 30
0.0
 11
231.7362702421
 21
125.9730250188
 31
0.0
  0
SPLINE
  5
119
330
1F
100
AcDbEntity
  8
0
  6
HIDDEN
 62
     7
370
     0
100
AcDbSpline
210
0.0
220
0.0
230
1.0
 70
     8
 71
     3
 72
    26
 73
    22
 74
     0
 42
0.00000001
 43
0.00000001
 12
1.0
 22
0.0
 32
0.0
 13
1.0
 23
0.0
 33
0.0
 40
0.0
 40
0.0
 40
0.0
 40
0.0
 40
0.1250000000000009
 40
0.1250000000000009
 40
0.2500000000000018
 40
0.2500000000000018
 40
0.3125000000000016
 40
0.3125000000000016
 40
0.3750000000000014
 40
0.3750000000000014
 40
0.4375000000000013
 40
0.4375000000000013
 40
0.5000000000000011
 40
0.5000000000000011
 40
0.6250000000000008
 40
0.6250000000000008
 40
0.7500000000000004
 40
0.7500000000000004
 40
0.8750000000000002
 40
0.8750000000000002
 40
1.0
 40
1.0
 40
1.0
 40
1.0
 10
206.1747188001673
 20
112.8014513835414
 30
0.0
 10
205.9707929267271
 20
112.6528161387734
 30
0.0
 10
205.7813032486455
 20
112.4813388942612
 30
0.0
 10
205.4355282302286
 20
112.0882898412584
 30
0.0
 10
205.2832327454298
 20
111.8715892020938
 30
0.0
 10
205.0887244274541
 20
111.5098045177141
 30
0.0
 10
205.0293249561978
 20
111.3820527823893
 30
0.0
 10
204.9264035568331
 20
111.1196025119673
 30
0.0
 10
204.8825113459555
 20
110.9844591615353
 30
0.0
 10
204.8108001432437
 20
110.7057272690087
 30
0.0
 10
204.7828296140091
 20
110.5607565438835
 30
0.0
 10
204.7456623774234
 20
110.2685543652789
 30
0.0
 10
204.7363718721244
 20
110.1221337967099
 30
0.0
 10
204.7360735064348
 20
109.6819218434697
 30
0.0
 10
204.7742446695578
 20
109.3836885319315
 30
0.0
 10
204.9171508202943
 20
108.8256863314609
 30
0.0
 10
205.0229664872095
 20
108.5589281275624
 30
0.0
 10
205.2820174593349
 20
108.0763481938491
 30
0.0
 10
205.4377619796281
 20
107.855058568097
 30
0.0
 10
205.7809681560563
 20
107.4652523853279
 30
0.0
 10
205.9689868905909
 20
107.2945487425458
 30
0.0
 10
206.1747188001673
 20
107.144597134049
 30
0.0
  0
SPLINE
  5
11A
330
1F
100
AcDbEntity
  8
0
  6
HIDDEN
 62
     7
370
     0
100
AcDbSpline
210
0.0
220
0.0
230
1.0
 70
     8
 71
     3
 72
    60
 73
    56
 74
     0
 42
0.00000001
 43
0.00000001
 12
1.0
 22
0.0
 32
0.0
 13
1.0
 23
0.0
 33
0.0
 40
0.0
 40
0.0
 40
0.0
 40
0.0
 40
0.03125
 40
0.03125
 40
0.0625
 40
0.0625
 40
0.09375
 40
0.09375
 40
0.1249999999999999
 40
0.1249999999999999
 40
0.1562499999999999
 40
0.1562499999999999
 40
0.1874999999999999
 40
0.1874999999999999
 40
0.2187499999999998
 40
0.2187499999999998
 40
0.2499999999999998
 40
0.2499999999999998
 40
0.3125000000000001
 40
0.3125000000000001
 40
0.3750000000000004
 40
0.3750000000000004
 40
0.4062500000000006
 40
0.4062500000000006
 40
0.4375000000000007
 40
0.4375000000000007
 40
0.4687500000000008
 40
0.4687500000000008
 40
0.500000000000001
 40
0.500000000000001
 40
0.5312500000000012
 40
0.5312500000000012
 40
0.5625000000000014
 40
0.5625000000000014
 40
0.6250000000000017
 40
0.6250000000000017
 40
0.687500000000002
 40
0.687500000000002
 40
0.7187500000000019
 40
0.7187500000000019
 40
0.7500000000000018
 40
0.7500000000000018
 40
0.7812500000000016
 40
0.7812500000000016
 40
0.8125000000000013
 40
0.8125000000000013
 40
0.8437500000000011
 40
0.8437500000000011
 40
0.8750000000000008
 40
0.8750000000000008
 40
0.9375000000000001
 40
0.9375000000000001
 40
0.9687500000000001
 40
0.9687500000000001
 40
1.0
 40
1.0
 40
1.0
 40
1.0
 10
206.1747188001673
 20
107.144597134049
 30
0.0
 10
206.0381636176608
 20
107.0450662965256
 30
0.0
 10
205.9085670602244
 20
106.9460803369929
 30
0.0
 10
205.6624866778774
 20
106.7530009804669
 30
0.0
 10
205.545924377667
 20
106.6587653640227
 30
0.0
 10
205.3334964278557
 20
106.484120770535
 30
0.0
 10
205.2366631642535
 20
106.4029354187631
 30
0.0
 10
205.0635487239971
 20
106.2562980097522
 30
0.0
 10
204.9872582372073
 20
106.190813166826
 30
0.0
 10
204.8640685472569
 20
106.0844787280426
 30
0.0
 10
204.816195559527
 20
106.0427992662458
 30
0.0
 10
204.7513314396562
 20
105.9862265096858
 30
0.0
 10
204.7355504744524
 20
105.9723932636719
 30
0.0
 10
204.7370432209671
 20
105.9736994146651
 30
0.0
 10
204.754786816734
 20
105.9892492031241
 30
0.0
 10
204.8222285242419
 20
106.0480506895266
 30
0.0
 10
204.8713387690742
 20
106.0907897365532
 30
0.0
 10
205.0614721458762
 20
106.2547936280825
 30
0.0
 10
205.2418547072051
 20
106.4091365135655
 30
0.0
 10
205.6736192666362
 20
106.7633591199945
 30
0.0
 10
205.9194755424631
 20
106.9595386794585
 30
0.0
 10
206.3353819430651
 20
107.261148641569
 30
0.0
 10
206.4817703001726
 20
107.3625696608642
 30
0.0
 10
206.7867129030824
 20
107.5569491762163
 30
0.0
 10
206.9459774110123
 20
107.6506614544856
 30
0.0
 10
207.2847424237038
 20
107.8203706254262
 30
0.0
 10
207.4651332182921
 20
107.896404667218
 30
0.0
 10
207.8405679098043
 20
108.0047062141006
 30
0.0
 10
208.0404167971868
 20
108.0366223626283
 30
0.0
 10
208.433897742013
 20
108.0364424036987
 30
0.0
 10
208.633420480071
 20
108.0043891270629
 30
0.0
 10
209.008321848751
 20
107.89604120017
 30
0.0
 10
209.1869265694978
 20
107.8208009509202
 30
0.0
 10
209.69729483246
 20
107.5651475737727
 30
0.0
 10
209.996678719431
 20
107.362970115819
 30
0.0
 10
210.5525871644234
 20
106.9599415877278
 30
0.0
 10
210.7993718098453
 20
106.7629753975845
 30
0.0
 10
211.1213457555505
 20
106.4988501733191
 30
0.0
 10
211.221203410984
 20
106.4152673219893
 30
0.0
 10
211.3964769249622
 20
106.2669867257234
 30
0.0
 10
211.4726874996692
 20
106.2016377164585
 30
0.0
 10
211.5995907793457
 20
106.0921887205447
 30
0.0
 10
211.6496712592216
 20
106.0486101842946
 30
0.0
 10
211.7169317805542
 20
105.989969666486
 30
0.0
 10
211.7349912068165
 20
105.974144609422
 30
0.0
 10
211.7374217412827
 20
105.972017901041
 30
0.0
 10
211.7215207112096
 20
105.9859550294856
 30
0.0
 10
211.6581385491284
 20
106.0412392835832
 30
0.0
 10
211.609865879679
 20
106.0832727018546
 30
0.0
 10
211.4246542653195
 20
106.2431583722883
 30
0.0
 10
211.2456643316281
 20
106.3964504361847
 30
0.0
 10
210.9276223041832
 20
106.6579484698519
 30
0.0
 10
210.813063877527
 20
106.7505941121077
 30
0.0
 10
210.5671452360717
 20
106.9436399116921
 30
0.0
 10
210.435308862378
 20
107.0443889920409
 30
0.0
 10
210.2978244257849
 20
107.144597134049
 30
0.0
  0
SPLINE
  5
11B
330
1F
100
AcDbEntity
  8
0
  6
HIDDEN
 62
     7
370
     0
100
AcDbSpline
210
0.0
220
0.0
230
1.0
 70
     8
 71
     3
 72
    24
 73
    20
 74
     0
 42
0.00000001
 43
0.00000001
 12
1.0
 22
0.0
 32
0.0
 13
1.0
 23
0.0
 33
0.0
 40
0.0
 40
0.0
 40
0.0
 40
0.0
 40
0.1250000000000001
 40
0.1250000000000001
 40
0.2500000000000003
 40
0.2500000000000003
 40
0.3125000000000003
 40
0.3125000000000003
 40
0.3750000000000003
 40
0.3750000000000003
 40
0.5000000000000002
 40
0.5000000000000002
 40
0.6250000000000002
 40
0.6250000000000002
 40
0.7500000000000001
 40
0.7500000000000001
 40
0.8750000000000001
 40
0.8750000000000001
 40
1.0
 40
1.0
 40
1.0
 40
1.0
 10
210.2978244257849
 20
107.1445971340489
 30
0.0
 10
210.5043248832284
 20
107.2951089132509
 30
0.0
 10
210.6928440374784
 20
107.4665814724208
 30
0.0
 10
211.0348393647038
 20
107.8552371927323
 30
0.0
 10
211.1903721878556
 20
108.0761589818128
 30
0.0
 10
211.3844751498099
 20
108.4376036284635
 30
0.0
 10
211.4427637369797
 20
108.5630012181123
 30
0.0
 10
211.5455071284618
 20
108.8246702107761
 30
0.0
 10
211.5902688645536
 20
108.9622888935109
 30
0.0
 10
211.6981281798033
 20
109.3821915586002
 30
0.0
 10
211.7358700154274
 20
109.6705918815832
 30
0.0
 10
211.7366669422897
 20
110.2660888587476
 30
0.0
 10
211.6993159583594
 20
110.557601994446
 30
0.0
 10
211.5555335412198
 20
111.1205901692428
 30
0.0
 10
211.4512000048349
 20
111.3837687742107
 30
0.0
 10
211.190756564907
 20
111.8695957236677
 30
0.0
 10
211.0369741499818
 20
112.0880484575846
 30
0.0
 10
210.6946519330179
 20
112.4777454537161
 30
0.0
 10
210.5030928438381
 20
112.6518375996415
 30
0.0
 10
210.2978244257849
 20
112.8014513835414
 30
0.0
  0
SPLINE
  5
11C
330
1F
100
AcDbEntity
  8
0
  6
HIDDEN
 62
     7
370
     0
100
AcDbSpline
210
0.0
220
0.0
230
1.0
 70
     8
 71
     3
 72
    64
 73
    60
 74
     0
 42
0.00000001
 43
0.00000001
 12
1.0
 22
0.0
 32
0.0
 13
1.0
 23
0.0
 33
0.0
 40
0.0
 40
0.0
 40
0.0
 40
0.0
 40
0.062499999999999
 40
0.062499999999999
 40
0.0937499999999988
 40
0.0937499999999988
 40
0.1249999999999986
 40
0.1249999999999986
 40
0.1562499999999984
 40
0.1562499999999984
 40
0.1874999999999981
 40
0.1874999999999981
 40
0.2187499999999979
 40
0.2187499999999979
 40
0.2499999999999977
 40
0.2499999999999977
 40
0.3124999999999973
 40
0.3124999999999973
 40
0.3437499999999974
 40
0.3437499999999974
 40
0.3749999999999975
 40
0.3749999999999975
 40
0.4062499999999977
 40
0.4062499999999977
 40
0.4374999999999978
 40
0.4374999999999978
 40
0.4687499999999979
 40
0.4687499999999979
 40
0.499999999999998
 40
0.499999999999998
 40
0.5312499999999981
 40
0.5312499999999981
 40
0.5624999999999982
 40
0.5624999999999982
 40
0.5937499999999984
 40
0.5937499999999984
 40
0.6249999999999986
 40
0.6249999999999986
 40
0.6562499999999988
 40
0.6562499999999988
 40
0.6874999999999989
 40
0.6874999999999989
 40
0.7187499999999991
 40
0.7187499999999991
 40
0.7499999999999992
 40
0.7499999999999992
 40
0.7812499999999994
 40
0.7812499999999994
 40
0.8124999999999997
 40
0.8124999999999997
 40
0.8437499999999998
 40
0.8437499999999998
 40
0.875
 40
0.875
 40
0.9062500000000001
 40
0.9062500000000001
 40
0.9375000000000003
 40
0.9375000000000003
 40
1.0
 40
1.0
 40
1.0
 40
1.0
 10
210.297824425785
 20
112.8014513835414
 30
0.0
 10
210.5744612271942
 20
113.0030833687115
 30
0.0
 10
210.8190957803446
 20
113.1989027861705
 30
0.0
 10
211.1383597560608
 20
113.4613538717608
 30
0.0
 10
211.2370919720045
 20
113.5441329734711
 30
0.0
 10
211.4097903312195
 20
113.6904313766552
 30
0.0
 10
211.4846734238485
 20
113.754708288548
 30
0.0
 10
211.6086859838056
 20
113.8617513596068
 30
0.0
 10
211.6569407158392
 20
113.9037664333329
 30
0.0
 10
211.7206809505565
 20
113.9593590870835
 30
0.0
 10
211.736948168172
 20
113.9736162437307
 30
0.0
 10
211.7355522988364
 20
113.9723948598107
 30
0.0
 10
211.7178143219368
 20
113.9568504199136
 30
0.0
 10
211.6508571684687
 20
113.8984701905936
 30
0.0
 10
211.6008104222917
 20
113.8549178646851
 30
0.0
 10
211.4111250219168
 20
113.6913034899038
 30
0.0
 10
211.2296031702602
 20
113.5360383912209
 30
0.0
 10
210.9086268389124
 20
113.2726820331102
 30
0.0
 10
210.793124808467
 20
113.179508626009
 30
0.0
 10
210.5452712663987
 20
112.9855851516902
 30
0.0
 10
210.4126774750711
 20
112.8846694414723
 30
0.0
 10
210.1362241023908
 20
112.6842517769645
 30
0.0
 10
209.9916149122042
 20
112.5840411364238
 30
0.0
 10
209.6864042160321
 20
112.3894397039458
 30
0.0
 10
209.5245541706178
 20
112.2942466345702
 30
0.0
 10
209.1851135765802
 20
112.1244662034851
 30
0.0
 10
209.0073606967367
 20
112.0494699306686
 30
0.0
 10
208.6282902646004
 20
111.9404405534234
 30
0.0
 10
208.4339860667981
 20
111.9092212859335
 30
0.0
 10
208.0328269192228
 20
111.9098148169262
 30
0.0
 10
207.8390921048379
 20
111.9415733371234
 30
0.0
 10
207.4620227200872
 20
112.0507382093287
 30
0.0
 10
207.2832576441199
 20
112.1263780786189
 30
0.0
 10
206.9459126753467
 20
112.2954633293489
 30
0.0
 10
206.7846971324256
 20
112.3902890442871
 30
0.0
 10
206.4784698093823
 20
112.5856795654347
 30
0.0
 10
206.3341844275704
 20
112.685770875177
 30
0.0
 10
206.0595310048963
 20
112.8849408473448
 30
0.0
 10
205.9292164654054
 20
112.9840965956179
 30
0.0
 10
205.6816905555904
 20
113.177698585837
 30
0.0
 10
205.5641626855037
 20
113.2724799467013
 30
0.0
 10
205.3496854535203
 20
113.4484553647358
 30
0.0
 10
205.2518129508661
 20
113.5303839318394
 30
0.0
 10
205.0764671995752
 20
113.6787196413793
 30
0.0
 10
204.9987761726732
 20
113.745338892191
 30
0.0
 10
204.8726121651083
 20
113.8541562906359
 30
0.0
 10
204.8232063793787
 20
113.8971465061739
 30
0.0
 10
204.7550132892233
 20
113.9566006218488
 30
0.0
 10
204.7373442518116
 20
113.9720857027404
 30
0.0
 10
204.7352942083905
 20
113.973879485014
 30
0.0
 10
204.7511749501751
 20
113.9599595283037
 30
0.0
 10
204.8152931495694
 20
113.9040352917582
 30
0.0
 10
204.8628448893724
 20
113.8626300554855
 30
0.0
 10
204.9865342257092
 20
113.7558563301833
 30
0.0
 10
205.0625507288111
 20
113.6906033733909
 30
0.0
 10
205.2354339532357
 20
113.5441468949994
 30
0.0
 10
205.3334482684943
 20
113.4619587222244
 30
0.0
 10
205.6547774952322
 20
113.1978084629382
 30
0.0
 10
205.8991722065411
 20
113.0022887500692
 30
0.0
 10
206.1747188001672
 20
112.8014513835414
 30
0.0
  0
SPLINE
  5
11D
330
1F
100
AcDbEntity
  8
0
  6
HIDDEN
 62
     7
370
     0
100
AcDbSpline
210
0.0
220
0.0
230
1.0
 70
     8
 71
     3
 72
    26
 73
    22
 74
     0
 42
0.00000001
 43
0.00000001
 12
1.0
 22
0.0
 32
0.0
 13
1.0
 23
0.0
 33
0.0
 40
0.0
 40
0.0
 40
0.0
 40
0.0
 40
0.125
 40
0.125
 40
0.25
 40
0.25
 40
0.3125
 40
0.3125
 40
0.375
 40
0.375
 40
0.4375
 40
0.4375
 40
0.5
 40
0.5
 40
0.625
 40
0.625
 40
0.75
 40
0.75
 40
0.875
 40
0.875
 40
1.0
 40
1.0
 40
1.0
 40
1.0
 10
226.1747188001672
 20
112.8014513835414
 30
0.0
 10
225.9707929267271
 20
112.6528161387734
 30
0.0
 10
225.7813032486455
 20
112.4813388942612
 30
0.0
 10
225.4355282302286
 20
112.0882898412584
 30
0.0
 10
225.2832327454298
 20
111.8715892020938
 30
0.0
 10
225.0887244274541
 20
111.5098045177141
 30
0.0
 10
225.0293249561978
 20
111.3820527823893
 30
0.0
 10
224.926403556833
 20
111.1196025119673
 30
0.0
 10
224.8825113459555
 20
110.9844591615353
 30
0.0
 10
224.8108001432437
 20
110.7057272690087
 30
0.0
 10
224.7828296140091
 20
110.5607565438835
 30
0.0
 10
224.7456623774233
 20
110.2685543652789
 30
0.0
 10
224.7363718721244
 20
110.1221337967099
 30
0.0
 10
224.7360735064348
 20
109.6819218434697
 30
0.0
 10
224.7742446695578
 20
109.3836885319315
 30
0.0
 10
224.9171508202943
 20
108.8256863314609
 30
0.0
 10
225.0229664872095
 20
108.5589281275624
 30
0.0
 10
225.2820174593349
 20
108.0763481938491
 30
0.0
 10
225.4377619796281
 20
107.855058568097
 30
0.0
 10
225.7809681560563
 20
107.4652523853279
 30
0.0
 10
225.9689868905909
 20
107.2945487425458
 30
0.0
 10
226.1747188001673
 20
107.144597134049
 30
0.0
  0
SPLINE
  5
11E
330
1F
100
AcDbEntity
  8
0
  6
HIDDEN
 62
     7
370
     0
100
AcDbSpline
210
0.0
220
0.0
230
1.0
 70
     8
 71
     3
 72
    60
 73
    56
 74
     0
 42
0.00000001
 43
0.00000001
 12
1.0
 22
0.0
 32
0.0
 13
1.0
 23
0.0
 33
0.0
 40
0.0
 40
0.0
 40
0.0
 40
0.0
 40
0.0312500000000013
 40
0.0312500000000013
 40
0.0625000000000026
 40
0.0625000000000026
 40
0.0937500000000039
 40
0.0937500000000039
 40
0.1250000000000052
 40
0.1250000000000052
 40
0.1562500000000066
 40
0.1562500000000066
 40
0.1875000000000079
 40
0.1875000000000079
 40
0.2187500000000092
 40
0.2187500000000092
 40
0.2500000000000105
 40
0.2500000000000105
 40
0.3125000000000131
 40
0.3125000000000131
 40
0.3750000000000158
 40
0.3750000000000158
 40
0.4062500000000167
 40
0.4062500000000167
 40
0.4375000000000177
 40
0.4375000000000177
 40
0.4687500000000187
 40
0.4687500000000187
 40
0.5000000000000197
 40
0.5000000000000197
 40
0.5312500000000207
 40
0.5312500000000207
 40
0.5625000000000205
 40
0.5625000000000205
 40
0.6250000000000184
 40
0.6250000000000184
 40
0.6875000000000164
 40
0.6875000000000164
 40
0.7187500000000149
 40
0.7187500000000149
 40
0.7500000000000132
 40
0.7500000000000132
 40
0.7812500000000117
 40
0.7812500000000117
 40
0.8125000000000101
 40
0.8125000000000101
 40
0.8437500000000085
 40
0.8437500000000085
 40
0.875000000000007
 40
0.875000000000007
 40
0.937500000000003
 40
0.937500000000003
 40
0.9687500000000016
 40
0.9687500000000016
 40
1.0
 40
1.0
 40
1.0
 40
1.0
 10
226.1747188001673
 20
107.144597134049
 30
0.0
 10
226.0381636176608
 20
107.0450662965256
 30
0.0
 10
225.9085670602244
 20
106.9460803369929
 30
0.0
 10
225.6624866778774
 20
106.7530009804669
 30
0.0
 10
225.545924377667
 20
106.6587653640227
 30
0.0
 10
225.3334964278557
 20
106.484120770535
 30
0.0
 10
225.2366631642535
 20
106.4029354187631
 30
0.0
 10
225.0635487239971
 20
106.2562980097522
 30
0.0
 10
224.9872582372073
 20
106.190813166826
 30
0.0
 10
224.8640685472569
 20
106.0844787280426
 30
0.0
 10
224.816195559527
 20
106.0427992662458
 30
0.0
 10
224.7513314396562
 20
105.9862265096858
 30
0.0
 10
224.7355504744524
 20
105.9723932636719
 30
0.0
 10
224.7370432209671
 20
105.9736994146651
 30
0.0
 10
224.7547868167341
 20
105.9892492031241
 30
0.0
 10
224.8222285242419
 20
106.0480506895266
 30
0.0
 10
224.8713387690742
 20
106.0907897365532
 30
0.0
 10
225.0614721458762
 20
106.2547936280825
 30
0.0
 10
225.2418547072051
 20
106.4091365135655
 30
0.0
 10
225.6736192666361
 20
106.7633591199945
 30
0.0
 10
225.9194755424631
 20
106.9595386794585
 30
0.0
 10
226.3353819430651
 20
107.261148641569
 30
0.0
 10
226.4817703001726
 20
107.3625696608642
 30
0.0
 10
226.7867129030824
 20
107.5569491762163
 30
0.0
 10
226.9459774110124
 20
107.6506614544856
 30
0.0
 10
227.2847424237037
 20
107.8203706254262
 30
0.0
 10
227.4651332182921
 20
107.896404667218
 30
0.0
 10
227.8405679098043
 20
108.0047062141006
 30
0.0
 10
228.0404167971868
 20
108.0366223626283
 30
0.0
 10
228.433897742013
 20
108.0364424036987
 30
0.0
 10
228.6334204800711
 20
108.0043891270629
 30
0.0
 10
229.008321848751
 20
107.89604120017
 30
0.0
 10
229.1869265694978
 20
107.8208009509202
 30
0.0
 10
229.69729483246
 20
107.5651475737727
 30
0.0
 10
229.996678719431
 20
107.362970115819
 30
0.0
 10
230.5525871644233
 20
106.9599415877278
 30
0.0
 10
230.7993718098452
 20
106.7629753975845
 30
0.0
 10
231.1213457555505
 20
106.4988501733191
 30
0.0
 10
231.2212034109839
 20
106.4152673219893
 30
0.0
 10
231.3964769249622
 20
106.2669867257234
 30
0.0
 10
231.4726874996693
 20
106.2016377164585
 30
0.0
 10
231.5995907793457
 20
106.0921887205447
 30
0.0
 10
231.6496712592216
 20
106.0486101842946
 30
0.0
 10
231.7169317805542
 20
105.989969666486
 30
0.0
 10
231.7349912068165
 20
105.974144609422
 30
0.0
 10
231.7374217412828
 20
105.972017901041
 30
0.0
 10
231.7215207112096
 20
105.9859550294856
 30
0.0
 10
231.6581385491284
 20
106.0412392835832
 30
0.0
 10
231.609865879679
 20
106.0832727018546
 30
0.0
 10
231.4246542653195
 20
106.2431583722883
 30
0.0
 10
231.2456643316281
 20
106.3964504361847
 30
0.0
 10
230.9276223041832
 20
106.6579484698519
 30
0.0
 10
230.813063877527
 20
106.7505941121077
 30
0.0
 10
230.5671452360717
 20
106.9436399116921
 30
0.0
 10
230.435308862378
 20
107.0443889920409
 30
0.0
 10
230.2978244257849
 20
107.144597134049
 30
0.0
  0
SPLINE
  5
11F
330
1F
100
AcDbEntity
  8
0
  6
HIDDEN
 62
     7
370
     0
100
AcDbSpline
210
0.0
220
0.0
230
1.0
 70
     8
 71
     3
 72
    24
 73
    20
 74
     0
 42
0.00000001
 43
0.00000001
 12
1.0
 22
0.0
 32
0.0
 13
1.0
 23
0.0
 33
0.0
 40
0.0
 40
0.0
 40
0.0
 40
0.0
 40
0.125000000000001
 40
0.125000000000001
 40
0.2500000000000019
 40
0.2500000000000019
 40
0.3125000000000024
 40
0.3125000000000024
 40
0.3750000000000029
 40
0.3750000000000029
 40
0.5000000000000023
 40
0.5000000000000023
 40
0.6250000000000018
 40
0.6250000000000018
 40
0.7500000000000011
 40
0.7500000000000011
 40
0.8750000000000006
 40
0.8750000000000006
 40
1.0
 40
1.0
 40
1.0
 40
1.0
 10
230.2978244257849
 20
107.1445971340489
 30
0.0
 10
230.5043248832283
 20
107.2951089132509
 30
0.0
 10
230.6928440374784
 20
107.4665814724208
 30
0.0
 10
231.0348393647038
 20
107.8552371927323
 30
0.0
 10
231.1903721878556
 20
108.0761589818128
 30
0.0
 10
231.38447514981
 20
108.4376036284635
 30
0.0
 10
231.4427637369797
 20
108.5630012181123
 30
0.0
 10
231.5455071284618
 20
108.8246702107761
 30
0.0
 10
231.5902688645536
 20
108.9622888935109
 30
0.0
 10
231.6981281798033
 20
109.3821915586002
 30
0.0
 10
231.7358700154274
 20
109.6705918815832
 30
0.0
 10
231.7366669422897
 20
110.2660888587476
 30
0.0
 10
231.6993159583594
 20
110.557601994446
 30
0.0
 10
231.5555335412198
 20
111.1205901692428
 30
0.0
 10
231.4512000048349
 20
111.3837687742107
 30
0.0
 10
231.190756564907
 20
111.8695957236677
 30
0.0
 10
231.0369741499818
 20
112.0880484575846
 30
0.0
 10
230.6946519330179
 20
112.4777454537161
 30
0.0
 10
230.5030928438381
 20
112.6518375996415
 30
0.0
 10
230.2978244257849
 20
112.8014513835414
 30
0.0
  0
SPLINE
  5
120
330
1F
100
AcDbEntity
  8
0
  6
HIDDEN
 62
     7
370
     0
100
AcDbSpline
210
0.0
220
0.0
230
1.0
 70
     8
 71
     3
 72
    64
 73
    60
 74
     0
 42
0.00000001
 43
0.00000001
 12
1.0
 22
0.0
 32
0.0
 13
1.0
 23
0.0
 33
0.0
 40
0.0
 40
0.0
 40
0.0
 40
0.0
 40
0.0624999999999999
 40
0.0624999999999999
 40
0.0937500000000005
 40
0.0937500000000005
 40
0.1250000000000011
 40
0.1250000000000011
 40
0.1562500000000017
 40
0.1562500000000017
 40
0.1875000000000023
 40
0.1875000000000023
 40
0.2187500000000029
 40
0.2187500000000029
 40
0.2500000000000036
 40
0.2500000000000036
 40
0.3125000000000048
 40
0.3125000000000048
 40
0.3437500000000053
 40
0.3437500000000053
 40
0.3750000000000059
 40
0.3750000000000059
 40
0.4062500000000065
 40
0.4062500000000065
 40
0.437500000000007
 40
0.437500000000007
 40
0.4687500000000077
 40
0.4687500000000077
 40
0.5000000000000072
 40
0.5000000000000072
 40
0.5312500000000068
 40
0.5312500000000068
 40
0.5625000000000062
 40
0.5625000000000062
 40
0.5937500000000058
 40
0.5937500000000058
 40
0.6250000000000053
 40
0.6250000000000053
 40
0.6562500000000048
 40
0.6562500000000048
 40
0.6875000000000043
 40
0.6875000000000043
 40
0.7187500000000039
 40
0.7187500000000039
 40
0.7500000000000033
 40
0.7500000000000033
 40
0.7812500000000029
 40
0.7812500000000029
 40
0.8125000000000024
 40
0.8125000000000024
 40
0.843750000000002
 40
0.843750000000002
 40
0.8750000000000014
 40
0.8750000000000014
 40
0.906250000000001
 40
0.906250000000001
 40
0.9375000000000006
 40
0.9375000000000006
 40
1.0
 40
1.0
 40
1.0
 40
1.0
 10
230.2978244257849
 20
112.8014513835414
 30
0.0
 10
230.5744612271941
 20
113.0030833687115
 30
0.0
 10
230.8190957803446
 20
113.1989027861705
 30
0.0
 10
231.1383597560609
 20
113.4613538717608
 30
0.0
 10
231.2370919720046
 20
113.5441329734711
 30
0.0
 10
231.4097903312195
 20
113.6904313766552
 30
0.0
 10
231.4846734238485
 20
113.754708288548
 30
0.0
 10
231.6086859838056
 20
113.8617513596068
 30
0.0
 10
231.6569407158392
 20
113.9037664333329
 30
0.0
 10
231.7206809505565
 20
113.9593590870835
 30
0.0
 10
231.736948168172
 20
113.9736162437307
 30
0.0
 10
231.7355522988364
 20
113.9723948598107
 30
0.0
 10
231.7178143219367
 20
113.9568504199136
 30
0.0
 10
231.6508571684687
 20
113.8984701905936
 30
0.0
 10
231.6008104222917
 20
113.8549178646851
 30
0.0
 10
231.4111250219168
 20
113.6913034899038
 30
0.0
 10
231.2296031702602
 20
113.5360383912209
 30
0.0
 10
230.9086268389125
 20
113.2726820331102
 30
0.0
 10
230.793124808467
 20
113.179508626009
 30
0.0
 10
230.5452712663988
 20
112.9855851516902
 30
0.0
 10
230.4126774750711
 20
112.8846694414723
 30
0.0
 10
230.1362241023908
 20
112.6842517769645
 30
0.0
 10
229.9916149122042
 20
112.5840411364238
 30
0.0
 10
229.6864042160321
 20
112.3894397039458
 30
0.0
 10
229.5245541706178
 20
112.2942466345702
 30
0.0
 10
229.1851135765802
 20
112.1244662034851
 30
0.0
 10
229.0073606967367
 20
112.0494699306686
 30
0.0
 10
228.6282902646004
 20
111.9404405534234
 30
0.0
 10
228.4339860667981
 20
111.9092212859335
 30
0.0
 10
228.0328269192228
 20
111.9098148169262
 30
0.0
 10
227.8390921048379
 20
111.9415733371234
 30
0.0
 10
227.4620227200872
 20
112.0507382093287
 30
0.0
 10
227.2832576441199
 20
112.1263780786189
 30
0.0
 10
226.9459126753467
 20
112.2954633293489
 30
0.0
 10
226.7846971324256
 20
112.3902890442871
 30
0.0
 10
226.4784698093823
 20
112.5856795654347
 30
0.0
 10
226.3341844275705
 20
112.685770875177
 30
0.0
 10
226.0595310048963
 20
112.8849408473448
 30
0.0
 10
225.9292164654054
 20
112.9840965956179
 30
0.0
 10
225.6816905555904
 20
113.177698585837
 30
0.0
 10
225.5641626855037
 20
113.2724799467013
 30
0.0
 10
225.3496854535204
 20
113.4484553647358
 30
0.0
 10
225.2518129508661
 20
113.5303839318394
 30
0.0
 10
225.0764671995751
 20
113.6787196413793
 30
0.0
 10
224.9987761726732
 20
113.745338892191
 30
0.0
 10
224.8726121651083
 20
113.8541562906359
 30
0.0
 10
224.8232063793788
 20
113.8971465061739
 30
0.0
 10
224.7550132892233
 20
113.9566006218488
 30
0.0
 10
224.7373442518116
 20
113.9720857027404
 30
0.0
 10
224.7352942083906
 20
113.973879485014
 30
0.0
 10
224.7511749501752
 20
113.9599595283037
 30
0.0
 10
224.8152931495694
 20
113.9040352917582
 30
0.0
 10
224.8628448893723
 20
113.8626300554855
 30
0.0
 10
224.9865342257092
 20
113.7558563301833
 30
0.0
 10
225.0625507288111
 20
113.6906033733909
 30
0.0
 10
225.2354339532357
 20
113.5441468949994
 30
0.0
 10
225.3334482684943
 20
113.4619587222244
 30
0.0
 10
225.6547774952322
 20
113.1978084629383
 30
0.0
 10
225.8991722065411
 20
113.0022887500692
 30
0.0
 10
226.1747188001672
 20
112.8014513835414
 30
0.0
  0
SPLINE
  5
121
330
1F
100
AcDbEntity
  8
0
  6
HIDDEN
 62
     7
370
     0
100
AcDbSpline
210
0.0
220
0.0
230
1.0
 70
     8
 71
     3
 72
    26
 73
    22
 74
     0
 42
0.00000001
 43
0.00000001
 12
1.0
 22
0.0
 32
0.0
 13
1.0
 23
0.0
 33
0.0
 40
0.0
 40
0.0
 40
0.0
 40
0.0
 40
0.1250000000000011
 40
0.1250000000000011
 40
0.2500000000000023
 40
0.2500000000000023
 40
0.3125000000000022
 40
0.3125000000000022
 40
0.3750000000000021
 40
0.3750000000000021
 40
0.4375000000000019
 40
0.4375000000000019
 40
0.5000000000000017
 40
0.5000000000000017
 40
0.6250000000000012
 40
0.6250000000000012
 40
0.7500000000000008
 40
0.7500000000000008
 40
0.8750000000000004
 40
0.8750000000000004
 40
1.0
 40
1.0
 40
1.0
 40
1.0
 10
216.1747188001672
 20
112.8014513835414
 30
0.0
 10
215.9707929267271
 20
112.6528161387734
 30
0.0
 10
215.7813032486455
 20
112.4813388942612
 30
0.0
 10
215.4355282302286
 20
112.0882898412584
 30
0.0
 10
215.2832327454298
 20
111.8715892020938
 30
0.0
 10
215.0887244274541
 20
111.5098045177141
 30
0.0
 10
215.0293249561977
 20
111.3820527823893
 30
0.0
 10
214.9264035568331
 20
111.1196025119673
 30
0.0
 10
214.8825113459555
 20
110.9844591615353
 30
0.0
 10
214.8108001432437
 20
110.7057272690087
 30
0.0
 10
214.7828296140091
 20
110.5607565438835
 30
0.0
 10
214.7456623774234
 20
110.2685543652789
 30
0.0
 10
214.7363718721244
 20
110.1221337967099
 30
0.0
 10
214.7360735064348
 20
109.6819218434697
 30
0.0
 10
214.7742446695578
 20
109.3836885319315
 30
0.0
 10
214.9171508202943
 20
108.8256863314609
 30
0.0
 10
215.0229664872095
 20
108.5589281275624
 30
0.0
 10
215.2820174593349
 20
108.0763481938491
 30
0.0
 10
215.4377619796281
 20
107.855058568097
 30
0.0
 10
215.7809681560564
 20
107.4652523853279
 30
0.0
 10
215.968986890591
 20
107.2945487425458
 30
0.0
 10
216.1747188001673
 20
107.144597134049
 30
0.0
  0
SPLINE
  5
122
330
1F
100
AcDbEntity
  8
0
  6
HIDDEN
 62
     7
370
     0
100
AcDbSpline
210
0.0
220
0.0
230
1.0
 70
     8
 71
     3
 72
    60
 73
    56
 74
     0
 42
0.00000001
 43
0.00000001
 12
1.0
 22
0.0
 32
0.0
 13
1.0
 23
0.0
 33
0.0
 40
0.0
 40
0.0
 40
0.0
 40
0.0
 40
0.0312499999999998
 40
0.0312499999999998
 40
0.0624999999999995
 40
0.0624999999999995
 40
0.0937499999999993
 40
0.0937499999999993
 40
0.1249999999999991
 40
0.1249999999999991
 40
0.1562499999999989
 40
0.1562499999999989
 40
0.1874999999999986
 40
0.1874999999999986
 40
0.2187499999999984
 40
0.2187499999999984
 40
0.2499999999999982
 40
0.2499999999999982
 40
0.3124999999999982
 40
0.3124999999999982
 40
0.3749999999999981
 40
0.3749999999999981
 40
0.4062499999999981
 40
0.4062499999999981
 40
0.437499999999998
 40
0.437499999999998
 40
0.4687499999999979
 40
0.4687499999999979
 40
0.4999999999999979
 40
0.4999999999999979
 40
0.5312499999999979
 40
0.5312499999999979
 40
0.5624999999999979
 40
0.5624999999999979
 40
0.6249999999999978
 40
0.6249999999999978
 40
0.6874999999999977
 40
0.6874999999999977
 40
0.7187499999999979
 40
0.7187499999999979
 40
0.749999999999998
 40
0.749999999999998
 40
0.7812499999999982
 40
0.7812499999999982
 40
0.8124999999999984
 40
0.8124999999999984
 40
0.8437499999999987
 40
0.8437499999999987
 40
0.8749999999999989
 40
0.8749999999999989
 40
0.9374999999999991
 40
0.9374999999999991
 40
0.9687499999999996
 40
0.9687499999999996
 40
1.0
 40
1.0
 40
1.0
 40
1.0
 10
216.1747188001673
 20
107.144597134049
 30
0.0
 10
216.0381636176608
 20
107.0450662965256
 30
0.0
 10
215.9085670602244
 20
106.9460803369929
 30
0.0
 10
215.6624866778774
 20
106.7530009804669
 30
0.0
 10
215.5459243776671
 20
106.6587653640227
 30
0.0
 10
215.3334964278557
 20
106.484120770535
 30
0.0
 10
215.2366631642535
 20
106.4029354187631
 30
0.0
 10
215.0635487239971
 20
106.2562980097522
 30
0.0
 10
214.9872582372073
 20
106.190813166826
 30
0.0
 10
214.8640685472569
 20
106.0844787280426
 30
0.0
 10
214.816195559527
 20
106.0427992662458
 30
0.0
 10
214.7513314396562
 20
105.9862265096858
 30
0.0
 10
214.7355504744524
 20
105.9723932636719
 30
0.0
 10
214.7370432209671
 20
105.9736994146651
 30
0.0
 10
214.754786816734
 20
105.9892492031241
 30
0.0
 10
214.8222285242419
 20
106.0480506895266
 30
0.0
 10
214.8713387690742
 20
106.0907897365532
 30
0.0
 10
215.0614721458762
 20
106.2547936280825
 30
0.0
 10
215.2418547072051
 20
106.4091365135655
 30
0.0
 10
215.6736192666362
 20
106.7633591199945
 30
0.0
 10
215.9194755424631
 20
106.9595386794585
 30
0.0
 10
216.3353819430651
 20
107.261148641569
 30
0.0
 10
216.4817703001726
 20
107.3625696608642
 30
0.0
 10
216.7867129030824
 20
107.5569491762163
 30
0.0
 10
216.9459774110123
 20
107.6506614544856
 30
0.0
 10
217.2847424237037
 20
107.8203706254262
 30
0.0
 10
217.4651332182921
 20
107.896404667218
 30
0.0
 10
217.8405679098043
 20
108.0047062141006
 30
0.0
 10
218.0404167971868
 20
108.0366223626283
 30
0.0
 10
218.433897742013
 20
108.0364424036987
 30
0.0
 10
218.633420480071
 20
108.0043891270629
 30
0.0
 10
219.0083218487509
 20
107.89604120017
 30
0.0
 10
219.1869265694978
 20
107.8208009509202
 30
0.0
 10
219.69729483246
 20
107.5651475737727
 30
0.0
 10
219.996678719431
 20
107.362970115819
 30
0.0
 10
220.5525871644233
 20
106.9599415877278
 30
0.0
 10
220.7993718098453
 20
106.7629753975845
 30
0.0
 10
221.1213457555505
 20
106.4988501733191
 30
0.0
 10
221.221203410984
 20
106.4152673219893
 30
0.0
 10
221.3964769249622
 20
106.2669867257234
 30
0.0
 10
221.4726874996692
 20
106.2016377164585
 30
0.0
 10
221.5995907793457
 20
106.0921887205447
 30
0.0
 10
221.6496712592215
 20
106.0486101842946
 30
0.0
 10
221.7169317805543
 20
105.989969666486
 30
0.0
 10
221.7349912068165
 20
105.974144609422
 30
0.0
 10
221.7374217412828
 20
105.972017901041
 30
0.0
 10
221.7215207112096
 20
105.9859550294856
 30
0.0
 10
221.6581385491284
 20
106.0412392835832
 30
0.0
 10
221.609865879679
 20
106.0832727018546
 30
0.0
 10
221.4246542653195
 20
106.2431583722883
 30
0.0
 10
221.2456643316281
 20
106.3964504361847
 30
0.0
 10
220.9276223041832
 20
106.6579484698519
 30
0.0
 10
220.813063877527
 20
106.7505941121077
 30
0.0
 10
220.5671452360717
 20
106.9436399116921
 30
0.0
 10
220.435308862378
 20
107.0443889920409
 30
0.0
 10
220.2978244257849
 20
107.144597134049
 30
0.0
  0
SPLINE
  5
123
330
1F
100
AcDbEntity
  8
0
  6
HIDDEN
 62
     7
370
     0
100
AcDbSpline
210
0.0
220
0.0
230
1.0
 70
     8
 71
     3
 72
    24
 73
    20
 74
     0
 42
0.00000001
 43
0.00000001
 12
1.0
 22
0.0
 32
0.0
 13
1.0
 23
0.0
 33
0.0
 40
0.0
 40
0.0
 40
0.0
 40
0.0
 40
0.1250000000000001
 40
0.1250000000000001
 40
0.2500000000000002
 40
0.2500000000000002
 40
0.3125000000000002
 40
0.3125000000000002
 40
0.3750000000000002
 40
0.3750000000000002
 40
0.5000000000000002
 40
0.5000000000000002
 40
0.6250000000000002
 40
0.6250000000000002
 40
0.7500000000000001
 40
0.7500000000000001
 40
0.8750000000000001
 40
0.8750000000000001
 40
1.0
 40
1.0
 40
1.0
 40
1.0
 10
220.2978244257849
 20
107.1445971340489
 30
0.0
 10
220.5043248832283
 20
107.2951089132509
 30
0.0
 10
220.6928440374784
 20
107.4665814724208
 30
0.0
 10
221.0348393647038
 20
107.8552371927323
 30
0.0
 10
221.1903721878556
 20
108.0761589818128
 30
0.0
 10
221.3844751498099
 20
108.4376036284635
 30
0.0
 10
221.4427637369797
 20
108.5630012181123
 30
0.0
 10
221.5455071284618
 20
108.8246702107761
 30
0.0
 10
221.5902688645536
 20
108.9622888935109
 30
0.0
 10
221.6981281798033
 20
109.3821915586002
 30
0.0
 10
221.7358700154274
 20
109.6705918815832
 30
0.0
 10
221.7366669422897
 20
110.2660888587476
 30
0.0
 10
221.6993159583594
 20
110.557601994446
 30
0.0
 10
221.5555335412198
 20
111.1205901692428
 30
0.0
 10
221.4512000048349
 20
111.3837687742107
 30
0.0
 10
221.190756564907
 20
111.8695957236677
 30
0.0
 10
221.0369741499818
 20
112.0880484575846
 30
0.0
 10
220.6946519330179
 20
112.4777454537161
 30
0.0
 10
220.5030928438381
 20
112.6518375996415
 30
0.0
 10
220.2978244257849
 20
112.8014513835414
 30
0.0
  0
SPLINE
  5
124
330
1F
100
AcDbEntity
  8
0
  6
HIDDEN
 62
     7
370
     0
100
AcDbSpline
210
0.0
220
0.0
230
1.0
 70
     8
 71
     3
 72
    64
 73
    60
 74
     0
 42
0.00000001
 43
0.00000001
 12
1.0
 22
0.0
 32
0.0
 13
1.0
 23
0.0
 33
0.0
 40
0.0
 40
0.0
 40
0.0
 40
0.0
 40
0.0624999999999991
 40
0.0624999999999991
 40
0.093749999999999
 40
0.093749999999999
 40
0.1249999999999988
 40
0.1249999999999988
 40
0.1562499999999986
 40
0.1562499999999986
 40
0.1874999999999985
 40
0.1874999999999985
 40
0.2187499999999983
 40
0.2187499999999983
 40
0.2499999999999982
 40
0.2499999999999982
 40
0.3124999999999978
 40
0.3124999999999978
 40
0.3437499999999979
 40
0.3437499999999979
 40
0.3749999999999981
 40
0.3749999999999981
 40
0.4062499999999982
 40
0.4062499999999982
 40
0.4374999999999983
 40
0.4374999999999983
 40
0.4687499999999984
 40
0.4687499999999984
 40
0.4999999999999986
 40
0.4999999999999986
 40
0.5312499999999987
 40
0.5312499999999987
 40
0.5624999999999988
 40
0.5624999999999988
 40
0.5937499999999989
 40
0.5937499999999989
 40
0.624999999999999
 40
0.624999999999999
 40
0.6562499999999991
 40
0.6562499999999991
 40
0.6874999999999992
 40
0.6874999999999992
 40
0.7187499999999993
 40
0.7187499999999993
 40
0.7499999999999994
 40
0.7499999999999994
 40
0.7812499999999997
 40
0.7812499999999997
 40
0.8124999999999998
 40
0.8124999999999998
 40
0.8437499999999999
 40
0.8437499999999999
 40
0.875
 40
0.875
 40
0.9062500000000001
 40
0.9062500000000001
 40
0.9375000000000002
 40
0.9375000000000002
 40
1.0
 40
1.0
 40
1.0
 40
1.0
 10
220.297824425785
 20
112.8014513835414
 30
0.0
 10
220.5744612271941
 20
113.0030833687115
 30
0.0
 10
220.8190957803446
 20
113.1989027861705
 30
0.0
 10
221.1383597560608
 20
113.4613538717608
 30
0.0
 10
221.2370919720045
 20
113.5441329734711
 30
0.0
 10
221.4097903312195
 20
113.6904313766552
 30
0.0
 10
221.4846734238485
 20
113.754708288548
 30
0.0
 10
221.6086859838056
 20
113.8617513596068
 30
0.0
 10
221.6569407158392
 20
113.9037664333329
 30
0.0
 10
221.7206809505564
 20
113.9593590870835
 30
0.0
 10
221.736948168172
 20
113.9736162437307
 30
0.0
 10
221.7355522988364
 20
113.9723948598107
 30
0.0
 10
221.7178143219367
 20
113.9568504199135
 30
0.0
 10
221.6508571684687
 20
113.8984701905936
 30
0.0
 10
221.6008104222917
 20
113.8549178646851
 30
0.0
 10
221.4111250219168
 20
113.6913034899038
 30
0.0
 10
221.2296031702602
 20
113.5360383912209
 30
0.0
 10
220.9086268389124
 20
113.2726820331102
 30
0.0
 10
220.793124808467
 20
113.179508626009
 30
0.0
 10
220.5452712663987
 20
112.9855851516902
 30
0.0
 10
220.4126774750711
 20
112.8846694414723
 30
0.0
 10
220.1362241023907
 20
112.6842517769645
 30
0.0
 10
219.9916149122041
 20
112.5840411364238
 30
0.0
 10
219.6864042160321
 20
112.3894397039458
 30
0.0
 10
219.5245541706178
 20
112.2942466345702
 30
0.0
 10
219.1851135765802
 20
112.1244662034851
 30
0.0
 10
219.0073606967367
 20
112.0494699306686
 30
0.0
 10
218.6282902646004
 20
111.9404405534234
 30
0.0
 10
218.4339860667981
 20
111.9092212859335
 30
0.0
 10
218.0328269192228
 20
111.9098148169262
 30
0.0
 10
217.8390921048379
 20
111.9415733371234
 30
0.0
 10
217.4620227200872
 20
112.0507382093287
 30
0.0
 10
217.2832576441199
 20
112.1263780786189
 30
0.0
 10
216.9459126753467
 20
112.2954633293489
 30
0.0
 10
216.7846971324257
 20
112.3902890442871
 30
0.0
 10
216.4784698093823
 20
112.5856795654347
 30
0.0
 10
216.3341844275705
 20
112.685770875177
 30
0.0
 10
216.0595310048963
 20
112.8849408473448
 30
0.0
 10
215.9292164654054
 20
112.9840965956179
 30
0.0
 10
215.6816905555904
 20
113.177698585837
 30
0.0
 10
215.5641626855036
 20
113.2724799467013
 30
0.0
 10
215.3496854535203
 20
113.4484553647358
 30
0.0
 10
215.2518129508661
 20
113.5303839318394
 30
0.0
 10
215.0764671995751
 20
113.6787196413793
 30
0.0
 10
214.9987761726732
 20
113.745338892191
 30
0.0
 10
214.8726121651083
 20
113.8541562906359
 30
0.0
 10
214.8232063793788
 20
113.8971465061739
 30
0.0
 10
214.7550132892233
 20
113.9566006218488
 30
0.0
 10
214.7373442518116
 20
113.9720857027404
 30
0.0
 10
214.7352942083905
 20
113.973879485014
 30
0.0
 10
214.7511749501751
 20
113.9599595283037
 30
0.0
 10
214.8152931495694
 20
113.9040352917582
 30
0.0
 10
214.8628448893723
 20
113.8626300554855
 30
0.0
 10
214.9865342257092
 20
113.7558563301833
 30
0.0
 10
215.0625507288111
 20
113.6906033733909
 30
0.0
 10
215.2354339532357
 20
113.5441468949994
 30
0.0
 10
215.3334482684943
 20
113.4619587222244
 30
0.0
 10
215.6547774952322
 20
113.1978084629383
 30
0.0
 10
215.8991722065412
 20
113.0022887500692
 30
0.0
 10
216.1747188001672
 20
112.8014513835414
 30
0.0
  0
ARC
  5
125
330
1F
100
AcDbEntity
  8
0
  6
HIDDEN
 62
     7
370
     0
100
AcDbCircle
 10
208.236271613
 20
109.9730242588
 30
0.0
 40
3.500000000000005
100
AcDbArc
 50
233.9128529343
 51
306.0871470657
  0
ARC
  5
126
330
1F
100
AcDbEntity
  8
0
  6
HIDDEN
 62
     7
370
     0
100
AcDbCircle
 10
218.236271613
 20
109.9730242588
 30
0.0
 40
3.499999999999994
100
AcDbArc
 50
233.9128529343
 51
306.0871470657
  0
ARC
  5
127
330
1F
100
AcDbEntity
  8
0
  6
HIDDEN
 62
     7
370
     0
100
AcDbCircle
 10
228.236271613
 20
109.9730242588
 30
0.0
 40
3.499999999999994
100
AcDbArc
 50
233.9128529343
 51
306.0871470657
  0
ARC
  5
128
330
1F
100
AcDbEntity
  8
0
  6
HIDDEN
 62
     7
370
     0
100
AcDbCircle
 10
228.236271613
 20
109.9730242588
 30
0.0
 40
3.499999999999999
100
AcDbArc
 50
53.9128529343
 51
126.0871470657
  0
ARC
  5
129
330
1F
100
AcDbEntity
  8
0
  6
HIDDEN
 62
     7
370
     0
100
AcDbCircle
 10
218.236271613
 20
109.9730242588
 30
0.0
 40
3.499999999999999
100
AcDbArc
 50
53.9128529343
 51
126.0871470657
  0
ARC
  5
12A
330
1F
100
AcDbEntity
  8
0
  6
HIDDEN
 62
     7
370
     0
100
AcDbCircle
 10
208.236271613
 20
109.9730242588
 30
0.0
 40
3.499999999999999
100
AcDbArc
 50
53.9128529343
 51
126.0871470657
  0
LINE
  5
12B
330
1F
100
AcDbEntity
  8
0
  6
HIDDEN
 62
     7
370
     0
100
AcDbLine
 10
149.1862717054
 20
94.1827070512
 30
0.0
 11
155.2862715876
 21
94.1827070512
 31
0.0
  0
LINE
  5
12C
330
1F
100
AcDbEntity
  8
0
  6
HIDDEN
 62
     7
370
     0
100
AcDbLine
 10
141.7362722537
 20
94.3481602319
 30
0.0
 11
141.7362722537
 21
95.9730238267
 31
0.0
  0
SPLINE
  5
12D
330
1F
100
AcDbEntity
  8
0
  6
HIDDEN
 62
     7
370
     0
100
AcDbSpline
210
0.0
220
0.0
230
1.0
 70
     8
 71
     3
 72
     8
 73
     4
 74
     0
 42
0.00000001
 43
0.00000001
 12
1.0
 22
0.0
 32
0.0
 13
1.0
 23
0.0
 33
0.0
 40
0.0
 40
0.0
 40
0.0
 40
0.0
 40
1.0
 40
1.0
 40
1.0
 40
1.0
 10
137.7362716129761
 20
94.44022750038476
 30
0.0
 10
137.2152193705153
 20
94.7152576270415
 30
0.0
 10
136.7104830234137
 20
94.97644440119181
 30
0.0
 10
136.2362716129761
 20
95.21775527515078
 30
0.0
  0
LINE
  5
12E
330
1F
100
AcDbEntity
  8
0
  6
HIDDEN
 62
     7
370
     0
100
AcDbLine
 10
136.2362722835
 20
95.2177556776
 30
0.0
 11
136.2362722835
 21
95.9730238267
 31
0.0
  0
LINE
  5
12F
330
1F
100
AcDbEntity
  8
0
  6
HIDDEN
 62
     7
370
     0
100
AcDbLine
 10
149.1862717054
 20
123.9730246909
 30
0.0
 11
155.2862715876
 21
123.9730246909
 31
0.0
  0
LINE
  5
130
330
1F
100
AcDbEntity
  8
0
  6
HIDDEN
 62
     7
370
     0
100
AcDbLine
 10
176.2362713895
 20
85.4730248995
 30
0.0
 11
180.2362720451
 21
85.4730248995
 31
0.0
  0
LINE
  5
131
330
1F
100
AcDbEntity
  8
0
  6
HIDDEN
 62
     7
370
     0
100
AcDbLine
 10
136.2362722835
 20
98.2123461165
 30
0.0
 11
136.2362722835
 21
95.2177556776
 31
0.0
  0
LINE
  5
132
330
1F
100
AcDbEntity
  8
0
  6
HIDDEN
 62
     7
370
     0
100
AcDbLine
 10
136.2362722835
 20
125.9135991879
 30
0.0
 11
136.2362722835
 21
105.793127472
 31
0.0
  0
LINE
  5
133
330
1F
100
AcDbEntity
  8
0
  6
HIDDEN
 62
     7
370
     0
100
AcDbLine
 10
137.7362715981
 20
126.6635988452
 30
0.0
 11
137.7362715981
 21
105.793127472
 31
0.0
  0
LINE
  5
134
330
1F
100
AcDbEntity
  8
0
  6
HIDDEN
 62
     7
370
     0
100
AcDbLine
 10
164.0362716249
 20
127.2358239241
 30
0.0
 11
164.0362716249
 21
105.793127472
 31
0.0
  0
LINE
  5
135
330
1F
100
AcDbEntity
  8
0
  6
HIDDEN
 62
     7
370
     0
100
AcDbLine
 10
166.036271618
 20
126.7791294106
 30
0.0
 11
166.036271618
 21
106.7526833233
 31
0.0
  0
LINE
  5
136
330
1F
100
AcDbEntity
  8
0
  6
HIDDEN
 62
     7
370
     0
100
AcDbLine
 10
136.2362722835
 20
105.793127472
 30
0.0
 11
136.2362722835
 21
98.2123461165
 31
0.0
  0
LINE
  5
137
330
1F
100
AcDbEntity
  8
0
  6
HIDDEN
 62
     7
370
     0
100
AcDbLine
 10
137.7362715981
 20
105.793127472
 30
0.0
 11
137.7362715981
 21
97.4623464592
 31
0.0
  0
LINE
  5
138
330
1F
100
AcDbEntity
  8
0
  6
HIDDEN
 62
     7
370
     0
100
AcDbLine
 10
164.0362716249
 20
105.793127472
 30
0.0
 11
164.0362716249
 21
96.8901223116
 31
0.0
  0
SPLINE
  5
139
330
1F
100
AcDbEntity
  8
0
  6
HIDDEN
 62
     7
370
     0
100
AcDbSpline
210
0.0
220
0.0
230
1.0
 70
     8
 71
     3
 72
    18
 73
    14
 74
     0
 42
0.00000001
 43
0.00000001
 12
1.0
 22
0.0
 32
0.0
 13
1.0
 23
0.0
 33
0.0
 40
0.0
 40
0.0
 40
0.0
 40
0.0
 40
0.2499999999999995
 40
0.2499999999999995
 40
0.3749999999999996
 40
0.3749999999999996
 40
0.4999999999999997
 40
0.4999999999999997
 40
0.6249999999999998
 40
0.6249999999999998
 40
0.7499999999999998
 40
0.7499999999999998
 40
1.0
 40
1.0
 40
1.0
 40
1.0
 10
164.9149512694164
 20
104.8385423254721
 30
0.0
 10
164.7796656631141
 20
104.1227689060463
 30
0.0
 10
164.6784979168712
 20
103.4219587590798
 30
0.0
 10
164.5756365740022
 20
102.3935473697611
 30
0.0
 10
164.5495337284789
 20
102.0536644114829
 30
0.0
 10
164.5146437449341
 20
101.3858526568536
 30
0.0
 10
164.5060574866441
 20
101.0626608762984
 30
0.0
 10
164.5059577770784
 20
100.4370108114385
 30
0.0
 10
164.514446148227
 20
100.1345544344285
 30
0.0
 10
164.5485895277476
 20
99.5504045136285
 30
0.0
 10
164.5743865096014
 20
99.26764041693399
 30
0.0
 10
164.6777876409894
 20
98.45894561800813
 30
0.0
 10
164.7796456331607
 20
97.98044400591601
 30
0.0
 10
164.9149512694164
 20
97.56070187279478
 30
0.0
  0
CIRCLE
  5
13A
330
1F
100
AcDbEntity
  8
0
  6
HIDDEN
 62
     7
370
     0
100
AcDbCircle
 10
218.236271613
 20
109.9730242588
 30
0.0
 40
3.5
  0
CIRCLE
  5
13B
330
1F
100
AcDbEntity
  8
0
  6
HIDDEN
 62
     7
370
     0
100
AcDbCircle
 10
208.236271613
 20
109.9730242588
 30
0.0
 40
3.500000000000014
  0
CIRCLE
  5
13C
330
1F
100
AcDbEntity
  8
0
  6
HIDDEN
 62
     7
370
     0
100
AcDbCircle
 10
228.236271613
 20
109.9730242588
 30
0.0
 40
3.5
  0
LINE
  5
13D
330
1F
100
AcDbEntity
  8
0
  6
HIDDEN
 62
     7
370
     0
100
AcDbLine
 10
166.236271613
 20
90.4230248727
 30
0.0
 11
166.3291648334
 21
90.515916849
 31
0.0
  0
LINE
  5
13E
330
1F
100
AcDbEntity
  8
0
  6
HIDDEN
 62
     7
370
     0
100
AcDbLine
 10
166.3291648334
 20
129.4301316686
 30
0.0
 11
166.236271613
 21
129.5230236449
 31
0.0
  0
ARC
  5
13F
330
1F
100
AcDbEntity
  8
0
  6
HIDDEN
 62
     7
370
     0
100
AcDbCircle
 10
165.6220580506
 20
91.2230242588
 30
0.0
 40
1.0
100
AcDbArc
 50
315.0
 51
0.0
  0
ARC
  5
140
330
1F
100
AcDbEntity
  8
0
  6
HIDDEN
 62
     7
370
     0
100
AcDbCircle
 10
165.6220580506
 20
91.2230242588
 30
0.0
 40
1.0
100
AcDbArc
 50
0.0
 51
52.1052014664
  0
ARC
  5
141
330
1F
100
AcDbEntity
  8
0
  6
HIDDEN
 62
     7
370
     0
100
AcDbCircle
 10
165.6220580506
 20
128.7230242588
 30
0.0
 40
1.000000000000008
100
AcDbArc
 50
343.125
 51
45.0
  0
ARC
  5
142
330
1F
100
AcDbEntity
  8
0
  6
HIDDEN
 62
     7
370
     0
100
AcDbCircle
 10
165.6220580506
 20
128.7230242588
 30
0.0
 40
0.9999999999999998
100
AcDbArc
 50
307.8947985336
 51
343.125
  0
LINE
  5
143
330
1F
100
AcDbEntity
  8
0
  6
HIDDEN
 62
     7
370
     0
100
AcDbLine
 10
166.6220580488
 20
91.2230235137
 30
0.0
 11
166.6220580488
 21
128.7230250039
 31
0.0
  0
LINE
  5
144
330
1F
100
AcDbEntity
  8
0
  6
HIDDEN
 62
     7
370
     0
100
AcDbLine
 10
166.6220580488
 20
91.2230235137
 30
0.0
 11
166.6220580488
 21
128.7230250039
 31
0.0
  0
LINE
  5
145
330
1F
100
AcDbEntity
  8
0
  6
HIDDEN
 62
     7
370
     0
100
AcDbLine
 10
142.7362724176
 20
97.9730241545
 30
0.0
 11
143.7429911426
 21
97.9730241545
 31
0.0
  0
LINE
  5
146
330
1F
100
AcDbEntity
  8
0
  6
HIDDEN
 62
     7
370
     0
100
AcDbLine
 10
143.7429911426
 20
121.9730243631
 30
0.0
 11
142.7362724176
 21
121.9730243631
 31
0.0
  0
ARC
  5
147
330
1F
100
AcDbEntity
  8
0
  6
HIDDEN
 62
     7
370
     0
100
AcDbCircle
 10
143.742991125
 20
99.4730242588
 30
0.0
 40
1.500000000000012
100
AcDbArc
 50
270.0
 51
315.0
  0
ARC
  5
148
330
1F
100
AcDbEntity
  8
0
  6
HIDDEN
 62
     7
370
     0
100
AcDbCircle
 10
143.742991125
 20
120.4730242588
 30
0.0
 40
1.500000000000002
100
AcDbArc
 50
45.0
 51
90.0
  0
ARC
  5
149
330
1F
100
AcDbEntity
  8
0
  6
HIDDEN
 62
     7
370
     0
100
AcDbCircle
 10
142.736271613
 20
99.4730242588
 30
0.0
 40
1.5
100
AcDbArc
 50
191.0958032831
 51
270.0
  0
ARC
  5
14A
330
1F
100
AcDbEntity
  8
0
  6
HIDDEN
 62
     7
370
     0
100
AcDbCircle
 10
142.736271613
 20
120.4730242588
 30
0.0
 40
1.5
100
AcDbArc
 50
90.0
 51
168.9041967169
  0
LINE
  5
14B
330
1F
100
AcDbEntity
  8
0
  6
HIDDEN
 62
     7
370
     0
100
AcDbLine
 10
136.2362722835
 20
98.2096117534
 30
0.0
 11
137.2643108449
 21
98.8031510808
 31
0.0
  0
LINE
  5
14C
330
1F
100
AcDbEntity
  8
0
  6
HIDDEN
 62
     7
370
     0
100
AcDbLine
 10
137.2643108449
 20
121.1428974368
 30
0.0
 11
136.2362722835
 21
121.7364367642
 31
0.0
  0
LINE
  5
14D
330
1F
100
AcDbEntity
  8
0
  6
HIDDEN
 62
     7
370
     0
100
AcDbLine
 10
144.8036520711
 20
98.4123644032
 30
0.0
 11
145.8643111369
 21
99.4730244004
 31
0.0
  0
LINE
  5
14E
330
1F
100
AcDbEntity
  8
0
  6
HIDDEN
 62
     7
370
     0
100
AcDbLine
 10
145.8643111369
 20
120.4730241172
 30
0.0
 11
144.8036520711
 21
121.5336841144
 31
0.0
  0
LINE
  5
14F
330
1F
100
AcDbEntity
  8
0
  6
HIDDEN
 62
     7
370
     0
100
AcDbLine
 10
137.2643108449
 20
98.8031510808
 30
0.0
 11
139.764312186
 21
99.4730244004
 31
0.0
  0
LINE
  5
150
330
1F
100
AcDbEntity
  8
0
  6
HIDDEN
 62
     7
370
     0
100
AcDbLine
 10
139.764312186
 20
120.4730241172
 30
0.0
 11
137.2643108449
 21
121.1428974368
 31
0.0
  0
LINE
  5
151
330
1F
100
AcDbEntity
  8
0
  6
HIDDEN
 62
     7
370
     0
100
AcDbLine
 10
141.2643115005
 20
120.7616996564
 30
0.0
 11
140.7643123499
 21
120.4730241172
 31
0.0
  0
LINE
  5
152
330
1F
100
AcDbEntity
  8
0
  6
HIDDEN
 62
     7
370
     0
100
AcDbLine
 10
140.7643123499
 20
99.4730244004
 30
0.0
 11
141.2643115005
 21
99.1843488612
 31
0.0
  0
LINE
  5
153
330
1F
100
AcDbEntity
  8
0
  6
HIDDEN
 62
     7
370
     0
100
AcDbLine
 10
155.2513190514
 20
99.4730244004
 30
0.0
 11
155.7362717545
 21
99.4730244004
 31
0.0
  0
LINE
  5
154
330
1F
100
AcDbEntity
  8
0
  6
HIDDEN
 62
     7
370
     0
100
AcDbLine
 10
145.8643111369
 20
99.4730244004
 30
0.0
 11
149.2091114602
 21
99.4730244004
 31
0.0
  0
LINE
  5
155
330
1F
100
AcDbEntity
  8
0
  6
HIDDEN
 62
     7
370
     0
100
AcDbLine
 10
149.2212242416
 20
120.4730241172
 30
0.0
 11
145.8643111369
 21
120.4730241172
 31
0.0
  0
LINE
  5
156
330
1F
100
AcDbEntity
  8
0
  6
HIDDEN
 62
     7
370
     0
100
AcDbLine
 10
155.7362717545
 20
120.4730241172
 30
0.0
 11
155.2634318328
 21
120.4730241172
 31
0.0
  0
LINE
  5
157
330
1F
100
AcDbEntity
  8
0
  6
HIDDEN
 62
     7
370
     0
100
AcDbLine
 10
139.764312186
 20
99.4730244004
 30
0.0
 11
140.7643123499
 21
99.4730244004
 31
0.0
  0
LINE
  5
158
330
1F
100
AcDbEntity
  8
0
  6
HIDDEN
 62
     7
370
     0
100
AcDbLine
 10
140.7643123499
 20
120.4730241172
 30
0.0
 11
139.764312186
 21
120.4730241172
 31
0.0
  0
ARC
  5
159
330
1F
100
AcDbEntity
  8
0
  6
HIDDEN
 62
     7
370
     0
100
AcDbCircle
 10
155.736271613
 20
99.9730242588
 30
0.0
 40
0.5000000000000284
100
AcDbArc
 50
270.0
 51
0.0
  0
ARC
  5
15A
330
1F
100
AcDbEntity
  8
0
  6
HIDDEN
 62
     7
370
     0
100
AcDbCircle
 10
155.736271613
 20
119.9730242588
 30
0.0
 40
0.5000000000000284
100
AcDbArc
 50
0.0
 51
90.0
  0
LINE
  5
15B
330
1F
100
AcDbEntity
  8
0
  6
HIDDEN
 62
     7
370
     0
100
AcDbLine
 10
156.2362718365
 20
101.7230243035
 30
0.0
 11
157.2362720004
 21
102.7230244674
 31
0.0
  0
LINE
  5
15C
330
1F
100
AcDbEntity
  8
0
  6
HIDDEN
 62
     7
370
     0
100
AcDbLine
 10
157.2362720004
 20
117.2230240502
 30
0.0
 11
156.2362718365
 21
118.2230242141
 31
0.0
  0
LINE
  5
15D
330
1F
100
AcDbEntity
  8
0
  6
HIDDEN
 62
     7
370
     0
100
AcDbLine
 10
181.2362712777
 20
102.7230244674
 30
0.0
 11
182.588207998
 21
104.9730243706
 31
0.0
  0
LINE
  5
15E
330
1F
100
AcDbEntity
  8
0
  6
HIDDEN
 62
     7
370
     0
100
AcDbLine
 10
182.588207998
 20
114.973024147
 30
0.0
 11
181.2362712777
 21
117.2230240502
 31
0.0
  0
LINE
  5
15F
330
1F
100
AcDbEntity
  8
0
  6
HIDDEN
 62
     7
370
     0
100
AcDbLine
 10
157.2362720004
 20
102.7230244674
 30
0.0
 11
181.2362712777
 21
102.7230244674
 31
0.0
  0
LINE
  5
160
330
1F
100
AcDbEntity
  8
0
  6
HIDDEN
 62
     7
370
     0
100
AcDbLine
 10
181.2362712777
 20
117.2230240502
 30
0.0
 11
157.2362720004
 21
117.2230240502
 31
0.0
  0
LINE
  5
161
330
1F
100
AcDbEntity
  8
0
  6
HIDDEN
 62
     7
370
     0
100
AcDbLine
 10
182.588207998
 20
104.9730243706
 30
0.0
 11
202.2362700633
 21
104.9730243706
 31
0.0
  0
LINE
  5
162
330
1F
100
AcDbEntity
  8
0
  6
HIDDEN
 62
     7
370
     0
100
AcDbLine
 10
202.2362700633
 20
114.973024147
 30
0.0
 11
182.588207998
 21
114.973024147
 31
0.0
  0
LINE
  5
163
330
1F
100
AcDbEntity
  8
0
  6
HIDDEN
 62
     7
370
     0
100
AcDbLine
 10
202.2362700633
 20
104.9730243706
 30
0.0
 11
202.8371333114
 21
105.9730240688
 31
0.0
  0
LINE
  5
164
330
1F
100
AcDbEntity
  8
0
  6
HIDDEN
 62
     7
370
     0
100
AcDbLine
 10
202.8371333114
 20
113.9730244488
 30
0.0
 11
202.2362700633
 21
114.973024147
 31
0.0
  0
LINE
  5
165
330
1F
100
AcDbEntity
  8
0
  6
HIDDEN
 62
     7
370
     0
100
AcDbLine
 10
222.7362706295
 20
92.9730233349
 30
0.0
 11
221.7362723282
 21
93.9730234988
 31
0.0
  0
LINE
  5
166
330
1F
100
AcDbEntity
  8
0
  6
HIDDEN
 62
     7
370
     0
100
AcDbLine
 10
214.7362730435
 20
93.9730234988
 30
0.0
 11
213.7362710169
 21
92.9730233349
 31
0.0
  0
LINE
  5
167
330
1F
100
AcDbEntity
  8
0
  6
HIDDEN
 62
     7
370
     0
100
AcDbLine
 10
212.7362727157
 20
92.9730233349
 30
0.0
 11
211.7362706891
 21
93.9730234988
 31
0.0
  0
LINE
  5
168
330
1F
100
AcDbEntity
  8
0
  6
HIDDEN
 62
     7
370
     0
100
AcDbLine
 10
204.7362714044
 20
93.9730234988
 30
0.0
 11
203.7362731031
 21
92.9730233349
 31
0.0
  0
LINE
  5
169
330
1F
100
AcDbEntity
  8
0
  6
HIDDEN
 62
     7
370
     0
100
AcDbLine
 10
232.7362722686
 20
92.9730233349
 30
0.0
 11
231.7362702421
 21
93.9730234988
 31
0.0
  0
LINE
  5
16A
330
1F
100
AcDbEntity
  8
0
  6
HIDDEN
 62
     7
370
     0
100
AcDbLine
 10
224.7362709573
 20
93.9730234988
 30
0.0
 11
223.7362726561
 21
92.9730233349
 31
0.0
  0
ARC
  5
16B
330
1F
100
AcDbEntity
  8
0
  6
HIDDEN
 62
     7
370
     0
100
AcDbCircle
 10
235.936271613
 20
114.2730242588
 30
0.0
 40
0.2999999999999829
100
AcDbArc
 50
270.0
 51
0.0
  0
ARC
  5
16C
330
1F
100
AcDbEntity
  8
0
  6
HIDDEN
 62
     7
370
     0
100
AcDbCircle
 10
235.936271613
 20
105.6730242588
 30
0.0
 40
0.2999999999999972
100
AcDbArc
 50
0.0
 51
90.0
  0
LINE
  5
16D
330
1F
100
AcDbEntity
  8
0
  6
HIDDEN
 62
     7
370
     0
100
AcDbLine
 10
213.7362710169
 20
126.9730251827
 30
0.0
 11
214.7362730435
 21
125.9730250188
 31
0.0
  0
LINE
  5
16E
330
1F
100
AcDbEntity
  8
0
  6
HIDDEN
 62
     7
370
     0
100
AcDbLine
 10
221.7362723282
 20
125.9730250188
 30
0.0
 11
222.7362706295
 21
126.9730251827
 31
0.0
  0
LINE
  5
16F
330
1F
100
AcDbEntity
  8
0
  6
HIDDEN
 62
     7
370
     0
100
AcDbLine
 10
203.7362731031
 20
126.9730251827
 30
0.0
 11
204.7362714044
 21
125.9730250188
 31
0.0
  0
LINE
  5
170
330
1F
100
AcDbEntity
  8
0
  6
HIDDEN
 62
     7
370
     0
100
AcDbLine
 10
211.7362706891
 20
125.9730250188
 30
0.0
 11
212.7362727157
 21
126.9730251827
 31
0.0
  0
LINE
  5
171
330
1F
100
AcDbEntity
  8
0
  6
HIDDEN
 62
     7
370
     0
100
AcDbLine
 10
223.7362726561
 20
126.9730251827
 30
0.0
 11
224.7362709573
 21
125.9730250188
 31
0.0
  0
LINE
  5
172
330
1F
100
AcDbEntity
  8
0
  6
HIDDEN
 62
     7
370
     0
100
AcDbLine
 10
231.7362702421
 20
125.9730250188
 30
0.0
 11
232.7362722686
 21
126.9730251827
 31
0.0
  0
LINE
  5
173
330
1F
100
AcDbEntity
  8
0
  6
HIDDEN
 62
     7
370
     0
100
AcDbLine
 10
204.7695568732
 20
113.9730244488
 30
0.0
 11
202.8371333114
 21
113.9730244488
 31
0.0
  0
LINE
  5
174
330
1F
100
AcDbEntity
  8
0
  6
HIDDEN
 62
     7
370
     0
100
AcDbLine
 10
214.769554787
 20
113.9730244488
 30
0.0
 11
211.7314203611
 21
113.9730244488
 31
0.0
  0
LINE
  5
175
330
1F
100
AcDbEntity
  8
0
  6
HIDDEN
 62
     7
370
     0
100
AcDbLine
 10
224.7695564261
 20
113.9730244488
 30
0.0
 11
221.731418275
 21
113.9730244488
 31
0.0
  0
LINE
  5
176
330
1F
100
AcDbEntity
  8
0
  6
HIDDEN
 62
     7
370
     0
100
AcDbLine
 10
235.9362742833
 20
113.9730244488
 30
0.0
 11
231.7314199141
 21
113.9730244488
 31
0.0
  0
LINE
  5
177
330
1F
100
AcDbEntity
  8
0
  6
HIDDEN
 62
     7
370
     0
100
AcDbLine
 10
231.7314199141
 20
105.9730240688
 30
0.0
 11
235.9362742833
 21
105.9730240688
 31
0.0
  0
LINE
  5
178
330
1F
100
AcDbEntity
  8
0
  6
HIDDEN
 62
     7
370
     0
100
AcDbLine
 10
221.731418275
 20
105.9730240688
 30
0.0
 11
224.7695564261
 21
105.9730240688
 31
0.0
  0
LINE
  5
179
330
1F
100
AcDbEntity
  8
0
  6
HIDDEN
 62
     7
370
     0
100
AcDbLine
 10
211.7314203611
 20
105.9730240688
 30
0.0
 11
214.769554787
 21
105.9730240688
 31
0.0
  0
LINE
  5
17A
330
1F
100
AcDbEntity
  8
0
  6
HIDDEN
 62
     7
370
     0
100
AcDbLine
 10
202.8371333114
 20
105.9730240688
 30
0.0
 11
204.7695568732
 21
105.9730240688
 31
0.0
  0
LINE
  5
17B
330
1F
100
AcDbEntity
  8
0
  6
HIDDEN
 62
     7
370
     0
100
AcDbLine
 10
211.7362706891
 20
93.9730234988
 30
0.0
 11
211.7362706891
 21
105.9772285246
 31
0.0
  0
LINE
  5
17C
330
1F
100
AcDbEntity
  8
0
  6
HIDDEN
 62
     7
370
     0
100
AcDbLine
 10
204.7362714044
 20
106.0021097385
 30
0.0
 11
204.7362714044
 21
93.9730234988
 31
0.0
  0
LINE
  5
17D
330
1F
100
AcDbEntity
  8
0
  6
HIDDEN
 62
     7
370
     0
100
AcDbLine
 10
221.7362723282
 20
93.9730234988
 30
0.0
 11
221.7362723282
 21
105.9772285246
 31
0.0
  0
LINE
  5
17E
330
1F
100
AcDbEntity
  8
0
  6
HIDDEN
 62
     7
370
     0
100
AcDbLine
 10
214.7362730435
 20
106.0021097385
 30
0.0
 11
214.7362730435
 21
93.9730234988
 31
0.0
  0
LINE
  5
17F
330
1F
100
AcDbEntity
  8
0
  6
HIDDEN
 62
     7
370
     0
100
AcDbLine
 10
231.7362702421
 20
93.9730234988
 30
0.0
 11
231.7362702421
 21
105.9772285246
 31
0.0
  0
LINE
  5
180
330
1F
100
AcDbEntity
  8
0
  6
HIDDEN
 62
     7
370
     0
100
AcDbLine
 10
224.7362709573
 20
106.0021097385
 30
0.0
 11
224.7362709573
 21
93.9730234988
 31
0.0
  0
LINE
  5
181
330
1F
100
AcDbEntity
  8
0
  6
HIDDEN
 62
     7
370
     0
100
AcDbLine
 10
224.7362709573
 20
125.9730250188
 30
0.0
 11
224.7362709573
 21
113.9439387791
 31
0.0
  0
LINE
  5
182
330
1F
100
AcDbEntity
  8
0
  6
HIDDEN
 62
     7
370
     0
100
AcDbLine
 10
231.7362702421
 20
113.968819993
 30
0.0
 11
231.7362702421
 21
125.9730250188
 31
0.0
  0
LINE
  5
183
330
1F
100
AcDbEntity
  8
0
  6
HIDDEN
 62
     7
370
     0
100
AcDbLine
 10
214.7362730435
 20
125.9730250188
 30
0.0
 11
214.7362730435
 21
113.9439387791
 31
0.0
  0
LINE
  5
184
330
1F
100
AcDbEntity
  8
0
  6
HIDDEN
 62
     7
370
     0
100
AcDbLine
 10
221.7362723282
 20
113.968819993
 30
0.0
 11
221.7362723282
 21
125.9730250188
 31
0.0
  0
LINE
  5
185
330
1F
100
AcDbEntity
  8
0
  6
HIDDEN
 62
     7
370
     0
100
AcDbLine
 10
204.7362714044
 20
125.9730250188
 30
0.0
 11
204.7362714044
 21
113.9439387791
 31
0.0
  0
LINE
  5
186
330
1F
100
AcDbEntity
  8
0
  6
HIDDEN
 62
     7
370
     0
100
AcDbLine
 10
211.7362706891
 20
113.968819993
 30
0.0
 11
211.7362706891
 21
125.9730250188
 31
0.0
  0
LINE
  5
187
330
1F
100
AcDbEntity
  8
0
  6
HIDDEN
 62
     7
370
     0
100
AcDbLine
 10
155.6656467697
 20
93.8033309378
 30
0.0
 11
155.2862715876
 21
94.1827070512
 31
0.0
  0
LINE
  5
188
330
1F
100
AcDbEntity
  8
0
  6
HIDDEN
 62
     7
370
     0
100
AcDbLine
 10
149.1862717054
 20
94.1827070512
 30
0.0
 11
148.9602825573
 21
93.9567179032
 31
0.0
  0
LINE
  5
189
330
1F
100
AcDbEntity
  8
0
  6
HIDDEN
 62
     7
370
     0
100
AcDbLine
 10
143.6069100133
 20
94.1023860671
 30
0.0
 11
141.7362722537
 21
95.9730238267
 31
0.0
  0
LINE
  5
18A
330
1F
100
AcDbEntity
  8
0
  6
HIDDEN
 62
     7
370
     0
100
AcDbLine
 10
141.7362722537
 20
95.9730238267
 30
0.0
 11
136.2362722835
 21
95.9730238267
 31
0.0
  0
LINE
  5
18B
330
1F
100
AcDbEntity
  8
0
  6
HIDDEN
 62
     7
370
     0
100
AcDbLine
 10
155.2862715876
 20
123.9730246909
 30
0.0
 11
152.2362711808
 21
125.8056495883
 31
0.0
  0
LINE
  5
18C
330
1F
100
AcDbEntity
  8
0
  6
HIDDEN
 62
     7
370
     0
100
AcDbLine
 10
152.2362711808
 20
125.8056495883
 30
0.0
 11
149.1862717054
 21
123.9730246909
 31
0.0
  0
LINE
  5
18D
330
1F
100
AcDbEntity
  8
0
  6
HIDDEN
 62
     7
370
     0
100
AcDbLine
 10
155.2862715876
 20
120.466556082
 30
0.0
 11
155.2862715876
 21
123.9730246909
 31
0.0
  0
LINE
  5
18E
330
1F
100
AcDbEntity
  8
0
  6
HIDDEN
 62
     7
370
     0
100
AcDbLine
 10
149.1862717054
 20
123.9730246909
 30
0.0
 11
149.1862717054
 21
120.4630189188
 31
0.0
  0
LINE
  5
18F
330
1F
100
AcDbEntity
  8
0
  6
HIDDEN
 62
     7
370
     0
100
AcDbLine
 10
155.2862715876
 20
94.1827070512
 30
0.0
 11
155.2862715876
 21
99.4830295988
 31
0.0
  0
LINE
  5
190
330
1F
100
AcDbEntity
  8
0
  6
HIDDEN
 62
     7
370
     0
100
AcDbLine
 10
149.1862717054
 20
99.4794924356
 30
0.0
 11
149.1862717054
 21
94.1827070512
 31
0.0
  0
LINE
  5
191
330
1F
100
AcDbEntity
  8
0
  6
HIDDEN
 62
     7
370
     0
100
AcDbLine
 10
180.2362720451
 20
85.4730248995
 30
0.0
 11
178.2362717173
 21
86.6747458078
 31
0.0
  0
LINE
  5
192
330
1F
100
AcDbEntity
  8
0
  6
HIDDEN
 62
     7
370
     0
100
AcDbLine
 10
178.2362717173
 20
86.6747458078
 30
0.0
 11
176.2362713895
 21
85.4730248995
 31
0.0
  0
LINE
  5
193
330
1F
100
AcDbEntity
  8
0
  6
HIDDEN
 62
     7
370
     0
100
AcDbLine
 10
176.2362713895
 20
85.4730248995
 30
0.0
 11
176.2362713895
 21
84.9730238863
 31
0.0
  0
LINE
  5
194
330
1F
100
AcDbEntity
  8
0
  6
HIDDEN
 62
     7
370
     0
100
AcDbLine
 10
180.2362720451
 20
84.9730238863
 30
0.0
 11
180.2362720451
 21
85.4730248995
 31
0.0
  0
DIMENSION
  5
195
330
1F
100
AcDbEntity
  8
VERMASSUNG
100
AcDbDimension
  2
_D
 10
236.236271613
 20
142.6233881363
 30
0.0
 11
198.2249711627
 21
142.6233881363
 31
0.0
 70
   160
  1
<>
 71
     2
 42
-1.0
  3
SLDDIMSTYLE0
100
AcDbAlignedDimension
 13
166.236271613
 23
134.6730242588
 33
0.0
 14
236.236271613
 24
125.9730242588
 34
0.0
100
AcDbRotatedDimension
  0
DIMENSION
  5
1A0
330
1F
100
AcDbEntity
  8
VERMASSUNG
100
AcDbDimension
  2
_D_1
 10
236.236271613
 20
150.9730242588
 30
0.0
 11
186.3145995769
 21
150.9730242588
 31
0.0
 70
   160
  1
<>
 71
     2
 42
-1.0
  3
SLDDIMSTYLE0
100
AcDbAlignedDimension
 13
136.236271613
 23
125.9135991779
 33
0.0
 14
236.236271613
 24
125.9730242588
 34
0.0
100
AcDbRotatedDimension
  0
DIMENSION
  5
1AA
330
1F
100
AcDbEntity
  8
VERMASSUNG
100
AcDbDimension
  2
_D_2
 10
252.236271613
 20
92.9730242588
 30
0.0
 11
252.236271613
 21
110.3216397648
 31
0.0
 70
   160
  1
%%c<>
 71
     2
 42
-1.0
  3
SLDDIMSTYLE0
100
AcDbAlignedDimension
 13
235.236271613
 23
126.9730242588
 33
0.0
 14
235.236271613
 24
92.9730242588
 34
0.0
 50
90.0
100
AcDbRotatedDimension
  0
DIMENSION
  5
1B5
330
1F
100
AcDbEntity
  8
VERMASSUNG
100
AcDbDimension
  2
_D_3
 10
246.236271613
 20
105.9730242588
 30
0.0
 11
246.236271613
 21
110.3216397648
 31
0.0
 70
   160
  1
%%c<>
 71
     2
 42
-1.0
  3
SLDDIMSTYLE1
100
AcDbAlignedDimension
 13
235.936271613
 23
113.9730242588
 33
0.0
 14
235.936271613
 24
105.9730242588
 34
0.0
 50
90.0
100
AcDbRotatedDimension
  0
DIMENSION
  5
1C3
330
1F
100
AcDbEntity
  8
VERMASSUNG
100
AcDbDimension
  2
_D_4
 10
126.236271613
 20
84.9730242588
 30
0.0
 11
126.236271613
 21
109.191873546
 31
0.0
 70
   160
  1
PSC%%c<>
 71
     2
 42
-1.0
  3
SLDDIMSTYLE0
100
AcDbAlignedDimension
 13
166.536271613
 23
134.9730242588
 33
0.0
 14
166.536271613
 24
84.9730242588
 34
0.0
 50
90.0
100
AcDbRotatedDimension
  0
LINE
  5
1CF
330
1F
100
AcDbEntity
  8
VERMASSUNG
  6
CENTERX2
370
     0
100
AcDbLine
 10
132.4031440531
 20
109.9730242588
 30
0.0
 11
239.1192466696
 21
109.9730242588
 31
0.0
  0
LINE
  5
1D0
330
1F
100
AcDbEntity
  8
0
  6
Continuous
 62
     7
370
    15
100
AcDbLine
 10
92.9408153406
 20
113.9730244488
 30
0.0
 11
92.862187501
 21
113.9730244488
 31
0.0
  0
LINE
  5
1D1
330
1F
100
AcDbEntity
  8
0
  6
Continuous
 62
     7
370
    15
100
AcDbLine
 10
92.862187501
 20
105.9730240688
 30
0.0
 11
92.9408153406
 21
105.9730240688
 31
0.0
  0
LINE
  5
1D2
330
1F
100
AcDbEntity
  8
0
  6
Continuous
 62
     7
370
    15
100
AcDbLine
 10
92.9408153406
 20
105.9730240688
 30
0.0
 11
93.3394772819
 21
106.6635243208
 31
0.0
  0
LINE
  5
1D3
330
1F
100
AcDbEntity
  8
0
  6
Continuous
 62
     7
370
    15
100
AcDbLine
 10
93.3394772819
 20
113.2825241968
 30
0.0
 11
92.9408153406
 21
113.9730244488
 31
0.0
  0
LINE
  5
1D4
330
1F
100
AcDbEntity
  8
0
  6
Continuous
 62
     7
370
    15
100
AcDbLine
 10
72.3394761681
 20
93.3716852762
 30
0.0
 11
73.02997642
 21
92.9730233349
 31
0.0
  0
LINE
  5
1D5
330
1F
100
AcDbEntity
  8
0
  6
Continuous
 62
     7
370
    15
100
AcDbLine
 10
79.6489762961
 20
92.9730233349
 30
0.0
 11
80.339476548
 21
93.3716852762
 31
0.0
  0
LINE
  5
1D6
330
1F
100
AcDbEntity
  8
0
  6
Continuous
 62
     7
370
    15
100
AcDbLine
 10
80.339476548
 20
93.3716852762
 30
0.0
 11
80.339476548
 21
93.4503131159
 31
0.0
  0
LINE
  5
1D7
330
1F
100
AcDbEntity
  8
0
  6
Continuous
 62
     7
370
    15
100
AcDbLine
 10
72.3394761681
 20
93.4503131159
 30
0.0
 11
72.3394761681
 21
93.3716852762
 31
0.0
  0
LINE
  5
1D8
330
1F
100
AcDbEntity
  8
0
  6
Continuous
 62
     7
370
    15
100
AcDbLine
 10
72.3394761681
 20
126.5743632414
 30
0.0
 11
72.3394761681
 21
126.4957354017
 31
0.0
  0
LINE
  5
1D9
330
1F
100
AcDbEntity
  8
0
  6
Continuous
 62
     7
370
    15
100
AcDbLine
 10
80.339476548
 20
126.4957354017
 30
0.0
 11
80.339476548
 21
126.5743632414
 31
0.0
  0
LINE
  5
1DA
330
1F
100
AcDbEntity
  8
0
  6
Continuous
 62
     7
370
    15
100
AcDbLine
 10
80.339476548
 20
126.5743632414
 30
0.0
 11
79.6489762961
 21
126.9730251827
 31
0.0
  0
LINE
  5
1DB
330
1F
100
AcDbEntity
  8
0
  6
Continuous
 62
     7
370
    15
100
AcDbLine
 10
73.02997642
 20
126.9730251827
 30
0.0
 11
72.3394761681
 21
126.5743632414
 31
0.0
  0
LINE
  5
1DC
330
1F
100
AcDbEntity
  8
0
  6
Continuous
 62
     7
370
    15
100
AcDbLine
 10
92.9408153406
 20
113.9730244488
 30
0.0
 11
92.9408153406
 21
113.6330137108
 31
0.0
  0
LINE
  5
1DD
330
1F
100
AcDbEntity
  8
0
  6
Continuous
 62
     7
370
    15
100
AcDbLine
 10
92.9408153406
 20
106.3130348068
 30
0.0
 11
92.9408153406
 21
105.9730240688
 31
0.0
  0
LINE
  5
1DE
330
1F
100
AcDbEntity
  8
0
  6
Continuous
 62
     7
370
    15
100
AcDbLine
 10
93.3394772819
 20
113.2825241968
 30
0.0
 11
93.3394772819
 21
106.6635243208
 31
0.0
  0
LINE
  5
1DF
330
1F
100
AcDbEntity
  8
0
  6
Continuous
 62
     7
370
    15
100
AcDbLine
 10
79.6489762961
 20
92.9730233349
 30
0.0
 11
73.02997642
 21
92.9730233349
 31
0.0
  0
LINE
  5
1E0
330
1F
100
AcDbEntity
  8
0
  6
Continuous
 62
     7
370
    15
100
AcDbLine
 10
80.339476548
 20
93.3716852762
 30
0.0
 11
79.99946581
 21
93.3716852762
 31
0.0
  0
LINE
  5
1E1
330
1F
100
AcDbEntity
  8
0
  6
Continuous
 62
     7
370
    15
100
AcDbLine
 10
72.6794869061
 20
93.3716852762
 30
0.0
 11
72.3394761681
 21
93.3716852762
 31
0.0
  0
LINE
  5
1E2
330
1F
100
AcDbEntity
  8
0
  6
Continuous
 62
     7
370
    15
100
AcDbLine
 10
72.3394761681
 20
126.5743632414
 30
0.0
 11
72.6794869061
 21
126.5743632414
 31
0.0
  0
LINE
  5
1E3
330
1F
100
AcDbEntity
  8
0
  6
Continuous
 62
     7
370
    15
100
AcDbLine
 10
79.99946581
 20
126.5743632414
 30
0.0
 11
80.339476548
 21
126.5743632414
 31
0.0
  0
LINE
  5
1E4
330
1F
100
AcDbEntity
  8
0
  6
Continuous
 62
     7
370
    15
100
AcDbLine
 10
73.02997642
 20
126.9730251827
 30
0.0
 11
79.6489762961
 21
126.9730251827
 31
0.0
  0
CIRCLE
  5
1E5
330
1F
100
AcDbEntity
  8
0
  6
Continuous
 62
     7
370
    15
100
AcDbCircle
 10
76.3394763581
 20
109.9730242588
 30
0.0
 40
17.0
  0
CIRCLE
  5
1E6
330
1F
100
AcDbEntity
  8
0
  6
Continuous
 62
     7
370
    15
100
AcDbCircle
 10
76.3394763581
 20
109.9730242588
 30
0.0
 40
4.0
  0
CIRCLE
  5
1E7
330
1F
100
AcDbEntity
  8
0
  6
Continuous
 62
     7
370
    15
100
AcDbCircle
 10
76.3394763581
 20
109.9730242588
 30
0.0
 40
25.00000000000001
  0
LINE
  5
1E8
330
1F
100
AcDbEntity
  8
0
  6
HIDDEN
 62
     7
370
     0
100
AcDbLine
 10
92.9408153406
 20
113.6330137108
 30
0.0
 11
92.9408153406
 21
106.3130348068
 31
0.0
  0
LINE
  5
1E9
330
1F
100
AcDbEntity
  8
0
  6
HIDDEN
 62
     7
370
     0
100
AcDbLine
 10
92.9408153406
 20
105.9730240688
 30
0.0
 11
92.9408153406
 21
113.9730244488
 31
0.0
  0
LINE
  5
1EA
330
1F
100
AcDbEntity
  8
0
  6
HIDDEN
 62
     7
370
     0
100
AcDbLine
 10
82.5894764512
 20
105.9730240688
 30
0.0
 11
82.5894764512
 21
113.9730244488
 31
0.0
  0
LINE
  5
1EB
330
1F
100
AcDbEntity
  8
0
  6
HIDDEN
 62
     7
370
     0
100
AcDbLine
 10
93.3394772819
 20
106.6635243208
 30
0.0
 11
93.3394772819
 21
113.2825241968
 31
0.0
  0
LINE
  5
1EC
330
1F
100
AcDbEntity
  8
0
  6
HIDDEN
 62
     7
370
     0
100
AcDbLine
 10
81.3394762463
 20
107.2230242737
 30
0.0
 11
81.3394762463
 21
112.7230242439
 31
0.0
  0
LINE
  5
1ED
330
1F
100
AcDbEntity
  8
0
  6
HIDDEN
 62
     7
370
     0
100
AcDbLine
 10
93.3394772819
 20
108.8183237318
 30
0.0
 11
93.3394772819
 21
107.6636232049
 31
0.0
  0
LINE
  5
1EE
330
1F
100
AcDbEntity
  8
0
  6
HIDDEN
 62
     7
370
     0
100
AcDbLine
 10
88.3394764624
 20
108.8183237318
 30
0.0
 11
93.3394772819
 21
108.8183237318
 31
0.0
  0
LINE
  5
1EF
330
1F
100
AcDbEntity
  8
0
  6
HIDDEN
 62
     7
370
     0
100
AcDbLine
 10
93.3394772819
 20
111.1277247858
 30
0.0
 11
93.3394772819
 21
108.8183237318
 31
0.0
  0
LINE
  5
1F0
330
1F
100
AcDbEntity
  8
0
  6
HIDDEN
 62
     7
370
     0
100
AcDbLine
 10
88.3394764624
 20
111.1277247858
 30
0.0
 11
88.3394764624
 21
108.8183237318
 31
0.0
  0
LINE
  5
1F1
330
1F
100
AcDbEntity
  8
0
  6
HIDDEN
 62
     7
370
     0
100
AcDbLine
 10
88.3394764624
 20
108.8183237318
 30
0.0
 11
88.3394764624
 21
107.6636232049
 31
0.0
  0
LINE
  5
1F2
330
1F
100
AcDbEntity
  8
0
  6
HIDDEN
 62
     7
370
     0
100
AcDbLine
 10
88.3394764624
 20
111.1277247858
 30
0.0
 11
88.3394764624
 21
112.2824253127
 31
0.0
  0
LINE
  5
1F3
330
1F
100
AcDbEntity
  8
0
  6
HIDDEN
 62
     7
370
     0
100
AcDbLine
 10
88.3394764624
 20
111.1277247858
 30
0.0
 11
93.3394772819
 21
111.1277247858
 31
0.0
  0
LINE
  5
1F4
330
1F
100
AcDbEntity
  8
0
  6
HIDDEN
 62
     7
370
     0
100
AcDbLine
 10
93.3394772819
 20
111.1277247858
 30
0.0
 11
93.3394772819
 21
112.2824253127
 31
0.0
  0
LINE
  5
1F5
330
1F
100
AcDbEntity
  8
0
  6
HIDDEN
 62
     7
370
     0
100
AcDbLine
 10
88.3394764624
 20
107.6636232049
 30
0.0
 11
93.3394772819
 21
107.6636232049
 31
0.0
  0
LINE
  5
1F6
330
1F
100
AcDbEntity
  8
0
  6
HIDDEN
 62
     7
370
     0
100
AcDbLine
 10
88.3394764624
 20
112.2824253127
 30
0.0
 11
93.3394772819
 21
112.2824253127
 31
0.0
  0
LINE
  5
1F7
330
1F
100
AcDbEntity
  8
0
  6
HIDDEN
 62
     7
370
     0
100
AcDbLine
 10
73.02997642
 20
92.9730233349
 30
0.0
 11
79.6489762961
 21
92.9730233349
 31
0.0
  0
LINE
  5
1F8
330
1F
100
AcDbEntity
  8
0
  6
HIDDEN
 62
     7
370
     0
100
AcDbLine
 10
79.99946581
 20
93.3716852762
 30
0.0
 11
72.6794869061
 21
93.3716852762
 31
0.0
  0
LINE
  5
1F9
330
1F
100
AcDbEntity
  8
0
  6
HIDDEN
 62
     7
370
     0
100
AcDbLine
 10
72.3394761681
 20
93.3716852762
 30
0.0
 11
80.339476548
 21
93.3716852762
 31
0.0
  0
LINE
  5
1FA
330
1F
100
AcDbEntity
  8
0
  6
HIDDEN
 62
     7
370
     0
100
AcDbLine
 10
72.3394761681
 20
103.7230241657
 30
0.0
 11
80.339476548
 21
103.7230241657
 31
0.0
  0
LINE
  5
1FB
330
1F
100
AcDbEntity
  8
0
  6
HIDDEN
 62
     7
370
     0
100
AcDbLine
 10
73.589476373
 20
104.9730243706
 30
0.0
 11
79.0894763432
 21
104.9730243706
 31
0.0
  0
LINE
  5
1FC
330
1F
100
AcDbEntity
  8
0
  6
HIDDEN
 62
     7
370
     0
100
AcDbLine
 10
77.494176885
 20
97.9730241545
 30
0.0
 11
75.1847758311
 21
97.9730241545
 31
0.0
  0
LINE
  5
1FD
330
1F
100
AcDbEntity
  8
0
  6
HIDDEN
 62
     7
370
     0
100
AcDbLine
 10
77.494176885
 20
92.9730233349
 30
0.0
 11
75.1847758311
 21
92.9730233349
 31
0.0
  0
LINE
  5
1FE
330
1F
100
AcDbEntity
  8
0
  6
HIDDEN
 62
     7
370
     0
100
AcDbLine
 10
75.1847758311
 20
97.9730241545
 30
0.0
 11
75.1847758311
 21
92.9730233349
 31
0.0
  0
LINE
  5
1FF
330
1F
100
AcDbEntity
  8
0
  6
HIDDEN
 62
     7
370
     0
100
AcDbLine
 10
75.1847758311
 20
97.9730241545
 30
0.0
 11
74.0300753041
 21
97.9730241545
 31
0.0
  0
LINE
  5
200
330
1F
100
AcDbEntity
  8
0
  6
HIDDEN
 62
     7
370
     0
100
AcDbLine
 10
75.1847758311
 20
92.9730233349
 30
0.0
 11
74.0300753041
 21
92.9730233349
 31
0.0
  0
LINE
  5
201
330
1F
100
AcDbEntity
  8
0
  6
HIDDEN
 62
     7
370
     0
100
AcDbLine
 10
77.494176885
 20
97.9730241545
 30
0.0
 11
77.494176885
 21
92.9730233349
 31
0.0
  0
LINE
  5
202
330
1F
100
AcDbEntity
  8
0
  6
HIDDEN
 62
     7
370
     0
100
AcDbLine
 10
77.494176885
 20
97.9730241545
 30
0.0
 11
78.648877412
 21
97.9730241545
 31
0.0
  0
LINE
  5
203
330
1F
100
AcDbEntity
  8
0
  6
HIDDEN
 62
     7
370
     0
100
AcDbLine
 10
77.494176885
 20
92.9730233349
 30
0.0
 11
78.648877412
 21
92.9730233349
 31
0.0
  0
LINE
  5
204
330
1F
100
AcDbEntity
  8
0
  6
HIDDEN
 62
     7
370
     0
100
AcDbLine
 10
74.0300753041
 20
97.9730241545
 30
0.0
 11
74.0300753041
 21
92.9730233349
 31
0.0
  0
LINE
  5
205
330
1F
100
AcDbEntity
  8
0
  6
HIDDEN
 62
     7
370
     0
100
AcDbLine
 10
78.648877412
 20
97.9730241545
 30
0.0
 11
78.648877412
 21
92.9730233349
 31
0.0
  0
LINE
  5
206
330
1F
100
AcDbEntity
  8
0
  6
HIDDEN
 62
     7
370
     0
100
AcDbLine
 10
80.339476548
 20
116.2230243519
 30
0.0
 11
72.3394761681
 21
116.2230243519
 31
0.0
  0
LINE
  5
207
330
1F
100
AcDbEntity
  8
0
  6
HIDDEN
 62
     7
370
     0
100
AcDbLine
 10
79.0894763432
 20
114.973024147
 30
0.0
 11
73.589476373
 21
114.973024147
 31
0.0
  0
LINE
  5
208
330
1F
100
AcDbEntity
  8
0
  6
HIDDEN
 62
     7
370
     0
100
AcDbLine
 10
72.6794869061
 20
126.5743632414
 30
0.0
 11
79.99946581
 21
126.5743632414
 31
0.0
  0
LINE
  5
209
330
1F
100
AcDbEntity
  8
0
  6
HIDDEN
 62
     7
370
     0
100
AcDbLine
 10
80.339476548
 20
126.5743632414
 30
0.0
 11
72.3394761681
 21
126.5743632414
 31
0.0
  0
LINE
  5
20A
330
1F
100
AcDbEntity
  8
0
  6
HIDDEN
 62
     7
370
     0
100
AcDbLine
 10
79.6489762961
 20
126.9730251827
 30
0.0
 11
73.02997642
 21
126.9730251827
 31
0.0
  0
LINE
  5
20B
330
1F
100
AcDbEntity
  8
0
  6
HIDDEN
 62
     7
370
     0
100
AcDbLine
 10
77.494176885
 20
126.9730251827
 30
0.0
 11
78.648877412
 21
126.9730251827
 31
0.0
  0
LINE
  5
20C
330
1F
100
AcDbEntity
  8
0
  6
HIDDEN
 62
     7
370
     0
100
AcDbLine
 10
77.494176885
 20
121.9730243631
 30
0.0
 11
78.648877412
 21
121.9730243631
 31
0.0
  0
LINE
  5
20D
330
1F
100
AcDbEntity
  8
0
  6
HIDDEN
 62
     7
370
     0
100
AcDbLine
 10
75.1847758311
 20
121.9730243631
 30
0.0
 11
77.494176885
 21
121.9730243631
 31
0.0
  0
LINE
  5
20E
330
1F
100
AcDbEntity
  8
0
  6
HIDDEN
 62
     7
370
     0
100
AcDbLine
 10
77.494176885
 20
121.9730243631
 30
0.0
 11
77.494176885
 21
126.9730251827
 31
0.0
  0
LINE
  5
20F
330
1F
100
AcDbEntity
  8
0
  6
HIDDEN
 62
     7
370
     0
100
AcDbLine
 10
75.1847758311
 20
126.9730251827
 30
0.0
 11
77.494176885
 21
126.9730251827
 31
0.0
  0
LINE
  5
210
330
1F
100
AcDbEntity
  8
0
  6
HIDDEN
 62
     7
370
     0
100
AcDbLine
 10
75.1847758311
 20
121.9730243631
 30
0.0
 11
75.1847758311
 21
126.9730251827
 31
0.0
  0
LINE
  5
211
330
1F
100
AcDbEntity
  8
0
  6
HIDDEN
 62
     7
370
     0
100
AcDbLine
 10
75.1847758311
 20
121.9730243631
 30
0.0
 11
74.0300753041
 21
121.9730243631
 31
0.0
  0
LINE
  5
212
330
1F
100
AcDbEntity
  8
0
  6
HIDDEN
 62
     7
370
     0
100
AcDbLine
 10
75.1847758311
 20
126.9730251827
 30
0.0
 11
74.0300753041
 21
126.9730251827
 31
0.0
  0
LINE
  5
213
330
1F
100
AcDbEntity
  8
0
  6
HIDDEN
 62
     7
370
     0
100
AcDbLine
 10
78.648877412
 20
121.9730243631
 30
0.0
 11
78.648877412
 21
126.9730251827
 31
0.0
  0
LINE
  5
214
330
1F
100
AcDbEntity
  8
0
  6
HIDDEN
 62
     7
370
     0
100
AcDbLine
 10
74.0300753041
 20
121.9730243631
 30
0.0
 11
74.0300753041
 21
126.9730251827
 31
0.0
  0
LINE
  5
215
330
1F
100
AcDbEntity
  8
0
  6
HIDDEN
 62
     7
370
     0
100
AcDbLine
 10
92.339477118
 20
106.4730241508
 30
0.0
 11
92.339477118
 21
113.4730243668
 31
0.0
  0
SPLINE
  5
216
330
1F
100
AcDbEntity
  8
0
  6
HIDDEN
 62
     7
370
     0
100
AcDbSpline
210
0.0
220
0.0
230
1.0
 70
     8
 71
     3
 72
    73
 73
    69
 74
     0
 42
0.00000001
 43
0.00000001
 12
1.0
 22
0.0
 32
0.0
 13
1.0
 23
0.0
 33
0.0
 40
-0.0312499999999997
 40
-0.0312499999999997
 40
0.0
 40
0.0
 40
0.0312499999999995
 40
0.0312499999999995
 40
0.0624999999999991
 40
0.0624999999999991
 40
0.0937499999999986
 40
0.0937499999999986
 40
0.1093749999999984
 40
0.1093749999999984
 40
0.1249999999999981
 40
0.1406249999999979
 40
0.1406249999999979
 40
0.1562499999999977
 40
0.1562499999999977
 40
0.1874999999999973
 40
0.1874999999999973
 40
0.218749999999997
 40
0.218749999999997
 40
0.2499999999999967
 40
0.2499999999999967
 40
0.2812499999999964
 40
0.2812499999999964
 40
0.3124999999999961
 40
0.3124999999999961
 40
0.3749999999999954
 40
0.3749999999999954
 40
0.4062499999999951
 40
0.4062499999999951
 40
0.4374999999999955
 40
0.4374999999999955
 40
0.4687499999999959
 40
0.4687499999999959
 40
0.4999999999999963
 40
0.4999999999999963
 40
0.5312499999999968
 40
0.5312499999999968
 40
0.5624999999999972
 40
0.5624999999999972
 40
0.5937499999999976
 40
0.5937499999999976
 40
0.624999999999998
 40
0.624999999999998
 40
0.6406249999999982
 40
0.6406249999999982
 40
0.6562499999999984
 40
0.6562499999999984
 40
0.6874999999999989
 40
0.6874999999999989
 40
0.7187499999999993
 40
0.7187499999999993
 40
0.7499999999999997
 40
0.7499999999999997
 40
0.7812500000000001
 40
0.7812500000000001
 40
0.8125000000000006
 40
0.8125000000000006
 40
0.843750000000001
 40
0.843750000000001
 40
0.8750000000000014
 40
0.8750000000000014
 40
0.9062500000000011
 40
0.9062500000000011
 40
0.9375000000000007
 40
0.9375000000000007
 40
0.9687500000000003
 40
0.9687500000000003
 40
1.0
 40
1.0
 40
1.03125
 40
1.03125
 10
93.04658121542548
 20
106.8258273711272
 30
0.0
 10
93.10929106013839
 20
107.1791889338867
 30
0.0
 10
93.14100685499395
 20
107.3739538666118
 30
0.0
 10
93.20158247104096
 20
107.8013955203836
 30
0.0
 10
93.23064253147041
 20
108.0366837677778
 30
0.0
 10
93.279734006113
 20
108.5278322257082
 30
0.0
 10
93.30010203943068
 20
108.7853410582227
 30
0.0
 10
93.32202824081355
 20
109.1911769133821
 30
0.0
 10
93.32788537853155
 20
109.3302662480093
 30
0.0
 10
93.33610236937217
 20
109.6071201882411
 30
0.0
 10
93.34095021236449
 20
109.8845341244457
 30
0.0
 10
93.33898716048475
 20
110.1630571858777
 30
0.0
 10
93.33357546161888
 20
110.442146517434
 30
0.0
 10
93.32910052531179
 20
110.5824889176533
 30
0.0
 10
93.31105256361928
 20
110.9931748158489
 30
0.0
 10
93.29284986536375
 20
111.256844554459
 30
0.0
 10
93.24669892212185
 20
111.764920739897
 30
0.0
 10
93.21916160845963
 20
112.0042582596332
 30
0.0
 10
93.16010092714852
 20
112.4461346130849
 30
0.0
 10
93.12809340042303
 20
112.6520036246654
 30
0.0
 10
93.0654622556023
 20
113.0186749927267
 30
0.0
 10
93.03469716050375
 20
113.1809266593301
 30
0.0
 10
92.97753428607108
 20
113.4653105926826
 30
0.0
 10
92.9514663331979
 20
113.5857322078025
 30
0.0
 10
92.88642978108497
 20
113.8765881499785
 30
0.0
 10
92.86023855364648
 20
113.9810801367453
 30
0.0
 10
92.85677534963801
 20
113.9953193603033
 30
0.0
 10
92.86131694008401
 20
113.9768571409574
 30
0.0
 10
92.88159974890037
 20
113.8922139312033
 30
0.0
 10
92.89707978272426
 20
113.8270905680166
 30
0.0
 10
92.93685785527161
 20
113.6520167459234
 30
0.0
 10
92.96135573471221
 20
113.5411687355042
 30
0.0
 10
93.01636205672628
 20
113.2745409424217
 30
0.0
 10
93.04635032074741
 20
113.1212744934647
 30
0.0
 10
93.10808160281788
 20
112.7739161329483
 30
0.0
 10
93.14017212000408
 20
112.577534943942
 30
0.0
 10
93.20104014091376
 20
112.1489196586716
 30
0.0
 10
93.22943862324047
 20
111.9197487976656
 30
0.0
 10
93.27871129521905
 20
111.4300354094697
 30
0.0
 10
93.29976343767432
 20
111.1652968088094
 30
0.0
 10
93.32906491739007
 20
110.6262717166013
 30
0.0
 10
93.33758339027501
 20
110.3513273658848
 30
0.0
 10
93.34000195642354
 20
109.9303820370353
 30
0.0
 10
93.33904494836334
 20
109.7882274279227
 30
0.0
 10
93.33371880458171
 20
109.5091214737545
 30
0.0
 10
93.32936783533712
 20
109.3711726667777
 30
0.0
 10
93.31158224172927
 20
108.9619986072416
 30
0.0
 10
93.29307568326935
 20
108.692372966856
 30
0.0
 10
93.24721380476645
 20
108.1861240812459
 30
0.0
 10
93.21996987467926
 20
107.9482293351145
 30
0.0
 10
93.16031981515621
 20
107.501166407006
 30
0.0
 10
93.1287090550115
 20
107.2978921567174
 30
0.0
 10
93.06609109635603
 20
106.9308168837842
 30
0.0
 10
93.03474305636398
 20
106.76537674444
 30
0.0
 10
92.97773020115673
 20
106.4816861547833
 30
0.0
 10
92.95190000077746
 20
106.362288403575
 30
0.0
 10
92.90819946416633
 20
106.1667863084734
 30
0.0
 10
92.89045712196675
 20
106.0912949879874
 30
0.0
 10
92.86603213541557
 20
105.9885869689119
 30
0.0
 10
92.85911055483793
 20
105.9603305476665
 30
0.0
 10
92.85675606378032
 20
105.9506498433926
 30
0.0
 10
92.86144269257113
 20
105.9697144439551
 30
0.0
 10
92.88154760181519
 20
106.0536186917682
 30
0.0
 10
92.89694576698493
 20
106.1183561798784
 30
0.0
 10
92.93721157009654
 20
106.2956005604396
 30
0.0
 10
92.96186227952552
 20
106.4072783311878
 30
0.0
 10
93.0164418584436
 20
106.67195179043
 30
0.0
 10
93.04658121542548
 20
106.8258273711272
 30
0.0
 10
93.10929106013839
 20
107.1791889338867
 30
0.0
  0
LINE
  5
217
330
1F
100
AcDbEntity
  8
0
  6
HIDDEN
 62
     7
370
     0
100
AcDbLine
 10
72.83947625
 20
93.9730234988
 30
0.0
 11
79.8394764661
 21
93.9730234988
 31
0.0
  0
SPLINE
  5
218
330
1F
100
AcDbEntity
  8
0
  6
HIDDEN
 62
     7
370
     0
100
AcDbSpline
210
0.0
220
0.0
230
1.0
 70
     8
 71
     3
 72
    73
 73
    69
 74
     0
 42
0.00000001
 43
0.00000001
 12
1.0
 22
0.0
 32
0.0
 13
1.0
 23
0.0
 33
0.0
 40
-0.0312499999999997
 40
-0.0312499999999997
 40
0.0
 40
0.0
 40
0.0312499999999995
 40
0.0312499999999995
 40
0.062499999999999
 40
0.062499999999999
 40
0.0937499999999986
 40
0.0937499999999986
 40
0.1093749999999983
 40
0.1093749999999983
 40
0.1249999999999981
 40
0.1406249999999978
 40
0.1406249999999978
 40
0.1562499999999976
 40
0.1562499999999976
 40
0.1874999999999973
 40
0.1874999999999973
 40
0.2187499999999969
 40
0.2187499999999969
 40
0.2499999999999966
 40
0.2499999999999966
 40
0.2812499999999962
 40
0.2812499999999962
 40
0.3124999999999959
 40
0.3124999999999959
 40
0.3749999999999952
 40
0.3749999999999952
 40
0.4062499999999949
 40
0.4062499999999949
 40
0.4374999999999954
 40
0.4374999999999954
 40
0.4687499999999959
 40
0.4687499999999959
 40
0.4999999999999963
 40
0.4999999999999963
 40
0.5312499999999968
 40
0.5312499999999968
 40
0.5624999999999971
 40
0.5624999999999971
 40
0.5937499999999977
 40
0.5937499999999977
 40
0.6249999999999982
 40
0.6249999999999982
 40
0.6406249999999984
 40
0.6406249999999984
 40
0.6562499999999986
 40
0.6562499999999986
 40
0.687499999999999
 40
0.687499999999999
 40
0.7187499999999994
 40
0.7187499999999994
 40
0.7499999999999998
 40
0.7499999999999998
 40
0.7812500000000002
 40
0.7812500000000002
 40
0.8125000000000007
 40
0.8125000000000007
 40
0.8437500000000011
 40
0.8437500000000011
 40
0.8750000000000014
 40
0.8750000000000014
 40
0.9062500000000011
 40
0.9062500000000011
 40
0.9375000000000008
 40
0.9375000000000008
 40
0.9687500000000003
 40
0.9687500000000003
 40
1.0
 40
1.0
 40
1.03125
 40
1.03125
 10
73.19227947038499
 20
93.26591940142276
 30
0.0
 10
73.54564103314453
 20
93.20320955670984
 30
0.0
 10
73.74040596586958
 20
93.1714937618543
 30
0.0
 10
74.16784761964138
 20
93.11091814580728
 30
0.0
 10
74.40313586703564
 20
93.08185808537782
 30
0.0
 10
74.894284324966
 20
93.03276661073521
 30
0.0
 10
75.15179315748051
 20
93.01239857741754
 30
0.0
 10
75.55762901263986
 20
92.99047237603466
 30
0.0
 10
75.6967183472671
 20
92.98461523831666
 30
0.0
 10
75.97357228749887
 20
92.97639824747606
 30
0.0
 10
76.25098622370349
 20
92.97155040448374
 30
0.0
 10
76.52950928513545
 20
92.97351345636345
 30
0.0
 10
76.80859861669174
 20
92.97892515522932
 30
0.0
 10
76.94894101691112
 20
92.98340009153641
 30
0.0
 10
77.35962691510669
 20
93.00144805322894
 30
0.0
 10
77.62329665371672
 20
93.01965075148445
 30
0.0
 10
78.1313728391548
 20
93.06580169472636
 30
0.0
 10
78.37071035889102
 20
93.09333900838858
 30
0.0
 10
78.81258671234265
 20
93.15239968969968
 30
0.0
 10
79.01845572392315
 20
93.18440721642519
 30
0.0
 10
79.38512709198453
 20
93.24703836124593
 30
0.0
 10
79.54737875858788
 20
93.27780345634446
 30
0.0
 10
79.83176269194041
 20
93.33496633077714
 30
0.0
 10
79.95218430706034
 20
93.3610342836503
 30
0.0
 10
80.24304024923626
 20
93.42607083576324
 30
0.0
 10
80.34753223600306
 20
93.45226206320173
 30
0.0
 10
80.36177145956107
 20
93.4557252672102
 30
0.0
 10
80.34330924021519
 20
93.4511836767642
 30
0.0
 10
80.25866603046111
 20
93.43090086794786
 30
0.0
 10
80.19354266727436
 20
93.41542083412395
 30
0.0
 10
80.01846884518118
 20
93.37564276157659
 30
0.0
 10
79.90762083476194
 20
93.35114488213598
 30
0.0
 10
79.64099304167951
 20
93.29613856012192
 30
0.0
 10
79.48772659272248
 20
93.2661502961008
 30
0.0
 10
79.14036823220606
 20
93.20441901403035
 30
0.0
 10
78.94398704319983
 20
93.17232849684412
 30
0.0
 10
78.51537175792944
 20
93.11146047593444
 30
0.0
 10
78.28620089692342
 20
93.08306199360774
 30
0.0
 10
77.79648750872745
 20
93.03378932162914
 30
0.0
 10
77.53174890806719
 20
93.01273717917388
 30
0.0
 10
76.99272381585904
 20
92.98343569945814
 30
0.0
 10
76.71777946514261
 20
92.9749172265732
 30
0.0
 10
76.29683413629306
 20
92.97249866042469
 30
0.0
 10
76.15467952718048
 20
92.97345566848487
 30
0.0
 10
75.87557357301226
 20
92.97878181226652
 30
0.0
 10
75.73762476603544
 20
92.9831327815111
 30
0.0
 10
75.32845070649938
 20
93.00091837511896
 30
0.0
 10
75.05882506611376
 20
93.01942493357889
 30
0.0
 10
74.55257618050372
 20
93.0652868120818
 30
0.0
 10
74.31468143437233
 20
93.09253074216899
 30
0.0
 10
73.86761850626377
 20
93.15218080169203
 30
0.0
 10
73.66434425597515
 20
93.18379156183673
 30
0.0
 10
73.29726898304203
 20
93.24640952049218
 30
0.0
 10
73.13182884369776
 20
93.27775756048426
 30
0.0
 10
72.84813825404109
 20
93.33477041569152
 30
0.0
 10
72.72874050283275
 20
93.36060061607078
 30
0.0
 10
72.53323840773118
 20
93.40430115268192
 30
0.0
 10
72.4577470872452
 20
93.42204349488148
 30
0.0
 10
72.35503906816966
 20
93.44646848143267
 30
0.0
 10
72.32678264692431
 20
93.45339006201033
 30
0.0
 10
72.3171019426504
 20
93.45574455306792
 30
0.0
 10
72.33616654321287
 20
93.45105792427711
 30
0.0
 10
72.42007079102602
 20
93.43095301503305
 30
0.0
 10
72.4848082791362
 20
93.4155548498633
 30
0.0
 10
72.66205265969744
 20
93.37528904675172
 30
0.0
 10
72.77373043044558
 20
93.3506383373227
 30
0.0
 10
73.0384038896878
 20
93.29605875840463
 30
0.0
 10
73.19227947038499
 20
93.26591940142276
 30
0.0
 10
73.54564103314453
 20
93.20320955670984
 30
0.0
  0
LINE
  5
219
330
1F
100
AcDbEntity
  8
0
  6
HIDDEN
 62
     7
370
     0
100
AcDbLine
 10
79.8394764661
 20
125.9730250188
 30
0.0
 11
72.83947625
 21
125.9730250188
 31
0.0
  0
SPLINE
  5
21A
330
1F
100
AcDbEntity
  8
0
  6
HIDDEN
 62
     7
370
     0
100
AcDbSpline
210
0.0
220
0.0
230
1.0
 70
     8
 71
     3
 72
    73
 73
    69
 74
     0
 42
0.00000001
 43
0.00000001
 12
1.0
 22
0.0
 32
0.0
 13
1.0
 23
0.0
 33
0.0
 40
-0.0312500000000008
 40
-0.0312500000000008
 40
0.0
 40
0.0
 40
0.0312499999999989
 40
0.0312499999999989
 40
0.0624999999999979
 40
0.0624999999999979
 40
0.0937499999999968
 40
0.0937499999999968
 40
0.1093749999999963
 40
0.1093749999999963
 40
0.1249999999999958
 40
0.1406249999999952
 40
0.1406249999999952
 40
0.1562499999999946
 40
0.1562499999999946
 40
0.1874999999999937
 40
0.1874999999999937
 40
0.2187499999999928
 40
0.2187499999999928
 40
0.2499999999999919
 40
0.2499999999999919
 40
0.281249999999991
 40
0.281249999999991
 40
0.31249999999999
 40
0.31249999999999
 40
0.3749999999999882
 40
0.3749999999999882
 40
0.4062499999999881
 40
0.4062499999999881
 40
0.4374999999999888
 40
0.4374999999999888
 40
0.4687499999999894
 40
0.4687499999999894
 40
0.49999999999999
 40
0.49999999999999
 40
0.5312499999999906
 40
0.5312499999999906
 40
0.5624999999999912
 40
0.5624999999999912
 40
0.5937499999999918
 40
0.5937499999999918
 40
0.6249999999999925
 40
0.6249999999999925
 40
0.6406249999999928
 40
0.6406249999999928
 40
0.6562499999999931
 40
0.6562499999999931
 40
0.6874999999999938
 40
0.6874999999999938
 40
0.7187499999999943
 40
0.7187499999999943
 40
0.749999999999995
 40
0.749999999999995
 40
0.7812499999999956
 40
0.7812499999999956
 40
0.8124999999999962
 40
0.8124999999999962
 40
0.8437499999999968
 40
0.8437499999999968
 40
0.8749999999999974
 40
0.8749999999999974
 40
0.906249999999998
 40
0.906249999999998
 40
0.9374999999999987
 40
0.9374999999999987
 40
0.9687499999999992
 40
0.9687499999999992
 40
1.0
 40
1.0
 40
1.031249999999999
 40
1.031249999999999
 10
79.4866732457212
 20
126.6801291161676
 30
0.0
 10
79.13331168296166
 20
126.7428389608805
 30
0.0
 10
78.93854675023661
 20
126.7745547557361
 30
0.0
 10
78.5111050964648
 20
126.8351303717831
 30
0.0
 10
78.27581684907055
 20
126.8641904322125
 30
0.0
 10
77.7846683911402
 20
126.9132819068551
 30
0.0
 10
77.52715955862568
 20
126.9336499401728
 30
0.0
 10
77.12132370346633
 20
126.9555761415557
 30
0.0
 10
76.9822343688391
 20
126.9614332792737
 30
0.0
 10
76.70538042860731
 20
126.9696502701143
 30
0.0
 10
76.4279664924027
 20
126.9744981131066
 30
0.0
 10
76.14944343097075
 20
126.9725350612269
 30
0.0
 10
75.87035409941446
 20
126.9671233623611
 30
0.0
 10
75.73001169919506
 20
126.962648426054
 30
0.0
 10
75.3193258009995
 20
126.9446004643614
 30
0.0
 10
75.05565606238947
 20
126.9263977661059
 30
0.0
 10
74.54757987695139
 20
126.880246822864
 30
0.0
 10
74.30824235721518
 20
126.8527095092018
 30
0.0
 10
73.86636600376355
 20
126.7936488278907
 30
0.0
 10
73.66049699218303
 20
126.7616413011652
 30
0.0
 10
73.29382562412167
 20
126.6990101563445
 30
0.0
 10
73.13157395751831
 20
126.6682450612459
 30
0.0
 10
72.84719002416577
 20
126.6110821868132
 30
0.0
 10
72.72676840904586
 20
126.5850142339401
 30
0.0
 10
72.43591246686994
 20
126.5199776818272
 30
0.0
 10
72.33142048010312
 20
126.4937864543887
 30
0.0
 10
72.31718125654511
 20
126.4903232503802
 30
0.0
 10
72.335643475891
 20
126.4948648408262
 30
0.0
 10
72.42028668564507
 20
126.5151476496426
 30
0.0
 10
72.48541004883182
 20
126.5306276834665
 30
0.0
 10
72.660483870925
 20
126.5704057560138
 30
0.0
 10
72.77133188134424
 20
126.5949036354544
 30
0.0
 10
73.03795967442669
 20
126.6499099574685
 30
0.0
 10
73.1912261233837
 20
126.6798982214896
 30
0.0
 10
73.53858448390012
 20
126.74162950356
 30
0.0
 10
73.73496567290636
 20
126.7737200207463
 30
0.0
 10
74.16358095817675
 20
126.8345880416559
 30
0.0
 10
74.39275181918278
 20
126.8629865239826
 30
0.0
 10
74.88246520737873
 20
126.9122591959612
 30
0.0
 10
75.147203808039
 20
126.9333113384165
 30
0.0
 10
75.68622890024714
 20
126.9626128181322
 30
0.0
 10
75.96117325096357
 20
126.9711312910172
 30
0.0
 10
76.38211857981314
 20
126.9735498571657
 30
0.0
 10
76.52427318892572
 20
126.9725928491055
 30
0.0
 10
76.80337914309393
 20
126.9672667053239
 30
0.0
 10
76.94132795007074
 20
126.9629157360793
 30
0.0
 10
77.35050200960681
 20
126.9451301424714
 30
0.0
 10
77.62012764999244
 20
126.9266235840115
 30
0.0
 10
78.12637653560247
 20
126.8807617055086
 30
0.0
 10
78.36427128173383
 20
126.8535177754214
 30
0.0
 10
78.8113342098424
 20
126.7938677158983
 30
0.0
 10
79.01460846013103
 20
126.7622569557536
 30
0.0
 10
79.38168373306416
 20
126.6996389970982
 30
0.0
 10
79.5471238724084
 20
126.6682909571061
 30
0.0
 10
79.83081446206509
 20
126.6112781018988
 30
0.0
 10
79.95021221327343
 20
126.5854479015196
 30
0.0
 10
80.145714308375
 20
126.5417473649084
 30
0.0
 10
80.22120562886099
 20
126.5240050227089
 30
0.0
 10
80.32391364793654
 20
126.4995800361577
 30
0.0
 10
80.35217006918187
 20
126.49265845558
 30
0.0
 10
80.3618507734558
 20
126.4903039645224
 30
0.0
 10
80.34278617289331
 20
126.4949905933132
 30
0.0
 10
80.25888192508016
 20
126.5150955025573
 30
0.0
 10
80.19414443696999
 20
126.530493667727
 30
0.0
 10
80.01690005640876
 20
126.5707594708386
 30
0.0
 10
79.90522228566061
 20
126.5954101802676
 30
0.0
 10
79.6405488264184
 20
126.6499897591857
 30
0.0
 10
79.4866732457212
 20
126.6801291161676
 30
0.0
 10
79.13331168296166
 20
126.7428389608805
 30
0.0
  0
LINE
  5
21B
330
1F
100
AcDbEntity
  8
0
  6
HIDDEN
 62
     7
370
     0
100
AcDbLine
 10
79.1679034828
 20
107.144597134
 30
0.0
 11
79.8394764661
 21
106.4730241508
 31
0.0
  0
LINE
  5
21C
330
1F
100
AcDbEntity
  8
0
  6
HIDDEN
 62
     7
370
     0
100
AcDbLine
 10
79.1679034828
 20
112.8014513836
 30
0.0
 11
79.8394764661
 21
113.4730243668
 31
0.0
  0
SPLINE
  5
21D
330
1F
100
AcDbEntity
  8
0
  6
HIDDEN
 62
     7
370
     0
100
AcDbSpline
210
0.0
220
0.0
230
1.0
 70
     8
 71
     3
 72
    26
 73
    22
 74
     0
 42
0.00000001
 43
0.00000001
 12
1.0
 22
0.0
 32
0.0
 13
1.0
 23
0.0
 33
0.0
 40
0.0
 40
0.0
 40
0.0
 40
0.0
 40
0.125
 40
0.125
 40
0.25
 40
0.25
 40
0.3125
 40
0.3125
 40
0.375
 40
0.375
 40
0.4375
 40
0.4375
 40
0.5
 40
0.5
 40
0.625
 40
0.625
 40
0.75
 40
0.75
 40
0.875
 40
0.875
 40
1.0
 40
1.0
 40
1.0
 40
1.0
 10
79.16790348279923
 20
112.8014513835414
 30
0.0
 10
79.31653872756722
 20
112.6528161387734
 30
0.0
 10
79.4645924434711
 20
112.4813388942612
 30
0.0
 10
79.74295169562764
 20
112.0882898412584
 30
0.0
 10
79.87015345176894
 20
111.8715892020938
 30
0.0
 10
80.03486048312044
 20
111.5098045177141
 30
0.0
 10
80.08564982567697
 20
111.3820527823893
 30
0.0
 10
80.17412566916141
 20
111.1196025119673
 30
0.0
 10
80.21212294322618
 20
110.9844591615353
 30
0.0
 10
80.27438911883416
 20
110.7057272690087
 30
0.0
 10
80.29879191756262
 20
110.5607565438835
 30
0.0
 10
80.33125176441942
 20
110.2685543652789
 30
0.0
 10
80.33938863130297
 20
110.1221337967099
 30
0.0
 10
80.33964970126729
 20
109.6819218434697
 30
0.0
 10
80.30613424167437
 20
109.3836885319315
 30
0.0
 10
80.18204152277745
 20
108.8256863314609
 30
0.0
 10
80.09055422156095
 20
108.5589281275624
 30
0.0
 10
79.8711718306451
 20
108.0763481938491
 30
0.0
 10
79.74113593961306
 20
107.855058568097
 30
0.0
 10
79.46487982103825
 20
107.4652523853279
 30
0.0
 10
79.317855091296
 20
107.2945487425458
 30
0.0
 10
79.16790348279923
 20
107.144597134049
 30
0.0
  0
SPLINE
  5
21E
330
1F
100
AcDbEntity
  8
0
  6
HIDDEN
 62
     7
370
     0
100
AcDbSpline
210
0.0
220
0.0
230
1.0
 70
     8
 71
     3
 72
    24
 73
    20
 74
     0
 42
0.00000001
 43
0.00000001
 12
1.0
 22
0.0
 32
0.0
 13
1.0
 23
0.0
 33
0.0
 40
0.0
 40
0.0
 40
0.0
 40
0.0
 40
0.125000000000001
 40
0.125000000000001
 40
0.2500000000000019
 40
0.2500000000000019
 40
0.3125000000000024
 40
0.3125000000000024
 40
0.3750000000000029
 40
0.3750000000000029
 40
0.5000000000000023
 40
0.5000000000000023
 40
0.6250000000000018
 40
0.6250000000000018
 40
0.7500000000000011
 40
0.7500000000000011
 40
0.8750000000000006
 40
0.8750000000000006
 40
1.0
 40
1.0
 40
1.0
 40
1.0
 10
79.16790348279923
 20
107.1445971340489
 30
0.0
 10
79.31841526200122
 20
107.2951089132509
 30
0.0
 10
79.46588903351396
 20
107.4665814724208
 30
0.0
 10
79.74119498272908
 20
107.8552371927323
 30
0.0
 10
79.871044557506
 20
108.0761589818128
 30
0.0
 10
80.03542027599256
 20
108.4376036284635
 30
0.0
 10
80.08526102223931
 20
108.5630012181123
 30
0.0
 10
80.17357999594648
 20
108.8246702107761
 30
0.0
 10
80.21232796029983
 20
108.9622888935109
 30
0.0
 10
80.30598348234113
 20
109.3821915586002
 30
0.0
 10
80.33912496027142
 20
109.6705918815832
 30
0.0
 10
80.33982227112959
 20
110.2660888587476
 30
0.0
 10
80.30702033722561
 20
110.557601994446
 30
0.0
 10
80.18216146574348
 20
111.1205901692428
 30
0.0
 10
80.09193832240423
 20
111.3837687742107
 30
0.0
 10
79.87135794727831
 20
111.8695957236677
 30
0.0
 10
79.74295005089378
 20
112.0880484575846
 30
0.0
 10
79.46730823893118
 20
112.4777454537161
 30
0.0
 10
79.31751726669913
 20
112.6518375996415
 30
0.0
 10
79.16790348279925
 20
112.8014513835414
 30
0.0
  0
SPLINE
  5
21F
330
1F
100
AcDbEntity
  8
0
  6
HIDDEN
 62
     7
370
     0
100
AcDbSpline
210
0.0
220
0.0
230
1.0
 70
    11
 71
     3
 72
    60
 73
    56
 74
     0
 42
0.00000001
 43
0.00000001
 12
1.0
 22
0.0
 32
0.0
 13
1.0
 23
0.0
 33
0.0
 40
0.0
 40
0.0
 40
0.0
 40
0.0
 40
0.0312500000000013
 40
0.0312500000000013
 40
0.0625000000000026
 40
0.0625000000000026
 40
0.0937500000000039
 40
0.0937500000000039
 40
0.1250000000000052
 40
0.1250000000000052
 40
0.1562500000000066
 40
0.1562500000000066
 40
0.1875000000000079
 40
0.1875000000000079
 40
0.2187500000000092
 40
0.2187500000000092
 40
0.2500000000000105
 40
0.2500000000000105
 40
0.3125000000000131
 40
0.3125000000000131
 40
0.3750000000000158
 40
0.3750000000000158
 40
0.4062500000000167
 40
0.4062500000000167
 40
0.4375000000000177
 40
0.4375000000000177
 40
0.4687500000000187
 40
0.4687500000000187
 40
0.5000000000000197
 40
0.5000000000000197
 40
0.5312500000000207
 40
0.5312500000000207
 40
0.5625000000000205
 40
0.5625000000000205
 40
0.6250000000000184
 40
0.6250000000000184
 40
0.6875000000000164
 40
0.6875000000000164
 40
0.7187500000000149
 40
0.7187500000000149
 40
0.7500000000000132
 40
0.7500000000000132
 40
0.7812500000000117
 40
0.7812500000000117
 40
0.8125000000000101
 40
0.8125000000000101
 40
0.8437500000000085
 40
0.8437500000000085
 40
0.875000000000007
 40
0.875000000000007
 40
0.937500000000003
 40
0.937500000000003
 40
0.9687500000000016
 40
0.9687500000000016
 40
1.0
 40
1.0
 40
1.0
 40
1.0
 10
79.16790348279923
 20
107.144597134049
 30
0.0
 10
79.06837264527586
 20
107.0450662965256
 30
0.0
 10
78.95892152108169
 20
106.9460803369929
 30
0.0
 10
78.71757066965509
 20
106.7530009804669
 30
0.0
 10
78.58519068462282
 20
106.6587653640227
 30
0.0
 10
78.30291652972751
 20
106.484120770535
 30
0.0
 10
78.15221524908588
 20
106.4029354187631
 30
0.0
 10
77.82860449305679
 20
106.2562980097522
 30
0.0
 10
77.6547494122785
 20
106.190813166826
 30
0.0
 10
77.29565500592692
 20
106.0844787280426
 30
0.0
 10
77.10895872298809
 20
106.0427992662458
 30
0.0
 10
76.71923326674964
 20
105.9862265096858
 30
0.0
 10
76.52273581746836
 20
105.9723932636719
 30
0.0
 10
76.12963551424525
 20
105.9736994146651
 30
0.0
 10
75.93003192425803
 20
105.9892492031241
 30
0.0
 10
75.54405765127238
 20
106.0480506895266
 30
0.0
 10
75.35780310783358
 20
106.0907897365532
 30
0.0
 10
74.81748095715153
 20
106.2547936280825
 30
0.0
 10
74.4929921629886
 20
106.4091365135655
 30
0.0
 10
73.92932087759363
 20
106.7633591199945
 30
0.0
 10
73.69393998236501
 20
106.9595386794585
 30
0.0
 10
73.39571683158286
 20
107.261148641569
 30
0.0
 10
73.306139231587
 20
107.3625696608642
 30
0.0
 10
73.14914901967575
 20
107.5569491762163
 30
0.0
 10
73.0810856037359
 20
107.6506614544856
 30
0.0
 10
72.96656046265876
 20
107.8203706254262
 30
0.0
 10
72.92017957597322
 20
107.896404667218
 30
0.0
 10
72.85670971542632
 20
108.0047062141006
 30
0.0
 10
72.83942668596323
 20
108.0366223626283
 30
0.0
 10
72.8395262542536
 20
108.0364424036987
 30
0.0
 10
72.85688838920673
 20
108.0043891270629
 30
0.0
 10
72.9203997843525
 20
107.89604120017
 30
0.0
 10
72.96627257692619
 20
107.8208009509202
 30
0.0
 10
73.13878806745055
 20
107.5651475737727
 30
0.0
 10
73.29515715296827
 20
107.362970115819
 30
0.0
 10
73.69342366223829
 20
106.9599415877278
 30
0.0
 10
73.93011992599736
 20
106.7629753975845
 30
0.0
 10
74.35013791253446
 20
106.4988501733191
 30
0.0
 10
74.50272064756923
 20
106.4152673219893
 30
0.0
 10
74.82402534767756
 20
106.2669867257234
 30
0.0
 10
74.99342527843434
 20
106.2016377164585
 30
0.0
 10
75.35239708782547
 20
106.0921887205447
 30
0.0
 10
75.54175898966093
 20
106.0486101842946
 30
0.0
 10
75.92395867773378
 20
105.989969666486
 30
0.0
 10
76.11893435751699
 20
105.974144609422
 30
0.0
 10
76.5173115328123
 20
105.972017901041
 30
0.0
 10
76.71515689004707
 20
105.9859550294856
 30
0.0
 10
77.10034678731446
 20
106.0412392835832
 30
0.0
 10
77.29094531855125
 20
106.0832727018546
 30
0.0
 10
77.83277535648767
 20
106.2431583722883
 30
0.0
 10
78.16101872884225
 20
106.3964504361847
 30
0.0
 10
78.58396889376196
 20
106.6579484698519
 30
0.0
 10
78.7143187047219
 20
106.7505941121077
 30
0.0
 10
78.95610829612507
 20
106.9436399116921
 30
0.0
 10
79.06769534079115
 20
107.0443889920409
 30
0.0
 10
79.16790348279923
 20
107.144597134049
 30
0.0
  0
SPLINE
  5
220
330
1F
100
AcDbEntity
  8
0
  6
HIDDEN
 62
     7
370
     0
100
AcDbSpline
210
0.0
220
0.0
230
1.0
 70
    11
 71
     3
 72
    64
 73
    60
 74
     0
 42
0.00000001
 43
0.00000001
 12
1.0
 22
0.0
 32
0.0
 13
1.0
 23
0.0
 33
0.0
 40
0.0
 40
0.0
 40
0.0
 40
0.0
 40
0.0624999999999999
 40
0.0624999999999999
 40
0.0937500000000005
 40
0.0937500000000005
 40
0.1250000000000011
 40
0.1250000000000011
 40
0.1562500000000017
 40
0.1562500000000017
 40
0.1875000000000023
 40
0.1875000000000023
 40
0.2187500000000029
 40
0.2187500000000029
 40
0.2500000000000036
 40
0.2500000000000036
 40
0.3125000000000048
 40
0.3125000000000048
 40
0.3437500000000053
 40
0.3437500000000053
 40
0.3750000000000059
 40
0.3750000000000059
 40
0.4062500000000065
 40
0.4062500000000065
 40
0.437500000000007
 40
0.437500000000007
 40
0.4687500000000077
 40
0.4687500000000077
 40
0.5000000000000072
 40
0.5000000000000072
 40
0.5312500000000068
 40
0.5312500000000068
 40
0.5625000000000062
 40
0.5625000000000062
 40
0.5937500000000058
 40
0.5937500000000058
 40
0.6250000000000053
 40
0.6250000000000053
 40
0.6562500000000048
 40
0.6562500000000048
 40
0.6875000000000043
 40
0.6875000000000043
 40
0.7187500000000039
 40
0.7187500000000039
 40
0.7500000000000033
 40
0.7500000000000033
 40
0.7812500000000029
 40
0.7812500000000029
 40
0.8125000000000024
 40
0.8125000000000024
 40
0.843750000000002
 40
0.843750000000002
 40
0.8750000000000014
 40
0.8750000000000014
 40
0.906250000000001
 40
0.906250000000001
 40
0.9375000000000006
 40
0.9375000000000006
 40
1.0
 40
1.0
 40
1.0
 40
1.0
 10
79.16790348279932
 20
112.8014513835414
 30
0.0
 10
78.96627149762921
 20
113.0030833687115
 30
0.0
 10
78.72781680465283
 20
113.1989027861705
 30
0.0
 10
78.30395392266628
 20
113.4613538717608
 30
0.0
 10
78.15018478368378
 20
113.5441329734711
 30
0.0
 10
77.8268790522715
 20
113.6904313766552
 30
0.0
 10
77.65642825094615
 20
113.754708288548
 30
0.0
 10
77.29514257828697
 20
113.8617513596068
 30
0.0
 10
77.10545949056484
 20
113.9037664333329
 30
0.0
 10
76.72235863598887
 20
113.9593590870835
 30
0.0
 10
76.5269223933629
 20
113.9736162437307
 30
0.0
 10
76.12756354150729
 20
113.9723948598107
 30
0.0
 10
75.93093140269994
 20
113.9568504199136
 30
0.0
 10
75.54659925592264
 20
113.8984701905936
 30
0.0
 10
75.35656280798818
 20
113.8549178646851
 30
0.0
 10
74.81787601075182
 20
113.6913034899038
 30
0.0
 10
74.49179679399866
 20
113.5360383912209
 30
0.0
 10
74.07242851069189
 20
113.2726820331102
 30
0.0
 10
73.94318367887513
 20
113.179508626009
 30
0.0
 10
73.70352539719136
 20
112.9855851516902
 30
0.0
 10
73.59317553111921
 20
112.8846694414723
 30
0.0
 10
73.39514430365668
 20
112.6842517769645
 30
0.0
 10
73.30661673082491
 20
112.5840411364238
 30
0.0
 10
73.14940064575885
 20
112.3894397039458
 30
0.0
 10
73.08027250282281
 20
112.2942466345702
 30
0.0
 10
72.96578688710653
 20
112.1244662034851
 30
0.0
 10
72.92006629467086
 20
112.0494699306686
 30
0.0
 10
72.85619271564997
 20
111.9404405534234
 30
0.0
 10
72.8393133351167
 20
111.9092212859335
 30
0.0
 10
72.83964172639334
 20
111.9098148169262
 30
0.0
 10
72.85683111401401
 20
111.9415733371234
 30
0.0
 10
72.92083509150096
 20
112.0507382093287
 30
0.0
 10
72.96701859510674
 20
112.1263780786189
 30
0.0
 10
73.0811515124043
 20
112.2954633293489
 30
0.0
 10
73.15002264980386
 20
112.3902890442871
 30
0.0
 10
73.30800538690187
 20
112.5856795654347
 30
0.0
 10
73.3965836378165
 20
112.685770875177
 30
0.0
 10
73.59350593781147
 20
112.8849408473448
 30
0.0
 10
73.70184731425232
 20
112.9840965956179
 30
0.0
 10
73.940787956472
 20
113.177698585837
 30
0.0
 10
74.0721066837393
 20
113.2724799467013
 30
0.0
 10
74.35232973429478
 20
113.4484553647358
 30
0.0
 10
74.50195316743678
 20
113.5303839318394
 30
0.0
 10
74.82319107785399
 20
113.6787196413793
 30
0.0
 10
74.99613450968712
 20
113.745338892191
 30
0.0
 10
75.35370804535309
 20
113.8541562906359
 30
0.0
 10
75.53961200240074
 20
113.8971465061739
 30
0.0
 10
75.92760531083579
 20
113.9566006218488
 30
0.0
 10
76.12471777879779
 20
113.9720857027404
 30
0.0
 10
76.51772096147943
 20
113.973879485014
 30
0.0
 10
76.7171788403646
 20
113.9599595283037
 30
0.0
 10
77.10463272580947
 20
113.9040352917582
 30
0.0
 10
77.29157858693536
 20
113.8626300554855
 30
0.0
 10
77.65314048086626
 20
113.7558563301833
 30
0.0
 10
77.826474648072
 20
113.6906033733909
 30
0.0
 10
78.15017829514483
 20
113.5441468949994
 30
0.0
 10
78.30297127497998
 20
113.4619587222244
 30
0.0
 10
78.72959575932119
 20
113.1978084629383
 30
0.0
 10
78.96706611627145
 20
113.0022887500692
 30
0.0
 10
79.16790348279923
 20
112.8014513835414
 30
0.0
  0
LINE
  5
221
330
1F
100
AcDbEntity
  8
0
  6
HIDDEN
 62
     7
370
     0
100
AcDbLine
 10
79.8394764661
 20
93.9730234988
 30
0.0
 11
72.8553245663
 21
93.9730234988
 31
0.0
  0
SPLINE
  5
222
330
1F
100
AcDbEntity
  8
0
  6
HIDDEN
 62
     7
370
     0
100
AcDbSpline
210
0.0
220
0.0
230
1.0
 70
     8
 71
     3
 72
    73
 73
    69
 74
     0
 42
0.00000001
 43
0.00000001
 12
1.0
 22
0.0
 32
0.0
 13
1.0
 23
0.0
 33
0.0
 40
-0.0312500000000001
 40
-0.0312500000000001
 40
0.0
 40
0.0
 40
0.0312499999999999
 40
0.0312499999999999
 40
0.0624999999999998
 40
0.0624999999999998
 40
0.0937499999999997
 40
0.0937499999999997
 40
0.1093749999999996
 40
0.1093749999999996
 40
0.1249999999999996
 40
0.1406249999999995
 40
0.1406249999999995
 40
0.1562499999999994
 40
0.1562499999999994
 40
0.1874999999999995
 40
0.1874999999999995
 40
0.2187499999999995
 40
0.2187499999999995
 40
0.2499999999999996
 40
0.2499999999999996
 40
0.2812499999999996
 40
0.2812499999999996
 40
0.3124999999999996
 40
0.3124999999999996
 40
0.3749999999999996
 40
0.3749999999999996
 40
0.4062499999999997
 40
0.4062499999999997
 40
0.4374999999999997
 40
0.4374999999999997
 40
0.4687499999999998
 40
0.4687499999999998
 40
0.4999999999999998
 40
0.4999999999999998
 40
0.5312499999999998
 40
0.5312499999999998
 40
0.5624999999999998
 40
0.5624999999999998
 40
0.5937499999999998
 40
0.5937499999999998
 40
0.6249999999999998
 40
0.6249999999999998
 40
0.6406249999999998
 40
0.6406249999999998
 40
0.6562499999999999
 40
0.6562499999999999
 40
0.6874999999999999
 40
0.6874999999999999
 40
0.7187499999999999
 40
0.7187499999999999
 40
0.7499999999999999
 40
0.7499999999999999
 40
0.7812499999999999
 40
0.7812499999999999
 40
0.8124999999999999
 40
0.8124999999999999
 40
0.8437499999999999
 40
0.8437499999999999
 40
0.8749999999999999
 40
0.8749999999999999
 40
0.9062499999999999
 40
0.9062499999999999
 40
0.9374999999999999
 40
0.9374999999999999
 40
0.9687499999999999
 40
0.9687499999999999
 40
1.0
 40
1.0
 40
1.03125
 40
1.03125
 10
73.19227947038499
 20
93.26591940142276
 30
0.0
 10
73.54564103314453
 20
93.20320955670985
 30
0.0
 10
73.74040596586958
 20
93.17149376185428
 30
0.0
 10
74.16784761964138
 20
93.11091814580728
 30
0.0
 10
74.40313586703564
 20
93.08185808537782
 30
0.0
 10
74.894284324966
 20
93.03276661073521
 30
0.0
 10
75.15179315748051
 20
93.01239857741753
 30
0.0
 10
75.55762901263986
 20
92.99047237603466
 30
0.0
 10
75.6967183472671
 20
92.98461523831666
 30
0.0
 10
75.97357228749887
 20
92.97639824747606
 30
0.0
 10
76.25098622370349
 20
92.97155040448374
 30
0.0
 10
76.52950928513545
 20
92.97351345636346
 30
0.0
 10
76.80859861669174
 20
92.97892515522932
 30
0.0
 10
76.94894101691114
 20
92.98340009153644
 30
0.0
 10
77.3596269151067
 20
93.00144805322894
 30
0.0
 10
77.62329665371674
 20
93.01965075148446
 30
0.0
 10
78.1313728391548
 20
93.06580169472636
 30
0.0
 10
78.37071035889102
 20
93.0933390083886
 30
0.0
 10
78.81258671234265
 20
93.15239968969966
 30
0.0
 10
79.01845572392317
 20
93.18440721642519
 30
0.0
 10
79.38512709198453
 20
93.24703836124593
 30
0.0
 10
79.54737875858788
 20
93.27780345634446
 30
0.0
 10
79.83176269194043
 20
93.33496633077715
 30
0.0
 10
79.95218430706034
 20
93.36103428365031
 30
0.0
 10
80.24304024923626
 20
93.42607083576327
 30
0.0
 10
80.34753223600306
 20
93.45226206320172
 30
0.0
 10
80.36177145956107
 20
93.45572526721018
 30
0.0
 10
80.34330924021519
 20
93.45118367676419
 30
0.0
 10
80.25866603046111
 20
93.43090086794784
 30
0.0
 10
80.19354266727436
 20
93.41542083412395
 30
0.0
 10
80.01846884518119
 20
93.37564276157659
 30
0.0
 10
79.90762083476194
 20
93.351144882136
 30
0.0
 10
79.6409930416795
 20
93.29613856012192
 30
0.0
 10
79.4877265927225
 20
93.2661502961008
 30
0.0
 10
79.14036823220606
 20
93.20441901403035
 30
0.0
 10
78.94398704319983
 20
93.17232849684412
 30
0.0
 10
78.51537175792944
 20
93.11146047593444
 30
0.0
 10
78.28620089692342
 20
93.08306199360774
 30
0.0
 10
77.79648750872745
 20
93.03378932162914
 30
0.0
 10
77.53174890806719
 20
93.0127371791739
 30
0.0
 10
76.99272381585904
 20
92.98343569945814
 30
0.0
 10
76.71777946514261
 20
92.9749172265732
 30
0.0
 10
76.29683413629306
 20
92.97249866042469
 30
0.0
 10
76.15467952718048
 20
92.97345566848487
 30
0.0
 10
75.87557357301226
 20
92.97878181226652
 30
0.0
 10
75.73762476603544
 20
92.9831327815111
 30
0.0
 10
75.32845070649938
 20
93.00091837511896
 30
0.0
 10
75.05882506611376
 20
93.01942493357889
 30
0.0
 10
74.55257618050372
 20
93.0652868120818
 30
0.0
 10
74.31468143437233
 20
93.09253074216898
 30
0.0
 10
73.86761850626377
 20
93.15218080169204
 30
0.0
 10
73.66434425597515
 20
93.18379156183673
 30
0.0
 10
73.29726898304203
 20
93.2464095204922
 30
0.0
 10
73.13182884369778
 20
93.27775756048425
 30
0.0
 10
72.84813825404109
 20
93.33477041569152
 30
0.0
 10
72.72874050283275
 20
93.36060061607078
 30
0.0
 10
72.53323840773118
 20
93.40430115268192
 30
0.0
 10
72.45774708724518
 20
93.42204349488148
 30
0.0
 10
72.35503906816965
 20
93.44646848143266
 30
0.0
 10
72.32678264692431
 20
93.45339006201033
 30
0.0
 10
72.31710194265038
 20
93.4557445530679
 30
0.0
 10
72.33616654321287
 20
93.45105792427711
 30
0.0
 10
72.42007079102602
 20
93.43095301503305
 30
0.0
 10
72.4848082791362
 20
93.4155548498633
 30
0.0
 10
72.66205265969744
 20
93.37528904675172
 30
0.0
 10
72.77373043044558
 20
93.3506383373227
 30
0.0
 10
73.0384038896878
 20
93.29605875840464
 30
0.0
 10
73.19227947038499
 20
93.26591940142276
 30
0.0
 10
73.54564103314453
 20
93.20320955670985
 30
0.0
  0
LINE
  5
223
330
1F
100
AcDbEntity
  8
0
  6
HIDDEN
 62
     7
370
     0
100
AcDbLine
 10
72.83947625
 20
125.9730250188
 30
0.0
 11
79.8236281498
 21
125.9730250188
 31
0.0
  0
SPLINE
  5
224
330
1F
100
AcDbEntity
  8
0
  6
HIDDEN
 62
     7
370
     0
100
AcDbSpline
210
0.0
220
0.0
230
1.0
 70
     8
 71
     3
 72
    73
 73
    69
 74
     0
 42
0.00000001
 43
0.00000001
 12
1.0
 22
0.0
 32
0.0
 13
1.0
 23
0.0
 33
0.0
 40
-0.0312500000000001
 40
-0.0312500000000001
 40
0.0
 40
0.0
 40
0.0312499999999998
 40
0.0312499999999998
 40
0.0624999999999997
 40
0.0624999999999997
 40
0.0937499999999995
 40
0.0937499999999995
 40
0.1093749999999995
 40
0.1093749999999995
 40
0.1249999999999994
 40
0.1406249999999993
 40
0.1406249999999993
 40
0.1562499999999992
 40
0.1562499999999992
 40
0.1874999999999992
 40
0.1874999999999992
 40
0.2187499999999991
 40
0.2187499999999991
 40
0.2499999999999991
 40
0.2499999999999991
 40
0.2812499999999991
 40
0.2812499999999991
 40
0.312499999999999
 40
0.312499999999999
 40
0.3749999999999991
 40
0.3749999999999991
 40
0.4062499999999991
 40
0.4062499999999991
 40
0.4374999999999991
 40
0.4374999999999991
 40
0.4687499999999991
 40
0.4687499999999991
 40
0.4999999999999991
 40
0.4999999999999991
 40
0.5312499999999991
 40
0.5312499999999991
 40
0.562499999999999
 40
0.562499999999999
 40
0.5937499999999991
 40
0.5937499999999991
 40
0.6249999999999991
 40
0.6249999999999991
 40
0.6406249999999992
 40
0.6406249999999992
 40
0.6562499999999992
 40
0.6562499999999992
 40
0.6874999999999993
 40
0.6874999999999993
 40
0.7187499999999993
 40
0.7187499999999993
 40
0.7499999999999994
 40
0.7499999999999994
 40
0.7812499999999996
 40
0.7812499999999996
 40
0.8124999999999996
 40
0.8124999999999996
 40
0.8437499999999997
 40
0.8437499999999997
 40
0.8749999999999997
 40
0.8749999999999997
 40
0.9062499999999998
 40
0.9062499999999998
 40
0.9374999999999999
 40
0.9374999999999999
 40
0.9687499999999999
 40
0.9687499999999999
 40
1.0
 40
1.0
 40
1.03125
 40
1.03125
 10
79.48667324572119
 20
126.6801291161676
 30
0.0
 10
79.13331168296166
 20
126.7428389608805
 30
0.0
 10
78.93854675023661
 20
126.7745547557361
 30
0.0
 10
78.5111050964648
 20
126.8351303717831
 30
0.0
 10
78.27581684907055
 20
126.8641904322125
 30
0.0
 10
77.78466839114019
 20
126.9132819068551
 30
0.0
 10
77.52715955862567
 20
126.9336499401728
 30
0.0
 10
77.12132370346632
 20
126.9555761415557
 30
0.0
 10
76.9822343688391
 20
126.9614332792737
 30
0.0
 10
76.7053804139119
 20
126.9696501924742
 30
0.0
 10
76.4279664924027
 20
126.9744981131066
 30
0.0
 10
76.14944343097073
 20
126.9725350612269
 30
0.0
 10
75.87035409941446
 20
126.9671233623611
 30
0.0
 10
75.73001169919506
 20
126.962648426054
 30
0.0
 10
75.3193258009995
 20
126.9446004643614
 30
0.0
 10
75.05565606238946
 20
126.9263977661059
 30
0.0
 10
74.54757987695139
 20
126.880246822864
 30
0.0
 10
74.30824235721518
 20
126.8527095092018
 30
0.0
 10
73.86636600376353
 20
126.7936488278907
 30
0.0
 10
73.66049699218303
 20
126.7616413011652
 30
0.0
 10
73.29382562412165
 20
126.6990101563445
 30
0.0
 10
73.1315739575183
 20
126.6682450612459
 30
0.0
 10
72.84719002416577
 20
126.6110821868132
 30
0.0
 10
72.72676840904586
 20
126.5850142339401
 30
0.0
 10
72.43591246686992
 20
126.5199776818271
 30
0.0
 10
72.33142048010312
 20
126.4937864543887
 30
0.0
 10
72.31718125654511
 20
126.4903232503802
 30
0.0
 10
72.335643475891
 20
126.4948648408262
 30
0.0
 10
72.42028668564507
 20
126.5151476496426
 30
0.0
 10
72.48541004883184
 20
126.5306276834665
 30
0.0
 10
72.660483870925
 20
126.5704057560138
 30
0.0
 10
72.77133188134424
 20
126.5949036354544
 30
0.0
 10
73.03795967442669
 20
126.6499099574685
 30
0.0
 10
73.1912261233837
 20
126.6798982214896
 30
0.0
 10
73.53858448390012
 20
126.74162950356
 30
0.0
 10
73.73496567290637
 20
126.7737200207463
 30
0.0
 10
74.16358095817675
 20
126.8345880416559
 30
0.0
 10
74.39275181918278
 20
126.8629865239826
 30
0.0
 10
74.88246520737873
 20
126.9122591959612
 30
0.0
 10
75.14720380803901
 20
126.9333113384165
 30
0.0
 10
75.68622890024714
 20
126.9626128181322
 30
0.0
 10
75.96117325096358
 20
126.9711312910172
 30
0.0
 10
76.38211857981314
 20
126.9735498571657
 30
0.0
 10
76.52427318892572
 20
126.9725928491055
 30
0.0
 10
76.80337914309393
 20
126.9672667053239
 30
0.0
 10
76.94132795007076
 20
126.9629157360793
 30
0.0
 10
77.35050200960681
 20
126.9451301424714
 30
0.0
 10
77.62012764999244
 20
126.9266235840115
 30
0.0
 10
78.12637653560247
 20
126.8807617055086
 30
0.0
 10
78.36427128173385
 20
126.8535177754214
 30
0.0
 10
78.81133420984241
 20
126.7938677158983
 30
0.0
 10
79.01460846013104
 20
126.7622569557536
 30
0.0
 10
79.38168373306416
 20
126.6996389970982
 30
0.0
 10
79.54712387240842
 20
126.6682909571061
 30
0.0
 10
79.83081446206509
 20
126.6112781018988
 30
0.0
 10
79.95021221327345
 20
126.5854479015196
 30
0.0
 10
80.145714308375
 20
126.5417473649084
 30
0.0
 10
80.221205628861
 20
126.5240050227089
 30
0.0
 10
80.32391364793654
 20
126.4995800361577
 30
0.0
 10
80.35217006918188
 20
126.49265845558
 30
0.0
 10
80.3618507734558
 20
126.4903039645224
 30
0.0
 10
80.34278617289333
 20
126.4949905933132
 30
0.0
 10
80.25888192508016
 20
126.5150955025573
 30
0.0
 10
80.19414443696999
 20
126.530493667727
 30
0.0
 10
80.01690005640876
 20
126.5707594708386
 30
0.0
 10
79.90522228566061
 20
126.5954101802676
 30
0.0
 10
79.6405488264184
 20
126.6499897591857
 30
0.0
 10
79.48667324572119
 20
126.6801291161676
 30
0.0
 10
79.13331168296166
 20
126.7428389608805
 30
0.0
  0
LINE
  5
225
330
1F
100
AcDbEntity
  8
0
  6
HIDDEN
 62
     7
370
     0
100
AcDbLine
 10
79.1679034828
 20
107.144597134
 30
0.0
 11
79.8253180346
 21
106.4871825822
 31
0.0
  0
LINE
  5
226
330
1F
100
AcDbEntity
  8
0
  6
HIDDEN
 62
     7
370
     0
100
AcDbLine
 10
79.1679034828
 20
112.8014513836
 30
0.0
 11
79.8253180346
 21
113.4588659354
 31
0.0
  0
SPLINE
  5
227
330
1F
100
AcDbEntity
  8
0
  6
HIDDEN
 62
     7
370
     0
100
AcDbSpline
210
0.0
220
0.0
230
1.0
 70
    11
 71
     3
 72
    60
 73
    56
 74
     0
 42
0.00000001
 43
0.00000001
 12
1.0
 22
0.0
 32
0.0
 13
1.0
 23
0.0
 33
0.0
 40
0.0
 40
0.0
 40
0.0
 40
0.0
 40
0.0312499999999998
 40
0.0312499999999998
 40
0.0624999999999995
 40
0.0624999999999995
 40
0.0937499999999993
 40
0.0937499999999993
 40
0.1249999999999991
 40
0.1249999999999991
 40
0.1562499999999989
 40
0.1562499999999989
 40
0.1874999999999986
 40
0.1874999999999986
 40
0.2187499999999984
 40
0.2187499999999984
 40
0.2499999999999982
 40
0.2499999999999982
 40
0.3124999999999982
 40
0.3124999999999982
 40
0.3749999999999981
 40
0.3749999999999981
 40
0.4062499999999981
 40
0.4062499999999981
 40
0.437499999999998
 40
0.437499999999998
 40
0.4687499999999979
 40
0.4687499999999979
 40
0.4999999999999979
 40
0.4999999999999979
 40
0.5312499999999979
 40
0.5312499999999979
 40
0.5624999999999979
 40
0.5624999999999979
 40
0.6249999999999978
 40
0.6249999999999978
 40
0.6874999999999977
 40
0.6874999999999977
 40
0.7187499999999979
 40
0.7187499999999979
 40
0.749999999999998
 40
0.749999999999998
 40
0.7812499999999982
 40
0.7812499999999982
 40
0.8124999999999984
 40
0.8124999999999984
 40
0.8437499999999987
 40
0.8437499999999987
 40
0.8749999999999989
 40
0.8749999999999989
 40
0.9374999999999991
 40
0.9374999999999991
 40
0.9687499999999996
 40
0.9687499999999996
 40
1.0
 40
1.0
 40
1.0
 40
1.0
 10
79.16790348279923
 20
107.144597134049
 30
0.0
 10
79.06837264527586
 20
107.0450662965256
 30
0.0
 10
78.95892152108169
 20
106.9460803369929
 30
0.0
 10
78.71757066965509
 20
106.7530009804669
 30
0.0
 10
78.58519068462282
 20
106.6587653640227
 30
0.0
 10
78.30291652972751
 20
106.484120770535
 30
0.0
 10
78.15221524908588
 20
106.4029354187631
 30
0.0
 10
77.82860449305679
 20
106.2562980097522
 30
0.0
 10
77.6547494122785
 20
106.190813166826
 30
0.0
 10
77.29565500592692
 20
106.0844787280426
 30
0.0
 10
77.10895872298809
 20
106.0427992662458
 30
0.0
 10
76.71923326674964
 20
105.9862265096858
 30
0.0
 10
76.52273581746836
 20
105.9723932636719
 30
0.0
 10
76.12963551424525
 20
105.9736994146651
 30
0.0
 10
75.93003192425803
 20
105.9892492031241
 30
0.0
 10
75.54405765127238
 20
106.0480506895266
 30
0.0
 10
75.35780310783358
 20
106.0907897365532
 30
0.0
 10
74.81748095715153
 20
106.2547936280825
 30
0.0
 10
74.4929921629886
 20
106.4091365135655
 30
0.0
 10
73.92932087759364
 20
106.7633591199945
 30
0.0
 10
73.69393998236501
 20
106.9595386794585
 30
0.0
 10
73.39571683158286
 20
107.261148641569
 30
0.0
 10
73.306139231587
 20
107.3625696608642
 30
0.0
 10
73.14914901967575
 20
107.5569491762163
 30
0.0
 10
73.0810856037359
 20
107.6506614544856
 30
0.0
 10
72.96656046265876
 20
107.8203706254262
 30
0.0
 10
72.92017957597322
 20
107.896404667218
 30
0.0
 10
72.85670971542632
 20
108.0047062141006
 30
0.0
 10
72.83942668596323
 20
108.0366223626283
 30
0.0
 10
72.8395262542536
 20
108.0364424036987
 30
0.0
 10
72.85688838920673
 20
108.0043891270629
 30
0.0
 10
72.9203997843525
 20
107.89604120017
 30
0.0
 10
72.96627257692619
 20
107.8208009509202
 30
0.0
 10
73.13878806745055
 20
107.5651475737727
 30
0.0
 10
73.29515715296827
 20
107.362970115819
 30
0.0
 10
73.69342366223829
 20
106.9599415877278
 30
0.0
 10
73.93011992599736
 20
106.7629753975845
 30
0.0
 10
74.35013791253446
 20
106.4988501733191
 30
0.0
 10
74.50272064756923
 20
106.4152673219893
 30
0.0
 10
74.82402534767756
 20
106.2669867257234
 30
0.0
 10
74.99342527843434
 20
106.2016377164585
 30
0.0
 10
75.35239708782547
 20
106.0921887205447
 30
0.0
 10
75.54175898966093
 20
106.0486101842946
 30
0.0
 10
75.92395867773376
 20
105.989969666486
 30
0.0
 10
76.11893435751699
 20
105.974144609422
 30
0.0
 10
76.5173115328123
 20
105.972017901041
 30
0.0
 10
76.71515689004707
 20
105.9859550294856
 30
0.0
 10
77.10034678731445
 20
106.0412392835832
 30
0.0
 10
77.29094531855125
 20
106.0832727018546
 30
0.0
 10
77.83277535648767
 20
106.2431583722883
 30
0.0
 10
78.16101872884225
 20
106.3964504361847
 30
0.0
 10
78.58396889376196
 20
106.6579484698519
 30
0.0
 10
78.7143187047219
 20
106.7505941121077
 30
0.0
 10
78.95610829612507
 20
106.9436399116921
 30
0.0
 10
79.06769534079115
 20
107.0443889920409
 30
0.0
 10
79.16790348279923
 20
107.144597134049
 30
0.0
  0
SPLINE
  5
228
330
1F
100
AcDbEntity
  8
0
  6
HIDDEN
 62
     7
370
     0
100
AcDbSpline
210
0.0
220
0.0
230
1.0
 70
    11
 71
     3
 72
    64
 73
    60
 74
     0
 42
0.00000001
 43
0.00000001
 12
1.0
 22
0.0
 32
0.0
 13
1.0
 23
0.0
 33
0.0
 40
0.0
 40
0.0
 40
0.0
 40
0.0
 40
0.0624999999999991
 40
0.0624999999999991
 40
0.093749999999999
 40
0.093749999999999
 40
0.1249999999999988
 40
0.1249999999999988
 40
0.1562499999999986
 40
0.1562499999999986
 40
0.1874999999999985
 40
0.1874999999999985
 40
0.2187499999999983
 40
0.2187499999999983
 40
0.2499999999999982
 40
0.2499999999999982
 40
0.3124999999999978
 40
0.3124999999999978
 40
0.3437499999999979
 40
0.3437499999999979
 40
0.3749999999999981
 40
0.3749999999999981
 40
0.4062499999999982
 40
0.4062499999999982
 40
0.4374999999999983
 40
0.4374999999999983
 40
0.4687499999999984
 40
0.4687499999999984
 40
0.4999999999999986
 40
0.4999999999999986
 40
0.5312499999999987
 40
0.5312499999999987
 40
0.5624999999999988
 40
0.5624999999999988
 40
0.5937499999999989
 40
0.5937499999999989
 40
0.624999999999999
 40
0.624999999999999
 40
0.6562499999999991
 40
0.6562499999999991
 40
0.6874999999999992
 40
0.6874999999999992
 40
0.7187499999999993
 40
0.7187499999999993
 40
0.7499999999999994
 40
0.7499999999999994
 40
0.7812499999999997
 40
0.7812499999999997
 40
0.8124999999999998
 40
0.8124999999999998
 40
0.8437499999999999
 40
0.8437499999999999
 40
0.875
 40
0.875
 40
0.9062500000000001
 40
0.9062500000000001
 40
0.9375000000000002
 40
0.9375000000000002
 40
1.0
 40
1.0
 40
1.0
 40
1.0
 10
79.16790348279932
 20
112.8014513835414
 30
0.0
 10
78.96627149762921
 20
113.0030833687115
 30
0.0
 10
78.72781680465283
 20
113.1989027861705
 30
0.0
 10
78.30395392266628
 20
113.4613538717608
 30
0.0
 10
78.15018478368378
 20
113.5441329734711
 30
0.0
 10
77.8268790522715
 20
113.6904313766552
 30
0.0
 10
77.65642825094615
 20
113.754708288548
 30
0.0
 10
77.29514257828697
 20
113.8617513596068
 30
0.0
 10
77.10545949056483
 20
113.9037664333329
 30
0.0
 10
76.72235863598885
 20
113.9593590870835
 30
0.0
 10
76.52692239336288
 20
113.9736162437307
 30
0.0
 10
76.12756354150727
 20
113.9723948598107
 30
0.0
 10
75.93093140269994
 20
113.9568504199135
 30
0.0
 10
75.54659925592264
 20
113.8984701905936
 30
0.0
 10
75.35656280798818
 20
113.8549178646851
 30
0.0
 10
74.81787601075182
 20
113.6913034899038
 30
0.0
 10
74.49179679399865
 20
113.5360383912209
 30
0.0
 10
74.07242851069189
 20
113.2726820331102
 30
0.0
 10
73.94318367887513
 20
113.179508626009
 30
0.0
 10
73.70352539719134
 20
112.9855851516902
 30
0.0
 10
73.59317553111921
 20
112.8846694414723
 30
0.0
 10
73.39514430365668
 20
112.6842517769645
 30
0.0
 10
73.30661673082491
 20
112.5840411364238
 30
0.0
 10
73.14940064575885
 20
112.3894397039458
 30
0.0
 10
73.08027250282281
 20
112.2942466345702
 30
0.0
 10
72.96578688710653
 20
112.1244662034851
 30
0.0
 10
72.92006629467086
 20
112.0494699306686
 30
0.0
 10
72.85619271564997
 20
111.9404405534234
 30
0.0
 10
72.83931333511671
 20
111.9092212859335
 30
0.0
 10
72.83964172639334
 20
111.9098148169262
 30
0.0
 10
72.85683111401401
 20
111.9415733371234
 30
0.0
 10
72.92083509150096
 20
112.0507382093287
 30
0.0
 10
72.96701859510674
 20
112.1263780786189
 30
0.0
 10
73.0811515124043
 20
112.2954633293489
 30
0.0
 10
73.15002264980386
 20
112.3902890442871
 30
0.0
 10
73.30800538690185
 20
112.5856795654347
 30
0.0
 10
73.3965836378165
 20
112.685770875177
 30
0.0
 10
73.59350593781147
 20
112.8849408473448
 30
0.0
 10
73.7018473142523
 20
112.9840965956179
 30
0.0
 10
73.940787956472
 20
113.177698585837
 30
0.0
 10
74.07210668373929
 20
113.2724799467013
 30
0.0
 10
74.35232973429478
 20
113.4484553647358
 30
0.0
 10
74.50195316743678
 20
113.5303839318394
 30
0.0
 10
74.82319107785399
 20
113.6787196413793
 30
0.0
 10
74.99613450968712
 20
113.745338892191
 30
0.0
 10
75.35370804535309
 20
113.8541562906359
 30
0.0
 10
75.53961200240074
 20
113.8971465061739
 30
0.0
 10
75.92760531083579
 20
113.9566006218488
 30
0.0
 10
76.12471777879779
 20
113.9720857027404
 30
0.0
 10
76.51772096147943
 20
113.973879485014
 30
0.0
 10
76.71717884036458
 20
113.9599595283037
 30
0.0
 10
77.10463272580947
 20
113.9040352917582
 30
0.0
 10
77.29157858693536
 20
113.8626300554855
 30
0.0
 10
77.65314048086626
 20
113.7558563301833
 30
0.0
 10
77.82647464807198
 20
113.6906033733909
 30
0.0
 10
78.15017829514483
 20
113.5441468949994
 30
0.0
 10
78.30297127497998
 20
113.4619587222244
 30
0.0
 10
78.72959575932119
 20
113.1978084629383
 30
0.0
 10
78.96706611627145
 20
113.0022887500692
 30
0.0
 10
79.16790348279923
 20
112.8014513835414
 30
0.0
  0
LINE
  5
229
330
1F
100
AcDbEntity
  8
0
  6
HIDDEN
 62
     7
370
     0
100
AcDbLine
 10
79.8394764661
 20
93.9730234988
 30
0.0
 11
72.8553245663
 21
93.9730234988
 31
0.0
  0
SPLINE
  5
22A
330
1F
100
AcDbEntity
  8
0
  6
HIDDEN
 62
     7
370
     0
100
AcDbSpline
210
0.0
220
0.0
230
1.0
 70
     8
 71
     3
 72
    73
 73
    69
 74
     0
 42
0.00000001
 43
0.00000001
 12
1.0
 22
0.0
 32
0.0
 13
1.0
 23
0.0
 33
0.0
 40
-0.0312500000000001
 40
-0.0312500000000001
 40
0.0
 40
0.0
 40
0.0312499999999999
 40
0.0312499999999999
 40
0.0624999999999998
 40
0.0624999999999998
 40
0.0937499999999996
 40
0.0937499999999996
 40
0.1093749999999996
 40
0.1093749999999996
 40
0.1249999999999995
 40
0.1406249999999994
 40
0.1406249999999994
 40
0.1562499999999994
 40
0.1562499999999994
 40
0.1874999999999994
 40
0.1874999999999994
 40
0.2187499999999995
 40
0.2187499999999995
 40
0.2499999999999996
 40
0.2499999999999996
 40
0.2812499999999996
 40
0.2812499999999996
 40
0.3124999999999996
 40
0.3124999999999996
 40
0.3749999999999997
 40
0.3749999999999997
 40
0.4062499999999998
 40
0.4062499999999998
 40
0.4374999999999998
 40
0.4374999999999998
 40
0.4687499999999998
 40
0.4687499999999998
 40
0.4999999999999999
 40
0.4999999999999999
 40
0.5312499999999999
 40
0.5312499999999999
 40
0.5625
 40
0.5625
 40
0.59375
 40
0.59375
 40
0.6249999999999999
 40
0.6249999999999999
 40
0.640625
 40
0.640625
 40
0.65625
 40
0.65625
 40
0.6875
 40
0.6875
 40
0.71875
 40
0.71875
 40
0.75
 40
0.75
 40
0.78125
 40
0.78125
 40
0.8125
 40
0.8125
 40
0.84375
 40
0.84375
 40
0.8749999999999999
 40
0.8749999999999999
 40
0.9062499999999999
 40
0.9062499999999999
 40
0.9374999999999999
 40
0.9374999999999999
 40
0.9687499999999999
 40
0.9687499999999999
 40
1.0
 40
1.0
 40
1.03125
 40
1.03125
 10
73.19227947038499
 20
93.26591940142276
 30
0.0
 10
73.54564103314453
 20
93.20320955670984
 30
0.0
 10
73.74040596586958
 20
93.17149376185428
 30
0.0
 10
74.16784761964138
 20
93.11091814580728
 30
0.0
 10
74.40313586703564
 20
93.0818580853778
 30
0.0
 10
74.894284324966
 20
93.03276661073521
 30
0.0
 10
75.15179315748051
 20
93.01239857741756
 30
0.0
 10
75.55762901263986
 20
92.99047237603466
 30
0.0
 10
75.6967183472671
 20
92.98461523831666
 30
0.0
 10
75.97357228749887
 20
92.97639824747604
 30
0.0
 10
76.25098622370349
 20
92.97155040448374
 30
0.0
 10
76.52950928513545
 20
92.97351345636346
 30
0.0
 10
76.80859861669174
 20
92.97892515522932
 30
0.0
 10
76.94894101691114
 20
92.98340009153642
 30
0.0
 10
77.3596269151067
 20
93.00144805322894
 30
0.0
 10
77.62329665371674
 20
93.01965075148446
 30
0.0
 10
78.1313728391548
 20
93.06580169472636
 30
0.0
 10
78.37071035889102
 20
93.0933390083886
 30
0.0
 10
78.81258671234266
 20
93.15239968969966
 30
0.0
 10
79.01845572392317
 20
93.18440721642517
 30
0.0
 10
79.38512709198453
 20
93.24703836124591
 30
0.0
 10
79.5473787585879
 20
93.27780345634446
 30
0.0
 10
79.83176269194043
 20
93.33496633077714
 30
0.0
 10
79.95218430706034
 20
93.36103428365031
 30
0.0
 10
80.24304024923626
 20
93.42607083576324
 30
0.0
 10
80.34753223600308
 20
93.45226206320173
 30
0.0
 10
80.36177145956108
 20
93.45572526721018
 30
0.0
 10
80.34330924021519
 20
93.4511836767642
 30
0.0
 10
80.25866603046111
 20
93.43090086794784
 30
0.0
 10
80.19354266727436
 20
93.41542083412395
 30
0.0
 10
80.01846884518119
 20
93.37564276157659
 30
0.0
 10
79.90762083476196
 20
93.351144882136
 30
0.0
 10
79.64099304167951
 20
93.29613856012193
 30
0.0
 10
79.4877265927225
 20
93.2661502961008
 30
0.0
 10
79.14036823220607
 20
93.20441901403034
 30
0.0
 10
78.94398704319983
 20
93.17232849684412
 30
0.0
 10
78.51537175792944
 20
93.11146047593444
 30
0.0
 10
78.28620089692342
 20
93.08306199360774
 30
0.0
 10
77.79648750872745
 20
93.03378932162916
 30
0.0
 10
77.53174890806719
 20
93.01273717917388
 30
0.0
 10
76.99272381585904
 20
92.98343569945814
 30
0.0
 10
76.71777946514261
 20
92.97491722657321
 30
0.0
 10
76.29683413629306
 20
92.97249866042469
 30
0.0
 10
76.15467952718048
 20
92.97345566848486
 30
0.0
 10
75.87557357301226
 20
92.97878181226652
 30
0.0
 10
75.73762476603544
 20
92.9831327815111
 30
0.0
 10
75.32845070649937
 20
93.00091837511896
 30
0.0
 10
75.05882506611376
 20
93.01942493357889
 30
0.0
 10
74.55257618050372
 20
93.0652868120818
 30
0.0
 10
74.31468143437233
 20
93.09253074216898
 30
0.0
 10
73.86761850626377
 20
93.15218080169203
 30
0.0
 10
73.66434425597515
 20
93.18379156183673
 30
0.0
 10
73.29726898304202
 20
93.24640952049218
 30
0.0
 10
73.13182884369776
 20
93.27775756048425
 30
0.0
 10
72.84813825404109
 20
93.33477041569151
 30
0.0
 10
72.72874050283275
 20
93.36060061607077
 30
0.0
 10
72.53323840773118
 20
93.40430115268191
 30
0.0
 10
72.45774708724518
 20
93.42204349488148
 30
0.0
 10
72.35503906816965
 20
93.44646848143266
 30
0.0
 10
72.32678264692431
 20
93.45339006201031
 30
0.0
 10
72.31710194265038
 20
93.4557445530679
 30
0.0
 10
72.33616654321287
 20
93.45105792427711
 30
0.0
 10
72.42007079102602
 20
93.43095301503305
 30
0.0
 10
72.4848082791362
 20
93.41555484986331
 30
0.0
 10
72.66205265969742
 20
93.37528904675172
 30
0.0
 10
72.77373043044557
 20
93.3506383373227
 30
0.0
 10
73.03840388968779
 20
93.29605875840464
 30
0.0
 10
73.19227947038499
 20
93.26591940142276
 30
0.0
 10
73.54564103314453
 20
93.20320955670984
 30
0.0
  0
LINE
  5
22B
330
1F
100
AcDbEntity
  8
0
  6
HIDDEN
 62
     7
370
     0
100
AcDbLine
 10
72.83947625
 20
125.9730250188
 30
0.0
 11
79.8236281498
 21
125.9730250188
 31
0.0
  0
SPLINE
  5
22C
330
1F
100
AcDbEntity
  8
0
  6
HIDDEN
 62
     7
370
     0
100
AcDbSpline
210
0.0
220
0.0
230
1.0
 70
     8
 71
     3
 72
    73
 73
    69
 74
     0
 42
0.00000001
 43
0.00000001
 12
1.0
 22
0.0
 32
0.0
 13
1.0
 23
0.0
 33
0.0
 40
-0.03125
 40
-0.03125
 40
0.0
 40
0.0
 40
0.0312500000000002
 40
0.0312500000000002
 40
0.0625000000000003
 40
0.0625000000000003
 40
0.0937500000000005
 40
0.0937500000000005
 40
0.1093750000000006
 40
0.1093750000000006
 40
0.1250000000000007
 40
0.1406250000000008
 40
0.1406250000000008
 40
0.1562500000000009
 40
0.1562500000000009
 40
0.1875000000000009
 40
0.1875000000000009
 40
0.2187500000000009
 40
0.2187500000000009
 40
0.2500000000000009
 40
0.2500000000000009
 40
0.2812500000000009
 40
0.2812500000000009
 40
0.3125000000000009
 40
0.3125000000000009
 40
0.3750000000000009
 40
0.3750000000000009
 40
0.4062500000000009
 40
0.4062500000000009
 40
0.4375000000000009
 40
0.4375000000000009
 40
0.4687500000000009
 40
0.4687500000000009
 40
0.5000000000000009
 40
0.5000000000000009
 40
0.5312500000000008
 40
0.5312500000000008
 40
0.5625000000000008
 40
0.5625000000000008
 40
0.5937500000000007
 40
0.5937500000000007
 40
0.6250000000000007
 40
0.6250000000000007
 40
0.6406250000000007
 40
0.6406250000000007
 40
0.6562500000000006
 40
0.6562500000000006
 40
0.6875000000000006
 40
0.6875000000000006
 40
0.7187500000000004
 40
0.7187500000000004
 40
0.7500000000000004
 40
0.7500000000000004
 40
0.7812500000000003
 40
0.7812500000000003
 40
0.8125000000000003
 40
0.8125000000000003
 40
0.8437500000000002
 40
0.8437500000000002
 40
0.8750000000000002
 40
0.8750000000000002
 40
0.9062500000000001
 40
0.9062500000000001
 40
0.9375000000000001
 40
0.9375000000000001
 40
0.96875
 40
0.96875
 40
1.0
 40
1.0
 40
1.03125
 40
1.03125
 10
79.48667324572119
 20
126.6801291161676
 30
0.0
 10
79.13331168296166
 20
126.7428389608805
 30
0.0
 10
78.93854675023661
 20
126.7745547557361
 30
0.0
 10
78.5111050964648
 20
126.8351303717831
 30
0.0
 10
78.27581684907055
 20
126.8641904322125
 30
0.0
 10
77.78466839114019
 20
126.9132819068551
 30
0.0
 10
77.52715955862567
 20
126.9336499401728
 30
0.0
 10
77.12132370346632
 20
126.9555761415557
 30
0.0
 10
76.9822343688391
 20
126.9614332792737
 30
0.0
 10
76.7053804139119
 20
126.9696501924742
 30
0.0
 10
76.4279664924027
 20
126.9744981131066
 30
0.0
 10
76.14944343097073
 20
126.9725350612269
 30
0.0
 10
75.87035409941446
 20
126.9671233623611
 30
0.0
 10
75.73001169919506
 20
126.9626484260539
 30
0.0
 10
75.3193258009995
 20
126.9446004643615
 30
0.0
 10
75.05565606238946
 20
126.9263977661059
 30
0.0
 10
74.54757987695139
 20
126.880246822864
 30
0.0
 10
74.30824235721518
 20
126.8527095092018
 30
0.0
 10
73.86636600376355
 20
126.7936488278907
 30
0.0
 10
73.66049699218303
 20
126.7616413011652
 30
0.0
 10
73.29382562412167
 20
126.6990101563445
 30
0.0
 10
73.1315739575183
 20
126.6682450612459
 30
0.0
 10
72.84719002416577
 20
126.6110821868132
 30
0.0
 10
72.72676840904586
 20
126.5850142339401
 30
0.0
 10
72.43591246686992
 20
126.5199776818272
 30
0.0
 10
72.33142048010312
 20
126.4937864543887
 30
0.0
 10
72.31718125654511
 20
126.4903232503802
 30
0.0
 10
72.335643475891
 20
126.4948648408262
 30
0.0
 10
72.42028668564507
 20
126.5151476496426
 30
0.0
 10
72.48541004883184
 20
126.5306276834665
 30
0.0
 10
72.660483870925
 20
126.5704057560138
 30
0.0
 10
72.77133188134424
 20
126.5949036354544
 30
0.0
 10
73.03795967442669
 20
126.6499099574684
 30
0.0
 10
73.1912261233837
 20
126.6798982214896
 30
0.0
 10
73.53858448390014
 20
126.74162950356
 30
0.0
 10
73.73496567290637
 20
126.7737200207463
 30
0.0
 10
74.16358095817675
 20
126.8345880416559
 30
0.0
 10
74.39275181918278
 20
126.8629865239826
 30
0.0
 10
74.88246520737874
 20
126.9122591959612
 30
0.0
 10
75.14720380803901
 20
126.9333113384165
 30
0.0
 10
75.68622890024716
 20
126.9626128181322
 30
0.0
 10
75.96117325096358
 20
126.9711312910172
 30
0.0
 10
76.38211857981315
 20
126.9735498571657
 30
0.0
 10
76.52427318892572
 20
126.9725928491055
 30
0.0
 10
76.80337914309395
 20
126.9672667053239
 30
0.0
 10
76.94132795007076
 20
126.9629157360793
 30
0.0
 10
77.35050200960683
 20
126.9451301424714
 30
0.0
 10
77.62012764999244
 20
126.9266235840115
 30
0.0
 10
78.12637653560247
 20
126.8807617055086
 30
0.0
 10
78.36427128173386
 20
126.8535177754214
 30
0.0
 10
78.81133420984241
 20
126.7938677158983
 30
0.0
 10
79.01460846013103
 20
126.7622569557536
 30
0.0
 10
79.38168373306416
 20
126.6996389970982
 30
0.0
 10
79.54712387240842
 20
126.6682909571061
 30
0.0
 10
79.83081446206509
 20
126.6112781018988
 30
0.0
 10
79.95021221327343
 20
126.5854479015196
 30
0.0
 10
80.145714308375
 20
126.5417473649084
 30
0.0
 10
80.221205628861
 20
126.5240050227089
 30
0.0
 10
80.32391364793654
 20
126.4995800361577
 30
0.0
 10
80.35217006918187
 20
126.49265845558
 30
0.0
 10
80.3618507734558
 20
126.4903039645224
 30
0.0
 10
80.34278617289331
 20
126.4949905933132
 30
0.0
 10
80.25888192508016
 20
126.5150955025573
 30
0.0
 10
80.19414443696999
 20
126.530493667727
 30
0.0
 10
80.01690005640876
 20
126.5707594708386
 30
0.0
 10
79.9052222856606
 20
126.5954101802676
 30
0.0
 10
79.6405488264184
 20
126.6499897591857
 30
0.0
 10
79.48667324572119
 20
126.6801291161676
 30
0.0
 10
79.13331168296166
 20
126.7428389608805
 30
0.0
  0
LINE
  5
22D
330
1F
100
AcDbEntity
  8
0
  6
HIDDEN
 62
     7
370
     0
100
AcDbLine
 10
79.1679034828
 20
107.144597134
 30
0.0
 11
79.8253180346
 21
106.4871825822
 31
0.0
  0
LINE
  5
22E
330
1F
100
AcDbEntity
  8
0
  6
HIDDEN
 62
     7
370
     0
100
AcDbLine
 10
79.1679034828
 20
112.8014513836
 30
0.0
 11
79.8253180346
 21
113.4588659354
 31
0.0
  0
SPLINE
  5
22F
330
1F
100
AcDbEntity
  8
0
  6
HIDDEN
 62
     7
370
     0
100
AcDbSpline
210
0.0
220
0.0
230
1.0
 70
    11
 71
     3
 72
    60
 73
    56
 74
     0
 42
0.00000001
 43
0.00000001
 12
1.0
 22
0.0
 32
0.0
 13
1.0
 23
0.0
 33
0.0
 40
0.0
 40
0.0
 40
0.0
 40
0.0
 40
0.03125
 40
0.03125
 40
0.0625
 40
0.0625
 40
0.09375
 40
0.09375
 40
0.1249999999999999
 40
0.1249999999999999
 40
0.1562499999999999
 40
0.1562499999999999
 40
0.1874999999999999
 40
0.1874999999999999
 40
0.2187499999999998
 40
0.2187499999999998
 40
0.2499999999999998
 40
0.2499999999999998
 40
0.3125000000000001
 40
0.3125000000000001
 40
0.3750000000000004
 40
0.3750000000000004
 40
0.4062500000000006
 40
0.4062500000000006
 40
0.4375000000000007
 40
0.4375000000000007
 40
0.4687500000000008
 40
0.4687500000000008
 40
0.500000000000001
 40
0.500000000000001
 40
0.5312500000000012
 40
0.5312500000000012
 40
0.5625000000000014
 40
0.5625000000000014
 40
0.6250000000000017
 40
0.6250000000000017
 40
0.687500000000002
 40
0.687500000000002
 40
0.7187500000000019
 40
0.7187500000000019
 40
0.7500000000000018
 40
0.7500000000000018
 40
0.7812500000000016
 40
0.7812500000000016
 40
0.8125000000000013
 40
0.8125000000000013
 40
0.8437500000000011
 40
0.8437500000000011
 40
0.8750000000000008
 40
0.8750000000000008
 40
0.9375000000000001
 40
0.9375000000000001
 40
0.9687500000000001
 40
0.9687500000000001
 40
1.0
 40
1.0
 40
1.0
 40
1.0
 10
79.16790348279923
 20
107.144597134049
 30
0.0
 10
79.06837264527586
 20
107.0450662965256
 30
0.0
 10
78.95892152108168
 20
106.9460803369929
 30
0.0
 10
78.71757066965509
 20
106.7530009804669
 30
0.0
 10
78.5851906846228
 20
106.6587653640227
 30
0.0
 10
78.30291652972751
 20
106.484120770535
 30
0.0
 10
78.15221524908588
 20
106.4029354187631
 30
0.0
 10
77.82860449305679
 20
106.2562980097522
 30
0.0
 10
77.6547494122785
 20
106.190813166826
 30
0.0
 10
77.29565500592692
 20
106.0844787280426
 30
0.0
 10
77.10895872298809
 20
106.0427992662458
 30
0.0
 10
76.71923326674963
 20
105.9862265096858
 30
0.0
 10
76.52273581746836
 20
105.9723932636719
 30
0.0
 10
76.12963551424525
 20
105.9736994146651
 30
0.0
 10
75.93003192425802
 20
105.9892492031241
 30
0.0
 10
75.54405765127238
 20
106.0480506895266
 30
0.0
 10
75.35780310783358
 20
106.0907897365532
 30
0.0
 10
74.81748095715153
 20
106.2547936280825
 30
0.0
 10
74.4929921629886
 20
106.4091365135655
 30
0.0
 10
73.92932087759364
 20
106.7633591199945
 30
0.0
 10
73.69393998236501
 20
106.9595386794585
 30
0.0
 10
73.39571683158286
 20
107.261148641569
 30
0.0
 10
73.306139231587
 20
107.3625696608642
 30
0.0
 10
73.14914901967573
 20
107.5569491762163
 30
0.0
 10
73.0810856037359
 20
107.6506614544856
 30
0.0
 10
72.96656046265876
 20
107.8203706254262
 30
0.0
 10
72.92017957597322
 20
107.896404667218
 30
0.0
 10
72.85670971542632
 20
108.0047062141006
 30
0.0
 10
72.83942668596323
 20
108.0366223626283
 30
0.0
 10
72.8395262542536
 20
108.0364424036987
 30
0.0
 10
72.85688838920673
 20
108.0043891270629
 30
0.0
 10
72.9203997843525
 20
107.89604120017
 30
0.0
 10
72.96627257692619
 20
107.8208009509202
 30
0.0
 10
73.13878806745055
 20
107.5651475737727
 30
0.0
 10
73.29515715296827
 20
107.362970115819
 30
0.0
 10
73.69342366223829
 20
106.9599415877278
 30
0.0
 10
73.93011992599736
 20
106.7629753975845
 30
0.0
 10
74.35013791253446
 20
106.4988501733191
 30
0.0
 10
74.50272064756923
 20
106.4152673219893
 30
0.0
 10
74.82402534767756
 20
106.2669867257234
 30
0.0
 10
74.99342527843434
 20
106.2016377164585
 30
0.0
 10
75.35239708782547
 20
106.0921887205447
 30
0.0
 10
75.54175898966093
 20
106.0486101842946
 30
0.0
 10
75.92395867773378
 20
105.989969666486
 30
0.0
 10
76.118934357517
 20
105.974144609422
 30
0.0
 10
76.5173115328123
 20
105.972017901041
 30
0.0
 10
76.71515689004707
 20
105.9859550294856
 30
0.0
 10
77.10034678731446
 20
106.0412392835832
 30
0.0
 10
77.29094531855125
 20
106.0832727018546
 30
0.0
 10
77.83277535648767
 20
106.2431583722883
 30
0.0
 10
78.16101872884225
 20
106.3964504361847
 30
0.0
 10
78.58396889376196
 20
106.6579484698519
 30
0.0
 10
78.7143187047219
 20
106.7505941121077
 30
0.0
 10
78.95610829612507
 20
106.9436399116921
 30
0.0
 10
79.06769534079115
 20
107.0443889920409
 30
0.0
 10
79.16790348279923
 20
107.144597134049
 30
0.0
  0
SPLINE
  5
230
330
1F
100
AcDbEntity
  8
0
  6
HIDDEN
 62
     7
370
     0
100
AcDbSpline
210
0.0
220
0.0
230
1.0
 70
    11
 71
     3
 72
    64
 73
    60
 74
     0
 42
0.00000001
 43
0.00000001
 12
1.0
 22
0.0
 32
0.0
 13
1.0
 23
0.0
 33
0.0
 40
0.0
 40
0.0
 40
0.0
 40
0.0
 40
0.062499999999999
 40
0.062499999999999
 40
0.0937499999999988
 40
0.0937499999999988
 40
0.1249999999999986
 40
0.1249999999999986
 40
0.1562499999999984
 40
0.1562499999999984
 40
0.1874999999999981
 40
0.1874999999999981
 40
0.2187499999999979
 40
0.2187499999999979
 40
0.2499999999999977
 40
0.2499999999999977
 40
0.3124999999999973
 40
0.3124999999999973
 40
0.3437499999999974
 40
0.3437499999999974
 40
0.3749999999999975
 40
0.3749999999999975
 40
0.4062499999999977
 40
0.4062499999999977
 40
0.4374999999999978
 40
0.4374999999999978
 40
0.4687499999999979
 40
0.4687499999999979
 40
0.499999999999998
 40
0.499999999999998
 40
0.5312499999999981
 40
0.5312499999999981
 40
0.5624999999999982
 40
0.5624999999999982
 40
0.5937499999999984
 40
0.5937499999999984
 40
0.6249999999999986
 40
0.6249999999999986
 40
0.6562499999999988
 40
0.6562499999999988
 40
0.6874999999999989
 40
0.6874999999999989
 40
0.7187499999999991
 40
0.7187499999999991
 40
0.7499999999999992
 40
0.7499999999999992
 40
0.7812499999999994
 40
0.7812499999999994
 40
0.8124999999999997
 40
0.8124999999999997
 40
0.8437499999999998
 40
0.8437499999999998
 40
0.875
 40
0.875
 40
0.9062500000000001
 40
0.9062500000000001
 40
0.9375000000000003
 40
0.9375000000000003
 40
1.0
 40
1.0
 40
1.0
 40
1.0
 10
79.16790348279932
 20
112.8014513835414
 30
0.0
 10
78.96627149762921
 20
113.0030833687115
 30
0.0
 10
78.72781680465283
 20
113.1989027861705
 30
0.0
 10
78.30395392266628
 20
113.4613538717608
 30
0.0
 10
78.15018478368378
 20
113.5441329734711
 30
0.0
 10
77.8268790522715
 20
113.6904313766552
 30
0.0
 10
77.65642825094615
 20
113.754708288548
 30
0.0
 10
77.29514257828697
 20
113.8617513596068
 30
0.0
 10
77.10545949056483
 20
113.9037664333329
 30
0.0
 10
76.72235863598885
 20
113.9593590870835
 30
0.0
 10
76.5269223933629
 20
113.9736162437307
 30
0.0
 10
76.12756354150729
 20
113.9723948598107
 30
0.0
 10
75.93093140269994
 20
113.9568504199136
 30
0.0
 10
75.54659925592264
 20
113.8984701905936
 30
0.0
 10
75.35656280798818
 20
113.8549178646851
 30
0.0
 10
74.81787601075182
 20
113.6913034899038
 30
0.0
 10
74.49179679399865
 20
113.5360383912209
 30
0.0
 10
74.07242851069189
 20
113.2726820331102
 30
0.0
 10
73.94318367887513
 20
113.179508626009
 30
0.0
 10
73.70352539719136
 20
112.9855851516902
 30
0.0
 10
73.59317553111921
 20
112.8846694414723
 30
0.0
 10
73.39514430365668
 20
112.6842517769645
 30
0.0
 10
73.30661673082491
 20
112.5840411364238
 30
0.0
 10
73.14940064575885
 20
112.3894397039458
 30
0.0
 10
73.08027250282281
 20
112.2942466345702
 30
0.0
 10
72.96578688710653
 20
112.1244662034851
 30
0.0
 10
72.92006629467086
 20
112.0494699306686
 30
0.0
 10
72.85619271564997
 20
111.9404405534234
 30
0.0
 10
72.83931333511671
 20
111.9092212859335
 30
0.0
 10
72.83964172639334
 20
111.9098148169262
 30
0.0
 10
72.85683111401401
 20
111.9415733371234
 30
0.0
 10
72.92083509150096
 20
112.0507382093287
 30
0.0
 10
72.96701859510674
 20
112.1263780786189
 30
0.0
 10
73.0811515124043
 20
112.2954633293489
 30
0.0
 10
73.15002264980386
 20
112.3902890442871
 30
0.0
 10
73.30800538690187
 20
112.5856795654347
 30
0.0
 10
73.3965836378165
 20
112.685770875177
 30
0.0
 10
73.59350593781147
 20
112.8849408473448
 30
0.0
 10
73.70184731425232
 20
112.9840965956179
 30
0.0
 10
73.940787956472
 20
113.177698585837
 30
0.0
 10
74.0721066837393
 20
113.2724799467013
 30
0.0
 10
74.35232973429478
 20
113.4484553647358
 30
0.0
 10
74.50195316743678
 20
113.5303839318394
 30
0.0
 10
74.82319107785399
 20
113.6787196413793
 30
0.0
 10
74.99613450968714
 20
113.745338892191
 30
0.0
 10
75.35370804535309
 20
113.8541562906359
 30
0.0
 10
75.53961200240074
 20
113.8971465061739
 30
0.0
 10
75.92760531083579
 20
113.9566006218488
 30
0.0
 10
76.12471777879779
 20
113.9720857027404
 30
0.0
 10
76.51772096147944
 20
113.973879485014
 30
0.0
 10
76.7171788403646
 20
113.9599595283037
 30
0.0
 10
77.10463272580947
 20
113.9040352917582
 30
0.0
 10
77.29157858693537
 20
113.8626300554855
 30
0.0
 10
77.65314048086627
 20
113.7558563301833
 30
0.0
 10
77.826474648072
 20
113.6906033733909
 30
0.0
 10
78.15017829514483
 20
113.5441468949994
 30
0.0
 10
78.30297127498
 20
113.4619587222244
 30
0.0
 10
78.72959575932119
 20
113.1978084629382
 30
0.0
 10
78.96706611627145
 20
113.0022887500692
 30
0.0
 10
79.16790348279923
 20
112.8014513835414
 30
0.0
  0
LINE
  5
231
330
1F
100
AcDbEntity
  8
0
  6
HIDDEN
 62
     7
370
     0
100
AcDbLine
 10
92.862187501
 20
113.9730244488
 30
0.0
 11
82.5894764512
 21
113.9730244488
 31
0.0
  0
LINE
  5
232
330
1F
100
AcDbEntity
  8
0
  6
HIDDEN
 62
     7
370
     0
100
AcDbLine
 10
82.5894764512
 20
105.9730240688
 30
0.0
 11
92.862187501
 21
105.9730240688
 31
0.0
  0
LINE
  5
233
330
1F
100
AcDbEntity
  8
0
  6
HIDDEN
 62
     7
370
     0
100
AcDbLine
 10
82.5894764512
 20
113.9730244488
 30
0.0
 11
81.3394762463
 21
112.7230242439
 31
0.0
  0
LINE
  5
234
330
1F
100
AcDbEntity
  8
0
  6
HIDDEN
 62
     7
370
     0
100
AcDbLine
 10
81.3394762463
 20
107.2230242737
 30
0.0
 11
82.5894764512
 21
105.9730240688
 31
0.0
  0
LINE
  5
235
330
1F
100
AcDbEntity
  8
0
  6
HIDDEN
 62
     7
370
     0
100
AcDbLine
 10
80.339476548
 20
93.4503131159
 30
0.0
 11
80.339476548
 21
103.7230241657
 31
0.0
  0
LINE
  5
236
330
1F
100
AcDbEntity
  8
0
  6
HIDDEN
 62
     7
370
     0
100
AcDbLine
 10
72.3394761681
 20
103.7230241657
 30
0.0
 11
72.3394761681
 21
93.4503131159
 31
0.0
  0
LINE
  5
237
330
1F
100
AcDbEntity
  8
0
  6
HIDDEN
 62
     7
370
     0
100
AcDbLine
 10
80.339476548
 20
103.7230241657
 30
0.0
 11
79.0894763432
 21
104.9730243706
 31
0.0
  0
LINE
  5
238
330
1F
100
AcDbEntity
  8
0
  6
HIDDEN
 62
     7
370
     0
100
AcDbLine
 10
73.589476373
 20
104.9730243706
 30
0.0
 11
72.3394761681
 21
103.7230241657
 31
0.0
  0
LINE
  5
239
330
1F
100
AcDbEntity
  8
0
  6
HIDDEN
 62
     7
370
     0
100
AcDbLine
 10
72.3394761681
 20
116.2230243519
 30
0.0
 11
73.589476373
 21
114.973024147
 31
0.0
  0
LINE
  5
23A
330
1F
100
AcDbEntity
  8
0
  6
HIDDEN
 62
     7
370
     0
100
AcDbLine
 10
79.0894763432
 20
114.973024147
 30
0.0
 11
80.339476548
 21
116.2230243519
 31
0.0
  0
LINE
  5
23B
330
1F
100
AcDbEntity
  8
0
  6
HIDDEN
 62
     7
370
     0
100
AcDbLine
 10
72.3394761681
 20
126.4957354017
 30
0.0
 11
72.3394761681
 21
116.2230243519
 31
0.0
  0
LINE
  5
23C
330
1F
100
AcDbEntity
  8
0
  6
HIDDEN
 62
     7
370
     0
100
AcDbLine
 10
80.339476548
 20
116.2230243519
 30
0.0
 11
80.339476548
 21
126.4957354017
 31
0.0
  0
LINE
  5
23D
330
1F
100
AcDbEntity
  8
0
  6
HIDDEN
 62
     7
370
     0
100
AcDbLine
 10
92.8544985018
 20
113.9880462163
 30
0.0
 11
92.339477118
 21
113.4730243668
 31
0.0
  0
LINE
  5
23E
330
1F
100
AcDbEntity
  8
0
  6
HIDDEN
 62
     7
370
     0
100
AcDbLine
 10
92.339477118
 20
106.4730241508
 30
0.0
 11
92.85534228
 21
105.9571575918
 31
0.0
  0
LINE
  5
23F
330
1F
100
AcDbEntity
  8
0
  6
HIDDEN
 62
     7
370
     0
100
AcDbLine
 10
80.3544983155
 20
93.4580021151
 30
0.0
 11
79.8394764661
 21
93.9730234988
 31
0.0
  0
LINE
  5
240
330
1F
100
AcDbEntity
  8
0
  6
HIDDEN
 62
     7
370
     0
100
AcDbLine
 10
72.83947625
 20
93.9730234988
 30
0.0
 11
72.323609691
 21
93.4571583368
 31
0.0
  0
LINE
  5
241
330
1F
100
AcDbEntity
  8
0
  6
HIDDEN
 62
     7
370
     0
100
AcDbLine
 10
72.3244544006
 20
126.4880464025
 30
0.0
 11
72.83947625
 21
125.9730250188
 31
0.0
  0
LINE
  5
242
330
1F
100
AcDbEntity
  8
0
  6
HIDDEN
 62
     7
370
     0
100
AcDbLine
 10
79.8394764661
 20
125.9730250188
 30
0.0
 11
80.3553430251
 21
126.4888901808
 31
0.0
  0
LINE
  5
243
330
1F
100
AcDbEntity
  8
0
  6
HIDDEN
 62
     7
370
     0
100
AcDbLine
 10
92.339477118
 20
113.4730243668
 30
0.0
 11
79.8394764661
 21
113.4730243668
 31
0.0
  0
LINE
  5
244
330
1F
100
AcDbEntity
  8
0
  6
HIDDEN
 62
     7
370
     0
100
AcDbLine
 10
79.8394764661
 20
106.4730241508
 30
0.0
 11
92.339477118
 21
106.4730241508
 31
0.0
  0
LINE
  5
245
330
1F
100
AcDbEntity
  8
0
  6
HIDDEN
 62
     7
370
     0
100
AcDbLine
 10
79.8394764661
 20
93.9730234988
 30
0.0
 11
79.8394764661
 21
106.4730241508
 31
0.0
  0
LINE
  5
246
330
1F
100
AcDbEntity
  8
0
  6
HIDDEN
 62
     7
370
     0
100
AcDbLine
 10
72.83947625
 20
108.0081662242
 30
0.0
 11
72.83947625
 21
93.9730234988
 31
0.0
  0
LINE
  5
247
330
1F
100
AcDbEntity
  8
0
  6
HIDDEN
 62
     7
370
     0
100
AcDbLine
 10
72.83947625
 20
125.9730250188
 30
0.0
 11
72.83947625
 21
111.909515954
 31
0.0
  0
LINE
  5
248
330
1F
100
AcDbEntity
  8
0
  6
HIDDEN
 62
     7
370
     0
100
AcDbLine
 10
79.8394764661
 20
113.4730243668
 30
0.0
 11
79.8394764661
 21
125.9730250188
 31
0.0
  0
LINE
  5
249
330
1F
100
AcDbEntity
  8
0
  6
HIDDEN
 62
     7
370
     0
100
AcDbLine
 10
80.3544983155
 20
93.4580021151
 30
0.0
 11
79.8394764661
 21
93.9730234988
 31
0.0
  0
LINE
  5
24A
330
1F
100
AcDbEntity
  8
0
  6
HIDDEN
 62
     7
370
     0
100
AcDbLine
 10
72.83947625
 20
93.9730234988
 30
0.0
 11
72.323609691
 21
93.4571583368
 31
0.0
  0
LINE
  5
24B
330
1F
100
AcDbEntity
  8
0
  6
HIDDEN
 62
     7
370
     0
100
AcDbLine
 10
72.3244544006
 20
126.4880464025
 30
0.0
 11
72.83947625
 21
125.9730250188
 31
0.0
  0
LINE
  5
24C
330
1F
100
AcDbEntity
  8
0
  6
HIDDEN
 62
     7
370
     0
100
AcDbLine
 10
79.8394764661
 20
125.9730250188
 30
0.0
 11
80.3553430251
 21
126.4888901808
 31
0.0
  0
LINE
  5
24D
330
1F
100
AcDbEntity
  8
0
  6
HIDDEN
 62
     7
370
     0
100
AcDbLine
 10
79.8394764661
 20
93.9730234988
 30
0.0
 11
79.8394764661
 21
106.4730241508
 31
0.0
  0
LINE
  5
24E
330
1F
100
AcDbEntity
  8
0
  6
HIDDEN
 62
     7
370
     0
100
AcDbLine
 10
72.83947625
 20
108.0081662242
 30
0.0
 11
72.83947625
 21
93.9730234988
 31
0.0
  0
LINE
  5
24F
330
1F
100
AcDbEntity
  8
0
  6
HIDDEN
 62
     7
370
     0
100
AcDbLine
 10
72.83947625
 20
125.9730250188
 30
0.0
 11
72.83947625
 21
111.909515954
 31
0.0
  0
LINE
  5
250
330
1F
100
AcDbEntity
  8
0
  6
HIDDEN
 62
     7
370
     0
100
AcDbLine
 10
79.8394764661
 20
113.4730243668
 30
0.0
 11
79.8394764661
 21
125.9730250188
 31
0.0
  0
LINE
  5
251
330
1F
100
AcDbEntity
  8
0
  6
HIDDEN
 62
     7
370
     0
100
AcDbLine
 10
80.3544983155
 20
93.4580021151
 30
0.0
 11
79.8394764661
 21
93.9730234988
 31
0.0
  0
LINE
  5
252
330
1F
100
AcDbEntity
  8
0
  6
HIDDEN
 62
     7
370
     0
100
AcDbLine
 10
72.83947625
 20
93.9730234988
 30
0.0
 11
72.323609691
 21
93.4571583368
 31
0.0
  0
LINE
  5
253
330
1F
100
AcDbEntity
  8
0
  6
HIDDEN
 62
     7
370
     0
100
AcDbLine
 10
72.3244544006
 20
126.4880464025
 30
0.0
 11
72.83947625
 21
125.9730250188
 31
0.0
  0
LINE
  5
254
330
1F
100
AcDbEntity
  8
0
  6
HIDDEN
 62
     7
370
     0
100
AcDbLine
 10
79.8394764661
 20
125.9730250188
 30
0.0
 11
80.3553430251
 21
126.4888901808
 31
0.0
  0
LINE
  5
255
330
1F
100
AcDbEntity
  8
0
  6
HIDDEN
 62
     7
370
     0
100
AcDbLine
 10
79.8394764661
 20
93.9730234988
 30
0.0
 11
79.8394764661
 21
106.4730241508
 31
0.0
  0
LINE
  5
256
330
1F
100
AcDbEntity
  8
0
  6
HIDDEN
 62
     7
370
     0
100
AcDbLine
 10
72.83947625
 20
108.0081662242
 30
0.0
 11
72.83947625
 21
93.9730234988
 31
0.0
  0
LINE
  5
257
330
1F
100
AcDbEntity
  8
0
  6
HIDDEN
 62
     7
370
     0
100
AcDbLine
 10
72.83947625
 20
125.9730250188
 30
0.0
 11
72.83947625
 21
111.909515954
 31
0.0
  0
LINE
  5
258
330
1F
100
AcDbEntity
  8
0
  6
HIDDEN
 62
     7
370
     0
100
AcDbLine
 10
79.8394764661
 20
113.4730243668
 30
0.0
 11
79.8394764661
 21
125.9730250188
 31
0.0
  0
INSERT
  5
264
330
1F
100
AcDbEntity
  8
VERMASSUNG
100
AcDbBlockReference
  2
SW_CENTERMARKSYMBOL_0
 10
76.3394763581
 20
109.9730242588
 30
0.0
  0
OLE2FRAME
  5
265
330
1F
100
AcDbEntity
  8
0
100
AcDbOle2Frame
 70
     2
  3
Paintbrush-Bild
 10
13.8511154363
 20
38.264191557
 30
0.0
 11
51.6290888628
 21
31.9806341108
 31
0.0
 71
     2
 72
     0
 73
     1
 90
    12928
310
80552BED0767C5B32B40DDAF6807D121434000000000000000006FFBDDFB85D0
310
4940DDAF6807D121434000000000000000006FFBDDFB85D04940416F4BD60AFB
310
3F4000000000000000002BED0767C5B32B40416F4BD60AFB3F40000000000000
310
0000000000000100000000010000010000000100000000000100000000320000
310
D0CF11E0A1B11AE1000000000000000000000000000000003E000300FEFF0900
310
0600000000000000000000000100000001000000000000000010000002000000
310
01000000FEFFFFFF0000000000000000FFFFFFFFFFFFFFFFFFFFFFFFFFFFFFFF
310
FFFFFFFFFFFFFFFFFFFFFFFFFFFFFFFFFFFFFFFFFFFFFFFFFFFFFFFFFFFFFFFF
310
FFFFFFFFFFFFFFFFFFFFFFFFFFFFFFFFFFFFFFFFFFFFFFFFFFFFFFFFFFFFFFFF
310
FFFFFFFFFFFFFFFFFFFFFFFFFFFFFFFFFFFFFFFFFFFFFFFFFFFFFFFFFFFFFFFF
310
FFFFFFFFFFFFFFFFFFFFFFFFFFFFFFFFFFFFFFFFFFFFFFFFFFFFFFFFFFFFFFFF
310
FFFFFFFFFFFFFFFFFFFFFFFFFFFFFFFFFFFFFFFFFFFFFFFFFFFFFFFFFFFFFFFF
310
FFFFFFFFFFFFFFFFFFFFFFFFFFFFFFFFFFFFFFFFFFFFFFFFFFFFFFFFFFFFFFFF
310
FFFFFFFFFFFFFFFFFFFFFFFFFFFFFFFFFFFFFFFFFFFFFFFFFFFFFFFFFFFFFFFF
310
FFFFFFFFFFFFFFFFFFFFFFFFFFFFFFFFFFFFFFFFFFFFFFFFFFFFFFFFFFFFFFFF
310
FFFFFFFFFFFFFFFFFFFFFFFFFFFFFFFFFFFFFFFFFFFFFFFFFFFFFFFFFFFFFFFF
310
FFFFFFFFFFFFFFFFFFFFFFFFFFFFFFFFFFFFFFFFFFFFFFFFFFFFFFFFFFFFFFFF
310
FFFFFFFFFFFFFFFFFFFFFFFFFFFFFFFFFFFFFFFFFFFFFFFFFFFFFFFFFFFFFFFF
310
FFFFFFFFFFFFFFFFFFFFFFFFFFFFFFFFFFFFFFFFFFFFFFFFFFFFFFFFFFFFFFFF
310
FFFFFFFFFFFFFFFFFFFFFFFFFFFFFFFFFFFFFFFFFFFFFFFFFFFFFFFFFFFFFFFF
310
FDFFFFFFFEFFFFFFFEFFFFFFFEFFFFFF05000000060000000700000008000000
310
090000000A0000000B0000000C0000000D0000000E0000000F00000010000000
310
11000000120000001300000014000000150000001600000017000000FEFFFFFF
310
FFFFFFFFFFFFFFFFFFFFFFFFFFFFFFFFFFFFFFFFFFFFFFFFFFFFFFFFFFFFFFFF
310
FFFFFFFFFFFFFFFFFFFFFFFFFFFFFFFFFFFFFFFFFFFFFFFFFFFFFFFFFFFFFFFF
310
FFFFFFFFFFFFFFFFFFFFFFFFFFFFFFFFFFFFFFFFFFFFFFFFFFFFFFFFFFFFFFFF
310
FFFFFFFFFFFFFFFFFFFFFFFFFFFFFFFFFFFFFFFFFFFFFFFFFFFFFFFFFFFFFFFF
310
FFFFFFFFFFFFFFFFFFFFFFFFFFFFFFFFFFFFFFFFFFFFFFFFFFFFFFFFFFFFFFFF
310
FFFFFFFFFFFFFFFFFFFFFFFFFFFFFFFFFFFFFFFFFFFFFFFFFFFFFFFFFFFFFFFF
310
FFFFFFFFFFFFFFFFFFFFFFFFFFFFFFFFFFFFFFFFFFFFFFFFFFFFFFFFFFFFFFFF
310
FFFFFFFFFFFFFFFFFFFFFFFFFFFFFFFFFFFFFFFFFFFFFFFFFFFFFFFFFFFFFFFF
310
FFFFFFFFFFFFFFFFFFFFFFFFFFFFFFFFFFFFFFFFFFFFFFFFFFFFFFFFFFFFFFFF
310
FFFFFFFFFFFFFFFFFFFFFFFFFFFFFFFFFFFFFFFFFFFFFFFFFFFFFFFFFFFFFFFF
310
FFFFFFFFFFFFFFFFFFFFFFFFFFFFFFFFFFFFFFFFFFFFFFFFFFFFFFFFFFFFFFFF
310
FFFFFFFFFFFFFFFFFFFFFFFFFFFFFFFFFFFFFFFFFFFFFFFFFFFFFFFFFFFFFFFF
310
FFFFFFFFFFFFFFFFFFFFFFFFFFFFFFFFFFFFFFFFFFFFFFFFFFFFFFFFFFFFFFFF
310
52006F006F007400200045006E00740072007900000000000000000000000000
310
0000000000000000000000000000000000000000000000000000000000000000
310
16000500FFFFFFFFFFFFFFFF020000000A00030000000000C000000000000046
310
000000000000000000000000901DB3CDF04DCD0103000000C000000000000000
310
01004F006C006500000000000000000000000000000000000000000000000000
310
0000000000000000000000000000000000000000000000000000000000000000
310
0A000200FFFFFFFFFFFFFFFFFFFFFFFF00000000000000000000000000000000
310
0000000000000000000000000000000000000000000000001400000000000000
310
010043006F006D0070004F0062006A0000000000000000000000000000000000
310
0000000000000000000000000000000000000000000000000000000000000000
310
120002010100000003000000FFFFFFFF00000000000000000000000000000000
310
0000000000000000000000000000000000000000010000004D00000000000000
310
01004F006C006500310030004E00610074006900760065000000000000000000
310
0000000000000000000000000000000000000000000000000000000000000000
310
1A000200FFFFFFFFFFFFFFFFFFFFFFFF00000000000000000000000000000000
310
0000000000000000000000000000000000000000040000002426000000000000
310
FEFFFFFF02000000FEFFFFFFFFFFFFFFFFFFFFFFFFFFFFFFFFFFFFFFFFFFFFFF
310
FFFFFFFFFFFFFFFFFFFFFFFFFFFFFFFFFFFFFFFFFFFFFFFFFFFFFFFFFFFFFFFF
310
FFFFFFFFFFFFFFFFFFFFFFFFFFFFFFFFFFFFFFFFFFFFFFFFFFFFFFFFFFFFFFFF
310
FFFFFFFFFFFFFFFFFFFFFFFFFFFFFFFFFFFFFFFFFFFFFFFFFFFFFFFFFFFFFFFF
310
FFFFFFFFFFFFFFFFFFFFFFFFFFFFFFFFFFFFFFFFFFFFFFFFFFFFFFFFFFFFFFFF
310
FFFFFFFFFFFFFFFFFFFFFFFFFFFFFFFFFFFFFFFFFFFFFFFFFFFFFFFFFFFFFFFF
310
FFFFFFFFFFFFFFFFFFFFFFFFFFFFFFFFFFFFFFFFFFFFFFFFFFFFFFFFFFFFFFFF
310
FFFFFFFFFFFFFFFFFFFFFFFFFFFFFFFFFFFFFFFFFFFFFFFFFFFFFFFFFFFFFFFF
310
FFFFFFFFFFFFFFFFFFFFFFFFFFFFFFFFFFFFFFFFFFFFFFFFFFFFFFFFFFFFFFFF
310
FFFFFFFFFFFFFFFFFFFFFFFFFFFFFFFFFFFFFFFFFFFFFFFFFFFFFFFFFFFFFFFF
310
FFFFFFFFFFFFFFFFFFFFFFFFFFFFFFFFFFFFFFFFFFFFFFFFFFFFFFFFFFFFFFFF
310
FFFFFFFFFFFFFFFFFFFFFFFFFFFFFFFFFFFFFFFFFFFFFFFFFFFFFFFFFFFFFFFF
310
FFFFFFFFFFFFFFFFFFFFFFFFFFFFFFFFFFFFFFFFFFFFFFFFFFFFFFFFFFFFFFFF
310
FFFFFFFFFFFFFFFFFFFFFFFFFFFFFFFFFFFFFFFFFFFFFFFFFFFFFFFFFFFFFFFF
310
FFFFFFFFFFFFFFFFFFFFFFFFFFFFFFFFFFFFFFFFFFFFFFFFFFFFFFFFFFFFFFFF
310
FFFFFFFFFFFFFFFFFFFFFFFFFFFFFFFFFFFFFFFFFFFFFFFFFFFFFFFFFFFFFFFF
310
0100000200000000000000000000000000000000000000000000000000000000
310
0000000000000000000000000000000000000000000000000000000000000000
310
0100FEFF030A0000FFFFFFFF0A00030000000000C00000000000004607000000
310
5042727573680007000000504272757368000700000050427275736800F439B2
310
7100000000000000000000000000000000000000000000000000000000000000
310
0000000000000000000000000000000000000000000000000000000000000000
310
0000000000000000000000000000000000000000000000000000000000000000
310
0000000000000000000000000000000000000000000000000000000000000000
310
0000000000000000000000000000000000000000000000000000000000000000
310
0000000000000000000000000000000000000000000000000000000000000000
310
0000000000000000000000000000000000000000000000000000000000000000
310
0000000000000000000000000000000000000000000000000000000000000000
310
0000000000000000000000000000000000000000000000000000000000000000
310
0000000000000000000000000000000000000000000000000000000000000000
310
0000000000000000000000000000000000000000000000000000000000000000
310
0000000000000000000000000000000000000000000000000000000000000000
310
20260000424D0E260000000000003E00000028000000B40200006E0000000100
310
01000000000000000000130B0000130B00000200000002000000000000FFFFFF
310
FFFFFFFFFFFFFFFFFFFFFFFFFFFFFFFFFFFFFFFFFFFFFFFFFFFFFFFFFFFFFFFF
310
FFFFFFFFFFFFFFFFFFFFFFFFFFFFFFFFFFFFFFFFFFFFFFFFFFFFFFFFFFFFFFFF
310
FFFFFFFFFFFFFFFFFFFFFFFFFFFFFFFFFFFFFFFFFFFFFFFFF000FFFFFFFFFFFF
310
FFFFFFFFFFFFFFFFFFFFFFFFFFFFFFFFFFFFFFFFFFFFFFFFFFFFFFFFFFFFFFFF
310
FFFFFFFFFFFFFFFFFFFFFFFFFFFFFFFFFFFFFFFFFFFFFFFFFFFFFFFFFFFFFFFF
310
FFFFFFFFFFFFFFFFFFFFFFFFFFFFFFFFF000FFFFFFFFFFFFFFFFFFFFFFFFFFFF
310
FFFFFFFFFFFFFFFFFFFFFFFFFFFFFFFFFFFFFFFFFFFFFFFFFFFFFFFFFFFFFFFF
310
FFFFFFFFFFFFFFFFFFFFFFFFFFFFFFFFFFFFFFFFFFFFFFFFFFFFFFFFFFFFFFFF
310
FFFFFFFFFFFFFFFFF000FFFFFFFFFFFFFFFFFFFFFFFFFFFFFFFFFFFFFFFFFFFF
310
FFFFFFFFFFFFFFFFFFFFFFFFFFFFFFFFFFFFFFFFFFFFFFFFFFFFFFFFFFFFFFFF
310
FFFFFFFFFFFFFFFFFFFFFFFFFFFFFFFFFFFFFFFFFFFFFFFFFFFFFFFFFFFFFFFF
310
F000FFFFFFFFFFFFFFFFFFFFFFFFFFFFFFFFFFFFFFFFFFFFFFFFFFFFFFFFFFFF
310
FFFFFFFFFFFFFFFFFFFFFFFFFFFFFFFFFFFFFFFFFFFFFFFFFFFFFFFFFFFFFFFF
310
FFFFFFFFFFFFFFFFFFFFFFFFFFFFFFFFFFFFFFFFFFFFFFFFF000FFFFFFFFFFFF
310
FFFFFFFFFFFFFFFFFFFFFFFFFFFFFFFFFFFFFFFFFFFFFFFFFFFFFFFFFFFFFFFF
310
FFFFFFFFFFFFFFFFFFFFFFFFFFFFFFFFFFFFFFFFFFFFFFFFFFFFFFFFFFFFFFFF
310
FFFFFFFFFFFFFFFFFFFFFFFFFFFFFFFFF000FFFFFFFFFFFFFFFFFFFFFFFFFFFF
310
FFFFFFFFFFFFFFFFFFFFFFFFFFFFFFFFFFFFFFFFFFFFFFFFFFFFFFFFFFFFFFFF
310
FFFFFFFFFFFFFFFFFFFFFFFFFFFFFFFFFFFFFFFFFFFFFFFFFFFFFFFFFFFFFFFF
310
FFFFFFFFFFFFFFFFF000FFFFFFFFFFFFFFFFFFFFFFFFFFFFFFFFFFFFFFFFFFFF
310
FFFFFFFFFFFFFFFFFFFFFFFFFFFFFFFFFFFFFFFFFFFFFFFFFFFFFFFFFFFFFFFF
310
FFFFFFFFFFFFFFFFFFFFFFFFFFFFFFFFFFFFFFFFFFFFFFFFFFFFFFFFFFFFFFFF
310
F000FFFFFFFFFFFFFFFFFFFFFFFFFFFFFFFFFFFFFFFFFFFFFFFFFFFFFFFFFFFF
310
FFFFFFFFFFFFFFFFFFFFFFFFFFFFFFFFFFFFFFFFFFFFFFFFFFFFFFFFFFFFFFFF
310
FFFFFFFFFFFFFFFFFFFFFFFFFFFFFFFFFFFFFFFFFFFFFFFFF000FFFFFFFFFFFF
310
FFFFFFFFFFFFFFFFFFFFFFFFFFFFFFFFFFFFFFFFFFFFFFFFFFFFFFFFFFFFFFFF
310
FFFFFFFFFFFFFFFFFFFFFFFFFFFFFFFFFFFFFFFFFFFFFFFFFFFFFFFFFFFFFFFF
310
FFFFFFFFFFFFFFFFFFFFFFFFFFFFFFFFF000FFFFFFFFFFFFFFFFFFFFFFFFFFFF
310
FFFFFFFFFFFFFFFFFFFFFFFFFFFFFFFFFFFFFFFFFFFFFFFFFFFFFFFFFFFFFFFF
310
FFFFFFFFFFFFFFFFFFFFFFFFFFFFFFFFFFFFFFFFFFFFFFFFFFFFFFFFFFFFFFFF
310
FFFFFFFFFFFFFFFFF000FFFFFFFFFFFFFFFFFFFFFFFFFFFFFFFFFFFFFFFFFFFF
310
FFFFFFFFFFFFFFFFFFFFFFFFFFFFFFFFFFFFFFFFFFFFFFFFFFFFFFFFFFFFFFFF
310
FFFFFFFFFFFFFFFFFFFFFFFFFFFFFFFFFFFFFFFFFFFFFFFFFFFFFFFFFFFFFFFF
310
F000FFFFFFFFFFFFFFFFFFFFFFFFFFFFFFFFFFFFFFFFFFFFFFFFFFFFFFFFFFFF
310
FFFFFFFFFFFFFFFFFFFFFFFFFFFFFFFFFFFFFFFFFFFFFFFFFFFFFFFFFFFFFFFF
310
FFFFFFFFFFFFFFFFFFFFFFFFFFFFFFFFFFFFFFFFFFFFFFFFF000FFFFFFFFFFFF
310
FFFFFFFFFFFFFFFFFFFFFFFFFFFFFFFFFFFFFFFFFFFFFFFFFFFFFFFFFFFFFFFF
310
FFFFFFFFFFFFFFFFFFFFFFFFFFFFFFFFFFFFFFFFFFFFFFFFFFFFFFFFFFFFFFFF
310
FFFFFFFFFFFFFFFFFFFFFFFFFFFFFFFFF000FFFFFFFFFFFFFFFFFFFFFFFFFFFF
310
FFFFFFFFFFFFFFFFFFFFFFFFFFFFFFFFFFFFFFFFFFFFFFFFFFFFFFFFFFFFFFFF
310
FFFFFFFFFFFFFFFFFFFFFFFFFFFFFFFFFFFFFFFFFFFFFFFFFFFFFFFFFFFFFFFF
310
FFFFFFFFFFFFFFFFF000FFFFFFFFFFFFFFFFFFFFFFFFFFFFFFFFFFFFFFFFFFFF
310
FFFFFFFFFFFFFFFFFFFFFFFFFFFFFFFFFFFFFFFFFFFFFFFFFFFFFFFFFFFFFFFF
310
FFFFFFFFFFFFFFFFFFFFFFFFFFFFFFFFFFFFFFFFFFFFFFFFFFFFFFFFFFFFFFFF
310
F000FFFFFFFFFFFFFFFFFFFFFFFFFFFFFFFFFFFFFFFFFFFFFFFFFFFFFFFFFFFF
310
FFFFFFFFFFFFFFFFFFFFFFFFFFFFFFFFFFFFFFFFFFFFFFFFFFFFFFFFFFFFFFFF
310
FFFFFFFFFFFFFFFFFFFFFFFFFFFFFFFFFFFFFFFFFFFFFFFFF000FFFFFFFFFFFF
310
FFFFFFFFFFFFFFFFFFFFFFFFFFFFFFFFFFFFFFFFFFFFFFFFFFFFFFFFFFFFFFFF
310
FFFFFFFFFFFFFFFFFFFFFFFFFFFFFFFFFFFFFFFFFFFFFFFFFFFFFFFFFFFFFFFF
310
FFFFFFFFFFFFFFFFFFFFFFFFFFFFFFFFF000FFFFFFFFFFFFFFFFFFFFFFFFFFFF
310
FFFFFFFFFFFFFFFFFFFFFFFFFFFFFFFFFFFFFFFFFFFFFFFFFFFFFFFFFFFFFFFF
310
FFFFFFFFFFFFFFFFFFFFFFFFFFFFFFFFFFFFFFFFFFFFFFFFFFFFFFFFFFFFFFFF
310
FFFFFFFFFFFFFFFFF000FFFFF80003FFFFFFFFFFFFFFFFFFFFFFFFFFFFFFFFFF
310
FFFFF00007FFFFFFFFFF00007FFFFFF800000000000000007FFFFFFFFFFFFFFF
310
FFFFFFFC001FFFFFFFFFFFFFFC001FFFFFFFFFFFFFFFFFFFFFFFFFFE0007FFFF
310
F000FFFF8000007FFFFFFFF8000FFFFFC0007FFFFF80007FFFFF0000007FFFFF
310
FFF8000007FFFFF800000000000000007FFFFFF0001FFFFFFFFFFFC00001FFFF
310
FFFFFFFFC00001FFFFFFFF000000000003FFFFE000007FFFF000FFFE0000000F
310
FFFFFFF0000FFFFF80007FFFFF80007FFFFC0000001FFFFFFFC0000001FFFFF8
310
00000000000000007FFFFFF0001FFFFFFFFFFE0000003FFFFFFFFFFE0000003F
310
FFFFFF000000000003FFFF0000000FFFF000FFF800000003FFFFFFF00007FFFF
310
80007FFFFF80007FFFF000000007FFFFFF000000003FFFF80000000000000000
310
7FFFFFF0001FFFFFFFFFF80000000FFFFFFFFFF80000000FFFFFFF0000000000
310
03FFFC00000003FFF000FFE000000000FFFFFFF00007FFFF80003FFFFF80007F
310
FFC000000001FFFFFC000000001FFFF800000000000000007FFFFFF0001FFFFF
310
FFFFE000000003FFFFFFFFE000000003FFFFFF000000000003FFF000000000FF
310
F000FF80000000007FFFFFF00007FFFF80003FFFFF80007FFF8000000000FFFF
310
F80000000007FFF800000000000000007FFFFFF0001FFFFFFFFFC000000001FF
310
FFFFFFC000000001FFFFFF000000000003FFC0000000007FF000FF0000000000
310
3FFFFFE00007FFFF00003FFFFF80007FFE00000000003FFFF00000000003FFF8
310
00000000000000007FFFFFF0001FFFFFFFFF8000000000FFFFFFFF8000000000
310
FFFFFF000000000003FF80000000003FF000FE00000000001FFFFFE00003FFFF
310
00003FFFFF80007FFC00000000001FFFE00000000001FFF8000001FFFE000000
310
7FFFFFF0001FFFFFFFFE00000000003FFFFFFE00000000003FFFFF0000000000
310
03FF00000000001FF000FC00000000000FFFFFE00003FFFF00001FFFFF80007F
310
F800000000001FFFC00000000000FFF8000001FFFE0000007FFFFFF0001FFFFF
310
FFFC00000000001FFFFFFC00000000001FFFFF000000000003FE00000000000F
310
F000F8000000000007FFFFE00003FFFF00001FFFFF80007FF800000000000FFF
310
800000000000FFF8000001FFFE0000007FFFFFF0001FFFFFFFF800000000000F
310
FFFFF800000000000FFFFF000000000003FC000000000007F000F80000000000
310
03FFFFC00003FFFE00001FFFFF80007FF0000000000007FF0000000000007FF8
310
000001FFFE0000007FFFFFF0001FFFFFFFF0000000000007FFFFF00000000000
310
07FFFF000000000003F8000000000003F000F0000000000003FFFFC00001FFFE
310
00001FFFFF80007FE0000000000007FE0000000000003FF8000001FFFE000000
310
7FFFFFF0001FFFFFFFF0000000000007FFFFF0000000000007FFFF0000000000
310
03F800001F800003F000E00001FFF00001FFFFC00001FFFE00000FFFFF80007F
310
E00001FFE00003FE00001FFF00003FF8000001FFFE0000007FFFFFF0001FFFFF
310
FFE000003E000003FFFFE000003E000003FFFF000000000003F00001FFF80001
310
F000E00007FFFC0001FFFFC00001FFFE00000FFFFF80007FC0000FFFFC0003FC
310
0000FFFFC0001FF8000001FFFE0000007FFFFFF0001FFFFFFFC00003FFE00001
310
FFFFC00003FFE00001FFFF0001FFFFFFFFF00007FFFE0001F000E0000FFFFF00
310
00FFFF800001FFFC00000FFFFF80007FC0001FFFFE0001FC0001FFFFE0001FF8
310
000001FFFE0000007FFFFFF0001FFFFFFF80000FFFF80000FFFF80000FFFF800
310
00FFFF0003FFFFFFFFE0000FFFFF8000F000C0003FFFFF8000FFFF800000FFFC
310
000007FFFF80007F80003FFFFF0001FC0003FFFFF0001FF8000001FFFE000000
310
7FFFFFF0001FFFFFFF80003FFFFE0000FFFF80003FFFFE0000FFFF0003FFFFFF
310
FFE0003FFFFF8000F000C0003FFFFF8000FFFF800000FFFC000007FFFF80007F
310
80007FFFFF8001F80007FFFFF8000FF8000001FFFE0000007FFFFFF0001FFFFF
310
FF00007FFFFF00007FFF00007FFFFF00007FFF0003FFFFFFFFE0003FFFFFC000
310
F000C0007FFFFFC000FFFF000000FFFC000007FFFF80007F8000FFFFFF8000F8
310
000FFFFFF8000FF8000001FFFE0000007FFFFFF0001FFFFFFF0000FFFFFF8000
310
7FFF0000FFFFFF80007FFF0003FFFFFFFFC0007FFFFFC00070008000FFFFFFC0
310
00FFFF000000FFF8000007FFFF80007F8000FFFFFF8000F8000FFFFFF8000FF8
310
000001FFFE0000007FFFFFF0001FFFFFFE0001FFFFFFC0003FFE0001FFFFFFC0
310
003FFF0003FFFFFFFFC0007FFFFFE00070008000FFFFFFC0007FFF0000007FF8
310
000003FFFF80007F0001FFFFFF8000F8000FFFFFF8000FF8000001FFFE000000
310
7FFFFFF0001FFFFFFE0001FFFFFFC0003FFE0001FFFFFFC0003FFF0003FFFFFF
310
FFC000FFFFFFE00070008000FFFFFFC0007FFF0000007FF8000003FFFF80007F
310
0001FFFFFF8000F8001FFFFFF8000FF8000001FFFE0000007FFFFFF0001FFFFF
310
FE0003FFFFFFE0003FFE0003FFFFFFE0003FFF0003FFFFFFFFC000FFFFFFE000
310
70008000FFFFFFC0007FFE0000007FF8000003FFFF80007F0001FFFFFF8000F0
310
001FFFFFF8000FF8000001FFFE0000007FFFFFF0001FFFFFFC0003FFFFFFE000
310
1FFC0003FFFFFFE0001FFF0003FFFFFFFFC000FFFFFFC00070008000FFFFFF80
310
007FFE0000007FF0000003FFFF80007F0001FFFFFF0000F0001FFFFFF8000FF8
310
000001FFFE0000007FFFFFF0001FFFFFFC0007FFFFFFF0001FFC0007FFFFFFF0
310
001FFF0003FFFFFFFFC000FFFFFFC00070008001FFFFFF0000FFFE0000003FF0
310
000001FFFF80007F0001FFFFFF0000F8001FFFFFF0000FF8000001FFFE000000
310
7FFFFFF0001FFFFFFC0007FFFFFFF0001FFC0007FFFFFFF0001FFF0003FFFFFF
310
FFC001FFFFFF80007000FFFFFFFFFE0000FFFE0008003FF0008001FFFF80007F
310
FFFFFFFFFC0000FFFFFFFFFFE0000FF8000001FFFE0000007FFFFFF0001FFFFF
310
F8000FFFFFFFF8000FF8000FFFFFFFF8000FFF0003FFFFFFFFFFFFFFFFFF0000
310
7000FFFFFFFFFC0000FFFC0008003FF0008001FFFF80007FFFFFFFFFF80001FF
310
FFFFFFFF80000FF8000001FFFE0000007FFFFFF0001FFFFFF8000FFFFFFFF800
310
0FF8000FFFFFFFF8000FFF0003FFFFFFFFFFFFFFFFFE0000F000FFFFFFFFE000
310
00FFFC000C003FE000C001FFFF80007FFFFFFFFFC00001FFFFFFFFFE00001FF8
310
000001FFFE0000007FFFFFF0001FFFFFF8000FFFFFFFF8000FF8000FFFFFFFF8
310
000FFF0003FFFFFFFFFFFFFFFFF00000F000FFFFFFFE000001FFFC000C001FE0
310
00C000FFFF80007FFFFFFFFE000001FFFFFFFFE000001FF80FFFFFFFFFFFFFC0
310
7FFFFFF0001FFFFFF8000FFFFFFFF8000FF8000FFFFFFFF8000FFF0003FFFFFF
310
FFFFFFFFFF800000F000FFFFFFC0000001FFFC001C001FE001C000FFFF80007F
310
FFFFFF80000003FFFFFFF80000001FF80FFFFFFFFFFFFFC07FFFFFF0001FFFFF
310
F8001FFFFFFFFC000FF8001FFFFFFFFC000FFF0003FFFFFFFFFFFFFFF0000001
310
F000FFFFF800000001FFF8001C001FE001C000FFFF80007FFFFFF800000003FF
310
FFFF800000003FF80FFFFFFFFFFFFFC07FFFFFF0001FFFFFF8001FFFFFFFFC00
310
0FF8001FFFFFFFFC000FFF0003FFFFFFFFFFFFFE00000001F000FFFFC0000000
310
03FFF8001E001FC001E000FFFF80007FFFFF8000000007FFFFFC000000003FF8
310
0FFFFFFFFFFFFFC07FFFFFF0001FFFFFF8001FFFFFFFFC000FF8001FFFFFFFFC
310
000FFF0003FFFFFFFFFFFFE000000003F000FFFE0000000007FFF8001E000FC0
310
01E0007FFF80007FFFFE0000000007FFFFE0000000007FF80FFFFFFFFFFFFFC0
310
7FFFFFF0001FFFFFF0001FFFFFFFFC0007F0001FFFFFFFFC0007FF0003FFFFFF
310
FFFFFF0000000003F000FFF80000000007FFF8001E000FC003E0007FFF80007F
310
FFF0000000000FFFFF8000000000FFF80FFFFFFFFFFFFFC07FFFFFF0001FFFFF
310
F0001FFFFFFFFC0007F0001FFFFFFFFC0007FF0003FFFFFFFFFFFC0000000007
310
F000FFE0000000000FFFF0003E000FC003E0007FFF80007FFFC0000000001FFF
310
FE0000000001FFF80FFFFFFFFFFFFFC07FFFFFF0001FFFFFF0001FFFFFFFFC00
310
07F0001FFFFFFFFC0007FF0003FFFFFFFFFFF0000000000FF000FFC000000000
310
1FFFF0003F000F8003F0003FFF80007FFF80000000003FFFF80000000003FFF8
310
0FFFFFFFFFFFFFC07FFFFFF0001FFFFFF0001FFFFFFFFC0007F0001FFFFFFFFC
310
0007FF0003FFFFFFFFFFE0000000001FF000FF00000000007FFFF0003F000780
310
03F0003FFF80007FFF00000000007FFFF00000000007FFF80FFFFFFFFFFFFFC0
310
7FFFFFF0001FFFFFF0001FFFFFFFFC0007F0001FFFFFFFFC0007FF0003FFFFFF
310
FFFF80000000007FF000FE0000000000FFFFE0003F00078007F0003FFF80007F
310
FE0000000001FFFFE0000000001FFFF80FFFFFFFFFFFFFC07FFFFFF0001FFFFF
310
F0001FFFFFFFFC0007F0001FFFFFFFFC0007FF0003FFFFFFFFFF0000000000FF
310
F000FC0000000003FFFFE0007F00078007F0003FFF80007FFC0000000007FFFF
310
C0000000007FFFF80FFFFFFFFFFFFFC07FFFFFF0001FFFFFF8001FFFFFFFFC00
310
0FF8001FFFFFFFFC000FFF0003FFFFFFFFFE0000000003FFF000FC000000000F
310
FFFFE0007F80070007F8001FFF80007FF8000000001FFFFF8000000001FFFFF8
310
0FFFFFFFFFFFFFC07FFFFFF0001FFFFFF8001FFFFFFFFC000FF8001FFFFFFFFC
310
000FFF0003FFFFFFFFFC000000000FFFF000F8000000007FFFFFE0007F800700
310
07F8001FFF80007FF000000000FFFFFF800000000FFFFFF80FFFFFFFFFFFFFC0
310
7FFFFFF0001FFFFFF8000FFFFFFFF8000FF8000FFFFFFFF8000FFF0003FFFFFF
310
FFFC000000007FFFF000F800000007FFFFFFC0007F8003000FF8001FFF80007F
310
F000000007FFFFFF000000007FFFFFF80FFFFFFFFFFFFFC07FFFFFF0001FFFFF
310
F8000FFFFFFFF8000FF8000FFFFFFFF8000FFF0003FFFFFFFFF80000000FFFFF
310
F000F0000000FFFFFFFFC000FF8003000FF8001FFF80007FE0000000FFFFFFFF
310
0000000FFFFFFFF8000001FFFE0000007FFFFFF0001FFFFFF8000FFFFFFFF800
310
0FF8000FFFFFFFF8000FFF0003FFFFFFFFF8000000FFFFFFF000F000000FFFFF
310
FFFFC000FFC002000FF8000FFF80007FE000001FFFFFFFFE000001FFFFFFFFF8
310
000001FFFE0000007FFFFFF0001FFFFFF8000FFFFFFFF8000FF8000FFFFFFFF8
310
000FFF0003FFFFFFFFF000001FFFFFFFF000E00000FFFFFFFFFFC000FFC00200
310
0FFC000FFF80007FE00001FFFFFFFFFE00001FFFFFFFFFF8000001FFFE000000
310
7FFFFFF0001FFFFFFC000FFFFFFFF8001FFC000FFFFFFFF8001FFF0003FFFFFF
310
FFF00001FFFFFFFFF000E00007FFFFFFFFFF8000FFC000001FFC000FFF80007F
310
C0000FFFFFFFFFFE0000FFFFFFFFFFF8000001FFFE0000007FFFFFF0001FFFFF
310
FC0007FFFFFFF0001FFC0007FFFFFFF0001FFF0003FFFFFFFFF00007FFFFFFFF
310
F000E0001FFFFFFFFFFF8000FFC000001FFC000FFF80007FC0003FFFFFFFFFFE
310
0001FFFFFFFFFFF8000001FFFE0000007FFFFFF0001FFFFFFC0007FFFFFFF000
310
1FFC0007FFFFFFF0001FFF0003FFFFFFFFF0001FFFFFFFFFF000E0003FFFFF00
310
03FF8001FFE000001FFC0007FF80007FC0007FFFFF0007FC0003FFFFF0003FF8
310
000001FFFE0000007FFFFFF0001FFFFFFC0003FFFFFFE0001FFC0003FFFFFFE0
310
001FFF0003FFFFFFFFF0003FFFFFFFFFF000E0003FFFFF0001FF8001FFE00000
310
1FFE0007FF80007FC0007FFFFE0003FC0007FFFFE0003FF8000001FFFE000000
310
7FFFFFF0001FFFFFFE0003FFFFFFE0003FFE0003FFFFFFE0003FFF0003FFFFFF
310
FFF0003FFFFF8001F000E0003FFFFF0001FF0001FFE000001FFE0007FF80007F
310
C0007FFFFE0003FC0007FFFFE0003FF8000001FFFE0000007FFFFFF0001FFFFF
310
FE0001FFFFFFC0003FFE0001FFFFFFC0003FFF0003FFFFFFFFF0003FFFFF0001
310
F000E0003FFFFF0003FF0001FFE000003FFE0007FF80007FC0007FFFFE0003FC
310
0007FFFFE0003FF8000001FFFE0000007FFFFFF0001FFFFFFF0001FFFFFFC000
310
7FFF0001FFFFFFC0007FFF0003FFFFFFFFF0003FFFFF0001F000E0003FFFFE00
310
03FF0003FFF000003FFE0003FF80007FC0007FFFFC0003FE0007FFFFE0003FF8
310
000001FFFE0000007FFFFFF0001FFFFFFF0000FFFFFF80007FFF0000FFFFFF80
310
007FFF0003FFFFFFFFF0003FFFFF0001F000E0003FFFFE0003FF0003FFF00000
310
3FFF0003FF80007FC0007FFFFC0007FE0007FFFFC0003FF8000001FFFE000000
310
7FFFFFF0001FFFFFFF80007FFFFF0000FFFF80007FFFFF0000FFFF0003FFFFFF
310
FFF0003FFFFF0003F000E0003FFFFC0003FE0003FFF000003FFF0003FF80007F
310
E0003FFFF80007FE0003FFFFC0007FF8000001FFFE0000007FFFFFF0001FFFFF
310
FF80003FFFFE0000FFFF80003FFFFE0000FFFF0003FFFFFFFFF0001FFFFE0003
310
F000F0001FFFF80003FE0003FFF000007FFF0001FF80007FE0003FFFF00007FE
310
0001FFFF80007FF8000001FFFE0000007FFFFFF0001FFFFFFFC0000FFFF80001
310
FFFFC0000FFFF80001FFFF0003FFFFFFFFF0001FFFFC0003F000F0000FFFF000
310
07FE0007FFF800007FFF0001FF80007FE0001FFFE00007FF0000FFFE00007FF8
310
000001FFFE0000007FFFFFF0001FFFFFFFC00003FFE00001FFFFC00003FFE000
310
01FFFF0003FFFFFFFFF8000FFFF80003F000F00003FFC00007FC0007FFF80000
310
7FFF8001FF80007FF00007FF80000FFF00007FF80000FFF8000001FFFE000000
310
7F80000000000001FFE000003E000003FFFFE000003E000003FFFF0003FFFFFF
310
FFF80003FFE00007F000F800000000000FFC0007FFF800007FFF8001FF80007F
310
F000000000000FFF000000000000FFF8000001FFFE0000007F80000000000001
310
FFF0000000000007FFFFF0000000000007FFFF0003FFFFFFFFFC00007E000007
310
F000F800000000000FFC0007FFF80000FFFF8000FF80007FF800000000001FFF
310
800000000001FFF8000001FFFE0000007F80000000000001FFF800000000000F
310
FFFFF800000000000FFFFF0003FFFFFFFFFC00000000000FF000FC0000000000
310
1FFC0007FFFC0000FFFF8000FF80007FF800000000003FFFC00000000001FFF8
310
000001FFFE0000007F80000000000001FFF800000000000FFFFFF80000000000
310
0FFFFF0003FFFFFFFFFE00000000001FF000FE00000000003FF8000FFFFC0000
310
FFFF8000FF80007FFC00000000003FFFC00000000003FFF8000001FFFE000000
310
7F80000000000001FFFC00000000001FFFFFFC00000000001FFFFF0003FFFFFF
310
FFFF00000000001FF000FF00000000003FF8000FFFFC0000FFFFC000FF80007F
310
FE00000000007FFFE00000000007FFF8000001FFFE0000007F80000000000001
310
FFFE00000000003FFFFFFE00000000003FFFFF0003FFFFFFFFFF80000000003F
310
F000FF80000000007FF8000FFFFC0001FFFFC0007F80007FFF0000000000FFFF
310
F0000000000FFFF800000000000000007F80000000000001FFFF8000000000FF
310
FFFFFF8000000000FFFFFF0003FFFFFFFFFFC0000000007FF000FFC000000000
310
FFF8000FFFFE0001FFFFC0007F80007FFF8000000001FFFFF8000000001FFFF8
310
00000000000000007F80000000000001FFFFC000000001FFFFFFFFC000000001
310
FFFFFF0003FFFFFFFFFFE000000000FFF000FFE000000003FFF0001FFFFE0001
310
FFFFC0007F80007FFFC000000007FFFFFE000000003FFFF80000000000000000
310
7F80000000000001FFFFE000000003FFFFFFFFE000000003FFFFFF0003FFFFFF
310
FFFFF000000003FFF000FFF80000000FFFF0001FFFFE0001FFFFE0007F80007F
310
FFF00000000FFFFFFF00000000FFFFF800000000000000007F80000000000001
310
FFFFF80000000FFFFFFFFFF80000000FFFFFFF0003FFFFFFFFFFFC0000000FFF
310
F000FFFE0000003FFFF0001FFFFE0003FFFFE0003F80007FFFFC0000003FFFFF
310
FFC0000003FFFFF800000000000000007F80000000000001FFFFFE0000003FFF
310
FFFFFFFE0000003FFFFFFF0003FFFFFFFFFFFF0000003FFFF000FFFF800000FF
310
FFF0001FFFFF0003FFFFE0003F80007FFFFF000001FFFFFFFFF800001FFFFFF8
310
00000000000000007F80000000000001FFFFFFC00001FFFFFFFFFFFFC00001FF
310
FFFFFF0003FFFFFFFFFFFFC00000FFFFF000FFFFF8000FFFFFFFFFFFFFFFFFFF
310
FFFFFFFFFFFFFFFFFFFFF0001FFFFFFFFFFF0000FFFFFFF80000000000000000
310
7FFFFFFFFFFFFFFFFFFFFFFC001FFFFFFFFFFFFFFC001FFFFFFFFFFFFFFFFFFF
310
FFFFFFFC001FFFFFF000FFFFFFFFFFFFFFFFFFFFFFFFFFFFFFFFFFFFFFFFFFFF
310
FFFFFFFFFFFFFFFFFFFFFFFFFFFFFFFFFFFFFFFFFFFFFFFFFFFFFFFFFFFFFFFF
310
FFFFFFFFFFFFFFFFFFFFFFFFFFFFFFFFFFFFFFFFFFFFFFFFFFFFFFFFFFFFFFFF
310
F000FFFFFFFFFFFFFFFFFFFFFFFFFFFFFFFFFFFFFFFFFFFFFFFFFFFFFFFFFFFF
310
FFFFFFFFFFFFFFFFFFFFFFFFFFFFFFFFFFFFFFFFFFFFFFFFFFFFFFFFFFFFFFFF
310
FFFFFFFFFFFFFFFFFFFFFFFFFFFFFFFFFFFFFFFFFFFFFFFFF000FFFFFFFFFFFF
310
FFFFFFFFFFFFFFFFFFFFFFFFFFFFFFFFFFFFFFFFFFFFFFFFFFFFFFFFFFFFFFFF
310
FFFFFFFFFFFFFFFFFFFFFFFFFFFFFFFFFFFFFFFFFFFFFFFFFFFFFFFFFFFFFFFF
310
FFFFFFFFFFFFFFFFFFFFFFFFFFFFFFFFF000FFFFFFFFFFFFFFFFFFFFFFFFFFFF
310
FFFFFFFFFFFFFFFFFFFFFFFFFFFFFFFFFFFFFFFFFFFFFFFFFFFFFFFFFFFFFFFF
310
FFFFFFFFFFFFFFFFFFFFFFFFFFFFFFFFFFFFFFFFFFFFFFFFFFFFFFFFFFFFFFFF
310
FFFFFFFFFFFFFFFFF000FFFFFFFFFFFFFFFFFFFFFFFFFFFFFFFFFFFFFFFFFFFF
310
FFFFFFFFFFFFFFFFFFFFFFFFFFFFFFFFFFFFFFFFFFFFFFFFFFFFFFFFFFFFFFFF
310
FFFFFFFFFFFFFFFFFFFFFFFFFFFFFFFFFFFFFFFFFFFFFFFFFFFFFFFFFFFFFFFF
310
F000FFFFFFFFFFFFFFFFFFFFFFFFFFFFFFFFFFFFFFFFFFFFFFFFFFFFFFFFFFFF
310
FFFFFFFFFFFFFFFFFFFFFFFFFFFFFFFFFFFFFFFFFFFFFFFFFFFFFFFFFFFFFFFF
310
FFFFFFFFFFFFFFFFFFFFFFFFFFFFFFFFFFFFFFFFFFFFFFFFF000FFFFFFFFFFFF
310
FFFFFFFFFFFFFFFFFFFFFFFFFFFFFFFFFFFFFFFFFFFFFFFFFFFFFFFFFFFFFFFF
310
FFFFFFFFFFFFFFFFFFFFFFFFFFFFFFFFFFFFFFFFFFFFFFFFFFFFFFFFFFFFFFFF
310
FFFFFFFFFFFFFFFFFFFFFFFFFFFFFFFFF000FFFFFFFFFFFFFFFFFFFFFFFFFFFF
310
FFFFFFFFFFFFFFFFFFFFFFFFFFFFFFFFFFFFFFFFFFFFFFFFFFFFFFFFFFFFFFFF
310
FFFFFFFFFFFFFFFFFFFFFFFFFFFFFFFFFFFFFFFFFFFFFFFFFFFFFFFFFFFFFFFF
310
FFFFFFFFFFFFFFFFF000FFFFFFFFFFFFFFFFFFFFFFFFFFFFFFFFFFFFFFFFFFFF
310
FFFFFFFFFFFFFFFFFFFFFFFFFFFFFFFFFFFFFFFFFFFFFFFFFFFFFFFFFFFFFFFF
310
FFFFFFFFFFFFFFFFFFFFFFFFFFFFFFFFFFFFFFFFFFFFFFFFFFFFFFFFFFFFFFFF
310
F000FFFFFFFFFFFFFFFFFFFFFFFFFFFFFFFFFFFFFFFFFFFFFFFFFFFFFFFFFFFF
310
FFFFFFFFFFFFFFFFFFFFFFFFFFFFFFFFFFFFFFFFFFFFFFFFFFFFFFFFFFFFFFFF
310
FFFFFFFFFFFFFFFFFFFFFFFFFFFFFFFFFFFFFFFFFFFFFFFFF000FFFFFFFFFFFF
310
FFFFFFFFFFFFFFFFFFFFFFFFFFFFFFFFFFFFFFFFFFFFFFFFFFFFFFFFFFFFFFFF
310
FFFFFFFFFFFFFFFFFFFFFFFFFFFFFFFFFFFFFFFFFFFFFFFFFFFFFFFFFFFFFFFF
310
FFFFFFFFFFFFFFFFFFFFFFFFFFFFFFFFF000FFFFFFFFFFFFFFFFFFFFFFFFFFFF
310
FFFFFFFFFFFFFFFFFFFFFFFFFFFFFFFFFFFFFFFFFFFFFFFFFFFFFFFFFFFFFFFF
310
FFFFFFFFFFFFFFFFFFFFFFFFFFFFFFFFFFFFFFFFFFFFFFFFFFFFFFFFFFFFFFFF
310
FFFFFFFFFFFFFFFFF000FFFFFFFFFFFFFFFFFFFFFFFFFFFFFFFFFFFFFFFFFFFF
310
FFFFFFFFFFFFFFFFFFFFFFFFFFFFFFFFFFFFFFFFFFFFFFFFFFFFFFFFFFFFFFFF
310
FFFFFFFFFFFFFFFFFFFFFFFFFFFFFFFFFFFFFFFFFFFFFFFFFFFFFFFFFFFFFFFF
310
F000FFFFFFFFFFFFFFFFFFFFFFFFFFFFFFFFFFFFFFFFFFFFFFFFFFFFFFFFFFFF
310
FFFFFFFFFFFFFFFFFFFFFFFFFFFFFFFFFFFFFFFFFFFFFFFFFFFFFFFFFFFFFFFF
310
FFFFFFFFFFFFFFFFFFFFFFFFFFFFFFFFFFFFFFFFFFFFFFFFF000FFFFFFFFFFFF
310
FFFFFFFFFFFFFFFFFFFFFFFFFFFFFFFFFFFFFFFFFFFFFFFFFFFFFFFFFFFFFFFF
310
FFFFFFFFFFFFFFFFFFFFFFFFFFFFFFFFFFFFFFFFFFFFFFFFFFFFFFFFFFFFFFFF
310
FFFFFFFFFFFFFFFFFFFFFFFFFFFFFFFFF000FFFFFFFFFFFFFFFFFFFFFFFFFFFF
310
FFFFFFFFFFFFFFFFFFFFFFFFFFFFFFFFFFFFFFFFFFFFFFFFFFFFFFFFFFFFFFFF
310
FFFFFFFFFFFFFFFFFFFFFFFFFFFFFFFFFFFFFFFFFFFFFFFFFFFFFFFFFFFFFFFF
310
FFFFFFFFFFFFFFFFF000FFFFFFFFFFFFFFFFFFFFFFFFFFFFFFFFFFFFFFFFFFFF
310
FFFFFFFFFFFFFFFFFFFFFFFFFFFFFFFFFFFFFFFFFFFFFFFFFFFFFFFFFFFFFFFF
310
FFFFFFFFFFFFFFFFFFFFFFFFFFFFFFFFFFFFFFFFFFFFFFFFFFFFFFFFFFFFFFFF
310
F000FFFFFFFFFFFFFFFFFFFFFFFFFFFFFFFFFFFFFFFFFFFFFFFFFFFFFFFFFFFF
310
FFFFFFFFFFFFFFFFFFFFFFFFFFFFFFFFFFFFFFFFFFFFFFFFFFFFFFFFFFFFFFFF
310
FFFFFFFFFFFFFFFFFFFFFFFFFFFFFFFFFFFFFFFFFFFFFFFFF000FFFFFFFFFFFF
310
FFFFFFFFFFFFFFFFFFFFFFFFFFFFFFFFFFFFFFFFFFFFFFFFFFFFFFFFFFFFFFFF
310
FFFFFFFFFFFFFFFFFFFFFFFFFFFFFFFFFFFFFFFFFFFFFFFFFFFFFFFFFFFFFFFF
310
FFFFFFFFFFFFFFFFFFFFFFFFFFFFFFFFF000FFFFFFFFFFFFFFFFFFFFFFFFFFFF
310
FFFFFFFFFFFFFFFFFFFFFFFFFFFFFFFFFFFFFFFFFFFFFFFFFFFFFFFFFFFFFFFF
310
FFFFFFFFFFFFFFFFFFFFFFFFFFFFFFFFFFFFFFFFFFFFFFFFFFFFFFFFFFFFFFFF
310
FFFFFFFFFFFFFFFFF000FFFFFFFFFFFFFFFFFFFFFFFFFFFFFFFFFFFFFFFFFFFF
310
FFFFFFFFFFFFFFFFFFFFFFFFFFFFFFFFFFFFFFFFFFFFFFFFFFFFFFFFFFFFFFFF
310
FFFFFFFFFFFFFFFFFFFFFFFFFFFFFFFFFFFFFFFFFFFFFFFFFFFFFFFFFFFFFFFF
310
F000FFFFFFFFFFFFFFFFFFFFFFFFFFFFFFFFFFFFFFFFFFFFFFFFFFFFFFFFFFFF
310
FFFFFFFFFFFFFFFFFFFFFFFFFFFFFFFFFFFFFFFFFFFFFFFFFFFFFFFFFFFFFFFF
310
FFFFFFFFFFFFFFFFFFFFFFFFFFFFFFFFFFFFFFFFFFFFFFFFF000FFFFFFFFFFFF
310
FFFFFFFFFFFFFFFFFFFFFFFFFFFFFFFFFFFFFFFFFFFFFFFFFFFFFFFFFFFFFFFF
310
FFFFFFFFFFFFFFFFFFFFFFFFFFFFFFFFFFFFFFFFFFFFFFFFFFFFFFFFFFFFFFFF
310
FFFFFFFFFFFFFFFFFFFFFFFFFFFFFFFFF0000000000000000000000000000000
310
0000000000000000000000000000000000000000000000000000000000000000
310
0000000000000000000000000000000000000000000000000000000000000000
310
0000000000000000000000000000000000000000000000000000000000000000
310
0000000000000000000000000000000000000000000000000000000000000000
310
0000000000000000000000000000000000000000000000000000000000000000
310
0000000000000000000000000000000000000000000000000000000000000000
310
0000000000000000000000000000000000000000000000000000000000000000
310
0000000000000000000000000000000000000000000000000000000000000000
310
0000000000000000000000000000000000000000000000000000000000000000
310
0000000000000000000000000000000000000000000000000000000000000000
310
0000000000000000000000000000000000000000000000000000000000000000
310
0000000000000000000000000000000000000000000000000000000000000000
310
0000000000000000000000000000000000000000000000000000000000000000
310
0000000000000000000000000000000000000000000000000000000000000000
310
0000000000000000000000000000000000000000000000000000000000000000
  1
OLE
  0
ENDSEC
  0
SECTION
  2
OBJECTS
  0
DICTIONARY
  5
C
330
0
100
AcDbDictionary
281
     1
  3
ACAD_GROUP
350
D
  3
ACAD_LAYOUT
350
1A
  3
ACAD_MLINESTYLE
350
17
  3
ACAD_PLOTSETTINGS
350
19
  3
ACAD_PLOTSTYLENAME
350
E
  0
DICTIONARY
  5
D
102
{ACAD_REACTORS
330
C
102
}
330
C
100
AcDbDictionary
281
     1
  0
DICTIONARY
  5
1A
102
{ACAD_REACTORS
330
C
102
}
330
C
100
AcDbDictionary
281
     1
  3
Layout1
350
1E
  3
Layout2
350
26
  3
Model
350
22
  0
DICTIONARY
  5
17
102
{ACAD_REACTORS
330
C
102
}
330
C
100
AcDbDictionary
281
     1
  3
Standard
350
18
  0
DICTIONARY
  5
19
102
{ACAD_REACTORS
330
C
102
}
330
C
100
AcDbDictionary
281
     1
  0
ACDBDICTIONARYWDFLT
  5
E
102
{ACAD_REACTORS
330
C
102
}
330
C
100
AcDbDictionary
281
     1
  3
Normal
350
F
100
AcDbDictionaryWithDefault
340
F
  0
LAYOUT
  5
1E
102
{ACAD_REACTORS
330
1A
102
}
330
1A
100
AcDbPlotSettings
  1

  2
none_device
  4

  6

 40
0.0
 41
0.0
 42
0.0
 43
0.0
 44
0.0
 45
0.0
 46
0.0
 47
0.0
 48
0.0
 49
0.0
140
0.0
141
0.0
142
1.0
143
1.0
 70
   688
 72
     0
 73
     0
 74
     5
  7

 75
    16
147
1.0
148
0.0
149
0.0
100
AcDbLayout
  1
Layout1
 70
     1
 71
     1
 10
0.0
 20
0.0
 11
420.0
 21
297.0
 12
0.0
 22
0.0
 32
0.0
 14
1.0000000000E+20
 24
1.0000000000E+20
 34
1.0000000000E+20
 15
-1.0000000000E+20
 25
-1.0000000000E+20
 35
-1.0000000000E+20
146
0.0
 13
0.0
 23
0.0
 33
0.0
 16
1.0
 26
0.0
 36
0.0
 17
0.0
 27
1.0
 37
0.0
 76
     0
330
1B
  0
LAYOUT
  5
26
102
{ACAD_REACTORS
330
1A
102
}
330
1A
100
AcDbPlotSettings
  1

  2
none_device
  4

  6

 40
0.0
 41
0.0
 42
0.0
 43
0.0
 44
0.0
 45
0.0
 46
0.0
 47
0.0
 48
0.0
 49
0.0
140
0.0
141
0.0
142
1.0
143
1.0
 70
   688
 72
     0
 73
     0
 74
     5
  7

 75
    16
147
1.0
148
0.0
149
0.0
100
AcDbLayout
  1
Layout2
 70
     1
 71
     2
 10
0.0
 20
0.0
 11
0.0
 21
0.0
 12
0.0
 22
0.0
 32
0.0
 14
0.0
 24
0.0
 34
0.0
 15
0.0
 25
0.0
 35
0.0
146
0.0
 13
0.0
 23
0.0
 33
0.0
 16
1.0
 26
0.0
 36
0.0
 17
0.0
 27
1.0
 37
0.0
 76
     0
330
23
  0
LAYOUT
  5
22
102
{ACAD_REACTORS
330
1A
102
}
330
1A
100
AcDbPlotSettings
  1

  2
none_device
  4

  6

 40
0.0
 41
0.0
 42
0.0
 43
0.0
 44
0.0
 45
0.0
 46
0.0
 47
0.0
 48
0.0
 49
0.0
140
0.0
141
0.0
142
1.0
143
1.0
 70
  1712
 72
     0
 73
     0
 74
     0
  7

 75
     0
147
1.0
148
0.0
149
0.0
100
AcDbLayout
  1
Model
 70
     1
 71
     0
 10
0.0
 20
0.0
 11
297.0
 21
210.0
 12
0.0
 22
0.0
 32
0.0
 14
0.0
 24
0.0
 34
0.0
 15
297.0
 25
210.0
 35
0.0
146
0.0
 13
0.0
 23
0.0
 33
0.0
 16
1.0
 26
0.0
 36
0.0
 17
0.0
 27
1.0
 37
0.0
 76
     0
330
1F
331
29
  0
MLINESTYLE
  5
18
102
{ACAD_REACTORS
330
17
102
}
330
17
100
AcDbMlineStyle
  2
Standard
 70
     0
  3

 62
   256
 51
90.0
 52
90.0
 71
     2
 49
0.5
 62
   256
  6
BYLAYER
 49
-0.5
 62
   256
  6
BYLAYER
  0
ACDBPLACEHOLDER
  5
F
102
{ACAD_REACTORS
330
E
102
}
330
E
  0
ENDSEC
  0
EOF
