  0
SECTION
  2
HEADER
  9
$ACADVER
  1
AC1015
  9
$ACADMAINTVER
 70
     6
  9
$DWGCODEPAGE
  3
ANSI_1252
  9
$INSBASE
 10
0.0
 20
0.0
 30
0.0
  9
$EXTMIN
 10
0.0
 20
0.0
 30
0.0
  9
$EXTMAX
 10
297.0
 20
210.0
 30
0.0
  9
$LIMMIN
 10
0.0
 20
0.0
  9
$LIMMAX
 10
297.0
 20
210.0
  9
$ORTHOMODE
 70
     0
  9
$REGENMODE
 70
     1
  9
$FILLMODE
 70
     1
  9
$QTEXTMODE
 70
     0
  9
$MIRRTEXT
 70
     1
  9
$LTSCALE
 40
1.0
  9
$ATTMODE
 70
     1
  9
$TEXTSIZE
 40
2.0
  9
$TRACEWID
 40
1.0
  9
$TEXTSTYLE
  7
Standard
  9
$CLAYER
  8
0
  9
$CELTYPE
  6
ByLayer
  9
$CECOLOR
 62
   256
  9
$CELTSCALE
 40
1.0
  9
$DISPSILH
 70
     0
  9
$DIMSCALE
 40
1.0
  9
$DIMASZ
 40
3.0
  9
$DIMEXO
 40
0.0
  9
$DIMDLI
 40
3.75
  9
$DIMRND
 40
0.0
  9
$DIMDLE
 40
0.0
  9
$DIMEXE
 40
1.0
  9
$DIMTP
 40
0.0
  9
$DIMTM
 40
0.0
  9
$DIMTXT
 40
2.0
  9
$DIMCEN
 40
2.5
  9
$DIMTSZ
 40
0.0
  9
$DIMTOL
 70
     0
  9
$DIMLIM
 70
     0
  9
$DIMTIH
 70
     1
  9
$DIMTOH
 70
     1
  9
$DIMSE1
 70
     0
  9
$DIMSE2
 70
     0
  9
$DIMTAD
 70
     1
  9
$DIMZIN
 70
     0
  9
$DIMBLK
  1

  9
$DIMASO
 70
     1
  9
$DIMSHO
 70
     1
  9
$DIMPOST
  1

  9
$DIMAPOST
  1

  9
$DIMALT
 70
     0
  9
$DIMALTD
 70
     3
  9
$DIMALTF
 40
0.0393700787
  9
$DIMLFAC
 40
1.0
  9
$DIMTOFL
 70
     1
  9
$DIMTVP
 40
0.0
  9
$DIMTIX
 70
     0
  9
$DIMSOXD
 70
     0
  9
$DIMSAH
 70
     0
  9
$DIMBLK1
  1

  9
$DIMBLK2
  1

  9
$DIMSTYLE
  2
ISO-25
  9
$DIMCLRD
 70
     0
  9
$DIMCLRE
 70
     0
  9
$DIMCLRT
 70
     0
  9
$DIMTFAC
 40
1.0
  9
$DIMGAP
 40
1.524
  9
$DIMJUST
 70
     0
  9
$DIMSD1
 70
     0
  9
$DIMSD2
 70
     0
  9
$DIMTOLJ
 70
     0
  9
$DIMTZIN
 70
     0
  9
$DIMALTZ
 70
     0
  9
$DIMALTTZ
 70
     0
  9
$DIMUPT
 70
     0
  9
$DIMDEC
 70
     2
  9
$DIMTDEC
 70
     3
  9
$DIMALTU
 70
     2
  9
$DIMALTTD
 70
     3
  9
$DIMTXSTY
  7
Standard
  9
$DIMAUNIT
 70
     0
  9
$DIMADEC
 70
     2
  9
$DIMALTRND
 40
0.0
  9
$DIMAZIN
 70
     0
  9
$DIMDSEP
 70
    44
  9
$DIMATFIT
 70
     3
  9
$DIMFRAC
 70
     0
  9
$DIMLDRBLK
  1

  9
$DIMLUNIT
 70
     2
  9
$DIMLWD
 70
    -2
  9
$DIMLWE
 70
    -2
  9
$DIMTMOVE
 70
     0
  9
$LUNITS
 70
     2
  9
$LUPREC
 70
     2
  9
$SKETCHINC
 40
1.0
  9
$FILLETRAD
 40
10.0
  9
$AUNITS
 70
     0
  9
$AUPREC
 70
     2
  9
$MENU
  1
.
  9
$ELEVATION
 40
0.0
  9
$PELEVATION
 40
0.0
  9
$THICKNESS
 40
0.0
  9
$LIMCHECK
 70
     0
  9
$CHAMFERA
 40
10.0
  9
$CHAMFERB
 40
10.0
  9
$CHAMFERC
 40
20.0
  9
$CHAMFERD
 40
0.0
  9
$SKPOLY
 70
     0
  9
$TDCREATE
 40
2456098.407550683
  9
$TDUCREATE
 40
2456098.32421735
  9
$TDUPDATE
 40
2456098.40755213
  9
$TDUUPDATE
 40
2456098.324218796
  9
$TDINDWG
 40
0.0000000116
  9
$TDUSRTIMER
 40
0.0000000116
  9
$USRTIMER
 70
     1
  9
$ANGBASE
 50
0.0
  9
$ANGDIR
 70
     0
  9
$PDMODE
 70
     0
  9
$PDSIZE
 40
-1.0
  9
$PLINEWID
 40
0.0
  9
$SPLFRAME
 70
     0
  9
$SPLINETYPE
 70
     6
  9
$SPLINESEGS
 70
     8
  9
$HANDSEED
  5
254
  9
$SURFTAB1
 70
     6
  9
$SURFTAB2
 70
     6
  9
$SURFTYPE
 70
     6
  9
$SURFU
 70
     6
  9
$SURFV
 70
     6
  9
$UCSBASE
  2

  9
$UCSNAME
  2

  9
$UCSORG
 10
0.0
 20
0.0
 30
0.0
  9
$UCSXDIR
 10
1.0
 20
0.0
 30
0.0
  9
$UCSYDIR
 10
0.0
 20
1.0
 30
0.0
  9
$UCSORTHOREF
  2

  9
$UCSORTHOVIEW
 70
     0
  9
$UCSORGTOP
 10
0.0
 20
0.0
 30
0.0
  9
$UCSORGBOTTOM
 10
0.0
 20
0.0
 30
0.0
  9
$UCSORGLEFT
 10
0.0
 20
0.0
 30
0.0
  9
$UCSORGRIGHT
 10
0.0
 20
0.0
 30
0.0
  9
$UCSORGFRONT
 10
0.0
 20
0.0
 30
0.0
  9
$UCSORGBACK
 10
0.0
 20
0.0
 30
0.0
  9
$PUCSBASE
  2

  9
$PUCSNAME
  2

  9
$PUCSORG
 10
0.0
 20
0.0
 30
0.0
  9
$PUCSXDIR
 10
1.0
 20
0.0
 30
0.0
  9
$PUCSYDIR
 10
0.0
 20
1.0
 30
0.0
  9
$PUCSORTHOREF
  2

  9
$PUCSORTHOVIEW
 70
     0
  9
$PUCSORGTOP
 10
0.0
 20
0.0
 30
0.0
  9
$PUCSORGBOTTOM
 10
0.0
 20
0.0
 30
0.0
  9
$PUCSORGLEFT
 10
0.0
 20
0.0
 30
0.0
  9
$PUCSORGRIGHT
 10
0.0
 20
0.0
 30
0.0
  9
$PUCSORGFRONT
 10
0.0
 20
0.0
 30
0.0
  9
$PUCSORGBACK
 10
0.0
 20
0.0
 30
0.0
  9
$USERI1
 70
     0
  9
$USERI2
 70
     0
  9
$USERI3
 70
     0
  9
$USERI4
 70
     0
  9
$USERI5
 70
     0
  9
$USERR1
 40
0.0
  9
$USERR2
 40
0.0
  9
$USERR3
 40
0.0
  9
$USERR4
 40
0.0
  9
$USERR5
 40
0.0
  9
$WORLDVIEW
 70
     1
  9
$SHADEDGE
 70
     3
  9
$SHADEDIF
 70
    70
  9
$TILEMODE
 70
     1
  9
$MAXACTVP
 70
    64
  9
$PINSBASE
 10
0.0
 20
0.0
 30
0.0
  9
$PLIMCHECK
 70
     0
  9
$PEXTMIN
 10
1.0000000000E+20
 20
1.0000000000E+20
 30
1.0000000000E+20
  9
$PEXTMAX
 10
-1.0000000000E+20
 20
-1.0000000000E+20
 30
-1.0000000000E+20
  9
$PLIMMIN
 10
0.0
 20
0.0
  9
$PLIMMAX
 10
420.0
 20
297.0
  9
$UNITMODE
 70
     0
  9
$VISRETAIN
 70
     1
  9
$PLINEGEN
 70
     0
  9
$PSLTSCALE
 70
     1
  9
$TREEDEPTH
 70
  3020
  9
$CMLSTYLE
  2
Standard
  9
$CMLJUST
 70
     0
  9
$CMLSCALE
 40
20.0
  9
$PROXYGRAPHICS
 70
     1
  9
$MEASUREMENT
 70
     1
  9
$CELWEIGHT
370
    -1
  9
$ENDCAPS
280
     0
  9
$JOINSTYLE
280
     0
  9
$LWDISPLAY
290
     1
  9
$INSUNITS
 70
     4
  9
$HYPERLINKBASE
  1

  9
$STYLESHEET
  1

  9
$XEDIT
290
     1
  9
$CEPSNTYPE
380
     0
  9
$PSTYLEMODE
290
     1
  9
$FINGERPRINTGUID
  2
{C8E077CA-781E-4B95-9267-B5343F409AFE}
  9
$VERSIONGUID
  2
{FAEB1C32-E019-11D5-929B-00C0DF256EC4}
  9
$EXTNAMES
290
     1
  9
$PSVPSCALE
 40
0.0
  9
$OLESTARTUP
290
     0
  0
ENDSEC
  0
SECTION
  2
CLASSES
  0
CLASS
  1
ACDBDICTIONARYWDFLT
  2
AcDbDictionaryWithDefault
  3
ObjectDBX Classes
 90
        0
280
     0
281
     0
  0
CLASS
  1
VISUALSTYLE
  2
AcDbVisualStyle
  3
ObjectDBX Classes
 90
     4095
280
     0
281
     0
  0
CLASS
  1
MATERIAL
  2
AcDbMaterial
  3
ObjectDBX Classes
 90
     1153
280
     0
281
     0
  0
CLASS
  1
ACDBPLACEHOLDER
  2
AcDbPlaceHolder
  3
ObjectDBX Classes
 90
        0
280
     0
281
     0
  0
CLASS
  1
LAYOUT
  2
AcDbLayout
  3
ObjectDBX Classes
 90
        0
280
     0
281
     0
  0
ENDSEC
  0
SECTION
  2
TABLES
  0
TABLE
  2
VPORT
  5
8
330
0
100
AcDbSymbolTable
 70
     1
  0
VPORT
  5
29
330
8
100
AcDbSymbolTableRecord
100
AcDbViewportTableRecord
  2
*Active
 70
     0
 10
0.0
 20
0.0
 11
1.0
 21
1.0
 12
148.5
 22
105.0
 13
0.0
 23
0.0
 14
10.0
 24
10.0
 15
10.0
 25
10.0
 16
0.0
 26
0.0
 36
1.0
 17
0.0
 27
0.0
 37
0.0
 40
210.0
 41
1.4142857143
 42
50.0
 43
0.0
 44
0.0
 50
0.0
 51
0.0
 71
     0
 72
  2000
 73
     1
 74
     3
 75
     0
 76
     0
 77
     0
 78
     0
281
     0
 65
     1
110
0.0
120
0.0
130
0.0
111
1.0
121
0.0
131
0.0
112
0.0
122
1.0
132
0.0
 79
     0
146
0.0
  0
ENDTAB
  0
TABLE
  2
LTYPE
  5
5
330
0
100
AcDbSymbolTable
 70
     6
  0
LTYPE
  5
14
330
5
100
AcDbSymbolTableRecord
100
AcDbLinetypeTableRecord
  2
ByBlock
 70
     0
  3

 72
    65
 73
     0
 40
0.0
  0
LTYPE
  5
15
330
5
100
AcDbSymbolTableRecord
100
AcDbLinetypeTableRecord
  2
ByLayer
 70
     0
  3

 72
    65
 73
     0
 40
0.0
  0
LTYPE
  5
16
330
5
100
AcDbSymbolTableRecord
100
AcDbLinetypeTableRecord
  2
Continuous
 70
     0
  3
Solid line
 72
    65
 73
     0
 40
0.0
  0
LTYPE
  5
3F
330
5
100
AcDbSymbolTableRecord
100
AcDbLinetypeTableRecord
  2
HIDDEN
 70
     0
  3
Hidden __ __ __ __ __ __ __ __ __ __ __ __ __ __
 72
    65
 73
     2
 40
1.905
 49
1.27
 74
     0
 49
-0.635
 74
     0
  0
LTYPE
  5
40
330
5
100
AcDbSymbolTableRecord
100
AcDbLinetypeTableRecord
  2
PHANTOM
 70
     0
  3
Phantom ______  __  __  ______  __  __  ______
 72
    65
 73
     6
 40
12.7
 49
6.35
 74
     0
 49
-1.27
 74
     0
 49
1.27
 74
     0
 49
-1.27
 74
     0
 49
1.27
 74
     0
 49
-1.27
 74
     0
  0
LTYPE
  5
41
330
5
100
AcDbSymbolTableRecord
100
AcDbLinetypeTableRecord
  2
CENTER
 70
     0
  3
Center ____ _ ____ _ ____ _ ____ _ ____ _ ____
 72
    65
 73
     4
 40
10.16
 49
6.35
 74
     0
 49
-1.27
 74
     0
 49
1.27
 74
     0
 49
-1.27
 74
     0
  0
LTYPE
  5
42
330
5
100
AcDbSymbolTableRecord
100
AcDbLinetypeTableRecord
  2
CENTERX2
 70
     0
  3
Center (2x) ________  __  ________  __  _____
 72
    65
 73
     4
 40
20.32
 49
12.7
 74
     0
 49
-2.54
 74
     0
 49
2.54
 74
     0
 49
-2.54
 74
     0
  0
LTYPE
  5
43
330
5
100
AcDbSymbolTableRecord
100
AcDbLinetypeTableRecord
  2
DOT2
 70
     0
  3
Dot (.5x) ........................................
 72
    65
 73
     2
 40
0.635
 49
0.0
 74
     0
 49
-0.635
 74
     0
  0
ENDTAB
  0
TABLE
  2
LAYER
  5
2
330
0
100
AcDbSymbolTable
 70
     5
  0
LAYER
  5
10
330
2
100
AcDbSymbolTableRecord
100
AcDbLayerTableRecord
  2
0
 70
     0
 62
     7
  6
Continuous
370
    -3
390
F
  0
LAYER
  5
44
330
2
100
AcDbSymbolTableRecord
100
AcDbLayerTableRecord
  2
FORMAT
 70
     0
 62
     7
  6
Continuous
370
    -3
390
F
  0
LAYER
  5
45
330
2
100
AcDbSymbolTableRecord
100
AcDbLayerTableRecord
  2
VERMASSUNG
 70
     0
 62
     7
  6
Continuous
370
    -3
390
F
  0
LAYER
  5
46
330
2
100
AcDbSymbolTableRecord
100
AcDbLayerTableRecord
  2
KOPF_DÜNN
 70
     0
 62
     7
  6
Continuous
370
    -3
390
F
  0
LAYER
  5
47
330
2
100
AcDbSymbolTableRecord
100
AcDbLayerTableRecord
  2
KOPF_DICK
 70
     0
 62
     7
  6
Continuous
370
    15
390
F
  0
ENDTAB
  0
TABLE
  2
STYLE
  5
3
330
0
100
AcDbSymbolTable
 70
     3
  0
STYLE
  5
11
330
3
100
AcDbSymbolTableRecord
100
AcDbTextStyleTableRecord
  2
Standard
 70
     0
 40
0.0
 41
1.0
 50
0.0
 71
     0
 42
2.0
  3
txt
  4

  0
STYLE
  5
48
330
3
100
AcDbSymbolTableRecord
100
AcDbTextStyleTableRecord
  2
SLDTEXTSTYLE0
 70
     0
 40
0.0
 41
0.7
 50
0.0
 71
     0
 42
0.2
  3
TXT
  4

  0
STYLE
  5
4C
330
3
100
AcDbSymbolTableRecord
100
AcDbTextStyleTableRecord
  2
SLDTEXTSTYLE1
 70
     0
 40
0.0
 41
0.6384615385
 50
0.0
 71
     0
 42
0.2
  3
TXT
  4

  0
ENDTAB
  0
TABLE
  2
VIEW
  5
6
330
0
100
AcDbSymbolTable
 70
     0
  0
ENDTAB
  0
TABLE
  2
UCS
  5
7
330
0
100
AcDbSymbolTable
 70
     0
  0
ENDTAB
  0
TABLE
  2
APPID
  5
9
330
0
100
AcDbSymbolTable
 70
     1
  0
APPID
  5
12
330
9
100
AcDbSymbolTableRecord
100
AcDbRegAppTableRecord
  2
ACAD
 70
     0
  0
ENDTAB
  0
TABLE
  2
DIMSTYLE
  5
A
330
0
100
AcDbSymbolTable
 70
     3
100
AcDbDimStyleTable
  0
DIMSTYLE
105
27
330
A
100
AcDbSymbolTableRecord
100
AcDbDimStyleTableRecord
  2
ISO-25
 70
     0
 41
2.5
 42
0.625
 43
3.75
 44
1.25
 73
     0
 74
     0
 77
     1
 78
     8
140
2.5
141
2.5
143
0.0393700787
147
0.625
171
     3
172
     1
178
     0
271
     2
272
     2
274
     3
278
    44
283
     0
284
     8
340
11
  0
DIMSTYLE
105
18D
102
{ACAD_REACTORS
330
18C
330
1A6
330
1B0
330
1BA
102
}
330
A
100
AcDbSymbolTableRecord
100
AcDbDimStyleTableRecord
  2
SLDDIMSTYLE0
 70
     0
 41
3.0
 44
0.0
 45
0.000000001
 73
     0
 74
     0
 77
     1
 78
    12
 79
     3
140
2.0
147
0.5
173
     1
178
     0
271
     2
272
     3
276
     2
284
    12
340
48
  0
DIMSTYLE
105
199
102
{ACAD_REACTORS
330
198
102
}
330
A
100
AcDbSymbolTableRecord
100
AcDbDimStyleTableRecord
  2
SLDDIMSTYLE1
 70
     0
 41
3.0
 44
0.0
 45
0.000000001
 73
     0
 74
     0
 77
     1
 78
    12
 79
     3
140
2.0
147
0.5
172
     1
173
     1
178
     0
271
     2
272
     3
276
     2
284
    12
289
     0
340
48
  0
ENDTAB
  0
TABLE
  2
BLOCK_RECORD
  5
1
330
0
100
AcDbSymbolTable
 70
     7
  0
BLOCK_RECORD
  5
1F
330
1
100
AcDbSymbolTableRecord
100
AcDbBlockTableRecord
  2
*Model_Space
340
22
  0
BLOCK_RECORD
  5
1B
330
1
100
AcDbSymbolTableRecord
100
AcDbBlockTableRecord
  2
*Paper_Space
340
1E
  0
BLOCK_RECORD
  5
23
330
1
100
AcDbSymbolTableRecord
100
AcDbBlockTableRecord
  2
*Paper_Space0
340
26
  0
BLOCK_RECORD
  5
18E
330
1
100
AcDbSymbolTableRecord
100
AcDbBlockTableRecord
  2
_D
340
0
  0
BLOCK_RECORD
  5
19A
330
1
100
AcDbSymbolTableRecord
100
AcDbBlockTableRecord
  2
_D_1
340
0
  0
BLOCK_RECORD
  5
1A7
330
1
100
AcDbSymbolTableRecord
100
AcDbBlockTableRecord
  2
_D_2
340
0
  0
BLOCK_RECORD
  5
1B1
330
1
100
AcDbSymbolTableRecord
100
AcDbBlockTableRecord
  2
_D_3
340
0
  0
BLOCK_RECORD
  5
1BB
330
1
100
AcDbSymbolTableRecord
100
AcDbBlockTableRecord
  2
_D_4
340
0
  0
BLOCK_RECORD
  5
247
330
1
100
AcDbSymbolTableRecord
100
AcDbBlockTableRecord
  2
SW_CENTERMARKSYMBOL_0
340
0
102
{BLKREFS
331
252
102
}
  0
ENDTAB
  0
ENDSEC
  0
SECTION
  2
BLOCKS
  0
BLOCK
  5
20
330
1F
100
AcDbEntity
  8
0
100
AcDbBlockBegin
  2
*Model_Space
 70
     0
 10
0.0
 20
0.0
 30
0.0
  3
*Model_Space
  1

  0
ENDBLK
  5
21
330
1F
100
AcDbEntity
  8
0
100
AcDbBlockEnd
  0
BLOCK
  5
1C
330
1B
100
AcDbEntity
 67
     1
  8
0
100
AcDbBlockBegin
  2
*Paper_Space
 70
     0
 10
0.0
 20
0.0
 30
0.0
  3
*Paper_Space
  1

  0
ENDBLK
  5
1D
330
1B
100
AcDbEntity
 67
     1
  8
0
100
AcDbBlockEnd
  0
BLOCK
  5
24
330
23
100
AcDbEntity
  8
0
100
AcDbBlockBegin
  2
*Paper_Space0
 70
     0
 10
0.0
 20
0.0
 30
0.0
  3
*Paper_Space0
  1

  0
ENDBLK
  5
25
330
23
100
AcDbEntity
  8
0
100
AcDbBlockEnd
  0
BLOCK
  5
18F
330
18E
100
AcDbEntity
  8
0
100
AcDbBlockBegin
  2
_D
 70
     0
 10
0.0
 20
0.0
 30
0.0
  3
_D
  1

  0
SOLID
  5
191
330
18E
100
AcDbEntity
  8
VERMASSUNG
100
AcDbTrace
 10
257.4891168433
 20
127.7099728189
 30
0.0
 11
257.0391168433
 21
124.7099728189
 31
0.0
 12
257.9391168433
 22
124.7099728189
 32
0.0
 13
257.9391168433
 23
124.7099728189
 33
0.0
  0
SOLID
  5
192
330
18E
100
AcDbEntity
  8
VERMASSUNG
100
AcDbTrace
 10
257.4891168433
 20
93.7099728189
 30
0.0
 11
257.9391168433
 21
96.7099728189
 31
0.0
 12
257.0391168433
 22
96.7099728189
 32
0.0
 13
257.0391168433
 23
96.7099728189
 33
0.0
  0
LINE
  5
193
330
18E
100
AcDbEntity
  8
VERMASSUNG
100
AcDbLine
 10
238.0586072823
 20
127.7099728189
 30
0.0
 11
258.4891168433
 21
127.7099728189
 31
0.0
  0
LINE
  5
194
330
18E
100
AcDbEntity
  8
VERMASSUNG
100
AcDbLine
 10
238.0586072823
 20
93.7099728189
 30
0.0
 11
258.4891168433
 21
93.7099728189
 31
0.0
  0
LINE
  5
195
330
18E
100
AcDbEntity
  8
VERMASSUNG
100
AcDbLine
 10
257.4891168433
 20
127.7099728189
 30
0.0
 11
257.4891168433
 21
93.7099728189
 31
0.0
  0
MTEXT
  5
196
330
18E
100
AcDbEntity
  8
VERMASSUNG
100
AcDbMText
 10
254.9109813638
 20
106.7661951404
 30
0.1
 40
2.0
 41
0.0
 71
     1
 72
     1
  1
%%c
  7
SLDTEXTSTYLE0
 11
-7.044195017643634E-15
 21
1.0
 31
0.0
 73
     1
 44
1.0
  0
MTEXT
  5
197
330
18E
100
AcDbEntity
  8
VERMASSUNG
100
AcDbMText
 10
254.7109813543
 20
110.3761951548
 30
0.1
 40
2.0
 41
0.0
 71
     1
 72
     1
  1
34
  7
SLDTEXTSTYLE0
 11
-7.044195017643634E-15
 21
1.0
 31
0.0
 73
     1
 44
1.0
  0
ENDBLK
  5
190
330
18E
100
AcDbEntity
  8
0
100
AcDbBlockEnd
  0
BLOCK
  5
19B
330
19A
100
AcDbEntity
  8
0
100
AcDbBlockBegin
  2
_D_1
 70
     0
 10
0.0
 20
0.0
 30
0.0
  3
_D_1
  1

  0
SOLID
  5
19D
330
19A
100
AcDbEntity
  8
VERMASSUNG
100
AcDbTrace
 10
249.0586072823
 20
113.7099728189
 30
0.0
 11
249.5086072823
 21
116.7099728189
 31
0.0
 12
248.6086072823
 22
116.7099728189
 32
0.0
 13
248.6086072823
 23
116.7099728189
 33
0.0
  0
SOLID
  5
19E
330
19A
100
AcDbEntity
  8
VERMASSUNG
100
AcDbTrace
 10
249.0586072823
 20
107.7099728189
 30
0.0
 11
248.6086072823
 21
104.7099728189
 31
0.0
 12
249.5086072823
 22
104.7099728189
 32
0.0
 13
249.5086072823
 23
104.7099728189
 33
0.0
  0
LINE
  5
19F
330
19A
100
AcDbEntity
  8
VERMASSUNG
100
AcDbLine
 10
238.7586072823
 20
113.7099728189
 30
0.0
 11
250.0586072823
 21
113.7099728189
 31
0.0
  0
LINE
  5
1A0
330
19A
100
AcDbEntity
  8
VERMASSUNG
100
AcDbLine
 10
238.7586072823
 20
107.7099728189
 30
0.0
 11
250.0586072823
 21
107.7099728189
 31
0.0
  0
LINE
  5
1A1
330
19A
100
AcDbEntity
  8
VERMASSUNG
100
AcDbLine
 10
249.0586072823
 20
113.7099728189
 30
0.0
 11
249.0586072823
 21
119.7099728189
 31
0.0
  0
LINE
  5
1A2
330
19A
100
AcDbEntity
  8
VERMASSUNG
100
AcDbLine
 10
249.0586072823
 20
113.7099728189
 30
0.0
 11
249.0586072823
 21
107.7099728189
 31
0.0
  0
LINE
  5
1A3
330
19A
100
AcDbEntity
  8
VERMASSUNG
100
AcDbLine
 10
249.0586072823
 20
107.7099728189
 30
0.0
 11
249.0586072823
 21
101.7099728189
 31
0.0
  0
MTEXT
  5
1A4
330
19A
100
AcDbEntity
  8
VERMASSUNG
100
AcDbMText
 10
246.4804718028
 20
107.5661951784
 30
0.1
 40
2.0
 41
0.0
 71
     1
 72
     1
  1
%%c
  7
SLDTEXTSTYLE0
 11
-7.044195017643634E-15
 21
1.0
 31
0.0
 73
     1
 44
1.0
  0
MTEXT
  5
1A5
330
19A
100
AcDbEntity
  8
VERMASSUNG
100
AcDbMText
 10
246.2804717933
 20
111.1761951927
 30
0.1
 40
2.0
 41
0.0
 71
     1
 72
     1
  1
6
  7
SLDTEXTSTYLE0
 11
-7.044195017643634E-15
 21
1.0
 31
0.0
 73
     1
 44
1.0
  0
ENDBLK
  5
19C
330
19A
100
AcDbEntity
  8
0
100
AcDbBlockEnd
  0
BLOCK
  5
1A8
330
1A7
100
AcDbEntity
  8
0
100
AcDbBlockBegin
  2
_D_2
 70
     0
 10
0.0
 20
0.0
 30
0.0
  3
_D_2
  1

  0
SOLID
  5
1AA
330
1A7
100
AcDbEntity
  8
VERMASSUNG
100
AcDbTrace
 10
239.0586072823
 20
142.7151781139
 30
0.0
 11
236.0586072823
 21
143.1651781139
 31
0.0
 12
236.0586072823
 22
142.2651781139
 32
0.0
 13
236.0586072823
 23
142.2651781139
 33
0.0
  0
SOLID
  5
1AB
330
1A7
100
AcDbEntity
  8
VERMASSUNG
100
AcDbTrace
 10
169.0586072823
 20
142.7151781139
 30
0.0
 11
172.0586072823
 21
142.2651781139
 31
0.0
 12
172.0586072823
 22
143.1651781139
 32
0.0
 13
172.0586072823
 23
143.1651781139
 33
0.0
  0
LINE
  5
1AC
330
1A7
100
AcDbEntity
  8
VERMASSUNG
100
AcDbLine
 10
239.0586072823
 20
126.7099728189
 30
0.0
 11
239.0586072823
 21
143.7151781139
 31
0.0
  0
LINE
  5
1AD
330
1A7
100
AcDbEntity
  8
VERMASSUNG
100
AcDbLine
 10
169.0586072823
 20
135.4099728189
 30
0.0
 11
169.0586072823
 21
143.7151781139
 31
0.0
  0
LINE
  5
1AE
330
1A7
100
AcDbEntity
  8
VERMASSUNG
100
AcDbLine
 10
239.0586072823
 20
142.7151781139
 30
0.0
 11
169.0586072823
 21
142.7151781139
 31
0.0
  0
MTEXT
  5
1AF
330
1A7
100
AcDbEntity
  8
VERMASSUNG
100
AcDbMText
 10
202.9548210198
 20
145.293313477
 30
0.1
 40
2.0
 41
0.0
 71
     1
 72
     1
  1
70
  7
SLDTEXTSTYLE0
 73
     1
 44
1.0
  0
ENDBLK
  5
1A9
330
1A7
100
AcDbEntity
  8
0
100
AcDbBlockEnd
  0
BLOCK
  5
1B2
330
1B1
100
AcDbEntity
  8
0
100
AcDbBlockBegin
  2
_D_3
 70
     0
 10
0.0
 20
0.0
 30
0.0
  3
_D_3
  1

  0
SOLID
  5
1B4
330
1B1
100
AcDbEntity
  8
VERMASSUNG
100
AcDbTrace
 10
139.0586072823
 20
147.0367420496
 30
0.0
 11
142.0586072823
 21
146.5867420496
 31
0.0
 12
142.0586072823
 22
147.4867420496
 32
0.0
 13
142.0586072823
 23
147.4867420496
 33
0.0
  0
SOLID
  5
1B5
330
1B1
100
AcDbEntity
  8
VERMASSUNG
100
AcDbTrace
 10
239.0586072823
 20
147.0367420496
 30
0.0
 11
236.0586072823
 21
147.4867420496
 31
0.0
 12
236.0586072823
 22
146.5867420496
 32
0.0
 13
236.0586072823
 23
146.5867420496
 33
0.0
  0
LINE
  5
1B6
330
1B1
100
AcDbEntity
  8
VERMASSUNG
100
AcDbLine
 10
139.0586072823
 20
126.650547738
 30
0.0
 11
139.0586072823
 21
148.0367420496
 31
0.0
  0
LINE
  5
1B7
330
1B1
100
AcDbEntity
  8
VERMASSUNG
100
AcDbLine
 10
239.0586072823
 20
126.7099728189
 30
0.0
 11
239.0586072823
 21
148.0367420496
 31
0.0
  0
LINE
  5
1B8
330
1B1
100
AcDbEntity
  8
VERMASSUNG
100
AcDbLine
 10
139.0586072823
 20
147.0367420496
 30
0.0
 11
239.0586072823
 21
147.0367420496
 31
0.0
  0
MTEXT
  5
1B9
330
1B1
100
AcDbEntity
  8
VERMASSUNG
100
AcDbMText
 10
189.6190298896
 20
149.6148774127
 30
0.1
 40
2.0
 41
0.0
 71
     1
 72
     1
  1
100
  7
SLDTEXTSTYLE0
 73
     1
 44
1.0
  0
ENDBLK
  5
1B3
330
1B1
100
AcDbEntity
  8
0
100
AcDbBlockEnd
  0
BLOCK
  5
1BC
330
1BB
100
AcDbEntity
  8
0
100
AcDbBlockBegin
  2
_D_4
 70
     0
 10
0.0
 20
0.0
 30
0.0
  3
_D_4
  1

  0
SOLID
  5
1BE
330
1BB
100
AcDbEntity
  8
VERMASSUNG
100
AcDbTrace
 10
129.0586072823
 20
135.7099728189
 30
0.0
 11
128.6086072823
 21
132.7099728189
 31
0.0
 12
129.5086072823
 22
132.7099728189
 32
0.0
 13
129.5086072823
 23
132.7099728189
 33
0.0
  0
SOLID
  5
1BF
330
1BB
100
AcDbEntity
  8
VERMASSUNG
100
AcDbTrace
 10
129.0586072823
 20
85.7099728189
 30
0.0
 11
129.5086072823
 21
88.7099728189
 31
0.0
 12
128.6086072823
 22
88.7099728189
 32
0.0
 13
128.6086072823
 23
88.7099728189
 33
0.0
  0
LINE
  5
1C0
330
1BB
100
AcDbEntity
  8
VERMASSUNG
100
AcDbLine
 10
169.3586072823
 20
135.7099728189
 30
0.0
 11
128.0586072823
 21
135.7099728189
 31
0.0
  0
LINE
  5
1C1
330
1BB
100
AcDbEntity
  8
VERMASSUNG
100
AcDbLine
 10
169.3586072823
 20
85.7099728189
 30
0.0
 11
128.0586072823
 21
85.7099728189
 31
0.0
  0
LINE
  5
1C2
330
1BB
100
AcDbEntity
  8
VERMASSUNG
100
AcDbLine
 10
129.0586072823
 20
135.7099728189
 30
0.0
 11
129.0586072823
 21
85.7099728189
 31
0.0
  0
MTEXT
  5
1C3
330
1BB
100
AcDbEntity
  8
VERMASSUNG
100
AcDbMText
 10
126.2804717933
 20
104.5661951524
 30
0.1
 40
2.0
 41
0.0
 71
     1
 72
     1
  1
PSC
  7
SLDTEXTSTYLE0
 11
-7.044195017643634E-15
 21
1.0
 31
0.0
 73
     1
 44
1.0
  0
MTEXT
  5
1C4
330
1BB
100
AcDbEntity
  8
VERMASSUNG
100
AcDbMText
 10
126.4804718028
 20
109.1661952544
 30
0.1
 40
2.0
 41
0.0
 71
     1
 72
     1
  1
%%c
  7
SLDTEXTSTYLE0
 11
-7.044195017643634E-15
 21
1.0
 31
0.0
 73
     1
 44
1.0
  0
MTEXT
  5
1C5
330
1BB
100
AcDbEntity
  8
VERMASSUNG
100
AcDbMText
 10
126.2804717933
 20
112.7761957344
 30
0.1
 40
2.0
 41
0.0
 71
     1
 72
     1
  1
50
  7
SLDTEXTSTYLE0
 11
-7.044195017643634E-15
 21
1.0
 31
0.0
 73
     1
 44
1.0
  0
ENDBLK
  5
1BD
330
1BB
100
AcDbEntity
  8
0
100
AcDbBlockEnd
  0
BLOCK
  5
248
330
247
100
AcDbEntity
  8
0
100
AcDbBlockBegin
  2
SW_CENTERMARKSYMBOL_0
 70
     0
 10
0.0
 20
0.0
 30
0.0
  3
SW_CENTERMARKSYMBOL_0
  1

  0
LINE
  5
24A
330
247
100
AcDbEntity
  8
VERMASSUNG
 62
     0
100
AcDbLine
 10
0.0
 20
0.0
 30
0.0
 11
0.0
 21
2.5
 31
0.0
  0
LINE
  5
24B
330
247
100
AcDbEntity
  8
VERMASSUNG
 62
     0
100
AcDbLine
 10
0.0
 20
0.0
 30
0.0
 11
-2.5
 21
0.0
 31
0.0
  0
LINE
  5
24C
330
247
100
AcDbEntity
  8
VERMASSUNG
 62
     0
100
AcDbLine
 10
0.0
 20
0.0
 30
0.0
 11
0.0
 21
-2.5
 31
0.0
  0
LINE
  5
24D
330
247
100
AcDbEntity
  8
VERMASSUNG
 62
     0
100
AcDbLine
 10
0.0
 20
0.0
 30
0.0
 11
2.5
 21
0.0
 31
0.0
  0
LINE
  5
24E
330
247
100
AcDbEntity
  8
VERMASSUNG
 62
     0
100
AcDbLine
 10
0.0
 20
5.0
 30
0.0
 11
0.0
 21
27.5
 31
0.0
  0
LINE
  5
24F
330
247
100
AcDbEntity
  8
VERMASSUNG
 62
     0
100
AcDbLine
 10
-5.0
 20
0.0
 30
0.0
 11
-27.5
 21
0.0
 31
0.0
  0
LINE
  5
250
330
247
100
AcDbEntity
  8
VERMASSUNG
 62
     0
100
AcDbLine
 10
0.0
 20
-5.0
 30
0.0
 11
0.0
 21
-27.5
 31
0.0
  0
LINE
  5
251
330
247
100
AcDbEntity
  8
VERMASSUNG
 62
     0
100
AcDbLine
 10
5.0
 20
0.0
 30
0.0
 11
27.5
 21
0.0
 31
0.0
  0
ENDBLK
  5
249
330
247
100
AcDbEntity
  8
0
100
AcDbBlockEnd
  0
ENDSEC
  0
SECTION
  2
ENTITIES
  0
MTEXT
  5
49
330
1F
100
AcDbEntity
  8
KOPF_DÜNN
100
AcDbMText
 10
13.8892156294
 20
23.8442973028
 30
0.0
 40
3.0
 41
0.0
 71
     1
 72
     1
  1
PS5.B06.K01.070
  7
SLDTEXTSTYLE0
 73
     1
 44
1.0
  0
MTEXT
  5
4A
330
1F
100
AcDbEntity
  8
VERMASSUNG
100
AcDbMText
 10
13.9329988022
 20
28.8834360957
 30
0.0
 40
3.0
 41
0.0
 71
     1
 72
     1
  1
Bohrstangenhalter_Boring bar holder
  7
SLDTEXTSTYLE0
 73
     1
 44
1.0
  0
MTEXT
  5
4B
330
1F
100
AcDbEntity
  8
VERMASSUNG
100
AcDbMText
 10
98.8601118557
 20
13.8365368179
 30
0.0
 40
2.0
 41
0.0
 71
     1
 72
     1
  1
Datum: 18.06.2012
  7
SLDTEXTSTYLE0
 73
     1
 44
1.0
  0
MTEXT
  5
4D
330
1F
100
AcDbEntity
  8
VERMASSUNG
100
AcDbMText
 10
13.933048693
 20
18.0482802738
 30
0.0
 40
2.0
 41
0.0
 71
     1
 72
     1
  1
PSC ø50 / ø 6
  7
SLDTEXTSTYLE1
 73
     1
 44
1.0
  0
MTEXT
  5
4E
330
1F
100
AcDbEntity
  8
VERMASSUNG
100
AcDbMText
 10
13.9808475933
 20
13.9090973692
 30
0.0
 40
2.0
 41
0.0
 71
     1
 72
     1
  1
Gewicht: 747g
  7
SLDTEXTSTYLE0
 73
     1
 44
1.0
  0
LINE
  5
4F
330
1F
100
AcDbEntity
  8
0
  6
Continuous
 62
     7
370
    15
100
AcDbLine
 10
208.3977249882
 20
93.8343239478
 30
0.0
 11
208.6131063721
 21
93.709971895
 31
0.0
  0
LINE
  5
50
330
1F
100
AcDbEntity
  8
0
  6
Continuous
 62
     7
370
    15
100
AcDbLine
 10
213.5041070601
 20
93.709971895
 30
0.0
 11
213.7196598074
 21
93.8344208054
 31
0.0
  0
LINE
  5
51
330
1F
100
AcDbEntity
  8
0
  6
Continuous
 62
     7
370
    15
100
AcDbLine
 10
218.397722902
 20
93.8343239478
 30
0.0
 11
218.6131080112
 21
93.709971895
 31
0.0
  0
LINE
  5
52
330
1F
100
AcDbEntity
  8
0
  6
Continuous
 62
     7
370
    15
100
AcDbLine
 10
223.5041086993
 20
93.709971895
 30
0.0
 11
223.7196577212
 21
93.8344208054
 31
0.0
  0
LINE
  5
53
330
1F
100
AcDbEntity
  8
0
  6
Continuous
 62
     7
370
    15
100
AcDbLine
 10
233.7201995274
 20
127.585211908
 30
0.0
 11
233.5041103384
 21
127.7099737427
 31
0.0
  0
LINE
  5
54
330
1F
100
AcDbEntity
  8
0
  6
Continuous
 62
     7
370
    15
100
AcDbLine
 10
228.613105925
 20
127.7099737427
 30
0.0
 11
228.3953329048
 21
127.5842414699
 31
0.0
  0
LINE
  5
55
330
1F
100
AcDbEntity
  8
0
  6
Continuous
 62
     7
370
    15
100
AcDbLine
 10
228.3977245411
 20
93.8343239478
 30
0.0
 11
228.613105925
 21
93.709971895
 31
0.0
  0
LINE
  5
56
330
1F
100
AcDbEntity
  8
0
  6
Continuous
 62
     7
370
    15
100
AcDbLine
 10
233.5041103384
 20
93.709971895
 30
0.0
 11
233.7196556351
 21
93.8344208054
 31
0.0
  0
LINE
  5
57
330
1F
100
AcDbEntity
  8
0
  6
Continuous
 62
     7
370
    15
100
AcDbLine
 10
223.7202016136
 20
127.585211908
 30
0.0
 11
223.5041086993
 21
127.7099737427
 31
0.0
  0
LINE
  5
58
330
1F
100
AcDbEntity
  8
0
  6
Continuous
 62
     7
370
    15
100
AcDbLine
 10
218.6131080112
 20
127.7099737427
 30
0.0
 11
218.3953312656
 21
127.5842414699
 31
0.0
  0
LINE
  5
59
330
1F
100
AcDbEntity
  8
0
  6
Continuous
 62
     7
370
    15
100
AcDbLine
 10
213.7201999745
 20
127.585211908
 30
0.0
 11
213.5041070601
 21
127.7099737427
 31
0.0
  0
LINE
  5
5A
330
1F
100
AcDbEntity
  8
0
  6
Continuous
 62
     7
370
    15
100
AcDbLine
 10
208.6131063721
 20
127.7099737427
 30
0.0
 11
208.3953333518
 21
127.5842414699
 31
0.0
  0
LINE
  5
5B
330
1F
100
AcDbEntity
  8
0
  6
Continuous
 62
     7
370
    15
100
AcDbLine
 10
183.0338736495
 20
85.7099724463
 30
0.0
 11
188.4586078545
 21
85.7099724463
 31
0.0
  0
LINE
  5
5C
330
1F
100
AcDbEntity
  8
0
  6
Continuous
 62
     7
370
    15
100
AcDbLine
 10
169.3586072966
 20
85.7099724463
 30
0.0
 11
179.0586070588
 21
85.7099724463
 31
0.0
  0
LINE
  5
5D
330
1F
100
AcDbEntity
  8
0
  6
Continuous
 62
     7
370
    15
100
AcDbLine
 10
188.4586078545
 20
135.7099731914
 30
0.0
 11
169.3586072966
 21
135.7099731914
 31
0.0
  0
ARC
  5
5E
330
1F
100
AcDbEntity
  8
0
  6
Continuous
 62
     7
370
    15
100
AcDbCircle
 10
188.4586072823
 20
86.3099728189
 30
0.0
 40
0.5999999999999943
100
AcDbArc
 50
270.0
 51
0.0
  0
ARC
  5
5F
330
1F
100
AcDbEntity
  8
0
  6
Continuous
 62
     7
370
    15
100
AcDbCircle
 10
188.4586072823
 20
135.1099728189
 30
0.0
 40
0.5999999999999943
100
AcDbArc
 50
0.0
 51
90.0
  0
ARC
  5
60
330
1F
100
AcDbEntity
  8
0
  6
Continuous
 62
     7
370
    15
100
AcDbCircle
 10
169.3586072823
 20
86.0099728189
 30
0.0
 40
0.3000000000000398
100
AcDbArc
 50
180.0
 51
270.0
  0
ARC
  5
61
330
1F
100
AcDbEntity
  8
0
  6
Continuous
 62
     7
370
    15
100
AcDbCircle
 10
169.3586072823
 20
135.4099728189
 30
0.0
 40
0.3000000000000398
100
AcDbArc
 50
90.0
 51
180.0
  0
ARC
  5
62
330
1F
100
AcDbEntity
  8
0
  6
Continuous
 62
     7
370
    15
100
AcDbCircle
 10
192.0586072823
 20
90.7099728189
 30
0.0
 40
3.0
100
AcDbArc
 50
90.0
 51
180.0
  0
ARC
  5
63
330
1F
100
AcDbEntity
  8
0
  6
Continuous
 62
     7
370
    15
100
AcDbCircle
 10
192.0586072823
 20
130.7099728189
 30
0.0
 40
3.0
100
AcDbArc
 50
180.0
 51
270.0
  0
LWPOLYLINE
  5
64
330
1F
100
AcDbEntity
  8
0
  6
Continuous
 62
     7
370
    15
100
AcDbPolyline
 90
        3
 70
   128
 43
0.0
 10
168.8586072874
 20
92.8701517633
 10
168.9840622226
 20
92.8018504284
 10
169.0586072823
 20
92.7491133563
  0
ARC
  5
65
330
1F
100
AcDbEntity
  8
0
  6
Continuous
 62
     7
370
    15
100
AcDbCircle
 10
168.44439372
 20
129.4599728189
 30
0.0
 40
0.999999999999988
100
AcDbArc
 50
225.0
 51
307.8947985336
  0
ARC
  5
66
330
1F
100
AcDbEntity
  8
0
  6
Continuous
 62
     7
370
    15
100
AcDbCircle
 10
238.0586072823
 20
126.7099728189
 30
0.0
 40
1.0
100
AcDbArc
 50
0.0
 51
90.0
  0
ARC
  5
67
330
1F
100
AcDbEntity
  8
0
  6
Continuous
 62
     7
370
    15
100
AcDbCircle
 10
238.0586072823
 20
94.7099728189
 30
0.0
 40
1.0
100
AcDbArc
 50
270.0
 51
0.0
  0
LINE
  5
68
330
1F
100
AcDbEntity
  8
0
  6
Continuous
 62
     7
370
    15
100
AcDbLine
 10
207.6020588598
 20
127.7099737427
 30
0.0
 11
192.058607327
 21
127.7099737427
 31
0.0
  0
LINE
  5
69
330
1F
100
AcDbEntity
  8
0
  6
Continuous
 62
     7
370
    15
100
AcDbLine
 10
217.6020604989
 20
127.7099737427
 30
0.0
 11
214.5447855315
 21
127.7099737427
 31
0.0
  0
LINE
  5
6A
330
1F
100
AcDbEntity
  8
0
  6
Continuous
 62
     7
370
    15
100
AcDbLine
 10
227.6020584127
 20
127.7099737427
 30
0.0
 11
224.5447834453
 21
127.7099737427
 31
0.0
  0
LINE
  5
6B
330
1F
100
AcDbEntity
  8
0
  6
Continuous
 62
     7
370
    15
100
AcDbLine
 10
238.0586055538
 20
127.7099737427
 30
0.0
 11
234.5447850844
 21
127.7099737427
 31
0.0
  0
LINE
  5
6C
330
1F
100
AcDbEntity
  8
0
  6
Continuous
 62
     7
370
    15
100
AcDbLine
 10
234.5447850844
 20
93.709971895
 30
0.0
 11
238.0586055538
 21
93.709971895
 31
0.0
  0
LINE
  5
6D
330
1F
100
AcDbEntity
  8
0
  6
Continuous
 62
     7
370
    15
100
AcDbLine
 10
224.5447834453
 20
93.709971895
 30
0.0
 11
227.6020584127
 21
93.709971895
 31
0.0
  0
LINE
  5
6E
330
1F
100
AcDbEntity
  8
0
  6
Continuous
 62
     7
370
    15
100
AcDbLine
 10
214.5447855315
 20
93.709971895
 30
0.0
 11
217.6020604989
 21
93.709971895
 31
0.0
  0
LINE
  5
6F
330
1F
100
AcDbEntity
  8
0
  6
Continuous
 62
     7
370
    15
100
AcDbLine
 10
192.058607327
 20
93.709971895
 30
0.0
 11
207.6020588598
 21
93.709971895
 31
0.0
  0
LINE
  5
70
330
1F
100
AcDbEntity
  8
0
  6
Continuous
 62
     7
370
    15
100
AcDbLine
 10
158.4852378315
 20
94.520243024
 30
0.0
 11
166.8586072943
 21
94.3098740182
 31
0.0
  0
LINE
  5
71
330
1F
100
AcDbEntity
  8
0
  6
Continuous
 62
     7
370
    15
100
AcDbLine
 10
146.4156316093
 20
94.8234723411
 30
0.0
 11
151.821659269
 21
94.6876538447
 31
0.0
  0
ARC
  5
72
330
1F
100
AcDbEntity
  8
0
  6
Continuous
 62
     7
370
    15
100
AcDbCircle
 10
167.0585441933
 20
94.3048509232
 30
0.0
 40
0.2000000000000048
100
AcDbArc
 50
88.5608333333
 51
178.5608333333
  0
LINE
  5
73
330
1F
100
AcDbEntity
  8
0
  6
Continuous
 62
     7
370
    15
100
AcDbLine
 10
167.0635674114
 20
94.5047886572
 30
0.0
 11
168.6636303807
 21
94.4645890496
 31
0.0
  0
ARC
  5
74
330
1F
100
AcDbEntity
  8
0
  6
Continuous
 62
     7
370
    15
100
AcDbCircle
 10
168.6586072823
 20
94.264651769
 30
0.0
 40
0.2000000000000171
100
AcDbArc
 50
0.0
 51
88.5608333333
  0
ARC
  5
75
330
1F
100
AcDbEntity
  8
0
  6
Continuous
 62
     7
370
    15
100
AcDbCircle
 10
167.0585441933
 20
129.3550947146
 30
0.0
 40
0.2000000000000045
100
AcDbArc
 50
181.4391666666
 51
271.4391666667
  0
LINE
  5
76
330
1F
100
AcDbEntity
  8
0
  6
Continuous
 62
     7
370
    15
100
AcDbLine
 10
166.8586072943
 20
129.3500719122
 30
0.0
 11
140.5586072674
 21
128.6893246225
 31
0.0
  0
LINE
  5
77
330
1F
100
AcDbEntity
  8
0
  6
Continuous
 62
     7
370
    15
100
AcDbLine
 10
167.3378810251
 20
129.1620490602
 30
0.0
 11
167.0635674114
 21
129.1551572732
 31
0.0
  0
LINE
  5
78
330
1F
100
AcDbEntity
  8
0
  6
Continuous
 62
     7
370
    15
100
AcDbLine
 10
140.5586072674
 20
128.6893246225
 30
0.0
 11
139.0586079529
 21
127.8232989363
 31
0.0
  0
LINE
  5
79
330
1F
100
AcDbEntity
  8
0
  6
Continuous
 62
     7
370
    15
100
AcDbLine
 10
167.7372869768
 20
128.7528668992
 30
0.0
 11
167.3447258968
 21
129.1454268149
 31
0.0
  0
LINE
  5
7A
330
1F
100
AcDbEntity
  8
0
  6
Continuous
 62
     7
370
    15
100
AcDbLine
 10
213.5041070601
 20
93.709971895
 30
0.0
 11
208.6131063721
 21
93.709971895
 31
0.0
  0
LINE
  5
7B
330
1F
100
AcDbEntity
  8
0
  6
Continuous
 62
     7
370
    15
100
AcDbLine
 10
223.5041086993
 20
93.709971895
 30
0.0
 11
218.6131080112
 21
93.709971895
 31
0.0
  0
LINE
  5
7C
330
1F
100
AcDbEntity
  8
0
  6
Continuous
 62
     7
370
    15
100
AcDbLine
 10
231.0586062691
 20
127.7099737427
 30
0.0
 11
233.5041103384
 21
127.7099737427
 31
0.0
  0
LINE
  5
7D
330
1F
100
AcDbEntity
  8
0
  6
Continuous
 62
     7
370
    15
100
AcDbLine
 10
228.613105925
 20
127.7099737427
 30
0.0
 11
231.0586062691
 21
127.7099737427
 31
0.0
  0
LINE
  5
7E
330
1F
100
AcDbEntity
  8
0
  6
Continuous
 62
     7
370
    15
100
AcDbLine
 10
233.5041103384
 20
93.709971895
 30
0.0
 11
228.613105925
 21
93.709971895
 31
0.0
  0
LINE
  5
7F
330
1F
100
AcDbEntity
  8
0
  6
Continuous
 62
     7
370
    15
100
AcDbLine
 10
221.0586083552
 20
127.7099737427
 30
0.0
 11
223.5041086993
 21
127.7099737427
 31
0.0
  0
LINE
  5
80
330
1F
100
AcDbEntity
  8
0
  6
Continuous
 62
     7
370
    15
100
AcDbLine
 10
218.6131080112
 20
127.7099737427
 30
0.0
 11
221.0586083552
 21
127.7099737427
 31
0.0
  0
LINE
  5
81
330
1F
100
AcDbEntity
  8
0
  6
Continuous
 62
     7
370
    15
100
AcDbLine
 10
211.0586067161
 20
127.7099737427
 30
0.0
 11
213.5041070601
 21
127.7099737427
 31
0.0
  0
LINE
  5
82
330
1F
100
AcDbEntity
  8
0
  6
Continuous
 62
     7
370
    15
100
AcDbLine
 10
208.6131063721
 20
127.7099737427
 30
0.0
 11
211.0586067161
 21
127.7099737427
 31
0.0
  0
ARC
  5
83
330
1F
100
AcDbEntity
  8
0
  6
Continuous
 62
     7
370
    15
100
AcDbCircle
 10
181.0585424595
 20
60.753523839
 30
0.0
 40
25.0364547949486
100
AcDbArc
 50
85.4747630076
 51
94.581721871
  0
SPLINE
  5
84
330
1F
100
AcDbEntity
  8
0
  6
Continuous
 62
     7
370
    15
100
AcDbSpline
210
0.0
220
0.0
230
1.0
 70
     8
 71
     3
 72
    12
 73
     8
 74
     0
 42
0.00000001
 43
0.00000001
 12
1.0
 22
0.0
 32
0.0
 13
1.0
 23
0.0
 33
0.0
 40
0.0
 40
0.0
 40
0.0
 40
0.0
 40
0.2500000000000007
 40
0.2500000000000007
 40
0.5000000000000014
 40
0.5000000000000014
 40
1.0
 40
1.0
 40
1.0
 40
1.0
 10
177.586364095905
 20
86.88324170337219
 30
0.0
 10
177.5226988593745
 20
86.88324170337219
 30
0.0
 10
177.4630926271511
 20
86.89150647903806
 30
0.0
 10
177.3644321022202
 20
86.9157252606212
 30
0.0
 10
177.325465112205
 20
86.93098257993034
 30
0.0
 10
177.2260782802805
 20
86.98061593419227
 30
0.0
 10
177.1840020328571
 20
87.0182556423664
 30
0.0
 10
177.1533513940128
 20
87.05733134164254
 30
0.0
  0
LINE
  5
85
330
1F
100
AcDbEntity
  8
0
  6
Continuous
 62
     7
370
    15
100
AcDbLine
 10
180.5308501667
 20
86.88324145
 30
0.0
 11
177.586363951
 21
86.88324145
 31
0.0
  0
SPLINE
  5
86
330
1F
100
AcDbEntity
  8
0
  6
Continuous
 62
     7
370
    15
100
AcDbSpline
210
0.0
220
0.0
230
1.0
 70
     8
 71
     3
 72
    12
 73
     8
 74
     0
 42
0.00000001
 43
0.00000001
 12
1.0
 22
0.0
 32
0.0
 13
1.0
 23
0.0
 33
0.0
 40
0.0
 40
0.0
 40
0.0
 40
0.0
 40
0.5000000000000018
 40
0.5000000000000018
 40
0.7500000000000009
 40
0.7500000000000009
 40
1.0
 40
1.0
 40
1.0
 40
1.0
 10
180.9638631706643
 20
87.05733134164254
 30
0.0
 10
180.933163787297
 20
87.01819349924664
 30
0.0
 10
180.8918137191905
 20
86.98103371652114
 30
0.0
 10
180.7920577909711
 20
86.93109721089338
 30
0.0
 10
180.7523608732383
 20
86.91564434074964
 30
0.0
 10
180.6551027215907
 20
86.8917247971506
 30
0.0
 10
180.5943265636
 20
86.88324170337218
 30
0.0
 10
180.5308504687721
 20
86.88324170337219
 30
0.0
  0
ELLIPSE
  5
87
330
1F
100
AcDbEntity
  8
0
  6
Continuous
 62
     7
370
    15
100
AcDbEllipse
 10
168.0023496274
 20
110.7099728189
 30
0.0
 11
-11.70927234972723
 21
24.67718644093742
 31
0.0
210
0.0
220
0.0
230
1.0
 40
0.3419987131
 41
3.310521928178951
 42
4.221709151398938
  0
SPLINE
  5
88
330
1F
100
AcDbEntity
  8
0
  6
Continuous
 62
     7
370
    15
100
AcDbSpline
210
0.0
220
0.0
230
1.0
 70
     8
 71
     3
 72
    12
 73
     8
 74
     0
 42
0.00000001
 43
0.00000001
 12
1.0
 22
0.0
 32
0.0
 13
1.0
 23
0.0
 33
0.0
 40
0.0
 40
0.0
 40
0.0
 40
0.0
 40
0.25
 40
0.25
 40
0.5
 40
0.5
 40
1.0
 40
1.0
 40
1.0
 40
1.0
 10
180.5308504687721
 20
103.1411628496933
 30
0.0
 10
180.5945157053026
 20
103.1411628496933
 30
0.0
 10
180.654121937526
 20
103.1150907012137
 30
0.0
 10
180.7527824624568
 20
103.0395519503926
 30
0.0
 10
180.7917494524721
 20
102.9923010132963
 30
0.0
 10
180.8911362843965
 20
102.8404771953299
 30
0.0
 10
180.9332125318199
 20
102.7276739455648
 30
0.0
 10
180.9638631706643
 20
102.6135198208297
 30
0.0
  0
LINE
  5
89
330
1F
100
AcDbEntity
  8
0
  6
Continuous
 62
     7
370
    15
100
AcDbLine
 10
177.586363951
 20
103.1411626837
 30
0.0
 11
180.5308501667
 21
103.1411626837
 31
0.0
  0
SPLINE
  5
8A
330
1F
100
AcDbEntity
  8
0
  6
Continuous
 62
     7
370
    15
100
AcDbSpline
210
0.0
220
0.0
230
1.0
 70
     8
 71
     3
 72
    12
 73
     8
 74
     0
 42
0.00000001
 43
0.00000001
 12
1.0
 22
0.0
 32
0.0
 13
1.0
 23
0.0
 33
0.0
 40
0.0
 40
0.0
 40
0.0
 40
0.0
 40
0.4999999999999978
 40
0.4999999999999978
 40
0.7499999999999989
 40
0.7499999999999989
 40
1.0
 40
1.0
 40
1.0
 40
1.0
 10
177.1533513940128
 20
102.6135198208297
 30
0.0
 10
177.18405077738
 20
102.7278554878936
 30
0.0
 10
177.2254008454865
 20
102.8392088407349
 30
0.0
 10
177.325156773706
 20
102.9919456129837
 30
0.0
 10
177.3648536914387
 20
103.0398054988358
 30
0.0
 10
177.4621118430863
 20
103.1144086121853
 30
0.0
 10
177.522888001077
 20
103.1411628496933
 30
0.0
 10
177.586364095905
 20
103.1411628496933
 30
0.0
  0
ELLIPSE
  5
8B
330
1F
100
AcDbEntity
  8
0
  6
Continuous
 62
     7
370
    15
100
AcDbEllipse
 10
190.1148649373
 20
110.7099728189
 30
0.0
 11
11.70927234972711
 21
24.67718644093745
 31
0.0
210
0.0
220
0.0
230
1.0
 40
0.3419987131
 41
2.061476155780659
 42
2.972663379000676
  0
SPLINE
  5
8C
330
1F
100
AcDbEntity
  8
0
  6
Continuous
 62
     7
370
    15
100
AcDbSpline
210
0.0
220
0.0
230
1.0
 70
     8
 71
     3
 72
    12
 73
     8
 74
     0
 42
0.00000001
 43
0.00000001
 12
1.0
 22
0.0
 32
0.0
 13
1.0
 23
0.0
 33
0.0
 40
0.0
 40
0.0
 40
0.0
 40
0.0
 40
0.2500000000000007
 40
0.2500000000000007
 40
0.5000000000000014
 40
0.5000000000000014
 40
1.0
 40
1.0
 40
1.0
 40
1.0
 10
177.586364095905
 20
118.2787827880549
 30
0.0
 10
177.5227275416913
 20
118.2787827880549
 30
0.0
 10
177.4631474148251
 20
118.3048296911128
 30
0.0
 10
177.3645106734587
 20
118.3803168500128
 30
0.0
 10
177.3255520490784
 20
118.4275358885435
 30
0.0
 10
177.2261731095705
 20
118.579275539637
 30
0.0
 10
177.184215204405
 20
118.6914777638212
 30
0.0
 10
177.1533513940126
 20
118.8064258169185
 30
0.0
  0
LINE
  5
8D
330
1F
100
AcDbEntity
  8
0
  6
Continuous
 62
     7
370
    15
100
AcDbLine
 10
180.5308501667
 20
118.278782954
 30
0.0
 11
177.586363951
 21
118.278782954
 31
0.0
  0
SPLINE
  5
8E
330
1F
100
AcDbEntity
  8
0
  6
Continuous
 62
     7
370
    15
100
AcDbSpline
210
0.0
220
0.0
230
1.0
 70
     8
 71
     3
 72
    12
 73
     8
 74
     0
 42
0.00000001
 43
0.00000001
 12
1.0
 22
0.0
 32
0.0
 13
1.0
 23
0.0
 33
0.0
 40
0.0
 40
0.0
 40
0.0
 40
0.0
 40
0.5000000000000004
 40
0.5000000000000004
 40
0.7500000000000002
 40
0.7500000000000002
 40
1.0
 40
1.0
 40
1.0
 40
1.0
 10
180.9638631706643
 20
118.8064258169185
 30
0.0
 10
180.9330114601001
 20
118.6915228279817
 30
0.0
 10
180.8911185966395
 20
118.5793839319328
 30
0.0
 10
180.7915977188462
 20
118.4274416503319
 30
0.0
 10
180.7519835541219
 20
118.379777040807
 30
0.0
 10
180.6548805203425
 20
118.3054407101917
 30
0.0
 10
180.5943818476921
 20
118.2787827880545
 30
0.0
 10
180.5308504687722
 20
118.2787827880545
 30
0.0
  0
ELLIPSE
  5
8F
330
1F
100
AcDbEntity
  8
0
  6
Continuous
 62
     7
370
    15
100
AcDbEllipse
 10
168.0023496274
 20
110.7099728189
 30
0.0
 11
11.70927234972717
 21
24.67718644093742
 31
0.0
210
0.0
220
0.0
230
1.0
 40
0.3419987131
 41
5.20306880937046
 42
6.114256032590503
  0
SPLINE
  5
90
330
1F
100
AcDbEntity
  8
0
  6
Continuous
 62
     7
370
    15
100
AcDbSpline
210
0.0
220
0.0
230
1.0
 70
     8
 71
     3
 72
    12
 73
     8
 74
     0
 42
0.00000001
 43
0.00000001
 12
1.0
 22
0.0
 32
0.0
 13
1.0
 23
0.0
 33
0.0
 40
0.0
 40
0.0
 40
0.0
 40
0.0
 40
0.2499999999999993
 40
0.2499999999999993
 40
0.4999999999999987
 40
0.4999999999999987
 40
1.0
 40
1.0
 40
1.0
 40
1.0
 10
180.5308504687721
 20
134.5367039343762
 30
0.0
 10
180.5944870229858
 20
134.5367039343762
 30
0.0
 10
180.654067149852
 20
134.5284471634444
 30
0.0
 10
180.7527038912184
 20
134.5042451014366
 30
0.0
 10
180.7916625155987
 20
134.4889982824025
 30
0.0
 10
180.8910414551066
 20
134.4393934103423
 30
0.0
 10
180.932999360272
 20
134.4019617622235
 30
0.0
 10
180.9638631706645
 20
134.3626142961058
 30
0.0
  0
LINE
  5
91
330
1F
100
AcDbEntity
  8
0
  6
Continuous
 62
     7
370
    15
100
AcDbLine
 10
177.586363951
 20
134.5367041878
 30
0.0
 11
180.5308501667
 21
134.5367041878
 31
0.0
  0
SPLINE
  5
92
330
1F
100
AcDbEntity
  8
0
  6
Continuous
 62
     7
370
    15
100
AcDbSpline
210
0.0
220
0.0
230
1.0
 70
     8
 71
     3
 72
    12
 73
     8
 74
     0
 42
0.00000001
 43
0.00000001
 12
1.0
 22
0.0
 32
0.0
 13
1.0
 23
0.0
 33
0.0
 40
0.0
 40
0.0
 40
0.0
 40
0.0
 40
0.5000000000000004
 40
0.5000000000000004
 40
0.7500000000000002
 40
0.7500000000000002
 40
1.0
 40
1.0
 40
1.0
 40
1.0
 10
177.1533513940128
 20
134.3626142961058
 30
0.0
 10
177.184203104577
 20
134.4019463364683
 30
0.0
 10
177.2260959680376
 20
134.4393581019966
 30
0.0
 10
177.3256168458308
 20
134.4890290266125
 30
0.0
 10
177.3652310105551
 20
134.5044181092203
 30
0.0
 10
177.4623340443346
 20
134.5282513248876
 30
0.0
 10
177.522832716985
 20
134.5367039343764
 30
0.0
 10
177.5863640959049
 20
134.5367039343764
 30
0.0
  0
ELLIPSE
  5
93
330
1F
100
AcDbEntity
  8
0
  6
Continuous
 62
     7
370
    15
100
AcDbEllipse
 10
190.1148649373
 20
110.7099728189
 30
0.0
 11
-11.70927234972703
 21
24.67718644093742
 31
0.0
210
0.0
220
0.0
230
1.0
 40
0.3419987131
 41
0.1689292745891229
 42
1.080116497809139
  0
LINE
  5
94
330
1F
100
AcDbEntity
  8
0
  6
Continuous
 62
     7
370
    15
100
AcDbLine
 10
189.0586068353
 20
110.7099728189
 30
0.0
 11
189.0586068353
 21
135.109972348
 31
0.0
  0
LINE
  5
95
330
1F
100
AcDbEntity
  8
0
  6
Continuous
 62
     7
370
    15
100
AcDbLine
 10
189.0586068353
 20
86.3099732898
 30
0.0
 11
189.0586068353
 21
110.7099728189
 31
0.0
  0
LINE
  5
96
330
1F
100
AcDbEntity
  8
0
  6
Continuous
 62
     7
370
    15
100
AcDbLine
 10
169.0586072823
 20
110.7099728189
 30
0.0
 11
169.0586072823
 21
135.409973701
 31
0.0
  0
LINE
  5
97
330
1F
100
AcDbEntity
  8
0
  6
Continuous
 62
     7
370
    15
100
AcDbLine
 10
169.0586072823
 20
86.0099719367
 30
0.0
 11
169.0586072823
 21
110.7099728189
 31
0.0
  0
LINE
  5
98
330
1F
100
AcDbEntity
  8
0
  6
Continuous
 62
     7
370
    15
100
AcDbLine
 10
168.8586072874
 20
97.1242079041
 30
0.0
 11
168.8586072874
 21
92.8701517633
 31
0.0
  0
SPLINE
  5
99
330
1F
100
AcDbEntity
  8
0
  6
Continuous
 62
     7
370
    15
100
AcDbSpline
210
0.0
220
0.0
230
1.0
 70
     8
 71
     3
 72
    16
 73
    12
 74
     0
 42
0.00000001
 43
0.00000001
 12
1.0
 22
0.0
 32
0.0
 13
1.0
 23
0.0
 33
0.0
 40
0.0
 40
0.0
 40
0.0
 40
0.0
 40
0.4999999999999976
 40
0.4999999999999976
 40
0.7499999999999988
 40
0.7499999999999988
 40
0.8749999999999993
 40
0.8749999999999993
 40
0.9374999999999997
 40
0.9374999999999997
 40
1.0
 40
1.0
 40
1.0
 40
1.0
 10
168.8586072823385
 20
97.12420813147861
 30
0.0
 10
168.8586072823385
 20
97.20300236193515
 30
0.0
 10
168.8545499802235
 20
97.28407371036508
 30
0.0
 10
168.8288927374287
 20
97.41219065218168
 30
0.0
 10
168.8175772916865
 20
97.45678829980287
 30
0.0
 10
168.7835459243779
 20
97.52310756049849
 30
0.0
 10
168.7696669431741
 20
97.54606175833406
 30
0.0
 10
168.7337312614067
 20
97.57310016029835
 30
0.0
 10
168.718780942144
 20
97.57990989620191
 30
0.0
 10
168.6888824294021
 20
97.58325535775163
 30
0.0
 10
168.6753495690369
 20
97.58029729677821
 30
0.0
 10
168.6636303934629
 20
97.57556495608537
 30
0.0
  0
SPLINE
  5
9A
330
1F
100
AcDbEntity
  8
0
  6
Continuous
 62
     7
370
    15
100
AcDbSpline
210
0.0
220
0.0
230
1.0
 70
     8
 71
     3
 72
    14
 73
    10
 74
     0
 42
0.00000001
 43
0.00000001
 12
1.0
 22
0.0
 32
0.0
 13
1.0
 23
0.0
 33
0.0
 40
0.0
 40
0.0
 40
0.0
 40
0.0
 40
0.25
 40
0.25
 40
0.5
 40
0.5
 40
0.75
 40
0.75
 40
1.0
 40
1.0
 40
1.0
 40
1.0
 10
168.6636303934697
 20
97.5755649560803
 30
0.0
 10
168.6071746288609
 20
97.5527674554778
 30
0.0
 10
168.536309002611
 20
97.53640886138301
 30
0.0
 10
168.3878519214384
 20
97.541808303015
 30
0.0
 10
168.3186585621309
 20
97.56289952080304
 30
0.0
 10
168.2089431239967
 20
97.61382192119281
 30
0.0
 10
168.1636985446654
 20
97.64432235132624
 30
0.0
 10
168.0840718352416
 20
97.70758274881257
 30
0.0
 10
168.0494616867082
 20
97.74082881406207
 30
0.0
 10
168.0177462542089
 20
97.77511033134962
 30
0.0
  0
SPLINE
  5
9B
330
1F
100
AcDbEntity
  8
0
  6
Continuous
 62
     7
370
    15
100
AcDbSpline
210
0.0
220
0.0
230
1.0
 70
     8
 71
     3
 72
    10
 73
     6
 74
     0
 42
0.00000001
 43
0.00000001
 12
1.0
 22
0.0
 32
0.0
 13
1.0
 23
0.0
 33
0.0
 40
0.0
 40
0.0
 40
0.0
 40
0.0
 40
0.5
 40
0.5
 40
1.0
 40
1.0
 40
1.0
 40
1.0
 10
168.0177462542094
 20
97.77511033134903
 30
0.0
 10
167.945966466286
 20
97.85269779734534
 30
0.0
 10
167.8935069519779
 20
97.93565983817744
 30
0.0
 10
167.8041638878768
 20
98.11018988688741
 30
0.0
 10
167.768168278377
 20
98.2018510285382
 30
0.0
 10
167.7372869387789
 20
98.29765043287385
 30
0.0
  0
SPLINE
  5
9C
330
1F
100
AcDbEntity
  8
0
  6
Continuous
 62
     7
370
    15
100
AcDbSpline
210
0.0
220
0.0
230
1.0
 70
     8
 71
     3
 72
    10
 73
     6
 74
     0
 42
0.00000001
 43
0.00000001
 12
1.0
 22
0.0
 32
0.0
 13
1.0
 23
0.0
 33
0.0
 40
0.0
 40
0.0
 40
0.0
 40
0.0
 40
0.5
 40
0.5
 40
1.0
 40
1.0
 40
1.0
 40
1.0
 10
167.7372869387789
 20
105.5754908855511
 30
0.0
 10
167.7681599705912
 20
105.7388349112186
 30
0.0
 10
167.8041468335041
 20
105.9008973802775
 30
0.0
 10
167.8934814193952
 20
106.2203290207814
 30
0.0
 10
167.9459372788178
 20
106.3779626623509
 30
0.0
 10
168.0177462542102
 20
106.530075914397
 30
0.0
  0
SPLINE
  5
9D
330
1F
100
AcDbEntity
  8
0
  6
Continuous
 62
     7
370
    15
100
AcDbSpline
210
0.0
220
0.0
230
1.0
 70
     8
 71
     3
 72
    16
 73
    12
 74
     0
 42
0.00000001
 43
0.00000001
 12
1.0
 22
0.0
 32
0.0
 13
1.0
 23
0.0
 33
0.0
 40
0.0
 40
0.0
 40
0.0
 40
0.0
 40
0.2500000000000001
 40
0.2500000000000001
 40
0.5000000000000001
 40
0.5000000000000001
 40
0.6250000000000001
 40
0.6250000000000001
 40
0.7500000000000002
 40
0.7500000000000002
 40
1.0
 40
1.0
 40
1.0
 40
1.0
 10
168.0177462542095
 20
106.5300759143974
 30
0.0
 10
168.0494742154021
 20
106.5972853869104
 30
0.0
 10
168.0841018057527
 20
106.6627870189876
 30
0.0
 10
168.1637955678164
 20
106.7876368474214
 30
0.0
 10
168.20883702782
 20
106.8477717095476
 30
0.0
 10
168.2916897546705
 20
106.9229211653037
 30
0.0
 10
168.3216042158703
 20
106.9450124512225
 30
0.0
 10
168.3875905464283
 20
106.9781739033954
 30
0.0
 10
168.42432417189
 20
106.9890153140693
 30
0.0
 10
168.5368208914598
 20
106.9925394451052
 30
0.0
 10
168.6071622395581
 20
106.9554053903075
 30
0.0
 10
168.6636303934633
 20
106.9060361545972
 30
0.0
  0
SPLINE
  5
9E
330
1F
100
AcDbEntity
  8
0
  6
Continuous
 62
     7
370
    15
100
AcDbSpline
210
0.0
220
0.0
230
1.0
 70
     8
 71
     3
 72
    16
 73
    12
 74
     0
 42
0.00000001
 43
0.00000001
 12
1.0
 22
0.0
 32
0.0
 13
1.0
 23
0.0
 33
0.0
 40
0.0
 40
0.0
 40
0.0
 40
0.0
 40
0.0624999999999998
 40
0.0624999999999998
 40
0.1249999999999996
 40
0.1249999999999996
 40
0.2499999999999991
 40
0.2499999999999991
 40
0.4999999999999982
 40
0.4999999999999982
 40
1.0
 40
1.0
 40
1.0
 40
1.0
 10
168.6636303934316
 20
106.9060361545489
 30
0.0
 10
168.6753367089336
 20
106.8958015035165
 30
0.0
 10
168.6888326222628
 20
106.8873415854628
 30
0.0
 10
168.7187336139441
 20
106.8818466665178
 30
0.0
 10
168.7337097458315
 20
106.8860251152268
 30
0.0
 10
168.7694457874469
 20
106.9104023156642
 30
0.0
 10
168.7834620644766
 20
106.9371319615199
 30
0.0
 10
168.8176287179993
 20
107.0175814963018
 30
0.0
 10
168.8286099785432
 20
107.0750368445376
 30
0.0
 10
168.8545007658981
 20
107.250213235481
 30
0.0
 10
168.8586072823383
 20
107.3697335941461
 30
0.0
 10
168.8586072823386
 20
107.4896319511899
 30
0.0
  0
LINE
  5
9F
330
1F
100
AcDbEntity
  8
0
  6
Continuous
 62
     7
370
    15
100
AcDbLine
 10
168.8586072874
 20
127.5160779706
 30
0.0
 11
168.8586072874
 21
107.4896318834
 31
0.0
  0
LINE
  5
A0
330
1F
100
AcDbEntity
  8
0
  6
Continuous
 62
     7
370
    15
100
AcDbLine
 10
168.8586072874
 20
127.5160779706
 30
0.0
 11
168.8418388826
 21
127.5754702739
 31
0.0
  0
SPLINE
  5
A1
330
1F
100
AcDbEntity
  8
0
  6
Continuous
 62
     7
370
    15
100
AcDbSpline
210
0.0
220
0.0
230
1.0
 70
     8
 71
     3
 72
    12
 73
     8
 74
     0
 42
0.00000001
 43
0.00000001
 12
1.0
 22
0.0
 32
0.0
 13
1.0
 23
0.0
 33
0.0
 40
0.0
 40
0.0
 40
0.0
 40
0.0
 40
0.4999999999999982
 40
0.4999999999999982
 40
0.7499999999999991
 40
0.7499999999999991
 40
1.0
 40
1.0
 40
1.0
 40
1.0
 10
168.8216211543346
 20
127.6470807398949
 30
0.0
 10
168.8114933840353
 20
127.657265509531
 30
0.0
 10
168.7990004160758
 20
127.6663452381057
 30
0.0
 10
168.7635592359419
 20
127.6723689520729
 30
0.0
 10
168.7480880664774
 20
127.6731216155587
 30
0.0
 10
168.7047121746651
 20
127.6652113357963
 30
0.0
 10
168.6813260354111
 20
127.6566426646835
 30
0.0
 10
168.6636303934629
 20
127.6483173459398
 30
0.0
  0
SPLINE
  5
A2
330
1F
100
AcDbEntity
  8
0
  6
Continuous
 62
     7
370
    15
100
AcDbSpline
210
0.0
220
0.0
230
1.0
 70
     8
 71
     3
 72
    14
 73
    10
 74
     0
 42
0.00000001
 43
0.00000001
 12
1.0
 22
0.0
 32
0.0
 13
1.0
 23
0.0
 33
0.0
 40
0.0
 40
0.0
 40
0.0
 40
0.0
 40
0.25
 40
0.25
 40
0.5
 40
0.5
 40
0.75
 40
0.75
 40
1.0
 40
1.0
 40
1.0
 40
1.0
 10
168.6636303934697
 20
127.6483173459349
 30
0.0
 10
168.607170727586
 20
127.6217546071524
 30
0.0
 10
168.5362982527238
 20
127.6010675602728
 30
0.0
 10
168.3878318948418
 20
127.6001561152656
 30
0.0
 10
168.3186366916341
 20
127.6195759246625
 30
0.0
 10
168.2089195055645
 20
127.6683096076231
 30
0.0
 10
168.1636736166325
 20
127.698116116606
 30
0.0
 10
168.0840564856656
 20
127.7596219150362
 30
0.0
 10
168.0494538662087
 20
127.7918389081798
 30
0.0
 10
168.0177462542099
 20
127.8247322108775
 30
0.0
  0
SPLINE
  5
A3
330
1F
100
AcDbEntity
  8
0
  6
Continuous
 62
     7
370
    15
100
AcDbSpline
210
0.0
220
0.0
230
1.0
 70
     8
 71
     3
 72
    10
 73
     6
 74
     0
 42
0.00000001
 43
0.00000001
 12
1.0
 22
0.0
 32
0.0
 13
1.0
 23
0.0
 33
0.0
 40
0.0
 40
0.0
 40
0.0
 40
0.0
 40
0.5
 40
0.5
 40
1.0
 40
1.0
 40
1.0
 40
1.0
 10
167.7372869387789
 20
128.2567771381977
 30
0.0
 10
167.7681655223909
 20
128.1891945936672
 30
0.0
 10
167.8041582301142
 20
128.118769734698
 30
0.0
 10
167.8934984816113
 20
127.9738616957766
 30
0.0
 10
167.9459567844569
 20
127.8992062128675
 30
0.0
 10
168.01774625421
 20
127.8247322108774
 30
0.0
  0
SPLINE
  5
A4
330
1F
100
AcDbEntity
  8
0
  6
Continuous
 62
     7
370
    15
100
AcDbSpline
210
0.0
220
0.0
230
1.0
 70
     8
 71
     3
 72
    18
 73
    14
 74
     0
 42
0.00000001
 43
0.00000001
 12
1.0
 22
0.0
 32
0.0
 13
1.0
 23
0.0
 33
0.0
 40
0.0
 40
0.0
 40
0.0
 40
0.0
 40
0.2499999999999992
 40
0.2499999999999992
 40
0.3749999999999988
 40
0.3749999999999988
 40
0.4999999999999984
 40
0.4999999999999984
 40
0.6249999999999987
 40
0.6249999999999987
 40
0.749999999999999
 40
0.749999999999999
 40
1.0
 40
1.0
 40
1.0
 40
1.0
 10
167.7372869387789
 20
98.29765043287385
 30
0.0
 10
167.6020013324765
 20
98.71733042951958
 30
0.0
 10
167.5008335862336
 20
99.19365854690606
 30
0.0
 10
167.3979722433647
 20
99.99319123731452
 30
0.0
 10
167.3718693978414
 20
100.2747924693673
 30
0.0
 10
167.3369794142965
 20
100.8646452259922
 30
0.0
 10
167.3283931560066
 20
101.1686111663893
 30
0.0
 10
167.3282934464409
 20
101.7940381269756
 30
0.0
 10
167.3367818175895
 20
102.1155007491097
 30
0.0
 10
167.3709251971101
 20
102.7759437685755
 30
0.0
 10
167.3967221789639
 20
103.1163121706678
 30
0.0
 10
167.5001233103518
 20
104.1550999900345
 30
0.0
 10
167.6019813025232
 20
104.8596114910064
 30
0.0
 10
167.7372869387789
 20
105.5754908855511
 30
0.0
  0
LINE
  5
A5
330
1F
100
AcDbEntity
  8
0
  6
Continuous
 62
     7
370
    15
100
AcDbLine
 10
140.5586072674
 20
98.1992950193
 30
0.0
 11
140.5586072674
 21
106.5300760321
 31
0.0
  0
LINE
  5
A6
330
1F
100
AcDbEntity
  8
0
  6
Continuous
 62
     7
370
    15
100
AcDbLine
 10
166.8586072943
 20
97.6270708717
 30
0.0
 11
166.8586072943
 21
106.5300760321
 31
0.0
  0
LINE
  5
A7
330
1F
100
AcDbEntity
  8
0
  6
Continuous
 62
     7
370
    15
100
AcDbLine
 10
166.8586072943
 20
106.5300760321
 30
0.0
 11
166.8586072943
 21
127.9727724842
 31
0.0
  0
LINE
  5
A8
330
1F
100
AcDbEntity
  8
0
  6
Continuous
 62
     7
370
    15
100
AcDbLine
 10
140.5586072674
 20
106.5300760321
 30
0.0
 11
140.5586072674
 21
127.4005474053
 31
0.0
  0
LINE
  5
A9
330
1F
100
AcDbEntity
  8
0
  6
Continuous
 62
     7
370
    15
100
AcDbLine
 10
239.0586075804
 20
126.7099735788
 30
0.0
 11
239.0586075804
 21
94.7099720589
 31
0.0
  0
SPLINE
  5
AA
330
1F
100
AcDbEntity
  8
0
  6
Continuous
 62
     7
370
    15
100
AcDbSpline
210
0.0
220
0.0
230
1.0
 70
     8
 71
     3
 72
    10
 73
     6
 74
     0
 42
0.00000001
 43
0.00000001
 12
1.0
 22
0.0
 32
0.0
 13
1.0
 23
0.0
 33
0.0
 40
0.0
 40
0.0
 40
0.0
 40
0.0
 40
0.3666299976221844
 40
0.7802427894658343
 40
1.0
 40
1.0
 40
1.0
 40
1.0
 10
208.6969105026106
 20
93.87402622916588
 30
0.0
 10
208.4651299052303
 20
93.8443266798238
 30
0.0
 10
207.9718665579402
 20
93.78112165193511
 30
0.0
 10
207.5842707477981
 20
93.71416460642357
 30
0.0
 10
207.5974768164211
 20
93.71652381804385
 30
0.0
 10
207.6020588597635
 20
93.71734238185772
 30
0.0
  0
SPLINE
  5
AB
330
1F
100
AcDbEntity
  8
0
  6
Continuous
 62
     7
370
    15
100
AcDbSpline
210
0.0
220
0.0
230
1.0
 70
     8
 71
     3
 72
    15
 73
    11
 74
     0
 42
0.00000001
 43
0.00000001
 12
1.0
 22
0.0
 32
0.0
 13
1.0
 23
0.0
 33
0.0
 40
0.0
 40
0.0
 40
0.0
 40
0.0
 40
0.0106579271755816
 40
0.1353175349145387
 40
0.2602788337238709
 40
0.3941593481239573
 40
0.5404946945239887
 40
0.6967882854190086
 40
0.8573598808694406
 40
1.0
 40
1.0
 40
1.0
 40
1.0
 10
214.5447855314592
 20
93.71228530027756
 30
0.0
 10
214.5493534050833
 20
93.71152139436045
 30
0.0
 10
214.6073490536196
 20
93.7018225229094
 30
0.0
 10
214.3948616367937
 20
93.73823874065462
 30
0.0
 10
213.9196171877925
 20
93.81256071215832
 30
0.0
 10
213.1214080483917
 20
93.91386474835633
 30
0.0
 10
212.0755504371472
 20
93.99835177378407
 30
0.0
 10
210.8606019643233
 20
94.02554024322286
 30
0.0
 10
209.6563537732024
 20
93.97547680005844
 30
0.0
 10
209.0038624809774
 20
93.90648302405559
 30
0.0
 10
208.6969105026106
 20
93.87402622916588
 30
0.0
  0
SPLINE
  5
AC
330
1F
100
AcDbEntity
  8
0
  6
Continuous
 62
     7
370
    15
100
AcDbSpline
210
0.0
220
0.0
230
1.0
 70
     8
 71
     3
 72
    17
 73
    13
 74
     0
 42
0.00000001
 43
0.00000001
 12
1.0
 22
0.0
 32
0.0
 13
1.0
 23
0.0
 33
0.0
 40
0.0
 40
0.0
 40
0.0
 40
0.0
 40
0.0403682802426929
 40
0.132250172513002
 40
0.2269012283002314
 40
0.3295870715168955
 40
0.4413719772111573
 40
0.5591669158485126
 40
0.6787999145122539
 40
0.7966996337417225
 40
0.9077189156465778
 40
0.9999999999999999
 40
0.9999999999999999
 40
0.9999999999999999
 40
0.9999999999999999
 10
207.6020588597635
 20
127.7026032558907
 30
0.0
 10
207.5914585190125
 20
127.70439499513
 30
0.0
 10
207.5567308346876
 20
127.7102648964998
 30
0.0
 10
207.8536206984148
 20
127.6599763800643
 30
0.0
 10
208.441696071968
 20
127.5732445613354
 30
0.0
 10
209.3305974353488
 20
127.4729893882511
 30
0.0
 10
210.449509789404
 20
127.4037817102585
 30
0.0
 10
211.6930379096089
 20
127.403494582523
 30
0.0
 10
212.892002082329
 20
127.4808571228346
 30
0.0
 10
213.8510666751167
 20
127.5956687556741
 30
0.0
 10
214.4591033861847
 20
127.6925959624053
 30
0.0
 10
214.5180354046861
 20
127.7029572112656
 30
0.0
 10
214.5447855314592
 20
127.7076603374709
 30
0.0
  0
SPLINE
  5
AD
330
1F
100
AcDbEntity
  8
0
  6
Continuous
 62
     7
370
    15
100
AcDbSpline
210
0.0
220
0.0
230
1.0
 70
     8
 71
     3
 72
    10
 73
     6
 74
     0
 42
0.00000001
 43
0.00000001
 12
1.0
 22
0.0
 32
0.0
 13
1.0
 23
0.0
 33
0.0
 40
0.0
 40
0.0
 40
0.0
 40
0.0
 40
0.3666299976221844
 40
0.7802427894658343
 40
1.0
 40
1.0
 40
1.0
 40
1.0
 10
228.6969100555757
 20
93.87402622916588
 30
0.0
 10
228.4651294581954
 20
93.8443266798238
 30
0.0
 10
227.9718661109054
 20
93.78112165193511
 30
0.0
 10
227.5842703007632
 20
93.71416460642357
 30
0.0
 10
227.5974763693862
 20
93.71652381804385
 30
0.0
 10
227.6020584127287
 20
93.71734238185772
 30
0.0
  0
SPLINE
  5
AE
330
1F
100
AcDbEntity
  8
0
  6
Continuous
 62
     7
370
    15
100
AcDbSpline
210
0.0
220
0.0
230
1.0
 70
     8
 71
     3
 72
    15
 73
    11
 74
     0
 42
0.00000001
 43
0.00000001
 12
1.0
 22
0.0
 32
0.0
 13
1.0
 23
0.0
 33
0.0
 40
0.0
 40
0.0
 40
0.0
 40
0.0
 40
0.0106579294895564
 40
0.1353176569345656
 40
0.2602789828746241
 40
0.3941591752493323
 40
0.5404941203259797
 40
0.6967882195877946
 40
0.8573598499004121
 40
1.0
 40
1.0
 40
1.0
 40
1.0
 10
234.5447850844244
 20
93.71228530027756
 30
0.0
 10
234.549352963471
 20
93.71152139441867
 30
0.0
 10
234.6073487205592
 20
93.70182251706689
 30
0.0
 10
234.3948560947123
 20
93.73823873273501
 30
0.0
 10
233.9196134504126
 20
93.8125605777803
 30
0.0
 10
233.1214080586164
 20
93.9138647399309
 30
0.0
 10
232.0755515518289
 20
93.9983519771542
 30
0.0
 10
230.8606027015771
 20
94.02554021825843
 30
0.0
 10
229.6563533391761
 20
93.97547681693594
 30
0.0
 10
229.0038620381043
 20
93.90648302945516
 30
0.0
 10
228.6969100555758
 20
93.87402622916588
 30
0.0
  0
SPLINE
  5
AF
330
1F
100
AcDbEntity
  8
0
  6
Continuous
 62
     7
370
    15
100
AcDbSpline
210
0.0
220
0.0
230
1.0
 70
     8
 71
     3
 72
    17
 73
    13
 74
     0
 42
0.00000001
 43
0.00000001
 12
1.0
 22
0.0
 32
0.0
 13
1.0
 23
0.0
 33
0.0
 40
0.0
 40
0.0
 40
0.0
 40
0.0
 40
0.0403682738436285
 40
0.1322501515490826
 40
0.2269011923324972
 40
0.3295870192716949
 40
0.4413719072461328
 40
0.5591668272109712
 40
0.6788001421113742
 40
0.7966998426517163
 40
0.9077189302747117
 40
1.0
 40
1.0
 40
1.0
 40
1.0
 10
227.6020584127287
 20
127.7026032558907
 30
0.0
 10
227.5914580719849
 20
127.7043949951228
 30
0.0
 10
227.5567303876836
 20
127.710264896469
 30
0.0
 10
227.8536202510527
 20
127.6599763803906
 30
0.0
 10
228.4416956262129
 20
127.5732445600595
 30
0.0
 10
229.3305969829011
 20
127.4729893936475
 30
0.0
 10
230.4495093650124
 20
127.403781687684
 30
0.0
 10
231.6930385663145
 20
127.4034946718653
 30
0.0
 10
232.8920042048643
 20
127.480856967655
 30
0.0
 10
233.8510706054328
 20
127.5956686625321
 30
0.0
 10
234.4591022947948
 20
127.6925960156612
 30
0.0
 10
234.5180347404924
 20
127.7029572250809
 30
0.0
 10
234.5447850844244
 20
127.7076603374709
 30
0.0
  0
SPLINE
  5
B0
330
1F
100
AcDbEntity
  8
0
  6
Continuous
 62
     7
370
    15
100
AcDbSpline
210
0.0
220
0.0
230
1.0
 70
     8
 71
     3
 72
    10
 73
     6
 74
     0
 42
0.00000001
 43
0.00000001
 12
1.0
 22
0.0
 32
0.0
 13
1.0
 23
0.0
 33
0.0
 40
0.0
 40
0.0
 40
0.0
 40
0.0
 40
0.366630769683957
 40
0.7802428747138561
 40
1.0
 40
1.0
 40
1.0
 40
1.0
 10
218.6969121417383
 20
93.87402622916588
 30
0.0
 10
218.4651297373208
 20
93.84432670283249
 30
0.0
 10
217.9718635292317
 20
93.78112185010292
 30
0.0
 10
217.5842729617385
 20
93.71416457962874
 30
0.0
 10
217.597478600788
 20
93.71652381063672
 30
0.0
 10
217.6020604988912
 20
93.71734238185772
 30
0.0
  0
SPLINE
  5
B1
330
1F
100
AcDbEntity
  8
0
  6
Continuous
 62
     7
370
    15
100
AcDbSpline
210
0.0
220
0.0
230
1.0
 70
     8
 71
     3
 72
    15
 73
    11
 74
     0
 42
0.00000001
 43
0.00000001
 12
1.0
 22
0.0
 32
0.0
 13
1.0
 23
0.0
 33
0.0
 40
0.0
 40
0.0
 40
0.0
 40
0.0
 40
0.0106579317914743
 40
0.1353175935198578
 40
0.2602789464492772
 40
0.3941595188323166
 40
0.5404944955146358
 40
0.6967881540995954
 40
0.8573598190927484
 40
1.0
 40
1.0
 40
1.0
 40
1.0
 10
224.5447834452966
 20
93.71228530027756
 30
0.0
 10
224.549351318933
 20
93.71152139436548
 30
0.0
 10
224.6073469676265
 20
93.70182252297846
 30
0.0
 10
224.3948595395884
 20
93.73823873615825
 30
0.0
 10
223.9196151420122
 20
93.81256072860123
 30
0.0
 10
223.1214066469644
 20
93.91386457147374
 30
0.0
 10
222.0755512416218
 20
93.99835190984757
 30
0.0
 10
220.8606035180212
 20
94.02554021185472
 30
0.0
 10
219.6563554311398
 20
93.97547680696499
 30
0.0
 10
219.0038641261229
 20
93.90648302626518
 30
0.0
 10
218.6969121417383
 20
93.87402622916588
 30
0.0
  0
SPLINE
  5
B2
330
1F
100
AcDbEntity
  8
0
  6
Continuous
 62
     7
370
    15
100
AcDbSpline
210
0.0
220
0.0
230
1.0
 70
     8
 71
     3
 72
    17
 73
    13
 74
     0
 42
0.00000001
 43
0.00000001
 12
1.0
 22
0.0
 32
0.0
 13
1.0
 23
0.0
 33
0.0
 40
0.0
 40
0.0
 40
0.0
 40
0.0
 40
0.0403682732029553
 40
0.1322500414455839
 40
0.2269010807268191
 40
0.3295869060363197
 40
0.4413721286939409
 40
0.5591670467892901
 40
0.6788000245904897
 40
0.7966997232596796
 40
0.907718985804121
 40
1.0
 40
1.0
 40
1.0
 40
1.0
 10
217.6020604988912
 20
127.7026032558907
 30
0.0
 10
217.5914602578564
 20
127.7043949978415
 30
0.0
 10
217.5567329285714
 20
127.7102649033008
 30
0.0
 10
217.8536174117737
 20
127.659976325545
 30
0.0
 10
218.4416944249655
 20
127.5732445792095
 30
0.0
 10
219.3305961044801
 20
127.4729892256236
 30
0.0
 10
220.4495104524559
 20
127.4037818087185
 30
0.0
 10
221.6930394608702
 20
127.4034945551659
 30
0.0
 10
222.8920038425827
 20
127.4808571300539
 30
0.0
 10
223.85106793379
 20
127.5956687540725
 30
0.0
 10
224.4591061451612
 20
127.6925959457529
 30
0.0
 10
224.5180348370711
 20
127.7029572071016
 30
0.0
 10
224.5447834452966
 20
127.7076603374709
 30
0.0
  0
LINE
  5
B3
330
1F
100
AcDbEntity
  8
0
  6
Continuous
 62
     7
370
    15
100
AcDbLine
 10
139.0586079529
 20
106.5300760321
 30
0.0
 11
139.0586079529
 21
126.650547748
 31
0.0
  0
LINE
  5
B4
330
1F
100
AcDbEntity
  8
0
  6
Continuous
 62
     7
370
    15
100
AcDbLine
 10
139.0586079529
 20
98.9492946766
 30
0.0
 11
139.0586079529
 21
106.5300760321
 31
0.0
  0
SPLINE
  5
B5
330
1F
100
AcDbEntity
  8
0
  6
Continuous
 62
     7
370
    15
100
AcDbSpline
210
0.0
220
0.0
230
1.0
 70
     8
 71
     3
 72
     8
 73
     4
 74
     0
 42
0.00000001
 43
0.00000001
 12
1.0
 22
0.0
 32
0.0
 13
1.0
 23
0.0
 33
0.0
 40
0.0000202085968836
 40
0.0000202085968836
 40
0.0000202085968836
 40
0.0000202085968836
 40
0.0040218806502652
 40
0.0040218806502652
 40
0.0040218806502652
 40
0.0040218806502652
 10
140.5586072823386
 20
95.1771760604638
 30
0.0
 10
141.8919304081292
 20
95.14655114865045
 30
0.0
 10
143.2252642813517
 20
95.1158621371668
 30
0.0
 10
144.5586072823386
 20
95.08510906043685
 30
0.0
  0
LINE
  5
B6
330
1F
100
AcDbEntity
  8
0
  6
Continuous
 62
     7
370
    15
100
AcDbLine
 10
140.5586072674
 20
95.1771756164
 30
0.0
 11
140.5586072674
 21
98.1992950193
 31
0.0
  0
LINE
  5
B7
330
1F
100
AcDbEntity
  8
0
  6
Continuous
 62
     7
370
    15
100
AcDbLine
 10
166.8586072943
 20
94.3098740182
 30
0.0
 11
166.8586072943
 21
97.6270708717
 31
0.0
  0
SPLINE
  5
B8
330
1F
100
AcDbEntity
  8
0
  6
Continuous
 62
     7
370
    15
100
AcDbSpline
210
0.0
220
0.0
230
1.0
 70
     8
 71
     3
 72
    11
 73
     7
 74
     0
 42
0.00000001
 43
0.00000001
 12
1.0
 22
0.0
 32
0.0
 13
1.0
 23
0.0
 33
0.0
 40
0.0
 40
0.0
 40
0.0
 40
0.0
 40
0.428224499852601
 40
0.6424796074349591
 40
0.8623811871476771
 40
1.0
 40
1.0
 40
1.0
 40
1.0
 10
144.5586079230884
 20
95.0851087919701
 30
0.0
 10
144.9171457370166
 20
95.02681062289076
 30
0.0
 10
145.455072067767
 20
94.93934392073533
 30
0.0
 10
146.0586892141621
 20
94.86447993757335
 30
0.0
 10
146.4037197656181
 20
94.82694134486641
 30
0.0
 10
146.4123638738686
 20
94.82616073068178
 30
0.0
 10
146.4156912139038
 20
94.82586025216469
 30
0.0
  0
SPLINE
  5
B9
330
1F
100
AcDbEntity
  8
0
  6
Continuous
 62
     7
370
    15
100
AcDbSpline
210
0.0
220
0.0
230
1.0
 70
     8
 71
     3
 72
    17
 73
    13
 74
     0
 42
0.00000001
 43
0.00000001
 12
1.0
 22
0.0
 32
0.0
 13
1.0
 23
0.0
 33
0.0
 40
0.0
 40
0.0
 40
0.0
 40
0.0
 40
0.0814507228376089
 40
0.1778665260594788
 40
0.2783615246888602
 40
0.3856835739379937
 40
0.4991426763638305
 40
0.615540371602487
 40
0.7313931026509092
 40
0.8436301830775871
 40
0.949650976219383
 40
1.0
 40
1.0
 40
1.0
 40
1.0
 10
158.4853067493418
 20
94.52299973883518
 30
0.0
 10
158.4715108722753
 20
94.52506487322482
 30
0.0
 10
158.4413843780923
 20
94.52957457267172
 30
0.0
 10
157.9982103531966
 20
94.5913027654703
 30
0.0
 10
157.2777281915982
 20
94.67641010790642
 30
0.0
 10
156.2959676204408
 20
94.76264968469278
 30
0.0
 10
155.1455047830213
 20
94.81772049077647
 30
0.0
 10
153.9629692909656
 20
94.82185372343886
 30
0.0
 10
152.909850627136
 20
94.78004399950592
 30
0.0
 10
152.1637736692812
 20
94.72538561957806
 30
0.0
 10
151.7882666179129
 20
94.6897986004074
 30
0.0
 10
151.8136275068913
 20
94.69220307529416
 30
0.0
 10
151.8217933794836
 20
94.6929772845734
 30
0.0
  0
SPLINE
  5
BA
330
1F
100
AcDbEntity
  8
0
  6
Continuous
 62
     7
370
    15
100
AcDbSpline
210
0.0
220
0.0
230
1.0
 70
     8
 71
     3
 72
     8
 73
     4
 74
     0
 42
0.00000001
 43
0.00000001
 12
1.0
 22
0.0
 32
0.0
 13
1.0
 23
0.0
 33
0.0
 40
0.0
 40
0.0
 40
0.0
 40
0.0
 40
1.0
 40
1.0
 40
1.0
 40
1.0
 10
139.0586072823376
 20
95.95470383523026
 30
0.0
 10
139.5328186927755
 20
95.71339296127117
 30
0.0
 10
140.0375550398775
 20
95.4522061871207
 30
0.0
 10
140.5586072823386
 20
95.1771760604638
 30
0.0
  0
LINE
  5
BB
330
1F
100
AcDbEntity
  8
0
  6
Continuous
 62
     7
370
    15
100
AcDbLine
 10
139.0586079529
 20
95.9547042377
 30
0.0
 11
139.0586079529
 21
98.9492946766
 31
0.0
  0
LINE
  5
BC
330
1F
100
AcDbEntity
  8
0
  6
Continuous
 62
     7
370
    15
100
AcDbLine
 10
166.8586072943
 20
129.3500719122
 30
0.0
 11
166.8586072943
 21
127.9727724842
 31
0.0
  0
LINE
  5
BD
330
1F
100
AcDbEntity
  8
0
  6
Continuous
 62
     7
370
    15
100
AcDbLine
 10
140.5586072674
 20
128.6893246225
 30
0.0
 11
140.5586072674
 21
127.4005474053
 31
0.0
  0
SPLINE
  5
BE
330
1F
100
AcDbEntity
  8
0
  6
Continuous
 62
     7
370
    15
100
AcDbSpline
210
0.0
220
0.0
230
1.0
 70
     8
 71
     3
 72
    11
 73
     7
 74
     0
 42
0.00000001
 43
0.00000001
 12
1.0
 22
0.0
 32
0.0
 13
1.0
 23
0.0
 33
0.0
 40
0.0
 40
0.0
 40
0.0
 40
0.0
 40
0.0902262665792518
 40
0.4609960999419443
 40
0.728442519376138
 40
1.0
 40
1.0
 40
1.0
 40
1.0
 10
167.3384550691003
 20
129.1391981295575
 30
0.0
 10
167.3354096895316
 20
129.1460064184722
 30
0.0
 10
167.3198498292244
 20
129.1807922381227
 30
0.0
 10
167.3947244907464
 20
129.0133600464546
 30
0.0
 10
167.5349668396249
 20
128.7012421000909
 30
0.0
 10
167.669504883967
 20
128.405683749342
 30
0.0
 10
167.7372869767601
 20
128.2567774406899
 30
0.0
  0
LINE
  5
BF
330
1F
100
AcDbEntity
  8
0
  6
Continuous
 62
     7
370
    15
100
AcDbLine
 10
139.0586079529
 20
127.8232989363
 30
0.0
 11
139.0586079529
 21
126.650547748
 31
0.0
  0
SPLINE
  5
C0
330
1F
100
AcDbEntity
  8
0
  6
HIDDEN
 62
     7
370
     0
100
AcDbSpline
210
0.0
220
0.0
230
1.0
 70
     8
 71
     3
 72
    17
 73
    13
 74
     0
 42
0.00000001
 43
0.00000001
 12
1.0
 22
0.0
 32
0.0
 13
1.0
 23
0.0
 33
0.0
 40
0.0
 40
0.0
 40
0.0
 40
0.0
 40
0.10713733061689
 40
0.214266381017664
 40
0.3216098156908729
 40
0.4290956033398351
 40
0.5363476963701325
 40
0.6433543549574706
 40
0.7504869607540899
 40
0.857919952825008
 40
0.9653598706450023
 40
1.0
 40
1.0
 40
1.0
 40
1.0
 10
179.0586070588211
 20
85.70997244634518
 30
0.0
 10
179.0806478523829
 20
85.71178616977299
 30
0.0
 10
179.1247277360615
 20
85.71541347645315
 30
0.0
 10
179.4682549685903
 20
85.74063721089574
 30
0.0
 10
179.9747434001834
 20
85.76875732669927
 30
0.0
 10
180.6081830841018
 20
85.78905622183197
 30
0.0
 10
181.2911413210123
 20
85.79210529073944
 30
0.0
 10
181.9461271954334
 20
85.7768644999816
 30
0.0
 10
182.5056595231362
 20
85.74960015354978
 30
0.0
 10
182.8874889359612
 20
85.72367109984465
 30
0.0
 10
183.0693219100562
 20
85.70912803044406
 30
0.0
 10
183.0408221053031
 20
85.71138233379818
 30
0.0
 10
183.0338736495355
 20
85.71193194904217
 30
0.0
  0
SPLINE
  5
C1
330
1F
100
AcDbEntity
  8
0
  6
HIDDEN
 62
     7
370
     0
100
AcDbSpline
210
0.0
220
0.0
230
1.0
 70
     8
 71
     3
 72
    12
 73
     8
 74
     0
 42
0.00000001
 43
0.00000001
 12
1.0
 22
0.0
 32
0.0
 13
1.0
 23
0.0
 33
0.0
 40
0.0
 40
0.0
 40
0.0
 40
0.0
 40
0.2499999999999993
 40
0.2499999999999993
 40
0.4999999999999987
 40
0.4999999999999987
 40
1.0
 40
1.0
 40
1.0
 40
1.0
 10
177.586364095905
 20
103.1411628496937
 30
0.0
 10
177.5226988593745
 20
103.1411628496937
 30
0.0
 10
177.4630926271511
 20
103.115090701214
 30
0.0
 10
177.3644321022202
 20
103.0395519503929
 30
0.0
 10
177.325465112205
 20
102.9923010132967
 30
0.0
 10
177.2260782802805
 20
102.8404771953302
 30
0.0
 10
177.1840020328571
 20
102.7276739455652
 30
0.0
 10
177.1533513940128
 20
102.6135198208301
 30
0.0
  0
LINE
  5
C2
330
1F
100
AcDbEntity
  8
0
  6
HIDDEN
 62
     7
370
     0
100
AcDbLine
 10
180.5308501667
 20
103.1411626837
 30
0.0
 11
177.586363951
 21
103.1411626837
 31
0.0
  0
SPLINE
  5
C3
330
1F
100
AcDbEntity
  8
0
  6
HIDDEN
 62
     7
370
     0
100
AcDbSpline
210
0.0
220
0.0
230
1.0
 70
     8
 71
     3
 72
    12
 73
     8
 74
     0
 42
0.00000001
 43
0.00000001
 12
1.0
 22
0.0
 32
0.0
 13
1.0
 23
0.0
 33
0.0
 40
0.0
 40
0.0
 40
0.0
 40
0.0
 40
0.5000000000000013
 40
0.5000000000000013
 40
0.7500000000000007
 40
0.7500000000000007
 40
1.0
 40
1.0
 40
1.0
 40
1.0
 10
180.9638631706643
 20
102.6135198208301
 30
0.0
 10
180.933163787297
 20
102.7278554878939
 30
0.0
 10
180.8918137191905
 20
102.8392088407353
 30
0.0
 10
180.7920577909711
 20
102.991945612984
 30
0.0
 10
180.7523608732383
 20
103.0398054988361
 30
0.0
 10
180.6551027215907
 20
103.1144086121856
 30
0.0
 10
180.5943265636
 20
103.1411628496937
 30
0.0
 10
180.5308504687721
 20
103.1411628496937
 30
0.0
  0
ELLIPSE
  5
C4
330
1F
100
AcDbEntity
  8
0
  6
HIDDEN
 62
     7
370
     0
100
AcDbEllipse
 10
168.0023496274
 20
110.7099728189
 30
0.0
 11
-11.70927234972711
 21
24.67718644093742
 31
0.0
210
0.0
220
0.0
230
1.0
 40
0.3419987131
 41
3.310521928178964
 42
4.221709151398953
  0
SPLINE
  5
C5
330
1F
100
AcDbEntity
  8
0
  6
HIDDEN
 62
     7
370
     0
100
AcDbSpline
210
0.0
220
0.0
230
1.0
 70
     8
 71
     3
 72
    12
 73
     8
 74
     0
 42
0.00000001
 43
0.00000001
 12
1.0
 22
0.0
 32
0.0
 13
1.0
 23
0.0
 33
0.0
 40
0.0
 40
0.0
 40
0.0
 40
0.0
 40
0.2499999999999998
 40
0.2499999999999998
 40
0.4999999999999996
 40
0.4999999999999996
 40
1.0
 40
1.0
 40
1.0
 40
1.0
 10
180.5308504687721
 20
86.88324170337229
 30
0.0
 10
180.5945157053026
 20
86.88324170337229
 30
0.0
 10
180.654121937526
 20
86.89150647903816
 30
0.0
 10
180.7527824624568
 20
86.9157252606213
 30
0.0
 10
180.7917494524721
 20
86.93098257993046
 30
0.0
 10
180.8911362843965
 20
86.9806159341924
 30
0.0
 10
180.9332125318199
 20
87.01825564236651
 30
0.0
 10
180.9638631706643
 20
87.05733134164265
 30
0.0
  0
LINE
  5
C6
330
1F
100
AcDbEntity
  8
0
  6
HIDDEN
 62
     7
370
     0
100
AcDbLine
 10
177.586363951
 20
86.88324145
 30
0.0
 11
180.5308501667
 21
86.88324145
 31
0.0
  0
SPLINE
  5
C7
330
1F
100
AcDbEntity
  8
0
  6
HIDDEN
 62
     7
370
     0
100
AcDbSpline
210
0.0
220
0.0
230
1.0
 70
     8
 71
     3
 72
    12
 73
     8
 74
     0
 42
0.00000001
 43
0.00000001
 12
1.0
 22
0.0
 32
0.0
 13
1.0
 23
0.0
 33
0.0
 40
0.0
 40
0.0
 40
0.0
 40
0.0
 40
0.4999999999999982
 40
0.4999999999999982
 40
0.7499999999999991
 40
0.7499999999999991
 40
1.0
 40
1.0
 40
1.0
 40
1.0
 10
177.1533513940128
 20
87.05733134164265
 30
0.0
 10
177.18405077738
 20
87.01819349924675
 30
0.0
 10
177.2254008454865
 20
86.98103371652122
 30
0.0
 10
177.325156773706
 20
86.9310972108935
 30
0.0
 10
177.3648536914387
 20
86.91564434074972
 30
0.0
 10
177.4621118430863
 20
86.89172479715069
 30
0.0
 10
177.522888001077
 20
86.8832417033723
 30
0.0
 10
177.586364095905
 20
86.8832417033723
 30
0.0
  0
ELLIPSE
  5
C8
330
1F
100
AcDbEntity
  8
0
  6
HIDDEN
 62
     7
370
     0
100
AcDbEllipse
 10
190.1148649373
 20
110.7099728189
 30
0.0
 11
11.70927234972703
 21
24.67718644093745
 31
0.0
210
0.0
220
0.0
230
1.0
 40
0.3419987131
 41
2.061476155780646
 42
2.972663379000667
  0
SPLINE
  5
C9
330
1F
100
AcDbEntity
  8
0
  6
HIDDEN
 62
     7
370
     0
100
AcDbSpline
210
0.0
220
0.0
230
1.0
 70
     8
 71
     3
 72
    12
 73
     8
 74
     0
 42
0.00000001
 43
0.00000001
 12
1.0
 22
0.0
 32
0.0
 13
1.0
 23
0.0
 33
0.0
 40
0.0
 40
0.0
 40
0.0
 40
0.0
 40
0.2499999999999998
 40
0.2499999999999998
 40
0.4999999999999996
 40
0.4999999999999996
 40
1.0
 40
1.0
 40
1.0
 40
1.0
 10
177.586364095905
 20
134.5367039343763
 30
0.0
 10
177.5226988593745
 20
134.5367039343763
 30
0.0
 10
177.4630926271511
 20
134.5284391587104
 30
0.0
 10
177.3644321022202
 20
134.5042203771273
 30
0.0
 10
177.325465112205
 20
134.4889630578181
 30
0.0
 10
177.2260782802805
 20
134.4393297035562
 30
0.0
 10
177.1840020328571
 20
134.4016899953821
 30
0.0
 10
177.1533513940128
 20
134.3626142961059
 30
0.0
  0
LINE
  5
CA
330
1F
100
AcDbEntity
  8
0
  6
HIDDEN
 62
     7
370
     0
100
AcDbLine
 10
180.5308501667
 20
134.5367041878
 30
0.0
 11
177.586363951
 21
134.5367041878
 31
0.0
  0
SPLINE
  5
CB
330
1F
100
AcDbEntity
  8
0
  6
HIDDEN
 62
     7
370
     0
100
AcDbSpline
210
0.0
220
0.0
230
1.0
 70
     8
 71
     3
 72
    12
 73
     8
 74
     0
 42
0.00000001
 43
0.00000001
 12
1.0
 22
0.0
 32
0.0
 13
1.0
 23
0.0
 33
0.0
 40
0.0
 40
0.0
 40
0.0
 40
0.0
 40
0.5000000000000028
 40
0.5000000000000028
 40
0.7500000000000013
 40
0.7500000000000013
 40
1.0
 40
1.0
 40
1.0
 40
1.0
 10
180.9638631706643
 20
134.3626142961059
 30
0.0
 10
180.933163787297
 20
134.4017521385018
 30
0.0
 10
180.8918137191905
 20
134.4389119212273
 30
0.0
 10
180.7920577909711
 20
134.4888484268551
 30
0.0
 10
180.7523608732383
 20
134.5043012969988
 30
0.0
 10
180.6551027215907
 20
134.5282208405979
 30
0.0
 10
180.5943265636
 20
134.5367039343763
 30
0.0
 10
180.5308504687721
 20
134.5367039343763
 30
0.0
  0
ELLIPSE
  5
CC
330
1F
100
AcDbEntity
  8
0
  6
HIDDEN
 62
     7
370
     0
100
AcDbEllipse
 10
168.0023496274
 20
110.7099728189
 30
0.0
 11
11.70927234972729
 21
24.67718644093745
 31
0.0
210
0.0
220
0.0
230
1.0
 40
0.3419987131
 41
5.203068809370472
 42
6.114256032590514
  0
SPLINE
  5
CD
330
1F
100
AcDbEntity
  8
0
  6
HIDDEN
 62
     7
370
     0
100
AcDbSpline
210
0.0
220
0.0
230
1.0
 70
     8
 71
     3
 72
    12
 73
     8
 74
     0
 42
0.00000001
 43
0.00000001
 12
1.0
 22
0.0
 32
0.0
 13
1.0
 23
0.0
 33
0.0
 40
0.0
 40
0.0
 40
0.0
 40
0.0
 40
0.2500000000000005
 40
0.2500000000000005
 40
0.500000000000001
 40
0.500000000000001
 40
1.0
 40
1.0
 40
1.0
 40
1.0
 10
180.5308504687721
 20
118.2787827880552
 30
0.0
 10
180.5945157053026
 20
118.2787827880552
 30
0.0
 10
180.654121937526
 20
118.3048549365349
 30
0.0
 10
180.7527824624568
 20
118.380393687356
 30
0.0
 10
180.7917494524721
 20
118.4276446244523
 30
0.0
 10
180.8911362843965
 20
118.5794684424187
 30
0.0
 10
180.9332125318199
 20
118.6922716921838
 30
0.0
 10
180.9638631706643
 20
118.8064258169189
 30
0.0
  0
LINE
  5
CE
330
1F
100
AcDbEntity
  8
0
  6
HIDDEN
 62
     7
370
     0
100
AcDbLine
 10
177.586363951
 20
118.278782954
 30
0.0
 11
180.5308501667
 21
118.278782954
 31
0.0
  0
SPLINE
  5
CF
330
1F
100
AcDbEntity
  8
0
  6
HIDDEN
 62
     7
370
     0
100
AcDbSpline
210
0.0
220
0.0
230
1.0
 70
     8
 71
     3
 72
    12
 73
     8
 74
     0
 42
0.00000001
 43
0.00000001
 12
1.0
 22
0.0
 32
0.0
 13
1.0
 23
0.0
 33
0.0
 40
0.0
 40
0.0
 40
0.0
 40
0.0
 40
0.5
 40
0.5
 40
0.75
 40
0.75
 40
1.0
 40
1.0
 40
1.0
 40
1.0
 10
177.1533513940128
 20
118.8064258169188
 30
0.0
 10
177.18405077738
 20
118.692090149855
 30
0.0
 10
177.2254008454866
 20
118.5807367970136
 30
0.0
 10
177.325156773706
 20
118.4280000247649
 30
0.0
 10
177.3648536914387
 20
118.3801401389128
 30
0.0
 10
177.4621118430863
 20
118.3055370255633
 30
0.0
 10
177.522888001077
 20
118.2787827880552
 30
0.0
 10
177.586364095905
 20
118.2787827880552
 30
0.0
  0
ELLIPSE
  5
D0
330
1F
100
AcDbEntity
  8
0
  6
HIDDEN
 62
     7
370
     0
100
AcDbEllipse
 10
190.1148649373
 20
110.7099728189
 30
0.0
 11
-11.70927234972714
 21
24.67718644093745
 31
0.0
210
0.0
220
0.0
230
1.0
 40
0.3419987131
 41
0.1689292745891139
 42
1.08011649780913
  0
LINE
  5
D1
330
1F
100
AcDbEntity
  8
0
  6
HIDDEN
 62
     7
370
     0
100
AcDbLine
 10
189.0586068353
 20
135.109972348
 30
0.0
 11
189.0586068353
 21
86.3099732898
 31
0.0
  0
LINE
  5
D2
330
1F
100
AcDbEntity
  8
0
  6
HIDDEN
 62
     7
370
     0
100
AcDbLine
 10
169.0586072823
 20
135.409973701
 30
0.0
 11
169.0586072823
 21
86.0099719367
 31
0.0
  0
LINE
  5
D3
330
1F
100
AcDbEntity
  8
0
  6
HIDDEN
 62
     7
370
     0
100
AcDbLine
 10
189.0586068353
 20
90.7099732659
 30
0.0
 11
189.0586068353
 21
130.7099723718
 31
0.0
  0
LINE
  5
D4
330
1F
100
AcDbEntity
  8
0
  6
HIDDEN
 62
     7
370
     0
100
AcDbLine
 10
169.0586072823
 20
91.1638365588
 30
0.0
 11
169.0586072823
 21
130.2561090789
 31
0.0
  0
SPLINE
  5
D5
330
1F
100
AcDbEntity
  8
0
  6
HIDDEN
 62
     7
370
     0
100
AcDbSpline
210
0.0
220
0.0
230
1.0
 70
     8
 71
     3
 72
    14
 73
    10
 74
     0
 42
0.00000001
 43
0.00000001
 12
1.0
 22
0.0
 32
0.0
 13
1.0
 23
0.0
 33
0.0
 40
0.0
 40
0.0
 40
0.0
 40
0.0
 40
0.25
 40
0.25
 40
0.5
 40
0.5
 40
0.75
 40
0.75
 40
1.0
 40
1.0
 40
1.0
 40
1.0
 10
168.0177462542102
 20
97.77511033134827
 30
0.0
 10
168.0494613885409
 20
97.74082913635404
 30
0.0
 10
168.0840759138412
 20
97.70757686798626
 30
0.0
 10
168.1637471092566
 20
97.64428641088142
 30
0.0
 10
168.208802986287
 20
97.61385250211245
 30
0.0
 10
168.3193573987924
 20
97.56260980466217
 30
0.0
 10
168.3867428129966
 20
97.54185230421213
 30
0.0
 10
168.5373723328946
 20
97.53636652626825
 30
0.0
 10
168.60719956966
 20
97.55277752687367
 30
0.0
 10
168.6636303934634
 20
97.57556495608542
 30
0.0
  0
SPLINE
  5
D6
330
1F
100
AcDbEntity
  8
0
  6
HIDDEN
 62
     7
370
     0
100
AcDbSpline
210
0.0
220
0.0
230
1.0
 70
     8
 71
     3
 72
    16
 73
    12
 74
     0
 42
0.00000001
 43
0.00000001
 12
1.0
 22
0.0
 32
0.0
 13
1.0
 23
0.0
 33
0.0
 40
0.0
 40
0.0
 40
0.0
 40
0.0
 40
0.0624999999999972
 40
0.0624999999999972
 40
0.1249999999999943
 40
0.1249999999999943
 40
0.2499999999999927
 40
0.2499999999999927
 40
0.4999999999999934
 40
0.4999999999999934
 40
1.0
 40
1.0
 40
1.0
 40
1.0
 10
168.6636303934316
 20
97.57556495612931
 30
0.0
 10
168.6753646278785
 20
97.58030337777646
 30
0.0
 10
168.6888963833575
 20
97.58326565492315
 30
0.0
 10
168.7188838437874
 20
97.57988647730144
 30
0.0
 10
168.7338785501956
 20
97.57300666956591
 30
0.0
 10
168.7696189725904
 20
97.54606301001341
 30
0.0
 10
168.7836323095916
 20
97.52298854355911
 30
0.0
 10
168.817776398373
 20
97.45630082128471
 30
0.0
 10
168.8287483024913
 20
97.41279734520207
 30
0.0
 10
168.8545938427577
 20
97.28408212225352
 30
0.0
 10
168.8586072823385
 20
97.20269194162248
 30
0.0
 10
168.8586072823385
 20
97.12420813147862
 30
0.0
  0
LINE
  5
D7
330
1F
100
AcDbEntity
  8
0
  6
HIDDEN
 62
     7
370
     0
100
AcDbLine
 10
168.8586072874
 20
92.8701517633
 30
0.0
 11
168.8586072874
 21
97.1242079041
 31
0.0
  0
LINE
  5
D8
330
1F
100
AcDbEntity
  8
0
  6
HIDDEN
 62
     7
370
     0
100
AcDbLine
 10
168.8418388826
 20
127.5754702739
 30
0.0
 11
168.8216211501
 21
127.6470815293
 31
0.0
  0
SPLINE
  5
D9
330
1F
100
AcDbEntity
  8
0
  6
HIDDEN
 62
     7
370
     0
100
AcDbSpline
210
0.0
220
0.0
230
1.0
 70
     8
 71
     3
 72
    10
 73
     6
 74
     0
 42
0.00000001
 43
0.00000001
 12
1.0
 22
0.0
 32
0.0
 13
1.0
 23
0.0
 33
0.0
 40
0.0
 40
0.0
 40
0.0
 40
0.0
 40
0.5
 40
0.5
 40
1.0
 40
1.0
 40
1.0
 40
1.0
 10
168.0177462542093
 20
127.8247322108781
 30
0.0
 10
167.9459567844565
 20
127.8992062128681
 30
0.0
 10
167.893498481611
 20
127.9738616957771
 30
0.0
 10
167.8041582301141
 20
128.1187697346982
 30
0.0
 10
167.7681655223908
 20
128.1891945936673
 30
0.0
 10
167.7372869387789
 20
128.2567771381977
 30
0.0
  0
SPLINE
  5
DA
330
1F
100
AcDbEntity
  8
0
  6
HIDDEN
 62
     7
370
     0
100
AcDbSpline
210
0.0
220
0.0
230
1.0
 70
     8
 71
     3
 72
    14
 73
    10
 74
     0
 42
0.00000001
 43
0.00000001
 12
1.0
 22
0.0
 32
0.0
 13
1.0
 23
0.0
 33
0.0
 40
0.0
 40
0.0
 40
0.0
 40
0.0
 40
0.25
 40
0.25
 40
0.5
 40
0.5
 40
0.75
 40
0.75
 40
1.0
 40
1.0
 40
1.0
 40
1.0
 10
168.0177462542087
 20
127.8247322108788
 30
0.0
 10
168.049454953694
 20
127.7918377800284
 30
0.0
 10
168.0840627723346
 20
127.7596144703708
 30
0.0
 10
168.163721182824
 20
127.6980819606285
 30
0.0
 10
168.2087834527189
 20
127.668332514765
 30
0.0
 10
168.3193652982973
 20
127.6192900212743
 30
0.0
 10
168.3870094191125
 20
127.6001394098353
 30
0.0
 10
168.5372577095096
 20
127.6010851172707
 30
0.0
 10
168.60721010774
 20
127.6217731344534
 30
0.0
 10
168.6636303934635
 20
127.6483173459398
 30
0.0
  0
SPLINE
  5
DB
330
1F
100
AcDbEntity
  8
0
  6
HIDDEN
 62
     7
370
     0
100
AcDbSpline
210
0.0
220
0.0
230
1.0
 70
     8
 71
     3
 72
    16
 73
    12
 74
     0
 42
0.00000001
 43
0.00000001
 12
1.0
 22
0.0
 32
0.0
 13
1.0
 23
0.0
 33
0.0
 40
0.0
 40
0.0
 40
0.0
 40
0.0
 40
0.0625000000000002
 40
0.0625000000000002
 40
0.1250000000000004
 40
0.1250000000000004
 40
0.2499999999999994
 40
0.2499999999999994
 40
0.4999999999999973
 40
0.4999999999999973
 40
1.0
 40
1.0
 40
1.0
 40
1.0
 10
168.6636303934316
 20
127.6483173459444
 30
0.0
 10
168.6753646278785
 20
127.6538379844325
 30
0.0
 10
168.6888963833575
 20
127.6593520413041
 30
0.0
 10
168.7188838437874
 20
127.6681836045082
 30
0.0
 10
168.7338785501956
 20
127.6708204277878
 30
0.0
 10
168.7696189725904
 20
127.6732361273316
 30
0.0
 10
168.7836323095916
 20
127.6694891843384
 30
0.0
 10
168.817776398373
 20
127.6555022283372
 30
0.0
 10
168.8287483024913
 20
127.6414008024781
 30
0.0
 10
168.8545938427577
 20
127.5944830317627
 30
0.0
 10
168.8586072823385
 20
127.5567005561407
 30
0.0
 10
168.8586072823385
 20
127.5160783739546
 30
0.0
  0
LINE
  5
DC
330
1F
100
AcDbEntity
  8
0
  6
HIDDEN
 62
     7
370
     0
100
AcDbLine
 10
168.8586072874
 20
107.4896318834
 30
0.0
 11
168.8586072874
 21
127.5160779706
 31
0.0
  0
SPLINE
  5
DD
330
1F
100
AcDbEntity
  8
0
  6
HIDDEN
 62
     7
370
     0
100
AcDbSpline
210
0.0
220
0.0
230
1.0
 70
     8
 71
     3
 72
    16
 73
    12
 74
     0
 42
0.00000001
 43
0.00000001
 12
1.0
 22
0.0
 32
0.0
 13
1.0
 23
0.0
 33
0.0
 40
0.0
 40
0.0
 40
0.0
 40
0.0
 40
0.5000000000000024
 40
0.5000000000000024
 40
0.750000000000001
 40
0.750000000000001
 40
0.875000000000001
 40
0.875000000000001
 40
0.9375000000000006
 40
0.9375000000000006
 40
1.0
 40
1.0
 40
1.0
 40
1.0
 10
168.8586072823387
 20
107.4896319511898
 30
0.0
 10
168.8586072823384
 20
107.3696781726144
 30
0.0
 10
168.8544827394844
 20
107.2499468509605
 30
0.0
 10
168.8285662938513
 20
107.0748137047474
 30
0.0
 10
168.8172887128315
 20
107.0167219936086
 30
0.0
 10
168.7835533342902
 20
106.9373764302684
 30
0.0
 10
168.7691645190457
 20
106.9102361162925
 30
0.0
 10
168.7339178296067
 20
106.8861542621749
 30
0.0
 10
168.7187124051498
 20
106.8818792767298
 30
0.0
 10
168.6890658259804
 20
106.8872702214163
 30
0.0
 10
168.675360489983
 20
106.8957807121853
 30
0.0
 10
168.6636303934592
 20
106.9060361545927
 30
0.0
  0
SPLINE
  5
DE
330
1F
100
AcDbEntity
  8
0
  6
HIDDEN
 62
     7
370
     0
100
AcDbSpline
210
0.0
220
0.0
230
1.0
 70
     8
 71
     3
 72
    14
 73
    10
 74
     0
 42
0.00000001
 43
0.00000001
 12
1.0
 22
0.0
 32
0.0
 13
1.0
 23
0.0
 33
0.0
 40
0.0
 40
0.0
 40
0.0
 40
0.0
 40
0.25
 40
0.25
 40
0.5
 40
0.5
 40
0.75
 40
0.75
 40
1.0
 40
1.0
 40
1.0
 40
1.0
 10
168.6636303934697
 20
106.9060361546074
 30
0.0
 10
168.6071833114114
 20
106.9553869675287
 30
0.0
 10
168.5363329273686
 20
106.9924289394174
 30
0.0
 10
168.3878964925522
 20
106.9879690075977
 30
0.0
 10
168.3187072408653
 20
106.9474814739682
 30
0.0
 10
168.2089956926244
 20
106.8478606156576
 30
0.0
 10
168.163754043282
 20
106.7875754577343
 30
0.0
 10
168.0841060250982
 20
106.6627899639095
 30
0.0
 10
168.0494791093321
 20
106.597295753743
 30
0.0
 10
168.0177462542108
 20
106.5300759144006
 30
0.0
  0
SPLINE
  5
DF
330
1F
100
AcDbEntity
  8
0
  6
HIDDEN
 62
     7
370
     0
100
AcDbSpline
210
0.0
220
0.0
230
1.0
 70
     8
 71
     3
 72
    10
 73
     6
 74
     0
 42
0.00000001
 43
0.00000001
 12
1.0
 22
0.0
 32
0.0
 13
1.0
 23
0.0
 33
0.0
 40
0.0
 40
0.0
 40
0.0
 40
0.0
 40
0.5
 40
0.5
 40
1.0
 40
1.0
 40
1.0
 40
1.0
 10
168.0177462542109
 20
106.5300759143988
 30
0.0
 10
167.9459372788183
 20
106.3779626623524
 30
0.0
 10
167.8934814193956
 20
106.2203290207826
 30
0.0
 10
167.8041468335042
 20
105.9008973802781
 30
0.0
 10
167.7681599705912
 20
105.7388349112189
 30
0.0
 10
167.7372869387789
 20
105.5754908855511
 30
0.0
  0
SPLINE
  5
E0
330
1F
100
AcDbEntity
  8
0
  6
HIDDEN
 62
     7
370
     0
100
AcDbSpline
210
0.0
220
0.0
230
1.0
 70
     8
 71
     3
 72
    10
 73
     6
 74
     0
 42
0.00000001
 43
0.00000001
 12
1.0
 22
0.0
 32
0.0
 13
1.0
 23
0.0
 33
0.0
 40
0.0
 40
0.0
 40
0.0
 40
0.0
 40
0.5
 40
0.5
 40
1.0
 40
1.0
 40
1.0
 40
1.0
 10
167.7372869387789
 20
98.29765043287385
 30
0.0
 10
167.7681682783771
 20
98.20185102853806
 30
0.0
 10
167.8041638878769
 20
98.11018988688711
 30
0.0
 10
167.8935069519783
 20
97.93565983817689
 30
0.0
 10
167.9459664662864
 20
97.85269779734466
 30
0.0
 10
168.0177462542102
 20
97.77511033134827
 30
0.0
  0
LINE
  5
E1
330
1F
100
AcDbEntity
  8
0
  6
HIDDEN
 62
     7
370
     0
100
AcDbLine
 10
168.8586072874
 20
107.4896318834
 30
0.0
 11
168.8586072874
 21
127.5160779706
 31
0.0
  0
LINE
  5
E2
330
1F
100
AcDbEntity
  8
0
  6
HIDDEN
 62
     7
370
     0
100
AcDbLine
 10
239.0586075804
 20
94.7099720589
 30
0.0
 11
239.0586075804
 21
126.7099735788
 31
0.0
  0
SPLINE
  5
E3
330
1F
100
AcDbEntity
  8
0
  6
HIDDEN
 62
     7
370
     0
100
AcDbSpline
210
0.0
220
0.0
230
1.0
 70
     8
 71
     3
 72
    66
 73
    62
 74
     0
 42
0.00000001
 43
0.00000001
 12
1.0
 22
0.0
 32
0.0
 13
1.0
 23
0.0
 33
0.0
 40
-0.0312499999999998
 40
-0.0312499999999998
 40
0.0
 40
0.0
 40
0.0312500000000001
 40
0.0312500000000001
 40
0.0625000000000001
 40
0.0625000000000001
 40
0.0937500000000001
 40
0.0937500000000001
 40
0.1250000000000002
 40
0.1250000000000002
 40
0.1562500000000002
 40
0.1562500000000002
 40
0.1875000000000002
 40
0.1875000000000002
 40
0.2187500000000003
 40
0.2187500000000003
 40
0.2500000000000003
 40
0.2500000000000003
 40
0.2812500000000003
 40
0.2812500000000003
 40
0.3125000000000004
 40
0.3125000000000004
 40
0.3437500000000004
 40
0.3437500000000004
 40
0.3750000000000005
 40
0.3750000000000005
 40
0.4375000000000016
 40
0.4375000000000016
 40
0.5000000000000027
 40
0.5000000000000027
 40
0.5312500000000026
 40
0.5312500000000026
 40
0.5625000000000023
 40
0.5625000000000023
 40
0.5937500000000022
 40
0.5937500000000022
 40
0.625000000000002
 40
0.625000000000002
 40
0.6562500000000019
 40
0.6562500000000019
 40
0.6875000000000017
 40
0.6875000000000017
 40
0.7187500000000016
 40
0.7187500000000016
 40
0.7500000000000013
 40
0.7500000000000013
 40
0.7812500000000012
 40
0.7812500000000012
 40
0.8125000000000011
 40
0.8125000000000011
 40
0.8437500000000009
 40
0.8437500000000009
 40
0.8750000000000008
 40
0.8750000000000008
 40
0.9062500000000006
 40
0.9062500000000006
 40
0.9375000000000004
 40
0.9375000000000004
 40
0.9687500000000002
 40
0.9687500000000002
 40
1.0
 40
1.0
 40
1.03125
 40
1.03125
 10
228.8661274719882
 20
108.2123614416294
 30
0.0
 10
228.5276947046568
 20
108.4955036523005
 30
0.0
 10
228.3744538513115
 20
108.6512330089076
 30
0.0
 10
228.1006058043903
 20
108.9918818269531
 30
0.0
 10
227.9793623929413
 20
109.1788248712243
 30
0.0
 10
227.7823866384052
 20
109.5679795557171
 30
0.0
 10
227.7050967476223
 20
109.7714756157444
 30
0.0
 10
227.5957848992837
 20
110.1976125353155
 30
0.0
 10
227.5651048464726
 20
110.417780598663
 30
0.0
 10
227.5539896445275
 20
110.8544402165944
 30
0.0
 10
227.5734593312895
 20
111.0761767344001
 30
0.0
 10
227.6613640008762
 20
111.5074699558959
 30
0.0
 10
227.7287398202415
 20
111.7154283115515
 30
0.0
 10
227.9085313719891
 20
112.116628630857
 30
0.0
 10
228.0206424316891
 20
112.3078583049221
 30
0.0
 10
228.2786392753051
 20
112.6599709082027
 30
0.0
 10
228.4270956165377
 20
112.8243639751676
 30
0.0
 10
228.7512579616724
 20
113.1195771566733
 30
0.0
 10
228.9259096282773
 20
113.2501189331383
 30
0.0
 10
229.2992103003008
 20
113.4789327525059
 30
0.0
 10
229.4985623382824
 20
113.5769918906907
 30
0.0
 10
229.9061761359546
 20
113.7342150112307
 30
0.0
 10
230.1161932009906
 20
113.7946076133387
 30
0.0
 10
230.548747362044
 20
113.8788733408971
 30
0.0
 10
230.7686904963662
 20
113.9019313569836
 30
0.0
 10
231.4238177143066
 20
113.9142392757816
 30
0.0
 10
231.8675549587419
 20
113.845583469848
 30
0.0
 10
232.6921368483154
 20
113.5637827442378
 30
0.0
 10
233.0843258512551
 20
113.3465486969493
 30
0.0
 10
233.5844618819149
 20
112.9289468414525
 30
0.0
 10
233.7394287790608
 20
112.7724498049195
 30
0.0
 10
234.0152550186652
 20
112.430148435035
 30
0.0
 10
234.1338403102607
 20
112.2477526095729
 30
0.0
 10
234.3314968422177
 20
111.8597939849777
 30
0.0
 10
234.411170458166
 20
111.6511124677621
 30
0.0
 10
234.5206389212907
 20
111.2264498181548
 30
0.0
 10
234.5514049023756
 20
111.0103265922768
 30
0.0
 10
234.5635866702485
 20
110.5702565018297
 30
0.0
 10
234.5442049778155
 20
110.3480980534967
 30
0.0
 10
234.4576329313864
 20
109.9191518849493
 30
0.0
 10
234.3894360944693
 20
109.7071656336304
 30
0.0
 10
234.2100345200741
 20
109.3058358177008
 30
0.0
 10
234.0998614050739
 20
109.1170996007664
 30
0.0
 10
233.8405547662583
 20
108.7621637307732
 30
0.0
 10
233.6922997094854
 20
108.5979348037368
 30
0.0
 10
233.3699371622954
 20
108.3036333730729
 30
0.0
 10
233.1930566657859
 20
108.1709925694645
 30
0.0
 10
232.8184119294347
 20
107.9411711459511
 30
0.0
 10
232.6225149713285
 20
107.8446883132519
 30
0.0
 10
232.2142890299255
 20
107.6867440161393
 30
0.0
 10
232.0001041993302
 20
107.6251713470648
 30
0.0
 10
231.5697821998209
 20
107.5413164869579
 30
0.0
 10
231.3524277979661
 20
107.518246334098
 30
0.0
 10
230.9133381729249
 20
107.5096816652703
 30
0.0
 10
230.6908677057741
 20
107.5247060595181
 30
0.0
 10
230.2585406720799
 20
107.591908180384
 30
0.0
 10
230.0465307627634
 20
107.6438750930263
 30
0.0
 10
229.6310335899105
 20
107.7856844664764
 30
0.0
 10
229.4280225003693
 20
107.8758730074069
 30
0.0
 10
229.0467103211749
 20
108.0888490862424
 30
0.0
 10
228.8661274719882
 20
108.2123614416294
 30
0.0
 10
228.5276947046568
 20
108.4955036523005
 30
0.0
  0
SPLINE
  5
E4
330
1F
100
AcDbEntity
  8
0
  6
HIDDEN
 62
     7
370
     0
100
AcDbSpline
210
0.0
220
0.0
230
1.0
 70
     8
 71
     3
 72
    66
 73
    62
 74
     0
 42
0.00000001
 43
0.00000001
 12
1.0
 22
0.0
 32
0.0
 13
1.0
 23
0.0
 33
0.0
 40
-0.03125
 40
-0.03125
 40
0.0
 40
0.0
 40
0.0312500000000001
 40
0.0312500000000001
 40
0.0625000000000002
 40
0.0625000000000002
 40
0.0937500000000004
 40
0.0937500000000004
 40
0.1250000000000005
 40
0.1250000000000005
 40
0.1562500000000006
 40
0.1562500000000006
 40
0.1875000000000007
 40
0.1875000000000007
 40
0.2187500000000008
 40
0.2187500000000008
 40
0.2500000000000009
 40
0.2500000000000009
 40
0.2812500000000011
 40
0.2812500000000011
 40
0.3125000000000012
 40
0.3125000000000012
 40
0.3437500000000013
 40
0.3437500000000013
 40
0.3750000000000014
 40
0.3750000000000014
 40
0.4375000000000007
 40
0.4375000000000007
 40
0.4999999999999999
 40
0.4999999999999999
 40
0.5312499999999999
 40
0.5312499999999999
 40
0.5624999999999999
 40
0.5624999999999999
 40
0.5937499999999999
 40
0.5937499999999999
 40
0.6249999999999999
 40
0.6249999999999999
 40
0.6562499999999999
 40
0.6562499999999999
 40
0.6874999999999999
 40
0.6874999999999999
 40
0.7187499999999999
 40
0.7187499999999999
 40
0.7499999999999999
 40
0.7499999999999999
 40
0.78125
 40
0.78125
 40
0.8125
 40
0.8125
 40
0.84375
 40
0.84375
 40
0.875
 40
0.875
 40
0.90625
 40
0.90625
 40
0.9375
 40
0.9375
 40
0.96875
 40
0.96875
 40
1.0
 40
1.0
 40
1.03125
 40
1.03125
 10
218.8661274719882
 20
108.2123614416294
 30
0.0
 10
218.5276947046568
 20
108.4955036523005
 30
0.0
 10
218.3744538513115
 20
108.6512330089076
 30
0.0
 10
218.1006058043903
 20
108.9918818269531
 30
0.0
 10
217.9793623929413
 20
109.1788248712243
 30
0.0
 10
217.7823866384052
 20
109.5679795557171
 30
0.0
 10
217.7050967476223
 20
109.7714756157444
 30
0.0
 10
217.5957848992837
 20
110.1976125353155
 30
0.0
 10
217.5651048464727
 20
110.417780598663
 30
0.0
 10
217.5539896445275
 20
110.8544402165944
 30
0.0
 10
217.5734593312895
 20
111.0761767344001
 30
0.0
 10
217.6613640008761
 20
111.5074699558959
 30
0.0
 10
217.7287398202415
 20
111.7154283115515
 30
0.0
 10
217.908531371989
 20
112.116628630857
 30
0.0
 10
218.0206424316891
 20
112.3078583049221
 30
0.0
 10
218.2786392753051
 20
112.6599709082027
 30
0.0
 10
218.4270956165377
 20
112.8243639751676
 30
0.0
 10
218.7512579616724
 20
113.1195771566733
 30
0.0
 10
218.9259096282773
 20
113.2501189331383
 30
0.0
 10
219.2992103003008
 20
113.4789327525059
 30
0.0
 10
219.4985623382824
 20
113.5769918906907
 30
0.0
 10
219.9061761359545
 20
113.7342150112307
 30
0.0
 10
220.1161932009906
 20
113.7946076133387
 30
0.0
 10
220.548747362044
 20
113.8788733408971
 30
0.0
 10
220.7686904963661
 20
113.9019313569836
 30
0.0
 10
221.4238177143065
 20
113.9142392757816
 30
0.0
 10
221.8675549587419
 20
113.845583469848
 30
0.0
 10
222.6921368483154
 20
113.5637827442378
 30
0.0
 10
223.084325851255
 20
113.3465486969493
 30
0.0
 10
223.5844618819149
 20
112.9289468414525
 30
0.0
 10
223.7394287790609
 20
112.7724498049195
 30
0.0
 10
224.0152550186652
 20
112.430148435035
 30
0.0
 10
224.1338403102606
 20
112.2477526095729
 30
0.0
 10
224.3314968422177
 20
111.8597939849777
 30
0.0
 10
224.4111704581661
 20
111.6511124677621
 30
0.0
 10
224.5206389212907
 20
111.2264498181548
 30
0.0
 10
224.5514049023755
 20
111.0103265922768
 30
0.0
 10
224.5635866702485
 20
110.5702565018297
 30
0.0
 10
224.5442049778155
 20
110.3480980534967
 30
0.0
 10
224.4576329313864
 20
109.9191518849493
 30
0.0
 10
224.3894360944693
 20
109.7071656336304
 30
0.0
 10
224.2100345200741
 20
109.3058358177008
 30
0.0
 10
224.0998614050739
 20
109.1170996007664
 30
0.0
 10
223.8405547662583
 20
108.7621637307732
 30
0.0
 10
223.6922997094854
 20
108.5979348037368
 30
0.0
 10
223.3699371622954
 20
108.3036333730729
 30
0.0
 10
223.1930566657859
 20
108.1709925694645
 30
0.0
 10
222.8184119294347
 20
107.9411711459511
 30
0.0
 10
222.6225149713286
 20
107.8446883132519
 30
0.0
 10
222.2142890299254
 20
107.6867440161393
 30
0.0
 10
222.0001041993302
 20
107.6251713470648
 30
0.0
 10
221.5697821998209
 20
107.5413164869579
 30
0.0
 10
221.3524277979662
 20
107.518246334098
 30
0.0
 10
220.913338172925
 20
107.5096816652703
 30
0.0
 10
220.690867705774
 20
107.5247060595181
 30
0.0
 10
220.2585406720799
 20
107.591908180384
 30
0.0
 10
220.0465307627634
 20
107.6438750930262
 30
0.0
 10
219.6310335899105
 20
107.7856844664764
 30
0.0
 10
219.4280225003694
 20
107.8758730074069
 30
0.0
 10
219.0467103211749
 20
108.0888490862424
 30
0.0
 10
218.8661274719882
 20
108.2123614416294
 30
0.0
 10
218.5276947046568
 20
108.4955036523005
 30
0.0
  0
SPLINE
  5
E5
330
1F
100
AcDbEntity
  8
0
  6
HIDDEN
 62
     7
370
     0
100
AcDbSpline
210
0.0
220
0.0
230
1.0
 70
     8
 71
     3
 72
    66
 73
    62
 74
     0
 42
0.00000001
 43
0.00000001
 12
1.0
 22
0.0
 32
0.0
 13
1.0
 23
0.0
 33
0.0
 40
-0.03125
 40
-0.03125
 40
0.0
 40
0.0
 40
0.0312500000000001
 40
0.0312500000000001
 40
0.0625000000000002
 40
0.0625000000000002
 40
0.0937500000000004
 40
0.0937500000000004
 40
0.1250000000000005
 40
0.1250000000000005
 40
0.1562500000000006
 40
0.1562500000000006
 40
0.1875000000000007
 40
0.1875000000000007
 40
0.2187500000000008
 40
0.2187500000000008
 40
0.2500000000000009
 40
0.2500000000000009
 40
0.2812500000000011
 40
0.2812500000000011
 40
0.3125000000000012
 40
0.3125000000000012
 40
0.3437500000000013
 40
0.3437500000000013
 40
0.3750000000000014
 40
0.3750000000000014
 40
0.4375000000000007
 40
0.4375000000000007
 40
0.4999999999999999
 40
0.4999999999999999
 40
0.5312499999999999
 40
0.5312499999999999
 40
0.5624999999999999
 40
0.5624999999999999
 40
0.5937499999999999
 40
0.5937499999999999
 40
0.6249999999999999
 40
0.6249999999999999
 40
0.6562499999999999
 40
0.6562499999999999
 40
0.6874999999999999
 40
0.6874999999999999
 40
0.7187499999999999
 40
0.7187499999999999
 40
0.7499999999999999
 40
0.7499999999999999
 40
0.78125
 40
0.78125
 40
0.8125
 40
0.8125
 40
0.84375
 40
0.84375
 40
0.875
 40
0.875
 40
0.90625
 40
0.90625
 40
0.9375
 40
0.9375
 40
0.96875
 40
0.96875
 40
1.0
 40
1.0
 40
1.03125
 40
1.03125
 10
208.8661274719882
 20
108.2123614416294
 30
0.0
 10
208.5276947046569
 20
108.4955036523005
 30
0.0
 10
208.3744538513115
 20
108.6512330089076
 30
0.0
 10
208.1006058043903
 20
108.9918818269531
 30
0.0
 10
207.9793623929413
 20
109.1788248712243
 30
0.0
 10
207.7823866384052
 20
109.5679795557171
 30
0.0
 10
207.7050967476223
 20
109.7714756157444
 30
0.0
 10
207.5957848992836
 20
110.1976125353155
 30
0.0
 10
207.5651048464727
 20
110.417780598663
 30
0.0
 10
207.5539896445275
 20
110.8544402165944
 30
0.0
 10
207.5734593312895
 20
111.0761767344001
 30
0.0
 10
207.6613640008761
 20
111.5074699558959
 30
0.0
 10
207.7287398202415
 20
111.7154283115515
 30
0.0
 10
207.908531371989
 20
112.116628630857
 30
0.0
 10
208.0206424316891
 20
112.3078583049221
 30
0.0
 10
208.2786392753051
 20
112.6599709082027
 30
0.0
 10
208.4270956165377
 20
112.8243639751676
 30
0.0
 10
208.7512579616724
 20
113.1195771566733
 30
0.0
 10
208.9259096282773
 20
113.2501189331383
 30
0.0
 10
209.2992103003008
 20
113.4789327525059
 30
0.0
 10
209.4985623382824
 20
113.5769918906907
 30
0.0
 10
209.9061761359546
 20
113.7342150112307
 30
0.0
 10
210.1161932009906
 20
113.7946076133387
 30
0.0
 10
210.5487473620441
 20
113.8788733408971
 30
0.0
 10
210.7686904963662
 20
113.9019313569836
 30
0.0
 10
211.4238177143066
 20
113.9142392757816
 30
0.0
 10
211.8675549587419
 20
113.845583469848
 30
0.0
 10
212.6921368483154
 20
113.5637827442378
 30
0.0
 10
213.084325851255
 20
113.3465486969493
 30
0.0
 10
213.5844618819149
 20
112.9289468414525
 30
0.0
 10
213.7394287790609
 20
112.7724498049195
 30
0.0
 10
214.0152550186652
 20
112.430148435035
 30
0.0
 10
214.1338403102607
 20
112.2477526095729
 30
0.0
 10
214.3314968422177
 20
111.8597939849777
 30
0.0
 10
214.4111704581661
 20
111.6511124677621
 30
0.0
 10
214.5206389212907
 20
111.2264498181548
 30
0.0
 10
214.5514049023756
 20
111.0103265922768
 30
0.0
 10
214.5635866702485
 20
110.5702565018297
 30
0.0
 10
214.5442049778155
 20
110.3480980534967
 30
0.0
 10
214.4576329313864
 20
109.9191518849493
 30
0.0
 10
214.3894360944693
 20
109.7071656336304
 30
0.0
 10
214.2100345200741
 20
109.3058358177008
 30
0.0
 10
214.0998614050739
 20
109.1170996007664
 30
0.0
 10
213.8405547662584
 20
108.7621637307732
 30
0.0
 10
213.6922997094854
 20
108.5979348037368
 30
0.0
 10
213.3699371622954
 20
108.3036333730729
 30
0.0
 10
213.1930566657859
 20
108.1709925694645
 30
0.0
 10
212.8184119294347
 20
107.9411711459511
 30
0.0
 10
212.6225149713286
 20
107.8446883132519
 30
0.0
 10
212.2142890299254
 20
107.6867440161393
 30
0.0
 10
212.0001041993302
 20
107.6251713470648
 30
0.0
 10
211.5697821998209
 20
107.5413164869579
 30
0.0
 10
211.3524277979662
 20
107.518246334098
 30
0.0
 10
210.913338172925
 20
107.5096816652703
 30
0.0
 10
210.690867705774
 20
107.5247060595181
 30
0.0
 10
210.2585406720799
 20
107.591908180384
 30
0.0
 10
210.0465307627634
 20
107.6438750930262
 30
0.0
 10
209.6310335899105
 20
107.7856844664764
 30
0.0
 10
209.4280225003693
 20
107.8758730074069
 30
0.0
 10
209.0467103211749
 20
108.0888490862424
 30
0.0
 10
208.8661274719882
 20
108.2123614416294
 30
0.0
 10
208.5276947046569
 20
108.4955036523005
 30
0.0
  0
SPLINE
  5
E6
330
1F
100
AcDbEntity
  8
0
  6
HIDDEN
 62
     7
370
     0
100
AcDbSpline
210
0.0
220
0.0
230
1.0
 70
     8
 71
     3
 72
    19
 73
    15
 74
     0
 42
0.00000001
 43
0.00000001
 12
1.0
 22
0.0
 32
0.0
 13
1.0
 23
0.0
 33
0.0
 40
0.0
 40
0.0
 40
0.0
 40
0.0
 40
0.0403682802426501
 40
0.1322501725128616
 40
0.2269012282999905
 40
0.2378591630619625
 40
0.2859660889361181
 40
0.3295870715176075
 40
0.4413719772117505
 40
0.5591669158489807
 40
0.6787999145125949
 40
0.7966996337419384
 40
0.9077189156466758
 40
1.0
 40
1.0
 40
1.0
 40
1.0
 10
207.6020588597635
 20
93.71734238185772
 30
0.0
 10
207.5911687421199
 20
93.71555966159177
 30
0.0
 10
207.555491722232
 20
93.7097193072022
 30
0.0
 10
207.8667608332167
 20
93.75956028606392
 30
0.0
 10
208.2242668921436
 20
93.82015567545096
 30
0.0
 10
208.6616706498694
 20
93.86653364644518
 30
0.0
 10
208.9509663501368
 20
93.89704127582974
 30
0.0
 10
209.5045740618257
 20
93.96123599416472
 30
0.0
 10
210.4590259448666
 20
94.01540910151658
 30
0.0
 10
211.6903849689423
 20
94.01666148773978
 30
0.0
 10
212.8927075534313
 20
93.93903255661075
 30
0.0
 10
213.8508907333416
 20
93.82429083785952
 30
0.0
 10
214.4591379162264
 20
93.72734693640383
 30
0.0
 10
214.51804618503
 20
93.7169875713808
 30
0.0
 10
214.5447855314592
 20
93.71228530027756
 30
0.0
  0
SPLINE
  5
E7
330
1F
100
AcDbEntity
  8
0
  6
HIDDEN
 62
     7
370
     0
100
AcDbSpline
210
0.0
220
0.0
230
1.0
 70
     8
 71
     3
 72
    10
 73
     6
 74
     0
 42
0.00000001
 43
0.00000001
 12
1.0
 22
0.0
 32
0.0
 13
1.0
 23
0.0
 33
0.0
 40
0.0
 40
0.0
 40
0.0
 40
0.0
 40
0.3666299976221844
 40
0.7802427894658343
 40
1.0
 40
1.0
 40
1.0
 40
1.0
 10
208.6969105026106
 20
127.5459194085825
 30
0.0
 10
208.4651299052303
 20
127.5756189579246
 30
0.0
 10
207.9718665579402
 20
127.6388239858133
 30
0.0
 10
207.5842707477981
 20
127.7057810313248
 30
0.0
 10
207.5974768164211
 20
127.7034218197046
 30
0.0
 10
207.6020588597635
 20
127.7026032558907
 30
0.0
  0
SPLINE
  5
E8
330
1F
100
AcDbEntity
  8
0
  6
HIDDEN
 62
     7
370
     0
100
AcDbSpline
210
0.0
220
0.0
230
1.0
 70
     8
 71
     3
 72
    16
 73
    12
 74
     0
 42
0.00000001
 43
0.00000001
 12
1.0
 22
0.0
 32
0.0
 13
1.0
 23
0.0
 33
0.0
 40
0.0
 40
0.0
 40
0.0
 40
0.0
 40
0.0106579271755807
 40
0.135317534914528
 40
0.2602788337238504
 40
0.3941593481239263
 40
0.5404946945239462
 40
0.6967882854189538
 40
0.8573598808693731
 40
0.9604205690451699
 40
0.9999999999999999
 40
0.9999999999999999
 40
0.9999999999999999
 40
0.9999999999999999
 10
214.5447855314592
 20
127.7076603374709
 30
0.0
 10
214.5493533934563
 20
127.7084242404475
 30
0.0
 10
214.6073488943723
 20
127.7181230745651
 30
0.0
 10
214.3948720087782
 20
127.6817095201878
 30
0.0
 10
213.9195792582214
 20
127.6073753331318
 30
0.0
 10
213.1215662877532
 20
127.5061209084177
 30
0.0
 10
212.0748813088856
 20
127.4214246401962
 30
0.0
 10
210.8633114845741
 20
127.3950906371809
 30
0.0
 10
209.7512650183184
 20
127.4379269154099
 30
0.0
 10
209.1041238305103
 20
127.5082726343374
 30
0.0
 10
208.7853602424323
 20
127.5377422514048
 30
0.0
 10
208.6969105026106
 20
127.5459194085825
 30
0.0
  0
SPLINE
  5
E9
330
1F
100
AcDbEntity
  8
0
  6
HIDDEN
 62
     7
370
     0
100
AcDbSpline
210
0.0
220
0.0
230
1.0
 70
     8
 71
     3
 72
    19
 73
    15
 74
     0
 42
0.00000001
 43
0.00000001
 12
1.0
 22
0.0
 32
0.0
 13
1.0
 23
0.0
 33
0.0
 40
0.0
 40
0.0
 40
0.0
 40
0.0
 40
0.0403682738435856
 40
0.1322501515489422
 40
0.2269011923322563
 40
0.2378591253572077
 40
0.2859660436055909
 40
0.3295870192724067
 40
0.441371907246726
 40
0.5591668272114392
 40
0.6788001421117152
 40
0.796699842651932
 40
0.9077189302748097
 40
1.0
 40
1.0
 40
1.0
 40
1.0
 10
227.6020584127287
 20
93.71734238185772
 30
0.0
 10
227.5911682950853
 20
93.715559661592
 30
0.0
 10
227.5554912751981
 20
93.70971930720317
 30
0.0
 10
227.8667603861718
 20
93.7595602860535
 30
0.0
 10
228.2242664451325
 20
93.82015567547548
 30
0.0
 10
228.6616702028157
 20
93.86653364642562
 30
0.0
 10
228.9509659034875
 20
93.89704127623052
 30
0.0
 10
229.5045736127251
 20
93.96123599201758
 30
0.0
 10
230.4590255202485
 20
94.01540912481657
 30
0.0
 10
231.6903856172007
 20
94.01666139887026
 30
0.0
 10
232.8927096768809
 20
93.93903271177024
 30
0.0
 10
233.8508946639624
 20
93.82429093096427
 30
0.0
 10
234.459136824817
 20
93.72734688315202
 30
0.0
 10
234.5180455208367
 20
93.71698755756627
 30
0.0
 10
234.5447850844244
 20
93.71228530027756
 30
0.0
  0
SPLINE
  5
EA
330
1F
100
AcDbEntity
  8
0
  6
HIDDEN
 62
     7
370
     0
100
AcDbSpline
210
0.0
220
0.0
230
1.0
 70
     8
 71
     3
 72
    10
 73
     6
 74
     0
 42
0.00000001
 43
0.00000001
 12
1.0
 22
0.0
 32
0.0
 13
1.0
 23
0.0
 33
0.0
 40
0.0
 40
0.0
 40
0.0
 40
0.0
 40
0.3666299976221844
 40
0.7802427894658343
 40
1.0
 40
1.0
 40
1.0
 40
1.0
 10
228.6969100555757
 20
127.5459194085825
 30
0.0
 10
228.4651294581954
 20
127.5756189579246
 30
0.0
 10
227.9718661109054
 20
127.6388239858133
 30
0.0
 10
227.5842703007632
 20
127.7057810313248
 30
0.0
 10
227.5974763693862
 20
127.7034218197046
 30
0.0
 10
227.6020584127287
 20
127.7026032558907
 30
0.0
  0
SPLINE
  5
EB
330
1F
100
AcDbEntity
  8
0
  6
HIDDEN
 62
     7
370
     0
100
AcDbSpline
210
0.0
220
0.0
230
1.0
 70
     8
 71
     3
 72
    16
 73
    12
 74
     0
 42
0.00000001
 43
0.00000001
 12
1.0
 22
0.0
 32
0.0
 13
1.0
 23
0.0
 33
0.0
 40
0.0
 40
0.0
 40
0.0
 40
0.0
 40
0.0106579294895556
 40
0.1353176569345549
 40
0.2602789828746036
 40
0.3941591752493013
 40
0.5404941203259371
 40
0.6967882195877397
 40
0.8573598499003446
 40
0.9604205604519598
 40
1.0
 40
1.0
 40
1.0
 40
1.0
 10
234.5447850844244
 20
127.7076603374709
 30
0.0
 10
234.549352951844
 20
127.7084242403892
 30
0.0
 10
234.6073485613121
 20
127.7181230804075
 30
0.0
 10
234.3948664667004
 20
127.6817095281146
 30
0.0
 10
233.9195755209036
 20
127.6073754675022
 30
0.0
 10
233.1215662972367
 20
127.506120916753
 30
0.0
 10
232.0748824251141
 20
127.4214244368056
 30
0.0
 10
230.8633122301262
 20
127.3950906659111
 30
0.0
 10
229.7512645822062
 20
127.4379269022069
 30
0.0
 10
229.1041233827629
 20
127.5082726351988
 30
0.0
 10
228.7853597952427
 20
127.5377422515919
 30
0.0
 10
228.6969100555757
 20
127.5459194085825
 30
0.0
  0
SPLINE
  5
EC
330
1F
100
AcDbEntity
  8
0
  6
HIDDEN
 62
     7
370
     0
100
AcDbSpline
210
0.0
220
0.0
230
1.0
 70
     8
 71
     3
 72
    19
 73
    15
 74
     0
 42
0.00000001
 43
0.00000001
 12
1.0
 22
0.0
 32
0.0
 13
1.0
 23
0.0
 33
0.0
 40
0.0
 40
0.0
 40
0.0
 40
0.0
 40
0.0403682732028769
 40
0.1322500414453271
 40
0.2269010807263784
 40
0.2378592987101421
 40
0.285966216194992
 40
0.3295869060376216
 40
0.4413721286950258
 40
0.5591670467901461
 40
0.6788000245911134
 40
0.7966997232600744
 40
0.9077189858043001
 40
1.0
 40
1.0
 40
1.0
 40
1.0
 10
217.6020604988912
 20
93.71734238185772
 30
0.0
 10
217.5911704464207
 20
93.7155596662619
 30
0.0
 10
217.5554936691818
 20
93.70971933194173
 30
0.0
 10
217.8667590938118
 20
93.75956000645262
 30
0.0
 10
218.2242614922039
 20
93.82015654512426
 30
0.0
 10
218.6616733894591
 20
93.86653319408329
 30
0.0
 10
218.9509670099046
 20
93.89704122077151
 30
0.0
 10
219.504572953712
 20
93.96123635190202
 30
0.0
 10
220.4590269370162
 20
94.01540892962795
 30
0.0
 10
221.6903864317252
 20
94.0166615353082
 30
0.0
 10
222.8927093372141
 20
93.93903254401678
 30
0.0
 10
223.8508919861432
 20
93.82429084080177
 30
0.0
 10
224.4591406763315
 20
93.72734695279495
 30
0.0
 10
224.518045617765
 20
93.7169875754634
 30
0.0
 10
224.5447834452966
 20
93.71228530027756
 30
0.0
  0
SPLINE
  5
ED
330
1F
100
AcDbEntity
  8
0
  6
HIDDEN
 62
     7
370
     0
100
AcDbSpline
210
0.0
220
0.0
230
1.0
 70
     8
 71
     3
 72
    10
 73
     6
 74
     0
 42
0.00000001
 43
0.00000001
 12
1.0
 22
0.0
 32
0.0
 13
1.0
 23
0.0
 33
0.0
 40
0.0
 40
0.0
 40
0.0
 40
0.0
 40
0.366630769683957
 40
0.7802428747138561
 40
1.0
 40
1.0
 40
1.0
 40
1.0
 10
218.6969121417383
 20
127.5459194085825
 30
0.0
 10
218.4651297373208
 20
127.5756189349159
 30
0.0
 10
217.9718635292317
 20
127.6388237876455
 30
0.0
 10
217.5842729617385
 20
127.7057810581197
 30
0.0
 10
217.597478600788
 20
127.7034218271117
 30
0.0
 10
217.6020604988912
 20
127.7026032558907
 30
0.0
  0
SPLINE
  5
EE
330
1F
100
AcDbEntity
  8
0
  6
HIDDEN
 62
     7
370
     0
100
AcDbSpline
210
0.0
220
0.0
230
1.0
 70
     8
 71
     3
 72
    16
 73
    12
 74
     0
 42
0.00000001
 43
0.00000001
 12
1.0
 22
0.0
 32
0.0
 13
1.0
 23
0.0
 33
0.0
 40
0.0
 40
0.0
 40
0.0
 40
0.0
 40
0.0106579317914734
 40
0.1353175935198472
 40
0.2602789464492568
 40
0.3941595188322857
 40
0.5404944955145934
 40
0.6967881540995406
 40
0.857359819092681
 40
0.9604205519035248
 40
1.0
 40
1.0
 40
1.0
 40
1.0
 10
224.5447834452966
 20
127.7076603374709
 30
0.0
 10
224.5493513073061
 20
127.7084242404425
 30
0.0
 10
224.6073468083794
 20
127.718123074496
 30
0.0
 10
224.3948699115671
 20
127.6817095246864
 30
0.0
 10
223.9195772124623
 20
127.6073753166807
 30
0.0
 10
223.1215648860285
 20
127.5061210852814
 30
0.0
 10
222.0748821159473
 20
127.4214245045489
 30
0.0
 10
220.8633130369927
 20
127.3950906691896
 30
0.0
 10
219.7512666722895
 20
127.4379269099304
 30
0.0
 10
219.1041254686696
 20
127.5082726346949
 30
0.0
 10
218.7853618813497
 20
127.5377422514824
 30
0.0
 10
218.6969121417383
 20
127.5459194085825
 30
0.0
  0
LINE
  5
EF
330
1F
100
AcDbEntity
  8
0
  6
HIDDEN
 62
     7
370
     0
100
AcDbLine
 10
166.8586072943
 20
97.6270708717
 30
0.0
 11
166.8586072943
 21
94.3098740182
 31
0.0
  0
LINE
  5
F0
330
1F
100
AcDbEntity
  8
0
  6
HIDDEN
 62
     7
370
     0
100
AcDbLine
 10
140.5586072674
 20
98.1992950193
 30
0.0
 11
140.5586072674
 21
95.1771756164
 31
0.0
  0
SPLINE
  5
F1
330
1F
100
AcDbEntity
  8
0
  6
HIDDEN
 62
     7
370
     0
100
AcDbSpline
210
0.0
220
0.0
230
1.0
 70
     8
 71
     3
 72
     8
 73
     4
 74
     0
 42
0.00000001
 43
0.00000001
 12
1.0
 22
0.0
 32
0.0
 13
1.0
 23
0.0
 33
0.0
 40
0.0000202082942178
 40
0.0000202082942178
 40
0.0000202082942178
 40
0.0000202082942178
 40
0.0040218803475995
 40
0.0040218803475995
 40
0.0040218803475995
 40
0.0040218803475995
 10
144.5586072823386
 20
95.08510906043685
 30
0.0
 10
143.2252642813517
 20
95.1158621371668
 30
0.0
 10
141.8919304081292
 20
95.14655114865045
 30
0.0
 10
140.5586072823386
 20
95.1771760604638
 30
0.0
  0
SPLINE
  5
F2
330
1F
100
AcDbEntity
  8
0
  6
HIDDEN
 62
     7
370
     0
100
AcDbSpline
210
0.0
220
0.0
230
1.0
 70
     8
 71
     3
 72
    12
 73
     8
 74
     0
 42
0.00000001
 43
0.00000001
 12
1.0
 22
0.0
 32
0.0
 13
1.0
 23
0.0
 33
0.0
 40
0.0
 40
0.0
 40
0.0
 40
0.0
 40
0.0583245778705122
 40
0.2535553028598371
 40
0.5293292863279843
 40
0.8119597681484104
 40
0.9999999999999999
 40
0.9999999999999999
 40
0.9999999999999999
 40
0.9999999999999999
 10
146.4156912139038
 20
94.82586025216469
 30
0.0
 10
146.4243250144071
 20
94.8249579028579
 30
0.0
 10
146.4618588634524
 20
94.82103510632645
 30
0.0
 10
146.1988780591602
 20
94.84829236336223
 30
0.0
 10
145.7057632391365
 20
94.90731808409505
 30
0.0
 10
145.109081012745
 20
94.9918022280129
 30
0.0
 10
144.715749819865
 20
95.05847284787501
 30
0.0
 10
144.5586079230884
 20
95.0851087919701
 30
0.0
  0
SPLINE
  5
F3
330
1F
100
AcDbEntity
  8
0
  6
HIDDEN
 62
     7
370
     0
100
AcDbSpline
210
0.0
220
0.0
230
1.0
 70
     8
 71
     3
 72
    15
 73
    11
 74
     0
 42
0.00000001
 43
0.00000001
 12
1.0
 22
0.0
 32
0.0
 13
1.0
 23
0.0
 33
0.0
 40
0.0
 40
0.0
 40
0.0
 40
0.0
 40
0.1194911902388236
 40
0.2591629481514984
 40
0.4048882018253529
 40
0.5540164354350036
 40
0.7027433663977015
 40
0.84590416810377
 40
0.9792778431130827
 40
1.0
 40
1.0
 40
1.0
 40
1.0
 10
152.5876664987186
 20
94.75518404462227
 30
0.0
 10
152.8221814344638
 20
94.76954832046314
 30
0.0
 10
153.3308179457564
 20
94.80070281869467
 30
0.0
 10
154.3606754240766
 20
94.82566227592481
 30
0.0
 10
155.5291164000555
 20
94.8050697165585
 30
0.0
 10
156.6819018370842
 20
94.73414772182632
 30
0.0
 10
157.6635350446206
 20
94.63385606026391
 30
0.0
 10
158.2853697418703
 20
94.55238734832398
 30
0.0
 10
158.5477193074244
 20
94.51404493161537
 30
0.0
 10
158.4927048599671
 20
94.52193827530164
 30
0.0
 10
158.4853067493418
 20
94.52299973883518
 30
0.0
  0
SPLINE
  5
F4
330
1F
100
AcDbEntity
  8
0
  6
HIDDEN
 62
     7
370
     0
100
AcDbSpline
210
0.0
220
0.0
230
1.0
 70
     8
 71
     3
 72
    10
 73
     6
 74
     0
 42
0.00000001
 43
0.00000001
 12
1.0
 22
0.0
 32
0.0
 13
1.0
 23
0.0
 33
0.0
 40
0.0
 40
0.0
 40
0.0
 40
0.0
 40
0.224112125627521
 40
0.6644880310366768
 40
1.0
 40
1.0
 40
1.0
 40
1.0
 10
151.8217933794836
 20
94.6929772845734
 30
0.0
 10
151.8133761378816
 20
94.69215466098268
 30
0.0
 10
151.7884191825933
 20
94.6897155982655
 30
0.0
 10
152.0745888287611
 20
94.71770898014272
 30
0.0
 10
152.4327774186897
 20
94.74387098501914
 30
0.0
 10
152.5876664987186
 20
94.75518404462227
 30
0.0
  0
LINE
  5
F5
330
1F
100
AcDbEntity
  8
0
  6
HIDDEN
 62
     7
370
     0
100
AcDbLine
 10
168.8586072874
 20
97.1242079041
 30
0.0
 11
168.8586072874
 21
94.2819064013
 31
0.0
  0
LINE
  5
F6
330
1F
100
AcDbEntity
  8
0
  6
HIDDEN
 62
     7
370
     0
100
AcDbLine
 10
144.0866471699
 20
99.9212974212
 30
0.0
 11
144.0866471699
 21
121.4986482165
 31
0.0
  0
LINE
  5
F7
330
1F
100
AcDbEntity
  8
0
  6
HIDDEN
 62
     7
370
     0
100
AcDbLine
 10
140.0866465142
 20
99.5400996409
 30
0.0
 11
140.0866465142
 21
121.8798459969
 31
0.0
  0
LINE
  5
F8
330
1F
100
AcDbEntity
  8
0
  6
HIDDEN
 62
     7
370
     0
100
AcDbLine
 10
139.0586079529
 20
98.9504606924
 30
0.0
 11
139.0586079529
 21
122.4694849453
 31
0.0
  0
LINE
  5
F9
330
1F
100
AcDbEntity
  8
0
  6
HIDDEN
 62
     7
370
     0
100
AcDbLine
 10
148.6866468063
 20
100.2099729604
 30
0.0
 11
148.6866468063
 21
121.2099726773
 31
0.0
  0
LINE
  5
FA
330
1F
100
AcDbEntity
  8
0
  6
HIDDEN
 62
     7
370
     0
100
AcDbLine
 10
142.5866478553
 20
100.2099729604
 30
0.0
 11
142.5866478553
 21
121.2099726773
 31
0.0
  0
LINE
  5
FB
330
1F
100
AcDbEntity
  8
0
  6
HIDDEN
 62
     7
370
     0
100
AcDbLine
 10
143.5866480193
 20
100.2099729604
 30
0.0
 11
143.5866480193
 21
121.2099726773
 31
0.0
  0
LINE
  5
FC
330
1F
100
AcDbEntity
  8
0
  6
HIDDEN
 62
     7
370
     0
100
AcDbLine
 10
159.0586075059
 20
100.7099730424
 30
0.0
 11
159.0586075059
 21
120.7099725954
 31
0.0
  0
SPLINE
  5
FD
330
1F
100
AcDbEntity
  8
0
  6
HIDDEN
 62
     7
370
     0
100
AcDbSpline
210
0.0
220
0.0
230
1.0
 70
     8
 71
     3
 72
    66
 73
    62
 74
     0
 42
0.00000001
 43
0.00000001
 12
1.0
 22
0.0
 32
0.0
 13
1.0
 23
0.0
 33
0.0
 40
-0.0312499999999999
 40
-0.0312499999999999
 40
0.0
 40
0.0
 40
0.0312499999999998
 40
0.0312499999999998
 40
0.0624999999999996
 40
0.0624999999999996
 40
0.0937499999999995
 40
0.0937499999999995
 40
0.1249999999999993
 40
0.1249999999999993
 40
0.1874999999999991
 40
0.1874999999999991
 40
0.218749999999999
 40
0.218749999999999
 40
0.249999999999999
 40
0.249999999999999
 40
0.281249999999999
 40
0.281249999999999
 40
0.3124999999999989
 40
0.3124999999999989
 40
0.3437499999999989
 40
0.3437499999999989
 40
0.3749999999999989
 40
0.3749999999999989
 40
0.4062499999999989
 40
0.4062499999999989
 40
0.4374999999999989
 40
0.4374999999999989
 40
0.4687499999999989
 40
0.4687499999999989
 40
0.4999999999999989
 40
0.4999999999999989
 40
0.5312499999999988
 40
0.5312499999999988
 40
0.5624999999999988
 40
0.5624999999999988
 40
0.5937499999999987
 40
0.5937499999999987
 40
0.6249999999999988
 40
0.6249999999999988
 40
0.656249999999999
 40
0.656249999999999
 40
0.6874999999999991
 40
0.6874999999999991
 40
0.7187499999999993
 40
0.7187499999999993
 40
0.7499999999999994
 40
0.7499999999999994
 40
0.7812499999999996
 40
0.7812499999999996
 40
0.8124999999999998
 40
0.8124999999999998
 40
0.875
 40
0.875
 40
0.9062500000000002
 40
0.9062500000000002
 40
0.9375000000000001
 40
0.9375000000000001
 40
0.9687500000000001
 40
0.9687500000000001
 40
1.0
 40
1.0
 40
1.03125
 40
1.03125
 10
154.8559286353907
 20
100.662709509893
 30
0.0
 10
155.2612859292863
 20
100.662709509893
 30
0.0
 10
155.4603458206222
 20
100.6565774352633
 30
0.0
 10
155.8515998052019
 20
100.6333562226459
 30
0.0
 10
156.0458725639495
 20
100.6159819219084
 30
0.0
 10
156.4146359905008
 20
100.5732685542173
 30
0.0
 10
156.5893611488791
 20
100.5480769341615
 30
0.0
 10
156.9200384524129
 20
100.4930336210157
 30
0.0
 10
157.0756859964158
 20
100.4631480661168
 30
0.0
 10
157.4951533660844
 20
100.375104618555
 30
0.0
 10
157.7220415076147
 20
100.3167148785656
 30
0.0
 10
157.9508381309994
 20
100.2549689227822
 30
0.0
 10
158.0100303858483
 20
100.2382503212675
 30
0.0
 10
158.0888377961088
 20
100.2157662887197
 30
0.0
 10
158.1084772123892
 20
100.2100106010904
 30
0.0
 10
158.1087360768108
 20
100.2099354071537
 30
0.0
 10
158.0886653921779
 20
100.2158152616195
 30
0.0
 10
158.0103277095479
 20
100.2381657079746
 30
0.0
 10
157.9523779415095
 20
100.2545476367109
 30
0.0
 10
157.7984347996295
 20
100.2961040883572
 30
0.0
 10
157.7034961859068
 20
100.3209630326686
 30
0.0
 10
157.4831387700296
 20
100.374865661207
 30
0.0
 10
157.3558587441013
 20
100.4043485456228
 30
0.0
 10
157.0741031527708
 20
100.4634733684966
 30
0.0
 10
156.9213148233133
 20
100.4927911038821
 30
0.0
 10
156.5918877411564
 20
100.5476860792001
 30
0.0
 10
156.4133417380047
 20
100.5734309665008
 30
0.0
 10
156.0457694124545
 20
100.6159813214197
 30
0.0
 10
155.8556153857435
 20
100.6330615313192
 30
0.0
 10
155.462074963041
 20
100.6565303562283
 30
0.0
 10
155.2596408917799
 20
100.662683203448
 30
0.0
 10
154.8602118164145
 20
100.6627356431614
 30
0.0
 10
154.6601928378586
 20
100.6567571704081
 30
0.0
 10
154.2640768904092
 20
100.633282422286
 30
0.0
 10
154.0733440622174
 20
100.6161674538271
 30
0.0
 10
153.7057126216376
 20
100.5736772875924
 30
0.0
 10
153.5272261894699
 20
100.5479786842202
 30
0.0
 10
153.1970209305058
 20
100.4930016196158
 30
0.0
 10
153.0441323524439
 20
100.4636731351806
 30
0.0
 10
152.7625359579058
 20
100.4046105500469
 30
0.0
 10
152.6349050350303
 20
100.3750600245379
 30
0.0
 10
152.4145796000305
 20
100.3211821160185
 30
0.0
 10
152.3203531430651
 20
100.2965213469625
 30
0.0
 10
152.1654186224621
 20
100.2547121120218
 30
0.0
 10
152.1074063368598
 20
100.238312265993
 30
0.0
 10
152.0289870825817
 20
100.2159418360274
 30
0.0
 10
152.0086730026152
 20
100.2099919090489
 30
0.0
 10
152.0085418863111
 20
100.2099538228862
 30
0.0
 10
152.0281665796705
 20
100.2157044913579
 30
0.0
 10
152.1063330300842
 20
100.2380092905741
 30
0.0
 10
152.165620475424
 20
100.2547604045506
 30
0.0
 10
152.394701318507
 20
100.316596522467
 30
0.0
 10
152.6215321694011
 20
100.3749775727648
 30
0.0
 10
153.0408708707218
 20
100.4630179963664
 30
0.0
 10
153.1962238664717
 20
100.4928623400572
 30
0.0
 10
153.5271916996089
 20
100.5479794988763
 30
0.0
 10
153.7017529998053
 20
100.5731473659319
 30
0.0
 10
154.0693263073802
 20
100.6157738131677
 30
0.0
 10
154.2640131690182
 20
100.6332418727624
 30
0.0
 10
154.6564891189547
 20
100.6565741013893
 30
0.0
 10
154.8559286353907
 20
100.662709509893
 30
0.0
 10
155.2612859292863
 20
100.662709509893
 30
0.0
  0
SPLINE
  5
FE
330
1F
100
AcDbEntity
  8
0
  6
HIDDEN
 62
     7
370
     0
100
AcDbSpline
210
0.0
220
0.0
230
1.0
 70
     8
 71
     3
 72
    66
 73
    62
 74
     0
 42
0.00000001
 43
0.00000001
 12
1.0
 22
0.0
 32
0.0
 13
1.0
 23
0.0
 33
0.0
 40
-0.0312500000000002
 40
-0.0312500000000002
 40
0.0
 40
0.0
 40
0.0312499999999999
 40
0.0312499999999999
 40
0.0624999999999997
 40
0.0624999999999997
 40
0.0937499999999996
 40
0.0937499999999996
 40
0.1249999999999995
 40
0.1249999999999995
 40
0.1874999999999992
 40
0.1874999999999992
 40
0.2187499999999991
 40
0.2187499999999991
 40
0.2499999999999989
 40
0.2499999999999989
 40
0.2812499999999988
 40
0.2812499999999988
 40
0.3124999999999987
 40
0.3124999999999987
 40
0.3437499999999986
 40
0.3437499999999986
 40
0.3749999999999984
 40
0.3749999999999984
 40
0.4062499999999983
 40
0.4062499999999983
 40
0.4374999999999984
 40
0.4374999999999984
 40
0.4687499999999984
 40
0.4687499999999984
 40
0.4999999999999986
 40
0.4999999999999986
 40
0.5312499999999987
 40
0.5312499999999987
 40
0.5624999999999988
 40
0.5624999999999988
 40
0.5937499999999988
 40
0.5937499999999988
 40
0.6249999999999989
 40
0.6249999999999989
 40
0.656249999999999
 40
0.656249999999999
 40
0.6874999999999991
 40
0.6874999999999991
 40
0.7187499999999992
 40
0.7187499999999992
 40
0.7499999999999992
 40
0.7499999999999992
 40
0.7812499999999993
 40
0.7812499999999993
 40
0.8124999999999994
 40
0.8124999999999994
 40
0.8749999999999996
 40
0.8749999999999996
 40
0.9062499999999997
 40
0.9062499999999997
 40
0.9374999999999997
 40
0.9374999999999997
 40
0.9687499999999998
 40
0.9687499999999998
 40
1.0
 40
1.0
 40
1.03125
 40
1.03125
 10
155.2612859292863
 20
120.7572361278554
 30
0.0
 10
154.8559286353907
 20
120.7572361278554
 30
0.0
 10
154.6568687440549
 20
120.7633682024851
 30
0.0
 10
154.2656147594751
 20
120.7865894151025
 30
0.0
 10
154.0713420007275
 20
120.80396371584
 30
0.0
 10
153.7025785741762
 20
120.8466770835312
 30
0.0
 10
153.5278534157979
 20
120.8718687035869
 30
0.0
 10
153.1971761122642
 20
120.9269120167327
 30
0.0
 10
153.0415285682613
 20
120.9567975716316
 30
0.0
 10
152.6220611985927
 20
121.0448410191934
 30
0.0
 10
152.3951730570624
 20
121.1032307591828
 30
0.0
 10
152.1663764336776
 20
121.1649767149662
 30
0.0
 10
152.1071841788287
 20
121.181695316481
 30
0.0
 10
152.0283767685682
 20
121.2041793490287
 30
0.0
 10
152.0087373522878
 20
121.2099350366581
 30
0.0
 10
152.0084784878663
 20
121.2100102305947
 30
0.0
 10
152.0285491724992
 20
121.2041303761289
 30
0.0
 10
152.1068868551291
 20
121.1817799297739
 30
0.0
 10
152.1648366231676
 20
121.1653980010375
 30
0.0
 10
152.3187797650476
 20
121.1238415493912
 30
0.0
 10
152.4137183787703
 20
121.0989826050798
 30
0.0
 10
152.6340757946474
 20
121.0450799765414
 30
0.0
 10
152.7613558205757
 20
121.0155970921257
 30
0.0
 10
153.0431114119063
 20
120.9564722692518
 30
0.0
 10
153.1958997413638
 20
120.9271545338663
 30
0.0
 10
153.5253268235207
 20
120.8722595585483
 30
0.0
 10
153.7038728266724
 20
120.8465146712476
 30
0.0
 10
154.0714451522225
 20
120.8039643163287
 30
0.0
 10
154.2615991789336
 20
120.7868841064292
 30
0.0
 10
154.655139601636
 20
120.7634152815201
 30
0.0
 10
154.8575736728972
 20
120.7572624343004
 30
0.0
 10
155.2570027482626
 20
120.757209994587
 30
0.0
 10
155.4570217268185
 20
120.7631884673403
 30
0.0
 10
155.8531376742678
 20
120.7866632154624
 30
0.0
 10
156.0438705024597
 20
120.8037781839214
 30
0.0
 10
156.4115019430394
 20
120.846268350156
 30
0.0
 10
156.5899883752072
 20
120.8719669535282
 30
0.0
 10
156.9201936341712
 20
120.9269440181326
 30
0.0
 10
157.0730822122331
 20
120.9562725025679
 30
0.0
 10
157.3546786067712
 20
121.0153350877015
 30
0.0
 10
157.4823095296468
 20
121.0448856132105
 30
0.0
 10
157.7026349646465
 20
121.0987635217299
 30
0.0
 10
157.7968614216119
 20
121.123424290786
 30
0.0
 10
157.951795942215
 20
121.1652335257266
 30
0.0
 10
158.0098082278172
 20
121.1816333717554
 30
0.0
 10
158.0882274820954
 20
121.204003801721
 30
0.0
 10
158.1085415620619
 20
121.2099537286996
 30
0.0
 10
158.1086726783659
 20
121.2099918148622
 30
0.0
 10
158.0890479850065
 20
121.2042411463905
 30
0.0
 10
158.0108815345929
 20
121.1819363471744
 30
0.0
 10
157.951594089253
 20
121.1651852331978
 30
0.0
 10
157.7225132461701
 20
121.1033491152815
 30
0.0
 10
157.4956823952759
 20
121.0449680649836
 30
0.0
 10
157.0763436939552
 20
120.956927641382
 30
0.0
 10
156.9209906982053
 20
120.9270832976912
 30
0.0
 10
156.5900228650681
 20
120.8719661388722
 30
0.0
 10
156.4154615648717
 20
120.8467982718165
 30
0.0
 10
156.0478882572969
 20
120.8041718245806
 30
0.0
 10
155.8532013956588
 20
120.786703764986
 30
0.0
 10
155.4607254457224
 20
120.7633715363591
 30
0.0
 10
155.2612859292863
 20
120.7572361278554
 30
0.0
 10
154.8559286353907
 20
120.7572361278554
 30
0.0
  0
LINE
  5
FF
330
1F
100
AcDbEntity
  8
0
  6
HIDDEN
 62
     7
370
     0
100
AcDbLine
 10
160.0586076698
 20
103.4599730275
 30
0.0
 11
160.0586076698
 21
117.9599726103
 31
0.0
  0
LINE
  5
100
330
1F
100
AcDbEntity
  8
0
  6
HIDDEN
 62
     7
370
     0
100
AcDbLine
 10
159.0586075059
 20
102.4638853497
 30
0.0
 11
159.0586075059
 21
118.956060288
 31
0.0
  0
LINE
  5
101
330
1F
100
AcDbEntity
  8
0
  6
HIDDEN
 62
     7
370
     0
100
AcDbLine
 10
184.0586069471
 20
103.4599730275
 30
0.0
 11
184.0586069471
 21
117.9599726103
 31
0.0
  0
LINE
  5
102
330
1F
100
AcDbEntity
  8
0
  6
HIDDEN
 62
     7
370
     0
100
AcDbLine
 10
186.3118348142
 20
107.2099727108
 30
0.0
 11
186.3118348142
 21
114.2099729269
 31
0.0
  0
LINE
  5
103
330
1F
100
AcDbEntity
  8
0
  6
HIDDEN
 62
     7
370
     0
100
AcDbLine
 10
166.8586072943
 20
127.9727724842
 30
0.0
 11
166.8586072943
 21
129.3500719122
 31
0.0
  0
LINE
  5
104
330
1F
100
AcDbEntity
  8
0
  6
HIDDEN
 62
     7
370
     0
100
AcDbLine
 10
140.5586072674
 20
127.4005474053
 30
0.0
 11
140.5586072674
 21
128.6893246225
 31
0.0
  0
SPLINE
  5
105
330
1F
100
AcDbEntity
  8
0
  6
HIDDEN
 62
     7
370
     0
100
AcDbSpline
210
0.0
220
0.0
230
1.0
 70
     8
 71
     3
 72
    10
 73
     6
 74
     0
 42
0.00000001
 43
0.00000001
 12
1.0
 22
0.0
 32
0.0
 13
1.0
 23
0.0
 33
0.0
 40
0.0
 40
0.0
 40
0.0
 40
0.0
 40
0.359941185125859
 40
0.7301023657646475
 40
1.0
 40
1.0
 40
1.0
 40
1.0
 10
167.7372869767601
 20
128.2567774406899
 30
0.0
 10
167.6508234229057
 20
128.4469286302859
 30
0.0
 10
167.4754413109658
 20
128.8326300701711
 30
0.0
 10
167.3454035141628
 20
129.1237220418193
 30
0.0
 10
167.3405160126607
 20
129.1346078445258
 30
0.0
 10
167.3384550691003
 20
129.1391981295575
 30
0.0
  0
LINE
  5
106
330
1F
100
AcDbEntity
  8
0
  6
HIDDEN
 62
     7
370
     0
100
AcDbLine
 10
139.0586079529
 20
126.650547748
 30
0.0
 11
139.0586079529
 21
127.8232989363
 31
0.0
  0
LINE
  5
107
330
1F
100
AcDbEntity
  8
0
  6
HIDDEN
 62
     7
370
     0
100
AcDbLine
 10
206.0586077592
 20
107.2099727108
 30
0.0
 11
206.0586077592
 21
114.2099729269
 31
0.0
  0
LINE
  5
108
330
1F
100
AcDbEntity
  8
0
  6
HIDDEN
 62
     7
370
     0
100
AcDbLine
 10
206.3590375206
 20
107.7099727928
 30
0.0
 11
206.3590375206
 21
113.709972845
 31
0.0
  0
LINE
  5
109
330
1F
100
AcDbEntity
  8
0
  6
HIDDEN
 62
     7
370
     0
100
AcDbLine
 10
208.5586091003
 20
94.7099720589
 30
0.0
 11
213.5586080572
 21
94.7099720589
 31
0.0
  0
LINE
  5
10A
330
1F
100
AcDbEntity
  8
0
  6
HIDDEN
 62
     7
370
     0
100
AcDbLine
 10
218.5586070141
 20
94.7099720589
 30
0.0
 11
223.558605971
 21
94.7099720589
 31
0.0
  0
LINE
  5
10B
330
1F
100
AcDbEntity
  8
0
  6
HIDDEN
 62
     7
370
     0
100
AcDbLine
 10
228.5586086532
 20
94.7099720589
 30
0.0
 11
233.5586038849
 21
94.7099720589
 31
0.0
  0
LINE
  5
10C
330
1F
100
AcDbEntity
  8
0
  6
HIDDEN
 62
     7
370
     0
100
AcDbLine
 10
218.5586070141
 20
126.7099735788
 30
0.0
 11
223.558605971
 21
126.7099735788
 31
0.0
  0
LINE
  5
10D
330
1F
100
AcDbEntity
  8
0
  6
HIDDEN
 62
     7
370
     0
100
AcDbLine
 10
208.5586091003
 20
126.7099735788
 30
0.0
 11
213.5586080572
 21
126.7099735788
 31
0.0
  0
LINE
  5
10E
330
1F
100
AcDbEntity
  8
0
  6
HIDDEN
 62
     7
370
     0
100
AcDbLine
 10
228.5586086532
 20
126.7099735788
 30
0.0
 11
233.5586038849
 21
126.7099735788
 31
0.0
  0
LINE
  5
10F
330
1F
100
AcDbEntity
  8
0
  6
HIDDEN
 62
     7
370
     0
100
AcDbLine
 10
152.0086073747
 20
94.9196556113
 30
0.0
 11
158.108607257
 21
94.9196556113
 31
0.0
  0
LINE
  5
110
330
1F
100
AcDbEntity
  8
0
  6
HIDDEN
 62
     7
370
     0
100
AcDbLine
 10
239.0586075804
 20
114.009972801
 30
0.0
 11
239.0586075804
 21
107.4099728368
 31
0.0
  0
LINE
  5
111
330
1F
100
AcDbEntity
  8
0
  6
HIDDEN
 62
     7
370
     0
100
AcDbLine
 10
144.5586079231
 20
95.085108792
 30
0.0
 11
144.5586079231
 21
96.7099723867
 31
0.0
  0
SPLINE
  5
112
330
1F
100
AcDbEntity
  8
0
  6
HIDDEN
 62
     7
370
     0
100
AcDbSpline
210
0.0
220
0.0
230
1.0
 70
     8
 71
     3
 72
     8
 73
     4
 74
     0
 42
0.00000001
 43
0.00000001
 12
1.0
 22
0.0
 32
0.0
 13
1.0
 23
0.0
 33
0.0
 40
0.0
 40
0.0
 40
0.0
 40
0.0
 40
1.0
 40
1.0
 40
1.0
 40
1.0
 10
140.5586072823386
 20
95.1771760604638
 30
0.0
 10
140.0375550398778
 20
95.45220618712051
 30
0.0
 10
139.5328186927762
 20
95.71339296127084
 30
0.0
 10
139.0586072823385
 20
95.95470383522981
 30
0.0
  0
LINE
  5
113
330
1F
100
AcDbEntity
  8
0
  6
HIDDEN
 62
     7
370
     0
100
AcDbLine
 10
139.0586079529
 20
95.9547042377
 30
0.0
 11
139.0586079529
 21
96.7099723867
 31
0.0
  0
LINE
  5
114
330
1F
100
AcDbEntity
  8
0
  6
HIDDEN
 62
     7
370
     0
100
AcDbLine
 10
152.0086073747
 20
124.709973251
 30
0.0
 11
158.108607257
 21
124.709973251
 31
0.0
  0
SPLINE
  5
115
330
1F
100
AcDbEntity
  8
0
  6
HIDDEN
 62
     7
370
     0
100
AcDbSpline
210
0.0
220
0.0
230
1.0
 70
     8
 71
     3
 72
    22
 73
    18
 74
     0
 42
0.00000001
 43
0.00000001
 12
1.0
 22
0.0
 32
0.0
 13
1.0
 23
0.0
 33
0.0
 40
0.0
 40
0.0
 40
0.0
 40
0.0
 40
0.125
 40
0.125
 40
0.25
 40
0.25
 40
0.375
 40
0.375
 40
0.5
 40
0.5
 40
0.625
 40
0.625
 40
0.75
 40
0.75
 40
0.875
 40
0.875
 40
1.0
 40
1.0
 40
1.0
 40
1.0
 10
209.7357316268062
 20
112.8312931624338
 30
0.0
 10
209.566583738763
 20
112.7258109216415
 30
0.0
 10
209.4129098810213
 20
112.6026014495707
 30
0.0
 10
209.1317897173341
 20
112.3155061077302
 30
0.0
 10
209.005508595423
 20
112.1516522653513
 30
0.0
 10
208.7946874435861
 20
111.7908617161769
 30
0.0
 10
208.7079020942097
 20
111.5889436239002
 30
0.0
 10
208.5905162211763
 20
111.1648695889164
 30
0.0
 10
208.5587765268328
 20
110.9367303646797
 30
0.0
 10
208.5584394420843
 20
110.4869625919555
 30
0.0
 10
208.5897468993827
 20
110.2590315900188
 30
0.0
 10
208.7067930558714
 20
109.8338510085094
 30
0.0
 10
208.7932173456241
 20
109.6319991038863
 30
0.0
 10
209.0045721342187
 20
109.2695011926836
 30
0.0
 10
209.1314582786107
 20
109.1048992814583
 30
0.0
 10
209.4117645938451
 20
108.8183931873393
 30
0.0
 10
209.5655631181552
 20
108.6947711848797
 30
0.0
 10
209.7357316268063
 20
108.5886524753146
 30
0.0
  0
SPLINE
  5
116
330
1F
100
AcDbEntity
  8
0
  6
HIDDEN
 62
     7
370
     0
100
AcDbSpline
210
0.0
220
0.0
230
1.0
 70
     8
 71
     3
 72
    60
 73
    56
 74
     0
 42
0.00000001
 43
0.00000001
 12
1.0
 22
0.0
 32
0.0
 13
1.0
 23
0.0
 33
0.0
 40
0.0
 40
0.0
 40
0.0
 40
0.0
 40
0.0625000000000012
 40
0.0625000000000012
 40
0.1250000000000024
 40
0.1250000000000024
 40
0.156250000000003
 40
0.156250000000003
 40
0.1875000000000036
 40
0.1875000000000036
 40
0.2187500000000042
 40
0.2187500000000042
 40
0.2500000000000048
 40
0.2500000000000048
 40
0.2812500000000053
 40
0.2812500000000053
 40
0.3125000000000058
 40
0.3125000000000058
 40
0.3437500000000064
 40
0.3437500000000064
 40
0.3750000000000069
 40
0.3750000000000069
 40
0.4375000000000081
 40
0.4375000000000081
 40
0.468750000000008
 40
0.468750000000008
 40
0.500000000000008
 40
0.500000000000008
 40
0.5312500000000079
 40
0.5312500000000079
 40
0.5625000000000079
 40
0.5625000000000079
 40
0.5937500000000078
 40
0.5937500000000078
 40
0.6250000000000077
 40
0.6250000000000077
 40
0.6875000000000064
 40
0.6875000000000064
 40
0.7187500000000059
 40
0.7187500000000059
 40
0.7500000000000052
 40
0.7500000000000052
 40
0.7812500000000046
 40
0.7812500000000046
 40
0.812500000000004
 40
0.812500000000004
 40
0.8437500000000033
 40
0.8437500000000033
 40
0.8750000000000027
 40
0.8750000000000027
 40
0.9062500000000021
 40
0.9062500000000021
 40
0.9375000000000014
 40
0.9375000000000014
 40
1.0
 40
1.0
 40
1.0
 40
1.0
 10
209.7357316268063
 20
108.5886524753146
 30
0.0
 10
209.5204213934086
 20
108.4543829544411
 30
0.0
 10
209.3296680595419
 20
108.3168958777779
 30
0.0
 10
208.9909649894643
 20
108.0618166563407
 30
0.0
 10
208.8507213003839
 20
107.9493558907538
 30
0.0
 10
208.6929748452279
 20
107.8211533097774
 30
0.0
 10
208.650865516618
 20
107.7864620111039
 30
0.0
 10
208.5887509473552
 20
107.7350971326963
 30
0.0
 10
208.5688245067009
 20
107.7184844409276
 30
0.0
 10
208.5545671222278
 20
107.7066077779617
 30
0.0
 10
208.5597236376653
 20
107.7109188790185
 30
0.0
 10
208.5947944444467
 20
107.7400774057815
 30
0.0
 10
208.6246813314916
 20
107.7648976932949
 30
0.0
 10
208.7053814530619
 20
107.8312328575935
 30
0.0
 10
208.7569701773964
 20
107.8733813666838
 30
0.0
 10
208.8773850934831
 20
107.9701830566938
 30
0.0
 10
208.945970330595
 20
108.0246589679947
 30
0.0
 10
209.098668416631
 20
108.1430610663661
 30
0.0
 10
209.1828172556912
 20
108.2069937687862
 30
0.0
 10
209.3612561652329
 20
108.3377762174414
 30
0.0
 10
209.4561279111615
 20
108.4051210616012
 30
0.0
 10
209.7589426564861
 20
108.6083700753665
 30
0.0
 10
209.9854161799477
 20
108.7474694401578
 30
0.0
 10
210.3610358950011
 20
108.9144155425008
 30
0.0
 10
210.4947180906973
 20
108.963494843372
 30
0.0
 10
210.7701120770707
 20
109.0320443990878
 30
0.0
 10
210.9153578526241
 20
109.0517270111707
 30
0.0
 10
211.2033942725783
 20
109.051593479822
 30
0.0
 10
211.3463372053401
 20
109.0322628615329
 30
0.0
 10
211.6239983401093
 20
108.963092960218
 30
0.0
 10
211.7547554137817
 20
108.914977454659
 30
0.0
 10
212.0054284759934
 20
108.8037051279671
 30
0.0
 10
212.1255426428519
 20
108.7402188831276
 30
0.0
 10
212.3507601301916
 20
108.6096779619338
 30
0.0
 10
212.4569497956092
 20
108.5420810574695
 30
0.0
 10
212.7597919745166
 20
108.3389812592337
 30
0.0
 10
212.9416834511666
 20
108.2026081777999
 30
0.0
 10
213.1681121109299
 20
108.0271131471292
 30
0.0
 10
213.2365012344354
 20
107.97283451158
 30
0.0
 10
213.3574488498842
 20
107.8756516304142
 30
0.0
 10
213.4093669888271
 20
107.8332500826262
 30
0.0
 10
213.490737629539
 20
107.7663830836412
 30
0.0
 10
213.5210249788008
 20
107.7412355712491
 30
0.0
 10
213.5570216983688
 20
107.711310695891
 30
0.0
 10
213.5625849492052
 20
107.7066595942062
 30
0.0
 10
213.549139485712
 20
107.7178603835973
 30
0.0
 10
213.5296139019761
 20
107.7341411509359
 30
0.0
 10
213.4680241259375
 20
107.7850813802341
 30
0.0
 10
213.4260620974634
 20
107.8196600170705
 30
0.0
 10
213.3210905500561
 20
107.9049957552756
 30
0.0
 10
213.2595621572474
 20
107.954546151303
 30
0.0
 10
213.1203788526869
 20
108.064396177143
 30
0.0
 10
213.0420269153638
 20
108.1252303240082
 30
0.0
 10
212.7897180440817
 20
108.3152900077682
 30
0.0
 10
212.59904306086
 20
108.4529799017729
 30
0.0
 10
212.3814829378708
 20
108.5886524753146
 30
0.0
  0
SPLINE
  5
117
330
1F
100
AcDbEntity
  8
0
  6
HIDDEN
 62
     7
370
     0
100
AcDbSpline
210
0.0
220
0.0
230
1.0
 70
     8
 71
     3
 72
    22
 73
    18
 74
     0
 42
0.00000001
 43
0.00000001
 12
1.0
 22
0.0
 32
0.0
 13
1.0
 23
0.0
 33
0.0
 40
0.0
 40
0.0
 40
0.0
 40
0.0
 40
0.125
 40
0.125
 40
0.25
 40
0.25
 40
0.375
 40
0.375
 40
0.5
 40
0.5
 40
0.625
 40
0.625
 40
0.75
 40
0.75
 40
0.875
 40
0.875
 40
1.0
 40
1.0
 40
1.0
 40
1.0
 10
212.3814829378708
 20
108.5886524753146
 30
0.0
 10
212.5499240739495
 20
108.6936939788221
 30
0.0
 10
212.7055288105371
 20
108.8183538406998
 30
0.0
 10
212.9871368631476
 20
109.106430947086
 30
0.0
 10
213.1105571972387
 20
109.2667425626167
 30
0.0
 10
213.3211530386976
 20
109.626322171194
 30
0.0
 10
213.4083098680842
 20
109.8282874161186
 30
0.0
 10
213.5262404268755
 20
110.2525254941744
 30
0.0
 10
213.5582121877155
 20
110.48066215813
 30
0.0
 10
213.5589948126741
 20
110.9305861916741
 30
0.0
 10
213.5278355263048
 20
111.1589591480242
 30
0.0
 10
213.4110357700315
 20
111.5844767095775
 30
0.0
 10
213.3246497298833
 20
111.7866081741151
 30
0.0
 10
213.1133095817901
 20
112.1495180675057
 30
0.0
 10
212.9863622994064
 20
112.3143064026079
 30
0.0
 10
212.7063112405593
 20
112.600792038099
 30
0.0
 10
212.5523380390648
 20
112.7247462871921
 30
0.0
 10
212.3814829378709
 20
112.8312931624338
 30
0.0
  0
SPLINE
  5
118
330
1F
100
AcDbEntity
  8
0
  6
HIDDEN
 62
     7
370
     0
100
AcDbSpline
210
0.0
220
0.0
230
1.0
 70
     8
 71
     3
 72
    58
 73
    54
 74
     0
 42
0.00000001
 43
0.00000001
 12
1.0
 22
0.0
 32
0.0
 13
1.0
 23
0.0
 33
0.0
 40
0.0
 40
0.0
 40
0.0
 40
0.0
 40
0.0312499999999994
 40
0.0312499999999994
 40
0.0624999999999988
 40
0.0624999999999988
 40
0.0937499999999982
 40
0.0937499999999982
 40
0.1249999999999976
 40
0.1249999999999976
 40
0.156249999999997
 40
0.156249999999997
 40
0.1874999999999964
 40
0.1874999999999964
 40
0.2499999999999951
 40
0.2499999999999951
 40
0.2812499999999945
 40
0.2812499999999945
 40
0.3124999999999939
 40
0.3124999999999939
 40
0.3749999999999933
 40
0.3749999999999933
 40
0.4062499999999936
 40
0.4062499999999936
 40
0.4374999999999939
 40
0.4374999999999939
 40
0.4687499999999942
 40
0.4687499999999942
 40
0.4999999999999944
 40
0.4999999999999944
 40
0.5312499999999947
 40
0.5312499999999947
 40
0.562499999999995
 40
0.562499999999995
 40
0.6249999999999956
 40
0.6249999999999956
 40
0.6562499999999958
 40
0.6562499999999958
 40
0.6874999999999961
 40
0.6874999999999961
 40
0.7187499999999963
 40
0.7187499999999963
 40
0.7499999999999967
 40
0.7499999999999967
 40
0.8124999999999972
 40
0.8124999999999972
 40
0.8437499999999974
 40
0.8437499999999974
 40
0.8749999999999978
 40
0.8749999999999978
 40
0.9374999999999989
 40
0.9374999999999989
 40
1.0
 40
1.0
 40
1.0
 40
1.0
 10
212.3814829378709
 20
112.8312931624338
 30
0.0
 10
212.4887021968547
 20
112.8981561178308
 30
0.0
 10
212.5901506109156
 20
112.9662738774055
 30
0.0
 10
212.7829117830249
 20
113.1013104174804
 30
0.0
 10
212.8742294692516
 20
113.1683193530016
 30
0.0
 10
213.0412275212528
 20
113.2941103477216
 30
0.0
 10
213.1177054461405
 20
113.3534703263519
 30
0.0
 10
213.2559958619536
 20
113.4625553142213
 30
0.0
 10
213.3183191435876
 20
113.5127144251443
 30
0.0
 10
213.4233758082375
 20
113.5980851776182
 30
0.0
 10
213.4656447139688
 20
113.6329028777845
 30
0.0
 10
213.5281667234211
 20
113.6846013276215
 30
0.0
 10
213.5481769668551
 20
113.7012837653107
 30
0.0
 10
213.5698907839139
 20
113.7193715432228
 30
0.0
 10
213.5332443826703
 20
113.6885158658802
 30
0.0
 10
213.4122398758313
 20
113.5890453885194
 30
0.0
 10
213.3605289686007
 20
113.5467958765081
 30
0.0
 10
213.2402848048513
 20
113.4501258114782
 30
0.0
 10
213.1716722872725
 20
113.3956210797502
 30
0.0
 10
212.9419846621649
 20
113.2175138093907
 30
0.0
 10
212.7626024678206
 20
113.0829657706114
 30
0.0
 10
212.4590378775103
 20
112.8792076704072
 30
0.0
 10
212.350849476085
 20
112.8103041747539
 30
0.0
 10
212.1246235208801
 20
112.6792093557146
 30
0.0
 10
212.0063715717308
 20
112.6167070663302
 30
0.0
 10
211.755568244468
 20
112.5052814065289
 30
0.0
 10
211.621778267617
 20
112.4562158703085
 30
0.0
 10
211.3463285043863
 20
112.38776504011
 30
0.0
 10
211.2015312362574
 20
112.3680323799319
 30
0.0
 10
210.9098751798717
 20
112.3685431338488
 30
0.0
 10
210.7683379486086
 20
112.3881811030726
 30
0.0
 10
210.4921803310085
 20
112.4572467671265
 30
0.0
 10
210.3593376788675
 20
112.5062158255903
 30
0.0
 10
209.9849616133463
 20
112.6728174041373
 30
0.0
 10
209.7582686266048
 20
112.8120261071816
 30
0.0
 10
209.4564083696339
 20
113.0146372646654
 30
0.0
 10
209.3615498116242
 20
113.0819555963729
 30
0.0
 10
209.182688076981
 20
113.2130451516029
 30
0.0
 10
209.0984741584932
 20
113.2770378767632
 30
0.0
 10
208.946628362185
 20
113.3947737625965
 30
0.0
 10
208.8782744557308
 20
113.4490550949126
 30
0.0
 10
208.758023654
 20
113.5457100265688
 30
0.0
 10
208.7062249544294
 20
113.5880229348578
 30
0.0
 10
208.5849598557137
 20
113.6876919132592
 30
0.0
 10
208.5476887574675
 20
113.7190678944854
 30
0.0
 10
208.5684560865988
 20
113.7017679842433
 30
0.0
 10
208.5880911830504
 20
113.685396595786
 30
0.0
 10
208.6500328209075
 20
113.6341697670343
 30
0.0
 10
208.6920617536496
 20
113.599541493972
 30
0.0
 10
208.8491798373499
 20
113.4718285699345
 30
0.0
 10
208.9916369509346
 20
113.3576279630446
 30
0.0
 10
209.328647909021
 20
113.1038130067057
 30
0.0
 10
209.5191704641793
 20
112.9663427747391
 30
0.0
 10
209.7357316268063
 20
112.8312931624338
 30
0.0
  0
SPLINE
  5
119
330
1F
100
AcDbEntity
  8
0
  6
HIDDEN
 62
     7
370
     0
100
AcDbSpline
210
0.0
220
0.0
230
1.0
 70
     8
 71
     3
 72
    22
 73
    18
 74
     0
 42
0.00000001
 43
0.00000001
 12
1.0
 22
0.0
 32
0.0
 13
1.0
 23
0.0
 33
0.0
 40
0.0
 40
0.0
 40
0.0
 40
0.0
 40
0.125
 40
0.125
 40
0.25
 40
0.25
 40
0.375
 40
0.375
 40
0.5
 40
0.5
 40
0.625
 40
0.625
 40
0.75
 40
0.75
 40
0.875
 40
0.875
 40
1.0
 40
1.0
 40
1.0
 40
1.0
 10
229.7357316268063
 20
112.8312931624339
 30
0.0
 10
229.566583738763
 20
112.7258109216415
 30
0.0
 10
229.4129098810213
 20
112.6026014495707
 30
0.0
 10
229.1317897173341
 20
112.3155061077302
 30
0.0
 10
229.005508595423
 20
112.1516522653513
 30
0.0
 10
228.7946874435861
 20
111.7908617161769
 30
0.0
 10
228.7079020942097
 20
111.5889436239002
 30
0.0
 10
228.5905162211763
 20
111.1648695889164
 30
0.0
 10
228.5587765268329
 20
110.9367303646798
 30
0.0
 10
228.5584394420843
 20
110.4869625919555
 30
0.0
 10
228.5897468993827
 20
110.2590315900188
 30
0.0
 10
228.7067930558713
 20
109.8338510085094
 30
0.0
 10
228.7932173456241
 20
109.6319991038863
 30
0.0
 10
229.0045721342186
 20
109.2695011926836
 30
0.0
 10
229.1314582786107
 20
109.1048992814583
 30
0.0
 10
229.4117645938451
 20
108.8183931873393
 30
0.0
 10
229.5655631181552
 20
108.6947711848797
 30
0.0
 10
229.7357316268063
 20
108.5886524753146
 30
0.0
  0
SPLINE
  5
11A
330
1F
100
AcDbEntity
  8
0
  6
HIDDEN
 62
     7
370
     0
100
AcDbSpline
210
0.0
220
0.0
230
1.0
 70
     8
 71
     3
 72
    60
 73
    56
 74
     0
 42
0.00000001
 43
0.00000001
 12
1.0
 22
0.0
 32
0.0
 13
1.0
 23
0.0
 33
0.0
 40
0.0
 40
0.0
 40
0.0
 40
0.0
 40
0.0624999999999992
 40
0.0624999999999992
 40
0.1249999999999983
 40
0.1249999999999983
 40
0.1562499999999979
 40
0.1562499999999979
 40
0.1874999999999976
 40
0.1874999999999976
 40
0.2187499999999972
 40
0.2187499999999972
 40
0.2499999999999968
 40
0.2499999999999968
 40
0.2812499999999963
 40
0.2812499999999963
 40
0.3124999999999959
 40
0.3124999999999959
 40
0.3437499999999955
 40
0.3437499999999955
 40
0.3749999999999951
 40
0.3749999999999951
 40
0.4374999999999944
 40
0.4374999999999944
 40
0.4687499999999947
 40
0.4687499999999947
 40
0.499999999999995
 40
0.499999999999995
 40
0.5312499999999952
 40
0.5312499999999952
 40
0.562499999999994
 40
0.562499999999994
 40
0.593749999999993
 40
0.593749999999993
 40
0.6249999999999919
 40
0.6249999999999919
 40
0.6874999999999918
 40
0.6874999999999918
 40
0.7187499999999927
 40
0.7187499999999927
 40
0.7499999999999934
 40
0.7499999999999934
 40
0.7812499999999942
 40
0.7812499999999942
 40
0.812499999999995
 40
0.812499999999995
 40
0.8437499999999959
 40
0.8437499999999959
 40
0.8749999999999967
 40
0.8749999999999967
 40
0.9062499999999974
 40
0.9062499999999974
 40
0.9374999999999982
 40
0.9374999999999982
 40
1.0
 40
1.0
 40
1.0
 40
1.0
 10
229.7357316268063
 20
108.5886524753146
 30
0.0
 10
229.5204213934085
 20
108.4543829544411
 30
0.0
 10
229.3296680595419
 20
108.3168958777779
 30
0.0
 10
228.9909649894643
 20
108.0618166563407
 30
0.0
 10
228.8507213003838
 20
107.9493558907538
 30
0.0
 10
228.6929748452279
 20
107.8211533097774
 30
0.0
 10
228.650865516618
 20
107.7864620111039
 30
0.0
 10
228.5887509473552
 20
107.7350971326963
 30
0.0
 10
228.5688245067009
 20
107.7184844409276
 30
0.0
 10
228.5545671222278
 20
107.7066077779617
 30
0.0
 10
228.5597236376653
 20
107.7109188790185
 30
0.0
 10
228.5947944444467
 20
107.7400774057815
 30
0.0
 10
228.6246813314916
 20
107.7648976932949
 30
0.0
 10
228.7053814530619
 20
107.8312328575935
 30
0.0
 10
228.7569701773964
 20
107.8733813666838
 30
0.0
 10
228.877385093483
 20
107.9701830566938
 30
0.0
 10
228.945970330595
 20
108.0246589679947
 30
0.0
 10
229.098668416631
 20
108.1430610663661
 30
0.0
 10
229.1828172556911
 20
108.2069937687862
 30
0.0
 10
229.3612561652328
 20
108.3377762174414
 30
0.0
 10
229.4561279111615
 20
108.4051210616012
 30
0.0
 10
229.7589426564861
 20
108.6083700753665
 30
0.0
 10
229.9854161799477
 20
108.7474694401578
 30
0.0
 10
230.3610358950011
 20
108.9144155425008
 30
0.0
 10
230.4947180906973
 20
108.963494843372
 30
0.0
 10
230.7701120770708
 20
109.0320443990878
 30
0.0
 10
230.9153578526241
 20
109.0517270111707
 30
0.0
 10
231.2033942725783
 20
109.051593479822
 30
0.0
 10
231.3463372053401
 20
109.0322628615329
 30
0.0
 10
231.6239983401092
 20
108.963092960218
 30
0.0
 10
231.7547554137817
 20
108.914977454659
 30
0.0
 10
232.0054284759934
 20
108.8037051279671
 30
0.0
 10
232.1255426428519
 20
108.7402188831276
 30
0.0
 10
232.3507601301916
 20
108.6096779619338
 30
0.0
 10
232.4569497956092
 20
108.5420810574695
 30
0.0
 10
232.7597919745166
 20
108.3389812592337
 30
0.0
 10
232.9416834511666
 20
108.2026081777999
 30
0.0
 10
233.1681121109299
 20
108.0271131471292
 30
0.0
 10
233.2365012344355
 20
107.97283451158
 30
0.0
 10
233.3574488498842
 20
107.8756516304142
 30
0.0
 10
233.4093669888271
 20
107.8332500826262
 30
0.0
 10
233.490737629539
 20
107.7663830836412
 30
0.0
 10
233.5210249788008
 20
107.7412355712491
 30
0.0
 10
233.5570216983688
 20
107.711310695891
 30
0.0
 10
233.5625849492052
 20
107.7066595942062
 30
0.0
 10
233.549139485712
 20
107.7178603835973
 30
0.0
 10
233.5296139019761
 20
107.7341411509359
 30
0.0
 10
233.4680241259375
 20
107.7850813802341
 30
0.0
 10
233.4260620974634
 20
107.8196600170705
 30
0.0
 10
233.321090550056
 20
107.9049957552756
 30
0.0
 10
233.2595621572475
 20
107.954546151303
 30
0.0
 10
233.1203788526869
 20
108.064396177143
 30
0.0
 10
233.0420269153638
 20
108.1252303240082
 30
0.0
 10
232.7897180440817
 20
108.3152900077682
 30
0.0
 10
232.5990430608601
 20
108.4529799017729
 30
0.0
 10
232.3814829378708
 20
108.5886524753146
 30
0.0
  0
SPLINE
  5
11B
330
1F
100
AcDbEntity
  8
0
  6
HIDDEN
 62
     7
370
     0
100
AcDbSpline
210
0.0
220
0.0
230
1.0
 70
     8
 71
     3
 72
    22
 73
    18
 74
     0
 42
0.00000001
 43
0.00000001
 12
1.0
 22
0.0
 32
0.0
 13
1.0
 23
0.0
 33
0.0
 40
0.0
 40
0.0
 40
0.0
 40
0.0
 40
0.125
 40
0.125
 40
0.25
 40
0.25
 40
0.375
 40
0.375
 40
0.5
 40
0.5
 40
0.625
 40
0.625
 40
0.75
 40
0.75
 40
0.875
 40
0.875
 40
1.0
 40
1.0
 40
1.0
 40
1.0
 10
232.3814829378708
 20
108.5886524753146
 30
0.0
 10
232.5499240739495
 20
108.6936939788221
 30
0.0
 10
232.7055288105371
 20
108.8183538406998
 30
0.0
 10
232.9871368631476
 20
109.106430947086
 30
0.0
 10
233.1105571972387
 20
109.2667425626167
 30
0.0
 10
233.3211530386976
 20
109.626322171194
 30
0.0
 10
233.4083098680842
 20
109.8282874161186
 30
0.0
 10
233.5262404268755
 20
110.2525254941744
 30
0.0
 10
233.5582121877155
 20
110.48066215813
 30
0.0
 10
233.5589948126741
 20
110.9305861916741
 30
0.0
 10
233.5278355263048
 20
111.1589591480242
 30
0.0
 10
233.4110357700315
 20
111.5844767095775
 30
0.0
 10
233.3246497298833
 20
111.7866081741151
 30
0.0
 10
233.1133095817901
 20
112.1495180675058
 30
0.0
 10
232.9863622994064
 20
112.3143064026079
 30
0.0
 10
232.7063112405593
 20
112.600792038099
 30
0.0
 10
232.5523380390648
 20
112.7247462871921
 30
0.0
 10
232.3814829378708
 20
112.8312931624339
 30
0.0
  0
SPLINE
  5
11C
330
1F
100
AcDbEntity
  8
0
  6
HIDDEN
 62
     7
370
     0
100
AcDbSpline
210
0.0
220
0.0
230
1.0
 70
     8
 71
     3
 72
    58
 73
    54
 74
     0
 42
0.00000001
 43
0.00000001
 12
1.0
 22
0.0
 32
0.0
 13
1.0
 23
0.0
 33
0.0
 40
0.0
 40
0.0
 40
0.0
 40
0.0
 40
0.0312500000000007
 40
0.0312500000000007
 40
0.0625000000000014
 40
0.0625000000000014
 40
0.093750000000002
 40
0.093750000000002
 40
0.1250000000000027
 40
0.1250000000000027
 40
0.1562500000000034
 40
0.1562500000000034
 40
0.1875000000000041
 40
0.1875000000000041
 40
0.2500000000000053
 40
0.2500000000000053
 40
0.2812500000000054
 40
0.2812500000000054
 40
0.3125000000000056
 40
0.3125000000000056
 40
0.3750000000000059
 40
0.3750000000000059
 40
0.406250000000007
 40
0.406250000000007
 40
0.4375000000000083
 40
0.4375000000000083
 40
0.4687500000000095
 40
0.4687500000000095
 40
0.5000000000000093
 40
0.5000000000000093
 40
0.5312500000000091
 40
0.5312500000000091
 40
0.5625000000000089
 40
0.5625000000000089
 40
0.6250000000000084
 40
0.6250000000000084
 40
0.6562500000000078
 40
0.6562500000000078
 40
0.687500000000007
 40
0.687500000000007
 40
0.7187500000000062
 40
0.7187500000000062
 40
0.7500000000000054
 40
0.7500000000000054
 40
0.8125000000000043
 40
0.8125000000000043
 40
0.8437500000000038
 40
0.8437500000000038
 40
0.8750000000000032
 40
0.8750000000000032
 40
0.9375000000000017
 40
0.9375000000000017
 40
1.0
 40
1.0
 40
1.0
 40
1.0
 10
232.3814829378709
 20
112.8312931624338
 30
0.0
 10
232.4887021968547
 20
112.8981561178308
 30
0.0
 10
232.5901506109157
 20
112.9662738774055
 30
0.0
 10
232.7829117830249
 20
113.1013104174805
 30
0.0
 10
232.8742294692516
 20
113.1683193530016
 30
0.0
 10
233.0412275212528
 20
113.2941103477216
 30
0.0
 10
233.1177054461406
 20
113.3534703263519
 30
0.0
 10
233.2559958619536
 20
113.4625553142213
 30
0.0
 10
233.3183191435876
 20
113.5127144251443
 30
0.0
 10
233.4233758082375
 20
113.5980851776182
 30
0.0
 10
233.4656447139688
 20
113.6329028777845
 30
0.0
 10
233.528166723421
 20
113.6846013276215
 30
0.0
 10
233.5481769668552
 20
113.7012837653107
 30
0.0
 10
233.5698907839139
 20
113.7193715432228
 30
0.0
 10
233.5332443826703
 20
113.6885158658802
 30
0.0
 10
233.4122398758313
 20
113.5890453885194
 30
0.0
 10
233.3605289686007
 20
113.5467958765081
 30
0.0
 10
233.2402848048513
 20
113.4501258114782
 30
0.0
 10
233.1716722872725
 20
113.3956210797502
 30
0.0
 10
232.9419846621649
 20
113.2175138093907
 30
0.0
 10
232.7626024678206
 20
113.0829657706114
 30
0.0
 10
232.4590378775103
 20
112.8792076704072
 30
0.0
 10
232.350849476085
 20
112.8103041747539
 30
0.0
 10
232.1246235208801
 20
112.6792093557146
 30
0.0
 10
232.0063715717309
 20
112.6167070663302
 30
0.0
 10
231.755568244468
 20
112.5052814065289
 30
0.0
 10
231.621778267617
 20
112.4562158703085
 30
0.0
 10
231.3463285043862
 20
112.38776504011
 30
0.0
 10
231.2015312362574
 20
112.3680323799319
 30
0.0
 10
230.9098751798716
 20
112.3685431338488
 30
0.0
 10
230.7683379486086
 20
112.3881811030727
 30
0.0
 10
230.4921803310085
 20
112.4572467671265
 30
0.0
 10
230.3593376788675
 20
112.5062158255903
 30
0.0
 10
229.9849616133463
 20
112.6728174041373
 30
0.0
 10
229.7582686266048
 20
112.8120261071816
 30
0.0
 10
229.4564083696339
 20
113.0146372646654
 30
0.0
 10
229.3615498116241
 20
113.0819555963729
 30
0.0
 10
229.1826880769811
 20
113.2130451516029
 30
0.0
 10
229.0984741584933
 20
113.2770378767632
 30
0.0
 10
228.946628362185
 20
113.3947737625965
 30
0.0
 10
228.8782744557308
 20
113.4490550949126
 30
0.0
 10
228.758023654
 20
113.5457100265688
 30
0.0
 10
228.7062249544294
 20
113.5880229348578
 30
0.0
 10
228.5849598557137
 20
113.6876919132592
 30
0.0
 10
228.5476887574675
 20
113.7190678944854
 30
0.0
 10
228.5684560865988
 20
113.7017679842433
 30
0.0
 10
228.5880911830505
 20
113.685396595786
 30
0.0
 10
228.6500328209075
 20
113.6341697670343
 30
0.0
 10
228.6920617536496
 20
113.599541493972
 30
0.0
 10
228.8491798373499
 20
113.4718285699345
 30
0.0
 10
228.9916369509346
 20
113.3576279630446
 30
0.0
 10
229.328647909021
 20
113.1038130067057
 30
0.0
 10
229.5191704641792
 20
112.9663427747391
 30
0.0
 10
229.7357316268062
 20
112.8312931624338
 30
0.0
  0
SPLINE
  5
11D
330
1F
100
AcDbEntity
  8
0
  6
HIDDEN
 62
     7
370
     0
100
AcDbSpline
210
0.0
220
0.0
230
1.0
 70
     8
 71
     3
 72
    22
 73
    18
 74
     0
 42
0.00000001
 43
0.00000001
 12
1.0
 22
0.0
 32
0.0
 13
1.0
 23
0.0
 33
0.0
 40
0.0
 40
0.0
 40
0.0
 40
0.0
 40
0.125
 40
0.125
 40
0.25
 40
0.25
 40
0.375
 40
0.375
 40
0.5
 40
0.5
 40
0.625
 40
0.625
 40
0.75
 40
0.75
 40
0.875
 40
0.875
 40
1.0
 40
1.0
 40
1.0
 40
1.0
 10
219.7357316268062
 20
112.8312931624338
 30
0.0
 10
219.566583738763
 20
112.7258109216415
 30
0.0
 10
219.4129098810213
 20
112.6026014495707
 30
0.0
 10
219.1317897173341
 20
112.3155061077302
 30
0.0
 10
219.005508595423
 20
112.1516522653513
 30
0.0
 10
218.7946874435861
 20
111.7908617161769
 30
0.0
 10
218.7079020942097
 20
111.5889436239002
 30
0.0
 10
218.5905162211763
 20
111.1648695889164
 30
0.0
 10
218.5587765268329
 20
110.9367303646798
 30
0.0
 10
218.5584394420843
 20
110.4869625919555
 30
0.0
 10
218.5897468993827
 20
110.2590315900188
 30
0.0
 10
218.7067930558713
 20
109.8338510085094
 30
0.0
 10
218.7932173456241
 20
109.6319991038863
 30
0.0
 10
219.0045721342186
 20
109.2695011926836
 30
0.0
 10
219.1314582786107
 20
109.1048992814583
 30
0.0
 10
219.4117645938451
 20
108.8183931873393
 30
0.0
 10
219.5655631181552
 20
108.6947711848797
 30
0.0
 10
219.7357316268063
 20
108.5886524753146
 30
0.0
  0
SPLINE
  5
11E
330
1F
100
AcDbEntity
  8
0
  6
HIDDEN
 62
     7
370
     0
100
AcDbSpline
210
0.0
220
0.0
230
1.0
 70
     8
 71
     3
 72
    60
 73
    56
 74
     0
 42
0.00000001
 43
0.00000001
 12
1.0
 22
0.0
 32
0.0
 13
1.0
 23
0.0
 33
0.0
 40
0.0
 40
0.0
 40
0.0
 40
0.0
 40
0.0625000000000011
 40
0.0625000000000011
 40
0.1250000000000022
 40
0.1250000000000022
 40
0.1562500000000027
 40
0.1562500000000027
 40
0.1875000000000032
 40
0.1875000000000032
 40
0.2187500000000038
 40
0.2187500000000038
 40
0.2500000000000043
 40
0.2500000000000043
 40
0.2812500000000049
 40
0.2812500000000049
 40
0.3125000000000054
 40
0.3125000000000054
 40
0.3437500000000059
 40
0.3437500000000059
 40
0.3750000000000065
 40
0.3750000000000065
 40
0.4375000000000077
 40
0.4375000000000077
 40
0.4687500000000075
 40
0.4687500000000075
 40
0.5000000000000074
 40
0.5000000000000074
 40
0.5312500000000073
 40
0.5312500000000073
 40
0.5625000000000072
 40
0.5625000000000072
 40
0.5937500000000071
 40
0.5937500000000071
 40
0.6250000000000069
 40
0.6250000000000069
 40
0.6875000000000058
 40
0.6875000000000058
 40
0.7187500000000052
 40
0.7187500000000052
 40
0.7500000000000047
 40
0.7500000000000047
 40
0.7812500000000041
 40
0.7812500000000041
 40
0.8125000000000036
 40
0.8125000000000036
 40
0.843750000000003
 40
0.843750000000003
 40
0.8750000000000023
 40
0.8750000000000023
 40
0.9062500000000018
 40
0.9062500000000018
 40
0.9375000000000012
 40
0.9375000000000012
 40
1.0
 40
1.0
 40
1.0
 40
1.0
 10
219.7357316268063
 20
108.5886524753146
 30
0.0
 10
219.5204213934086
 20
108.4543829544411
 30
0.0
 10
219.3296680595419
 20
108.3168958777779
 30
0.0
 10
218.9909649894643
 20
108.0618166563407
 30
0.0
 10
218.8507213003839
 20
107.9493558907538
 30
0.0
 10
218.6929748452279
 20
107.8211533097774
 30
0.0
 10
218.650865516618
 20
107.7864620111039
 30
0.0
 10
218.5887509473552
 20
107.7350971326963
 30
0.0
 10
218.5688245067009
 20
107.7184844409276
 30
0.0
 10
218.5545671222278
 20
107.7066077779617
 30
0.0
 10
218.5597236376653
 20
107.7109188790185
 30
0.0
 10
218.5947944444467
 20
107.7400774057815
 30
0.0
 10
218.6246813314916
 20
107.7648976932949
 30
0.0
 10
218.7053814530619
 20
107.8312328575935
 30
0.0
 10
218.7569701773964
 20
107.8733813666838
 30
0.0
 10
218.8773850934831
 20
107.9701830566938
 30
0.0
 10
218.945970330595
 20
108.0246589679947
 30
0.0
 10
219.098668416631
 20
108.1430610663661
 30
0.0
 10
219.1828172556911
 20
108.2069937687862
 30
0.0
 10
219.3612561652329
 20
108.3377762174414
 30
0.0
 10
219.4561279111615
 20
108.4051210616012
 30
0.0
 10
219.7589426564861
 20
108.6083700753665
 30
0.0
 10
219.9854161799477
 20
108.7474694401578
 30
0.0
 10
220.3610358950011
 20
108.9144155425008
 30
0.0
 10
220.4947180906973
 20
108.963494843372
 30
0.0
 10
220.7701120770708
 20
109.0320443990878
 30
0.0
 10
220.9153578526241
 20
109.0517270111707
 30
0.0
 10
221.2033942725783
 20
109.051593479822
 30
0.0
 10
221.3463372053401
 20
109.0322628615329
 30
0.0
 10
221.6239983401093
 20
108.963092960218
 30
0.0
 10
221.7547554137817
 20
108.914977454659
 30
0.0
 10
222.0054284759934
 20
108.8037051279671
 30
0.0
 10
222.1255426428519
 20
108.7402188831276
 30
0.0
 10
222.3507601301916
 20
108.6096779619338
 30
0.0
 10
222.4569497956092
 20
108.5420810574695
 30
0.0
 10
222.7597919745166
 20
108.3389812592337
 30
0.0
 10
222.9416834511666
 20
108.2026081777999
 30
0.0
 10
223.1681121109299
 20
108.0271131471292
 30
0.0
 10
223.2365012344354
 20
107.97283451158
 30
0.0
 10
223.3574488498842
 20
107.8756516304142
 30
0.0
 10
223.4093669888271
 20
107.8332500826262
 30
0.0
 10
223.490737629539
 20
107.7663830836412
 30
0.0
 10
223.5210249788008
 20
107.7412355712491
 30
0.0
 10
223.5570216983688
 20
107.711310695891
 30
0.0
 10
223.5625849492052
 20
107.7066595942062
 30
0.0
 10
223.549139485712
 20
107.7178603835973
 30
0.0
 10
223.5296139019761
 20
107.7341411509359
 30
0.0
 10
223.4680241259375
 20
107.7850813802341
 30
0.0
 10
223.4260620974635
 20
107.8196600170705
 30
0.0
 10
223.3210905500561
 20
107.9049957552756
 30
0.0
 10
223.2595621572475
 20
107.954546151303
 30
0.0
 10
223.1203788526869
 20
108.064396177143
 30
0.0
 10
223.0420269153638
 20
108.1252303240082
 30
0.0
 10
222.7897180440817
 20
108.3152900077682
 30
0.0
 10
222.5990430608601
 20
108.4529799017729
 30
0.0
 10
222.3814829378708
 20
108.5886524753146
 30
0.0
  0
SPLINE
  5
11F
330
1F
100
AcDbEntity
  8
0
  6
HIDDEN
 62
     7
370
     0
100
AcDbSpline
210
0.0
220
0.0
230
1.0
 70
     8
 71
     3
 72
    22
 73
    18
 74
     0
 42
0.00000001
 43
0.00000001
 12
1.0
 22
0.0
 32
0.0
 13
1.0
 23
0.0
 33
0.0
 40
0.0
 40
0.0
 40
0.0
 40
0.0
 40
0.125
 40
0.125
 40
0.25
 40
0.25
 40
0.375
 40
0.375
 40
0.5
 40
0.5
 40
0.625
 40
0.625
 40
0.75
 40
0.75
 40
0.875
 40
0.875
 40
1.0
 40
1.0
 40
1.0
 40
1.0
 10
222.3814829378708
 20
108.5886524753146
 30
0.0
 10
222.5499240739495
 20
108.6936939788221
 30
0.0
 10
222.7055288105371
 20
108.8183538406998
 30
0.0
 10
222.9871368631476
 20
109.106430947086
 30
0.0
 10
223.1105571972387
 20
109.2667425626167
 30
0.0
 10
223.3211530386976
 20
109.626322171194
 30
0.0
 10
223.4083098680842
 20
109.8282874161186
 30
0.0
 10
223.5262404268755
 20
110.2525254941744
 30
0.0
 10
223.5582121877155
 20
110.48066215813
 30
0.0
 10
223.5589948126741
 20
110.9305861916741
 30
0.0
 10
223.5278355263048
 20
111.1589591480242
 30
0.0
 10
223.4110357700315
 20
111.5844767095775
 30
0.0
 10
223.3246497298833
 20
111.7866081741151
 30
0.0
 10
223.1133095817901
 20
112.1495180675058
 30
0.0
 10
222.9863622994064
 20
112.3143064026079
 30
0.0
 10
222.7063112405592
 20
112.600792038099
 30
0.0
 10
222.5523380390648
 20
112.7247462871921
 30
0.0
 10
222.3814829378708
 20
112.8312931624338
 30
0.0
  0
SPLINE
  5
120
330
1F
100
AcDbEntity
  8
0
  6
HIDDEN
 62
     7
370
     0
100
AcDbSpline
210
0.0
220
0.0
230
1.0
 70
     8
 71
     3
 72
    58
 73
    54
 74
     0
 42
0.00000001
 43
0.00000001
 12
1.0
 22
0.0
 32
0.0
 13
1.0
 23
0.0
 33
0.0
 40
0.0
 40
0.0
 40
0.0
 40
0.0
 40
0.0312499999999995
 40
0.0312499999999995
 40
0.0624999999999989
 40
0.0624999999999989
 40
0.0937499999999984
 40
0.0937499999999984
 40
0.1249999999999979
 40
0.1249999999999979
 40
0.1562499999999974
 40
0.1562499999999974
 40
0.1874999999999968
 40
0.1874999999999968
 40
0.2499999999999957
 40
0.2499999999999957
 40
0.2812499999999951
 40
0.2812499999999951
 40
0.3124999999999945
 40
0.3124999999999945
 40
0.3749999999999941
 40
0.3749999999999941
 40
0.4062499999999945
 40
0.4062499999999945
 40
0.4374999999999948
 40
0.4374999999999948
 40
0.4687499999999952
 40
0.4687499999999952
 40
0.4999999999999954
 40
0.4999999999999954
 40
0.5312499999999958
 40
0.5312499999999958
 40
0.5624999999999961
 40
0.5624999999999961
 40
0.6249999999999968
 40
0.6249999999999968
 40
0.6562499999999971
 40
0.6562499999999971
 40
0.6874999999999974
 40
0.6874999999999974
 40
0.7187499999999978
 40
0.7187499999999978
 40
0.7499999999999981
 40
0.7499999999999981
 40
0.8124999999999989
 40
0.8124999999999989
 40
0.8437499999999992
 40
0.8437499999999992
 40
0.8749999999999996
 40
0.8749999999999996
 40
0.9374999999999998
 40
0.9374999999999998
 40
1.0
 40
1.0
 40
1.0
 40
1.0
 10
222.3814829378708
 20
112.8312931624338
 30
0.0
 10
222.4887021968547
 20
112.8981561178308
 30
0.0
 10
222.5901506109156
 20
112.9662738774055
 30
0.0
 10
222.7829117830249
 20
113.1013104174804
 30
0.0
 10
222.8742294692516
 20
113.1683193530016
 30
0.0
 10
223.0412275212528
 20
113.2941103477216
 30
0.0
 10
223.1177054461406
 20
113.3534703263519
 30
0.0
 10
223.2559958619536
 20
113.4625553142213
 30
0.0
 10
223.3183191435876
 20
113.5127144251443
 30
0.0
 10
223.4233758082375
 20
113.5980851776182
 30
0.0
 10
223.4656447139688
 20
113.6329028777845
 30
0.0
 10
223.528166723421
 20
113.6846013276215
 30
0.0
 10
223.5481769668552
 20
113.7012837653107
 30
0.0
 10
223.5698907839139
 20
113.7193715432228
 30
0.0
 10
223.5332443826703
 20
113.6885158658802
 30
0.0
 10
223.4122398758313
 20
113.5890453885194
 30
0.0
 10
223.3605289686007
 20
113.5467958765081
 30
0.0
 10
223.2402848048513
 20
113.4501258114782
 30
0.0
 10
223.1716722872725
 20
113.3956210797502
 30
0.0
 10
222.9419846621649
 20
113.2175138093907
 30
0.0
 10
222.7626024678206
 20
113.0829657706114
 30
0.0
 10
222.4590378775103
 20
112.8792076704072
 30
0.0
 10
222.3508494760849
 20
112.8103041747539
 30
0.0
 10
222.1246235208801
 20
112.6792093557146
 30
0.0
 10
222.0063715717308
 20
112.6167070663302
 30
0.0
 10
221.755568244468
 20
112.5052814065289
 30
0.0
 10
221.621778267617
 20
112.4562158703085
 30
0.0
 10
221.3463285043862
 20
112.38776504011
 30
0.0
 10
221.2015312362574
 20
112.3680323799319
 30
0.0
 10
220.9098751798717
 20
112.3685431338488
 30
0.0
 10
220.7683379486086
 20
112.3881811030727
 30
0.0
 10
220.4921803310085
 20
112.4572467671265
 30
0.0
 10
220.3593376788675
 20
112.5062158255903
 30
0.0
 10
219.9849616133463
 20
112.6728174041373
 30
0.0
 10
219.7582686266048
 20
112.8120261071816
 30
0.0
 10
219.4564083696339
 20
113.0146372646654
 30
0.0
 10
219.3615498116241
 20
113.0819555963729
 30
0.0
 10
219.182688076981
 20
113.2130451516029
 30
0.0
 10
219.0984741584933
 20
113.2770378767632
 30
0.0
 10
218.946628362185
 20
113.3947737625965
 30
0.0
 10
218.8782744557308
 20
113.4490550949126
 30
0.0
 10
218.758023654
 20
113.5457100265688
 30
0.0
 10
218.7062249544294
 20
113.5880229348578
 30
0.0
 10
218.5849598557137
 20
113.6876919132592
 30
0.0
 10
218.5476887574675
 20
113.7190678944854
 30
0.0
 10
218.5684560865988
 20
113.7017679842433
 30
0.0
 10
218.5880911830504
 20
113.685396595786
 30
0.0
 10
218.6500328209075
 20
113.6341697670343
 30
0.0
 10
218.6920617536496
 20
113.599541493972
 30
0.0
 10
218.8491798373499
 20
113.4718285699345
 30
0.0
 10
218.9916369509346
 20
113.3576279630446
 30
0.0
 10
219.328647909021
 20
113.1038130067057
 30
0.0
 10
219.5191704641792
 20
112.9663427747391
 30
0.0
 10
219.7357316268062
 20
112.8312931624338
 30
0.0
  0
ARC
  5
121
330
1F
100
AcDbEntity
  8
0
  6
HIDDEN
 62
     7
370
     0
100
AcDbCircle
 10
211.0586072823
 20
110.7099728189
 30
0.0
 40
2.500000000000005
100
AcDbArc
 50
238.0519405687
 51
301.9480594313
  0
ARC
  5
122
330
1F
100
AcDbEntity
  8
0
  6
HIDDEN
 62
     7
370
     0
100
AcDbCircle
 10
221.0586072823
 20
110.7099728189
 30
0.0
 40
2.49999999999999
100
AcDbArc
 50
238.0519405687
 51
301.9480594313
  0
ARC
  5
123
330
1F
100
AcDbEntity
  8
0
  6
HIDDEN
 62
     7
370
     0
100
AcDbCircle
 10
231.0586072823
 20
110.7099728189
 30
0.0
 40
2.49999999999999
100
AcDbArc
 50
238.0519405687
 51
301.9480594313
  0
ARC
  5
124
330
1F
100
AcDbEntity
  8
0
  6
HIDDEN
 62
     7
370
     0
100
AcDbCircle
 10
231.0586072823
 20
110.7099728189
 30
0.0
 40
2.499999999999993
100
AcDbArc
 50
58.0519405687
 51
121.9480594313
  0
ARC
  5
125
330
1F
100
AcDbEntity
  8
0
  6
HIDDEN
 62
     7
370
     0
100
AcDbCircle
 10
221.0586072823
 20
110.7099728189
 30
0.0
 40
2.499999999999996
100
AcDbArc
 50
58.0519405687
 51
121.9480594313
  0
ARC
  5
126
330
1F
100
AcDbEntity
  8
0
  6
HIDDEN
 62
     7
370
     0
100
AcDbCircle
 10
211.0586072823
 20
110.7099728189
 30
0.0
 40
2.499999999999996
100
AcDbArc
 50
58.0519405687
 51
121.9480594313
  0
LINE
  5
127
330
1F
100
AcDbEntity
  8
0
  6
HIDDEN
 62
     7
370
     0
100
AcDbLine
 10
179.0586070588
 20
86.2099734596
 30
0.0
 11
183.0586077145
 21
86.2099734596
 31
0.0
  0
LINE
  5
128
330
1F
100
AcDbEntity
  8
0
  6
HIDDEN
 62
     7
370
     0
100
AcDbLine
 10
139.0586079529
 20
98.9492946766
 30
0.0
 11
139.0586079529
 21
95.9547042377
 31
0.0
  0
LINE
  5
129
330
1F
100
AcDbEntity
  8
0
  6
HIDDEN
 62
     7
370
     0
100
AcDbLine
 10
139.0586079529
 20
126.650547748
 30
0.0
 11
139.0586079529
 21
106.5300760321
 31
0.0
  0
LINE
  5
12A
330
1F
100
AcDbEntity
  8
0
  6
HIDDEN
 62
     7
370
     0
100
AcDbLine
 10
140.5586072674
 20
127.4005474053
 30
0.0
 11
140.5586072674
 21
106.5300760321
 31
0.0
  0
LINE
  5
12B
330
1F
100
AcDbEntity
  8
0
  6
HIDDEN
 62
     7
370
     0
100
AcDbLine
 10
166.8586072943
 20
127.9727724842
 30
0.0
 11
166.8586072943
 21
106.5300760321
 31
0.0
  0
LINE
  5
12C
330
1F
100
AcDbEntity
  8
0
  6
HIDDEN
 62
     7
370
     0
100
AcDbLine
 10
168.8586072874
 20
127.5160779706
 30
0.0
 11
168.8586072874
 21
107.4896318834
 31
0.0
  0
LINE
  5
12D
330
1F
100
AcDbEntity
  8
0
  6
HIDDEN
 62
     7
370
     0
100
AcDbLine
 10
139.0586079529
 20
106.5300760321
 30
0.0
 11
139.0586079529
 21
98.9492946766
 31
0.0
  0
LINE
  5
12E
330
1F
100
AcDbEntity
  8
0
  6
HIDDEN
 62
     7
370
     0
100
AcDbLine
 10
140.5586072674
 20
106.5300760321
 30
0.0
 11
140.5586072674
 21
98.1992950193
 31
0.0
  0
LINE
  5
12F
330
1F
100
AcDbEntity
  8
0
  6
HIDDEN
 62
     7
370
     0
100
AcDbLine
 10
166.8586072943
 20
106.5300760321
 30
0.0
 11
166.8586072943
 21
97.6270708717
 31
0.0
  0
SPLINE
  5
130
330
1F
100
AcDbEntity
  8
0
  6
HIDDEN
 62
     7
370
     0
100
AcDbSpline
210
0.0
220
0.0
230
1.0
 70
     8
 71
     3
 72
    18
 73
    14
 74
     0
 42
0.00000001
 43
0.00000001
 12
1.0
 22
0.0
 32
0.0
 13
1.0
 23
0.0
 33
0.0
 40
0.0
 40
0.0
 40
0.0
 40
0.0
 40
0.2499999999999996
 40
0.2499999999999996
 40
0.3749999999999997
 40
0.3749999999999997
 40
0.4999999999999999
 40
0.4999999999999999
 40
0.625
 40
0.625
 40
0.7500000000000001
 40
0.7500000000000001
 40
1.0
 40
1.0
 40
1.0
 40
1.0
 10
167.7372869387789
 20
105.5754908855511
 30
0.0
 10
167.6020013324765
 20
104.8597174661252
 30
0.0
 10
167.5008335862336
 20
104.1589073191587
 30
0.0
 10
167.3979722433647
 20
103.1304959298401
 30
0.0
 10
167.3718693978414
 20
102.7906129715619
 30
0.0
 10
167.3369794142965
 20
102.1228012169327
 30
0.0
 10
167.3283931560066
 20
101.7996094363774
 30
0.0
 10
167.3282934464409
 20
101.1739593715175
 30
0.0
 10
167.3367818175895
 20
100.8715029945075
 30
0.0
 10
167.3709251971101
 20
100.2873530737075
 30
0.0
 10
167.3967221789638
 20
100.004588977013
 30
0.0
 10
167.5001233103518
 20
99.19589417808719
 30
0.0
 10
167.6019813025232
 20
98.71739256599508
 30
0.0
 10
167.7372869387789
 20
98.29765043287385
 30
0.0
  0
CIRCLE
  5
131
330
1F
100
AcDbEntity
  8
0
  6
HIDDEN
 62
     7
370
     0
100
AcDbCircle
 10
221.0586072823
 20
110.7099728189
 30
0.0
 40
2.499999999999986
  0
CIRCLE
  5
132
330
1F
100
AcDbEntity
  8
0
  6
HIDDEN
 62
     7
370
     0
100
AcDbCircle
 10
231.0586072823
 20
110.7099728189
 30
0.0
 40
2.499999999999986
  0
CIRCLE
  5
133
330
1F
100
AcDbEntity
  8
0
  6
HIDDEN
 62
     7
370
     0
100
AcDbCircle
 10
211.0586072823
 20
110.7099728189
 30
0.0
 40
2.5
  0
LINE
  5
134
330
1F
100
AcDbEntity
  8
0
  6
HIDDEN
 62
     7
370
     0
100
AcDbLine
 10
169.0586072823
 20
91.1599734328
 30
0.0
 11
169.1515005028
 21
91.252865409
 31
0.0
  0
LINE
  5
135
330
1F
100
AcDbEntity
  8
0
  6
HIDDEN
 62
     7
370
     0
100
AcDbLine
 10
169.1515005028
 20
130.1670802287
 30
0.0
 11
169.0586072823
 21
130.2599722049
 31
0.0
  0
ARC
  5
136
330
1F
100
AcDbEntity
  8
0
  6
HIDDEN
 62
     7
370
     0
100
AcDbCircle
 10
168.44439372
 20
91.9599728189
 30
0.0
 40
1.0
100
AcDbArc
 50
315.0
 51
0.0
  0
ARC
  5
137
330
1F
100
AcDbEntity
  8
0
  6
HIDDEN
 62
     7
370
     0
100
AcDbCircle
 10
168.44439372
 20
91.9599728189
 30
0.0
 40
1.0
100
AcDbArc
 50
0.0
 51
52.1052014664
  0
ARC
  5
138
330
1F
100
AcDbEntity
  8
0
  6
HIDDEN
 62
     7
370
     0
100
AcDbCircle
 10
168.44439372
 20
129.4599728189
 30
0.0
 40
0.9999999999999998
100
AcDbArc
 50
343.125
 51
45.0
  0
ARC
  5
139
330
1F
100
AcDbEntity
  8
0
  6
HIDDEN
 62
     7
370
     0
100
AcDbCircle
 10
168.44439372
 20
129.4599728189
 30
0.0
 40
0.9999999999999998
100
AcDbArc
 50
307.8947985336
 51
343.125
  0
LINE
  5
13A
330
1F
100
AcDbEntity
  8
0
  6
HIDDEN
 62
     7
370
     0
100
AcDbLine
 10
169.4443937181
 20
91.9599720738
 30
0.0
 11
169.4443937181
 21
129.4599735639
 31
0.0
  0
LINE
  5
13B
330
1F
100
AcDbEntity
  8
0
  6
HIDDEN
 62
     7
370
     0
100
AcDbLine
 10
169.4443937181
 20
91.9599720738
 30
0.0
 11
169.4443937181
 21
129.4599735639
 31
0.0
  0
LINE
  5
13C
330
1F
100
AcDbEntity
  8
0
  6
HIDDEN
 62
     7
370
     0
100
AcDbLine
 10
145.558608087
 20
98.7099727146
 30
0.0
 11
146.565326812
 21
98.7099727146
 31
0.0
  0
LINE
  5
13D
330
1F
100
AcDbEntity
  8
0
  6
HIDDEN
 62
     7
370
     0
100
AcDbLine
 10
146.565326812
 20
122.7099729232
 30
0.0
 11
145.558608087
 21
122.7099729232
 31
0.0
  0
ARC
  5
13E
330
1F
100
AcDbEntity
  8
0
  6
HIDDEN
 62
     7
370
     0
100
AcDbCircle
 10
145.5586072823
 20
100.2099728189
 30
0.0
 40
1.5
100
AcDbArc
 50
191.0958032831
 51
270.0
  0
ARC
  5
13F
330
1F
100
AcDbEntity
  8
0
  6
HIDDEN
 62
     7
370
     0
100
AcDbCircle
 10
145.5586072823
 20
121.2099728189
 30
0.0
 40
1.5
100
AcDbArc
 50
90.0
 51
168.9041967169
  0
ARC
  5
140
330
1F
100
AcDbEntity
  8
0
  6
HIDDEN
 62
     7
370
     0
100
AcDbCircle
 10
146.5653267944
 20
100.2099728189
 30
0.0
 40
1.5
100
AcDbArc
 50
270.0
 51
315.0
  0
ARC
  5
141
330
1F
100
AcDbEntity
  8
0
  6
HIDDEN
 62
     7
370
     0
100
AcDbCircle
 10
146.5653267944
 20
121.2099728189
 30
0.0
 40
1.5
100
AcDbArc
 50
45.0
 51
90.0
  0
LINE
  5
142
330
1F
100
AcDbEntity
  8
0
  6
HIDDEN
 62
     7
370
     0
100
AcDbLine
 10
139.0586079529
 20
98.9465603135
 30
0.0
 11
140.0866465142
 21
99.5400996409
 31
0.0
  0
LINE
  5
143
330
1F
100
AcDbEntity
  8
0
  6
HIDDEN
 62
     7
370
     0
100
AcDbLine
 10
140.0866465142
 20
121.8798459969
 30
0.0
 11
139.0586079529
 21
122.4733853243
 31
0.0
  0
LINE
  5
144
330
1F
100
AcDbEntity
  8
0
  6
HIDDEN
 62
     7
370
     0
100
AcDbLine
 10
147.6259877405
 20
99.1493129633
 30
0.0
 11
148.6866468063
 21
100.2099729604
 31
0.0
  0
LINE
  5
145
330
1F
100
AcDbEntity
  8
0
  6
HIDDEN
 62
     7
370
     0
100
AcDbLine
 10
148.6866468063
 20
121.2099726773
 30
0.0
 11
147.6259877405
 21
122.2706326745
 31
0.0
  0
LINE
  5
146
330
1F
100
AcDbEntity
  8
0
  6
HIDDEN
 62
     7
370
     0
100
AcDbLine
 10
140.0866465142
 20
99.5400996409
 30
0.0
 11
142.5866478553
 21
100.2099729604
 31
0.0
  0
LINE
  5
147
330
1F
100
AcDbEntity
  8
0
  6
HIDDEN
 62
     7
370
     0
100
AcDbLine
 10
142.5866478553
 20
121.2099726773
 30
0.0
 11
140.0866465142
 21
121.8798459969
 31
0.0
  0
LINE
  5
148
330
1F
100
AcDbEntity
  8
0
  6
HIDDEN
 62
     7
370
     0
100
AcDbLine
 10
144.0866471699
 20
121.4986482165
 30
0.0
 11
143.5866480193
 21
121.2099726773
 31
0.0
  0
LINE
  5
149
330
1F
100
AcDbEntity
  8
0
  6
HIDDEN
 62
     7
370
     0
100
AcDbLine
 10
143.5866480193
 20
100.2099729604
 30
0.0
 11
144.0866471699
 21
99.9212974212
 31
0.0
  0
ARC
  5
14A
330
1F
100
AcDbEntity
  8
0
  6
HIDDEN
 62
     7
370
     0
100
AcDbCircle
 10
158.5586072823
 20
100.7099728189
 30
0.0
 40
0.5
100
AcDbArc
 50
270.0
 51
0.0
  0
ARC
  5
14B
330
1F
100
AcDbEntity
  8
0
  6
HIDDEN
 62
     7
370
     0
100
AcDbCircle
 10
158.5586072823
 20
120.7099728189
 30
0.0
 40
0.5
100
AcDbArc
 50
0.0
 51
90.0
  0
LINE
  5
14C
330
1F
100
AcDbEntity
  8
0
  6
HIDDEN
 62
     7
370
     0
100
AcDbLine
 10
158.0736547208
 20
100.2099729604
 30
0.0
 11
158.5586074239
 21
100.2099729604
 31
0.0
  0
LINE
  5
14D
330
1F
100
AcDbEntity
  8
0
  6
HIDDEN
 62
     7
370
     0
100
AcDbLine
 10
148.6866468063
 20
100.2099729604
 30
0.0
 11
152.0314471295
 21
100.2099729604
 31
0.0
  0
LINE
  5
14E
330
1F
100
AcDbEntity
  8
0
  6
HIDDEN
 62
     7
370
     0
100
AcDbLine
 10
152.043559911
 20
121.2099726773
 30
0.0
 11
148.6866468063
 21
121.2099726773
 31
0.0
  0
LINE
  5
14F
330
1F
100
AcDbEntity
  8
0
  6
HIDDEN
 62
     7
370
     0
100
AcDbLine
 10
158.5586074239
 20
121.2099726773
 30
0.0
 11
158.0857675022
 21
121.2099726773
 31
0.0
  0
LINE
  5
150
330
1F
100
AcDbEntity
  8
0
  6
HIDDEN
 62
     7
370
     0
100
AcDbLine
 10
142.5866478553
 20
100.2099729604
 30
0.0
 11
143.5866480193
 21
100.2099729604
 31
0.0
  0
LINE
  5
151
330
1F
100
AcDbEntity
  8
0
  6
HIDDEN
 62
     7
370
     0
100
AcDbLine
 10
143.5866480193
 20
121.2099726773
 30
0.0
 11
142.5866478553
 21
121.2099726773
 31
0.0
  0
LINE
  5
152
330
1F
100
AcDbEntity
  8
0
  6
HIDDEN
 62
     7
370
     0
100
AcDbLine
 10
159.0586075059
 20
102.4599728636
 30
0.0
 11
160.0586076698
 21
103.4599730275
 31
0.0
  0
LINE
  5
153
330
1F
100
AcDbEntity
  8
0
  6
HIDDEN
 62
     7
370
     0
100
AcDbLine
 10
160.0586076698
 20
117.9599726103
 30
0.0
 11
159.0586075059
 21
118.9599727742
 31
0.0
  0
LINE
  5
154
330
1F
100
AcDbEntity
  8
0
  6
HIDDEN
 62
     7
370
     0
100
AcDbLine
 10
160.0586076698
 20
103.4599730275
 30
0.0
 11
184.0586069471
 21
103.4599730275
 31
0.0
  0
LINE
  5
155
330
1F
100
AcDbEntity
  8
0
  6
HIDDEN
 62
     7
370
     0
100
AcDbLine
 10
184.0586069471
 20
117.9599726103
 30
0.0
 11
160.0586076698
 21
117.9599726103
 31
0.0
  0
LINE
  5
156
330
1F
100
AcDbEntity
  8
0
  6
HIDDEN
 62
     7
370
     0
100
AcDbLine
 10
184.0586069471
 20
103.4599730275
 30
0.0
 11
186.3118348142
 21
107.2099727108
 31
0.0
  0
LINE
  5
157
330
1F
100
AcDbEntity
  8
0
  6
HIDDEN
 62
     7
370
     0
100
AcDbLine
 10
186.3118348142
 20
114.2099729269
 30
0.0
 11
184.0586069471
 21
117.9599726103
 31
0.0
  0
LINE
  5
158
330
1F
100
AcDbEntity
  8
0
  6
HIDDEN
 62
     7
370
     0
100
AcDbLine
 10
186.3118348142
 20
107.2099727108
 30
0.0
 11
206.0586077592
 21
107.2099727108
 31
0.0
  0
LINE
  5
159
330
1F
100
AcDbEntity
  8
0
  6
HIDDEN
 62
     7
370
     0
100
AcDbLine
 10
206.0586077592
 20
114.2099729269
 30
0.0
 11
186.3118348142
 21
114.2099729269
 31
0.0
  0
LINE
  5
15A
330
1F
100
AcDbEntity
  8
0
  6
HIDDEN
 62
     7
370
     0
100
AcDbLine
 10
206.0586077592
 20
107.2099727108
 30
0.0
 11
206.3590375206
 21
107.7099727928
 31
0.0
  0
LINE
  5
15B
330
1F
100
AcDbEntity
  8
0
  6
HIDDEN
 62
     7
370
     0
100
AcDbLine
 10
206.3590375206
 20
113.709972845
 30
0.0
 11
206.0586077592
 21
114.2099729269
 31
0.0
  0
LINE
  5
15C
330
1F
100
AcDbEntity
  8
0
  6
HIDDEN
 62
     7
370
     0
100
AcDbLine
 10
214.5586063585
 20
93.709971895
 30
0.0
 11
213.5586080572
 21
94.7099720589
 31
0.0
  0
LINE
  5
15D
330
1F
100
AcDbEntity
  8
0
  6
HIDDEN
 62
     7
370
     0
100
AcDbLine
 10
208.5586091003
 20
94.7099720589
 30
0.0
 11
207.5586070737
 21
93.709971895
 31
0.0
  0
LINE
  5
15E
330
1F
100
AcDbEntity
  8
0
  6
HIDDEN
 62
     7
370
     0
100
AcDbLine
 10
224.5586079976
 20
93.709971895
 30
0.0
 11
223.558605971
 21
94.7099720589
 31
0.0
  0
LINE
  5
15F
330
1F
100
AcDbEntity
  8
0
  6
HIDDEN
 62
     7
370
     0
100
AcDbLine
 10
218.5586070141
 20
94.7099720589
 30
0.0
 11
217.5586087128
 21
93.709971895
 31
0.0
  0
LINE
  5
160
330
1F
100
AcDbEntity
  8
0
  6
HIDDEN
 62
     7
370
     0
100
AcDbLine
 10
234.5586059114
 20
93.709971895
 30
0.0
 11
233.5586038849
 21
94.7099720589
 31
0.0
  0
LINE
  5
161
330
1F
100
AcDbEntity
  8
0
  6
HIDDEN
 62
     7
370
     0
100
AcDbLine
 10
228.5586086532
 20
94.7099720589
 30
0.0
 11
227.5586066267
 21
93.709971895
 31
0.0
  0
LINE
  5
162
330
1F
100
AcDbEntity
  8
0
  6
HIDDEN
 62
     7
370
     0
100
AcDbLine
 10
217.5586087128
 20
127.7099737427
 30
0.0
 11
218.5586070141
 21
126.7099735788
 31
0.0
  0
LINE
  5
163
330
1F
100
AcDbEntity
  8
0
  6
HIDDEN
 62
     7
370
     0
100
AcDbLine
 10
223.558605971
 20
126.7099735788
 30
0.0
 11
224.5586079976
 21
127.7099737427
 31
0.0
  0
LINE
  5
164
330
1F
100
AcDbEntity
  8
0
  6
HIDDEN
 62
     7
370
     0
100
AcDbLine
 10
207.5586070737
 20
127.7099737427
 30
0.0
 11
208.5586091003
 21
126.7099735788
 31
0.0
  0
LINE
  5
165
330
1F
100
AcDbEntity
  8
0
  6
HIDDEN
 62
     7
370
     0
100
AcDbLine
 10
213.5586080572
 20
126.7099735788
 30
0.0
 11
214.5586063585
 21
127.7099737427
 31
0.0
  0
LINE
  5
166
330
1F
100
AcDbEntity
  8
0
  6
HIDDEN
 62
     7
370
     0
100
AcDbLine
 10
227.5586066267
 20
127.7099737427
 30
0.0
 11
228.5586086532
 21
126.7099735788
 31
0.0
  0
LINE
  5
167
330
1F
100
AcDbEntity
  8
0
  6
HIDDEN
 62
     7
370
     0
100
AcDbLine
 10
233.5586038849
 20
126.7099735788
 30
0.0
 11
234.5586059114
 21
127.7099737427
 31
0.0
  0
LINE
  5
168
330
1F
100
AcDbEntity
  8
0
  6
HIDDEN
 62
     7
370
     0
100
AcDbLine
 10
158.4953454754
 20
94.5329164616
 30
0.0
 11
158.108607257
 21
94.9196556113
 31
0.0
  0
LINE
  5
169
330
1F
100
AcDbEntity
  8
0
  6
HIDDEN
 62
     7
370
     0
100
AcDbLine
 10
152.0086073747
 20
94.9196556113
 30
0.0
 11
151.8018612137
 21
94.7129094503
 31
0.0
  0
ARC
  5
16A
330
1F
100
AcDbEntity
  8
0
  6
HIDDEN
 62
     7
370
     0
100
AcDbCircle
 10
238.7586072823
 20
114.0099728189
 30
0.0
 40
0.3000000000000114
100
AcDbArc
 50
270.0
 51
0.0
  0
ARC
  5
16B
330
1F
100
AcDbEntity
  8
0
  6
HIDDEN
 62
     7
370
     0
100
AcDbCircle
 10
238.7586072823
 20
107.4099728189
 30
0.0
 40
0.2999999999999972
100
AcDbArc
 50
0.0
 51
90.0
  0
LINE
  5
16C
330
1F
100
AcDbEntity
  8
0
  6
HIDDEN
 62
     7
370
     0
100
AcDbLine
 10
146.4292456827
 20
94.8393346272
 30
0.0
 11
144.5586079231
 21
96.7099723867
 31
0.0
  0
LINE
  5
16D
330
1F
100
AcDbEntity
  8
0
  6
HIDDEN
 62
     7
370
     0
100
AcDbLine
 10
144.5586079231
 20
96.7099723867
 30
0.0
 11
139.0586079529
 21
96.7099723867
 31
0.0
  0
LINE
  5
16E
330
1F
100
AcDbEntity
  8
0
  6
HIDDEN
 62
     7
370
     0
100
AcDbLine
 10
158.108607257
 20
94.9196556113
 30
0.0
 11
158.108607257
 21
100.2199781589
 31
0.0
  0
LINE
  5
16F
330
1F
100
AcDbEntity
  8
0
  6
HIDDEN
 62
     7
370
     0
100
AcDbLine
 10
152.0086073747
 20
100.2164409957
 30
0.0
 11
152.0086073747
 21
94.9196556113
 31
0.0
  0
LINE
  5
170
330
1F
100
AcDbEntity
  8
0
  6
HIDDEN
 62
     7
370
     0
100
AcDbLine
 10
158.108607257
 20
124.709973251
 30
0.0
 11
155.0586068502
 21
126.5425981484
 31
0.0
  0
LINE
  5
171
330
1F
100
AcDbEntity
  8
0
  6
HIDDEN
 62
     7
370
     0
100
AcDbLine
 10
155.0586068502
 20
126.5425981484
 30
0.0
 11
152.0086073747
 21
124.709973251
 31
0.0
  0
LINE
  5
172
330
1F
100
AcDbEntity
  8
0
  6
HIDDEN
 62
     7
370
     0
100
AcDbLine
 10
158.108607257
 20
121.203504642
 30
0.0
 11
158.108607257
 21
124.709973251
 31
0.0
  0
LINE
  5
173
330
1F
100
AcDbEntity
  8
0
  6
HIDDEN
 62
     7
370
     0
100
AcDbLine
 10
152.0086073747
 20
124.709973251
 30
0.0
 11
152.0086073747
 21
121.1999674789
 31
0.0
  0
LINE
  5
174
330
1F
100
AcDbEntity
  8
0
  6
HIDDEN
 62
     7
370
     0
100
AcDbLine
 10
208.5826558492
 20
113.709972845
 30
0.0
 11
206.3590375206
 21
113.709972845
 31
0.0
  0
LINE
  5
175
330
1F
100
AcDbEntity
  8
0
  6
HIDDEN
 62
     7
370
     0
100
AcDbLine
 10
218.5826574883
 20
113.709972845
 30
0.0
 11
213.5341440758
 21
113.709972845
 31
0.0
  0
LINE
  5
176
330
1F
100
AcDbEntity
  8
0
  6
HIDDEN
 62
     7
370
     0
100
AcDbLine
 10
228.5826554021
 20
113.709972845
 30
0.0
 11
223.5341457149
 21
113.709972845
 31
0.0
  0
LINE
  5
177
330
1F
100
AcDbEntity
  8
0
  6
HIDDEN
 62
     7
370
     0
100
AcDbLine
 10
238.7586099526
 20
113.709972845
 30
0.0
 11
233.5341436288
 21
113.709972845
 31
0.0
  0
LINE
  5
178
330
1F
100
AcDbEntity
  8
0
  6
HIDDEN
 62
     7
370
     0
100
AcDbLine
 10
233.5341436288
 20
107.7099727928
 30
0.0
 11
238.7586099526
 21
107.7099727928
 31
0.0
  0
LINE
  5
179
330
1F
100
AcDbEntity
  8
0
  6
HIDDEN
 62
     7
370
     0
100
AcDbLine
 10
223.5341457149
 20
107.7099727928
 30
0.0
 11
228.5826554021
 21
107.7099727928
 31
0.0
  0
LINE
  5
17A
330
1F
100
AcDbEntity
  8
0
  6
HIDDEN
 62
     7
370
     0
100
AcDbLine
 10
213.5341440758
 20
107.7099727928
 30
0.0
 11
218.5826574883
 21
107.7099727928
 31
0.0
  0
LINE
  5
17B
330
1F
100
AcDbEntity
  8
0
  6
HIDDEN
 62
     7
370
     0
100
AcDbLine
 10
206.3590375206
 20
107.7099727928
 30
0.0
 11
208.5826558492
 21
107.7099727928
 31
0.0
  0
LINE
  5
17C
330
1F
100
AcDbEntity
  8
0
  6
HIDDEN
 62
     7
370
     0
100
AcDbLine
 10
213.5586080572
 20
94.7099720589
 30
0.0
 11
213.5586080572
 21
107.7303266148
 31
0.0
  0
LINE
  5
17D
330
1F
100
AcDbEntity
  8
0
  6
HIDDEN
 62
     7
370
     0
100
AcDbLine
 10
208.5586091003
 20
107.7299815598
 30
0.0
 11
208.5586091003
 21
94.7099720589
 31
0.0
  0
LINE
  5
17E
330
1F
100
AcDbEntity
  8
0
  6
HIDDEN
 62
     7
370
     0
100
AcDbLine
 10
223.558605971
 20
94.7099720589
 30
0.0
 11
223.558605971
 21
107.7303266148
 31
0.0
  0
LINE
  5
17F
330
1F
100
AcDbEntity
  8
0
  6
HIDDEN
 62
     7
370
     0
100
AcDbLine
 10
218.5586070141
 20
107.7299815598
 30
0.0
 11
218.5586070141
 21
94.7099720589
 31
0.0
  0
LINE
  5
180
330
1F
100
AcDbEntity
  8
0
  6
HIDDEN
 62
     7
370
     0
100
AcDbLine
 10
233.5586038849
 20
94.7099720589
 30
0.0
 11
233.5586038849
 21
107.7303266148
 31
0.0
  0
LINE
  5
181
330
1F
100
AcDbEntity
  8
0
  6
HIDDEN
 62
     7
370
     0
100
AcDbLine
 10
228.5586086532
 20
107.7299815598
 30
0.0
 11
228.5586086532
 21
94.7099720589
 31
0.0
  0
LINE
  5
182
330
1F
100
AcDbEntity
  8
0
  6
HIDDEN
 62
     7
370
     0
100
AcDbLine
 10
228.5586086532
 20
126.7099735788
 30
0.0
 11
228.5586086532
 21
113.6899640779
 31
0.0
  0
LINE
  5
183
330
1F
100
AcDbEntity
  8
0
  6
HIDDEN
 62
     7
370
     0
100
AcDbLine
 10
233.5586038849
 20
113.6896190229
 30
0.0
 11
233.5586038849
 21
126.7099735788
 31
0.0
  0
LINE
  5
184
330
1F
100
AcDbEntity
  8
0
  6
HIDDEN
 62
     7
370
     0
100
AcDbLine
 10
218.5586070141
 20
126.7099735788
 30
0.0
 11
218.5586070141
 21
113.6899640779
 31
0.0
  0
LINE
  5
185
330
1F
100
AcDbEntity
  8
0
  6
HIDDEN
 62
     7
370
     0
100
AcDbLine
 10
223.558605971
 20
113.6896190229
 30
0.0
 11
223.558605971
 21
126.7099735788
 31
0.0
  0
LINE
  5
186
330
1F
100
AcDbEntity
  8
0
  6
HIDDEN
 62
     7
370
     0
100
AcDbLine
 10
208.5586091003
 20
126.7099735788
 30
0.0
 11
208.5586091003
 21
113.6899640779
 31
0.0
  0
LINE
  5
187
330
1F
100
AcDbEntity
  8
0
  6
HIDDEN
 62
     7
370
     0
100
AcDbLine
 10
213.5586080572
 20
113.6896190229
 30
0.0
 11
213.5586080572
 21
126.7099735788
 31
0.0
  0
LINE
  5
188
330
1F
100
AcDbEntity
  8
0
  6
HIDDEN
 62
     7
370
     0
100
AcDbLine
 10
179.0586070588
 20
86.2099734596
 30
0.0
 11
179.0586070588
 21
85.7099724463
 31
0.0
  0
LINE
  5
189
330
1F
100
AcDbEntity
  8
0
  6
HIDDEN
 62
     7
370
     0
100
AcDbLine
 10
183.0586077145
 20
85.7099724463
 30
0.0
 11
183.0586077145
 21
86.2099734596
 31
0.0
  0
LINE
  5
18A
330
1F
100
AcDbEntity
  8
0
  6
HIDDEN
 62
     7
370
     0
100
AcDbLine
 10
183.0586077145
 20
86.2099734596
 30
0.0
 11
181.0586073866
 21
87.4116943679
 31
0.0
  0
LINE
  5
18B
330
1F
100
AcDbEntity
  8
0
  6
HIDDEN
 62
     7
370
     0
100
AcDbLine
 10
181.0586073866
 20
87.4116943679
 30
0.0
 11
179.0586070588
 21
86.2099734596
 31
0.0
  0
DIMENSION
  5
18C
330
1F
100
AcDbEntity
  8
VERMASSUNG
100
AcDbDimension
  2
_D
 10
257.4891168433
 20
93.7099728189
 30
0.0
 11
257.4891168433
 21
110.9711952616
 31
0.0
 70
   160
  1
%%c<>
 71
     2
 42
-1.0
  3
SLDDIMSTYLE0
100
AcDbAlignedDimension
 13
238.0586072823
 23
127.7099728189
 33
0.0
 14
238.0586072823
 24
93.7099728189
 34
0.0
 50
90.0
100
AcDbRotatedDimension
  0
DIMENSION
  5
198
330
1F
100
AcDbEntity
  8
VERMASSUNG
100
AcDbDimension
  2
_D_1
 10
249.0586072823
 20
107.7099728189
 30
0.0
 11
249.0586072823
 21
110.9711952616
 31
0.0
 70
   160
  1
%%c<>
 71
     2
 42
-1.0
  3
SLDDIMSTYLE1
100
AcDbAlignedDimension
 13
238.7586072823
 23
113.7099728189
 33
0.0
 14
238.7586072823
 24
107.7099728189
 34
0.0
 50
90.0
100
AcDbRotatedDimension
  0
DIMENSION
  5
1A6
330
1F
100
AcDbEntity
  8
VERMASSUNG
100
AcDbDimension
  2
_D_2
 10
169.0586072823
 20
142.7151781139
 30
0.0
 11
205.2548210708
 21
142.7151781139
 31
0.0
 70
   160
  1
<>
 71
     2
 42
-1.0
  3
SLDDIMSTYLE0
100
AcDbAlignedDimension
 13
239.0586072823
 23
126.7099728189
 33
0.0
 14
169.0586072823
 24
135.4099728189
 34
0.0
100
AcDbRotatedDimension
  0
DIMENSION
  5
1B0
330
1F
100
AcDbEntity
  8
VERMASSUNG
100
AcDbDimension
  2
_D_3
 10
239.0586072823
 20
147.0367420496
 30
0.0
 11
192.4190300226
 21
147.0367420496
 31
0.0
 70
   160
  1
<>
 71
     2
 42
-1.0
  3
SLDDIMSTYLE0
100
AcDbAlignedDimension
 13
139.0586072823
 23
126.650547738
 33
0.0
 14
239.0586072823
 24
126.7099728189
 34
0.0
100
AcDbRotatedDimension
  0
DIMENSION
  5
1BA
330
1F
100
AcDbEntity
  8
VERMASSUNG
100
AcDbDimension
  2
_D_4
 10
129.0586072823
 20
85.7099728189
 30
0.0
 11
129.0586072823
 21
110.9711952616
 31
0.0
 70
   160
  1
PSC%%c<>
 71
     2
 42
-1.0
  3
SLDDIMSTYLE0
100
AcDbAlignedDimension
 13
169.3586072823
 23
135.7099728189
 33
0.0
 14
169.3586072823
 24
85.7099728189
 34
0.0
 50
90.0
100
AcDbRotatedDimension
  0
LINE
  5
1C6
330
1F
100
AcDbEntity
  8
VERMASSUNG
  6
CENTERX2
370
     0
100
AcDbLine
 10
136.1494716996
 20
110.7099728189
 30
0.0
 11
241.262925676
 21
110.7099728189
 31
0.0
  0
LINE
  5
1C7
330
1F
100
AcDbEntity
  8
0
  6
Continuous
 62
     7
370
    15
100
AcDbLine
 10
74.1445496499
 20
127.4664124004
 30
0.0
 11
73.7226896274
 21
127.7099737427
 31
0.0
  0
LINE
  5
1C8
330
1F
100
AcDbEntity
  8
0
  6
Continuous
 62
     7
370
    15
100
AcDbLine
 10
68.831689405
 20
127.7099737427
 30
0.0
 11
68.4098293825
 21
127.4664124004
 31
0.0
  0
LINE
  5
1C9
330
1F
100
AcDbEntity
  8
0
  6
Continuous
 62
     7
370
    15
100
AcDbLine
 10
68.4098293825
 20
93.9535332374
 30
0.0
 11
68.831689405
 21
93.709971895
 31
0.0
  0
LINE
  5
1CA
330
1F
100
AcDbEntity
  8
0
  6
Continuous
 62
     7
370
    15
100
AcDbLine
 10
73.7226896274
 20
93.709971895
 30
0.0
 11
74.1445496499
 21
93.9535332374
 31
0.0
  0
LINE
  5
1CB
330
1F
100
AcDbEntity
  8
0
  6
Continuous
 62
     7
370
    15
100
AcDbLine
 10
88.0336290977
 20
107.8426126852
 30
0.0
 11
88.2771904401
 21
108.2644727077
 31
0.0
  0
LINE
  5
1CC
330
1F
100
AcDbEntity
  8
0
  6
Continuous
 62
     7
370
    15
100
AcDbLine
 10
88.2771904401
 20
113.1554729301
 30
0.0
 11
88.0336290977
 21
113.5773329526
 31
0.0
  0
LINE
  5
1CD
330
1F
100
AcDbEntity
  8
0
  6
Continuous
 62
     7
370
    15
100
AcDbLine
 10
68.831689405
 20
127.7099737427
 30
0.0
 11
73.7226896274
 21
127.7099737427
 31
0.0
  0
LINE
  5
1CE
330
1F
100
AcDbEntity
  8
0
  6
Continuous
 62
     7
370
    15
100
AcDbLine
 10
73.7226896274
 20
93.709971895
 30
0.0
 11
68.831689405
 21
93.709971895
 31
0.0
  0
LINE
  5
1CF
330
1F
100
AcDbEntity
  8
0
  6
Continuous
 62
     7
370
    15
100
AcDbLine
 10
88.2771904401
 20
113.1554729301
 30
0.0
 11
88.2771904401
 21
108.2644727077
 31
0.0
  0
CIRCLE
  5
1D0
330
1F
100
AcDbEntity
  8
0
  6
Continuous
 62
     7
370
    15
100
AcDbCircle
 10
71.2771895162
 20
110.7099728189
 30
0.0
 40
17.0
  0
CIRCLE
  5
1D1
330
1F
100
AcDbEntity
  8
0
  6
Continuous
 62
     7
370
    15
100
AcDbCircle
 10
71.2771895162
 20
110.7099728189
 30
0.0
 40
2.999999999999986
  0
CIRCLE
  5
1D2
330
1F
100
AcDbEntity
  8
0
  6
Continuous
 62
     7
370
    15
100
AcDbCircle
 10
71.2771895162
 20
110.7099728189
 30
0.0
 40
24.99999999999999
  0
LINE
  5
1D3
330
1F
100
AcDbEntity
  8
0
  6
HIDDEN
 62
     7
370
     0
100
AcDbLine
 10
74.2771895423
 20
118.7099731989
 30
0.0
 11
68.2771894901
 21
118.7099731989
 31
0.0
  0
LINE
  5
1D4
330
1F
100
AcDbEntity
  8
0
  6
HIDDEN
 62
     7
370
     0
100
AcDbLine
 10
73.2771896112
 20
117.7099730349
 30
0.0
 11
69.2771894212
 21
117.7099730349
 31
0.0
  0
LINE
  5
1D5
330
1F
100
AcDbEntity
  8
0
  6
HIDDEN
 62
     7
370
     0
100
AcDbLine
 10
74.2771895423
 20
127.3898316077
 30
0.0
 11
68.2771894901
 21
127.3898316077
 31
0.0
  0
LINE
  5
1D6
330
1F
100
AcDbEntity
  8
0
  6
HIDDEN
 62
     7
370
     0
100
AcDbLine
 10
73.7226896274
 20
127.7099737427
 30
0.0
 11
68.831689405
 21
127.7099737427
 31
0.0
  0
LINE
  5
1D7
330
1F
100
AcDbEntity
  8
0
  6
HIDDEN
 62
     7
370
     0
100
AcDbLine
 10
72.1432149114
 20
127.7099737427
 30
0.0
 11
73.0092403067
 21
127.7099737427
 31
0.0
  0
LINE
  5
1D8
330
1F
100
AcDbEntity
  8
0
  6
HIDDEN
 62
     7
370
     0
100
AcDbLine
 10
72.1432149114
 20
124.2099731691
 30
0.0
 11
73.0092403067
 21
124.2099731691
 31
0.0
  0
LINE
  5
1D9
330
1F
100
AcDbEntity
  8
0
  6
HIDDEN
 62
     7
370
     0
100
AcDbLine
 10
70.411164121
 20
124.2099731691
 30
0.0
 11
72.1432149114
 21
124.2099731691
 31
0.0
  0
LINE
  5
1DA
330
1F
100
AcDbEntity
  8
0
  6
HIDDEN
 62
     7
370
     0
100
AcDbLine
 10
72.1432149114
 20
124.2099731691
 30
0.0
 11
72.1432149114
 21
127.7099737427
 31
0.0
  0
LINE
  5
1DB
330
1F
100
AcDbEntity
  8
0
  6
HIDDEN
 62
     7
370
     0
100
AcDbLine
 10
70.411164121
 20
127.7099737427
 30
0.0
 11
72.1432149114
 21
127.7099737427
 31
0.0
  0
LINE
  5
1DC
330
1F
100
AcDbEntity
  8
0
  6
HIDDEN
 62
     7
370
     0
100
AcDbLine
 10
70.411164121
 20
124.2099731691
 30
0.0
 11
70.411164121
 21
127.7099737427
 31
0.0
  0
LINE
  5
1DD
330
1F
100
AcDbEntity
  8
0
  6
HIDDEN
 62
     7
370
     0
100
AcDbLine
 10
70.411164121
 20
124.2099731691
 30
0.0
 11
69.5451387258
 21
124.2099731691
 31
0.0
  0
LINE
  5
1DE
330
1F
100
AcDbEntity
  8
0
  6
HIDDEN
 62
     7
370
     0
100
AcDbLine
 10
70.411164121
 20
127.7099737427
 30
0.0
 11
69.5451387258
 21
127.7099737427
 31
0.0
  0
LINE
  5
1DF
330
1F
100
AcDbEntity
  8
0
  6
HIDDEN
 62
     7
370
     0
100
AcDbLine
 10
73.0092403067
 20
124.2099731691
 30
0.0
 11
73.0092403067
 21
127.7099737427
 31
0.0
  0
LINE
  5
1E0
330
1F
100
AcDbEntity
  8
0
  6
HIDDEN
 62
     7
370
     0
100
AcDbLine
 10
69.5451387258
 20
124.2099731691
 30
0.0
 11
69.5451387258
 21
127.7099737427
 31
0.0
  0
LINE
  5
1E1
330
1F
100
AcDbEntity
  8
0
  6
HIDDEN
 62
     7
370
     0
100
AcDbLine
 10
68.831689405
 20
93.709971895
 30
0.0
 11
73.7226896274
 21
93.709971895
 31
0.0
  0
LINE
  5
1E2
330
1F
100
AcDbEntity
  8
0
  6
HIDDEN
 62
     7
370
     0
100
AcDbLine
 10
68.2771894901
 20
94.03011403
 30
0.0
 11
74.2771895423
 21
94.03011403
 31
0.0
  0
LINE
  5
1E3
330
1F
100
AcDbEntity
  8
0
  6
HIDDEN
 62
     7
370
     0
100
AcDbLine
 10
68.2771894901
 20
102.7099724389
 30
0.0
 11
74.2771895423
 21
102.7099724389
 31
0.0
  0
LINE
  5
1E4
330
1F
100
AcDbEntity
  8
0
  6
HIDDEN
 62
     7
370
     0
100
AcDbLine
 10
69.2771894212
 20
103.7099726028
 30
0.0
 11
73.2771896112
 21
103.7099726028
 31
0.0
  0
LINE
  5
1E5
330
1F
100
AcDbEntity
  8
0
  6
HIDDEN
 62
     7
370
     0
100
AcDbLine
 10
72.1432149114
 20
97.2099724687
 30
0.0
 11
70.411164121
 21
97.2099724687
 31
0.0
  0
LINE
  5
1E6
330
1F
100
AcDbEntity
  8
0
  6
HIDDEN
 62
     7
370
     0
100
AcDbLine
 10
72.1432149114
 20
93.709971895
 30
0.0
 11
70.411164121
 21
93.709971895
 31
0.0
  0
LINE
  5
1E7
330
1F
100
AcDbEntity
  8
0
  6
HIDDEN
 62
     7
370
     0
100
AcDbLine
 10
70.411164121
 20
97.2099724687
 30
0.0
 11
70.411164121
 21
93.709971895
 31
0.0
  0
LINE
  5
1E8
330
1F
100
AcDbEntity
  8
0
  6
HIDDEN
 62
     7
370
     0
100
AcDbLine
 10
70.411164121
 20
97.2099724687
 30
0.0
 11
69.5451387258
 21
97.2099724687
 31
0.0
  0
LINE
  5
1E9
330
1F
100
AcDbEntity
  8
0
  6
HIDDEN
 62
     7
370
     0
100
AcDbLine
 10
70.411164121
 20
93.709971895
 30
0.0
 11
69.5451387258
 21
93.709971895
 31
0.0
  0
LINE
  5
1EA
330
1F
100
AcDbEntity
  8
0
  6
HIDDEN
 62
     7
370
     0
100
AcDbLine
 10
72.1432149114
 20
97.2099724687
 30
0.0
 11
72.1432149114
 21
93.709971895
 31
0.0
  0
LINE
  5
1EB
330
1F
100
AcDbEntity
  8
0
  6
HIDDEN
 62
     7
370
     0
100
AcDbLine
 10
72.1432149114
 20
97.2099724687
 30
0.0
 11
73.0092403067
 21
97.2099724687
 31
0.0
  0
LINE
  5
1EC
330
1F
100
AcDbEntity
  8
0
  6
HIDDEN
 62
     7
370
     0
100
AcDbLine
 10
72.1432149114
 20
93.709971895
 30
0.0
 11
73.0092403067
 21
93.709971895
 31
0.0
  0
LINE
  5
1ED
330
1F
100
AcDbEntity
  8
0
  6
HIDDEN
 62
     7
370
     0
100
AcDbLine
 10
69.5451387258
 20
97.2099724687
 30
0.0
 11
69.5451387258
 21
93.709971895
 31
0.0
  0
LINE
  5
1EE
330
1F
100
AcDbEntity
  8
0
  6
HIDDEN
 62
     7
370
     0
100
AcDbLine
 10
73.0092403067
 20
97.2099724687
 30
0.0
 11
73.0092403067
 21
93.709971895
 31
0.0
  0
LINE
  5
1EF
330
1F
100
AcDbEntity
  8
0
  6
HIDDEN
 62
     7
370
     0
100
AcDbLine
 10
87.9570483051
 20
107.7099727928
 30
0.0
 11
87.9570483051
 21
113.709972845
 31
0.0
  0
LINE
  5
1F0
330
1F
100
AcDbEntity
  8
0
  6
HIDDEN
 62
     7
370
     0
100
AcDbLine
 10
79.2771898962
 20
107.7099727928
 30
0.0
 11
79.2771898962
 21
113.709972845
 31
0.0
  0
LINE
  5
1F1
330
1F
100
AcDbEntity
  8
0
  6
HIDDEN
 62
     7
370
     0
100
AcDbLine
 10
88.2771904401
 20
108.2644727077
 30
0.0
 11
88.2771904401
 21
113.1554729301
 31
0.0
  0
LINE
  5
1F2
330
1F
100
AcDbEntity
  8
0
  6
HIDDEN
 62
     7
370
     0
100
AcDbLine
 10
78.2771897323
 20
108.7099727239
 30
0.0
 11
78.2771897323
 21
112.7099729139
 31
0.0
  0
LINE
  5
1F3
330
1F
100
AcDbEntity
  8
0
  6
HIDDEN
 62
     7
370
     0
100
AcDbLine
 10
88.2771904401
 20
109.8439474236
 30
0.0
 11
88.2771904401
 21
108.9779220284
 31
0.0
  0
LINE
  5
1F4
330
1F
100
AcDbEntity
  8
0
  6
HIDDEN
 62
     7
370
     0
100
AcDbLine
 10
84.7771898664
 20
109.8439474236
 30
0.0
 11
88.2771904401
 21
109.8439474236
 31
0.0
  0
LINE
  5
1F5
330
1F
100
AcDbEntity
  8
0
  6
HIDDEN
 62
     7
370
     0
100
AcDbLine
 10
88.2771904401
 20
111.5759982141
 30
0.0
 11
88.2771904401
 21
109.8439474236
 31
0.0
  0
LINE
  5
1F6
330
1F
100
AcDbEntity
  8
0
  6
HIDDEN
 62
     7
370
     0
100
AcDbLine
 10
84.7771898664
 20
111.5759982141
 30
0.0
 11
84.7771898664
 21
109.8439474236
 31
0.0
  0
LINE
  5
1F7
330
1F
100
AcDbEntity
  8
0
  6
HIDDEN
 62
     7
370
     0
100
AcDbLine
 10
84.7771898664
 20
109.8439474236
 30
0.0
 11
84.7771898664
 21
108.9779220284
 31
0.0
  0
LINE
  5
1F8
330
1F
100
AcDbEntity
  8
0
  6
HIDDEN
 62
     7
370
     0
100
AcDbLine
 10
84.7771898664
 20
111.5759982141
 30
0.0
 11
84.7771898664
 21
112.4420236093
 31
0.0
  0
LINE
  5
1F9
330
1F
100
AcDbEntity
  8
0
  6
HIDDEN
 62
     7
370
     0
100
AcDbLine
 10
84.7771898664
 20
111.5759982141
 30
0.0
 11
88.2771904401
 21
111.5759982141
 31
0.0
  0
LINE
  5
1FA
330
1F
100
AcDbEntity
  8
0
  6
HIDDEN
 62
     7
370
     0
100
AcDbLine
 10
88.2771904401
 20
111.5759982141
 30
0.0
 11
88.2771904401
 21
112.4420236093
 31
0.0
  0
LINE
  5
1FB
330
1F
100
AcDbEntity
  8
0
  6
HIDDEN
 62
     7
370
     0
100
AcDbLine
 10
84.7771898664
 20
108.9779220284
 30
0.0
 11
88.2771904401
 21
108.9779220284
 31
0.0
  0
LINE
  5
1FC
330
1F
100
AcDbEntity
  8
0
  6
HIDDEN
 62
     7
370
     0
100
AcDbLine
 10
84.7771898664
 20
112.4420236093
 30
0.0
 11
88.2771904401
 21
112.4420236093
 31
0.0
  0
LINE
  5
1FD
330
1F
100
AcDbEntity
  8
0
  6
HIDDEN
 62
     7
370
     0
100
AcDbLine
 10
87.2771902762
 20
108.2099728748
 30
0.0
 11
87.2771902762
 21
113.209972763
 31
0.0
  0
SPLINE
  5
1FE
330
1F
100
AcDbEntity
  8
0
  6
HIDDEN
 62
     7
370
     0
100
AcDbSpline
210
0.0
220
0.0
230
1.0
 70
     8
 71
     3
 72
    66
 73
    62
 74
     0
 42
0.00000001
 43
0.00000001
 12
1.0
 22
0.0
 32
0.0
 13
1.0
 23
0.0
 33
0.0
 40
-0.0312499999999998
 40
-0.0312499999999998
 40
0.0
 40
0.0
 40
0.0312500000000001
 40
0.0312500000000001
 40
0.0625000000000001
 40
0.0625000000000001
 40
0.0937500000000001
 40
0.0937500000000001
 40
0.1250000000000002
 40
0.1250000000000002
 40
0.1562500000000002
 40
0.1562500000000002
 40
0.1875000000000002
 40
0.1875000000000002
 40
0.2187500000000003
 40
0.2187500000000003
 40
0.2500000000000003
 40
0.2500000000000003
 40
0.2812500000000003
 40
0.2812500000000003
 40
0.3125000000000004
 40
0.3125000000000004
 40
0.3437500000000004
 40
0.3437500000000004
 40
0.3750000000000005
 40
0.3750000000000005
 40
0.4375000000000016
 40
0.4375000000000016
 40
0.5000000000000027
 40
0.5000000000000027
 40
0.5312500000000026
 40
0.5312500000000026
 40
0.5625000000000023
 40
0.5625000000000023
 40
0.5937500000000022
 40
0.5937500000000022
 40
0.625000000000002
 40
0.625000000000002
 40
0.6562500000000019
 40
0.6562500000000019
 40
0.6875000000000017
 40
0.6875000000000017
 40
0.7187500000000016
 40
0.7187500000000016
 40
0.7500000000000013
 40
0.7500000000000013
 40
0.7812500000000012
 40
0.7812500000000012
 40
0.8125000000000011
 40
0.8125000000000011
 40
0.8437500000000009
 40
0.8437500000000009
 40
0.8750000000000008
 40
0.8750000000000008
 40
0.9062500000000006
 40
0.9062500000000006
 40
0.9375000000000004
 40
0.9375000000000004
 40
0.9687500000000002
 40
0.9687500000000002
 40
1.0
 40
1.0
 40
1.03125
 40
1.03125
 10
88.0933239322201
 20
108.2123614416294
 30
0.0
 10
88.13294715564457
 20
108.4955036523005
 30
0.0
 10
88.15294026232726
 20
108.6512330089076
 30
0.0
 10
88.1910162917714
 20
108.9918818269531
 30
0.0
 10
88.20922075258261
 20
109.1788248712243
 30
0.0
 10
88.23991179814321
 20
109.5679795557171
 30
0.0
 10
88.25260420880495
 20
109.7714756157444
 30
0.0
 10
88.27080502103072
 20
110.1976125353155
 30
0.0
 10
88.27608043625867
 20
110.417780598663
 30
0.0
 10
88.27797767371203
 20
110.8544402165944
 30
0.0
 10
88.27461440039217
 20
111.0761767344001
 30
0.0
 10
88.25984408837876
 20
111.5074699558959
 30
0.0
 10
88.2486214898362
 20
111.7154283115515
 30
0.0
 10
88.22008665364764
 20
112.116628630857
 30
0.0
 10
88.20285343282558
 20
112.3078583049221
 30
0.0
 10
88.16590896134146
 20
112.6599709082027
 30
0.0
 10
88.14584478090715
 20
112.8243639751676
 30
0.0
 10
88.10621169030753
 20
113.1195771566733
 30
0.0
 10
88.08674256741607
 20
113.2501189331383
 30
0.0
 10
88.050569525888
 20
113.4789327525059
 30
0.0
 10
88.03387691854185
 20
113.5769918906907
 30
0.0
 10
88.00621609337811
 20
113.7342150112307
 30
0.0
 10
87.99505019031156
 20
113.7946076133387
 30
0.0
 10
87.97928240349256
 20
113.8788733408971
 30
0.0
 10
87.97483660013376
 20
113.9019313569836
 30
0.0
 10
87.97248065672404
 20
113.9142392757816
 30
0.0
 10
87.98612229381725
 20
113.845583469848
 30
0.0
 10
88.03655279859618
 20
113.5637827442378
 30
0.0
 10
88.07384083593986
 20
113.3465486969493
 30
0.0
 10
88.13233446564337
 20
112.9289468414525
 30
0.0
 10
88.15249242766293
 20
112.7724498049195
 30
0.0
 10
88.19081288676027
 20
112.430148435035
 30
0.0
 10
88.20861290242829
 20
112.2477526095729
 30
0.0
 10
88.23937616339794
 20
111.8597939849777
 30
0.0
 10
88.25244868264268
 20
111.6511124677621
 30
0.0
 10
88.27067118170395
 20
111.2264498181548
 30
0.0
 10
88.27596018095497
 20
111.0103265922768
 30
0.0
 10
88.27803937298312
 20
110.5702565018297
 30
0.0
 10
88.27469222365954
 20
110.3480980534967
 30
0.0
 10
88.26014137641491
 20
109.9191518849493
 30
0.0
 10
88.2487789223008
 20
109.7071656336304
 30
0.0
 10
88.22029632994537
 20
109.3058358177008
 30
0.0
 10
88.20334073480547
 20
109.1170996007664
 30
0.0
 10
88.16617645800248
 20
108.7621637307732
 30
0.0
 10
88.14613548337095
 20
108.5979348037368
 30
0.0
 10
88.10667474576951
 20
108.3036333730729
 30
0.0
 10
88.0869222209734
 20
108.1709925694645
 30
0.0
 10
88.05059917580226
 20
107.9411711459511
 30
0.0
 10
88.03417534766287
 20
107.8446883132519
 30
0.0
 10
88.00640100569706
 20
107.6867440161393
 30
0.0
 10
87.99501890098267
 20
107.6251713470648
 30
0.0
 10
87.97932819690155
 20
107.5413164869579
 30
0.0
 10
87.97488100505288
 20
107.518246334098
 30
0.0
 10
87.97324161071315
 20
107.5096816652703
 30
0.0
 10
87.97614891160904
 20
107.5247060595181
 30
0.0
 10
87.988827440951
 20
107.591908180384
 30
0.0
 10
87.99856007228074
 20
107.6438750930263
 30
0.0
 10
88.02394222143347
 20
107.7856844664764
 30
0.0
 10
88.0396331804913
 20
107.8758730074069
 30
0.0
 10
88.07425323930747
 20
108.0888490862424
 30
0.0
 10
88.0933239322201
 20
108.2123614416294
 30
0.0
 10
88.13294715564457
 20
108.4955036523005
 30
0.0
  0
LINE
  5
1FF
330
1F
100
AcDbEntity
  8
0
  6
HIDDEN
 62
     7
370
     0
100
AcDbLine
 10
68.7771895721
 20
94.7099720589
 30
0.0
 11
73.7771894603
 21
94.7099720589
 31
0.0
  0
SPLINE
  5
200
330
1F
100
AcDbEntity
  8
0
  6
HIDDEN
 62
     7
370
     0
100
AcDbSpline
210
0.0
220
0.0
230
1.0
 70
     8
 71
     3
 72
    66
 73
    62
 74
     0
 42
0.00000001
 43
0.00000001
 12
1.0
 22
0.0
 32
0.0
 13
1.0
 23
0.0
 33
0.0
 40
-0.0312499999999999
 40
-0.0312499999999999
 40
0.0
 40
0.0
 40
0.0312500000000003
 40
0.0312500000000003
 40
0.0625000000000006
 40
0.0625000000000006
 40
0.0937500000000009
 40
0.0937500000000009
 40
0.1250000000000011
 40
0.1250000000000011
 40
0.1562500000000014
 40
0.1562500000000014
 40
0.1875000000000017
 40
0.1875000000000017
 40
0.218750000000002
 40
0.218750000000002
 40
0.2500000000000023
 40
0.2500000000000023
 40
0.2812500000000026
 40
0.2812500000000026
 40
0.3125000000000028
 40
0.3125000000000028
 40
0.3437500000000031
 40
0.3437500000000031
 40
0.3750000000000034
 40
0.3750000000000034
 40
0.437500000000003
 40
0.437500000000003
 40
0.5000000000000026
 40
0.5000000000000026
 40
0.5312500000000024
 40
0.5312500000000024
 40
0.5625000000000022
 40
0.5625000000000022
 40
0.5937500000000021
 40
0.5937500000000021
 40
0.6250000000000019
 40
0.6250000000000019
 40
0.6562500000000018
 40
0.6562500000000018
 40
0.6875000000000016
 40
0.6875000000000016
 40
0.7187500000000014
 40
0.7187500000000014
 40
0.7500000000000012
 40
0.7500000000000012
 40
0.7812500000000011
 40
0.7812500000000011
 40
0.812500000000001
 40
0.812500000000001
 40
0.8437500000000008
 40
0.8437500000000008
 40
0.8750000000000007
 40
0.8750000000000007
 40
0.9062500000000004
 40
0.9062500000000004
 40
0.9375000000000003
 40
0.9375000000000003
 40
0.9687500000000001
 40
0.9687500000000001
 40
1.0
 40
1.0
 40
1.03125
 40
1.03125
 10
68.77957813896228
 20
93.89383840286129
 30
0.0
 10
69.06272034963342
 20
93.85421517943685
 30
0.0
 10
69.21844970624053
 20
93.83422207275413
 30
0.0
 10
69.55909852428603
 20
93.79614604330999
 30
0.0
 10
69.74604156855722
 20
93.7779415824988
 30
0.0
 10
70.13519625305003
 20
93.7472505369382
 30
0.0
 10
70.33869231307729
 20
93.73455812627644
 30
0.0
 10
70.7648292326484
 20
93.71635731405067
 30
0.0
 10
70.98499729599588
 20
93.71108189882274
 30
0.0
 10
71.42165691392727
 20
93.70918466136938
 30
0.0
 10
71.64339343173305
 20
93.71254793468923
 30
0.0
 10
72.07468665322884
 20
93.72731824670265
 30
0.0
 10
72.28264500888442
 20
93.7385408452452
 30
0.0
 10
72.68384532818988
 20
93.76707568143378
 30
0.0
 10
72.87507500225507
 20
93.7843089022558
 30
0.0
 10
73.22718760553558
 20
93.82125337373995
 30
0.0
 10
73.3915806725005
 20
93.84131755417424
 30
0.0
 10
73.68679385400623
 20
93.88095064477386
 30
0.0
 10
73.81733563047125
 20
93.90041976766531
 30
0.0
 10
74.04614944983881
 20
93.9365928091934
 30
0.0
 10
74.14420858802357
 20
93.95328541653954
 30
0.0
 10
74.30143170856365
 20
93.98094624170328
 30
0.0
 10
74.36182431067157
 20
93.99211214476985
 30
0.0
 10
74.44609003823003
 20
94.00787993158882
 30
0.0
 10
74.46914805431646
 20
94.01232573494762
 30
0.0
 10
74.48145597311448
 20
94.01468167835735
 30
0.0
 10
74.41280016718095
 20
94.00104004126416
 30
0.0
 10
74.1309994415707
 20
93.95060953648522
 30
0.0
 10
73.91376539428225
 20
93.91332149914153
 30
0.0
 10
73.49616353878548
 20
93.85482786943803
 30
0.0
 10
73.33966650225244
 20
93.83466990741846
 30
0.0
 10
72.9973651323679
 20
93.79634944832114
 30
0.0
 10
72.81496930690584
 20
93.7785494326531
 30
0.0
 10
72.42701068231062
 20
93.74778617168346
 30
0.0
 10
72.21832916509504
 20
93.73471365243871
 30
0.0
 10
71.79366651548779
 20
93.71649115337743
 30
0.0
 10
71.57754328960975
 20
93.71120215412643
 30
0.0
 10
71.1374731991626
 20
93.70912296209828
 30
0.0
 10
70.91531475082967
 20
93.71247011142187
 30
0.0
 10
70.48636858228224
 20
93.72702095866649
 30
0.0
 10
70.27438233096332
 20
93.7383834127806
 30
0.0
 10
69.87305251503376
 20
93.76686600513604
 30
0.0
 10
69.68431629809932
 20
93.78382160027594
 30
0.0
 10
69.3293804281061
 20
93.82098587707894
 30
0.0
 10
69.16515150106977
 20
93.84102685171047
 30
0.0
 10
68.8708500704058
 20
93.8804875893119
 30
0.0
 10
68.73820926679741
 20
93.90024011410803
 30
0.0
 10
68.50838784328403
 20
93.93656315927915
 30
0.0
 10
68.41190501058485
 20
93.95298698741854
 30
0.0
 10
68.25396071347221
 20
93.98076132938438
 30
0.0
 10
68.19238804439776
 20
93.99214343409875
 30
0.0
 10
68.10853318429082
 20
94.00783413817987
 30
0.0
 10
68.08546303143095
 20
94.01228133002853
 30
0.0
 10
68.07689836260325
 20
94.01392072436828
 30
0.0
 10
68.09192275685098
 20
94.01101342347238
 30
0.0
 10
68.1591248777169
 20
93.99833489413041
 30
0.0
 10
68.21109179035916
 20
93.98860226280065
 30
0.0
 10
68.35290116380934
 20
93.96322011364794
 30
0.0
 10
68.44308970473979
 20
93.94752915459011
 30
0.0
 10
68.65606578357531
 20
93.91290909577394
 30
0.0
 10
68.77957813896228
 20
93.89383840286129
 30
0.0
 10
69.06272034963342
 20
93.85421517943685
 30
0.0
  0
LINE
  5
201
330
1F
100
AcDbEntity
  8
0
  6
HIDDEN
 62
     7
370
     0
100
AcDbLine
 10
73.7771894603
 20
126.7099735788
 30
0.0
 11
68.7771895721
 21
126.7099735788
 31
0.0
  0
SPLINE
  5
202
330
1F
100
AcDbEntity
  8
0
  6
HIDDEN
 62
     7
370
     0
100
AcDbSpline
210
0.0
220
0.0
230
1.0
 70
     8
 71
     3
 72
    66
 73
    62
 74
     0
 42
0.00000001
 43
0.00000001
 12
1.0
 22
0.0
 32
0.0
 13
1.0
 23
0.0
 33
0.0
 40
-0.0312499999999999
 40
-0.0312499999999999
 40
0.0
 40
0.0
 40
0.0312500000000001
 40
0.0312500000000001
 40
0.0625000000000001
 40
0.0625000000000001
 40
0.0937500000000001
 40
0.0937500000000001
 40
0.1250000000000002
 40
0.1250000000000002
 40
0.1562500000000002
 40
0.1562500000000002
 40
0.1875000000000002
 40
0.1875000000000002
 40
0.2187500000000002
 40
0.2187500000000002
 40
0.2500000000000003
 40
0.2500000000000003
 40
0.2812500000000003
 40
0.2812500000000003
 40
0.3125000000000004
 40
0.3125000000000004
 40
0.3437500000000004
 40
0.3437500000000004
 40
0.3750000000000005
 40
0.3750000000000005
 40
0.4375000000000016
 40
0.4375000000000016
 40
0.5000000000000027
 40
0.5000000000000027
 40
0.5312500000000026
 40
0.5312500000000026
 40
0.5625000000000023
 40
0.5625000000000023
 40
0.5937500000000022
 40
0.5937500000000022
 40
0.625000000000002
 40
0.625000000000002
 40
0.6562500000000019
 40
0.6562500000000019
 40
0.6875000000000017
 40
0.6875000000000017
 40
0.7187500000000016
 40
0.7187500000000016
 40
0.7500000000000013
 40
0.7500000000000013
 40
0.7812500000000011
 40
0.7812500000000011
 40
0.812500000000001
 40
0.812500000000001
 40
0.8437500000000008
 40
0.8437500000000008
 40
0.8750000000000007
 40
0.8750000000000007
 40
0.9062500000000004
 40
0.9062500000000004
 40
0.9375000000000003
 40
0.9375000000000003
 40
0.9687500000000001
 40
0.9687500000000001
 40
1.0
 40
1.0
 40
1.03125
 40
1.03125
 10
73.77480089345224
 20
127.5261072348871
 30
0.0
 10
73.49165868278108
 20
127.5657304583116
 30
0.0
 10
73.33592932617397
 20
127.5857235649943
 30
0.0
 10
72.99528050812847
 20
127.6237995944384
 30
0.0
 10
72.80833746385728
 20
127.6420040552496
 30
0.0
 10
72.41918277936449
 20
127.6726951008102
 30
0.0
 10
72.21568671933721
 20
127.685387511472
 30
0.0
 10
71.78954979976609
 20
127.7035883236977
 30
0.0
 10
71.5693817364186
 20
127.7088637389257
 30
0.0
 10
71.13272211848722
 20
127.710760976379
 30
0.0
 10
70.91098560068146
 20
127.7073977030592
 30
0.0
 10
70.47969237918566
 20
127.6926273910458
 30
0.0
 10
70.27173402353009
 20
127.6814047925032
 30
0.0
 10
69.87053370422463
 20
127.6528699563147
 30
0.0
 10
69.67930403015943
 20
127.6356367354926
 30
0.0
 10
69.32719142687893
 20
127.5986922640085
 30
0.0
 10
69.16279835991399
 20
127.5786280835742
 30
0.0
 10
68.86758517840826
 20
127.5389949929746
 30
0.0
 10
68.73704340194327
 20
127.5195258700831
 30
0.0
 10
68.5082295825757
 20
127.4833528285551
 30
0.0
 10
68.41017044439091
 20
127.4666602212089
 30
0.0
 10
68.25294732385085
 20
127.4389993960452
 30
0.0
 10
68.19255472174294
 20
127.4278334929786
 30
0.0
 10
68.10828899418448
 20
127.4120657061596
 30
0.0
 10
68.08523097809802
 20
127.4076199028008
 30
0.0
 10
68.07292305930002
 20
127.4052639593911
 30
0.0
 10
68.14157886523356
 20
127.4189055964843
 30
0.0
 10
68.42337959084381
 20
127.4693361012632
 30
0.0
 10
68.64061363813225
 20
127.5066241386069
 30
0.0
 10
69.05821549362905
 20
127.5651177683104
 30
0.0
 10
69.21471253016206
 20
127.58527573033
 30
0.0
 10
69.55701390004661
 20
127.6235961894273
 30
0.0
 10
69.73940972550866
 20
127.6413962050953
 30
0.0
 10
70.12736835010388
 20
127.672159466065
 30
0.0
 10
70.33604986731946
 20
127.6852319853097
 30
0.0
 10
70.76071251692673
 20
127.703454484371
 30
0.0
 10
70.97683574280477
 20
127.708743483622
 30
0.0
 10
71.41690583325192
 20
127.7108226756501
 30
0.0
 10
71.63906428158484
 20
127.7074755263265
 30
0.0
 10
72.06801045013226
 20
127.6929246790819
 30
0.0
 10
72.27999670145118
 20
127.6815622249678
 30
0.0
 10
72.68132651738075
 20
127.6530796326124
 30
0.0
 10
72.8700627343152
 20
127.6361240374725
 30
0.0
 10
73.22499860430841
 20
127.5989597606695
 30
0.0
 10
73.38922753134474
 20
127.5789187860379
 30
0.0
 10
73.68352896200872
 20
127.5394580484365
 30
0.0
 10
73.8161697656171
 20
127.5197055236404
 30
0.0
 10
74.04599118913048
 20
127.4833824784693
 30
0.0
 10
74.14247402182966
 20
127.4669586503299
 30
0.0
 10
74.30041831894229
 20
127.439184308364
 30
0.0
 10
74.36199098801676
 20
127.4278022036497
 30
0.0
 10
74.4458458481237
 20
127.4121114995685
 30
0.0
 10
74.46891600098354
 20
127.4076643077199
 30
0.0
 10
74.47748066981124
 20
127.4060249133801
 30
0.0
 10
74.46245627556351
 20
127.408932214276
 30
0.0
 10
74.3952541546976
 20
127.421610743618
 30
0.0
 10
74.34328724205533
 20
127.4313433749477
 30
0.0
 10
74.20147786860518
 20
127.4567255241005
 30
0.0
 10
74.11128932767471
 20
127.4724164831583
 30
0.0
 10
73.89831324883919
 20
127.5070365419745
 30
0.0
 10
73.77480089345224
 20
127.5261072348871
 30
0.0
 10
73.49165868278108
 20
127.5657304583116
 30
0.0
  0
LINE
  5
203
330
1F
100
AcDbEntity
  8
0
  6
HIDDEN
 62
     7
370
     0
100
AcDbLine
 10
73.3985097434
 20
108.5886525917
 30
0.0
 11
73.7771894603
 21
108.2099728748
 31
0.0
  0
LINE
  5
204
330
1F
100
AcDbEntity
  8
0
  6
HIDDEN
 62
     7
370
     0
100
AcDbLine
 10
73.3985097434
 20
112.831293046
 30
0.0
 11
73.7771894603
 21
113.209972763
 31
0.0
  0
SPLINE
  5
205
330
1F
100
AcDbEntity
  8
0
  6
HIDDEN
 62
     7
370
     0
100
AcDbSpline
210
0.0
220
0.0
230
1.0
 70
     8
 71
     3
 72
    22
 73
    18
 74
     0
 42
0.00000001
 43
0.00000001
 12
1.0
 22
0.0
 32
0.0
 13
1.0
 23
0.0
 33
0.0
 40
0.0
 40
0.0
 40
0.0
 40
0.0
 40
0.125
 40
0.125
 40
0.25
 40
0.25
 40
0.375
 40
0.375
 40
0.5
 40
0.5
 40
0.625
 40
0.625
 40
0.75
 40
0.75
 40
0.875
 40
0.875
 40
1.0
 40
1.0
 40
1.0
 40
1.0
 10
73.39850985976685
 20
112.8312931624339
 30
0.0
 10
73.5039921005592
 20
112.7258109216415
 30
0.0
 10
73.61153615205593
 20
112.6026014495707
 30
0.0
 10
73.81755960900973
 20
112.3155061077302
 30
0.0
 10
73.91557729890157
 20
112.1516522653513
 30
0.0
 10
74.08275700068396
 20
111.7908617161769
 30
0.0
 10
74.15376865794913
 20
111.5889436239002
 30
0.0
 10
74.25046484207226
 20
111.1648695889164
 30
0.0
 10
74.27704847914067
 20
110.9367303646798
 30
0.0
 10
74.27732938307369
 20
110.4869625919555
 30
0.0
 10
74.25110465451867
 20
110.2590315900188
 30
0.0
 10
74.15467623471051
 20
109.8338510085094
 30
0.0
 10
74.08394020681746
 20
109.6319991038863
 30
0.0
 10
73.91630267474852
 20
109.2695011926836
 30
0.0
 10
73.8178222082877
 20
109.1048992814583
 30
0.0
 10
73.61235589874684
 20
108.8183931873393
 30
0.0
 10
73.50462856933193
 20
108.6947711848797
 30
0.0
 10
73.39850985976683
 20
108.5886524753146
 30
0.0
  0
SPLINE
  5
206
330
1F
100
AcDbEntity
  8
0
  6
HIDDEN
 62
     7
370
     0
100
AcDbSpline
210
0.0
220
0.0
230
1.0
 70
     8
 71
     3
 72
    22
 73
    18
 74
     0
 42
0.00000001
 43
0.00000001
 12
1.0
 22
0.0
 32
0.0
 13
1.0
 23
0.0
 33
0.0
 40
0.0
 40
0.0
 40
0.0
 40
0.0
 40
0.125
 40
0.125
 40
0.25
 40
0.25
 40
0.375
 40
0.375
 40
0.5
 40
0.5
 40
0.625
 40
0.625
 40
0.75
 40
0.75
 40
0.875
 40
0.875
 40
1.0
 40
1.0
 40
1.0
 40
1.0
 10
73.39850985976685
 20
108.5886524753146
 30
0.0
 10
73.5035513632744
 20
108.6936939788221
 30
0.0
 10
73.61239424500957
 20
108.8183538406998
 30
0.0
 10
73.81885372483757
 20
109.106430947086
 30
0.0
 10
73.91468456100164
 20
109.2667425626167
 30
0.0
 10
74.08164934970004
 20
109.626322171194
 30
0.0
 10
74.15294753084558
 20
109.8282874161186
 30
0.0
 10
74.25008293059565
 20
110.2525254941744
 30
0.0
 10
74.27686027083948
 20
110.48066215813
 30
0.0
 10
74.27751245800346
 20
110.9305861916741
 30
0.0
 10
74.25141087834898
 20
111.1589591480242
 30
0.0
 10
74.15517915828879
 20
111.5844767095775
 30
0.0
 10
74.08446727471767
 20
111.7866081741151
 30
0.0
 10
73.9168223654354
 20
112.1495180675058
 30
0.0
 10
73.81828596191801
 20
112.3143064026079
 30
0.0
 10
73.61296777505584
 20
112.600792038099
 30
0.0
 10
73.50505673500855
 20
112.7247462871921
 30
0.0
 10
73.39850985976685
 20
112.8312931624339
 30
0.0
  0
SPLINE
  5
207
330
1F
100
AcDbEntity
  8
0
  6
HIDDEN
 62
     7
370
     0
100
AcDbSpline
210
0.0
220
0.0
230
1.0
 70
    11
 71
     3
 72
    60
 73
    56
 74
     0
 42
0.00000001
 43
0.00000001
 12
1.0
 22
0.0
 32
0.0
 13
1.0
 23
0.0
 33
0.0
 40
0.0
 40
0.0
 40
0.0
 40
0.0
 40
0.0624999999999992
 40
0.0624999999999992
 40
0.1249999999999983
 40
0.1249999999999983
 40
0.1562499999999979
 40
0.1562499999999979
 40
0.1874999999999976
 40
0.1874999999999976
 40
0.2187499999999972
 40
0.2187499999999972
 40
0.2499999999999968
 40
0.2499999999999968
 40
0.2812499999999963
 40
0.2812499999999963
 40
0.3124999999999959
 40
0.3124999999999959
 40
0.3437499999999955
 40
0.3437499999999955
 40
0.3749999999999951
 40
0.3749999999999951
 40
0.4374999999999944
 40
0.4374999999999944
 40
0.4687499999999947
 40
0.4687499999999947
 40
0.499999999999995
 40
0.499999999999995
 40
0.5312499999999952
 40
0.5312499999999952
 40
0.562499999999994
 40
0.562499999999994
 40
0.593749999999993
 40
0.593749999999993
 40
0.6249999999999919
 40
0.6249999999999919
 40
0.6874999999999918
 40
0.6874999999999918
 40
0.7187499999999927
 40
0.7187499999999927
 40
0.7499999999999934
 40
0.7499999999999934
 40
0.7812499999999942
 40
0.7812499999999942
 40
0.812499999999995
 40
0.812499999999995
 40
0.8437499999999959
 40
0.8437499999999959
 40
0.8749999999999967
 40
0.8749999999999967
 40
0.9062499999999974
 40
0.9062499999999974
 40
0.9374999999999982
 40
0.9374999999999982
 40
1.0
 40
1.0
 40
1.0
 40
1.0
 10
73.39850985976685
 20
108.5886524753146
 30
0.0
 10
73.2642403388934
 20
108.4543829544411
 30
0.0
 10
73.10160728442138
 20
108.3168958777779
 30
0.0
 10
72.70638032845663
 20
108.0618166563407
 30
0.0
 10
72.4822036227007
 20
107.9493558907538
 30
0.0
 10
72.09754800432687
 20
107.8211533097774
 30
0.0
 10
71.96473899632588
 20
107.7864620111039
 30
0.0
 10
71.68920211619553
 20
107.7350971326963
 30
0.0
 10
71.54469981239991
 20
107.7184844409276
 30
0.0
 10
71.25813945102387
 20
107.7066077779617
 30
0.0
 10
71.11512464714284
 20
107.7109188790185
 30
0.0
 10
70.82962858042355
 20
107.7400774057815
 30
0.0
 10
70.68936007407099
 20
107.7648976932949
 30
0.0
 10
70.42169715290206
 20
107.8312328575935
 30
0.0
 10
70.29182347410145
 20
107.8733813666838
 30
0.0
 10
70.04806406995439
 20
107.9701830566938
 30
0.0
 10
69.9340273059458
 20
108.0246589679947
 30
0.0
 10
69.71964039799758
 20
108.1430610663661
 30
0.0
 10
69.61957679749638
 20
108.2069937687862
 30
0.0
 10
69.4372799166448
 20
108.3377762174414
 30
0.0
 10
69.35417160824079
 20
108.4051210616012
 30
0.0
 10
69.1266956431776
 20
108.6083700753665
 30
0.0
 10
69.00373736913666
 20
108.7474694401578
 30
0.0
 10
68.87282367229207
 20
108.9144155425008
 30
0.0
 10
68.8376082055866
 20
108.963494843372
 30
0.0
 10
68.78996244412139
 20
109.0320443990878
 30
0.0
 10
68.7771453470668
 20
109.0517270111707
 30
0.0
 10
68.77723392175683
 20
109.051593479822
 30
0.0
 10
68.78980869341112
 20
109.0322628615329
 30
0.0
 10
68.83788944897539
 20
108.963092960218
 30
0.0
 10
68.8724050088726
 20
108.914977454659
 30
0.0
 10
68.95961742997679
 20
108.8037051279671
 30
0.0
 10
69.01268937194479
 20
108.7402188831276
 30
0.0
 10
69.13320887621451
 20
108.6096779619338
 30
0.0
 10
69.2010025773701
 20
108.5420810574695
 30
0.0
 10
69.42796627366181
 20
108.3389812592337
 30
0.0
 10
69.61242737969228
 20
108.2026081777999
 30
0.0
 10
69.92928685453414
 20
108.0271131471292
 30
0.0
 10
70.04219351669981
 20
107.97283451158
 30
0.0
 10
70.28534041845919
 20
107.8756516304142
 30
0.0
 10
70.41497586807048
 20
107.8332500826262
 30
0.0
 10
70.68202101325171
 20
107.7663830836412
 30
0.0
 10
70.82193482971475
 20
107.7412355712491
 30
0.0
 10
71.10782851952877
 20
107.711310695891
 30
0.0
 10
71.25097274477119
 20
107.7066595942062
 30
0.0
 10
71.53765221839585
 20
107.7178603835973
 30
0.0
 10
71.68239684034029
 20
107.7341411509359
 30
0.0
 10
71.95893518990489
 20
107.7850813802341
 30
0.0
 10
72.09234775698124
 20
107.8196600170705
 30
0.0
 10
72.3498006864167
 20
107.9049957552756
 30
0.0
 10
72.47030591602439
 20
107.954546151303
 30
0.0
 10
72.69733989437191
 20
108.064396177143
 30
0.0
 10
72.8045321848414
 20
108.1252303240082
 30
0.0
 10
73.09932337599379
 20
108.3152900077682
 30
0.0
 10
73.26283728622515
 20
108.4529799017729
 30
0.0
 10
73.39850985976683
 20
108.5886524753146
 30
0.0
  0
SPLINE
  5
208
330
1F
100
AcDbEntity
  8
0
  6
HIDDEN
 62
     7
370
     0
100
AcDbSpline
210
0.0
220
0.0
230
1.0
 70
    11
 71
     3
 72
    58
 73
    54
 74
     0
 42
0.00000001
 43
0.00000001
 12
1.0
 22
0.0
 32
0.0
 13
1.0
 23
0.0
 33
0.0
 40
0.0
 40
0.0
 40
0.0
 40
0.0
 40
0.0312500000000007
 40
0.0312500000000007
 40
0.0625000000000014
 40
0.0625000000000014
 40
0.093750000000002
 40
0.093750000000002
 40
0.1250000000000027
 40
0.1250000000000027
 40
0.1562500000000034
 40
0.1562500000000034
 40
0.1875000000000041
 40
0.1875000000000041
 40
0.2500000000000053
 40
0.2500000000000053
 40
0.2812500000000054
 40
0.2812500000000054
 40
0.3125000000000056
 40
0.3125000000000056
 40
0.3750000000000059
 40
0.3750000000000059
 40
0.406250000000007
 40
0.406250000000007
 40
0.4375000000000083
 40
0.4375000000000083
 40
0.4687500000000095
 40
0.4687500000000095
 40
0.5000000000000093
 40
0.5000000000000093
 40
0.5312500000000091
 40
0.5312500000000091
 40
0.5625000000000089
 40
0.5625000000000089
 40
0.6250000000000084
 40
0.6250000000000084
 40
0.6562500000000078
 40
0.6562500000000078
 40
0.687500000000007
 40
0.687500000000007
 40
0.7187500000000062
 40
0.7187500000000062
 40
0.7500000000000054
 40
0.7500000000000054
 40
0.8125000000000043
 40
0.8125000000000043
 40
0.8437500000000038
 40
0.8437500000000038
 40
0.8750000000000032
 40
0.8750000000000032
 40
0.9375000000000017
 40
0.9375000000000017
 40
1.0
 40
1.0
 40
1.0
 40
1.0
 10
73.39850985976685
 20
112.8312931624338
 30
0.0
 10
73.33164690436995
 20
112.8981561178308
 30
0.0
 10
73.2572154646899
 20
112.9662738774055
 30
0.0
 10
73.09182493768627
 20
113.1013104174805
 30
0.0
 10
73.00055863381841
 20
113.1683193530016
 30
0.0
 10
72.8054898889725
 20
113.2941103477216
 30
0.0
 10
72.70108625786678
 20
113.3534703263519
 30
0.0
 10
72.47671050779454
 20
113.4625553142213
 30
0.0
 10
72.3555161872824
 20
113.5127144251443
 30
0.0
 10
72.09996282905797
 20
113.5980851776182
 30
0.0
 10
71.96727363743933
 20
113.6329028777845
 30
0.0
 10
71.69109948057884
 20
113.6846013276215
 30
0.0
 10
71.54657535352247
 20
113.7012837653107
 30
0.0
 10
71.11731785406552
 20
113.7193715432228
 30
0.0
 10
70.82491712800636
 20
113.6885158658802
 30
0.0
 10
70.42278423315024
 20
113.5890453885194
 30
0.0
 10
70.29250238760908
 20
113.5467958765081
 30
0.0
 10
70.0488836183652
 20
113.4501258114782
 30
0.0
 10
69.93466199886521
 20
113.3956210797502
 30
0.0
 10
69.61208139817235
 20
113.2175138093907
 30
0.0
 10
69.43044310456276
 20
113.0829657706114
 30
0.0
 10
69.20238539933888
 20
112.8792076704072
 30
0.0
 10
69.13322935466412
 20
112.8103041747539
 30
0.0
 10
69.012224960028
 20
112.6792093557146
 30
0.0
 10
68.95999801091918
 20
112.6167070663302
 30
0.0
 10
68.87263570360625
 20
112.5052814065289
 30
0.0
 10
68.8374411073393
 20
112.4562158703085
 30
0.0
 10
68.78987161219565
 20
112.38776504011
 30
0.0
 10
68.77702180465292
 20
112.3680323799319
 30
0.0
 10
68.7773606012216
 20
112.3685431338488
 30
0.0
 10
68.79014586638785
 20
112.3881811030727
 30
0.0
 10
68.83817272433845
 20
112.4572467671265
 30
0.0
 10
68.87333981728158
 20
112.5062158255903
 30
0.0
 10
69.00404843151672
 20
112.6728174041373
 30
0.0
 10
69.12719604012902
 20
112.8120261071816
 30
0.0
 10
69.35396389610395
 20
113.0146372646654
 30
0.0
 10
69.43698851936685
 20
113.0819555963729
 30
0.0
 10
69.61970017909198
 20
113.2130451516029
 30
0.0
 10
69.71994924441204
 20
113.2770378767632
 30
0.0
 10
69.93306743539632
 20
113.3947737625965
 30
0.0
 10
70.04653407609787
 20
113.4490550949126
 30
0.0
 10
70.28942485998863
 20
113.5457100265688
 30
0.0
 10
70.41942049520799
 20
113.5880229348578
 30
0.0
 10
70.82007941029048
 20
113.6876919132592
 30
0.0
 10
71.11222616113415
 20
113.7190678944854
 30
0.0
 10
71.54106109315404
 20
113.7017679842433
 30
0.0
 10
71.68538773806961
 20
113.685396595786
 30
0.0
 10
71.96191183139436
 20
113.6341697670343
 30
0.0
 10
72.09488448436262
 20
113.599541493972
 30
0.0
 10
72.47930497095703
 20
113.4718285699345
 30
0.0
 10
72.70712181246721
 20
113.3576279630446
 30
0.0
 10
73.10045946041792
 20
113.1038130067057
 30
0.0
 10
73.26346024746158
 20
112.9663427747391
 30
0.0
 10
73.39850985976685
 20
112.8312931624338
 30
0.0
  0
LINE
  5
209
330
1F
100
AcDbEntity
  8
0
  6
HIDDEN
 62
     7
370
     0
100
AcDbLine
 10
73.7771894603
 20
94.7099720589
 30
0.0
 11
68.7771895721
 21
94.7099720589
 31
0.0
  0
SPLINE
  5
20A
330
1F
100
AcDbEntity
  8
0
  6
HIDDEN
 62
     7
370
     0
100
AcDbSpline
210
0.0
220
0.0
230
1.0
 70
     8
 71
     3
 72
    66
 73
    62
 74
     0
 42
0.00000001
 43
0.00000001
 12
1.0
 22
0.0
 32
0.0
 13
1.0
 23
0.0
 33
0.0
 40
-0.0312499999999994
 40
-0.0312499999999994
 40
0.0
 40
0.0
 40
0.0312500000000005
 40
0.0312500000000005
 40
0.062500000000001
 40
0.062500000000001
 40
0.0937500000000015
 40
0.0937500000000015
 40
0.1250000000000021
 40
0.1250000000000021
 40
0.1562500000000026
 40
0.1562500000000026
 40
0.1875000000000031
 40
0.1875000000000031
 40
0.2187500000000036
 40
0.2187500000000036
 40
0.2500000000000042
 40
0.2500000000000042
 40
0.2812500000000047
 40
0.2812500000000047
 40
0.3125000000000053
 40
0.3125000000000053
 40
0.3437500000000058
 40
0.3437500000000058
 40
0.3750000000000064
 40
0.3750000000000064
 40
0.4375000000000064
 40
0.4375000000000064
 40
0.5000000000000064
 40
0.5000000000000064
 40
0.531250000000006
 40
0.531250000000006
 40
0.5625000000000057
 40
0.5625000000000057
 40
0.5937500000000052
 40
0.5937500000000052
 40
0.6250000000000049
 40
0.6250000000000049
 40
0.6562500000000044
 40
0.6562500000000044
 40
0.6875000000000041
 40
0.6875000000000041
 40
0.7187500000000037
 40
0.7187500000000037
 40
0.7500000000000032
 40
0.7500000000000032
 40
0.7812500000000029
 40
0.7812500000000029
 40
0.8125000000000024
 40
0.8125000000000024
 40
0.8437500000000021
 40
0.8437500000000021
 40
0.8750000000000017
 40
0.8750000000000017
 40
0.9062500000000013
 40
0.9062500000000013
 40
0.9375000000000009
 40
0.9375000000000009
 40
0.9687500000000006
 40
0.9687500000000006
 40
1.0
 40
1.0
 40
1.03125
 40
1.03125
 10
68.77957813896228
 20
93.8938384028613
 30
0.0
 10
69.06272034963342
 20
93.85421517943684
 30
0.0
 10
69.21844970624053
 20
93.83422207275414
 30
0.0
 10
69.55909852428603
 20
93.79614604331
 30
0.0
 10
69.74604156855722
 20
93.7779415824988
 30
0.0
 10
70.13519625305003
 20
93.7472505369382
 30
0.0
 10
70.33869231307729
 20
93.73455812627644
 30
0.0
 10
70.76482923264841
 20
93.71635731405068
 30
0.0
 10
70.98499729599588
 20
93.71108189882274
 30
0.0
 10
71.42165691392728
 20
93.70918466136938
 30
0.0
 10
71.64339343173305
 20
93.71254793468924
 30
0.0
 10
72.07468665322884
 20
93.72731824670265
 30
0.0
 10
72.28264500888443
 20
93.7385408452452
 30
0.0
 10
72.68384532818988
 20
93.76707568143378
 30
0.0
 10
72.87507500225509
 20
93.7843089022558
 30
0.0
 10
73.22718760553558
 20
93.82125337373995
 30
0.0
 10
73.39158067250051
 20
93.84131755417424
 30
0.0
 10
73.68679385400624
 20
93.88095064477386
 30
0.0
 10
73.81733563047125
 20
93.90041976766531
 30
0.0
 10
74.04614944983881
 20
93.9365928091934
 30
0.0
 10
74.14420858802359
 20
93.95328541653954
 30
0.0
 10
74.30143170856367
 20
93.98094624170328
 30
0.0
 10
74.36182431067157
 20
93.99211214476983
 30
0.0
 10
74.44609003823003
 20
94.00787993158882
 30
0.0
 10
74.46914805431648
 20
94.01232573494764
 30
0.0
 10
74.48145597311448
 20
94.01468167835735
 30
0.0
 10
74.41280016718095
 20
94.00104004126415
 30
0.0
 10
74.1309994415707
 20
93.9506095364852
 30
0.0
 10
73.91376539428225
 20
93.91332149914155
 30
0.0
 10
73.49616353878547
 20
93.85482786943803
 30
0.0
 10
73.33966650225243
 20
93.83466990741846
 30
0.0
 10
72.9973651323679
 20
93.79634944832114
 30
0.0
 10
72.81496930690582
 20
93.77854943265312
 30
0.0
 10
72.42701068231061
 20
93.74778617168346
 30
0.0
 10
72.21832916509504
 20
93.73471365243871
 30
0.0
 10
71.79366651548777
 20
93.71649115337743
 30
0.0
 10
71.57754328960974
 20
93.71120215412643
 30
0.0
 10
71.13747319916259
 20
93.70912296209828
 30
0.0
 10
70.91531475082965
 20
93.71247011142187
 30
0.0
 10
70.48636858228222
 20
93.7270209586665
 30
0.0
 10
70.2743823309633
 20
93.73838341278059
 30
0.0
 10
69.87305251503375
 20
93.76686600513604
 30
0.0
 10
69.6843162980993
 20
93.78382160027596
 30
0.0
 10
69.32938042810609
 20
93.82098587707894
 30
0.0
 10
69.16515150106974
 20
93.84102685171047
 30
0.0
 10
68.87085007040578
 20
93.88048758931191
 30
0.0
 10
68.7382092667974
 20
93.90024011410803
 30
0.0
 10
68.50838784328401
 20
93.93656315927915
 30
0.0
 10
68.41190501058483
 20
93.95298698741856
 30
0.0
 10
68.2539607134722
 20
93.98076132938436
 30
0.0
 10
68.19238804439775
 20
93.99214343409875
 30
0.0
 10
68.10853318429082
 20
94.00783413817989
 30
0.0
 10
68.08546303143095
 20
94.01228133002853
 30
0.0
 10
68.07689836260325
 20
94.01392072436829
 30
0.0
 10
68.09192275685098
 20
94.01101342347238
 30
0.0
 10
68.1591248777169
 20
93.99833489413041
 30
0.0
 10
68.21109179035916
 20
93.98860226280067
 30
0.0
 10
68.35290116380932
 20
93.96322011364794
 30
0.0
 10
68.44308970473978
 20
93.94752915459011
 30
0.0
 10
68.65606578357531
 20
93.91290909577394
 30
0.0
 10
68.77957813896228
 20
93.8938384028613
 30
0.0
 10
69.06272034963342
 20
93.85421517943684
 30
0.0
  0
LINE
  5
20B
330
1F
100
AcDbEntity
  8
0
  6
HIDDEN
 62
     7
370
     0
100
AcDbLine
 10
68.7771895721
 20
126.7099735788
 30
0.0
 11
73.7771894603
 21
126.7099735788
 31
0.0
  0
SPLINE
  5
20C
330
1F
100
AcDbEntity
  8
0
  6
HIDDEN
 62
     7
370
     0
100
AcDbSpline
210
0.0
220
0.0
230
1.0
 70
     8
 71
     3
 72
    66
 73
    62
 74
     0
 42
0.00000001
 43
0.00000001
 12
1.0
 22
0.0
 32
0.0
 13
1.0
 23
0.0
 33
0.0
 40
-0.0312499999999996
 40
-0.0312499999999996
 40
0.0
 40
0.0
 40
0.0312500000000005
 40
0.0312500000000005
 40
0.062500000000001
 40
0.062500000000001
 40
0.0937500000000015
 40
0.0937500000000015
 40
0.125000000000002
 40
0.125000000000002
 40
0.1562500000000025
 40
0.1562500000000025
 40
0.187500000000003
 40
0.187500000000003
 40
0.2187500000000035
 40
0.2187500000000035
 40
0.2500000000000039
 40
0.2500000000000039
 40
0.2812500000000044
 40
0.2812500000000044
 40
0.312500000000005
 40
0.312500000000005
 40
0.3437500000000055
 40
0.3437500000000055
 40
0.375000000000006
 40
0.375000000000006
 40
0.437500000000006
 40
0.437500000000006
 40
0.500000000000006
 40
0.500000000000006
 40
0.5312500000000057
 40
0.5312500000000057
 40
0.5625000000000052
 40
0.5625000000000052
 40
0.5937500000000049
 40
0.5937500000000049
 40
0.6250000000000046
 40
0.6250000000000046
 40
0.6562500000000041
 40
0.6562500000000041
 40
0.6875000000000038
 40
0.6875000000000038
 40
0.7187500000000034
 40
0.7187500000000034
 40
0.750000000000003
 40
0.750000000000003
 40
0.7812500000000027
 40
0.7812500000000027
 40
0.8125000000000023
 40
0.8125000000000023
 40
0.843750000000002
 40
0.843750000000002
 40
0.8750000000000016
 40
0.8750000000000016
 40
0.9062500000000012
 40
0.9062500000000012
 40
0.9375000000000009
 40
0.9375000000000009
 40
0.9687500000000004
 40
0.9687500000000004
 40
1.0
 40
1.0
 40
1.03125
 40
1.03125
 10
73.77480089345224
 20
127.5261072348871
 30
0.0
 10
73.49165868278108
 20
127.5657304583116
 30
0.0
 10
73.33592932617397
 20
127.5857235649943
 30
0.0
 10
72.99528050812847
 20
127.6237995944384
 30
0.0
 10
72.80833746385728
 20
127.6420040552496
 30
0.0
 10
72.41918277936449
 20
127.6726951008102
 30
0.0
 10
72.21568671933721
 20
127.685387511472
 30
0.0
 10
71.78954979976609
 20
127.7035883236977
 30
0.0
 10
71.5693817364186
 20
127.7088637389257
 30
0.0
 10
71.13272211848722
 20
127.710760976379
 30
0.0
 10
70.91098560068144
 20
127.7073977030592
 30
0.0
 10
70.47969237918565
 20
127.6926273910458
 30
0.0
 10
70.27173402353009
 20
127.6814047925032
 30
0.0
 10
69.87053370422463
 20
127.6528699563147
 30
0.0
 10
69.67930403015943
 20
127.6356367354926
 30
0.0
 10
69.32719142687891
 20
127.5986922640085
 30
0.0
 10
69.16279835991399
 20
127.5786280835742
 30
0.0
 10
68.86758517840826
 20
127.5389949929746
 30
0.0
 10
68.73704340194325
 20
127.5195258700831
 30
0.0
 10
68.50822958257568
 20
127.4833528285551
 30
0.0
 10
68.41017044439091
 20
127.4666602212089
 30
0.0
 10
68.25294732385085
 20
127.4389993960452
 30
0.0
 10
68.19255472174294
 20
127.4278334929786
 30
0.0
 10
68.10828899418448
 20
127.4120657061596
 30
0.0
 10
68.08523097809802
 20
127.4076199028008
 30
0.0
 10
68.07292305930002
 20
127.4052639593911
 30
0.0
 10
68.14157886523356
 20
127.4189055964843
 30
0.0
 10
68.42337959084381
 20
127.4693361012632
 30
0.0
 10
68.64061363813225
 20
127.5066241386069
 30
0.0
 10
69.05821549362905
 20
127.5651177683104
 30
0.0
 10
69.21471253016206
 20
127.58527573033
 30
0.0
 10
69.55701390004661
 20
127.6235961894273
 30
0.0
 10
69.73940972550866
 20
127.6413962050953
 30
0.0
 10
70.1273683501039
 20
127.672159466065
 30
0.0
 10
70.33604986731946
 20
127.6852319853097
 30
0.0
 10
70.76071251692674
 20
127.703454484371
 30
0.0
 10
70.97683574280478
 20
127.708743483622
 30
0.0
 10
71.41690583325193
 20
127.7108226756501
 30
0.0
 10
71.63906428158485
 20
127.7074755263265
 30
0.0
 10
72.06801045013228
 20
127.6929246790819
 30
0.0
 10
72.2799967014512
 20
127.6815622249678
 30
0.0
 10
72.68132651738077
 20
127.6530796326124
 30
0.0
 10
72.87006273431521
 20
127.6361240374725
 30
0.0
 10
73.22499860430842
 20
127.5989597606695
 30
0.0
 10
73.38922753134474
 20
127.5789187860379
 30
0.0
 10
73.68352896200872
 20
127.5394580484365
 30
0.0
 10
73.81616976561712
 20
127.5197055236404
 30
0.0
 10
74.04599118913049
 20
127.4833824784692
 30
0.0
 10
74.14247402182966
 20
127.4669586503299
 30
0.0
 10
74.30041831894229
 20
127.439184308364
 30
0.0
 10
74.36199098801676
 20
127.4278022036497
 30
0.0
 10
74.4458458481237
 20
127.4121114995685
 30
0.0
 10
74.46891600098355
 20
127.4076643077199
 30
0.0
 10
74.47748066981124
 20
127.4060249133801
 30
0.0
 10
74.46245627556351
 20
127.408932214276
 30
0.0
 10
74.39525415469761
 20
127.421610743618
 30
0.0
 10
74.34328724205534
 20
127.4313433749477
 30
0.0
 10
74.20147786860518
 20
127.4567255241005
 30
0.0
 10
74.11128932767471
 20
127.4724164831583
 30
0.0
 10
73.89831324883919
 20
127.5070365419745
 30
0.0
 10
73.77480089345224
 20
127.5261072348871
 30
0.0
 10
73.49165868278108
 20
127.5657304583116
 30
0.0
  0
LINE
  5
20D
330
1F
100
AcDbEntity
  8
0
  6
HIDDEN
 62
     7
370
     0
100
AcDbLine
 10
73.3985097434
 20
108.5886525917
 30
0.0
 11
73.7771894603
 21
108.2099728748
 31
0.0
  0
LINE
  5
20E
330
1F
100
AcDbEntity
  8
0
  6
HIDDEN
 62
     7
370
     0
100
AcDbLine
 10
73.3985097434
 20
112.831293046
 30
0.0
 11
73.7771894603
 21
113.209972763
 31
0.0
  0
SPLINE
  5
20F
330
1F
100
AcDbEntity
  8
0
  6
HIDDEN
 62
     7
370
     0
100
AcDbSpline
210
0.0
220
0.0
230
1.0
 70
    11
 71
     3
 72
    60
 73
    56
 74
     0
 42
0.00000001
 43
0.00000001
 12
1.0
 22
0.0
 32
0.0
 13
1.0
 23
0.0
 33
0.0
 40
0.0
 40
0.0
 40
0.0
 40
0.0
 40
0.0625000000000011
 40
0.0625000000000011
 40
0.1250000000000022
 40
0.1250000000000022
 40
0.1562500000000027
 40
0.1562500000000027
 40
0.1875000000000032
 40
0.1875000000000032
 40
0.2187500000000038
 40
0.2187500000000038
 40
0.2500000000000043
 40
0.2500000000000043
 40
0.2812500000000049
 40
0.2812500000000049
 40
0.3125000000000054
 40
0.3125000000000054
 40
0.3437500000000059
 40
0.3437500000000059
 40
0.3750000000000065
 40
0.3750000000000065
 40
0.4375000000000077
 40
0.4375000000000077
 40
0.4687500000000075
 40
0.4687500000000075
 40
0.5000000000000074
 40
0.5000000000000074
 40
0.5312500000000073
 40
0.5312500000000073
 40
0.5625000000000072
 40
0.5625000000000072
 40
0.5937500000000071
 40
0.5937500000000071
 40
0.6250000000000069
 40
0.6250000000000069
 40
0.6875000000000058
 40
0.6875000000000058
 40
0.7187500000000052
 40
0.7187500000000052
 40
0.7500000000000047
 40
0.7500000000000047
 40
0.7812500000000041
 40
0.7812500000000041
 40
0.8125000000000036
 40
0.8125000000000036
 40
0.843750000000003
 40
0.843750000000003
 40
0.8750000000000023
 40
0.8750000000000023
 40
0.9062500000000018
 40
0.9062500000000018
 40
0.9375000000000012
 40
0.9375000000000012
 40
1.0
 40
1.0
 40
1.0
 40
1.0
 10
73.39850985976685
 20
108.5886524753146
 30
0.0
 10
73.2642403388934
 20
108.4543829544411
 30
0.0
 10
73.10160728442138
 20
108.3168958777779
 30
0.0
 10
72.70638032845663
 20
108.0618166563407
 30
0.0
 10
72.4822036227007
 20
107.9493558907538
 30
0.0
 10
72.09754800432687
 20
107.8211533097774
 30
0.0
 10
71.96473899632586
 20
107.7864620111039
 30
0.0
 10
71.68920211619553
 20
107.7350971326963
 30
0.0
 10
71.54469981239991
 20
107.7184844409276
 30
0.0
 10
71.25813945102387
 20
107.7066077779617
 30
0.0
 10
71.11512464714282
 20
107.7109188790185
 30
0.0
 10
70.82962858042353
 20
107.7400774057815
 30
0.0
 10
70.68936007407099
 20
107.7648976932949
 30
0.0
 10
70.42169715290206
 20
107.8312328575935
 30
0.0
 10
70.29182347410145
 20
107.8733813666838
 30
0.0
 10
70.04806406995439
 20
107.9701830566938
 30
0.0
 10
69.9340273059458
 20
108.0246589679947
 30
0.0
 10
69.71964039799758
 20
108.1430610663661
 30
0.0
 10
69.61957679749638
 20
108.2069937687862
 30
0.0
 10
69.4372799166448
 20
108.3377762174414
 30
0.0
 10
69.35417160824079
 20
108.4051210616012
 30
0.0
 10
69.1266956431776
 20
108.6083700753665
 30
0.0
 10
69.00373736913666
 20
108.7474694401578
 30
0.0
 10
68.87282367229207
 20
108.9144155425008
 30
0.0
 10
68.8376082055866
 20
108.963494843372
 30
0.0
 10
68.78996244412139
 20
109.0320443990878
 30
0.0
 10
68.7771453470668
 20
109.0517270111707
 30
0.0
 10
68.77723392175683
 20
109.051593479822
 30
0.0
 10
68.78980869341112
 20
109.0322628615329
 30
0.0
 10
68.83788944897539
 20
108.963092960218
 30
0.0
 10
68.8724050088726
 20
108.914977454659
 30
0.0
 10
68.95961742997679
 20
108.8037051279671
 30
0.0
 10
69.01268937194479
 20
108.7402188831276
 30
0.0
 10
69.13320887621451
 20
108.6096779619338
 30
0.0
 10
69.2010025773701
 20
108.5420810574695
 30
0.0
 10
69.42796627366181
 20
108.3389812592337
 30
0.0
 10
69.61242737969228
 20
108.2026081777999
 30
0.0
 10
69.92928685453415
 20
108.0271131471292
 30
0.0
 10
70.04219351669981
 20
107.97283451158
 30
0.0
 10
70.2853404184592
 20
107.8756516304142
 30
0.0
 10
70.4149758680705
 20
107.8332500826262
 30
0.0
 10
70.68202101325171
 20
107.7663830836412
 30
0.0
 10
70.82193482971476
 20
107.7412355712491
 30
0.0
 10
71.10782851952877
 20
107.711310695891
 30
0.0
 10
71.25097274477119
 20
107.7066595942062
 30
0.0
 10
71.53765221839585
 20
107.7178603835973
 30
0.0
 10
71.68239684034029
 20
107.7341411509359
 30
0.0
 10
71.9589351899049
 20
107.7850813802341
 30
0.0
 10
72.09234775698124
 20
107.8196600170705
 30
0.0
 10
72.3498006864167
 20
107.9049957552756
 30
0.0
 10
72.47030591602439
 20
107.954546151303
 30
0.0
 10
72.69733989437191
 20
108.064396177143
 30
0.0
 10
72.8045321848414
 20
108.1252303240082
 30
0.0
 10
73.0993233759938
 20
108.3152900077682
 30
0.0
 10
73.26283728622515
 20
108.4529799017729
 30
0.0
 10
73.39850985976685
 20
108.5886524753146
 30
0.0
  0
SPLINE
  5
210
330
1F
100
AcDbEntity
  8
0
  6
HIDDEN
 62
     7
370
     0
100
AcDbSpline
210
0.0
220
0.0
230
1.0
 70
    11
 71
     3
 72
    58
 73
    54
 74
     0
 42
0.00000001
 43
0.00000001
 12
1.0
 22
0.0
 32
0.0
 13
1.0
 23
0.0
 33
0.0
 40
0.0
 40
0.0
 40
0.0
 40
0.0
 40
0.0312499999999995
 40
0.0312499999999995
 40
0.0624999999999989
 40
0.0624999999999989
 40
0.0937499999999984
 40
0.0937499999999984
 40
0.1249999999999979
 40
0.1249999999999979
 40
0.1562499999999974
 40
0.1562499999999974
 40
0.1874999999999968
 40
0.1874999999999968
 40
0.2499999999999957
 40
0.2499999999999957
 40
0.2812499999999951
 40
0.2812499999999951
 40
0.3124999999999945
 40
0.3124999999999945
 40
0.3749999999999941
 40
0.3749999999999941
 40
0.4062499999999945
 40
0.4062499999999945
 40
0.4374999999999948
 40
0.4374999999999948
 40
0.4687499999999952
 40
0.4687499999999952
 40
0.4999999999999954
 40
0.4999999999999954
 40
0.5312499999999958
 40
0.5312499999999958
 40
0.5624999999999961
 40
0.5624999999999961
 40
0.6249999999999968
 40
0.6249999999999968
 40
0.6562499999999971
 40
0.6562499999999971
 40
0.6874999999999974
 40
0.6874999999999974
 40
0.7187499999999978
 40
0.7187499999999978
 40
0.7499999999999981
 40
0.7499999999999981
 40
0.8124999999999989
 40
0.8124999999999989
 40
0.8437499999999992
 40
0.8437499999999992
 40
0.8749999999999996
 40
0.8749999999999996
 40
0.9374999999999998
 40
0.9374999999999998
 40
1.0
 40
1.0
 40
1.0
 40
1.0
 10
73.39850985976685
 20
112.8312931624338
 30
0.0
 10
73.33164690436995
 20
112.8981561178308
 30
0.0
 10
73.2572154646899
 20
112.9662738774055
 30
0.0
 10
73.09182493768628
 20
113.1013104174804
 30
0.0
 10
73.0005586338184
 20
113.1683193530016
 30
0.0
 10
72.8054898889725
 20
113.2941103477216
 30
0.0
 10
72.70108625786678
 20
113.3534703263519
 30
0.0
 10
72.47671050779455
 20
113.4625553142213
 30
0.0
 10
72.35551618728239
 20
113.5127144251443
 30
0.0
 10
72.09996282905797
 20
113.5980851776182
 30
0.0
 10
71.96727363743933
 20
113.6329028777845
 30
0.0
 10
71.69109948057884
 20
113.6846013276215
 30
0.0
 10
71.54657535352247
 20
113.7012837653107
 30
0.0
 10
71.11731785406552
 20
113.7193715432228
 30
0.0
 10
70.82491712800636
 20
113.6885158658802
 30
0.0
 10
70.42278423315022
 20
113.5890453885194
 30
0.0
 10
70.29250238760908
 20
113.5467958765081
 30
0.0
 10
70.0488836183652
 20
113.4501258114782
 30
0.0
 10
69.93466199886521
 20
113.3956210797502
 30
0.0
 10
69.61208139817235
 20
113.2175138093907
 30
0.0
 10
69.43044310456276
 20
113.0829657706114
 30
0.0
 10
69.2023853993389
 20
112.8792076704072
 30
0.0
 10
69.13322935466412
 20
112.8103041747539
 30
0.0
 10
69.012224960028
 20
112.6792093557146
 30
0.0
 10
68.95999801091918
 20
112.6167070663302
 30
0.0
 10
68.87263570360625
 20
112.5052814065289
 30
0.0
 10
68.8374411073393
 20
112.4562158703085
 30
0.0
 10
68.78987161219565
 20
112.38776504011
 30
0.0
 10
68.77702180465292
 20
112.3680323799319
 30
0.0
 10
68.7773606012216
 20
112.3685431338488
 30
0.0
 10
68.79014586638785
 20
112.3881811030727
 30
0.0
 10
68.83817272433845
 20
112.4572467671265
 30
0.0
 10
68.87333981728158
 20
112.5062158255903
 30
0.0
 10
69.00404843151674
 20
112.6728174041373
 30
0.0
 10
69.12719604012902
 20
112.8120261071816
 30
0.0
 10
69.35396389610395
 20
113.0146372646654
 30
0.0
 10
69.43698851936685
 20
113.0819555963729
 30
0.0
 10
69.61970017909198
 20
113.2130451516029
 30
0.0
 10
69.71994924441205
 20
113.2770378767632
 30
0.0
 10
69.93306743539632
 20
113.3947737625965
 30
0.0
 10
70.04653407609787
 20
113.4490550949126
 30
0.0
 10
70.28942485998863
 20
113.5457100265688
 30
0.0
 10
70.41942049520799
 20
113.5880229348578
 30
0.0
 10
70.82007941029048
 20
113.6876919132592
 30
0.0
 10
71.11222616113416
 20
113.7190678944854
 30
0.0
 10
71.54106109315404
 20
113.7017679842433
 30
0.0
 10
71.68538773806961
 20
113.685396595786
 30
0.0
 10
71.96191183139435
 20
113.6341697670343
 30
0.0
 10
72.09488448436262
 20
113.599541493972
 30
0.0
 10
72.47930497095703
 20
113.4718285699345
 30
0.0
 10
72.70712181246721
 20
113.3576279630446
 30
0.0
 10
73.10045946041792
 20
113.1038130067057
 30
0.0
 10
73.26346024746158
 20
112.9663427747391
 30
0.0
 10
73.39850985976685
 20
112.8312931624338
 30
0.0
  0
LINE
  5
211
330
1F
100
AcDbEntity
  8
0
  6
HIDDEN
 62
     7
370
     0
100
AcDbLine
 10
73.7771894603
 20
94.7099720589
 30
0.0
 11
68.7771895721
 21
94.7099720589
 31
0.0
  0
SPLINE
  5
212
330
1F
100
AcDbEntity
  8
0
  6
HIDDEN
 62
     7
370
     0
100
AcDbSpline
210
0.0
220
0.0
230
1.0
 70
     8
 71
     3
 72
    66
 73
    62
 74
     0
 42
0.00000001
 43
0.00000001
 12
1.0
 22
0.0
 32
0.0
 13
1.0
 23
0.0
 33
0.0
 40
-0.03125
 40
-0.03125
 40
0.0
 40
0.0
 40
0.0312499999999999
 40
0.0312499999999999
 40
0.0624999999999998
 40
0.0624999999999998
 40
0.0937499999999996
 40
0.0937499999999996
 40
0.1249999999999995
 40
0.1249999999999995
 40
0.1562499999999994
 40
0.1562499999999994
 40
0.1874999999999993
 40
0.1874999999999993
 40
0.2187499999999992
 40
0.2187499999999992
 40
0.2499999999999991
 40
0.2499999999999991
 40
0.2812499999999989
 40
0.2812499999999989
 40
0.3124999999999988
 40
0.3124999999999988
 40
0.3437499999999987
 40
0.3437499999999987
 40
0.3749999999999986
 40
0.3749999999999986
 40
0.4374999999999993
 40
0.4374999999999993
 40
0.5000000000000001
 40
0.5000000000000001
 40
0.5312500000000001
 40
0.5312500000000001
 40
0.5625000000000001
 40
0.5625000000000001
 40
0.5937500000000001
 40
0.5937500000000001
 40
0.6250000000000001
 40
0.6250000000000001
 40
0.6562500000000001
 40
0.6562500000000001
 40
0.6875000000000001
 40
0.6875000000000001
 40
0.7187500000000001
 40
0.7187500000000001
 40
0.75
 40
0.75
 40
0.78125
 40
0.78125
 40
0.8125
 40
0.8125
 40
0.84375
 40
0.84375
 40
0.875
 40
0.875
 40
0.90625
 40
0.90625
 40
0.9375
 40
0.9375
 40
0.96875
 40
0.96875
 40
1.0
 40
1.0
 40
1.03125
 40
1.03125
 10
68.77957813896226
 20
93.89383840286129
 30
0.0
 10
69.06272034963342
 20
93.85421517943684
 30
0.0
 10
69.21844970624052
 20
93.83422207275414
 30
0.0
 10
69.55909852428603
 20
93.79614604330999
 30
0.0
 10
69.74604156855722
 20
93.77794158249878
 30
0.0
 10
70.13519625305003
 20
93.7472505369382
 30
0.0
 10
70.33869231307729
 20
93.73455812627643
 30
0.0
 10
70.7648292326484
 20
93.71635731405067
 30
0.0
 10
70.98499729599588
 20
93.71108189882274
 30
0.0
 10
71.42165691392728
 20
93.70918466136938
 30
0.0
 10
71.64339343173306
 20
93.71254793468923
 30
0.0
 10
72.07468665322884
 20
93.72731824670265
 30
0.0
 10
72.28264500888443
 20
93.73854084524518
 30
0.0
 10
72.68384532818989
 20
93.76707568143378
 30
0.0
 10
72.87507500225509
 20
93.7843089022558
 30
0.0
 10
73.22718760553558
 20
93.82125337373995
 30
0.0
 10
73.39158067250051
 20
93.84131755417422
 30
0.0
 10
73.68679385400624
 20
93.88095064477385
 30
0.0
 10
73.81733563047126
 20
93.90041976766531
 30
0.0
 10
74.04614944983882
 20
93.9365928091934
 30
0.0
 10
74.14420858802359
 20
93.95328541653954
 30
0.0
 10
74.30143170856367
 20
93.98094624170328
 30
0.0
 10
74.36182431067158
 20
93.99211214476983
 30
0.0
 10
74.44609003823003
 20
94.00787993158882
 30
0.0
 10
74.46914805431648
 20
94.01232573494764
 30
0.0
 10
74.48145597311448
 20
94.01468167835735
 30
0.0
 10
74.41280016718095
 20
94.00104004126415
 30
0.0
 10
74.1309994415707
 20
93.9506095364852
 30
0.0
 10
73.91376539428225
 20
93.91332149914153
 30
0.0
 10
73.49616353878547
 20
93.85482786943803
 30
0.0
 10
73.33966650225243
 20
93.83466990741846
 30
0.0
 10
72.9973651323679
 20
93.79634944832114
 30
0.0
 10
72.81496930690582
 20
93.77854943265311
 30
0.0
 10
72.42701068231061
 20
93.74778617168344
 30
0.0
 10
72.21832916509504
 20
93.73471365243871
 30
0.0
 10
71.79366651548777
 20
93.71649115337743
 30
0.0
 10
71.57754328960974
 20
93.71120215412643
 30
0.0
 10
71.13747319916259
 20
93.70912296209828
 30
0.0
 10
70.91531475082965
 20
93.71247011142187
 30
0.0
 10
70.48636858228221
 20
93.72702095866649
 30
0.0
 10
70.2743823309633
 20
93.7383834127806
 30
0.0
 10
69.87305251503375
 20
93.76686600513604
 30
0.0
 10
69.6843162980993
 20
93.78382160027594
 30
0.0
 10
69.32938042810609
 20
93.82098587707894
 30
0.0
 10
69.16515150106974
 20
93.84102685171047
 30
0.0
 10
68.87085007040578
 20
93.8804875893119
 30
0.0
 10
68.7382092667974
 20
93.90024011410802
 30
0.0
 10
68.50838784328401
 20
93.93656315927915
 30
0.0
 10
68.41190501058483
 20
93.95298698741856
 30
0.0
 10
68.2539607134722
 20
93.98076132938436
 30
0.0
 10
68.19238804439775
 20
93.99214343409875
 30
0.0
 10
68.1085331842908
 20
94.00783413817987
 30
0.0
 10
68.08546303143095
 20
94.01228133002853
 30
0.0
 10
68.07689836260325
 20
94.01392072436829
 30
0.0
 10
68.09192275685098
 20
94.01101342347238
 30
0.0
 10
68.1591248777169
 20
93.99833489413041
 30
0.0
 10
68.21109179035916
 20
93.98860226280065
 30
0.0
 10
68.35290116380932
 20
93.96322011364794
 30
0.0
 10
68.44308970473978
 20
93.94752915459011
 30
0.0
 10
68.6560657835753
 20
93.91290909577393
 30
0.0
 10
68.77957813896226
 20
93.89383840286129
 30
0.0
 10
69.06272034963342
 20
93.85421517943684
 30
0.0
  0
LINE
  5
213
330
1F
100
AcDbEntity
  8
0
  6
HIDDEN
 62
     7
370
     0
100
AcDbLine
 10
68.7771895721
 20
126.7099735788
 30
0.0
 11
73.7771894603
 21
126.7099735788
 31
0.0
  0
SPLINE
  5
214
330
1F
100
AcDbEntity
  8
0
  6
HIDDEN
 62
     7
370
     0
100
AcDbSpline
210
0.0
220
0.0
230
1.0
 70
     8
 71
     3
 72
    66
 73
    62
 74
     0
 42
0.00000001
 43
0.00000001
 12
1.0
 22
0.0
 32
0.0
 13
1.0
 23
0.0
 33
0.0
 40
-0.03125
 40
-0.03125
 40
0.0
 40
0.0
 40
0.0312499999999999
 40
0.0312499999999999
 40
0.0624999999999998
 40
0.0624999999999998
 40
0.0937499999999996
 40
0.0937499999999996
 40
0.1249999999999995
 40
0.1249999999999995
 40
0.1562499999999994
 40
0.1562499999999994
 40
0.1874999999999993
 40
0.1874999999999993
 40
0.2187499999999992
 40
0.2187499999999992
 40
0.2499999999999991
 40
0.2499999999999991
 40
0.2812499999999989
 40
0.2812499999999989
 40
0.3124999999999988
 40
0.3124999999999988
 40
0.3437499999999987
 40
0.3437499999999987
 40
0.3749999999999986
 40
0.3749999999999986
 40
0.4374999999999993
 40
0.4374999999999993
 40
0.5000000000000001
 40
0.5000000000000001
 40
0.5312500000000001
 40
0.5312500000000001
 40
0.5625000000000001
 40
0.5625000000000001
 40
0.5937500000000001
 40
0.5937500000000001
 40
0.6250000000000001
 40
0.6250000000000001
 40
0.6562500000000001
 40
0.6562500000000001
 40
0.6875000000000001
 40
0.6875000000000001
 40
0.7187500000000001
 40
0.7187500000000001
 40
0.75
 40
0.75
 40
0.78125
 40
0.78125
 40
0.8125
 40
0.8125
 40
0.84375
 40
0.84375
 40
0.875
 40
0.875
 40
0.90625
 40
0.90625
 40
0.9375
 40
0.9375
 40
0.96875
 40
0.96875
 40
1.0
 40
1.0
 40
1.03125
 40
1.03125
 10
73.77480089345224
 20
127.5261072348871
 30
0.0
 10
73.49165868278108
 20
127.5657304583116
 30
0.0
 10
73.33592932617397
 20
127.5857235649943
 30
0.0
 10
72.99528050812847
 20
127.6237995944384
 30
0.0
 10
72.80833746385728
 20
127.6420040552496
 30
0.0
 10
72.41918277936449
 20
127.6726951008102
 30
0.0
 10
72.21568671933721
 20
127.685387511472
 30
0.0
 10
71.78954979976609
 20
127.7035883236977
 30
0.0
 10
71.5693817364186
 20
127.7088637389257
 30
0.0
 10
71.13272211848722
 20
127.710760976379
 30
0.0
 10
70.91098560068144
 20
127.7073977030592
 30
0.0
 10
70.47969237918565
 20
127.6926273910458
 30
0.0
 10
70.27173402353009
 20
127.6814047925032
 30
0.0
 10
69.87053370422463
 20
127.6528699563147
 30
0.0
 10
69.67930403015943
 20
127.6356367354926
 30
0.0
 10
69.32719142687891
 20
127.5986922640085
 30
0.0
 10
69.16279835991399
 20
127.5786280835742
 30
0.0
 10
68.86758517840826
 20
127.5389949929746
 30
0.0
 10
68.73704340194327
 20
127.5195258700831
 30
0.0
 10
68.5082295825757
 20
127.483352828555
 30
0.0
 10
68.41017044439091
 20
127.4666602212089
 30
0.0
 10
68.25294732385085
 20
127.4389993960452
 30
0.0
 10
68.19255472174294
 20
127.4278334929786
 30
0.0
 10
68.10828899418448
 20
127.4120657061596
 30
0.0
 10
68.08523097809802
 20
127.4076199028008
 30
0.0
 10
68.07292305930002
 20
127.4052639593911
 30
0.0
 10
68.14157886523356
 20
127.4189055964843
 30
0.0
 10
68.42337959084381
 20
127.4693361012632
 30
0.0
 10
68.64061363813225
 20
127.5066241386069
 30
0.0
 10
69.05821549362905
 20
127.5651177683104
 30
0.0
 10
69.21471253016206
 20
127.58527573033
 30
0.0
 10
69.55701390004661
 20
127.6235961894273
 30
0.0
 10
69.73940972550868
 20
127.6413962050953
 30
0.0
 10
70.1273683501039
 20
127.672159466065
 30
0.0
 10
70.33604986731946
 20
127.6852319853097
 30
0.0
 10
70.76071251692674
 20
127.703454484371
 30
0.0
 10
70.97683574280478
 20
127.708743483622
 30
0.0
 10
71.41690583325193
 20
127.7108226756501
 30
0.0
 10
71.63906428158485
 20
127.7074755263265
 30
0.0
 10
72.06801045013228
 20
127.6929246790819
 30
0.0
 10
72.2799967014512
 20
127.6815622249678
 30
0.0
 10
72.68132651738077
 20
127.6530796326124
 30
0.0
 10
72.87006273431521
 20
127.6361240374725
 30
0.0
 10
73.22499860430842
 20
127.5989597606695
 30
0.0
 10
73.38922753134474
 20
127.5789187860379
 30
0.0
 10
73.68352896200872
 20
127.5394580484365
 30
0.0
 10
73.8161697656171
 20
127.5197055236404
 30
0.0
 10
74.04599118913048
 20
127.4833824784692
 30
0.0
 10
74.14247402182966
 20
127.4669586503299
 30
0.0
 10
74.30041831894229
 20
127.439184308364
 30
0.0
 10
74.36199098801676
 20
127.4278022036497
 30
0.0
 10
74.4458458481237
 20
127.4121114995685
 30
0.0
 10
74.46891600098355
 20
127.4076643077199
 30
0.0
 10
74.47748066981124
 20
127.4060249133801
 30
0.0
 10
74.46245627556351
 20
127.408932214276
 30
0.0
 10
74.3952541546976
 20
127.421610743618
 30
0.0
 10
74.34328724205533
 20
127.4313433749477
 30
0.0
 10
74.20147786860518
 20
127.4567255241004
 30
0.0
 10
74.11128932767471
 20
127.4724164831583
 30
0.0
 10
73.89831324883919
 20
127.5070365419745
 30
0.0
 10
73.77480089345224
 20
127.5261072348871
 30
0.0
 10
73.49165868278108
 20
127.5657304583116
 30
0.0
  0
LINE
  5
215
330
1F
100
AcDbEntity
  8
0
  6
HIDDEN
 62
     7
370
     0
100
AcDbLine
 10
73.3985097434
 20
108.5886525917
 30
0.0
 11
73.7771894603
 21
108.2099728748
 31
0.0
  0
LINE
  5
216
330
1F
100
AcDbEntity
  8
0
  6
HIDDEN
 62
     7
370
     0
100
AcDbLine
 10
73.3985097434
 20
112.831293046
 30
0.0
 11
73.7771894603
 21
113.209972763
 31
0.0
  0
SPLINE
  5
217
330
1F
100
AcDbEntity
  8
0
  6
HIDDEN
 62
     7
370
     0
100
AcDbSpline
210
0.0
220
0.0
230
1.0
 70
    11
 71
     3
 72
    60
 73
    56
 74
     0
 42
0.00000001
 43
0.00000001
 12
1.0
 22
0.0
 32
0.0
 13
1.0
 23
0.0
 33
0.0
 40
0.0
 40
0.0
 40
0.0
 40
0.0
 40
0.0625000000000012
 40
0.0625000000000012
 40
0.1250000000000024
 40
0.1250000000000024
 40
0.156250000000003
 40
0.156250000000003
 40
0.1875000000000036
 40
0.1875000000000036
 40
0.2187500000000042
 40
0.2187500000000042
 40
0.2500000000000048
 40
0.2500000000000048
 40
0.2812500000000053
 40
0.2812500000000053
 40
0.3125000000000058
 40
0.3125000000000058
 40
0.3437500000000064
 40
0.3437500000000064
 40
0.3750000000000069
 40
0.3750000000000069
 40
0.4375000000000081
 40
0.4375000000000081
 40
0.468750000000008
 40
0.468750000000008
 40
0.500000000000008
 40
0.500000000000008
 40
0.5312500000000079
 40
0.5312500000000079
 40
0.5625000000000079
 40
0.5625000000000079
 40
0.5937500000000078
 40
0.5937500000000078
 40
0.6250000000000077
 40
0.6250000000000077
 40
0.6875000000000064
 40
0.6875000000000064
 40
0.7187500000000059
 40
0.7187500000000059
 40
0.7500000000000052
 40
0.7500000000000052
 40
0.7812500000000046
 40
0.7812500000000046
 40
0.812500000000004
 40
0.812500000000004
 40
0.8437500000000033
 40
0.8437500000000033
 40
0.8750000000000027
 40
0.8750000000000027
 40
0.9062500000000021
 40
0.9062500000000021
 40
0.9375000000000014
 40
0.9375000000000014
 40
1.0
 40
1.0
 40
1.0
 40
1.0
 10
73.39850985976685
 20
108.5886524753146
 30
0.0
 10
73.2642403388934
 20
108.4543829544411
 30
0.0
 10
73.10160728442138
 20
108.3168958777779
 30
0.0
 10
72.70638032845663
 20
108.0618166563407
 30
0.0
 10
72.4822036227007
 20
107.9493558907538
 30
0.0
 10
72.09754800432687
 20
107.8211533097774
 30
0.0
 10
71.96473899632586
 20
107.7864620111039
 30
0.0
 10
71.68920211619553
 20
107.7350971326963
 30
0.0
 10
71.54469981239991
 20
107.7184844409276
 30
0.0
 10
71.25813945102387
 20
107.7066077779617
 30
0.0
 10
71.11512464714282
 20
107.7109188790185
 30
0.0
 10
70.82962858042355
 20
107.7400774057815
 30
0.0
 10
70.68936007407099
 20
107.7648976932949
 30
0.0
 10
70.42169715290206
 20
107.8312328575935
 30
0.0
 10
70.29182347410145
 20
107.8733813666838
 30
0.0
 10
70.04806406995439
 20
107.9701830566938
 30
0.0
 10
69.9340273059458
 20
108.0246589679947
 30
0.0
 10
69.71964039799758
 20
108.1430610663661
 30
0.0
 10
69.61957679749638
 20
108.2069937687862
 30
0.0
 10
69.4372799166448
 20
108.3377762174414
 30
0.0
 10
69.35417160824079
 20
108.4051210616012
 30
0.0
 10
69.1266956431776
 20
108.6083700753665
 30
0.0
 10
69.00373736913666
 20
108.7474694401578
 30
0.0
 10
68.87282367229207
 20
108.9144155425008
 30
0.0
 10
68.8376082055866
 20
108.963494843372
 30
0.0
 10
68.78996244412139
 20
109.0320443990878
 30
0.0
 10
68.7771453470668
 20
109.0517270111707
 30
0.0
 10
68.77723392175683
 20
109.051593479822
 30
0.0
 10
68.78980869341112
 20
109.0322628615329
 30
0.0
 10
68.83788944897539
 20
108.963092960218
 30
0.0
 10
68.8724050088726
 20
108.914977454659
 30
0.0
 10
68.95961742997679
 20
108.8037051279671
 30
0.0
 10
69.01268937194479
 20
108.7402188831276
 30
0.0
 10
69.1332088762145
 20
108.6096779619338
 30
0.0
 10
69.2010025773701
 20
108.5420810574695
 30
0.0
 10
69.42796627366181
 20
108.3389812592337
 30
0.0
 10
69.61242737969228
 20
108.2026081777999
 30
0.0
 10
69.92928685453414
 20
108.0271131471292
 30
0.0
 10
70.04219351669981
 20
107.97283451158
 30
0.0
 10
70.28534041845919
 20
107.8756516304142
 30
0.0
 10
70.4149758680705
 20
107.8332500826262
 30
0.0
 10
70.68202101325171
 20
107.7663830836412
 30
0.0
 10
70.82193482971475
 20
107.7412355712491
 30
0.0
 10
71.10782851952877
 20
107.711310695891
 30
0.0
 10
71.25097274477119
 20
107.7066595942062
 30
0.0
 10
71.53765221839585
 20
107.7178603835973
 30
0.0
 10
71.68239684034029
 20
107.7341411509359
 30
0.0
 10
71.95893518990489
 20
107.7850813802341
 30
0.0
 10
72.09234775698123
 20
107.8196600170705
 30
0.0
 10
72.3498006864167
 20
107.9049957552756
 30
0.0
 10
72.47030591602439
 20
107.954546151303
 30
0.0
 10
72.69733989437191
 20
108.064396177143
 30
0.0
 10
72.8045321848414
 20
108.1252303240082
 30
0.0
 10
73.0993233759938
 20
108.3152900077682
 30
0.0
 10
73.26283728622515
 20
108.4529799017729
 30
0.0
 10
73.39850985976685
 20
108.5886524753146
 30
0.0
  0
SPLINE
  5
218
330
1F
100
AcDbEntity
  8
0
  6
HIDDEN
 62
     7
370
     0
100
AcDbSpline
210
0.0
220
0.0
230
1.0
 70
    11
 71
     3
 72
    58
 73
    54
 74
     0
 42
0.00000001
 43
0.00000001
 12
1.0
 22
0.0
 32
0.0
 13
1.0
 23
0.0
 33
0.0
 40
0.0
 40
0.0
 40
0.0
 40
0.0
 40
0.0312499999999994
 40
0.0312499999999994
 40
0.0624999999999988
 40
0.0624999999999988
 40
0.0937499999999982
 40
0.0937499999999982
 40
0.1249999999999976
 40
0.1249999999999976
 40
0.156249999999997
 40
0.156249999999997
 40
0.1874999999999964
 40
0.1874999999999964
 40
0.2499999999999951
 40
0.2499999999999951
 40
0.2812499999999945
 40
0.2812499999999945
 40
0.3124999999999939
 40
0.3124999999999939
 40
0.3749999999999933
 40
0.3749999999999933
 40
0.4062499999999936
 40
0.4062499999999936
 40
0.4374999999999939
 40
0.4374999999999939
 40
0.4687499999999942
 40
0.4687499999999942
 40
0.4999999999999944
 40
0.4999999999999944
 40
0.5312499999999947
 40
0.5312499999999947
 40
0.562499999999995
 40
0.562499999999995
 40
0.6249999999999956
 40
0.6249999999999956
 40
0.6562499999999958
 40
0.6562499999999958
 40
0.6874999999999961
 40
0.6874999999999961
 40
0.7187499999999963
 40
0.7187499999999963
 40
0.7499999999999967
 40
0.7499999999999967
 40
0.8124999999999972
 40
0.8124999999999972
 40
0.8437499999999974
 40
0.8437499999999974
 40
0.8749999999999978
 40
0.8749999999999978
 40
0.9374999999999989
 40
0.9374999999999989
 40
1.0
 40
1.0
 40
1.0
 40
1.0
 10
73.39850985976685
 20
112.8312931624338
 30
0.0
 10
73.33164690436995
 20
112.8981561178308
 30
0.0
 10
73.2572154646899
 20
112.9662738774055
 30
0.0
 10
73.09182493768628
 20
113.1013104174804
 30
0.0
 10
73.00055863381841
 20
113.1683193530016
 30
0.0
 10
72.8054898889725
 20
113.2941103477216
 30
0.0
 10
72.70108625786678
 20
113.3534703263519
 30
0.0
 10
72.47671050779454
 20
113.4625553142213
 30
0.0
 10
72.3555161872824
 20
113.5127144251443
 30
0.0
 10
72.09996282905797
 20
113.5980851776182
 30
0.0
 10
71.96727363743933
 20
113.6329028777845
 30
0.0
 10
71.69109948057884
 20
113.6846013276215
 30
0.0
 10
71.54657535352247
 20
113.7012837653107
 30
0.0
 10
71.11731785406552
 20
113.7193715432228
 30
0.0
 10
70.82491712800636
 20
113.6885158658802
 30
0.0
 10
70.42278423315024
 20
113.5890453885194
 30
0.0
 10
70.29250238760908
 20
113.5467958765081
 30
0.0
 10
70.0488836183652
 20
113.4501258114782
 30
0.0
 10
69.93466199886521
 20
113.3956210797502
 30
0.0
 10
69.61208139817235
 20
113.2175138093907
 30
0.0
 10
69.43044310456276
 20
113.0829657706114
 30
0.0
 10
69.2023853993389
 20
112.8792076704072
 30
0.0
 10
69.13322935466412
 20
112.8103041747539
 30
0.0
 10
69.012224960028
 20
112.6792093557146
 30
0.0
 10
68.95999801091918
 20
112.6167070663302
 30
0.0
 10
68.87263570360625
 20
112.5052814065289
 30
0.0
 10
68.8374411073393
 20
112.4562158703085
 30
0.0
 10
68.78987161219565
 20
112.38776504011
 30
0.0
 10
68.77702180465292
 20
112.3680323799319
 30
0.0
 10
68.7773606012216
 20
112.3685431338488
 30
0.0
 10
68.79014586638785
 20
112.3881811030726
 30
0.0
 10
68.83817272433845
 20
112.4572467671265
 30
0.0
 10
68.87333981728158
 20
112.5062158255903
 30
0.0
 10
69.00404843151674
 20
112.6728174041373
 30
0.0
 10
69.12719604012902
 20
112.8120261071816
 30
0.0
 10
69.35396389610395
 20
113.0146372646654
 30
0.0
 10
69.43698851936685
 20
113.0819555963729
 30
0.0
 10
69.61970017909198
 20
113.2130451516029
 30
0.0
 10
69.71994924441205
 20
113.2770378767632
 30
0.0
 10
69.93306743539632
 20
113.3947737625965
 30
0.0
 10
70.04653407609787
 20
113.4490550949126
 30
0.0
 10
70.28942485998863
 20
113.5457100265688
 30
0.0
 10
70.41942049520799
 20
113.5880229348578
 30
0.0
 10
70.82007941029048
 20
113.6876919132592
 30
0.0
 10
71.11222616113415
 20
113.7190678944854
 30
0.0
 10
71.54106109315404
 20
113.7017679842433
 30
0.0
 10
71.68538773806961
 20
113.685396595786
 30
0.0
 10
71.96191183139435
 20
113.6341697670343
 30
0.0
 10
72.09488448436262
 20
113.599541493972
 30
0.0
 10
72.47930497095703
 20
113.4718285699345
 30
0.0
 10
72.70712181246721
 20
113.3576279630446
 30
0.0
 10
73.10045946041791
 20
113.1038130067057
 30
0.0
 10
73.26346024746158
 20
112.9663427747391
 30
0.0
 10
73.39850985976685
 20
112.8312931624338
 30
0.0
  0
LINE
  5
219
330
1F
100
AcDbEntity
  8
0
  6
HIDDEN
 62
     7
370
     0
100
AcDbLine
 10
68.2771894901
 20
118.7099731989
 30
0.0
 11
69.2771894212
 21
117.7099730349
 31
0.0
  0
LINE
  5
21A
330
1F
100
AcDbEntity
  8
0
  6
HIDDEN
 62
     7
370
     0
100
AcDbLine
 10
73.2771896112
 20
117.7099730349
 30
0.0
 11
74.2771895423
 21
118.7099731989
 31
0.0
  0
LINE
  5
21B
330
1F
100
AcDbEntity
  8
0
  6
HIDDEN
 62
     7
370
     0
100
AcDbLine
 10
68.2771894901
 20
127.3898316077
 30
0.0
 11
68.2771894901
 21
118.7099731989
 31
0.0
  0
LINE
  5
21C
330
1F
100
AcDbEntity
  8
0
  6
HIDDEN
 62
     7
370
     0
100
AcDbLine
 10
74.2771895423
 20
118.7099731989
 30
0.0
 11
74.2771895423
 21
127.3898316077
 31
0.0
  0
LINE
  5
21D
330
1F
100
AcDbEntity
  8
0
  6
HIDDEN
 62
     7
370
     0
100
AcDbLine
 10
74.2771895423
 20
127.3898316077
 30
0.0
 11
74.1445496499
 21
127.4664124004
 31
0.0
  0
LINE
  5
21E
330
1F
100
AcDbEntity
  8
0
  6
HIDDEN
 62
     7
370
     0
100
AcDbLine
 10
68.4098293825
 20
127.4664124004
 30
0.0
 11
68.2771894901
 21
127.3898316077
 31
0.0
  0
LINE
  5
21F
330
1F
100
AcDbEntity
  8
0
  6
HIDDEN
 62
     7
370
     0
100
AcDbLine
 10
68.2771894901
 20
94.03011403
 30
0.0
 11
68.4098293825
 21
93.9535332374
 31
0.0
  0
LINE
  5
220
330
1F
100
AcDbEntity
  8
0
  6
HIDDEN
 62
     7
370
     0
100
AcDbLine
 10
74.1445496499
 20
93.9535332374
 30
0.0
 11
74.2771895423
 21
94.03011403
 31
0.0
  0
LINE
  5
221
330
1F
100
AcDbEntity
  8
0
  6
HIDDEN
 62
     7
370
     0
100
AcDbLine
 10
74.2771895423
 20
94.03011403
 30
0.0
 11
74.2771895423
 21
102.7099724389
 31
0.0
  0
LINE
  5
222
330
1F
100
AcDbEntity
  8
0
  6
HIDDEN
 62
     7
370
     0
100
AcDbLine
 10
68.2771894901
 20
102.7099724389
 30
0.0
 11
68.2771894901
 21
94.03011403
 31
0.0
  0
LINE
  5
223
330
1F
100
AcDbEntity
  8
0
  6
HIDDEN
 62
     7
370
     0
100
AcDbLine
 10
74.2771895423
 20
102.7099724389
 30
0.0
 11
73.2771896112
 21
103.7099726028
 31
0.0
  0
LINE
  5
224
330
1F
100
AcDbEntity
  8
0
  6
HIDDEN
 62
     7
370
     0
100
AcDbLine
 10
69.2771894212
 20
103.7099726028
 30
0.0
 11
68.2771894901
 21
102.7099724389
 31
0.0
  0
LINE
  5
225
330
1F
100
AcDbEntity
  8
0
  6
HIDDEN
 62
     7
370
     0
100
AcDbLine
 10
87.9570483051
 20
113.709972845
 30
0.0
 11
79.2771898962
 21
113.709972845
 31
0.0
  0
LINE
  5
226
330
1F
100
AcDbEntity
  8
0
  6
HIDDEN
 62
     7
370
     0
100
AcDbLine
 10
79.2771898962
 20
107.7099727928
 30
0.0
 11
87.9570483051
 21
107.7099727928
 31
0.0
  0
LINE
  5
227
330
1F
100
AcDbEntity
  8
0
  6
HIDDEN
 62
     7
370
     0
100
AcDbLine
 10
87.9570483051
 20
107.7099727928
 30
0.0
 11
88.0336290977
 21
107.8426126852
 31
0.0
  0
LINE
  5
228
330
1F
100
AcDbEntity
  8
0
  6
HIDDEN
 62
     7
370
     0
100
AcDbLine
 10
88.0336290977
 20
113.5773329526
 30
0.0
 11
87.9570483051
 21
113.709972845
 31
0.0
  0
LINE
  5
229
330
1F
100
AcDbEntity
  8
0
  6
HIDDEN
 62
     7
370
     0
100
AcDbLine
 10
79.2771898962
 20
113.709972845
 30
0.0
 11
78.2771897323
 21
112.7099729139
 31
0.0
  0
LINE
  5
22A
330
1F
100
AcDbEntity
  8
0
  6
HIDDEN
 62
     7
370
     0
100
AcDbLine
 10
78.2771897323
 20
108.7099727239
 30
0.0
 11
79.2771898962
 21
107.7099727928
 31
0.0
  0
LINE
  5
22B
330
1F
100
AcDbEntity
  8
0
  6
HIDDEN
 62
     7
370
     0
100
AcDbLine
 10
87.9534645758
 20
113.8862470626
 30
0.0
 11
87.2771902762
 21
113.209972763
 31
0.0
  0
LINE
  5
22C
330
1F
100
AcDbEntity
  8
0
  6
HIDDEN
 62
     7
370
     0
100
AcDbLine
 10
87.2771902762
 20
108.2099728748
 30
0.0
 11
87.9636290304
 21
107.5235341206
 31
0.0
  0
LINE
  5
22D
330
1F
100
AcDbEntity
  8
0
  6
HIDDEN
 62
     7
370
     0
100
AcDbLine
 10
74.4534637599
 20
94.0336977593
 30
0.0
 11
73.7771894603
 21
94.7099720589
 31
0.0
  0
LINE
  5
22E
330
1F
100
AcDbEntity
  8
0
  6
HIDDEN
 62
     7
370
     0
100
AcDbLine
 10
68.7771895721
 20
94.7099720589
 30
0.0
 11
68.0907508179
 21
94.0235333047
 31
0.0
  0
LINE
  5
22F
330
1F
100
AcDbEntity
  8
0
  6
HIDDEN
 62
     7
370
     0
100
AcDbLine
 10
68.1009152725
 20
127.3862478785
 30
0.0
 11
68.7771895721
 21
126.7099735788
 31
0.0
  0
LINE
  5
230
330
1F
100
AcDbEntity
  8
0
  6
HIDDEN
 62
     7
370
     0
100
AcDbLine
 10
73.7771894603
 20
126.7099735788
 30
0.0
 11
74.4636282145
 21
127.396412333
 31
0.0
  0
LINE
  5
231
330
1F
100
AcDbEntity
  8
0
  6
HIDDEN
 62
     7
370
     0
100
AcDbLine
 10
87.2771902762
 20
113.209972763
 30
0.0
 11
73.7771894603
 21
113.209972763
 31
0.0
  0
LINE
  5
232
330
1F
100
AcDbEntity
  8
0
  6
HIDDEN
 62
     7
370
     0
100
AcDbLine
 10
73.7771894603
 20
108.2099728748
 30
0.0
 11
87.2771902762
 21
108.2099728748
 31
0.0
  0
LINE
  5
233
330
1F
100
AcDbEntity
  8
0
  6
HIDDEN
 62
     7
370
     0
100
AcDbLine
 10
73.7771894603
 20
94.7099720589
 30
0.0
 11
73.7771894603
 21
108.2099728748
 31
0.0
  0
LINE
  5
234
330
1F
100
AcDbEntity
  8
0
  6
HIDDEN
 62
     7
370
     0
100
AcDbLine
 10
68.7771895721
 20
109.037043666
 30
0.0
 11
68.7771895721
 21
94.7099720589
 31
0.0
  0
LINE
  5
235
330
1F
100
AcDbEntity
  8
0
  6
HIDDEN
 62
     7
370
     0
100
AcDbLine
 10
68.7771895721
 20
126.7099735788
 30
0.0
 11
68.7771895721
 21
112.3682852132
 31
0.0
  0
LINE
  5
236
330
1F
100
AcDbEntity
  8
0
  6
HIDDEN
 62
     7
370
     0
100
AcDbLine
 10
73.7771894603
 20
113.209972763
 30
0.0
 11
73.7771894603
 21
126.7099735788
 31
0.0
  0
LINE
  5
237
330
1F
100
AcDbEntity
  8
0
  6
HIDDEN
 62
     7
370
     0
100
AcDbLine
 10
74.4534637599
 20
94.0336977593
 30
0.0
 11
73.7771894603
 21
94.7099720589
 31
0.0
  0
LINE
  5
238
330
1F
100
AcDbEntity
  8
0
  6
HIDDEN
 62
     7
370
     0
100
AcDbLine
 10
68.7771895721
 20
94.7099720589
 30
0.0
 11
68.0907508179
 21
94.0235333047
 31
0.0
  0
LINE
  5
239
330
1F
100
AcDbEntity
  8
0
  6
HIDDEN
 62
     7
370
     0
100
AcDbLine
 10
68.1009152725
 20
127.3862478785
 30
0.0
 11
68.7771895721
 21
126.7099735788
 31
0.0
  0
LINE
  5
23A
330
1F
100
AcDbEntity
  8
0
  6
HIDDEN
 62
     7
370
     0
100
AcDbLine
 10
73.7771894603
 20
126.7099735788
 30
0.0
 11
74.4636282145
 21
127.396412333
 31
0.0
  0
LINE
  5
23B
330
1F
100
AcDbEntity
  8
0
  6
HIDDEN
 62
     7
370
     0
100
AcDbLine
 10
73.7771894603
 20
94.7099720589
 30
0.0
 11
73.7771894603
 21
108.2099728748
 31
0.0
  0
LINE
  5
23C
330
1F
100
AcDbEntity
  8
0
  6
HIDDEN
 62
     7
370
     0
100
AcDbLine
 10
68.7771895721
 20
109.037043666
 30
0.0
 11
68.7771895721
 21
94.7099720589
 31
0.0
  0
LINE
  5
23D
330
1F
100
AcDbEntity
  8
0
  6
HIDDEN
 62
     7
370
     0
100
AcDbLine
 10
68.7771895721
 20
126.7099735788
 30
0.0
 11
68.7771895721
 21
112.3682852132
 31
0.0
  0
LINE
  5
23E
330
1F
100
AcDbEntity
  8
0
  6
HIDDEN
 62
     7
370
     0
100
AcDbLine
 10
73.7771894603
 20
113.209972763
 30
0.0
 11
73.7771894603
 21
126.7099735788
 31
0.0
  0
LINE
  5
23F
330
1F
100
AcDbEntity
  8
0
  6
HIDDEN
 62
     7
370
     0
100
AcDbLine
 10
74.4534637599
 20
94.0336977593
 30
0.0
 11
73.7771894603
 21
94.7099720589
 31
0.0
  0
LINE
  5
240
330
1F
100
AcDbEntity
  8
0
  6
HIDDEN
 62
     7
370
     0
100
AcDbLine
 10
68.7771895721
 20
94.7099720589
 30
0.0
 11
68.0907508179
 21
94.0235333047
 31
0.0
  0
LINE
  5
241
330
1F
100
AcDbEntity
  8
0
  6
HIDDEN
 62
     7
370
     0
100
AcDbLine
 10
68.1009152725
 20
127.3862478785
 30
0.0
 11
68.7771895721
 21
126.7099735788
 31
0.0
  0
LINE
  5
242
330
1F
100
AcDbEntity
  8
0
  6
HIDDEN
 62
     7
370
     0
100
AcDbLine
 10
73.7771894603
 20
126.7099735788
 30
0.0
 11
74.4636282145
 21
127.396412333
 31
0.0
  0
LINE
  5
243
330
1F
100
AcDbEntity
  8
0
  6
HIDDEN
 62
     7
370
     0
100
AcDbLine
 10
73.7771894603
 20
94.7099720589
 30
0.0
 11
73.7771894603
 21
108.2099728748
 31
0.0
  0
LINE
  5
244
330
1F
100
AcDbEntity
  8
0
  6
HIDDEN
 62
     7
370
     0
100
AcDbLine
 10
68.7771895721
 20
109.037043666
 30
0.0
 11
68.7771895721
 21
94.7099720589
 31
0.0
  0
LINE
  5
245
330
1F
100
AcDbEntity
  8
0
  6
HIDDEN
 62
     7
370
     0
100
AcDbLine
 10
68.7771895721
 20
126.7099735788
 30
0.0
 11
68.7771895721
 21
112.3682852132
 31
0.0
  0
LINE
  5
246
330
1F
100
AcDbEntity
  8
0
  6
HIDDEN
 62
     7
370
     0
100
AcDbLine
 10
73.7771894603
 20
113.209972763
 30
0.0
 11
73.7771894603
 21
126.7099735788
 31
0.0
  0
INSERT
  5
252
330
1F
100
AcDbEntity
  8
VERMASSUNG
100
AcDbBlockReference
  2
SW_CENTERMARKSYMBOL_0
 10
71.2771895162
 20
110.7099728189
 30
0.0
  0
OLE2FRAME
  5
253
330
1F
100
AcDbEntity
  8
0
100
AcDbOle2Frame
 70
     2
  3
Paintbrush-Bild
 10
13.8511154363
 20
38.264191557
 30
0.0
 11
51.6290888628
 21
31.9806341108
 31
0.0
 71
     2
 72
     0
 73
     1
 90
    12928
310
80552BED0767C5B32B40DDAF6807D121434000000000000000006FFBDDFB85D0
310
4940DDAF6807D121434000000000000000006FFBDDFB85D04940416F4BD60AFB
310
3F4000000000000000002BED0767C5B32B40416F4BD60AFB3F40000000000000
310
0000000000000100000000010000010000000100000000000100000000320000
310
D0CF11E0A1B11AE1000000000000000000000000000000003E000300FEFF0900
310
0600000000000000000000000100000001000000000000000010000002000000
310
01000000FEFFFFFF0000000000000000FFFFFFFFFFFFFFFFFFFFFFFFFFFFFFFF
310
FFFFFFFFFFFFFFFFFFFFFFFFFFFFFFFFFFFFFFFFFFFFFFFFFFFFFFFFFFFFFFFF
310
FFFFFFFFFFFFFFFFFFFFFFFFFFFFFFFFFFFFFFFFFFFFFFFFFFFFFFFFFFFFFFFF
310
FFFFFFFFFFFFFFFFFFFFFFFFFFFFFFFFFFFFFFFFFFFFFFFFFFFFFFFFFFFFFFFF
310
FFFFFFFFFFFFFFFFFFFFFFFFFFFFFFFFFFFFFFFFFFFFFFFFFFFFFFFFFFFFFFFF
310
FFFFFFFFFFFFFFFFFFFFFFFFFFFFFFFFFFFFFFFFFFFFFFFFFFFFFFFFFFFFFFFF
310
FFFFFFFFFFFFFFFFFFFFFFFFFFFFFFFFFFFFFFFFFFFFFFFFFFFFFFFFFFFFFFFF
310
FFFFFFFFFFFFFFFFFFFFFFFFFFFFFFFFFFFFFFFFFFFFFFFFFFFFFFFFFFFFFFFF
310
FFFFFFFFFFFFFFFFFFFFFFFFFFFFFFFFFFFFFFFFFFFFFFFFFFFFFFFFFFFFFFFF
310
FFFFFFFFFFFFFFFFFFFFFFFFFFFFFFFFFFFFFFFFFFFFFFFFFFFFFFFFFFFFFFFF
310
FFFFFFFFFFFFFFFFFFFFFFFFFFFFFFFFFFFFFFFFFFFFFFFFFFFFFFFFFFFFFFFF
310
FFFFFFFFFFFFFFFFFFFFFFFFFFFFFFFFFFFFFFFFFFFFFFFFFFFFFFFFFFFFFFFF
310
FFFFFFFFFFFFFFFFFFFFFFFFFFFFFFFFFFFFFFFFFFFFFFFFFFFFFFFFFFFFFFFF
310
FFFFFFFFFFFFFFFFFFFFFFFFFFFFFFFFFFFFFFFFFFFFFFFFFFFFFFFFFFFFFFFF
310
FDFFFFFFFEFFFFFFFEFFFFFFFEFFFFFF05000000060000000700000008000000
310
090000000A0000000B0000000C0000000D0000000E0000000F00000010000000
310
11000000120000001300000014000000150000001600000017000000FEFFFFFF
310
FFFFFFFFFFFFFFFFFFFFFFFFFFFFFFFFFFFFFFFFFFFFFFFFFFFFFFFFFFFFFFFF
310
FFFFFFFFFFFFFFFFFFFFFFFFFFFFFFFFFFFFFFFFFFFFFFFFFFFFFFFFFFFFFFFF
310
FFFFFFFFFFFFFFFFFFFFFFFFFFFFFFFFFFFFFFFFFFFFFFFFFFFFFFFFFFFFFFFF
310
FFFFFFFFFFFFFFFFFFFFFFFFFFFFFFFFFFFFFFFFFFFFFFFFFFFFFFFFFFFFFFFF
310
FFFFFFFFFFFFFFFFFFFFFFFFFFFFFFFFFFFFFFFFFFFFFFFFFFFFFFFFFFFFFFFF
310
FFFFFFFFFFFFFFFFFFFFFFFFFFFFFFFFFFFFFFFFFFFFFFFFFFFFFFFFFFFFFFFF
310
FFFFFFFFFFFFFFFFFFFFFFFFFFFFFFFFFFFFFFFFFFFFFFFFFFFFFFFFFFFFFFFF
310
FFFFFFFFFFFFFFFFFFFFFFFFFFFFFFFFFFFFFFFFFFFFFFFFFFFFFFFFFFFFFFFF
310
FFFFFFFFFFFFFFFFFFFFFFFFFFFFFFFFFFFFFFFFFFFFFFFFFFFFFFFFFFFFFFFF
310
FFFFFFFFFFFFFFFFFFFFFFFFFFFFFFFFFFFFFFFFFFFFFFFFFFFFFFFFFFFFFFFF
310
FFFFFFFFFFFFFFFFFFFFFFFFFFFFFFFFFFFFFFFFFFFFFFFFFFFFFFFFFFFFFFFF
310
FFFFFFFFFFFFFFFFFFFFFFFFFFFFFFFFFFFFFFFFFFFFFFFFFFFFFFFFFFFFFFFF
310
FFFFFFFFFFFFFFFFFFFFFFFFFFFFFFFFFFFFFFFFFFFFFFFFFFFFFFFFFFFFFFFF
310
52006F006F007400200045006E00740072007900000000000000000000000000
310
0000000000000000000000000000000000000000000000000000000000000000
310
16000500FFFFFFFFFFFFFFFF020000000A00030000000000C000000000000046
310
00000000000000000000000080E5F5B0EF4DCD0103000000C000000000000000
310
01004F006C006500000000000000000000000000000000000000000000000000
310
0000000000000000000000000000000000000000000000000000000000000000
310
0A000200FFFFFFFFFFFFFFFFFFFFFFFF00000000000000000000000000000000
310
0000000000000000000000000000000000000000000000001400000000000000
310
010043006F006D0070004F0062006A0000000000000000000000000000000000
310
0000000000000000000000000000000000000000000000000000000000000000
310
120002010100000003000000FFFFFFFF00000000000000000000000000000000
310
0000000000000000000000000000000000000000010000004D00000000000000
310
01004F006C006500310030004E00610074006900760065000000000000000000
310
0000000000000000000000000000000000000000000000000000000000000000
310
1A000200FFFFFFFFFFFFFFFFFFFFFFFF00000000000000000000000000000000
310
0000000000000000000000000000000000000000040000002426000000000000
310
FEFFFFFF02000000FEFFFFFFFFFFFFFFFFFFFFFFFFFFFFFFFFFFFFFFFFFFFFFF
310
FFFFFFFFFFFFFFFFFFFFFFFFFFFFFFFFFFFFFFFFFFFFFFFFFFFFFFFFFFFFFFFF
310
FFFFFFFFFFFFFFFFFFFFFFFFFFFFFFFFFFFFFFFFFFFFFFFFFFFFFFFFFFFFFFFF
310
FFFFFFFFFFFFFFFFFFFFFFFFFFFFFFFFFFFFFFFFFFFFFFFFFFFFFFFFFFFFFFFF
310
FFFFFFFFFFFFFFFFFFFFFFFFFFFFFFFFFFFFFFFFFFFFFFFFFFFFFFFFFFFFFFFF
310
FFFFFFFFFFFFFFFFFFFFFFFFFFFFFFFFFFFFFFFFFFFFFFFFFFFFFFFFFFFFFFFF
310
FFFFFFFFFFFFFFFFFFFFFFFFFFFFFFFFFFFFFFFFFFFFFFFFFFFFFFFFFFFFFFFF
310
FFFFFFFFFFFFFFFFFFFFFFFFFFFFFFFFFFFFFFFFFFFFFFFFFFFFFFFFFFFFFFFF
310
FFFFFFFFFFFFFFFFFFFFFFFFFFFFFFFFFFFFFFFFFFFFFFFFFFFFFFFFFFFFFFFF
310
FFFFFFFFFFFFFFFFFFFFFFFFFFFFFFFFFFFFFFFFFFFFFFFFFFFFFFFFFFFFFFFF
310
FFFFFFFFFFFFFFFFFFFFFFFFFFFFFFFFFFFFFFFFFFFFFFFFFFFFFFFFFFFFFFFF
310
FFFFFFFFFFFFFFFFFFFFFFFFFFFFFFFFFFFFFFFFFFFFFFFFFFFFFFFFFFFFFFFF
310
FFFFFFFFFFFFFFFFFFFFFFFFFFFFFFFFFFFFFFFFFFFFFFFFFFFFFFFFFFFFFFFF
310
FFFFFFFFFFFFFFFFFFFFFFFFFFFFFFFFFFFFFFFFFFFFFFFFFFFFFFFFFFFFFFFF
310
FFFFFFFFFFFFFFFFFFFFFFFFFFFFFFFFFFFFFFFFFFFFFFFFFFFFFFFFFFFFFFFF
310
FFFFFFFFFFFFFFFFFFFFFFFFFFFFFFFFFFFFFFFFFFFFFFFFFFFFFFFFFFFFFFFF
310
0100000200000000000000000000000000000000000000000000000000000000
310
0000000000000000000000000000000000000000000000000000000000000000
310
0100FEFF030A0000FFFFFFFF0A00030000000000C00000000000004607000000
310
5042727573680007000000504272757368000700000050427275736800F439B2
310
7100000000000000000000000000000000000000000000000000000000000000
310
0000000000000000000000000000000000000000000000000000000000000000
310
0000000000000000000000000000000000000000000000000000000000000000
310
0000000000000000000000000000000000000000000000000000000000000000
310
0000000000000000000000000000000000000000000000000000000000000000
310
0000000000000000000000000000000000000000000000000000000000000000
310
0000000000000000000000000000000000000000000000000000000000000000
310
0000000000000000000000000000000000000000000000000000000000000000
310
0000000000000000000000000000000000000000000000000000000000000000
310
0000000000000000000000000000000000000000000000000000000000000000
310
0000000000000000000000000000000000000000000000000000000000000000
310
0000000000000000000000000000000000000000000000000000000000000000
310
20260000424D0E260000000000003E00000028000000B40200006E0000000100
310
01000000000000000000130B0000130B00000200000002000000000000FFFFFF
310
FFFFFFFFFFFFFFFFFFFFFFFFFFFFFFFFFFFFFFFFFFFFFFFFFFFFFFFFFFFFFFFF
310
FFFFFFFFFFFFFFFFFFFFFFFFFFFFFFFFFFFFFFFFFFFFFFFFFFFFFFFFFFFFFFFF
310
FFFFFFFFFFFFFFFFFFFFFFFFFFFFFFFFFFFFFFFFFFFFFFFFF000FFFFFFFFFFFF
310
FFFFFFFFFFFFFFFFFFFFFFFFFFFFFFFFFFFFFFFFFFFFFFFFFFFFFFFFFFFFFFFF
310
FFFFFFFFFFFFFFFFFFFFFFFFFFFFFFFFFFFFFFFFFFFFFFFFFFFFFFFFFFFFFFFF
310
FFFFFFFFFFFFFFFFFFFFFFFFFFFFFFFFF000FFFFFFFFFFFFFFFFFFFFFFFFFFFF
310
FFFFFFFFFFFFFFFFFFFFFFFFFFFFFFFFFFFFFFFFFFFFFFFFFFFFFFFFFFFFFFFF
310
FFFFFFFFFFFFFFFFFFFFFFFFFFFFFFFFFFFFFFFFFFFFFFFFFFFFFFFFFFFFFFFF
310
FFFFFFFFFFFFFFFFF000FFFFFFFFFFFFFFFFFFFFFFFFFFFFFFFFFFFFFFFFFFFF
310
FFFFFFFFFFFFFFFFFFFFFFFFFFFFFFFFFFFFFFFFFFFFFFFFFFFFFFFFFFFFFFFF
310
FFFFFFFFFFFFFFFFFFFFFFFFFFFFFFFFFFFFFFFFFFFFFFFFFFFFFFFFFFFFFFFF
310
F000FFFFFFFFFFFFFFFFFFFFFFFFFFFFFFFFFFFFFFFFFFFFFFFFFFFFFFFFFFFF
310
FFFFFFFFFFFFFFFFFFFFFFFFFFFFFFFFFFFFFFFFFFFFFFFFFFFFFFFFFFFFFFFF
310
FFFFFFFFFFFFFFFFFFFFFFFFFFFFFFFFFFFFFFFFFFFFFFFFF000FFFFFFFFFFFF
310
FFFFFFFFFFFFFFFFFFFFFFFFFFFFFFFFFFFFFFFFFFFFFFFFFFFFFFFFFFFFFFFF
310
FFFFFFFFFFFFFFFFFFFFFFFFFFFFFFFFFFFFFFFFFFFFFFFFFFFFFFFFFFFFFFFF
310
FFFFFFFFFFFFFFFFFFFFFFFFFFFFFFFFF000FFFFFFFFFFFFFFFFFFFFFFFFFFFF
310
FFFFFFFFFFFFFFFFFFFFFFFFFFFFFFFFFFFFFFFFFFFFFFFFFFFFFFFFFFFFFFFF
310
FFFFFFFFFFFFFFFFFFFFFFFFFFFFFFFFFFFFFFFFFFFFFFFFFFFFFFFFFFFFFFFF
310
FFFFFFFFFFFFFFFFF000FFFFFFFFFFFFFFFFFFFFFFFFFFFFFFFFFFFFFFFFFFFF
310
FFFFFFFFFFFFFFFFFFFFFFFFFFFFFFFFFFFFFFFFFFFFFFFFFFFFFFFFFFFFFFFF
310
FFFFFFFFFFFFFFFFFFFFFFFFFFFFFFFFFFFFFFFFFFFFFFFFFFFFFFFFFFFFFFFF
310
F000FFFFFFFFFFFFFFFFFFFFFFFFFFFFFFFFFFFFFFFFFFFFFFFFFFFFFFFFFFFF
310
FFFFFFFFFFFFFFFFFFFFFFFFFFFFFFFFFFFFFFFFFFFFFFFFFFFFFFFFFFFFFFFF
310
FFFFFFFFFFFFFFFFFFFFFFFFFFFFFFFFFFFFFFFFFFFFFFFFF000FFFFFFFFFFFF
310
FFFFFFFFFFFFFFFFFFFFFFFFFFFFFFFFFFFFFFFFFFFFFFFFFFFFFFFFFFFFFFFF
310
FFFFFFFFFFFFFFFFFFFFFFFFFFFFFFFFFFFFFFFFFFFFFFFFFFFFFFFFFFFFFFFF
310
FFFFFFFFFFFFFFFFFFFFFFFFFFFFFFFFF000FFFFFFFFFFFFFFFFFFFFFFFFFFFF
310
FFFFFFFFFFFFFFFFFFFFFFFFFFFFFFFFFFFFFFFFFFFFFFFFFFFFFFFFFFFFFFFF
310
FFFFFFFFFFFFFFFFFFFFFFFFFFFFFFFFFFFFFFFFFFFFFFFFFFFFFFFFFFFFFFFF
310
FFFFFFFFFFFFFFFFF000FFFFFFFFFFFFFFFFFFFFFFFFFFFFFFFFFFFFFFFFFFFF
310
FFFFFFFFFFFFFFFFFFFFFFFFFFFFFFFFFFFFFFFFFFFFFFFFFFFFFFFFFFFFFFFF
310
FFFFFFFFFFFFFFFFFFFFFFFFFFFFFFFFFFFFFFFFFFFFFFFFFFFFFFFFFFFFFFFF
310
F000FFFFFFFFFFFFFFFFFFFFFFFFFFFFFFFFFFFFFFFFFFFFFFFFFFFFFFFFFFFF
310
FFFFFFFFFFFFFFFFFFFFFFFFFFFFFFFFFFFFFFFFFFFFFFFFFFFFFFFFFFFFFFFF
310
FFFFFFFFFFFFFFFFFFFFFFFFFFFFFFFFFFFFFFFFFFFFFFFFF000FFFFFFFFFFFF
310
FFFFFFFFFFFFFFFFFFFFFFFFFFFFFFFFFFFFFFFFFFFFFFFFFFFFFFFFFFFFFFFF
310
FFFFFFFFFFFFFFFFFFFFFFFFFFFFFFFFFFFFFFFFFFFFFFFFFFFFFFFFFFFFFFFF
310
FFFFFFFFFFFFFFFFFFFFFFFFFFFFFFFFF000FFFFFFFFFFFFFFFFFFFFFFFFFFFF
310
FFFFFFFFFFFFFFFFFFFFFFFFFFFFFFFFFFFFFFFFFFFFFFFFFFFFFFFFFFFFFFFF
310
FFFFFFFFFFFFFFFFFFFFFFFFFFFFFFFFFFFFFFFFFFFFFFFFFFFFFFFFFFFFFFFF
310
FFFFFFFFFFFFFFFFF000FFFFFFFFFFFFFFFFFFFFFFFFFFFFFFFFFFFFFFFFFFFF
310
FFFFFFFFFFFFFFFFFFFFFFFFFFFFFFFFFFFFFFFFFFFFFFFFFFFFFFFFFFFFFFFF
310
FFFFFFFFFFFFFFFFFFFFFFFFFFFFFFFFFFFFFFFFFFFFFFFFFFFFFFFFFFFFFFFF
310
F000FFFFFFFFFFFFFFFFFFFFFFFFFFFFFFFFFFFFFFFFFFFFFFFFFFFFFFFFFFFF
310
FFFFFFFFFFFFFFFFFFFFFFFFFFFFFFFFFFFFFFFFFFFFFFFFFFFFFFFFFFFFFFFF
310
FFFFFFFFFFFFFFFFFFFFFFFFFFFFFFFFFFFFFFFFFFFFFFFFF000FFFFFFFFFFFF
310
FFFFFFFFFFFFFFFFFFFFFFFFFFFFFFFFFFFFFFFFFFFFFFFFFFFFFFFFFFFFFFFF
310
FFFFFFFFFFFFFFFFFFFFFFFFFFFFFFFFFFFFFFFFFFFFFFFFFFFFFFFFFFFFFFFF
310
FFFFFFFFFFFFFFFFFFFFFFFFFFFFFFFFF000FFFFFFFFFFFFFFFFFFFFFFFFFFFF
310
FFFFFFFFFFFFFFFFFFFFFFFFFFFFFFFFFFFFFFFFFFFFFFFFFFFFFFFFFFFFFFFF
310
FFFFFFFFFFFFFFFFFFFFFFFFFFFFFFFFFFFFFFFFFFFFFFFFFFFFFFFFFFFFFFFF
310
FFFFFFFFFFFFFFFFF000FFFFF80003FFFFFFFFFFFFFFFFFFFFFFFFFFFFFFFFFF
310
FFFFF00007FFFFFFFFFF00007FFFFFF800000000000000007FFFFFFFFFFFFFFF
310
FFFFFFFC001FFFFFFFFFFFFFFC001FFFFFFFFFFFFFFFFFFFFFFFFFFE0007FFFF
310
F000FFFF8000007FFFFFFFF8000FFFFFC0007FFFFF80007FFFFF0000007FFFFF
310
FFF8000007FFFFF800000000000000007FFFFFF0001FFFFFFFFFFFC00001FFFF
310
FFFFFFFFC00001FFFFFFFF000000000003FFFFE000007FFFF000FFFE0000000F
310
FFFFFFF0000FFFFF80007FFFFF80007FFFFC0000001FFFFFFFC0000001FFFFF8
310
00000000000000007FFFFFF0001FFFFFFFFFFE0000003FFFFFFFFFFE0000003F
310
FFFFFF000000000003FFFF0000000FFFF000FFF800000003FFFFFFF00007FFFF
310
80007FFFFF80007FFFF000000007FFFFFF000000003FFFF80000000000000000
310
7FFFFFF0001FFFFFFFFFF80000000FFFFFFFFFF80000000FFFFFFF0000000000
310
03FFFC00000003FFF000FFE000000000FFFFFFF00007FFFF80003FFFFF80007F
310
FFC000000001FFFFFC000000001FFFF800000000000000007FFFFFF0001FFFFF
310
FFFFE000000003FFFFFFFFE000000003FFFFFF000000000003FFF000000000FF
310
F000FF80000000007FFFFFF00007FFFF80003FFFFF80007FFF8000000000FFFF
310
F80000000007FFF800000000000000007FFFFFF0001FFFFFFFFFC000000001FF
310
FFFFFFC000000001FFFFFF000000000003FFC0000000007FF000FF0000000000
310
3FFFFFE00007FFFF00003FFFFF80007FFE00000000003FFFF00000000003FFF8
310
00000000000000007FFFFFF0001FFFFFFFFF8000000000FFFFFFFF8000000000
310
FFFFFF000000000003FF80000000003FF000FE00000000001FFFFFE00003FFFF
310
00003FFFFF80007FFC00000000001FFFE00000000001FFF8000001FFFE000000
310
7FFFFFF0001FFFFFFFFE00000000003FFFFFFE00000000003FFFFF0000000000
310
03FF00000000001FF000FC00000000000FFFFFE00003FFFF00001FFFFF80007F
310
F800000000001FFFC00000000000FFF8000001FFFE0000007FFFFFF0001FFFFF
310
FFFC00000000001FFFFFFC00000000001FFFFF000000000003FE00000000000F
310
F000F8000000000007FFFFE00003FFFF00001FFFFF80007FF800000000000FFF
310
800000000000FFF8000001FFFE0000007FFFFFF0001FFFFFFFF800000000000F
310
FFFFF800000000000FFFFF000000000003FC000000000007F000F80000000000
310
03FFFFC00003FFFE00001FFFFF80007FF0000000000007FF0000000000007FF8
310
000001FFFE0000007FFFFFF0001FFFFFFFF0000000000007FFFFF00000000000
310
07FFFF000000000003F8000000000003F000F0000000000003FFFFC00001FFFE
310
00001FFFFF80007FE0000000000007FE0000000000003FF8000001FFFE000000
310
7FFFFFF0001FFFFFFFF0000000000007FFFFF0000000000007FFFF0000000000
310
03F800001F800003F000E00001FFF00001FFFFC00001FFFE00000FFFFF80007F
310
E00001FFE00003FE00001FFF00003FF8000001FFFE0000007FFFFFF0001FFFFF
310
FFE000003E000003FFFFE000003E000003FFFF000000000003F00001FFF80001
310
F000E00007FFFC0001FFFFC00001FFFE00000FFFFF80007FC0000FFFFC0003FC
310
0000FFFFC0001FF8000001FFFE0000007FFFFFF0001FFFFFFFC00003FFE00001
310
FFFFC00003FFE00001FFFF0001FFFFFFFFF00007FFFE0001F000E0000FFFFF00
310
00FFFF800001FFFC00000FFFFF80007FC0001FFFFE0001FC0001FFFFE0001FF8
310
000001FFFE0000007FFFFFF0001FFFFFFF80000FFFF80000FFFF80000FFFF800
310
00FFFF0003FFFFFFFFE0000FFFFF8000F000C0003FFFFF8000FFFF800000FFFC
310
000007FFFF80007F80003FFFFF0001FC0003FFFFF0001FF8000001FFFE000000
310
7FFFFFF0001FFFFFFF80003FFFFE0000FFFF80003FFFFE0000FFFF0003FFFFFF
310
FFE0003FFFFF8000F000C0003FFFFF8000FFFF800000FFFC000007FFFF80007F
310
80007FFFFF8001F80007FFFFF8000FF8000001FFFE0000007FFFFFF0001FFFFF
310
FF00007FFFFF00007FFF00007FFFFF00007FFF0003FFFFFFFFE0003FFFFFC000
310
F000C0007FFFFFC000FFFF000000FFFC000007FFFF80007F8000FFFFFF8000F8
310
000FFFFFF8000FF8000001FFFE0000007FFFFFF0001FFFFFFF0000FFFFFF8000
310
7FFF0000FFFFFF80007FFF0003FFFFFFFFC0007FFFFFC00070008000FFFFFFC0
310
00FFFF000000FFF8000007FFFF80007F8000FFFFFF8000F8000FFFFFF8000FF8
310
000001FFFE0000007FFFFFF0001FFFFFFE0001FFFFFFC0003FFE0001FFFFFFC0
310
003FFF0003FFFFFFFFC0007FFFFFE00070008000FFFFFFC0007FFF0000007FF8
310
000003FFFF80007F0001FFFFFF8000F8000FFFFFF8000FF8000001FFFE000000
310
7FFFFFF0001FFFFFFE0001FFFFFFC0003FFE0001FFFFFFC0003FFF0003FFFFFF
310
FFC000FFFFFFE00070008000FFFFFFC0007FFF0000007FF8000003FFFF80007F
310
0001FFFFFF8000F8001FFFFFF8000FF8000001FFFE0000007FFFFFF0001FFFFF
310
FE0003FFFFFFE0003FFE0003FFFFFFE0003FFF0003FFFFFFFFC000FFFFFFE000
310
70008000FFFFFFC0007FFE0000007FF8000003FFFF80007F0001FFFFFF8000F0
310
001FFFFFF8000FF8000001FFFE0000007FFFFFF0001FFFFFFC0003FFFFFFE000
310
1FFC0003FFFFFFE0001FFF0003FFFFFFFFC000FFFFFFC00070008000FFFFFF80
310
007FFE0000007FF0000003FFFF80007F0001FFFFFF0000F0001FFFFFF8000FF8
310
000001FFFE0000007FFFFFF0001FFFFFFC0007FFFFFFF0001FFC0007FFFFFFF0
310
001FFF0003FFFFFFFFC000FFFFFFC00070008001FFFFFF0000FFFE0000003FF0
310
000001FFFF80007F0001FFFFFF0000F8001FFFFFF0000FF8000001FFFE000000
310
7FFFFFF0001FFFFFFC0007FFFFFFF0001FFC0007FFFFFFF0001FFF0003FFFFFF
310
FFC001FFFFFF80007000FFFFFFFFFE0000FFFE0008003FF0008001FFFF80007F
310
FFFFFFFFFC0000FFFFFFFFFFE0000FF8000001FFFE0000007FFFFFF0001FFFFF
310
F8000FFFFFFFF8000FF8000FFFFFFFF8000FFF0003FFFFFFFFFFFFFFFFFF0000
310
7000FFFFFFFFFC0000FFFC0008003FF0008001FFFF80007FFFFFFFFFF80001FF
310
FFFFFFFF80000FF8000001FFFE0000007FFFFFF0001FFFFFF8000FFFFFFFF800
310
0FF8000FFFFFFFF8000FFF0003FFFFFFFFFFFFFFFFFE0000F000FFFFFFFFE000
310
00FFFC000C003FE000C001FFFF80007FFFFFFFFFC00001FFFFFFFFFE00001FF8
310
000001FFFE0000007FFFFFF0001FFFFFF8000FFFFFFFF8000FF8000FFFFFFFF8
310
000FFF0003FFFFFFFFFFFFFFFFF00000F000FFFFFFFE000001FFFC000C001FE0
310
00C000FFFF80007FFFFFFFFE000001FFFFFFFFE000001FF80FFFFFFFFFFFFFC0
310
7FFFFFF0001FFFFFF8000FFFFFFFF8000FF8000FFFFFFFF8000FFF0003FFFFFF
310
FFFFFFFFFF800000F000FFFFFFC0000001FFFC001C001FE001C000FFFF80007F
310
FFFFFF80000003FFFFFFF80000001FF80FFFFFFFFFFFFFC07FFFFFF0001FFFFF
310
F8001FFFFFFFFC000FF8001FFFFFFFFC000FFF0003FFFFFFFFFFFFFFF0000001
310
F000FFFFF800000001FFF8001C001FE001C000FFFF80007FFFFFF800000003FF
310
FFFF800000003FF80FFFFFFFFFFFFFC07FFFFFF0001FFFFFF8001FFFFFFFFC00
310
0FF8001FFFFFFFFC000FFF0003FFFFFFFFFFFFFE00000001F000FFFFC0000000
310
03FFF8001E001FC001E000FFFF80007FFFFF8000000007FFFFFC000000003FF8
310
0FFFFFFFFFFFFFC07FFFFFF0001FFFFFF8001FFFFFFFFC000FF8001FFFFFFFFC
310
000FFF0003FFFFFFFFFFFFE000000003F000FFFE0000000007FFF8001E000FC0
310
01E0007FFF80007FFFFE0000000007FFFFE0000000007FF80FFFFFFFFFFFFFC0
310
7FFFFFF0001FFFFFF0001FFFFFFFFC0007F0001FFFFFFFFC0007FF0003FFFFFF
310
FFFFFF0000000003F000FFF80000000007FFF8001E000FC003E0007FFF80007F
310
FFF0000000000FFFFF8000000000FFF80FFFFFFFFFFFFFC07FFFFFF0001FFFFF
310
F0001FFFFFFFFC0007F0001FFFFFFFFC0007FF0003FFFFFFFFFFFC0000000007
310
F000FFE0000000000FFFF0003E000FC003E0007FFF80007FFFC0000000001FFF
310
FE0000000001FFF80FFFFFFFFFFFFFC07FFFFFF0001FFFFFF0001FFFFFFFFC00
310
07F0001FFFFFFFFC0007FF0003FFFFFFFFFFF0000000000FF000FFC000000000
310
1FFFF0003F000F8003F0003FFF80007FFF80000000003FFFF80000000003FFF8
310
0FFFFFFFFFFFFFC07FFFFFF0001FFFFFF0001FFFFFFFFC0007F0001FFFFFFFFC
310
0007FF0003FFFFFFFFFFE0000000001FF000FF00000000007FFFF0003F000780
310
03F0003FFF80007FFF00000000007FFFF00000000007FFF80FFFFFFFFFFFFFC0
310
7FFFFFF0001FFFFFF0001FFFFFFFFC0007F0001FFFFFFFFC0007FF0003FFFFFF
310
FFFF80000000007FF000FE0000000000FFFFE0003F00078007F0003FFF80007F
310
FE0000000001FFFFE0000000001FFFF80FFFFFFFFFFFFFC07FFFFFF0001FFFFF
310
F0001FFFFFFFFC0007F0001FFFFFFFFC0007FF0003FFFFFFFFFF0000000000FF
310
F000FC0000000003FFFFE0007F00078007F0003FFF80007FFC0000000007FFFF
310
C0000000007FFFF80FFFFFFFFFFFFFC07FFFFFF0001FFFFFF8001FFFFFFFFC00
310
0FF8001FFFFFFFFC000FFF0003FFFFFFFFFE0000000003FFF000FC000000000F
310
FFFFE0007F80070007F8001FFF80007FF8000000001FFFFF8000000001FFFFF8
310
0FFFFFFFFFFFFFC07FFFFFF0001FFFFFF8001FFFFFFFFC000FF8001FFFFFFFFC
310
000FFF0003FFFFFFFFFC000000000FFFF000F8000000007FFFFFE0007F800700
310
07F8001FFF80007FF000000000FFFFFF800000000FFFFFF80FFFFFFFFFFFFFC0
310
7FFFFFF0001FFFFFF8000FFFFFFFF8000FF8000FFFFFFFF8000FFF0003FFFFFF
310
FFFC000000007FFFF000F800000007FFFFFFC0007F8003000FF8001FFF80007F
310
F000000007FFFFFF000000007FFFFFF80FFFFFFFFFFFFFC07FFFFFF0001FFFFF
310
F8000FFFFFFFF8000FF8000FFFFFFFF8000FFF0003FFFFFFFFF80000000FFFFF
310
F000F0000000FFFFFFFFC000FF8003000FF8001FFF80007FE0000000FFFFFFFF
310
0000000FFFFFFFF8000001FFFE0000007FFFFFF0001FFFFFF8000FFFFFFFF800
310
0FF8000FFFFFFFF8000FFF0003FFFFFFFFF8000000FFFFFFF000F000000FFFFF
310
FFFFC000FFC002000FF8000FFF80007FE000001FFFFFFFFE000001FFFFFFFFF8
310
000001FFFE0000007FFFFFF0001FFFFFF8000FFFFFFFF8000FF8000FFFFFFFF8
310
000FFF0003FFFFFFFFF000001FFFFFFFF000E00000FFFFFFFFFFC000FFC00200
310
0FFC000FFF80007FE00001FFFFFFFFFE00001FFFFFFFFFF8000001FFFE000000
310
7FFFFFF0001FFFFFFC000FFFFFFFF8001FFC000FFFFFFFF8001FFF0003FFFFFF
310
FFF00001FFFFFFFFF000E00007FFFFFFFFFF8000FFC000001FFC000FFF80007F
310
C0000FFFFFFFFFFE0000FFFFFFFFFFF8000001FFFE0000007FFFFFF0001FFFFF
310
FC0007FFFFFFF0001FFC0007FFFFFFF0001FFF0003FFFFFFFFF00007FFFFFFFF
310
F000E0001FFFFFFFFFFF8000FFC000001FFC000FFF80007FC0003FFFFFFFFFFE
310
0001FFFFFFFFFFF8000001FFFE0000007FFFFFF0001FFFFFFC0007FFFFFFF000
310
1FFC0007FFFFFFF0001FFF0003FFFFFFFFF0001FFFFFFFFFF000E0003FFFFF00
310
03FF8001FFE000001FFC0007FF80007FC0007FFFFF0007FC0003FFFFF0003FF8
310
000001FFFE0000007FFFFFF0001FFFFFFC0003FFFFFFE0001FFC0003FFFFFFE0
310
001FFF0003FFFFFFFFF0003FFFFFFFFFF000E0003FFFFF0001FF8001FFE00000
310
1FFE0007FF80007FC0007FFFFE0003FC0007FFFFE0003FF8000001FFFE000000
310
7FFFFFF0001FFFFFFE0003FFFFFFE0003FFE0003FFFFFFE0003FFF0003FFFFFF
310
FFF0003FFFFF8001F000E0003FFFFF0001FF0001FFE000001FFE0007FF80007F
310
C0007FFFFE0003FC0007FFFFE0003FF8000001FFFE0000007FFFFFF0001FFFFF
310
FE0001FFFFFFC0003FFE0001FFFFFFC0003FFF0003FFFFFFFFF0003FFFFF0001
310
F000E0003FFFFF0003FF0001FFE000003FFE0007FF80007FC0007FFFFE0003FC
310
0007FFFFE0003FF8000001FFFE0000007FFFFFF0001FFFFFFF0001FFFFFFC000
310
7FFF0001FFFFFFC0007FFF0003FFFFFFFFF0003FFFFF0001F000E0003FFFFE00
310
03FF0003FFF000003FFE0003FF80007FC0007FFFFC0003FE0007FFFFE0003FF8
310
000001FFFE0000007FFFFFF0001FFFFFFF0000FFFFFF80007FFF0000FFFFFF80
310
007FFF0003FFFFFFFFF0003FFFFF0001F000E0003FFFFE0003FF0003FFF00000
310
3FFF0003FF80007FC0007FFFFC0007FE0007FFFFC0003FF8000001FFFE000000
310
7FFFFFF0001FFFFFFF80007FFFFF0000FFFF80007FFFFF0000FFFF0003FFFFFF
310
FFF0003FFFFF0003F000E0003FFFFC0003FE0003FFF000003FFF0003FF80007F
310
E0003FFFF80007FE0003FFFFC0007FF8000001FFFE0000007FFFFFF0001FFFFF
310
FF80003FFFFE0000FFFF80003FFFFE0000FFFF0003FFFFFFFFF0001FFFFE0003
310
F000F0001FFFF80003FE0003FFF000007FFF0001FF80007FE0003FFFF00007FE
310
0001FFFF80007FF8000001FFFE0000007FFFFFF0001FFFFFFFC0000FFFF80001
310
FFFFC0000FFFF80001FFFF0003FFFFFFFFF0001FFFFC0003F000F0000FFFF000
310
07FE0007FFF800007FFF0001FF80007FE0001FFFE00007FF0000FFFE00007FF8
310
000001FFFE0000007FFFFFF0001FFFFFFFC00003FFE00001FFFFC00003FFE000
310
01FFFF0003FFFFFFFFF8000FFFF80003F000F00003FFC00007FC0007FFF80000
310
7FFF8001FF80007FF00007FF80000FFF00007FF80000FFF8000001FFFE000000
310
7F80000000000001FFE000003E000003FFFFE000003E000003FFFF0003FFFFFF
310
FFF80003FFE00007F000F800000000000FFC0007FFF800007FFF8001FF80007F
310
F000000000000FFF000000000000FFF8000001FFFE0000007F80000000000001
310
FFF0000000000007FFFFF0000000000007FFFF0003FFFFFFFFFC00007E000007
310
F000F800000000000FFC0007FFF80000FFFF8000FF80007FF800000000001FFF
310
800000000001FFF8000001FFFE0000007F80000000000001FFF800000000000F
310
FFFFF800000000000FFFFF0003FFFFFFFFFC00000000000FF000FC0000000000
310
1FFC0007FFFC0000FFFF8000FF80007FF800000000003FFFC00000000001FFF8
310
000001FFFE0000007F80000000000001FFF800000000000FFFFFF80000000000
310
0FFFFF0003FFFFFFFFFE00000000001FF000FE00000000003FF8000FFFFC0000
310
FFFF8000FF80007FFC00000000003FFFC00000000003FFF8000001FFFE000000
310
7F80000000000001FFFC00000000001FFFFFFC00000000001FFFFF0003FFFFFF
310
FFFF00000000001FF000FF00000000003FF8000FFFFC0000FFFFC000FF80007F
310
FE00000000007FFFE00000000007FFF8000001FFFE0000007F80000000000001
310
FFFE00000000003FFFFFFE00000000003FFFFF0003FFFFFFFFFF80000000003F
310
F000FF80000000007FF8000FFFFC0001FFFFC0007F80007FFF0000000000FFFF
310
F0000000000FFFF800000000000000007F80000000000001FFFF8000000000FF
310
FFFFFF8000000000FFFFFF0003FFFFFFFFFFC0000000007FF000FFC000000000
310
FFF8000FFFFE0001FFFFC0007F80007FFF8000000001FFFFF8000000001FFFF8
310
00000000000000007F80000000000001FFFFC000000001FFFFFFFFC000000001
310
FFFFFF0003FFFFFFFFFFE000000000FFF000FFE000000003FFF0001FFFFE0001
310
FFFFC0007F80007FFFC000000007FFFFFE000000003FFFF80000000000000000
310
7F80000000000001FFFFE000000003FFFFFFFFE000000003FFFFFF0003FFFFFF
310
FFFFF000000003FFF000FFF80000000FFFF0001FFFFE0001FFFFE0007F80007F
310
FFF00000000FFFFFFF00000000FFFFF800000000000000007F80000000000001
310
FFFFF80000000FFFFFFFFFF80000000FFFFFFF0003FFFFFFFFFFFC0000000FFF
310
F000FFFE0000003FFFF0001FFFFE0003FFFFE0003F80007FFFFC0000003FFFFF
310
FFC0000003FFFFF800000000000000007F80000000000001FFFFFE0000003FFF
310
FFFFFFFE0000003FFFFFFF0003FFFFFFFFFFFF0000003FFFF000FFFF800000FF
310
FFF0001FFFFF0003FFFFE0003F80007FFFFF000001FFFFFFFFF800001FFFFFF8
310
00000000000000007F80000000000001FFFFFFC00001FFFFFFFFFFFFC00001FF
310
FFFFFF0003FFFFFFFFFFFFC00000FFFFF000FFFFF8000FFFFFFFFFFFFFFFFFFF
310
FFFFFFFFFFFFFFFFFFFFF0001FFFFFFFFFFF0000FFFFFFF80000000000000000
310
7FFFFFFFFFFFFFFFFFFFFFFC001FFFFFFFFFFFFFFC001FFFFFFFFFFFFFFFFFFF
310
FFFFFFFC001FFFFFF000FFFFFFFFFFFFFFFFFFFFFFFFFFFFFFFFFFFFFFFFFFFF
310
FFFFFFFFFFFFFFFFFFFFFFFFFFFFFFFFFFFFFFFFFFFFFFFFFFFFFFFFFFFFFFFF
310
FFFFFFFFFFFFFFFFFFFFFFFFFFFFFFFFFFFFFFFFFFFFFFFFFFFFFFFFFFFFFFFF
310
F000FFFFFFFFFFFFFFFFFFFFFFFFFFFFFFFFFFFFFFFFFFFFFFFFFFFFFFFFFFFF
310
FFFFFFFFFFFFFFFFFFFFFFFFFFFFFFFFFFFFFFFFFFFFFFFFFFFFFFFFFFFFFFFF
310
FFFFFFFFFFFFFFFFFFFFFFFFFFFFFFFFFFFFFFFFFFFFFFFFF000FFFFFFFFFFFF
310
FFFFFFFFFFFFFFFFFFFFFFFFFFFFFFFFFFFFFFFFFFFFFFFFFFFFFFFFFFFFFFFF
310
FFFFFFFFFFFFFFFFFFFFFFFFFFFFFFFFFFFFFFFFFFFFFFFFFFFFFFFFFFFFFFFF
310
FFFFFFFFFFFFFFFFFFFFFFFFFFFFFFFFF000FFFFFFFFFFFFFFFFFFFFFFFFFFFF
310
FFFFFFFFFFFFFFFFFFFFFFFFFFFFFFFFFFFFFFFFFFFFFFFFFFFFFFFFFFFFFFFF
310
FFFFFFFFFFFFFFFFFFFFFFFFFFFFFFFFFFFFFFFFFFFFFFFFFFFFFFFFFFFFFFFF
310
FFFFFFFFFFFFFFFFF000FFFFFFFFFFFFFFFFFFFFFFFFFFFFFFFFFFFFFFFFFFFF
310
FFFFFFFFFFFFFFFFFFFFFFFFFFFFFFFFFFFFFFFFFFFFFFFFFFFFFFFFFFFFFFFF
310
FFFFFFFFFFFFFFFFFFFFFFFFFFFFFFFFFFFFFFFFFFFFFFFFFFFFFFFFFFFFFFFF
310
F000FFFFFFFFFFFFFFFFFFFFFFFFFFFFFFFFFFFFFFFFFFFFFFFFFFFFFFFFFFFF
310
FFFFFFFFFFFFFFFFFFFFFFFFFFFFFFFFFFFFFFFFFFFFFFFFFFFFFFFFFFFFFFFF
310
FFFFFFFFFFFFFFFFFFFFFFFFFFFFFFFFFFFFFFFFFFFFFFFFF000FFFFFFFFFFFF
310
FFFFFFFFFFFFFFFFFFFFFFFFFFFFFFFFFFFFFFFFFFFFFFFFFFFFFFFFFFFFFFFF
310
FFFFFFFFFFFFFFFFFFFFFFFFFFFFFFFFFFFFFFFFFFFFFFFFFFFFFFFFFFFFFFFF
310
FFFFFFFFFFFFFFFFFFFFFFFFFFFFFFFFF000FFFFFFFFFFFFFFFFFFFFFFFFFFFF
310
FFFFFFFFFFFFFFFFFFFFFFFFFFFFFFFFFFFFFFFFFFFFFFFFFFFFFFFFFFFFFFFF
310
FFFFFFFFFFFFFFFFFFFFFFFFFFFFFFFFFFFFFFFFFFFFFFFFFFFFFFFFFFFFFFFF
310
FFFFFFFFFFFFFFFFF000FFFFFFFFFFFFFFFFFFFFFFFFFFFFFFFFFFFFFFFFFFFF
310
FFFFFFFFFFFFFFFFFFFFFFFFFFFFFFFFFFFFFFFFFFFFFFFFFFFFFFFFFFFFFFFF
310
FFFFFFFFFFFFFFFFFFFFFFFFFFFFFFFFFFFFFFFFFFFFFFFFFFFFFFFFFFFFFFFF
310
F000FFFFFFFFFFFFFFFFFFFFFFFFFFFFFFFFFFFFFFFFFFFFFFFFFFFFFFFFFFFF
310
FFFFFFFFFFFFFFFFFFFFFFFFFFFFFFFFFFFFFFFFFFFFFFFFFFFFFFFFFFFFFFFF
310
FFFFFFFFFFFFFFFFFFFFFFFFFFFFFFFFFFFFFFFFFFFFFFFFF000FFFFFFFFFFFF
310
FFFFFFFFFFFFFFFFFFFFFFFFFFFFFFFFFFFFFFFFFFFFFFFFFFFFFFFFFFFFFFFF
310
FFFFFFFFFFFFFFFFFFFFFFFFFFFFFFFFFFFFFFFFFFFFFFFFFFFFFFFFFFFFFFFF
310
FFFFFFFFFFFFFFFFFFFFFFFFFFFFFFFFF000FFFFFFFFFFFFFFFFFFFFFFFFFFFF
310
FFFFFFFFFFFFFFFFFFFFFFFFFFFFFFFFFFFFFFFFFFFFFFFFFFFFFFFFFFFFFFFF
310
FFFFFFFFFFFFFFFFFFFFFFFFFFFFFFFFFFFFFFFFFFFFFFFFFFFFFFFFFFFFFFFF
310
FFFFFFFFFFFFFFFFF000FFFFFFFFFFFFFFFFFFFFFFFFFFFFFFFFFFFFFFFFFFFF
310
FFFFFFFFFFFFFFFFFFFFFFFFFFFFFFFFFFFFFFFFFFFFFFFFFFFFFFFFFFFFFFFF
310
FFFFFFFFFFFFFFFFFFFFFFFFFFFFFFFFFFFFFFFFFFFFFFFFFFFFFFFFFFFFFFFF
310
F000FFFFFFFFFFFFFFFFFFFFFFFFFFFFFFFFFFFFFFFFFFFFFFFFFFFFFFFFFFFF
310
FFFFFFFFFFFFFFFFFFFFFFFFFFFFFFFFFFFFFFFFFFFFFFFFFFFFFFFFFFFFFFFF
310
FFFFFFFFFFFFFFFFFFFFFFFFFFFFFFFFFFFFFFFFFFFFFFFFF000FFFFFFFFFFFF
310
FFFFFFFFFFFFFFFFFFFFFFFFFFFFFFFFFFFFFFFFFFFFFFFFFFFFFFFFFFFFFFFF
310
FFFFFFFFFFFFFFFFFFFFFFFFFFFFFFFFFFFFFFFFFFFFFFFFFFFFFFFFFFFFFFFF
310
FFFFFFFFFFFFFFFFFFFFFFFFFFFFFFFFF000FFFFFFFFFFFFFFFFFFFFFFFFFFFF
310
FFFFFFFFFFFFFFFFFFFFFFFFFFFFFFFFFFFFFFFFFFFFFFFFFFFFFFFFFFFFFFFF
310
FFFFFFFFFFFFFFFFFFFFFFFFFFFFFFFFFFFFFFFFFFFFFFFFFFFFFFFFFFFFFFFF
310
FFFFFFFFFFFFFFFFF000FFFFFFFFFFFFFFFFFFFFFFFFFFFFFFFFFFFFFFFFFFFF
310
FFFFFFFFFFFFFFFFFFFFFFFFFFFFFFFFFFFFFFFFFFFFFFFFFFFFFFFFFFFFFFFF
310
FFFFFFFFFFFFFFFFFFFFFFFFFFFFFFFFFFFFFFFFFFFFFFFFFFFFFFFFFFFFFFFF
310
F000FFFFFFFFFFFFFFFFFFFFFFFFFFFFFFFFFFFFFFFFFFFFFFFFFFFFFFFFFFFF
310
FFFFFFFFFFFFFFFFFFFFFFFFFFFFFFFFFFFFFFFFFFFFFFFFFFFFFFFFFFFFFFFF
310
FFFFFFFFFFFFFFFFFFFFFFFFFFFFFFFFFFFFFFFFFFFFFFFFF000FFFFFFFFFFFF
310
FFFFFFFFFFFFFFFFFFFFFFFFFFFFFFFFFFFFFFFFFFFFFFFFFFFFFFFFFFFFFFFF
310
FFFFFFFFFFFFFFFFFFFFFFFFFFFFFFFFFFFFFFFFFFFFFFFFFFFFFFFFFFFFFFFF
310
FFFFFFFFFFFFFFFFFFFFFFFFFFFFFFFFF000FFFFFFFFFFFFFFFFFFFFFFFFFFFF
310
FFFFFFFFFFFFFFFFFFFFFFFFFFFFFFFFFFFFFFFFFFFFFFFFFFFFFFFFFFFFFFFF
310
FFFFFFFFFFFFFFFFFFFFFFFFFFFFFFFFFFFFFFFFFFFFFFFFFFFFFFFFFFFFFFFF
310
FFFFFFFFFFFFFFFFF000FFFFFFFFFFFFFFFFFFFFFFFFFFFFFFFFFFFFFFFFFFFF
310
FFFFFFFFFFFFFFFFFFFFFFFFFFFFFFFFFFFFFFFFFFFFFFFFFFFFFFFFFFFFFFFF
310
FFFFFFFFFFFFFFFFFFFFFFFFFFFFFFFFFFFFFFFFFFFFFFFFFFFFFFFFFFFFFFFF
310
F000FFFFFFFFFFFFFFFFFFFFFFFFFFFFFFFFFFFFFFFFFFFFFFFFFFFFFFFFFFFF
310
FFFFFFFFFFFFFFFFFFFFFFFFFFFFFFFFFFFFFFFFFFFFFFFFFFFFFFFFFFFFFFFF
310
FFFFFFFFFFFFFFFFFFFFFFFFFFFFFFFFFFFFFFFFFFFFFFFFF000FFFFFFFFFFFF
310
FFFFFFFFFFFFFFFFFFFFFFFFFFFFFFFFFFFFFFFFFFFFFFFFFFFFFFFFFFFFFFFF
310
FFFFFFFFFFFFFFFFFFFFFFFFFFFFFFFFFFFFFFFFFFFFFFFFFFFFFFFFFFFFFFFF
310
FFFFFFFFFFFFFFFFFFFFFFFFFFFFFFFFF0000000000000000000000000000000
310
0000000000000000000000000000000000000000000000000000000000000000
310
0000000000000000000000000000000000000000000000000000000000000000
310
0000000000000000000000000000000000000000000000000000000000000000
310
0000000000000000000000000000000000000000000000000000000000000000
310
0000000000000000000000000000000000000000000000000000000000000000
310
0000000000000000000000000000000000000000000000000000000000000000
310
0000000000000000000000000000000000000000000000000000000000000000
310
0000000000000000000000000000000000000000000000000000000000000000
310
0000000000000000000000000000000000000000000000000000000000000000
310
0000000000000000000000000000000000000000000000000000000000000000
310
0000000000000000000000000000000000000000000000000000000000000000
310
0000000000000000000000000000000000000000000000000000000000000000
310
0000000000000000000000000000000000000000000000000000000000000000
310
0000000000000000000000000000000000000000000000000000000000000000
310
0000000000000000000000000000000000000000000000000000000000000000
  1
OLE
  0
ENDSEC
  0
SECTION
  2
OBJECTS
  0
DICTIONARY
  5
C
330
0
100
AcDbDictionary
281
     1
  3
ACAD_GROUP
350
D
  3
ACAD_LAYOUT
350
1A
  3
ACAD_MLINESTYLE
350
17
  3
ACAD_PLOTSETTINGS
350
19
  3
ACAD_PLOTSTYLENAME
350
E
  0
DICTIONARY
  5
D
102
{ACAD_REACTORS
330
C
102
}
330
C
100
AcDbDictionary
281
     1
  0
DICTIONARY
  5
1A
102
{ACAD_REACTORS
330
C
102
}
330
C
100
AcDbDictionary
281
     1
  3
Layout1
350
1E
  3
Layout2
350
26
  3
Model
350
22
  0
DICTIONARY
  5
17
102
{ACAD_REACTORS
330
C
102
}
330
C
100
AcDbDictionary
281
     1
  3
Standard
350
18
  0
DICTIONARY
  5
19
102
{ACAD_REACTORS
330
C
102
}
330
C
100
AcDbDictionary
281
     1
  0
ACDBDICTIONARYWDFLT
  5
E
102
{ACAD_REACTORS
330
C
102
}
330
C
100
AcDbDictionary
281
     1
  3
Normal
350
F
100
AcDbDictionaryWithDefault
340
F
  0
LAYOUT
  5
1E
102
{ACAD_REACTORS
330
1A
102
}
330
1A
100
AcDbPlotSettings
  1

  2
none_device
  4

  6

 40
0.0
 41
0.0
 42
0.0
 43
0.0
 44
0.0
 45
0.0
 46
0.0
 47
0.0
 48
0.0
 49
0.0
140
0.0
141
0.0
142
1.0
143
1.0
 70
   688
 72
     0
 73
     0
 74
     5
  7

 75
    16
147
1.0
148
0.0
149
0.0
100
AcDbLayout
  1
Layout1
 70
     1
 71
     1
 10
0.0
 20
0.0
 11
420.0
 21
297.0
 12
0.0
 22
0.0
 32
0.0
 14
1.0000000000E+20
 24
1.0000000000E+20
 34
1.0000000000E+20
 15
-1.0000000000E+20
 25
-1.0000000000E+20
 35
-1.0000000000E+20
146
0.0
 13
0.0
 23
0.0
 33
0.0
 16
1.0
 26
0.0
 36
0.0
 17
0.0
 27
1.0
 37
0.0
 76
     0
330
1B
  0
LAYOUT
  5
26
102
{ACAD_REACTORS
330
1A
102
}
330
1A
100
AcDbPlotSettings
  1

  2
none_device
  4

  6

 40
0.0
 41
0.0
 42
0.0
 43
0.0
 44
0.0
 45
0.0
 46
0.0
 47
0.0
 48
0.0
 49
0.0
140
0.0
141
0.0
142
1.0
143
1.0
 70
   688
 72
     0
 73
     0
 74
     5
  7

 75
    16
147
1.0
148
0.0
149
0.0
100
AcDbLayout
  1
Layout2
 70
     1
 71
     2
 10
0.0
 20
0.0
 11
0.0
 21
0.0
 12
0.0
 22
0.0
 32
0.0
 14
0.0
 24
0.0
 34
0.0
 15
0.0
 25
0.0
 35
0.0
146
0.0
 13
0.0
 23
0.0
 33
0.0
 16
1.0
 26
0.0
 36
0.0
 17
0.0
 27
1.0
 37
0.0
 76
     0
330
23
  0
LAYOUT
  5
22
102
{ACAD_REACTORS
330
1A
102
}
330
1A
100
AcDbPlotSettings
  1

  2
none_device
  4

  6

 40
0.0
 41
0.0
 42
0.0
 43
0.0
 44
0.0
 45
0.0
 46
0.0
 47
0.0
 48
0.0
 49
0.0
140
0.0
141
0.0
142
1.0
143
1.0
 70
  1712
 72
     0
 73
     0
 74
     0
  7

 75
     0
147
1.0
148
0.0
149
0.0
100
AcDbLayout
  1
Model
 70
     1
 71
     0
 10
0.0
 20
0.0
 11
297.0
 21
210.0
 12
0.0
 22
0.0
 32
0.0
 14
0.0
 24
0.0
 34
0.0
 15
297.0
 25
210.0
 35
0.0
146
0.0
 13
0.0
 23
0.0
 33
0.0
 16
1.0
 26
0.0
 36
0.0
 17
0.0
 27
1.0
 37
0.0
 76
     0
330
1F
331
29
  0
MLINESTYLE
  5
18
102
{ACAD_REACTORS
330
17
102
}
330
17
100
AcDbMlineStyle
  2
Standard
 70
     0
  3

 62
   256
 51
90.0
 52
90.0
 71
     2
 49
0.5
 62
   256
  6
BYLAYER
 49
-0.5
 62
   256
  6
BYLAYER
  0
ACDBPLACEHOLDER
  5
F
102
{ACAD_REACTORS
330
E
102
}
330
E
  0
ENDSEC
  0
EOF
