  0
SECTION
  2
HEADER
  9
$ACADVER
  1
AC1015
  9
$ACADMAINTVER
 70
     6
  9
$DWGCODEPAGE
  3
ANSI_1252
  9
$INSBASE
 10
0.0
 20
0.0
 30
0.0
  9
$EXTMIN
 10
0.0
 20
0.0
 30
0.0
  9
$EXTMAX
 10
297.0
 20
210.0
 30
0.0
  9
$LIMMIN
 10
0.0
 20
0.0
  9
$LIMMAX
 10
297.0
 20
210.0
  9
$ORTHOMODE
 70
     0
  9
$REGENMODE
 70
     1
  9
$FILLMODE
 70
     1
  9
$QTEXTMODE
 70
     0
  9
$MIRRTEXT
 70
     1
  9
$LTSCALE
 40
1.0
  9
$ATTMODE
 70
     1
  9
$TEXTSIZE
 40
2.0
  9
$TRACEWID
 40
1.0
  9
$TEXTSTYLE
  7
Standard
  9
$CLAYER
  8
0
  9
$CELTYPE
  6
ByLayer
  9
$CECOLOR
 62
   256
  9
$CELTSCALE
 40
1.0
  9
$DISPSILH
 70
     0
  9
$DIMSCALE
 40
1.0
  9
$DIMASZ
 40
3.0
  9
$DIMEXO
 40
0.0
  9
$DIMDLI
 40
3.75
  9
$DIMRND
 40
0.0
  9
$DIMDLE
 40
0.0
  9
$DIMEXE
 40
1.0
  9
$DIMTP
 40
0.0
  9
$DIMTM
 40
0.0
  9
$DIMTXT
 40
2.0
  9
$DIMCEN
 40
2.5
  9
$DIMTSZ
 40
0.0
  9
$DIMTOL
 70
     0
  9
$DIMLIM
 70
     0
  9
$DIMTIH
 70
     1
  9
$DIMTOH
 70
     1
  9
$DIMSE1
 70
     0
  9
$DIMSE2
 70
     0
  9
$DIMTAD
 70
     1
  9
$DIMZIN
 70
     0
  9
$DIMBLK
  1

  9
$DIMASO
 70
     1
  9
$DIMSHO
 70
     1
  9
$DIMPOST
  1

  9
$DIMAPOST
  1

  9
$DIMALT
 70
     0
  9
$DIMALTD
 70
     3
  9
$DIMALTF
 40
0.0393700787
  9
$DIMLFAC
 40
2.0
  9
$DIMTOFL
 70
     1
  9
$DIMTVP
 40
0.0
  9
$DIMTIX
 70
     0
  9
$DIMSOXD
 70
     0
  9
$DIMSAH
 70
     0
  9
$DIMBLK1
  1

  9
$DIMBLK2
  1

  9
$DIMSTYLE
  2
ISO-25
  9
$DIMCLRD
 70
     0
  9
$DIMCLRE
 70
     0
  9
$DIMCLRT
 70
     0
  9
$DIMTFAC
 40
1.0
  9
$DIMGAP
 40
1.524
  9
$DIMJUST
 70
     0
  9
$DIMSD1
 70
     0
  9
$DIMSD2
 70
     0
  9
$DIMTOLJ
 70
     0
  9
$DIMTZIN
 70
     0
  9
$DIMALTZ
 70
     0
  9
$DIMALTTZ
 70
     0
  9
$DIMUPT
 70
     0
  9
$DIMDEC
 70
     2
  9
$DIMTDEC
 70
     3
  9
$DIMALTU
 70
     2
  9
$DIMALTTD
 70
     3
  9
$DIMTXSTY
  7
Standard
  9
$DIMAUNIT
 70
     0
  9
$DIMADEC
 70
     2
  9
$DIMALTRND
 40
0.0
  9
$DIMAZIN
 70
     0
  9
$DIMDSEP
 70
    44
  9
$DIMATFIT
 70
     3
  9
$DIMFRAC
 70
     0
  9
$DIMLDRBLK
  1

  9
$DIMLUNIT
 70
     2
  9
$DIMLWD
 70
    -2
  9
$DIMLWE
 70
    -2
  9
$DIMTMOVE
 70
     0
  9
$LUNITS
 70
     2
  9
$LUPREC
 70
     2
  9
$SKETCHINC
 40
1.0
  9
$FILLETRAD
 40
10.0
  9
$AUNITS
 70
     0
  9
$AUPREC
 70
     2
  9
$MENU
  1
.
  9
$ELEVATION
 40
0.0
  9
$PELEVATION
 40
0.0
  9
$THICKNESS
 40
0.0
  9
$LIMCHECK
 70
     0
  9
$CHAMFERA
 40
0.0
  9
$CHAMFERB
 40
0.0
  9
$CHAMFERC
 40
0.0
  9
$CHAMFERD
 40
0.0
  9
$SKPOLY
 70
     0
  9
$TDCREATE
 40
2458162.609199827
  9
$TDUCREATE
 40
2458162.56753316
  9
$TDUPDATE
 40
2458162.60920191
  9
$TDUUPDATE
 40
2458162.567535243
  9
$TDINDWG
 40
0.0000000116
  9
$TDUSRTIMER
 40
0.0000000116
  9
$USRTIMER
 70
     1
  9
$ANGBASE
 50
0.0
  9
$ANGDIR
 70
     0
  9
$PDMODE
 70
     0
  9
$PDSIZE
 40
-1.0
  9
$PLINEWID
 40
0.0
  9
$SPLFRAME
 70
     0
  9
$SPLINETYPE
 70
     6
  9
$SPLINESEGS
 70
     8
  9
$HANDSEED
  5
2D9
  9
$SURFTAB1
 70
     6
  9
$SURFTAB2
 70
     6
  9
$SURFTYPE
 70
     6
  9
$SURFU
 70
     6
  9
$SURFV
 70
     6
  9
$UCSBASE
  2

  9
$UCSNAME
  2

  9
$UCSORG
 10
0.0
 20
0.0
 30
0.0
  9
$UCSXDIR
 10
1.0
 20
0.0
 30
0.0
  9
$UCSYDIR
 10
0.0
 20
1.0
 30
0.0
  9
$UCSORTHOREF
  2

  9
$UCSORTHOVIEW
 70
     0
  9
$UCSORGTOP
 10
0.0
 20
0.0
 30
0.0
  9
$UCSORGBOTTOM
 10
0.0
 20
0.0
 30
0.0
  9
$UCSORGLEFT
 10
0.0
 20
0.0
 30
0.0
  9
$UCSORGRIGHT
 10
0.0
 20
0.0
 30
0.0
  9
$UCSORGFRONT
 10
0.0
 20
0.0
 30
0.0
  9
$UCSORGBACK
 10
0.0
 20
0.0
 30
0.0
  9
$PUCSBASE
  2

  9
$PUCSNAME
  2

  9
$PUCSORG
 10
0.0
 20
0.0
 30
0.0
  9
$PUCSXDIR
 10
1.0
 20
0.0
 30
0.0
  9
$PUCSYDIR
 10
0.0
 20
1.0
 30
0.0
  9
$PUCSORTHOREF
  2

  9
$PUCSORTHOVIEW
 70
     0
  9
$PUCSORGTOP
 10
0.0
 20
0.0
 30
0.0
  9
$PUCSORGBOTTOM
 10
0.0
 20
0.0
 30
0.0
  9
$PUCSORGLEFT
 10
0.0
 20
0.0
 30
0.0
  9
$PUCSORGRIGHT
 10
0.0
 20
0.0
 30
0.0
  9
$PUCSORGFRONT
 10
0.0
 20
0.0
 30
0.0
  9
$PUCSORGBACK
 10
0.0
 20
0.0
 30
0.0
  9
$USERI1
 70
     0
  9
$USERI2
 70
     0
  9
$USERI3
 70
     0
  9
$USERI4
 70
     0
  9
$USERI5
 70
     0
  9
$USERR1
 40
0.0
  9
$USERR2
 40
0.0
  9
$USERR3
 40
0.0
  9
$USERR4
 40
0.0
  9
$USERR5
 40
0.0
  9
$WORLDVIEW
 70
     1
  9
$SHADEDGE
 70
     3
  9
$SHADEDIF
 70
    70
  9
$TILEMODE
 70
     1
  9
$MAXACTVP
 70
    64
  9
$PINSBASE
 10
0.0
 20
0.0
 30
0.0
  9
$PLIMCHECK
 70
     0
  9
$PEXTMIN
 10
1.0000000000E+20
 20
1.0000000000E+20
 30
1.0000000000E+20
  9
$PEXTMAX
 10
-1.0000000000E+20
 20
-1.0000000000E+20
 30
-1.0000000000E+20
  9
$PLIMMIN
 10
0.0
 20
0.0
  9
$PLIMMAX
 10
420.0
 20
297.0
  9
$UNITMODE
 70
     0
  9
$VISRETAIN
 70
     1
  9
$PLINEGEN
 70
     0
  9
$PSLTSCALE
 70
     1
  9
$TREEDEPTH
 70
  3020
  9
$CMLSTYLE
  2
Standard
  9
$CMLJUST
 70
     0
  9
$CMLSCALE
 40
20.0
  9
$PROXYGRAPHICS
 70
     1
  9
$MEASUREMENT
 70
     1
  9
$CELWEIGHT
370
    -1
  9
$ENDCAPS
280
     0
  9
$JOINSTYLE
280
     0
  9
$LWDISPLAY
290
     1
  9
$INSUNITS
 70
     4
  9
$HYPERLINKBASE
  1

  9
$STYLESHEET
  1

  9
$XEDIT
290
     1
  9
$CEPSNTYPE
380
     0
  9
$PSTYLEMODE
290
     1
  9
$FINGERPRINTGUID
  2
{27B39277-F18F-4E72-BD4A-9F333CC1E350}
  9
$VERSIONGUID
  2
{FAEB1C32-E019-11D5-929B-00C0DF256EC4}
  9
$EXTNAMES
290
     1
  9
$PSVPSCALE
 40
0.0
  9
$OLESTARTUP
290
     0
  0
ENDSEC
  0
SECTION
  2
CLASSES
  0
CLASS
  1
ACDBDICTIONARYWDFLT
  2
AcDbDictionaryWithDefault
  3
ObjectDBX Classes
 90
        0
280
     0
281
     0
  0
CLASS
  1
VISUALSTYLE
  2
AcDbVisualStyle
  3
ObjectDBX Classes
 90
     4095
280
     0
281
     0
  0
CLASS
  1
MATERIAL
  2
AcDbMaterial
  3
ObjectDBX Classes
 90
     1153
280
     0
281
     0
  0
CLASS
  1
SCALE
  2
AcDbScale
  3
ObjectDBX Classes
 90
     1153
280
     0
281
     0
  0
CLASS
  1
TABLESTYLE
  2
AcDbTableStyle
  3
ObjectDBX Classes
 90
     4095
280
     0
281
     0
  0
CLASS
  1
MLEADERSTYLE
  2
AcDbMLeaderStyle
  3
ACDB_MLEADERSTYLE_CLASS
 90
     4095
280
     0
281
     0
  0
CLASS
  1
SUN
  2
AcDbSun
  3
SCENEOE
 90
     1153
280
     0
281
     0
  0
CLASS
  1
ACDBPLACEHOLDER
  2
AcDbPlaceHolder
  3
ObjectDBX Classes
 90
        0
280
     0
281
     0
  0
CLASS
  1
LAYOUT
  2
AcDbLayout
  3
ObjectDBX Classes
 90
        0
280
     0
281
     0
  0
ENDSEC
  0
SECTION
  2
TABLES
  0
TABLE
  2
VPORT
  5
8
330
0
100
AcDbSymbolTable
 70
     1
  0
VPORT
  5
29
330
8
100
AcDbSymbolTableRecord
100
AcDbViewportTableRecord
  2
*Active
 70
     0
 10
0.0
 20
0.0
 11
1.0
 21
1.0
 12
148.5
 22
105.0
 13
0.0
 23
0.0
 14
10.0
 24
10.0
 15
10.0
 25
10.0
 16
0.0
 26
0.0
 36
1.0
 17
0.0
 27
0.0
 37
0.0
 40
210.0
 41
1.4142857143
 42
50.0
 43
0.0
 44
0.0
 50
0.0
 51
0.0
 71
     0
 72
  2000
 73
     1
 74
     3
 75
     0
 76
     0
 77
     0
 78
     0
281
     0
 65
     1
110
0.0
120
0.0
130
0.0
111
1.0
121
0.0
131
0.0
112
0.0
122
1.0
132
0.0
 79
     0
146
0.0
  0
ENDTAB
  0
TABLE
  2
LTYPE
  5
5
330
0
100
AcDbSymbolTable
 70
     6
  0
LTYPE
  5
14
330
5
100
AcDbSymbolTableRecord
100
AcDbLinetypeTableRecord
  2
ByBlock
 70
     0
  3

 72
    65
 73
     0
 40
0.0
  0
LTYPE
  5
15
330
5
100
AcDbSymbolTableRecord
100
AcDbLinetypeTableRecord
  2
ByLayer
 70
     0
  3

 72
    65
 73
     0
 40
0.0
  0
LTYPE
  5
16
330
5
100
AcDbSymbolTableRecord
100
AcDbLinetypeTableRecord
  2
Continuous
 70
     0
  3
Solid line
 72
    65
 73
     0
 40
0.0
  0
LTYPE
  5
6E
330
5
100
AcDbSymbolTableRecord
100
AcDbLinetypeTableRecord
  2
HIDDEN
 70
     0
  3
Hidden __ __ __ __ __ __ __ __ __ __ __ __ __ __
 72
    65
 73
     2
 40
1.905
 49
1.27
 74
     0
 49
-0.635
 74
     0
  0
LTYPE
  5
6F
330
5
100
AcDbSymbolTableRecord
100
AcDbLinetypeTableRecord
  2
PHANTOM
 70
     0
  3
Phantom ______  __  __  ______  __  __  ______
 72
    65
 73
     6
 40
12.7
 49
6.35
 74
     0
 49
-1.27
 74
     0
 49
1.27
 74
     0
 49
-1.27
 74
     0
 49
1.27
 74
     0
 49
-1.27
 74
     0
  0
LTYPE
  5
70
330
5
100
AcDbSymbolTableRecord
100
AcDbLinetypeTableRecord
  2
CENTER
 70
     0
  3
Center ____ _ ____ _ ____ _ ____ _ ____ _ ____
 72
    65
 73
     4
 40
10.16
 49
6.35
 74
     0
 49
-1.27
 74
     0
 49
1.27
 74
     0
 49
-1.27
 74
     0
  0
LTYPE
  5
71
330
5
100
AcDbSymbolTableRecord
100
AcDbLinetypeTableRecord
  2
CENTERX2
 70
     0
  3
Center (2x) ________  __  ________  __  _____
 72
    65
 73
     4
 40
20.32
 49
12.7
 74
     0
 49
-2.54
 74
     0
 49
2.54
 74
     0
 49
-2.54
 74
     0
  0
LTYPE
  5
72
330
5
100
AcDbSymbolTableRecord
100
AcDbLinetypeTableRecord
  2
DOT2
 70
     0
  3
Dot (.5x) ........................................
 72
    65
 73
     2
 40
0.635
 49
0.0
 74
     0
 49
-0.635
 74
     0
  0
ENDTAB
  0
TABLE
  2
LAYER
  5
2
330
0
100
AcDbSymbolTable
 70
     5
  0
LAYER
  5
10
330
2
100
AcDbSymbolTableRecord
100
AcDbLayerTableRecord
  2
0
 70
     0
 62
     7
  6
Continuous
370
    -3
390
F
  0
LAYER
  5
73
330
2
100
AcDbSymbolTableRecord
100
AcDbLayerTableRecord
  2
FORMAT
 70
     0
 62
     7
  6
Continuous
370
    -3
390
F
  0
LAYER
  5
74
330
2
100
AcDbSymbolTableRecord
100
AcDbLayerTableRecord
  2
VERMASSUNG
 70
     0
 62
     7
  6
Continuous
370
    -3
390
F
  0
LAYER
  5
75
330
2
100
AcDbSymbolTableRecord
100
AcDbLayerTableRecord
  2
KOPF_DÜNN
 70
     0
 62
     7
  6
Continuous
370
    -3
390
F
  0
LAYER
  5
76
330
2
100
AcDbSymbolTableRecord
100
AcDbLayerTableRecord
  2
KOPF_DICK
 70
     0
 62
     7
  6
Continuous
370
    25
390
F
  0
ENDTAB
  0
TABLE
  2
STYLE
  5
3
330
0
100
AcDbSymbolTable
 70
     2
  0
STYLE
  5
11
330
3
100
AcDbSymbolTableRecord
100
AcDbTextStyleTableRecord
  2
Standard
 70
     0
 40
0.0
 41
1.0
 50
0.0
 71
     0
 42
2.0
  3
txt
  4

  0
STYLE
  5
77
330
3
100
AcDbSymbolTableRecord
100
AcDbTextStyleTableRecord
  2
SLDTEXTSTYLE0
 70
     0
 40
0.0
 41
0.7
 50
0.0
 71
     0
 42
2.0
  3
TXT
  4

  0
ENDTAB
  0
TABLE
  2
VIEW
  5
6
330
0
100
AcDbSymbolTable
 70
     0
  0
ENDTAB
  0
TABLE
  2
UCS
  5
7
330
0
100
AcDbSymbolTable
 70
     0
  0
ENDTAB
  0
TABLE
  2
APPID
  5
9
330
0
100
AcDbSymbolTable
 70
     1
  0
APPID
  5
12
330
9
100
AcDbSymbolTableRecord
100
AcDbRegAppTableRecord
  2
ACAD
 70
     0
  0
ENDTAB
  0
TABLE
  2
DIMSTYLE
  5
A
330
0
100
AcDbSymbolTable
 70
     5
100
AcDbDimStyleTable
  0
DIMSTYLE
105
27
330
A
100
AcDbSymbolTableRecord
100
AcDbDimStyleTableRecord
  2
ISO-25
 70
     0
 41
2.5
 42
0.625
 43
3.75
 44
1.25
 73
     0
 74
     0
 77
     1
 78
     8
140
2.5
141
2.5
143
0.0393700787
147
0.625
171
     3
172
     1
178
     0
271
     2
272
     2
274
     3
278
    44
283
     0
284
     8
340
11
  0
DIMSTYLE
105
E2
102
{ACAD_REACTORS
330
E1
330
F7
330
1CA
330
1D6
330
1E0
330
1EA
102
}
330
A
100
AcDbSymbolTableRecord
100
AcDbDimStyleTableRecord
  2
SLDDIMSTYLE0
 70
     0
 41
3.0
 44
0.0
 45
0.000000001
 73
     0
 74
     0
 77
     1
 78
    12
 79
     3
140
2.0
147
0.5
173
     1
178
     0
271
     2
272
     3
276
     2
284
    12
340
77
  0
DIMSTYLE
105
ED
102
{ACAD_REACTORS
330
EC
102
}
330
A
100
AcDbSymbolTableRecord
100
AcDbDimStyleTableRecord
  2
SLDDIMSTYLE1
 70
     0
 41
3.0
 44
0.0
 45
0.000000001
 73
     0
 74
     0
 77
     1
 78
    12
 79
     3
140
2.0
141
0.0
147
0.5
172
     1
173
     1
178
     0
271
     2
272
     3
276
     2
284
    12
340
77
  0
DIMSTYLE
105
102
102
{ACAD_REACTORS
330
101
102
}
330
A
100
AcDbSymbolTableRecord
100
AcDbDimStyleTableRecord
  2
SLDDIMSTYLE2
 70
     0
 41
3.0
 44
0.0
 73
     0
 74
     0
 77
     1
 78
    12
 79
     3
140
2.0
147
0.5
173
     1
178
     0
179
     2
272
     3
276
     2
284
    12
340
77
  0
DIMSTYLE
105
10D
102
{ACAD_REACTORS
330
10C
102
}
330
A
100
AcDbSymbolTableRecord
100
AcDbDimStyleTableRecord
  2
SLDDIMSTYLE3
 70
     0
 41
3.0
 44
0.0
 45
0.000000001
 73
     0
 74
     0
 77
     1
 78
    12
 79
     3
140
2.0
147
0.5
172
     1
173
     1
178
     0
271
     2
272
     3
276
     2
284
    12
289
     0
340
77
  0
ENDTAB
  0
TABLE
  2
BLOCK_RECORD
  5
1
330
0
100
AcDbSymbolTable
 70
    11
  0
BLOCK_RECORD
  5
1F
330
1
100
AcDbSymbolTableRecord
100
AcDbBlockTableRecord
  2
*Model_Space
340
22
  0
BLOCK_RECORD
  5
1B
330
1
100
AcDbSymbolTableRecord
100
AcDbBlockTableRecord
  2
*Paper_Space
340
1E
  0
BLOCK_RECORD
  5
23
330
1
100
AcDbSymbolTableRecord
100
AcDbBlockTableRecord
  2
*Paper_Space0
340
26
  0
BLOCK_RECORD
  5
E3
330
1
100
AcDbSymbolTableRecord
100
AcDbBlockTableRecord
  2
_D
340
0
  0
BLOCK_RECORD
  5
EE
330
1
100
AcDbSymbolTableRecord
100
AcDbBlockTableRecord
  2
_D_1
340
0
  0
BLOCK_RECORD
  5
F8
330
1
100
AcDbSymbolTableRecord
100
AcDbBlockTableRecord
  2
_D_2
340
0
  0
BLOCK_RECORD
  5
103
330
1
100
AcDbSymbolTableRecord
100
AcDbBlockTableRecord
  2
_D_3
340
0
  0
BLOCK_RECORD
  5
10E
330
1
100
AcDbSymbolTableRecord
100
AcDbBlockTableRecord
  2
_D_4
340
0
  0
BLOCK_RECORD
  5
119
330
1
100
AcDbSymbolTableRecord
100
AcDbBlockTableRecord
  2
SW_CENTERMARKSYMBOL_0
340
0
102
{BLKREFS
331
124
102
}
  0
BLOCK_RECORD
  5
1CB
330
1
100
AcDbSymbolTableRecord
100
AcDbBlockTableRecord
  2
_D_5
340
0
  0
BLOCK_RECORD
  5
1D7
330
1
100
AcDbSymbolTableRecord
100
AcDbBlockTableRecord
  2
_D_6
340
0
  0
BLOCK_RECORD
  5
1E1
330
1
100
AcDbSymbolTableRecord
100
AcDbBlockTableRecord
  2
_D_7
340
0
  0
BLOCK_RECORD
  5
1EB
330
1
100
AcDbSymbolTableRecord
100
AcDbBlockTableRecord
  2
_D_8
340
0
  0
ENDTAB
  0
ENDSEC
  0
SECTION
  2
BLOCKS
  0
BLOCK
  5
20
330
1F
100
AcDbEntity
  8
0
100
AcDbBlockBegin
  2
*Model_Space
 70
     0
 10
0.0
 20
0.0
 30
0.0
  3
*Model_Space
  1

  0
ENDBLK
  5
21
330
1F
100
AcDbEntity
  8
0
100
AcDbBlockEnd
  0
BLOCK
  5
1C
330
1B
100
AcDbEntity
 67
     1
  8
0
100
AcDbBlockBegin
  2
*Paper_Space
 70
     0
 10
0.0
 20
0.0
 30
0.0
  3
*Paper_Space
  1

  0
ENDBLK
  5
1D
330
1B
100
AcDbEntity
 67
     1
  8
0
100
AcDbBlockEnd
  0
BLOCK
  5
24
330
23
100
AcDbEntity
  8
0
100
AcDbBlockBegin
  2
*Paper_Space0
 70
     0
 10
0.0
 20
0.0
 30
0.0
  3
*Paper_Space0
  1

  0
ENDBLK
  5
25
330
23
100
AcDbEntity
  8
0
100
AcDbBlockEnd
  0
BLOCK
  5
E4
330
E3
100
AcDbEntity
  8
0
100
AcDbBlockBegin
  2
_D
 70
     0
 10
0.0
 20
0.0
 30
0.0
  3
_D
  1

  0
SOLID
  5
E6
330
E3
100
AcDbEntity
  8
VERMASSUNG
100
AcDbTrace
 10
118.9953998947
 20
125.5376329254
 30
0.0
 11
119.4453998947
 21
128.5376329254
 31
0.0
 12
118.5453998947
 22
128.5376329254
 32
0.0
 13
118.5453998947
 23
128.5376329254
 33
0.0
  0
SOLID
  5
E7
330
E3
100
AcDbEntity
  8
VERMASSUNG
100
AcDbTrace
 10
118.9953998947
 20
147.5376329254
 30
0.0
 11
118.5453998947
 21
144.5376329254
 31
0.0
 12
119.4453998947
 22
144.5376329254
 32
0.0
 13
119.4453998947
 23
144.5376329254
 33
0.0
  0
LINE
  5
E8
330
E3
100
AcDbEntity
  8
VERMASSUNG
100
AcDbLine
 10
111.4953998947
 20
125.5376329254
 30
0.0
 11
119.9953998947
 21
125.5376329254
 31
0.0
  0
LINE
  5
E9
330
E3
100
AcDbEntity
  8
VERMASSUNG
100
AcDbLine
 10
90.3616886996
 20
147.5376329254
 30
0.0
 11
119.9953998947
 21
147.5376329254
 31
0.0
  0
LINE
  5
EA
330
E3
100
AcDbEntity
  8
VERMASSUNG
100
AcDbLine
 10
118.9953998947
 20
125.5376329254
 30
0.0
 11
118.9953998947
 21
147.5376329254
 31
0.0
  0
MTEXT
  5
EB
330
E3
100
AcDbEntity
  8
VERMASSUNG
100
AcDbMText
 10
116.4172642987
 20
135.1376329753
 30
0.0
 40
2.0
 41
0.0
 71
     1
 72
     1
  1
22
  7
SLDTEXTSTYLE0
 11
6.123233995736766E-17
 21
1.0
 31
0.0
 73
     1
 44
1.0
  0
ENDBLK
  5
E5
330
E3
100
AcDbEntity
  8
0
100
AcDbBlockEnd
  0
BLOCK
  5
EF
330
EE
100
AcDbEntity
  8
0
100
AcDbBlockBegin
  2
_D_1
 70
     0
 10
0.0
 20
0.0
 30
0.0
  3
_D_1
  1

  0
SOLID
  5
F1
330
EE
100
AcDbEntity
  8
VERMASSUNG
100
AcDbTrace
 10
33.6408561233
 20
144.2474227348
 30
0.0
 11
36.0819617708
 21
142.4464498817
 31
0.0
 12
36.5029320415
 22
143.2419271165
 32
0.0
 13
36.5029320415
 23
143.2419271165
 33
0.0
  0
SOLID
  5
F2
330
EE
100
AcDbEntity
  8
VERMASSUNG
100
AcDbTrace
 10
104.3499436661
 20
106.8278431159
 30
0.0
 11
101.9088380186
 21
108.628815969
 31
0.0
 12
101.4878677479
 22
107.8333387342
 32
0.0
 13
101.4878677479
 23
107.8333387342
 33
0.0
  0
LINE
  5
F3
330
EE
100
AcDbEntity
  8
VERMASSUNG
100
AcDbLine
 10
104.3499436661
 20
106.8278431159
 30
0.0
 11
116.5848506979
 21
100.3530731293
 31
0.0
  0
LINE
  5
F4
330
EE
100
AcDbEntity
  8
VERMASSUNG
100
AcDbLine
 10
104.3499436661
 20
106.8278431159
 30
0.0
 11
33.6408561233
 21
144.2474227348
 31
0.0
  0
MTEXT
  5
F5
330
EE
100
AcDbEntity
  8
VERMASSUNG
100
AcDbMText
 10
112.1244666947
 20
105.6286617972
 30
0.0
 40
2.0
 41
0.0
 71
     1
 72
     1
  1
%%c
  7
SLDTEXTSTYLE0
 11
0.8838635942858502
 21
-0.4677447452362219
 31
0.0
 73
     1
 44
1.0
  0
MTEXT
  5
F6
330
EE
100
AcDbEntity
  8
VERMASSUNG
100
AcDbMText
 10
115.4087632089
 20
104.116875936
 30
0.0
 40
2.0
 41
0.0
 71
     1
 72
     1
  1
80
  7
SLDTEXTSTYLE0
 11
0.8838635942858502
 21
-0.4677447452362219
 31
0.0
 73
     1
 44
1.0
  0
ENDBLK
  5
F0
330
EE
100
AcDbEntity
  8
0
100
AcDbBlockEnd
  0
BLOCK
  5
F9
330
F8
100
AcDbEntity
  8
0
100
AcDbBlockBegin
  2
_D_2
 70
     0
 10
0.0
 20
0.0
 30
0.0
  3
_D_2
  1

  0
SOLID
  5
FB
330
F8
100
AcDbEntity
  8
VERMASSUNG
100
AcDbTrace
 10
64.3616886996
 20
161.8211752293
 30
0.0
 11
67.3616886996
 21
161.3711752293
 31
0.0
 12
67.3616886996
 22
162.2711752293
 32
0.0
 13
67.3616886996
 23
162.2711752293
 33
0.0
  0
SOLID
  5
FC
330
F8
100
AcDbEntity
  8
VERMASSUNG
100
AcDbTrace
 10
90.3616886996
 20
161.8211752293
 30
0.0
 11
87.3616886996
 21
162.2711752293
 31
0.0
 12
87.3616886996
 22
161.3711752293
 32
0.0
 13
87.3616886996
 23
161.3711752293
 33
0.0
  0
LINE
  5
FD
330
F8
100
AcDbEntity
  8
VERMASSUNG
100
AcDbLine
 10
64.3616886996
 20
147.5376329254
 30
0.0
 11
64.3616886996
 21
162.8211752293
 31
0.0
  0
LINE
  5
FE
330
F8
100
AcDbEntity
  8
VERMASSUNG
100
AcDbLine
 10
90.3616886996
 20
147.5376329254
 30
0.0
 11
90.3616886996
 21
162.8211752293
 31
0.0
  0
LINE
  5
FF
330
F8
100
AcDbEntity
  8
VERMASSUNG
100
AcDbLine
 10
64.3616886996
 20
161.8211752293
 30
0.0
 11
90.3616886996
 21
161.8211752293
 31
0.0
  0
MTEXT
  5
100
330
F8
100
AcDbEntity
  8
VERMASSUNG
100
AcDbMText
 10
75.9616887495
 20
164.3993108252
 30
0.0
 40
2.0
 41
0.0
 71
     1
 72
     1
  1
26
  7
SLDTEXTSTYLE0
 73
     1
 44
1.0
  0
ENDBLK
  5
FA
330
F8
100
AcDbEntity
  8
0
100
AcDbBlockEnd
  0
BLOCK
  5
104
330
103
100
AcDbEntity
  8
0
100
AcDbBlockBegin
  2
_D_3
 70
     0
 10
0.0
 20
0.0
 30
0.0
  3
_D_3
  1

  0
ARC
  5
106
330
103
100
AcDbEntity
  8
VERMASSUNG
100
AcDbCircle
 10
77.3616886996
 20
196.0542934238
 30
0.0
 40
41.98979348272118
100
AcDbArc
 50
255.0
 51
285.0
  0
SOLID
  5
107
330
103
100
AcDbEntity
  8
VERMASSUNG
100
AcDbTrace
 10
66.4939304464
 20
155.4952674583
 30
0.0
 11
69.3166532899
 21
154.3840808184
 31
0.0
 12
69.5184464087
 22
155.2611666393
 32
0.0
 13
69.5184464087
 23
155.2611666393
 33
0.0
  0
SOLID
  5
108
330
103
100
AcDbEntity
  8
VERMASSUNG
100
AcDbTrace
 10
88.2294469529
 20
155.4952674583
 30
0.0
 11
85.2049309905
 21
155.2611666393
 31
0.0
 12
85.4067241093
 22
154.3840808184
 32
0.0
 13
85.4067241093
 23
154.3840808184
 33
0.0
  0
LINE
  5
109
330
103
100
AcDbEntity
  8
VERMASSUNG
100
AcDbLine
 10
65.5674600656
 20
152.0376329254
 30
0.0
 11
66.7527494915
 21
156.4611932845
 31
0.0
  0
LINE
  5
10A
330
103
100
AcDbEntity
  8
VERMASSUNG
100
AcDbLine
 10
89.1559173337
 20
152.0376329254
 30
0.0
 11
87.9706279078
 21
156.4611932845
 31
0.0
  0
MTEXT
  5
10B
330
103
100
AcDbEntity
  8
VERMASSUNG
100
AcDbMText
 10
75.3616888375
 20
156.642635537
 30
0.0
 40
2.0
 41
0.0
 71
     1
 72
     1
  1
30°
  7
SLDTEXTSTYLE0
 73
     1
 44
1.0
  0
ENDBLK
  5
105
330
103
100
AcDbEntity
  8
0
100
AcDbBlockEnd
  0
BLOCK
  5
10F
330
10E
100
AcDbEntity
  8
0
100
AcDbBlockBegin
  2
_D_4
 70
     0
 10
0.0
 20
0.0
 30
0.0
  3
_D_4
  1

  0
SOLID
  5
111
330
10E
100
AcDbEntity
  8
VERMASSUNG
100
AcDbTrace
 10
113.3549205197
 20
152.0376329254
 30
0.0
 11
113.8049205197
 21
155.0376329254
 31
0.0
 12
112.9049205197
 22
155.0376329254
 32
0.0
 13
112.9049205197
 23
155.0376329254
 33
0.0
  0
SOLID
  5
112
330
10E
100
AcDbEntity
  8
VERMASSUNG
100
AcDbTrace
 10
113.3549205197
 20
147.5376329254
 30
0.0
 11
112.9049205197
 21
144.5376329254
 31
0.0
 12
113.8049205197
 22
144.5376329254
 32
0.0
 13
113.8049205197
 23
144.5376329254
 33
0.0
  0
LINE
  5
113
330
10E
100
AcDbEntity
  8
VERMASSUNG
100
AcDbLine
 10
98.9578764278
 20
152.0376329254
 30
0.0
 11
114.3549205197
 21
152.0376329254
 31
0.0
  0
LINE
  5
114
330
10E
100
AcDbEntity
  8
VERMASSUNG
100
AcDbLine
 10
90.3616886996
 20
147.5376329254
 30
0.0
 11
114.3549205197
 21
147.5376329254
 31
0.0
  0
LINE
  5
115
330
10E
100
AcDbEntity
  8
VERMASSUNG
100
AcDbLine
 10
113.3549205197
 20
152.0376329254
 30
0.0
 11
113.3549205197
 21
158.0376329254
 31
0.0
  0
LINE
  5
116
330
10E
100
AcDbEntity
  8
VERMASSUNG
100
AcDbLine
 10
113.3549205197
 20
152.0376329254
 30
0.0
 11
113.3549205197
 21
147.5376329254
 31
0.0
  0
LINE
  5
117
330
10E
100
AcDbEntity
  8
VERMASSUNG
100
AcDbLine
 10
113.3549205197
 20
147.5376329254
 30
0.0
 11
113.3549205197
 21
141.5376329254
 31
0.0
  0
MTEXT
  5
118
330
10E
100
AcDbEntity
  8
VERMASSUNG
100
AcDbMText
 10
110.7767849237
 20
147.9876329563
 30
0.0
 40
2.0
 41
0.0
 71
     1
 72
     1
  1
4.5
  7
SLDTEXTSTYLE0
 11
-1.681415763434501E-14
 21
1.0
 31
0.0
 73
     1
 44
1.0
  0
ENDBLK
  5
110
330
10E
100
AcDbEntity
  8
0
100
AcDbBlockEnd
  0
BLOCK
  5
11A
330
119
100
AcDbEntity
  8
0
100
AcDbBlockBegin
  2
SW_CENTERMARKSYMBOL_0
 70
     0
 10
0.0
 20
0.0
 30
0.0
  3
SW_CENTERMARKSYMBOL_0
  1

  0
LINE
  5
11C
330
119
100
AcDbEntity
  8
VERMASSUNG
 62
     0
100
AcDbLine
 10
0.0
 20
0.0
 30
0.0
 11
0.0
 21
2.5
 31
0.0
  0
LINE
  5
11D
330
119
100
AcDbEntity
  8
VERMASSUNG
 62
     0
100
AcDbLine
 10
0.0
 20
0.0
 30
0.0
 11
-2.5
 21
0.0
 31
0.0
  0
LINE
  5
11E
330
119
100
AcDbEntity
  8
VERMASSUNG
 62
     0
100
AcDbLine
 10
0.0
 20
0.0
 30
0.0
 11
0.0
 21
-2.5
 31
0.0
  0
LINE
  5
11F
330
119
100
AcDbEntity
  8
VERMASSUNG
 62
     0
100
AcDbLine
 10
0.0
 20
0.0
 30
0.0
 11
2.5
 21
0.0
 31
0.0
  0
LINE
  5
120
330
119
100
AcDbEntity
  8
VERMASSUNG
 62
     0
100
AcDbLine
 10
0.0
 20
5.0
 30
0.0
 11
0.0
 21
42.6098702074
 31
0.0
  0
LINE
  5
121
330
119
100
AcDbEntity
  8
VERMASSUNG
 62
     0
100
AcDbLine
 10
-5.0
 20
0.0
 30
0.0
 11
-42.5
 21
0.0
 31
0.0
  0
LINE
  5
122
330
119
100
AcDbEntity
  8
VERMASSUNG
 62
     0
100
AcDbLine
 10
0.0
 20
-5.0
 30
0.0
 11
0.0
 21
-42.5
 31
0.0
  0
LINE
  5
123
330
119
100
AcDbEntity
  8
VERMASSUNG
 62
     0
100
AcDbLine
 10
5.0
 20
0.0
 30
0.0
 11
42.5
 21
0.0
 31
0.0
  0
ENDBLK
  5
11B
330
119
100
AcDbEntity
  8
0
100
AcDbBlockEnd
  0
BLOCK
  5
1CC
330
1CB
100
AcDbEntity
  8
0
100
AcDbBlockBegin
  2
_D_5
 70
     0
 10
0.0
 20
0.0
 30
0.0
  3
_D_5
  1

  0
SOLID
  5
1CE
330
1CB
100
AcDbEntity
  8
VERMASSUNG
100
AcDbTrace
 10
137.4131133365
 20
150.5376329254
 30
0.0
 11
136.9631133365
 21
147.5376329254
 31
0.0
 12
137.8631133365
 22
147.5376329254
 32
0.0
 13
137.8631133365
 23
147.5376329254
 33
0.0
  0
SOLID
  5
1CF
330
1CB
100
AcDbEntity
  8
VERMASSUNG
100
AcDbTrace
 10
137.4131133365
 20
100.5376329254
 30
0.0
 11
137.8631133365
 21
103.5376329254
 31
0.0
 12
136.9631133365
 22
103.5376329254
 32
0.0
 13
136.9631133365
 23
103.5376329254
 33
0.0
  0
LINE
  5
1D0
330
1CB
100
AcDbEntity
  8
VERMASSUNG
100
AcDbLine
 10
174.9583120333
 20
150.5376329254
 30
0.0
 11
136.4131133365
 21
150.5376329254
 31
0.0
  0
LINE
  5
1D1
330
1CB
100
AcDbEntity
  8
VERMASSUNG
100
AcDbLine
 10
174.9583120333
 20
100.5376329254
 30
0.0
 11
136.4131133365
 21
100.5376329254
 31
0.0
  0
LINE
  5
1D2
330
1CB
100
AcDbEntity
  8
VERMASSUNG
100
AcDbLine
 10
137.4131133365
 20
150.5376329254
 30
0.0
 11
137.4131133365
 21
100.5376329254
 31
0.0
  0
MTEXT
  5
1D3
330
1CB
100
AcDbEntity
  8
VERMASSUNG
100
AcDbMText
 10
134.6349780803
 20
120.0326336156
 30
0.0
 40
2.0
 41
0.0
 71
     1
 72
     1
  1
PSC
  7
SLDTEXTSTYLE0
 11
-1.059690869644414E-14
 21
1.0
 31
0.0
 73
     1
 44
1.0
  0
MTEXT
  5
1D4
330
1CB
100
AcDbEntity
  8
VERMASSUNG
100
AcDbMText
 10
134.8349780316
 20
124.632633252
 30
0.0
 40
2.0
 41
0.0
 71
     1
 72
     1
  1
%%c
  7
SLDTEXTSTYLE0
 11
-1.059690869644414E-14
 21
1.0
 31
0.0
 73
     1
 44
1.0
  0
MTEXT
  5
1D5
330
1CB
100
AcDbEntity
  8
VERMASSUNG
100
AcDbMText
 10
134.6349780803
 20
128.2426332663
 30
0.0
 40
2.0
 41
0.0
 71
     1
 72
     1
  1
50
  7
SLDTEXTSTYLE0
 11
-1.059690869644414E-14
 21
1.0
 31
0.0
 73
     1
 44
1.0
  0
ENDBLK
  5
1CD
330
1CB
100
AcDbEntity
  8
0
100
AcDbBlockEnd
  0
BLOCK
  5
1D8
330
1D7
100
AcDbEntity
  8
0
100
AcDbBlockBegin
  2
_D_6
 70
     0
 10
0.0
 20
0.0
 30
0.0
  3
_D_6
  1

  0
SOLID
  5
1DA
330
1D7
100
AcDbEntity
  8
VERMASSUNG
100
AcDbTrace
 10
144.6583120333
 20
177.617754669
 30
0.0
 11
147.6583120333
 21
177.167754669
 31
0.0
 12
147.6583120333
 22
178.067754669
 32
0.0
 13
147.6583120333
 23
178.067754669
 33
0.0
  0
SOLID
  5
1DB
330
1D7
100
AcDbEntity
  8
VERMASSUNG
100
AcDbTrace
 10
269.6583120333
 20
177.617754669
 30
0.0
 11
266.6583120333
 21
178.067754669
 31
0.0
 12
266.6583120333
 22
177.167754669
 32
0.0
 13
266.6583120333
 23
177.167754669
 33
0.0
  0
LINE
  5
1DC
330
1D7
100
AcDbEntity
  8
VERMASSUNG
100
AcDbLine
 10
144.6583120333
 20
141.5309587635
 30
0.0
 11
144.6583120333
 21
178.617754669
 31
0.0
  0
LINE
  5
1DD
330
1D7
100
AcDbEntity
  8
VERMASSUNG
100
AcDbLine
 10
269.6583120333
 20
152.0376329254
 30
0.0
 11
269.6583120333
 21
178.617754669
 31
0.0
  0
LINE
  5
1DE
330
1D7
100
AcDbEntity
  8
VERMASSUNG
100
AcDbLine
 10
144.6583120333
 20
177.617754669
 30
0.0
 11
269.6583120333
 21
177.617754669
 31
0.0
  0
MTEXT
  5
1DF
330
1D7
100
AcDbEntity
  8
VERMASSUNG
100
AcDbMText
 10
205.2583120013
 20
180.1958902649
 30
0.0
 40
2.0
 41
0.0
 71
     1
 72
     1
  1
125
  7
SLDTEXTSTYLE0
 73
     1
 44
1.0
  0
ENDBLK
  5
1D9
330
1D7
100
AcDbEntity
  8
0
100
AcDbBlockEnd
  0
BLOCK
  5
1E2
330
1E1
100
AcDbEntity
  8
0
100
AcDbBlockBegin
  2
_D_7
 70
     0
 10
0.0
 20
0.0
 30
0.0
  3
_D_7
  1

  0
SOLID
  5
1E4
330
1E1
100
AcDbEntity
  8
VERMASSUNG
100
AcDbTrace
 10
194.6583120333
 20
160.7858216868
 30
0.0
 11
197.6583120333
 21
160.3358216868
 31
0.0
 12
197.6583120333
 22
161.2358216868
 32
0.0
 13
197.6583120333
 23
161.2358216868
 33
0.0
  0
SOLID
  5
1E5
330
1E1
100
AcDbEntity
  8
VERMASSUNG
100
AcDbTrace
 10
269.6583120333
 20
160.7858216868
 30
0.0
 11
266.6583120333
 21
161.2358216868
 31
0.0
 12
266.6583120333
 22
160.3358216868
 32
0.0
 13
266.6583120333
 23
160.3358216868
 33
0.0
  0
LINE
  5
1E6
330
1E1
100
AcDbEntity
  8
VERMASSUNG
100
AcDbLine
 10
194.6583120333
 20
150.5376329254
 30
0.0
 11
194.6583120333
 21
161.7858216868
 31
0.0
  0
LINE
  5
1E7
330
1E1
100
AcDbEntity
  8
VERMASSUNG
100
AcDbLine
 10
269.6583120333
 20
152.0376329254
 30
0.0
 11
269.6583120333
 21
161.7858216868
 31
0.0
  0
LINE
  5
1E8
330
1E1
100
AcDbEntity
  8
VERMASSUNG
100
AcDbLine
 10
194.6583120333
 20
160.7858216868
 30
0.0
 11
269.6583120333
 21
160.7858216868
 31
0.0
  0
MTEXT
  5
1E9
330
1E1
100
AcDbEntity
  8
VERMASSUNG
100
AcDbMText
 10
230.7583120832
 20
163.3639572827
 30
0.0
 40
2.0
 41
0.0
 71
     1
 72
     1
  1
75
  7
SLDTEXTSTYLE0
 73
     1
 44
1.0
  0
ENDBLK
  5
1E3
330
1E1
100
AcDbEntity
  8
0
100
AcDbBlockEnd
  0
BLOCK
  5
1EC
330
1EB
100
AcDbEntity
  8
0
100
AcDbBlockBegin
  2
_D_8
 70
     0
 10
0.0
 20
0.0
 30
0.0
  3
_D_8
  1

  0
SOLID
  5
1EE
330
1EB
100
AcDbEntity
  8
VERMASSUNG
100
AcDbTrace
 10
269.6583120333
 20
169.3376329254
 30
0.0
 11
266.6583120333
 21
169.7876329254
 31
0.0
 12
266.6583120333
 22
168.8876329254
 32
0.0
 13
266.6583120333
 23
168.8876329254
 33
0.0
  0
SOLID
  5
1EF
330
1EB
100
AcDbEntity
  8
VERMASSUNG
100
AcDbTrace
 10
174.6583120333
 20
169.3376329254
 30
0.0
 11
177.6583120333
 21
168.8876329254
 31
0.0
 12
177.6583120333
 22
169.7876329254
 32
0.0
 13
177.6583120333
 23
169.7876329254
 33
0.0
  0
LINE
  5
1F0
330
1EB
100
AcDbEntity
  8
VERMASSUNG
100
AcDbLine
 10
269.6583120333
 20
152.0376329254
 30
0.0
 11
269.6583120333
 21
170.3376329254
 31
0.0
  0
LINE
  5
1F1
330
1EB
100
AcDbEntity
  8
VERMASSUNG
100
AcDbLine
 10
174.6583120333
 20
150.2376329254
 30
0.0
 11
174.6583120333
 21
170.3376329254
 31
0.0
  0
LINE
  5
1F2
330
1EB
100
AcDbEntity
  8
VERMASSUNG
100
AcDbLine
 10
269.6583120333
 20
169.3376329254
 30
0.0
 11
174.6583120333
 21
169.3376329254
 31
0.0
  0
MTEXT
  5
1F3
330
1EB
100
AcDbEntity
  8
VERMASSUNG
100
AcDbMText
 10
220.7583120832
 20
171.9157685213
 30
0.0
 40
2.0
 41
0.0
 71
     1
 72
     1
  1
95
  7
SLDTEXTSTYLE0
 73
     1
 44
1.0
  0
ENDBLK
  5
1ED
330
1EB
100
AcDbEntity
  8
0
100
AcDbBlockEnd
  0
ENDSEC
  0
SECTION
  2
ENTITIES
  0
MTEXT
  5
78
330
1F
100
AcDbEntity
  8
KOPF_DÜNN
100
AcDbMText
 10
13.8892156294
 20
23.8442973028
 30
0.0
 40
3.0
 41
0.0
 71
     1
 72
     1
  1
PS5.AM3.K11.095
  7
SLDTEXTSTYLE0
 73
     1
 44
1.0
  0
MTEXT
  5
79
330
1F
100
AcDbEntity
  8
VERMASSUNG
100
AcDbMText
 10
13.9329988022
 20
28.8834360957
 30
0.0
 40
3.0
 41
0.0
 71
     1
 72
     1
  1
Abstechhalter axial_Cut-off block axial
  7
SLDTEXTSTYLE0
 73
     1
 44
1.0
  0
MTEXT
  5
7A
330
1F
100
AcDbEntity
  8
VERMASSUNG
100
AcDbMText
 10
98.8601118557
 20
13.8365368761
 30
0.0
 40
2.0
 41
0.0
 71
     1
 72
     1
  1
Datum: 12.02.2018
  7
SLDTEXTSTYLE0
 73
     1
 44
1.0
  0
MTEXT
  5
7B
330
1F
100
AcDbEntity
  8
VERMASSUNG
100
AcDbMText
 10
13.933048693
 20
18.0482802738
 30
0.0
 40
2.0
 41
0.0
 71
     1
 72
     1
  1
PSC Ø63 / Aufnahme Stechschwerter / hold cut-off blades
  7
SLDTEXTSTYLE0
 73
     1
 44
1.0
  0
MTEXT
  5
7C
330
1F
100
AcDbEntity
  8
VERMASSUNG
100
AcDbMText
 10
13.9808475933
 20
13.9090974274
 30
0.0
 40
2.0
 41
0.0
 71
     1
 72
     1
  1
Gewicht: 2066g
  7
SLDTEXTSTYLE0
 73
     1
 44
1.0
  0
LINE
  5
7D
330
1F
100
AcDbEntity
  8
0
  6
Continuous
 62
     7
370
    25
100
AcDbLine
 10
34.1585302078
 20
133.2321245763
 30
0.0
 11
34.495400759
 21
133.0376327577
 31
0.0
  0
LINE
  5
7E
330
1F
100
AcDbEntity
  8
0
  6
Continuous
 62
     7
370
    25
100
AcDbLine
 10
34.495400759
 20
137.0376329477
 30
0.0
 11
34.159726026
 21
136.8438312392
 31
0.0
  0
LINE
  5
7F
330
1F
100
AcDbEntity
  8
0
  6
Continuous
 62
     7
370
    25
100
AcDbLine
 10
47.4953991645
 20
133.0376327577
 30
0.0
 11
47.8355665976
 21
133.2340286653
 31
0.0
  0
LINE
  5
80
330
1F
100
AcDbEntity
  8
0
  6
Continuous
 62
     7
370
    25
100
AcDbLine
 10
47.8355665976
 20
136.8412375058
 30
0.0
 11
47.4953991645
 21
137.0376329477
 31
0.0
  0
LINE
  5
81
330
1F
100
AcDbEntity
  8
0
  6
Continuous
 62
     7
370
    25
100
AcDbLine
 10
34.495400759
 20
148.6376328002
 30
0.0
 11
34.495400759
 21
148.0376338194
 31
0.0
  0
LINE
  5
82
330
1F
100
AcDbEntity
  8
0
  6
Continuous
 62
     7
370
    25
100
AcDbLine
 10
47.4953991645
 20
148.0376338194
 30
0.0
 11
47.4953991645
 21
148.6376328002
 31
0.0
  0
ARC
  5
83
330
1F
100
AcDbEntity
  8
0
  6
Continuous
 62
     7
370
    25
100
AcDbCircle
 10
45.5953998947
 20
147.4376329254
 30
0.0
 40
0.6000000000000227
100
AcDbArc
 50
90.0
 51
180.0
  0
ARC
  5
84
330
1F
100
AcDbEntity
  8
0
  6
Continuous
 62
     7
370
    25
100
AcDbCircle
 10
36.3953998947
 20
147.4376329254
 30
0.0
 40
0.6000000000000227
100
AcDbArc
 50
0.0
 51
90.0
  0
LINE
  5
85
330
1F
100
AcDbEntity
  8
0
  6
Continuous
 62
     7
370
    25
100
AcDbLine
 10
36.9953983748
 20
147.437632976
 30
0.0
 11
36.9953983748
 21
137.0376329477
 31
0.0
  0
LINE
  5
86
330
1F
100
AcDbEntity
  8
0
  6
Continuous
 62
     7
370
    25
100
AcDbLine
 10
44.9953996861
 20
137.0376329477
 30
0.0
 11
44.9953996861
 21
147.437632976
 31
0.0
  0
LINE
  5
87
330
1F
100
AcDbEntity
  8
0
  6
Continuous
 62
     7
370
    25
100
AcDbLine
 10
34.495400759
 20
153.3376322667
 30
0.0
 11
34.159726026
 21
153.1438314895
 31
0.0
  0
LINE
  5
88
330
1F
100
AcDbEntity
  8
0
  6
Continuous
 62
     7
370
    25
100
AcDbLine
 10
47.8322697156
 20
153.1431404482
 30
0.0
 11
47.4953991645
 21
153.3376322667
 31
0.0
  0
ARC
  5
89
330
1F
100
AcDbEntity
  8
0
  6
Continuous
 62
     7
370
    25
100
AcDbCircle
 10
56.2953998947
 20
137.8376329254
 30
0.0
 40
0.2999999999999972
100
AcDbArc
 50
180.0
 51
270.0
  0
ARC
  5
8A
330
1F
100
AcDbEntity
  8
0
  6
Continuous
 62
     7
370
    25
100
AcDbCircle
 10
56.2953998947
 20
147.2376329254
 30
0.0
 40
0.2999999999999972
100
AcDbArc
 50
90.0
 51
180.0
  0
LINE
  5
8B
330
1F
100
AcDbEntity
  8
0
  6
Continuous
 62
     7
370
    25
100
AcDbLine
 10
56.2954000482
 20
137.5376330297
 30
0.0
 11
56.9953997904
 21
137.5376330297
 31
0.0
  0
LINE
  5
8C
330
1F
100
AcDbEntity
  8
0
  6
Continuous
 62
     7
370
    25
100
AcDbLine
 10
56.9953997904
 20
147.5376328062
 30
0.0
 11
56.2954000482
 21
147.5376328062
 31
0.0
  0
LINE
  5
8D
330
1F
100
AcDbEntity
  8
0
  6
Continuous
 62
     7
370
    25
100
AcDbLine
 10
66.5953997807
 20
139.5376333575
 30
0.0
 11
68.9953998947
 21
139.5376333575
 31
0.0
  0
LINE
  5
8E
330
1F
100
AcDbEntity
  8
0
  6
Continuous
 62
     7
370
    25
100
AcDbLine
 10
68.9953998947
 20
145.5376324783
 30
0.0
 11
66.5953997807
 21
145.5376324783
 31
0.0
  0
SPLINE
  5
8F
330
1F
100
AcDbEntity
  8
0
  6
Continuous
 62
     7
370
    25
100
AcDbSpline
210
0.0
220
0.0
230
1.0
 70
     8
 71
     3
 72
     9
 73
     5
 74
     0
 42
0.000000001
 43
0.00000001
 40
0.0
 40
0.0
 40
0.0
 40
0.0
 40
0.4954587007610271
 40
1.0
 40
1.0
 40
1.0
 40
1.0
 10
33.65389120814143
 20
136.4570762570199
 30
0.0
 10
34.06171321275156
 20
136.6193407626303
 30
0.0
 10
34.88483329114293
 20
136.9468443575036
 30
0.0
 10
35.73572987511432
 20
137.0071873937866
 30
0.0
 10
36.16504234310924
 20
137.0376329477128
 30
0.0
  0
SPLINE
  5
90
330
1F
100
AcDbEntity
  8
0
  6
Continuous
 62
     7
370
    25
100
AcDbSpline
210
0.0
220
0.0
230
1.0
 70
     8
 71
     3
 72
    10
 73
     6
 74
     0
 42
0.000000001
 43
0.00000001
 40
0.0
 40
0.0
 40
0.0
 40
0.0
 40
0.0700774998090681
 40
0.5307771062547615
 40
1.0
 40
1.0
 40
1.0
 40
1.0
 10
36.16504234310924
 20
137.0376329477128
 30
0.0
 10
36.22455432449911
 20
137.0369401730255
 30
0.0
 10
36.67530666805678
 20
137.0316929974727
 30
0.0
 10
37.52519085933778
 20
136.9048994608257
 30
0.0
 10
38.29019119583921
 20
136.607260005247
 30
0.0
 10
38.67619720336734
 20
136.4570762570199
 30
0.0
  0
LINE
  5
91
330
1F
100
AcDbEntity
  8
0
  6
Continuous
 62
     7
370
    25
100
AcDbLine
 10
38.6761972034
 20
136.457076257
 30
0.0
 11
38.6761972034
 21
133.6181899141
 31
0.0
  0
SPLINE
  5
92
330
1F
100
AcDbEntity
  8
0
  6
Continuous
 62
     7
370
    25
100
AcDbSpline
210
0.0
220
0.0
230
1.0
 70
     8
 71
     3
 72
    10
 73
     6
 74
     0
 42
0.000000001
 43
0.00000001
 40
0.0
 40
0.0
 40
0.0
 40
0.0
 40
0.0700775011558975
 40
0.5307771069343484
 40
1.0
 40
1.0
 40
1.0
 40
1.0
 10
36.16504234310924
 20
133.037632757723
 30
0.0
 10
36.22455432440806
 20
133.0383256990962
 30
0.0
 10
36.67530665919013
 20
133.0435741370585
 30
0.0
 10
37.52519086235029
 20
133.1703663300952
 30
0.0
 10
38.2901911968495
 20
133.4680060383527
 30
0.0
 10
38.67619720336734
 20
133.6181899140772
 30
0.0
  0
SPLINE
  5
93
330
1F
100
AcDbEntity
  8
0
  6
Continuous
 62
     7
370
    25
100
AcDbSpline
210
0.0
220
0.0
230
1.0
 70
     8
 71
     3
 72
     9
 73
     5
 74
     0
 42
0.000000001
 43
0.00000001
 40
0.0
 40
0.0
 40
0.0
 40
0.0
 40
0.4954586957335538
 40
1.0
 40
1.0
 40
1.0
 40
1.0
 10
33.65389120814144
 20
133.6181899140772
 30
0.0
 10
34.06171321486352
 20
133.4559254461891
 30
0.0
 10
34.88483330586983
 20
133.128421924129
 30
0.0
 10
35.73572987720962
 20
133.0680785050759
 30
0.0
 10
36.16504234310924
 20
133.037632757723
 30
0.0
  0
LINE
  5
94
330
1F
100
AcDbEntity
  8
0
  6
Continuous
 62
     7
370
    25
100
AcDbLine
 10
33.6538912081
 20
136.457076257
 30
0.0
 11
33.6538912081
 21
133.6181899141
 31
0.0
  0
SPLINE
  5
95
330
1F
100
AcDbEntity
  8
0
  6
Continuous
 62
     7
370
    25
100
AcDbSpline
210
0.0
220
0.0
230
1.0
 70
     8
 71
     3
 72
    11
 73
     7
 74
     0
 42
0.000000001
 43
0.00000001
 40
0.0
 40
0.0
 40
0.0
 40
0.0
 40
0.134092923411239
 40
0.2684562153533379
 40
0.6323981090819777
 40
1.0
 40
1.0
 40
1.0
 40
1.0
 10
42.34695111450493
 20
133.037632757723
 30
0.0
 10
42.18039350585568
 20
133.0398628708917
 30
0.0
 10
41.84694246221517
 20
133.0443275937558
 30
0.0
 10
41.06324505856174
 20
133.1008499399054
 30
0.0
 10
39.9959246145781
 20
133.258117450793
 30
0.0
 10
39.1175711746639
 20
133.4977660964583
 30
0.0
 10
38.67619720336734
 20
133.6181899140772
 30
0.0
  0
SPLINE
  5
96
330
1F
100
AcDbEntity
  8
0
  6
Continuous
 62
     7
370
    25
100
AcDbSpline
210
0.0
220
0.0
230
1.0
 70
     8
 71
     3
 72
    13
 73
     9
 74
     0
 42
0.000000001
 43
0.00000001
 40
0.0
 40
0.0
 40
0.0
 40
0.0
 40
0.1340643282994188
 40
0.268398978479965
 40
0.4501244200055967
 40
0.6323952308848217
 40
0.8160265903663593
 40
1.0
 40
1.0
 40
1.0
 40
1.0
 10
42.34695111450493
 20
137.0376329477128
 30
0.0
 10
42.18039974133166
 20
137.0353949522481
 30
0.0
 10
41.84696116754266
 20
137.0309144487153
 30
0.0
 10
41.28892208608653
 20
136.9908103551259
 30
0.0
 10
40.67387530413833
 20
136.9163902557237
 30
0.0
 10
40.00355524855502
 20
136.7962298132094
 30
0.0
 10
39.33650717560725
 20
136.6444201421459
 30
0.0
 10
38.89643702011214
 20
136.5195629445803
 30
0.0
 10
38.67619720336734
 20
136.4570762570199
 30
0.0
  0
LINE
  5
97
330
1F
100
AcDbEntity
  8
0
  6
Continuous
 62
     7
370
    25
100
AcDbLine
 10
42.3469511145
 20
137.0376329477
 30
0.0
 11
36.1650423431
 21
137.0376329477
 31
0.0
  0
SPLINE
  5
98
330
1F
100
AcDbEntity
  8
0
  6
Continuous
 62
     7
370
    25
100
AcDbSpline
210
0.0
220
0.0
230
1.0
 70
     8
 71
     3
 72
    13
 73
     9
 74
     0
 42
0.000000001
 43
0.00000001
 40
0.0
 40
0.0
 40
0.0
 40
0.0
 40
0.1285441788192113
 40
0.2571857889667779
 40
0.4415230875783491
 40
0.6263236356525144
 40
0.8128148140647182
 40
0.9999999999999999
 40
0.9999999999999999
 40
0.9999999999999999
 40
0.9999999999999999
 10
46.01770502564251
 20
136.4570762570199
 30
0.0
 10
45.86396611754721
 20
136.5012194388852
 30
0.0
 10
45.55637177343469
 20
136.5895392613761
 30
0.0
 10
45.0234181379674
 20
136.722331716153
 30
0.0
 10
44.4175492944224
 20
136.8499525788014
 30
0.0
 10
43.73486482425363
 20
136.9555271270693
 30
0.0
 10
43.04376497851921
 20
137.0245553668501
 30
0.0
 10
42.57950981394161
 20
137.0332683600456
 30
0.0
 10
42.34695111450493
 20
137.0376329477128
 30
0.0
  0
LINE
  5
99
330
1F
100
AcDbEntity
  8
0
  6
Continuous
 62
     7
370
    25
100
AcDbLine
 10
46.0177050256
 20
136.457076257
 30
0.0
 11
46.0177050256
 21
133.6181899141
 31
0.0
  0
SPLINE
  5
9A
330
1F
100
AcDbEntity
  8
0
  6
Continuous
 62
     7
370
    25
100
AcDbSpline
210
0.0
220
0.0
230
1.0
 70
     8
 71
     3
 72
    11
 73
     7
 74
     0
 42
0.000000001
 43
0.00000001
 40
0.0
 40
0.0
 40
0.0
 40
0.0
 40
0.1285825092535638
 40
0.2572624140854575
 40
0.6263892672087732
 40
1.0
 40
1.0
 40
1.0
 40
1.0
 10
46.01770502564251
 20
133.6181899140772
 30
0.0
 10
45.86396257210207
 20
133.574019450763
 30
0.0
 10
45.55636121189498
 20
133.4856450669572
 30
0.0
 10
44.80057112356577
 20
133.2979641574355
 30
0.0
 10
43.73407270565627
 20
133.0898761083475
 30
0.0
 10
42.81118213044931
 20
133.0551171541101
 30
0.0
 10
42.34695111450493
 20
133.037632757723
 30
0.0
  0
SPLINE
  5
9B
330
1F
100
AcDbEntity
  8
0
  6
Continuous
 62
     7
370
    25
100
AcDbSpline
210
0.0
220
0.0
230
1.0
 70
     8
 71
     3
 72
    10
 73
     6
 74
     0
 42
0.000000001
 43
0.00000001
 40
0.0
 40
0.0
 40
0.0
 40
0.0
 40
0.19244202075428
 40
0.5935082284057973
 40
1.0
 40
1.0
 40
1.0
 40
1.0
 10
46.01770502564251
 20
133.6181899140772
 30
0.0
 10
46.08999729139767
 20
133.5537508529457
 30
0.0
 10
46.3129530388358
 20
133.3550150837909
 30
0.0
 10
46.69637630691549
 20
133.1033116662163
 30
0.0
 10
47.0112233271425
 20
133.0596235664615
 30
0.0
 10
47.16970448431312
 20
133.037632757723
 30
0.0
  0
SPLINE
  5
9C
330
1F
100
AcDbEntity
  8
0
  6
Continuous
 62
     7
370
    25
100
AcDbSpline
210
0.0
220
0.0
230
1.0
 70
     8
 71
     3
 72
    10
 73
     6
 74
     0
 42
0.000000001
 43
0.00000001
 40
0.0
 40
0.0
 40
0.0
 40
0.0
 40
0.1924419649401899
 40
0.5935082119861074
 40
1.0
 40
1.0
 40
1.0
 40
1.0
 10
46.01770502564251
 20
136.4570762570199
 30
0.0
 10
46.08999729667036
 20
136.5215149395319
 30
0.0
 10
46.31295311886587
 20
136.7202495931315
 30
0.0
 10
46.69637627408394
 20
136.9719543723553
 30
0.0
 10
47.01122331917746
 20
137.0156422509359
 30
0.0
 10
47.16970448431312
 20
137.0376329477128
 30
0.0
  0
LINE
  5
9D
330
1F
100
AcDbEntity
  8
0
  6
Continuous
 62
     7
370
    25
100
AcDbLine
 10
42.3469511145
 20
137.0376329477
 30
0.0
 11
47.1697044843
 21
137.0376329477
 31
0.0
  0
SPLINE
  5
9E
330
1F
100
AcDbEntity
  8
0
  6
Continuous
 62
     7
370
    25
100
AcDbSpline
210
0.0
220
0.0
230
1.0
 70
     8
 71
     3
 72
    10
 73
     6
 74
     0
 42
0.000000001
 43
0.00000001
 40
0.0
 40
0.0
 40
0.0
 40
0.0
 40
0.3400532028640336
 40
0.6687740342678253
 40
1.0
 40
1.0
 40
1.0
 40
1.0
 10
47.18487014111816
 20
137.0376329477128
 30
0.0
 10
47.31743544006224
 20
137.0220520135302
 30
0.0
 10
47.57814826097397
 20
136.9914093843085
 30
0.0
 10
47.96355384201982
 20
136.7802364551998
 30
0.0
 10
48.21207309542698
 20
136.5651095059962
 30
0.0
 10
48.33680440720855
 20
136.4571377243098
 30
0.0
  0
LINE
  5
9F
330
1F
100
AcDbEntity
  8
0
  6
Continuous
 62
     7
370
    25
100
AcDbLine
 10
48.3368044072
 20
136.4571377243
 30
0.0
 11
48.3368044072
 21
133.6181275155
 31
0.0
  0
SPLINE
  5
A0
330
1F
100
AcDbEntity
  8
0
  6
Continuous
 62
     7
370
    25
100
AcDbSpline
210
0.0
220
0.0
230
1.0
 70
     8
 71
     3
 72
    10
 73
     6
 74
     0
 42
0.000000001
 43
0.00000001
 40
0.0
 40
0.0
 40
0.0
 40
0.0
 40
0.3400532164784302
 40
0.6687740808604186
 40
1.0
 40
1.0
 40
1.0
 40
1.0
 10
47.18487014111816
 20
133.037632757723
 30
0.0
 10
47.31743544427315
 20
133.0532136192508
 30
0.0
 10
47.57814828119196
 20
133.083856106492
 30
0.0
 10
47.96355378599895
 20
133.2950300789719
 30
0.0
 10
48.21207308667518
 20
133.510156174964
 30
0.0
 10
48.33680440720855
 20
133.6181275154647
 30
0.0
  0
LINE
  5
A1
330
1F
100
AcDbEntity
  8
0
  6
Continuous
 62
     7
370
    25
100
AcDbLine
 10
47.1848701411
 20
137.0376329477
 30
0.0
 11
47.1697044843
 21
137.0376329477
 31
0.0
  0
LINE
  5
A2
330
1F
100
AcDbEntity
  8
0
  6
Continuous
 62
     7
370
    25
100
AcDbLine
 10
34.1610187018
 20
133.2364347371
 30
0.0
 11
33.6538912081
 21
133.6181899141
 31
0.0
  0
SPLINE
  5
A3
330
1F
100
AcDbEntity
  8
0
  6
Continuous
 62
     7
370
    25
100
AcDbSpline
210
0.0
220
0.0
230
1.0
 70
     8
 71
     3
 72
     9
 73
     5
 74
     0
 42
0.000000001
 43
0.00000001
 40
0.0
 40
0.0
 40
0.0
 40
0.0
 40
0.4690907925547042
 40
0.9999999999999999
 40
0.9999999999999999
 40
0.9999999999999999
 40
0.9999999999999999
 10
34.16095537182628
 20
136.8416975791749
 30
0.0
 10
34.08087913561824
 20
136.7925513440122
 30
0.0
 10
33.91017393850288
 20
136.6877822120174
 30
0.0
 10
33.74276836728086
 20
136.5370835592981
 30
0.0
 10
33.65389120814144
 20
136.4570762570199
 30
0.0
  0
LINE
  5
A4
330
1F
100
AcDbEntity
  8
0
  6
Continuous
 62
     7
370
    25
100
AcDbLine
 10
34.495400759
 20
137.0376329477
 30
0.0
 11
36.1650423431
 21
137.0376329477
 31
0.0
  0
LINE
  5
A5
330
1F
100
AcDbEntity
  8
0
  6
Continuous
 62
     7
370
    25
100
AcDbLine
 10
47.1848701411
 20
137.0376329477
 30
0.0
 11
47.4953991645
 21
137.0376329477
 31
0.0
  0
LINE
  5
A6
330
1F
100
AcDbEntity
  8
0
  6
Continuous
 62
     7
370
    25
100
AcDbLine
 10
36.1650423431
 20
148.6376328002
 30
0.0
 11
33.6538912081
 21
148.6376328002
 31
0.0
  0
LINE
  5
A7
330
1F
100
AcDbEntity
  8
0
  6
Continuous
 62
     7
370
    25
100
AcDbLine
 10
33.6538912081
 20
148.6376328002
 30
0.0
 11
33.6538912081
 21
152.757075576
 31
0.0
  0
SPLINE
  5
A8
330
1F
100
AcDbEntity
  8
0
  6
Continuous
 62
     7
370
    25
100
AcDbSpline
210
0.0
220
0.0
230
1.0
 70
     8
 71
     3
 72
    11
 73
     7
 74
     0
 42
0.000000001
 43
0.00000001
 40
0.0
 40
0.0
 40
0.0
 40
0.0
 40
0.2472687413333367
 40
0.4953632910600007
 40
0.7468739795409302
 40
1.0
 40
1.0
 40
1.0
 40
1.0
 10
33.65389120814144
 20
152.7570755760368
 30
0.0
 10
33.85659143158656
 20
152.8400627484276
 30
0.0
 10
34.26266884049368
 20
153.0063142471395
 30
0.0
 10
34.88588420219421
 20
153.1887509386294
 30
0.0
 10
35.52096522915327
 20
153.3137815410005
 30
0.0
 10
35.94989230946516
 20
153.3296650771931
 30
0.0
 10
36.16504234310924
 20
153.3376322667297
 30
0.0
  0
SPLINE
  5
A9
330
1F
100
AcDbEntity
  8
0
  6
Continuous
 62
     7
370
    25
100
AcDbSpline
210
0.0
220
0.0
230
1.0
 70
     8
 71
     3
 72
    12
 73
     8
 74
     0
 42
0.000000001
 43
0.00000001
 40
0.0
 40
0.0
 40
0.0
 40
0.0
 40
0.0700430871950369
 40
0.299803063697486
 40
0.5308239407095502
 40
0.7650210123999245
 40
1.0
 40
1.0
 40
1.0
 40
1.0
 10
36.16504234310924
 20
153.3376322667297
 30
0.0
 10
36.22456013287758
 20
153.3369755325326
 30
0.0
 10
36.47931212099833
 20
153.334164535299
 30
0.0
 10
36.93000054979104
 20
153.2906235723084
 30
0.0
 10
37.5154168811843
 20
153.1704223836649
 30
0.0
 10
38.099062884351
 20
152.9937513734476
 30
0.0
 10
38.48360547432901
 20
152.83605511259
 30
0.0
 10
38.67619720336734
 20
152.7570755760368
 30
0.0
  0
LINE
  5
AA
330
1F
100
AcDbEntity
  8
0
  6
Continuous
 62
     7
370
    25
100
AcDbLine
 10
38.6761972034
 20
148.6376328002
 30
0.0
 11
38.6761972034
 21
152.757075576
 31
0.0
  0
LINE
  5
AB
330
1F
100
AcDbEntity
  8
0
  6
Continuous
 62
     7
370
    25
100
AcDbLine
 10
38.6761972034
 20
148.6376328002
 30
0.0
 11
36.1650423431
 21
148.6376328002
 31
0.0
  0
LINE
  5
AC
330
1F
100
AcDbEntity
  8
0
  6
Continuous
 62
     7
370
    25
100
AcDbLine
 10
42.3469511145
 20
148.0376338194
 30
0.0
 11
34.495400759
 21
148.0376338194
 31
0.0
  0
LINE
  5
AD
330
1F
100
AcDbEntity
  8
0
  6
Continuous
 62
     7
370
    25
100
AcDbLine
 10
47.4953991645
 20
148.0376338194
 30
0.0
 11
42.3469511145
 21
148.0376338194
 31
0.0
  0
SPLINE
  5
AE
330
1F
100
AcDbEntity
  8
0
  6
Continuous
 62
     7
370
    25
100
AcDbSpline
210
0.0
220
0.0
230
1.0
 70
     8
 71
     3
 72
    13
 73
     9
 74
     0
 42
0.000000001
 43
0.00000001
 40
0.0
 40
0.0
 40
0.0
 40
0.0
 40
0.1885424899391289
 40
0.3774210416293705
 40
0.5676133200492458
 40
0.7584013971857854
 40
0.8791025405210039
 40
0.9999999999999999
 40
0.9999999999999999
 40
0.9999999999999999
 40
0.9999999999999999
 10
38.67619720336734
 20
152.7570755760368
 30
0.0
 10
38.90192338726892
 20
152.8210547884169
 30
0.0
 10
39.35377809375263
 20
152.9491272509528
 30
0.0
 10
40.04263451050383
 20
153.104586649554
 30
0.0
 10
40.74065071209812
 20
153.2269110053957
 30
0.0
 10
41.36038056904576
 20
153.2974643441069
 30
0.0
 10
41.89662190932101
 20
153.332174519347
 30
0.0
 10
42.19676008486585
 20
153.3358120323556
 30
0.0
 10
42.34695111450493
 20
153.3376322667297
 30
0.0
  0
LINE
  5
AF
330
1F
100
AcDbEntity
  8
0
  6
Continuous
 62
     7
370
    25
100
AcDbLine
 10
42.3469511145
 20
153.3376322667
 30
0.0
 11
36.1650423431
 21
153.3376322667
 31
0.0
  0
SPLINE
  5
B0
330
1F
100
AcDbEntity
  8
0
  6
Continuous
 62
     7
370
    25
100
AcDbSpline
210
0.0
220
0.0
230
1.0
 70
     8
 71
     3
 72
    11
 73
     7
 74
     0
 42
0.000000001
 43
0.00000001
 40
0.0
 40
0.0
 40
0.0
 40
0.0
 40
0.3854565663248639
 40
0.7765751279877842
 40
0.8882542171709888
 40
1.0
 40
1.0
 40
1.0
 40
1.0
 10
42.34695111450493
 20
153.3376322667297
 30
0.0
 10
42.8258882612078
 20
153.318973439282
 30
0.0
 10
43.7907976919773
 20
153.2813817037165
 30
0.0
 10
44.87673179792368
 20
153.0612113441736
 30
0.0
 10
45.61708137755288
 20
152.8725874003958
 30
0.0
 10
45.88413723702809
 20
152.7955871791636
 30
0.0
 10
46.01770502564251
 20
152.7570755760368
 30
0.0
  0
LINE
  5
B1
330
1F
100
AcDbEntity
  8
0
  6
Continuous
 62
     7
370
    25
100
AcDbLine
 10
46.0177050256
 20
148.6376328002
 30
0.0
 11
46.0177050256
 21
152.757075576
 31
0.0
  0
LINE
  5
B2
330
1F
100
AcDbEntity
  8
0
  6
Continuous
 62
     7
370
    25
100
AcDbLine
 10
46.0177050256
 20
148.6376328002
 30
0.0
 11
42.3469511145
 21
148.6376328002
 31
0.0
  0
CIRCLE
  5
B3
330
1F
100
AcDbEntity
  8
0
  6
Continuous
 62
     7
370
    25
100
AcDbCircle
 10
42.3225158929
 20
150.8452066267
 30
0.0
 40
1.687295149613637
  0
LINE
  5
B4
330
1F
100
AcDbEntity
  8
0
  6
Continuous
 62
     7
370
    25
100
AcDbLine
 10
42.3469511145
 20
148.6376328002
 30
0.0
 11
38.6761972034
 21
148.6376328002
 31
0.0
  0
LWPOLYLINE
  5
B5
330
1F
100
AcDbEntity
  8
0
  6
Continuous
 62
     7
370
    25
100
AcDbPolyline
 90
       20
 70
   128
 43
0.0
 10
42.3053638363
 20
149.3376334737
 10
42.7817688608
 20
149.4189062695
 10
43.2065469497
 20
149.6539217959
 10
43.5336684161
 20
150.0172102432
 10
43.7276833975
 20
150.4694046061
 10
43.7675682181
 20
150.961502416
 10
43.6490015411
 20
151.4401761423
 10
43.3848300302
 20
151.8535548429
 10
43.0036825412
 20
152.1568437646
 10
42.5468595051
 20
152.3171746711
 10
42.0638681674
 20
152.3171746711
 10
41.6070469939
 20
152.1568437646
 10
41.225899505
 20
151.8535548429
 10
40.9617279941
 20
151.4401761423
 10
40.8431613171
 20
150.961502416
 10
40.8830461377
 20
150.4694046061
 10
41.077061119
 20
150.0172102432
 10
41.4041825854
 20
149.6539217959
 10
41.8289606744
 20
149.4189062695
 10
42.3053638363
 20
149.3376334737
  0
SPLINE
  5
B6
330
1F
100
AcDbEntity
  8
0
  6
Continuous
 62
     7
370
    25
100
AcDbSpline
210
0.0
220
0.0
230
1.0
 70
     8
 71
     3
 72
    22
 73
    18
 74
     0
 42
0.000000001
 43
0.00000001
 40
0.0
 40
0.0
 40
0.0
 40
0.0
 40
0.0426183656916475
 40
0.1290555985958514
 40
0.1730109164288711
 40
0.2261144734084267
 40
0.2797999372036853
 40
0.3451178109679573
 40
0.4070471418505444
 40
0.4694512489190654
 40
0.53315537513613
 40
0.5972545076532633
 40
0.6609502369712164
 40
0.7250395218263642
 40
0.7904490212324672
 40
0.8563642852246091
 40
1.0
 40
1.0
 40
1.0
 40
1.0
 10
42.72770744797527
 20
151.0376324485239
 30
0.0
 10
42.73034674471153
 20
151.0070687442293
 30
0.0
 10
42.73833898032733
 20
150.9145166932758
 30
0.0
 10
42.73872919821952
 20
150.7875637395701
 30
0.0
 10
42.73032864563429
 20
150.6550541014155
 30
0.0
 10
42.71772762599068
 20
150.5480500313943
 30
0.0
 10
42.69657615931409
 20
150.4295578945915
 30
0.0
 10
42.6666862937895
 20
150.310053348501
 30
0.0
 10
42.62714882904352
 20
150.1910762050949
 30
0.0
 10
42.58017967270271
 20
150.0793168821448
 30
0.0
 10
42.52476407899221
 20
149.9727034947886
 30
0.0
 10
42.46087986556023
 20
149.871999481456
 30
0.0
 10
42.38864317418148
 20
149.7779555802558
 30
0.0
 10
42.30760765584233
 20
149.6903907963034
 30
0.0
 10
42.21669074547141
 20
149.6100664844768
 30
0.0
 10
42.07773945762175
 20
149.5073579572836
 30
0.0
 10
41.95064104994037
 20
149.4539620829915
 30
0.0
 10
41.86352205511867
 20
149.4173621366915
 30
0.0
  0
SPLINE
  5
B7
330
1F
100
AcDbEntity
  8
0
  6
Continuous
 62
     7
370
    25
100
AcDbSpline
210
0.0
220
0.0
230
1.0
 70
     8
 71
     3
 72
    18
 73
    14
 74
     0
 42
0.000000001
 43
0.00000001
 40
0.0
 40
0.0
 40
0.0
 40
0.0
 40
0.0619105168395764
 40
0.1239699843052801
 40
0.1866566630164197
 40
0.2496369689711139
 40
0.3453312544465381
 40
0.4421406617861657
 40
0.5414153381510117
 40
0.6411664014072799
 40
0.7306971573930019
 40
0.8203242221470685
 40
1.0
 40
1.0
 40
1.0
 40
1.0
 10
42.27455196019947
 20
151.3381702433523
 30
0.0
 10
42.27927967207182
 20
151.3472519892664
 30
0.0
 10
42.2887464702272
 20
151.3654373308837
 30
0.0
 10
42.30525473723461
 20
151.3858668601299
 30
0.0
 10
42.32438725968335
 20
151.3999230239069
 30
0.0
 10
42.35069173032547
 20
151.4072351018612
 30
0.0
 10
42.38683464064157
 20
151.4014775089781
 30
0.0
 10
42.43491428068319
 20
151.3762529702448
 30
0.0
 10
42.48789613014947
 20
151.3352183101062
 30
0.0
 10
42.54106713927096
 20
151.2840279985707
 30
0.0
 10
42.59190394884089
 20
151.227214354087
 30
0.0
 10
42.65576059930577
 20
151.1478227450294
 30
0.0
 10
42.69891519504904
 20
151.0817292636822
 30
0.0
 10
42.72770744797527
 20
151.0376324485239
 30
0.0
  0
ARC
  5
B8
330
1F
100
AcDbEntity
  8
0
  6
Continuous
 62
     7
370
    25
100
AcDbCircle
 10
40.8661893703
 20
150.8558947165
 30
0.0
 40
1.488648671889378
100
AcDbArc
 50
18.9031037408
 51
60.5369764398
  0
SPLINE
  5
B9
330
1F
100
AcDbEntity
  8
0
  6
Continuous
 62
     7
370
    25
100
AcDbSpline
210
0.0
220
0.0
230
1.0
 70
     8
 71
     3
 72
    11
 73
     7
 74
     0
 42
0.000000001
 43
0.00000001
 40
0.0
 40
0.0
 40
0.0
 40
0.0
 40
0.247267794082028
 40
0.4953630926246417
 40
0.746874783071711
 40
1.0
 40
1.0
 40
1.0
 40
1.0
 10
46.01770502564251
 20
152.7570755760368
 30
0.0
 10
46.11130793718552
 20
152.8400628527883
 30
0.0
 10
46.29882701104125
 20
153.0063151308609
 30
0.0
 10
46.58661577650279
 20
153.1887509042076
 30
0.0
 10
46.87988351717576
 20
153.3137812467256
 30
0.0
 10
47.07795402822927
 20
153.3296649978219
 30
0.0
 10
47.17730593916713
 20
153.3376322667297
 30
0.0
  0
LINE
  5
BA
330
1F
100
AcDbEntity
  8
0
  6
Continuous
 62
     7
370
    25
100
AcDbLine
 10
47.1773059392
 20
153.3376322667
 30
0.0
 11
42.3469511145
 21
153.3376322667
 31
0.0
  0
SPLINE
  5
BB
330
1F
100
AcDbEntity
  8
0
  6
Continuous
 62
     7
370
    25
100
AcDbSpline
210
0.0
220
0.0
230
1.0
 70
     8
 71
     3
 72
    11
 73
     7
 74
     0
 42
0.000000001
 43
0.00000001
 40
0.0
 40
0.0
 40
0.0
 40
0.0
 40
0.0700569255778945
 40
0.2998577608064905
 40
0.5309228487973704
 40
1.0
 40
1.0
 40
1.0
 40
1.0
 10
47.17730593916713
 20
153.3376322667297
 30
0.0
 10
47.20479041364162
 20
153.3369841372212
 30
0.0
 10
47.322429503637
 20
153.3342100123
 30
0.0
 10
47.53048690676244
 20
153.2898979936867
 30
0.0
 10
47.8925596466128
 20
153.133607722553
 30
0.0
 10
48.15864106342428
 20
152.9081358715423
 30
0.0
 10
48.33690871533691
 20
152.7570755760368
 30
0.0
  0
LINE
  5
BC
330
1F
100
AcDbEntity
  8
0
  6
Continuous
 62
     7
370
    25
100
AcDbLine
 10
48.3369087153
 20
148.6376328002
 30
0.0
 11
48.3369087153
 21
152.757075576
 31
0.0
  0
LINE
  5
BD
330
1F
100
AcDbEntity
  8
0
  6
Continuous
 62
     7
370
    25
100
AcDbLine
 10
48.3369087153
 20
148.6376328002
 30
0.0
 11
47.1773059392
 21
148.6376328002
 31
0.0
  0
LINE
  5
BE
330
1F
100
AcDbEntity
  8
0
  6
Continuous
 62
     7
370
    25
100
AcDbLine
 10
47.1773059392
 20
148.6376328002
 30
0.0
 11
46.0177050256
 21
148.6376328002
 31
0.0
  0
SPLINE
  5
BF
330
1F
100
AcDbEntity
  8
0
  6
Continuous
 62
     7
370
    25
100
AcDbSpline
210
0.0
220
0.0
230
1.0
 70
     8
 71
     3
 72
     9
 73
     5
 74
     0
 42
0.000000001
 43
0.00000001
 40
0.0
 40
0.0
 40
0.0
 40
0.0
 40
0.469090668420445
 40
1.0
 40
1.0
 40
1.0
 40
1.0
 10
34.16095537182628
 20
153.1416968981918
 30
0.0
 10
34.08087912646972
 20
153.0925511019066
 30
0.0
 10
33.91017386467843
 20
152.987782877779
 30
0.0
 10
33.74276835525315
 20
152.8370833575767
 30
0.0
 10
33.65389120814144
 20
152.7570755760368
 30
0.0
  0
LINE
  5
C0
330
1F
100
AcDbEntity
  8
0
  6
Continuous
 62
     7
370
    25
100
AcDbLine
 10
36.1650423431
 20
153.3376322667
 30
0.0
 11
34.495400759
 21
153.3376322667
 31
0.0
  0
LINE
  5
C1
330
1F
100
AcDbEntity
  8
0
  6
Continuous
 62
     7
370
    25
100
AcDbLine
 10
42.7631032937
 20
151.0376324485
 30
0.0
 11
40.8512489223
 21
151.0376324485
 31
0.0
  0
LINE
  5
C2
330
1F
100
AcDbEntity
  8
0
  6
Continuous
 62
     7
370
    25
100
AcDbLine
 10
47.4953991645
 20
153.3376322667
 30
0.0
 11
47.1773059392
 21
153.3376322667
 31
0.0
  0
SPLINE
  5
C3
330
1F
100
AcDbEntity
  8
0
  6
Continuous
 62
     7
370
    25
100
AcDbSpline
210
0.0
220
0.0
230
1.0
 70
     8
 71
     3
 72
    11
 73
     7
 74
     0
 42
0.000000001
 43
0.00000001
 40
0.0
 40
0.0
 40
0.0
 40
0.0
 40
0.0247713540990382
 40
0.2763680798693885
 40
0.635207967229962
 40
1.0
 40
1.0
 40
1.0
 40
1.0
 10
41.12399232622921
 20
151.6911396364864
 30
0.0
 10
41.1339280166648
 20
151.6903596803457
 30
0.0
 10
41.24477814124353
 20
151.681657896013
 30
0.0
 10
41.49819887706794
 20
151.6212687175345
 30
0.0
 10
41.87532011062734
 20
151.5072517575774
 30
0.0
 10
42.14074693177848
 20
151.3948389606418
 30
0.0
 10
42.27455196019947
 20
151.3381702433523
 30
0.0
  0
LINE
  5
C4
330
1F
100
AcDbEntity
  8
0
  6
Continuous
 62
     7
370
    25
100
AcDbLine
 10
55.9953996265
 20
137.83763252
 30
0.0
 11
55.9953996265
 21
147.2376333158
 31
0.0
  0
LINE
  5
C5
330
1F
100
AcDbEntity
  8
0
  6
Continuous
 62
     7
370
    25
100
AcDbLine
 10
31.1668389761
 20
112.5376326571
 30
0.0
 11
106.8239608133
 21
112.5376326571
 31
0.0
  0
SPLINE
  5
C6
330
1F
100
AcDbEntity
  8
0
  6
Continuous
 62
     7
370
    25
100
AcDbSpline
210
0.0
220
0.0
230
1.0
 70
     8
 71
     3
 72
    12
 73
     8
 74
     0
 42
0.000000001
 43
0.00000001
 40
0.0
 40
0.0
 40
0.0
 40
0.0
 40
0.2500000000000004
 40
0.2500000000000004
 40
0.5000000000000009
 40
0.5000000000000009
 40
1.0
 40
1.0
 40
1.0
 40
1.0
 10
99.50189697037483
 20
99.66576333364301
 30
0.0
 10
99.47799174216152
 20
99.63757577757956
 30
0.0
 10
99.4059239109283
 20
99.61159418138509
 30
0.0
 10
99.20801153718338
 20
99.56708475505405
 30
0.0
 10
99.08227449077094
 20
99.54850257160591
 30
0.0
 10
98.67041385980356
 20
99.5044164599315
 30
0.0
 10
98.3424761962578
 20
99.4894363529346
 30
0.0
 10
98.02110325092157
 20
99.48943635293456
 30
0.0
  0
LINE
  5
C7
330
1F
100
AcDbEntity
  8
0
  6
Continuous
 62
     7
370
    25
100
AcDbLine
 10
98.0211035633
 20
99.4894364457
 30
0.0
 11
39.9696962261
 21
99.4894364457
 31
0.0
  0
SPLINE
  5
C8
330
1F
100
AcDbEntity
  8
0
  6
Continuous
 62
     7
370
    25
100
AcDbSpline
210
0.0
220
0.0
230
1.0
 70
     8
 71
     3
 72
    14
 73
    10
 74
     0
 42
0.000000001
 43
0.00000001
 40
0.0
 40
0.0
 40
0.0
 40
0.0
 40
0.25
 40
0.25
 40
0.5
 40
0.5
 40
0.75
 40
0.75
 40
1.0
 40
1.0
 40
1.0
 40
1.0
 10
39.96969653844764
 20
99.48943635293456
 30
0.0
 10
39.80825710981302
 20
99.48943635293456
 30
0.0
 10
39.64540691082444
 20
99.49327305913957
 30
0.0
 10
39.33477052242532
 20
99.50801521622826
 30
0.0
 10
39.18501152506023
 20
99.5189310611695
 30
0.0
 10
38.90852230364478
 20
99.54847911274729
 30
0.0
 10
38.78352917924727
 20
99.56695465657702
 30
0.0
 10
38.58524548213679
 20
99.61147473163989
 30
0.0
 10
38.5127985539247
 20
99.63758697145622
 30
0.0
 10
38.48890281898465
 20
99.6657633336426
 30
0.0
  0
ARC
  5
C9
330
1F
100
AcDbEntity
  8
0
  6
Continuous
 62
     7
370
    25
100
AcDbCircle
 10
68.9953998947
 20
125.5376329254
 30
0.0
 40
40.00000000000001
100
AcDbArc
 50
198.9655749888
 51
220.3005228962
  0
ARC
  5
CA
330
1F
100
AcDbEntity
  8
0
  6
Continuous
 62
     7
370
    25
100
AcDbCircle
 10
68.9953998947
 20
125.5376329254
 30
0.0
 40
40.00000000000001
100
AcDbArc
 50
319.6994771038
 51
341.0344250112
  0
LINE
  5
CB
330
1F
100
AcDbEntity
  8
0
  6
Continuous
 62
     7
370
    25
100
AcDbLine
 10
68.9953998947
 20
135.8404084648
 30
0.0
 11
68.9953998947
 21
147.5376328062
 31
0.0
  0
LINE
  5
CC
330
1F
100
AcDbEntity
  8
0
  6
Continuous
 62
     7
370
    25
100
AcDbLine
 10
68.9953998947
 20
147.5376328062
 30
0.0
 11
90.3616887802
 21
147.5376328062
 31
0.0
  0
LINE
  5
CD
330
1F
100
AcDbEntity
  8
0
  6
Continuous
 62
     7
370
    25
100
AcDbLine
 10
90.3616887802
 20
147.5376328062
 30
0.0
 11
89.1559166187
 21
152.0376326124
 31
0.0
  0
LINE
  5
CE
330
1F
100
AcDbEntity
  8
0
  6
Continuous
 62
     7
370
    25
100
AcDbLine
 10
89.1559166187
 20
152.0376326124
 30
0.0
 11
98.9578762376
 21
152.0376326124
 31
0.0
  0
LINE
  5
CF
330
1F
100
AcDbEntity
  8
0
  6
Continuous
 62
     7
370
    25
100
AcDbLine
 10
29.7048152709
 20
133.0376327577
 30
0.0
 11
56.9953997904
 21
133.0376327577
 31
0.0
  0
LINE
  5
D0
330
1F
100
AcDbEntity
  8
0
  6
Continuous
 62
     7
370
    25
100
AcDbLine
 10
56.9953997904
 20
133.0376327577
 30
0.0
 11
56.9953997904
 21
152.0376326124
 31
0.0
  0
LINE
  5
D1
330
1F
100
AcDbEntity
  8
0
  6
Continuous
 62
     7
370
    25
100
AcDbLine
 10
65.5674601724
 20
152.0376326124
 30
0.0
 11
56.9953997904
 21
152.0376326124
 31
0.0
  0
LINE
  5
D2
330
1F
100
AcDbEntity
  8
0
  6
Continuous
 62
     7
370
    25
100
AcDbLine
 10
65.5674601724
 20
152.0376326124
 30
0.0
 11
64.3616887094
 21
147.5376328062
 31
0.0
  0
LINE
  5
D3
330
1F
100
AcDbEntity
  8
0
  6
Continuous
 62
     7
370
    25
100
AcDbLine
 10
64.3616887094
 20
147.5376328062
 30
0.0
 11
66.5953997807
 21
147.5376328062
 31
0.0
  0
LINE
  5
D4
330
1F
100
AcDbEntity
  8
0
  6
Continuous
 62
     7
370
    25
100
AcDbLine
 10
66.5953997807
 20
137.4858207609
 30
0.0
 11
66.5953997807
 21
147.5376328062
 31
0.0
  0
ARC
  5
D5
330
1F
100
AcDbEntity
  8
0
  6
Continuous
 62
     7
370
    25
100
AcDbCircle
 10
65.9953998947
 20
134.0376329254
 30
0.0
 40
3.499999999999999
100
AcDbArc
 50
80.1291103939
 51
31.0027191339
  0
CIRCLE
  5
D6
330
1F
100
AcDbEntity
  8
0
  6
Continuous
 62
     7
370
    25
100
AcDbCircle
 10
68.9953998947
 20
125.5376329254
 30
0.0
 40
1.617949192431098
  0
ARC
  5
D7
330
1F
100
AcDbEntity
  8
0
  6
Continuous
 62
     7
370
    25
100
AcDbCircle
 10
68.9953998947
 20
125.5376329254
 30
0.0
 40
40.00000000000001
100
AcDbArc
 50
169.1930771251
 51
198.9655749888
  0
ARC
  5
D8
330
1F
100
AcDbEntity
  8
0
  6
Continuous
 62
     7
370
    25
100
AcDbCircle
 10
68.9953998947
 20
125.5376329254
 30
0.0
 40
40.0
100
AcDbArc
 50
341.0344250112
 51
41.4908168557
  0
CIRCLE
  5
D9
330
1F
100
AcDbEntity
  8
0
  6
Continuous
 62
     7
370
    25
100
AcDbCircle
 10
68.9953998947
 20
125.5376329254
 30
0.0
 40
1.575000000000003
  0
LINE
  5
DA
330
1F
100
AcDbEntity
  8
0
  6
Continuous
 62
     7
370
    25
100
AcDbLine
 10
68.9953998947
 20
147.5376328062
 30
0.0
 11
66.5953997807
 21
147.5376328062
 31
0.0
  0
SPLINE
  5
DB
330
1F
100
AcDbEntity
  8
0
  6
Continuous
 62
     7
370
    25
100
AcDbSpline
210
0.0
220
0.0
230
1.0
 70
     8
 71
     3
 72
    18
 73
    14
 74
     0
 42
0.000000001
 43
0.00000001
 40
0.0
 40
0.0
 40
0.0
 40
0.0
 40
0.1249999999999993
 40
0.1249999999999993
 40
0.2499999999999984
 40
0.2499999999999984
 40
0.3749999999999977
 40
0.3749999999999977
 40
0.4999999999999968
 40
0.4999999999999968
 40
0.7499999999999983
 40
0.7499999999999983
 40
1.0
 40
1.0
 40
1.0
 40
1.0
 10
66.59539989468395
 20
137.4858208552744
 30
0.0
 10
66.82568161870759
 20
137.4457508134952
 30
0.0
 10
67.02040622967434
 20
137.3893974314011
 30
0.0
 10
67.37168333724182
 20
137.2611104227948
 30
0.0
 10
67.52134343108064
 20
137.19113180202
 30
0.0
 10
67.78873146680172
 20
137.047121372557
 30
0.0
 10
67.90702981436965
 20
136.9723301157648
 30
0.0
 10
68.11871227775563
 20
136.8230092146792
 30
0.0
 10
68.21194830334083
 20
136.7486226072686
 30
0.0
 10
68.46521225398973
 20
136.5276599378921
 30
0.0
 10
68.59923978761596
 20
136.3833351458584
 30
0.0
 10
68.82581430618394
 20
136.1042861024674
 30
0.0
 10
68.91782497579456
 20
135.9695010312833
 30
0.0
 10
68.99539989468396
 20
135.840408563093
 30
0.0
  0
SPLINE
  5
DC
330
1F
100
AcDbEntity
  8
0
  6
Continuous
 62
     7
370
    25
100
AcDbSpline
210
0.0
220
0.0
230
1.0
 70
     8
 71
     3
 72
    20
 73
    16
 74
     0
 42
0.000000001
 43
0.00000001
 40
0.0
 40
0.0
 40
0.0
 40
0.0
 40
0.25
 40
0.25
 40
0.375
 40
0.375
 40
0.5
 40
0.5
 40
0.625
 40
0.625
 40
0.75
 40
0.75
 40
0.875
 40
0.875
 40
1.0
 40
1.0
 40
1.0
 40
1.0
 10
30.99868951075731
 20
138.0376329253611
 30
0.0
 10
30.75484644992411
 20
137.2964141924323
 30
0.0
 10
30.5548581888509
 20
136.6160362890309
 30
0.0
 10
30.30476483082441
 20
135.6932385344204
 30
0.0
 10
30.22945842762261
 20
135.4005702286278
 30
0.0
 10
30.09740784477097
 20
134.8661893281869
 30
0.0
 10
30.04011978634867
 20
134.6226204888851
 30
0.0
 10
29.94016861654286
 20
134.1828487791821
 30
0.0
 10
29.89750972992763
 20
133.9866352957605
 30
0.0
 10
29.82504271942359
 20
133.6440362679597
 30
0.0
 10
29.79590515694246
 20
133.5008805043535
 30
0.0
 10
29.74997362790895
 20
133.2713394647689
 30
0.0
 10
29.73309617668158
 20
133.1845311241724
 30
0.0
 10
29.71050445645095
 20
133.0676087363942
 30
0.0
 10
29.70481578092967
 20
133.0376329253611
 30
0.0
 10
29.70481578092967
 20
133.0376329253611
 30
0.0
  0
LINE
  5
DD
330
1F
100
AcDbEntity
  8
0
  6
Continuous
 62
     7
370
    25
100
AcDbLine
 10
35.5888144397
 20
147.5376328062
 30
0.0
 11
36.987009021
 21
147.5376328062
 31
0.0
  0
LINE
  5
DE
330
1F
100
AcDbEntity
  8
0
  6
Continuous
 62
     7
370
    25
100
AcDbLine
 10
45.0037927651
 20
147.5376328062
 30
0.0
 11
56.9953997904
 21
147.5376328062
 31
0.0
  0
ARC
  5
DF
330
1F
100
AcDbEntity
  8
0
  6
Continuous
 62
     7
370
    25
100
AcDbCircle
 10
68.9953998947
 20
125.5376329254
 30
0.0
 40
39.99999999999999
100
AcDbArc
 50
146.6329870308
 51
161.7900431357
  0
ARC
  5
E0
330
1F
100
AcDbEntity
  8
0
  6
Continuous
 62
     7
370
    25
100
AcDbCircle
 10
68.9953998947
 20
125.5376329254
 30
0.0
 40
25.0
100
AcDbArc
 50
61.6423634237
 51
99.0035730467
  0
DIMENSION
  5
E1
330
1F
100
AcDbEntity
  8
VERMASSUNG
100
AcDbDimension
  2
_D
 10
118.9953998947
 20
147.5376329254
 30
0.0
 11
118.9953998947
 21
136.5376329254
 31
0.0
 70
   160
  1
<>
 71
     2
 42
-1.0
  3
SLDDIMSTYLE0
100
AcDbAlignedDimension
 13
111.4953998947
 23
125.5376329254
 33
0.0
 14
90.3616886996
 24
147.5376329254
 34
0.0
 50
90.0
100
AcDbRotatedDimension
  0
DIMENSION
  5
EC
330
1F
100
AcDbEntity
  8
VERMASSUNG
100
AcDbDimension
  2
_D_1
 10
104.3499436661
 20
106.8278431159
 30
0.0
 11
113.7869194901
 21
101.8337666939
 31
0.0
 70
   163
  1
<>
 71
     1
 42
-1.0
  3
SLDDIMSTYLE1
100
AcDbDiametricDimension
 15
33.6408561233
 25
144.2474227348
 35
0.0
 40
0.0
  0
DIMENSION
  5
F7
330
1F
100
AcDbEntity
  8
VERMASSUNG
100
AcDbDimension
  2
_D_2
 10
90.3616886996
 20
161.8211752293
 30
0.0
 11
77.3616886996
 21
161.8211752293
 31
0.0
 70
   160
  1
<>
 71
     2
 42
-1.0
  3
SLDDIMSTYLE0
100
AcDbAlignedDimension
 13
64.3616886996
 23
147.5376329254
 33
0.0
 14
90.3616886996
 24
147.5376329254
 34
0.0
 50
0.0
100
AcDbRotatedDimension
  0
DIMENSION
  5
101
330
1F
100
AcDbEntity
  8
VERMASSUNG
100
AcDbDimension
  2
_D_3
 10
90.3616886996
 20
147.5376329254
 30
0.0
 11
77.3616886996
 21
154.064499941
 31
0.0
 70
   162
  1
<>
 71
     1
 42
-1.0
  3
SLDDIMSTYLE2
100
AcDb2LineAngularDimension
 13
64.3616886996
 23
147.5376329254
 33
0.0
 14
65.5674600656
 24
152.0376329254
 34
0.0
 15
89.1559173337
 25
152.0376329254
 35
0.0
 16
77.3616886996
 26
154.064499941
 36
0.0
  0
DIMENSION
  5
10C
330
1F
100
AcDbEntity
  8
VERMASSUNG
100
AcDbDimension
  2
_D_4
 10
113.3549205197
 20
147.5376329254
 30
0.0
 11
113.3549205197
 21
149.7876329254
 31
0.0
 70
   160
  1
<>
 71
     2
 42
-1.0
  3
SLDDIMSTYLE3
100
AcDbAlignedDimension
 13
98.9578764278
 23
152.0376329254
 33
0.0
 14
90.3616886996
 24
147.5376329254
 34
0.0
 50
90.0
100
AcDbRotatedDimension
  0
INSERT
  5
124
330
1F
100
AcDbEntity
  8
VERMASSUNG
100
AcDbBlockReference
  2
SW_CENTERMARKSYMBOL_0
 10
68.9953998947
 20
125.5376329254
 30
0.0
  0
LINE
  5
125
330
1F
100
AcDbEntity
  8
0
  6
Continuous
 62
     7
370
    25
100
AcDbLine
 10
252.3035542475
 20
136.9537775944
 30
0.0
 11
252.1583126293
 21
137.0376329477
 31
0.0
  0
LINE
  5
126
330
1F
100
AcDbEntity
  8
0
  6
Continuous
 62
     7
370
    25
100
AcDbLine
 10
252.1583126293
 20
133.0376327577
 30
0.0
 11
252.3035542475
 21
133.121488111
 31
0.0
  0
LINE
  5
127
330
1F
100
AcDbEntity
  8
0
  6
Continuous
 62
     7
370
    25
100
AcDbLine
 10
239.1583086358
 20
137.0376329477
 30
0.0
 11
239.0130670177
 21
136.9537775944
 31
0.0
  0
LINE
  5
128
330
1F
100
AcDbEntity
  8
0
  6
Continuous
 62
     7
370
    25
100
AcDbLine
 10
239.0130670177
 20
133.121488111
 30
0.0
 11
239.1583086358
 21
133.0376327577
 31
0.0
  0
LINE
  5
129
330
1F
100
AcDbEntity
  8
0
  6
Continuous
 62
     7
370
    25
100
AcDbLine
 10
239.1583086358
 20
148.6376328002
 30
0.0
 11
239.1583086358
 21
148.0376338194
 31
0.0
  0
LINE
  5
12A
330
1F
100
AcDbEntity
  8
0
  6
Continuous
 62
     7
370
    25
100
AcDbLine
 10
252.1583126293
 20
148.0376338194
 30
0.0
 11
252.1583126293
 21
148.6376328002
 31
0.0
  0
ARC
  5
12B
330
1F
100
AcDbEntity
  8
0
  6
Continuous
 62
     7
370
    25
100
AcDbCircle
 10
250.2583120333
 20
147.4376329254
 30
0.0
 40
0.6000000000000227
100
AcDbArc
 50
90.0
 51
180.0
  0
ARC
  5
12C
330
1F
100
AcDbEntity
  8
0
  6
Continuous
 62
     7
370
    25
100
AcDbCircle
 10
241.0583120333
 20
147.4376329254
 30
0.0
 40
0.6000000000000227
100
AcDbArc
 50
0.0
 51
90.0
  0
LINE
  5
12D
330
1F
100
AcDbEntity
  8
0
  6
Continuous
 62
     7
370
    25
100
AcDbLine
 10
252.3035542475
 20
153.2537778448
 30
0.0
 11
252.1583126293
 21
153.3376322667
 31
0.0
  0
LINE
  5
12E
330
1F
100
AcDbEntity
  8
0
  6
Continuous
 62
     7
370
    25
100
AcDbLine
 10
241.6583137022
 20
147.437632976
 30
0.0
 11
241.6583137022
 21
137.0376329477
 31
0.0
  0
LINE
  5
12F
330
1F
100
AcDbEntity
  8
0
  6
Continuous
 62
     7
370
    25
100
AcDbLine
 10
249.6583150135
 20
137.0376329477
 30
0.0
 11
249.6583150135
 21
147.437632976
 31
0.0
  0
LINE
  5
130
330
1F
100
AcDbEntity
  8
0
  6
Continuous
 62
     7
370
    25
100
AcDbLine
 10
239.1583086358
 20
153.3376322667
 30
0.0
 11
239.0130670177
 21
153.2537778448
 31
0.0
  0
ARC
  5
131
330
1F
100
AcDbEntity
  8
0
  6
Continuous
 62
     7
370
    25
100
AcDbCircle
 10
194.6583120333
 20
99.5376329254
 30
0.0
 40
1.000000000000028
100
AcDbArc
 50
0.0
 51
90.0
  0
LINE
  5
132
330
1F
100
AcDbEntity
  8
0
  6
Continuous
 62
     7
370
    25
100
AcDbLine
 10
174.9583120476
 20
100.5376325528
 30
0.0
 11
194.6583115863
 21
100.5376325528
 31
0.0
  0
LINE
  5
133
330
1F
100
AcDbEntity
  8
0
  6
Continuous
 62
     7
370
    25
100
AcDbLine
 10
194.6583115863
 20
150.5376332979
 30
0.0
 11
174.9583120476
 21
150.5376332979
 31
0.0
  0
ARC
  5
134
330
1F
100
AcDbEntity
  8
0
  6
Continuous
 62
     7
370
    25
100
AcDbCircle
 10
174.9583120333
 20
100.8376329254
 30
0.0
 40
0.3000000000000114
100
AcDbArc
 50
180.0
 51
270.0
  0
ARC
  5
135
330
1F
100
AcDbEntity
  8
0
  6
Continuous
 62
     7
370
    25
100
AcDbCircle
 10
174.9583120333
 20
150.2376329254
 30
0.0
 40
0.3000000000000114
100
AcDbArc
 50
90.0
 51
180.0
  0
LWPOLYLINE
  5
136
330
1F
100
AcDbEntity
  8
0
  6
Continuous
 62
     7
370
    25
100
AcDbPolyline
 90
        3
 70
   128
 43
0.0
 10
174.4583120384
 20
107.6978118698
 10
174.5837669735
 20
107.6295105349
 10
174.6583120333
 20
107.5767734627
  0
LWPOLYLINE
  5
137
330
1F
100
AcDbEntity
  8
0
  6
Continuous
 62
     7
370
    25
100
AcDbPolyline
 90
        3
 70
   128
 43
0.0
 10
174.6583120333
 20
143.498492388
 10
174.5837669735
 20
143.4457553159
 10
174.4583120384
 20
143.3774539809
  0
CIRCLE
  5
138
330
1F
100
AcDbEntity
  8
0
  6
Continuous
 62
     7
370
    25
100
AcDbCircle
 10
245.6583120333
 20
125.5376329254
 30
0.0
 40
2.859999999999999
  0
CIRCLE
  5
139
330
1F
100
AcDbEntity
  8
0
  6
Continuous
 62
     7
370
    25
100
AcDbCircle
 10
245.6583120333
 20
125.5376329254
 30
0.0
 40
2.5
  0
SPLINE
  5
13A
330
1F
100
AcDbEntity
  8
0
  6
Continuous
 62
     7
370
    25
100
AcDbSpline
210
0.0
220
0.0
230
1.0
 70
     8
 71
     3
 72
     9
 73
     5
 74
     0
 42
0.000000001
 43
0.00000001
 40
0.0
 40
0.0
 40
0.0
 40
0.0
 40
0.4954575743311595
 40
1.0
 40
1.0
 40
1.0
 40
1.0
 10
240.0806979643162
 20
136.4570762570199
 30
0.0
 10
240.6603391049895
 20
136.619340771154
 30
0.0
 10
241.8302498515468
 20
136.946845127815
 30
0.0
 10
243.03963697874
 20
137.0071876069295
 30
0.0
 10
243.6498240934666
 20
137.0376329477128
 30
0.0
  0
SPLINE
  5
13B
330
1F
100
AcDbEntity
  8
0
  6
Continuous
 62
     7
370
    25
100
AcDbSpline
210
0.0
220
0.0
230
1.0
 70
     8
 71
     3
 72
    10
 73
     6
 74
     0
 42
0.000000001
 43
0.00000001
 40
0.0
 40
0.0
 40
0.0
 40
0.0
 40
0.0700764835877225
 40
0.5307768333151895
 40
1.0
 40
1.0
 40
1.0
 40
1.0
 10
243.6498240934666
 20
137.0376329477128
 30
0.0
 10
243.7344076926766
 20
137.0369401605422
 30
0.0
 10
244.3750650521868
 20
137.0316928170436
 30
0.0
 10
245.5830050044919
 20
136.9048996760863
 30
0.0
 10
246.6703133962963
 20
136.6072600264191
 30
0.0
 10
247.218950222617
 20
136.4570762570199
 30
0.0
  0
LINE
  5
13C
330
1F
100
AcDbEntity
  8
0
  6
Continuous
 62
     7
370
    25
100
AcDbLine
 10
247.2189502226
 20
136.457076257
 30
0.0
 11
247.2189502226
 21
133.6181899141
 31
0.0
  0
SPLINE
  5
13D
330
1F
100
AcDbEntity
  8
0
  6
Continuous
 62
     7
370
    25
100
AcDbSpline
210
0.0
220
0.0
230
1.0
 70
     8
 71
     3
 72
    10
 73
     6
 74
     0
 42
0.000000001
 43
0.00000001
 40
0.0
 40
0.0
 40
0.0
 40
0.0
 40
0.0700764849345762
 40
0.5307768339947884
 40
1.0
 40
1.0
 40
1.0
 40
1.0
 10
243.6498240934666
 20
133.037632757723
 30
0.0
 10
243.7344076925472
 20
133.0383257115794
 30
0.0
 10
244.3750650395841
 20
133.043574317504
 30
0.0
 10
245.5830050087737
 20
133.1703661148281
 30
0.0
 10
246.6703133977323
 20
133.4680060171784
 30
0.0
 10
247.218950222617
 20
133.6181899140772
 30
0.0
  0
SPLINE
  5
13E
330
1F
100
AcDbEntity
  8
0
  6
Continuous
 62
     7
370
    25
100
AcDbSpline
210
0.0
220
0.0
230
1.0
 70
     8
 71
     3
 72
     9
 73
     5
 74
     0
 42
0.000000001
 43
0.00000001
 40
0.0
 40
0.0
 40
0.0
 40
0.0
 40
0.4954575693037178
 40
0.9999999999999999
 40
0.9999999999999999
 40
0.9999999999999999
 40
0.9999999999999999
 10
240.0806979643162
 20
133.6181899140772
 30
0.0
 10
240.6603391079912
 20
133.4559254376652
 30
0.0
 10
241.8302498724781
 20
133.128421153817
 30
0.0
 10
243.039636981718
 20
133.0680782919331
 30
0.0
 10
243.6498240934666
 20
133.037632757723
 30
0.0
  0
LINE
  5
13F
330
1F
100
AcDbEntity
  8
0
  6
Continuous
 62
     7
370
    25
100
AcDbLine
 10
240.0806979643
 20
136.457076257
 30
0.0
 11
240.0806979643
 21
133.6181899141
 31
0.0
  0
LINE
  5
140
330
1F
100
AcDbEntity
  8
0
  6
Continuous
 62
     7
370
    25
100
AcDbLine
 10
243.6498240935
 20
137.0376329477
 30
0.0
 11
250.0077546941
 21
137.0376329477
 31
0.0
  0
SPLINE
  5
141
330
1F
100
AcDbEntity
  8
0
  6
Continuous
 62
     7
370
    25
100
AcDbSpline
210
0.0
220
0.0
230
1.0
 70
     8
 71
     3
 72
     9
 73
     5
 74
     0
 42
0.000000001
 43
0.00000001
 40
0.0
 40
0.0
 40
0.0
 40
0.0
 40
0.4954587007610271
 40
1.0
 40
1.0
 40
1.0
 40
1.0
 10
247.218950222617
 20
136.4570762570199
 30
0.0
 10
247.6718655502159
 20
136.6193407626303
 30
0.0
 10
248.5859989116913
 20
136.9468443575036
 30
0.0
 10
249.5309751533788
 20
137.0071873937866
 30
0.0
 10
250.0077546941098
 20
137.0376329477128
 30
0.0
  0
SPLINE
  5
142
330
1F
100
AcDbEntity
  8
0
  6
Continuous
 62
     7
370
    25
100
AcDbSpline
210
0.0
220
0.0
230
1.0
 70
     8
 71
     3
 72
     9
 73
     5
 74
     0
 42
0.000000001
 43
0.00000001
 40
0.0
 40
0.0
 40
0.0
 40
0.0
 40
0.4954586957335538
 40
1.0
 40
1.0
 40
1.0
 40
1.0
 10
247.218950222617
 20
133.6181899140772
 30
0.0
 10
247.6718655525614
 20
133.4559254461891
 30
0.0
 10
248.5859989280465
 20
133.128421924129
 30
0.0
 10
249.5309751557058
 20
133.0680785050759
 30
0.0
 10
250.0077546941098
 20
133.037632757723
 30
0.0
  0
SPLINE
  5
143
330
1F
100
AcDbEntity
  8
0
  6
Continuous
 62
     7
370
    25
100
AcDbSpline
210
0.0
220
0.0
230
1.0
 70
     8
 71
     3
 72
    10
 73
     6
 74
     0
 42
0.000000001
 43
0.00000001
 40
0.0
 40
0.0
 40
0.0
 40
0.0
 40
0.0700774998090681
 40
0.5307771062547615
 40
1.0
 40
1.0
 40
1.0
 40
1.0
 10
250.0077546941098
 20
137.0376329477128
 30
0.0
 10
250.0738465649424
 20
137.0369401730255
 30
0.0
 10
250.5744359416052
 20
137.0316929974727
 30
0.0
 10
251.5182843083419
 20
136.9048994608257
 30
0.0
 10
252.3678768416193
 20
136.607260005247
 30
0.0
 10
252.7965666161832
 20
136.4570762570199
 30
0.0
  0
LINE
  5
144
330
1F
100
AcDbEntity
  8
0
  6
Continuous
 62
     7
370
    25
100
AcDbLine
 10
252.7965666162
 20
136.457076257
 30
0.0
 11
252.7965666162
 21
133.6181899141
 31
0.0
  0
SPLINE
  5
145
330
1F
100
AcDbEntity
  8
0
  6
Continuous
 62
     7
370
    25
100
AcDbSpline
210
0.0
220
0.0
230
1.0
 70
     8
 71
     3
 72
    10
 73
     6
 74
     0
 42
0.000000001
 43
0.00000001
 40
0.0
 40
0.0
 40
0.0
 40
0.0
 40
0.0700775011558975
 40
0.5307771069343484
 40
1.0
 40
1.0
 40
1.0
 40
1.0
 10
250.0077546941098
 20
133.037632757723
 30
0.0
 10
250.0738465648413
 20
133.0383256990962
 30
0.0
 10
250.5744359317582
 20
133.0435741370585
 30
0.0
 10
251.5182843116876
 20
133.1703663300952
 30
0.0
 10
252.3678768427413
 20
133.4680060383527
 30
0.0
 10
252.7965666161832
 20
133.6181899140772
 30
0.0
  0
SPLINE
  5
146
330
1F
100
AcDbEntity
  8
0
  6
Continuous
 62
     7
370
    25
100
AcDbSpline
210
0.0
220
0.0
230
1.0
 70
     8
 71
     3
 72
    10
 73
     6
 74
     0
 42
0.000000001
 43
0.00000001
 40
0.0
 40
0.0
 40
0.0
 40
0.0
 40
0.2684068813862048
 40
0.632372609780257
 40
1.0
 40
1.0
 40
1.0
 40
1.0
 10
239.3003763066586
 20
137.0376329477128
 30
0.0
 10
239.3712409132454
 20
137.0282002884275
 30
0.0
 10
239.5381995097498
 20
137.0059767323899
 30
0.0
 10
239.800135245008
 20
136.8150982490467
 30
0.0
 10
239.9868655262719
 20
136.5768144619682
 30
0.0
 10
240.0806979643162
 20
136.4570762570199
 30
0.0
  0
LINE
  5
147
330
1F
100
AcDbEntity
  8
0
  6
Continuous
 62
     7
370
    25
100
AcDbLine
 10
239.3003763067
 20
137.0376329477
 30
0.0
 11
243.6498240935
 21
137.0376329477
 31
0.0
  0
SPLINE
  5
148
330
1F
100
AcDbEntity
  8
0
  6
Continuous
 62
     7
370
    25
100
AcDbSpline
210
0.0
220
0.0
230
1.0
 70
     8
 71
     3
 72
    10
 73
     6
 74
     0
 42
0.000000001
 43
0.00000001
 40
0.0
 40
0.0
 40
0.0
 40
0.0
 40
0.268406876647042
 40
0.6323726162713202
 40
1.0
 40
1.0
 40
1.0
 40
1.0
 10
239.3003763066586
 20
133.037632757723
 30
0.0
 10
239.3712409142126
 20
133.0470653852047
 30
0.0
 10
239.5381995176573
 20
133.069288866933
 30
0.0
 10
239.8001352356169
 20
133.2601680770003
 30
0.0
 10
239.9868655246383
 20
133.4984517628742
 30
0.0
 10
240.0806979643162
 20
133.6181899140772
 30
0.0
  0
SPLINE
  5
149
330
1F
100
AcDbEntity
  8
0
  6
Continuous
 62
     7
370
    25
100
AcDbSpline
210
0.0
220
0.0
230
1.0
 70
     8
 71
     3
 72
    10
 73
     6
 74
     0
 42
0.000000001
 43
0.00000001
 40
0.0
 40
0.0
 40
0.0
 40
0.0
 40
0.257242773981146
 40
0.6263800387679616
 40
1.0
 40
1.0
 40
1.0
 40
1.0
 10
238.5200620995816
 20
136.4570762570199
 30
0.0
 10
238.5855875943281
 20
136.5426291030191
 30
0.0
 10
238.7451406161853
 20
136.7509482490318
 30
0.0
 10
239.0055720521542
 20
136.9841286311607
 30
0.0
 10
239.2017136365532
 20
137.0197265618566
 30
0.0
 10
239.3003763066586
 20
137.0376329477128
 30
0.0
  0
SPLINE
  5
14A
330
1F
100
AcDbEntity
  8
0
  6
Continuous
 62
     7
370
    25
100
AcDbSpline
210
0.0
220
0.0
230
1.0
 70
     8
 71
     3
 72
    10
 73
     6
 74
     0
 42
0.000000001
 43
0.00000001
 40
0.0
 40
0.0
 40
0.0
 40
0.0
 40
0.2572428251147006
 40
0.6263800537337337
 40
1.0
 40
1.0
 40
1.0
 40
1.0
 10
238.5200620995816
 20
133.6181899140772
 30
0.0
 10
238.5855875896966
 20
133.5326366627245
 30
0.0
 10
238.7451405723729
 20
133.3243165661173
 30
0.0
 10
239.0055720690936
 20
133.0911373324296
 30
0.0
 10
239.2017136403327
 20
133.0555392303191
 30
0.0
 10
239.3003763066586
 20
133.037632757723
 30
0.0
  0
LINE
  5
14B
330
1F
100
AcDbEntity
  8
0
  6
Continuous
 62
     7
370
    25
100
AcDbLine
 10
238.5200620996
 20
136.457076257
 30
0.0
 11
238.5200620996
 21
133.6181899141
 31
0.0
  0
SPLINE
  5
14C
330
1F
100
AcDbEntity
  8
0
  6
Continuous
 62
     7
370
    25
100
AcDbSpline
210
0.0
220
0.0
230
1.0
 70
     8
 71
     3
 72
     9
 73
     5
 74
     0
 42
0.000000001
 43
0.00000001
 40
0.0
 40
0.0
 40
0.0
 40
0.0
 40
0.4246087141146044
 40
1.0
 40
1.0
 40
1.0
 40
1.0
 10
252.3012296663579
 20
136.9406133498248
 30
0.0
 10
252.3723772712759
 20
136.8977680772791
 30
0.0
 10
252.5399376687736
 20
136.7968627705309
 30
0.0
 10
252.7028362132233
 20
136.5811788851652
 30
0.0
 10
252.7965666161832
 20
136.4570762570199
 30
0.0
  0
LINE
  5
14D
330
1F
100
AcDbEntity
  8
0
  6
Continuous
 62
     7
370
    25
100
AcDbLine
 10
252.1583126293
 20
137.0376329477
 30
0.0
 11
250.0077546941
 21
137.0376329477
 31
0.0
  0
SPLINE
  5
14E
330
1F
100
AcDbEntity
  8
0
  6
Continuous
 62
     7
370
    25
100
AcDbSpline
210
0.0
220
0.0
230
1.0
 70
     8
 71
     3
 72
     9
 73
     5
 74
     0
 42
0.000000001
 43
0.00000001
 40
0.0
 40
0.0
 40
0.0
 40
0.0
 40
0.4246087459168256
 40
1.0
 40
1.0
 40
1.0
 40
1.0
 10
252.3012296663579
 20
133.1346518899497
 30
0.0
 10
252.3723772693749
 20
133.177497536055
 30
0.0
 10
252.5399376498456
 20
133.2784037150194
 30
0.0
 10
252.7028362095986
 20
133.4940874051358
 30
0.0
 10
252.7965666161832
 20
133.6181899140772
 30
0.0
  0
LINE
  5
14F
330
1F
100
AcDbEntity
  8
0
  6
Continuous
 62
     7
370
    25
100
AcDbLine
 10
239.1583086358
 20
137.0376329477
 30
0.0
 11
239.3003763067
 21
137.0376329477
 31
0.0
  0
LINE
  5
150
330
1F
100
AcDbEntity
  8
0
  6
Continuous
 62
     7
370
    25
100
AcDbLine
 10
243.6498240935
 20
148.6376328002
 30
0.0
 11
240.0806979643
 21
148.6376328002
 31
0.0
  0
LINE
  5
151
330
1F
100
AcDbEntity
  8
0
  6
Continuous
 62
     7
370
    25
100
AcDbLine
 10
240.0806979643
 20
148.6376328002
 30
0.0
 11
240.0806979643
 21
152.757075576
 31
0.0
  0
SPLINE
  5
152
330
1F
100
AcDbEntity
  8
0
  6
Continuous
 62
     7
370
    25
100
AcDbSpline
210
0.0
220
0.0
230
1.0
 70
     8
 71
     3
 72
     9
 73
     5
 74
     0
 42
0.000000001
 43
0.00000001
 40
0.0
 40
0.0
 40
0.0
 40
0.0
 40
0.4954575743311595
 40
1.0
 40
1.0
 40
1.0
 40
1.0
 10
240.0806979643162
 20
152.7570755760368
 30
0.0
 10
240.6603391049895
 20
152.9193400901709
 30
0.0
 10
241.8302498515468
 20
153.2468444468319
 30
0.0
 10
243.03963697874
 20
153.3071869259464
 30
0.0
 10
243.6498240934666
 20
153.3376322667297
 30
0.0
  0
SPLINE
  5
153
330
1F
100
AcDbEntity
  8
0
  6
Continuous
 62
     7
370
    25
100
AcDbSpline
210
0.0
220
0.0
230
1.0
 70
     8
 71
     3
 72
    10
 73
     6
 74
     0
 42
0.000000001
 43
0.00000001
 40
0.0
 40
0.0
 40
0.0
 40
0.0
 40
0.0700764770114655
 40
0.5307768025443786
 40
1.0
 40
1.0
 40
1.0
 40
1.0
 10
243.6498240934666
 20
153.3376322667297
 30
0.0
 10
243.7344076927591
 20
153.3369398121348
 30
0.0
 10
244.3750650758748
 20
153.3316949874593
 30
0.0
 10
245.5830051160042
 20
153.2048993989546
 30
0.0
 10
246.6703134123595
 20
152.9072594867132
 30
0.0
 10
247.218950222617
 20
152.7570755760368
 30
0.0
  0
LINE
  5
154
330
1F
100
AcDbEntity
  8
0
  6
Continuous
 62
     7
370
    25
100
AcDbLine
 10
247.2189502226
 20
148.6376328002
 30
0.0
 11
247.2189502226
 21
152.757075576
 31
0.0
  0
LINE
  5
155
330
1F
100
AcDbEntity
  8
0
  6
Continuous
 62
     7
370
    25
100
AcDbLine
 10
247.2189502226
 20
148.6376328002
 30
0.0
 11
243.6498240935
 21
148.6376328002
 31
0.0
  0
LINE
  5
156
330
1F
100
AcDbEntity
  8
0
  6
Continuous
 62
     7
370
    25
100
AcDbLine
 10
250.0077546941
 20
153.3376322667
 30
0.0
 11
243.6498240935
 21
153.3376322667
 31
0.0
  0
SPLINE
  5
157
330
1F
100
AcDbEntity
  8
0
  6
Continuous
 62
     7
370
    25
100
AcDbSpline
210
0.0
220
0.0
230
1.0
 70
     8
 71
     3
 72
     9
 73
     5
 74
     0
 42
0.000000001
 43
0.00000001
 40
0.0
 40
0.0
 40
0.0
 40
0.0
 40
0.4954587007610271
 40
1.0
 40
1.0
 40
1.0
 40
1.0
 10
247.218950222617
 20
152.7570755760368
 30
0.0
 10
247.6718655502159
 20
152.9193400816473
 30
0.0
 10
248.5859989116913
 20
153.2468436765205
 30
0.0
 10
249.5309751533788
 20
153.3071867128035
 30
0.0
 10
250.0077546941098
 20
153.3376322667297
 30
0.0
  0
LINE
  5
158
330
1F
100
AcDbEntity
  8
0
  6
Continuous
 62
     7
370
    25
100
AcDbLine
 10
252.1583126293
 20
148.0376338194
 30
0.0
 11
239.1583086358
 21
148.0376338194
 31
0.0
  0
SPLINE
  5
159
330
1F
100
AcDbEntity
  8
0
  6
Continuous
 62
     7
370
    25
100
AcDbSpline
210
0.0
220
0.0
230
1.0
 70
     8
 71
     3
 72
    10
 73
     6
 74
     0
 42
0.000000001
 43
0.00000001
 40
0.0
 40
0.0
 40
0.0
 40
0.0
 40
0.0700774932328106
 40
0.5307770754840139
 40
1.0
 40
1.0
 40
1.0
 40
1.0
 10
250.0077546941098
 20
153.3376322667297
 30
0.0
 10
250.0738465650069
 20
153.3369398246184
 30
0.0
 10
250.5744359601136
 20
153.3316951678557
 30
0.0
 10
251.5182843954746
 20
153.2048991837069
 30
0.0
 10
252.3678768541706
 20
152.9072594655454
 30
0.0
 10
252.7965666161832
 20
152.7570755760368
 30
0.0
  0
LINE
  5
15A
330
1F
100
AcDbEntity
  8
0
  6
Continuous
 62
     7
370
    25
100
AcDbLine
 10
252.7965666162
 20
148.6376328002
 30
0.0
 11
252.7965666162
 21
152.757075576
 31
0.0
  0
LINE
  5
15B
330
1F
100
AcDbEntity
  8
0
  6
Continuous
 62
     7
370
    25
100
AcDbLine
 10
252.7965666162
 20
148.6376328002
 30
0.0
 11
250.0077546941
 21
148.6376328002
 31
0.0
  0
LINE
  5
15C
330
1F
100
AcDbEntity
  8
0
  6
Continuous
 62
     7
370
    25
100
AcDbLine
 10
250.0077546941
 20
148.6376328002
 30
0.0
 11
247.2189502226
 21
148.6376328002
 31
0.0
  0
SPLINE
  5
15D
330
1F
100
AcDbEntity
  8
0
  6
Continuous
 62
     7
370
    25
100
AcDbSpline
210
0.0
220
0.0
230
1.0
 70
     8
 71
     3
 72
    10
 73
     6
 74
     0
 42
0.000000001
 43
0.00000001
 40
0.0
 40
0.0
 40
0.0
 40
0.0
 40
0.2416193839345407
 40
0.6187314862730012
 40
1.0
 40
1.0
 40
1.0
 40
1.0
 10
239.3003763066586
 20
153.3376322667297
 30
0.0
 10
239.3641636862591
 20
153.3299250600854
 30
0.0
 10
239.5275084458679
 20
153.3101886823808
 30
0.0
 10
239.7897555479165
 20
153.1273376662271
 30
0.0
 10
239.9833634604053
 20
152.8809464000702
 30
0.0
 10
240.0806979643162
 20
152.7570755760368
 30
0.0
  0
LINE
  5
15E
330
1F
100
AcDbEntity
  8
0
  6
Continuous
 62
     7
370
    25
100
AcDbLine
 10
239.3003763067
 20
153.3376322667
 30
0.0
 11
243.6498240935
 21
153.3376322667
 31
0.0
  0
LINE
  5
15F
330
1F
100
AcDbEntity
  8
0
  6
Continuous
 62
     7
370
    25
100
AcDbLine
 10
239.3003763067
 20
148.6376328002
 30
0.0
 11
238.5200620996
 21
148.6376328002
 31
0.0
  0
LINE
  5
160
330
1F
100
AcDbEntity
  8
0
  6
Continuous
 62
     7
370
    25
100
AcDbLine
 10
238.5200620996
 20
148.6376328002
 30
0.0
 11
238.5200620996
 21
152.757075576
 31
0.0
  0
SPLINE
  5
161
330
1F
100
AcDbEntity
  8
0
  6
Continuous
 62
     7
370
    25
100
AcDbSpline
210
0.0
220
0.0
230
1.0
 70
     8
 71
     3
 72
    10
 73
     6
 74
     0
 42
0.000000001
 43
0.00000001
 40
0.0
 40
0.0
 40
0.0
 40
0.0
 40
0.2234125407503789
 40
0.609201195733386
 40
1.0
 40
1.0
 40
1.0
 40
1.0
 10
238.5200620995816
 20
152.7570755760368
 30
0.0
 10
238.5769360838073
 20
152.831873877275
 30
0.0
 10
238.7320200333478
 20
153.0358338447867
 30
0.0
 10
238.9920918390431
 20
153.279171809875
 30
0.0
 10
239.1971737891344
 20
153.318061814901
 30
0.0
 10
239.3003763066586
 20
153.3376322667297
 30
0.0
  0
LINE
  5
162
330
1F
100
AcDbEntity
  8
0
  6
Continuous
 62
     7
370
    25
100
AcDbLine
 10
240.0806979643
 20
148.6376328002
 30
0.0
 11
239.3003763067
 21
148.6376328002
 31
0.0
  0
SPLINE
  5
163
330
1F
100
AcDbEntity
  8
0
  6
Continuous
 62
     7
370
    25
100
AcDbSpline
210
0.0
220
0.0
230
1.0
 70
     8
 71
     3
 72
     9
 73
     5
 74
     0
 42
0.000000001
 43
0.00000001
 40
0.0
 40
0.0
 40
0.0
 40
0.0
 40
0.5908598601243998
 40
1.0
 40
1.0
 40
1.0
 40
1.0
 10
252.7965666161832
 20
152.7570755760368
 30
0.0
 10
252.7003358316374
 20
152.8848998762251
 30
0.0
 10
252.5374701657832
 20
153.1012359464421
 30
0.0
 10
252.3698161877858
 20
153.1975674329404
 30
0.0
 10
252.3012222157773
 20
153.2369805108007
 30
0.0
  0
LINE
  5
164
330
1F
100
AcDbEntity
  8
0
  6
Continuous
 62
     7
370
    25
100
AcDbLine
 10
252.1583126293
 20
153.3376322667
 30
0.0
 11
250.0077546941
 21
153.3376322667
 31
0.0
  0
LINE
  5
165
330
1F
100
AcDbEntity
  8
0
  6
Continuous
 62
     7
370
    25
100
AcDbLine
 10
239.3003763067
 20
153.3376322667
 30
0.0
 11
239.1583086358
 21
153.3376322667
 31
0.0
  0
CIRCLE
  5
166
330
1F
100
AcDbEntity
  8
0
  6
Continuous
 62
     7
370
    25
100
AcDbCircle
 10
232.6583120333
 20
142.5376329254
 30
0.0
 40
4.999999999999972
  0
LINE
  5
167
330
1F
100
AcDbEntity
  8
0
  6
Continuous
 62
     7
370
    25
100
AcDbLine
 10
235.5935597228
 20
142.5376338492
 30
0.0
 11
234.1259369062
 21
145.0796322505
 31
0.0
  0
LINE
  5
168
330
1F
100
AcDbEntity
  8
0
  6
Continuous
 62
     7
370
    25
100
AcDbLine
 10
234.1259369062
 20
145.0796322505
 30
0.0
 11
231.1906875478
 21
145.0796322505
 31
0.0
  0
LINE
  5
169
330
1F
100
AcDbEntity
  8
0
  6
Continuous
 62
     7
370
    25
100
AcDbLine
 10
229.7230647312
 20
142.5376338492
 30
0.0
 11
231.1906875478
 21
145.0796322505
 31
0.0
  0
LINE
  5
16A
330
1F
100
AcDbEntity
  8
0
  6
Continuous
 62
     7
370
    25
100
AcDbLine
 10
231.1906875478
 20
139.995632654
 30
0.0
 11
229.7230647312
 21
142.5376338492
 31
0.0
  0
LINE
  5
16B
330
1F
100
AcDbEntity
  8
0
  6
Continuous
 62
     7
370
    25
100
AcDbLine
 10
231.1906875478
 20
139.995632654
 30
0.0
 11
234.1259369062
 21
139.995632654
 31
0.0
  0
LINE
  5
16C
330
1F
100
AcDbEntity
  8
0
  6
Continuous
 62
     7
370
    25
100
AcDbLine
 10
235.5935597228
 20
142.5376338492
 30
0.0
 11
234.1259369062
 21
139.995632654
 31
0.0
  0
ARC
  5
16D
330
1F
100
AcDbEntity
  8
0
  6
Continuous
 62
     7
370
    25
100
AcDbCircle
 10
232.6583120333
 20
142.5376329254
 30
0.0
 40
2.542000000000002
100
AcDbArc
 50
90.0
 51
150.0
  0
ARC
  5
16E
330
1F
100
AcDbEntity
  8
0
  6
Continuous
 62
     7
370
    25
100
AcDbCircle
 10
232.6583120333
 20
142.5376329254
 30
0.0
 40
2.542000000000002
100
AcDbArc
 50
210.0
 51
270.0
  0
ARC
  5
16F
330
1F
100
AcDbEntity
  8
0
  6
Continuous
 62
     7
370
    25
100
AcDbCircle
 10
232.6583120333
 20
142.5376329254
 30
0.0
 40
2.541999999999987
100
AcDbArc
 50
150.0
 51
210.0
  0
ARC
  5
170
330
1F
100
AcDbEntity
  8
0
  6
Continuous
 62
     7
370
    25
100
AcDbCircle
 10
232.6583120333
 20
142.5376329254
 30
0.0
 40
2.542000000000012
100
AcDbArc
 50
30.0
 51
90.0
  0
ARC
  5
171
330
1F
100
AcDbEntity
  8
0
  6
Continuous
 62
     7
370
    25
100
AcDbCircle
 10
232.6583120333
 20
142.5376329254
 30
0.0
 40
2.542000000000012
100
AcDbArc
 50
330.0
 51
30.0
  0
ARC
  5
172
330
1F
100
AcDbEntity
  8
0
  6
Continuous
 62
     7
370
    25
100
AcDbCircle
 10
232.6583120333
 20
142.5376329254
 30
0.0
 40
2.542000000000012
100
AcDbArc
 50
270.0
 51
330.0
  0
CIRCLE
  5
173
330
1F
100
AcDbEntity
  8
0
  6
Continuous
 62
     7
370
    25
100
AcDbCircle
 10
258.6583120333
 20
142.5376329254
 30
0.0
 40
4.999999999999972
  0
LINE
  5
174
330
1F
100
AcDbEntity
  8
0
  6
Continuous
 62
     7
370
    25
100
AcDbLine
 10
261.5935639845
 20
142.5376338492
 30
0.0
 11
260.1259337174
 21
145.0796322505
 31
0.0
  0
LINE
  5
175
330
1F
100
AcDbEntity
  8
0
  6
Continuous
 62
     7
370
    25
100
AcDbLine
 10
260.1259337174
 20
145.0796322505
 30
0.0
 11
257.1906880843
 21
145.0796322505
 31
0.0
  0
LINE
  5
176
330
1F
100
AcDbEntity
  8
0
  6
Continuous
 62
     7
370
    25
100
AcDbLine
 10
255.7230652677
 20
142.5376338492
 30
0.0
 11
257.1906880843
 21
145.0796322505
 31
0.0
  0
LINE
  5
177
330
1F
100
AcDbEntity
  8
0
  6
Continuous
 62
     7
370
    25
100
AcDbLine
 10
257.1906880843
 20
139.995632654
 30
0.0
 11
255.7230652677
 21
142.5376338492
 31
0.0
  0
LINE
  5
178
330
1F
100
AcDbEntity
  8
0
  6
Continuous
 62
     7
370
    25
100
AcDbLine
 10
257.1906880843
 20
139.995632654
 30
0.0
 11
260.1259337174
 21
139.995632654
 31
0.0
  0
LINE
  5
179
330
1F
100
AcDbEntity
  8
0
  6
Continuous
 62
     7
370
    25
100
AcDbLine
 10
261.5935639845
 20
142.5376338492
 30
0.0
 11
260.1259337174
 21
139.995632654
 31
0.0
  0
ARC
  5
17A
330
1F
100
AcDbEntity
  8
0
  6
Continuous
 62
     7
370
    25
100
AcDbCircle
 10
258.6583120333
 20
142.5376329254
 30
0.0
 40
2.542000000000012
100
AcDbArc
 50
210.0
 51
270.0
  0
ARC
  5
17B
330
1F
100
AcDbEntity
  8
0
  6
Continuous
 62
     7
370
    25
100
AcDbCircle
 10
258.6583120333
 20
142.5376329254
 30
0.0
 40
2.542000000000012
100
AcDbArc
 50
150.0
 51
210.0
  0
ARC
  5
17C
330
1F
100
AcDbEntity
  8
0
  6
Continuous
 62
     7
370
    25
100
AcDbCircle
 10
258.6583120333
 20
142.5376329254
 30
0.0
 40
2.542000000000002
100
AcDbArc
 50
90.0
 51
150.0
  0
ARC
  5
17D
330
1F
100
AcDbEntity
  8
0
  6
Continuous
 62
     7
370
    25
100
AcDbCircle
 10
258.6583120333
 20
142.5376329254
 30
0.0
 40
2.542000000000012
100
AcDbArc
 50
30.0
 51
90.0
  0
ARC
  5
17E
330
1F
100
AcDbEntity
  8
0
  6
Continuous
 62
     7
370
    25
100
AcDbCircle
 10
258.6583120333
 20
142.5376329254
 30
0.0
 40
2.542000000000012
100
AcDbArc
 50
330.0
 51
30.0
  0
ARC
  5
17F
330
1F
100
AcDbEntity
  8
0
  6
Continuous
 62
     7
370
    25
100
AcDbCircle
 10
258.6583120333
 20
142.5376329254
 30
0.0
 40
2.542000000000012
100
AcDbArc
 50
270.0
 51
330.0
  0
SPLINE
  5
180
330
1F
100
AcDbEntity
  8
0
  6
Continuous
 62
     7
370
    25
100
AcDbSpline
210
0.0
220
0.0
230
1.0
 70
     8
 71
     3
 72
    20
 73
    16
 74
     0
 42
0.000000001
 43
0.00000001
 40
0.0
 40
0.0
 40
0.0
 40
0.0
 40
0.25
 40
0.25
 40
0.375
 40
0.375
 40
0.5
 40
0.5
 40
0.625
 40
0.625
 40
0.75
 40
0.75
 40
0.875
 40
0.875
 40
1.0
 40
1.0
 40
1.0
 40
1.0
 10
206.7715606873531
 20
138.0376329253611
 30
0.0
 10
207.1995035223379
 20
137.2964141924323
 30
0.0
 10
207.7173617092952
 20
136.6160362890309
 30
0.0
 10
208.6312784813493
 20
135.6932385344204
 30
0.0
 10
208.9614566921003
 20
135.4005702286278
 30
0.0
 10
209.6510042933894
 20
134.8661893281869
 30
0.0
 10
210.0117011776795
 20
134.6226204888851
 30
0.0
 10
210.764603255957
 20
134.1828487791821
 30
0.0
 10
211.1568024799724
 20
133.9866352957605
 30
0.0
 10
211.9739787507886
 20
133.6440362679597
 30
0.0
 10
212.3916334116562
 20
133.5008805043535
 30
0.0
 10
213.2382192291243
 20
133.2713394647689
 30
0.0
 10
213.6681617866428
 20
133.1845311241724
 30
0.0
 10
214.541475203623
 20
133.0676087363942
 30
0.0
 10
214.9867090632771
 20
133.0376329253611
 30
0.0
 10
215.4318147251975
 20
133.0376329253611
 30
0.0
  0
LINE
  5
181
330
1F
100
AcDbEntity
  8
0
  6
Continuous
 62
     7
370
    25
100
AcDbLine
 10
215.4318155156
 20
133.0376327577
 30
0.0
 11
269.6583108412
 21
133.0376327577
 31
0.0
  0
LINE
  5
182
330
1F
100
AcDbEntity
  8
0
  6
Continuous
 62
     7
370
    25
100
AcDbLine
 10
269.6583108412
 20
112.5376326571
 30
0.0
 11
269.6583108412
 21
133.0376327577
 31
0.0
  0
LWPOLYLINE
  5
183
330
1F
100
AcDbEntity
  8
0
  6
Continuous
 62
     7
370
    25
100
AcDbPolyline
 90
       15
 70
   128
 43
0.0
 10
196.6583119141
 20
99.6657637487
 10
201.3113261567
 20
100.4862142335
 10
206.0648375558
 20
101.3243877868
 10
210.9154933499
 20
102.1796883623
 10
215.8598513709
 20
103.0515124629
 10
220.8944210218
 20
103.9392435531
 10
226.0156371998
 20
104.8422520588
 10
231.2198789226
 20
105.7599009554
 10
236.5034656035
 20
106.6915383171
 10
241.8626607763
 20
107.6365084927
 10
247.2936646448
 20
108.5941427927
 10
252.7926476108
 20
109.5637613516
 10
258.3557130204
 20
110.5446796472
 10
263.9789269673
 20
111.5362038444
 10
269.6583108412
 20
112.5376326571
  0
LINE
  5
184
330
1F
100
AcDbEntity
  8
0
  6
Continuous
 62
     7
370
    25
100
AcDbLine
 10
201.2867336528
 20
147.5376328062
 30
0.0
 11
196.6583119141
 21
147.5376328062
 31
0.0
  0
LWPOLYLINE
  5
185
330
1F
100
AcDbEntity
  8
0
  6
Continuous
 62
     7
370
    25
100
AcDbPolyline
 90
        5
 70
   128
 43
0.0
 10
201.2867336528
 20
147.5376328062
 10
202.5891398447
 20
145.2818000297
 10
203.9413866954
 20
142.9396392386
 10
205.3375621693
 20
140.521392187
 10
206.7715623783
 20
138.0376331116
  0
SPLINE
  5
186
330
1F
100
AcDbEntity
  8
0
  6
Continuous
 62
     7
370
    25
100
AcDbSpline
210
0.0
220
0.0
230
1.0
 70
    11
 71
     3
 72
    68
 73
    64
 74
     0
 42
0.000000001
 43
0.00000001
 40
0.0
 40
0.0
 40
0.0
 40
0.0
 40
0.03125
 40
0.03125
 40
0.0625
 40
0.0625
 40
0.09375
 40
0.09375
 40
0.125
 40
0.125
 40
0.15625
 40
0.15625
 40
0.1875
 40
0.1875
 40
0.21875
 40
0.21875
 40
0.25
 40
0.25
 40
0.28125
 40
0.28125
 40
0.3125
 40
0.3125
 40
0.34375
 40
0.34375
 40
0.375
 40
0.375
 40
0.40625
 40
0.40625
 40
0.4375
 40
0.4375
 40
0.46875
 40
0.46875
 40
0.5
 40
0.5
 40
0.53125
 40
0.53125
 40
0.5625
 40
0.5625
 40
0.59375
 40
0.59375
 40
0.625
 40
0.625
 40
0.65625
 40
0.65625
 40
0.6875
 40
0.6875
 40
0.71875
 40
0.71875
 40
0.75
 40
0.75
 40
0.78125
 40
0.78125
 40
0.8125
 40
0.8125
 40
0.84375
 40
0.84375
 40
0.875
 40
0.875
 40
0.90625
 40
0.90625
 40
0.9375
 40
0.9375
 40
1.0
 40
1.0
 40
1.0
 40
1.0
 10
242.6583120333012
 20
125.537632925361
 30
0.0
 10
242.6583120333012
 20
125.7359019288219
 30
0.0
 10
242.6777738904762
 20
125.9308438466179
 30
0.0
 10
242.7540163842163
 20
126.314349882905
 30
0.0
 10
242.811727205775
 20
126.5049058363805
 30
0.0
 10
242.9623313381694
 20
126.8681779851659
 30
0.0
 10
243.0544821023652
 20
127.0404623149544
 30
0.0
 10
243.2721837731877
 20
127.3665173967675
 30
0.0
 10
243.3988531465368
 20
127.5208414695657
 30
0.0
 10
243.6755406787886
 20
127.7974754744139
 30
0.0
 10
243.8265250330415
 20
127.9216340462947
 30
0.0
 10
244.1544300318159
 20
128.1409469449411
 30
0.0
 10
244.3289451839779
 20
128.2341034917211
 30
0.0
 10
244.6898979366808
 20
128.3837432311631
 30
0.0
 10
244.8790007258453
 20
128.441364179833
 30
0.0
 10
245.2662765096852
 20
128.5184531917221
 30
0.0
 10
245.4609702054211
 20
128.5375268460787
 30
0.0
 10
245.8524153302068
 20
128.5377381306364
 30
0.0
 10
246.0512258441115
 20
128.5182542233129
 30
0.0
 10
246.4360354784729
 20
128.4417043479263
 30
0.0
 10
246.6230748550101
 20
128.3850651533791
 30
0.0
 10
246.9863676597055
 20
128.2348362637254
 30
0.0
 10
247.1619775847887
 20
128.1409356517431
 30
0.0
 10
247.4870210992376
 20
127.9238471504633
 30
0.0
 10
247.6385444208876
 20
127.7999094156988
 30
0.0
 10
247.9187301116346
 20
127.5199864101677
 30
0.0
 10
248.0429584750017
 20
127.3683810262448
 30
0.0
 10
248.2602789455264
 20
127.0436028614785
 30
0.0
 10
248.354248662294
 20
126.8682781147105
 30
0.0
 10
248.5049133599678
 20
126.5048722000516
 30
0.0
 10
248.5616979828299
 20
126.3178775786026
 30
0.0
 10
248.6385466046444
 20
125.9334025434512
 30
0.0
 10
248.6582410763576
 20
125.7345283519793
 30
0.0
 10
248.6583825984721
 20
125.3429057408398
 30
0.0
 10
248.6394665090185
 20
125.1482492773705
 30
0.0
 10
248.5628262248215
 20
124.7612960495984
 30
0.0
 10
248.5052784435471
 20
124.5717334540449
 30
0.0
 10
248.3559355324876
 20
124.2106035412124
 30
0.0
 10
248.2631099747228
 20
124.036300350472
 30
0.0
 10
248.0439123587989
 20
123.7079108418078
 30
0.0
 10
247.9198385481043
 20
123.5567879838855
 30
0.0
 10
247.6435237178984
 20
123.2799386531742
 30
0.0
 10
247.489376048615
 20
123.1531696042298
 30
0.0
 10
247.1633680903403
 20
122.9350828253308
 30
0.0
 10
246.9911819744607
 20
122.8428117862025
 30
0.0
 10
246.6283239039743
 20
122.6919906036952
 30
0.0
 10
246.4376201226598
 20
122.6340293157722
 30
0.0
 10
246.0541183910592
 20
122.5574362293499
 30
0.0
 10
245.8592899818288
 20
122.537829234075
 30
0.0
 10
245.4632380454423
 20
122.5374395213771
 30
0.0
 10
245.2677070965723
 20
122.5567540966004
 30
0.0
 10
244.8841922208261
 20
122.6326459504704
 30
0.0
 10
244.6938305537196
 20
122.690089883125
 30
0.0
 10
244.3301189294041
 20
122.8404809124773
 30
0.0
 10
244.1577391119141
 20
122.9325098304237
 30
0.0
 10
243.8316625811651
 20
123.1498018569672
 30
0.0
 10
243.6771701806526
 20
123.2763548282784
 30
0.0
 10
243.4001777697152
 20
123.5529084305555
 30
0.0
 10
243.275931921468
 20
123.7037579701902
 30
0.0
 10
243.056515823641
 20
124.0311506546857
 30
0.0
 10
242.9630106494496
 20
124.2058961444512
 30
0.0
 10
242.7380685658322
 20
124.7471471858393
 30
0.0
 10
242.6583120333012
 20
125.1410949184393
 30
0.0
 10
242.6583120333012
 20
125.537632925361
 30
0.0
  0
SPLINE
  5
187
330
1F
100
AcDbEntity
  8
0
  6
Continuous
 62
     7
370
    25
100
AcDbSpline
210
0.0
220
0.0
230
1.0
 70
    24
 71
     3
 72
    14
 73
    10
 74
     0
 42
0.000000001
 43
0.00000001
 40
0.0
 40
0.0
 40
0.0
 40
0.0
 40
0.25
 40
0.25
 40
0.5
 40
0.5
 40
0.75
 40
0.75
 40
1.0
 40
1.0
 40
1.0
 40
1.0
 10
195.6583120333012
 20
99.48943635293456
 30
0.0
 10
195.6583120333012
 20
99.48943635293456
 30
0.0
 10
195.680071075449
 20
99.49327305913957
 30
0.0
 10
195.763678002928
 20
99.50801521622826
 30
0.0
 10
195.8255848358889
 20
99.5189310611695
 30
0.0
 10
195.9931601636073
 20
99.54847911274729
 30
0.0
 10
196.0979401794364
 20
99.56695465657702
 30
0.0
 10
196.3504260717484
 20
99.61147473163989
 30
0.0
 10
196.4985159426883
 20
99.63758697145622
 30
0.0
 10
196.6583120332988
 20
99.6657633336426
 30
0.0
  0
LINE
  5
188
330
1F
100
AcDbEntity
  8
0
  6
Continuous
 62
     7
370
    25
100
AcDbLine
 10
195.6583117502
 20
99.4894364457
 30
0.0
 11
195.6583117502
 21
147.5376328062
 31
0.0
  0
SPLINE
  5
189
330
1F
100
AcDbEntity
  8
0
  6
Continuous
 62
     7
370
    25
100
AcDbSpline
210
0.0
220
0.0
230
1.0
 70
    24
 71
     3
 72
    14
 73
    10
 74
     0
 42
0.000000001
 43
0.00000001
 40
0.0
 40
0.0
 40
0.0
 40
0.0
 40
0.25
 40
0.25
 40
0.5
 40
0.5
 40
0.75
 40
0.75
 40
1.0
 40
1.0
 40
1.0
 40
1.0
 10
196.6583120333013
 20
147.537632925361
 30
0.0
 10
196.5144069203818
 20
147.537632925361
 30
0.0
 10
196.3694174563695
 20
147.537632925361
 30
0.0
 10
196.1151536182294
 20
147.537632925361
 30
0.0
 10
196.0054063414908
 20
147.537632925361
 30
0.0
 10
195.8312972035676
 20
147.537632925361
 30
0.0
 10
195.7658873749209
 20
147.537632925361
 30
0.0
 10
195.6795322283096
 20
147.537632925361
 30
0.0
 10
195.6583120333012
 20
147.537632925361
 30
0.0
 10
195.6583120333012
 20
147.537632925361
 30
0.0
  0
SPLINE
  5
18A
330
1F
100
AcDbEntity
  8
0
  6
Continuous
 62
     7
370
    25
100
AcDbSpline
210
0.0
220
0.0
230
1.0
 70
    24
 71
     3
 72
    16
 73
    12
 74
     0
 42
0.000000001
 43
0.00000001
 40
0.0
 40
0.0
 40
0.0
 40
0.0
 40
0.2499999999999989
 40
0.2499999999999989
 40
0.4999999999999978
 40
0.4999999999999978
 40
0.7499999999999967
 40
0.7499999999999967
 40
0.8749999999999983
 40
0.8749999999999983
 40
1.0
 40
1.0
 40
1.0
 40
1.0
 10
195.6583120333013
 20
147.537632925361
 30
0.0
 10
195.6583120333013
 20
147.537632925361
 30
0.0
 10
195.6418852007056
 20
147.537632925361
 30
0.0
 10
195.5750309166131
 20
147.537632925361
 30
0.0
 10
195.5255529997307
 20
147.537632925361
 30
0.0
 10
195.3842121138456
 20
147.537632925361
 30
0.0
 10
195.2920598145947
 20
147.537632925361
 30
0.0
 10
195.1011694518851
 20
147.537632925361
 30
0.0
 10
195.0292022618831
 20
147.537632925361
 30
0.0
 10
194.857311567959
 20
147.537632925361
 30
0.0
 10
194.7586851941637
 20
147.537632925361
 30
0.0
 10
194.6583120333012
 20
147.537632925361
 30
0.0
  0
SPLINE
  5
18B
330
1F
100
AcDbEntity
  8
0
  6
Continuous
 62
     7
370
    25
100
AcDbSpline
210
0.0
220
0.0
230
1.0
 70
     8
 71
     3
 72
    12
 73
     8
 74
     0
 42
0.000000001
 43
0.00000001
 40
0.0
 40
0.0
 40
0.0
 40
0.0
 40
0.25
 40
0.25
 40
0.5
 40
0.5
 40
1.0
 40
1.0
 40
1.0
 40
1.0
 10
183.1860688468677
 20
133.1064428945415
 30
0.0
 10
183.1224036103372
 20
133.1064428945415
 30
0.0
 10
183.0627973781138
 20
133.1325150430211
 30
0.0
 10
182.964136853183
 20
133.2080537938422
 30
0.0
 10
182.9251698631677
 20
133.2553047309385
 30
0.0
 10
182.8257830312432
 20
133.4071285489049
 30
0.0
 10
182.7837067838198
 20
133.51993179867
 30
0.0
 10
182.7530561449754
 20
133.6340859234051
 30
0.0
  0
LINE
  5
18C
330
1F
100
AcDbEntity
  8
0
  6
Continuous
 62
     7
370
    25
100
AcDbLine
 10
186.1305549176
 20
133.1064430605
 30
0.0
 11
183.1860687019
 21
133.1064430605
 31
0.0
  0
SPLINE
  5
18D
330
1F
100
AcDbEntity
  8
0
  6
Continuous
 62
     7
370
    25
100
AcDbSpline
210
0.0
220
0.0
230
1.0
 70
     8
 71
     3
 72
    12
 73
     8
 74
     0
 42
0.000000001
 43
0.00000001
 40
0.0
 40
0.0
 40
0.0
 40
0.0
 40
0.5000000000000018
 40
0.5000000000000018
 40
0.7500000000000009
 40
0.7500000000000009
 40
1.0
 40
1.0
 40
1.0
 40
1.0
 10
186.563567921627
 20
133.6340859234051
 30
0.0
 10
186.5328685382597
 20
133.5197502563412
 30
0.0
 10
186.4915184701532
 20
133.4083969034999
 30
0.0
 10
186.3917625419338
 20
133.2556601312511
 30
0.0
 10
186.352065624201
 20
133.207800245399
 30
0.0
 10
186.2548074725534
 20
133.1331971320496
 30
0.0
 10
186.1940313145627
 20
133.1064428945415
 30
0.0
 10
186.1305552197348
 20
133.1064428945415
 30
0.0
  0
ELLIPSE
  5
18E
330
1F
100
AcDbEntity
  8
0
  6
Continuous
 62
     7
370
    25
100
AcDbEllipse
 10
173.6020543783
 20
125.5376329254
 30
0.0
 11
11.70927234972712
 21
24.6771864409374
 31
0.0
210
0.0
220
0.0
230
1.0
 40
0.3419987131
 41
5.20306880937045
 42
6.114256032590499
  0
SPLINE
  5
18F
330
1F
100
AcDbEntity
  8
0
  6
Continuous
 62
     7
370
    25
100
AcDbSpline
210
0.0
220
0.0
230
1.0
 70
     8
 71
     3
 72
    12
 73
     8
 74
     0
 42
0.000000001
 43
0.00000001
 40
0.0
 40
0.0
 40
0.0
 40
0.0
 40
0.2499999999999993
 40
0.2499999999999993
 40
0.4999999999999987
 40
0.4999999999999987
 40
1.0
 40
1.0
 40
1.0
 40
1.0
 10
186.1305552197348
 20
149.3643640408629
 30
0.0
 10
186.1942204562653
 20
149.3643640408629
 30
0.0
 10
186.2538266884887
 20
149.3560992651971
 30
0.0
 10
186.3524872134195
 20
149.3318804836139
 30
0.0
 10
186.3914542034348
 20
149.3166231643048
 30
0.0
 10
186.4908410353592
 20
149.2669898100428
 30
0.0
 10
186.5329172827827
 20
149.2293501018687
 30
0.0
 10
186.563567921627
 20
149.1902744025926
 30
0.0
  0
LINE
  5
190
330
1F
100
AcDbEntity
  8
0
  6
Continuous
 62
     7
370
    25
100
AcDbLine
 10
183.1860687019
 20
149.3643642943
 30
0.0
 11
186.1305549176
 21
149.3643642943
 31
0.0
  0
SPLINE
  5
191
330
1F
100
AcDbEntity
  8
0
  6
Continuous
 62
     7
370
    25
100
AcDbSpline
210
0.0
220
0.0
230
1.0
 70
     8
 71
     3
 72
    12
 73
     8
 74
     0
 42
0.000000001
 43
0.00000001
 40
0.0
 40
0.0
 40
0.0
 40
0.0
 40
0.4999999999999982
 40
0.4999999999999982
 40
0.7499999999999991
 40
0.7499999999999991
 40
1.0
 40
1.0
 40
1.0
 40
1.0
 10
182.7530561449754
 20
149.1902744025926
 30
0.0
 10
182.7837555283427
 20
149.2294122449885
 30
0.0
 10
182.8251055964493
 20
149.266572027714
 30
0.0
 10
182.9248615246687
 20
149.3165085333417
 30
0.0
 10
182.9645584424014
 20
149.3319614034855
 30
0.0
 10
183.061816594049
 20
149.3558809470846
 30
0.0
 10
183.1225927520397
 20
149.3643640408629
 30
0.0
 10
183.1860688468677
 20
149.3643640408629
 30
0.0
  0
ELLIPSE
  5
192
330
1F
100
AcDbEntity
  8
0
  6
Continuous
 62
     7
370
    25
100
AcDbEllipse
 10
195.7145696883
 20
125.5376329254
 30
0.0
 11
-11.70927234972697
 21
24.67718644093743
 31
0.0
210
0.0
220
0.0
230
1.0
 40
0.3419987131
 41
0.1689292745891344
 42
1.080116497809154
  0
SPLINE
  5
193
330
1F
100
AcDbEntity
  8
0
  6
Continuous
 62
     7
370
    25
100
AcDbSpline
210
0.0
220
0.0
230
1.0
 70
     8
 71
     3
 72
    12
 73
     8
 74
     0
 42
0.000000001
 43
0.00000001
 40
0.0
 40
0.0
 40
0.0
 40
0.0
 40
0.2499999999999993
 40
0.2499999999999993
 40
0.4999999999999987
 40
0.4999999999999987
 40
1.0
 40
1.0
 40
1.0
 40
1.0
 10
183.1860688468677
 20
101.710901809859
 30
0.0
 10
183.1224036103372
 20
101.710901809859
 30
0.0
 10
183.0627973781138
 20
101.7191665855249
 30
0.0
 10
182.964136853183
 20
101.743385367108
 30
0.0
 10
182.9251698631677
 20
101.7586426864172
 30
0.0
 10
182.8257830312432
 20
101.8082760406791
 30
0.0
 10
182.7837067838198
 20
101.8459157488532
 30
0.0
 10
182.7530561449754
 20
101.8849914481294
 30
0.0
  0
LINE
  5
194
330
1F
100
AcDbEntity
  8
0
  6
Continuous
 62
     7
370
    25
100
AcDbLine
 10
186.1305549176
 20
101.7109015565
 30
0.0
 11
183.1860687019
 21
101.7109015565
 31
0.0
  0
SPLINE
  5
195
330
1F
100
AcDbEntity
  8
0
  6
Continuous
 62
     7
370
    25
100
AcDbSpline
210
0.0
220
0.0
230
1.0
 70
     8
 71
     3
 72
    12
 73
     8
 74
     0
 42
0.000000001
 43
0.00000001
 40
0.0
 40
0.0
 40
0.0
 40
0.0
 40
0.5000000000000032
 40
0.5000000000000032
 40
0.7500000000000016
 40
0.7500000000000016
 40
1.0
 40
1.0
 40
1.0
 40
1.0
 10
186.563567921627
 20
101.8849914481294
 30
0.0
 10
186.5328685382597
 20
101.8458536057335
 30
0.0
 10
186.4915184701532
 20
101.808693823008
 30
0.0
 10
186.3917625419338
 20
101.7587573173802
 30
0.0
 10
186.352065624201
 20
101.7433044472365
 30
0.0
 10
186.2548074725534
 20
101.7193849036374
 30
0.0
 10
186.1940313145627
 20
101.710901809859
 30
0.0
 10
186.1305552197348
 20
101.710901809859
 30
0.0
  0
ELLIPSE
  5
196
330
1F
100
AcDbEntity
  8
0
  6
Continuous
 62
     7
370
    25
100
AcDbEllipse
 10
173.6020543783
 20
125.5376329254
 30
0.0
 11
-11.70927234972717
 21
24.67718644093743
 31
0.0
210
0.0
220
0.0
230
1.0
 40
0.3419987131
 41
3.310521928178952
 42
4.221709151398942
  0
SPLINE
  5
197
330
1F
100
AcDbEntity
  8
0
  6
Continuous
 62
     7
370
    25
100
AcDbSpline
210
0.0
220
0.0
230
1.0
 70
     8
 71
     3
 72
    12
 73
     8
 74
     0
 42
0.000000001
 43
0.00000001
 40
0.0
 40
0.0
 40
0.0
 40
0.0
 40
0.2499999999999988
 40
0.2499999999999988
 40
0.4999999999999977
 40
0.4999999999999977
 40
1.0
 40
1.0
 40
1.0
 40
1.0
 10
186.1305552197348
 20
117.9688229561803
 30
0.0
 10
186.1942204562653
 20
117.9688229561803
 30
0.0
 10
186.2538266884887
 20
117.9427508077006
 30
0.0
 10
186.3524872134195
 20
117.8672120568795
 30
0.0
 10
186.3914542034348
 20
117.8199611197833
 30
0.0
 10
186.4908410353592
 20
117.6681373018168
 30
0.0
 10
186.5329172827827
 20
117.5553340520518
 30
0.0
 10
186.563567921627
 20
117.4411799273167
 30
0.0
  0
LINE
  5
198
330
1F
100
AcDbEntity
  8
0
  6
Continuous
 62
     7
370
    25
100
AcDbLine
 10
183.1860687019
 20
117.9688227902
 30
0.0
 11
186.1305549176
 21
117.9688227902
 31
0.0
  0
SPLINE
  5
199
330
1F
100
AcDbEntity
  8
0
  6
Continuous
 62
     7
370
    25
100
AcDbSpline
210
0.0
220
0.0
230
1.0
 70
     8
 71
     3
 72
    12
 73
     8
 74
     0
 42
0.000000001
 43
0.00000001
 40
0.0
 40
0.0
 40
0.0
 40
0.0
 40
0.5000000000000004
 40
0.5000000000000004
 40
0.7500000000000002
 40
0.7500000000000002
 40
1.0
 40
1.0
 40
1.0
 40
1.0
 10
182.7530561449754
 20
117.4411799273167
 30
0.0
 10
182.7837555283427
 20
117.5555155943805
 30
0.0
 10
182.8251055964493
 20
117.6668689472219
 30
0.0
 10
182.9248615246687
 20
117.8196057194706
 30
0.0
 10
182.9645584424014
 20
117.8674656053227
 30
0.0
 10
183.061816594049
 20
117.9420687186722
 30
0.0
 10
183.1225927520397
 20
117.9688229561803
 30
0.0
 10
183.1860688468677
 20
117.9688229561803
 30
0.0
  0
ELLIPSE
  5
19A
330
1F
100
AcDbEntity
  8
0
  6
Continuous
 62
     7
370
    25
100
AcDbEllipse
 10
195.7145696883
 20
125.5376329254
 30
0.0
 11
11.70927234972708
 21
24.67718644093743
 31
0.0
210
0.0
220
0.0
230
1.0
 40
0.3419987131
 41
2.061476155780653
 42
2.972663379000672
  0
LINE
  5
19B
330
1F
100
AcDbEntity
  8
0
  6
Continuous
 62
     7
370
    25
100
AcDbLine
 10
194.6583115863
 20
147.5376328062
 30
0.0
 11
194.6583115863
 21
150.5376332979
 31
0.0
  0
LINE
  5
19C
330
1F
100
AcDbEntity
  8
0
  6
Continuous
 62
     7
370
    25
100
AcDbLine
 10
174.6583120333
 20
100.8376320432
 30
0.0
 11
174.6583120333
 21
150.2376338075
 31
0.0
  0
SPLINE
  5
19D
330
1F
100
AcDbEntity
  8
0
  6
Continuous
 62
     7
370
    25
100
AcDbSpline
210
0.0
220
0.0
230
1.0
 70
     8
 71
     3
 72
    16
 73
    12
 74
     0
 42
0.000000001
 43
0.00000001
 40
0.0
 40
0.0
 40
0.0
 40
0.0
 40
0.2499999999999997
 40
0.2499999999999997
 40
0.4999999999999994
 40
0.4999999999999994
 40
0.6249999999999997
 40
0.6249999999999997
 40
0.7499999999999998
 40
0.7499999999999998
 40
1.0
 40
1.0
 40
1.0
 40
1.0
 10
173.6174510051722
 20
108.1884756441685
 30
0.0
 10
173.6491789663649
 20
108.1876785273475
 30
0.0
 10
173.6838065567154
 20
108.1870874524923
 30
0.0
 10
173.7635003187791
 20
108.1860759270578
 30
0.0
 10
173.8085417787827
 20
108.1856758188829
 30
0.0
 10
173.8913945056332
 20
108.1847179469791
 30
0.0
 10
173.921308966833
 20
108.1843362657187
 30
0.0
 10
173.987295297391
 20
108.1832600516601
 30
0.0
 10
174.0240289228528
 20
108.182542485766
 30
0.0
 10
174.1365256424226
 20
108.1797816080843
 30
0.0
 10
174.2068669905208
 20
108.1772945162127
 30
0.0
 10
174.263335144426
 20
108.1751212378056
 30
0.0
  0
SPLINE
  5
19E
330
1F
100
AcDbEntity
  8
0
  6
Continuous
 62
     7
370
    25
100
AcDbSpline
210
0.0
220
0.0
230
1.0
 70
     8
 71
     3
 72
    14
 73
    10
 74
     0
 42
0.000000001
 43
0.00000001
 40
0.0
 40
0.0
 40
0.0
 40
0.0
 40
0.1250000000000001
 40
0.1250000000000001
 40
0.2500000000000003
 40
0.2500000000000003
 40
0.5000000000000002
 40
0.5000000000000002
 40
1.0
 40
1.0
 40
1.0
 40
1.0
 10
174.2633351443943
 20
108.1751212378283
 30
0.0
 10
174.2759269383392
 20
108.174636620006
 30
0.0
 10
174.2907980466332
 20
108.1729264420737
 30
0.0
 10
174.3229821380664
 20
108.1648108933228
 30
0.0
 10
174.3385862695422
 20
108.1585951050615
 30
0.0
 10
174.3744734092543
 20
108.1403759933599
 30
0.0
 10
174.388325450523
 20
108.1286109650263
 30
0.0
 10
174.4218151924556
 20
108.096815828609
 30
0.0
 10
174.4324774530313
 20
108.0790223967659
 30
0.0
 10
174.4406154099263
 20
108.0625912659215
 30
0.0
  0
LINE
  5
19F
330
1F
100
AcDbEntity
  8
0
  6
Continuous
 62
     7
370
    25
100
AcDbLine
 10
174.4583120384
 20
119.5531528983
 30
0.0
 11
174.4583120384
 21
107.6978118698
 31
0.0
  0
SPLINE
  5
1A0
330
1F
100
AcDbEntity
  8
0
  6
Continuous
 62
     7
370
    25
100
AcDbSpline
210
0.0
220
0.0
230
1.0
 70
     8
 71
     3
 72
    16
 73
    12
 74
     0
 42
0.000000001
 43
0.00000001
 40
0.0
 40
0.0
 40
0.0
 40
0.0
 40
0.500000000000004
 40
0.500000000000004
 40
0.7500000000000042
 40
0.7500000000000042
 40
0.8750000000000032
 40
0.8750000000000032
 40
0.9375000000000016
 40
0.9375000000000016
 40
1.0
 40
1.0
 40
1.0
 40
1.0
 10
174.4583120333012
 20
119.5531526927864
 30
0.0
 10
174.4583120333012
 20
119.6676824234854
 30
0.0
 10
174.4542547311862
 20
119.7829984986749
 30
0.0
 10
174.4285974883914
 20
119.9579215885024
 30
0.0
 10
174.4172820426493
 20
120.0177508914974
 30
0.0
 10
174.3832506753406
 20
120.1023420777456
 30
0.0
 10
174.3693716941368
 20
120.1310116638896
 30
0.0
 10
174.3334360123695
 20
120.1608194508359
 30
0.0
 10
174.3184856931067
 20
120.1671546041955
 30
0.0
 10
174.2885871803649
 20
120.1659291413253
 30
0.0
 10
174.2750543199996
 20
120.1593305552905
 30
0.0
 10
174.2633351444256
 20
120.150682867234
 30
0.0
  0
SPLINE
  5
1A1
330
1F
100
AcDbEntity
  8
0
  6
Continuous
 62
     7
370
    25
100
AcDbSpline
210
0.0
220
0.0
230
1.0
 70
     8
 71
     3
 72
    14
 73
    10
 74
     0
 42
0.000000001
 43
0.00000001
 40
0.0
 40
0.0
 40
0.0
 40
0.0
 40
0.25
 40
0.25
 40
0.5
 40
0.5
 40
0.75
 40
0.75
 40
1.0
 40
1.0
 40
1.0
 40
1.0
 10
174.2633351444324
 20
120.1506828672254
 30
0.0
 10
174.2068754785487
 20
120.1090207575266
 30
0.0
 10
174.1360030036865
 20
120.0781872769384
 30
0.0
 10
173.9875366458045
 20
120.0839017855515
 30
0.0
 10
173.9183414425967
 20
120.1194727129845
 30
0.0
 10
173.8086242565272
 20
120.2064166254583
 30
0.0
 10
173.7633783675952
 20
120.2588489388234
 30
0.0
 10
173.6837612366283
 20
120.367402020342
 30
0.0
 10
173.6491586171714
 20
120.4243851065844
 30
0.0
 10
173.6174510051726
 20
120.4829511892423
 30
0.0
  0
SPLINE
  5
1A2
330
1F
100
AcDbEntity
  8
0
  6
Continuous
 62
     7
370
    25
100
AcDbSpline
210
0.0
220
0.0
230
1.0
 70
     8
 71
     3
 72
    10
 73
     6
 74
     0
 42
0.000000001
 43
0.00000001
 40
0.0
 40
0.0
 40
0.0
 40
0.0
 40
0.5
 40
0.5
 40
1.0
 40
1.0
 40
1.0
 40
1.0
 10
173.3369916897416
 20
121.3357697808886
 30
0.0
 10
173.3678702733536
 20
121.1861412290289
 30
0.0
 10
173.4038629810769
 20
121.0396458115054
 30
0.0
 10
173.493203232574
 20
120.7544541729646
 30
0.0
 10
173.5456615354196
 20
120.6155511472487
 30
0.0
 10
173.6174510051727
 20
120.4829511892422
 30
0.0
  0
SPLINE
  5
1A3
330
1F
100
AcDbEntity
  8
0
  6
Continuous
 62
     7
370
    25
100
AcDbSpline
210
0.0
220
0.0
230
1.0
 70
     8
 71
     3
 72
    10
 73
     6
 74
     0
 42
0.000000001
 43
0.00000001
 40
0.0
 40
0.0
 40
0.0
 40
0.0
 40
0.5
 40
0.5
 40
1.0
 40
1.0
 40
1.0
 40
1.0
 10
173.617451005172
 20
130.5923146614786
 30
0.0
 10
173.5456615354192
 20
130.4597147034723
 30
0.0
 10
173.4932032325737
 20
130.3208116777566
 30
0.0
 10
173.4038629810768
 20
130.0356200392162
 30
0.0
 10
173.3678702733535
 20
129.8891246216929
 30
0.0
 10
173.3369916897416
 20
129.7394960698335
 30
0.0
  0
SPLINE
  5
1A4
330
1F
100
AcDbEntity
  8
0
  6
Continuous
 62
     7
370
    25
100
AcDbSpline
210
0.0
220
0.0
230
1.0
 70
     8
 71
     3
 72
    14
 73
    10
 74
     0
 42
0.000000001
 43
0.00000001
 40
0.0
 40
0.0
 40
0.0
 40
0.0
 40
0.25
 40
0.25
 40
0.5
 40
0.5
 40
0.75
 40
0.75
 40
1.0
 40
1.0
 40
1.0
 40
1.0
 10
173.6174510051714
 20
130.5923146614774
 30
0.0
 10
173.6491597046567
 20
130.650882752796
 30
0.0
 10
173.6837675232973
 20
130.707877014736
 30
0.0
 10
173.7634259337867
 20
130.8164771495
 30
0.0
 10
173.8084882036815
 20
130.8688052848786
 30
0.0
 10
173.9190700492599
 20
130.9563062962409
 30
0.0
 10
173.9867141700753
 20
130.9913517524951
 30
0.0
 10
174.1369624604723
 20
130.9970961412511
 30
0.0
 10
174.2069148587027
 20
130.9662160342011
 30
0.0
 10
174.2633351444262
 20
130.9245829834881
 30
0.0
  0
SPLINE
  5
1A5
330
1F
100
AcDbEntity
  8
0
  6
Continuous
 62
     7
370
    25
100
AcDbSpline
210
0.0
220
0.0
230
1.0
 70
     8
 71
     3
 72
    16
 73
    12
 74
     0
 42
0.000000001
 43
0.00000001
 40
0.0
 40
0.0
 40
0.0
 40
0.0
 40
0.0625000000000003
 40
0.0625000000000003
 40
0.1250000000000006
 40
0.1250000000000006
 40
0.2500000000000013
 40
0.2500000000000013
 40
0.4999999999999997
 40
0.4999999999999997
 40
1.0
 40
1.0
 40
1.0
 40
1.0
 10
174.2633351443944
 20
130.9245829834346
 30
0.0
 10
174.2750693788413
 20
130.9159241832904
 30
0.0
 10
174.2886011343202
 20
130.9093200980551
 30
0.0
 10
174.3185885947501
 20
130.908123130881
 30
0.0
 10
174.3335833011583
 20
130.9145448779469
 30
0.0
 10
174.3693237235531
 20
130.9442620313562
 30
0.0
 10
174.3833370605543
 20
130.9730694287395
 30
0.0
 10
174.4174811493357
 20
131.0581491503654
 30
0.0
 10
174.428453053454
 20
131.1165240996352
 30
0.0
 10
174.4542985937203
 20
131.2922396244238
 30
0.0
 10
174.4583120333013
 20
131.4080346322882
 30
0.0
 10
174.4583120333013
 20
131.5221131579356
 30
0.0
  0
LINE
  5
1A6
330
1F
100
AcDbEntity
  8
0
  6
Continuous
 62
     7
370
    25
100
AcDbLine
 10
174.4583120384
 20
143.3774539809
 30
0.0
 11
174.4583120384
 21
131.5221129525
 31
0.0
  0
SPLINE
  5
1A7
330
1F
100
AcDbEntity
  8
0
  6
Continuous
 62
     7
370
    25
100
AcDbSpline
210
0.0
220
0.0
230
1.0
 70
     8
 71
     3
 72
    16
 73
    12
 74
     0
 42
0.000000001
 43
0.00000001
 40
0.0
 40
0.0
 40
0.0
 40
0.0
 40
0.5000000000000007
 40
0.5000000000000007
 40
0.7500000000000001
 40
0.7500000000000001
 40
0.8750000000000006
 40
0.8750000000000006
 40
0.9375000000000003
 40
0.9375000000000003
 40
1.0
 40
1.0
 40
1.0
 40
1.0
 10
174.4583120333014
 20
143.0843873910286
 30
0.0
 10
174.4583120333011
 20
143.0623723764493
 30
0.0
 10
174.4541874904471
 20
143.0370187417456
 30
0.0
 10
174.428271044814
 20
142.989858239557
 30
0.0
 10
174.4169934637942
 20
142.9726592513282
 30
0.0
 10
174.3832580852528
 20
142.942681285759
 30
0.0
 10
174.3688692700084
 20
142.9313298772171
 30
0.0
 10
174.3336225805694
 20
142.9146420177397
 30
0.0
 10
174.3184171561124
 20
142.9090789908545
 30
0.0
 10
174.2887705769431
 20
142.9021094078193
 30
0.0
 10
174.2750652409457
 20
142.9005960667639
 30
0.0
 10
174.2633351444219
 20
142.9001446129141
 30
0.0
  0
SPLINE
  5
1A8
330
1F
100
AcDbEntity
  8
0
  6
Continuous
 62
     7
370
    25
100
AcDbSpline
210
0.0
220
0.0
230
1.0
 70
     8
 71
     3
 72
    14
 73
    10
 74
     0
 42
0.000000001
 43
0.00000001
 40
0.0
 40
0.0
 40
0.0
 40
0.0
 40
0.25
 40
0.25
 40
0.5
 40
0.5
 40
0.75
 40
0.75
 40
1.0
 40
1.0
 40
1.0
 40
1.0
 10
174.2633351444324
 20
142.9001446129166
 30
0.0
 10
174.2068880623742
 20
142.8979721454973
 30
0.0
 10
174.1360376783313
 20
142.8954740475799
 30
0.0
 10
173.9876012435149
 20
142.8918275887916
 30
0.0
 10
173.918411991828
 20
142.8908598419404
 30
0.0
 10
173.8087004435871
 20
142.8895922825777
 30
0.0
 10
173.7634587942448
 20
142.8891894416494
 30
0.0
 10
173.6838107760609
 20
142.8881784067217
 30
0.0
 10
173.6491838602948
 20
142.8875874463271
 30
0.0
 10
173.6174510051735
 20
142.8867902065537
 30
0.0
  0
SPLINE
  5
1A9
330
1F
100
AcDbEntity
  8
0
  6
Continuous
 62
     7
370
    25
100
AcDbSpline
210
0.0
220
0.0
230
1.0
 70
     8
 71
     3
 72
    18
 73
    14
 74
     0
 42
0.000000001
 43
0.00000001
 40
0.0
 40
0.0
 40
0.0
 40
0.0
 40
0.2500000000000001
 40
0.2500000000000001
 40
0.3750000000000002
 40
0.3750000000000002
 40
0.5000000000000001
 40
0.5000000000000001
 40
0.6250000000000001
 40
0.6250000000000001
 40
0.7500000000000001
 40
0.7500000000000001
 40
1.0
 40
1.0
 40
1.0
 40
1.0
 10
173.3369916897416
 20
129.7394960698335
 30
0.0
 10
173.2017060834393
 20
129.0839417344122
 30
0.0
 10
173.1005383371963
 20
128.4043206406146
 30
0.0
 10
172.9976769943274
 20
127.3489566341206
 30
0.0
 10
172.9715741488041
 20
126.9901425695359
 30
0.0
 10
172.9366841652593
 20
126.264029625413
 30
0.0
 10
172.9280979069693
 20
125.9019399463969
 30
0.0
 10
172.9279981974036
 20
125.1796302889785
 30
0.0
 10
172.9364865685521
 20
124.8194104868702
 30
0.0
 10
172.9706299480728
 20
124.1008444177762
 30
0.0
 10
172.9964269299266
 20
123.7410787018608
 30
0.0
 10
173.0998280613145
 20
122.6744341148665
 30
0.0
 10
173.2016860534859
 20
121.9914211755841
 30
0.0
 10
173.3369916897416
 20
121.3357697808886
 30
0.0
  0
LINE
  5
1AA
330
1F
100
AcDbEntity
  8
0
  6
Continuous
 62
     7
370
    25
100
AcDbLine
 10
172.4583120452
 20
130.6777852195
 30
0.0
 11
172.4583120452
 21
120.3974806312
 31
0.0
  0
LINE
  5
1AB
330
1F
100
AcDbEntity
  8
0
  6
Continuous
 62
     7
370
    25
100
AcDbLine
 10
146.1583120184
 20
130.3474115747
 30
0.0
 11
146.1583120184
 21
120.727854276
 31
0.0
  0
LINE
  5
1AC
330
1F
100
AcDbEntity
  8
0
  6
Continuous
 62
     7
370
    25
100
AcDbLine
 10
144.6583127039
 20
129.9143987316
 30
0.0
 11
144.6583127039
 21
121.1608671191
 31
0.0
  0
LINE
  5
1AD
330
1F
100
AcDbEntity
  8
0
  6
Continuous
 62
     7
370
    25
100
AcDbLine
 10
146.1583120184
 20
130.3474115747
 30
0.0
 11
146.1583120184
 21
142.3969836514
 31
0.0
  0
LINE
  5
1AE
330
1F
100
AcDbEntity
  8
0
  6
Continuous
 62
     7
370
    25
100
AcDbLine
 10
146.1583120184
 20
142.3969836514
 30
0.0
 11
172.4583120452
 21
143.057730941
 31
0.0
  0
LINE
  5
1AF
330
1F
100
AcDbEntity
  8
0
  6
Continuous
 62
     7
370
    25
100
AcDbLine
 10
172.4583120452
 20
130.6777852195
 30
0.0
 11
172.4583120452
 21
143.057730941
 31
0.0
  0
LINE
  5
1B0
330
1F
100
AcDbEntity
  8
0
  6
Continuous
 62
     7
370
    25
100
AcDbLine
 10
146.1583120184
 20
108.6782821994
 30
0.0
 11
146.1583120184
 21
120.727854276
 31
0.0
  0
LINE
  5
1B1
330
1F
100
AcDbEntity
  8
0
  6
Continuous
 62
     7
370
    25
100
AcDbLine
 10
172.4583120452
 20
108.0175349097
 30
0.0
 11
172.4583120452
 21
120.3974806312
 31
0.0
  0
LINE
  5
1B2
330
1F
100
AcDbEntity
  8
0
  6
Continuous
 62
     7
370
    25
100
AcDbLine
 10
146.1583120184
 20
108.6782821994
 30
0.0
 11
172.4583120452
 21
108.0175349097
 31
0.0
  0
ARC
  5
1B3
330
1F
100
AcDbEntity
  8
0
  6
Continuous
 62
     7
370
    25
100
AcDbCircle
 10
172.6582489442
 20
143.0627548211
 30
0.0
 40
0.2000000000000343
100
AcDbArc
 50
181.4391666667
 51
271.4391666667
  0
ARC
  5
1B4
330
1F
100
AcDbEntity
  8
0
  6
Continuous
 62
     7
370
    25
100
AcDbCircle
 10
172.6582489442
 20
108.0125110297
 30
0.0
 40
0.2000000000000343
100
AcDbArc
 50
88.5608333333
 51
178.5608333333
  0
LINE
  5
1B5
330
1F
100
AcDbEntity
  8
0
  6
Continuous
 62
     7
370
    25
100
AcDbLine
 10
172.6632721623
 20
108.212447686
 30
0.0
 11
173.6174510227
 21
108.188475443
 31
0.0
  0
LINE
  5
1B6
330
1F
100
AcDbEntity
  8
0
  6
Continuous
 62
     7
370
    25
100
AcDbLine
 10
172.6632721623
 20
142.8628181647
 30
0.0
 11
173.6174510227
 21
142.8867904077
 31
0.0
  0
LINE
  5
1B7
330
1F
100
AcDbEntity
  8
0
  6
Continuous
 62
     7
370
    25
100
AcDbLine
 10
144.6583127039
 20
141.5309579651
 30
0.0
 11
146.1583120184
 21
142.3969836514
 31
0.0
  0
LINE
  5
1B8
330
1F
100
AcDbEntity
  8
0
  6
Continuous
 62
     7
370
    25
100
AcDbLine
 10
144.6583127039
 20
129.9143987316
 30
0.0
 11
144.6583127039
 21
141.5309579651
 31
0.0
  0
LINE
  5
1B9
330
1F
100
AcDbEntity
  8
0
  6
Continuous
 62
     7
370
    25
100
AcDbLine
 10
144.6583127039
 20
109.5443078856
 30
0.0
 11
146.1583120184
 21
108.6782821994
 31
0.0
  0
LINE
  5
1BA
330
1F
100
AcDbEntity
  8
0
  6
Continuous
 62
     7
370
    25
100
AcDbLine
 10
144.6583127039
 20
109.5443078856
 30
0.0
 11
144.6583127039
 21
121.1608671191
 31
0.0
  0
LINE
  5
1BB
330
1F
100
AcDbEntity
  8
0
  6
Continuous
 62
     7
370
    25
100
AcDbLine
 10
217.6583134936
 20
152.0376326124
 30
0.0
 11
209.6583121823
 21
152.0376326124
 31
0.0
  0
LINE
  5
1BC
330
1F
100
AcDbEntity
  8
0
  6
Continuous
 62
     7
370
    25
100
AcDbLine
 10
217.6583134936
 20
152.0376326124
 30
0.0
 11
217.6583134936
 21
137.6779451574
 31
0.0
  0
ARC
  5
1BD
330
1F
100
AcDbEntity
  8
0
  6
Continuous
 62
     7
370
    25
100
AcDbCircle
 10
219.6583120333
 20
137.0376329254
 30
0.0
 40
2.099999999999995
100
AcDbArc
 50
162.2472098381
 51
17.7527901619
  0
LINE
  5
1BE
330
1F
100
AcDbEntity
  8
0
  6
Continuous
 62
     7
370
    25
100
AcDbLine
 10
221.658310424
 20
137.6779451574
 30
0.0
 11
221.658310424
 21
152.0376326124
 31
0.0
  0
LINE
  5
1BF
330
1F
100
AcDbEntity
  8
0
  6
Continuous
 62
     7
370
    25
100
AcDbLine
 10
238.5200620996
 20
152.0376326124
 30
0.0
 11
221.658310424
 21
152.0376326124
 31
0.0
  0
LINE
  5
1C0
330
1F
100
AcDbEntity
  8
0
  6
Continuous
 62
     7
370
    25
100
AcDbLine
 10
269.6583108412
 20
152.0376326124
 30
0.0
 11
252.7965666162
 21
152.0376326124
 31
0.0
  0
LINE
  5
1C1
330
1F
100
AcDbEntity
  8
0
  6
Continuous
 62
     7
370
    25
100
AcDbLine
 10
209.6583121823
 20
147.5376328062
 30
0.0
 11
209.6583121823
 21
152.0376326124
 31
0.0
  0
CIRCLE
  5
1C2
330
1F
100
AcDbEntity
  8
0
  6
Continuous
 62
     7
370
    25
100
AcDbCircle
 10
232.6583120333
 20
142.5376329254
 30
0.0
 40
5.5
  0
CIRCLE
  5
1C3
330
1F
100
AcDbEntity
  8
0
  6
Continuous
 62
     7
370
    25
100
AcDbCircle
 10
258.6583120333
 20
142.5376329254
 30
0.0
 40
5.5
  0
LINE
  5
1C4
330
1F
100
AcDbEntity
  8
0
  6
Continuous
 62
     7
370
    25
100
AcDbLine
 10
209.6583121823
 20
147.5376328062
 30
0.0
 11
201.2867336528
 21
147.5376328062
 31
0.0
  0
LINE
  5
1C5
330
1F
100
AcDbEntity
  8
0
  6
Continuous
 62
     7
370
    25
100
AcDbLine
 10
269.6583108412
 20
133.0376327577
 30
0.0
 11
269.6583108412
 21
152.0376326124
 31
0.0
  0
SPLINE
  5
1C6
330
1F
100
AcDbEntity
  8
0
  6
Continuous
 62
     7
370
    25
100
AcDbSpline
210
0.0
220
0.0
230
1.0
 70
     8
 71
     3
 72
     9
 73
     5
 74
     0
 42
0.000000001
 43
0.00000001
 40
0.0
 40
0.0
 40
0.0
 40
0.0
 40
0.4798599591563761
 40
1.0
 40
1.0
 40
1.0
 40
1.0
 10
217.575559894925
 20
136.9253098572787
 30
0.0
 10
218.1144744777846
 20
136.7418101442009
 30
0.0
 10
219.237540848663
 20
136.3594075086479
 30
0.0
 10
220.4527690273734
 20
136.0179922246054
 30
0.0
 10
221.0848578618821
 20
135.8404084648188
 30
0.0
  0
LINE
  5
1C7
330
1F
100
AcDbEntity
  8
0
  6
Continuous
 62
     7
370
    25
100
AcDbLine
 10
221.0848578619
 20
135.8404084648
 30
0.0
 11
221.3836112427
 21
135.8404084648
 31
0.0
  0
LINE
  5
1C8
330
1F
100
AcDbEntity
  8
0
  6
Continuous
 62
     7
370
    25
100
AcDbLine
 10
221.658310424
 20
147.5376328062
 30
0.0
 11
217.6583134936
 21
147.5376328062
 31
0.0
  0
LINE
  5
1C9
330
1F
100
AcDbEntity
  8
0
  6
Continuous
 62
     7
370
    25
100
AcDbLine
 10
217.6583134936
 20
152.0376326124
 30
0.0
 11
221.658310424
 21
152.0376326124
 31
0.0
  0
DIMENSION
  5
1CA
330
1F
100
AcDbEntity
  8
VERMASSUNG
100
AcDbDimension
  2
_D_5
 10
137.4131133365
 20
100.5376329254
 30
0.0
 11
137.4131133365
 21
125.5376329254
 31
0.0
 70
   160
  1
PSC%%c<>
 71
     2
 42
-1.0
  3
SLDDIMSTYLE0
100
AcDbAlignedDimension
 13
174.9583120333
 23
150.5376329254
 33
0.0
 14
174.9583120333
 24
100.5376329254
 34
0.0
 50
90.0
100
AcDbRotatedDimension
  0
DIMENSION
  5
1D6
330
1F
100
AcDbEntity
  8
VERMASSUNG
100
AcDbDimension
  2
_D_6
 10
269.6583120333
 20
177.617754669
 30
0.0
 11
207.1583120333
 21
177.617754669
 31
0.0
 70
   160
  1
<>
 71
     2
 42
-1.0
  3
SLDDIMSTYLE0
100
AcDbAlignedDimension
 13
144.6583120333
 23
141.5309587635
 33
0.0
 14
269.6583120333
 24
152.0376329254
 34
0.0
 50
0.0
100
AcDbRotatedDimension
  0
DIMENSION
  5
1E0
330
1F
100
AcDbEntity
  8
VERMASSUNG
100
AcDbDimension
  2
_D_7
 10
269.6583120333
 20
160.7858216868
 30
0.0
 11
232.1583120333
 21
160.7858216868
 31
0.0
 70
   160
  1
<>
 71
     2
 42
-1.0
  3
SLDDIMSTYLE0
100
AcDbAlignedDimension
 13
194.6583120333
 23
150.5376329254
 33
0.0
 14
269.6583120333
 24
152.0376329254
 34
0.0
 50
0.0
100
AcDbRotatedDimension
  0
DIMENSION
  5
1EA
330
1F
100
AcDbEntity
  8
VERMASSUNG
100
AcDbDimension
  2
_D_8
 10
174.6583120333
 20
169.3376329254
 30
0.0
 11
222.1583120333
 21
169.3376329254
 31
0.0
 70
   160
  1
<>
 71
     2
 42
-1.0
  3
SLDDIMSTYLE0
100
AcDbAlignedDimension
 13
269.6583120333
 23
152.0376329254
 33
0.0
 14
174.6583120333
 24
150.2376329254
 34
0.0
 50
0.0
100
AcDbRotatedDimension
  0
LINE
  5
1F4
330
1F
100
AcDbEntity
  8
0
  6
Continuous
 62
     7
370
    25
100
AcDbLine
 10
232.4006750006
 20
36.107812004
 30
0.0
 11
232.4006736836
 21
36.0506641416
 31
0.0
  0
LINE
  5
1F5
330
1F
100
AcDbEntity
  8
0
  6
Continuous
 62
     7
370
    25
100
AcDbLine
 10
233.4116712122
 20
34.2993743747
 30
0.0
 11
233.461160832
 21
34.2707953363
 31
0.0
  0
ARC
  5
1F6
330
1F
100
AcDbEntity
  8
0
  6
Continuous
 62
     7
370
    25
100
AcDbCircle
 10
234.613917385
 20
36.1608789772
 30
0.0
 40
1.250000000000007
100
AcDbArc
 50
170.3166476524
 51
247.7862105662
  0
LINE
  5
1F7
330
1F
100
AcDbEntity
  8
0
  6
Continuous
 62
     7
370
    25
100
AcDbLine
 10
235.3674785952
 20
45.3632491194
 30
0.0
 11
235.3674785952
 21
42.4455845668
 31
0.0
  0
LINE
  5
1F8
330
1F
100
AcDbEntity
  8
0
  6
Continuous
 62
     7
370
    25
100
AcDbLine
 10
239.3674785952
 20
42.445584947
 30
0.0
 11
239.3674785952
 21
45.4576997511
 31
0.0
  0
SPLINE
  5
1F9
330
1F
100
AcDbEntity
  8
0
  6
Continuous
 62
     7
370
    25
100
AcDbSpline
210
0.0
220
0.0
230
1.0
 70
     8
 71
     3
 72
     9
 73
     5
 74
     0
 42
0.000000001
 43
0.00000001
 40
0.0
 40
0.0
 40
0.0
 40
0.0
 40
0.984203667281232
 40
1.0
 40
1.0
 40
1.0
 40
1.0
 10
236.3834119149419
 20
51.2477378055216
 30
0.0
 10
236.3859252957626
 20
51.14079847639737
 30
0.0
 10
236.3884790159979
 20
51.03214278583322
 30
0.0
 10
236.4191927959099
 20
50.91640385237335
 30
0.0
 10
236.4196779609965
 20
50.91457560167191
 30
0.0
  0
LINE
  5
1FA
330
1F
100
AcDbEntity
  8
0
  6
Continuous
 62
     7
370
    25
100
AcDbLine
 10
237.7511081007
 20
53.1058632408
 30
0.0
 11
236.9307522924
 21
52.6322819132
 31
0.0
  0
SPLINE
  5
1FB
330
1F
100
AcDbEntity
  8
0
  6
Continuous
 62
     7
370
    25
100
AcDbSpline
210
0.0
220
0.0
230
1.0
 70
     8
 71
     3
 72
    12
 73
     8
 74
     0
 42
0.000000001
 43
0.00000001
 40
0.0
 40
0.0
 40
0.0
 40
0.0
 40
0.0000841998736066
 40
0.3242335059504495
 40
0.6489427431624124
 40
0.9577930327733005
 40
1.0
 40
1.0
 40
1.0
 40
1.0
 10
246.1949252815795
 20
44.20124272021411
 30
0.0
 10
246.1949481106177
 20
44.20120343141597
 30
0.0
 10
246.282857258266
 20
44.04991169876052
 30
0.0
 10
246.5037369827822
 20
43.77894530093138
 30
0.0
 10
246.8447670944787
 20
43.42593267702352
 30
0.0
 10
247.1053139740522
 20
43.2276033026854
 30
0.0
 10
247.2418771304394
 20
43.14567876944601
 30
0.0
 10
247.2582958671376
 20
43.13582913374658
 30
0.0
  0
SPLINE
  5
1FC
330
1F
100
AcDbEntity
  8
0
  6
Continuous
 62
     7
370
    25
100
AcDbSpline
210
0.0
220
0.0
230
1.0
 70
     8
 71
     3
 72
    11
 73
     7
 74
     0
 42
0.000000001
 43
0.00000001
 40
0.0
 40
0.0
 40
0.0
 40
0.0
 40
0.1922419351856022
 40
0.4619131003881111
 40
0.7311155249334363
 40
1.0
 40
1.0
 40
1.0
 40
1.0
 10
245.5758002600278
 20
45.94108496918518
 30
0.0
 10
245.5840387427844
 20
45.83284131515916
 30
0.0
 10
245.6038339196739
 20
45.5727567411029
 30
0.0
 10
245.727466683848
 20
45.13416102036167
 30
0.0
 10
245.9216703628203
 20
44.65149022585054
 30
0.0
 10
246.1038761964503
 20
44.3512660890744
 30
0.0
 10
246.1949252815795
 20
44.20124272021411
 30
0.0
  0
LINE
  5
1FD
330
1F
100
AcDbEntity
  8
0
  6
Continuous
 62
     7
370
    25
100
AcDbLine
 10
248.6229373942
 20
42.9953848927
 30
0.0
 11
249.4432932025
 21
43.4689662204
 31
0.0
  0
LINE
  5
1FE
330
1F
100
AcDbEntity
  8
0
  6
Continuous
 62
     7
370
    25
100
AcDbLine
 10
246.9434951287
 20
47.7992111648
 30
0.0
 11
246.1231393204
 21
47.3256298372
 31
0.0
  0
SPLINE
  5
1FF
330
1F
100
AcDbEntity
  8
0
  6
Continuous
 62
     7
370
    25
100
AcDbSpline
210
0.0
220
0.0
230
1.0
 70
     8
 71
     3
 72
    26
 73
    22
 74
     0
 42
0.000000001
 43
0.00000001
 40
0.0
 40
0.0
 40
0.0
 40
0.0
 40
0.0166076577738727
 40
0.0742932154839969
 40
0.1320029847636524
 40
0.1897335372040015
 40
0.247489318843183
 40
0.3052741346124644
 40
0.3630908096096206
 40
0.4209404376033942
 40
0.4788212683981339
 40
0.5367270629566698
 40
0.5946430739453112
 40
0.6525390262860207
 40
0.7103761638041391
 40
0.7681022178523309
 40
0.8256549907564433
 40
0.8829722584318638
 40
0.9400095518350877
 40
0.9967601050563335
 40
0.9999999999999999
 40
0.9999999999999999
 40
0.9999999999999999
 40
0.9999999999999999
 10
218.0242163861826
 20
55.89846000352336
 30
0.0
 10
217.9679162080418
 20
55.76943070509367
 30
0.0
 10
217.7160612310578
 20
55.19222700770855
 30
0.0
 10
217.314990462057
 20
54.15815527135376
 30
0.0
 10
216.8506911433727
 20
52.80000889407398
 30
0.0
 10
216.460160640244
 20
51.44467793549034
 30
0.0
 10
216.1431175922978
 20
50.10008700608918
 30
0.0
 10
215.9021573445498
 20
48.77330981704242
 30
0.0
 10
215.7386430315257
 20
47.47151596605622
 30
0.0
 10
215.6538081714872
 20
46.20170583131823
 30
0.0
 10
215.6484523768997
 20
44.97075694717057
 30
0.0
 10
215.723026443011
 20
43.78541545570301
 30
0.0
 10
215.8775648129127
 20
42.65234008184683
 30
0.0
 10
216.1116438797007
 20
41.57807081611174
 30
0.0
 10
216.4243300880648
 20
40.56905274974641
 30
0.0
 10
216.8139685946281
 20
39.63135601912187
 30
0.0
 10
217.278586944421
 20
38.77139708781496
 30
0.0
 10
217.8139467231863
 20
37.99279579841776
 30
0.0
 10
218.4206459184239
 20
37.30711130131367
 30
0.0
 10
218.87246337465
 20
36.8851557421108
 30
0.0
 10
219.1244973023117
 20
36.6998414136109
 30
0.0
 10
219.138108860032
 20
36.68983317106127
 30
0.0
  0
LINE
  5
200
330
1F
100
AcDbEntity
  8
0
  6
Continuous
 62
     7
370
    25
100
AcDbLine
 10
230.7555815935
 20
67.4305212267
 30
0.0
 11
228.5202398682
 21
68.720956537
 31
0.0
  0
LINE
  5
201
330
1F
100
AcDbEntity
  8
0
  6
Continuous
 62
     7
370
    25
100
AcDbLine
 10
234.2902242451
 20
65.3900154573
 30
0.0
 11
233.1438339168
 21
66.0518125071
 31
0.0
  0
LINE
  5
202
330
1F
100
AcDbEntity
  8
0
  6
Continuous
 62
     7
370
    25
100
AcDbLine
 10
222.5148198616
 20
68.2348764694
 30
0.0
 11
215.9278117264
 21
71.7719162626
 31
0.0
  0
LINE
  5
203
330
1F
100
AcDbEntity
  8
0
  6
Continuous
 62
     7
370
    25
100
AcDbLine
 10
207.4358335393
 20
57.2103289571
 30
0.0
 11
213.445709402
 21
53.4898447632
 31
0.0
  0
LINE
  5
204
330
1F
100
AcDbEntity
  8
0
  6
Continuous
 62
     7
370
    25
100
AcDbLine
 10
205.7113820616
 20
59.4290461956
 30
0.0
 11
205.9556856104
 21
58.8315964946
 31
0.0
  0
LINE
  5
205
330
1F
100
AcDbEntity
  8
0
  6
Continuous
 62
     7
370
    25
100
AcDbLine
 10
214.7794149777
 20
71.9517770103
 30
0.0
 11
214.1398647043
 21
71.86456554
 31
0.0
  0
ARC
  5
206
330
1F
100
AcDbEntity
  8
0
  6
Continuous
 62
     7
370
    25
100
AcDbCircle
 10
233.2251743579
 20
36.1672272106
 30
0.0
 40
0.8266373793265138
100
AcDbArc
 50
139.6167806403
 51
184.12173296
  0
LWPOLYLINE
  5
207
330
1F
100
AcDbEntity
  8
0
  6
Continuous
 62
     7
370
    25
100
AcDbPolyline
 90
        3
 70
   128
 43
0.0
 10
234.0479397937
 20
34.1364222296
 10
233.7739694733
 20
34.1446296736
 10
233.4613346877
 20
34.2706949715
  0
LWPOLYLINE
  5
208
330
1F
100
AcDbEntity
  8
0
  6
Continuous
 62
     7
370
    25
100
AcDbPolyline
 90
        9
 70
   128
 43
0.0
 10
233.4118371654
 20
34.2992785719
 10
233.1137904578
 20
34.5232128203
 10
232.8422277762
 20
34.8309999032
 10
232.6212781912
 20
35.1952918943
 10
232.4705715976
 20
35.5837212472
 10
232.4035001566
 20
35.9617736083
 10
232.4260250129
 20
36.2958564391
 10
232.5361441914
 20
36.5562853404
 10
232.6705979065
 20
36.6890431231
  0
ARC
  5
209
330
1F
100
AcDbEntity
  8
0
  6
Continuous
 62
     7
370
    25
100
AcDbCircle
 10
233.8368683935
 20
34.8883073285
 30
0.0
 40
0.7263652117577215
100
AcDbArc
 50
234.1865462789
 51
288.5269225689
  0
LWPOLYLINE
  5
20A
330
1F
100
AcDbEntity
  8
0
  6
Continuous
 62
     7
370
    25
100
AcDbPolyline
 90
       10
 70
   128
 43
0.0
 10
233.4118371654
 20
34.4462558965
 10
233.1387018795
 20
34.6538889185
 10
232.8923035005
 20
34.9411080316
 10
232.6967605627
 20
35.2797985241
 10
232.5712130035
 20
35.6368076498
 10
232.5279518977
 20
35.9771879925
 10
232.5712130035
 20
36.2676201257
 10
232.6967605627
 20
36.4796751249
 10
232.8923035005
 20
36.5925965471
 10
233.0434789778
 20
36.6073978382
  0
ARC
  5
20B
330
1F
100
AcDbEntity
  8
0
  6
Continuous
 62
     7
370
    25
100
AcDbCircle
 10
233.7755120175
 20
34.9323708484
 30
0.0
 40
0.607097310519665
100
AcDbArc
 50
233.1989113527
 51
295.4907173249
  0
SPLINE
  5
20C
330
1F
100
AcDbEntity
  8
0
  6
Continuous
 62
     7
370
    25
100
AcDbSpline
210
0.0
220
0.0
230
1.0
 70
     8
 71
     3
 72
     9
 73
     5
 74
     0
 42
0.000000001
 43
0.00000001
 40
0.0
 40
0.0
 40
0.0
 40
0.0
 40
0.4954587007610271
 40
1.0
 40
1.0
 40
1.0
 40
1.0
 10
235.323631384769
 20
40.39161487133129
 30
0.0
 10
235.6279479869817
 20
40.44865902823773
 30
0.0
 10
236.2421598309664
 20
40.56379305821604
 30
0.0
 10
236.8770967575524
 20
40.56922748520586
 30
0.0
 10
237.197448659427
 20
40.57196937805994
 30
0.0
  0
SPLINE
  5
20D
330
1F
100
AcDbEntity
  8
0
  6
Continuous
 62
     7
370
    25
100
AcDbSpline
210
0.0
220
0.0
230
1.0
 70
     8
 71
     3
 72
    10
 73
     6
 74
     0
 42
0.000000001
 43
0.00000001
 40
0.0
 40
0.0
 40
0.0
 40
0.0
 40
0.0700774998090681
 40
0.5307771062547615
 40
1.0
 40
1.0
 40
1.0
 40
1.0
 10
237.197448659427
 20
40.57196937805994
 30
0.0
 10
237.2418563272518
 20
40.57034356987815
 30
0.0
 10
237.5782064180486
 20
40.55802946386111
 30
0.0
 10
238.2123866457533
 20
40.48708513641761
 30
0.0
 10
238.7832314292913
 20
40.34830231615269
 30
0.0
 10
239.071269885352
 20
40.27827489288519
 30
0.0
  0
LINE
  5
20E
330
1F
100
AcDbEntity
  8
0
  6
Continuous
 62
     7
370
    25
100
AcDbLine
 10
239.0712698854
 20
40.2782748929
 30
0.0
 11
239.0712698854
 21
39.1192416132
 31
0.0
  0
SPLINE
  5
20F
330
1F
100
AcDbEntity
  8
0
  6
Continuous
 62
     7
370
    25
100
AcDbSpline
210
0.0
220
0.0
230
1.0
 70
     8
 71
     3
 72
    10
 73
     6
 74
     0
 42
0.000000001
 43
0.00000001
 40
0.0
 40
0.0
 40
0.0
 40
0.0
 40
0.0700775011558975
 40
0.5307771069343484
 40
1.0
 40
1.0
 40
1.0
 40
1.0
 10
237.197448659427
 20
38.93888767672122
 30
0.0
 10
237.2418563271839
 20
38.93782761540005
 30
0.0
 10
237.5782064114323
 20
38.92979855797144
 30
0.0
 10
238.2123866480012
 20
38.96238577905918
 30
0.0
 10
238.7832314300452
 20
39.06663782470817
 30
0.0
 10
239.071269885352
 20
39.11924161322629
 30
0.0
  0
SPLINE
  5
210
330
1F
100
AcDbEntity
  8
0
  6
Continuous
 62
     7
370
    25
100
AcDbSpline
210
0.0
220
0.0
230
1.0
 70
     8
 71
     3
 72
     9
 73
     5
 74
     0
 42
0.000000001
 43
0.00000001
 40
0.0
 40
0.0
 40
0.0
 40
0.0
 40
0.4954586957335538
 40
1.0
 40
1.0
 40
1.0
 40
1.0
 10
235.323631384769
 20
39.23258159167238
 30
0.0
 10
235.6279479885576
 20
39.15713017278069
 30
0.0
 10
236.2421598419556
 20
39.00484418094846
 30
0.0
 10
236.8770967591159
 20
38.9610059001115
 30
0.0
 10
237.197448659427
 20
38.93888767672122
 30
0.0
  0
LINE
  5
211
330
1F
100
AcDbEntity
  8
0
  6
Continuous
 62
     7
370
    25
100
AcDbLine
 10
235.3236313848
 20
40.3916148713
 30
0.0
 11
235.3236313848
 21
39.2325815917
 31
0.0
  0
ARC
  5
212
330
1F
100
AcDbEntity
  8
0
  6
Continuous
 62
     7
370
    25
100
AcDbCircle
 10
239.3566563367
 20
42.4349318123
 30
0.0
 40
1.250970755949399
100
AcDbArc
 50
306.069863977
 51
43.1881360273
  0
ARC
  5
213
330
1F
100
AcDbEntity
  8
0
  6
Continuous
 62
     7
370
    25
100
AcDbCircle
 10
237.5109239488
 20
44.8543026685
 30
0.0
 40
4.293791467652366
100
AcDbArc
 50
265.8133028394
 51
306.9699284198
  0
ARC
  5
214
330
1F
100
AcDbEntity
  8
0
  6
Continuous
 62
     7
370
    25
100
AcDbCircle
 10
237.0910332906
 20
44.4344674942
 30
0.0
 40
3.863963758657648
100
AcDbArc
 50
227.3219217043
 51
271.5781521029
  0
ARC
  5
215
330
1F
100
AcDbEntity
  8
0
  6
Continuous
 62
     7
370
    25
100
AcDbCircle
 10
235.3788700281
 20
42.455984286
 30
0.0
 40
1.251513524131797
100
AcDbArc
 50
126.0841519928
 51
223.5452986135
  0
ARC
  5
216
330
1F
100
AcDbEntity
  8
0
  6
Continuous
 62
     7
370
    25
100
AcDbCircle
 10
236.534144804
 20
41.2672815177
 30
0.0
 40
2.902003658409273
100
AcDbArc
 50
113.7045774877
 51
130.6997474685
  0
ARC
  5
217
330
1F
100
AcDbEntity
  8
0
  6
Continuous
 62
     7
370
    25
100
AcDbCircle
 10
238.3019887894
 20
41.4479302803
 30
0.0
 40
2.6959951547085
100
AcDbArc
 50
43.499498695
 51
66.7208147203
  0
LINE
  5
218
330
1F
100
AcDbEntity
  8
0
  6
Continuous
 62
     7
370
    25
100
AcDbLine
 10
240.2576108162
 20
43.3037137706
 30
0.0
 11
240.2687520721
 21
43.2910913778
 31
0.0
  0
SPLINE
  5
219
330
1F
100
AcDbEntity
  8
0
  6
Continuous
 62
     7
370
    25
100
AcDbSpline
210
0.0
220
0.0
230
1.0
 70
     8
 71
     3
 72
     9
 73
     5
 74
     0
 42
0.000000001
 43
0.00000001
 40
0.0
 40
0.0
 40
0.0
 40
0.0
 40
0.2686340772971876
 40
1.0
 40
1.0
 40
1.0
 40
1.0
 10
240.09319200885
 20
41.42377255884231
 30
0.0
 10
240.0002704214129
 20
41.33764840405143
 30
0.0
 10
239.6543664751527
 20
41.01704814492792
 30
0.0
 10
239.3175823313996
 20
40.59034848406742
 30
0.0
 10
239.071269885352
 20
40.27827489288519
 30
0.0
  0
SPLINE
  5
21A
330
1F
100
AcDbEntity
  8
0
  6
Continuous
 62
     7
370
    25
100
AcDbSpline
210
0.0
220
0.0
230
1.0
 70
     8
 71
     3
 72
    10
 73
     6
 74
     0
 42
0.000000001
 43
0.00000001
 40
0.0
 40
0.0
 40
0.0
 40
0.0
 40
0.0700764835877225
 40
0.5307768333151895
 40
1.0
 40
1.0
 40
1.0
 40
1.0
 10
234.4717355750645
 20
41.59378176617215
 30
0.0
 10
234.4919245730384
 20
41.57062641386136
 30
0.0
 10
234.6448410988655
 20
41.3952419775343
 30
0.0
 10
234.9331544355388
 20
41.01682984906853
 30
0.0
 10
235.19267954616
 20
40.60128935025244
 30
0.0
 10
235.323631384769
 20
40.39161487133129
 30
0.0
  0
SPLINE
  5
21B
330
1F
100
AcDbEntity
  8
0
  6
Continuous
 62
     7
370
    25
100
AcDbSpline
210
0.0
220
0.0
230
1.0
 70
     8
 71
     3
 72
     9
 73
     5
 74
     0
 42
0.000000001
 43
0.00000001
 40
0.0
 40
0.0
 40
0.0
 40
0.0
 40
0.2686340709846099
 40
1.0
 40
1.0
 40
1.0
 40
1.0
 10
240.09319200885
 20
39.7906908575036
 30
0.0
 10
240.000270421025
 20
39.71160347155001
 30
0.0
 10
239.6543664651927
 20
39.41719783021153
 30
0.0
 10
239.3175823284202
 20
39.24510467994682
 30
0.0
 10
239.071269885352
 20
39.11924161322629
 30
0.0
  0
SPLINE
  5
21C
330
1F
100
AcDbEntity
  8
0
  6
Continuous
 62
     7
370
    25
100
AcDbSpline
210
0.0
220
0.0
230
1.0
 70
     8
 71
     3
 72
     9
 73
     5
 74
     0
 42
0.000000001
 43
0.00000001
 40
0.0
 40
0.0
 40
0.0
 40
0.0
 40
0.2575516158870447
 40
1.0
 40
1.0
 40
1.0
 40
1.0
 10
241.115114132348
 20
42.09522199323534
 30
0.0
 10
241.0293221834664
 20
42.05473452236484
 30
0.0
 10
240.6962163375332
 20
41.89753313680546
 30
0.0
 10
240.3501376047676
 20
41.6256395287751
 30
0.0
 10
240.09319200885
 20
41.42377255884231
 30
0.0
  0
LINE
  5
21D
330
1F
100
AcDbEntity
  8
0
  6
Continuous
 62
     7
370
    25
100
AcDbLine
 10
241.1151141323
 20
42.0952219932
 30
0.0
 11
241.1151141323
 21
40.9361887136
 31
0.0
  0
SPLINE
  5
21E
330
1F
100
AcDbEntity
  8
0
  6
Continuous
 62
     7
370
    25
100
AcDbSpline
210
0.0
220
0.0
230
1.0
 70
     8
 71
     3
 72
     9
 73
     5
 74
     0
 42
0.000000001
 43
0.00000001
 40
0.0
 40
0.0
 40
0.0
 40
0.0
 40
0.2575516652886359
 40
1.0
 40
1.0
 40
1.0
 40
1.0
 10
241.115114132348
 20
40.93618871357644
 30
0.0
 10
241.0293221864594
 20
40.82413976471535
 30
0.0
 10
240.6962164160406
 20
40.38908550585235
 30
0.0
 10
240.3501376284073
 20
40.04566376046793
 30
0.0
 10
240.09319200885
 20
39.7906908575036
 30
0.0
  0
SPLINE
  5
21F
330
1F
100
AcDbEntity
  8
0
  6
Continuous
 62
     7
370
    25
100
AcDbSpline
210
0.0
220
0.0
230
1.0
 70
     8
 71
     3
 72
     9
 73
     5
 74
     0
 42
0.000000001
 43
0.00000001
 40
0.0
 40
0.0
 40
0.0
 40
0.0
 40
0.4954575743311595
 40
1.0
 40
1.0
 40
1.0
 40
1.0
 10
233.61983976536
 20
42.32190042944893
 30
0.0
 10
233.7581910666966
 20
42.23140487012136
 30
0.0
 10
234.037430518275
 20
42.04875439909013
 30
0.0
 10
234.3260930706763
 20
41.74635506148706
 30
0.0
 10
234.4717355750645
 20
41.59378176617215
 30
0.0
  0
SPLINE
  5
220
330
1F
100
AcDbEntity
  8
0
  6
Continuous
 62
     7
370
    25
100
AcDbSpline
210
0.0
220
0.0
230
1.0
 70
     8
 71
     3
 72
    10
 73
     6
 74
     0
 42
0.000000001
 43
0.00000001
 40
0.0
 40
0.0
 40
0.0
 40
0.0
 40
0.0700764849345762
 40
0.5307768339947884
 40
1.0
 40
1.0
 40
1.0
 40
1.0
 10
234.4717355750645
 20
39.96070006483343
 30
0.0
 10
234.4919245730075
 20
39.93811046960926
 30
0.0
 10
234.6448410958574
 20
39.76701122218692
 30
0.0
 10
234.9331544365609
 20
39.49213031484846
 30
0.0
 10
235.1926795465028
 20
39.31962484115363
 30
0.0
 10
235.323631384769
 20
39.23258159167238
 30
0.0
  0
SPLINE
  5
221
330
1F
100
AcDbEntity
  8
0
  6
Continuous
 62
     7
370
    25
100
AcDbSpline
210
0.0
220
0.0
230
1.0
 70
     8
 71
     3
 72
     9
 73
     5
 74
     0
 42
0.000000001
 43
0.00000001
 40
0.0
 40
0.0
 40
0.0
 40
0.0
 40
0.4954575693037178
 40
0.9999999999999999
 40
0.9999999999999999
 40
0.9999999999999999
 40
0.9999999999999999
 10
233.61983976536
 20
41.16286714979002
 30
0.0
 10
233.7581910674131
 20
40.93987600694025
 30
0.0
 10
234.037430523271
 20
40.48980488750382
 30
0.0
 10
234.3260930713871
 20
40.1381333015948
 30
0.0
 10
234.4717355750645
 20
39.96070006483343
 30
0.0
  0
LINE
  5
222
330
1F
100
AcDbEntity
  8
0
  6
Continuous
 62
     7
370
    25
100
AcDbLine
 10
233.6198397654
 20
42.3219004294
 30
0.0
 11
233.6198397654
 21
41.1628671498
 31
0.0
  0
SPLINE
  5
223
330
1F
100
AcDbEntity
  8
0
  6
Continuous
 62
     7
370
    25
100
AcDbSpline
210
0.0
220
0.0
230
1.0
 70
     8
 71
     3
 72
     9
 73
     5
 74
     0
 42
0.000000001
 43
0.00000001
 40
0.0
 40
0.0
 40
0.0
 40
0.0
 40
0.1927237511768713
 40
1.0
 40
1.0
 40
1.0
 40
1.0
 10
241.115114132348
 20
42.09522199323534
 30
0.0
 10
241.0620194643873
 20
42.18221408148677
 30
0.0
 10
240.7865232287837
 20
42.63359637204621
 30
0.0
 10
240.5000306923069
 20
42.99740074681596
 30
0.0
 10
240.2687520721441
 20
43.29109137778553
 30
0.0
  0
SPLINE
  5
224
330
1F
100
AcDbEntity
  8
0
  6
Continuous
 62
     7
370
    25
100
AcDbSpline
210
0.0
220
0.0
230
1.0
 70
     8
 71
     3
 72
     9
 73
     5
 74
     0
 42
0.000000001
 43
0.00000001
 40
0.0
 40
0.0
 40
0.0
 40
0.0
 40
0.268633951083091
 40
0.9999999999999999
 40
0.9999999999999999
 40
0.9999999999999999
 40
0.9999999999999999
 10
234.6417625474025
 20
43.46739847557569
 30
0.0
 10
234.5488409630403
 20
43.3812743165465
 30
0.0
 10
234.2029368657081
 20
43.0606738910159
 30
0.0
 10
233.8661524516249
 20
42.63397414024446
 30
0.0
 10
233.61983976536
 20
42.32190042944892
 30
0.0
  0
LINE
  5
225
330
1F
100
AcDbEntity
  8
0
  6
Continuous
 62
     7
370
    25
100
AcDbLine
 10
235.3674772781
 20
43.9828091251
 30
0.0
 11
234.6417625474
 21
43.4673984756
 31
0.0
  0
SPLINE
  5
226
330
1F
100
AcDbEntity
  8
0
  6
Continuous
 62
     7
370
    25
100
AcDbSpline
210
0.0
220
0.0
230
1.0
 70
     8
 71
     3
 72
     9
 73
     5
 74
     0
 42
0.000000001
 43
0.00000001
 40
0.0
 40
0.0
 40
0.0
 40
0.0
 40
0.3402508088561162
 40
0.9999999999999999
 40
0.9999999999999999
 40
0.9999999999999999
 40
0.9999999999999999
 10
240.257610816158
 20
43.30371377058185
 30
0.0
 10
240.160089759305
 20
43.4082312111668
 30
0.0
 10
239.8734745498338
 20
43.71540885149724
 30
0.0
 10
239.5950121637114
 20
43.90224238317808
 30
0.0
 10
239.4112968297032
 20
44.02550565458308
 30
0.0
  0
LINE
  5
227
330
1F
100
AcDbEntity
  8
0
  6
Continuous
 62
     7
370
    25
100
AcDbLine
 10
237.1974486594
 20
45.3079060268
 30
0.0
 11
235.3236313848
 21
45.3645756358
 31
0.0
  0
LINE
  5
228
330
1F
100
AcDbEntity
  8
0
  6
Continuous
 62
     7
370
    25
100
AcDbLine
 10
235.3236313848
 20
45.3645756358
 30
0.0
 11
235.3236313848
 21
47.0464222102
 31
0.0
  0
SPLINE
  5
229
330
1F
100
AcDbEntity
  8
0
  6
Continuous
 62
     7
370
    25
100
AcDbSpline
210
0.0
220
0.0
230
1.0
 70
     8
 71
     3
 72
     9
 73
     5
 74
     0
 42
0.000000001
 43
0.00000001
 40
0.0
 40
0.0
 40
0.0
 40
0.0
 40
0.4954587007610271
 40
1.0
 40
1.0
 40
1.0
 40
1.0
 10
235.3236313847689
 20
47.04642221017492
 30
0.0
 10
235.6279479869816
 20
47.10346636708135
 30
0.0
 10
236.2421598309664
 20
47.21860039705967
 30
0.0
 10
236.8770967575524
 20
47.2240348240495
 30
0.0
 10
237.1974486594269
 20
47.22677671690357
 30
0.0
  0
SPLINE
  5
22A
330
1F
100
AcDbEntity
  8
0
  6
Continuous
 62
     7
370
    25
100
AcDbSpline
210
0.0
220
0.0
230
1.0
 70
     8
 71
     3
 72
    10
 73
     6
 74
     0
 42
0.000000001
 43
0.00000001
 40
0.0
 40
0.0
 40
0.0
 40
0.0
 40
0.0700774932328106
 40
0.5307770754840139
 40
1.0
 40
1.0
 40
1.0
 40
1.0
 10
237.1974486594269
 20
47.22677671690357
 30
0.0
 10
237.241856327295
 20
47.22515104450138
 30
0.0
 10
237.5782064304845
 20
47.21283796645704
 30
0.0
 10
238.2123867042982
 20
47.14189263837646
 30
0.0
 10
238.7832314377246
 20
47.00310971242232
 30
0.0
 10
239.0712698853519
 20
46.93308223172883
 30
0.0
  0
LINE
  5
22B
330
1F
100
AcDbEntity
  8
0
  6
Continuous
 62
     7
370
    25
100
AcDbLine
 10
239.0712698854
 20
45.2512356574
 30
0.0
 11
239.0712698854
 21
46.9330822317
 31
0.0
  0
LINE
  5
22C
330
1F
100
AcDbEntity
  8
0
  6
Continuous
 62
     7
370
    25
100
AcDbLine
 10
239.0712698854
 20
45.2512356574
 30
0.0
 11
237.1974486594
 21
45.3079060268
 31
0.0
  0
ARC
  5
22D
330
1F
100
AcDbEntity
  8
0
  6
Continuous
 62
     7
370
    25
100
AcDbCircle
 10
237.0910332906
 20
51.0892748331
 30
0.0
 40
3.863963758657661
100
AcDbArc
 50
227.3219217043
 51
271.5781521029
  0
ARC
  5
22E
330
1F
100
AcDbEntity
  8
0
  6
Continuous
 62
     7
370
    25
100
AcDbCircle
 10
235.3788700281
 20
49.1107916248
 30
0.0
 40
1.251513524131767
100
AcDbArc
 50
126.0841519928
 51
223.5452986135
  0
ARC
  5
22F
330
1F
100
AcDbEntity
  8
0
  6
Continuous
 62
     7
370
    25
100
AcDbCircle
 10
237.2240289152
 20
46.6916793041
 30
0.0
 40
4.293787574189711
100
AcDbArc
 50
85.8132852053
 51
126.9699392631
  0
ARC
  5
230
330
1F
100
AcDbEntity
  8
0
  6
Continuous
 62
     7
370
    25
100
AcDbCircle
 10
237.6439219143
 20
47.1115114608
 30
0.0
 40
3.863962833046654
100
AcDbArc
 50
47.3218822828
 51
91.578171871
  0
ARC
  5
231
330
1F
100
AcDbEntity
  8
0
  6
Continuous
 62
     7
370
    25
100
AcDbCircle
 10
239.3560912193
 20
49.0899935619
 30
0.0
 40
1.25150915860798
100
AcDbArc
 50
306.0839185985
 51
43.5454016998
  0
ARC
  5
232
330
1F
100
AcDbEntity
  8
0
  6
Continuous
 62
     7
370
    25
100
AcDbCircle
 10
237.5109239488
 20
51.5091100074
 30
0.0
 40
4.29379146765223
100
AcDbArc
 50
265.8133028394
 51
306.9699284198
  0
SPLINE
  5
233
330
1F
100
AcDbEntity
  8
0
  6
Continuous
 62
     7
370
    25
100
AcDbSpline
210
0.0
220
0.0
230
1.0
 70
     8
 71
     3
 72
     9
 73
     5
 74
     0
 42
0.000000001
 43
0.00000001
 40
0.0
 40
0.0
 40
0.0
 40
0.0
 40
0.7581486366617387
 40
1.0
 40
1.0
 40
1.0
 40
1.0
 10
239.0712698853519
 20
46.93308223172883
 30
0.0
 10
239.326751833927
 20
47.25610493958709
 30
0.0
 10
239.6637331806192
 20
47.6821727213358
 30
0.0
 10
240.0095546218231
 20
48.00137934142965
 30
0.0
 10
240.0931920088499
 20
48.07857989768594
 30
0.0
  0
SPLINE
  5
234
330
1F
100
AcDbEntity
  8
0
  6
Continuous
 62
     7
370
    25
100
AcDbSpline
210
0.0
220
0.0
230
1.0
 70
     8
 71
     3
 72
    10
 73
     6
 74
     0
 42
0.000000001
 43
0.00000001
 40
0.0
 40
0.0
 40
0.0
 40
0.0
 40
0.0700764770114655
 40
0.5307768025443786
 40
1.0
 40
1.0
 40
1.0
 40
1.0
 10
234.4717355750645
 20
48.24858910501578
 30
0.0
 10
234.4919245730581
 20
48.22543388846349
 30
0.0
 10
234.6448411045194
 20
48.05005047411409
 30
0.0
 10
234.933154462155
 20
47.67163732263814
 30
0.0
 10
235.192679549994
 20
47.25609674243159
 30
0.0
 10
235.3236313847689
 20
47.04642221017492
 30
0.0
  0
LINE
  5
235
330
1F
100
AcDbEntity
  8
0
  6
Continuous
 62
     7
370
    25
100
AcDbLine
 10
240.0931920088
 20
46.1597092076
 30
0.0
 11
239.0712698854
 21
45.2512356574
 31
0.0
  0
SPLINE
  5
236
330
1F
100
AcDbEntity
  8
0
  6
Continuous
 62
     7
370
    25
100
AcDbSpline
210
0.0
220
0.0
230
1.0
 70
     8
 71
     3
 72
     9
 73
     5
 74
     0
 42
0.000000001
 43
0.00000001
 40
0.0
 40
0.0
 40
0.0
 40
0.0
 40
0.776286580338344
 40
1.0
 40
1.0
 40
1.0
 40
1.0
 10
240.0931920088499
 20
48.07857989768594
 30
0.0
 10
240.3617970281812
 20
48.28842170283369
 30
0.0
 10
240.7078097329405
 20
48.55873657167542
 30
0.0
 10
241.0406526950779
 20
48.71505810687314
 30
0.0
 10
241.1151141323479
 20
48.75002933207897
 30
0.0
  0
LINE
  5
237
330
1F
100
AcDbEntity
  8
0
  6
Continuous
 62
     7
370
    25
100
AcDbLine
 10
241.1151141323
 20
47.0681827577
 30
0.0
 11
241.1151141323
 21
48.7500293321
 31
0.0
  0
LINE
  5
238
330
1F
100
AcDbEntity
  8
0
  6
Continuous
 62
     7
370
    25
100
AcDbLine
 10
241.1151141323
 20
47.0681827577
 30
0.0
 11
240.0931920088
 21
46.1597092076
 31
0.0
  0
LWPOLYLINE
  5
239
330
1F
100
AcDbEntity
  8
0
  6
Continuous
 62
     7
370
    25
100
AcDbPolyline
 90
       17
 70
   128
 43
0.0
 10
240.556119822
 20
47.4694407858
 10
240.520883081
 20
47.1725083128
 10
240.4205314347
 20
46.8581299631
 10
240.2703470669
 20
46.5741647825
 10
240.0931920088
 20
46.3638448242
 10
239.9160369508
 20
46.2591881428
 10
239.7658519244
 20
46.2761286225
 10
239.6655002781
 20
46.4120887924
 10
239.6302635372
 20
46.6463670256
 10
239.6655002781
 20
46.9432994985
 10
239.7658519244
 20
47.2576778482
 10
239.9160369508
 20
47.541643409
 10
240.0931920088
 20
47.7519641278
 10
240.2703470669
 20
47.8566200487
 10
240.4205314347
 20
47.8396791888
 10
240.520883081
 20
47.703719019
 10
240.556119822
 20
47.4694407858
  0
LINE
  5
23A
330
1F
100
AcDbEntity
  8
0
  6
Continuous
 62
     7
370
    25
100
AcDbLine
 10
234.4717355751
 20
46.3297184149
 30
0.0
 11
233.6198397654
 21
47.2948611939
 31
0.0
  0
LINE
  5
23B
330
1F
100
AcDbEntity
  8
0
  6
Continuous
 62
     7
370
    25
100
AcDbLine
 10
233.6198397654
 20
47.2948611939
 30
0.0
 11
233.6198397654
 21
48.9767077683
 31
0.0
  0
SPLINE
  5
23C
330
1F
100
AcDbEntity
  8
0
  6
Continuous
 62
     7
370
    25
100
AcDbSpline
210
0.0
220
0.0
230
1.0
 70
     8
 71
     3
 72
     9
 73
     5
 74
     0
 42
0.000000001
 43
0.00000001
 40
0.0
 40
0.0
 40
0.0
 40
0.0
 40
0.4954575743311595
 40
1.0
 40
1.0
 40
1.0
 40
1.0
 10
233.61983976536
 20
48.97670776829256
 30
0.0
 10
233.7581910666966
 20
48.88621220896498
 30
0.0
 10
234.037430518275
 20
48.70356173793375
 30
0.0
 10
234.3260930706762
 20
48.40116240033069
 30
0.0
 10
234.4717355750645
 20
48.24858910501578
 30
0.0
  0
LINE
  5
23D
330
1F
100
AcDbEntity
  8
0
  6
Continuous
 62
     7
370
    25
100
AcDbLine
 10
235.3236313848
 20
45.3645756358
 30
0.0
 11
234.4717355751
 21
46.3297184149
 31
0.0
  0
LWPOLYLINE
  5
23E
330
1F
100
AcDbEntity
  8
0
  6
Continuous
 62
     7
370
    25
100
AcDbPolyline
 90
        3
 70
   128
 43
0.0
 10
240.0931920088
 20
45.9147473801
 10
239.6955035659
 20
45.6274022311
 10
239.2438427908
 20
45.4046505672
  0
ARC
  5
23F
330
1F
100
AcDbEntity
  8
0
  6
Continuous
 62
     7
370
    25
100
AcDbCircle
 10
237.3719485392
 20
50.3441290075
 30
0.0
 40
5.288063700065877
100
AcDbArc
 50
250.6199033697
 51
285.9155928052
  0
ARC
  5
240
330
1F
100
AcDbEntity
  8
0
  6
Continuous
 62
     7
370
    25
100
AcDbCircle
 10
235.908117246
 20
47.2515795724
 30
0.0
 40
1.848696322249882
100
AcDbArc
 50
197.2864289786
 51
245.5808535969
  0
LWPOLYLINE
  5
241
330
1F
100
AcDbEntity
  8
0
  6
Continuous
 62
     7
370
    25
100
AcDbPolyline
 90
        3
 70
   128
 43
0.0
 10
240.5549021732
 20
46.5701610012
 10
240.3861317038
 20
46.2413606327
 10
240.0931920088
 20
45.9147473801
  0
LWPOLYLINE
  5
242
330
1F
100
AcDbEntity
  8
0
  6
Continuous
 62
     7
370
    25
100
AcDbPolyline
 90
        9
 70
   128
 43
0.0
 10
240.009323073
 20
46.4769391771
 10
240.1656365145
 20
46.662515924
 10
240.2981527917
 20
46.9130731008
 10
240.3866987106
 20
47.1904661426
 10
240.4177905725
 20
47.4524650703
 10
240.3866987106
 20
47.6591804874
 10
240.2981527917
 20
47.7791460365
 10
240.1656365145
 20
47.7940938317
 10
240.1276806433
 20
47.7806953973
  0
LWPOLYLINE
  5
243
330
1F
100
AcDbEntity
  8
0
  6
Continuous
 62
     7
370
    25
100
AcDbPolyline
 90
        4
 70
   128
 43
0.0
 10
239.6440376541
 20
46.4905616597
 10
239.7204940129
 20
46.399543356
 10
239.8530102901
 20
46.3845955609
 10
240.009323073
 20
46.4769391771
  0
SPLINE
  5
244
330
1F
100
AcDbEntity
  8
0
  6
Continuous
 62
     7
370
    25
100
AcDbSpline
210
0.0
220
0.0
230
1.0
 70
     8
 71
     3
 72
     9
 73
     5
 74
     0
 42
0.000000001
 43
0.00000001
 40
0.0
 40
0.0
 40
0.0
 40
0.0
 40
0.4954584933421242
 40
1.0
 40
1.0
 40
1.0
 40
1.0
 10
241.1151141323479
 20
48.75002933207897
 30
0.0
 10
240.9767627483755
 20
48.97302046161099
 30
0.0
 10
240.6975236479634
 20
49.42309071477757
 30
0.0
 10
240.4088624915778
 20
49.77476196420623
 30
0.0
 10
240.2632209568214
 20
49.95219470624122
 30
0.0
  0
SPLINE
  5
245
330
1F
100
AcDbEntity
  8
0
  6
Continuous
 62
     7
370
    25
100
AcDbSpline
210
0.0
220
0.0
230
1.0
 70
     8
 71
     3
 72
     9
 73
     5
 74
     0
 42
0.000000001
 43
0.00000001
 40
0.0
 40
0.0
 40
0.0
 40
0.0
 40
0.2418512496089691
 40
1.0
 40
1.0
 40
1.0
 40
1.0
 10
234.6417625474025
 20
50.12220581441932
 30
0.0
 10
234.5581251627713
 20
50.04500525483272
 30
0.0
 10
234.2123035688519
 20
49.72579847086353
 30
0.0
 10
233.87532195489
 20
49.29973059554617
 30
0.0
 10
233.61983976536
 20
48.97670776829256
 30
0.0
  0
SPLINE
  5
246
330
1F
100
AcDbEntity
  8
0
  6
Continuous
 62
     7
370
    25
100
AcDbSpline
210
0.0
220
0.0
230
1.0
 70
     8
 71
     3
 72
    10
 73
     6
 74
     0
 42
0.000000001
 43
0.00000001
 40
0.0
 40
0.0
 40
0.0
 40
0.0
 40
0.070077288599963
 40
0.5307773515630285
 40
0.9999999999999999
 40
0.9999999999999999
 40
0.9999999999999999
 40
0.9999999999999999
 10
237.537505238281
 20
50.97400861503205
 30
0.0
 10
237.4930977905755
 20
50.97506901169857
 30
0.0
 10
237.1567481978088
 20
50.98310063714391
 30
0.0
 10
236.5225690021092
 20
50.95051193517732
 30
0.0
 10
235.9517251002521
 20
50.84625828620957
 30
0.0
 10
235.6636873050785
 20
50.79365372813375
 30
0.0
  0
SPLINE
  5
247
330
1F
100
AcDbEntity
  8
0
  6
Continuous
 62
     7
370
    25
100
AcDbSpline
210
0.0
220
0.0
230
1.0
 70
     8
 71
     3
 72
     9
 73
     5
 74
     0
 42
0.000000001
 43
0.00000001
 40
0.0
 40
0.0
 40
0.0
 40
0.0
 40
0.2237131139061748
 40
1.0
 40
1.0
 40
1.0
 40
1.0
 10
235.6636873050785
 20
50.79365372813375
 30
0.0
 10
235.589224876138
 20
50.75868305331129
 30
0.0
 10
235.2563770263168
 20
50.60236376468381
 30
0.0
 10
234.910366208061
 20
50.33204822386462
 30
0.0
 10
234.6417625474025
 20
50.12220581441932
 30
0.0
  0
SPLINE
  5
248
330
1F
100
AcDbEntity
  8
0
  6
Continuous
 62
     7
370
    25
100
AcDbSpline
210
0.0
220
0.0
230
1.0
 70
     8
 71
     3
 72
     9
 73
     5
 74
     0
 42
0.000000001
 43
0.00000001
 40
0.0
 40
0.0
 40
0.0
 40
0.0
 40
0.4954578210254061
 40
1.0
 40
1.0
 40
1.0
 40
1.0
 10
239.4113258056615
 20
50.68031374968766
 30
0.0
 10
239.1070091946887
 20
50.75576510250684
 30
0.0
 10
238.4927962424279
 20
50.90805122983654
 30
0.0
 10
237.8578582410234
 20
50.95189007072597
 30
0.0
 10
237.537505238281
 20
50.97400861503205
 30
0.0
  0
SPLINE
  5
249
330
1F
100
AcDbEntity
  8
0
  6
Continuous
 62
     7
370
    25
100
AcDbSpline
210
0.0
220
0.0
230
1.0
 70
     8
 71
     3
 72
    10
 73
     6
 74
     0
 42
0.000000001
 43
0.00000001
 40
0.0
 40
0.0
 40
0.0
 40
0.0
 40
0.0700784751993731
 40
0.530778559921299
 40
1.0
 40
1.0
 40
1.0
 40
1.0
 10
240.2632209568214
 20
49.95219470624122
 30
0.0
 10
240.2430312999081
 20
49.97478514695435
 30
0.0
 10
240.0901136316611
 20
50.14588649520129
 30
0.0
 10
239.8017992193358
 20
50.42076580007144
 30
0.0
 10
239.5422763247119
 20
50.59327084860792
 30
0.0
 10
239.4113258056615
 20
50.68031374968766
 30
0.0
  0
ARC
  5
24A
330
1F
100
AcDbEntity
  8
0
  6
Continuous
 62
     7
370
    25
100
AcDbCircle
 10
236.5074415198
 20
49.5767874928
 30
0.0
 40
3.146572933567069
100
AcDbArc
 50
20.3726888833
 51
68.298922794
  0
LWPOLYLINE
  5
24B
330
1F
100
AcDbEntity
  8
0
  6
Continuous
 62
     7
370
    25
100
AcDbPolyline
 90
       14
 70
   128
 43
0.0
 10
236.4193661402
 20
51.3092604387
 10
236.412883428
 20
51.4876705084
 10
236.4572047905
 20
51.9163278269
 10
236.5879482659
 20
52.2723165767
 10
236.7985547508
 20
52.5377888386
 10
237.0784664597
 20
52.6994301981
 10
237.4136458579
 20
52.749136606
 10
237.7872855725
 20
52.6844159692
 10
238.1806500122
 20
52.5085121853
 10
238.574015769
 20
52.2302462941
 10
238.9476554836
 20
51.8635716989
 10
239.2828348818
 20
51.4268753952
 10
239.5627465907
 20
50.9420548555
 10
239.7688354603
 20
50.4467831915
  0
LINE
  5
24C
330
1F
100
AcDbEntity
  8
0
  6
Continuous
 62
     7
370
    25
100
AcDbLine
 10
238.7146443267
 20
50.8318871881
 30
0.0
 11
238.5934681859
 21
51.1442070528
 31
0.0
  0
LINE
  5
24D
330
1F
100
AcDbEntity
  8
0
  6
Continuous
 62
     7
370
    25
100
AcDbLine
 10
238.5934681859
 20
51.1442070528
 30
0.0
 11
237.555700823
 21
51.7432973994
 31
0.0
  0
LINE
  5
24E
330
1F
100
AcDbEntity
  8
0
  6
Continuous
 62
     7
370
    25
100
AcDbLine
 10
237.0368178001
 20
51.0050194733
 30
0.0
 11
237.555700823
 21
51.7432973994
 31
0.0
  0
ARC
  5
24F
330
1F
100
AcDbEntity
  8
0
  6
Continuous
 62
     7
370
    25
100
AcDbCircle
 10
240.0335011247
 20
51.6103193148
 30
0.0
 40
1.802426952626811
100
AcDbArc
 50
188.5675695118
 51
201.5371119758
  0
LINE
  5
250
330
1F
100
AcDbEntity
  8
0
  6
Continuous
 62
     7
370
    25
100
AcDbLine
 10
237.9356968092
 20
51.5239312799
 30
0.0
 11
237.0368178001
 21
51.0050194733
 31
0.0
  0
LINE
  5
251
330
1F
100
AcDbEntity
  8
0
  6
Continuous
 62
     7
370
    25
100
AcDbLine
 10
238.3569196572
 20
50.9486415211
 30
0.0
 11
238.1908663424
 21
51.376624341
 31
0.0
  0
LINE
  5
252
330
1F
100
AcDbEntity
  8
0
  6
Continuous
 62
     7
370
    25
100
AcDbLine
 10
238.3791810958
 20
50.8912644035
 30
0.0
 11
238.3569196572
 21
50.9486415211
 31
0.0
  0
ARC
  5
253
330
1F
100
AcDbEntity
  8
0
  6
Continuous
 62
     7
370
    25
100
AcDbCircle
 10
245.6724860246
 20
44.1790499707
 30
0.0
 40
3.241323606228596
100
AcDbArc
 50
351.4937266314
 51
68.4452061758
  0
LWPOLYLINE
  5
254
330
1F
100
AcDbEntity
  8
0
  6
Continuous
 62
     7
370
    25
100
AcDbPolyline
 90
       24
 70
   128
 43
0.0
 10
245.6117558023
 20
46.002606842
 10
245.6052730902
 20
46.1810169117
 10
245.6495931356
 20
46.6096749906
 10
245.7803352939
 20
46.9656645007
 10
245.9909430959
 20
47.2311360022
 10
246.2708534877
 20
47.3927781221
 10
246.606034203
 20
47.4424837697
 10
246.9796739176
 20
47.3777631329
 10
247.3730383573
 20
47.201859349
 10
247.766402797
 20
46.9235942181
 10
248.1400451458
 20
46.5569181023
 10
248.4752232269
 20
46.1202225588
 10
248.7551336187
 20
45.6354027795
 10
248.9657414207
 20
45.1267686856
 10
249.096483579
 20
44.6198274927
 10
249.1408062586
 20
44.1399970579
 10
249.096483579
 20
43.7113397393
 10
248.9657414207
 20
43.3553498489
 10
248.7551336187
 20
43.0898787276
 10
248.4752232269
 20
42.9282362275
 10
248.1400451458
 20
42.8785290592
 10
247.766402797
 20
42.9432519772
 10
247.3730383573
 20
43.1191553808
 10
247.3730383573
 20
43.1191553808
  0
LINE
  5
255
330
1F
100
AcDbEntity
  8
0
  6
Continuous
 62
     7
370
    25
100
AcDbLine
 10
248.304740871
 20
44.5001859437
 30
0.0
 11
247.7858552139
 21
45.8375549768
 31
0.0
  0
LINE
  5
256
330
1F
100
AcDbEntity
  8
0
  6
Continuous
 62
     7
370
    25
100
AcDbLine
 10
247.7858552139
 20
45.8375549768
 30
0.0
 11
246.7480891681
 21
46.436644563
 31
0.0
  0
LINE
  5
257
330
1F
100
AcDbEntity
  8
0
  6
Continuous
 62
     7
370
    25
100
AcDbLine
 10
246.2292061452
 20
45.698366637
 30
0.0
 11
246.7480891681
 21
46.436644563
 31
0.0
  0
LINE
  5
258
330
1F
100
AcDbEntity
  8
0
  6
Continuous
 62
     7
370
    25
100
AcDbLine
 10
246.7480891681
 20
44.3609979839
 30
0.0
 11
246.2292061452
 21
45.698366637
 31
0.0
  0
LINE
  5
259
330
1F
100
AcDbEntity
  8
0
  6
Continuous
 62
     7
370
    25
100
AcDbLine
 10
246.7480891681
 20
44.3609979839
 30
0.0
 11
247.7858552139
 21
43.7619083977
 31
0.0
  0
LINE
  5
25A
330
1F
100
AcDbEntity
  8
0
  6
Continuous
 62
     7
370
    25
100
AcDbLine
 10
248.304740871
 20
44.5001859437
 30
0.0
 11
247.7858552139
 21
43.7619083977
 31
0.0
  0
ARC
  5
25B
330
1F
100
AcDbEntity
  8
0
  6
Continuous
 62
     7
370
    25
100
AcDbCircle
 10
249.4352190066
 20
46.3490454709
 30
0.0
 40
2.01409868370434
100
AcDbArc
 50
200.5517542851
 51
232.4107659567
  0
ARC
  5
25C
330
1F
100
AcDbEntity
  8
0
  6
Continuous
 62
     7
370
    25
100
AcDbCircle
 10
249.2260461287
 20
46.3037042711
 30
0.0
 40
1.802587493606998
100
AcDbArc
 50
188.5680155412
 51
201.5363635318
  0
LINE
  5
25D
330
1F
100
AcDbEntity
  8
0
  6
Continuous
 62
     7
370
    25
100
AcDbLine
 10
247.1280851543
 20
46.2172784436
 30
0.0
 11
246.2292061452
 21
45.698366637
 31
0.0
  0
LINE
  5
25E
330
1F
100
AcDbEntity
  8
0
  6
Continuous
 62
     7
370
    25
100
AcDbLine
 10
247.8087495138
 20
44.9733041682
 30
0.0
 11
246.7480891681
 21
44.3609979839
 31
0.0
  0
LINE
  5
25F
330
1F
100
AcDbEntity
  8
0
  6
Continuous
 62
     7
370
    25
100
AcDbLine
 10
247.8087495138
 20
44.9733041682
 30
0.0
 11
248.2113493816
 21
44.7408882116
 31
0.0
  0
LINE
  5
260
330
1F
100
AcDbEntity
  8
0
  6
Continuous
 62
     7
370
    25
100
AcDbLine
 10
247.5493066852
 20
45.6419894451
 30
0.0
 11
247.3832560046
 21
46.0699707443
 31
0.0
  0
LINE
  5
261
330
1F
100
AcDbEntity
  8
0
  6
Continuous
 62
     7
370
    25
100
AcDbLine
 10
247.8087495138
 20
44.9733041682
 30
0.0
 11
247.5493066852
 21
45.6419894451
 31
0.0
  0
LINE
  5
262
330
1F
100
AcDbEntity
  8
0
  6
Continuous
 62
     7
370
    25
100
AcDbLine
 10
255.752253639
 20
42.7732022471
 30
0.0
 11
255.752253639
 21
47.5488327774
 31
0.0
  0
LINE
  5
263
330
1F
100
AcDbEntity
  8
0
  6
Continuous
 62
     7
370
    25
100
AcDbLine
 10
255.752253639
 20
47.5488327774
 30
0.0
 11
263.3063775189
 21
51.9097356688
 31
0.0
  0
LINE
  5
264
330
1F
100
AcDbEntity
  8
0
  6
Continuous
 62
     7
370
    25
100
AcDbLine
 10
263.3063775189
 20
51.9097356688
 30
0.0
 11
262.8800726829
 21
53.500851873
 31
0.0
  0
LINE
  5
265
330
1F
100
AcDbEntity
  8
0
  6
Continuous
 62
     7
370
    25
100
AcDbLine
 10
262.8800726829
 20
53.500851873
 30
0.0
 11
266.3455887406
 21
55.5014517092
 31
0.0
  0
LWPOLYLINE
  5
266
330
1F
100
AcDbEntity
  8
0
  6
Continuous
 62
     7
370
    25
100
AcDbPolyline
 90
       14
 70
   128
 43
0.0
 10
266.3455887406
 20
55.5014517092
 10
267.0703406793
 20
54.8924217504
 10
267.7205690872
 20
54.1758974686
 10
268.2919947422
 20
53.3565986982
 10
268.7808534039
 20
52.4399186149
 10
269.1839274238
 20
51.4318933146
 10
269.4985615505
 20
50.3391596062
 10
269.72268532
 20
49.1689133738
 10
269.8548235926
 20
47.9288599561
 10
269.8941044554
 20
46.627163301
 10
269.840269759
 20
45.2723945743
 10
269.6936751173
 20
43.8734745785
 10
269.4552859567
 20
42.439614698
 10
269.1266696131
 20
40.9802545067
  0
LINE
  5
267
330
1F
100
AcDbEntity
  8
0
  6
Continuous
 62
     7
370
    25
100
AcDbLine
 10
242.377837665
 20
25.5384825104
 30
0.0
 11
269.1266696131
 21
40.9802545067
 31
0.0
  0
ARC
  5
268
330
1F
100
AcDbEntity
  8
0
  6
Continuous
 62
     7
370
    25
100
AcDbCircle
 10
258.3706795608
 20
30.6148414963
 30
0.0
 40
16.77916602392891
100
AcDbArc
 50
169.718635601
 51
197.6101899868
  0
LINE
  5
269
330
1F
100
AcDbEntity
  8
0
  6
Continuous
 62
     7
370
    25
100
AcDbLine
 10
241.8609342269
 20
33.6096238701
 30
0.0
 11
251.509612915
 21
39.1796875147
 31
0.0
  0
LINE
  5
26A
330
1F
100
AcDbEntity
  8
0
  6
Continuous
 62
     7
370
    25
100
AcDbLine
 10
251.509612915
 20
39.1796875147
 30
0.0
 11
251.509612915
 21
46.9368251683
 31
0.0
  0
LINE
  5
26B
330
1F
100
AcDbEntity
  8
0
  6
Continuous
 62
     7
370
    25
100
AcDbLine
 10
254.5402939275
 20
48.686400076
 30
0.0
 11
251.509612915
 21
46.9368251683
 31
0.0
  0
LINE
  5
26C
330
1F
100
AcDbEntity
  8
0
  6
Continuous
 62
     7
370
    25
100
AcDbLine
 10
254.5402939275
 20
48.686400076
 30
0.0
 11
254.1139893384
 21
46.6030829275
 31
0.0
  0
LINE
  5
26D
330
1F
100
AcDbEntity
  8
0
  6
Continuous
 62
     7
370
    25
100
AcDbLine
 10
254.1139893384
 20
46.6030829275
 30
0.0
 11
254.9037254613
 21
47.058987887
 31
0.0
  0
LINE
  5
26E
330
1F
100
AcDbEntity
  8
0
  6
Continuous
 62
     7
370
    25
100
AcDbLine
 10
254.9037254613
 20
42.9551305028
 30
0.0
 11
254.9037254613
 21
47.058987887
 31
0.0
  0
LWPOLYLINE
  5
26F
330
1F
100
AcDbEntity
  8
0
  6
Continuous
 62
     7
370
    25
100
AcDbPolyline
 90
       21
 70
   128
 43
0.0
 10
255.752253639
 20
42.7732022471
 10
255.8842614272
 20
42.4942736917
 10
255.9290289845
 20
42.1371217241
 10
255.8832816982
 20
41.7278710237
 10
255.7503658461
 20
41.296457021
 10
255.5400038386
 20
40.8744366764
 10
255.2675830734
 20
40.4926792584
 10
254.953030277
 20
40.179109467
 10
254.6193541713
 20
39.9566640311
 10
254.2909621443
 20
39.8416138532
 10
253.9918752657
 20
39.8423750037
 10
253.7439706308
 20
39.9588913893
 10
253.5653819213
 20
40.182640512
 10
253.4691721907
 20
40.4972553191
 10
253.4623793041
 20
40.879723163
 10
253.5454998041
 20
41.3020675179
 10
253.7124536785
 20
41.733394579
 10
253.9510288779
 20
42.1421546472
 10
254.2437743022
 20
42.4984477692
 10
254.5692763066
 20
42.7762123718
 10
254.9037254613
 20
42.9551305028
  0
LWPOLYLINE
  5
270
330
1F
100
AcDbEntity
  8
0
  6
Continuous
 62
     7
370
    25
100
AcDbPolyline
 90
       17
 70
   128
 43
0.0
 10
255.752253639
 20
37.9063231092
 10
255.5333466945
 20
37.8302330066
 10
255.3477663414
 20
37.8662913469
 10
255.2237654975
 20
38.0090085254
 10
255.1802222054
 20
38.2366571777
 10
255.2237654975
 20
38.514579845
 10
255.3477663414
 20
38.8004653505
 10
255.5333466945
 20
39.0507902057
 10
255.752253639
 20
39.2274446814
 10
255.9711605836
 20
39.303534784
 10
256.1567409366
 20
39.2674764437
 10
256.2807417805
 20
39.1247592652
 10
256.3242850727
 20
38.8971106129
 10
256.2807417805
 20
38.6191879456
 10
256.1567409366
 20
38.3333024401
 10
255.9711605836
 20
38.0829775849
 10
255.752253639
 20
37.9063231092
  0
SPLINE
  5
271
330
1F
100
AcDbEntity
  8
0
  6
Continuous
 62
     7
370
    25
100
AcDbSpline
210
0.0
220
0.0
230
1.0
 70
     8
 71
     3
 72
    20
 73
    16
 74
     0
 42
0.000000001
 43
0.00000001
 40
0.0
 40
0.0
 40
0.0
 40
0.0
 40
0.25
 40
0.25
 40
0.375
 40
0.375
 40
0.5
 40
0.5
 40
0.625
 40
0.625
 40
0.75
 40
0.75
 40
0.875
 40
0.875
 40
1.0
 40
1.0
 40
1.0
 40
1.0
 10
220.0845641111103
 20
48.75037156252373
 30
0.0
 10
220.1496532104691
 20
48.31064102584997
 30
0.0
 10
220.262037200533
 20
47.88634894722991
 30
0.0
 10
220.4967342193177
 20
47.27202110524151
 30
0.0
 10
220.5868450110434
 20
47.06977306521634
 30
0.0
 10
220.7839499721576
 20
46.68391130251741
 30
0.0
 10
220.891221191279
 20
46.4991577791581
 30
0.0
 10
221.1220741988602
 20
46.14554292723306
 30
0.0
 10
221.2456553702971
 20
45.97667934645241
 30
0.0
 10
221.5089498542867
 20
45.6552283044219
 30
0.0
 10
221.6463113917247
 20
45.50559084384106
 30
0.0
 10
221.9293854300938
 20
45.22971143002267
 30
0.0
 10
222.0754259989588
 20
45.1030732836519
 30
0.0
 10
222.3762015392959
 20
44.87248127756929
 30
0.0
 10
222.5316042294649
 20
44.7682088371501
 30
0.0
 10
222.6889728454092
 20
44.67736186889758
 30
0.0
  0
LINE
  5
272
330
1F
100
AcDbEntity
  8
0
  6
Continuous
 62
     7
370
    25
100
AcDbLine
 10
222.6889729445
 20
44.677361535
 30
0.0
 11
241.8609342269
 21
33.6096238701
 31
0.0
  0
ELLIPSE
  5
273
330
1F
100
AcDbEntity
  8
0
  6
Continuous
 62
     7
370
    25
100
AcDbEllipse
 10
281.8185659729
 20
23.5191220856
 30
0.0
 11
81.33470902790214
 21
-28.73765371627855
 31
0.0
210
0.0
220
0.0
230
1.0
 40
0.1449542677
 41
3.885650616497288
 42
4.258015703221618
  0
LINE
  5
274
330
1F
100
AcDbEntity
  8
0
  6
Continuous
 62
     7
370
    25
100
AcDbLine
 10
219.7682391481
 20
54.6852584976
 30
0.0
 11
218.1318449493
 21
55.6299287607
 31
0.0
  0
ELLIPSE
  5
275
330
1F
100
AcDbEntity
  8
0
  6
Continuous
 62
     7
370
    25
100
AcDbEllipse
 10
236.0699817141
 20
49.9292176235
 30
0.0
 11
-4.925815876203814
 21
22.30917683024215
 31
0.0
210
0.0
220
0.0
230
1.0
 40
0.6978875543
 41
1.205615005491051
 42
1.470155539431913
  0
SPLINE
  5
276
330
1F
100
AcDbEntity
  8
0
  6
Continuous
 62
     7
370
    25
100
AcDbSpline
210
0.0
220
0.0
230
1.0
 70
    11
 71
     3
 72
    68
 73
    64
 74
     0
 42
0.000000001
 43
0.00000001
 40
0.0
 40
0.0
 40
0.0
 40
0.0
 40
0.03125
 40
0.03125
 40
0.0625
 40
0.0625
 40
0.09375
 40
0.09375
 40
0.125
 40
0.125
 40
0.15625
 40
0.15625
 40
0.1875
 40
0.1875
 40
0.21875
 40
0.21875
 40
0.25
 40
0.25
 40
0.28125
 40
0.28125
 40
0.3125
 40
0.3125
 40
0.34375
 40
0.34375
 40
0.375
 40
0.375
 40
0.40625
 40
0.40625
 40
0.4375
 40
0.4375
 40
0.46875
 40
0.46875
 40
0.5
 40
0.5
 40
0.53125
 40
0.53125
 40
0.5625
 40
0.5625
 40
0.59375
 40
0.59375
 40
0.625
 40
0.625
 40
0.65625
 40
0.65625
 40
0.6875
 40
0.6875
 40
0.71875
 40
0.71875
 40
0.75
 40
0.75
 40
0.78125
 40
0.78125
 40
0.8125
 40
0.8125
 40
0.84375
 40
0.84375
 40
0.875
 40
0.875
 40
0.90625
 40
0.90625
 40
0.9375
 40
0.9375
 40
1.0
 40
1.0
 40
1.0
 40
1.0
 10
232.064176890745
 20
35.91355728856558
 30
0.0
 10
232.064176890745
 20
35.99450465509443
 30
0.0
 10
232.0715784800966
 20
36.07042210855645
 30
0.0
 10
232.1005173637913
 20
36.21257984045386
 30
0.0
 10
232.1224068650708
 20
36.27945694561623
 30
0.0
 10
232.1793440241068
 20
36.39916211786075
 30
0.0
 10
232.2141111780292
 20
36.45195504616456
 30
0.0
 10
232.2958854220899
 20
36.54341424802904
 30
0.0
 10
232.3433055961297
 20
36.58208833169446
 30
0.0
 10
232.4463241122369
 20
36.64155615973207
 30
0.0
 10
232.5022890470564
 20
36.66292187366894
 30
0.0
 10
232.6230642735359
 20
36.68833074354545
 30
0.0
 10
232.6869799575015
 20
36.69202375074793
 30
0.0
 10
232.8182702780946
 20
36.68156713906363
 30
0.0
 10
232.8866145137553
 20
36.66735382908552
 30
0.0
 10
233.0255474250782
 20
36.62094370805456
 30
0.0
 10
233.0948942169364
 20
36.5892892112141
 30
0.0
 10
233.2332965863866
 20
36.50948397204906
 30
0.0
 10
233.3030637593248
 20
36.46064974280722
 30
0.0
 10
233.437118276301
 20
36.34970386600803
 30
0.0
 10
233.5017846823584
 20
36.28756064854204
 30
0.0
 10
233.6265379941774
 20
36.14994759637381
 30
0.0
 10
233.6863937266529
 20
36.07448005058026
 30
0.0
 10
233.7965176596523
 20
35.91673835241857
 30
0.0
 10
233.8475042108516
 20
35.83371971816095
 30
0.0
 10
233.9413063877044
 20
35.65921334775275
 30
0.0
 10
233.9826400864575
 20
35.57046827071492
 30
0.0
 10
234.0546810120043
 20
35.39074820112913
 30
0.0
 10
234.0856757465531
 20
35.29870235547127
 30
0.0
 10
234.1352517379891
 20
35.11745214516888
 30
0.0
 10
234.153866339488
 20
35.02867404250572
 30
0.0
 10
234.1790379830562
 20
34.85486562523855
 30
0.0
 10
234.1854740287667
 20
34.76934726522549
 30
0.0
 10
234.1855203117185
 20
34.60942829147745
 30
0.0
 10
234.1793389466384
 20
34.53410901644967
 30
0.0
 10
234.1542362337625
 20
34.39292085223841
 30
0.0
 10
234.1353711893815
 20
34.32812873381599
 30
0.0
 10
234.0862314781905
 20
34.21328470827581
 30
0.0
 10
234.0556176441273
 20
34.16234065278245
 30
0.0
 10
233.9829581073176
 20
34.07580083287293
 30
0.0
 10
233.9416737238002
 20
34.04091630777396
 30
0.0
 10
233.8491748794031
 20
33.98728130728541
 30
0.0
 10
233.7973127964258
 20
33.96850961679669
 30
0.0
 10
233.6868675096742
 20
33.94879030297252
 30
0.0
 10
233.6281830171084
 20
33.94752800279623
 30
0.0
 10
233.5035951545809
 20
33.96214927136985
 30
0.0
 10
233.437666486366
 20
33.97827163979613
 30
0.0
 10
233.3040752051362
 20
34.02642730650274
 30
0.0
 10
233.2357191251011
 20
34.05849097238654
 30
0.0
 10
233.0957039831411
 20
34.13917285005027
 30
0.0
 10
233.0260549651795
 20
34.18666742367418
 30
0.0
 10
232.8884825094617
 20
34.29478526123609
 30
0.0
 10
232.8196965602145
 20
34.35623504027821
 30
0.0
 10
232.6874109686973
 20
34.48973696064095
 30
0.0
 10
232.6242769204209
 20
34.56122927470189
 30
0.0
 10
232.504187336981
 20
34.7137227001069
 30
0.0
 10
232.4469290061953
 20
34.79540042679698
 30
0.0
 10
232.3438005863898
 20
34.96184373434439
 30
0.0
 10
232.2972904895606
 20
35.0472990889246
 30
0.0
 10
232.2148778530965
 20
35.22295457184023
 30
0.0
 10
232.1796001787615
 20
35.31210180733252
 30
0.0
 10
232.0945609128312
 20
35.57580873732847
 30
0.0
 10
232.064176890745
 20
35.75166255550787
 30
0.0
 10
232.064176890745
 20
35.91355728856558
 30
0.0
  0
SPLINE
  5
277
330
1F
100
AcDbEntity
  8
0
  6
Continuous
 62
     7
370
    25
100
AcDbSpline
210
0.0
220
0.0
230
1.0
 70
     8
 71
     3
 72
    18
 73
    14
 74
     0
 42
0.000000001
 43
0.00000001
 40
0.0
 40
0.0
 40
0.0
 40
0.0
 40
0.1250000000000005
 40
0.1250000000000005
 40
0.250000000000001
 40
0.250000000000001
 40
0.3750000000000015
 40
0.3750000000000015
 40
0.500000000000002
 40
0.500000000000002
 40
0.750000000000001
 40
0.750000000000001
 40
1.0
 40
1.0
 40
1.0
 40
1.0
 10
233.4339636719354
 20
65.28006198001233
 30
0.0
 10
233.469558824476
 20
65.25951333584082
 30
0.0
 10
233.5171327548949
 20
65.24612025044951
 30
0.0
 10
233.6148473443631
 20
65.23307866650644
 30
0.0
 10
233.666169319118
 20
65.23256990409007
 30
0.0
 10
233.7656386413801
 20
65.23824312409587
 30
0.0
 10
233.8150660998793
 20
65.24448606778456
 30
0.0
 10
233.9111086230438
 20
65.26108934463251
 30
0.0
 10
233.9575824055154
 20
65.27141589022611
 30
0.0
 10
234.0936296905477
 20
65.30681055468855
 30
0.0
 10
234.1805822907441
 20
65.3365428304951
 30
0.0
 10
234.3426656463779
 20
65.40310794255076
 30
0.0
 10
234.4181735339664
 20
65.44003018356489
 30
0.0
 10
234.4882826421584
 20
65.48050331022938
 30
0.0
  0
LINE
  5
278
330
1F
100
AcDbEntity
  8
0
  6
Continuous
 62
     7
370
    25
100
AcDbLine
 10
234.4882824936
 20
65.4805032914
 30
0.0
 11
240.9746011492
 21
69.2249753479
 31
0.0
  0
SPLINE
  5
279
330
1F
100
AcDbEntity
  8
0
  6
Continuous
 62
     7
370
    25
100
AcDbSpline
210
0.0
220
0.0
230
1.0
 70
     8
 71
     3
 72
    18
 73
    14
 74
     0
 42
0.000000001
 43
0.00000001
 40
0.0
 40
0.0
 40
0.0
 40
0.0
 40
0.2500000000000018
 40
0.2500000000000018
 40
0.5000000000000036
 40
0.5000000000000036
 40
0.6250000000000027
 40
0.6250000000000027
 40
0.7500000000000018
 40
0.7500000000000018
 40
0.8750000000000009
 40
0.8750000000000009
 40
1.0
 40
1.0
 40
1.0
 40
1.0
 10
240.9746006933277
 20
69.22497501784811
 30
0.0
 10
241.0256645116161
 20
69.2544535326782
 30
0.0
 10
241.0841491333355
 20
69.27956614801396
 30
0.0
 10
241.2124691479334
 20
69.31832297496115
 30
0.0
 10
241.2804017540007
 20
69.33162315431123
 30
0.0
 10
241.3889657058569
 20
69.34038566513875
 30
0.0
 10
241.4250865259007
 20
69.34129093609383
 30
0.0
 10
241.4971836213326
 20
69.33876374217526
 30
0.0
 10
241.5336257855322
 20
69.33523016041251
 30
0.0
 10
241.6029692335418
 20
69.32356143563447
 30
0.0
 10
241.6360931070789
 20
69.3154868688092
 30
0.0
 10
241.6989332665872
 20
69.29440593267506
 30
0.0
 10
241.728391524904
 20
69.28134007210119
 30
0.0
 10
241.753868358203
 20
69.26663260929486
 30
0.0
  0
LINE
  5
27A
330
1F
100
AcDbEntity
  8
0
  6
Continuous
 62
     7
370
    25
100
AcDbLine
 10
241.7538680608
 20
69.2666324376
 30
0.0
 11
244.7588132361
 21
67.5319145124
 31
0.0
  0
LINE
  5
27B
330
1F
100
AcDbEntity
  8
0
  6
Continuous
 62
     7
370
    25
100
AcDbLine
 10
242.0931745574
 20
64.1558570724
 30
0.0
 11
263.3063775189
 21
51.9097356688
 31
0.0
  0
LINE
  5
27C
330
1F
100
AcDbEntity
  8
0
  6
Continuous
 62
     7
370
    25
100
AcDbLine
 10
255.752253639
 20
47.5488327774
 30
0.0
 11
254.4601524359
 21
48.2947469247
 31
0.0
  0
LINE
  5
27D
330
1F
100
AcDbEntity
  8
0
  6
Continuous
 62
     7
370
    25
100
AcDbLine
 10
246.3828300909
 20
52.957685861
 30
0.0
 11
245.2677640908
 21
53.6013997611
 31
0.0
  0
LINE
  5
27E
330
1F
100
AcDbEntity
  8
0
  6
Continuous
 62
     7
370
    25
100
AcDbLine
 10
237.190443063
 20
58.264337937
 30
0.0
 11
236.0753744286
 21
58.9080533577
 31
0.0
  0
LINE
  5
27F
330
1F
100
AcDbEntity
  8
0
  6
Continuous
 62
     7
370
    25
100
AcDbLine
 10
232.9478016804
 20
60.7135626739
 30
0.0
 11
231.0199429263
 21
61.8264918433
 31
0.0
  0
LINE
  5
280
330
1F
100
AcDbEntity
  8
0
  6
Continuous
 62
     7
370
    25
100
AcDbLine
 10
231.0199429263
 20
61.8264918433
 30
0.0
 11
230.1714147486
 21
61.3366469529
 31
0.0
  0
LINE
  5
281
330
1F
100
AcDbEntity
  8
0
  6
Continuous
 62
     7
370
    25
100
AcDbLine
 10
236.3419148852
 20
57.7744930466
 30
0.0
 11
235.8960828875
 21
58.0318663806
 31
0.0
  0
LINE
  5
282
330
1F
100
AcDbEntity
  8
0
  6
Continuous
 62
     7
370
    25
100
AcDbLine
 10
232.0992735027
 20
60.2237177836
 30
0.0
 11
230.1714147486
 21
61.3366469529
 31
0.0
  0
LINE
  5
283
330
1F
100
AcDbEntity
  8
0
  6
Continuous
 62
     7
370
    25
100
AcDbLine
 10
230.2964099536
 20
57.3457298242
 30
0.0
 11
227.3366099799
 21
59.0543859793
 31
0.0
  0
LINE
  5
284
330
1F
100
AcDbEntity
  8
0
  6
Continuous
 62
     7
370
    25
100
AcDbLine
 10
219.7682391481
 20
54.6852584976
 30
0.0
 11
227.3366099799
 21
59.0543859793
 31
0.0
  0
SPLINE
  5
285
330
1F
100
AcDbEntity
  8
0
  6
Continuous
 62
     7
370
    25
100
AcDbSpline
210
0.0
220
0.0
230
1.0
 70
     8
 71
     3
 72
    14
 73
    10
 74
     0
 42
0.000000001
 43
0.00000001
 40
0.0
 40
0.0
 40
0.0
 40
0.0
 40
0.25
 40
0.25
 40
0.5
 40
0.5
 40
0.75
 40
0.75
 40
1.0
 40
1.0
 40
1.0
 40
1.0
 10
218.1318447361676
 20
55.62992863769927
 30
0.0
 10
218.0809665955713
 20
55.65929996307929
 30
0.0
 10
218.0434516655702
 20
55.69682834224416
 30
0.0
 10
218.0028487886303
 20
55.77718033031183
 30
0.0
 10
217.9991472559197
 20
55.81984276445206
 30
0.0
 10
218.0189650999372
 20
55.90235541855488
 30
0.0
 10
218.0423913269811
 20
55.94257964891786
 30
0.0
 10
218.1094407522307
 20
56.01653697931243
 30
0.0
 10
218.1529433273952
 20
56.05031265106864
 30
0.0
 10
218.2040056198563
 20
56.07979028505736
 30
0.0
  0
LINE
  5
286
330
1F
100
AcDbEntity
  8
0
  6
Continuous
 62
     7
370
    25
100
AcDbLine
 10
218.2040049638
 20
56.0797899732
 30
0.0
 11
224.6903236193
 21
59.8242620297
 31
0.0
  0
SPLINE
  5
287
330
1F
100
AcDbEntity
  8
0
  6
Continuous
 62
     7
370
    25
100
AcDbSpline
210
0.0
220
0.0
230
1.0
 70
     8
 71
     3
 72
    16
 73
    12
 74
     0
 42
0.000000001
 43
0.00000001
 40
0.0
 40
0.0
 40
0.0
 40
0.0
 40
0.2499999999999989
 40
0.2499999999999989
 40
0.4999999999999978
 40
0.4999999999999978
 40
0.7499999999999967
 40
0.7499999999999967
 40
0.8749999999999983
 40
0.8749999999999983
 40
1.0
 40
1.0
 40
1.0
 40
1.0
 10
224.6903236710257
 20
59.8242619926761
 30
0.0
 10
224.7603286165395
 20
59.86467498750648
 30
0.0
 10
224.8248781542996
 20
59.90864414216747
 30
0.0
 10
224.940753853268
 20
60.00282794923287
 30
0.0
 10
224.9913577158737
 20
60.05223802364864
 30
0.0
 10
225.0731986865657
 20
60.15717973325872
 30
0.0
 10
225.1053797869182
 20
60.21337442936937
 30
0.0
 10
225.119832236403
 20
60.29963987115891
 30
0.0
 10
225.1189835387129
 20
60.32852722726251
 30
0.0
 10
225.0960321438171
 20
60.38544414744717
 30
0.0
 10
225.0730231314095
 20
60.41242101312013
 30
0.0
 10
225.037535860062
 20
60.43290737880448
 30
0.0
  0
LINE
  5
288
330
1F
100
AcDbEntity
  8
0
  6
Continuous
 62
     7
370
    25
100
AcDbLine
 10
225.0375356135
 20
60.4329073703
 30
0.0
 11
233.4339636023
 21
65.2800620737
 31
0.0
  0
LINE
  5
289
330
1F
100
AcDbEntity
  8
0
  6
Continuous
 62
     7
370
    25
100
AcDbLine
 10
232.3376516327
 20
50.2474251795
 30
0.0
 11
233.9223560145
 21
49.3325948126
 31
0.0
  0
LINE
  5
28A
330
1F
100
AcDbEntity
  8
0
  6
Continuous
 62
     7
370
    25
100
AcDbLine
 10
239.9910412189
 20
45.8292174156
 30
0.0
 11
251.509612915
 21
39.1796875147
 31
0.0
  0
LINE
  5
28B
330
1F
100
AcDbEntity
  8
0
  6
Continuous
 62
     7
370
    25
100
AcDbLine
 10
251.509612915
 20
46.9368251683
 30
0.0
 11
243.7314383641
 21
51.427069759
 31
0.0
  0
LINE
  5
28C
330
1F
100
AcDbEntity
  8
0
  6
Continuous
 62
     7
370
    25
100
AcDbLine
 10
246.7621193765
 20
53.1766446667
 30
0.0
 11
243.7314383641
 21
51.427069759
 31
0.0
  0
LINE
  5
28D
330
1F
100
AcDbEntity
  8
0
  6
Continuous
 62
     7
370
    25
100
AcDbLine
 10
246.7621193765
 20
53.1766446667
 30
0.0
 11
254.5402939275
 21
48.686400076
 31
0.0
  0
LINE
  5
28E
330
1F
100
AcDbEntity
  8
0
  6
Continuous
 62
     7
370
    25
100
AcDbLine
 10
233.1248375419
 20
57.5501300806
 30
0.0
 11
230.2964099536
 21
59.1829465719
 31
0.0
  0
LINE
  5
28F
330
1F
100
AcDbEntity
  8
0
  6
Continuous
 62
     7
370
    25
100
AcDbLine
 10
233.1248375419
 20
57.5501300806
 30
0.0
 11
233.1248375419
 21
51.6874946541
 31
0.0
  0
LWPOLYLINE
  5
290
330
1F
100
AcDbEntity
  8
0
  6
Continuous
 62
     7
370
    25
100
AcDbPolyline
 90
       11
 70
   128
 43
0.0
 10
233.1248375419
 20
51.6874946541
 10
233.0911121606
 20
51.3887554299
 10
233.1609639766
 20
51.0381623555
 10
233.3246280919
 20
50.684731291
 10
233.5592214019
 20
50.3778772492
 10
233.831944439
 20
50.1605020886
 10
234.104666159
 20
50.0629986933
 10
234.3392594691
 20
50.0989970646
 10
234.5029235844
 20
50.2634655638
 10
234.5727754004
 20
50.5334094482
 10
234.539050019
 20
50.8710871688
  0
LINE
  5
291
330
1F
100
AcDbEntity
  8
0
  6
Continuous
 62
     7
370
    25
100
AcDbLine
 10
234.539050019
 20
50.8710871688
 30
0.0
 11
234.539050019
 21
56.7337225953
 31
0.0
  0
LINE
  5
292
330
1F
100
AcDbEntity
  8
0
  6
Continuous
 62
     7
370
    25
100
AcDbLine
 10
242.3172245699
 20
52.2434780046
 30
0.0
 11
234.539050019
 21
56.7337225953
 31
0.0
  0
LINE
  5
293
330
1F
100
AcDbEntity
  8
0
  6
Continuous
 62
     7
370
    25
100
AcDbLine
 10
242.3172245699
 20
52.2434780046
 30
0.0
 11
242.3172245699
 21
46.3808425781
 31
0.0
  0
LWPOLYLINE
  5
294
330
1F
100
AcDbEntity
  8
0
  6
Continuous
 62
     7
370
    25
100
AcDbPolyline
 90
       11
 70
   128
 43
0.0
 10
242.3172245699
 20
46.3808425781
 10
242.2834991886
 20
46.0821033539
 10
242.3533523217
 20
45.7315095192
 10
242.517016437
 20
45.3780784547
 10
242.7516084299
 20
45.0712251732
 10
243.0243327841
 20
44.8538492522
 10
243.2970545041
 20
44.756345857
 10
243.5316464971
 20
44.7923449886
 10
243.6953106124
 20
44.9568134878
 10
243.7651637455
 20
45.2267566118
 10
243.7314383641
 20
45.5644343325
  0
LINE
  5
295
330
1F
100
AcDbEntity
  8
0
  6
Continuous
 62
     7
370
    25
100
AcDbLine
 10
243.7314383641
 20
45.5644343325
 30
0.0
 11
243.7314383641
 21
51.427069759
 31
0.0
  0
ARC
  5
296
330
1F
100
AcDbEntity
  8
0
  6
Continuous
 62
     7
370
    25
100
AcDbCircle
 10
236.4763658725
 20
56.7095158641
 30
0.0
 40
7.673823790890366
100
AcDbArc
 50
200.2270975525
 51
237.362040403
  0
LINE
  5
297
330
1F
100
AcDbEntity
  8
0
  6
Continuous
 62
     7
370
    25
100
AcDbLine
 10
227.3366099799
 20
59.0543859793
 30
0.0
 11
229.2757897726
 21
54.0563525817
 31
0.0
  0
LINE
  5
298
330
1F
100
AcDbEntity
  8
0
  6
Continuous
 62
     7
370
    25
100
AcDbLine
 10
230.2964099536
 20
57.3457298242
 30
0.0
 11
230.2964099536
 21
59.1829465719
 31
0.0
  0
ARC
  5
299
330
1F
100
AcDbEntity
  8
0
  6
Continuous
 62
     7
370
    25
100
AcDbCircle
 10
236.1021688372
 20
49.2516843491
 30
0.0
 40
4.289260387717745
100
AcDbArc
 50
8.4513536543
 51
57.1612018542
  0
LWPOLYLINE
  5
29A
330
1F
100
AcDbEntity
  8
0
  6
Continuous
 62
     7
370
    25
100
AcDbPolyline
 90
        8
 70
   128
 43
0.0
 10
236.5137563123
 20
52.1091444502
 10
236.5544728022
 20
52.2924068997
 10
236.710110577
 20
52.6536322514
 10
236.9460802451
 20
52.9193023322
 10
237.2513498689
 20
53.076993185
 10
237.6116448375
 20
53.1193315433
 10
238.0101182655
 20
53.0443378621
 10
238.4281372945
 20
52.855519169
  0
LWPOLYLINE
  5
29B
330
1F
100
AcDbEntity
  8
0
  6
Continuous
 62
     7
370
    25
100
AcDbPolyline
 90
       15
 70
   128
 43
0.0
 10
247.6205256396
 20
47.5488663326
 10
248.0385459856
 20
47.2550497677
 10
248.4370180965
 20
46.8699765821
 10
248.7973130652
 20
46.4116505076
 10
249.102582689
 20
45.9015028494
 10
249.3385549912
 20
45.3633864683
 10
249.4941901319
 20
44.8224670873
 10
249.5622177796
 20
44.3040316968
 10
249.539453213
 20
43.8323258363
 10
249.4269606402
 20
43.429405691
 10
249.2300031487
 20
43.114108801
 10
248.9577871909
 20
42.901180645
 10
248.6230437491
 20
42.800575356
 10
248.2414224751
 20
42.8169993864
 10
247.9613803744
 20
42.8958863433
  0
LWPOLYLINE
  5
29C
330
1F
100
AcDbEntity
  8
0
  6
Continuous
 62
     7
370
    25
100
AcDbPolyline
 90
        8
 70
   128
 43
0.0
 10
245.7061446574
 20
46.8024916139
 10
245.7468611472
 20
46.9857540633
 10
245.9024989221
 20
47.3469794151
 10
246.1384685902
 20
47.6126494958
 10
246.4437382139
 20
47.7703403487
 10
246.8040331826
 20
47.8126787069
 10
247.2025079277
 20
47.7376842654
 10
247.6205256396
 20
47.5488663326
  0
LINE
  5
29D
330
1F
100
AcDbEntity
  8
0
  6
Continuous
 62
     7
370
    25
100
AcDbLine
 10
254.9037254613
 20
47.058987887
 30
0.0
 11
254.2808582606
 21
47.4185614682
 31
0.0
  0
LINE
  5
29E
330
1F
100
AcDbEntity
  8
0
  6
Continuous
 62
     7
370
    25
100
AcDbLine
 10
254.903726943
 20
43.2630462821
 30
0.0
 11
255.752253639
 21
42.7732022471
 31
0.0
  0
LWPOLYLINE
  5
29F
330
1F
100
AcDbEntity
  8
0
  6
Continuous
 62
     7
370
    25
100
AcDbPolyline
 90
        3
 70
   128
 43
0.0
 10
231.0199429263
 20
61.8264918433
 10
231.8459855957
 20
60.5337307269
 10
232.0243510586
 20
60.2669694766
  0
LINE
  5
2A0
330
1F
100
AcDbEntity
  8
0
  6
Continuous
 62
     7
370
    25
100
AcDbLine
 10
245.3479055824
 20
53.9930529123
 30
0.0
 11
244.9690296981
 21
52.1415167905
 31
0.0
  0
LINE
  5
2A1
330
1F
100
AcDbEntity
  8
0
  6
Continuous
 62
     7
370
    25
100
AcDbLine
 10
243.7314380349
 20
47.1972506337
 30
0.0
 11
242.3172245699
 21
46.3808425781
 31
0.0
  0
LINE
  5
2A2
330
1F
100
AcDbEntity
  8
0
  6
Continuous
 62
     7
370
    25
100
AcDbLine
 10
245.3479055824
 20
53.9930529123
 30
0.0
 11
242.3172245699
 21
52.2434780046
 31
0.0
  0
LINE
  5
2A3
330
1F
100
AcDbEntity
  8
0
  6
Continuous
 62
     7
370
    25
100
AcDbLine
 10
237.5697310315
 20
58.483297503
 30
0.0
 11
234.539050019
 21
56.7337225953
 31
0.0
  0
LINE
  5
2A4
330
1F
100
AcDbEntity
  8
0
  6
Continuous
 62
     7
370
    25
100
AcDbLine
 10
237.5697310315
 20
58.483297503
 30
0.0
 11
245.3479055824
 21
53.9930529123
 31
0.0
  0
LINE
  5
2A5
330
1F
100
AcDbEntity
  8
0
  6
Continuous
 62
     7
370
    25
100
AcDbLine
 10
245.1323857792
 20
67.7475731128
 30
0.0
 11
266.3455887406
 21
55.5014517092
 31
0.0
  0
LINE
  5
2A6
330
1F
100
AcDbEntity
  8
0
  6
Continuous
 62
     7
370
    25
100
AcDbLine
 10
241.6668697215
 20
65.7469732766
 30
0.0
 11
262.8800726829
 21
53.500851873
 31
0.0
  0
LINE
  5
2A7
330
1F
100
AcDbEntity
  8
0
  6
Continuous
 62
     7
370
    25
100
AcDbLine
 10
241.6668697215
 20
65.7469732766
 30
0.0
 11
245.1323857792
 21
67.7475731128
 31
0.0
  0
LINE
  5
2A8
330
1F
100
AcDbEntity
  8
0
  6
Continuous
 62
     7
370
    25
100
AcDbLine
 10
242.0931745574
 20
64.1558570724
 30
0.0
 11
241.6668697215
 21
65.7469732766
 31
0.0
  0
LWPOLYLINE
  5
2A9
330
1F
100
AcDbEntity
  8
0
  6
Continuous
 62
     7
370
    25
100
AcDbPolyline
 90
       11
 70
   128
 43
0.0
 10
255.2120272298
 20
38.0378283737
 10
255.3322039881
 20
37.9000713168
 10
255.5128580372
 20
37.8649702079
 10
255.7259540056
 20
37.9390404603
 10
255.9390499739
 20
38.111005576
 10
256.1197040231
 20
38.3546854102
 10
256.2404131734
 20
38.6329819475
 10
256.2828005965
 20
38.903527045
 10
256.2404131734
 20
39.1251326655
 10
256.1197040231
 20
39.2640613843
 10
255.9402474548
 20
39.2992791118
  0
ARC
  5
2AA
330
1F
100
AcDbEntity
  8
0
  6
Continuous
 62
     7
370
    25
100
AcDbCircle
 10
254.3289496453
 20
39.3885398172
 30
0.0
 40
1.286461998594851
100
AcDbArc
 50
312.9771586646
 51
347.0282173218
  0
LINE
  5
2AB
330
1F
100
AcDbEntity
  8
0
  6
Continuous
 62
     7
370
    25
100
AcDbLine
 10
245.5343019132
 20
52.4678409706
 30
0.0
 11
245.0884699155
 21
52.7252143046
 31
0.0
  0
LINE
  5
2AC
330
1F
100
AcDbEntity
  8
0
  6
Continuous
 62
     7
370
    25
100
AcDbLine
 10
233.327090966
 20
60.9325214796
 30
0.0
 11
236.1555185544
 21
59.2997049883
 31
0.0
  0
LINE
  5
2AD
330
1F
100
AcDbEntity
  8
0
  6
Continuous
 62
     7
370
    25
100
AcDbLine
 10
236.1555185544
 20
59.2997049883
 30
0.0
 11
233.1248375419
 21
57.5501300806
 31
0.0
  0
LINE
  5
2AE
330
1F
100
AcDbEntity
  8
0
  6
Continuous
 62
     7
370
    25
100
AcDbLine
 10
230.2964099536
 20
59.1829465719
 30
0.0
 11
233.327090966
 21
60.9325214796
 31
0.0
  0
LINE
  5
2AF
330
1F
100
AcDbEntity
  8
0
  6
Continuous
 62
     7
370
    25
100
AcDbLine
 10
236.1555185544
 20
59.2997049883
 30
0.0
 11
235.7766426701
 21
57.4481688665
 31
0.0
  0
LINE
  5
2B0
330
1F
100
AcDbEntity
  8
0
  6
Continuous
 62
     7
370
    25
100
AcDbLine
 10
234.5390510069
 20
52.5039027097
 30
0.0
 11
233.1248375419
 21
51.6874946541
 31
0.0
  0
SPLINE
  5
2B1
330
1F
100
AcDbEntity
  8
0
  6
Continuous
 62
     7
370
    25
100
AcDbSpline
210
0.0
220
0.0
230
1.0
 70
     8
 71
     3
 72
    12
 73
     8
 74
     0
 42
0.000000001
 43
0.00000001
 40
0.0
 40
0.0
 40
0.0
 40
0.0
 40
0.2499999999999993
 40
0.2499999999999993
 40
0.4999999999999987
 40
0.4999999999999987
 40
1.0
 40
1.0
 40
1.0
 40
1.0
 10
227.8556777170845
 20
67.4886024969556
 30
0.0
 10
227.8331686568462
 20
67.50159670084174
 30
0.0
 10
227.8213125678382
 20
67.51570956877907
 30
0.0
 10
227.8131377862051
 20
67.54137618244005
 30
0.0
 10
227.8160666037832
 20
67.5527443242617
 30
0.0
 10
227.8346058779908
 20
67.58375309765567
 30
0.0
 10
227.8596116494752
 20
67.59999713818479
 30
0.0
 10
227.8891345900382
 20
67.61359863248302
 30
0.0
  0
LINE
  5
2B2
330
1F
100
AcDbEntity
  8
0
  6
Continuous
 62
     7
370
    25
100
AcDbLine
 10
228.8967108096
 20
66.8876270559
 30
0.0
 11
227.8556777245
 21
67.4886026639
 31
0.0
  0
SPLINE
  5
2B3
330
1F
100
AcDbEntity
  8
0
  6
Continuous
 62
     7
370
    25
100
AcDbSpline
210
0.0
220
0.0
230
1.0
 70
     8
 71
     3
 72
    12
 73
     8
 74
     0
 42
0.000000001
 43
0.00000001
 40
0.0
 40
0.0
 40
0.0
 40
0.0
 40
0.5000000000000004
 40
0.5000000000000004
 40
0.7500000000000002
 40
0.7500000000000002
 40
1.0
 40
1.0
 40
1.0
 40
1.0
 10
229.236353948569
 20
66.83586545131946
 30
0.0
 10
229.1850763147341
 20
66.83477393900903
 30
0.0
 10
229.1310875025029
 20
66.83565736620916
 30
0.0
 10
229.0418178521522
 20
66.84523146592399
 30
0.0
 10
229.0108618473753
 20
66.84987433714326
 30
0.0
 10
228.9500997144239
 20
66.86426391817847
 30
0.0
 10
228.9191530463154
 20
66.87467125728448
 30
0.0
 10
228.8967108577674
 20
66.88762685696555
 30
0.0
  0
ELLIPSE
  5
2B4
330
1F
100
AcDbEntity
  8
0
  6
Continuous
 62
     7
370
    25
100
AcDbEllipse
 10
221.7912384789
 20
58.1721606372
 30
0.0
 11
12.62279028525577
 21
6.604924588173851
 31
0.0
210
0.0
220
0.0
230
1.0
 40
0.4445305117
 41
0.2747775750656732
 42
0.7302899226135975
  0
ELLIPSE
  5
2B5
330
1F
100
AcDbEntity
  8
0
  6
Continuous
 62
     7
370
    25
100
AcDbEllipse
 10
229.6091932413
 20
53.6589514192
 30
0.0
 11
-0.5921461341248175
 21
14.23394750841458
 31
0.0
210
0.0
220
0.0
230
1.0
 40
0.4444802122
 41
5.829499913454024
 42
6.463971794465677
  0
SPLINE
  5
2B6
330
1F
100
AcDbEntity
  8
0
  6
Continuous
 62
     7
370
    25
100
AcDbSpline
210
0.0
220
0.0
230
1.0
 70
     8
 71
     3
 72
    12
 73
     8
 74
     0
 42
0.000000001
 43
0.00000001
 40
0.0
 40
0.0
 40
0.0
 40
0.0
 40
0.25
 40
0.25
 40
0.5
 40
0.5
 40
1.0
 40
1.0
 40
1.0
 40
1.0
 10
216.7556777170846
 20
54.44308082661004
 30
0.0
 10
216.7331686568463
 20
54.4560750304962
 30
0.0
 10
216.7150167108024
 20
54.48057212748938
 30
0.0
 10
216.6886975800402
 20
54.53649227960482
 30
0.0
 10
216.6803149455721
 20
54.56685073037189
 30
0.0
 10
216.6627244348508
 20
54.65925122437183
 30
0.0
 10
216.6611558813566
 20
54.72157564114298
 30
0.0
 10
216.6641345900383
 20
54.78241267900094
 30
0.0
  0
LINE
  5
2B7
330
1F
100
AcDbEntity
  8
0
  6
Continuous
 62
     7
370
    25
100
AcDbLine
 10
217.3128760357
 20
54.1214170484
 30
0.0
 11
216.7556775763
 21
54.4430808722
 31
0.0
  0
ELLIPSE
  5
2B8
330
1F
100
AcDbEntity
  8
0
  6
Continuous
 62
     7
370
    25
100
AcDbEllipse
 10
221.7912384789
 20
58.1721606372
 30
0.0
 11
6.249911489441729
 21
10.8253686591283
 31
0.0
210
0.0
220
0.0
230
1.0
 40
0.1059897947
 41
1.115125557425505
 42
1.755262505803601
  0
SPLINE
  5
2B9
330
1F
100
AcDbEntity
  8
0
  6
Continuous
 62
     7
370
    25
100
AcDbSpline
210
0.0
220
0.0
230
1.0
 70
     8
 71
     3
 72
    12
 73
     8
 74
     0
 42
0.000000001
 43
0.00000001
 40
0.0
 40
0.0
 40
0.0
 40
0.0
 40
0.2499999999999993
 40
0.2499999999999993
 40
0.4999999999999987
 40
0.4999999999999987
 40
1.0
 40
1.0
 40
1.0
 40
1.0
 10
223.5447540030473
 20
63.7980079291236
 30
0.0
 10
223.5672630632856
 20
63.78501372523744
 30
0.0
 10
223.5791191522936
 20
63.76415233066786
 30
0.0
 10
223.5872939339266
 20
63.71871009343008
 30
0.0
 10
223.5843651163487
 20
63.69488372771255
 30
0.0
 10
223.565825842141
 20
63.62334729493292
 30
0.0
 10
223.5408200706567
 20
63.57636889653217
 30
0.0
 10
223.5112971300936
 20
63.530860499022
 30
0.0
  0
LINE
  5
2BA
330
1F
100
AcDbEntity
  8
0
  6
Continuous
 62
     7
370
    25
100
AcDbLine
 10
222.5037207525
 20
64.3989836683
 30
0.0
 11
223.5447538376
 21
63.7980080604
 31
0.0
  0
SPLINE
  5
2BB
330
1F
100
AcDbEntity
  8
0
  6
Continuous
 62
     7
370
    25
100
AcDbSpline
210
0.0
220
0.0
230
1.0
 70
     8
 71
     3
 72
    12
 73
     8
 74
     0
 42
0.000000001
 43
0.00000001
 40
0.0
 40
0.0
 40
0.0
 40
0.0
 40
0.4999999999999982
 40
0.4999999999999982
 40
0.7499999999999991
 40
0.7499999999999991
 40
1.0
 40
1.0
 40
1.0
 40
1.0
 10
222.1640777715629
 20
64.30859368018557
 30
0.0
 10
222.2153554053977
 20
64.34164283810142
 30
0.0
 10
222.269344217629
 20
64.37110189005745
 30
0.0
 10
222.3586138679796
 20
64.40230298519063
 30
0.0
 10
222.3895698727565
 20
64.41027801310453
 30
0.0
 10
222.4503320057078
 20
64.4154197156196
 30
0.0
 10
222.4812786738164
 20
64.4119391687947
 30
0.0
 10
222.5037208623644
 20
64.39898356911362
 30
0.0
  0
ELLIPSE
  5
2BC
330
1F
100
AcDbEntity
  8
0
  6
Continuous
 62
     7
370
    25
100
AcDbEllipse
 10
229.6091932413
 20
53.6589514192
 30
0.0
 11
11.35109810003769
 21
-6.55865246610874
 31
0.0
210
0.0
220
0.0
230
1.0
 40
0.9534948969
 41
2.686319833441737
 42
3.597507056661769
  0
LWPOLYLINE
  5
2BD
330
1F
100
AcDbEntity
  8
0
  6
Continuous
 62
     7
370
    25
100
AcDbPolyline
 90
       11
 70
   128
 43
0.0
 10
225.0375356135
 20
60.4329073703
 10
225.8267669621
 20
61.3236517124
 10
226.6493733462
 20
62.1414660525
 10
227.4973014253
 20
62.8783438523
 10
228.3622495048
 20
63.5270713316
 10
229.2357496079
 20
64.0812961406
 10
230.1092497111
 20
64.5355930837
 10
230.9741977906
 20
64.8855134002
 10
231.8221258697
 20
65.127632522
 10
232.6447322538
 20
65.2595792968
 10
233.4339636023
 20
65.2800620737
  0
LWPOLYLINE
  5
2BE
330
1F
100
AcDbEntity
  8
0
  6
Continuous
 62
     7
370
    25
100
AcDbPolyline
 90
       22
 70
   128
 43
0.0
 10
213.5755381591
 20
51.1767686872
 10
213.5645832712
 20
51.2407282565
 10
213.4563317249
 20
52.1757536322
 10
213.4346274151
 20
53.168231154
 10
213.4996863441
 20
54.2082974316
 10
213.6508618213
 20
55.2856158151
 10
213.8866517068
 20
56.3894793417
 10
214.2047122405
 20
57.5089174134
 10
214.6018824089
 20
58.6328047548
 10
215.0742148962
 20
59.7499709167
 10
215.6170162556
 20
60.8493139613
 10
216.2248910321
 20
61.9199073039
 10
216.8917977382
 20
62.9511114945
 10
217.6111087821
 20
63.9326776364
 10
218.3756756632
 20
64.8548508021
 10
219.177899107
 20
65.7084660355
 10
220.0098066092
 20
66.4850387448
 10
220.863130308
 20
67.176852243
 10
221.7293893439
 20
67.7770303889
 10
222.5999745644
 20
68.279608539
 10
223.4662336002
 20
68.6795917869
 10
224.250381973
 20
68.9530641243
  0
ARC
  5
2BF
330
1F
100
AcDbEntity
  8
0
  6
Continuous
 62
     7
370
    25
100
AcDbCircle
 10
223.4946951121
 20
55.9732553892
 30
0.0
 40
18.43795499251131
100
AcDbArc
 50
122.5802187174
 51
159.8306376162
  0
ARC
  5
2C0
330
1F
100
AcDbEntity
  8
0
  6
Continuous
 62
     7
370
    25
100
AcDbCircle
 10
210.11503309
 20
60.3669039867
 30
0.0
 40
4.391169857849205
100
AcDbArc
 50
153.4364160642
 51
206.5635839358
  0
ARC
  5
2C1
330
1F
100
AcDbEntity
  8
0
  6
Continuous
 62
     7
370
    25
100
AcDbCircle
 10
214.9833912295
 20
69.511348202
 30
0.0
 40
2.449917964291805
100
AcDbArc
 50
67.3257954916
 51
125.3418609139
  0
ARC
  5
2C2
330
1F
100
AcDbEntity
  8
0
  6
Continuous
 62
     7
370
    25
100
AcDbCircle
 10
209.6859357291
 20
60.8149348741
 30
0.0
 40
4.249252131977828
100
AcDbArc
 50
214.5805077564
 51
238.0263638953
  0
ARC
  5
2C3
330
1F
100
AcDbEntity
  8
0
  6
Continuous
 62
     7
370
    25
100
AcDbCircle
 10
222.6075753548
 20
56.4841560173
 30
0.0
 40
17.77536862501873
100
AcDbArc
 50
122.5802169023
 51
159.8306385383
  0
ARC
  5
2C4
330
1F
100
AcDbEntity
  8
0
  6
Continuous
 62
     7
370
    25
100
AcDbCircle
 10
209.8447056269
 20
60.7543015239
 30
0.0
 40
4.340583529998939
100
AcDbArc
 50
154.6451882168
 51
197.7772556192
  0
ARC
  5
2C5
330
1F
100
AcDbEntity
  8
0
  6
Continuous
 62
     7
370
    25
100
AcDbCircle
 10
214.6107166196
 20
68.8559750269
 30
0.0
 40
3.045212373840733
100
AcDbArc
 50
98.8947806058
 51
121.1410062535
  0
LWPOLYLINE
  5
2C6
330
1F
100
AcDbEntity
  8
0
  6
Continuous
 62
     7
370
    18
100
AcDbPolyline
 90
        9
 70
   128
 43
0.0
 10
237.670931624
 20
52.50034902
 10
237.5062493988
 20
52.5371711503
 10
237.1614644704
 20
52.5362551402
 10
236.8659070611
 20
52.4204925597
 10
236.6355086795
 20
52.1961252622
 10
236.4826921093
 20
51.8752472944
 10
236.4156944253
 20
51.4751584388
 10
236.4381284025
 20
51.0174265227
 10
236.451615394
 20
50.9309669598
  0
ARC
  5
2C7
330
1F
100
AcDbEntity
  8
0
  6
Continuous
 62
     7
370
    18
100
AcDbCircle
 10
247.9093244086
 20
43.9465702974
 30
0.0
 40
0.9998123397384461
100
AcDbArc
 50
230.0235431069
 51
345.6990068277
  0
LWPOLYLINE
  5
2C8
330
1F
100
AcDbEntity
  8
0
  6
Continuous
 62
     7
370
    18
100
AcDbPolyline
 90
       14
 70
   128
 43
0.0
 10
246.863318652
 20
47.193696944
 10
246.6986377439
 20
47.230518314
 10
246.3538528155
 20
47.2296023038
 10
246.0582954061
 20
47.1138397233
 10
245.8278970246
 20
46.8894724259
 10
245.6750804544
 20
46.568594458
 10
245.6080827704
 20
46.1685056025
 10
245.6305154305
 20
45.7107744467
 10
245.7411719812
 20
45.2200763774
 10
245.9340833752
 20
44.7228665779
 10
246.1988525118
 20
44.2459484885
 10
246.5212021459
 20
43.8150350616
 10
246.8837572393
 20
43.4533545268
 10
247.266972191
 20
43.1804056001
  0
LWPOLYLINE
  5
2C9
330
1F
100
AcDbEntity
  8
0
  6
Continuous
 62
     7
370
    18
100
AcDbPolyline
 90
       17
 70
   128
 43
0.0
 10
219.1571809675
 20
36.6771752315
 10
218.4577283333
 20
37.3072604141
 10
217.8324021273
 20
38.0416372674
 10
217.285237252
 20
38.8755658278
 10
216.8197648229
 20
39.8036643484
 10
216.4389904371
 20
40.8199427612
 10
216.1453704657
 20
41.9178414629
 10
215.9408001997
 20
43.090274853
 10
215.8266006795
 20
44.3296763917
 10
215.8035081578
 20
45.6280463444
 10
215.8716714656
 20
46.9770048951
 10
216.0306520124
 20
48.3678463771
 10
216.2794211515
 20
49.7915928382
 10
216.6163773028
 20
51.2390578469
 10
217.0393420011
 20
52.7008970395
 10
217.5455862378
 20
54.1676752289
 10
218.1318449493
 20
55.6299287607
  0
LINE
  5
2CA
330
1F
100
AcDbEntity
  8
0
  6
Continuous
 62
     7
370
    18
100
AcDbLine
 10
222.6889729445
 20
44.677361535
 30
0.0
 11
232.3376516327
 21
50.2474251795
 31
0.0
  0
LINE
  5
2CB
330
1F
100
AcDbEntity
  8
0
  6
Continuous
 62
     7
370
    18
100
AcDbLine
 10
220.0845650756
 20
48.7503715051
 30
0.0
 11
229.2757897726
 21
54.0563525817
 31
0.0
  0
LWPOLYLINE
  5
2CC
330
1F
100
AcDbEntity
  8
0
  6
Continuous
 62
     7
370
    18
100
AcDbPolyline
 90
       33
 70
   128
 43
0.0
 10
215.7169670336
 20
47.2633989336
 10
215.3602683764
 20
47.5421998486
 10
214.8458977005
 20
48.0714314257
 10
214.4053182538
 20
48.6982968523
 10
214.0429086987
 20
49.4165671463
 10
213.7622712737
 20
50.2191029342
 10
213.5661949148
 20
51.0979287898
 10
213.4566282552
 20
52.0443105665
 10
213.4346605275
 20
53.0488425905
 10
213.5005097099
 20
54.1015413184
 10
213.6535212093
 20
55.1919444343
 10
213.8921751048
 20
56.3092154134
 10
214.2140986606
 20
57.4422498189
 10
214.6160926675
 20
58.5797873968
 10
215.0941623946
 20
59.7105227201
 10
215.6435557845
 20
60.8232177339
 10
216.2588135035
 20
61.9068146793
 10
216.9338206363
 20
62.9505431238
 10
217.6618682609
 20
63.9440311733
 10
218.4357212781
 20
64.8774047058
 10
219.2476885465
 20
65.7413879364
 10
220.089700097
 20
66.5273928595
 10
220.9533880516
 20
67.2276093082
 10
221.8301684473
 20
67.8350765255
 10
222.7113275054
 20
68.3437588221
 10
223.5881079011
 20
68.7486007021
 10
224.4517958557
 20
69.0455771399
 10
225.2938074062
 20
69.23173806
 10
226.1057746746
 20
69.3052322826
 10
226.8796276917
 20
69.2653304256
 10
227.6076753164
 20
69.1124282712
 10
228.2826824492
 20
68.8480464734
 10
228.5202398682
 20
68.720956537
  0
LINE
  5
2CD
330
1F
100
AcDbEntity
  8
0
  6
Continuous
 62
     7
370
    18
100
AcDbLine
 10
233.4339636023
 20
65.2800620737
 30
0.0
 11
233.6382418038
 21
65.2666095187
 31
0.0
  0
LINE
  5
2CE
330
1F
100
AcDbEntity
  8
0
  6
Continuous
 62
     7
370
    18
100
AcDbLine
 10
224.4400069006
 20
59.6797570741
 30
0.0
 11
225.0375356135
 21
60.4329073703
 31
0.0
  0
LINE
  5
2CF
330
1F
100
AcDbEntity
  8
0
  6
Continuous
 62
     7
370
    18
100
AcDbLine
 10
223.5447538376
 20
63.7980080604
 30
0.0
 11
222.0049424348
 21
61.1309764846
 31
0.0
  0
LINE
  5
2D0
330
1F
100
AcDbEntity
  8
0
  6
Continuous
 62
     7
370
    18
100
AcDbLine
 10
222.5037207525
 20
64.3989836683
 30
0.0
 11
216.7556775763
 21
54.4430808722
 31
0.0
  0
LINE
  5
2D1
330
1F
100
AcDbEntity
  8
0
  6
Continuous
 62
     7
370
    18
100
AcDbLine
 10
222.1640777395
 20
64.3085936256
 30
0.0
 11
216.6641346213
 21
54.782412734
 31
0.0
  0
LINE
  5
2D2
330
1F
100
AcDbEntity
  8
0
  6
Continuous
 62
     7
370
    18
100
AcDbLine
 10
213.5662269983
 20
71.5097834832
 30
0.0
 11
221.1222733342
 21
67.3669848564
 31
0.0
  0
LINE
  5
2D3
330
1F
100
AcDbEntity
  8
0
  6
Continuous
 62
     7
370
    18
100
AcDbLine
 10
206.187401081
 20
62.3305942684
 30
0.0
 11
214.2334824037
 21
57.5983823399
 31
0.0
  0
LINE
  5
2D4
330
1F
100
AcDbEntity
  8
0
  6
Continuous
 62
     7
370
    18
100
AcDbLine
 10
229.235887573
 20
66.8358817113
 30
0.0
 11
227.8891344197
 21
67.613598498
 31
0.0
  0
LINE
  5
2D5
330
1F
100
AcDbEntity
  8
0
  6
Continuous
 62
     7
370
    18
100
AcDbLine
 10
206.187401081
 20
58.4032137051
 30
0.0
 11
213.4719466384
 21
53.9028532083
 31
0.0
  0
LINE
  5
2D6
330
1F
100
AcDbEntity
  8
0
  6
Continuous
 62
     7
370
    18
100
AcDbLine
 10
213.0358971547
 20
71.4623637268
 30
0.0
 11
213.5662269983
 21
71.5097834832
 31
0.0
  0
LINE
  5
2D7
330
1F
100
AcDbEntity
  8
0
  6
Continuous
 62
     7
370
    18
100
AcDbLine
 10
205.9222361592
 20
62.6130372922
 30
0.0
 11
206.187401081
 21
62.3305942684
 31
0.0
  0
OLE2FRAME
  5
2D8
330
1F
100
AcDbEntity
  8
0
100
AcDbOle2Frame
 70
     2
  3
Paintbrush-Bild
 10
13.8511154363
 20
38.264191557
 30
0.0
 11
51.6290888628
 21
31.9806341108
 31
0.0
 71
     2
 72
     0
 73
     1
 90
    12928
310
80552BED0767C5B32B40DDAF6807D121434000000000000000006FFBDDFB85D0
310
4940DDAF6807D121434000000000000000006FFBDDFB85D04940416F4BD60AFB
310
3F4000000000000000002BED0767C5B32B40416F4BD60AFB3F40000000000000
310
0000000000000100000000010000010000000100000000000100000000320000
310
D0CF11E0A1B11AE1000000000000000000000000000000003E000300FEFF0900
310
0600000000000000000000000100000001000000000000000010000002000000
310
01000000FEFFFFFF0000000000000000FFFFFFFFFFFFFFFFFFFFFFFFFFFFFFFF
310
FFFFFFFFFFFFFFFFFFFFFFFFFFFFFFFFFFFFFFFFFFFFFFFFFFFFFFFFFFFFFFFF
310
FFFFFFFFFFFFFFFFFFFFFFFFFFFFFFFFFFFFFFFFFFFFFFFFFFFFFFFFFFFFFFFF
310
FFFFFFFFFFFFFFFFFFFFFFFFFFFFFFFFFFFFFFFFFFFFFFFFFFFFFFFFFFFFFFFF
310
FFFFFFFFFFFFFFFFFFFFFFFFFFFFFFFFFFFFFFFFFFFFFFFFFFFFFFFFFFFFFFFF
310
FFFFFFFFFFFFFFFFFFFFFFFFFFFFFFFFFFFFFFFFFFFFFFFFFFFFFFFFFFFFFFFF
310
FFFFFFFFFFFFFFFFFFFFFFFFFFFFFFFFFFFFFFFFFFFFFFFFFFFFFFFFFFFFFFFF
310
FFFFFFFFFFFFFFFFFFFFFFFFFFFFFFFFFFFFFFFFFFFFFFFFFFFFFFFFFFFFFFFF
310
FFFFFFFFFFFFFFFFFFFFFFFFFFFFFFFFFFFFFFFFFFFFFFFFFFFFFFFFFFFFFFFF
310
FFFFFFFFFFFFFFFFFFFFFFFFFFFFFFFFFFFFFFFFFFFFFFFFFFFFFFFFFFFFFFFF
310
FFFFFFFFFFFFFFFFFFFFFFFFFFFFFFFFFFFFFFFFFFFFFFFFFFFFFFFFFFFFFFFF
310
FFFFFFFFFFFFFFFFFFFFFFFFFFFFFFFFFFFFFFFFFFFFFFFFFFFFFFFFFFFFFFFF
310
FFFFFFFFFFFFFFFFFFFFFFFFFFFFFFFFFFFFFFFFFFFFFFFFFFFFFFFFFFFFFFFF
310
FFFFFFFFFFFFFFFFFFFFFFFFFFFFFFFFFFFFFFFFFFFFFFFFFFFFFFFFFFFFFFFF
310
FDFFFFFFFEFFFFFFFEFFFFFFFEFFFFFF05000000060000000700000008000000
310
090000000A0000000B0000000C0000000D0000000E0000000F00000010000000
310
11000000120000001300000014000000150000001600000017000000FEFFFFFF
310
FFFFFFFFFFFFFFFFFFFFFFFFFFFFFFFFFFFFFFFFFFFFFFFFFFFFFFFFFFFFFFFF
310
FFFFFFFFFFFFFFFFFFFFFFFFFFFFFFFFFFFFFFFFFFFFFFFFFFFFFFFFFFFFFFFF
310
FFFFFFFFFFFFFFFFFFFFFFFFFFFFFFFFFFFFFFFFFFFFFFFFFFFFFFFFFFFFFFFF
310
FFFFFFFFFFFFFFFFFFFFFFFFFFFFFFFFFFFFFFFFFFFFFFFFFFFFFFFFFFFFFFFF
310
FFFFFFFFFFFFFFFFFFFFFFFFFFFFFFFFFFFFFFFFFFFFFFFFFFFFFFFFFFFFFFFF
310
FFFFFFFFFFFFFFFFFFFFFFFFFFFFFFFFFFFFFFFFFFFFFFFFFFFFFFFFFFFFFFFF
310
FFFFFFFFFFFFFFFFFFFFFFFFFFFFFFFFFFFFFFFFFFFFFFFFFFFFFFFFFFFFFFFF
310
FFFFFFFFFFFFFFFFFFFFFFFFFFFFFFFFFFFFFFFFFFFFFFFFFFFFFFFFFFFFFFFF
310
FFFFFFFFFFFFFFFFFFFFFFFFFFFFFFFFFFFFFFFFFFFFFFFFFFFFFFFFFFFFFFFF
310
FFFFFFFFFFFFFFFFFFFFFFFFFFFFFFFFFFFFFFFFFFFFFFFFFFFFFFFFFFFFFFFF
310
FFFFFFFFFFFFFFFFFFFFFFFFFFFFFFFFFFFFFFFFFFFFFFFFFFFFFFFFFFFFFFFF
310
FFFFFFFFFFFFFFFFFFFFFFFFFFFFFFFFFFFFFFFFFFFFFFFFFFFFFFFFFFFFFFFF
310
FFFFFFFFFFFFFFFFFFFFFFFFFFFFFFFFFFFFFFFFFFFFFFFFFFFFFFFFFFFFFFFF
310
52006F006F007400200045006E00740072007900000000000000000000000000
310
0000000000000000000000000000000000000000000000000000000000000000
310
16000500FFFFFFFFFFFFFFFF020000000A00030000000000C000000000000046
310
00000000000000000000000030C7FA9706A4D30103000000C000000000000000
310
01004F006C006500000000000000000000000000000000000000000000000000
310
0000000000000000000000000000000000000000000000000000000000000000
310
0A000200FFFFFFFFFFFFFFFFFFFFFFFF00000000000000000000000000000000
310
0000000000000000000000000000000000000000000000001400000000000000
310
010043006F006D0070004F0062006A0000000000000000000000000000000000
310
0000000000000000000000000000000000000000000000000000000000000000
310
120002010100000003000000FFFFFFFF00000000000000000000000000000000
310
0000000000000000000000000000000000000000010000004D00000000000000
310
01004F006C006500310030004E00610074006900760065000000000000000000
310
0000000000000000000000000000000000000000000000000000000000000000
310
1A000200FFFFFFFFFFFFFFFFFFFFFFFF00000000000000000000000000000000
310
0000000000000000000000000000000000000000040000002426000000000000
310
FEFFFFFF02000000FEFFFFFFFFFFFFFFFFFFFFFFFFFFFFFFFFFFFFFFFFFFFFFF
310
FFFFFFFFFFFFFFFFFFFFFFFFFFFFFFFFFFFFFFFFFFFFFFFFFFFFFFFFFFFFFFFF
310
FFFFFFFFFFFFFFFFFFFFFFFFFFFFFFFFFFFFFFFFFFFFFFFFFFFFFFFFFFFFFFFF
310
FFFFFFFFFFFFFFFFFFFFFFFFFFFFFFFFFFFFFFFFFFFFFFFFFFFFFFFFFFFFFFFF
310
FFFFFFFFFFFFFFFFFFFFFFFFFFFFFFFFFFFFFFFFFFFFFFFFFFFFFFFFFFFFFFFF
310
FFFFFFFFFFFFFFFFFFFFFFFFFFFFFFFFFFFFFFFFFFFFFFFFFFFFFFFFFFFFFFFF
310
FFFFFFFFFFFFFFFFFFFFFFFFFFFFFFFFFFFFFFFFFFFFFFFFFFFFFFFFFFFFFFFF
310
FFFFFFFFFFFFFFFFFFFFFFFFFFFFFFFFFFFFFFFFFFFFFFFFFFFFFFFFFFFFFFFF
310
FFFFFFFFFFFFFFFFFFFFFFFFFFFFFFFFFFFFFFFFFFFFFFFFFFFFFFFFFFFFFFFF
310
FFFFFFFFFFFFFFFFFFFFFFFFFFFFFFFFFFFFFFFFFFFFFFFFFFFFFFFFFFFFFFFF
310
FFFFFFFFFFFFFFFFFFFFFFFFFFFFFFFFFFFFFFFFFFFFFFFFFFFFFFFFFFFFFFFF
310
FFFFFFFFFFFFFFFFFFFFFFFFFFFFFFFFFFFFFFFFFFFFFFFFFFFFFFFFFFFFFFFF
310
FFFFFFFFFFFFFFFFFFFFFFFFFFFFFFFFFFFFFFFFFFFFFFFFFFFFFFFFFFFFFFFF
310
FFFFFFFFFFFFFFFFFFFFFFFFFFFFFFFFFFFFFFFFFFFFFFFFFFFFFFFFFFFFFFFF
310
FFFFFFFFFFFFFFFFFFFFFFFFFFFFFFFFFFFFFFFFFFFFFFFFFFFFFFFFFFFFFFFF
310
FFFFFFFFFFFFFFFFFFFFFFFFFFFFFFFFFFFFFFFFFFFFFFFFFFFFFFFFFFFFFFFF
310
0100000200000000000000000000000000000000000000000000000000000000
310
0000000000000000000000000000000000000000000000000000000000000000
310
0100FEFF030A0000FFFFFFFF0A00030000000000C00000000000004607000000
310
5042727573680007000000504272757368000700000050427275736800F439B2
310
7100000000000000000000000000000000000000000000000000000000000000
310
0000000000000000000000000000000000000000000000000000000000000000
310
0000000000000000000000000000000000000000000000000000000000000000
310
0000000000000000000000000000000000000000000000000000000000000000
310
0000000000000000000000000000000000000000000000000000000000000000
310
0000000000000000000000000000000000000000000000000000000000000000
310
0000000000000000000000000000000000000000000000000000000000000000
310
0000000000000000000000000000000000000000000000000000000000000000
310
0000000000000000000000000000000000000000000000000000000000000000
310
0000000000000000000000000000000000000000000000000000000000000000
310
0000000000000000000000000000000000000000000000000000000000000000
310
0000000000000000000000000000000000000000000000000000000000000000
310
20260000424D0E260000000000003E00000028000000B40200006E0000000100
310
01000000000000000000130B0000130B00000200000002000000000000FFFFFF
310
FFFFFFFFFFFFFFFFFFFFFFFFFFFFFFFFFFFFFFFFFFFFFFFFFFFFFFFFFFFFFFFF
310
FFFFFFFFFFFFFFFFFFFFFFFFFFFFFFFFFFFFFFFFFFFFFFFFFFFFFFFFFFFFFFFF
310
FFFFFFFFFFFFFFFFFFFFFFFFFFFFFFFFFFFFFFFFFFFFFFFFF000FFFFFFFFFFFF
310
FFFFFFFFFFFFFFFFFFFFFFFFFFFFFFFFFFFFFFFFFFFFFFFFFFFFFFFFFFFFFFFF
310
FFFFFFFFFFFFFFFFFFFFFFFFFFFFFFFFFFFFFFFFFFFFFFFFFFFFFFFFFFFFFFFF
310
FFFFFFFFFFFFFFFFFFFFFFFFFFFFFFFFF000FFFFFFFFFFFFFFFFFFFFFFFFFFFF
310
FFFFFFFFFFFFFFFFFFFFFFFFFFFFFFFFFFFFFFFFFFFFFFFFFFFFFFFFFFFFFFFF
310
FFFFFFFFFFFFFFFFFFFFFFFFFFFFFFFFFFFFFFFFFFFFFFFFFFFFFFFFFFFFFFFF
310
FFFFFFFFFFFFFFFFF000FFFFFFFFFFFFFFFFFFFFFFFFFFFFFFFFFFFFFFFFFFFF
310
FFFFFFFFFFFFFFFFFFFFFFFFFFFFFFFFFFFFFFFFFFFFFFFFFFFFFFFFFFFFFFFF
310
FFFFFFFFFFFFFFFFFFFFFFFFFFFFFFFFFFFFFFFFFFFFFFFFFFFFFFFFFFFFFFFF
310
F000FFFFFFFFFFFFFFFFFFFFFFFFFFFFFFFFFFFFFFFFFFFFFFFFFFFFFFFFFFFF
310
FFFFFFFFFFFFFFFFFFFFFFFFFFFFFFFFFFFFFFFFFFFFFFFFFFFFFFFFFFFFFFFF
310
FFFFFFFFFFFFFFFFFFFFFFFFFFFFFFFFFFFFFFFFFFFFFFFFF000FFFFFFFFFFFF
310
FFFFFFFFFFFFFFFFFFFFFFFFFFFFFFFFFFFFFFFFFFFFFFFFFFFFFFFFFFFFFFFF
310
FFFFFFFFFFFFFFFFFFFFFFFFFFFFFFFFFFFFFFFFFFFFFFFFFFFFFFFFFFFFFFFF
310
FFFFFFFFFFFFFFFFFFFFFFFFFFFFFFFFF000FFFFFFFFFFFFFFFFFFFFFFFFFFFF
310
FFFFFFFFFFFFFFFFFFFFFFFFFFFFFFFFFFFFFFFFFFFFFFFFFFFFFFFFFFFFFFFF
310
FFFFFFFFFFFFFFFFFFFFFFFFFFFFFFFFFFFFFFFFFFFFFFFFFFFFFFFFFFFFFFFF
310
FFFFFFFFFFFFFFFFF000FFFFFFFFFFFFFFFFFFFFFFFFFFFFFFFFFFFFFFFFFFFF
310
FFFFFFFFFFFFFFFFFFFFFFFFFFFFFFFFFFFFFFFFFFFFFFFFFFFFFFFFFFFFFFFF
310
FFFFFFFFFFFFFFFFFFFFFFFFFFFFFFFFFFFFFFFFFFFFFFFFFFFFFFFFFFFFFFFF
310
F000FFFFFFFFFFFFFFFFFFFFFFFFFFFFFFFFFFFFFFFFFFFFFFFFFFFFFFFFFFFF
310
FFFFFFFFFFFFFFFFFFFFFFFFFFFFFFFFFFFFFFFFFFFFFFFFFFFFFFFFFFFFFFFF
310
FFFFFFFFFFFFFFFFFFFFFFFFFFFFFFFFFFFFFFFFFFFFFFFFF000FFFFFFFFFFFF
310
FFFFFFFFFFFFFFFFFFFFFFFFFFFFFFFFFFFFFFFFFFFFFFFFFFFFFFFFFFFFFFFF
310
FFFFFFFFFFFFFFFFFFFFFFFFFFFFFFFFFFFFFFFFFFFFFFFFFFFFFFFFFFFFFFFF
310
FFFFFFFFFFFFFFFFFFFFFFFFFFFFFFFFF000FFFFFFFFFFFFFFFFFFFFFFFFFFFF
310
FFFFFFFFFFFFFFFFFFFFFFFFFFFFFFFFFFFFFFFFFFFFFFFFFFFFFFFFFFFFFFFF
310
FFFFFFFFFFFFFFFFFFFFFFFFFFFFFFFFFFFFFFFFFFFFFFFFFFFFFFFFFFFFFFFF
310
FFFFFFFFFFFFFFFFF000FFFFFFFFFFFFFFFFFFFFFFFFFFFFFFFFFFFFFFFFFFFF
310
FFFFFFFFFFFFFFFFFFFFFFFFFFFFFFFFFFFFFFFFFFFFFFFFFFFFFFFFFFFFFFFF
310
FFFFFFFFFFFFFFFFFFFFFFFFFFFFFFFFFFFFFFFFFFFFFFFFFFFFFFFFFFFFFFFF
310
F000FFFFFFFFFFFFFFFFFFFFFFFFFFFFFFFFFFFFFFFFFFFFFFFFFFFFFFFFFFFF
310
FFFFFFFFFFFFFFFFFFFFFFFFFFFFFFFFFFFFFFFFFFFFFFFFFFFFFFFFFFFFFFFF
310
FFFFFFFFFFFFFFFFFFFFFFFFFFFFFFFFFFFFFFFFFFFFFFFFF000FFFFFFFFFFFF
310
FFFFFFFFFFFFFFFFFFFFFFFFFFFFFFFFFFFFFFFFFFFFFFFFFFFFFFFFFFFFFFFF
310
FFFFFFFFFFFFFFFFFFFFFFFFFFFFFFFFFFFFFFFFFFFFFFFFFFFFFFFFFFFFFFFF
310
FFFFFFFFFFFFFFFFFFFFFFFFFFFFFFFFF000FFFFFFFFFFFFFFFFFFFFFFFFFFFF
310
FFFFFFFFFFFFFFFFFFFFFFFFFFFFFFFFFFFFFFFFFFFFFFFFFFFFFFFFFFFFFFFF
310
FFFFFFFFFFFFFFFFFFFFFFFFFFFFFFFFFFFFFFFFFFFFFFFFFFFFFFFFFFFFFFFF
310
FFFFFFFFFFFFFFFFF000FFFFFFFFFFFFFFFFFFFFFFFFFFFFFFFFFFFFFFFFFFFF
310
FFFFFFFFFFFFFFFFFFFFFFFFFFFFFFFFFFFFFFFFFFFFFFFFFFFFFFFFFFFFFFFF
310
FFFFFFFFFFFFFFFFFFFFFFFFFFFFFFFFFFFFFFFFFFFFFFFFFFFFFFFFFFFFFFFF
310
F000FFFFFFFFFFFFFFFFFFFFFFFFFFFFFFFFFFFFFFFFFFFFFFFFFFFFFFFFFFFF
310
FFFFFFFFFFFFFFFFFFFFFFFFFFFFFFFFFFFFFFFFFFFFFFFFFFFFFFFFFFFFFFFF
310
FFFFFFFFFFFFFFFFFFFFFFFFFFFFFFFFFFFFFFFFFFFFFFFFF000FFFFFFFFFFFF
310
FFFFFFFFFFFFFFFFFFFFFFFFFFFFFFFFFFFFFFFFFFFFFFFFFFFFFFFFFFFFFFFF
310
FFFFFFFFFFFFFFFFFFFFFFFFFFFFFFFFFFFFFFFFFFFFFFFFFFFFFFFFFFFFFFFF
310
FFFFFFFFFFFFFFFFFFFFFFFFFFFFFFFFF000FFFFFFFFFFFFFFFFFFFFFFFFFFFF
310
FFFFFFFFFFFFFFFFFFFFFFFFFFFFFFFFFFFFFFFFFFFFFFFFFFFFFFFFFFFFFFFF
310
FFFFFFFFFFFFFFFFFFFFFFFFFFFFFFFFFFFFFFFFFFFFFFFFFFFFFFFFFFFFFFFF
310
FFFFFFFFFFFFFFFFF000FFFFF80003FFFFFFFFFFFFFFFFFFFFFFFFFFFFFFFFFF
310
FFFFF00007FFFFFFFFFF00007FFFFFF800000000000000007FFFFFFFFFFFFFFF
310
FFFFFFFC001FFFFFFFFFFFFFFC001FFFFFFFFFFFFFFFFFFFFFFFFFFE0007FFFF
310
F000FFFF8000007FFFFFFFF8000FFFFFC0007FFFFF80007FFFFF0000007FFFFF
310
FFF8000007FFFFF800000000000000007FFFFFF0001FFFFFFFFFFFC00001FFFF
310
FFFFFFFFC00001FFFFFFFF000000000003FFFFE000007FFFF000FFFE0000000F
310
FFFFFFF0000FFFFF80007FFFFF80007FFFFC0000001FFFFFFFC0000001FFFFF8
310
00000000000000007FFFFFF0001FFFFFFFFFFE0000003FFFFFFFFFFE0000003F
310
FFFFFF000000000003FFFF0000000FFFF000FFF800000003FFFFFFF00007FFFF
310
80007FFFFF80007FFFF000000007FFFFFF000000003FFFF80000000000000000
310
7FFFFFF0001FFFFFFFFFF80000000FFFFFFFFFF80000000FFFFFFF0000000000
310
03FFFC00000003FFF000FFE000000000FFFFFFF00007FFFF80003FFFFF80007F
310
FFC000000001FFFFFC000000001FFFF800000000000000007FFFFFF0001FFFFF
310
FFFFE000000003FFFFFFFFE000000003FFFFFF000000000003FFF000000000FF
310
F000FF80000000007FFFFFF00007FFFF80003FFFFF80007FFF8000000000FFFF
310
F80000000007FFF800000000000000007FFFFFF0001FFFFFFFFFC000000001FF
310
FFFFFFC000000001FFFFFF000000000003FFC0000000007FF000FF0000000000
310
3FFFFFE00007FFFF00003FFFFF80007FFE00000000003FFFF00000000003FFF8
310
00000000000000007FFFFFF0001FFFFFFFFF8000000000FFFFFFFF8000000000
310
FFFFFF000000000003FF80000000003FF000FE00000000001FFFFFE00003FFFF
310
00003FFFFF80007FFC00000000001FFFE00000000001FFF8000001FFFE000000
310
7FFFFFF0001FFFFFFFFE00000000003FFFFFFE00000000003FFFFF0000000000
310
03FF00000000001FF000FC00000000000FFFFFE00003FFFF00001FFFFF80007F
310
F800000000001FFFC00000000000FFF8000001FFFE0000007FFFFFF0001FFFFF
310
FFFC00000000001FFFFFFC00000000001FFFFF000000000003FE00000000000F
310
F000F8000000000007FFFFE00003FFFF00001FFFFF80007FF800000000000FFF
310
800000000000FFF8000001FFFE0000007FFFFFF0001FFFFFFFF800000000000F
310
FFFFF800000000000FFFFF000000000003FC000000000007F000F80000000000
310
03FFFFC00003FFFE00001FFFFF80007FF0000000000007FF0000000000007FF8
310
000001FFFE0000007FFFFFF0001FFFFFFFF0000000000007FFFFF00000000000
310
07FFFF000000000003F8000000000003F000F0000000000003FFFFC00001FFFE
310
00001FFFFF80007FE0000000000007FE0000000000003FF8000001FFFE000000
310
7FFFFFF0001FFFFFFFF0000000000007FFFFF0000000000007FFFF0000000000
310
03F800001F800003F000E00001FFF00001FFFFC00001FFFE00000FFFFF80007F
310
E00001FFE00003FE00001FFF00003FF8000001FFFE0000007FFFFFF0001FFFFF
310
FFE000003E000003FFFFE000003E000003FFFF000000000003F00001FFF80001
310
F000E00007FFFC0001FFFFC00001FFFE00000FFFFF80007FC0000FFFFC0003FC
310
0000FFFFC0001FF8000001FFFE0000007FFFFFF0001FFFFFFFC00003FFE00001
310
FFFFC00003FFE00001FFFF0001FFFFFFFFF00007FFFE0001F000E0000FFFFF00
310
00FFFF800001FFFC00000FFFFF80007FC0001FFFFE0001FC0001FFFFE0001FF8
310
000001FFFE0000007FFFFFF0001FFFFFFF80000FFFF80000FFFF80000FFFF800
310
00FFFF0003FFFFFFFFE0000FFFFF8000F000C0003FFFFF8000FFFF800000FFFC
310
000007FFFF80007F80003FFFFF0001FC0003FFFFF0001FF8000001FFFE000000
310
7FFFFFF0001FFFFFFF80003FFFFE0000FFFF80003FFFFE0000FFFF0003FFFFFF
310
FFE0003FFFFF8000F000C0003FFFFF8000FFFF800000FFFC000007FFFF80007F
310
80007FFFFF8001F80007FFFFF8000FF8000001FFFE0000007FFFFFF0001FFFFF
310
FF00007FFFFF00007FFF00007FFFFF00007FFF0003FFFFFFFFE0003FFFFFC000
310
F000C0007FFFFFC000FFFF000000FFFC000007FFFF80007F8000FFFFFF8000F8
310
000FFFFFF8000FF8000001FFFE0000007FFFFFF0001FFFFFFF0000FFFFFF8000
310
7FFF0000FFFFFF80007FFF0003FFFFFFFFC0007FFFFFC00070008000FFFFFFC0
310
00FFFF000000FFF8000007FFFF80007F8000FFFFFF8000F8000FFFFFF8000FF8
310
000001FFFE0000007FFFFFF0001FFFFFFE0001FFFFFFC0003FFE0001FFFFFFC0
310
003FFF0003FFFFFFFFC0007FFFFFE00070008000FFFFFFC0007FFF0000007FF8
310
000003FFFF80007F0001FFFFFF8000F8000FFFFFF8000FF8000001FFFE000000
310
7FFFFFF0001FFFFFFE0001FFFFFFC0003FFE0001FFFFFFC0003FFF0003FFFFFF
310
FFC000FFFFFFE00070008000FFFFFFC0007FFF0000007FF8000003FFFF80007F
310
0001FFFFFF8000F8001FFFFFF8000FF8000001FFFE0000007FFFFFF0001FFFFF
310
FE0003FFFFFFE0003FFE0003FFFFFFE0003FFF0003FFFFFFFFC000FFFFFFE000
310
70008000FFFFFFC0007FFE0000007FF8000003FFFF80007F0001FFFFFF8000F0
310
001FFFFFF8000FF8000001FFFE0000007FFFFFF0001FFFFFFC0003FFFFFFE000
310
1FFC0003FFFFFFE0001FFF0003FFFFFFFFC000FFFFFFC00070008000FFFFFF80
310
007FFE0000007FF0000003FFFF80007F0001FFFFFF0000F0001FFFFFF8000FF8
310
000001FFFE0000007FFFFFF0001FFFFFFC0007FFFFFFF0001FFC0007FFFFFFF0
310
001FFF0003FFFFFFFFC000FFFFFFC00070008001FFFFFF0000FFFE0000003FF0
310
000001FFFF80007F0001FFFFFF0000F8001FFFFFF0000FF8000001FFFE000000
310
7FFFFFF0001FFFFFFC0007FFFFFFF0001FFC0007FFFFFFF0001FFF0003FFFFFF
310
FFC001FFFFFF80007000FFFFFFFFFE0000FFFE0008003FF0008001FFFF80007F
310
FFFFFFFFFC0000FFFFFFFFFFE0000FF8000001FFFE0000007FFFFFF0001FFFFF
310
F8000FFFFFFFF8000FF8000FFFFFFFF8000FFF0003FFFFFFFFFFFFFFFFFF0000
310
7000FFFFFFFFFC0000FFFC0008003FF0008001FFFF80007FFFFFFFFFF80001FF
310
FFFFFFFF80000FF8000001FFFE0000007FFFFFF0001FFFFFF8000FFFFFFFF800
310
0FF8000FFFFFFFF8000FFF0003FFFFFFFFFFFFFFFFFE0000F000FFFFFFFFE000
310
00FFFC000C003FE000C001FFFF80007FFFFFFFFFC00001FFFFFFFFFE00001FF8
310
000001FFFE0000007FFFFFF0001FFFFFF8000FFFFFFFF8000FF8000FFFFFFFF8
310
000FFF0003FFFFFFFFFFFFFFFFF00000F000FFFFFFFE000001FFFC000C001FE0
310
00C000FFFF80007FFFFFFFFE000001FFFFFFFFE000001FF80FFFFFFFFFFFFFC0
310
7FFFFFF0001FFFFFF8000FFFFFFFF8000FF8000FFFFFFFF8000FFF0003FFFFFF
310
FFFFFFFFFF800000F000FFFFFFC0000001FFFC001C001FE001C000FFFF80007F
310
FFFFFF80000003FFFFFFF80000001FF80FFFFFFFFFFFFFC07FFFFFF0001FFFFF
310
F8001FFFFFFFFC000FF8001FFFFFFFFC000FFF0003FFFFFFFFFFFFFFF0000001
310
F000FFFFF800000001FFF8001C001FE001C000FFFF80007FFFFFF800000003FF
310
FFFF800000003FF80FFFFFFFFFFFFFC07FFFFFF0001FFFFFF8001FFFFFFFFC00
310
0FF8001FFFFFFFFC000FFF0003FFFFFFFFFFFFFE00000001F000FFFFC0000000
310
03FFF8001E001FC001E000FFFF80007FFFFF8000000007FFFFFC000000003FF8
310
0FFFFFFFFFFFFFC07FFFFFF0001FFFFFF8001FFFFFFFFC000FF8001FFFFFFFFC
310
000FFF0003FFFFFFFFFFFFE000000003F000FFFE0000000007FFF8001E000FC0
310
01E0007FFF80007FFFFE0000000007FFFFE0000000007FF80FFFFFFFFFFFFFC0
310
7FFFFFF0001FFFFFF0001FFFFFFFFC0007F0001FFFFFFFFC0007FF0003FFFFFF
310
FFFFFF0000000003F000FFF80000000007FFF8001E000FC003E0007FFF80007F
310
FFF0000000000FFFFF8000000000FFF80FFFFFFFFFFFFFC07FFFFFF0001FFFFF
310
F0001FFFFFFFFC0007F0001FFFFFFFFC0007FF0003FFFFFFFFFFFC0000000007
310
F000FFE0000000000FFFF0003E000FC003E0007FFF80007FFFC0000000001FFF
310
FE0000000001FFF80FFFFFFFFFFFFFC07FFFFFF0001FFFFFF0001FFFFFFFFC00
310
07F0001FFFFFFFFC0007FF0003FFFFFFFFFFF0000000000FF000FFC000000000
310
1FFFF0003F000F8003F0003FFF80007FFF80000000003FFFF80000000003FFF8
310
0FFFFFFFFFFFFFC07FFFFFF0001FFFFFF0001FFFFFFFFC0007F0001FFFFFFFFC
310
0007FF0003FFFFFFFFFFE0000000001FF000FF00000000007FFFF0003F000780
310
03F0003FFF80007FFF00000000007FFFF00000000007FFF80FFFFFFFFFFFFFC0
310
7FFFFFF0001FFFFFF0001FFFFFFFFC0007F0001FFFFFFFFC0007FF0003FFFFFF
310
FFFF80000000007FF000FE0000000000FFFFE0003F00078007F0003FFF80007F
310
FE0000000001FFFFE0000000001FFFF80FFFFFFFFFFFFFC07FFFFFF0001FFFFF
310
F0001FFFFFFFFC0007F0001FFFFFFFFC0007FF0003FFFFFFFFFF0000000000FF
310
F000FC0000000003FFFFE0007F00078007F0003FFF80007FFC0000000007FFFF
310
C0000000007FFFF80FFFFFFFFFFFFFC07FFFFFF0001FFFFFF8001FFFFFFFFC00
310
0FF8001FFFFFFFFC000FFF0003FFFFFFFFFE0000000003FFF000FC000000000F
310
FFFFE0007F80070007F8001FFF80007FF8000000001FFFFF8000000001FFFFF8
310
0FFFFFFFFFFFFFC07FFFFFF0001FFFFFF8001FFFFFFFFC000FF8001FFFFFFFFC
310
000FFF0003FFFFFFFFFC000000000FFFF000F8000000007FFFFFE0007F800700
310
07F8001FFF80007FF000000000FFFFFF800000000FFFFFF80FFFFFFFFFFFFFC0
310
7FFFFFF0001FFFFFF8000FFFFFFFF8000FF8000FFFFFFFF8000FFF0003FFFFFF
310
FFFC000000007FFFF000F800000007FFFFFFC0007F8003000FF8001FFF80007F
310
F000000007FFFFFF000000007FFFFFF80FFFFFFFFFFFFFC07FFFFFF0001FFFFF
310
F8000FFFFFFFF8000FF8000FFFFFFFF8000FFF0003FFFFFFFFF80000000FFFFF
310
F000F0000000FFFFFFFFC000FF8003000FF8001FFF80007FE0000000FFFFFFFF
310
0000000FFFFFFFF8000001FFFE0000007FFFFFF0001FFFFFF8000FFFFFFFF800
310
0FF8000FFFFFFFF8000FFF0003FFFFFFFFF8000000FFFFFFF000F000000FFFFF
310
FFFFC000FFC002000FF8000FFF80007FE000001FFFFFFFFE000001FFFFFFFFF8
310
000001FFFE0000007FFFFFF0001FFFFFF8000FFFFFFFF8000FF8000FFFFFFFF8
310
000FFF0003FFFFFFFFF000001FFFFFFFF000E00000FFFFFFFFFFC000FFC00200
310
0FFC000FFF80007FE00001FFFFFFFFFE00001FFFFFFFFFF8000001FFFE000000
310
7FFFFFF0001FFFFFFC000FFFFFFFF8001FFC000FFFFFFFF8001FFF0003FFFFFF
310
FFF00001FFFFFFFFF000E00007FFFFFFFFFF8000FFC000001FFC000FFF80007F
310
C0000FFFFFFFFFFE0000FFFFFFFFFFF8000001FFFE0000007FFFFFF0001FFFFF
310
FC0007FFFFFFF0001FFC0007FFFFFFF0001FFF0003FFFFFFFFF00007FFFFFFFF
310
F000E0001FFFFFFFFFFF8000FFC000001FFC000FFF80007FC0003FFFFFFFFFFE
310
0001FFFFFFFFFFF8000001FFFE0000007FFFFFF0001FFFFFFC0007FFFFFFF000
310
1FFC0007FFFFFFF0001FFF0003FFFFFFFFF0001FFFFFFFFFF000E0003FFFFF00
310
03FF8001FFE000001FFC0007FF80007FC0007FFFFF0007FC0003FFFFF0003FF8
310
000001FFFE0000007FFFFFF0001FFFFFFC0003FFFFFFE0001FFC0003FFFFFFE0
310
001FFF0003FFFFFFFFF0003FFFFFFFFFF000E0003FFFFF0001FF8001FFE00000
310
1FFE0007FF80007FC0007FFFFE0003FC0007FFFFE0003FF8000001FFFE000000
310
7FFFFFF0001FFFFFFE0003FFFFFFE0003FFE0003FFFFFFE0003FFF0003FFFFFF
310
FFF0003FFFFF8001F000E0003FFFFF0001FF0001FFE000001FFE0007FF80007F
310
C0007FFFFE0003FC0007FFFFE0003FF8000001FFFE0000007FFFFFF0001FFFFF
310
FE0001FFFFFFC0003FFE0001FFFFFFC0003FFF0003FFFFFFFFF0003FFFFF0001
310
F000E0003FFFFF0003FF0001FFE000003FFE0007FF80007FC0007FFFFE0003FC
310
0007FFFFE0003FF8000001FFFE0000007FFFFFF0001FFFFFFF0001FFFFFFC000
310
7FFF0001FFFFFFC0007FFF0003FFFFFFFFF0003FFFFF0001F000E0003FFFFE00
310
03FF0003FFF000003FFE0003FF80007FC0007FFFFC0003FE0007FFFFE0003FF8
310
000001FFFE0000007FFFFFF0001FFFFFFF0000FFFFFF80007FFF0000FFFFFF80
310
007FFF0003FFFFFFFFF0003FFFFF0001F000E0003FFFFE0003FF0003FFF00000
310
3FFF0003FF80007FC0007FFFFC0007FE0007FFFFC0003FF8000001FFFE000000
310
7FFFFFF0001FFFFFFF80007FFFFF0000FFFF80007FFFFF0000FFFF0003FFFFFF
310
FFF0003FFFFF0003F000E0003FFFFC0003FE0003FFF000003FFF0003FF80007F
310
E0003FFFF80007FE0003FFFFC0007FF8000001FFFE0000007FFFFFF0001FFFFF
310
FF80003FFFFE0000FFFF80003FFFFE0000FFFF0003FFFFFFFFF0001FFFFE0003
310
F000F0001FFFF80003FE0003FFF000007FFF0001FF80007FE0003FFFF00007FE
310
0001FFFF80007FF8000001FFFE0000007FFFFFF0001FFFFFFFC0000FFFF80001
310
FFFFC0000FFFF80001FFFF0003FFFFFFFFF0001FFFFC0003F000F0000FFFF000
310
07FE0007FFF800007FFF0001FF80007FE0001FFFE00007FF0000FFFE00007FF8
310
000001FFFE0000007FFFFFF0001FFFFFFFC00003FFE00001FFFFC00003FFE000
310
01FFFF0003FFFFFFFFF8000FFFF80003F000F00003FFC00007FC0007FFF80000
310
7FFF8001FF80007FF00007FF80000FFF00007FF80000FFF8000001FFFE000000
310
7F80000000000001FFE000003E000003FFFFE000003E000003FFFF0003FFFFFF
310
FFF80003FFE00007F000F800000000000FFC0007FFF800007FFF8001FF80007F
310
F000000000000FFF000000000000FFF8000001FFFE0000007F80000000000001
310
FFF0000000000007FFFFF0000000000007FFFF0003FFFFFFFFFC00007E000007
310
F000F800000000000FFC0007FFF80000FFFF8000FF80007FF800000000001FFF
310
800000000001FFF8000001FFFE0000007F80000000000001FFF800000000000F
310
FFFFF800000000000FFFFF0003FFFFFFFFFC00000000000FF000FC0000000000
310
1FFC0007FFFC0000FFFF8000FF80007FF800000000003FFFC00000000001FFF8
310
000001FFFE0000007F80000000000001FFF800000000000FFFFFF80000000000
310
0FFFFF0003FFFFFFFFFE00000000001FF000FE00000000003FF8000FFFFC0000
310
FFFF8000FF80007FFC00000000003FFFC00000000003FFF8000001FFFE000000
310
7F80000000000001FFFC00000000001FFFFFFC00000000001FFFFF0003FFFFFF
310
FFFF00000000001FF000FF00000000003FF8000FFFFC0000FFFFC000FF80007F
310
FE00000000007FFFE00000000007FFF8000001FFFE0000007F80000000000001
310
FFFE00000000003FFFFFFE00000000003FFFFF0003FFFFFFFFFF80000000003F
310
F000FF80000000007FF8000FFFFC0001FFFFC0007F80007FFF0000000000FFFF
310
F0000000000FFFF800000000000000007F80000000000001FFFF8000000000FF
310
FFFFFF8000000000FFFFFF0003FFFFFFFFFFC0000000007FF000FFC000000000
310
FFF8000FFFFE0001FFFFC0007F80007FFF8000000001FFFFF8000000001FFFF8
310
00000000000000007F80000000000001FFFFC000000001FFFFFFFFC000000001
310
FFFFFF0003FFFFFFFFFFE000000000FFF000FFE000000003FFF0001FFFFE0001
310
FFFFC0007F80007FFFC000000007FFFFFE000000003FFFF80000000000000000
310
7F80000000000001FFFFE000000003FFFFFFFFE000000003FFFFFF0003FFFFFF
310
FFFFF000000003FFF000FFF80000000FFFF0001FFFFE0001FFFFE0007F80007F
310
FFF00000000FFFFFFF00000000FFFFF800000000000000007F80000000000001
310
FFFFF80000000FFFFFFFFFF80000000FFFFFFF0003FFFFFFFFFFFC0000000FFF
310
F000FFFE0000003FFFF0001FFFFE0003FFFFE0003F80007FFFFC0000003FFFFF
310
FFC0000003FFFFF800000000000000007F80000000000001FFFFFE0000003FFF
310
FFFFFFFE0000003FFFFFFF0003FFFFFFFFFFFF0000003FFFF000FFFF800000FF
310
FFF0001FFFFF0003FFFFE0003F80007FFFFF000001FFFFFFFFF800001FFFFFF8
310
00000000000000007F80000000000001FFFFFFC00001FFFFFFFFFFFFC00001FF
310
FFFFFF0003FFFFFFFFFFFFC00000FFFFF000FFFFF8000FFFFFFFFFFFFFFFFFFF
310
FFFFFFFFFFFFFFFFFFFFF0001FFFFFFFFFFF0000FFFFFFF80000000000000000
310
7FFFFFFFFFFFFFFFFFFFFFFC001FFFFFFFFFFFFFFC001FFFFFFFFFFFFFFFFFFF
310
FFFFFFFC001FFFFFF000FFFFFFFFFFFFFFFFFFFFFFFFFFFFFFFFFFFFFFFFFFFF
310
FFFFFFFFFFFFFFFFFFFFFFFFFFFFFFFFFFFFFFFFFFFFFFFFFFFFFFFFFFFFFFFF
310
FFFFFFFFFFFFFFFFFFFFFFFFFFFFFFFFFFFFFFFFFFFFFFFFFFFFFFFFFFFFFFFF
310
F000FFFFFFFFFFFFFFFFFFFFFFFFFFFFFFFFFFFFFFFFFFFFFFFFFFFFFFFFFFFF
310
FFFFFFFFFFFFFFFFFFFFFFFFFFFFFFFFFFFFFFFFFFFFFFFFFFFFFFFFFFFFFFFF
310
FFFFFFFFFFFFFFFFFFFFFFFFFFFFFFFFFFFFFFFFFFFFFFFFF000FFFFFFFFFFFF
310
FFFFFFFFFFFFFFFFFFFFFFFFFFFFFFFFFFFFFFFFFFFFFFFFFFFFFFFFFFFFFFFF
310
FFFFFFFFFFFFFFFFFFFFFFFFFFFFFFFFFFFFFFFFFFFFFFFFFFFFFFFFFFFFFFFF
310
FFFFFFFFFFFFFFFFFFFFFFFFFFFFFFFFF000FFFFFFFFFFFFFFFFFFFFFFFFFFFF
310
FFFFFFFFFFFFFFFFFFFFFFFFFFFFFFFFFFFFFFFFFFFFFFFFFFFFFFFFFFFFFFFF
310
FFFFFFFFFFFFFFFFFFFFFFFFFFFFFFFFFFFFFFFFFFFFFFFFFFFFFFFFFFFFFFFF
310
FFFFFFFFFFFFFFFFF000FFFFFFFFFFFFFFFFFFFFFFFFFFFFFFFFFFFFFFFFFFFF
310
FFFFFFFFFFFFFFFFFFFFFFFFFFFFFFFFFFFFFFFFFFFFFFFFFFFFFFFFFFFFFFFF
310
FFFFFFFFFFFFFFFFFFFFFFFFFFFFFFFFFFFFFFFFFFFFFFFFFFFFFFFFFFFFFFFF
310
F000FFFFFFFFFFFFFFFFFFFFFFFFFFFFFFFFFFFFFFFFFFFFFFFFFFFFFFFFFFFF
310
FFFFFFFFFFFFFFFFFFFFFFFFFFFFFFFFFFFFFFFFFFFFFFFFFFFFFFFFFFFFFFFF
310
FFFFFFFFFFFFFFFFFFFFFFFFFFFFFFFFFFFFFFFFFFFFFFFFF000FFFFFFFFFFFF
310
FFFFFFFFFFFFFFFFFFFFFFFFFFFFFFFFFFFFFFFFFFFFFFFFFFFFFFFFFFFFFFFF
310
FFFFFFFFFFFFFFFFFFFFFFFFFFFFFFFFFFFFFFFFFFFFFFFFFFFFFFFFFFFFFFFF
310
FFFFFFFFFFFFFFFFFFFFFFFFFFFFFFFFF000FFFFFFFFFFFFFFFFFFFFFFFFFFFF
310
FFFFFFFFFFFFFFFFFFFFFFFFFFFFFFFFFFFFFFFFFFFFFFFFFFFFFFFFFFFFFFFF
310
FFFFFFFFFFFFFFFFFFFFFFFFFFFFFFFFFFFFFFFFFFFFFFFFFFFFFFFFFFFFFFFF
310
FFFFFFFFFFFFFFFFF000FFFFFFFFFFFFFFFFFFFFFFFFFFFFFFFFFFFFFFFFFFFF
310
FFFFFFFFFFFFFFFFFFFFFFFFFFFFFFFFFFFFFFFFFFFFFFFFFFFFFFFFFFFFFFFF
310
FFFFFFFFFFFFFFFFFFFFFFFFFFFFFFFFFFFFFFFFFFFFFFFFFFFFFFFFFFFFFFFF
310
F000FFFFFFFFFFFFFFFFFFFFFFFFFFFFFFFFFFFFFFFFFFFFFFFFFFFFFFFFFFFF
310
FFFFFFFFFFFFFFFFFFFFFFFFFFFFFFFFFFFFFFFFFFFFFFFFFFFFFFFFFFFFFFFF
310
FFFFFFFFFFFFFFFFFFFFFFFFFFFFFFFFFFFFFFFFFFFFFFFFF000FFFFFFFFFFFF
310
FFFFFFFFFFFFFFFFFFFFFFFFFFFFFFFFFFFFFFFFFFFFFFFFFFFFFFFFFFFFFFFF
310
FFFFFFFFFFFFFFFFFFFFFFFFFFFFFFFFFFFFFFFFFFFFFFFFFFFFFFFFFFFFFFFF
310
FFFFFFFFFFFFFFFFFFFFFFFFFFFFFFFFF000FFFFFFFFFFFFFFFFFFFFFFFFFFFF
310
FFFFFFFFFFFFFFFFFFFFFFFFFFFFFFFFFFFFFFFFFFFFFFFFFFFFFFFFFFFFFFFF
310
FFFFFFFFFFFFFFFFFFFFFFFFFFFFFFFFFFFFFFFFFFFFFFFFFFFFFFFFFFFFFFFF
310
FFFFFFFFFFFFFFFFF000FFFFFFFFFFFFFFFFFFFFFFFFFFFFFFFFFFFFFFFFFFFF
310
FFFFFFFFFFFFFFFFFFFFFFFFFFFFFFFFFFFFFFFFFFFFFFFFFFFFFFFFFFFFFFFF
310
FFFFFFFFFFFFFFFFFFFFFFFFFFFFFFFFFFFFFFFFFFFFFFFFFFFFFFFFFFFFFFFF
310
F000FFFFFFFFFFFFFFFFFFFFFFFFFFFFFFFFFFFFFFFFFFFFFFFFFFFFFFFFFFFF
310
FFFFFFFFFFFFFFFFFFFFFFFFFFFFFFFFFFFFFFFFFFFFFFFFFFFFFFFFFFFFFFFF
310
FFFFFFFFFFFFFFFFFFFFFFFFFFFFFFFFFFFFFFFFFFFFFFFFF000FFFFFFFFFFFF
310
FFFFFFFFFFFFFFFFFFFFFFFFFFFFFFFFFFFFFFFFFFFFFFFFFFFFFFFFFFFFFFFF
310
FFFFFFFFFFFFFFFFFFFFFFFFFFFFFFFFFFFFFFFFFFFFFFFFFFFFFFFFFFFFFFFF
310
FFFFFFFFFFFFFFFFFFFFFFFFFFFFFFFFF000FFFFFFFFFFFFFFFFFFFFFFFFFFFF
310
FFFFFFFFFFFFFFFFFFFFFFFFFFFFFFFFFFFFFFFFFFFFFFFFFFFFFFFFFFFFFFFF
310
FFFFFFFFFFFFFFFFFFFFFFFFFFFFFFFFFFFFFFFFFFFFFFFFFFFFFFFFFFFFFFFF
310
FFFFFFFFFFFFFFFFF000FFFFFFFFFFFFFFFFFFFFFFFFFFFFFFFFFFFFFFFFFFFF
310
FFFFFFFFFFFFFFFFFFFFFFFFFFFFFFFFFFFFFFFFFFFFFFFFFFFFFFFFFFFFFFFF
310
FFFFFFFFFFFFFFFFFFFFFFFFFFFFFFFFFFFFFFFFFFFFFFFFFFFFFFFFFFFFFFFF
310
F000FFFFFFFFFFFFFFFFFFFFFFFFFFFFFFFFFFFFFFFFFFFFFFFFFFFFFFFFFFFF
310
FFFFFFFFFFFFFFFFFFFFFFFFFFFFFFFFFFFFFFFFFFFFFFFFFFFFFFFFFFFFFFFF
310
FFFFFFFFFFFFFFFFFFFFFFFFFFFFFFFFFFFFFFFFFFFFFFFFF000FFFFFFFFFFFF
310
FFFFFFFFFFFFFFFFFFFFFFFFFFFFFFFFFFFFFFFFFFFFFFFFFFFFFFFFFFFFFFFF
310
FFFFFFFFFFFFFFFFFFFFFFFFFFFFFFFFFFFFFFFFFFFFFFFFFFFFFFFFFFFFFFFF
310
FFFFFFFFFFFFFFFFFFFFFFFFFFFFFFFFF000FFFFFFFFFFFFFFFFFFFFFFFFFFFF
310
FFFFFFFFFFFFFFFFFFFFFFFFFFFFFFFFFFFFFFFFFFFFFFFFFFFFFFFFFFFFFFFF
310
FFFFFFFFFFFFFFFFFFFFFFFFFFFFFFFFFFFFFFFFFFFFFFFFFFFFFFFFFFFFFFFF
310
FFFFFFFFFFFFFFFFF000FFFFFFFFFFFFFFFFFFFFFFFFFFFFFFFFFFFFFFFFFFFF
310
FFFFFFFFFFFFFFFFFFFFFFFFFFFFFFFFFFFFFFFFFFFFFFFFFFFFFFFFFFFFFFFF
310
FFFFFFFFFFFFFFFFFFFFFFFFFFFFFFFFFFFFFFFFFFFFFFFFFFFFFFFFFFFFFFFF
310
F000FFFFFFFFFFFFFFFFFFFFFFFFFFFFFFFFFFFFFFFFFFFFFFFFFFFFFFFFFFFF
310
FFFFFFFFFFFFFFFFFFFFFFFFFFFFFFFFFFFFFFFFFFFFFFFFFFFFFFFFFFFFFFFF
310
FFFFFFFFFFFFFFFFFFFFFFFFFFFFFFFFFFFFFFFFFFFFFFFFF000FFFFFFFFFFFF
310
FFFFFFFFFFFFFFFFFFFFFFFFFFFFFFFFFFFFFFFFFFFFFFFFFFFFFFFFFFFFFFFF
310
FFFFFFFFFFFFFFFFFFFFFFFFFFFFFFFFFFFFFFFFFFFFFFFFFFFFFFFFFFFFFFFF
310
FFFFFFFFFFFFFFFFFFFFFFFFFFFFFFFFF0000000000000000000000000000000
310
0000000000000000000000000000000000000000000000000000000000000000
310
0000000000000000000000000000000000000000000000000000000000000000
310
0000000000000000000000000000000000000000000000000000000000000000
310
0000000000000000000000000000000000000000000000000000000000000000
310
0000000000000000000000000000000000000000000000000000000000000000
310
0000000000000000000000000000000000000000000000000000000000000000
310
0000000000000000000000000000000000000000000000000000000000000000
310
0000000000000000000000000000000000000000000000000000000000000000
310
0000000000000000000000000000000000000000000000000000000000000000
310
0000000000000000000000000000000000000000000000000000000000000000
310
0000000000000000000000000000000000000000000000000000000000000000
310
0000000000000000000000000000000000000000000000000000000000000000
310
0000000000000000000000000000000000000000000000000000000000000000
310
0000000000000000000000000000000000000000000000000000000000000000
310
0000000000000000000000000000000000000000000000000000000000000000
  1
OLE
  0
ENDSEC
  0
SECTION
  2
OBJECTS
  0
DICTIONARY
  5
C
330
0
100
AcDbDictionary
281
     1
  3
ACAD_GROUP
350
D
  3
ACAD_LAYOUT
350
1A
  3
ACAD_MLINESTYLE
350
17
  3
ACAD_PLOTSETTINGS
350
19
  3
ACAD_PLOTSTYLENAME
350
E
  3
ACAD_SCALELIST
350
47
  0
DICTIONARY
  5
D
102
{ACAD_REACTORS
330
C
102
}
330
C
100
AcDbDictionary
281
     1
  0
DICTIONARY
  5
1A
102
{ACAD_REACTORS
330
C
102
}
330
C
100
AcDbDictionary
281
     1
  3
Layout1
350
1E
  3
Layout2
350
26
  3
Model
350
22
  0
DICTIONARY
  5
17
102
{ACAD_REACTORS
330
C
102
}
330
C
100
AcDbDictionary
281
     1
  3
Standard
350
18
  0
DICTIONARY
  5
19
102
{ACAD_REACTORS
330
C
102
}
330
C
100
AcDbDictionary
281
     1
  0
ACDBDICTIONARYWDFLT
  5
E
102
{ACAD_REACTORS
330
C
102
}
330
C
100
AcDbDictionary
281
     1
  3
Normal
350
F
100
AcDbDictionaryWithDefault
340
F
  0
DICTIONARY
  5
47
102
{ACAD_REACTORS
330
C
102
}
330
C
100
AcDbDictionary
281
     1
  3
A0
350
48
  3
A1
350
49
  3
A2
350
4A
  3
A3
350
4B
  3
A4
350
4C
  3
A5
350
4D
  3
A6
350
4E
  3
A7
350
4F
  3
A8
350
50
  3
A9
350
51
  3
B0
350
52
  3
B1
350
53
  3
B2
350
54
  3
B3
350
55
  3
B4
350
56
  3
B5
350
57
  3
B6
350
58
  3
B7
350
59
  3
B8
350
5A
  3
B9
350
5B
  3
C0
350
5C
  3
C1
350
5D
  3
C2
350
5E
  3
C3
350
5F
  3
C4
350
60
  3
C5
350
61
  3
C6
350
62
  3
C7
350
63
  3
C8
350
64
  3
C9
350
65
  3
D0
350
66
  3
D1
350
67
  3
D2
350
68
  0
LAYOUT
  5
1E
102
{ACAD_REACTORS
330
1A
102
}
330
1A
100
AcDbPlotSettings
  1

  2
none_device
  4

  6

 40
0.0
 41
0.0
 42
0.0
 43
0.0
 44
0.0
 45
0.0
 46
0.0
 47
0.0
 48
0.0
 49
0.0
140
0.0
141
0.0
142
1.0
143
1.0
 70
   688
 72
     1
 73
     0
 74
     5
  7

 75
    16
147
1.0
148
0.0
149
0.0
100
AcDbLayout
  1
Layout1
 70
     1
 71
     1
 10
0.0
 20
0.0
 11
420.0
 21
297.0
 12
0.0
 22
0.0
 32
0.0
 14
1.0000000000E+20
 24
1.0000000000E+20
 34
1.0000000000E+20
 15
-1.0000000000E+20
 25
-1.0000000000E+20
 35
-1.0000000000E+20
146
0.0
 13
0.0
 23
0.0
 33
0.0
 16
1.0
 26
0.0
 36
0.0
 17
0.0
 27
1.0
 37
0.0
 76
     0
330
1B
  0
LAYOUT
  5
26
102
{ACAD_REACTORS
330
1A
102
}
330
1A
100
AcDbPlotSettings
  1

  2
none_device
  4

  6

 40
0.0
 41
0.0
 42
0.0
 43
0.0
 44
0.0
 45
0.0
 46
0.0
 47
0.0
 48
0.0
 49
0.0
140
0.0
141
0.0
142
1.0
143
1.0
 70
   688
 72
     1
 73
     0
 74
     5
  7

 75
    16
147
1.0
148
0.0
149
0.0
100
AcDbLayout
  1
Layout2
 70
     1
 71
     2
 10
0.0
 20
0.0
 11
0.0
 21
0.0
 12
0.0
 22
0.0
 32
0.0
 14
0.0
 24
0.0
 34
0.0
 15
0.0
 25
0.0
 35
0.0
146
0.0
 13
0.0
 23
0.0
 33
0.0
 16
1.0
 26
0.0
 36
0.0
 17
0.0
 27
1.0
 37
0.0
 76
     0
330
23
  0
LAYOUT
  5
22
102
{ACAD_REACTORS
330
1A
102
}
330
1A
100
AcDbPlotSettings
  1

  2
none_device
  4
Letter_(8.50_x_11.00_Inches)
  6

 40
6.35
 41
6.35
 42
6.35000508
 43
6.35000508
 44
215.9
 45
279.4
 46
0.0
 47
0.0
 48
0.0
 49
0.0
140
0.0
141
0.0
142
1.0
143
1.0
 70
  1712
 72
     1
 73
     0
 74
     0
  7

 75
     0
147
1.0
148
0.0
149
0.0
100
AcDbLayout
  1
Model
 70
     1
 71
     0
 10
0.0
 20
0.0
 11
297.0
 21
210.0
 12
0.0
 22
0.0
 32
0.0
 14
0.0
 24
0.0
 34
0.0
 15
297.0
 25
210.0
 35
0.0
146
0.0
 13
0.0
 23
0.0
 33
0.0
 16
1.0
 26
0.0
 36
0.0
 17
0.0
 27
1.0
 37
0.0
 76
     0
330
1F
331
29
  0
MLINESTYLE
  5
18
102
{ACAD_REACTORS
330
17
102
}
330
17
100
AcDbMlineStyle
  2
Standard
 70
     0
  3

 62
   256
 51
90.0
 52
90.0
 71
     2
 49
0.5
 62
   256
  6
BYLAYER
 49
-0.5
 62
   256
  6
BYLAYER
  0
ACDBPLACEHOLDER
  5
F
102
{ACAD_REACTORS
330
E
102
}
330
E
  0
SCALE
  5
48
102
{ACAD_REACTORS
330
47
102
}
330
47
100
AcDbScale
 70
     0
300
1:1
140
1.0
141
1.0
290
     1
  0
SCALE
  5
49
102
{ACAD_REACTORS
330
47
102
}
330
47
100
AcDbScale
 70
     0
300
1:2
140
1.0
141
2.0
290
     0
  0
SCALE
  5
4A
102
{ACAD_REACTORS
330
47
102
}
330
47
100
AcDbScale
 70
     0
300
1:4
140
1.0
141
4.0
290
     0
  0
SCALE
  5
4B
102
{ACAD_REACTORS
330
47
102
}
330
47
100
AcDbScale
 70
     0
300
1:5
140
1.0
141
5.0
290
     0
  0
SCALE
  5
4C
102
{ACAD_REACTORS
330
47
102
}
330
47
100
AcDbScale
 70
     0
300
1:8
140
1.0
141
8.0
290
     0
  0
SCALE
  5
4D
102
{ACAD_REACTORS
330
47
102
}
330
47
100
AcDbScale
 70
     0
300
1:10
140
1.0
141
10.0
290
     0
  0
SCALE
  5
4E
102
{ACAD_REACTORS
330
47
102
}
330
47
100
AcDbScale
 70
     0
300
1:16
140
1.0
141
16.0
290
     0
  0
SCALE
  5
4F
102
{ACAD_REACTORS
330
47
102
}
330
47
100
AcDbScale
 70
     0
300
1:20
140
1.0
141
20.0
290
     0
  0
SCALE
  5
50
102
{ACAD_REACTORS
330
47
102
}
330
47
100
AcDbScale
 70
     0
300
1:30
140
1.0
141
30.0
290
     0
  0
SCALE
  5
51
102
{ACAD_REACTORS
330
47
102
}
330
47
100
AcDbScale
 70
     0
300
1:40
140
1.0
141
40.0
290
     0
  0
SCALE
  5
52
102
{ACAD_REACTORS
330
47
102
}
330
47
100
AcDbScale
 70
     0
300
1:50
140
1.0
141
50.0
290
     0
  0
SCALE
  5
53
102
{ACAD_REACTORS
330
47
102
}
330
47
100
AcDbScale
 70
     0
300
1:100
140
1.0
141
100.0
290
     0
  0
SCALE
  5
54
102
{ACAD_REACTORS
330
47
102
}
330
47
100
AcDbScale
 70
     0
300
2:1
140
2.0
141
1.0
290
     0
  0
SCALE
  5
55
102
{ACAD_REACTORS
330
47
102
}
330
47
100
AcDbScale
 70
     0
300
4:1
140
4.0
141
1.0
290
     0
  0
SCALE
  5
56
102
{ACAD_REACTORS
330
47
102
}
330
47
100
AcDbScale
 70
     0
300
8:1
140
8.0
141
1.0
290
     0
  0
SCALE
  5
57
102
{ACAD_REACTORS
330
47
102
}
330
47
100
AcDbScale
 70
     0
300
10:1
140
10.0
141
1.0
290
     0
  0
SCALE
  5
58
102
{ACAD_REACTORS
330
47
102
}
330
47
100
AcDbScale
 70
     0
300
100:1
140
100.0
141
1.0
290
     0
  0
SCALE
  5
59
102
{ACAD_REACTORS
330
47
102
}
330
47
100
AcDbScale
 70
     0
300
1/128" = 1'-0"
140
0.0078125
141
12.0
290
     0
  0
SCALE
  5
5A
102
{ACAD_REACTORS
330
47
102
}
330
47
100
AcDbScale
 70
     0
300
1/64" = 1'-0"
140
0.015625
141
12.0
290
     0
  0
SCALE
  5
5B
102
{ACAD_REACTORS
330
47
102
}
330
47
100
AcDbScale
 70
     0
300
1/32" = 1'-0"
140
0.03125
141
12.0
290
     0
  0
SCALE
  5
5C
102
{ACAD_REACTORS
330
47
102
}
330
47
100
AcDbScale
 70
     0
300
1/16" = 1'-0"
140
0.0625
141
12.0
290
     0
  0
SCALE
  5
5D
102
{ACAD_REACTORS
330
47
102
}
330
47
100
AcDbScale
 70
     0
300
3/32" = 1'-0"
140
0.09375
141
12.0
290
     0
  0
SCALE
  5
5E
102
{ACAD_REACTORS
330
47
102
}
330
47
100
AcDbScale
 70
     0
300
1/8" = 1'-0"
140
0.125
141
12.0
290
     0
  0
SCALE
  5
5F
102
{ACAD_REACTORS
330
47
102
}
330
47
100
AcDbScale
 70
     0
300
3/16" = 1'-0"
140
0.1875
141
12.0
290
     0
  0
SCALE
  5
60
102
{ACAD_REACTORS
330
47
102
}
330
47
100
AcDbScale
 70
     0
300
1/4" = 1'-0"
140
0.25
141
12.0
290
     0
  0
SCALE
  5
61
102
{ACAD_REACTORS
330
47
102
}
330
47
100
AcDbScale
 70
     0
300
3/8" = 1'-0"
140
0.375
141
12.0
290
     0
  0
SCALE
  5
62
102
{ACAD_REACTORS
330
47
102
}
330
47
100
AcDbScale
 70
     0
300
1/2" = 1'-0"
140
0.5
141
12.0
290
     0
  0
SCALE
  5
63
102
{ACAD_REACTORS
330
47
102
}
330
47
100
AcDbScale
 70
     0
300
3/4" = 1'-0"
140
0.75
141
12.0
290
     0
  0
SCALE
  5
64
102
{ACAD_REACTORS
330
47
102
}
330
47
100
AcDbScale
 70
     0
300
1" = 1'-0"
140
1.0
141
12.0
290
     0
  0
SCALE
  5
65
102
{ACAD_REACTORS
330
47
102
}
330
47
100
AcDbScale
 70
     0
300
1-1/2" = 1'-0"
140
1.5
141
12.0
290
     0
  0
SCALE
  5
66
102
{ACAD_REACTORS
330
47
102
}
330
47
100
AcDbScale
 70
     0
300
3" = 1'-0"
140
3.0
141
12.0
290
     0
  0
SCALE
  5
67
102
{ACAD_REACTORS
330
47
102
}
330
47
100
AcDbScale
 70
     0
300
6" = 1'-0"
140
6.0
141
12.0
290
     0
  0
SCALE
  5
68
102
{ACAD_REACTORS
330
47
102
}
330
47
100
AcDbScale
 70
     0
300
1'-0" = 1'-0"
140
12.0
141
12.0
290
     0
  0
ENDSEC
  0
EOF
