  0
SECTION
  2
HEADER
  9
$ACADVER
  1
AC1015
  9
$ACADMAINTVER
 70
     6
  9
$DWGCODEPAGE
  3
ANSI_1252
  9
$INSBASE
 10
0.0
 20
0.0
 30
0.0
  9
$EXTMIN
 10
0.0
 20
0.0
 30
0.0
  9
$EXTMAX
 10
297.0
 20
210.0
 30
0.0
  9
$LIMMIN
 10
0.0
 20
0.0
  9
$LIMMAX
 10
297.0
 20
210.0
  9
$ORTHOMODE
 70
     0
  9
$REGENMODE
 70
     1
  9
$FILLMODE
 70
     1
  9
$QTEXTMODE
 70
     0
  9
$MIRRTEXT
 70
     1
  9
$LTSCALE
 40
1.0
  9
$ATTMODE
 70
     1
  9
$TEXTSIZE
 40
2.0
  9
$TRACEWID
 40
1.0
  9
$TEXTSTYLE
  7
Standard
  9
$CLAYER
  8
0
  9
$CELTYPE
  6
ByLayer
  9
$CECOLOR
 62
   256
  9
$CELTSCALE
 40
1.0
  9
$DISPSILH
 70
     0
  9
$DIMSCALE
 40
1.0
  9
$DIMASZ
 40
3.0
  9
$DIMEXO
 40
0.0
  9
$DIMDLI
 40
3.75
  9
$DIMRND
 40
0.0
  9
$DIMDLE
 40
0.0
  9
$DIMEXE
 40
1.0
  9
$DIMTP
 40
0.0
  9
$DIMTM
 40
0.0
  9
$DIMTXT
 40
2.0
  9
$DIMCEN
 40
2.5
  9
$DIMTSZ
 40
0.0
  9
$DIMTOL
 70
     0
  9
$DIMLIM
 70
     0
  9
$DIMTIH
 70
     1
  9
$DIMTOH
 70
     1
  9
$DIMSE1
 70
     0
  9
$DIMSE2
 70
     0
  9
$DIMTAD
 70
     1
  9
$DIMZIN
 70
     0
  9
$DIMBLK
  1

  9
$DIMASO
 70
     1
  9
$DIMSHO
 70
     1
  9
$DIMPOST
  1

  9
$DIMAPOST
  1

  9
$DIMALT
 70
     0
  9
$DIMALTD
 70
     3
  9
$DIMALTF
 40
0.0393700787
  9
$DIMLFAC
 40
1.0
  9
$DIMTOFL
 70
     1
  9
$DIMTVP
 40
0.0
  9
$DIMTIX
 70
     0
  9
$DIMSOXD
 70
     0
  9
$DIMSAH
 70
     0
  9
$DIMBLK1
  1

  9
$DIMBLK2
  1

  9
$DIMSTYLE
  2
ISO-25
  9
$DIMCLRD
 70
     0
  9
$DIMCLRE
 70
     0
  9
$DIMCLRT
 70
     0
  9
$DIMTFAC
 40
1.0
  9
$DIMGAP
 40
1.524
  9
$DIMJUST
 70
     0
  9
$DIMSD1
 70
     0
  9
$DIMSD2
 70
     0
  9
$DIMTOLJ
 70
     0
  9
$DIMTZIN
 70
     0
  9
$DIMALTZ
 70
     0
  9
$DIMALTTZ
 70
     0
  9
$DIMUPT
 70
     0
  9
$DIMDEC
 70
     2
  9
$DIMTDEC
 70
     3
  9
$DIMALTU
 70
     2
  9
$DIMALTTD
 70
     3
  9
$DIMTXSTY
  7
Standard
  9
$DIMAUNIT
 70
     0
  9
$DIMADEC
 70
     2
  9
$DIMALTRND
 40
0.0
  9
$DIMAZIN
 70
     0
  9
$DIMDSEP
 70
    44
  9
$DIMATFIT
 70
     3
  9
$DIMFRAC
 70
     0
  9
$DIMLDRBLK
  1

  9
$DIMLUNIT
 70
     2
  9
$DIMLWD
 70
    -2
  9
$DIMLWE
 70
    -2
  9
$DIMTMOVE
 70
     0
  9
$LUNITS
 70
     2
  9
$LUPREC
 70
     2
  9
$SKETCHINC
 40
1.0
  9
$FILLETRAD
 40
10.0
  9
$AUNITS
 70
     0
  9
$AUPREC
 70
     2
  9
$MENU
  1
.
  9
$ELEVATION
 40
0.0
  9
$PELEVATION
 40
0.0
  9
$THICKNESS
 40
0.0
  9
$LIMCHECK
 70
     0
  9
$CHAMFERA
 40
10.0
  9
$CHAMFERB
 40
10.0
  9
$CHAMFERC
 40
20.0
  9
$CHAMFERD
 40
0.0
  9
$SKPOLY
 70
     0
  9
$TDCREATE
 40
2456097.706669849
  9
$TDUCREATE
 40
2456097.623336516
  9
$TDUPDATE
 40
2456097.706671296
  9
$TDUUPDATE
 40
2456097.623337963
  9
$TDINDWG
 40
0.0000000116
  9
$TDUSRTIMER
 40
0.0000000116
  9
$USRTIMER
 70
     1
  9
$ANGBASE
 50
0.0
  9
$ANGDIR
 70
     0
  9
$PDMODE
 70
     0
  9
$PDSIZE
 40
-1.0
  9
$PLINEWID
 40
0.0
  9
$SPLFRAME
 70
     0
  9
$SPLINETYPE
 70
     6
  9
$SPLINESEGS
 70
     8
  9
$HANDSEED
  5
2E7
  9
$SURFTAB1
 70
     6
  9
$SURFTAB2
 70
     6
  9
$SURFTYPE
 70
     6
  9
$SURFU
 70
     6
  9
$SURFV
 70
     6
  9
$UCSBASE
  2

  9
$UCSNAME
  2

  9
$UCSORG
 10
0.0
 20
0.0
 30
0.0
  9
$UCSXDIR
 10
1.0
 20
0.0
 30
0.0
  9
$UCSYDIR
 10
0.0
 20
1.0
 30
0.0
  9
$UCSORTHOREF
  2

  9
$UCSORTHOVIEW
 70
     0
  9
$UCSORGTOP
 10
0.0
 20
0.0
 30
0.0
  9
$UCSORGBOTTOM
 10
0.0
 20
0.0
 30
0.0
  9
$UCSORGLEFT
 10
0.0
 20
0.0
 30
0.0
  9
$UCSORGRIGHT
 10
0.0
 20
0.0
 30
0.0
  9
$UCSORGFRONT
 10
0.0
 20
0.0
 30
0.0
  9
$UCSORGBACK
 10
0.0
 20
0.0
 30
0.0
  9
$PUCSBASE
  2

  9
$PUCSNAME
  2

  9
$PUCSORG
 10
0.0
 20
0.0
 30
0.0
  9
$PUCSXDIR
 10
1.0
 20
0.0
 30
0.0
  9
$PUCSYDIR
 10
0.0
 20
1.0
 30
0.0
  9
$PUCSORTHOREF
  2

  9
$PUCSORTHOVIEW
 70
     0
  9
$PUCSORGTOP
 10
0.0
 20
0.0
 30
0.0
  9
$PUCSORGBOTTOM
 10
0.0
 20
0.0
 30
0.0
  9
$PUCSORGLEFT
 10
0.0
 20
0.0
 30
0.0
  9
$PUCSORGRIGHT
 10
0.0
 20
0.0
 30
0.0
  9
$PUCSORGFRONT
 10
0.0
 20
0.0
 30
0.0
  9
$PUCSORGBACK
 10
0.0
 20
0.0
 30
0.0
  9
$USERI1
 70
     0
  9
$USERI2
 70
     0
  9
$USERI3
 70
     0
  9
$USERI4
 70
     0
  9
$USERI5
 70
     0
  9
$USERR1
 40
0.0
  9
$USERR2
 40
0.0
  9
$USERR3
 40
0.0
  9
$USERR4
 40
0.0
  9
$USERR5
 40
0.0
  9
$WORLDVIEW
 70
     1
  9
$SHADEDGE
 70
     3
  9
$SHADEDIF
 70
    70
  9
$TILEMODE
 70
     1
  9
$MAXACTVP
 70
    64
  9
$PINSBASE
 10
0.0
 20
0.0
 30
0.0
  9
$PLIMCHECK
 70
     0
  9
$PEXTMIN
 10
1.0000000000E+20
 20
1.0000000000E+20
 30
1.0000000000E+20
  9
$PEXTMAX
 10
-1.0000000000E+20
 20
-1.0000000000E+20
 30
-1.0000000000E+20
  9
$PLIMMIN
 10
0.0
 20
0.0
  9
$PLIMMAX
 10
420.0
 20
297.0
  9
$UNITMODE
 70
     0
  9
$VISRETAIN
 70
     1
  9
$PLINEGEN
 70
     0
  9
$PSLTSCALE
 70
     1
  9
$TREEDEPTH
 70
  3020
  9
$CMLSTYLE
  2
Standard
  9
$CMLJUST
 70
     0
  9
$CMLSCALE
 40
20.0
  9
$PROXYGRAPHICS
 70
     1
  9
$MEASUREMENT
 70
     1
  9
$CELWEIGHT
370
    -1
  9
$ENDCAPS
280
     0
  9
$JOINSTYLE
280
     0
  9
$LWDISPLAY
290
     1
  9
$INSUNITS
 70
     4
  9
$HYPERLINKBASE
  1

  9
$STYLESHEET
  1

  9
$XEDIT
290
     1
  9
$CEPSNTYPE
380
     0
  9
$PSTYLEMODE
290
     1
  9
$FINGERPRINTGUID
  2
{1B28E50F-A447-456D-BE36-0CC2317D2988}
  9
$VERSIONGUID
  2
{FAEB1C32-E019-11D5-929B-00C0DF256EC4}
  9
$EXTNAMES
290
     1
  9
$PSVPSCALE
 40
0.0
  9
$OLESTARTUP
290
     0
  0
ENDSEC
  0
SECTION
  2
CLASSES
  0
CLASS
  1
ACDBDICTIONARYWDFLT
  2
AcDbDictionaryWithDefault
  3
ObjectDBX Classes
 90
        0
280
     0
281
     0
  0
CLASS
  1
VISUALSTYLE
  2
AcDbVisualStyle
  3
ObjectDBX Classes
 90
     4095
280
     0
281
     0
  0
CLASS
  1
MATERIAL
  2
AcDbMaterial
  3
ObjectDBX Classes
 90
     1153
280
     0
281
     0
  0
CLASS
  1
ACDBPLACEHOLDER
  2
AcDbPlaceHolder
  3
ObjectDBX Classes
 90
        0
280
     0
281
     0
  0
CLASS
  1
LAYOUT
  2
AcDbLayout
  3
ObjectDBX Classes
 90
        0
280
     0
281
     0
  0
ENDSEC
  0
SECTION
  2
TABLES
  0
TABLE
  2
VPORT
  5
8
330
0
100
AcDbSymbolTable
 70
     1
  0
VPORT
  5
29
330
8
100
AcDbSymbolTableRecord
100
AcDbViewportTableRecord
  2
*Active
 70
     0
 10
0.0
 20
0.0
 11
1.0
 21
1.0
 12
148.5
 22
105.0
 13
0.0
 23
0.0
 14
10.0
 24
10.0
 15
10.0
 25
10.0
 16
0.0
 26
0.0
 36
1.0
 17
0.0
 27
0.0
 37
0.0
 40
210.0
 41
1.4142857143
 42
50.0
 43
0.0
 44
0.0
 50
0.0
 51
0.0
 71
     0
 72
  2000
 73
     1
 74
     3
 75
     0
 76
     0
 77
     0
 78
     0
281
     0
 65
     1
110
0.0
120
0.0
130
0.0
111
1.0
121
0.0
131
0.0
112
0.0
122
1.0
132
0.0
 79
     0
146
0.0
  0
ENDTAB
  0
TABLE
  2
LTYPE
  5
5
330
0
100
AcDbSymbolTable
 70
     6
  0
LTYPE
  5
14
330
5
100
AcDbSymbolTableRecord
100
AcDbLinetypeTableRecord
  2
ByBlock
 70
     0
  3

 72
    65
 73
     0
 40
0.0
  0
LTYPE
  5
15
330
5
100
AcDbSymbolTableRecord
100
AcDbLinetypeTableRecord
  2
ByLayer
 70
     0
  3

 72
    65
 73
     0
 40
0.0
  0
LTYPE
  5
16
330
5
100
AcDbSymbolTableRecord
100
AcDbLinetypeTableRecord
  2
Continuous
 70
     0
  3
Solid line
 72
    65
 73
     0
 40
0.0
  0
LTYPE
  5
3F
330
5
100
AcDbSymbolTableRecord
100
AcDbLinetypeTableRecord
  2
HIDDEN
 70
     0
  3
Hidden __ __ __ __ __ __ __ __ __ __ __ __ __ __
 72
    65
 73
     2
 40
1.905
 49
1.27
 74
     0
 49
-0.635
 74
     0
  0
LTYPE
  5
40
330
5
100
AcDbSymbolTableRecord
100
AcDbLinetypeTableRecord
  2
PHANTOM
 70
     0
  3
Phantom ______  __  __  ______  __  __  ______
 72
    65
 73
     6
 40
12.7
 49
6.35
 74
     0
 49
-1.27
 74
     0
 49
1.27
 74
     0
 49
-1.27
 74
     0
 49
1.27
 74
     0
 49
-1.27
 74
     0
  0
LTYPE
  5
41
330
5
100
AcDbSymbolTableRecord
100
AcDbLinetypeTableRecord
  2
CENTER
 70
     0
  3
Center ____ _ ____ _ ____ _ ____ _ ____ _ ____
 72
    65
 73
     4
 40
10.16
 49
6.35
 74
     0
 49
-1.27
 74
     0
 49
1.27
 74
     0
 49
-1.27
 74
     0
  0
LTYPE
  5
42
330
5
100
AcDbSymbolTableRecord
100
AcDbLinetypeTableRecord
  2
CENTERX2
 70
     0
  3
Center (2x) ________  __  ________  __  _____
 72
    65
 73
     4
 40
20.32
 49
12.7
 74
     0
 49
-2.54
 74
     0
 49
2.54
 74
     0
 49
-2.54
 74
     0
  0
LTYPE
  5
43
330
5
100
AcDbSymbolTableRecord
100
AcDbLinetypeTableRecord
  2
DOT2
 70
     0
  3
Dot (.5x) ........................................
 72
    65
 73
     2
 40
0.635
 49
0.0
 74
     0
 49
-0.635
 74
     0
  0
ENDTAB
  0
TABLE
  2
LAYER
  5
2
330
0
100
AcDbSymbolTable
 70
     5
  0
LAYER
  5
10
330
2
100
AcDbSymbolTableRecord
100
AcDbLayerTableRecord
  2
0
 70
     0
 62
     7
  6
Continuous
370
    -3
390
F
  0
LAYER
  5
44
330
2
100
AcDbSymbolTableRecord
100
AcDbLayerTableRecord
  2
FORMAT
 70
     0
 62
     7
  6
Continuous
370
    -3
390
F
  0
LAYER
  5
45
330
2
100
AcDbSymbolTableRecord
100
AcDbLayerTableRecord
  2
VERMASSUNG
 70
     0
 62
     7
  6
Continuous
370
    -3
390
F
  0
LAYER
  5
46
330
2
100
AcDbSymbolTableRecord
100
AcDbLayerTableRecord
  2
KOPF_DÜNN
 70
     0
 62
     7
  6
Continuous
370
    -3
390
F
  0
LAYER
  5
47
330
2
100
AcDbSymbolTableRecord
100
AcDbLayerTableRecord
  2
KOPF_DICK
 70
     0
 62
     7
  6
Continuous
370
    15
390
F
  0
ENDTAB
  0
TABLE
  2
STYLE
  5
3
330
0
100
AcDbSymbolTable
 70
     3
  0
STYLE
  5
11
330
3
100
AcDbSymbolTableRecord
100
AcDbTextStyleTableRecord
  2
Standard
 70
     0
 40
0.0
 41
1.0
 50
0.0
 71
     0
 42
2.0
  3
txt
  4

  0
STYLE
  5
48
330
3
100
AcDbSymbolTableRecord
100
AcDbTextStyleTableRecord
  2
SLDTEXTSTYLE0
 70
     0
 40
0.0
 41
0.7
 50
0.0
 71
     0
 42
0.2
  3
TXT
  4

  0
STYLE
  5
4C
330
3
100
AcDbSymbolTableRecord
100
AcDbTextStyleTableRecord
  2
SLDTEXTSTYLE1
 70
     0
 40
0.0
 41
0.6428571429
 50
0.0
 71
     0
 42
0.2
  3
TXT
  4

  0
ENDTAB
  0
TABLE
  2
VIEW
  5
6
330
0
100
AcDbSymbolTable
 70
     0
  0
ENDTAB
  0
TABLE
  2
UCS
  5
7
330
0
100
AcDbSymbolTable
 70
     0
  0
ENDTAB
  0
TABLE
  2
APPID
  5
9
330
0
100
AcDbSymbolTable
 70
     1
  0
APPID
  5
12
330
9
100
AcDbSymbolTableRecord
100
AcDbRegAppTableRecord
  2
ACAD
 70
     0
  0
ENDTAB
  0
TABLE
  2
DIMSTYLE
  5
A
330
0
100
AcDbSymbolTable
 70
     3
100
AcDbDimStyleTable
  0
DIMSTYLE
105
27
330
A
100
AcDbSymbolTableRecord
100
AcDbDimStyleTableRecord
  2
ISO-25
 70
     0
 41
2.5
 42
0.625
 43
3.75
 44
1.25
 73
     0
 74
     0
 77
     1
 78
     8
140
2.5
141
2.5
143
0.0393700787
147
0.625
171
     3
172
     1
178
     0
271
     2
272
     2
274
     3
278
    44
283
     0
284
     8
340
11
  0
DIMSTYLE
105
238
102
{ACAD_REACTORS
330
237
330
242
330
259
330
263
330
26D
102
}
330
A
100
AcDbSymbolTableRecord
100
AcDbDimStyleTableRecord
  2
SLDDIMSTYLE0
 70
     0
 41
3.0
 44
0.0
 45
0.000000001
 73
     0
 74
     0
 77
     1
 78
    12
 79
     3
140
2.0
147
0.5
173
     1
178
     0
271
     2
272
     3
276
     2
284
    12
340
48
  0
DIMSTYLE
105
24D
102
{ACAD_REACTORS
330
24C
330
2CB
102
}
330
A
100
AcDbSymbolTableRecord
100
AcDbDimStyleTableRecord
  2
SLDDIMSTYLE1
 70
     0
 41
3.0
 44
0.0
 45
0.000000001
 73
     0
 74
     0
 77
     1
 78
    12
 79
     3
140
2.0
147
0.5
172
     1
173
     1
178
     0
271
     2
272
     3
276
     2
284
    12
289
     0
340
48
  0
ENDTAB
  0
TABLE
  2
BLOCK_RECORD
  5
1
330
0
100
AcDbSymbolTable
 70
     9
  0
BLOCK_RECORD
  5
1F
330
1
100
AcDbSymbolTableRecord
100
AcDbBlockTableRecord
  2
*Model_Space
340
22
  0
BLOCK_RECORD
  5
1B
330
1
100
AcDbSymbolTableRecord
100
AcDbBlockTableRecord
  2
*Paper_Space
340
1E
  0
BLOCK_RECORD
  5
23
330
1
100
AcDbSymbolTableRecord
100
AcDbBlockTableRecord
  2
*Paper_Space0
340
26
  0
BLOCK_RECORD
  5
239
330
1
100
AcDbSymbolTableRecord
100
AcDbBlockTableRecord
  2
_D
340
0
  0
BLOCK_RECORD
  5
243
330
1
100
AcDbSymbolTableRecord
100
AcDbBlockTableRecord
  2
_D_1
340
0
  0
BLOCK_RECORD
  5
24E
330
1
100
AcDbSymbolTableRecord
100
AcDbBlockTableRecord
  2
_D_2
340
0
  0
BLOCK_RECORD
  5
25A
330
1
100
AcDbSymbolTableRecord
100
AcDbBlockTableRecord
  2
_D_3
340
0
  0
BLOCK_RECORD
  5
264
330
1
100
AcDbSymbolTableRecord
100
AcDbBlockTableRecord
  2
_D_4
340
0
  0
BLOCK_RECORD
  5
26E
330
1
100
AcDbSymbolTableRecord
100
AcDbBlockTableRecord
  2
_D_5
340
0
  0
BLOCK_RECORD
  5
2CC
330
1
100
AcDbSymbolTableRecord
100
AcDbBlockTableRecord
  2
_D_6
340
0
  0
BLOCK_RECORD
  5
2D8
330
1
100
AcDbSymbolTableRecord
100
AcDbBlockTableRecord
  2
SW_CENTERMARKSYMBOL_0
340
0
102
{BLKREFS
331
2E3
102
}
  0
ENDTAB
  0
ENDSEC
  0
SECTION
  2
BLOCKS
  0
BLOCK
  5
20
330
1F
100
AcDbEntity
  8
0
100
AcDbBlockBegin
  2
*Model_Space
 70
     0
 10
0.0
 20
0.0
 30
0.0
  3
*Model_Space
  1

  0
ENDBLK
  5
21
330
1F
100
AcDbEntity
  8
0
100
AcDbBlockEnd
  0
BLOCK
  5
1C
330
1B
100
AcDbEntity
 67
     1
  8
0
100
AcDbBlockBegin
  2
*Paper_Space
 70
     0
 10
0.0
 20
0.0
 30
0.0
  3
*Paper_Space
  1

  0
ENDBLK
  5
1D
330
1B
100
AcDbEntity
 67
     1
  8
0
100
AcDbBlockEnd
  0
BLOCK
  5
24
330
23
100
AcDbEntity
  8
0
100
AcDbBlockBegin
  2
*Paper_Space0
 70
     0
 10
0.0
 20
0.0
 30
0.0
  3
*Paper_Space0
  1

  0
ENDBLK
  5
25
330
23
100
AcDbEntity
  8
0
100
AcDbBlockEnd
  0
BLOCK
  5
23A
330
239
100
AcDbEntity
  8
0
100
AcDbBlockBegin
  2
_D
 70
     0
 10
0.0
 20
0.0
 30
0.0
  3
_D
  1

  0
SOLID
  5
23C
330
239
100
AcDbEntity
  8
VERMASSUNG
100
AcDbTrace
 10
270.1261481977
 20
130.090508627
 30
0.0
 11
269.6761481977
 21
127.090508627
 31
0.0
 12
270.5761481977
 22
127.090508627
 32
0.0
 13
270.5761481977
 23
127.090508627
 33
0.0
  0
SOLID
  5
23D
330
239
100
AcDbEntity
  8
VERMASSUNG
100
AcDbTrace
 10
270.1261481977
 20
104.090508627
 30
0.0
 11
270.5761481977
 21
107.090508627
 31
0.0
 12
269.6761481977
 22
107.090508627
 32
0.0
 13
269.6761481977
 23
107.090508627
 33
0.0
  0
LINE
  5
23E
330
239
100
AcDbEntity
  8
VERMASSUNG
100
AcDbLine
 10
249.6580645358
 20
130.090508627
 30
0.0
 11
271.1261481977
 21
130.090508627
 31
0.0
  0
LINE
  5
23F
330
239
100
AcDbEntity
  8
VERMASSUNG
100
AcDbLine
 10
249.6580645358
 20
104.090508627
 30
0.0
 11
271.1261481977
 21
104.090508627
 31
0.0
  0
LINE
  5
240
330
239
100
AcDbEntity
  8
VERMASSUNG
100
AcDbLine
 10
270.1261481977
 20
130.090508627
 30
0.0
 11
270.1261481977
 21
104.090508627
 31
0.0
  0
MTEXT
  5
241
330
239
100
AcDbEntity
  8
VERMASSUNG
100
AcDbMText
 10
267.5480128346
 20
114.790508576
 30
0.1
 40
2.0
 41
0.0
 71
     1
 72
     1
  1
26
  7
SLDTEXTSTYLE0
 11
-7.044195017643634E-15
 21
1.0
 31
0.0
 73
     1
 44
1.0
  0
ENDBLK
  5
23B
330
239
100
AcDbEntity
  8
0
100
AcDbBlockEnd
  0
BLOCK
  5
244
330
243
100
AcDbEntity
  8
0
100
AcDbBlockBegin
  2
_D_1
 70
     0
 10
0.0
 20
0.0
 30
0.0
  3
_D_1
  1

  0
SOLID
  5
246
330
243
100
AcDbEntity
  8
VERMASSUNG
100
AcDbTrace
 10
249.6580645358
 20
78.9824451949
 30
0.0
 11
246.6580645358
 21
79.4324451949
 31
0.0
 12
246.6580645358
 22
78.5324451949
 32
0.0
 13
246.6580645358
 23
78.5324451949
 33
0.0
  0
SOLID
  5
247
330
243
100
AcDbEntity
  8
VERMASSUNG
100
AcDbTrace
 10
197.1580645358
 20
78.9824451949
 30
0.0
 11
200.1580645358
 21
78.5324451949
 31
0.0
 12
200.1580645358
 22
79.4324451949
 32
0.0
 13
200.1580645358
 23
79.4324451949
 33
0.0
  0
LINE
  5
248
330
243
100
AcDbEntity
  8
VERMASSUNG
100
AcDbLine
 10
249.6580645358
 20
104.090508627
 30
0.0
 11
249.6580645358
 21
77.9824451949
 31
0.0
  0
LINE
  5
249
330
243
100
AcDbEntity
  8
VERMASSUNG
100
AcDbLine
 10
197.1580645358
 20
101.2192273349
 30
0.0
 11
197.1580645358
 21
77.9824451949
 31
0.0
  0
LINE
  5
24A
330
243
100
AcDbEntity
  8
VERMASSUNG
100
AcDbLine
 10
249.6580645358
 20
78.9824451949
 30
0.0
 11
197.1580645358
 21
78.9824451949
 31
0.0
  0
MTEXT
  5
24B
330
243
100
AcDbEntity
  8
VERMASSUNG
100
AcDbMText
 10
220.1080643208
 20
81.5605805581
 30
0.1
 40
2.0
 41
0.0
 71
     1
 72
     1
  1
52.5
  7
SLDTEXTSTYLE0
 73
     1
 44
1.0
  0
ENDBLK
  5
245
330
243
100
AcDbEntity
  8
0
100
AcDbBlockEnd
  0
BLOCK
  5
24F
330
24E
100
AcDbEntity
  8
0
100
AcDbBlockBegin
  2
_D_2
 70
     0
 10
0.0
 20
0.0
 30
0.0
  3
_D_2
  1

  0
SOLID
  5
251
330
24E
100
AcDbEntity
  8
VERMASSUNG
100
AcDbTrace
 10
249.6580645358
 20
78.9824451949
 30
0.0
 11
246.6580645358
 21
79.4324451949
 31
0.0
 12
246.6580645358
 22
78.5324451949
 32
0.0
 13
246.6580645358
 23
78.5324451949
 33
0.0
  0
SOLID
  5
252
330
24E
100
AcDbEntity
  8
VERMASSUNG
100
AcDbTrace
 10
255.1580645358
 20
78.9824451949
 30
0.0
 11
258.1580645358
 21
78.5324451949
 31
0.0
 12
258.1580645358
 22
79.4324451949
 32
0.0
 13
258.1580645358
 23
79.4324451949
 33
0.0
  0
LINE
  5
253
330
24E
100
AcDbEntity
  8
VERMASSUNG
100
AcDbLine
 10
249.6580645358
 20
104.090508627
 30
0.0
 11
249.6580645358
 21
77.9824451949
 31
0.0
  0
LINE
  5
254
330
24E
100
AcDbEntity
  8
VERMASSUNG
100
AcDbLine
 10
255.1580645358
 20
85.9192273349
 30
0.0
 11
255.1580645358
 21
77.9824451949
 31
0.0
  0
LINE
  5
255
330
24E
100
AcDbEntity
  8
VERMASSUNG
100
AcDbLine
 10
249.6580645358
 20
78.9824451949
 30
0.0
 11
243.6580645358
 21
78.9824451949
 31
0.0
  0
LINE
  5
256
330
24E
100
AcDbEntity
  8
VERMASSUNG
100
AcDbLine
 10
249.6580645358
 20
78.9824451949
 30
0.0
 11
255.1580645358
 21
78.9824451949
 31
0.0
  0
LINE
  5
257
330
24E
100
AcDbEntity
  8
VERMASSUNG
100
AcDbLine
 10
255.1580645358
 20
78.9824451949
 30
0.0
 11
261.1580645358
 21
78.9824451949
 31
0.0
  0
MTEXT
  5
258
330
24E
100
AcDbEntity
  8
VERMASSUNG
100
AcDbMText
 10
249.8080642959
 20
81.5605805581
 30
0.1
 40
2.0
 41
0.0
 71
     1
 72
     1
  1
5.5
  7
SLDTEXTSTYLE0
 73
     1
 44
1.0
  0
ENDBLK
  5
250
330
24E
100
AcDbEntity
  8
0
100
AcDbBlockEnd
  0
BLOCK
  5
25B
330
25A
100
AcDbEntity
  8
0
100
AcDbBlockBegin
  2
_D_3
 70
     0
 10
0.0
 20
0.0
 30
0.0
  3
_D_3
  1

  0
SOLID
  5
25D
330
25A
100
AcDbEntity
  8
VERMASSUNG
100
AcDbTrace
 10
197.1580645358
 20
173.89341266
 30
0.0
 11
200.1580645358
 21
173.44341266
 31
0.0
 12
200.1580645358
 22
174.34341266
 32
0.0
 13
200.1580645358
 23
174.34341266
 33
0.0
  0
SOLID
  5
25E
330
25A
100
AcDbEntity
  8
VERMASSUNG
100
AcDbTrace
 10
255.1580645358
 20
173.89341266
 30
0.0
 11
252.1580645358
 21
174.34341266
 31
0.0
 12
252.1580645358
 22
173.44341266
 32
0.0
 13
252.1580645358
 23
173.44341266
 33
0.0
  0
LINE
  5
25F
330
25A
100
AcDbEntity
  8
VERMASSUNG
100
AcDbLine
 10
197.1580645358
 20
150.6192273349
 30
0.0
 11
197.1580645358
 21
174.89341266
 31
0.0
  0
LINE
  5
260
330
25A
100
AcDbEntity
  8
VERMASSUNG
100
AcDbLine
 10
255.1580645358
 20
137.9192273349
 30
0.0
 11
255.1580645358
 21
174.89341266
 31
0.0
  0
LINE
  5
261
330
25A
100
AcDbEntity
  8
VERMASSUNG
100
AcDbLine
 10
197.1580645358
 20
173.89341266
 30
0.0
 11
255.1580645358
 21
173.89341266
 31
0.0
  0
MTEXT
  5
262
330
25A
100
AcDbEntity
  8
VERMASSUNG
100
AcDbMText
 10
223.8580644848
 20
176.4715480231
 30
0.1
 40
2.0
 41
0.0
 71
     1
 72
     1
  1
58
  7
SLDTEXTSTYLE0
 73
     1
 44
1.0
  0
ENDBLK
  5
25C
330
25A
100
AcDbEntity
  8
0
100
AcDbBlockEnd
  0
BLOCK
  5
265
330
264
100
AcDbEntity
  8
0
100
AcDbBlockBegin
  2
_D_4
 70
     0
 10
0.0
 20
0.0
 30
0.0
  3
_D_4
  1

  0
SOLID
  5
267
330
264
100
AcDbEntity
  8
VERMASSUNG
100
AcDbTrace
 10
167.1580645358
 20
181.9192273349
 30
0.0
 11
170.1580645358
 21
181.4692273349
 31
0.0
 12
170.1580645358
 22
182.3692273349
 32
0.0
 13
170.1580645358
 23
182.3692273349
 33
0.0
  0
SOLID
  5
268
330
264
100
AcDbEntity
  8
VERMASSUNG
100
AcDbTrace
 10
255.1580645358
 20
181.9192273349
 30
0.0
 11
252.1580645358
 21
182.3692273349
 31
0.0
 12
252.1580645358
 22
181.4692273349
 32
0.0
 13
252.1580645358
 23
181.4692273349
 33
0.0
  0
LINE
  5
269
330
264
100
AcDbEntity
  8
VERMASSUNG
100
AcDbLine
 10
167.1580645358
 20
141.859802254
 30
0.0
 11
167.1580645358
 21
182.9192273349
 31
0.0
  0
LINE
  5
26A
330
264
100
AcDbEntity
  8
VERMASSUNG
100
AcDbLine
 10
255.1580645358
 20
137.9192273349
 30
0.0
 11
255.1580645358
 21
182.9192273349
 31
0.0
  0
LINE
  5
26B
330
264
100
AcDbEntity
  8
VERMASSUNG
100
AcDbLine
 10
167.1580645358
 20
181.9192273349
 30
0.0
 11
255.1580645358
 21
181.9192273349
 31
0.0
  0
MTEXT
  5
26C
330
264
100
AcDbEntity
  8
VERMASSUNG
100
AcDbMText
 10
208.8580644848
 20
184.4973626981
 30
0.1
 40
2.0
 41
0.0
 71
     1
 72
     1
  1
88
  7
SLDTEXTSTYLE0
 73
     1
 44
1.0
  0
ENDBLK
  5
266
330
264
100
AcDbEntity
  8
0
100
AcDbBlockEnd
  0
BLOCK
  5
26F
330
26E
100
AcDbEntity
  8
0
100
AcDbBlockBegin
  2
_D_5
 70
     0
 10
0.0
 20
0.0
 30
0.0
  3
_D_5
  1

  0
SOLID
  5
271
330
26E
100
AcDbEntity
  8
VERMASSUNG
100
AcDbTrace
 10
157.1580645358
 20
150.9192273349
 30
0.0
 11
156.7080645358
 21
147.9192273349
 31
0.0
 12
157.6080645358
 22
147.9192273349
 32
0.0
 13
157.6080645358
 23
147.9192273349
 33
0.0
  0
SOLID
  5
272
330
26E
100
AcDbEntity
  8
VERMASSUNG
100
AcDbTrace
 10
157.1580645358
 20
100.9192273349
 30
0.0
 11
157.6080645358
 21
103.9192273349
 31
0.0
 12
156.7080645358
 22
103.9192273349
 32
0.0
 13
156.7080645358
 23
103.9192273349
 33
0.0
  0
LINE
  5
273
330
26E
100
AcDbEntity
  8
VERMASSUNG
100
AcDbLine
 10
197.4580645358
 20
150.9192273349
 30
0.0
 11
156.1580645358
 21
150.9192273349
 31
0.0
  0
LINE
  5
274
330
26E
100
AcDbEntity
  8
VERMASSUNG
100
AcDbLine
 10
197.4580645358
 20
100.9192273349
 30
0.0
 11
156.1580645358
 21
100.9192273349
 31
0.0
  0
LINE
  5
275
330
26E
100
AcDbEntity
  8
VERMASSUNG
100
AcDbLine
 10
157.1580645358
 20
150.9192273349
 30
0.0
 11
157.1580645358
 21
100.9192273349
 31
0.0
  0
MTEXT
  5
276
330
26E
100
AcDbEntity
  8
VERMASSUNG
100
AcDbMText
 10
154.3799290467
 20
119.5142272257
 30
0.1
 40
2.0
 41
0.0
 71
     1
 72
     1
  1
PSC
  7
SLDTEXTSTYLE0
 11
-7.044195017643634E-15
 21
1.0
 31
0.0
 73
     1
 44
1.0
  0
MTEXT
  5
277
330
26E
100
AcDbEntity
  8
VERMASSUNG
100
AcDbMText
 10
154.5799290562
 20
124.1142273278
 30
0.1
 40
2.0
 41
0.0
 71
     1
 72
     1
  1
%%c
  7
SLDTEXTSTYLE0
 11
-7.044195017643634E-15
 21
1.0
 31
0.0
 73
     1
 44
1.0
  0
MTEXT
  5
278
330
26E
100
AcDbEntity
  8
VERMASSUNG
100
AcDbMText
 10
154.3799290467
 20
127.7242278078
 30
0.1
 40
2.0
 41
0.0
 71
     1
 72
     1
  1
50
  7
SLDTEXTSTYLE0
 11
-7.044195017643634E-15
 21
1.0
 31
0.0
 73
     1
 44
1.0
  0
ENDBLK
  5
270
330
26E
100
AcDbEntity
  8
0
100
AcDbBlockEnd
  0
BLOCK
  5
2CD
330
2CC
100
AcDbEntity
  8
0
100
AcDbBlockBegin
  2
_D_6
 70
     0
 10
0.0
 20
0.0
 30
0.0
  3
_D_6
  1

  0
SOLID
  5
2CF
330
2CC
100
AcDbEntity
  8
VERMASSUNG
100
AcDbTrace
 10
51.4078356735
 20
152.2674048327
 30
0.0
 11
49.4470472795
 21
154.5820989537
 31
0.0
 12
48.8542132858
 22
153.9049373364
 32
0.0
 13
48.8542132858
 23
153.9049373364
 33
0.0
  0
SOLID
  5
2D0
330
2CC
100
AcDbEntity
  8
VERMASSUNG
100
AcDbTrace
 10
111.5999794315
 20
99.5710498372
 30
0.0
 11
113.5607678256
 21
97.2563557162
 31
0.0
 12
114.1536018193
 22
97.9335173335
 32
0.0
 13
114.1536018193
 23
97.9335173335
 33
0.0
  0
LINE
  5
2D1
330
2CC
100
AcDbEntity
  8
VERMASSUNG
100
AcDbLine
 10
51.4078356735
 20
152.2674048327
 30
0.0
 11
50.7491312361
 21
151.5150030357
 31
0.0
  0
LINE
  5
2D2
330
2CC
100
AcDbEntity
  8
VERMASSUNG
100
AcDbLine
 10
111.5999794315
 20
99.5710498372
 30
0.0
 11
110.9412749941
 21
98.8186480402
 31
0.0
  0
LINE
  5
2D3
330
2CC
100
AcDbEntity
  8
VERMASSUNG
100
AcDbLine
 10
51.4078356735
 20
152.2674048327
 30
0.0
 11
46.8934248917
 21
156.2196314574
 31
0.0
  0
LINE
  5
2D4
330
2CC
100
AcDbEntity
  8
VERMASSUNG
100
AcDbLine
 10
51.4078356735
 20
152.2674048327
 30
0.0
 11
111.5999794315
 21
99.5710498372
 31
0.0
  0
LINE
  5
2D5
330
2CC
100
AcDbEntity
  8
VERMASSUNG
100
AcDbLine
 10
111.5999794315
 20
99.5710498372
 30
0.0
 11
122.7499170167
 21
89.8096252976
 31
0.0
  0
MTEXT
  5
2D6
330
2CC
100
AcDbEntity
  8
VERMASSUNG
100
AcDbMText
 10
118.2709278071
 20
97.1573822666
 30
-14.55
 40
2.0
 41
0.0
 71
     1
 72
     1
  1
%%c
  7
SLDTEXTSTYLE0
 11
0.7524017969747169
 21
-0.6587044374446076
 31
0.0
 73
     1
 44
1.0
  0
MTEXT
  5
2D7
330
2CC
100
AcDbEntity
  8
VERMASSUNG
100
AcDbMText
 10
121.1188391987
 20
94.9299396045
 30
-14.55
 40
2.0
 41
0.0
 71
     1
 72
     1
  1
80
  7
SLDTEXTSTYLE0
 11
0.7524017969747169
 21
-0.6587044374446076
 31
0.0
 73
     1
 44
1.0
  0
ENDBLK
  5
2CE
330
2CC
100
AcDbEntity
  8
0
100
AcDbBlockEnd
  0
BLOCK
  5
2D9
330
2D8
100
AcDbEntity
  8
0
100
AcDbBlockBegin
  2
SW_CENTERMARKSYMBOL_0
 70
     0
 10
0.0
 20
0.0
 30
0.0
  3
SW_CENTERMARKSYMBOL_0
  1

  0
LINE
  5
2DB
330
2D8
100
AcDbEntity
  8
VERMASSUNG
 62
     0
100
AcDbLine
 10
0.0
 20
0.0
 30
0.0
 11
0.0
 21
2.5
 31
0.0
  0
LINE
  5
2DC
330
2D8
100
AcDbEntity
  8
VERMASSUNG
 62
     0
100
AcDbLine
 10
0.0
 20
0.0
 30
0.0
 11
-2.5
 21
0.0
 31
0.0
  0
LINE
  5
2DD
330
2D8
100
AcDbEntity
  8
VERMASSUNG
 62
     0
100
AcDbLine
 10
0.0
 20
0.0
 30
0.0
 11
0.0
 21
-2.5
 31
0.0
  0
LINE
  5
2DE
330
2D8
100
AcDbEntity
  8
VERMASSUNG
 62
     0
100
AcDbLine
 10
0.0
 20
0.0
 30
0.0
 11
2.5
 21
0.0
 31
0.0
  0
LINE
  5
2DF
330
2D8
100
AcDbEntity
  8
VERMASSUNG
 62
     0
100
AcDbLine
 10
0.0
 20
5.0
 30
0.0
 11
0.0
 21
42.5
 31
0.0
  0
LINE
  5
2E0
330
2D8
100
AcDbEntity
  8
VERMASSUNG
 62
     0
100
AcDbLine
 10
-5.0
 20
0.0
 30
0.0
 11
-42.5
 21
0.0
 31
0.0
  0
LINE
  5
2E1
330
2D8
100
AcDbEntity
  8
VERMASSUNG
 62
     0
100
AcDbLine
 10
0.0
 20
-5.0
 30
0.0
 11
0.0
 21
-42.5
 31
0.0
  0
LINE
  5
2E2
330
2D8
100
AcDbEntity
  8
VERMASSUNG
 62
     0
100
AcDbLine
 10
5.0
 20
0.0
 30
0.0
 11
42.5
 21
0.0
 31
0.0
  0
ENDBLK
  5
2DA
330
2D8
100
AcDbEntity
  8
0
100
AcDbBlockEnd
  0
ENDSEC
  0
SECTION
  2
ENTITIES
  0
MTEXT
  5
49
330
1F
100
AcDbEntity
  8
KOPF_DÜNN
100
AcDbMText
 10
13.8892156294
 20
23.8442973028
 30
0.0
 40
3.0
 41
0.0
 71
     1
 72
     1
  1
PS5.AM3.K11.058
  7
SLDTEXTSTYLE0
 73
     1
 44
1.0
  0
MTEXT
  5
4A
330
1F
100
AcDbEntity
  8
VERMASSUNG
100
AcDbMText
 10
13.9329988022
 20
28.8834360957
 30
0.0
 40
3.0
 41
0.0
 71
     1
 72
     1
  1
Abstechhalter radial / Cut-off block radial
  7
SLDTEXTSTYLE0
 73
     1
 44
1.0
  0
MTEXT
  5
4B
330
1F
100
AcDbEntity
  8
VERMASSUNG
100
AcDbMText
 10
98.8601118557
 20
13.8365368179
 30
0.0
 40
2.0
 41
0.0
 71
     1
 72
     1
  1
Datum: 18.06.2012
  7
SLDTEXTSTYLE0
 73
     1
 44
1.0
  0
MTEXT
  5
4D
330
1F
100
AcDbEntity
  8
VERMASSUNG
100
AcDbMText
 10
13.933048693
 20
18.0482802738
 30
0.0
 40
2.0
 41
0.0
 71
     1
 72
     1
  1
PSC ø50 / H 26
  7
SLDTEXTSTYLE1
 73
     1
 44
1.0
  0
MTEXT
  5
4E
330
1F
100
AcDbEntity
  8
VERMASSUNG
100
AcDbMText
 10
13.9808475933
 20
13.9090973692
 30
0.0
 40
2.0
 41
0.0
 71
     1
 72
     1
  1
Gewicht: 1504g
  7
SLDTEXTSTYLE0
 73
     1
 44
1.0
  0
LINE
  5
4F
330
1F
100
AcDbEntity
  8
0
  6
Continuous
 62
     7
370
    15
100
AcDbLine
 10
225.3405468827
 20
161.5606442422
 30
0.0
 11
225.2183275586
 21
161.6565406651
 31
0.0
  0
LINE
  5
50
330
1F
100
AcDbEntity
  8
0
  6
Continuous
 62
     7
370
    15
100
AcDbLine
 10
221.0978007232
 20
161.6565406651
 30
0.0
 11
220.9755813991
 21
161.5606442422
 31
0.0
  0
LWPOLYLINE
  5
51
330
1F
100
AcDbEntity
  8
0
  6
Continuous
 62
     7
370
    15
100
AcDbPolyline
 90
        3
 70
   128
 43
0.0
 10
223.1981976246
 20
160.9944448204
 10
222.657224006
 20
160.9311223359
 10
222.314143396
 20
160.8080759973
  0
LWPOLYLINE
  5
52
330
1F
100
AcDbEntity
  8
0
  6
Continuous
 62
     7
370
    15
100
AcDbPolyline
 90
        3
 70
   128
 43
0.0
 10
223.9799740081
 20
160.8181603582
 10
223.7361947363
 20
160.9094672234
 10
223.1981976246
 20
160.9944448204
  0
LINE
  5
53
330
1F
100
AcDbEntity
  8
0
  6
Continuous
 62
     7
370
    15
100
AcDbLine
 10
251.7580649173
 20
161.4192284972
 30
0.0
 11
251.1580659365
 21
161.4192284972
 31
0.0
  0
LINE
  5
54
330
1F
100
AcDbEntity
  8
0
  6
Continuous
 62
     7
370
    15
100
AcDbLine
 10
251.1580659365
 20
148.419228229
 30
0.0
 11
251.7580649173
 21
148.419228229
 31
0.0
  0
ARC
  5
55
330
1F
100
AcDbEntity
  8
0
  6
Continuous
 62
     7
370
    15
100
AcDbCircle
 10
250.5580645358
 20
150.3192273349
 30
0.0
 40
0.6000000000000512
100
AcDbArc
 50
0.0
 51
90.0
  0
ARC
  5
56
330
1F
100
AcDbEntity
  8
0
  6
Continuous
 62
     7
370
    15
100
AcDbCircle
 10
250.5580645358
 20
159.5192273349
 30
0.0
 40
0.6000000000000512
100
AcDbArc
 50
270.0
 51
0.0
  0
LINE
  5
57
330
1F
100
AcDbEntity
  8
0
  6
Continuous
 62
     7
370
    15
100
AcDbLine
 10
250.5580632304
 20
158.9192271561
 30
0.0
 11
240.1580659961
 21
158.9192271561
 31
0.0
  0
LINE
  5
58
330
1F
100
AcDbEntity
  8
0
  6
Continuous
 62
     7
370
    15
100
AcDbLine
 10
240.1580659961
 20
150.9192277075
 30
0.0
 11
250.5580632304
 21
150.9192277075
 31
0.0
  0
LINE
  5
59
330
1F
100
AcDbEntity
  8
0
  6
Continuous
 62
     7
370
    15
100
AcDbLine
 10
239.7580629503
 20
138.6192271815
 30
0.0
 11
239.7580629503
 21
137.9192274392
 31
0.0
  0
LINE
  5
5A
330
1F
100
AcDbEntity
  8
0
  6
Continuous
 62
     7
370
    15
100
AcDbLine
 10
249.7580645894
 20
137.9192274392
 30
0.0
 11
249.7580645894
 21
138.6192271815
 31
0.0
  0
ARC
  5
5B
330
1F
100
AcDbEntity
  8
0
  6
Continuous
 62
     7
370
    15
100
AcDbCircle
 10
240.0580645358
 20
138.6192273349
 30
0.0
 40
0.3000000000000398
100
AcDbArc
 50
90.0
 51
180.0
  0
ARC
  5
5C
330
1F
100
AcDbEntity
  8
0
  6
Continuous
 62
     7
370
    15
100
AcDbCircle
 10
249.4580645358
 20
138.6192273349
 30
0.0
 40
0.3000000000000114
100
AcDbArc
 50
0.0
 51
90.0
  0
LINE
  5
5D
330
1F
100
AcDbEntity
  8
0
  6
Continuous
 62
     7
370
    15
100
AcDbLine
 10
241.7580632781
 20
127.9192274299
 30
0.0
 11
241.7580632781
 21
125.9192273349
 31
0.0
  0
LINE
  5
5E
330
1F
100
AcDbEntity
  8
0
  6
Continuous
 62
     7
370
    15
100
AcDbLine
 10
247.7580642616
 20
125.9192273349
 30
0.0
 11
247.7580642616
 21
127.9192274299
 31
0.0
  0
LINE
  5
5F
330
1F
100
AcDbEntity
  8
0
  6
Continuous
 62
     7
370
    15
100
AcDbLine
 10
220.3030566042
 20
85.919228229
 30
0.0
 11
255.1580628669
 21
85.919228229
 31
0.0
  0
LINE
  5
60
330
1F
100
AcDbEntity
  8
0
  6
Continuous
 62
     7
370
    15
100
AcDbLine
 10
236.1580653405
 20
165.9192264409
 30
0.0
 11
220.3030566042
 21
165.9192264409
 31
0.0
  0
ARC
  5
61
330
1F
100
AcDbEntity
  8
0
  6
Continuous
 62
     7
370
    15
100
AcDbCircle
 10
220.3030568367
 20
86.9192273349
 30
0.0
 40
1.0
100
AcDbArc
 50
185.0
 51
270.0
  0
ARC
  5
62
330
1F
100
AcDbEntity
  8
0
  6
Continuous
 62
     7
370
    15
100
AcDbCircle
 10
220.3030568367
 20
164.9192273349
 30
0.0
 40
1.0
100
AcDbArc
 50
90.0
 51
175.0
  0
LINE
  5
63
330
1F
100
AcDbEntity
  8
0
  6
Continuous
 62
     7
370
    15
100
AcDbLine
 10
219.3068618243
 20
165.0063813061
 30
0.0
 11
218.1542588686
 21
151.8320709796
 31
0.0
  0
LINE
  5
64
330
1F
100
AcDbEntity
  8
0
  6
Continuous
 62
     7
370
    15
100
AcDbLine
 10
218.1542588686
 20
100.0063836903
 30
0.0
 11
219.3068618243
 21
86.8320733637
 31
0.0
  0
ARC
  5
65
330
1F
100
AcDbEntity
  8
0
  6
Continuous
 62
     7
370
    15
100
AcDbCircle
 10
217.1580645358
 20
99.9192273349
 30
0.0
 40
1.000000000000008
100
AcDbArc
 50
5.0
 51
90.0
  0
ARC
  5
66
330
1F
100
AcDbEntity
  8
0
  6
Continuous
 62
     7
370
    15
100
AcDbCircle
 10
217.1580645358
 20
151.9192273349
 30
0.0
 40
1.000000000000005
100
AcDbArc
 50
270.0
 51
355.0
  0
LINE
  5
67
330
1F
100
AcDbEntity
  8
0
  6
Continuous
 62
     7
370
    15
100
AcDbLine
 10
211.133330903
 20
100.9192269624
 30
0.0
 11
217.1580640888
 21
100.9192269624
 31
0.0
  0
LINE
  5
68
330
1F
100
AcDbEntity
  8
0
  6
Continuous
 62
     7
370
    15
100
AcDbLine
 10
197.45806455
 20
100.9192269624
 30
0.0
 11
207.1580643123
 21
100.9192269624
 31
0.0
  0
LINE
  5
69
330
1F
100
AcDbEntity
  8
0
  6
Continuous
 62
     7
370
    15
100
AcDbLine
 10
217.1580640888
 20
150.9192277075
 30
0.0
 11
197.45806455
 21
150.9192277075
 31
0.0
  0
ARC
  5
6A
330
1F
100
AcDbEntity
  8
0
  6
Continuous
 62
     7
370
    15
100
AcDbCircle
 10
197.4580645358
 20
101.2192273349
 30
0.0
 40
0.3000000000000114
100
AcDbArc
 50
180.0
 51
270.0
  0
ARC
  5
6B
330
1F
100
AcDbEntity
  8
0
  6
Continuous
 62
     7
370
    15
100
AcDbCircle
 10
197.4580645358
 20
150.6192273349
 30
0.0
 40
0.3000000000000114
100
AcDbArc
 50
90.0
 51
180.0
  0
LWPOLYLINE
  5
6C
330
1F
100
AcDbEntity
  8
0
  6
Continuous
 62
     7
370
    15
100
AcDbPolyline
 90
        3
 70
   128
 43
0.0
 10
196.9580645408
 20
108.0794062794
 10
197.083519476
 20
108.0111049444
 10
197.1580645358
 20
107.9583678723
  0
ARC
  5
6D
330
1F
100
AcDbEntity
  8
0
  6
Continuous
 62
     7
370
    15
100
AcDbCircle
 10
196.5438509734
 20
144.6692273349
 30
0.0
 40
0.9999999999999765
100
AcDbArc
 50
225.0
 51
307.8947985336
  0
ARC
  5
6E
330
1F
100
AcDbEntity
  8
0
  6
Continuous
 62
     7
370
    15
100
AcDbCircle
 10
195.1580014467
 20
109.5141054392
 30
0.0
 40
0.2000000000000048
100
AcDbArc
 50
88.5608333333
 51
178.5608333333
  0
LINE
  5
6F
330
1F
100
AcDbEntity
  8
0
  6
Continuous
 62
     7
370
    15
100
AcDbLine
 10
186.5846950849
 20
109.7294975401
 30
0.0
 11
194.9580645477
 21
109.5191285343
 31
0.0
  0
LINE
  5
70
330
1F
100
AcDbEntity
  8
0
  6
Continuous
 62
     7
370
    15
100
AcDbLine
 10
174.5150888627
 20
110.0327268571
 30
0.0
 11
179.9211165225
 21
109.8969083608
 31
0.0
  0
LINE
  5
71
330
1F
100
AcDbEntity
  8
0
  6
Continuous
 62
     7
370
    15
100
AcDbLine
 10
195.1630246648
 20
109.7140431733
 30
0.0
 11
196.7630876342
 21
109.6738435657
 31
0.0
  0
ARC
  5
72
330
1F
100
AcDbEntity
  8
0
  6
Continuous
 62
     7
370
    15
100
AcDbCircle
 10
196.7580645358
 20
109.4739062851
 30
0.0
 40
0.2000000000000059
100
AcDbArc
 50
0.0
 51
88.5608333333
  0
LINE
  5
73
330
1F
100
AcDbEntity
  8
0
  6
Continuous
 62
     7
370
    15
100
AcDbLine
 10
194.9580645477
 20
144.5593264283
 30
0.0
 11
168.6580645209
 21
143.8985791386
 31
0.0
  0
ARC
  5
74
330
1F
100
AcDbEntity
  8
0
  6
Continuous
 62
     7
370
    15
100
AcDbCircle
 10
195.1580014467
 20
144.5643492306
 30
0.0
 40
0.2000000000000059
100
AcDbArc
 50
181.4391666667
 51
271.4391666667
  0
LINE
  5
75
330
1F
100
AcDbEntity
  8
0
  6
Continuous
 62
     7
370
    15
100
AcDbLine
 10
195.4373382786
 20
144.3713035763
 30
0.0
 11
195.1630246648
 21
144.3644117893
 31
0.0
  0
LINE
  5
76
330
1F
100
AcDbEntity
  8
0
  6
Continuous
 62
     7
370
    15
100
AcDbLine
 10
168.6580645209
 20
143.8985791386
 30
0.0
 11
167.1580652063
 21
143.0325534523
 31
0.0
  0
LINE
  5
77
330
1F
100
AcDbEntity
  8
0
  6
Continuous
 62
     7
370
    15
100
AcDbLine
 10
195.8367442302
 20
143.9621214152
 30
0.0
 11
195.4441831503
 21
144.354681331
 31
0.0
  0
LINE
  5
78
330
1F
100
AcDbEntity
  8
0
  6
Continuous
 62
     7
370
    15
100
AcDbLine
 10
220.8482211744
 20
161.445365134
 30
0.0
 11
220.9755813991
 21
161.5606442422
 31
0.0
  0
LWPOLYLINE
  5
79
330
1F
100
AcDbEntity
  8
0
  6
Continuous
 62
     7
370
    15
100
AcDbPolyline
 90
        3
 70
   128
 43
0.0
 10
225.3405468827
 20
161.5606442422
 10
225.422525621
 20
161.4905119271
 10
225.473798654
 20
161.4390731186
  0
ARC
  5
7A
330
1F
100
AcDbEntity
  8
0
  6
Continuous
 62
     7
370
    15
100
AcDbCircle
 10
223.1589080939
 20
158.8298688604
 30
0.0
 40
3.446490475925679
100
AcDbArc
 50
48.4914842069
 51
131.5863913141
  0
LWPOLYLINE
  5
7B
330
1F
100
AcDbEntity
  8
0
  6
Continuous
 62
     7
370
    15
100
AcDbPolyline
 90
       13
 70
   128
 43
0.0
 10
221.1601583576
 20
161.1920528442
 10
221.2589251166
 20
161.4268616171
 10
221.4985413765
 20
161.6412781508
 10
221.8612393653
 20
161.8194066317
 10
222.3201150363
 20
161.9480334551
 10
222.8411378627
 20
162.0176181526
 10
223.3856672709
 20
162.0230011971
 10
223.9133136635
 20
161.9637802572
 10
224.3849484538
 20
161.8443511755
 10
224.765591166
 20
161.6735726924
 10
225.0270096874
 20
161.4641033442
 10
225.14981947
 20
161.2314850421
 10
225.1580654001
 20
161.1519538195
  0
SPLINE
  5
7C
330
1F
100
AcDbEntity
  8
0
  6
Continuous
 62
     7
370
    15
100
AcDbSpline
210
0.0
220
0.0
230
1.0
 70
     8
 71
     3
 72
     9
 73
     5
 74
     0
 42
0.00000001
 43
0.00000001
 12
1.0
 22
0.0
 32
0.0
 13
1.0
 23
0.0
 33
0.0
 40
0.0
 40
0.0
 40
0.0
 40
0.0
 40
0.4954579785708796
 40
1.0
 40
1.0
 40
1.0
 40
1.0
 10
239.5775093054088
 20
155.5026386261809
 30
0.0
 10
239.7397738164842
 20
154.9527340192161
 30
0.0
 10
240.0672778997635
 20
153.8428425031868
 30
0.0
 10
240.127620578828
 20
152.6955003134575
 30
0.0
 10
240.1580659961017
 20
152.1166179657805
 30
0.0
  0
SPLINE
  5
7D
330
1F
100
AcDbEntity
  8
0
  6
Continuous
 62
     7
370
    15
100
AcDbSpline
210
0.0
220
0.0
230
1.0
 70
     8
 71
     3
 72
    10
 73
     6
 74
     0
 42
0.00000001
 43
0.00000001
 12
1.0
 22
0.0
 32
0.0
 13
1.0
 23
0.0
 33
0.0
 40
0.0
 40
0.0
 40
0.0
 40
0.0
 40
0.070076765670168
 40
0.5307777740545739
 40
1.0
 40
1.0
 40
1.0
 40
1.0
 10
240.1580659961017
 20
152.1166179657805
 30
0.0
 10
240.1573722012381
 20
152.0363735772392
 30
0.0
 10
240.152117237059
 20
151.4285838551673
 30
0.0
 10
240.0253352534985
 20
150.282612272774
 30
0.0
 10
239.7276937531055
 20
149.2510876121385
 30
0.0
 10
239.5775093054088
 20
148.7305991680253
 30
0.0
  0
LINE
  5
7E
330
1F
100
AcDbEntity
  8
0
  6
Continuous
 62
     7
370
    15
100
AcDbLine
 10
239.5775093054
 20
148.730599168
 30
0.0
 11
236.7386220311
 21
148.730599168
 31
0.0
  0
SPLINE
  5
7F
330
1F
100
AcDbEntity
  8
0
  6
Continuous
 62
     7
370
    15
100
AcDbSpline
210
0.0
220
0.0
230
1.0
 70
     8
 71
     3
 72
    10
 73
     6
 74
     0
 42
0.00000001
 43
0.00000001
 12
1.0
 22
0.0
 32
0.0
 13
1.0
 23
0.0
 33
0.0
 40
0.0
 40
0.0
 40
0.0
 40
0.0
 40
0.0700767481472516
 40
0.5307778137849759
 40
1.0
 40
1.0
 40
1.0
 40
1.0
 10
236.1580653404506
 20
152.1166179657805
 30
0.0
 10
236.1587577846466
 20
152.0363735747196
 30
0.0
 10
236.1640025202574
 20
151.4285836360889
 30
0.0
 10
236.2908006120837
 20
150.2826125478955
 30
0.0
 10
236.5884391126505
 20
149.2510876685942
 30
0.0
 10
236.7386220311435
 20
148.7305991680253
 30
0.0
  0
SPLINE
  5
80
330
1F
100
AcDbEntity
  8
0
  6
Continuous
 62
     7
370
    15
100
AcDbSpline
210
0.0
220
0.0
230
1.0
 70
     8
 71
     3
 72
     9
 73
     5
 74
     0
 42
0.00000001
 43
0.00000001
 12
1.0
 22
0.0
 32
0.0
 13
1.0
 23
0.0
 33
0.0
 40
0.0
 40
0.0
 40
0.0
 40
0.0
 40
0.4954579785708796
 40
1.0
 40
1.0
 40
1.0
 40
1.0
 10
236.7386220311435
 20
155.5026386261809
 30
0.0
 10
236.5763575200682
 20
154.9527340192161
 30
0.0
 10
236.2488534367888
 20
153.8428425031868
 30
0.0
 10
236.1885107577243
 20
152.6955003134575
 30
0.0
 10
236.1580653404506
 20
152.1166179657805
 30
0.0
  0
LINE
  5
81
330
1F
100
AcDbEntity
  8
0
  6
Continuous
 62
     7
370
    15
100
AcDbLine
 10
239.5775093054
 20
155.5026386262
 30
0.0
 11
236.7386220311
 21
155.5026386262
 31
0.0
  0
SPLINE
  5
82
330
1F
100
AcDbEntity
  8
0
  6
Continuous
 62
     7
370
    15
100
AcDbSpline
210
0.0
220
0.0
230
1.0
 70
     8
 71
     3
 72
    10
 73
     6
 74
     0
 42
0.00000001
 43
0.00000001
 12
1.0
 22
0.0
 32
0.0
 13
1.0
 23
0.0
 33
0.0
 40
0.0
 40
0.0
 40
0.0
 40
0.0
 40
0.2684066204649333
 40
0.6323732749873059
 40
0.9999999999999999
 40
0.9999999999999999
 40
0.9999999999999999
 40
0.9999999999999999
 10
236.1580653404506
 20
158.5969522924054
 30
0.0
 10
236.1674967270496
 20
158.315942990767
 30
0.0
 10
236.1897173295851
 20
157.6538774572448
 30
0.0
 10
236.3806005613584
 20
156.6151831251781
 30
0.0
 10
236.6188841734781
 20
155.8747216047446
 30
0.0
 10
236.7386220311435
 20
155.5026386261809
 30
0.0
  0
SPLINE
  5
83
330
1F
100
AcDbEntity
  8
0
  6
Continuous
 62
     7
370
    15
100
AcDbSpline
210
0.0
220
0.0
230
1.0
 70
     8
 71
     3
 72
    10
 73
     6
 74
     0
 42
0.00000001
 43
0.00000001
 12
1.0
 22
0.0
 32
0.0
 13
1.0
 23
0.0
 33
0.0
 40
0.0
 40
0.0
 40
0.0
 40
0.0
 40
0.2684066906021016
 40
0.6323732392512759
 40
1.0
 40
1.0
 40
1.0
 40
1.0
 10
240.1580659961017
 20
158.5969522924054
 30
0.0
 10
240.1486328315368
 20
158.3159430318987
 30
0.0
 10
240.1264080471288
 20
157.6538778057017
 30
0.0
 10
239.9355324106567
 20
156.6151828125345
 30
0.0
 10
239.6972477254305
 20
155.874721547997
 30
0.0
 10
239.5775093054088
 20
155.5026386261809
 30
0.0
  0
LINE
  5
84
330
1F
100
AcDbEntity
  8
0
  6
Continuous
 62
     7
370
    15
100
AcDbLine
 10
240.1580659961
 20
158.5969522924
 30
0.0
 11
240.1580659961
 21
152.1166179658
 31
0.0
  0
SPLINE
  5
85
330
1F
100
AcDbEntity
  8
0
  6
Continuous
 62
     7
370
    15
100
AcDbSpline
210
0.0
220
0.0
230
1.0
 70
     8
 71
     3
 72
    10
 73
     6
 74
     0
 42
0.00000001
 43
0.00000001
 12
1.0
 22
0.0
 32
0.0
 13
1.0
 23
0.0
 33
0.0
 40
0.0
 40
0.0
 40
0.0
 40
0.0
 40
0.2572435454215894
 40
0.6263799317684984
 40
1.0
 40
1.0
 40
1.0
 40
1.0
 10
239.5775093054088
 20
161.691267821275
 30
0.0
 10
239.6630612041634
 20
161.4314198625638
 30
0.0
 10
239.8713773833573
 20
160.7986982664554
 30
0.0
 10
240.1045629666527
 20
159.7660137825124
 30
0.0
 10
240.1401600252174
 20
158.9882045489481
 30
0.0
 10
240.1580659961017
 20
158.5969522924054
 30
0.0
  0
SPLINE
  5
86
330
1F
100
AcDbEntity
  8
0
  6
Continuous
 62
     7
370
    15
100
AcDbSpline
210
0.0
220
0.0
230
1.0
 70
     8
 71
     3
 72
    10
 73
     6
 74
     0
 42
0.00000001
 43
0.00000001
 12
1.0
 22
0.0
 32
0.0
 13
1.0
 23
0.0
 33
0.0
 40
0.0
 40
0.0
 40
0.0
 40
0.0
 40
0.2572437719557117
 40
0.6263799596765316
 40
1.0
 40
1.0
 40
1.0
 40
1.0
 10
236.7386220311435
 20
161.691267821275
 30
0.0
 10
236.6530683942897
 20
161.4314199531362
 30
0.0
 10
236.4447481570483
 20
160.7986991065656
 30
0.0
 10
236.2115700337338
 20
159.7660133310093
 30
0.0
 10
236.1759718709174
 20
158.9882044577908
 30
0.0
 10
236.1580653404506
 20
158.5969522924054
 30
0.0
  0
LINE
  5
87
330
1F
100
AcDbEntity
  8
0
  6
Continuous
 62
     7
370
    15
100
AcDbLine
 10
239.5775093054
 20
161.6912678213
 30
0.0
 11
236.7386220311
 21
161.6912678213
 31
0.0
  0
SPLINE
  5
88
330
1F
100
AcDbEntity
  8
0
  6
Continuous
 62
     7
370
    15
100
AcDbSpline
210
0.0
220
0.0
230
1.0
 70
     8
 71
     3
 72
     9
 73
     5
 74
     0
 42
0.00000001
 43
0.00000001
 12
1.0
 22
0.0
 32
0.0
 13
1.0
 23
0.0
 33
0.0
 40
0.0
 40
0.0
 40
0.0
 40
0.0
 40
0.4954580833328222
 40
1.0
 40
1.0
 40
1.0
 40
1.0
 10
236.7386220311435
 20
148.7305991680253
 30
0.0
 10
236.5763575208609
 20
148.6832246864902
 30
0.0
 10
236.2488535084305
 20
148.5876071496516
 30
0.0
 10
236.1885107775473
 20
148.4887643646753
 30
0.0
 10
236.1580653404506
 20
148.4388940364945
 30
0.0
  0
SPLINE
  5
89
330
1F
100
AcDbEntity
  8
0
  6
Continuous
 62
     7
370
    15
100
AcDbSpline
210
0.0
220
0.0
230
1.0
 70
     8
 71
     3
 72
     9
 73
     5
 74
     0
 42
0.00000001
 43
0.00000001
 12
1.0
 22
0.0
 32
0.0
 13
1.0
 23
0.0
 33
0.0
 40
0.0
 40
0.0
 40
0.0
 40
0.0
 40
0.4954580833328222
 40
1.0
 40
1.0
 40
1.0
 40
1.0
 10
239.5775093054088
 20
148.7305991680253
 30
0.0
 10
239.7397738156914
 20
148.6832246864902
 30
0.0
 10
240.0672778281218
 20
148.5876071496516
 30
0.0
 10
240.127620559005
 20
148.4887643646753
 30
0.0
 10
240.1580659961017
 20
148.4388940364945
 30
0.0
  0
LINE
  5
8A
330
1F
100
AcDbEntity
  8
0
  6
Continuous
 62
     7
370
    15
100
AcDbLine
 10
240.1580659961
 20
152.1166179658
 30
0.0
 11
240.1580659961
 21
148.4388940365
 31
0.0
  0
SPLINE
  5
8B
330
1F
100
AcDbEntity
  8
0
  6
Continuous
 62
     7
370
    15
100
AcDbSpline
210
0.0
220
0.0
230
1.0
 70
     8
 71
     3
 72
     9
 73
     5
 74
     0
 42
0.00000001
 43
0.00000001
 12
1.0
 22
0.0
 32
0.0
 13
1.0
 23
0.0
 33
0.0
 40
0.0
 40
0.0
 40
0.0
 40
0.0
 40
0.2437032182129826
 40
1.0
 40
1.0
 40
1.0
 40
1.0
 10
236.1863440191062
 20
161.4388980300057
 30
0.0
 10
236.1973361342437
 20
161.4597470908035
 30
0.0
 10
236.2424406479142
 20
161.5452981186097
 30
0.0
 10
236.5249563299873
 20
161.62841032617
 30
0.0
 10
236.7386220311435
 20
161.691267821275
 30
0.0
  0
SPLINE
  5
8C
330
1F
100
AcDbEntity
  8
0
  6
Continuous
 62
     7
370
    15
100
AcDbSpline
210
0.0
220
0.0
230
1.0
 70
     8
 71
     3
 72
     9
 73
     5
 74
     0
 42
0.00000001
 43
0.00000001
 12
1.0
 22
0.0
 32
0.0
 13
1.0
 23
0.0
 33
0.0
 40
0.0
 40
0.0
 40
0.0
 40
0.0
 40
0.2437032182129826
 40
1.0
 40
1.0
 40
1.0
 40
1.0
 10
240.1297873174461
 20
161.4388980300057
 30
0.0
 10
240.1187952023087
 20
161.4597470908035
 30
0.0
 10
240.0736906886382
 20
161.5452981186097
 30
0.0
 10
239.7911750065651
 20
161.62841032617
 30
0.0
 10
239.5775093054088
 20
161.691267821275
 30
0.0
  0
LINE
  5
8D
330
1F
100
AcDbEntity
  8
0
  6
Continuous
 62
     7
370
    15
100
AcDbLine
 10
240.1580659961
 20
161.4192284972
 30
0.0
 11
240.1580659961
 21
158.5969522924
 31
0.0
  0
SPLINE
  5
8E
330
1F
100
AcDbEntity
  8
0
  6
Continuous
 62
     7
370
    15
100
AcDbSpline
210
0.0
220
0.0
230
1.0
 70
     8
 71
     3
 72
    10
 73
     6
 74
     0
 42
0.00000001
 43
0.00000001
 12
1.0
 22
0.0
 32
0.0
 13
1.0
 23
0.0
 33
0.0
 40
0.0
 40
0.0
 40
0.0
 40
0.0
 40
0.0700770466565915
 40
0.5307777612773262
 40
1.0
 40
1.0
 40
1.0
 40
1.0
 10
240.1580659961017
 20
148.4388940364945
 30
0.0
 10
240.157372205004
 20
148.4319807328753
 30
0.0
 10
240.1521172905462
 20
148.3796179694156
 30
0.0
 10
240.0253351194326
 20
148.2808955881857
 30
0.0
 10
239.7276937410239
 20
148.192029247188
 30
0.0
 10
239.5775093054088
 20
148.1471889049638
 30
0.0
  0
LINE
  5
8F
330
1F
100
AcDbEntity
  8
0
  6
Continuous
 62
     7
370
    15
100
AcDbLine
 10
239.5775093054
 20
148.147188905
 30
0.0
 11
236.7386220311
 21
148.147188905
 31
0.0
  0
SPLINE
  5
90
330
1F
100
AcDbEntity
  8
0
  6
Continuous
 62
     7
370
    15
100
AcDbSpline
210
0.0
220
0.0
230
1.0
 70
     8
 71
     3
 72
    10
 73
     6
 74
     0
 42
0.00000001
 43
0.00000001
 12
1.0
 22
0.0
 32
0.0
 13
1.0
 23
0.0
 33
0.0
 40
0.0
 40
0.0
 40
0.0
 40
0.0
 40
0.0700770291336924
 40
0.5307778010077749
 40
0.9999999999999999
 40
0.9999999999999999
 40
0.9999999999999999
 40
0.9999999999999999
 10
236.1580653404506
 20
148.4388940364945
 30
0.0
 10
236.1587577808801
 20
148.4319807326583
 30
0.0
 10
236.164002466807
 20
148.3796179505416
 30
0.0
 10
236.2908007461363
 20
148.2808956118874
 30
0.0
 10
236.588439124728
 20
148.1920292520516
 30
0.0
 10
236.7386220311435
 20
148.1471889049638
 30
0.0
  0
LINE
  5
91
330
1F
100
AcDbEntity
  8
0
  6
Continuous
 62
     7
370
    15
100
AcDbLine
 10
251.7580649173
 20
152.1166179658
 30
0.0
 11
251.7580649173
 21
155.5026386262
 31
0.0
  0
LINE
  5
92
330
1F
100
AcDbEntity
  8
0
  6
Continuous
 62
     7
370
    15
100
AcDbLine
 10
251.7580649173
 20
155.5026386262
 30
0.0
 11
255.8775095557
 21
155.5026386262
 31
0.0
  0
SPLINE
  5
93
330
1F
100
AcDbEntity
  8
0
  6
Continuous
 62
     7
370
    15
100
AcDbSpline
210
0.0
220
0.0
230
1.0
 70
     8
 71
     3
 72
     9
 73
     5
 74
     0
 42
0.00000001
 43
0.00000001
 12
1.0
 22
0.0
 32
0.0
 13
1.0
 23
0.0
 33
0.0
 40
0.0
 40
0.0
 40
0.0
 40
0.0
 40
0.4954579785708796
 40
1.0
 40
1.0
 40
1.0
 40
1.0
 10
255.8775095557483
 20
155.5026386261809
 30
0.0
 10
256.0397740668237
 20
154.9527340192161
 30
0.0
 10
256.3672781501031
 20
153.8428425031868
 30
0.0
 10
256.4276208291676
 20
152.6955003134575
 30
0.0
 10
256.4580662464413
 20
152.1166179657805
 30
0.0
  0
SPLINE
  5
94
330
1F
100
AcDbEntity
  8
0
  6
Continuous
 62
     7
370
    15
100
AcDbSpline
210
0.0
220
0.0
230
1.0
 70
     8
 71
     3
 72
    10
 73
     6
 74
     0
 42
0.00000001
 43
0.00000001
 12
1.0
 22
0.0
 32
0.0
 13
1.0
 23
0.0
 33
0.0
 40
0.0
 40
0.0
 40
0.0
 40
0.0
 40
0.070076765670168
 40
0.5307777740545739
 40
1.0
 40
1.0
 40
1.0
 40
1.0
 10
256.4580662464413
 20
152.1166179657805
 30
0.0
 10
256.4573724515776
 20
152.0363735772392
 30
0.0
 10
256.4521174873985
 20
151.4285838551673
 30
0.0
 10
256.3253355038381
 20
150.282612272774
 30
0.0
 10
256.027694003445
 20
149.2510876121385
 30
0.0
 10
255.8775095557483
 20
148.7305991680253
 30
0.0
  0
LINE
  5
95
330
1F
100
AcDbEntity
  8
0
  6
Continuous
 62
     7
370
    15
100
AcDbLine
 10
251.7580649173
 20
148.730599168
 30
0.0
 11
255.8775095557
 21
148.730599168
 31
0.0
  0
LINE
  5
96
330
1F
100
AcDbEntity
  8
0
  6
Continuous
 62
     7
370
    15
100
AcDbLine
 10
251.7580649173
 20
148.730599168
 30
0.0
 11
251.7580649173
 21
152.1166179658
 31
0.0
  0
LINE
  5
97
330
1F
100
AcDbEntity
  8
0
  6
Continuous
 62
     7
370
    15
100
AcDbLine
 10
251.1580659365
 20
148.419228229
 30
0.0
 11
251.1580659365
 21
161.4192284972
 31
0.0
  0
SPLINE
  5
98
330
1F
100
AcDbEntity
  8
0
  6
Continuous
 62
     7
370
    15
100
AcDbSpline
210
0.0
220
0.0
230
1.0
 70
     8
 71
     3
 72
    10
 73
     6
 74
     0
 42
0.00000001
 43
0.00000001
 12
1.0
 22
0.0
 32
0.0
 13
1.0
 23
0.0
 33
0.0
 40
0.0
 40
0.0
 40
0.0
 40
0.0
 40
0.2416192108690672
 40
0.6187320597292681
 40
1.0
 40
1.0
 40
1.0
 40
1.0
 10
256.4580662464413
 20
158.5969522924054
 30
0.0
 10
256.4503591226994
 20
158.3440070027702
 30
0.0
 10
256.4306229248606
 20
157.6962714212661
 30
0.0
 10
256.2477692369177
 20
156.6563623918748
 30
0.0
 10
256.0013794310553
 20
155.8886153507972
 30
0.0
 10
255.8775095557483
 20
155.5026386261809
 30
0.0
  0
LINE
  5
99
330
1F
100
AcDbEntity
  8
0
  6
Continuous
 62
     7
370
    15
100
AcDbLine
 10
256.4580662464
 20
158.5969522924
 30
0.0
 11
256.4580662464
 21
152.1166179658
 31
0.0
  0
LINE
  5
9A
330
1F
100
AcDbEntity
  8
0
  6
Continuous
 62
     7
370
    15
100
AcDbLine
 10
251.7580649173
 20
158.5969522924
 30
0.0
 11
251.7580649173
 21
161.6912678213
 31
0.0
  0
LINE
  5
9B
330
1F
100
AcDbEntity
  8
0
  6
Continuous
 62
     7
370
    15
100
AcDbLine
 10
251.7580649173
 20
161.6912678213
 30
0.0
 11
255.8775095557
 21
161.6912678213
 31
0.0
  0
SPLINE
  5
9C
330
1F
100
AcDbEntity
  8
0
  6
Continuous
 62
     7
370
    15
100
AcDbSpline
210
0.0
220
0.0
230
1.0
 70
     8
 71
     3
 72
    10
 73
     6
 74
     0
 42
0.00000001
 43
0.00000001
 12
1.0
 22
0.0
 32
0.0
 13
1.0
 23
0.0
 33
0.0
 40
0.0
 40
0.0
 40
0.0
 40
0.0
 40
0.2234128212902473
 40
0.609201302960034
 40
1.0
 40
1.0
 40
1.0
 40
1.0
 10
255.8775095557483
 20
161.691267821275
 30
0.0
 10
255.9523079461207
 20
161.4657315984816
 30
0.0
 10
256.1562679364696
 20
160.8507402116983
 30
0.0
 10
256.3996028300131
 20
159.8194456347103
 30
0.0
 10
256.4384948027231
 20
159.0061989821565
 30
0.0
 10
256.4580662464413
 20
158.5969522924054
 30
0.0
  0
LINE
  5
9D
330
1F
100
AcDbEntity
  8
0
  6
Continuous
 62
     7
370
    15
100
AcDbLine
 10
251.7580649173
 20
155.5026386262
 30
0.0
 11
251.7580649173
 21
158.5969522924
 31
0.0
  0
SPLINE
  5
9E
330
1F
100
AcDbEntity
  8
0
  6
Continuous
 62
     7
370
    15
100
AcDbSpline
210
0.0
220
0.0
230
1.0
 70
     8
 71
     3
 72
     9
 73
     5
 74
     0
 42
0.00000001
 43
0.00000001
 12
1.0
 22
0.0
 32
0.0
 13
1.0
 23
0.0
 33
0.0
 40
0.0
 40
0.0
 40
0.0
 40
0.0
 40
0.4954580833328222
 40
1.0
 40
1.0
 40
1.0
 40
1.0
 10
255.8775095557483
 20
148.7305991680253
 30
0.0
 10
256.0397740660309
 20
148.6832246864902
 30
0.0
 10
256.3672780784614
 20
148.5876071496516
 30
0.0
 10
256.4276208093445
 20
148.4887643646753
 30
0.0
 10
256.4580662464413
 20
148.4388940364945
 30
0.0
  0
LINE
  5
9F
330
1F
100
AcDbEntity
  8
0
  6
Continuous
 62
     7
370
    15
100
AcDbLine
 10
256.4580662464
 20
148.4388940365
 30
0.0
 11
256.4580662464
 21
152.1166179658
 31
0.0
  0
SPLINE
  5
A0
330
1F
100
AcDbEntity
  8
0
  6
Continuous
 62
     7
370
    15
100
AcDbSpline
210
0.0
220
0.0
230
1.0
 70
     8
 71
     3
 72
    10
 73
     6
 74
     0
 42
0.00000001
 43
0.00000001
 12
1.0
 22
0.0
 32
0.0
 13
1.0
 23
0.0
 33
0.0
 40
0.0
 40
0.0
 40
0.0
 40
0.0
 40
0.0700769920054469
 40
0.5307776351302104
 40
1.0
 40
1.0
 40
1.0
 40
1.0
 10
256.4580662464413
 20
161.3995626897443
 30
0.0
 10
256.4573724550697
 20
161.4064753181105
 30
0.0
 10
256.4521175356888
 20
161.458832995456
 30
0.0
 10
256.3253352871998
 20
161.5575634478452
 30
0.0
 10
256.0276939846408
 20
161.6464282474102
 30
0.0
 10
255.8775095557483
 20
161.691267821275
 30
0.0
  0
LINE
  5
A1
330
1F
100
AcDbEntity
  8
0
  6
Continuous
 62
     7
370
    15
100
AcDbLine
 10
256.4580662464
 20
158.5969522924
 30
0.0
 11
256.4580662464
 21
161.4100680084
 31
0.0
  0
SPLINE
  5
A2
330
1F
100
AcDbEntity
  8
0
  6
Continuous
 62
     7
370
    15
100
AcDbSpline
210
0.0
220
0.0
230
1.0
 70
     8
 71
     3
 72
    10
 73
     6
 74
     0
 42
0.00000001
 43
0.00000001
 12
1.0
 22
0.0
 32
0.0
 13
1.0
 23
0.0
 33
0.0
 40
0.0
 40
0.0
 40
0.0
 40
0.0
 40
0.0700770466565915
 40
0.5307777612773262
 40
1.0
 40
1.0
 40
1.0
 40
1.0
 10
256.4580662464413
 20
148.4388940364945
 30
0.0
 10
256.4573724553435
 20
148.4319807328753
 30
0.0
 10
256.4521175408858
 20
148.3796179694156
 30
0.0
 10
256.3253353697721
 20
148.2808955881857
 30
0.0
 10
256.0276939913634
 20
148.192029247188
 30
0.0
 10
255.8775095557483
 20
148.1471889049638
 30
0.0
  0
LINE
  5
A3
330
1F
100
AcDbEntity
  8
0
  6
Continuous
 62
     7
370
    15
100
AcDbLine
 10
251.7580649173
 20
148.147188905
 30
0.0
 11
255.8775095557
 21
148.147188905
 31
0.0
  0
LINE
  5
A4
330
1F
100
AcDbEntity
  8
0
  6
Continuous
 62
     7
370
    15
100
AcDbLine
 10
251.7580649173
 20
148.147188905
 30
0.0
 11
251.7580649173
 21
148.4388940365
 31
0.0
  0
LINE
  5
A5
330
1F
100
AcDbEntity
  8
0
  6
Continuous
 62
     7
370
    15
100
AcDbLine
 10
251.7580649173
 20
148.4388940365
 30
0.0
 11
251.7580649173
 21
148.730599168
 31
0.0
  0
LINE
  5
A6
330
1F
100
AcDbEntity
  8
0
  6
Continuous
 62
     7
370
    15
100
AcDbLine
 10
243.4530368363
 20
138.9192276032
 30
0.0
 11
249.4580632364
 21
138.9192276032
 31
0.0
  0
LINE
  5
A7
330
1F
100
AcDbEntity
  8
0
  6
Continuous
 62
     7
370
    15
100
AcDbLine
 10
240.0580643033
 20
138.9192276032
 30
0.0
 11
243.4530368363
 21
138.9192276032
 31
0.0
  0
LINE
  5
A8
330
1F
100
AcDbEntity
  8
0
  6
Continuous
 62
     7
370
    15
100
AcDbLine
 10
249.6580628967
 20
104.0905088515
 30
0.0
 11
249.6580628967
 21
125.9192273349
 31
0.0
  0
LWPOLYLINE
  5
A9
330
1F
100
AcDbEntity
  8
0
  6
Continuous
 62
     7
370
    15
100
AcDbPolyline
 90
        3
 70
   128
 43
0.0
 10
255.1580628669
 20
105.5642299683
 10
252.3895537769
 20
104.8224091858
 10
249.6580628967
 20
104.0905088515
  0
LINE
  5
AA
330
1F
100
AcDbEntity
  8
0
  6
Continuous
 62
     7
370
    15
100
AcDbLine
 10
255.1580628669
 20
85.919228229
 30
0.0
 11
255.1580628669
 21
105.5642299683
 31
0.0
  0
LINE
  5
AB
330
1F
100
AcDbEntity
  8
0
  6
Continuous
 62
     7
370
    15
100
AcDbLine
 10
236.1580653405
 20
165.9192264409
 30
0.0
 11
236.1580653405
 21
137.9192274392
 31
0.0
  0
LINE
  5
AC
330
1F
100
AcDbEntity
  8
0
  6
Continuous
 62
     7
370
    15
100
AcDbLine
 10
255.1580628669
 20
137.9192274392
 30
0.0
 11
236.1580653405
 21
137.9192274392
 31
0.0
  0
LINE
  5
AD
330
1F
100
AcDbEntity
  8
0
  6
Continuous
 62
     7
370
    15
100
AcDbLine
 10
255.1580628669
 20
128.6167880383
 30
0.0
 11
255.1580628669
 21
137.9192274392
 31
0.0
  0
LWPOLYLINE
  5
AE
330
1F
100
AcDbEntity
  8
0
  6
Continuous
 62
     7
370
    15
100
AcDbPolyline
 90
        3
 70
   128
 43
0.0
 10
249.6580628967
 20
130.0905084566
 10
252.4058742737
 20
129.3542355628
 10
255.1580628669
 20
128.6167880383
  0
LINE
  5
AF
330
1F
100
AcDbEntity
  8
0
  6
Continuous
 62
     7
370
    15
100
AcDbLine
 10
249.6580628967
 20
127.9192274299
 30
0.0
 11
249.6580628967
 21
130.0905084566
 31
0.0
  0
LINE
  5
B0
330
1F
100
AcDbEntity
  8
0
  6
Continuous
 62
     7
370
    15
100
AcDbLine
 10
249.6580628967
 20
127.9192274299
 30
0.0
 11
238.0121646737
 21
127.9192274299
 31
0.0
  0
SPLINE
  5
B1
330
1F
100
AcDbEntity
  8
0
  6
Continuous
 62
     7
370
    15
100
AcDbSpline
210
0.0
220
0.0
230
1.0
 70
     8
 71
     3
 72
    66
 73
    62
 74
     0
 42
0.00000001
 43
0.00000001
 12
1.0
 22
0.0
 32
0.0
 13
1.0
 23
0.0
 33
0.0
 40
-0.0624999999999999
 40
-0.0624999999999999
 40
0.0
 40
0.0
 40
0.0312500000000002
 40
0.0312500000000002
 40
0.0625000000000004
 40
0.0625000000000004
 40
0.0937500000000006
 40
0.0937500000000006
 40
0.1250000000000007
 40
0.1250000000000007
 40
0.1562500000000007
 40
0.1562500000000007
 40
0.1875000000000008
 40
0.1875000000000008
 40
0.2187500000000008
 40
0.2187500000000008
 40
0.2500000000000009
 40
0.2500000000000009
 40
0.2812500000000009
 40
0.2812500000000009
 40
0.312500000000001
 40
0.312500000000001
 40
0.3437500000000011
 40
0.3437500000000011
 40
0.3750000000000011
 40
0.3750000000000011
 40
0.4062500000000011
 40
0.4062500000000011
 40
0.4375000000000012
 40
0.4375000000000012
 40
0.4687500000000012
 40
0.4687500000000012
 40
0.5000000000000012
 40
0.5000000000000012
 40
0.5312500000000013
 40
0.5312500000000013
 40
0.5625000000000014
 40
0.5625000000000014
 40
0.6250000000000012
 40
0.6250000000000012
 40
0.6562500000000011
 40
0.6562500000000011
 40
0.687500000000001
 40
0.687500000000001
 40
0.7187500000000009
 40
0.7187500000000009
 40
0.7500000000000007
 40
0.7500000000000007
 40
0.7812500000000006
 40
0.7812500000000006
 40
0.8125000000000004
 40
0.8125000000000004
 40
0.8437500000000003
 40
0.8437500000000003
 40
0.8750000000000002
 40
0.8750000000000002
 40
0.9062500000000001
 40
0.9062500000000001
 40
0.9375000000000001
 40
0.9375000000000001
 40
1.0
 40
1.0
 40
1.03125
 40
1.03125
 10
222.8276541110569
 20
162.8966300622091
 30
0.0
 10
223.3232697481534
 20
162.8966300622091
 30
0.0
 10
223.4857062049525
 20
162.8904431261668
 30
0.0
 10
223.8052705454179
 20
162.8661024393495
 30
0.0
 10
223.9640565971006
 20
162.8476506934069
 30
0.0
 10
224.2667922197016
 20
162.7991595781409
 30
0.0
 10
224.4103695207308
 20
162.7693611228262
 30
0.0
 10
224.6820956884159
 20
162.6983196501338
 30
0.0
 10
224.8107190626913
 20
162.6566950607542
 30
0.0
 10
225.041277122082
 20
162.5647739280786
 30
0.0
 10
225.1447493973464
 20
162.5141703688615
 30
0.0
 10
225.3275100561477
 20
162.4029194235216
 30
0.0
 10
225.4051515096523
 20
162.3430596679965
 30
0.0
 10
225.5298456736161
 20
162.217668906378
 30
0.0
 10
225.5778524461547
 20
162.1512135443029
 30
0.0
 10
225.642086065481
 20
162.0132806634448
 30
0.0
 10
225.6579765945762
 20
161.9430636266896
 30
0.0
 10
225.6581517559917
 20
161.8000918028408
 30
0.0
 10
225.6419198761753
 20
161.726554416784
 30
0.0
 10
225.5781365184496
 20
161.5824709492918
 30
0.0
 10
225.5309429138825
 20
161.5115731097069
 30
0.0
 10
225.4057712941508
 20
161.3723684746142
 30
0.0
 10
225.3275135957162
 20
161.3042713525734
 30
0.0
 10
225.1465960614565
 20
161.177061881404
 30
0.0
 10
225.0433115944245
 20
161.117147555639
 30
0.0
 10
224.8100562766566
 20
161.0055177007818
 30
0.0
 10
224.6836579995062
 20
160.9555427391079
 30
0.0
 10
224.41299070145
 20
160.8676844970509
 30
0.0
 10
224.2669043455159
 20
160.8294242780087
 30
0.0
 10
223.9640295097935
 20
160.7678552112538
 30
0.0
 10
223.8081995124399
 20
160.7445298225302
 30
0.0
 10
223.4878437451887
 20
160.7129292072431
 30
0.0
 10
223.3221298031753
 20
160.7048033818488
 30
0.0
 10
222.9957941647684
 20
160.7047454340396
 30
0.0
 10
222.8336016250912
 20
160.712551071626
 30
0.0
 10
222.5112085413158
 20
160.7440639493939
 30
0.0
 10
222.3532026087505
 20
160.7677077633456
 30
0.0
 10
221.9017915703955
 20
160.8592428262131
 30
0.0
 10
221.6227240351175
 20
160.9499997362581
 30
0.0
 10
221.2766528386319
 20
161.1151604860186
 30
0.0
 10
221.1710108953793
 20
161.1761229136528
 30
0.0
 10
220.9892365802177
 20
161.3037355978728
 30
0.0
 10
220.9123477715277
 20
161.3705050506761
 30
0.0
 10
220.7866870587705
 20
161.5095638749703
 30
0.0
 10
220.7383803591549
 20
161.581873685387
 30
0.0
 10
220.6745604788445
 20
161.7254853297974
 30
0.0
 10
220.6582300402271
 20
161.7975721304738
 30
0.0
 10
220.6579015101358
 20
161.9422235675403
 30
0.0
 10
220.6739978166884
 20
162.0127699846605
 30
0.0
 10
220.7372295168533
 20
162.1493715987331
 30
0.0
 10
220.7850730659299
 20
162.2162775628438
 30
0.0
 10
220.9104127798763
 20
162.3426635331648
 30
0.0
 10
220.9871082312176
 20
162.4017826404121
 30
0.0
 10
221.1681647797541
 20
162.5124249271163
 30
0.0
 10
221.2736375747075
 20
162.5642218091
 30
0.0
 10
221.5041506220273
 20
162.6562601911861
 30
0.0
 10
221.6298676260084
 20
162.6970882479478
 30
0.0
 10
221.9026467047758
 20
162.7686858256311
 30
0.0
 10
222.0483461237125
 20
162.7989402007889
 30
0.0
 10
222.4994094225239
 20
162.8713707687059
 30
0.0
 10
222.8276541110569
 20
162.8966300622091
 30
0.0
 10
223.3232697481534
 20
162.8966300622091
 30
0.0
  0
SPLINE
  5
B2
330
1F
100
AcDbEntity
  8
0
  6
Continuous
 62
     7
370
    15
100
AcDbSpline
210
0.0
220
0.0
230
1.0
 70
     8
 71
     3
 72
    22
 73
    18
 74
     0
 42
0.00000001
 43
0.00000001
 12
1.0
 22
0.0
 32
0.0
 13
1.0
 23
0.0
 33
0.0
 40
0.0
 40
0.0
 40
0.0
 40
0.0
 40
0.0499667272060757
 40
0.0999334598658496
 40
0.1499002034333458
 40
0.1998669633625948
 40
0.2498337451076128
 40
0.2998005541224164
 40
0.3497673958610034
 40
0.3997342757773712
 40
0.4497011993254987
 40
0.4996681719593537
 40
0.5841360897368022
 40
0.7488767879297462
 40
0.8591798609029002
 40
0.9428933729289279
 40
1.0
 40
1.0
 40
1.0
 40
1.0
 10
232.8552888980559
 20
125.9192273349393
 30
0.0
 10
232.9098542931611
 20
125.8875861214299
 30
0.0
 10
233.0189850893272
 20
125.8243036909574
 30
0.0
 10
233.1888812843484
 20
125.7407706669949
 30
0.0
 10
233.3626916818545
 20
125.665894514789
 30
0.0
 10
233.5403879565883
 20
125.6006918904868
 30
0.0
 10
233.7213224752234
 20
125.5451394936108
 30
0.0
 10
233.9050010518702
 20
125.499456910635
 30
0.0
 10
234.0908778059074
 20
125.4637622634328
 30
0.0
 10
234.2784122370369
 20
125.438163928191
 30
0.0
 10
234.4670554696401
 20
125.4227356729074
 30
0.0
 10
234.6998041178917
 20
125.4163227221377
 30
0.0
 10
235.0774224818775
 20
125.4333881789089
 30
0.0
 10
235.5266330370939
 20
125.5149808219606
 30
0.0
 10
235.9557283741393
 20
125.662112360478
 30
0.0
 10
236.2443445425813
 20
125.794478386929
 30
0.0
 10
236.3983759828605
 20
125.8832342664451
 30
0.0
 10
236.4608401735199
 20
125.9192273349393
 30
0.0
  0
SPLINE
  5
B3
330
1F
100
AcDbEntity
  8
0
  6
Continuous
 62
     7
370
    15
100
AcDbSpline
210
0.0
220
0.0
230
1.0
 70
     8
 71
     3
 72
    52
 73
    48
 74
     0
 42
0.00000001
 43
0.00000001
 12
1.0
 22
0.0
 32
0.0
 13
1.0
 23
0.0
 33
0.0
 40
0.0
 40
0.0
 40
0.0
 40
0.0
 40
0.0624999999999992
 40
0.0624999999999992
 40
0.1249999999999984
 40
0.1249999999999984
 40
0.1562499999999983
 40
0.1562499999999983
 40
0.1874999999999981
 40
0.1874999999999981
 40
0.218749999999998
 40
0.218749999999998
 40
0.2499999999999978
 40
0.2499999999999978
 40
0.3124999999999966
 40
0.3124999999999966
 40
0.343749999999996
 40
0.343749999999996
 40
0.3749999999999953
 40
0.3749999999999953
 40
0.4374999999999942
 40
0.4374999999999942
 40
0.499999999999993
 40
0.499999999999993
 40
0.5312499999999929
 40
0.5312499999999929
 40
0.5624999999999929
 40
0.5624999999999929
 40
0.6249999999999939
 40
0.6249999999999939
 40
0.6562499999999943
 40
0.6562499999999943
 40
0.6874999999999949
 40
0.6874999999999949
 40
0.7187499999999953
 40
0.7187499999999953
 40
0.7499999999999958
 40
0.7499999999999958
 40
0.8124999999999969
 40
0.8124999999999969
 40
0.874999999999998
 40
0.874999999999998
 40
0.9062499999999986
 40
0.9062499999999986
 40
0.937499999999999
 40
0.937499999999999
 40
1.0
 40
1.0
 40
1.0
 40
1.0
 10
238.0121665020376
 20
127.9192273349393
 30
0.0
 10
238.1052965768752
 20
128.2315951020692
 30
0.0
 10
238.1542698525221
 20
128.5530842467072
 30
0.0
 10
238.1614407100924
 20
129.208826642839
 30
0.0
 10
238.1197616076191
 20
129.5296440388094
 30
0.0
 10
237.9908094473146
 20
130.0005691620527
 30
0.0
 10
237.9363335055509
 20
130.1558304346894
 30
0.0
 10
237.808112834275
 20
130.4533167657163
 30
0.0
 10
237.7340815401071
 20
130.5968098394397
 30
0.0
 10
237.5662420833209
 20
130.8733683283918
 30
0.0
 10
237.4716755456311
 20
131.0073256199277
 30
0.0
 10
237.2654578362645
 20
131.2597532457362
 30
0.0
 10
237.1545398202052
 20
131.3776229048199
 30
0.0
 10
236.7989293422165
 20
131.7068945273165
 30
0.0
 10
236.5268527450148
 20
131.8962734537789
 30
0.0
 10
236.0927412244949
 20
132.1157873672305
 30
0.0
 10
235.943493051414
 20
132.1786907362513
 30
0.0
 10
235.635820615924
 20
132.2838106941435
 30
0.0
 10
235.4760607220601
 20
132.3262158570439
 30
0.0
 10
234.9946883800747
 20
132.4182898650309
 30
0.0
 10
234.6704662106753
 20
132.4346284038932
 30
0.0
 10
234.0152686153012
 20
132.3753829856223
 30
0.0
 10
233.6986017611106
 20
132.300901700957
 30
0.0
 10
233.24254631169
 20
132.1243608330466
 30
0.0
 10
233.0930614647299
 20
132.0540602733815
 30
0.0
 10
232.809297650311
 20
131.8955460624157
 30
0.0
 10
232.6738482223831
 20
131.806979757186
 30
0.0
 10
232.2865565567511
 20
131.5136181358132
 30
0.0
 10
232.053032557768
 20
131.2789121649587
 30
0.0
 10
231.7621715942958
 20
130.8915052304952
 30
0.0
 10
231.6741491158816
 20
130.755744957607
 30
0.0
 10
231.5164328428258
 20
130.4705811041679
 30
0.0
 10
231.4473164889945
 20
130.3218242697794
 30
0.0
 10
231.3316031559767
 20
130.0196072103618
 30
0.0
 10
231.2844097279655
 20
129.8651204736306
 30
0.0
 10
231.2114401547116
 20
129.5493392043222
 30
0.0
 10
231.1856003925182
 20
129.3867257331784
 30
0.0
 10
231.1429735379088
 20
128.8996520640947
 30
0.0
 10
231.1595025908625
 20
128.5762958758524
 30
0.0
 10
231.2840950053152
 20
127.9323801960401
 30
0.0
 10
231.390258870693
 20
127.6239813552715
 30
0.0
 10
231.6117528698645
 20
127.188175851815
 30
0.0
 10
231.6969156061053
 20
127.0462063988418
 30
0.0
 10
231.8839685801876
 20
126.7788997805819
 30
0.0
 10
231.98613653875
 20
126.6526923055375
 30
0.0
 10
232.3182238655795
 20
126.2961248433311
 30
0.0
 10
232.5769807966682
 20
126.0864696899277
 30
0.0
 10
232.8552888980559
 20
125.9192273349393
 30
0.0
  0
LINE
  5
B4
330
1F
100
AcDbEntity
  8
0
  6
Continuous
 62
     7
370
    15
100
AcDbLine
 10
249.6580628967
 20
125.9192273349
 30
0.0
 11
236.4608420347
 21
125.9192273349
 31
0.0
  0
ARC
  5
B5
330
1F
100
AcDbEntity
  8
0
  6
Continuous
 62
     7
370
    15
100
AcDbCircle
 10
209.1579997129
 20
75.962778355
 30
0.0
 40
25.03645479494859
100
AcDbArc
 50
85.4747630076
 51
94.581721871
  0
SPLINE
  5
B6
330
1F
100
AcDbEntity
  8
0
  6
Continuous
 62
     7
370
    15
100
AcDbSpline
210
0.0
220
0.0
230
1.0
 70
     8
 71
     3
 72
    12
 73
     8
 74
     0
 42
0.00000001
 43
0.00000001
 12
1.0
 22
0.0
 32
0.0
 13
1.0
 23
0.0
 33
0.0
 40
0.0
 40
0.0
 40
0.0
 40
0.0
 40
0.2500000000000009
 40
0.2500000000000009
 40
0.5000000000000018
 40
0.5000000000000018
 40
1.0
 40
1.0
 40
1.0
 40
1.0
 10
205.6858213493544
 20
102.0924962194373
 30
0.0
 10
205.6221561128239
 20
102.0924962194373
 30
0.0
 10
205.5625498806005
 20
102.1007609951031
 30
0.0
 10
205.4638893556696
 20
102.1249797766863
 30
0.0
 10
205.4249223656544
 20
102.1402370959954
 30
0.0
 10
205.3255355337299
 20
102.1898704502573
 30
0.0
 10
205.2834592863065
 20
102.2275101584314
 30
0.0
 10
205.2528086474622
 20
102.2665858577076
 30
0.0
  0
LINE
  5
B7
330
1F
100
AcDbEntity
  8
0
  6
Continuous
 62
     7
370
    15
100
AcDbLine
 10
208.6303074201
 20
102.092495966
 30
0.0
 11
205.6858212044
 21
102.092495966
 31
0.0
  0
SPLINE
  5
B8
330
1F
100
AcDbEntity
  8
0
  6
Continuous
 62
     7
370
    15
100
AcDbSpline
210
0.0
220
0.0
230
1.0
 70
     8
 71
     3
 72
    12
 73
     8
 74
     0
 42
0.00000001
 43
0.00000001
 12
1.0
 22
0.0
 32
0.0
 13
1.0
 23
0.0
 33
0.0
 40
0.0
 40
0.0
 40
0.0
 40
0.0
 40
0.4999999999999982
 40
0.4999999999999982
 40
0.7499999999999991
 40
0.7499999999999991
 40
1.0
 40
1.0
 40
1.0
 40
1.0
 10
209.0633204241137
 20
102.2665858577076
 30
0.0
 10
209.0326210407464
 20
102.2274480153117
 30
0.0
 10
208.9912709726399
 20
102.1902882325862
 30
0.0
 10
208.8915150444204
 20
102.1403517269585
 30
0.0
 10
208.8518181266877
 20
102.1248988568147
 30
0.0
 10
208.7545599750401
 20
102.1009793132157
 30
0.0
 10
208.6937838170494
 20
102.0924962194373
 30
0.0
 10
208.6303077222215
 20
102.0924962194373
 30
0.0
  0
ELLIPSE
  5
B9
330
1F
100
AcDbEntity
  8
0
  6
Continuous
 62
     7
370
    15
100
AcDbEllipse
 10
196.1018068808
 20
125.9192273349
 30
0.0
 11
-11.70927234972723
 21
24.67718644093744
 31
0.0
210
0.0
220
0.0
230
1.0
 40
0.3419987131
 41
3.310521928178947
 42
4.221709151398938
  0
SPLINE
  5
BA
330
1F
100
AcDbEntity
  8
0
  6
Continuous
 62
     7
370
    15
100
AcDbSpline
210
0.0
220
0.0
230
1.0
 70
     8
 71
     3
 72
    12
 73
     8
 74
     0
 42
0.00000001
 43
0.00000001
 12
1.0
 22
0.0
 32
0.0
 13
1.0
 23
0.0
 33
0.0
 40
0.0
 40
0.0
 40
0.0
 40
0.0
 40
0.2500000000000014
 40
0.2500000000000014
 40
0.5000000000000028
 40
0.5000000000000028
 40
1.0
 40
1.0
 40
1.0
 40
1.0
 10
208.6303077222215
 20
118.3504173657585
 30
0.0
 10
208.693972958752
 20
118.3504173657584
 30
0.0
 10
208.7535791909753
 20
118.3243452172788
 30
0.0
 10
208.8522397159062
 20
118.2488064664577
 30
0.0
 10
208.8912067059214
 20
118.2015555293614
 30
0.0
 10
208.9905935378459
 20
118.049731711395
 30
0.0
 10
209.0326697852693
 20
117.9369284616299
 30
0.0
 10
209.0633204241137
 20
117.8227743368948
 30
0.0
  0
LINE
  5
BB
330
1F
100
AcDbEntity
  8
0
  6
Continuous
 62
     7
370
    15
100
AcDbLine
 10
205.6858212044
 20
118.3504171998
 30
0.0
 11
208.6303074201
 21
118.3504171998
 31
0.0
  0
SPLINE
  5
BC
330
1F
100
AcDbEntity
  8
0
  6
Continuous
 62
     7
370
    15
100
AcDbSpline
210
0.0
220
0.0
230
1.0
 70
     8
 71
     3
 72
    12
 73
     8
 74
     0
 42
0.00000001
 43
0.00000001
 12
1.0
 22
0.0
 32
0.0
 13
1.0
 23
0.0
 33
0.0
 40
0.0
 40
0.0
 40
0.0
 40
0.0
 40
0.5000000000000018
 40
0.5000000000000018
 40
0.7500000000000009
 40
0.7500000000000009
 40
1.0
 40
1.0
 40
1.0
 40
1.0
 10
205.2528086474622
 20
117.8227743368949
 30
0.0
 10
205.2835080308295
 20
117.9371100039587
 30
0.0
 10
205.3248580989359
 20
118.0484633568001
 30
0.0
 10
205.4246140271554
 20
118.2012001290488
 30
0.0
 10
205.4643109448881
 20
118.2490600149009
 30
0.0
 10
205.5615690965357
 20
118.3236631282504
 30
0.0
 10
205.6223452545264
 20
118.3504173657584
 30
0.0
 10
205.6858213493544
 20
118.3504173657585
 30
0.0
  0
ELLIPSE
  5
BD
330
1F
100
AcDbEntity
  8
0
  6
Continuous
 62
     7
370
    15
100
AcDbEllipse
 10
218.2143221908
 20
125.9192273349
 30
0.0
 11
11.70927234972714
 21
24.67718644093743
 31
0.0
210
0.0
220
0.0
230
1.0
 40
0.3419987131
 41
2.061476155780659
 42
2.972663379000684
  0
SPLINE
  5
BE
330
1F
100
AcDbEntity
  8
0
  6
Continuous
 62
     7
370
    15
100
AcDbSpline
210
0.0
220
0.0
230
1.0
 70
     8
 71
     3
 72
    12
 73
     8
 74
     0
 42
0.00000001
 43
0.00000001
 12
1.0
 22
0.0
 32
0.0
 13
1.0
 23
0.0
 33
0.0
 40
0.0
 40
0.0
 40
0.0
 40
0.0
 40
0.2500000000000002
 40
0.2500000000000002
 40
0.5000000000000004
 40
0.5000000000000004
 40
1.0
 40
1.0
 40
1.0
 40
1.0
 10
205.6858213493544
 20
133.48803730412
 30
0.0
 10
205.6221847951407
 20
133.48803730412
 30
0.0
 10
205.5626046682745
 20
133.5140842071779
 30
0.0
 10
205.4639679269081
 20
133.5895713660778
 30
0.0
 10
205.4250093025278
 20
133.6367904046085
 30
0.0
 10
205.3256303630199
 20
133.7885300557021
 30
0.0
 10
205.2836724578544
 20
133.9007322798863
 30
0.0
 10
205.252808647462
 20
134.0156803329835
 30
0.0
  0
LINE
  5
BF
330
1F
100
AcDbEntity
  8
0
  6
Continuous
 62
     7
370
    15
100
AcDbLine
 10
208.6303074201
 20
133.4880374701
 30
0.0
 11
205.6858212044
 21
133.4880374701
 31
0.0
  0
SPLINE
  5
C0
330
1F
100
AcDbEntity
  8
0
  6
Continuous
 62
     7
370
    15
100
AcDbSpline
210
0.0
220
0.0
230
1.0
 70
     8
 71
     3
 72
    12
 73
     8
 74
     0
 42
0.00000001
 43
0.00000001
 12
1.0
 22
0.0
 32
0.0
 13
1.0
 23
0.0
 33
0.0
 40
0.0
 40
0.0
 40
0.0
 40
0.0
 40
0.5
 40
0.5
 40
0.75
 40
0.75
 40
1.0
 40
1.0
 40
1.0
 40
1.0
 10
209.0633204241137
 20
134.0156803329836
 30
0.0
 10
209.0324687135495
 20
133.9007773440467
 30
0.0
 10
208.9905758500888
 20
133.7886384479979
 30
0.0
 10
208.8910549722956
 20
133.636696166397
 30
0.0
 10
208.8514408075714
 20
133.5890315568721
 30
0.0
 10
208.7543377737919
 20
133.5146952262567
 30
0.0
 10
208.6938391011415
 20
133.4880373041196
 30
0.0
 10
208.6303077222215
 20
133.4880373041196
 30
0.0
  0
ELLIPSE
  5
C1
330
1F
100
AcDbEntity
  8
0
  6
Continuous
 62
     7
370
    15
100
AcDbEllipse
 10
196.1018068808
 20
125.9192273349
 30
0.0
 11
11.70927234972717
 21
24.67718644093743
 31
0.0
210
0.0
220
0.0
230
1.0
 40
0.3419987131
 41
5.20306880937046
 42
6.114256032590506
  0
SPLINE
  5
C2
330
1F
100
AcDbEntity
  8
0
  6
Continuous
 62
     7
370
    15
100
AcDbSpline
210
0.0
220
0.0
230
1.0
 70
     8
 71
     3
 72
    12
 73
     8
 74
     0
 42
0.00000001
 43
0.00000001
 12
1.0
 22
0.0
 32
0.0
 13
1.0
 23
0.0
 33
0.0
 40
0.0
 40
0.0
 40
0.0
 40
0.0
 40
0.2499999999999984
 40
0.2499999999999984
 40
0.4999999999999968
 40
0.4999999999999968
 40
1.0
 40
1.0
 40
1.0
 40
1.0
 10
208.6303077222215
 20
149.7459584504413
 30
0.0
 10
208.6939442764352
 20
149.7459584504413
 30
0.0
 10
208.7535244033014
 20
149.7377016795095
 30
0.0
 10
208.8521611446677
 20
149.7134996175017
 30
0.0
 10
208.8911197690481
 20
149.6982527984675
 30
0.0
 10
208.9904987085559
 20
149.6486479264074
 30
0.0
 10
209.0324566137214
 20
149.6112162782886
 30
0.0
 10
209.0633204241139
 20
149.571868812171
 30
0.0
  0
LINE
  5
C3
330
1F
100
AcDbEntity
  8
0
  6
Continuous
 62
     7
370
    15
100
AcDbLine
 10
205.6858212044
 20
149.7459587038
 30
0.0
 11
208.6303074201
 21
149.7459587038
 31
0.0
  0
SPLINE
  5
C4
330
1F
100
AcDbEntity
  8
0
  6
Continuous
 62
     7
370
    15
100
AcDbSpline
210
0.0
220
0.0
230
1.0
 70
     8
 71
     3
 72
    12
 73
     8
 74
     0
 42
0.00000001
 43
0.00000001
 12
1.0
 22
0.0
 32
0.0
 13
1.0
 23
0.0
 33
0.0
 40
0.0
 40
0.0
 40
0.0
 40
0.0
 40
0.5000000000000018
 40
0.5000000000000018
 40
0.7500000000000009
 40
0.7500000000000009
 40
1.0
 40
1.0
 40
1.0
 40
1.0
 10
205.2528086474622
 20
149.5718688121709
 30
0.0
 10
205.2836603580264
 20
149.6112008525334
 30
0.0
 10
205.325553221487
 20
149.6486126180617
 30
0.0
 10
205.4250740992802
 20
149.6982835426776
 30
0.0
 10
205.4646882640045
 20
149.7136726252854
 30
0.0
 10
205.561791297784
 20
149.7375058409527
 30
0.0
 10
205.6222899704344
 20
149.7459584504415
 30
0.0
 10
205.6858213493543
 20
149.7459584504415
 30
0.0
  0
ELLIPSE
  5
C5
330
1F
100
AcDbEntity
  8
0
  6
Continuous
 62
     7
370
    15
100
AcDbEllipse
 10
218.2143221908
 20
125.9192273349
 30
0.0
 11
-11.70927234972706
 21
24.67718644093743
 31
0.0
210
0.0
220
0.0
230
1.0
 40
0.3419987131
 41
0.1689292745891216
 42
1.080116497809144
  0
LINE
  5
C6
330
1F
100
AcDbEntity
  8
0
  6
Continuous
 62
     7
370
    15
100
AcDbLine
 10
197.1580645358
 20
125.9192273349
 30
0.0
 11
197.1580645358
 21
150.6192282171
 31
0.0
  0
LINE
  5
C7
330
1F
100
AcDbEntity
  8
0
  6
Continuous
 62
     7
370
    15
100
AcDbLine
 10
197.1580645358
 20
101.2192264528
 30
0.0
 11
197.1580645358
 21
125.9192273349
 31
0.0
  0
LINE
  5
C8
330
1F
100
AcDbEntity
  8
0
  6
Continuous
 62
     7
370
    15
100
AcDbLine
 10
196.9580645408
 20
112.3334624202
 30
0.0
 11
196.9580645408
 21
108.0794062794
 31
0.0
  0
SPLINE
  5
C9
330
1F
100
AcDbEntity
  8
0
  6
Continuous
 62
     7
370
    15
100
AcDbSpline
210
0.0
220
0.0
230
1.0
 70
     8
 71
     3
 72
    15
 73
    11
 74
     0
 42
0.00000001
 43
0.00000001
 12
1.0
 22
0.0
 32
0.0
 13
1.0
 23
0.0
 33
0.0
 40
0.0
 40
0.0
 40
0.0
 40
0.0
 40
0.5025332332343605
 40
0.6404847010370166
 40
0.7792645686134309
 40
0.8377692179499966
 40
0.8753498124702388
 40
0.9132091941719481
 40
0.9464653728694589
 40
1.0
 40
1.0
 40
1.0
 40
1.0
 10
196.9440649581064
 20
112.4504262910116
 30
0.0
 10
196.9424810967513
 20
112.5131079667987
 30
0.0
 10
196.9404624462433
 20
112.5929965228621
 30
0.0
 10
196.9019676903992
 20
112.6981047812728
 30
0.0
 10
196.8768894571384
 20
112.743795029751
 30
0.0
 10
196.8477589796869
 20
112.7726954882741
 30
0.0
 10
196.826216179537
 20
112.7855863236159
 30
0.0
 10
196.8062929209534
 20
112.7912966504985
 30
0.0
 10
196.7839866757703
 20
112.7917372508269
 30
0.0
 10
196.7710606892206
 20
112.7874586602189
 30
0.0
 10
196.7630876341989
 20
112.7848195240725
 30
0.0
  0
SPLINE
  5
CA
330
1F
100
AcDbEntity
  8
0
  6
Continuous
 62
     7
370
    15
100
AcDbSpline
210
0.0
220
0.0
230
1.0
 70
     8
 71
     3
 72
    14
 73
    10
 74
     0
 42
0.00000001
 43
0.00000001
 12
1.0
 22
0.0
 32
0.0
 13
1.0
 23
0.0
 33
0.0
 40
0.0
 40
0.0
 40
0.0
 40
0.0
 40
0.25
 40
0.25
 40
0.5
 40
0.5
 40
0.75
 40
0.75
 40
1.0
 40
1.0
 40
1.0
 40
1.0
 10
196.7630876469191
 20
112.7848194721454
 30
0.0
 10
196.7066318823103
 20
112.7620219715429
 30
0.0
 10
196.6357662560604
 20
112.7456633774481
 30
0.0
 10
196.4873091748878
 20
112.7510628190801
 30
0.0
 10
196.4181158155803
 20
112.7721540368681
 30
0.0
 10
196.3084003774461
 20
112.8230764372579
 30
0.0
 10
196.2631557981148
 20
112.8535768673913
 30
0.0
 10
196.183529088691
 20
112.9168372648777
 30
0.0
 10
196.1489189401575
 20
112.9500833301272
 30
0.0
 10
196.1172035076583
 20
112.9843648474147
 30
0.0
  0
SPLINE
  5
CB
330
1F
100
AcDbEntity
  8
0
  6
Continuous
 62
     7
370
    15
100
AcDbSpline
210
0.0
220
0.0
230
1.0
 70
     8
 71
     3
 72
    10
 73
     6
 74
     0
 42
0.00000001
 43
0.00000001
 12
1.0
 22
0.0
 32
0.0
 13
1.0
 23
0.0
 33
0.0
 40
0.0
 40
0.0
 40
0.0
 40
0.0
 40
0.5
 40
0.5
 40
1.0
 40
1.0
 40
1.0
 40
1.0
 10
196.1172035076588
 20
112.9843648474141
 30
0.0
 10
196.0454237197354
 20
113.0619523134104
 30
0.0
 10
195.9929642054273
 20
113.1449143542425
 30
0.0
 10
195.9036211413262
 20
113.3194444029525
 30
0.0
 10
195.8676255318264
 20
113.4111055446033
 30
0.0
 10
195.8367441922283
 20
113.5069049489389
 30
0.0
  0
SPLINE
  5
CC
330
1F
100
AcDbEntity
  8
0
  6
Continuous
 62
     7
370
    15
100
AcDbSpline
210
0.0
220
0.0
230
1.0
 70
     8
 71
     3
 72
    10
 73
     6
 74
     0
 42
0.00000001
 43
0.00000001
 12
1.0
 22
0.0
 32
0.0
 13
1.0
 23
0.0
 33
0.0
 40
0.0
 40
0.0
 40
0.0
 40
0.0
 40
0.5
 40
0.5
 40
1.0
 40
1.0
 40
1.0
 40
1.0
 10
195.8367441922283
 20
120.7847454016162
 30
0.0
 10
195.8676172240405
 20
120.9480894272837
 30
0.0
 10
195.9036040869535
 20
121.1101518963426
 30
0.0
 10
195.9929386728446
 20
121.4295835368465
 30
0.0
 10
196.0453945322672
 20
121.5872171784159
 30
0.0
 10
196.1172035076596
 20
121.7393304304621
 30
0.0
  0
SPLINE
  5
CD
330
1F
100
AcDbEntity
  8
0
  6
Continuous
 62
     7
370
    15
100
AcDbSpline
210
0.0
220
0.0
230
1.0
 70
     8
 71
     3
 72
    16
 73
    12
 74
     0
 42
0.00000001
 43
0.00000001
 12
1.0
 22
0.0
 32
0.0
 13
1.0
 23
0.0
 33
0.0
 40
0.0
 40
0.0
 40
0.0
 40
0.0
 40
0.25
 40
0.25
 40
0.5
 40
0.5
 40
0.6250000000000001
 40
0.6250000000000001
 40
0.7500000000000002
 40
0.7500000000000002
 40
1.0
 40
1.0
 40
1.0
 40
1.0
 10
196.1172035076589
 20
121.7393304304625
 30
0.0
 10
196.1489314688515
 20
121.8065399029755
 30
0.0
 10
196.1835590592021
 20
121.8720415350527
 30
0.0
 10
196.2632528212658
 20
121.9968913634864
 30
0.0
 10
196.3082942812694
 20
122.0570262256126
 30
0.0
 10
196.3911470081199
 20
122.1321756813688
 30
0.0
 10
196.4210614693197
 20
122.1542669672876
 30
0.0
 10
196.4870477998777
 20
122.1874284194605
 30
0.0
 10
196.5237814253395
 20
122.1982698301344
 30
0.0
 10
196.6362781449092
 20
122.2017939611702
 30
0.0
 10
196.7066194930075
 20
122.1646599063726
 30
0.0
 10
196.7630876469127
 20
122.1152906706623
 30
0.0
  0
SPLINE
  5
CE
330
1F
100
AcDbEntity
  8
0
  6
Continuous
 62
     7
370
    15
100
AcDbSpline
210
0.0
220
0.0
230
1.0
 70
     8
 71
     3
 72
    16
 73
    12
 74
     0
 42
0.00000001
 43
0.00000001
 12
1.0
 22
0.0
 32
0.0
 13
1.0
 23
0.0
 33
0.0
 40
0.0
 40
0.0
 40
0.0
 40
0.0
 40
0.0625000000000005
 40
0.0625000000000005
 40
0.1250000000000011
 40
0.1250000000000011
 40
0.2500000000000023
 40
0.2500000000000023
 40
0.5000000000000033
 40
0.5000000000000033
 40
1.0
 40
1.0
 40
1.0
 40
1.0
 10
196.763087646881
 20
122.115290670614
 30
0.0
 10
196.7747939623829
 20
122.1050560195816
 30
0.0
 10
196.7882898757121
 20
122.0965961015279
 30
0.0
 10
196.8181908673935
 20
122.0911011825829
 30
0.0
 10
196.8331669992809
 20
122.0952796312919
 30
0.0
 10
196.8689030408963
 20
122.1196568317292
 30
0.0
 10
196.8829193179259
 20
122.146386477585
 30
0.0
 10
196.9170859714487
 20
122.2268360123668
 30
0.0
 10
196.9280672319926
 20
122.2842913606027
 30
0.0
 10
196.9539580193474
 20
122.459467751546
 30
0.0
 10
196.9580645357877
 20
122.5789881102112
 30
0.0
 10
196.958064535788
 20
122.698886467255
 30
0.0
  0
LINE
  5
CF
330
1F
100
AcDbEntity
  8
0
  6
Continuous
 62
     7
370
    15
100
AcDbLine
 10
196.9580645408
 20
142.7253324867
 30
0.0
 11
196.9580645408
 21
122.6988863994
 31
0.0
  0
SPLINE
  5
D0
330
1F
100
AcDbEntity
  8
0
  6
Continuous
 62
     7
370
    15
100
AcDbSpline
210
0.0
220
0.0
230
1.0
 70
     8
 71
     3
 72
    16
 73
    12
 74
     0
 42
0.00000001
 43
0.00000001
 12
1.0
 22
0.0
 32
0.0
 13
1.0
 23
0.0
 33
0.0
 40
0.0
 40
0.0
 40
0.0
 40
0.0
 40
0.499999999999996
 40
0.499999999999996
 40
0.7499999999999958
 40
0.7499999999999958
 40
0.8749999999999967
 40
0.8749999999999967
 40
0.9374999999999982
 40
0.9374999999999982
 40
1.0
 40
1.0
 40
1.0
 40
1.0
 10
196.9580645357879
 20
142.7253328900196
 30
0.0
 10
196.9580645357879
 20
142.7661157416544
 30
0.0
 10
196.9540072336729
 20
142.8037063459522
 30
0.0
 10
196.928349990878
 20
142.8504481413172
 30
0.0
 10
196.9170345451359
 20
142.8648802386435
 30
0.0
 10
196.8830031778273
 20
142.8787579497066
 30
0.0
 10
196.8691241966235
 20
142.8825067338689
 30
0.0
 10
196.8331885148562
 20
142.8800585313925
 30
0.0
 10
196.8182381955934
 20
142.8774118670779
 30
0.0
 10
196.7883396828515
 20
142.8685983800245
 30
0.0
 10
196.7748068224863
 20
142.8630854157009
 30
0.0
 10
196.7630876469123
 20
142.8575718620049
 30
0.0
  0
SPLINE
  5
D1
330
1F
100
AcDbEntity
  8
0
  6
Continuous
 62
     7
370
    15
100
AcDbSpline
210
0.0
220
0.0
230
1.0
 70
     8
 71
     3
 72
    14
 73
    10
 74
     0
 42
0.00000001
 43
0.00000001
 12
1.0
 22
0.0
 32
0.0
 13
1.0
 23
0.0
 33
0.0
 40
0.0
 40
0.0
 40
0.0
 40
0.0
 40
0.25
 40
0.25
 40
0.5
 40
0.5
 40
0.75
 40
0.75
 40
1.0
 40
1.0
 40
1.0
 40
1.0
 10
196.7630876469191
 20
142.857571862
 30
0.0
 10
196.7066279810354
 20
142.8310091232175
 30
0.0
 10
196.6357555061732
 20
142.8103220763379
 30
0.0
 10
196.4872891482912
 20
142.8094106313307
 30
0.0
 10
196.4180939450834
 20
142.8288304407276
 30
0.0
 10
196.3083767590139
 20
142.8775641236882
 30
0.0
 10
196.2631308700819
 20
142.9073706326711
 30
0.0
 10
196.183513739115
 20
142.9688764311013
 30
0.0
 10
196.1489111196581
 20
143.0010934242449
 30
0.0
 10
196.1172035076593
 20
143.0339867269426
 30
0.0
  0
SPLINE
  5
D2
330
1F
100
AcDbEntity
  8
0
  6
Continuous
 62
     7
370
    15
100
AcDbSpline
210
0.0
220
0.0
230
1.0
 70
     8
 71
     3
 72
    10
 73
     6
 74
     0
 42
0.00000001
 43
0.00000001
 12
1.0
 22
0.0
 32
0.0
 13
1.0
 23
0.0
 33
0.0
 40
0.0
 40
0.0
 40
0.0
 40
0.0
 40
0.5
 40
0.5
 40
1.0
 40
1.0
 40
1.0
 40
1.0
 10
195.8367441922283
 20
143.4660316542627
 30
0.0
 10
195.8676227758402
 20
143.3984491097323
 30
0.0
 10
195.9036154835636
 20
143.3280242507631
 30
0.0
 10
195.9929557350607
 20
143.1831162118417
 30
0.0
 10
196.0454140379063
 20
143.1084607289326
 30
0.0
 10
196.1172035076594
 20
143.0339867269425
 30
0.0
  0
SPLINE
  5
D3
330
1F
100
AcDbEntity
  8
0
  6
Continuous
 62
     7
370
    15
100
AcDbSpline
210
0.0
220
0.0
230
1.0
 70
     8
 71
     3
 72
    18
 73
    14
 74
     0
 42
0.00000001
 43
0.00000001
 12
1.0
 22
0.0
 32
0.0
 13
1.0
 23
0.0
 33
0.0
 40
0.0
 40
0.0
 40
0.0
 40
0.0
 40
0.249999999999999
 40
0.249999999999999
 40
0.3749999999999989
 40
0.3749999999999989
 40
0.4999999999999988
 40
0.4999999999999988
 40
0.6249999999999992
 40
0.6249999999999992
 40
0.7499999999999998
 40
0.7499999999999998
 40
1.0
 40
1.0
 40
1.0
 40
1.0
 10
195.8367441922283
 20
113.5069049489389
 30
0.0
 10
195.7014585859259
 20
113.9265849455847
 30
0.0
 10
195.600290839683
 20
114.4029130629712
 30
0.0
 10
195.497429496814
 20
115.2024457533796
 30
0.0
 10
195.4713266512908
 20
115.4840469854324
 30
0.0
 10
195.436436667746
 20
116.0738997420573
 30
0.0
 10
195.4278504094559
 20
116.3778656824544
 30
0.0
 10
195.4277506998903
 20
117.0032926430407
 30
0.0
 10
195.4362390710388
 20
117.3247552651748
 30
0.0
 10
195.4703824505594
 20
117.9851982846406
 30
0.0
 10
195.4961794324133
 20
118.3255666867329
 30
0.0
 10
195.5995805638012
 20
119.3643545060996
 30
0.0
 10
195.7014385559726
 20
120.0688660070715
 30
0.0
 10
195.8367441922283
 20
120.7847454016162
 30
0.0
  0
LINE
  5
D4
330
1F
100
AcDbEntity
  8
0
  6
Continuous
 62
     7
370
    15
100
AcDbLine
 10
194.9580645477
 20
121.7393305481
 30
0.0
 11
194.9580645477
 21
143.1820270003
 31
0.0
  0
LINE
  5
D5
330
1F
100
AcDbEntity
  8
0
  6
Continuous
 62
     7
370
    15
100
AcDbLine
 10
194.9580645477
 20
112.8363253877
 30
0.0
 11
194.9580645477
 21
121.7393305481
 31
0.0
  0
LINE
  5
D6
330
1F
100
AcDbEntity
  8
0
  6
Continuous
 62
     7
370
    15
100
AcDbLine
 10
168.6580645209
 20
121.7393305481
 30
0.0
 11
168.6580645209
 21
142.6098019213
 31
0.0
  0
LINE
  5
D7
330
1F
100
AcDbEntity
  8
0
  6
Continuous
 62
     7
370
    15
100
AcDbLine
 10
168.6580645209
 20
113.4085495354
 30
0.0
 11
168.6580645209
 21
121.7393305481
 31
0.0
  0
LINE
  5
D8
330
1F
100
AcDbEntity
  8
0
  6
Continuous
 62
     7
370
    15
100
AcDbLine
 10
167.1580652063
 20
121.7393305481
 30
0.0
 11
167.1580652063
 21
141.8598022641
 31
0.0
  0
LINE
  5
D9
330
1F
100
AcDbEntity
  8
0
  6
Continuous
 62
     7
370
    15
100
AcDbLine
 10
167.1580652063
 20
114.1585491926
 30
0.0
 11
167.1580652063
 21
121.7393305481
 31
0.0
  0
LINE
  5
DA
330
1F
100
AcDbEntity
  8
0
  6
Continuous
 62
     7
370
    15
100
AcDbLine
 10
194.9580645477
 20
109.5191285343
 30
0.0
 11
194.9580645477
 21
112.8363253877
 31
0.0
  0
SPLINE
  5
DB
330
1F
100
AcDbEntity
  8
0
  6
Continuous
 62
     7
370
    15
100
AcDbSpline
210
0.0
220
0.0
230
1.0
 70
     8
 71
     3
 72
     8
 73
     4
 74
     0
 42
0.00000001
 43
0.00000001
 12
1.0
 22
0.0
 32
0.0
 13
1.0
 23
0.0
 33
0.0
 40
0.0000202085968836
 40
0.0000202085968836
 40
0.0000202085968836
 40
0.0000202085968836
 40
0.0040218806502652
 40
0.0040218806502652
 40
0.0040218806502652
 40
0.0040218806502652
 10
168.6580645357879
 20
110.3864305765289
 30
0.0
 10
169.9913876615786
 20
110.3558056647155
 30
0.0
 10
171.3247215348011
 20
110.3251166532319
 30
0.0
 10
172.6580645357879
 20
110.2943635765019
 30
0.0
  0
LINE
  5
DC
330
1F
100
AcDbEntity
  8
0
  6
Continuous
 62
     7
370
    15
100
AcDbLine
 10
168.6580645209
 20
110.3864301325
 30
0.0
 11
168.6580645209
 21
113.4085495354
 31
0.0
  0
SPLINE
  5
DD
330
1F
100
AcDbEntity
  8
0
  6
Continuous
 62
     7
370
    15
100
AcDbSpline
210
0.0
220
0.0
230
1.0
 70
     8
 71
     3
 72
    11
 73
     7
 74
     0
 42
0.00000001
 43
0.00000001
 12
1.0
 22
0.0
 32
0.0
 13
1.0
 23
0.0
 33
0.0
 40
0.0
 40
0.0
 40
0.0
 40
0.0
 40
0.428224499852601
 40
0.6424796074349591
 40
0.8623811871476771
 40
1.0
 40
1.0
 40
1.0
 40
1.0
 10
172.6580651765378
 20
110.2943633080352
 30
0.0
 10
173.016602990466
 20
110.2360651389559
 30
0.0
 10
173.5545293212164
 20
110.1485984368004
 30
0.0
 10
174.1581464676115
 20
110.0737344536384
 30
0.0
 10
174.5031770190675
 20
110.0361958609315
 30
0.0
 10
174.5118211273179
 20
110.0354152467469
 30
0.0
 10
174.5151484673532
 20
110.0351147682298
 30
0.0
  0
SPLINE
  5
DE
330
1F
100
AcDbEntity
  8
0
  6
Continuous
 62
     7
370
    15
100
AcDbSpline
210
0.0
220
0.0
230
1.0
 70
     8
 71
     3
 72
    17
 73
    13
 74
     0
 42
0.00000001
 43
0.00000001
 12
1.0
 22
0.0
 32
0.0
 13
1.0
 23
0.0
 33
0.0
 40
0.0
 40
0.0
 40
0.0
 40
0.0
 40
0.0814507228376089
 40
0.1778665260594788
 40
0.2783615246888602
 40
0.3856835739379937
 40
0.4991426763638305
 40
0.615540371602487
 40
0.7313931026509092
 40
0.8436301830775871
 40
0.949650976219383
 40
1.0
 40
1.0
 40
1.0
 40
1.0
 10
186.5847640027912
 20
109.7322542549003
 30
0.0
 10
186.5709681257247
 20
109.7343193892899
 30
0.0
 10
186.5408416315417
 20
109.7388290887368
 30
0.0
 10
186.0976676066459
 20
109.8005572815354
 30
0.0
 10
185.3771854450476
 20
109.8856646239715
 30
0.0
 10
184.3954248738902
 20
109.9719042007579
 30
0.0
 10
183.2449620364707
 20
110.0269750068416
 30
0.0
 10
182.062426544415
 20
110.031108239504
 30
0.0
 10
181.0093078805854
 20
109.989298515571
 30
0.0
 10
180.2632309227305
 20
109.9346401356431
 30
0.0
 10
179.8877238713623
 20
109.8990531164725
 30
0.0
 10
179.9130847603407
 20
109.9014575913592
 30
0.0
 10
179.921250632933
 20
109.9022318006385
 30
0.0
  0
SPLINE
  5
DF
330
1F
100
AcDbEntity
  8
0
  6
Continuous
 62
     7
370
    15
100
AcDbSpline
210
0.0
220
0.0
230
1.0
 70
     8
 71
     3
 72
     8
 73
     4
 74
     0
 42
0.00000001
 43
0.00000001
 12
1.0
 22
0.0
 32
0.0
 13
1.0
 23
0.0
 33
0.0
 40
0.0
 40
0.0
 40
0.0
 40
0.0
 40
1.0
 40
1.0
 40
1.0
 40
1.0
 10
167.158064535787
 20
111.1639583512953
 30
0.0
 10
167.632275946225
 20
110.9226474773362
 30
0.0
 10
168.1370122933269
 20
110.6614607031858
 30
0.0
 10
168.6580645357879
 20
110.3864305765289
 30
0.0
  0
LINE
  5
E0
330
1F
100
AcDbEntity
  8
0
  6
Continuous
 62
     7
370
    15
100
AcDbLine
 10
167.1580652063
 20
111.1639587537
 30
0.0
 11
167.1580652063
 21
114.1585491926
 31
0.0
  0
LINE
  5
E1
330
1F
100
AcDbEntity
  8
0
  6
Continuous
 62
     7
370
    15
100
AcDbLine
 10
194.9580645477
 20
144.5593264283
 30
0.0
 11
194.9580645477
 21
143.1820270003
 31
0.0
  0
LINE
  5
E2
330
1F
100
AcDbEntity
  8
0
  6
Continuous
 62
     7
370
    15
100
AcDbLine
 10
168.6580645209
 20
143.8985791386
 30
0.0
 11
168.6580645209
 21
142.6098019213
 31
0.0
  0
SPLINE
  5
E3
330
1F
100
AcDbEntity
  8
0
  6
Continuous
 62
     7
370
    15
100
AcDbSpline
210
0.0
220
0.0
230
1.0
 70
     8
 71
     3
 72
    11
 73
     7
 74
     0
 42
0.00000001
 43
0.00000001
 12
1.0
 22
0.0
 32
0.0
 13
1.0
 23
0.0
 33
0.0
 40
0.0
 40
0.0
 40
0.0
 40
0.0
 40
0.0902262665792518
 40
0.4609960999419443
 40
0.728442519376138
 40
1.0
 40
1.0
 40
1.0
 40
1.0
 10
195.4379123225497
 20
144.3484526456225
 30
0.0
 10
195.434866942981
 20
144.3552609345373
 30
0.0
 10
195.4193070826738
 20
144.3900467541878
 30
0.0
 10
195.4941817441958
 20
144.2226145625197
 30
0.0
 10
195.6344240930743
 20
143.910496616156
 30
0.0
 10
195.7689621374164
 20
143.6149382654071
 30
0.0
 10
195.8367442302095
 20
143.466031956755
 30
0.0
  0
LINE
  5
E4
330
1F
100
AcDbEntity
  8
0
  6
Continuous
 62
     7
370
    15
100
AcDbLine
 10
167.1580652063
 20
143.0325534523
 30
0.0
 11
167.1580652063
 21
141.8598022641
 31
0.0
  0
LINE
  5
E5
330
1F
100
AcDbEntity
  8
0
  6
HIDDEN
 62
     7
370
     0
100
AcDbLine
 10
251.1580659365
 20
151.2415025712
 30
0.0
 11
251.1580659365
 21
148.419228229
 31
0.0
  0
LINE
  5
E6
330
1F
100
AcDbEntity
  8
0
  6
HIDDEN
 62
     7
370
     0
100
AcDbLine
 10
251.1580659365
 20
161.4192284972
 30
0.0
 11
251.1580659365
 21
151.2415025712
 31
0.0
  0
LINE
  5
E7
330
1F
100
AcDbEntity
  8
0
  6
HIDDEN
 62
     7
370
     0
100
AcDbLine
 10
251.7580649173
 20
151.2415025712
 30
0.0
 11
251.7580649173
 21
157.7218368978
 31
0.0
  0
LINE
  5
E8
330
1F
100
AcDbEntity
  8
0
  6
HIDDEN
 62
     7
370
     0
100
AcDbLine
 10
251.7580649173
 20
157.7218368978
 30
0.0
 11
251.7580649173
 21
161.3995626897
 31
0.0
  0
LINE
  5
E9
330
1F
100
AcDbEntity
  8
0
  6
HIDDEN
 62
     7
370
     0
100
AcDbLine
 10
251.7580649173
 20
158.5969522924
 30
0.0
 11
251.7580649173
 21
161.4100680084
 31
0.0
  0
LINE
  5
EA
330
1F
100
AcDbEntity
  8
0
  6
HIDDEN
 62
     7
370
     0
100
AcDbLine
 10
251.7580649173
 20
158.5969522924
 30
0.0
 11
251.7580649173
 21
152.1166179658
 31
0.0
  0
LINE
  5
EB
330
1F
100
AcDbEntity
  8
0
  6
HIDDEN
 62
     7
370
     0
100
AcDbLine
 10
251.7580649173
 20
152.1166179658
 30
0.0
 11
251.7580649173
 21
148.4388940365
 31
0.0
  0
LINE
  5
EC
330
1F
100
AcDbEntity
  8
0
  6
HIDDEN
 62
     7
370
     0
100
AcDbLine
 10
251.7580649173
 20
151.2415025712
 30
0.0
 11
251.7580649173
 21
148.4283849926
 31
0.0
  0
LINE
  5
ED
330
1F
100
AcDbEntity
  8
0
  6
HIDDEN
 62
     7
370
     0
100
AcDbLine
 10
251.1580659365
 20
150.3310770125
 30
0.0
 11
251.1580659365
 21
159.5184848041
 31
0.0
  0
LINE
  5
EE
330
1F
100
AcDbEntity
  8
0
  6
HIDDEN
 62
     7
370
     0
100
AcDbLine
 10
231.9080641782
 20
158.9192271561
 30
0.0
 11
231.9080641782
 21
150.9192277075
 31
0.0
  0
LINE
  5
EF
330
1F
100
AcDbEntity
  8
0
  6
HIDDEN
 62
     7
370
     0
100
AcDbLine
 10
231.1580663835
 20
158.1692256362
 30
0.0
 11
231.1580663835
 21
151.6692273647
 31
0.0
  0
LINE
  5
F0
330
1F
100
AcDbEntity
  8
0
  6
HIDDEN
 62
     7
370
     0
100
AcDbLine
 10
251.7580649173
 20
161.6912678213
 30
0.0
 11
251.7580649173
 21
161.3995626897
 31
0.0
  0
LINE
  5
F1
330
1F
100
AcDbEntity
  8
0
  6
HIDDEN
 62
     7
370
     0
100
AcDbLine
 10
231.3580660438
 20
152.9192280353
 30
0.0
 11
231.3580660438
 21
156.9192268283
 31
0.0
  0
LINE
  5
F2
330
1F
100
AcDbEntity
  8
0
  6
HIDDEN
 62
     7
370
     0
100
AcDbLine
 10
231.1580663835
 20
157.1125712574
 30
0.0
 11
231.1580663835
 21
152.7258836062
 31
0.0
  0
SPLINE
  5
F3
330
1F
100
AcDbEntity
  8
0
  6
HIDDEN
 62
     7
370
     0
100
AcDbSpline
210
0.0
220
0.0
230
1.0
 70
     8
 71
     3
 72
    19
 73
    15
 74
     0
 42
0.00000001
 43
0.00000001
 12
1.0
 22
0.0
 32
0.0
 13
1.0
 23
0.0
 33
0.0
 40
0.0
 40
0.0
 40
0.0
 40
0.0
 40
0.0705996585836763
 40
0.1409256186521753
 40
0.2439007189280504
 40
0.3497004358993723
 40
0.4348745759993126
 40
0.5204462530124242
 40
0.5972445660547331
 40
0.6765545588642009
 40
0.7690861453354453
 40
0.8791129165404681
 40
0.9467306402159245
 40
1.0
 40
1.0
 40
1.0
 40
1.0
 10
254.1580645655903
 20
155.3880002678264
 30
0.0
 10
254.0317214303732
 20
155.3989906110725
 30
0.0
 10
253.7795249629948
 20
155.420928690551
 30
0.0
 10
253.3658064471296
 20
155.2622661683818
 30
0.0
 10
252.9722708833076
 20
154.9545827629617
 30
0.0
 10
252.6568442399622
 20
154.5278355967357
 30
0.0
 10
252.4760259464875
 20
154.0847355352874
 30
0.0
 10
252.4397739889652
 20
153.6996389360912
 30
0.0
 10
252.5309723807289
 20
153.391008815285
 30
0.0
 10
252.7283941441239
 20
153.161818145456
 30
0.0
 10
253.0485370139306
 20
153.0053328041046
 30
0.0
 10
253.4452046976434
 20
152.9458122545472
 30
0.0
 10
253.8489460733553
 20
152.9319685522108
 30
0.0
 10
254.0635142643088
 20
152.9350909288402
 30
0.0
 10
254.1580645655903
 20
152.93646681615
 30
0.0
  0
LINE
  5
F4
330
1F
100
AcDbEntity
  8
0
  6
HIDDEN
 62
     7
370
     0
100
AcDbLine
 10
254.1580645656
 20
152.9192280353
 30
0.0
 11
254.1580645656
 21
156.9192268283
 31
0.0
  0
SPLINE
  5
F5
330
1F
100
AcDbEntity
  8
0
  6
HIDDEN
 62
     7
370
     0
100
AcDbSpline
210
0.0
220
0.0
230
1.0
 70
     8
 71
     3
 72
    10
 73
     6
 74
     0
 42
0.00000001
 43
0.00000001
 12
1.0
 22
0.0
 32
0.0
 13
1.0
 23
0.0
 33
0.0
 40
0.0
 40
0.0
 40
0.0
 40
0.0
 40
0.2496951857306356
 40
0.6403926376619704
 40
1.0
 40
1.0
 40
1.0
 40
1.0
 10
254.4586023604187
 20
156.3680477769006
 30
0.0
 10
254.4894461176661
 20
156.2697018068455
 30
0.0
 10
254.5685510271232
 20
156.0174741358042
 30
0.0
 10
254.4256977762024
 20
155.7104354015923
 30
0.0
 10
254.2447767172097
 20
155.4924680360178
 30
0.0
 10
254.1580645655903
 20
155.3880002678264
 30
0.0
  0
SPLINE
  5
F6
330
1F
100
AcDbEntity
  8
0
  6
HIDDEN
 62
     7
370
     0
100
AcDbSpline
210
0.0
220
0.0
230
1.0
 70
     8
 71
     3
 72
    10
 73
     6
 74
     0
 42
0.00000001
 43
0.00000001
 12
1.0
 22
0.0
 32
0.0
 13
1.0
 23
0.0
 33
0.0
 40
0.0
 40
0.0
 40
0.0
 40
0.0
 40
0.4252519228989802
 40
0.7853576999348141
 40
0.9999999999999999
 40
0.9999999999999999
 40
0.9999999999999999
 40
0.9999999999999999
 10
254.1580645655903
 20
152.93646681615
 30
0.0
 10
254.2613611935292
 20
153.0945393858962
 30
0.0
 10
254.4521300008191
 20
153.3864687179316
 30
0.0
 10
254.5605875661521
 20
153.7908585534834
 30
0.0
 10
254.4863330495231
 20
153.9694979336376
 30
0.0
 10
254.4586023604187
 20
154.0362116278041
 30
0.0
  0
SPLINE
  5
F7
330
1F
100
AcDbEntity
  8
0
  6
HIDDEN
 62
     7
370
     0
100
AcDbSpline
210
0.0
220
0.0
230
1.0
 70
     8
 71
     3
 72
    11
 73
     7
 74
     0
 42
0.00000001
 43
0.00000001
 12
1.0
 22
0.0
 32
0.0
 13
1.0
 23
0.0
 33
0.0
 40
0.0
 40
0.0
 40
0.0
 40
0.0
 40
0.3183206137311493
 40
0.5150958115322964
 40
0.7122032348086512
 40
1.0
 40
1.0
 40
1.0
 40
1.0
 10
254.4586023604187
 20
154.0362116278041
 30
0.0
 10
254.5800402731202
 20
154.3346534846138
 30
0.0
 10
254.7765470574613
 20
154.817582154004
 30
0.0
 10
254.8607807660238
 20
155.4692373643155
 30
0.0
 10
254.753230218311
 20
155.9795250133017
 30
0.0
 10
254.5683381437578
 20
156.2233403140231
 30
0.0
 10
254.4586023604187
 20
156.3680477769006
 30
0.0
  0
LWPOLYLINE
  5
F8
330
1F
100
AcDbEntity
  8
0
  6
HIDDEN
 62
     7
370
     0
100
AcDbPolyline
 90
       21
 70
   128
 43
0.0
 10
252.4580655908
 20
151.3546638519
 10
252.5314798867
 20
151.7368581475
 10
252.7445404147
 20
152.0816412152
 10
253.0763855492
 20
152.3552637876
 10
253.4945382094
 20
152.5309391648
 10
253.9580649053
 20
152.5914732695
 10
254.4215916013
 20
152.5309391648
 10
254.8397442614
 20
152.3552637876
 10
255.1715893959
 20
152.0816412152
 10
255.384649924
 20
151.7368581475
 10
255.4580642199
 20
151.3546638519
 10
255.384649924
 20
150.9724676938
 10
255.1715893959
 20
150.6276846261
 10
254.8397442614
 20
150.3540639163
 10
254.4215916013
 20
150.1783866764
 10
253.9580649053
 20
150.1178525717
 10
253.4945382094
 20
150.1783866764
 10
253.0763855492
 20
150.3540639163
 10
252.7445404147
 20
150.6276846261
 10
252.5314798867
 20
150.9724676938
 10
252.4580655908
 20
151.3546638519
  0
ARC
  5
F9
330
1F
100
AcDbEntity
  8
0
  6
HIDDEN
 62
     7
370
     0
100
AcDbCircle
 10
254.2489296505
 20
155.2021297024
 30
0.0
 40
1.184621290477711
100
AcDbArc
 50
280.1948083959
 51
79.8051916041
  0
LINE
  5
FA
330
1F
100
AcDbEntity
  8
0
  6
HIDDEN
 62
     7
370
     0
100
AcDbLine
 10
256.4580662464
 20
151.2415025712
 30
0.0
 11
256.4580662464
 21
148.4283849926
 31
0.0
  0
LINE
  5
FB
330
1F
100
AcDbEntity
  8
0
  6
HIDDEN
 62
     7
370
     0
100
AcDbLine
 10
251.7580649173
 20
161.3995626897
 30
0.0
 11
251.7580649173
 21
161.1078538329
 31
0.0
  0
SPLINE
  5
FC
330
1F
100
AcDbEntity
  8
0
  6
HIDDEN
 62
     7
370
     0
100
AcDbSpline
210
0.0
220
0.0
230
1.0
 70
     8
 71
     3
 72
     9
 73
     5
 74
     0
 42
0.00000001
 43
0.00000001
 12
1.0
 22
0.0
 32
0.0
 13
1.0
 23
0.0
 33
0.0
 40
0.0
 40
0.0
 40
0.0
 40
0.0
 40
0.4954580832588379
 40
0.9999999999999999
 40
0.9999999999999999
 40
0.9999999999999999
 40
0.9999999999999999
 10
255.8775095557483
 20
161.1078538329232
 30
0.0
 10
256.0397740660314
 20
161.1552289381129
 30
0.0
 10
256.367278078512
 20
161.250847733709
 30
0.0
 10
256.4276208093585
 20
161.3496917435571
 30
0.0
 10
256.4580662464413
 20
161.3995626897443
 30
0.0
  0
LINE
  5
FD
330
1F
100
AcDbEntity
  8
0
  6
HIDDEN
 62
     7
370
     0
100
AcDbLine
 10
256.4580662464
 20
161.3995626897
 30
0.0
 11
256.4580662464
 21
157.7218368978
 31
0.0
  0
SPLINE
  5
FE
330
1F
100
AcDbEntity
  8
0
  6
HIDDEN
 62
     7
370
     0
100
AcDbSpline
210
0.0
220
0.0
230
1.0
 70
     8
 71
     3
 72
    10
 73
     6
 74
     0
 42
0.00000001
 43
0.00000001
 12
1.0
 22
0.0
 32
0.0
 13
1.0
 23
0.0
 33
0.0
 40
0.0
 40
0.0
 40
0.0
 40
0.0
 40
0.0700764531698901
 40
0.5307777202138675
 40
0.9999999999999999
 40
0.9999999999999999
 40
0.9999999999999999
 40
0.9999999999999999
 10
256.4580662464413
 20
157.7218368978131
 30
0.0
 10
256.4573724476319
 20
157.8020806500084
 30
0.0
 10
256.4521174306664
 20
158.4098682009614
 30
0.0
 10
256.3253355954617
 20
159.5558408312604
 30
0.0
 10
256.027694012082
 20
160.5873654999386
 30
0.0
 10
255.8775095557483
 20
161.1078538329232
 30
0.0
  0
LINE
  5
FF
330
1F
100
AcDbEntity
  8
0
  6
HIDDEN
 62
     7
370
     0
100
AcDbLine
 10
251.7580649173
 20
161.1078538329
 30
0.0
 11
251.7580649173
 21
157.7218368978
 31
0.0
  0
LINE
  5
100
330
1F
100
AcDbEntity
  8
0
  6
HIDDEN
 62
     7
370
     0
100
AcDbLine
 10
251.7580649173
 20
161.1078538329
 30
0.0
 11
255.8775095557
 21
161.1078538329
 31
0.0
  0
LINE
  5
101
330
1F
100
AcDbEntity
  8
0
  6
HIDDEN
 62
     7
370
     0
100
AcDbLine
 10
251.7580649173
 20
157.7218368978
 30
0.0
 11
251.7580649173
 21
154.3358162374
 31
0.0
  0
SPLINE
  5
102
330
1F
100
AcDbEntity
  8
0
  6
HIDDEN
 62
     7
370
     0
100
AcDbSpline
210
0.0
220
0.0
230
1.0
 70
     8
 71
     3
 72
     9
 73
     5
 74
     0
 42
0.00000001
 43
0.00000001
 12
1.0
 22
0.0
 32
0.0
 13
1.0
 23
0.0
 33
0.0
 40
0.0
 40
0.0
 40
0.0
 40
0.0
 40
0.4954579267993661
 40
1.0
 40
1.0
 40
1.0
 40
1.0
 10
255.8775095557483
 20
154.3358162374127
 30
0.0
 10
256.0397740672154
 20
154.8857208737028
 30
0.0
 10
256.3672781855071
 20
155.9956125648952
 30
0.0
 10
256.4276208389638
 20
157.1429545792303
 30
0.0
 10
256.4580662464413
 20
157.7218368978131
 30
0.0
  0
LINE
  5
103
330
1F
100
AcDbEntity
  8
0
  6
HIDDEN
 62
     7
370
     0
100
AcDbLine
 10
256.4580662464
 20
157.7218368978
 30
0.0
 11
256.4580662464
 21
151.2415025712
 31
0.0
  0
SPLINE
  5
104
330
1F
100
AcDbEntity
  8
0
  6
HIDDEN
 62
     7
370
     0
100
AcDbSpline
210
0.0
220
0.0
230
1.0
 70
     8
 71
     3
 72
    10
 73
     6
 74
     0
 42
0.00000001
 43
0.00000001
 12
1.0
 22
0.0
 32
0.0
 13
1.0
 23
0.0
 33
0.0
 40
0.0
 40
0.0
 40
0.0
 40
0.0
 40
0.3854631977860125
 40
0.776588135907348
 40
1.0
 40
1.0
 40
1.0
 40
1.0
 10
256.4580662464413
 20
151.2415025711882
 30
0.0
 10
256.4389999103449
 20
151.6451559755968
 30
0.0
 10
256.4005871889938
 20
152.4583917051886
 30
0.0
 10
256.1580554548047
 20
153.4899051234284
 30
0.0
 10
255.9523080306334
 20
154.1102814446134
 30
0.0
 10
255.8775095557483
 20
154.3358162374127
 30
0.0
  0
LINE
  5
105
330
1F
100
AcDbEntity
  8
0
  6
HIDDEN
 62
     7
370
     0
100
AcDbLine
 10
251.7580649173
 20
154.3358162374
 30
0.0
 11
251.7580649173
 21
151.2415025712
 31
0.0
  0
LINE
  5
106
330
1F
100
AcDbEntity
  8
0
  6
HIDDEN
 62
     7
370
     0
100
AcDbLine
 10
251.7580649173
 20
154.3358162374
 30
0.0
 11
255.8775095557
 21
154.3358162374
 31
0.0
  0
LINE
  5
107
330
1F
100
AcDbEntity
  8
0
  6
HIDDEN
 62
     7
370
     0
100
AcDbLine
 10
251.7580649173
 20
151.2415025712
 30
0.0
 11
251.7580649173
 21
148.147188905
 31
0.0
  0
SPLINE
  5
108
330
1F
100
AcDbEntity
  8
0
  6
HIDDEN
 62
     7
370
     0
100
AcDbSpline
210
0.0
220
0.0
230
1.0
 70
     8
 71
     3
 72
    10
 73
     6
 74
     0
 42
0.00000001
 43
0.00000001
 12
1.0
 22
0.0
 32
0.0
 13
1.0
 23
0.0
 33
0.0
 40
0.0
 40
0.0
 40
0.0
 40
0.0
 40
0.3774424952513667
 40
0.7583799820083691
 40
0.9999999999999999
 40
0.9999999999999999
 40
0.9999999999999999
 40
0.9999999999999999
 10
255.8775095557483
 20
148.1471889049638
 30
0.0
 10
256.0002230447395
 20
148.5292643676763
 30
0.0
 10
256.246786308665
 20
149.2969531843392
 30
0.0
 10
256.4304904743634
 20
150.3368166892411
 30
0.0
 10
256.4503561887618
 20
150.9885566042766
 30
0.0
 10
256.4580662464413
 20
151.2415025711882
 30
0.0
  0
LWPOLYLINE
  5
109
330
1F
100
AcDbEntity
  8
0
  6
HIDDEN
 62
     7
370
     0
100
AcDbPolyline
 90
       22
 70
   128
 43
0.0
 10
253.9580649053
 20
152.6432194144
 10
253.4569798326
 20
152.5809455992
 10
253.0004194295
 20
152.3996562094
 10
252.6289521074
 20
152.1154594005
 10
252.375580213
 20
151.7536070526
 10
252.262819401
 20
151.3462521464
 10
252.3006869768
 20
150.9295914651
 10
252.4858227288
 20
150.5406432182
 10
252.8017720496
 20
150.2139706493
 10
253.2204611515
 20
149.978597495
 10
253.704693011
 20
149.8554412604
 10
254.2114367997
 20
149.8554412604
 10
254.6956686591
 20
149.978597495
 10
255.1143577611
 20
150.2139706493
 10
255.4303070819
 20
150.5406432182
 10
255.6154428338
 20
150.9295914651
 10
255.6533104097
 20
151.3462521464
 10
255.5405495977
 20
151.7536070526
 10
255.2871777033
 20
152.1154594005
 10
254.9157103812
 20
152.3996562094
 10
254.4591499781
 20
152.5809455992
 10
253.9580649053
 20
152.6432194144
  0
LINE
  5
10A
330
1F
100
AcDbEntity
  8
0
  6
HIDDEN
 62
     7
370
     0
100
AcDbLine
 10
239.769518218
 20
132.919227551
 30
0.0
 11
249.7466093218
 21
132.919227551
 31
0.0
  0
LINE
  5
10B
330
1F
100
AcDbEntity
  8
0
  6
HIDDEN
 62
     7
370
     0
100
AcDbLine
 10
249.4580632364
 20
138.9192276032
 30
0.0
 11
240.0580643033
 21
138.9192276032
 31
0.0
  0
LINE
  5
10C
330
1F
100
AcDbEntity
  8
0
  6
HIDDEN
 62
     7
370
     0
100
AcDbLine
 10
248.0078859543
 20
132.919227551
 30
0.0
 11
241.5235935067
 21
132.919227551
 31
0.0
  0
LINE
  5
10D
330
1F
100
AcDbEntity
  8
0
  6
HIDDEN
 62
     7
370
     0
100
AcDbLine
 10
241.7580632781
 20
117.4737269387
 30
0.0
 11
247.7580642616
 21
117.4737269387
 31
0.0
  0
LINE
  5
10E
330
1F
100
AcDbEntity
  8
0
  6
HIDDEN
 62
     7
370
     0
100
AcDbLine
 10
242.3125652885
 20
116.9192277224
 30
0.0
 11
247.2035659766
 21
116.9192277224
 31
0.0
  0
LINE
  5
10F
330
1F
100
AcDbEntity
  8
0
  6
HIDDEN
 62
     7
370
     0
100
AcDbLine
 10
247.5778943216
 20
138.9192276032
 30
0.0
 11
245.4621529495
 21
138.9192276032
 31
0.0
  0
LINE
  5
110
330
1F
100
AcDbEntity
  8
0
  6
HIDDEN
 62
     7
370
     0
100
AcDbLine
 10
242.2902806019
 20
135.9192271114
 30
0.0
 11
244.052238605
 21
135.9192271114
 31
0.0
  0
LINE
  5
111
330
1F
100
AcDbEntity
  8
0
  6
HIDDEN
 62
     7
370
     0
100
AcDbLine
 10
242.9961076295
 20
135.9192271114
 30
0.0
 11
242.2165496563
 21
135.9192271114
 31
0.0
  0
LINE
  5
112
330
1F
100
AcDbEntity
  8
0
  6
HIDDEN
 62
     7
370
     0
100
AcDbLine
 10
245.4638889348
 20
135.9192271114
 30
0.0
 11
242.9961076295
 21
135.9192271114
 31
0.0
  0
LINE
  5
113
330
1F
100
AcDbEntity
  8
0
  6
HIDDEN
 62
     7
370
     0
100
AcDbLine
 10
247.2258469378
 20
135.9192271114
 30
0.0
 11
245.4638889348
 21
135.9192271114
 31
0.0
  0
LINE
  5
114
330
1F
100
AcDbEntity
  8
0
  6
HIDDEN
 62
     7
370
     0
100
AcDbLine
 10
246.5200236356
 20
135.9192271114
 30
0.0
 11
247.2995778834
 21
135.9192271114
 31
0.0
  0
LINE
  5
115
330
1F
100
AcDbEntity
  8
0
  6
HIDDEN
 62
     7
370
     0
100
AcDbLine
 10
244.052238605
 20
135.9192271114
 30
0.0
 11
246.5200236356
 21
135.9192271114
 31
0.0
  0
LINE
  5
116
330
1F
100
AcDbEntity
  8
0
  6
HIDDEN
 62
     7
370
     0
100
AcDbLine
 10
246.5200236356
 20
135.9192271114
 30
0.0
 11
245.4621529495
 21
135.9192271114
 31
0.0
  0
LINE
  5
117
330
1F
100
AcDbEntity
  8
0
  6
HIDDEN
 62
     7
370
     0
100
AcDbLine
 10
244.052238605
 20
135.9192271114
 30
0.0
 11
245.4621529495
 21
135.9192271114
 31
0.0
  0
LINE
  5
118
330
1F
100
AcDbEntity
  8
0
  6
HIDDEN
 62
     7
370
     0
100
AcDbLine
 10
245.4621529495
 20
135.9192271114
 30
0.0
 11
245.4621529495
 21
138.9192276032
 31
0.0
  0
LINE
  5
119
330
1F
100
AcDbEntity
  8
0
  6
HIDDEN
 62
     7
370
     0
100
AcDbLine
 10
242.6423242604
 20
138.9192276032
 30
0.0
 11
245.4621529495
 21
138.9192276032
 31
0.0
  0
LINE
  5
11A
330
1F
100
AcDbEntity
  8
0
  6
HIDDEN
 62
     7
370
     0
100
AcDbLine
 10
242.6423242604
 20
135.9192271114
 30
0.0
 11
244.052238605
 21
135.9192271114
 31
0.0
  0
LINE
  5
11B
330
1F
100
AcDbEntity
  8
0
  6
HIDDEN
 62
     7
370
     0
100
AcDbLine
 10
247.5778943216
 20
135.9192271114
 30
0.0
 11
246.5200236356
 21
135.9192271114
 31
0.0
  0
LINE
  5
11C
330
1F
100
AcDbEntity
  8
0
  6
HIDDEN
 62
     7
370
     0
100
AcDbLine
 10
242.6423242604
 20
135.9192271114
 30
0.0
 11
242.2902806019
 21
135.9192271114
 31
0.0
  0
LINE
  5
11D
330
1F
100
AcDbEntity
  8
0
  6
HIDDEN
 62
     7
370
     0
100
AcDbLine
 10
242.6423242604
 20
135.9192271114
 30
0.0
 11
242.6423242604
 21
138.9192276032
 31
0.0
  0
LINE
  5
11E
330
1F
100
AcDbEntity
  8
0
  6
HIDDEN
 62
     7
370
     0
100
AcDbLine
 10
242.6423242604
 20
138.9192276032
 30
0.0
 11
241.9382369434
 21
138.9192276032
 31
0.0
  0
LINE
  5
11F
330
1F
100
AcDbEntity
  8
0
  6
HIDDEN
 62
     7
370
     0
100
AcDbLine
 10
247.2258469378
 20
135.9192271114
 30
0.0
 11
246.8738032793
 21
135.9192271114
 31
0.0
  0
LINE
  5
120
330
1F
100
AcDbEntity
  8
0
  6
HIDDEN
 62
     7
370
     0
100
AcDbLine
 10
246.8738032793
 20
135.9192271114
 30
0.0
 11
246.8738032793
 21
138.9192276032
 31
0.0
  0
LINE
  5
121
330
1F
100
AcDbEntity
  8
0
  6
HIDDEN
 62
     7
370
     0
100
AcDbLine
 10
247.5778943216
 20
135.9192271114
 30
0.0
 11
247.2258469378
 21
135.9192271114
 31
0.0
  0
LINE
  5
122
330
1F
100
AcDbEntity
  8
0
  6
HIDDEN
 62
     7
370
     0
100
AcDbLine
 10
247.5778943216
 20
135.9192271114
 30
0.0
 11
247.5778943216
 21
138.9192276032
 31
0.0
  0
LINE
  5
123
330
1F
100
AcDbEntity
  8
0
  6
HIDDEN
 62
     7
370
     0
100
AcDbLine
 10
247.5778943216
 20
138.9192276032
 30
0.0
 11
246.8738032793
 21
138.9192276032
 31
0.0
  0
LINE
  5
124
330
1F
100
AcDbEntity
  8
0
  6
HIDDEN
 62
     7
370
     0
100
AcDbLine
 10
242.2902806019
 20
135.9192271114
 30
0.0
 11
241.9382369434
 21
135.9192271114
 31
0.0
  0
LINE
  5
125
330
1F
100
AcDbEntity
  8
0
  6
HIDDEN
 62
     7
370
     0
100
AcDbLine
 10
244.0539783155
 20
135.9192271114
 30
0.0
 11
244.0539783155
 21
138.9192276032
 31
0.0
  0
LINE
  5
126
330
1F
100
AcDbEntity
  8
0
  6
HIDDEN
 62
     7
370
     0
100
AcDbLine
 10
242.9961076295
 20
135.9192271114
 30
0.0
 11
244.0539783155
 21
135.9192271114
 31
0.0
  0
LINE
  5
127
330
1F
100
AcDbEntity
  8
0
  6
HIDDEN
 62
     7
370
     0
100
AcDbLine
 10
241.9382369434
 20
135.9192271114
 30
0.0
 11
242.9961076295
 21
135.9192271114
 31
0.0
  0
LINE
  5
128
330
1F
100
AcDbEntity
  8
0
  6
HIDDEN
 62
     7
370
     0
100
AcDbLine
 10
241.9382369434
 20
135.9192271114
 30
0.0
 11
241.9382369434
 21
138.9192276032
 31
0.0
  0
LINE
  5
129
330
1F
100
AcDbEntity
  8
0
  6
HIDDEN
 62
     7
370
     0
100
AcDbLine
 10
241.9382369434
 20
138.9192276032
 30
0.0
 11
244.0539783155
 21
138.9192276032
 31
0.0
  0
LINE
  5
12A
330
1F
100
AcDbEntity
  8
0
  6
HIDDEN
 62
     7
370
     0
100
AcDbLine
 10
245.4638889348
 20
135.9192271114
 30
0.0
 11
244.0539783155
 21
135.9192271114
 31
0.0
  0
LINE
  5
12B
330
1F
100
AcDbEntity
  8
0
  6
HIDDEN
 62
     7
370
     0
100
AcDbLine
 10
246.8738032793
 20
135.9192271114
 30
0.0
 11
245.4638889348
 21
135.9192271114
 31
0.0
  0
LINE
  5
12C
330
1F
100
AcDbEntity
  8
0
  6
HIDDEN
 62
     7
370
     0
100
AcDbLine
 10
246.8738032793
 20
138.9192276032
 30
0.0
 11
244.0539783155
 21
138.9192276032
 31
0.0
  0
LINE
  5
12D
330
1F
100
AcDbEntity
  8
0
  6
HIDDEN
 62
     7
370
     0
100
AcDbLine
 10
255.1580628669
 20
105.5642299683
 30
0.0
 11
255.1580628669
 21
85.919228229
 31
0.0
  0
LWPOLYLINE
  5
12E
330
1F
100
AcDbEntity
  8
0
  6
HIDDEN
 62
     7
370
     0
100
AcDbPolyline
 90
        3
 70
   128
 43
0.0
 10
249.6580628967
 20
104.0905088515
 10
252.3895537769
 20
104.8224091858
 10
255.1580628669
 20
105.5642299683
  0
LINE
  5
12F
330
1F
100
AcDbEntity
  8
0
  6
HIDDEN
 62
     7
370
     0
100
AcDbLine
 10
249.6580628967
 20
125.9192273349
 30
0.0
 11
249.6580628967
 21
104.0905088515
 31
0.0
  0
LINE
  5
130
330
1F
100
AcDbEntity
  8
0
  6
HIDDEN
 62
     7
370
     0
100
AcDbLine
 10
238.0121646737
 20
127.9192274299
 30
0.0
 11
249.6580628967
 21
127.9192274299
 31
0.0
  0
LINE
  5
131
330
1F
100
AcDbEntity
  8
0
  6
HIDDEN
 62
     7
370
     0
100
AcDbLine
 10
249.6580628967
 20
130.0905084566
 30
0.0
 11
249.6580628967
 21
127.9192274299
 31
0.0
  0
LWPOLYLINE
  5
132
330
1F
100
AcDbEntity
  8
0
  6
HIDDEN
 62
     7
370
     0
100
AcDbPolyline
 90
        3
 70
   128
 43
0.0
 10
255.1580628669
 20
128.6167880383
 10
252.4058742737
 20
129.3542355628
 10
249.6580628967
 20
130.0905084566
  0
LINE
  5
133
330
1F
100
AcDbEntity
  8
0
  6
HIDDEN
 62
     7
370
     0
100
AcDbLine
 10
255.1580628669
 20
137.9192274392
 30
0.0
 11
255.1580628669
 21
128.6167880383
 31
0.0
  0
LINE
  5
134
330
1F
100
AcDbEntity
  8
0
  6
HIDDEN
 62
     7
370
     0
100
AcDbLine
 10
236.1580653405
 20
137.9192274392
 30
0.0
 11
255.1580628669
 21
137.9192274392
 31
0.0
  0
LINE
  5
135
330
1F
100
AcDbEntity
  8
0
  6
HIDDEN
 62
     7
370
     0
100
AcDbLine
 10
236.1580653405
 20
137.9192274392
 30
0.0
 11
236.1580653405
 21
165.9192264409
 31
0.0
  0
SPLINE
  5
136
330
1F
100
AcDbEntity
  8
0
  6
HIDDEN
 62
     7
370
     0
100
AcDbSpline
210
0.0
220
0.0
230
1.0
 70
     8
 71
     3
 72
    66
 73
    62
 74
     0
 42
0.00000001
 43
0.00000001
 12
1.0
 22
0.0
 32
0.0
 13
1.0
 23
0.0
 33
0.0
 40
-0.0624999999999999
 40
-0.0624999999999999
 40
0.0
 40
0.0
 40
0.0312500000000002
 40
0.0312500000000002
 40
0.0625000000000004
 40
0.0625000000000004
 40
0.0937500000000006
 40
0.0937500000000006
 40
0.1250000000000007
 40
0.1250000000000007
 40
0.1562500000000007
 40
0.1562500000000007
 40
0.1875000000000008
 40
0.1875000000000008
 40
0.2187500000000008
 40
0.2187500000000008
 40
0.2500000000000009
 40
0.2500000000000009
 40
0.2812500000000009
 40
0.2812500000000009
 40
0.312500000000001
 40
0.312500000000001
 40
0.3437500000000011
 40
0.3437500000000011
 40
0.3750000000000011
 40
0.3750000000000011
 40
0.4062500000000011
 40
0.4062500000000011
 40
0.4375000000000012
 40
0.4375000000000012
 40
0.4687500000000012
 40
0.4687500000000012
 40
0.5000000000000012
 40
0.5000000000000012
 40
0.5312500000000013
 40
0.5312500000000013
 40
0.5625000000000014
 40
0.5625000000000014
 40
0.6250000000000012
 40
0.6250000000000012
 40
0.6562500000000011
 40
0.6562500000000011
 40
0.687500000000001
 40
0.687500000000001
 40
0.7187500000000009
 40
0.7187500000000009
 40
0.7500000000000007
 40
0.7500000000000007
 40
0.7812500000000006
 40
0.7812500000000006
 40
0.8125000000000004
 40
0.8125000000000004
 40
0.8437500000000003
 40
0.8437500000000003
 40
0.8750000000000002
 40
0.8750000000000002
 40
0.9062500000000001
 40
0.9062500000000001
 40
0.9375000000000001
 40
0.9375000000000001
 40
1.0
 40
1.0
 40
1.03125
 40
1.03125
 10
223.4884749605189
 20
162.8966300622091
 30
0.0
 10
222.9928593234224
 20
162.8966300622091
 30
0.0
 10
222.8304228666234
 20
162.8904431261668
 30
0.0
 10
222.5108585261579
 20
162.8661024393495
 30
0.0
 10
222.3520724744752
 20
162.8476506934069
 30
0.0
 10
222.0493368518742
 20
162.7991595781409
 30
0.0
 10
221.905759550845
 20
162.7693611228262
 30
0.0
 10
221.6340333831599
 20
162.6983196501338
 30
0.0
 10
221.5054100088845
 20
162.6566950607542
 30
0.0
 10
221.2748519494938
 20
162.5647739280786
 30
0.0
 10
221.1713796742294
 20
162.5141703688615
 30
0.0
 10
220.9886190154281
 20
162.4029194235216
 30
0.0
 10
220.9109775619235
 20
162.3430596679965
 30
0.0
 10
220.7862833979597
 20
162.217668906378
 30
0.0
 10
220.7382766254211
 20
162.1512135443029
 30
0.0
 10
220.6740430060948
 20
162.0132806634448
 30
0.0
 10
220.6581524769996
 20
161.9430636266896
 30
0.0
 10
220.6579773155841
 20
161.8000918028408
 30
0.0
 10
220.6742091954005
 20
161.726554416784
 30
0.0
 10
220.7379925531262
 20
161.5824709492918
 30
0.0
 10
220.7851861576933
 20
161.5115731097069
 30
0.0
 10
220.910357777425
 20
161.3723684746142
 30
0.0
 10
220.9886154758596
 20
161.3042713525734
 30
0.0
 10
221.1695330101193
 20
161.177061881404
 30
0.0
 10
221.2728174771513
 20
161.117147555639
 30
0.0
 10
221.5060727949192
 20
161.0055177007818
 30
0.0
 10
221.6324710720697
 20
160.9555427391079
 30
0.0
 10
221.9031383701258
 20
160.8676844970509
 30
0.0
 10
222.0492247260599
 20
160.8294242780087
 30
0.0
 10
222.3520995617823
 20
160.7678552112538
 30
0.0
 10
222.5079295591359
 20
160.7445298225302
 30
0.0
 10
222.828285326387
 20
160.7129292072431
 30
0.0
 10
222.9939992684005
 20
160.7048033818488
 30
0.0
 10
223.3203349068074
 20
160.7047454340396
 30
0.0
 10
223.4825274464846
 20
160.712551071626
 30
0.0
 10
223.80492053026
 20
160.7440639493939
 30
0.0
 10
223.9629264628253
 20
160.7677077633456
 30
0.0
 10
224.4143375011803
 20
160.8592428262131
 30
0.0
 10
224.6934050364583
 20
160.9499997362581
 30
0.0
 10
225.0394762329439
 20
161.1151604860186
 30
0.0
 10
225.1451181761965
 20
161.1761229136528
 30
0.0
 10
225.3268924913581
 20
161.3037355978728
 30
0.0
 10
225.4037813000481
 20
161.3705050506761
 30
0.0
 10
225.5294420128053
 20
161.5095638749703
 30
0.0
 10
225.5777487124209
 20
161.581873685387
 30
0.0
 10
225.6415685927313
 20
161.7254853297974
 30
0.0
 10
225.6578990313487
 20
161.7975721304738
 30
0.0
 10
225.65822756144
 20
161.9422235675403
 30
0.0
 10
225.6421312548873
 20
162.0127699846605
 30
0.0
 10
225.5788995547225
 20
162.1493715987331
 30
0.0
 10
225.5310560056459
 20
162.2162775628438
 30
0.0
 10
225.4057162916995
 20
162.3426635331648
 30
0.0
 10
225.3290208403582
 20
162.4017826404121
 30
0.0
 10
225.1479642918218
 20
162.5124249271163
 30
0.0
 10
225.0424914968683
 20
162.5642218091
 30
0.0
 10
224.8119784495485
 20
162.6562601911861
 30
0.0
 10
224.6862614455675
 20
162.6970882479478
 30
0.0
 10
224.4134823668
 20
162.7686858256311
 30
0.0
 10
224.2677829478633
 20
162.7989402007889
 30
0.0
 10
223.8167196490518
 20
162.8713707687059
 30
0.0
 10
223.4884749605189
 20
162.8966300622091
 30
0.0
 10
222.9928593234224
 20
162.8966300622091
 30
0.0
  0
SPLINE
  5
137
330
1F
100
AcDbEntity
  8
0
  6
HIDDEN
 62
     7
370
     0
100
AcDbSpline
210
0.0
220
0.0
230
1.0
 70
     8
 71
     3
 72
    66
 73
    62
 74
     0
 42
0.00000001
 43
0.00000001
 12
1.0
 22
0.0
 32
0.0
 13
1.0
 23
0.0
 33
0.0
 40
-0.0624999999999999
 40
-0.0624999999999999
 40
0.0
 40
0.0
 40
0.0312500000000002
 40
0.0312500000000002
 40
0.0625000000000004
 40
0.0625000000000004
 40
0.0937500000000006
 40
0.0937500000000006
 40
0.1250000000000007
 40
0.1250000000000007
 40
0.1562500000000007
 40
0.1562500000000007
 40
0.1875000000000008
 40
0.1875000000000008
 40
0.2187500000000008
 40
0.2187500000000008
 40
0.2500000000000009
 40
0.2500000000000009
 40
0.2812500000000009
 40
0.2812500000000009
 40
0.312500000000001
 40
0.312500000000001
 40
0.3437500000000011
 40
0.3437500000000011
 40
0.3750000000000011
 40
0.3750000000000011
 40
0.4062500000000011
 40
0.4062500000000011
 40
0.4375000000000012
 40
0.4375000000000012
 40
0.4687500000000012
 40
0.4687500000000012
 40
0.5000000000000012
 40
0.5000000000000012
 40
0.5312500000000013
 40
0.5312500000000013
 40
0.5625000000000014
 40
0.5625000000000014
 40
0.6250000000000012
 40
0.6250000000000012
 40
0.6562500000000011
 40
0.6562500000000011
 40
0.687500000000001
 40
0.687500000000001
 40
0.7187500000000009
 40
0.7187500000000009
 40
0.7500000000000007
 40
0.7500000000000007
 40
0.7812500000000006
 40
0.7812500000000006
 40
0.8125000000000004
 40
0.8125000000000004
 40
0.8437500000000003
 40
0.8437500000000003
 40
0.8750000000000002
 40
0.8750000000000002
 40
0.9062500000000001
 40
0.9062500000000001
 40
0.9375000000000001
 40
0.9375000000000001
 40
1.0
 40
1.0
 40
1.03125
 40
1.03125
 10
223.4884749605189
 20
162.8966300622091
 30
0.0
 10
222.9928593234224
 20
162.8966300622091
 30
0.0
 10
222.8304228666234
 20
162.8904431261668
 30
0.0
 10
222.5108585261579
 20
162.8661024393495
 30
0.0
 10
222.3520724744752
 20
162.8476506934069
 30
0.0
 10
222.0493368518742
 20
162.7991595781409
 30
0.0
 10
221.905759550845
 20
162.7693611228262
 30
0.0
 10
221.6340333831599
 20
162.6983196501338
 30
0.0
 10
221.5054100088845
 20
162.6566950607542
 30
0.0
 10
221.2748519494938
 20
162.5647739280786
 30
0.0
 10
221.1713796742294
 20
162.5141703688615
 30
0.0
 10
220.9886190154281
 20
162.4029194235216
 30
0.0
 10
220.9109775619235
 20
162.3430596679965
 30
0.0
 10
220.7862833979597
 20
162.217668906378
 30
0.0
 10
220.7382766254211
 20
162.1512135443029
 30
0.0
 10
220.6740430060948
 20
162.0132806634448
 30
0.0
 10
220.6581524769996
 20
161.9430636266896
 30
0.0
 10
220.6579773155841
 20
161.8000918028408
 30
0.0
 10
220.6742091954005
 20
161.726554416784
 30
0.0
 10
220.7379925531262
 20
161.5824709492918
 30
0.0
 10
220.7851861576933
 20
161.5115731097069
 30
0.0
 10
220.910357777425
 20
161.3723684746142
 30
0.0
 10
220.9886154758596
 20
161.3042713525734
 30
0.0
 10
221.1695330101193
 20
161.177061881404
 30
0.0
 10
221.2728174771513
 20
161.117147555639
 30
0.0
 10
221.5060727949192
 20
161.0055177007818
 30
0.0
 10
221.6324710720697
 20
160.9555427391079
 30
0.0
 10
221.9031383701258
 20
160.8676844970509
 30
0.0
 10
222.0492247260599
 20
160.8294242780087
 30
0.0
 10
222.3520995617823
 20
160.7678552112538
 30
0.0
 10
222.5079295591359
 20
160.7445298225302
 30
0.0
 10
222.828285326387
 20
160.7129292072431
 30
0.0
 10
222.9939992684005
 20
160.7048033818488
 30
0.0
 10
223.3203349068074
 20
160.7047454340396
 30
0.0
 10
223.4825274464846
 20
160.712551071626
 30
0.0
 10
223.80492053026
 20
160.7440639493939
 30
0.0
 10
223.9629264628253
 20
160.7677077633456
 30
0.0
 10
224.4143375011803
 20
160.8592428262131
 30
0.0
 10
224.6934050364583
 20
160.9499997362581
 30
0.0
 10
225.0394762329439
 20
161.1151604860186
 30
0.0
 10
225.1451181761965
 20
161.1761229136528
 30
0.0
 10
225.3268924913581
 20
161.3037355978728
 30
0.0
 10
225.4037813000481
 20
161.3705050506761
 30
0.0
 10
225.5294420128053
 20
161.5095638749703
 30
0.0
 10
225.5777487124209
 20
161.581873685387
 30
0.0
 10
225.6415685927313
 20
161.7254853297974
 30
0.0
 10
225.6578990313487
 20
161.7975721304738
 30
0.0
 10
225.65822756144
 20
161.9422235675403
 30
0.0
 10
225.6421312548873
 20
162.0127699846605
 30
0.0
 10
225.5788995547225
 20
162.1493715987331
 30
0.0
 10
225.5310560056459
 20
162.2162775628438
 30
0.0
 10
225.4057162916995
 20
162.3426635331648
 30
0.0
 10
225.3290208403582
 20
162.4017826404121
 30
0.0
 10
225.1479642918218
 20
162.5124249271163
 30
0.0
 10
225.0424914968683
 20
162.5642218091
 30
0.0
 10
224.8119784495485
 20
162.6562601911861
 30
0.0
 10
224.6862614455675
 20
162.6970882479478
 30
0.0
 10
224.4134823668
 20
162.7686858256311
 30
0.0
 10
224.2677829478633
 20
162.7989402007889
 30
0.0
 10
223.8167196490518
 20
162.8713707687059
 30
0.0
 10
223.4884749605189
 20
162.8966300622091
 30
0.0
 10
222.9928593234224
 20
162.8966300622091
 30
0.0
  0
SPLINE
  5
138
330
1F
100
AcDbEntity
  8
0
  6
HIDDEN
 62
     7
370
     0
100
AcDbSpline
210
0.0
220
0.0
230
1.0
 70
     8
 71
     3
 72
    54
 73
    50
 74
     0
 42
0.00000001
 43
0.00000001
 12
1.0
 22
0.0
 32
0.0
 13
1.0
 23
0.0
 33
0.0
 40
0.0
 40
0.0
 40
0.0
 40
0.0
 40
0.0624999999999992
 40
0.0624999999999992
 40
0.0937499999999983
 40
0.0937499999999983
 40
0.1249999999999974
 40
0.1249999999999974
 40
0.1874999999999956
 40
0.1874999999999956
 40
0.2187499999999947
 40
0.2187499999999947
 40
0.2499999999999938
 40
0.2499999999999938
 40
0.2812499999999929
 40
0.2812499999999929
 40
0.312499999999992
 40
0.312499999999992
 40
0.3749999999999906
 40
0.3749999999999906
 40
0.4374999999999892
 40
0.4374999999999892
 40
0.4687499999999886
 40
0.4687499999999886
 40
0.4999999999999879
 40
0.4999999999999879
 40
0.562499999999988
 40
0.562499999999988
 40
0.5937499999999887
 40
0.5937499999999887
 40
0.6249999999999893
 40
0.6249999999999893
 40
0.65624999999999
 40
0.65624999999999
 40
0.6874999999999908
 40
0.6874999999999908
 40
0.7499999999999921
 40
0.7499999999999921
 40
0.8124999999999934
 40
0.8124999999999934
 40
0.8437499999999947
 40
0.8437499999999947
 40
0.8749999999999958
 40
0.8749999999999958
 40
0.9374999999999979
 40
0.9374999999999979
 40
0.968749999999999
 40
0.968749999999999
 40
1.0
 40
1.0
 40
1.0
 40
1.0
 10
232.8552888980559
 20
125.9192273349393
 30
0.0
 10
232.5730739137729
 20
126.0888174343621
 30
0.0
 10
232.3209712352102
 20
126.2934623007333
 30
0.0
 10
231.986902452956
 20
126.651727631553
 30
0.0
 10
231.8828295736181
 20
126.7803976029642
 30
0.0
 10
231.6962112191994
 20
127.0473441525146
 30
0.0
 10
231.6127427686613
 20
127.1864833262517
 30
0.0
 10
231.3916418077201
 20
127.6207557636392
 30
0.0
 10
231.2836460385015
 20
127.9351971758986
 30
0.0
 10
231.1911653004519
 20
128.4124102286681
 30
0.0
 10
231.1713494057075
 20
128.5735124704107
 30
0.0
 10
231.1543055897261
 20
128.8998775602839
 30
0.0
 10
231.1573160998646
 20
129.06421343143
 30
0.0
 10
231.1856903368774
 20
129.3870713287409
 30
0.0
 10
231.2109691409312
 20
129.5467738134844
 30
0.0
 10
231.283737952408
 20
129.8627321588128
 30
0.0
 10
231.3317495325862
 20
130.0201696812211
 30
0.0
 10
231.5063749087582
 20
130.4757088466564
 30
0.0
 10
231.662361728607
 20
130.758437573529
 30
0.0
 10
232.0549044621585
 20
131.2815328278309
 30
0.0
 10
232.2837075785384
 20
131.5111302561075
 30
0.0
 10
232.6719009848165
 20
131.8056675780575
 30
0.0
 10
232.8100140905141
 20
131.8959962142135
 30
0.0
 10
233.0939883326345
 20
132.0545278053283
 30
0.0
 10
233.2405564330986
 20
132.1234349403983
 30
0.0
 10
233.6939003716326
 20
132.2993885537044
 30
0.0
 10
234.0179542877751
 20
132.3754677414865
 30
0.0
 10
234.5027941001797
 20
132.4195452935241
 30
0.0
 10
234.6652301971858
 20
132.4230354773864
 30
0.0
 10
234.9917847728337
 20
132.4071140373951
 30
0.0
 10
235.1559462001544
 20
132.3874522749904
 30
0.0
 10
235.4755442288736
 20
132.3263078062369
 30
0.0
 10
235.6323284369223
 20
132.2848181947337
 30
0.0
 10
235.9399025073348
 20
132.1800989054379
 30
0.0
 10
236.0918121231954
 20
132.1162617341365
 30
0.0
 10
236.5289442877997
 20
131.8952067249386
 30
0.0
 10
236.7946337044097
 20
131.7106313332006
 30
0.0
 10
237.2746049274944
 20
131.2666898953186
 30
0.0
 10
237.4799265062512
 20
131.0150009909509
 30
0.0
 10
237.7327006977027
 20
130.5993777809531
 30
0.0
 10
237.8082546416809
 20
130.4530622954268
 30
0.0
 10
237.936696189782
 20
130.1549141345402
 30
0.0
 10
237.9901495584008
 20
130.0024330717023
 30
0.0
 10
238.1186270179531
 20
129.5348638927729
 30
0.0
 10
238.1612991822775
 20
129.2058427472235
 30
0.0
 10
238.1561523098171
 20
128.7202743984994
 30
0.0
 10
238.1432656293205
 20
128.5587565619154
 30
0.0
 10
238.0946814163043
 20
128.2364167776727
 30
0.0
 10
238.0586483497667
 20
128.0751321918023
 30
0.0
 10
238.0121665020377
 20
127.9192273349398
 30
0.0
  0
SPLINE
  5
139
330
1F
100
AcDbEntity
  8
0
  6
HIDDEN
 62
     7
370
     0
100
AcDbSpline
210
0.0
220
0.0
230
1.0
 70
     8
 71
     3
 72
    19
 73
    15
 74
     0
 42
0.00000001
 43
0.00000001
 12
1.0
 22
0.0
 32
0.0
 13
1.0
 23
0.0
 33
0.0
 40
0.0
 40
0.0
 40
0.0
 40
0.0
 40
0.0501541984041489
 40
0.1000877114079366
 40
0.1499474799841541
 40
0.1998810961970469
 40
0.2500355002199111
 40
0.3747939872141552
 40
0.499550227956679
 40
0.6241931525490952
 40
0.7488383069049619
 40
0.8326743718721956
 40
0.9161642144035034
 40
1.0
 40
1.0
 40
1.0
 40
1.0
 10
236.4608401735199
 20
125.9192273349393
 30
0.0
 10
236.4060805793938
 20
125.8874572079229
 30
0.0
 10
236.2968023409193
 20
125.8240567468372
 30
0.0
 10
236.1268917445634
 20
125.7404429982638
 30
0.0
 10
235.9532854330679
 20
125.6656767833408
 30
0.0
 10
235.7755034801877
 20
125.6005453006424
 30
0.0
 10
235.5041209601284
 20
125.5173773876439
 30
0.0
 10
235.132534858268
 20
125.4404825710701
 30
0.0
 10
234.6600179132173
 20
125.4087228714732
 30
0.0
 10
234.1876222078785
 20
125.4399936225948
 30
0.0
 10
233.7744256723459
 20
125.5248058792112
 30
0.0
 10
233.4238006445641
 20
125.6391543812805
 30
0.0
 10
233.1312697976354
 20
125.7629140829965
 30
0.0
 10
232.9474092408379
 20
125.8670511503835
 30
0.0
 10
232.8552888980559
 20
125.9192273349393
 30
0.0
  0
LINE
  5
13A
330
1F
100
AcDbEntity
  8
0
  6
HIDDEN
 62
     7
370
     0
100
AcDbLine
 10
236.4608420347
 20
125.9192273349
 30
0.0
 11
249.6580628967
 21
125.9192273349
 31
0.0
  0
LINE
  5
13B
330
1F
100
AcDbEntity
  8
0
  6
HIDDEN
 62
     7
370
     0
100
AcDbLine
 10
239.2580656623
 20
132.919227551
 30
0.0
 11
250.2580656027
 21
132.919227551
 31
0.0
  0
LINE
  5
13C
330
1F
100
AcDbEntity
  8
0
  6
HIDDEN
 62
     7
370
     0
100
AcDbLine
 10
239.276848576
 20
137.9192274392
 30
0.0
 11
250.2392789637
 21
137.9192274392
 31
0.0
  0
LINE
  5
13D
330
1F
100
AcDbEntity
  8
0
  6
HIDDEN
 62
     7
370
     0
100
AcDbLine
 10
241.5627574837
 20
132.919227551
 30
0.0
 11
247.9533700561
 21
132.919227551
 31
0.0
  0
LINE
  5
13E
330
1F
100
AcDbEntity
  8
0
  6
HIDDEN
 62
     7
370
     0
100
AcDbLine
 10
241.5627574837
 20
127.9192274299
 30
0.0
 11
247.9533700561
 21
127.9192274299
 31
0.0
  0
LINE
  5
13F
330
1F
100
AcDbEntity
  8
0
  6
HIDDEN
 62
     7
370
     0
100
AcDbLine
 10
242.508064798
 20
109.919226575
 30
0.0
 11
247.0080627417
 21
109.919226575
 31
0.0
  0
LINE
  5
140
330
1F
100
AcDbEntity
  8
0
  6
HIDDEN
 62
     7
370
     0
100
AcDbLine
 10
242.508064798
 20
125.9192273349
 30
0.0
 11
247.0080627417
 21
125.9192273349
 31
0.0
  0
SPLINE
  5
141
330
1F
100
AcDbEntity
  8
0
  6
HIDDEN
 62
     7
370
     0
100
AcDbSpline
210
0.0
220
0.0
230
1.0
 70
     8
 71
     3
 72
    17
 73
    13
 74
     0
 42
0.00000001
 43
0.00000001
 12
1.0
 22
0.0
 32
0.0
 13
1.0
 23
0.0
 33
0.0
 40
0.0
 40
0.0
 40
0.0
 40
0.0
 40
0.10713733061689
 40
0.214266381017664
 40
0.3216098156908729
 40
0.4290956033398351
 40
0.5363476963701325
 40
0.6433543549574706
 40
0.7504869607540899
 40
0.857919952825008
 40
0.9653598706450023
 40
1.0
 40
1.0
 40
1.0
 40
1.0
 10
207.1580643122705
 20
100.9192269624103
 30
0.0
 10
207.1801051058322
 20
100.9210406858381
 30
0.0
 10
207.2241849895109
 20
100.9246679925182
 30
0.0
 10
207.5677122220397
 20
100.9498917269608
 30
0.0
 10
208.0742006536327
 20
100.9780118427643
 30
0.0
 10
208.7076403375511
 20
100.9983107378971
 30
0.0
 10
209.3905985744617
 20
101.0013598068045
 30
0.0
 10
210.0455844488828
 20
100.9861190160467
 30
0.0
 10
210.6051167765856
 20
100.9588546696149
 30
0.0
 10
210.9869461894106
 20
100.9329256159097
 30
0.0
 10
211.1687791635056
 20
100.9183825465092
 30
0.0
 10
211.1402793587525
 20
100.9206368498633
 30
0.0
 10
211.1333309029849
 20
100.9211864651073
 30
0.0
  0
SPLINE
  5
142
330
1F
100
AcDbEntity
  8
0
  6
HIDDEN
 62
     7
370
     0
100
AcDbSpline
210
0.0
220
0.0
230
1.0
 70
     8
 71
     3
 72
    12
 73
     8
 74
     0
 42
0.00000001
 43
0.00000001
 12
1.0
 22
0.0
 32
0.0
 13
1.0
 23
0.0
 33
0.0
 40
0.0
 40
0.0
 40
0.0
 40
0.0
 40
0.25
 40
0.25
 40
0.5
 40
0.5
 40
1.0
 40
1.0
 40
1.0
 40
1.0
 10
205.6858213493544
 20
118.3504173657588
 30
0.0
 10
205.6221561128239
 20
118.3504173657588
 30
0.0
 10
205.5625498806005
 20
118.3243452172791
 30
0.0
 10
205.4638893556697
 20
118.248806466458
 30
0.0
 10
205.4249223656544
 20
118.2015555293618
 30
0.0
 10
205.3255355337299
 20
118.0497317113954
 30
0.0
 10
205.2834592863065
 20
117.9369284616303
 30
0.0
 10
205.2528086474622
 20
117.8227743368952
 30
0.0
  0
LINE
  5
143
330
1F
100
AcDbEntity
  8
0
  6
HIDDEN
 62
     7
370
     0
100
AcDbLine
 10
208.6303074201
 20
118.3504171998
 30
0.0
 11
205.6858212044
 21
118.3504171998
 31
0.0
  0
SPLINE
  5
144
330
1F
100
AcDbEntity
  8
0
  6
HIDDEN
 62
     7
370
     0
100
AcDbSpline
210
0.0
220
0.0
230
1.0
 70
     8
 71
     3
 72
    12
 73
     8
 74
     0
 42
0.00000001
 43
0.00000001
 12
1.0
 22
0.0
 32
0.0
 13
1.0
 23
0.0
 33
0.0
 40
0.0
 40
0.0
 40
0.0
 40
0.0
 40
0.5000000000000032
 40
0.5000000000000032
 40
0.7500000000000016
 40
0.7500000000000016
 40
1.0
 40
1.0
 40
1.0
 40
1.0
 10
209.0633204241137
 20
117.8227743368952
 30
0.0
 10
209.0326210407464
 20
117.937110003959
 30
0.0
 10
208.9912709726399
 20
118.0484633568004
 30
0.0
 10
208.8915150444204
 20
118.2012001290491
 30
0.0
 10
208.8518181266877
 20
118.2490600149012
 30
0.0
 10
208.7545599750401
 20
118.3236631282507
 30
0.0
 10
208.6937838170494
 20
118.3504173657588
 30
0.0
 10
208.6303077222215
 20
118.3504173657588
 30
0.0
  0
ELLIPSE
  5
145
330
1F
100
AcDbEntity
  8
0
  6
HIDDEN
 62
     7
370
     0
100
AcDbEllipse
 10
196.1018068808
 20
125.9192273349
 30
0.0
 11
-11.70927234972712
 21
24.6771864409374
 31
0.0
210
0.0
220
0.0
230
1.0
 40
0.3419987131
 41
3.31052192817896
 42
4.221709151398952
  0
SPLINE
  5
146
330
1F
100
AcDbEntity
  8
0
  6
HIDDEN
 62
     7
370
     0
100
AcDbSpline
210
0.0
220
0.0
230
1.0
 70
     8
 71
     3
 72
    12
 73
     8
 74
     0
 42
0.00000001
 43
0.00000001
 12
1.0
 22
0.0
 32
0.0
 13
1.0
 23
0.0
 33
0.0
 40
0.0
 40
0.0
 40
0.0
 40
0.0
 40
0.2500000000000007
 40
0.2500000000000007
 40
0.5000000000000014
 40
0.5000000000000014
 40
1.0
 40
1.0
 40
1.0
 40
1.0
 10
208.6303077222215
 20
102.0924962194374
 30
0.0
 10
208.693972958752
 20
102.0924962194374
 30
0.0
 10
208.7535791909753
 20
102.1007609951032
 30
0.0
 10
208.8522397159062
 20
102.1249797766864
 30
0.0
 10
208.8912067059214
 20
102.1402370959955
 30
0.0
 10
208.9905935378459
 20
102.1898704502574
 30
0.0
 10
209.0326697852693
 20
102.2275101584316
 30
0.0
 10
209.0633204241137
 20
102.2665858577077
 30
0.0
  0
LINE
  5
147
330
1F
100
AcDbEntity
  8
0
  6
HIDDEN
 62
     7
370
     0
100
AcDbLine
 10
205.6858212044
 20
102.092495966
 30
0.0
 11
208.6303074201
 21
102.092495966
 31
0.0
  0
SPLINE
  5
148
330
1F
100
AcDbEntity
  8
0
  6
HIDDEN
 62
     7
370
     0
100
AcDbSpline
210
0.0
220
0.0
230
1.0
 70
     8
 71
     3
 72
    12
 73
     8
 74
     0
 42
0.00000001
 43
0.00000001
 12
1.0
 22
0.0
 32
0.0
 13
1.0
 23
0.0
 33
0.0
 40
0.0
 40
0.0
 40
0.0
 40
0.0
 40
0.4999999999999996
 40
0.4999999999999996
 40
0.7499999999999998
 40
0.7499999999999998
 40
1.0
 40
1.0
 40
1.0
 40
1.0
 10
205.2528086474622
 20
102.2665858577077
 30
0.0
 10
205.2835080308294
 20
102.2274480153118
 30
0.0
 10
205.324858098936
 20
102.1902882325863
 30
0.0
 10
205.4246140271554
 20
102.1403517269586
 30
0.0
 10
205.4643109448881
 20
102.1248988568148
 30
0.0
 10
205.5615690965357
 20
102.1009793132158
 30
0.0
 10
205.6223452545264
 20
102.0924962194374
 30
0.0
 10
205.6858213493544
 20
102.0924962194374
 30
0.0
  0
ELLIPSE
  5
149
330
1F
100
AcDbEntity
  8
0
  6
HIDDEN
 62
     7
370
     0
100
AcDbEllipse
 10
218.2143221908
 20
125.9192273349
 30
0.0
 11
11.709272349727
 21
24.67718644093743
 31
0.0
210
0.0
220
0.0
230
1.0
 40
0.3419987131
 41
2.061476155780643
 42
2.972663379000667
  0
SPLINE
  5
14A
330
1F
100
AcDbEntity
  8
0
  6
HIDDEN
 62
     7
370
     0
100
AcDbSpline
210
0.0
220
0.0
230
1.0
 70
     8
 71
     3
 72
    12
 73
     8
 74
     0
 42
0.00000001
 43
0.00000001
 12
1.0
 22
0.0
 32
0.0
 13
1.0
 23
0.0
 33
0.0
 40
0.0
 40
0.0
 40
0.0
 40
0.0
 40
0.2500000000000026
 40
0.2500000000000026
 40
0.5000000000000051
 40
0.5000000000000051
 40
1.0
 40
1.0
 40
1.0
 40
1.0
 10
205.6858213493544
 20
149.7459584504414
 30
0.0
 10
205.6221561128239
 20
149.7459584504414
 30
0.0
 10
205.5625498806005
 20
149.7376936747755
 30
0.0
 10
205.4638893556697
 20
149.7134748931924
 30
0.0
 10
205.4249223656544
 20
149.6982175738833
 30
0.0
 10
205.3255355337299
 20
149.6485842196213
 30
0.0
 10
205.2834592863065
 20
149.6109445114472
 30
0.0
 10
205.2528086474622
 20
149.5718688121711
 30
0.0
  0
LINE
  5
14B
330
1F
100
AcDbEntity
  8
0
  6
HIDDEN
 62
     7
370
     0
100
AcDbLine
 10
208.6303074201
 20
149.7459587038
 30
0.0
 11
205.6858212044
 21
149.7459587038
 31
0.0
  0
SPLINE
  5
14C
330
1F
100
AcDbEntity
  8
0
  6
HIDDEN
 62
     7
370
     0
100
AcDbSpline
210
0.0
220
0.0
230
1.0
 70
     8
 71
     3
 72
    12
 73
     8
 74
     0
 42
0.00000001
 43
0.00000001
 12
1.0
 22
0.0
 32
0.0
 13
1.0
 23
0.0
 33
0.0
 40
0.0
 40
0.0
 40
0.0
 40
0.0
 40
0.5
 40
0.5
 40
0.75
 40
0.75
 40
1.0
 40
1.0
 40
1.0
 40
1.0
 10
209.0633204241137
 20
149.5718688121711
 30
0.0
 10
209.0326210407464
 20
149.6110066545669
 30
0.0
 10
208.9912709726399
 20
149.6481664372924
 30
0.0
 10
208.8915150444204
 20
149.6981029429202
 30
0.0
 10
208.8518181266877
 20
149.7135558130639
 30
0.0
 10
208.7545599750401
 20
149.737475356663
 30
0.0
 10
208.6937838170494
 20
149.7459584504414
 30
0.0
 10
208.6303077222215
 20
149.7459584504414
 30
0.0
  0
ELLIPSE
  5
14D
330
1F
100
AcDbEntity
  8
0
  6
HIDDEN
 62
     7
370
     0
100
AcDbEllipse
 10
196.1018068808
 20
125.9192273349
 30
0.0
 11
11.70927234972731
 21
24.67718644093743
 31
0.0
210
0.0
220
0.0
230
1.0
 40
0.3419987131
 41
5.20306880937047
 42
6.114256032590519
  0
SPLINE
  5
14E
330
1F
100
AcDbEntity
  8
0
  6
HIDDEN
 62
     7
370
     0
100
AcDbSpline
210
0.0
220
0.0
230
1.0
 70
     8
 71
     3
 72
    12
 73
     8
 74
     0
 42
0.00000001
 43
0.00000001
 12
1.0
 22
0.0
 32
0.0
 13
1.0
 23
0.0
 33
0.0
 40
0.0
 40
0.0
 40
0.0
 40
0.0
 40
0.25
 40
0.25
 40
0.5
 40
0.5
 40
1.0
 40
1.0
 40
1.0
 40
1.0
 10
208.6303077222215
 20
133.4880373041203
 30
0.0
 10
208.693972958752
 20
133.4880373041203
 30
0.0
 10
208.7535791909753
 20
133.5141094526
 30
0.0
 10
208.8522397159062
 20
133.5896482034211
 30
0.0
 10
208.8912067059214
 20
133.6368991405173
 30
0.0
 10
208.9905935378459
 20
133.7887229584838
 30
0.0
 10
209.0326697852693
 20
133.9015262082488
 30
0.0
 10
209.0633204241137
 20
134.0156803329839
 30
0.0
  0
LINE
  5
14F
330
1F
100
AcDbEntity
  8
0
  6
HIDDEN
 62
     7
370
     0
100
AcDbLine
 10
205.6858212044
 20
133.4880374701
 30
0.0
 11
208.6303074201
 21
133.4880374701
 31
0.0
  0
SPLINE
  5
150
330
1F
100
AcDbEntity
  8
0
  6
HIDDEN
 62
     7
370
     0
100
AcDbSpline
210
0.0
220
0.0
230
1.0
 70
     8
 71
     3
 72
    12
 73
     8
 74
     0
 42
0.00000001
 43
0.00000001
 12
1.0
 22
0.0
 32
0.0
 13
1.0
 23
0.0
 33
0.0
 40
0.0
 40
0.0
 40
0.0
 40
0.0
 40
0.4999999999999996
 40
0.4999999999999996
 40
0.7499999999999998
 40
0.7499999999999998
 40
1.0
 40
1.0
 40
1.0
 40
1.0
 10
205.2528086474622
 20
134.0156803329839
 30
0.0
 10
205.2835080308294
 20
133.9013446659201
 30
0.0
 10
205.3248580989359
 20
133.7899913130787
 30
0.0
 10
205.4246140271554
 20
133.63725454083
 30
0.0
 10
205.4643109448881
 20
133.5893946549778
 30
0.0
 10
205.5615690965357
 20
133.5147915416284
 30
0.0
 10
205.6223452545264
 20
133.4880373041203
 30
0.0
 10
205.6858213493544
 20
133.4880373041203
 30
0.0
  0
ELLIPSE
  5
151
330
1F
100
AcDbEntity
  8
0
  6
HIDDEN
 62
     7
370
     0
100
AcDbEllipse
 10
218.2143221908
 20
125.9192273349
 30
0.0
 11
-11.70927234972714
 21
24.67718644093743
 31
0.0
210
0.0
220
0.0
230
1.0
 40
0.3419987131
 41
0.1689292745891063
 42
1.080116497809128
  0
LINE
  5
152
330
1F
100
AcDbEntity
  8
0
  6
HIDDEN
 62
     7
370
     0
100
AcDbLine
 10
197.1580645358
 20
150.6192282171
 30
0.0
 11
197.1580645358
 21
101.2192264528
 31
0.0
  0
SPLINE
  5
153
330
1F
100
AcDbEntity
  8
0
  6
HIDDEN
 62
     7
370
     0
100
AcDbSpline
210
0.0
220
0.0
230
1.0
 70
     8
 71
     3
 72
     8
 73
     4
 74
     0
 42
0.00000001
 43
0.00000001
 12
1.0
 22
0.0
 32
0.0
 13
1.0
 23
0.0
 33
0.0
 40
0.0
 40
0.0
 40
0.0
 40
0.0
 40
1.0
 40
1.0
 40
1.0
 40
1.0
 10
224.1580645357879
 20
155.7387977611542
 30
0.0
 10
224.1260259026158
 20
155.644843025156
 30
0.0
 10
224.0951225040038
 20
155.5509684240612
 30
0.0
 10
224.0656328332402
 20
155.4570628894601
 30
0.0
  0
SPLINE
  5
154
330
1F
100
AcDbEntity
  8
0
  6
HIDDEN
 62
     7
370
     0
100
AcDbSpline
210
0.0
220
0.0
230
1.0
 70
     8
 71
     3
 72
    28
 73
    24
 74
     0
 42
0.00000001
 43
0.00000001
 12
1.0
 22
0.0
 32
0.0
 13
1.0
 23
0.0
 33
0.0
 40
0.0
 40
0.0
 40
0.0
 40
0.0
 40
0.125000000000002
 40
0.125000000000002
 40
0.1875000000000021
 40
0.1875000000000021
 40
0.2500000000000023
 40
0.2500000000000023
 40
0.3750000000000009
 40
0.3750000000000009
 40
0.4999999999999996
 40
0.4999999999999996
 40
0.5624999999999984
 40
0.5624999999999984
 40
0.6249999999999973
 40
0.6249999999999973
 40
0.6874999999999984
 40
0.6874999999999984
 40
0.7499999999999996
 40
0.7499999999999996
 40
0.8749999999999999
 40
0.8749999999999999
 40
1.0
 40
1.0
 40
1.0
 40
1.0
 10
224.1580645357879
 20
157.9875457788112
 30
0.0
 10
224.3811615465551
 20
158.025036993296
 30
0.0
 10
224.5796846053726
 20
158.0627743112571
 30
0.0
 10
224.8508611047025
 20
158.1007737767143
 30
0.0
 10
224.9370939694219
 20
158.1104008054776
 30
0.0
 10
225.0958907905563
 20
158.1203080216945
 30
0.0
 10
225.1689794765328
 20
158.1207125897759
 30
0.0
 10
225.3693083785048
 20
158.104817192664
 30
0.0
 10
225.4789677653069
 20
158.0701715383456
 30
0.0
 10
225.6244913439783
 20
157.9401520611293
 30
0.0
 10
225.6615204275751
 20
157.8426817318876
 30
0.0
 10
225.6559392649878
 20
157.6567206505734
 30
0.0
 10
225.6440762499662
 20
157.5871028684313
 30
0.0
 10
225.6014528157387
 20
157.437870942595
 30
0.0
 10
225.5710517143246
 20
157.3588066370287
 30
0.0
 10
225.493486117711
 20
157.1928087046636
 30
0.0
 10
225.4459305123131
 20
157.1053729472426
 30
0.0
 10
225.3378908136145
 20
156.9289499225117
 30
0.0
 10
225.2772000493994
 20
156.8393862573439
 30
0.0
 10
225.0762489504636
 20
156.5681455641596
 30
0.0
 10
224.9193137454545
 20
156.3865090339038
 30
0.0
 10
224.5686091033897
 20
156.0423459892454
 30
0.0
 10
224.3736904719667
 20
155.8779043102512
 30
0.0
 10
224.1580645357879
 20
155.7387977611542
 30
0.0
  0
SPLINE
  5
155
330
1F
100
AcDbEntity
  8
0
  6
HIDDEN
 62
     7
370
     0
100
AcDbSpline
210
0.0
220
0.0
230
1.0
 70
     8
 71
     3
 72
     8
 73
     4
 74
     0
 42
0.00000001
 43
0.00000001
 12
1.0
 22
0.0
 32
0.0
 13
1.0
 23
0.0
 33
0.0
 40
0.0
 40
0.0
 40
0.0
 40
0.0
 40
1.0
 40
1.0
 40
1.0
 40
1.0
 10
223.9602469603365
 20
157.5162025652042
 30
0.0
 10
224.0216716117785
 20
157.6770867558612
 30
0.0
 10
224.0882457229968
 20
157.8341726796249
 30
0.0
 10
224.1580645357879
 20
157.9875457788112
 30
0.0
  0
LWPOLYLINE
  5
156
330
1F
100
AcDbEntity
  8
0
  6
HIDDEN
 62
     7
370
     0
100
AcDbPolyline
 90
       16
 70
   128
 43
0.0
 10
224.0656333333
 20
155.4570634247
 10
223.4462498044
 20
155.3896021427
 10
222.8080852246
 20
155.3930890144
 10
222.1927287345
 20
155.4672949345
 10
221.6402849471
 20
155.6073826135
 10
221.1867550676
 20
155.8042250902
 10
220.8616974121
 20
156.0449906022
 10
220.6862958437
 20
156.313991952
 10
220.671979553
 20
156.5936960609
 10
220.8196854507
 20
156.8658750833
 10
221.1197836613
 20
157.1127910496
 10
221.5527182733
 20
157.3183507056
 10
222.0902739381
 20
157.4691579074
 10
222.6974198883
 20
157.555387202
 10
223.3345860904
 20
157.5714171261
 10
223.9602467334
 20
157.5162008733
  0
LINE
  5
157
330
1F
100
AcDbEntity
  8
0
  6
HIDDEN
 62
     7
370
     0
100
AcDbLine
 10
197.1580645358
 20
106.3737523139
 30
0.0
 11
197.1580645358
 21
145.4647023559
 31
0.0
  0
SPLINE
  5
158
330
1F
100
AcDbEntity
  8
0
  6
HIDDEN
 62
     7
370
     0
100
AcDbSpline
210
0.0
220
0.0
230
1.0
 70
     8
 71
     3
 72
    14
 73
    10
 74
     0
 42
0.00000001
 43
0.00000001
 12
1.0
 22
0.0
 32
0.0
 13
1.0
 23
0.0
 33
0.0
 40
0.0
 40
0.0
 40
0.0
 40
0.0
 40
0.25
 40
0.25
 40
0.5
 40
0.5
 40
0.75
 40
0.75
 40
1.0
 40
1.0
 40
1.0
 40
1.0
 10
196.1172035076596
 20
112.9843648474133
 30
0.0
 10
196.1489186419903
 20
112.9500836524191
 30
0.0
 10
196.1835331672906
 20
112.9168313840513
 30
0.0
 10
196.263204362706
 20
112.8535409269465
 30
0.0
 10
196.3082602397364
 20
112.8231070181776
 30
0.0
 10
196.4188146522418
 20
112.7718643207273
 30
0.0
 10
196.4862000664459
 20
112.7511068202772
 30
0.0
 10
196.636829586344
 20
112.7456210423333
 30
0.0
 10
196.7066568231094
 20
112.7620320429387
 30
0.0
 10
196.7630876469128
 20
112.7848194721505
 30
0.0
  0
SPLINE
  5
159
330
1F
100
AcDbEntity
  8
0
  6
HIDDEN
 62
     7
370
     0
100
AcDbSpline
210
0.0
220
0.0
230
1.0
 70
     8
 71
     3
 72
    16
 73
    12
 74
     0
 42
0.00000001
 43
0.00000001
 12
1.0
 22
0.0
 32
0.0
 13
1.0
 23
0.0
 33
0.0
 40
0.0
 40
0.0
 40
0.0
 40
0.0
 40
0.0625000000000009
 40
0.0625000000000009
 40
0.1250000000000019
 40
0.1250000000000019
 40
0.2499999999999998
 40
0.2499999999999998
 40
0.4999999999999999
 40
0.4999999999999999
 40
1.0
 40
1.0
 40
1.0
 40
1.0
 10
196.763087646881
 20
112.7848194721944
 30
0.0
 10
196.7748218813279
 20
112.7895578938415
 30
0.0
 10
196.7883536368069
 20
112.7925201709883
 30
0.0
 10
196.8183410972368
 20
112.7891409933666
 30
0.0
 10
196.833335803645
 20
112.782261185631
 30
0.0
 10
196.8690762260398
 20
112.7553175260785
 30
0.0
 10
196.883089563041
 20
112.7322430596242
 30
0.0
 10
196.9172336518224
 20
112.6655553373498
 30
0.0
 10
196.9282055559407
 20
112.6220518612672
 30
0.0
 10
196.954051096207
 20
112.4933366383186
 30
0.0
 10
196.9580645357879
 20
112.4119464576876
 30
0.0
 10
196.9580645357879
 20
112.3334626475437
 30
0.0
  0
LINE
  5
15A
330
1F
100
AcDbEntity
  8
0
  6
HIDDEN
 62
     7
370
     0
100
AcDbLine
 10
196.9580645408
 20
108.0794062794
 30
0.0
 11
196.9580645408
 21
112.3334624202
 31
0.0
  0
LINE
  5
15B
330
1F
100
AcDbEntity
  8
0
  6
HIDDEN
 62
     7
370
     0
100
AcDbLine
 10
196.9580645408
 20
112.3334624202
 30
0.0
 11
196.9440649581
 21
112.450426291
 31
0.0
  0
SPLINE
  5
15C
330
1F
100
AcDbEntity
  8
0
  6
HIDDEN
 62
     7
370
     0
100
AcDbSpline
210
0.0
220
0.0
230
1.0
 70
     8
 71
     3
 72
    10
 73
     6
 74
     0
 42
0.00000001
 43
0.00000001
 12
1.0
 22
0.0
 32
0.0
 13
1.0
 23
0.0
 33
0.0
 40
0.0
 40
0.0
 40
0.0
 40
0.0
 40
0.5
 40
0.5
 40
1.0
 40
1.0
 40
1.0
 40
1.0
 10
196.1172035076587
 20
143.0339867269432
 30
0.0
 10
196.0454140379059
 20
143.1084607289332
 30
0.0
 10
195.9929557350604
 20
143.1831162118422
 30
0.0
 10
195.9036154835635
 20
143.3280242507633
 30
0.0
 10
195.8676227758402
 20
143.3984491097324
 30
0.0
 10
195.8367441922283
 20
143.4660316542627
 30
0.0
  0
SPLINE
  5
15D
330
1F
100
AcDbEntity
  8
0
  6
HIDDEN
 62
     7
370
     0
100
AcDbSpline
210
0.0
220
0.0
230
1.0
 70
     8
 71
     3
 72
    14
 73
    10
 74
     0
 42
0.00000001
 43
0.00000001
 12
1.0
 22
0.0
 32
0.0
 13
1.0
 23
0.0
 33
0.0
 40
0.0
 40
0.0
 40
0.0
 40
0.0
 40
0.25
 40
0.25
 40
0.5
 40
0.5
 40
0.75
 40
0.75
 40
1.0
 40
1.0
 40
1.0
 40
1.0
 10
196.1172035076581
 20
143.0339867269439
 30
0.0
 10
196.1489122071434
 20
143.0010922960935
 30
0.0
 10
196.183520025784
 20
142.9688689864359
 30
0.0
 10
196.2631784362734
 20
142.9073364766936
 30
0.0
 10
196.3082407061682
 20
142.87758703083
 30
0.0
 10
196.4188225517466
 20
142.8285445373394
 30
0.0
 10
196.4864666725619
 20
142.8093939259004
 30
0.0
 10
196.636714962959
 20
142.8103396333358
 30
0.0
 10
196.7066673611894
 20
142.8310276505185
 30
0.0
 10
196.7630876469129
 20
142.8575718620049
 30
0.0
  0
SPLINE
  5
15E
330
1F
100
AcDbEntity
  8
0
  6
HIDDEN
 62
     7
370
     0
100
AcDbSpline
210
0.0
220
0.0
230
1.0
 70
     8
 71
     3
 72
    16
 73
    12
 74
     0
 42
0.00000001
 43
0.00000001
 12
1.0
 22
0.0
 32
0.0
 13
1.0
 23
0.0
 33
0.0
 40
0.0
 40
0.0
 40
0.0
 40
0.0
 40
0.0624999999999999
 40
0.0624999999999999
 40
0.1249999999999999
 40
0.1249999999999999
 40
0.2499999999999976
 40
0.2499999999999976
 40
0.499999999999996
 40
0.499999999999996
 40
1.0
 40
1.0
 40
1.0
 40
1.0
 10
196.763087646881
 20
142.8575718620095
 30
0.0
 10
196.7748218813279
 20
142.8630925004976
 30
0.0
 10
196.7883536368069
 20
142.8686065573692
 30
0.0
 10
196.8183410972368
 20
142.8774381205733
 30
0.0
 10
196.833335803645
 20
142.8800749438529
 30
0.0
 10
196.8690762260398
 20
142.8824906433967
 30
0.0
 10
196.883089563041
 20
142.8787437004034
 30
0.0
 10
196.9172336518224
 20
142.8647567444023
 30
0.0
 10
196.9282055559407
 20
142.8506553185432
 30
0.0
 10
196.954051096207
 20
142.8037375478278
 30
0.0
 10
196.9580645357879
 20
142.7659550722058
 30
0.0
 10
196.9580645357879
 20
142.7253328900196
 30
0.0
  0
LINE
  5
15F
330
1F
100
AcDbEntity
  8
0
  6
HIDDEN
 62
     7
370
     0
100
AcDbLine
 10
196.9580645408
 20
122.6988863994
 30
0.0
 11
196.9580645408
 21
142.7253324867
 31
0.0
  0
SPLINE
  5
160
330
1F
100
AcDbEntity
  8
0
  6
HIDDEN
 62
     7
370
     0
100
AcDbSpline
210
0.0
220
0.0
230
1.0
 70
     8
 71
     3
 72
    16
 73
    12
 74
     0
 42
0.00000001
 43
0.00000001
 12
1.0
 22
0.0
 32
0.0
 13
1.0
 23
0.0
 33
0.0
 40
0.0
 40
0.0
 40
0.0
 40
0.0
 40
0.4999999999999978
 40
0.4999999999999978
 40
0.7499999999999984
 40
0.7499999999999984
 40
0.8749999999999988
 40
0.8749999999999988
 40
0.9374999999999993
 40
0.9374999999999993
 40
1.0
 40
1.0
 40
1.0
 40
1.0
 10
196.9580645357881
 20
122.6988864672549
 30
0.0
 10
196.9580645357878
 20
122.5789326886795
 30
0.0
 10
196.9539399929338
 20
122.4592013670256
 30
0.0
 10
196.9280235473007
 20
122.2840682208125
 30
0.0
 10
196.9167459662809
 20
122.2259765096737
 30
0.0
 10
196.8830105877396
 20
122.1466309463335
 30
0.0
 10
196.8686217724951
 20
122.1194906323575
 30
0.0
 10
196.8333750830561
 20
122.0954087782399
 30
0.0
 10
196.8181696585991
 20
122.0911337927949
 30
0.0
 10
196.7885230794298
 20
122.0965247374813
 30
0.0
 10
196.7748177434324
 20
122.1050352282503
 30
0.0
 10
196.7630876469086
 20
122.1152906706578
 30
0.0
  0
SPLINE
  5
161
330
1F
100
AcDbEntity
  8
0
  6
HIDDEN
 62
     7
370
     0
100
AcDbSpline
210
0.0
220
0.0
230
1.0
 70
     8
 71
     3
 72
    14
 73
    10
 74
     0
 42
0.00000001
 43
0.00000001
 12
1.0
 22
0.0
 32
0.0
 13
1.0
 23
0.0
 33
0.0
 40
0.0
 40
0.0
 40
0.0
 40
0.0
 40
0.25
 40
0.25
 40
0.5
 40
0.5
 40
0.75
 40
0.75
 40
1.0
 40
1.0
 40
1.0
 40
1.0
 10
196.7630876469191
 20
122.1152906706725
 30
0.0
 10
196.7066405648608
 20
122.1646414835937
 30
0.0
 10
196.635790180818
 20
122.2016834554824
 30
0.0
 10
196.4873537460016
 20
122.1972235236628
 30
0.0
 10
196.4181644943147
 20
122.1567359900333
 30
0.0
 10
196.3084529460738
 20
122.0571151317227
 30
0.0
 10
196.2632112967314
 20
121.9968299737994
 30
0.0
 10
196.1835632785476
 20
121.8720444799746
 30
0.0
 10
196.1489363627815
 20
121.8065502698081
 30
0.0
 10
196.1172035076602
 20
121.7393304304657
 30
0.0
  0
SPLINE
  5
162
330
1F
100
AcDbEntity
  8
0
  6
HIDDEN
 62
     7
370
     0
100
AcDbSpline
210
0.0
220
0.0
230
1.0
 70
     8
 71
     3
 72
    10
 73
     6
 74
     0
 42
0.00000001
 43
0.00000001
 12
1.0
 22
0.0
 32
0.0
 13
1.0
 23
0.0
 33
0.0
 40
0.0
 40
0.0
 40
0.0
 40
0.0
 40
0.5
 40
0.5
 40
1.0
 40
1.0
 40
1.0
 40
1.0
 10
196.1172035076603
 20
121.7393304304639
 30
0.0
 10
196.0453945322677
 20
121.5872171784174
 30
0.0
 10
195.992938672845
 20
121.4295835368477
 30
0.0
 10
195.9036040869536
 20
121.1101518963432
 30
0.0
 10
195.8676172240406
 20
120.948089427284
 30
0.0
 10
195.8367441922283
 20
120.7847454016162
 30
0.0
  0
SPLINE
  5
163
330
1F
100
AcDbEntity
  8
0
  6
HIDDEN
 62
     7
370
     0
100
AcDbSpline
210
0.0
220
0.0
230
1.0
 70
     8
 71
     3
 72
    10
 73
     6
 74
     0
 42
0.00000001
 43
0.00000001
 12
1.0
 22
0.0
 32
0.0
 13
1.0
 23
0.0
 33
0.0
 40
0.0
 40
0.0
 40
0.0
 40
0.0
 40
0.5
 40
0.5
 40
1.0
 40
1.0
 40
1.0
 40
1.0
 10
195.8367441922283
 20
113.5069049489389
 30
0.0
 10
195.8676255318265
 20
113.4111055446031
 30
0.0
 10
195.9036211413263
 20
113.3194444029522
 30
0.0
 10
195.9929642054276
 20
113.144914354242
 30
0.0
 10
196.0454237197359
 20
113.0619523134097
 30
0.0
 10
196.1172035076596
 20
112.9843648474133
 30
0.0
  0
LINE
  5
164
330
1F
100
AcDbEntity
  8
0
  6
HIDDEN
 62
     7
370
     0
100
AcDbLine
 10
196.9580645408
 20
122.6988863994
 30
0.0
 11
196.9580645408
 21
142.7253324867
 31
0.0
  0
SPLINE
  5
165
330
1F
100
AcDbEntity
  8
0
  6
HIDDEN
 62
     7
370
     0
100
AcDbSpline
210
0.0
220
0.0
230
1.0
 70
     8
 71
     3
 72
    20
 73
    16
 74
     0
 42
0.00000001
 43
0.00000001
 12
1.0
 22
0.0
 32
0.0
 13
1.0
 23
0.0
 33
0.0
 40
0.0
 40
0.0
 40
0.0
 40
0.0
 40
0.1249999999999999
 40
0.1249999999999999
 40
0.2499999999999998
 40
0.2499999999999998
 40
0.3749999999999998
 40
0.3749999999999998
 40
0.4999999999999997
 40
0.4999999999999997
 40
0.6249999999999996
 40
0.6249999999999996
 40
0.7499999999999996
 40
0.7499999999999996
 40
1.0
 40
1.0
 40
1.0
 40
1.0
 10
224.1580645357879
 20
151.7907881045844
 30
0.0
 10
224.3204400160008
 20
151.7672767774289
 30
0.0
 10
224.4654481653211
 20
151.7457682609079
 30
0.0
 10
224.7276175083728
 20
151.7194370179576
 30
0.0
 10
224.8446957071901
 20
151.7148312797733
 30
0.0
 10
225.0376645408932
 20
151.7337391683363
 30
0.0
 10
225.1164220811308
 20
151.7574777622436
 30
0.0
 10
225.2253660374008
 20
151.8410753767601
 30
0.0
 10
225.2554635507138
 20
151.900931636071
 30
0.0
 10
225.2603400464327
 20
152.05547454501
 30
0.0
 10
225.2353421673822
 20
152.1488021005075
 30
0.0
 10
225.1326285683718
 20
152.3589392585658
 30
0.0
 10
225.0564555891452
 20
152.4729317208302
 30
0.0
 10
224.7629956657442
 20
152.8240543904346
 30
0.0
 10
224.4902121976525
 20
153.063180598273
 30
0.0
 10
224.1580645357879
 20
153.2448202624167
 30
0.0
  0
LINE
  5
166
330
1F
100
AcDbEntity
  8
0
  6
HIDDEN
 62
     7
370
     0
100
AcDbLine
 10
224.1580652361
 20
157.9875469536
 30
0.0
 11
224.1580652361
 21
153.24482027
 31
0.0
  0
LINE
  5
167
330
1F
100
AcDbEntity
  8
0
  6
HIDDEN
 62
     7
370
     0
100
AcDbLine
 10
224.1580652361
 20
151.7907873125
 30
0.0
 11
224.1580652361
 21
155.7387978167
 31
0.0
  0
LINE
  5
168
330
1F
100
AcDbEntity
  8
0
  6
HIDDEN
 62
     7
370
     0
100
AcDbLine
 10
236.1580653405
 20
151.7239202143
 30
0.0
 11
236.1580653405
 21
158.1145346493
 31
0.0
  0
SPLINE
  5
169
330
1F
100
AcDbEntity
  8
0
  6
HIDDEN
 62
     7
370
     0
100
AcDbSpline
210
0.0
220
0.0
230
1.0
 70
     8
 71
     3
 72
     8
 73
     4
 74
     0
 42
0.00000001
 43
0.00000001
 12
1.0
 22
0.0
 32
0.0
 13
1.0
 23
0.0
 33
0.0
 40
0.0
 40
0.0
 40
0.0
 40
0.0
 40
1.0
 40
1.0
 40
1.0
 40
1.0
 10
223.7098731685408
 20
157.1504347971946
 30
0.0
 10
223.7932639228062
 20
157.2719692387172
 30
0.0
 10
223.8767352713062
 20
157.3939500566857
 30
0.0
 10
223.9602469603365
 20
157.5162025652041
 30
0.0
  0
LWPOLYLINE
  5
16A
330
1F
100
AcDbEntity
  8
0
  6
HIDDEN
 62
     7
370
     0
100
AcDbPolyline
 90
       15
 70
   128
 43
0.0
 10
223.8175737029
 20
155.3882014335
 10
223.2698330944
 20
155.3429298432
 10
222.7142172223
 20
155.3624224246
 10
222.1898714369
 20
155.4453045458
 10
221.7337357169
 20
155.5857368142
 10
221.3779425537
 20
155.7738267214
 10
221.1475594258
 20
155.9963215471
 10
221.0588174229
 20
156.2375508577
 10
221.1179675823
 20
156.480514291
 10
221.3208431666
 20
156.7080997259
 10
221.6531520998
 20
156.9042697878
 10
222.0914809322
 20
157.0552092374
 10
222.6049507325
 20
157.1502786458
 10
223.157388932
 20
157.1827836663
 10
223.7098736977
 20
157.150435108
  0
SPLINE
  5
16B
330
1F
100
AcDbEntity
  8
0
  6
HIDDEN
 62
     7
370
     0
100
AcDbSpline
210
0.0
220
0.0
230
1.0
 70
     8
 71
     3
 72
     8
 73
     4
 74
     0
 42
0.00000001
 43
0.00000001
 12
1.0
 22
0.0
 32
0.0
 13
1.0
 23
0.0
 33
0.0
 40
0.0
 40
0.0
 40
0.0
 40
0.0
 40
1.0
 40
1.0
 40
1.0
 40
1.0
 10
224.0656328332402
 20
155.4570628894601
 30
0.0
 10
223.9829433698413
 20
155.4336153356859
 30
0.0
 10
223.9002560575495
 20
155.4105707186183
 30
0.0
 10
223.8175738019468
 20
155.388201525736
 30
0.0
  0
SPLINE
  5
16C
330
1F
100
AcDbEntity
  8
0
  6
HIDDEN
 62
     7
370
     0
100
AcDbSpline
210
0.0
220
0.0
230
1.0
 70
     8
 71
     3
 72
    56
 73
    52
 74
     0
 42
0.00000001
 43
0.00000001
 12
1.0
 22
0.0
 32
0.0
 13
1.0
 23
0.0
 33
0.0
 40
0.0
 40
0.0
 40
0.0
 40
0.0
 40
0.0625000000000004
 40
0.0625000000000004
 40
0.1250000000000008
 40
0.1250000000000008
 40
0.1875000000000012
 40
0.1875000000000012
 40
0.2500000000000016
 40
0.2500000000000016
 40
0.2812500000000018
 40
0.2812500000000018
 40
0.312500000000002
 40
0.312500000000002
 40
0.3437500000000022
 40
0.3437500000000022
 40
0.3750000000000024
 40
0.3750000000000024
 40
0.4062500000000026
 40
0.4062500000000026
 40
0.4375000000000028
 40
0.4375000000000028
 40
0.468750000000003
 40
0.468750000000003
 40
0.5000000000000032
 40
0.5000000000000032
 40
0.5312500000000034
 40
0.5312500000000034
 40
0.5625000000000037
 40
0.5625000000000037
 40
0.5937500000000038
 40
0.5937500000000038
 40
0.625000000000004
 40
0.625000000000004
 40
0.6875000000000038
 40
0.6875000000000038
 40
0.7187500000000034
 40
0.7187500000000034
 40
0.750000000000003
 40
0.750000000000003
 40
0.7812500000000027
 40
0.7812500000000027
 40
0.8125000000000023
 40
0.8125000000000023
 40
0.843750000000002
 40
0.843750000000002
 40
0.8750000000000017
 40
0.8750000000000017
 40
0.9375000000000008
 40
0.9375000000000008
 40
1.0
 40
1.0
 40
1.0
 40
1.0
 10
222.1890739790564
 20
130.1692273349393
 30
0.0
 10
221.9844289652515
 20
130.1692273349393
 30
0.0
 10
221.7977460976761
 20
130.1641354674984
 30
0.0
 10
221.4819642772296
 20
130.1271505642235
 30
0.0
 10
221.3492581878768
 20
130.0945165152332
 30
0.0
 10
221.1550966887375
 20
129.9905549876989
 30
0.0
 10
221.0911094325255
 20
129.9170756789163
 30
0.0
 10
221.0451260964448
 20
129.7321556082713
 30
0.0
 10
221.0624943763586
 20
129.6178487476047
 30
0.0
 10
221.1463015219335
 20
129.4314626932625
 30
0.0
 10
221.184147977071
 20
129.3658728920755
 30
0.0
 10
221.2770769176367
 20
129.2330524788309
 30
0.0
 10
221.3317556932455
 20
129.1661499352159
 30
0.0
 10
221.4570086334895
 20
129.0327033078835
 30
0.0
 10
221.5282482080775
 20
128.9656668507207
 30
0.0
 10
221.6828257765136
 20
128.8374519082207
 30
0.0
 10
221.7663315574524
 20
128.7759459194386
 30
0.0
 10
221.946143717373
 20
128.6599662099651
 30
0.0
 10
222.0433884261641
 20
128.6051038733285
 30
0.0
 10
222.2454878777754
 20
128.5082213565167
 30
0.0
 10
222.3506607605521
 20
128.4658494253283
 30
0.0
 10
222.5698263861846
 20
128.3954442184248
 30
0.0
 10
222.6852413887604
 20
128.3672259899168
 30
0.0
 10
222.9182977983728
 20
128.3295316961146
 30
0.0
 10
223.0355499978421
 20
128.3198744649376
 30
0.0
 10
223.2715126161305
 20
128.3193909738428
 30
0.0
 10
223.3915736136195
 20
128.3288529325842
 30
0.0
 10
223.6249862126552
 20
128.3659550741456
 30
0.0
 10
223.7384734363856
 20
128.3933073468452
 30
0.0
 10
223.9594463560155
 20
128.4635597004388
 30
0.0
 10
224.0671880436816
 20
128.5067421477008
 30
0.0
 10
224.2697145460631
 20
128.6034826053309
 30
0.0
 10
224.3655222184734
 20
128.6573074346683
 30
0.0
 10
224.6373967910783
 20
128.8320213016775
 30
0.0
 10
224.7929198255371
 20
128.9626703499646
 30
0.0
 10
224.9821915054173
 20
129.1635839439011
 30
0.0
 10
225.0378408607302
 20
129.2315551794627
 30
0.0
 10
225.1303349595175
 20
129.3632932902049
 30
0.0
 10
225.1678316313248
 20
129.427720861975
 30
0.0
 10
225.2245850661952
 20
129.5525830678529
 30
0.0
 10
225.2436372737681
 20
129.6131732706832
 30
0.0
 10
225.2610617173088
 20
129.724218952164
 30
0.0
 10
225.2598567943564
 20
129.7754191500411
 30
0.0
 10
225.2373224114935
 20
129.8690839953062
 30
0.0
 10
225.2157440441045
 20
129.9113332351412
 30
0.0
 10
225.1543168989152
 20
129.9841983699659
 30
0.0
 10
225.1143962859435
 20
130.015352294655
 30
0.0
 10
224.9669879534756
 20
130.094793908188
 30
0.0
 10
224.8364297237691
 20
130.1268656232241
 30
0.0
 10
224.5166758922842
 20
130.1643550381358
 30
0.0
 10
224.3343910457079
 20
130.1692273349393
 30
0.0
 10
224.1270550925194
 20
130.1692273349393
 30
0.0
  0
ELLIPSE
  5
16D
330
1F
100
AcDbEntity
  8
0
  6
HIDDEN
 62
     7
370
     0
100
AcDbEllipse
 10
223.1580645358
 20
125.9192273349
 30
0.0
 11
0.0
 21
4.790461268680203
 31
0.0
210
0.0
220
0.0
230
1.0
 40
0.4383711468
 41
5.80358560701228
 42
6.762785007346907
  0
SPLINE
  5
16E
330
1F
100
AcDbEntity
  8
0
  6
HIDDEN
 62
     7
370
     0
100
AcDbSpline
210
0.0
220
0.0
230
1.0
 70
     8
 71
     3
 72
    18
 73
    14
 74
     0
 42
0.00000001
 43
0.00000001
 12
1.0
 22
0.0
 32
0.0
 13
1.0
 23
0.0
 33
0.0
 40
0.0
 40
0.0
 40
0.0
 40
0.0
 40
0.2499999999999998
 40
0.2499999999999998
 40
0.4999999999999996
 40
0.4999999999999996
 40
0.6249999999999997
 40
0.6249999999999997
 40
0.7499999999999998
 40
0.7499999999999998
 40
0.8749999999999999
 40
0.8749999999999999
 40
1.0
 40
1.0
 40
1.0
 40
1.0
 10
224.1580645357879
 20
153.2448202624167
 30
0.0
 10
224.0152948417513
 20
153.575970696409
 30
0.0
 10
223.8775970621308
 20
153.9010799449544
 30
0.0
 10
223.6340498330811
 20
154.5507128049953
 30
0.0
 10
223.5272551290238
 20
154.8748414224809
 30
0.0
 10
223.4335222405149
 20
155.3773794731464
 30
0.0
 10
223.4147399744448
 20
155.5445370358694
 30
0.0
 10
223.4069987828939
 20
155.8760789689861
 30
0.0
 10
223.4179908377499
 20
156.0409045805459
 30
0.0
 10
223.4667094005612
 20
156.3683035428571
 30
0.0
 10
223.5044442887916
 20
156.5311609557796
 30
0.0
 10
223.5964144281157
 20
156.8466110676048
 30
0.0
 10
223.6506705918028
 20
157.0003132054626
 30
0.0
 10
223.7098731685408
 20
157.1504347971945
 30
0.0
  0
SPLINE
  5
16F
330
1F
100
AcDbEntity
  8
0
  6
HIDDEN
 62
     7
370
     0
100
AcDbSpline
210
0.0
220
0.0
230
1.0
 70
     8
 71
     3
 72
    16
 73
    12
 74
     0
 42
0.00000001
 43
0.00000001
 12
1.0
 22
0.0
 32
0.0
 13
1.0
 23
0.0
 33
0.0
 40
0.0
 40
0.0
 40
0.0
 40
0.0
 40
0.2500000000000007
 40
0.2500000000000007
 40
0.3750000000000007
 40
0.3750000000000007
 40
0.5000000000000007
 40
0.5000000000000007
 40
0.7500000000000003
 40
0.7500000000000003
 40
1.0
 40
1.0
 40
1.0
 40
1.0
 10
223.8175738019468
 20
155.388201525736
 30
0.0
 10
223.7162768467695
 20
155.0762520293245
 30
0.0
 10
223.632428809031
 20
154.7641722557088
 30
0.0
 10
223.5650417085216
 20
154.2846211051791
 30
0.0
 10
223.5530307530597
 20
154.1248966015372
 30
0.0
 10
223.552105516387
 20
153.810882484031
 30
0.0
 10
223.5630439233098
 20
153.655747684275
 30
0.0
 10
223.6261122610082
 20
153.1959887334994
 30
0.0
 10
223.7088705122691
 20
152.8949486501774
 30
0.0
 10
223.9122978866189
 20
152.3214132246921
 30
0.0
 10
224.0318984748342
 20
152.0490099271669
 30
0.0
 10
224.1580645357879
 20
151.7907881045844
 30
0.0
  0
LINE
  5
170
330
1F
100
AcDbEntity
  8
0
  6
HIDDEN
 62
     7
370
     0
100
AcDbLine
 10
240.1580659961
 20
137.9192274392
 30
0.0
 11
238.0794396912
 21
137.9192274392
 31
0.0
  0
LINE
  5
171
330
1F
100
AcDbEntity
  8
0
  6
HIDDEN
 62
     7
370
     0
100
AcDbLine
 10
240.1580659961
 20
127.9192274299
 30
0.0
 11
238.0794396912
 21
127.9192274299
 31
0.0
  0
SPLINE
  5
172
330
1F
100
AcDbEntity
  8
0
  6
HIDDEN
 62
     7
370
     0
100
AcDbSpline
210
0.0
220
0.0
230
1.0
 70
    11
 71
     3
 72
    32
 73
    28
 74
     0
 42
0.00000001
 43
0.00000001
 12
1.0
 22
0.0
 32
0.0
 13
1.0
 23
0.0
 33
0.0
 40
-0.0625000000000002
 40
-0.0625000000000002
 40
0.0
 40
0.0
 40
0.0624999999999998
 40
0.0624999999999998
 40
0.1249999999999997
 40
0.1249999999999997
 40
0.2499999999999999
 40
0.2499999999999999
 40
0.3125
 40
0.3125
 40
0.3750000000000001
 40
0.3750000000000001
 40
0.4375000000000002
 40
0.4375000000000002
 40
0.5000000000000003
 40
0.5000000000000003
 40
0.5625000000000004
 40
0.5625000000000004
 40
0.6250000000000006
 40
0.6250000000000006
 40
0.7500000000000001
 40
0.7500000000000001
 40
0.8749999999999997
 40
0.8749999999999997
 40
0.9374999999999998
 40
0.9374999999999998
 40
1.0
 40
1.0
 40
1.0625
 40
1.0625
 10
238.0580645357879
 20
128.0885649486475
 30
0.0
 10
238.0580645357879
 20
128.0885649486475
 30
0.0
 10
238.0654122112271
 20
128.1176104426958
 30
0.0
 10
238.0873488335828
 20
128.2173605184075
 30
0.0
 10
238.1015689695668
 20
128.2877099367723
 30
0.0
 10
238.1398009772456
 20
128.5272332140725
 30
0.0
 10
238.158001930426
 20
128.7242254708973
 30
0.0
 10
238.1580955663314
 20
129.0150378697144
 30
0.0
 10
238.153936720721
 20
129.112936752363
 30
0.0
 10
238.1387206114286
 20
129.2982774040499
 30
0.0
 10
238.127360489928
 20
129.3888211608074
 30
0.0
 10
238.1019850650516
 20
129.5484682799058
 30
0.0
 10
238.087743589819
 20
129.6192055902002
 30
0.0
 10
238.0655941672417
 20
129.720107964161
 30
0.0
 10
238.0581646966405
 20
129.7494797486372
 30
0.0
 10
238.0579665398502
 20
129.7502908325456
 30
0.0
 10
238.0651567284966
 20
129.7219557904552
 30
0.0
 10
238.087291693445
 20
129.6214034411254
 30
0.0
 10
238.1015796091632
 20
129.5506697346602
 30
0.0
 10
238.1397527482273
 20
129.311540284347
 30
0.0
 10
238.1580270211313
 20
129.1142717472043
 30
0.0
 10
238.1581019205156
 20
128.7255316275148
 30
0.0
 10
238.1401572659287
 20
128.5298229916893
 30
0.0
 10
238.1016754492008
 20
128.2882001897355
 30
0.0
 10
238.0874794223217
 20
128.2179820369831
 30
0.0
 10
238.0654553059506
 20
128.1177789140813
 30
0.0
 10
238.0580645357879
 20
128.0885649486475
 30
0.0
 10
238.0580645357879
 20
128.0885649486475
 30
0.0
  0
LINE
  5
173
330
1F
100
AcDbEntity
  8
0
  6
HIDDEN
 62
     7
370
     0
100
AcDbLine
 10
240.1580659961
 20
137.9192274392
 30
0.0
 11
255.1580628669
 21
137.9192274392
 31
0.0
  0
LINE
  5
174
330
1F
100
AcDbEntity
  8
0
  6
HIDDEN
 62
     7
370
     0
100
AcDbLine
 10
255.1580628669
 20
128.6167880383
 30
0.0
 11
249.6580628967
 21
130.0905084566
 31
0.0
  0
LINE
  5
175
330
1F
100
AcDbEntity
  8
0
  6
HIDDEN
 62
     7
370
     0
100
AcDbLine
 10
255.1580628669
 20
128.6167880383
 30
0.0
 11
255.1580628669
 21
137.9192274392
 31
0.0
  0
LINE
  5
176
330
1F
100
AcDbEntity
  8
0
  6
HIDDEN
 62
     7
370
     0
100
AcDbLine
 10
249.6580628967
 20
130.0905084566
 30
0.0
 11
249.6580628967
 21
127.9192274299
 31
0.0
  0
LINE
  5
177
330
1F
100
AcDbEntity
  8
0
  6
HIDDEN
 62
     7
370
     0
100
AcDbLine
 10
240.1580659961
 20
127.9192274299
 30
0.0
 11
249.6580628967
 21
127.9192274299
 31
0.0
  0
LINE
  5
178
330
1F
100
AcDbEntity
  8
0
  6
HIDDEN
 62
     7
370
     0
100
AcDbLine
 10
194.9580645477
 20
112.8363253877
 30
0.0
 11
194.9580645477
 21
109.5191285343
 31
0.0
  0
LINE
  5
179
330
1F
100
AcDbEntity
  8
0
  6
HIDDEN
 62
     7
370
     0
100
AcDbLine
 10
168.6580645209
 20
113.4085495354
 30
0.0
 11
168.6580645209
 21
110.3864301325
 31
0.0
  0
SPLINE
  5
17A
330
1F
100
AcDbEntity
  8
0
  6
HIDDEN
 62
     7
370
     0
100
AcDbSpline
210
0.0
220
0.0
230
1.0
 70
     8
 71
     3
 72
     8
 73
     4
 74
     0
 42
0.00000001
 43
0.00000001
 12
1.0
 22
0.0
 32
0.0
 13
1.0
 23
0.0
 33
0.0
 40
0.0000202082942178
 40
0.0000202082942178
 40
0.0000202082942178
 40
0.0000202082942178
 40
0.0040218803475995
 40
0.0040218803475995
 40
0.0040218803475995
 40
0.0040218803475995
 10
172.6580645357879
 20
110.2943635765019
 30
0.0
 10
171.3247215348011
 20
110.3251166532319
 30
0.0
 10
169.9913876615786
 20
110.3558056647155
 30
0.0
 10
168.6580645357879
 20
110.3864305765289
 30
0.0
  0
SPLINE
  5
17B
330
1F
100
AcDbEntity
  8
0
  6
HIDDEN
 62
     7
370
     0
100
AcDbSpline
210
0.0
220
0.0
230
1.0
 70
     8
 71
     3
 72
    12
 73
     8
 74
     0
 42
0.00000001
 43
0.00000001
 12
1.0
 22
0.0
 32
0.0
 13
1.0
 23
0.0
 33
0.0
 40
0.0
 40
0.0
 40
0.0
 40
0.0
 40
0.0583245778705122
 40
0.2535553028598371
 40
0.5293292863279843
 40
0.8119597681484104
 40
0.9999999999999999
 40
0.9999999999999999
 40
0.9999999999999999
 40
0.9999999999999999
 10
174.5151484673532
 20
110.0351147682298
 30
0.0
 10
174.5237822678564
 20
110.034212418923
 30
0.0
 10
174.5613161169018
 20
110.0302896223915
 30
0.0
 10
174.2983353126096
 20
110.0575468794273
 30
0.0
 10
173.8052204925859
 20
110.1165726001601
 30
0.0
 10
173.2085382661944
 20
110.201056744078
 30
0.0
 10
172.8152070733144
 20
110.2677273639401
 30
0.0
 10
172.6580651765378
 20
110.2943633080352
 30
0.0
  0
SPLINE
  5
17C
330
1F
100
AcDbEntity
  8
0
  6
HIDDEN
 62
     7
370
     0
100
AcDbSpline
210
0.0
220
0.0
230
1.0
 70
     8
 71
     3
 72
    16
 73
    12
 74
     0
 42
0.00000001
 43
0.00000001
 12
1.0
 22
0.0
 32
0.0
 13
1.0
 23
0.0
 33
0.0
 40
0.0
 40
0.0
 40
0.0
 40
0.0
 40
0.0296582437132657
 40
0.1194911902389409
 40
0.2591629481515971
 40
0.4048882018254321
 40
0.554016435435063
 40
0.7027433663977412
 40
0.8459041681037905
 40
0.9792778431130855
 40
1.0
 40
1.0
 40
1.0
 40
1.0
 10
180.687123752168
 20
109.9644385606874
 30
0.0
 10
180.7482857241323
 20
109.9677057737429
 30
0.0
 10
180.9947034452227
 20
109.9808691687351
 30
0.0
 10
181.4968100968226
 20
110.0126838190219
 30
0.0
 10
182.4630732162519
 20
110.0346201188552
 30
0.0
 10
183.6277506448625
 20
110.0144072665764
 30
0.0
 10
184.781581470212
 20
109.9433798018406
 30
0.0
 10
185.7629349219275
 20
109.8431163650506
 30
0.0
 10
186.3848416474167
 20
109.7616403861281
 30
0.0
 10
186.6471761450121
 20
109.7232994896371
 30
0.0
 10
186.5921620641221
 20
109.7311927963401
 30
0.0
 10
186.5847640027912
 20
109.7322542549003
 30
0.0
  0
SPLINE
  5
17D
330
1F
100
AcDbEntity
  8
0
  6
HIDDEN
 62
     7
370
     0
100
AcDbSpline
210
0.0
220
0.0
230
1.0
 70
     8
 71
     3
 72
    11
 73
     7
 74
     0
 42
0.00000001
 43
0.00000001
 12
1.0
 22
0.0
 32
0.0
 13
1.0
 23
0.0
 33
0.0
 40
0.0
 40
0.0
 40
0.0
 40
0.0
 40
0.2241121256270757
 40
0.6644880310353564
 40
0.7383571190240618
 40
1.0
 40
1.0
 40
1.0
 40
1.0
 10
179.921250632933
 20
109.9022318006385
 30
0.0
 10
179.9135958739921
 20
109.9014341489987
 30
0.0
 10
179.8908996647511
 20
109.8990691276234
 30
0.0
 10
180.0823624460973
 20
109.919088705559
 30
0.0
 10
180.4286353555449
 20
109.9448661430836
 30
0.0
 10
180.5738672847743
 20
109.955862922844
 30
0.0
 10
180.687123752168
 20
109.9644385606874
 30
0.0
  0
LINE
  5
17E
330
1F
100
AcDbEntity
  8
0
  6
HIDDEN
 62
     7
370
     0
100
AcDbLine
 10
196.9580645408
 20
112.3334624202
 30
0.0
 11
196.9580645408
 21
109.4739053727
 31
0.0
  0
LINE
  5
17F
330
1F
100
AcDbEntity
  8
0
  6
HIDDEN
 62
     7
370
     0
100
AcDbLine
 10
172.1861044233
 20
115.1305519373
 30
0.0
 11
172.1861044233
 21
136.7079027326
 31
0.0
  0
LINE
  5
180
330
1F
100
AcDbEntity
  8
0
  6
HIDDEN
 62
     7
370
     0
100
AcDbLine
 10
168.1861037677
 20
114.7493541569
 30
0.0
 11
168.1861037677
 21
137.0891005129
 31
0.0
  0
LINE
  5
181
330
1F
100
AcDbEntity
  8
0
  6
HIDDEN
 62
     7
370
     0
100
AcDbLine
 10
167.1580652063
 20
114.1558148296
 30
0.0
 11
167.1580652063
 21
137.6826398403
 31
0.0
  0
LINE
  5
182
330
1F
100
AcDbEntity
  8
0
  6
HIDDEN
 62
     7
370
     0
100
AcDbLine
 10
176.7861040597
 20
115.4192274765
 30
0.0
 11
176.7861040597
 21
136.4192271934
 31
0.0
  0
LINE
  5
183
330
1F
100
AcDbEntity
  8
0
  6
HIDDEN
 62
     7
370
     0
100
AcDbLine
 10
170.6861051088
 20
115.4192274765
 30
0.0
 11
170.6861051088
 21
136.4192271934
 31
0.0
  0
LINE
  5
184
330
1F
100
AcDbEntity
  8
0
  6
HIDDEN
 62
     7
370
     0
100
AcDbLine
 10
171.6861052727
 20
115.4192274765
 30
0.0
 11
171.6861052727
 21
136.4192271934
 31
0.0
  0
LINE
  5
185
330
1F
100
AcDbEntity
  8
0
  6
HIDDEN
 62
     7
370
     0
100
AcDbLine
 10
187.1580647593
 20
115.9192275585
 30
0.0
 11
187.1580647593
 21
135.9192271114
 31
0.0
  0
SPLINE
  5
186
330
1F
100
AcDbEntity
  8
0
  6
HIDDEN
 62
     7
370
     0
100
AcDbSpline
210
0.0
220
0.0
230
1.0
 70
    11
 71
     3
 72
    30
 73
    26
 74
     0
 42
0.00000001
 43
0.00000001
 12
1.0
 22
0.0
 32
0.0
 13
1.0
 23
0.0
 33
0.0
 40
0.0
 40
0.0
 40
0.0
 40
0.0
 40
0.0167945391191469
 40
0.0287430528963048
 40
0.0689255073179209
 40
0.1210019472404334
 40
0.1744805819230281
 40
0.2289689072615329
 40
0.2666943248996874
 40
0.2819785465530247
 40
0.33341708767606
 40
0.3854467187299419
 40
0.439359300631715
 40
0.4937057810274156
 40
0.5461381266210147
 40
0.5973368675877953
 40
0.6498510488703312
 40
0.7041945522564445
 40
0.7580976477479218
 40
0.7668392243737877
 40
0.8100525557285916
 40
0.8615306422127935
 40
0.9145888650707669
 40
0.9690762876519994
 40
1.0
 40
1.0
 40
1.0
 40
1.0
 10
182.8399271061333
 20
115.8576820374358
 30
0.0
 10
182.9461154032585
 20
115.8654877312057
 30
0.0
 10
183.1278516104616
 20
115.8788468038975
 30
0.0
 10
183.5606474541806
 20
115.8467168668938
 30
0.0
 10
184.2339753680684
 20
115.8378247404418
 30
0.0
 10
185.0597520358439
 20
115.7000052595634
 30
0.0
 10
185.7485137549139
 20
115.5495758495748
 30
0.0
 10
186.1729654198603
 20
115.4295261419078
 30
0.0
 10
186.1514072367172
 20
115.4354986567802
 30
0.0
 10
186.2324078546371
 20
115.4122555369178
 30
0.0
 10
185.9729255349025
 20
115.4876473979929
 30
0.0
 10
185.4360506674226
 20
115.6238881541422
 30
0.0
 10
184.612693108773
 20
115.7812387787649
 30
0.0
 10
183.6227846525051
 20
115.8790443705
 30
0.0
 10
182.5915645851935
 20
115.8724141332622
 30
0.0
 10
181.6428310578216
 20
115.7708844123131
 30
0.0
 10
180.8404640885724
 20
115.6150537547839
 30
0.0
 10
180.310138491778
 20
115.4785416682247
 30
0.0
 10
180.06912599156
 20
115.4081028117639
 30
0.0
 10
180.1626771050326
 20
115.4348394019974
 30
0.0
 10
180.162058540056
 20
115.4352503601043
 30
0.0
 10
180.6043276733985
 20
115.5581801345365
 30
0.0
 10
181.3002858103614
 20
115.7097017415149
 30
0.0
 10
182.0963264342058
 20
115.8345780850525
 30
0.0
 10
182.6422658393792
 20
115.8515406275803
 30
0.0
 10
182.8399271061333
 20
115.8576820374358
 30
0.0
  0
SPLINE
  5
187
330
1F
100
AcDbEntity
  8
0
  6
HIDDEN
 62
     7
370
     0
100
AcDbSpline
210
0.0
220
0.0
230
1.0
 70
    11
 71
     3
 72
    30
 73
    26
 74
     0
 42
0.00000001
 43
0.00000001
 12
1.0
 22
0.0
 32
0.0
 13
1.0
 23
0.0
 33
0.0
 40
0.0
 40
0.0
 40
0.0
 40
0.0
 40
0.0167945869693447
 40
0.0287430528133602
 40
0.0689255548089839
 40
0.1210019518957203
 40
0.1744805535137434
 40
0.2289688977253665
 40
0.266694315103633
 40
0.2819785401129861
 40
0.3334170932446474
 40
0.3854467239401003
 40
0.4393593054704729
 40
0.493705785491784
 40
0.5461381307241799
 40
0.5973368713382555
 40
0.6498510146267812
 40
0.7041945176385255
 40
0.7580976343536678
 40
0.7668392162134516
 40
0.8100525472705616
 40
0.8615306334001342
 40
0.9145888227104635
 40
0.9690762878650311
 40
1.0
 40
1.0
 40
1.0
 40
1.0
 10
183.4762020324977
 20
135.9807726324428
 30
0.0
 10
183.3700134175898
 20
135.9729669188073
 30
0.0
 10
183.1882771848353
 20
135.9596078502169
 30
0.0
 10
182.7554811179516
 20
135.9917378718863
 30
0.0
 10
182.0821533504249
 20
136.0006298179677
 30
0.0
 10
181.2563768706924
 20
136.138449430569
 30
0.0
 10
180.5676167317753
 20
136.2888789010699
 30
0.0
 10
180.1431630726951
 20
136.4089285102862
 30
0.0
 10
180.1647227189431
 20
136.4029560164051
 30
0.0
 10
180.0837191388891
 20
136.4261991316224
 30
0.0
 10
180.3432043653151
 20
136.3508072898914
 30
0.0
 10
180.8800782463008
 20
136.214566513503
 30
0.0
 10
181.703436090903
 20
136.0572158924614
 30
0.0
 10
182.6933444731107
 20
135.959410296308
 30
0.0
 10
183.724564546986
 20
135.9660405470401
 30
0.0
 10
184.6732978898653
 20
136.0675701948835
 30
0.0
 10
185.4756645366155
 20
136.223400983228
 30
0.0
 10
186.0059882153456
 20
136.3599130220007
 30
0.0
 10
186.2470061450146
 20
136.4303518558068
 30
0.0
 10
186.1534504582251
 20
136.4036152743824
 30
0.0
 10
186.1540714048211
 20
136.403204297074
 30
0.0
 10
185.7118011580897
 20
136.28027460652
 30
0.0
 10
185.0158442114211
 20
136.128752787353
 30
0.0
 10
184.219802901103
 20
136.0038766203768
 30
0.0
 10
183.6738632785591
 20
135.9869140494809
 30
0.0
 10
183.4762020324977
 20
135.9807726324428
 30
0.0
  0
LINE
  5
188
330
1F
100
AcDbEntity
  8
0
  6
HIDDEN
 62
     7
370
     0
100
AcDbLine
 10
188.1580649232
 20
118.6692275436
 30
0.0
 11
188.1580649232
 21
133.1692271263
 31
0.0
  0
LINE
  5
189
330
1F
100
AcDbEntity
  8
0
  6
HIDDEN
 62
     7
370
     0
100
AcDbLine
 10
187.1580647593
 20
117.6738346324
 30
0.0
 11
187.1580647593
 21
134.1646200375
 31
0.0
  0
LINE
  5
18A
330
1F
100
AcDbEntity
  8
0
  6
HIDDEN
 62
     7
370
     0
100
AcDbLine
 10
212.1580642005
 20
118.6692275436
 30
0.0
 11
212.1580642005
 21
133.1692271263
 31
0.0
  0
LINE
  5
18B
330
1F
100
AcDbEntity
  8
0
  6
HIDDEN
 62
     7
370
     0
100
AcDbLine
 10
213.9606455629
 20
121.669227104
 30
0.0
 11
213.9606455629
 21
130.1692275659
 31
0.0
  0
LINE
  5
18C
330
1F
100
AcDbEntity
  8
0
  6
HIDDEN
 62
     7
370
     0
100
AcDbLine
 10
239.276848576
 20
132.919227551
 30
0.0
 11
250.2392789637
 21
132.919227551
 31
0.0
  0
LINE
  5
18D
330
1F
100
AcDbEntity
  8
0
  6
HIDDEN
 62
     7
370
     0
100
AcDbLine
 10
239.276848576
 20
137.9192274392
 30
0.0
 11
250.2392789637
 21
137.9192274392
 31
0.0
  0
LINE
  5
18E
330
1F
100
AcDbEntity
  8
0
  6
HIDDEN
 62
     7
370
     0
100
AcDbLine
 10
194.9580645477
 20
143.1820270003
 30
0.0
 11
194.9580645477
 21
144.5593264283
 31
0.0
  0
LINE
  5
18F
330
1F
100
AcDbEntity
  8
0
  6
HIDDEN
 62
     7
370
     0
100
AcDbLine
 10
168.6580645209
 20
142.6098019213
 30
0.0
 11
168.6580645209
 21
143.8985791386
 31
0.0
  0
SPLINE
  5
190
330
1F
100
AcDbEntity
  8
0
  6
HIDDEN
 62
     7
370
     0
100
AcDbSpline
210
0.0
220
0.0
230
1.0
 70
     8
 71
     3
 72
    10
 73
     6
 74
     0
 42
0.00000001
 43
0.00000001
 12
1.0
 22
0.0
 32
0.0
 13
1.0
 23
0.0
 33
0.0
 40
0.0
 40
0.0
 40
0.0
 40
0.0
 40
0.359941185125859
 40
0.7301023657646475
 40
1.0
 40
1.0
 40
1.0
 40
1.0
 10
195.8367442302095
 20
143.466031956755
 30
0.0
 10
195.7502806763551
 20
143.656183146351
 30
0.0
 10
195.5748985644152
 20
144.0418845862362
 30
0.0
 10
195.4448607676122
 20
144.3329765578844
 30
0.0
 10
195.4399732661101
 20
144.3438623605909
 30
0.0
 10
195.4379123225497
 20
144.3484526456225
 30
0.0
  0
LINE
  5
191
330
1F
100
AcDbEntity
  8
0
  6
HIDDEN
 62
     7
370
     0
100
AcDbLine
 10
167.1580652063
 20
141.8598022641
 30
0.0
 11
167.1580652063
 21
143.0325534523
 31
0.0
  0
LINE
  5
192
330
1F
100
AcDbEntity
  8
0
  6
HIDDEN
 62
     7
370
     0
100
AcDbLine
 10
227.1580638652
 20
121.669227104
 30
0.0
 11
227.1580638652
 21
130.1692275659
 31
0.0
  0
SPLINE
  5
193
330
1F
100
AcDbEntity
  8
0
  6
HIDDEN
 62
     7
370
     0
100
AcDbSpline
210
0.0
220
0.0
230
1.0
 70
     8
 71
     3
 72
    56
 73
    52
 74
     0
 42
0.00000001
 43
0.00000001
 12
1.0
 22
0.0
 32
0.0
 13
1.0
 23
0.0
 33
0.0
 40
0.0
 40
0.0
 40
0.0
 40
0.0
 40
0.0625000000000001
 40
0.0625000000000001
 40
0.1250000000000002
 40
0.1250000000000002
 40
0.1875000000000002
 40
0.1875000000000002
 40
0.2500000000000003
 40
0.2500000000000003
 40
0.2812500000000004
 40
0.2812500000000004
 40
0.3125000000000006
 40
0.3125000000000006
 40
0.3437500000000006
 40
0.3437500000000006
 40
0.3750000000000007
 40
0.3750000000000007
 40
0.4062500000000008
 40
0.4062500000000008
 40
0.4375000000000009
 40
0.4375000000000009
 40
0.468750000000001
 40
0.468750000000001
 40
0.5000000000000011
 40
0.5000000000000011
 40
0.5312500000000011
 40
0.5312500000000011
 40
0.5625000000000012
 40
0.5625000000000012
 40
0.5937500000000012
 40
0.5937500000000012
 40
0.6250000000000013
 40
0.6250000000000013
 40
0.6875000000000007
 40
0.6875000000000007
 40
0.7187500000000007
 40
0.7187500000000007
 40
0.7500000000000006
 40
0.7500000000000006
 40
0.7812500000000004
 40
0.7812500000000004
 40
0.8125000000000004
 40
0.8125000000000004
 40
0.8437500000000003
 40
0.8437500000000003
 40
0.8750000000000002
 40
0.8750000000000002
 40
0.9375000000000001
 40
0.9375000000000001
 40
1.0
 40
1.0
 40
1.0
 40
1.0
 10
224.1270550925194
 20
130.1692273349393
 30
0.0
 10
224.3317001063243
 20
130.1692273349393
 30
0.0
 10
224.5183829738997
 20
130.1641354674984
 30
0.0
 10
224.8341647943462
 20
130.1271505642235
 30
0.0
 10
224.966870883699
 20
130.0945165152332
 30
0.0
 10
225.1610323828383
 20
129.9905549876989
 30
0.0
 10
225.2250196390503
 20
129.9170756789163
 30
0.0
 10
225.2710029751311
 20
129.7321556082713
 30
0.0
 10
225.2536346952172
 20
129.6178487476047
 30
0.0
 10
225.1698275496423
 20
129.4314626932625
 30
0.0
 10
225.1319810945048
 20
129.3658728920755
 30
0.0
 10
225.0390521539391
 20
129.2330524788309
 30
0.0
 10
224.9843733783303
 20
129.1661499352159
 30
0.0
 10
224.8591204380863
 20
129.0327033078835
 30
0.0
 10
224.7878808634983
 20
128.9656668507207
 30
0.0
 10
224.6333032950622
 20
128.8374519082207
 30
0.0
 10
224.5497975141234
 20
128.7759459194386
 30
0.0
 10
224.3699853542028
 20
128.6599662099652
 30
0.0
 10
224.2727406454117
 20
128.6051038733285
 30
0.0
 10
224.0706411938004
 20
128.5082213565167
 30
0.0
 10
223.9654683110237
 20
128.4658494253283
 30
0.0
 10
223.7463026853912
 20
128.3954442184248
 30
0.0
 10
223.6308876828154
 20
128.3672259899168
 30
0.0
 10
223.397831273203
 20
128.3295316961146
 30
0.0
 10
223.2805790737337
 20
128.3198744649376
 30
0.0
 10
223.0446164554454
 20
128.3193909738428
 30
0.0
 10
222.9245554579563
 20
128.3288529325842
 30
0.0
 10
222.6911428589206
 20
128.3659550741456
 30
0.0
 10
222.5776556351902
 20
128.3933073468452
 30
0.0
 10
222.3566827155603
 20
128.4635597004388
 30
0.0
 10
222.2489410278942
 20
128.5067421477008
 30
0.0
 10
222.0464145255127
 20
128.6034826053308
 30
0.0
 10
221.9506068531024
 20
128.6573074346683
 30
0.0
 10
221.6787322804976
 20
128.8320213016775
 30
0.0
 10
221.5232092460387
 20
128.9626703499646
 30
0.0
 10
221.3339375661585
 20
129.1635839439011
 30
0.0
 10
221.2782882108456
 20
129.2315551794627
 30
0.0
 10
221.1857941120583
 20
129.3632932902049
 30
0.0
 10
221.148297440251
 20
129.427720861975
 30
0.0
 10
221.0915440053806
 20
129.5525830678529
 30
0.0
 10
221.0724917978077
 20
129.6131732706832
 30
0.0
 10
221.055067354267
 20
129.724218952164
 30
0.0
 10
221.0562722772194
 20
129.7754191500411
 30
0.0
 10
221.0788066600823
 20
129.8690839953062
 30
0.0
 10
221.1003850274713
 20
129.9113332351412
 30
0.0
 10
221.1618121726607
 20
129.9841983699659
 30
0.0
 10
221.2017327856323
 20
130.015352294655
 30
0.0
 10
221.3491411181002
 20
130.094793908188
 30
0.0
 10
221.4796993478067
 20
130.1268656232241
 30
0.0
 10
221.7994531792916
 20
130.1643550381358
 30
0.0
 10
221.981738025868
 20
130.1692273349393
 30
0.0
 10
222.1890739790564
 20
130.1692273349393
 30
0.0
  0
LINE
  5
194
330
1F
100
AcDbEntity
  8
0
  6
HIDDEN
 62
     7
370
     0
100
AcDbLine
 10
180.1080646282
 20
110.1289101274
 30
0.0
 11
186.2080645105
 21
110.1289101274
 31
0.0
  0
LINE
  5
195
330
1F
100
AcDbEntity
  8
0
  6
HIDDEN
 62
     7
370
     0
100
AcDbLine
 10
172.6580651765
 20
110.294363308
 30
0.0
 11
172.6580651765
 21
111.9192269028
 31
0.0
  0
SPLINE
  5
196
330
1F
100
AcDbEntity
  8
0
  6
HIDDEN
 62
     7
370
     0
100
AcDbSpline
210
0.0
220
0.0
230
1.0
 70
     8
 71
     3
 72
     8
 73
     4
 74
     0
 42
0.00000001
 43
0.00000001
 12
1.0
 22
0.0
 32
0.0
 13
1.0
 23
0.0
 33
0.0
 40
0.0
 40
0.0
 40
0.0
 40
0.0
 40
1.0
 40
1.0
 40
1.0
 40
1.0
 10
168.6580645357879
 20
110.3864305765289
 30
0.0
 10
168.1370122933272
 20
110.6614607031856
 30
0.0
 10
167.6322759462256
 20
110.9226474773359
 30
0.0
 10
167.1580645357879
 20
111.1639583512949
 30
0.0
  0
LINE
  5
197
330
1F
100
AcDbEntity
  8
0
  6
HIDDEN
 62
     7
370
     0
100
AcDbLine
 10
167.1580652063
 20
111.1639587537
 30
0.0
 11
167.1580652063
 21
111.9192269028
 31
0.0
  0
LINE
  5
198
330
1F
100
AcDbEntity
  8
0
  6
HIDDEN
 62
     7
370
     0
100
AcDbLine
 10
241.5627574837
 20
132.919227551
 30
0.0
 11
247.9533700561
 21
132.919227551
 31
0.0
  0
LINE
  5
199
330
1F
100
AcDbEntity
  8
0
  6
HIDDEN
 62
     7
370
     0
100
AcDbLine
 10
241.5627574837
 20
127.9192274299
 30
0.0
 11
247.9533700561
 21
127.9192274299
 31
0.0
  0
LINE
  5
19A
330
1F
100
AcDbEntity
  8
0
  6
HIDDEN
 62
     7
370
     0
100
AcDbLine
 10
180.1080646282
 20
139.9192277671
 30
0.0
 11
186.2080645105
 21
139.9192277671
 31
0.0
  0
LINE
  5
19B
330
1F
100
AcDbEntity
  8
0
  6
HIDDEN
 62
     7
370
     0
100
AcDbLine
 10
242.508064798
 20
109.919226575
 30
0.0
 11
247.0080627417
 21
109.919226575
 31
0.0
  0
LINE
  5
19C
330
1F
100
AcDbEntity
  8
0
  6
HIDDEN
 62
     7
370
     0
100
AcDbLine
 10
242.508064798
 20
125.9192273349
 30
0.0
 11
247.0080627417
 21
125.9192273349
 31
0.0
  0
LINE
  5
19D
330
1F
100
AcDbEntity
  8
0
  6
HIDDEN
 62
     7
370
     0
100
AcDbLine
 10
207.1580643123
 20
101.4192279757
 30
0.0
 11
211.1580649679
 21
101.4192279757
 31
0.0
  0
SPLINE
  5
19E
330
1F
100
AcDbEntity
  8
0
  6
HIDDEN
 62
     7
370
     0
100
AcDbSpline
210
0.0
220
0.0
230
1.0
 70
     8
 71
     3
 72
    14
 73
    10
 74
     0
 42
0.00000001
 43
0.00000001
 12
1.0
 22
0.0
 32
0.0
 13
1.0
 23
0.0
 33
0.0
 40
0.0
 40
0.0
 40
0.0
 40
0.0
 40
0.25
 40
0.25
 40
0.5
 40
0.5
 40
0.75
 40
0.75
 40
1.0
 40
1.0
 40
1.0
 40
1.0
 10
224.1580645357879
 20
151.7907881045844
 30
0.0
 10
224.0323242878944
 20
152.0481384231851
 30
0.0
 10
223.9135432857799
 20
152.3188053633345
 30
0.0
 10
223.7117182303099
 20
152.8860347059753
 30
0.0
 10
223.6286035925122
 20
153.1825976466774
 30
0.0
 10
223.5415046755995
 20
153.808103067902
 30
0.0
 10
223.5429449131579
 20
154.1240146458856
 30
0.0
 10
223.6304982558455
 20
154.7537322070991
 30
0.0
 10
223.7147909205431
 20
155.0716760384943
 30
0.0
 10
223.8175738019468
 20
155.388201525736
 30
0.0
  0
SPLINE
  5
19F
330
1F
100
AcDbEntity
  8
0
  6
HIDDEN
 62
     7
370
     0
100
AcDbSpline
210
0.0
220
0.0
230
1.0
 70
     8
 71
     3
 72
    22
 73
    18
 74
     0
 42
0.00000001
 43
0.00000001
 12
1.0
 22
0.0
 32
0.0
 13
1.0
 23
0.0
 33
0.0
 40
0.0
 40
0.0
 40
0.0
 40
0.0
 40
0.125
 40
0.125
 40
0.25
 40
0.25
 40
0.375
 40
0.375
 40
0.5
 40
0.5
 40
0.625
 40
0.625
 40
0.75
 40
0.75
 40
0.875
 40
0.875
 40
1.0
 40
1.0
 40
1.0
 40
1.0
 10
224.1580645357879
 20
153.2448202624167
 30
0.0
 10
224.3240326648801
 20
153.1540582348966
 30
0.0
 10
224.4726679083126
 20
153.0499155072054
 30
0.0
 10
224.7407427687342
 20
152.8271585619471
 30
0.0
 10
224.8593995264269
 20
152.7083248712747
 30
0.0
 10
225.0530047341065
 20
152.4774341193696
 30
0.0
 10
225.1309130240746
 20
152.3615010127042
 30
0.0
 10
225.2336062954709
 20
152.1532699387354
 30
0.0
 10
225.2596711116481
 20
152.0592850280706
 30
0.0
 10
225.2563033042598
 20
151.9035488944547
 30
0.0
 10
225.2272379348217
 20
151.8435392320005
 30
0.0
 10
225.1190412524549
 20
151.7585016217478
 30
0.0
 10
225.0416636378513
 20
151.7344533541263
 30
0.0
 10
224.8464503783679
 20
151.7146902118448
 30
0.0
 10
224.7316478304363
 20
151.719141185429
 30
0.0
 10
224.4675198328437
 20
151.7454537173362
 30
0.0
 10
224.3205861317609
 20
151.7672556204449
 30
0.0
 10
224.1580645357879
 20
151.7907881045844
 30
0.0
  0
SPLINE
  5
1A0
330
1F
100
AcDbEntity
  8
0
  6
HIDDEN
 62
     7
370
     0
100
AcDbSpline
210
0.0
220
0.0
230
1.0
 70
     8
 71
     3
 72
    18
 73
    14
 74
     0
 42
0.00000001
 43
0.00000001
 12
1.0
 22
0.0
 32
0.0
 13
1.0
 23
0.0
 33
0.0
 40
0.0
 40
0.0
 40
0.0
 40
0.0
 40
0.2499999999999991
 40
0.2499999999999991
 40
0.3749999999999997
 40
0.3749999999999997
 40
0.5000000000000003
 40
0.5000000000000003
 40
0.625000000000001
 40
0.625000000000001
 40
0.7500000000000016
 40
0.7500000000000016
 40
1.0
 40
1.0
 40
1.0
 40
1.0
 10
223.7098731685408
 20
157.1504347971945
 30
0.0
 10
223.5920219756398
 20
156.8515963066994
 30
0.0
 10
223.4926920272432
 20
156.5393459697239
 30
0.0
 10
223.4182662585568
 20
156.0444996020237
 30
0.0
 10
223.407129416315
 20
155.8788217747902
 30
0.0
 10
223.4144586617303
 20
155.5484129147363
 30
0.0
 10
223.4328036964581
 20
155.3833719897478
 30
0.0
 10
223.4936977422354
 20
155.0527185711078
 30
0.0
 10
223.5363475926736
 20
154.8862059319134
 30
0.0
 10
223.6361646835777
 20
154.5565575074602
 30
0.0
 10
223.6932007971993
 20
154.3931191371449
 30
0.0
 10
223.8766913162448
 20
153.9031336348956
 30
0.0
 10
224.0149449387027
 20
153.5767822870422
 30
0.0
 10
224.1580645357879
 20
153.2448202624167
 30
0.0
  0
LWPOLYLINE
  5
1A1
330
1F
100
AcDbEntity
  8
0
  6
HIDDEN
 62
     7
370
     0
100
AcDbPolyline
 90
       15
 70
   128
 43
0.0
 10
223.8175737029
 20
155.3882014335
 10
223.2698330944
 20
155.3429298432
 10
222.7142172223
 20
155.3624224246
 10
222.1898714369
 20
155.4453045458
 10
221.7337357169
 20
155.5857368142
 10
221.3779425537
 20
155.7738267214
 10
221.1475594258
 20
155.9963215471
 10
221.0588174229
 20
156.2375508577
 10
221.1179675823
 20
156.480514291
 10
221.3208431666
 20
156.7080997259
 10
221.6531520998
 20
156.9042697878
 10
222.0914809322
 20
157.0552092374
 10
222.6049507325
 20
157.1502786458
 10
223.157388932
 20
157.1827836663
 10
223.7098736977
 20
157.150435108
  0
LINE
  5
1A2
330
1F
100
AcDbEntity
  8
0
  6
HIDDEN
 62
     7
370
     0
100
AcDbLine
 10
167.1580652063
 20
114.1585491926
 30
0.0
 11
167.1580652063
 21
111.1639587537
 31
0.0
  0
LINE
  5
1A3
330
1F
100
AcDbEntity
  8
0
  6
HIDDEN
 62
     7
370
     0
100
AcDbLine
 10
167.1580652063
 20
141.8598022641
 30
0.0
 11
167.1580652063
 21
121.7393305481
 31
0.0
  0
LINE
  5
1A4
330
1F
100
AcDbEntity
  8
0
  6
HIDDEN
 62
     7
370
     0
100
AcDbLine
 10
168.6580645209
 20
142.6098019213
 30
0.0
 11
168.6580645209
 21
121.7393305481
 31
0.0
  0
LINE
  5
1A5
330
1F
100
AcDbEntity
  8
0
  6
HIDDEN
 62
     7
370
     0
100
AcDbLine
 10
194.9580645477
 20
143.1820270003
 30
0.0
 11
194.9580645477
 21
121.7393305481
 31
0.0
  0
LINE
  5
1A6
330
1F
100
AcDbEntity
  8
0
  6
HIDDEN
 62
     7
370
     0
100
AcDbLine
 10
196.9580645408
 20
142.7253324867
 30
0.0
 11
196.9580645408
 21
122.6988863994
 31
0.0
  0
SPLINE
  5
1A7
330
1F
100
AcDbEntity
  8
0
  6
HIDDEN
 62
     7
370
     0
100
AcDbSpline
210
0.0
220
0.0
230
1.0
 70
     8
 71
     3
 72
    26
 73
    22
 74
     0
 42
0.00000001
 43
0.00000001
 12
1.0
 22
0.0
 32
0.0
 13
1.0
 23
0.0
 33
0.0
 40
0.0
 40
0.0
 40
0.0
 40
0.0
 40
0.1250000000000002
 40
0.1250000000000002
 40
0.2500000000000004
 40
0.2500000000000004
 40
0.3125000000000014
 40
0.3125000000000014
 40
0.3750000000000024
 40
0.3750000000000024
 40
0.4375000000000034
 40
0.4375000000000034
 40
0.5000000000000044
 40
0.5000000000000044
 40
0.6250000000000033
 40
0.6250000000000033
 40
0.7500000000000022
 40
0.7500000000000022
 40
0.8750000000000011
 40
0.8750000000000011
 40
1.0
 40
1.0
 40
1.0
 40
1.0
 10
224.1580645357879
 20
155.7387977611542
 30
0.0
 10
224.3736407661573
 20
155.877872243591
 30
0.0
 10
224.5647470094302
 20
156.0390242300462
 30
0.0
 10
224.9145280752114
 20
156.3813557742156
 30
0.0
 10
225.0725870399085
 20
156.5639507027163
 30
0.0
 10
225.2717461539754
 20
156.8316708995062
 30
0.0
 10
225.3323489425879
 20
156.920550109357
 30
0.0
 10
225.440957726987
 20
157.0966631402405
 30
0.0
 10
225.4890980431724
 20
157.1844018989816
 30
0.0
 10
225.5676399576667
 20
157.3506147987445
 30
0.0
 10
225.5985981194779
 20
157.4298701830315
 30
0.0
 10
225.6424595073127
 20
157.5796445752795
 30
0.0
 10
225.6550490690297
 20
157.6498879230809
 30
0.0
 10
225.6626304956547
 20
157.8373303998378
 30
0.0
 10
225.6270228908682
 20
157.9358356388422
 30
0.0
 10
225.4834768396516
 20
158.0680998937036
 30
0.0
 10
225.3750304837604
 20
158.1036906878269
 30
0.0
 10
225.1069421683649
 20
158.1262818567257
 30
0.0
 10
224.9454073007157
 20
158.1138652998049
 30
0.0
 10
224.5842668299864
 20
158.0635697272593
 30
0.0
 10
224.3813465041456
 20
158.0250680752216
 30
0.0
 10
224.1580645357879
 20
157.9875457788112
 30
0.0
  0
LINE
  5
1A8
330
1F
100
AcDbEntity
  8
0
  6
HIDDEN
 62
     7
370
     0
100
AcDbLine
 10
224.1580652361
 20
151.7907873125
 30
0.0
 11
224.1580652361
 21
155.7387978167
 31
0.0
  0
LINE
  5
1A9
330
1F
100
AcDbEntity
  8
0
  6
HIDDEN
 62
     7
370
     0
100
AcDbLine
 10
224.1580652361
 20
157.9875469536
 30
0.0
 11
224.1580652361
 21
153.24482027
 31
0.0
  0
LINE
  5
1AA
330
1F
100
AcDbEntity
  8
0
  6
HIDDEN
 62
     7
370
     0
100
AcDbLine
 10
236.1580653405
 20
151.7239202143
 30
0.0
 11
236.1580653405
 21
158.1145346493
 31
0.0
  0
LINE
  5
1AB
330
1F
100
AcDbEntity
  8
0
  6
HIDDEN
 62
     7
370
     0
100
AcDbLine
 10
167.1580652063
 20
121.7393305481
 30
0.0
 11
167.1580652063
 21
114.1585491926
 31
0.0
  0
LINE
  5
1AC
330
1F
100
AcDbEntity
  8
0
  6
HIDDEN
 62
     7
370
     0
100
AcDbLine
 10
240.1580659961
 20
137.9192274392
 30
0.0
 11
238.0794396912
 21
137.9192274392
 31
0.0
  0
LINE
  5
1AD
330
1F
100
AcDbEntity
  8
0
  6
HIDDEN
 62
     7
370
     0
100
AcDbLine
 10
240.1580659961
 20
127.9192274299
 30
0.0
 11
238.0794396912
 21
127.9192274299
 31
0.0
  0
SPLINE
  5
1AE
330
1F
100
AcDbEntity
  8
0
  6
HIDDEN
 62
     7
370
     0
100
AcDbSpline
210
0.0
220
0.0
230
1.0
 70
    11
 71
     3
 72
    32
 73
    28
 74
     0
 42
0.00000001
 43
0.00000001
 12
1.0
 22
0.0
 32
0.0
 13
1.0
 23
0.0
 33
0.0
 40
-0.0624999999999992
 40
-0.0624999999999992
 40
0.0
 40
0.0
 40
0.0625000000000006
 40
0.0625000000000006
 40
0.1250000000000012
 40
0.1250000000000012
 40
0.2500000000000017
 40
0.2500000000000017
 40
0.3125000000000019
 40
0.3125000000000019
 40
0.3750000000000021
 40
0.3750000000000021
 40
0.4375000000000022
 40
0.4375000000000022
 40
0.5000000000000023
 40
0.5000000000000023
 40
0.5625000000000024
 40
0.5625000000000024
 40
0.6250000000000026
 40
0.6250000000000026
 40
0.7500000000000021
 40
0.7500000000000021
 40
0.8750000000000014
 40
0.8750000000000014
 40
0.9375000000000008
 40
0.9375000000000008
 40
1.0
 40
1.0
 40
1.062500000000001
 40
1.062500000000001
 10
238.0580645357879
 20
128.0885649486474
 30
0.0
 10
238.0580645357879
 20
128.0885649486474
 30
0.0
 10
238.0654122112271
 20
128.1176104426958
 30
0.0
 10
238.0873488335828
 20
128.2173605184074
 30
0.0
 10
238.1015689695668
 20
128.2877099367722
 30
0.0
 10
238.1398009772456
 20
128.5272332140725
 30
0.0
 10
238.158001930426
 20
128.7242254708973
 30
0.0
 10
238.1580955663314
 20
129.0150378697144
 30
0.0
 10
238.153936720721
 20
129.112936752363
 30
0.0
 10
238.1387206114286
 20
129.2982774040499
 30
0.0
 10
238.127360489928
 20
129.3888211608074
 30
0.0
 10
238.1019850650516
 20
129.5484682799058
 30
0.0
 10
238.087743589819
 20
129.6192055902002
 30
0.0
 10
238.0655941672417
 20
129.720107964161
 30
0.0
 10
238.0581646966405
 20
129.7494797486373
 30
0.0
 10
238.0579665398502
 20
129.7502908325456
 30
0.0
 10
238.0651567284966
 20
129.7219557904552
 30
0.0
 10
238.087291693445
 20
129.6214034411255
 30
0.0
 10
238.1015796091632
 20
129.5506697346603
 30
0.0
 10
238.1397527482273
 20
129.311540284347
 30
0.0
 10
238.1580270211313
 20
129.1142717472043
 30
0.0
 10
238.1581019205156
 20
128.7255316275147
 30
0.0
 10
238.1401572659287
 20
128.5298229916893
 30
0.0
 10
238.1016754492008
 20
128.2882001897355
 30
0.0
 10
238.0874794223217
 20
128.217982036983
 30
0.0
 10
238.0654553059506
 20
128.1177789140813
 30
0.0
 10
238.0580645357879
 20
128.0885649486474
 30
0.0
 10
238.0580645357879
 20
128.0885649486474
 30
0.0
  0
LINE
  5
1AF
330
1F
100
AcDbEntity
  8
0
  6
HIDDEN
 62
     7
370
     0
100
AcDbLine
 10
168.6580645209
 20
121.7393305481
 30
0.0
 11
168.6580645209
 21
113.4085495354
 31
0.0
  0
LINE
  5
1B0
330
1F
100
AcDbEntity
  8
0
  6
HIDDEN
 62
     7
370
     0
100
AcDbLine
 10
194.9580645477
 20
121.7393305481
 30
0.0
 11
194.9580645477
 21
112.8363253877
 31
0.0
  0
SPLINE
  5
1B1
330
1F
100
AcDbEntity
  8
0
  6
HIDDEN
 62
     7
370
     0
100
AcDbSpline
210
0.0
220
0.0
230
1.0
 70
     8
 71
     3
 72
    18
 73
    14
 74
     0
 42
0.00000001
 43
0.00000001
 12
1.0
 22
0.0
 32
0.0
 13
1.0
 23
0.0
 33
0.0
 40
0.0
 40
0.0
 40
0.0
 40
0.0
 40
0.2499999999999997
 40
0.2499999999999997
 40
0.3749999999999997
 40
0.3749999999999997
 40
0.4999999999999997
 40
0.4999999999999997
 40
0.6249999999999996
 40
0.6249999999999996
 40
0.7499999999999997
 40
0.7499999999999997
 40
1.0
 40
1.0
 40
1.0
 40
1.0
 10
195.8367441922283
 20
120.7847454016162
 30
0.0
 10
195.7014585859259
 20
120.0689719821903
 30
0.0
 10
195.600290839683
 20
119.3681618352238
 30
0.0
 10
195.497429496814
 20
118.3397504459052
 30
0.0
 10
195.4713266512908
 20
117.999867487627
 30
0.0
 10
195.436436667746
 20
117.3320557329977
 30
0.0
 10
195.4278504094559
 20
117.0088639524425
 30
0.0
 10
195.4277506998903
 20
116.3832138875826
 30
0.0
 10
195.4362390710388
 20
116.0807575105726
 30
0.0
 10
195.4703824505594
 20
115.4966075897726
 30
0.0
 10
195.4961794324133
 20
115.2138434930781
 30
0.0
 10
195.5995805638012
 20
114.4051486941523
 30
0.0
 10
195.7014385559726
 20
113.9266470820602
 30
0.0
 10
195.8367441922283
 20
113.5069049489389
 30
0.0
  0
SPLINE
  5
1B2
330
1F
100
AcDbEntity
  8
0
  6
HIDDEN
 62
     7
370
     0
100
AcDbSpline
210
0.0
220
0.0
230
1.0
 70
     8
 71
     3
 72
     8
 73
     4
 74
     0
 42
0.00000001
 43
0.00000001
 12
1.0
 22
0.0
 32
0.0
 13
1.0
 23
0.0
 33
0.0
 40
0.0
 40
0.0
 40
0.0
 40
0.0
 40
1.0
 40
1.0
 40
1.0
 40
1.0
 10
224.0656328332402
 20
155.4570628894601
 30
0.0
 10
224.0951225040038
 20
155.5509684240612
 30
0.0
 10
224.1260259026158
 20
155.644843025156
 30
0.0
 10
224.1580645357879
 20
155.7387977611542
 30
0.0
  0
LWPOLYLINE
  5
1B3
330
1F
100
AcDbEntity
  8
0
  6
HIDDEN
 62
     7
370
     0
100
AcDbPolyline
 90
       16
 70
   128
 43
0.0
 10
224.0656333333
 20
155.4570634247
 10
223.4462498044
 20
155.3896021427
 10
222.8080852246
 20
155.3930890144
 10
222.1927287345
 20
155.4672949345
 10
221.6402849471
 20
155.6073826135
 10
221.1867550676
 20
155.8042250902
 10
220.8616974121
 20
156.0449906022
 10
220.6862958437
 20
156.313991952
 10
220.671979553
 20
156.5936960609
 10
220.8196854507
 20
156.8658750833
 10
221.1197836613
 20
157.1127910496
 10
221.5527182733
 20
157.3183507056
 10
222.0902739381
 20
157.4691579074
 10
222.6974198883
 20
157.555387202
 10
223.3345860904
 20
157.5714171261
 10
223.9602467334
 20
157.5162008733
  0
SPLINE
  5
1B4
330
1F
100
AcDbEntity
  8
0
  6
HIDDEN
 62
     7
370
     0
100
AcDbSpline
210
0.0
220
0.0
230
1.0
 70
     8
 71
     3
 72
     8
 73
     4
 74
     0
 42
0.00000001
 43
0.00000001
 12
1.0
 22
0.0
 32
0.0
 13
1.0
 23
0.0
 33
0.0
 40
0.0
 40
0.0
 40
0.0
 40
0.0
 40
1.0
 40
1.0
 40
1.0
 40
1.0
 10
224.1580645357879
 20
157.9875457788112
 30
0.0
 10
224.0882457229968
 20
157.8341726796249
 30
0.0
 10
224.0216716117785
 20
157.6770867558612
 30
0.0
 10
223.9602469603365
 20
157.5162025652042
 30
0.0
  0
SPLINE
  5
1B5
330
1F
100
AcDbEntity
  8
0
  6
HIDDEN
 62
     7
370
     0
100
AcDbSpline
210
0.0
220
0.0
230
1.0
 70
     8
 71
     3
 72
     8
 73
     4
 74
     0
 42
0.00000001
 43
0.00000001
 12
1.0
 22
0.0
 32
0.0
 13
1.0
 23
0.0
 33
0.0
 40
0.0
 40
0.0
 40
0.0
 40
0.0
 40
1.0
 40
1.0
 40
1.0
 40
1.0
 10
223.8175738019468
 20
155.388201525736
 30
0.0
 10
223.9002560575495
 20
155.4105707186183
 30
0.0
 10
223.9829433698413
 20
155.4336153356859
 30
0.0
 10
224.0656328332402
 20
155.4570628894601
 30
0.0
  0
SPLINE
  5
1B6
330
1F
100
AcDbEntity
  8
0
  6
HIDDEN
 62
     7
370
     0
100
AcDbSpline
210
0.0
220
0.0
230
1.0
 70
     8
 71
     3
 72
     8
 73
     4
 74
     0
 42
0.00000001
 43
0.00000001
 12
1.0
 22
0.0
 32
0.0
 13
1.0
 23
0.0
 33
0.0
 40
0.0
 40
0.0
 40
0.0
 40
0.0
 40
1.0
 40
1.0
 40
1.0
 40
1.0
 10
223.9602469603365
 20
157.5162025652042
 30
0.0
 10
223.8767431856116
 20
157.3939616424134
 30
0.0
 10
223.7932732754629
 20
157.2719828693639
 30
0.0
 10
223.7098731685408
 20
157.1504347971946
 30
0.0
  0
LINE
  5
1B7
330
1F
100
AcDbEntity
  8
0
  6
HIDDEN
 62
     7
370
     0
100
AcDbLine
 10
239.276848576
 20
132.919227551
 30
0.0
 11
250.2392789637
 21
132.919227551
 31
0.0
  0
LINE
  5
1B8
330
1F
100
AcDbEntity
  8
0
  6
HIDDEN
 62
     7
370
     0
100
AcDbLine
 10
239.276848576
 20
137.9192274392
 30
0.0
 11
250.2392789637
 21
137.9192274392
 31
0.0
  0
LINE
  5
1B9
330
1F
100
AcDbEntity
  8
0
  6
HIDDEN
 62
     7
370
     0
100
AcDbLine
 10
241.5627574837
 20
132.919227551
 30
0.0
 11
247.9533700561
 21
132.919227551
 31
0.0
  0
LINE
  5
1BA
330
1F
100
AcDbEntity
  8
0
  6
HIDDEN
 62
     7
370
     0
100
AcDbLine
 10
241.5627574837
 20
127.9192274299
 30
0.0
 11
247.9533700561
 21
127.9192274299
 31
0.0
  0
LINE
  5
1BB
330
1F
100
AcDbEntity
  8
0
  6
HIDDEN
 62
     7
370
     0
100
AcDbLine
 10
242.508064798
 20
109.919226575
 30
0.0
 11
247.0080627417
 21
109.919226575
 31
0.0
  0
LINE
  5
1BC
330
1F
100
AcDbEntity
  8
0
  6
HIDDEN
 62
     7
370
     0
100
AcDbLine
 10
242.508064798
 20
125.9192273349
 30
0.0
 11
247.0080627417
 21
125.9192273349
 31
0.0
  0
LINE
  5
1BD
330
1F
100
AcDbEntity
  8
0
  6
HIDDEN
 62
     7
370
     0
100
AcDbLine
 10
240.1580659961
 20
158.9192271561
 30
0.0
 11
235.7594033992
 21
158.9192271561
 31
0.0
  0
LINE
  5
1BE
330
1F
100
AcDbEntity
  8
0
  6
HIDDEN
 62
     7
370
     0
100
AcDbLine
 10
235.7594033992
 20
150.9192277075
 30
0.0
 11
240.1580659961
 21
150.9192277075
 31
0.0
  0
LINE
  5
1BF
330
1F
100
AcDbEntity
  8
0
  6
HIDDEN
 62
     7
370
     0
100
AcDbLine
 10
231.9080641782
 20
158.9192271561
 30
0.0
 11
231.1580663835
 21
158.1692256362
 31
0.0
  0
LINE
  5
1C0
330
1F
100
AcDbEntity
  8
0
  6
HIDDEN
 62
     7
370
     0
100
AcDbLine
 10
231.1580663835
 20
151.6692273647
 30
0.0
 11
231.9080641782
 21
150.9192277075
 31
0.0
  0
LINE
  5
1C1
330
1F
100
AcDbEntity
  8
0
  6
HIDDEN
 62
     7
370
     0
100
AcDbLine
 10
231.1580663835
 20
152.7192265124
 30
0.0
 11
231.3580660438
 21
152.9192280353
 31
0.0
  0
LINE
  5
1C2
330
1F
100
AcDbEntity
  8
0
  6
HIDDEN
 62
     7
370
     0
100
AcDbLine
 10
231.3580660438
 20
156.9192268283
 30
0.0
 11
231.1580663835
 21
157.1192264886
 31
0.0
  0
LINE
  5
1C3
330
1F
100
AcDbEntity
  8
0
  6
HIDDEN
 62
     7
370
     0
100
AcDbLine
 10
254.1580645656
 20
156.9192268283
 30
0.0
 11
231.3580660438
 21
156.9192268283
 31
0.0
  0
LINE
  5
1C4
330
1F
100
AcDbEntity
  8
0
  6
HIDDEN
 62
     7
370
     0
100
AcDbLine
 10
231.3580660438
 20
152.9192280353
 30
0.0
 11
254.1580645656
 21
152.9192280353
 31
0.0
  0
LINE
  5
1C5
330
1F
100
AcDbEntity
  8
0
  6
HIDDEN
 62
     7
370
     0
100
AcDbLine
 10
254.1580645656
 20
152.9192280353
 30
0.0
 11
254.293557099
 21
153.1447217197
 31
0.0
  0
LINE
  5
1C6
330
1F
100
AcDbEntity
  8
0
  6
HIDDEN
 62
     7
370
     0
100
AcDbLine
 10
254.6452319538
 20
156.1084453345
 30
0.0
 11
254.1580645656
 21
156.9192268283
 31
0.0
  0
LINE
  5
1C7
330
1F
100
AcDbEntity
  8
0
  6
HIDDEN
 62
     7
370
     0
100
AcDbLine
 10
252.4580655908
 20
153.7929613472
 30
0.0
 11
252.4580655908
 21
151.3546638519
 31
0.0
  0
LINE
  5
1C8
330
1F
100
AcDbEntity
  8
0
  6
HIDDEN
 62
     7
370
     0
100
AcDbLine
 10
255.4580642199
 20
151.3546638519
 30
0.0
 11
255.4580642199
 21
155.202128771
 31
0.0
  0
LINE
  5
1C9
330
1F
100
AcDbEntity
  8
0
  6
HIDDEN
 62
     7
370
     0
100
AcDbLine
 10
239.7580629503
 20
137.9192274392
 30
0.0
 11
239.7580629503
 21
132.919227551
 31
0.0
  0
LINE
  5
1CA
330
1F
100
AcDbEntity
  8
0
  6
HIDDEN
 62
     7
370
     0
100
AcDbLine
 10
249.7580645894
 20
132.919227551
 30
0.0
 11
249.7580645894
 21
137.9192274392
 31
0.0
  0
ARC
  5
1CB
330
1F
100
AcDbEntity
  8
0
  6
HIDDEN
 62
     7
370
     0
100
AcDbCircle
 10
248.0080645358
 20
132.6692273349
 30
0.0
 40
0.25
100
AcDbArc
 50
90.0
 51
180.0
  0
ARC
  5
1CC
330
1F
100
AcDbEntity
  8
0
  6
HIDDEN
 62
     7
370
     0
100
AcDbCircle
 10
241.5080645358
 20
132.6692273349
 30
0.0
 40
0.25
100
AcDbArc
 50
0.0
 51
90.0
  0
LINE
  5
1CD
330
1F
100
AcDbEntity
  8
0
  6
HIDDEN
 62
     7
370
     0
100
AcDbLine
 10
241.7580632781
 20
132.66922751
 30
0.0
 11
241.7580632781
 21
127.9192274299
 31
0.0
  0
LINE
  5
1CE
330
1F
100
AcDbEntity
  8
0
  6
HIDDEN
 62
     7
370
     0
100
AcDbLine
 10
241.7580632781
 20
125.9192273349
 30
0.0
 11
241.7580632781
 21
117.4737269387
 31
0.0
  0
LINE
  5
1CF
330
1F
100
AcDbEntity
  8
0
  6
HIDDEN
 62
     7
370
     0
100
AcDbLine
 10
247.7580642616
 20
117.4737269387
 30
0.0
 11
247.7580642616
 21
125.9192273349
 31
0.0
  0
LINE
  5
1D0
330
1F
100
AcDbEntity
  8
0
  6
HIDDEN
 62
     7
370
     0
100
AcDbLine
 10
247.7580642616
 20
127.9192274299
 30
0.0
 11
247.7580642616
 21
132.66922751
 31
0.0
  0
LINE
  5
1D1
330
1F
100
AcDbEntity
  8
0
  6
HIDDEN
 62
     7
370
     0
100
AcDbLine
 10
241.7580632781
 20
117.4737269387
 30
0.0
 11
242.3125652885
 21
116.9192277224
 31
0.0
  0
LINE
  5
1D2
330
1F
100
AcDbEntity
  8
0
  6
HIDDEN
 62
     7
370
     0
100
AcDbLine
 10
247.2035659766
 20
116.9192277224
 30
0.0
 11
247.7580642616
 21
117.4737269387
 31
0.0
  0
LINE
  5
1D3
330
1F
100
AcDbEntity
  8
0
  6
HIDDEN
 62
     7
370
     0
100
AcDbLine
 10
242.2160653686
 20
135.9192271114
 30
0.0
 11
244.7580656325
 21
134.4516033635
 31
0.0
  0
LINE
  5
1D4
330
1F
100
AcDbEntity
  8
0
  6
HIDDEN
 62
     7
370
     0
100
AcDbLine
 10
244.7580656325
 20
134.4516033635
 30
0.0
 11
247.3000658964
 21
135.9192271114
 31
0.0
  0
LINE
  5
1D5
330
1F
100
AcDbEntity
  8
0
  6
HIDDEN
 62
     7
370
     0
100
AcDbLine
 10
250.2580656027
 20
132.919227551
 30
0.0
 11
250.2580656027
 21
137.9192274392
 31
0.0
  0
LINE
  5
1D6
330
1F
100
AcDbEntity
  8
0
  6
HIDDEN
 62
     7
370
     0
100
AcDbLine
 10
239.2580656623
 20
137.9192274392
 30
0.0
 11
239.2580656623
 21
132.919227551
 31
0.0
  0
LINE
  5
1D7
330
1F
100
AcDbEntity
  8
0
  6
HIDDEN
 62
     7
370
     0
100
AcDbLine
 10
247.9580639219
 20
127.9192274299
 30
0.0
 11
247.9580639219
 21
132.919227551
 31
0.0
  0
LINE
  5
1D8
330
1F
100
AcDbEntity
  8
0
  6
HIDDEN
 62
     7
370
     0
100
AcDbLine
 10
241.5580636179
 20
132.919227551
 30
0.0
 11
241.5580636179
 21
127.9192274299
 31
0.0
  0
LINE
  5
1D9
330
1F
100
AcDbEntity
  8
0
  6
HIDDEN
 62
     7
370
     0
100
AcDbLine
 10
247.0080627417
 20
109.919226575
 30
0.0
 11
247.0080627417
 21
125.9192273349
 31
0.0
  0
LINE
  5
1DA
330
1F
100
AcDbEntity
  8
0
  6
HIDDEN
 62
     7
370
     0
100
AcDbLine
 10
242.508064798
 20
125.9192273349
 30
0.0
 11
242.508064798
 21
109.919226575
 31
0.0
  0
LINE
  5
1DB
330
1F
100
AcDbEntity
  8
0
  6
HIDDEN
 62
     7
370
     0
100
AcDbLine
 10
242.508064798
 20
109.919226575
 30
0.0
 11
244.7580656325
 21
108.567290786
 31
0.0
  0
LINE
  5
1DC
330
1F
100
AcDbEntity
  8
0
  6
HIDDEN
 62
     7
370
     0
100
AcDbLine
 10
244.7580656325
 20
108.567290786
 30
0.0
 11
247.0080627417
 21
109.919226575
 31
0.0
  0
LINE
  5
1DD
330
1F
100
AcDbEntity
  8
0
  6
HIDDEN
 62
     7
370
     0
100
AcDbLine
 10
220.6580637311
 20
161.8708193631
 30
0.0
 11
220.6580637311
 21
156.4782251001
 31
0.0
  0
LINE
  5
1DE
330
1F
100
AcDbEntity
  8
0
  6
HIDDEN
 62
     7
370
     0
100
AcDbLine
 10
225.6580645507
 20
157.7185958953
 30
0.0
 11
225.6580645507
 21
161.8692174883
 31
0.0
  0
LINE
  5
1DF
330
1F
100
AcDbEntity
  8
0
  6
HIDDEN
 62
     7
370
     0
100
AcDbLine
 10
197.1580645358
 20
106.3692279489
 30
0.0
 11
197.2509577562
 21
106.4621199251
 31
0.0
  0
LINE
  5
1E0
330
1F
100
AcDbEntity
  8
0
  6
HIDDEN
 62
     7
370
     0
100
AcDbLine
 10
197.2509577562
 20
145.3763347448
 30
0.0
 11
197.1580645358
 21
145.469226721
 31
0.0
  0
ARC
  5
1E1
330
1F
100
AcDbEntity
  8
0
  6
HIDDEN
 62
     7
370
     0
100
AcDbCircle
 10
196.5438509734
 20
107.1692273349
 30
0.0
 40
1.000000000000018
100
AcDbArc
 50
315.0
 51
0.0
  0
ARC
  5
1E2
330
1F
100
AcDbEntity
  8
0
  6
HIDDEN
 62
     7
370
     0
100
AcDbCircle
 10
196.5438509734
 20
107.1692273349
 30
0.0
 40
1.0
100
AcDbArc
 50
0.0
 51
52.1052014664
  0
ARC
  5
1E3
330
1F
100
AcDbEntity
  8
0
  6
HIDDEN
 62
     7
370
     0
100
AcDbCircle
 10
196.5438509734
 20
144.6692273349
 30
0.0
 40
1.000000000000028
100
AcDbArc
 50
343.125
 51
45.0
  0
ARC
  5
1E4
330
1F
100
AcDbEntity
  8
0
  6
HIDDEN
 62
     7
370
     0
100
AcDbCircle
 10
196.5438509734
 20
144.6692273349
 30
0.0
 40
0.9999999999999998
100
AcDbArc
 50
307.8947985336
 51
343.125
  0
LINE
  5
1E5
330
1F
100
AcDbEntity
  8
0
  6
HIDDEN
 62
     7
370
     0
100
AcDbLine
 10
197.5438509716
 20
107.1692265899
 30
0.0
 11
197.5438509716
 21
144.66922808
 31
0.0
  0
LINE
  5
1E6
330
1F
100
AcDbEntity
  8
0
  6
HIDDEN
 62
     7
370
     0
100
AcDbLine
 10
197.5438509716
 20
107.1692265899
 30
0.0
 11
197.5438509716
 21
144.66922808
 31
0.0
  0
LINE
  5
1E7
330
1F
100
AcDbEntity
  8
0
  6
HIDDEN
 62
     7
370
     0
100
AcDbLine
 10
236.1580653405
 20
158.1192285151
 30
0.0
 11
225.0918465024
 21
158.1192285151
 31
0.0
  0
LINE
  5
1E8
330
1F
100
AcDbEntity
  8
0
  6
HIDDEN
 62
     7
370
     0
100
AcDbLine
 10
224.8068264043
 20
151.7192282111
 30
0.0
 11
236.1580653405
 21
151.7192282111
 31
0.0
  0
LINE
  5
1E9
330
1F
100
AcDbEntity
  8
0
  6
HIDDEN
 62
     7
370
     0
100
AcDbLine
 10
221.6979598915
 20
155.5886350901
 30
0.0
 11
221.9315765714
 21
155.514948848
 31
0.0
  0
LINE
  5
1EA
330
1F
100
AcDbEntity
  8
0
  6
HIDDEN
 62
     7
370
     0
100
AcDbLine
 10
221.0580649143
 20
156.2622048289
 30
0.0
 11
221.0580649143
 21
129.7315669575
 31
0.0
  0
LINE
  5
1EB
330
1F
100
AcDbEntity
  8
0
  6
HIDDEN
 62
     7
370
     0
100
AcDbLine
 10
225.2580652302
 20
129.7270546996
 30
0.0
 11
225.2580652302
 21
151.9971013398
 31
0.0
  0
LINE
  5
1EC
330
1F
100
AcDbEntity
  8
0
  6
HIDDEN
 62
     7
370
     0
100
AcDbLine
 10
238.0580639755
 20
128.0885649242
 30
0.0
 11
238.0580639755
 21
127.9192274299
 31
0.0
  0
LINE
  5
1ED
330
1F
100
AcDbEntity
  8
0
  6
HIDDEN
 62
     7
370
     0
100
AcDbLine
 10
238.0580639755
 20
137.9192274392
 30
0.0
 11
238.0580639755
 21
129.7444087316
 31
0.0
  0
LINE
  5
1EE
330
1F
100
AcDbEntity
  8
0
  6
HIDDEN
 62
     7
370
     0
100
AcDbLine
 10
173.6580653405
 20
113.9192272306
 30
0.0
 11
174.6647840654
 21
113.9192272306
 31
0.0
  0
LINE
  5
1EF
330
1F
100
AcDbEntity
  8
0
  6
HIDDEN
 62
     7
370
     0
100
AcDbLine
 10
174.6647840654
 20
137.9192274392
 30
0.0
 11
173.6580653405
 21
137.9192274392
 31
0.0
  0
ARC
  5
1F0
330
1F
100
AcDbEntity
  8
0
  6
HIDDEN
 62
     7
370
     0
100
AcDbCircle
 10
174.6647840478
 20
115.4192273349
 30
0.0
 40
1.500000000000014
100
AcDbArc
 50
270.0
 51
315.0
  0
ARC
  5
1F1
330
1F
100
AcDbEntity
  8
0
  6
HIDDEN
 62
     7
370
     0
100
AcDbCircle
 10
174.6647840478
 20
136.4192273349
 30
0.0
 40
1.5
100
AcDbArc
 50
45.0
 51
90.0
  0
ARC
  5
1F2
330
1F
100
AcDbEntity
  8
0
  6
HIDDEN
 62
     7
370
     0
100
AcDbCircle
 10
173.6580645358
 20
115.4192273349
 30
0.0
 40
1.50000000000002
100
AcDbArc
 50
191.0958032831
 51
270.0
  0
ARC
  5
1F3
330
1F
100
AcDbEntity
  8
0
  6
HIDDEN
 62
     7
370
     0
100
AcDbCircle
 10
173.6580645358
 20
136.4192273349
 30
0.0
 40
1.500000000000014
100
AcDbArc
 50
90.0
 51
168.9041967169
  0
LINE
  5
1F4
330
1F
100
AcDbEntity
  8
0
  6
HIDDEN
 62
     7
370
     0
100
AcDbLine
 10
167.1580652063
 20
114.1558148296
 30
0.0
 11
168.1861037677
 21
114.7493541569
 31
0.0
  0
LINE
  5
1F5
330
1F
100
AcDbEntity
  8
0
  6
HIDDEN
 62
     7
370
     0
100
AcDbLine
 10
168.1861037677
 20
137.0891005129
 30
0.0
 11
167.1580652063
 21
137.6826398403
 31
0.0
  0
LINE
  5
1F6
330
1F
100
AcDbEntity
  8
0
  6
HIDDEN
 62
     7
370
     0
100
AcDbLine
 10
175.7254449939
 20
114.3585674793
 30
0.0
 11
176.7861040597
 21
115.4192274765
 31
0.0
  0
LINE
  5
1F7
330
1F
100
AcDbEntity
  8
0
  6
HIDDEN
 62
     7
370
     0
100
AcDbLine
 10
176.7861040597
 20
136.4192271934
 30
0.0
 11
175.7254449939
 21
137.4798871905
 31
0.0
  0
LINE
  5
1F8
330
1F
100
AcDbEntity
  8
0
  6
HIDDEN
 62
     7
370
     0
100
AcDbLine
 10
168.1861037677
 20
114.7493541569
 30
0.0
 11
170.6861051088
 21
115.4192274765
 31
0.0
  0
LINE
  5
1F9
330
1F
100
AcDbEntity
  8
0
  6
HIDDEN
 62
     7
370
     0
100
AcDbLine
 10
170.6861051088
 20
136.4192271934
 30
0.0
 11
168.1861037677
 21
137.0891005129
 31
0.0
  0
LINE
  5
1FA
330
1F
100
AcDbEntity
  8
0
  6
HIDDEN
 62
     7
370
     0
100
AcDbLine
 10
172.1861044233
 20
136.7079027326
 30
0.0
 11
171.6861052727
 21
136.4192271934
 31
0.0
  0
LINE
  5
1FB
330
1F
100
AcDbEntity
  8
0
  6
HIDDEN
 62
     7
370
     0
100
AcDbLine
 10
171.6861052727
 20
115.4192274765
 30
0.0
 11
172.1861044233
 21
115.1305519373
 31
0.0
  0
LINE
  5
1FC
330
1F
100
AcDbEntity
  8
0
  6
HIDDEN
 62
     7
370
     0
100
AcDbLine
 10
170.6861051088
 20
115.4192274765
 30
0.0
 11
171.6861052727
 21
115.4192274765
 31
0.0
  0
LINE
  5
1FD
330
1F
100
AcDbEntity
  8
0
  6
HIDDEN
 62
     7
370
     0
100
AcDbLine
 10
171.6861052727
 20
136.4192271934
 30
0.0
 11
170.6861051088
 21
136.4192271934
 31
0.0
  0
ARC
  5
1FE
330
1F
100
AcDbEntity
  8
0
  6
HIDDEN
 62
     7
370
     0
100
AcDbCircle
 10
186.6580645358
 20
115.9192273349
 30
0.0
 40
0.5
100
AcDbArc
 50
270.0
 51
0.0
  0
ARC
  5
1FF
330
1F
100
AcDbEntity
  8
0
  6
HIDDEN
 62
     7
370
     0
100
AcDbCircle
 10
186.6580645358
 20
135.9192273349
 30
0.0
 40
0.5
100
AcDbArc
 50
0.0
 51
90.0
  0
LINE
  5
200
330
1F
100
AcDbEntity
  8
0
  6
HIDDEN
 62
     7
370
     0
100
AcDbLine
 10
186.1731119742
 20
115.4192274765
 30
0.0
 11
186.6580646773
 21
115.4192274765
 31
0.0
  0
LINE
  5
201
330
1F
100
AcDbEntity
  8
0
  6
HIDDEN
 62
     7
370
     0
100
AcDbLine
 10
176.7861040597
 20
115.4192274765
 30
0.0
 11
180.130904383
 21
115.4192274765
 31
0.0
  0
LINE
  5
202
330
1F
100
AcDbEntity
  8
0
  6
HIDDEN
 62
     7
370
     0
100
AcDbLine
 10
180.1430171644
 20
136.4192271934
 30
0.0
 11
176.7861040597
 21
136.4192271934
 31
0.0
  0
LINE
  5
203
330
1F
100
AcDbEntity
  8
0
  6
HIDDEN
 62
     7
370
     0
100
AcDbLine
 10
186.6580646773
 20
136.4192271934
 30
0.0
 11
186.1852247556
 21
136.4192271934
 31
0.0
  0
LINE
  5
204
330
1F
100
AcDbEntity
  8
0
  6
HIDDEN
 62
     7
370
     0
100
AcDbLine
 10
187.1580647593
 20
117.6692273796
 30
0.0
 11
188.1580649232
 21
118.6692275436
 31
0.0
  0
LINE
  5
205
330
1F
100
AcDbEntity
  8
0
  6
HIDDEN
 62
     7
370
     0
100
AcDbLine
 10
188.1580649232
 20
133.1692271263
 30
0.0
 11
187.1580647593
 21
134.1692272902
 31
0.0
  0
LINE
  5
206
330
1F
100
AcDbEntity
  8
0
  6
HIDDEN
 62
     7
370
     0
100
AcDbLine
 10
188.1580649232
 20
118.6692275436
 30
0.0
 11
212.1580642005
 21
118.6692275436
 31
0.0
  0
LINE
  5
207
330
1F
100
AcDbEntity
  8
0
  6
HIDDEN
 62
     7
370
     0
100
AcDbLine
 10
212.1580642005
 20
133.1692271263
 30
0.0
 11
188.1580649232
 21
133.1692271263
 31
0.0
  0
LINE
  5
208
330
1F
100
AcDbEntity
  8
0
  6
HIDDEN
 62
     7
370
     0
100
AcDbLine
 10
212.1580642005
 20
118.6692275436
 30
0.0
 11
213.9606455629
 21
121.669227104
 31
0.0
  0
LINE
  5
209
330
1F
100
AcDbEntity
  8
0
  6
HIDDEN
 62
     7
370
     0
100
AcDbLine
 10
213.9606455629
 20
130.1692275659
 30
0.0
 11
212.1580642005
 21
133.1692271263
 31
0.0
  0
LINE
  5
20A
330
1F
100
AcDbEntity
  8
0
  6
HIDDEN
 62
     7
370
     0
100
AcDbLine
 10
250.2580656027
 20
132.919227551
 30
0.0
 11
250.2580656027
 21
137.9192274392
 31
0.0
  0
LINE
  5
20B
330
1F
100
AcDbEntity
  8
0
  6
HIDDEN
 62
     7
370
     0
100
AcDbLine
 10
239.2580656623
 20
137.9192274392
 30
0.0
 11
239.2580656623
 21
132.919227551
 31
0.0
  0
LINE
  5
20C
330
1F
100
AcDbEntity
  8
0
  6
HIDDEN
 62
     7
370
     0
100
AcDbLine
 10
213.9606455629
 20
121.669227104
 30
0.0
 11
227.1580638652
 21
121.669227104
 31
0.0
  0
LINE
  5
20D
330
1F
100
AcDbEntity
  8
0
  6
HIDDEN
 62
     7
370
     0
100
AcDbLine
 10
222.1890742248
 20
130.1692275659
 30
0.0
 11
213.9606455629
 21
130.1692275659
 31
0.0
  0
LINE
  5
20E
330
1F
100
AcDbEntity
  8
0
  6
HIDDEN
 62
     7
370
     0
100
AcDbLine
 10
227.1580638652
 20
130.1692275659
 30
0.0
 11
224.1270559197
 21
130.1692275659
 31
0.0
  0
LINE
  5
20F
330
1F
100
AcDbEntity
  8
0
  6
HIDDEN
 62
     7
370
     0
100
AcDbLine
 10
227.1580638652
 20
121.669227104
 30
0.0
 11
229.7117224252
 21
125.9192273349
 31
0.0
  0
LINE
  5
210
330
1F
100
AcDbEntity
  8
0
  6
HIDDEN
 62
     7
370
     0
100
AcDbLine
 10
229.7117224252
 20
125.9192273349
 30
0.0
 11
227.1580638652
 21
130.1692275659
 31
0.0
  0
LINE
  5
211
330
1F
100
AcDbEntity
  8
0
  6
HIDDEN
 62
     7
370
     0
100
AcDbLine
 10
186.5948027288
 20
109.7421709777
 30
0.0
 11
186.2080645105
 21
110.1289101274
 31
0.0
  0
LINE
  5
212
330
1F
100
AcDbEntity
  8
0
  6
HIDDEN
 62
     7
370
     0
100
AcDbLine
 10
180.1080646282
 20
110.1289101274
 30
0.0
 11
179.9013184672
 21
109.9221639664
 31
0.0
  0
LINE
  5
213
330
1F
100
AcDbEntity
  8
0
  6
HIDDEN
 62
     7
370
     0
100
AcDbLine
 10
174.5287029361
 20
110.0485891432
 30
0.0
 11
172.6580651765
 21
111.9192269028
 31
0.0
  0
LINE
  5
214
330
1F
100
AcDbEntity
  8
0
  6
HIDDEN
 62
     7
370
     0
100
AcDbLine
 10
172.6580651765
 20
111.9192269028
 30
0.0
 11
167.1580652063
 21
111.9192269028
 31
0.0
  0
LINE
  5
215
330
1F
100
AcDbEntity
  8
0
  6
HIDDEN
 62
     7
370
     0
100
AcDbLine
 10
247.9580639219
 20
127.9192274299
 30
0.0
 11
247.9580639219
 21
132.919227551
 31
0.0
  0
LINE
  5
216
330
1F
100
AcDbEntity
  8
0
  6
HIDDEN
 62
     7
370
     0
100
AcDbLine
 10
241.5580636179
 20
132.919227551
 30
0.0
 11
241.5580636179
 21
127.9192274299
 31
0.0
  0
LINE
  5
217
330
1F
100
AcDbEntity
  8
0
  6
HIDDEN
 62
     7
370
     0
100
AcDbLine
 10
186.2080645105
 20
139.9192277671
 30
0.0
 11
183.1580641037
 21
141.7518526644
 31
0.0
  0
LINE
  5
218
330
1F
100
AcDbEntity
  8
0
  6
HIDDEN
 62
     7
370
     0
100
AcDbLine
 10
183.1580641037
 20
141.7518526644
 30
0.0
 11
180.1080646282
 21
139.9192277671
 31
0.0
  0
LINE
  5
219
330
1F
100
AcDbEntity
  8
0
  6
HIDDEN
 62
     7
370
     0
100
AcDbLine
 10
186.2080645105
 20
136.4127591581
 30
0.0
 11
186.2080645105
 21
139.9192277671
 31
0.0
  0
LINE
  5
21A
330
1F
100
AcDbEntity
  8
0
  6
HIDDEN
 62
     7
370
     0
100
AcDbLine
 10
180.1080646282
 20
139.9192277671
 30
0.0
 11
180.1080646282
 21
136.409221995
 31
0.0
  0
LINE
  5
21B
330
1F
100
AcDbEntity
  8
0
  6
HIDDEN
 62
     7
370
     0
100
AcDbLine
 10
186.2080645105
 20
110.1289101274
 30
0.0
 11
186.2080645105
 21
115.4292326749
 31
0.0
  0
LINE
  5
21C
330
1F
100
AcDbEntity
  8
0
  6
HIDDEN
 62
     7
370
     0
100
AcDbLine
 10
180.1080646282
 20
115.4256955118
 30
0.0
 11
180.1080646282
 21
110.1289101274
 31
0.0
  0
LINE
  5
21D
330
1F
100
AcDbEntity
  8
0
  6
HIDDEN
 62
     7
370
     0
100
AcDbLine
 10
247.0080627417
 20
109.919226575
 30
0.0
 11
247.0080627417
 21
125.9192273349
 31
0.0
  0
LINE
  5
21E
330
1F
100
AcDbEntity
  8
0
  6
HIDDEN
 62
     7
370
     0
100
AcDbLine
 10
242.508064798
 20
125.9192273349
 30
0.0
 11
242.508064798
 21
109.919226575
 31
0.0
  0
LINE
  5
21F
330
1F
100
AcDbEntity
  8
0
  6
HIDDEN
 62
     7
370
     0
100
AcDbLine
 10
242.508064798
 20
109.919226575
 30
0.0
 11
244.7580656325
 21
108.567290786
 31
0.0
  0
LINE
  5
220
330
1F
100
AcDbEntity
  8
0
  6
HIDDEN
 62
     7
370
     0
100
AcDbLine
 10
244.7580656325
 20
108.567290786
 30
0.0
 11
247.0080627417
 21
109.919226575
 31
0.0
  0
LINE
  5
221
330
1F
100
AcDbEntity
  8
0
  6
HIDDEN
 62
     7
370
     0
100
AcDbLine
 10
207.1580643123
 20
101.4192279757
 30
0.0
 11
207.1580643123
 21
100.9192269624
 31
0.0
  0
LINE
  5
222
330
1F
100
AcDbEntity
  8
0
  6
HIDDEN
 62
     7
370
     0
100
AcDbLine
 10
211.1580649679
 20
100.9192269624
 30
0.0
 11
211.1580649679
 21
101.4192279757
 31
0.0
  0
LINE
  5
223
330
1F
100
AcDbEntity
  8
0
  6
HIDDEN
 62
     7
370
     0
100
AcDbLine
 10
211.1580649679
 20
101.4192279757
 30
0.0
 11
209.1580646401
 21
102.620948884
 31
0.0
  0
LINE
  5
224
330
1F
100
AcDbEntity
  8
0
  6
HIDDEN
 62
     7
370
     0
100
AcDbLine
 10
209.1580646401
 20
102.620948884
 30
0.0
 11
207.1580643123
 21
101.4192279757
 31
0.0
  0
LINE
  5
225
330
1F
100
AcDbEntity
  8
0
  6
HIDDEN
 62
     7
370
     0
100
AcDbLine
 10
221.0580649143
 20
129.7315669575
 30
0.0
 11
221.0580649143
 21
129.7270546996
 31
0.0
  0
LINE
  5
226
330
1F
100
AcDbEntity
  8
0
  6
HIDDEN
 62
     7
370
     0
100
AcDbLine
 10
225.2580652302
 20
129.7315669575
 30
0.0
 11
225.2580652302
 21
151.9932698787
 31
0.0
  0
LINE
  5
227
330
1F
100
AcDbEntity
  8
0
  6
HIDDEN
 62
     7
370
     0
100
AcDbLine
 10
236.1580653405
 20
158.1192285151
 30
0.0
 11
225.1225466197
 21
158.1192285151
 31
0.0
  0
LINE
  5
228
330
1F
100
AcDbEntity
  8
0
  6
HIDDEN
 62
     7
370
     0
100
AcDbLine
 10
224.803153268
 20
151.7192282111
 30
0.0
 11
224.8068264043
 21
151.7192282111
 31
0.0
  0
LINE
  5
229
330
1F
100
AcDbEntity
  8
0
  6
HIDDEN
 62
     7
370
     0
100
AcDbLine
 10
238.0580639755
 20
128.0885649242
 30
0.0
 11
238.0580639755
 21
127.9192274299
 31
0.0
  0
LINE
  5
22A
330
1F
100
AcDbEntity
  8
0
  6
HIDDEN
 62
     7
370
     0
100
AcDbLine
 10
238.0580639755
 20
137.9192274392
 30
0.0
 11
238.0580639755
 21
129.7444087316
 31
0.0
  0
LINE
  5
22B
330
1F
100
AcDbEntity
  8
0
  6
HIDDEN
 62
     7
370
     0
100
AcDbLine
 10
220.6580637311
 20
161.8692174883
 30
0.0
 11
220.6580637311
 21
156.4782251001
 31
0.0
  0
LINE
  5
22C
330
1F
100
AcDbEntity
  8
0
  6
HIDDEN
 62
     7
370
     0
100
AcDbLine
 10
225.6580645507
 20
161.8692174883
 30
0.0
 11
225.6580645507
 21
161.8708193631
 31
0.0
  0
LINE
  5
22D
330
1F
100
AcDbEntity
  8
0
  6
HIDDEN
 62
     7
370
     0
100
AcDbLine
 10
221.6979598915
 20
155.5886350901
 30
0.0
 11
221.9315765714
 21
155.514948848
 31
0.0
  0
LINE
  5
22E
330
1F
100
AcDbEntity
  8
0
  6
HIDDEN
 62
     7
370
     0
100
AcDbLine
 10
250.2580656027
 20
132.919227551
 30
0.0
 11
250.2580656027
 21
137.9192274392
 31
0.0
  0
LINE
  5
22F
330
1F
100
AcDbEntity
  8
0
  6
HIDDEN
 62
     7
370
     0
100
AcDbLine
 10
239.2580656623
 20
137.9192274392
 30
0.0
 11
239.2580656623
 21
132.919227551
 31
0.0
  0
LINE
  5
230
330
1F
100
AcDbEntity
  8
0
  6
HIDDEN
 62
     7
370
     0
100
AcDbLine
 10
247.9580639219
 20
127.9192274299
 30
0.0
 11
247.9580639219
 21
132.919227551
 31
0.0
  0
LINE
  5
231
330
1F
100
AcDbEntity
  8
0
  6
HIDDEN
 62
     7
370
     0
100
AcDbLine
 10
241.5580636179
 20
132.919227551
 30
0.0
 11
241.5580636179
 21
127.9192274299
 31
0.0
  0
LINE
  5
232
330
1F
100
AcDbEntity
  8
0
  6
HIDDEN
 62
     7
370
     0
100
AcDbLine
 10
242.508064798
 20
109.919226575
 30
0.0
 11
244.7580656325
 21
108.567290786
 31
0.0
  0
LINE
  5
233
330
1F
100
AcDbEntity
  8
0
  6
HIDDEN
 62
     7
370
     0
100
AcDbLine
 10
244.7580656325
 20
108.567290786
 30
0.0
 11
247.0080627417
 21
109.919226575
 31
0.0
  0
LINE
  5
234
330
1F
100
AcDbEntity
  8
0
  6
HIDDEN
 62
     7
370
     0
100
AcDbLine
 10
247.0080627417
 20
109.919226575
 30
0.0
 11
247.0080627417
 21
125.9192273349
 31
0.0
  0
LINE
  5
235
330
1F
100
AcDbEntity
  8
0
  6
HIDDEN
 62
     7
370
     0
100
AcDbLine
 10
242.508064798
 20
125.9192273349
 30
0.0
 11
242.508064798
 21
109.919226575
 31
0.0
  0
LINE
  5
236
330
1F
100
AcDbEntity
  8
VERMASSUNG
  6
CENTERX2
100
AcDbLine
 10
163.7069447018
 20
125.9192273349
 30
0.0
 11
258.619760662
 21
125.9192273349
 31
0.0
  0
DIMENSION
  5
237
330
1F
100
AcDbEntity
  8
VERMASSUNG
100
AcDbDimension
  2
_D
 10
270.1261481977
 20
104.090508627
 30
0.0
 11
270.1261481977
 21
117.090508627
 31
0.0
 70
   160
  1
<>
 71
     2
 42
-1.0
  3
SLDDIMSTYLE0
100
AcDbAlignedDimension
 13
249.6580645358
 23
130.090508627
 33
0.0
 14
249.6580645358
 24
104.090508627
 34
0.0
 50
90.0
100
AcDbRotatedDimension
  0
DIMENSION
  5
242
330
1F
100
AcDbEntity
  8
VERMASSUNG
100
AcDbDimension
  2
_D_1
 10
197.1580645358
 20
78.9824451949
 30
0.0
 11
223.4080645358
 21
78.9824451949
 31
0.0
 70
   160
  1
<>
 71
     2
 42
-1.0
  3
SLDDIMSTYLE0
100
AcDbAlignedDimension
 13
249.6580645358
 23
104.090508627
 33
0.0
 14
197.1580645358
 24
101.2192273349
 34
0.0
100
AcDbRotatedDimension
  0
DIMENSION
  5
24C
330
1F
100
AcDbEntity
  8
VERMASSUNG
100
AcDbDimension
  2
_D_2
 10
255.1580645358
 20
78.9824451949
 30
0.0
 11
252.4080645358
 21
78.9824451949
 31
0.0
 70
   160
  1
<>
 71
     2
 42
-1.0
  3
SLDDIMSTYLE1
100
AcDbAlignedDimension
 13
249.6580645358
 23
104.090508627
 33
0.0
 14
255.1580645358
 24
85.9192273349
 34
0.0
100
AcDbRotatedDimension
  0
DIMENSION
  5
259
330
1F
100
AcDbEntity
  8
VERMASSUNG
100
AcDbDimension
  2
_D_3
 10
255.1580645358
 20
173.89341266
 30
0.0
 11
226.1580645358
 21
173.89341266
 31
0.0
 70
   160
  1
<>
 71
     2
 42
-1.0
  3
SLDDIMSTYLE0
100
AcDbAlignedDimension
 13
197.1580645358
 23
150.6192273349
 33
0.0
 14
255.1580645358
 24
137.9192273349
 34
0.0
100
AcDbRotatedDimension
  0
DIMENSION
  5
263
330
1F
100
AcDbEntity
  8
VERMASSUNG
100
AcDbDimension
  2
_D_4
 10
255.1580645358
 20
181.9192273349
 30
0.0
 11
211.1580645358
 21
181.9192273349
 31
0.0
 70
   160
  1
<>
 71
     2
 42
-1.0
  3
SLDDIMSTYLE0
100
AcDbAlignedDimension
 13
167.1580645358
 23
141.859802254
 33
0.0
 14
255.1580645358
 24
137.9192273349
 34
0.0
100
AcDbRotatedDimension
  0
DIMENSION
  5
26D
330
1F
100
AcDbEntity
  8
VERMASSUNG
100
AcDbDimension
  2
_D_5
 10
157.1580645358
 20
100.9192273349
 30
0.0
 11
157.1580645358
 21
125.9192273349
 31
0.0
 70
   160
  1
PSC%%c<>
 71
     2
 42
-1.0
  3
SLDDIMSTYLE0
100
AcDbAlignedDimension
 13
197.4580645358
 23
150.9192273349
 33
0.0
 14
197.4580645358
 24
100.9192273349
 34
0.0
 50
90.0
100
AcDbRotatedDimension
  0
ARC
  5
279
330
1F
100
AcDbEntity
  8
0
  6
Continuous
 62
     7
370
    15
100
AcDbCircle
 10
104.8039075525
 20
138.6192273349
 30
0.0
 40
0.3000000000000114
100
AcDbArc
 50
90.0
 51
180.0
  0
ARC
  5
27A
330
1F
100
AcDbEntity
  8
0
  6
Continuous
 62
     7
370
    15
100
AcDbCircle
 10
114.2039075525
 20
138.6192273349
 30
0.0
 40
0.2999999999999972
100
AcDbArc
 50
0.0
 51
90.0
  0
LINE
  5
27B
330
1F
100
AcDbEntity
  8
0
  6
Continuous
 62
     7
370
    15
100
AcDbLine
 10
104.5039075972
 20
138.6192271815
 30
0.0
 11
104.5039075972
 21
137.9192274392
 31
0.0
  0
LINE
  5
27C
330
1F
100
AcDbEntity
  8
0
  6
Continuous
 62
     7
370
    15
100
AcDbLine
 10
114.5039073737
 20
137.9192274392
 30
0.0
 11
114.5039073737
 21
138.6192271815
 31
0.0
  0
LINE
  5
27D
330
1F
100
AcDbEntity
  8
0
  6
Continuous
 62
     7
370
    15
100
AcDbLine
 10
106.5039079251
 20
127.9192274299
 30
0.0
 11
106.5039079251
 21
125.9192273349
 31
0.0
  0
LINE
  5
27E
330
1F
100
AcDbEntity
  8
0
  6
Continuous
 62
     7
370
    15
100
AcDbLine
 10
112.5039070459
 20
125.9192273349
 30
0.0
 11
112.5039070459
 21
127.9192274299
 31
0.0
  0
ARC
  5
27F
330
1F
100
AcDbEntity
  8
0
  6
Continuous
 62
     7
370
    15
100
AcDbCircle
 10
76.8039075525
 20
138.6192273349
 30
0.0
 40
0.2999999999999972
100
AcDbArc
 50
90.0
 51
180.0
  0
ARC
  5
280
330
1F
100
AcDbEntity
  8
0
  6
Continuous
 62
     7
370
    15
100
AcDbCircle
 10
86.2039075525
 20
138.6192273349
 30
0.0
 40
0.2999999999999972
100
AcDbArc
 50
0.0
 51
90.0
  0
LINE
  5
281
330
1F
100
AcDbEntity
  8
0
  6
Continuous
 62
     7
370
    15
100
AcDbLine
 10
76.5039076643
 20
138.6192271815
 30
0.0
 11
76.5039076643
 21
137.9192274392
 31
0.0
  0
LINE
  5
282
330
1F
100
AcDbEntity
  8
0
  6
Continuous
 62
     7
370
    15
100
AcDbLine
 10
86.5039074408
 20
137.9192274392
 30
0.0
 11
86.5039074408
 21
138.6192271815
 31
0.0
  0
LINE
  5
283
330
1F
100
AcDbEntity
  8
0
  6
Continuous
 62
     7
370
    15
100
AcDbLine
 10
78.5039075265
 20
127.9192274299
 30
0.0
 11
78.5039075265
 21
125.9192273349
 31
0.0
  0
LINE
  5
284
330
1F
100
AcDbEntity
  8
0
  6
Continuous
 62
     7
370
    15
100
AcDbLine
 10
84.5039075786
 20
125.9192273349
 30
0.0
 11
84.5039075786
 21
127.9192274299
 31
0.0
  0
ARC
  5
285
330
1F
100
AcDbEntity
  8
0
  6
Continuous
 62
     7
370
    15
100
AcDbCircle
 10
48.8039075525
 20
138.6192273349
 30
0.0
 40
0.2999999999999972
100
AcDbArc
 50
90.0
 51
180.0
  0
ARC
  5
286
330
1F
100
AcDbEntity
  8
0
  6
Continuous
 62
     7
370
    15
100
AcDbCircle
 10
58.2039075525
 20
138.6192273349
 30
0.0
 40
0.2999999999999972
100
AcDbArc
 50
0.0
 51
90.0
  0
LINE
  5
287
330
1F
100
AcDbEntity
  8
0
  6
Continuous
 62
     7
370
    15
100
AcDbLine
 10
48.5039077313
 20
138.6192271815
 30
0.0
 11
48.5039077313
 21
137.9192274392
 31
0.0
  0
LINE
  5
288
330
1F
100
AcDbEntity
  8
0
  6
Continuous
 62
     7
370
    15
100
AcDbLine
 10
58.5039075078
 20
137.9192274392
 30
0.0
 11
58.5039075078
 21
138.6192271815
 31
0.0
  0
LINE
  5
289
330
1F
100
AcDbEntity
  8
0
  6
Continuous
 62
     7
370
    15
100
AcDbLine
 10
50.5039080592
 20
127.9192274299
 30
0.0
 11
50.5039080592
 21
125.9192273349
 31
0.0
  0
LINE
  5
28A
330
1F
100
AcDbEntity
  8
0
  6
Continuous
 62
     7
370
    15
100
AcDbLine
 10
56.50390718
 20
125.9192273349
 30
0.0
 11
56.50390718
 21
127.9192274299
 31
0.0
  0
CIRCLE
  5
28B
330
1F
100
AcDbEntity
  8
0
  6
Continuous
 62
     7
370
    15
100
AcDbCircle
 10
67.5039075525
 20
154.9192273349
 30
0.0
 40
3.309499999999986
  0
LINE
  5
28C
330
1F
100
AcDbEntity
  8
0
  6
Continuous
 62
     7
370
    15
100
AcDbLine
 10
68.9114354165
 20
156.7501284511
 30
0.0
 11
66.6220647828
 21
157.0536334396
 31
0.0
  0
LINE
  5
28D
330
1F
100
AcDbEntity
  8
0
  6
Continuous
 62
     7
370
    15
100
AcDbLine
 10
65.2145374181
 20
155.222731489
 30
0.0
 11
66.6220647828
 21
157.0536334396
 31
0.0
  0
LINE
  5
28E
330
1F
100
AcDbEntity
  8
0
  6
Continuous
 62
     7
370
    15
100
AcDbLine
 10
66.0963797556
 20
153.0883264125
 30
0.0
 11
65.2145374181
 21
155.222731489
 31
0.0
  0
LINE
  5
28F
330
1F
100
AcDbEntity
  8
0
  6
Continuous
 62
     7
370
    15
100
AcDbLine
 10
66.0963797556
 20
153.0883264125
 30
0.0
 11
68.3857503893
 21
152.784821424
 31
0.0
  0
LINE
  5
290
330
1F
100
AcDbEntity
  8
0
  6
Continuous
 62
     7
370
    15
100
AcDbLine
 10
69.7932786854
 20
154.6157233746
 30
0.0
 11
68.3857503893
 21
152.784821424
 31
0.0
  0
LINE
  5
291
330
1F
100
AcDbEntity
  8
0
  6
Continuous
 62
     7
370
    15
100
AcDbLine
 10
69.7932786854
 20
154.6157233746
 30
0.0
 11
68.9114354165
 21
156.7501284511
 31
0.0
  0
ARC
  5
292
330
1F
100
AcDbEntity
  8
0
  6
Continuous
 62
     7
370
    15
100
AcDbCircle
 10
95.5039075525
 20
154.9192273349
 30
0.0
 40
6.499999999999999
100
AcDbArc
 50
205.5418713137
 51
265.5418713137
  0
ARC
  5
293
330
1F
100
AcDbEntity
  8
0
  6
Continuous
 62
     7
370
    15
100
AcDbCircle
 10
95.5039075525
 20
154.9192273349
 30
0.0
 40
6.500000000000018
100
AcDbArc
 50
145.5418713137
 51
205.5418713137
  0
ARC
  5
294
330
1F
100
AcDbEntity
  8
0
  6
Continuous
 62
     7
370
    15
100
AcDbCircle
 10
95.5039075525
 20
154.9192273349
 30
0.0
 40
6.500000000000036
100
AcDbArc
 50
85.5418713137
 51
145.5418713137
  0
ARC
  5
295
330
1F
100
AcDbEntity
  8
0
  6
Continuous
 62
     7
370
    15
100
AcDbCircle
 10
95.5039075525
 20
154.9192273349
 30
0.0
 40
6.500000000000036
100
AcDbArc
 50
25.5418713137
 51
85.5418713137
  0
ARC
  5
296
330
1F
100
AcDbEntity
  8
0
  6
Continuous
 62
     7
370
    15
100
AcDbCircle
 10
95.5039075525
 20
154.9192273349
 30
0.0
 40
6.500000000000012
100
AcDbArc
 50
325.5418713137
 51
25.5418713137
  0
ARC
  5
297
330
1F
100
AcDbEntity
  8
0
  6
Continuous
 62
     7
370
    15
100
AcDbCircle
 10
95.5039075525
 20
154.9192273349
 30
0.0
 40
6.500000000000002
100
AcDbArc
 50
265.5418713137
 51
325.5418713137
  0
SPLINE
  5
298
330
1F
100
AcDbEntity
  8
0
  6
Continuous
 62
     7
370
    15
100
AcDbSpline
210
0.0
220
0.0
230
1.0
 70
     8
 71
     3
 72
    10
 73
     6
 74
     0
 42
0.00000001
 43
0.00000001
 12
1.0
 22
0.0
 32
0.0
 13
1.0
 23
0.0
 33
0.0
 40
0.0
 40
0.0
 40
0.0
 40
0.0
 40
0.3854631977860125
 40
0.776588135907348
 40
1.0
 40
1.0
 40
1.0
 40
1.0
 10
100.863416081834
 20
151.2415025711882
 30
0.0
 10
101.1404058624018
 20
151.6451559755968
 30
0.0
 10
101.6984538903123
 20
152.4583917051886
 30
0.0
 10
102.4062830629709
 20
153.4899051234284
 30
0.0
 10
102.8319883665814
 20
154.1102814446134
 30
0.0
 10
102.9867514582158
 20
154.3358162374127
 30
0.0
  0
SPLINE
  5
299
330
1F
100
AcDbEntity
  8
0
  6
Continuous
 62
     7
370
    15
100
AcDbSpline
210
0.0
220
0.0
230
1.0
 70
     8
 71
     3
 72
     9
 73
     5
 74
     0
 42
0.00000001
 43
0.00000001
 12
1.0
 22
0.0
 32
0.0
 13
1.0
 23
0.0
 33
0.0
 40
0.0
 40
0.0
 40
0.0
 40
0.0
 40
0.4954579267993661
 40
1.0
 40
1.0
 40
1.0
 40
1.0
 10
102.9867514582158
 20
154.3358162374127
 30
0.0
 10
102.7239673995111
 20
154.8857208737028
 30
0.0
 10
102.1935811759981
 20
155.9956125648952
 30
0.0
 10
101.6452979730566
 20
157.1429545792303
 30
0.0
 10
101.3686660291435
 20
157.7218368978131
 30
0.0
  0
SPLINE
  5
29A
330
1F
100
AcDbEntity
  8
0
  6
Continuous
 62
     7
370
    15
100
AcDbSpline
210
0.0
220
0.0
230
1.0
 70
     8
 71
     3
 72
     9
 73
     5
 74
     0
 42
0.00000001
 43
0.00000001
 12
1.0
 22
0.0
 32
0.0
 13
1.0
 23
0.0
 33
0.0
 40
0.0
 40
0.0
 40
0.0
 40
0.0
 40
0.4954580832588379
 40
0.9999999999999999
 40
0.9999999999999999
 40
0.9999999999999999
 40
0.9999999999999999
 10
99.75057873742594
 20
161.1078538329232
 30
0.0
 10
99.14295512780086
 20
161.1552289381129
 30
0.0
 10
97.91656760854092
 20
161.250847733709
 30
0.0
 10
96.64879864976984
 20
161.3496917435571
 30
0.0
 10
96.00915606932654
 20
161.3995626897443
 30
0.0
  0
SPLINE
  5
29B
330
1F
100
AcDbEntity
  8
0
  6
Continuous
 62
     7
370
    15
100
AcDbSpline
210
0.0
220
0.0
230
1.0
 70
     8
 71
     3
 72
    10
 73
     6
 74
     0
 42
0.00000001
 43
0.00000001
 12
1.0
 22
0.0
 32
0.0
 13
1.0
 23
0.0
 33
0.0
 40
0.0
 40
0.0
 40
0.0
 40
0.0
 40
0.0700764531698901
 40
0.5307777202138675
 40
0.9999999999999999
 40
0.9999999999999999
 40
0.9999999999999999
 40
0.9999999999999999
 10
101.3686660291435
 20
157.7218368978131
 30
0.0
 10
101.3303191599371
 20
157.8020806500084
 30
0.0
 10
101.0398697594038
 20
158.4098682009614
 30
0.0
 10
100.4922434803104
 20
159.5558408312604
 30
0.0
 10
99.99930593574442
 20
160.5873654999386
 30
0.0
 10
99.75057873742594
 20
161.1078538329232
 30
0.0
  0
SPLINE
  5
29C
330
1F
100
AcDbEntity
  8
0
  6
Continuous
 62
     7
370
    15
100
AcDbSpline
210
0.0
220
0.0
230
1.0
 70
     8
 71
     3
 72
    10
 73
     6
 74
     0
 42
0.00000001
 43
0.00000001
 12
1.0
 22
0.0
 32
0.0
 13
1.0
 23
0.0
 33
0.0
 40
0.0
 40
0.0
 40
0.0
 40
0.0
 40
0.0700770466565915
 40
0.5307777612773262
 40
1.0
 40
1.0
 40
1.0
 40
1.0
 10
94.99865896867527
 20
148.4388940364945
 30
0.0
 10
95.08732626042058
 20
148.4319807328753
 30
0.0
 10
95.75891030764409
 20
148.3796179694156
 30
0.0
 10
97.02516576527958
 20
148.2808955881857
 30
0.0
 10
98.16496081653017
 20
148.192029247188
 30
0.0
 10
98.7400807054521
 20
148.1471889049638
 30
0.0
  0
SPLINE
  5
29D
330
1F
100
AcDbEntity
  8
0
  6
Continuous
 62
     7
370
    15
100
AcDbSpline
210
0.0
220
0.0
230
1.0
 70
     8
 71
     3
 72
    10
 73
     6
 74
     0
 42
0.00000001
 43
0.00000001
 12
1.0
 22
0.0
 32
0.0
 13
1.0
 23
0.0
 33
0.0
 40
0.0
 40
0.0
 40
0.0
 40
0.0
 40
0.3774424952513667
 40
0.7583799820083691
 40
0.9999999999999999
 40
0.9999999999999999
 40
0.9999999999999999
 40
0.9999999999999999
 10
98.7400807054521
 20
148.1471889049638
 30
0.0
 10
99.00226338197203
 20
148.5292643676763
 30
0.0
 10
99.52905645907289
 20
149.2969531843392
 30
0.0
 10
100.2426170420774
 20
150.3368166892411
 30
0.0
 10
100.6898435562729
 20
150.9885566042766
 30
0.0
 10
100.863416081834
 20
151.2415025711882
 30
0.0
  0
SPLINE
  5
29E
330
1F
100
AcDbEntity
  8
0
  6
Continuous
 62
     7
370
    15
100
AcDbSpline
210
0.0
220
0.0
230
1.0
 70
     8
 71
     3
 72
    10
 73
     6
 74
     0
 42
0.00000001
 43
0.00000001
 12
1.0
 22
0.0
 32
0.0
 13
1.0
 23
0.0
 33
0.0
 40
0.0
 40
0.0
 40
0.0
 40
0.0
 40
0.070076765670168
 40
0.5307777740545739
 40
1.0
 40
1.0
 40
1.0
 40
1.0
 10
89.63914994018091
 20
152.1166179657805
 30
0.0
 10
89.6774964666367
 20
152.0363735772392
 30
0.0
 10
89.96794200532956
 20
151.4285838551673
 30
0.0
 10
90.51557142604118
 20
150.282612272774
 30
0.0
 10
91.0085090215221
 20
149.2510876121385
 30
0.0
 10
91.25723630057587
 20
148.7305991680253
 30
0.0
  0
SPLINE
  5
29F
330
1F
100
AcDbEntity
  8
0
  6
Continuous
 62
     7
370
    15
100
AcDbSpline
210
0.0
220
0.0
230
1.0
 70
     8
 71
     3
 72
     9
 73
     5
 74
     0
 42
0.00000001
 43
0.00000001
 12
1.0
 22
0.0
 32
0.0
 13
1.0
 23
0.0
 33
0.0
 40
0.0
 40
0.0
 40
0.0
 40
0.0
 40
0.4954580833328222
 40
1.0
 40
1.0
 40
1.0
 40
1.0
 10
91.25723630057587
 20
148.7305991680253
 30
0.0
 10
91.86485991015465
 20
148.6832246864902
 30
0.0
 10
93.091247429138
 20
148.5876071496516
 30
0.0
 10
94.35901638818603
 20
148.4887643646753
 30
0.0
 10
94.99865896867527
 20
148.4388940364945
 30
0.0
  0
SPLINE
  5
2A0
330
1F
100
AcDbEntity
  8
0
  6
Continuous
 62
     7
370
    15
100
AcDbSpline
210
0.0
220
0.0
230
1.0
 70
     8
 71
     3
 72
    10
 73
     6
 74
     0
 42
0.00000001
 43
0.00000001
 12
1.0
 22
0.0
 32
0.0
 13
1.0
 23
0.0
 33
0.0
 40
0.0
 40
0.0
 40
0.0
 40
0.0
 40
0.2234128212902473
 40
0.609201302960034
 40
1.0
 40
1.0
 40
1.0
 40
1.0
 10
92.26773340122713
 20
161.691267821275
 30
0.0
 10
92.11296947470515
 20
161.4657315984816
 30
0.0
 10
91.69095973889904
 20
160.8507402116983
 30
0.0
 10
90.98328026087856
 20
159.8194456347103
 30
0.0
 10
90.42522554865032
 20
159.0061989821565
 30
0.0
 10
90.14439802484526
 20
158.5969522924054
 30
0.0
  0
SPLINE
  5
2A1
330
1F
100
AcDbEntity
  8
0
  6
Continuous
 62
     7
370
    15
100
AcDbSpline
210
0.0
220
0.0
230
1.0
 70
     8
 71
     3
 72
    10
 73
     6
 74
     0
 42
0.00000001
 43
0.00000001
 12
1.0
 22
0.0
 32
0.0
 13
1.0
 23
0.0
 33
0.0
 40
0.0
 40
0.0
 40
0.0
 40
0.0
 40
0.0700769920054469
 40
0.5307776351302104
 40
1.0
 40
1.0
 40
1.0
 40
1.0
 10
96.00915606932654
 20
161.3995626897443
 30
0.0
 10
95.92048877329489
 20
161.4064753181105
 30
0.0
 10
95.24890432946766
 20
161.458832995456
 30
0.0
 10
93.98264921246945
 20
161.5575634478452
 30
0.0
 10
92.8428536625738
 20
161.6464282474102
 30
0.0
 10
92.26773340122713
 20
161.691267821275
 30
0.0
  0
SPLINE
  5
2A2
330
1F
100
AcDbEntity
  8
0
  6
Continuous
 62
     7
370
    15
100
AcDbSpline
210
0.0
220
0.0
230
1.0
 70
     8
 71
     3
 72
     9
 73
     5
 74
     0
 42
0.00000001
 43
0.00000001
 12
1.0
 22
0.0
 32
0.0
 13
1.0
 23
0.0
 33
0.0
 40
0.0
 40
0.0
 40
0.0
 40
0.0
 40
0.4954579785708796
 40
1.0
 40
1.0
 40
1.0
 40
1.0
 10
88.02106264846338
 20
155.5026386261809
 30
0.0
 10
88.28384723641322
 20
154.9527340192161
 30
0.0
 10
88.81423447269874
 20
153.8428425031868
 30
0.0
 10
89.36251790761312
 20
152.6955003134575
 30
0.0
 10
89.63914994018091
 20
152.1166179657805
 30
0.0
  0
SPLINE
  5
2A3
330
1F
100
AcDbEntity
  8
0
  6
Continuous
 62
     7
370
    15
100
AcDbSpline
210
0.0
220
0.0
230
1.0
 70
     8
 71
     3
 72
    10
 73
     6
 74
     0
 42
0.00000001
 43
0.00000001
 12
1.0
 22
0.0
 32
0.0
 13
1.0
 23
0.0
 33
0.0
 40
0.0
 40
0.0
 40
0.0
 40
0.0
 40
0.2416192108690672
 40
0.6187320597292681
 40
1.0
 40
1.0
 40
1.0
 40
1.0
 10
90.14439802484526
 20
158.5969522924054
 30
0.0
 10
89.97082540606097
 20
158.3440070027702
 30
0.0
 10
89.5263452525718
 20
157.6962714212661
 30
0.0
 10
88.81275532866538
 20
156.6563623918748
 30
0.0
 10
88.28592236332175
 20
155.8886153507972
 30
0.0
 10
88.02106264846338
 20
155.5026386261809
 30
0.0
  0
LINE
  5
2A4
330
1F
100
AcDbEntity
  8
0
  6
Continuous
 62
     7
370
    15
100
AcDbLine
 10
104.8039070876
 20
138.9192276032
 30
0.0
 11
114.2039060207
 21
138.9192276032
 31
0.0
  0
LINE
  5
2A5
330
1F
100
AcDbEntity
  8
0
  6
Continuous
 62
     7
370
    15
100
AcDbLine
 10
76.8039076203
 20
138.9192276032
 30
0.0
 11
86.2039074847
 21
138.9192276032
 31
0.0
  0
LINE
  5
2A6
330
1F
100
AcDbEntity
  8
0
  6
Continuous
 62
     7
370
    15
100
AcDbLine
 10
48.8039090844
 20
138.9192276032
 30
0.0
 11
58.2039080174
 21
138.9192276032
 31
0.0
  0
LINE
  5
2A7
330
1F
100
AcDbEntity
  8
0
  6
Continuous
 62
     7
370
    15
100
AcDbLine
 10
97.6039081426
 20
128.6167880383
 30
0.0
 11
97.6039081426
 21
137.9192274392
 31
0.0
  0
LINE
  5
2A8
330
1F
100
AcDbEntity
  8
0
  6
Continuous
 62
     7
370
    15
100
AcDbLine
 10
97.6039081426
 20
137.9192274392
 30
0.0
 11
119.6614749344
 21
137.9192274392
 31
0.0
  0
LINE
  5
2A9
330
1F
100
AcDbEntity
  8
0
  6
Continuous
 62
     7
370
    15
100
AcDbLine
 10
97.6039081426
 20
128.6167880383
 30
0.0
 11
121.4128419371
 21
128.6167880383
 31
0.0
  0
ARC
  5
2AA
330
1F
100
AcDbEntity
  8
0
  6
Continuous
 62
     7
370
    15
100
AcDbCircle
 10
81.5039075525
 20
125.9192273349
 30
0.0
 40
39.99999999999999
100
AcDbArc
 50
3.8669060399
 51
17.4576031237
  0
LINE
  5
2AB
330
1F
100
AcDbEntity
  8
0
  6
Continuous
 62
     7
370
    15
100
AcDbLine
 10
47.0702893646
 20
105.5642299683
 30
0.0
 11
115.9375257404
 21
105.5642299683
 31
0.0
  0
ARC
  5
2AC
330
1F
100
AcDbEntity
  8
0
  6
Continuous
 62
     7
370
    15
100
AcDbCircle
 10
81.5039075525
 20
125.9192273349
 30
0.0
 40
40.00000000000001
100
AcDbArc
 50
210.5889199956
 51
329.4110800044
  0
LINE
  5
2AD
330
1F
100
AcDbEntity
  8
0
  6
Continuous
 62
     7
370
    15
100
AcDbLine
 10
69.6039072783
 20
128.6167880383
 30
0.0
 11
69.6039072783
 21
137.9192274392
 31
0.0
  0
LINE
  5
2AE
330
1F
100
AcDbEntity
  8
0
  6
Continuous
 62
     7
370
    15
100
AcDbLine
 10
93.4039078267
 20
128.6167880383
 30
0.0
 11
93.4039078267
 21
137.9192274392
 31
0.0
  0
LINE
  5
2AF
330
1F
100
AcDbEntity
  8
0
  6
Continuous
 62
     7
370
    15
100
AcDbLine
 10
69.6039072783
 20
128.6167880383
 30
0.0
 11
93.4039078267
 21
128.6167880383
 31
0.0
  0
LINE
  5
2B0
330
1F
100
AcDbEntity
  8
0
  6
Continuous
 62
     7
370
    15
100
AcDbLine
 10
69.6039072783
 20
137.9192274392
 30
0.0
 11
93.4039078267
 21
137.9192274392
 31
0.0
  0
LINE
  5
2B1
330
1F
100
AcDbEntity
  8
0
  6
Continuous
 62
     7
370
    15
100
AcDbLine
 10
65.4039069624
 20
128.6167880383
 30
0.0
 11
65.4039069624
 21
137.9192274392
 31
0.0
  0
LINE
  5
2B2
330
1F
100
AcDbEntity
  8
0
  6
Continuous
 62
     7
370
    15
100
AcDbLine
 10
41.5949731679
 20
128.6167880383
 30
0.0
 11
65.4039069624
 21
128.6167880383
 31
0.0
  0
LINE
  5
2B3
330
1F
100
AcDbEntity
  8
0
  6
Continuous
 62
     7
370
    15
100
AcDbLine
 10
43.3463401707
 20
137.9192274392
 30
0.0
 11
65.4039069624
 21
137.9192274392
 31
0.0
  0
ARC
  5
2B4
330
1F
100
AcDbEntity
  8
0
  6
Continuous
 62
     7
370
    15
100
AcDbCircle
 10
81.5039075525
 20
125.9192273349
 30
0.0
 40
40.00000000000001
100
AcDbArc
 50
162.5423968763
 51
176.1330939601
  0
LINE
  5
2B5
330
1F
100
AcDbEntity
  8
0
  6
Continuous
 62
     7
370
    15
100
AcDbLine
 10
121.5039066585
 20
125.9192273349
 30
0.0
 11
41.5039084466
 21
125.9192273349
 31
0.0
  0
ARC
  5
2B6
330
1F
100
AcDbEntity
  8
0
  6
Continuous
 62
     7
370
    15
100
AcDbCircle
 10
81.5039075525
 20
125.9192273349
 30
0.0
 40
40.0
100
AcDbArc
 50
180.0
 51
210.5889199956
  0
ARC
  5
2B7
330
1F
100
AcDbEntity
  8
0
  6
Continuous
 62
     7
370
    15
100
AcDbCircle
 10
81.5039075525
 20
125.9192273349
 30
0.0
 40
40.0
100
AcDbArc
 50
329.4110800044
 51
0.0
  0
LINE
  5
2B8
330
1F
100
AcDbEntity
  8
0
  6
Continuous
 62
     7
370
    15
100
AcDbLine
 10
121.4538760098
 20
127.9192274299
 30
0.0
 11
97.6039081426
 21
127.9192274299
 31
0.0
  0
LINE
  5
2B9
330
1F
100
AcDbEntity
  8
0
  6
Continuous
 62
     7
370
    15
100
AcDbLine
 10
97.6039081426
 20
127.9192274299
 30
0.0
 11
97.6039081426
 21
128.6167880383
 31
0.0
  0
ARC
  5
2BA
330
1F
100
AcDbEntity
  8
0
  6
Continuous
 62
     7
370
    15
100
AcDbCircle
 10
81.5039075525
 20
125.9192273349
 30
0.0
 40
40.0
100
AcDbArc
 50
2.8659839826
 51
3.8669060399
  0
LINE
  5
2BB
330
1F
100
AcDbEntity
  8
0
  6
Continuous
 62
     7
370
    15
100
AcDbLine
 10
93.4039078267
 20
127.9192274299
 30
0.0
 11
69.6039072783
 21
127.9192274299
 31
0.0
  0
LINE
  5
2BC
330
1F
100
AcDbEntity
  8
0
  6
Continuous
 62
     7
370
    15
100
AcDbLine
 10
69.6039072783
 20
127.9192274299
 30
0.0
 11
69.6039072783
 21
128.6167880383
 31
0.0
  0
LINE
  5
2BD
330
1F
100
AcDbEntity
  8
0
  6
Continuous
 62
     7
370
    15
100
AcDbLine
 10
93.4039078267
 20
128.6167880383
 30
0.0
 11
93.4039078267
 21
127.9192274299
 31
0.0
  0
LINE
  5
2BE
330
1F
100
AcDbEntity
  8
0
  6
Continuous
 62
     7
370
    15
100
AcDbLine
 10
65.4039069624
 20
127.9192274299
 30
0.0
 11
41.5539390953
 21
127.9192274299
 31
0.0
  0
LINE
  5
2BF
330
1F
100
AcDbEntity
  8
0
  6
Continuous
 62
     7
370
    15
100
AcDbLine
 10
65.4039069624
 20
128.6167880383
 30
0.0
 11
65.4039069624
 21
127.9192274299
 31
0.0
  0
ARC
  5
2C0
330
1F
100
AcDbEntity
  8
0
  6
Continuous
 62
     7
370
    15
100
AcDbCircle
 10
81.5039075525
 20
125.9192273349
 30
0.0
 40
40.00000000000001
100
AcDbArc
 50
176.1330939601
 51
177.1340160174
  0
SPLINE
  5
2C1
330
1F
100
AcDbEntity
  8
0
  6
Continuous
 62
     7
370
    15
100
AcDbSpline
210
0.0
220
0.0
230
1.0
 70
     8
 71
     3
 72
    32
 73
    28
 74
     0
 42
0.00000001
 43
0.00000001
 12
1.0
 22
0.0
 32
0.0
 13
1.0
 23
0.0
 33
0.0
 40
-0.0624999999999992
 40
-0.0624999999999992
 40
0.0
 40
0.0
 40
0.0625000000000006
 40
0.0625000000000006
 40
0.1250000000000012
 40
0.1250000000000012
 40
0.2500000000000017
 40
0.2500000000000017
 40
0.3125000000000019
 40
0.3125000000000019
 40
0.3750000000000021
 40
0.3750000000000021
 40
0.4375000000000022
 40
0.4375000000000022
 40
0.5000000000000023
 40
0.5000000000000023
 40
0.5625000000000024
 40
0.5625000000000024
 40
0.6250000000000026
 40
0.6250000000000026
 40
0.7500000000000021
 40
0.7500000000000021
 40
0.8750000000000014
 40
0.8750000000000014
 40
0.9375000000000008
 40
0.9375000000000008
 40
1.0
 40
1.0
 40
1.062500000000001
 40
1.062500000000001
 10
95.40527784511492
 20
128.0885649486474
 30
0.0
 10
95.60253725994212
 20
128.0885649486474
 30
0.0
 10
95.69815767817005
 20
128.1176104426958
 30
0.0
 10
95.86316142299152
 20
128.2173605184074
 30
0.0
 10
95.93274186765319
 20
128.2877099367722
 30
0.0
 10
96.09458829804437
 20
128.5272332140725
 30
0.0
 10
96.14402442978367
 20
128.7242254708973
 30
0.0
 10
96.144316899501
 20
129.0150378697144
 30
0.0
 10
96.1317411760259
 20
129.112936752363
 30
0.0
 10
96.08092875930691
 20
129.2982774040499
 30
0.0
 10
96.04174375393629
 20
129.3888211608074
 30
0.0
 10
95.93467885082171
 20
129.5484682799058
 30
0.0
 10
95.8654654456714
 20
129.6192055902002
 30
0.0
 10
95.70017442738843
 20
129.720107964161
 30
0.0
 10
95.60362138363344
 20
129.7494797486373
 30
0.0
 10
95.40845814171968
 20
129.7502908325456
 30
0.0
 10
95.31194390936686
 20
129.7219557904552
 30
0.0
 10
95.14472380354799
 20
129.6214034411255
 30
0.0
 10
95.07503267897374
 20
129.5506697346603
 30
0.0
 10
94.91342201451833
 20
129.311540284347
 30
0.0
 10
94.86371230492725
 20
129.1142717472043
 30
0.0
 10
94.863478358473
 20
128.7255316275147
 30
0.0
 10
94.91190954757592
 20
128.5298229916893
 30
0.0
 10
95.07452803337327
 20
128.2882001897355
 30
0.0
 10
95.14387045445663
 20
128.217982036983
 30
0.0
 10
95.30913580073847
 20
128.1177789140813
 30
0.0
 10
95.40527784511492
 20
128.0885649486474
 30
0.0
 10
95.60253725994212
 20
128.0885649486474
 30
0.0
  0
LINE
  5
2C2
330
1F
100
AcDbEntity
  8
0
  6
Continuous
 62
     7
370
    15
100
AcDbLine
 10
97.6039081426
 20
127.9192274299
 30
0.0
 11
93.4039078267
 21
127.9192274299
 31
0.0
  0
LINE
  5
2C3
330
1F
100
AcDbEntity
  8
0
  6
Continuous
 62
     7
370
    15
100
AcDbLine
 10
97.6039081426
 20
137.9192274392
 30
0.0
 11
93.4039078267
 21
137.9192274392
 31
0.0
  0
SPLINE
  5
2C4
330
1F
100
AcDbEntity
  8
0
  6
Continuous
 62
     7
370
    15
100
AcDbSpline
210
0.0
220
0.0
230
1.0
 70
     8
 71
     3
 72
    32
 73
    28
 74
     0
 42
0.00000001
 43
0.00000001
 12
1.0
 22
0.0
 32
0.0
 13
1.0
 23
0.0
 33
0.0
 40
-0.0625000000000002
 40
-0.0625000000000002
 40
0.0
 40
0.0
 40
0.0624999999999998
 40
0.0624999999999998
 40
0.1249999999999997
 40
0.1249999999999997
 40
0.2499999999999999
 40
0.2499999999999999
 40
0.3125
 40
0.3125
 40
0.3750000000000001
 40
0.3750000000000001
 40
0.4375000000000002
 40
0.4375000000000002
 40
0.5000000000000003
 40
0.5000000000000003
 40
0.5625000000000004
 40
0.5625000000000004
 40
0.6250000000000006
 40
0.6250000000000006
 40
0.7500000000000001
 40
0.7500000000000001
 40
0.8749999999999997
 40
0.8749999999999997
 40
0.9374999999999998
 40
0.9374999999999998
 40
1.0
 40
1.0
 40
1.0625
 40
1.0625
 10
67.40527784511494
 20
128.0885649486475
 30
0.0
 10
67.60253725994211
 20
128.0885649486475
 30
0.0
 10
67.69815767817005
 20
128.1176104426958
 30
0.0
 10
67.86316142299151
 20
128.2173605184075
 30
0.0
 10
67.93274186765318
 20
128.2877099367723
 30
0.0
 10
68.09458829804434
 20
128.5272332140725
 30
0.0
 10
68.14402442978364
 20
128.7242254708973
 30
0.0
 10
68.14431689950096
 20
129.0150378697144
 30
0.0
 10
68.13174117602586
 20
129.112936752363
 30
0.0
 10
68.0809287593069
 20
129.2982774040499
 30
0.0
 10
68.04174375393626
 20
129.3888211608074
 30
0.0
 10
67.9346788508217
 20
129.5484682799058
 30
0.0
 10
67.86546544567138
 20
129.6192055902002
 30
0.0
 10
67.70017442738842
 20
129.720107964161
 30
0.0
 10
67.60362138363344
 20
129.7494797486372
 30
0.0
 10
67.40845814171968
 20
129.7502908325456
 30
0.0
 10
67.31194390936687
 20
129.7219557904552
 30
0.0
 10
67.14472380354799
 20
129.6214034411254
 30
0.0
 10
67.07503267897374
 20
129.5506697346602
 30
0.0
 10
66.91342201451835
 20
129.311540284347
 30
0.0
 10
66.86371230492728
 20
129.1142717472043
 30
0.0
 10
66.86347835847303
 20
128.7255316275148
 30
0.0
 10
66.91190954757595
 20
128.5298229916893
 30
0.0
 10
67.07452803337327
 20
128.2882001897355
 30
0.0
 10
67.14387045445665
 20
128.2179820369831
 30
0.0
 10
67.30913580073849
 20
128.1177789140813
 30
0.0
 10
67.40527784511494
 20
128.0885649486475
 30
0.0
 10
67.60253725994211
 20
128.0885649486475
 30
0.0
  0
LINE
  5
2C5
330
1F
100
AcDbEntity
  8
0
  6
Continuous
 62
     7
370
    15
100
AcDbLine
 10
69.6039072783
 20
127.9192274299
 30
0.0
 11
65.4039069624
 21
127.9192274299
 31
0.0
  0
LINE
  5
2C6
330
1F
100
AcDbEntity
  8
0
  6
Continuous
 62
     7
370
    15
100
AcDbLine
 10
69.6039072783
 20
137.9192274392
 30
0.0
 11
65.4039069624
 21
137.9192274392
 31
0.0
  0
SPLINE
  5
2C7
330
1F
100
AcDbEntity
  8
0
  6
Continuous
 62
     7
370
    15
100
AcDbSpline
210
0.0
220
0.0
230
1.0
 70
     8
 71
     3
 72
    10
 73
     6
 74
     0
 42
0.00000001
 43
0.00000001
 12
1.0
 22
0.0
 32
0.0
 13
1.0
 23
0.0
 33
0.0
 40
0.0
 40
0.0
 40
0.0
 40
0.0
 40
0.4564279929266072
 40
0.9128778737575954
 40
1.0
 40
1.0
 40
1.0
 40
1.0
 10
121.5039066584588
 20
125.9192273349393
 30
0.0
 10
121.5024090254473
 20
126.1560366601457
 30
0.0
 10
121.4994136876056
 20
126.6296666666977
 30
0.0
 10
121.48379236457
 20
127.3860416483063
 30
0.0
 10
121.4557963963673
 20
127.8455748041623
 30
0.0
 10
121.4513092847348
 20
127.9192274299342
 30
0.0
  0
SPLINE
  5
2C8
330
1F
100
AcDbEntity
  8
0
  6
Continuous
 62
     7
370
    15
100
AcDbSpline
210
0.0
220
0.0
230
1.0
 70
     8
 71
     3
 72
    10
 73
     6
 74
     0
 42
0.00000001
 43
0.00000001
 12
1.0
 22
0.0
 32
0.0
 13
1.0
 23
0.0
 33
0.0
 40
0.0
 40
0.0
 40
0.0
 40
0.0
 40
0.3400481035271169
 40
0.7967999151339492
 40
1.0
 40
1.0
 40
1.0
 40
1.0
 10
41.55681501941694
 20
127.9192274299342
 30
0.0
 10
41.54353989128088
 20
127.6410991222936
 30
0.0
 10
41.51243364230466
 20
126.9893895270166
 30
0.0
 10
41.50495730173539
 20
126.3293651004091
 30
0.0
 10
41.50415536424132
 20
126.0157804687466
 30
0.0
 10
41.50390844659819
 20
125.9192273349393
 30
0.0
  0
CIRCLE
  5
2C9
330
1F
100
AcDbEntity
  8
0
  6
Continuous
 62
     7
370
    15
100
AcDbCircle
 10
67.5039075525
 20
154.9192273349
 30
0.0
 40
3.200000000000017
  0
ARC
  5
2CA
330
1F
100
AcDbEntity
  8
0
  6
Continuous
 62
     7
370
    15
100
AcDbCircle
 10
81.5039075525
 20
125.9192273349
 30
0.0
 40
40.00000000000001
100
AcDbArc
 50
17.4576031237
 51
162.5423968763
  0
DIMENSION
  5
2CB
330
1F
100
AcDbEntity
  8
VERMASSUNG
100
AcDbDimension
  2
_D_6
 10
111.5999794315
 20
99.5710498372
 30
0.0
 11
119.6613077716
 21
92.5136068982
 31
0.0
 70
   160
  1
%%c<>
 71
     2
 42
-1.0
  3
SLDDIMSTYLE1
100
AcDbAlignedDimension
 13
51.4078356735
 23
152.2674048327
 33
0.0
 14
111.5999794315
 24
99.5710498372
 34
0.0
 50
-41.201140521
100
AcDbRotatedDimension
  0
INSERT
  5
2E3
330
1F
100
AcDbEntity
  8
VERMASSUNG
100
AcDbBlockReference
  2
SW_CENTERMARKSYMBOL_0
 10
81.5039075525
 20
125.9192273349
 30
0.0
  0
LINE
  5
2E4
330
1F
100
AcDbEntity
  8
VERMASSUNG
  6
CENTERX2
370
     0
100
AcDbLine
 10
109.5039075525
 20
124.2516059826
 30
0.0
 11
109.5039075525
 21
143.6192273349
 31
0.0
  0
LINE
  5
2E5
330
1F
100
AcDbEntity
  8
VERMASSUNG
  6
CENTERX2
370
     0
100
AcDbLine
 10
53.5039075525
 20
143.6192273349
 30
0.0
 11
53.5039075525
 21
124.9252958596
 31
0.0
  0
OLE2FRAME
  5
2E6
330
1F
100
AcDbEntity
  8
0
100
AcDbOle2Frame
 70
     2
  3
Paintbrush-Bild
 10
13.8511154363
 20
38.264191557
 30
0.0
 11
51.6290888628
 21
31.9806341108
 31
0.0
 71
     2
 72
     0
 73
     1
 90
    12928
310
80552BED0767C5B32B40DDAF6807D121434000000000000000006FFBDDFB85D0
310
4940DDAF6807D121434000000000000000006FFBDDFB85D04940416F4BD60AFB
310
3F4000000000000000002BED0767C5B32B40416F4BD60AFB3F40000000000000
310
0000000000000100000000010000010000000100000000000100000000320000
310
D0CF11E0A1B11AE1000000000000000000000000000000003E000300FEFF0900
310
0600000000000000000000000100000001000000000000000010000002000000
310
01000000FEFFFFFF0000000000000000FFFFFFFFFFFFFFFFFFFFFFFFFFFFFFFF
310
FFFFFFFFFFFFFFFFFFFFFFFFFFFFFFFFFFFFFFFFFFFFFFFFFFFFFFFFFFFFFFFF
310
FFFFFFFFFFFFFFFFFFFFFFFFFFFFFFFFFFFFFFFFFFFFFFFFFFFFFFFFFFFFFFFF
310
FFFFFFFFFFFFFFFFFFFFFFFFFFFFFFFFFFFFFFFFFFFFFFFFFFFFFFFFFFFFFFFF
310
FFFFFFFFFFFFFFFFFFFFFFFFFFFFFFFFFFFFFFFFFFFFFFFFFFFFFFFFFFFFFFFF
310
FFFFFFFFFFFFFFFFFFFFFFFFFFFFFFFFFFFFFFFFFFFFFFFFFFFFFFFFFFFFFFFF
310
FFFFFFFFFFFFFFFFFFFFFFFFFFFFFFFFFFFFFFFFFFFFFFFFFFFFFFFFFFFFFFFF
310
FFFFFFFFFFFFFFFFFFFFFFFFFFFFFFFFFFFFFFFFFFFFFFFFFFFFFFFFFFFFFFFF
310
FFFFFFFFFFFFFFFFFFFFFFFFFFFFFFFFFFFFFFFFFFFFFFFFFFFFFFFFFFFFFFFF
310
FFFFFFFFFFFFFFFFFFFFFFFFFFFFFFFFFFFFFFFFFFFFFFFFFFFFFFFFFFFFFFFF
310
FFFFFFFFFFFFFFFFFFFFFFFFFFFFFFFFFFFFFFFFFFFFFFFFFFFFFFFFFFFFFFFF
310
FFFFFFFFFFFFFFFFFFFFFFFFFFFFFFFFFFFFFFFFFFFFFFFFFFFFFFFFFFFFFFFF
310
FFFFFFFFFFFFFFFFFFFFFFFFFFFFFFFFFFFFFFFFFFFFFFFFFFFFFFFFFFFFFFFF
310
FFFFFFFFFFFFFFFFFFFFFFFFFFFFFFFFFFFFFFFFFFFFFFFFFFFFFFFFFFFFFFFF
310
FDFFFFFFFEFFFFFFFEFFFFFFFEFFFFFF05000000060000000700000008000000
310
090000000A0000000B0000000C0000000D0000000E0000000F00000010000000
310
11000000120000001300000014000000150000001600000017000000FEFFFFFF
310
FFFFFFFFFFFFFFFFFFFFFFFFFFFFFFFFFFFFFFFFFFFFFFFFFFFFFFFFFFFFFFFF
310
FFFFFFFFFFFFFFFFFFFFFFFFFFFFFFFFFFFFFFFFFFFFFFFFFFFFFFFFFFFFFFFF
310
FFFFFFFFFFFFFFFFFFFFFFFFFFFFFFFFFFFFFFFFFFFFFFFFFFFFFFFFFFFFFFFF
310
FFFFFFFFFFFFFFFFFFFFFFFFFFFFFFFFFFFFFFFFFFFFFFFFFFFFFFFFFFFFFFFF
310
FFFFFFFFFFFFFFFFFFFFFFFFFFFFFFFFFFFFFFFFFFFFFFFFFFFFFFFFFFFFFFFF
310
FFFFFFFFFFFFFFFFFFFFFFFFFFFFFFFFFFFFFFFFFFFFFFFFFFFFFFFFFFFFFFFF
310
FFFFFFFFFFFFFFFFFFFFFFFFFFFFFFFFFFFFFFFFFFFFFFFFFFFFFFFFFFFFFFFF
310
FFFFFFFFFFFFFFFFFFFFFFFFFFFFFFFFFFFFFFFFFFFFFFFFFFFFFFFFFFFFFFFF
310
FFFFFFFFFFFFFFFFFFFFFFFFFFFFFFFFFFFFFFFFFFFFFFFFFFFFFFFFFFFFFFFF
310
FFFFFFFFFFFFFFFFFFFFFFFFFFFFFFFFFFFFFFFFFFFFFFFFFFFFFFFFFFFFFFFF
310
FFFFFFFFFFFFFFFFFFFFFFFFFFFFFFFFFFFFFFFFFFFFFFFFFFFFFFFFFFFFFFFF
310
FFFFFFFFFFFFFFFFFFFFFFFFFFFFFFFFFFFFFFFFFFFFFFFFFFFFFFFFFFFFFFFF
310
FFFFFFFFFFFFFFFFFFFFFFFFFFFFFFFFFFFFFFFFFFFFFFFFFFFFFFFFFFFFFFFF
310
52006F006F007400200045006E00740072007900000000000000000000000000
310
0000000000000000000000000000000000000000000000000000000000000000
310
16000500FFFFFFFFFFFFFFFF020000000A00030000000000C000000000000046
310
00000000000000000000000000B9B5B2624DCD0103000000C000000000000000
310
01004F006C006500000000000000000000000000000000000000000000000000
310
0000000000000000000000000000000000000000000000000000000000000000
310
0A000200FFFFFFFFFFFFFFFFFFFFFFFF00000000000000000000000000000000
310
0000000000000000000000000000000000000000000000001400000000000000
310
010043006F006D0070004F0062006A0000000000000000000000000000000000
310
0000000000000000000000000000000000000000000000000000000000000000
310
120002010100000003000000FFFFFFFF00000000000000000000000000000000
310
0000000000000000000000000000000000000000010000004D00000000000000
310
01004F006C006500310030004E00610074006900760065000000000000000000
310
0000000000000000000000000000000000000000000000000000000000000000
310
1A000200FFFFFFFFFFFFFFFFFFFFFFFF00000000000000000000000000000000
310
0000000000000000000000000000000000000000040000002426000000000000
310
FEFFFFFF02000000FEFFFFFFFFFFFFFFFFFFFFFFFFFFFFFFFFFFFFFFFFFFFFFF
310
FFFFFFFFFFFFFFFFFFFFFFFFFFFFFFFFFFFFFFFFFFFFFFFFFFFFFFFFFFFFFFFF
310
FFFFFFFFFFFFFFFFFFFFFFFFFFFFFFFFFFFFFFFFFFFFFFFFFFFFFFFFFFFFFFFF
310
FFFFFFFFFFFFFFFFFFFFFFFFFFFFFFFFFFFFFFFFFFFFFFFFFFFFFFFFFFFFFFFF
310
FFFFFFFFFFFFFFFFFFFFFFFFFFFFFFFFFFFFFFFFFFFFFFFFFFFFFFFFFFFFFFFF
310
FFFFFFFFFFFFFFFFFFFFFFFFFFFFFFFFFFFFFFFFFFFFFFFFFFFFFFFFFFFFFFFF
310
FFFFFFFFFFFFFFFFFFFFFFFFFFFFFFFFFFFFFFFFFFFFFFFFFFFFFFFFFFFFFFFF
310
FFFFFFFFFFFFFFFFFFFFFFFFFFFFFFFFFFFFFFFFFFFFFFFFFFFFFFFFFFFFFFFF
310
FFFFFFFFFFFFFFFFFFFFFFFFFFFFFFFFFFFFFFFFFFFFFFFFFFFFFFFFFFFFFFFF
310
FFFFFFFFFFFFFFFFFFFFFFFFFFFFFFFFFFFFFFFFFFFFFFFFFFFFFFFFFFFFFFFF
310
FFFFFFFFFFFFFFFFFFFFFFFFFFFFFFFFFFFFFFFFFFFFFFFFFFFFFFFFFFFFFFFF
310
FFFFFFFFFFFFFFFFFFFFFFFFFFFFFFFFFFFFFFFFFFFFFFFFFFFFFFFFFFFFFFFF
310
FFFFFFFFFFFFFFFFFFFFFFFFFFFFFFFFFFFFFFFFFFFFFFFFFFFFFFFFFFFFFFFF
310
FFFFFFFFFFFFFFFFFFFFFFFFFFFFFFFFFFFFFFFFFFFFFFFFFFFFFFFFFFFFFFFF
310
FFFFFFFFFFFFFFFFFFFFFFFFFFFFFFFFFFFFFFFFFFFFFFFFFFFFFFFFFFFFFFFF
310
FFFFFFFFFFFFFFFFFFFFFFFFFFFFFFFFFFFFFFFFFFFFFFFFFFFFFFFFFFFFFFFF
310
0100000200000000000000000000000000000000000000000000000000000000
310
0000000000000000000000000000000000000000000000000000000000000000
310
0100FEFF030A0000FFFFFFFF0A00030000000000C00000000000004607000000
310
5042727573680007000000504272757368000700000050427275736800F439B2
310
7100000000000000000000000000000000000000000000000000000000000000
310
0000000000000000000000000000000000000000000000000000000000000000
310
0000000000000000000000000000000000000000000000000000000000000000
310
0000000000000000000000000000000000000000000000000000000000000000
310
0000000000000000000000000000000000000000000000000000000000000000
310
0000000000000000000000000000000000000000000000000000000000000000
310
0000000000000000000000000000000000000000000000000000000000000000
310
0000000000000000000000000000000000000000000000000000000000000000
310
0000000000000000000000000000000000000000000000000000000000000000
310
0000000000000000000000000000000000000000000000000000000000000000
310
0000000000000000000000000000000000000000000000000000000000000000
310
0000000000000000000000000000000000000000000000000000000000000000
310
20260000424D0E260000000000003E00000028000000B40200006E0000000100
310
01000000000000000000130B0000130B00000200000002000000000000FFFFFF
310
FFFFFFFFFFFFFFFFFFFFFFFFFFFFFFFFFFFFFFFFFFFFFFFFFFFFFFFFFFFFFFFF
310
FFFFFFFFFFFFFFFFFFFFFFFFFFFFFFFFFFFFFFFFFFFFFFFFFFFFFFFFFFFFFFFF
310
FFFFFFFFFFFFFFFFFFFFFFFFFFFFFFFFFFFFFFFFFFFFFFFFF000FFFFFFFFFFFF
310
FFFFFFFFFFFFFFFFFFFFFFFFFFFFFFFFFFFFFFFFFFFFFFFFFFFFFFFFFFFFFFFF
310
FFFFFFFFFFFFFFFFFFFFFFFFFFFFFFFFFFFFFFFFFFFFFFFFFFFFFFFFFFFFFFFF
310
FFFFFFFFFFFFFFFFFFFFFFFFFFFFFFFFF000FFFFFFFFFFFFFFFFFFFFFFFFFFFF
310
FFFFFFFFFFFFFFFFFFFFFFFFFFFFFFFFFFFFFFFFFFFFFFFFFFFFFFFFFFFFFFFF
310
FFFFFFFFFFFFFFFFFFFFFFFFFFFFFFFFFFFFFFFFFFFFFFFFFFFFFFFFFFFFFFFF
310
FFFFFFFFFFFFFFFFF000FFFFFFFFFFFFFFFFFFFFFFFFFFFFFFFFFFFFFFFFFFFF
310
FFFFFFFFFFFFFFFFFFFFFFFFFFFFFFFFFFFFFFFFFFFFFFFFFFFFFFFFFFFFFFFF
310
FFFFFFFFFFFFFFFFFFFFFFFFFFFFFFFFFFFFFFFFFFFFFFFFFFFFFFFFFFFFFFFF
310
F000FFFFFFFFFFFFFFFFFFFFFFFFFFFFFFFFFFFFFFFFFFFFFFFFFFFFFFFFFFFF
310
FFFFFFFFFFFFFFFFFFFFFFFFFFFFFFFFFFFFFFFFFFFFFFFFFFFFFFFFFFFFFFFF
310
FFFFFFFFFFFFFFFFFFFFFFFFFFFFFFFFFFFFFFFFFFFFFFFFF000FFFFFFFFFFFF
310
FFFFFFFFFFFFFFFFFFFFFFFFFFFFFFFFFFFFFFFFFFFFFFFFFFFFFFFFFFFFFFFF
310
FFFFFFFFFFFFFFFFFFFFFFFFFFFFFFFFFFFFFFFFFFFFFFFFFFFFFFFFFFFFFFFF
310
FFFFFFFFFFFFFFFFFFFFFFFFFFFFFFFFF000FFFFFFFFFFFFFFFFFFFFFFFFFFFF
310
FFFFFFFFFFFFFFFFFFFFFFFFFFFFFFFFFFFFFFFFFFFFFFFFFFFFFFFFFFFFFFFF
310
FFFFFFFFFFFFFFFFFFFFFFFFFFFFFFFFFFFFFFFFFFFFFFFFFFFFFFFFFFFFFFFF
310
FFFFFFFFFFFFFFFFF000FFFFFFFFFFFFFFFFFFFFFFFFFFFFFFFFFFFFFFFFFFFF
310
FFFFFFFFFFFFFFFFFFFFFFFFFFFFFFFFFFFFFFFFFFFFFFFFFFFFFFFFFFFFFFFF
310
FFFFFFFFFFFFFFFFFFFFFFFFFFFFFFFFFFFFFFFFFFFFFFFFFFFFFFFFFFFFFFFF
310
F000FFFFFFFFFFFFFFFFFFFFFFFFFFFFFFFFFFFFFFFFFFFFFFFFFFFFFFFFFFFF
310
FFFFFFFFFFFFFFFFFFFFFFFFFFFFFFFFFFFFFFFFFFFFFFFFFFFFFFFFFFFFFFFF
310
FFFFFFFFFFFFFFFFFFFFFFFFFFFFFFFFFFFFFFFFFFFFFFFFF000FFFFFFFFFFFF
310
FFFFFFFFFFFFFFFFFFFFFFFFFFFFFFFFFFFFFFFFFFFFFFFFFFFFFFFFFFFFFFFF
310
FFFFFFFFFFFFFFFFFFFFFFFFFFFFFFFFFFFFFFFFFFFFFFFFFFFFFFFFFFFFFFFF
310
FFFFFFFFFFFFFFFFFFFFFFFFFFFFFFFFF000FFFFFFFFFFFFFFFFFFFFFFFFFFFF
310
FFFFFFFFFFFFFFFFFFFFFFFFFFFFFFFFFFFFFFFFFFFFFFFFFFFFFFFFFFFFFFFF
310
FFFFFFFFFFFFFFFFFFFFFFFFFFFFFFFFFFFFFFFFFFFFFFFFFFFFFFFFFFFFFFFF
310
FFFFFFFFFFFFFFFFF000FFFFFFFFFFFFFFFFFFFFFFFFFFFFFFFFFFFFFFFFFFFF
310
FFFFFFFFFFFFFFFFFFFFFFFFFFFFFFFFFFFFFFFFFFFFFFFFFFFFFFFFFFFFFFFF
310
FFFFFFFFFFFFFFFFFFFFFFFFFFFFFFFFFFFFFFFFFFFFFFFFFFFFFFFFFFFFFFFF
310
F000FFFFFFFFFFFFFFFFFFFFFFFFFFFFFFFFFFFFFFFFFFFFFFFFFFFFFFFFFFFF
310
FFFFFFFFFFFFFFFFFFFFFFFFFFFFFFFFFFFFFFFFFFFFFFFFFFFFFFFFFFFFFFFF
310
FFFFFFFFFFFFFFFFFFFFFFFFFFFFFFFFFFFFFFFFFFFFFFFFF000FFFFFFFFFFFF
310
FFFFFFFFFFFFFFFFFFFFFFFFFFFFFFFFFFFFFFFFFFFFFFFFFFFFFFFFFFFFFFFF
310
FFFFFFFFFFFFFFFFFFFFFFFFFFFFFFFFFFFFFFFFFFFFFFFFFFFFFFFFFFFFFFFF
310
FFFFFFFFFFFFFFFFFFFFFFFFFFFFFFFFF000FFFFFFFFFFFFFFFFFFFFFFFFFFFF
310
FFFFFFFFFFFFFFFFFFFFFFFFFFFFFFFFFFFFFFFFFFFFFFFFFFFFFFFFFFFFFFFF
310
FFFFFFFFFFFFFFFFFFFFFFFFFFFFFFFFFFFFFFFFFFFFFFFFFFFFFFFFFFFFFFFF
310
FFFFFFFFFFFFFFFFF000FFFFFFFFFFFFFFFFFFFFFFFFFFFFFFFFFFFFFFFFFFFF
310
FFFFFFFFFFFFFFFFFFFFFFFFFFFFFFFFFFFFFFFFFFFFFFFFFFFFFFFFFFFFFFFF
310
FFFFFFFFFFFFFFFFFFFFFFFFFFFFFFFFFFFFFFFFFFFFFFFFFFFFFFFFFFFFFFFF
310
F000FFFFFFFFFFFFFFFFFFFFFFFFFFFFFFFFFFFFFFFFFFFFFFFFFFFFFFFFFFFF
310
FFFFFFFFFFFFFFFFFFFFFFFFFFFFFFFFFFFFFFFFFFFFFFFFFFFFFFFFFFFFFFFF
310
FFFFFFFFFFFFFFFFFFFFFFFFFFFFFFFFFFFFFFFFFFFFFFFFF000FFFFFFFFFFFF
310
FFFFFFFFFFFFFFFFFFFFFFFFFFFFFFFFFFFFFFFFFFFFFFFFFFFFFFFFFFFFFFFF
310
FFFFFFFFFFFFFFFFFFFFFFFFFFFFFFFFFFFFFFFFFFFFFFFFFFFFFFFFFFFFFFFF
310
FFFFFFFFFFFFFFFFFFFFFFFFFFFFFFFFF000FFFFFFFFFFFFFFFFFFFFFFFFFFFF
310
FFFFFFFFFFFFFFFFFFFFFFFFFFFFFFFFFFFFFFFFFFFFFFFFFFFFFFFFFFFFFFFF
310
FFFFFFFFFFFFFFFFFFFFFFFFFFFFFFFFFFFFFFFFFFFFFFFFFFFFFFFFFFFFFFFF
310
FFFFFFFFFFFFFFFFF000FFFFF80003FFFFFFFFFFFFFFFFFFFFFFFFFFFFFFFFFF
310
FFFFF00007FFFFFFFFFF00007FFFFFF800000000000000007FFFFFFFFFFFFFFF
310
FFFFFFFC001FFFFFFFFFFFFFFC001FFFFFFFFFFFFFFFFFFFFFFFFFFE0007FFFF
310
F000FFFF8000007FFFFFFFF8000FFFFFC0007FFFFF80007FFFFF0000007FFFFF
310
FFF8000007FFFFF800000000000000007FFFFFF0001FFFFFFFFFFFC00001FFFF
310
FFFFFFFFC00001FFFFFFFF000000000003FFFFE000007FFFF000FFFE0000000F
310
FFFFFFF0000FFFFF80007FFFFF80007FFFFC0000001FFFFFFFC0000001FFFFF8
310
00000000000000007FFFFFF0001FFFFFFFFFFE0000003FFFFFFFFFFE0000003F
310
FFFFFF000000000003FFFF0000000FFFF000FFF800000003FFFFFFF00007FFFF
310
80007FFFFF80007FFFF000000007FFFFFF000000003FFFF80000000000000000
310
7FFFFFF0001FFFFFFFFFF80000000FFFFFFFFFF80000000FFFFFFF0000000000
310
03FFFC00000003FFF000FFE000000000FFFFFFF00007FFFF80003FFFFF80007F
310
FFC000000001FFFFFC000000001FFFF800000000000000007FFFFFF0001FFFFF
310
FFFFE000000003FFFFFFFFE000000003FFFFFF000000000003FFF000000000FF
310
F000FF80000000007FFFFFF00007FFFF80003FFFFF80007FFF8000000000FFFF
310
F80000000007FFF800000000000000007FFFFFF0001FFFFFFFFFC000000001FF
310
FFFFFFC000000001FFFFFF000000000003FFC0000000007FF000FF0000000000
310
3FFFFFE00007FFFF00003FFFFF80007FFE00000000003FFFF00000000003FFF8
310
00000000000000007FFFFFF0001FFFFFFFFF8000000000FFFFFFFF8000000000
310
FFFFFF000000000003FF80000000003FF000FE00000000001FFFFFE00003FFFF
310
00003FFFFF80007FFC00000000001FFFE00000000001FFF8000001FFFE000000
310
7FFFFFF0001FFFFFFFFE00000000003FFFFFFE00000000003FFFFF0000000000
310
03FF00000000001FF000FC00000000000FFFFFE00003FFFF00001FFFFF80007F
310
F800000000001FFFC00000000000FFF8000001FFFE0000007FFFFFF0001FFFFF
310
FFFC00000000001FFFFFFC00000000001FFFFF000000000003FE00000000000F
310
F000F8000000000007FFFFE00003FFFF00001FFFFF80007FF800000000000FFF
310
800000000000FFF8000001FFFE0000007FFFFFF0001FFFFFFFF800000000000F
310
FFFFF800000000000FFFFF000000000003FC000000000007F000F80000000000
310
03FFFFC00003FFFE00001FFFFF80007FF0000000000007FF0000000000007FF8
310
000001FFFE0000007FFFFFF0001FFFFFFFF0000000000007FFFFF00000000000
310
07FFFF000000000003F8000000000003F000F0000000000003FFFFC00001FFFE
310
00001FFFFF80007FE0000000000007FE0000000000003FF8000001FFFE000000
310
7FFFFFF0001FFFFFFFF0000000000007FFFFF0000000000007FFFF0000000000
310
03F800001F800003F000E00001FFF00001FFFFC00001FFFE00000FFFFF80007F
310
E00001FFE00003FE00001FFF00003FF8000001FFFE0000007FFFFFF0001FFFFF
310
FFE000003E000003FFFFE000003E000003FFFF000000000003F00001FFF80001
310
F000E00007FFFC0001FFFFC00001FFFE00000FFFFF80007FC0000FFFFC0003FC
310
0000FFFFC0001FF8000001FFFE0000007FFFFFF0001FFFFFFFC00003FFE00001
310
FFFFC00003FFE00001FFFF0001FFFFFFFFF00007FFFE0001F000E0000FFFFF00
310
00FFFF800001FFFC00000FFFFF80007FC0001FFFFE0001FC0001FFFFE0001FF8
310
000001FFFE0000007FFFFFF0001FFFFFFF80000FFFF80000FFFF80000FFFF800
310
00FFFF0003FFFFFFFFE0000FFFFF8000F000C0003FFFFF8000FFFF800000FFFC
310
000007FFFF80007F80003FFFFF0001FC0003FFFFF0001FF8000001FFFE000000
310
7FFFFFF0001FFFFFFF80003FFFFE0000FFFF80003FFFFE0000FFFF0003FFFFFF
310
FFE0003FFFFF8000F000C0003FFFFF8000FFFF800000FFFC000007FFFF80007F
310
80007FFFFF8001F80007FFFFF8000FF8000001FFFE0000007FFFFFF0001FFFFF
310
FF00007FFFFF00007FFF00007FFFFF00007FFF0003FFFFFFFFE0003FFFFFC000
310
F000C0007FFFFFC000FFFF000000FFFC000007FFFF80007F8000FFFFFF8000F8
310
000FFFFFF8000FF8000001FFFE0000007FFFFFF0001FFFFFFF0000FFFFFF8000
310
7FFF0000FFFFFF80007FFF0003FFFFFFFFC0007FFFFFC00070008000FFFFFFC0
310
00FFFF000000FFF8000007FFFF80007F8000FFFFFF8000F8000FFFFFF8000FF8
310
000001FFFE0000007FFFFFF0001FFFFFFE0001FFFFFFC0003FFE0001FFFFFFC0
310
003FFF0003FFFFFFFFC0007FFFFFE00070008000FFFFFFC0007FFF0000007FF8
310
000003FFFF80007F0001FFFFFF8000F8000FFFFFF8000FF8000001FFFE000000
310
7FFFFFF0001FFFFFFE0001FFFFFFC0003FFE0001FFFFFFC0003FFF0003FFFFFF
310
FFC000FFFFFFE00070008000FFFFFFC0007FFF0000007FF8000003FFFF80007F
310
0001FFFFFF8000F8001FFFFFF8000FF8000001FFFE0000007FFFFFF0001FFFFF
310
FE0003FFFFFFE0003FFE0003FFFFFFE0003FFF0003FFFFFFFFC000FFFFFFE000
310
70008000FFFFFFC0007FFE0000007FF8000003FFFF80007F0001FFFFFF8000F0
310
001FFFFFF8000FF8000001FFFE0000007FFFFFF0001FFFFFFC0003FFFFFFE000
310
1FFC0003FFFFFFE0001FFF0003FFFFFFFFC000FFFFFFC00070008000FFFFFF80
310
007FFE0000007FF0000003FFFF80007F0001FFFFFF0000F0001FFFFFF8000FF8
310
000001FFFE0000007FFFFFF0001FFFFFFC0007FFFFFFF0001FFC0007FFFFFFF0
310
001FFF0003FFFFFFFFC000FFFFFFC00070008001FFFFFF0000FFFE0000003FF0
310
000001FFFF80007F0001FFFFFF0000F8001FFFFFF0000FF8000001FFFE000000
310
7FFFFFF0001FFFFFFC0007FFFFFFF0001FFC0007FFFFFFF0001FFF0003FFFFFF
310
FFC001FFFFFF80007000FFFFFFFFFE0000FFFE0008003FF0008001FFFF80007F
310
FFFFFFFFFC0000FFFFFFFFFFE0000FF8000001FFFE0000007FFFFFF0001FFFFF
310
F8000FFFFFFFF8000FF8000FFFFFFFF8000FFF0003FFFFFFFFFFFFFFFFFF0000
310
7000FFFFFFFFFC0000FFFC0008003FF0008001FFFF80007FFFFFFFFFF80001FF
310
FFFFFFFF80000FF8000001FFFE0000007FFFFFF0001FFFFFF8000FFFFFFFF800
310
0FF8000FFFFFFFF8000FFF0003FFFFFFFFFFFFFFFFFE0000F000FFFFFFFFE000
310
00FFFC000C003FE000C001FFFF80007FFFFFFFFFC00001FFFFFFFFFE00001FF8
310
000001FFFE0000007FFFFFF0001FFFFFF8000FFFFFFFF8000FF8000FFFFFFFF8
310
000FFF0003FFFFFFFFFFFFFFFFF00000F000FFFFFFFE000001FFFC000C001FE0
310
00C000FFFF80007FFFFFFFFE000001FFFFFFFFE000001FF80FFFFFFFFFFFFFC0
310
7FFFFFF0001FFFFFF8000FFFFFFFF8000FF8000FFFFFFFF8000FFF0003FFFFFF
310
FFFFFFFFFF800000F000FFFFFFC0000001FFFC001C001FE001C000FFFF80007F
310
FFFFFF80000003FFFFFFF80000001FF80FFFFFFFFFFFFFC07FFFFFF0001FFFFF
310
F8001FFFFFFFFC000FF8001FFFFFFFFC000FFF0003FFFFFFFFFFFFFFF0000001
310
F000FFFFF800000001FFF8001C001FE001C000FFFF80007FFFFFF800000003FF
310
FFFF800000003FF80FFFFFFFFFFFFFC07FFFFFF0001FFFFFF8001FFFFFFFFC00
310
0FF8001FFFFFFFFC000FFF0003FFFFFFFFFFFFFE00000001F000FFFFC0000000
310
03FFF8001E001FC001E000FFFF80007FFFFF8000000007FFFFFC000000003FF8
310
0FFFFFFFFFFFFFC07FFFFFF0001FFFFFF8001FFFFFFFFC000FF8001FFFFFFFFC
310
000FFF0003FFFFFFFFFFFFE000000003F000FFFE0000000007FFF8001E000FC0
310
01E0007FFF80007FFFFE0000000007FFFFE0000000007FF80FFFFFFFFFFFFFC0
310
7FFFFFF0001FFFFFF0001FFFFFFFFC0007F0001FFFFFFFFC0007FF0003FFFFFF
310
FFFFFF0000000003F000FFF80000000007FFF8001E000FC003E0007FFF80007F
310
FFF0000000000FFFFF8000000000FFF80FFFFFFFFFFFFFC07FFFFFF0001FFFFF
310
F0001FFFFFFFFC0007F0001FFFFFFFFC0007FF0003FFFFFFFFFFFC0000000007
310
F000FFE0000000000FFFF0003E000FC003E0007FFF80007FFFC0000000001FFF
310
FE0000000001FFF80FFFFFFFFFFFFFC07FFFFFF0001FFFFFF0001FFFFFFFFC00
310
07F0001FFFFFFFFC0007FF0003FFFFFFFFFFF0000000000FF000FFC000000000
310
1FFFF0003F000F8003F0003FFF80007FFF80000000003FFFF80000000003FFF8
310
0FFFFFFFFFFFFFC07FFFFFF0001FFFFFF0001FFFFFFFFC0007F0001FFFFFFFFC
310
0007FF0003FFFFFFFFFFE0000000001FF000FF00000000007FFFF0003F000780
310
03F0003FFF80007FFF00000000007FFFF00000000007FFF80FFFFFFFFFFFFFC0
310
7FFFFFF0001FFFFFF0001FFFFFFFFC0007F0001FFFFFFFFC0007FF0003FFFFFF
310
FFFF80000000007FF000FE0000000000FFFFE0003F00078007F0003FFF80007F
310
FE0000000001FFFFE0000000001FFFF80FFFFFFFFFFFFFC07FFFFFF0001FFFFF
310
F0001FFFFFFFFC0007F0001FFFFFFFFC0007FF0003FFFFFFFFFF0000000000FF
310
F000FC0000000003FFFFE0007F00078007F0003FFF80007FFC0000000007FFFF
310
C0000000007FFFF80FFFFFFFFFFFFFC07FFFFFF0001FFFFFF8001FFFFFFFFC00
310
0FF8001FFFFFFFFC000FFF0003FFFFFFFFFE0000000003FFF000FC000000000F
310
FFFFE0007F80070007F8001FFF80007FF8000000001FFFFF8000000001FFFFF8
310
0FFFFFFFFFFFFFC07FFFFFF0001FFFFFF8001FFFFFFFFC000FF8001FFFFFFFFC
310
000FFF0003FFFFFFFFFC000000000FFFF000F8000000007FFFFFE0007F800700
310
07F8001FFF80007FF000000000FFFFFF800000000FFFFFF80FFFFFFFFFFFFFC0
310
7FFFFFF0001FFFFFF8000FFFFFFFF8000FF8000FFFFFFFF8000FFF0003FFFFFF
310
FFFC000000007FFFF000F800000007FFFFFFC0007F8003000FF8001FFF80007F
310
F000000007FFFFFF000000007FFFFFF80FFFFFFFFFFFFFC07FFFFFF0001FFFFF
310
F8000FFFFFFFF8000FF8000FFFFFFFF8000FFF0003FFFFFFFFF80000000FFFFF
310
F000F0000000FFFFFFFFC000FF8003000FF8001FFF80007FE0000000FFFFFFFF
310
0000000FFFFFFFF8000001FFFE0000007FFFFFF0001FFFFFF8000FFFFFFFF800
310
0FF8000FFFFFFFF8000FFF0003FFFFFFFFF8000000FFFFFFF000F000000FFFFF
310
FFFFC000FFC002000FF8000FFF80007FE000001FFFFFFFFE000001FFFFFFFFF8
310
000001FFFE0000007FFFFFF0001FFFFFF8000FFFFFFFF8000FF8000FFFFFFFF8
310
000FFF0003FFFFFFFFF000001FFFFFFFF000E00000FFFFFFFFFFC000FFC00200
310
0FFC000FFF80007FE00001FFFFFFFFFE00001FFFFFFFFFF8000001FFFE000000
310
7FFFFFF0001FFFFFFC000FFFFFFFF8001FFC000FFFFFFFF8001FFF0003FFFFFF
310
FFF00001FFFFFFFFF000E00007FFFFFFFFFF8000FFC000001FFC000FFF80007F
310
C0000FFFFFFFFFFE0000FFFFFFFFFFF8000001FFFE0000007FFFFFF0001FFFFF
310
FC0007FFFFFFF0001FFC0007FFFFFFF0001FFF0003FFFFFFFFF00007FFFFFFFF
310
F000E0001FFFFFFFFFFF8000FFC000001FFC000FFF80007FC0003FFFFFFFFFFE
310
0001FFFFFFFFFFF8000001FFFE0000007FFFFFF0001FFFFFFC0007FFFFFFF000
310
1FFC0007FFFFFFF0001FFF0003FFFFFFFFF0001FFFFFFFFFF000E0003FFFFF00
310
03FF8001FFE000001FFC0007FF80007FC0007FFFFF0007FC0003FFFFF0003FF8
310
000001FFFE0000007FFFFFF0001FFFFFFC0003FFFFFFE0001FFC0003FFFFFFE0
310
001FFF0003FFFFFFFFF0003FFFFFFFFFF000E0003FFFFF0001FF8001FFE00000
310
1FFE0007FF80007FC0007FFFFE0003FC0007FFFFE0003FF8000001FFFE000000
310
7FFFFFF0001FFFFFFE0003FFFFFFE0003FFE0003FFFFFFE0003FFF0003FFFFFF
310
FFF0003FFFFF8001F000E0003FFFFF0001FF0001FFE000001FFE0007FF80007F
310
C0007FFFFE0003FC0007FFFFE0003FF8000001FFFE0000007FFFFFF0001FFFFF
310
FE0001FFFFFFC0003FFE0001FFFFFFC0003FFF0003FFFFFFFFF0003FFFFF0001
310
F000E0003FFFFF0003FF0001FFE000003FFE0007FF80007FC0007FFFFE0003FC
310
0007FFFFE0003FF8000001FFFE0000007FFFFFF0001FFFFFFF0001FFFFFFC000
310
7FFF0001FFFFFFC0007FFF0003FFFFFFFFF0003FFFFF0001F000E0003FFFFE00
310
03FF0003FFF000003FFE0003FF80007FC0007FFFFC0003FE0007FFFFE0003FF8
310
000001FFFE0000007FFFFFF0001FFFFFFF0000FFFFFF80007FFF0000FFFFFF80
310
007FFF0003FFFFFFFFF0003FFFFF0001F000E0003FFFFE0003FF0003FFF00000
310
3FFF0003FF80007FC0007FFFFC0007FE0007FFFFC0003FF8000001FFFE000000
310
7FFFFFF0001FFFFFFF80007FFFFF0000FFFF80007FFFFF0000FFFF0003FFFFFF
310
FFF0003FFFFF0003F000E0003FFFFC0003FE0003FFF000003FFF0003FF80007F
310
E0003FFFF80007FE0003FFFFC0007FF8000001FFFE0000007FFFFFF0001FFFFF
310
FF80003FFFFE0000FFFF80003FFFFE0000FFFF0003FFFFFFFFF0001FFFFE0003
310
F000F0001FFFF80003FE0003FFF000007FFF0001FF80007FE0003FFFF00007FE
310
0001FFFF80007FF8000001FFFE0000007FFFFFF0001FFFFFFFC0000FFFF80001
310
FFFFC0000FFFF80001FFFF0003FFFFFFFFF0001FFFFC0003F000F0000FFFF000
310
07FE0007FFF800007FFF0001FF80007FE0001FFFE00007FF0000FFFE00007FF8
310
000001FFFE0000007FFFFFF0001FFFFFFFC00003FFE00001FFFFC00003FFE000
310
01FFFF0003FFFFFFFFF8000FFFF80003F000F00003FFC00007FC0007FFF80000
310
7FFF8001FF80007FF00007FF80000FFF00007FF80000FFF8000001FFFE000000
310
7F80000000000001FFE000003E000003FFFFE000003E000003FFFF0003FFFFFF
310
FFF80003FFE00007F000F800000000000FFC0007FFF800007FFF8001FF80007F
310
F000000000000FFF000000000000FFF8000001FFFE0000007F80000000000001
310
FFF0000000000007FFFFF0000000000007FFFF0003FFFFFFFFFC00007E000007
310
F000F800000000000FFC0007FFF80000FFFF8000FF80007FF800000000001FFF
310
800000000001FFF8000001FFFE0000007F80000000000001FFF800000000000F
310
FFFFF800000000000FFFFF0003FFFFFFFFFC00000000000FF000FC0000000000
310
1FFC0007FFFC0000FFFF8000FF80007FF800000000003FFFC00000000001FFF8
310
000001FFFE0000007F80000000000001FFF800000000000FFFFFF80000000000
310
0FFFFF0003FFFFFFFFFE00000000001FF000FE00000000003FF8000FFFFC0000
310
FFFF8000FF80007FFC00000000003FFFC00000000003FFF8000001FFFE000000
310
7F80000000000001FFFC00000000001FFFFFFC00000000001FFFFF0003FFFFFF
310
FFFF00000000001FF000FF00000000003FF8000FFFFC0000FFFFC000FF80007F
310
FE00000000007FFFE00000000007FFF8000001FFFE0000007F80000000000001
310
FFFE00000000003FFFFFFE00000000003FFFFF0003FFFFFFFFFF80000000003F
310
F000FF80000000007FF8000FFFFC0001FFFFC0007F80007FFF0000000000FFFF
310
F0000000000FFFF800000000000000007F80000000000001FFFF8000000000FF
310
FFFFFF8000000000FFFFFF0003FFFFFFFFFFC0000000007FF000FFC000000000
310
FFF8000FFFFE0001FFFFC0007F80007FFF8000000001FFFFF8000000001FFFF8
310
00000000000000007F80000000000001FFFFC000000001FFFFFFFFC000000001
310
FFFFFF0003FFFFFFFFFFE000000000FFF000FFE000000003FFF0001FFFFE0001
310
FFFFC0007F80007FFFC000000007FFFFFE000000003FFFF80000000000000000
310
7F80000000000001FFFFE000000003FFFFFFFFE000000003FFFFFF0003FFFFFF
310
FFFFF000000003FFF000FFF80000000FFFF0001FFFFE0001FFFFE0007F80007F
310
FFF00000000FFFFFFF00000000FFFFF800000000000000007F80000000000001
310
FFFFF80000000FFFFFFFFFF80000000FFFFFFF0003FFFFFFFFFFFC0000000FFF
310
F000FFFE0000003FFFF0001FFFFE0003FFFFE0003F80007FFFFC0000003FFFFF
310
FFC0000003FFFFF800000000000000007F80000000000001FFFFFE0000003FFF
310
FFFFFFFE0000003FFFFFFF0003FFFFFFFFFFFF0000003FFFF000FFFF800000FF
310
FFF0001FFFFF0003FFFFE0003F80007FFFFF000001FFFFFFFFF800001FFFFFF8
310
00000000000000007F80000000000001FFFFFFC00001FFFFFFFFFFFFC00001FF
310
FFFFFF0003FFFFFFFFFFFFC00000FFFFF000FFFFF8000FFFFFFFFFFFFFFFFFFF
310
FFFFFFFFFFFFFFFFFFFFF0001FFFFFFFFFFF0000FFFFFFF80000000000000000
310
7FFFFFFFFFFFFFFFFFFFFFFC001FFFFFFFFFFFFFFC001FFFFFFFFFFFFFFFFFFF
310
FFFFFFFC001FFFFFF000FFFFFFFFFFFFFFFFFFFFFFFFFFFFFFFFFFFFFFFFFFFF
310
FFFFFFFFFFFFFFFFFFFFFFFFFFFFFFFFFFFFFFFFFFFFFFFFFFFFFFFFFFFFFFFF
310
FFFFFFFFFFFFFFFFFFFFFFFFFFFFFFFFFFFFFFFFFFFFFFFFFFFFFFFFFFFFFFFF
310
F000FFFFFFFFFFFFFFFFFFFFFFFFFFFFFFFFFFFFFFFFFFFFFFFFFFFFFFFFFFFF
310
FFFFFFFFFFFFFFFFFFFFFFFFFFFFFFFFFFFFFFFFFFFFFFFFFFFFFFFFFFFFFFFF
310
FFFFFFFFFFFFFFFFFFFFFFFFFFFFFFFFFFFFFFFFFFFFFFFFF000FFFFFFFFFFFF
310
FFFFFFFFFFFFFFFFFFFFFFFFFFFFFFFFFFFFFFFFFFFFFFFFFFFFFFFFFFFFFFFF
310
FFFFFFFFFFFFFFFFFFFFFFFFFFFFFFFFFFFFFFFFFFFFFFFFFFFFFFFFFFFFFFFF
310
FFFFFFFFFFFFFFFFFFFFFFFFFFFFFFFFF000FFFFFFFFFFFFFFFFFFFFFFFFFFFF
310
FFFFFFFFFFFFFFFFFFFFFFFFFFFFFFFFFFFFFFFFFFFFFFFFFFFFFFFFFFFFFFFF
310
FFFFFFFFFFFFFFFFFFFFFFFFFFFFFFFFFFFFFFFFFFFFFFFFFFFFFFFFFFFFFFFF
310
FFFFFFFFFFFFFFFFF000FFFFFFFFFFFFFFFFFFFFFFFFFFFFFFFFFFFFFFFFFFFF
310
FFFFFFFFFFFFFFFFFFFFFFFFFFFFFFFFFFFFFFFFFFFFFFFFFFFFFFFFFFFFFFFF
310
FFFFFFFFFFFFFFFFFFFFFFFFFFFFFFFFFFFFFFFFFFFFFFFFFFFFFFFFFFFFFFFF
310
F000FFFFFFFFFFFFFFFFFFFFFFFFFFFFFFFFFFFFFFFFFFFFFFFFFFFFFFFFFFFF
310
FFFFFFFFFFFFFFFFFFFFFFFFFFFFFFFFFFFFFFFFFFFFFFFFFFFFFFFFFFFFFFFF
310
FFFFFFFFFFFFFFFFFFFFFFFFFFFFFFFFFFFFFFFFFFFFFFFFF000FFFFFFFFFFFF
310
FFFFFFFFFFFFFFFFFFFFFFFFFFFFFFFFFFFFFFFFFFFFFFFFFFFFFFFFFFFFFFFF
310
FFFFFFFFFFFFFFFFFFFFFFFFFFFFFFFFFFFFFFFFFFFFFFFFFFFFFFFFFFFFFFFF
310
FFFFFFFFFFFFFFFFFFFFFFFFFFFFFFFFF000FFFFFFFFFFFFFFFFFFFFFFFFFFFF
310
FFFFFFFFFFFFFFFFFFFFFFFFFFFFFFFFFFFFFFFFFFFFFFFFFFFFFFFFFFFFFFFF
310
FFFFFFFFFFFFFFFFFFFFFFFFFFFFFFFFFFFFFFFFFFFFFFFFFFFFFFFFFFFFFFFF
310
FFFFFFFFFFFFFFFFF000FFFFFFFFFFFFFFFFFFFFFFFFFFFFFFFFFFFFFFFFFFFF
310
FFFFFFFFFFFFFFFFFFFFFFFFFFFFFFFFFFFFFFFFFFFFFFFFFFFFFFFFFFFFFFFF
310
FFFFFFFFFFFFFFFFFFFFFFFFFFFFFFFFFFFFFFFFFFFFFFFFFFFFFFFFFFFFFFFF
310
F000FFFFFFFFFFFFFFFFFFFFFFFFFFFFFFFFFFFFFFFFFFFFFFFFFFFFFFFFFFFF
310
FFFFFFFFFFFFFFFFFFFFFFFFFFFFFFFFFFFFFFFFFFFFFFFFFFFFFFFFFFFFFFFF
310
FFFFFFFFFFFFFFFFFFFFFFFFFFFFFFFFFFFFFFFFFFFFFFFFF000FFFFFFFFFFFF
310
FFFFFFFFFFFFFFFFFFFFFFFFFFFFFFFFFFFFFFFFFFFFFFFFFFFFFFFFFFFFFFFF
310
FFFFFFFFFFFFFFFFFFFFFFFFFFFFFFFFFFFFFFFFFFFFFFFFFFFFFFFFFFFFFFFF
310
FFFFFFFFFFFFFFFFFFFFFFFFFFFFFFFFF000FFFFFFFFFFFFFFFFFFFFFFFFFFFF
310
FFFFFFFFFFFFFFFFFFFFFFFFFFFFFFFFFFFFFFFFFFFFFFFFFFFFFFFFFFFFFFFF
310
FFFFFFFFFFFFFFFFFFFFFFFFFFFFFFFFFFFFFFFFFFFFFFFFFFFFFFFFFFFFFFFF
310
FFFFFFFFFFFFFFFFF000FFFFFFFFFFFFFFFFFFFFFFFFFFFFFFFFFFFFFFFFFFFF
310
FFFFFFFFFFFFFFFFFFFFFFFFFFFFFFFFFFFFFFFFFFFFFFFFFFFFFFFFFFFFFFFF
310
FFFFFFFFFFFFFFFFFFFFFFFFFFFFFFFFFFFFFFFFFFFFFFFFFFFFFFFFFFFFFFFF
310
F000FFFFFFFFFFFFFFFFFFFFFFFFFFFFFFFFFFFFFFFFFFFFFFFFFFFFFFFFFFFF
310
FFFFFFFFFFFFFFFFFFFFFFFFFFFFFFFFFFFFFFFFFFFFFFFFFFFFFFFFFFFFFFFF
310
FFFFFFFFFFFFFFFFFFFFFFFFFFFFFFFFFFFFFFFFFFFFFFFFF000FFFFFFFFFFFF
310
FFFFFFFFFFFFFFFFFFFFFFFFFFFFFFFFFFFFFFFFFFFFFFFFFFFFFFFFFFFFFFFF
310
FFFFFFFFFFFFFFFFFFFFFFFFFFFFFFFFFFFFFFFFFFFFFFFFFFFFFFFFFFFFFFFF
310
FFFFFFFFFFFFFFFFFFFFFFFFFFFFFFFFF000FFFFFFFFFFFFFFFFFFFFFFFFFFFF
310
FFFFFFFFFFFFFFFFFFFFFFFFFFFFFFFFFFFFFFFFFFFFFFFFFFFFFFFFFFFFFFFF
310
FFFFFFFFFFFFFFFFFFFFFFFFFFFFFFFFFFFFFFFFFFFFFFFFFFFFFFFFFFFFFFFF
310
FFFFFFFFFFFFFFFFF000FFFFFFFFFFFFFFFFFFFFFFFFFFFFFFFFFFFFFFFFFFFF
310
FFFFFFFFFFFFFFFFFFFFFFFFFFFFFFFFFFFFFFFFFFFFFFFFFFFFFFFFFFFFFFFF
310
FFFFFFFFFFFFFFFFFFFFFFFFFFFFFFFFFFFFFFFFFFFFFFFFFFFFFFFFFFFFFFFF
310
F000FFFFFFFFFFFFFFFFFFFFFFFFFFFFFFFFFFFFFFFFFFFFFFFFFFFFFFFFFFFF
310
FFFFFFFFFFFFFFFFFFFFFFFFFFFFFFFFFFFFFFFFFFFFFFFFFFFFFFFFFFFFFFFF
310
FFFFFFFFFFFFFFFFFFFFFFFFFFFFFFFFFFFFFFFFFFFFFFFFF000FFFFFFFFFFFF
310
FFFFFFFFFFFFFFFFFFFFFFFFFFFFFFFFFFFFFFFFFFFFFFFFFFFFFFFFFFFFFFFF
310
FFFFFFFFFFFFFFFFFFFFFFFFFFFFFFFFFFFFFFFFFFFFFFFFFFFFFFFFFFFFFFFF
310
FFFFFFFFFFFFFFFFFFFFFFFFFFFFFFFFF000FFFFFFFFFFFFFFFFFFFFFFFFFFFF
310
FFFFFFFFFFFFFFFFFFFFFFFFFFFFFFFFFFFFFFFFFFFFFFFFFFFFFFFFFFFFFFFF
310
FFFFFFFFFFFFFFFFFFFFFFFFFFFFFFFFFFFFFFFFFFFFFFFFFFFFFFFFFFFFFFFF
310
FFFFFFFFFFFFFFFFF000FFFFFFFFFFFFFFFFFFFFFFFFFFFFFFFFFFFFFFFFFFFF
310
FFFFFFFFFFFFFFFFFFFFFFFFFFFFFFFFFFFFFFFFFFFFFFFFFFFFFFFFFFFFFFFF
310
FFFFFFFFFFFFFFFFFFFFFFFFFFFFFFFFFFFFFFFFFFFFFFFFFFFFFFFFFFFFFFFF
310
F000FFFFFFFFFFFFFFFFFFFFFFFFFFFFFFFFFFFFFFFFFFFFFFFFFFFFFFFFFFFF
310
FFFFFFFFFFFFFFFFFFFFFFFFFFFFFFFFFFFFFFFFFFFFFFFFFFFFFFFFFFFFFFFF
310
FFFFFFFFFFFFFFFFFFFFFFFFFFFFFFFFFFFFFFFFFFFFFFFFF000FFFFFFFFFFFF
310
FFFFFFFFFFFFFFFFFFFFFFFFFFFFFFFFFFFFFFFFFFFFFFFFFFFFFFFFFFFFFFFF
310
FFFFFFFFFFFFFFFFFFFFFFFFFFFFFFFFFFFFFFFFFFFFFFFFFFFFFFFFFFFFFFFF
310
FFFFFFFFFFFFFFFFFFFFFFFFFFFFFFFFF0000000000000000000000000000000
310
0000000000000000000000000000000000000000000000000000000000000000
310
0000000000000000000000000000000000000000000000000000000000000000
310
0000000000000000000000000000000000000000000000000000000000000000
310
0000000000000000000000000000000000000000000000000000000000000000
310
0000000000000000000000000000000000000000000000000000000000000000
310
0000000000000000000000000000000000000000000000000000000000000000
310
0000000000000000000000000000000000000000000000000000000000000000
310
0000000000000000000000000000000000000000000000000000000000000000
310
0000000000000000000000000000000000000000000000000000000000000000
310
0000000000000000000000000000000000000000000000000000000000000000
310
0000000000000000000000000000000000000000000000000000000000000000
310
0000000000000000000000000000000000000000000000000000000000000000
310
0000000000000000000000000000000000000000000000000000000000000000
310
0000000000000000000000000000000000000000000000000000000000000000
310
0000000000000000000000000000000000000000000000000000000000000000
  1
OLE
  0
ENDSEC
  0
SECTION
  2
OBJECTS
  0
DICTIONARY
  5
C
330
0
100
AcDbDictionary
281
     1
  3
ACAD_GROUP
350
D
  3
ACAD_LAYOUT
350
1A
  3
ACAD_MLINESTYLE
350
17
  3
ACAD_PLOTSETTINGS
350
19
  3
ACAD_PLOTSTYLENAME
350
E
  0
DICTIONARY
  5
D
102
{ACAD_REACTORS
330
C
102
}
330
C
100
AcDbDictionary
281
     1
  0
DICTIONARY
  5
1A
102
{ACAD_REACTORS
330
C
102
}
330
C
100
AcDbDictionary
281
     1
  3
Layout1
350
1E
  3
Layout2
350
26
  3
Model
350
22
  0
DICTIONARY
  5
17
102
{ACAD_REACTORS
330
C
102
}
330
C
100
AcDbDictionary
281
     1
  3
Standard
350
18
  0
DICTIONARY
  5
19
102
{ACAD_REACTORS
330
C
102
}
330
C
100
AcDbDictionary
281
     1
  0
ACDBDICTIONARYWDFLT
  5
E
102
{ACAD_REACTORS
330
C
102
}
330
C
100
AcDbDictionary
281
     1
  3
Normal
350
F
100
AcDbDictionaryWithDefault
340
F
  0
LAYOUT
  5
1E
102
{ACAD_REACTORS
330
1A
102
}
330
1A
100
AcDbPlotSettings
  1

  2
none_device
  4

  6

 40
0.0
 41
0.0
 42
0.0
 43
0.0
 44
0.0
 45
0.0
 46
0.0
 47
0.0
 48
0.0
 49
0.0
140
0.0
141
0.0
142
1.0
143
1.0
 70
   688
 72
     0
 73
     0
 74
     5
  7

 75
    16
147
1.0
148
0.0
149
0.0
100
AcDbLayout
  1
Layout1
 70
     1
 71
     1
 10
0.0
 20
0.0
 11
420.0
 21
297.0
 12
0.0
 22
0.0
 32
0.0
 14
1.0000000000E+20
 24
1.0000000000E+20
 34
1.0000000000E+20
 15
-1.0000000000E+20
 25
-1.0000000000E+20
 35
-1.0000000000E+20
146
0.0
 13
0.0
 23
0.0
 33
0.0
 16
1.0
 26
0.0
 36
0.0
 17
0.0
 27
1.0
 37
0.0
 76
     0
330
1B
  0
LAYOUT
  5
26
102
{ACAD_REACTORS
330
1A
102
}
330
1A
100
AcDbPlotSettings
  1

  2
none_device
  4

  6

 40
0.0
 41
0.0
 42
0.0
 43
0.0
 44
0.0
 45
0.0
 46
0.0
 47
0.0
 48
0.0
 49
0.0
140
0.0
141
0.0
142
1.0
143
1.0
 70
   688
 72
     0
 73
     0
 74
     5
  7

 75
    16
147
1.0
148
0.0
149
0.0
100
AcDbLayout
  1
Layout2
 70
     1
 71
     2
 10
0.0
 20
0.0
 11
0.0
 21
0.0
 12
0.0
 22
0.0
 32
0.0
 14
0.0
 24
0.0
 34
0.0
 15
0.0
 25
0.0
 35
0.0
146
0.0
 13
0.0
 23
0.0
 33
0.0
 16
1.0
 26
0.0
 36
0.0
 17
0.0
 27
1.0
 37
0.0
 76
     0
330
23
  0
LAYOUT
  5
22
102
{ACAD_REACTORS
330
1A
102
}
330
1A
100
AcDbPlotSettings
  1

  2
none_device
  4

  6

 40
0.0
 41
0.0
 42
0.0
 43
0.0
 44
0.0
 45
0.0
 46
0.0
 47
0.0
 48
0.0
 49
0.0
140
0.0
141
0.0
142
1.0
143
1.0
 70
  1712
 72
     0
 73
     0
 74
     0
  7

 75
     0
147
1.0
148
0.0
149
0.0
100
AcDbLayout
  1
Model
 70
     1
 71
     0
 10
0.0
 20
0.0
 11
297.0
 21
210.0
 12
0.0
 22
0.0
 32
0.0
 14
0.0
 24
0.0
 34
0.0
 15
297.0
 25
210.0
 35
0.0
146
0.0
 13
0.0
 23
0.0
 33
0.0
 16
1.0
 26
0.0
 36
0.0
 17
0.0
 27
1.0
 37
0.0
 76
     0
330
1F
331
29
  0
MLINESTYLE
  5
18
102
{ACAD_REACTORS
330
17
102
}
330
17
100
AcDbMlineStyle
  2
Standard
 70
     0
  3

 62
   256
 51
90.0
 52
90.0
 71
     2
 49
0.5
 62
   256
  6
BYLAYER
 49
-0.5
 62
   256
  6
BYLAYER
  0
ACDBPLACEHOLDER
  5
F
102
{ACAD_REACTORS
330
E
102
}
330
E
  0
ENDSEC
  0
EOF
