  0
SECTION
  2
HEADER
  9
$ACADVER
  1
AC1015
  9
$ACADMAINTVER
 70
     6
  9
$DWGCODEPAGE
  3
ANSI_1252
  9
$INSBASE
 10
0.0
 20
0.0
 30
0.0
  9
$EXTMIN
 10
0.0
 20
0.0
 30
0.0
  9
$EXTMAX
 10
297.0
 20
210.0
 30
0.0
  9
$LIMMIN
 10
0.0
 20
0.0
  9
$LIMMAX
 10
297.0
 20
210.0
  9
$ORTHOMODE
 70
     0
  9
$REGENMODE
 70
     1
  9
$FILLMODE
 70
     1
  9
$QTEXTMODE
 70
     0
  9
$MIRRTEXT
 70
     1
  9
$LTSCALE
 40
1.0
  9
$ATTMODE
 70
     1
  9
$TEXTSIZE
 40
2.0
  9
$TRACEWID
 40
1.0
  9
$TEXTSTYLE
  7
STANDARD
  9
$CLAYER
  8
0
  9
$CELTYPE
  6
ByLayer
  9
$CECOLOR
 62
   256
  9
$CELTSCALE
 40
1.0
  9
$DISPSILH
 70
     0
  9
$DIMSCALE
 40
1.0
  9
$DIMASZ
 40
3.0
  9
$DIMEXO
 40
0.0
  9
$DIMDLI
 40
3.75
  9
$DIMRND
 40
0.0
  9
$DIMDLE
 40
0.0
  9
$DIMEXE
 40
1.0
  9
$DIMTP
 40
0.0
  9
$DIMTM
 40
0.0
  9
$DIMTXT
 40
2.0
  9
$DIMCEN
 40
2.5
  9
$DIMTSZ
 40
0.0
  9
$DIMTOL
 70
     0
  9
$DIMLIM
 70
     0
  9
$DIMTIH
 70
     1
  9
$DIMTOH
 70
     1
  9
$DIMSE1
 70
     0
  9
$DIMSE2
 70
     0
  9
$DIMTAD
 70
     1
  9
$DIMZIN
 70
     0
  9
$DIMBLK
  1

  9
$DIMASO
 70
     1
  9
$DIMSHO
 70
     1
  9
$DIMPOST
  1

  9
$DIMAPOST
  1

  9
$DIMALT
 70
     0
  9
$DIMALTD
 70
     3
  9
$DIMALTF
 40
0.0393700787
  9
$DIMLFAC
 40
1.0
  9
$DIMTOFL
 70
     1
  9
$DIMTVP
 40
0.0
  9
$DIMTIX
 70
     0
  9
$DIMSOXD
 70
     0
  9
$DIMSAH
 70
     0
  9
$DIMBLK1
  1

  9
$DIMBLK2
  1

  9
$DIMSTYLE
  2
ISO-25
  9
$DIMCLRD
 70
     0
  9
$DIMCLRE
 70
     0
  9
$DIMCLRT
 70
     0
  9
$DIMTFAC
 40
1.0
  9
$DIMGAP
 40
1.524
  9
$DIMJUST
 70
     0
  9
$DIMSD1
 70
     0
  9
$DIMSD2
 70
     0
  9
$DIMTOLJ
 70
     0
  9
$DIMTZIN
 70
     0
  9
$DIMALTZ
 70
     0
  9
$DIMALTTZ
 70
     0
  9
$DIMUPT
 70
     0
  9
$DIMDEC
 70
     2
  9
$DIMTDEC
 70
     3
  9
$DIMALTU
 70
     2
  9
$DIMALTTD
 70
     3
  9
$DIMTXSTY
  7
STANDARD
  9
$DIMAUNIT
 70
     0
  9
$DIMADEC
 70
     2
  9
$DIMALTRND
 40
0.0
  9
$DIMAZIN
 70
     0
  9
$DIMDSEP
 70
    44
  9
$DIMATFIT
 70
     3
  9
$DIMFRAC
 70
     0
  9
$DIMLDRBLK
  1

  9
$DIMLUNIT
 70
     2
  9
$DIMLWD
 70
    -2
  9
$DIMLWE
 70
    -2
  9
$DIMTMOVE
 70
     0
  9
$LUNITS
 70
     2
  9
$LUPREC
 70
     2
  9
$SKETCHINC
 40
1.0
  9
$FILLETRAD
 40
10.0
  9
$AUNITS
 70
     0
  9
$AUPREC
 70
     2
  9
$MENU
  1
.
  9
$ELEVATION
 40
0.0
  9
$PELEVATION
 40
0.0
  9
$THICKNESS
 40
0.0
  9
$LIMCHECK
 70
     0
  9
$CHAMFERA
 40
10.0
  9
$CHAMFERB
 40
10.0
  9
$CHAMFERC
 40
20.0
  9
$CHAMFERD
 40
0.0
  9
$SKPOLY
 70
     0
  9
$TDCREATE
 40
2457149.364049201
  9
$TDUCREATE
 40
2457149.280715868
  9
$TDUPDATE
 40
2457149.364049919
  9
$TDUUPDATE
 40
2457149.280716585
  9
$TDINDWG
 40
0.0000000116
  9
$TDUSRTIMER
 40
0.0000000116
  9
$USRTIMER
 70
     1
  9
$ANGBASE
 50
0.0
  9
$ANGDIR
 70
     0
  9
$PDMODE
 70
     0
  9
$PDSIZE
 40
-1.0
  9
$PLINEWID
 40
0.0
  9
$SPLFRAME
 70
     0
  9
$SPLINETYPE
 70
     6
  9
$SPLINESEGS
 70
     8
  9
$HANDSEED
  5
424
  9
$SURFTAB1
 70
     6
  9
$SURFTAB2
 70
     6
  9
$SURFTYPE
 70
     6
  9
$SURFU
 70
     6
  9
$SURFV
 70
     6
  9
$UCSBASE
  2

  9
$UCSNAME
  2

  9
$UCSORG
 10
0.0
 20
0.0
 30
0.0
  9
$UCSXDIR
 10
1.0
 20
0.0
 30
0.0
  9
$UCSYDIR
 10
0.0
 20
1.0
 30
0.0
  9
$UCSORTHOREF
  2

  9
$UCSORTHOVIEW
 70
     0
  9
$UCSORGTOP
 10
0.0
 20
0.0
 30
0.0
  9
$UCSORGBOTTOM
 10
0.0
 20
0.0
 30
0.0
  9
$UCSORGLEFT
 10
0.0
 20
0.0
 30
0.0
  9
$UCSORGRIGHT
 10
0.0
 20
0.0
 30
0.0
  9
$UCSORGFRONT
 10
0.0
 20
0.0
 30
0.0
  9
$UCSORGBACK
 10
0.0
 20
0.0
 30
0.0
  9
$PUCSBASE
  2

  9
$PUCSNAME
  2

  9
$PUCSORG
 10
0.0
 20
0.0
 30
0.0
  9
$PUCSXDIR
 10
1.0
 20
0.0
 30
0.0
  9
$PUCSYDIR
 10
0.0
 20
1.0
 30
0.0
  9
$PUCSORTHOREF
  2

  9
$PUCSORTHOVIEW
 70
     0
  9
$PUCSORGTOP
 10
0.0
 20
0.0
 30
0.0
  9
$PUCSORGBOTTOM
 10
0.0
 20
0.0
 30
0.0
  9
$PUCSORGLEFT
 10
0.0
 20
0.0
 30
0.0
  9
$PUCSORGRIGHT
 10
0.0
 20
0.0
 30
0.0
  9
$PUCSORGFRONT
 10
0.0
 20
0.0
 30
0.0
  9
$PUCSORGBACK
 10
0.0
 20
0.0
 30
0.0
  9
$USERI1
 70
     0
  9
$USERI2
 70
     0
  9
$USERI3
 70
     0
  9
$USERI4
 70
     0
  9
$USERI5
 70
     0
  9
$USERR1
 40
0.0
  9
$USERR2
 40
0.0
  9
$USERR3
 40
0.0
  9
$USERR4
 40
0.0
  9
$USERR5
 40
0.0
  9
$WORLDVIEW
 70
     1
  9
$SHADEDGE
 70
     3
  9
$SHADEDIF
 70
    70
  9
$TILEMODE
 70
     1
  9
$MAXACTVP
 70
    64
  9
$PINSBASE
 10
0.0
 20
0.0
 30
0.0
  9
$PLIMCHECK
 70
     0
  9
$PEXTMIN
 10
1.0000000000E+20
 20
1.0000000000E+20
 30
1.0000000000E+20
  9
$PEXTMAX
 10
-1.0000000000E+20
 20
-1.0000000000E+20
 30
-1.0000000000E+20
  9
$PLIMMIN
 10
0.0
 20
0.0
  9
$PLIMMAX
 10
420.0
 20
297.0
  9
$UNITMODE
 70
     0
  9
$VISRETAIN
 70
     1
  9
$PLINEGEN
 70
     0
  9
$PSLTSCALE
 70
     1
  9
$TREEDEPTH
 70
  3020
  9
$CMLSTYLE
  2
Standard
  9
$CMLJUST
 70
     0
  9
$CMLSCALE
 40
20.0
  9
$PROXYGRAPHICS
 70
     1
  9
$MEASUREMENT
 70
     1
  9
$CELWEIGHT
370
    -1
  9
$ENDCAPS
280
     0
  9
$JOINSTYLE
280
     0
  9
$LWDISPLAY
290
     1
  9
$INSUNITS
 70
     4
  9
$HYPERLINKBASE
  1

  9
$STYLESHEET
  1

  9
$XEDIT
290
     1
  9
$CEPSNTYPE
380
     0
  9
$PSTYLEMODE
290
     1
  9
$FINGERPRINTGUID
  2
{D9EA4E92-8FB1-4B64-874A-A4E6F812ABAC}
  9
$VERSIONGUID
  2
{FAEB1C32-E019-11D5-929B-00C0DF256EC4}
  9
$EXTNAMES
290
     1
  9
$PSVPSCALE
 40
0.0
  9
$OLESTARTUP
290
     0
  0
ENDSEC
  0
SECTION
  2
CLASSES
  0
CLASS
  1
ACDBDICTIONARYWDFLT
  2
AcDbDictionaryWithDefault
  3
ObjectDBX Classes
 90
        0
280
     0
281
     0
  0
CLASS
  1
VISUALSTYLE
  2
AcDbVisualStyle
  3
ObjectDBX Classes
 90
     4095
280
     0
281
     0
  0
CLASS
  1
MATERIAL
  2
AcDbMaterial
  3
ObjectDBX Classes
 90
     1153
280
     0
281
     0
  0
CLASS
  1
ACDBPLACEHOLDER
  2
AcDbPlaceHolder
  3
ObjectDBX Classes
 90
        0
280
     0
281
     0
  0
CLASS
  1
LAYOUT
  2
AcDbLayout
  3
ObjectDBX Classes
 90
        0
280
     0
281
     0
  0
ENDSEC
  0
SECTION
  2
TABLES
  0
TABLE
  2
VPORT
  5
8
330
0
100
AcDbSymbolTable
 70
     1
  0
VPORT
  5
29
330
8
100
AcDbSymbolTableRecord
100
AcDbViewportTableRecord
  2
*Active
 70
     0
 10
0.0
 20
0.0
 11
1.0
 21
1.0
 12
148.5
 22
105.0
 13
0.0
 23
0.0
 14
10.0
 24
10.0
 15
10.0
 25
10.0
 16
0.0
 26
0.0
 36
1.0
 17
0.0
 27
0.0
 37
0.0
 40
210.0
 41
1.4142857143
 42
50.0
 43
0.0
 44
0.0
 50
0.0
 51
0.0
 71
     0
 72
  2000
 73
     1
 74
     3
 75
     0
 76
     0
 77
     0
 78
     0
281
     0
 65
     1
110
0.0
120
0.0
130
0.0
111
1.0
121
0.0
131
0.0
112
0.0
122
1.0
132
0.0
 79
     0
146
0.0
  0
ENDTAB
  0
TABLE
  2
LTYPE
  5
5
330
0
100
AcDbSymbolTable
 70
     8
  0
LTYPE
  5
14
330
5
100
AcDbSymbolTableRecord
100
AcDbLinetypeTableRecord
  2
ByBlock
 70
     0
  3

 72
    65
 73
     0
 40
0.0
  0
LTYPE
  5
15
330
5
100
AcDbSymbolTableRecord
100
AcDbLinetypeTableRecord
  2
ByLayer
 70
     0
  3

 72
    65
 73
     0
 40
0.0
  0
LTYPE
  5
16
330
5
100
AcDbSymbolTableRecord
100
AcDbLinetypeTableRecord
  2
Continuous
 70
     0
  3
Solid line
 72
    65
 73
     0
 40
0.0
  0
LTYPE
  5
3F
330
5
100
AcDbSymbolTableRecord
100
AcDbLinetypeTableRecord
  2
SLD-Durchgehend
 70
     0
  3
SolidWorks Line Style
 72
    65
 73
     0
 40
0.0
  0
LTYPE
  5
40
330
5
100
AcDbSymbolTableRecord
100
AcDbLinetypeTableRecord
  2
SLD-Gestrichelt
 70
     0
  3
SolidWorks Line Style
 72
    65
 73
     2
 40
1.905
 49
1.27
 74
     0
 49
-0.635
 74
     0
  0
LTYPE
  5
41
330
5
100
AcDbSymbolTableRecord
100
AcDbLinetypeTableRecord
  2
SLD-Phantom
 70
     0
  3
SolidWorks Line Style
 72
    65
 73
     6
 40
12.7
 49
6.35
 74
     0
 49
-1.27
 74
     0
 49
1.27
 74
     0
 49
-1.27
 74
     0
 49
1.27
 74
     0
 49
-1.27
 74
     0
  0
LTYPE
  5
42
330
5
100
AcDbSymbolTableRecord
100
AcDbLinetypeTableRecord
  2
SLD-Kette
 70
     0
  3
SolidWorks Line Style
 72
    65
 73
     4
 40
10.16
 49
6.35
 74
     0
 49
-1.27
 74
     0
 49
1.27
 74
     0
 49
-1.27
 74
     0
  0
LTYPE
  5
43
330
5
100
AcDbSymbolTableRecord
100
AcDbLinetypeTableRecord
  2
SLD-Punktstrich
 70
     0
  3
SolidWorks Line Style
 72
    65
 73
     4
 40
19.05
 49
15.24
 74
     0
 49
-1.27
 74
     0
 49
1.27
 74
     0
 49
-1.27
 74
     0
  0
LTYPE
  5
44
330
5
100
AcDbSymbolTableRecord
100
AcDbLinetypeTableRecord
  2
SLD-Naht
 70
     0
  3
SolidWorks Line Style
 72
    65
 73
     2
 40
0.635
 49
0.0
 74
     0
 49
-0.635
 74
     0
  0
LTYPE
  5
45
330
5
100
AcDbSymbolTableRecord
100
AcDbLinetypeTableRecord
  2
SLD-Dicke-Dünne-Kette
 70
     0
  3
SolidWorks Line Style
 72
    65
 73
     4
 40
10.16
 49
6.35
 74
     0
 49
-1.27
 74
     0
 49
1.27
 74
     0
 49
-1.27
 74
     0
  0
ENDTAB
  0
TABLE
  2
LAYER
  5
2
330
0
100
AcDbSymbolTable
 70
     5
  0
LAYER
  5
10
330
2
100
AcDbSymbolTableRecord
100
AcDbLayerTableRecord
  2
0
 70
     0
 62
     7
  6
Continuous
370
    -3
390
F
  0
LAYER
  5
46
330
2
100
AcDbSymbolTableRecord
100
AcDbLayerTableRecord
  2
FORMAT
 70
     0
 62
     7
  6
SLD-Durchgehend
370
    -3
390
F
  0
LAYER
  5
47
330
2
100
AcDbSymbolTableRecord
100
AcDbLayerTableRecord
  2
VERMASSUNG
 70
     0
 62
     7
  6
SLD-Durchgehend
370
    -3
390
F
  0
LAYER
  5
48
330
2
100
AcDbSymbolTableRecord
100
AcDbLayerTableRecord
  2
KOPF_DÜNN
 70
     0
 62
     7
  6
SLD-Durchgehend
370
    -3
390
F
  0
LAYER
  5
49
330
2
100
AcDbSymbolTableRecord
100
AcDbLayerTableRecord
  2
KOPF_DICK
 70
     0
 62
     7
  6
SLD-Durchgehend
370
    15
390
F
  0
ENDTAB
  0
TABLE
  2
STYLE
  5
3
330
0
100
AcDbSymbolTable
 70
     2
  0
STYLE
  5
11
330
3
100
AcDbSymbolTableRecord
100
AcDbTextStyleTableRecord
  2
STANDARD
 70
     0
 40
0.0
 41
1.0
 50
0.0
 71
     0
 42
2.0
  3
ISOCPEUR.TTF
  4

1001
ACAD
1000
ISOCPEUR
1071
       34
  0
STYLE
  5
4A
330
3
100
AcDbSymbolTableRecord
100
AcDbTextStyleTableRecord
  2
SLDTEXTSTYLE0
 70
     0
 40
0.0
 41
1.0
 50
0.0
 71
     0
 42
0.2
  3
ISOCPEUR.TTF
  4

1001
ACAD
1000
ISOCPEUR
1071
      290
  0
ENDTAB
  0
TABLE
  2
VIEW
  5
6
330
0
100
AcDbSymbolTable
 70
     0
  0
ENDTAB
  0
TABLE
  2
UCS
  5
7
330
0
100
AcDbSymbolTable
 70
     0
  0
ENDTAB
  0
TABLE
  2
APPID
  5
9
330
0
100
AcDbSymbolTable
 70
     1
  0
APPID
  5
12
330
9
100
AcDbSymbolTableRecord
100
AcDbRegAppTableRecord
  2
ACAD
 70
     0
  0
ENDTAB
  0
TABLE
  2
DIMSTYLE
  5
A
330
0
100
AcDbSymbolTable
 70
     4
100
AcDbDimStyleTable
  0
DIMSTYLE
105
27
330
A
100
AcDbSymbolTableRecord
100
AcDbDimStyleTableRecord
  2
ISO-25
 70
     0
 41
2.5
 42
0.625
 43
3.75
 44
1.25
 73
     0
 74
     0
 77
     1
 78
     8
140
2.5
141
2.5
143
0.0393700787
147
0.625
171
     3
172
     1
178
     0
271
     2
272
     2
274
     3
278
    44
283
     0
284
     8
340
11
  0
DIMSTYLE
105
27D
102
{ACAD_REACTORS
330
27C
330
287
330
2A5
102
}
330
A
100
AcDbSymbolTableRecord
100
AcDbDimStyleTableRecord
  2
SLDDIMSTYLE0
 70
     0
 41
3.0
 44
0.0
 45
0.000000001
 73
     0
 74
     0
 77
     1
 78
    12
 79
     3
140
2.0
147
0.5
173
     1
178
     0
271
     2
272
     3
276
     2
284
    12
340
4A
  0
DIMSTYLE
105
292
102
{ACAD_REACTORS
330
291
330
2B1
102
}
330
A
100
AcDbSymbolTableRecord
100
AcDbDimStyleTableRecord
  2
SLDDIMSTYLE1
 70
     0
 41
3.0
 44
0.0
 45
0.000000001
 73
     0
 74
     0
 77
     1
 78
    12
 79
     3
140
2.0
147
0.5
172
     1
173
     1
178
     0
271
     2
272
     3
276
     2
284
    12
289
     0
340
4A
  0
DIMSTYLE
105
29E
102
{ACAD_REACTORS
330
29D
102
}
330
A
100
AcDbSymbolTableRecord
100
AcDbDimStyleTableRecord
  2
SLDDIMSTYLE2
 70
     0
 41
3.0
 44
0.0
 45
0.000000001
 73
     0
 74
     0
 77
     1
 78
    12
 79
     3
140
2.0
141
0.0
147
0.5
173
     1
178
     0
271
     2
272
     3
276
     2
279
     1
284
    12
340
4A
  0
ENDTAB
  0
TABLE
  2
BLOCK_RECORD
  5
1
330
0
100
AcDbSymbolTable
 70
     8
  0
BLOCK_RECORD
  5
1F
330
1
100
AcDbSymbolTableRecord
100
AcDbBlockTableRecord
  2
*Model_Space
340
22
  0
BLOCK_RECORD
  5
1B
330
1
100
AcDbSymbolTableRecord
100
AcDbBlockTableRecord
  2
*Paper_Space
340
1E
  0
BLOCK_RECORD
  5
23
330
1
100
AcDbSymbolTableRecord
100
AcDbBlockTableRecord
  2
*Paper_Space0
340
26
  0
BLOCK_RECORD
  5
27E
330
1
100
AcDbSymbolTableRecord
100
AcDbBlockTableRecord
  2
_D
340
0
  0
BLOCK_RECORD
  5
288
330
1
100
AcDbSymbolTableRecord
100
AcDbBlockTableRecord
  2
_D_1
340
0
  0
BLOCK_RECORD
  5
293
330
1
100
AcDbSymbolTableRecord
100
AcDbBlockTableRecord
  2
_D_2
340
0
  0
BLOCK_RECORD
  5
29F
330
1
100
AcDbSymbolTableRecord
100
AcDbBlockTableRecord
  2
_D_3
340
0
  0
BLOCK_RECORD
  5
2A6
330
1
100
AcDbSymbolTableRecord
100
AcDbBlockTableRecord
  2
_D_4
340
0
  0
BLOCK_RECORD
  5
2B2
330
1
100
AcDbSymbolTableRecord
100
AcDbBlockTableRecord
  2
_D_5
340
0
  0
BLOCK_RECORD
  5
417
330
1
100
AcDbSymbolTableRecord
100
AcDbBlockTableRecord
  2
SW_CENTERMARKSYMBOL_0
340
0
102
{BLKREFS
331
422
102
}
  0
ENDTAB
  0
ENDSEC
  0
SECTION
  2
BLOCKS
  0
BLOCK
  5
20
330
1F
100
AcDbEntity
  8
0
100
AcDbBlockBegin
  2
*Model_Space
 70
     0
 10
0.0
 20
0.0
 30
0.0
  3
*Model_Space
  1

  0
ENDBLK
  5
21
330
1F
100
AcDbEntity
  8
0
100
AcDbBlockEnd
  0
BLOCK
  5
1C
330
1B
100
AcDbEntity
 67
     1
  8
0
100
AcDbBlockBegin
  2
*Paper_Space
 70
     0
 10
0.0
 20
0.0
 30
0.0
  3
*Paper_Space
  1

  0
ENDBLK
  5
1D
330
1B
100
AcDbEntity
 67
     1
  8
0
100
AcDbBlockEnd
  0
BLOCK
  5
24
330
23
100
AcDbEntity
  8
0
100
AcDbBlockBegin
  2
*Paper_Space0
 70
     0
 10
0.0
 20
0.0
 30
0.0
  3
*Paper_Space0
  1

  0
ENDBLK
  5
25
330
23
100
AcDbEntity
  8
0
100
AcDbBlockEnd
  0
BLOCK
  5
27F
330
27E
100
AcDbEntity
  8
0
100
AcDbBlockBegin
  2
_D
 70
     0
 10
0.0
 20
0.0
 30
0.0
  3
_D
  1

  0
SOLID
  5
281
330
27E
100
AcDbEntity
  8
VERMASSUNG
100
AcDbTrace
 10
174.32446466
 20
147.9616929487
 30
0.0
 11
177.32446466
 21
147.5116929487
 31
0.0
 12
177.32446466
 22
148.4116929487
 32
0.0
 13
177.32446466
 23
148.4116929487
 33
0.0
  0
SOLID
  5
282
330
27E
100
AcDbEntity
  8
VERMASSUNG
100
AcDbTrace
 10
264.32446466
 20
147.9616929487
 30
0.0
 11
261.32446466
 21
148.4116929487
 31
0.0
 12
261.32446466
 22
147.5116929487
 32
0.0
 13
261.32446466
 23
147.5116929487
 33
0.0
  0
LINE
  5
283
330
27E
100
AcDbEntity
  8
VERMASSUNG
100
AcDbLine
 10
174.32446466
 20
137.6616929487
 30
0.0
 11
174.32446466
 21
148.9616929487
 31
0.0
  0
LINE
  5
284
330
27E
100
AcDbEntity
  8
VERMASSUNG
100
AcDbLine
 10
264.32446466
 20
140.9071416731
 30
0.0
 11
264.32446466
 21
148.9616929487
 31
0.0
  0
LINE
  5
285
330
27E
100
AcDbEntity
  8
VERMASSUNG
100
AcDbLine
 10
174.32446466
 20
147.9616929487
 30
0.0
 11
264.32446466
 21
147.9616929487
 31
0.0
  0
MTEXT
  5
286
330
27E
100
AcDbEntity
  8
VERMASSUNG
100
AcDbMText
 10
217.024464609
 20
150.5616928323
 30
0.1
 40
2.0
 41
0.0
 71
     1
 72
     1
  1
90
  7
SLDTEXTSTYLE0
 73
     1
 44
1.0
  0
ENDBLK
  5
280
330
27E
100
AcDbEntity
  8
0
100
AcDbBlockEnd
  0
BLOCK
  5
289
330
288
100
AcDbEntity
  8
0
100
AcDbBlockBegin
  2
_D_1
 70
     0
 10
0.0
 20
0.0
 30
0.0
  3
_D_1
  1

  0
SOLID
  5
28B
330
288
100
AcDbEntity
  8
VERMASSUNG
100
AcDbTrace
 10
174.32446466
 20
142.9101078777
 30
0.0
 11
177.32446466
 21
142.4601078777
 31
0.0
 12
177.32446466
 22
143.3601078777
 32
0.0
 13
177.32446466
 23
143.3601078777
 33
0.0
  0
SOLID
  5
28C
330
288
100
AcDbEntity
  8
VERMASSUNG
100
AcDbTrace
 10
229.32446466
 20
142.9101078777
 30
0.0
 11
226.32446466
 21
143.3601078777
 31
0.0
 12
226.32446466
 22
142.4601078777
 32
0.0
 13
226.32446466
 23
142.4601078777
 33
0.0
  0
LINE
  5
28D
330
288
100
AcDbEntity
  8
VERMASSUNG
100
AcDbLine
 10
174.32446466
 20
137.6616929487
 30
0.0
 11
174.32446466
 21
143.9101078777
 31
0.0
  0
LINE
  5
28E
330
288
100
AcDbEntity
  8
VERMASSUNG
100
AcDbLine
 10
229.32446466
 20
135.2326077063
 30
0.0
 11
229.32446466
 21
143.9101078777
 31
0.0
  0
LINE
  5
28F
330
288
100
AcDbEntity
  8
VERMASSUNG
100
AcDbLine
 10
174.32446466
 20
142.9101078777
 30
0.0
 11
229.32446466
 21
142.9101078777
 31
0.0
  0
MTEXT
  5
290
330
288
100
AcDbEntity
  8
VERMASSUNG
100
AcDbMText
 10
199.524464609
 20
145.5101077613
 30
0.1
 40
2.0
 41
0.0
 71
     1
 72
     1
  1
55
  7
SLDTEXTSTYLE0
 73
     1
 44
1.0
  0
ENDBLK
  5
28A
330
288
100
AcDbEntity
  8
0
100
AcDbBlockEnd
  0
BLOCK
  5
294
330
293
100
AcDbEntity
  8
0
100
AcDbBlockBegin
  2
_D_2
 70
     0
 10
0.0
 20
0.0
 30
0.0
  3
_D_2
  1

  0
SOLID
  5
296
330
293
100
AcDbEntity
  8
VERMASSUNG
100
AcDbTrace
 10
233.7087872547
 20
121.6185471982
 30
0.0
 11
233.2587872547
 21
118.6185471982
 31
0.0
 12
234.1587872547
 22
118.6185471982
 32
0.0
 13
234.1587872547
 23
118.6185471982
 33
0.0
  0
SOLID
  5
297
330
293
100
AcDbEntity
  8
VERMASSUNG
100
AcDbTrace
 10
233.7087872547
 20
125.6185471982
 30
0.0
 11
234.1587872547
 21
128.6185471982
 31
0.0
 12
233.2587872547
 22
128.6185471982
 32
0.0
 13
233.2587872547
 23
128.6185471982
 33
0.0
  0
LINE
  5
298
330
293
100
AcDbEntity
  8
VERMASSUNG
100
AcDbLine
 10
233.7087872547
 20
121.6185471982
 30
0.0
 11
233.7087872547
 21
115.6185471982
 31
0.0
  0
LINE
  5
299
330
293
100
AcDbEntity
  8
VERMASSUNG
100
AcDbLine
 10
233.7087872547
 20
121.6185471982
 30
0.0
 11
233.7087872547
 21
125.6185471982
 31
0.0
  0
LINE
  5
29A
330
293
100
AcDbEntity
  8
VERMASSUNG
100
AcDbLine
 10
233.7087872547
 20
125.6185471982
 30
0.0
 11
233.7087872547
 21
136.8726945641
 31
0.0
  0
MTEXT
  5
29B
330
293
100
AcDbEntity
  8
VERMASSUNG
100
AcDbMText
 10
231.1087873711
 20
131.6726940843
 30
0.1
 40
2.0
 41
0.0
 71
     1
 72
     1
  1
M
  7
SLDTEXTSTYLE0
 11
6.123233995736766E-17
 21
1.0
 31
0.0
 73
     1
 44
1.0
  0
MTEXT
  5
29C
330
293
100
AcDbEntity
  8
VERMASSUNG
100
AcDbMText
 10
231.1087873711
 20
133.4726941698
 30
0.1
 40
2.0
 41
0.0
 71
     1
 72
     1
  1
4
  7
SLDTEXTSTYLE0
 11
6.123233995736766E-17
 21
1.0
 31
0.0
 73
     1
 44
1.0
  0
ENDBLK
  5
295
330
293
100
AcDbEntity
  8
0
100
AcDbBlockEnd
  0
BLOCK
  5
2A0
330
29F
100
AcDbEntity
  8
0
100
AcDbBlockBegin
  2
_D_3
 70
     0
 10
0.0
 20
0.0
 30
0.0
  3
_D_3
  1

  0
SOLID
  5
2A2
330
29F
100
AcDbEntity
  8
VERMASSUNG
100
AcDbTrace
 10
194.9102510976
 20
131.0474793863
 30
0.0
 11
197.373202517
 21
132.8184594273
 31
0.0
 12
196.745205621
 22
133.4631453187
 32
0.0
 13
196.745205621
 23
133.4631453187
 33
0.0
  0
LINE
  5
2A3
330
29F
100
AcDbEntity
  8
VERMASSUNG
100
AcDbLine
 10
194.9102510976
 20
131.0474793863
 30
0.0
 11
201.474995875
 21
137.4422824963
 31
0.0
  0
MTEXT
  5
2A4
330
29F
100
AcDbEntity
  8
VERMASSUNG
100
AcDbMText
 10
196.2424056153
 20
135.8866473341
 30
0.1
 40
2.0
 41
0.0
 71
     1
 72
     1
  1
R2
  7
SLDTEXTSTYLE0
 11
0.7071067811865495
 21
0.7071067811865457
 31
0.0
 73
     1
 44
1.0
  0
ENDBLK
  5
2A1
330
29F
100
AcDbEntity
  8
0
100
AcDbBlockEnd
  0
BLOCK
  5
2A7
330
2A6
100
AcDbEntity
  8
0
100
AcDbBlockBegin
  2
_D_4
 70
     0
 10
0.0
 20
0.0
 30
0.0
  3
_D_4
  1

  0
SOLID
  5
2A9
330
2A6
100
AcDbEntity
  8
VERMASSUNG
100
AcDbTrace
 10
138.7401305309
 20
97.9616929487
 30
0.0
 11
139.1901305309
 21
100.9616929487
 31
0.0
 12
138.2901305309
 22
100.9616929487
 32
0.0
 13
138.2901305309
 23
100.9616929487
 33
0.0
  0
SOLID
  5
2AA
330
2A6
100
AcDbEntity
  8
VERMASSUNG
100
AcDbTrace
 10
138.7401305309
 20
137.9616929487
 30
0.0
 11
138.2901305309
 21
134.9616929487
 31
0.0
 12
139.1901305309
 22
134.9616929487
 32
0.0
 13
139.1901305309
 23
134.9616929487
 33
0.0
  0
LINE
  5
2AB
330
2A6
100
AcDbEntity
  8
VERMASSUNG
100
AcDbLine
 10
174.62446466
 20
97.9616929487
 30
0.0
 11
137.7401305309
 21
97.9616929487
 31
0.0
  0
LINE
  5
2AC
330
2A6
100
AcDbEntity
  8
VERMASSUNG
100
AcDbLine
 10
174.62446466
 20
137.9616929487
 30
0.0
 11
137.7401305309
 21
137.9616929487
 31
0.0
  0
LINE
  5
2AD
330
2A6
100
AcDbEntity
  8
VERMASSUNG
100
AcDbLine
 10
138.7401305309
 20
97.9616929487
 30
0.0
 11
138.7401305309
 21
137.9616929487
 31
0.0
  0
MTEXT
  5
2AE
330
2A6
100
AcDbEntity
  8
VERMASSUNG
100
AcDbMText
 10
135.9401305214
 20
110.8566926316
 30
0.1
 40
2.0
 41
0.0
 71
     1
 72
     1
  1
PSC 
  7
SLDTEXTSTYLE0
 11
6.123233995736766E-17
 21
1.0
 31
0.0
 73
     1
 44
1.0
  0
MTEXT
  5
2AF
330
2A6
100
AcDbEntity
  8
VERMASSUNG
100
AcDbMText
 10
136.1401305309
 20
116.6566930235
 30
0.1
 40
2.0
 41
0.0
 71
     1
 72
     1
  1
%%c
  7
SLDTEXTSTYLE0
 11
6.123233995736766E-17
 21
1.0
 31
0.0
 73
     1
 44
1.0
  0
MTEXT
  5
2B0
330
2A6
100
AcDbEntity
  8
VERMASSUNG
100
AcDbMText
 10
135.9401305214
 20
120.2666930378
 30
0.1
 40
2.0
 41
0.0
 71
     1
 72
     1
  1
40
  7
SLDTEXTSTYLE0
 11
6.123233995736766E-17
 21
1.0
 31
0.0
 73
     1
 44
1.0
  0
ENDBLK
  5
2A8
330
2A6
100
AcDbEntity
  8
0
100
AcDbBlockEnd
  0
BLOCK
  5
2B3
330
2B2
100
AcDbEntity
  8
0
100
AcDbBlockBegin
  2
_D_5
 70
     0
 10
0.0
 20
0.0
 30
0.0
  3
_D_5
  1

  0
SOLID
  5
2B5
330
2B2
100
AcDbEntity
  8
VERMASSUNG
100
AcDbTrace
 10
212.6334346143
 20
105.4616929487
 30
0.0
 11
212.1834346143
 21
102.4616929487
 31
0.0
 12
213.0834346143
 22
102.4616929487
 32
0.0
 13
213.0834346143
 23
102.4616929487
 33
0.0
  0
SOLID
  5
2B6
330
2B2
100
AcDbEntity
  8
VERMASSUNG
100
AcDbTrace
 10
212.6334346143
 20
130.4616929487
 30
0.0
 11
213.0834346143
 21
133.4616929487
 31
0.0
 12
212.1834346143
 22
133.4616929487
 32
0.0
 13
212.1834346143
 23
133.4616929487
 33
0.0
  0
LINE
  5
2B7
330
2B2
100
AcDbEntity
  8
VERMASSUNG
100
AcDbLine
 10
212.6334346143
 20
105.4616929487
 30
0.0
 11
212.6334346143
 21
99.4616929487
 31
0.0
  0
LINE
  5
2B8
330
2B2
100
AcDbEntity
  8
VERMASSUNG
100
AcDbLine
 10
212.6334346143
 20
105.4616929487
 30
0.0
 11
212.6334346143
 21
130.4616929487
 31
0.0
  0
LINE
  5
2B9
330
2B2
100
AcDbEntity
  8
VERMASSUNG
100
AcDbLine
 10
212.6334346143
 20
130.4616929487
 30
0.0
 11
212.6334346143
 21
141.1937288731
 31
0.0
  0
MTEXT
  5
2BA
330
2B2
100
AcDbEntity
  8
VERMASSUNG
100
AcDbMText
 10
210.0334346143
 20
132.9837292223
 30
0.1
 40
2.0
 41
0.0
 71
     1
 72
     1
  1
%%c
  7
SLDTEXTSTYLE0
 11
6.123233995736766E-17
 21
1.0
 31
0.0
 73
     1
 44
1.0
  0
MTEXT
  5
2BB
330
2B2
100
AcDbEntity
  8
VERMASSUNG
100
AcDbMText
 10
209.8334346048
 20
136.5937292367
 30
0.1
 40
2.0
 41
0.0
 71
     1
 72
     1
  1
25
  7
SLDTEXTSTYLE0
 11
6.123233995736766E-17
 21
1.0
 31
0.0
 73
     1
 44
1.0
  0
ENDBLK
  5
2B4
330
2B2
100
AcDbEntity
  8
0
100
AcDbBlockEnd
  0
BLOCK
  5
418
330
417
100
AcDbEntity
  8
0
100
AcDbBlockBegin
  2
SW_CENTERMARKSYMBOL_0
 70
     0
 10
0.0
 20
0.0
 30
0.0
  3
SW_CENTERMARKSYMBOL_0
  1

  0
LINE
  5
41A
330
417
100
AcDbEntity
  8
VERMASSUNG
 62
     0
100
AcDbLine
 10
0.0
 20
0.0
 30
0.0
 11
0.0
 21
2.5
 31
0.0
  0
LINE
  5
41B
330
417
100
AcDbEntity
  8
VERMASSUNG
 62
     0
100
AcDbLine
 10
0.0
 20
0.0
 30
0.0
 11
-2.5
 21
0.0
 31
0.0
  0
LINE
  5
41C
330
417
100
AcDbEntity
  8
VERMASSUNG
 62
     0
100
AcDbLine
 10
0.0
 20
0.0
 30
0.0
 11
0.0
 21
-2.5
 31
0.0
  0
LINE
  5
41D
330
417
100
AcDbEntity
  8
VERMASSUNG
 62
     0
100
AcDbLine
 10
0.0
 20
0.0
 30
0.0
 11
2.5
 21
0.0
 31
0.0
  0
LINE
  5
41E
330
417
100
AcDbEntity
  8
VERMASSUNG
 62
     0
100
AcDbLine
 10
0.0
 20
5.0
 30
0.0
 11
0.0
 21
34.0
 31
0.0
  0
LINE
  5
41F
330
417
100
AcDbEntity
  8
VERMASSUNG
 62
     0
100
AcDbLine
 10
-5.0
 20
0.0
 30
0.0
 11
-34.0
 21
0.0
 31
0.0
  0
LINE
  5
420
330
417
100
AcDbEntity
  8
VERMASSUNG
 62
     0
100
AcDbLine
 10
0.0
 20
-5.0
 30
0.0
 11
0.0
 21
-34.0
 31
0.0
  0
LINE
  5
421
330
417
100
AcDbEntity
  8
VERMASSUNG
 62
     0
100
AcDbLine
 10
5.0
 20
0.0
 30
0.0
 11
34.0
 21
0.0
 31
0.0
  0
ENDBLK
  5
419
330
417
100
AcDbEntity
  8
0
100
AcDbBlockEnd
  0
ENDSEC
  0
SECTION
  2
ENTITIES
  0
MTEXT
  5
4B
330
1F
100
AcDbEntity
  8
KOPF_DÜNN
100
AcDbMText
 10
13.8892156294
 20
23.8770940835
 30
0.0
 40
3.0
 41
0.0
 71
     1
 72
     1
  1
PS4.WK3.025.090
  7
SLDTEXTSTYLE0
 73
     1
 44
1.0
  0
MTEXT
  5
4C
330
1F
100
AcDbEntity
  8
VERMASSUNG
100
AcDbMText
 10
13.9329988022
 20
28.9162328764
 30
0.0
 40
3.0
 41
0.0
 71
     1
 72
     1
  1
Bohrstange  ø25
  7
SLDTEXTSTYLE0
 73
     1
 44
1.0
  0
MTEXT
  5
4D
330
1F
100
AcDbEntity
  8
VERMASSUNG
100
AcDbMText
 10
98.8601118557
 20
13.8584013384
 30
0.0
 40
2.0
 41
0.0
 71
     1
 72
     1
  1
Datum: 06.05.2015
  7
SLDTEXTSTYLE0
 73
     1
 44
1.0
  0
MTEXT
  5
4E
330
1F
100
AcDbEntity
  8
VERMASSUNG
100
AcDbMText
 10
13.933048693
 20
18.0701447943
 30
0.0
 40
2.0
 41
0.0
 71
     1
 72
     1
  1
PSC ø40 / Wechselkopf-Bohrstange
  7
SLDTEXTSTYLE0
 73
     1
 44
1.0
  0
MTEXT
  5
4F
330
1F
100
AcDbEntity
  8
VERMASSUNG
100
AcDbMText
 10
13.9808475933
 20
13.9309618897
 30
0.0
 40
2.0
 41
0.0
 71
     1
 72
     1
  1
Gewicht: 371g
  7
SLDTEXTSTYLE0
 73
     1
 44
1.0
  0
LINE
  5
50
330
1F
100
AcDbEntity
  8
0
  6
SLD-Durchgehend
 62
     7
370
    15
100
AcDbLine
 10
238.6244653276
 20
115.8048388072
 30
0.0
 11
234.8244643322
 21
115.8048388072
 31
0.0
  0
LINE
  5
51
330
1F
100
AcDbEntity
  8
0
  6
SLD-Durchgehend
 62
     7
370
    15
100
AcDbLine
 10
234.8244643322
 20
108.8048390568
 30
0.0
 11
238.6244653276
 21
108.8048390568
 31
0.0
  0
ARC
  5
52
330
1F
100
AcDbEntity
  8
0
  6
SLD-Durchgehend
 62
     7
370
    15
100
AcDbCircle
 10
238.62446466
 20
115.6048386992
 30
0.0
 40
0.2000000000000171
100
AcDbArc
 50
0.0
 51
90.0
  0
ARC
  5
53
330
1F
100
AcDbEntity
  8
0
  6
SLD-Durchgehend
 62
     7
370
    15
100
AcDbCircle
 10
238.62446466
 20
109.0048386992
 30
0.0
 40
0.2000000000000171
100
AcDbArc
 50
270.0
 51
0.0
  0
ARC
  5
54
330
1F
100
AcDbEntity
  8
0
  6
SLD-Durchgehend
 62
     7
370
    15
100
AcDbCircle
 10
234.62446466
 20
110.1048386992
 30
0.0
 40
0.2000000000000171
100
AcDbArc
 50
0.0
 51
90.0
  0
ARC
  5
55
330
1F
100
AcDbEntity
  8
0
  6
SLD-Durchgehend
 62
     7
370
    15
100
AcDbCircle
 10
234.62446466
 20
114.5048386992
 30
0.0
 40
0.2000000000000171
100
AcDbArc
 50
270.0
 51
0.0
  0
LINE
  5
56
330
1F
100
AcDbEntity
  8
0
  6
SLD-Durchgehend
 62
     7
370
    15
100
AcDbLine
 10
234.6244646719
 20
114.3048387941
 30
0.0
 11
228.9501844457
 21
114.3048387941
 31
0.0
  0
LINE
  5
57
330
1F
100
AcDbEntity
  8
0
  6
SLD-Durchgehend
 62
     7
370
    15
100
AcDbLine
 10
229.0561428777
 20
110.304838837
 30
0.0
 11
234.6244646719
 21
110.304838837
 31
0.0
  0
ARC
  5
58
330
1F
100
AcDbEntity
  8
0
  6
SLD-Durchgehend
 62
     7
370
    15
100
AcDbCircle
 10
238.62446466
 20
126.9185471982
 30
0.0
 40
0.2000000000000171
100
AcDbArc
 50
0.0
 51
90.0
  0
ARC
  5
59
330
1F
100
AcDbEntity
  8
0
  6
SLD-Durchgehend
 62
     7
370
    15
100
AcDbCircle
 10
238.62446466
 20
120.3185471982
 30
0.0
 40
0.2000000000000171
100
AcDbArc
 50
270.0
 51
0.0
  0
LINE
  5
5A
330
1F
100
AcDbEntity
  8
0
  6
SLD-Durchgehend
 62
     7
370
    15
100
AcDbLine
 10
238.6244653276
 20
127.1185468406
 30
0.0
 11
234.8244643322
 21
127.1185468406
 31
0.0
  0
LINE
  5
5B
330
1F
100
AcDbEntity
  8
0
  6
SLD-Durchgehend
 62
     7
370
    15
100
AcDbLine
 10
234.8244643322
 20
120.1185470902
 30
0.0
 11
238.6244653276
 21
120.1185470902
 31
0.0
  0
ARC
  5
5C
330
1F
100
AcDbEntity
  8
0
  6
SLD-Durchgehend
 62
     7
370
    15
100
AcDbCircle
 10
234.62446466
 20
121.4185471982
 30
0.0
 40
0.2000000000000171
100
AcDbArc
 50
0.0
 51
90.0
  0
ARC
  5
5D
330
1F
100
AcDbEntity
  8
0
  6
SLD-Durchgehend
 62
     7
370
    15
100
AcDbCircle
 10
234.62446466
 20
125.8185471982
 30
0.0
 40
0.2000000000000171
100
AcDbArc
 50
270.0
 51
0.0
  0
LINE
  5
5E
330
1F
100
AcDbEntity
  8
0
  6
SLD-Durchgehend
 62
     7
370
    15
100
AcDbLine
 10
234.6244646719
 20
125.6185470604
 30
0.0
 11
229.0561428777
 21
125.6185470604
 31
0.0
  0
LINE
  5
5F
330
1F
100
AcDbEntity
  8
0
  6
SLD-Durchgehend
 62
     7
370
    15
100
AcDbLine
 10
228.9496666304
 20
121.6185471032
 30
0.0
 11
234.6244646719
 21
121.6185471032
 31
0.0
  0
ARC
  5
60
330
1F
100
AcDbEntity
  8
0
  6
SLD-Durchgehend
 62
     7
370
    15
100
AcDbCircle
 10
193.72446466
 20
98.5616929487
 30
0.0
 40
0.6000000000000085
100
AcDbArc
 50
270.0
 51
0.0
  0
ARC
  5
61
330
1F
100
AcDbEntity
  8
0
  6
SLD-Durchgehend
 62
     7
370
    15
100
AcDbCircle
 10
193.72446466
 20
137.3616929487
 30
0.0
 40
0.6000000000000227
100
AcDbArc
 50
0.0
 51
90.0
  0
ARC
  5
62
330
1F
100
AcDbEntity
  8
0
  6
SLD-Durchgehend
 62
     7
370
    15
100
AcDbCircle
 10
174.62446466
 20
98.2616929487
 30
0.0
 40
0.3000000000000114
100
AcDbArc
 50
180.0
 51
270.0
  0
ARC
  5
63
330
1F
100
AcDbEntity
  8
0
  6
SLD-Durchgehend
 62
     7
370
    15
100
AcDbCircle
 10
174.62446466
 20
137.6616929487
 30
0.0
 40
0.3000000000000398
100
AcDbArc
 50
90.0
 51
180.0
  0
LINE
  5
64
330
1F
100
AcDbEntity
  8
0
  6
SLD-Durchgehend
 62
     7
370
    15
100
AcDbLine
 10
188.2995624578
 20
97.9616933957
 30
0.0
 11
193.7244652322
 21
97.9616933957
 31
0.0
  0
LINE
  5
65
330
1F
100
AcDbEntity
  8
0
  6
SLD-Durchgehend
 62
     7
370
    15
100
AcDbLine
 10
174.6244646743
 20
97.9616933957
 30
0.0
 11
184.3244644365
 21
97.9616933957
 31
0.0
  0
LINE
  5
66
330
1F
100
AcDbEntity
  8
0
  6
SLD-Durchgehend
 62
     7
370
    15
100
AcDbLine
 10
193.7244652322
 20
137.9616925016
 30
0.0
 11
174.6244646743
 21
137.9616925016
 31
0.0
  0
LWPOLYLINE
  5
67
330
1F
100
AcDbEntity
  8
0
  6
SLD-Durchgehend
 62
     7
370
    15
100
AcDbPolyline
 90
        3
 70
   128
 43
0.0
 10
174.1244646651
 20
103.8718729735
 10
174.2499196003
 20
103.8035707072
 10
174.32446466
 20
103.7508327037
  0
ARC
  5
68
330
1F
100
AcDbEntity
  8
0
  6
SLD-Durchgehend
 62
     7
370
    15
100
AcDbCircle
 10
173.7102510976
 20
132.9616929487
 30
0.0
 40
1.000000000000008
100
AcDbArc
 50
225.0
 51
307.8947985336
  0
ARC
  5
69
330
1F
100
AcDbEntity
  8
0
  6
SLD-Durchgehend
 62
     7
370
    15
100
AcDbCircle
 10
196.32446466
 20
103.4616929487
 30
0.0
 40
2.000000000000014
100
AcDbArc
 50
90.0
 51
180.0
  0
ARC
  5
6A
330
1F
100
AcDbEntity
  8
0
  6
SLD-Durchgehend
 62
     7
370
    15
100
AcDbCircle
 10
196.32446466
 20
132.4616929487
 30
0.0
 40
2.0
100
AcDbArc
 50
180.0
 51
270.0
  0
LINE
  5
6B
330
1F
100
AcDbEntity
  8
0
  6
SLD-Durchgehend
 62
     7
370
    15
100
AcDbLine
 10
228.8244633487
 20
105.4616927624
 30
0.0
 11
229.5992715767
 21
106.2365009904
 31
0.0
  0
LINE
  5
6C
330
1F
100
AcDbEntity
  8
0
  6
SLD-Durchgehend
 62
     7
370
    15
100
AcDbLine
 10
229.5992715767
 20
129.6868849069
 30
0.0
 11
228.8244633487
 21
130.4616931349
 31
0.0
  0
LINE
  5
6D
330
1F
100
AcDbEntity
  8
0
  6
SLD-Durchgehend
 62
     7
370
    15
100
AcDbLine
 10
228.8244633487
 20
130.4616931349
 30
0.0
 11
196.3244645408
 21
130.4616931349
 31
0.0
  0
LINE
  5
6E
330
1F
100
AcDbEntity
  8
0
  6
SLD-Durchgehend
 62
     7
370
    15
100
AcDbLine
 10
196.3244645408
 20
105.4616927624
 30
0.0
 11
228.8244633487
 21
105.4616927624
 31
0.0
  0
LINE
  5
6F
330
1F
100
AcDbEntity
  8
0
  6
SLD-Durchgehend
 62
     7
370
    15
100
AcDbLine
 10
165.5059909931
 20
105.0204349205
 30
0.0
 11
172.6244646375
 21
104.8415939778
 31
0.0
  0
LINE
  5
70
330
1F
100
AcDbEntity
  8
0
  6
SLD-Durchgehend
 62
     7
370
    15
100
AcDbLine
 10
156.2283995113
 20
105.2535207466
 30
0.0
 11
160.2912625781
 21
105.1514468611
 31
0.0
  0
ARC
  5
71
330
1F
100
AcDbEntity
  8
0
  6
SLD-Durchgehend
 62
     7
370
    15
100
AcDbCircle
 10
172.824401571
 20
104.836571053
 30
0.0
 40
0.2000000000000208
100
AcDbArc
 50
88.5608333333
 51
178.5608333333
  0
LINE
  5
72
330
1F
100
AcDbEntity
  8
0
  6
SLD-Durchgehend
 62
     7
370
    15
100
AcDbLine
 10
172.8294246382
 20
105.0365076855
 30
0.0
 11
173.9294877584
 21
105.0088706881
 31
0.0
  0
ARC
  5
73
330
1F
100
AcDbEntity
  8
0
  6
SLD-Durchgehend
 62
     7
370
    15
100
AcDbCircle
 10
173.92446466
 20
104.8089336392
 30
0.0
 40
0.2000000000000171
100
AcDbArc
 50
0.0
 51
88.5608333333
  0
LINE
  5
74
330
1F
100
AcDbEntity
  8
0
  6
SLD-Durchgehend
 62
     7
370
    15
100
AcDbLine
 10
172.391355412
 20
132.8759354994
 30
0.0
 11
151.824463766
 21
132.3592237652
 31
0.0
  0
LINE
  5
75
330
1F
100
AcDbEntity
  8
0
  6
SLD-Durchgehend
 62
     7
370
    15
100
AcDbLine
 10
151.824463766
 20
132.3592237652
 30
0.0
 11
150.3244644514
 21
131.4931980789
 31
0.0
  0
LINE
  5
76
330
1F
100
AcDbEntity
  8
0
  6
SLD-Durchgehend
 62
     7
370
    15
100
AcDbLine
 10
173.0031443544
 20
132.2545859486
 30
0.0
 11
172.3981077335
 21
132.8596224532
 31
0.0
  0
LINE
  5
77
330
1F
100
AcDbEntity
  8
0
  6
SLD-Durchgehend
 62
     7
370
    15
100
AcDbLine
 10
234.8244643322
 20
115.8048388072
 30
0.0
 11
234.8244643322
 21
108.8048390568
 31
0.0
  0
LINE
  5
78
330
1F
100
AcDbEntity
  8
0
  6
SLD-Durchgehend
 62
     7
370
    15
100
AcDbLine
 10
238.8244612626
 20
115.6048386813
 30
0.0
 11
238.8244612626
 21
109.004838717
 31
0.0
  0
LINE
  5
79
330
1F
100
AcDbEntity
  8
0
  6
SLD-Durchgehend
 62
     7
370
    15
100
AcDbLine
 10
238.8244612626
 20
120.5385006953
 30
0.0
 11
238.8244612626
 21
120.3185472161
 31
0.0
  0
LINE
  5
7A
330
1F
100
AcDbEntity
  8
0
  6
SLD-Durchgehend
 62
     7
370
    15
100
AcDbLine
 10
238.8244612626
 20
126.9185471803
 30
0.0
 11
238.8244612626
 21
120.5385006953
 31
0.0
  0
LINE
  5
7B
330
1F
100
AcDbEntity
  8
0
  6
SLD-Durchgehend
 62
     7
370
    15
100
AcDbLine
 10
234.8244643322
 20
120.3518312879
 30
0.0
 11
234.8244643322
 21
120.1185470902
 31
0.0
  0
LINE
  5
7C
330
1F
100
AcDbEntity
  8
0
  6
SLD-Durchgehend
 62
     7
370
    15
100
AcDbLine
 10
234.8244643322
 20
127.1185468406
 30
0.0
 11
234.8244643322
 21
120.3518312879
 31
0.0
  0
LINE
  5
7D
330
1F
100
AcDbEntity
  8
0
  6
SLD-Durchgehend
 62
     7
370
    15
100
AcDbLine
 10
194.324464213
 20
117.9616929487
 30
0.0
 11
194.324464213
 21
98.5616923765
 31
0.0
  0
LINE
  5
7E
330
1F
100
AcDbEntity
  8
0
  6
SLD-Durchgehend
 62
     7
370
    15
100
AcDbLine
 10
194.324464213
 20
137.3616935209
 30
0.0
 11
194.324464213
 21
117.9616929487
 31
0.0
  0
LINE
  5
7F
330
1F
100
AcDbEntity
  8
0
  6
SLD-Durchgehend
 62
     7
370
    15
100
AcDbLine
 10
174.32446466
 20
117.9616929487
 30
0.0
 11
174.32446466
 21
137.6616930113
 31
0.0
  0
LINE
  5
80
330
1F
100
AcDbEntity
  8
0
  6
SLD-Durchgehend
 62
     7
370
    15
100
AcDbLine
 10
174.32446466
 20
98.2616928861
 30
0.0
 11
174.32446466
 21
117.9616929487
 31
0.0
  0
ARC
  5
81
330
1F
100
AcDbEntity
  8
0
  6
SLD-Durchgehend
 62
     7
370
    15
100
AcDbCircle
 10
186.3243895336
 20
78.0142968817
 30
0.0
 40
20.04740202818733
100
AcDbArc
 50
84.3457526741
 51
95.7253396711
  0
ARC
  5
82
330
1F
100
AcDbEntity
  8
0
  6
SLD-Durchgehend
 62
     7
370
    15
100
AcDbCircle
 10
181.234048906
 20
99.1669437909
 30
0.0
 40
0.3376459602488099
100
AcDbArc
 50
225.3020793184
 51
273.7898894239
  0
LINE
  5
83
330
1F
100
AcDbEntity
  8
0
  6
SLD-Durchgehend
 62
     7
370
    15
100
AcDbLine
 10
183.3925625792
 20
98.8300362125
 30
0.0
 11
181.2563665694
 21
98.8300362125
 31
0.0
  0
ARC
  5
84
330
1F
100
AcDbEntity
  8
0
  6
SLD-Durchgehend
 62
     7
370
    15
100
AcDbCircle
 10
183.412030183
 20
99.1745853124
 30
0.0
 40
0.3450986377754305
100
AcDbArc
 50
266.7661304573
 51
314.1419008004
  0
ELLIPSE
  5
85
330
1F
100
AcDbEntity
  8
0
  6
SLD-Durchgehend
 62
     7
370
    15
100
AcDbEllipse
 10
173.3755354876
 20
117.9616929487
 30
0.0
 11
-9.367417879781812
 21
19.74174915274996
 31
0.0
210
0.0
220
0.0
230
1.0
 40
0.3419987131
 41
3.29266438251689
 42
4.239566697060994
  0
ARC
  5
86
330
1F
100
AcDbEntity
  8
0
  6
SLD-Durchgehend
 62
     7
370
    15
100
AcDbCircle
 10
183.2870823968
 20
111.7800734022
 30
0.0
 40
0.3678536543011373
100
AcDbArc
 50
6.7716254957
 51
73.3368183237
  0
LINE
  5
87
330
1F
100
AcDbEntity
  8
0
  6
SLD-Durchgehend
 62
     7
370
    15
100
AcDbLine
 10
181.2563665694
 20
112.1324797616
 30
0.0
 11
183.3925625792
 21
112.1324797616
 31
0.0
  0
ARC
  5
88
330
1F
100
AcDbEntity
  8
0
  6
SLD-Durchgehend
 62
     7
370
    15
100
AcDbCircle
 10
181.3481314255
 20
111.7916040634
 30
0.0
 40
0.3530113743224774
100
AcDbArc
 50
105.0670195834
 51
174.8245365972
  0
ELLIPSE
  5
89
330
1F
100
AcDbEntity
  8
0
  6
SLD-Durchgehend
 62
     7
370
    15
100
AcDbEllipse
 10
191.2733938325
 20
117.9616929487
 30
0.0
 11
9.367417879781698
 21
19.74174915274996
 31
0.0
210
0.0
220
0.0
230
1.0
 40
0.3419987131
 41
2.0436186101186
 42
2.990520924662737
  0
ARC
  5
8A
330
1F
100
AcDbEntity
  8
0
  6
SLD-Durchgehend
 62
     7
370
    15
100
AcDbCircle
 10
181.3618467519
 20
124.1433124951
 30
0.0
 40
0.3678536543011672
100
AcDbArc
 50
186.7716254957
 51
253.3368183237
  0
LINE
  5
8B
330
1F
100
AcDbEntity
  8
0
  6
SLD-Durchgehend
 62
     7
370
    15
100
AcDbLine
 10
183.3925625792
 20
123.7909061358
 30
0.0
 11
181.2563665694
 21
123.7909061358
 31
0.0
  0
LWPOLYLINE
  5
8C
330
1F
100
AcDbEntity
  8
0
  6
SLD-Durchgehend
 62
     7
370
    15
100
AcDbPolyline
 90
        6
 70
   128
 43
0.0
 10
183.6523699126
 20
124.0999380581
 10
183.576213803
 20
123.9192796395
 10
183.5279768816
 20
123.8567813754
 10
183.4636271483
 20
123.8082850807
 10
183.4143694973
 20
123.7925201178
 10
183.3925625792
 20
123.7909061358
  0
ELLIPSE
  5
8D
330
1F
100
AcDbEntity
  8
0
  6
SLD-Durchgehend
 62
     7
370
    15
100
AcDbEllipse
 10
173.3755354876
 20
117.9616929487
 30
0.0
 11
9.367417879781755
 21
19.74174915274996
 31
0.0
210
0.0
220
0.0
230
1.0
 40
0.3419987131
 41
5.185211263708403
 42
6.13211357825256
  0
ARC
  5
8E
330
1F
100
AcDbEntity
  8
0
  6
SLD-Durchgehend
 62
     7
370
    15
100
AcDbCircle
 10
183.4148802427
 20
136.7564421064
 30
0.0
 40
0.3376459602487843
100
AcDbArc
 50
45.3020793184
 51
93.7898894239
  0
LINE
  5
8F
330
1F
100
AcDbEntity
  8
0
  6
SLD-Durchgehend
 62
     7
370
    15
100
AcDbLine
 10
181.2563665694
 20
137.0933496848
 30
0.0
 11
183.3925625792
 21
137.0933496848
 31
0.0
  0
ARC
  5
90
330
1F
100
AcDbEntity
  8
0
  6
SLD-Durchgehend
 62
     7
370
    15
100
AcDbCircle
 10
181.244772411
 20
136.7276904651
 30
0.0
 40
0.3658429847666215
100
AcDbArc
 50
88.1838995836
 51
132.7241316742
  0
ELLIPSE
  5
91
330
1F
100
AcDbEntity
  8
0
  6
SLD-Durchgehend
 62
     7
370
    15
100
AcDbEllipse
 10
191.2733938325
 20
117.9616929487
 30
0.0
 11
-9.367417879781643
 21
19.74174915274997
 31
0.0
210
0.0
220
0.0
230
1.0
 40
0.3419987131
 41
0.1510717289270681
 42
1.097974043471199
  0
LINE
  5
92
330
1F
100
AcDbEntity
  8
0
  6
SLD-Durchgehend
 62
     7
370
    15
100
AcDbLine
 10
174.1244646651
 20
106.7089879409
 30
0.0
 11
174.1244646651
 21
103.8718729735
 31
0.0
  0
LWPOLYLINE
  5
93
330
1F
100
AcDbEntity
  8
0
  6
SLD-Durchgehend
 62
     7
370
    15
100
AcDbPolyline
 90
        9
 70
   128
 43
0.0
 10
174.1244646651
 20
106.7089879409
 10
174.08412533
 20
107.0279314638
 10
174.0630966047
 20
107.0804068342
 10
174.0284575749
 20
107.1328775481
 10
174.0076407691
 20
107.1511771053
 10
173.9904171805
 20
107.1606216476
 10
173.9711891819
 20
107.1658882767
 10
173.9545833512
 20
107.166359526
 10
173.9294877584
 20
107.1603664652
  0
LWPOLYLINE
  5
94
330
1F
100
AcDbEntity
  8
0
  6
SLD-Durchgehend
 62
     7
370
    15
100
AcDbPolyline
 90
        8
 70
   128
 43
0.0
 10
173.9294877584
 20
107.1603664652
 10
173.8535634609
 20
107.1367267043
 10
173.7632670224
 20
107.1247796983
 10
173.6768613005
 20
107.1293655306
 10
173.5919690941
 20
107.1490797669
 10
173.4767690318
 20
107.2005744547
 10
173.2479039597
 20
107.396820885
 10
173.0683803576
 20
107.6629556239
  0
LINE
  5
95
330
1F
100
AcDbEntity
  8
0
  6
SLD-Durchgehend
 62
     7
370
    15
100
AcDbLine
 10
173.0683803576
 20
107.6629556239
 30
0.0
 11
173.0031443544
 21
107.8022861377
 31
0.0
  0
LINE
  5
96
330
1F
100
AcDbEntity
  8
0
  6
SLD-Durchgehend
 62
     7
370
    15
100
AcDbLine
 10
173.0031443544
 20
114.3347931549
 30
0.0
 11
173.0683803576
 21
114.6028471168
 31
0.0
  0
LWPOLYLINE
  5
97
330
1F
100
AcDbEntity
  8
0
  6
SLD-Durchgehend
 62
     7
370
    15
100
AcDbPolyline
 90
        9
 70
   128
 43
0.0
 10
173.0683803576
 20
114.6028471168
 10
173.2209943252
 20
115.089618693
 10
173.462509028
 20
115.5316187989
 10
173.582999119
 20
115.6506506715
 10
173.6612209602
 20
115.6914749638
 10
173.7494902004
 20
115.703583787
 10
173.8235458283
 20
115.6859158993
 10
173.9156497893
 20
115.6279706385
 10
173.9294877584
 20
115.6157533162
  0
LWPOLYLINE
  5
98
330
1F
100
AcDbEntity
  8
0
  6
SLD-Durchgehend
 62
     7
370
    15
100
AcDbPolyline
 90
        9
 70
   128
 43
0.0
 10
173.9294877584
 20
115.6157533162
 10
173.9501067746
 20
115.6006498251
 10
173.9693687082
 20
115.5935419713
 10
173.9896110335
 20
115.5938453496
 10
174.0052087366
 20
115.6000777603
 10
174.0262147173
 20
115.6180487935
 10
174.0546170872
 20
115.664749964
 10
174.1016136471
 20
115.8502680239
 10
174.1244646651
 20
116.2446980354
  0
LINE
  5
99
330
1F
100
AcDbEntity
  8
0
  6
SLD-Durchgehend
 62
     7
370
    15
100
AcDbLine
 10
174.1244646651
 20
130.9313926369
 30
0.0
 11
174.1244646651
 21
116.2446980354
 31
0.0
  0
LINE
  5
9A
330
1F
100
AcDbEntity
  8
0
  6
SLD-Durchgehend
 62
     7
370
    15
100
AcDbLine
 10
174.1244646651
 20
130.9313926369
 30
0.0
 11
174.109053663
 21
130.9961987183
 31
0.0
  0
ARC
  5
9B
330
1F
100
AcDbEntity
  8
0
  6
SLD-Durchgehend
 62
     7
370
    15
100
AcDbCircle
 10
174.0010491765
 20
131.0145274004
 30
0.0
 40
0.1184832808225863
100
AcDbArc
 50
45.0517928604
 51
127.1554100206
  0
LWPOLYLINE
  5
9C
330
1F
100
AcDbEntity
  8
0
  6
SLD-Durchgehend
 62
     7
370
    15
100
AcDbPolyline
 90
        8
 70
   128
 43
0.0
 10
173.9294877584
 20
131.108958599
 10
173.8535634609
 20
131.0768987507
 10
173.7632670224
 20
131.0580729962
 10
173.6768613005
 20
131.0594718427
 10
173.5919690941
 20
131.0792251945
 10
173.4767690318
 20
131.1351809174
 10
173.2479039597
 20
131.3482367888
 10
173.0683803576
 20
131.6192758724
  0
LINE
  5
9D
330
1F
100
AcDbEntity
  8
0
  6
SLD-Durchgehend
 62
     7
370
    15
100
AcDbLine
 10
173.0031443544
 20
131.7479995534
 30
0.0
 11
173.0683803576
 21
131.6192758724
 31
0.0
  0
LWPOLYLINE
  5
9E
330
1F
100
AcDbEntity
  8
0
  6
SLD-Durchgehend
 62
     7
370
    15
100
AcDbPolyline
 90
       15
 70
   128
 43
0.0
 10
172.8294246382
 20
108.3282719821
 10
172.7544004348
 20
108.5693271354
 10
172.729000125
 20
108.6240376801
 10
172.7182005084
 20
108.6407698214
 10
172.7092884498
 20
108.6509203062
 10
172.6977319008
 20
108.6582563341
 10
172.6921890181
 20
108.6590675161
 10
172.6856912969
 20
108.6574377016
 10
172.6809280476
 20
108.6542646855
 10
172.6764716691
 20
108.6496034161
 10
172.6707935118
 20
108.6410035834
 10
172.6627844869
 20
108.6229443074
 10
172.6466764481
 20
108.557413657
 10
172.626181065
 20
108.3176241711
 10
172.6244646375
 20
108.223852095
  0
ARC
  5
9F
330
1F
100
AcDbEntity
  8
0
  6
SLD-Durchgehend
 62
     7
370
    15
100
AcDbCircle
 10
186.0689269775
 20
110.7753348526
 30
0.0
 40
13.68443027222486
100
AcDbArc
 50
169.254229336
 51
190.745770664
  0
LWPOLYLINE
  5
A0
330
1F
100
AcDbEntity
  8
0
  6
SLD-Durchgehend
 62
     7
370
    15
100
AcDbPolyline
 90
       13
 70
   128
 43
0.0
 10
172.6244646375
 20
113.3268176101
 10
172.6248967712
 20
113.2768689178
 10
172.6520956977
 20
112.9088726349
 10
172.6643311809
 20
112.8712933034
 10
172.671453121
 20
112.8608871706
 10
172.676268408
 20
112.85756654
 10
172.681044463
 20
112.8568363831
 10
172.686175119
 20
112.8585909948
 10
172.6918762102
 20
112.8633020901
 10
172.7001172508
 20
112.8746511869
 10
172.7190297347
 20
112.9174859718
 10
172.7731649549
 20
113.1283401966
 10
172.8294246382
 20
113.4317432054
  0
LINE
  5
A1
330
1F
100
AcDbEntity
  8
0
  6
SLD-Durchgehend
 62
     7
370
    15
100
AcDbLine
 10
172.8294246382
 20
113.4317432054
 30
0.0
 11
173.0031443544
 21
114.3347931549
 31
0.0
  0
LINE
  5
A2
330
1F
100
AcDbEntity
  8
0
  6
SLD-Durchgehend
 62
     7
370
    15
100
AcDbLine
 10
173.0031443544
 20
107.8022861377
 30
0.0
 11
172.8294246382
 21
108.3282719821
 31
0.0
  0
LINE
  5
A3
330
1F
100
AcDbEntity
  8
0
  6
SLD-Durchgehend
 62
     7
370
    15
100
AcDbLine
 10
172.6244646375
 20
107.4993539125
 30
0.0
 11
172.6244646375
 21
108.223852095
 31
0.0
  0
LINE
  5
A4
330
1F
100
AcDbEntity
  8
0
  6
SLD-Durchgehend
 62
     7
370
    15
100
AcDbLine
 10
151.824463766
 20
107.9519114912
 30
0.0
 11
151.824463766
 21
114.6028471168
 31
0.0
  0
LINE
  5
A5
330
1F
100
AcDbEntity
  8
0
  6
SLD-Durchgehend
 62
     7
370
    15
100
AcDbLine
 10
172.6244646375
 20
113.3268176101
 30
0.0
 11
172.6244646375
 21
114.6028471168
 31
0.0
  0
LINE
  5
A6
330
1F
100
AcDbEntity
  8
0
  6
SLD-Durchgehend
 62
     7
370
    15
100
AcDbLine
 10
151.824463766
 20
114.6028471168
 30
0.0
 11
151.824463766
 21
131.3303200052
 31
0.0
  0
LINE
  5
A7
330
1F
100
AcDbEntity
  8
0
  6
SLD-Durchgehend
 62
     7
370
    15
100
AcDbLine
 10
172.6244646375
 20
114.6028471168
 30
0.0
 11
172.6244646375
 21
131.7828775838
 31
0.0
  0
LINE
  5
A8
330
1F
100
AcDbEntity
  8
0
  6
SLD-Durchgehend
 62
     7
370
    15
100
AcDbLine
 10
150.3244644514
 20
114.6028471168
 30
0.0
 11
150.3244644514
 21
130.5803203479
 31
0.0
  0
LINE
  5
A9
330
1F
100
AcDbEntity
  8
0
  6
SLD-Durchgehend
 62
     7
370
    15
100
AcDbLine
 10
150.3244644514
 20
108.7019111485
 30
0.0
 11
150.3244644514
 21
114.6028471168
 31
0.0
  0
LINE
  5
AA
330
1F
100
AcDbEntity
  8
0
  6
SLD-Durchgehend
 62
     7
370
    15
100
AcDbLine
 10
228.8244633487
 20
130.4616931349
 30
0.0
 11
228.8244633487
 21
105.4616927624
 31
0.0
  0
LWPOLYLINE
  5
AB
330
1F
100
AcDbEntity
  8
0
  6
SLD-Durchgehend
 62
     7
370
    15
100
AcDbPolyline
 90
        4
 70
   128
 43
0.0
 10
229.5880062989
 20
129.6756177664
 10
229.5778250805
 20
129.6697392583
 10
229.3719133845
 20
129.550856863
 10
228.9644634834
 20
129.3156159565
  0
ARC
  5
AC
330
1F
100
AcDbEntity
  8
0
  6
SLD-Durchgehend
 62
     7
370
    15
100
AcDbCircle
 10
229.0244652311
 20
129.21169293
 30
0.0
 40
0.1200008548075507
100
AcDbArc
 50
120.000727898
 51
239.999272102
  0
LINE
  5
AD
330
1F
100
AcDbEntity
  8
0
  6
SLD-Durchgehend
 62
     7
370
    15
100
AcDbLine
 10
228.9644634834
 20
129.1077699036
 30
0.0
 11
229.624465715
 21
128.7267183408
 31
0.0
  0
LINE
  5
AE
330
1F
100
AcDbEntity
  8
0
  6
SLD-Durchgehend
 62
     7
370
    15
100
AcDbLine
 10
229.624465715
 20
128.7267183408
 30
0.0
 11
229.624465715
 21
128.4466668487
 31
0.0
  0
LINE
  5
AF
330
1F
100
AcDbEntity
  8
0
  6
SLD-Durchgehend
 62
     7
370
    15
100
AcDbLine
 10
229.624465715
 20
128.4466668487
 30
0.0
 11
228.9644634834
 21
128.0656162173
 31
0.0
  0
LWPOLYLINE
  5
B0
330
1F
100
AcDbEntity
  8
0
  6
SLD-Durchgehend
 62
     7
370
    15
100
AcDbPolyline
 90
        9
 70
   128
 43
0.0
 10
228.9644634834
 20
128.0656162173
 10
228.9082972816
 20
127.991776307
 10
228.9045570901
 20
127.9570072413
 10
228.9088299981
 20
127.9296207697
 10
228.9161054901
 20
127.9101375014
 10
228.9252138248
 20
127.894242619
 10
228.9373917988
 20
127.8791207344
 10
228.94946919
 20
127.868015644
 10
228.9644634834
 20
127.8577701643
  0
LINE
  5
B1
330
1F
100
AcDbEntity
  8
0
  6
SLD-Durchgehend
 62
     7
370
    15
100
AcDbLine
 10
228.9644634834
 20
127.8577701643
 30
0.0
 11
229.624465715
 21
127.4767186016
 31
0.0
  0
LINE
  5
B2
330
1F
100
AcDbEntity
  8
0
  6
SLD-Durchgehend
 62
     7
370
    15
100
AcDbLine
 10
229.624465715
 20
127.4767186016
 30
0.0
 11
229.624465715
 21
127.1966671095
 31
0.0
  0
LINE
  5
B3
330
1F
100
AcDbEntity
  8
0
  6
SLD-Durchgehend
 62
     7
370
    15
100
AcDbLine
 10
229.624465715
 20
127.1966671095
 30
0.0
 11
228.9644634834
 21
126.8156155467
 31
0.0
  0
ARC
  5
B4
330
1F
100
AcDbEntity
  8
0
  6
SLD-Durchgehend
 62
     7
370
    15
100
AcDbCircle
 10
229.0244668061
 20
126.7116925203
 30
0.0
 40
0.1200016423158019
100
AcDbArc
 50
120.0013791277
 51
239.9986208723
  0
LINE
  5
B5
330
1F
100
AcDbEntity
  8
0
  6
SLD-Durchgehend
 62
     7
370
    15
100
AcDbLine
 10
228.9644634834
 20
126.6077694938
 30
0.0
 11
229.624465715
 21
126.2267188624
 31
0.0
  0
LINE
  5
B6
330
1F
100
AcDbEntity
  8
0
  6
SLD-Durchgehend
 62
     7
370
    15
100
AcDbLine
 10
229.624465715
 20
126.2267188624
 30
0.0
 11
229.624465715
 21
125.9466673702
 31
0.0
  0
LINE
  5
B7
330
1F
100
AcDbEntity
  8
0
  6
SLD-Durchgehend
 62
     7
370
    15
100
AcDbLine
 10
229.624465715
 20
125.9466673702
 30
0.0
 11
228.9644634834
 21
125.5656158075
 31
0.0
  0
ARC
  5
B8
330
1F
100
AcDbEntity
  8
0
  6
SLD-Durchgehend
 62
     7
370
    15
100
AcDbCircle
 10
229.0244666869
 20
125.461692781
 30
0.0
 40
0.1200015827144154
100
AcDbArc
 50
120.0013298411
 51
239.9986701589
  0
LINE
  5
B9
330
1F
100
AcDbEntity
  8
0
  6
SLD-Durchgehend
 62
     7
370
    15
100
AcDbLine
 10
228.9644634834
 20
125.3577697546
 30
0.0
 11
229.624465715
 21
124.9767186575
 31
0.0
  0
LINE
  5
BA
330
1F
100
AcDbEntity
  8
0
  6
SLD-Durchgehend
 62
     7
370
    15
100
AcDbLine
 10
229.624465715
 20
124.9767186575
 30
0.0
 11
229.624465715
 21
124.6966671653
 31
0.0
  0
LINE
  5
BB
330
1F
100
AcDbEntity
  8
0
  6
SLD-Durchgehend
 62
     7
370
    15
100
AcDbLine
 10
229.624465715
 20
124.6966671653
 30
0.0
 11
228.9644634834
 21
124.3156160683
 31
0.0
  0
ARC
  5
BC
330
1F
100
AcDbEntity
  8
0
  6
SLD-Durchgehend
 62
     7
370
    15
100
AcDbCircle
 10
229.0244642846
 20
124.2116930418
 30
0.0
 40
0.1200003815649603
100
AcDbArc
 50
120.00033654
 51
239.99966346
  0
LINE
  5
BD
330
1F
100
AcDbEntity
  8
0
  6
SLD-Durchgehend
 62
     7
370
    15
100
AcDbLine
 10
228.9644634834
 20
124.1077700153
 30
0.0
 11
229.624465715
 21
123.7267189183
 31
0.0
  0
LINE
  5
BE
330
1F
100
AcDbEntity
  8
0
  6
SLD-Durchgehend
 62
     7
370
    15
100
AcDbLine
 10
229.624465715
 20
123.7267189183
 30
0.0
 11
229.624465715
 21
123.4466669605
 31
0.0
  0
LINE
  5
BF
330
1F
100
AcDbEntity
  8
0
  6
SLD-Durchgehend
 62
     7
370
    15
100
AcDbLine
 10
229.624465715
 20
123.4466669605
 30
0.0
 11
228.9644634834
 21
123.0656158634
 31
0.0
  0
ARC
  5
C0
330
1F
100
AcDbEntity
  8
0
  6
SLD-Durchgehend
 62
     7
370
    15
100
AcDbCircle
 10
229.0244642287
 20
122.9616928369
 30
0.0
 40
0.1200003536210863
100
AcDbArc
 50
120.000313431
 51
239.999686569
  0
LINE
  5
C1
330
1F
100
AcDbEntity
  8
0
  6
SLD-Durchgehend
 62
     7
370
    15
100
AcDbLine
 10
228.9644634834
 20
122.8577698104
 30
0.0
 11
229.624465715
 21
122.4767187134
 31
0.0
  0
LINE
  5
C2
330
1F
100
AcDbEntity
  8
0
  6
SLD-Durchgehend
 62
     7
370
    15
100
AcDbLine
 10
229.624465715
 20
122.4767187134
 30
0.0
 11
229.624465715
 21
122.1966672212
 31
0.0
  0
LINE
  5
C3
330
1F
100
AcDbEntity
  8
0
  6
SLD-Durchgehend
 62
     7
370
    15
100
AcDbLine
 10
229.624465715
 20
122.1966672212
 30
0.0
 11
228.9644634834
 21
121.8156158913
 31
0.0
  0
ARC
  5
C4
330
1F
100
AcDbEntity
  8
0
  6
SLD-Durchgehend
 62
     7
370
    15
100
AcDbCircle
 10
229.0244691533
 20
121.7116928649
 30
0.0
 40
0.1200028160169636
100
AcDbArc
 50
120.0023496798
 51
239.9976503202
  0
LINE
  5
C5
330
1F
100
AcDbEntity
  8
0
  6
SLD-Durchgehend
 62
     7
370
    15
100
AcDbLine
 10
228.9644634834
 20
121.6077698384
 30
0.0
 11
229.624465715
 21
121.2267187413
 31
0.0
  0
LINE
  5
C6
330
1F
100
AcDbEntity
  8
0
  6
SLD-Durchgehend
 62
     7
370
    15
100
AcDbLine
 10
229.624465715
 20
121.2267187413
 30
0.0
 11
229.624465715
 21
120.9466672492
 31
0.0
  0
LINE
  5
C7
330
1F
100
AcDbEntity
  8
0
  6
SLD-Durchgehend
 62
     7
370
    15
100
AcDbLine
 10
229.624465715
 20
120.9466672492
 30
0.0
 11
228.9644634834
 21
120.5656159193
 31
0.0
  0
ARC
  5
C8
330
1F
100
AcDbEntity
  8
0
  6
SLD-Durchgehend
 62
     7
370
    15
100
AcDbCircle
 10
229.0244659292
 20
120.4616928928
 30
0.0
 40
0.1200012038491584
100
AcDbArc
 50
120.0010165405
 51
239.9989834595
  0
LINE
  5
C9
330
1F
100
AcDbEntity
  8
0
  6
SLD-Durchgehend
 62
     7
370
    15
100
AcDbLine
 10
228.9644634834
 20
120.3577698663
 30
0.0
 11
229.624465715
 21
119.9767187693
 31
0.0
  0
LINE
  5
CA
330
1F
100
AcDbEntity
  8
0
  6
SLD-Durchgehend
 62
     7
370
    15
100
AcDbLine
 10
229.624465715
 20
119.9767187693
 30
0.0
 11
229.624465715
 21
119.6966671607
 31
0.0
  0
LINE
  5
CB
330
1F
100
AcDbEntity
  8
0
  6
SLD-Durchgehend
 62
     7
370
    15
100
AcDbLine
 10
229.624465715
 20
119.6966671607
 30
0.0
 11
228.9644634834
 21
119.3156159472
 31
0.0
  0
ARC
  5
CC
330
1F
100
AcDbEntity
  8
0
  6
SLD-Durchgehend
 62
     7
370
    15
100
AcDbCircle
 10
229.0244655605
 20
119.2116929207
 30
0.0
 40
0.1200010194911752
100
AcDbArc
 50
120.0008640849
 51
239.9991359151
  0
LINE
  5
CD
330
1F
100
AcDbEntity
  8
0
  6
SLD-Durchgehend
 62
     7
370
    15
100
AcDbLine
 10
228.9644634834
 20
119.1077698943
 30
0.0
 11
229.624465715
 21
118.726718739
 31
0.0
  0
LINE
  5
CE
330
1F
100
AcDbEntity
  8
0
  6
SLD-Durchgehend
 62
     7
370
    15
100
AcDbLine
 10
229.624465715
 20
118.726718739
 30
0.0
 11
229.624465715
 21
118.4466671886
 31
0.0
  0
LINE
  5
CF
330
1F
100
AcDbEntity
  8
0
  6
SLD-Durchgehend
 62
     7
370
    15
100
AcDbLine
 10
229.624465715
 20
118.4466671886
 30
0.0
 11
228.9644634834
 21
118.065615997
 31
0.0
  0
ARC
  5
D0
330
1F
100
AcDbEntity
  8
0
  6
SLD-Durchgehend
 62
     7
370
    15
100
AcDbCircle
 10
229.0244664792
 20
117.9616929487
 30
0.0
 40
0.1200014978026872
100
AcDbArc
 50
120.0012387812
 51
239.9987612188
  0
LINE
  5
D1
330
1F
100
AcDbEntity
  8
0
  6
SLD-Durchgehend
 62
     7
370
    15
100
AcDbLine
 10
228.9644634834
 20
117.8577699004
 30
0.0
 11
229.624465715
 21
117.4767187087
 31
0.0
  0
LINE
  5
D2
330
1F
100
AcDbEntity
  8
0
  6
SLD-Durchgehend
 62
     7
370
    15
100
AcDbLine
 10
229.624465715
 20
117.4767187087
 30
0.0
 11
229.624465715
 21
117.1966671584
 31
0.0
  0
LINE
  5
D3
330
1F
100
AcDbEntity
  8
0
  6
SLD-Durchgehend
 62
     7
370
    15
100
AcDbLine
 10
229.624465715
 20
117.1966671584
 30
0.0
 11
228.9644634834
 21
116.8156160031
 31
0.0
  0
ARC
  5
D4
330
1F
100
AcDbEntity
  8
0
  6
SLD-Durchgehend
 62
     7
370
    15
100
AcDbCircle
 10
229.0244630071
 20
116.7116929766
 30
0.0
 40
0.1199997427886979
100
AcDbArc
 50
119.9998082781
 51
240.0001917219
  0
LINE
  5
D5
330
1F
100
AcDbEntity
  8
0
  6
SLD-Durchgehend
 62
     7
370
    15
100
AcDbLine
 10
228.9644634834
 20
116.6077699501
 30
0.0
 11
229.624465715
 21
116.2267187367
 31
0.0
  0
LINE
  5
D6
330
1F
100
AcDbEntity
  8
0
  6
SLD-Durchgehend
 62
     7
370
    15
100
AcDbLine
 10
229.624465715
 20
116.2267187367
 30
0.0
 11
229.624465715
 21
115.9466671281
 31
0.0
  0
LINE
  5
D7
330
1F
100
AcDbEntity
  8
0
  6
SLD-Durchgehend
 62
     7
370
    15
100
AcDbLine
 10
229.624465715
 20
115.9466671281
 30
0.0
 11
228.9644634834
 21
115.565616031
 31
0.0
  0
ARC
  5
D8
330
1F
100
AcDbEntity
  8
0
  6
SLD-Durchgehend
 62
     7
370
    15
100
AcDbCircle
 10
229.0244669984
 20
115.4616930046
 30
0.0
 40
0.1200017384826223
100
AcDbArc
 50
120.0014586513
 51
239.9985413487
  0
LINE
  5
D9
330
1F
100
AcDbEntity
  8
0
  6
SLD-Durchgehend
 62
     7
370
    15
100
AcDbLine
 10
228.9644634834
 20
115.3577699781
 30
0.0
 11
229.624465715
 21
114.9767186482
 31
0.0
  0
LINE
  5
DA
330
1F
100
AcDbEntity
  8
0
  6
SLD-Durchgehend
 62
     7
370
    15
100
AcDbLine
 10
229.624465715
 20
114.9767186482
 30
0.0
 11
229.624465715
 21
114.696667156
 31
0.0
  0
LINE
  5
DB
330
1F
100
AcDbEntity
  8
0
  6
SLD-Durchgehend
 62
     7
370
    15
100
AcDbLine
 10
229.624465715
 20
114.696667156
 30
0.0
 11
228.9644634834
 21
114.315616059
 31
0.0
  0
ARC
  5
DC
330
1F
100
AcDbEntity
  8
0
  6
SLD-Durchgehend
 62
     7
370
    15
100
AcDbCircle
 10
229.0244695349
 20
114.2116930325
 30
0.0
 40
0.1200030067981644
100
AcDbArc
 50
120.0025074353
 51
239.9974925647
  0
LINE
  5
DD
330
1F
100
AcDbEntity
  8
0
  6
SLD-Durchgehend
 62
     7
370
    15
100
AcDbLine
 10
228.9644634834
 20
114.107770006
 30
0.0
 11
229.624465715
 21
113.7267186761
 31
0.0
  0
LINE
  5
DE
330
1F
100
AcDbEntity
  8
0
  6
SLD-Durchgehend
 62
     7
370
    15
100
AcDbLine
 10
229.624465715
 20
113.7267186761
 30
0.0
 11
229.624465715
 21
113.446667184
 31
0.0
  0
LINE
  5
DF
330
1F
100
AcDbEntity
  8
0
  6
SLD-Durchgehend
 62
     7
370
    15
100
AcDbLine
 10
229.624465715
 20
113.446667184
 30
0.0
 11
228.9644634834
 21
113.0656160869
 31
0.0
  0
ARC
  5
E0
330
1F
100
AcDbEntity
  8
0
  6
SLD-Durchgehend
 62
     7
370
    15
100
AcDbCircle
 10
229.0244636899
 20
112.9616930604
 30
0.0
 40
0.1200000841797028
100
AcDbArc
 50
120.0000906069
 51
239.9999093931
  0
LINE
  5
E1
330
1F
100
AcDbEntity
  8
0
  6
SLD-Durchgehend
 62
     7
370
    15
100
AcDbLine
 10
228.9644634834
 20
112.857770034
 30
0.0
 11
229.624465715
 21
112.4767189369
 31
0.0
  0
LINE
  5
E2
330
1F
100
AcDbEntity
  8
0
  6
SLD-Durchgehend
 62
     7
370
    15
100
AcDbLine
 10
229.624465715
 20
112.4767189369
 30
0.0
 11
229.624465715
 21
112.1966669791
 31
0.0
  0
LINE
  5
E3
330
1F
100
AcDbEntity
  8
0
  6
SLD-Durchgehend
 62
     7
370
    15
100
AcDbLine
 10
229.624465715
 20
112.1966669791
 30
0.0
 11
228.9644634834
 21
111.815615882
 31
0.0
  0
ARC
  5
E4
330
1F
100
AcDbEntity
  8
0
  6
SLD-Durchgehend
 62
     7
370
    15
100
AcDbCircle
 10
229.0244653985
 20
111.7116928555
 30
0.0
 40
0.1200009384999033
100
AcDbArc
 50
120.0007971084
 51
239.9992028916
  0
LINE
  5
E5
330
1F
100
AcDbEntity
  8
0
  6
SLD-Durchgehend
 62
     7
370
    15
100
AcDbLine
 10
228.9644634834
 20
111.6077698291
 30
0.0
 11
229.624465715
 21
111.226718732
 31
0.0
  0
LINE
  5
E6
330
1F
100
AcDbEntity
  8
0
  6
SLD-Durchgehend
 62
     7
370
    15
100
AcDbLine
 10
229.624465715
 20
111.226718732
 30
0.0
 11
229.624465715
 21
110.9466672398
 31
0.0
  0
LINE
  5
E7
330
1F
100
AcDbEntity
  8
0
  6
SLD-Durchgehend
 62
     7
370
    15
100
AcDbLine
 10
229.624465715
 20
110.9466672398
 30
0.0
 11
228.9644634834
 21
110.5656161428
 31
0.0
  0
ARC
  5
E8
330
1F
100
AcDbEntity
  8
0
  6
SLD-Durchgehend
 62
     7
370
    15
100
AcDbCircle
 10
229.0244672516
 20
110.4616931163
 30
0.0
 40
0.1200018650975429
100
AcDbArc
 50
120.0015633531
 51
239.9984366469
  0
LINE
  5
E9
330
1F
100
AcDbEntity
  8
0
  6
SLD-Durchgehend
 62
     7
370
    15
100
AcDbLine
 10
228.9644634834
 20
110.3577700898
 30
0.0
 11
229.624465715
 21
109.9767185271
 31
0.0
  0
LINE
  5
EA
330
1F
100
AcDbEntity
  8
0
  6
SLD-Durchgehend
 62
     7
370
    15
100
AcDbLine
 10
229.624465715
 20
109.9767185271
 30
0.0
 11
229.624465715
 21
109.696667035
 31
0.0
  0
LINE
  5
EB
330
1F
100
AcDbEntity
  8
0
  6
SLD-Durchgehend
 62
     7
370
    15
100
AcDbLine
 10
229.624465715
 20
109.696667035
 30
0.0
 11
228.9644634834
 21
109.3156164036
 31
0.0
  0
ARC
  5
EC
330
1F
100
AcDbEntity
  8
0
  6
SLD-Durchgehend
 62
     7
370
    15
100
AcDbCircle
 10
229.0244677091
 20
109.2116933771
 30
0.0
 40
0.1200020938784316
100
AcDbArc
 50
120.0017525376
 51
239.9982474624
  0
LINE
  5
ED
330
1F
100
AcDbEntity
  8
0
  6
SLD-Durchgehend
 62
     7
370
    15
100
AcDbLine
 10
228.9644634834
 20
109.1077703506
 30
0.0
 11
229.624465715
 21
108.7267187879
 31
0.0
  0
LINE
  5
EE
330
1F
100
AcDbEntity
  8
0
  6
SLD-Durchgehend
 62
     7
370
    15
100
AcDbLine
 10
229.624465715
 20
108.7267187879
 30
0.0
 11
229.624465715
 21
108.4466672957
 31
0.0
  0
LINE
  5
EF
330
1F
100
AcDbEntity
  8
0
  6
SLD-Durchgehend
 62
     7
370
    15
100
AcDbLine
 10
229.624465715
 20
108.4466672957
 30
0.0
 11
228.9644634834
 21
108.065615733
 31
0.0
  0
LWPOLYLINE
  5
F0
330
1F
100
AcDbEntity
  8
0
  6
SLD-Durchgehend
 62
     7
370
    15
100
AcDbPolyline
 90
        9
 70
   128
 43
0.0
 10
228.9644634834
 20
108.065615733
 10
228.9548745862
 20
108.0594531715
 10
228.9385466388
 20
108.0454684317
 10
228.9273707679
 20
108.0322138489
 10
228.9184635988
 20
108.0179431931
 10
228.910111498
 20
107.9980762199
 10
228.9046651236
 20
107.9686240748
 10
228.9115047565
 20
107.9211918161
 10
228.9644634834
 20
107.8577696801
  0
LINE
  5
F1
330
1F
100
AcDbEntity
  8
0
  6
SLD-Durchgehend
 62
     7
370
    15
100
AcDbLine
 10
228.9644634834
 20
107.8577696801
 30
0.0
 11
229.624465715
 21
107.4767190487
 31
0.0
  0
LINE
  5
F2
330
1F
100
AcDbEntity
  8
0
  6
SLD-Durchgehend
 62
     7
370
    15
100
AcDbLine
 10
229.624465715
 20
107.4767190487
 30
0.0
 11
229.624465715
 21
107.1966675565
 31
0.0
  0
LINE
  5
F3
330
1F
100
AcDbEntity
  8
0
  6
SLD-Durchgehend
 62
     7
370
    15
100
AcDbLine
 10
229.624465715
 20
107.1966675565
 30
0.0
 11
228.9644634834
 21
106.8156159938
 31
0.0
  0
LWPOLYLINE
  5
F4
330
1F
100
AcDbEntity
  8
0
  6
SLD-Durchgehend
 62
     7
370
    15
100
AcDbPolyline
 90
        9
 70
   128
 43
0.0
 10
228.9644634834
 20
106.8156159938
 10
228.9510375372
 20
106.8066045165
 10
228.9413517824
 20
106.7982514844
 10
228.9319640509
 20
106.7881354586
 10
228.9247705153
 20
106.778485094
 10
228.9166680089
 20
106.7644174666
 10
228.9084090403
 20
106.7422100798
 10
228.9060844592
 20
106.6920527712
 10
228.9644634834
 20
106.6077699408
  0
LWPOLYLINE
  5
F5
330
1F
100
AcDbEntity
  8
0
  6
SLD-Durchgehend
 62
     7
370
    15
100
AcDbPolyline
 90
        5
 70
   128
 43
0.0
 10
228.9644634834
 20
106.6077699408
 10
229.2773953191
 20
106.4270998806
 10
229.4897852949
 20
106.3044763625
 10
229.5938624552
 20
106.2443864987
 10
229.5880062989
 20
106.2477681309
  0
LINE
  5
F6
330
1F
100
AcDbEntity
  8
0
  6
SLD-Durchgehend
 62
     7
370
    15
100
AcDbLine
 10
151.824463766
 20
105.5338982016
 30
0.0
 11
154.5244647673
 21
105.4705459148
 31
0.0
  0
LINE
  5
F7
330
1F
100
AcDbEntity
  8
0
  6
SLD-Durchgehend
 62
     7
370
    15
100
AcDbLine
 10
151.824463766
 20
105.5338982016
 30
0.0
 11
151.824463766
 21
107.9519114912
 31
0.0
  0
LINE
  5
F8
330
1F
100
AcDbEntity
  8
0
  6
SLD-Durchgehend
 62
     7
370
    15
100
AcDbLine
 10
172.6244646375
 20
104.8415939778
 30
0.0
 11
172.6244646375
 21
107.4993539125
 31
0.0
  0
ARC
  5
F9
330
1F
100
AcDbEntity
  8
0
  6
SLD-Durchgehend
 62
     7
370
    15
100
AcDbCircle
 10
158.0460481176
 20
126.3482749812
 30
0.0
 40
21.17265028906764
100
AcDbArc
 50
260.4256688773
 51
265.075178892
  0
ARC
  5
FA
330
1F
100
AcDbEntity
  8
0
  6
SLD-Durchgehend
 62
     7
370
    15
100
AcDbCircle
 10
162.3344832655
 20
82.9609740463
 30
0.0
 40
22.28840237818529
100
AcDbArc
 50
81.8192430794
 51
95.2595319842
  0
LWPOLYLINE
  5
FB
330
1F
100
AcDbEntity
  8
0
  6
SLD-Durchgehend
 62
     7
370
    15
100
AcDbPolyline
 90
        3
 70
   128
 43
0.0
 10
150.3244644514
 20
106.3231987402
 10
151.0514474026
 20
105.9451804951
 10
151.824463766
 20
105.5338982016
  0
LINE
  5
FC
330
1F
100
AcDbEntity
  8
0
  6
SLD-Durchgehend
 62
     7
370
    15
100
AcDbLine
 10
150.3244644514
 20
106.3231987402
 30
0.0
 11
150.3244644514
 21
108.7019111485
 31
0.0
  0
ARC
  5
FD
330
1F
100
AcDbEntity
  8
0
  6
SLD-Durchgehend
 62
     7
370
    15
100
AcDbCircle
 10
261.7884866713
 20
172.5939643141
 30
0.0
 40
97.83176705700541
100
AcDbArc
 50
203.967149507
 51
204.3002433912
  0
LINE
  5
FE
330
1F
100
AcDbEntity
  8
0
  6
SLD-Durchgehend
 62
     7
370
    15
100
AcDbLine
 10
172.6244646375
 20
132.3344086752
 30
0.0
 11
172.6244646375
 21
131.7828775838
 31
0.0
  0
LINE
  5
FF
330
1F
100
AcDbEntity
  8
0
  6
SLD-Durchgehend
 62
     7
370
    15
100
AcDbLine
 10
151.824463766
 20
132.3592237652
 30
0.0
 11
151.824463766
 21
131.3303200052
 31
0.0
  0
LWPOLYLINE
  5
100
330
1F
100
AcDbEntity
  8
0
  6
SLD-Durchgehend
 62
     7
370
    15
100
AcDbPolyline
 90
       13
 70
   128
 43
0.0
 10
172.6244646375
 20
132.3344086752
 10
172.6323197613
 20
132.3789668724
 10
172.6519733452
 20
132.3912919954
 10
172.6632905443
 20
132.3873282865
 10
172.6729374164
 20
132.3808863283
 10
172.6776621322
 20
132.3769570783
 10
172.6832147938
 20
132.3717947573
 10
172.6880389283
 20
132.3668838933
 10
172.6943835634
 20
132.3598877982
 10
172.7043125097
 20
132.3478560418
 10
172.7298450674
 20
132.3119544879
 10
172.7935353079
 20
132.1996667877
 10
172.8294246382
 20
132.1250641242
  0
LINE
  5
101
330
1F
100
AcDbEntity
  8
0
  6
SLD-Durchgehend
 62
     7
370
    15
100
AcDbLine
 10
172.8294246382
 20
132.1250641242
 30
0.0
 11
173.0031443544
 21
131.7479995534
 31
0.0
  0
LINE
  5
102
330
1F
100
AcDbEntity
  8
0
  6
SLD-Durchgehend
 62
     7
370
    15
100
AcDbLine
 10
150.3244644514
 20
131.4931980789
 30
0.0
 11
150.3244644514
 21
130.5803203479
 31
0.0
  0
LINE
  5
103
330
1F
100
AcDbEntity
  8
0
  6
SLD-Gestrichelt
 62
     7
370
     0
100
AcDbLine
 10
194.324464213
 20
98.5616923765
 30
0.0
 11
194.324464213
 21
137.3616935209
 31
0.0
  0
LINE
  5
104
330
1F
100
AcDbEntity
  8
0
  6
SLD-Gestrichelt
 62
     7
370
     0
100
AcDbLine
 10
174.32446466
 20
137.6616930113
 30
0.0
 11
174.32446466
 21
98.2616928861
 31
0.0
  0
LWPOLYLINE
  5
105
330
1F
100
AcDbEntity
  8
0
  6
SLD-Gestrichelt
 62
     7
370
     0
100
AcDbPolyline
 90
       11
 70
   128
 43
0.0
 10
184.3244644365
 20
97.9616933957
 10
184.4365528336
 20
97.9725898698
 10
184.7598912677
 20
98.0005332724
 10
185.259895075
 20
98.033489053
 10
185.8814662806
 20
98.0570142612
 10
186.5512567124
 20
98.0606520072
 10
187.1931298188
 20
98.0429941312
 10
187.7385709918
 20
98.01176316
 10
188.1271318084
 20
97.9804614082
 10
188.3123448602
 20
97.9629003898
 10
188.2995624578
 20
97.9641595379
  0
ARC
  5
106
330
1F
100
AcDbEntity
  8
0
  6
SLD-Gestrichelt
 62
     7
370
     0
100
AcDbCircle
 10
181.3618467519
 20
111.7800734022
 30
0.0
 40
0.3678536543011655
100
AcDbArc
 50
106.6631816763
 51
173.2283745043
  0
LINE
  5
107
330
1F
100
AcDbEntity
  8
0
  6
SLD-Gestrichelt
 62
     7
370
     0
100
AcDbLine
 10
183.3925625792
 20
112.1324797616
 30
0.0
 11
181.2563665694
 21
112.1324797616
 31
0.0
  0
ARC
  5
108
330
1F
100
AcDbEntity
  8
0
  6
SLD-Gestrichelt
 62
     7
370
     0
100
AcDbCircle
 10
183.3007979911
 20
111.7916042886
 30
0.0
 40
0.3530110871912777
100
AcDbArc
 50
5.1754309177
 51
74.9330129017
  0
ELLIPSE
  5
109
330
1F
100
AcDbEntity
  8
0
  6
SLD-Gestrichelt
 62
     7
370
     0
100
AcDbEllipse
 10
173.3755354876
 20
117.9616929487
 30
0.0
 11
-9.367417879781726
 21
19.74174915274994
 31
0.0
210
0.0
220
0.0
230
1.0
 40
0.3419987131
 41
3.292664382516903
 42
4.239566697061008
  0
ARC
  5
10A
330
1F
100
AcDbEntity
  8
0
  6
SLD-Gestrichelt
 62
     7
370
     0
100
AcDbCircle
 10
183.4148802427
 20
99.1669437909
 30
0.0
 40
0.3376459602488099
100
AcDbArc
 50
266.2101105761
 51
314.6979206816
  0
LINE
  5
10B
330
1F
100
AcDbEntity
  8
0
  6
SLD-Gestrichelt
 62
     7
370
     0
100
AcDbLine
 10
181.2563665694
 20
98.8300362125
 30
0.0
 11
183.3925625792
 21
98.8300362125
 31
0.0
  0
ARC
  5
10C
330
1F
100
AcDbEntity
  8
0
  6
SLD-Gestrichelt
 62
     7
370
     0
100
AcDbCircle
 10
181.2368991298
 20
99.1745857524
 30
0.0
 40
0.3450990678326843
100
AcDbArc
 50
225.8581305245
 51
273.2338382178
  0
ELLIPSE
  5
10D
330
1F
100
AcDbEntity
  8
0
  6
SLD-Gestrichelt
 62
     7
370
     0
100
AcDbEllipse
 10
191.2733938325
 20
117.9616929487
 30
0.0
 11
9.367417879781613
 21
19.74174915274996
 31
0.0
210
0.0
220
0.0
230
1.0
 40
0.3419987131
 41
2.043618610118588
 42
2.990520924662725
  0
ARC
  5
10E
330
1F
100
AcDbEntity
  8
0
  6
SLD-Gestrichelt
 62
     7
370
     0
100
AcDbCircle
 10
181.234048906
 20
136.7564421064
 30
0.0
 40
0.3376459602487843
100
AcDbArc
 50
86.2101105761
 51
134.6979206816
  0
LINE
  5
10F
330
1F
100
AcDbEntity
  8
0
  6
SLD-Gestrichelt
 62
     7
370
     0
100
AcDbLine
 10
183.3925625792
 20
137.0933496848
 30
0.0
 11
181.2563665694
 21
137.0933496848
 31
0.0
  0
ARC
  5
110
330
1F
100
AcDbEntity
  8
0
  6
SLD-Gestrichelt
 62
     7
370
     0
100
AcDbCircle
 10
183.412030183
 20
136.748800585
 30
0.0
 40
0.3450986377754509
100
AcDbArc
 50
45.8580991996
 51
93.2338695427
  0
ELLIPSE
  5
111
330
1F
100
AcDbEntity
  8
0
  6
SLD-Gestrichelt
 62
     7
370
     0
100
AcDbEllipse
 10
173.3755354876
 20
117.9616929487
 30
0.0
 11
9.367417879781868
 21
19.74174915274996
 31
0.0
210
0.0
220
0.0
230
1.0
 40
0.3419987131
 41
5.185211263708416
 42
6.132113578252578
  0
ARC
  5
112
330
1F
100
AcDbEntity
  8
0
  6
SLD-Gestrichelt
 62
     7
370
     0
100
AcDbCircle
 10
183.2870823968
 20
124.1433124951
 30
0.0
 40
0.367853654301139
100
AcDbArc
 50
286.6631816763
 51
353.2283745043
  0
LINE
  5
113
330
1F
100
AcDbEntity
  8
0
  6
SLD-Gestrichelt
 62
     7
370
     0
100
AcDbLine
 10
181.2563665694
 20
123.7909061358
 30
0.0
 11
183.3925625792
 21
123.7909061358
 31
0.0
  0
ARC
  5
114
330
1F
100
AcDbEntity
  8
0
  6
SLD-Gestrichelt
 62
     7
370
     0
100
AcDbCircle
 10
181.3481314255
 20
124.1317818339
 30
0.0
 40
0.3530113743224786
100
AcDbArc
 50
185.1754634028
 51
254.9329804166
  0
ELLIPSE
  5
115
330
1F
100
AcDbEntity
  8
0
  6
SLD-Gestrichelt
 62
     7
370
     0
100
AcDbEllipse
 10
191.2733938325
 20
117.9616929487
 30
0.0
 11
-9.367417879781728
 21
19.74174915274996
 31
0.0
210
0.0
220
0.0
230
1.0
 40
0.3419987131
 41
0.1510717289270501
 42
1.097974043471186
  0
LINE
  5
116
330
1F
100
AcDbEntity
  8
0
  6
SLD-Gestrichelt
 62
     7
370
     0
100
AcDbLine
 10
174.32446466
 20
102.1649812803
 30
0.0
 11
174.32446466
 21
133.758404617
 31
0.0
  0
LWPOLYLINE
  5
117
330
1F
100
AcDbEntity
  8
0
  6
SLD-Gestrichelt
 62
     7
370
     0
100
AcDbPolyline
 90
        9
 70
   128
 43
0.0
 10
173.0683803576
 20
107.6629556239
 10
173.2192355226
 20
107.4244727835
 10
173.4554816171
 20
107.2133326426
 10
173.5791788338
 20
107.1533713013
 10
173.6572761106
 20
107.1325702116
 10
173.745855132
 20
107.1244500101
 10
173.8207414997
 20
107.1303834662
 10
173.911968795
 20
107.1537820146
 10
173.9294877584
 20
107.1603664652
  0
LWPOLYLINE
  5
118
330
1F
100
AcDbEntity
  8
0
  6
SLD-Gestrichelt
 62
     7
370
     0
100
AcDbPolyline
 90
        9
 70
   128
 43
0.0
 10
173.9294877584
 20
107.1603664652
 10
173.9501067746
 20
107.1658724442
 10
173.9693687082
 20
107.1661183134
 10
173.9896110335
 20
107.1609494731
 10
174.0052087366
 20
107.1528031946
 10
174.0262147173
 20
107.1352542833
 10
174.0546170872
 20
107.09640975
 10
174.1016136471
 20
106.9618578524
 10
174.1244646651
 20
106.7089879409
  0
LINE
  5
119
330
1F
100
AcDbEntity
  8
0
  6
SLD-Gestrichelt
 62
     7
370
     0
100
AcDbLine
 10
174.1244646651
 20
103.8718729735
 30
0.0
 11
174.1244646651
 21
106.7089879409
 31
0.0
  0
LINE
  5
11A
330
1F
100
AcDbEntity
  8
0
  6
SLD-Gestrichelt
 62
     7
370
     0
100
AcDbLine
 10
174.109053663
 20
130.9961987183
 30
0.0
 11
174.0847537399
 21
131.0983834312
 31
0.0
  0
LINE
  5
11B
330
1F
100
AcDbEntity
  8
0
  6
SLD-Gestrichelt
 62
     7
370
     0
100
AcDbLine
 10
173.0683803576
 20
131.6192758724
 30
0.0
 11
173.0031443544
 21
131.7479995534
 31
0.0
  0
LWPOLYLINE
  5
11C
330
1F
100
AcDbEntity
  8
0
  6
SLD-Gestrichelt
 62
     7
370
     0
100
AcDbPolyline
 90
        9
 70
   128
 43
0.0
 10
173.0683803576
 20
131.6192758724
 10
173.2204099203
 20
131.374767375
 10
173.4601545864
 20
131.1460364133
 10
173.5817052209
 20
131.0828461767
 10
173.6598907987
 20
131.0619659245
 10
173.7482734857
 20
131.0569591344
 10
173.8226022822
 20
131.0680949584
 10
173.9144083654
 20
131.101399985
 10
173.9294877584
 20
131.108958599
  0
LWPOLYLINE
  5
11D
330
1F
100
AcDbEntity
  8
0
  6
SLD-Gestrichelt
 62
     7
370
     0
100
AcDbPolyline
 90
       10
 70
   128
 43
0.0
 10
173.9294877584
 20
131.108958599
 10
173.9501067746
 20
131.1185568095
 10
173.9693687082
 20
131.1254178629
 10
173.9896110335
 20
131.1302840233
 10
174.0052087366
 20
131.1321978912
 10
174.0262147173
 20
131.1317760021
 10
174.0546170872
 20
131.1239193648
 10
174.1016136471
 20
131.0729527369
 10
174.1124974174
 20
131.0055287078
 10
174.1244646651
 20
130.9313926369
  0
LINE
  5
11E
330
1F
100
AcDbEntity
  8
0
  6
SLD-Gestrichelt
 62
     7
370
     0
100
AcDbLine
 10
174.1244646651
 20
116.2446980354
 30
0.0
 11
174.1244646651
 21
130.9313926369
 31
0.0
  0
LWPOLYLINE
  5
11F
330
1F
100
AcDbEntity
  8
0
  6
SLD-Gestrichelt
 62
     7
370
     0
100
AcDbPolyline
 90
        9
 70
   128
 43
0.0
 10
174.1244646651
 20
116.2446980354
 10
174.08412533
 20
115.7561215561
 10
174.0630966047
 20
115.6853415061
 10
174.0284575749
 20
115.6207060896
 10
174.0076407691
 20
115.6015646167
 10
173.9904171805
 20
115.5940334767
 10
173.9711891819
 20
115.5932332378
 10
173.9545833512
 20
115.5983834517
 10
173.9294877584
 20
115.6157533162
  0
LWPOLYLINE
  5
120
330
1F
100
AcDbEntity
  8
0
  6
SLD-Gestrichelt
 62
     7
370
     0
100
AcDbPolyline
 90
        8
 70
   128
 43
0.0
 10
173.9294877584
 20
115.6157533162
 10
173.8535634609
 20
115.6714531582
 10
173.7632670224
 20
115.7022261516
 10
173.6768613005
 20
115.6962414727
 10
173.5919690941
 20
115.6567743503
 10
173.4767690318
 20
115.5493241724
 10
173.2479039597
 20
115.1400211722
 10
173.0683803576
 20
114.6028471168
  0
LINE
  5
121
330
1F
100
AcDbEntity
  8
0
  6
SLD-Gestrichelt
 62
     7
370
     0
100
AcDbLine
 10
173.0683803576
 20
114.6028471168
 30
0.0
 11
173.0031443544
 21
114.3347931549
 31
0.0
  0
LINE
  5
122
330
1F
100
AcDbEntity
  8
0
  6
SLD-Gestrichelt
 62
     7
370
     0
100
AcDbLine
 10
173.0031443544
 20
107.8022861377
 30
0.0
 11
173.0683803576
 21
107.6629556239
 31
0.0
  0
LINE
  5
123
330
1F
100
AcDbEntity
  8
0
  6
SLD-Gestrichelt
 62
     7
370
     0
100
AcDbLine
 10
194.324464213
 20
103.4650498525
 30
0.0
 11
194.324464213
 21
132.4583360449
 31
0.0
  0
LINE
  5
124
330
1F
100
AcDbEntity
  8
0
  6
SLD-Gestrichelt
 62
     7
370
     0
100
AcDbLine
 10
174.1244646651
 20
116.2446980354
 30
0.0
 11
174.1244646651
 21
130.9313926369
 31
0.0
  0
LINE
  5
125
330
1F
100
AcDbEntity
  8
0
  6
SLD-Gestrichelt
 62
     7
370
     0
100
AcDbLine
 10
228.8244633487
 20
117.9616929487
 30
0.0
 11
228.8244633487
 21
130.4616931349
 31
0.0
  0
LINE
  5
126
330
1F
100
AcDbEntity
  8
0
  6
SLD-Gestrichelt
 62
     7
370
     0
100
AcDbLine
 10
228.8244633487
 20
105.4616927624
 30
0.0
 11
228.8244633487
 21
117.9616929487
 31
0.0
  0
LINE
  5
127
330
1F
100
AcDbEntity
  8
0
  6
SLD-Gestrichelt
 62
     7
370
     0
100
AcDbLine
 10
229.624465715
 20
118.726718739
 30
0.0
 11
228.9644634834
 21
119.1077698943
 31
0.0
  0
ARC
  5
128
330
1F
100
AcDbEntity
  8
0
  6
SLD-Gestrichelt
 62
     7
370
     0
100
AcDbCircle
 10
229.0244630071
 20
119.2116929207
 30
0.0
 40
0.1199997427886979
100
AcDbArc
 50
119.9998082781
 51
240.0001917219
  0
LINE
  5
129
330
1F
100
AcDbEntity
  8
0
  6
SLD-Gestrichelt
 62
     7
370
     0
100
AcDbLine
 10
228.9644634834
 20
119.3156159472
 30
0.0
 11
229.624465715
 21
119.6966671607
 31
0.0
  0
LINE
  5
12A
330
1F
100
AcDbEntity
  8
0
  6
SLD-Gestrichelt
 62
     7
370
     0
100
AcDbLine
 10
229.624465715
 20
119.6966671607
 30
0.0
 11
229.624465715
 21
119.9767187693
 31
0.0
  0
LINE
  5
12B
330
1F
100
AcDbEntity
  8
0
  6
SLD-Gestrichelt
 62
     7
370
     0
100
AcDbLine
 10
229.624465715
 20
119.9767187693
 30
0.0
 11
228.9644634834
 21
120.3577698663
 31
0.0
  0
ARC
  5
12C
330
1F
100
AcDbEntity
  8
0
  6
SLD-Gestrichelt
 62
     7
370
     0
100
AcDbCircle
 10
229.0244669984
 20
120.4616928928
 30
0.0
 40
0.1200017384826223
100
AcDbArc
 50
120.0014586513
 51
239.9985413487
  0
LINE
  5
12D
330
1F
100
AcDbEntity
  8
0
  6
SLD-Gestrichelt
 62
     7
370
     0
100
AcDbLine
 10
228.9644634834
 20
120.5656159193
 30
0.0
 11
229.624465715
 21
120.9466672492
 31
0.0
  0
LINE
  5
12E
330
1F
100
AcDbEntity
  8
0
  6
SLD-Gestrichelt
 62
     7
370
     0
100
AcDbLine
 10
229.624465715
 20
120.9466672492
 30
0.0
 11
229.624465715
 21
121.2267187413
 31
0.0
  0
LINE
  5
12F
330
1F
100
AcDbEntity
  8
0
  6
SLD-Gestrichelt
 62
     7
370
     0
100
AcDbLine
 10
229.624465715
 20
121.2267187413
 30
0.0
 11
228.9644634834
 21
121.6077698384
 31
0.0
  0
ARC
  5
130
330
1F
100
AcDbEntity
  8
0
  6
SLD-Gestrichelt
 62
     7
370
     0
100
AcDbCircle
 10
229.0244695349
 20
121.7116928649
 30
0.0
 40
0.1200030067981644
100
AcDbArc
 50
120.0025074353
 51
239.9974925647
  0
LINE
  5
131
330
1F
100
AcDbEntity
  8
0
  6
SLD-Gestrichelt
 62
     7
370
     0
100
AcDbLine
 10
228.9644634834
 20
121.8156158913
 30
0.0
 11
229.624465715
 21
122.1966672212
 31
0.0
  0
LINE
  5
132
330
1F
100
AcDbEntity
  8
0
  6
SLD-Gestrichelt
 62
     7
370
     0
100
AcDbLine
 10
229.624465715
 20
122.1966672212
 30
0.0
 11
229.624465715
 21
122.4767187134
 31
0.0
  0
LINE
  5
133
330
1F
100
AcDbEntity
  8
0
  6
SLD-Gestrichelt
 62
     7
370
     0
100
AcDbLine
 10
229.624465715
 20
122.4767187134
 30
0.0
 11
228.9644634834
 21
122.8577698104
 31
0.0
  0
ARC
  5
134
330
1F
100
AcDbEntity
  8
0
  6
SLD-Gestrichelt
 62
     7
370
     0
100
AcDbCircle
 10
229.0244636899
 20
122.9616928369
 30
0.0
 40
0.1200000841797028
100
AcDbArc
 50
120.0000906069
 51
239.9999093931
  0
LINE
  5
135
330
1F
100
AcDbEntity
  8
0
  6
SLD-Gestrichelt
 62
     7
370
     0
100
AcDbLine
 10
228.9644634834
 20
123.0656158634
 30
0.0
 11
229.624465715
 21
123.4466669605
 31
0.0
  0
LINE
  5
136
330
1F
100
AcDbEntity
  8
0
  6
SLD-Gestrichelt
 62
     7
370
     0
100
AcDbLine
 10
229.624465715
 20
123.4466669605
 30
0.0
 11
229.624465715
 21
123.7267189183
 31
0.0
  0
LINE
  5
137
330
1F
100
AcDbEntity
  8
0
  6
SLD-Gestrichelt
 62
     7
370
     0
100
AcDbLine
 10
229.624465715
 20
123.7267189183
 30
0.0
 11
228.9644634834
 21
124.1077700153
 31
0.0
  0
ARC
  5
138
330
1F
100
AcDbEntity
  8
0
  6
SLD-Gestrichelt
 62
     7
370
     0
100
AcDbCircle
 10
229.0244653985
 20
124.2116930418
 30
0.0
 40
0.1200009384999033
100
AcDbArc
 50
120.0007971084
 51
239.9992028916
  0
LINE
  5
139
330
1F
100
AcDbEntity
  8
0
  6
SLD-Gestrichelt
 62
     7
370
     0
100
AcDbLine
 10
228.9644634834
 20
124.3156160683
 30
0.0
 11
229.624465715
 21
124.6966671653
 31
0.0
  0
LINE
  5
13A
330
1F
100
AcDbEntity
  8
0
  6
SLD-Gestrichelt
 62
     7
370
     0
100
AcDbLine
 10
229.624465715
 20
124.6966671653
 30
0.0
 11
229.624465715
 21
124.9767186575
 31
0.0
  0
LINE
  5
13B
330
1F
100
AcDbEntity
  8
0
  6
SLD-Gestrichelt
 62
     7
370
     0
100
AcDbLine
 10
229.624465715
 20
124.9767186575
 30
0.0
 11
228.9644634834
 21
125.3577697546
 31
0.0
  0
ARC
  5
13C
330
1F
100
AcDbEntity
  8
0
  6
SLD-Gestrichelt
 62
     7
370
     0
100
AcDbCircle
 10
229.0244672516
 20
125.461692781
 30
0.0
 40
0.1200018650975552
100
AcDbArc
 50
120.0015633531
 51
239.9984366469
  0
LINE
  5
13D
330
1F
100
AcDbEntity
  8
0
  6
SLD-Gestrichelt
 62
     7
370
     0
100
AcDbLine
 10
228.9644634834
 20
125.5656158075
 30
0.0
 11
229.624465715
 21
125.9466673702
 31
0.0
  0
LINE
  5
13E
330
1F
100
AcDbEntity
  8
0
  6
SLD-Gestrichelt
 62
     7
370
     0
100
AcDbLine
 10
229.624465715
 20
125.9466673702
 30
0.0
 11
229.624465715
 21
126.2267188624
 31
0.0
  0
LINE
  5
13F
330
1F
100
AcDbEntity
  8
0
  6
SLD-Gestrichelt
 62
     7
370
     0
100
AcDbLine
 10
229.624465715
 20
126.2267188624
 30
0.0
 11
228.9644634834
 21
126.6077694938
 31
0.0
  0
ARC
  5
140
330
1F
100
AcDbEntity
  8
0
  6
SLD-Gestrichelt
 62
     7
370
     0
100
AcDbCircle
 10
229.0244677091
 20
126.7116925203
 30
0.0
 40
0.1200020938784439
100
AcDbArc
 50
120.0017525376
 51
239.9982474624
  0
LINE
  5
141
330
1F
100
AcDbEntity
  8
0
  6
SLD-Gestrichelt
 62
     7
370
     0
100
AcDbLine
 10
228.9644634834
 20
126.8156155467
 30
0.0
 11
229.624465715
 21
127.1966671095
 31
0.0
  0
LINE
  5
142
330
1F
100
AcDbEntity
  8
0
  6
SLD-Gestrichelt
 62
     7
370
     0
100
AcDbLine
 10
229.624465715
 20
127.1966671095
 30
0.0
 11
229.624465715
 21
127.4767186016
 31
0.0
  0
LINE
  5
143
330
1F
100
AcDbEntity
  8
0
  6
SLD-Gestrichelt
 62
     7
370
     0
100
AcDbLine
 10
229.624465715
 20
127.4767186016
 30
0.0
 11
228.9644634834
 21
127.8577701643
 31
0.0
  0
LWPOLYLINE
  5
144
330
1F
100
AcDbEntity
  8
0
  6
SLD-Gestrichelt
 62
     7
370
     0
100
AcDbPolyline
 90
        9
 70
   128
 43
0.0
 10
228.9644634834
 20
127.8577701643
 10
228.9548745862
 20
127.8639327258
 10
228.9385466388
 20
127.8779174656
 10
228.9273707679
 20
127.8911720485
 10
228.9184635988
 20
127.9054427043
 10
228.910111498
 20
127.9253096775
 10
228.9046651236
 20
127.9547618226
 10
228.9115047565
 20
128.0021940813
 10
228.9644634834
 20
128.0656162173
  0
LINE
  5
145
330
1F
100
AcDbEntity
  8
0
  6
SLD-Gestrichelt
 62
     7
370
     0
100
AcDbLine
 10
228.9644634834
 20
128.0656162173
 30
0.0
 11
229.624465715
 21
128.4466668487
 31
0.0
  0
LINE
  5
146
330
1F
100
AcDbEntity
  8
0
  6
SLD-Gestrichelt
 62
     7
370
     0
100
AcDbLine
 10
229.624465715
 20
128.4466668487
 30
0.0
 11
229.624465715
 21
128.7267183408
 31
0.0
  0
LINE
  5
147
330
1F
100
AcDbEntity
  8
0
  6
SLD-Gestrichelt
 62
     7
370
     0
100
AcDbLine
 10
229.624465715
 20
128.7267183408
 30
0.0
 11
228.9644634834
 21
129.1077699036
 31
0.0
  0
LWPOLYLINE
  5
148
330
1F
100
AcDbEntity
  8
0
  6
SLD-Gestrichelt
 62
     7
370
     0
100
AcDbPolyline
 90
        9
 70
   128
 43
0.0
 10
228.9644634834
 20
129.1077699036
 10
228.9510375372
 20
129.1167813808
 10
228.9413517824
 20
129.125134413
 10
228.9319640509
 20
129.1352504388
 10
228.9247705153
 20
129.1449008033
 10
228.9166680089
 20
129.1589684308
 10
228.9084090403
 20
129.1811758176
 10
228.9060844592
 20
129.2313331262
 10
228.9644634834
 20
129.3156159565
  0
LWPOLYLINE
  5
149
330
1F
100
AcDbEntity
  8
0
  6
SLD-Gestrichelt
 62
     7
370
     0
100
AcDbPolyline
 90
        5
 70
   128
 43
0.0
 10
228.9644634834
 20
129.3156159565
 10
229.2773953191
 20
129.4962860167
 10
229.4897852949
 20
129.6189095348
 10
229.5938624552
 20
129.6789993987
 10
229.5880062989
 20
129.6756177664
  0
LWPOLYLINE
  5
14A
330
1F
100
AcDbEntity
  8
0
  6
SLD-Gestrichelt
 62
     7
370
     0
100
AcDbPolyline
 90
        4
 70
   128
 43
0.0
 10
229.5880062989
 20
106.2477681309
 10
229.5778250805
 20
106.253646639
 10
229.3719133845
 20
106.3725290343
 10
228.9644634834
 20
106.6077699408
  0
ARC
  5
14B
330
1F
100
AcDbEntity
  8
0
  6
SLD-Gestrichelt
 62
     7
370
     0
100
AcDbCircle
 10
229.0244652311
 20
106.7116929673
 30
0.0
 40
0.1200008548075507
100
AcDbArc
 50
120.000727898
 51
239.999272102
  0
LINE
  5
14C
330
1F
100
AcDbEntity
  8
0
  6
SLD-Gestrichelt
 62
     7
370
     0
100
AcDbLine
 10
228.9644634834
 20
106.8156159938
 30
0.0
 11
229.624465715
 21
107.1966675565
 31
0.0
  0
LINE
  5
14D
330
1F
100
AcDbEntity
  8
0
  6
SLD-Gestrichelt
 62
     7
370
     0
100
AcDbLine
 10
229.624465715
 20
107.1966675565
 30
0.0
 11
229.624465715
 21
107.4767190487
 31
0.0
  0
LINE
  5
14E
330
1F
100
AcDbEntity
  8
0
  6
SLD-Gestrichelt
 62
     7
370
     0
100
AcDbLine
 10
229.624465715
 20
107.4767190487
 30
0.0
 11
228.9644634834
 21
107.8577696801
 31
0.0
  0
LWPOLYLINE
  5
14F
330
1F
100
AcDbEntity
  8
0
  6
SLD-Gestrichelt
 62
     7
370
     0
100
AcDbPolyline
 90
        9
 70
   128
 43
0.0
 10
228.9644634834
 20
107.8577696801
 10
228.9082972816
 20
107.9316095904
 10
228.9045570901
 20
107.9663786561
 10
228.9088299981
 20
107.9937651277
 10
228.9161054901
 20
108.013248396
 10
228.9252138248
 20
108.0291432783
 10
228.9373917988
 20
108.044265163
 10
228.94946919
 20
108.0553702534
 10
228.9644634834
 20
108.065615733
  0
LINE
  5
150
330
1F
100
AcDbEntity
  8
0
  6
SLD-Gestrichelt
 62
     7
370
     0
100
AcDbLine
 10
228.9644634834
 20
108.065615733
 30
0.0
 11
229.624465715
 21
108.4466672957
 31
0.0
  0
LINE
  5
151
330
1F
100
AcDbEntity
  8
0
  6
SLD-Gestrichelt
 62
     7
370
     0
100
AcDbLine
 10
229.624465715
 20
108.4466672957
 30
0.0
 11
229.624465715
 21
108.7267187879
 31
0.0
  0
LINE
  5
152
330
1F
100
AcDbEntity
  8
0
  6
SLD-Gestrichelt
 62
     7
370
     0
100
AcDbLine
 10
229.624465715
 20
108.7267187879
 30
0.0
 11
228.9644634834
 21
109.1077703506
 31
0.0
  0
ARC
  5
153
330
1F
100
AcDbEntity
  8
0
  6
SLD-Gestrichelt
 62
     7
370
     0
100
AcDbCircle
 10
229.0244668061
 20
109.2116933771
 30
0.0
 40
0.1200016423157896
100
AcDbArc
 50
120.0013791277
 51
239.9986208723
  0
LINE
  5
154
330
1F
100
AcDbEntity
  8
0
  6
SLD-Gestrichelt
 62
     7
370
     0
100
AcDbLine
 10
228.9644634834
 20
109.3156164036
 30
0.0
 11
229.624465715
 21
109.696667035
 31
0.0
  0
LINE
  5
155
330
1F
100
AcDbEntity
  8
0
  6
SLD-Gestrichelt
 62
     7
370
     0
100
AcDbLine
 10
229.624465715
 20
109.696667035
 30
0.0
 11
229.624465715
 21
109.9767185271
 31
0.0
  0
LINE
  5
156
330
1F
100
AcDbEntity
  8
0
  6
SLD-Gestrichelt
 62
     7
370
     0
100
AcDbLine
 10
229.624465715
 20
109.9767185271
 30
0.0
 11
228.9644634834
 21
110.3577700898
 31
0.0
  0
ARC
  5
157
330
1F
100
AcDbEntity
  8
0
  6
SLD-Gestrichelt
 62
     7
370
     0
100
AcDbCircle
 10
229.0244666869
 20
110.4616931163
 30
0.0
 40
0.1200015827144031
100
AcDbArc
 50
120.0013298411
 51
239.9986701589
  0
LINE
  5
158
330
1F
100
AcDbEntity
  8
0
  6
SLD-Gestrichelt
 62
     7
370
     0
100
AcDbLine
 10
228.9644634834
 20
110.5656161428
 30
0.0
 11
229.624465715
 21
110.9466672398
 31
0.0
  0
LINE
  5
159
330
1F
100
AcDbEntity
  8
0
  6
SLD-Gestrichelt
 62
     7
370
     0
100
AcDbLine
 10
229.624465715
 20
110.9466672398
 30
0.0
 11
229.624465715
 21
111.226718732
 31
0.0
  0
LINE
  5
15A
330
1F
100
AcDbEntity
  8
0
  6
SLD-Gestrichelt
 62
     7
370
     0
100
AcDbLine
 10
229.624465715
 20
111.226718732
 30
0.0
 11
228.9644634834
 21
111.6077698291
 31
0.0
  0
ARC
  5
15B
330
1F
100
AcDbEntity
  8
0
  6
SLD-Gestrichelt
 62
     7
370
     0
100
AcDbCircle
 10
229.0244642846
 20
111.7116928555
 30
0.0
 40
0.1200003815649603
100
AcDbArc
 50
120.00033654
 51
239.99966346
  0
LINE
  5
15C
330
1F
100
AcDbEntity
  8
0
  6
SLD-Gestrichelt
 62
     7
370
     0
100
AcDbLine
 10
228.9644634834
 20
111.815615882
 30
0.0
 11
229.624465715
 21
112.1966669791
 31
0.0
  0
LINE
  5
15D
330
1F
100
AcDbEntity
  8
0
  6
SLD-Gestrichelt
 62
     7
370
     0
100
AcDbLine
 10
229.624465715
 20
112.1966669791
 30
0.0
 11
229.624465715
 21
112.4767189369
 31
0.0
  0
LINE
  5
15E
330
1F
100
AcDbEntity
  8
0
  6
SLD-Gestrichelt
 62
     7
370
     0
100
AcDbLine
 10
229.624465715
 20
112.4767189369
 30
0.0
 11
228.9644634834
 21
112.857770034
 31
0.0
  0
ARC
  5
15F
330
1F
100
AcDbEntity
  8
0
  6
SLD-Gestrichelt
 62
     7
370
     0
100
AcDbCircle
 10
229.0244642287
 20
112.9616930604
 30
0.0
 40
0.1200003536210863
100
AcDbArc
 50
120.000313431
 51
239.999686569
  0
LINE
  5
160
330
1F
100
AcDbEntity
  8
0
  6
SLD-Gestrichelt
 62
     7
370
     0
100
AcDbLine
 10
228.9644634834
 20
113.0656160869
 30
0.0
 11
229.624465715
 21
113.446667184
 31
0.0
  0
LINE
  5
161
330
1F
100
AcDbEntity
  8
0
  6
SLD-Gestrichelt
 62
     7
370
     0
100
AcDbLine
 10
229.624465715
 20
113.446667184
 30
0.0
 11
229.624465715
 21
113.7267186761
 31
0.0
  0
LINE
  5
162
330
1F
100
AcDbEntity
  8
0
  6
SLD-Gestrichelt
 62
     7
370
     0
100
AcDbLine
 10
229.624465715
 20
113.7267186761
 30
0.0
 11
228.9644634834
 21
114.107770006
 31
0.0
  0
ARC
  5
163
330
1F
100
AcDbEntity
  8
0
  6
SLD-Gestrichelt
 62
     7
370
     0
100
AcDbCircle
 10
229.0244691533
 20
114.2116930325
 30
0.0
 40
0.1200028160169636
100
AcDbArc
 50
120.0023496798
 51
239.9976503202
  0
LINE
  5
164
330
1F
100
AcDbEntity
  8
0
  6
SLD-Gestrichelt
 62
     7
370
     0
100
AcDbLine
 10
228.9644634834
 20
114.315616059
 30
0.0
 11
229.624465715
 21
114.696667156
 31
0.0
  0
LINE
  5
165
330
1F
100
AcDbEntity
  8
0
  6
SLD-Gestrichelt
 62
     7
370
     0
100
AcDbLine
 10
229.624465715
 20
114.696667156
 30
0.0
 11
229.624465715
 21
114.9767186482
 31
0.0
  0
LINE
  5
166
330
1F
100
AcDbEntity
  8
0
  6
SLD-Gestrichelt
 62
     7
370
     0
100
AcDbLine
 10
229.624465715
 20
114.9767186482
 30
0.0
 11
228.9644634834
 21
115.3577699781
 31
0.0
  0
ARC
  5
167
330
1F
100
AcDbEntity
  8
0
  6
SLD-Gestrichelt
 62
     7
370
     0
100
AcDbCircle
 10
229.0244659292
 20
115.4616930046
 30
0.0
 40
0.1200012038491584
100
AcDbArc
 50
120.0010165405
 51
239.9989834595
  0
LINE
  5
168
330
1F
100
AcDbEntity
  8
0
  6
SLD-Gestrichelt
 62
     7
370
     0
100
AcDbLine
 10
228.9644634834
 20
115.565616031
 30
0.0
 11
229.624465715
 21
115.9466671281
 31
0.0
  0
LINE
  5
169
330
1F
100
AcDbEntity
  8
0
  6
SLD-Gestrichelt
 62
     7
370
     0
100
AcDbLine
 10
229.624465715
 20
115.9466671281
 30
0.0
 11
229.624465715
 21
116.2267187367
 31
0.0
  0
LINE
  5
16A
330
1F
100
AcDbEntity
  8
0
  6
SLD-Gestrichelt
 62
     7
370
     0
100
AcDbLine
 10
229.624465715
 20
116.2267187367
 30
0.0
 11
228.9644634834
 21
116.6077699501
 31
0.0
  0
ARC
  5
16B
330
1F
100
AcDbEntity
  8
0
  6
SLD-Gestrichelt
 62
     7
370
     0
100
AcDbCircle
 10
229.0244655605
 20
116.7116929766
 30
0.0
 40
0.1200010194911752
100
AcDbArc
 50
120.0008640849
 51
239.9991359151
  0
LINE
  5
16C
330
1F
100
AcDbEntity
  8
0
  6
SLD-Gestrichelt
 62
     7
370
     0
100
AcDbLine
 10
228.9644634834
 20
116.8156160031
 30
0.0
 11
229.624465715
 21
117.1966671584
 31
0.0
  0
LINE
  5
16D
330
1F
100
AcDbEntity
  8
0
  6
SLD-Gestrichelt
 62
     7
370
     0
100
AcDbLine
 10
229.624465715
 20
117.1966671584
 30
0.0
 11
229.624465715
 21
117.4767187087
 31
0.0
  0
LINE
  5
16E
330
1F
100
AcDbEntity
  8
0
  6
SLD-Gestrichelt
 62
     7
370
     0
100
AcDbLine
 10
229.624465715
 20
117.4767187087
 30
0.0
 11
228.9644634834
 21
117.8577699004
 31
0.0
  0
ARC
  5
16F
330
1F
100
AcDbEntity
  8
0
  6
SLD-Gestrichelt
 62
     7
370
     0
100
AcDbCircle
 10
229.0244664792
 20
117.9616929487
 30
0.0
 40
0.1200014978026872
100
AcDbArc
 50
120.0012387812
 51
239.9987612188
  0
LINE
  5
170
330
1F
100
AcDbEntity
  8
0
  6
SLD-Gestrichelt
 62
     7
370
     0
100
AcDbLine
 10
228.9644634834
 20
118.065615997
 30
0.0
 11
229.624465715
 21
118.4466671886
 31
0.0
  0
LINE
  5
171
330
1F
100
AcDbEntity
  8
0
  6
SLD-Gestrichelt
 62
     7
370
     0
100
AcDbLine
 10
229.624465715
 20
118.4466671886
 30
0.0
 11
229.624465715
 21
118.726718739
 31
0.0
  0
LINE
  5
172
330
1F
100
AcDbEntity
  8
0
  6
SLD-Gestrichelt
 62
     7
370
     0
100
AcDbLine
 10
151.3514971844
 20
108.3989994124
 30
0.0
 11
151.3514971844
 21
127.524386485
 31
0.0
  0
LINE
  5
173
330
1F
100
AcDbEntity
  8
0
  6
SLD-Gestrichelt
 62
     7
370
     0
100
AcDbLine
 10
150.3244644514
 20
107.8094088927
 30
0.0
 11
150.3244644514
 21
128.1139770046
 31
0.0
  0
LINE
  5
174
330
1F
100
AcDbEntity
  8
0
  6
SLD-Gestrichelt
 62
     7
370
     0
100
AcDbLine
 10
154.8514968267
 20
108.7307532773
 30
0.0
 11
154.8514968267
 21
127.1926326201
 31
0.0
  0
LINE
  5
175
330
1F
100
AcDbEntity
  8
0
  6
SLD-Gestrichelt
 62
     7
370
     0
100
AcDbLine
 10
172.6244646375
 20
107.4993539125
 30
0.0
 11
172.6244646375
 21
104.8415939778
 31
0.0
  0
LINE
  5
176
330
1F
100
AcDbEntity
  8
0
  6
SLD-Gestrichelt
 62
     7
370
     0
100
AcDbLine
 10
151.824463766
 20
107.9519114912
 30
0.0
 11
151.824463766
 21
105.5338982016
 31
0.0
  0
LINE
  5
177
330
1F
100
AcDbEntity
  8
0
  6
SLD-Gestrichelt
 62
     7
370
     0
100
AcDbLine
 10
154.5244647673
 20
105.4705459148
 30
0.0
 11
151.824463766
 21
105.5338982016
 31
0.0
  0
LWPOLYLINE
  5
178
330
1F
100
AcDbEntity
  8
0
  6
SLD-Gestrichelt
 62
     7
370
     0
100
AcDbPolyline
 90
        6
 70
   128
 43
0.0
 10
156.2284069619
 20
105.2537898988
 10
156.2324451766
 20
105.2534369275
 10
156.1515113822
 20
105.2605485067
 10
155.9454115591
 20
105.2800857917
 10
155.6732865534
 20
105.3090210528
 10
154.5244647673
 20
105.4705459148
  0
LWPOLYLINE
  5
179
330
1F
100
AcDbEntity
  8
0
  6
SLD-Gestrichelt
 62
     7
370
     0
100
AcDbPolyline
 90
       10
 70
   128
 43
0.0
 10
160.8919870591
 20
105.2030048788
 10
161.033737149
 20
105.2104480088
 10
161.4680221787
 20
105.2332523734
 10
162.276021812
 20
105.2502424911
 10
163.1820925063
 20
105.2338400379
 10
164.0746813751
 20
105.1811951667
 10
164.8273371643
 20
105.109031637
 10
165.326813843
 20
105.0473631814
 10
165.5208195111
 20
105.0204907999
 10
165.5060450098
 20
105.0225713745
  0
LWPOLYLINE
  5
17A
330
1F
100
AcDbEntity
  8
0
  6
SLD-Gestrichelt
 62
     7
370
     0
100
AcDbPolyline
 90
        5
 70
   128
 43
0.0
 10
160.2913659549
 20
105.1555353672
 10
160.2906777075
 20
105.1554711059
 10
160.5475625506
 20
105.1777613804
 10
160.6228683627
 20
105.183280398
 10
160.8919870591
 20
105.2030048788
  0
LINE
  5
17B
330
1F
100
AcDbEntity
  8
0
  6
SLD-Gestrichelt
 62
     7
370
     0
100
AcDbLine
 10
158.251496639
 20
108.9616933361
 30
0.0
 11
158.251496639
 21
126.9616925612
 31
0.0
  0
LINE
  5
17C
330
1F
100
AcDbEntity
  8
0
  6
SLD-Gestrichelt
 62
     7
370
     0
100
AcDbLine
 10
153.4514973423
 20
108.9616933361
 30
0.0
 11
153.4514973423
 21
126.9616925612
 31
0.0
  0
LINE
  5
17D
330
1F
100
AcDbEntity
  8
0
  6
SLD-Gestrichelt
 62
     7
370
     0
100
AcDbLine
 10
154.4514975062
 20
108.9616933361
 30
0.0
 11
154.4514975062
 21
126.9616925612
 31
0.0
  0
LINE
  5
17E
330
1F
100
AcDbEntity
  8
0
  6
SLD-Gestrichelt
 62
     7
370
     0
100
AcDbLine
 10
174.1244646651
 20
106.7089879409
 30
0.0
 11
174.1244646651
 21
104.8089334265
 31
0.0
  0
LWPOLYLINE
  5
17F
330
1F
100
AcDbEntity
  8
0
  6
SLD-Gestrichelt
 62
     7
370
     0
100
AcDbPolyline
 90
        6
 70
   128
 43
0.0
 10
164.8244649655
 20
109.0336473182
 10
165.0241703278
 20
109.028530632
 10
165.1125863678
 20
109.0575711325
 10
165.1230898238
 20
109.0610207513
 10
164.9758523813
 20
109.0220858798
 10
164.8244649655
 20
109.0336473182
  0
LWPOLYLINE
  5
180
330
1F
100
AcDbEntity
  8
0
  6
SLD-Gestrichelt
 62
     7
370
     0
100
AcDbPolyline
 90
        6
 70
   128
 43
0.0
 10
164.8244649655
 20
126.8897385791
 10
165.0241703278
 20
126.8948552654
 10
165.1125966123
 20
126.8658119709
 10
165.1230898238
 20
126.862365146
 10
164.9758523813
 20
126.9013000176
 10
164.8244649655
 20
126.8897385791
  0
LINE
  5
181
330
1F
100
AcDbEntity
  8
0
  6
SLD-Gestrichelt
 62
     7
370
     0
100
AcDbLine
 10
165.3244650475
 20
109.4616924867
 30
0.0
 11
165.3244650475
 21
126.4616934106
 31
0.0
  0
ARC
  5
182
330
1F
100
AcDbEntity
  8
0
  6
SLD-Gestrichelt
 62
     7
370
     0
100
AcDbCircle
 10
162.810524182
 20
100.1067745051
 30
0.0
 40
9.151230283504972
100
AcDbArc
 50
77.2866659709
 51
104.4494395912
  0
ARC
  5
183
330
1F
100
AcDbEntity
  8
0
  6
SLD-Gestrichelt
 62
     7
370
     0
100
AcDbCircle
 10
162.810524182
 20
135.8166113923
 30
0.0
 40
9.151230283504985
100
AcDbArc
 50
255.5505604088
 51
282.7133340291
  0
LINE
  5
184
330
1F
100
AcDbEntity
  8
0
  6
SLD-Gestrichelt
 62
     7
370
     0
100
AcDbLine
 10
228.4744648746
 20
121.9685472071
 30
0.0
 11
228.4744648746
 21
125.2685471893
 31
0.0
  0
LINE
  5
185
330
1F
100
AcDbEntity
  8
0
  6
SLD-Gestrichelt
 62
     7
370
     0
100
AcDbLine
 10
229.624465715
 20
125.9466673702
 30
0.0
 11
229.624465715
 21
126.2267188624
 31
0.0
  0
LWPOLYLINE
  5
186
330
1F
100
AcDbEntity
  8
0
  6
SLD-Gestrichelt
 62
     7
370
     0
100
AcDbPolyline
 90
       11
 70
   128
 43
0.0
 10
228.9644634834
 20
125.3577697546
 10
228.9099215082
 20
125.4259234749
 10
228.904594343
 20
125.4673007399
 10
228.9092323295
 20
125.4951794155
 10
228.91616882
 20
125.5133839779
 10
228.9238764456
 20
125.5271307648
 10
228.9314238838
 20
125.5374768272
 10
228.9406514278
 20
125.5475714326
 10
228.9490929357
 20
125.555069045
 10
228.962507706
 20
125.5644609675
 10
228.9644634834
 20
125.5656158075
  0
LWPOLYLINE
  5
187
330
1F
100
AcDbEntity
  8
0
  6
SLD-Gestrichelt
 62
     7
370
     0
100
AcDbPolyline
 90
        3
 70
   128
 43
0.0
 10
229.624465715
 20
124.9767186575
 10
229.2659065238
 20
125.1837316424
 10
228.9644634834
 20
125.3577697546
  0
LINE
  5
188
330
1F
100
AcDbEntity
  8
0
  6
SLD-Gestrichelt
 62
     7
370
     0
100
AcDbLine
 10
229.624465715
 20
124.6966671653
 30
0.0
 11
229.624465715
 21
124.9767186575
 31
0.0
  0
ARC
  5
189
330
1F
100
AcDbEntity
  8
0
  6
SLD-Gestrichelt
 62
     7
370
     0
100
AcDbCircle
 10
229.0244659111
 20
124.2116930418
 30
0.0
 40
0.1200011948427961
100
AcDbArc
 50
120.0010090927
 51
239.9989909073
  0
LINE
  5
18A
330
1F
100
AcDbEntity
  8
0
  6
SLD-Gestrichelt
 62
     7
370
     0
100
AcDbLine
 10
229.624465715
 20
123.4466669605
 30
0.0
 11
229.624465715
 21
123.7267189183
 31
0.0
  0
ARC
  5
18B
330
1F
100
AcDbEntity
  8
0
  6
SLD-Gestrichelt
 62
     7
370
     0
100
AcDbCircle
 10
229.0244676346
 20
122.9616928369
 30
0.0
 40
0.1200020565968261
100
AcDbArc
 50
120.0017217086
 51
239.9982782914
  0
LINE
  5
18C
330
1F
100
AcDbEntity
  8
0
  6
SLD-Gestrichelt
 62
     7
370
     0
100
AcDbLine
 10
229.624465715
 20
122.1966672212
 30
0.0
 11
229.624465715
 21
122.4767187134
 31
0.0
  0
LWPOLYLINE
  5
18D
330
1F
100
AcDbEntity
  8
0
  6
SLD-Gestrichelt
 62
     7
370
     0
100
AcDbPolyline
 90
        3
 70
   128
 43
0.0
 10
228.9644634834
 20
121.8156158913
 10
229.2564033082
 20
121.9841659524
 10
229.624465715
 20
122.1966672212
  0
LWPOLYLINE
  5
18E
330
1F
100
AcDbEntity
  8
0
  6
SLD-Gestrichelt
 62
     7
370
     0
100
AcDbPolyline
 90
       10
 70
   128
 43
0.0
 10
228.9644634834
 20
121.6077698384
 10
228.9528629294
 20
121.6153964389
 10
228.9450137428
 20
121.6217617959
 10
228.9368181041
 20
121.6297273979
 10
228.930246692
 20
121.6373768159
 10
228.9231872669
 20
121.6473252036
 10
228.9147122315
 20
121.663173287
 10
228.9047768823
 20
121.7030473974
 10
228.9376600197
 20
121.7945496075
 10
228.9644634834
 20
121.8156158913
  0
LINE
  5
18F
330
1F
100
AcDbEntity
  8
0
  6
SLD-Gestrichelt
 62
     7
370
     0
100
AcDbLine
 10
229.624465715
 20
120.9466672492
 30
0.0
 11
229.624465715
 21
121.2267187413
 31
0.0
  0
LINE
  5
190
330
1F
100
AcDbEntity
  8
0
  6
SLD-Gestrichelt
 62
     7
370
     0
100
AcDbLine
 10
229.624465715
 20
126.2267188624
 30
0.0
 11
229.624465715
 21
125.9466673702
 31
0.0
  0
LWPOLYLINE
  5
191
330
1F
100
AcDbEntity
  8
0
  6
SLD-Gestrichelt
 62
     7
370
     0
100
AcDbPolyline
 90
        4
 70
   128
 43
0.0
 10
229.624465715
 20
126.2267188624
 10
229.5198297611
 20
126.2871309638
 10
229.5128895453
 20
126.2911375136
 10
229.624465715
 20
126.2267188624
  0
LINE
  5
192
330
1F
100
AcDbEntity
  8
0
  6
SLD-Gestrichelt
 62
     7
370
     0
100
AcDbLine
 10
229.624465715
 20
124.9767186575
 30
0.0
 11
229.624465715
 21
124.6966671653
 31
0.0
  0
LWPOLYLINE
  5
193
330
1F
100
AcDbEntity
  8
0
  6
SLD-Gestrichelt
 62
     7
370
     0
100
AcDbPolyline
 90
        3
 70
   128
 43
0.0
 10
228.9644634834
 20
125.3577697546
 10
229.2611977569
 20
125.1864506387
 10
229.624465715
 20
124.9767186575
  0
LWPOLYLINE
  5
194
330
1F
100
AcDbEntity
  8
0
  6
SLD-Gestrichelt
 62
     7
370
     0
100
AcDbPolyline
 90
        9
 70
   128
 43
0.0
 10
228.9644634834
 20
125.5656158075
 10
228.9513243845
 20
125.556825985
 10
228.9420186094
 20
125.5488855288
 10
228.932876747
 20
125.5392291107
 10
228.9258359483
 20
125.5300485984
 10
228.9176365844
 20
125.5163548969
 10
228.9088113717
 20
125.4937037349
 10
228.9067065826
 20
125.438609951
 10
228.9644634834
 20
125.3577697546
  0
LINE
  5
195
330
1F
100
AcDbEntity
  8
0
  6
SLD-Gestrichelt
 62
     7
370
     0
100
AcDbLine
 10
229.624465715
 20
123.7267189183
 30
0.0
 11
229.624465715
 21
123.4466669605
 31
0.0
  0
ARC
  5
196
330
1F
100
AcDbEntity
  8
0
  6
SLD-Gestrichelt
 62
     7
370
     0
100
AcDbCircle
 10
229.0244659852
 20
124.2116930418
 30
0.0
 40
0.1200012318789652
100
AcDbArc
 50
120.0010397198
 51
239.9989602802
  0
LINE
  5
197
330
1F
100
AcDbEntity
  8
0
  6
SLD-Gestrichelt
 62
     7
370
     0
100
AcDbLine
 10
229.624465715
 20
122.4767187134
 30
0.0
 11
229.624465715
 21
122.1966672212
 31
0.0
  0
LINE
  5
198
330
1F
100
AcDbEntity
  8
0
  6
SLD-Gestrichelt
 62
     7
370
     0
100
AcDbLine
 10
229.624465715
 20
121.2267187413
 30
0.0
 11
229.624465715
 21
120.9466672492
 31
0.0
  0
ARC
  5
199
330
1F
100
AcDbEntity
  8
0
  6
SLD-Gestrichelt
 62
     7
370
     0
100
AcDbCircle
 10
229.0244681158
 20
122.9616928369
 30
0.0
 40
0.1200022972337368
100
AcDbArc
 50
120.0019206956
 51
239.9980793044
  0
LWPOLYLINE
  5
19A
330
1F
100
AcDbEntity
  8
0
  6
SLD-Gestrichelt
 62
     7
370
     0
100
AcDbPolyline
 90
        3
 70
   128
 43
0.0
 10
229.624465715
 20
122.1966672212
 10
229.2619912437
 20
121.9873925194
 10
228.9644634834
 20
121.8156158913
  0
LWPOLYLINE
  5
19B
330
1F
100
AcDbEntity
  8
0
  6
SLD-Gestrichelt
 62
     7
370
     0
100
AcDbPolyline
 90
       10
 70
   128
 43
0.0
 10
228.9644634834
 20
121.8156158913
 10
228.9126670471
 20
121.7552927312
 10
228.9048066846
 20
121.7026543793
 10
228.9121306053
 20
121.6694895167
 10
228.9226284734
 20
121.6482183419
 10
228.9285218826
 20
121.6396171123
 10
228.9362034312
 20
121.6303921294
 10
228.9438291005
 20
121.6228225723
 10
228.9527958742
 20
121.6154460319
 10
228.9644634834
 20
121.6077698384
  0
LWPOLYLINE
  5
19C
330
1F
100
AcDbEntity
  8
0
  6
SLD-Gestrichelt
 62
     7
370
     0
100
AcDbPolyline
 90
        4
 70
   128
 43
0.0
 10
229.624465715
 20
120.9466672492
 10
229.5480562857
 20
120.9025521286
 10
229.5673719159
 20
120.9137044836
 10
229.624465715
 20
120.9466672492
  0
LINE
  5
19D
330
1F
100
AcDbEntity
  8
0
  6
SLD-Gestrichelt
 62
     7
370
     0
100
AcDbLine
 10
228.4744648746
 20
110.6548387081
 30
0.0
 11
228.4744648746
 21
113.9548386902
 31
0.0
  0
LWPOLYLINE
  5
19E
330
1F
100
AcDbEntity
  8
0
  6
SLD-Gestrichelt
 62
     7
370
     0
100
AcDbPolyline
 90
       11
 70
   128
 43
0.0
 10
228.9644634834
 20
114.107770006
 10
228.9126670471
 20
114.1680931662
 10
228.9048066846
 20
114.2207315181
 10
228.9082265011
 20
114.241503504
 10
228.9178079477
 20
114.266685535
 10
228.9276203624
 20
114.2825520121
 10
228.9339086524
 20
114.2904314667
 10
228.9412661007
 20
114.2981688947
 10
228.9481243602
 20
114.3042790693
 10
228.9591027907
 20
114.3123294216
 10
228.9644634834
 20
114.315616059
  0
LWPOLYLINE
  5
19F
330
1F
100
AcDbEntity
  8
0
  6
SLD-Gestrichelt
 62
     7
370
     0
100
AcDbPolyline
 90
        3
 70
   128
 43
0.0
 10
229.624465715
 20
113.7267186761
 10
229.2619912437
 20
113.9359933779
 10
228.9644634834
 20
114.107770006
  0
LINE
  5
1A0
330
1F
100
AcDbEntity
  8
0
  6
SLD-Gestrichelt
 62
     7
370
     0
100
AcDbLine
 10
229.624465715
 20
113.446667184
 30
0.0
 11
229.624465715
 21
113.7267186761
 31
0.0
  0
ARC
  5
1A1
330
1F
100
AcDbEntity
  8
0
  6
SLD-Gestrichelt
 62
     7
370
     0
100
AcDbCircle
 10
229.0244681158
 20
112.9616930604
 30
0.0
 40
0.1200022972337368
100
AcDbArc
 50
120.0019206956
 51
239.9980793044
  0
LINE
  5
1A2
330
1F
100
AcDbEntity
  8
0
  6
SLD-Gestrichelt
 62
     7
370
     0
100
AcDbLine
 10
229.624465715
 20
112.1966669791
 30
0.0
 11
229.624465715
 21
112.4767189369
 31
0.0
  0
ARC
  5
1A3
330
1F
100
AcDbEntity
  8
0
  6
SLD-Gestrichelt
 62
     7
370
     0
100
AcDbCircle
 10
229.0244659852
 20
111.7116928555
 30
0.0
 40
0.1200012318789652
100
AcDbArc
 50
120.0010397198
 51
239.9989602802
  0
LINE
  5
1A4
330
1F
100
AcDbEntity
  8
0
  6
SLD-Gestrichelt
 62
     7
370
     0
100
AcDbLine
 10
229.624465715
 20
110.9466672398
 30
0.0
 11
229.624465715
 21
111.226718732
 31
0.0
  0
LWPOLYLINE
  5
1A5
330
1F
100
AcDbEntity
  8
0
  6
SLD-Gestrichelt
 62
     7
370
     0
100
AcDbPolyline
 90
        3
 70
   128
 43
0.0
 10
228.9644634834
 20
110.5656161428
 10
229.2611977569
 20
110.7369352587
 10
229.624465715
 20
110.9466672398
  0
LWPOLYLINE
  5
1A6
330
1F
100
AcDbEntity
  8
0
  6
SLD-Gestrichelt
 62
     7
370
     0
100
AcDbPolyline
 90
        9
 70
   128
 43
0.0
 10
228.9644634834
 20
110.3577700898
 10
228.9513243845
 20
110.3665599123
 10
228.9420186094
 20
110.3745003686
 10
228.932876747
 20
110.3841567867
 10
228.9258359483
 20
110.393337299
 10
228.9176365844
 20
110.4070310004
 10
228.9088113717
 20
110.4296821624
 10
228.9067065826
 20
110.4847759463
 10
228.9644634834
 20
110.5656161428
  0
LINE
  5
1A7
330
1F
100
AcDbEntity
  8
0
  6
SLD-Gestrichelt
 62
     7
370
     0
100
AcDbLine
 10
229.624465715
 20
109.696667035
 30
0.0
 11
229.624465715
 21
109.9767185271
 31
0.0
  0
LINE
  5
1A8
330
1F
100
AcDbEntity
  8
0
  6
SLD-Gestrichelt
 62
     7
370
     0
100
AcDbLine
 10
229.624465715
 20
114.696667156
 30
0.0
 11
229.624465715
 21
114.9767186482
 31
0.0
  0
LINE
  5
1A9
330
1F
100
AcDbEntity
  8
0
  6
SLD-Gestrichelt
 62
     7
370
     0
100
AcDbLine
 10
229.624465715
 20
109.9767185271
 30
0.0
 11
229.624465715
 21
109.696667035
 31
0.0
  0
LWPOLYLINE
  5
1AA
330
1F
100
AcDbEntity
  8
0
  6
SLD-Gestrichelt
 62
     7
370
     0
100
AcDbPolyline
 90
        4
 70
   128
 43
0.0
 10
229.624465715
 20
109.696667035
 10
229.5198297611
 20
109.6362549335
 10
229.5128895453
 20
109.6322483838
 10
229.624465715
 20
109.696667035
  0
LINE
  5
1AB
330
1F
100
AcDbEntity
  8
0
  6
SLD-Gestrichelt
 62
     7
370
     0
100
AcDbLine
 10
229.624465715
 20
111.226718732
 30
0.0
 11
229.624465715
 21
110.9466672398
 31
0.0
  0
LWPOLYLINE
  5
1AC
330
1F
100
AcDbEntity
  8
0
  6
SLD-Gestrichelt
 62
     7
370
     0
100
AcDbPolyline
 90
        3
 70
   128
 43
0.0
 10
229.624465715
 20
110.9466672398
 10
229.2659065238
 20
110.7396542549
 10
228.9644634834
 20
110.5656161428
  0
LWPOLYLINE
  5
1AD
330
1F
100
AcDbEntity
  8
0
  6
SLD-Gestrichelt
 62
     7
370
     0
100
AcDbPolyline
 90
       11
 70
   128
 43
0.0
 10
228.9644634834
 20
110.5656161428
 10
228.9099215082
 20
110.4974624224
 10
228.904594343
 20
110.4560851574
 10
228.9092323295
 20
110.4282064818
 10
228.91616882
 20
110.4100019195
 10
228.9238764456
 20
110.3962551326
 10
228.9314238838
 20
110.3859090701
 10
228.9406514278
 20
110.3758144647
 10
228.9490929357
 20
110.3683168523
 10
228.962507706
 20
110.3589249298
 10
228.9644634834
 20
110.3577700898
  0
LINE
  5
1AE
330
1F
100
AcDbEntity
  8
0
  6
SLD-Gestrichelt
 62
     7
370
     0
100
AcDbLine
 10
229.624465715
 20
112.4767189369
 30
0.0
 11
229.624465715
 21
112.1966669791
 31
0.0
  0
ARC
  5
1AF
330
1F
100
AcDbEntity
  8
0
  6
SLD-Gestrichelt
 62
     7
370
     0
100
AcDbCircle
 10
229.0244659111
 20
111.7116928555
 30
0.0
 40
0.1200011948427961
100
AcDbArc
 50
120.0010090927
 51
239.9989909073
  0
LINE
  5
1B0
330
1F
100
AcDbEntity
  8
0
  6
SLD-Gestrichelt
 62
     7
370
     0
100
AcDbLine
 10
229.624465715
 20
113.7267186761
 30
0.0
 11
229.624465715
 21
113.446667184
 31
0.0
  0
LINE
  5
1B1
330
1F
100
AcDbEntity
  8
0
  6
SLD-Gestrichelt
 62
     7
370
     0
100
AcDbLine
 10
229.624465715
 20
114.9767186482
 30
0.0
 11
229.624465715
 21
114.696667156
 31
0.0
  0
ARC
  5
1B2
330
1F
100
AcDbEntity
  8
0
  6
SLD-Gestrichelt
 62
     7
370
     0
100
AcDbCircle
 10
229.0244676346
 20
112.9616930604
 30
0.0
 40
0.1200020565968261
100
AcDbArc
 50
120.0017217086
 51
239.9982782914
  0
LWPOLYLINE
  5
1B3
330
1F
100
AcDbEntity
  8
0
  6
SLD-Gestrichelt
 62
     7
370
     0
100
AcDbPolyline
 90
        3
 70
   128
 43
0.0
 10
228.9644634834
 20
114.107770006
 10
229.2564033082
 20
113.939219945
 10
229.624465715
 20
113.7267186761
  0
LWPOLYLINE
  5
1B4
330
1F
100
AcDbEntity
  8
0
  6
SLD-Gestrichelt
 62
     7
370
     0
100
AcDbPolyline
 90
       10
 70
   128
 43
0.0
 10
228.9644634834
 20
114.315616059
 10
228.9528629294
 20
114.3079894584
 10
228.9450137428
 20
114.3016241014
 10
228.9368181041
 20
114.2936584995
 10
228.930246692
 20
114.2860090815
 10
228.9231872669
 20
114.2760606937
 10
228.9147122315
 20
114.2602126103
 10
228.9047768823
 20
114.2203385
 10
228.9376600197
 20
114.1288362898
 10
228.9644634834
 20
114.107770006
  0
LWPOLYLINE
  5
1B5
330
1F
100
AcDbEntity
  8
0
  6
SLD-Gestrichelt
 62
     7
370
     0
100
AcDbPolyline
 90
        4
 70
   128
 43
0.0
 10
229.624465715
 20
114.9767186482
 10
229.5480562857
 20
115.0208337687
 10
229.5673719159
 20
115.0096814137
 10
229.624465715
 20
114.9767186482
  0
LINE
  5
1B6
330
1F
100
AcDbEntity
  8
0
  6
SLD-Gestrichelt
 62
     7
370
     0
100
AcDbLine
 10
218.3244644216
 20
121.9685472071
 30
0.0
 11
218.3244644216
 21
125.2685471893
 31
0.0
  0
LINE
  5
1B7
330
1F
100
AcDbEntity
  8
0
  6
SLD-Gestrichelt
 62
     7
370
     0
100
AcDbLine
 10
218.3244644216
 20
110.6548387081
 30
0.0
 11
218.3244644216
 21
113.9548386902
 31
0.0
  0
LINE
  5
1B8
330
1F
100
AcDbEntity
  8
0
  6
SLD-Gestrichelt
 62
     7
370
     0
100
AcDbLine
 10
166.2244644499
 20
111.7116928555
 30
0.0
 11
166.2244644499
 21
124.2116930418
 31
0.0
  0
LINE
  5
1B9
330
1F
100
AcDbEntity
  8
0
  6
SLD-Gestrichelt
 62
     7
370
     0
100
AcDbLine
 10
165.3244650475
 20
110.8150839329
 30
0.0
 11
165.3244650475
 21
125.1083019644
 31
0.0
  0
LINE
  5
1BA
330
1F
100
AcDbEntity
  8
0
  6
SLD-Gestrichelt
 62
     7
370
     0
100
AcDbLine
 10
185.3244646004
 20
111.7116928555
 30
0.0
 11
185.3244646004
 21
124.2116930418
 31
0.0
  0
LINE
  5
1BB
330
1F
100
AcDbEntity
  8
0
  6
SLD-Gestrichelt
 62
     7
370
     0
100
AcDbLine
 10
187.0369172207
 20
114.5616929036
 30
0.0
 11
187.0369172207
 21
121.3616929937
 31
0.0
  0
LINE
  5
1BC
330
1F
100
AcDbEntity
  8
0
  6
SLD-Gestrichelt
 62
     7
370
     0
100
AcDbLine
 10
228.8244633487
 20
113.9753547952
 30
0.0
 11
228.8244633487
 21
121.9480311022
 31
0.0
  0
LINE
  5
1BD
330
1F
100
AcDbEntity
  8
0
  6
SLD-Gestrichelt
 62
     7
370
     0
100
AcDbLine
 10
229.624465715
 20
122.1966672212
 30
0.0
 11
229.624465715
 21
122.4767187134
 31
0.0
  0
LWPOLYLINE
  5
1BE
330
1F
100
AcDbEntity
  8
0
  6
SLD-Gestrichelt
 62
     7
370
     0
100
AcDbPolyline
 90
        4
 70
   128
 43
0.0
 10
229.624465715
 20
122.4767187134
 10
229.463570427
 20
122.569610224
 10
229.4687970093
 20
122.5665936701
 10
229.624465715
 20
122.4767187134
  0
LINE
  5
1BF
330
1F
100
AcDbEntity
  8
0
  6
SLD-Gestrichelt
 62
     7
370
     0
100
AcDbLine
 10
229.624465715
 20
122.4767187134
 30
0.0
 11
229.624465715
 21
122.1966672212
 31
0.0
  0
LWPOLYLINE
  5
1C0
330
1F
100
AcDbEntity
  8
0
  6
SLD-Gestrichelt
 62
     7
370
     0
100
AcDbPolyline
 90
       10
 70
   128
 43
0.0
 10
228.9644634834
 20
121.8156158913
 10
228.9522855094
 20
121.8075576227
 10
228.9439445845
 20
121.800666767
 10
228.9354285708
 20
121.7921470281
 10
228.9287155977
 20
121.7840270594
 10
228.9212985447
 20
121.7729864631
 10
228.9127229265
 20
121.7554384832
 10
228.9044714085
 20
121.7127906613
 10
228.946556013
 20
121.620422554
 10
228.9644634834
 20
121.6077698384
  0
LWPOLYLINE
  5
1C1
330
1F
100
AcDbEntity
  8
0
  6
SLD-Gestrichelt
 62
     7
370
     0
100
AcDbPolyline
 90
        3
 70
   128
 43
0.0
 10
228.9644634834
 20
121.6077698384
 10
229.259364914
 20
121.4375098691
 10
229.624465715
 20
121.2267187413
  0
LINE
  5
1C2
330
1F
100
AcDbEntity
  8
0
  6
SLD-Gestrichelt
 62
     7
370
     0
100
AcDbLine
 10
229.624465715
 20
121.2267187413
 30
0.0
 11
229.624465715
 21
120.9466672492
 31
0.0
  0
ARC
  5
1C3
330
1F
100
AcDbEntity
  8
0
  6
SLD-Gestrichelt
 62
     7
370
     0
100
AcDbCircle
 10
229.0244667681
 20
120.4616928928
 30
0.0
 40
0.120001623336108
100
AcDbArc
 50
120.0013634327
 51
239.9986365673
  0
LINE
  5
1C4
330
1F
100
AcDbEntity
  8
0
  6
SLD-Gestrichelt
 62
     7
370
     0
100
AcDbLine
 10
229.624465715
 20
119.9767187693
 30
0.0
 11
229.624465715
 21
119.6966671607
 31
0.0
  0
ARC
  5
1C5
330
1F
100
AcDbEntity
  8
0
  6
SLD-Gestrichelt
 62
     7
370
     0
100
AcDbCircle
 10
229.0244646393
 20
119.2116929207
 30
0.0
 40
0.1200005589289276
100
AcDbArc
 50
120.0004832158
 51
239.9995167842
  0
LINE
  5
1C6
330
1F
100
AcDbEntity
  8
0
  6
SLD-Gestrichelt
 62
     7
370
     0
100
AcDbLine
 10
229.624465715
 20
118.726718739
 30
0.0
 11
229.624465715
 21
118.4466671886
 31
0.0
  0
ARC
  5
1C7
330
1F
100
AcDbEntity
  8
0
  6
SLD-Gestrichelt
 62
     7
370
     0
100
AcDbCircle
 10
229.0244660181
 20
117.9616929487
 30
0.0
 40
0.1200012672042295
100
AcDbArc
 50
120.0010480888
 51
239.9989519112
  0
LINE
  5
1C8
330
1F
100
AcDbEntity
  8
0
  6
SLD-Gestrichelt
 62
     7
370
     0
100
AcDbLine
 10
229.624465715
 20
117.4767187087
 30
0.0
 11
229.624465715
 21
117.1966671584
 31
0.0
  0
ARC
  5
1C9
330
1F
100
AcDbEntity
  8
0
  6
SLD-Gestrichelt
 62
     7
370
     0
100
AcDbCircle
 10
229.0244662553
 20
116.7116929766
 30
0.0
 40
0.1200013669146376
100
AcDbArc
 50
120.0011513872
 51
239.9988486128
  0
LINE
  5
1CA
330
1F
100
AcDbEntity
  8
0
  6
SLD-Gestrichelt
 62
     7
370
     0
100
AcDbLine
 10
229.624465715
 20
116.2267187367
 30
0.0
 11
229.624465715
 21
115.9466671281
 31
0.0
  0
ARC
  5
1CB
330
1F
100
AcDbEntity
  8
0
  6
SLD-Gestrichelt
 62
     7
370
     0
100
AcDbCircle
 10
229.0244649491
 20
115.4616930046
 30
0.0
 40
0.1200007138106927
100
AcDbArc
 50
120.0006112985
 51
239.9993887015
  0
LINE
  5
1CC
330
1F
100
AcDbEntity
  8
0
  6
SLD-Gestrichelt
 62
     7
370
     0
100
AcDbLine
 10
229.624465715
 20
114.9767186482
 30
0.0
 11
229.624465715
 21
114.696667156
 31
0.0
  0
LWPOLYLINE
  5
1CD
330
1F
100
AcDbEntity
  8
0
  6
SLD-Gestrichelt
 62
     7
370
     0
100
AcDbPolyline
 90
        3
 70
   128
 43
0.0
 10
229.624465715
 20
114.696667156
 10
229.2626357189
 20
114.4877645176
 10
228.9644634834
 20
114.315616059
  0
ARC
  5
1CE
330
1F
100
AcDbEntity
  8
0
  6
SLD-Gestrichelt
 62
     7
370
     0
100
AcDbCircle
 10
229.0244678941
 20
114.2116930325
 30
0.0
 40
0.1200021863520337
100
AcDbArc
 50
120.0018290058
 51
239.9981709942
  0
LINE
  5
1CF
330
1F
100
AcDbEntity
  8
0
  6
SLD-Gestrichelt
 62
     7
370
     0
100
AcDbLine
 10
229.624465715
 20
113.7267186761
 30
0.0
 11
229.624465715
 21
113.446667184
 31
0.0
  0
LWPOLYLINE
  5
1D0
330
1F
100
AcDbEntity
  8
0
  6
SLD-Gestrichelt
 62
     7
370
     0
100
AcDbPolyline
 90
        4
 70
   128
 43
0.0
 10
229.624465715
 20
113.446667184
 10
229.463570427
 20
113.3537756734
 10
229.4687970093
 20
113.3567922272
 10
229.624465715
 20
113.446667184
  0
LINE
  5
1D1
330
1F
100
AcDbEntity
  8
0
  6
SLD-Gestrichelt
 62
     7
370
     0
100
AcDbLine
 10
229.624465715
 20
113.446667184
 30
0.0
 11
229.624465715
 21
113.7267186761
 31
0.0
  0
LINE
  5
1D2
330
1F
100
AcDbEntity
  8
0
  6
SLD-Gestrichelt
 62
     7
370
     0
100
AcDbLine
 10
229.624465715
 20
120.9466672492
 30
0.0
 11
229.624465715
 21
121.2267187413
 31
0.0
  0
LINE
  5
1D3
330
1F
100
AcDbEntity
  8
0
  6
SLD-Gestrichelt
 62
     7
370
     0
100
AcDbLine
 10
229.624465715
 20
114.696667156
 30
0.0
 11
229.624465715
 21
114.9767186482
 31
0.0
  0
LWPOLYLINE
  5
1D4
330
1F
100
AcDbEntity
  8
0
  6
SLD-Gestrichelt
 62
     7
370
     0
100
AcDbPolyline
 90
        3
 70
   128
 43
0.0
 10
228.9644634834
 20
114.315616059
 10
229.259364914
 20
114.4858760283
 10
229.624465715
 20
114.696667156
  0
LWPOLYLINE
  5
1D5
330
1F
100
AcDbEntity
  8
0
  6
SLD-Gestrichelt
 62
     7
370
     0
100
AcDbPolyline
 90
        3
 70
   128
 43
0.0
 10
229.624465715
 20
121.2267187413
 10
229.2626357189
 20
121.4356213797
 10
228.9644634834
 20
121.6077698384
  0
LWPOLYLINE
  5
1D6
330
1F
100
AcDbEntity
  8
0
  6
SLD-Gestrichelt
 62
     7
370
     0
100
AcDbPolyline
 90
       10
 70
   128
 43
0.0
 10
228.9644634834
 20
114.107770006
 10
228.9522855094
 20
114.1158282746
 10
228.9439445845
 20
114.1227191303
 10
228.9354285708
 20
114.1312388692
 10
228.9287155977
 20
114.1393588379
 10
228.9212985447
 20
114.1503994342
 10
228.9127229265
 20
114.1679474142
 10
228.9044714085
 20
114.210595236
 10
228.946556013
 20
114.3029633433
 10
228.9644634834
 20
114.315616059
  0
ARC
  5
1D7
330
1F
100
AcDbEntity
  8
0
  6
SLD-Gestrichelt
 62
     7
370
     0
100
AcDbCircle
 10
229.0244678941
 20
121.7116928649
 30
0.0
 40
0.1200021863520337
100
AcDbArc
 50
120.0018290058
 51
239.9981709942
  0
LINE
  5
1D8
330
1F
100
AcDbEntity
  8
0
  6
SLD-Gestrichelt
 62
     7
370
     0
100
AcDbLine
 10
229.624465715
 20
115.9466671281
 30
0.0
 11
229.624465715
 21
116.2267187367
 31
0.0
  0
LINE
  5
1D9
330
1F
100
AcDbEntity
  8
0
  6
SLD-Gestrichelt
 62
     7
370
     0
100
AcDbLine
 10
229.624465715
 20
119.6966671607
 30
0.0
 11
229.624465715
 21
119.9767187693
 31
0.0
  0
LINE
  5
1DA
330
1F
100
AcDbEntity
  8
0
  6
SLD-Gestrichelt
 62
     7
370
     0
100
AcDbLine
 10
229.624465715
 20
117.1966671584
 30
0.0
 11
229.624465715
 21
117.4767187087
 31
0.0
  0
LINE
  5
1DB
330
1F
100
AcDbEntity
  8
0
  6
SLD-Gestrichelt
 62
     7
370
     0
100
AcDbLine
 10
229.624465715
 20
118.4466671886
 30
0.0
 11
229.624465715
 21
118.726718739
 31
0.0
  0
ARC
  5
1DC
330
1F
100
AcDbEntity
  8
0
  6
SLD-Gestrichelt
 62
     7
370
     0
100
AcDbCircle
 10
229.0244649491
 20
120.4616928928
 30
0.0
 40
0.1200007138106927
100
AcDbArc
 50
120.0006112985
 51
239.9993887015
  0
ARC
  5
1DD
330
1F
100
AcDbEntity
  8
0
  6
SLD-Gestrichelt
 62
     7
370
     0
100
AcDbCircle
 10
229.0244667681
 20
115.4616930046
 30
0.0
 40
0.120001623336108
100
AcDbArc
 50
120.0013634327
 51
239.9986365673
  0
ARC
  5
1DE
330
1F
100
AcDbEntity
  8
0
  6
SLD-Gestrichelt
 62
     7
370
     0
100
AcDbCircle
 10
229.0244662553
 20
119.2116929207
 30
0.0
 40
0.1200013669146376
100
AcDbArc
 50
120.0011513872
 51
239.9988486128
  0
ARC
  5
1DF
330
1F
100
AcDbEntity
  8
0
  6
SLD-Gestrichelt
 62
     7
370
     0
100
AcDbCircle
 10
229.0244646393
 20
116.7116929766
 30
0.0
 40
0.1200005589289276
100
AcDbArc
 50
120.0004832158
 51
239.9995167842
  0
ARC
  5
1E0
330
1F
100
AcDbEntity
  8
0
  6
SLD-Gestrichelt
 62
     7
370
     0
100
AcDbCircle
 10
229.0244660181
 20
117.9616929487
 30
0.0
 40
0.1200012672042295
100
AcDbArc
 50
120.0010480888
 51
239.9989519112
  0
LWPOLYLINE
  5
1E1
330
1F
100
AcDbEntity
  8
0
  6
SLD-Gestrichelt
 62
     7
370
     0
100
AcDbPolyline
 90
        4
 70
   128
 43
0.0
 10
172.6244646375
 20
132.3344086752
 10
172.4643724988
 20
132.690870528
 10
172.3874802951
 20
132.8634352878
 10
172.3919203755
 20
132.8534487158
  0
LINE
  5
1E2
330
1F
100
AcDbEntity
  8
0
  6
SLD-Gestrichelt
 62
     7
370
     0
100
AcDbLine
 10
151.824463766
 20
131.3303200052
 30
0.0
 11
151.824463766
 21
132.3592237652
 31
0.0
  0
LINE
  5
1E3
330
1F
100
AcDbEntity
  8
0
  6
SLD-Gestrichelt
 62
     7
370
     0
100
AcDbLine
 10
172.6244646375
 20
131.7828775838
 30
0.0
 11
172.6244646375
 21
132.3344086752
 31
0.0
  0
LINE
  5
1E4
330
1F
100
AcDbEntity
  8
0
  6
SLD-Gestrichelt
 62
     7
370
     0
100
AcDbLine
 10
150.3244644514
 20
130.5803203479
 30
0.0
 11
150.3244644514
 21
131.4931980789
 31
0.0
  0
LWPOLYLINE
  5
1E5
330
1F
100
AcDbEntity
  8
0
  6
SLD-Gestrichelt
 62
     7
370
     0
100
AcDbPolyline
 90
       15
 70
   128
 43
0.0
 10
172.8294246382
 20
132.1250641242
 10
172.7544701676
 20
132.2719122738
 10
172.7290440135
 20
132.3131745205
 10
172.71823683
 20
132.3290740595
 10
172.709318485
 20
132.3413423717
 10
172.6977598405
 20
132.3559361965
 10
172.6922124176
 20
132.3623464898
 10
172.6857074787
 20
132.3693044007
 10
172.6809435309
 20
132.3739731208
 10
172.676484824
 20
132.3779787392
 10
172.6708106248
 20
132.3825003103
 10
172.6628106803
 20
132.3875844002
 10
172.6467258082
 20
132.3912491545
 10
172.6262140105
 20
132.3572214216
 10
172.6244646375
 20
132.3344086752
  0
LINE
  5
1E6
330
1F
100
AcDbEntity
  8
0
  6
SLD-Gestrichelt
 62
     7
370
     0
100
AcDbLine
 10
173.0031443544
 20
131.7479995534
 30
0.0
 11
172.8294246382
 21
132.1250641242
 31
0.0
  0
LINE
  5
1E7
330
1F
100
AcDbEntity
  8
0
  6
SLD-Gestrichelt
 62
     7
370
     0
100
AcDbLine
 10
225.7744638732
 20
114.2616929476
 30
0.0
 11
225.7744638732
 21
121.6616929498
 31
0.0
  0
LINE
  5
1E8
330
1F
100
AcDbEntity
  8
0
  6
SLD-Gestrichelt
 62
     7
370
     0
100
AcDbLine
 10
227.2744631878
 20
114.2616929476
 30
0.0
 11
227.2744631878
 21
121.6616929498
 31
0.0
  0
LINE
  5
1E9
330
1F
100
AcDbEntity
  8
0
  6
SLD-Gestrichelt
 62
     7
370
     0
100
AcDbLine
 10
223.3244633785
 20
114.5616929036
 30
0.0
 11
223.3244633785
 21
121.3616929937
 31
0.0
  0
LINE
  5
1EA
330
1F
100
AcDbEntity
  8
0
  6
SLD-Gestrichelt
 62
     7
370
     0
100
AcDbLine
 10
223.5648079327
 20
114.9616929226
 30
0.0
 11
223.5648079327
 21
120.9616929747
 31
0.0
  0
LINE
  5
1EB
330
1F
100
AcDbEntity
  8
0
  6
SLD-Gestrichelt
 62
     7
370
     0
100
AcDbLine
 10
228.304848682
 20
114.9616929226
 30
0.0
 11
228.304848682
 21
120.9616929747
 31
0.0
  0
LINE
  5
1EC
330
1F
100
AcDbEntity
  8
0
  6
SLD-Gestrichelt
 62
     7
370
     0
100
AcDbLine
 10
228.8244633487
 20
121.2583699718
 30
0.0
 11
228.8244633487
 21
114.6650159255
 31
0.0
  0
LINE
  5
1ED
330
1F
100
AcDbEntity
  8
0
  6
SLD-Gestrichelt
 62
     7
370
     0
100
AcDbLine
 10
227.2744631878
 20
114.965090853
 30
0.0
 11
227.2744631878
 21
120.9582950443
 31
0.0
  0
LINE
  5
1EE
330
1F
100
AcDbEntity
  8
0
  6
SLD-Gestrichelt
 62
     7
370
     0
100
AcDbLine
 10
225.7744638732
 20
114.965090853
 30
0.0
 11
225.7744638732
 21
120.9582950443
 31
0.0
  0
LINE
  5
1EF
330
1F
100
AcDbEntity
  8
0
  6
SLD-Gestrichelt
 62
     7
370
     0
100
AcDbLine
 10
160.5244648195
 20
105.4199704424
 30
0.0
 11
165.1244644559
 21
105.4199704424
 31
0.0
  0
LINE
  5
1F0
330
1F
100
AcDbEntity
  8
0
  6
SLD-Gestrichelt
 62
     7
370
     0
100
AcDbLine
 10
154.5244647673
 20
105.4705459148
 30
0.0
 11
154.5244647673
 21
106.9616930083
 31
0.0
  0
LWPOLYLINE
  5
1F1
330
1F
100
AcDbEntity
  8
0
  6
SLD-Gestrichelt
 62
     7
370
     0
100
AcDbPolyline
 90
        3
 70
   128
 43
0.0
 10
151.824463766
 20
105.5338982016
 10
151.0626139602
 20
105.9393085063
 10
150.3244644514
 20
106.3231987402
  0
LINE
  5
1F2
330
1F
100
AcDbEntity
  8
0
  6
SLD-Gestrichelt
 62
     7
370
     0
100
AcDbLine
 10
150.3244644514
 20
106.3231987402
 30
0.0
 11
150.3244644514
 21
106.9616930083
 31
0.0
  0
LINE
  5
1F3
330
1F
100
AcDbEntity
  8
0
  6
SLD-Gestrichelt
 62
     7
370
     0
100
AcDbLine
 10
160.5244648195
 20
128.9616928891
 30
0.0
 11
165.1244644559
 21
128.9616928891
 31
0.0
  0
LINE
  5
1F4
330
1F
100
AcDbEntity
  8
0
  6
SLD-Gestrichelt
 62
     7
370
     0
100
AcDbLine
 10
184.3244644365
 20
98.4616925463
 30
0.0
 11
188.3244650922
 21
98.4616925463
 31
0.0
  0
LINE
  5
1F5
330
1F
100
AcDbEntity
  8
0
  6
SLD-Gestrichelt
 62
     7
370
     0
100
AcDbLine
 10
150.3244644514
 20
108.7019111485
 30
0.0
 11
150.3244644514
 21
106.3231987402
 31
0.0
  0
LINE
  5
1F6
330
1F
100
AcDbEntity
  8
0
  6
SLD-Gestrichelt
 62
     7
370
     0
100
AcDbLine
 10
228.4744648746
 20
121.9685472071
 30
0.0
 11
228.4744648746
 21
125.2685471893
 31
0.0
  0
LINE
  5
1F7
330
1F
100
AcDbEntity
  8
0
  6
SLD-Gestrichelt
 62
     7
370
     0
100
AcDbLine
 10
229.624465715
 20
125.9466673702
 30
0.0
 11
229.624465715
 21
126.2267188624
 31
0.0
  0
LWPOLYLINE
  5
1F8
330
1F
100
AcDbEntity
  8
0
  6
SLD-Gestrichelt
 62
     7
370
     0
100
AcDbPolyline
 90
       11
 70
   128
 43
0.0
 10
228.9644634834
 20
125.3577697546
 10
228.9099215082
 20
125.4259234749
 10
228.904594343
 20
125.4673007399
 10
228.9092323295
 20
125.4951794155
 10
228.91616882
 20
125.5133839779
 10
228.9238764456
 20
125.5271307648
 10
228.9314238838
 20
125.5374768272
 10
228.9406514278
 20
125.5475714326
 10
228.9490929357
 20
125.555069045
 10
228.962507706
 20
125.5644609675
 10
228.9644634834
 20
125.5656158075
  0
LWPOLYLINE
  5
1F9
330
1F
100
AcDbEntity
  8
0
  6
SLD-Gestrichelt
 62
     7
370
     0
100
AcDbPolyline
 90
        3
 70
   128
 43
0.0
 10
229.624465715
 20
124.9767186575
 10
229.2659065238
 20
125.1837316424
 10
228.9644634834
 20
125.3577697546
  0
LINE
  5
1FA
330
1F
100
AcDbEntity
  8
0
  6
SLD-Gestrichelt
 62
     7
370
     0
100
AcDbLine
 10
229.624465715
 20
124.6966671653
 30
0.0
 11
229.624465715
 21
124.9767186575
 31
0.0
  0
LINE
  5
1FB
330
1F
100
AcDbEntity
  8
0
  6
SLD-Gestrichelt
 62
     7
370
     0
100
AcDbLine
 10
229.624465715
 20
123.4466669605
 30
0.0
 11
229.624465715
 21
123.7267189183
 31
0.0
  0
LINE
  5
1FC
330
1F
100
AcDbEntity
  8
0
  6
SLD-Gestrichelt
 62
     7
370
     0
100
AcDbLine
 10
229.624465715
 20
122.1966672212
 30
0.0
 11
229.624465715
 21
122.4767187134
 31
0.0
  0
LWPOLYLINE
  5
1FD
330
1F
100
AcDbEntity
  8
0
  6
SLD-Gestrichelt
 62
     7
370
     0
100
AcDbPolyline
 90
        3
 70
   128
 43
0.0
 10
228.9644634834
 20
121.8156158913
 10
229.2564033082
 20
121.9841659524
 10
229.624465715
 20
122.1966672212
  0
LWPOLYLINE
  5
1FE
330
1F
100
AcDbEntity
  8
0
  6
SLD-Gestrichelt
 62
     7
370
     0
100
AcDbPolyline
 90
       10
 70
   128
 43
0.0
 10
228.9644634834
 20
121.6077698384
 10
228.9528629294
 20
121.6153964389
 10
228.9450137428
 20
121.6217617959
 10
228.9368181041
 20
121.6297273979
 10
228.930246692
 20
121.6373768159
 10
228.9231872669
 20
121.6473252036
 10
228.9147122315
 20
121.663173287
 10
228.9047768823
 20
121.7030473974
 10
228.9376600197
 20
121.7945496075
 10
228.9644634834
 20
121.8156158913
  0
LINE
  5
1FF
330
1F
100
AcDbEntity
  8
0
  6
SLD-Gestrichelt
 62
     7
370
     0
100
AcDbLine
 10
229.624465715
 20
120.9466672492
 30
0.0
 11
229.624465715
 21
121.2267187413
 31
0.0
  0
LWPOLYLINE
  5
200
330
1F
100
AcDbEntity
  8
0
  6
SLD-Gestrichelt
 62
     7
370
     0
100
AcDbPolyline
 90
        4
 70
   128
 43
0.0
 10
229.624465715
 20
120.9466672492
 10
229.5480562857
 20
120.9025521286
 10
229.5673719159
 20
120.9137044836
 10
229.624465715
 20
120.9466672492
  0
LINE
  5
201
330
1F
100
AcDbEntity
  8
0
  6
SLD-Gestrichelt
 62
     7
370
     0
100
AcDbLine
 10
229.624465715
 20
121.2267187413
 30
0.0
 11
229.624465715
 21
120.9466672492
 31
0.0
  0
LINE
  5
202
330
1F
100
AcDbEntity
  8
0
  6
SLD-Gestrichelt
 62
     7
370
     0
100
AcDbLine
 10
229.624465715
 20
122.4767187134
 30
0.0
 11
229.624465715
 21
122.1966672212
 31
0.0
  0
LWPOLYLINE
  5
203
330
1F
100
AcDbEntity
  8
0
  6
SLD-Gestrichelt
 62
     7
370
     0
100
AcDbPolyline
 90
        3
 70
   128
 43
0.0
 10
229.624465715
 20
122.1966672212
 10
229.2619912437
 20
121.9873925194
 10
228.9644634834
 20
121.8156158913
  0
LWPOLYLINE
  5
204
330
1F
100
AcDbEntity
  8
0
  6
SLD-Gestrichelt
 62
     7
370
     0
100
AcDbPolyline
 90
       10
 70
   128
 43
0.0
 10
228.9644634834
 20
121.8156158913
 10
228.9126670471
 20
121.7552927312
 10
228.9048066846
 20
121.7026543793
 10
228.9121306053
 20
121.6694895167
 10
228.9226284734
 20
121.6482183419
 10
228.9285218826
 20
121.6396171123
 10
228.9362034312
 20
121.6303921294
 10
228.9438291005
 20
121.6228225723
 10
228.9527958742
 20
121.6154460319
 10
228.9644634834
 20
121.6077698384
  0
LINE
  5
205
330
1F
100
AcDbEntity
  8
0
  6
SLD-Gestrichelt
 62
     7
370
     0
100
AcDbLine
 10
229.624465715
 20
123.7267189183
 30
0.0
 11
229.624465715
 21
123.4466669605
 31
0.0
  0
LINE
  5
206
330
1F
100
AcDbEntity
  8
0
  6
SLD-Gestrichelt
 62
     7
370
     0
100
AcDbLine
 10
229.624465715
 20
124.9767186575
 30
0.0
 11
229.624465715
 21
124.6966671653
 31
0.0
  0
LWPOLYLINE
  5
207
330
1F
100
AcDbEntity
  8
0
  6
SLD-Gestrichelt
 62
     7
370
     0
100
AcDbPolyline
 90
        3
 70
   128
 43
0.0
 10
228.9644634834
 20
125.3577697546
 10
229.2611977569
 20
125.1864506387
 10
229.624465715
 20
124.9767186575
  0
LINE
  5
208
330
1F
100
AcDbEntity
  8
0
  6
SLD-Gestrichelt
 62
     7
370
     0
100
AcDbLine
 10
229.624465715
 20
126.2267188624
 30
0.0
 11
229.624465715
 21
125.9466673702
 31
0.0
  0
LWPOLYLINE
  5
209
330
1F
100
AcDbEntity
  8
0
  6
SLD-Gestrichelt
 62
     7
370
     0
100
AcDbPolyline
 90
        9
 70
   128
 43
0.0
 10
228.9644634834
 20
125.5656158075
 10
228.9513243845
 20
125.556825985
 10
228.9420186094
 20
125.5488855288
 10
228.932876747
 20
125.5392291107
 10
228.9258359483
 20
125.5300485984
 10
228.9176365844
 20
125.5163548969
 10
228.9088113717
 20
125.4937037349
 10
228.9067065826
 20
125.438609951
 10
228.9644634834
 20
125.3577697546
  0
LWPOLYLINE
  5
20A
330
1F
100
AcDbEntity
  8
0
  6
SLD-Gestrichelt
 62
     7
370
     0
100
AcDbPolyline
 90
        4
 70
   128
 43
0.0
 10
229.624465715
 20
126.2267188624
 10
229.5198297611
 20
126.2871309638
 10
229.5128895453
 20
126.2911375136
 10
229.624465715
 20
126.2267188624
  0
LINE
  5
20B
330
1F
100
AcDbEntity
  8
0
  6
SLD-Gestrichelt
 62
     7
370
     0
100
AcDbLine
 10
228.4744648746
 20
110.6548387081
 30
0.0
 11
228.4744648746
 21
113.9548386902
 31
0.0
  0
LWPOLYLINE
  5
20C
330
1F
100
AcDbEntity
  8
0
  6
SLD-Gestrichelt
 62
     7
370
     0
100
AcDbPolyline
 90
       11
 70
   128
 43
0.0
 10
228.9644634834
 20
114.107770006
 10
228.9126670471
 20
114.1680931662
 10
228.9048066846
 20
114.2207315181
 10
228.9082265011
 20
114.241503504
 10
228.9178079477
 20
114.266685535
 10
228.9276203624
 20
114.2825520121
 10
228.9339086524
 20
114.2904314667
 10
228.9412661007
 20
114.2981688947
 10
228.9481243602
 20
114.3042790693
 10
228.9591027907
 20
114.3123294216
 10
228.9644634834
 20
114.315616059
  0
LWPOLYLINE
  5
20D
330
1F
100
AcDbEntity
  8
0
  6
SLD-Gestrichelt
 62
     7
370
     0
100
AcDbPolyline
 90
        3
 70
   128
 43
0.0
 10
229.624465715
 20
113.7267186761
 10
229.2619912437
 20
113.9359933779
 10
228.9644634834
 20
114.107770006
  0
LINE
  5
20E
330
1F
100
AcDbEntity
  8
0
  6
SLD-Gestrichelt
 62
     7
370
     0
100
AcDbLine
 10
229.624465715
 20
113.446667184
 30
0.0
 11
229.624465715
 21
113.7267186761
 31
0.0
  0
LINE
  5
20F
330
1F
100
AcDbEntity
  8
0
  6
SLD-Gestrichelt
 62
     7
370
     0
100
AcDbLine
 10
229.624465715
 20
112.1966669791
 30
0.0
 11
229.624465715
 21
112.4767189369
 31
0.0
  0
LINE
  5
210
330
1F
100
AcDbEntity
  8
0
  6
SLD-Gestrichelt
 62
     7
370
     0
100
AcDbLine
 10
229.624465715
 20
110.9466672398
 30
0.0
 11
229.624465715
 21
111.226718732
 31
0.0
  0
LWPOLYLINE
  5
211
330
1F
100
AcDbEntity
  8
0
  6
SLD-Gestrichelt
 62
     7
370
     0
100
AcDbPolyline
 90
        3
 70
   128
 43
0.0
 10
228.9644634834
 20
110.5656161428
 10
229.2611977569
 20
110.7369352587
 10
229.624465715
 20
110.9466672398
  0
LWPOLYLINE
  5
212
330
1F
100
AcDbEntity
  8
0
  6
SLD-Gestrichelt
 62
     7
370
     0
100
AcDbPolyline
 90
        9
 70
   128
 43
0.0
 10
228.9644634834
 20
110.3577700898
 10
228.9513243845
 20
110.3665599123
 10
228.9420186094
 20
110.3745003686
 10
228.932876747
 20
110.3841567867
 10
228.9258359483
 20
110.393337299
 10
228.9176365844
 20
110.4070310004
 10
228.9088113717
 20
110.4296821624
 10
228.9067065826
 20
110.4847759463
 10
228.9644634834
 20
110.5656161428
  0
LINE
  5
213
330
1F
100
AcDbEntity
  8
0
  6
SLD-Gestrichelt
 62
     7
370
     0
100
AcDbLine
 10
229.624465715
 20
109.696667035
 30
0.0
 11
229.624465715
 21
109.9767185271
 31
0.0
  0
LINE
  5
214
330
1F
100
AcDbEntity
  8
0
  6
SLD-Gestrichelt
 62
     7
370
     0
100
AcDbLine
 10
229.624465715
 20
114.9767186482
 30
0.0
 11
229.624465715
 21
114.696667156
 31
0.0
  0
LWPOLYLINE
  5
215
330
1F
100
AcDbEntity
  8
0
  6
SLD-Gestrichelt
 62
     7
370
     0
100
AcDbPolyline
 90
        4
 70
   128
 43
0.0
 10
229.624465715
 20
114.9767186482
 10
229.5480562857
 20
115.0208337687
 10
229.5673719159
 20
115.0096814137
 10
229.624465715
 20
114.9767186482
  0
LINE
  5
216
330
1F
100
AcDbEntity
  8
0
  6
SLD-Gestrichelt
 62
     7
370
     0
100
AcDbLine
 10
229.624465715
 20
114.696667156
 30
0.0
 11
229.624465715
 21
114.9767186482
 31
0.0
  0
LINE
  5
217
330
1F
100
AcDbEntity
  8
0
  6
SLD-Gestrichelt
 62
     7
370
     0
100
AcDbLine
 10
229.624465715
 20
113.7267186761
 30
0.0
 11
229.624465715
 21
113.446667184
 31
0.0
  0
LWPOLYLINE
  5
218
330
1F
100
AcDbEntity
  8
0
  6
SLD-Gestrichelt
 62
     7
370
     0
100
AcDbPolyline
 90
        3
 70
   128
 43
0.0
 10
228.9644634834
 20
114.107770006
 10
229.2564033082
 20
113.939219945
 10
229.624465715
 20
113.7267186761
  0
LWPOLYLINE
  5
219
330
1F
100
AcDbEntity
  8
0
  6
SLD-Gestrichelt
 62
     7
370
     0
100
AcDbPolyline
 90
       10
 70
   128
 43
0.0
 10
228.9644634834
 20
114.315616059
 10
228.9528629294
 20
114.3079894584
 10
228.9450137428
 20
114.3016241014
 10
228.9368181041
 20
114.2936584995
 10
228.930246692
 20
114.2860090815
 10
228.9231872669
 20
114.2760606937
 10
228.9147122315
 20
114.2602126103
 10
228.9047768823
 20
114.2203385
 10
228.9376600197
 20
114.1288362898
 10
228.9644634834
 20
114.107770006
  0
LINE
  5
21A
330
1F
100
AcDbEntity
  8
0
  6
SLD-Gestrichelt
 62
     7
370
     0
100
AcDbLine
 10
229.624465715
 20
112.4767189369
 30
0.0
 11
229.624465715
 21
112.1966669791
 31
0.0
  0
LINE
  5
21B
330
1F
100
AcDbEntity
  8
0
  6
SLD-Gestrichelt
 62
     7
370
     0
100
AcDbLine
 10
229.624465715
 20
111.226718732
 30
0.0
 11
229.624465715
 21
110.9466672398
 31
0.0
  0
LWPOLYLINE
  5
21C
330
1F
100
AcDbEntity
  8
0
  6
SLD-Gestrichelt
 62
     7
370
     0
100
AcDbPolyline
 90
        3
 70
   128
 43
0.0
 10
229.624465715
 20
110.9466672398
 10
229.2659065238
 20
110.7396542549
 10
228.9644634834
 20
110.5656161428
  0
LINE
  5
21D
330
1F
100
AcDbEntity
  8
0
  6
SLD-Gestrichelt
 62
     7
370
     0
100
AcDbLine
 10
229.624465715
 20
109.9767185271
 30
0.0
 11
229.624465715
 21
109.696667035
 31
0.0
  0
LWPOLYLINE
  5
21E
330
1F
100
AcDbEntity
  8
0
  6
SLD-Gestrichelt
 62
     7
370
     0
100
AcDbPolyline
 90
       11
 70
   128
 43
0.0
 10
228.9644634834
 20
110.5656161428
 10
228.9099215082
 20
110.4974624224
 10
228.904594343
 20
110.4560851574
 10
228.9092323295
 20
110.4282064818
 10
228.91616882
 20
110.4100019195
 10
228.9238764456
 20
110.3962551326
 10
228.9314238838
 20
110.3859090701
 10
228.9406514278
 20
110.3758144647
 10
228.9490929357
 20
110.3683168523
 10
228.962507706
 20
110.3589249298
 10
228.9644634834
 20
110.3577700898
  0
LWPOLYLINE
  5
21F
330
1F
100
AcDbEntity
  8
0
  6
SLD-Gestrichelt
 62
     7
370
     0
100
AcDbPolyline
 90
        4
 70
   128
 43
0.0
 10
229.624465715
 20
109.696667035
 10
229.5198297611
 20
109.6362549335
 10
229.5128895453
 20
109.6322483838
 10
229.624465715
 20
109.696667035
  0
LINE
  5
220
330
1F
100
AcDbEntity
  8
0
  6
SLD-Gestrichelt
 62
     7
370
     0
100
AcDbLine
 10
150.3244644514
 20
130.5803203479
 30
0.0
 11
150.3244644514
 21
114.6028471168
 31
0.0
  0
LINE
  5
221
330
1F
100
AcDbEntity
  8
0
  6
SLD-Gestrichelt
 62
     7
370
     0
100
AcDbLine
 10
151.824463766
 20
131.3303200052
 30
0.0
 11
151.824463766
 21
114.6028471168
 31
0.0
  0
LINE
  5
222
330
1F
100
AcDbEntity
  8
0
  6
SLD-Gestrichelt
 62
     7
370
     0
100
AcDbLine
 10
172.6244646375
 20
131.7828775838
 30
0.0
 11
172.6244646375
 21
114.6028471168
 31
0.0
  0
LINE
  5
223
330
1F
100
AcDbEntity
  8
0
  6
SLD-Gestrichelt
 62
     7
370
     0
100
AcDbLine
 10
218.3244644216
 20
121.9685472071
 30
0.0
 11
218.3244644216
 21
125.2685471893
 31
0.0
  0
LINE
  5
224
330
1F
100
AcDbEntity
  8
0
  6
SLD-Gestrichelt
 62
     7
370
     0
100
AcDbLine
 10
218.3244644216
 20
110.6548387081
 30
0.0
 11
218.3244644216
 21
113.9548386902
 31
0.0
  0
LINE
  5
225
330
1F
100
AcDbEntity
  8
0
  6
SLD-Gestrichelt
 62
     7
370
     0
100
AcDbLine
 10
174.1244646651
 20
130.9313926369
 30
0.0
 11
174.1244646651
 21
116.2446980354
 31
0.0
  0
LINE
  5
226
330
1F
100
AcDbEntity
  8
0
  6
SLD-Gestrichelt
 62
     7
370
     0
100
AcDbLine
 10
150.3244644514
 20
114.6028471168
 30
0.0
 11
150.3244644514
 21
108.7019111485
 31
0.0
  0
LINE
  5
227
330
1F
100
AcDbEntity
  8
0
  6
SLD-Gestrichelt
 62
     7
370
     0
100
AcDbLine
 10
151.824463766
 20
114.6028471168
 30
0.0
 11
151.824463766
 21
107.9519114912
 31
0.0
  0
LINE
  5
228
330
1F
100
AcDbEntity
  8
0
  6
SLD-Gestrichelt
 62
     7
370
     0
100
AcDbLine
 10
172.6244646375
 20
108.223852095
 30
0.0
 11
172.6244646375
 21
107.4993539125
 31
0.0
  0
LINE
  5
229
330
1F
100
AcDbEntity
  8
0
  6
SLD-Gestrichelt
 62
     7
370
     0
100
AcDbLine
 10
172.8294246382
 20
108.3282719821
 30
0.0
 11
173.0031443544
 21
107.8022861377
 31
0.0
  0
LWPOLYLINE
  5
22A
330
1F
100
AcDbEntity
  8
0
  6
SLD-Gestrichelt
 62
     7
370
     0
100
AcDbPolyline
 90
       13
 70
   128
 43
0.0
 10
172.6244646375
 20
108.223852095
 10
172.6315870433
 20
108.4247393057
 10
172.6479408349
 20
108.5644507304
 10
172.6596578042
 20
108.613681373
 10
172.6697902445
 20
108.6391446635
 10
172.6756555977
 20
108.6485584721
 10
172.6803592424
 20
108.6537645653
 10
172.6855027041
 20
108.6573445693
 10
172.6910184621
 20
108.6589883536
 10
172.6987638063
 20
108.6578987062
 10
172.7158531098
 20
108.6437863753
 10
172.7640033019
 20
108.5441162333
 10
172.8294246382
 20
108.3282719821
  0
ARC
  5
22B
330
1F
100
AcDbEntity
  8
0
  6
SLD-Gestrichelt
 62
     7
370
     0
100
AcDbCircle
 10
185.3138196694
 20
110.7753348526
 30
0.0
 40
12.94333015060985
100
AcDbArc
 50
168.6309829651
 51
191.3690170349
  0
LWPOLYLINE
  5
22C
330
1F
100
AcDbEntity
  8
0
  6
SLD-Gestrichelt
 62
     7
370
     0
100
AcDbPolyline
 90
       15
 70
   128
 43
0.0
 10
172.8294246382
 20
113.4317432054
 10
172.7544004348
 20
113.0437188305
 10
172.729000125
 20
112.9478000559
 10
172.7182005084
 20
112.9151837424
 10
172.7092884498
 20
112.8927765869
 10
172.6977319008
 20
112.8708527878
 10
172.6921890181
 20
112.8636382975
 10
172.6856912969
 20
112.8583204456
 10
172.6809280476
 20
112.8568261385
 10
172.6764716691
 20
112.8574855149
 10
172.6707935118
 20
112.8615619138
 10
172.6627844869
 20
112.8745361686
 10
172.6466764481
 20
112.936423485
 10
172.626181065
 20
113.2104595647
 10
172.6244646375
 20
113.3268176101
  0
LINE
  5
22D
330
1F
100
AcDbEntity
  8
0
  6
SLD-Gestrichelt
 62
     7
370
     0
100
AcDbLine
 10
172.6244646375
 20
114.6028471168
 30
0.0
 11
172.6244646375
 21
113.3268176101
 31
0.0
  0
LINE
  5
22E
330
1F
100
AcDbEntity
  8
0
  6
SLD-Gestrichelt
 62
     7
370
     0
100
AcDbLine
 10
173.0031443544
 20
114.3347931549
 30
0.0
 11
172.8294246382
 21
113.4317432054
 31
0.0
  0
LINE
  5
22F
330
1F
100
AcDbEntity
  8
0
  6
SLD-Gestrichelt
 62
     7
370
     0
100
AcDbLine
 10
174.32446466
 20
102.1616937116
 30
0.0
 11
174.4173578804
 21
102.2545856878
 31
0.0
  0
LINE
  5
230
330
1F
100
AcDbEntity
  8
0
  6
SLD-Gestrichelt
 62
     7
370
     0
100
AcDbLine
 10
174.4173578804
 20
133.6688002095
 30
0.0
 11
174.32446466
 21
133.7616921857
 31
0.0
  0
ARC
  5
231
330
1F
100
AcDbEntity
  8
0
  6
SLD-Gestrichelt
 62
     7
370
     0
100
AcDbCircle
 10
173.7102510976
 20
102.9616929487
 30
0.0
 40
1.0
100
AcDbArc
 50
315.0
 51
0.0
  0
ARC
  5
232
330
1F
100
AcDbEntity
  8
0
  6
SLD-Gestrichelt
 62
     7
370
     0
100
AcDbCircle
 10
173.7102510976
 20
102.9616929487
 30
0.0
 40
1.000000000000021
100
AcDbArc
 50
0.0
 51
52.1052014664
  0
ARC
  5
233
330
1F
100
AcDbEntity
  8
0
  6
SLD-Gestrichelt
 62
     7
370
     0
100
AcDbCircle
 10
173.7102510976
 20
132.9616929487
 30
0.0
 40
0.9999999999999998
100
AcDbArc
 50
343.125
 51
45.0
  0
ARC
  5
234
330
1F
100
AcDbEntity
  8
0
  6
SLD-Gestrichelt
 62
     7
370
     0
100
AcDbCircle
 10
173.7102510976
 20
132.9616929487
 30
0.0
 40
0.9999999999999998
100
AcDbArc
 50
307.8947985336
 51
343.125
  0
LINE
  5
235
330
1F
100
AcDbEntity
  8
0
  6
SLD-Gestrichelt
 62
     7
370
     0
100
AcDbLine
 10
174.7102510958
 20
102.9616932839
 30
0.0
 11
174.7102510958
 21
132.9616926134
 31
0.0
  0
LINE
  5
236
330
1F
100
AcDbEntity
  8
0
  6
SLD-Gestrichelt
 62
     7
370
     0
100
AcDbLine
 10
174.7102510958
 20
102.9616932839
 30
0.0
 11
174.7102510958
 21
132.9616926134
 31
0.0
  0
LINE
  5
237
330
1F
100
AcDbEntity
  8
0
  6
SLD-Gestrichelt
 62
     7
370
     0
100
AcDbLine
 10
150.3244644514
 20
107.8060421616
 30
0.0
 11
151.3514971844
 21
108.3989994124
 31
0.0
  0
LINE
  5
238
330
1F
100
AcDbEntity
  8
0
  6
SLD-Gestrichelt
 62
     7
370
     0
100
AcDbLine
 10
151.3514971844
 20
127.524386485
 30
0.0
 11
150.3244644514
 21
128.1173437357
 31
0.0
  0
LINE
  5
239
330
1F
100
AcDbEntity
  8
0
  6
SLD-Gestrichelt
 62
     7
370
     0
100
AcDbLine
 10
155.8244644216
 20
107.9616931722
 30
0.0
 11
156.8372833094
 21
107.9616931722
 31
0.0
  0
LINE
  5
23A
330
1F
100
AcDbEntity
  8
0
  6
SLD-Gestrichelt
 62
     7
370
     0
100
AcDbLine
 10
156.8372833094
 20
127.9616927252
 30
0.0
 11
155.8244644216
 21
127.9616927252
 31
0.0
  0
ARC
  5
23B
330
1F
100
AcDbEntity
  8
0
  6
SLD-Gestrichelt
 62
     7
370
     0
100
AcDbCircle
 10
156.8372831297
 20
108.9616929487
 30
0.0
 40
1.000000000000008
100
AcDbArc
 50
270.0
 51
315.0
  0
ARC
  5
23C
330
1F
100
AcDbEntity
  8
0
  6
SLD-Gestrichelt
 62
     7
370
     0
100
AcDbCircle
 10
156.8372831297
 20
126.9616929487
 30
0.0
 40
1.0
100
AcDbArc
 50
45.0
 51
90.0
  0
ARC
  5
23D
330
1F
100
AcDbEntity
  8
0
  6
SLD-Gestrichelt
 62
     7
370
     0
100
AcDbCircle
 10
155.82446466
 20
108.9616929487
 30
0.0
 40
1.000000000000004
100
AcDbArc
 50
193.3524261238
 51
270.0
  0
ARC
  5
23E
330
1F
100
AcDbEntity
  8
0
  6
SLD-Gestrichelt
 62
     7
370
     0
100
AcDbCircle
 10
155.82446466
 20
126.9616929487
 30
0.0
 40
1.000000000000004
100
AcDbArc
 50
90.0
 51
166.6475738762
  0
LINE
  5
23F
330
1F
100
AcDbEntity
  8
0
  6
SLD-Gestrichelt
 62
     7
370
     0
100
AcDbLine
 10
157.5443899742
 20
108.25458574
 30
0.0
 11
158.251496639
 21
108.9616933361
 31
0.0
  0
LINE
  5
240
330
1F
100
AcDbEntity
  8
0
  6
SLD-Gestrichelt
 62
     7
370
     0
100
AcDbLine
 10
158.251496639
 20
126.9616925612
 30
0.0
 11
157.5443899742
 21
127.6688001573
 31
0.0
  0
LINE
  5
241
330
1F
100
AcDbEntity
  8
0
  6
SLD-Gestrichelt
 62
     7
370
     0
100
AcDbLine
 10
151.3514971844
 20
108.3989994124
 30
0.0
 11
153.4514973423
 21
108.9616933361
 31
0.0
  0
LINE
  5
242
330
1F
100
AcDbEntity
  8
0
  6
SLD-Gestrichelt
 62
     7
370
     0
100
AcDbLine
 10
153.4514973423
 20
126.9616925612
 30
0.0
 11
151.3514971844
 21
127.524386485
 31
0.0
  0
LINE
  5
243
330
1F
100
AcDbEntity
  8
0
  6
SLD-Gestrichelt
 62
     7
370
     0
100
AcDbLine
 10
154.8514968267
 20
127.1926326201
 30
0.0
 11
154.4514975062
 21
126.9616925612
 31
0.0
  0
LINE
  5
244
330
1F
100
AcDbEntity
  8
0
  6
SLD-Gestrichelt
 62
     7
370
     0
100
AcDbLine
 10
154.4514975062
 20
108.9616933361
 30
0.0
 11
154.8514968267
 21
108.7307532773
 31
0.0
  0
LINE
  5
245
330
1F
100
AcDbEntity
  8
0
  6
SLD-Gestrichelt
 62
     7
370
     0
100
AcDbLine
 10
153.4514973423
 20
108.9616933361
 30
0.0
 11
154.4514975062
 21
108.9616933361
 31
0.0
  0
LINE
  5
246
330
1F
100
AcDbEntity
  8
0
  6
SLD-Gestrichelt
 62
     7
370
     0
100
AcDbLine
 10
154.4514975062
 20
126.9616925612
 30
0.0
 11
153.4514973423
 21
126.9616925612
 31
0.0
  0
ARC
  5
247
330
1F
100
AcDbEntity
  8
0
  6
SLD-Gestrichelt
 62
     7
370
     0
100
AcDbCircle
 10
164.82446466
 20
109.4616929487
 30
0.0
 40
0.5000000000000145
100
AcDbArc
 50
305.4878521107
 51
0.0
  0
ARC
  5
248
330
1F
100
AcDbEntity
  8
0
  6
SLD-Gestrichelt
 62
     7
370
     0
100
AcDbCircle
 10
164.82446466
 20
126.4616929487
 30
0.0
 40
0.5000000000000145
100
AcDbArc
 50
0.0
 51
54.5148009417
  0
LINE
  5
249
330
1F
100
AcDbEntity
  8
0
  6
SLD-Gestrichelt
 62
     7
370
     0
100
AcDbLine
 10
158.251496639
 20
108.9616933361
 30
0.0
 11
160.5434824264
 21
108.9616933361
 31
0.0
  0
LINE
  5
24A
330
1F
100
AcDbEntity
  8
0
  6
SLD-Gestrichelt
 62
     7
370
     0
100
AcDbLine
 10
160.5434824264
 20
126.9616925612
 30
0.0
 11
158.251496639
 21
126.9616925612
 31
0.0
  0
LINE
  5
24B
330
1F
100
AcDbEntity
  8
0
  6
SLD-Gestrichelt
 62
     7
370
     0
100
AcDbLine
 10
229.5056103281
 20
126.2996907801
 30
0.0
 11
228.4744648746
 21
125.2685471893
 31
0.0
  0
LINE
  5
24C
330
1F
100
AcDbEntity
  8
0
  6
SLD-Gestrichelt
 62
     7
370
     0
100
AcDbLine
 10
228.4744648746
 20
121.9685472071
 30
0.0
 11
229.5455156377
 21
120.8974971425
 31
0.0
  0
LINE
  5
24D
330
1F
100
AcDbEntity
  8
0
  6
SLD-Gestrichelt
 62
     7
370
     0
100
AcDbLine
 10
229.5455156377
 20
115.0258887548
 30
0.0
 11
228.4744648746
 21
113.9548386902
 31
0.0
  0
LINE
  5
24E
330
1F
100
AcDbEntity
  8
0
  6
SLD-Gestrichelt
 62
     7
370
     0
100
AcDbLine
 10
228.4744648746
 20
110.6548387081
 30
0.0
 11
229.5056103281
 21
109.6236951173
 31
0.0
  0
LINE
  5
24F
330
1F
100
AcDbEntity
  8
0
  6
SLD-Gestrichelt
 62
     7
370
     0
100
AcDbLine
 10
228.4744648746
 20
125.2685471893
 30
0.0
 11
218.3244644216
 21
125.2685471893
 31
0.0
  0
LINE
  5
250
330
1F
100
AcDbEntity
  8
0
  6
SLD-Gestrichelt
 62
     7
370
     0
100
AcDbLine
 10
218.3244644216
 20
121.9685472071
 30
0.0
 11
228.4744648746
 21
121.9685472071
 31
0.0
  0
LINE
  5
251
330
1F
100
AcDbEntity
  8
0
  6
SLD-Gestrichelt
 62
     7
370
     0
100
AcDbLine
 10
218.3244644216
 20
125.2685471893
 30
0.0
 11
217.3330454639
 21
123.6185471982
 31
0.0
  0
LINE
  5
252
330
1F
100
AcDbEntity
  8
0
  6
SLD-Gestrichelt
 62
     7
370
     0
100
AcDbLine
 10
217.3330454639
 20
123.6185471982
 30
0.0
 11
218.3244644216
 21
121.9685472071
 31
0.0
  0
LINE
  5
253
330
1F
100
AcDbEntity
  8
0
  6
SLD-Gestrichelt
 62
     7
370
     0
100
AcDbLine
 10
228.4744648746
 20
113.9548386902
 30
0.0
 11
218.3244644216
 21
113.9548386902
 31
0.0
  0
LINE
  5
254
330
1F
100
AcDbEntity
  8
0
  6
SLD-Gestrichelt
 62
     7
370
     0
100
AcDbLine
 10
218.3244644216
 20
110.6548387081
 30
0.0
 11
228.4744648746
 21
110.6548387081
 31
0.0
  0
LINE
  5
255
330
1F
100
AcDbEntity
  8
0
  6
SLD-Gestrichelt
 62
     7
370
     0
100
AcDbLine
 10
218.3244644216
 20
113.9548386902
 30
0.0
 11
217.3330454639
 21
112.3048386991
 31
0.0
  0
LINE
  5
256
330
1F
100
AcDbEntity
  8
0
  6
SLD-Gestrichelt
 62
     7
370
     0
100
AcDbLine
 10
217.3330454639
 20
112.3048386991
 30
0.0
 11
218.3244644216
 21
110.6548387081
 31
0.0
  0
LINE
  5
257
330
1F
100
AcDbEntity
  8
0
  6
SLD-Gestrichelt
 62
     7
370
     0
100
AcDbLine
 10
165.3244650475
 20
110.8116929874
 30
0.0
 11
166.2244644499
 21
111.7116928555
 31
0.0
  0
LINE
  5
258
330
1F
100
AcDbEntity
  8
0
  6
SLD-Gestrichelt
 62
     7
370
     0
100
AcDbLine
 10
166.2244644499
 20
124.2116930418
 30
0.0
 11
165.3244650475
 21
125.1116929099
 31
0.0
  0
LINE
  5
259
330
1F
100
AcDbEntity
  8
0
  6
SLD-Gestrichelt
 62
     7
370
     0
100
AcDbLine
 10
185.3244646004
 20
111.7116928555
 30
0.0
 11
187.0369172207
 21
114.5616929036
 31
0.0
  0
LINE
  5
25A
330
1F
100
AcDbEntity
  8
0
  6
SLD-Gestrichelt
 62
     7
370
     0
100
AcDbLine
 10
187.0369172207
 20
121.3616929937
 30
0.0
 11
185.3244646004
 21
124.2116930418
 31
0.0
  0
LINE
  5
25B
330
1F
100
AcDbEntity
  8
0
  6
SLD-Gestrichelt
 62
     7
370
     0
100
AcDbLine
 10
166.2244644499
 20
111.7116928555
 30
0.0
 11
185.3244646004
 21
111.7116928555
 31
0.0
  0
LINE
  5
25C
330
1F
100
AcDbEntity
  8
0
  6
SLD-Gestrichelt
 62
     7
370
     0
100
AcDbLine
 10
185.3244646004
 20
124.2116930418
 30
0.0
 11
166.2244644499
 21
124.2116930418
 31
0.0
  0
LINE
  5
25D
330
1F
100
AcDbEntity
  8
0
  6
SLD-Gestrichelt
 62
     7
370
     0
100
AcDbLine
 10
229.4484979025
 20
122.5857248985
 30
0.0
 11
228.8244633487
 21
121.9616931387
 31
0.0
  0
LINE
  5
25E
330
1F
100
AcDbEntity
  8
0
  6
SLD-Gestrichelt
 62
     7
370
     0
100
AcDbLine
 10
228.8244633487
 20
113.9616927587
 30
0.0
 11
229.4484979025
 21
113.3376609989
 31
0.0
  0
LINE
  5
25F
330
1F
100
AcDbEntity
  8
0
  6
SLD-Gestrichelt
 62
     7
370
     0
100
AcDbLine
 10
227.2744631878
 20
121.6616929498
 30
0.0
 11
225.7744638732
 21
121.6616929498
 31
0.0
  0
LINE
  5
260
330
1F
100
AcDbEntity
  8
0
  6
SLD-Gestrichelt
 62
     7
370
     0
100
AcDbLine
 10
225.7744638732
 20
114.2616929476
 30
0.0
 11
227.2744631878
 21
114.2616929476
 31
0.0
  0
LINE
  5
261
330
1F
100
AcDbEntity
  8
0
  6
SLD-Gestrichelt
 62
     7
370
     0
100
AcDbLine
 10
223.3244633785
 20
121.3616929937
 30
0.0
 11
187.0369172207
 21
121.3616929937
 31
0.0
  0
LINE
  5
262
330
1F
100
AcDbEntity
  8
0
  6
SLD-Gestrichelt
 62
     7
370
     0
100
AcDbLine
 10
187.0369172207
 20
114.5616929036
 30
0.0
 11
223.3244633785
 21
114.5616929036
 31
0.0
  0
LINE
  5
263
330
1F
100
AcDbEntity
  8
0
  6
SLD-Gestrichelt
 62
     7
370
     0
100
AcDbLine
 10
223.3244633785
 20
114.5616929036
 30
0.0
 11
223.5648079327
 21
114.9616929226
 31
0.0
  0
LINE
  5
264
330
1F
100
AcDbEntity
  8
0
  6
SLD-Gestrichelt
 62
     7
370
     0
100
AcDbLine
 10
223.5648079327
 20
120.9616929747
 30
0.0
 11
223.3244633785
 21
121.3616929937
 31
0.0
  0
LINE
  5
265
330
1F
100
AcDbEntity
  8
0
  6
SLD-Gestrichelt
 62
     7
370
     0
100
AcDbLine
 10
228.8244633487
 20
121.2616929308
 30
0.0
 11
228.304848682
 21
120.9616929747
 31
0.0
  0
LINE
  5
266
330
1F
100
AcDbEntity
  8
0
  6
SLD-Gestrichelt
 62
     7
370
     0
100
AcDbLine
 10
228.304848682
 20
114.9616929226
 30
0.0
 11
228.8244633487
 21
114.6616929666
 31
0.0
  0
LINE
  5
267
330
1F
100
AcDbEntity
  8
0
  6
SLD-Gestrichelt
 62
     7
370
     0
100
AcDbLine
 10
228.304848682
 20
120.9616929747
 30
0.0
 11
227.2744631878
 21
120.9616929747
 31
0.0
  0
LINE
  5
268
330
1F
100
AcDbEntity
  8
0
  6
SLD-Gestrichelt
 62
     7
370
     0
100
AcDbLine
 10
227.2744631878
 20
114.9616929226
 30
0.0
 11
228.304848682
 21
114.9616929226
 31
0.0
  0
LINE
  5
269
330
1F
100
AcDbEntity
  8
0
  6
SLD-Gestrichelt
 62
     7
370
     0
100
AcDbLine
 10
225.7744638732
 20
120.9616929747
 30
0.0
 11
223.5648079327
 21
120.9616929747
 31
0.0
  0
LINE
  5
26A
330
1F
100
AcDbEntity
  8
0
  6
SLD-Gestrichelt
 62
     7
370
     0
100
AcDbLine
 10
223.5648079327
 20
114.9616929226
 30
0.0
 11
225.7744638732
 21
114.9616929226
 31
0.0
  0
LINE
  5
26B
330
1F
100
AcDbEntity
  8
0
  6
SLD-Gestrichelt
 62
     7
370
     0
100
AcDbLine
 10
165.5140022299
 20
105.0304326684
 30
0.0
 11
165.1244644559
 21
105.4199704424
 31
0.0
  0
LINE
  5
26C
330
1F
100
AcDbEntity
  8
0
  6
SLD-Gestrichelt
 62
     7
370
     0
100
AcDbLine
 10
160.5244648195
 20
105.4199704424
 30
0.0
 11
160.2756973839
 21
105.1712030068
 31
0.0
  0
LINE
  5
26D
330
1F
100
AcDbEntity
  8
0
  6
SLD-Gestrichelt
 62
     7
370
     0
100
AcDbLine
 10
156.2304093054
 20
105.2557484702
 30
0.0
 11
154.5244647673
 21
106.9616930083
 31
0.0
  0
LINE
  5
26E
330
1F
100
AcDbEntity
  8
0
  6
SLD-Gestrichelt
 62
     7
370
     0
100
AcDbLine
 10
154.5244647673
 20
106.9616930083
 30
0.0
 11
150.3244644514
 21
106.9616930083
 31
0.0
  0
LINE
  5
26F
330
1F
100
AcDbEntity
  8
0
  6
SLD-Gestrichelt
 62
     7
370
     0
100
AcDbLine
 10
165.1244644559
 20
128.9616928891
 30
0.0
 11
162.8244646377
 21
130.343672213
 31
0.0
  0
LINE
  5
270
330
1F
100
AcDbEntity
  8
0
  6
SLD-Gestrichelt
 62
     7
370
     0
100
AcDbLine
 10
162.8244646377
 20
130.343672213
 30
0.0
 11
160.5244648195
 21
128.9616928891
 31
0.0
  0
LINE
  5
271
330
1F
100
AcDbEntity
  8
0
  6
SLD-Gestrichelt
 62
     7
370
     0
100
AcDbLine
 10
165.1244644559
 20
126.8657365337
 30
0.0
 11
165.1244644559
 21
128.9616928891
 31
0.0
  0
LINE
  5
272
330
1F
100
AcDbEntity
  8
0
  6
SLD-Gestrichelt
 62
     7
370
     0
100
AcDbLine
 10
160.5244648195
 20
128.9616928891
 30
0.0
 11
160.5244648195
 21
126.9569577173
 31
0.0
  0
LINE
  5
273
330
1F
100
AcDbEntity
  8
0
  6
SLD-Gestrichelt
 62
     7
370
     0
100
AcDbLine
 10
165.1244644559
 20
105.4199704424
 30
0.0
 11
165.1244644559
 21
109.0576493636
 31
0.0
  0
LINE
  5
274
330
1F
100
AcDbEntity
  8
0
  6
SLD-Gestrichelt
 62
     7
370
     0
100
AcDbLine
 10
160.5244648195
 20
108.9664281801
 30
0.0
 11
160.5244648195
 21
105.4199704424
 31
0.0
  0
LINE
  5
275
330
1F
100
AcDbEntity
  8
0
  6
SLD-Gestrichelt
 62
     7
370
     0
100
AcDbLine
 10
188.3244650922
 20
98.4616925463
 30
0.0
 11
186.3244647643
 21
99.6634134546
 31
0.0
  0
LINE
  5
276
330
1F
100
AcDbEntity
  8
0
  6
SLD-Gestrichelt
 62
     7
370
     0
100
AcDbLine
 10
186.3244647643
 20
99.6634134546
 30
0.0
 11
184.3244644365
 21
98.4616925463
 31
0.0
  0
LINE
  5
277
330
1F
100
AcDbEntity
  8
0
  6
SLD-Gestrichelt
 62
     7
370
     0
100
AcDbLine
 10
184.3244644365
 20
98.4616925463
 30
0.0
 11
184.3244644365
 21
97.9616933957
 31
0.0
  0
LINE
  5
278
330
1F
100
AcDbEntity
  8
0
  6
SLD-Gestrichelt
 62
     7
370
     0
100
AcDbLine
 10
188.3244650922
 20
97.9616933957
 30
0.0
 11
188.3244650922
 21
98.4616925463
 31
0.0
  0
LINE
  5
279
330
1F
100
AcDbEntity
  8
VERMASSUNG
  6
SLD-Punktstrich
100
AcDbLine
 10
144.9003225701
 20
117.9616929487
 30
0.0
 11
264.32446466
 21
117.9616929487
 31
0.0
  0
LINE
  5
27A
330
1F
100
AcDbEntity
  8
VERMASSUNG
  6
SLD-Punktstrich
100
AcDbLine
 10
264.32446466
 20
140.9071416731
 30
0.0
 11
264.32446466
 21
117.9616929487
 31
0.0
  0
LINE
  5
27B
330
1F
100
AcDbEntity
  8
VERMASSUNG
  6
SLD-Punktstrich
100
AcDbLine
 10
229.32446466
 20
135.2326077063
 30
0.0
 11
229.32446466
 21
99.8763760489
 31
0.0
  0
DIMENSION
  5
27C
330
1F
100
AcDbEntity
  8
VERMASSUNG
100
AcDbDimension
  2
_D
 10
264.32446466
 20
147.9616929487
 30
0.0
 11
219.32446466
 21
147.9616929487
 31
0.0
 70
   160
  1
<>
 71
     2
 42
-1.0
  3
SLDDIMSTYLE0
100
AcDbAlignedDimension
 13
174.32446466
 23
137.6616929487
 33
0.0
 14
264.32446466
 24
140.9071416731
 34
0.0
100
AcDbRotatedDimension
  0
DIMENSION
  5
287
330
1F
100
AcDbEntity
  8
VERMASSUNG
100
AcDbDimension
  2
_D_1
 10
229.32446466
 20
142.9101078777
 30
0.0
 11
201.82446466
 21
142.9101078777
 31
0.0
 70
   160
  1
<>
 71
     2
 42
-1.0
  3
SLDDIMSTYLE0
100
AcDbAlignedDimension
 13
174.32446466
 23
137.6616929487
 33
0.0
 14
229.32446466
 24
135.2326077063
 34
0.0
100
AcDbRotatedDimension
  0
DIMENSION
  5
291
330
1F
100
AcDbEntity
  8
VERMASSUNG
100
AcDbDimension
  2
_D_2
 10
233.7087872547
 20
125.6185471982
 30
0.0
 11
233.7087872547
 21
134.2726943242
 31
0.0
 70
   160
  1
M<>
 71
     2
 42
-1.0
  3
SLDDIMSTYLE1
100
AcDbAlignedDimension
 13
234.62446466
 23
121.6185471982
 33
0.0
 14
234.62446466
 24
125.6185471982
 34
0.0
 50
90.0
100
AcDbRotatedDimension
  0
DIMENSION
  5
29D
330
1F
100
AcDbEntity
  8
VERMASSUNG
100
AcDbDimension
  2
_D_3
 10
196.32446466
 20
132.4616929487
 30
0.0
 11
199.9204060208
 21
136.0576343094
 31
0.0
 70
   164
  1
<>
 71
     1
 42
-1.0
  3
SLDDIMSTYLE2
100
AcDbRadialDimension
 15
194.9102510976
 25
131.0474793863
 35
0.0
 40
0.0
  0
DIMENSION
  5
2A5
330
1F
100
AcDbEntity
  8
VERMASSUNG
100
AcDbDimension
  2
_D_4
 10
138.7401305309
 20
137.9616929487
 30
0.0
 11
138.7401305309
 21
117.9616929487
 31
0.0
 70
   160
  1
PSC %%c<>
 71
     2
 42
-1.0
  3
SLDDIMSTYLE0
100
AcDbAlignedDimension
 13
174.62446466
 23
97.9616929487
 33
0.0
 14
174.62446466
 24
137.9616929487
 34
0.0
 50
90.0
100
AcDbRotatedDimension
  0
DIMENSION
  5
2B1
330
1F
100
AcDbEntity
  8
VERMASSUNG
100
AcDbDimension
  2
_D_5
 10
212.6334346143
 20
130.4616929487
 30
0.0
 11
212.6334346143
 21
137.0887290477
 31
0.0
 70
   160
  1
%%c<>
 71
     2
 42
-1.0
  3
SLDDIMSTYLE1
100
AcDbAlignedDimension
 13
228.82446466
 23
105.4616929487
 33
0.0
 14
228.82446466
 24
130.4616929487
 34
0.0
 50
90.0
100
AcDbRotatedDimension
  0
LINE
  5
2BC
330
1F
100
AcDbEntity
  8
VERMASSUNG
  6
SLD-Punktstrich
370
     0
100
AcDbLine
 10
214.0707942485
 20
123.6185471982
 30
0.0
 11
243.75760031
 21
123.6185471982
 31
0.0
  0
LINE
  5
2BD
330
1F
100
AcDbEntity
  8
VERMASSUNG
  6
SLD-Punktstrich
370
     0
100
AcDbLine
 10
215.7602872764
 20
112.3048386992
 30
0.0
 11
244.7230248974
 21
112.3048386992
 31
0.0
  0
LINE
  5
2BE
330
1F
100
AcDbEntity
  8
0
  6
SLD-Durchgehend
 62
     7
370
    15
100
AcDbLine
 10
93.2835404709
 20
110.8402147413
 30
0.0
 11
94.0523025528
 21
112.437927489
 31
0.0
  0
LINE
  5
2BF
330
1F
100
AcDbEntity
  8
0
  6
SLD-Durchgehend
 62
     7
370
    15
100
AcDbLine
 10
94.0523025528
 20
112.437927489
 30
0.0
 11
93.0530241639
 21
113.9025509812
 31
0.0
  0
LINE
  5
2C0
330
1F
100
AcDbEntity
  8
0
  6
SLD-Durchgehend
 62
     7
370
    15
100
AcDbLine
 10
91.2849836931
 20
113.769462657
 30
0.0
 11
93.0530241639
 21
113.9025509812
 31
0.0
  0
LINE
  5
2C1
330
1F
100
AcDbEntity
  8
0
  6
SLD-Durchgehend
 62
     7
370
    15
100
AcDbLine
 10
90.5162213784
 20
112.1717499093
 30
0.0
 11
91.2849836931
 21
113.769462657
 31
0.0
  0
LINE
  5
2C2
330
1F
100
AcDbEntity
  8
0
  6
SLD-Durchgehend
 62
     7
370
    15
100
AcDbLine
 10
90.5162213784
 20
112.1717499093
 30
0.0
 11
91.5155000001
 21
110.707126417
 31
0.0
  0
LINE
  5
2C3
330
1F
100
AcDbEntity
  8
0
  6
SLD-Durchgehend
 62
     7
370
    15
100
AcDbLine
 10
93.2835404709
 20
110.8402147413
 30
0.0
 11
91.5155000001
 21
110.707126417
 31
0.0
  0
CIRCLE
  5
2C4
330
1F
100
AcDbEntity
  8
0
  6
SLD-Durchgehend
 62
     7
370
    15
100
AcDbCircle
 10
92.284262082
 20
112.3048386992
 30
0.0
 40
3.500000000000012
  0
ARC
  5
2C5
330
1F
100
AcDbEntity
  8
0
  6
SLD-Durchgehend
 62
     7
370
    15
100
AcDbCircle
 10
92.284262082
 20
112.3048386992
 30
0.0
 40
1.535500000000002
100
AcDbArc
 50
34.3048024535
 51
94.3048024535
  0
ARC
  5
2C6
330
1F
100
AcDbEntity
  8
0
  6
SLD-Durchgehend
 62
     7
370
    15
100
AcDbCircle
 10
92.284262082
 20
112.3048386992
 30
0.0
 40
1.535500000000001
100
AcDbArc
 50
274.3048024535
 51
334.3048024535
  0
ARC
  5
2C7
330
1F
100
AcDbEntity
  8
0
  6
SLD-Durchgehend
 62
     7
370
    15
100
AcDbCircle
 10
92.284262082
 20
112.3048386992
 30
0.0
 40
1.535500000000007
100
AcDbArc
 50
154.3048024535
 51
214.3048024535
  0
ARC
  5
2C8
330
1F
100
AcDbEntity
  8
0
  6
SLD-Durchgehend
 62
     7
370
    15
100
AcDbCircle
 10
92.284262082
 20
112.3048386992
 30
0.0
 40
1.535500000000003
100
AcDbArc
 50
94.3048024535
 51
154.3048024535
  0
ARC
  5
2C9
330
1F
100
AcDbEntity
  8
0
  6
SLD-Durchgehend
 62
     7
370
    15
100
AcDbCircle
 10
92.284262082
 20
112.3048386992
 30
0.0
 40
1.535499999999996
100
AcDbArc
 50
334.3048024535
 51
34.3048024535
  0
ARC
  5
2CA
330
1F
100
AcDbEntity
  8
0
  6
SLD-Durchgehend
 62
     7
370
    15
100
AcDbCircle
 10
92.284262082
 20
112.3048386992
 30
0.0
 40
1.535500000000007
100
AcDbArc
 50
214.3048024535
 51
274.3048024535
  0
LINE
  5
2CB
330
1F
100
AcDbEntity
  8
0
  6
SLD-Durchgehend
 62
     7
370
    15
100
AcDbLine
 10
92.3810674757
 20
125.3889453121
 30
0.0
 11
90.799454967
 21
124.5875822835
 31
0.0
  0
LINE
  5
2CC
330
1F
100
AcDbEntity
  8
0
  6
SLD-Durchgehend
 62
     7
370
    15
100
AcDbLine
 10
90.799454967
 20
124.5875822835
 30
0.0
 11
90.7026495733
 21
122.8171841696
 31
0.0
  0
LINE
  5
2CD
330
1F
100
AcDbEntity
  8
0
  6
SLD-Durchgehend
 62
     7
370
    15
100
AcDbLine
 10
92.1874566883
 20
121.8481493172
 30
0.0
 11
90.7026495733
 21
122.8171841696
 31
0.0
  0
LINE
  5
2CE
330
1F
100
AcDbEntity
  8
0
  6
SLD-Durchgehend
 62
     7
370
    15
100
AcDbLine
 10
93.769069197
 20
122.6495121129
 30
0.0
 11
92.1874566883
 21
121.8481493172
 31
0.0
  0
LINE
  5
2CF
330
1F
100
AcDbEntity
  8
0
  6
SLD-Durchgehend
 62
     7
370
    15
100
AcDbLine
 10
93.769069197
 20
122.6495121129
 30
0.0
 11
93.8658745907
 21
124.4199102268
 31
0.0
  0
LINE
  5
2D0
330
1F
100
AcDbEntity
  8
0
  6
SLD-Durchgehend
 62
     7
370
    15
100
AcDbLine
 10
92.3810674757
 20
125.3889453121
 30
0.0
 11
93.8658745907
 21
124.4199102268
 31
0.0
  0
CIRCLE
  5
2D1
330
1F
100
AcDbEntity
  8
0
  6
SLD-Durchgehend
 62
     7
370
    15
100
AcDbCircle
 10
92.284262082
 20
123.6185471982
 30
0.0
 40
3.499999999999992
  0
ARC
  5
2D2
330
1F
100
AcDbEntity
  8
0
  6
SLD-Durchgehend
 62
     7
370
    15
100
AcDbCircle
 10
92.284262082
 20
123.6185471982
 30
0.0
 40
1.535500000000003
100
AcDbArc
 50
236.8701833941
 51
296.8701833941
  0
ARC
  5
2D3
330
1F
100
AcDbEntity
  8
0
  6
SLD-Durchgehend
 62
     7
370
    15
100
AcDbCircle
 10
92.284262082
 20
123.6185471982
 30
0.0
 40
1.535500000000003
100
AcDbArc
 50
56.8701833941
 51
116.8701833941
  0
ARC
  5
2D4
330
1F
100
AcDbEntity
  8
0
  6
SLD-Durchgehend
 62
     7
370
    15
100
AcDbCircle
 10
92.284262082
 20
123.6185471982
 30
0.0
 40
1.535500000000003
100
AcDbArc
 50
356.8701833941
 51
56.8701833941
  0
ARC
  5
2D5
330
1F
100
AcDbEntity
  8
0
  6
SLD-Durchgehend
 62
     7
370
    15
100
AcDbCircle
 10
92.284262082
 20
123.6185471982
 30
0.0
 40
1.535499999999994
100
AcDbArc
 50
296.8701833941
 51
356.8701833941
  0
ARC
  5
2D6
330
1F
100
AcDbEntity
  8
0
  6
SLD-Durchgehend
 62
     7
370
    15
100
AcDbCircle
 10
92.284262082
 20
123.6185471982
 30
0.0
 40
1.535500000000009
100
AcDbArc
 50
176.8701833941
 51
236.8701833941
  0
ARC
  5
2D7
330
1F
100
AcDbEntity
  8
0
  6
SLD-Durchgehend
 62
     7
370
    15
100
AcDbCircle
 10
92.284262082
 20
123.6185471982
 30
0.0
 40
1.535500000000009
100
AcDbArc
 50
116.8701833941
 51
176.8701833941
  0
CIRCLE
  5
2D8
330
1F
100
AcDbEntity
  8
0
  6
SLD-Durchgehend
 62
     7
370
    15
100
AcDbCircle
 10
80.970553583
 20
112.3048386992
 30
0.0
 40
3.499999999999995
  0
LINE
  5
2D9
330
1F
100
AcDbEntity
  8
0
  6
SLD-Durchgehend
 62
     7
370
    15
100
AcDbLine
 10
80.5654892646
 20
114.0309915401
 30
0.0
 11
79.2731292494
 21
112.8171192006
 31
0.0
  0
LINE
  5
2DA
330
1F
100
AcDbEntity
  8
0
  6
SLD-Durchgehend
 62
     7
370
    15
100
AcDbLine
 10
79.2731292494
 20
112.8171192006
 30
0.0
 11
79.6781935677
 21
111.0909663596
 31
0.0
  0
LINE
  5
2DB
330
1F
100
AcDbEntity
  8
0
  6
SLD-Durchgehend
 62
     7
370
    15
100
AcDbLine
 10
81.3756179013
 20
110.5786858581
 30
0.0
 11
79.6781935677
 21
111.0909663596
 31
0.0
  0
LINE
  5
2DC
330
1F
100
AcDbEntity
  8
0
  6
SLD-Durchgehend
 62
     7
370
    15
100
AcDbLine
 10
82.6679779165
 20
111.7925581977
 30
0.0
 11
81.3756179013
 21
110.5786858581
 31
0.0
  0
LINE
  5
2DD
330
1F
100
AcDbEntity
  8
0
  6
SLD-Durchgehend
 62
     7
370
    15
100
AcDbLine
 10
82.6679779165
 20
111.7925581977
 30
0.0
 11
82.2629135981
 21
113.5187110387
 31
0.0
  0
LINE
  5
2DE
330
1F
100
AcDbEntity
  8
0
  6
SLD-Durchgehend
 62
     7
370
    15
100
AcDbLine
 10
80.5654892646
 20
114.0309915401
 30
0.0
 11
82.2629135981
 21
113.5187110387
 31
0.0
  0
ARC
  5
2DF
330
1F
100
AcDbEntity
  8
0
  6
SLD-Durchgehend
 62
     7
370
    15
100
AcDbCircle
 10
80.970553583
 20
112.3048386992
 30
0.0
 40
1.535499999999999
100
AcDbArc
 50
313.2062589409
 51
13.2062589409
  0
ARC
  5
2E0
330
1F
100
AcDbEntity
  8
0
  6
SLD-Durchgehend
 62
     7
370
    15
100
AcDbCircle
 10
80.970553583
 20
112.3048386992
 30
0.0
 40
1.53550000000002
100
AcDbArc
 50
193.2062589409
 51
253.2062589409
  0
ARC
  5
2E1
330
1F
100
AcDbEntity
  8
0
  6
SLD-Durchgehend
 62
     7
370
    15
100
AcDbCircle
 10
80.970553583
 20
112.3048386992
 30
0.0
 40
1.535500000000007
100
AcDbArc
 50
253.2062589409
 51
313.2062589409
  0
ARC
  5
2E2
330
1F
100
AcDbEntity
  8
0
  6
SLD-Durchgehend
 62
     7
370
    15
100
AcDbCircle
 10
80.970553583
 20
112.3048386992
 30
0.0
 40
1.53550000000002
100
AcDbArc
 50
133.2062589409
 51
193.2062589409
  0
ARC
  5
2E3
330
1F
100
AcDbEntity
  8
0
  6
SLD-Durchgehend
 62
     7
370
    15
100
AcDbCircle
 10
80.970553583
 20
112.3048386992
 30
0.0
 40
1.53549999999999
100
AcDbArc
 50
13.2062589409
 51
73.2062589409
  0
ARC
  5
2E4
330
1F
100
AcDbEntity
  8
0
  6
SLD-Durchgehend
 62
     7
370
    15
100
AcDbCircle
 10
80.970553583
 20
112.3048386992
 30
0.0
 40
1.535499999999998
100
AcDbArc
 50
73.2062589409
 51
133.2062589409
  0
CIRCLE
  5
2E5
330
1F
100
AcDbEntity
  8
0
  6
SLD-Durchgehend
 62
     7
370
    15
100
AcDbCircle
 10
80.970553583
 20
123.6185471982
 30
0.0
 40
3.500000000000006
  0
LINE
  5
2E6
330
1F
100
AcDbEntity
  8
0
  6
SLD-Durchgehend
 62
     7
370
    15
100
AcDbLine
 10
82.6254183375
 20
122.9820701748
 30
0.0
 11
82.3491913215
 21
124.7334637203
 31
0.0
  0
LINE
  5
2E7
330
1F
100
AcDbEntity
  8
0
  6
SLD-Durchgehend
 62
     7
370
    15
100
AcDbLine
 10
82.3491913215
 20
124.7334637203
 30
0.0
 11
80.6943261013
 21
125.3699407436
 31
0.0
  0
LINE
  5
2E8
330
1F
100
AcDbEntity
  8
0
  6
SLD-Durchgehend
 62
     7
370
    15
100
AcDbLine
 10
79.3156888284
 20
124.2550242216
 30
0.0
 11
80.6943261013
 21
125.3699407436
 31
0.0
  0
LINE
  5
2E9
330
1F
100
AcDbEntity
  8
0
  6
SLD-Durchgehend
 62
     7
370
    15
100
AcDbLine
 10
79.5919158444
 20
122.5036306762
 30
0.0
 11
79.3156888284
 21
124.2550242216
 31
0.0
  0
LINE
  5
2EA
330
1F
100
AcDbEntity
  8
0
  6
SLD-Durchgehend
 62
     7
370
    15
100
AcDbLine
 10
79.5919158444
 20
122.5036306762
 30
0.0
 11
81.2467810646
 21
121.8671538856
 31
0.0
  0
LINE
  5
2EB
330
1F
100
AcDbEntity
  8
0
  6
SLD-Durchgehend
 62
     7
370
    15
100
AcDbLine
 10
82.6254183375
 20
122.9820701748
 30
0.0
 11
81.2467810646
 21
121.8671538856
 31
0.0
  0
ARC
  5
2EC
330
1F
100
AcDbEntity
  8
0
  6
SLD-Durchgehend
 62
     7
370
    15
100
AcDbCircle
 10
80.970553583
 20
123.6185471982
 30
0.0
 40
1.5355
100
AcDbArc
 50
128.9627788002
 51
188.9627788002
  0
ARC
  5
2ED
330
1F
100
AcDbEntity
  8
0
  6
SLD-Durchgehend
 62
     7
370
    15
100
AcDbCircle
 10
80.970553583
 20
123.6185471982
 30
0.0
 40
1.535499999999995
100
AcDbArc
 50
248.9627788002
 51
308.9627788002
  0
ARC
  5
2EE
330
1F
100
AcDbEntity
  8
0
  6
SLD-Durchgehend
 62
     7
370
    15
100
AcDbCircle
 10
80.970553583
 20
123.6185471982
 30
0.0
 40
1.535500000000004
100
AcDbArc
 50
68.9627788002
 51
128.9627788002
  0
ARC
  5
2EF
330
1F
100
AcDbEntity
  8
0
  6
SLD-Durchgehend
 62
     7
370
    15
100
AcDbCircle
 10
80.970553583
 20
123.6185471982
 30
0.0
 40
1.5355
100
AcDbArc
 50
188.9627788002
 51
248.9627788002
  0
ARC
  5
2F0
330
1F
100
AcDbEntity
  8
0
  6
SLD-Durchgehend
 62
     7
370
    15
100
AcDbCircle
 10
80.970553583
 20
123.6185471982
 30
0.0
 40
1.535500000000004
100
AcDbArc
 50
8.9627788002
 51
68.9627788002
  0
ARC
  5
2F1
330
1F
100
AcDbEntity
  8
0
  6
SLD-Durchgehend
 62
     7
370
    15
100
AcDbCircle
 10
80.970553583
 20
123.6185471982
 30
0.0
 40
1.535499999999998
100
AcDbArc
 50
308.9627788002
 51
8.9627788002
  0
CIRCLE
  5
2F2
330
1F
100
AcDbEntity
  8
0
  6
SLD-Durchgehend
 62
     7
370
    15
100
AcDbCircle
 10
86.6274078325
 20
117.9616929487
 30
0.0
 40
12.49999999999999
  0
LINE
  5
2F3
330
1F
100
AcDbEntity
  8
0
  6
SLD-Durchgehend
 62
     7
370
    15
100
AcDbLine
 10
98.302369839
 20
118.726718739
 30
0.0
 11
98.9341585845
 21
119.1077698943
 31
0.0
  0
ARC
  5
2F4
330
1F
100
AcDbEntity
  8
0
  6
SLD-Durchgehend
 62
     7
370
    15
100
AcDbCircle
 10
98.8628326621
 20
119.2055158942
 30
0.0
 40
0.121002759069441
100
AcDbArc
 50
306.1184841636
 51
65.4911279164
  0
LINE
  5
2F5
330
1F
100
AcDbEntity
  8
0
  6
SLD-Durchgehend
 62
     7
370
    15
100
AcDbLine
 10
98.9130287379
 20
119.3156159472
 30
0.0
 11
98.19805426
 21
119.6966671607
 31
0.0
  0
ARC
  5
2F6
330
1F
100
AcDbEntity
  8
0
  6
SLD-Durchgehend
 62
     7
370
    15
100
AcDbCircle
 10
86.6274078325
 20
117.9616929487
 30
0.0
 40
11.70000000000026
100
AcDbArc
 50
8.5277495763
 51
9.9171770882
  0
LINE
  5
2F7
330
1F
100
AcDbEntity
  8
0
  6
SLD-Durchgehend
 62
     7
370
    15
100
AcDbLine
 10
98.1525833667
 20
119.9767187693
 30
0.0
 11
98.7529353187
 21
120.3577698663
 31
0.0
  0
LWPOLYLINE
  5
2F8
330
1F
100
AcDbEntity
  8
0
  6
SLD-Durchgehend
 62
     7
370
    15
100
AcDbPolyline
 90
        9
 70
   128
 43
0.0
 10
98.7529353187
 20
120.3577698663
 10
98.7751957908
 20
120.3777092498
 10
98.7895372272
 20
120.4031802237
 10
98.7953058392
 20
120.4298428249
 10
98.7937272474
 20
120.4589517776
 10
98.7857420877
 20
120.4857431341
 10
98.7667747721
 20
120.5184979819
 10
98.7317998842
 20
120.5524228037
 10
98.7100060046
 20
120.5656159193
  0
LINE
  5
2F9
330
1F
100
AcDbEntity
  8
0
  6
SLD-Durchgehend
 62
     7
370
    15
100
AcDbLine
 10
98.7100060046
 20
120.5656159193
 30
0.0
 11
97.9402297124
 21
120.9466672492
 31
0.0
  0
ARC
  5
2FA
330
1F
100
AcDbEntity
  8
0
  6
SLD-Durchgehend
 62
     7
370
    15
100
AcDbCircle
 10
86.6274078325
 20
117.9616929487
 30
0.0
 40
11.70000000000045
100
AcDbArc
 50
14.7810515008
 51
16.2042318296
  0
LINE
  5
2FB
330
1F
100
AcDbEntity
  8
0
  6
SLD-Durchgehend
 62
     7
370
    15
100
AcDbLine
 10
97.8626030445
 20
121.2267187413
 30
0.0
 11
98.4373920545
 21
121.6077698384
 31
0.0
  0
LWPOLYLINE
  5
2FC
330
1F
100
AcDbEntity
  8
0
  6
SLD-Durchgehend
 62
     7
370
    15
100
AcDbPolyline
 90
        9
 70
   128
 43
0.0
 10
98.4373920545
 20
121.6077698384
 10
98.4564878926
 20
121.6254870862
 10
98.469007662
 20
121.6492765572
 10
98.4732973337
 20
121.6794486147
 10
98.4691697121
 20
121.7069200695
 10
98.4589996696
 20
121.7329768453
 10
98.4354195133
 20
121.7675638374
 10
98.3927099914
 20
121.8039063726
 10
98.3712094784
 20
121.8156158913
  0
LINE
  5
2FD
330
1F
100
AcDbEntity
  8
0
  6
SLD-Durchgehend
 62
     7
370
    15
100
AcDbLine
 10
98.3712094784
 20
121.8156158913
 30
0.0
 11
97.5340566546
 21
122.1966672212
 31
0.0
  0
ARC
  5
2FE
330
1F
100
AcDbEntity
  8
0
  6
SLD-Durchgehend
 62
     7
370
    15
100
AcDbCircle
 10
86.6274078325
 20
117.9616929487
 30
0.0
 40
11.70000000000063
100
AcDbArc
 50
21.2208370458
 51
22.6996022985
  0
LINE
  5
2FF
330
1F
100
AcDbEntity
  8
0
  6
SLD-Durchgehend
 62
     7
370
    15
100
AcDbLine
 10
97.4211347237
 20
122.4767187134
 30
0.0
 11
97.9763296381
 21
122.8577698104
 31
0.0
  0
LWPOLYLINE
  5
300
330
1F
100
AcDbEntity
  8
0
  6
SLD-Durchgehend
 62
     7
370
    15
100
AcDbPolyline
 90
        9
 70
   128
 43
0.0
 10
97.9763296381
 20
122.8577698104
 10
97.992665036
 20
122.8732926295
 10
98.0036257714
 20
122.8952695139
 10
98.0064467475
 20
122.9230960355
 10
98.0014511332
 20
122.9486687564
 10
97.987332283
 20
122.9792915739
 10
97.9585031927
 20
123.0157398142
 10
97.9062373698
 20
123.0549550139
 10
97.8843866795
 20
123.0656158634
  0
LINE
  5
301
330
1F
100
AcDbEntity
  8
0
  6
SLD-Durchgehend
 62
     7
370
    15
100
AcDbLine
 10
97.8843866795
 20
123.0656158634
 30
0.0
 11
96.962060681
 21
123.4466669605
 31
0.0
  0
ARC
  5
302
330
1F
100
AcDbEntity
  8
0
  6
SLD-Durchgehend
 62
     7
370
    15
100
AcDbCircle
 10
86.6274078325
 20
117.9616929487
 30
0.0
 40
11.70000000000082
100
AcDbArc
 50
27.9565089687
 51
29.5206521197
  0
LINE
  5
303
330
1F
100
AcDbEntity
  8
0
  6
SLD-Durchgehend
 62
     7
370
    15
100
AcDbLine
 10
96.8084921077
 20
123.7267189183
 30
0.0
 11
97.3509958893
 21
124.1077700153
 31
0.0
  0
LWPOLYLINE
  5
304
330
1F
100
AcDbEntity
  8
0
  6
SLD-Durchgehend
 62
     7
370
    15
100
AcDbPolyline
 90
        9
 70
   128
 43
0.0
 10
97.3509958893
 20
124.1077700153
 10
97.3648940161
 20
124.1210883938
 10
97.374568595
 20
124.1410927371
 10
97.3762505636
 20
124.1663977027
 10
97.3706430704
 20
124.1897953198
 10
97.3553330586
 20
124.219610215
 10
97.3234743759
 20
124.2569613725
 10
97.2633975506
 20
124.2999237486
 10
97.2291649267
 20
124.3156160683
  0
LINE
  5
305
330
1F
100
AcDbEntity
  8
0
  6
SLD-Durchgehend
 62
     7
370
    15
100
AcDbLine
 10
97.2291649267
 20
124.3156160683
 30
0.0
 11
96.1945456401
 21
124.6966671653
 31
0.0
  0
ARC
  5
306
330
1F
100
AcDbEntity
  8
0
  6
SLD-Durchgehend
 62
     7
370
    15
100
AcDbCircle
 10
86.6274078325
 20
117.9616929487
 30
0.0
 40
11.700000000001
100
AcDbArc
 50
35.1443816259
 51
36.8394547611
  0
LINE
  5
307
330
1F
100
AcDbEntity
  8
0
  6
SLD-Durchgehend
 62
     7
370
    15
100
AcDbLine
 10
95.9911364079
 20
124.9767186575
 30
0.0
 11
96.5303190932
 21
125.3577697546
 31
0.0
  0
LWPOLYLINE
  5
308
330
1F
100
AcDbEntity
  8
0
  6
SLD-Durchgehend
 62
     7
370
    15
100
AcDbPolyline
 90
        9
 70
   128
 43
0.0
 10
96.5303190932
 20
125.3577697546
 10
96.5420341999
 20
125.3688329354
 10
96.5507355467
 20
125.386670091
 10
96.5516566247
 20
125.4092546635
 10
96.5457743913
 20
125.4301204801
 10
96.5297491238
 20
125.4582804151
 10
96.495222202
 20
125.4956646346
 10
96.4257846534
 20
125.5425902538
 10
96.371634765
 20
125.5656158075
  0
LINE
  5
309
330
1F
100
AcDbEntity
  8
0
  6
SLD-Durchgehend
 62
     7
370
    15
100
AcDbLine
 10
96.371634765
 20
125.5656158075
 30
0.0
 11
95.1790268481
 21
125.9466673702
 31
0.0
  0
ARC
  5
30A
330
1F
100
AcDbEntity
  8
0
  6
SLD-Durchgehend
 62
     7
370
    15
100
AcDbCircle
 10
86.6274078325
 20
117.9616929487
 30
0.0
 40
11.70000000000118
100
AcDbArc
 50
43.0374643913
 51
44.9437677466
  0
LINE
  5
30B
330
1F
100
AcDbEntity
  8
0
  6
SLD-Durchgehend
 62
     7
370
    15
100
AcDbLine
 10
94.9086732179
 20
126.2267188624
 30
0.0
 11
95.4600152508
 21
126.6077694938
 31
0.0
  0
LWPOLYLINE
  5
30C
330
1F
100
AcDbEntity
  8
0
  6
SLD-Durchgehend
 62
     7
370
    15
100
AcDbPolyline
 90
        9
 70
   128
 43
0.0
 10
95.4600152508
 20
126.6077694938
 10
95.4697270826
 20
126.6164727033
 10
95.4784563691
 20
126.6345133528
 10
95.4778910563
 20
126.6545833543
 10
95.471362485
 20
126.6724181816
 10
95.4536003009
 20
126.6988286272
 10
95.4135366664
 20
126.7364438147
 10
95.3258880362
 20
126.7882523582
 10
95.2516551078
 20
126.8156155467
  0
LINE
  5
30D
330
1F
100
AcDbEntity
  8
0
  6
SLD-Durchgehend
 62
     7
370
    15
100
AcDbLine
 10
95.2516551078
 20
126.8156155467
 30
0.0
 11
93.811087212
 21
127.1966671095
 31
0.0
  0
ARC
  5
30E
330
1F
100
AcDbEntity
  8
0
  6
SLD-Durchgehend
 62
     7
370
    15
100
AcDbCircle
 10
86.6274078325
 20
117.9616929487
 30
0.0
 40
11.70000000000136
100
AcDbArc
 50
52.1214532678
 51
54.4146980712
  0
LINE
  5
30F
330
1F
100
AcDbEntity
  8
0
  6
SLD-Durchgehend
 62
     7
370
    15
100
AcDbLine
 10
93.4358061239
 20
127.4767186016
 30
0.0
 11
94.0326265007
 21
127.8577701643
 31
0.0
  0
LWPOLYLINE
  5
310
330
1F
100
AcDbEntity
  8
0
  6
SLD-Durchgehend
 62
     7
370
    15
100
AcDbPolyline
 90
        9
 70
   128
 43
0.0
 10
94.0326265007
 20
127.8577701643
 10
94.0403988533
 20
127.8639327258
 10
94.0489591047
 20
127.8779174656
 10
94.0498955496
 20
127.8911720485
 10
94.0456738644
 20
127.9054427043
 10
94.0329776094
 20
127.9253096775
 10
94.0023650363
 20
127.9547618226
 10
93.9260301128
 20
128.0021940813
 10
93.7464203634
 20
128.0656162173
  0
LINE
  5
311
330
1F
100
AcDbEntity
  8
0
  6
SLD-Durchgehend
 62
     7
370
    15
100
AcDbLine
 10
93.7464203634
 20
128.0656162173
 30
0.0
 11
91.8192587741
 21
128.4466668487
 31
0.0
  0
ARC
  5
312
330
1F
100
AcDbEntity
  8
0
  6
SLD-Durchgehend
 62
     7
370
    15
100
AcDbCircle
 10
86.6274078325
 20
117.9616929487
 30
0.0
 40
11.70000000000916
100
AcDbArc
 50
63.6567400211
 51
66.9389024908
  0
LINE
  5
313
330
1F
100
AcDbEntity
  8
0
  6
SLD-Durchgehend
 62
     7
370
    15
100
AcDbLine
 10
91.2104438938
 20
128.7267183408
 30
0.0
 11
91.9691835478
 21
129.1077699036
 31
0.0
  0
LWPOLYLINE
  5
314
330
1F
100
AcDbEntity
  8
0
  6
SLD-Durchgehend
 62
     7
370
    15
100
AcDbPolyline
 90
        9
 70
   128
 43
0.0
 10
91.9691835478
 20
129.1077699036
 10
91.9814476691
 20
129.1167813808
 10
91.9864227943
 20
129.125134413
 10
91.9870449178
 20
129.1352504388
 10
91.9835501299
 20
129.1449008033
 10
91.972914426
 20
129.1589684308
 10
91.9454539143
 20
129.1811758176
 10
91.8438638509
 20
129.2313331262
 10
91.511876224
 20
129.3156159565
  0
ARC
  5
315
330
1F
100
AcDbEntity
  8
0
  6
SLD-Durchgehend
 62
     7
370
    15
100
AcDbCircle
 10
86.6274078325
 20
96.9315013593
 30
0.0
 40
32.75040319924214
100
AcDbArc
 50
81.4227787871
 51
98.5772212129
  0
LWPOLYLINE
  5
316
330
1F
100
AcDbEntity
  8
0
  6
SLD-Durchgehend
 62
     7
370
    15
100
AcDbPolyline
 90
       11
 70
   128
 43
0.0
 10
81.7429394409
 20
129.3156159565
 10
81.5355623089
 20
129.2720794201
 10
81.3561062277
 20
129.2074903369
 10
81.3063801214
 20
129.1791520536
 10
81.2858630851
 20
129.1628855735
 10
81.2727635674
 20
129.1474852234
 10
81.2681069546
 20
129.1368681461
 10
81.2680049747
 20
129.1264988005
 10
81.2718825363
 20
129.1185695201
 10
81.2835436262
 20
129.1089079798
 10
81.2856321171
 20
129.1077699036
  0
LINE
  5
317
330
1F
100
AcDbEntity
  8
0
  6
SLD-Durchgehend
 62
     7
370
    15
100
AcDbLine
 10
81.2856321171
 20
129.1077699036
 30
0.0
 11
82.0443717711
 21
128.7267183408
 31
0.0
  0
ARC
  5
318
330
1F
100
AcDbEntity
  8
0
  6
SLD-Durchgehend
 62
     7
370
    15
100
AcDbCircle
 10
86.6274078325
 20
117.9616929487
 30
0.0
 40
11.70000000000154
100
AcDbArc
 50
113.0610975091
 51
116.3432599789
  0
LINE
  5
319
330
1F
100
AcDbEntity
  8
0
  6
SLD-Durchgehend
 62
     7
370
    15
100
AcDbLine
 10
81.4355568908
 20
128.4466668487
 30
0.0
 11
79.5083953016
 21
128.0656162173
 31
0.0
  0
LWPOLYLINE
  5
31A
330
1F
100
AcDbEntity
  8
0
  6
SLD-Durchgehend
 62
     7
370
    15
100
AcDbPolyline
 90
        9
 70
   128
 43
0.0
 10
79.5083953016
 20
128.0656162173
 10
79.3090308033
 20
127.991776307
 10
79.2553107202
 20
127.9570072413
 10
79.2254897714
 20
127.9296207697
 10
79.2114878021
 20
127.9101375014
 10
79.2054239609
 20
127.894242619
 10
79.2055333913
 20
127.8791207344
 10
79.2108503118
 20
127.868015644
 10
79.2221891642
 20
127.8577701643
  0
LINE
  5
31B
330
1F
100
AcDbEntity
  8
0
  6
SLD-Durchgehend
 62
     7
370
    15
100
AcDbLine
 10
79.2221891642
 20
127.8577701643
 30
0.0
 11
79.819009541
 21
127.4767186016
 31
0.0
  0
ARC
  5
31C
330
1F
100
AcDbEntity
  8
0
  6
SLD-Durchgehend
 62
     7
370
    15
100
AcDbCircle
 10
86.6274078325
 20
117.9616929487
 30
0.0
 40
11.70000000000135
100
AcDbArc
 50
125.5853019288
 51
127.8785467322
  0
LINE
  5
31D
330
1F
100
AcDbEntity
  8
0
  6
SLD-Durchgehend
 62
     7
370
    15
100
AcDbLine
 10
79.4437284529
 20
127.1966671095
 30
0.0
 11
78.0031605572
 21
126.8156155467
 31
0.0
  0
LWPOLYLINE
  5
31E
330
1F
100
AcDbEntity
  8
0
  6
SLD-Durchgehend
 62
     7
370
    15
100
AcDbPolyline
 90
        9
 70
   128
 43
0.0
 10
78.0031605572
 20
126.8156155467
 10
77.8784816101
 20
126.761753437
 10
77.8190399468
 20
126.7175752193
 10
77.7957308054
 20
126.6919405654
 10
77.7810457111
 20
126.6672055692
 10
77.7758796647
 20
126.6483788833
 10
77.7772086621
 20
126.6310171679
 10
77.784053883
 20
126.6177439586
 10
77.7948004142
 20
126.6077694938
  0
LINE
  5
31F
330
1F
100
AcDbEntity
  8
0
  6
SLD-Durchgehend
 62
     7
370
    15
100
AcDbLine
 10
77.7948004142
 20
126.6077694938
 30
0.0
 11
78.346142447
 21
126.2267188624
 31
0.0
  0
ARC
  5
320
330
1F
100
AcDbEntity
  8
0
  6
SLD-Durchgehend
 62
     7
370
    15
100
AcDbCircle
 10
86.6274078325
 20
117.9616929487
 30
0.0
 40
11.70000000000117
100
AcDbArc
 50
135.0562322534
 51
136.9625356087
  0
LINE
  5
321
330
1F
100
AcDbEntity
  8
0
  6
SLD-Durchgehend
 62
     7
370
    15
100
AcDbLine
 10
78.0757888168
 20
125.9466673702
 30
0.0
 11
76.8831808999
 21
125.5656158075
 31
0.0
  0
LWPOLYLINE
  5
322
330
1F
100
AcDbEntity
  8
0
  6
SLD-Durchgehend
 62
     7
370
    15
100
AcDbPolyline
 90
        9
 70
   128
 43
0.0
 10
76.8831808999
 20
125.5656158075
 10
76.7934787035
 20
125.5216098845
 10
76.7514406651
 20
125.488187977
 10
76.7163232848
 20
125.4448209413
 10
76.7058645323
 20
125.4212566175
 10
76.7025313288
 20
125.3975176707
 10
76.706614247
 20
125.3792111285
 10
76.719424589
 20
125.3617804952
 10
76.7244965717
 20
125.3577697546
  0
LINE
  5
323
330
1F
100
AcDbEntity
  8
0
  6
SLD-Durchgehend
 62
     7
370
    15
100
AcDbLine
 10
76.7244965717
 20
125.3577697546
 30
0.0
 11
77.2636792571
 21
124.9767186575
 31
0.0
  0
ARC
  5
324
330
1F
100
AcDbEntity
  8
0
  6
SLD-Durchgehend
 62
     7
370
    15
100
AcDbCircle
 10
86.6274078325
 20
117.9616929487
 30
0.0
 40
11.70000000000098
100
AcDbArc
 50
143.1605452389
 51
144.8556183741
  0
LINE
  5
325
330
1F
100
AcDbEntity
  8
0
  6
SLD-Durchgehend
 62
     7
370
    15
100
AcDbLine
 10
77.0602700249
 20
124.6966671653
 30
0.0
 11
76.0256507382
 21
124.3156160683
 31
0.0
  0
LWPOLYLINE
  5
326
330
1F
100
AcDbEntity
  8
0
  6
SLD-Durchgehend
 62
     7
370
    15
100
AcDbPolyline
 90
        9
 70
   128
 43
0.0
 10
76.0256507382
 20
124.3156160683
 10
75.95156589
 20
124.2741652288
 10
75.9151223064
 20
124.2401123502
 10
75.8916613594
 20
124.2064767041
 10
75.8810647711
 20
124.1798846506
 10
75.8782884985
 20
124.1530555755
 10
75.8830978483
 20
124.1328249209
 10
75.8970658243
 20
124.1132108018
 10
75.9038197756
 20
124.1077700153
  0
LINE
  5
327
330
1F
100
AcDbEntity
  8
0
  6
SLD-Durchgehend
 62
     7
370
    15
100
AcDbLine
 10
75.9038197756
 20
124.1077700153
 30
0.0
 11
76.4463235572
 21
123.7267189183
 31
0.0
  0
ARC
  5
328
330
1F
100
AcDbEntity
  8
0
  6
SLD-Durchgehend
 62
     7
370
    15
100
AcDbCircle
 10
86.6274078325
 20
117.9616929487
 30
0.0
 40
11.7000000000008
100
AcDbArc
 50
150.4793478803
 51
152.0434910313
  0
LINE
  5
329
330
1F
100
AcDbEntity
  8
0
  6
SLD-Durchgehend
 62
     7
370
    15
100
AcDbLine
 10
76.2927549839
 20
123.4466669605
 30
0.0
 11
75.3704289854
 21
123.0656158634
 31
0.0
  0
LWPOLYLINE
  5
32A
330
1F
100
AcDbEntity
  8
0
  6
SLD-Durchgehend
 62
     7
370
    15
100
AcDbPolyline
 90
        9
 70
   128
 43
0.0
 10
75.3704289854
 20
123.0656158634
 10
75.3104834765
 20
123.0287555129
 10
75.2780874208
 20
122.9948865705
 10
75.2585678309
 20
122.9622767762
 10
75.2498217806
 20
122.9346439697
 10
75.2487749741
 20
122.9071368918
 10
75.2547484771
 20
122.8856959835
 10
75.2705586091
 20
122.8640608944
 10
75.2784860268
 20
122.8577698104
  0
LINE
  5
32B
330
1F
100
AcDbEntity
  8
0
  6
SLD-Durchgehend
 62
     7
370
    15
100
AcDbLine
 10
75.2784860268
 20
122.8577698104
 30
0.0
 11
75.8336809412
 21
122.4767187134
 31
0.0
  0
ARC
  5
32C
330
1F
100
AcDbEntity
  8
0
  6
SLD-Durchgehend
 62
     7
370
    15
100
AcDbCircle
 10
86.6274078325
 20
117.9616929487
 30
0.0
 40
11.70000000000061
100
AcDbArc
 50
157.3003977015
 51
158.7791629542
  0
LINE
  5
32D
330
1F
100
AcDbEntity
  8
0
  6
SLD-Durchgehend
 62
     7
370
    15
100
AcDbLine
 10
75.7207590103
 20
122.1966672212
 30
0.0
 11
74.8836061865
 21
121.8156158913
 31
0.0
  0
LWPOLYLINE
  5
32E
330
1F
100
AcDbEntity
  8
0
  6
SLD-Durchgehend
 62
     7
370
    15
100
AcDbPolyline
 90
        9
 70
   128
 43
0.0
 10
74.8836061865
 20
121.8156158913
 10
74.8339750752
 20
121.782464533
 10
74.8055892945
 20
121.7496102665
 10
74.7891467944
 20
121.7177744013
 10
74.7822242737
 20
121.6895224981
 10
74.7827774793
 20
121.6616515059
 10
74.7899197921
 20
121.6390760139
 10
74.8075897753
 20
121.6154385813
 10
74.8174236104
 20
121.6077698384
  0
LINE
  5
32F
330
1F
100
AcDbEntity
  8
0
  6
SLD-Durchgehend
 62
     7
370
    15
100
AcDbLine
 10
74.8174236104
 20
121.6077698384
 30
0.0
 11
75.3922126204
 21
121.2267187413
 31
0.0
  0
ARC
  5
330
330
1F
100
AcDbEntity
  8
0
  6
SLD-Durchgehend
 62
     7
370
    15
100
AcDbCircle
 10
86.6274078325
 20
117.9616929487
 30
0.0
 40
11.70000000000042
100
AcDbArc
 50
163.7957681704
 51
165.2189484992
  0
LINE
  5
331
330
1F
100
AcDbEntity
  8
0
  6
SLD-Durchgehend
 62
     7
370
    15
100
AcDbLine
 10
75.3145859525
 20
120.9466672492
 30
0.0
 11
74.5448096603
 21
120.5656159193
 31
0.0
  0
LWPOLYLINE
  5
332
330
1F
100
AcDbEntity
  8
0
  6
SLD-Durchgehend
 62
     7
370
    15
100
AcDbPolyline
 90
        9
 70
   128
 43
0.0
 10
74.5448096603
 20
120.5656159193
 10
74.5102948457
 20
120.5423286639
 10
74.4822024316
 20
120.5102753349
 10
74.4664276898
 20
120.4788809166
 10
74.4597966731
 20
120.4499137577
 10
74.4606087864
 20
120.4208443862
 10
74.4679755479
 20
120.3966404766
 10
74.4858243451
 20
120.3707301513
 10
74.5018803463
 20
120.3577698663
  0
LINE
  5
333
330
1F
100
AcDbEntity
  8
0
  6
SLD-Durchgehend
 62
     7
370
    15
100
AcDbLine
 10
74.5018803463
 20
120.3577698663
 30
0.0
 11
75.1022322983
 21
119.9767187693
 31
0.0
  0
ARC
  5
334
330
1F
100
AcDbEntity
  8
0
  6
SLD-Durchgehend
 62
     7
370
    15
100
AcDbCircle
 10
86.6274078325
 20
117.9616929487
 30
0.0
 40
11.70000000000024
100
AcDbArc
 50
170.0828229118
 51
171.4722504237
  0
LINE
  5
335
330
1F
100
AcDbEntity
  8
0
  6
SLD-Durchgehend
 62
     7
370
    15
100
AcDbLine
 10
75.0567614049
 20
119.6966671607
 30
0.0
 11
74.341786927
 21
119.3156159472
 31
0.0
  0
ARC
  5
336
330
1F
100
AcDbEntity
  8
0
  6
SLD-Durchgehend
 62
     7
370
    15
100
AcDbCircle
 10
74.3896617845
 20
119.2057518716
 30
0.0
 40
0.1198420505527513
100
AcDbArc
 50
113.5458600199
 51
234.8445279001
  0
LINE
  5
337
330
1F
100
AcDbEntity
  8
0
  6
SLD-Durchgehend
 62
     7
370
    15
100
AcDbLine
 10
74.3206570804
 20
119.1077698943
 30
0.0
 11
74.952445826
 21
118.726718739
 31
0.0
  0
ARC
  5
338
330
1F
100
AcDbEntity
  8
0
  6
SLD-Durchgehend
 62
     7
370
    15
100
AcDbCircle
 10
86.6274078325
 20
117.9616929487
 30
0.0
 40
11.70000000000006
100
AcDbArc
 50
176.2509365533
 51
177.6243641365
  0
LINE
  5
339
330
1F
100
AcDbEntity
  8
0
  6
SLD-Durchgehend
 62
     7
370
    15
100
AcDbLine
 10
74.9374636397
 20
118.4466671886
 30
0.0
 11
74.2678445712
 21
118.065615997
 31
0.0
  0
ARC
  5
33A
330
1F
100
AcDbEntity
  8
0
  6
SLD-Durchgehend
 62
     7
370
    15
100
AcDbCircle
 10
74.3270889892
 20
117.9616929487
 30
0.0
 40
0.1196239985686675
100
AcDbArc
 50
119.6865858065
 51
240.3134141935
  0
LINE
  5
33B
330
1F
100
AcDbEntity
  8
0
  6
SLD-Durchgehend
 62
     7
370
    15
100
AcDbLine
 10
74.2678445712
 20
117.8577699004
 30
0.0
 11
74.9374636397
 21
117.4767187087
 31
0.0
  0
ARC
  5
33C
330
1F
100
AcDbEntity
  8
0
  6
SLD-Durchgehend
 62
     7
370
    15
100
AcDbCircle
 10
86.6274078325
 20
117.9616929487
 30
0.0
 40
11.69999999999987
100
AcDbArc
 50
182.3756358635
 51
183.7490634467
  0
LINE
  5
33D
330
1F
100
AcDbEntity
  8
0
  6
SLD-Durchgehend
 62
     7
370
    15
100
AcDbLine
 10
74.952445826
 20
117.1966671584
 30
0.0
 11
74.3206570804
 21
116.8156160031
 31
0.0
  0
ARC
  5
33E
330
1F
100
AcDbEntity
  8
0
  6
SLD-Durchgehend
 62
     7
370
    15
100
AcDbCircle
 10
74.3919830028
 20
116.7178700032
 30
0.0
 40
0.121002759069448
100
AcDbArc
 50
126.1184841636
 51
245.4911279164
  0
LINE
  5
33F
330
1F
100
AcDbEntity
  8
0
  6
SLD-Durchgehend
 62
     7
370
    15
100
AcDbLine
 10
74.341786927
 20
116.6077699501
 30
0.0
 11
75.0567614049
 21
116.2267187367
 31
0.0
  0
ARC
  5
340
330
1F
100
AcDbEntity
  8
0
  6
SLD-Durchgehend
 62
     7
370
    15
100
AcDbCircle
 10
86.6274078325
 20
117.9616929487
 30
0.0
 40
11.69999999999968
100
AcDbArc
 50
188.5277495763
 51
189.9171770882
  0
LINE
  5
341
330
1F
100
AcDbEntity
  8
0
  6
SLD-Durchgehend
 62
     7
370
    15
100
AcDbLine
 10
75.1022322983
 20
115.9466671281
 30
0.0
 11
74.5018803463
 21
115.565616031
 31
0.0
  0
LWPOLYLINE
  5
342
330
1F
100
AcDbEntity
  8
0
  6
SLD-Durchgehend
 62
     7
370
    15
100
AcDbPolyline
 90
        9
 70
   128
 43
0.0
 10
74.5018803463
 20
115.565616031
 10
74.4796198741
 20
115.5456766475
 10
74.4652784378
 20
115.5202056736
 10
74.4595098257
 20
115.4935430724
 10
74.4610884175
 20
115.4644341197
 10
74.4690735772
 20
115.4376427632
 10
74.4880408928
 20
115.4048879154
 10
74.5230157808
 20
115.3709630937
 10
74.5448096603
 20
115.3577699781
  0
LINE
  5
343
330
1F
100
AcDbEntity
  8
0
  6
SLD-Durchgehend
 62
     7
370
    15
100
AcDbLine
 10
74.5448096603
 20
115.3577699781
 30
0.0
 11
75.3145859525
 21
114.9767186482
 31
0.0
  0
ARC
  5
344
330
1F
100
AcDbEntity
  8
0
  6
SLD-Durchgehend
 62
     7
370
    15
100
AcDbCircle
 10
86.6274078325
 20
117.9616929487
 30
0.0
 40
11.69999999999949
100
AcDbArc
 50
194.7810515008
 51
196.2042318296
  0
LINE
  5
345
330
1F
100
AcDbEntity
  8
0
  6
SLD-Durchgehend
 62
     7
370
    15
100
AcDbLine
 10
75.3922126204
 20
114.696667156
 30
0.0
 11
74.8174236104
 21
114.315616059
 31
0.0
  0
LWPOLYLINE
  5
346
330
1F
100
AcDbEntity
  8
0
  6
SLD-Durchgehend
 62
     7
370
    15
100
AcDbPolyline
 90
        9
 70
   128
 43
0.0
 10
74.8174236104
 20
114.315616059
 10
74.7983277723
 20
114.2978988111
 10
74.785808003
 20
114.2741093401
 10
74.7815183312
 20
114.2439372827
 10
74.7856459528
 20
114.2164658279
 10
74.7958159954
 20
114.190409052
 10
74.8193961516
 20
114.1558220599
 10
74.8621056736
 20
114.1194795247
 10
74.8836061865
 20
114.107770006
  0
LINE
  5
347
330
1F
100
AcDbEntity
  8
0
  6
SLD-Durchgehend
 62
     7
370
    15
100
AcDbLine
 10
74.8836061865
 20
114.107770006
 30
0.0
 11
75.7207590103
 21
113.7267186761
 31
0.0
  0
ARC
  5
348
330
1F
100
AcDbEntity
  8
0
  6
SLD-Durchgehend
 62
     7
370
    15
100
AcDbCircle
 10
86.6274078325
 20
117.9616929487
 30
0.0
 40
11.69999999999931
100
AcDbArc
 50
201.2208370458
 51
202.6996022985
  0
LINE
  5
349
330
1F
100
AcDbEntity
  8
0
  6
SLD-Durchgehend
 62
     7
370
    15
100
AcDbLine
 10
75.8336809412
 20
113.446667184
 30
0.0
 11
75.2784860268
 21
113.0656160869
 31
0.0
  0
LWPOLYLINE
  5
34A
330
1F
100
AcDbEntity
  8
0
  6
SLD-Durchgehend
 62
     7
370
    15
100
AcDbPolyline
 90
        9
 70
   128
 43
0.0
 10
75.2784860268
 20
113.0656160869
 10
75.2621506289
 20
113.0500932679
 10
75.2511898935
 20
113.0281163834
 10
75.2483689174
 20
113.0002898619
 10
75.2533645317
 20
112.974717141
 10
75.2674833819
 20
112.9440943234
 10
75.2963124722
 20
112.9076460831
 10
75.3485782951
 20
112.8684308835
 10
75.3704289854
 20
112.857770034
  0
LINE
  5
34B
330
1F
100
AcDbEntity
  8
0
  6
SLD-Durchgehend
 62
     7
370
    15
100
AcDbLine
 10
75.3704289854
 20
112.857770034
 30
0.0
 11
76.2927549839
 21
112.4767189369
 31
0.0
  0
ARC
  5
34C
330
1F
100
AcDbEntity
  8
0
  6
SLD-Durchgehend
 62
     7
370
    15
100
AcDbCircle
 10
86.6274078325
 20
117.9616929487
 30
0.0
 40
11.69999999999913
100
AcDbArc
 50
207.9565089686
 51
209.5206521197
  0
LINE
  5
34D
330
1F
100
AcDbEntity
  8
0
  6
SLD-Durchgehend
 62
     7
370
    15
100
AcDbLine
 10
76.4463235572
 20
112.1966669791
 30
0.0
 11
75.9038197756
 21
111.815615882
 31
0.0
  0
LWPOLYLINE
  5
34E
330
1F
100
AcDbEntity
  8
0
  6
SLD-Durchgehend
 62
     7
370
    15
100
AcDbPolyline
 90
        9
 70
   128
 43
0.0
 10
75.9038197756
 20
111.815615882
 10
75.8899216488
 20
111.8022975035
 10
75.8802470699
 20
111.7822931603
 10
75.8785651013
 20
111.7569881946
 10
75.8841725946
 20
111.7335905776
 10
75.8994826064
 20
111.7037756823
 10
75.931341289
 20
111.6664245248
 10
75.9914181143
 20
111.6234621488
 10
76.0256507382
 20
111.6077698291
  0
LINE
  5
34F
330
1F
100
AcDbEntity
  8
0
  6
SLD-Durchgehend
 62
     7
370
    15
100
AcDbLine
 10
76.0256507382
 20
111.6077698291
 30
0.0
 11
77.0602700249
 21
111.226718732
 31
0.0
  0
ARC
  5
350
330
1F
100
AcDbEntity
  8
0
  6
SLD-Durchgehend
 62
     7
370
    15
100
AcDbCircle
 10
86.6274078325
 20
117.9616929487
 30
0.0
 40
11.69999999999894
100
AcDbArc
 50
215.1443816259
 51
216.8394547611
  0
LINE
  5
351
330
1F
100
AcDbEntity
  8
0
  6
SLD-Durchgehend
 62
     7
370
    15
100
AcDbLine
 10
77.2636792571
 20
110.9466672398
 30
0.0
 11
76.7244965717
 21
110.5656161428
 31
0.0
  0
LWPOLYLINE
  5
352
330
1F
100
AcDbEntity
  8
0
  6
SLD-Durchgehend
 62
     7
370
    15
100
AcDbPolyline
 90
        9
 70
   128
 43
0.0
 10
76.7244965717
 20
110.5656161428
 10
76.7127814651
 20
110.5545529619
 10
76.7040801183
 20
110.5367158063
 10
76.7031590402
 20
110.5141312339
 10
76.7090412736
 20
110.4932654173
 10
76.7250665412
 20
110.4651054822
 10
76.759593463
 20
110.4277212628
 10
76.8290310115
 20
110.3807956435
 10
76.8831808999
 20
110.3577700898
  0
LINE
  5
353
330
1F
100
AcDbEntity
  8
0
  6
SLD-Durchgehend
 62
     7
370
    15
100
AcDbLine
 10
76.8831808999
 20
110.3577700898
 30
0.0
 11
78.0757888168
 21
109.9767185271
 31
0.0
  0
ARC
  5
354
330
1F
100
AcDbEntity
  8
0
  6
SLD-Durchgehend
 62
     7
370
    15
100
AcDbCircle
 10
86.6274078325
 20
117.9616929487
 30
0.0
 40
11.69999999999875
100
AcDbArc
 50
223.0374643913
 51
224.9437677466
  0
LINE
  5
355
330
1F
100
AcDbEntity
  8
0
  6
SLD-Durchgehend
 62
     7
370
    15
100
AcDbLine
 10
78.346142447
 20
109.696667035
 30
0.0
 11
77.7948004142
 21
109.3156164036
 31
0.0
  0
LWPOLYLINE
  5
356
330
1F
100
AcDbEntity
  8
0
  6
SLD-Durchgehend
 62
     7
370
    15
100
AcDbPolyline
 90
        9
 70
   128
 43
0.0
 10
77.7948004142
 20
109.3156164036
 10
77.7850885824
 20
109.3069131941
 10
77.7763592959
 20
109.2888725445
 10
77.7769246087
 20
109.268802543
 10
77.7834531799
 20
109.2509677157
 10
77.8012153641
 20
109.2245572701
 10
77.8412789986
 20
109.1869420827
 10
77.9289276287
 20
109.1351335392
 10
78.0031605572
 20
109.1077703506
  0
LINE
  5
357
330
1F
100
AcDbEntity
  8
0
  6
SLD-Durchgehend
 62
     7
370
    15
100
AcDbLine
 10
78.0031605572
 20
109.1077703506
 30
0.0
 11
79.4437284529
 21
108.7267187879
 31
0.0
  0
ARC
  5
358
330
1F
100
AcDbEntity
  8
0
  6
SLD-Durchgehend
 62
     7
370
    15
100
AcDbCircle
 10
86.6274078325
 20
117.9616929487
 30
0.0
 40
11.69999999999856
100
AcDbArc
 50
232.1214532678
 51
234.4146980712
  0
LINE
  5
359
330
1F
100
AcDbEntity
  8
0
  6
SLD-Durchgehend
 62
     7
370
    15
100
AcDbLine
 10
79.819009541
 20
108.4466672957
 30
0.0
 11
79.2221891642
 21
108.065615733
 31
0.0
  0
LWPOLYLINE
  5
35A
330
1F
100
AcDbEntity
  8
0
  6
SLD-Durchgehend
 62
     7
370
    15
100
AcDbPolyline
 90
        9
 70
   128
 43
0.0
 10
79.2221891642
 20
108.065615733
 10
79.2144168116
 20
108.0594531715
 10
79.2058565602
 20
108.0454684317
 10
79.2049201153
 20
108.0322138489
 10
79.2091418006
 20
108.0179431931
 10
79.2218380556
 20
107.9980762199
 10
79.2524506286
 20
107.9686240748
 10
79.3287855521
 20
107.9211918161
 10
79.5083953016
 20
107.8577696801
  0
LINE
  5
35B
330
1F
100
AcDbEntity
  8
0
  6
SLD-Durchgehend
 62
     7
370
    15
100
AcDbLine
 10
79.5083953016
 20
107.8577696801
 30
0.0
 11
81.4355568908
 21
107.4767190487
 31
0.0
  0
ARC
  5
35C
330
1F
100
AcDbEntity
  8
0
  6
SLD-Durchgehend
 62
     7
370
    15
100
AcDbCircle
 10
86.6274078325
 20
117.9616929487
 30
0.0
 40
11.70000000000601
100
AcDbArc
 50
243.6567400211
 51
246.9389024908
  0
LINE
  5
35D
330
1F
100
AcDbEntity
  8
0
  6
SLD-Durchgehend
 62
     7
370
    15
100
AcDbLine
 10
82.0443717711
 20
107.1966675565
 30
0.0
 11
81.2856321171
 21
106.8156159938
 31
0.0
  0
LWPOLYLINE
  5
35E
330
1F
100
AcDbEntity
  8
0
  6
SLD-Durchgehend
 62
     7
370
    15
100
AcDbPolyline
 90
        9
 70
   128
 43
0.0
 10
81.2856321171
 20
106.8156159938
 10
81.2733679958
 20
106.8066045165
 10
81.2683928706
 20
106.7982514844
 10
81.2677707471
 20
106.7881354586
 10
81.2712655351
 20
106.778485094
 10
81.2819012389
 20
106.7644174666
 10
81.3093617507
 20
106.7422100798
 10
81.4109518141
 20
106.6920527712
 10
81.7429394409
 20
106.6077699408
  0
ARC
  5
35F
330
1F
100
AcDbEntity
  8
0
  6
SLD-Durchgehend
 62
     7
370
    15
100
AcDbCircle
 10
86.6274078325
 20
138.991884538
 30
0.0
 40
32.75040319924217
100
AcDbArc
 50
261.4227787871
 51
278.5772212129
  0
LWPOLYLINE
  5
360
330
1F
100
AcDbEntity
  8
0
  6
SLD-Durchgehend
 62
     7
370
    15
100
AcDbPolyline
 90
       11
 70
   128
 43
0.0
 10
91.511876224
 20
106.6077699408
 10
91.719253356
 20
106.6513064772
 10
91.8987094373
 20
106.7158955604
 10
91.9484355435
 20
106.7442338437
 10
91.9689525798
 20
106.7605003238
 10
91.9820520975
 20
106.7759006739
 10
91.9867087104
 20
106.7865177512
 10
91.9868106902
 20
106.7968870968
 10
91.9829331286
 20
106.8048163772
 10
91.9712720387
 20
106.8144779176
 10
91.9691835478
 20
106.8156159938
  0
LINE
  5
361
330
1F
100
AcDbEntity
  8
0
  6
SLD-Durchgehend
 62
     7
370
    15
100
AcDbLine
 10
91.9691835478
 20
106.8156159938
 30
0.0
 11
91.2104438938
 21
107.1966675565
 31
0.0
  0
ARC
  5
362
330
1F
100
AcDbEntity
  8
0
  6
SLD-Durchgehend
 62
     7
370
    15
100
AcDbCircle
 10
86.6274078325
 20
117.9616929487
 30
0.0
 40
11.69999999999838
100
AcDbArc
 50
293.0610975091
 51
296.3432599789
  0
LINE
  5
363
330
1F
100
AcDbEntity
  8
0
  6
SLD-Durchgehend
 62
     7
370
    15
100
AcDbLine
 10
91.8192587741
 20
107.4767190487
 30
0.0
 11
93.7464203634
 21
107.8577696801
 31
0.0
  0
LWPOLYLINE
  5
364
330
1F
100
AcDbEntity
  8
0
  6
SLD-Durchgehend
 62
     7
370
    15
100
AcDbPolyline
 90
        9
 70
   128
 43
0.0
 10
93.7464203634
 20
107.8577696801
 10
93.9457848616
 20
107.9316095904
 10
93.9995049447
 20
107.9663786561
 10
94.0293258935
 20
107.9937651277
 10
94.0433278628
 20
108.013248396
 10
94.0493917041
 20
108.0291432783
 10
94.0492822737
 20
108.044265163
 10
94.0439653531
 20
108.0553702534
 10
94.0326265007
 20
108.065615733
  0
LINE
  5
365
330
1F
100
AcDbEntity
  8
0
  6
SLD-Durchgehend
 62
     7
370
    15
100
AcDbLine
 10
94.0326265007
 20
108.065615733
 30
0.0
 11
93.4358061239
 21
108.4466672957
 31
0.0
  0
ARC
  5
366
330
1F
100
AcDbEntity
  8
0
  6
SLD-Durchgehend
 62
     7
370
    15
100
AcDbCircle
 10
86.6274078325
 20
117.9616929487
 30
0.0
 40
11.69999999999857
100
AcDbArc
 50
305.5853019288
 51
307.8785467322
  0
LINE
  5
367
330
1F
100
AcDbEntity
  8
0
  6
SLD-Durchgehend
 62
     7
370
    15
100
AcDbLine
 10
93.811087212
 20
108.7267187879
 30
0.0
 11
95.2516551078
 21
109.1077703506
 31
0.0
  0
LWPOLYLINE
  5
368
330
1F
100
AcDbEntity
  8
0
  6
SLD-Durchgehend
 62
     7
370
    15
100
AcDbPolyline
 90
        9
 70
   128
 43
0.0
 10
95.2516551078
 20
109.1077703506
 10
95.3763340548
 20
109.1616324604
 10
95.4357757181
 20
109.205810678
 10
95.4590848595
 20
109.2314453319
 10
95.4737699539
 20
109.2561803282
 10
95.4789360002
 20
109.275007014
 10
95.4776070029
 20
109.2923687294
 10
95.470761782
 20
109.3056419388
 10
95.4600152508
 20
109.3156164036
  0
LINE
  5
369
330
1F
100
AcDbEntity
  8
0
  6
SLD-Durchgehend
 62
     7
370
    15
100
AcDbLine
 10
95.4600152508
 20
109.3156164036
 30
0.0
 11
94.9086732179
 21
109.696667035
 31
0.0
  0
ARC
  5
36A
330
1F
100
AcDbEntity
  8
0
  6
SLD-Durchgehend
 62
     7
370
    15
100
AcDbCircle
 10
86.6274078325
 20
117.9616929487
 30
0.0
 40
11.69999999999876
100
AcDbArc
 50
315.0562322534
 51
316.9625356087
  0
LINE
  5
36B
330
1F
100
AcDbEntity
  8
0
  6
SLD-Durchgehend
 62
     7
370
    15
100
AcDbLine
 10
95.1790268481
 20
109.9767185271
 30
0.0
 11
96.371634765
 21
110.3577700898
 31
0.0
  0
LWPOLYLINE
  5
36C
330
1F
100
AcDbEntity
  8
0
  6
SLD-Durchgehend
 62
     7
370
    15
100
AcDbPolyline
 90
        9
 70
   128
 43
0.0
 10
96.371634765
 20
110.3577700898
 10
96.4613369614
 20
110.4017760128
 10
96.5033749998
 20
110.4351979204
 10
96.5384923801
 20
110.4785649561
 10
96.5489511326
 20
110.5021292799
 10
96.5522843361
 20
110.5258682266
 10
96.5482014179
 20
110.5441747688
 10
96.5353910759
 20
110.5616054021
 10
96.5303190932
 20
110.5656161428
  0
LINE
  5
36D
330
1F
100
AcDbEntity
  8
0
  6
SLD-Durchgehend
 62
     7
370
    15
100
AcDbLine
 10
96.5303190932
 20
110.5656161428
 30
0.0
 11
95.9911364079
 21
110.9466672398
 31
0.0
  0
ARC
  5
36E
330
1F
100
AcDbEntity
  8
0
  6
SLD-Durchgehend
 62
     7
370
    15
100
AcDbCircle
 10
86.6274078325
 20
117.9616929487
 30
0.0
 40
11.69999999999895
100
AcDbArc
 50
323.1605452389
 51
324.8556183741
  0
LINE
  5
36F
330
1F
100
AcDbEntity
  8
0
  6
SLD-Durchgehend
 62
     7
370
    15
100
AcDbLine
 10
96.1945456401
 20
111.226718732
 30
0.0
 11
97.2291649267
 21
111.6077698291
 31
0.0
  0
LWPOLYLINE
  5
370
330
1F
100
AcDbEntity
  8
0
  6
SLD-Durchgehend
 62
     7
370
    15
100
AcDbPolyline
 90
        9
 70
   128
 43
0.0
 10
97.2291649267
 20
111.6077698291
 10
97.3032497749
 20
111.6492206686
 10
97.3396933586
 20
111.6832735472
 10
97.3631543055
 20
111.7169091933
 10
97.3737508938
 20
111.7435012468
 10
97.3765271664
 20
111.7703303218
 10
97.3717178166
 20
111.7905609764
 10
97.3577498406
 20
111.8101750955
 10
97.3509958893
 20
111.815615882
  0
LINE
  5
371
330
1F
100
AcDbEntity
  8
0
  6
SLD-Durchgehend
 62
     7
370
    15
100
AcDbLine
 10
97.3509958893
 20
111.815615882
 30
0.0
 11
96.8084921077
 21
112.1966669791
 31
0.0
  0
ARC
  5
372
330
1F
100
AcDbEntity
  8
0
  6
SLD-Durchgehend
 62
     7
370
    15
100
AcDbCircle
 10
86.6274078325
 20
117.9616929487
 30
0.0
 40
11.69999999999914
100
AcDbArc
 50
330.4793478803
 51
332.0434910314
  0
LINE
  5
373
330
1F
100
AcDbEntity
  8
0
  6
SLD-Durchgehend
 62
     7
370
    15
100
AcDbLine
 10
96.962060681
 20
112.4767189369
 30
0.0
 11
97.8843866795
 21
112.857770034
 31
0.0
  0
LWPOLYLINE
  5
374
330
1F
100
AcDbEntity
  8
0
  6
SLD-Durchgehend
 62
     7
370
    15
100
AcDbPolyline
 90
        9
 70
   128
 43
0.0
 10
97.8843866795
 20
112.857770034
 10
97.9443321884
 20
112.8946303845
 10
97.9767282441
 20
112.9284993269
 10
97.996247834
 20
112.9611091212
 10
98.0049938843
 20
112.9887419276
 10
98.0060406909
 20
113.0162490055
 10
98.0000671879
 20
113.0376899138
 10
97.9842570558
 20
113.0593250029
 10
97.9763296381
 20
113.0656160869
  0
LINE
  5
375
330
1F
100
AcDbEntity
  8
0
  6
SLD-Durchgehend
 62
     7
370
    15
100
AcDbLine
 10
97.9763296381
 20
113.0656160869
 30
0.0
 11
97.4211347237
 21
113.446667184
 31
0.0
  0
ARC
  5
376
330
1F
100
AcDbEntity
  8
0
  6
SLD-Durchgehend
 62
     7
370
    15
100
AcDbCircle
 10
86.6274078325
 20
117.9616929487
 30
0.0
 40
11.69999999999933
100
AcDbArc
 50
337.3003977015
 51
338.7791629543
  0
LINE
  5
377
330
1F
100
AcDbEntity
  8
0
  6
SLD-Durchgehend
 62
     7
370
    15
100
AcDbLine
 10
97.5340566546
 20
113.7267186761
 30
0.0
 11
98.3712094784
 21
114.107770006
 31
0.0
  0
LWPOLYLINE
  5
378
330
1F
100
AcDbEntity
  8
0
  6
SLD-Durchgehend
 62
     7
370
    15
100
AcDbPolyline
 90
        9
 70
   128
 43
0.0
 10
98.3712094784
 20
114.107770006
 10
98.4208405897
 20
114.1409213644
 10
98.4492263705
 20
114.1737756308
 10
98.4656688705
 20
114.2056114961
 10
98.4725913912
 20
114.2338633992
 10
98.4720381856
 20
114.2617343914
 10
98.4648958728
 20
114.2843098834
 10
98.4472258896
 20
114.3079473161
 10
98.4373920545
 20
114.315616059
  0
LINE
  5
379
330
1F
100
AcDbEntity
  8
0
  6
SLD-Durchgehend
 62
     7
370
    15
100
AcDbLine
 10
98.4373920545
 20
114.315616059
 30
0.0
 11
97.8626030445
 21
114.696667156
 31
0.0
  0
ARC
  5
37A
330
1F
100
AcDbEntity
  8
0
  6
SLD-Durchgehend
 62
     7
370
    15
100
AcDbCircle
 10
86.6274078325
 20
117.9616929487
 30
0.0
 40
11.69999999999952
100
AcDbArc
 50
343.7957681704
 51
345.2189484992
  0
LINE
  5
37B
330
1F
100
AcDbEntity
  8
0
  6
SLD-Durchgehend
 62
     7
370
    15
100
AcDbLine
 10
97.9402297124
 20
114.9767186482
 30
0.0
 11
98.7100060046
 21
115.3577699781
 31
0.0
  0
LWPOLYLINE
  5
37C
330
1F
100
AcDbEntity
  8
0
  6
SLD-Durchgehend
 62
     7
370
    15
100
AcDbPolyline
 90
        9
 70
   128
 43
0.0
 10
98.7100060046
 20
115.3577699781
 10
98.7445208192
 20
115.3810572334
 10
98.7726132333
 20
115.4131105624
 10
98.7883879751
 20
115.4445049808
 10
98.7950189918
 20
115.4734721396
 10
98.7942068786
 20
115.5025415112
 10
98.786840117
 20
115.5267454207
 10
98.7689913199
 20
115.5526557461
 10
98.7529353187
 20
115.565616031
  0
LINE
  5
37D
330
1F
100
AcDbEntity
  8
0
  6
SLD-Durchgehend
 62
     7
370
    15
100
AcDbLine
 10
98.7529353187
 20
115.565616031
 30
0.0
 11
98.1525833667
 21
115.9466671281
 31
0.0
  0
ARC
  5
37E
330
1F
100
AcDbEntity
  8
0
  6
SLD-Durchgehend
 62
     7
370
    15
100
AcDbCircle
 10
86.6274078325
 20
117.9616929487
 30
0.0
 40
11.6999999999997
100
AcDbArc
 50
350.0828229118
 51
351.4722504237
  0
LINE
  5
37F
330
1F
100
AcDbEntity
  8
0
  6
SLD-Durchgehend
 62
     7
370
    15
100
AcDbLine
 10
98.19805426
 20
116.2267187367
 30
0.0
 11
98.9130287379
 21
116.6077699501
 31
0.0
  0
ARC
  5
380
330
1F
100
AcDbEntity
  8
0
  6
SLD-Durchgehend
 62
     7
370
    15
100
AcDbCircle
 10
98.8651538804
 20
116.7176340257
 30
0.0
 40
0.1198420505527431
100
AcDbArc
 50
293.5458600199
 51
54.8445279001
  0
LINE
  5
381
330
1F
100
AcDbEntity
  8
0
  6
SLD-Durchgehend
 62
     7
370
    15
100
AcDbLine
 10
98.9341585845
 20
116.8156160031
 30
0.0
 11
98.302369839
 21
117.1966671584
 31
0.0
  0
ARC
  5
382
330
1F
100
AcDbEntity
  8
0
  6
SLD-Durchgehend
 62
     7
370
    15
100
AcDbCircle
 10
86.6274078325
 20
117.9616929487
 30
0.0
 40
11.69999999999989
100
AcDbArc
 50
356.2509365533
 51
357.6243641365
  0
LINE
  5
383
330
1F
100
AcDbEntity
  8
0
  6
SLD-Durchgehend
 62
     7
370
    15
100
AcDbLine
 10
98.3173520252
 20
117.4767187087
 30
0.0
 11
98.9869710937
 21
117.8577699004
 31
0.0
  0
ARC
  5
384
330
1F
100
AcDbEntity
  8
0
  6
SLD-Durchgehend
 62
     7
370
    15
100
AcDbCircle
 10
98.9277266757
 20
117.9616929487
 30
0.0
 40
0.1196239985686745
100
AcDbArc
 50
299.6865858065
 51
60.3134141935
  0
LINE
  5
385
330
1F
100
AcDbEntity
  8
0
  6
SLD-Durchgehend
 62
     7
370
    15
100
AcDbLine
 10
98.9869710937
 20
118.065615997
 30
0.0
 11
98.3173520252
 21
118.4466671886
 31
0.0
  0
ARC
  5
386
330
1F
100
AcDbEntity
  8
0
  6
SLD-Durchgehend
 62
     7
370
    15
100
AcDbCircle
 10
86.6274078325
 20
117.9616929487
 30
0.0
 40
11.70000000000006
100
AcDbArc
 50
2.3756358635
 51
3.7490634467
  0
LINE
  5
387
330
1F
100
AcDbEntity
  8
0
  6
SLD-Durchgehend
 62
     7
370
    15
100
AcDbLine
 10
84.9981312821
 20
122.4767187134
 30
0.0
 11
84.2790618953
 21
122.4767187134
 31
0.0
  0
LINE
  5
388
330
1F
100
AcDbEntity
  8
0
  6
SLD-Durchgehend
 62
     7
370
    15
100
AcDbLine
 10
88.9757537697
 20
122.4767187134
 30
0.0
 11
88.2566843828
 21
122.4767187134
 31
0.0
  0
ARC
  5
389
330
1F
100
AcDbEntity
  8
0
  6
SLD-Durchgehend
 62
     7
370
    15
100
AcDbCircle
 10
86.6274078325
 20
109.7849254381
 30
0.0
 40
12.79594305312463
100
AcDbArc
 50
82.6848090695
 51
97.3151909305
  0
CIRCLE
  5
38A
330
1F
100
AcDbEntity
  8
0
  6
SLD-Durchgehend
 62
     7
370
    15
100
AcDbCircle
 10
86.6274078325
 20
117.9616929487
 30
0.0
 40
4.0
  0
LINE
  5
38B
330
1F
100
AcDbEntity
  8
0
  6
SLD-Durchgehend
 62
     7
370
    15
100
AcDbLine
 10
81.8887649983
 20
118.726718739
 30
0.0
 11
82.6492038503
 21
119.1077698943
 31
0.0
  0
LWPOLYLINE
  5
38C
330
1F
100
AcDbEntity
  8
0
  6
SLD-Durchgehend
 62
     7
370
    15
100
AcDbPolyline
 90
        9
 70
   128
 43
0.0
 10
82.6492038503
 20
119.1077698943
 10
82.6965802297
 20
119.1401321896
 10
82.7252598427
 20
119.1739120743
 10
82.7417435538
 20
119.2062843813
 10
82.7487841197
 20
119.2350216199
 10
82.7482958738
 20
119.2632820214
 10
82.7411202662
 20
119.2859050108
 10
82.7235250216
 20
119.3090551289
 10
82.7150567383
 20
119.3156159472
  0
LINE
  5
38D
330
1F
100
AcDbEntity
  8
0
  6
SLD-Durchgehend
 62
     7
370
    15
100
AcDbLine
 10
82.7150567383
 20
119.3156159472
 30
0.0
 11
82.1519344062
 21
119.6966671607
 31
0.0
  0
ARC
  5
38E
330
1F
100
AcDbEntity
  8
0
  6
SLD-Durchgehend
 62
     7
370
    15
100
AcDbCircle
 10
86.6274078325
 20
117.9616929487
 30
0.0
 40
4.800000000000427
100
AcDbArc
 50
155.1782257964
 51
158.8105456562
  0
LINE
  5
38F
330
1F
100
AcDbEntity
  8
0
  6
SLD-Durchgehend
 62
     7
370
    15
100
AcDbLine
 10
82.2708414816
 20
119.9767187693
 30
0.0
 11
83.2512538362
 21
120.3577698663
 31
0.0
  0
LWPOLYLINE
  5
390
330
1F
100
AcDbEntity
  8
0
  6
SLD-Durchgehend
 62
     7
370
    15
100
AcDbPolyline
 90
        9
 70
   128
 43
0.0
 10
83.2512538362
 20
120.3577698663
 10
83.3390898951
 20
120.4028670665
 10
83.3829568181
 20
120.4390859686
 10
83.4120145481
 20
120.4742690072
 10
83.4249063809
 20
120.4994261254
 10
83.429811424
 20
120.5208262883
 10
83.4277997673
 20
120.5403544929
 10
83.4199948184
 20
120.555176026
 10
83.4088392038
 20
120.5656159193
  0
LINE
  5
391
330
1F
100
AcDbEntity
  8
0
  6
SLD-Durchgehend
 62
     7
370
    15
100
AcDbLine
 10
83.4088392038
 20
120.5656159193
 30
0.0
 11
83.0296060484
 21
120.833018421
 31
0.0
  0
LWPOLYLINE
  5
392
330
1F
100
AcDbEntity
  8
0
  6
SLD-Durchgehend
 62
     7
370
    15
100
AcDbPolyline
 90
        3
 70
   128
 43
0.0
 10
83.5729293939
 20
121.3548680291
 10
83.8653118298
 20
121.4356213797
 10
84.666356346
 20
121.6077698384
  0
LWPOLYLINE
  5
393
330
1F
100
AcDbEntity
  8
0
  6
SLD-Durchgehend
 62
     7
370
    15
100
AcDbPolyline
 90
       11
 70
   128
 43
0.0
 10
84.666356346
 20
121.6077698384
 10
84.8759031104
 20
121.6597176146
 10
85.0190512318
 20
121.7113054347
 10
85.0874020433
 20
121.7449743755
 10
85.1179503551
 20
121.7663982872
 10
85.1277548535
 20
121.7765541271
 10
85.1340694534
 20
121.7879323278
 10
85.1347665483
 20
121.7958059617
 10
85.1320888795
 20
121.8028088089
 10
85.1235861372
 20
121.8109946687
 10
85.1151654678
 20
121.8156158913
  0
LINE
  5
394
330
1F
100
AcDbEntity
  8
0
  6
SLD-Durchgehend
 62
     7
370
    15
100
AcDbLine
 10
85.1151654678
 20
121.8156158913
 30
0.0
 11
84.3679845747
 21
122.1966672212
 31
0.0
  0
ARC
  5
395
330
1F
100
AcDbEntity
  8
0
  6
SLD-Durchgehend
 62
     7
370
    15
100
AcDbCircle
 10
86.6274078325
 20
117.9616929487
 30
0.0
 40
4.800000000000934
100
AcDbArc
 50
109.8423103834
 51
118.0806000095
  0
ARC
  5
396
330
1F
100
AcDbEntity
  8
0
  6
SLD-Durchgehend
 62
     7
370
    15
100
AcDbCircle
 10
86.6274078325
 20
117.9616929487
 30
0.0
 40
4.80000000000094
100
AcDbArc
 50
61.9193999905
 51
70.1576896166
  0
LINE
  5
397
330
1F
100
AcDbEntity
  8
0
  6
SLD-Durchgehend
 62
     7
370
    15
100
AcDbLine
 10
88.8868310902
 20
122.1966672212
 30
0.0
 11
88.1396501972
 21
121.8156158913
 31
0.0
  0
LWPOLYLINE
  5
398
330
1F
100
AcDbEntity
  8
0
  6
SLD-Durchgehend
 62
     7
370
    15
100
AcDbPolyline
 90
       10
 70
   128
 43
0.0
 10
88.1396501972
 20
121.8156158913
 10
88.1268151751
 20
121.8075576227
 10
88.1215249136
 20
121.800666767
 10
88.1199422473
 20
121.7921470281
 10
88.122279867
 20
121.7840270594
 10
88.1301039079
 20
121.7729864631
 10
88.1510042999
 20
121.7554384832
 10
88.2323088771
 20
121.7127906613
 10
88.5261804978
 20
121.620422554
 10
88.5884593189
 20
121.6077698384
  0
LWPOLYLINE
  5
399
330
1F
100
AcDbEntity
  8
0
  6
SLD-Durchgehend
 62
     7
370
    15
100
AcDbPolyline
 90
        3
 70
   128
 43
0.0
 10
88.5884593189
 20
121.6077698384
 10
89.3818632648
 20
121.4375098691
 10
89.6360824298
 20
121.3673708018
  0
LINE
  5
39A
330
1F
100
AcDbEntity
  8
0
  6
SLD-Durchgehend
 62
     7
370
    15
100
AcDbLine
 10
90.2238722373
 20
120.8320752241
 30
0.0
 11
89.8459764611
 21
120.5656159193
 31
0.0
  0
LWPOLYLINE
  5
39B
330
1F
100
AcDbEntity
  8
0
  6
SLD-Durchgehend
 62
     7
370
    15
100
AcDbPolyline
 90
        9
 70
   128
 43
0.0
 10
89.8459764611
 20
120.5656159193
 10
89.8348322552
 20
120.5551904615
 10
89.8255721148
 20
120.5342852965
 10
89.8262789887
 20
120.5119100388
 10
89.8331800889
 20
120.4915685568
 10
89.8516123597
 20
120.4618742679
 10
89.8908110284
 20
120.4218271643
 10
89.9654819112
 20
120.3737560183
 10
90.0035618287
 20
120.3577698663
  0
LINE
  5
39C
330
1F
100
AcDbEntity
  8
0
  6
SLD-Durchgehend
 62
     7
370
    15
100
AcDbLine
 10
90.0035618287
 20
120.3577698663
 30
0.0
 11
90.9839741834
 21
119.9767187693
 31
0.0
  0
ARC
  5
39D
330
1F
100
AcDbEntity
  8
0
  6
SLD-Durchgehend
 62
     7
370
    15
100
AcDbCircle
 10
86.6274078325
 20
117.9616929487
 30
0.0
 40
4.800000000000439
100
AcDbArc
 50
21.1894543438
 51
24.8217742036
  0
LINE
  5
39E
330
1F
100
AcDbEntity
  8
0
  6
SLD-Durchgehend
 62
     7
370
    15
100
AcDbLine
 10
91.1028812587
 20
119.6966671607
 30
0.0
 11
90.5397589266
 21
119.3156159472
 31
0.0
  0
LWPOLYLINE
  5
39F
330
1F
100
AcDbEntity
  8
0
  6
SLD-Durchgehend
 62
     7
370
    15
100
AcDbPolyline
 90
        9
 70
   128
 43
0.0
 10
90.5397589266
 20
119.3156159472
 10
90.5214447011
 20
119.2984450365
 10
90.5092830252
 20
119.2748584774
 10
90.5052969646
 20
119.2449772254
 10
90.5094942026
 20
119.2174537329
 10
90.519733163
 20
119.1909175588
 10
90.5431875907
 20
119.155810423
 10
90.5847473949
 20
119.119467655
 10
90.6056118146
 20
119.1077698943
  0
LINE
  5
3A0
330
1F
100
AcDbEntity
  8
0
  6
SLD-Durchgehend
 62
     7
370
    15
100
AcDbLine
 10
90.6056118146
 20
119.1077698943
 30
0.0
 11
91.3660506666
 21
118.726718739
 31
0.0
  0
ARC
  5
3A1
330
1F
100
AcDbEntity
  8
0
  6
SLD-Durchgehend
 62
     7
370
    15
100
AcDbCircle
 10
86.6274078325
 20
117.9616929487
 30
0.0
 40
4.800000000000193
100
AcDbArc
 50
5.7988481848
 51
9.1709324956
  0
LINE
  5
3A2
330
1F
100
AcDbEntity
  8
0
  6
SLD-Durchgehend
 62
     7
370
    15
100
AcDbLine
 10
91.4028448932
 20
118.4466671886
 30
0.0
 11
90.7661033742
 21
118.065615997
 31
0.0
  0
ARC
  5
3A3
330
1F
100
AcDbEntity
  8
0
  6
SLD-Durchgehend
 62
     7
370
    15
100
AcDbCircle
 10
90.8283906325
 20
117.9616929487
 30
0.0
 40
0.1211598221575559
100
AcDbArc
 50
120.9367618605
 51
239.0632381395
  0
LINE
  5
3A4
330
1F
100
AcDbEntity
  8
0
  6
SLD-Durchgehend
 62
     7
370
    15
100
AcDbLine
 10
90.7661033742
 20
117.8577699004
 30
0.0
 11
91.4028448932
 21
117.4767187087
 31
0.0
  0
ARC
  5
3A5
330
1F
100
AcDbEntity
  8
0
  6
SLD-Durchgehend
 62
     7
370
    15
100
AcDbCircle
 10
86.6274078325
 20
117.9616929487
 30
0.0
 40
4.800000000000112
100
AcDbArc
 50
350.8290675044
 51
354.2011518152
  0
LINE
  5
3A6
330
1F
100
AcDbEntity
  8
0
  6
SLD-Durchgehend
 62
     7
370
    15
100
AcDbLine
 10
91.3660506666
 20
117.1966671584
 30
0.0
 11
90.6056118146
 21
116.8156160031
 31
0.0
  0
LWPOLYLINE
  5
3A7
330
1F
100
AcDbEntity
  8
0
  6
SLD-Durchgehend
 62
     7
370
    15
100
AcDbPolyline
 90
        9
 70
   128
 43
0.0
 10
90.6056118146
 20
116.8156160031
 10
90.5582354352
 20
116.7832537078
 10
90.5295558222
 20
116.7494738231
 10
90.5130721111
 20
116.717101516
 10
90.5060315453
 20
116.6883642774
 10
90.5065197911
 20
116.660103876
 10
90.5136953987
 20
116.6374808865
 10
90.5312906433
 20
116.6143307684
 10
90.5397589266
 20
116.6077699501
  0
LINE
  5
3A8
330
1F
100
AcDbEntity
  8
0
  6
SLD-Durchgehend
 62
     7
370
    15
100
AcDbLine
 10
90.5397589266
 20
116.6077699501
 30
0.0
 11
91.1028812587
 21
116.2267187367
 31
0.0
  0
ARC
  5
3A9
330
1F
100
AcDbEntity
  8
0
  6
SLD-Durchgehend
 62
     7
370
    15
100
AcDbCircle
 10
86.6274078325
 20
117.9616929487
 30
0.0
 40
4.799999999999684
100
AcDbArc
 50
335.1782257965
 51
338.8105456562
  0
LINE
  5
3AA
330
1F
100
AcDbEntity
  8
0
  6
SLD-Durchgehend
 62
     7
370
    15
100
AcDbLine
 10
90.9839741834
 20
115.9466671281
 30
0.0
 11
90.0035618287
 21
115.565616031
 31
0.0
  0
LWPOLYLINE
  5
3AB
330
1F
100
AcDbEntity
  8
0
  6
SLD-Durchgehend
 62
     7
370
    15
100
AcDbPolyline
 90
        9
 70
   128
 43
0.0
 10
90.0035618287
 20
115.565616031
 10
89.9157257699
 20
115.5205188308
 10
89.8718588468
 20
115.4842999287
 10
89.8428011168
 20
115.4491168902
 10
89.8299092841
 20
115.4239597719
 10
89.8250042409
 20
115.402559609
 10
89.8270158977
 20
115.3830314044
 10
89.8348208465
 20
115.3682098713
 10
89.8459764611
 20
115.3577699781
  0
LINE
  5
3AC
330
1F
100
AcDbEntity
  8
0
  6
SLD-Durchgehend
 62
     7
370
    15
100
AcDbLine
 10
89.8459764611
 20
115.3577699781
 30
0.0
 11
90.2383291576
 21
115.0811166492
 31
0.0
  0
LWPOLYLINE
  5
3AD
330
1F
100
AcDbEntity
  8
0
  6
SLD-Durchgehend
 62
     7
370
    15
100
AcDbPolyline
 90
        3
 70
   128
 43
0.0
 10
89.6579394065
 20
114.561904081
 10
89.3895038352
 20
114.4877645176
 10
88.5884593189
 20
114.315616059
  0
LWPOLYLINE
  5
3AE
330
1F
100
AcDbEntity
  8
0
  6
SLD-Durchgehend
 62
     7
370
    15
100
AcDbPolyline
 90
       11
 70
   128
 43
0.0
 10
88.5884593189
 20
114.315616059
 10
88.3789125545
 20
114.2636682827
 10
88.2357644331
 20
114.2120804627
 10
88.1674136216
 20
114.1784115218
 10
88.1368653098
 20
114.1569876101
 10
88.1270608114
 20
114.1468317703
 10
88.1207462115
 20
114.1354535695
 10
88.1200491166
 20
114.1275799357
 10
88.1227267854
 20
114.1205770884
 10
88.1312295277
 20
114.1123912286
 10
88.1396501972
 20
114.107770006
  0
LINE
  5
3AF
330
1F
100
AcDbEntity
  8
0
  6
SLD-Durchgehend
 62
     7
370
    15
100
AcDbLine
 10
88.1396501972
 20
114.107770006
 30
0.0
 11
88.8868310902
 21
113.7267186761
 31
0.0
  0
ARC
  5
3B0
330
1F
100
AcDbEntity
  8
0
  6
SLD-Durchgehend
 62
     7
370
    15
100
AcDbCircle
 10
86.6274078325
 20
117.9616929487
 30
0.0
 40
4.800000000005544
100
AcDbArc
 50
289.8423103834
 51
298.0806000097
  0
ARC
  5
3B1
330
1F
100
AcDbEntity
  8
0
  6
SLD-Durchgehend
 62
     7
370
    15
100
AcDbCircle
 10
86.6274078325
 20
126.1384604592
 30
0.0
 40
12.79594305312465
100
AcDbArc
 50
262.6848090695
 51
277.3151909305
  0
ARC
  5
3B2
330
1F
100
AcDbEntity
  8
0
  6
SLD-Durchgehend
 62
     7
370
    15
100
AcDbCircle
 10
86.6274078325
 20
117.9616929487
 30
0.0
 40
4.799999999999195
100
AcDbArc
 50
241.9193999905
 51
250.1576896166
  0
LINE
  5
3B3
330
1F
100
AcDbEntity
  8
0
  6
SLD-Durchgehend
 62
     7
370
    15
100
AcDbLine
 10
84.3679845747
 20
113.7267186761
 30
0.0
 11
85.1151654678
 21
114.107770006
 31
0.0
  0
LWPOLYLINE
  5
3B4
330
1F
100
AcDbEntity
  8
0
  6
SLD-Durchgehend
 62
     7
370
    15
100
AcDbPolyline
 90
       10
 70
   128
 43
0.0
 10
85.1151654678
 20
114.107770006
 10
85.1280004898
 20
114.1158282746
 10
85.1332907513
 20
114.1227191303
 10
85.1348734176
 20
114.1312388692
 10
85.1325357979
 20
114.1393588379
 10
85.124711757
 20
114.1503994342
 10
85.103811365
 20
114.1679474142
 10
85.0225067878
 20
114.210595236
 10
84.7286351672
 20
114.3029633433
 10
84.666356346
 20
114.315616059
  0
LWPOLYLINE
  5
3B5
330
1F
100
AcDbEntity
  8
0
  6
SLD-Durchgehend
 62
     7
370
    15
100
AcDbPolyline
 90
        3
 70
   128
 43
0.0
 10
84.666356346
 20
114.315616059
 10
83.8729524002
 20
114.4858760283
 10
83.5879947007
 20
114.5644959517
  0
LINE
  5
3B6
330
1F
100
AcDbEntity
  8
0
  6
SLD-Durchgehend
 62
     7
370
    15
100
AcDbLine
 10
83.0458906893
 20
115.1018499852
 30
0.0
 11
83.4088392038
 21
115.3577699781
 31
0.0
  0
LWPOLYLINE
  5
3B7
330
1F
100
AcDbEntity
  8
0
  6
SLD-Durchgehend
 62
     7
370
    15
100
AcDbPolyline
 90
        9
 70
   128
 43
0.0
 10
83.4088392038
 20
115.3577699781
 10
83.4199834097
 20
115.3681954358
 10
83.4292435501
 20
115.3891006008
 10
83.4285366763
 20
115.4114758585
 10
83.421635576
 20
115.4318173405
 10
83.4032033052
 20
115.4615116295
 10
83.3640046366
 20
115.501558733
 10
83.2893337537
 20
115.549629879
 10
83.2512538362
 20
115.565616031
  0
LINE
  5
3B8
330
1F
100
AcDbEntity
  8
0
  6
SLD-Durchgehend
 62
     7
370
    15
100
AcDbLine
 10
83.2512538362
 20
115.565616031
 30
0.0
 11
82.2708414816
 21
115.9466671281
 31
0.0
  0
ARC
  5
3B9
330
1F
100
AcDbEntity
  8
0
  6
SLD-Durchgehend
 62
     7
370
    15
100
AcDbCircle
 10
86.6274078325
 20
117.9616929487
 30
0.0
 40
4.799999999999684
100
AcDbArc
 50
201.1894543438
 51
204.8217742035
  0
LINE
  5
3BA
330
1F
100
AcDbEntity
  8
0
  6
SLD-Durchgehend
 62
     7
370
    15
100
AcDbLine
 10
82.1519344062
 20
116.2267187367
 30
0.0
 11
82.7150567383
 21
116.6077699501
 31
0.0
  0
LWPOLYLINE
  5
3BB
330
1F
100
AcDbEntity
  8
0
  6
SLD-Durchgehend
 62
     7
370
    15
100
AcDbPolyline
 90
        9
 70
   128
 43
0.0
 10
82.7150567383
 20
116.6077699501
 10
82.7333709639
 20
116.6249408609
 10
82.7455326397
 20
116.64852742
 10
82.7495187003
 20
116.6784086719
 10
82.7453214623
 20
116.7059321644
 10
82.7350825019
 20
116.7324683385
 10
82.7116280742
 20
116.7675754743
 10
82.67006827
 20
116.8039182423
 10
82.6492038503
 20
116.8156160031
  0
LINE
  5
3BC
330
1F
100
AcDbEntity
  8
0
  6
SLD-Durchgehend
 62
     7
370
    15
100
AcDbLine
 10
82.6492038503
 20
116.8156160031
 30
0.0
 11
81.8887649983
 21
117.1966671584
 31
0.0
  0
ARC
  5
3BD
330
1F
100
AcDbEntity
  8
0
  6
SLD-Durchgehend
 62
     7
370
    15
100
AcDbCircle
 10
86.6274078325
 20
117.9616929487
 30
0.0
 40
4.800000000000083
100
AcDbArc
 50
185.7988481848
 51
189.1709324956
  0
LINE
  5
3BE
330
1F
100
AcDbEntity
  8
0
  6
SLD-Durchgehend
 62
     7
370
    15
100
AcDbLine
 10
81.8519707717
 20
117.4767187087
 30
0.0
 11
82.4887122907
 21
117.8577699004
 31
0.0
  0
ARC
  5
3BF
330
1F
100
AcDbEntity
  8
0
  6
SLD-Durchgehend
 62
     7
370
    15
100
AcDbCircle
 10
82.4264250325
 20
117.9616929487
 30
0.0
 40
0.1211598221575559
100
AcDbArc
 50
300.9367618605
 51
59.0632381395
  0
LINE
  5
3C0
330
1F
100
AcDbEntity
  8
0
  6
SLD-Durchgehend
 62
     7
370
    15
100
AcDbLine
 10
82.4887122907
 20
118.065615997
 30
0.0
 11
81.8519707717
 21
118.4466671886
 31
0.0
  0
ARC
  5
3C1
330
1F
100
AcDbEntity
  8
0
  6
SLD-Durchgehend
 62
     7
370
    15
100
AcDbCircle
 10
86.6274078325
 20
117.9616929487
 30
0.0
 40
4.800000000000178
100
AcDbArc
 50
170.8290675044
 51
174.2011518152
  0
LINE
  5
3C2
330
1F
100
AcDbEntity
  8
0
  6
SLD-Durchgehend
 62
     7
370
    15
100
AcDbLine
 10
88.9757537697
 20
113.446667184
 30
0.0
 11
88.2566843828
 21
113.446667184
 31
0.0
  0
LINE
  5
3C3
330
1F
100
AcDbEntity
  8
0
  6
SLD-Durchgehend
 62
     7
370
    15
100
AcDbLine
 10
84.9981312821
 20
113.446667184
 30
0.0
 11
84.2790618953
 21
113.446667184
 31
0.0
  0
LINE
  5
3C4
330
1F
100
AcDbEntity
  8
0
  6
SLD-Durchgehend
 62
     7
370
    15
100
AcDbLine
 10
94.9086732179
 20
126.2267188624
 30
0.0
 11
94.6182374791
 21
126.2267188624
 31
0.0
  0
LINE
  5
3C5
330
1F
100
AcDbEntity
  8
0
  6
SLD-Durchgehend
 62
     7
370
    15
100
AcDbLine
 10
89.9502866849
 20
126.2267188624
 30
0.0
 11
83.30452898
 21
126.2267188624
 31
0.0
  0
LINE
  5
3C6
330
1F
100
AcDbEntity
  8
0
  6
SLD-Durchgehend
 62
     7
370
    15
100
AcDbLine
 10
78.6365781859
 20
126.2267188624
 30
0.0
 11
78.346142447
 21
126.2267188624
 31
0.0
  0
LINE
  5
3C7
330
1F
100
AcDbEntity
  8
0
  6
SLD-Durchgehend
 62
     7
370
    15
100
AcDbLine
 10
78.6365781859
 20
109.696667035
 30
0.0
 11
78.346142447
 21
109.696667035
 31
0.0
  0
LINE
  5
3C8
330
1F
100
AcDbEntity
  8
0
  6
SLD-Durchgehend
 62
     7
370
    15
100
AcDbLine
 10
89.9502866849
 20
109.696667035
 30
0.0
 11
83.30452898
 21
109.696667035
 31
0.0
  0
LINE
  5
3C9
330
1F
100
AcDbEntity
  8
0
  6
SLD-Durchgehend
 62
     7
370
    15
100
AcDbLine
 10
94.9086732179
 20
109.696667035
 30
0.0
 11
94.6182374791
 21
109.696667035
 31
0.0
  0
LINE
  5
3CA
330
1F
100
AcDbEntity
  8
0
  6
SLD-Durchgehend
 62
     7
370
    15
100
AcDbLine
 10
97.9402297124
 20
120.9466672492
 30
0.0
 11
94.5450271428
 21
120.9466672492
 31
0.0
  0
LINE
  5
3CB
330
1F
100
AcDbEntity
  8
0
  6
SLD-Durchgehend
 62
     7
370
    15
100
AcDbLine
 10
78.7097885221
 20
120.9466672492
 30
0.0
 11
75.3145859525
 21
120.9466672492
 31
0.0
  0
LINE
  5
3CC
330
1F
100
AcDbEntity
  8
0
  6
SLD-Durchgehend
 62
     7
370
    15
100
AcDbLine
 10
97.9402297124
 20
114.9767186482
 30
0.0
 11
94.5450271428
 21
114.9767186482
 31
0.0
  0
LINE
  5
3CD
330
1F
100
AcDbEntity
  8
0
  6
SLD-Durchgehend
 62
     7
370
    15
100
AcDbLine
 10
78.7097885221
 20
114.9767186482
 30
0.0
 11
75.3145859525
 21
114.9767186482
 31
0.0
  0
LINE
  5
3CE
330
1F
100
AcDbEntity
  8
0
  6
SLD-Durchgehend
 62
     7
370
    15
100
AcDbLine
 10
98.19805426
 20
119.6966671607
 30
0.0
 11
91.1028812587
 21
119.6966671607
 31
0.0
  0
LINE
  5
3CF
330
1F
100
AcDbEntity
  8
0
  6
SLD-Durchgehend
 62
     7
370
    15
100
AcDbLine
 10
98.1525833667
 20
119.9767187693
 30
0.0
 11
90.9839741834
 21
119.9767187693
 31
0.0
  0
LINE
  5
3D0
330
1F
100
AcDbEntity
  8
0
  6
SLD-Durchgehend
 62
     7
370
    15
100
AcDbLine
 10
96.962060681
 20
112.4767189369
 30
0.0
 11
95.7800391078
 21
112.4767189369
 31
0.0
  0
LINE
  5
3D1
330
1F
100
AcDbEntity
  8
0
  6
SLD-Durchgehend
 62
     7
370
    15
100
AcDbLine
 10
97.5340566546
 20
113.7267186761
 30
0.0
 11
95.4824265972
 21
113.7267186761
 31
0.0
  0
LINE
  5
3D2
330
1F
100
AcDbEntity
  8
0
  6
SLD-Durchgehend
 62
     7
370
    15
100
AcDbLine
 10
98.302369839
 20
117.1966671584
 30
0.0
 11
91.3660506666
 21
117.1966671584
 31
0.0
  0
LINE
  5
3D3
330
1F
100
AcDbEntity
  8
0
  6
SLD-Durchgehend
 62
     7
370
    15
100
AcDbLine
 10
98.3173520252
 20
117.4767187087
 30
0.0
 11
91.4028448932
 21
117.4767187087
 31
0.0
  0
LINE
  5
3D4
330
1F
100
AcDbEntity
  8
0
  6
SLD-Durchgehend
 62
     7
370
    15
100
AcDbLine
 10
97.8626030445
 20
121.2267187413
 30
0.0
 11
94.8394834012
 21
121.2267187413
 31
0.0
  0
LINE
  5
3D5
330
1F
100
AcDbEntity
  8
0
  6
SLD-Durchgehend
 62
     7
370
    15
100
AcDbLine
 10
97.4211347237
 20
122.4767187134
 30
0.0
 11
95.5927706272
 21
122.4767187134
 31
0.0
  0
LINE
  5
3D6
330
1F
100
AcDbEntity
  8
0
  6
SLD-Durchgehend
 62
     7
370
    15
100
AcDbLine
 10
98.19805426
 20
116.2267187367
 30
0.0
 11
91.1028812587
 21
116.2267187367
 31
0.0
  0
LINE
  5
3D7
330
1F
100
AcDbEntity
  8
0
  6
SLD-Durchgehend
 62
     7
370
    15
100
AcDbLine
 10
98.3173520252
 20
118.4466671886
 30
0.0
 11
91.4028448932
 21
118.4466671886
 31
0.0
  0
LINE
  5
3D8
330
1F
100
AcDbEntity
  8
0
  6
SLD-Durchgehend
 62
     7
370
    15
100
AcDbLine
 10
98.302369839
 20
118.726718739
 30
0.0
 11
91.3660506666
 21
118.726718739
 31
0.0
  0
LINE
  5
3D9
330
1F
100
AcDbEntity
  8
0
  6
SLD-Durchgehend
 62
     7
370
    15
100
AcDbLine
 10
97.8626030445
 20
114.696667156
 30
0.0
 11
94.8394834012
 21
114.696667156
 31
0.0
  0
LINE
  5
3DA
330
1F
100
AcDbEntity
  8
0
  6
SLD-Durchgehend
 62
     7
370
    15
100
AcDbLine
 10
98.1525833667
 20
115.9466671281
 30
0.0
 11
90.9839741834
 21
115.9466671281
 31
0.0
  0
LINE
  5
3DB
330
1F
100
AcDbEntity
  8
0
  6
SLD-Durchgehend
 62
     7
370
    15
100
AcDbLine
 10
95.9911364079
 20
110.9466672398
 30
0.0
 11
95.5099974707
 21
110.9466672398
 31
0.0
  0
LINE
  5
3DC
330
1F
100
AcDbEntity
  8
0
  6
SLD-Durchgehend
 62
     7
370
    15
100
AcDbLine
 10
96.1945456401
 20
111.226718732
 30
0.0
 11
95.6140755624
 21
111.226718732
 31
0.0
  0
LINE
  5
3DD
330
1F
100
AcDbEntity
  8
0
  6
SLD-Durchgehend
 62
     7
370
    15
100
AcDbLine
 10
96.8084921077
 20
112.1966669791
 30
0.0
 11
95.7825900004
 21
112.1966669791
 31
0.0
  0
LINE
  5
3DE
330
1F
100
AcDbEntity
  8
0
  6
SLD-Durchgehend
 62
     7
370
    15
100
AcDbLine
 10
96.962060681
 20
123.4466669605
 30
0.0
 11
95.7800391078
 21
123.4466669605
 31
0.0
  0
LINE
  5
3DF
330
1F
100
AcDbEntity
  8
0
  6
SLD-Durchgehend
 62
     7
370
    15
100
AcDbLine
 10
96.8084921077
 20
123.7267189183
 30
0.0
 11
95.7825900004
 21
123.7267189183
 31
0.0
  0
LINE
  5
3E0
330
1F
100
AcDbEntity
  8
0
  6
SLD-Durchgehend
 62
     7
370
    15
100
AcDbLine
 10
95.1790268481
 20
109.9767185271
 30
0.0
 11
94.8976612598
 21
109.9767185271
 31
0.0
  0
LINE
  5
3E1
330
1F
100
AcDbEntity
  8
0
  6
SLD-Durchgehend
 62
     7
370
    15
100
AcDbLine
 10
95.9911364079
 20
124.9767186575
 30
0.0
 11
95.5099974707
 21
124.9767186575
 31
0.0
  0
LINE
  5
3E2
330
1F
100
AcDbEntity
  8
0
  6
SLD-Durchgehend
 62
     7
370
    15
100
AcDbLine
 10
97.4211347237
 20
113.446667184
 30
0.0
 11
95.5927706272
 21
113.446667184
 31
0.0
  0
LINE
  5
3E3
330
1F
100
AcDbEntity
  8
0
  6
SLD-Durchgehend
 62
     7
370
    15
100
AcDbLine
 10
96.1945456401
 20
124.6966671653
 30
0.0
 11
95.6140755624
 21
124.6966671653
 31
0.0
  0
LINE
  5
3E4
330
1F
100
AcDbEntity
  8
0
  6
SLD-Durchgehend
 62
     7
370
    15
100
AcDbLine
 10
97.5340566546
 20
122.1966672212
 30
0.0
 11
95.4824265972
 21
122.1966672212
 31
0.0
  0
LINE
  5
3E5
330
1F
100
AcDbEntity
  8
0
  6
SLD-Durchgehend
 62
     7
370
    15
100
AcDbLine
 10
93.811087212
 20
127.1966671095
 30
0.0
 11
79.4437284529
 21
127.1966671095
 31
0.0
  0
LINE
  5
3E6
330
1F
100
AcDbEntity
  8
0
  6
SLD-Durchgehend
 62
     7
370
    15
100
AcDbLine
 10
93.4358061239
 20
127.4767186016
 30
0.0
 11
79.819009541
 21
127.4767186016
 31
0.0
  0
LINE
  5
3E7
330
1F
100
AcDbEntity
  8
0
  6
SLD-Durchgehend
 62
     7
370
    15
100
AcDbLine
 10
95.1790268481
 20
125.9466673702
 30
0.0
 11
94.8976612598
 21
125.9466673702
 31
0.0
  0
LINE
  5
3E8
330
1F
100
AcDbEntity
  8
0
  6
SLD-Durchgehend
 62
     7
370
    15
100
AcDbLine
 10
93.811087212
 20
108.7267187879
 30
0.0
 11
79.4437284529
 21
108.7267187879
 31
0.0
  0
LINE
  5
3E9
330
1F
100
AcDbEntity
  8
0
  6
SLD-Durchgehend
 62
     7
370
    15
100
AcDbLine
 10
93.4358061239
 20
108.4466672957
 30
0.0
 11
79.819009541
 21
108.4466672957
 31
0.0
  0
LINE
  5
3EA
330
1F
100
AcDbEntity
  8
0
  6
SLD-Durchgehend
 62
     7
370
    15
100
AcDbLine
 10
91.8192587741
 20
107.4767190487
 30
0.0
 11
81.4355568908
 21
107.4767190487
 31
0.0
  0
LINE
  5
3EB
330
1F
100
AcDbEntity
  8
0
  6
SLD-Durchgehend
 62
     7
370
    15
100
AcDbLine
 10
91.8192587741
 20
128.4466668487
 30
0.0
 11
81.4355568908
 21
128.4466668487
 31
0.0
  0
LINE
  5
3EC
330
1F
100
AcDbEntity
  8
0
  6
SLD-Durchgehend
 62
     7
370
    15
100
AcDbLine
 10
91.2104438938
 20
128.7267183408
 30
0.0
 11
82.0443717711
 21
128.7267183408
 31
0.0
  0
LINE
  5
3ED
330
1F
100
AcDbEntity
  8
0
  6
SLD-Durchgehend
 62
     7
370
    15
100
AcDbLine
 10
91.2104438938
 20
107.1966675565
 30
0.0
 11
82.0443717711
 21
107.1966675565
 31
0.0
  0
LINE
  5
3EE
330
1F
100
AcDbEntity
  8
0
  6
SLD-Durchgehend
 62
     7
370
    15
100
AcDbLine
 10
88.7884850562
 20
112.4767189369
 30
0.0
 11
84.4663306087
 21
112.4767189369
 31
0.0
  0
LINE
  5
3EF
330
1F
100
AcDbEntity
  8
0
  6
SLD-Durchgehend
 62
     7
370
    15
100
AcDbLine
 10
89.6708624385
 20
125.9466673702
 30
0.0
 11
83.5839532264
 21
125.9466673702
 31
0.0
  0
LINE
  5
3F0
330
1F
100
AcDbEntity
  8
0
  6
SLD-Durchgehend
 62
     7
370
    15
100
AcDbLine
 10
88.9544486016
 20
111.226718732
 30
0.0
 11
84.3003670633
 21
111.226718732
 31
0.0
  0
LINE
  5
3F1
330
1F
100
AcDbEntity
  8
0
  6
SLD-Durchgehend
 62
     7
370
    15
100
AcDbLine
 10
89.0585264605
 20
110.9466672398
 30
0.0
 11
84.1962892045
 21
110.9466672398
 31
0.0
  0
LINE
  5
3F2
330
1F
100
AcDbEntity
  8
0
  6
SLD-Durchgehend
 62
     7
370
    15
100
AcDbLine
 10
89.086097334
 20
122.1966672212
 30
0.0
 11
88.8868310902
 21
122.1966672212
 31
0.0
  0
LINE
  5
3F3
330
1F
100
AcDbEntity
  8
0
  6
SLD-Durchgehend
 62
     7
370
    15
100
AcDbLine
 10
88.7859341636
 20
123.7267189183
 30
0.0
 11
84.4688815013
 21
123.7267189183
 31
0.0
  0
LINE
  5
3F4
330
1F
100
AcDbEntity
  8
0
  6
SLD-Durchgehend
 62
     7
370
    15
100
AcDbLine
 10
89.0585264605
 20
124.9767186575
 30
0.0
 11
84.1962892045
 21
124.9767186575
 31
0.0
  0
LINE
  5
3F5
330
1F
100
AcDbEntity
  8
0
  6
SLD-Durchgehend
 62
     7
370
    15
100
AcDbLine
 10
88.9544486016
 20
124.6966671653
 30
0.0
 11
84.3003670633
 21
124.6966671653
 31
0.0
  0
LINE
  5
3F6
330
1F
100
AcDbEntity
  8
0
  6
SLD-Durchgehend
 62
     7
370
    15
100
AcDbLine
 10
89.6708624385
 20
109.9767185271
 30
0.0
 11
83.5839532264
 21
109.9767185271
 31
0.0
  0
LINE
  5
3F7
330
1F
100
AcDbEntity
  8
0
  6
SLD-Durchgehend
 62
     7
370
    15
100
AcDbLine
 10
89.086097334
 20
113.7267186761
 30
0.0
 11
88.8868310902
 21
113.7267186761
 31
0.0
  0
LINE
  5
3F8
330
1F
100
AcDbEntity
  8
0
  6
SLD-Durchgehend
 62
     7
370
    15
100
AcDbLine
 10
88.7859341636
 20
112.1966669791
 30
0.0
 11
84.4688815013
 21
112.1966669791
 31
0.0
  0
LINE
  5
3F9
330
1F
100
AcDbEntity
  8
0
  6
SLD-Durchgehend
 62
     7
370
    15
100
AcDbLine
 10
88.7884850562
 20
123.4466669605
 30
0.0
 11
84.4663306087
 21
123.4466669605
 31
0.0
  0
LINE
  5
3FA
330
1F
100
AcDbEntity
  8
0
  6
SLD-Durchgehend
 62
     7
370
    15
100
AcDbLine
 10
84.3679845747
 20
122.1966672212
 30
0.0
 11
84.168718331
 21
122.1966672212
 31
0.0
  0
LINE
  5
3FB
330
1F
100
AcDbEntity
  8
0
  6
SLD-Durchgehend
 62
     7
370
    15
100
AcDbLine
 10
84.3679845747
 20
113.7267186761
 30
0.0
 11
84.168718331
 21
113.7267186761
 31
0.0
  0
LINE
  5
3FC
330
1F
100
AcDbEntity
  8
0
  6
SLD-Durchgehend
 62
     7
370
    15
100
AcDbLine
 10
81.8887649983
 20
118.726718739
 30
0.0
 11
74.952445826
 21
118.726718739
 31
0.0
  0
LINE
  5
3FD
330
1F
100
AcDbEntity
  8
0
  6
SLD-Durchgehend
 62
     7
370
    15
100
AcDbLine
 10
82.2708414816
 20
119.9767187693
 30
0.0
 11
75.1022322983
 21
119.9767187693
 31
0.0
  0
LINE
  5
3FE
330
1F
100
AcDbEntity
  8
0
  6
SLD-Durchgehend
 62
     7
370
    15
100
AcDbLine
 10
82.1519344062
 20
119.6966671607
 30
0.0
 11
75.0567614049
 21
119.6966671607
 31
0.0
  0
LINE
  5
3FF
330
1F
100
AcDbEntity
  8
0
  6
SLD-Durchgehend
 62
     7
370
    15
100
AcDbLine
 10
82.1519344062
 20
116.2267187367
 30
0.0
 11
75.0567614049
 21
116.2267187367
 31
0.0
  0
LINE
  5
400
330
1F
100
AcDbEntity
  8
0
  6
SLD-Durchgehend
 62
     7
370
    15
100
AcDbLine
 10
81.8519707717
 20
118.4466671886
 30
0.0
 11
74.9374636397
 21
118.4466671886
 31
0.0
  0
LINE
  5
401
330
1F
100
AcDbEntity
  8
0
  6
SLD-Durchgehend
 62
     7
370
    15
100
AcDbLine
 10
81.8519707717
 20
117.4767187087
 30
0.0
 11
74.9374636397
 21
117.4767187087
 31
0.0
  0
LINE
  5
402
330
1F
100
AcDbEntity
  8
0
  6
SLD-Durchgehend
 62
     7
370
    15
100
AcDbLine
 10
81.8887649983
 20
117.1966671584
 30
0.0
 11
74.952445826
 21
117.1966671584
 31
0.0
  0
LINE
  5
403
330
1F
100
AcDbEntity
  8
0
  6
SLD-Durchgehend
 62
     7
370
    15
100
AcDbLine
 10
82.2708414816
 20
115.9466671281
 30
0.0
 11
75.1022322983
 21
115.9466671281
 31
0.0
  0
LINE
  5
404
330
1F
100
AcDbEntity
  8
0
  6
SLD-Durchgehend
 62
     7
370
    15
100
AcDbLine
 10
77.7448181942
 20
124.9767186575
 30
0.0
 11
77.2636792571
 21
124.9767186575
 31
0.0
  0
LINE
  5
405
330
1F
100
AcDbEntity
  8
0
  6
SLD-Durchgehend
 62
     7
370
    15
100
AcDbLine
 10
78.4153322637
 20
121.2267187413
 30
0.0
 11
75.3922126204
 21
121.2267187413
 31
0.0
  0
LINE
  5
406
330
1F
100
AcDbEntity
  8
0
  6
SLD-Durchgehend
 62
     7
370
    15
100
AcDbLine
 10
78.4153322637
 20
114.696667156
 30
0.0
 11
75.3922126204
 21
114.696667156
 31
0.0
  0
LINE
  5
407
330
1F
100
AcDbEntity
  8
0
  6
SLD-Durchgehend
 62
     7
370
    15
100
AcDbLine
 10
78.3571544051
 20
109.9767185271
 30
0.0
 11
78.0757888168
 21
109.9767185271
 31
0.0
  0
LINE
  5
408
330
1F
100
AcDbEntity
  8
0
  6
SLD-Durchgehend
 62
     7
370
    15
100
AcDbLine
 10
78.3571544051
 20
125.9466673702
 30
0.0
 11
78.0757888168
 21
125.9466673702
 31
0.0
  0
LINE
  5
409
330
1F
100
AcDbEntity
  8
0
  6
SLD-Durchgehend
 62
     7
370
    15
100
AcDbLine
 10
77.7723890677
 20
113.7267186761
 30
0.0
 11
75.7207590103
 21
113.7267186761
 31
0.0
  0
LINE
  5
40A
330
1F
100
AcDbEntity
  8
0
  6
SLD-Durchgehend
 62
     7
370
    15
100
AcDbLine
 10
77.4722256646
 20
123.7267189183
 30
0.0
 11
76.4463235572
 21
123.7267189183
 31
0.0
  0
LINE
  5
40B
330
1F
100
AcDbEntity
  8
0
  6
SLD-Durchgehend
 62
     7
370
    15
100
AcDbLine
 10
77.4747765571
 20
123.4466669605
 30
0.0
 11
76.2927549839
 21
123.4466669605
 31
0.0
  0
LINE
  5
40C
330
1F
100
AcDbEntity
  8
0
  6
SLD-Durchgehend
 62
     7
370
    15
100
AcDbLine
 10
77.6620450378
 20
122.4767187134
 30
0.0
 11
75.8336809412
 21
122.4767187134
 31
0.0
  0
LINE
  5
40D
330
1F
100
AcDbEntity
  8
0
  6
SLD-Durchgehend
 62
     7
370
    15
100
AcDbLine
 10
77.7723890677
 20
122.1966672212
 30
0.0
 11
75.7207590103
 21
122.1966672212
 31
0.0
  0
LINE
  5
40E
330
1F
100
AcDbEntity
  8
0
  6
SLD-Durchgehend
 62
     7
370
    15
100
AcDbLine
 10
77.6407401025
 20
111.226718732
 30
0.0
 11
77.0602700249
 21
111.226718732
 31
0.0
  0
LINE
  5
40F
330
1F
100
AcDbEntity
  8
0
  6
SLD-Durchgehend
 62
     7
370
    15
100
AcDbLine
 10
77.7448181942
 20
110.9466672398
 30
0.0
 11
77.2636792571
 21
110.9466672398
 31
0.0
  0
LINE
  5
410
330
1F
100
AcDbEntity
  8
0
  6
SLD-Durchgehend
 62
     7
370
    15
100
AcDbLine
 10
77.6620450378
 20
113.446667184
 30
0.0
 11
75.8336809412
 21
113.446667184
 31
0.0
  0
LINE
  5
411
330
1F
100
AcDbEntity
  8
0
  6
SLD-Durchgehend
 62
     7
370
    15
100
AcDbLine
 10
77.6407401025
 20
124.6966671653
 30
0.0
 11
77.0602700249
 21
124.6966671653
 31
0.0
  0
LINE
  5
412
330
1F
100
AcDbEntity
  8
0
  6
SLD-Durchgehend
 62
     7
370
    15
100
AcDbLine
 10
77.4747765571
 20
112.4767189369
 30
0.0
 11
76.2927549839
 21
112.4767189369
 31
0.0
  0
LINE
  5
413
330
1F
100
AcDbEntity
  8
0
  6
SLD-Durchgehend
 62
     7
370
    15
100
AcDbLine
 10
77.4722256646
 20
112.1966669791
 30
0.0
 11
76.4463235572
 21
112.1966669791
 31
0.0
  0
CIRCLE
  5
414
330
1F
100
AcDbEntity
  8
0
  6
SLD-Durchgehend
 62
     7
370
    15
100
AcDbCircle
 10
86.6274078325
 20
117.9616929487
 30
0.0
 40
3.299999999999997
  0
CIRCLE
  5
415
330
1F
100
AcDbEntity
  8
0
  6
SLD-Durchgehend
 62
     7
370
    15
100
AcDbCircle
 10
86.6274078325
 20
117.9616929487
 30
0.0
 40
2.999999999999986
  0
CIRCLE
  5
416
330
1F
100
AcDbEntity
  8
0
  6
SLD-Durchgehend
 62
     7
370
    15
100
AcDbCircle
 10
86.6274078325
 20
117.9616929487
 30
0.0
 40
19.99999999999999
  0
INSERT
  5
422
330
1F
100
AcDbEntity
  8
VERMASSUNG
100
AcDbBlockReference
  2
SW_CENTERMARKSYMBOL_0
 10
86.6274078325
 20
117.9616929487
 30
0.0
  0
OLE2FRAME
  5
423
330
1F
100
AcDbEntity
  8
0
100
AcDbOle2Frame
 70
     2
  3
Paintbrush-Bild
 10
13.8511154363
 20
38.264191557
 30
0.0
 11
51.6290888628
 21
31.9806341108
 31
0.0
 71
     2
 72
     0
 73
     1
 90
    12928
310
80552BED0767C5B32B40DDAF6807D121434000000000000000006FFBDDFB85D0
310
4940DDAF6807D121434000000000000000006FFBDDFB85D04940416F4BD60AFB
310
3F4000000000000000002BED0767C5B32B40416F4BD60AFB3F40000000000000
310
0000000000000100000000010000010000000100000000000100000000320000
310
D0CF11E0A1B11AE1000000000000000000000000000000003E000300FEFF0900
310
0600000000000000000000000100000001000000000000000010000002000000
310
01000000FEFFFFFF0000000000000000FFFFFFFFFFFFFFFFFFFFFFFFFFFFFFFF
310
FFFFFFFFFFFFFFFFFFFFFFFFFFFFFFFFFFFFFFFFFFFFFFFFFFFFFFFFFFFFFFFF
310
FFFFFFFFFFFFFFFFFFFFFFFFFFFFFFFFFFFFFFFFFFFFFFFFFFFFFFFFFFFFFFFF
310
FFFFFFFFFFFFFFFFFFFFFFFFFFFFFFFFFFFFFFFFFFFFFFFFFFFFFFFFFFFFFFFF
310
FFFFFFFFFFFFFFFFFFFFFFFFFFFFFFFFFFFFFFFFFFFFFFFFFFFFFFFFFFFFFFFF
310
FFFFFFFFFFFFFFFFFFFFFFFFFFFFFFFFFFFFFFFFFFFFFFFFFFFFFFFFFFFFFFFF
310
FFFFFFFFFFFFFFFFFFFFFFFFFFFFFFFFFFFFFFFFFFFFFFFFFFFFFFFFFFFFFFFF
310
FFFFFFFFFFFFFFFFFFFFFFFFFFFFFFFFFFFFFFFFFFFFFFFFFFFFFFFFFFFFFFFF
310
FFFFFFFFFFFFFFFFFFFFFFFFFFFFFFFFFFFFFFFFFFFFFFFFFFFFFFFFFFFFFFFF
310
FFFFFFFFFFFFFFFFFFFFFFFFFFFFFFFFFFFFFFFFFFFFFFFFFFFFFFFFFFFFFFFF
310
FFFFFFFFFFFFFFFFFFFFFFFFFFFFFFFFFFFFFFFFFFFFFFFFFFFFFFFFFFFFFFFF
310
FFFFFFFFFFFFFFFFFFFFFFFFFFFFFFFFFFFFFFFFFFFFFFFFFFFFFFFFFFFFFFFF
310
FFFFFFFFFFFFFFFFFFFFFFFFFFFFFFFFFFFFFFFFFFFFFFFFFFFFFFFFFFFFFFFF
310
FFFFFFFFFFFFFFFFFFFFFFFFFFFFFFFFFFFFFFFFFFFFFFFFFFFFFFFFFFFFFFFF
310
FDFFFFFFFEFFFFFFFEFFFFFFFEFFFFFF05000000060000000700000008000000
310
090000000A0000000B0000000C0000000D0000000E0000000F00000010000000
310
11000000120000001300000014000000150000001600000017000000FEFFFFFF
310
FFFFFFFFFFFFFFFFFFFFFFFFFFFFFFFFFFFFFFFFFFFFFFFFFFFFFFFFFFFFFFFF
310
FFFFFFFFFFFFFFFFFFFFFFFFFFFFFFFFFFFFFFFFFFFFFFFFFFFFFFFFFFFFFFFF
310
FFFFFFFFFFFFFFFFFFFFFFFFFFFFFFFFFFFFFFFFFFFFFFFFFFFFFFFFFFFFFFFF
310
FFFFFFFFFFFFFFFFFFFFFFFFFFFFFFFFFFFFFFFFFFFFFFFFFFFFFFFFFFFFFFFF
310
FFFFFFFFFFFFFFFFFFFFFFFFFFFFFFFFFFFFFFFFFFFFFFFFFFFFFFFFFFFFFFFF
310
FFFFFFFFFFFFFFFFFFFFFFFFFFFFFFFFFFFFFFFFFFFFFFFFFFFFFFFFFFFFFFFF
310
FFFFFFFFFFFFFFFFFFFFFFFFFFFFFFFFFFFFFFFFFFFFFFFFFFFFFFFFFFFFFFFF
310
FFFFFFFFFFFFFFFFFFFFFFFFFFFFFFFFFFFFFFFFFFFFFFFFFFFFFFFFFFFFFFFF
310
FFFFFFFFFFFFFFFFFFFFFFFFFFFFFFFFFFFFFFFFFFFFFFFFFFFFFFFFFFFFFFFF
310
FFFFFFFFFFFFFFFFFFFFFFFFFFFFFFFFFFFFFFFFFFFFFFFFFFFFFFFFFFFFFFFF
310
FFFFFFFFFFFFFFFFFFFFFFFFFFFFFFFFFFFFFFFFFFFFFFFFFFFFFFFFFFFFFFFF
310
FFFFFFFFFFFFFFFFFFFFFFFFFFFFFFFFFFFFFFFFFFFFFFFFFFFFFFFFFFFFFFFF
310
FFFFFFFFFFFFFFFFFFFFFFFFFFFFFFFFFFFFFFFFFFFFFFFFFFFFFFFFFFFFFFFF
310
52006F006F007400200045006E00740072007900000000000000000000000000
310
0000000000000000000000000000000000000000000000000000000000000000
310
16000500FFFFFFFFFFFFFFFF020000000A00030000000000C000000000000046
310
00000000000000000000000090ACD110C887D00103000000C000000000000000
310
01004F006C006500000000000000000000000000000000000000000000000000
310
0000000000000000000000000000000000000000000000000000000000000000
310
0A000200FFFFFFFFFFFFFFFFFFFFFFFF00000000000000000000000000000000
310
0000000000000000000000000000000000000000000000001400000000000000
310
010043006F006D0070004F0062006A0000000000000000000000000000000000
310
0000000000000000000000000000000000000000000000000000000000000000
310
120002010100000003000000FFFFFFFF00000000000000000000000000000000
310
0000000000000000000000000000000000000000010000004D00000000000000
310
01004F006C006500310030004E00610074006900760065000000000000000000
310
0000000000000000000000000000000000000000000000000000000000000000
310
1A000200FFFFFFFFFFFFFFFFFFFFFFFF00000000000000000000000000000000
310
0000000000000000000000000000000000000000040000002426000000000000
310
FEFFFFFF02000000FEFFFFFFFFFFFFFFFFFFFFFFFFFFFFFFFFFFFFFFFFFFFFFF
310
FFFFFFFFFFFFFFFFFFFFFFFFFFFFFFFFFFFFFFFFFFFFFFFFFFFFFFFFFFFFFFFF
310
FFFFFFFFFFFFFFFFFFFFFFFFFFFFFFFFFFFFFFFFFFFFFFFFFFFFFFFFFFFFFFFF
310
FFFFFFFFFFFFFFFFFFFFFFFFFFFFFFFFFFFFFFFFFFFFFFFFFFFFFFFFFFFFFFFF
310
FFFFFFFFFFFFFFFFFFFFFFFFFFFFFFFFFFFFFFFFFFFFFFFFFFFFFFFFFFFFFFFF
310
FFFFFFFFFFFFFFFFFFFFFFFFFFFFFFFFFFFFFFFFFFFFFFFFFFFFFFFFFFFFFFFF
310
FFFFFFFFFFFFFFFFFFFFFFFFFFFFFFFFFFFFFFFFFFFFFFFFFFFFFFFFFFFFFFFF
310
FFFFFFFFFFFFFFFFFFFFFFFFFFFFFFFFFFFFFFFFFFFFFFFFFFFFFFFFFFFFFFFF
310
FFFFFFFFFFFFFFFFFFFFFFFFFFFFFFFFFFFFFFFFFFFFFFFFFFFFFFFFFFFFFFFF
310
FFFFFFFFFFFFFFFFFFFFFFFFFFFFFFFFFFFFFFFFFFFFFFFFFFFFFFFFFFFFFFFF
310
FFFFFFFFFFFFFFFFFFFFFFFFFFFFFFFFFFFFFFFFFFFFFFFFFFFFFFFFFFFFFFFF
310
FFFFFFFFFFFFFFFFFFFFFFFFFFFFFFFFFFFFFFFFFFFFFFFFFFFFFFFFFFFFFFFF
310
FFFFFFFFFFFFFFFFFFFFFFFFFFFFFFFFFFFFFFFFFFFFFFFFFFFFFFFFFFFFFFFF
310
FFFFFFFFFFFFFFFFFFFFFFFFFFFFFFFFFFFFFFFFFFFFFFFFFFFFFFFFFFFFFFFF
310
FFFFFFFFFFFFFFFFFFFFFFFFFFFFFFFFFFFFFFFFFFFFFFFFFFFFFFFFFFFFFFFF
310
FFFFFFFFFFFFFFFFFFFFFFFFFFFFFFFFFFFFFFFFFFFFFFFFFFFFFFFFFFFFFFFF
310
0100000200000000000000000000000000000000000000000000000000000000
310
0000000000000000000000000000000000000000000000000000000000000000
310
0100FEFF030A0000FFFFFFFF0A00030000000000C00000000000004607000000
310
5042727573680007000000504272757368000700000050427275736800F439B2
310
7100000000000000000000000000000000000000000000000000000000000000
310
0000000000000000000000000000000000000000000000000000000000000000
310
0000000000000000000000000000000000000000000000000000000000000000
310
0000000000000000000000000000000000000000000000000000000000000000
310
0000000000000000000000000000000000000000000000000000000000000000
310
0000000000000000000000000000000000000000000000000000000000000000
310
0000000000000000000000000000000000000000000000000000000000000000
310
0000000000000000000000000000000000000000000000000000000000000000
310
0000000000000000000000000000000000000000000000000000000000000000
310
0000000000000000000000000000000000000000000000000000000000000000
310
0000000000000000000000000000000000000000000000000000000000000000
310
0000000000000000000000000000000000000000000000000000000000000000
310
20260000424D0E260000000000003E00000028000000B40200006E0000000100
310
01000000000000000000130B0000130B00000200000002000000000000FFFFFF
310
FFFFFFFFFFFFFFFFFFFFFFFFFFFFFFFFFFFFFFFFFFFFFFFFFFFFFFFFFFFFFFFF
310
FFFFFFFFFFFFFFFFFFFFFFFFFFFFFFFFFFFFFFFFFFFFFFFFFFFFFFFFFFFFFFFF
310
FFFFFFFFFFFFFFFFFFFFFFFFFFFFFFFFFFFFFFFFFFFFFFFFF000FFFFFFFFFFFF
310
FFFFFFFFFFFFFFFFFFFFFFFFFFFFFFFFFFFFFFFFFFFFFFFFFFFFFFFFFFFFFFFF
310
FFFFFFFFFFFFFFFFFFFFFFFFFFFFFFFFFFFFFFFFFFFFFFFFFFFFFFFFFFFFFFFF
310
FFFFFFFFFFFFFFFFFFFFFFFFFFFFFFFFF000FFFFFFFFFFFFFFFFFFFFFFFFFFFF
310
FFFFFFFFFFFFFFFFFFFFFFFFFFFFFFFFFFFFFFFFFFFFFFFFFFFFFFFFFFFFFFFF
310
FFFFFFFFFFFFFFFFFFFFFFFFFFFFFFFFFFFFFFFFFFFFFFFFFFFFFFFFFFFFFFFF
310
FFFFFFFFFFFFFFFFF000FFFFFFFFFFFFFFFFFFFFFFFFFFFFFFFFFFFFFFFFFFFF
310
FFFFFFFFFFFFFFFFFFFFFFFFFFFFFFFFFFFFFFFFFFFFFFFFFFFFFFFFFFFFFFFF
310
FFFFFFFFFFFFFFFFFFFFFFFFFFFFFFFFFFFFFFFFFFFFFFFFFFFFFFFFFFFFFFFF
310
F000FFFFFFFFFFFFFFFFFFFFFFFFFFFFFFFFFFFFFFFFFFFFFFFFFFFFFFFFFFFF
310
FFFFFFFFFFFFFFFFFFFFFFFFFFFFFFFFFFFFFFFFFFFFFFFFFFFFFFFFFFFFFFFF
310
FFFFFFFFFFFFFFFFFFFFFFFFFFFFFFFFFFFFFFFFFFFFFFFFF000FFFFFFFFFFFF
310
FFFFFFFFFFFFFFFFFFFFFFFFFFFFFFFFFFFFFFFFFFFFFFFFFFFFFFFFFFFFFFFF
310
FFFFFFFFFFFFFFFFFFFFFFFFFFFFFFFFFFFFFFFFFFFFFFFFFFFFFFFFFFFFFFFF
310
FFFFFFFFFFFFFFFFFFFFFFFFFFFFFFFFF000FFFFFFFFFFFFFFFFFFFFFFFFFFFF
310
FFFFFFFFFFFFFFFFFFFFFFFFFFFFFFFFFFFFFFFFFFFFFFFFFFFFFFFFFFFFFFFF
310
FFFFFFFFFFFFFFFFFFFFFFFFFFFFFFFFFFFFFFFFFFFFFFFFFFFFFFFFFFFFFFFF
310
FFFFFFFFFFFFFFFFF000FFFFFFFFFFFFFFFFFFFFFFFFFFFFFFFFFFFFFFFFFFFF
310
FFFFFFFFFFFFFFFFFFFFFFFFFFFFFFFFFFFFFFFFFFFFFFFFFFFFFFFFFFFFFFFF
310
FFFFFFFFFFFFFFFFFFFFFFFFFFFFFFFFFFFFFFFFFFFFFFFFFFFFFFFFFFFFFFFF
310
F000FFFFFFFFFFFFFFFFFFFFFFFFFFFFFFFFFFFFFFFFFFFFFFFFFFFFFFFFFFFF
310
FFFFFFFFFFFFFFFFFFFFFFFFFFFFFFFFFFFFFFFFFFFFFFFFFFFFFFFFFFFFFFFF
310
FFFFFFFFFFFFFFFFFFFFFFFFFFFFFFFFFFFFFFFFFFFFFFFFF000FFFFFFFFFFFF
310
FFFFFFFFFFFFFFFFFFFFFFFFFFFFFFFFFFFFFFFFFFFFFFFFFFFFFFFFFFFFFFFF
310
FFFFFFFFFFFFFFFFFFFFFFFFFFFFFFFFFFFFFFFFFFFFFFFFFFFFFFFFFFFFFFFF
310
FFFFFFFFFFFFFFFFFFFFFFFFFFFFFFFFF000FFFFFFFFFFFFFFFFFFFFFFFFFFFF
310
FFFFFFFFFFFFFFFFFFFFFFFFFFFFFFFFFFFFFFFFFFFFFFFFFFFFFFFFFFFFFFFF
310
FFFFFFFFFFFFFFFFFFFFFFFFFFFFFFFFFFFFFFFFFFFFFFFFFFFFFFFFFFFFFFFF
310
FFFFFFFFFFFFFFFFF000FFFFFFFFFFFFFFFFFFFFFFFFFFFFFFFFFFFFFFFFFFFF
310
FFFFFFFFFFFFFFFFFFFFFFFFFFFFFFFFFFFFFFFFFFFFFFFFFFFFFFFFFFFFFFFF
310
FFFFFFFFFFFFFFFFFFFFFFFFFFFFFFFFFFFFFFFFFFFFFFFFFFFFFFFFFFFFFFFF
310
F000FFFFFFFFFFFFFFFFFFFFFFFFFFFFFFFFFFFFFFFFFFFFFFFFFFFFFFFFFFFF
310
FFFFFFFFFFFFFFFFFFFFFFFFFFFFFFFFFFFFFFFFFFFFFFFFFFFFFFFFFFFFFFFF
310
FFFFFFFFFFFFFFFFFFFFFFFFFFFFFFFFFFFFFFFFFFFFFFFFF000FFFFFFFFFFFF
310
FFFFFFFFFFFFFFFFFFFFFFFFFFFFFFFFFFFFFFFFFFFFFFFFFFFFFFFFFFFFFFFF
310
FFFFFFFFFFFFFFFFFFFFFFFFFFFFFFFFFFFFFFFFFFFFFFFFFFFFFFFFFFFFFFFF
310
FFFFFFFFFFFFFFFFFFFFFFFFFFFFFFFFF000FFFFFFFFFFFFFFFFFFFFFFFFFFFF
310
FFFFFFFFFFFFFFFFFFFFFFFFFFFFFFFFFFFFFFFFFFFFFFFFFFFFFFFFFFFFFFFF
310
FFFFFFFFFFFFFFFFFFFFFFFFFFFFFFFFFFFFFFFFFFFFFFFFFFFFFFFFFFFFFFFF
310
FFFFFFFFFFFFFFFFF000FFFFFFFFFFFFFFFFFFFFFFFFFFFFFFFFFFFFFFFFFFFF
310
FFFFFFFFFFFFFFFFFFFFFFFFFFFFFFFFFFFFFFFFFFFFFFFFFFFFFFFFFFFFFFFF
310
FFFFFFFFFFFFFFFFFFFFFFFFFFFFFFFFFFFFFFFFFFFFFFFFFFFFFFFFFFFFFFFF
310
F000FFFFFFFFFFFFFFFFFFFFFFFFFFFFFFFFFFFFFFFFFFFFFFFFFFFFFFFFFFFF
310
FFFFFFFFFFFFFFFFFFFFFFFFFFFFFFFFFFFFFFFFFFFFFFFFFFFFFFFFFFFFFFFF
310
FFFFFFFFFFFFFFFFFFFFFFFFFFFFFFFFFFFFFFFFFFFFFFFFF000FFFFFFFFFFFF
310
FFFFFFFFFFFFFFFFFFFFFFFFFFFFFFFFFFFFFFFFFFFFFFFFFFFFFFFFFFFFFFFF
310
FFFFFFFFFFFFFFFFFFFFFFFFFFFFFFFFFFFFFFFFFFFFFFFFFFFFFFFFFFFFFFFF
310
FFFFFFFFFFFFFFFFFFFFFFFFFFFFFFFFF000FFFFFFFFFFFFFFFFFFFFFFFFFFFF
310
FFFFFFFFFFFFFFFFFFFFFFFFFFFFFFFFFFFFFFFFFFFFFFFFFFFFFFFFFFFFFFFF
310
FFFFFFFFFFFFFFFFFFFFFFFFFFFFFFFFFFFFFFFFFFFFFFFFFFFFFFFFFFFFFFFF
310
FFFFFFFFFFFFFFFFF000FFFFF80003FFFFFFFFFFFFFFFFFFFFFFFFFFFFFFFFFF
310
FFFFF00007FFFFFFFFFF00007FFFFFF800000000000000007FFFFFFFFFFFFFFF
310
FFFFFFFC001FFFFFFFFFFFFFFC001FFFFFFFFFFFFFFFFFFFFFFFFFFE0007FFFF
310
F000FFFF8000007FFFFFFFF8000FFFFFC0007FFFFF80007FFFFF0000007FFFFF
310
FFF8000007FFFFF800000000000000007FFFFFF0001FFFFFFFFFFFC00001FFFF
310
FFFFFFFFC00001FFFFFFFF000000000003FFFFE000007FFFF000FFFE0000000F
310
FFFFFFF0000FFFFF80007FFFFF80007FFFFC0000001FFFFFFFC0000001FFFFF8
310
00000000000000007FFFFFF0001FFFFFFFFFFE0000003FFFFFFFFFFE0000003F
310
FFFFFF000000000003FFFF0000000FFFF000FFF800000003FFFFFFF00007FFFF
310
80007FFFFF80007FFFF000000007FFFFFF000000003FFFF80000000000000000
310
7FFFFFF0001FFFFFFFFFF80000000FFFFFFFFFF80000000FFFFFFF0000000000
310
03FFFC00000003FFF000FFE000000000FFFFFFF00007FFFF80003FFFFF80007F
310
FFC000000001FFFFFC000000001FFFF800000000000000007FFFFFF0001FFFFF
310
FFFFE000000003FFFFFFFFE000000003FFFFFF000000000003FFF000000000FF
310
F000FF80000000007FFFFFF00007FFFF80003FFFFF80007FFF8000000000FFFF
310
F80000000007FFF800000000000000007FFFFFF0001FFFFFFFFFC000000001FF
310
FFFFFFC000000001FFFFFF000000000003FFC0000000007FF000FF0000000000
310
3FFFFFE00007FFFF00003FFFFF80007FFE00000000003FFFF00000000003FFF8
310
00000000000000007FFFFFF0001FFFFFFFFF8000000000FFFFFFFF8000000000
310
FFFFFF000000000003FF80000000003FF000FE00000000001FFFFFE00003FFFF
310
00003FFFFF80007FFC00000000001FFFE00000000001FFF8000001FFFE000000
310
7FFFFFF0001FFFFFFFFE00000000003FFFFFFE00000000003FFFFF0000000000
310
03FF00000000001FF000FC00000000000FFFFFE00003FFFF00001FFFFF80007F
310
F800000000001FFFC00000000000FFF8000001FFFE0000007FFFFFF0001FFFFF
310
FFFC00000000001FFFFFFC00000000001FFFFF000000000003FE00000000000F
310
F000F8000000000007FFFFE00003FFFF00001FFFFF80007FF800000000000FFF
310
800000000000FFF8000001FFFE0000007FFFFFF0001FFFFFFFF800000000000F
310
FFFFF800000000000FFFFF000000000003FC000000000007F000F80000000000
310
03FFFFC00003FFFE00001FFFFF80007FF0000000000007FF0000000000007FF8
310
000001FFFE0000007FFFFFF0001FFFFFFFF0000000000007FFFFF00000000000
310
07FFFF000000000003F8000000000003F000F0000000000003FFFFC00001FFFE
310
00001FFFFF80007FE0000000000007FE0000000000003FF8000001FFFE000000
310
7FFFFFF0001FFFFFFFF0000000000007FFFFF0000000000007FFFF0000000000
310
03F800001F800003F000E00001FFF00001FFFFC00001FFFE00000FFFFF80007F
310
E00001FFE00003FE00001FFF00003FF8000001FFFE0000007FFFFFF0001FFFFF
310
FFE000003E000003FFFFE000003E000003FFFF000000000003F00001FFF80001
310
F000E00007FFFC0001FFFFC00001FFFE00000FFFFF80007FC0000FFFFC0003FC
310
0000FFFFC0001FF8000001FFFE0000007FFFFFF0001FFFFFFFC00003FFE00001
310
FFFFC00003FFE00001FFFF0001FFFFFFFFF00007FFFE0001F000E0000FFFFF00
310
00FFFF800001FFFC00000FFFFF80007FC0001FFFFE0001FC0001FFFFE0001FF8
310
000001FFFE0000007FFFFFF0001FFFFFFF80000FFFF80000FFFF80000FFFF800
310
00FFFF0003FFFFFFFFE0000FFFFF8000F000C0003FFFFF8000FFFF800000FFFC
310
000007FFFF80007F80003FFFFF0001FC0003FFFFF0001FF8000001FFFE000000
310
7FFFFFF0001FFFFFFF80003FFFFE0000FFFF80003FFFFE0000FFFF0003FFFFFF
310
FFE0003FFFFF8000F000C0003FFFFF8000FFFF800000FFFC000007FFFF80007F
310
80007FFFFF8001F80007FFFFF8000FF8000001FFFE0000007FFFFFF0001FFFFF
310
FF00007FFFFF00007FFF00007FFFFF00007FFF0003FFFFFFFFE0003FFFFFC000
310
F000C0007FFFFFC000FFFF000000FFFC000007FFFF80007F8000FFFFFF8000F8
310
000FFFFFF8000FF8000001FFFE0000007FFFFFF0001FFFFFFF0000FFFFFF8000
310
7FFF0000FFFFFF80007FFF0003FFFFFFFFC0007FFFFFC00070008000FFFFFFC0
310
00FFFF000000FFF8000007FFFF80007F8000FFFFFF8000F8000FFFFFF8000FF8
310
000001FFFE0000007FFFFFF0001FFFFFFE0001FFFFFFC0003FFE0001FFFFFFC0
310
003FFF0003FFFFFFFFC0007FFFFFE00070008000FFFFFFC0007FFF0000007FF8
310
000003FFFF80007F0001FFFFFF8000F8000FFFFFF8000FF8000001FFFE000000
310
7FFFFFF0001FFFFFFE0001FFFFFFC0003FFE0001FFFFFFC0003FFF0003FFFFFF
310
FFC000FFFFFFE00070008000FFFFFFC0007FFF0000007FF8000003FFFF80007F
310
0001FFFFFF8000F8001FFFFFF8000FF8000001FFFE0000007FFFFFF0001FFFFF
310
FE0003FFFFFFE0003FFE0003FFFFFFE0003FFF0003FFFFFFFFC000FFFFFFE000
310
70008000FFFFFFC0007FFE0000007FF8000003FFFF80007F0001FFFFFF8000F0
310
001FFFFFF8000FF8000001FFFE0000007FFFFFF0001FFFFFFC0003FFFFFFE000
310
1FFC0003FFFFFFE0001FFF0003FFFFFFFFC000FFFFFFC00070008000FFFFFF80
310
007FFE0000007FF0000003FFFF80007F0001FFFFFF0000F0001FFFFFF8000FF8
310
000001FFFE0000007FFFFFF0001FFFFFFC0007FFFFFFF0001FFC0007FFFFFFF0
310
001FFF0003FFFFFFFFC000FFFFFFC00070008001FFFFFF0000FFFE0000003FF0
310
000001FFFF80007F0001FFFFFF0000F8001FFFFFF0000FF8000001FFFE000000
310
7FFFFFF0001FFFFFFC0007FFFFFFF0001FFC0007FFFFFFF0001FFF0003FFFFFF
310
FFC001FFFFFF80007000FFFFFFFFFE0000FFFE0008003FF0008001FFFF80007F
310
FFFFFFFFFC0000FFFFFFFFFFE0000FF8000001FFFE0000007FFFFFF0001FFFFF
310
F8000FFFFFFFF8000FF8000FFFFFFFF8000FFF0003FFFFFFFFFFFFFFFFFF0000
310
7000FFFFFFFFFC0000FFFC0008003FF0008001FFFF80007FFFFFFFFFF80001FF
310
FFFFFFFF80000FF8000001FFFE0000007FFFFFF0001FFFFFF8000FFFFFFFF800
310
0FF8000FFFFFFFF8000FFF0003FFFFFFFFFFFFFFFFFE0000F000FFFFFFFFE000
310
00FFFC000C003FE000C001FFFF80007FFFFFFFFFC00001FFFFFFFFFE00001FF8
310
000001FFFE0000007FFFFFF0001FFFFFF8000FFFFFFFF8000FF8000FFFFFFFF8
310
000FFF0003FFFFFFFFFFFFFFFFF00000F000FFFFFFFE000001FFFC000C001FE0
310
00C000FFFF80007FFFFFFFFE000001FFFFFFFFE000001FF80FFFFFFFFFFFFFC0
310
7FFFFFF0001FFFFFF8000FFFFFFFF8000FF8000FFFFFFFF8000FFF0003FFFFFF
310
FFFFFFFFFF800000F000FFFFFFC0000001FFFC001C001FE001C000FFFF80007F
310
FFFFFF80000003FFFFFFF80000001FF80FFFFFFFFFFFFFC07FFFFFF0001FFFFF
310
F8001FFFFFFFFC000FF8001FFFFFFFFC000FFF0003FFFFFFFFFFFFFFF0000001
310
F000FFFFF800000001FFF8001C001FE001C000FFFF80007FFFFFF800000003FF
310
FFFF800000003FF80FFFFFFFFFFFFFC07FFFFFF0001FFFFFF8001FFFFFFFFC00
310
0FF8001FFFFFFFFC000FFF0003FFFFFFFFFFFFFE00000001F000FFFFC0000000
310
03FFF8001E001FC001E000FFFF80007FFFFF8000000007FFFFFC000000003FF8
310
0FFFFFFFFFFFFFC07FFFFFF0001FFFFFF8001FFFFFFFFC000FF8001FFFFFFFFC
310
000FFF0003FFFFFFFFFFFFE000000003F000FFFE0000000007FFF8001E000FC0
310
01E0007FFF80007FFFFE0000000007FFFFE0000000007FF80FFFFFFFFFFFFFC0
310
7FFFFFF0001FFFFFF0001FFFFFFFFC0007F0001FFFFFFFFC0007FF0003FFFFFF
310
FFFFFF0000000003F000FFF80000000007FFF8001E000FC003E0007FFF80007F
310
FFF0000000000FFFFF8000000000FFF80FFFFFFFFFFFFFC07FFFFFF0001FFFFF
310
F0001FFFFFFFFC0007F0001FFFFFFFFC0007FF0003FFFFFFFFFFFC0000000007
310
F000FFE0000000000FFFF0003E000FC003E0007FFF80007FFFC0000000001FFF
310
FE0000000001FFF80FFFFFFFFFFFFFC07FFFFFF0001FFFFFF0001FFFFFFFFC00
310
07F0001FFFFFFFFC0007FF0003FFFFFFFFFFF0000000000FF000FFC000000000
310
1FFFF0003F000F8003F0003FFF80007FFF80000000003FFFF80000000003FFF8
310
0FFFFFFFFFFFFFC07FFFFFF0001FFFFFF0001FFFFFFFFC0007F0001FFFFFFFFC
310
0007FF0003FFFFFFFFFFE0000000001FF000FF00000000007FFFF0003F000780
310
03F0003FFF80007FFF00000000007FFFF00000000007FFF80FFFFFFFFFFFFFC0
310
7FFFFFF0001FFFFFF0001FFFFFFFFC0007F0001FFFFFFFFC0007FF0003FFFFFF
310
FFFF80000000007FF000FE0000000000FFFFE0003F00078007F0003FFF80007F
310
FE0000000001FFFFE0000000001FFFF80FFFFFFFFFFFFFC07FFFFFF0001FFFFF
310
F0001FFFFFFFFC0007F0001FFFFFFFFC0007FF0003FFFFFFFFFF0000000000FF
310
F000FC0000000003FFFFE0007F00078007F0003FFF80007FFC0000000007FFFF
310
C0000000007FFFF80FFFFFFFFFFFFFC07FFFFFF0001FFFFFF8001FFFFFFFFC00
310
0FF8001FFFFFFFFC000FFF0003FFFFFFFFFE0000000003FFF000FC000000000F
310
FFFFE0007F80070007F8001FFF80007FF8000000001FFFFF8000000001FFFFF8
310
0FFFFFFFFFFFFFC07FFFFFF0001FFFFFF8001FFFFFFFFC000FF8001FFFFFFFFC
310
000FFF0003FFFFFFFFFC000000000FFFF000F8000000007FFFFFE0007F800700
310
07F8001FFF80007FF000000000FFFFFF800000000FFFFFF80FFFFFFFFFFFFFC0
310
7FFFFFF0001FFFFFF8000FFFFFFFF8000FF8000FFFFFFFF8000FFF0003FFFFFF
310
FFFC000000007FFFF000F800000007FFFFFFC0007F8003000FF8001FFF80007F
310
F000000007FFFFFF000000007FFFFFF80FFFFFFFFFFFFFC07FFFFFF0001FFFFF
310
F8000FFFFFFFF8000FF8000FFFFFFFF8000FFF0003FFFFFFFFF80000000FFFFF
310
F000F0000000FFFFFFFFC000FF8003000FF8001FFF80007FE0000000FFFFFFFF
310
0000000FFFFFFFF8000001FFFE0000007FFFFFF0001FFFFFF8000FFFFFFFF800
310
0FF8000FFFFFFFF8000FFF0003FFFFFFFFF8000000FFFFFFF000F000000FFFFF
310
FFFFC000FFC002000FF8000FFF80007FE000001FFFFFFFFE000001FFFFFFFFF8
310
000001FFFE0000007FFFFFF0001FFFFFF8000FFFFFFFF8000FF8000FFFFFFFF8
310
000FFF0003FFFFFFFFF000001FFFFFFFF000E00000FFFFFFFFFFC000FFC00200
310
0FFC000FFF80007FE00001FFFFFFFFFE00001FFFFFFFFFF8000001FFFE000000
310
7FFFFFF0001FFFFFFC000FFFFFFFF8001FFC000FFFFFFFF8001FFF0003FFFFFF
310
FFF00001FFFFFFFFF000E00007FFFFFFFFFF8000FFC000001FFC000FFF80007F
310
C0000FFFFFFFFFFE0000FFFFFFFFFFF8000001FFFE0000007FFFFFF0001FFFFF
310
FC0007FFFFFFF0001FFC0007FFFFFFF0001FFF0003FFFFFFFFF00007FFFFFFFF
310
F000E0001FFFFFFFFFFF8000FFC000001FFC000FFF80007FC0003FFFFFFFFFFE
310
0001FFFFFFFFFFF8000001FFFE0000007FFFFFF0001FFFFFFC0007FFFFFFF000
310
1FFC0007FFFFFFF0001FFF0003FFFFFFFFF0001FFFFFFFFFF000E0003FFFFF00
310
03FF8001FFE000001FFC0007FF80007FC0007FFFFF0007FC0003FFFFF0003FF8
310
000001FFFE0000007FFFFFF0001FFFFFFC0003FFFFFFE0001FFC0003FFFFFFE0
310
001FFF0003FFFFFFFFF0003FFFFFFFFFF000E0003FFFFF0001FF8001FFE00000
310
1FFE0007FF80007FC0007FFFFE0003FC0007FFFFE0003FF8000001FFFE000000
310
7FFFFFF0001FFFFFFE0003FFFFFFE0003FFE0003FFFFFFE0003FFF0003FFFFFF
310
FFF0003FFFFF8001F000E0003FFFFF0001FF0001FFE000001FFE0007FF80007F
310
C0007FFFFE0003FC0007FFFFE0003FF8000001FFFE0000007FFFFFF0001FFFFF
310
FE0001FFFFFFC0003FFE0001FFFFFFC0003FFF0003FFFFFFFFF0003FFFFF0001
310
F000E0003FFFFF0003FF0001FFE000003FFE0007FF80007FC0007FFFFE0003FC
310
0007FFFFE0003FF8000001FFFE0000007FFFFFF0001FFFFFFF0001FFFFFFC000
310
7FFF0001FFFFFFC0007FFF0003FFFFFFFFF0003FFFFF0001F000E0003FFFFE00
310
03FF0003FFF000003FFE0003FF80007FC0007FFFFC0003FE0007FFFFE0003FF8
310
000001FFFE0000007FFFFFF0001FFFFFFF0000FFFFFF80007FFF0000FFFFFF80
310
007FFF0003FFFFFFFFF0003FFFFF0001F000E0003FFFFE0003FF0003FFF00000
310
3FFF0003FF80007FC0007FFFFC0007FE0007FFFFC0003FF8000001FFFE000000
310
7FFFFFF0001FFFFFFF80007FFFFF0000FFFF80007FFFFF0000FFFF0003FFFFFF
310
FFF0003FFFFF0003F000E0003FFFFC0003FE0003FFF000003FFF0003FF80007F
310
E0003FFFF80007FE0003FFFFC0007FF8000001FFFE0000007FFFFFF0001FFFFF
310
FF80003FFFFE0000FFFF80003FFFFE0000FFFF0003FFFFFFFFF0001FFFFE0003
310
F000F0001FFFF80003FE0003FFF000007FFF0001FF80007FE0003FFFF00007FE
310
0001FFFF80007FF8000001FFFE0000007FFFFFF0001FFFFFFFC0000FFFF80001
310
FFFFC0000FFFF80001FFFF0003FFFFFFFFF0001FFFFC0003F000F0000FFFF000
310
07FE0007FFF800007FFF0001FF80007FE0001FFFE00007FF0000FFFE00007FF8
310
000001FFFE0000007FFFFFF0001FFFFFFFC00003FFE00001FFFFC00003FFE000
310
01FFFF0003FFFFFFFFF8000FFFF80003F000F00003FFC00007FC0007FFF80000
310
7FFF8001FF80007FF00007FF80000FFF00007FF80000FFF8000001FFFE000000
310
7F80000000000001FFE000003E000003FFFFE000003E000003FFFF0003FFFFFF
310
FFF80003FFE00007F000F800000000000FFC0007FFF800007FFF8001FF80007F
310
F000000000000FFF000000000000FFF8000001FFFE0000007F80000000000001
310
FFF0000000000007FFFFF0000000000007FFFF0003FFFFFFFFFC00007E000007
310
F000F800000000000FFC0007FFF80000FFFF8000FF80007FF800000000001FFF
310
800000000001FFF8000001FFFE0000007F80000000000001FFF800000000000F
310
FFFFF800000000000FFFFF0003FFFFFFFFFC00000000000FF000FC0000000000
310
1FFC0007FFFC0000FFFF8000FF80007FF800000000003FFFC00000000001FFF8
310
000001FFFE0000007F80000000000001FFF800000000000FFFFFF80000000000
310
0FFFFF0003FFFFFFFFFE00000000001FF000FE00000000003FF8000FFFFC0000
310
FFFF8000FF80007FFC00000000003FFFC00000000003FFF8000001FFFE000000
310
7F80000000000001FFFC00000000001FFFFFFC00000000001FFFFF0003FFFFFF
310
FFFF00000000001FF000FF00000000003FF8000FFFFC0000FFFFC000FF80007F
310
FE00000000007FFFE00000000007FFF8000001FFFE0000007F80000000000001
310
FFFE00000000003FFFFFFE00000000003FFFFF0003FFFFFFFFFF80000000003F
310
F000FF80000000007FF8000FFFFC0001FFFFC0007F80007FFF0000000000FFFF
310
F0000000000FFFF800000000000000007F80000000000001FFFF8000000000FF
310
FFFFFF8000000000FFFFFF0003FFFFFFFFFFC0000000007FF000FFC000000000
310
FFF8000FFFFE0001FFFFC0007F80007FFF8000000001FFFFF8000000001FFFF8
310
00000000000000007F80000000000001FFFFC000000001FFFFFFFFC000000001
310
FFFFFF0003FFFFFFFFFFE000000000FFF000FFE000000003FFF0001FFFFE0001
310
FFFFC0007F80007FFFC000000007FFFFFE000000003FFFF80000000000000000
310
7F80000000000001FFFFE000000003FFFFFFFFE000000003FFFFFF0003FFFFFF
310
FFFFF000000003FFF000FFF80000000FFFF0001FFFFE0001FFFFE0007F80007F
310
FFF00000000FFFFFFF00000000FFFFF800000000000000007F80000000000001
310
FFFFF80000000FFFFFFFFFF80000000FFFFFFF0003FFFFFFFFFFFC0000000FFF
310
F000FFFE0000003FFFF0001FFFFE0003FFFFE0003F80007FFFFC0000003FFFFF
310
FFC0000003FFFFF800000000000000007F80000000000001FFFFFE0000003FFF
310
FFFFFFFE0000003FFFFFFF0003FFFFFFFFFFFF0000003FFFF000FFFF800000FF
310
FFF0001FFFFF0003FFFFE0003F80007FFFFF000001FFFFFFFFF800001FFFFFF8
310
00000000000000007F80000000000001FFFFFFC00001FFFFFFFFFFFFC00001FF
310
FFFFFF0003FFFFFFFFFFFFC00000FFFFF000FFFFF8000FFFFFFFFFFFFFFFFFFF
310
FFFFFFFFFFFFFFFFFFFFF0001FFFFFFFFFFF0000FFFFFFF80000000000000000
310
7FFFFFFFFFFFFFFFFFFFFFFC001FFFFFFFFFFFFFFC001FFFFFFFFFFFFFFFFFFF
310
FFFFFFFC001FFFFFF000FFFFFFFFFFFFFFFFFFFFFFFFFFFFFFFFFFFFFFFFFFFF
310
FFFFFFFFFFFFFFFFFFFFFFFFFFFFFFFFFFFFFFFFFFFFFFFFFFFFFFFFFFFFFFFF
310
FFFFFFFFFFFFFFFFFFFFFFFFFFFFFFFFFFFFFFFFFFFFFFFFFFFFFFFFFFFFFFFF
310
F000FFFFFFFFFFFFFFFFFFFFFFFFFFFFFFFFFFFFFFFFFFFFFFFFFFFFFFFFFFFF
310
FFFFFFFFFFFFFFFFFFFFFFFFFFFFFFFFFFFFFFFFFFFFFFFFFFFFFFFFFFFFFFFF
310
FFFFFFFFFFFFFFFFFFFFFFFFFFFFFFFFFFFFFFFFFFFFFFFFF000FFFFFFFFFFFF
310
FFFFFFFFFFFFFFFFFFFFFFFFFFFFFFFFFFFFFFFFFFFFFFFFFFFFFFFFFFFFFFFF
310
FFFFFFFFFFFFFFFFFFFFFFFFFFFFFFFFFFFFFFFFFFFFFFFFFFFFFFFFFFFFFFFF
310
FFFFFFFFFFFFFFFFFFFFFFFFFFFFFFFFF000FFFFFFFFFFFFFFFFFFFFFFFFFFFF
310
FFFFFFFFFFFFFFFFFFFFFFFFFFFFFFFFFFFFFFFFFFFFFFFFFFFFFFFFFFFFFFFF
310
FFFFFFFFFFFFFFFFFFFFFFFFFFFFFFFFFFFFFFFFFFFFFFFFFFFFFFFFFFFFFFFF
310
FFFFFFFFFFFFFFFFF000FFFFFFFFFFFFFFFFFFFFFFFFFFFFFFFFFFFFFFFFFFFF
310
FFFFFFFFFFFFFFFFFFFFFFFFFFFFFFFFFFFFFFFFFFFFFFFFFFFFFFFFFFFFFFFF
310
FFFFFFFFFFFFFFFFFFFFFFFFFFFFFFFFFFFFFFFFFFFFFFFFFFFFFFFFFFFFFFFF
310
F000FFFFFFFFFFFFFFFFFFFFFFFFFFFFFFFFFFFFFFFFFFFFFFFFFFFFFFFFFFFF
310
FFFFFFFFFFFFFFFFFFFFFFFFFFFFFFFFFFFFFFFFFFFFFFFFFFFFFFFFFFFFFFFF
310
FFFFFFFFFFFFFFFFFFFFFFFFFFFFFFFFFFFFFFFFFFFFFFFFF000FFFFFFFFFFFF
310
FFFFFFFFFFFFFFFFFFFFFFFFFFFFFFFFFFFFFFFFFFFFFFFFFFFFFFFFFFFFFFFF
310
FFFFFFFFFFFFFFFFFFFFFFFFFFFFFFFFFFFFFFFFFFFFFFFFFFFFFFFFFFFFFFFF
310
FFFFFFFFFFFFFFFFFFFFFFFFFFFFFFFFF000FFFFFFFFFFFFFFFFFFFFFFFFFFFF
310
FFFFFFFFFFFFFFFFFFFFFFFFFFFFFFFFFFFFFFFFFFFFFFFFFFFFFFFFFFFFFFFF
310
FFFFFFFFFFFFFFFFFFFFFFFFFFFFFFFFFFFFFFFFFFFFFFFFFFFFFFFFFFFFFFFF
310
FFFFFFFFFFFFFFFFF000FFFFFFFFFFFFFFFFFFFFFFFFFFFFFFFFFFFFFFFFFFFF
310
FFFFFFFFFFFFFFFFFFFFFFFFFFFFFFFFFFFFFFFFFFFFFFFFFFFFFFFFFFFFFFFF
310
FFFFFFFFFFFFFFFFFFFFFFFFFFFFFFFFFFFFFFFFFFFFFFFFFFFFFFFFFFFFFFFF
310
F000FFFFFFFFFFFFFFFFFFFFFFFFFFFFFFFFFFFFFFFFFFFFFFFFFFFFFFFFFFFF
310
FFFFFFFFFFFFFFFFFFFFFFFFFFFFFFFFFFFFFFFFFFFFFFFFFFFFFFFFFFFFFFFF
310
FFFFFFFFFFFFFFFFFFFFFFFFFFFFFFFFFFFFFFFFFFFFFFFFF000FFFFFFFFFFFF
310
FFFFFFFFFFFFFFFFFFFFFFFFFFFFFFFFFFFFFFFFFFFFFFFFFFFFFFFFFFFFFFFF
310
FFFFFFFFFFFFFFFFFFFFFFFFFFFFFFFFFFFFFFFFFFFFFFFFFFFFFFFFFFFFFFFF
310
FFFFFFFFFFFFFFFFFFFFFFFFFFFFFFFFF000FFFFFFFFFFFFFFFFFFFFFFFFFFFF
310
FFFFFFFFFFFFFFFFFFFFFFFFFFFFFFFFFFFFFFFFFFFFFFFFFFFFFFFFFFFFFFFF
310
FFFFFFFFFFFFFFFFFFFFFFFFFFFFFFFFFFFFFFFFFFFFFFFFFFFFFFFFFFFFFFFF
310
FFFFFFFFFFFFFFFFF000FFFFFFFFFFFFFFFFFFFFFFFFFFFFFFFFFFFFFFFFFFFF
310
FFFFFFFFFFFFFFFFFFFFFFFFFFFFFFFFFFFFFFFFFFFFFFFFFFFFFFFFFFFFFFFF
310
FFFFFFFFFFFFFFFFFFFFFFFFFFFFFFFFFFFFFFFFFFFFFFFFFFFFFFFFFFFFFFFF
310
F000FFFFFFFFFFFFFFFFFFFFFFFFFFFFFFFFFFFFFFFFFFFFFFFFFFFFFFFFFFFF
310
FFFFFFFFFFFFFFFFFFFFFFFFFFFFFFFFFFFFFFFFFFFFFFFFFFFFFFFFFFFFFFFF
310
FFFFFFFFFFFFFFFFFFFFFFFFFFFFFFFFFFFFFFFFFFFFFFFFF000FFFFFFFFFFFF
310
FFFFFFFFFFFFFFFFFFFFFFFFFFFFFFFFFFFFFFFFFFFFFFFFFFFFFFFFFFFFFFFF
310
FFFFFFFFFFFFFFFFFFFFFFFFFFFFFFFFFFFFFFFFFFFFFFFFFFFFFFFFFFFFFFFF
310
FFFFFFFFFFFFFFFFFFFFFFFFFFFFFFFFF000FFFFFFFFFFFFFFFFFFFFFFFFFFFF
310
FFFFFFFFFFFFFFFFFFFFFFFFFFFFFFFFFFFFFFFFFFFFFFFFFFFFFFFFFFFFFFFF
310
FFFFFFFFFFFFFFFFFFFFFFFFFFFFFFFFFFFFFFFFFFFFFFFFFFFFFFFFFFFFFFFF
310
FFFFFFFFFFFFFFFFF000FFFFFFFFFFFFFFFFFFFFFFFFFFFFFFFFFFFFFFFFFFFF
310
FFFFFFFFFFFFFFFFFFFFFFFFFFFFFFFFFFFFFFFFFFFFFFFFFFFFFFFFFFFFFFFF
310
FFFFFFFFFFFFFFFFFFFFFFFFFFFFFFFFFFFFFFFFFFFFFFFFFFFFFFFFFFFFFFFF
310
F000FFFFFFFFFFFFFFFFFFFFFFFFFFFFFFFFFFFFFFFFFFFFFFFFFFFFFFFFFFFF
310
FFFFFFFFFFFFFFFFFFFFFFFFFFFFFFFFFFFFFFFFFFFFFFFFFFFFFFFFFFFFFFFF
310
FFFFFFFFFFFFFFFFFFFFFFFFFFFFFFFFFFFFFFFFFFFFFFFFF000FFFFFFFFFFFF
310
FFFFFFFFFFFFFFFFFFFFFFFFFFFFFFFFFFFFFFFFFFFFFFFFFFFFFFFFFFFFFFFF
310
FFFFFFFFFFFFFFFFFFFFFFFFFFFFFFFFFFFFFFFFFFFFFFFFFFFFFFFFFFFFFFFF
310
FFFFFFFFFFFFFFFFFFFFFFFFFFFFFFFFF000FFFFFFFFFFFFFFFFFFFFFFFFFFFF
310
FFFFFFFFFFFFFFFFFFFFFFFFFFFFFFFFFFFFFFFFFFFFFFFFFFFFFFFFFFFFFFFF
310
FFFFFFFFFFFFFFFFFFFFFFFFFFFFFFFFFFFFFFFFFFFFFFFFFFFFFFFFFFFFFFFF
310
FFFFFFFFFFFFFFFFF000FFFFFFFFFFFFFFFFFFFFFFFFFFFFFFFFFFFFFFFFFFFF
310
FFFFFFFFFFFFFFFFFFFFFFFFFFFFFFFFFFFFFFFFFFFFFFFFFFFFFFFFFFFFFFFF
310
FFFFFFFFFFFFFFFFFFFFFFFFFFFFFFFFFFFFFFFFFFFFFFFFFFFFFFFFFFFFFFFF
310
F000FFFFFFFFFFFFFFFFFFFFFFFFFFFFFFFFFFFFFFFFFFFFFFFFFFFFFFFFFFFF
310
FFFFFFFFFFFFFFFFFFFFFFFFFFFFFFFFFFFFFFFFFFFFFFFFFFFFFFFFFFFFFFFF
310
FFFFFFFFFFFFFFFFFFFFFFFFFFFFFFFFFFFFFFFFFFFFFFFFF000FFFFFFFFFFFF
310
FFFFFFFFFFFFFFFFFFFFFFFFFFFFFFFFFFFFFFFFFFFFFFFFFFFFFFFFFFFFFFFF
310
FFFFFFFFFFFFFFFFFFFFFFFFFFFFFFFFFFFFFFFFFFFFFFFFFFFFFFFFFFFFFFFF
310
FFFFFFFFFFFFFFFFFFFFFFFFFFFFFFFFF0000000000000000000000000000000
310
0000000000000000000000000000000000000000000000000000000000000000
310
0000000000000000000000000000000000000000000000000000000000000000
310
0000000000000000000000000000000000000000000000000000000000000000
310
0000000000000000000000000000000000000000000000000000000000000000
310
0000000000000000000000000000000000000000000000000000000000000000
310
0000000000000000000000000000000000000000000000000000000000000000
310
0000000000000000000000000000000000000000000000000000000000000000
310
0000000000000000000000000000000000000000000000000000000000000000
310
0000000000000000000000000000000000000000000000000000000000000000
310
0000000000000000000000000000000000000000000000000000000000000000
310
0000000000000000000000000000000000000000000000000000000000000000
310
0000000000000000000000000000000000000000000000000000000000000000
310
0000000000000000000000000000000000000000000000000000000000000000
310
0000000000000000000000000000000000000000000000000000000000000000
310
0000000000000000000000000000000000000000000000000000000000000000
  1
OLE
  0
ENDSEC
  0
SECTION
  2
OBJECTS
  0
DICTIONARY
  5
C
330
0
100
AcDbDictionary
281
     1
  3
ACAD_GROUP
350
D
  3
ACAD_LAYOUT
350
1A
  3
ACAD_MLINESTYLE
350
17
  3
ACAD_PLOTSETTINGS
350
19
  3
ACAD_PLOTSTYLENAME
350
E
  0
DICTIONARY
  5
D
102
{ACAD_REACTORS
330
C
102
}
330
C
100
AcDbDictionary
281
     1
  0
DICTIONARY
  5
1A
102
{ACAD_REACTORS
330
C
102
}
330
C
100
AcDbDictionary
281
     1
  3
Layout1
350
1E
  3
Layout2
350
26
  3
Model
350
22
  0
DICTIONARY
  5
17
102
{ACAD_REACTORS
330
C
102
}
330
C
100
AcDbDictionary
281
     1
  3
Standard
350
18
  0
DICTIONARY
  5
19
102
{ACAD_REACTORS
330
C
102
}
330
C
100
AcDbDictionary
281
     1
  0
ACDBDICTIONARYWDFLT
  5
E
102
{ACAD_REACTORS
330
C
102
}
330
C
100
AcDbDictionary
281
     1
  3
Normal
350
F
100
AcDbDictionaryWithDefault
340
F
  0
LAYOUT
  5
1E
102
{ACAD_REACTORS
330
1A
102
}
330
1A
100
AcDbPlotSettings
  1

  2
none_device
  4

  6

 40
0.0
 41
0.0
 42
0.0
 43
0.0
 44
0.0
 45
0.0
 46
0.0
 47
0.0
 48
0.0
 49
0.0
140
0.0
141
0.0
142
1.0
143
1.0
 70
   688
 72
     0
 73
     0
 74
     5
  7

 75
    16
147
1.0
148
0.0
149
0.0
100
AcDbLayout
  1
Layout1
 70
     1
 71
     1
 10
0.0
 20
0.0
 11
420.0
 21
297.0
 12
0.0
 22
0.0
 32
0.0
 14
1.0000000000E+20
 24
1.0000000000E+20
 34
1.0000000000E+20
 15
-1.0000000000E+20
 25
-1.0000000000E+20
 35
-1.0000000000E+20
146
0.0
 13
0.0
 23
0.0
 33
0.0
 16
1.0
 26
0.0
 36
0.0
 17
0.0
 27
1.0
 37
0.0
 76
     0
330
1B
  0
LAYOUT
  5
26
102
{ACAD_REACTORS
330
1A
102
}
330
1A
100
AcDbPlotSettings
  1

  2
none_device
  4

  6

 40
0.0
 41
0.0
 42
0.0
 43
0.0
 44
0.0
 45
0.0
 46
0.0
 47
0.0
 48
0.0
 49
0.0
140
0.0
141
0.0
142
1.0
143
1.0
 70
   688
 72
     0
 73
     0
 74
     5
  7

 75
    16
147
1.0
148
0.0
149
0.0
100
AcDbLayout
  1
Layout2
 70
     1
 71
     2
 10
0.0
 20
0.0
 11
0.0
 21
0.0
 12
0.0
 22
0.0
 32
0.0
 14
0.0
 24
0.0
 34
0.0
 15
0.0
 25
0.0
 35
0.0
146
0.0
 13
0.0
 23
0.0
 33
0.0
 16
1.0
 26
0.0
 36
0.0
 17
0.0
 27
1.0
 37
0.0
 76
     0
330
23
  0
LAYOUT
  5
22
102
{ACAD_REACTORS
330
1A
102
}
330
1A
100
AcDbPlotSettings
  1

  2
none_device
  4

  6

 40
0.0
 41
0.0
 42
0.0
 43
0.0
 44
0.0
 45
0.0
 46
0.0
 47
0.0
 48
0.0
 49
0.0
140
0.0
141
0.0
142
1.0
143
1.0
 70
  1712
 72
     0
 73
     0
 74
     0
  7

 75
     0
147
1.0
148
0.0
149
0.0
100
AcDbLayout
  1
Model
 70
     1
 71
     0
 10
0.0
 20
0.0
 11
297.0
 21
210.0
 12
0.0
 22
0.0
 32
0.0
 14
0.0
 24
0.0
 34
0.0
 15
297.0
 25
210.0
 35
0.0
146
0.0
 13
0.0
 23
0.0
 33
0.0
 16
1.0
 26
0.0
 36
0.0
 17
0.0
 27
1.0
 37
0.0
 76
     0
330
1F
331
29
  0
MLINESTYLE
  5
18
102
{ACAD_REACTORS
330
17
102
}
330
17
100
AcDbMlineStyle
  2
Standard
 70
     0
  3

 62
   256
 51
90.0
 52
90.0
 71
     2
 49
0.5
 62
   256
  6
BYLAYER
 49
-0.5
 62
   256
  6
BYLAYER
  0
ACDBPLACEHOLDER
  5
F
102
{ACAD_REACTORS
330
E
102
}
330
E
  0
ENDSEC
  0
EOF
