  0
SECTION
  2
HEADER
  9
$ACADVER
  1
AC1015
  9
$ACADMAINTVER
 70
     6
  9
$DWGCODEPAGE
  3
ANSI_1252
  9
$INSBASE
 10
0.0
 20
0.0
 30
0.0
  9
$EXTMIN
 10
0.0
 20
0.0
 30
0.0
  9
$EXTMAX
 10
297.0
 20
210.0
 30
0.0
  9
$LIMMIN
 10
0.0
 20
0.0
  9
$LIMMAX
 10
297.0
 20
210.0
  9
$ORTHOMODE
 70
     0
  9
$REGENMODE
 70
     1
  9
$FILLMODE
 70
     1
  9
$QTEXTMODE
 70
     0
  9
$MIRRTEXT
 70
     1
  9
$LTSCALE
 40
1.0
  9
$ATTMODE
 70
     1
  9
$TEXTSIZE
 40
2.0
  9
$TRACEWID
 40
1.0
  9
$TEXTSTYLE
  7
STANDARD
  9
$CLAYER
  8
0
  9
$CELTYPE
  6
ByLayer
  9
$CECOLOR
 62
   256
  9
$CELTSCALE
 40
1.0
  9
$DISPSILH
 70
     0
  9
$DIMSCALE
 40
1.0
  9
$DIMASZ
 40
3.0
  9
$DIMEXO
 40
0.0
  9
$DIMDLI
 40
3.75
  9
$DIMRND
 40
0.0
  9
$DIMDLE
 40
0.0
  9
$DIMEXE
 40
1.0
  9
$DIMTP
 40
0.0
  9
$DIMTM
 40
0.0
  9
$DIMTXT
 40
2.0
  9
$DIMCEN
 40
2.5
  9
$DIMTSZ
 40
0.0
  9
$DIMTOL
 70
     0
  9
$DIMLIM
 70
     0
  9
$DIMTIH
 70
     1
  9
$DIMTOH
 70
     1
  9
$DIMSE1
 70
     0
  9
$DIMSE2
 70
     0
  9
$DIMTAD
 70
     1
  9
$DIMZIN
 70
     0
  9
$DIMBLK
  1

  9
$DIMASO
 70
     1
  9
$DIMSHO
 70
     1
  9
$DIMPOST
  1

  9
$DIMAPOST
  1

  9
$DIMALT
 70
     0
  9
$DIMALTD
 70
     3
  9
$DIMALTF
 40
0.0393700787
  9
$DIMLFAC
 40
1.0
  9
$DIMTOFL
 70
     1
  9
$DIMTVP
 40
0.0
  9
$DIMTIX
 70
     0
  9
$DIMSOXD
 70
     0
  9
$DIMSAH
 70
     0
  9
$DIMBLK1
  1

  9
$DIMBLK2
  1

  9
$DIMSTYLE
  2
ISO-25
  9
$DIMCLRD
 70
     0
  9
$DIMCLRE
 70
     0
  9
$DIMCLRT
 70
     0
  9
$DIMTFAC
 40
1.0
  9
$DIMGAP
 40
1.524
  9
$DIMJUST
 70
     0
  9
$DIMSD1
 70
     0
  9
$DIMSD2
 70
     0
  9
$DIMTOLJ
 70
     0
  9
$DIMTZIN
 70
     0
  9
$DIMALTZ
 70
     0
  9
$DIMALTTZ
 70
     0
  9
$DIMUPT
 70
     0
  9
$DIMDEC
 70
     2
  9
$DIMTDEC
 70
     3
  9
$DIMALTU
 70
     2
  9
$DIMALTTD
 70
     3
  9
$DIMTXSTY
  7
STANDARD
  9
$DIMAUNIT
 70
     0
  9
$DIMADEC
 70
     2
  9
$DIMALTRND
 40
0.0
  9
$DIMAZIN
 70
     0
  9
$DIMDSEP
 70
    44
  9
$DIMATFIT
 70
     3
  9
$DIMFRAC
 70
     0
  9
$DIMLDRBLK
  1

  9
$DIMLUNIT
 70
     2
  9
$DIMLWD
 70
    -2
  9
$DIMLWE
 70
    -2
  9
$DIMTMOVE
 70
     0
  9
$LUNITS
 70
     2
  9
$LUPREC
 70
     2
  9
$SKETCHINC
 40
1.0
  9
$FILLETRAD
 40
10.0
  9
$AUNITS
 70
     0
  9
$AUPREC
 70
     2
  9
$MENU
  1
.
  9
$ELEVATION
 40
0.0
  9
$PELEVATION
 40
0.0
  9
$THICKNESS
 40
0.0
  9
$LIMCHECK
 70
     0
  9
$CHAMFERA
 40
10.0
  9
$CHAMFERB
 40
10.0
  9
$CHAMFERC
 40
20.0
  9
$CHAMFERD
 40
0.0
  9
$SKPOLY
 70
     0
  9
$TDCREATE
 40
2457149.385443334
  9
$TDUCREATE
 40
2457149.30211
  9
$TDUPDATE
 40
2457149.385444236
  9
$TDUUPDATE
 40
2457149.302110903
  9
$TDINDWG
 40
0.0000000116
  9
$TDUSRTIMER
 40
0.0000000116
  9
$USRTIMER
 70
     1
  9
$ANGBASE
 50
0.0
  9
$ANGDIR
 70
     0
  9
$PDMODE
 70
     0
  9
$PDSIZE
 40
-1.0
  9
$PLINEWID
 40
0.0
  9
$SPLFRAME
 70
     0
  9
$SPLINETYPE
 70
     6
  9
$SPLINESEGS
 70
     8
  9
$HANDSEED
  5
4C3
  9
$SURFTAB1
 70
     6
  9
$SURFTAB2
 70
     6
  9
$SURFTYPE
 70
     6
  9
$SURFU
 70
     6
  9
$SURFV
 70
     6
  9
$UCSBASE
  2

  9
$UCSNAME
  2

  9
$UCSORG
 10
0.0
 20
0.0
 30
0.0
  9
$UCSXDIR
 10
1.0
 20
0.0
 30
0.0
  9
$UCSYDIR
 10
0.0
 20
1.0
 30
0.0
  9
$UCSORTHOREF
  2

  9
$UCSORTHOVIEW
 70
     0
  9
$UCSORGTOP
 10
0.0
 20
0.0
 30
0.0
  9
$UCSORGBOTTOM
 10
0.0
 20
0.0
 30
0.0
  9
$UCSORGLEFT
 10
0.0
 20
0.0
 30
0.0
  9
$UCSORGRIGHT
 10
0.0
 20
0.0
 30
0.0
  9
$UCSORGFRONT
 10
0.0
 20
0.0
 30
0.0
  9
$UCSORGBACK
 10
0.0
 20
0.0
 30
0.0
  9
$PUCSBASE
  2

  9
$PUCSNAME
  2

  9
$PUCSORG
 10
0.0
 20
0.0
 30
0.0
  9
$PUCSXDIR
 10
1.0
 20
0.0
 30
0.0
  9
$PUCSYDIR
 10
0.0
 20
1.0
 30
0.0
  9
$PUCSORTHOREF
  2

  9
$PUCSORTHOVIEW
 70
     0
  9
$PUCSORGTOP
 10
0.0
 20
0.0
 30
0.0
  9
$PUCSORGBOTTOM
 10
0.0
 20
0.0
 30
0.0
  9
$PUCSORGLEFT
 10
0.0
 20
0.0
 30
0.0
  9
$PUCSORGRIGHT
 10
0.0
 20
0.0
 30
0.0
  9
$PUCSORGFRONT
 10
0.0
 20
0.0
 30
0.0
  9
$PUCSORGBACK
 10
0.0
 20
0.0
 30
0.0
  9
$USERI1
 70
     0
  9
$USERI2
 70
     0
  9
$USERI3
 70
     0
  9
$USERI4
 70
     0
  9
$USERI5
 70
     0
  9
$USERR1
 40
0.0
  9
$USERR2
 40
0.0
  9
$USERR3
 40
0.0
  9
$USERR4
 40
0.0
  9
$USERR5
 40
0.0
  9
$WORLDVIEW
 70
     1
  9
$SHADEDGE
 70
     3
  9
$SHADEDIF
 70
    70
  9
$TILEMODE
 70
     1
  9
$MAXACTVP
 70
    64
  9
$PINSBASE
 10
0.0
 20
0.0
 30
0.0
  9
$PLIMCHECK
 70
     0
  9
$PEXTMIN
 10
1.0000000000E+20
 20
1.0000000000E+20
 30
1.0000000000E+20
  9
$PEXTMAX
 10
-1.0000000000E+20
 20
-1.0000000000E+20
 30
-1.0000000000E+20
  9
$PLIMMIN
 10
0.0
 20
0.0
  9
$PLIMMAX
 10
420.0
 20
297.0
  9
$UNITMODE
 70
     0
  9
$VISRETAIN
 70
     1
  9
$PLINEGEN
 70
     0
  9
$PSLTSCALE
 70
     1
  9
$TREEDEPTH
 70
  3020
  9
$CMLSTYLE
  2
Standard
  9
$CMLJUST
 70
     0
  9
$CMLSCALE
 40
20.0
  9
$PROXYGRAPHICS
 70
     1
  9
$MEASUREMENT
 70
     1
  9
$CELWEIGHT
370
    -1
  9
$ENDCAPS
280
     0
  9
$JOINSTYLE
280
     0
  9
$LWDISPLAY
290
     1
  9
$INSUNITS
 70
     4
  9
$HYPERLINKBASE
  1

  9
$STYLESHEET
  1

  9
$XEDIT
290
     1
  9
$CEPSNTYPE
380
     0
  9
$PSTYLEMODE
290
     1
  9
$FINGERPRINTGUID
  2
{22E7F666-D1BC-4DDE-A812-04CDDC75E283}
  9
$VERSIONGUID
  2
{FAEB1C32-E019-11D5-929B-00C0DF256EC4}
  9
$EXTNAMES
290
     1
  9
$PSVPSCALE
 40
0.0
  9
$OLESTARTUP
290
     0
  0
ENDSEC
  0
SECTION
  2
CLASSES
  0
CLASS
  1
ACDBDICTIONARYWDFLT
  2
AcDbDictionaryWithDefault
  3
ObjectDBX Classes
 90
        0
280
     0
281
     0
  0
CLASS
  1
VISUALSTYLE
  2
AcDbVisualStyle
  3
ObjectDBX Classes
 90
     4095
280
     0
281
     0
  0
CLASS
  1
MATERIAL
  2
AcDbMaterial
  3
ObjectDBX Classes
 90
     1153
280
     0
281
     0
  0
CLASS
  1
ACDBPLACEHOLDER
  2
AcDbPlaceHolder
  3
ObjectDBX Classes
 90
        0
280
     0
281
     0
  0
CLASS
  1
LAYOUT
  2
AcDbLayout
  3
ObjectDBX Classes
 90
        0
280
     0
281
     0
  0
ENDSEC
  0
SECTION
  2
TABLES
  0
TABLE
  2
VPORT
  5
8
330
0
100
AcDbSymbolTable
 70
     1
  0
VPORT
  5
29
330
8
100
AcDbSymbolTableRecord
100
AcDbViewportTableRecord
  2
*Active
 70
     0
 10
0.0
 20
0.0
 11
1.0
 21
1.0
 12
148.5
 22
105.0
 13
0.0
 23
0.0
 14
10.0
 24
10.0
 15
10.0
 25
10.0
 16
0.0
 26
0.0
 36
1.0
 17
0.0
 27
0.0
 37
0.0
 40
210.0
 41
1.4142857143
 42
50.0
 43
0.0
 44
0.0
 50
0.0
 51
0.0
 71
     0
 72
  2000
 73
     1
 74
     3
 75
     0
 76
     0
 77
     0
 78
     0
281
     0
 65
     1
110
0.0
120
0.0
130
0.0
111
1.0
121
0.0
131
0.0
112
0.0
122
1.0
132
0.0
 79
     0
146
0.0
  0
ENDTAB
  0
TABLE
  2
LTYPE
  5
5
330
0
100
AcDbSymbolTable
 70
     8
  0
LTYPE
  5
14
330
5
100
AcDbSymbolTableRecord
100
AcDbLinetypeTableRecord
  2
ByBlock
 70
     0
  3

 72
    65
 73
     0
 40
0.0
  0
LTYPE
  5
15
330
5
100
AcDbSymbolTableRecord
100
AcDbLinetypeTableRecord
  2
ByLayer
 70
     0
  3

 72
    65
 73
     0
 40
0.0
  0
LTYPE
  5
16
330
5
100
AcDbSymbolTableRecord
100
AcDbLinetypeTableRecord
  2
Continuous
 70
     0
  3
Solid line
 72
    65
 73
     0
 40
0.0
  0
LTYPE
  5
3F
330
5
100
AcDbSymbolTableRecord
100
AcDbLinetypeTableRecord
  2
SLD-Durchgehend
 70
     0
  3
SolidWorks Line Style
 72
    65
 73
     0
 40
0.0
  0
LTYPE
  5
40
330
5
100
AcDbSymbolTableRecord
100
AcDbLinetypeTableRecord
  2
SLD-Gestrichelt
 70
     0
  3
SolidWorks Line Style
 72
    65
 73
     2
 40
1.905
 49
1.27
 74
     0
 49
-0.635
 74
     0
  0
LTYPE
  5
41
330
5
100
AcDbSymbolTableRecord
100
AcDbLinetypeTableRecord
  2
SLD-Phantom
 70
     0
  3
SolidWorks Line Style
 72
    65
 73
     6
 40
12.7
 49
6.35
 74
     0
 49
-1.27
 74
     0
 49
1.27
 74
     0
 49
-1.27
 74
     0
 49
1.27
 74
     0
 49
-1.27
 74
     0
  0
LTYPE
  5
42
330
5
100
AcDbSymbolTableRecord
100
AcDbLinetypeTableRecord
  2
SLD-Kette
 70
     0
  3
SolidWorks Line Style
 72
    65
 73
     4
 40
10.16
 49
6.35
 74
     0
 49
-1.27
 74
     0
 49
1.27
 74
     0
 49
-1.27
 74
     0
  0
LTYPE
  5
43
330
5
100
AcDbSymbolTableRecord
100
AcDbLinetypeTableRecord
  2
SLD-Punktstrich
 70
     0
  3
SolidWorks Line Style
 72
    65
 73
     4
 40
19.05
 49
15.24
 74
     0
 49
-1.27
 74
     0
 49
1.27
 74
     0
 49
-1.27
 74
     0
  0
LTYPE
  5
44
330
5
100
AcDbSymbolTableRecord
100
AcDbLinetypeTableRecord
  2
SLD-Naht
 70
     0
  3
SolidWorks Line Style
 72
    65
 73
     2
 40
0.635
 49
0.0
 74
     0
 49
-0.635
 74
     0
  0
LTYPE
  5
45
330
5
100
AcDbSymbolTableRecord
100
AcDbLinetypeTableRecord
  2
SLD-Dicke-Dünne-Kette
 70
     0
  3
SolidWorks Line Style
 72
    65
 73
     4
 40
10.16
 49
6.35
 74
     0
 49
-1.27
 74
     0
 49
1.27
 74
     0
 49
-1.27
 74
     0
  0
ENDTAB
  0
TABLE
  2
LAYER
  5
2
330
0
100
AcDbSymbolTable
 70
     5
  0
LAYER
  5
10
330
2
100
AcDbSymbolTableRecord
100
AcDbLayerTableRecord
  2
0
 70
     0
 62
     7
  6
Continuous
370
    -3
390
F
  0
LAYER
  5
46
330
2
100
AcDbSymbolTableRecord
100
AcDbLayerTableRecord
  2
FORMAT
 70
     0
 62
     7
  6
SLD-Durchgehend
370
    -3
390
F
  0
LAYER
  5
47
330
2
100
AcDbSymbolTableRecord
100
AcDbLayerTableRecord
  2
VERMASSUNG
 70
     0
 62
     7
  6
SLD-Durchgehend
370
    -3
390
F
  0
LAYER
  5
48
330
2
100
AcDbSymbolTableRecord
100
AcDbLayerTableRecord
  2
KOPF_DÜNN
 70
     0
 62
     7
  6
SLD-Durchgehend
370
    -3
390
F
  0
LAYER
  5
49
330
2
100
AcDbSymbolTableRecord
100
AcDbLayerTableRecord
  2
KOPF_DICK
 70
     0
 62
     7
  6
SLD-Durchgehend
370
    15
390
F
  0
ENDTAB
  0
TABLE
  2
STYLE
  5
3
330
0
100
AcDbSymbolTable
 70
     2
  0
STYLE
  5
11
330
3
100
AcDbSymbolTableRecord
100
AcDbTextStyleTableRecord
  2
STANDARD
 70
     0
 40
0.0
 41
1.0
 50
0.0
 71
     0
 42
2.0
  3
ISOCPEUR.TTF
  4

1001
ACAD
1000
ISOCPEUR
1071
       34
  0
STYLE
  5
4A
330
3
100
AcDbSymbolTableRecord
100
AcDbTextStyleTableRecord
  2
SLDTEXTSTYLE0
 70
     0
 40
0.0
 41
1.0
 50
0.0
 71
     0
 42
0.2
  3
ISOCPEUR.TTF
  4

1001
ACAD
1000
ISOCPEUR
1071
      290
  0
ENDTAB
  0
TABLE
  2
VIEW
  5
6
330
0
100
AcDbSymbolTable
 70
     0
  0
ENDTAB
  0
TABLE
  2
UCS
  5
7
330
0
100
AcDbSymbolTable
 70
     0
  0
ENDTAB
  0
TABLE
  2
APPID
  5
9
330
0
100
AcDbSymbolTable
 70
     1
  0
APPID
  5
12
330
9
100
AcDbSymbolTableRecord
100
AcDbRegAppTableRecord
  2
ACAD
 70
     0
  0
ENDTAB
  0
TABLE
  2
DIMSTYLE
  5
A
330
0
100
AcDbSymbolTable
 70
     3
100
AcDbDimStyleTable
  0
DIMSTYLE
105
27
330
A
100
AcDbSymbolTableRecord
100
AcDbDimStyleTableRecord
  2
ISO-25
 70
     0
 41
2.5
 42
0.625
 43
3.75
 44
1.25
 73
     0
 74
     0
 77
     1
 78
     8
140
2.5
141
2.5
143
0.0393700787
147
0.625
171
     3
172
     1
178
     0
271
     2
272
     2
274
     3
278
    44
283
     0
284
     8
340
11
  0
DIMSTYLE
105
2B5
102
{ACAD_REACTORS
330
2B4
330
2BF
330
2D5
102
}
330
A
100
AcDbSymbolTableRecord
100
AcDbDimStyleTableRecord
  2
SLDDIMSTYLE0
 70
     0
 41
3.0
 44
0.0
 45
0.000000001
 73
     0
 74
     0
 77
     1
 78
    12
 79
     3
140
2.0
147
0.5
173
     1
178
     0
271
     2
272
     3
276
     2
284
    12
340
4A
  0
DIMSTYLE
105
2CA
102
{ACAD_REACTORS
330
2C9
330
2E1
102
}
330
A
100
AcDbSymbolTableRecord
100
AcDbDimStyleTableRecord
  2
SLDDIMSTYLE1
 70
     0
 41
3.0
 44
0.0
 45
0.000000001
 73
     0
 74
     0
 77
     1
 78
    12
 79
     3
140
2.0
147
0.5
172
     1
173
     1
178
     0
271
     2
272
     3
276
     2
284
    12
289
     0
340
4A
  0
ENDTAB
  0
TABLE
  2
BLOCK_RECORD
  5
1
330
0
100
AcDbSymbolTable
 70
     7
  0
BLOCK_RECORD
  5
1F
330
1
100
AcDbSymbolTableRecord
100
AcDbBlockTableRecord
  2
*Model_Space
340
22
  0
BLOCK_RECORD
  5
1B
330
1
100
AcDbSymbolTableRecord
100
AcDbBlockTableRecord
  2
*Paper_Space
340
1E
  0
BLOCK_RECORD
  5
23
330
1
100
AcDbSymbolTableRecord
100
AcDbBlockTableRecord
  2
*Paper_Space0
340
26
  0
BLOCK_RECORD
  5
2B6
330
1
100
AcDbSymbolTableRecord
100
AcDbBlockTableRecord
  2
_D
340
0
  0
BLOCK_RECORD
  5
2C0
330
1
100
AcDbSymbolTableRecord
100
AcDbBlockTableRecord
  2
_D_1
340
0
  0
BLOCK_RECORD
  5
2CB
330
1
100
AcDbSymbolTableRecord
100
AcDbBlockTableRecord
  2
_D_2
340
0
  0
BLOCK_RECORD
  5
2D6
330
1
100
AcDbSymbolTableRecord
100
AcDbBlockTableRecord
  2
_D_3
340
0
  0
BLOCK_RECORD
  5
2E2
330
1
100
AcDbSymbolTableRecord
100
AcDbBlockTableRecord
  2
_D_4
340
0
  0
BLOCK_RECORD
  5
4B6
330
1
100
AcDbSymbolTableRecord
100
AcDbBlockTableRecord
  2
SW_CENTERMARKSYMBOL_0
340
0
102
{BLKREFS
331
4C1
102
}
  0
ENDTAB
  0
ENDSEC
  0
SECTION
  2
BLOCKS
  0
BLOCK
  5
20
330
1F
100
AcDbEntity
  8
0
100
AcDbBlockBegin
  2
*Model_Space
 70
     0
 10
0.0
 20
0.0
 30
0.0
  3
*Model_Space
  1

  0
ENDBLK
  5
21
330
1F
100
AcDbEntity
  8
0
100
AcDbBlockEnd
  0
BLOCK
  5
1C
330
1B
100
AcDbEntity
 67
     1
  8
0
100
AcDbBlockBegin
  2
*Paper_Space
 70
     0
 10
0.0
 20
0.0
 30
0.0
  3
*Paper_Space
  1

  0
ENDBLK
  5
1D
330
1B
100
AcDbEntity
 67
     1
  8
0
100
AcDbBlockEnd
  0
BLOCK
  5
24
330
23
100
AcDbEntity
  8
0
100
AcDbBlockBegin
  2
*Paper_Space0
 70
     0
 10
0.0
 20
0.0
 30
0.0
  3
*Paper_Space0
  1

  0
ENDBLK
  5
25
330
23
100
AcDbEntity
  8
0
100
AcDbBlockEnd
  0
BLOCK
  5
2B7
330
2B6
100
AcDbEntity
  8
0
100
AcDbBlockBegin
  2
_D
 70
     0
 10
0.0
 20
0.0
 30
0.0
  3
_D
  1

  0
SOLID
  5
2B9
330
2B6
100
AcDbEntity
  8
VERMASSUNG
100
AcDbTrace
 10
280.1941513831
 20
159.7119491168
 30
0.0
 11
277.1941513831
 21
160.1619491168
 31
0.0
 12
277.1941513831
 22
159.2619491168
 32
0.0
 13
277.1941513831
 23
159.2619491168
 33
0.0
  0
SOLID
  5
2BA
330
2B6
100
AcDbEntity
  8
VERMASSUNG
100
AcDbTrace
 10
160.1941513831
 20
159.7119491168
 30
0.0
 11
163.1941513831
 21
159.2619491168
 31
0.0
 12
163.1941513831
 22
160.1619491168
 32
0.0
 13
163.1941513831
 23
160.1619491168
 33
0.0
  0
LINE
  5
2BB
330
2B6
100
AcDbEntity
  8
VERMASSUNG
100
AcDbLine
 10
280.1941513831
 20
149.6025950317
 30
0.0
 11
280.1941513831
 21
160.7119491168
 31
0.0
  0
LINE
  5
2BC
330
2B6
100
AcDbEntity
  8
VERMASSUNG
100
AcDbLine
 10
160.1941513831
 20
137.263655955
 30
0.0
 11
160.1941513831
 21
160.7119491168
 31
0.0
  0
LINE
  5
2BD
330
2B6
100
AcDbEntity
  8
VERMASSUNG
100
AcDbLine
 10
280.1941513831
 20
159.7119491168
 30
0.0
 11
160.1941513831
 21
159.7119491168
 31
0.0
  0
MTEXT
  5
2BE
330
2B6
100
AcDbEntity
  8
VERMASSUNG
100
AcDbMText
 10
217.3941512501
 20
162.3119490003
 30
0.1
 40
2.0
 41
0.0
 71
     1
 72
     1
  1
120
  7
SLDTEXTSTYLE0
 73
     1
 44
1.0
  0
ENDBLK
  5
2B8
330
2B6
100
AcDbEntity
  8
0
100
AcDbBlockEnd
  0
BLOCK
  5
2C1
330
2C0
100
AcDbEntity
  8
0
100
AcDbBlockBegin
  2
_D_1
 70
     0
 10
0.0
 20
0.0
 30
0.0
  3
_D_1
  1

  0
SOLID
  5
2C3
330
2C0
100
AcDbEntity
  8
VERMASSUNG
100
AcDbTrace
 10
240.1941513831
 20
153.7119491168
 30
0.0
 11
237.1941513831
 21
154.1619491168
 31
0.0
 12
237.1941513831
 22
153.2619491168
 32
0.0
 13
237.1941513831
 23
153.2619491168
 33
0.0
  0
SOLID
  5
2C4
330
2C0
100
AcDbEntity
  8
VERMASSUNG
100
AcDbTrace
 10
160.1941513831
 20
153.7119491168
 30
0.0
 11
163.1941513831
 21
153.2619491168
 31
0.0
 12
163.1941513831
 22
154.1619491168
 32
0.0
 13
163.1941513831
 23
154.1619491168
 33
0.0
  0
LINE
  5
2C5
330
2C0
100
AcDbEntity
  8
VERMASSUNG
100
AcDbLine
 10
240.1941513831
 20
134.8345707126
 30
0.0
 11
240.1941513831
 21
154.7119491168
 31
0.0
  0
LINE
  5
2C6
330
2C0
100
AcDbEntity
  8
VERMASSUNG
100
AcDbLine
 10
160.1941513831
 20
137.263655955
 30
0.0
 11
160.1941513831
 21
154.7119491168
 31
0.0
  0
LINE
  5
2C7
330
2C0
100
AcDbEntity
  8
VERMASSUNG
100
AcDbLine
 10
240.1941513831
 20
153.7119491168
 30
0.0
 11
160.1941513831
 21
153.7119491168
 31
0.0
  0
MTEXT
  5
2C8
330
2C0
100
AcDbEntity
  8
VERMASSUNG
100
AcDbMText
 10
197.8941513321
 20
156.3119490003
 30
0.1
 40
2.0
 41
0.0
 71
     1
 72
     1
  1
80
  7
SLDTEXTSTYLE0
 73
     1
 44
1.0
  0
ENDBLK
  5
2C2
330
2C0
100
AcDbEntity
  8
0
100
AcDbBlockEnd
  0
BLOCK
  5
2CC
330
2CB
100
AcDbEntity
  8
0
100
AcDbBlockBegin
  2
_D_2
 70
     0
 10
0.0
 20
0.0
 30
0.0
  3
_D_2
  1

  0
SOLID
  5
2CE
330
2CB
100
AcDbEntity
  8
VERMASSUNG
100
AcDbTrace
 10
194.6437274579
 20
97.563655955
 30
0.0
 11
194.1937274579
 21
94.563655955
 31
0.0
 12
195.0937274579
 22
94.563655955
 32
0.0
 13
195.0937274579
 23
94.563655955
 33
0.0
  0
SOLID
  5
2CF
330
2CB
100
AcDbEntity
  8
VERMASSUNG
100
AcDbTrace
 10
194.6437274579
 20
137.563655955
 30
0.0
 11
195.0937274579
 21
140.563655955
 31
0.0
 12
194.1937274579
 22
140.563655955
 32
0.0
 13
194.1937274579
 23
140.563655955
 33
0.0
  0
LINE
  5
2D0
330
2CB
100
AcDbEntity
  8
VERMASSUNG
100
AcDbLine
 10
194.6437274579
 20
97.563655955
 30
0.0
 11
194.6437274579
 21
91.563655955
 31
0.0
  0
LINE
  5
2D1
330
2CB
100
AcDbEntity
  8
VERMASSUNG
100
AcDbLine
 10
194.6437274579
 20
97.563655955
 30
0.0
 11
194.6437274579
 21
137.563655955
 31
0.0
  0
LINE
  5
2D2
330
2CB
100
AcDbEntity
  8
VERMASSUNG
100
AcDbLine
 10
194.6437274579
 20
137.563655955
 30
0.0
 11
194.6437274579
 21
149.4395672803
 31
0.0
  0
MTEXT
  5
2D3
330
2CB
100
AcDbEntity
  8
VERMASSUNG
100
AcDbMText
 10
192.0437274579
 20
141.029567038
 30
0.1
 40
2.0
 41
0.0
 71
     1
 72
     1
  1
%%c
  7
SLDTEXTSTYLE0
 11
6.123233995736766E-17
 21
1.0
 31
0.0
 73
     1
 44
1.0
  0
MTEXT
  5
2D4
330
2CB
100
AcDbEntity
  8
VERMASSUNG
100
AcDbMText
 10
191.8437274484
 20
144.6395670523
 30
0.1
 40
2.0
 41
0.0
 71
     1
 72
     1
  1
40
  7
SLDTEXTSTYLE0
 11
6.123233995736766E-17
 21
1.0
 31
0.0
 73
     1
 44
1.0
  0
ENDBLK
  5
2CD
330
2CB
100
AcDbEntity
  8
0
100
AcDbBlockEnd
  0
BLOCK
  5
2D7
330
2D6
100
AcDbEntity
  8
0
100
AcDbBlockBegin
  2
_D_3
 70
     0
 10
0.0
 20
0.0
 30
0.0
  3
_D_3
  1

  0
SOLID
  5
2D9
330
2D6
100
AcDbEntity
  8
VERMASSUNG
100
AcDbTrace
 10
128.3365291351
 20
97.563655955
 30
0.0
 11
128.7865291351
 21
100.563655955
 31
0.0
 12
127.8865291351
 22
100.563655955
 32
0.0
 13
127.8865291351
 23
100.563655955
 33
0.0
  0
SOLID
  5
2DA
330
2D6
100
AcDbEntity
  8
VERMASSUNG
100
AcDbTrace
 10
128.3365291351
 20
137.563655955
 30
0.0
 11
127.8865291351
 21
134.563655955
 31
0.0
 12
128.7865291351
 22
134.563655955
 32
0.0
 13
128.7865291351
 23
134.563655955
 33
0.0
  0
LINE
  5
2DB
330
2D6
100
AcDbEntity
  8
VERMASSUNG
100
AcDbLine
 10
174.1941513831
 20
97.563655955
 30
0.0
 11
127.3365291351
 21
97.563655955
 31
0.0
  0
LINE
  5
2DC
330
2D6
100
AcDbEntity
  8
VERMASSUNG
100
AcDbLine
 10
160.4941513831
 20
137.563655955
 30
0.0
 11
127.3365291351
 21
137.563655955
 31
0.0
  0
LINE
  5
2DD
330
2D6
100
AcDbEntity
  8
VERMASSUNG
100
AcDbLine
 10
128.3365291351
 20
97.563655955
 30
0.0
 11
128.3365291351
 21
137.563655955
 31
0.0
  0
MTEXT
  5
2DE
330
2D6
100
AcDbEntity
  8
VERMASSUNG
100
AcDbMText
 10
125.5365291256
 20
110.4586556379
 30
0.1
 40
2.0
 41
0.0
 71
     1
 72
     1
  1
PSC 
  7
SLDTEXTSTYLE0
 11
6.123233995736766E-17
 21
1.0
 31
0.0
 73
     1
 44
1.0
  0
MTEXT
  5
2DF
330
2D6
100
AcDbEntity
  8
VERMASSUNG
100
AcDbMText
 10
125.7365291351
 20
116.2586560298
 30
0.1
 40
2.0
 41
0.0
 71
     1
 72
     1
  1
%%c
  7
SLDTEXTSTYLE0
 11
6.123233995736766E-17
 21
1.0
 31
0.0
 73
     1
 44
1.0
  0
MTEXT
  5
2E0
330
2D6
100
AcDbEntity
  8
VERMASSUNG
100
AcDbMText
 10
125.5365291256
 20
119.8686560441
 30
0.1
 40
2.0
 41
0.0
 71
     1
 72
     1
  1
40
  7
SLDTEXTSTYLE0
 11
6.123233995736766E-17
 21
1.0
 31
0.0
 73
     1
 44
1.0
  0
ENDBLK
  5
2D8
330
2D6
100
AcDbEntity
  8
0
100
AcDbBlockEnd
  0
BLOCK
  5
2E3
330
2E2
100
AcDbEntity
  8
0
100
AcDbBlockBegin
  2
_D_4
 70
     0
 10
0.0
 20
0.0
 30
0.0
  3
_D_4
  1

  0
SOLID
  5
2E5
330
2E2
100
AcDbEntity
  8
VERMASSUNG
100
AcDbTrace
 10
244.0351175025
 20
124.4631508916
 30
0.0
 11
243.5851175025
 21
121.4631508916
 31
0.0
 12
244.4851175025
 22
121.4631508916
 32
0.0
 13
244.4851175025
 23
121.4631508916
 33
0.0
  0
SOLID
  5
2E6
330
2E2
100
AcDbEntity
  8
VERMASSUNG
100
AcDbTrace
 10
244.0351175025
 20
130.4631508916
 30
0.0
 11
244.4851175025
 21
133.4631508916
 31
0.0
 12
243.5851175025
 22
133.4631508916
 32
0.0
 13
243.5851175025
 23
133.4631508916
 33
0.0
  0
LINE
  5
2E7
330
2E2
100
AcDbEntity
  8
VERMASSUNG
100
AcDbLine
 10
244.0351175025
 20
124.4631508916
 30
0.0
 11
244.0351175025
 21
118.4631508916
 31
0.0
  0
LINE
  5
2E8
330
2E2
100
AcDbEntity
  8
VERMASSUNG
100
AcDbLine
 10
244.0351175025
 20
124.4631508916
 30
0.0
 11
244.0351175025
 21
130.4631508916
 31
0.0
  0
LINE
  5
2E9
330
2E2
100
AcDbEntity
  8
VERMASSUNG
100
AcDbLine
 10
244.0351175025
 20
130.4631508916
 30
0.0
 11
244.0351175025
 21
146.9762333009
 31
0.0
  0
MTEXT
  5
2EA
330
2E2
100
AcDbEntity
  8
VERMASSUNG
100
AcDbMText
 10
241.4351175025
 20
140.1662331346
 30
0.1
 40
2.0
 41
0.0
 71
     1
 72
     1
  1
%%c
  7
SLDTEXTSTYLE0
 11
6.123233995736766E-17
 21
1.0
 31
0.0
 73
     1
 44
1.0
  0
MTEXT
  5
2EB
330
2E2
100
AcDbEntity
  8
VERMASSUNG
100
AcDbMText
 10
241.235117493
 20
143.7762331489
 30
0.1
 40
2.0
 41
0.0
 71
     1
 72
     1
  1
6
  7
SLDTEXTSTYLE0
 11
6.123233995736766E-17
 21
1.0
 31
0.0
 73
     1
 44
1.0
  0
ENDBLK
  5
2E4
330
2E2
100
AcDbEntity
  8
0
100
AcDbBlockEnd
  0
BLOCK
  5
4B7
330
4B6
100
AcDbEntity
  8
0
100
AcDbBlockBegin
  2
SW_CENTERMARKSYMBOL_0
 70
     0
 10
0.0
 20
0.0
 30
0.0
  3
SW_CENTERMARKSYMBOL_0
  1

  0
LINE
  5
4B9
330
4B6
100
AcDbEntity
  8
VERMASSUNG
 62
     0
100
AcDbLine
 10
0.0
 20
0.0
 30
0.0
 11
0.0
 21
2.5
 31
0.0
  0
LINE
  5
4BA
330
4B6
100
AcDbEntity
  8
VERMASSUNG
 62
     0
100
AcDbLine
 10
0.0
 20
0.0
 30
0.0
 11
-2.5
 21
0.0
 31
0.0
  0
LINE
  5
4BB
330
4B6
100
AcDbEntity
  8
VERMASSUNG
 62
     0
100
AcDbLine
 10
0.0
 20
0.0
 30
0.0
 11
0.0
 21
-2.5
 31
0.0
  0
LINE
  5
4BC
330
4B6
100
AcDbEntity
  8
VERMASSUNG
 62
     0
100
AcDbLine
 10
0.0
 20
0.0
 30
0.0
 11
2.5
 21
0.0
 31
0.0
  0
LINE
  5
4BD
330
4B6
100
AcDbEntity
  8
VERMASSUNG
 62
     0
100
AcDbLine
 10
0.0
 20
5.0
 30
0.0
 11
0.0
 21
34.0
 31
0.0
  0
LINE
  5
4BE
330
4B6
100
AcDbEntity
  8
VERMASSUNG
 62
     0
100
AcDbLine
 10
-5.0
 20
0.0
 30
0.0
 11
-34.0
 21
0.0
 31
0.0
  0
LINE
  5
4BF
330
4B6
100
AcDbEntity
  8
VERMASSUNG
 62
     0
100
AcDbLine
 10
0.0
 20
-5.0
 30
0.0
 11
0.0
 21
-34.0
 31
0.0
  0
LINE
  5
4C0
330
4B6
100
AcDbEntity
  8
VERMASSUNG
 62
     0
100
AcDbLine
 10
5.0
 20
0.0
 30
0.0
 11
34.0
 21
0.0
 31
0.0
  0
ENDBLK
  5
4B8
330
4B6
100
AcDbEntity
  8
0
100
AcDbBlockEnd
  0
ENDSEC
  0
SECTION
  2
ENTITIES
  0
MTEXT
  5
4B
330
1F
100
AcDbEntity
  8
KOPF_DÜNN
100
AcDbMText
 10
13.8892156294
 20
23.8770940835
 30
0.0
 40
3.0
 41
0.0
 71
     1
 72
     1
  1
PS4.WK1.040.120
  7
SLDTEXTSTYLE0
 73
     1
 44
1.0
  0
MTEXT
  5
4C
330
1F
100
AcDbEntity
  8
VERMASSUNG
100
AcDbMText
 10
13.9329988022
 20
28.9162328764
 30
0.0
 40
3.0
 41
0.0
 71
     1
 72
     1
  1
Bohrstange  ø40
  7
SLDTEXTSTYLE0
 73
     1
 44
1.0
  0
MTEXT
  5
4D
330
1F
100
AcDbEntity
  8
VERMASSUNG
100
AcDbMText
 10
98.8601118557
 20
13.8584013384
 30
0.0
 40
2.0
 41
0.0
 71
     1
 72
     1
  1
Datum: 06.05.2015
  7
SLDTEXTSTYLE0
 73
     1
 44
1.0
  0
MTEXT
  5
4E
330
1F
100
AcDbEntity
  8
VERMASSUNG
100
AcDbMText
 10
13.933048693
 20
18.0701447943
 30
0.0
 40
2.0
 41
0.0
 71
     1
 72
     1
  1
PSC ø40 / Wechselkopf-Bohrstange
  7
SLDTEXTSTYLE0
 73
     1
 44
1.0
  0
MTEXT
  5
4F
330
1F
100
AcDbEntity
  8
VERMASSUNG
100
AcDbMText
 10
13.9808475933
 20
13.9309618897
 30
0.0
 40
2.0
 41
0.0
 71
     1
 72
     1
  1
Gewicht: 838g
  7
SLDTEXTSTYLE0
 73
     1
 44
1.0
  0
LINE
  5
50
330
1F
100
AcDbEntity
  8
0
  6
SLD-Durchgehend
 62
     7
370
    15
100
AcDbLine
 10
251.2941512282
 20
112.6641611393
 30
0.0
 11
245.5941515977
 21
112.6641611393
 31
0.0
  0
LINE
  5
51
330
1F
100
AcDbEntity
  8
0
  6
SLD-Durchgehend
 62
     7
370
    15
100
AcDbLine
 10
245.5941515977
 20
102.6641608972
 30
0.0
 11
251.2941512282
 21
102.6641608972
 31
0.0
  0
ARC
  5
52
330
1F
100
AcDbEntity
  8
0
  6
SLD-Durchgehend
 62
     7
370
    15
100
AcDbCircle
 10
251.2941513831
 20
112.3641610183
 30
0.0
 40
0.3000000000000398
100
AcDbArc
 50
0.0
 51
90.0
  0
ARC
  5
53
330
1F
100
AcDbEntity
  8
0
  6
SLD-Durchgehend
 62
     7
370
    15
100
AcDbCircle
 10
251.2941513831
 20
102.9641610183
 30
0.0
 40
0.3000000000000398
100
AcDbArc
 50
270.0
 51
0.0
  0
ARC
  5
54
330
1F
100
AcDbEntity
  8
0
  6
SLD-Durchgehend
 62
     7
370
    15
100
AcDbCircle
 10
245.3441513831
 20
104.4141610183
 30
0.0
 40
0.25
100
AcDbArc
 50
0.0
 51
90.0
  0
ARC
  5
55
330
1F
100
AcDbEntity
  8
0
  6
SLD-Durchgehend
 62
     7
370
    15
100
AcDbCircle
 10
245.3441513831
 20
110.9141610183
 30
0.0
 40
0.25
100
AcDbArc
 50
270.0
 51
0.0
  0
LINE
  5
56
330
1F
100
AcDbEntity
  8
0
  6
SLD-Durchgehend
 62
     7
370
    15
100
AcDbLine
 10
245.3441548164
 20
110.6641608115
 30
0.0
 11
240.5842545445
 21
110.6641608115
 31
0.0
  0
LINE
  5
57
330
1F
100
AcDbEntity
  8
0
  6
SLD-Durchgehend
 62
     7
370
    15
100
AcDbLine
 10
240.5842545445
 20
104.664161225
 30
0.0
 11
245.3441548164
 21
104.664161225
 31
0.0
  0
LINE
  5
58
330
1F
100
AcDbEntity
  8
0
  6
SLD-Durchgehend
 62
     7
370
    15
100
AcDbLine
 10
251.2941512282
 20
132.4631510127
 30
0.0
 11
245.5941515977
 21
132.4631510127
 31
0.0
  0
LINE
  5
59
330
1F
100
AcDbEntity
  8
0
  6
SLD-Durchgehend
 62
     7
370
    15
100
AcDbLine
 10
245.5941515977
 20
122.4631507706
 30
0.0
 11
251.2941512282
 21
122.4631507706
 31
0.0
  0
ARC
  5
5A
330
1F
100
AcDbEntity
  8
0
  6
SLD-Durchgehend
 62
     7
370
    15
100
AcDbCircle
 10
251.2941513831
 20
132.1631508916
 30
0.0
 40
0.3000000000000398
100
AcDbArc
 50
0.0
 51
90.0
  0
ARC
  5
5B
330
1F
100
AcDbEntity
  8
0
  6
SLD-Durchgehend
 62
     7
370
    15
100
AcDbCircle
 10
251.2941513831
 20
122.7631508916
 30
0.0
 40
0.3000000000000398
100
AcDbArc
 50
270.0
 51
0.0
  0
ARC
  5
5C
330
1F
100
AcDbEntity
  8
0
  6
SLD-Durchgehend
 62
     7
370
    15
100
AcDbCircle
 10
245.3441513831
 20
124.2131508916
 30
0.0
 40
0.25
100
AcDbArc
 50
0.0
 51
90.0
  0
ARC
  5
5D
330
1F
100
AcDbEntity
  8
0
  6
SLD-Durchgehend
 62
     7
370
    15
100
AcDbCircle
 10
245.3441513831
 20
130.7131508916
 30
0.0
 40
0.25
100
AcDbArc
 50
270.0
 51
0.0
  0
LINE
  5
5E
330
1F
100
AcDbEntity
  8
0
  6
SLD-Durchgehend
 62
     7
370
    15
100
AcDbLine
 10
245.3441548164
 20
130.4631506849
 30
0.0
 11
240.5842545445
 21
130.4631506849
 31
0.0
  0
LINE
  5
5F
330
1F
100
AcDbEntity
  8
0
  6
SLD-Durchgehend
 62
     7
370
    15
100
AcDbLine
 10
240.5842545445
 20
124.4631510984
 30
0.0
 11
245.3441548164
 21
124.4631510984
 31
0.0
  0
ARC
  5
60
330
1F
100
AcDbEntity
  8
0
  6
SLD-Durchgehend
 62
     7
370
    15
100
AcDbCircle
 10
160.4941513831
 20
97.863655955
 30
0.0
 40
0.3000000000000114
100
AcDbArc
 50
180.0
 51
270.0
  0
ARC
  5
61
330
1F
100
AcDbEntity
  8
0
  6
SLD-Durchgehend
 62
     7
370
    15
100
AcDbCircle
 10
160.4941513831
 20
137.263655955
 30
0.0
 40
0.3000000000000398
100
AcDbArc
 50
90.0
 51
180.0
  0
LINE
  5
62
330
1F
100
AcDbEntity
  8
0
  6
SLD-Durchgehend
 62
     7
370
    15
100
AcDbLine
 10
239.4941526467
 20
137.5636555079
 30
0.0
 11
160.4941513974
 21
137.5636555079
 31
0.0
  0
LINE
  5
63
330
1F
100
AcDbEntity
  8
0
  6
SLD-Durchgehend
 62
     7
370
    15
100
AcDbLine
 10
174.1941518153
 20
97.563656402
 30
0.0
 11
239.4941526467
 21
97.563656402
 31
0.0
  0
LINE
  5
64
330
1F
100
AcDbEntity
  8
0
  6
SLD-Durchgehend
 62
     7
370
    15
100
AcDbLine
 10
160.4941513974
 20
97.563656402
 30
0.0
 11
170.2190537939
 21
97.563656402
 31
0.0
  0
LINE
  5
65
330
1F
100
AcDbEntity
  8
0
  6
SLD-Durchgehend
 62
     7
370
    15
100
AcDbLine
 10
239.4941526467
 20
97.563656402
 30
0.0
 11
239.8293393666
 21
97.8988449845
 31
0.0
  0
LINE
  5
66
330
1F
100
AcDbEntity
  8
0
  6
SLD-Durchgehend
 62
     7
370
    15
100
AcDbLine
 10
239.8293393666
 20
137.2284669254
 30
0.0
 11
239.4941526467
 21
137.5636555079
 31
0.0
  0
LWPOLYLINE
  5
67
330
1F
100
AcDbEntity
  8
0
  6
SLD-Durchgehend
 62
     7
370
    15
100
AcDbPolyline
 90
        3
 70
   128
 43
0.0
 10
159.9941513882
 20
103.4738359798
 10
160.1196063234
 20
103.4055337135
 10
160.1941513831
 20
103.35279571
  0
ARC
  5
68
330
1F
100
AcDbEntity
  8
0
  6
SLD-Durchgehend
 62
     7
370
    15
100
AcDbCircle
 10
159.5799378208
 20
132.563655955
 30
0.0
 40
1.000000000000028
100
AcDbArc
 50
225.0
 51
307.8947985336
  0
LINE
  5
69
330
1F
100
AcDbEntity
  8
0
  6
SLD-Durchgehend
 62
     7
370
    15
100
AcDbLine
 10
151.3756777162
 20
104.6223979268
 30
0.0
 11
158.4941513606
 21
104.4435569841
 31
0.0
  0
LINE
  5
6A
330
1F
100
AcDbEntity
  8
0
  6
SLD-Durchgehend
 62
     7
370
    15
100
AcDbLine
 10
142.0980862344
 20
104.8554837528
 30
0.0
 11
146.1609493012
 21
104.7534098673
 31
0.0
  0
ARC
  5
6B
330
1F
100
AcDbEntity
  8
0
  6
SLD-Durchgehend
 62
     7
370
    15
100
AcDbCircle
 10
158.6940882941
 20
104.4385340593
 30
0.0
 40
0.2000000000000066
100
AcDbArc
 50
88.5608333333
 51
178.5608333333
  0
LINE
  5
6C
330
1F
100
AcDbEntity
  8
0
  6
SLD-Durchgehend
 62
     7
370
    15
100
AcDbLine
 10
158.6991113613
 20
104.6384706918
 30
0.0
 11
159.7991744815
 21
104.6108336944
 31
0.0
  0
ARC
  5
6D
330
1F
100
AcDbEntity
  8
0
  6
SLD-Durchgehend
 62
     7
370
    15
100
AcDbCircle
 10
159.7941513831
 20
104.4108966455
 30
0.0
 40
0.2000000000000171
100
AcDbArc
 50
0.0
 51
88.5608333333
  0
LINE
  5
6E
330
1F
100
AcDbEntity
  8
0
  6
SLD-Durchgehend
 62
     7
370
    15
100
AcDbLine
 10
158.2610421351
 20
132.4778985057
 30
0.0
 11
137.6941504891
 21
131.9611867715
 31
0.0
  0
LINE
  5
6F
330
1F
100
AcDbEntity
  8
0
  6
SLD-Durchgehend
 62
     7
370
    15
100
AcDbLine
 10
137.6941504891
 20
131.9611867715
 30
0.0
 11
136.1941511745
 21
131.0951610852
 31
0.0
  0
LINE
  5
70
330
1F
100
AcDbEntity
  8
0
  6
SLD-Durchgehend
 62
     7
370
    15
100
AcDbLine
 10
158.8728310776
 20
131.8565489549
 30
0.0
 11
158.2677944566
 21
132.4615854595
 31
0.0
  0
LINE
  5
71
330
1F
100
AcDbEntity
  8
0
  6
SLD-Durchgehend
 62
     7
370
    15
100
AcDbLine
 10
245.5941515977
 20
112.6641611393
 30
0.0
 11
245.5941515977
 21
102.6641608972
 31
0.0
  0
LINE
  5
72
330
1F
100
AcDbEntity
  8
0
  6
SLD-Durchgehend
 62
     7
370
    15
100
AcDbLine
 10
251.5941488559
 20
112.3641611833
 30
0.0
 11
251.5941488559
 21
102.9641613189
 31
0.0
  0
LINE
  5
73
330
1F
100
AcDbEntity
  8
0
  6
SLD-Durchgehend
 62
     7
370
    15
100
AcDbLine
 10
245.5941515977
 20
125.5883373145
 30
0.0
 11
245.5941515977
 21
122.4631507706
 31
0.0
  0
LINE
  5
74
330
1F
100
AcDbEntity
  8
0
  6
SLD-Durchgehend
 62
     7
370
    15
100
AcDbLine
 10
245.5941515977
 20
132.4631510127
 30
0.0
 11
245.5941515977
 21
125.5883373145
 31
0.0
  0
LINE
  5
75
330
1F
100
AcDbEntity
  8
0
  6
SLD-Durchgehend
 62
     7
370
    15
100
AcDbLine
 10
251.5941488559
 20
125.7008261803
 30
0.0
 11
251.5941488559
 21
122.7631507266
 31
0.0
  0
LINE
  5
76
330
1F
100
AcDbEntity
  8
0
  6
SLD-Durchgehend
 62
     7
370
    15
100
AcDbLine
 10
251.5941488559
 20
132.163150591
 30
0.0
 11
251.5941488559
 21
125.7008261803
 31
0.0
  0
LINE
  5
77
330
1F
100
AcDbEntity
  8
0
  6
SLD-Durchgehend
 62
     7
370
    15
100
AcDbLine
 10
160.1941513831
 20
117.563655955
 30
0.0
 11
160.1941513831
 21
137.2636560175
 31
0.0
  0
LINE
  5
78
330
1F
100
AcDbEntity
  8
0
  6
SLD-Durchgehend
 62
     7
370
    15
100
AcDbLine
 10
160.1941513831
 20
97.8636558924
 30
0.0
 11
160.1941513831
 21
117.563655955
 31
0.0
  0
ARC
  5
79
330
1F
100
AcDbEntity
  8
0
  6
SLD-Durchgehend
 62
     7
370
    15
100
AcDbCircle
 10
172.1942267167
 20
77.6162575514
 30
0.0
 40
20.04740435329331
100
AcDbArc
 50
84.274660991
 51
95.6542466638
  0
ARC
  5
7A
330
1F
100
AcDbEntity
  8
0
  6
SLD-Durchgehend
 62
     7
370
    15
100
AcDbCircle
 10
167.1065858529
 20
98.7765487587
 30
0.0
 40
0.345099067832645
100
AcDbArc
 50
225.8581305245
 51
273.2338382178
  0
LINE
  5
7B
330
1F
100
AcDbEntity
  8
0
  6
SLD-Durchgehend
 62
     7
370
    15
100
AcDbLine
 10
167.1260532925
 20
98.4319992188
 30
0.0
 11
169.2622493024
 21
98.4319992188
 31
0.0
  0
ARC
  5
7C
330
1F
100
AcDbEntity
  8
0
  6
SLD-Durchgehend
 62
     7
370
    15
100
AcDbCircle
 10
169.2845669658
 20
98.7689067972
 30
0.0
 40
0.3376459602488144
100
AcDbArc
 50
266.2101105761
 51
314.6979206816
  0
ELLIPSE
  5
7D
330
1F
100
AcDbEntity
  8
0
  6
SLD-Durchgehend
 62
     7
370
    15
100
AcDbEllipse
 10
159.2452222107
 20
117.563655955
 30
0.0
 11
-9.367417879781813
 21
19.74174915274991
 31
0.0
210
0.0
220
0.0
230
1.0
 40
0.3419987131
 41
3.29266438251689
 42
4.239566697060992
  0
ARC
  5
7E
330
1F
100
AcDbEntity
  8
0
  6
SLD-Durchgehend
 62
     7
370
    15
100
AcDbCircle
 10
169.1704847142
 20
111.3935672949
 30
0.0
 40
0.3530110871912991
100
AcDbArc
 50
5.1754309177
 51
74.9330129017
  0
LINE
  5
7F
330
1F
100
AcDbEntity
  8
0
  6
SLD-Durchgehend
 62
     7
370
    15
100
AcDbLine
 10
169.2622493024
 20
111.7344427679
 30
0.0
 11
167.1260532925
 21
111.7344427679
 31
0.0
  0
ARC
  5
80
330
1F
100
AcDbEntity
  8
0
  6
SLD-Durchgehend
 62
     7
370
    15
100
AcDbCircle
 10
167.231533475
 20
111.3820364085
 30
0.0
 40
0.3678536543011373
100
AcDbArc
 50
106.6631816763
 51
173.2283745043
  0
ELLIPSE
  5
81
330
1F
100
AcDbEntity
  8
0
  6
SLD-Durchgehend
 62
     7
370
    15
100
AcDbEllipse
 10
177.1430805556
 20
117.563655955
 30
0.0
 11
9.367417879781669
 21
19.74174915274993
 31
0.0
210
0.0
220
0.0
230
1.0
 40
0.3419987131
 41
2.043618610118602
 42
2.990520924662726
  0
LWPOLYLINE
  5
82
330
1F
100
AcDbEntity
  8
0
  6
SLD-Durchgehend
 62
     7
370
    15
100
AcDbPolyline
 90
        6
 70
   128
 43
0.0
 10
166.8662459592
 20
123.7019010644
 10
166.9424016031
 20
123.5212426457
 10
166.9906394559
 20
123.4587443817
 10
167.0549887235
 20
123.410248087
 10
167.1042463745
 20
123.3944831241
 10
167.1260532925
 20
123.3928691421
  0
LINE
  5
83
330
1F
100
AcDbEntity
  8
0
  6
SLD-Durchgehend
 62
     7
370
    15
100
AcDbLine
 10
167.1260532925
 20
123.3928691421
 30
0.0
 11
169.2622493024
 21
123.3928691421
 31
0.0
  0
ARC
  5
84
330
1F
100
AcDbEntity
  8
0
  6
SLD-Durchgehend
 62
     7
370
    15
100
AcDbCircle
 10
169.1567691199
 20
123.7452755014
 30
0.0
 40
0.3678536543011672
100
AcDbArc
 50
286.6631816763
 51
353.2283745043
  0
ELLIPSE
  5
85
330
1F
100
AcDbEntity
  8
0
  6
SLD-Durchgehend
 62
     7
370
    15
100
AcDbEllipse
 10
159.2452222107
 20
117.563655955
 30
0.0
 11
9.367417879781755
 21
19.7417491527499
 31
0.0
210
0.0
220
0.0
230
1.0
 40
0.3419987131
 41
5.185211263708405
 42
6.132113578252563
  0
ARC
  5
86
330
1F
100
AcDbEntity
  8
0
  6
SLD-Durchgehend
 62
     7
370
    15
100
AcDbCircle
 10
169.2738431432
 20
136.3296526198
 30
0.0
 40
0.3658438258321584
100
AcDbArc
 50
47.2759222685
 51
91.8160464738
  0
LINE
  5
87
330
1F
100
AcDbEntity
  8
0
  6
SLD-Durchgehend
 62
     7
370
    15
100
AcDbLine
 10
169.2622493024
 20
136.6953126911
 30
0.0
 11
167.1260532925
 21
136.6953126911
 31
0.0
  0
ARC
  5
88
330
1F
100
AcDbEntity
  8
0
  6
SLD-Durchgehend
 62
     7
370
    15
100
AcDbCircle
 10
167.1037356291
 20
136.3584051127
 30
0.0
 40
0.3376459602487834
100
AcDbArc
 50
86.2101105761
 51
134.6979206816
  0
ELLIPSE
  5
89
330
1F
100
AcDbEntity
  8
0
  6
SLD-Durchgehend
 62
     7
370
    15
100
AcDbEllipse
 10
177.1430805556
 20
117.563655955
 30
0.0
 11
-9.367417879781613
 21
19.74174915274993
 31
0.0
210
0.0
220
0.0
230
1.0
 40
0.3419987131
 41
0.1510717289270666
 42
1.097974043471197
  0
LINE
  5
8A
330
1F
100
AcDbEntity
  8
0
  6
SLD-Durchgehend
 62
     7
370
    15
100
AcDbLine
 10
239.4941526467
 20
137.5636555079
 30
0.0
 11
239.4941526467
 21
97.563656402
 31
0.0
  0
LINE
  5
8B
330
1F
100
AcDbEntity
  8
0
  6
SLD-Durchgehend
 62
     7
370
    15
100
AcDbLine
 10
239.8289668376
 20
137.2280925337
 30
0.0
 11
239.7241520698
 21
137.1675789181
 31
0.0
  0
LWPOLYLINE
  5
8C
330
1F
100
AcDbEntity
  8
0
  6
SLD-Durchgehend
 62
     7
370
    15
100
AcDbPolyline
 90
       12
 70
   128
 43
0.0
 10
239.7241520698
 20
137.1675789181
 10
239.7109719927
 20
137.1587574307
 10
239.6650391633
 20
137.0490643952
 10
239.6784129555
 20
137.0069127355
 10
239.6846937949
 20
136.9965173129
 10
239.6888437683
 20
136.9907449756
 10
239.6935599858
 20
136.9849595997
 10
239.6974491889
 20
136.9806941423
 10
239.7016811187
 20
136.9764864269
 10
239.7065165455
 20
136.972150189
 10
239.7134902889
 20
136.9666646991
 10
239.7241520698
 20
136.9597337965
  0
LWPOLYLINE
  5
8D
330
1F
100
AcDbEntity
  8
0
  6
SLD-Durchgehend
 62
     7
370
    15
100
AcDbPolyline
 90
        4
 70
   128
 43
0.0
 10
239.7241520698
 20
136.9597337965
 10
240.221649688
 20
136.6725008759
 10
240.5364441688
 20
136.4907570008
 10
240.5941489155
 20
136.4574380044
  0
LINE
  5
8E
330
1F
100
AcDbEntity
  8
0
  6
SLD-Durchgehend
 62
     7
370
    15
100
AcDbLine
 10
240.5941489155
 20
136.4574380044
 30
0.0
 11
240.5941489155
 21
136.169873533
 31
0.0
  0
LWPOLYLINE
  5
8F
330
1F
100
AcDbEntity
  8
0
  6
SLD-Durchgehend
 62
     7
370
    15
100
AcDbPolyline
 90
        3
 70
   128
 43
0.0
 10
240.5941489155
 20
136.169873533
 10
240.2440312321
 20
135.9677336935
 10
239.7241520698
 20
135.6675796036
  0
ARC
  5
90
330
1F
100
AcDbEntity
  8
0
  6
SLD-Durchgehend
 62
     7
370
    15
100
AcDbCircle
 10
239.7841484538
 20
135.5636561114
 30
0.0
 40
0.1199985763063099
100
AcDbArc
 50
119.9983988744
 51
240.0016011256
  0
LINE
  5
91
330
1F
100
AcDbEntity
  8
0
  6
SLD-Durchgehend
 62
     7
370
    15
100
AcDbLine
 10
239.7241520698
 20
135.4597326193
 30
0.0
 11
240.5941489155
 21
134.9574386898
 31
0.0
  0
LINE
  5
92
330
1F
100
AcDbEntity
  8
0
  6
SLD-Durchgehend
 62
     7
370
    15
100
AcDbLine
 10
240.5941489155
 20
134.9574386898
 30
0.0
 11
240.5941489155
 21
134.6698742185
 31
0.0
  0
LINE
  5
93
330
1F
100
AcDbEntity
  8
0
  6
SLD-Durchgehend
 62
     7
370
    15
100
AcDbLine
 10
240.5941489155
 20
134.6698742185
 30
0.0
 11
239.7241520698
 21
134.1675784264
 31
0.0
  0
LWPOLYLINE
  5
94
330
1F
100
AcDbEntity
  8
0
  6
SLD-Durchgehend
 62
     7
370
    15
100
AcDbPolyline
 90
       10
 70
   128
 43
0.0
 10
239.7241520698
 20
134.1675784264
 10
239.6691444332
 20
134.0979229484
 10
239.6645697767
 20
134.0536534611
 10
239.6676468665
 20
134.0349059377
 10
239.6752762611
 20
134.013204259
 10
239.683449548
 20
133.9983887795
 10
239.6946999247
 20
133.9836682949
 10
239.7060546095
 20
133.9725464407
 10
239.7224160845
 20
133.9607540343
 10
239.7241520698
 20
133.9597333047
  0
LINE
  5
95
330
1F
100
AcDbEntity
  8
0
  6
SLD-Durchgehend
 62
     7
370
    15
100
AcDbLine
 10
239.7241520698
 20
133.9597333047
 30
0.0
 11
240.5941489155
 21
133.4574375126
 31
0.0
  0
LINE
  5
96
330
1F
100
AcDbEntity
  8
0
  6
SLD-Durchgehend
 62
     7
370
    15
100
AcDbLine
 10
240.5941489155
 20
133.4574375126
 30
0.0
 11
240.5941489155
 21
133.1698739726
 31
0.0
  0
LINE
  5
97
330
1F
100
AcDbEntity
  8
0
  6
SLD-Durchgehend
 62
     7
370
    15
100
AcDbLine
 10
240.5941489155
 20
133.1698739726
 30
0.0
 11
239.7241520698
 21
132.6675791118
 31
0.0
  0
LWPOLYLINE
  5
98
330
1F
100
AcDbEntity
  8
0
  6
SLD-Durchgehend
 62
     7
370
    15
100
AcDbPolyline
 90
        9
 70
   128
 43
0.0
 10
239.7241520698
 20
132.6675791118
 10
239.6718787963
 20
132.6060177583
 10
239.6648901517
 20
132.5503749598
 10
239.6706867034
 20
132.5245968822
 10
239.6790313537
 20
132.5057795096
 10
239.6916973407
 20
132.4871549208
 10
239.704713505
 20
132.4737122107
 10
239.7237199361
 20
132.4599835846
 10
239.7241520698
 20
132.4597330589
  0
LINE
  5
99
330
1F
100
AcDbEntity
  8
0
  6
SLD-Durchgehend
 62
     7
370
    15
100
AcDbLine
 10
239.7241520698
 20
132.4597330589
 30
0.0
 11
240.5941489155
 21
131.9574381981
 31
0.0
  0
LINE
  5
9A
330
1F
100
AcDbEntity
  8
0
  6
SLD-Durchgehend
 62
     7
370
    15
100
AcDbLine
 10
240.5941489155
 20
131.9574381981
 30
0.0
 11
240.5941489155
 21
131.6698737267
 31
0.0
  0
LINE
  5
9B
330
1F
100
AcDbEntity
  8
0
  6
SLD-Durchgehend
 62
     7
370
    15
100
AcDbLine
 10
240.5941489155
 20
131.6698737267
 30
0.0
 11
239.7241520698
 21
131.1675788659
 31
0.0
  0
ARC
  5
9C
330
1F
100
AcDbEntity
  8
0
  6
SLD-Durchgehend
 62
     7
370
    15
100
AcDbCircle
 10
239.7841475529
 20
131.0636558395
 30
0.0
 40
0.1199977226000249
100
AcDbArc
 50
119.9981375087
 51
240.0018624913
  0
LINE
  5
9D
330
1F
100
AcDbEntity
  8
0
  6
SLD-Durchgehend
 62
     7
370
    15
100
AcDbLine
 10
239.7241520698
 20
130.959732813
 30
0.0
 11
240.5941489155
 21
130.4574379522
 31
0.0
  0
LINE
  5
9E
330
1F
100
AcDbEntity
  8
0
  6
SLD-Durchgehend
 62
     7
370
    15
100
AcDbLine
 10
240.5941489155
 20
130.4574379522
 30
0.0
 11
240.5941489155
 21
130.1698734809
 31
0.0
  0
LINE
  5
9F
330
1F
100
AcDbEntity
  8
0
  6
SLD-Durchgehend
 62
     7
370
    15
100
AcDbLine
 10
240.5941489155
 20
130.1698734809
 30
0.0
 11
239.7241520698
 21
129.6675786201
 31
0.0
  0
ARC
  5
A0
330
1F
100
AcDbEntity
  8
0
  6
SLD-Durchgehend
 62
     7
370
    15
100
AcDbCircle
 10
239.7841524958
 20
129.5636555936
 30
0.0
 40
0.1200001939893898
100
AcDbArc
 50
120.0001814182
 51
239.9998185818
  0
LINE
  5
A1
330
1F
100
AcDbEntity
  8
0
  6
SLD-Durchgehend
 62
     7
370
    15
100
AcDbLine
 10
239.7241520698
 20
129.4597325671
 30
0.0
 11
240.5941489155
 21
128.9574386377
 31
0.0
  0
LINE
  5
A2
330
1F
100
AcDbEntity
  8
0
  6
SLD-Durchgehend
 62
     7
370
    15
100
AcDbLine
 10
240.5941489155
 20
128.9574386377
 30
0.0
 11
240.5941489155
 21
128.6698741663
 31
0.0
  0
LINE
  5
A3
330
1F
100
AcDbEntity
  8
0
  6
SLD-Durchgehend
 62
     7
370
    15
100
AcDbLine
 10
240.5941489155
 20
128.6698741663
 30
0.0
 11
239.7241520698
 21
128.1675793055
 31
0.0
  0
ARC
  5
A4
330
1F
100
AcDbEntity
  8
0
  6
SLD-Durchgehend
 62
     7
370
    15
100
AcDbCircle
 10
239.7841446134
 20
128.0636562791
 30
0.0
 40
0.11999625294733
100
AcDbArc
 50
119.9969219641
 51
240.0030780359
  0
LINE
  5
A5
330
1F
100
AcDbEntity
  8
0
  6
SLD-Durchgehend
 62
     7
370
    15
100
AcDbLine
 10
239.7241520698
 20
127.9597332526
 30
0.0
 11
240.5941489155
 21
127.4574383918
 31
0.0
  0
LINE
  5
A6
330
1F
100
AcDbEntity
  8
0
  6
SLD-Durchgehend
 62
     7
370
    15
100
AcDbLine
 10
240.5941489155
 20
127.4574383918
 30
0.0
 11
240.5941489155
 21
127.1698739204
 31
0.0
  0
LINE
  5
A7
330
1F
100
AcDbEntity
  8
0
  6
SLD-Durchgehend
 62
     7
370
    15
100
AcDbLine
 10
240.5941489155
 20
127.1698739204
 30
0.0
 11
239.7241520698
 21
126.6675790597
 31
0.0
  0
ARC
  5
A8
330
1F
100
AcDbEntity
  8
0
  6
SLD-Durchgehend
 62
     7
370
    15
100
AcDbCircle
 10
239.7841541991
 20
126.5636560332
 30
0.0
 40
0.1200010456168703
100
AcDbArc
 50
120.0008856897
 51
239.9991143103
  0
LINE
  5
A9
330
1F
100
AcDbEntity
  8
0
  6
SLD-Durchgehend
 62
     7
370
    15
100
AcDbLine
 10
239.7241520698
 20
126.4597330067
 30
0.0
 11
240.5941489155
 21
125.9574381459
 31
0.0
  0
LINE
  5
AA
330
1F
100
AcDbEntity
  8
0
  6
SLD-Durchgehend
 62
     7
370
    15
100
AcDbLine
 10
240.5941489155
 20
125.9574381459
 30
0.0
 11
240.5941489155
 21
125.6698736746
 31
0.0
  0
LINE
  5
AB
330
1F
100
AcDbEntity
  8
0
  6
SLD-Durchgehend
 62
     7
370
    15
100
AcDbLine
 10
240.5941489155
 20
125.6698736746
 30
0.0
 11
239.7241520698
 21
125.1675788138
 31
0.0
  0
ARC
  5
AC
330
1F
100
AcDbEntity
  8
0
  6
SLD-Durchgehend
 62
     7
370
    15
100
AcDbCircle
 10
239.7841553101
 20
125.0636557873
 30
0.0
 40
0.1200016011567274
100
AcDbArc
 50
120.0013450917
 51
239.9986549083
  0
LINE
  5
AD
330
1F
100
AcDbEntity
  8
0
  6
SLD-Durchgehend
 62
     7
370
    15
100
AcDbLine
 10
239.7241520698
 20
124.9597327608
 30
0.0
 11
240.5941489155
 21
124.4574383657
 31
0.0
  0
LINE
  5
AE
330
1F
100
AcDbEntity
  8
0
  6
SLD-Durchgehend
 62
     7
370
    15
100
AcDbLine
 10
240.5941489155
 20
124.4574383657
 30
0.0
 11
240.5941489155
 21
124.1698738944
 31
0.0
  0
LINE
  5
AF
330
1F
100
AcDbEntity
  8
0
  6
SLD-Durchgehend
 62
     7
370
    15
100
AcDbLine
 10
240.5941489155
 20
124.1698738944
 30
0.0
 11
239.7241520698
 21
123.6675790336
 31
0.0
  0
ARC
  5
B0
330
1F
100
AcDbEntity
  8
0
  6
SLD-Durchgehend
 62
     7
370
    15
100
AcDbCircle
 10
239.7841531085
 20
123.5636560071
 30
0.0
 40
0.1200005003120903
100
AcDbArc
 50
120.0004347412
 51
239.9995652588
  0
LINE
  5
B1
330
1F
100
AcDbEntity
  8
0
  6
SLD-Durchgehend
 62
     7
370
    15
100
AcDbLine
 10
239.7241520698
 20
123.4597329806
 30
0.0
 11
240.5941489155
 21
122.9574381199
 31
0.0
  0
LINE
  5
B2
330
1F
100
AcDbEntity
  8
0
  6
SLD-Durchgehend
 62
     7
370
    15
100
AcDbLine
 10
240.5941489155
 20
122.9574381199
 30
0.0
 11
240.5941489155
 21
122.6698736485
 31
0.0
  0
LINE
  5
B3
330
1F
100
AcDbEntity
  8
0
  6
SLD-Durchgehend
 62
     7
370
    15
100
AcDbLine
 10
240.5941489155
 20
122.6698736485
 30
0.0
 11
239.7241520698
 21
122.1675787877
 31
0.0
  0
ARC
  5
B4
330
1F
100
AcDbEntity
  8
0
  6
SLD-Durchgehend
 62
     7
370
    15
100
AcDbCircle
 10
239.7841527962
 20
122.0636557612
 30
0.0
 40
0.1200003441607039
100
AcDbArc
 50
120.0003056074
 51
239.9996943926
  0
LINE
  5
B5
330
1F
100
AcDbEntity
  8
0
  6
SLD-Durchgehend
 62
     7
370
    15
100
AcDbLine
 10
239.7241520698
 20
121.9597327348
 30
0.0
 11
240.5941489155
 21
121.4574381068
 31
0.0
  0
LINE
  5
B6
330
1F
100
AcDbEntity
  8
0
  6
SLD-Durchgehend
 62
     7
370
    15
100
AcDbLine
 10
240.5941489155
 20
121.4574381068
 30
0.0
 11
240.5941489155
 21
121.1698736355
 31
0.0
  0
LINE
  5
B7
330
1F
100
AcDbEntity
  8
0
  6
SLD-Durchgehend
 62
     7
370
    15
100
AcDbLine
 10
240.5941489155
 20
121.1698736355
 30
0.0
 11
239.7241520698
 21
120.6675790075
 31
0.0
  0
ARC
  5
B8
330
1F
100
AcDbEntity
  8
0
  6
SLD-Durchgehend
 62
     7
370
    15
100
AcDbCircle
 10
239.7841560303
 20
120.563655981
 30
0.0
 40
0.1200019612808991
100
AcDbArc
 50
120.0016428897
 51
239.9983571103
  0
LINE
  5
B9
330
1F
100
AcDbEntity
  8
0
  6
SLD-Durchgehend
 62
     7
370
    15
100
AcDbLine
 10
239.7241520698
 20
120.4597329546
 30
0.0
 11
240.5941489155
 21
119.9574380938
 31
0.0
  0
LINE
  5
BA
330
1F
100
AcDbEntity
  8
0
  6
SLD-Durchgehend
 62
     7
370
    15
100
AcDbLine
 10
240.5941489155
 20
119.9574380938
 30
0.0
 11
240.5941489155
 21
119.6698736224
 31
0.0
  0
LINE
  5
BB
330
1F
100
AcDbEntity
  8
0
  6
SLD-Durchgehend
 62
     7
370
    15
100
AcDbLine
 10
240.5941489155
 20
119.6698736224
 30
0.0
 11
239.7241520698
 21
119.1675789945
 31
0.0
  0
ARC
  5
BC
330
1F
100
AcDbEntity
  8
0
  6
SLD-Durchgehend
 62
     7
370
    15
100
AcDbCircle
 10
239.7841490055
 20
119.063655968
 30
0.0
 40
0.1199984488532506
100
AcDbArc
 50
119.9987381627
 51
240.0012618373
  0
LINE
  5
BD
330
1F
100
AcDbEntity
  8
0
  6
SLD-Durchgehend
 62
     7
370
    15
100
AcDbLine
 10
239.7241520698
 20
118.9597329415
 30
0.0
 11
240.5941489155
 21
118.4574381972
 31
0.0
  0
LINE
  5
BE
330
1F
100
AcDbEntity
  8
0
  6
SLD-Durchgehend
 62
     7
370
    15
100
AcDbLine
 10
240.5941489155
 20
118.4574381972
 30
0.0
 11
240.5941489155
 21
118.1698737258
 31
0.0
  0
LINE
  5
BF
330
1F
100
AcDbEntity
  8
0
  6
SLD-Durchgehend
 62
     7
370
    15
100
AcDbLine
 10
240.5941489155
 20
118.1698737258
 30
0.0
 11
239.7241520698
 21
117.6675790033
 31
0.0
  0
ARC
  5
C0
330
1F
100
AcDbEntity
  8
0
  6
SLD-Durchgehend
 62
     7
370
    15
100
AcDbCircle
 10
239.7841488884
 20
117.563655955
 30
0.0
 40
0.1199984092140294
100
AcDbArc
 50
119.998684534
 51
240.001315466
  0
LINE
  5
C1
330
1F
100
AcDbEntity
  8
0
  6
SLD-Durchgehend
 62
     7
370
    15
100
AcDbLine
 10
239.7241520698
 20
117.4597329067
 30
0.0
 11
240.5941489155
 21
116.9574381841
 31
0.0
  0
LINE
  5
C2
330
1F
100
AcDbEntity
  8
0
  6
SLD-Durchgehend
 62
     7
370
    15
100
AcDbLine
 10
240.5941489155
 20
116.9574381841
 30
0.0
 11
240.5941489155
 21
116.6698737128
 31
0.0
  0
LINE
  5
C3
330
1F
100
AcDbEntity
  8
0
  6
SLD-Durchgehend
 62
     7
370
    15
100
AcDbLine
 10
240.5941489155
 20
116.6698737128
 30
0.0
 11
239.7241520698
 21
116.1675789684
 31
0.0
  0
ARC
  5
C4
330
1F
100
AcDbEntity
  8
0
  6
SLD-Durchgehend
 62
     7
370
    15
100
AcDbCircle
 10
239.7841470005
 20
116.0636559419
 30
0.0
 40
0.119997446425498
100
AcDbArc
 50
119.9979090914
 51
240.0020909086
  0
LINE
  5
C5
330
1F
100
AcDbEntity
  8
0
  6
SLD-Durchgehend
 62
     7
370
    15
100
AcDbLine
 10
239.7241520698
 20
115.9597329154
 30
0.0
 11
240.5941489155
 21
115.4574382875
 31
0.0
  0
LINE
  5
C6
330
1F
100
AcDbEntity
  8
0
  6
SLD-Durchgehend
 62
     7
370
    15
100
AcDbLine
 10
240.5941489155
 20
115.4574382875
 30
0.0
 11
240.5941489155
 21
115.1698738161
 31
0.0
  0
LINE
  5
C7
330
1F
100
AcDbEntity
  8
0
  6
SLD-Durchgehend
 62
     7
370
    15
100
AcDbLine
 10
240.5941489155
 20
115.1698738161
 30
0.0
 11
239.7241520698
 21
114.6675789554
 31
0.0
  0
ARC
  5
C8
330
1F
100
AcDbEntity
  8
0
  6
SLD-Durchgehend
 62
     7
370
    15
100
AcDbCircle
 10
239.7841490122
 20
114.5636559289
 30
0.0
 40
0.1199984521852422
100
AcDbArc
 50
119.9987409184
 51
240.0012590816
  0
LINE
  5
C9
330
1F
100
AcDbEntity
  8
0
  6
SLD-Durchgehend
 62
     7
370
    15
100
AcDbLine
 10
239.7241520698
 20
114.4597329024
 30
0.0
 11
240.5941489155
 21
113.9574382745
 31
0.0
  0
LINE
  5
CA
330
1F
100
AcDbEntity
  8
0
  6
SLD-Durchgehend
 62
     7
370
    15
100
AcDbLine
 10
240.5941489155
 20
113.9574382745
 30
0.0
 11
240.5941489155
 21
113.6698738031
 31
0.0
  0
LINE
  5
CB
330
1F
100
AcDbEntity
  8
0
  6
SLD-Durchgehend
 62
     7
370
    15
100
AcDbLine
 10
240.5941489155
 20
113.6698738031
 30
0.0
 11
239.7241520698
 21
113.1675791751
 31
0.0
  0
ARC
  5
CC
330
1F
100
AcDbEntity
  8
0
  6
SLD-Durchgehend
 62
     7
370
    15
100
AcDbCircle
 10
239.7841531476
 20
113.0636561487
 30
0.0
 40
0.1200005198951092
100
AcDbArc
 50
120.0004509358
 51
239.9995490642
  0
LINE
  5
CD
330
1F
100
AcDbEntity
  8
0
  6
SLD-Durchgehend
 62
     7
370
    15
100
AcDbLine
 10
239.7241520698
 20
112.9597331222
 30
0.0
 11
240.5941489155
 21
112.4574382614
 31
0.0
  0
LINE
  5
CE
330
1F
100
AcDbEntity
  8
0
  6
SLD-Durchgehend
 62
     7
370
    15
100
AcDbLine
 10
240.5941489155
 20
112.4574382614
 30
0.0
 11
240.5941489155
 21
112.1698737901
 31
0.0
  0
LINE
  5
CF
330
1F
100
AcDbEntity
  8
0
  6
SLD-Durchgehend
 62
     7
370
    15
100
AcDbLine
 10
240.5941489155
 20
112.1698737901
 30
0.0
 11
239.7241520698
 21
111.6675789293
 31
0.0
  0
ARC
  5
D0
330
1F
100
AcDbEntity
  8
0
  6
SLD-Durchgehend
 62
     7
370
    15
100
AcDbCircle
 10
239.7841461728
 20
111.5636559028
 30
0.0
 40
0.1199970325673467
100
AcDbArc
 50
119.9975667944
 51
240.0024332056
  0
LINE
  5
D1
330
1F
100
AcDbEntity
  8
0
  6
SLD-Durchgehend
 62
     7
370
    15
100
AcDbLine
 10
239.7241520698
 20
111.4597328763
 30
0.0
 11
240.5941489155
 21
110.9574380155
 31
0.0
  0
LINE
  5
D2
330
1F
100
AcDbEntity
  8
0
  6
SLD-Durchgehend
 62
     7
370
    15
100
AcDbLine
 10
240.5941489155
 20
110.9574380155
 30
0.0
 11
240.5941489155
 21
110.6698735442
 31
0.0
  0
LINE
  5
D3
330
1F
100
AcDbEntity
  8
0
  6
SLD-Durchgehend
 62
     7
370
    15
100
AcDbLine
 10
240.5941489155
 20
110.6698735442
 30
0.0
 11
239.7241520698
 21
110.1675791491
 31
0.0
  0
ARC
  5
D4
330
1F
100
AcDbEntity
  8
0
  6
SLD-Durchgehend
 62
     7
370
    15
100
AcDbCircle
 10
239.7841529351
 20
110.0636561226
 30
0.0
 40
0.1200004136494021
100
AcDbArc
 50
120.0003630731
 51
239.9996369269
  0
LINE
  5
D5
330
1F
100
AcDbEntity
  8
0
  6
SLD-Durchgehend
 62
     7
370
    15
100
AcDbLine
 10
239.7241520698
 20
109.9597330961
 30
0.0
 11
240.5941489155
 21
109.4574382353
 31
0.0
  0
LINE
  5
D6
330
1F
100
AcDbEntity
  8
0
  6
SLD-Durchgehend
 62
     7
370
    15
100
AcDbLine
 10
240.5941489155
 20
109.4574382353
 30
0.0
 11
240.5941489155
 21
109.169873764
 31
0.0
  0
LINE
  5
D7
330
1F
100
AcDbEntity
  8
0
  6
SLD-Durchgehend
 62
     7
370
    15
100
AcDbLine
 10
240.5941489155
 20
109.169873764
 30
0.0
 11
239.7241520698
 21
108.6675789032
 31
0.0
  0
ARC
  5
D8
330
1F
100
AcDbEntity
  8
0
  6
SLD-Durchgehend
 62
     7
370
    15
100
AcDbCircle
 10
239.7841502685
 20
108.5636558767
 30
0.0
 40
0.1199990803318454
100
AcDbArc
 50
119.9992604177
 51
240.0007395823
  0
LINE
  5
D9
330
1F
100
AcDbEntity
  8
0
  6
SLD-Durchgehend
 62
     7
370
    15
100
AcDbLine
 10
239.7241520698
 20
108.4597328503
 30
0.0
 11
240.5941489155
 21
107.9574379895
 31
0.0
  0
LINE
  5
DA
330
1F
100
AcDbEntity
  8
0
  6
SLD-Durchgehend
 62
     7
370
    15
100
AcDbLine
 10
240.5941489155
 20
107.9574379895
 30
0.0
 11
240.5941489155
 21
107.6698735181
 31
0.0
  0
LINE
  5
DB
330
1F
100
AcDbEntity
  8
0
  6
SLD-Durchgehend
 62
     7
370
    15
100
AcDbLine
 10
240.5941489155
 20
107.6698735181
 30
0.0
 11
239.7241520698
 21
107.1675786573
 31
0.0
  0
ARC
  5
DC
330
1F
100
AcDbEntity
  8
0
  6
SLD-Durchgehend
 62
     7
370
    15
100
AcDbCircle
 10
239.7841529491
 20
107.0636556309
 30
0.0
 40
0.1200004206129826
100
AcDbArc
 50
120.0003688319
 51
239.9996311681
  0
LINE
  5
DD
330
1F
100
AcDbEntity
  8
0
  6
SLD-Durchgehend
 62
     7
370
    15
100
AcDbLine
 10
239.7241520698
 20
106.9597326044
 30
0.0
 11
240.5941489155
 21
106.4574377436
 31
0.0
  0
LINE
  5
DE
330
1F
100
AcDbEntity
  8
0
  6
SLD-Durchgehend
 62
     7
370
    15
100
AcDbLine
 10
240.5941489155
 20
106.4574377436
 30
0.0
 11
240.5941489155
 21
106.1698732722
 31
0.0
  0
LINE
  5
DF
330
1F
100
AcDbEntity
  8
0
  6
SLD-Durchgehend
 62
     7
370
    15
100
AcDbLine
 10
240.5941489155
 20
106.1698732722
 30
0.0
 11
239.7241520698
 21
105.6675793428
 31
0.0
  0
ARC
  5
E0
330
1F
100
AcDbEntity
  8
0
  6
SLD-Durchgehend
 62
     7
370
    15
100
AcDbCircle
 10
239.7841503695
 20
105.5636563163
 30
0.0
 40
0.1199991308225973
100
AcDbArc
 50
119.9993021747
 51
240.0006978253
  0
LINE
  5
E1
330
1F
100
AcDbEntity
  8
0
  6
SLD-Durchgehend
 62
     7
370
    15
100
AcDbLine
 10
239.7241520698
 20
105.4597332898
 30
0.0
 11
240.5941489155
 21
104.9574384291
 31
0.0
  0
LINE
  5
E2
330
1F
100
AcDbEntity
  8
0
  6
SLD-Durchgehend
 62
     7
370
    15
100
AcDbLine
 10
240.5941489155
 20
104.9574384291
 30
0.0
 11
240.5941489155
 21
104.6698739577
 31
0.0
  0
LINE
  5
E3
330
1F
100
AcDbEntity
  8
0
  6
SLD-Durchgehend
 62
     7
370
    15
100
AcDbLine
 10
240.5941489155
 20
104.6698739577
 30
0.0
 11
239.7241520698
 21
104.1675790969
 31
0.0
  0
ARC
  5
E4
330
1F
100
AcDbEntity
  8
0
  6
SLD-Durchgehend
 62
     7
370
    15
100
AcDbCircle
 10
239.7841527427
 20
104.0636560704
 30
0.0
 40
0.1200003174273755
100
AcDbArc
 50
120.0002834994
 51
239.9997165006
  0
LINE
  5
E5
330
1F
100
AcDbEntity
  8
0
  6
SLD-Durchgehend
 62
     7
370
    15
100
AcDbLine
 10
239.7241520698
 20
103.959733044
 30
0.0
 11
240.5941489155
 21
103.4574381832
 31
0.0
  0
LINE
  5
E6
330
1F
100
AcDbEntity
  8
0
  6
SLD-Durchgehend
 62
     7
370
    15
100
AcDbLine
 10
240.5941489155
 20
103.4574381832
 30
0.0
 11
240.5941489155
 21
103.1698737118
 31
0.0
  0
LINE
  5
E7
330
1F
100
AcDbEntity
  8
0
  6
SLD-Durchgehend
 62
     7
370
    15
100
AcDbLine
 10
240.5941489155
 20
103.1698737118
 30
0.0
 11
239.7241520698
 21
102.667578851
 31
0.0
  0
ARC
  5
E8
330
1F
100
AcDbEntity
  8
0
  6
SLD-Durchgehend
 62
     7
370
    15
100
AcDbCircle
 10
239.7841517444
 20
102.5636558246
 30
0.0
 40
0.1199998182983334
100
AcDbArc
 50
119.9998707246
 51
240.0001292754
  0
LINE
  5
E9
330
1F
100
AcDbEntity
  8
0
  6
SLD-Durchgehend
 62
     7
370
    15
100
AcDbLine
 10
239.7241520698
 20
102.4597327981
 30
0.0
 11
240.5941489155
 21
101.9574379373
 31
0.0
  0
LINE
  5
EA
330
1F
100
AcDbEntity
  8
0
  6
SLD-Durchgehend
 62
     7
370
    15
100
AcDbLine
 10
240.5941489155
 20
101.9574379373
 30
0.0
 11
240.5941489155
 21
101.6698743973
 31
0.0
  0
LINE
  5
EB
330
1F
100
AcDbEntity
  8
0
  6
SLD-Durchgehend
 62
     7
370
    15
100
AcDbLine
 10
240.5941489155
 20
101.6698743973
 30
0.0
 11
239.7241520698
 21
101.1675786052
 31
0.0
  0
LWPOLYLINE
  5
EC
330
1F
100
AcDbEntity
  8
0
  6
SLD-Durchgehend
 62
     7
370
    15
100
AcDbPolyline
 90
       10
 70
   128
 43
0.0
 10
239.7241520698
 20
101.1675786052
 10
239.7156360562
 20
101.1621750716
 10
239.7001612003
 20
101.149360073
 10
239.6893727596
 20
101.1372603301
 10
239.6805065686
 20
101.1241286818
 10
239.6719309504
 20
101.1061690572
 10
239.6651807244
 20
101.0793283406
 10
239.6677288229
 20
101.0345745656
 10
239.7117990071
 20
100.9679216716
 10
239.7241520698
 20
100.9597334836
  0
LINE
  5
ED
330
1F
100
AcDbEntity
  8
0
  6
SLD-Durchgehend
 62
     7
370
    15
100
AcDbLine
 10
239.7241520698
 20
100.9597334836
 30
0.0
 11
240.5941489155
 21
100.4574376914
 31
0.0
  0
LINE
  5
EE
330
1F
100
AcDbEntity
  8
0
  6
SLD-Durchgehend
 62
     7
370
    15
100
AcDbLine
 10
240.5941489155
 20
100.4574376914
 30
0.0
 11
240.5941489155
 21
100.1698732201
 31
0.0
  0
LINE
  5
EF
330
1F
100
AcDbEntity
  8
0
  6
SLD-Durchgehend
 62
     7
370
    15
100
AcDbLine
 10
240.5941489155
 20
100.1698732201
 30
0.0
 11
239.7241520698
 21
99.6675792906
 31
0.0
  0
LWPOLYLINE
  5
F0
330
1F
100
AcDbEntity
  8
0
  6
SLD-Durchgehend
 62
     7
370
    15
100
AcDbPolyline
 90
        9
 70
   128
 43
0.0
 10
239.7241520698
 20
99.6675792906
 10
239.7108304317
 20
99.6586516324
 10
239.7012936885
 20
99.6504559938
 10
239.6919953639
 20
99.6405150566
 10
239.6848577077
 20
99.6310416434
 10
239.6768036301
 20
99.617286009
 10
239.6684589798
 20
99.5955303136
 10
239.6654563958
 20
99.54598209
 10
239.7241520698
 20
99.4597323064
  0
LWPOLYLINE
  5
F1
330
1F
100
AcDbEntity
  8
0
  6
SLD-Durchgehend
 62
     7
370
    15
100
AcDbPolyline
 90
        3
 70
   128
 43
0.0
 10
239.7241520698
 20
99.4597323064
 10
240.2410062964
 20
99.1613272402
 10
240.5941489155
 20
98.9574383769
  0
LINE
  5
F2
330
1F
100
AcDbEntity
  8
0
  6
SLD-Durchgehend
 62
     7
370
    15
100
AcDbLine
 10
240.5941489155
 20
98.9574383769
 30
0.0
 11
240.5941489155
 21
98.6698739055
 31
0.0
  0
LWPOLYLINE
  5
F3
330
1F
100
AcDbEntity
  8
0
  6
SLD-Durchgehend
 62
     7
370
    15
100
AcDbPolyline
 90
        4
 70
   128
 43
0.0
 10
240.5941489155
 20
98.6698739055
 10
240.3857710774
 20
98.5495656554
 10
239.9495246823
 20
98.2976987783
 10
239.7241520698
 20
98.1675781134
  0
LWPOLYLINE
  5
F4
330
1F
100
AcDbEntity
  8
0
  6
SLD-Durchgehend
 62
     7
370
    15
100
AcDbPolyline
 90
       12
 70
   128
 43
0.0
 10
239.7241520698
 20
98.1675781134
 10
239.7184523756
 20
98.1640763406
 10
239.7123056466
 20
98.1597736303
 10
239.7047284062
 20
98.1536138628
 10
239.7004964764
 20
98.1496911321
 10
239.696204942
 20
98.1453027401
 10
239.6926882679
 20
98.1413371686
 10
239.6878230388
 20
98.1352183793
 10
239.6798658187
 20
98.1230292294
 10
239.6678554828
 20
98.093252984
 10
239.6698447878
 20
98.0271328065
 10
239.7241520698
 20
97.9597329918
  0
LWPOLYLINE
  5
F5
330
1F
100
AcDbEntity
  8
0
  6
SLD-Durchgehend
 62
     7
370
    15
100
AcDbPolyline
 90
        3
 70
   128
 43
0.0
 10
239.7241520698
 20
97.9597329918
 10
239.8294362242
 20
97.8989455674
 10
239.8289668376
 20
97.8992193762
  0
LINE
  5
F6
330
1F
100
AcDbEntity
  8
0
  6
SLD-Durchgehend
 62
     7
370
    15
100
AcDbLine
 10
159.9941513882
 20
106.3109509472
 30
0.0
 11
159.9941513882
 21
103.4738359798
 31
0.0
  0
LWPOLYLINE
  5
F7
330
1F
100
AcDbEntity
  8
0
  6
SLD-Durchgehend
 62
     7
370
    15
100
AcDbPolyline
 90
        9
 70
   128
 43
0.0
 10
159.9813243842
 20
106.4123682503
 10
159.9538120531
 20
106.62989447
 10
159.9327833278
 20
106.6823698405
 10
159.898144298
 20
106.7348405544
 10
159.8773274922
 20
106.7531401116
 10
159.8601039036
 20
106.7625846539
 10
159.840875905
 20
106.767851283
 10
159.8242700743
 20
106.7683225322
 10
159.7991744815
 20
106.7623294715
  0
LWPOLYLINE
  5
F8
330
1F
100
AcDbEntity
  8
0
  6
SLD-Durchgehend
 62
     7
370
    15
100
AcDbPolyline
 90
        8
 70
   128
 43
0.0
 10
159.7991744815
 20
106.7623294715
 10
159.723250184
 20
106.7386897106
 10
159.6329537456
 20
106.7267427046
 10
159.5465480236
 20
106.7313285369
 10
159.4616558172
 20
106.7510427732
 10
159.346455755
 20
106.802537461
 10
159.1175906828
 20
106.9987838913
 10
158.9380670807
 20
107.2649186302
  0
LINE
  5
F9
330
1F
100
AcDbEntity
  8
0
  6
SLD-Durchgehend
 62
     7
370
    15
100
AcDbLine
 10
158.9380670807
 20
107.2649186302
 30
0.0
 11
158.8728310776
 21
107.404249144
 31
0.0
  0
LINE
  5
FA
330
1F
100
AcDbEntity
  8
0
  6
SLD-Durchgehend
 62
     7
370
    15
100
AcDbLine
 10
158.8728310776
 20
113.9367561612
 30
0.0
 11
158.9380670807
 21
114.2048101231
 31
0.0
  0
LWPOLYLINE
  5
FB
330
1F
100
AcDbEntity
  8
0
  6
SLD-Durchgehend
 62
     7
370
    15
100
AcDbPolyline
 90
        9
 70
   128
 43
0.0
 10
158.9380670807
 20
114.2048101231
 10
159.0906810483
 20
114.6915816992
 10
159.3321957511
 20
115.1335818052
 10
159.4526858421
 20
115.2526136778
 10
159.5309076833
 20
115.29343797
 10
159.6191769235
 20
115.3055467933
 10
159.6932325515
 20
115.2878789056
 10
159.7853365124
 20
115.2299336448
 10
159.7991744815
 20
115.2177163225
  0
LWPOLYLINE
  5
FC
330
1F
100
AcDbEntity
  8
0
  6
SLD-Durchgehend
 62
     7
370
    15
100
AcDbPolyline
 90
        9
 70
   128
 43
0.0
 10
159.7991744815
 20
115.2177163225
 10
159.8197934977
 20
115.2026128314
 10
159.8390554313
 20
115.1955049775
 10
159.8592977566
 20
115.1958083559
 10
159.8748954597
 20
115.2020407665
 10
159.8959014404
 20
115.2200117998
 10
159.9243038103
 20
115.2667129703
 10
159.9713003702
 20
115.4522310302
 10
159.9941513882
 20
115.8466610417
  0
LINE
  5
FD
330
1F
100
AcDbEntity
  8
0
  6
SLD-Durchgehend
 62
     7
370
    15
100
AcDbLine
 10
159.9941513882
 20
130.5333556432
 30
0.0
 11
159.9941513882
 21
115.8466610417
 31
0.0
  0
LINE
  5
FE
330
1F
100
AcDbEntity
  8
0
  6
SLD-Durchgehend
 62
     7
370
    15
100
AcDbLine
 10
159.9941513882
 20
130.5333556432
 30
0.0
 11
159.9818193822
 21
130.5852135468
 31
0.0
  0
ARC
  5
FF
330
1F
100
AcDbEntity
  8
0
  6
SLD-Durchgehend
 62
     7
370
    15
100
AcDbCircle
 10
159.8711877715
 20
130.6035354124
 30
0.0
 40
0.1292969773591423
100
AcDbArc
 50
50.2806837556
 51
123.8458453461
  0
LWPOLYLINE
  5
100
330
1F
100
AcDbEntity
  8
0
  6
SLD-Durchgehend
 62
     7
370
    15
100
AcDbPolyline
 90
        8
 70
   128
 43
0.0
 10
159.7991744815
 20
130.7109216053
 10
159.723250184
 20
130.678861757
 10
159.6329537456
 20
130.6600360025
 10
159.5465480236
 20
130.661434849
 10
159.4616558172
 20
130.6811882008
 10
159.346455755
 20
130.7371439237
 10
159.1175906828
 20
130.9501997951
 10
158.9380670807
 20
131.2212388787
  0
LINE
  5
101
330
1F
100
AcDbEntity
  8
0
  6
SLD-Durchgehend
 62
     7
370
    15
100
AcDbLine
 10
158.8728310776
 20
131.3499625597
 30
0.0
 11
158.9380670807
 21
131.2212388787
 31
0.0
  0
LWPOLYLINE
  5
102
330
1F
100
AcDbEntity
  8
0
  6
SLD-Durchgehend
 62
     7
370
    15
100
AcDbPolyline
 90
       15
 70
   128
 43
0.0
 10
158.6991113613
 20
107.9302349884
 10
158.6240871579
 20
108.1712901417
 10
158.5986868481
 20
108.2260006863
 10
158.5878872315
 20
108.2427328277
 10
158.578975173
 20
108.2528833125
 10
158.567418624
 20
108.2602193404
 10
158.5618757412
 20
108.2610305223
 10
158.55537802
 20
108.2594007078
 10
158.5506147707
 20
108.2562276918
 10
158.5461583922
 20
108.2515664223
 10
158.5404802349
 20
108.2429665897
 10
158.53247121
 20
108.2249073136
 10
158.5163631712
 20
108.1593766633
 10
158.4958677881
 20
107.9195871774
 10
158.4941513606
 20
107.8258151013
  0
ARC
  5
103
330
1F
100
AcDbEntity
  8
0
  6
SLD-Durchgehend
 62
     7
370
    15
100
AcDbCircle
 10
171.9386137007
 20
110.3772978589
 30
0.0
 40
13.68443027222483
100
AcDbArc
 50
169.254229336
 51
190.745770664
  0
LWPOLYLINE
  5
104
330
1F
100
AcDbEntity
  8
0
  6
SLD-Durchgehend
 62
     7
370
    15
100
AcDbPolyline
 90
       13
 70
   128
 43
0.0
 10
158.4941513606
 20
112.9287806164
 10
158.4945834943
 20
112.8788319241
 10
158.5217824208
 20
112.5108356412
 10
158.534017904
 20
112.4732563097
 10
158.5411398441
 20
112.4628501769
 10
158.5459551311
 20
112.4595295463
 10
158.5507311861
 20
112.4587993894
 10
158.5558618421
 20
112.4605540011
 10
158.5615629333
 20
112.4652650963
 10
158.5698039739
 20
112.4766141932
 10
158.5887164578
 20
112.5194489781
 10
158.642851678
 20
112.7303032029
 10
158.6991113613
 20
113.0337062117
  0
LINE
  5
105
330
1F
100
AcDbEntity
  8
0
  6
SLD-Durchgehend
 62
     7
370
    15
100
AcDbLine
 10
158.6991113613
 20
113.0337062117
 30
0.0
 11
158.8728310776
 21
113.9367561612
 31
0.0
  0
LINE
  5
106
330
1F
100
AcDbEntity
  8
0
  6
SLD-Durchgehend
 62
     7
370
    15
100
AcDbLine
 10
158.8728310776
 20
107.404249144
 30
0.0
 11
158.6991113613
 21
107.9302349884
 31
0.0
  0
LINE
  5
107
330
1F
100
AcDbEntity
  8
0
  6
SLD-Durchgehend
 62
     7
370
    15
100
AcDbLine
 10
158.4941513606
 20
107.1013169188
 30
0.0
 11
158.4941513606
 21
107.8258151013
 31
0.0
  0
LINE
  5
108
330
1F
100
AcDbEntity
  8
0
  6
SLD-Durchgehend
 62
     7
370
    15
100
AcDbLine
 10
137.6941504891
 20
107.5538744975
 30
0.0
 11
137.6941504891
 21
114.2048101231
 31
0.0
  0
LINE
  5
109
330
1F
100
AcDbEntity
  8
0
  6
SLD-Durchgehend
 62
     7
370
    15
100
AcDbLine
 10
158.4941513606
 20
112.9287806164
 30
0.0
 11
158.4941513606
 21
114.2048101231
 31
0.0
  0
LINE
  5
10A
330
1F
100
AcDbEntity
  8
0
  6
SLD-Durchgehend
 62
     7
370
    15
100
AcDbLine
 10
137.6941504891
 20
114.2048101231
 30
0.0
 11
137.6941504891
 21
130.9322830114
 31
0.0
  0
LINE
  5
10B
330
1F
100
AcDbEntity
  8
0
  6
SLD-Durchgehend
 62
     7
370
    15
100
AcDbLine
 10
158.4941513606
 20
114.2048101231
 30
0.0
 11
158.4941513606
 21
131.3848405901
 31
0.0
  0
LINE
  5
10C
330
1F
100
AcDbEntity
  8
0
  6
SLD-Durchgehend
 62
     7
370
    15
100
AcDbLine
 10
136.1941511745
 20
114.2048101231
 30
0.0
 11
136.1941511745
 21
130.1822833542
 31
0.0
  0
LINE
  5
10D
330
1F
100
AcDbEntity
  8
0
  6
SLD-Durchgehend
 62
     7
370
    15
100
AcDbLine
 10
136.1941511745
 20
108.3038741547
 30
0.0
 11
136.1941511745
 21
114.2048101231
 31
0.0
  0
LINE
  5
10E
330
1F
100
AcDbEntity
  8
0
  6
SLD-Durchgehend
 62
     7
370
    15
100
AcDbLine
 10
137.6941504891
 20
105.1358612079
 30
0.0
 11
140.3941514904
 21
105.0725089211
 31
0.0
  0
LINE
  5
10F
330
1F
100
AcDbEntity
  8
0
  6
SLD-Durchgehend
 62
     7
370
    15
100
AcDbLine
 10
137.6941504891
 20
105.1358612079
 30
0.0
 11
137.6941504891
 21
107.5538744975
 31
0.0
  0
LINE
  5
110
330
1F
100
AcDbEntity
  8
0
  6
SLD-Durchgehend
 62
     7
370
    15
100
AcDbLine
 10
158.4941513606
 20
104.4435569841
 30
0.0
 11
158.4941513606
 21
107.1013169188
 31
0.0
  0
ARC
  5
111
330
1F
100
AcDbEntity
  8
0
  6
SLD-Durchgehend
 62
     7
370
    15
100
AcDbCircle
 10
143.9157348408
 20
125.9502379875
 30
0.0
 40
21.17265028906764
100
AcDbArc
 50
260.4256688773
 51
265.075178892
  0
ARC
  5
112
330
1F
100
AcDbEntity
  8
0
  6
SLD-Durchgehend
 62
     7
370
    15
100
AcDbCircle
 10
148.2041699886
 20
82.5629370525
 30
0.0
 40
22.28840237818529
100
AcDbArc
 50
81.8192430794
 51
95.2595319842
  0
LWPOLYLINE
  5
113
330
1F
100
AcDbEntity
  8
0
  6
SLD-Durchgehend
 62
     7
370
    15
100
AcDbPolyline
 90
        3
 70
   128
 43
0.0
 10
136.1941511745
 20
105.9251617465
 10
136.9211341257
 20
105.5471435014
 10
137.6941504891
 20
105.1358612079
  0
LINE
  5
114
330
1F
100
AcDbEntity
  8
0
  6
SLD-Durchgehend
 62
     7
370
    15
100
AcDbLine
 10
136.1941511745
 20
105.9251617465
 30
0.0
 11
136.1941511745
 21
108.3038741547
 31
0.0
  0
LWPOLYLINE
  5
115
330
1F
100
AcDbEntity
  8
0
  6
SLD-Durchgehend
 62
     7
370
    15
100
AcDbPolyline
 90
       13
 70
   128
 43
0.0
 10
158.4941513606
 20
131.9363716815
 10
158.5020064844
 20
131.9809298787
 10
158.5216600683
 20
131.9932550017
 10
158.5329772674
 20
131.9892912928
 10
158.5426241395
 20
131.9828493345
 10
158.5473488553
 20
131.9789200846
 10
158.5529015169
 20
131.9737577636
 10
158.5577256514
 20
131.9688468996
 10
158.5640702865
 20
131.9618508044
 10
158.5739992329
 20
131.9498190481
 10
158.5995317905
 20
131.9139174942
 10
158.663222031
 20
131.801629794
 10
158.6991113613
 20
131.7270271305
  0
LINE
  5
116
330
1F
100
AcDbEntity
  8
0
  6
SLD-Durchgehend
 62
     7
370
    15
100
AcDbLine
 10
158.4941513606
 20
131.9363716815
 30
0.0
 11
158.4941513606
 21
131.3848405901
 31
0.0
  0
ARC
  5
117
330
1F
100
AcDbEntity
  8
0
  6
SLD-Durchgehend
 62
     7
370
    15
100
AcDbCircle
 10
247.6581733945
 20
172.1959273203
 30
0.0
 40
97.83176705700538
100
AcDbArc
 50
203.967149507
 51
204.3002433912
  0
LINE
  5
118
330
1F
100
AcDbEntity
  8
0
  6
SLD-Durchgehend
 62
     7
370
    15
100
AcDbLine
 10
137.6941504891
 20
131.9611867715
 30
0.0
 11
137.6941504891
 21
130.9322830114
 31
0.0
  0
LINE
  5
119
330
1F
100
AcDbEntity
  8
0
  6
SLD-Durchgehend
 62
     7
370
    15
100
AcDbLine
 10
158.6991113613
 20
131.7270271305
 30
0.0
 11
158.8728310776
 21
131.3499625597
 31
0.0
  0
LINE
  5
11A
330
1F
100
AcDbEntity
  8
0
  6
SLD-Durchgehend
 62
     7
370
    15
100
AcDbLine
 10
136.1941511745
 20
131.0951610852
 30
0.0
 11
136.1941511745
 21
130.1822833542
 31
0.0
  0
LINE
  5
11B
330
1F
100
AcDbEntity
  8
0
  6
SLD-Gestrichelt
 62
     7
370
     0
100
AcDbLine
 10
160.1941513831
 20
137.2636560175
 30
0.0
 11
160.1941513831
 21
97.8636558924
 31
0.0
  0
LWPOLYLINE
  5
11C
330
1F
100
AcDbEntity
  8
0
  6
SLD-Gestrichelt
 62
     7
370
     0
100
AcDbPolyline
 90
       11
 70
   128
 43
0.0
 10
174.1941518153
 20
97.563656402
 10
174.0820634181
 20
97.5745528761
 10
173.758724984
 20
97.6024962786
 10
173.2587211768
 20
97.6354520593
 10
172.6371499712
 20
97.6589772675
 10
171.9673595394
 20
97.6626150135
 10
171.325486433
 20
97.6449571375
 10
170.78004526
 20
97.6137261662
 10
170.3914844433
 20
97.5824244145
 10
170.2062713916
 20
97.564863396
 10
170.2190537939
 20
97.5661225442
  0
ARC
  5
11D
330
1F
100
AcDbEntity
  8
0
  6
SLD-Gestrichelt
 62
     7
370
     0
100
AcDbCircle
 10
167.2178181486
 20
111.3935670697
 30
0.0
 40
0.3530113743224491
100
AcDbArc
 50
105.0670195834
 51
174.8245365972
  0
LINE
  5
11E
330
1F
100
AcDbEntity
  8
0
  6
SLD-Gestrichelt
 62
     7
370
     0
100
AcDbLine
 10
167.1260532925
 20
111.7344427679
 30
0.0
 11
169.2622493024
 21
111.7344427679
 31
0.0
  0
ARC
  5
11F
330
1F
100
AcDbEntity
  8
0
  6
SLD-Gestrichelt
 62
     7
370
     0
100
AcDbCircle
 10
169.1567691199
 20
111.3820364085
 30
0.0
 40
0.3678536543011655
100
AcDbArc
 50
6.7716254957
 51
73.3368183237
  0
ELLIPSE
  5
120
330
1F
100
AcDbEntity
  8
0
  6
SLD-Gestrichelt
 62
     7
370
     0
100
AcDbEllipse
 10
159.2452222107
 20
117.563655955
 30
0.0
 11
-9.367417879781726
 21
19.7417491527499
 31
0.0
210
0.0
220
0.0
230
1.0
 40
0.3419987131
 41
3.292664382516906
 42
4.239566697061006
  0
ARC
  5
121
330
1F
100
AcDbEntity
  8
0
  6
SLD-Gestrichelt
 62
     7
370
     0
100
AcDbCircle
 10
169.2817169061
 20
98.7765483187
 30
0.0
 40
0.3450986377754406
100
AcDbArc
 50
266.7661304573
 51
314.1419008004
  0
LINE
  5
122
330
1F
100
AcDbEntity
  8
0
  6
SLD-Gestrichelt
 62
     7
370
     0
100
AcDbLine
 10
169.2622493024
 20
98.4319992188
 30
0.0
 11
167.1260532925
 21
98.4319992188
 31
0.0
  0
ARC
  5
123
330
1F
100
AcDbEntity
  8
0
  6
SLD-Gestrichelt
 62
     7
370
     0
100
AcDbCircle
 10
167.1037356291
 20
98.7689067972
 30
0.0
 40
0.3376459602487976
100
AcDbArc
 50
225.3020793184
 51
273.7898894239
  0
ELLIPSE
  5
124
330
1F
100
AcDbEntity
  8
0
  6
SLD-Gestrichelt
 62
     7
370
     0
100
AcDbEllipse
 10
177.1430805556
 20
117.563655955
 30
0.0
 11
9.367417879781613
 21
19.74174915274993
 31
0.0
210
0.0
220
0.0
230
1.0
 40
0.3419987131
 41
2.043618610118591
 42
2.990520924662725
  0
ARC
  5
125
330
1F
100
AcDbEntity
  8
0
  6
SLD-Gestrichelt
 62
     7
370
     0
100
AcDbCircle
 10
167.1065858529
 20
136.3507631512
 30
0.0
 40
0.3450990678326735
100
AcDbArc
 50
86.7661617822
 51
134.1418694755
  0
LINE
  5
126
330
1F
100
AcDbEntity
  8
0
  6
SLD-Gestrichelt
 62
     7
370
     0
100
AcDbLine
 10
167.1260532925
 20
136.6953126911
 30
0.0
 11
169.2622493024
 21
136.6953126911
 31
0.0
  0
ARC
  5
127
330
1F
100
AcDbEntity
  8
0
  6
SLD-Gestrichelt
 62
     7
370
     0
100
AcDbCircle
 10
169.2845669658
 20
136.3584051127
 30
0.0
 40
0.3376459602488043
100
AcDbArc
 50
45.3020793184
 51
93.7898894239
  0
ELLIPSE
  5
128
330
1F
100
AcDbEntity
  8
0
  6
SLD-Gestrichelt
 62
     7
370
     0
100
AcDbEllipse
 10
159.2452222107
 20
117.563655955
 30
0.0
 11
9.36741787978184
 21
19.74174915274993
 31
0.0
210
0.0
220
0.0
230
1.0
 40
0.3419987131
 41
5.185211263708415
 42
6.132113578252568
  0
ARC
  5
129
330
1F
100
AcDbEntity
  8
0
  6
SLD-Gestrichelt
 62
     7
370
     0
100
AcDbCircle
 10
169.1704847142
 20
123.733744615
 30
0.0
 40
0.3530110871912979
100
AcDbArc
 50
285.0669870983
 51
354.8245690823
  0
LINE
  5
12A
330
1F
100
AcDbEntity
  8
0
  6
SLD-Gestrichelt
 62
     7
370
     0
100
AcDbLine
 10
169.2622493024
 20
123.3928691421
 30
0.0
 11
167.1260532925
 21
123.3928691421
 31
0.0
  0
ARC
  5
12B
330
1F
100
AcDbEntity
  8
0
  6
SLD-Gestrichelt
 62
     7
370
     0
100
AcDbCircle
 10
167.231533475
 20
123.7452755014
 30
0.0
 40
0.367853654301139
100
AcDbArc
 50
186.7716254957
 51
253.3368183237
  0
ELLIPSE
  5
12C
330
1F
100
AcDbEntity
  8
0
  6
SLD-Gestrichelt
 62
     7
370
     0
100
AcDbEllipse
 10
177.1430805556
 20
117.563655955
 30
0.0
 11
-9.367417879781694
 21
19.74174915274993
 31
0.0
210
0.0
220
0.0
230
1.0
 40
0.3419987131
 41
0.1510717289270569
 42
1.097974043471184
  0
LINE
  5
12D
330
1F
100
AcDbEntity
  8
0
  6
SLD-Gestrichelt
 62
     7
370
     0
100
AcDbLine
 10
239.4941526467
 20
117.563655955
 30
0.0
 11
239.4941526467
 21
137.5636555079
 31
0.0
  0
LINE
  5
12E
330
1F
100
AcDbEntity
  8
0
  6
SLD-Gestrichelt
 62
     7
370
     0
100
AcDbLine
 10
239.4941526467
 20
97.563656402
 30
0.0
 11
239.4941526467
 21
117.563655955
 31
0.0
  0
LINE
  5
12F
330
1F
100
AcDbEntity
  8
0
  6
SLD-Gestrichelt
 62
     7
370
     0
100
AcDbLine
 10
240.5941489155
 20
118.4574381972
 30
0.0
 11
239.7241520698
 21
118.9597329415
 31
0.0
  0
ARC
  5
130
330
1F
100
AcDbEntity
  8
0
  6
SLD-Gestrichelt
 62
     7
370
     0
100
AcDbCircle
 10
239.7841470005
 20
119.063655968
 30
0.0
 40
0.119997446425498
100
AcDbArc
 50
119.9979090914
 51
240.0020909086
  0
LINE
  5
131
330
1F
100
AcDbEntity
  8
0
  6
SLD-Gestrichelt
 62
     7
370
     0
100
AcDbLine
 10
239.7241520698
 20
119.1675789945
 30
0.0
 11
240.5941489155
 21
119.6698736224
 31
0.0
  0
LINE
  5
132
330
1F
100
AcDbEntity
  8
0
  6
SLD-Gestrichelt
 62
     7
370
     0
100
AcDbLine
 10
240.5941489155
 20
119.6698736224
 30
0.0
 11
240.5941489155
 21
119.9574380938
 31
0.0
  0
LINE
  5
133
330
1F
100
AcDbEntity
  8
0
  6
SLD-Gestrichelt
 62
     7
370
     0
100
AcDbLine
 10
240.5941489155
 20
119.9574380938
 30
0.0
 11
239.7241520698
 21
120.4597329546
 31
0.0
  0
ARC
  5
134
330
1F
100
AcDbEntity
  8
0
  6
SLD-Gestrichelt
 62
     7
370
     0
100
AcDbCircle
 10
239.7841490122
 20
120.563655981
 30
0.0
 40
0.1199984521852422
100
AcDbArc
 50
119.9987409184
 51
240.0012590816
  0
LINE
  5
135
330
1F
100
AcDbEntity
  8
0
  6
SLD-Gestrichelt
 62
     7
370
     0
100
AcDbLine
 10
239.7241520698
 20
120.6675790075
 30
0.0
 11
240.5941489155
 21
121.1698736355
 31
0.0
  0
LINE
  5
136
330
1F
100
AcDbEntity
  8
0
  6
SLD-Gestrichelt
 62
     7
370
     0
100
AcDbLine
 10
240.5941489155
 20
121.1698736355
 30
0.0
 11
240.5941489155
 21
121.4574381068
 31
0.0
  0
LINE
  5
137
330
1F
100
AcDbEntity
  8
0
  6
SLD-Gestrichelt
 62
     7
370
     0
100
AcDbLine
 10
240.5941489155
 20
121.4574381068
 30
0.0
 11
239.7241520698
 21
121.9597327348
 31
0.0
  0
ARC
  5
138
330
1F
100
AcDbEntity
  8
0
  6
SLD-Gestrichelt
 62
     7
370
     0
100
AcDbCircle
 10
239.7841531476
 20
122.0636557612
 30
0.0
 40
0.1200005198951092
100
AcDbArc
 50
120.0004509358
 51
239.9995490642
  0
LINE
  5
139
330
1F
100
AcDbEntity
  8
0
  6
SLD-Gestrichelt
 62
     7
370
     0
100
AcDbLine
 10
239.7241520698
 20
122.1675787877
 30
0.0
 11
240.5941489155
 21
122.6698736485
 31
0.0
  0
LINE
  5
13A
330
1F
100
AcDbEntity
  8
0
  6
SLD-Gestrichelt
 62
     7
370
     0
100
AcDbLine
 10
240.5941489155
 20
122.6698736485
 30
0.0
 11
240.5941489155
 21
122.9574381199
 31
0.0
  0
LINE
  5
13B
330
1F
100
AcDbEntity
  8
0
  6
SLD-Gestrichelt
 62
     7
370
     0
100
AcDbLine
 10
240.5941489155
 20
122.9574381199
 30
0.0
 11
239.7241520698
 21
123.4597329806
 31
0.0
  0
ARC
  5
13C
330
1F
100
AcDbEntity
  8
0
  6
SLD-Gestrichelt
 62
     7
370
     0
100
AcDbCircle
 10
239.7841461728
 20
123.5636560071
 30
0.0
 40
0.1199970325673467
100
AcDbArc
 50
119.9975667944
 51
240.0024332056
  0
LINE
  5
13D
330
1F
100
AcDbEntity
  8
0
  6
SLD-Gestrichelt
 62
     7
370
     0
100
AcDbLine
 10
239.7241520698
 20
123.6675790336
 30
0.0
 11
240.5941489155
 21
124.1698738944
 31
0.0
  0
LINE
  5
13E
330
1F
100
AcDbEntity
  8
0
  6
SLD-Gestrichelt
 62
     7
370
     0
100
AcDbLine
 10
240.5941489155
 20
124.1698738944
 30
0.0
 11
240.5941489155
 21
124.4574383657
 31
0.0
  0
LINE
  5
13F
330
1F
100
AcDbEntity
  8
0
  6
SLD-Gestrichelt
 62
     7
370
     0
100
AcDbLine
 10
240.5941489155
 20
124.4574383657
 30
0.0
 11
239.7241520698
 21
124.9597327608
 31
0.0
  0
ARC
  5
140
330
1F
100
AcDbEntity
  8
0
  6
SLD-Gestrichelt
 62
     7
370
     0
100
AcDbCircle
 10
239.7841529351
 20
125.0636557873
 30
0.0
 40
0.1200004136494267
100
AcDbArc
 50
120.0003630731
 51
239.9996369269
  0
LINE
  5
141
330
1F
100
AcDbEntity
  8
0
  6
SLD-Gestrichelt
 62
     7
370
     0
100
AcDbLine
 10
239.7241520698
 20
125.1675788138
 30
0.0
 11
240.5941489155
 21
125.6698736746
 31
0.0
  0
LINE
  5
142
330
1F
100
AcDbEntity
  8
0
  6
SLD-Gestrichelt
 62
     7
370
     0
100
AcDbLine
 10
240.5941489155
 20
125.6698736746
 30
0.0
 11
240.5941489155
 21
125.9574381459
 31
0.0
  0
LINE
  5
143
330
1F
100
AcDbEntity
  8
0
  6
SLD-Gestrichelt
 62
     7
370
     0
100
AcDbLine
 10
240.5941489155
 20
125.9574381459
 30
0.0
 11
239.7241520698
 21
126.4597330067
 31
0.0
  0
ARC
  5
144
330
1F
100
AcDbEntity
  8
0
  6
SLD-Gestrichelt
 62
     7
370
     0
100
AcDbCircle
 10
239.7841502685
 20
126.5636560332
 30
0.0
 40
0.11999908033187
100
AcDbArc
 50
119.9992604177
 51
240.0007395823
  0
LINE
  5
145
330
1F
100
AcDbEntity
  8
0
  6
SLD-Gestrichelt
 62
     7
370
     0
100
AcDbLine
 10
239.7241520698
 20
126.6675790597
 30
0.0
 11
240.5941489155
 21
127.1698739204
 31
0.0
  0
LINE
  5
146
330
1F
100
AcDbEntity
  8
0
  6
SLD-Gestrichelt
 62
     7
370
     0
100
AcDbLine
 10
240.5941489155
 20
127.1698739204
 30
0.0
 11
240.5941489155
 21
127.4574383918
 31
0.0
  0
LINE
  5
147
330
1F
100
AcDbEntity
  8
0
  6
SLD-Gestrichelt
 62
     7
370
     0
100
AcDbLine
 10
240.5941489155
 20
127.4574383918
 30
0.0
 11
239.7241520698
 21
127.9597332526
 31
0.0
  0
ARC
  5
148
330
1F
100
AcDbEntity
  8
0
  6
SLD-Gestrichelt
 62
     7
370
     0
100
AcDbCircle
 10
239.7841529491
 20
128.0636562791
 30
0.0
 40
0.1200004206129826
100
AcDbArc
 50
120.0003688319
 51
239.9996311681
  0
LINE
  5
149
330
1F
100
AcDbEntity
  8
0
  6
SLD-Gestrichelt
 62
     7
370
     0
100
AcDbLine
 10
239.7241520698
 20
128.1675793055
 30
0.0
 11
240.5941489155
 21
128.6698741663
 31
0.0
  0
LINE
  5
14A
330
1F
100
AcDbEntity
  8
0
  6
SLD-Gestrichelt
 62
     7
370
     0
100
AcDbLine
 10
240.5941489155
 20
128.6698741663
 30
0.0
 11
240.5941489155
 21
128.9574386377
 31
0.0
  0
LINE
  5
14B
330
1F
100
AcDbEntity
  8
0
  6
SLD-Gestrichelt
 62
     7
370
     0
100
AcDbLine
 10
240.5941489155
 20
128.9574386377
 30
0.0
 11
239.7241520698
 21
129.4597325671
 31
0.0
  0
ARC
  5
14C
330
1F
100
AcDbEntity
  8
0
  6
SLD-Gestrichelt
 62
     7
370
     0
100
AcDbCircle
 10
239.7841503695
 20
129.5636555936
 30
0.0
 40
0.1199991308225973
100
AcDbArc
 50
119.9993021747
 51
240.0006978253
  0
LINE
  5
14D
330
1F
100
AcDbEntity
  8
0
  6
SLD-Gestrichelt
 62
     7
370
     0
100
AcDbLine
 10
239.7241520698
 20
129.6675786201
 30
0.0
 11
240.5941489155
 21
130.1698734809
 31
0.0
  0
LINE
  5
14E
330
1F
100
AcDbEntity
  8
0
  6
SLD-Gestrichelt
 62
     7
370
     0
100
AcDbLine
 10
240.5941489155
 20
130.1698734809
 30
0.0
 11
240.5941489155
 21
130.4574379522
 31
0.0
  0
LINE
  5
14F
330
1F
100
AcDbEntity
  8
0
  6
SLD-Gestrichelt
 62
     7
370
     0
100
AcDbLine
 10
240.5941489155
 20
130.4574379522
 30
0.0
 11
239.7241520698
 21
130.959732813
 31
0.0
  0
ARC
  5
150
330
1F
100
AcDbEntity
  8
0
  6
SLD-Gestrichelt
 62
     7
370
     0
100
AcDbCircle
 10
239.7841527427
 20
131.0636558395
 30
0.0
 40
0.1200003174273755
100
AcDbArc
 50
120.0002834994
 51
239.9997165006
  0
LINE
  5
151
330
1F
100
AcDbEntity
  8
0
  6
SLD-Gestrichelt
 62
     7
370
     0
100
AcDbLine
 10
239.7241520698
 20
131.1675788659
 30
0.0
 11
240.5941489155
 21
131.6698737267
 31
0.0
  0
LINE
  5
152
330
1F
100
AcDbEntity
  8
0
  6
SLD-Gestrichelt
 62
     7
370
     0
100
AcDbLine
 10
240.5941489155
 20
131.6698737267
 30
0.0
 11
240.5941489155
 21
131.9574381981
 31
0.0
  0
LINE
  5
153
330
1F
100
AcDbEntity
  8
0
  6
SLD-Gestrichelt
 62
     7
370
     0
100
AcDbLine
 10
240.5941489155
 20
131.9574381981
 30
0.0
 11
239.7241520698
 21
132.4597330589
 31
0.0
  0
ARC
  5
154
330
1F
100
AcDbEntity
  8
0
  6
SLD-Gestrichelt
 62
     7
370
     0
100
AcDbCircle
 10
239.7841517444
 20
132.5636560853
 30
0.0
 40
0.1199998182983334
100
AcDbArc
 50
119.9998707246
 51
240.0001292754
  0
LINE
  5
155
330
1F
100
AcDbEntity
  8
0
  6
SLD-Gestrichelt
 62
     7
370
     0
100
AcDbLine
 10
239.7241520698
 20
132.6675791118
 30
0.0
 11
240.5941489155
 21
133.1698739726
 31
0.0
  0
LINE
  5
156
330
1F
100
AcDbEntity
  8
0
  6
SLD-Gestrichelt
 62
     7
370
     0
100
AcDbLine
 10
240.5941489155
 20
133.1698739726
 30
0.0
 11
240.5941489155
 21
133.4574375126
 31
0.0
  0
LINE
  5
157
330
1F
100
AcDbEntity
  8
0
  6
SLD-Gestrichelt
 62
     7
370
     0
100
AcDbLine
 10
240.5941489155
 20
133.4574375126
 30
0.0
 11
239.7241520698
 21
133.9597333047
 31
0.0
  0
LWPOLYLINE
  5
158
330
1F
100
AcDbEntity
  8
0
  6
SLD-Gestrichelt
 62
     7
370
     0
100
AcDbPolyline
 90
       10
 70
   128
 43
0.0
 10
239.7241520698
 20
133.9597333047
 10
239.7156360562
 20
133.9651368383
 10
239.7001612003
 20
133.9779518369
 10
239.6893727596
 20
133.9900515798
 10
239.6805065686
 20
134.0031832281
 10
239.6719309504
 20
134.0211428527
 10
239.6651807244
 20
134.0479835693
 10
239.6677288229
 20
134.0927373443
 10
239.7117990071
 20
134.1593902383
 10
239.7241520698
 20
134.1675784264
  0
LINE
  5
159
330
1F
100
AcDbEntity
  8
0
  6
SLD-Gestrichelt
 62
     7
370
     0
100
AcDbLine
 10
239.7241520698
 20
134.1675784264
 30
0.0
 11
240.5941489155
 21
134.6698742185
 31
0.0
  0
LINE
  5
15A
330
1F
100
AcDbEntity
  8
0
  6
SLD-Gestrichelt
 62
     7
370
     0
100
AcDbLine
 10
240.5941489155
 20
134.6698742185
 30
0.0
 11
240.5941489155
 21
134.9574386898
 31
0.0
  0
LINE
  5
15B
330
1F
100
AcDbEntity
  8
0
  6
SLD-Gestrichelt
 62
     7
370
     0
100
AcDbLine
 10
240.5941489155
 20
134.9574386898
 30
0.0
 11
239.7241520698
 21
135.4597326193
 31
0.0
  0
LWPOLYLINE
  5
15C
330
1F
100
AcDbEntity
  8
0
  6
SLD-Gestrichelt
 62
     7
370
     0
100
AcDbPolyline
 90
        9
 70
   128
 43
0.0
 10
239.7241520698
 20
135.4597326193
 10
239.7108304317
 20
135.4686602775
 10
239.7012936885
 20
135.4768559161
 10
239.6919953639
 20
135.4867968533
 10
239.6848577077
 20
135.4962702665
 10
239.6768036301
 20
135.510025901
 10
239.6684589798
 20
135.5317815963
 10
239.6654563958
 20
135.5813298199
 10
239.7241520698
 20
135.6675796036
  0
LWPOLYLINE
  5
15D
330
1F
100
AcDbEntity
  8
0
  6
SLD-Gestrichelt
 62
     7
370
     0
100
AcDbPolyline
 90
        3
 70
   128
 43
0.0
 10
239.7241520698
 20
135.6675796036
 10
240.2410062964
 20
135.9659846697
 10
240.5941489155
 20
136.169873533
  0
LINE
  5
15E
330
1F
100
AcDbEntity
  8
0
  6
SLD-Gestrichelt
 62
     7
370
     0
100
AcDbLine
 10
240.5941489155
 20
136.169873533
 30
0.0
 11
240.5941489155
 21
136.4574380044
 31
0.0
  0
LWPOLYLINE
  5
15F
330
1F
100
AcDbEntity
  8
0
  6
SLD-Gestrichelt
 62
     7
370
     0
100
AcDbPolyline
 90
        4
 70
   128
 43
0.0
 10
240.5941489155
 20
136.4574380044
 10
240.3857710774
 20
136.5777462546
 10
239.9495246823
 20
136.8296131316
 10
239.7241520698
 20
136.9597337965
  0
LWPOLYLINE
  5
160
330
1F
100
AcDbEntity
  8
0
  6
SLD-Gestrichelt
 62
     7
370
     0
100
AcDbPolyline
 90
       12
 70
   128
 43
0.0
 10
239.7241520698
 20
136.9597337965
 10
239.7184523756
 20
136.9632355694
 10
239.7123056466
 20
136.9675382797
 10
239.7047284062
 20
136.9736980472
 10
239.7004964764
 20
136.9776207778
 10
239.696204942
 20
136.9820091698
 10
239.6926882679
 20
136.9859747413
 10
239.6878230388
 20
136.9920935307
 10
239.6798658187
 20
137.0042826805
 10
239.6678554828
 20
137.0340589259
 10
239.6698447878
 20
137.1001791034
 10
239.7241520698
 20
137.1675789181
  0
LWPOLYLINE
  5
161
330
1F
100
AcDbEntity
  8
0
  6
SLD-Gestrichelt
 62
     7
370
     0
100
AcDbPolyline
 90
        3
 70
   128
 43
0.0
 10
239.7241520698
 20
137.1675789181
 10
239.8294362242
 20
137.2283663425
 10
239.8289668376
 20
137.2280925337
  0
LINE
  5
162
330
1F
100
AcDbEntity
  8
0
  6
SLD-Gestrichelt
 62
     7
370
     0
100
AcDbLine
 10
239.8289668376
 20
97.8992193762
 30
0.0
 11
239.7241520698
 21
97.9597329918
 31
0.0
  0
LWPOLYLINE
  5
163
330
1F
100
AcDbEntity
  8
0
  6
SLD-Gestrichelt
 62
     7
370
     0
100
AcDbPolyline
 90
       12
 70
   128
 43
0.0
 10
239.7241520698
 20
97.9597329918
 10
239.7109719927
 20
97.9685544792
 10
239.6650391633
 20
98.0782475147
 10
239.6784129555
 20
98.1203991745
 10
239.6846937949
 20
98.130794597
 10
239.6888437683
 20
98.1365669343
 10
239.6935599858
 20
98.1423523102
 10
239.6974491889
 20
98.1466177676
 10
239.7016811187
 20
98.150825483
 10
239.7065165455
 20
98.1551617209
 10
239.7134902889
 20
98.1606472108
 10
239.7241520698
 20
98.1675781134
  0
LWPOLYLINE
  5
164
330
1F
100
AcDbEntity
  8
0
  6
SLD-Gestrichelt
 62
     7
370
     0
100
AcDbPolyline
 90
        4
 70
   128
 43
0.0
 10
239.7241520698
 20
98.1675781134
 10
240.221649688
 20
98.454811034
 10
240.5364441688
 20
98.6365549091
 10
240.5941489155
 20
98.6698739055
  0
LINE
  5
165
330
1F
100
AcDbEntity
  8
0
  6
SLD-Gestrichelt
 62
     7
370
     0
100
AcDbLine
 10
240.5941489155
 20
98.6698739055
 30
0.0
 11
240.5941489155
 21
98.9574383769
 31
0.0
  0
LWPOLYLINE
  5
166
330
1F
100
AcDbEntity
  8
0
  6
SLD-Gestrichelt
 62
     7
370
     0
100
AcDbPolyline
 90
        3
 70
   128
 43
0.0
 10
240.5941489155
 20
98.9574383769
 10
240.2440312321
 20
99.1595782164
 10
239.7241520698
 20
99.4597323064
  0
ARC
  5
167
330
1F
100
AcDbEntity
  8
0
  6
SLD-Gestrichelt
 62
     7
370
     0
100
AcDbCircle
 10
239.7841484538
 20
99.5636557985
 30
0.0
 40
0.1199985763063099
100
AcDbArc
 50
119.9983988744
 51
240.0016011256
  0
LINE
  5
168
330
1F
100
AcDbEntity
  8
0
  6
SLD-Gestrichelt
 62
     7
370
     0
100
AcDbLine
 10
239.7241520698
 20
99.6675792906
 30
0.0
 11
240.5941489155
 21
100.1698732201
 31
0.0
  0
LINE
  5
169
330
1F
100
AcDbEntity
  8
0
  6
SLD-Gestrichelt
 62
     7
370
     0
100
AcDbLine
 10
240.5941489155
 20
100.1698732201
 30
0.0
 11
240.5941489155
 21
100.4574376914
 31
0.0
  0
LINE
  5
16A
330
1F
100
AcDbEntity
  8
0
  6
SLD-Gestrichelt
 62
     7
370
     0
100
AcDbLine
 10
240.5941489155
 20
100.4574376914
 30
0.0
 11
239.7241520698
 21
100.9597334836
 31
0.0
  0
LWPOLYLINE
  5
16B
330
1F
100
AcDbEntity
  8
0
  6
SLD-Gestrichelt
 62
     7
370
     0
100
AcDbPolyline
 90
       10
 70
   128
 43
0.0
 10
239.7241520698
 20
100.9597334836
 10
239.6691444332
 20
101.0293889616
 10
239.6645697767
 20
101.0736584488
 10
239.6676468665
 20
101.0924059722
 10
239.6752762611
 20
101.1141076509
 10
239.683449548
 20
101.1289231304
 10
239.6946999247
 20
101.143643615
 10
239.7060546095
 20
101.1547654692
 10
239.7224160845
 20
101.1665578756
 10
239.7241520698
 20
101.1675786052
  0
LINE
  5
16C
330
1F
100
AcDbEntity
  8
0
  6
SLD-Gestrichelt
 62
     7
370
     0
100
AcDbLine
 10
239.7241520698
 20
101.1675786052
 30
0.0
 11
240.5941489155
 21
101.6698743973
 31
0.0
  0
LINE
  5
16D
330
1F
100
AcDbEntity
  8
0
  6
SLD-Gestrichelt
 62
     7
370
     0
100
AcDbLine
 10
240.5941489155
 20
101.6698743973
 30
0.0
 11
240.5941489155
 21
101.9574379373
 31
0.0
  0
LINE
  5
16E
330
1F
100
AcDbEntity
  8
0
  6
SLD-Gestrichelt
 62
     7
370
     0
100
AcDbLine
 10
240.5941489155
 20
101.9574379373
 30
0.0
 11
239.7241520698
 21
102.4597327981
 31
0.0
  0
LWPOLYLINE
  5
16F
330
1F
100
AcDbEntity
  8
0
  6
SLD-Gestrichelt
 62
     7
370
     0
100
AcDbPolyline
 90
        9
 70
   128
 43
0.0
 10
239.7241520698
 20
102.4597327981
 10
239.6718787963
 20
102.5212941516
 10
239.6648901517
 20
102.5769369501
 10
239.6706867034
 20
102.6027150277
 10
239.6790313537
 20
102.6215324003
 10
239.6916973407
 20
102.6401569892
 10
239.704713505
 20
102.6535996992
 10
239.7237199361
 20
102.6673283253
 10
239.7241520698
 20
102.667578851
  0
LINE
  5
170
330
1F
100
AcDbEntity
  8
0
  6
SLD-Gestrichelt
 62
     7
370
     0
100
AcDbLine
 10
239.7241520698
 20
102.667578851
 30
0.0
 11
240.5941489155
 21
103.1698737118
 31
0.0
  0
LINE
  5
171
330
1F
100
AcDbEntity
  8
0
  6
SLD-Gestrichelt
 62
     7
370
     0
100
AcDbLine
 10
240.5941489155
 20
103.1698737118
 30
0.0
 11
240.5941489155
 21
103.4574381832
 31
0.0
  0
LINE
  5
172
330
1F
100
AcDbEntity
  8
0
  6
SLD-Gestrichelt
 62
     7
370
     0
100
AcDbLine
 10
240.5941489155
 20
103.4574381832
 30
0.0
 11
239.7241520698
 21
103.959733044
 31
0.0
  0
ARC
  5
173
330
1F
100
AcDbEntity
  8
0
  6
SLD-Gestrichelt
 62
     7
370
     0
100
AcDbCircle
 10
239.7841475529
 20
104.0636560704
 30
0.0
 40
0.1199977226000249
100
AcDbArc
 50
119.9981375087
 51
240.0018624913
  0
LINE
  5
174
330
1F
100
AcDbEntity
  8
0
  6
SLD-Gestrichelt
 62
     7
370
     0
100
AcDbLine
 10
239.7241520698
 20
104.1675790969
 30
0.0
 11
240.5941489155
 21
104.6698739577
 31
0.0
  0
LINE
  5
175
330
1F
100
AcDbEntity
  8
0
  6
SLD-Gestrichelt
 62
     7
370
     0
100
AcDbLine
 10
240.5941489155
 20
104.6698739577
 30
0.0
 11
240.5941489155
 21
104.9574384291
 31
0.0
  0
LINE
  5
176
330
1F
100
AcDbEntity
  8
0
  6
SLD-Gestrichelt
 62
     7
370
     0
100
AcDbLine
 10
240.5941489155
 20
104.9574384291
 30
0.0
 11
239.7241520698
 21
105.4597332898
 31
0.0
  0
ARC
  5
177
330
1F
100
AcDbEntity
  8
0
  6
SLD-Gestrichelt
 62
     7
370
     0
100
AcDbCircle
 10
239.7841524958
 20
105.5636563163
 30
0.0
 40
0.1200001939893898
100
AcDbArc
 50
120.0001814182
 51
239.9998185818
  0
LINE
  5
178
330
1F
100
AcDbEntity
  8
0
  6
SLD-Gestrichelt
 62
     7
370
     0
100
AcDbLine
 10
239.7241520698
 20
105.6675793428
 30
0.0
 11
240.5941489155
 21
106.1698732722
 31
0.0
  0
LINE
  5
179
330
1F
100
AcDbEntity
  8
0
  6
SLD-Gestrichelt
 62
     7
370
     0
100
AcDbLine
 10
240.5941489155
 20
106.1698732722
 30
0.0
 11
240.5941489155
 21
106.4574377436
 31
0.0
  0
LINE
  5
17A
330
1F
100
AcDbEntity
  8
0
  6
SLD-Gestrichelt
 62
     7
370
     0
100
AcDbLine
 10
240.5941489155
 20
106.4574377436
 30
0.0
 11
239.7241520698
 21
106.9597326044
 31
0.0
  0
ARC
  5
17B
330
1F
100
AcDbEntity
  8
0
  6
SLD-Gestrichelt
 62
     7
370
     0
100
AcDbCircle
 10
239.7841446134
 20
107.0636556309
 30
0.0
 40
0.11999625294733
100
AcDbArc
 50
119.9969219641
 51
240.0030780359
  0
LINE
  5
17C
330
1F
100
AcDbEntity
  8
0
  6
SLD-Gestrichelt
 62
     7
370
     0
100
AcDbLine
 10
239.7241520698
 20
107.1675786573
 30
0.0
 11
240.5941489155
 21
107.6698735181
 31
0.0
  0
LINE
  5
17D
330
1F
100
AcDbEntity
  8
0
  6
SLD-Gestrichelt
 62
     7
370
     0
100
AcDbLine
 10
240.5941489155
 20
107.6698735181
 30
0.0
 11
240.5941489155
 21
107.9574379895
 31
0.0
  0
LINE
  5
17E
330
1F
100
AcDbEntity
  8
0
  6
SLD-Gestrichelt
 62
     7
370
     0
100
AcDbLine
 10
240.5941489155
 20
107.9574379895
 30
0.0
 11
239.7241520698
 21
108.4597328503
 31
0.0
  0
ARC
  5
17F
330
1F
100
AcDbEntity
  8
0
  6
SLD-Gestrichelt
 62
     7
370
     0
100
AcDbCircle
 10
239.7841541991
 20
108.5636558767
 30
0.0
 40
0.1200010456168457
100
AcDbArc
 50
120.0008856897
 51
239.9991143103
  0
LINE
  5
180
330
1F
100
AcDbEntity
  8
0
  6
SLD-Gestrichelt
 62
     7
370
     0
100
AcDbLine
 10
239.7241520698
 20
108.6675789032
 30
0.0
 11
240.5941489155
 21
109.169873764
 31
0.0
  0
LINE
  5
181
330
1F
100
AcDbEntity
  8
0
  6
SLD-Gestrichelt
 62
     7
370
     0
100
AcDbLine
 10
240.5941489155
 20
109.169873764
 30
0.0
 11
240.5941489155
 21
109.4574382353
 31
0.0
  0
LINE
  5
182
330
1F
100
AcDbEntity
  8
0
  6
SLD-Gestrichelt
 62
     7
370
     0
100
AcDbLine
 10
240.5941489155
 20
109.4574382353
 30
0.0
 11
239.7241520698
 21
109.9597330961
 31
0.0
  0
ARC
  5
183
330
1F
100
AcDbEntity
  8
0
  6
SLD-Gestrichelt
 62
     7
370
     0
100
AcDbCircle
 10
239.7841553101
 20
110.0636561226
 30
0.0
 40
0.1200016011567028
100
AcDbArc
 50
120.0013450917
 51
239.9986549083
  0
LINE
  5
184
330
1F
100
AcDbEntity
  8
0
  6
SLD-Gestrichelt
 62
     7
370
     0
100
AcDbLine
 10
239.7241520698
 20
110.1675791491
 30
0.0
 11
240.5941489155
 21
110.6698735442
 31
0.0
  0
LINE
  5
185
330
1F
100
AcDbEntity
  8
0
  6
SLD-Gestrichelt
 62
     7
370
     0
100
AcDbLine
 10
240.5941489155
 20
110.6698735442
 30
0.0
 11
240.5941489155
 21
110.9574380155
 31
0.0
  0
LINE
  5
186
330
1F
100
AcDbEntity
  8
0
  6
SLD-Gestrichelt
 62
     7
370
     0
100
AcDbLine
 10
240.5941489155
 20
110.9574380155
 30
0.0
 11
239.7241520698
 21
111.4597328763
 31
0.0
  0
ARC
  5
187
330
1F
100
AcDbEntity
  8
0
  6
SLD-Gestrichelt
 62
     7
370
     0
100
AcDbCircle
 10
239.7841531085
 20
111.5636559028
 30
0.0
 40
0.1200005003120903
100
AcDbArc
 50
120.0004347412
 51
239.9995652588
  0
LINE
  5
188
330
1F
100
AcDbEntity
  8
0
  6
SLD-Gestrichelt
 62
     7
370
     0
100
AcDbLine
 10
239.7241520698
 20
111.6675789293
 30
0.0
 11
240.5941489155
 21
112.1698737901
 31
0.0
  0
LINE
  5
189
330
1F
100
AcDbEntity
  8
0
  6
SLD-Gestrichelt
 62
     7
370
     0
100
AcDbLine
 10
240.5941489155
 20
112.1698737901
 30
0.0
 11
240.5941489155
 21
112.4574382614
 31
0.0
  0
LINE
  5
18A
330
1F
100
AcDbEntity
  8
0
  6
SLD-Gestrichelt
 62
     7
370
     0
100
AcDbLine
 10
240.5941489155
 20
112.4574382614
 30
0.0
 11
239.7241520698
 21
112.9597331222
 31
0.0
  0
ARC
  5
18B
330
1F
100
AcDbEntity
  8
0
  6
SLD-Gestrichelt
 62
     7
370
     0
100
AcDbCircle
 10
239.7841527962
 20
113.0636561487
 30
0.0
 40
0.1200003441607039
100
AcDbArc
 50
120.0003056074
 51
239.9996943926
  0
LINE
  5
18C
330
1F
100
AcDbEntity
  8
0
  6
SLD-Gestrichelt
 62
     7
370
     0
100
AcDbLine
 10
239.7241520698
 20
113.1675791751
 30
0.0
 11
240.5941489155
 21
113.6698738031
 31
0.0
  0
LINE
  5
18D
330
1F
100
AcDbEntity
  8
0
  6
SLD-Gestrichelt
 62
     7
370
     0
100
AcDbLine
 10
240.5941489155
 20
113.6698738031
 30
0.0
 11
240.5941489155
 21
113.9574382745
 31
0.0
  0
LINE
  5
18E
330
1F
100
AcDbEntity
  8
0
  6
SLD-Gestrichelt
 62
     7
370
     0
100
AcDbLine
 10
240.5941489155
 20
113.9574382745
 30
0.0
 11
239.7241520698
 21
114.4597329024
 31
0.0
  0
ARC
  5
18F
330
1F
100
AcDbEntity
  8
0
  6
SLD-Gestrichelt
 62
     7
370
     0
100
AcDbCircle
 10
239.7841560303
 20
114.5636559289
 30
0.0
 40
0.1200019612808991
100
AcDbArc
 50
120.0016428897
 51
239.9983571103
  0
LINE
  5
190
330
1F
100
AcDbEntity
  8
0
  6
SLD-Gestrichelt
 62
     7
370
     0
100
AcDbLine
 10
239.7241520698
 20
114.6675789554
 30
0.0
 11
240.5941489155
 21
115.1698738161
 31
0.0
  0
LINE
  5
191
330
1F
100
AcDbEntity
  8
0
  6
SLD-Gestrichelt
 62
     7
370
     0
100
AcDbLine
 10
240.5941489155
 20
115.1698738161
 30
0.0
 11
240.5941489155
 21
115.4574382875
 31
0.0
  0
LINE
  5
192
330
1F
100
AcDbEntity
  8
0
  6
SLD-Gestrichelt
 62
     7
370
     0
100
AcDbLine
 10
240.5941489155
 20
115.4574382875
 30
0.0
 11
239.7241520698
 21
115.9597329154
 31
0.0
  0
ARC
  5
193
330
1F
100
AcDbEntity
  8
0
  6
SLD-Gestrichelt
 62
     7
370
     0
100
AcDbCircle
 10
239.7841490055
 20
116.0636559419
 30
0.0
 40
0.1199984488532506
100
AcDbArc
 50
119.9987381627
 51
240.0012618373
  0
LINE
  5
194
330
1F
100
AcDbEntity
  8
0
  6
SLD-Gestrichelt
 62
     7
370
     0
100
AcDbLine
 10
239.7241520698
 20
116.1675789684
 30
0.0
 11
240.5941489155
 21
116.6698737128
 31
0.0
  0
LINE
  5
195
330
1F
100
AcDbEntity
  8
0
  6
SLD-Gestrichelt
 62
     7
370
     0
100
AcDbLine
 10
240.5941489155
 20
116.6698737128
 30
0.0
 11
240.5941489155
 21
116.9574381841
 31
0.0
  0
LINE
  5
196
330
1F
100
AcDbEntity
  8
0
  6
SLD-Gestrichelt
 62
     7
370
     0
100
AcDbLine
 10
240.5941489155
 20
116.9574381841
 30
0.0
 11
239.7241520698
 21
117.4597329067
 31
0.0
  0
ARC
  5
197
330
1F
100
AcDbEntity
  8
0
  6
SLD-Gestrichelt
 62
     7
370
     0
100
AcDbCircle
 10
239.7841488884
 20
117.563655955
 30
0.0
 40
0.1199984092140294
100
AcDbArc
 50
119.998684534
 51
240.001315466
  0
LINE
  5
198
330
1F
100
AcDbEntity
  8
0
  6
SLD-Gestrichelt
 62
     7
370
     0
100
AcDbLine
 10
239.7241520698
 20
117.6675790033
 30
0.0
 11
240.5941489155
 21
118.1698737258
 31
0.0
  0
LINE
  5
199
330
1F
100
AcDbEntity
  8
0
  6
SLD-Gestrichelt
 62
     7
370
     0
100
AcDbLine
 10
240.5941489155
 20
118.1698737258
 30
0.0
 11
240.5941489155
 21
118.4574381972
 31
0.0
  0
LINE
  5
19A
330
1F
100
AcDbEntity
  8
0
  6
SLD-Gestrichelt
 62
     7
370
     0
100
AcDbLine
 10
160.1941513831
 20
101.7677508119
 30
0.0
 11
160.1941513831
 21
133.359561098
 31
0.0
  0
LWPOLYLINE
  5
19B
330
1F
100
AcDbEntity
  8
0
  6
SLD-Gestrichelt
 62
     7
370
     0
100
AcDbPolyline
 90
        9
 70
   128
 43
0.0
 10
158.9380670807
 20
107.2649186302
 10
159.0889222457
 20
107.0264357898
 10
159.3251683402
 20
106.8152956489
 10
159.4488655569
 20
106.7553343076
 10
159.5269628337
 20
106.7345332179
 10
159.6155418551
 20
106.7264130164
 10
159.6904282228
 20
106.7323464725
 10
159.7816555181
 20
106.7557450209
 10
159.7991744815
 20
106.7623294715
  0
LWPOLYLINE
  5
19C
330
1F
100
AcDbEntity
  8
0
  6
SLD-Gestrichelt
 62
     7
370
     0
100
AcDbPolyline
 90
        9
 70
   128
 43
0.0
 10
159.7991744815
 20
106.7623294715
 10
159.8197934977
 20
106.7678354505
 10
159.8390554313
 20
106.7680813197
 10
159.8592977566
 20
106.7629124794
 10
159.8748954597
 20
106.7547662008
 10
159.8959014404
 20
106.7372172896
 10
159.9243038103
 20
106.6983727563
 10
159.9713003702
 20
106.5638208587
 10
159.9941513882
 20
106.3109509472
  0
LINE
  5
19D
330
1F
100
AcDbEntity
  8
0
  6
SLD-Gestrichelt
 62
     7
370
     0
100
AcDbLine
 10
159.9941513882
 20
103.4738359798
 30
0.0
 11
159.9941513882
 21
106.3109509472
 31
0.0
  0
LINE
  5
19E
330
1F
100
AcDbEntity
  8
0
  6
SLD-Gestrichelt
 62
     7
370
     0
100
AcDbLine
 10
159.9941513882
 20
106.3109509472
 30
0.0
 11
159.9813243842
 21
106.4123682503
 31
0.0
  0
LINE
  5
19F
330
1F
100
AcDbEntity
  8
0
  6
SLD-Gestrichelt
 62
     7
370
     0
100
AcDbLine
 10
159.9818193822
 20
130.5852135468
 30
0.0
 11
159.9538120531
 21
130.7029885996
 31
0.0
  0
LINE
  5
1A0
330
1F
100
AcDbEntity
  8
0
  6
SLD-Gestrichelt
 62
     7
370
     0
100
AcDbLine
 10
158.9380670807
 20
131.2212388787
 30
0.0
 11
158.8728310776
 21
131.3499625597
 31
0.0
  0
LWPOLYLINE
  5
1A1
330
1F
100
AcDbEntity
  8
0
  6
SLD-Gestrichelt
 62
     7
370
     0
100
AcDbPolyline
 90
        9
 70
   128
 43
0.0
 10
158.9380670807
 20
131.2212388787
 10
159.0900966434
 20
130.9767303813
 10
159.3298413095
 20
130.7479994196
 10
159.451391944
 20
130.6848091829
 10
159.5295775218
 20
130.6639289308
 10
159.6179602088
 20
130.6589221407
 10
159.6922890053
 20
130.6700579647
 10
159.7840950885
 20
130.7033629913
 10
159.7991744815
 20
130.7109216053
  0
LWPOLYLINE
  5
1A2
330
1F
100
AcDbEntity
  8
0
  6
SLD-Gestrichelt
 62
     7
370
     0
100
AcDbPolyline
 90
       10
 70
   128
 43
0.0
 10
159.7991744815
 20
130.7109216053
 10
159.8197934977
 20
130.7205198157
 10
159.8390554313
 20
130.7273808691
 10
159.8592977566
 20
130.7322470296
 10
159.8748954597
 20
130.7341608975
 10
159.8959014404
 20
130.7337390084
 10
159.9243038103
 20
130.7258823711
 10
159.9713003702
 20
130.6749157432
 10
159.9847836655
 20
130.5913882155
 10
159.9941513882
 20
130.5333556432
  0
LINE
  5
1A3
330
1F
100
AcDbEntity
  8
0
  6
SLD-Gestrichelt
 62
     7
370
     0
100
AcDbLine
 10
159.9941513882
 20
115.8466610417
 30
0.0
 11
159.9941513882
 21
130.5333556432
 31
0.0
  0
LWPOLYLINE
  5
1A4
330
1F
100
AcDbEntity
  8
0
  6
SLD-Gestrichelt
 62
     7
370
     0
100
AcDbPolyline
 90
        9
 70
   128
 43
0.0
 10
159.9941513882
 20
115.8466610417
 10
159.9538120531
 20
115.3580845624
 10
159.9327833278
 20
115.2873045124
 10
159.898144298
 20
115.2226690959
 10
159.8773274922
 20
115.203527623
 10
159.8601039036
 20
115.195996483
 10
159.840875905
 20
115.1951962441
 10
159.8242700743
 20
115.2003464579
 10
159.7991744815
 20
115.2177163225
  0
LWPOLYLINE
  5
1A5
330
1F
100
AcDbEntity
  8
0
  6
SLD-Gestrichelt
 62
     7
370
     0
100
AcDbPolyline
 90
        8
 70
   128
 43
0.0
 10
159.7991744815
 20
115.2177163225
 10
159.723250184
 20
115.2734161645
 10
159.6329537456
 20
115.3041891578
 10
159.5465480236
 20
115.298204479
 10
159.4616558172
 20
115.2587373566
 10
159.346455755
 20
115.1512871787
 10
159.1175906828
 20
114.7419841785
 10
158.9380670807
 20
114.2048101231
  0
LINE
  5
1A6
330
1F
100
AcDbEntity
  8
0
  6
SLD-Gestrichelt
 62
     7
370
     0
100
AcDbLine
 10
158.9380670807
 20
114.2048101231
 30
0.0
 11
158.8728310776
 21
113.9367561612
 31
0.0
  0
LINE
  5
1A7
330
1F
100
AcDbEntity
  8
0
  6
SLD-Gestrichelt
 62
     7
370
     0
100
AcDbLine
 10
158.8728310776
 20
107.404249144
 30
0.0
 11
158.9380670807
 21
107.2649186302
 31
0.0
  0
LINE
  5
1A8
330
1F
100
AcDbEntity
  8
0
  6
SLD-Gestrichelt
 62
     7
370
     0
100
AcDbLine
 10
159.9941513882
 20
115.8466610417
 30
0.0
 11
159.9941513882
 21
130.5333556432
 31
0.0
  0
LINE
  5
1A9
330
1F
100
AcDbEntity
  8
0
  6
SLD-Gestrichelt
 62
     7
370
     0
100
AcDbLine
 10
239.2941492612
 20
105.164161307
 30
0.0
 11
239.2941492612
 21
110.1641611952
 31
0.0
  0
LWPOLYLINE
  5
1AA
330
1F
100
AcDbEntity
  8
0
  6
SLD-Gestrichelt
 62
     7
370
     0
100
AcDbPolyline
 90
       10
 70
   128
 43
0.0
 10
239.7241520698
 20
109.9597330961
 10
239.6707314069
 20
110.0244697939
 10
239.6642046983
 20
110.0600342091
 10
239.6691146309
 20
110.0978198286
 10
239.6748739297
 20
110.1132308889
 10
239.6842989142
 20
110.1302056398
 10
239.6935376341
 20
110.1423295971
 10
239.7041919644
 20
110.153132939
 10
239.7184821779
 20
110.164091346
 10
239.7241520698
 20
110.1675791491
  0
LWPOLYLINE
  5
1AB
330
1F
100
AcDbEntity
  8
0
  6
SLD-Gestrichelt
 62
     7
370
     0
100
AcDbPolyline
 90
        3
 70
   128
 43
0.0
 10
240.5941489155
 20
109.4574382353
 10
240.1260885412
 20
109.7276726562
 10
239.7241520698
 20
109.9597330961
  0
LINE
  5
1AC
330
1F
100
AcDbEntity
  8
0
  6
SLD-Gestrichelt
 62
     7
370
     0
100
AcDbLine
 10
240.5941489155
 20
109.169873764
 30
0.0
 11
240.5941489155
 21
109.4574382353
 31
0.0
  0
ARC
  5
1AD
330
1F
100
AcDbEntity
  8
0
  6
SLD-Gestrichelt
 62
     7
370
     0
100
AcDbCircle
 10
239.7841475368
 20
108.5636558767
 30
0.0
 40
0.1199977145398553
100
AcDbArc
 50
119.9981308423
 51
240.0018691577
  0
LINE
  5
1AE
330
1F
100
AcDbEntity
  8
0
  6
SLD-Gestrichelt
 62
     7
370
     0
100
AcDbLine
 10
240.5941489155
 20
107.6698735181
 30
0.0
 11
240.5941489155
 21
107.9574379895
 31
0.0
  0
ARC
  5
1AF
330
1F
100
AcDbEntity
  8
0
  6
SLD-Gestrichelt
 62
     7
370
     0
100
AcDbCircle
 10
239.7841462241
 20
107.0636556309
 30
0.0
 40
0.1199970582069525
100
AcDbArc
 50
119.9975880007
 51
240.0024119993
  0
LINE
  5
1B0
330
1F
100
AcDbEntity
  8
0
  6
SLD-Gestrichelt
 62
     7
370
     0
100
AcDbLine
 10
240.5941489155
 20
106.1698732722
 30
0.0
 11
240.5941489155
 21
106.4574377436
 31
0.0
  0
ARC
  5
1B1
330
1F
100
AcDbEntity
  8
0
  6
SLD-Gestrichelt
 62
     7
370
     0
100
AcDbCircle
 10
239.7841491882
 20
105.5636563163
 30
0.0
 40
0.1199985401923135
100
AcDbArc
 50
119.9988137041
 51
240.0011862959
  0
LINE
  5
1B2
330
1F
100
AcDbEntity
  8
0
  6
SLD-Gestrichelt
 62
     7
370
     0
100
AcDbLine
 10
240.5941489155
 20
104.6698739577
 30
0.0
 11
240.5941489155
 21
104.9574384291
 31
0.0
  0
LINE
  5
1B3
330
1F
100
AcDbEntity
  8
0
  6
SLD-Gestrichelt
 62
     7
370
     0
100
AcDbLine
 10
240.5941489155
 20
110.6698735442
 30
0.0
 11
240.5941489155
 21
110.9574380155
 31
0.0
  0
LINE
  5
1B4
330
1F
100
AcDbEntity
  8
0
  6
SLD-Gestrichelt
 62
     7
370
     0
100
AcDbLine
 10
240.5941489155
 20
104.9574384291
 30
0.0
 11
240.5941489155
 21
104.6698739577
 31
0.0
  0
LWPOLYLINE
  5
1B5
330
1F
100
AcDbEntity
  8
0
  6
SLD-Gestrichelt
 62
     7
370
     0
100
AcDbPolyline
 90
        6
 70
   128
 43
0.0
 10
240.5941489155
 20
104.6698739577
 10
240.2629035527
 20
104.478629661
 10
240.0929036553
 20
104.3804785061
 10
240.1184144432
 20
104.395208304
 10
240.3074803765
 20
104.5043648977
 10
240.5941489155
 20
104.6698739577
  0
LINE
  5
1B6
330
1F
100
AcDbEntity
  8
0
  6
SLD-Gestrichelt
 62
     7
370
     0
100
AcDbLine
 10
240.5941489155
 20
106.4574377436
 30
0.0
 11
240.5941489155
 21
106.1698732722
 31
0.0
  0
ARC
  5
1B7
330
1F
100
AcDbEntity
  8
0
  6
SLD-Gestrichelt
 62
     7
370
     0
100
AcDbCircle
 10
239.7841483936
 20
105.5636563163
 30
0.0
 40
0.1199981429280603
100
AcDbArc
 50
119.9984851468
 51
240.0015148532
  0
LINE
  5
1B8
330
1F
100
AcDbEntity
  8
0
  6
SLD-Gestrichelt
 62
     7
370
     0
100
AcDbLine
 10
240.5941489155
 20
107.9574379895
 30
0.0
 11
240.5941489155
 21
107.6698735181
 31
0.0
  0
ARC
  5
1B9
330
1F
100
AcDbEntity
  8
0
  6
SLD-Gestrichelt
 62
     7
370
     0
100
AcDbCircle
 10
239.7841517086
 20
107.0636556309
 30
0.0
 40
0.1199998003799691
100
AcDbArc
 50
119.9998559061
 51
240.0001440939
  0
LINE
  5
1BA
330
1F
100
AcDbEntity
  8
0
  6
SLD-Gestrichelt
 62
     7
370
     0
100
AcDbLine
 10
240.5941489155
 20
109.4574382353
 30
0.0
 11
240.5941489155
 21
109.169873764
 31
0.0
  0
ARC
  5
1BB
330
1F
100
AcDbEntity
  8
0
  6
SLD-Gestrichelt
 62
     7
370
     0
100
AcDbCircle
 10
239.784147861
 20
108.5636558767
 30
0.0
 40
0.1199978766516939
100
AcDbArc
 50
119.99826492
 51
240.00173508
  0
LINE
  5
1BC
330
1F
100
AcDbEntity
  8
0
  6
SLD-Gestrichelt
 62
     7
370
     0
100
AcDbLine
 10
240.5941489155
 20
110.9574380155
 30
0.0
 11
240.5941489155
 21
110.6698735442
 31
0.0
  0
LWPOLYLINE
  5
1BD
330
1F
100
AcDbEntity
  8
0
  6
SLD-Gestrichelt
 62
     7
370
     0
100
AcDbPolyline
 90
        3
 70
   128
 43
0.0
 10
239.7241520698
 20
109.9597330961
 10
240.1210146959
 20
109.7306016657
 10
240.5941489155
 20
109.4574382353
  0
LWPOLYLINE
  5
1BE
330
1F
100
AcDbEntity
  8
0
  6
SLD-Gestrichelt
 62
     7
370
     0
100
AcDbPolyline
 90
       10
 70
   128
 43
0.0
 10
239.7241520698
 20
110.1675791491
 10
239.7165748293
 20
110.162821022
 10
239.7018375809
 20
110.1509750645
 10
239.6914887244
 20
110.1399072271
 10
239.6827342922
 20
110.1278014306
 10
239.6739724095
 20
110.1112075906
 10
239.6661940033
 20
110.0856846955
 10
239.6663281138
 20
110.040916485
 10
239.7062036211
 20
109.9724181752
 10
239.7241520698
 20
109.9597330961
  0
LWPOLYLINE
  5
1BF
330
1F
100
AcDbEntity
  8
0
  6
SLD-Gestrichelt
 62
     7
370
     0
100
AcDbPolyline
 90
        5
 70
   128
 43
0.0
 10
240.5941489155
 20
110.9574380155
 10
240.362026077
 20
111.0914557997
 10
240.272954386
 20
111.142881104
 10
240.3522583658
 20
111.0970958892
 10
240.5941489155
 20
110.9574380155
  0
LINE
  5
1C0
330
1F
100
AcDbEntity
  8
0
  6
SLD-Gestrichelt
 62
     7
370
     0
100
AcDbLine
 10
239.2941492612
 20
124.9631507147
 30
0.0
 11
239.2941492612
 21
129.9631506029
 31
0.0
  0
LINE
  5
1C1
330
1F
100
AcDbEntity
  8
0
  6
SLD-Gestrichelt
 62
     7
370
     0
100
AcDbLine
 10
240.5941489155
 20
130.1698734809
 30
0.0
 11
240.5941489155
 21
130.4574379522
 31
0.0
  0
ARC
  5
1C2
330
1F
100
AcDbEntity
  8
0
  6
SLD-Gestrichelt
 62
     7
370
     0
100
AcDbCircle
 10
239.7841483936
 20
129.5636555936
 30
0.0
 40
0.1199981429280603
100
AcDbArc
 50
119.9984851468
 51
240.0015148532
  0
LINE
  5
1C3
330
1F
100
AcDbEntity
  8
0
  6
SLD-Gestrichelt
 62
     7
370
     0
100
AcDbLine
 10
240.5941489155
 20
128.6698741663
 30
0.0
 11
240.5941489155
 21
128.9574386377
 31
0.0
  0
ARC
  5
1C4
330
1F
100
AcDbEntity
  8
0
  6
SLD-Gestrichelt
 62
     7
370
     0
100
AcDbCircle
 10
239.7841517086
 20
128.0636562791
 30
0.0
 40
0.1199998003799691
100
AcDbArc
 50
119.9998559061
 51
240.0001440939
  0
LINE
  5
1C5
330
1F
100
AcDbEntity
  8
0
  6
SLD-Gestrichelt
 62
     7
370
     0
100
AcDbLine
 10
240.5941489155
 20
127.1698739204
 30
0.0
 11
240.5941489155
 21
127.4574383918
 31
0.0
  0
ARC
  5
1C6
330
1F
100
AcDbEntity
  8
0
  6
SLD-Gestrichelt
 62
     7
370
     0
100
AcDbCircle
 10
239.784147861
 20
126.5636560332
 30
0.0
 40
0.1199978766517185
100
AcDbArc
 50
119.9982649199
 51
240.00173508
  0
LINE
  5
1C7
330
1F
100
AcDbEntity
  8
0
  6
SLD-Gestrichelt
 62
     7
370
     0
100
AcDbLine
 10
240.5941489155
 20
125.6698736746
 30
0.0
 11
240.5941489155
 21
125.9574381459
 31
0.0
  0
LWPOLYLINE
  5
1C8
330
1F
100
AcDbEntity
  8
0
  6
SLD-Gestrichelt
 62
     7
370
     0
100
AcDbPolyline
 90
        3
 70
   128
 43
0.0
 10
239.7241520698
 20
125.1675788138
 10
240.1210146959
 20
125.3967102442
 10
240.5941489155
 20
125.6698736746
  0
LWPOLYLINE
  5
1C9
330
1F
100
AcDbEntity
  8
0
  6
SLD-Gestrichelt
 62
     7
370
     0
100
AcDbPolyline
 90
       10
 70
   128
 43
0.0
 10
239.7241520698
 20
124.9597327608
 10
239.7165748293
 20
124.9644908879
 10
239.7018375809
 20
124.9763368454
 10
239.6914887244
 20
124.9874046828
 10
239.6827342922
 20
124.9995104793
 10
239.6739724095
 20
125.0161043193
 10
239.6661940033
 20
125.0416272145
 10
239.6663281138
 20
125.086395425
 10
239.7062036211
 20
125.1548937347
 10
239.7241520698
 20
125.1675788138
  0
LINE
  5
1CA
330
1F
100
AcDbEntity
  8
0
  6
SLD-Gestrichelt
 62
     7
370
     0
100
AcDbLine
 10
240.5941489155
 20
124.1698738944
 30
0.0
 11
240.5941489155
 21
124.4574383657
 31
0.0
  0
LINE
  5
1CB
330
1F
100
AcDbEntity
  8
0
  6
SLD-Gestrichelt
 62
     7
370
     0
100
AcDbLine
 10
240.5941489155
 20
130.4574379522
 30
0.0
 11
240.5941489155
 21
130.1698734809
 31
0.0
  0
LWPOLYLINE
  5
1CC
330
1F
100
AcDbEntity
  8
0
  6
SLD-Gestrichelt
 62
     7
370
     0
100
AcDbPolyline
 90
        6
 70
   128
 43
0.0
 10
240.5941489155
 20
130.4574379522
 10
240.2629035527
 20
130.6486822489
 10
240.0929036553
 20
130.7468334038
 10
240.1184144432
 20
130.7321036059
 10
240.3074803765
 20
130.6229470122
 10
240.5941489155
 20
130.4574379522
  0
LINE
  5
1CD
330
1F
100
AcDbEntity
  8
0
  6
SLD-Gestrichelt
 62
     7
370
     0
100
AcDbLine
 10
240.5941489155
 20
128.9574386377
 30
0.0
 11
240.5941489155
 21
128.6698741663
 31
0.0
  0
ARC
  5
1CE
330
1F
100
AcDbEntity
  8
0
  6
SLD-Gestrichelt
 62
     7
370
     0
100
AcDbCircle
 10
239.7841491882
 20
129.5636555936
 30
0.0
 40
0.1199985401923135
100
AcDbArc
 50
119.9988137041
 51
240.0011862959
  0
LINE
  5
1CF
330
1F
100
AcDbEntity
  8
0
  6
SLD-Gestrichelt
 62
     7
370
     0
100
AcDbLine
 10
240.5941489155
 20
127.4574383918
 30
0.0
 11
240.5941489155
 21
127.1698739204
 31
0.0
  0
ARC
  5
1D0
330
1F
100
AcDbEntity
  8
0
  6
SLD-Gestrichelt
 62
     7
370
     0
100
AcDbCircle
 10
239.7841462241
 20
128.0636562791
 30
0.0
 40
0.1199970582069525
100
AcDbArc
 50
119.9975880007
 51
240.0024119993
  0
LINE
  5
1D1
330
1F
100
AcDbEntity
  8
0
  6
SLD-Gestrichelt
 62
     7
370
     0
100
AcDbLine
 10
240.5941489155
 20
125.9574381459
 30
0.0
 11
240.5941489155
 21
125.6698736746
 31
0.0
  0
ARC
  5
1D2
330
1F
100
AcDbEntity
  8
0
  6
SLD-Gestrichelt
 62
     7
370
     0
100
AcDbCircle
 10
239.7841475368
 20
126.5636560332
 30
0.0
 40
0.11999771453988
100
AcDbArc
 50
119.9981308423
 51
240.0018691577
  0
LINE
  5
1D3
330
1F
100
AcDbEntity
  8
0
  6
SLD-Gestrichelt
 62
     7
370
     0
100
AcDbLine
 10
240.5941489155
 20
124.4574383657
 30
0.0
 11
240.5941489155
 21
124.1698738944
 31
0.0
  0
LWPOLYLINE
  5
1D4
330
1F
100
AcDbEntity
  8
0
  6
SLD-Gestrichelt
 62
     7
370
     0
100
AcDbPolyline
 90
        3
 70
   128
 43
0.0
 10
240.5941489155
 20
125.6698736746
 10
240.1260885412
 20
125.3996392537
 10
239.7241520698
 20
125.1675788138
  0
LWPOLYLINE
  5
1D5
330
1F
100
AcDbEntity
  8
0
  6
SLD-Gestrichelt
 62
     7
370
     0
100
AcDbPolyline
 90
       10
 70
   128
 43
0.0
 10
239.7241520698
 20
125.1675788138
 10
239.6707314069
 20
125.102842116
 10
239.6642046983
 20
125.0672777008
 10
239.6691146309
 20
125.0294920813
 10
239.6748739297
 20
125.014081021
 10
239.6842989142
 20
124.9971062701
 10
239.6935376341
 20
124.9849823128
 10
239.7041919644
 20
124.974178971
 10
239.7184821779
 20
124.9632205639
 10
239.7241520698
 20
124.9597327608
  0
LWPOLYLINE
  5
1D6
330
1F
100
AcDbEntity
  8
0
  6
SLD-Gestrichelt
 62
     7
370
     0
100
AcDbPolyline
 90
        5
 70
   128
 43
0.0
 10
240.5941489155
 20
124.1698738944
 10
240.362026077
 20
124.0358561102
 10
240.272954386
 20
123.984430806
 10
240.3522583658
 20
124.0302160207
 10
240.5941489155
 20
124.1698738944
  0
LINE
  5
1D7
330
1F
100
AcDbEntity
  8
0
  6
SLD-Gestrichelt
 62
     7
370
     0
100
AcDbLine
 10
223.7941551025
 20
124.9631507147
 30
0.0
 11
223.7941551025
 21
129.9631506029
 31
0.0
  0
LINE
  5
1D8
330
1F
100
AcDbEntity
  8
0
  6
SLD-Gestrichelt
 62
     7
370
     0
100
AcDbLine
 10
223.7941551025
 20
105.164161307
 30
0.0
 11
223.7941551025
 21
110.1641611952
 31
0.0
  0
LINE
  5
1D9
330
1F
100
AcDbEntity
  8
0
  6
SLD-Gestrichelt
 62
     7
370
     0
100
AcDbLine
 10
137.2211839075
 20
108.0009624187
 30
0.0
 11
137.2211839075
 21
127.1263494912
 31
0.0
  0
LINE
  5
1DA
330
1F
100
AcDbEntity
  8
0
  6
SLD-Gestrichelt
 62
     7
370
     0
100
AcDbLine
 10
136.1941511745
 20
107.4121467594
 30
0.0
 11
136.1941511745
 21
127.7151651505
 31
0.0
  0
LINE
  5
1DB
330
1F
100
AcDbEntity
  8
0
  6
SLD-Gestrichelt
 62
     7
370
     0
100
AcDbLine
 10
140.7211835499
 20
108.3327162836
 30
0.0
 11
140.7211835499
 21
126.7945956264
 31
0.0
  0
LINE
  5
1DC
330
1F
100
AcDbEntity
  8
0
  6
SLD-Gestrichelt
 62
     7
370
     0
100
AcDbLine
 10
158.4941513606
 20
107.1013169188
 30
0.0
 11
158.4941513606
 21
104.4435569841
 31
0.0
  0
LINE
  5
1DD
330
1F
100
AcDbEntity
  8
0
  6
SLD-Gestrichelt
 62
     7
370
     0
100
AcDbLine
 10
137.6941504891
 20
107.5538744975
 30
0.0
 11
137.6941504891
 21
105.1358612079
 31
0.0
  0
LINE
  5
1DE
330
1F
100
AcDbEntity
  8
0
  6
SLD-Gestrichelt
 62
     7
370
     0
100
AcDbLine
 10
140.3941514904
 20
105.0725089211
 30
0.0
 11
137.6941504891
 21
105.1358612079
 31
0.0
  0
LWPOLYLINE
  5
1DF
330
1F
100
AcDbEntity
  8
0
  6
SLD-Gestrichelt
 62
     7
370
     0
100
AcDbPolyline
 90
        5
 70
   128
 43
0.0
 10
142.098093685
 20
104.8557529051
 10
142.1021318997
 20
104.8553999338
 10
142.0211981053
 20
104.862511513
 10
141.5429732765
 20
104.910984059
 10
140.3941514904
 20
105.0725089211
  0
LWPOLYLINE
  5
1E0
330
1F
100
AcDbEntity
  8
0
  6
SLD-Gestrichelt
 62
     7
370
     0
100
AcDbPolyline
 90
       10
 70
   128
 43
0.0
 10
146.7616737823
 20
104.8049678851
 10
146.9034238721
 20
104.8124110151
 10
147.3377089019
 20
104.8352153797
 10
148.1457085351
 20
104.8522054974
 10
149.0517792294
 20
104.8358030442
 10
149.9443680982
 20
104.783158173
 10
150.6970238874
 20
104.7109946433
 10
151.1965005661
 20
104.6493261877
 10
151.3905062343
 20
104.6224538062
 10
151.3757317329
 20
104.6245343808
  0
LWPOLYLINE
  5
1E1
330
1F
100
AcDbEntity
  8
0
  6
SLD-Gestrichelt
 62
     7
370
     0
100
AcDbPolyline
 90
        5
 70
   128
 43
0.0
 10
146.161052678
 20
104.7574983734
 10
146.1603644306
 20
104.7574341122
 10
146.4172492737
 20
104.7797243867
 10
146.4925550858
 20
104.7852434043
 10
146.7616737823
 20
104.8049678851
  0
LINE
  5
1E2
330
1F
100
AcDbEntity
  8
0
  6
SLD-Gestrichelt
 62
     7
370
     0
100
AcDbLine
 10
144.1211833621
 20
108.5636563424
 30
0.0
 11
144.1211833621
 21
126.5636555675
 31
0.0
  0
LINE
  5
1E3
330
1F
100
AcDbEntity
  8
0
  6
SLD-Gestrichelt
 62
     7
370
     0
100
AcDbLine
 10
139.3211840654
 20
108.5636563424
 30
0.0
 11
139.3211840654
 21
126.5636555675
 31
0.0
  0
LINE
  5
1E4
330
1F
100
AcDbEntity
  8
0
  6
SLD-Gestrichelt
 62
     7
370
     0
100
AcDbLine
 10
140.3211842293
 20
108.5636563424
 30
0.0
 11
140.3211842293
 21
126.5636555675
 31
0.0
  0
LINE
  5
1E5
330
1F
100
AcDbEntity
  8
0
  6
SLD-Gestrichelt
 62
     7
370
     0
100
AcDbLine
 10
159.9941513882
 20
106.3109509472
 30
0.0
 11
159.9941513882
 21
104.4108964328
 31
0.0
  0
LWPOLYLINE
  5
1E6
330
1F
100
AcDbEntity
  8
0
  6
SLD-Gestrichelt
 62
     7
370
     0
100
AcDbPolyline
 90
        6
 70
   128
 43
0.0
 10
150.6941516886
 20
108.6356103245
 10
150.8938570509
 20
108.6304936383
 10
150.9822730909
 20
108.6595341388
 10
150.9927765469
 20
108.6629837576
 10
150.8455391044
 20
108.6240488861
 10
150.6941516886
 20
108.6356103245
  0
LWPOLYLINE
  5
1E7
330
1F
100
AcDbEntity
  8
0
  6
SLD-Gestrichelt
 62
     7
370
     0
100
AcDbPolyline
 90
        6
 70
   128
 43
0.0
 10
150.6941516886
 20
126.4917015854
 10
150.8938570509
 20
126.4968182716
 10
150.9822833354
 20
126.4677749771
 10
150.9927765469
 20
126.4643281523
 10
150.8455391044
 20
126.5032630239
 10
150.6941516886
 20
126.4917015854
  0
LINE
  5
1E8
330
1F
100
AcDbEntity
  8
0
  6
SLD-Gestrichelt
 62
     7
370
     0
100
AcDbLine
 10
151.1941517706
 20
109.063655493
 30
0.0
 11
151.1941517706
 21
126.0636564169
 31
0.0
  0
ARC
  5
1E9
330
1F
100
AcDbEntity
  8
0
  6
SLD-Gestrichelt
 62
     7
370
     0
100
AcDbCircle
 10
148.6802109051
 20
99.7087375114
 30
0.0
 40
9.151230283504972
100
AcDbArc
 50
77.2866659709
 51
104.4494395912
  0
ARC
  5
1EA
330
1F
100
AcDbEntity
  8
0
  6
SLD-Gestrichelt
 62
     7
370
     0
100
AcDbCircle
 10
148.6802109051
 20
135.4185743986
 30
0.0
 40
9.151230283504985
100
AcDbArc
 50
255.5505604088
 51
282.7133340291
  0
LINE
  5
1EB
330
1F
100
AcDbEntity
  8
0
  6
SLD-Gestrichelt
 62
     7
370
     0
100
AcDbLine
 10
152.094151173
 20
111.3136558618
 30
0.0
 11
152.094151173
 21
123.8136560481
 31
0.0
  0
LINE
  5
1EC
330
1F
100
AcDbEntity
  8
0
  6
SLD-Gestrichelt
 62
     7
370
     0
100
AcDbLine
 10
151.1941517706
 20
110.4303243395
 30
0.0
 11
151.1941517706
 21
124.6969875704
 31
0.0
  0
LINE
  5
1ED
330
1F
100
AcDbEntity
  8
0
  6
SLD-Gestrichelt
 62
     7
370
     0
100
AcDbLine
 10
239.5941543395
 20
111.5636559028
 30
0.0
 11
239.5941543395
 21
123.5636560071
 31
0.0
  0
LINE
  5
1EE
330
1F
100
AcDbEntity
  8
0
  6
SLD-Gestrichelt
 62
     7
370
     0
100
AcDbLine
 10
240.5941489155
 20
124.4574383657
 30
0.0
 11
240.5941489155
 21
124.1698738944
 31
0.0
  0
LWPOLYLINE
  5
1EF
330
1F
100
AcDbEntity
  8
0
  6
SLD-Gestrichelt
 62
     7
370
     0
100
AcDbPolyline
 90
        4
 70
   128
 43
0.0
 10
240.5941489155
 20
124.1698738944
 10
240.1994842107
 20
123.9420123223
 10
239.8727837021
 20
123.7533924926
 10
239.7241520698
 20
123.6675790336
  0
LWPOLYLINE
  5
1F0
330
1F
100
AcDbEntity
  8
0
  6
SLD-Gestrichelt
 62
     7
370
     0
100
AcDbPolyline
 90
       16
 70
   128
 43
0.0
 10
239.7241520698
 20
123.6675790336
 10
239.7224235351
 20
123.666562495
 10
239.7170218641
 20
123.6631221894
 10
239.7129091437
 20
123.6602183256
 10
239.7096234376
 20
123.65770748
 10
239.7057044322
 20
123.6544655461
 10
239.7034767086
 20
123.6524888139
 10
239.7012191827
 20
123.6503849562
 10
239.699490648
 20
123.6487020563
 10
239.6977546627
 20
123.6469390627
 10
239.6958622153
 20
123.6449264746
 10
239.6932768638
 20
123.6420281987
 10
239.6879496987
 20
123.6353897314
 10
239.6763938482
 20
123.6164568748
 10
239.6641525442
 20
123.563319334
 10
239.7241520698
 20
123.4597329806
  0
LWPOLYLINE
  5
1F1
330
1F
100
AcDbEntity
  8
0
  6
SLD-Gestrichelt
 62
     7
370
     0
100
AcDbPolyline
 90
        3
 70
   128
 43
0.0
 10
239.7241520698
 20
123.4597329806
 10
240.0730031545
 20
123.2583237637
 10
240.5941489155
 20
122.9574381199
  0
LINE
  5
1F2
330
1F
100
AcDbEntity
  8
0
  6
SLD-Gestrichelt
 62
     7
370
     0
100
AcDbLine
 10
240.5941489155
 20
122.9574381199
 30
0.0
 11
240.5941489155
 21
122.6698736485
 31
0.0
  0
ARC
  5
1F3
330
1F
100
AcDbEntity
  8
0
  6
SLD-Gestrichelt
 62
     7
370
     0
100
AcDbCircle
 10
239.784153995
 20
122.0636557612
 30
0.0
 40
0.1200009435729741
100
AcDbArc
 50
120.0008013036
 51
239.9991986964
  0
LINE
  5
1F4
330
1F
100
AcDbEntity
  8
0
  6
SLD-Gestrichelt
 62
     7
370
     0
100
AcDbLine
 10
240.5941489155
 20
121.4574381068
 30
0.0
 11
240.5941489155
 21
121.1698736355
 31
0.0
  0
ARC
  5
1F5
330
1F
100
AcDbEntity
  8
0
  6
SLD-Gestrichelt
 62
     7
370
     0
100
AcDbCircle
 10
239.7841480844
 20
120.563655981
 30
0.0
 40
0.1199979883345984
100
AcDbArc
 50
119.9983572889
 51
240.0016427111
  0
LINE
  5
1F6
330
1F
100
AcDbEntity
  8
0
  6
SLD-Gestrichelt
 62
     7
370
     0
100
AcDbLine
 10
240.5941489155
 20
119.9574380938
 30
0.0
 11
240.5941489155
 21
119.6698736224
 31
0.0
  0
ARC
  5
1F7
330
1F
100
AcDbEntity
  8
0
  6
SLD-Gestrichelt
 62
     7
370
     0
100
AcDbCircle
 10
239.7841452704
 20
119.063655968
 30
0.0
 40
0.1199965813992208
100
AcDbArc
 50
119.997193632
 51
240.002806368
  0
LINE
  5
1F8
330
1F
100
AcDbEntity
  8
0
  6
SLD-Gestrichelt
 62
     7
370
     0
100
AcDbLine
 10
240.5941489155
 20
118.4574381972
 30
0.0
 11
240.5941489155
 21
118.1698737258
 31
0.0
  0
ARC
  5
1F9
330
1F
100
AcDbEntity
  8
0
  6
SLD-Gestrichelt
 62
     7
370
     0
100
AcDbCircle
 10
239.7841500359
 20
117.563655955
 30
0.0
 40
0.1199989829412928
100
AcDbArc
 50
119.9991590284
 51
240.0008409716
  0
LINE
  5
1FA
330
1F
100
AcDbEntity
  8
0
  6
SLD-Gestrichelt
 62
     7
370
     0
100
AcDbLine
 10
240.5941489155
 20
116.9574381841
 30
0.0
 11
240.5941489155
 21
116.6698737128
 31
0.0
  0
ARC
  5
1FB
330
1F
100
AcDbEntity
  8
0
  6
SLD-Gestrichelt
 62
     7
370
     0
100
AcDbCircle
 10
239.784148129
 20
116.0636559419
 30
0.0
 40
0.1199980106179229
100
AcDbArc
 50
119.9983757185
 51
240.0016242815
  0
LINE
  5
1FC
330
1F
100
AcDbEntity
  8
0
  6
SLD-Gestrichelt
 62
     7
370
     0
100
AcDbLine
 10
240.5941489155
 20
115.4574382875
 30
0.0
 11
240.5941489155
 21
115.1698738161
 31
0.0
  0
ARC
  5
1FD
330
1F
100
AcDbEntity
  8
0
  6
SLD-Gestrichelt
 62
     7
370
     0
100
AcDbCircle
 10
239.7841495815
 20
114.5636559289
 30
0.0
 40
0.1199987368276228
100
AcDbArc
 50
119.9989763293
 51
240.0010236707
  0
LINE
  5
1FE
330
1F
100
AcDbEntity
  8
0
  6
SLD-Gestrichelt
 62
     7
370
     0
100
AcDbLine
 10
240.5941489155
 20
113.9574382745
 30
0.0
 11
240.5941489155
 21
113.6698738031
 31
0.0
  0
ARC
  5
1FF
330
1F
100
AcDbEntity
  8
0
  6
SLD-Gestrichelt
 62
     7
370
     0
100
AcDbCircle
 10
239.7841482778
 20
113.0636561487
 30
0.0
 40
0.1199980850050232
100
AcDbArc
 50
119.9984372411
 51
240.0015627589
  0
LINE
  5
200
330
1F
100
AcDbEntity
  8
0
  6
SLD-Gestrichelt
 62
     7
370
     0
100
AcDbLine
 10
240.5941489155
 20
112.4574382614
 30
0.0
 11
240.5941489155
 21
112.1698737901
 31
0.0
  0
LWPOLYLINE
  5
201
330
1F
100
AcDbEntity
  8
0
  6
SLD-Gestrichelt
 62
     7
370
     0
100
AcDbPolyline
 90
        3
 70
   128
 43
0.0
 10
240.5941489155
 20
112.1698737901
 10
240.0811540897
 20
111.8736945849
 10
239.7241520698
 20
111.6675789293
  0
LWPOLYLINE
  5
202
330
1F
100
AcDbEntity
  8
0
  6
SLD-Gestrichelt
 62
     7
370
     0
100
AcDbPolyline
 90
       16
 70
   128
 43
0.0
 10
239.7241520698
 20
111.6675789293
 10
239.6949457938
 20
111.6439200763
 10
239.676699322
 20
111.510226858
 10
239.6810057575
 20
111.5023338992
 10
239.6844330246
 20
111.4969038229
 10
239.6873313005
 20
111.4927626971
 10
239.6898421461
 20
111.4894578989
 10
239.6930756981
 20
111.4855221297
 10
239.695050102
 20
111.4832743827
 10
239.6971511657
 20
111.4810084749
 10
239.6988275463
 20
111.4792776119
 10
239.7005858833
 20
111.4775360387
 10
239.7025900895
 20
111.475635675
 10
239.7054734642
 20
111.4730503235
 10
239.7120597775
 20
111.467723624
 10
239.7241520698
 20
111.4597328763
  0
LWPOLYLINE
  5
203
330
1F
100
AcDbEntity
  8
0
  6
SLD-Gestrichelt
 62
     7
370
     0
100
AcDbPolyline
 90
        4
 70
   128
 43
0.0
 10
239.7241520698
 20
111.4597328763
 10
239.9576011116
 20
111.3249504763
 10
240.3157654221
 20
111.1181633372
 10
240.5941489155
 20
110.9574380155
  0
LINE
  5
204
330
1F
100
AcDbEntity
  8
0
  6
SLD-Gestrichelt
 62
     7
370
     0
100
AcDbLine
 10
240.5941489155
 20
110.9574380155
 30
0.0
 11
240.5941489155
 21
110.6698735442
 31
0.0
  0
LINE
  5
205
330
1F
100
AcDbEntity
  8
0
  6
SLD-Gestrichelt
 62
     7
370
     0
100
AcDbLine
 10
240.5941489155
 20
110.6698735442
 30
0.0
 11
240.5941489155
 21
110.9574380155
 31
0.0
  0
LINE
  5
206
330
1F
100
AcDbEntity
  8
0
  6
SLD-Gestrichelt
 62
     7
370
     0
100
AcDbLine
 10
240.5941489155
 20
124.1698738944
 30
0.0
 11
240.5941489155
 21
124.4574383657
 31
0.0
  0
LINE
  5
207
330
1F
100
AcDbEntity
  8
0
  6
SLD-Gestrichelt
 62
     7
370
     0
100
AcDbLine
 10
240.5941489155
 20
124.4574383657
 30
0.0
 11
240.5268180186
 21
124.4963140983
 31
0.0
  0
LINE
  5
208
330
1F
100
AcDbEntity
  8
0
  6
SLD-Gestrichelt
 62
     7
370
     0
100
AcDbLine
 10
240.5941489155
 20
110.6698735442
 30
0.0
 11
240.5268180186
 21
110.6309978116
 31
0.0
  0
LINE
  5
209
330
1F
100
AcDbEntity
  8
0
  6
SLD-Gestrichelt
 62
     7
370
     0
100
AcDbLine
 10
240.5941489155
 20
112.1698737901
 30
0.0
 11
240.5941489155
 21
112.4574382614
 31
0.0
  0
LINE
  5
20A
330
1F
100
AcDbEntity
  8
0
  6
SLD-Gestrichelt
 62
     7
370
     0
100
AcDbLine
 10
240.5941489155
 20
122.6698736485
 30
0.0
 11
240.5941489155
 21
122.9574381199
 31
0.0
  0
LINE
  5
20B
330
1F
100
AcDbEntity
  8
0
  6
SLD-Gestrichelt
 62
     7
370
     0
100
AcDbLine
 10
240.5941489155
 20
113.6698738031
 30
0.0
 11
240.5941489155
 21
113.9574382745
 31
0.0
  0
LINE
  5
20C
330
1F
100
AcDbEntity
  8
0
  6
SLD-Gestrichelt
 62
     7
370
     0
100
AcDbLine
 10
240.5941489155
 20
121.1698736355
 30
0.0
 11
240.5941489155
 21
121.4574381068
 31
0.0
  0
LINE
  5
20D
330
1F
100
AcDbEntity
  8
0
  6
SLD-Gestrichelt
 62
     7
370
     0
100
AcDbLine
 10
240.5941489155
 20
115.1698738161
 30
0.0
 11
240.5941489155
 21
115.4574382875
 31
0.0
  0
LINE
  5
20E
330
1F
100
AcDbEntity
  8
0
  6
SLD-Gestrichelt
 62
     7
370
     0
100
AcDbLine
 10
240.5941489155
 20
119.6698736224
 30
0.0
 11
240.5941489155
 21
119.9574380938
 31
0.0
  0
LWPOLYLINE
  5
20F
330
1F
100
AcDbEntity
  8
0
  6
SLD-Gestrichelt
 62
     7
370
     0
100
AcDbPolyline
 90
        4
 70
   128
 43
0.0
 10
239.7241520698
 20
123.6675790336
 10
239.9576011116
 20
123.8023614336
 10
240.3157654221
 20
124.0091485727
 10
240.5941489155
 20
124.1698738944
  0
LWPOLYLINE
  5
210
330
1F
100
AcDbEntity
  8
0
  6
SLD-Gestrichelt
 62
     7
370
     0
100
AcDbPolyline
 90
        4
 70
   128
 43
0.0
 10
240.5941489155
 20
110.9574380155
 10
240.1994842107
 20
111.1852995876
 10
239.8727837021
 20
111.3739194173
 10
239.7241520698
 20
111.4597328763
  0
LWPOLYLINE
  5
211
330
1F
100
AcDbEntity
  8
0
  6
SLD-Gestrichelt
 62
     7
370
     0
100
AcDbPolyline
 90
        3
 70
   128
 43
0.0
 10
240.5941489155
 20
122.9574381199
 10
240.0811540897
 20
123.253617325
 10
239.7241520698
 20
123.4597329806
  0
LWPOLYLINE
  5
212
330
1F
100
AcDbEntity
  8
0
  6
SLD-Gestrichelt
 62
     7
370
     0
100
AcDbPolyline
 90
        3
 70
   128
 43
0.0
 10
239.7241520698
 20
111.6675789293
 10
240.0730031545
 20
111.8689881462
 10
240.5941489155
 20
112.1698737901
  0
LINE
  5
213
330
1F
100
AcDbEntity
  8
0
  6
SLD-Gestrichelt
 62
     7
370
     0
100
AcDbLine
 10
240.5941489155
 20
118.1698737258
 30
0.0
 11
240.5941489155
 21
118.4574381972
 31
0.0
  0
LINE
  5
214
330
1F
100
AcDbEntity
  8
0
  6
SLD-Gestrichelt
 62
     7
370
     0
100
AcDbLine
 10
240.5941489155
 20
116.6698737128
 30
0.0
 11
240.5941489155
 21
116.9574381841
 31
0.0
  0
LWPOLYLINE
  5
215
330
1F
100
AcDbEntity
  8
0
  6
SLD-Gestrichelt
 62
     7
370
     0
100
AcDbPolyline
 90
       16
 70
   128
 43
0.0
 10
239.7241520698
 20
123.4597329806
 10
239.6949457938
 20
123.4833918337
 10
239.676699322
 20
123.6170850519
 10
239.6810057575
 20
123.6249780107
 10
239.6844330246
 20
123.630408087
 10
239.6873313005
 20
123.6345492128
 10
239.6898421461
 20
123.637854011
 10
239.6930756981
 20
123.6417897802
 10
239.695050102
 20
123.6440375272
 10
239.6971511657
 20
123.646303435
 10
239.6988275463
 20
123.648034298
 10
239.7005858833
 20
123.6497758712
 10
239.7025900895
 20
123.651676235
 10
239.7054734642
 20
123.6542615864
 10
239.7120597775
 20
123.6595882859
 10
239.7241520698
 20
123.6675790336
  0
LWPOLYLINE
  5
216
330
1F
100
AcDbEntity
  8
0
  6
SLD-Gestrichelt
 62
     7
370
     0
100
AcDbPolyline
 90
       16
 70
   128
 43
0.0
 10
239.7241520698
 20
111.4597328763
 10
239.7224235351
 20
111.4607494149
 10
239.7170218641
 20
111.4641897205
 10
239.7129091437
 20
111.4670935843
 10
239.7096234376
 20
111.46960443
 10
239.7057044322
 20
111.4728463638
 10
239.7034767086
 20
111.474823096
 10
239.7012191827
 20
111.4769269537
 10
239.699490648
 20
111.4786098536
 10
239.6977546627
 20
111.4803728472
 10
239.6958622153
 20
111.4823854353
 10
239.6932768638
 20
111.4852837112
 10
239.6879496987
 20
111.4919221785
 10
239.6763938482
 20
111.5108550351
 10
239.6641525442
 20
111.5639925759
 10
239.7241520698
 20
111.6675789293
  0
ARC
  5
217
330
1F
100
AcDbEntity
  8
0
  6
SLD-Gestrichelt
 62
     7
370
     0
100
AcDbCircle
 10
239.7841482778
 20
122.0636557612
 30
0.0
 40
0.1199980850050232
100
AcDbArc
 50
119.9984372411
 51
240.0015627589
  0
ARC
  5
218
330
1F
100
AcDbEntity
  8
0
  6
SLD-Gestrichelt
 62
     7
370
     0
100
AcDbCircle
 10
239.784153995
 20
113.0636561487
 30
0.0
 40
0.1200009435729741
100
AcDbArc
 50
120.0008013036
 51
239.9991986964
  0
ARC
  5
219
330
1F
100
AcDbEntity
  8
0
  6
SLD-Gestrichelt
 62
     7
370
     0
100
AcDbCircle
 10
239.7841495815
 20
120.563655981
 30
0.0
 40
0.1199987368276228
100
AcDbArc
 50
119.9989763293
 51
240.0010236707
  0
ARC
  5
21A
330
1F
100
AcDbEntity
  8
0
  6
SLD-Gestrichelt
 62
     7
370
     0
100
AcDbCircle
 10
239.7841480844
 20
114.5636559289
 30
0.0
 40
0.1199979883345984
100
AcDbArc
 50
119.9983572889
 51
240.0016427111
  0
ARC
  5
21B
330
1F
100
AcDbEntity
  8
0
  6
SLD-Gestrichelt
 62
     7
370
     0
100
AcDbCircle
 10
239.784148129
 20
119.063655968
 30
0.0
 40
0.1199980106179229
100
AcDbArc
 50
119.9983757185
 51
240.0016242815
  0
ARC
  5
21C
330
1F
100
AcDbEntity
  8
0
  6
SLD-Gestrichelt
 62
     7
370
     0
100
AcDbCircle
 10
239.7841452704
 20
116.0636559419
 30
0.0
 40
0.1199965813992208
100
AcDbArc
 50
119.997193632
 51
240.002806368
  0
ARC
  5
21D
330
1F
100
AcDbEntity
  8
0
  6
SLD-Gestrichelt
 62
     7
370
     0
100
AcDbCircle
 10
239.7841500359
 20
117.563655955
 30
0.0
 40
0.1199989829412928
100
AcDbArc
 50
119.9991590284
 51
240.0008409716
  0
LINE
  5
21E
330
1F
100
AcDbEntity
  8
0
  6
SLD-Gestrichelt
 62
     7
370
     0
100
AcDbLine
 10
171.1941513235
 20
111.3136558618
 30
0.0
 11
171.1941513235
 21
123.8136560481
 31
0.0
  0
LINE
  5
21F
330
1F
100
AcDbEntity
  8
0
  6
SLD-Gestrichelt
 62
     7
370
     0
100
AcDbLine
 10
172.9066039438
 20
114.1636559099
 30
0.0
 11
172.9066039438
 21
120.963656
 31
0.0
  0
LWPOLYLINE
  5
220
330
1F
100
AcDbEntity
  8
0
  6
SLD-Gestrichelt
 62
     7
370
     0
100
AcDbPolyline
 90
        4
 70
   128
 43
0.0
 10
158.4941513606
 20
131.9363716815
 10
158.3340592219
 20
132.2928335342
 10
158.2571670183
 20
132.4653982941
 10
158.2616070986
 20
132.4554117221
  0
LINE
  5
221
330
1F
100
AcDbEntity
  8
0
  6
SLD-Gestrichelt
 62
     7
370
     0
100
AcDbLine
 10
137.6941504891
 20
130.9322830114
 30
0.0
 11
137.6941504891
 21
131.9611867715
 31
0.0
  0
LINE
  5
222
330
1F
100
AcDbEntity
  8
0
  6
SLD-Gestrichelt
 62
     7
370
     0
100
AcDbLine
 10
158.4941513606
 20
131.3848405901
 30
0.0
 11
158.4941513606
 21
131.9363716815
 31
0.0
  0
LINE
  5
223
330
1F
100
AcDbEntity
  8
0
  6
SLD-Gestrichelt
 62
     7
370
     0
100
AcDbLine
 10
136.1941511745
 20
130.1822833542
 30
0.0
 11
136.1941511745
 21
131.0951610852
 31
0.0
  0
LWPOLYLINE
  5
224
330
1F
100
AcDbEntity
  8
0
  6
SLD-Gestrichelt
 62
     7
370
     0
100
AcDbPolyline
 90
       15
 70
   128
 43
0.0
 10
158.6991113613
 20
131.7270271305
 10
158.6241568907
 20
131.8738752801
 10
158.5987307366
 20
131.9151375268
 10
158.5879235531
 20
131.9310370657
 10
158.5790052081
 20
131.943305378
 10
158.5674465636
 20
131.9578992028
 10
158.5618991407
 20
131.964309496
 10
158.5553942018
 20
131.971267407
 10
158.550630254
 20
131.9759361271
 10
158.5461715472
 20
131.9799417455
 10
158.540497348
 20
131.9844633166
 10
158.5324974034
 20
131.9895474065
 10
158.5164125313
 20
131.9932121608
 10
158.4959007336
 20
131.9591844279
 10
158.4941513606
 20
131.9363716815
  0
LINE
  5
225
330
1F
100
AcDbEntity
  8
0
  6
SLD-Gestrichelt
 62
     7
370
     0
100
AcDbLine
 10
158.8728310776
 20
131.3499625597
 30
0.0
 11
158.6991113613
 21
131.7270271305
 31
0.0
  0
LINE
  5
226
330
1F
100
AcDbEntity
  8
0
  6
SLD-Gestrichelt
 62
     7
370
     0
100
AcDbLine
 10
238.1441521461
 20
113.8636559538
 30
0.0
 11
238.1441521461
 21
121.2636559561
 31
0.0
  0
LINE
  5
227
330
1F
100
AcDbEntity
  8
0
  6
SLD-Gestrichelt
 62
     7
370
     0
100
AcDbLine
 10
236.6441491062
 20
113.8636559538
 30
0.0
 11
236.6441491062
 21
121.2636559561
 31
0.0
  0
LINE
  5
228
330
1F
100
AcDbEntity
  8
0
  6
SLD-Gestrichelt
 62
     7
370
     0
100
AcDbLine
 10
234.2941540296
 20
114.1636559099
 30
0.0
 11
234.2941540296
 21
120.963656
 31
0.0
  0
LINE
  5
229
330
1F
100
AcDbEntity
  8
0
  6
SLD-Gestrichelt
 62
     7
370
     0
100
AcDbLine
 10
234.5344948585
 20
114.5636559289
 30
0.0
 11
234.5344948585
 21
120.563655981
 31
0.0
  0
LINE
  5
22A
330
1F
100
AcDbEntity
  8
0
  6
SLD-Gestrichelt
 62
     7
370
     0
100
AcDbLine
 10
239.1611414964
 20
114.5636559289
 30
0.0
 11
239.1611414964
 21
120.563655981
 31
0.0
  0
LINE
  5
22B
330
1F
100
AcDbEntity
  8
0
  6
SLD-Gestrichelt
 62
     7
370
     0
100
AcDbLine
 10
239.5941543395
 20
120.8094846282
 30
0.0
 11
239.5941543395
 21
114.3178272817
 31
0.0
  0
LINE
  5
22C
330
1F
100
AcDbEntity
  8
0
  6
SLD-Gestrichelt
 62
     7
370
     0
100
AcDbLine
 10
238.1441521461
 20
114.5800902799
 30
0.0
 11
238.1441521461
 21
120.5472216301
 31
0.0
  0
LINE
  5
22D
330
1F
100
AcDbEntity
  8
0
  6
SLD-Gestrichelt
 62
     7
370
     0
100
AcDbLine
 10
236.6441491062
 20
114.5800902799
 30
0.0
 11
236.6441491062
 21
120.5472216301
 31
0.0
  0
LINE
  5
22E
330
1F
100
AcDbEntity
  8
0
  6
SLD-Gestrichelt
 62
     7
370
     0
100
AcDbLine
 10
146.3941515426
 20
105.0219334487
 30
0.0
 11
150.994151179
 21
105.0219334487
 31
0.0
  0
LINE
  5
22F
330
1F
100
AcDbEntity
  8
0
  6
SLD-Gestrichelt
 62
     7
370
     0
100
AcDbLine
 10
140.3941514904
 20
105.0725089211
 30
0.0
 11
140.3941514904
 21
106.5636560146
 31
0.0
  0
LWPOLYLINE
  5
230
330
1F
100
AcDbEntity
  8
0
  6
SLD-Gestrichelt
 62
     7
370
     0
100
AcDbPolyline
 90
        3
 70
   128
 43
0.0
 10
137.6941504891
 20
105.1358612079
 10
136.9323006833
 20
105.5412715126
 10
136.1941511745
 20
105.9251617465
  0
LINE
  5
231
330
1F
100
AcDbEntity
  8
0
  6
SLD-Gestrichelt
 62
     7
370
     0
100
AcDbLine
 10
136.1941511745
 20
105.9251617465
 30
0.0
 11
136.1941511745
 21
106.5636560146
 31
0.0
  0
LINE
  5
232
330
1F
100
AcDbEntity
  8
0
  6
SLD-Gestrichelt
 62
     7
370
     0
100
AcDbLine
 10
146.3941515426
 20
128.5636558954
 30
0.0
 11
150.994151179
 21
128.5636558954
 31
0.0
  0
LINE
  5
233
330
1F
100
AcDbEntity
  8
0
  6
SLD-Gestrichelt
 62
     7
370
     0
100
AcDbLine
 10
170.1941511596
 20
98.0636555526
 30
0.0
 11
174.1941518153
 21
98.0636555526
 31
0.0
  0
LINE
  5
234
330
1F
100
AcDbEntity
  8
0
  6
SLD-Gestrichelt
 62
     7
370
     0
100
AcDbLine
 10
136.1941511745
 20
108.3038741547
 30
0.0
 11
136.1941511745
 21
105.9251617465
 31
0.0
  0
LINE
  5
235
330
1F
100
AcDbEntity
  8
0
  6
SLD-Gestrichelt
 62
     7
370
     0
100
AcDbLine
 10
136.1941511745
 20
130.1822833542
 30
0.0
 11
136.1941511745
 21
114.2048101231
 31
0.0
  0
LINE
  5
236
330
1F
100
AcDbEntity
  8
0
  6
SLD-Gestrichelt
 62
     7
370
     0
100
AcDbLine
 10
137.6941504891
 20
130.9322830114
 30
0.0
 11
137.6941504891
 21
114.2048101231
 31
0.0
  0
LINE
  5
237
330
1F
100
AcDbEntity
  8
0
  6
SLD-Gestrichelt
 62
     7
370
     0
100
AcDbLine
 10
158.4941513606
 20
131.3848405901
 30
0.0
 11
158.4941513606
 21
114.2048101231
 31
0.0
  0
LINE
  5
238
330
1F
100
AcDbEntity
  8
0
  6
SLD-Gestrichelt
 62
     7
370
     0
100
AcDbLine
 10
159.9941513882
 20
130.5333556432
 30
0.0
 11
159.9941513882
 21
115.8466610417
 31
0.0
  0
LINE
  5
239
330
1F
100
AcDbEntity
  8
0
  6
SLD-Gestrichelt
 62
     7
370
     0
100
AcDbLine
 10
239.2941492612
 20
105.1683904428
 30
0.0
 11
239.2941492612
 21
110.1599315937
 31
0.0
  0
LWPOLYLINE
  5
23A
330
1F
100
AcDbEntity
  8
0
  6
SLD-Gestrichelt
 62
     7
370
     0
100
AcDbPolyline
 90
       10
 70
   128
 43
0.0
 10
239.7241520698
 20
109.9597330961
 10
239.6707314069
 20
110.0244697939
 10
239.6642046983
 20
110.0600342091
 10
239.6691146309
 20
110.0978198286
 10
239.6748739297
 20
110.1132308889
 10
239.6842989142
 20
110.1302056398
 10
239.6935376341
 20
110.1423295971
 10
239.7041919644
 20
110.153132939
 10
239.7184821779
 20
110.164091346
 10
239.7241520698
 20
110.1675791491
  0
LWPOLYLINE
  5
23B
330
1F
100
AcDbEntity
  8
0
  6
SLD-Gestrichelt
 62
     7
370
     0
100
AcDbPolyline
 90
        3
 70
   128
 43
0.0
 10
240.5941489155
 20
109.4574382353
 10
240.1260885412
 20
109.7276726562
 10
239.7241520698
 20
109.9597330961
  0
LINE
  5
23C
330
1F
100
AcDbEntity
  8
0
  6
SLD-Gestrichelt
 62
     7
370
     0
100
AcDbLine
 10
240.5941489155
 20
109.169873764
 30
0.0
 11
240.5941489155
 21
109.4574382353
 31
0.0
  0
LINE
  5
23D
330
1F
100
AcDbEntity
  8
0
  6
SLD-Gestrichelt
 62
     7
370
     0
100
AcDbLine
 10
240.5941489155
 20
107.6698735181
 30
0.0
 11
240.5941489155
 21
107.9574379895
 31
0.0
  0
LINE
  5
23E
330
1F
100
AcDbEntity
  8
0
  6
SLD-Gestrichelt
 62
     7
370
     0
100
AcDbLine
 10
240.5941489155
 20
106.1698732722
 30
0.0
 11
240.5941489155
 21
106.4574377436
 31
0.0
  0
LINE
  5
23F
330
1F
100
AcDbEntity
  8
0
  6
SLD-Gestrichelt
 62
     7
370
     0
100
AcDbLine
 10
240.5941489155
 20
104.6698739577
 30
0.0
 11
240.5941489155
 21
104.9574384291
 31
0.0
  0
LINE
  5
240
330
1F
100
AcDbEntity
  8
0
  6
SLD-Gestrichelt
 62
     7
370
     0
100
AcDbLine
 10
240.5941489155
 20
110.6698735442
 30
0.0
 11
240.5941489155
 21
110.9574380155
 31
0.0
  0
LINE
  5
241
330
1F
100
AcDbEntity
  8
0
  6
SLD-Gestrichelt
 62
     7
370
     0
100
AcDbLine
 10
240.5941489155
 20
110.9574380155
 30
0.0
 11
240.5941489155
 21
110.6698735442
 31
0.0
  0
LWPOLYLINE
  5
242
330
1F
100
AcDbEntity
  8
0
  6
SLD-Gestrichelt
 62
     7
370
     0
100
AcDbPolyline
 90
        5
 70
   128
 43
0.0
 10
240.5941489155
 20
110.9574380155
 10
240.362026077
 20
111.0914557997
 10
240.272954386
 20
111.142881104
 10
240.3522583658
 20
111.0970958892
 10
240.5941489155
 20
110.9574380155
  0
LINE
  5
243
330
1F
100
AcDbEntity
  8
0
  6
SLD-Gestrichelt
 62
     7
370
     0
100
AcDbLine
 10
240.5941489155
 20
107.9574379895
 30
0.0
 11
240.5941489155
 21
107.6698735181
 31
0.0
  0
LINE
  5
244
330
1F
100
AcDbEntity
  8
0
  6
SLD-Gestrichelt
 62
     7
370
     0
100
AcDbLine
 10
240.5941489155
 20
106.4574377436
 30
0.0
 11
240.5941489155
 21
106.1698732722
 31
0.0
  0
LINE
  5
245
330
1F
100
AcDbEntity
  8
0
  6
SLD-Gestrichelt
 62
     7
370
     0
100
AcDbLine
 10
240.5941489155
 20
109.4574382353
 30
0.0
 11
240.5941489155
 21
109.169873764
 31
0.0
  0
LINE
  5
246
330
1F
100
AcDbEntity
  8
0
  6
SLD-Gestrichelt
 62
     7
370
     0
100
AcDbLine
 10
240.5941489155
 20
104.9574384291
 30
0.0
 11
240.5941489155
 21
104.6698739577
 31
0.0
  0
LWPOLYLINE
  5
247
330
1F
100
AcDbEntity
  8
0
  6
SLD-Gestrichelt
 62
     7
370
     0
100
AcDbPolyline
 90
        3
 70
   128
 43
0.0
 10
239.7241520698
 20
109.9597330961
 10
240.1210146959
 20
109.7306016657
 10
240.5941489155
 20
109.4574382353
  0
LWPOLYLINE
  5
248
330
1F
100
AcDbEntity
  8
0
  6
SLD-Gestrichelt
 62
     7
370
     0
100
AcDbPolyline
 90
       10
 70
   128
 43
0.0
 10
239.7241520698
 20
110.1675791491
 10
239.7165748293
 20
110.162821022
 10
239.7018375809
 20
110.1509750645
 10
239.6914887244
 20
110.1399072271
 10
239.6827342922
 20
110.1278014306
 10
239.6739724095
 20
110.1112075906
 10
239.6661940033
 20
110.0856846955
 10
239.6663281138
 20
110.040916485
 10
239.7062036211
 20
109.9724181752
 10
239.7241520698
 20
109.9597330961
  0
LWPOLYLINE
  5
249
330
1F
100
AcDbEntity
  8
0
  6
SLD-Gestrichelt
 62
     7
370
     0
100
AcDbPolyline
 90
        6
 70
   128
 43
0.0
 10
240.5941489155
 20
104.6698739577
 10
240.2629035527
 20
104.478629661
 10
240.0929036553
 20
104.3804785061
 10
240.1184144432
 20
104.395208304
 10
240.3074803765
 20
104.5043648977
 10
240.5941489155
 20
104.6698739577
  0
LINE
  5
24A
330
1F
100
AcDbEntity
  8
0
  6
SLD-Gestrichelt
 62
     7
370
     0
100
AcDbLine
 10
239.2941492612
 20
124.9673803162
 30
0.0
 11
239.2941492612
 21
129.9589214671
 31
0.0
  0
LINE
  5
24B
330
1F
100
AcDbEntity
  8
0
  6
SLD-Gestrichelt
 62
     7
370
     0
100
AcDbLine
 10
240.5941489155
 20
130.1698734809
 30
0.0
 11
240.5941489155
 21
130.4574379522
 31
0.0
  0
LINE
  5
24C
330
1F
100
AcDbEntity
  8
0
  6
SLD-Gestrichelt
 62
     7
370
     0
100
AcDbLine
 10
240.5941489155
 20
128.6698741663
 30
0.0
 11
240.5941489155
 21
128.9574386377
 31
0.0
  0
LINE
  5
24D
330
1F
100
AcDbEntity
  8
0
  6
SLD-Gestrichelt
 62
     7
370
     0
100
AcDbLine
 10
240.5941489155
 20
127.1698739204
 30
0.0
 11
240.5941489155
 21
127.4574383918
 31
0.0
  0
LINE
  5
24E
330
1F
100
AcDbEntity
  8
0
  6
SLD-Gestrichelt
 62
     7
370
     0
100
AcDbLine
 10
240.5941489155
 20
125.6698736746
 30
0.0
 11
240.5941489155
 21
125.9574381459
 31
0.0
  0
LWPOLYLINE
  5
24F
330
1F
100
AcDbEntity
  8
0
  6
SLD-Gestrichelt
 62
     7
370
     0
100
AcDbPolyline
 90
        3
 70
   128
 43
0.0
 10
239.7241520698
 20
125.1675788138
 10
240.1210146959
 20
125.3967102442
 10
240.5941489155
 20
125.6698736746
  0
LWPOLYLINE
  5
250
330
1F
100
AcDbEntity
  8
0
  6
SLD-Gestrichelt
 62
     7
370
     0
100
AcDbPolyline
 90
       10
 70
   128
 43
0.0
 10
239.7241520698
 20
124.9597327608
 10
239.7165748293
 20
124.9644908879
 10
239.7018375809
 20
124.9763368454
 10
239.6914887244
 20
124.9874046828
 10
239.6827342922
 20
124.9995104793
 10
239.6739724095
 20
125.0161043193
 10
239.6661940033
 20
125.0416272145
 10
239.6663281138
 20
125.086395425
 10
239.7062036211
 20
125.1548937347
 10
239.7241520698
 20
125.1675788138
  0
LINE
  5
251
330
1F
100
AcDbEntity
  8
0
  6
SLD-Gestrichelt
 62
     7
370
     0
100
AcDbLine
 10
240.5941489155
 20
124.1698738944
 30
0.0
 11
240.5941489155
 21
124.4574383657
 31
0.0
  0
LINE
  5
252
330
1F
100
AcDbEntity
  8
0
  6
SLD-Gestrichelt
 62
     7
370
     0
100
AcDbLine
 10
240.5941489155
 20
124.4574383657
 30
0.0
 11
240.5941489155
 21
124.1698738944
 31
0.0
  0
LWPOLYLINE
  5
253
330
1F
100
AcDbEntity
  8
0
  6
SLD-Gestrichelt
 62
     7
370
     0
100
AcDbPolyline
 90
        5
 70
   128
 43
0.0
 10
240.5941489155
 20
124.1698738944
 10
240.362026077
 20
124.0358561102
 10
240.272954386
 20
123.984430806
 10
240.3522583658
 20
124.0302160207
 10
240.5941489155
 20
124.1698738944
  0
LINE
  5
254
330
1F
100
AcDbEntity
  8
0
  6
SLD-Gestrichelt
 62
     7
370
     0
100
AcDbLine
 10
240.5941489155
 20
127.4574383918
 30
0.0
 11
240.5941489155
 21
127.1698739204
 31
0.0
  0
LINE
  5
255
330
1F
100
AcDbEntity
  8
0
  6
SLD-Gestrichelt
 62
     7
370
     0
100
AcDbLine
 10
240.5941489155
 20
128.9574386377
 30
0.0
 11
240.5941489155
 21
128.6698741663
 31
0.0
  0
LINE
  5
256
330
1F
100
AcDbEntity
  8
0
  6
SLD-Gestrichelt
 62
     7
370
     0
100
AcDbLine
 10
240.5941489155
 20
125.9574381459
 30
0.0
 11
240.5941489155
 21
125.6698736746
 31
0.0
  0
LINE
  5
257
330
1F
100
AcDbEntity
  8
0
  6
SLD-Gestrichelt
 62
     7
370
     0
100
AcDbLine
 10
240.5941489155
 20
130.4574379522
 30
0.0
 11
240.5941489155
 21
130.1698734809
 31
0.0
  0
LWPOLYLINE
  5
258
330
1F
100
AcDbEntity
  8
0
  6
SLD-Gestrichelt
 62
     7
370
     0
100
AcDbPolyline
 90
        3
 70
   128
 43
0.0
 10
240.5941489155
 20
125.6698736746
 10
240.1260885412
 20
125.3996392537
 10
239.7241520698
 20
125.1675788138
  0
LWPOLYLINE
  5
259
330
1F
100
AcDbEntity
  8
0
  6
SLD-Gestrichelt
 62
     7
370
     0
100
AcDbPolyline
 90
       10
 70
   128
 43
0.0
 10
239.7241520698
 20
125.1675788138
 10
239.6707314069
 20
125.102842116
 10
239.6642046983
 20
125.0672777008
 10
239.6691146309
 20
125.0294920813
 10
239.6748739297
 20
125.014081021
 10
239.6842989142
 20
124.9971062701
 10
239.6935376341
 20
124.9849823128
 10
239.7041919644
 20
124.974178971
 10
239.7184821779
 20
124.9632205639
 10
239.7241520698
 20
124.9597327608
  0
LWPOLYLINE
  5
25A
330
1F
100
AcDbEntity
  8
0
  6
SLD-Gestrichelt
 62
     7
370
     0
100
AcDbPolyline
 90
        6
 70
   128
 43
0.0
 10
240.5941489155
 20
130.4574379522
 10
240.2629035527
 20
130.6486822489
 10
240.0929036553
 20
130.7468334038
 10
240.1184144432
 20
130.7321036059
 10
240.3074803765
 20
130.6229470122
 10
240.5941489155
 20
130.4574379522
  0
LINE
  5
25B
330
1F
100
AcDbEntity
  8
0
  6
SLD-Gestrichelt
 62
     7
370
     0
100
AcDbLine
 10
223.7941551025
 20
124.9673803162
 30
0.0
 11
223.7941551025
 21
129.9589214671
 31
0.0
  0
LINE
  5
25C
330
1F
100
AcDbEntity
  8
0
  6
SLD-Gestrichelt
 62
     7
370
     0
100
AcDbLine
 10
223.7941551025
 20
105.1683904428
 30
0.0
 11
223.7941551025
 21
110.1599315937
 31
0.0
  0
LINE
  5
25D
330
1F
100
AcDbEntity
  8
0
  6
SLD-Gestrichelt
 62
     7
370
     0
100
AcDbLine
 10
136.1941511745
 20
114.2048101231
 30
0.0
 11
136.1941511745
 21
108.3038741547
 31
0.0
  0
LINE
  5
25E
330
1F
100
AcDbEntity
  8
0
  6
SLD-Gestrichelt
 62
     7
370
     0
100
AcDbLine
 10
137.6941504891
 20
114.2048101231
 30
0.0
 11
137.6941504891
 21
107.5538744975
 31
0.0
  0
LINE
  5
25F
330
1F
100
AcDbEntity
  8
0
  6
SLD-Gestrichelt
 62
     7
370
     0
100
AcDbLine
 10
158.4941513606
 20
107.8258151013
 30
0.0
 11
158.4941513606
 21
107.1013169188
 31
0.0
  0
LINE
  5
260
330
1F
100
AcDbEntity
  8
0
  6
SLD-Gestrichelt
 62
     7
370
     0
100
AcDbLine
 10
158.6991113613
 20
107.9302349884
 30
0.0
 11
158.8728310776
 21
107.404249144
 31
0.0
  0
LWPOLYLINE
  5
261
330
1F
100
AcDbEntity
  8
0
  6
SLD-Gestrichelt
 62
     7
370
     0
100
AcDbPolyline
 90
       14
 70
   128
 43
0.0
 10
158.4941513606
 20
107.8258151013
 10
158.5012737664
 20
108.026702312
 10
158.517627558
 20
108.1664137367
 10
158.5293445273
 20
108.2156443793
 10
158.5394769677
 20
108.2411076698
 10
158.5453423208
 20
108.2505214784
 10
158.5500459655
 20
108.2557275716
 10
158.5503167475
 20
108.2559156988
 10
158.5551894272
 20
108.2593075756
 10
158.5607051852
 20
108.2609513599
 10
158.5684505294
 20
108.2598617125
 10
158.5855398329
 20
108.2457493815
 10
158.633690025
 20
108.1460792396
 10
158.6991113613
 20
107.9302349884
  0
ARC
  5
262
330
1F
100
AcDbEntity
  8
0
  6
SLD-Gestrichelt
 62
     7
370
     0
100
AcDbCircle
 10
171.1835063925
 20
110.3772978589
 30
0.0
 40
12.94333015060985
100
AcDbArc
 50
168.6309829651
 51
191.3690170349
  0
LWPOLYLINE
  5
263
330
1F
100
AcDbEntity
  8
0
  6
SLD-Gestrichelt
 62
     7
370
     0
100
AcDbPolyline
 90
       15
 70
   128
 43
0.0
 10
158.6991113613
 20
113.0337062117
 10
158.6240871579
 20
112.6456818368
 10
158.5986868481
 20
112.5497630622
 10
158.5878872315
 20
112.5171467487
 10
158.578975173
 20
112.4947395932
 10
158.567418624
 20
112.4728157941
 10
158.5618757412
 20
112.4656013038
 10
158.55537802
 20
112.4602834519
 10
158.5506147707
 20
112.4587891448
 10
158.5461583922
 20
112.4594485212
 10
158.5404802349
 20
112.4635249201
 10
158.53247121
 20
112.4764991749
 10
158.5163631712
 20
112.5383864913
 10
158.4958677881
 20
112.8124225709
 10
158.4941513606
 20
112.9287806164
  0
LINE
  5
264
330
1F
100
AcDbEntity
  8
0
  6
SLD-Gestrichelt
 62
     7
370
     0
100
AcDbLine
 10
158.4941513606
 20
114.2048101231
 30
0.0
 11
158.4941513606
 21
112.9287806164
 31
0.0
  0
LINE
  5
265
330
1F
100
AcDbEntity
  8
0
  6
SLD-Gestrichelt
 62
     7
370
     0
100
AcDbLine
 10
158.8728310776
 20
113.9367561612
 30
0.0
 11
158.6991113613
 21
113.0337062117
 31
0.0
  0
LINE
  5
266
330
1F
100
AcDbEntity
  8
0
  6
SLD-Gestrichelt
 62
     7
370
     0
100
AcDbLine
 10
160.1941513831
 20
101.7636567179
 30
0.0
 11
160.2870446036
 21
101.8565486941
 31
0.0
  0
LINE
  5
267
330
1F
100
AcDbEntity
  8
0
  6
SLD-Gestrichelt
 62
     7
370
     0
100
AcDbLine
 10
160.2870446036
 20
133.2707632158
 30
0.0
 11
160.1941513831
 21
133.363655192
 31
0.0
  0
ARC
  5
268
330
1F
100
AcDbEntity
  8
0
  6
SLD-Gestrichelt
 62
     7
370
     0
100
AcDbCircle
 10
159.5799378208
 20
102.563655955
 30
0.0
 40
0.9999999999999716
100
AcDbArc
 50
315.0
 51
0.0
  0
ARC
  5
269
330
1F
100
AcDbEntity
  8
0
  6
SLD-Gestrichelt
 62
     7
370
     0
100
AcDbCircle
 10
159.5799378208
 20
102.563655955
 30
0.0
 40
1.000000000000004
100
AcDbArc
 50
0.0
 51
52.1052014664
  0
ARC
  5
26A
330
1F
100
AcDbEntity
  8
0
  6
SLD-Gestrichelt
 62
     7
370
     0
100
AcDbCircle
 10
159.5799378208
 20
132.563655955
 30
0.0
 40
0.9999999999999726
100
AcDbArc
 50
343.125
 51
45.0
  0
ARC
  5
26B
330
1F
100
AcDbEntity
  8
0
  6
SLD-Gestrichelt
 62
     7
370
     0
100
AcDbCircle
 10
159.5799378208
 20
132.563655955
 30
0.0
 40
1.000000000000004
100
AcDbArc
 50
307.8947985336
 51
343.125
  0
LINE
  5
26C
330
1F
100
AcDbEntity
  8
0
  6
SLD-Gestrichelt
 62
     7
370
     0
100
AcDbLine
 10
160.5799378189
 20
102.5636562902
 30
0.0
 11
160.5799378189
 21
132.5636556197
 31
0.0
  0
LINE
  5
26D
330
1F
100
AcDbEntity
  8
0
  6
SLD-Gestrichelt
 62
     7
370
     0
100
AcDbLine
 10
160.5799378189
 20
102.5636562902
 30
0.0
 11
160.5799378189
 21
132.5636556197
 31
0.0
  0
LINE
  5
26E
330
1F
100
AcDbEntity
  8
0
  6
SLD-Gestrichelt
 62
     7
370
     0
100
AcDbLine
 10
240.273326915
 20
111.1433383833
 30
0.0
 11
239.2941492612
 21
110.1641611952
 31
0.0
  0
LINE
  5
26F
330
1F
100
AcDbEntity
  8
0
  6
SLD-Gestrichelt
 62
     7
370
     0
100
AcDbLine
 10
239.2941492612
 20
105.164161307
 30
0.0
 11
240.0872114117
 21
104.3710991565
 31
0.0
  0
LINE
  5
270
330
1F
100
AcDbEntity
  8
0
  6
SLD-Gestrichelt
 62
     7
370
     0
100
AcDbLine
 10
240.0872114117
 20
130.7562127534
 30
0.0
 11
239.2941492612
 21
129.9631506029
 31
0.0
  0
LINE
  5
271
330
1F
100
AcDbEntity
  8
0
  6
SLD-Gestrichelt
 62
     7
370
     0
100
AcDbLine
 10
239.2941492612
 20
124.9631507147
 30
0.0
 11
240.273326915
 21
123.9839735266
 31
0.0
  0
LINE
  5
272
330
1F
100
AcDbEntity
  8
0
  6
SLD-Gestrichelt
 62
     7
370
     0
100
AcDbLine
 10
239.2941492612
 20
129.9631506029
 30
0.0
 11
223.7941551025
 21
129.9631506029
 31
0.0
  0
LINE
  5
273
330
1F
100
AcDbEntity
  8
0
  6
SLD-Gestrichelt
 62
     7
370
     0
100
AcDbLine
 10
223.7941551025
 20
124.9631507147
 30
0.0
 11
239.2941492612
 21
124.9631507147
 31
0.0
  0
LINE
  5
274
330
1F
100
AcDbEntity
  8
0
  6
SLD-Gestrichelt
 62
     7
370
     0
100
AcDbLine
 10
223.7941551025
 20
129.9631506029
 30
0.0
 11
222.2919988448
 21
127.4631511245
 31
0.0
  0
LINE
  5
275
330
1F
100
AcDbEntity
  8
0
  6
SLD-Gestrichelt
 62
     7
370
     0
100
AcDbLine
 10
222.2919988448
 20
127.4631511245
 30
0.0
 11
223.7941551025
 21
124.9631507147
 31
0.0
  0
LINE
  5
276
330
1F
100
AcDbEntity
  8
0
  6
SLD-Gestrichelt
 62
     7
370
     0
100
AcDbLine
 10
223.7941551025
 20
110.1641611952
 30
0.0
 11
222.2919988448
 21
107.6641607854
 31
0.0
  0
LINE
  5
277
330
1F
100
AcDbEntity
  8
0
  6
SLD-Gestrichelt
 62
     7
370
     0
100
AcDbLine
 10
222.2919988448
 20
107.6641607854
 30
0.0
 11
223.7941551025
 21
105.164161307
 31
0.0
  0
LINE
  5
278
330
1F
100
AcDbEntity
  8
0
  6
SLD-Gestrichelt
 62
     7
370
     0
100
AcDbLine
 10
239.2941492612
 20
110.1641611952
 30
0.0
 11
223.7941551025
 21
110.1641611952
 31
0.0
  0
LINE
  5
279
330
1F
100
AcDbEntity
  8
0
  6
SLD-Gestrichelt
 62
     7
370
     0
100
AcDbLine
 10
223.7941551025
 20
105.164161307
 30
0.0
 11
239.2941492612
 21
105.164161307
 31
0.0
  0
LINE
  5
27A
330
1F
100
AcDbEntity
  8
0
  6
SLD-Gestrichelt
 62
     7
370
     0
100
AcDbLine
 10
136.1941511745
 20
107.4080051679
 30
0.0
 11
137.2211839075
 21
108.0009624187
 31
0.0
  0
LINE
  5
27B
330
1F
100
AcDbEntity
  8
0
  6
SLD-Gestrichelt
 62
     7
370
     0
100
AcDbLine
 10
137.2211839075
 20
127.1263494912
 30
0.0
 11
136.1941511745
 21
127.719306742
 31
0.0
  0
LINE
  5
27C
330
1F
100
AcDbEntity
  8
0
  6
SLD-Gestrichelt
 62
     7
370
     0
100
AcDbLine
 10
141.6941511447
 20
107.5636561785
 30
0.0
 11
142.7069700325
 21
107.5636561785
 31
0.0
  0
LINE
  5
27D
330
1F
100
AcDbEntity
  8
0
  6
SLD-Gestrichelt
 62
     7
370
     0
100
AcDbLine
 10
142.7069700325
 20
127.5636557314
 30
0.0
 11
141.6941511447
 21
127.5636557314
 31
0.0
  0
ARC
  5
27E
330
1F
100
AcDbEntity
  8
0
  6
SLD-Gestrichelt
 62
     7
370
     0
100
AcDbCircle
 10
142.7069698528
 20
108.563655955
 30
0.0
 40
1.000000000000028
100
AcDbArc
 50
270.0
 51
315.0
  0
ARC
  5
27F
330
1F
100
AcDbEntity
  8
0
  6
SLD-Gestrichelt
 62
     7
370
     0
100
AcDbCircle
 10
142.7069698528
 20
126.563655955
 30
0.0
 40
1.000000000000018
100
AcDbArc
 50
45.0
 51
90.0
  0
ARC
  5
280
330
1F
100
AcDbEntity
  8
0
  6
SLD-Gestrichelt
 62
     7
370
     0
100
AcDbCircle
 10
141.6941513831
 20
108.563655955
 30
0.0
 40
1.000000000000008
100
AcDbArc
 50
193.3524261238
 51
270.0
  0
ARC
  5
281
330
1F
100
AcDbEntity
  8
0
  6
SLD-Gestrichelt
 62
     7
370
     0
100
AcDbCircle
 10
141.6941513831
 20
126.563655955
 30
0.0
 40
1.000000000000004
100
AcDbArc
 50
90.0
 51
166.6475738762
  0
LINE
  5
282
330
1F
100
AcDbEntity
  8
0
  6
SLD-Gestrichelt
 62
     7
370
     0
100
AcDbLine
 10
143.4140766973
 20
107.8565487463
 30
0.0
 11
144.1211833621
 21
108.5636563424
 31
0.0
  0
LINE
  5
283
330
1F
100
AcDbEntity
  8
0
  6
SLD-Gestrichelt
 62
     7
370
     0
100
AcDbLine
 10
144.1211833621
 20
126.5636555675
 30
0.0
 11
143.4140766973
 21
127.2707631636
 31
0.0
  0
LINE
  5
284
330
1F
100
AcDbEntity
  8
0
  6
SLD-Gestrichelt
 62
     7
370
     0
100
AcDbLine
 10
137.2211839075
 20
108.0009624187
 30
0.0
 11
139.3211840654
 21
108.5636563424
 31
0.0
  0
LINE
  5
285
330
1F
100
AcDbEntity
  8
0
  6
SLD-Gestrichelt
 62
     7
370
     0
100
AcDbLine
 10
139.3211840654
 20
126.5636555675
 30
0.0
 11
137.2211839075
 21
127.1263494912
 31
0.0
  0
LINE
  5
286
330
1F
100
AcDbEntity
  8
0
  6
SLD-Gestrichelt
 62
     7
370
     0
100
AcDbLine
 10
140.7211835499
 20
126.7945956264
 30
0.0
 11
140.3211842293
 21
126.5636555675
 31
0.0
  0
LINE
  5
287
330
1F
100
AcDbEntity
  8
0
  6
SLD-Gestrichelt
 62
     7
370
     0
100
AcDbLine
 10
140.3211842293
 20
108.5636563424
 30
0.0
 11
140.7211835499
 21
108.3327162836
 31
0.0
  0
LINE
  5
288
330
1F
100
AcDbEntity
  8
0
  6
SLD-Gestrichelt
 62
     7
370
     0
100
AcDbLine
 10
139.3211840654
 20
108.5636563424
 30
0.0
 11
140.3211842293
 21
108.5636563424
 31
0.0
  0
LINE
  5
289
330
1F
100
AcDbEntity
  8
0
  6
SLD-Gestrichelt
 62
     7
370
     0
100
AcDbLine
 10
140.3211842293
 20
126.5636555675
 30
0.0
 11
139.3211840654
 21
126.5636555675
 31
0.0
  0
ARC
  5
28A
330
1F
100
AcDbEntity
  8
0
  6
SLD-Gestrichelt
 62
     7
370
     0
100
AcDbCircle
 10
150.6941513831
 20
109.063655955
 30
0.0
 40
0.5000000000000145
100
AcDbArc
 50
305.4878521107
 51
0.0
  0
ARC
  5
28B
330
1F
100
AcDbEntity
  8
0
  6
SLD-Gestrichelt
 62
     7
370
     0
100
AcDbCircle
 10
150.6941513831
 20
126.063655955
 30
0.0
 40
0.5000000000000145
100
AcDbArc
 50
0.0
 51
54.5148009417
  0
LINE
  5
28C
330
1F
100
AcDbEntity
  8
0
  6
SLD-Gestrichelt
 62
     7
370
     0
100
AcDbLine
 10
144.1211833621
 20
108.5636563424
 30
0.0
 11
146.4131691495
 21
108.5636563424
 31
0.0
  0
LINE
  5
28D
330
1F
100
AcDbEntity
  8
0
  6
SLD-Gestrichelt
 62
     7
370
     0
100
AcDbLine
 10
146.4131691495
 20
126.5636555675
 30
0.0
 11
144.1211833621
 21
126.5636555675
 31
0.0
  0
LINE
  5
28E
330
1F
100
AcDbEntity
  8
0
  6
SLD-Gestrichelt
 62
     7
370
     0
100
AcDbLine
 10
151.1941517706
 20
110.4136559937
 30
0.0
 11
152.094151173
 21
111.3136558618
 31
0.0
  0
LINE
  5
28F
330
1F
100
AcDbEntity
  8
0
  6
SLD-Gestrichelt
 62
     7
370
     0
100
AcDbLine
 10
152.094151173
 20
123.8136560481
 30
0.0
 11
151.1941517706
 21
124.7136559162
 31
0.0
  0
LINE
  5
290
330
1F
100
AcDbEntity
  8
0
  6
SLD-Gestrichelt
 62
     7
370
     0
100
AcDbLine
 10
240.5269297774
 20
124.4964323763
 30
0.0
 11
239.5941543395
 21
123.5636560071
 31
0.0
  0
LINE
  5
291
330
1F
100
AcDbEntity
  8
0
  6
SLD-Gestrichelt
 62
     7
370
     0
100
AcDbLine
 10
239.5941543395
 20
111.5636559028
 30
0.0
 11
240.5269297774
 21
110.6308795336
 31
0.0
  0
LINE
  5
292
330
1F
100
AcDbEntity
  8
0
  6
SLD-Gestrichelt
 62
     7
370
     0
100
AcDbLine
 10
152.094151173
 20
111.3136558618
 30
0.0
 11
171.1941513235
 21
111.3136558618
 31
0.0
  0
LINE
  5
293
330
1F
100
AcDbEntity
  8
0
  6
SLD-Gestrichelt
 62
     7
370
     0
100
AcDbLine
 10
171.1941513235
 20
123.8136560481
 30
0.0
 11
152.094151173
 21
123.8136560481
 31
0.0
  0
LINE
  5
294
330
1F
100
AcDbEntity
  8
0
  6
SLD-Gestrichelt
 62
     7
370
     0
100
AcDbLine
 10
171.1941513235
 20
111.3136558618
 30
0.0
 11
172.9066039438
 21
114.1636559099
 31
0.0
  0
LINE
  5
295
330
1F
100
AcDbEntity
  8
0
  6
SLD-Gestrichelt
 62
     7
370
     0
100
AcDbLine
 10
172.9066039438
 20
120.963656
 30
0.0
 11
171.1941513235
 21
123.8136560481
 31
0.0
  0
LINE
  5
296
330
1F
100
AcDbEntity
  8
0
  6
SLD-Gestrichelt
 62
     7
370
     0
100
AcDbLine
 10
238.1441521461
 20
121.2636559561
 30
0.0
 11
236.6441491062
 21
121.2636559561
 31
0.0
  0
LINE
  5
297
330
1F
100
AcDbEntity
  8
0
  6
SLD-Gestrichelt
 62
     7
370
     0
100
AcDbLine
 10
236.6441491062
 20
113.8636559538
 30
0.0
 11
238.1441521461
 21
113.8636559538
 31
0.0
  0
LINE
  5
298
330
1F
100
AcDbEntity
  8
0
  6
SLD-Gestrichelt
 62
     7
370
     0
100
AcDbLine
 10
234.2941540296
 20
120.963656
 30
0.0
 11
172.9066039438
 21
120.963656
 31
0.0
  0
LINE
  5
299
330
1F
100
AcDbEntity
  8
0
  6
SLD-Gestrichelt
 62
     7
370
     0
100
AcDbLine
 10
172.9066039438
 20
114.1636559099
 30
0.0
 11
234.2941540296
 21
114.1636559099
 31
0.0
  0
LINE
  5
29A
330
1F
100
AcDbEntity
  8
0
  6
SLD-Gestrichelt
 62
     7
370
     0
100
AcDbLine
 10
234.2941540296
 20
114.1636559099
 30
0.0
 11
234.5344948585
 21
114.5636559289
 31
0.0
  0
LINE
  5
29B
330
1F
100
AcDbEntity
  8
0
  6
SLD-Gestrichelt
 62
     7
370
     0
100
AcDbLine
 10
234.5344948585
 20
120.563655981
 30
0.0
 11
234.2941540296
 21
120.963656
 31
0.0
  0
LINE
  5
29C
330
1F
100
AcDbEntity
  8
0
  6
SLD-Gestrichelt
 62
     7
370
     0
100
AcDbLine
 10
239.5941543395
 20
120.813656022
 30
0.0
 11
239.1611414964
 21
120.563655981
 31
0.0
  0
LINE
  5
29D
330
1F
100
AcDbEntity
  8
0
  6
SLD-Gestrichelt
 62
     7
370
     0
100
AcDbLine
 10
239.1611414964
 20
114.5636559289
 30
0.0
 11
239.5941543395
 21
114.3136558879
 31
0.0
  0
LINE
  5
29E
330
1F
100
AcDbEntity
  8
0
  6
SLD-Gestrichelt
 62
     7
370
     0
100
AcDbLine
 10
239.1611414964
 20
120.563655981
 30
0.0
 11
238.1441521461
 21
120.563655981
 31
0.0
  0
LINE
  5
29F
330
1F
100
AcDbEntity
  8
0
  6
SLD-Gestrichelt
 62
     7
370
     0
100
AcDbLine
 10
238.1441521461
 20
114.5636559289
 30
0.0
 11
239.1611414964
 21
114.5636559289
 31
0.0
  0
LINE
  5
2A0
330
1F
100
AcDbEntity
  8
0
  6
SLD-Gestrichelt
 62
     7
370
     0
100
AcDbLine
 10
236.6441491062
 20
120.563655981
 30
0.0
 11
234.5344948585
 21
120.563655981
 31
0.0
  0
LINE
  5
2A1
330
1F
100
AcDbEntity
  8
0
  6
SLD-Gestrichelt
 62
     7
370
     0
100
AcDbLine
 10
234.5344948585
 20
114.5636559289
 30
0.0
 11
236.6441491062
 21
114.5636559289
 31
0.0
  0
LINE
  5
2A2
330
1F
100
AcDbEntity
  8
0
  6
SLD-Gestrichelt
 62
     7
370
     0
100
AcDbLine
 10
151.383688953
 20
104.6323956746
 30
0.0
 11
150.994151179
 21
105.0219334487
 31
0.0
  0
LINE
  5
2A3
330
1F
100
AcDbEntity
  8
0
  6
SLD-Gestrichelt
 62
     7
370
     0
100
AcDbLine
 10
146.3941515426
 20
105.0219334487
 30
0.0
 11
146.145384107
 21
104.7731660131
 31
0.0
  0
LINE
  5
2A4
330
1F
100
AcDbEntity
  8
0
  6
SLD-Gestrichelt
 62
     7
370
     0
100
AcDbLine
 10
142.1000960285
 20
104.8577114764
 30
0.0
 11
140.3941514904
 21
106.5636560146
 31
0.0
  0
LINE
  5
2A5
330
1F
100
AcDbEntity
  8
0
  6
SLD-Gestrichelt
 62
     7
370
     0
100
AcDbLine
 10
140.3941514904
 20
106.5636560146
 30
0.0
 11
136.1941511745
 21
106.5636560146
 31
0.0
  0
LINE
  5
2A6
330
1F
100
AcDbEntity
  8
0
  6
SLD-Gestrichelt
 62
     7
370
     0
100
AcDbLine
 10
150.994151179
 20
105.0219334487
 30
0.0
 11
150.994151179
 21
108.6596123699
 31
0.0
  0
LINE
  5
2A7
330
1F
100
AcDbEntity
  8
0
  6
SLD-Gestrichelt
 62
     7
370
     0
100
AcDbLine
 10
146.3941515426
 20
108.5683911864
 30
0.0
 11
146.3941515426
 21
105.0219334487
 31
0.0
  0
LINE
  5
2A8
330
1F
100
AcDbEntity
  8
0
  6
SLD-Gestrichelt
 62
     7
370
     0
100
AcDbLine
 10
150.994151179
 20
128.5636558954
 30
0.0
 11
148.6941513608
 21
129.9456352193
 31
0.0
  0
LINE
  5
2A9
330
1F
100
AcDbEntity
  8
0
  6
SLD-Gestrichelt
 62
     7
370
     0
100
AcDbLine
 10
148.6941513608
 20
129.9456352193
 30
0.0
 11
146.3941515426
 21
128.5636558954
 31
0.0
  0
LINE
  5
2AA
330
1F
100
AcDbEntity
  8
0
  6
SLD-Gestrichelt
 62
     7
370
     0
100
AcDbLine
 10
150.994151179
 20
126.46769954
 30
0.0
 11
150.994151179
 21
128.5636558954
 31
0.0
  0
LINE
  5
2AB
330
1F
100
AcDbEntity
  8
0
  6
SLD-Gestrichelt
 62
     7
370
     0
100
AcDbLine
 10
146.3941515426
 20
128.5636558954
 30
0.0
 11
146.3941515426
 21
126.5589207236
 31
0.0
  0
LINE
  5
2AC
330
1F
100
AcDbEntity
  8
0
  6
SLD-Gestrichelt
 62
     7
370
     0
100
AcDbLine
 10
170.1941511596
 20
98.0636555526
 30
0.0
 11
170.1941511596
 21
97.563656402
 31
0.0
  0
LINE
  5
2AD
330
1F
100
AcDbEntity
  8
0
  6
SLD-Gestrichelt
 62
     7
370
     0
100
AcDbLine
 10
174.1941518153
 20
97.563656402
 30
0.0
 11
174.1941518153
 21
98.0636555526
 31
0.0
  0
LINE
  5
2AE
330
1F
100
AcDbEntity
  8
0
  6
SLD-Gestrichelt
 62
     7
370
     0
100
AcDbLine
 10
174.1941518153
 20
98.0636555526
 30
0.0
 11
172.1941514874
 21
99.2653764609
 31
0.0
  0
LINE
  5
2AF
330
1F
100
AcDbEntity
  8
0
  6
SLD-Gestrichelt
 62
     7
370
     0
100
AcDbLine
 10
172.1941514874
 20
99.2653764609
 30
0.0
 11
170.1941511596
 21
98.0636555526
 31
0.0
  0
LINE
  5
2B0
330
1F
100
AcDbEntity
  8
0
  6
SLD-Gestrichelt
 62
     7
370
     0
100
AcDbLine
 10
159.9941513882
 20
115.616531932
 30
0.0
 11
159.9941513882
 21
115.8466610417
 31
0.0
  0
LINE
  5
2B1
330
1F
100
AcDbEntity
  8
VERMASSUNG
  6
SLD-Punktstrich
100
AcDbLine
 10
130.7700092932
 20
117.563655955
 30
0.0
 11
280.1941513831
 21
117.563655955
 31
0.0
  0
LINE
  5
2B2
330
1F
100
AcDbEntity
  8
VERMASSUNG
  6
SLD-Punktstrich
100
AcDbLine
 10
280.1941513831
 20
149.6025950317
 30
0.0
 11
280.1941513831
 21
117.563655955
 31
0.0
  0
LINE
  5
2B3
330
1F
100
AcDbEntity
  8
VERMASSUNG
  6
SLD-Punktstrich
100
AcDbLine
 10
240.1941513831
 20
134.8345707126
 30
0.0
 11
240.1941513831
 21
99.4783390552
 31
0.0
  0
DIMENSION
  5
2B4
330
1F
100
AcDbEntity
  8
VERMASSUNG
100
AcDbDimension
  2
_D
 10
160.1941513831
 20
159.7119491168
 30
0.0
 11
220.1941513831
 21
159.7119491168
 31
0.0
 70
   160
  1
<>
 71
     2
 42
-1.0
  3
SLDDIMSTYLE0
100
AcDbAlignedDimension
 13
280.1941513831
 23
149.6025950317
 33
0.0
 14
160.1941513831
 24
137.263655955
 34
0.0
100
AcDbRotatedDimension
  0
DIMENSION
  5
2BF
330
1F
100
AcDbEntity
  8
VERMASSUNG
100
AcDbDimension
  2
_D_1
 10
160.1941513831
 20
153.7119491168
 30
0.0
 11
200.1941513831
 21
153.7119491168
 31
0.0
 70
   160
  1
<>
 71
     2
 42
-1.0
  3
SLDDIMSTYLE0
100
AcDbAlignedDimension
 13
240.1941513831
 23
134.8345707126
 33
0.0
 14
160.1941513831
 24
137.263655955
 34
0.0
100
AcDbRotatedDimension
  0
DIMENSION
  5
2C9
330
1F
100
AcDbEntity
  8
VERMASSUNG
100
AcDbDimension
  2
_D_2
 10
194.6437274579
 20
137.563655955
 30
0.0
 11
194.6437274579
 21
145.2345671591
 31
0.0
 70
   160
  1
%%c<>
 71
     2
 42
-1.0
  3
SLDDIMSTYLE1
100
AcDbAlignedDimension
 13
174.1941513831
 23
97.563655955
 33
0.0
 14
160.4941513831
 24
137.563655955
 34
0.0
 50
90.0
100
AcDbRotatedDimension
  0
DIMENSION
  5
2D5
330
1F
100
AcDbEntity
  8
VERMASSUNG
100
AcDbDimension
  2
_D_3
 10
128.3365291351
 20
137.563655955
 30
0.0
 11
128.3365291351
 21
117.563655955
 31
0.0
 70
   160
  1
PSC %%c<>
 71
     2
 42
-1.0
  3
SLDDIMSTYLE0
100
AcDbAlignedDimension
 13
174.1941513831
 23
97.563655955
 33
0.0
 14
160.4941513831
 24
137.563655955
 34
0.0
 50
90.0
100
AcDbRotatedDimension
  0
DIMENSION
  5
2E1
330
1F
100
AcDbEntity
  8
VERMASSUNG
100
AcDbDimension
  2
_D_4
 10
244.0351175025
 20
130.4631508916
 30
0.0
 11
244.0351175025
 21
143.5712332177
 31
0.0
 70
   160
  1
%%c<>
 71
     2
 42
-1.0
  3
SLDDIMSTYLE1
100
AcDbAlignedDimension
 13
245.3441513831
 23
124.4631508916
 33
0.0
 14
245.3441513831
 24
130.4631508916
 34
0.0
 50
90.0
100
AcDbRotatedDimension
  0
LINE
  5
2EC
330
1F
100
AcDbEntity
  8
VERMASSUNG
  6
SLD-Punktstrich
370
     0
100
AcDbLine
 10
217.0781897674
 20
127.4631508916
 30
0.0
 11
247.0432709529
 21
127.4631508916
 31
0.0
  0
LINE
  5
2ED
330
1F
100
AcDbEntity
  8
VERMASSUNG
  6
SLD-Punktstrich
370
     0
100
AcDbLine
 10
217.3321311334
 20
107.6641610183
 30
0.0
 11
247.8050950508
 21
107.6641610183
 31
0.0
  0
LINE
  5
2EE
330
1F
100
AcDbEntity
  8
0
  6
SLD-Durchgehend
 62
     7
370
    15
100
AcDbLine
 10
65.3963114925
 20
110.5217839416
 30
0.0
 11
63.2568269827
 21
108.5122342978
 31
0.0
  0
LINE
  5
2EF
330
1F
100
AcDbEntity
  8
0
  6
SLD-Durchgehend
 62
     7
370
    15
100
AcDbLine
 10
63.2568269827
 20
108.5122342978
 30
0.0
 11
63.9274053134
 21
105.6546116073
 31
0.0
  0
LINE
  5
2F0
330
1F
100
AcDbEntity
  8
0
  6
SLD-Durchgehend
 62
     7
370
    15
100
AcDbLine
 10
66.7374690854
 20
104.8065380949
 30
0.0
 11
63.9274053134
 21
105.6546116073
 31
0.0
  0
LINE
  5
2F1
330
1F
100
AcDbEntity
  8
0
  6
SLD-Durchgehend
 62
     7
370
    15
100
AcDbLine
 10
68.8769535952
 20
106.8160882044
 30
0.0
 11
66.7374690854
 21
104.8065380949
 31
0.0
  0
LINE
  5
2F2
330
1F
100
AcDbEntity
  8
0
  6
SLD-Durchgehend
 62
     7
370
    15
100
AcDbLine
 10
68.8769535952
 20
106.8160882044
 30
0.0
 11
68.2063747988
 21
109.6737108949
 31
0.0
  0
LINE
  5
2F3
330
1F
100
AcDbEntity
  8
0
  6
SLD-Durchgehend
 62
     7
370
    15
100
AcDbLine
 10
65.3963114925
 20
110.5217839416
 30
0.0
 11
68.2063747988
 21
109.6737108949
 31
0.0
  0
CIRCLE
  5
2F4
330
1F
100
AcDbEntity
  8
0
  6
SLD-Durchgehend
 62
     7
370
    15
100
AcDbCircle
 10
66.0668900562
 20
107.6641610183
 30
0.0
 40
4.999999999999995
  0
ARC
  5
2F5
330
1F
100
AcDbEntity
  8
0
  6
SLD-Durchgehend
 62
     7
370
    15
100
AcDbCircle
 10
66.0668900562
 20
107.6641610183
 30
0.0
 40
2.542000000000002
100
AcDbArc
 50
253.2062589409
 51
313.2062589409
  0
ARC
  5
2F6
330
1F
100
AcDbEntity
  8
0
  6
SLD-Durchgehend
 62
     7
370
    15
100
AcDbCircle
 10
66.0668900562
 20
107.6641610183
 30
0.0
 40
2.542000000000005
100
AcDbArc
 50
313.2062589409
 51
13.2062589409
  0
ARC
  5
2F7
330
1F
100
AcDbEntity
  8
0
  6
SLD-Durchgehend
 62
     7
370
    15
100
AcDbCircle
 10
66.0668900562
 20
107.6641610183
 30
0.0
 40
2.542000000000005
100
AcDbArc
 50
13.2062589409
 51
73.2062589409
  0
ARC
  5
2F8
330
1F
100
AcDbEntity
  8
0
  6
SLD-Durchgehend
 62
     7
370
    15
100
AcDbCircle
 10
66.0668900562
 20
107.6641610183
 30
0.0
 40
2.542000000000003
100
AcDbArc
 50
73.2062589409
 51
133.2062589409
  0
ARC
  5
2F9
330
1F
100
AcDbEntity
  8
0
  6
SLD-Durchgehend
 62
     7
370
    15
100
AcDbCircle
 10
66.0668900562
 20
107.6641610183
 30
0.0
 40
2.541999999999999
100
AcDbArc
 50
193.2062589409
 51
253.2062589409
  0
ARC
  5
2FA
330
1F
100
AcDbEntity
  8
0
  6
SLD-Durchgehend
 62
     7
370
    15
100
AcDbCircle
 10
66.0668900562
 20
107.6641610183
 30
0.0
 40
2.542000000000003
100
AcDbArc
 50
133.2062589409
 51
193.2062589409
  0
CIRCLE
  5
2FB
330
1F
100
AcDbEntity
  8
0
  6
SLD-Durchgehend
 62
     7
370
    15
100
AcDbCircle
 10
85.8658799294
 20
127.4631508916
 30
0.0
 40
4.999999999999987
  0
LINE
  5
2FC
330
1F
100
AcDbEntity
  8
0
  6
SLD-Durchgehend
 62
     7
370
    15
100
AcDbLine
 10
86.0261402883
 20
130.3940214041
 30
0.0
 11
83.4078013756
 21
129.0673756797
 31
0.0
  0
LINE
  5
2FD
330
1F
100
AcDbEntity
  8
0
  6
SLD-Durchgehend
 62
     7
370
    15
100
AcDbLine
 10
83.4078013756
 20
129.0673756797
 30
0.0
 11
83.2475417153
 21
126.1365044687
 31
0.0
  0
LINE
  5
2FE
330
1F
100
AcDbEntity
  8
0
  6
SLD-Durchgehend
 62
     7
370
    15
100
AcDbLine
 10
85.7056200363
 20
124.5322803791
 30
0.0
 11
83.2475417153
 21
126.1365044687
 31
0.0
  0
LINE
  5
2FF
330
1F
100
AcDbEntity
  8
0
  6
SLD-Durchgehend
 62
     7
370
    15
100
AcDbLine
 10
88.3239580177
 20
125.8589265693
 30
0.0
 11
85.7056200363
 21
124.5322803791
 31
0.0
  0
LINE
  5
300
330
1F
100
AcDbEntity
  8
0
  6
SLD-Durchgehend
 62
     7
370
    15
100
AcDbLine
 10
88.3239580177
 20
125.8589265693
 30
0.0
 11
88.4842181437
 21
128.789796849
 31
0.0
  0
LINE
  5
301
330
1F
100
AcDbEntity
  8
0
  6
SLD-Durchgehend
 62
     7
370
    15
100
AcDbLine
 10
86.0261402883
 20
130.3940214041
 30
0.0
 11
88.4842181437
 21
128.789796849
 31
0.0
  0
ARC
  5
302
330
1F
100
AcDbEntity
  8
0
  6
SLD-Durchgehend
 62
     7
370
    15
100
AcDbCircle
 10
85.8658799294
 20
127.4631508916
 30
0.0
 40
2.54200000000001
100
AcDbArc
 50
56.8701833941
 51
116.8701833941
  0
ARC
  5
303
330
1F
100
AcDbEntity
  8
0
  6
SLD-Durchgehend
 62
     7
370
    15
100
AcDbCircle
 10
85.8658799294
 20
127.4631508916
 30
0.0
 40
2.541999999999991
100
AcDbArc
 50
296.8701833941
 51
356.8701833941
  0
ARC
  5
304
330
1F
100
AcDbEntity
  8
0
  6
SLD-Durchgehend
 62
     7
370
    15
100
AcDbCircle
 10
85.8658799294
 20
127.4631508916
 30
0.0
 40
2.542000000000022
100
AcDbArc
 50
236.8701833941
 51
296.8701833941
  0
ARC
  5
305
330
1F
100
AcDbEntity
  8
0
  6
SLD-Durchgehend
 62
     7
370
    15
100
AcDbCircle
 10
85.8658799294
 20
127.4631508916
 30
0.0
 40
2.542000000000022
100
AcDbArc
 50
176.8701833941
 51
236.8701833941
  0
ARC
  5
306
330
1F
100
AcDbEntity
  8
0
  6
SLD-Durchgehend
 62
     7
370
    15
100
AcDbCircle
 10
85.8658799294
 20
127.4631508916
 30
0.0
 40
2.54200000000001
100
AcDbArc
 50
116.8701833941
 51
176.8701833941
  0
ARC
  5
307
330
1F
100
AcDbEntity
  8
0
  6
SLD-Durchgehend
 62
     7
370
    15
100
AcDbCircle
 10
85.8658799294
 20
127.4631508916
 30
0.0
 40
2.541999999999989
100
AcDbArc
 50
356.8701833941
 51
56.8701833941
  0
CIRCLE
  5
308
330
1F
100
AcDbEntity
  8
0
  6
SLD-Durchgehend
 62
     7
370
    15
100
AcDbCircle
 10
85.8658799294
 20
107.6641610183
 30
0.0
 40
5.000000000000013
  0
LINE
  5
309
330
1F
100
AcDbEntity
  8
0
  6
SLD-Durchgehend
 62
     7
370
    15
100
AcDbLine
 10
87.5201726191
 20
105.23949599
 30
0.0
 11
88.7928482004
 21
107.8844874922
 31
0.0
  0
LINE
  5
30A
330
1F
100
AcDbEntity
  8
0
  6
SLD-Durchgehend
 62
     7
370
    15
100
AcDbLine
 10
88.7928482004
 20
107.8844874922
 30
0.0
 11
87.1385557436
 21
110.3091527533
 31
0.0
  0
LINE
  5
30B
330
1F
100
AcDbEntity
  8
0
  6
SLD-Durchgehend
 62
     7
370
    15
100
AcDbLine
 10
84.2115877055
 20
110.0888265122
 30
0.0
 11
87.1385557436
 21
110.3091527533
 31
0.0
  0
LINE
  5
30C
330
1F
100
AcDbEntity
  8
0
  6
SLD-Durchgehend
 62
     7
370
    15
100
AcDbLine
 10
82.9389121242
 20
107.4438340787
 30
0.0
 11
84.2115877055
 21
110.0888265122
 31
0.0
  0
LINE
  5
30D
330
1F
100
AcDbEntity
  8
0
  6
SLD-Durchgehend
 62
     7
370
    15
100
AcDbLine
 10
82.9389121242
 20
107.4438340787
 30
0.0
 11
84.593204581
 21
105.0191692833
 31
0.0
  0
LINE
  5
30E
330
1F
100
AcDbEntity
  8
0
  6
SLD-Durchgehend
 62
     7
370
    15
100
AcDbLine
 10
87.5201726191
 20
105.23949599
 30
0.0
 11
84.593204581
 21
105.0191692833
 31
0.0
  0
ARC
  5
30F
330
1F
100
AcDbEntity
  8
0
  6
SLD-Durchgehend
 62
     7
370
    15
100
AcDbCircle
 10
85.8658799294
 20
107.6641610183
 30
0.0
 40
2.542000000000021
100
AcDbArc
 50
34.3048024535
 51
94.3048024535
  0
ARC
  5
310
330
1F
100
AcDbEntity
  8
0
  6
SLD-Durchgehend
 62
     7
370
    15
100
AcDbCircle
 10
85.8658799294
 20
107.6641610183
 30
0.0
 40
2.541999999999994
100
AcDbArc
 50
334.3048024535
 51
34.3048024535
  0
ARC
  5
311
330
1F
100
AcDbEntity
  8
0
  6
SLD-Durchgehend
 62
     7
370
    15
100
AcDbCircle
 10
85.8658799294
 20
107.6641610183
 30
0.0
 40
2.541999999999992
100
AcDbArc
 50
274.3048024535
 51
334.3048024535
  0
ARC
  5
312
330
1F
100
AcDbEntity
  8
0
  6
SLD-Durchgehend
 62
     7
370
    15
100
AcDbCircle
 10
85.8658799294
 20
107.6641610183
 30
0.0
 40
2.542000000000006
100
AcDbArc
 50
214.3048024535
 51
274.3048024535
  0
ARC
  5
313
330
1F
100
AcDbEntity
  8
0
  6
SLD-Durchgehend
 62
     7
370
    15
100
AcDbCircle
 10
85.8658799294
 20
107.6641610183
 30
0.0
 40
2.542000000000024
100
AcDbArc
 50
154.3048024535
 51
214.3048024535
  0
ARC
  5
314
330
1F
100
AcDbEntity
  8
0
  6
SLD-Durchgehend
 62
     7
370
    15
100
AcDbCircle
 10
85.8658799294
 20
107.6641610183
 30
0.0
 40
2.542000000000024
100
AcDbArc
 50
94.3048024535
 51
154.3048024535
  0
CIRCLE
  5
315
330
1F
100
AcDbEntity
  8
0
  6
SLD-Durchgehend
 62
     7
370
    15
100
AcDbCircle
 10
66.0668900562
 20
127.4631508916
 30
0.0
 40
5.000000000000005
  0
LINE
  5
316
330
1F
100
AcDbEntity
  8
0
  6
SLD-Durchgehend
 62
     7
370
    15
100
AcDbLine
 10
67.1674989023
 20
124.7420584608
 30
0.0
 11
68.9737301179
 21
127.0557598967
 31
0.0
  0
LINE
  5
317
330
1F
100
AcDbEntity
  8
0
  6
SLD-Durchgehend
 62
     7
370
    15
100
AcDbLine
 10
68.9737301179
 20
127.0557598967
 30
0.0
 11
67.8731210389
 21
129.7768525604
 31
0.0
  0
LINE
  5
318
330
1F
100
AcDbEntity
  8
0
  6
SLD-Durchgehend
 62
     7
370
    15
100
AcDbLine
 10
64.9662807443
 20
130.1842437882
 30
0.0
 11
67.8731210389
 21
129.7768525604
 31
0.0
  0
LINE
  5
319
330
1F
100
AcDbEntity
  8
0
  6
SLD-Durchgehend
 62
     7
370
    15
100
AcDbLine
 10
63.16005046
 20
127.8705414209
 30
0.0
 11
64.9662807443
 21
130.1842437882
 31
0.0
  0
LINE
  5
31A
330
1F
100
AcDbEntity
  8
0
  6
SLD-Durchgehend
 62
     7
370
    15
100
AcDbLine
 10
63.16005046
 20
127.8705414209
 30
0.0
 11
64.260659539
 21
125.1494492229
 31
0.0
  0
LINE
  5
31B
330
1F
100
AcDbEntity
  8
0
  6
SLD-Durchgehend
 62
     7
370
    15
100
AcDbLine
 10
67.1674989023
 20
124.7420584608
 30
0.0
 11
64.260659539
 21
125.1494492229
 31
0.0
  0
ARC
  5
31C
330
1F
100
AcDbEntity
  8
0
  6
SLD-Durchgehend
 62
     7
370
    15
100
AcDbCircle
 10
66.0668900562
 20
127.4631508916
 30
0.0
 40
2.541999999999991
100
AcDbArc
 50
322.0220130834
 51
22.0220130834
  0
ARC
  5
31D
330
1F
100
AcDbEntity
  8
0
  6
SLD-Durchgehend
 62
     7
370
    15
100
AcDbCircle
 10
66.0668900562
 20
127.4631508916
 30
0.0
 40
2.542000000000002
100
AcDbArc
 50
82.0220130834
 51
142.0220130834
  0
ARC
  5
31E
330
1F
100
AcDbEntity
  8
0
  6
SLD-Durchgehend
 62
     7
370
    15
100
AcDbCircle
 10
66.0668900562
 20
127.4631508916
 30
0.0
 40
2.541999999999991
100
AcDbArc
 50
262.0220130834
 51
322.0220130834
  0
ARC
  5
31F
330
1F
100
AcDbEntity
  8
0
  6
SLD-Durchgehend
 62
     7
370
    15
100
AcDbCircle
 10
66.0668900562
 20
127.4631508916
 30
0.0
 40
2.541999999999987
100
AcDbArc
 50
22.0220130834
 51
82.0220130834
  0
ARC
  5
320
330
1F
100
AcDbEntity
  8
0
  6
SLD-Durchgehend
 62
     7
370
    15
100
AcDbCircle
 10
66.0668900562
 20
127.4631508916
 30
0.0
 40
2.542000000000005
100
AcDbArc
 50
142.0220130834
 51
202.0220130834
  0
ARC
  5
321
330
1F
100
AcDbEntity
  8
0
  6
SLD-Durchgehend
 62
     7
370
    15
100
AcDbCircle
 10
66.0668900562
 20
127.4631508916
 30
0.0
 40
2.542000000000005
100
AcDbArc
 50
202.0220130834
 51
262.0220130834
  0
CIRCLE
  5
322
330
1F
100
AcDbEntity
  8
0
  6
SLD-Durchgehend
 62
     7
370
    15
100
AcDbCircle
 10
75.9663849928
 20
117.563655955
 30
0.0
 40
19.99999999999999
  0
LINE
  5
323
330
1F
100
AcDbEntity
  8
0
  6
SLD-Durchgehend
 62
     7
370
    15
100
AcDbLine
 10
94.845239804
 20
118.4574381972
 30
0.0
 11
95.6870306142
 21
118.9597329415
 31
0.0
  0
ARC
  5
324
330
1F
100
AcDbEntity
  8
0
  6
SLD-Durchgehend
 62
     7
370
    15
100
AcDbCircle
 10
95.6184572563
 20
119.0590397219
 30
0.0
 40
0.12068198724956
100
AcDbArc
 50
304.6258703726
 51
64.0770235497
  0
LINE
  5
325
330
1F
100
AcDbEntity
  8
0
  6
SLD-Durchgehend
 62
     7
370
    15
100
AcDbLine
 10
95.6712148943
 20
119.1675789945
 30
0.0
 11
94.7486597904
 21
119.6698736224
 31
0.0
  0
ARC
  5
326
330
1F
100
AcDbEntity
  8
0
  6
SLD-Durchgehend
 62
     7
370
    15
100
AcDbCircle
 10
75.9663849928
 20
117.563655955
 30
0.0
 40
18.89999999999999
100
AcDbArc
 50
6.3983373518
 51
7.276348303
  0
LINE
  5
327
330
1F
100
AcDbEntity
  8
0
  6
SLD-Durchgehend
 62
     7
370
    15
100
AcDbLine
 10
94.714180366
 20
119.9574380938
 30
0.0
 11
95.5231141158
 21
120.4597329546
 31
0.0
  0
ARC
  5
328
330
1F
100
AcDbEntity
  8
0
  6
SLD-Durchgehend
 62
     7
370
    15
100
AcDbCircle
 10
95.4467470198
 20
120.5543809087
 30
0.0
 40
0.1216148369770058
100
AcDbArc
 50
308.8984691223
 51
68.5585878788
  0
LINE
  5
329
330
1F
100
AcDbEntity
  8
0
  6
SLD-Durchgehend
 62
     7
370
    15
100
AcDbLine
 10
95.4912032791
 20
120.6675790075
 30
0.0
 11
94.5191521056
 21
121.1698736355
 31
0.0
  0
ARC
  5
32A
330
1F
100
AcDbEntity
  8
0
  6
SLD-Durchgehend
 62
     7
370
    15
100
AcDbCircle
 10
75.9663849928
 20
117.563655955
 30
0.0
 40
18.89999999999999
100
AcDbArc
 50
10.999776935
 51
11.8892284564
  0
LINE
  5
32B
330
1F
100
AcDbEntity
  8
0
  6
SLD-Durchgehend
 62
     7
370
    15
100
AcDbLine
 10
94.4609369942
 20
121.4574381068
 30
0.0
 11
95.2414318778
 21
121.9597327348
 31
0.0
  0
LWPOLYLINE
  5
32C
330
1F
100
AcDbEntity
  8
0
  6
SLD-Durchgehend
 62
     7
370
    15
100
AcDbPolyline
 90
        9
 70
   128
 43
0.0
 10
95.2414318778
 20
121.9597327348
 10
95.2627703406
 20
121.9790586095
 10
95.2765967556
 20
122.0041093241
 10
95.2819444098
 20
122.0304401416
 10
95.2800072588
 20
122.0591565419
 10
95.2717408397
 20
122.085835674
 10
95.2522091426
 20
122.1189516421
 10
95.2162787177
 20
122.1535218704
 10
95.1928466417
 20
122.1675787877
  0
LINE
  5
32D
330
1F
100
AcDbEntity
  8
0
  6
SLD-Durchgehend
 62
     7
370
    15
100
AcDbLine
 10
95.1928466417
 20
122.1675787877
 30
0.0
 11
94.1635433443
 21
122.6698736485
 31
0.0
  0
ARC
  5
32E
330
1F
100
AcDbEntity
  8
0
  6
SLD-Durchgehend
 62
     7
370
    15
100
AcDbCircle
 10
75.9663849928
 20
117.563655955
 30
0.0
 40
18.89999999999998
100
AcDbArc
 50
15.6743981476
 51
16.5818813394
  0
LINE
  5
32F
330
1F
100
AcDbEntity
  8
0
  6
SLD-Durchgehend
 62
     7
370
    15
100
AcDbLine
 10
94.0803874143
 20
122.9574381199
 30
0.0
 11
94.8367107518
 21
123.4597329806
 31
0.0
  0
LWPOLYLINE
  5
330
330
1F
100
AcDbEntity
  8
0
  6
SLD-Durchgehend
 62
     7
370
    15
100
AcDbPolyline
 90
        9
 70
   128
 43
0.0
 10
94.8367107518
 20
123.4597329806
 10
94.8557246335
 20
123.4773945819
 10
94.8682080813
 20
123.5011628654
 10
94.8724660881
 20
123.5313055862
 10
94.8683291533
 20
123.5587786708
 10
94.8581497975
 20
123.5848780546
 10
94.8345742979
 20
123.6195167351
 10
94.7919551142
 20
123.6558671865
 10
94.7705067553
 20
123.6675790336
  0
LINE
  5
331
330
1F
100
AcDbEntity
  8
0
  6
SLD-Durchgehend
 62
     7
370
    15
100
AcDbLine
 10
94.7705067553
 20
123.6675790336
 30
0.0
 11
93.6742339142
 21
124.1698738944
 31
0.0
  0
ARC
  5
332
330
1F
100
AcDbEntity
  8
0
  6
SLD-Durchgehend
 62
     7
370
    15
100
AcDbCircle
 10
75.9663849928
 20
117.563655955
 30
0.0
 40
18.9
100
AcDbArc
 50
20.4588966099
 51
21.3922215885
  0
LINE
  5
333
330
1F
100
AcDbEntity
  8
0
  6
SLD-Durchgehend
 62
     7
370
    15
100
AcDbLine
 10
93.5642763831
 20
124.4574383657
 30
0.0
 11
94.3008053907
 21
124.9597327608
 31
0.0
  0
LWPOLYLINE
  5
334
330
1F
100
AcDbEntity
  8
0
  6
SLD-Durchgehend
 62
     7
370
    15
100
AcDbPolyline
 90
        9
 70
   128
 43
0.0
 10
94.3008053907
 20
124.9597327608
 10
94.3177219339
 20
124.9757454555
 10
94.3290095635
 20
124.998158199
 10
94.3321388074
 20
125.026543514
 10
94.3273313202
 20
125.0526051793
 10
94.316529841
 20
125.0780801114
 10
94.2911885538
 20
125.1135136757
 10
94.2447267332
 20
125.1521942962
 10
94.2155837872
 20
125.1675788138
  0
LINE
  5
335
330
1F
100
AcDbEntity
  8
0
  6
SLD-Durchgehend
 62
     7
370
    15
100
AcDbLine
 10
94.2155837872
 20
125.1675788138
 30
0.0
 11
93.0397331574
 21
125.6698736746
 31
0.0
  0
ARC
  5
336
330
1F
100
AcDbEntity
  8
0
  6
SLD-Durchgehend
 62
     7
370
    15
100
AcDbCircle
 10
75.9663849928
 20
117.563655955
 30
0.0
 40
18.89999999999998
100
AcDbArc
 50
25.3977977343
 51
26.3667601109
  0
LINE
  5
337
330
1F
100
AcDbEntity
  8
0
  6
SLD-Durchgehend
 62
     7
370
    15
100
AcDbLine
 10
92.9002098598
 20
125.9574381459
 30
0.0
 11
93.6217725136
 21
126.4597330067
 31
0.0
  0
LWPOLYLINE
  5
338
330
1F
100
AcDbEntity
  8
0
  6
SLD-Durchgehend
 62
     7
370
    15
100
AcDbPolyline
 90
        9
 70
   128
 43
0.0
 10
93.6217725136
 20
126.4597330067
 10
93.6367835708
 20
126.4740958635
 10
93.6470299818
 20
126.4950664539
 10
93.6492111393
 20
126.5216007653
 10
93.6438672103
 20
126.546102931
 10
93.629092709
 20
126.576452871
 10
93.5987260052
 20
126.6134971578
 10
93.5428708651
 20
126.6545731399
 10
93.5155011572
 20
126.6675790597
  0
LINE
  5
339
330
1F
100
AcDbEntity
  8
0
  6
SLD-Durchgehend
 62
     7
370
    15
100
AcDbLine
 10
93.5155011572
 20
126.6675790597
 30
0.0
 11
92.2430723764
 21
127.1698739204
 31
0.0
  0
ARC
  5
33A
330
1F
100
AcDbEntity
  8
0
  6
SLD-Durchgehend
 62
     7
370
    15
100
AcDbCircle
 10
75.9663849928
 20
117.563655955
 30
0.0
 40
18.89999999999998
100
AcDbArc
 50
30.5483638936
 51
31.5660102076
  0
LINE
  5
33B
330
1F
100
AcDbEntity
  8
0
  6
SLD-Durchgehend
 62
     7
370
    15
100
AcDbLine
 10
92.069896669
 20
127.4574383918
 30
0.0
 11
92.7822839328
 21
127.9597332526
 31
0.0
  0
LWPOLYLINE
  5
33C
330
1F
100
AcDbEntity
  8
0
  6
SLD-Durchgehend
 62
     7
370
    15
100
AcDbPolyline
 90
        9
 70
   128
 43
0.0
 10
92.7822839328
 20
127.9597332526
 10
92.7955496915
 20
127.9724290419
 10
92.8049187966
 20
127.9918582935
 10
92.8063511707
 20
128.0164340336
 10
92.8006365754
 20
128.0391974199
 10
92.7850741752
 20
128.0687194142
 10
92.7524685719
 20
128.1062554393
 10
92.6902897515
 20
128.1502641562
 10
92.6519993552
 20
128.1675793055
  0
LINE
  5
33D
330
1F
100
AcDbEntity
  8
0
  6
SLD-Durchgehend
 62
     7
370
    15
100
AcDbLine
 10
92.6519993552
 20
128.1675793055
 30
0.0
 11
91.258929842
 21
128.6698741663
 31
0.0
  0
ARC
  5
33E
330
1F
100
AcDbEntity
  8
0
  6
SLD-Durchgehend
 62
     7
370
    15
100
AcDbCircle
 10
75.9663849928
 20
117.563655955
 30
0.0
 40
18.89999999999998
100
AcDbArc
 50
35.9890459682
 51
37.0739731725
  0
LINE
  5
33F
330
1F
100
AcDbEntity
  8
0
  6
SLD-Durchgehend
 62
     7
370
    15
100
AcDbLine
 10
91.045898185
 20
128.9574386377
 30
0.0
 11
91.7567692556
 21
129.4597325671
 31
0.0
  0
LWPOLYLINE
  5
340
330
1F
100
AcDbEntity
  8
0
  6
SLD-Durchgehend
 62
     7
370
    15
100
AcDbPolyline
 90
        9
 70
   128
 43
0.0
 10
91.7567692556
 20
129.4597325671
 10
91.7684219636
 20
129.4707268301
 10
91.7770981648
 20
129.4884992588
 10
91.7780052729
 20
129.5110018749
 10
91.7721286275
 20
129.5318113465
 10
91.7560949781
 20
129.5599754724
 10
91.7215410479
 20
129.5974258158
 10
91.6521835931
 20
129.6444454986
 10
91.5980178722
 20
129.6675786201
  0
LINE
  5
341
330
1F
100
AcDbEntity
  8
0
  6
SLD-Durchgehend
 62
     7
370
    15
100
AcDbLine
 10
91.5980178722
 20
129.6675786201
 30
0.0
 11
90.0480493762
 21
130.1698734809
 31
0.0
  0
LINE
  5
342
330
1F
100
AcDbEntity
  8
0
  6
SLD-Durchgehend
 62
     7
370
    15
100
AcDbLine
 10
89.7852264204
 20
130.4574379522
 30
0.0
 11
90.5059182875
 21
130.959732813
 31
0.0
  0
LWPOLYLINE
  5
343
330
1F
100
AcDbEntity
  8
0
  6
SLD-Durchgehend
 62
     7
370
    15
100
AcDbPolyline
 90
        9
 70
   128
 43
0.0
 10
90.5059182875
 20
130.959732813
 10
90.5160575964
 20
130.9689640824
 10
90.5249191307
 20
130.9878745872
 10
90.5242634796
 20
131.0086421493
 10
90.5175719269
 20
131.0271959577
 10
90.4995061316
 20
131.0545228246
 10
90.4593475022
 20
131.0928737569
 10
90.3742264815
 20
131.1439055774
 10
90.3116341539
 20
131.1675788659
  0
LINE
  5
344
330
1F
100
AcDbEntity
  8
0
  6
SLD-Durchgehend
 62
     7
370
    15
100
AcDbLine
 10
90.3116341539
 20
131.1675788659
 30
0.0
 11
88.5451219835
 21
131.6698737267
 31
0.0
  0
ARC
  5
345
330
1F
100
AcDbEntity
  8
0
  6
SLD-Durchgehend
 62
     7
370
    15
100
AcDbCircle
 10
75.9663849928
 20
117.563655955
 30
0.0
 40
18.89999999999999
100
AcDbArc
 50
48.5052018937
 51
49.6033126775
  0
LINE
  5
346
330
1F
100
AcDbEntity
  8
0
  6
SLD-Durchgehend
 62
     7
370
    15
100
AcDbLine
 10
88.2150193535
 20
131.9574381981
 30
0.0
 11
88.9648383342
 21
132.4597330589
 31
0.0
  0
LWPOLYLINE
  5
347
330
1F
100
AcDbEntity
  8
0
  6
SLD-Durchgehend
 62
     7
370
    15
100
AcDbPolyline
 90
        9
 70
   128
 43
0.0
 10
88.9648383342
 20
132.4597330589
 10
88.9735210546
 20
132.4671109963
 10
88.9820594199
 20
132.4830142606
 10
88.9824859657
 20
132.4980569828
 10
88.9774735876
 20
132.5141027395
 10
88.9630231865
 20
132.536826079
 10
88.929192894
 20
132.569921558
 10
88.8497166194
 20
132.6199633825
 10
88.722732649
 20
132.6675791118
  0
LINE
  5
348
330
1F
100
AcDbEntity
  8
0
  6
SLD-Durchgehend
 62
     7
370
    15
100
AcDbLine
 10
88.722732649
 20
132.6675791118
 30
0.0
 11
86.6273406752
 21
133.1698739726
 31
0.0
  0
ARC
  5
349
330
1F
100
AcDbEntity
  8
0
  6
SLD-Durchgehend
 62
     7
370
    15
100
AcDbCircle
 10
75.9663849928
 20
117.563655955
 30
0.0
 40
18.89999999999998
100
AcDbArc
 50
55.6621463087
 51
57.2396056671
  0
LINE
  5
34A
330
1F
100
AcDbEntity
  8
0
  6
SLD-Durchgehend
 62
     7
370
    15
100
AcDbLine
 10
86.1936861508
 20
133.4574375126
 30
0.0
 11
87.0127219566
 21
133.9597333047
 31
0.0
  0
LWPOLYLINE
  5
34B
330
1F
100
AcDbEntity
  8
0
  6
SLD-Durchgehend
 62
     7
370
    15
100
AcDbPolyline
 90
       10
 70
   128
 43
0.0
 10
87.0127219566
 20
133.9597333047
 10
87.0199359812
 20
133.9651368383
 10
87.0286196329
 20
133.9779518369
 10
87.0299588748
 20
133.9900515798
 10
87.0263406866
 20
134.0031832281
 10
87.0149776198
 20
134.0211428527
 10
86.9870519124
 20
134.0479835693
 10
86.9151994445
 20
134.0927373443
 10
86.7331463702
 20
134.1593902383
 10
86.6977710136
 20
134.1675784264
  0
LINE
  5
34C
330
1F
100
AcDbEntity
  8
0
  6
SLD-Durchgehend
 62
     7
370
    15
100
AcDbLine
 10
86.6977710136
 20
134.1675784264
 30
0.0
 11
84.0030087017
 21
134.6698742185
 31
0.0
  0
ARC
  5
34D
330
1F
100
AcDbEntity
  8
0
  6
SLD-Durchgehend
 62
     7
370
    15
100
AcDbCircle
 10
75.9663849928
 20
117.563655955
 30
0.0
 40
18.90000000000686
100
AcDbArc
 50
64.8355269229
 51
66.970848949
  0
LINE
  5
34E
330
1F
100
AcDbEntity
  8
0
  6
SLD-Durchgehend
 62
     7
370
    15
100
AcDbLine
 10
83.3600538642
 20
134.9574386898
 30
0.0
 11
84.3677732952
 21
135.4597326193
 31
0.0
  0
LWPOLYLINE
  5
34F
330
1F
100
AcDbEntity
  8
0
  6
SLD-Durchgehend
 62
     7
370
    15
100
AcDbPolyline
 90
        9
 70
   128
 43
0.0
 10
84.3677732952
 20
135.4597326193
 10
84.3800974869
 20
135.4686602775
 10
84.3850884445
 20
135.4768559161
 10
84.3857906618
 20
135.4867968533
 10
84.3824080982
 20
135.4962702665
 10
84.3720443406
 20
135.510025901
 10
84.3451933794
 20
135.5317815963
 10
84.2452987887
 20
135.5813298199
 10
83.9099909969
 20
135.6675796036
  0
LWPOLYLINE
  5
350
330
1F
100
AcDbEntity
  8
0
  6
SLD-Durchgehend
 62
     7
370
    15
100
AcDbPolyline
 90
        3
 70
   128
 43
0.0
 10
83.9099909969
 20
135.6675796036
 10
81.6265920036
 20
135.9659846697
 10
79.285821677
 20
136.169873533
  0
ARC
  5
351
330
1F
100
AcDbEntity
  8
0
  6
SLD-Durchgehend
 62
     7
370
    15
100
AcDbCircle
 10
75.9663849928
 20
117.563655955
 30
0.0
 40
18.89999999999998
100
AcDbArc
 50
79.8845863359
 51
88.5302739106
  0
ARC
  5
352
330
1F
100
AcDbEntity
  8
0
  6
SLD-Durchgehend
 62
     7
370
    15
100
AcDbCircle
 10
75.7990917864
 20
152.1659487869
 30
0.0
 40
15.72203823001814
100
AcDbArc
 50
272.3769622176
 51
284.7173040006
  0
LWPOLYLINE
  5
353
330
1F
100
AcDbEntity
  8
0
  6
SLD-Durchgehend
 62
     7
370
    15
100
AcDbPolyline
 90
       12
 70
   128
 43
0.0
 10
79.7932765306
 20
136.9597337965
 10
79.8049278416
 20
136.9632355694
 10
79.8148457285
 20
136.9675382797
 10
79.8227326338
 20
136.9736980472
 10
79.8247130912
 20
136.9776207778
 10
79.8246313677
 20
136.9820091698
 10
79.8227435768
 20
136.9859747413
 10
79.8168902144
 20
136.9920935307
 10
79.7962420945
 20
137.0042826805
 10
79.7060800575
 20
137.0340589259
 10
79.3320034024
 20
137.1001791034
 10
78.523551612
 20
137.1675789181
  0
LWPOLYLINE
  5
354
330
1F
100
AcDbEntity
  8
0
  6
SLD-Durchgehend
 62
     7
370
    15
100
AcDbPolyline
 90
        3
 70
   128
 43
0.0
 10
78.523551612
 20
137.1675789181
 10
75.9779320876
 20
137.2283663425
 10
73.4092183736
 20
137.1675789181
  0
LWPOLYLINE
  5
355
330
1F
100
AcDbEntity
  8
0
  6
SLD-Durchgehend
 62
     7
370
    15
100
AcDbPolyline
 90
       12
 70
   128
 43
0.0
 10
73.4092183736
 20
137.1675789181
 10
73.2449312088
 20
137.1587574307
 10
72.2904596802
 20
137.0490643952
 10
72.142357272
 20
137.0069127355
 10
72.1220868033
 20
136.9965173129
 10
72.1143053703
 20
136.9907449756
 10
72.109391014
 20
136.9849595997
 10
72.1078799431
 20
136.9806941423
 10
72.1084166177
 20
136.9764864269
 10
72.1114236255
 20
136.972150189
 10
72.1196041301
 20
136.9666646991
 10
72.139493455
 20
136.9597337965
  0
ARC
  5
356
330
1F
100
AcDbEntity
  8
0
  6
SLD-Durchgehend
 62
     7
370
    15
100
AcDbCircle
 10
76.0764982093
 20
151.7854897521
 30
0.0
 40
15.33959080586808
100
AcDbArc
 50
255.1282408537
 51
267.7774929281
  0
ARC
  5
357
330
1F
100
AcDbEntity
  8
0
  6
SLD-Durchgehend
 62
     7
370
    15
100
AcDbCircle
 10
75.9663849928
 20
117.563655955
 30
0.0
 40
18.90000000000077
100
AcDbArc
 50
91.4697260895
 51
100.1154136641
  0
LWPOLYLINE
  5
358
330
1F
100
AcDbEntity
  8
0
  6
SLD-Durchgehend
 62
     7
370
    15
100
AcDbPolyline
 90
        3
 70
   128
 43
0.0
 10
72.6469483085
 20
136.169873533
 10
70.3221897454
 20
135.9677336935
 10
68.0227789887
 20
135.6675796036
  0
LWPOLYLINE
  5
359
330
1F
100
AcDbEntity
  8
0
  6
SLD-Durchgehend
 62
     7
370
    15
100
AcDbPolyline
 90
       11
 70
   128
 43
0.0
 10
68.0227789887
 20
135.6675796036
 10
67.8151350327
 20
135.6234032485
 10
67.6337962829
 20
135.5578586284
 10
67.5868194409
 20
135.5312712315
 10
67.5642320745
 20
135.513516498
 10
67.5522357084
 20
135.499459115
 10
67.5474068009
 20
135.4888289992
 10
67.5472326436
 20
135.4784037743
 10
67.5510492035
 20
135.4705974284
 10
67.5625361361
 20
135.4610662732
 10
67.5649966903
 20
135.4597326193
  0
LINE
  5
35A
330
1F
100
AcDbEntity
  8
0
  6
SLD-Durchgehend
 62
     7
370
    15
100
AcDbLine
 10
67.5649966903
 20
135.4597326193
 30
0.0
 11
68.5727161214
 21
134.9574386898
 31
0.0
  0
ARC
  5
35B
330
1F
100
AcDbEntity
  8
0
  6
SLD-Durchgehend
 62
     7
370
    15
100
AcDbCircle
 10
75.9663849928
 20
117.563655955
 30
0.0
 40
18.89999999999997
100
AcDbArc
 50
113.029151051
 51
115.1644730771
  0
LINE
  5
35C
330
1F
100
AcDbEntity
  8
0
  6
SLD-Durchgehend
 62
     7
370
    15
100
AcDbLine
 10
67.9297612839
 20
134.6698742185
 30
0.0
 11
65.234998972
 21
134.1675784264
 31
0.0
  0
LWPOLYLINE
  5
35D
330
1F
100
AcDbEntity
  8
0
  6
SLD-Durchgehend
 62
     7
370
    15
100
AcDbPolyline
 90
       10
 70
   128
 43
0.0
 10
65.234998972
 20
134.1675784264
 10
65.0279752769
 20
134.0979229484
 10
64.9531053238
 20
134.0536534611
 10
64.9306138836
 20
134.0349059377
 10
64.9119594925
 20
134.013204259
 10
64.9045890056
 20
133.9983887795
 10
64.9028614022
 20
133.9836682949
 10
64.9066798248
 20
133.9725464407
 10
64.918460124
 20
133.9607540343
 10
64.920048029
 20
133.9597333047
  0
LINE
  5
35E
330
1F
100
AcDbEntity
  8
0
  6
SLD-Durchgehend
 62
     7
370
    15
100
AcDbLine
 10
64.920048029
 20
133.9597333047
 30
0.0
 11
65.7390838348
 21
133.4574375126
 31
0.0
  0
ARC
  5
35F
330
1F
100
AcDbEntity
  8
0
  6
SLD-Durchgehend
 62
     7
370
    15
100
AcDbCircle
 10
75.9663849928
 20
117.563655955
 30
0.0
 40
18.89999999999997
100
AcDbArc
 50
122.7603943329
 51
124.3378536913
  0
LINE
  5
360
330
1F
100
AcDbEntity
  8
0
  6
SLD-Durchgehend
 62
     7
370
    15
100
AcDbLine
 10
65.3054293104
 20
133.1698739726
 30
0.0
 11
63.2100373365
 21
132.6675791118
 31
0.0
  0
LWPOLYLINE
  5
361
330
1F
100
AcDbEntity
  8
0
  6
SLD-Durchgehend
 62
     7
370
    15
100
AcDbPolyline
 90
        9
 70
   128
 43
0.0
 10
63.2100373365
 20
132.6675791118
 10
63.0570899554
 20
132.6060177583
 10
62.9818586492
 20
132.5503749598
 10
62.9610007488
 20
132.5245968822
 10
62.9520870604
 20
132.5057795096
 10
62.9499981039
 20
132.4871549208
 10
62.9543902211
 20
132.4737122107
 10
62.9675619163
 20
132.4599835846
 10
62.9679316514
 20
132.4597330589
  0
LINE
  5
362
330
1F
100
AcDbEntity
  8
0
  6
SLD-Durchgehend
 62
     7
370
    15
100
AcDbLine
 10
62.9679316514
 20
132.4597330589
 30
0.0
 11
63.7177506321
 21
131.9574381981
 31
0.0
  0
ARC
  5
363
330
1F
100
AcDbEntity
  8
0
  6
SLD-Durchgehend
 62
     7
370
    15
100
AcDbCircle
 10
75.9663849928
 20
117.563655955
 30
0.0
 40
18.89999999999998
100
AcDbArc
 50
130.3966873225
 51
131.4947981063
  0
LINE
  5
364
330
1F
100
AcDbEntity
  8
0
  6
SLD-Durchgehend
 62
     7
370
    15
100
AcDbLine
 10
63.3876480021
 20
131.6698737267
 30
0.0
 11
61.6211358317
 21
131.1675788659
 31
0.0
  0
LWPOLYLINE
  5
365
330
1F
100
AcDbEntity
  8
0
  6
SLD-Durchgehend
 62
     7
370
    15
100
AcDbPolyline
 90
        9
 70
   128
 43
0.0
 10
61.6211358317
 20
131.1675788659
 10
61.5291854226
 20
131.1291981313
 10
61.4746415847
 20
131.093823706
 10
61.4268237584
 20
131.0462210152
 10
61.4138699927
 20
131.0243815008
 10
61.407348872
 20
131.0014430258
 10
61.4091211789
 20
130.9828044671
 10
61.416498185
 20
130.9692248527
 10
61.4268516981
 20
130.959732813
  0
LINE
  5
366
330
1F
100
AcDbEntity
  8
0
  6
SLD-Durchgehend
 62
     7
370
    15
100
AcDbLine
 10
61.4268516981
 20
130.959732813
 30
0.0
 11
62.1475435652
 21
130.4574379522
 31
0.0
  0
LINE
  5
367
330
1F
100
AcDbEntity
  8
0
  6
SLD-Durchgehend
 62
     7
370
    15
100
AcDbLine
 10
61.8847206094
 20
130.1698734809
 30
0.0
 11
60.3347521134
 21
129.6675786201
 31
0.0
  0
LWPOLYLINE
  5
368
330
1F
100
AcDbEntity
  8
0
  6
SLD-Durchgehend
 62
     7
370
    15
100
AcDbPolyline
 90
        9
 70
   128
 43
0.0
 10
60.3347521134
 20
129.6675786201
 10
60.2450992771
 20
129.6234236855
 10
60.2028898754
 20
129.5897600997
 10
60.1723126926
 20
129.5536322344
 10
60.1593840726
 20
129.5286122534
 10
60.1542916008
 20
129.5068025414
 10
60.1561374821
 20
129.4867781747
 10
60.1638246187
 20
129.4714104209
 10
60.17600073
 20
129.4597325671
  0
LINE
  5
369
330
1F
100
AcDbEntity
  8
0
  6
SLD-Durchgehend
 62
     7
370
    15
100
AcDbLine
 10
60.17600073
 20
129.4597325671
 30
0.0
 11
60.8868718006
 21
128.9574386377
 31
0.0
  0
ARC
  5
36A
330
1F
100
AcDbEntity
  8
0
  6
SLD-Durchgehend
 62
     7
370
    15
100
AcDbCircle
 10
75.9663849928
 20
117.563655955
 30
0.0
 40
18.89999999999997
100
AcDbArc
 50
142.9260268275
 51
144.0109540318
  0
LINE
  5
36B
330
1F
100
AcDbEntity
  8
0
  6
SLD-Durchgehend
 62
     7
370
    15
100
AcDbLine
 10
60.6738401436
 20
128.6698741663
 30
0.0
 11
59.2807706304
 21
128.1675793055
 31
0.0
  0
LWPOLYLINE
  5
36C
330
1F
100
AcDbEntity
  8
0
  6
SLD-Durchgehend
 62
     7
370
    15
100
AcDbPolyline
 90
        9
 70
   128
 43
0.0
 10
59.2807706304
 20
128.1675793055
 10
59.2026848205
 20
128.1249256629
 10
59.1650761523
 20
128.0908262182
 10
59.1403607138
 20
128.0567966226
 10
59.1292686619
 20
128.0305379826
 10
59.1260015823
 20
128.0039347533
 10
59.1305035957
 20
127.9840305272
 10
59.1439742454
 20
127.9649924312
 10
59.1504860528
 20
127.9597332526
  0
LINE
  5
36D
330
1F
100
AcDbEntity
  8
0
  6
SLD-Durchgehend
 62
     7
370
    15
100
AcDbLine
 10
59.1504860528
 20
127.9597332526
 30
0.0
 11
59.8628733166
 21
127.4574383918
 31
0.0
  0
ARC
  5
36E
330
1F
100
AcDbEntity
  8
0
  6
SLD-Durchgehend
 62
     7
370
    15
100
AcDbCircle
 10
75.9663849928
 20
117.563655955
 30
0.0
 40
18.89999999999997
100
AcDbArc
 50
148.4339897924
 51
149.4516361064
  0
LINE
  5
36F
330
1F
100
AcDbEntity
  8
0
  6
SLD-Durchgehend
 62
     7
370
    15
100
AcDbLine
 10
59.6896976091
 20
127.1698739204
 30
0.0
 11
58.4172688283
 21
126.6675790597
 31
0.0
  0
LWPOLYLINE
  5
370
330
1F
100
AcDbEntity
  8
0
  6
SLD-Durchgehend
 62
     7
370
    15
100
AcDbPolyline
 90
        9
 70
   128
 43
0.0
 10
58.4172688283
 20
126.6675790597
 10
58.3511710026
 20
126.6286711965
 10
58.3165556051
 20
126.5943743113
 10
58.2952059664
 20
126.5612900082
 10
58.2855015852
 20
126.5340730373
 10
58.2835886486
 20
126.5068197448
 10
58.2889847316
 20
126.485992578
 10
58.3038728543
 20
126.4654224563
 10
58.310997472
 20
126.4597330067
  0
LINE
  5
371
330
1F
100
AcDbEntity
  8
0
  6
SLD-Durchgehend
 62
     7
370
    15
100
AcDbLine
 10
58.310997472
 20
126.4597330067
 30
0.0
 11
59.0325601258
 21
125.9574381459
 31
0.0
  0
ARC
  5
372
330
1F
100
AcDbEntity
  8
0
  6
SLD-Durchgehend
 62
     7
370
    15
100
AcDbCircle
 10
75.9663849928
 20
117.563655955
 30
0.0
 40
18.89999999999997
100
AcDbArc
 50
153.6332398891
 51
154.6022022657
  0
LINE
  5
373
330
1F
100
AcDbEntity
  8
0
  6
SLD-Durchgehend
 62
     7
370
    15
100
AcDbLine
 10
58.8930368282
 20
125.6698736746
 30
0.0
 11
57.7171861984
 21
125.1675788138
 31
0.0
  0
LWPOLYLINE
  5
374
330
1F
100
AcDbEntity
  8
0
  6
SLD-Durchgehend
 62
     7
370
    15
100
AcDbPolyline
 90
        9
 70
   128
 43
0.0
 10
57.7171861984
 20
125.1675788138
 10
57.6603494443
 20
125.1317946065
 10
57.6288968184
 20
125.0980011012
 10
57.6101884105
 20
125.0655454408
 10
57.6018810131
 20
125.0376867886
 10
57.6012290873
 20
125.0100334931
 10
57.6074913003
 20
124.9883052718
 10
57.6237484672
 20
124.9662231479
 10
57.6319645949
 20
124.9597327608
  0
LINE
  5
375
330
1F
100
AcDbEntity
  8
0
  6
SLD-Durchgehend
 62
     7
370
    15
100
AcDbLine
 10
57.6319645949
 20
124.9597327608
 30
0.0
 11
58.3684936025
 21
124.4574383657
 31
0.0
  0
ARC
  5
376
330
1F
100
AcDbEntity
  8
0
  6
SLD-Durchgehend
 62
     7
370
    15
100
AcDbCircle
 10
75.9663849928
 20
117.563655955
 30
0.0
 40
18.89999999999998
100
AcDbArc
 50
158.6077784115
 51
159.5411033901
  0
LINE
  5
377
330
1F
100
AcDbEntity
  8
0
  6
SLD-Durchgehend
 62
     7
370
    15
100
AcDbLine
 10
58.2585360714
 20
124.1698738944
 30
0.0
 11
57.1622632303
 21
123.6675790336
 31
0.0
  0
LWPOLYLINE
  5
378
330
1F
100
AcDbEntity
  8
0
  6
SLD-Durchgehend
 62
     7
370
    15
100
AcDbPolyline
 90
        9
 70
   128
 43
0.0
 10
57.1622632303
 20
123.6675790336
 10
57.112828628
 20
123.6344956618
 10
57.0844028004
 20
123.6015487287
 10
57.0679519184
 20
123.5696635034
 10
57.0610135653
 20
123.5413675953
 10
57.0615574576
 20
123.51346098
 10
57.0687007018
 20
123.4908824611
 10
57.0863604404
 20
123.4672929916
 10
57.0960592337
 20
123.4597329806
  0
LINE
  5
379
330
1F
100
AcDbEntity
  8
0
  6
SLD-Durchgehend
 62
     7
370
    15
100
AcDbLine
 10
57.0960592337
 20
123.4597329806
 30
0.0
 11
57.8523825713
 21
122.9574381199
 31
0.0
  0
ARC
  5
37A
330
1F
100
AcDbEntity
  8
0
  6
SLD-Durchgehend
 62
     7
370
    15
100
AcDbCircle
 10
75.9663849928
 20
117.563655955
 30
0.0
 40
18.89999999999997
100
AcDbArc
 50
163.4181186606
 51
164.3256018524
  0
LINE
  5
37B
330
1F
100
AcDbEntity
  8
0
  6
SLD-Durchgehend
 62
     7
370
    15
100
AcDbLine
 10
57.7692266413
 20
122.6698736485
 30
0.0
 11
56.7399233439
 21
122.1675787877
 31
0.0
  0
LWPOLYLINE
  5
37C
330
1F
100
AcDbEntity
  8
0
  6
SLD-Durchgehend
 62
     7
370
    15
100
AcDbPolyline
 90
        9
 70
   128
 43
0.0
 10
56.7399233439
 20
122.1675787877
 10
56.7050862916
 20
122.1446319308
 10
56.6755018987
 20
122.112004907
 10
56.6587902464
 20
122.0802710216
 10
56.6514924027
 20
122.0512123603
 10
56.651732684
 20
122.0219273876
 10
56.6586784877
 20
121.9978350039
 10
56.6758129605
 20
121.9724327151
 10
56.6913381078
 20
121.9597327348
  0
LINE
  5
37D
330
1F
100
AcDbEntity
  8
0
  6
SLD-Durchgehend
 62
     7
370
    15
100
AcDbLine
 10
56.6913381078
 20
121.9597327348
 30
0.0
 11
57.4718329914
 21
121.4574381068
 31
0.0
  0
ARC
  5
37E
330
1F
100
AcDbEntity
  8
0
  6
SLD-Durchgehend
 62
     7
370
    15
100
AcDbCircle
 10
75.9663849928
 20
117.563655955
 30
0.0
 40
18.89999999999997
100
AcDbArc
 50
168.1107715436
 51
169.000223065
  0
LINE
  5
37F
330
1F
100
AcDbEntity
  8
0
  6
SLD-Durchgehend
 62
     7
370
    15
100
AcDbLine
 10
57.4136178799
 20
121.1698736355
 30
0.0
 11
56.4415667065
 21
120.6675790075
 31
0.0
  0
LWPOLYLINE
  5
380
330
1F
100
AcDbEntity
  8
0
  6
SLD-Durchgehend
 62
     7
370
    15
100
AcDbPolyline
 90
        9
 70
   128
 43
0.0
 10
56.4415667065
 20
120.6675790075
 10
56.4078211643
 20
120.643513865
 10
56.382632614
 20
120.6124204967
 10
56.3687391438
 20
120.5815760244
 10
56.3634585448
 20
120.5526598554
 10
56.365431086
 20
120.5239311151
 10
56.3737291702
 20
120.4994673665
 10
56.3931528338
 20
120.4726522613
 10
56.4096558698
 20
120.4597329546
  0
LINE
  5
381
330
1F
100
AcDbEntity
  8
0
  6
SLD-Durchgehend
 62
     7
370
    15
100
AcDbLine
 10
56.4096558698
 20
120.4597329546
 30
0.0
 11
57.2185896196
 21
119.9574380938
 31
0.0
  0
ARC
  5
382
330
1F
100
AcDbEntity
  8
0
  6
SLD-Durchgehend
 62
     7
370
    15
100
AcDbCircle
 10
75.9663849928
 20
117.563655955
 30
0.0
 40
18.89999999999997
100
AcDbArc
 50
172.723651697
 51
173.6016626482
  0
LINE
  5
383
330
1F
100
AcDbEntity
  8
0
  6
SLD-Durchgehend
 62
     7
370
    15
100
AcDbLine
 10
57.1841101952
 20
119.6698736224
 30
0.0
 11
56.2615550913
 21
119.1675789945
 31
0.0
  0
ARC
  5
384
330
1F
100
AcDbEntity
  8
0
  6
SLD-Durchgehend
 62
     7
370
    15
100
AcDbCircle
 10
56.3125485846
 20
119.0591739617
 30
0.0
 40
0.1197997807799085
100
AcDbArc
 50
115.1921919634
 51
236.1049141144
  0
LINE
  5
385
330
1F
100
AcDbEntity
  8
0
  6
SLD-Durchgehend
 62
     7
370
    15
100
AcDbLine
 10
56.2457393714
 20
118.9597329415
 30
0.0
 11
57.0875301816
 21
118.4574381972
 31
0.0
  0
ARC
  5
386
330
1F
100
AcDbEntity
  8
0
  6
SLD-Durchgehend
 62
     7
370
    15
100
AcDbCircle
 10
75.9663849928
 20
117.563655955
 30
0.0
 40
18.89999999999998
100
AcDbArc
 50
177.2894679724
 51
178.1619217522
  0
LINE
  5
387
330
1F
100
AcDbEntity
  8
0
  6
SLD-Durchgehend
 62
     7
370
    15
100
AcDbLine
 10
57.0761103042
 20
118.1698737258
 30
0.0
 11
56.1966586717
 21
117.6675790033
 31
0.0
  0
ARC
  5
388
330
1F
100
AcDbEntity
  8
0
  6
SLD-Durchgehend
 62
     7
370
    15
100
AcDbCircle
 10
56.2561833883
 20
117.563655955
 30
0.0
 40
0.1197630654656253
100
AcDbArc
 50
119.8030827258
 51
240.1969172742
  0
LINE
  5
389
330
1F
100
AcDbEntity
  8
0
  6
SLD-Durchgehend
 62
     7
370
    15
100
AcDbLine
 10
56.1966586717
 20
117.4597329067
 30
0.0
 11
57.0761103042
 21
116.9574381841
 31
0.0
  0
ARC
  5
38A
330
1F
100
AcDbEntity
  8
0
  6
SLD-Durchgehend
 62
     7
370
    15
100
AcDbCircle
 10
75.9663849928
 20
117.563655955
 30
0.0
 40
18.89999999999998
100
AcDbArc
 50
181.8380782478
 51
182.7105320276
  0
LINE
  5
38B
330
1F
100
AcDbEntity
  8
0
  6
SLD-Durchgehend
 62
     7
370
    15
100
AcDbLine
 10
57.0875301816
 20
116.6698737128
 30
0.0
 11
56.2457393714
 21
116.1675789684
 31
0.0
  0
ARC
  5
38C
330
1F
100
AcDbEntity
  8
0
  6
SLD-Durchgehend
 62
     7
370
    15
100
AcDbCircle
 10
56.3143127293
 20
116.068272188
 30
0.0
 40
0.12068198724956
100
AcDbArc
 50
124.6258703726
 51
244.0770235497
  0
LINE
  5
38D
330
1F
100
AcDbEntity
  8
0
  6
SLD-Durchgehend
 62
     7
370
    15
100
AcDbLine
 10
56.2615550913
 20
115.9597329154
 30
0.0
 11
57.1841101952
 21
115.4574382875
 31
0.0
  0
ARC
  5
38E
330
1F
100
AcDbEntity
  8
0
  6
SLD-Durchgehend
 62
     7
370
    15
100
AcDbCircle
 10
75.9663849928
 20
117.563655955
 30
0.0
 40
18.89999999999997
100
AcDbArc
 50
186.3983373518
 51
187.276348303
  0
LINE
  5
38F
330
1F
100
AcDbEntity
  8
0
  6
SLD-Durchgehend
 62
     7
370
    15
100
AcDbLine
 10
57.2185896196
 20
115.1698738161
 30
0.0
 11
56.4096558698
 21
114.6675789554
 31
0.0
  0
ARC
  5
390
330
1F
100
AcDbEntity
  8
0
  6
SLD-Durchgehend
 62
     7
370
    15
100
AcDbCircle
 10
56.4860229658
 20
114.5729310012
 30
0.0
 40
0.1216148369770104
100
AcDbArc
 50
128.8984691223
 51
248.5585878788
  0
LINE
  5
391
330
1F
100
AcDbEntity
  8
0
  6
SLD-Durchgehend
 62
     7
370
    15
100
AcDbLine
 10
56.4415667065
 20
114.4597329024
 30
0.0
 11
57.4136178799
 21
113.9574382745
 31
0.0
  0
ARC
  5
392
330
1F
100
AcDbEntity
  8
0
  6
SLD-Durchgehend
 62
     7
370
    15
100
AcDbCircle
 10
75.9663849928
 20
117.563655955
 30
0.0
 40
18.89999999999997
100
AcDbArc
 50
190.999776935
 51
191.8892284564
  0
LINE
  5
393
330
1F
100
AcDbEntity
  8
0
  6
SLD-Durchgehend
 62
     7
370
    15
100
AcDbLine
 10
57.4718329914
 20
113.6698738031
 30
0.0
 11
56.6913381078
 21
113.1675791751
 31
0.0
  0
LWPOLYLINE
  5
394
330
1F
100
AcDbEntity
  8
0
  6
SLD-Durchgehend
 62
     7
370
    15
100
AcDbPolyline
 90
        9
 70
   128
 43
0.0
 10
56.6913381078
 20
113.1675791751
 10
56.669999645
 20
113.1482533004
 10
56.65617323
 20
113.1232025858
 10
56.6508255758
 20
113.0968717683
 10
56.6527627267
 20
113.068155368
 10
56.6610291459
 20
113.0414762359
 10
56.6805608429
 20
113.0083602678
 10
56.7164912679
 20
112.9737900395
 10
56.7399233439
 20
112.9597331222
  0
LINE
  5
395
330
1F
100
AcDbEntity
  8
0
  6
SLD-Durchgehend
 62
     7
370
    15
100
AcDbLine
 10
56.7399233439
 20
112.9597331222
 30
0.0
 11
57.7692266413
 21
112.4574382614
 31
0.0
  0
ARC
  5
396
330
1F
100
AcDbEntity
  8
0
  6
SLD-Durchgehend
 62
     7
370
    15
100
AcDbCircle
 10
75.9663849928
 20
117.563655955
 30
0.0
 40
18.89999999999997
100
AcDbArc
 50
195.6743981476
 51
196.5818813394
  0
LINE
  5
397
330
1F
100
AcDbEntity
  8
0
  6
SLD-Durchgehend
 62
     7
370
    15
100
AcDbLine
 10
57.8523825713
 20
112.1698737901
 30
0.0
 11
57.0960592337
 21
111.6675789293
 31
0.0
  0
LWPOLYLINE
  5
398
330
1F
100
AcDbEntity
  8
0
  6
SLD-Durchgehend
 62
     7
370
    15
100
AcDbPolyline
 90
        9
 70
   128
 43
0.0
 10
57.0960592337
 20
111.6675789293
 10
57.0770453521
 20
111.649917328
 10
57.0645619043
 20
111.6261490445
 10
57.0603038975
 20
111.5960063238
 10
57.0644408323
 20
111.5685332391
 10
57.0746201881
 20
111.5424338553
 10
57.0981956877
 20
111.5077951748
 10
57.1408148714
 20
111.4714447234
 10
57.1622632303
 20
111.4597328763
  0
LINE
  5
399
330
1F
100
AcDbEntity
  8
0
  6
SLD-Durchgehend
 62
     7
370
    15
100
AcDbLine
 10
57.1622632303
 20
111.4597328763
 30
0.0
 11
58.2585360714
 21
110.9574380155
 31
0.0
  0
ARC
  5
39A
330
1F
100
AcDbEntity
  8
0
  6
SLD-Durchgehend
 62
     7
370
    15
100
AcDbCircle
 10
75.9663849928
 20
117.563655955
 30
0.0
 40
18.89999999999997
100
AcDbArc
 50
200.4588966099
 51
201.3922215885
  0
LINE
  5
39B
330
1F
100
AcDbEntity
  8
0
  6
SLD-Durchgehend
 62
     7
370
    15
100
AcDbLine
 10
58.3684936025
 20
110.6698735442
 30
0.0
 11
57.6319645949
 21
110.1675791491
 31
0.0
  0
LWPOLYLINE
  5
39C
330
1F
100
AcDbEntity
  8
0
  6
SLD-Durchgehend
 62
     7
370
    15
100
AcDbPolyline
 90
        9
 70
   128
 43
0.0
 10
57.6319645949
 20
110.1675791491
 10
57.6150480517
 20
110.1515664544
 10
57.6037604221
 20
110.129153711
 10
57.6006311782
 20
110.1007683959
 10
57.6054386653
 20
110.0747067306
 10
57.6162401446
 20
110.0492317986
 10
57.6415814318
 20
110.0137982342
 10
57.6880432524
 20
109.9751176137
 10
57.7171861984
 20
109.9597330961
  0
LINE
  5
39D
330
1F
100
AcDbEntity
  8
0
  6
SLD-Durchgehend
 62
     7
370
    15
100
AcDbLine
 10
57.7171861984
 20
109.9597330961
 30
0.0
 11
58.8930368282
 21
109.4574382353
 31
0.0
  0
ARC
  5
39E
330
1F
100
AcDbEntity
  8
0
  6
SLD-Durchgehend
 62
     7
370
    15
100
AcDbCircle
 10
75.9663849928
 20
117.563655955
 30
0.0
 40
18.89999999999997
100
AcDbArc
 50
205.3977977343
 51
206.3667601109
  0
LINE
  5
39F
330
1F
100
AcDbEntity
  8
0
  6
SLD-Durchgehend
 62
     7
370
    15
100
AcDbLine
 10
59.0325601258
 20
109.169873764
 30
0.0
 11
58.310997472
 21
108.6675789032
 31
0.0
  0
LWPOLYLINE
  5
3A0
330
1F
100
AcDbEntity
  8
0
  6
SLD-Durchgehend
 62
     7
370
    15
100
AcDbPolyline
 90
        9
 70
   128
 43
0.0
 10
58.310997472
 20
108.6675789032
 10
58.2959864147
 20
108.6532160465
 10
58.2857400038
 20
108.632245456
 10
58.2835588463
 20
108.6057111446
 10
58.2889027752
 20
108.581208979
 10
58.3036772766
 20
108.5508590389
 10
58.3340439804
 20
108.5138147522
 10
58.3898991205
 20
108.47273877
 10
58.4172688283
 20
108.4597328503
  0
LINE
  5
3A1
330
1F
100
AcDbEntity
  8
0
  6
SLD-Durchgehend
 62
     7
370
    15
100
AcDbLine
 10
58.4172688283
 20
108.4597328503
 30
0.0
 11
59.6896976091
 21
107.9574379895
 31
0.0
  0
ARC
  5
3A2
330
1F
100
AcDbEntity
  8
0
  6
SLD-Durchgehend
 62
     7
370
    15
100
AcDbCircle
 10
75.9663849928
 20
117.563655955
 30
0.0
 40
18.89999999999998
100
AcDbArc
 50
210.5483638936
 51
211.5660102076
  0
LINE
  5
3A3
330
1F
100
AcDbEntity
  8
0
  6
SLD-Durchgehend
 62
     7
370
    15
100
AcDbLine
 10
59.8628733166
 20
107.6698735181
 30
0.0
 11
59.1504860528
 21
107.1675786573
 31
0.0
  0
LWPOLYLINE
  5
3A4
330
1F
100
AcDbEntity
  8
0
  6
SLD-Durchgehend
 62
     7
370
    15
100
AcDbPolyline
 90
        9
 70
   128
 43
0.0
 10
59.1504860528
 20
107.1675786573
 10
59.1372202941
 20
107.154882868
 10
59.127851189
 20
107.1354536164
 10
59.1264188149
 20
107.1108778763
 10
59.1321334102
 20
107.08811449
 10
59.1476958104
 20
107.0585924957
 10
59.1803014137
 20
107.0210564706
 10
59.2424802341
 20
106.9770477537
 10
59.2807706304
 20
106.9597326044
  0
LINE
  5
3A5
330
1F
100
AcDbEntity
  8
0
  6
SLD-Durchgehend
 62
     7
370
    15
100
AcDbLine
 10
59.2807706304
 20
106.9597326044
 30
0.0
 11
60.6738401436
 21
106.4574377436
 31
0.0
  0
ARC
  5
3A6
330
1F
100
AcDbEntity
  8
0
  6
SLD-Durchgehend
 62
     7
370
    15
100
AcDbCircle
 10
75.9663849928
 20
117.563655955
 30
0.0
 40
18.89999999999997
100
AcDbArc
 50
215.9890459682
 51
217.0739731725
  0
LINE
  5
3A7
330
1F
100
AcDbEntity
  8
0
  6
SLD-Durchgehend
 62
     7
370
    15
100
AcDbLine
 10
60.8868718006
 20
106.1698732722
 30
0.0
 11
60.17600073
 21
105.6675793428
 31
0.0
  0
LWPOLYLINE
  5
3A8
330
1F
100
AcDbEntity
  8
0
  6
SLD-Durchgehend
 62
     7
370
    15
100
AcDbPolyline
 90
        9
 70
   128
 43
0.0
 10
60.17600073
 20
105.6675793428
 10
60.1643480219
 20
105.6565850798
 10
60.1556718208
 20
105.6388126511
 10
60.1547647126
 20
105.616310035
 10
60.1606413581
 20
105.5955005634
 10
60.1766750075
 20
105.5673364375
 10
60.2112289377
 20
105.5298860941
 10
60.2805863925
 20
105.4828664113
 10
60.3347521134
 20
105.4597332898
  0
LINE
  5
3A9
330
1F
100
AcDbEntity
  8
0
  6
SLD-Durchgehend
 62
     7
370
    15
100
AcDbLine
 10
60.3347521134
 20
105.4597332898
 30
0.0
 11
61.8847206094
 21
104.9574384291
 31
0.0
  0
LINE
  5
3AA
330
1F
100
AcDbEntity
  8
0
  6
SLD-Durchgehend
 62
     7
370
    15
100
AcDbLine
 10
62.1475435652
 20
104.6698739577
 30
0.0
 11
61.4268516981
 21
104.1675790969
 31
0.0
  0
LWPOLYLINE
  5
3AB
330
1F
100
AcDbEntity
  8
0
  6
SLD-Durchgehend
 62
     7
370
    15
100
AcDbPolyline
 90
        9
 70
   128
 43
0.0
 10
61.4268516981
 20
104.1675790969
 10
61.4167123892
 20
104.1583478276
 10
61.4078508549
 20
104.1394373227
 10
61.408506506
 20
104.1186697606
 10
61.4151980587
 20
104.1001159523
 10
61.433263854
 20
104.0727890853
 10
61.4734224834
 20
104.034438153
 10
61.5585435041
 20
103.9834063325
 10
61.6211358317
 20
103.959733044
  0
LINE
  5
3AC
330
1F
100
AcDbEntity
  8
0
  6
SLD-Durchgehend
 62
     7
370
    15
100
AcDbLine
 10
61.6211358317
 20
103.959733044
 30
0.0
 11
63.3876480021
 21
103.4574381832
 31
0.0
  0
ARC
  5
3AD
330
1F
100
AcDbEntity
  8
0
  6
SLD-Durchgehend
 62
     7
370
    15
100
AcDbCircle
 10
75.9663849928
 20
117.563655955
 30
0.0
 40
18.89999999999997
100
AcDbArc
 50
228.5052018937
 51
229.6033126775
  0
LINE
  5
3AE
330
1F
100
AcDbEntity
  8
0
  6
SLD-Durchgehend
 62
     7
370
    15
100
AcDbLine
 10
63.7177506321
 20
103.1698737118
 30
0.0
 11
62.9679316514
 21
102.667578851
 31
0.0
  0
LWPOLYLINE
  5
3AF
330
1F
100
AcDbEntity
  8
0
  6
SLD-Durchgehend
 62
     7
370
    15
100
AcDbPolyline
 90
        9
 70
   128
 43
0.0
 10
62.9679316514
 20
102.667578851
 10
62.959248931
 20
102.6602009136
 10
62.9507105656
 20
102.6442976493
 10
62.9502840199
 20
102.6292549271
 10
62.955296398
 20
102.6132091705
 10
62.9697467991
 20
102.590485831
 10
63.0035770916
 20
102.557390352
 10
63.0830533661
 20
102.5073485274
 10
63.2100373365
 20
102.4597327981
  0
LINE
  5
3B0
330
1F
100
AcDbEntity
  8
0
  6
SLD-Durchgehend
 62
     7
370
    15
100
AcDbLine
 10
63.2100373365
 20
102.4597327981
 30
0.0
 11
65.3054293104
 21
101.9574379373
 31
0.0
  0
ARC
  5
3B1
330
1F
100
AcDbEntity
  8
0
  6
SLD-Durchgehend
 62
     7
370
    15
100
AcDbCircle
 10
75.9663849928
 20
117.563655955
 30
0.0
 40
18.89999999999997
100
AcDbArc
 50
235.6621463087
 51
237.2396056671
  0
LINE
  5
3B2
330
1F
100
AcDbEntity
  8
0
  6
SLD-Durchgehend
 62
     7
370
    15
100
AcDbLine
 10
65.7390838348
 20
101.6698743973
 30
0.0
 11
64.920048029
 21
101.1675786052
 31
0.0
  0
LWPOLYLINE
  5
3B3
330
1F
100
AcDbEntity
  8
0
  6
SLD-Durchgehend
 62
     7
370
    15
100
AcDbPolyline
 90
       10
 70
   128
 43
0.0
 10
64.920048029
 20
101.1675786052
 10
64.9128340044
 20
101.1621750716
 10
64.9041503527
 20
101.149360073
 10
64.9028111108
 20
101.1372603301
 10
64.906429299
 20
101.1241286818
 10
64.9177923657
 20
101.1061690572
 10
64.9457180731
 20
101.0793283406
 10
65.0175705411
 20
101.0345745656
 10
65.1996236153
 20
100.9679216716
 10
65.234998972
 20
100.9597334836
  0
LINE
  5
3B4
330
1F
100
AcDbEntity
  8
0
  6
SLD-Durchgehend
 62
     7
370
    15
100
AcDbLine
 10
65.234998972
 20
100.9597334836
 30
0.0
 11
67.9297612839
 21
100.4574376914
 31
0.0
  0
ARC
  5
3B5
330
1F
100
AcDbEntity
  8
0
  6
SLD-Durchgehend
 62
     7
370
    15
100
AcDbCircle
 10
75.9663849928
 20
117.563655955
 30
0.0
 40
18.90000000000704
100
AcDbArc
 50
244.8355269229
 51
246.970848949
  0
LINE
  5
3B6
330
1F
100
AcDbEntity
  8
0
  6
SLD-Durchgehend
 62
     7
370
    15
100
AcDbLine
 10
68.5727161214
 20
100.1698732201
 30
0.0
 11
67.5649966903
 21
99.6675792906
 31
0.0
  0
LWPOLYLINE
  5
3B7
330
1F
100
AcDbEntity
  8
0
  6
SLD-Durchgehend
 62
     7
370
    15
100
AcDbPolyline
 90
        9
 70
   128
 43
0.0
 10
67.5649966903
 20
99.6675792906
 10
67.5526724987
 20
99.6586516324
 10
67.547681541
 20
99.6504559938
 10
67.5469793238
 20
99.6405150566
 10
67.5503618874
 20
99.6310416434
 10
67.560725645
 20
99.617286009
 10
67.5875766062
 20
99.5955303136
 10
67.6874711968
 20
99.54598209
 10
68.0227789887
 20
99.4597323064
  0
LWPOLYLINE
  5
3B8
330
1F
100
AcDbEntity
  8
0
  6
SLD-Durchgehend
 62
     7
370
    15
100
AcDbPolyline
 90
        3
 70
   128
 43
0.0
 10
68.0227789887
 20
99.4597323064
 10
70.306177982
 20
99.1613272402
 10
72.6469483085
 20
98.9574383769
  0
ARC
  5
3B9
330
1F
100
AcDbEntity
  8
0
  6
SLD-Durchgehend
 62
     7
370
    15
100
AcDbCircle
 10
75.9663849928
 20
117.563655955
 30
0.0
 40
18.89999999999999
100
AcDbArc
 50
259.8845863359
 51
268.5302739106
  0
ARC
  5
3BA
330
1F
100
AcDbEntity
  8
0
  6
SLD-Durchgehend
 62
     7
370
    15
100
AcDbCircle
 10
76.1336781992
 20
82.961363123
 30
0.0
 40
15.72203823001814
100
AcDbArc
 50
92.3769622176
 51
104.7173040006
  0
LWPOLYLINE
  5
3BB
330
1F
100
AcDbEntity
  8
0
  6
SLD-Durchgehend
 62
     7
370
    15
100
AcDbPolyline
 90
       12
 70
   128
 43
0.0
 10
72.139493455
 20
98.1675781134
 10
72.127842144
 20
98.1640763406
 10
72.117924257
 20
98.1597736303
 10
72.1100373518
 20
98.1536138628
 10
72.1080568944
 20
98.1496911321
 10
72.1081386179
 20
98.1453027401
 10
72.1100264088
 20
98.1413371686
 10
72.1158797712
 20
98.1352183793
 10
72.1365278911
 20
98.1230292294
 10
72.2266899281
 20
98.093252984
 10
72.6007665832
 20
98.0271328065
 10
73.4092183736
 20
97.9597329918
  0
LWPOLYLINE
  5
3BC
330
1F
100
AcDbEntity
  8
0
  6
SLD-Durchgehend
 62
     7
370
    15
100
AcDbPolyline
 90
        3
 70
   128
 43
0.0
 10
73.4092183736
 20
97.9597329918
 10
75.954837898
 20
97.8989455674
 10
78.523551612
 20
97.9597329918
  0
LWPOLYLINE
  5
3BD
330
1F
100
AcDbEntity
  8
0
  6
SLD-Durchgehend
 62
     7
370
    15
100
AcDbPolyline
 90
       12
 70
   128
 43
0.0
 10
78.523551612
 20
97.9597329918
 10
78.6878387768
 20
97.9685544792
 10
79.6423103054
 20
98.0782475147
 10
79.7904127136
 20
98.1203991745
 10
79.8106831823
 20
98.130794597
 10
79.8184646152
 20
98.1365669343
 10
79.8233789716
 20
98.1423523102
 10
79.8248900425
 20
98.1466177676
 10
79.8243533679
 20
98.150825483
 10
79.8213463601
 20
98.1551617209
 10
79.8131658555
 20
98.1606472108
 10
79.7932765306
 20
98.1675781134
  0
ARC
  5
3BE
330
1F
100
AcDbEntity
  8
0
  6
SLD-Durchgehend
 62
     7
370
    15
100
AcDbCircle
 10
75.8562717763
 20
83.3418221578
 30
0.0
 40
15.33959080586805
100
AcDbArc
 50
75.1282408537
 51
87.7774929281
  0
ARC
  5
3BF
330
1F
100
AcDbEntity
  8
0
  6
SLD-Durchgehend
 62
     7
370
    15
100
AcDbCircle
 10
75.9663849928
 20
117.563655955
 30
0.0
 40
18.90000000000077
100
AcDbArc
 50
271.4697260895
 51
280.1154136641
  0
LWPOLYLINE
  5
3C0
330
1F
100
AcDbEntity
  8
0
  6
SLD-Durchgehend
 62
     7
370
    15
100
AcDbPolyline
 90
        3
 70
   128
 43
0.0
 10
79.285821677
 20
98.9574383769
 10
81.6105802402
 20
99.1595782164
 10
83.9099909969
 20
99.4597323064
  0
LWPOLYLINE
  5
3C1
330
1F
100
AcDbEntity
  8
0
  6
SLD-Durchgehend
 62
     7
370
    15
100
AcDbPolyline
 90
       11
 70
   128
 43
0.0
 10
83.9099909969
 20
99.4597323064
 10
84.1176349529
 20
99.5039086614
 10
84.2989737027
 20
99.5694532815
 10
84.3459505447
 20
99.5960406784
 10
84.3685379111
 20
99.6137954119
 10
84.3805342772
 20
99.6278527949
 10
84.3853631847
 20
99.6384829108
 10
84.385537342
 20
99.6489081357
 10
84.3817207821
 20
99.6567144815
 10
84.3702338495
 20
99.6662456367
 10
84.3677732952
 20
99.6675792906
  0
LINE
  5
3C2
330
1F
100
AcDbEntity
  8
0
  6
SLD-Durchgehend
 62
     7
370
    15
100
AcDbLine
 10
84.3677732952
 20
99.6675792906
 30
0.0
 11
83.3600538642
 21
100.1698732201
 31
0.0
  0
ARC
  5
3C3
330
1F
100
AcDbEntity
  8
0
  6
SLD-Durchgehend
 62
     7
370
    15
100
AcDbCircle
 10
75.9663849928
 20
117.563655955
 30
0.0
 40
18.89999999999999
100
AcDbArc
 50
293.029151051
 51
295.1644730771
  0
LINE
  5
3C4
330
1F
100
AcDbEntity
  8
0
  6
SLD-Durchgehend
 62
     7
370
    15
100
AcDbLine
 10
84.0030087017
 20
100.4574376914
 30
0.0
 11
86.6977710136
 21
100.9597334836
 31
0.0
  0
LWPOLYLINE
  5
3C5
330
1F
100
AcDbEntity
  8
0
  6
SLD-Durchgehend
 62
     7
370
    15
100
AcDbPolyline
 90
       10
 70
   128
 43
0.0
 10
86.6977710136
 20
100.9597334836
 10
86.9047947087
 20
101.0293889616
 10
86.9796646618
 20
101.0736584488
 10
87.002156102
 20
101.0924059722
 10
87.0208104931
 20
101.1141076509
 10
87.02818098
 20
101.1289231304
 10
87.0299085834
 20
101.143643615
 10
87.0260901608
 20
101.1547654692
 10
87.0143098616
 20
101.1665578756
 10
87.0127219566
 20
101.1675786052
  0
LINE
  5
3C6
330
1F
100
AcDbEntity
  8
0
  6
SLD-Durchgehend
 62
     7
370
    15
100
AcDbLine
 10
87.0127219566
 20
101.1675786052
 30
0.0
 11
86.1936861508
 21
101.6698743973
 31
0.0
  0
ARC
  5
3C7
330
1F
100
AcDbEntity
  8
0
  6
SLD-Durchgehend
 62
     7
370
    15
100
AcDbCircle
 10
75.9663849928
 20
117.563655955
 30
0.0
 40
18.89999999999998
100
AcDbArc
 50
302.7603943329
 51
304.3378536913
  0
LINE
  5
3C8
330
1F
100
AcDbEntity
  8
0
  6
SLD-Durchgehend
 62
     7
370
    15
100
AcDbLine
 10
86.6273406752
 20
101.9574379373
 30
0.0
 11
88.722732649
 21
102.4597327981
 31
0.0
  0
LWPOLYLINE
  5
3C9
330
1F
100
AcDbEntity
  8
0
  6
SLD-Durchgehend
 62
     7
370
    15
100
AcDbPolyline
 90
        9
 70
   128
 43
0.0
 10
88.722732649
 20
102.4597327981
 10
88.8756800302
 20
102.5212941516
 10
88.9509113364
 20
102.5769369501
 10
88.9717692368
 20
102.6027150277
 10
88.9806829252
 20
102.6215324003
 10
88.9827718817
 20
102.6401569892
 10
88.9783797645
 20
102.6535996992
 10
88.9652080693
 20
102.6673283253
 10
88.9648383342
 20
102.667578851
  0
LINE
  5
3CA
330
1F
100
AcDbEntity
  8
0
  6
SLD-Durchgehend
 62
     7
370
    15
100
AcDbLine
 10
88.9648383342
 20
102.667578851
 30
0.0
 11
88.2150193535
 21
103.1698737118
 31
0.0
  0
ARC
  5
3CB
330
1F
100
AcDbEntity
  8
0
  6
SLD-Durchgehend
 62
     7
370
    15
100
AcDbCircle
 10
75.9663849928
 20
117.563655955
 30
0.0
 40
18.89999999999998
100
AcDbArc
 50
310.3966873225
 51
311.4947981063
  0
LINE
  5
3CC
330
1F
100
AcDbEntity
  8
0
  6
SLD-Durchgehend
 62
     7
370
    15
100
AcDbLine
 10
88.5451219835
 20
103.4574381832
 30
0.0
 11
90.3116341539
 21
103.959733044
 31
0.0
  0
LWPOLYLINE
  5
3CD
330
1F
100
AcDbEntity
  8
0
  6
SLD-Durchgehend
 62
     7
370
    15
100
AcDbPolyline
 90
        9
 70
   128
 43
0.0
 10
90.3116341539
 20
103.959733044
 10
90.403584563
 20
103.9981137786
 10
90.4581284009
 20
104.0334882039
 10
90.5059462272
 20
104.0810908947
 10
90.5188999929
 20
104.1029304091
 10
90.5254211136
 20
104.1258688841
 10
90.5236488067
 20
104.1445074428
 10
90.5162718006
 20
104.1580870572
 10
90.5059182875
 20
104.1675790969
  0
LINE
  5
3CE
330
1F
100
AcDbEntity
  8
0
  6
SLD-Durchgehend
 62
     7
370
    15
100
AcDbLine
 10
90.5059182875
 20
104.1675790969
 30
0.0
 11
89.7852264204
 21
104.6698739577
 31
0.0
  0
LINE
  5
3CF
330
1F
100
AcDbEntity
  8
0
  6
SLD-Durchgehend
 62
     7
370
    15
100
AcDbLine
 10
90.0480493762
 20
104.9574384291
 30
0.0
 11
91.5980178722
 21
105.4597332898
 31
0.0
  0
LWPOLYLINE
  5
3D0
330
1F
100
AcDbEntity
  8
0
  6
SLD-Durchgehend
 62
     7
370
    15
100
AcDbPolyline
 90
        9
 70
   128
 43
0.0
 10
91.5980178722
 20
105.4597332898
 10
91.6876707085
 20
105.5038882244
 10
91.7298801102
 20
105.5375518102
 10
91.760457293
 20
105.5736796755
 10
91.773385913
 20
105.5986996565
 10
91.7784783848
 20
105.6205093685
 10
91.7766325035
 20
105.6405337352
 10
91.7689453669
 20
105.655901489
 10
91.7567692556
 20
105.6675793428
  0
LINE
  5
3D1
330
1F
100
AcDbEntity
  8
0
  6
SLD-Durchgehend
 62
     7
370
    15
100
AcDbLine
 10
91.7567692556
 20
105.6675793428
 30
0.0
 11
91.045898185
 21
106.1698732722
 31
0.0
  0
ARC
  5
3D2
330
1F
100
AcDbEntity
  8
0
  6
SLD-Durchgehend
 62
     7
370
    15
100
AcDbCircle
 10
75.9663849928
 20
117.563655955
 30
0.0
 40
18.89999999999999
100
AcDbArc
 50
322.9260268275
 51
324.0109540318
  0
LINE
  5
3D3
330
1F
100
AcDbEntity
  8
0
  6
SLD-Durchgehend
 62
     7
370
    15
100
AcDbLine
 10
91.258929842
 20
106.4574377436
 30
0.0
 11
92.6519993552
 21
106.9597326044
 31
0.0
  0
LWPOLYLINE
  5
3D4
330
1F
100
AcDbEntity
  8
0
  6
SLD-Durchgehend
 62
     7
370
    15
100
AcDbPolyline
 90
        9
 70
   128
 43
0.0
 10
92.6519993552
 20
106.9597326044
 10
92.7300851651
 20
107.002386247
 10
92.7676938333
 20
107.0364856917
 10
92.7924092718
 20
107.0705152873
 10
92.8035013237
 20
107.0967739273
 10
92.8067684032
 20
107.1233771566
 10
92.8022663899
 20
107.1432813827
 10
92.7887957402
 20
107.1623194787
 10
92.7822839328
 20
107.1675786573
  0
LINE
  5
3D5
330
1F
100
AcDbEntity
  8
0
  6
SLD-Durchgehend
 62
     7
370
    15
100
AcDbLine
 10
92.7822839328
 20
107.1675786573
 30
0.0
 11
92.069896669
 21
107.6698735181
 31
0.0
  0
ARC
  5
3D6
330
1F
100
AcDbEntity
  8
0
  6
SLD-Durchgehend
 62
     7
370
    15
100
AcDbCircle
 10
75.9663849928
 20
117.563655955
 30
0.0
 40
18.89999999999998
100
AcDbArc
 50
328.4339897924
 51
329.4516361064
  0
LINE
  5
3D7
330
1F
100
AcDbEntity
  8
0
  6
SLD-Durchgehend
 62
     7
370
    15
100
AcDbLine
 10
92.2430723764
 20
107.9574379895
 30
0.0
 11
93.5155011572
 21
108.4597328503
 31
0.0
  0
LWPOLYLINE
  5
3D8
330
1F
100
AcDbEntity
  8
0
  6
SLD-Durchgehend
 62
     7
370
    15
100
AcDbPolyline
 90
        9
 70
   128
 43
0.0
 10
93.5155011572
 20
108.4597328503
 10
93.581598983
 20
108.4986407135
 10
93.6162143805
 20
108.5329375986
 10
93.6375640192
 20
108.5660219017
 10
93.6472684004
 20
108.5932388726
 10
93.649181337
 20
108.6204921651
 10
93.643785254
 20
108.6413193319
 10
93.6288971313
 20
108.6618894536
 10
93.6217725136
 20
108.6675789032
  0
LINE
  5
3D9
330
1F
100
AcDbEntity
  8
0
  6
SLD-Durchgehend
 62
     7
370
    15
100
AcDbLine
 10
93.6217725136
 20
108.6675789032
 30
0.0
 11
92.9002098598
 21
109.169873764
 31
0.0
  0
ARC
  5
3DA
330
1F
100
AcDbEntity
  8
0
  6
SLD-Durchgehend
 62
     7
370
    15
100
AcDbCircle
 10
75.9663849928
 20
117.563655955
 30
0.0
 40
18.89999999999998
100
AcDbArc
 50
333.6332398891
 51
334.6022022657
  0
LINE
  5
3DB
330
1F
100
AcDbEntity
  8
0
  6
SLD-Durchgehend
 62
     7
370
    15
100
AcDbLine
 10
93.0397331574
 20
109.4574382353
 30
0.0
 11
94.2155837872
 21
109.9597330961
 31
0.0
  0
LWPOLYLINE
  5
3DC
330
1F
100
AcDbEntity
  8
0
  6
SLD-Durchgehend
 62
     7
370
    15
100
AcDbPolyline
 90
        9
 70
   128
 43
0.0
 10
94.2155837872
 20
109.9597330961
 10
94.2724205412
 20
109.9955173034
 10
94.3038731672
 20
110.0293108087
 10
94.3225815751
 20
110.0617664691
 10
94.3308889725
 20
110.0896251213
 10
94.3315408983
 20
110.1172784168
 10
94.3252786853
 20
110.1390066381
 10
94.3090215184
 20
110.161088762
 10
94.3008053907
 20
110.1675791491
  0
LINE
  5
3DD
330
1F
100
AcDbEntity
  8
0
  6
SLD-Durchgehend
 62
     7
370
    15
100
AcDbLine
 10
94.3008053907
 20
110.1675791491
 30
0.0
 11
93.5642763831
 21
110.6698735442
 31
0.0
  0
ARC
  5
3DE
330
1F
100
AcDbEntity
  8
0
  6
SLD-Durchgehend
 62
     7
370
    15
100
AcDbCircle
 10
75.9663849928
 20
117.563655955
 30
0.0
 40
18.89999999999998
100
AcDbArc
 50
338.6077784115
 51
339.5411033901
  0
LINE
  5
3DF
330
1F
100
AcDbEntity
  8
0
  6
SLD-Durchgehend
 62
     7
370
    15
100
AcDbLine
 10
93.6742339142
 20
110.9574380155
 30
0.0
 11
94.7705067553
 21
111.4597328763
 31
0.0
  0
LWPOLYLINE
  5
3E0
330
1F
100
AcDbEntity
  8
0
  6
SLD-Durchgehend
 62
     7
370
    15
100
AcDbPolyline
 90
        9
 70
   128
 43
0.0
 10
94.7705067553
 20
111.4597328763
 10
94.8199413576
 20
111.4928162481
 10
94.8483671852
 20
111.5257631812
 10
94.8648180671
 20
111.5576484065
 10
94.8717564203
 20
111.5859443147
 10
94.8712125279
 20
111.6138509299
 10
94.8640692838
 20
111.6364294488
 10
94.8464095451
 20
111.6600189183
 10
94.8367107518
 20
111.6675789293
  0
LINE
  5
3E1
330
1F
100
AcDbEntity
  8
0
  6
SLD-Durchgehend
 62
     7
370
    15
100
AcDbLine
 10
94.8367107518
 20
111.6675789293
 30
0.0
 11
94.0803874143
 21
112.1698737901
 31
0.0
  0
ARC
  5
3E2
330
1F
100
AcDbEntity
  8
0
  6
SLD-Durchgehend
 62
     7
370
    15
100
AcDbCircle
 10
75.9663849928
 20
117.563655955
 30
0.0
 40
18.89999999999997
100
AcDbArc
 50
343.4181186606
 51
344.3256018524
  0
LINE
  5
3E3
330
1F
100
AcDbEntity
  8
0
  6
SLD-Durchgehend
 62
     7
370
    15
100
AcDbLine
 10
94.1635433443
 20
112.4574382614
 30
0.0
 11
95.1928466417
 21
112.9597331222
 31
0.0
  0
LWPOLYLINE
  5
3E4
330
1F
100
AcDbEntity
  8
0
  6
SLD-Durchgehend
 62
     7
370
    15
100
AcDbPolyline
 90
        9
 70
   128
 43
0.0
 10
95.1928466417
 20
112.9597331222
 10
95.227683694
 20
112.9826799791
 10
95.2572680869
 20
113.0153070029
 10
95.2739797391
 20
113.0470408883
 10
95.2812775828
 20
113.0760995496
 10
95.2810373016
 20
113.1053845223
 10
95.2740914979
 20
113.129476906
 10
95.2569570251
 20
113.1548791949
 10
95.2414318778
 20
113.1675791751
  0
LINE
  5
3E5
330
1F
100
AcDbEntity
  8
0
  6
SLD-Durchgehend
 62
     7
370
    15
100
AcDbLine
 10
95.2414318778
 20
113.1675791751
 30
0.0
 11
94.4609369942
 21
113.6698738031
 31
0.0
  0
ARC
  5
3E6
330
1F
100
AcDbEntity
  8
0
  6
SLD-Durchgehend
 62
     7
370
    15
100
AcDbCircle
 10
75.9663849928
 20
117.563655955
 30
0.0
 40
18.89999999999999
100
AcDbArc
 50
348.1107715436
 51
349.000223065
  0
LINE
  5
3E7
330
1F
100
AcDbEntity
  8
0
  6
SLD-Durchgehend
 62
     7
370
    15
100
AcDbLine
 10
94.5191521056
 20
113.9574382745
 30
0.0
 11
95.4912032791
 21
114.4597329024
 31
0.0
  0
LWPOLYLINE
  5
3E8
330
1F
100
AcDbEntity
  8
0
  6
SLD-Durchgehend
 62
     7
370
    15
100
AcDbPolyline
 90
        9
 70
   128
 43
0.0
 10
95.4912032791
 20
114.4597329024
 10
95.5249488213
 20
114.4837980449
 10
95.5501373716
 20
114.5148914132
 10
95.5640308418
 20
114.5457358856
 10
95.5693114408
 20
114.5746520545
 10
95.5673388996
 20
114.6033807948
 10
95.5590408154
 20
114.6278445434
 10
95.5396171518
 20
114.6546596486
 10
95.5231141158
 20
114.6675789554
  0
LINE
  5
3E9
330
1F
100
AcDbEntity
  8
0
  6
SLD-Durchgehend
 62
     7
370
    15
100
AcDbLine
 10
95.5231141158
 20
114.6675789554
 30
0.0
 11
94.714180366
 21
115.1698738161
 31
0.0
  0
ARC
  5
3EA
330
1F
100
AcDbEntity
  8
0
  6
SLD-Durchgehend
 62
     7
370
    15
100
AcDbCircle
 10
75.9663849928
 20
117.563655955
 30
0.0
 40
18.89999999999998
100
AcDbArc
 50
352.723651697
 51
353.6016626482
  0
LINE
  5
3EB
330
1F
100
AcDbEntity
  8
0
  6
SLD-Durchgehend
 62
     7
370
    15
100
AcDbLine
 10
94.7486597904
 20
115.4574382875
 30
0.0
 11
95.6712148943
 21
115.9597329154
 31
0.0
  0
ARC
  5
3EC
330
1F
100
AcDbEntity
  8
0
  6
SLD-Durchgehend
 62
     7
370
    15
100
AcDbCircle
 10
95.620221401
 20
116.0681379482
 30
0.0
 40
0.1197997807799025
100
AcDbArc
 50
295.1921919634
 51
56.1049141144
  0
LINE
  5
3ED
330
1F
100
AcDbEntity
  8
0
  6
SLD-Durchgehend
 62
     7
370
    15
100
AcDbLine
 10
95.6870306142
 20
116.1675789684
 30
0.0
 11
94.845239804
 21
116.6698737128
 31
0.0
  0
ARC
  5
3EE
330
1F
100
AcDbEntity
  8
0
  6
SLD-Durchgehend
 62
     7
370
    15
100
AcDbCircle
 10
75.9663849928
 20
117.563655955
 30
0.0
 40
18.89999999999998
100
AcDbArc
 50
357.2894679724
 51
358.1619217522
  0
LINE
  5
3EF
330
1F
100
AcDbEntity
  8
0
  6
SLD-Durchgehend
 62
     7
370
    15
100
AcDbLine
 10
94.8566596814
 20
116.9574381841
 30
0.0
 11
95.7361113139
 21
117.4597329067
 31
0.0
  0
ARC
  5
3F0
330
1F
100
AcDbEntity
  8
0
  6
SLD-Durchgehend
 62
     7
370
    15
100
AcDbCircle
 10
95.6765865973
 20
117.563655955
 30
0.0
 40
0.1197630654656289
100
AcDbArc
 50
299.8030827258
 51
60.1969172742
  0
LINE
  5
3F1
330
1F
100
AcDbEntity
  8
0
  6
SLD-Durchgehend
 62
     7
370
    15
100
AcDbLine
 10
95.7361113139
 20
117.6675790033
 30
0.0
 11
94.8566596814
 21
118.1698737258
 31
0.0
  0
ARC
  5
3F2
330
1F
100
AcDbEntity
  8
0
  6
SLD-Durchgehend
 62
     7
370
    15
100
AcDbCircle
 10
75.9663849928
 20
117.563655955
 30
0.0
 40
18.89999999999998
100
AcDbArc
 50
1.8380782478
 51
2.7105320276
  0
LINE
  5
3F3
330
1F
100
AcDbEntity
  8
0
  6
SLD-Durchgehend
 62
     7
370
    15
100
AcDbLine
 10
76.4511463091
 20
98.6698739055
 30
0.0
 11
75.4816236765
 21
98.6698739055
 31
0.0
  0
LINE
  5
3F4
330
1F
100
AcDbEntity
  8
0
  6
SLD-Durchgehend
 62
     7
370
    15
100
AcDbLine
 10
76.4511463091
 20
136.4574380044
 30
0.0
 11
75.4816236765
 21
136.4574380044
 31
0.0
  0
LINE
  5
3F5
330
1F
100
AcDbEntity
  8
0
  6
SLD-Durchgehend
 62
     7
370
    15
100
AcDbLine
 10
81.8616019421
 20
130.4574379522
 30
0.0
 11
70.0711680435
 21
130.4574379522
 31
0.0
  0
LINE
  5
3F6
330
1F
100
AcDbEntity
  8
0
  6
SLD-Durchgehend
 62
     7
370
    15
100
AcDbLine
 10
81.8616019421
 20
104.6698739577
 30
0.0
 11
70.0711680435
 21
104.6698739577
 31
0.0
  0
ARC
  5
3F7
330
1F
100
AcDbEntity
  8
0
  6
SLD-Durchgehend
 62
     7
370
    15
100
AcDbCircle
 10
75.5850436153
 20
130.2630816485
 30
0.0
 40
6.663023270326915
100
AcDbArc
 50
278.1637128744
 51
293.8678797515
  0
LINE
  5
3F8
330
1F
100
AcDbEntity
  8
0
  6
SLD-Durchgehend
 62
     7
370
    15
100
AcDbLine
 10
82.1036564045
 20
124.1698738944
 30
0.0
 11
78.2810959824
 21
124.1698738944
 31
0.0
  0
LINE
  5
3F9
330
1F
100
AcDbEntity
  8
0
  6
SLD-Durchgehend
 62
     7
370
    15
100
AcDbLine
 10
93.6742339142
 20
124.1698738944
 30
0.0
 11
89.6281029888
 21
124.1698738944
 31
0.0
  0
LINE
  5
3FA
330
1F
100
AcDbEntity
  8
0
  6
SLD-Durchgehend
 62
     7
370
    15
100
AcDbLine
 10
93.6742339142
 20
110.9574380155
 30
0.0
 11
89.6281029888
 21
110.9574380155
 31
0.0
  0
LINE
  5
3FB
330
1F
100
AcDbEntity
  8
0
  6
SLD-Durchgehend
 62
     7
370
    15
100
AcDbLine
 10
82.1036564045
 20
110.9574380155
 30
0.0
 11
78.2810959824
 21
110.9574380155
 31
0.0
  0
ARC
  5
3FC
330
1F
100
AcDbEntity
  8
0
  6
SLD-Durchgehend
 62
     7
370
    15
100
AcDbCircle
 10
75.5261770999
 20
104.6591517323
 30
0.0
 40
6.874444570629061
100
AcDbArc
 50
66.375061473
 51
81.5933459011
  0
LINE
  5
3FD
330
1F
100
AcDbEntity
  8
0
  6
SLD-Durchgehend
 62
     7
370
    15
100
AcDbLine
 10
62.3046669968
 20
124.1698738944
 30
0.0
 11
58.2585360714
 21
124.1698738944
 31
0.0
  0
LINE
  5
3FE
330
1F
100
AcDbEntity
  8
0
  6
SLD-Durchgehend
 62
     7
370
    15
100
AcDbLine
 10
73.6516740032
 20
124.1698738944
 30
0.0
 11
69.8291135811
 21
124.1698738944
 31
0.0
  0
ARC
  5
3FF
330
1F
100
AcDbEntity
  8
0
  6
SLD-Durchgehend
 62
     7
370
    15
100
AcDbCircle
 10
76.4065928856
 20
130.4681601776
 30
0.0
 40
6.874444570629048
100
AcDbArc
 50
246.375061473
 51
261.5933459011
  0
ARC
  5
400
330
1F
100
AcDbEntity
  8
0
  6
SLD-Durchgehend
 62
     7
370
    15
100
AcDbCircle
 10
76.3477263703
 20
104.8642302614
 30
0.0
 40
6.663023270326902
100
AcDbArc
 50
98.1637128744
 51
113.8678797515
  0
LINE
  5
401
330
1F
100
AcDbEntity
  8
0
  6
SLD-Durchgehend
 62
     7
370
    15
100
AcDbLine
 10
73.6516740032
 20
110.9574380155
 30
0.0
 11
69.8291135811
 21
110.9574380155
 31
0.0
  0
LINE
  5
402
330
1F
100
AcDbEntity
  8
0
  6
SLD-Durchgehend
 62
     7
370
    15
100
AcDbLine
 10
62.3046669968
 20
110.9574380155
 30
0.0
 11
58.2585360714
 21
110.9574380155
 31
0.0
  0
CIRCLE
  5
403
330
1F
100
AcDbEntity
  8
0
  6
SLD-Durchgehend
 62
     7
370
    15
100
AcDbCircle
 10
75.9663849928
 20
117.563655955
 30
0.0
 40
5.999999999999986
  0
LINE
  5
404
330
1F
100
AcDbEntity
  8
0
  6
SLD-Durchgehend
 62
     7
370
    15
100
AcDbLine
 10
69.0236797415
 20
118.4574381972
 30
0.0
 11
69.9974766791
 21
118.9597329415
 31
0.0
  0
LWPOLYLINE
  5
405
330
1F
100
AcDbEntity
  8
0
  6
SLD-Durchgehend
 62
     7
370
    15
100
AcDbPolyline
 90
        9
 70
   128
 43
0.0
 10
69.9974766791
 20
118.9597329415
 10
70.0322946392
 20
118.9827167021
 10
70.0625575006
 20
119.0160389582
 10
70.0797273636
 20
119.0482939185
 10
70.0873888888
 20
119.0776936767
 10
70.0874498904
 20
119.1072874993
 10
70.080679641
 20
119.1313357616
 10
70.0639149033
 20
119.1561255894
 10
70.0499390111
 20
119.1675789945
  0
LINE
  5
406
330
1F
100
AcDbEntity
  8
0
  6
SLD-Durchgehend
 62
     7
370
    15
100
AcDbLine
 10
70.0499390111
 20
119.1675789945
 30
0.0
 11
69.2907690861
 21
119.6698736224
 31
0.0
  0
ARC
  5
407
330
1F
100
AcDbEntity
  8
0
  6
SLD-Durchgehend
 62
     7
370
    15
100
AcDbCircle
 10
75.9663849928
 20
117.563655955
 30
0.0
 40
7.000000000000005
100
AcDbArc
 50
160.0031251428
 51
162.4890384396
  0
LINE
  5
408
330
1F
100
AcDbEntity
  8
0
  6
SLD-Durchgehend
 62
     7
370
    15
100
AcDbLine
 10
69.3884061508
 20
119.9574380938
 30
0.0
 11
70.5636411764
 21
120.4597329546
 31
0.0
  0
LWPOLYLINE
  5
409
330
1F
100
AcDbEntity
  8
0
  6
SLD-Durchgehend
 62
     7
370
    15
100
AcDbPolyline
 90
        9
 70
   128
 43
0.0
 10
70.5636411764
 20
120.4597329546
 10
70.6321818613
 20
120.4993546765
 10
70.669513461
 20
120.5351484299
 10
70.6923276045
 20
120.5687393725
 10
70.7029074289
 20
120.5958243284
 10
70.7055672862
 20
120.6230419978
 10
70.7005656183
 20
120.6433278333
 10
70.6863438569
 20
120.6627838604
 10
70.680312612
 20
120.6675790075
  0
LINE
  5
40A
330
1F
100
AcDbEntity
  8
0
  6
SLD-Durchgehend
 62
     7
370
    15
100
AcDbLine
 10
70.680312612
 20
120.6675790075
 30
0.0
 11
69.9667854093
 21
121.1698736355
 31
0.0
  0
ARC
  5
40B
330
1F
100
AcDbEntity
  8
0
  6
SLD-Durchgehend
 62
     7
370
    15
100
AcDbCircle
 10
75.9663849928
 20
117.563655955
 30
0.0
 40
7.000000000000001
100
AcDbArc
 50
146.2028277715
 51
148.9909159789
  0
LINE
  5
40C
330
1F
100
AcDbEntity
  8
0
  6
SLD-Durchgehend
 62
     7
370
    15
100
AcDbLine
 10
70.1493013509
 20
121.4574381068
 30
0.0
 11
71.6942183532
 21
121.9597327348
 31
0.0
  0
LWPOLYLINE
  5
40D
330
1F
100
AcDbEntity
  8
0
  6
SLD-Durchgehend
 62
     7
370
    15
100
AcDbPolyline
 90
        9
 70
   128
 43
0.0
 10
71.6942183532
 20
121.9597327348
 10
71.8238542647
 20
122.0146579493
 10
71.8872461327
 20
122.0588422205
 10
71.9136202567
 20
122.0850989979
 10
71.9303072289
 20
122.1097129222
 10
71.9365172878
 20
122.1275160845
 10
71.9362947017
 20
122.14432506
 10
71.9304920964
 20
122.1568387758
 10
71.9190656998
 20
122.1675787877
  0
LINE
  5
40E
330
1F
100
AcDbEntity
  8
0
  6
SLD-Durchgehend
 62
     7
370
    15
100
AcDbLine
 10
71.9190656998
 20
122.1675787877
 30
0.0
 11
71.1782181494
 21
122.6698736485
 31
0.0
  0
ARC
  5
40F
330
1F
100
AcDbEntity
  8
0
  6
SLD-Durchgehend
 62
     7
370
    15
100
AcDbCircle
 10
75.9663849928
 20
117.563655955
 30
0.0
 40
7.000000000000001
100
AcDbArc
 50
129.5975663528
 51
133.1588834979
  0
LWPOLYLINE
  5
410
330
1F
100
AcDbEntity
  8
0
  6
SLD-Durchgehend
 62
     7
370
    15
100
AcDbPolyline
 90
        3
 70
   128
 43
0.0
 10
71.5046462462
 20
122.9574381199
 10
72.8510122605
 20
123.253617325
 10
74.2891322913
 20
123.4597329806
  0
LWPOLYLINE
  5
411
330
1F
100
AcDbEntity
  8
0
  6
SLD-Durchgehend
 62
     7
370
    15
100
AcDbPolyline
 90
       16
 70
   128
 43
0.0
 10
74.2891322913
 20
123.4597329806
 10
74.4911161343
 20
123.4833918337
 10
75.3718924568
 20
123.6170850519
 10
75.4094856417
 20
123.6249780107
 10
75.4315732372
 20
123.630408087
 10
75.4457165346
 20
123.6345492128
 10
75.4549777227
 20
123.637854011
 10
75.4632494388
 20
123.6417897802
 10
75.4664438752
 20
123.6440375272
 10
75.4684079763
 20
123.646303435
 10
75.4689904604
 20
123.648034298
 10
75.4687160695
 20
123.6497758712
 10
75.4673675144
 20
123.651676235
 10
75.4636430972
 20
123.6542615864
 10
75.4482831432
 20
123.6595882859
 10
75.4015634045
 20
123.6675790336
  0
ARC
  5
412
330
1F
100
AcDbEntity
  8
0
  6
SLD-Durchgehend
 62
     7
370
    15
100
AcDbCircle
 10
75.9663849928
 20
117.563655955
 30
0.0
 40
7.000000000000004
100
AcDbArc
 50
99.9939673009
 51
109.3096281731
  0
LWPOLYLINE
  5
413
330
1F
100
AcDbEntity
  8
0
  6
SLD-Durchgehend
 62
     7
370
    15
100
AcDbPolyline
 90
        3
 70
   128
 43
0.0
 10
74.7515736472
 20
124.4574383657
 10
75.9564519973
 20
124.4963140983
 10
77.1811963384
 20
124.4574383657
  0
ARC
  5
414
330
1F
100
AcDbEntity
  8
0
  6
SLD-Durchgehend
 62
     7
370
    15
100
AcDbCircle
 10
75.9663849928
 20
117.563655955
 30
0.0
 40
7.000000000000006
100
AcDbArc
 50
70.6903718269
 51
80.0060326991
  0
LWPOLYLINE
  5
415
330
1F
100
AcDbEntity
  8
0
  6
SLD-Durchgehend
 62
     7
370
    15
100
AcDbPolyline
 90
       16
 70
   128
 43
0.0
 10
76.5312065811
 20
123.6675790336
 10
76.5233947638
 20
123.666562495
 10
76.5012177032
 20
123.6631221894
 10
76.4870604359
 20
123.6602183256
 10
76.4777978508
 20
123.65770748
 10
76.4695179857
 20
123.6544655461
 10
76.4663311162
 20
123.6524888139
 10
76.4643636391
 20
123.6503849562
 10
76.4637798745
 20
123.6487020563
 10
76.4640522281
 20
123.6469390627
 10
76.465399328
 20
123.6449264746
 10
76.4691256078
 20
123.6420281987
 10
76.4845145492
 20
123.6353897314
 10
76.5640925126
 20
123.6164568748
 10
76.8877682019
 20
123.563319334
 10
77.6436376943
 20
123.4597329806
  0
LWPOLYLINE
  5
416
330
1F
100
AcDbEntity
  8
0
  6
SLD-Durchgehend
 62
     7
370
    15
100
AcDbPolyline
 90
        3
 70
   128
 43
0.0
 10
77.6436376943
 20
123.4597329806
 10
79.0560881466
 20
123.2583237637
 10
80.4281237394
 20
122.9574381199
  0
ARC
  5
417
330
1F
100
AcDbEntity
  8
0
  6
SLD-Durchgehend
 62
     7
370
    15
100
AcDbCircle
 10
75.9663849928
 20
117.563655955
 30
0.0
 40
7.000000000000005
100
AcDbArc
 50
46.8411165021
 51
50.4024336472
  0
LINE
  5
418
330
1F
100
AcDbEntity
  8
0
  6
SLD-Durchgehend
 62
     7
370
    15
100
AcDbLine
 10
80.7545518361
 20
122.6698736485
 30
0.0
 11
80.0137042858
 21
122.1675787877
 31
0.0
  0
LWPOLYLINE
  5
419
330
1F
100
AcDbEntity
  8
0
  6
SLD-Durchgehend
 62
     7
370
    15
100
AcDbPolyline
 90
        9
 70
   128
 43
0.0
 10
80.0137042858
 20
122.1675787877
 10
80.0049526476
 20
122.1601151686
 10
79.9964156792
 20
122.1440698776
 10
79.996031043
 20
122.1288264554
 10
80.0010979034
 20
122.1125697542
 10
80.0158044182
 20
122.0891916949
 10
80.0501641676
 20
122.0549264747
 10
80.1285922386
 20
122.0038299274
 10
80.2385516324
 20
121.9597327348
  0
LINE
  5
41A
330
1F
100
AcDbEntity
  8
0
  6
SLD-Durchgehend
 62
     7
370
    15
100
AcDbLine
 10
80.2385516324
 20
121.9597327348
 30
0.0
 11
81.7834686347
 21
121.4574381068
 31
0.0
  0
ARC
  5
41B
330
1F
100
AcDbEntity
  8
0
  6
SLD-Durchgehend
 62
     7
370
    15
100
AcDbCircle
 10
75.9663849928
 20
117.563655955
 30
0.0
 40
7.000000000000012
100
AcDbArc
 50
31.0090840211
 51
33.7971722285
  0
LINE
  5
41C
330
1F
100
AcDbEntity
  8
0
  6
SLD-Durchgehend
 62
     7
370
    15
100
AcDbLine
 10
81.9659845762
 20
121.1698736355
 30
0.0
 11
81.2524573736
 21
120.6675790075
 31
0.0
  0
LWPOLYLINE
  5
41D
330
1F
100
AcDbEntity
  8
0
  6
SLD-Durchgehend
 62
     7
370
    15
100
AcDbPolyline
 90
        9
 70
   128
 43
0.0
 10
81.2524573736
 20
120.6675790075
 10
81.2387087241
 20
120.6543896172
 10
81.2290946812
 20
120.634426485
 10
81.2274359957
 20
120.6091846164
 10
81.2329931975
 20
120.5856421787
 10
81.248266422
 20
120.5553339153
 10
81.2797358118
 20
120.5175150011
 10
81.3374130846
 20
120.4748746298
 10
81.3691288092
 20
120.4597329546
  0
LINE
  5
41E
330
1F
100
AcDbEntity
  8
0
  6
SLD-Durchgehend
 62
     7
370
    15
100
AcDbLine
 10
81.3691288092
 20
120.4597329546
 30
0.0
 11
82.5443638348
 21
119.9574380938
 31
0.0
  0
ARC
  5
41F
330
1F
100
AcDbEntity
  8
0
  6
SLD-Durchgehend
 62
     7
370
    15
100
AcDbCircle
 10
75.9663849928
 20
117.563655955
 30
0.0
 40
7.000000000000006
100
AcDbArc
 50
17.5109615604
 51
19.9968748572
  0
LINE
  5
420
330
1F
100
AcDbEntity
  8
0
  6
SLD-Durchgehend
 62
     7
370
    15
100
AcDbLine
 10
82.6420008995
 20
119.6698736224
 30
0.0
 11
81.8828309745
 21
119.1675789945
 31
0.0
  0
LWPOLYLINE
  5
421
330
1F
100
AcDbEntity
  8
0
  6
SLD-Durchgehend
 62
     7
370
    15
100
AcDbPolyline
 90
        9
 70
   128
 43
0.0
 10
81.8828309745
 20
119.1675789945
 10
81.8626184807
 20
119.1490029508
 10
81.8493606382
 20
119.1243297711
 10
81.8443310306
 20
119.0930306969
 10
81.8479208135
 20
119.0644789079
 10
81.8576116905
 20
119.0377062943
 10
81.8797687859
 20
119.0035170933
 10
81.9190924846
 20
118.9689296355
 10
81.9352933065
 20
118.9597329415
  0
LINE
  5
422
330
1F
100
AcDbEntity
  8
0
  6
SLD-Durchgehend
 62
     7
370
    15
100
AcDbLine
 10
81.9352933065
 20
118.9597329415
 30
0.0
 11
82.9090902441
 21
118.4574381972
 31
0.0
  0
ARC
  5
423
330
1F
100
AcDbEntity
  8
0
  6
SLD-Durchgehend
 62
     7
370
    15
100
AcDbCircle
 10
75.9663849928
 20
117.563655955
 30
0.0
 40
7.000000000000014
100
AcDbArc
 50
4.9681835361
 51
7.3357322291
  0
LINE
  5
424
330
1F
100
AcDbEntity
  8
0
  6
SLD-Durchgehend
 62
     7
370
    15
100
AcDbLine
 10
82.9400855907
 20
118.1698737258
 30
0.0
 11
82.0955040724
 21
117.6675790033
 31
0.0
  0
ARC
  5
425
330
1F
100
AcDbEntity
  8
0
  6
SLD-Durchgehend
 62
     7
370
    15
100
AcDbCircle
 10
82.1570437583
 20
117.563655955
 30
0.0
 40
0.1207772036096465
100
AcDbArc
 50
120.6325710054
 51
239.3674289946
  0
LINE
  5
426
330
1F
100
AcDbEntity
  8
0
  6
SLD-Durchgehend
 62
     7
370
    15
100
AcDbLine
 10
82.0955040724
 20
117.4597329067
 30
0.0
 11
82.9400855907
 21
116.9574381841
 31
0.0
  0
ARC
  5
427
330
1F
100
AcDbEntity
  8
0
  6
SLD-Durchgehend
 62
     7
370
    15
100
AcDbCircle
 10
75.9663849928
 20
117.563655955
 30
0.0
 40
7.000000000000016
100
AcDbArc
 50
352.6642677709
 51
355.0318164639
  0
LINE
  5
428
330
1F
100
AcDbEntity
  8
0
  6
SLD-Durchgehend
 62
     7
370
    15
100
AcDbLine
 10
82.9090902441
 20
116.6698737128
 30
0.0
 11
81.9352933065
 21
116.1675789684
 31
0.0
  0
LWPOLYLINE
  5
429
330
1F
100
AcDbEntity
  8
0
  6
SLD-Durchgehend
 62
     7
370
    15
100
AcDbPolyline
 90
        9
 70
   128
 43
0.0
 10
81.9352933065
 20
116.1675789684
 10
81.9004753463
 20
116.1445952078
 10
81.8702124849
 20
116.1112729518
 10
81.853042622
 20
116.0790179914
 10
81.8453810968
 20
116.0496182332
 10
81.8453200952
 20
116.0200244106
 10
81.8520903446
 20
115.9959761483
 10
81.8688550823
 20
115.9711863205
 10
81.8828309745
 20
115.9597329154
  0
LINE
  5
42A
330
1F
100
AcDbEntity
  8
0
  6
SLD-Durchgehend
 62
     7
370
    15
100
AcDbLine
 10
81.8828309745
 20
115.9597329154
 30
0.0
 11
82.6420008995
 21
115.4574382875
 31
0.0
  0
ARC
  5
42B
330
1F
100
AcDbEntity
  8
0
  6
SLD-Durchgehend
 62
     7
370
    15
100
AcDbCircle
 10
75.9663849928
 20
117.563655955
 30
0.0
 40
7.000000000000009
100
AcDbArc
 50
340.0031251428
 51
342.4890384396
  0
LINE
  5
42C
330
1F
100
AcDbEntity
  8
0
  6
SLD-Durchgehend
 62
     7
370
    15
100
AcDbLine
 10
82.5443638348
 20
115.1698738161
 30
0.0
 11
81.3691288092
 21
114.6675789554
 31
0.0
  0
LWPOLYLINE
  5
42D
330
1F
100
AcDbEntity
  8
0
  6
SLD-Durchgehend
 62
     7
370
    15
100
AcDbPolyline
 90
        9
 70
   128
 43
0.0
 10
81.3691288092
 20
114.6675789554
 10
81.3005881243
 20
114.6279572334
 10
81.2632565245
 20
114.5921634801
 10
81.2404423811
 20
114.5585725374
 10
81.2298625567
 20
114.5314875815
 10
81.2272026994
 20
114.5042699121
 10
81.2322043673
 20
114.4839840766
 10
81.2464261286
 20
114.4645280495
 10
81.2524573736
 20
114.4597329024
  0
LINE
  5
42E
330
1F
100
AcDbEntity
  8
0
  6
SLD-Durchgehend
 62
     7
370
    15
100
AcDbLine
 10
81.2524573736
 20
114.4597329024
 30
0.0
 11
81.9659845762
 21
113.9574382745
 31
0.0
  0
ARC
  5
42F
330
1F
100
AcDbEntity
  8
0
  6
SLD-Durchgehend
 62
     7
370
    15
100
AcDbCircle
 10
75.9663849928
 20
117.563655955
 30
0.0
 40
7.000000000000004
100
AcDbArc
 50
326.2028277715
 51
328.9909159789
  0
LINE
  5
430
330
1F
100
AcDbEntity
  8
0
  6
SLD-Durchgehend
 62
     7
370
    15
100
AcDbLine
 10
81.7834686347
 20
113.6698738031
 30
0.0
 11
80.2385516324
 21
113.1675791751
 31
0.0
  0
LWPOLYLINE
  5
431
330
1F
100
AcDbEntity
  8
0
  6
SLD-Durchgehend
 62
     7
370
    15
100
AcDbPolyline
 90
        9
 70
   128
 43
0.0
 10
80.2385516324
 20
113.1675791751
 10
80.1089157209
 20
113.1126539606
 10
80.0455238529
 20
113.0684696894
 10
80.0191497289
 20
113.0422129121
 10
80.0024627567
 20
113.0175989877
 10
79.9962526978
 20
112.9997958254
 10
79.9964752838
 20
112.9829868499
 10
80.0022778891
 20
112.9704731341
 10
80.0137042858
 20
112.9597331222
  0
LINE
  5
432
330
1F
100
AcDbEntity
  8
0
  6
SLD-Durchgehend
 62
     7
370
    15
100
AcDbLine
 10
80.0137042858
 20
112.9597331222
 30
0.0
 11
80.7545518361
 21
112.4574382614
 31
0.0
  0
ARC
  5
433
330
1F
100
AcDbEntity
  8
0
  6
SLD-Durchgehend
 62
     7
370
    15
100
AcDbCircle
 10
75.9663849928
 20
117.563655955
 30
0.0
 40
7.000000000000009
100
AcDbArc
 50
309.5975663528
 51
313.1588834979
  0
LWPOLYLINE
  5
434
330
1F
100
AcDbEntity
  8
0
  6
SLD-Durchgehend
 62
     7
370
    15
100
AcDbPolyline
 90
        3
 70
   128
 43
0.0
 10
80.4281237394
 20
112.1698737901
 10
79.0817577251
 20
111.8736945849
 10
77.6436376943
 20
111.6675789293
  0
LWPOLYLINE
  5
435
330
1F
100
AcDbEntity
  8
0
  6
SLD-Durchgehend
 62
     7
370
    15
100
AcDbPolyline
 90
       16
 70
   128
 43
0.0
 10
77.6436376943
 20
111.6675789293
 10
77.4416538513
 20
111.6439200763
 10
76.5608775288
 20
111.510226858
 10
76.5232843439
 20
111.5023338992
 10
76.5011967484
 20
111.4969038229
 10
76.487053451
 20
111.4927626971
 10
76.4777922629
 20
111.4894578989
 10
76.4695205468
 20
111.4855221297
 10
76.4663261104
 20
111.4832743827
 10
76.4643620093
 20
111.4810084749
 10
76.4637795252
 20
111.4792776119
 10
76.4640539161
 20
111.4775360387
 10
76.4654024712
 20
111.475635675
 10
76.4691268884
 20
111.4730503235
 10
76.4844868424
 20
111.467723624
 10
76.5312065811
 20
111.4597328763
  0
ARC
  5
436
330
1F
100
AcDbEntity
  8
0
  6
SLD-Durchgehend
 62
     7
370
    15
100
AcDbCircle
 10
75.9663849928
 20
117.563655955
 30
0.0
 40
7.000000000005927
100
AcDbArc
 50
279.9939673009
 51
289.3096281732
  0
LWPOLYLINE
  5
437
330
1F
100
AcDbEntity
  8
0
  6
SLD-Durchgehend
 62
     7
370
    15
100
AcDbPolyline
 90
        3
 70
   128
 43
0.0
 10
77.1811963384
 20
110.6698735442
 10
75.9763179882
 20
110.6309978116
 10
74.7515736472
 20
110.6698735442
  0
ARC
  5
438
330
1F
100
AcDbEntity
  8
0
  6
SLD-Durchgehend
 62
     7
370
    15
100
AcDbCircle
 10
75.9663849928
 20
117.563655955
 30
0.0
 40
6.999999999999997
100
AcDbArc
 50
250.6903718269
 51
260.0060326991
  0
LWPOLYLINE
  5
439
330
1F
100
AcDbEntity
  8
0
  6
SLD-Durchgehend
 62
     7
370
    15
100
AcDbPolyline
 90
       16
 70
   128
 43
0.0
 10
75.4015634045
 20
111.4597328763
 10
75.4093752218
 20
111.4607494149
 10
75.4315522824
 20
111.4641897205
 10
75.4457095497
 20
111.4670935843
 10
75.4549721348
 20
111.46960443
 10
75.4632519999
 20
111.4728463638
 10
75.4664388693
 20
111.474823096
 10
75.4684063465
 20
111.4769269537
 10
75.4689901111
 20
111.4786098536
 10
75.4687177575
 20
111.4803728472
 10
75.4673706576
 20
111.4823854353
 10
75.4636443777
 20
111.4852837112
 10
75.4482554364
 20
111.4919221785
 10
75.368677473
 20
111.5108550351
 10
75.0450017837
 20
111.5639925759
 10
74.2891322913
 20
111.6675789293
  0
LWPOLYLINE
  5
43A
330
1F
100
AcDbEntity
  8
0
  6
SLD-Durchgehend
 62
     7
370
    15
100
AcDbPolyline
 90
        3
 70
   128
 43
0.0
 10
74.2891322913
 20
111.6675789293
 10
72.876681839
 20
111.8689881462
 10
71.5046462462
 20
112.1698737901
  0
ARC
  5
43B
330
1F
100
AcDbEntity
  8
0
  6
SLD-Durchgehend
 62
     7
370
    15
100
AcDbCircle
 10
75.9663849928
 20
117.563655955
 30
0.0
 40
6.999999999999992
100
AcDbArc
 50
226.8411165021
 51
230.4024336472
  0
LINE
  5
43C
330
1F
100
AcDbEntity
  8
0
  6
SLD-Durchgehend
 62
     7
370
    15
100
AcDbLine
 10
71.1782181494
 20
112.4574382614
 30
0.0
 11
71.9190656998
 21
112.9597331222
 31
0.0
  0
LWPOLYLINE
  5
43D
330
1F
100
AcDbEntity
  8
0
  6
SLD-Durchgehend
 62
     7
370
    15
100
AcDbPolyline
 90
        9
 70
   128
 43
0.0
 10
71.9190656998
 20
112.9597331222
 10
71.927817338
 20
112.9671967413
 10
71.9363543064
 20
112.9832420323
 10
71.9367389426
 20
112.9984854545
 10
71.9316720821
 20
113.0147421557
 10
71.9169655674
 20
113.038120215
 10
71.882605818
 20
113.0723854352
 10
71.804177747
 20
113.1234819826
 10
71.6942183532
 20
113.1675791751
  0
LINE
  5
43E
330
1F
100
AcDbEntity
  8
0
  6
SLD-Durchgehend
 62
     7
370
    15
100
AcDbLine
 10
71.6942183532
 20
113.1675791751
 30
0.0
 11
70.1493013509
 21
113.6698738031
 31
0.0
  0
ARC
  5
43F
330
1F
100
AcDbEntity
  8
0
  6
SLD-Durchgehend
 62
     7
370
    15
100
AcDbCircle
 10
75.9663849928
 20
117.563655955
 30
0.0
 40
6.999999999999993
100
AcDbArc
 50
211.0090840211
 51
213.7971722285
  0
LINE
  5
440
330
1F
100
AcDbEntity
  8
0
  6
SLD-Durchgehend
 62
     7
370
    15
100
AcDbLine
 10
69.9667854093
 20
113.9574382745
 30
0.0
 11
70.680312612
 21
114.4597329024
 31
0.0
  0
LWPOLYLINE
  5
441
330
1F
100
AcDbEntity
  8
0
  6
SLD-Durchgehend
 62
     7
370
    15
100
AcDbPolyline
 90
        9
 70
   128
 43
0.0
 10
70.680312612
 20
114.4597329024
 10
70.6940612615
 20
114.4729222927
 10
70.7036753044
 20
114.4928854249
 10
70.7053339899
 20
114.5181272935
 10
70.6997767881
 20
114.5416697312
 10
70.6845035635
 20
114.5719779946
 10
70.6530341737
 20
114.6097969089
 10
70.595356901
 20
114.6524372801
 10
70.5636411764
 20
114.6675789554
  0
LINE
  5
442
330
1F
100
AcDbEntity
  8
0
  6
SLD-Durchgehend
 62
     7
370
    15
100
AcDbLine
 10
70.5636411764
 20
114.6675789554
 30
0.0
 11
69.3884061508
 21
115.1698738161
 31
0.0
  0
ARC
  5
443
330
1F
100
AcDbEntity
  8
0
  6
SLD-Durchgehend
 62
     7
370
    15
100
AcDbCircle
 10
75.9663849928
 20
117.563655955
 30
0.0
 40
6.999999999999996
100
AcDbArc
 50
197.5109615604
 51
199.9968748572
  0
LINE
  5
444
330
1F
100
AcDbEntity
  8
0
  6
SLD-Durchgehend
 62
     7
370
    15
100
AcDbLine
 10
69.2907690861
 20
115.4574382875
 30
0.0
 11
70.0499390111
 21
115.9597329154
 31
0.0
  0
LWPOLYLINE
  5
445
330
1F
100
AcDbEntity
  8
0
  6
SLD-Durchgehend
 62
     7
370
    15
100
AcDbPolyline
 90
        9
 70
   128
 43
0.0
 10
70.0499390111
 20
115.9597329154
 10
70.0701515049
 20
115.9783089591
 10
70.0834093474
 20
116.0029821388
 10
70.088438955
 20
116.034281213
 10
70.0848491721
 20
116.062833002
 10
70.0751582951
 20
116.0896056156
 10
70.0530011997
 20
116.1237948166
 10
70.013677501
 20
116.1583822744
 10
69.9974766791
 20
116.1675789684
  0
LINE
  5
446
330
1F
100
AcDbEntity
  8
0
  6
SLD-Durchgehend
 62
     7
370
    15
100
AcDbLine
 10
69.9974766791
 20
116.1675789684
 30
0.0
 11
69.0236797415
 21
116.6698737128
 31
0.0
  0
ARC
  5
447
330
1F
100
AcDbEntity
  8
0
  6
SLD-Durchgehend
 62
     7
370
    15
100
AcDbCircle
 10
75.9663849928
 20
117.563655955
 30
0.0
 40
7.000000000000004
100
AcDbArc
 50
184.9681835361
 51
187.3357322291
  0
LINE
  5
448
330
1F
100
AcDbEntity
  8
0
  6
SLD-Durchgehend
 62
     7
370
    15
100
AcDbLine
 10
68.9926843949
 20
116.9574381841
 30
0.0
 11
69.8372659132
 21
117.4597329067
 31
0.0
  0
ARC
  5
449
330
1F
100
AcDbEntity
  8
0
  6
SLD-Durchgehend
 62
     7
370
    15
100
AcDbCircle
 10
69.7757262273
 20
117.563655955
 30
0.0
 40
0.1207772036096465
100
AcDbArc
 50
300.6325710054
 51
59.3674289946
  0
LINE
  5
44A
330
1F
100
AcDbEntity
  8
0
  6
SLD-Durchgehend
 62
     7
370
    15
100
AcDbLine
 10
69.8372659132
 20
117.6675790033
 30
0.0
 11
68.9926843949
 21
118.1698737258
 31
0.0
  0
ARC
  5
44B
330
1F
100
AcDbEntity
  8
0
  6
SLD-Durchgehend
 62
     7
370
    15
100
AcDbCircle
 10
75.9663849928
 20
117.563655955
 30
0.0
 40
7.0
100
AcDbArc
 50
172.6642677709
 51
175.0318164639
  0
LINE
  5
44C
330
1F
100
AcDbEntity
  8
0
  6
SLD-Durchgehend
 62
     7
370
    15
100
AcDbLine
 10
74.7515736472
 20
124.4574383657
 30
0.0
 11
70.0625989445
 21
124.4574383657
 31
0.0
  0
LINE
  5
44D
330
1F
100
AcDbEntity
  8
0
  6
SLD-Durchgehend
 62
     7
370
    15
100
AcDbLine
 10
81.8701710411
 20
124.4574383657
 30
0.0
 11
77.1811963384
 21
124.4574383657
 31
0.0
  0
LINE
  5
44E
330
1F
100
AcDbEntity
  8
0
  6
SLD-Durchgehend
 62
     7
370
    15
100
AcDbLine
 10
81.8701710411
 20
110.6698735442
 30
0.0
 11
77.1811963384
 21
110.6698735442
 31
0.0
  0
LINE
  5
44F
330
1F
100
AcDbEntity
  8
0
  6
SLD-Durchgehend
 62
     7
370
    15
100
AcDbLine
 10
74.7515736472
 20
110.6698735442
 30
0.0
 11
70.0625989445
 21
110.6698735442
 31
0.0
  0
LINE
  5
450
330
1F
100
AcDbEntity
  8
0
  6
SLD-Durchgehend
 62
     7
370
    15
100
AcDbLine
 10
94.1635433443
 20
122.6698736485
 30
0.0
 11
87.2887268521
 21
122.6698736485
 31
0.0
  0
LINE
  5
451
330
1F
100
AcDbEntity
  8
0
  6
SLD-Durchgehend
 62
     7
370
    15
100
AcDbLine
 10
84.4430325412
 20
122.6698736485
 30
0.0
 11
80.7545518361
 21
122.6698736485
 31
0.0
  0
LINE
  5
452
330
1F
100
AcDbEntity
  8
0
  6
SLD-Durchgehend
 62
     7
370
    15
100
AcDbLine
 10
94.714180366
 20
115.1698738161
 30
0.0
 11
82.5443638348
 21
115.1698738161
 31
0.0
  0
LINE
  5
453
330
1F
100
AcDbEntity
  8
0
  6
SLD-Durchgehend
 62
     7
370
    15
100
AcDbLine
 10
94.7486597904
 20
115.4574382875
 30
0.0
 11
82.6420008995
 21
115.4574382875
 31
0.0
  0
LINE
  5
454
330
1F
100
AcDbEntity
  8
0
  6
SLD-Durchgehend
 62
     7
370
    15
100
AcDbLine
 10
94.0803874143
 20
112.1698737901
 30
0.0
 11
88.0334943392
 21
112.1698737901
 31
0.0
  0
LINE
  5
455
330
1F
100
AcDbEntity
  8
0
  6
SLD-Durchgehend
 62
     7
370
    15
100
AcDbLine
 10
83.6982655198
 20
112.1698737901
 30
0.0
 11
80.4281237394
 21
112.1698737901
 31
0.0
  0
LINE
  5
456
330
1F
100
AcDbEntity
  8
0
  6
SLD-Durchgehend
 62
     7
370
    15
100
AcDbLine
 10
94.1635433443
 20
112.4574382614
 30
0.0
 11
87.2887268521
 21
112.4574382614
 31
0.0
  0
LINE
  5
457
330
1F
100
AcDbEntity
  8
0
  6
SLD-Durchgehend
 62
     7
370
    15
100
AcDbLine
 10
84.4430325412
 20
112.4574382614
 30
0.0
 11
80.7545518361
 21
112.4574382614
 31
0.0
  0
LINE
  5
458
330
1F
100
AcDbEntity
  8
0
  6
SLD-Durchgehend
 62
     7
370
    15
100
AcDbLine
 10
94.5191521056
 20
113.9574382745
 30
0.0
 11
81.9659845762
 21
113.9574382745
 31
0.0
  0
LINE
  5
459
330
1F
100
AcDbEntity
  8
0
  6
SLD-Durchgehend
 62
     7
370
    15
100
AcDbLine
 10
94.845239804
 20
118.4574381972
 30
0.0
 11
82.9090902441
 21
118.4574381972
 31
0.0
  0
LINE
  5
45A
330
1F
100
AcDbEntity
  8
0
  6
SLD-Durchgehend
 62
     7
370
    15
100
AcDbLine
 10
94.5191521056
 20
121.1698736355
 30
0.0
 11
81.9659845762
 21
121.1698736355
 31
0.0
  0
LINE
  5
45B
330
1F
100
AcDbEntity
  8
0
  6
SLD-Durchgehend
 62
     7
370
    15
100
AcDbLine
 10
94.4609369942
 20
121.4574381068
 30
0.0
 11
81.7834686347
 21
121.4574381068
 31
0.0
  0
LINE
  5
45C
330
1F
100
AcDbEntity
  8
0
  6
SLD-Durchgehend
 62
     7
370
    15
100
AcDbLine
 10
94.0803874143
 20
122.9574381199
 30
0.0
 11
88.0334943392
 21
122.9574381199
 31
0.0
  0
LINE
  5
45D
330
1F
100
AcDbEntity
  8
0
  6
SLD-Durchgehend
 62
     7
370
    15
100
AcDbLine
 10
83.6982655198
 20
122.9574381199
 30
0.0
 11
80.4281237394
 21
122.9574381199
 31
0.0
  0
LINE
  5
45E
330
1F
100
AcDbEntity
  8
0
  6
SLD-Durchgehend
 62
     7
370
    15
100
AcDbLine
 10
93.0397331574
 20
125.6698736746
 30
0.0
 11
90.5332302534
 21
125.6698736746
 31
0.0
  0
LINE
  5
45F
330
1F
100
AcDbEntity
  8
0
  6
SLD-Durchgehend
 62
     7
370
    15
100
AcDbLine
 10
93.5642763831
 20
124.4574383657
 30
0.0
 11
89.8615892835
 21
124.4574383657
 31
0.0
  0
LINE
  5
460
330
1F
100
AcDbEntity
  8
0
  6
SLD-Durchgehend
 62
     7
370
    15
100
AcDbLine
 10
94.7486597904
 20
119.6698736224
 30
0.0
 11
82.6420008995
 21
119.6698736224
 31
0.0
  0
LINE
  5
461
330
1F
100
AcDbEntity
  8
0
  6
SLD-Durchgehend
 62
     7
370
    15
100
AcDbLine
 10
94.714180366
 20
119.9574380938
 30
0.0
 11
82.5443638348
 21
119.9574380938
 31
0.0
  0
LINE
  5
462
330
1F
100
AcDbEntity
  8
0
  6
SLD-Durchgehend
 62
     7
370
    15
100
AcDbLine
 10
93.5642763831
 20
110.6698735442
 30
0.0
 11
89.8615892835
 21
110.6698735442
 31
0.0
  0
LINE
  5
463
330
1F
100
AcDbEntity
  8
0
  6
SLD-Durchgehend
 62
     7
370
    15
100
AcDbLine
 10
94.8566596814
 20
118.1698737258
 30
0.0
 11
82.9400855907
 21
118.1698737258
 31
0.0
  0
LINE
  5
464
330
1F
100
AcDbEntity
  8
0
  6
SLD-Durchgehend
 62
     7
370
    15
100
AcDbLine
 10
94.845239804
 20
116.6698737128
 30
0.0
 11
82.9090902441
 21
116.6698737128
 31
0.0
  0
LINE
  5
465
330
1F
100
AcDbEntity
  8
0
  6
SLD-Durchgehend
 62
     7
370
    15
100
AcDbLine
 10
94.8566596814
 20
116.9574381841
 30
0.0
 11
82.9400855907
 21
116.9574381841
 31
0.0
  0
LINE
  5
466
330
1F
100
AcDbEntity
  8
0
  6
SLD-Durchgehend
 62
     7
370
    15
100
AcDbLine
 10
93.0397331574
 20
109.4574382353
 30
0.0
 11
90.5332302534
 21
109.4574382353
 31
0.0
  0
LINE
  5
467
330
1F
100
AcDbEntity
  8
0
  6
SLD-Durchgehend
 62
     7
370
    15
100
AcDbLine
 10
94.4609369942
 20
113.6698738031
 30
0.0
 11
81.7834686347
 21
113.6698738031
 31
0.0
  0
LINE
  5
468
330
1F
100
AcDbEntity
  8
0
  6
SLD-Durchgehend
 62
     7
370
    15
100
AcDbLine
 10
92.2430723764
 20
127.1698739204
 30
0.0
 11
90.8572709047
 21
127.1698739204
 31
0.0
  0
LINE
  5
469
330
1F
100
AcDbEntity
  8
0
  6
SLD-Durchgehend
 62
     7
370
    15
100
AcDbLine
 10
92.069896669
 20
127.4574383918
 30
0.0
 11
90.8658763253
 21
127.4574383918
 31
0.0
  0
LINE
  5
46A
330
1F
100
AcDbEntity
  8
0
  6
SLD-Durchgehend
 62
     7
370
    15
100
AcDbLine
 10
92.9002098598
 20
109.169873764
 30
0.0
 11
90.6337758385
 21
109.169873764
 31
0.0
  0
LINE
  5
46B
330
1F
100
AcDbEntity
  8
0
  6
SLD-Durchgehend
 62
     7
370
    15
100
AcDbLine
 10
92.069896669
 20
107.6698735181
 30
0.0
 11
90.8658763253
 21
107.6698735181
 31
0.0
  0
LINE
  5
46C
330
1F
100
AcDbEntity
  8
0
  6
SLD-Durchgehend
 62
     7
370
    15
100
AcDbLine
 10
91.258929842
 20
128.6698741663
 30
0.0
 11
90.7180772953
 21
128.6698741663
 31
0.0
  0
LINE
  5
46D
330
1F
100
AcDbEntity
  8
0
  6
SLD-Durchgehend
 62
     7
370
    15
100
AcDbLine
 10
91.045898185
 20
128.9574386377
 30
0.0
 11
90.637368881
 21
128.9574386377
 31
0.0
  0
LINE
  5
46E
330
1F
100
AcDbEntity
  8
0
  6
SLD-Durchgehend
 62
     7
370
    15
100
AcDbLine
 10
91.045898185
 20
106.1698732722
 30
0.0
 11
90.637368881
 21
106.1698732722
 31
0.0
  0
LINE
  5
46F
330
1F
100
AcDbEntity
  8
0
  6
SLD-Durchgehend
 62
     7
370
    15
100
AcDbLine
 10
83.1633841478
 20
103.4574381832
 30
0.0
 11
68.7693858378
 21
103.4574381832
 31
0.0
  0
LINE
  5
470
330
1F
100
AcDbEntity
  8
0
  6
SLD-Durchgehend
 62
     7
370
    15
100
AcDbLine
 10
92.9002098598
 20
125.9574381459
 30
0.0
 11
90.6337758385
 21
125.9574381459
 31
0.0
  0
LINE
  5
471
330
1F
100
AcDbEntity
  8
0
  6
SLD-Durchgehend
 62
     7
370
    15
100
AcDbLine
 10
83.1633841478
 20
131.6698737267
 30
0.0
 11
68.7693858378
 21
131.6698737267
 31
0.0
  0
LINE
  5
472
330
1F
100
AcDbEntity
  8
0
  6
SLD-Durchgehend
 62
     7
370
    15
100
AcDbLine
 10
92.2430723764
 20
107.9574379895
 30
0.0
 11
90.8572709047
 21
107.9574379895
 31
0.0
  0
LINE
  5
473
330
1F
100
AcDbEntity
  8
0
  6
SLD-Durchgehend
 62
     7
370
    15
100
AcDbLine
 10
91.258929842
 20
106.4574377436
 30
0.0
 11
90.7180772953
 21
106.4574377436
 31
0.0
  0
LINE
  5
474
330
1F
100
AcDbEntity
  8
0
  6
SLD-Durchgehend
 62
     7
370
    15
100
AcDbLine
 10
88.2150193535
 20
103.1698737118
 30
0.0
 11
88.0570856713
 21
103.1698737118
 31
0.0
  0
LINE
  5
475
330
1F
100
AcDbEntity
  8
0
  6
SLD-Durchgehend
 62
     7
370
    15
100
AcDbLine
 10
83.6746741876
 20
103.1698737118
 30
0.0
 11
68.2580957979
 21
103.1698737118
 31
0.0
  0
LINE
  5
476
330
1F
100
AcDbEntity
  8
0
  6
SLD-Durchgehend
 62
     7
370
    15
100
AcDbLine
 10
63.8756843143
 20
103.1698737118
 30
0.0
 11
63.7177506321
 21
103.1698737118
 31
0.0
  0
LINE
  5
477
330
1F
100
AcDbEntity
  8
0
  6
SLD-Durchgehend
 62
     7
370
    15
100
AcDbLine
 10
86.1936861508
 20
101.6698743973
 30
0.0
 11
65.7390838348
 21
101.6698743973
 31
0.0
  0
LINE
  5
478
330
1F
100
AcDbEntity
  8
0
  6
SLD-Durchgehend
 62
     7
370
    15
100
AcDbLine
 10
86.6273406752
 20
133.1698739726
 30
0.0
 11
65.3054293104
 21
133.1698739726
 31
0.0
  0
LINE
  5
479
330
1F
100
AcDbEntity
  8
0
  6
SLD-Durchgehend
 62
     7
370
    15
100
AcDbLine
 10
86.1936861508
 20
133.4574375126
 30
0.0
 11
65.7390838348
 21
133.4574375126
 31
0.0
  0
LINE
  5
47A
330
1F
100
AcDbEntity
  8
0
  6
SLD-Durchgehend
 62
     7
370
    15
100
AcDbLine
 10
84.0030087017
 20
134.6698742185
 30
0.0
 11
67.9297612839
 21
134.6698742185
 31
0.0
  0
LINE
  5
47B
330
1F
100
AcDbEntity
  8
0
  6
SLD-Durchgehend
 62
     7
370
    15
100
AcDbLine
 10
86.6273406752
 20
101.9574379373
 30
0.0
 11
65.3054293104
 21
101.9574379373
 31
0.0
  0
LINE
  5
47C
330
1F
100
AcDbEntity
  8
0
  6
SLD-Durchgehend
 62
     7
370
    15
100
AcDbLine
 10
88.2150193535
 20
131.9574381981
 30
0.0
 11
88.0570856713
 21
131.9574381981
 31
0.0
  0
LINE
  5
47D
330
1F
100
AcDbEntity
  8
0
  6
SLD-Durchgehend
 62
     7
370
    15
100
AcDbLine
 10
83.6746741876
 20
131.9574381981
 30
0.0
 11
68.2580957979
 21
131.9574381981
 31
0.0
  0
LINE
  5
47E
330
1F
100
AcDbEntity
  8
0
  6
SLD-Durchgehend
 62
     7
370
    15
100
AcDbLine
 10
63.8756843143
 20
131.9574381981
 30
0.0
 11
63.7177506321
 21
131.9574381981
 31
0.0
  0
LINE
  5
47F
330
1F
100
AcDbEntity
  8
0
  6
SLD-Durchgehend
 62
     7
370
    15
100
AcDbLine
 10
84.0030087017
 20
100.4574376914
 30
0.0
 11
67.9297612839
 21
100.4574376914
 31
0.0
  0
LINE
  5
480
330
1F
100
AcDbEntity
  8
0
  6
SLD-Durchgehend
 62
     7
370
    15
100
AcDbLine
 10
81.0136825636
 20
128.6698741663
 30
0.0
 11
70.9190874219
 21
128.6698741663
 31
0.0
  0
LINE
  5
481
330
1F
100
AcDbEntity
  8
0
  6
SLD-Durchgehend
 62
     7
370
    15
100
AcDbLine
 10
80.865883068
 20
107.6698735181
 30
0.0
 11
71.0668869175
 21
107.6698735181
 31
0.0
  0
LINE
  5
482
330
1F
100
AcDbEntity
  8
0
  6
SLD-Durchgehend
 62
     7
370
    15
100
AcDbLine
 10
79.285821677
 20
136.169873533
 30
0.0
 11
72.6469483085
 21
136.169873533
 31
0.0
  0
LINE
  5
483
330
1F
100
AcDbEntity
  8
0
  6
SLD-Durchgehend
 62
     7
370
    15
100
AcDbLine
 10
81.1985296056
 20
109.4574382353
 30
0.0
 11
70.73424038
 21
109.4574382353
 31
0.0
  0
LINE
  5
484
330
1F
100
AcDbEntity
  8
0
  6
SLD-Durchgehend
 62
     7
370
    15
100
AcDbLine
 10
81.0979840205
 20
125.9574381459
 30
0.0
 11
70.8347859651
 21
125.9574381459
 31
0.0
  0
LINE
  5
485
330
1F
100
AcDbEntity
  8
0
  6
SLD-Durchgehend
 62
     7
370
    15
100
AcDbLine
 10
81.1985296056
 20
125.6698736746
 30
0.0
 11
70.73424038
 21
125.6698736746
 31
0.0
  0
LINE
  5
486
330
1F
100
AcDbEntity
  8
0
  6
SLD-Durchgehend
 62
     7
370
    15
100
AcDbLine
 10
81.0979840205
 20
109.169873764
 30
0.0
 11
70.8347859651
 21
109.169873764
 31
0.0
  0
LINE
  5
487
330
1F
100
AcDbEntity
  8
0
  6
SLD-Durchgehend
 62
     7
370
    15
100
AcDbLine
 10
83.3600538642
 20
100.1698732201
 30
0.0
 11
68.5727161214
 21
100.1698732201
 31
0.0
  0
LINE
  5
488
330
1F
100
AcDbEntity
  8
0
  6
SLD-Durchgehend
 62
     7
370
    15
100
AcDbLine
 10
81.094390978
 20
106.1698732722
 30
0.0
 11
70.8383790076
 21
106.1698732722
 31
0.0
  0
LINE
  5
489
330
1F
100
AcDbEntity
  8
0
  6
SLD-Durchgehend
 62
     7
370
    15
100
AcDbLine
 10
81.0136825636
 20
106.4574377436
 30
0.0
 11
70.9190874219
 21
106.4574377436
 31
0.0
  0
LINE
  5
48A
330
1F
100
AcDbEntity
  8
0
  6
SLD-Durchgehend
 62
     7
370
    15
100
AcDbLine
 10
83.3600538642
 20
134.9574386898
 30
0.0
 11
68.5727161214
 21
134.9574386898
 31
0.0
  0
LINE
  5
48B
330
1F
100
AcDbEntity
  8
0
  6
SLD-Durchgehend
 62
     7
370
    15
100
AcDbLine
 10
81.661875625
 20
130.1698734809
 30
0.0
 11
70.2708943606
 21
130.1698734809
 31
0.0
  0
LINE
  5
48C
330
1F
100
AcDbEntity
  8
0
  6
SLD-Durchgehend
 62
     7
370
    15
100
AcDbLine
 10
80.865883068
 20
127.4574383918
 30
0.0
 11
71.0668869175
 21
127.4574383918
 31
0.0
  0
LINE
  5
48D
330
1F
100
AcDbEntity
  8
0
  6
SLD-Durchgehend
 62
     7
370
    15
100
AcDbLine
 10
80.8744884886
 20
127.1698739204
 30
0.0
 11
71.058281497
 21
127.1698739204
 31
0.0
  0
LINE
  5
48E
330
1F
100
AcDbEntity
  8
0
  6
SLD-Durchgehend
 62
     7
370
    15
100
AcDbLine
 10
79.285821677
 20
98.9574383769
 30
0.0
 11
72.6469483085
 21
98.9574383769
 31
0.0
  0
LINE
  5
48F
330
1F
100
AcDbEntity
  8
0
  6
SLD-Durchgehend
 62
     7
370
    15
100
AcDbLine
 10
81.661875625
 20
104.9574384291
 30
0.0
 11
70.2708943606
 21
104.9574384291
 31
0.0
  0
LINE
  5
490
330
1F
100
AcDbEntity
  8
0
  6
SLD-Durchgehend
 62
     7
370
    15
100
AcDbLine
 10
81.094390978
 20
128.9574386377
 30
0.0
 11
70.8383790076
 21
128.9574386377
 31
0.0
  0
LINE
  5
491
330
1F
100
AcDbEntity
  8
0
  6
SLD-Durchgehend
 62
     7
370
    15
100
AcDbLine
 10
80.8744884886
 20
107.9574379895
 30
0.0
 11
71.058281497
 21
107.9574379895
 31
0.0
  0
LINE
  5
492
330
1F
100
AcDbEntity
  8
0
  6
SLD-Durchgehend
 62
     7
370
    15
100
AcDbLine
 10
71.5046462462
 20
122.9574381199
 30
0.0
 11
68.2345044658
 21
122.9574381199
 31
0.0
  0
LINE
  5
493
330
1F
100
AcDbEntity
  8
0
  6
SLD-Durchgehend
 62
     7
370
    15
100
AcDbLine
 10
63.8992756464
 20
122.9574381199
 30
0.0
 11
57.8523825713
 21
122.9574381199
 31
0.0
  0
LINE
  5
494
330
1F
100
AcDbEntity
  8
0
  6
SLD-Durchgehend
 62
     7
370
    15
100
AcDbLine
 10
71.5046462462
 20
112.1698737901
 30
0.0
 11
68.2345044658
 21
112.1698737901
 31
0.0
  0
LINE
  5
495
330
1F
100
AcDbEntity
  8
0
  6
SLD-Durchgehend
 62
     7
370
    15
100
AcDbLine
 10
63.8992756464
 20
112.1698737901
 30
0.0
 11
57.8523825713
 21
112.1698737901
 31
0.0
  0
LINE
  5
496
330
1F
100
AcDbEntity
  8
0
  6
SLD-Durchgehend
 62
     7
370
    15
100
AcDbLine
 10
69.9667854093
 20
113.9574382745
 30
0.0
 11
57.4136178799
 21
113.9574382745
 31
0.0
  0
LINE
  5
497
330
1F
100
AcDbEntity
  8
0
  6
SLD-Durchgehend
 62
     7
370
    15
100
AcDbLine
 10
70.1493013509
 20
113.6698738031
 30
0.0
 11
57.4718329914
 21
113.6698738031
 31
0.0
  0
LINE
  5
498
330
1F
100
AcDbEntity
  8
0
  6
SLD-Durchgehend
 62
     7
370
    15
100
AcDbLine
 10
70.1493013509
 20
121.4574381068
 30
0.0
 11
57.4718329914
 21
121.4574381068
 31
0.0
  0
LINE
  5
499
330
1F
100
AcDbEntity
  8
0
  6
SLD-Durchgehend
 62
     7
370
    15
100
AcDbLine
 10
69.3884061508
 20
115.1698738161
 30
0.0
 11
57.2185896196
 21
115.1698738161
 31
0.0
  0
LINE
  5
49A
330
1F
100
AcDbEntity
  8
0
  6
SLD-Durchgehend
 62
     7
370
    15
100
AcDbLine
 10
71.1782181494
 20
112.4574382614
 30
0.0
 11
67.4897374444
 21
112.4574382614
 31
0.0
  0
LINE
  5
49B
330
1F
100
AcDbEntity
  8
0
  6
SLD-Durchgehend
 62
     7
370
    15
100
AcDbLine
 10
64.6440431335
 20
112.4574382614
 30
0.0
 11
57.7692266413
 21
112.4574382614
 31
0.0
  0
LINE
  5
49C
330
1F
100
AcDbEntity
  8
0
  6
SLD-Durchgehend
 62
     7
370
    15
100
AcDbLine
 10
71.1782181494
 20
122.6698736485
 30
0.0
 11
67.4897374444
 21
122.6698736485
 31
0.0
  0
LINE
  5
49D
330
1F
100
AcDbEntity
  8
0
  6
SLD-Durchgehend
 62
     7
370
    15
100
AcDbLine
 10
64.6440431335
 20
122.6698736485
 30
0.0
 11
57.7692266413
 21
122.6698736485
 31
0.0
  0
LINE
  5
49E
330
1F
100
AcDbEntity
  8
0
  6
SLD-Durchgehend
 62
     7
370
    15
100
AcDbLine
 10
69.2907690861
 20
115.4574382875
 30
0.0
 11
57.1841101952
 21
115.4574382875
 31
0.0
  0
LINE
  5
49F
330
1F
100
AcDbEntity
  8
0
  6
SLD-Durchgehend
 62
     7
370
    15
100
AcDbLine
 10
69.9667854093
 20
121.1698736355
 30
0.0
 11
57.4136178799
 21
121.1698736355
 31
0.0
  0
LINE
  5
4A0
330
1F
100
AcDbEntity
  8
0
  6
SLD-Durchgehend
 62
     7
370
    15
100
AcDbLine
 10
69.2907690861
 20
119.6698736224
 30
0.0
 11
57.1841101952
 21
119.6698736224
 31
0.0
  0
LINE
  5
4A1
330
1F
100
AcDbEntity
  8
0
  6
SLD-Durchgehend
 62
     7
370
    15
100
AcDbLine
 10
69.3884061508
 20
119.9574380938
 30
0.0
 11
57.2185896196
 21
119.9574380938
 31
0.0
  0
LINE
  5
4A2
330
1F
100
AcDbEntity
  8
0
  6
SLD-Durchgehend
 62
     7
370
    15
100
AcDbLine
 10
69.0236797415
 20
118.4574381972
 30
0.0
 11
57.0875301816
 21
118.4574381972
 31
0.0
  0
LINE
  5
4A3
330
1F
100
AcDbEntity
  8
0
  6
SLD-Durchgehend
 62
     7
370
    15
100
AcDbLine
 10
68.9926843949
 20
118.1698737258
 30
0.0
 11
57.0761103042
 21
118.1698737258
 31
0.0
  0
LINE
  5
4A4
330
1F
100
AcDbEntity
  8
0
  6
SLD-Durchgehend
 62
     7
370
    15
100
AcDbLine
 10
69.0236797415
 20
116.6698737128
 30
0.0
 11
57.0875301816
 21
116.6698737128
 31
0.0
  0
LINE
  5
4A5
330
1F
100
AcDbEntity
  8
0
  6
SLD-Durchgehend
 62
     7
370
    15
100
AcDbLine
 10
68.9926843949
 20
116.9574381841
 30
0.0
 11
57.0761103042
 21
116.9574381841
 31
0.0
  0
LINE
  5
4A6
330
1F
100
AcDbEntity
  8
0
  6
SLD-Durchgehend
 62
     7
370
    15
100
AcDbLine
 10
61.2146926903
 20
128.6698741663
 30
0.0
 11
60.6738401436
 21
128.6698741663
 31
0.0
  0
LINE
  5
4A7
330
1F
100
AcDbEntity
  8
0
  6
SLD-Durchgehend
 62
     7
370
    15
100
AcDbLine
 10
61.3995397322
 20
125.6698736746
 30
0.0
 11
58.8930368282
 21
125.6698736746
 31
0.0
  0
LINE
  5
4A8
330
1F
100
AcDbEntity
  8
0
  6
SLD-Durchgehend
 62
     7
370
    15
100
AcDbLine
 10
61.2989941471
 20
109.169873764
 30
0.0
 11
59.0325601258
 21
109.169873764
 31
0.0
  0
LINE
  5
4A9
330
1F
100
AcDbEntity
  8
0
  6
SLD-Durchgehend
 62
     7
370
    15
100
AcDbLine
 10
61.2989941471
 20
125.9574381459
 30
0.0
 11
59.0325601258
 21
125.9574381459
 31
0.0
  0
LINE
  5
4AA
330
1F
100
AcDbEntity
  8
0
  6
SLD-Durchgehend
 62
     7
370
    15
100
AcDbLine
 10
61.2954011046
 20
106.1698732722
 30
0.0
 11
60.8868718006
 21
106.1698732722
 31
0.0
  0
LINE
  5
4AB
330
1F
100
AcDbEntity
  8
0
  6
SLD-Durchgehend
 62
     7
370
    15
100
AcDbLine
 10
61.0668936603
 20
127.4574383918
 30
0.0
 11
59.8628733166
 21
127.4574383918
 31
0.0
  0
LINE
  5
4AC
330
1F
100
AcDbEntity
  8
0
  6
SLD-Durchgehend
 62
     7
370
    15
100
AcDbLine
 10
62.071180702
 20
124.4574383657
 30
0.0
 11
58.3684936025
 21
124.4574383657
 31
0.0
  0
LINE
  5
4AD
330
1F
100
AcDbEntity
  8
0
  6
SLD-Durchgehend
 62
     7
370
    15
100
AcDbLine
 10
61.0754990809
 20
107.9574379895
 30
0.0
 11
59.6896976091
 21
107.9574379895
 31
0.0
  0
LINE
  5
4AE
330
1F
100
AcDbEntity
  8
0
  6
SLD-Durchgehend
 62
     7
370
    15
100
AcDbLine
 10
61.2146926903
 20
106.4574377436
 30
0.0
 11
60.6738401436
 21
106.4574377436
 31
0.0
  0
LINE
  5
4AF
330
1F
100
AcDbEntity
  8
0
  6
SLD-Durchgehend
 62
     7
370
    15
100
AcDbLine
 10
62.071180702
 20
110.6698735442
 30
0.0
 11
58.3684936025
 21
110.6698735442
 31
0.0
  0
LINE
  5
4B0
330
1F
100
AcDbEntity
  8
0
  6
SLD-Durchgehend
 62
     7
370
    15
100
AcDbLine
 10
61.0668936603
 20
107.6698735181
 30
0.0
 11
59.8628733166
 21
107.6698735181
 31
0.0
  0
LINE
  5
4B1
330
1F
100
AcDbEntity
  8
0
  6
SLD-Durchgehend
 62
     7
370
    15
100
AcDbLine
 10
61.2954011046
 20
128.9574386377
 30
0.0
 11
60.8868718006
 21
128.9574386377
 31
0.0
  0
LINE
  5
4B2
330
1F
100
AcDbEntity
  8
0
  6
SLD-Durchgehend
 62
     7
370
    15
100
AcDbLine
 10
61.0754990809
 20
127.1698739204
 30
0.0
 11
59.6896976091
 21
127.1698739204
 31
0.0
  0
LINE
  5
4B3
330
1F
100
AcDbEntity
  8
0
  6
SLD-Durchgehend
 62
     7
370
    15
100
AcDbLine
 10
61.3995397322
 20
109.4574382353
 30
0.0
 11
58.8930368282
 21
109.4574382353
 31
0.0
  0
CIRCLE
  5
4B4
330
1F
100
AcDbEntity
  8
0
  6
SLD-Durchgehend
 62
     7
370
    15
100
AcDbCircle
 10
75.9663849928
 20
117.563655955
 30
0.0
 40
3.249999999999986
  0
CIRCLE
  5
4B5
330
1F
100
AcDbEntity
  8
0
  6
SLD-Durchgehend
 62
     7
370
    15
100
AcDbCircle
 10
75.9663849928
 20
117.563655955
 30
0.0
 40
2.999999999999986
  0
INSERT
  5
4C1
330
1F
100
AcDbEntity
  8
VERMASSUNG
100
AcDbBlockReference
  2
SW_CENTERMARKSYMBOL_0
 10
75.9663849928
 20
117.563655955
 30
0.0
  0
OLE2FRAME
  5
4C2
330
1F
100
AcDbEntity
  8
0
100
AcDbOle2Frame
 70
     2
  3
Paintbrush-Bild
 10
13.8511154363
 20
38.264191557
 30
0.0
 11
51.6290888628
 21
31.9806341108
 31
0.0
 71
     2
 72
     0
 73
     1
 90
    12928
310
80552BED0767C5B32B40DDAF6807D121434000000000000000006FFBDDFB85D0
310
4940DDAF6807D121434000000000000000006FFBDDFB85D04940416F4BD60AFB
310
3F4000000000000000002BED0767C5B32B40416F4BD60AFB3F40000000000000
310
0000000000000100000000010000010000000100000000000100000000320000
310
D0CF11E0A1B11AE1000000000000000000000000000000003E000300FEFF0900
310
0600000000000000000000000100000001000000000000000010000002000000
310
01000000FEFFFFFF0000000000000000FFFFFFFFFFFFFFFFFFFFFFFFFFFFFFFF
310
FFFFFFFFFFFFFFFFFFFFFFFFFFFFFFFFFFFFFFFFFFFFFFFFFFFFFFFFFFFFFFFF
310
FFFFFFFFFFFFFFFFFFFFFFFFFFFFFFFFFFFFFFFFFFFFFFFFFFFFFFFFFFFFFFFF
310
FFFFFFFFFFFFFFFFFFFFFFFFFFFFFFFFFFFFFFFFFFFFFFFFFFFFFFFFFFFFFFFF
310
FFFFFFFFFFFFFFFFFFFFFFFFFFFFFFFFFFFFFFFFFFFFFFFFFFFFFFFFFFFFFFFF
310
FFFFFFFFFFFFFFFFFFFFFFFFFFFFFFFFFFFFFFFFFFFFFFFFFFFFFFFFFFFFFFFF
310
FFFFFFFFFFFFFFFFFFFFFFFFFFFFFFFFFFFFFFFFFFFFFFFFFFFFFFFFFFFFFFFF
310
FFFFFFFFFFFFFFFFFFFFFFFFFFFFFFFFFFFFFFFFFFFFFFFFFFFFFFFFFFFFFFFF
310
FFFFFFFFFFFFFFFFFFFFFFFFFFFFFFFFFFFFFFFFFFFFFFFFFFFFFFFFFFFFFFFF
310
FFFFFFFFFFFFFFFFFFFFFFFFFFFFFFFFFFFFFFFFFFFFFFFFFFFFFFFFFFFFFFFF
310
FFFFFFFFFFFFFFFFFFFFFFFFFFFFFFFFFFFFFFFFFFFFFFFFFFFFFFFFFFFFFFFF
310
FFFFFFFFFFFFFFFFFFFFFFFFFFFFFFFFFFFFFFFFFFFFFFFFFFFFFFFFFFFFFFFF
310
FFFFFFFFFFFFFFFFFFFFFFFFFFFFFFFFFFFFFFFFFFFFFFFFFFFFFFFFFFFFFFFF
310
FFFFFFFFFFFFFFFFFFFFFFFFFFFFFFFFFFFFFFFFFFFFFFFFFFFFFFFFFFFFFFFF
310
FDFFFFFFFEFFFFFFFEFFFFFFFEFFFFFF05000000060000000700000008000000
310
090000000A0000000B0000000C0000000D0000000E0000000F00000010000000
310
11000000120000001300000014000000150000001600000017000000FEFFFFFF
310
FFFFFFFFFFFFFFFFFFFFFFFFFFFFFFFFFFFFFFFFFFFFFFFFFFFFFFFFFFFFFFFF
310
FFFFFFFFFFFFFFFFFFFFFFFFFFFFFFFFFFFFFFFFFFFFFFFFFFFFFFFFFFFFFFFF
310
FFFFFFFFFFFFFFFFFFFFFFFFFFFFFFFFFFFFFFFFFFFFFFFFFFFFFFFFFFFFFFFF
310
FFFFFFFFFFFFFFFFFFFFFFFFFFFFFFFFFFFFFFFFFFFFFFFFFFFFFFFFFFFFFFFF
310
FFFFFFFFFFFFFFFFFFFFFFFFFFFFFFFFFFFFFFFFFFFFFFFFFFFFFFFFFFFFFFFF
310
FFFFFFFFFFFFFFFFFFFFFFFFFFFFFFFFFFFFFFFFFFFFFFFFFFFFFFFFFFFFFFFF
310
FFFFFFFFFFFFFFFFFFFFFFFFFFFFFFFFFFFFFFFFFFFFFFFFFFFFFFFFFFFFFFFF
310
FFFFFFFFFFFFFFFFFFFFFFFFFFFFFFFFFFFFFFFFFFFFFFFFFFFFFFFFFFFFFFFF
310
FFFFFFFFFFFFFFFFFFFFFFFFFFFFFFFFFFFFFFFFFFFFFFFFFFFFFFFFFFFFFFFF
310
FFFFFFFFFFFFFFFFFFFFFFFFFFFFFFFFFFFFFFFFFFFFFFFFFFFFFFFFFFFFFFFF
310
FFFFFFFFFFFFFFFFFFFFFFFFFFFFFFFFFFFFFFFFFFFFFFFFFFFFFFFFFFFFFFFF
310
FFFFFFFFFFFFFFFFFFFFFFFFFFFFFFFFFFFFFFFFFFFFFFFFFFFFFFFFFFFFFFFF
310
FFFFFFFFFFFFFFFFFFFFFFFFFFFFFFFFFFFFFFFFFFFFFFFFFFFFFFFFFFFFFFFF
310
52006F006F007400200045006E00740072007900000000000000000000000000
310
0000000000000000000000000000000000000000000000000000000000000000
310
16000500FFFFFFFFFFFFFFFF020000000A00030000000000C000000000000046
310
000000000000000000000000E0A8975ECC87D00103000000C000000000000000
310
01004F006C006500000000000000000000000000000000000000000000000000
310
0000000000000000000000000000000000000000000000000000000000000000
310
0A000200FFFFFFFFFFFFFFFFFFFFFFFF00000000000000000000000000000000
310
0000000000000000000000000000000000000000000000001400000000000000
310
010043006F006D0070004F0062006A0000000000000000000000000000000000
310
0000000000000000000000000000000000000000000000000000000000000000
310
120002010100000003000000FFFFFFFF00000000000000000000000000000000
310
0000000000000000000000000000000000000000010000004D00000000000000
310
01004F006C006500310030004E00610074006900760065000000000000000000
310
0000000000000000000000000000000000000000000000000000000000000000
310
1A000200FFFFFFFFFFFFFFFFFFFFFFFF00000000000000000000000000000000
310
0000000000000000000000000000000000000000040000002426000000000000
310
FEFFFFFF02000000FEFFFFFFFFFFFFFFFFFFFFFFFFFFFFFFFFFFFFFFFFFFFFFF
310
FFFFFFFFFFFFFFFFFFFFFFFFFFFFFFFFFFFFFFFFFFFFFFFFFFFFFFFFFFFFFFFF
310
FFFFFFFFFFFFFFFFFFFFFFFFFFFFFFFFFFFFFFFFFFFFFFFFFFFFFFFFFFFFFFFF
310
FFFFFFFFFFFFFFFFFFFFFFFFFFFFFFFFFFFFFFFFFFFFFFFFFFFFFFFFFFFFFFFF
310
FFFFFFFFFFFFFFFFFFFFFFFFFFFFFFFFFFFFFFFFFFFFFFFFFFFFFFFFFFFFFFFF
310
FFFFFFFFFFFFFFFFFFFFFFFFFFFFFFFFFFFFFFFFFFFFFFFFFFFFFFFFFFFFFFFF
310
FFFFFFFFFFFFFFFFFFFFFFFFFFFFFFFFFFFFFFFFFFFFFFFFFFFFFFFFFFFFFFFF
310
FFFFFFFFFFFFFFFFFFFFFFFFFFFFFFFFFFFFFFFFFFFFFFFFFFFFFFFFFFFFFFFF
310
FFFFFFFFFFFFFFFFFFFFFFFFFFFFFFFFFFFFFFFFFFFFFFFFFFFFFFFFFFFFFFFF
310
FFFFFFFFFFFFFFFFFFFFFFFFFFFFFFFFFFFFFFFFFFFFFFFFFFFFFFFFFFFFFFFF
310
FFFFFFFFFFFFFFFFFFFFFFFFFFFFFFFFFFFFFFFFFFFFFFFFFFFFFFFFFFFFFFFF
310
FFFFFFFFFFFFFFFFFFFFFFFFFFFFFFFFFFFFFFFFFFFFFFFFFFFFFFFFFFFFFFFF
310
FFFFFFFFFFFFFFFFFFFFFFFFFFFFFFFFFFFFFFFFFFFFFFFFFFFFFFFFFFFFFFFF
310
FFFFFFFFFFFFFFFFFFFFFFFFFFFFFFFFFFFFFFFFFFFFFFFFFFFFFFFFFFFFFFFF
310
FFFFFFFFFFFFFFFFFFFFFFFFFFFFFFFFFFFFFFFFFFFFFFFFFFFFFFFFFFFFFFFF
310
FFFFFFFFFFFFFFFFFFFFFFFFFFFFFFFFFFFFFFFFFFFFFFFFFFFFFFFFFFFFFFFF
310
0100000200000000000000000000000000000000000000000000000000000000
310
0000000000000000000000000000000000000000000000000000000000000000
310
0100FEFF030A0000FFFFFFFF0A00030000000000C00000000000004607000000
310
5042727573680007000000504272757368000700000050427275736800F439B2
310
7100000000000000000000000000000000000000000000000000000000000000
310
0000000000000000000000000000000000000000000000000000000000000000
310
0000000000000000000000000000000000000000000000000000000000000000
310
0000000000000000000000000000000000000000000000000000000000000000
310
0000000000000000000000000000000000000000000000000000000000000000
310
0000000000000000000000000000000000000000000000000000000000000000
310
0000000000000000000000000000000000000000000000000000000000000000
310
0000000000000000000000000000000000000000000000000000000000000000
310
0000000000000000000000000000000000000000000000000000000000000000
310
0000000000000000000000000000000000000000000000000000000000000000
310
0000000000000000000000000000000000000000000000000000000000000000
310
0000000000000000000000000000000000000000000000000000000000000000
310
20260000424D0E260000000000003E00000028000000B40200006E0000000100
310
01000000000000000000130B0000130B00000200000002000000000000FFFFFF
310
FFFFFFFFFFFFFFFFFFFFFFFFFFFFFFFFFFFFFFFFFFFFFFFFFFFFFFFFFFFFFFFF
310
FFFFFFFFFFFFFFFFFFFFFFFFFFFFFFFFFFFFFFFFFFFFFFFFFFFFFFFFFFFFFFFF
310
FFFFFFFFFFFFFFFFFFFFFFFFFFFFFFFFFFFFFFFFFFFFFFFFF000FFFFFFFFFFFF
310
FFFFFFFFFFFFFFFFFFFFFFFFFFFFFFFFFFFFFFFFFFFFFFFFFFFFFFFFFFFFFFFF
310
FFFFFFFFFFFFFFFFFFFFFFFFFFFFFFFFFFFFFFFFFFFFFFFFFFFFFFFFFFFFFFFF
310
FFFFFFFFFFFFFFFFFFFFFFFFFFFFFFFFF000FFFFFFFFFFFFFFFFFFFFFFFFFFFF
310
FFFFFFFFFFFFFFFFFFFFFFFFFFFFFFFFFFFFFFFFFFFFFFFFFFFFFFFFFFFFFFFF
310
FFFFFFFFFFFFFFFFFFFFFFFFFFFFFFFFFFFFFFFFFFFFFFFFFFFFFFFFFFFFFFFF
310
FFFFFFFFFFFFFFFFF000FFFFFFFFFFFFFFFFFFFFFFFFFFFFFFFFFFFFFFFFFFFF
310
FFFFFFFFFFFFFFFFFFFFFFFFFFFFFFFFFFFFFFFFFFFFFFFFFFFFFFFFFFFFFFFF
310
FFFFFFFFFFFFFFFFFFFFFFFFFFFFFFFFFFFFFFFFFFFFFFFFFFFFFFFFFFFFFFFF
310
F000FFFFFFFFFFFFFFFFFFFFFFFFFFFFFFFFFFFFFFFFFFFFFFFFFFFFFFFFFFFF
310
FFFFFFFFFFFFFFFFFFFFFFFFFFFFFFFFFFFFFFFFFFFFFFFFFFFFFFFFFFFFFFFF
310
FFFFFFFFFFFFFFFFFFFFFFFFFFFFFFFFFFFFFFFFFFFFFFFFF000FFFFFFFFFFFF
310
FFFFFFFFFFFFFFFFFFFFFFFFFFFFFFFFFFFFFFFFFFFFFFFFFFFFFFFFFFFFFFFF
310
FFFFFFFFFFFFFFFFFFFFFFFFFFFFFFFFFFFFFFFFFFFFFFFFFFFFFFFFFFFFFFFF
310
FFFFFFFFFFFFFFFFFFFFFFFFFFFFFFFFF000FFFFFFFFFFFFFFFFFFFFFFFFFFFF
310
FFFFFFFFFFFFFFFFFFFFFFFFFFFFFFFFFFFFFFFFFFFFFFFFFFFFFFFFFFFFFFFF
310
FFFFFFFFFFFFFFFFFFFFFFFFFFFFFFFFFFFFFFFFFFFFFFFFFFFFFFFFFFFFFFFF
310
FFFFFFFFFFFFFFFFF000FFFFFFFFFFFFFFFFFFFFFFFFFFFFFFFFFFFFFFFFFFFF
310
FFFFFFFFFFFFFFFFFFFFFFFFFFFFFFFFFFFFFFFFFFFFFFFFFFFFFFFFFFFFFFFF
310
FFFFFFFFFFFFFFFFFFFFFFFFFFFFFFFFFFFFFFFFFFFFFFFFFFFFFFFFFFFFFFFF
310
F000FFFFFFFFFFFFFFFFFFFFFFFFFFFFFFFFFFFFFFFFFFFFFFFFFFFFFFFFFFFF
310
FFFFFFFFFFFFFFFFFFFFFFFFFFFFFFFFFFFFFFFFFFFFFFFFFFFFFFFFFFFFFFFF
310
FFFFFFFFFFFFFFFFFFFFFFFFFFFFFFFFFFFFFFFFFFFFFFFFF000FFFFFFFFFFFF
310
FFFFFFFFFFFFFFFFFFFFFFFFFFFFFFFFFFFFFFFFFFFFFFFFFFFFFFFFFFFFFFFF
310
FFFFFFFFFFFFFFFFFFFFFFFFFFFFFFFFFFFFFFFFFFFFFFFFFFFFFFFFFFFFFFFF
310
FFFFFFFFFFFFFFFFFFFFFFFFFFFFFFFFF000FFFFFFFFFFFFFFFFFFFFFFFFFFFF
310
FFFFFFFFFFFFFFFFFFFFFFFFFFFFFFFFFFFFFFFFFFFFFFFFFFFFFFFFFFFFFFFF
310
FFFFFFFFFFFFFFFFFFFFFFFFFFFFFFFFFFFFFFFFFFFFFFFFFFFFFFFFFFFFFFFF
310
FFFFFFFFFFFFFFFFF000FFFFFFFFFFFFFFFFFFFFFFFFFFFFFFFFFFFFFFFFFFFF
310
FFFFFFFFFFFFFFFFFFFFFFFFFFFFFFFFFFFFFFFFFFFFFFFFFFFFFFFFFFFFFFFF
310
FFFFFFFFFFFFFFFFFFFFFFFFFFFFFFFFFFFFFFFFFFFFFFFFFFFFFFFFFFFFFFFF
310
F000FFFFFFFFFFFFFFFFFFFFFFFFFFFFFFFFFFFFFFFFFFFFFFFFFFFFFFFFFFFF
310
FFFFFFFFFFFFFFFFFFFFFFFFFFFFFFFFFFFFFFFFFFFFFFFFFFFFFFFFFFFFFFFF
310
FFFFFFFFFFFFFFFFFFFFFFFFFFFFFFFFFFFFFFFFFFFFFFFFF000FFFFFFFFFFFF
310
FFFFFFFFFFFFFFFFFFFFFFFFFFFFFFFFFFFFFFFFFFFFFFFFFFFFFFFFFFFFFFFF
310
FFFFFFFFFFFFFFFFFFFFFFFFFFFFFFFFFFFFFFFFFFFFFFFFFFFFFFFFFFFFFFFF
310
FFFFFFFFFFFFFFFFFFFFFFFFFFFFFFFFF000FFFFFFFFFFFFFFFFFFFFFFFFFFFF
310
FFFFFFFFFFFFFFFFFFFFFFFFFFFFFFFFFFFFFFFFFFFFFFFFFFFFFFFFFFFFFFFF
310
FFFFFFFFFFFFFFFFFFFFFFFFFFFFFFFFFFFFFFFFFFFFFFFFFFFFFFFFFFFFFFFF
310
FFFFFFFFFFFFFFFFF000FFFFFFFFFFFFFFFFFFFFFFFFFFFFFFFFFFFFFFFFFFFF
310
FFFFFFFFFFFFFFFFFFFFFFFFFFFFFFFFFFFFFFFFFFFFFFFFFFFFFFFFFFFFFFFF
310
FFFFFFFFFFFFFFFFFFFFFFFFFFFFFFFFFFFFFFFFFFFFFFFFFFFFFFFFFFFFFFFF
310
F000FFFFFFFFFFFFFFFFFFFFFFFFFFFFFFFFFFFFFFFFFFFFFFFFFFFFFFFFFFFF
310
FFFFFFFFFFFFFFFFFFFFFFFFFFFFFFFFFFFFFFFFFFFFFFFFFFFFFFFFFFFFFFFF
310
FFFFFFFFFFFFFFFFFFFFFFFFFFFFFFFFFFFFFFFFFFFFFFFFF000FFFFFFFFFFFF
310
FFFFFFFFFFFFFFFFFFFFFFFFFFFFFFFFFFFFFFFFFFFFFFFFFFFFFFFFFFFFFFFF
310
FFFFFFFFFFFFFFFFFFFFFFFFFFFFFFFFFFFFFFFFFFFFFFFFFFFFFFFFFFFFFFFF
310
FFFFFFFFFFFFFFFFFFFFFFFFFFFFFFFFF000FFFFFFFFFFFFFFFFFFFFFFFFFFFF
310
FFFFFFFFFFFFFFFFFFFFFFFFFFFFFFFFFFFFFFFFFFFFFFFFFFFFFFFFFFFFFFFF
310
FFFFFFFFFFFFFFFFFFFFFFFFFFFFFFFFFFFFFFFFFFFFFFFFFFFFFFFFFFFFFFFF
310
FFFFFFFFFFFFFFFFF000FFFFF80003FFFFFFFFFFFFFFFFFFFFFFFFFFFFFFFFFF
310
FFFFF00007FFFFFFFFFF00007FFFFFF800000000000000007FFFFFFFFFFFFFFF
310
FFFFFFFC001FFFFFFFFFFFFFFC001FFFFFFFFFFFFFFFFFFFFFFFFFFE0007FFFF
310
F000FFFF8000007FFFFFFFF8000FFFFFC0007FFFFF80007FFFFF0000007FFFFF
310
FFF8000007FFFFF800000000000000007FFFFFF0001FFFFFFFFFFFC00001FFFF
310
FFFFFFFFC00001FFFFFFFF000000000003FFFFE000007FFFF000FFFE0000000F
310
FFFFFFF0000FFFFF80007FFFFF80007FFFFC0000001FFFFFFFC0000001FFFFF8
310
00000000000000007FFFFFF0001FFFFFFFFFFE0000003FFFFFFFFFFE0000003F
310
FFFFFF000000000003FFFF0000000FFFF000FFF800000003FFFFFFF00007FFFF
310
80007FFFFF80007FFFF000000007FFFFFF000000003FFFF80000000000000000
310
7FFFFFF0001FFFFFFFFFF80000000FFFFFFFFFF80000000FFFFFFF0000000000
310
03FFFC00000003FFF000FFE000000000FFFFFFF00007FFFF80003FFFFF80007F
310
FFC000000001FFFFFC000000001FFFF800000000000000007FFFFFF0001FFFFF
310
FFFFE000000003FFFFFFFFE000000003FFFFFF000000000003FFF000000000FF
310
F000FF80000000007FFFFFF00007FFFF80003FFFFF80007FFF8000000000FFFF
310
F80000000007FFF800000000000000007FFFFFF0001FFFFFFFFFC000000001FF
310
FFFFFFC000000001FFFFFF000000000003FFC0000000007FF000FF0000000000
310
3FFFFFE00007FFFF00003FFFFF80007FFE00000000003FFFF00000000003FFF8
310
00000000000000007FFFFFF0001FFFFFFFFF8000000000FFFFFFFF8000000000
310
FFFFFF000000000003FF80000000003FF000FE00000000001FFFFFE00003FFFF
310
00003FFFFF80007FFC00000000001FFFE00000000001FFF8000001FFFE000000
310
7FFFFFF0001FFFFFFFFE00000000003FFFFFFE00000000003FFFFF0000000000
310
03FF00000000001FF000FC00000000000FFFFFE00003FFFF00001FFFFF80007F
310
F800000000001FFFC00000000000FFF8000001FFFE0000007FFFFFF0001FFFFF
310
FFFC00000000001FFFFFFC00000000001FFFFF000000000003FE00000000000F
310
F000F8000000000007FFFFE00003FFFF00001FFFFF80007FF800000000000FFF
310
800000000000FFF8000001FFFE0000007FFFFFF0001FFFFFFFF800000000000F
310
FFFFF800000000000FFFFF000000000003FC000000000007F000F80000000000
310
03FFFFC00003FFFE00001FFFFF80007FF0000000000007FF0000000000007FF8
310
000001FFFE0000007FFFFFF0001FFFFFFFF0000000000007FFFFF00000000000
310
07FFFF000000000003F8000000000003F000F0000000000003FFFFC00001FFFE
310
00001FFFFF80007FE0000000000007FE0000000000003FF8000001FFFE000000
310
7FFFFFF0001FFFFFFFF0000000000007FFFFF0000000000007FFFF0000000000
310
03F800001F800003F000E00001FFF00001FFFFC00001FFFE00000FFFFF80007F
310
E00001FFE00003FE00001FFF00003FF8000001FFFE0000007FFFFFF0001FFFFF
310
FFE000003E000003FFFFE000003E000003FFFF000000000003F00001FFF80001
310
F000E00007FFFC0001FFFFC00001FFFE00000FFFFF80007FC0000FFFFC0003FC
310
0000FFFFC0001FF8000001FFFE0000007FFFFFF0001FFFFFFFC00003FFE00001
310
FFFFC00003FFE00001FFFF0001FFFFFFFFF00007FFFE0001F000E0000FFFFF00
310
00FFFF800001FFFC00000FFFFF80007FC0001FFFFE0001FC0001FFFFE0001FF8
310
000001FFFE0000007FFFFFF0001FFFFFFF80000FFFF80000FFFF80000FFFF800
310
00FFFF0003FFFFFFFFE0000FFFFF8000F000C0003FFFFF8000FFFF800000FFFC
310
000007FFFF80007F80003FFFFF0001FC0003FFFFF0001FF8000001FFFE000000
310
7FFFFFF0001FFFFFFF80003FFFFE0000FFFF80003FFFFE0000FFFF0003FFFFFF
310
FFE0003FFFFF8000F000C0003FFFFF8000FFFF800000FFFC000007FFFF80007F
310
80007FFFFF8001F80007FFFFF8000FF8000001FFFE0000007FFFFFF0001FFFFF
310
FF00007FFFFF00007FFF00007FFFFF00007FFF0003FFFFFFFFE0003FFFFFC000
310
F000C0007FFFFFC000FFFF000000FFFC000007FFFF80007F8000FFFFFF8000F8
310
000FFFFFF8000FF8000001FFFE0000007FFFFFF0001FFFFFFF0000FFFFFF8000
310
7FFF0000FFFFFF80007FFF0003FFFFFFFFC0007FFFFFC00070008000FFFFFFC0
310
00FFFF000000FFF8000007FFFF80007F8000FFFFFF8000F8000FFFFFF8000FF8
310
000001FFFE0000007FFFFFF0001FFFFFFE0001FFFFFFC0003FFE0001FFFFFFC0
310
003FFF0003FFFFFFFFC0007FFFFFE00070008000FFFFFFC0007FFF0000007FF8
310
000003FFFF80007F0001FFFFFF8000F8000FFFFFF8000FF8000001FFFE000000
310
7FFFFFF0001FFFFFFE0001FFFFFFC0003FFE0001FFFFFFC0003FFF0003FFFFFF
310
FFC000FFFFFFE00070008000FFFFFFC0007FFF0000007FF8000003FFFF80007F
310
0001FFFFFF8000F8001FFFFFF8000FF8000001FFFE0000007FFFFFF0001FFFFF
310
FE0003FFFFFFE0003FFE0003FFFFFFE0003FFF0003FFFFFFFFC000FFFFFFE000
310
70008000FFFFFFC0007FFE0000007FF8000003FFFF80007F0001FFFFFF8000F0
310
001FFFFFF8000FF8000001FFFE0000007FFFFFF0001FFFFFFC0003FFFFFFE000
310
1FFC0003FFFFFFE0001FFF0003FFFFFFFFC000FFFFFFC00070008000FFFFFF80
310
007FFE0000007FF0000003FFFF80007F0001FFFFFF0000F0001FFFFFF8000FF8
310
000001FFFE0000007FFFFFF0001FFFFFFC0007FFFFFFF0001FFC0007FFFFFFF0
310
001FFF0003FFFFFFFFC000FFFFFFC00070008001FFFFFF0000FFFE0000003FF0
310
000001FFFF80007F0001FFFFFF0000F8001FFFFFF0000FF8000001FFFE000000
310
7FFFFFF0001FFFFFFC0007FFFFFFF0001FFC0007FFFFFFF0001FFF0003FFFFFF
310
FFC001FFFFFF80007000FFFFFFFFFE0000FFFE0008003FF0008001FFFF80007F
310
FFFFFFFFFC0000FFFFFFFFFFE0000FF8000001FFFE0000007FFFFFF0001FFFFF
310
F8000FFFFFFFF8000FF8000FFFFFFFF8000FFF0003FFFFFFFFFFFFFFFFFF0000
310
7000FFFFFFFFFC0000FFFC0008003FF0008001FFFF80007FFFFFFFFFF80001FF
310
FFFFFFFF80000FF8000001FFFE0000007FFFFFF0001FFFFFF8000FFFFFFFF800
310
0FF8000FFFFFFFF8000FFF0003FFFFFFFFFFFFFFFFFE0000F000FFFFFFFFE000
310
00FFFC000C003FE000C001FFFF80007FFFFFFFFFC00001FFFFFFFFFE00001FF8
310
000001FFFE0000007FFFFFF0001FFFFFF8000FFFFFFFF8000FF8000FFFFFFFF8
310
000FFF0003FFFFFFFFFFFFFFFFF00000F000FFFFFFFE000001FFFC000C001FE0
310
00C000FFFF80007FFFFFFFFE000001FFFFFFFFE000001FF80FFFFFFFFFFFFFC0
310
7FFFFFF0001FFFFFF8000FFFFFFFF8000FF8000FFFFFFFF8000FFF0003FFFFFF
310
FFFFFFFFFF800000F000FFFFFFC0000001FFFC001C001FE001C000FFFF80007F
310
FFFFFF80000003FFFFFFF80000001FF80FFFFFFFFFFFFFC07FFFFFF0001FFFFF
310
F8001FFFFFFFFC000FF8001FFFFFFFFC000FFF0003FFFFFFFFFFFFFFF0000001
310
F000FFFFF800000001FFF8001C001FE001C000FFFF80007FFFFFF800000003FF
310
FFFF800000003FF80FFFFFFFFFFFFFC07FFFFFF0001FFFFFF8001FFFFFFFFC00
310
0FF8001FFFFFFFFC000FFF0003FFFFFFFFFFFFFE00000001F000FFFFC0000000
310
03FFF8001E001FC001E000FFFF80007FFFFF8000000007FFFFFC000000003FF8
310
0FFFFFFFFFFFFFC07FFFFFF0001FFFFFF8001FFFFFFFFC000FF8001FFFFFFFFC
310
000FFF0003FFFFFFFFFFFFE000000003F000FFFE0000000007FFF8001E000FC0
310
01E0007FFF80007FFFFE0000000007FFFFE0000000007FF80FFFFFFFFFFFFFC0
310
7FFFFFF0001FFFFFF0001FFFFFFFFC0007F0001FFFFFFFFC0007FF0003FFFFFF
310
FFFFFF0000000003F000FFF80000000007FFF8001E000FC003E0007FFF80007F
310
FFF0000000000FFFFF8000000000FFF80FFFFFFFFFFFFFC07FFFFFF0001FFFFF
310
F0001FFFFFFFFC0007F0001FFFFFFFFC0007FF0003FFFFFFFFFFFC0000000007
310
F000FFE0000000000FFFF0003E000FC003E0007FFF80007FFFC0000000001FFF
310
FE0000000001FFF80FFFFFFFFFFFFFC07FFFFFF0001FFFFFF0001FFFFFFFFC00
310
07F0001FFFFFFFFC0007FF0003FFFFFFFFFFF0000000000FF000FFC000000000
310
1FFFF0003F000F8003F0003FFF80007FFF80000000003FFFF80000000003FFF8
310
0FFFFFFFFFFFFFC07FFFFFF0001FFFFFF0001FFFFFFFFC0007F0001FFFFFFFFC
310
0007FF0003FFFFFFFFFFE0000000001FF000FF00000000007FFFF0003F000780
310
03F0003FFF80007FFF00000000007FFFF00000000007FFF80FFFFFFFFFFFFFC0
310
7FFFFFF0001FFFFFF0001FFFFFFFFC0007F0001FFFFFFFFC0007FF0003FFFFFF
310
FFFF80000000007FF000FE0000000000FFFFE0003F00078007F0003FFF80007F
310
FE0000000001FFFFE0000000001FFFF80FFFFFFFFFFFFFC07FFFFFF0001FFFFF
310
F0001FFFFFFFFC0007F0001FFFFFFFFC0007FF0003FFFFFFFFFF0000000000FF
310
F000FC0000000003FFFFE0007F00078007F0003FFF80007FFC0000000007FFFF
310
C0000000007FFFF80FFFFFFFFFFFFFC07FFFFFF0001FFFFFF8001FFFFFFFFC00
310
0FF8001FFFFFFFFC000FFF0003FFFFFFFFFE0000000003FFF000FC000000000F
310
FFFFE0007F80070007F8001FFF80007FF8000000001FFFFF8000000001FFFFF8
310
0FFFFFFFFFFFFFC07FFFFFF0001FFFFFF8001FFFFFFFFC000FF8001FFFFFFFFC
310
000FFF0003FFFFFFFFFC000000000FFFF000F8000000007FFFFFE0007F800700
310
07F8001FFF80007FF000000000FFFFFF800000000FFFFFF80FFFFFFFFFFFFFC0
310
7FFFFFF0001FFFFFF8000FFFFFFFF8000FF8000FFFFFFFF8000FFF0003FFFFFF
310
FFFC000000007FFFF000F800000007FFFFFFC0007F8003000FF8001FFF80007F
310
F000000007FFFFFF000000007FFFFFF80FFFFFFFFFFFFFC07FFFFFF0001FFFFF
310
F8000FFFFFFFF8000FF8000FFFFFFFF8000FFF0003FFFFFFFFF80000000FFFFF
310
F000F0000000FFFFFFFFC000FF8003000FF8001FFF80007FE0000000FFFFFFFF
310
0000000FFFFFFFF8000001FFFE0000007FFFFFF0001FFFFFF8000FFFFFFFF800
310
0FF8000FFFFFFFF8000FFF0003FFFFFFFFF8000000FFFFFFF000F000000FFFFF
310
FFFFC000FFC002000FF8000FFF80007FE000001FFFFFFFFE000001FFFFFFFFF8
310
000001FFFE0000007FFFFFF0001FFFFFF8000FFFFFFFF8000FF8000FFFFFFFF8
310
000FFF0003FFFFFFFFF000001FFFFFFFF000E00000FFFFFFFFFFC000FFC00200
310
0FFC000FFF80007FE00001FFFFFFFFFE00001FFFFFFFFFF8000001FFFE000000
310
7FFFFFF0001FFFFFFC000FFFFFFFF8001FFC000FFFFFFFF8001FFF0003FFFFFF
310
FFF00001FFFFFFFFF000E00007FFFFFFFFFF8000FFC000001FFC000FFF80007F
310
C0000FFFFFFFFFFE0000FFFFFFFFFFF8000001FFFE0000007FFFFFF0001FFFFF
310
FC0007FFFFFFF0001FFC0007FFFFFFF0001FFF0003FFFFFFFFF00007FFFFFFFF
310
F000E0001FFFFFFFFFFF8000FFC000001FFC000FFF80007FC0003FFFFFFFFFFE
310
0001FFFFFFFFFFF8000001FFFE0000007FFFFFF0001FFFFFFC0007FFFFFFF000
310
1FFC0007FFFFFFF0001FFF0003FFFFFFFFF0001FFFFFFFFFF000E0003FFFFF00
310
03FF8001FFE000001FFC0007FF80007FC0007FFFFF0007FC0003FFFFF0003FF8
310
000001FFFE0000007FFFFFF0001FFFFFFC0003FFFFFFE0001FFC0003FFFFFFE0
310
001FFF0003FFFFFFFFF0003FFFFFFFFFF000E0003FFFFF0001FF8001FFE00000
310
1FFE0007FF80007FC0007FFFFE0003FC0007FFFFE0003FF8000001FFFE000000
310
7FFFFFF0001FFFFFFE0003FFFFFFE0003FFE0003FFFFFFE0003FFF0003FFFFFF
310
FFF0003FFFFF8001F000E0003FFFFF0001FF0001FFE000001FFE0007FF80007F
310
C0007FFFFE0003FC0007FFFFE0003FF8000001FFFE0000007FFFFFF0001FFFFF
310
FE0001FFFFFFC0003FFE0001FFFFFFC0003FFF0003FFFFFFFFF0003FFFFF0001
310
F000E0003FFFFF0003FF0001FFE000003FFE0007FF80007FC0007FFFFE0003FC
310
0007FFFFE0003FF8000001FFFE0000007FFFFFF0001FFFFFFF0001FFFFFFC000
310
7FFF0001FFFFFFC0007FFF0003FFFFFFFFF0003FFFFF0001F000E0003FFFFE00
310
03FF0003FFF000003FFE0003FF80007FC0007FFFFC0003FE0007FFFFE0003FF8
310
000001FFFE0000007FFFFFF0001FFFFFFF0000FFFFFF80007FFF0000FFFFFF80
310
007FFF0003FFFFFFFFF0003FFFFF0001F000E0003FFFFE0003FF0003FFF00000
310
3FFF0003FF80007FC0007FFFFC0007FE0007FFFFC0003FF8000001FFFE000000
310
7FFFFFF0001FFFFFFF80007FFFFF0000FFFF80007FFFFF0000FFFF0003FFFFFF
310
FFF0003FFFFF0003F000E0003FFFFC0003FE0003FFF000003FFF0003FF80007F
310
E0003FFFF80007FE0003FFFFC0007FF8000001FFFE0000007FFFFFF0001FFFFF
310
FF80003FFFFE0000FFFF80003FFFFE0000FFFF0003FFFFFFFFF0001FFFFE0003
310
F000F0001FFFF80003FE0003FFF000007FFF0001FF80007FE0003FFFF00007FE
310
0001FFFF80007FF8000001FFFE0000007FFFFFF0001FFFFFFFC0000FFFF80001
310
FFFFC0000FFFF80001FFFF0003FFFFFFFFF0001FFFFC0003F000F0000FFFF000
310
07FE0007FFF800007FFF0001FF80007FE0001FFFE00007FF0000FFFE00007FF8
310
000001FFFE0000007FFFFFF0001FFFFFFFC00003FFE00001FFFFC00003FFE000
310
01FFFF0003FFFFFFFFF8000FFFF80003F000F00003FFC00007FC0007FFF80000
310
7FFF8001FF80007FF00007FF80000FFF00007FF80000FFF8000001FFFE000000
310
7F80000000000001FFE000003E000003FFFFE000003E000003FFFF0003FFFFFF
310
FFF80003FFE00007F000F800000000000FFC0007FFF800007FFF8001FF80007F
310
F000000000000FFF000000000000FFF8000001FFFE0000007F80000000000001
310
FFF0000000000007FFFFF0000000000007FFFF0003FFFFFFFFFC00007E000007
310
F000F800000000000FFC0007FFF80000FFFF8000FF80007FF800000000001FFF
310
800000000001FFF8000001FFFE0000007F80000000000001FFF800000000000F
310
FFFFF800000000000FFFFF0003FFFFFFFFFC00000000000FF000FC0000000000
310
1FFC0007FFFC0000FFFF8000FF80007FF800000000003FFFC00000000001FFF8
310
000001FFFE0000007F80000000000001FFF800000000000FFFFFF80000000000
310
0FFFFF0003FFFFFFFFFE00000000001FF000FE00000000003FF8000FFFFC0000
310
FFFF8000FF80007FFC00000000003FFFC00000000003FFF8000001FFFE000000
310
7F80000000000001FFFC00000000001FFFFFFC00000000001FFFFF0003FFFFFF
310
FFFF00000000001FF000FF00000000003FF8000FFFFC0000FFFFC000FF80007F
310
FE00000000007FFFE00000000007FFF8000001FFFE0000007F80000000000001
310
FFFE00000000003FFFFFFE00000000003FFFFF0003FFFFFFFFFF80000000003F
310
F000FF80000000007FF8000FFFFC0001FFFFC0007F80007FFF0000000000FFFF
310
F0000000000FFFF800000000000000007F80000000000001FFFF8000000000FF
310
FFFFFF8000000000FFFFFF0003FFFFFFFFFFC0000000007FF000FFC000000000
310
FFF8000FFFFE0001FFFFC0007F80007FFF8000000001FFFFF8000000001FFFF8
310
00000000000000007F80000000000001FFFFC000000001FFFFFFFFC000000001
310
FFFFFF0003FFFFFFFFFFE000000000FFF000FFE000000003FFF0001FFFFE0001
310
FFFFC0007F80007FFFC000000007FFFFFE000000003FFFF80000000000000000
310
7F80000000000001FFFFE000000003FFFFFFFFE000000003FFFFFF0003FFFFFF
310
FFFFF000000003FFF000FFF80000000FFFF0001FFFFE0001FFFFE0007F80007F
310
FFF00000000FFFFFFF00000000FFFFF800000000000000007F80000000000001
310
FFFFF80000000FFFFFFFFFF80000000FFFFFFF0003FFFFFFFFFFFC0000000FFF
310
F000FFFE0000003FFFF0001FFFFE0003FFFFE0003F80007FFFFC0000003FFFFF
310
FFC0000003FFFFF800000000000000007F80000000000001FFFFFE0000003FFF
310
FFFFFFFE0000003FFFFFFF0003FFFFFFFFFFFF0000003FFFF000FFFF800000FF
310
FFF0001FFFFF0003FFFFE0003F80007FFFFF000001FFFFFFFFF800001FFFFFF8
310
00000000000000007F80000000000001FFFFFFC00001FFFFFFFFFFFFC00001FF
310
FFFFFF0003FFFFFFFFFFFFC00000FFFFF000FFFFF8000FFFFFFFFFFFFFFFFFFF
310
FFFFFFFFFFFFFFFFFFFFF0001FFFFFFFFFFF0000FFFFFFF80000000000000000
310
7FFFFFFFFFFFFFFFFFFFFFFC001FFFFFFFFFFFFFFC001FFFFFFFFFFFFFFFFFFF
310
FFFFFFFC001FFFFFF000FFFFFFFFFFFFFFFFFFFFFFFFFFFFFFFFFFFFFFFFFFFF
310
FFFFFFFFFFFFFFFFFFFFFFFFFFFFFFFFFFFFFFFFFFFFFFFFFFFFFFFFFFFFFFFF
310
FFFFFFFFFFFFFFFFFFFFFFFFFFFFFFFFFFFFFFFFFFFFFFFFFFFFFFFFFFFFFFFF
310
F000FFFFFFFFFFFFFFFFFFFFFFFFFFFFFFFFFFFFFFFFFFFFFFFFFFFFFFFFFFFF
310
FFFFFFFFFFFFFFFFFFFFFFFFFFFFFFFFFFFFFFFFFFFFFFFFFFFFFFFFFFFFFFFF
310
FFFFFFFFFFFFFFFFFFFFFFFFFFFFFFFFFFFFFFFFFFFFFFFFF000FFFFFFFFFFFF
310
FFFFFFFFFFFFFFFFFFFFFFFFFFFFFFFFFFFFFFFFFFFFFFFFFFFFFFFFFFFFFFFF
310
FFFFFFFFFFFFFFFFFFFFFFFFFFFFFFFFFFFFFFFFFFFFFFFFFFFFFFFFFFFFFFFF
310
FFFFFFFFFFFFFFFFFFFFFFFFFFFFFFFFF000FFFFFFFFFFFFFFFFFFFFFFFFFFFF
310
FFFFFFFFFFFFFFFFFFFFFFFFFFFFFFFFFFFFFFFFFFFFFFFFFFFFFFFFFFFFFFFF
310
FFFFFFFFFFFFFFFFFFFFFFFFFFFFFFFFFFFFFFFFFFFFFFFFFFFFFFFFFFFFFFFF
310
FFFFFFFFFFFFFFFFF000FFFFFFFFFFFFFFFFFFFFFFFFFFFFFFFFFFFFFFFFFFFF
310
FFFFFFFFFFFFFFFFFFFFFFFFFFFFFFFFFFFFFFFFFFFFFFFFFFFFFFFFFFFFFFFF
310
FFFFFFFFFFFFFFFFFFFFFFFFFFFFFFFFFFFFFFFFFFFFFFFFFFFFFFFFFFFFFFFF
310
F000FFFFFFFFFFFFFFFFFFFFFFFFFFFFFFFFFFFFFFFFFFFFFFFFFFFFFFFFFFFF
310
FFFFFFFFFFFFFFFFFFFFFFFFFFFFFFFFFFFFFFFFFFFFFFFFFFFFFFFFFFFFFFFF
310
FFFFFFFFFFFFFFFFFFFFFFFFFFFFFFFFFFFFFFFFFFFFFFFFF000FFFFFFFFFFFF
310
FFFFFFFFFFFFFFFFFFFFFFFFFFFFFFFFFFFFFFFFFFFFFFFFFFFFFFFFFFFFFFFF
310
FFFFFFFFFFFFFFFFFFFFFFFFFFFFFFFFFFFFFFFFFFFFFFFFFFFFFFFFFFFFFFFF
310
FFFFFFFFFFFFFFFFFFFFFFFFFFFFFFFFF000FFFFFFFFFFFFFFFFFFFFFFFFFFFF
310
FFFFFFFFFFFFFFFFFFFFFFFFFFFFFFFFFFFFFFFFFFFFFFFFFFFFFFFFFFFFFFFF
310
FFFFFFFFFFFFFFFFFFFFFFFFFFFFFFFFFFFFFFFFFFFFFFFFFFFFFFFFFFFFFFFF
310
FFFFFFFFFFFFFFFFF000FFFFFFFFFFFFFFFFFFFFFFFFFFFFFFFFFFFFFFFFFFFF
310
FFFFFFFFFFFFFFFFFFFFFFFFFFFFFFFFFFFFFFFFFFFFFFFFFFFFFFFFFFFFFFFF
310
FFFFFFFFFFFFFFFFFFFFFFFFFFFFFFFFFFFFFFFFFFFFFFFFFFFFFFFFFFFFFFFF
310
F000FFFFFFFFFFFFFFFFFFFFFFFFFFFFFFFFFFFFFFFFFFFFFFFFFFFFFFFFFFFF
310
FFFFFFFFFFFFFFFFFFFFFFFFFFFFFFFFFFFFFFFFFFFFFFFFFFFFFFFFFFFFFFFF
310
FFFFFFFFFFFFFFFFFFFFFFFFFFFFFFFFFFFFFFFFFFFFFFFFF000FFFFFFFFFFFF
310
FFFFFFFFFFFFFFFFFFFFFFFFFFFFFFFFFFFFFFFFFFFFFFFFFFFFFFFFFFFFFFFF
310
FFFFFFFFFFFFFFFFFFFFFFFFFFFFFFFFFFFFFFFFFFFFFFFFFFFFFFFFFFFFFFFF
310
FFFFFFFFFFFFFFFFFFFFFFFFFFFFFFFFF000FFFFFFFFFFFFFFFFFFFFFFFFFFFF
310
FFFFFFFFFFFFFFFFFFFFFFFFFFFFFFFFFFFFFFFFFFFFFFFFFFFFFFFFFFFFFFFF
310
FFFFFFFFFFFFFFFFFFFFFFFFFFFFFFFFFFFFFFFFFFFFFFFFFFFFFFFFFFFFFFFF
310
FFFFFFFFFFFFFFFFF000FFFFFFFFFFFFFFFFFFFFFFFFFFFFFFFFFFFFFFFFFFFF
310
FFFFFFFFFFFFFFFFFFFFFFFFFFFFFFFFFFFFFFFFFFFFFFFFFFFFFFFFFFFFFFFF
310
FFFFFFFFFFFFFFFFFFFFFFFFFFFFFFFFFFFFFFFFFFFFFFFFFFFFFFFFFFFFFFFF
310
F000FFFFFFFFFFFFFFFFFFFFFFFFFFFFFFFFFFFFFFFFFFFFFFFFFFFFFFFFFFFF
310
FFFFFFFFFFFFFFFFFFFFFFFFFFFFFFFFFFFFFFFFFFFFFFFFFFFFFFFFFFFFFFFF
310
FFFFFFFFFFFFFFFFFFFFFFFFFFFFFFFFFFFFFFFFFFFFFFFFF000FFFFFFFFFFFF
310
FFFFFFFFFFFFFFFFFFFFFFFFFFFFFFFFFFFFFFFFFFFFFFFFFFFFFFFFFFFFFFFF
310
FFFFFFFFFFFFFFFFFFFFFFFFFFFFFFFFFFFFFFFFFFFFFFFFFFFFFFFFFFFFFFFF
310
FFFFFFFFFFFFFFFFFFFFFFFFFFFFFFFFF000FFFFFFFFFFFFFFFFFFFFFFFFFFFF
310
FFFFFFFFFFFFFFFFFFFFFFFFFFFFFFFFFFFFFFFFFFFFFFFFFFFFFFFFFFFFFFFF
310
FFFFFFFFFFFFFFFFFFFFFFFFFFFFFFFFFFFFFFFFFFFFFFFFFFFFFFFFFFFFFFFF
310
FFFFFFFFFFFFFFFFF000FFFFFFFFFFFFFFFFFFFFFFFFFFFFFFFFFFFFFFFFFFFF
310
FFFFFFFFFFFFFFFFFFFFFFFFFFFFFFFFFFFFFFFFFFFFFFFFFFFFFFFFFFFFFFFF
310
FFFFFFFFFFFFFFFFFFFFFFFFFFFFFFFFFFFFFFFFFFFFFFFFFFFFFFFFFFFFFFFF
310
F000FFFFFFFFFFFFFFFFFFFFFFFFFFFFFFFFFFFFFFFFFFFFFFFFFFFFFFFFFFFF
310
FFFFFFFFFFFFFFFFFFFFFFFFFFFFFFFFFFFFFFFFFFFFFFFFFFFFFFFFFFFFFFFF
310
FFFFFFFFFFFFFFFFFFFFFFFFFFFFFFFFFFFFFFFFFFFFFFFFF000FFFFFFFFFFFF
310
FFFFFFFFFFFFFFFFFFFFFFFFFFFFFFFFFFFFFFFFFFFFFFFFFFFFFFFFFFFFFFFF
310
FFFFFFFFFFFFFFFFFFFFFFFFFFFFFFFFFFFFFFFFFFFFFFFFFFFFFFFFFFFFFFFF
310
FFFFFFFFFFFFFFFFFFFFFFFFFFFFFFFFF000FFFFFFFFFFFFFFFFFFFFFFFFFFFF
310
FFFFFFFFFFFFFFFFFFFFFFFFFFFFFFFFFFFFFFFFFFFFFFFFFFFFFFFFFFFFFFFF
310
FFFFFFFFFFFFFFFFFFFFFFFFFFFFFFFFFFFFFFFFFFFFFFFFFFFFFFFFFFFFFFFF
310
FFFFFFFFFFFFFFFFF000FFFFFFFFFFFFFFFFFFFFFFFFFFFFFFFFFFFFFFFFFFFF
310
FFFFFFFFFFFFFFFFFFFFFFFFFFFFFFFFFFFFFFFFFFFFFFFFFFFFFFFFFFFFFFFF
310
FFFFFFFFFFFFFFFFFFFFFFFFFFFFFFFFFFFFFFFFFFFFFFFFFFFFFFFFFFFFFFFF
310
F000FFFFFFFFFFFFFFFFFFFFFFFFFFFFFFFFFFFFFFFFFFFFFFFFFFFFFFFFFFFF
310
FFFFFFFFFFFFFFFFFFFFFFFFFFFFFFFFFFFFFFFFFFFFFFFFFFFFFFFFFFFFFFFF
310
FFFFFFFFFFFFFFFFFFFFFFFFFFFFFFFFFFFFFFFFFFFFFFFFF000FFFFFFFFFFFF
310
FFFFFFFFFFFFFFFFFFFFFFFFFFFFFFFFFFFFFFFFFFFFFFFFFFFFFFFFFFFFFFFF
310
FFFFFFFFFFFFFFFFFFFFFFFFFFFFFFFFFFFFFFFFFFFFFFFFFFFFFFFFFFFFFFFF
310
FFFFFFFFFFFFFFFFFFFFFFFFFFFFFFFFF0000000000000000000000000000000
310
0000000000000000000000000000000000000000000000000000000000000000
310
0000000000000000000000000000000000000000000000000000000000000000
310
0000000000000000000000000000000000000000000000000000000000000000
310
0000000000000000000000000000000000000000000000000000000000000000
310
0000000000000000000000000000000000000000000000000000000000000000
310
0000000000000000000000000000000000000000000000000000000000000000
310
0000000000000000000000000000000000000000000000000000000000000000
310
0000000000000000000000000000000000000000000000000000000000000000
310
0000000000000000000000000000000000000000000000000000000000000000
310
0000000000000000000000000000000000000000000000000000000000000000
310
0000000000000000000000000000000000000000000000000000000000000000
310
0000000000000000000000000000000000000000000000000000000000000000
310
0000000000000000000000000000000000000000000000000000000000000000
310
0000000000000000000000000000000000000000000000000000000000000000
310
0000000000000000000000000000000000000000000000000000000000000000
  1
OLE
  0
ENDSEC
  0
SECTION
  2
OBJECTS
  0
DICTIONARY
  5
C
330
0
100
AcDbDictionary
281
     1
  3
ACAD_GROUP
350
D
  3
ACAD_LAYOUT
350
1A
  3
ACAD_MLINESTYLE
350
17
  3
ACAD_PLOTSETTINGS
350
19
  3
ACAD_PLOTSTYLENAME
350
E
  0
DICTIONARY
  5
D
102
{ACAD_REACTORS
330
C
102
}
330
C
100
AcDbDictionary
281
     1
  0
DICTIONARY
  5
1A
102
{ACAD_REACTORS
330
C
102
}
330
C
100
AcDbDictionary
281
     1
  3
Layout1
350
1E
  3
Layout2
350
26
  3
Model
350
22
  0
DICTIONARY
  5
17
102
{ACAD_REACTORS
330
C
102
}
330
C
100
AcDbDictionary
281
     1
  3
Standard
350
18
  0
DICTIONARY
  5
19
102
{ACAD_REACTORS
330
C
102
}
330
C
100
AcDbDictionary
281
     1
  0
ACDBDICTIONARYWDFLT
  5
E
102
{ACAD_REACTORS
330
C
102
}
330
C
100
AcDbDictionary
281
     1
  3
Normal
350
F
100
AcDbDictionaryWithDefault
340
F
  0
LAYOUT
  5
1E
102
{ACAD_REACTORS
330
1A
102
}
330
1A
100
AcDbPlotSettings
  1

  2
none_device
  4

  6

 40
0.0
 41
0.0
 42
0.0
 43
0.0
 44
0.0
 45
0.0
 46
0.0
 47
0.0
 48
0.0
 49
0.0
140
0.0
141
0.0
142
1.0
143
1.0
 70
   688
 72
     0
 73
     0
 74
     5
  7

 75
    16
147
1.0
148
0.0
149
0.0
100
AcDbLayout
  1
Layout1
 70
     1
 71
     1
 10
0.0
 20
0.0
 11
420.0
 21
297.0
 12
0.0
 22
0.0
 32
0.0
 14
1.0000000000E+20
 24
1.0000000000E+20
 34
1.0000000000E+20
 15
-1.0000000000E+20
 25
-1.0000000000E+20
 35
-1.0000000000E+20
146
0.0
 13
0.0
 23
0.0
 33
0.0
 16
1.0
 26
0.0
 36
0.0
 17
0.0
 27
1.0
 37
0.0
 76
     0
330
1B
  0
LAYOUT
  5
26
102
{ACAD_REACTORS
330
1A
102
}
330
1A
100
AcDbPlotSettings
  1

  2
none_device
  4

  6

 40
0.0
 41
0.0
 42
0.0
 43
0.0
 44
0.0
 45
0.0
 46
0.0
 47
0.0
 48
0.0
 49
0.0
140
0.0
141
0.0
142
1.0
143
1.0
 70
   688
 72
     0
 73
     0
 74
     5
  7

 75
    16
147
1.0
148
0.0
149
0.0
100
AcDbLayout
  1
Layout2
 70
     1
 71
     2
 10
0.0
 20
0.0
 11
0.0
 21
0.0
 12
0.0
 22
0.0
 32
0.0
 14
0.0
 24
0.0
 34
0.0
 15
0.0
 25
0.0
 35
0.0
146
0.0
 13
0.0
 23
0.0
 33
0.0
 16
1.0
 26
0.0
 36
0.0
 17
0.0
 27
1.0
 37
0.0
 76
     0
330
23
  0
LAYOUT
  5
22
102
{ACAD_REACTORS
330
1A
102
}
330
1A
100
AcDbPlotSettings
  1

  2
none_device
  4

  6

 40
0.0
 41
0.0
 42
0.0
 43
0.0
 44
0.0
 45
0.0
 46
0.0
 47
0.0
 48
0.0
 49
0.0
140
0.0
141
0.0
142
1.0
143
1.0
 70
  1712
 72
     0
 73
     0
 74
     0
  7

 75
     0
147
1.0
148
0.0
149
0.0
100
AcDbLayout
  1
Model
 70
     1
 71
     0
 10
0.0
 20
0.0
 11
297.0
 21
210.0
 12
0.0
 22
0.0
 32
0.0
 14
0.0
 24
0.0
 34
0.0
 15
297.0
 25
210.0
 35
0.0
146
0.0
 13
0.0
 23
0.0
 33
0.0
 16
1.0
 26
0.0
 36
0.0
 17
0.0
 27
1.0
 37
0.0
 76
     0
330
1F
331
29
  0
MLINESTYLE
  5
18
102
{ACAD_REACTORS
330
17
102
}
330
17
100
AcDbMlineStyle
  2
Standard
 70
     0
  3

 62
   256
 51
90.0
 52
90.0
 71
     2
 49
0.5
 62
   256
  6
BYLAYER
 49
-0.5
 62
   256
  6
BYLAYER
  0
ACDBPLACEHOLDER
  5
F
102
{ACAD_REACTORS
330
E
102
}
330
E
  0
ENDSEC
  0
EOF
