  0
SECTION
  2
HEADER
  9
$ACADVER
  1
AC1015
  9
$ACADMAINTVER
 70
     6
  9
$DWGCODEPAGE
  3
ANSI_1252
  9
$INSBASE
 10
0.0
 20
0.0
 30
0.0
  9
$EXTMIN
 10
0.0
 20
0.0
 30
0.0
  9
$EXTMAX
 10
297.0
 20
210.0
 30
0.0
  9
$LIMMIN
 10
0.0
 20
0.0
  9
$LIMMAX
 10
297.0
 20
210.0
  9
$ORTHOMODE
 70
     0
  9
$REGENMODE
 70
     1
  9
$FILLMODE
 70
     1
  9
$QTEXTMODE
 70
     0
  9
$MIRRTEXT
 70
     1
  9
$LTSCALE
 40
1.0
  9
$ATTMODE
 70
     1
  9
$TEXTSIZE
 40
2.0
  9
$TRACEWID
 40
1.0
  9
$TEXTSTYLE
  7
Standard
  9
$CLAYER
  8
0
  9
$CELTYPE
  6
ByLayer
  9
$CECOLOR
 62
   256
  9
$CELTSCALE
 40
1.0
  9
$DISPSILH
 70
     0
  9
$DIMSCALE
 40
1.0
  9
$DIMASZ
 40
3.0
  9
$DIMEXO
 40
0.0
  9
$DIMDLI
 40
3.75
  9
$DIMRND
 40
0.0
  9
$DIMDLE
 40
0.0
  9
$DIMEXE
 40
1.0
  9
$DIMTP
 40
0.0
  9
$DIMTM
 40
0.0
  9
$DIMTXT
 40
2.0
  9
$DIMCEN
 40
2.5
  9
$DIMTSZ
 40
0.0
  9
$DIMTOL
 70
     0
  9
$DIMLIM
 70
     0
  9
$DIMTIH
 70
     1
  9
$DIMTOH
 70
     1
  9
$DIMSE1
 70
     0
  9
$DIMSE2
 70
     0
  9
$DIMTAD
 70
     1
  9
$DIMZIN
 70
     0
  9
$DIMBLK
  1

  9
$DIMASO
 70
     1
  9
$DIMSHO
 70
     1
  9
$DIMPOST
  1

  9
$DIMAPOST
  1

  9
$DIMALT
 70
     0
  9
$DIMALTD
 70
     3
  9
$DIMALTF
 40
0.0393700787
  9
$DIMLFAC
 40
1.0
  9
$DIMTOFL
 70
     1
  9
$DIMTVP
 40
0.0
  9
$DIMTIX
 70
     0
  9
$DIMSOXD
 70
     0
  9
$DIMSAH
 70
     0
  9
$DIMBLK1
  1

  9
$DIMBLK2
  1

  9
$DIMSTYLE
  2
ISO-25
  9
$DIMCLRD
 70
     0
  9
$DIMCLRE
 70
     0
  9
$DIMCLRT
 70
     0
  9
$DIMTFAC
 40
1.0
  9
$DIMGAP
 40
1.524
  9
$DIMJUST
 70
     0
  9
$DIMSD1
 70
     0
  9
$DIMSD2
 70
     0
  9
$DIMTOLJ
 70
     0
  9
$DIMTZIN
 70
     0
  9
$DIMALTZ
 70
     0
  9
$DIMALTTZ
 70
     0
  9
$DIMUPT
 70
     0
  9
$DIMDEC
 70
     2
  9
$DIMTDEC
 70
     3
  9
$DIMALTU
 70
     2
  9
$DIMALTTD
 70
     3
  9
$DIMTXSTY
  7
Standard
  9
$DIMAUNIT
 70
     0
  9
$DIMADEC
 70
     2
  9
$DIMALTRND
 40
0.0
  9
$DIMAZIN
 70
     0
  9
$DIMDSEP
 70
    44
  9
$DIMATFIT
 70
     3
  9
$DIMFRAC
 70
     0
  9
$DIMLDRBLK
  1

  9
$DIMLUNIT
 70
     2
  9
$DIMLWD
 70
    -2
  9
$DIMLWE
 70
    -2
  9
$DIMTMOVE
 70
     0
  9
$LUNITS
 70
     2
  9
$LUPREC
 70
     2
  9
$SKETCHINC
 40
1.0
  9
$FILLETRAD
 40
10.0
  9
$AUNITS
 70
     0
  9
$AUPREC
 70
     2
  9
$MENU
  1
.
  9
$ELEVATION
 40
0.0
  9
$PELEVATION
 40
0.0
  9
$THICKNESS
 40
0.0
  9
$LIMCHECK
 70
     0
  9
$CHAMFERA
 40
10.0
  9
$CHAMFERB
 40
10.0
  9
$CHAMFERC
 40
20.0
  9
$CHAMFERD
 40
0.0
  9
$SKPOLY
 70
     0
  9
$TDCREATE
 40
2456056.590424618
  9
$TDUCREATE
 40
2456056.507091285
  9
$TDUPDATE
 40
2456056.590426424
  9
$TDUUPDATE
 40
2456056.50709309
  9
$TDINDWG
 40
0.0000000116
  9
$TDUSRTIMER
 40
0.0000000116
  9
$USRTIMER
 70
     1
  9
$ANGBASE
 50
0.0
  9
$ANGDIR
 70
     0
  9
$PDMODE
 70
     0
  9
$PDSIZE
 40
-1.0
  9
$PLINEWID
 40
0.0
  9
$SPLFRAME
 70
     0
  9
$SPLINETYPE
 70
     6
  9
$SPLINESEGS
 70
     8
  9
$HANDSEED
  5
285
  9
$SURFTAB1
 70
     6
  9
$SURFTAB2
 70
     6
  9
$SURFTYPE
 70
     6
  9
$SURFU
 70
     6
  9
$SURFV
 70
     6
  9
$UCSBASE
  2

  9
$UCSNAME
  2

  9
$UCSORG
 10
0.0
 20
0.0
 30
0.0
  9
$UCSXDIR
 10
1.0
 20
0.0
 30
0.0
  9
$UCSYDIR
 10
0.0
 20
1.0
 30
0.0
  9
$UCSORTHOREF
  2

  9
$UCSORTHOVIEW
 70
     0
  9
$UCSORGTOP
 10
0.0
 20
0.0
 30
0.0
  9
$UCSORGBOTTOM
 10
0.0
 20
0.0
 30
0.0
  9
$UCSORGLEFT
 10
0.0
 20
0.0
 30
0.0
  9
$UCSORGRIGHT
 10
0.0
 20
0.0
 30
0.0
  9
$UCSORGFRONT
 10
0.0
 20
0.0
 30
0.0
  9
$UCSORGBACK
 10
0.0
 20
0.0
 30
0.0
  9
$PUCSBASE
  2

  9
$PUCSNAME
  2

  9
$PUCSORG
 10
0.0
 20
0.0
 30
0.0
  9
$PUCSXDIR
 10
1.0
 20
0.0
 30
0.0
  9
$PUCSYDIR
 10
0.0
 20
1.0
 30
0.0
  9
$PUCSORTHOREF
  2

  9
$PUCSORTHOVIEW
 70
     0
  9
$PUCSORGTOP
 10
0.0
 20
0.0
 30
0.0
  9
$PUCSORGBOTTOM
 10
0.0
 20
0.0
 30
0.0
  9
$PUCSORGLEFT
 10
0.0
 20
0.0
 30
0.0
  9
$PUCSORGRIGHT
 10
0.0
 20
0.0
 30
0.0
  9
$PUCSORGFRONT
 10
0.0
 20
0.0
 30
0.0
  9
$PUCSORGBACK
 10
0.0
 20
0.0
 30
0.0
  9
$USERI1
 70
     0
  9
$USERI2
 70
     0
  9
$USERI3
 70
     0
  9
$USERI4
 70
     0
  9
$USERI5
 70
     0
  9
$USERR1
 40
0.0
  9
$USERR2
 40
0.0
  9
$USERR3
 40
0.0
  9
$USERR4
 40
0.0
  9
$USERR5
 40
0.0
  9
$WORLDVIEW
 70
     1
  9
$SHADEDGE
 70
     3
  9
$SHADEDIF
 70
    70
  9
$TILEMODE
 70
     1
  9
$MAXACTVP
 70
    64
  9
$PINSBASE
 10
0.0
 20
0.0
 30
0.0
  9
$PLIMCHECK
 70
     0
  9
$PEXTMIN
 10
1.0000000000E+20
 20
1.0000000000E+20
 30
1.0000000000E+20
  9
$PEXTMAX
 10
-1.0000000000E+20
 20
-1.0000000000E+20
 30
-1.0000000000E+20
  9
$PLIMMIN
 10
0.0
 20
0.0
  9
$PLIMMAX
 10
420.0
 20
297.0
  9
$UNITMODE
 70
     0
  9
$VISRETAIN
 70
     1
  9
$PLINEGEN
 70
     0
  9
$PSLTSCALE
 70
     1
  9
$TREEDEPTH
 70
  3020
  9
$CMLSTYLE
  2
Standard
  9
$CMLJUST
 70
     0
  9
$CMLSCALE
 40
20.0
  9
$PROXYGRAPHICS
 70
     1
  9
$MEASUREMENT
 70
     1
  9
$CELWEIGHT
370
    -1
  9
$ENDCAPS
280
     0
  9
$JOINSTYLE
280
     0
  9
$LWDISPLAY
290
     1
  9
$INSUNITS
 70
     4
  9
$HYPERLINKBASE
  1

  9
$STYLESHEET
  1

  9
$XEDIT
290
     1
  9
$CEPSNTYPE
380
     0
  9
$PSTYLEMODE
290
     1
  9
$FINGERPRINTGUID
  2
{82A2965A-8CC4-4600-85CB-37B1EB859BF1}
  9
$VERSIONGUID
  2
{FAEB1C32-E019-11D5-929B-00C0DF256EC4}
  9
$EXTNAMES
290
     1
  9
$PSVPSCALE
 40
0.0
  9
$OLESTARTUP
290
     0
  0
ENDSEC
  0
SECTION
  2
CLASSES
  0
CLASS
  1
ACDBDICTIONARYWDFLT
  2
AcDbDictionaryWithDefault
  3
ObjectDBX Classes
 90
        0
280
     0
281
     0
  0
CLASS
  1
VISUALSTYLE
  2
AcDbVisualStyle
  3
ObjectDBX Classes
 90
     4095
280
     0
281
     0
  0
CLASS
  1
MATERIAL
  2
AcDbMaterial
  3
ObjectDBX Classes
 90
     1153
280
     0
281
     0
  0
CLASS
  1
ACDBPLACEHOLDER
  2
AcDbPlaceHolder
  3
ObjectDBX Classes
 90
        0
280
     0
281
     0
  0
CLASS
  1
LAYOUT
  2
AcDbLayout
  3
ObjectDBX Classes
 90
        0
280
     0
281
     0
  0
ENDSEC
  0
SECTION
  2
TABLES
  0
TABLE
  2
VPORT
  5
8
330
0
100
AcDbSymbolTable
 70
     1
  0
VPORT
  5
29
330
8
100
AcDbSymbolTableRecord
100
AcDbViewportTableRecord
  2
*Active
 70
     0
 10
0.0
 20
0.0
 11
1.0
 21
1.0
 12
148.5
 22
105.0
 13
0.0
 23
0.0
 14
10.0
 24
10.0
 15
10.0
 25
10.0
 16
0.0
 26
0.0
 36
1.0
 17
0.0
 27
0.0
 37
0.0
 40
210.0
 41
1.4142857143
 42
50.0
 43
0.0
 44
0.0
 50
0.0
 51
0.0
 71
     0
 72
  2000
 73
     1
 74
     3
 75
     0
 76
     0
 77
     0
 78
     0
281
     0
 65
     1
110
0.0
120
0.0
130
0.0
111
1.0
121
0.0
131
0.0
112
0.0
122
1.0
132
0.0
 79
     0
146
0.0
  0
ENDTAB
  0
TABLE
  2
LTYPE
  5
5
330
0
100
AcDbSymbolTable
 70
     6
  0
LTYPE
  5
14
330
5
100
AcDbSymbolTableRecord
100
AcDbLinetypeTableRecord
  2
ByBlock
 70
     0
  3

 72
    65
 73
     0
 40
0.0
  0
LTYPE
  5
15
330
5
100
AcDbSymbolTableRecord
100
AcDbLinetypeTableRecord
  2
ByLayer
 70
     0
  3

 72
    65
 73
     0
 40
0.0
  0
LTYPE
  5
16
330
5
100
AcDbSymbolTableRecord
100
AcDbLinetypeTableRecord
  2
Continuous
 70
     0
  3
Solid line
 72
    65
 73
     0
 40
0.0
  0
LTYPE
  5
3F
330
5
100
AcDbSymbolTableRecord
100
AcDbLinetypeTableRecord
  2
HIDDEN
 70
     0
  3
Hidden __ __ __ __ __ __ __ __ __ __ __ __ __ __
 72
    65
 73
     2
 40
1.905
 49
1.27
 74
     0
 49
-0.635
 74
     0
  0
LTYPE
  5
40
330
5
100
AcDbSymbolTableRecord
100
AcDbLinetypeTableRecord
  2
PHANTOM
 70
     0
  3
Phantom ______  __  __  ______  __  __  ______
 72
    65
 73
     6
 40
12.7
 49
6.35
 74
     0
 49
-1.27
 74
     0
 49
1.27
 74
     0
 49
-1.27
 74
     0
 49
1.27
 74
     0
 49
-1.27
 74
     0
  0
LTYPE
  5
41
330
5
100
AcDbSymbolTableRecord
100
AcDbLinetypeTableRecord
  2
CENTER
 70
     0
  3
Center ____ _ ____ _ ____ _ ____ _ ____ _ ____
 72
    65
 73
     4
 40
10.16
 49
6.35
 74
     0
 49
-1.27
 74
     0
 49
1.27
 74
     0
 49
-1.27
 74
     0
  0
LTYPE
  5
42
330
5
100
AcDbSymbolTableRecord
100
AcDbLinetypeTableRecord
  2
CENTERX2
 70
     0
  3
Center (2x) ________  __  ________  __  _____
 72
    65
 73
     4
 40
20.32
 49
12.7
 74
     0
 49
-2.54
 74
     0
 49
2.54
 74
     0
 49
-2.54
 74
     0
  0
LTYPE
  5
43
330
5
100
AcDbSymbolTableRecord
100
AcDbLinetypeTableRecord
  2
DOT2
 70
     0
  3
Dot (.5x) ........................................
 72
    65
 73
     2
 40
0.635
 49
0.0
 74
     0
 49
-0.635
 74
     0
  0
ENDTAB
  0
TABLE
  2
LAYER
  5
2
330
0
100
AcDbSymbolTable
 70
     5
  0
LAYER
  5
10
330
2
100
AcDbSymbolTableRecord
100
AcDbLayerTableRecord
  2
0
 70
     0
 62
     7
  6
Continuous
370
    -3
390
F
  0
LAYER
  5
44
330
2
100
AcDbSymbolTableRecord
100
AcDbLayerTableRecord
  2
FORMAT
 70
     0
 62
     7
  6
Continuous
370
    -3
390
F
  0
LAYER
  5
45
330
2
100
AcDbSymbolTableRecord
100
AcDbLayerTableRecord
  2
VERMASSUNG
 70
     0
 62
     7
  6
Continuous
370
    -3
390
F
  0
LAYER
  5
46
330
2
100
AcDbSymbolTableRecord
100
AcDbLayerTableRecord
  2
KOPF_DÜNN
 70
     0
 62
     7
  6
Continuous
370
    -3
390
F
  0
LAYER
  5
47
330
2
100
AcDbSymbolTableRecord
100
AcDbLayerTableRecord
  2
KOPF_DICK
 70
     0
 62
     7
  6
Continuous
370
    15
390
F
  0
ENDTAB
  0
TABLE
  2
STYLE
  5
3
330
0
100
AcDbSymbolTable
 70
     2
  0
STYLE
  5
11
330
3
100
AcDbSymbolTableRecord
100
AcDbTextStyleTableRecord
  2
Standard
 70
     0
 40
0.0
 41
1.0
 50
0.0
 71
     0
 42
2.0
  3
txt
  4

  0
STYLE
  5
48
330
3
100
AcDbSymbolTableRecord
100
AcDbTextStyleTableRecord
  2
SLDTEXTSTYLE0
 70
     0
 40
0.0
 41
0.7
 50
0.0
 71
     0
 42
0.2
  3
TXT
  4

  0
ENDTAB
  0
TABLE
  2
VIEW
  5
6
330
0
100
AcDbSymbolTable
 70
     0
  0
ENDTAB
  0
TABLE
  2
UCS
  5
7
330
0
100
AcDbSymbolTable
 70
     0
  0
ENDTAB
  0
TABLE
  2
APPID
  5
9
330
0
100
AcDbSymbolTable
 70
     1
  0
APPID
  5
12
330
9
100
AcDbSymbolTableRecord
100
AcDbRegAppTableRecord
  2
ACAD
 70
     0
  0
ENDTAB
  0
TABLE
  2
DIMSTYLE
  5
A
330
0
100
AcDbSymbolTable
 70
     5
100
AcDbDimStyleTable
  0
DIMSTYLE
105
27
330
A
100
AcDbSymbolTableRecord
100
AcDbDimStyleTableRecord
  2
ISO-25
 70
     0
 41
2.5
 42
0.625
 43
3.75
 44
1.25
 73
     0
 74
     0
 77
     1
 78
     8
140
2.5
141
2.5
143
0.0393700787
147
0.625
171
     3
172
     1
178
     0
271
     2
272
     2
274
     3
278
    44
283
     0
284
     8
340
11
  0
DIMSTYLE
105
15B
102
{ACAD_REACTORS
330
15A
330
165
330
179
330
1AE
330
1B8
330
1C2
330
1CC
330
1D5
330
1DF
330
279
102
}
330
A
100
AcDbSymbolTableRecord
100
AcDbDimStyleTableRecord
  2
SLDDIMSTYLE0
 70
     0
 41
3.0
 44
0.0
 45
0.000000001
 73
     0
 74
     0
 77
     1
 78
    12
 79
     3
140
2.0
147
0.5
173
     1
178
     0
271
     2
272
     3
276
     2
284
    12
340
48
  0
DIMSTYLE
105
170
102
{ACAD_REACTORS
330
16F
102
}
330
A
100
AcDbSymbolTableRecord
100
AcDbDimStyleTableRecord
  2
SLDDIMSTYLE1
 70
     0
 41
3.0
 44
0.0
 73
     0
 74
     0
 77
     1
 78
    12
 79
     3
140
2.0
147
0.5
173
     1
178
     0
179
     2
272
     3
276
     2
284
    12
340
48
  0
DIMSTYLE
105
1EA
102
{ACAD_REACTORS
330
1E9
102
}
330
A
100
AcDbSymbolTableRecord
100
AcDbDimStyleTableRecord
  2
SLDDIMSTYLE2
 70
     0
 41
3.0
 44
0.0
 45
0.000000001
 73
     0
 74
     0
 77
     1
 78
    12
 79
     3
140
2.0
141
0.0
147
0.5
173
     1
178
     0
271
     2
272
     3
276
     2
284
    12
340
48
  0
DIMSTYLE
105
1F3
102
{ACAD_REACTORS
330
1F2
102
}
330
A
100
AcDbSymbolTableRecord
100
AcDbDimStyleTableRecord
  2
SLDDIMSTYLE3
 70
     0
 41
3.0
 44
0.0
 45
0.000000001
 73
     0
 74
     0
 77
     1
 78
    12
 79
     3
140
2.0
147
0.5
172
     1
173
     1
178
     0
271
     2
272
     3
276
     2
284
    12
289
     0
340
48
  0
ENDTAB
  0
TABLE
  2
BLOCK_RECORD
  5
1
330
0
100
AcDbSymbolTable
 70
    15
  0
BLOCK_RECORD
  5
1F
330
1
100
AcDbSymbolTableRecord
100
AcDbBlockTableRecord
  2
*Model_Space
340
22
  0
BLOCK_RECORD
  5
1B
330
1
100
AcDbSymbolTableRecord
100
AcDbBlockTableRecord
  2
*Paper_Space
340
1E
  0
BLOCK_RECORD
  5
23
330
1
100
AcDbSymbolTableRecord
100
AcDbBlockTableRecord
  2
*Paper_Space0
340
26
  0
BLOCK_RECORD
  5
15C
330
1
100
AcDbSymbolTableRecord
100
AcDbBlockTableRecord
  2
_D
340
0
  0
BLOCK_RECORD
  5
166
330
1
100
AcDbSymbolTableRecord
100
AcDbBlockTableRecord
  2
_D_1
340
0
  0
BLOCK_RECORD
  5
171
330
1
100
AcDbSymbolTableRecord
100
AcDbBlockTableRecord
  2
_D_2
340
0
  0
BLOCK_RECORD
  5
17A
330
1
100
AcDbSymbolTableRecord
100
AcDbBlockTableRecord
  2
_D_3
340
0
  0
BLOCK_RECORD
  5
1AF
330
1
100
AcDbSymbolTableRecord
100
AcDbBlockTableRecord
  2
_D_4
340
0
  0
BLOCK_RECORD
  5
1B9
330
1
100
AcDbSymbolTableRecord
100
AcDbBlockTableRecord
  2
_D_5
340
0
  0
BLOCK_RECORD
  5
1C3
330
1
100
AcDbSymbolTableRecord
100
AcDbBlockTableRecord
  2
_D_6
340
0
  0
BLOCK_RECORD
  5
1CD
330
1
100
AcDbSymbolTableRecord
100
AcDbBlockTableRecord
  2
_D_7
340
0
  0
BLOCK_RECORD
  5
1D6
330
1
100
AcDbSymbolTableRecord
100
AcDbBlockTableRecord
  2
_D_8
340
0
  0
BLOCK_RECORD
  5
1E0
330
1
100
AcDbSymbolTableRecord
100
AcDbBlockTableRecord
  2
_D_9
340
0
  0
BLOCK_RECORD
  5
1EB
330
1
100
AcDbSymbolTableRecord
100
AcDbBlockTableRecord
  2
_D_10
340
0
  0
BLOCK_RECORD
  5
1F4
330
1
100
AcDbSymbolTableRecord
100
AcDbBlockTableRecord
  2
_D_11
340
0
  0
BLOCK_RECORD
  5
1FE
330
1
100
AcDbSymbolTableRecord
100
AcDbBlockTableRecord
  2
SW_CENTERMARKSYMBOL_0
340
0
102
{BLKREFS
331
209
102
}
  0
BLOCK_RECORD
  5
27A
330
1
100
AcDbSymbolTableRecord
100
AcDbBlockTableRecord
  2
_D_12
340
0
  0
ENDTAB
  0
ENDSEC
  0
SECTION
  2
BLOCKS
  0
BLOCK
  5
20
330
1F
100
AcDbEntity
  8
0
100
AcDbBlockBegin
  2
*Model_Space
 70
     0
 10
0.0
 20
0.0
 30
0.0
  3
*Model_Space
  1

  0
ENDBLK
  5
21
330
1F
100
AcDbEntity
  8
0
100
AcDbBlockEnd
  0
BLOCK
  5
1C
330
1B
100
AcDbEntity
 67
     1
  8
0
100
AcDbBlockBegin
  2
*Paper_Space
 70
     0
 10
0.0
 20
0.0
 30
0.0
  3
*Paper_Space
  1

  0
ENDBLK
  5
1D
330
1B
100
AcDbEntity
 67
     1
  8
0
100
AcDbBlockEnd
  0
BLOCK
  5
24
330
23
100
AcDbEntity
  8
0
100
AcDbBlockBegin
  2
*Paper_Space0
 70
     0
 10
0.0
 20
0.0
 30
0.0
  3
*Paper_Space0
  1

  0
ENDBLK
  5
25
330
23
100
AcDbEntity
  8
0
100
AcDbBlockEnd
  0
BLOCK
  5
15D
330
15C
100
AcDbEntity
  8
0
100
AcDbBlockBegin
  2
_D
 70
     0
 10
0.0
 20
0.0
 30
0.0
  3
_D
  1

  0
SOLID
  5
15F
330
15C
100
AcDbEntity
  8
VERMASSUNG
100
AcDbTrace
 10
167.2977982105
 20
187.7821466292
 30
0.0
 11
170.2977982105
 21
187.3321466292
 31
0.0
 12
170.2977982105
 22
188.2321466292
 32
0.0
 13
170.2977982105
 23
188.2321466292
 33
0.0
  0
SOLID
  5
160
330
15C
100
AcDbEntity
  8
VERMASSUNG
100
AcDbTrace
 10
247.2977982105
 20
187.7821466292
 30
0.0
 11
244.2977982105
 21
188.2321466292
 31
0.0
 12
244.2977982105
 22
187.3321466292
 32
0.0
 13
244.2977982105
 23
187.3321466292
 33
0.0
  0
LINE
  5
161
330
15C
100
AcDbEntity
  8
VERMASSUNG
100
AcDbLine
 10
167.2977982105
 20
165.4835404664
 30
0.0
 11
167.2977982105
 21
188.7821466292
 31
0.0
  0
LINE
  5
162
330
15C
100
AcDbEntity
  8
VERMASSUNG
100
AcDbLine
 10
247.2977982105
 20
174.7835404664
 30
0.0
 11
247.2977982105
 21
188.7821466292
 31
0.0
  0
LINE
  5
163
330
15C
100
AcDbEntity
  8
VERMASSUNG
100
AcDbLine
 10
167.2977982105
 20
187.7821466292
 30
0.0
 11
247.2977982105
 21
187.7821466292
 31
0.0
  0
MTEXT
  5
164
330
15C
100
AcDbEntity
  8
VERMASSUNG
100
AcDbMText
 10
204.9977981594
 20
190.3602819924
 30
7.1
 40
2.0
 41
0.0
 71
     1
 72
     1
  1
80
  7
SLDTEXTSTYLE0
 73
     1
 44
1.0
  0
ENDBLK
  5
15E
330
15C
100
AcDbEntity
  8
0
100
AcDbBlockEnd
  0
BLOCK
  5
167
330
166
100
AcDbEntity
  8
0
100
AcDbBlockBegin
  2
_D_1
 70
     0
 10
0.0
 20
0.0
 30
0.0
  3
_D_1
  1

  0
SOLID
  5
169
330
166
100
AcDbEntity
  8
VERMASSUNG
100
AcDbTrace
 10
143.2977982105
 20
193.3422662417
 30
0.0
 11
146.2977982105
 21
192.8922662417
 31
0.0
 12
146.2977982105
 22
193.7922662417
 32
0.0
 13
146.2977982105
 23
193.7922662417
 33
0.0
  0
SOLID
  5
16A
330
166
100
AcDbEntity
  8
VERMASSUNG
100
AcDbTrace
 10
247.2977982105
 20
193.3422662417
 30
0.0
 11
244.2977982105
 21
193.7922662417
 31
0.0
 12
244.2977982105
 22
192.8922662417
 32
0.0
 13
244.2977982105
 23
192.8922662417
 33
0.0
  0
LINE
  5
16B
330
166
100
AcDbEntity
  8
VERMASSUNG
100
AcDbLine
 10
143.2977982105
 20
158.4150454484
 30
0.0
 11
143.2977982105
 21
194.3422662417
 31
0.0
  0
LINE
  5
16C
330
166
100
AcDbEntity
  8
VERMASSUNG
100
AcDbLine
 10
247.2977982105
 20
174.7835404664
 30
0.0
 11
247.2977982105
 21
194.3422662417
 31
0.0
  0
LINE
  5
16D
330
166
100
AcDbEntity
  8
VERMASSUNG
100
AcDbLine
 10
143.2977982105
 20
193.3422662417
 30
0.0
 11
247.2977982105
 21
193.3422662417
 31
0.0
  0
MTEXT
  5
16E
330
166
100
AcDbEntity
  8
VERMASSUNG
100
AcDbMText
 10
192.3977980145
 20
195.9204016049
 30
7.1
 40
2.0
 41
0.0
 71
     1
 72
     1
  1
104
  7
SLDTEXTSTYLE0
 73
     1
 44
1.0
  0
ENDBLK
  5
168
330
166
100
AcDbEntity
  8
0
100
AcDbBlockEnd
  0
BLOCK
  5
172
330
171
100
AcDbEntity
  8
0
100
AcDbBlockBegin
  2
_D_2
 70
     0
 10
0.0
 20
0.0
 30
0.0
  3
_D_2
  1

  0
ARC
  5
174
330
171
100
AcDbEntity
  8
VERMASSUNG
100
AcDbCircle
 10
247.2977982105
 20
145.7835404664
 30
0.0
 40
31.27150390554416
100
AcDbArc
 50
180.0
 51
210.0
  0
ARC
  5
175
330
171
100
AcDbEntity
  8
VERMASSUNG
100
AcDbCircle
 10
247.2977982105
 20
145.7835404664
 30
0.0
 40
31.27150390554416
100
AcDbArc
 50
210.0
 51
227.1152236057
  0
SOLID
  5
176
330
171
100
AcDbEntity
  8
VERMASSUNG
100
AcDbTrace
 10
216.0262943049
 20
145.7835404664
 30
0.0
 11
215.7202160118
 21
142.7654589436
 31
0.0
 12
216.6191871414
 22
142.8084811251
 32
0.0
 13
216.6191871414
 23
142.8084811251
 33
0.0
  0
SOLID
  5
177
330
171
100
AcDbEntity
  8
VERMASSUNG
100
AcDbTrace
 10
220.2158814137
 20
130.1477885136
 30
0.0
 11
219.2418120012
 21
133.0207118992
 31
0.0
 12
218.4417690749
 22
132.6084846365
 32
0.0
 13
218.4417690749
 23
132.6084846365
 33
0.0
  0
MTEXT
  5
178
330
171
100
AcDbEntity
  8
VERMASSUNG
100
AcDbMText
 10
223.9796659185
 20
128.8134460099
 30
7.1
 40
2.0
 41
0.0
 71
     1
 72
     1
  1
30°
  7
SLDTEXTSTYLE0
 11
0.666753430333237
 21
-0.7452783796266071
 31
0.0
 73
     1
 44
1.0
  0
ENDBLK
  5
173
330
171
100
AcDbEntity
  8
0
100
AcDbBlockEnd
  0
BLOCK
  5
17B
330
17A
100
AcDbEntity
  8
0
100
AcDbBlockBegin
  2
_D_3
 70
     0
 10
0.0
 20
0.0
 30
0.0
  3
_D_3
  1

  0
SOLID
  5
17D
330
17A
100
AcDbEntity
  8
VERMASSUNG
100
AcDbTrace
 10
133.2977982105
 20
165.7835404664
 30
0.0
 11
132.8477982105
 21
162.7835404664
 31
0.0
 12
133.7477982105
 22
162.7835404664
 32
0.0
 13
133.7477982105
 23
162.7835404664
 33
0.0
  0
SOLID
  5
17E
330
17A
100
AcDbEntity
  8
VERMASSUNG
100
AcDbTrace
 10
133.2977982105
 20
125.7835404664
 30
0.0
 11
133.7477982105
 21
128.7835404664
 31
0.0
 12
132.8477982105
 22
128.7835404664
 32
0.0
 13
132.8477982105
 23
128.7835404664
 33
0.0
  0
LINE
  5
17F
330
17A
100
AcDbEntity
  8
VERMASSUNG
100
AcDbLine
 10
167.5977982105
 20
165.7835404664
 30
0.0
 11
132.2977982105
 21
165.7835404664
 31
0.0
  0
LINE
  5
180
330
17A
100
AcDbEntity
  8
VERMASSUNG
100
AcDbLine
 10
167.5977982105
 20
125.7835404664
 30
0.0
 11
132.2977982105
 21
125.7835404664
 31
0.0
  0
LINE
  5
181
330
17A
100
AcDbEntity
  8
VERMASSUNG
100
AcDbLine
 10
133.2977982105
 20
165.7835404664
 30
0.0
 11
133.2977982105
 21
125.7835404664
 31
0.0
  0
MTEXT
  5
182
330
17A
100
AcDbEntity
  8
VERMASSUNG
100
AcDbMText
 10
130.5196627214
 20
139.278540527
 30
7.1
 40
2.0
 41
0.0
 71
     1
 72
     1
  1
PSC
  7
SLDTEXTSTYLE0
 11
-7.044195017643634E-15
 21
1.0
 31
0.0
 73
     1
 44
1.0
  0
MTEXT
  5
183
330
17A
100
AcDbEntity
  8
VERMASSUNG
100
AcDbMText
 10
130.7196627309
 20
143.8785406291
 30
7.1
 40
2.0
 41
0.0
 71
     1
 72
     1
  1
%%c
  7
SLDTEXTSTYLE0
 11
-7.044195017643634E-15
 21
1.0
 31
0.0
 73
     1
 44
1.0
  0
MTEXT
  5
184
330
17A
100
AcDbEntity
  8
VERMASSUNG
100
AcDbMText
 10
130.5196627214
 20
147.4885411091
 30
7.1
 40
2.0
 41
0.0
 71
     1
 72
     1
  1
40
  7
SLDTEXTSTYLE0
 11
-7.044195017643634E-15
 21
1.0
 31
0.0
 73
     1
 44
1.0
  0
ENDBLK
  5
17C
330
17A
100
AcDbEntity
  8
0
100
AcDbBlockEnd
  0
BLOCK
  5
1B0
330
1AF
100
AcDbEntity
  8
0
100
AcDbBlockBegin
  2
_D_4
 70
     0
 10
0.0
 20
0.0
 30
0.0
  3
_D_4
  1

  0
SOLID
  5
1B2
330
1AF
100
AcDbEntity
  8
VERMASSUNG
100
AcDbTrace
 10
111.4084434902
 20
175.7835404664
 30
0.0
 11
110.9584434902
 21
172.7835404664
 31
0.0
 12
111.8584434902
 22
172.7835404664
 32
0.0
 13
111.8584434902
 23
172.7835404664
 33
0.0
  0
SOLID
  5
1B3
330
1AF
100
AcDbEntity
  8
VERMASSUNG
100
AcDbTrace
 10
111.4084434902
 20
124.7835404664
 30
0.0
 11
111.8584434902
 21
127.7835404664
 31
0.0
 12
110.9584434902
 22
127.7835404664
 32
0.0
 13
110.9584434902
 23
127.7835404664
 33
0.0
  0
LINE
  5
1B4
330
1AF
100
AcDbEntity
  8
VERMASSUNG
100
AcDbLine
 10
78.7641007903
 20
175.7835404664
 30
0.0
 11
112.4084434902
 21
175.7835404664
 31
0.0
  0
LINE
  5
1B5
330
1AF
100
AcDbEntity
  8
VERMASSUNG
100
AcDbLine
 10
72.3065876797
 20
124.7835404664
 30
0.0
 11
112.4084434902
 21
124.7835404664
 31
0.0
  0
LINE
  5
1B6
330
1AF
100
AcDbEntity
  8
VERMASSUNG
100
AcDbLine
 10
111.4084434902
 20
175.7835404664
 30
0.0
 11
111.4084434902
 21
124.7835404664
 31
0.0
  0
MTEXT
  5
1B7
330
1AF
100
AcDbEntity
  8
VERMASSUNG
100
AcDbMText
 10
108.8303081271
 20
148.1835403084
 30
-27.9
 40
2.0
 41
0.0
 71
     1
 72
     1
  1
51
  7
SLDTEXTSTYLE0
 11
-7.044195017643634E-15
 21
1.0
 31
0.0
 73
     1
 44
1.0
  0
ENDBLK
  5
1B1
330
1AF
100
AcDbEntity
  8
0
100
AcDbBlockEnd
  0
BLOCK
  5
1BA
330
1B9
100
AcDbEntity
  8
0
100
AcDbBlockBegin
  2
_D_5
 70
     0
 10
0.0
 20
0.0
 30
0.0
  3
_D_5
  1

  0
SOLID
  5
1BC
330
1B9
100
AcDbEntity
  8
VERMASSUNG
100
AcDbTrace
 10
94.5885428458
 20
155.7835404664
 30
0.0
 11
95.0385428458
 21
158.7835404664
 31
0.0
 12
94.1385428458
 22
158.7835404664
 32
0.0
 13
94.1385428458
 23
158.7835404664
 33
0.0
  0
SOLID
  5
1BD
330
1B9
100
AcDbEntity
  8
VERMASSUNG
100
AcDbTrace
 10
94.5885428458
 20
175.7835404664
 30
0.0
 11
94.1385428458
 21
172.7835404664
 31
0.0
 12
95.0385428458
 22
172.7835404664
 32
0.0
 13
95.0385428458
 23
172.7835404664
 33
0.0
  0
LINE
  5
1BE
330
1B9
100
AcDbEntity
  8
VERMASSUNG
100
AcDbLine
 10
76.5565876797
 20
155.7835404664
 30
0.0
 11
95.5885428458
 21
155.7835404664
 31
0.0
  0
LINE
  5
1BF
330
1B9
100
AcDbEntity
  8
VERMASSUNG
100
AcDbLine
 10
78.7641007903
 20
175.7835404664
 30
0.0
 11
95.5885428458
 21
175.7835404664
 31
0.0
  0
LINE
  5
1C0
330
1B9
100
AcDbEntity
  8
VERMASSUNG
100
AcDbLine
 10
94.5885428458
 20
155.7835404664
 30
0.0
 11
94.5885428458
 21
175.7835404664
 31
0.0
  0
MTEXT
  5
1C1
330
1B9
100
AcDbEntity
  8
VERMASSUNG
100
AcDbMText
 10
92.0104074827
 20
163.4835404154
 30
-27.9
 40
2.0
 41
0.0
 71
     1
 72
     1
  1
20
  7
SLDTEXTSTYLE0
 11
6.123233995736766E-17
 21
1.0
 31
0.0
 73
     1
 44
1.0
  0
ENDBLK
  5
1BB
330
1B9
100
AcDbEntity
  8
0
100
AcDbBlockEnd
  0
BLOCK
  5
1C4
330
1C3
100
AcDbEntity
  8
0
100
AcDbBlockBegin
  2
_D_6
 70
     0
 10
0.0
 20
0.0
 30
0.0
  3
_D_6
  1

  0
SOLID
  5
1C6
330
1C3
100
AcDbEntity
  8
VERMASSUNG
100
AcDbTrace
 10
103.3065876797
 20
145.7835404664
 30
0.0
 11
103.7565876797
 21
148.7835404664
 31
0.0
 12
102.8565876797
 22
148.7835404664
 32
0.0
 13
102.8565876797
 23
148.7835404664
 33
0.0
  0
SOLID
  5
1C7
330
1C3
100
AcDbEntity
  8
VERMASSUNG
100
AcDbTrace
 10
103.3065876797
 20
175.7835404664
 30
0.0
 11
102.8565876797
 21
172.7835404664
 31
0.0
 12
103.7565876797
 22
172.7835404664
 32
0.0
 13
103.7565876797
 23
172.7835404664
 33
0.0
  0
LINE
  5
1C8
330
1C3
100
AcDbEntity
  8
VERMASSUNG
100
AcDbLine
 10
94.8065876797
 20
145.7835404664
 30
0.0
 11
104.3065876797
 21
145.7835404664
 31
0.0
  0
LINE
  5
1C9
330
1C3
100
AcDbEntity
  8
VERMASSUNG
100
AcDbLine
 10
78.7641007903
 20
175.7835404664
 30
0.0
 11
104.3065876797
 21
175.7835404664
 31
0.0
  0
LINE
  5
1CA
330
1C3
100
AcDbEntity
  8
VERMASSUNG
100
AcDbLine
 10
103.3065876797
 20
145.7835404664
 30
0.0
 11
103.3065876797
 21
175.7835404664
 31
0.0
  0
MTEXT
  5
1CB
330
1C3
100
AcDbEntity
  8
VERMASSUNG
100
AcDbMText
 10
100.7284523166
 20
158.4835404154
 30
-27.9
 40
2.0
 41
0.0
 71
     1
 72
     1
  1
30
  7
SLDTEXTSTYLE0
 11
6.123233995736766E-17
 21
1.0
 31
0.0
 73
     1
 44
1.0
  0
ENDBLK
  5
1C5
330
1C3
100
AcDbEntity
  8
0
100
AcDbBlockEnd
  0
BLOCK
  5
1CE
330
1CD
100
AcDbEntity
  8
0
100
AcDbBlockBegin
  2
_D_7
 70
     0
 10
0.0
 20
0.0
 30
0.0
  3
_D_7
  1

  0
SOLID
  5
1D0
330
1CD
100
AcDbEntity
  8
VERMASSUNG
100
AcDbTrace
 10
52.3065876797
 20
181.1235914774
 30
0.0
 11
55.3065876797
 21
180.6735914774
 31
0.0
 12
55.3065876797
 22
181.5735914774
 32
0.0
 13
55.3065876797
 23
181.5735914774
 33
0.0
  0
SOLID
  5
1D1
330
1CD
100
AcDbEntity
  8
VERMASSUNG
100
AcDbTrace
 10
72.3065876797
 20
181.1235914774
 30
0.0
 11
69.3065876797
 21
181.5735914774
 31
0.0
 12
69.3065876797
 22
180.6735914774
 32
0.0
 13
69.3065876797
 23
180.6735914774
 33
0.0
  0
LINE
  5
1D2
330
1CD
100
AcDbEntity
  8
VERMASSUNG
100
AcDbLine
 10
72.3065876797
 20
175.7835404664
 30
0.0
 11
72.3065876797
 21
182.1235914774
 31
0.0
  0
LINE
  5
1D3
330
1CD
100
AcDbEntity
  8
VERMASSUNG
100
AcDbLine
 10
52.3065876797
 20
181.1235914774
 30
0.0
 11
72.3065876797
 21
181.1235914774
 31
0.0
  0
MTEXT
  5
1D4
330
1CD
100
AcDbEntity
  8
VERMASSUNG
100
AcDbMText
 10
60.0065876287
 20
183.7017268405
 30
-27.9
 40
2.0
 41
0.0
 71
     1
 72
     1
  1
20
  7
SLDTEXTSTYLE0
 73
     1
 44
1.0
  0
ENDBLK
  5
1CF
330
1CD
100
AcDbEntity
  8
0
100
AcDbBlockEnd
  0
BLOCK
  5
1D7
330
1D6
100
AcDbEntity
  8
0
100
AcDbBlockBegin
  2
_D_8
 70
     0
 10
0.0
 20
0.0
 30
0.0
  3
_D_8
  1

  0
SOLID
  5
1D9
330
1D6
100
AcDbEntity
  8
VERMASSUNG
100
AcDbTrace
 10
52.3065876797
 20
188.3630321648
 30
0.0
 11
55.3065876797
 21
187.9130321648
 31
0.0
 12
55.3065876797
 22
188.8130321648
 32
0.0
 13
55.3065876797
 23
188.8130321648
 33
0.0
  0
SOLID
  5
1DA
330
1D6
100
AcDbEntity
  8
VERMASSUNG
100
AcDbTrace
 10
87.3065876797
 20
188.3630321648
 30
0.0
 11
84.3065876797
 21
188.8130321648
 31
0.0
 12
84.3065876797
 22
187.9130321648
 32
0.0
 13
84.3065876797
 23
187.9130321648
 33
0.0
  0
LINE
  5
1DB
330
1D6
100
AcDbEntity
  8
VERMASSUNG
100
AcDbLine
 10
52.3065876797
 20
188.2835404664
 30
0.0
 11
52.3065876797
 21
189.3630321648
 31
0.0
  0
LINE
  5
1DC
330
1D6
100
AcDbEntity
  8
VERMASSUNG
100
AcDbLine
 10
87.3065876797
 20
165.1484571974
 30
0.0
 11
87.3065876797
 21
189.3630321648
 31
0.0
  0
LINE
  5
1DD
330
1D6
100
AcDbEntity
  8
VERMASSUNG
100
AcDbLine
 10
52.3065876797
 20
188.3630321648
 30
0.0
 11
87.3065876797
 21
188.3630321648
 31
0.0
  0
MTEXT
  5
1DE
330
1D6
100
AcDbEntity
  8
VERMASSUNG
100
AcDbMText
 10
67.5065876287
 20
190.941167528
 30
-27.9
 40
2.0
 41
0.0
 71
     1
 72
     1
  1
35
  7
SLDTEXTSTYLE0
 73
     1
 44
1.0
  0
ENDBLK
  5
1D8
330
1D6
100
AcDbEntity
  8
0
100
AcDbBlockEnd
  0
BLOCK
  5
1E1
330
1E0
100
AcDbEntity
  8
0
100
AcDbBlockBegin
  2
_D_9
 70
     0
 10
0.0
 20
0.0
 30
0.0
  3
_D_9
  1

  0
SOLID
  5
1E3
330
1E0
100
AcDbEntity
  8
VERMASSUNG
100
AcDbTrace
 10
31.3065876797
 20
194.3940565914
 30
0.0
 11
34.3065876797
 21
193.9440565914
 31
0.0
 12
34.3065876797
 22
194.8440565914
 32
0.0
 13
34.3065876797
 23
194.8440565914
 33
0.0
  0
SOLID
  5
1E4
330
1E0
100
AcDbEntity
  8
VERMASSUNG
100
AcDbTrace
 10
87.3065876797
 20
194.3940565914
 30
0.0
 11
84.3065876797
 21
194.8440565914
 31
0.0
 12
84.3065876797
 22
193.9440565914
 32
0.0
 13
84.3065876797
 23
193.9440565914
 33
0.0
  0
LINE
  5
1E5
330
1E0
100
AcDbEntity
  8
VERMASSUNG
100
AcDbLine
 10
31.3065876797
 20
174.7835404664
 30
0.0
 11
31.3065876797
 21
195.3940565914
 31
0.0
  0
LINE
  5
1E6
330
1E0
100
AcDbEntity
  8
VERMASSUNG
100
AcDbLine
 10
87.3065876797
 20
165.1484571974
 30
0.0
 11
87.3065876797
 21
195.3940565914
 31
0.0
  0
LINE
  5
1E7
330
1E0
100
AcDbEntity
  8
VERMASSUNG
100
AcDbLine
 10
31.3065876797
 20
194.3940565914
 30
0.0
 11
87.3065876797
 21
194.3940565914
 31
0.0
  0
MTEXT
  5
1E8
330
1E0
100
AcDbEntity
  8
VERMASSUNG
100
AcDbMText
 10
57.0065876287
 20
196.9721919545
 30
-27.9
 40
2.0
 41
0.0
 71
     1
 72
     1
  1
56
  7
SLDTEXTSTYLE0
 73
     1
 44
1.0
  0
ENDBLK
  5
1E2
330
1E0
100
AcDbEntity
  8
0
100
AcDbBlockEnd
  0
BLOCK
  5
1EC
330
1EB
100
AcDbEntity
  8
0
100
AcDbBlockBegin
  2
_D_10
 70
     0
 10
0.0
 20
0.0
 30
0.0
  3
_D_10
  1

  0
SOLID
  5
1EE
330
1EB
100
AcDbEntity
  8
VERMASSUNG
100
AcDbTrace
 10
82.6791319699
 20
171.8125349406
 30
0.0
 11
85.2498989795
 21
173.4230184029
 31
0.0
 12
84.6642466038
 22
174.1064006495
 32
0.0
 13
84.6642466038
 23
174.1064006495
 33
0.0
  0
LINE
  5
1EF
330
1EB
100
AcDbEntity
  8
VERMASSUNG
100
AcDbLine
 10
82.6791319699
 20
171.8125349406
 30
0.0
 11
95.948547575
 21
183.1843035407
 31
0.0
  0
LINE
  5
1F0
330
1EB
100
AcDbEntity
  8
VERMASSUNG
100
AcDbLine
 10
82.6791319699
 20
171.8125349406
 30
0.0
 11
52.3065876797
 21
145.7835404664
 31
0.0
  0
MTEXT
  5
1F1
330
1EB
100
AcDbEntity
  8
VERMASSUNG
100
AcDbMText
 10
89.4120394248
 20
180.9763953973
 30
-27.9
 40
2.0
 41
0.0
 71
     1
 72
     1
  1
R40
  7
SLDTEXTSTYLE0
 11
0.7593136072548958
 21
0.6507248618560365
 31
0.0
 73
     1
 44
1.0
  0
ENDBLK
  5
1ED
330
1EB
100
AcDbEntity
  8
0
100
AcDbBlockEnd
  0
BLOCK
  5
1F5
330
1F4
100
AcDbEntity
  8
0
100
AcDbBlockBegin
  2
_D_11
 70
     0
 10
0.0
 20
0.0
 30
0.0
  3
_D_11
  1

  0
SOLID
  5
1F7
330
1F4
100
AcDbEntity
  8
VERMASSUNG
100
AcDbTrace
 10
51.3065876797
 20
181.1235914774
 30
0.0
 11
48.3065876797
 21
181.5735914774
 31
0.0
 12
48.3065876797
 22
180.6735914774
 32
0.0
 13
48.3065876797
 23
180.6735914774
 33
0.0
  0
SOLID
  5
1F8
330
1F4
100
AcDbEntity
  8
VERMASSUNG
100
AcDbTrace
 10
52.3065876797
 20
181.1235914774
 30
0.0
 11
55.3065876797
 21
180.6735914774
 31
0.0
 12
55.3065876797
 22
181.5735914774
 32
0.0
 13
55.3065876797
 23
181.5735914774
 33
0.0
  0
LINE
  5
1F9
330
1F4
100
AcDbEntity
  8
VERMASSUNG
100
AcDbLine
 10
51.3065876797
 20
175.7835404664
 30
0.0
 11
51.3065876797
 21
182.1235914774
 31
0.0
  0
LINE
  5
1FA
330
1F4
100
AcDbEntity
  8
VERMASSUNG
100
AcDbLine
 10
51.3065876797
 20
181.1235914774
 30
0.0
 11
43.2854763719
 21
181.1235914774
 31
0.0
  0
LINE
  5
1FB
330
1F4
100
AcDbEntity
  8
VERMASSUNG
100
AcDbLine
 10
51.3065876797
 20
181.1235914774
 30
0.0
 11
52.3065876797
 21
181.1235914774
 31
0.0
  0
LINE
  5
1FC
330
1F4
100
AcDbEntity
  8
VERMASSUNG
100
AcDbLine
 10
52.3065876797
 20
181.1235914774
 30
0.0
 11
58.3065876797
 21
181.1235914774
 31
0.0
  0
MTEXT
  5
1FD
330
1F4
100
AcDbEntity
  8
VERMASSUNG
100
AcDbMText
 10
43.2854763719
 20
183.7017268405
 30
-27.9
 40
2.0
 41
0.0
 71
     1
 72
     1
  1
1
  7
SLDTEXTSTYLE0
 73
     1
 44
1.0
  0
ENDBLK
  5
1F6
330
1F4
100
AcDbEntity
  8
0
100
AcDbBlockEnd
  0
BLOCK
  5
1FF
330
1FE
100
AcDbEntity
  8
0
100
AcDbBlockBegin
  2
SW_CENTERMARKSYMBOL_0
 70
     0
 10
0.0
 20
0.0
 30
0.0
  3
SW_CENTERMARKSYMBOL_0
  1

  0
LINE
  5
201
330
1FE
100
AcDbEntity
  8
VERMASSUNG
 62
     0
100
AcDbLine
 10
0.0
 20
0.0
 30
0.0
 11
0.0
 21
2.5
 31
0.0
  0
LINE
  5
202
330
1FE
100
AcDbEntity
  8
VERMASSUNG
 62
     0
100
AcDbLine
 10
0.0
 20
0.0
 30
0.0
 11
-2.5
 21
0.0
 31
0.0
  0
LINE
  5
203
330
1FE
100
AcDbEntity
  8
VERMASSUNG
 62
     0
100
AcDbLine
 10
0.0
 20
0.0
 30
0.0
 11
0.0
 21
-2.5
 31
0.0
  0
LINE
  5
204
330
1FE
100
AcDbEntity
  8
VERMASSUNG
 62
     0
100
AcDbLine
 10
0.0
 20
0.0
 30
0.0
 11
2.5
 21
0.0
 31
0.0
  0
LINE
  5
205
330
1FE
100
AcDbEntity
  8
VERMASSUNG
 62
     0
100
AcDbLine
 10
0.0
 20
5.0
 30
0.0
 11
0.0
 21
42.5
 31
0.0
  0
LINE
  5
206
330
1FE
100
AcDbEntity
  8
VERMASSUNG
 62
     0
100
AcDbLine
 10
-5.0
 20
0.0
 30
0.0
 11
-42.5
 21
0.0
 31
0.0
  0
LINE
  5
207
330
1FE
100
AcDbEntity
  8
VERMASSUNG
 62
     0
100
AcDbLine
 10
0.0
 20
-5.0
 30
0.0
 11
0.0
 21
-42.5
 31
0.0
  0
LINE
  5
208
330
1FE
100
AcDbEntity
  8
VERMASSUNG
 62
     0
100
AcDbLine
 10
5.0
 20
0.0
 30
0.0
 11
42.5
 21
0.0
 31
0.0
  0
ENDBLK
  5
200
330
1FE
100
AcDbEntity
  8
0
100
AcDbBlockEnd
  0
BLOCK
  5
27B
330
27A
100
AcDbEntity
  8
0
100
AcDbBlockBegin
  2
_D_12
 70
     0
 10
0.0
 20
0.0
 30
0.0
  3
_D_12
  1

  0
SOLID
  5
27D
330
27A
100
AcDbEntity
  8
VERMASSUNG
100
AcDbTrace
 10
192.2977982105
 20
43.8096162464
 30
0.0
 11
195.2977982105
 21
43.3596162464
 31
0.0
 12
195.2977982105
 22
44.2596162464
 32
0.0
 13
195.2977982105
 23
44.2596162464
 33
0.0
  0
SOLID
  5
27E
330
27A
100
AcDbEntity
  8
VERMASSUNG
100
AcDbTrace
 10
247.2977982105
 20
43.8096162464
 30
0.0
 11
244.2977982105
 21
44.2596162464
 31
0.0
 12
244.2977982105
 22
43.3596162464
 32
0.0
 13
244.2977982105
 23
43.3596162464
 33
0.0
  0
LINE
  5
27F
330
27A
100
AcDbEntity
  8
VERMASSUNG
100
AcDbLine
 10
192.2977982105
 20
71.6893531994
 30
0.0
 11
192.2977982105
 21
42.8096162464
 31
0.0
  0
LINE
  5
280
330
27A
100
AcDbEntity
  8
VERMASSUNG
100
AcDbLine
 10
247.2977982105
 20
92.6893531994
 30
0.0
 11
247.2977982105
 21
42.8096162464
 31
0.0
  0
LINE
  5
281
330
27A
100
AcDbEntity
  8
VERMASSUNG
100
AcDbLine
 10
192.2977982105
 20
43.8096162464
 30
0.0
 11
247.2977982105
 21
43.8096162464
 31
0.0
  0
MTEXT
  5
282
330
27A
100
AcDbEntity
  8
VERMASSUNG
100
AcDbMText
 10
217.4977981594
 20
46.3877516095
 30
-4.4
 40
2.0
 41
0.0
 71
     1
 72
     1
  1
55
  7
SLDTEXTSTYLE0
 73
     1
 44
1.0
  0
ENDBLK
  5
27C
330
27A
100
AcDbEntity
  8
0
100
AcDbBlockEnd
  0
ENDSEC
  0
SECTION
  2
ENTITIES
  0
MTEXT
  5
49
330
1F
100
AcDbEntity
  8
KOPF_DÜNN
100
AcDbMText
 10
13.8892156294
 20
23.8442973028
 30
0.0
 40
3.0
 41
0.0
 71
     1
 72
     1
  1
PS4.V20.R11.080
  7
SLDTEXTSTYLE0
 73
     1
 44
1.0
  0
MTEXT
  5
4A
330
1F
100
AcDbEntity
  8
VERMASSUNG
100
AcDbMText
 10
13.9329988022
 20
28.8834360957
 30
0.0
 40
3.0
 41
0.0
 71
     1
 72
     1
  1
Werkzeughalter axial rechts_Tool holder axial right
  7
SLDTEXTSTYLE0
 73
     1
 44
1.0
  0
MTEXT
  5
4B
330
1F
100
AcDbEntity
  8
VERMASSUNG
100
AcDbMText
 10
98.8601118557
 20
13.8365368179
 30
0.0
 40
2.0
 41
0.0
 71
     1
 72
     1
  1
Datum: 08.05.2012
  7
SLDTEXTSTYLE0
 73
     1
 44
1.0
  0
MTEXT
  5
4C
330
1F
100
AcDbEntity
  8
VERMASSUNG
100
AcDbMText
 10
13.933048693
 20
18.0482802738
 30
0.0
 40
2.0
 41
0.0
 71
     1
 72
     1
  1
PSC ø40 / 20x20
  7
SLDTEXTSTYLE0
 73
     1
 44
1.0
  0
MTEXT
  5
4D
330
1F
100
AcDbEntity
  8
VERMASSUNG
100
AcDbMText
 10
13.9808475933
 20
13.9090973692
 30
0.0
 40
2.0
 41
0.0
 71
     1
 72
     1
  1
Gewicht: 1067g
  7
SLDTEXTSTYLE0
 73
     1
 44
1.0
  0
LINE
  5
4E
330
1F
100
AcDbEntity
  8
0
  6
Continuous
 62
     7
370
    15
100
AcDbLine
 10
189.0890160198
 20
175.7835404664
 30
0.0
 11
188.2939929086
 21
166.6963847236
 31
0.0
  0
LINE
  5
4F
330
1F
100
AcDbEntity
  8
0
  6
Continuous
 62
     7
370
    15
100
AcDbLine
 10
188.2939929086
 20
124.8706962091
 30
0.0
 11
188.301618048
 21
124.7835404664
 31
0.0
  0
ARC
  5
50
330
1F
100
AcDbEntity
  8
0
  6
Continuous
 62
     7
370
    15
100
AcDbCircle
 10
187.2977982105
 20
124.7835404664
 30
0.0
 40
1.000000000000014
100
AcDbArc
 50
5.0
 51
90.0
  0
ARC
  5
51
330
1F
100
AcDbEntity
  8
0
  6
Continuous
 62
     7
370
    15
100
AcDbCircle
 10
187.2977982105
 20
166.7835404664
 30
0.0
 40
1.000000000000008
100
AcDbArc
 50
270.0
 51
355.0
  0
LINE
  5
52
330
1F
100
AcDbEntity
  8
0
  6
Continuous
 62
     7
370
    15
100
AcDbLine
 10
167.5977982105
 20
125.7835404664
 30
0.0
 11
187.2977982105
 21
125.7835404664
 31
0.0
  0
LINE
  5
53
330
1F
100
AcDbEntity
  8
0
  6
Continuous
 62
     7
370
    15
100
AcDbLine
 10
187.2977982105
 20
165.7835404664
 30
0.0
 11
167.5977982105
 21
165.7835404664
 31
0.0
  0
ARC
  5
54
330
1F
100
AcDbEntity
  8
0
  6
Continuous
 62
     7
370
    15
100
AcDbCircle
 10
167.5977982105
 20
126.0835404664
 30
0.0
 40
0.3000000000000114
100
AcDbArc
 50
180.0
 51
270.0
  0
ARC
  5
55
330
1F
100
AcDbEntity
  8
0
  6
Continuous
 62
     7
370
    15
100
AcDbCircle
 10
167.5977982105
 20
165.4835404664
 30
0.0
 40
0.3000000000000114
100
AcDbArc
 50
90.0
 51
180.0
  0
LWPOLYLINE
  5
56
330
1F
100
AcDbEntity
  8
0
  6
Continuous
 62
     7
370
    15
100
AcDbPolyline
 90
        3
 70
   128
 43
0.0
 10
167.0977982105
 20
131.6937201875
 10
167.223253154
 20
131.6254180726
 10
167.2977982105
 20
131.5726803144
  0
LWPOLYLINE
  5
57
330
1F
100
AcDbEntity
  8
0
  6
Continuous
 62
     7
370
    15
100
AcDbPolyline
 90
        3
 70
   128
 43
0.0
 10
167.2977982105
 20
159.9944006183
 10
167.223253154
 20
159.9416628602
 10
167.0977982105
 20
159.8733607453
  0
ARC
  5
58
330
1F
100
AcDbEntity
  8
0
  6
Continuous
 62
     7
370
    15
100
AcDbCircle
 10
235.2977982105
 20
150.7835404664
 30
0.0
 40
5.000000000000062
100
AcDbArc
 50
44.7464248226
 51
66.4218215218
  0
ARC
  5
59
330
1F
100
AcDbEntity
  8
0
  6
Continuous
 62
     7
370
    15
100
AcDbCircle
 10
235.2977982105
 20
150.7835404664
 30
0.0
 40
5.000000000000038
100
AcDbArc
 50
293.5781784782
 51
324.396505774
  0
LINE
  5
5A
330
1F
100
AcDbEntity
  8
0
  6
Continuous
 62
     7
370
    15
100
AcDbLine
 10
189.6188047376
 20
175.7835404664
 30
0.0
 11
236.2977982105
 21
175.7835404664
 31
0.0
  0
LINE
  5
5B
330
1F
100
AcDbEntity
  8
0
  6
Continuous
 62
     7
370
    15
100
AcDbLine
 10
236.2977982105
 20
175.7835404664
 30
0.0
 11
236.2977982105
 21
174.7835404664
 31
0.0
  0
LINE
  5
5C
330
1F
100
AcDbEntity
  8
0
  6
Continuous
 62
     7
370
    15
100
AcDbLine
 10
236.2977982105
 20
174.7835404664
 30
0.0
 11
189.5968901245
 21
174.7835404664
 31
0.0
  0
SPLINE
  5
5D
330
1F
100
AcDbEntity
  8
0
  6
Continuous
 62
     7
370
    15
100
AcDbSpline
210
0.0
220
0.0
230
1.0
 70
     8
 71
     3
 72
     8
 73
     4
 74
     0
 42
0.00000001
 43
0.00000001
 12
1.0
 22
0.0
 32
0.0
 13
1.0
 23
0.0
 33
0.0
 40
0.0
 40
0.0
 40
0.0
 40
0.0
 40
0.0014143833462928
 40
0.0014143833462928
 40
0.0014143833462928
 40
0.0014143833462928
 10
189.5968901244563
 20
174.7835404663869
 30
0.0
 10
189.6034062156615
 20
175.1168819758924
 30
0.0
 10
189.6107166272353
 20
175.4502161754677
 30
0.0
 10
189.6188047376254
 20
175.7835404663869
 30
0.0
  0
SPLINE
  5
5E
330
1F
100
AcDbEntity
  8
0
  6
Continuous
 62
     7
370
    15
100
AcDbSpline
210
0.0
220
0.0
230
1.0
 70
     8
 71
     3
 72
     9
 73
     5
 74
     0
 42
0.00000001
 43
0.00000001
 12
1.0
 22
0.0
 32
0.0
 13
1.0
 23
0.0
 33
0.0
 40
0.0
 40
0.0
 40
0.0
 40
0.0
 40
0.5000000000000001
 40
1.0
 40
1.0
 40
1.0
 40
1.0
 10
188.4632375462262
 20
124.7835404663869
 30
0.0
 10
188.3713349516402
 20
126.783540466387
 30
0.0
 10
188.2692069116877
 20
130.783540466387
 30
0.0
 10
188.3713349516402
 20
134.7835404663869
 30
0.0
 10
188.4632375462262
 20
136.7835404663869
 30
0.0
  0
SPLINE
  5
5F
330
1F
100
AcDbEntity
  8
0
  6
Continuous
 62
     7
370
    15
100
AcDbSpline
210
0.0
220
0.0
230
1.0
 70
    24
 71
     3
 72
     9
 73
     5
 74
     0
 42
0.00000001
 43
0.00000001
 12
1.0
 22
0.0
 32
0.0
 13
1.0
 23
0.0
 33
0.0
 40
0.0
 40
0.0
 40
0.0
 40
0.0
 40
0.2936104560312075
 40
1.0
 40
1.0
 40
1.0
 40
1.0
 10
188.3219267736439
 20
124.783540466387
 30
0.0
 10
188.3167115547857
 20
124.783540466387
 30
0.0
 10
188.2989491803499
 20
124.7835404663869
 30
0.0
 10
188.3952275280795
 20
124.783540466387
 30
0.0
 10
188.4632375462262
 20
124.7835404663869
 30
0.0
  0
SPLINE
  5
60
330
1F
100
AcDbEntity
  8
0
  6
Continuous
 62
     7
370
    15
100
AcDbSpline
210
0.0
220
0.0
230
1.0
 70
    24
 71
     3
 72
    10
 73
     6
 74
     0
 42
0.00000001
 43
0.00000001
 12
1.0
 22
0.0
 32
0.0
 13
1.0
 23
0.0
 33
0.0
 40
0.0
 40
0.0
 40
0.0
 40
0.0
 40
0.3420078843490519
 40
0.8190364513272418
 40
1.0
 40
1.0
 40
1.0
 40
1.0
 10
189.6188047376254
 20
175.7835404663869
 30
0.0
 10
189.5178412422384
 20
175.7835404663869
 30
0.0
 10
189.2760550532073
 20
175.7835404663869
 30
0.0
 10
189.0833058293048
 20
175.7835404663869
 30
0.0
 10
189.1121605399017
 20
175.7835404663869
 30
0.0
 10
189.1200962745425
 20
175.7835404663869
 30
0.0
  0
SPLINE
  5
61
330
1F
100
AcDbEntity
  8
0
  6
Continuous
 62
     7
370
    15
100
AcDbSpline
210
0.0
220
0.0
230
1.0
 70
     8
 71
     3
 72
    14
 73
    10
 74
     0
 42
0.00000001
 43
0.00000001
 12
1.0
 22
0.0
 32
0.0
 13
1.0
 23
0.0
 33
0.0
 40
0.0
 40
0.0
 40
0.0
 40
0.0
 40
0.25
 40
0.25
 40
0.5
 40
0.5
 40
0.75
 40
0.75
 40
1.0
 40
1.0
 40
1.0
 40
1.0
 10
189.5968901244576
 20
174.7835404663869
 30
0.0
 10
189.3727890062835
 20
171.6209842371132
 30
0.0
 10
189.1605491395986
 20
168.4573100822035
 30
0.0
 10
188.7837172999775
 20
162.1290605538431
 30
0.0
 10
188.6190747886691
 20
158.9642786233988
 30
0.0
 10
188.3806128448045
 20
152.6322041480408
 30
0.0
 10
188.3089245339203
 20
149.4648526927161
 30
0.0
 10
188.2954042329723
 20
143.1265601750808
 30
0.0
 10
188.3539547619731
 20
139.9545146844812
 30
0.0
 10
188.4632375462262
 20
136.7835404663869
 30
0.0
  0
LINE
  5
62
330
1F
100
AcDbEntity
  8
0
  6
Continuous
 62
     7
370
    15
100
AcDbLine
 10
236.2977982105
 20
140.5873880437
 30
0.0
 11
236.2977982105
 21
174.7835404664
 31
0.0
  0
LINE
  5
63
330
1F
100
AcDbEntity
  8
0
  6
Continuous
 62
     7
370
    15
100
AcDbLine
 10
229.7093409424
 20
136.7835404664
 30
0.0
 11
236.2977982105
 21
140.5873880437
 31
0.0
  0
LINE
  5
64
330
1F
100
AcDbEntity
  8
0
  6
Continuous
 62
     7
370
    15
100
AcDbLine
 10
188.4632375462
 20
136.7835404664
 30
0.0
 11
229.7093409424
 21
136.7835404664
 31
0.0
  0
CIRCLE
  5
65
330
1F
100
AcDbEntity
  8
0
  6
Continuous
 62
     7
370
    15
100
AcDbCircle
 10
209.2977982105
 20
165.7835404664
 30
0.0
 40
5.5
  0
CIRCLE
  5
66
330
1F
100
AcDbEntity
  8
0
  6
Continuous
 62
     7
370
    15
100
AcDbCircle
 10
229.2977982105
 20
165.7835404664
 30
0.0
 40
5.5
  0
LINE
  5
67
330
1F
100
AcDbEntity
  8
0
  6
Continuous
 62
     7
370
    15
100
AcDbLine
 10
237.2977982105
 20
174.7835404664
 30
0.0
 11
237.2977982105
 21
140.0100377745
 31
0.0
  0
LINE
  5
68
330
1F
100
AcDbEntity
  8
0
  6
Continuous
 62
     7
370
    15
100
AcDbLine
 10
237.2977982105
 20
140.0100377745
 30
0.0
 11
236.2977982105
 21
140.5873880437
 31
0.0
  0
LINE
  5
69
330
1F
100
AcDbEntity
  8
0
  6
Continuous
 62
     7
370
    15
100
AcDbLine
 10
237.2977982105
 20
174.7835404664
 30
0.0
 11
236.2977982105
 21
174.7835404664
 31
0.0
  0
LINE
  5
6A
330
1F
100
AcDbEntity
  8
0
  6
Continuous
 62
     7
370
    15
100
AcDbLine
 10
237.2977982105
 20
140.0100377745
 30
0.0
 11
229.9772901348
 21
135.7835404664
 31
0.0
  0
LINE
  5
6B
330
1F
100
AcDbEntity
  8
0
  6
Continuous
 62
     7
370
    15
100
AcDbLine
 10
229.9772901348
 20
135.7835404664
 30
0.0
 11
229.7093409424
 21
136.7835404664
 31
0.0
  0
LINE
  5
6C
330
1F
100
AcDbEntity
  8
0
  6
Continuous
 62
     7
370
    15
100
AcDbLine
 10
188.4632375462
 20
124.7835404664
 30
0.0
 11
210.9247312515
 21
124.7835404664
 31
0.0
  0
LINE
  5
6D
330
1F
100
AcDbEntity
  8
0
  6
Continuous
 62
     7
370
    15
100
AcDbLine
 10
229.9772901348
 20
135.7835404664
 30
0.0
 11
210.9247312515
 21
124.7835404664
 31
0.0
  0
LINE
  5
6E
330
1F
100
AcDbEntity
  8
0
  6
Continuous
 62
     7
370
    15
100
AcDbLine
 10
237.2977982105
 20
174.7835404664
 30
0.0
 11
236.2977982105
 21
175.7835404664
 31
0.0
  0
SPLINE
  5
6F
330
1F
100
AcDbEntity
  8
0
  6
Continuous
 62
     7
370
    15
100
AcDbSpline
210
0.0
220
0.0
230
1.0
 70
     8
 71
     3
 72
    12
 73
     8
 74
     0
 42
0.00000001
 43
0.00000001
 12
1.0
 22
0.0
 32
0.0
 13
1.0
 23
0.0
 33
0.0
 40
0.0
 40
0.0
 40
0.0
 40
0.0
 40
0.2500000000000027
 40
0.2500000000000027
 40
0.5000000000000053
 40
0.5000000000000053
 40
1.0
 40
1.0
 40
1.0
 40
1.0
 10
174.2297002124804
 20
151.6127534620385
 30
0.0
 10
174.1921883264357
 20
151.6127534620385
 30
0.0
 10
174.1569009787309
 20
151.6275582763252
 30
0.0
 10
174.0979711304925
 20
151.6711501494511
 30
0.0
 10
174.0744454040235
 20
151.6986635755371
 30
0.0
 10
174.0141866162554
 20
151.7877953076507
 30
0.0
 10
173.9885918539661
 20
151.8541811582685
 30
0.0
 10
173.969892591345
 20
151.9217855934459
 30
0.0
  0
LINE
  5
70
330
1F
100
AcDbEntity
  8
0
  6
Continuous
 62
     7
370
    15
100
AcDbLine
 10
176.3658962085
 20
151.612753462
 30
0.0
 11
174.2297002125
 21
151.612753462
 31
0.0
  0
SPLINE
  5
71
330
1F
100
AcDbEntity
  8
0
  6
Continuous
 62
     7
370
    15
100
AcDbSpline
210
0.0
220
0.0
230
1.0
 70
     8
 71
     3
 72
    12
 73
     8
 74
     0
 42
0.00000001
 43
0.00000001
 12
1.0
 22
0.0
 32
0.0
 13
1.0
 23
0.0
 33
0.0
 40
0.0
 40
0.0
 40
0.0
 40
0.0
 40
0.5000000000000061
 40
0.5000000000000061
 40
0.750000000000003
 40
0.750000000000003
 40
1.0
 40
1.0
 40
1.0
 40
1.0
 10
176.6257038296173
 20
151.9217855934459
 30
0.0
 10
176.6070105964869
 20
151.8542029570055
 30
0.0
 10
176.5813552990751
 20
151.7877203875281
 30
0.0
 10
176.5211946763886
 20
151.6987253046306
 30
0.0
 10
176.4971223646343
 20
151.6707234076314
 30
0.0
 10
176.4387408442837
 20
151.6276470069662
 30
0.0
 10
176.4032720166307
 20
151.6127534620385
 30
0.0
 10
176.365896208482
 20
151.6127534620385
 30
0.0
  0
ELLIPSE
  5
72
330
1F
100
AcDbEntity
  8
0
  6
Continuous
 62
     7
370
    15
100
AcDbEllipse
 10
166.348869038
 20
145.7835404664
 30
0.0
 11
9.367417879781698
 21
19.74174915274995
 31
0.0
210
0.0
220
0.0
230
1.0
 40
0.3419987131
 41
5.185211263708393
 42
6.132113578252552
  0
SPLINE
  5
73
330
1F
100
AcDbEntity
  8
0
  6
Continuous
 62
     7
370
    15
100
AcDbSpline
210
0.0
220
0.0
230
1.0
 70
     8
 71
     3
 72
    12
 73
     8
 74
     0
 42
0.00000001
 43
0.00000001
 12
1.0
 22
0.0
 32
0.0
 13
1.0
 23
0.0
 33
0.0
 40
0.0
 40
0.0
 40
0.0
 40
0.0
 40
0.249999999999999
 40
0.249999999999999
 40
0.499999999999998
 40
0.499999999999998
 40
1.0
 40
1.0
 40
1.0
 40
1.0
 10
176.365896208482
 20
164.9151968466203
 30
0.0
 10
176.4034080945266
 20
164.9151968466203
 30
0.0
 10
176.4386954422313
 20
164.9106933023577
 30
0.0
 10
176.4976252904698
 20
164.8973201029044
 30
0.0
 10
176.5211510169388
 20
164.8888352003333
 30
0.0
 10
176.5814098047069
 20
164.8610873964987
 30
0.0
 10
176.6070045669962
 20
164.8400975327583
 30
0.0
 10
176.6257038296173
 20
164.8182967495688
 30
0.0
  0
LINE
  5
74
330
1F
100
AcDbEntity
  8
0
  6
Continuous
 62
     7
370
    15
100
AcDbLine
 10
174.2297002125
 20
164.9151968466
 30
0.0
 11
176.3658962085
 21
164.9151968466
 31
0.0
  0
SPLINE
  5
75
330
1F
100
AcDbEntity
  8
0
  6
Continuous
 62
     7
370
    15
100
AcDbSpline
210
0.0
220
0.0
230
1.0
 70
     8
 71
     3
 72
    12
 73
     8
 74
     0
 42
0.00000001
 43
0.00000001
 12
1.0
 22
0.0
 32
0.0
 13
1.0
 23
0.0
 33
0.0
 40
0.0
 40
0.0
 40
0.0
 40
0.0
 40
0.4999999999999956
 40
0.4999999999999956
 40
0.7499999999999978
 40
0.7499999999999978
 40
1.0
 40
1.0
 40
1.0
 40
1.0
 10
173.969892591345
 20
164.8182967495688
 30
0.0
 10
173.9885858244754
 20
164.8400905031968
 30
0.0
 10
174.0142411218872
 20
164.8611106649064
 30
0.0
 10
174.0744017445737
 20
164.8888160108701
 30
0.0
 10
174.098474056328
 20
164.8974512270635
 30
0.0
 10
174.1568555766786
 20
164.9106658722901
 30
0.0
 10
174.1923244043316
 20
164.9151968466203
 30
0.0
 10
174.2297002124804
 20
164.9151968466203
 30
0.0
  0
ELLIPSE
  5
76
330
1F
100
AcDbEntity
  8
0
  6
Continuous
 62
     7
370
    15
100
AcDbEllipse
 10
184.2467273829
 20
145.7835404664
 30
0.0
 11
-9.367417879781584
 21
19.74174915274997
 31
0.0
210
0.0
220
0.0
230
1.0
 40
0.3419987131
 41
0.151071728927071
 42
1.097974043471206
  0
SPLINE
  5
77
330
1F
100
AcDbEntity
  8
0
  6
Continuous
 62
     7
370
    15
100
AcDbSpline
210
0.0
220
0.0
230
1.0
 70
     8
 71
     3
 72
    12
 73
     8
 74
     0
 42
0.00000001
 43
0.00000001
 12
1.0
 22
0.0
 32
0.0
 13
1.0
 23
0.0
 33
0.0
 40
0.0
 40
0.0
 40
0.0
 40
0.0
 40
0.2499999999999996
 40
0.2499999999999996
 40
0.4999999999999992
 40
0.4999999999999992
 40
1.0
 40
1.0
 40
1.0
 40
1.0
 10
174.2297002124804
 20
126.6518840861535
 30
0.0
 10
174.1921993896026
 20
126.6518840861535
 30
0.0
 10
174.1569209855666
 20
126.6563850540167
 30
0.0
 10
174.0980032655142
 20
126.669751575234
 30
0.0
 10
174.0744798841158
 20
126.6782328354789
 30
0.0
 10
174.0142242996499
 20
126.7059702311568
 30
0.0
 10
173.9887026472388
 20
126.7268542302098
 30
0.0
 10
173.969892591345
 20
126.748784183205
 30
0.0
  0
LINE
  5
78
330
1F
100
AcDbEntity
  8
0
  6
Continuous
 62
     7
370
    15
100
AcDbLine
 10
176.3658962085
 20
126.6518840862
 30
0.0
 11
174.2297002125
 21
126.6518840862
 31
0.0
  0
SPLINE
  5
79
330
1F
100
AcDbEntity
  8
0
  6
Continuous
 62
     7
370
    15
100
AcDbSpline
210
0.0
220
0.0
230
1.0
 70
     8
 71
     3
 72
    12
 73
     8
 74
     0
 42
0.00000001
 43
0.00000001
 12
1.0
 22
0.0
 32
0.0
 13
1.0
 23
0.0
 33
0.0
 40
0.0
 40
0.0
 40
0.0
 40
0.0
 40
0.5000000000000032
 40
0.5000000000000032
 40
0.7500000000000016
 40
0.7500000000000016
 40
1.0
 40
1.0
 40
1.0
 40
1.0
 10
176.6257038296173
 20
126.748784183205
 30
0.0
 10
176.6069005967656
 20
126.7268621849439
 30
0.0
 10
176.5813639377464
 20
126.705968376934
 30
0.0
 10
176.521137763798
 20
126.6782416508162
 30
0.0
 10
176.497211686398
 20
126.6696685174408
 30
0.0
 10
176.4391507662167
 20
126.6564894116332
 30
0.0
 10
176.4033490675907
 20
126.6518840861535
 30
0.0
 10
176.365896208482
 20
126.6518840861535
 30
0.0
  0
ELLIPSE
  5
7A
330
1F
100
AcDbEntity
  8
0
  6
Continuous
 62
     7
370
    15
100
AcDbEllipse
 10
166.348869038
 20
145.7835404664
 30
0.0
 11
-9.367417879781812
 21
19.74174915274995
 31
0.0
210
0.0
220
0.0
230
1.0
 40
0.3419987131
 41
3.29266438251689
 42
4.239566697060997
  0
SPLINE
  5
7B
330
1F
100
AcDbEntity
  8
0
  6
Continuous
 62
     7
370
    15
100
AcDbSpline
210
0.0
220
0.0
230
1.0
 70
     8
 71
     3
 72
    12
 73
     8
 74
     0
 42
0.00000001
 43
0.00000001
 12
1.0
 22
0.0
 32
0.0
 13
1.0
 23
0.0
 33
0.0
 40
0.0
 40
0.0
 40
0.0
 40
0.0
 40
0.2500000000000012
 40
0.2500000000000012
 40
0.5000000000000023
 40
0.5000000000000023
 40
1.0
 40
1.0
 40
1.0
 40
1.0
 10
176.365896208482
 20
139.9543274707352
 30
0.0
 10
176.4033970313597
 20
139.9543274707352
 30
0.0
 10
176.4386754353957
 20
139.9395311329821
 30
0.0
 10
176.4975931554481
 20
139.895960871823
 30
0.0
 10
176.5211165368464
 20
139.8684590733214
 30
0.0
 10
176.5813721213124
 20
139.7793599100783
 30
0.0
 10
176.6068937737235
 20
139.713300331296
 30
0.0
 10
176.6257038296173
 20
139.6452953393278
 30
0.0
  0
LINE
  5
7C
330
1F
100
AcDbEntity
  8
0
  6
Continuous
 62
     7
370
    15
100
AcDbLine
 10
174.2297002125
 20
139.9543274707
 30
0.0
 11
176.3658962085
 21
139.9543274707
 31
0.0
  0
SPLINE
  5
7D
330
1F
100
AcDbEntity
  8
0
  6
Continuous
 62
     7
370
    15
100
AcDbSpline
210
0.0
220
0.0
230
1.0
 70
     8
 71
     3
 72
    12
 73
     8
 74
     0
 42
0.00000001
 43
0.00000001
 12
1.0
 22
0.0
 32
0.0
 13
1.0
 23
0.0
 33
0.0
 40
0.0
 40
0.0
 40
0.0
 40
0.0
 40
0.5000000000000008
 40
0.5000000000000008
 40
0.7500000000000003
 40
0.7500000000000003
 40
1.0
 40
1.0
 40
1.0
 40
1.0
 10
173.969892591345
 20
139.6452953393278
 30
0.0
 10
173.9886958241967
 20
139.7132756635902
 30
0.0
 10
174.0142324832159
 20
139.779366051387
 30
0.0
 10
174.0744586571644
 20
139.8684306638341
 30
0.0
 10
174.0983847345643
 20
139.8962317508541
 30
0.0
 10
174.1564456547457
 20
139.939190824079
 30
0.0
 10
174.1922473533716
 20
139.9543274707352
 30
0.0
 10
174.2297002124804
 20
139.9543274707352
 30
0.0
  0
ELLIPSE
  5
7E
330
1F
100
AcDbEntity
  8
0
  6
Continuous
 62
     7
370
    15
100
AcDbEllipse
 10
184.2467273829
 20
145.7835404664
 30
0.0
 11
9.367417879781645
 21
19.74174915274997
 31
0.0
210
0.0
220
0.0
230
1.0
 40
0.3419987131
 41
2.043618610118597
 42
2.99052092466273
  0
LINE
  5
7F
330
1F
100
AcDbEntity
  8
0
  6
Continuous
 62
     7
370
    15
100
AcDbLine
 10
167.2977982105
 20
126.0835404664
 30
0.0
 11
167.2977982105
 21
165.483540465
 31
0.0
  0
SPLINE
  5
80
330
1F
100
AcDbEntity
  8
0
  6
Continuous
 62
     7
370
    15
100
AcDbSpline
210
0.0
220
0.0
230
1.0
 70
     8
 71
     3
 72
    18
 73
    14
 74
     0
 42
0.00000001
 43
0.00000001
 12
1.0
 22
0.0
 32
0.0
 13
1.0
 23
0.0
 33
0.0
 40
0.0
 40
0.0
 40
0.0
 40
0.0
 40
0.25
 40
0.25
 40
0.5
 40
0.5
 40
0.625
 40
0.625
 40
0.75
 40
0.75
 40
0.875
 40
0.875
 40
1.0
 40
1.0
 40
1.0
 40
1.0
 10
166.0417138929172
 20
131.9523520837081
 30
0.0
 10
166.0760107123689
 20
131.9514904282262
 30
0.0
 10
166.1138219923461
 20
131.9517420313212
 30
0.0
 10
166.2003943595261
 20
131.954140543933
 30
0.0
 10
166.248733489609
 20
131.9563115286649
 30
0.0
 10
166.3380058469315
 20
131.9604064069602
 30
0.0
 10
166.3705473127074
 20
131.9619110249098
 30
0.0
 10
166.4467235125609
 20
131.9648740828779
 30
0.0
 10
166.4899395725554
 20
131.9663614211337
 30
0.0
 10
166.5956288745213
 20
131.9679868324574
 30
0.0
 10
166.6605999332359
 20
131.9679445913835
 30
0.0
 10
166.7942603215937
 20
131.9639224180625
 30
0.0
 10
166.8535667749299
 20
131.960381191239
 30
0.0
 10
166.9028213216059
 20
131.9568144838029
 30
0.0
  0
SPLINE
  5
81
330
1F
100
AcDbEntity
  8
0
  6
Continuous
 62
     7
370
    15
100
AcDbSpline
210
0.0
220
0.0
230
1.0
 70
     8
 71
     3
 72
    14
 73
    10
 74
     0
 42
0.00000001
 43
0.00000001
 12
1.0
 22
0.0
 32
0.0
 13
1.0
 23
0.0
 33
0.0
 40
0.0
 40
0.0
 40
0.0
 40
0.0
 40
0.1249999999999986
 40
0.1249999999999986
 40
0.2499999999999972
 40
0.2499999999999972
 40
0.4999999999999994
 40
0.4999999999999994
 40
1.0
 40
1.0
 40
1.0
 40
1.0
 10
166.9028213215751
 20
131.9568144838218
 30
0.0
 10
166.9143480992924
 20
131.9559797863878
 30
0.0
 10
166.9277009069449
 20
131.9542393721076
 30
0.0
 10
166.9578434795451
 20
131.9469917821073
 30
0.0
 10
166.9729040051596
 20
131.9416447478794
 30
0.0
 10
167.0082503590878
 20
131.9258974776509
 30
0.0
 10
167.0219824588168
 20
131.9160592034897
 30
0.0
 10
167.0553537045079
 20
131.8898552175392
 30
0.0
 10
167.0662940723619
 20
131.8757673161386
 30
0.0
 10
167.0749471973751
 20
131.8629936926503
 30
0.0
  0
LINE
  5
82
330
1F
100
AcDbEntity
  8
0
  6
Continuous
 62
     7
370
    15
100
AcDbLine
 10
167.0977982105
 20
140.2780956994
 30
0.0
 11
167.0977982105
 21
131.6937201875
 31
0.0
  0
SPLINE
  5
83
330
1F
100
AcDbEntity
  8
0
  6
Continuous
 62
     7
370
    15
100
AcDbSpline
210
0.0
220
0.0
230
1.0
 70
     8
 71
     3
 72
    16
 73
    12
 74
     0
 42
0.00000001
 43
0.00000001
 12
1.0
 22
0.0
 32
0.0
 13
1.0
 23
0.0
 33
0.0
 40
0.0
 40
0.0
 40
0.0
 40
0.0
 40
0.5000000000000007
 40
0.5000000000000007
 40
0.7500000000000004
 40
0.7500000000000004
 40
0.8750000000000003
 40
0.8750000000000003
 40
0.9375000000000002
 40
0.9375000000000002
 40
1.0
 40
1.0
 40
1.0
 40
1.0
 10
167.0977982104812
 20
140.278095699424
 30
0.0
 10
167.0977982104812
 20
140.3956710804435
 30
0.0
 10
167.0939147853222
 20
140.5143668335447
 30
0.0
 10
167.0690994600476
 20
140.6951243115372
 30
0.0
 10
167.0582600123351
 20
140.7567683883102
 30
0.0
 10
167.0250442302863
 20
140.8461053626515
 30
0.0
 10
167.0116624866574
 20
140.8763648940766
 30
0.0
 10
166.9761528367952
 20
140.909881138064
 30
0.0
 10
166.9607358702945
 20
140.9180194838701
 30
0.0
 10
166.9290348481459
 20
140.9180040744388
 30
0.0
 10
166.9148885631951
 20
140.9109618370829
 30
0.0
 10
166.9028213216054
 20
140.9018207734733
 30
0.0
  0
SPLINE
  5
84
330
1F
100
AcDbEntity
  8
0
  6
Continuous
 62
     7
370
    15
100
AcDbSpline
210
0.0
220
0.0
230
1.0
 70
     8
 71
     3
 72
    18
 73
    14
 74
     0
 42
0.00000001
 43
0.00000001
 12
1.0
 22
0.0
 32
0.0
 13
1.0
 23
0.0
 33
0.0
 40
0.0
 40
0.0
 40
0.0
 40
0.0
 40
0.125
 40
0.125
 40
0.25
 40
0.25
 40
0.375
 40
0.375
 40
0.5
 40
0.5
 40
0.75
 40
0.75
 40
1.0
 40
1.0
 40
1.0
 40
1.0
 10
166.9028213216116
 20
140.9018207734661
 30
0.0
 10
166.8541167379236
 20
140.8649265342755
 30
0.0
 10
166.7956082551481
 20
140.8353952298495
 30
0.0
 10
166.6638814398783
 20
140.8261592565707
 30
0.0
 10
166.5991233683808
 20
140.8492224311277
 30
0.0
 10
166.49391276623
 20
140.9167405527751
 30
0.0
 10
166.4506966177099
 20
140.9597516494256
 30
0.0
 10
166.374518301626
 20
141.0499936714217
 30
0.0
 10
166.3416634693348
 20
141.097624552897
 30
0.0
 10
166.2512955633738
 20
141.2446888522466
 30
0.0
 10
166.2018729055342
 20
141.3486021775512
 30
0.0
 10
166.1142217799426
 20
141.5597361411915
 30
0.0
 10
166.0761602325521
 20
141.6674588859503
 30
0.0
 10
166.0417138929182
 20
141.7767920018597
 30
0.0
  0
SPLINE
  5
85
330
1F
100
AcDbEntity
  8
0
  6
Continuous
 62
     7
370
    15
100
AcDbSpline
210
0.0
220
0.0
230
1.0
 70
     8
 71
     3
 72
     8
 73
     4
 74
     0
 42
0.00000001
 43
0.00000001
 12
1.0
 22
0.0
 32
0.0
 13
1.0
 23
0.0
 33
0.0
 40
0.0
 40
0.0
 40
0.0
 40
0.0
 40
1.0
 40
1.0
 40
1.0
 40
1.0
 10
165.9764778669214
 20
142.0119957759885
 30
0.0
 10
165.9959040722204
 20
141.9324035044157
 30
0.0
 10
166.0174008966488
 20
141.853961758283
 30
0.0
 10
166.0417138929182
 20
141.7767920018597
 30
0.0
  0
SPLINE
  5
86
330
1F
100
AcDbEntity
  8
0
  6
Continuous
 62
     7
370
    15
100
AcDbSpline
210
0.0
220
0.0
230
1.0
 70
     8
 71
     3
 72
     8
 73
     4
 74
     0
 42
0.00000001
 43
0.00000001
 12
1.0
 22
0.0
 32
0.0
 13
1.0
 23
0.0
 33
0.0
 40
0.0
 40
0.0
 40
0.0
 40
0.0
 40
1.0
 40
1.0
 40
1.0
 40
1.0
 10
166.0417138929182
 20
149.7902889309142
 30
0.0
 10
166.0174008966488
 20
149.7131191744909
 30
0.0
 10
165.9959040722204
 20
149.6346774283581
 30
0.0
 10
165.9764778669214
 20
149.5550851567854
 30
0.0
  0
SPLINE
  5
87
330
1F
100
AcDbEntity
  8
0
  6
Continuous
 62
     7
370
    15
100
AcDbSpline
210
0.0
220
0.0
230
1.0
 70
     8
 71
     3
 72
    18
 73
    14
 74
     0
 42
0.00000001
 43
0.00000001
 12
1.0
 22
0.0
 32
0.0
 13
1.0
 23
0.0
 33
0.0
 40
0.0
 40
0.0
 40
0.0
 40
0.0
 40
0.2499999999999987
 40
0.2499999999999987
 40
0.4999999999999973
 40
0.4999999999999973
 40
0.624999999999998
 40
0.624999999999998
 40
0.7499999999999987
 40
0.7499999999999987
 40
0.8749999999999993
 40
0.8749999999999993
 40
1.0
 40
1.0
 40
1.0
 40
1.0
 10
166.0417138929182
 20
149.7902889309142
 30
0.0
 10
166.0760122119308
 20
149.8991522275072
 30
0.0
 10
166.1138266092428
 20
150.0061596507435
 30
0.0
 10
166.2004146703164
 20
150.2151944748819
 30
0.0
 10
166.248764775995
 20
150.3173645688714
 30
0.0
 10
166.3380813647948
 20
150.4640453404361
 30
0.0
 10
166.3706417202831
 20
150.5118470389717
 30
0.0
 10
166.446887354012
 20
150.6034025769971
 30
0.0
 10
166.490046723792
 20
150.647081968989
 30
0.0
 10
166.5957755478101
 20
150.7164361863156
 30
0.0
 10
166.6607727248648
 20
150.7405524999815
 30
0.0
 10
166.794257214819
 20
150.7323482779433
 30
0.0
 10
166.8535846082645
 20
150.7025574923513
 30
0.0
 10
166.9028213216059
 20
150.6652601593003
 30
0.0
  0
SPLINE
  5
88
330
1F
100
AcDbEntity
  8
0
  6
Continuous
 62
     7
370
    15
100
AcDbSpline
210
0.0
220
0.0
230
1.0
 70
     8
 71
     3
 72
    16
 73
    12
 74
     0
 42
0.00000001
 43
0.00000001
 12
1.0
 22
0.0
 32
0.0
 13
1.0
 23
0.0
 33
0.0
 40
0.0
 40
0.0
 40
0.0
 40
0.0
 40
0.0624999999999999
 40
0.0624999999999999
 40
0.1249999999999997
 40
0.1249999999999997
 40
0.2499999999999996
 40
0.2499999999999996
 40
0.4999999999999993
 40
0.4999999999999993
 40
1.0
 40
1.0
 40
1.0
 40
1.0
 10
166.9028213215751
 20
150.6652601592519
 30
0.0
 10
166.9148911548509
 20
150.6561171324061
 30
0.0
 10
166.9291668097842
 20
150.6490726847149
 30
0.0
 10
166.9606312219087
 20
150.6490656128163
 30
0.0
 10
166.976131746719
 20
150.6571935816133
 30
0.0
 10
167.0115706433259
 20
150.6906020426204
 30
0.0
 10
167.0251632594293
 20
150.7212692090826
 30
0.0
 10
167.0581575778221
 20
150.8100902031644
 30
0.0
 10
167.0689449711409
 20
150.8709928487123
 30
0.0
 10
167.09399821842
 20
151.0530009260906
 30
0.0
 10
167.0977982104813
 20
151.1716896411293
 30
0.0
 10
167.0977982104813
 20
151.2889852333498
 30
0.0
  0
LINE
  5
89
330
1F
100
AcDbEntity
  8
0
  6
Continuous
 62
     7
370
    15
100
AcDbLine
 10
167.0977982105
 20
159.8733607453
 30
0.0
 11
167.0977982105
 21
151.2889852333
 31
0.0
  0
SPLINE
  5
8A
330
1F
100
AcDbEntity
  8
0
  6
Continuous
 62
     7
370
    15
100
AcDbSpline
210
0.0
220
0.0
230
1.0
 70
     8
 71
     3
 72
    16
 73
    12
 74
     0
 42
0.00000001
 43
0.00000001
 12
1.0
 22
0.0
 32
0.0
 13
1.0
 23
0.0
 33
0.0
 40
0.0
 40
0.0
 40
0.0
 40
0.0
 40
0.5000000000000023
 40
0.5000000000000023
 40
0.7500000000000038
 40
0.7500000000000038
 40
0.8750000000000036
 40
0.8750000000000036
 40
0.9375000000000018
 40
0.9375000000000018
 40
1.0
 40
1.0
 40
1.0
 40
1.0
 10
167.0977982104812
 20
159.7683523730471
 30
0.0
 10
167.0977982104812
 20
159.7527871456076
 30
0.0
 10
167.0939147853222
 20
159.7336157677597
 30
0.0
 10
167.0690994600476
 20
159.6948433857778
 30
0.0
 10
167.058260012335
 20
159.6801926095753
 30
0.0
 10
167.0250442302863
 20
159.6531483655956
 30
0.0
 10
167.0116624866574
 20
159.6431702664556
 30
0.0
 10
166.9761528367952
 20
159.6266957306686
 30
0.0
 10
166.9607358702945
 20
159.6209436398787
 30
0.0
 10
166.9290348481458
 20
159.6130231194521
 30
0.0
 10
166.9148885631951
 20
159.6111402834333
 30
0.0
 10
166.9028213216054
 20
159.610266448971
 30
0.0
  0
SPLINE
  5
8B
330
1F
100
AcDbEntity
  8
0
  6
Continuous
 62
     7
370
    15
100
AcDbSpline
210
0.0
220
0.0
230
1.0
 70
     8
 71
     3
 72
    18
 73
    14
 74
     0
 42
0.00000001
 43
0.00000001
 12
1.0
 22
0.0
 32
0.0
 13
1.0
 23
0.0
 33
0.0
 40
0.0
 40
0.0
 40
0.0
 40
0.0
 40
0.125
 40
0.125
 40
0.2500000000000001
 40
0.2500000000000001
 40
0.3750000000000001
 40
0.3750000000000001
 40
0.5000000000000001
 40
0.5000000000000001
 40
0.75
 40
0.75
 40
1.0
 40
1.0
 40
1.0
 40
1.0
 10
166.9028213216116
 20
159.6102664489708
 30
0.0
 10
166.8541171925948
 20
159.6067395993527
 30
0.0
 10
166.7956095233903
 20
159.603239326155
 30
0.0
 10
166.6638838607594
 20
159.5991963422671
 30
0.0
 10
166.5991262221391
 20
159.5990847676365
 30
0.0
 10
166.49391580552
 20
159.600616952398
 30
0.0
 10
166.4506997705798
 20
159.6020721046131
 30
0.0
 10
166.3745215490989
 20
159.6049973661428
 30
0.0
 10
166.3416667814147
 20
159.606507696651
 30
0.0
 10
166.2512990625729
 20
159.6106496893394
 30
0.0
 10
166.2018766933835
 20
159.6128877743259
 30
0.0
 10
166.1142242312955
 20
159.6153390573724
 30
0.0
 10
166.0761614950611
 20
159.6155942927334
 30
0.0
 10
166.0417138929177
 20
159.6147288490655
 30
0.0
  0
SPLINE
  5
8C
330
1F
100
AcDbEntity
  8
0
  6
Continuous
 62
     7
370
    15
100
AcDbSpline
210
0.0
220
0.0
230
1.0
 70
     8
 71
     3
 72
    16
 73
    12
 74
     0
 42
0.00000001
 43
0.00000001
 12
1.0
 22
0.0
 32
0.0
 13
1.0
 23
0.0
 33
0.0
 40
0.0
 40
0.0
 40
0.0
 40
0.0
 40
0.2499999999999998
 40
0.2499999999999998
 40
0.3749999999999998
 40
0.3749999999999998
 40
0.4999999999999999
 40
0.4999999999999999
 40
0.7499999999999999
 40
0.7499999999999999
 40
1.0
 40
1.0
 40
1.0
 40
1.0
 10
165.5977982104812
 20
148.7297388624563
 30
0.0
 10
165.5172614010857
 20
148.2606660355932
 30
0.0
 10
165.4572239922835
 20
147.7803023854133
 30
0.0
 10
165.3964860450362
 20
147.0431181062723
 30
0.0
 10
165.3811635639933
 20
146.7945997030452
 30
0.0
 10
165.3605806122154
 20
146.2918162578315
 30
0.0
 10
165.3553810651788
 20
146.0369577048068
 30
0.0
 10
165.3553273546386
 20
145.2806803650861
 30
0.0
 10
165.3755246919077
 20
144.7820221657762
 30
0.0
 10
165.4562029989807
 20
143.7955991950319
 30
0.0
 10
165.517249347322
 20
143.306485102259
 30
0.0
 10
165.5977982104812
 20
142.8373420703175
 30
0.0
  0
LINE
  5
8D
330
1F
100
AcDbEntity
  8
0
  6
Continuous
 62
     7
370
    15
100
AcDbLine
 10
165.5977982105
 20
142.8373420703
 30
0.0
 11
165.5977982105
 21
141.6823368009
 31
0.0
  0
LINE
  5
8E
330
1F
100
AcDbEntity
  8
0
  6
Continuous
 62
     7
370
    15
100
AcDbLine
 10
144.7977982105
 20
149.6234599325
 30
0.0
 11
144.7977982105
 21
141.9436210003
 31
0.0
  0
LINE
  5
8F
330
1F
100
AcDbEntity
  8
0
  6
Continuous
 62
     7
370
    15
100
AcDbLine
 10
165.5977982105
 20
149.8847441319
 30
0.0
 11
165.5977982105
 21
148.7297388625
 31
0.0
  0
SPLINE
  5
90
330
1F
100
AcDbEntity
  8
0
  6
Continuous
 62
     7
370
    15
100
AcDbSpline
210
0.0
220
0.0
230
1.0
 70
     8
 71
     3
 72
     8
 73
     4
 74
     0
 42
0.00000001
 43
0.00000001
 12
1.0
 22
0.0
 32
0.0
 13
1.0
 23
0.0
 33
0.0
 40
0.0
 40
0.0
 40
0.0
 40
0.0
 40
1.0
 40
1.0
 40
1.0
 40
1.0
 10
165.8027582325418
 20
142.837049662023
 30
0.0
 10
165.8534853152643
 20
142.5536985407039
 30
0.0
 10
165.9113726282513
 20
142.2787423565641
 30
0.0
 10
165.9764778669215
 20
142.0119957759886
 30
0.0
  0
SPLINE
  5
91
330
1F
100
AcDbEntity
  8
0
  6
Continuous
 62
     7
370
    15
100
AcDbSpline
210
0.0
220
0.0
230
1.0
 70
     8
 71
     3
 72
    24
 73
    20
 74
     0
 42
0.00000001
 43
0.00000001
 12
1.0
 22
0.0
 32
0.0
 13
1.0
 23
0.0
 33
0.0
 40
0.0
 40
0.0
 40
0.0
 40
0.0
 40
0.2499999999999994
 40
0.2499999999999994
 40
0.3749999999999992
 40
0.3749999999999992
 40
0.437499999999999
 40
0.437499999999999
 40
0.4687499999999989
 40
0.4687499999999989
 40
0.4999999999999989
 40
0.4999999999999989
 40
0.5624999999999984
 40
0.5624999999999984
 40
0.624999999999998
 40
0.624999999999998
 40
0.7499999999999981
 40
0.7499999999999981
 40
1.0
 40
1.0
 40
1.0
 40
1.0
 10
165.5977982104729
 20
142.8373420703163
 30
0.0
 10
165.5982012398468
 20
142.9306103629459
 30
0.0
 10
165.6002309795619
 20
143.0243679217949
 30
0.0
 10
165.6095396909817
 20
143.1659578074344
 30
0.0
 10
165.6134656840962
 20
143.2131382260436
 30
0.0
 10
165.6243950440122
 20
143.283734272729
 30
0.0
 10
165.6285166721066
 20
143.3075141864938
 30
0.0
 10
165.640411193289
 20
143.340965333541
 30
0.0
 10
165.6456980052428
 20
143.3531202856106
 30
0.0
 10
165.6622659367577
 20
143.3610029245787
 30
0.0
 10
165.670192645525
 20
143.3534393254766
 30
0.0
 10
165.6871849837502
 20
143.3296468942499
 30
0.0
 10
165.6945826845412
 20
143.3094584164054
 30
0.0
 10
165.708685074883
 20
143.2690087917856
 30
0.0
 10
165.7148382321753
 20
143.2481531173881
 30
0.0
 10
165.7321519656363
 20
143.1850280820871
 30
0.0
 10
165.7421570065249
 20
143.1420489701856
 30
0.0
 10
165.7705134627556
 20
143.0123233258967
 30
0.0
 10
165.7870620021019
 20
142.9247255987608
 30
0.0
 10
165.8027582325419
 20
142.837049662023
 30
0.0
  0
SPLINE
  5
92
330
1F
100
AcDbEntity
  8
0
  6
Continuous
 62
     7
370
    15
100
AcDbSpline
210
0.0
220
0.0
230
1.0
 70
     8
 71
     3
 72
    24
 73
    20
 74
     0
 42
0.00000001
 43
0.00000001
 12
1.0
 22
0.0
 32
0.0
 13
1.0
 23
0.0
 33
0.0
 40
0.0
 40
0.0
 40
0.0
 40
0.0
 40
0.2499999999999898
 40
0.2499999999999898
 40
0.3749999999999856
 40
0.3749999999999856
 40
0.4374999999999841
 40
0.4374999999999841
 40
0.4999999999999826
 40
0.4999999999999826
 40
0.5312499999999836
 40
0.5312499999999836
 40
0.5624999999999845
 40
0.5624999999999845
 40
0.6249999999999866
 40
0.6249999999999866
 40
0.7499999999999905
 40
0.7499999999999905
 40
1.0
 40
1.0
 40
1.0
 40
1.0
 10
165.802758232542
 20
148.7300312707508
 30
0.0
 10
165.7869891876322
 20
148.6419486072599
 30
0.0
 10
165.7703750230717
 20
148.5540037907505
 30
0.0
 10
165.7418428955783
 20
148.4236564234874
 30
0.0
 10
165.7317552620244
 20
148.3803952456853
 30
0.0
 10
165.7142674391754
 20
148.3169594698499
 30
0.0
 10
165.7080576312491
 20
148.2960453463062
 30
0.0
 10
165.6937797716668
 20
148.2555705546211
 30
0.0
 10
165.6862086093149
 20
148.2350929111619
 30
0.0
 10
165.6687887841406
 20
148.212246531625
 30
0.0
 10
165.660304701686
 20
148.2056947345813
 30
0.0
 10
165.6442686280685
 20
148.2162661098078
 30
0.0
 10
165.6394482557906
 20
148.2283571500917
 30
0.0
 10
165.6280413551847
 20
148.2620003933117
 30
0.0
 10
165.6240203934753
 20
148.2854080726084
 30
0.0
 10
165.6132663816961
 20
148.3559966756695
 30
0.0
 10
165.6093944960734
 20
148.4029617031921
 30
0.0
 10
165.6002265312725
 20
148.5435385677982
 30
0.0
 10
165.5981981967594
 20
148.6371747974177
 30
0.0
 10
165.5977982104812
 20
148.7297388624563
 30
0.0
  0
SPLINE
  5
93
330
1F
100
AcDbEntity
  8
0
  6
Continuous
 62
     7
370
    15
100
AcDbSpline
210
0.0
220
0.0
230
1.0
 70
     8
 71
     3
 72
     8
 73
     4
 74
     0
 42
0.00000001
 43
0.00000001
 12
1.0
 22
0.0
 32
0.0
 13
1.0
 23
0.0
 33
0.0
 40
0.0
 40
0.0
 40
0.0
 40
0.0
 40
1.0
 40
1.0
 40
1.0
 40
1.0
 10
165.9764778669215
 20
149.5550851567853
 30
0.0
 10
165.9113726282513
 20
149.2883385762098
 30
0.0
 10
165.8534853152643
 20
149.01338239207
 30
0.0
 10
165.8027582325419
 20
148.7300312707509
 30
0.0
  0
LINE
  5
94
330
1F
100
AcDbEntity
  8
0
  6
Continuous
 62
     7
370
    15
100
AcDbLine
 10
143.2977982105
 20
149.1904472306
 30
0.0
 11
143.2977982105
 21
142.3766337022
 31
0.0
  0
LINE
  5
95
330
1F
100
AcDbEntity
  8
0
  6
Continuous
 62
     7
370
    15
100
AcDbLine
 10
165.8027582325
 20
159.6087254511
 30
0.0
 11
166.0417138929
 21
159.6147288491
 31
0.0
  0
LINE
  5
96
330
1F
100
AcDbEntity
  8
0
  6
Continuous
 62
     7
370
    15
100
AcDbLine
 10
165.5977982105
 20
149.8847441319
 30
0.0
 11
165.5977982105
 21
159.803639251
 31
0.0
  0
ARC
  5
97
330
1F
100
AcDbEntity
  8
0
  6
Continuous
 62
     7
370
    15
100
AcDbCircle
 10
165.7977351214
 20
159.8086623621
 30
0.0
 40
0.2000000000000059
100
AcDbArc
 50
181.4391666667
 51
271.4391666667
  0
LINE
  5
98
330
1F
100
AcDbEntity
  8
0
  6
Continuous
 62
     7
370
    15
100
AcDbLine
 10
144.7977982105
 20
149.6234599325
 30
0.0
 11
144.7977982105
 21
159.2810708522
 31
0.0
  0
LINE
  5
99
330
1F
100
AcDbEntity
  8
0
  6
Continuous
 62
     7
370
    15
100
AcDbLine
 10
144.7977982105
 20
159.2810708522
 30
0.0
 11
165.5977982105
 21
159.803639251
 31
0.0
  0
LINE
  5
9A
330
1F
100
AcDbEntity
  8
0
  6
Continuous
 62
     7
370
    15
100
AcDbLine
 10
165.5977982105
 20
131.7634416818
 30
0.0
 11
165.5977982105
 21
141.6823368009
 31
0.0
  0
ARC
  5
9B
330
1F
100
AcDbEntity
  8
0
  6
Continuous
 62
     7
370
    15
100
AcDbCircle
 10
165.7977351214
 20
131.7584185707
 30
0.0
 40
0.2000000000000052
100
AcDbArc
 50
88.5608333333
 51
178.5608333333
  0
LINE
  5
9C
330
1F
100
AcDbEntity
  8
0
  6
Continuous
 62
     7
370
    15
100
AcDbLine
 10
144.7977982105
 20
132.2860100805
 30
0.0
 11
144.7977982105
 21
141.9436210003
 31
0.0
  0
LINE
  5
9D
330
1F
100
AcDbEntity
  8
0
  6
Continuous
 62
     7
370
    15
100
AcDbLine
 10
144.7977982105
 20
132.2860100805
 30
0.0
 11
165.5977982105
 21
131.7634416818
 31
0.0
  0
LINE
  5
9E
330
1F
100
AcDbEntity
  8
0
  6
Continuous
 62
     7
370
    15
100
AcDbLine
 10
165.8027582325
 20
131.9583554816
 30
0.0
 11
166.0417138929
 21
131.9523520837
 31
0.0
  0
LINE
  5
9F
330
1F
100
AcDbEntity
  8
0
  6
Continuous
 62
     7
370
    15
100
AcDbLine
 10
143.2977982105
 20
158.4150454484
 30
0.0
 11
144.7977982105
 21
159.2810708522
 31
0.0
  0
LINE
  5
A0
330
1F
100
AcDbEntity
  8
0
  6
Continuous
 62
     7
370
    15
100
AcDbLine
 10
143.2977982105
 20
149.1904472306
 30
0.0
 11
143.2977982105
 21
158.4150454484
 31
0.0
  0
LINE
  5
A1
330
1F
100
AcDbEntity
  8
0
  6
Continuous
 62
     7
370
    15
100
AcDbLine
 10
143.2977982105
 20
133.1520354843
 30
0.0
 11
144.7977982105
 21
132.2860100805
 31
0.0
  0
LINE
  5
A2
330
1F
100
AcDbEntity
  8
0
  6
Continuous
 62
     7
370
    15
100
AcDbLine
 10
143.2977982105
 20
133.1520354843
 30
0.0
 11
143.2977982105
 21
142.3766337022
 31
0.0
  0
LINE
  5
A3
330
1F
100
AcDbEntity
  8
0
  6
Continuous
 62
     7
370
    15
100
AcDbLine
 10
247.2977982105
 20
174.7835404664
 30
0.0
 11
246.2977982105
 21
175.7835404664
 31
0.0
  0
LINE
  5
A4
330
1F
100
AcDbEntity
  8
0
  6
Continuous
 62
     7
370
    15
100
AcDbLine
 10
247.2977982105
 20
174.7835404664
 30
0.0
 11
247.2977982105
 21
145.7835404664
 31
0.0
  0
LINE
  5
A5
330
1F
100
AcDbEntity
  8
0
  6
Continuous
 62
     7
370
    15
100
AcDbLine
 10
237.2977982105
 20
140.0100377745
 30
0.0
 11
247.2977982105
 21
145.7835404664
 31
0.0
  0
LINE
  5
A6
330
1F
100
AcDbEntity
  8
0
  6
Continuous
 62
     7
370
    15
100
AcDbLine
 10
236.2977982105
 20
175.7835404664
 30
0.0
 11
246.2977982105
 21
175.7835404664
 31
0.0
  0
LWPOLYLINE
  5
A7
330
1F
100
AcDbEntity
  8
0
  6
Continuous
 62
     7
370
    15
100
AcDbPolyline
 90
       32
 70
   128
 43
0.0
 10
239.0163781928
 20
148.7394906673
 10
238.9323753339
 20
149.2374318944
 10
238.853795597
 20
149.811002186
 10
238.7838560457
 20
150.436719507
 10
238.7254200135
 20
151.0889669167
 10
238.6808798784
 20
151.7410413296
 10
238.6520591188
 20
152.3662467425
 10
238.64013766
 20
152.9389871725
 10
238.6456035678
 20
153.435814559
 10
238.6682330675
 20
153.8363887304
 10
238.7070997045
 20
154.1243101331
 10
238.7606122742
 20
154.2877912311
 10
238.8265799658
 20
154.3201390889
 10
238.9023020541
 20
154.2200293815
 10
238.9846784681
 20
153.991560612
 10
239.0703367075
 20
153.6440863188
 10
239.1557699141
 20
153.1918321402
 10
239.2374804423
 20
152.6533134155
 10
239.3121230535
 20
152.0505771644
 10
239.3766418704
 20
151.4082994799
 10
239.4283954851
 20
150.752775286
 10
239.4652650985
 20
150.11084182
 10
239.4857412643
 20
149.5087799136
 10
239.4889856859
 20
148.971238052
 10
239.4748655362
 20
148.520223262
 10
239.4439588959
 20
148.1742001422
 10
239.3975310865
 20
147.9473349198
 10
239.3374828678
 20
147.8489154836
 10
239.2662726211
 20
147.8829711369
 10
239.1868157022
 20
148.0481076373
 10
239.1023650867
 20
148.337564277
 10
239.0163781928
 20
148.7394906673
  0
LWPOLYLINE
  5
A8
330
1F
100
AcDbEntity
  8
0
  6
Continuous
 62
     7
370
    15
100
AcDbPolyline
 90
       28
 70
   128
 43
0.0
 10
239.0275617036
 20
149.280702354
 10
238.9536637552
 20
149.7258402206
 10
238.8857593509
 20
150.2442367967
 10
238.8275092347
 20
150.8079451886
 10
238.7820536854
 20
151.386575731
 10
238.7518432235
 20
151.9489343017
 10
238.7385065027
 20
152.4647040045
 10
238.7427625091
 20
152.9060795612
 10
238.7643818004
 20
153.2492663013
 10
238.8021988749
 20
153.4757629389
 10
238.8541750044
 20
153.5733589816
 10
238.9175081423
 20
153.5367930014
 10
238.9887839827
 20
153.3680362798
 10
239.0641600266
 20
153.0761865354
 10
239.1395727319
 20
152.6769774634
 10
239.2109565803
 20
152.1919305282
 10
239.2744632499
 20
151.6471947357
 10
239.3266690798
 20
151.0721369333
 10
239.3647596402
 20
150.4977586362
 10
239.3866814591
 20
149.9550247269
 10
239.3912527255
 20
149.4731941311
 10
239.3782270013
 20
149.0782424607
 10
239.3483065068
 20
148.7914616627
 10
239.3031042633
 20
148.628312164
 10
239.2450571358
 20
148.5975893964
 10
239.1772944597
 20
148.7009496323
 10
239.1034693385
 20
148.9328206944
 10
239.0275617036
 20
149.280702354
  0
ARC
  5
A9
330
1F
100
AcDbEntity
  8
0
  6
Continuous
 62
     7
370
    15
100
AcDbCircle
 10
221.6368328807
 20
149.6912525577
 30
0.0
 40
17.30640042947804
100
AcDbArc
 50
0.3612442907
 51
8.7816863059
  0
LINE
  5
AA
330
1F
100
AcDbEntity
  8
0
  6
Continuous
 62
     7
370
    15
100
AcDbLine
 10
211.2028360895
 20
167.9524489506
 30
0.0
 11
208.3719873042
 21
168.5178059069
 31
0.0
  0
LINE
  5
AB
330
1F
100
AcDbEntity
  8
0
  6
Continuous
 62
     7
370
    15
100
AcDbLine
 10
206.4669494252
 20
166.3488974227
 30
0.0
 11
208.3719873042
 21
168.5178059069
 31
0.0
  0
LINE
  5
AC
330
1F
100
AcDbEntity
  8
0
  6
Continuous
 62
     7
370
    15
100
AcDbLine
 10
207.3927603315
 20
163.6146319822
 30
0.0
 11
206.4669494252
 21
166.3488974227
 31
0.0
  0
LINE
  5
AD
330
1F
100
AcDbEntity
  8
0
  6
Continuous
 62
     7
370
    15
100
AcDbLine
 10
207.3927603315
 20
163.6146319822
 30
0.0
 11
210.2236091168
 21
163.0492750259
 31
0.0
  0
LINE
  5
AE
330
1F
100
AcDbEntity
  8
0
  6
Continuous
 62
     7
370
    15
100
AcDbLine
 10
212.1286469958
 20
165.2181835101
 30
0.0
 11
210.2236091168
 21
163.0492750259
 31
0.0
  0
CIRCLE
  5
AF
330
1F
100
AcDbEntity
  8
0
  6
Continuous
 62
     7
370
    15
100
AcDbCircle
 10
209.2977982105
 20
165.7835404664
 30
0.0
 40
4.171999999999981
  0
LINE
  5
B0
330
1F
100
AcDbEntity
  8
0
  6
Continuous
 62
     7
370
    15
100
AcDbLine
 10
212.1286469958
 20
165.2181835101
 30
0.0
 11
211.2028360895
 21
167.9524489506
 31
0.0
  0
LINE
  5
B1
330
1F
100
AcDbEntity
  8
0
  6
Continuous
 62
     7
370
    15
100
AcDbLine
 10
226.7977982105
 20
167.2269161394
 30
0.0
 11
229.2977982105
 21
168.6702918123
 31
0.0
  0
LINE
  5
B2
330
1F
100
AcDbEntity
  8
0
  6
Continuous
 62
     7
370
    15
100
AcDbLine
 10
226.7977982105
 20
164.3401647934
 30
0.0
 11
226.7977982105
 21
167.2269161394
 31
0.0
  0
LINE
  5
B3
330
1F
100
AcDbEntity
  8
0
  6
Continuous
 62
     7
370
    15
100
AcDbLine
 10
226.7977982105
 20
164.3401647934
 30
0.0
 11
229.2977982105
 21
162.8967891204
 31
0.0
  0
LINE
  5
B4
330
1F
100
AcDbEntity
  8
0
  6
Continuous
 62
     7
370
    15
100
AcDbLine
 10
231.7977982105
 20
164.3401647934
 30
0.0
 11
229.2977982105
 21
162.8967891204
 31
0.0
  0
CIRCLE
  5
B5
330
1F
100
AcDbEntity
  8
0
  6
Continuous
 62
     7
370
    15
100
AcDbCircle
 10
229.2977982105
 20
165.7835404664
 30
0.0
 40
4.172000000000025
  0
LINE
  5
B6
330
1F
100
AcDbEntity
  8
0
  6
Continuous
 62
     7
370
    15
100
AcDbLine
 10
231.7977982105
 20
167.2269161394
 30
0.0
 11
229.2977982105
 21
168.6702918123
 31
0.0
  0
LINE
  5
B7
330
1F
100
AcDbEntity
  8
0
  6
Continuous
 62
     7
370
    15
100
AcDbLine
 10
231.7977982105
 20
164.3401647934
 30
0.0
 11
231.7977982105
 21
167.2269161394
 31
0.0
  0
SPLINE
  5
B8
330
1F
100
AcDbEntity
  8
0
  6
HIDDEN
 62
     7
370
     0
100
AcDbSpline
210
0.0
220
0.0
230
1.0
 70
    24
 71
     3
 72
    11
 73
     7
 74
     0
 42
0.00000001
 43
0.00000001
 12
1.0
 22
0.0
 32
0.0
 13
1.0
 23
0.0
 33
0.0
 40
0.0
 40
0.0
 40
0.0
 40
0.0
 40
0.1806182394208152
 40
0.4975375664255732
 40
0.814561787105434
 40
1.0
 40
1.0
 40
1.0
 40
1.0
 10
189.0015273562319
 20
124.783540466387
 30
0.0
 10
188.9308388517701
 20
124.783540466387
 30
0.0
 10
188.7361177283832
 20
124.783540466387
 30
0.0
 10
188.4861692780792
 20
124.7835404663869
 30
0.0
 10
188.3130524098108
 20
124.783540466387
 30
0.0
 10
188.3195345006053
 20
124.783540466387
 30
0.0
 10
188.3219267736439
 20
124.783540466387
 30
0.0
  0
SPLINE
  5
B9
330
1F
100
AcDbEntity
  8
0
  6
HIDDEN
 62
     7
370
     0
100
AcDbSpline
210
0.0
220
0.0
230
1.0
 70
     8
 71
     3
 72
    10
 73
     6
 74
     0
 42
0.00000001
 43
0.00000001
 12
1.0
 22
0.0
 32
0.0
 13
1.0
 23
0.0
 33
0.0
 40
0.0
 40
0.0
 40
0.0
 40
0.0
 40
0.5
 40
0.5
 40
1.0
 40
1.0
 40
1.0
 40
1.0
 10
189.5711277077155
 20
139.7835404663869
 30
0.0
 10
189.3926201926925
 20
137.2851272571963
 30
0.0
 10
189.2446593997143
 20
134.786134068749
 30
0.0
 10
189.044689133087
 20
129.7863258998213
 30
0.0
 10
188.9939793599506
 20
127.2854862424103
 30
0.0
 10
189.0015273562319
 20
124.783540466387
 30
0.0
  0
SPLINE
  5
BA
330
1F
100
AcDbEntity
  8
0
  6
HIDDEN
 62
     7
370
     0
100
AcDbSpline
210
0.0
220
0.0
230
1.0
 70
     8
 71
     3
 72
    10
 73
     6
 74
     0
 42
0.00000001
 43
0.00000001
 12
1.0
 22
0.0
 32
0.0
 13
1.0
 23
0.0
 33
0.0
 40
0.0
 40
0.0
 40
0.0
 40
0.0
 40
0.5
 40
0.5
 40
1.0
 40
1.0
 40
1.0
 40
1.0
 10
189.8840391309427
 20
163.1848549011591
 30
0.0
 10
189.7321202727078
 20
159.2844300030196
 30
0.0
 10
189.621641502603
 20
155.383443093505
 30
0.0
 10
189.5119505417394
 20
147.5829530226888
 30
0.0
 10
189.5134832643317
 20
143.6830677255759
 30
0.0
 10
189.5711277077155
 20
139.7835404663869
 30
0.0
  0
SPLINE
  5
BB
330
1F
100
AcDbEntity
  8
0
  6
HIDDEN
 62
     7
370
     0
100
AcDbSpline
210
0.0
220
0.0
230
1.0
 70
    24
 71
     3
 72
    10
 73
     6
 74
     0
 42
0.00000001
 43
0.00000001
 12
1.0
 22
0.0
 32
0.0
 13
1.0
 23
0.0
 33
0.0
 40
0.0
 40
0.0
 40
0.0
 40
0.0
 40
0.2365323193382503
 40
0.6181843808377752
 40
1.0
 40
1.0
 40
1.0
 40
1.0
 10
189.1200962745425
 20
175.7835404663869
 30
0.0
 10
189.1180936340994
 20
175.7835404663869
 30
0.0
 10
189.1128596726438
 20
175.7835404663869
 30
0.0
 10
189.3885117802565
 20
175.783540466387
 30
0.0
 10
189.7188397586624
 20
175.7835404663869
 30
0.0
 10
189.8840391309427
 20
175.7835404663869
 30
0.0
  0
CIRCLE
  5
BC
330
1F
100
AcDbEntity
  8
0
  6
HIDDEN
 62
     7
370
     0
100
AcDbCircle
 10
209.2977982105
 20
165.7835404664
 30
0.0
 40
4.25
  0
CIRCLE
  5
BD
330
1F
100
AcDbEntity
  8
0
  6
HIDDEN
 62
     7
370
     0
100
AcDbCircle
 10
229.2977982105
 20
165.7835404664
 30
0.0
 40
4.25
  0
SPLINE
  5
BE
330
1F
100
AcDbEntity
  8
0
  6
HIDDEN
 62
     7
370
     0
100
AcDbSpline
210
0.0
220
0.0
230
1.0
 70
     8
 71
     3
 72
    58
 73
    54
 74
     0
 42
0.00000001
 43
0.00000001
 12
1.0
 22
0.0
 32
0.0
 13
1.0
 23
0.0
 33
0.0
 40
-0.0625000000000001
 40
-0.0625000000000001
 40
0.0
 40
0.0
 40
0.03125
 40
0.03125
 40
0.0625
 40
0.0625
 40
0.09375
 40
0.09375
 40
0.125
 40
0.125
 40
0.1875
 40
0.1875
 40
0.25
 40
0.25
 40
0.28125
 40
0.28125
 40
0.3125
 40
0.3125
 40
0.34375
 40
0.34375
 40
0.3749999999999999
 40
0.3749999999999999
 40
0.4062499999999999
 40
0.4062499999999999
 40
0.4374999999999999
 40
0.4374999999999999
 40
0.4687499999999999
 40
0.4687499999999999
 40
0.5
 40
0.5
 40
0.5625
 40
0.5625
 40
0.625
 40
0.625
 40
0.65625
 40
0.65625
 40
0.6875
 40
0.6875
 40
0.71875
 40
0.71875
 40
0.7499999999999999
 40
0.7499999999999999
 40
0.7812499999999999
 40
0.7812499999999999
 40
0.8124999999999999
 40
0.8124999999999999
 40
0.8437499999999999
 40
0.8437499999999999
 40
0.8749999999999999
 40
0.8749999999999999
 40
0.9374999999999999
 40
0.9374999999999999
 40
1.0
 40
1.0
 40
1.03125
 40
1.03125
 10
177.2977982104811
 20
145.5191043519389
 30
0.0
 10
177.2977982104811
 20
145.915758523611
 30
0.0
 10
177.3107802481533
 20
146.0457506844514
 30
0.0
 10
177.3616310504116
 20
146.3014702969037
 30
0.0
 10
177.4001229544646
 20
146.4285289807649
 30
0.0
 10
177.500538240191
 20
146.6706921784237
 30
0.0
 10
177.5619743794641
 20
146.7855339628084
 30
0.0
 10
177.7071078557749
 20
147.0028761603786
 30
0.0
 10
177.791529544626
 20
147.1057178082263
 30
0.0
 10
178.0681297187908
 20
147.3822612889779
 30
0.0
 10
178.2911286300579
 20
147.5312439251101
 30
0.0
 10
178.7723631476436
 20
147.7307869886648
 30
0.0
 10
179.0356625631526
 20
147.7833974616962
 30
0.0
 10
179.4272260031929
 20
147.7836115204487
 30
0.0
 10
179.5598136137976
 20
147.7706126710431
 30
0.0
 10
179.8163793193968
 20
147.7195625870168
 30
0.0
 10
179.9410890855774
 20
147.6817913482045
 30
0.0
 10
180.1833282706044
 20
147.5815994400921
 30
0.0
 10
180.3003449243781
 20
147.5190140462676
 30
0.0
 10
180.5169881292244
 20
147.374308960557
 30
0.0
 10
180.6179948856828
 20
147.2916896191768
 30
0.0
 10
180.8048009813394
 20
147.1050455843868
 30
0.0
 10
180.8875145168713
 20
147.0040997364269
 30
0.0
 10
181.0323846462466
 20
146.7876185327452
 30
0.0
 10
181.0950549423433
 20
146.6707013677367
 30
0.0
 10
181.1954828803795
 20
146.4285048985383
 30
0.0
 10
181.2333540593093
 20
146.3038439076348
 30
0.0
 10
181.284616457085
 20
146.0474445585668
 30
0.0
 10
181.2977500977256
 20
145.9148336332689
 30
0.0
 10
181.2978940308644
 20
145.5231590209338
 30
0.0
 10
181.2455287735997
 20
145.2598750012732
 30
0.0
 10
181.046368110249
 20
144.7783622874134
 30
0.0
 10
180.897570436887
 20
144.5552412003685
 30
0.0
 10
180.6212697783009
 20
144.2784090518609
 30
0.0
 10
180.5185047312411
 20
144.1939018375766
 30
0.0
 10
180.3012874574467
 20
144.0485808958908
 30
0.0
 10
180.186517764009
 20
143.9870586726287
 30
0.0
 10
179.9445312268643
 20
143.8864622693567
 30
0.0
 10
179.8174486539729
 20
143.8478343812681
 30
0.0
 10
179.5617739539697
 20
143.7967562712019
 30
0.0
 10
179.4318334366255
 20
143.7836671314347
 30
0.0
 10
179.1675700688642
 20
143.7834156130761
 30
0.0
 10
179.0373591752173
 20
143.7962900831325
 30
0.0
 10
178.7816092297836
 20
143.8469089802646
 30
0.0
 10
178.6545918454163
 20
143.8852567990604
 30
0.0
 10
178.4122401176646
 20
143.9854909192537
 30
0.0
 10
178.2973373383783
 20
144.0468351062437
 30
0.0
 10
178.0799151732292
 20
144.1917401107729
 30
0.0
 10
177.9769787757845
 20
144.2760790028949
 30
0.0
 10
177.7001416186277
 20
144.5524801159366
 30
0.0
 10
177.5509863775635
 20
144.7753237489791
 30
0.0
 10
177.3510157923282
 20
145.2563870302297
 30
0.0
 10
177.2977982104811
 20
145.5191043519389
 30
0.0
 10
177.2977982104811
 20
145.915758523611
 30
0.0
  0
SPLINE
  5
BF
330
1F
100
AcDbEntity
  8
0
  6
HIDDEN
 62
     7
370
     0
100
AcDbSpline
210
0.0
220
0.0
230
1.0
 70
     8
 71
     3
 72
    12
 73
     8
 74
     0
 42
0.00000001
 43
0.00000001
 12
1.0
 22
0.0
 32
0.0
 13
1.0
 23
0.0
 33
0.0
 40
0.0
 40
0.0
 40
0.0
 40
0.0
 40
0.2500000000000027
 40
0.2500000000000027
 40
0.5000000000000053
 40
0.5000000000000053
 40
1.0
 40
1.0
 40
1.0
 40
1.0
 10
174.2297002124804
 20
139.9543274707353
 30
0.0
 10
174.1921883264357
 20
139.9543274707353
 30
0.0
 10
174.1569009787309
 20
139.9395226564485
 30
0.0
 10
174.0979711304925
 20
139.8959307833227
 30
0.0
 10
174.0744454040234
 20
139.8684173572367
 30
0.0
 10
174.0141866162554
 20
139.7792856251231
 30
0.0
 10
173.9885918539661
 20
139.7128997745053
 30
0.0
 10
173.969892591345
 20
139.6452953393279
 30
0.0
  0
LINE
  5
C0
330
1F
100
AcDbEntity
  8
0
  6
HIDDEN
 62
     7
370
     0
100
AcDbLine
 10
176.3658962085
 20
139.9543274707
 30
0.0
 11
174.2297002125
 21
139.9543274707
 31
0.0
  0
SPLINE
  5
C1
330
1F
100
AcDbEntity
  8
0
  6
HIDDEN
 62
     7
370
     0
100
AcDbSpline
210
0.0
220
0.0
230
1.0
 70
     8
 71
     3
 72
    12
 73
     8
 74
     0
 42
0.00000001
 43
0.00000001
 12
1.0
 22
0.0
 32
0.0
 13
1.0
 23
0.0
 33
0.0
 40
0.0
 40
0.0
 40
0.0
 40
0.0
 40
0.4999999999999998
 40
0.4999999999999998
 40
0.7499999999999999
 40
0.7499999999999999
 40
1.0
 40
1.0
 40
1.0
 40
1.0
 10
176.6257038296173
 20
139.6452953393279
 30
0.0
 10
176.6070105964869
 20
139.7128779757683
 30
0.0
 10
176.5813552990751
 20
139.7793605452457
 30
0.0
 10
176.5211946763886
 20
139.8683556281432
 30
0.0
 10
176.4971223646343
 20
139.8963575251424
 30
0.0
 10
176.4387408442837
 20
139.9394339258075
 30
0.0
 10
176.4032720166307
 20
139.9543274707353
 30
0.0
 10
176.365896208482
 20
139.9543274707353
 30
0.0
  0
ELLIPSE
  5
C2
330
1F
100
AcDbEntity
  8
0
  6
HIDDEN
 62
     7
370
     0
100
AcDbEllipse
 10
166.348869038
 20
145.7835404664
 30
0.0
 11
-9.367417879781755
 21
19.74174915274995
 31
0.0
210
0.0
220
0.0
230
1.0
 40
0.3419987131
 41
3.2926643825169
 42
4.239566697061003
  0
SPLINE
  5
C3
330
1F
100
AcDbEntity
  8
0
  6
HIDDEN
 62
     7
370
     0
100
AcDbSpline
210
0.0
220
0.0
230
1.0
 70
     8
 71
     3
 72
    12
 73
     8
 74
     0
 42
0.00000001
 43
0.00000001
 12
1.0
 22
0.0
 32
0.0
 13
1.0
 23
0.0
 33
0.0
 40
0.0
 40
0.0
 40
0.0
 40
0.0
 40
0.2500000000000014
 40
0.2500000000000014
 40
0.5000000000000029
 40
0.5000000000000029
 40
1.0
 40
1.0
 40
1.0
 40
1.0
 10
176.365896208482
 20
126.6518840861536
 30
0.0
 10
176.4034080945266
 20
126.6518840861536
 30
0.0
 10
176.4386954422314
 20
126.6563876304161
 30
0.0
 10
176.4976252904698
 20
126.6697608298694
 30
0.0
 10
176.5211510169389
 20
126.6782457324405
 30
0.0
 10
176.5814098047069
 20
126.7059935362752
 30
0.0
 10
176.6070045669962
 20
126.7269834000155
 30
0.0
 10
176.6257038296173
 20
126.748784183205
 30
0.0
  0
LINE
  5
C4
330
1F
100
AcDbEntity
  8
0
  6
HIDDEN
 62
     7
370
     0
100
AcDbLine
 10
174.2297002125
 20
126.6518840862
 30
0.0
 11
176.3658962085
 21
126.6518840862
 31
0.0
  0
SPLINE
  5
C5
330
1F
100
AcDbEntity
  8
0
  6
HIDDEN
 62
     7
370
     0
100
AcDbSpline
210
0.0
220
0.0
230
1.0
 70
     8
 71
     3
 72
    12
 73
     8
 74
     0
 42
0.00000001
 43
0.00000001
 12
1.0
 22
0.0
 32
0.0
 13
1.0
 23
0.0
 33
0.0
 40
0.0
 40
0.0
 40
0.0
 40
0.0
 40
0.4999999999999947
 40
0.4999999999999947
 40
0.7499999999999973
 40
0.7499999999999973
 40
1.0
 40
1.0
 40
1.0
 40
1.0
 10
173.969892591345
 20
126.748784183205
 30
0.0
 10
173.9885858244754
 20
126.7269904295771
 30
0.0
 10
174.0142411218872
 20
126.7059702678675
 30
0.0
 10
174.0744017445737
 20
126.6782649219037
 30
0.0
 10
174.098474056328
 20
126.6696297057104
 30
0.0
 10
174.1568555766786
 20
126.6564150604838
 30
0.0
 10
174.1923244043316
 20
126.6518840861536
 30
0.0
 10
174.2297002124804
 20
126.6518840861536
 30
0.0
  0
ELLIPSE
  5
C6
330
1F
100
AcDbEntity
  8
0
  6
HIDDEN
 62
     7
370
     0
100
AcDbEllipse
 10
184.2467273829
 20
145.7835404664
 30
0.0
 11
9.367417879781586
 21
19.74174915274995
 31
0.0
210
0.0
220
0.0
230
1.0
 40
0.3419987131
 41
2.043618610118592
 42
2.990520924662719
  0
SPLINE
  5
C7
330
1F
100
AcDbEntity
  8
0
  6
HIDDEN
 62
     7
370
     0
100
AcDbSpline
210
0.0
220
0.0
230
1.0
 70
     8
 71
     3
 72
    12
 73
     8
 74
     0
 42
0.00000001
 43
0.00000001
 12
1.0
 22
0.0
 32
0.0
 13
1.0
 23
0.0
 33
0.0
 40
0.0
 40
0.0
 40
0.0
 40
0.0
 40
0.2500000000000004
 40
0.2500000000000004
 40
0.5000000000000008
 40
0.5000000000000008
 40
1.0
 40
1.0
 40
1.0
 40
1.0
 10
174.2297002124804
 20
164.9151968466204
 30
0.0
 10
174.1921883264357
 20
164.9151968466204
 30
0.0
 10
174.1569009787309
 20
164.9106933023579
 30
0.0
 10
174.0979711304925
 20
164.8973201029046
 30
0.0
 10
174.0744454040235
 20
164.8888352003334
 30
0.0
 10
174.0141866162554
 20
164.8610873964988
 30
0.0
 10
173.9885918539661
 20
164.8400975327585
 30
0.0
 10
173.969892591345
 20
164.8182967495689
 30
0.0
  0
LINE
  5
C8
330
1F
100
AcDbEntity
  8
0
  6
HIDDEN
 62
     7
370
     0
100
AcDbLine
 10
176.3658962085
 20
164.9151968466
 30
0.0
 11
174.2297002125
 21
164.9151968466
 31
0.0
  0
SPLINE
  5
C9
330
1F
100
AcDbEntity
  8
0
  6
HIDDEN
 62
     7
370
     0
100
AcDbSpline
210
0.0
220
0.0
230
1.0
 70
     8
 71
     3
 72
    12
 73
     8
 74
     0
 42
0.00000001
 43
0.00000001
 12
1.0
 22
0.0
 32
0.0
 13
1.0
 23
0.0
 33
0.0
 40
0.0
 40
0.0
 40
0.0
 40
0.0
 40
0.4999999999999916
 40
0.4999999999999916
 40
0.7499999999999958
 40
0.7499999999999958
 40
1.0
 40
1.0
 40
1.0
 40
1.0
 10
176.6257038296173
 20
164.8182967495689
 30
0.0
 10
176.6070105964869
 20
164.8400905031969
 30
0.0
 10
176.5813552990751
 20
164.8611106649065
 30
0.0
 10
176.5211946763886
 20
164.8888160108702
 30
0.0
 10
176.4971223646343
 20
164.8974512270636
 30
0.0
 10
176.4387408442837
 20
164.9106658722902
 30
0.0
 10
176.4032720166307
 20
164.9151968466204
 30
0.0
 10
176.365896208482
 20
164.9151968466204
 30
0.0
  0
ELLIPSE
  5
CA
330
1F
100
AcDbEntity
  8
0
  6
HIDDEN
 62
     7
370
     0
100
AcDbEllipse
 10
166.348869038
 20
145.7835404664
 30
0.0
 11
9.36741787978184
 21
19.74174915274995
 31
0.0
210
0.0
220
0.0
230
1.0
 40
0.3419987131
 41
5.185211263708411
 42
6.132113578252573
  0
SPLINE
  5
CB
330
1F
100
AcDbEntity
  8
0
  6
HIDDEN
 62
     7
370
     0
100
AcDbSpline
210
0.0
220
0.0
230
1.0
 70
     8
 71
     3
 72
    12
 73
     8
 74
     0
 42
0.00000001
 43
0.00000001
 12
1.0
 22
0.0
 32
0.0
 13
1.0
 23
0.0
 33
0.0
 40
0.0
 40
0.0
 40
0.0
 40
0.0
 40
0.2500000000000014
 40
0.2500000000000014
 40
0.5000000000000029
 40
0.5000000000000029
 40
1.0
 40
1.0
 40
1.0
 40
1.0
 10
176.365896208482
 20
151.6127534620389
 30
0.0
 10
176.4034080945266
 20
151.6127534620389
 30
0.0
 10
176.4386954422314
 20
151.6275582763256
 30
0.0
 10
176.4976252904698
 20
151.6711501494515
 30
0.0
 10
176.5211510169389
 20
151.6986635755375
 30
0.0
 10
176.5814098047069
 20
151.7877953076511
 30
0.0
 10
176.6070045669962
 20
151.8541811582689
 30
0.0
 10
176.6257038296173
 20
151.9217855934463
 30
0.0
  0
LINE
  5
CC
330
1F
100
AcDbEntity
  8
0
  6
HIDDEN
 62
     7
370
     0
100
AcDbLine
 10
174.2297002125
 20
151.612753462
 30
0.0
 11
176.3658962085
 21
151.612753462
 31
0.0
  0
SPLINE
  5
CD
330
1F
100
AcDbEntity
  8
0
  6
HIDDEN
 62
     7
370
     0
100
AcDbSpline
210
0.0
220
0.0
230
1.0
 70
     8
 71
     3
 72
    12
 73
     8
 74
     0
 42
0.00000001
 43
0.00000001
 12
1.0
 22
0.0
 32
0.0
 13
1.0
 23
0.0
 33
0.0
 40
0.0
 40
0.0
 40
0.0
 40
0.0
 40
0.5000000000000029
 40
0.5000000000000029
 40
0.7500000000000014
 40
0.7500000000000014
 40
1.0
 40
1.0
 40
1.0
 40
1.0
 10
173.969892591345
 20
151.9217855934462
 30
0.0
 10
173.9885858244754
 20
151.8542029570059
 30
0.0
 10
174.0142411218872
 20
151.7877203875285
 30
0.0
 10
174.0744017445737
 20
151.6987253046309
 30
0.0
 10
174.098474056328
 20
151.6707234076318
 30
0.0
 10
174.1568555766786
 20
151.6276470069666
 30
0.0
 10
174.1923244043316
 20
151.6127534620389
 30
0.0
 10
174.2297002124804
 20
151.6127534620389
 30
0.0
  0
ELLIPSE
  5
CE
330
1F
100
AcDbEntity
  8
0
  6
HIDDEN
 62
     7
370
     0
100
AcDbEllipse
 10
184.2467273829
 20
145.7835404664
 30
0.0
 11
-9.367417879781698
 21
19.74174915274995
 31
0.0
210
0.0
220
0.0
230
1.0
 40
0.3419987131
 41
0.1510717289270553
 42
1.097974043471191
  0
LINE
  5
CF
330
1F
100
AcDbEntity
  8
0
  6
HIDDEN
 62
     7
370
     0
100
AcDbLine
 10
167.2977982105
 20
165.483540465
 30
0.0
 11
167.2977982105
 21
126.0835404664
 31
0.0
  0
LINE
  5
D0
330
1F
100
AcDbEntity
  8
0
  6
HIDDEN
 62
     7
370
     0
100
AcDbLine
 10
229.2977982105
 20
144.7835404664
 30
0.0
 11
229.2977982105
 21
156.7835404664
 31
0.0
  0
LINE
  5
D1
330
1F
100
AcDbEntity
  8
0
  6
HIDDEN
 62
     7
370
     0
100
AcDbLine
 10
237.2977982105
 20
156.7835404664
 30
0.0
 11
237.2977982105
 21
144.7835404664
 31
0.0
  0
LINE
  5
D2
330
1F
100
AcDbEntity
  8
0
  6
HIDDEN
 62
     7
370
     0
100
AcDbLine
 10
167.2977982105
 20
129.9835404664
 30
0.0
 11
167.2977982105
 21
161.56716651
 31
0.0
  0
SPLINE
  5
D3
330
1F
100
AcDbEntity
  8
0
  6
HIDDEN
 62
     7
370
     0
100
AcDbSpline
210
0.0
220
0.0
230
1.0
 70
     8
 71
     3
 72
    18
 73
    14
 74
     0
 42
0.00000001
 43
0.00000001
 12
1.0
 22
0.0
 32
0.0
 13
1.0
 23
0.0
 33
0.0
 40
0.0
 40
0.0
 40
0.0
 40
0.0
 40
0.25
 40
0.25
 40
0.5
 40
0.5
 40
0.625
 40
0.625
 40
0.75
 40
0.75
 40
0.875
 40
0.875
 40
1.0
 40
1.0
 40
1.0
 40
1.0
 10
166.0417138929182
 20
155.6079803845383
 30
0.0
 10
166.0760149374509
 20
155.4999701987407
 30
0.0
 10
166.1138352087477
 20
155.3926931107127
 30
0.0
 10
166.2004535292085
 20
155.1811964133961
 30
0.0
 10
166.248824863952
 20
155.0768100632265
 30
0.0
 10
166.3382278460705
 20
154.9259351405822
 30
0.0
 10
166.3708251299477
 20
154.8765901375466
 30
0.0
 10
166.4472070338926
 20
154.7819844990763
 30
0.0
 10
166.4902454712334
 20
154.7369885643217
 30
0.0
 10
166.5960585040652
 20
154.6660607916639
 30
0.0
 10
166.6610969287963
 20
154.6421142477573
 30
0.0
 10
166.7942490005989
 20
154.6543949118281
 30
0.0
 10
166.8536181810621
 20
154.687711869833
 30
0.0
 10
166.9028213216059
 20
154.7285467560577
 30
0.0
  0
SPLINE
  5
D4
330
1F
100
AcDbEntity
  8
0
  6
HIDDEN
 62
     7
370
     0
100
AcDbSpline
210
0.0
220
0.0
230
1.0
 70
     8
 71
     3
 72
    16
 73
    12
 74
     0
 42
0.00000001
 43
0.00000001
 12
1.0
 22
0.0
 32
0.0
 13
1.0
 23
0.0
 33
0.0
 40
0.0
 40
0.0
 40
0.0
 40
0.0
 40
0.0624999999999978
 40
0.0624999999999978
 40
0.1249999999999955
 40
0.1249999999999955
 40
0.2499999999999948
 40
0.2499999999999948
 40
0.499999999999998
 40
0.499999999999998
 40
1.0
 40
1.0
 40
1.0
 40
1.0
 10
166.9028213215751
 20
154.7285467560871
 30
0.0
 10
166.9148911548509
 20
154.7385638050674
 30
0.0
 10
166.9291668097842
 20
154.7475229121231
 30
0.0
 10
166.9606312219087
 20
154.7553933075173
 30
0.0
 10
166.976131746719
 20
154.753035816875
 30
0.0
 10
167.0115706433259
 20
154.736060124697
 30
0.0
 10
167.0251632594293
 20
154.7155116335294
 30
0.0
 10
167.0581575778221
 20
154.6535693065157
 30
0.0
 10
167.0689449711409
 20
154.6071737563105
 30
0.0
 10
167.09399821842
 20
154.4642377276161
 30
0.0
 10
167.0977982104813
 20
154.3646750107306
 30
0.0
 10
167.0977982104813
 20
154.262907606084
 30
0.0
  0
LINE
  5
D5
330
1F
100
AcDbEntity
  8
0
  6
HIDDEN
 62
     7
370
     0
100
AcDbLine
 10
167.0977982105
 20
137.3041733267
 30
0.0
 11
167.0977982105
 21
154.2629076061
 31
0.0
  0
SPLINE
  5
D6
330
1F
100
AcDbEntity
  8
0
  6
HIDDEN
 62
     7
370
     0
100
AcDbSpline
210
0.0
220
0.0
230
1.0
 70
     8
 71
     3
 72
    16
 73
    12
 74
     0
 42
0.00000001
 43
0.00000001
 12
1.0
 22
0.0
 32
0.0
 13
1.0
 23
0.0
 33
0.0
 40
0.0
 40
0.0
 40
0.0
 40
0.0
 40
0.4999999999999989
 40
0.4999999999999989
 40
0.7499999999999983
 40
0.7499999999999983
 40
0.874999999999998
 40
0.874999999999998
 40
0.937499999999999
 40
0.937499999999999
 40
1.0
 40
1.0
 40
1.0
 40
1.0
 10
167.0977982104812
 20
137.3041733266897
 30
0.0
 10
167.0977982104812
 20
137.2021631731097
 30
0.0
 10
167.0939147853222
 20
137.1026387978565
 30
0.0
 10
167.0690994600476
 20
136.9606537018458
 30
0.0
 10
167.0582600123351
 20
136.9136604012753
 30
0.0
 10
167.0250442302863
 20
136.8513676709137
 30
0.0
 10
167.0116624866574
 20
136.8310862386286
 30
0.0
 10
166.9761528367952
 20
136.8140445304281
 30
0.0
 10
166.9607358702945
 20
136.811658275412
 30
0.0
 10
166.9290348481458
 20
136.8195942052701
 30
0.0
 10
166.9148885631951
 20
136.8285192786446
 30
0.0
 10
166.9028213216054
 20
136.8385341767165
 30
0.0
  0
SPLINE
  5
D7
330
1F
100
AcDbEntity
  8
0
  6
HIDDEN
 62
     7
370
     0
100
AcDbSpline
210
0.0
220
0.0
230
1.0
 70
     8
 71
     3
 72
    18
 73
    14
 74
     0
 42
0.00000001
 43
0.00000001
 12
1.0
 22
0.0
 32
0.0
 13
1.0
 23
0.0
 33
0.0
 40
0.0
 40
0.0
 40
0.0
 40
0.0
 40
0.1249999999999997
 40
0.1249999999999997
 40
0.2499999999999993
 40
0.2499999999999993
 40
0.374999999999999
 40
0.374999999999999
 40
0.4999999999999987
 40
0.4999999999999987
 40
0.7499999999999993
 40
0.7499999999999993
 40
1.0
 40
1.0
 40
1.0
 40
1.0
 10
166.9028213216116
 20
136.8385341767239
 30
0.0
 10
166.8541158294695
 20
136.8789560524054
 30
0.0
 10
166.7956057211426
 20
136.9119881738731
 30
0.0
 10
166.6638766028505
 20
136.925265325826
 30
0.0
 10
166.5991176665099
 20
136.9023117388458
 30
0.0
 10
166.4939066936504
 20
136.8332585419262
 30
0.0
 10
166.4506903182104
 20
136.7887908900853
 30
0.0
 10
166.3745118130985
 20
136.6956212307153
 30
0.0
 10
166.3416568517186
 20
136.6464788611545
 30
0.0
 10
166.2512885718848
 20
136.4952691262146
 30
0.0
 10
166.2018653375147
 20
136.3891143566864
 30
0.0
 10
166.1142168824666
 20
136.1755327410249
 30
0.0
 10
166.0761577102638
 20
136.0675603097897
 30
0.0
 10
166.0417138929182
 20
135.9591005482357
 30
0.0
  0
SPLINE
  5
D8
330
1F
100
AcDbEntity
  8
0
  6
HIDDEN
 62
     7
370
     0
100
AcDbSpline
210
0.0
220
0.0
230
1.0
 70
     8
 71
     3
 72
     8
 73
     4
 74
     0
 42
0.00000001
 43
0.00000001
 12
1.0
 22
0.0
 32
0.0
 13
1.0
 23
0.0
 33
0.0
 40
0.0
 40
0.0
 40
0.0
 40
0.0
 40
1.0
 40
1.0
 40
1.0
 40
1.0
 10
166.0417138929176
 20
135.9591005482351
 30
0.0
 10
166.0174001890275
 20
135.8825393906851
 30
0.0
 10
165.9959035470714
 20
135.8061140195519
 30
0.0
 10
165.9764778669214
 20
135.7300211487802
 30
0.0
  0
SPLINE
  5
D9
330
1F
100
AcDbEntity
  8
0
  6
HIDDEN
 62
     7
370
     0
100
AcDbSpline
210
0.0
220
0.0
230
1.0
 70
     8
 71
     3
 72
     8
 73
     4
 74
     0
 42
0.00000001
 43
0.00000001
 12
1.0
 22
0.0
 32
0.0
 13
1.0
 23
0.0
 33
0.0
 40
0.0
 40
0.0
 40
0.0
 40
0.0
 40
1.0
 40
1.0
 40
1.0
 40
1.0
 10
165.9764778669214
 20
131.9584764583817
 30
0.0
 10
165.9959032938148
 20
131.9549792547945
 30
0.0
 10
166.0173998477838
 20
131.9529629371522
 30
0.0
 10
166.0417138929182
 20
131.9523520837084
 30
0.0
  0
SPLINE
  5
DA
330
1F
100
AcDbEntity
  8
0
  6
HIDDEN
 62
     7
370
     0
100
AcDbSpline
210
0.0
220
0.0
230
1.0
 70
     8
 71
     3
 72
     8
 73
     4
 74
     0
 42
0.00000001
 43
0.00000001
 12
1.0
 22
0.0
 32
0.0
 13
1.0
 23
0.0
 33
0.0
 40
0.0
 40
0.0
 40
0.0
 40
0.0
 40
1.0
 40
1.0
 40
1.0
 40
1.0
 10
167.0749471973751
 20
131.8629936926503
 30
0.0
 10
167.093884129541
 20
131.8350392552487
 30
0.0
 10
167.0977982104813
 20
131.8149554038924
 30
0.0
 10
167.0977982104813
 20
131.798728559727
 30
0.0
  0
LINE
  5
DB
330
1F
100
AcDbEntity
  8
0
  6
HIDDEN
 62
     7
370
     0
100
AcDbLine
 10
167.0977982105
 20
131.6937201875
 30
0.0
 11
167.0977982105
 21
131.7987285597
 31
0.0
  0
LINE
  5
DC
330
1F
100
AcDbEntity
  8
0
  6
HIDDEN
 62
     7
370
     0
100
AcDbLine
 10
167.0977982105
 20
159.768352373
 30
0.0
 11
167.0977982105
 21
159.8733607453
 31
0.0
  0
SPLINE
  5
DD
330
1F
100
AcDbEntity
  8
0
  6
HIDDEN
 62
     7
370
     0
100
AcDbSpline
210
0.0
220
0.0
230
1.0
 70
     8
 71
     3
 72
     8
 73
     4
 74
     0
 42
0.00000001
 43
0.00000001
 12
1.0
 22
0.0
 32
0.0
 13
1.0
 23
0.0
 33
0.0
 40
0.0
 40
0.0
 40
0.0
 40
0.0
 40
1.0
 40
1.0
 40
1.0
 40
1.0
 10
166.0417138929178
 20
159.6147288490655
 30
0.0
 10
166.0173998477836
 20
159.6141179956217
 30
0.0
 10
165.9959032938147
 20
159.6121016779794
 30
0.0
 10
165.9764778669214
 20
159.6086044743921
 30
0.0
  0
SPLINE
  5
DE
330
1F
100
AcDbEntity
  8
0
  6
HIDDEN
 62
     7
370
     0
100
AcDbSpline
210
0.0
220
0.0
230
1.0
 70
     8
 71
     3
 72
     8
 73
     4
 74
     0
 42
0.00000001
 43
0.00000001
 12
1.0
 22
0.0
 32
0.0
 13
1.0
 23
0.0
 33
0.0
 40
0.0
 40
0.0
 40
0.0
 40
0.0
 40
1.0
 40
1.0
 40
1.0
 40
1.0
 10
165.9764778669214
 20
155.8370597839937
 30
0.0
 10
165.9959035470714
 20
155.760966913222
 30
0.0
 10
166.0174001890275
 20
155.6845415420888
 30
0.0
 10
166.0417138929176
 20
155.6079803845388
 30
0.0
  0
SPLINE
  5
DF
330
1F
100
AcDbEntity
  8
0
  6
HIDDEN
 62
     7
370
     0
100
AcDbSpline
210
0.0
220
0.0
230
1.0
 70
     8
 71
     3
 72
    28
 73
    24
 74
     0
 42
0.00000001
 43
0.00000001
 12
1.0
 22
0.0
 32
0.0
 13
1.0
 23
0.0
 33
0.0
 40
0.0
 40
0.0
 40
0.0
 40
0.0
 40
0.1249999999999995
 40
0.1249999999999995
 40
0.2499999999999991
 40
0.2499999999999991
 40
0.3749999999999986
 40
0.3749999999999986
 40
0.4374999999999984
 40
0.4374999999999984
 40
0.4999999999999983
 40
0.4999999999999983
 40
0.6249999999999981
 40
0.6249999999999981
 40
0.7499999999999978
 40
0.7499999999999978
 40
0.8124999999999983
 40
0.8124999999999983
 40
0.8749999999999989
 40
0.8749999999999989
 40
0.9374999999999994
 40
0.9374999999999994
 40
1.0
 40
1.0
 40
1.0
 40
1.0
 10
207.2977982104812
 20
145.2964956798317
 30
0.0
 10
207.4239773213676
 20
145.2493499522586
 30
0.0
 10
207.5527603962963
 20
145.2478164978893
 30
0.0
 10
207.8148098372578
 20
145.3319529722773
 30
0.0
 10
207.9426884520267
 20
145.4160157985269
 30
0.0
 10
208.1801848536225
 20
145.6616670614389
 30
0.0
 10
208.2861990517824
 20
145.8191983197245
 30
0.0
 10
208.4044238543327
 20
146.1045674545134
 30
0.0
 10
208.4359133565376
 20
146.2058646265608
 30
0.0
 10
208.4793561376639
 20
146.4210263237714
 30
0.0
 10
208.4910711069149
 20
146.5362096182372
 30
0.0
 10
208.491388719498
 20
146.8854047510229
 30
0.0
 10
208.4443120697127
 20
147.1313060160407
 30
0.0
 10
208.288330552773
 20
147.6081566374879
 30
0.0
 10
208.1806964472396
 20
147.8427228185833
 30
0.0
 10
208.0036689762977
 20
148.1712256738416
 30
0.0
 10
207.9409699155484
 20
148.2785396705854
 30
0.0
 10
207.8143971192768
 20
148.4807855461164
 30
0.0
 10
207.7501932823026
 20
148.5764180102898
 30
0.0
 10
207.6203928619996
 20
148.7567248093065
 30
0.0
 10
207.5542909748407
 20
148.8419150535136
 30
0.0
 10
207.4247384883479
 20
148.9952206414646
 30
0.0
 10
207.3609054811754
 20
149.0639603731272
 30
0.0
 10
207.2977982104812
 20
149.1243592686104
 30
0.0
  0
SPLINE
  5
E0
330
1F
100
AcDbEntity
  8
0
  6
HIDDEN
 62
     7
370
     0
100
AcDbSpline
210
0.0
220
0.0
230
1.0
 70
     8
 71
     3
 72
    40
 73
    36
 74
     0
 42
0.00000001
 43
0.00000001
 12
1.0
 22
0.0
 32
0.0
 13
1.0
 23
0.0
 33
0.0
 40
0.0
 40
0.0
 40
0.0
 40
0.0
 40
0.1250000000000023
 40
0.1250000000000023
 40
0.1875000000000035
 40
0.1875000000000035
 40
0.2500000000000047
 40
0.2500000000000047
 40
0.3125000000000058
 40
0.3125000000000058
 40
0.3437500000000057
 40
0.3437500000000057
 40
0.3750000000000056
 40
0.3750000000000056
 40
0.4375000000000052
 40
0.4375000000000052
 40
0.4687500000000046
 40
0.4687500000000046
 40
0.500000000000004
 40
0.500000000000004
 40
0.5312500000000034
 40
0.5312500000000034
 40
0.5625000000000028
 40
0.5625000000000028
 40
0.6250000000000024
 40
0.6250000000000024
 40
0.687500000000002
 40
0.687500000000002
 40
0.7500000000000017
 40
0.7500000000000017
 40
0.8125000000000012
 40
0.8125000000000012
 40
0.8750000000000009
 40
0.8750000000000009
 40
1.0
 40
1.0
 40
1.0
 40
1.0
 10
207.2977982104812
 20
149.1243592686104
 30
0.0
 10
206.7485406858951
 20
149.1440630359403
 30
0.0
 10
206.2003412555456
 20
149.1497031976698
 30
0.0
 10
205.3803894155906
 20
149.1274545164827
 30
0.0
 10
205.107469671851
 20
149.1148153657686
 30
0.0
 10
204.5627025400372
 20
149.0747112984647
 30
0.0
 10
204.2895093728064
 20
149.0471663845561
 30
0.0
 10
203.7513830781635
 20
148.96949945724
 30
0.0
 10
203.48762585693
 20
148.9198353939181
 30
0.0
 10
203.1039347461238
 20
148.8178113286969
 30
0.0
 10
202.978049595556
 20
148.7791471772194
 30
0.0
 10
202.731490042025
 20
148.6889018632319
 30
0.0
 10
202.6107422234804
 20
148.6371633659526
 30
0.0
 10
202.2690249867598
 20
148.4595441900984
 30
0.0
 10
202.0628008675448
 20
148.3080912343291
 30
0.0
 10
201.8371690146478
 20
148.0182423021245
 30
0.0
 10
201.7750172911872
 20
147.909072773087
 30
0.0
 10
201.6912259453982
 20
147.6768017641374
 30
0.0
 10
201.6685329522893
 20
147.5502084624867
 30
0.0
 10
201.6675075156767
 20
147.2952877076824
 30
0.0
 10
201.6890342090165
 20
147.1634922201998
 30
0.0
 10
201.7712101168563
 20
146.9103520394841
 30
0.0
 10
201.8322977563845
 20
146.7869114040085
 30
0.0
 10
202.0571479260857
 20
146.4449510240555
 30
0.0
 10
202.2634476678469
 20
146.2512430879887
 30
0.0
 10
202.7158489016954
 20
145.9378568201402
 30
0.0
 10
202.9673860442884
 20
145.8133227710632
 30
0.0
 10
203.4808198271084
 20
145.6149559202946
 30
0.0
 10
203.7447778374219
 20
145.5396756065743
 30
0.0
 10
204.2821856294913
 20
145.4203117717491
 30
0.0
 10
204.5561868044682
 20
145.3764948423993
 30
0.0
 10
205.1026103912133
 20
145.3123461442818
 30
0.0
 10
205.3762752076113
 20
145.2917902548376
 30
0.0
 10
206.1982744323017
 20
145.2555614316533
 30
0.0
 10
206.7475922332534
 20
145.2647746488407
 30
0.0
 10
207.2977982104812
 20
145.2964956798317
 30
0.0
  0
LINE
  5
E1
330
1F
100
AcDbEntity
  8
0
  6
HIDDEN
 62
     7
370
     0
100
AcDbLine
 10
229.2977982105
 20
152.5420155057
 30
0.0
 11
229.2977982105
 21
148.3109475821
 31
0.0
  0
LINE
  5
E2
330
1F
100
AcDbEntity
  8
0
  6
HIDDEN
 62
     7
370
     0
100
AcDbLine
 10
167.0977982105
 20
131.7987285597
 30
0.0
 11
167.0977982105
 21
140.2780956994
 31
0.0
  0
LINE
  5
E3
330
1F
100
AcDbEntity
  8
0
  6
HIDDEN
 62
     7
370
     0
100
AcDbLine
 10
167.0977982105
 20
151.2889852333
 30
0.0
 11
167.0977982105
 21
159.768352373
 31
0.0
  0
CIRCLE
  5
E4
330
1F
100
AcDbEntity
  8
0
  6
HIDDEN
 62
     7
370
     0
100
AcDbCircle
 10
155.7977982105
 20
145.7835404664
 30
0.0
 40
2.300000000000011
  0
LINE
  5
E5
330
1F
100
AcDbEntity
  8
0
  6
HIDDEN
 62
     7
370
     0
100
AcDbLine
 10
144.3248302425
 20
155.3462337705
 30
0.0
 11
144.3248302425
 21
136.2208471623
 31
0.0
  0
LINE
  5
E6
330
1F
100
AcDbEntity
  8
0
  6
HIDDEN
 62
     7
370
     0
100
AcDbLine
 10
143.2977982105
 20
135.6278899421
 30
0.0
 11
143.2977982105
 21
155.9226281801
 31
0.0
  0
LINE
  5
E7
330
1F
100
AcDbEntity
  8
0
  6
HIDDEN
 62
     7
370
     0
100
AcDbLine
 10
147.8248302425
 20
155.0144805741
 30
0.0
 11
147.8248302425
 21
136.5526003587
 31
0.0
  0
LINE
  5
E8
330
1F
100
AcDbEntity
  8
0
  6
HIDDEN
 62
     7
370
     0
100
AcDbLine
 10
151.2248302425
 20
154.7835404664
 30
0.0
 11
151.2248302425
 21
136.7835404664
 31
0.0
  0
LINE
  5
E9
330
1F
100
AcDbEntity
  8
0
  6
HIDDEN
 62
     7
370
     0
100
AcDbLine
 10
146.4248302425
 20
154.7835404664
 30
0.0
 11
146.4248302425
 21
136.7835404664
 31
0.0
  0
LINE
  5
EA
330
1F
100
AcDbEntity
  8
0
  6
HIDDEN
 62
     7
370
     0
100
AcDbLine
 10
147.4248302425
 20
154.7835404664
 30
0.0
 11
147.4248302425
 21
136.7835404664
 31
0.0
  0
SPLINE
  5
EB
330
1F
100
AcDbEntity
  8
0
  6
HIDDEN
 62
     7
370
     0
100
AcDbSpline
210
0.0
220
0.0
230
1.0
 70
     8
 71
     3
 72
    14
 73
    10
 74
     0
 42
0.00000001
 43
0.00000001
 12
1.0
 22
0.0
 32
0.0
 13
1.0
 23
0.0
 33
0.0
 40
0.0
 40
0.0
 40
0.0
 40
0.0
 40
0.2500000000000001
 40
0.2500000000000001
 40
0.5000000000000001
 40
0.5000000000000001
 40
0.75
 40
0.75
 40
1.0
 40
1.0
 40
1.0
 40
1.0
 10
157.7977982104811
 20
146.919322135547
 30
0.0
 10
157.8960225569841
 20
146.7463587057435
 30
0.0
 10
157.9713373949682
 20
146.5613261513191
 30
0.0
 10
158.0723041051625
 20
146.1783139371846
 30
0.0
 10
158.0976796914527
 20
145.983595383719
 30
0.0
 10
158.097915916719
 20
145.5862200824534
 30
0.0
 10
158.0722128473835
 20
145.388727747978
 30
0.0
 10
157.971892733867
 20
145.007555913347
 30
0.0
 10
157.8960009057794
 20
144.8206841013744
 30
0.0
 10
157.7977982104857
 20
144.6477587972245
 30
0.0
  0
LINE
  5
EC
330
1F
100
AcDbEntity
  8
0
  6
HIDDEN
 62
     7
370
     0
100
AcDbLine
 10
158.2977982105
 20
154.2835404071
 30
0.0
 11
158.2977982105
 21
137.2835404664
 31
0.0
  0
SPLINE
  5
ED
330
1F
100
AcDbEntity
  8
0
  6
HIDDEN
 62
     7
370
     0
100
AcDbSpline
210
0.0
220
0.0
230
1.0
 70
     8
 71
     3
 72
    14
 73
    10
 74
     0
 42
0.00000001
 43
0.00000001
 12
1.0
 22
0.0
 32
0.0
 13
1.0
 23
0.0
 33
0.0
 40
0.0
 40
0.0
 40
0.0
 40
0.0
 40
0.2500000000000001
 40
0.2500000000000001
 40
0.5000000000000001
 40
0.5000000000000001
 40
0.75
 40
0.75
 40
1.0
 40
1.0
 40
1.0
 40
1.0
 10
157.7977982104811
 20
144.6477587972269
 30
0.0
 10
157.8960225569841
 20
144.8207222270304
 30
0.0
 10
157.9713373949682
 20
145.0057547814548
 30
0.0
 10
158.0723041051625
 20
145.3887669955893
 30
0.0
 10
158.0976796914527
 20
145.5834855490549
 30
0.0
 10
158.097915916719
 20
145.9808608503205
 30
0.0
 10
158.0722128473835
 20
146.1783531847959
 30
0.0
 10
157.971892733867
 20
146.5595250194269
 30
0.0
 10
157.8960009057794
 20
146.7463968313995
 30
0.0
 10
157.7977982104857
 20
146.9193221355494
 30
0.0
  0
SPLINE
  5
EE
330
1F
100
AcDbEntity
  8
0
  6
HIDDEN
 62
     7
370
     0
100
AcDbSpline
210
0.0
220
0.0
230
1.0
 70
     8
 71
     3
 72
    60
 73
    56
 74
     0
 42
0.00000001
 43
0.00000001
 12
1.0
 22
0.0
 32
0.0
 13
1.0
 23
0.0
 33
0.0
 40
0.0
 40
0.0
 40
0.0
 40
0.0
 40
0.0625000000000005
 40
0.0625000000000005
 40
0.125000000000001
 40
0.125000000000001
 40
0.1875000000000014
 40
0.1875000000000014
 40
0.2187500000000015
 40
0.2187500000000015
 40
0.2500000000000016
 40
0.2500000000000016
 40
0.3125000000000017
 40
0.3125000000000017
 40
0.3750000000000017
 40
0.3750000000000017
 40
0.4062500000000017
 40
0.4062500000000017
 40
0.4375000000000016
 40
0.4375000000000016
 40
0.4687500000000016
 40
0.4687500000000016
 40
0.5000000000000014
 40
0.5000000000000014
 40
0.5312500000000014
 40
0.5312500000000014
 40
0.5625000000000013
 40
0.5625000000000013
 40
0.5937500000000013
 40
0.5937500000000013
 40
0.6250000000000012
 40
0.6250000000000012
 40
0.6562500000000011
 40
0.6562500000000011
 40
0.687500000000001
 40
0.687500000000001
 40
0.7187500000000009
 40
0.7187500000000009
 40
0.7500000000000008
 40
0.7500000000000008
 40
0.7812500000000008
 40
0.7812500000000008
 40
0.8125000000000007
 40
0.8125000000000007
 40
0.8437500000000006
 40
0.8437500000000006
 40
0.8750000000000004
 40
0.8750000000000004
 40
0.9062500000000003
 40
0.9062500000000003
 40
0.9375000000000003
 40
0.9375000000000003
 40
0.9687500000000002
 40
0.9687500000000002
 40
1.0
 40
1.0
 40
1.0
 40
1.0
 10
157.7977982104811
 20
144.6477587972269
 30
0.0
 10
157.6726083089025
 20
144.4273116726113
 30
0.0
 10
157.5157409903343
 20
144.233577943791
 30
0.0
 10
157.1387034705155
 20
143.8978882450285
 30
0.0
 10
156.9269901640945
 20
143.7639108867158
 30
0.0
 10
156.4611001821457
 20
143.5667841420307
 30
0.0
 10
156.2152609510941
 20
143.5075667298088
 30
0.0
 10
155.8357798979995
 20
143.4803599939181
 30
0.0
 10
155.7080341693056
 20
143.48185325906
 30
0.0
 10
155.4575679226375
 20
143.5053690648689
 30
0.0
 10
155.3337385398293
 20
143.5272882836732
 30
0.0
 10
154.9665188657306
 20
143.6241248485181
 30
0.0
 10
154.7357498476449
 20
143.7279259699699
 30
0.0
 10
154.3158608862254
 20
144.0066444508979
 30
0.0
 10
154.1316025113378
 20
144.1782067424016
 30
0.0
 10
153.9008541238545
 20
144.4768541036684
 30
0.0
 10
153.8318072740655
 20
144.5833216441707
 30
0.0
 10
153.71324261026
 20
144.8036049925636
 30
0.0
 10
153.6630342415104
 20
144.918266508965
 30
0.0
 10
153.5812023891526
 20
145.1569471457418
 30
0.0
 10
153.5498514902699
 20
145.2809927726199
 30
0.0
 10
153.5084571122313
 20
145.5291078087283
 30
0.0
 10
153.497951337167
 20
145.6543455112167
 30
0.0
 10
153.4976483848313
 20
145.9072245668077
 30
0.0
 10
153.5081329144478
 20
146.0351042530444
 30
0.0
 10
153.5492729919093
 20
146.2835263142499
 30
0.0
 10
153.5798511124579
 20
146.4053252410182
 30
0.0
 10
153.6611338208091
 20
146.6441047704925
 30
0.0
 10
153.7121347073711
 20
146.7611463327992
 30
0.0
 10
153.8307017557341
 20
146.9819715307251
 30
0.0
 10
153.8985905090059
 20
147.0869098942879
 30
0.0
 10
154.0517409467435
 20
147.2858872275173
 30
0.0
 10
154.137297118316
 20
147.3798953527114
 30
0.0
 10
154.3200084892752
 20
147.5503880376482
 30
0.0
 10
154.4178157889571
 20
147.6278262326975
 30
0.0
 10
154.6266189008741
 20
147.7669921285858
 30
0.0
 10
154.738201076162
 20
147.8287739375928
 30
0.0
 10
154.966846875661
 20
147.9318528081936
 30
0.0
 10
155.0848016866321
 20
147.9738568433892
 30
0.0
 10
155.3281301316208
 20
148.038592964686
 30
0.0
 10
155.4544740069639
 20
148.0612662272487
 30
0.0
 10
155.7055799879817
 20
148.0851490234298
 30
0.0
 10
155.8312619817047
 20
148.0867523246965
 30
0.0
 10
156.0828840514965
 20
148.0692855859256
 30
0.0
 10
156.2097816717823
 20
148.0498496952857
 30
0.0
 10
156.4549722380434
 20
147.991256523962
 30
0.0
 10
156.5741613950769
 20
147.9521936728054
 30
0.0
 10
156.8058464194317
 20
147.8546839506816
 30
0.0
 10
156.9190212237822
 20
147.795648596393
 30
0.0
 10
157.1310996407179
 20
147.6618448795535
 30
0.0
 10
157.2308884194188
 20
147.5868496634088
 30
0.0
 10
157.4181466064077
 20
147.4206545988879
 30
0.0
 10
157.5060416433511
 20
147.3287604001464
 30
0.0
 10
157.664262718983
 20
147.1333962024321
 30
0.0
 10
157.7352006752747
 20
147.0295502487596
 30
0.0
 10
157.7977982104811
 20
146.919322135547
 30
0.0
  0
SPLINE
  5
EF
330
1F
100
AcDbEntity
  8
0
  6
HIDDEN
 62
     7
370
     0
100
AcDbSpline
210
0.0
220
0.0
230
1.0
 70
     8
 71
     3
 72
    60
 73
    56
 74
     0
 42
0.00000001
 43
0.00000001
 12
1.0
 22
0.0
 32
0.0
 13
1.0
 23
0.0
 33
0.0
 40
0.0
 40
0.0
 40
0.0
 40
0.0
 40
0.0625000000000005
 40
0.0625000000000005
 40
0.125000000000001
 40
0.125000000000001
 40
0.1875000000000014
 40
0.1875000000000014
 40
0.2187500000000015
 40
0.2187500000000015
 40
0.2500000000000016
 40
0.2500000000000016
 40
0.3125000000000017
 40
0.3125000000000017
 40
0.3750000000000017
 40
0.3750000000000017
 40
0.4062500000000017
 40
0.4062500000000017
 40
0.4375000000000016
 40
0.4375000000000016
 40
0.4687500000000016
 40
0.4687500000000016
 40
0.5000000000000014
 40
0.5000000000000014
 40
0.5312500000000014
 40
0.5312500000000014
 40
0.5625000000000013
 40
0.5625000000000013
 40
0.5937500000000013
 40
0.5937500000000013
 40
0.6250000000000012
 40
0.6250000000000012
 40
0.6562500000000011
 40
0.6562500000000011
 40
0.687500000000001
 40
0.687500000000001
 40
0.7187500000000009
 40
0.7187500000000009
 40
0.7500000000000008
 40
0.7500000000000008
 40
0.7812500000000008
 40
0.7812500000000008
 40
0.8125000000000007
 40
0.8125000000000007
 40
0.8437500000000006
 40
0.8437500000000006
 40
0.8750000000000004
 40
0.8750000000000004
 40
0.9062500000000003
 40
0.9062500000000003
 40
0.9375000000000003
 40
0.9375000000000003
 40
0.9687500000000002
 40
0.9687500000000002
 40
1.0
 40
1.0
 40
1.0
 40
1.0
 10
157.7977982104811
 20
146.919322135547
 30
0.0
 10
157.6726083089025
 20
147.1397692601626
 30
0.0
 10
157.5157409903343
 20
147.3335029889829
 30
0.0
 10
157.1387034705155
 20
147.6691926877454
 30
0.0
 10
156.9269901640945
 20
147.8031700460581
 30
0.0
 10
156.4611001821457
 20
148.0002967907432
 30
0.0
 10
156.2152609510941
 20
148.0595142029651
 30
0.0
 10
155.8357798979995
 20
148.0867209388557
 30
0.0
 10
155.7080341693056
 20
148.0852276737139
 30
0.0
 10
155.4575679226375
 20
148.061711867905
 30
0.0
 10
155.3337385398293
 20
148.0397926491007
 30
0.0
 10
154.9665188657306
 20
147.9429560842558
 30
0.0
 10
154.7357498476449
 20
147.839154962804
 30
0.0
 10
154.3158608862254
 20
147.560436481876
 30
0.0
 10
154.1316025113378
 20
147.3888741903723
 30
0.0
 10
153.9008541238545
 20
147.0902268291055
 30
0.0
 10
153.8318072740655
 20
146.9837592886032
 30
0.0
 10
153.71324261026
 20
146.7634759402102
 30
0.0
 10
153.6630342415104
 20
146.6488144238088
 30
0.0
 10
153.5812023891526
 20
146.4101337870321
 30
0.0
 10
153.5498514902699
 20
146.286088160154
 30
0.0
 10
153.5084571122313
 20
146.0379731240456
 30
0.0
 10
153.497951337167
 20
145.9127354215572
 30
0.0
 10
153.4976483848313
 20
145.6598563659661
 30
0.0
 10
153.5081329144478
 20
145.5319766797295
 30
0.0
 10
153.5492729919093
 20
145.2835546185241
 30
0.0
 10
153.5798511124579
 20
145.1617556917557
 30
0.0
 10
153.6611338208091
 20
144.9229761622813
 30
0.0
 10
153.7121347073711
 20
144.8059345999747
 30
0.0
 10
153.8307017557341
 20
144.5851094020488
 30
0.0
 10
153.8985905090059
 20
144.480171038486
 30
0.0
 10
154.0517409467435
 20
144.2811937052566
 30
0.0
 10
154.137297118316
 20
144.1871855800624
 30
0.0
 10
154.3200084892752
 20
144.0166928951257
 30
0.0
 10
154.4178157889571
 20
143.9392547000764
 30
0.0
 10
154.6266189008741
 20
143.8000888041881
 30
0.0
 10
154.738201076162
 20
143.7383069951811
 30
0.0
 10
154.966846875661
 20
143.6352281245803
 30
0.0
 10
155.0848016866321
 20
143.5932240893846
 30
0.0
 10
155.3281301316208
 20
143.5284879680879
 30
0.0
 10
155.4544740069639
 20
143.5058147055252
 30
0.0
 10
155.7055799879817
 20
143.481931909344
 30
0.0
 10
155.8312619817047
 20
143.4803286080773
 30
0.0
 10
156.0828840514965
 20
143.4977953468482
 30
0.0
 10
156.2097816717823
 20
143.5172312374882
 30
0.0
 10
156.4549722380434
 20
143.5758244088119
 30
0.0
 10
156.5741613950769
 20
143.6148872599685
 30
0.0
 10
156.8058464194317
 20
143.7123969820923
 30
0.0
 10
156.9190212237822
 20
143.7714323363809
 30
0.0
 10
157.1310996407179
 20
143.9052360532204
 30
0.0
 10
157.2308884194188
 20
143.9802312693651
 30
0.0
 10
157.4181466064077
 20
144.1464263338859
 30
0.0
 10
157.5060416433511
 20
144.2383205326275
 30
0.0
 10
157.664262718983
 20
144.4336847303418
 30
0.0
 10
157.7352006752747
 20
144.5375306840143
 30
0.0
 10
157.7977982104811
 20
144.6477587972269
 30
0.0
  0
LINE
  5
F0
330
1F
100
AcDbEntity
  8
0
  6
HIDDEN
 62
     7
370
     0
100
AcDbLine
 10
159.1977982105
 20
152.0335404664
 30
0.0
 11
159.1977982105
 21
139.5335404664
 31
0.0
  0
LINE
  5
F1
330
1F
100
AcDbEntity
  8
0
  6
HIDDEN
 62
     7
370
     0
100
AcDbLine
 10
158.2977982105
 20
138.6335404664
 30
0.0
 11
158.2977982105
 21
152.9335404664
 31
0.0
  0
LINE
  5
F2
330
1F
100
AcDbEntity
  8
0
  6
HIDDEN
 62
     7
370
     0
100
AcDbLine
 10
178.2977982105
 20
152.0335404664
 30
0.0
 11
178.2977982105
 21
139.5335404664
 31
0.0
  0
LINE
  5
F3
330
1F
100
AcDbEntity
  8
0
  6
HIDDEN
 62
     7
370
     0
100
AcDbLine
 10
179.4995194485
 20
150.0335404664
 30
0.0
 11
179.4995194485
 21
141.5335404664
 31
0.0
  0
LINE
  5
F4
330
1F
100
AcDbEntity
  8
0
  6
HIDDEN
 62
     7
370
     0
100
AcDbLine
 10
192.2977982105
 20
175.7835404664
 30
0.0
 11
192.2977982105
 21
155.7835404664
 31
0.0
  0
LINE
  5
F5
330
1F
100
AcDbEntity
  8
0
  6
HIDDEN
 62
     7
370
     0
100
AcDbLine
 10
192.2977982105
 20
155.7835404664
 30
0.0
 11
200.7977982105
 21
155.7835404664
 31
0.0
  0
LINE
  5
F6
330
1F
100
AcDbEntity
  8
0
  6
HIDDEN
 62
     7
370
     0
100
AcDbLine
 10
200.7977982105
 20
175.7835404664
 30
0.0
 11
200.7977982105
 21
155.7835404664
 31
0.0
  0
LINE
  5
F7
330
1F
100
AcDbEntity
  8
0
  6
HIDDEN
 62
     7
370
     0
100
AcDbLine
 10
200.7977982105
 20
175.7835404664
 30
0.0
 11
192.2977982105
 21
175.7835404664
 31
0.0
  0
LINE
  5
F8
330
1F
100
AcDbEntity
  8
0
  6
HIDDEN
 62
     7
370
     0
100
AcDbLine
 10
207.2977982105
 20
141.5335404664
 30
0.0
 11
207.2977982105
 21
150.0335404664
 31
0.0
  0
LINE
  5
F9
330
1F
100
AcDbEntity
  8
0
  6
HIDDEN
 62
     7
370
     0
100
AcDbLine
 10
200.7977982105
 20
155.7835404664
 30
0.0
 11
237.2977982105
 21
155.7835404664
 31
0.0
  0
CIRCLE
  5
FA
330
1F
100
AcDbEntity
  8
0
  6
HIDDEN
 62
     7
370
     0
100
AcDbCircle
 10
229.2977982105
 20
165.7835404664
 30
0.0
 40
4.249999999999972
  0
CIRCLE
  5
FB
330
1F
100
AcDbEntity
  8
0
  6
HIDDEN
 62
     7
370
     0
100
AcDbCircle
 10
209.2977982105
 20
165.7835404664
 30
0.0
 40
4.249999999999972
  0
LINE
  5
FC
330
1F
100
AcDbEntity
  8
0
  6
HIDDEN
 62
     7
370
     0
100
AcDbLine
 10
237.2977982105
 20
174.7835404664
 30
0.0
 11
237.2977982105
 21
155.7835404664
 31
0.0
  0
LINE
  5
FD
330
1F
100
AcDbEntity
  8
0
  6
HIDDEN
 62
     7
370
     0
100
AcDbLine
 10
236.2977982105
 20
175.7835404664
 30
0.0
 11
200.7977982105
 21
175.7835404664
 31
0.0
  0
LINE
  5
FE
330
1F
100
AcDbEntity
  8
0
  6
HIDDEN
 62
     7
370
     0
100
AcDbLine
 10
236.2977982105
 20
175.7835404664
 30
0.0
 11
237.2977982105
 21
174.7835404664
 31
0.0
  0
LINE
  5
FF
330
1F
100
AcDbEntity
  8
0
  6
HIDDEN
 62
     7
370
     0
100
AcDbLine
 10
165.5977982105
 20
131.8633040781
 30
0.0
 11
165.5977982105
 21
131.7634416818
 31
0.0
  0
SPLINE
  5
100
330
1F
100
AcDbEntity
  8
0
  6
HIDDEN
 62
     7
370
     0
100
AcDbSpline
210
0.0
220
0.0
230
1.0
 70
     8
 71
     3
 72
    24
 73
    20
 74
     0
 42
0.00000001
 43
0.00000001
 12
1.0
 22
0.0
 32
0.0
 13
1.0
 23
0.0
 33
0.0
 40
0.0
 40
0.0
 40
0.0
 40
0.0
 40
0.2499999999999953
 40
0.2499999999999953
 40
0.3749999999999938
 40
0.3749999999999938
 40
0.437499999999993
 40
0.437499999999993
 40
0.4687499999999926
 40
0.4687499999999926
 40
0.4999999999999921
 40
0.4999999999999921
 40
0.5624999999999929
 40
0.5624999999999929
 40
0.6249999999999938
 40
0.6249999999999938
 40
0.749999999999995
 40
0.749999999999995
 40
1.0
 40
1.0
 40
1.0
 40
1.0
 10
165.5977982104811
 20
131.8633040780795
 30
0.0
 10
165.5982011211169
 20
131.8937283149175
 30
0.0
 10
165.6002451004575
 20
131.9265864154717
 30
0.0
 10
165.6094823432836
 20
131.9826117826252
 30
0.0
 10
165.6133694062642
 20
132.0022228358106
 30
0.0
 10
165.6242732976707
 20
132.0364971192402
 30
0.0
 10
165.6284153434212
 20
132.0485595447124
 30
0.0
 10
165.6403104171739
 20
132.0708787094119
 30
0.0
 10
165.6455574814827
 20
132.0798452217721
 30
0.0
 10
165.6624245478618
 20
132.0974947862985
 30
0.0
 10
165.6702469553869
 20
132.1016390704383
 30
0.0
 10
165.6871957560085
 20
132.1081266116123
 30
0.0
 10
165.6946521072265
 20
132.1075297302407
 30
0.0
 10
165.708712010419
 20
132.1057834662686
 30
0.0
 10
165.7148443955549
 20
132.1039527783701
 30
0.0
 10
165.7321391580781
 20
132.0973863687973
 30
0.0
 10
165.7421564764871
 20
132.0915211536386
 30
0.0
 10
165.7705278107299
 20
132.0727764696083
 30
0.0
 10
165.7870632483743
 20
132.0586123215216
 30
0.0
 10
165.8027582325388
 20
132.0444559352294
 30
0.0
  0
LINE
  5
101
330
1F
100
AcDbEntity
  8
0
  6
HIDDEN
 62
     7
370
     0
100
AcDbLine
 10
144.7977982105
 20
136.1259295467
 30
0.0
 11
144.7977982105
 21
132.2860100805
 31
0.0
  0
LINE
  5
102
330
1F
100
AcDbEntity
  8
0
  6
HIDDEN
 62
     7
370
     0
100
AcDbLine
 10
143.2977982105
 20
136.5589422485
 30
0.0
 11
143.2977982105
 21
133.1520354843
 31
0.0
  0
LINE
  5
103
330
1F
100
AcDbEntity
  8
0
  6
HIDDEN
 62
     7
370
     0
100
AcDbLine
 10
165.5977982105
 20
135.8646453473
 30
0.0
 11
165.5977982105
 21
134.8095024741
 31
0.0
  0
SPLINE
  5
104
330
1F
100
AcDbEntity
  8
0
  6
HIDDEN
 62
     7
370
     0
100
AcDbSpline
210
0.0
220
0.0
230
1.0
 70
     8
 71
     3
 72
    16
 73
    12
 74
     0
 42
0.00000001
 43
0.00000001
 12
1.0
 22
0.0
 32
0.0
 13
1.0
 23
0.0
 33
0.0
 40
0.0
 40
0.0
 40
0.0
 40
0.0
 40
0.2499999999999995
 40
0.2499999999999995
 40
0.3749999999999996
 40
0.3749999999999996
 40
0.4999999999999997
 40
0.4999999999999997
 40
0.7499999999999998
 40
0.7499999999999998
 40
1.0
 40
1.0
 40
1.0
 40
1.0
 10
165.597798210481
 20
134.8095024741405
 30
0.0
 10
165.5172608785819
 20
134.4204952901965
 30
0.0
 10
165.4572235345546
 20
134.0639948485722
 30
0.0
 10
165.396485827401
 20
133.5774924633849
 30
0.0
 10
165.381163452288
 20
133.4234135225314
 30
0.0
 10
165.3605806429838
 20
133.1319439640388
 30
0.0
 10
165.355381045958
 20
132.9943740801399
 30
0.0
 10
165.3553273927777
 20
132.6161292449506
 30
0.0
 10
165.3755249362552
 20
132.4062481763985
 30
0.0
 10
165.4562030246126
 20
132.0696688774867
 30
0.0
 10
165.5172491892197
 20
131.9433843855682
 30
0.0
 10
165.5977982104773
 20
131.8633040780757
 30
0.0
  0
SPLINE
  5
105
330
1F
100
AcDbEntity
  8
0
  6
HIDDEN
 62
     7
370
     0
100
AcDbSpline
210
0.0
220
0.0
230
1.0
 70
     8
 71
     3
 72
     8
 73
     4
 74
     0
 42
0.00000001
 43
0.00000001
 12
1.0
 22
0.0
 32
0.0
 13
1.0
 23
0.0
 33
0.0
 40
0.0
 40
0.0
 40
0.0
 40
0.0
 40
1.0
 40
1.0
 40
1.0
 40
1.0
 10
165.8027582325388
 20
132.0444559352293
 30
0.0
 10
165.8534853757454
 20
131.9987016339041
 30
0.0
 10
165.9113727053063
 20
131.9701974880406
 30
0.0
 10
165.9764778669215
 20
131.9584764583818
 30
0.0
  0
LINE
  5
106
330
1F
100
AcDbEntity
  8
0
  6
HIDDEN
 62
     7
370
     0
100
AcDbLine
 10
144.7977982105
 20
159.2810708522
 30
0.0
 11
144.7977982105
 21
155.4411513861
 31
0.0
  0
LINE
  5
107
330
1F
100
AcDbEntity
  8
0
  6
HIDDEN
 62
     7
370
     0
100
AcDbLine
 10
143.2977982105
 20
158.4150454484
 30
0.0
 11
143.2977982105
 21
155.0081386842
 31
0.0
  0
LINE
  5
108
330
1F
100
AcDbEntity
  8
0
  6
HIDDEN
 62
     7
370
     0
100
AcDbLine
 10
165.5977982105
 20
159.803639251
 30
0.0
 11
165.5977982105
 21
159.7037768547
 31
0.0
  0
LINE
  5
109
330
1F
100
AcDbEntity
  8
0
  6
HIDDEN
 62
     7
370
     0
100
AcDbLine
 10
165.5977982105
 20
156.7575784586
 30
0.0
 11
165.5977982105
 21
155.7024355855
 31
0.0
  0
SPLINE
  5
10A
330
1F
100
AcDbEntity
  8
0
  6
HIDDEN
 62
     7
370
     0
100
AcDbSpline
210
0.0
220
0.0
230
1.0
 70
     8
 71
     3
 72
    16
 73
    12
 74
     0
 42
0.00000001
 43
0.00000001
 12
1.0
 22
0.0
 32
0.0
 13
1.0
 23
0.0
 33
0.0
 40
0.0
 40
0.0
 40
0.0
 40
0.0
 40
0.2500000000000003
 40
0.2500000000000003
 40
0.3750000000000003
 40
0.3750000000000003
 40
0.5000000000000002
 40
0.5000000000000002
 40
0.7500000000000001
 40
0.7500000000000001
 40
1.0
 40
1.0
 40
1.0
 40
1.0
 10
165.597798210481
 20
159.7037768547019
 30
0.0
 10
165.5172608785817
 20
159.6237081685495
 30
0.0
 10
165.4572235345544
 20
159.4998436770592
 30
0.0
 10
165.3964858274007
 20
159.2491628531271
 30
0.0
 10
165.3811634522878
 20
159.1547242488176
 30
0.0
 10
165.3605806429836
 20
158.9434131811989
 30
0.0
 10
165.355381045958
 20
158.8261237264453
 30
0.0
 10
165.3553273927779
 20
158.44808805469
 30
0.0
 10
165.3755249362556
 20
158.1593109009459
 30
0.0
 10
165.4562030246136
 20
157.5094710378071
 30
0.0
 10
165.517249189221
 20
157.1466421039144
 30
0.0
 10
165.5977982104791
 20
156.7575784586427
 30
0.0
  0
SPLINE
  5
10B
330
1F
100
AcDbEntity
  8
0
  6
HIDDEN
 62
     7
370
     0
100
AcDbSpline
210
0.0
220
0.0
230
1.0
 70
     8
 71
     3
 72
    24
 73
    20
 74
     0
 42
0.00000001
 43
0.00000001
 12
1.0
 22
0.0
 32
0.0
 13
1.0
 23
0.0
 33
0.0
 40
0.0
 40
0.0
 40
0.0
 40
0.0
 40
0.2500000000000029
 40
0.2500000000000029
 40
0.3750000000000058
 40
0.3750000000000058
 40
0.4375000000000071
 40
0.4375000000000071
 40
0.5000000000000084
 40
0.5000000000000084
 40
0.5312500000000078
 40
0.5312500000000078
 40
0.5625000000000072
 40
0.5625000000000072
 40
0.625000000000007
 40
0.625000000000007
 40
0.7500000000000048
 40
0.7500000000000048
 40
1.0
 40
1.0
 40
1.0
 40
1.0
 10
165.8027582325415
 20
159.5226249975469
 30
0.0
 10
165.7869916442432
 20
159.5084040265587
 30
0.0
 10
165.7703801112885
 20
159.4941737362238
 30
0.0
 10
165.7418537633306
 20
159.4753766810024
 30
0.0
 10
165.7317683295406
 20
159.4694882606611
 30
0.0
 10
165.7142855590057
 20
159.4629508658588
 30
0.0
 10
165.7080779025601
 20
159.4611396518576
 30
0.0
 10
165.6938064023149
 20
159.4595338493511
 30
0.0
 10
165.6862363318119
 20
159.458981071965
 30
0.0
 10
165.6688400023766
 20
159.4661798166778
 30
0.0
 10
165.6603807294166
 20
159.4712715654254
 30
0.0
 10
165.644319764869
 20
159.4890864979045
 30
0.0
 10
165.6394865290227
 20
159.4976089127669
 30
0.0
 10
165.6280606092874
 20
159.5195053494157
 30
0.0
 10
165.6240392534049
 20
159.5312458722216
 30
0.0
 10
165.6132787583738
 20
159.565296136175
 30
0.0
 10
165.6094044493129
 20
159.5848711252037
 30
0.0
 10
165.6002315771858
 20
159.6407194338849
 30
0.0
 10
165.598199206471
 20
159.6734971949138
 30
0.0
 10
165.5977982104812
 20
159.7037768547017
 30
0.0
  0
SPLINE
  5
10C
330
1F
100
AcDbEntity
  8
0
  6
HIDDEN
 62
     7
370
     0
100
AcDbSpline
210
0.0
220
0.0
230
1.0
 70
     8
 71
     3
 72
     8
 73
     4
 74
     0
 42
0.00000001
 43
0.00000001
 12
1.0
 22
0.0
 32
0.0
 13
1.0
 23
0.0
 33
0.0
 40
0.0
 40
0.0
 40
0.0
 40
0.0
 40
1.0
 40
1.0
 40
1.0
 40
1.0
 10
165.9764778669215
 20
159.6086044743921
 30
0.0
 10
165.9113727053075
 20
159.5968834447335
 30
0.0
 10
165.8534853757475
 20
159.5683792988708
 30
0.0
 10
165.8027582325415
 20
159.522624997547
 30
0.0
  0
LINE
  5
10D
330
1F
100
AcDbEntity
  8
0
  6
HIDDEN
 62
     7
370
     0
100
AcDbLine
 10
143.2977982105
 20
155.0081386842
 30
0.0
 11
143.2977982105
 21
147.63375428
 31
0.0
  0
LINE
  5
10E
330
1F
100
AcDbEntity
  8
0
  6
HIDDEN
 62
     7
370
     0
100
AcDbLine
 10
143.2977982105
 20
143.9333266527
 30
0.0
 11
143.2977982105
 21
136.5589422485
 31
0.0
  0
SPLINE
  5
10F
330
1F
100
AcDbEntity
  8
0
  6
HIDDEN
 62
     7
370
     0
100
AcDbSpline
210
0.0
220
0.0
230
1.0
 70
     8
 71
     3
 72
    24
 73
    20
 74
     0
 42
0.00000001
 43
0.00000001
 12
1.0
 22
0.0
 32
0.0
 13
1.0
 23
0.0
 33
0.0
 40
0.0
 40
0.0
 40
0.0
 40
0.0
 40
0.2500000000000113
 40
0.2500000000000113
 40
0.3750000000000169
 40
0.3750000000000169
 40
0.4375000000000179
 40
0.4375000000000179
 40
0.5000000000000189
 40
0.5000000000000189
 40
0.5312500000000182
 40
0.5312500000000182
 40
0.5625000000000174
 40
0.5625000000000174
 40
0.6250000000000161
 40
0.6250000000000161
 40
0.7500000000000094
 40
0.7500000000000094
 40
1.0
 40
1.0
 40
1.0
 40
1.0
 10
165.8027582325415
 20
134.9909467395888
 30
0.0
 10
165.7869893551841
 20
134.9170880476592
 30
0.0
 10
165.7703753733341
 20
134.8433766589234
 30
0.0
 10
165.741843707329
 20
134.7318298353014
 30
0.0
 10
165.7317562925103
 20
134.6944582621729
 30
0.0
 10
165.714268732056
 20
134.6375587645352
 30
0.0
 10
165.7080591702727
 20
134.6184556643899
 30
0.0
 10
165.6937816166201
 20
134.5795821501544
 30
0.0
 10
165.6862100688247
 20
134.559657490721
 30
0.0
 10
165.6687924851465
 20
134.5295852726936
 30
0.0
 10
165.6603099885014
 20
134.5179038938905
 30
0.0
 10
165.6442716766296
 20
134.5106423831418
 30
0.0
 10
165.6394511284261
 20
134.5142206301516
 30
0.0
 10
165.6280419038781
 20
134.5259814853833
 30
0.0
 10
165.6240214234206
 20
134.5376471354338
 30
0.0
 10
165.6132675686003
 20
134.5741824655474
 30
0.0
 10
165.6093948873181
 20
134.601578198871
 30
0.0
 10
165.6002267374805
 20
134.6863041906269
 30
0.0
 10
165.5981982321114
 20
134.747136312799
 30
0.0
 10
165.5977982104812
 20
134.8095024741406
 30
0.0
  0
SPLINE
  5
110
330
1F
100
AcDbEntity
  8
0
  6
HIDDEN
 62
     7
370
     0
100
AcDbSpline
210
0.0
220
0.0
230
1.0
 70
     8
 71
     3
 72
    24
 73
    20
 74
     0
 42
0.00000001
 43
0.00000001
 12
1.0
 22
0.0
 32
0.0
 13
1.0
 23
0.0
 33
0.0
 40
0.0
 40
0.0
 40
0.0
 40
0.0
 40
0.2499999999999858
 40
0.2499999999999858
 40
0.3749999999999787
 40
0.3749999999999787
 40
0.4374999999999782
 40
0.4374999999999782
 40
0.4687499999999808
 40
0.4687499999999808
 40
0.4999999999999833
 40
0.4999999999999833
 40
0.5624999999999849
 40
0.5624999999999849
 40
0.6249999999999865
 40
0.6249999999999865
 40
0.7499999999999898
 40
0.7499999999999898
 40
1.0
 40
1.0
 40
1.0
 40
1.0
 10
165.5977982104775
 20
156.7575784586441
 30
0.0
 10
165.5982028800533
 20
156.8206692671368
 30
0.0
 10
165.6002463268677
 20
156.8818549896393
 30
0.0
 10
165.609645892122
 20
156.967354722141
 30
0.0
 10
165.6135967856508
 20
156.9949351055821
 30
0.0
 10
165.6247490939477
 20
157.0313891876937
 30
0.0
 10
165.6289706348743
 20
157.0432476093882
 30
0.0
 10
165.641178356438
 20
157.0538676607634
 30
0.0
 10
165.6469691266902
 20
157.0567010279856
 30
0.0
 10
165.6638906398001
 20
157.0453864409872
 30
0.0
 10
165.6712967557498
 20
157.0336055552334
 30
0.0
 10
165.6877540089929
 20
157.0035647140037
 30
0.0
 10
165.6952105269039
 20
156.9838517603906
 30
0.0
 10
165.7091184561785
 20
156.9454496943306
 30
0.0
 10
165.7152104020735
 20
156.9265680444192
 30
0.0
 10
165.7324046944245
 20
156.8702671338877
 30
0.0
 10
165.7423896446281
 20
156.833191056078
 30
0.0
 10
165.770635689727
 20
156.7225323851882
 30
0.0
 10
165.7871152266881
 20
156.6494033247797
 30
0.0
 10
165.8027582325478
 20
156.5761341931559
 30
0.0
  0
SPLINE
  5
111
330
1F
100
AcDbEntity
  8
0
  6
HIDDEN
 62
     7
370
     0
100
AcDbSpline
210
0.0
220
0.0
230
1.0
 70
     8
 71
     3
 72
     8
 73
     4
 74
     0
 42
0.00000001
 43
0.00000001
 12
1.0
 22
0.0
 32
0.0
 13
1.0
 23
0.0
 33
0.0
 40
0.0
 40
0.0
 40
0.0
 40
0.0
 40
1.0
 40
1.0
 40
1.0
 40
1.0
 10
165.9764778669215
 20
135.7300211487802
 30
0.0
 10
165.9113727053075
 20
135.4749959135745
 30
0.0
 10
165.8534853757475
 20
135.2285438974333
 30
0.0
 10
165.8027582325415
 20
134.9909467395887
 30
0.0
  0
SPLINE
  5
112
330
1F
100
AcDbEntity
  8
0
  6
HIDDEN
 62
     7
370
     0
100
AcDbSpline
210
0.0
220
0.0
230
1.0
 70
     8
 71
     3
 72
     8
 73
     4
 74
     0
 42
0.00000001
 43
0.00000001
 12
1.0
 22
0.0
 32
0.0
 13
1.0
 23
0.0
 33
0.0
 40
0.0
 40
0.0
 40
0.0
 40
0.0
 40
1.0
 40
1.0
 40
1.0
 40
1.0
 10
165.8027582325477
 20
156.5761341931559
 30
0.0
 10
165.8534853757522
 20
156.3385370353204
 30
0.0
 10
165.9113727053102
 20
156.0920850191889
 30
0.0
 10
165.9764778669215
 20
155.8370597839937
 30
0.0
  0
LINE
  5
113
330
1F
100
AcDbEntity
  8
0
  6
HIDDEN
 62
     7
370
     0
100
AcDbLine
 10
144.7977982105
 20
143.2285122293
 30
0.0
 11
144.7977982105
 21
136.1259295467
 31
0.0
  0
LINE
  5
114
330
1F
100
AcDbEntity
  8
0
  6
HIDDEN
 62
     7
370
     0
100
AcDbLine
 10
144.7977982105
 20
155.4411513861
 30
0.0
 11
144.7977982105
 21
148.3385687034
 31
0.0
  0
LINE
  5
115
330
1F
100
AcDbEntity
  8
0
  6
HIDDEN
 62
     7
370
     0
100
AcDbLine
 10
165.5977982105
 20
155.7024355855
 30
0.0
 11
165.5977982105
 21
135.8646453473
 31
0.0
  0
LINE
  5
116
330
1F
100
AcDbEntity
  8
0
  6
HIDDEN
 62
     7
370
     0
100
AcDbLine
 10
167.0977982105
 20
154.2629076061
 30
0.0
 11
167.0977982105
 21
137.3041733267
 31
0.0
  0
SPLINE
  5
117
330
1F
100
AcDbEntity
  8
0
  6
HIDDEN
 62
     7
370
     0
100
AcDbSpline
210
0.0
220
0.0
230
1.0
 70
     8
 71
     3
 72
     8
 73
     4
 74
     0
 42
0.00000001
 43
0.00000001
 12
1.0
 22
0.0
 32
0.0
 13
1.0
 23
0.0
 33
0.0
 40
0.0000137051794235
 40
0.0000137051794235
 40
0.0000137051794235
 40
0.0000137051794235
 40
0.0027147144718019
 40
0.0027147144718019
 40
0.0027147144718019
 40
0.0027147144718019
 10
144.7977982104812
 20
143.2285122293252
 30
0.0
 10
145.6977943459759
 20
143.2155406621268
 30
0.0
 10
146.5977945245713
 20
143.2029058048147
 30
0.0
 10
147.4977982104811
 20
143.190595786559
 30
0.0
  0
SPLINE
  5
118
330
1F
100
AcDbEntity
  8
0
  6
HIDDEN
 62
     7
370
     0
100
AcDbSpline
210
0.0
220
0.0
230
1.0
 70
     8
 71
     3
 72
     8
 73
     4
 74
     0
 42
0.00000001
 43
0.00000001
 12
1.0
 22
0.0
 32
0.0
 13
1.0
 23
0.0
 33
0.0
 40
0.0000137050638847
 40
0.0000137050638847
 40
0.0000137050638847
 40
0.0000137050638847
 40
0.0027147143562631
 40
0.0027147143562631
 40
0.0027147143562631
 40
0.0027147143562631
 10
147.4977982104811
 20
148.3764851462149
 30
0.0
 10
146.5977945245713
 20
148.3641751279591
 30
0.0
 10
145.6977943459759
 20
148.3515402706471
 30
0.0
 10
144.7977982104812
 20
148.3385687034487
 30
0.0
  0
SPLINE
  5
119
330
1F
100
AcDbEntity
  8
0
  6
HIDDEN
 62
     7
370
     0
100
AcDbSpline
210
0.0
220
0.0
230
1.0
 70
     8
 71
     3
 72
    10
 73
     6
 74
     0
 42
0.00000001
 43
0.00000001
 12
1.0
 22
0.0
 32
0.0
 13
1.0
 23
0.0
 33
0.0
 40
0.0
 40
0.0
 40
0.0
 40
0.0
 40
0.5
 40
0.5
 40
1.0
 40
1.0
 40
1.0
 40
1.0
 10
143.2977982104803
 20
143.9333266527368
 30
0.0
 10
143.5349401711961
 20
143.7777118382079
 30
0.0
 10
143.7802829299596
 20
143.6458028087887
 30
0.0
 10
144.2815465186926
 20
143.4141459321511
 30
0.0
 10
144.537581087943
 20
143.3147003160283
 30
0.0
 10
144.7977982104812
 20
143.2285122293252
 30
0.0
  0
SPLINE
  5
11A
330
1F
100
AcDbEntity
  8
0
  6
HIDDEN
 62
     7
370
     0
100
AcDbSpline
210
0.0
220
0.0
230
1.0
 70
     8
 71
     3
 72
    10
 73
     6
 74
     0
 42
0.00000001
 43
0.00000001
 12
1.0
 22
0.0
 32
0.0
 13
1.0
 23
0.0
 33
0.0
 40
0.0
 40
0.0
 40
0.0
 40
0.0
 40
0.5
 40
0.5
 40
1.0
 40
1.0
 40
1.0
 40
1.0
 10
144.7977982104812
 20
148.3385687034487
 30
0.0
 10
144.5375810879431
 20
148.2523806167456
 30
0.0
 10
144.2815465186929
 20
148.1529350006229
 30
0.0
 10
143.7802829299602
 20
147.9212781239855
 30
0.0
 10
143.5349401711969
 20
147.7893690945664
 30
0.0
 10
143.2977982104811
 20
147.6337542800376
 30
0.0
  0
LINE
  5
11B
330
1F
100
AcDbEntity
  8
0
  6
HIDDEN
 62
     7
370
     0
100
AcDbLine
 10
143.2977982105
 20
143.9333266527
 30
0.0
 11
143.2977982105
 21
147.63375428
 31
0.0
  0
LINE
  5
11C
330
1F
100
AcDbEntity
  8
0
  6
HIDDEN
 62
     7
370
     0
100
AcDbLine
 10
147.4977982105
 20
143.1905957866
 30
0.0
 11
147.4977982105
 21
148.3764851462
 31
0.0
  0
SPLINE
  5
11D
330
1F
100
AcDbEntity
  8
0
  6
HIDDEN
 62
     7
370
     0
100
AcDbSpline
210
0.0
220
0.0
230
1.0
 70
     8
 71
     3
 72
    22
 73
    18
 74
     0
 42
0.00000001
 43
0.00000001
 12
1.0
 22
0.0
 32
0.0
 13
1.0
 23
0.0
 33
0.0
 40
0.0
 40
0.0
 40
0.0
 40
0.0
 40
0.125
 40
0.125
 40
0.25
 40
0.25
 40
0.375
 40
0.375
 40
0.5
 40
0.5
 40
0.625
 40
0.625
 40
0.75
 40
0.75
 40
0.875
 40
0.875
 40
1.0
 40
1.0
 40
1.0
 40
1.0
 10
147.4977982104811
 20
143.190595786559
 30
0.0
 10
147.6787345685573
 20
143.3822156458655
 30
0.0
 10
147.8578300173342
 20
143.5758575102527
 30
0.0
 10
148.2086700058462
 20
143.9705127636369
 30
0.0
 10
148.3808631137509
 20
144.1715242943045
 30
0.0
 10
148.7065946193701
 20
144.5877354095383
 30
0.0
 10
148.8626708545385
 20
144.803751249825
 30
0.0
 10
149.1140500684275
 20
145.2690740129897
 30
0.0
 10
149.2079151987463
 20
145.5246132060126
 30
0.0
 10
149.2041872818842
 20
146.0589438411132
 30
0.0
 10
149.1068146393968
 20
146.3143647071139
 30
0.0
 10
148.8549938304029
 20
146.7743934230616
 30
0.0
 10
148.7000245749304
 20
146.9882304239902
 30
0.0
 10
148.3752118172051
 20
147.4022690066839
 30
0.0
 10
148.2043187530772
 20
147.6015614787197
 30
0.0
 10
147.8556845135496
 20
147.9935363711539
 30
0.0
 10
147.6776766630211
 20
148.1859856571433
 30
0.0
 10
147.4977982104811
 20
148.3764851462149
 30
0.0
  0
SPLINE
  5
11E
330
1F
100
AcDbEntity
  8
0
  6
HIDDEN
 62
     7
370
     0
100
AcDbSpline
210
0.0
220
0.0
230
1.0
 70
     8
 71
     3
 72
    62
 73
    58
 74
     0
 42
0.00000001
 43
0.00000001
 12
1.0
 22
0.0
 32
0.0
 13
1.0
 23
0.0
 33
0.0
 40
-0.03125
 40
-0.03125
 40
0.0
 40
0.0
 40
0.0312499999999999
 40
0.0312499999999999
 40
0.0624999999999998
 40
0.0624999999999998
 40
0.0937499999999996
 40
0.0937499999999996
 40
0.1249999999999995
 40
0.1249999999999995
 40
0.1874999999999996
 40
0.1874999999999996
 40
0.2499999999999997
 40
0.2499999999999997
 40
0.2812499999999997
 40
0.2812499999999997
 40
0.3124999999999997
 40
0.3124999999999997
 40
0.3437499999999998
 40
0.3437499999999998
 40
0.3749999999999998
 40
0.3749999999999998
 40
0.4374999999999999
 40
0.4374999999999999
 40
0.46875
 40
0.46875
 40
0.5000000000000001
 40
0.5000000000000001
 40
0.5625000000000002
 40
0.5625000000000002
 40
0.5937500000000002
 40
0.5937500000000002
 40
0.6250000000000001
 40
0.6250000000000001
 40
0.6562500000000001
 40
0.6562500000000001
 40
0.6875000000000001
 40
0.6875000000000001
 40
0.7187500000000001
 40
0.7187500000000001
 40
0.7500000000000001
 40
0.7500000000000001
 40
0.7812500000000001
 40
0.7812500000000001
 40
0.8125000000000001
 40
0.8125000000000001
 40
0.8437500000000001
 40
0.8437500000000001
 40
0.875
 40
0.875
 40
0.90625
 40
0.90625
 40
0.9375
 40
0.9375
 40
0.96875
 40
0.96875
 40
1.0
 40
1.0
 40
1.03125
 40
1.03125
 10
153.7515703384094
 20
147.2715195050433
 30
0.0
 10
153.9790706849977
 20
147.5208660469039
 30
0.0
 10
154.1035332139151
 20
147.6324637243608
 30
0.0
 10
154.3726274800669
 20
147.8311145201792
 30
0.0
 10
154.5184405716562
 20
147.9184547649679
 30
0.0
 10
154.8196074499456
 20
148.0626505176102
 30
0.0
 10
154.97594317701
 20
148.1204701881244
 30
0.0
 10
155.3000664763444
 20
148.2077238001754
 30
0.0
 10
155.4667316880549
 20
148.2365258496572
 30
0.0
 10
155.9647479546868
 20
148.2773051549251
 30
0.0
 10
156.3054189034797
 20
148.2438618947838
 30
0.0
 10
156.9444298189012
 20
148.0614092503251
 30
0.0
 10
157.250884425965
 20
147.9099846900123
 30
0.0
 10
157.6474403352274
 20
147.6094867844279
 30
0.0
 10
157.771789526077
 20
147.4952255992326
 30
0.0
 10
157.9942536201262
 20
147.24556572866
 30
0.0
 10
158.0918189586034
 20
147.1113991206609
 30
0.0
 10
158.2590745622422
 20
146.8239300261622
 30
0.0
 10
158.3291602177613
 20
146.6686631762624
 30
0.0
 10
158.4332155784829
 20
146.3516837561753
 30
0.0
 10
158.4681913411502
 20
146.1890310046709
 30
0.0
 10
158.5200558606743
 20
145.6880939844683
 30
0.0
 10
158.4807497529029
 20
145.347939383158
 30
0.0
 10
158.3180299604421
 20
144.8714447510608
 30
0.0
 10
158.2477494625558
 20
144.7203773912334
 30
0.0
 10
158.0764163174258
 20
144.4330828207925
 30
0.0
 10
157.9750240762441
 20
144.2972250424951
 30
0.0
 10
157.6384244890209
 20
143.928416647497
 30
0.0
 10
157.3631917228562
 20
143.7259915381658
 30
0.0
 10
156.9134084955103
 20
143.5089148115571
 30
0.0
 10
156.7546086970067
 20
143.4496125394829
 30
0.0
 10
156.432046976127
 20
143.3616400216823
 30
0.0
 10
156.2681878641598
 20
143.3325202578361
 30
0.0
 10
155.9353550908059
 20
143.3036636427259
 30
0.0
 10
155.7653027993651
 20
143.3042871659399
 30
0.0
 10
155.4330271353454
 20
143.3355436097443
 30
0.0
 10
155.2693125235966
 20
143.3658623047961
 30
0.0
 10
154.9468470380223
 20
143.4565793437991
 30
0.0
 10
154.7883359394958
 20
143.5173482525009
 30
0.0
 10
154.4897822332979
 20
143.6648589272979
 30
0.0
 10
154.3479561040958
 20
143.7519939551618
 30
0.0
 10
154.0800343655375
 20
143.9545794217338
 30
0.0
 10
153.955940935145
 20
144.068917588376
 30
0.0
 10
153.7348067472268
 20
144.3171040263287
 30
0.0
 10
153.6363497451281
 20
144.4521366431826
 30
0.0
 10
153.4669912313931
 20
144.7441410412373
 30
0.0
 10
153.3988243936872
 20
144.8962767876728
 30
0.0
 10
153.2950904273608
 20
145.2126857361129
 30
0.0
 10
153.2594218654916
 20
145.3791822054671
 30
0.0
 10
153.2252081008391
 20
145.7124440815776
 30
0.0
 10
153.2260665036682
 20
145.8791065353995
 30
0.0
 10
153.2638632836178
 20
146.212494734617
 30
0.0
 10
153.3012060390718
 20
146.3782503070966
 30
0.0
 10
153.4084556221403
 20
146.6941416235592
 30
0.0
 10
153.4792168386794
 20
146.8474209566314
 30
0.0
 10
153.6513399887801
 20
147.1367979991178
 30
0.0
 10
153.7515703384094
 20
147.2715195050433
 30
0.0
 10
153.9790706849977
 20
147.5208660469039
 30
0.0
  0
CIRCLE
  5
11F
330
1F
100
AcDbEntity
  8
0
  6
HIDDEN
 62
     7
370
     0
100
AcDbCircle
 10
155.7977982105
 20
145.7835404664
 30
0.0
 40
2.300000000000011
  0
CIRCLE
  5
120
330
1F
100
AcDbEntity
  8
0
  6
HIDDEN
 62
     7
370
     0
100
AcDbCircle
 10
179.2977982105
 20
145.7835404664
 30
0.0
 40
2.0
  0
LINE
  5
121
330
1F
100
AcDbEntity
  8
0
  6
HIDDEN
 62
     7
370
     0
100
AcDbLine
 10
237.2977982105
 20
140.0100377745
 30
0.0
 11
237.2977982105
 21
155.7835404664
 31
0.0
  0
LINE
  5
122
330
1F
100
AcDbEntity
  8
0
  6
HIDDEN
 62
     7
370
     0
100
AcDbLine
 10
200.7977982105
 20
155.7835404664
 30
0.0
 11
192.2977982105
 21
155.7835404664
 31
0.0
  0
LINE
  5
123
330
1F
100
AcDbEntity
  8
0
  6
HIDDEN
 62
     7
370
     0
100
AcDbLine
 10
192.2977982105
 20
175.7835404664
 30
0.0
 11
200.7977982105
 21
175.7835404664
 31
0.0
  0
LINE
  5
124
330
1F
100
AcDbEntity
  8
0
  6
HIDDEN
 62
     7
370
     0
100
AcDbLine
 10
189.0015273562
 20
124.7835404664
 30
0.0
 11
210.9247312515
 21
124.7835404664
 31
0.0
  0
LINE
  5
125
330
1F
100
AcDbEntity
  8
0
  6
HIDDEN
 62
     7
370
     0
100
AcDbLine
 10
210.9247312515
 20
124.7835404664
 30
0.0
 11
236.9054933651
 21
139.7835404664
 31
0.0
  0
SPLINE
  5
126
330
1F
100
AcDbEntity
  8
0
  6
HIDDEN
 62
     7
370
     0
100
AcDbSpline
210
0.0
220
0.0
230
1.0
 70
     8
 71
     3
 72
    18
 73
    14
 74
     0
 42
0.00000001
 43
0.00000001
 12
1.0
 22
0.0
 32
0.0
 13
1.0
 23
0.0
 33
0.0
 40
0.0
 40
0.0
 40
0.0
 40
0.0
 40
0.125
 40
0.125
 40
0.25
 40
0.25
 40
0.375
 40
0.375
 40
0.5
 40
0.5
 40
0.75
 40
0.75
 40
1.0
 40
1.0
 40
1.0
 40
1.0
 10
190.8802338290345
 20
165.148457197424
 30
0.0
 10
190.779262118183
 20
165.148457197424
 30
0.0
 10
190.68132615249
 20
165.1154206813282
 30
0.0
 10
190.5119191466058
 20
165.0115790734154
 30
0.0
 10
190.4383753857551
 20
164.9412182341239
 30
0.0
 10
190.3128377902752
 20
164.787920462311
 30
0.0
 10
190.2590051727504
 20
164.7028207825207
 30
0.0
 10
190.1663942474385
 20
164.5275885525383
 30
0.0
 10
190.1272690596938
 20
164.4370028291338
 30
0.0
 10
190.0251446990435
 20
164.1589380871258
 30
0.0
 10
189.9772845583892
 20
163.9645108801669
 30
0.0
 10
189.9107370662503
 20
163.5766266055892
 30
0.0
 10
189.8916903987406
 20
163.3812965790914
 30
0.0
 10
189.8840391309427
 20
163.1848549011591
 30
0.0
  0
SPLINE
  5
127
330
1F
100
AcDbEntity
  8
0
  6
HIDDEN
 62
     7
370
     0
100
AcDbSpline
210
0.0
220
0.0
230
1.0
 70
    24
 71
     3
 72
    14
 73
    10
 74
     0
 42
0.00000001
 43
0.00000001
 12
1.0
 22
0.0
 32
0.0
 13
1.0
 23
0.0
 33
0.0
 40
0.0
 40
0.0
 40
0.0
 40
0.0
 40
0.5000000000000031
 40
0.5000000000000031
 40
0.7500000000000032
 40
0.7500000000000032
 40
0.8750000000000017
 40
0.8750000000000017
 40
1.0
 40
1.0
 40
1.0
 40
1.0
 10
189.8840391309427
 20
175.7835404663869
 30
0.0
 10
189.901445329372
 20
175.7835404663869
 30
0.0
 10
189.9756429215416
 20
175.7835404663869
 30
0.0
 10
190.2142077710184
 20
175.7835404663869
 30
0.0
 10
190.3151087507158
 20
175.7835404663869
 30
0.0
 10
190.5047109619415
 20
175.7835404663869
 30
0.0
 10
190.5746613567231
 20
175.7835404663869
 30
0.0
 10
190.7225279641432
 20
175.7835404663869
 30
0.0
 10
190.8017685227699
 20
175.7835404663869
 30
0.0
 10
190.8802338290345
 20
175.7835404663869
 30
0.0
  0
LINE
  5
128
330
1F
100
AcDbEntity
  8
0
  6
HIDDEN
 62
     7
370
     0
100
AcDbLine
 10
247.2977982105
 20
174.7835404664
 30
0.0
 11
247.2977982105
 21
165.1484571974
 31
0.0
  0
LINE
  5
129
330
1F
100
AcDbEntity
  8
0
  6
HIDDEN
 62
     7
370
     0
100
AcDbLine
 10
246.2977982105
 20
175.7835404664
 30
0.0
 11
247.2977982105
 21
174.7835404664
 31
0.0
  0
LINE
  5
12A
330
1F
100
AcDbEntity
  8
0
  6
HIDDEN
 62
     7
370
     0
100
AcDbLine
 10
190.880233829
 20
175.7835404664
 30
0.0
 11
246.2977982105
 21
175.7835404664
 31
0.0
  0
LINE
  5
12B
330
1F
100
AcDbEntity
  8
0
  6
HIDDEN
 62
     7
370
     0
100
AcDbLine
 10
247.2977982105
 20
165.1484571974
 30
0.0
 11
190.880233829
 21
165.1484571974
 31
0.0
  0
LINE
  5
12C
330
1F
100
AcDbEntity
  8
0
  6
HIDDEN
 62
     7
370
     0
100
AcDbLine
 10
189.5711277077
 20
139.7835404664
 30
0.0
 11
236.9054933651
 21
139.7835404664
 31
0.0
  0
LINE
  5
12D
330
1F
100
AcDbEntity
  8
0
  6
HIDDEN
 62
     7
370
     0
100
AcDbLine
 10
247.2977982105
 20
145.7835404664
 30
0.0
 11
247.2977982105
 21
165.1484571974
 31
0.0
  0
LINE
  5
12E
330
1F
100
AcDbEntity
  8
0
  6
HIDDEN
 62
     7
370
     0
100
AcDbLine
 10
247.2977982105
 20
145.7835404664
 30
0.0
 11
236.9054933651
 21
139.7835404664
 31
0.0
  0
LINE
  5
12F
330
1F
100
AcDbEntity
  8
0
  6
HIDDEN
 62
     7
370
     0
100
AcDbLine
 10
237.2977982105
 20
156.7835404664
 30
0.0
 11
229.2977982105
 21
156.7835404664
 31
0.0
  0
LINE
  5
130
330
1F
100
AcDbEntity
  8
0
  6
HIDDEN
 62
     7
370
     0
100
AcDbLine
 10
229.2977982105
 20
144.7835404664
 30
0.0
 11
237.2977982105
 21
144.7835404664
 31
0.0
  0
LINE
  5
131
330
1F
100
AcDbEntity
  8
0
  6
HIDDEN
 62
     7
370
     0
100
AcDbLine
 10
167.2977982105
 20
129.9835404664
 30
0.0
 11
167.3906914293
 21
130.0764336852
 31
0.0
  0
LINE
  5
132
330
1F
100
AcDbEntity
  8
0
  6
HIDDEN
 62
     7
370
     0
100
AcDbLine
 10
167.3906914293
 20
161.4906472476
 30
0.0
 11
167.2977982105
 21
161.5835404664
 31
0.0
  0
ARC
  5
133
330
1F
100
AcDbEntity
  8
0
  6
HIDDEN
 62
     7
370
     0
100
AcDbCircle
 10
166.6835846481
 20
130.7835404664
 30
0.0
 40
1.000000000000028
100
AcDbArc
 50
315.0
 51
0.0
  0
ARC
  5
134
330
1F
100
AcDbEntity
  8
0
  6
HIDDEN
 62
     7
370
     0
100
AcDbCircle
 10
166.6835846481
 20
130.7835404664
 30
0.0
 40
1.000000000000021
100
AcDbArc
 50
0.0
 51
52.1052014664
  0
ARC
  5
135
330
1F
100
AcDbEntity
  8
0
  6
HIDDEN
 62
     7
370
     0
100
AcDbCircle
 10
166.6835846481
 20
160.7835404664
 30
0.0
 40
1.00000000000003
100
AcDbArc
 50
351.8087250651
 51
45.0
  0
ARC
  5
136
330
1F
100
AcDbEntity
  8
0
  6
HIDDEN
 62
     7
370
     0
100
AcDbCircle
 10
166.6835846481
 20
160.7835404664
 30
0.0
 40
1.00000000000003
100
AcDbArc
 50
307.8947985336
 51
351.8087250651
  0
LINE
  5
137
330
1F
100
AcDbEntity
  8
0
  6
HIDDEN
 62
     7
370
     0
100
AcDbLine
 10
167.6835846481
 20
130.7835404664
 30
0.0
 11
167.6835846481
 21
160.7835404664
 31
0.0
  0
LINE
  5
138
330
1F
100
AcDbEntity
  8
0
  6
HIDDEN
 62
     7
370
     0
100
AcDbLine
 10
167.6835846481
 20
130.7835404664
 30
0.0
 11
167.6835846481
 21
160.7835404664
 31
0.0
  0
LINE
  5
139
330
1F
100
AcDbEntity
  8
0
  6
HIDDEN
 62
     7
370
     0
100
AcDbLine
 10
229.2977982105
 20
152.546958345
 30
0.0
 11
204.069943597
 21
149.0153475167
 31
0.0
  0
LINE
  5
13A
330
1F
100
AcDbEntity
  8
0
  6
HIDDEN
 62
     7
370
     0
100
AcDbLine
 10
207.579461508
 20
145.2656862437
 30
0.0
 11
229.2977982105
 21
148.3060047428
 31
0.0
  0
LINE
  5
13B
330
1F
100
AcDbEntity
  8
0
  6
HIDDEN
 62
     7
370
     0
100
AcDbLine
 10
143.2977982105
 20
135.6278899421
 30
0.0
 11
144.3248302425
 21
136.2208471623
 31
0.0
  0
LINE
  5
13C
330
1F
100
AcDbEntity
  8
0
  6
HIDDEN
 62
     7
370
     0
100
AcDbLine
 10
144.3248302425
 20
155.3462337705
 30
0.0
 11
143.2977982105
 21
155.9391909907
 31
0.0
  0
ARC
  5
13D
330
1F
100
AcDbEntity
  8
0
  6
HIDDEN
 62
     7
370
     0
100
AcDbCircle
 10
149.8106166802
 20
136.7835404664
 30
0.0
 40
1.0
100
AcDbArc
 50
270.0
 51
315.0
  0
ARC
  5
13E
330
1F
100
AcDbEntity
  8
0
  6
HIDDEN
 62
     7
370
     0
100
AcDbCircle
 10
149.8106166802
 20
154.7835404664
 30
0.0
 40
1.0
100
AcDbArc
 50
45.0
 51
90.0
  0
LINE
  5
13F
330
1F
100
AcDbEntity
  8
0
  6
HIDDEN
 62
     7
370
     0
100
AcDbLine
 10
148.7977982105
 20
135.7835404664
 30
0.0
 11
149.8106166802
 21
135.7835404664
 31
0.0
  0
LINE
  5
140
330
1F
100
AcDbEntity
  8
0
  6
HIDDEN
 62
     7
370
     0
100
AcDbLine
 10
149.8106166802
 20
155.7835404664
 30
0.0
 11
148.7977982105
 21
155.7835404664
 31
0.0
  0
ARC
  5
141
330
1F
100
AcDbEntity
  8
0
  6
HIDDEN
 62
     7
370
     0
100
AcDbCircle
 10
148.7977982105
 20
136.7835404664
 30
0.0
 40
1.0
100
AcDbArc
 50
193.3524261238
 51
270.0
  0
ARC
  5
142
330
1F
100
AcDbEntity
  8
0
  6
HIDDEN
 62
     7
370
     0
100
AcDbCircle
 10
148.7977982105
 20
154.7835404664
 30
0.0
 40
0.9999999999999767
100
AcDbArc
 50
90.0
 51
166.6475738762
  0
LINE
  5
143
330
1F
100
AcDbEntity
  8
0
  6
HIDDEN
 62
     7
370
     0
100
AcDbLine
 10
150.5177234613
 20
136.0764336852
 30
0.0
 11
151.2248302425
 21
136.7835404664
 31
0.0
  0
LINE
  5
144
330
1F
100
AcDbEntity
  8
0
  6
HIDDEN
 62
     7
370
     0
100
AcDbLine
 10
151.2248302425
 20
154.7835404664
 30
0.0
 11
150.5177234613
 21
155.4906472476
 31
0.0
  0
LINE
  5
145
330
1F
100
AcDbEntity
  8
0
  6
HIDDEN
 62
     7
370
     0
100
AcDbLine
 10
144.3248302425
 20
136.2208471623
 30
0.0
 11
146.4248302425
 21
136.7835404664
 31
0.0
  0
LINE
  5
146
330
1F
100
AcDbEntity
  8
0
  6
HIDDEN
 62
     7
370
     0
100
AcDbLine
 10
146.4248302425
 20
154.7835404664
 30
0.0
 11
144.3248302425
 21
155.3462337705
 31
0.0
  0
LINE
  5
147
330
1F
100
AcDbEntity
  8
0
  6
HIDDEN
 62
     7
370
     0
100
AcDbLine
 10
147.8248302425
 20
155.0144805741
 30
0.0
 11
147.4248302425
 21
154.7835404664
 31
0.0
  0
LINE
  5
148
330
1F
100
AcDbEntity
  8
0
  6
HIDDEN
 62
     7
370
     0
100
AcDbLine
 10
147.4248302425
 20
136.7835404664
 30
0.0
 11
147.8248302425
 21
136.5526003587
 31
0.0
  0
ARC
  5
149
330
1F
100
AcDbEntity
  8
0
  6
HIDDEN
 62
     7
370
     0
100
AcDbCircle
 10
157.7977982105
 20
137.2835404664
 30
0.0
 40
0.5
100
AcDbArc
 50
270.0
 51
0.0
  0
ARC
  5
14A
330
1F
100
AcDbEntity
  8
0
  6
HIDDEN
 62
     7
370
     0
100
AcDbCircle
 10
157.7977982105
 20
154.2835404664
 30
0.0
 40
0.5
100
AcDbArc
 50
0.0
 51
90.0
  0
LINE
  5
14B
330
1F
100
AcDbEntity
  8
0
  6
HIDDEN
 62
     7
370
     0
100
AcDbLine
 10
146.4248302425
 20
136.7835404664
 30
0.0
 11
147.4248302425
 21
136.7835404664
 31
0.0
  0
LINE
  5
14C
330
1F
100
AcDbEntity
  8
0
  6
HIDDEN
 62
     7
370
     0
100
AcDbLine
 10
147.4248302425
 20
154.7835404664
 30
0.0
 11
146.4248302425
 21
154.7835404664
 31
0.0
  0
LINE
  5
14D
330
1F
100
AcDbEntity
  8
0
  6
HIDDEN
 62
     7
370
     0
100
AcDbLine
 10
151.2248302425
 20
136.7835404664
 30
0.0
 11
157.7977982105
 21
136.7835404664
 31
0.0
  0
LINE
  5
14E
330
1F
100
AcDbEntity
  8
0
  6
HIDDEN
 62
     7
370
     0
100
AcDbLine
 10
157.7977982105
 20
154.7835404664
 30
0.0
 11
151.2248302425
 21
154.7835404664
 31
0.0
  0
LINE
  5
14F
330
1F
100
AcDbEntity
  8
0
  6
HIDDEN
 62
     7
370
     0
100
AcDbLine
 10
158.2977982105
 20
138.6335404664
 30
0.0
 11
159.1977982105
 21
139.5335404664
 31
0.0
  0
LINE
  5
150
330
1F
100
AcDbEntity
  8
0
  6
HIDDEN
 62
     7
370
     0
100
AcDbLine
 10
159.1977982105
 20
152.0335404664
 30
0.0
 11
158.2977982105
 21
152.9335404664
 31
0.0
  0
LINE
  5
151
330
1F
100
AcDbEntity
  8
0
  6
HIDDEN
 62
     7
370
     0
100
AcDbLine
 10
178.2977982105
 20
139.5335404664
 30
0.0
 11
179.4995194485
 21
141.5335404664
 31
0.0
  0
LINE
  5
152
330
1F
100
AcDbEntity
  8
0
  6
HIDDEN
 62
     7
370
     0
100
AcDbLine
 10
179.4995194485
 20
150.0335404664
 30
0.0
 11
178.2977982105
 21
152.0335404664
 31
0.0
  0
LINE
  5
153
330
1F
100
AcDbEntity
  8
0
  6
HIDDEN
 62
     7
370
     0
100
AcDbLine
 10
159.1977982105
 20
139.5335404664
 30
0.0
 11
178.2977982105
 21
139.5335404664
 31
0.0
  0
LINE
  5
154
330
1F
100
AcDbEntity
  8
0
  6
HIDDEN
 62
     7
370
     0
100
AcDbLine
 10
178.2977982105
 20
152.0335404664
 30
0.0
 11
159.1977982105
 21
152.0335404664
 31
0.0
  0
LINE
  5
155
330
1F
100
AcDbEntity
  8
0
  6
HIDDEN
 62
     7
370
     0
100
AcDbLine
 10
207.2977982105
 20
141.5335404664
 30
0.0
 11
209.8514558413
 21
145.7835404664
 31
0.0
  0
LINE
  5
156
330
1F
100
AcDbEntity
  8
0
  6
HIDDEN
 62
     7
370
     0
100
AcDbLine
 10
209.8514558413
 20
145.7835404664
 30
0.0
 11
207.2977982105
 21
150.0335404664
 31
0.0
  0
LINE
  5
157
330
1F
100
AcDbEntity
  8
0
  6
HIDDEN
 62
     7
370
     0
100
AcDbLine
 10
179.4995194485
 20
141.5335404664
 30
0.0
 11
207.2977982105
 21
141.5335404664
 31
0.0
  0
LINE
  5
158
330
1F
100
AcDbEntity
  8
0
  6
HIDDEN
 62
     7
370
     0
100
AcDbLine
 10
207.2977982105
 20
150.0335404664
 30
0.0
 11
179.4995194485
 21
150.0335404664
 31
0.0
  0
LINE
  5
159
330
1F
100
AcDbEntity
  8
0
  6
HIDDEN
 62
     7
370
     0
100
AcDbLine
 10
165.5977351214
 20
134.8446548003
 30
0.0
 11
165.5977351214
 21
134.4240848862
 31
0.0
  0
DIMENSION
  5
15A
330
1F
100
AcDbEntity
  8
VERMASSUNG
100
AcDbDimension
  2
_D
 10
247.2977982105
 20
187.7821466292
 30
0.0
 11
207.2977982105
 21
187.7821466292
 31
0.0
 70
   160
  1
<>
 71
     2
 42
-1.0
  3
SLDDIMSTYLE0
100
AcDbAlignedDimension
 13
167.2977982105
 23
165.4835404664
 33
0.0
 14
247.2977982105
 24
174.7835404664
 34
0.0
100
AcDbRotatedDimension
  0
DIMENSION
  5
165
330
1F
100
AcDbEntity
  8
VERMASSUNG
100
AcDbDimension
  2
_D_1
 10
247.2977982105
 20
193.3422662417
 30
0.0
 11
195.2977982105
 21
193.3422662417
 31
0.0
 70
   160
  1
<>
 71
     2
 42
-1.0
  3
SLDDIMSTYLE0
100
AcDbAlignedDimension
 13
143.2977982105
 23
158.4150454484
 33
0.0
 14
247.2977982105
 24
174.7835404664
 34
0.0
100
AcDbRotatedDimension
  0
DIMENSION
  5
16F
330
1F
100
AcDbEntity
  8
VERMASSUNG
100
AcDbDimension
  2
_D_2
 10
210.9247312515
 20
124.7835404664
 30
0.0
 11
223.9918224513
 21
124.9331579657
 31
0.0
 70
   162
  1
<>
 71
     1
 42
-1.0
  3
SLDDIMSTYLE1
100
AcDb2LineAngularDimension
 13
251.0875152616
 23
145.7835404664
 33
0.0
 14
138.4852130643
 24
145.7835404664
 34
0.0
 15
229.9772901348
 25
135.7835404664
 35
0.0
 16
217.0918449612
 26
137.6898796866
 36
0.0
  0
DIMENSION
  5
179
330
1F
100
AcDbEntity
  8
VERMASSUNG
100
AcDbDimension
  2
_D_3
 10
133.2977982105
 20
125.7835404664
 30
0.0
 11
133.2977982105
 21
145.7835404664
 31
0.0
 70
   160
  1
PSC%%c<>
 71
     2
 42
-1.0
  3
SLDDIMSTYLE0
100
AcDbAlignedDimension
 13
167.5977982105
 23
165.7835404664
 33
0.0
 14
167.5977982105
 24
125.7835404664
 34
0.0
 50
90.0
100
AcDbRotatedDimension
  0
LINE
  5
185
330
1F
100
AcDbEntity
  8
VERMASSUNG
  6
CENTERX2
370
     0
100
AcDbLine
 10
251.0875152616
 20
145.7835404664
 30
0.0
 11
138.4852130643
 21
145.7835404664
 31
0.0
  0
LINE
  5
186
330
1F
100
AcDbEntity
  8
0
  6
Continuous
 62
     7
370
    15
100
AcDbLine
 10
51.3065876797
 20
161.2835404664
 30
0.0
 11
52.3065876797
 21
162.2835404664
 31
0.0
  0
LINE
  5
187
330
1F
100
AcDbEntity
  8
0
  6
Continuous
 62
     7
370
    15
100
AcDbLine
 10
52.3065876797
 20
169.2835404664
 30
0.0
 11
51.3065876797
 21
170.2835404664
 31
0.0
  0
LINE
  5
188
330
1F
100
AcDbEntity
  8
0
  6
Continuous
 62
     7
370
    15
100
AcDbLine
 10
87.3065876797
 20
145.7835404664
 30
0.0
 11
87.3065876797
 21
165.1484571974
 31
0.0
  0
LINE
  5
189
330
1F
100
AcDbEntity
  8
0
  6
Continuous
 62
     7
370
    15
100
AcDbLine
 10
87.3065876797
 20
145.7835404664
 30
0.0
 11
72.3065876797
 21
145.7835404664
 31
0.0
  0
LINE
  5
18A
330
1F
100
AcDbEntity
  8
0
  6
Continuous
 62
     7
370
    15
100
AcDbLine
 10
72.3065876797
 20
174.7835404664
 30
0.0
 11
72.3065876797
 21
145.7835404664
 31
0.0
  0
LINE
  5
18B
330
1F
100
AcDbEntity
  8
0
  6
Continuous
 62
     7
370
    15
100
AcDbLine
 10
79.8565423076
 20
174.7835404664
 30
0.0
 11
72.3065876797
 21
174.7835404664
 31
0.0
  0
ARC
  5
18C
330
1F
100
AcDbEntity
  8
0
  6
Continuous
 62
     7
370
    15
100
AcDbCircle
 10
52.3065876797
 20
145.7835404664
 30
0.0
 40
39.99999999999999
100
AcDbArc
 50
28.9550243719
 51
46.4688478326
  0
LINE
  5
18D
330
1F
100
AcDbEntity
  8
0
  6
Continuous
 62
     7
370
    15
100
AcDbLine
 10
72.3065876797
 20
140.0100377745
 30
0.0
 11
72.3065876797
 21
145.7835404664
 31
0.0
  0
LINE
  5
18E
330
1F
100
AcDbEntity
  8
0
  6
Continuous
 62
     7
370
    15
100
AcDbLine
 10
72.3065876797
 20
124.7835404664
 30
0.0
 11
87.3065876797
 21
139.7835404664
 31
0.0
  0
LINE
  5
18F
330
1F
100
AcDbEntity
  8
0
  6
Continuous
 62
     7
370
    15
100
AcDbLine
 10
43.3065876797
 20
124.7835404664
 30
0.0
 11
72.3065876797
 21
124.7835404664
 31
0.0
  0
LINE
  5
190
330
1F
100
AcDbEntity
  8
0
  6
Continuous
 62
     7
370
    15
100
AcDbLine
 10
32.3065876797
 20
135.7835404664
 30
0.0
 11
43.3065876797
 21
124.7835404664
 31
0.0
  0
LINE
  5
191
330
1F
100
AcDbEntity
  8
0
  6
Continuous
 62
     7
370
    15
100
AcDbLine
 10
32.3065876797
 20
140.0100377745
 30
0.0
 11
32.3065876797
 21
135.7835404664
 31
0.0
  0
LINE
  5
192
330
1F
100
AcDbEntity
  8
0
  6
Continuous
 62
     7
370
    15
100
AcDbLine
 10
32.3065876797
 20
140.0100377745
 30
0.0
 11
72.3065876797
 21
140.0100377745
 31
0.0
  0
LINE
  5
193
330
1F
100
AcDbEntity
  8
0
  6
Continuous
 62
     7
370
    15
100
AcDbLine
 10
87.3065876797
 20
145.7835404664
 30
0.0
 11
87.3065876797
 21
139.7835404664
 31
0.0
  0
LINE
  5
194
330
1F
100
AcDbEntity
  8
0
  6
Continuous
 62
     7
370
    15
100
AcDbLine
 10
72.3065876797
 20
174.7835404664
 30
0.0
 11
72.3065876797
 21
175.7835404664
 31
0.0
  0
LINE
  5
195
330
1F
100
AcDbEntity
  8
0
  6
Continuous
 62
     7
370
    15
100
AcDbLine
 10
72.3065876797
 20
175.7835404664
 30
0.0
 11
78.7641007903
 21
175.7835404664
 31
0.0
  0
ARC
  5
196
330
1F
100
AcDbEntity
  8
0
  6
Continuous
 62
     7
370
    15
100
AcDbCircle
 10
52.3065876797
 20
145.7835404664
 30
0.0
 40
39.99999999999999
100
AcDbArc
 50
46.4688478326
 51
48.5903778907
  0
LINE
  5
197
330
1F
100
AcDbEntity
  8
0
  6
Continuous
 62
     7
370
    15
100
AcDbLine
 10
51.3065876797
 20
174.7835404664
 30
0.0
 11
51.3065876797
 21
155.7835404664
 31
0.0
  0
LINE
  5
198
330
1F
100
AcDbEntity
  8
0
  6
Continuous
 62
     7
370
    15
100
AcDbLine
 10
32.3065876797
 20
174.7835404664
 30
0.0
 11
32.3065876797
 21
140.0100377745
 31
0.0
  0
LINE
  5
199
330
1F
100
AcDbEntity
  8
0
  6
Continuous
 62
     7
370
    15
100
AcDbLine
 10
51.3065876797
 20
174.7835404664
 30
0.0
 11
32.3065876797
 21
174.7835404664
 31
0.0
  0
CIRCLE
  5
19A
330
1F
100
AcDbEntity
  8
0
  6
Continuous
 62
     7
370
    15
100
AcDbCircle
 10
40.3065876797
 20
150.7835404664
 30
0.0
 40
6.0
  0
LINE
  5
19B
330
1F
100
AcDbEntity
  8
0
  6
Continuous
 62
     7
370
    15
100
AcDbLine
 10
51.3065876797
 20
155.7835404664
 30
0.0
 11
72.3065876797
 21
155.7835404664
 31
0.0
  0
LINE
  5
19C
330
1F
100
AcDbEntity
  8
0
  6
Continuous
 62
     7
370
    15
100
AcDbLine
 10
32.3065876797
 20
174.7835404664
 30
0.0
 11
32.3065876797
 21
175.7835404664
 31
0.0
  0
LINE
  5
19D
330
1F
100
AcDbEntity
  8
0
  6
Continuous
 62
     7
370
    15
100
AcDbLine
 10
51.3065876797
 20
175.7835404664
 30
0.0
 11
51.3065876797
 21
174.7835404664
 31
0.0
  0
LINE
  5
19E
330
1F
100
AcDbEntity
  8
0
  6
Continuous
 62
     7
370
    15
100
AcDbLine
 10
32.3065876797
 20
175.7835404664
 30
0.0
 11
51.3065876797
 21
175.7835404664
 31
0.0
  0
LINE
  5
19F
330
1F
100
AcDbEntity
  8
0
  6
Continuous
 62
     7
370
    15
100
AcDbLine
 10
32.3065876797
 20
174.7835404664
 30
0.0
 11
31.3065876797
 21
174.7835404664
 31
0.0
  0
LINE
  5
1A0
330
1F
100
AcDbEntity
  8
0
  6
Continuous
 62
     7
370
    15
100
AcDbLine
 10
32.3065876797
 20
175.7835404664
 30
0.0
 11
31.3065876797
 21
174.7835404664
 31
0.0
  0
LINE
  5
1A1
330
1F
100
AcDbEntity
  8
0
  6
Continuous
 62
     7
370
    15
100
AcDbLine
 10
32.3065876797
 20
140.0100377745
 30
0.0
 11
31.3065876797
 21
140.5873880437
 31
0.0
  0
LINE
  5
1A2
330
1F
100
AcDbEntity
  8
0
  6
Continuous
 62
     7
370
    15
100
AcDbLine
 10
31.3065876797
 20
140.5873880437
 30
0.0
 11
31.3065876797
 21
174.7835404664
 31
0.0
  0
LINE
  5
1A3
330
1F
100
AcDbEntity
  8
0
  6
Continuous
 62
     7
370
    15
100
AcDbLine
 10
32.3065876797
 20
135.7835404664
 30
0.0
 11
31.3065876797
 21
136.7835404664
 31
0.0
  0
LINE
  5
1A4
330
1F
100
AcDbEntity
  8
0
  6
Continuous
 62
     7
370
    15
100
AcDbLine
 10
31.3065876797
 20
136.7835404664
 30
0.0
 11
31.3065876797
 21
140.5873880437
 31
0.0
  0
ELLIPSE
  5
1A5
330
1F
100
AcDbEntity
  8
0
  6
Continuous
 62
     7
370
    15
100
AcDbEllipse
 10
41.1635290937
 20
150.4264815439
 30
0.0
 11
-2.06286768203023
 21
0.8595282008459434
 31
0.0
210
0.0
220
0.0
230
1.0
 40
0.9396926208
 41
0.0
 42
1.164239271064776
  0
ELLIPSE
  5
1A6
330
1F
100
AcDbEntity
  8
0
  6
Continuous
 62
     7
370
    15
100
AcDbEllipse
 10
41.1635290937
 20
150.4264815439
 30
0.0
 11
-2.06286768203023
 21
0.8595282008459434
 31
0.0
210
0.0
220
0.0
230
1.0
 40
0.9396926208
 41
4.950475828043867
 42
6.283185307179586
  0
LINE
  5
1A7
330
1F
100
AcDbEntity
  8
0
  6
Continuous
 62
     7
370
    15
100
AcDbLine
 10
51.3065876797
 20
175.7835404664
 30
0.0
 11
72.3065876797
 21
175.7835404664
 31
0.0
  0
CIRCLE
  5
1A8
330
1F
100
AcDbEntity
  8
0
  6
Continuous
 62
     7
370
    15
100
AcDbCircle
 10
39.8999278276
 20
151.0689204762
 30
0.0
 40
3.230281095829566
  0
CIRCLE
  5
1A9
330
1F
100
AcDbEntity
  8
0
  6
Continuous
 62
     7
370
    15
100
AcDbCircle
 10
39.9022014525
 20
151.0727677382
 30
0.0
 40
2.484714303143273
  0
CIRCLE
  5
1AA
330
1F
100
AcDbEntity
  8
0
  6
Continuous
 62
     7
370
    15
100
AcDbCircle
 10
39.9450751189
 20
151.0430668265
 30
0.0
 40
2.087087153940121
  0
ARC
  5
1AB
330
1F
100
AcDbEntity
  8
0
  6
Continuous
 62
     7
370
    15
100
AcDbCircle
 10
40.5466610087
 20
150.6005635915
 30
0.0
 40
2.10264563478772
100
AcDbArc
 50
63.1596096861
 51
222.213209477
  0
CIRCLE
  5
1AC
330
1F
100
AcDbEntity
  8
0
  6
Continuous
 62
     7
370
    15
100
AcDbCircle
 10
40.3065876797
 20
150.7835404664
 30
0.0
 40
4.582575694955858
  0
LINE
  5
1AD
330
1F
100
AcDbEntity
  8
0
  6
Continuous
 62
     7
370
    15
100
AcDbLine
 10
52.3065876797
 20
162.2835404664
 30
0.0
 11
52.3065876797
 21
169.2835404664
 31
0.0
  0
DIMENSION
  5
1AE
330
1F
100
AcDbEntity
  8
VERMASSUNG
100
AcDbDimension
  2
_D_4
 10
111.4084434902
 20
124.7835404664
 30
0.0
 11
111.4084434902
 21
150.2835404664
 31
0.0
 70
   160
  1
<>
 71
     2
 42
-1.0
  3
SLDDIMSTYLE0
100
AcDbAlignedDimension
 13
78.7641007903
 23
175.7835404664
 33
0.0
 14
72.3065876797
 24
124.7835404664
 34
0.0
 50
90.0
100
AcDbRotatedDimension
  0
DIMENSION
  5
1B8
330
1F
100
AcDbEntity
  8
VERMASSUNG
100
AcDbDimension
  2
_D_5
 10
94.5885428458
 20
175.7835404664
 30
0.0
 11
94.5885428458
 21
165.7835404664
 31
0.0
 70
   160
  1
<>
 71
     2
 42
-1.0
  3
SLDDIMSTYLE0
100
AcDbAlignedDimension
 13
76.5565876797
 23
155.7835404664
 33
0.0
 14
78.7641007903
 24
175.7835404664
 34
0.0
 50
90.0
100
AcDbRotatedDimension
  0
DIMENSION
  5
1C2
330
1F
100
AcDbEntity
  8
VERMASSUNG
100
AcDbDimension
  2
_D_6
 10
103.3065876797
 20
175.7835404664
 30
0.0
 11
103.3065876797
 21
160.7835404664
 31
0.0
 70
   160
  1
<>
 71
     2
 42
-1.0
  3
SLDDIMSTYLE0
100
AcDbAlignedDimension
 13
94.8065876797
 23
145.7835404664
 33
0.0
 14
78.7641007903
 24
175.7835404664
 34
0.0
 50
90.0
100
AcDbRotatedDimension
  0
DIMENSION
  5
1CC
330
1F
100
AcDbEntity
  8
VERMASSUNG
100
AcDbDimension
  2
_D_7
 10
72.3065876797
 20
181.1235914774
 30
0.0
 11
62.3065876797
 21
181.1235914774
 31
0.0
 70
   160
  1
<>
 71
     2
 42
-1.0
  3
SLDDIMSTYLE0
100
AcDbAlignedDimension
 13
52.3065876797
 23
188.2835404664
 33
0.0
 14
72.3065876797
 24
175.7835404664
 34
0.0
100
AcDbRotatedDimension
  0
DIMENSION
  5
1D5
330
1F
100
AcDbEntity
  8
VERMASSUNG
100
AcDbDimension
  2
_D_8
 10
87.3065876797
 20
188.3630321648
 30
0.0
 11
69.8065876797
 21
188.3630321648
 31
0.0
 70
   160
  1
<>
 71
     2
 42
-1.0
  3
SLDDIMSTYLE0
100
AcDbAlignedDimension
 13
52.3065876797
 23
188.2835404664
 33
0.0
 14
87.3065876797
 24
165.1484571974
 34
0.0
100
AcDbRotatedDimension
  0
DIMENSION
  5
1DF
330
1F
100
AcDbEntity
  8
VERMASSUNG
100
AcDbDimension
  2
_D_9
 10
87.3065876797
 20
194.3940565914
 30
0.0
 11
59.3065876797
 21
194.3940565914
 31
0.0
 70
   160
  1
<>
 71
     2
 42
-1.0
  3
SLDDIMSTYLE0
100
AcDbAlignedDimension
 13
31.3065876797
 23
174.7835404664
 33
0.0
 14
87.3065876797
 24
165.1484571974
 34
0.0
100
AcDbRotatedDimension
  0
DIMENSION
  5
1E9
330
1F
100
AcDbEntity
  8
VERMASSUNG
100
AcDbDimension
  2
_D_10
 10
52.3065876797
 20
145.7835404664
 30
0.0
 11
93.5439672451
 21
181.1236014774
 31
0.0
 70
   164
  1
<>
 71
     1
 42
-1.0
  3
SLDDIMSTYLE2
100
AcDbRadialDimension
 15
82.6791319699
 25
171.8125349406
 35
0.0
 40
0.0
  0
DIMENSION
  5
1F2
330
1F
100
AcDbEntity
  8
VERMASSUNG
100
AcDbDimension
  2
_D_11
 10
52.3065876797
 20
181.1235914774
 30
0.0
 11
44.6854764384
 21
181.1235914774
 31
0.0
 70
   160
  1
<>
 71
     2
 42
-1.0
  3
SLDDIMSTYLE3
100
AcDbAlignedDimension
 13
51.3065876797
 23
175.7835404664
 33
0.0
 14
52.3065876797
 24
188.2835404664
 34
0.0
100
AcDbRotatedDimension
  0
INSERT
  5
209
330
1F
100
AcDbEntity
  8
VERMASSUNG
100
AcDbBlockReference
  2
SW_CENTERMARKSYMBOL_0
 10
52.3065876797
 20
145.7835404664
 30
0.0
  0
LINE
  5
20A
330
1F
100
AcDbEntity
  8
0
  6
Continuous
 62
     7
370
    15
100
AcDbLine
 10
189.5264593374
 20
107.6893531994
 30
0.0
 11
188.2939929086
 21
93.6021974566
 31
0.0
  0
LINE
  5
20B
330
1F
100
AcDbEntity
  8
0
  6
Continuous
 62
     7
370
    15
100
AcDbLine
 10
188.2939929086
 20
51.7765089421
 30
0.0
 11
188.301618048
 21
51.6893531994
 31
0.0
  0
ARC
  5
20C
330
1F
100
AcDbEntity
  8
0
  6
Continuous
 62
     7
370
    15
100
AcDbCircle
 10
187.2977982105
 20
51.6893531994
 30
0.0
 40
1.000000000000008
100
AcDbArc
 50
5.0
 51
90.0
  0
ARC
  5
20D
330
1F
100
AcDbEntity
  8
0
  6
Continuous
 62
     7
370
    15
100
AcDbCircle
 10
187.2977982105
 20
93.6893531994
 30
0.0
 40
1.000000000000009
100
AcDbArc
 50
270.0
 51
355.0
  0
LINE
  5
20E
330
1F
100
AcDbEntity
  8
0
  6
Continuous
 62
     7
370
    15
100
AcDbLine
 10
167.5977982105
 20
52.6893531994
 30
0.0
 11
187.2977982105
 21
52.6893531994
 31
0.0
  0
LINE
  5
20F
330
1F
100
AcDbEntity
  8
0
  6
Continuous
 62
     7
370
    15
100
AcDbLine
 10
177.2977982105
 20
92.6893531994
 30
0.0
 11
167.5977982105
 21
92.6893531994
 31
0.0
  0
LINE
  5
210
330
1F
100
AcDbEntity
  8
0
  6
Continuous
 62
     7
370
    15
100
AcDbLine
 10
187.2977982105
 20
92.6893531994
 30
0.0
 11
181.2728957022
 21
92.6893531994
 31
0.0
  0
ARC
  5
211
330
1F
100
AcDbEntity
  8
0
  6
Continuous
 62
     7
370
    15
100
AcDbCircle
 10
167.5977982105
 20
52.9893531994
 30
0.0
 40
0.3000000000000114
100
AcDbArc
 50
180.0
 51
270.0
  0
ARC
  5
212
330
1F
100
AcDbEntity
  8
0
  6
Continuous
 62
     7
370
    15
100
AcDbCircle
 10
167.5977982105
 20
92.3893531994
 30
0.0
 40
0.3000000000000114
100
AcDbArc
 50
90.0
 51
180.0
  0
ARC
  5
213
330
1F
100
AcDbEntity
  8
0
  6
Continuous
 62
     7
370
    15
100
AcDbCircle
 10
166.6835846481
 20
57.6893531994
 30
0.0
 40
1.000000000000016
100
AcDbArc
 50
52.1052014664
 51
135.0
  0
LWPOLYLINE
  5
214
330
1F
100
AcDbEntity
  8
0
  6
Continuous
 62
     7
370
    15
100
AcDbPolyline
 90
        3
 70
   128
 43
0.0
 10
167.2977982105
 20
86.9002133513
 10
167.223253154
 20
86.8474755932
 10
167.0977982105
 20
86.7791734782
  0
LINE
  5
215
330
1F
100
AcDbEntity
  8
0
  6
Continuous
 62
     7
370
    15
100
AcDbLine
 10
166.9028213216
 20
85.6421755979
 30
0.0
 11
165.8027582325
 21
85.6145381841
 31
0.0
  0
LINE
  5
216
330
1F
100
AcDbEntity
  8
0
  6
Continuous
 62
     7
370
    15
100
AcDbLine
 10
153.2310036298
 20
85.4987550589
 30
0.0
 11
149.2039549364
 21
85.3975815787
 31
0.0
  0
LINE
  5
217
330
1F
100
AcDbEntity
  8
0
  6
Continuous
 62
     7
370
    15
100
AcDbLine
 10
165.5977982105
 20
85.8094519839
 30
0.0
 11
158.4905595573
 21
85.6308934107
 31
0.0
  0
ARC
  5
218
330
1F
100
AcDbEntity
  8
0
  6
Continuous
 62
     7
370
    15
100
AcDbCircle
 10
165.7977351214
 20
85.8144750951
 30
0.0
 40
0.2000000000000055
100
AcDbArc
 50
181.4391666667
 51
271.4391666667
  0
ARC
  5
219
330
1F
100
AcDbEntity
  8
0
  6
Continuous
 62
     7
370
    15
100
AcDbCircle
 10
166.8977982105
 20
85.8421125089
 30
0.0
 40
0.2000000000000171
100
AcDbArc
 50
271.4391666667
 51
0.0
  0
LINE
  5
21A
330
1F
100
AcDbEntity
  8
0
  6
Continuous
 62
     7
370
    15
100
AcDbLine
 10
144.7977982105
 20
58.2918228135
 30
0.0
 11
165.3574332121
 21
57.7752932202
 31
0.0
  0
LINE
  5
21B
330
1F
100
AcDbEntity
  8
0
  6
Continuous
 62
     7
370
    15
100
AcDbLine
 10
143.2977982105
 20
59.1578482173
 30
0.0
 11
144.7977982105
 21
58.2918228135
 31
0.0
  0
LINE
  5
21C
330
1F
100
AcDbEntity
  8
0
  6
Continuous
 62
     7
370
    15
100
AcDbLine
 10
165.3589321804
 20
57.7789142941
 30
0.0
 11
165.9764778669
 21
58.3964599806
 31
0.0
  0
ARC
  5
21D
330
1F
100
AcDbEntity
  8
0
  6
Continuous
 62
     7
370
    15
100
AcDbCircle
 10
235.2977982105
 20
60.6893531994
 30
0.0
 40
5.00000000000002
100
AcDbArc
 50
34.3408746466
 51
66.4218215218
  0
ARC
  5
21E
330
1F
100
AcDbEntity
  8
0
  6
Continuous
 62
     7
370
    15
100
AcDbCircle
 10
235.2977982105
 20
60.6893531994
 30
0.0
 40
5.000000000000035
100
AcDbArc
 50
293.5781784782
 51
313.6815083391
  0
LINE
  5
21F
330
1F
100
AcDbEntity
  8
0
  6
Continuous
 62
     7
370
    15
100
AcDbLine
 10
213.7977982105
 20
71.6893531994
 30
0.0
 11
212.7977982105
 21
72.6893531994
 31
0.0
  0
LINE
  5
220
330
1F
100
AcDbEntity
  8
0
  6
Continuous
 62
     7
370
    15
100
AcDbLine
 10
205.7977982105
 20
72.6893531994
 30
0.0
 11
204.7977982105
 21
71.6893531994
 31
0.0
  0
LINE
  5
221
330
1F
100
AcDbEntity
  8
0
  6
Continuous
 62
     7
370
    15
100
AcDbLine
 10
233.7977982105
 20
71.6893531994
 30
0.0
 11
232.7977982105
 21
72.6893531994
 31
0.0
  0
LINE
  5
222
330
1F
100
AcDbEntity
  8
0
  6
Continuous
 62
     7
370
    15
100
AcDbLine
 10
225.7977982105
 20
72.6893531994
 30
0.0
 11
224.7977982105
 21
71.6893531994
 31
0.0
  0
SPLINE
  5
223
330
1F
100
AcDbEntity
  8
0
  6
Continuous
 62
     7
370
    15
100
AcDbSpline
210
0.0
220
0.0
230
1.0
 70
     8
 71
     3
 72
    14
 73
    10
 74
     0
 42
0.00000001
 43
0.00000001
 12
1.0
 22
0.0
 32
0.0
 13
1.0
 23
0.0
 33
0.0
 40
0.0
 40
0.0
 40
0.0
 40
0.0
 40
0.5000000000000031
 40
0.5000000000000031
 40
0.7500000000000032
 40
0.7500000000000032
 40
0.8750000000000017
 40
0.8750000000000017
 40
1.0
 40
1.0
 40
1.0
 40
1.0
 10
189.8840391309427
 20
97.74540524388857
 30
0.0
 10
189.901445329372
 20
98.05577084050732
 30
0.0
 10
189.9756429215416
 20
98.36787715698885
 30
0.0
 10
190.2142077710184
 20
98.7758119618962
 30
0.0
 10
190.3151087507158
 20
98.89974039152935
 30
0.0
 10
190.5047109619415
 20
99.04014893809446
 30
0.0
 10
190.5746613567231
 20
99.07908938473301
 30
0.0
 10
190.7225279641432
 20
99.13236753224713
 30
0.0
 10
190.8017685227699
 20
99.14686631001236
 30
0.0
 10
190.8802338290345
 20
99.14686631001236
 30
0.0
  0
SPLINE
  5
224
330
1F
100
AcDbEntity
  8
0
  6
Continuous
 62
     7
370
    15
100
AcDbSpline
210
0.0
220
0.0
230
1.0
 70
    24
 71
     3
 72
    18
 73
    14
 74
     0
 42
0.00000001
 43
0.00000001
 12
1.0
 22
0.0
 32
0.0
 13
1.0
 23
0.0
 33
0.0
 40
0.0
 40
0.0
 40
0.0
 40
0.0
 40
0.125
 40
0.125
 40
0.25
 40
0.25
 40
0.375
 40
0.375
 40
0.5
 40
0.5
 40
0.75
 40
0.75
 40
1.0
 40
1.0
 40
1.0
 40
1.0
 10
190.8802338290345
 20
107.6893531993663
 30
0.0
 10
190.779262118183
 20
107.6893531993663
 30
0.0
 10
190.68132615249
 20
107.6893531993663
 30
0.0
 10
190.5119191466058
 20
107.6893531993663
 30
0.0
 10
190.4383753857551
 20
107.6893531993663
 30
0.0
 10
190.3128377902752
 20
107.6893531993663
 30
0.0
 10
190.2590051727504
 20
107.6893531993663
 30
0.0
 10
190.1663942474385
 20
107.6893531993663
 30
0.0
 10
190.1272690596938
 20
107.6893531993663
 30
0.0
 10
190.0251446990435
 20
107.6893531993663
 30
0.0
 10
189.9772845583892
 20
107.6893531993663
 30
0.0
 10
189.9107370662503
 20
107.6893531993663
 30
0.0
 10
189.8916903987406
 20
107.6893531993663
 30
0.0
 10
189.8840391309427
 20
107.6893531993663
 30
0.0
  0
SPLINE
  5
225
330
1F
100
AcDbEntity
  8
0
  6
Continuous
 62
     7
370
    15
100
AcDbSpline
210
0.0
220
0.0
230
1.0
 70
    24
 71
     3
 72
    11
 73
     7
 74
     0
 42
0.00000001
 43
0.00000001
 12
1.0
 22
0.0
 32
0.0
 13
1.0
 23
0.0
 33
0.0
 40
0.0
 40
0.0
 40
0.0
 40
0.0
 40
0.0534486568878714
 40
0.3761355784768707
 40
0.6988680867517996
 40
1.0
 40
1.0
 40
1.0
 40
1.0
 10
189.8840391309427
 20
107.6893531993663
 30
0.0
 10
189.872130250873
 20
107.6893531993663
 30
0.0
 10
189.7883235893989
 20
107.6893531993662
 30
0.0
 10
189.6603103914497
 20
107.6893531993663
 30
0.0
 10
189.5461990586498
 20
107.6893531993662
 30
0.0
 10
189.5345504880984
 20
107.6893531993663
 30
0.0
 10
189.5289278620666
 20
107.6893531993663
 30
0.0
  0
SPLINE
  5
226
330
1F
100
AcDbEntity
  8
0
  6
Continuous
 62
     7
370
    15
100
AcDbSpline
210
0.0
220
0.0
230
1.0
 70
     8
 71
     3
 72
    12
 73
     8
 74
     0
 42
0.00000001
 43
0.00000001
 12
1.0
 22
0.0
 32
0.0
 13
1.0
 23
0.0
 33
0.0
 40
0.0
 40
0.0
 40
0.0
 40
0.0
 40
0.5
 40
0.5
 40
0.75
 40
0.75
 40
1.0
 40
1.0
 40
1.0
 40
1.0
 10
189.8840391309427
 20
97.74540524388857
 30
0.0
 10
189.4632230133526
 20
90.24193767552522
 30
0.0
 10
189.1537580170826
 20
82.73651802175901
 30
0.0
 10
189.070700889089
 20
71.47170680735708
 30
0.0
 10
189.1060566178034
 20
67.71566456272647
 30
0.0
 10
189.2897535032666
 20
60.20159933719439
 30
0.0
 10
189.4366212819305
 20
56.44339266331793
 30
0.0
 10
189.6188047376254
 20
52.68935319936622
 30
0.0
  0
SPLINE
  5
227
330
1F
100
AcDbEntity
  8
0
  6
Continuous
 62
     7
370
    15
100
AcDbSpline
210
0.0
220
0.0
230
1.0
 70
     8
 71
     3
 72
     8
 73
     4
 74
     0
 42
0.00000001
 43
0.00000001
 12
1.0
 22
0.0
 32
0.0
 13
1.0
 23
0.0
 33
0.0
 40
0.0
 40
0.0
 40
0.0
 40
0.0
 40
0.0014143833462928
 40
0.0014143833462928
 40
0.0014143833462928
 40
0.0014143833462928
 10
189.5968901244563
 20
51.68935319936624
 30
0.0
 10
189.6034062156615
 20
52.02269470887171
 30
0.0
 10
189.6107166272353
 20
52.35602890844695
 30
0.0
 10
189.6188047376254
 20
52.68935319936623
 30
0.0
  0
SPLINE
  5
228
330
1F
100
AcDbEntity
  8
0
  6
Continuous
 62
     7
370
    15
100
AcDbSpline
210
0.0
220
0.0
230
1.0
 70
    24
 71
     3
 72
    12
 73
     8
 74
     0
 42
0.00000001
 43
0.00000001
 12
1.0
 22
0.0
 32
0.0
 13
1.0
 23
0.0
 33
0.0
 40
0.0
 40
0.0
 40
0.0
 40
0.0
 40
0.0169485288858684
 40
0.2994133945946764
 40
0.5824933168112338
 40
0.8656656325049087
 40
1.0
 40
1.0
 40
1.0
 40
1.0
 10
188.3092759274591
 20
51.68935319936624
 30
0.0
 10
188.3067491613332
 20
51.68935319936624
 30
0.0
 10
188.2621112090845
 20
51.68935319936623
 30
0.0
 10
188.4345092121481
 20
51.68935319936624
 30
0.0
 10
188.7966957700489
 20
51.68935319936624
 30
0.0
 10
189.2252184049734
 20
51.68935319936624
 30
0.0
 10
189.5064142794822
 20
51.68935319936624
 30
0.0
 10
189.5968901244576
 20
51.68935319936624
 30
0.0
  0
LINE
  5
229
330
1F
100
AcDbEntity
  8
0
  6
Continuous
 62
     7
370
    15
100
AcDbLine
 10
247.2977982105
 20
107.6893531994
 30
0.0
 11
190.880233829
 21
107.6893531994
 31
0.0
  0
LINE
  5
22A
330
1F
100
AcDbEntity
  8
0
  6
Continuous
 62
     7
370
    15
100
AcDbLine
 10
247.2977982105
 20
100.2393078273
 30
0.0
 11
247.2977982105
 21
107.6893531994
 31
0.0
  0
ARC
  5
22B
330
1F
100
AcDbEntity
  8
0
  6
Continuous
 62
     7
370
    15
100
AcDbCircle
 10
276.2977982105
 20
72.6893531994
 30
0.0
 40
40.00000000000035
100
AcDbArc
 50
136.4688478326
 51
138.5903778907
  0
LINE
  5
22C
330
1F
100
AcDbEntity
  8
0
  6
Continuous
 62
     7
370
    15
100
AcDbLine
 10
190.880233829
 20
99.14686631
 30
0.0
 11
246.2977982105
 21
99.14686631
 31
0.0
  0
LINE
  5
22D
330
1F
100
AcDbEntity
  8
0
  6
Continuous
 62
     7
370
    15
100
AcDbLine
 10
247.2977982105
 20
100.2393078273
 30
0.0
 11
247.2977982105
 21
92.6893531994
 31
0.0
  0
LINE
  5
22E
330
1F
100
AcDbEntity
  8
0
  6
Continuous
 62
     7
370
    15
100
AcDbLine
 10
247.2977982105
 20
92.6893531994
 30
0.0
 11
246.2977982105
 21
92.6893531994
 31
0.0
  0
LINE
  5
22F
330
1F
100
AcDbEntity
  8
0
  6
Continuous
 62
     7
370
    15
100
AcDbLine
 10
246.2977982105
 20
92.6893531994
 30
0.0
 11
246.2977982105
 21
99.14686631
 31
0.0
  0
ARC
  5
230
330
1F
100
AcDbEntity
  8
0
  6
Continuous
 62
     7
370
    15
100
AcDbCircle
 10
196.5477982105
 20
92.6893531994
 30
0.0
 40
4.25
100
AcDbArc
 50
0.0
 51
180.0
  0
LINE
  5
231
330
1F
100
AcDbEntity
  8
0
  6
Continuous
 62
     7
370
    15
100
AcDbLine
 10
192.2977982105
 20
71.6893531994
 30
0.0
 11
192.2977982105
 21
92.6893531994
 31
0.0
  0
ARC
  5
232
330
1F
100
AcDbEntity
  8
0
  6
Continuous
 62
     7
370
    15
100
AcDbCircle
 10
196.5477982105
 20
71.6893531994
 30
0.0
 40
4.25
100
AcDbArc
 50
180.0
 51
0.0
  0
LINE
  5
233
330
1F
100
AcDbEntity
  8
0
  6
Continuous
 62
     7
370
    15
100
AcDbLine
 10
236.2977982105
 20
71.6893531994
 30
0.0
 11
200.7977982105
 21
71.6893531994
 31
0.0
  0
LINE
  5
234
330
1F
100
AcDbEntity
  8
0
  6
Continuous
 62
     7
370
    15
100
AcDbLine
 10
236.2977982105
 20
52.6893531994
 30
0.0
 11
236.2977982105
 21
71.6893531994
 31
0.0
  0
LINE
  5
235
330
1F
100
AcDbEntity
  8
0
  6
Continuous
 62
     7
370
    15
100
AcDbLine
 10
189.6188047376
 20
52.6893531994
 30
0.0
 11
236.2977982105
 21
52.6893531994
 31
0.0
  0
LINE
  5
236
330
1F
100
AcDbEntity
  8
0
  6
Continuous
 62
     7
370
    15
100
AcDbLine
 10
200.7977982105
 20
92.6893531994
 30
0.0
 11
246.2977982105
 21
92.6893531994
 31
0.0
  0
LINE
  5
237
330
1F
100
AcDbEntity
  8
0
  6
Continuous
 62
     7
370
    15
100
AcDbLine
 10
237.2977982105
 20
71.6893531994
 30
0.0
 11
237.2977982105
 21
52.6893531994
 31
0.0
  0
LINE
  5
238
330
1F
100
AcDbEntity
  8
0
  6
Continuous
 62
     7
370
    15
100
AcDbLine
 10
237.2977982105
 20
52.6893531994
 30
0.0
 11
236.2977982105
 21
52.6893531994
 31
0.0
  0
LINE
  5
239
330
1F
100
AcDbEntity
  8
0
  6
Continuous
 62
     7
370
    15
100
AcDbLine
 10
236.2977982105
 20
71.6893531994
 30
0.0
 11
237.2977982105
 21
71.6893531994
 31
0.0
  0
LINE
  5
23A
330
1F
100
AcDbEntity
  8
0
  6
Continuous
 62
     7
370
    15
100
AcDbLine
 10
236.2977982105
 20
52.6893531994
 30
0.0
 11
236.2977982105
 21
51.6893531994
 31
0.0
  0
LINE
  5
23B
330
1F
100
AcDbEntity
  8
0
  6
Continuous
 62
     7
370
    15
100
AcDbLine
 10
236.2977982105
 20
51.6893531994
 30
0.0
 11
189.5968901245
 21
51.6893531994
 31
0.0
  0
LINE
  5
23C
330
1F
100
AcDbEntity
  8
0
  6
Continuous
 62
     7
370
    15
100
AcDbLine
 10
237.2977982105
 20
52.6893531994
 30
0.0
 11
236.2977982105
 21
51.6893531994
 31
0.0
  0
SPLINE
  5
23D
330
1F
100
AcDbEntity
  8
0
  6
Continuous
 62
     7
370
    15
100
AcDbSpline
210
0.0
220
0.0
230
1.0
 70
     8
 71
     3
 72
    17
 73
    13
 74
     0
 42
0.00000001
 43
0.00000001
 12
1.0
 22
0.0
 32
0.0
 13
1.0
 23
0.0
 33
0.0
 40
0.0
 40
0.0
 40
0.0
 40
0.0
 40
0.1070067304901329
 40
0.2140006436556025
 40
0.3213278002350863
 40
0.4288794428343208
 40
0.5360665901812036
 40
0.642868718302822
 40
0.7498660069585779
 40
0.8573331836369081
 40
0.9648140045701273
 40
1.0
 40
1.0
 40
1.0
 40
1.0
 10
177.2977982104811
 20
92.68935319936625
 30
0.0
 10
177.3197983671856
 20
92.68709117860189
 30
0.0
 10
177.3637960454037
 20
92.68256740801928
 30
0.0
 10
177.706635162697
 20
92.651082828078
 30
0.0
 10
178.2124255395443
 20
92.61591288752014
 30
0.0
 10
178.8456187094388
 20
92.5904524099661
 30
0.0
 10
179.5283035255617
 20
92.58657401172738
 30
0.0
 10
180.1827240504035
 20
92.60556937933359
 30
0.0
 10
180.7421972721859
 20
92.63960288622518
 30
0.0
 10
181.125090985181
 20
92.67207890112347
 30
0.0
 10
181.3080130063099
 20
92.69036097452008
 30
0.0
 10
181.2798432296797
 20
92.68757392928477
 30
0.0
 10
181.2728957021674
 20
92.68688655878466
 30
0.0
  0
SPLINE
  5
23E
330
1F
100
AcDbEntity
  8
0
  6
Continuous
 62
     7
370
    15
100
AcDbSpline
210
0.0
220
0.0
230
1.0
 70
     8
 71
     3
 72
    12
 73
     8
 74
     0
 42
0.00000001
 43
0.00000001
 12
1.0
 22
0.0
 32
0.0
 13
1.0
 23
0.0
 33
0.0
 40
0.0
 40
0.0
 40
0.0
 40
0.0
 40
0.2500000000000004
 40
0.2500000000000004
 40
0.5000000000000008
 40
0.5000000000000008
 40
1.0
 40
1.0
 40
1.0
 40
1.0
 10
174.2297002124804
 20
78.51856619501783
 30
0.0
 10
174.1921883264357
 20
78.51856619501783
 30
0.0
 10
174.1569009787309
 20
78.5333710093046
 30
0.0
 10
174.0979711304925
 20
78.57696288243044
 30
0.0
 10
174.0744454040235
 20
78.60447630851644
 30
0.0
 10
174.0141866162554
 20
78.69360804063004
 30
0.0
 10
173.9885918539661
 20
78.75999389124784
 30
0.0
 10
173.969892591345
 20
78.82759832642522
 30
0.0
  0
LINE
  5
23F
330
1F
100
AcDbEntity
  8
0
  6
Continuous
 62
     7
370
    15
100
AcDbLine
 10
176.3658962085
 20
78.518566195
 30
0.0
 11
174.2297002125
 21
78.518566195
 31
0.0
  0
SPLINE
  5
240
330
1F
100
AcDbEntity
  8
0
  6
Continuous
 62
     7
370
    15
100
AcDbSpline
210
0.0
220
0.0
230
1.0
 70
     8
 71
     3
 72
    12
 73
     8
 74
     0
 42
0.00000001
 43
0.00000001
 12
1.0
 22
0.0
 32
0.0
 13
1.0
 23
0.0
 33
0.0
 40
0.0
 40
0.0
 40
0.0
 40
0.0
 40
0.4999999999999916
 40
0.4999999999999916
 40
0.7499999999999958
 40
0.7499999999999958
 40
1.0
 40
1.0
 40
1.0
 40
1.0
 10
176.6257038296173
 20
78.82759832642522
 30
0.0
 10
176.6070105964869
 20
78.76001568998485
 30
0.0
 10
176.5813552990751
 20
78.69353312050742
 30
0.0
 10
176.5211946763886
 20
78.60453803760988
 30
0.0
 10
176.4971223646343
 20
78.57653614061073
 30
0.0
 10
176.4387408442837
 20
78.53345973994556
 30
0.0
 10
176.4032720166307
 20
78.51856619501781
 30
0.0
 10
176.365896208482
 20
78.51856619501781
 30
0.0
  0
ELLIPSE
  5
241
330
1F
100
AcDbEntity
  8
0
  6
Continuous
 62
     7
370
    15
100
AcDbEllipse
 10
166.348869038
 20
72.6893531994
 30
0.0
 11
9.367417879781726
 21
19.74174915274994
 31
0.0
210
0.0
220
0.0
230
1.0
 40
0.3419987131
 41
5.185211263708396
 42
6.132113578252558
  0
SPLINE
  5
242
330
1F
100
AcDbEntity
  8
0
  6
Continuous
 62
     7
370
    15
100
AcDbSpline
210
0.0
220
0.0
230
1.0
 70
     8
 71
     3
 72
    12
 73
     8
 74
     0
 42
0.00000001
 43
0.00000001
 12
1.0
 22
0.0
 32
0.0
 13
1.0
 23
0.0
 33
0.0
 40
0.0
 40
0.0
 40
0.0
 40
0.0
 40
0.2500000000000014
 40
0.2500000000000014
 40
0.5000000000000029
 40
0.5000000000000029
 40
1.0
 40
1.0
 40
1.0
 40
1.0
 10
176.365896208482
 20
91.82100957959958
 30
0.0
 10
176.4034080945266
 20
91.82100957959958
 30
0.0
 10
176.4386954422314
 20
91.81650603533704
 30
0.0
 10
176.4976252904698
 20
91.80313283588376
 30
0.0
 10
176.5211510169389
 20
91.79464793331263
 30
0.0
 10
176.5814098047069
 20
91.76690012947803
 30
0.0
 10
176.6070045669962
 20
91.74591026573766
 30
0.0
 10
176.6257038296173
 20
91.72410948254814
 30
0.0
  0
LINE
  5
243
330
1F
100
AcDbEntity
  8
0
  6
Continuous
 62
     7
370
    15
100
AcDbLine
 10
174.2297002125
 20
91.8210095796
 30
0.0
 11
176.3658962085
 21
91.8210095796
 31
0.0
  0
SPLINE
  5
244
330
1F
100
AcDbEntity
  8
0
  6
Continuous
 62
     7
370
    15
100
AcDbSpline
210
0.0
220
0.0
230
1.0
 70
     8
 71
     3
 72
    12
 73
     8
 74
     0
 42
0.00000001
 43
0.00000001
 12
1.0
 22
0.0
 32
0.0
 13
1.0
 23
0.0
 33
0.0
 40
0.0
 40
0.0
 40
0.0
 40
0.0
 40
0.5000000000000029
 40
0.5000000000000029
 40
0.7500000000000014
 40
0.7500000000000014
 40
1.0
 40
1.0
 40
1.0
 40
1.0
 10
173.969892591345
 20
91.72410948254814
 30
0.0
 10
173.9885858244754
 20
91.74590323617609
 30
0.0
 10
174.0142411218872
 20
91.76692339788573
 30
0.0
 10
174.0744017445737
 20
91.79462874384944
 30
0.0
 10
174.098474056328
 20
91.80326396004283
 30
0.0
 10
174.1568555766786
 20
91.8164786052694
 30
0.0
 10
174.1923244043316
 20
91.82100957959958
 30
0.0
 10
174.2297002124804
 20
91.82100957959959
 30
0.0
  0
ELLIPSE
  5
245
330
1F
100
AcDbEntity
  8
0
  6
Continuous
 62
     7
370
    15
100
AcDbEllipse
 10
184.2467273829
 20
72.6893531994
 30
0.0
 11
-9.367417879781584
 21
19.74174915274996
 31
0.0
210
0.0
220
0.0
230
1.0
 40
0.3419987131
 41
0.1510717289270712
 42
1.097974043471205
  0
SPLINE
  5
246
330
1F
100
AcDbEntity
  8
0
  6
Continuous
 62
     7
370
    15
100
AcDbSpline
210
0.0
220
0.0
230
1.0
 70
     8
 71
     3
 72
    12
 73
     8
 74
     0
 42
0.00000001
 43
0.00000001
 12
1.0
 22
0.0
 32
0.0
 13
1.0
 23
0.0
 33
0.0
 40
0.0
 40
0.0
 40
0.0
 40
0.0
 40
0.2500000000000027
 40
0.2500000000000027
 40
0.5000000000000053
 40
0.5000000000000053
 40
1.0
 40
1.0
 40
1.0
 40
1.0
 10
174.2297002124804
 20
53.55769681913279
 30
0.0
 10
174.1921883264357
 20
53.55769681913279
 30
0.0
 10
174.1569009787309
 20
53.56220036339531
 30
0.0
 10
174.0979711304925
 20
53.57557356284862
 30
0.0
 10
174.0744454040235
 20
53.58405846541974
 30
0.0
 10
174.0141866162554
 20
53.61180626925433
 30
0.0
 10
173.9885918539661
 20
53.63279613299469
 30
0.0
 10
173.969892591345
 20
53.65459691618423
 30
0.0
  0
LINE
  5
247
330
1F
100
AcDbEntity
  8
0
  6
Continuous
 62
     7
370
    15
100
AcDbLine
 10
176.3658962085
 20
53.5576968191
 30
0.0
 11
174.2297002125
 21
53.5576968191
 31
0.0
  0
SPLINE
  5
248
330
1F
100
AcDbEntity
  8
0
  6
Continuous
 62
     7
370
    15
100
AcDbSpline
210
0.0
220
0.0
230
1.0
 70
     8
 71
     3
 72
    12
 73
     8
 74
     0
 42
0.00000001
 43
0.00000001
 12
1.0
 22
0.0
 32
0.0
 13
1.0
 23
0.0
 33
0.0
 40
0.0
 40
0.0
 40
0.0
 40
0.0
 40
0.5000000000000061
 40
0.5000000000000061
 40
0.750000000000003
 40
0.750000000000003
 40
1.0
 40
1.0
 40
1.0
 40
1.0
 10
176.6257038296173
 20
53.65459691618423
 30
0.0
 10
176.6070105964869
 20
53.63280316255626
 30
0.0
 10
176.5813552990751
 20
53.61178300084664
 30
0.0
 10
176.5211946763886
 20
53.58407765488293
 30
0.0
 10
176.4971223646343
 20
53.57544243868954
 30
0.0
 10
176.4387408442837
 20
53.56222779346295
 30
0.0
 10
176.4032720166307
 20
53.55769681913279
 30
0.0
 10
176.365896208482
 20
53.55769681913279
 30
0.0
  0
ELLIPSE
  5
249
330
1F
100
AcDbEntity
  8
0
  6
Continuous
 62
     7
370
    15
100
AcDbEllipse
 10
166.348869038
 20
72.6893531994
 30
0.0
 11
-9.36741787978187
 21
19.74174915274995
 31
0.0
210
0.0
220
0.0
230
1.0
 40
0.3419987131
 41
3.292664382516883
 42
4.239566697060988
  0
SPLINE
  5
24A
330
1F
100
AcDbEntity
  8
0
  6
Continuous
 62
     7
370
    15
100
AcDbSpline
210
0.0
220
0.0
230
1.0
 70
     8
 71
     3
 72
    12
 73
     8
 74
     0
 42
0.00000001
 43
0.00000001
 12
1.0
 22
0.0
 32
0.0
 13
1.0
 23
0.0
 33
0.0
 40
0.0
 40
0.0
 40
0.0
 40
0.0
 40
0.249999999999999
 40
0.249999999999999
 40
0.499999999999998
 40
0.499999999999998
 40
1.0
 40
1.0
 40
1.0
 40
1.0
 10
176.365896208482
 20
66.86014020371428
 30
0.0
 10
176.4034080945266
 20
66.86014020371427
 30
0.0
 10
176.4386954422313
 20
66.84533538942748
 30
0.0
 10
176.4976252904698
 20
66.80174351630164
 30
0.0
 10
176.5211510169388
 20
66.77423009021564
 30
0.0
 10
176.5814098047069
 20
66.68509835810205
 30
0.0
 10
176.6070045669962
 20
66.61871250748425
 30
0.0
 10
176.6257038296173
 20
66.55110807230686
 30
0.0
  0
LINE
  5
24B
330
1F
100
AcDbEntity
  8
0
  6
Continuous
 62
     7
370
    15
100
AcDbLine
 10
174.2297002125
 20
66.8601402037
 30
0.0
 11
176.3658962085
 21
66.8601402037
 31
0.0
  0
SPLINE
  5
24C
330
1F
100
AcDbEntity
  8
0
  6
Continuous
 62
     7
370
    15
100
AcDbSpline
210
0.0
220
0.0
230
1.0
 70
     8
 71
     3
 72
    12
 73
     8
 74
     0
 42
0.00000001
 43
0.00000001
 12
1.0
 22
0.0
 32
0.0
 13
1.0
 23
0.0
 33
0.0
 40
0.0
 40
0.0
 40
0.0
 40
0.0
 40
0.4999999999999956
 40
0.4999999999999956
 40
0.7499999999999978
 40
0.7499999999999978
 40
1.0
 40
1.0
 40
1.0
 40
1.0
 10
173.969892591345
 20
66.5511080723069
 30
0.0
 10
173.9885858244754
 20
66.61869070874727
 30
0.0
 10
174.0142411218872
 20
66.68517327822468
 30
0.0
 10
174.0744017445737
 20
66.7741683611222
 30
0.0
 10
174.098474056328
 20
66.80217025812135
 30
0.0
 10
174.1568555766786
 20
66.84524665878652
 30
0.0
 10
174.1923244043316
 20
66.86014020371428
 30
0.0
 10
174.2297002124804
 20
66.86014020371428
 30
0.0
  0
ELLIPSE
  5
24D
330
1F
100
AcDbEntity
  8
0
  6
Continuous
 62
     7
370
    15
100
AcDbEllipse
 10
184.2467273829
 20
72.6893531994
 30
0.0
 11
9.367417879781728
 21
19.74174915274996
 31
0.0
210
0.0
220
0.0
230
1.0
 40
0.3419987131
 41
2.043618610118606
 42
2.990520924662742
  0
LINE
  5
24E
330
1F
100
AcDbEntity
  8
0
  6
Continuous
 62
     7
370
    15
100
AcDbLine
 10
167.2977982105
 20
52.9893531994
 30
0.0
 11
167.2977982105
 21
92.3893531994
 31
0.0
  0
SPLINE
  5
24F
330
1F
100
AcDbEntity
  8
0
  6
Continuous
 62
     7
370
    15
100
AcDbSpline
210
0.0
220
0.0
230
1.0
 70
     8
 71
     3
 72
    18
 73
    14
 74
     0
 42
0.00000001
 43
0.00000001
 12
1.0
 22
0.0
 32
0.0
 13
1.0
 23
0.0
 33
0.0
 40
0.0
 40
0.0
 40
0.0
 40
0.0
 40
0.25
 40
0.25
 40
0.5
 40
0.5
 40
0.625
 40
0.625
 40
0.75
 40
0.75
 40
0.875
 40
0.875
 40
1.0
 40
1.0
 40
1.0
 40
1.0
 10
166.0417138929182
 20
82.98809083988807
 30
0.0
 10
166.0760149374509
 20
83.05144562635232
 30
0.0
 10
166.1138352087477
 20
83.11309151293626
 30
0.0
 10
166.2004535292085
 20
83.23242714865044
 30
0.0
 10
166.248824863952
 20
83.29018525239735
 30
0.0
 10
166.3382278460705
 20
83.37255780690268
 30
0.0
 10
166.3708251299477
 20
83.3993069419402
 30
0.0
 10
166.4472070338926
 20
83.45050099211649
 30
0.0
 10
166.4902454712334
 20
83.47477130867364
 30
0.0
 10
166.5960585040652
 20
83.5138521934398
 30
0.0
 10
166.6610969287963
 20
83.52774167968954
 30
0.0
 10
166.7942490005989
 20
83.52528784897302
 30
0.0
 10
166.8536181810621
 20
83.51014119817806
 30
0.0
 10
166.9028213216059
 20
83.49067934623417
 30
0.0
  0
SPLINE
  5
250
330
1F
100
AcDbEntity
  8
0
  6
Continuous
 62
     7
370
    15
100
AcDbSpline
210
0.0
220
0.0
230
1.0
 70
     8
 71
     3
 72
    16
 73
    12
 74
     0
 42
0.00000001
 43
0.00000001
 12
1.0
 22
0.0
 32
0.0
 13
1.0
 23
0.0
 33
0.0
 40
0.0
 40
0.0
 40
0.0
 40
0.0
 40
0.0624999999999978
 40
0.0624999999999978
 40
0.1249999999999955
 40
0.1249999999999955
 40
0.2499999999999948
 40
0.2499999999999948
 40
0.499999999999998
 40
0.499999999999998
 40
1.0
 40
1.0
 40
1.0
 40
1.0
 10
166.9028213215751
 20
83.49067934619531
 30
0.0
 10
166.9148911548509
 20
83.48590523409929
 30
0.0
 10
166.9291668097842
 20
83.48294354942792
 30
0.0
 10
166.9606312219087
 20
83.48747935840225
 30
0.0
 10
166.976131746719
 20
83.4955036304911
 30
0.0
 10
167.0115706433259
 20
83.52427947795387
 30
0.0
 10
167.0251632594293
 20
83.54782719467123
 30
0.0
 10
167.0581575778221
 20
83.61462642518133
 30
0.0
 10
167.0689449711409
 20
83.65816425938401
 30
0.0
 10
167.09399821842
 20
83.78580492967848
 30
0.0
 10
167.0977982104813
 20
83.86537229143806
 30
0.0
 10
167.0977982104813
 20
83.94205813645725
 30
0.0
  0
LINE
  5
251
330
1F
100
AcDbEntity
  8
0
  6
Continuous
 62
     7
370
    15
100
AcDbLine
 10
167.0977982105
 20
86.7791734782
 30
0.0
 11
167.0977982105
 21
83.9420581365
 31
0.0
  0
SPLINE
  5
252
330
1F
100
AcDbEntity
  8
0
  6
Continuous
 62
     7
370
    15
100
AcDbSpline
210
0.0
220
0.0
230
1.0
 70
     8
 71
     3
 72
     8
 73
     4
 74
     0
 42
0.00000001
 43
0.00000001
 12
1.0
 22
0.0
 32
0.0
 13
1.0
 23
0.0
 33
0.0
 40
0.0
 40
0.0
 40
0.0
 40
0.0
 40
1.0
 40
1.0
 40
1.0
 40
1.0
 10
166.0417138929182
 20
59.03176983203237
 30
0.0
 10
166.0174008966488
 20
58.98792117476091
 30
0.0
 10
165.9959040722204
 20
58.94496092319258
 30
0.0
 10
165.9764778669214
 20
58.90304668845727
 30
0.0
  0
SPLINE
  5
253
330
1F
100
AcDbEntity
  8
0
  6
Continuous
 62
     7
370
    15
100
AcDbSpline
210
0.0
220
0.0
230
1.0
 70
     8
 71
     3
 72
    18
 73
    14
 74
     0
 42
0.00000001
 43
0.00000001
 12
1.0
 22
0.0
 32
0.0
 13
1.0
 23
0.0
 33
0.0
 40
0.0
 40
0.0
 40
0.0
 40
0.0
 40
0.2499999999999987
 40
0.2499999999999987
 40
0.4999999999999973
 40
0.4999999999999973
 40
0.624999999999998
 40
0.624999999999998
 40
0.7499999999999987
 40
0.7499999999999987
 40
0.8749999999999993
 40
0.8749999999999993
 40
1.0
 40
1.0
 40
1.0
 40
1.0
 10
166.0417138929182
 20
59.03176983203236
 30
0.0
 10
166.0760122119308
 20
59.09362708807404
 30
0.0
 10
166.1138266092428
 20
59.15569839704975
 30
0.0
 10
166.2004146703164
 20
59.27915512109217
 30
0.0
 10
166.248764775995
 20
59.34065075840567
 30
0.0
 10
166.3380813647948
 20
59.4300675903547
 30
0.0
 10
166.3706417202831
 20
59.45940425438904
 30
0.0
 10
166.446887354012
 20
59.51568703063063
 30
0.0
 10
166.490046723792
 20
59.54261969860576
 30
0.0
 10
166.5957755478101
 20
59.58453556956088
 30
0.0
 10
166.6607727248648
 20
59.59840512492664
 30
0.0
 10
166.794257214819
 20
59.58902673412506
 30
0.0
 10
166.8535846082645
 20
59.56773805518359
 30
0.0
 10
166.9028213216059
 20
59.54208744206583
 30
0.0
  0
SPLINE
  5
254
330
1F
100
AcDbEntity
  8
0
  6
Continuous
 62
     7
370
    15
100
AcDbSpline
210
0.0
220
0.0
230
1.0
 70
     8
 71
     3
 72
    16
 73
    12
 74
     0
 42
0.00000001
 43
0.00000001
 12
1.0
 22
0.0
 32
0.0
 13
1.0
 23
0.0
 33
0.0
 40
0.0
 40
0.0
 40
0.0
 40
0.0
 40
0.0624999999999999
 40
0.0624999999999999
 40
0.1249999999999997
 40
0.1249999999999997
 40
0.2499999999999996
 40
0.2499999999999996
 40
0.4999999999999993
 40
0.4999999999999993
 40
1.0
 40
1.0
 40
1.0
 40
1.0
 10
166.9028213215751
 20
59.5420874420598
 30
0.0
 10
166.9148911548509
 20
59.53579947921989
 30
0.0
 10
166.9291668097842
 20
59.52952150725015
 30
0.0
 10
166.9606312219087
 20
59.52043764041379
 30
0.0
 10
166.976131746719
 20
59.51846715115477
 30
0.0
 10
167.0115706433259
 20
59.51878060809636
 30
0.0
 10
167.0251632594293
 20
59.52480226509827
 30
0.0
 10
167.0581575778221
 20
59.54504627860658
 30
0.0
 10
167.0689449711409
 20
59.56345708660545
 30
0.0
 10
167.09399821842
 20
59.62342298342373
 30
0.0
 10
167.0977982104813
 20
59.66986314463657
 30
0.0
 10
167.0977982104813
 20
59.7196533798281
 30
0.0
  0
LINE
  5
255
330
1F
100
AcDbEntity
  8
0
  6
Continuous
 62
     7
370
    15
100
AcDbLine
 10
167.0977982105
 20
74.4063480818
 30
0.0
 11
167.0977982105
 21
59.7196533798
 31
0.0
  0
SPLINE
  5
256
330
1F
100
AcDbEntity
  8
0
  6
Continuous
 62
     7
370
    15
100
AcDbSpline
210
0.0
220
0.0
230
1.0
 70
     8
 71
     3
 72
    16
 73
    12
 74
     0
 42
0.00000001
 43
0.00000001
 12
1.0
 22
0.0
 32
0.0
 13
1.0
 23
0.0
 33
0.0
 40
0.0
 40
0.0
 40
0.0
 40
0.0
 40
0.5000000000000023
 40
0.5000000000000023
 40
0.7500000000000038
 40
0.7500000000000038
 40
0.8750000000000036
 40
0.8750000000000036
 40
0.9375000000000018
 40
0.9375000000000018
 40
1.0
 40
1.0
 40
1.0
 40
1.0
 10
167.0977982104812
 20
74.40634808181342
 30
0.0
 10
167.0977982104812
 20
74.53312584932462
 30
0.0
 10
167.0939147853222
 20
74.65911529917268
 30
0.0
 10
167.0690994600476
 20
74.84545081115239
 30
0.0
 10
167.058260012335
 20
74.90817263020568
 30
0.0
 10
167.0250442302863
 20
74.99571608103301
 30
0.0
 10
167.0116624866574
 20
75.0248959200362
 30
0.0
 10
166.9761528367952
 20
75.05408556734155
 30
0.0
 10
166.9607358702945
 20
75.06016194845935
 30
0.0
 10
166.9290348481458
 20
75.0555712405802
 30
0.0
 10
166.9148885631951
 20
75.04635250943174
 30
0.0
 10
166.9028213216054
 20
75.03529280979835
 30
0.0
  0
SPLINE
  5
257
330
1F
100
AcDbEntity
  8
0
  6
Continuous
 62
     7
370
    15
100
AcDbSpline
210
0.0
220
0.0
230
1.0
 70
     8
 71
     3
 72
    18
 73
    14
 74
     0
 42
0.00000001
 43
0.00000001
 12
1.0
 22
0.0
 32
0.0
 13
1.0
 23
0.0
 33
0.0
 40
0.0
 40
0.0
 40
0.0
 40
0.0
 40
0.125
 40
0.125
 40
0.2500000000000001
 40
0.2500000000000001
 40
0.3750000000000001
 40
0.3750000000000001
 40
0.5000000000000001
 40
0.5000000000000001
 40
0.75
 40
0.75
 40
1.0
 40
1.0
 40
1.0
 40
1.0
 10
166.9028213216116
 20
75.03529280978991
 30
0.0
 10
166.8541171925948
 20
74.99065518205695
 30
0.0
 10
166.7956095233903
 20
74.95453473466641
 30
0.0
 10
166.6638838607594
 20
74.94153473800058
 30
0.0
 10
166.5991262221391
 20
74.96810031943316
 30
0.0
 10
166.49391580552
 20
75.04694659012905
 30
0.0
 10
166.4506997705798
 20
75.09745089568494
 30
0.0
 10
166.3745215490989
 20
75.20334099445964
 30
0.0
 10
166.3416667814147
 20
75.25921173759902
 30
0.0
 10
166.2512990625729
 20
75.43141637572501
 30
0.0
 10
166.2018766933835
 20
75.55269533217144
 30
0.0
 10
166.1142242312955
 20
75.7979089853766
 30
0.0
 10
166.0761614950611
 20
75.92244695537094
 30
0.0
 10
166.0417138929177
 20
76.04819892618
 30
0.0
  0
SPLINE
  5
258
330
1F
100
AcDbEntity
  8
0
  6
Continuous
 62
     7
370
    15
100
AcDbSpline
210
0.0
220
0.0
230
1.0
 70
     8
 71
     3
 72
     8
 73
     4
 74
     0
 42
0.00000001
 43
0.00000001
 12
1.0
 22
0.0
 32
0.0
 13
1.0
 23
0.0
 33
0.0
 40
0.0
 40
0.0
 40
0.0
 40
0.0
 40
1.0
 40
1.0
 40
1.0
 40
1.0
 10
166.0417138929178
 20
76.04819892617957
 30
0.0
 10
166.0173998477836
 20
76.13695805319351
 30
0.0
 10
165.9959032938147
 20
76.22637049665573
 30
0.0
 10
165.9764778669214
 20
76.31625294142738
 30
0.0
  0
SPLINE
  5
259
330
1F
100
AcDbEntity
  8
0
  6
Continuous
 62
     7
370
    15
100
AcDbSpline
210
0.0
220
0.0
230
1.0
 70
     8
 71
     3
 72
     8
 73
     4
 74
     0
 42
0.00000001
 43
0.00000001
 12
1.0
 22
0.0
 32
0.0
 13
1.0
 23
0.0
 33
0.0
 40
0.0
 40
0.0
 40
0.0
 40
0.0
 40
1.0
 40
1.0
 40
1.0
 40
1.0
 10
165.9764778669214
 20
82.84875996821408
 30
0.0
 10
165.9959035470714
 20
82.89673048315044
 30
0.0
 10
166.0174001890275
 20
82.94318289206724
 30
0.0
 10
166.0417138929176
 20
82.98809083988921
 30
0.0
  0
LINE
  5
25A
330
1F
100
AcDbEntity
  8
0
  6
Continuous
 62
     7
370
    15
100
AcDbLine
 10
165.5977982105
 20
76.0481989262
 30
0.0
 11
165.5977982105
 21
77.3242285512
 31
0.0
  0
LINE
  5
25B
330
1F
100
AcDbEntity
  8
0
  6
Continuous
 62
     7
370
    15
100
AcDbLine
 10
144.7977982105
 20
76.0481989262
 30
0.0
 11
144.7977982105
 21
82.6991345385
 31
0.0
  0
LINE
  5
25C
330
1F
100
AcDbEntity
  8
0
  6
Continuous
 62
     7
370
    15
100
AcDbLine
 10
165.5977982105
 20
82.4271938624
 30
0.0
 11
165.5977982105
 21
83.151692047
 31
0.0
  0
SPLINE
  5
25D
330
1F
100
AcDbEntity
  8
0
  6
Continuous
 62
     7
370
    15
100
AcDbSpline
210
0.0
220
0.0
230
1.0
 70
     8
 71
     3
 72
    16
 73
    12
 74
     0
 42
0.00000001
 43
0.00000001
 12
1.0
 22
0.0
 32
0.0
 13
1.0
 23
0.0
 33
0.0
 40
0.0
 40
0.0
 40
0.0
 40
0.0
 40
0.2500000000000003
 40
0.2500000000000003
 40
0.3750000000000003
 40
0.3750000000000003
 40
0.5000000000000002
 40
0.5000000000000002
 40
0.7500000000000001
 40
0.7500000000000001
 40
1.0
 40
1.0
 40
1.0
 40
1.0
 10
165.597798210481
 20
77.32422855123069
 30
0.0
 10
165.5172608785817
 20
77.81964303346878
 30
0.0
 10
165.4572235345544
 20
78.3028074828505
 30
0.0
 10
165.3964858274007
 20
79.00930269012777
 30
0.0
 10
165.3811634522878
 20
79.24174187970436
 30
0.0
 10
165.3605806429836
 20
79.70030243758981
 30
0.0
 10
165.355381045958
 20
79.92687155486786
 30
0.0
 10
165.3553273927779
 20
80.58189006655148
 30
0.0
 10
165.3755249362556
 20
80.99096541685415
 30
0.0
 10
165.4562030246136
 20
81.75479893442798
 30
0.0
 10
165.517249189221
 20
82.1100990878876
 30
0.0
 10
165.5977982104791
 20
82.42719386239165
 30
0.0
  0
SPLINE
  5
25E
330
1F
100
AcDbEntity
  8
0
  6
Continuous
 62
     7
370
    15
100
AcDbSpline
210
0.0
220
0.0
230
1.0
 70
     8
 71
     3
 72
     8
 73
     4
 74
     0
 42
0.00000001
 43
0.00000001
 12
1.0
 22
0.0
 32
0.0
 13
1.0
 23
0.0
 33
0.0
 40
0.0
 40
0.0
 40
0.0
 40
0.0
 40
1.0
 40
1.0
 40
1.0
 40
1.0
 10
165.9764778669215
 20
76.3162529414274
 30
0.0
 10
165.9113727053075
 20
76.61749785744824
 30
0.0
 10
165.8534853757475
 20
76.91853300945805
 30
0.0
 10
165.8027582325415
 20
77.2193028337244
 30
0.0
  0
SPLINE
  5
25F
330
1F
100
AcDbEntity
  8
0
  6
Continuous
 62
     7
370
    15
100
AcDbSpline
210
0.0
220
0.0
230
1.0
 70
     8
 71
     3
 72
    24
 73
    20
 74
     0
 42
0.00000001
 43
0.00000001
 12
1.0
 22
0.0
 32
0.0
 13
1.0
 23
0.0
 33
0.0
 40
0.0
 40
0.0
 40
0.0
 40
0.0
 40
0.2500000000000029
 40
0.2500000000000029
 40
0.3750000000000058
 40
0.3750000000000058
 40
0.4375000000000071
 40
0.4375000000000071
 40
0.5000000000000084
 40
0.5000000000000084
 40
0.5312500000000078
 40
0.5312500000000078
 40
0.5625000000000072
 40
0.5625000000000072
 40
0.625000000000007
 40
0.625000000000007
 40
0.7500000000000048
 40
0.7500000000000048
 40
1.0
 40
1.0
 40
1.0
 40
1.0
 10
165.8027582325415
 20
77.21930283372441
 30
0.0
 10
165.7869916442432
 20
77.3127856063007
 30
0.0
 10
165.7703801112885
 20
77.40610376796906
 30
0.0
 10
165.7418537633306
 20
77.54574032893366
 30
0.0
 10
165.7317683295406
 20
77.5922864731724
 30
0.0
 10
165.7142855590057
 20
77.66175229514957
 30
0.0
 10
165.7080779025601
 20
77.68485257110795
 30
0.0
 10
165.6938064023149
 20
77.7306590931567
 30
0.0
 10
165.6862363318119
 20
77.75398025218932
 30
0.0
 10
165.6688400023766
 20
77.7845435047853
 30
0.0
 10
165.6603807294166
 20
77.79509822482662
 30
0.0
 10
165.644319764869
 20
77.79328793538222
 30
0.0
 10
165.6394865290227
 20
77.7842490584805
 30
0.0
 10
165.6280606092874
 20
77.75805138508252
 30
0.0
 10
165.6240392534049
 20
77.73780655460423
 30
0.0
 10
165.6132787583738
 20
77.67597689408032
 30
0.0
 10
165.6094044493129
 20
77.63304720602846
 30
0.0
 10
165.6002315771858
 20
77.50299126241137
 30
0.0
 10
165.598199206471
 20
77.41390017097565
 30
0.0
 10
165.5977982104812
 20
77.32422855123066
 30
0.0
  0
SPLINE
  5
260
330
1F
100
AcDbEntity
  8
0
  6
Continuous
 62
     7
370
    15
100
AcDbSpline
210
0.0
220
0.0
230
1.0
 70
     8
 71
     3
 72
    24
 73
    20
 74
     0
 42
0.00000001
 43
0.00000001
 12
1.0
 22
0.0
 32
0.0
 13
1.0
 23
0.0
 33
0.0
 40
0.0
 40
0.0
 40
0.0
 40
0.0
 40
0.2499999999999858
 40
0.2499999999999858
 40
0.3749999999999787
 40
0.3749999999999787
 40
0.4374999999999782
 40
0.4374999999999782
 40
0.4687499999999808
 40
0.4687499999999808
 40
0.4999999999999833
 40
0.4999999999999833
 40
0.5624999999999849
 40
0.5624999999999849
 40
0.6249999999999865
 40
0.6249999999999865
 40
0.7499999999999898
 40
0.7499999999999898
 40
1.0
 40
1.0
 40
1.0
 40
1.0
 10
165.5977982104775
 20
82.42719386239237
 30
0.0
 10
165.5982028800533
 20
82.35548411762481
 30
0.0
 10
165.6002463268677
 20
82.28204279982937
 30
0.0
 10
165.609645892122
 20
82.16733325337592
 30
0.0
 10
165.6135967856508
 20
82.12855536966863
 30
0.0
 10
165.6247490939477
 20
82.06759392900666
 30
0.0
 10
165.6289706348743
 20
82.04674375304528
 30
0.0
 10
165.641178356438
 20
82.01479457480916
 30
0.0
 10
165.6469691266902
 20
82.0022738934194
 30
0.0
 10
165.6638906398001
 20
81.9894008417388
 30
0.0
 10
165.6712967557498
 20
81.99203517916908
 30
0.0
 10
165.6877540089929
 20
82.00251281160662
 30
0.0
 10
165.6952105269039
 20
82.01456905213482
 30
0.0
 10
165.7091184561785
 20
82.03885622425359
 30
0.0
 10
165.7152104020735
 20
82.05188639246727
 30
0.0
 10
165.7324046944245
 20
82.09200582645464
 30
0.0
 10
165.7423896446281
 20
82.12018007050956
 30
0.0
 10
165.770635689727
 20
82.20566126677159
 30
0.0
 10
165.7871152266881
 20
82.26418040680302
 30
0.0
 10
165.8027582325478
 20
82.32277461093693
 30
0.0
  0
SPLINE
  5
261
330
1F
100
AcDbEntity
  8
0
  6
Continuous
 62
     7
370
    15
100
AcDbSpline
210
0.0
220
0.0
230
1.0
 70
     8
 71
     3
 72
     8
 73
     4
 74
     0
 42
0.00000001
 43
0.00000001
 12
1.0
 22
0.0
 32
0.0
 13
1.0
 23
0.0
 33
0.0
 40
0.0
 40
0.0
 40
0.0
 40
0.0
 40
1.0
 40
1.0
 40
1.0
 40
1.0
 10
165.8027582325477
 20
82.32277461093696
 30
0.0
 10
165.8534853757522
 20
82.51278391033992
 30
0.0
 10
165.9113727053102
 20
82.68798680076735
 30
0.0
 10
165.9764778669215
 20
82.84875996821403
 30
0.0
  0
LINE
  5
262
330
1F
100
AcDbEntity
  8
0
  6
Continuous
 62
     7
370
    15
100
AcDbLine
 10
165.5977982105
 20
58.868168625
 30
0.0
 11
165.5977982105
 21
76.0481989262
 31
0.0
  0
LINE
  5
263
330
1F
100
AcDbEntity
  8
0
  6
Continuous
 62
     7
370
    15
100
AcDbLine
 10
144.7977982105
 20
59.3207261335
 30
0.0
 11
144.7977982105
 21
76.0481989262
 31
0.0
  0
LINE
  5
264
330
1F
100
AcDbEntity
  8
0
  6
Continuous
 62
     7
370
    15
100
AcDbLine
 10
143.2977982105
 20
76.0481989262
 30
0.0
 11
143.2977982105
 21
81.9491345385
 31
0.0
  0
LINE
  5
265
330
1F
100
AcDbEntity
  8
0
  6
Continuous
 62
     7
370
    15
100
AcDbLine
 10
143.2977982105
 20
60.0707261335
 30
0.0
 11
143.2977982105
 21
76.0481989262
 31
0.0
  0
LINE
  5
266
330
1F
100
AcDbEntity
  8
0
  6
Continuous
 62
     7
370
    15
100
AcDbLine
 10
237.2977982105
 20
71.6893531994
 30
0.0
 11
237.2977982105
 21
92.6893531994
 31
0.0
  0
LINE
  5
267
330
1F
100
AcDbEntity
  8
0
  6
Continuous
 62
     7
370
    15
100
AcDbLine
 10
165.5977982105
 20
83.151692047
 30
0.0
 11
165.5977982105
 21
85.8094519839
 31
0.0
  0
LINE
  5
268
330
1F
100
AcDbEntity
  8
0
  6
Continuous
 62
     7
370
    15
100
AcDbLine
 10
144.7977982105
 20
82.6991345385
 30
0.0
 11
144.7977982105
 21
85.117147517
 31
0.0
  0
SPLINE
  5
269
330
1F
100
AcDbEntity
  8
0
  6
Continuous
 62
     7
370
    15
100
AcDbSpline
210
0.0
220
0.0
230
1.0
 70
     8
 71
     3
 72
     8
 73
     4
 74
     0
 42
0.00000001
 43
0.00000001
 12
1.0
 22
0.0
 32
0.0
 13
1.0
 23
0.0
 33
0.0
 40
0.0000137050638847
 40
0.0000137050638847
 40
0.0000137050638847
 40
0.0000137050638847
 40
0.0027147143562631
 40
0.0027147143562631
 40
0.0027147143562631
 40
0.0027147143562631
 10
147.4977982104811
 20
85.18050002978615
 30
0.0
 10
146.5977945245713
 20
85.15934542244038
 30
0.0
 10
145.6977943459759
 20
85.13822791428217
 30
0.0
 10
144.7977982104812
 20
85.11714751695152
 30
0.0
  0
SPLINE
  5
26A
330
1F
100
AcDbEntity
  8
0
  6
Continuous
 62
     7
370
    15
100
AcDbSpline
210
0.0
220
0.0
230
1.0
 70
     8
 71
     3
 72
    14
 73
    10
 74
     0
 42
0.00000001
 43
0.00000001
 12
1.0
 22
0.0
 32
0.0
 13
1.0
 23
0.0
 33
0.0
 40
0.0
 40
0.0
 40
0.0
 40
0.0
 40
0.00841839053552
 40
0.0748860102021675
 40
0.1431989945385898
 40
0.2919890146519621
 40
0.4448981529986062
 40
0.7218327777855107
 40
1.0
 40
1.0
 40
1.0
 40
1.0
 10
149.2039581914499
 20
85.3974520173078
 30
0.0
 10
149.2046463677018
 20
85.39751136369527
 30
0.0
 10
149.210768057306
 20
85.39803928101631
 30
0.0
 10
149.1856705352474
 20
85.39588558807687
 30
0.0
 10
149.1072479244854
 20
85.38900539938734
 30
0.0
 10
148.9247228910179
 20
85.37209754395514
 30
0.0
 10
148.5761275403575
 20
85.33520258908314
 30
0.0
 10
148.0945908186858
 20
85.27592933975006
 30
0.0
 10
147.697023344589
 20
85.21235685377157
 30
0.0
 10
147.4977982104811
 20
85.18050002978615
 30
0.0
  0
SPLINE
  5
26B
330
1F
100
AcDbEntity
  8
0
  6
Continuous
 62
     7
370
    15
100
AcDbSpline
210
0.0
220
0.0
230
1.0
 70
     8
 71
     3
 72
    22
 73
    18
 74
     0
 42
0.00000001
 43
0.00000001
 12
1.0
 22
0.0
 32
0.0
 13
1.0
 23
0.0
 33
0.0
 40
0.0
 40
0.0
 40
0.0
 40
0.0
 40
0.0590948106134008
 40
0.1194415379446759
 40
0.1883585608802782
 40
0.2591169998794862
 40
0.330942078233989
 40
0.404757275090648
 40
0.4781984551863583
 40
0.5537770961866372
 40
0.6269610455539266
 40
0.7024227944365627
 40
0.7728545857049386
 40
0.8456215499863245
 40
0.9113478972423731
 40
0.979229905195628
 40
1.0
 40
1.0
 40
1.0
 40
1.0
 10
153.8653205117036
 20
85.44804120788038
 30
0.0
 10
153.952194725659
 20
85.44261795593371
 30
0.0
 10
154.1277835737297
 20
85.4316565610761
 30
0.0
 10
154.4519072154214
 20
85.41649234271134
 30
0.0
 10
154.8258927654229
 20
85.40472782147296
 30
0.0
 10
155.2489335294597
 20
85.39934822240309
 30
0.0
 10
155.6975202002344
 20
85.40264348782348
 30
0.0
 10
156.1560598010327
 20
85.41562518778917
 30
0.0
 10
156.6139239756376
 20
85.43821711508237
 30
0.0
 10
157.049272682041
 20
85.46862427517867
 30
0.0
 10
157.4538358633529
 20
85.50455887082036
 30
0.0
 10
157.8030761945509
 20
85.54154041817988
 30
0.0
 10
158.0932566330848
 20
85.57635012408902
 30
0.0
 10
158.3071145512426
 20
85.60441469926131
 30
0.0
 10
158.4418538164424
 20
85.62307988852251
 30
0.0
 10
158.5009329746306
 20
85.63152229241312
 30
0.0
 10
158.492545848245
 20
85.63032620171612
 30
0.0
 10
158.4905808479264
 20
85.63004597241081
 30
0.0
  0
SPLINE
  5
26C
330
1F
100
AcDbEntity
  8
0
  6
Continuous
 62
     7
370
    15
100
AcDbSpline
210
0.0
220
0.0
230
1.0
 70
     8
 71
     3
 72
    12
 73
     8
 74
     0
 42
0.00000001
 43
0.00000001
 12
1.0
 22
0.0
 32
0.0
 13
1.0
 23
0.0
 33
0.0
 40
0.0
 40
0.0
 40
0.0
 40
0.0
 40
0.2240090663408355
 40
0.4414367675223631
 40
0.664933354282943
 40
0.8312518785633802
 40
0.9999999999999999
 40
0.9999999999999999
 40
0.9999999999999999
 40
0.9999999999999999
 10
153.2310062043682
 20
85.49865258226744
 30
0.0
 10
153.2372029492047
 20
85.49806578470614
 30
0.0
 10
153.2494143791011
 20
85.49690942964035
 30
0.0
 10
153.352125043409
 20
85.48746151932811
 30
0.0
 10
153.4979341532983
 20
85.4749856531795
 30
0.0
 10
153.6722991451421
 20
85.4612179616322
 30
0.0
 10
153.8006697806653
 20
85.45245464033059
 30
0.0
 10
153.8653205117036
 20
85.44804120788038
 30
0.0
  0
SPLINE
  5
26D
330
1F
100
AcDbEntity
  8
0
  6
Continuous
 62
     7
370
    15
100
AcDbSpline
210
0.0
220
0.0
230
1.0
 70
     8
 71
     3
 72
    10
 73
     6
 74
     0
 42
0.00000001
 43
0.00000001
 12
1.0
 22
0.0
 32
0.0
 13
1.0
 23
0.0
 33
0.0
 40
0.0
 40
0.0
 40
0.0
 40
0.0
 40
0.5
 40
0.5
 40
1.0
 40
1.0
 40
1.0
 40
1.0
 10
144.7977982104812
 20
85.11714751695152
 30
0.0
 10
144.5375810879431
 20
84.97708124083526
 30
0.0
 10
144.2815465186929
 20
84.84090498708079
 30
0.0
 10
143.7802829299602
 20
84.57727626903122
 30
0.0
 10
143.5349401711969
 20
84.44977007256962
 30
0.0
 10
143.2977982104811
 20
84.32784756867717
 30
0.0
  0
LINE
  5
26E
330
1F
100
AcDbEntity
  8
0
  6
Continuous
 62
     7
370
    15
100
AcDbLine
 10
143.2977982105
 20
81.9491345385
 30
0.0
 11
143.2977982105
 21
84.3278475687
 31
0.0
  0
SPLINE
  5
26F
330
1F
100
AcDbEntity
  8
0
  6
Continuous
 62
     7
370
    15
100
AcDbSpline
210
0.0
220
0.0
230
1.0
 70
     8
 71
     3
 72
    12
 73
     8
 74
     0
 42
0.00000001
 43
0.00000001
 12
1.0
 22
0.0
 32
0.0
 13
1.0
 23
0.0
 33
0.0
 40
0.0
 40
0.0
 40
0.0
 40
0.0
 40
0.2090140355332681
 40
0.4194389151855947
 40
0.6343768665131972
 40
0.85090106302502
 40
1.0
 40
1.0
 40
1.0
 40
1.0
 10
165.5977982104812
 20
58.3166371844691
 30
0.0
 10
165.5663396296565
 20
58.24682380158577
 30
0.0
 10
165.50321012268
 20
58.10672579569199
 30
0.0
 10
165.4337865356611
 20
57.95146243355074
 30
0.0
 10
165.3846641660292
 20
57.84127511716884
 30
0.0
 10
165.3582031471885
 20
57.78173751971214
 30
0.0
 10
165.3577453427677
 20
57.78070659309858
 30
0.0
 10
165.3575586528505
 20
57.78028618736354
 30
0.0
  0
LINE
  5
270
330
1F
100
AcDbEntity
  8
0
  6
Continuous
 62
     7
370
    15
100
AcDbLine
 10
144.7977982105
 20
59.3207261335
 30
0.0
 11
144.7977982105
 21
58.2918228135
 31
0.0
  0
LINE
  5
271
330
1F
100
AcDbEntity
  8
0
  6
Continuous
 62
     7
370
    15
100
AcDbLine
 10
165.5977982105
 20
58.868168625
 30
0.0
 11
165.5977982105
 21
58.3166371845
 31
0.0
  0
SPLINE
  5
272
330
1F
100
AcDbEntity
  8
0
  6
Continuous
 62
     7
370
    15
100
AcDbSpline
210
0.0
220
0.0
230
1.0
 70
     8
 71
     3
 72
    24
 73
    20
 74
     0
 42
0.00000001
 43
0.00000001
 12
1.0
 22
0.0
 32
0.0
 13
1.0
 23
0.0
 33
0.0
 40
0.0
 40
0.0
 40
0.0
 40
0.0
 40
0.2499999999999898
 40
0.2499999999999898
 40
0.3749999999999856
 40
0.3749999999999856
 40
0.4374999999999841
 40
0.4374999999999841
 40
0.4999999999999826
 40
0.4999999999999826
 40
0.5312499999999836
 40
0.5312499999999836
 40
0.5624999999999845
 40
0.5624999999999845
 40
0.6249999999999866
 40
0.6249999999999866
 40
0.7499999999999905
 40
0.7499999999999905
 40
1.0
 40
1.0
 40
1.0
 40
1.0
 10
165.802758232542
 20
58.52598215346168
 30
0.0
 10
165.7869891876322
 20
58.49155112541101
 30
0.0
 10
165.7703750230717
 20
58.45721057374003
 30
0.0
 10
165.7418428955783
 20
58.40366179049381
 30
0.0
 10
165.7317552620244
 20
58.38548493095512
 30
0.0
 10
165.7142674391754
 20
58.35640732624795
 30
0.0
 10
165.7080576312491
 20
58.3464231254469
 30
0.0
 10
165.6937797716668
 20
58.32490389719065
 30
0.0
 10
165.6862086093149
 20
58.31372028575242
 30
0.0
 10
165.6687887841406
 20
58.29218451225957
 30
0.0
 10
165.660304701686
 20
58.2824796525729
 30
0.0
 10
165.6442686280685
 20
58.26799806471403
 30
0.0
 10
165.6394482557906
 20
58.2651503273657
 30
0.0
 10
165.6280413551847
 20
58.25930700862193
 30
0.0
 10
165.6240203934753
 20
58.25926323434379
 30
0.0
 10
165.6132663816961
 20
58.26069982419611
 30
0.0
 10
165.6093944960734
 20
58.26521498246454
 30
0.0
 10
165.6002265312725
 20
58.28188702148947
 30
0.0
 10
165.5981981967594
 20
58.29807119653447
 30
0.0
 10
165.5977982104812
 20
58.31663718446911
 30
0.0
  0
SPLINE
  5
273
330
1F
100
AcDbEntity
  8
0
  6
Continuous
 62
     7
370
    15
100
AcDbSpline
210
0.0
220
0.0
230
1.0
 70
     8
 71
     3
 72
     8
 73
     4
 74
     0
 42
0.00000001
 43
0.00000001
 12
1.0
 22
0.0
 32
0.0
 13
1.0
 23
0.0
 33
0.0
 40
0.0
 40
0.0
 40
0.0
 40
0.0
 40
1.0
 40
1.0
 40
1.0
 40
1.0
 10
165.9764778669215
 20
58.9030466884573
 30
0.0
 10
165.9113726282513
 20
58.76257477363242
 30
0.0
 10
165.8534853152643
 20
58.63674254625266
 30
0.0
 10
165.8027582325419
 20
58.5259821534616
 30
0.0
  0
LINE
  5
274
330
1F
100
AcDbEntity
  8
0
  6
Continuous
 62
     7
370
    15
100
AcDbLine
 10
143.2977982105
 20
60.0707261335
 30
0.0
 11
143.2977982105
 21
59.1578482173
 31
0.0
  0
LWPOLYLINE
  5
275
330
1F
100
AcDbEntity
  8
0
  6
Continuous
 62
     7
370
    15
100
AcDbPolyline
 90
       32
 70
   128
 43
0.0
 10
239.0163781928
 20
58.0447316132
 10
238.9323753339
 20
57.623509528
 10
238.853795597
 20
57.3116243943
 10
238.7838560457
 20
57.1218448263
 10
238.7254200135
 20
57.0619404218
 10
238.6808798784
 20
57.1343636741
 10
238.6520591188
 20
57.3361495667
 10
238.64013766
 20
57.6590369615
 10
238.6456035678
 20
58.0898068107
 10
238.6682330675
 20
58.6108233459
 10
238.7070997045
 20
59.200756089
 10
238.7606122742
 20
59.8354531243
 10
238.8265799658
 20
60.4889298804
 10
238.9023020541
 20
61.1344329423
 10
238.9846784681
 20
61.7455353386
 10
239.0703367075
 20
62.2972184656
 10
239.1557699141
 20
62.7668963512
 10
239.2374804423
 20
63.1353403275
 10
239.3121230535
 20
63.3874662549
 10
239.3766418704
 20
63.5129520683
 10
239.4283954851
 20
63.5066603638
 10
239.4652650985
 20
63.3688487244
 10
239.4857412643
 20
63.1051591748
 10
239.4889856859
 20
62.7263871963
 10
239.4748655362
 20
62.2480397581
 10
239.4439588959
 20
61.6897004606
 10
239.3975310865
 20
61.0742277801
 10
239.3374828678
 20
60.4268192406
 10
239.2662726211
 20
59.7739798236
 10
239.1868157022
 20
59.1424368518
 10
239.1023650867
 20
58.5580457684
 10
239.0163781928
 20
58.0447316132
  0
LWPOLYLINE
  5
276
330
1F
100
AcDbEntity
  8
0
  6
Continuous
 62
     7
370
    15
100
AcDbPolyline
 90
       28
 70
   128
 43
0.0
 10
239.0275617036
 20
58.5638316414
 10
238.9536637552
 20
58.1986871622
 10
238.8857593509
 20
57.9465104393
 10
238.8275092347
 20
57.8208963852
 10
238.7820536854
 20
57.8286168859
 10
238.7518432235
 20
57.9692557274
 10
238.7385065027
 20
58.2352310333
 10
238.7427625091
 20
58.6122040059
 10
238.7643818004
 20
59.0798519348
 10
238.8021988749
 20
59.612963799
 10
238.8541750044
 20
60.1827994
 10
238.9175081423
 20
60.758638753
 10
238.9887839827
 20
61.3094382095
 10
239.0641600266
 20
61.8055040282
 10
239.1395727319
 20
62.2200931723
 10
239.2109565803
 20
62.5308550339
 10
239.2744632499
 20
62.7210363605
 10
239.3266690798
 20
62.7803844276
 10
239.3647596402
 20
62.7056997655
 10
239.3866814591
 20
62.5010086437
 10
239.3912527255
 20
62.1773460135
 10
239.3782270013
 20
61.7521606112
 10
239.3483065068
 20
61.2483742918
 10
239.3031042633
 20
60.6931463061
 10
239.2450571358
 20
60.1164091387
 10
239.1772944597
 20
59.5492548395
 10
239.1034693385
 20
59.0222588435
 10
239.0275617036
 20
58.5638316414
  0
LINE
  5
277
330
1F
100
AcDbEntity
  8
0
  6
Continuous
 62
     7
370
    15
100
AcDbLine
 10
212.7977982105
 20
72.6893531994
 30
0.0
 11
205.7977982105
 21
72.6893531994
 31
0.0
  0
LINE
  5
278
330
1F
100
AcDbEntity
  8
0
  6
Continuous
 62
     7
370
    15
100
AcDbLine
 10
232.7977982105
 20
72.6893531994
 30
0.0
 11
225.7977982105
 21
72.6893531994
 31
0.0
  0
DIMENSION
  5
279
330
1F
100
AcDbEntity
  8
VERMASSUNG
100
AcDbDimension
  2
_D_12
 10
247.2977982105
 20
43.8096162464
 30
0.0
 11
219.7977982105
 21
43.8096162464
 31
0.0
 70
   160
  1
<>
 71
     2
 42
-1.0
  3
SLDDIMSTYLE0
100
AcDbAlignedDimension
 13
192.2977982105
 23
71.6893531994
 33
0.0
 14
247.2977982105
 24
92.6893531994
 34
0.0
 50
0.0
100
AcDbRotatedDimension
  0
LINE
  5
283
330
1F
100
AcDbEntity
  8
VERMASSUNG
  6
CENTERX2
370
     0
100
AcDbLine
 10
139.8844429394
 20
72.6893531994
 30
0.0
 11
249.7188568609
 21
72.6893531994
 31
0.0
  0
OLE2FRAME
  5
284
330
1F
100
AcDbEntity
  8
0
100
AcDbOle2Frame
 70
     2
  3
Paintbrush-Bild
 10
13.8511154363
 20
38.264191557
 30
0.0
 11
51.6290888628
 21
31.9806341108
 31
0.0
 71
     2
 72
     0
 73
     1
 90
    12928
310
80552BED0767C5B32B40DDAF6807D121434000000000000000006FFBDDFB85D0
310
4940DDAF6807D121434000000000000000006FFBDDFB85D04940416F4BD60AFB
310
3F4000000000000000002BED0767C5B32B40416F4BD60AFB3F40000000000000
310
0000000000000100000000010000010000000100000000000100000000320000
310
D0CF11E0A1B11AE1000000000000000000000000000000003E000300FEFF0900
310
0600000000000000000000000100000001000000000000000010000002000000
310
01000000FEFFFFFF0000000000000000FFFFFFFFFFFFFFFFFFFFFFFFFFFFFFFF
310
FFFFFFFFFFFFFFFFFFFFFFFFFFFFFFFFFFFFFFFFFFFFFFFFFFFFFFFFFFFFFFFF
310
FFFFFFFFFFFFFFFFFFFFFFFFFFFFFFFFFFFFFFFFFFFFFFFFFFFFFFFFFFFFFFFF
310
FFFFFFFFFFFFFFFFFFFFFFFFFFFFFFFFFFFFFFFFFFFFFFFFFFFFFFFFFFFFFFFF
310
FFFFFFFFFFFFFFFFFFFFFFFFFFFFFFFFFFFFFFFFFFFFFFFFFFFFFFFFFFFFFFFF
310
FFFFFFFFFFFFFFFFFFFFFFFFFFFFFFFFFFFFFFFFFFFFFFFFFFFFFFFFFFFFFFFF
310
FFFFFFFFFFFFFFFFFFFFFFFFFFFFFFFFFFFFFFFFFFFFFFFFFFFFFFFFFFFFFFFF
310
FFFFFFFFFFFFFFFFFFFFFFFFFFFFFFFFFFFFFFFFFFFFFFFFFFFFFFFFFFFFFFFF
310
FFFFFFFFFFFFFFFFFFFFFFFFFFFFFFFFFFFFFFFFFFFFFFFFFFFFFFFFFFFFFFFF
310
FFFFFFFFFFFFFFFFFFFFFFFFFFFFFFFFFFFFFFFFFFFFFFFFFFFFFFFFFFFFFFFF
310
FFFFFFFFFFFFFFFFFFFFFFFFFFFFFFFFFFFFFFFFFFFFFFFFFFFFFFFFFFFFFFFF
310
FFFFFFFFFFFFFFFFFFFFFFFFFFFFFFFFFFFFFFFFFFFFFFFFFFFFFFFFFFFFFFFF
310
FFFFFFFFFFFFFFFFFFFFFFFFFFFFFFFFFFFFFFFFFFFFFFFFFFFFFFFFFFFFFFFF
310
FFFFFFFFFFFFFFFFFFFFFFFFFFFFFFFFFFFFFFFFFFFFFFFFFFFFFFFFFFFFFFFF
310
FDFFFFFFFEFFFFFFFEFFFFFFFEFFFFFF05000000060000000700000008000000
310
090000000A0000000B0000000C0000000D0000000E0000000F00000010000000
310
11000000120000001300000014000000150000001600000017000000FEFFFFFF
310
FFFFFFFFFFFFFFFFFFFFFFFFFFFFFFFFFFFFFFFFFFFFFFFFFFFFFFFFFFFFFFFF
310
FFFFFFFFFFFFFFFFFFFFFFFFFFFFFFFFFFFFFFFFFFFFFFFFFFFFFFFFFFFFFFFF
310
FFFFFFFFFFFFFFFFFFFFFFFFFFFFFFFFFFFFFFFFFFFFFFFFFFFFFFFFFFFFFFFF
310
FFFFFFFFFFFFFFFFFFFFFFFFFFFFFFFFFFFFFFFFFFFFFFFFFFFFFFFFFFFFFFFF
310
FFFFFFFFFFFFFFFFFFFFFFFFFFFFFFFFFFFFFFFFFFFFFFFFFFFFFFFFFFFFFFFF
310
FFFFFFFFFFFFFFFFFFFFFFFFFFFFFFFFFFFFFFFFFFFFFFFFFFFFFFFFFFFFFFFF
310
FFFFFFFFFFFFFFFFFFFFFFFFFFFFFFFFFFFFFFFFFFFFFFFFFFFFFFFFFFFFFFFF
310
FFFFFFFFFFFFFFFFFFFFFFFFFFFFFFFFFFFFFFFFFFFFFFFFFFFFFFFFFFFFFFFF
310
FFFFFFFFFFFFFFFFFFFFFFFFFFFFFFFFFFFFFFFFFFFFFFFFFFFFFFFFFFFFFFFF
310
FFFFFFFFFFFFFFFFFFFFFFFFFFFFFFFFFFFFFFFFFFFFFFFFFFFFFFFFFFFFFFFF
310
FFFFFFFFFFFFFFFFFFFFFFFFFFFFFFFFFFFFFFFFFFFFFFFFFFFFFFFFFFFFFFFF
310
FFFFFFFFFFFFFFFFFFFFFFFFFFFFFFFFFFFFFFFFFFFFFFFFFFFFFFFFFFFFFFFF
310
FFFFFFFFFFFFFFFFFFFFFFFFFFFFFFFFFFFFFFFFFFFFFFFFFFFFFFFFFFFFFFFF
310
52006F006F007400200045006E00740072007900000000000000000000000000
310
0000000000000000000000000000000000000000000000000000000000000000
310
16000500FFFFFFFFFFFFFFFF020000000A00030000000000C000000000000046
310
000000000000000000000000B0CB5885132DCD0103000000C000000000000000
310
01004F006C006500000000000000000000000000000000000000000000000000
310
0000000000000000000000000000000000000000000000000000000000000000
310
0A000200FFFFFFFFFFFFFFFFFFFFFFFF00000000000000000000000000000000
310
0000000000000000000000000000000000000000000000001400000000000000
310
010043006F006D0070004F0062006A0000000000000000000000000000000000
310
0000000000000000000000000000000000000000000000000000000000000000
310
120002010100000003000000FFFFFFFF00000000000000000000000000000000
310
0000000000000000000000000000000000000000010000004D00000000000000
310
01004F006C006500310030004E00610074006900760065000000000000000000
310
0000000000000000000000000000000000000000000000000000000000000000
310
1A000200FFFFFFFFFFFFFFFFFFFFFFFF00000000000000000000000000000000
310
0000000000000000000000000000000000000000040000002426000000000000
310
FEFFFFFF02000000FEFFFFFFFFFFFFFFFFFFFFFFFFFFFFFFFFFFFFFFFFFFFFFF
310
FFFFFFFFFFFFFFFFFFFFFFFFFFFFFFFFFFFFFFFFFFFFFFFFFFFFFFFFFFFFFFFF
310
FFFFFFFFFFFFFFFFFFFFFFFFFFFFFFFFFFFFFFFFFFFFFFFFFFFFFFFFFFFFFFFF
310
FFFFFFFFFFFFFFFFFFFFFFFFFFFFFFFFFFFFFFFFFFFFFFFFFFFFFFFFFFFFFFFF
310
FFFFFFFFFFFFFFFFFFFFFFFFFFFFFFFFFFFFFFFFFFFFFFFFFFFFFFFFFFFFFFFF
310
FFFFFFFFFFFFFFFFFFFFFFFFFFFFFFFFFFFFFFFFFFFFFFFFFFFFFFFFFFFFFFFF
310
FFFFFFFFFFFFFFFFFFFFFFFFFFFFFFFFFFFFFFFFFFFFFFFFFFFFFFFFFFFFFFFF
310
FFFFFFFFFFFFFFFFFFFFFFFFFFFFFFFFFFFFFFFFFFFFFFFFFFFFFFFFFFFFFFFF
310
FFFFFFFFFFFFFFFFFFFFFFFFFFFFFFFFFFFFFFFFFFFFFFFFFFFFFFFFFFFFFFFF
310
FFFFFFFFFFFFFFFFFFFFFFFFFFFFFFFFFFFFFFFFFFFFFFFFFFFFFFFFFFFFFFFF
310
FFFFFFFFFFFFFFFFFFFFFFFFFFFFFFFFFFFFFFFFFFFFFFFFFFFFFFFFFFFFFFFF
310
FFFFFFFFFFFFFFFFFFFFFFFFFFFFFFFFFFFFFFFFFFFFFFFFFFFFFFFFFFFFFFFF
310
FFFFFFFFFFFFFFFFFFFFFFFFFFFFFFFFFFFFFFFFFFFFFFFFFFFFFFFFFFFFFFFF
310
FFFFFFFFFFFFFFFFFFFFFFFFFFFFFFFFFFFFFFFFFFFFFFFFFFFFFFFFFFFFFFFF
310
FFFFFFFFFFFFFFFFFFFFFFFFFFFFFFFFFFFFFFFFFFFFFFFFFFFFFFFFFFFFFFFF
310
FFFFFFFFFFFFFFFFFFFFFFFFFFFFFFFFFFFFFFFFFFFFFFFFFFFFFFFFFFFFFFFF
310
0100000200000000000000000000000000000000000000000000000000000000
310
0000000000000000000000000000000000000000000000000000000000000000
310
0100FEFF030A0000FFFFFFFF0A00030000000000C00000000000004607000000
310
5042727573680007000000504272757368000700000050427275736800F439B2
310
7100000000000000000000000000000000000000000000000000000000000000
310
0000000000000000000000000000000000000000000000000000000000000000
310
0000000000000000000000000000000000000000000000000000000000000000
310
0000000000000000000000000000000000000000000000000000000000000000
310
0000000000000000000000000000000000000000000000000000000000000000
310
0000000000000000000000000000000000000000000000000000000000000000
310
0000000000000000000000000000000000000000000000000000000000000000
310
0000000000000000000000000000000000000000000000000000000000000000
310
0000000000000000000000000000000000000000000000000000000000000000
310
0000000000000000000000000000000000000000000000000000000000000000
310
0000000000000000000000000000000000000000000000000000000000000000
310
0000000000000000000000000000000000000000000000000000000000000000
310
20260000424D0E260000000000003E00000028000000B40200006E0000000100
310
01000000000000000000130B0000130B00000200000002000000000000FFFFFF
310
FFFFFFFFFFFFFFFFFFFFFFFFFFFFFFFFFFFFFFFFFFFFFFFFFFFFFFFFFFFFFFFF
310
FFFFFFFFFFFFFFFFFFFFFFFFFFFFFFFFFFFFFFFFFFFFFFFFFFFFFFFFFFFFFFFF
310
FFFFFFFFFFFFFFFFFFFFFFFFFFFFFFFFFFFFFFFFFFFFFFFFF000FFFFFFFFFFFF
310
FFFFFFFFFFFFFFFFFFFFFFFFFFFFFFFFFFFFFFFFFFFFFFFFFFFFFFFFFFFFFFFF
310
FFFFFFFFFFFFFFFFFFFFFFFFFFFFFFFFFFFFFFFFFFFFFFFFFFFFFFFFFFFFFFFF
310
FFFFFFFFFFFFFFFFFFFFFFFFFFFFFFFFF000FFFFFFFFFFFFFFFFFFFFFFFFFFFF
310
FFFFFFFFFFFFFFFFFFFFFFFFFFFFFFFFFFFFFFFFFFFFFFFFFFFFFFFFFFFFFFFF
310
FFFFFFFFFFFFFFFFFFFFFFFFFFFFFFFFFFFFFFFFFFFFFFFFFFFFFFFFFFFFFFFF
310
FFFFFFFFFFFFFFFFF000FFFFFFFFFFFFFFFFFFFFFFFFFFFFFFFFFFFFFFFFFFFF
310
FFFFFFFFFFFFFFFFFFFFFFFFFFFFFFFFFFFFFFFFFFFFFFFFFFFFFFFFFFFFFFFF
310
FFFFFFFFFFFFFFFFFFFFFFFFFFFFFFFFFFFFFFFFFFFFFFFFFFFFFFFFFFFFFFFF
310
F000FFFFFFFFFFFFFFFFFFFFFFFFFFFFFFFFFFFFFFFFFFFFFFFFFFFFFFFFFFFF
310
FFFFFFFFFFFFFFFFFFFFFFFFFFFFFFFFFFFFFFFFFFFFFFFFFFFFFFFFFFFFFFFF
310
FFFFFFFFFFFFFFFFFFFFFFFFFFFFFFFFFFFFFFFFFFFFFFFFF000FFFFFFFFFFFF
310
FFFFFFFFFFFFFFFFFFFFFFFFFFFFFFFFFFFFFFFFFFFFFFFFFFFFFFFFFFFFFFFF
310
FFFFFFFFFFFFFFFFFFFFFFFFFFFFFFFFFFFFFFFFFFFFFFFFFFFFFFFFFFFFFFFF
310
FFFFFFFFFFFFFFFFFFFFFFFFFFFFFFFFF000FFFFFFFFFFFFFFFFFFFFFFFFFFFF
310
FFFFFFFFFFFFFFFFFFFFFFFFFFFFFFFFFFFFFFFFFFFFFFFFFFFFFFFFFFFFFFFF
310
FFFFFFFFFFFFFFFFFFFFFFFFFFFFFFFFFFFFFFFFFFFFFFFFFFFFFFFFFFFFFFFF
310
FFFFFFFFFFFFFFFFF000FFFFFFFFFFFFFFFFFFFFFFFFFFFFFFFFFFFFFFFFFFFF
310
FFFFFFFFFFFFFFFFFFFFFFFFFFFFFFFFFFFFFFFFFFFFFFFFFFFFFFFFFFFFFFFF
310
FFFFFFFFFFFFFFFFFFFFFFFFFFFFFFFFFFFFFFFFFFFFFFFFFFFFFFFFFFFFFFFF
310
F000FFFFFFFFFFFFFFFFFFFFFFFFFFFFFFFFFFFFFFFFFFFFFFFFFFFFFFFFFFFF
310
FFFFFFFFFFFFFFFFFFFFFFFFFFFFFFFFFFFFFFFFFFFFFFFFFFFFFFFFFFFFFFFF
310
FFFFFFFFFFFFFFFFFFFFFFFFFFFFFFFFFFFFFFFFFFFFFFFFF000FFFFFFFFFFFF
310
FFFFFFFFFFFFFFFFFFFFFFFFFFFFFFFFFFFFFFFFFFFFFFFFFFFFFFFFFFFFFFFF
310
FFFFFFFFFFFFFFFFFFFFFFFFFFFFFFFFFFFFFFFFFFFFFFFFFFFFFFFFFFFFFFFF
310
FFFFFFFFFFFFFFFFFFFFFFFFFFFFFFFFF000FFFFFFFFFFFFFFFFFFFFFFFFFFFF
310
FFFFFFFFFFFFFFFFFFFFFFFFFFFFFFFFFFFFFFFFFFFFFFFFFFFFFFFFFFFFFFFF
310
FFFFFFFFFFFFFFFFFFFFFFFFFFFFFFFFFFFFFFFFFFFFFFFFFFFFFFFFFFFFFFFF
310
FFFFFFFFFFFFFFFFF000FFFFFFFFFFFFFFFFFFFFFFFFFFFFFFFFFFFFFFFFFFFF
310
FFFFFFFFFFFFFFFFFFFFFFFFFFFFFFFFFFFFFFFFFFFFFFFFFFFFFFFFFFFFFFFF
310
FFFFFFFFFFFFFFFFFFFFFFFFFFFFFFFFFFFFFFFFFFFFFFFFFFFFFFFFFFFFFFFF
310
F000FFFFFFFFFFFFFFFFFFFFFFFFFFFFFFFFFFFFFFFFFFFFFFFFFFFFFFFFFFFF
310
FFFFFFFFFFFFFFFFFFFFFFFFFFFFFFFFFFFFFFFFFFFFFFFFFFFFFFFFFFFFFFFF
310
FFFFFFFFFFFFFFFFFFFFFFFFFFFFFFFFFFFFFFFFFFFFFFFFF000FFFFFFFFFFFF
310
FFFFFFFFFFFFFFFFFFFFFFFFFFFFFFFFFFFFFFFFFFFFFFFFFFFFFFFFFFFFFFFF
310
FFFFFFFFFFFFFFFFFFFFFFFFFFFFFFFFFFFFFFFFFFFFFFFFFFFFFFFFFFFFFFFF
310
FFFFFFFFFFFFFFFFFFFFFFFFFFFFFFFFF000FFFFFFFFFFFFFFFFFFFFFFFFFFFF
310
FFFFFFFFFFFFFFFFFFFFFFFFFFFFFFFFFFFFFFFFFFFFFFFFFFFFFFFFFFFFFFFF
310
FFFFFFFFFFFFFFFFFFFFFFFFFFFFFFFFFFFFFFFFFFFFFFFFFFFFFFFFFFFFFFFF
310
FFFFFFFFFFFFFFFFF000FFFFFFFFFFFFFFFFFFFFFFFFFFFFFFFFFFFFFFFFFFFF
310
FFFFFFFFFFFFFFFFFFFFFFFFFFFFFFFFFFFFFFFFFFFFFFFFFFFFFFFFFFFFFFFF
310
FFFFFFFFFFFFFFFFFFFFFFFFFFFFFFFFFFFFFFFFFFFFFFFFFFFFFFFFFFFFFFFF
310
F000FFFFFFFFFFFFFFFFFFFFFFFFFFFFFFFFFFFFFFFFFFFFFFFFFFFFFFFFFFFF
310
FFFFFFFFFFFFFFFFFFFFFFFFFFFFFFFFFFFFFFFFFFFFFFFFFFFFFFFFFFFFFFFF
310
FFFFFFFFFFFFFFFFFFFFFFFFFFFFFFFFFFFFFFFFFFFFFFFFF000FFFFFFFFFFFF
310
FFFFFFFFFFFFFFFFFFFFFFFFFFFFFFFFFFFFFFFFFFFFFFFFFFFFFFFFFFFFFFFF
310
FFFFFFFFFFFFFFFFFFFFFFFFFFFFFFFFFFFFFFFFFFFFFFFFFFFFFFFFFFFFFFFF
310
FFFFFFFFFFFFFFFFFFFFFFFFFFFFFFFFF000FFFFFFFFFFFFFFFFFFFFFFFFFFFF
310
FFFFFFFFFFFFFFFFFFFFFFFFFFFFFFFFFFFFFFFFFFFFFFFFFFFFFFFFFFFFFFFF
310
FFFFFFFFFFFFFFFFFFFFFFFFFFFFFFFFFFFFFFFFFFFFFFFFFFFFFFFFFFFFFFFF
310
FFFFFFFFFFFFFFFFF000FFFFF80003FFFFFFFFFFFFFFFFFFFFFFFFFFFFFFFFFF
310
FFFFF00007FFFFFFFFFF00007FFFFFF800000000000000007FFFFFFFFFFFFFFF
310
FFFFFFFC001FFFFFFFFFFFFFFC001FFFFFFFFFFFFFFFFFFFFFFFFFFE0007FFFF
310
F000FFFF8000007FFFFFFFF8000FFFFFC0007FFFFF80007FFFFF0000007FFFFF
310
FFF8000007FFFFF800000000000000007FFFFFF0001FFFFFFFFFFFC00001FFFF
310
FFFFFFFFC00001FFFFFFFF000000000003FFFFE000007FFFF000FFFE0000000F
310
FFFFFFF0000FFFFF80007FFFFF80007FFFFC0000001FFFFFFFC0000001FFFFF8
310
00000000000000007FFFFFF0001FFFFFFFFFFE0000003FFFFFFFFFFE0000003F
310
FFFFFF000000000003FFFF0000000FFFF000FFF800000003FFFFFFF00007FFFF
310
80007FFFFF80007FFFF000000007FFFFFF000000003FFFF80000000000000000
310
7FFFFFF0001FFFFFFFFFF80000000FFFFFFFFFF80000000FFFFFFF0000000000
310
03FFFC00000003FFF000FFE000000000FFFFFFF00007FFFF80003FFFFF80007F
310
FFC000000001FFFFFC000000001FFFF800000000000000007FFFFFF0001FFFFF
310
FFFFE000000003FFFFFFFFE000000003FFFFFF000000000003FFF000000000FF
310
F000FF80000000007FFFFFF00007FFFF80003FFFFF80007FFF8000000000FFFF
310
F80000000007FFF800000000000000007FFFFFF0001FFFFFFFFFC000000001FF
310
FFFFFFC000000001FFFFFF000000000003FFC0000000007FF000FF0000000000
310
3FFFFFE00007FFFF00003FFFFF80007FFE00000000003FFFF00000000003FFF8
310
00000000000000007FFFFFF0001FFFFFFFFF8000000000FFFFFFFF8000000000
310
FFFFFF000000000003FF80000000003FF000FE00000000001FFFFFE00003FFFF
310
00003FFFFF80007FFC00000000001FFFE00000000001FFF8000001FFFE000000
310
7FFFFFF0001FFFFFFFFE00000000003FFFFFFE00000000003FFFFF0000000000
310
03FF00000000001FF000FC00000000000FFFFFE00003FFFF00001FFFFF80007F
310
F800000000001FFFC00000000000FFF8000001FFFE0000007FFFFFF0001FFFFF
310
FFFC00000000001FFFFFFC00000000001FFFFF000000000003FE00000000000F
310
F000F8000000000007FFFFE00003FFFF00001FFFFF80007FF800000000000FFF
310
800000000000FFF8000001FFFE0000007FFFFFF0001FFFFFFFF800000000000F
310
FFFFF800000000000FFFFF000000000003FC000000000007F000F80000000000
310
03FFFFC00003FFFE00001FFFFF80007FF0000000000007FF0000000000007FF8
310
000001FFFE0000007FFFFFF0001FFFFFFFF0000000000007FFFFF00000000000
310
07FFFF000000000003F8000000000003F000F0000000000003FFFFC00001FFFE
310
00001FFFFF80007FE0000000000007FE0000000000003FF8000001FFFE000000
310
7FFFFFF0001FFFFFFFF0000000000007FFFFF0000000000007FFFF0000000000
310
03F800001F800003F000E00001FFF00001FFFFC00001FFFE00000FFFFF80007F
310
E00001FFE00003FE00001FFF00003FF8000001FFFE0000007FFFFFF0001FFFFF
310
FFE000003E000003FFFFE000003E000003FFFF000000000003F00001FFF80001
310
F000E00007FFFC0001FFFFC00001FFFE00000FFFFF80007FC0000FFFFC0003FC
310
0000FFFFC0001FF8000001FFFE0000007FFFFFF0001FFFFFFFC00003FFE00001
310
FFFFC00003FFE00001FFFF0001FFFFFFFFF00007FFFE0001F000E0000FFFFF00
310
00FFFF800001FFFC00000FFFFF80007FC0001FFFFE0001FC0001FFFFE0001FF8
310
000001FFFE0000007FFFFFF0001FFFFFFF80000FFFF80000FFFF80000FFFF800
310
00FFFF0003FFFFFFFFE0000FFFFF8000F000C0003FFFFF8000FFFF800000FFFC
310
000007FFFF80007F80003FFFFF0001FC0003FFFFF0001FF8000001FFFE000000
310
7FFFFFF0001FFFFFFF80003FFFFE0000FFFF80003FFFFE0000FFFF0003FFFFFF
310
FFE0003FFFFF8000F000C0003FFFFF8000FFFF800000FFFC000007FFFF80007F
310
80007FFFFF8001F80007FFFFF8000FF8000001FFFE0000007FFFFFF0001FFFFF
310
FF00007FFFFF00007FFF00007FFFFF00007FFF0003FFFFFFFFE0003FFFFFC000
310
F000C0007FFFFFC000FFFF000000FFFC000007FFFF80007F8000FFFFFF8000F8
310
000FFFFFF8000FF8000001FFFE0000007FFFFFF0001FFFFFFF0000FFFFFF8000
310
7FFF0000FFFFFF80007FFF0003FFFFFFFFC0007FFFFFC00070008000FFFFFFC0
310
00FFFF000000FFF8000007FFFF80007F8000FFFFFF8000F8000FFFFFF8000FF8
310
000001FFFE0000007FFFFFF0001FFFFFFE0001FFFFFFC0003FFE0001FFFFFFC0
310
003FFF0003FFFFFFFFC0007FFFFFE00070008000FFFFFFC0007FFF0000007FF8
310
000003FFFF80007F0001FFFFFF8000F8000FFFFFF8000FF8000001FFFE000000
310
7FFFFFF0001FFFFFFE0001FFFFFFC0003FFE0001FFFFFFC0003FFF0003FFFFFF
310
FFC000FFFFFFE00070008000FFFFFFC0007FFF0000007FF8000003FFFF80007F
310
0001FFFFFF8000F8001FFFFFF8000FF8000001FFFE0000007FFFFFF0001FFFFF
310
FE0003FFFFFFE0003FFE0003FFFFFFE0003FFF0003FFFFFFFFC000FFFFFFE000
310
70008000FFFFFFC0007FFE0000007FF8000003FFFF80007F0001FFFFFF8000F0
310
001FFFFFF8000FF8000001FFFE0000007FFFFFF0001FFFFFFC0003FFFFFFE000
310
1FFC0003FFFFFFE0001FFF0003FFFFFFFFC000FFFFFFC00070008000FFFFFF80
310
007FFE0000007FF0000003FFFF80007F0001FFFFFF0000F0001FFFFFF8000FF8
310
000001FFFE0000007FFFFFF0001FFFFFFC0007FFFFFFF0001FFC0007FFFFFFF0
310
001FFF0003FFFFFFFFC000FFFFFFC00070008001FFFFFF0000FFFE0000003FF0
310
000001FFFF80007F0001FFFFFF0000F8001FFFFFF0000FF8000001FFFE000000
310
7FFFFFF0001FFFFFFC0007FFFFFFF0001FFC0007FFFFFFF0001FFF0003FFFFFF
310
FFC001FFFFFF80007000FFFFFFFFFE0000FFFE0008003FF0008001FFFF80007F
310
FFFFFFFFFC0000FFFFFFFFFFE0000FF8000001FFFE0000007FFFFFF0001FFFFF
310
F8000FFFFFFFF8000FF8000FFFFFFFF8000FFF0003FFFFFFFFFFFFFFFFFF0000
310
7000FFFFFFFFFC0000FFFC0008003FF0008001FFFF80007FFFFFFFFFF80001FF
310
FFFFFFFF80000FF8000001FFFE0000007FFFFFF0001FFFFFF8000FFFFFFFF800
310
0FF8000FFFFFFFF8000FFF0003FFFFFFFFFFFFFFFFFE0000F000FFFFFFFFE000
310
00FFFC000C003FE000C001FFFF80007FFFFFFFFFC00001FFFFFFFFFE00001FF8
310
000001FFFE0000007FFFFFF0001FFFFFF8000FFFFFFFF8000FF8000FFFFFFFF8
310
000FFF0003FFFFFFFFFFFFFFFFF00000F000FFFFFFFE000001FFFC000C001FE0
310
00C000FFFF80007FFFFFFFFE000001FFFFFFFFE000001FF80FFFFFFFFFFFFFC0
310
7FFFFFF0001FFFFFF8000FFFFFFFF8000FF8000FFFFFFFF8000FFF0003FFFFFF
310
FFFFFFFFFF800000F000FFFFFFC0000001FFFC001C001FE001C000FFFF80007F
310
FFFFFF80000003FFFFFFF80000001FF80FFFFFFFFFFFFFC07FFFFFF0001FFFFF
310
F8001FFFFFFFFC000FF8001FFFFFFFFC000FFF0003FFFFFFFFFFFFFFF0000001
310
F000FFFFF800000001FFF8001C001FE001C000FFFF80007FFFFFF800000003FF
310
FFFF800000003FF80FFFFFFFFFFFFFC07FFFFFF0001FFFFFF8001FFFFFFFFC00
310
0FF8001FFFFFFFFC000FFF0003FFFFFFFFFFFFFE00000001F000FFFFC0000000
310
03FFF8001E001FC001E000FFFF80007FFFFF8000000007FFFFFC000000003FF8
310
0FFFFFFFFFFFFFC07FFFFFF0001FFFFFF8001FFFFFFFFC000FF8001FFFFFFFFC
310
000FFF0003FFFFFFFFFFFFE000000003F000FFFE0000000007FFF8001E000FC0
310
01E0007FFF80007FFFFE0000000007FFFFE0000000007FF80FFFFFFFFFFFFFC0
310
7FFFFFF0001FFFFFF0001FFFFFFFFC0007F0001FFFFFFFFC0007FF0003FFFFFF
310
FFFFFF0000000003F000FFF80000000007FFF8001E000FC003E0007FFF80007F
310
FFF0000000000FFFFF8000000000FFF80FFFFFFFFFFFFFC07FFFFFF0001FFFFF
310
F0001FFFFFFFFC0007F0001FFFFFFFFC0007FF0003FFFFFFFFFFFC0000000007
310
F000FFE0000000000FFFF0003E000FC003E0007FFF80007FFFC0000000001FFF
310
FE0000000001FFF80FFFFFFFFFFFFFC07FFFFFF0001FFFFFF0001FFFFFFFFC00
310
07F0001FFFFFFFFC0007FF0003FFFFFFFFFFF0000000000FF000FFC000000000
310
1FFFF0003F000F8003F0003FFF80007FFF80000000003FFFF80000000003FFF8
310
0FFFFFFFFFFFFFC07FFFFFF0001FFFFFF0001FFFFFFFFC0007F0001FFFFFFFFC
310
0007FF0003FFFFFFFFFFE0000000001FF000FF00000000007FFFF0003F000780
310
03F0003FFF80007FFF00000000007FFFF00000000007FFF80FFFFFFFFFFFFFC0
310
7FFFFFF0001FFFFFF0001FFFFFFFFC0007F0001FFFFFFFFC0007FF0003FFFFFF
310
FFFF80000000007FF000FE0000000000FFFFE0003F00078007F0003FFF80007F
310
FE0000000001FFFFE0000000001FFFF80FFFFFFFFFFFFFC07FFFFFF0001FFFFF
310
F0001FFFFFFFFC0007F0001FFFFFFFFC0007FF0003FFFFFFFFFF0000000000FF
310
F000FC0000000003FFFFE0007F00078007F0003FFF80007FFC0000000007FFFF
310
C0000000007FFFF80FFFFFFFFFFFFFC07FFFFFF0001FFFFFF8001FFFFFFFFC00
310
0FF8001FFFFFFFFC000FFF0003FFFFFFFFFE0000000003FFF000FC000000000F
310
FFFFE0007F80070007F8001FFF80007FF8000000001FFFFF8000000001FFFFF8
310
0FFFFFFFFFFFFFC07FFFFFF0001FFFFFF8001FFFFFFFFC000FF8001FFFFFFFFC
310
000FFF0003FFFFFFFFFC000000000FFFF000F8000000007FFFFFE0007F800700
310
07F8001FFF80007FF000000000FFFFFF800000000FFFFFF80FFFFFFFFFFFFFC0
310
7FFFFFF0001FFFFFF8000FFFFFFFF8000FF8000FFFFFFFF8000FFF0003FFFFFF
310
FFFC000000007FFFF000F800000007FFFFFFC0007F8003000FF8001FFF80007F
310
F000000007FFFFFF000000007FFFFFF80FFFFFFFFFFFFFC07FFFFFF0001FFFFF
310
F8000FFFFFFFF8000FF8000FFFFFFFF8000FFF0003FFFFFFFFF80000000FFFFF
310
F000F0000000FFFFFFFFC000FF8003000FF8001FFF80007FE0000000FFFFFFFF
310
0000000FFFFFFFF8000001FFFE0000007FFFFFF0001FFFFFF8000FFFFFFFF800
310
0FF8000FFFFFFFF8000FFF0003FFFFFFFFF8000000FFFFFFF000F000000FFFFF
310
FFFFC000FFC002000FF8000FFF80007FE000001FFFFFFFFE000001FFFFFFFFF8
310
000001FFFE0000007FFFFFF0001FFFFFF8000FFFFFFFF8000FF8000FFFFFFFF8
310
000FFF0003FFFFFFFFF000001FFFFFFFF000E00000FFFFFFFFFFC000FFC00200
310
0FFC000FFF80007FE00001FFFFFFFFFE00001FFFFFFFFFF8000001FFFE000000
310
7FFFFFF0001FFFFFFC000FFFFFFFF8001FFC000FFFFFFFF8001FFF0003FFFFFF
310
FFF00001FFFFFFFFF000E00007FFFFFFFFFF8000FFC000001FFC000FFF80007F
310
C0000FFFFFFFFFFE0000FFFFFFFFFFF8000001FFFE0000007FFFFFF0001FFFFF
310
FC0007FFFFFFF0001FFC0007FFFFFFF0001FFF0003FFFFFFFFF00007FFFFFFFF
310
F000E0001FFFFFFFFFFF8000FFC000001FFC000FFF80007FC0003FFFFFFFFFFE
310
0001FFFFFFFFFFF8000001FFFE0000007FFFFFF0001FFFFFFC0007FFFFFFF000
310
1FFC0007FFFFFFF0001FFF0003FFFFFFFFF0001FFFFFFFFFF000E0003FFFFF00
310
03FF8001FFE000001FFC0007FF80007FC0007FFFFF0007FC0003FFFFF0003FF8
310
000001FFFE0000007FFFFFF0001FFFFFFC0003FFFFFFE0001FFC0003FFFFFFE0
310
001FFF0003FFFFFFFFF0003FFFFFFFFFF000E0003FFFFF0001FF8001FFE00000
310
1FFE0007FF80007FC0007FFFFE0003FC0007FFFFE0003FF8000001FFFE000000
310
7FFFFFF0001FFFFFFE0003FFFFFFE0003FFE0003FFFFFFE0003FFF0003FFFFFF
310
FFF0003FFFFF8001F000E0003FFFFF0001FF0001FFE000001FFE0007FF80007F
310
C0007FFFFE0003FC0007FFFFE0003FF8000001FFFE0000007FFFFFF0001FFFFF
310
FE0001FFFFFFC0003FFE0001FFFFFFC0003FFF0003FFFFFFFFF0003FFFFF0001
310
F000E0003FFFFF0003FF0001FFE000003FFE0007FF80007FC0007FFFFE0003FC
310
0007FFFFE0003FF8000001FFFE0000007FFFFFF0001FFFFFFF0001FFFFFFC000
310
7FFF0001FFFFFFC0007FFF0003FFFFFFFFF0003FFFFF0001F000E0003FFFFE00
310
03FF0003FFF000003FFE0003FF80007FC0007FFFFC0003FE0007FFFFE0003FF8
310
000001FFFE0000007FFFFFF0001FFFFFFF0000FFFFFF80007FFF0000FFFFFF80
310
007FFF0003FFFFFFFFF0003FFFFF0001F000E0003FFFFE0003FF0003FFF00000
310
3FFF0003FF80007FC0007FFFFC0007FE0007FFFFC0003FF8000001FFFE000000
310
7FFFFFF0001FFFFFFF80007FFFFF0000FFFF80007FFFFF0000FFFF0003FFFFFF
310
FFF0003FFFFF0003F000E0003FFFFC0003FE0003FFF000003FFF0003FF80007F
310
E0003FFFF80007FE0003FFFFC0007FF8000001FFFE0000007FFFFFF0001FFFFF
310
FF80003FFFFE0000FFFF80003FFFFE0000FFFF0003FFFFFFFFF0001FFFFE0003
310
F000F0001FFFF80003FE0003FFF000007FFF0001FF80007FE0003FFFF00007FE
310
0001FFFF80007FF8000001FFFE0000007FFFFFF0001FFFFFFFC0000FFFF80001
310
FFFFC0000FFFF80001FFFF0003FFFFFFFFF0001FFFFC0003F000F0000FFFF000
310
07FE0007FFF800007FFF0001FF80007FE0001FFFE00007FF0000FFFE00007FF8
310
000001FFFE0000007FFFFFF0001FFFFFFFC00003FFE00001FFFFC00003FFE000
310
01FFFF0003FFFFFFFFF8000FFFF80003F000F00003FFC00007FC0007FFF80000
310
7FFF8001FF80007FF00007FF80000FFF00007FF80000FFF8000001FFFE000000
310
7F80000000000001FFE000003E000003FFFFE000003E000003FFFF0003FFFFFF
310
FFF80003FFE00007F000F800000000000FFC0007FFF800007FFF8001FF80007F
310
F000000000000FFF000000000000FFF8000001FFFE0000007F80000000000001
310
FFF0000000000007FFFFF0000000000007FFFF0003FFFFFFFFFC00007E000007
310
F000F800000000000FFC0007FFF80000FFFF8000FF80007FF800000000001FFF
310
800000000001FFF8000001FFFE0000007F80000000000001FFF800000000000F
310
FFFFF800000000000FFFFF0003FFFFFFFFFC00000000000FF000FC0000000000
310
1FFC0007FFFC0000FFFF8000FF80007FF800000000003FFFC00000000001FFF8
310
000001FFFE0000007F80000000000001FFF800000000000FFFFFF80000000000
310
0FFFFF0003FFFFFFFFFE00000000001FF000FE00000000003FF8000FFFFC0000
310
FFFF8000FF80007FFC00000000003FFFC00000000003FFF8000001FFFE000000
310
7F80000000000001FFFC00000000001FFFFFFC00000000001FFFFF0003FFFFFF
310
FFFF00000000001FF000FF00000000003FF8000FFFFC0000FFFFC000FF80007F
310
FE00000000007FFFE00000000007FFF8000001FFFE0000007F80000000000001
310
FFFE00000000003FFFFFFE00000000003FFFFF0003FFFFFFFFFF80000000003F
310
F000FF80000000007FF8000FFFFC0001FFFFC0007F80007FFF0000000000FFFF
310
F0000000000FFFF800000000000000007F80000000000001FFFF8000000000FF
310
FFFFFF8000000000FFFFFF0003FFFFFFFFFFC0000000007FF000FFC000000000
310
FFF8000FFFFE0001FFFFC0007F80007FFF8000000001FFFFF8000000001FFFF8
310
00000000000000007F80000000000001FFFFC000000001FFFFFFFFC000000001
310
FFFFFF0003FFFFFFFFFFE000000000FFF000FFE000000003FFF0001FFFFE0001
310
FFFFC0007F80007FFFC000000007FFFFFE000000003FFFF80000000000000000
310
7F80000000000001FFFFE000000003FFFFFFFFE000000003FFFFFF0003FFFFFF
310
FFFFF000000003FFF000FFF80000000FFFF0001FFFFE0001FFFFE0007F80007F
310
FFF00000000FFFFFFF00000000FFFFF800000000000000007F80000000000001
310
FFFFF80000000FFFFFFFFFF80000000FFFFFFF0003FFFFFFFFFFFC0000000FFF
310
F000FFFE0000003FFFF0001FFFFE0003FFFFE0003F80007FFFFC0000003FFFFF
310
FFC0000003FFFFF800000000000000007F80000000000001FFFFFE0000003FFF
310
FFFFFFFE0000003FFFFFFF0003FFFFFFFFFFFF0000003FFFF000FFFF800000FF
310
FFF0001FFFFF0003FFFFE0003F80007FFFFF000001FFFFFFFFF800001FFFFFF8
310
00000000000000007F80000000000001FFFFFFC00001FFFFFFFFFFFFC00001FF
310
FFFFFF0003FFFFFFFFFFFFC00000FFFFF000FFFFF8000FFFFFFFFFFFFFFFFFFF
310
FFFFFFFFFFFFFFFFFFFFF0001FFFFFFFFFFF0000FFFFFFF80000000000000000
310
7FFFFFFFFFFFFFFFFFFFFFFC001FFFFFFFFFFFFFFC001FFFFFFFFFFFFFFFFFFF
310
FFFFFFFC001FFFFFF000FFFFFFFFFFFFFFFFFFFFFFFFFFFFFFFFFFFFFFFFFFFF
310
FFFFFFFFFFFFFFFFFFFFFFFFFFFFFFFFFFFFFFFFFFFFFFFFFFFFFFFFFFFFFFFF
310
FFFFFFFFFFFFFFFFFFFFFFFFFFFFFFFFFFFFFFFFFFFFFFFFFFFFFFFFFFFFFFFF
310
F000FFFFFFFFFFFFFFFFFFFFFFFFFFFFFFFFFFFFFFFFFFFFFFFFFFFFFFFFFFFF
310
FFFFFFFFFFFFFFFFFFFFFFFFFFFFFFFFFFFFFFFFFFFFFFFFFFFFFFFFFFFFFFFF
310
FFFFFFFFFFFFFFFFFFFFFFFFFFFFFFFFFFFFFFFFFFFFFFFFF000FFFFFFFFFFFF
310
FFFFFFFFFFFFFFFFFFFFFFFFFFFFFFFFFFFFFFFFFFFFFFFFFFFFFFFFFFFFFFFF
310
FFFFFFFFFFFFFFFFFFFFFFFFFFFFFFFFFFFFFFFFFFFFFFFFFFFFFFFFFFFFFFFF
310
FFFFFFFFFFFFFFFFFFFFFFFFFFFFFFFFF000FFFFFFFFFFFFFFFFFFFFFFFFFFFF
310
FFFFFFFFFFFFFFFFFFFFFFFFFFFFFFFFFFFFFFFFFFFFFFFFFFFFFFFFFFFFFFFF
310
FFFFFFFFFFFFFFFFFFFFFFFFFFFFFFFFFFFFFFFFFFFFFFFFFFFFFFFFFFFFFFFF
310
FFFFFFFFFFFFFFFFF000FFFFFFFFFFFFFFFFFFFFFFFFFFFFFFFFFFFFFFFFFFFF
310
FFFFFFFFFFFFFFFFFFFFFFFFFFFFFFFFFFFFFFFFFFFFFFFFFFFFFFFFFFFFFFFF
310
FFFFFFFFFFFFFFFFFFFFFFFFFFFFFFFFFFFFFFFFFFFFFFFFFFFFFFFFFFFFFFFF
310
F000FFFFFFFFFFFFFFFFFFFFFFFFFFFFFFFFFFFFFFFFFFFFFFFFFFFFFFFFFFFF
310
FFFFFFFFFFFFFFFFFFFFFFFFFFFFFFFFFFFFFFFFFFFFFFFFFFFFFFFFFFFFFFFF
310
FFFFFFFFFFFFFFFFFFFFFFFFFFFFFFFFFFFFFFFFFFFFFFFFF000FFFFFFFFFFFF
310
FFFFFFFFFFFFFFFFFFFFFFFFFFFFFFFFFFFFFFFFFFFFFFFFFFFFFFFFFFFFFFFF
310
FFFFFFFFFFFFFFFFFFFFFFFFFFFFFFFFFFFFFFFFFFFFFFFFFFFFFFFFFFFFFFFF
310
FFFFFFFFFFFFFFFFFFFFFFFFFFFFFFFFF000FFFFFFFFFFFFFFFFFFFFFFFFFFFF
310
FFFFFFFFFFFFFFFFFFFFFFFFFFFFFFFFFFFFFFFFFFFFFFFFFFFFFFFFFFFFFFFF
310
FFFFFFFFFFFFFFFFFFFFFFFFFFFFFFFFFFFFFFFFFFFFFFFFFFFFFFFFFFFFFFFF
310
FFFFFFFFFFFFFFFFF000FFFFFFFFFFFFFFFFFFFFFFFFFFFFFFFFFFFFFFFFFFFF
310
FFFFFFFFFFFFFFFFFFFFFFFFFFFFFFFFFFFFFFFFFFFFFFFFFFFFFFFFFFFFFFFF
310
FFFFFFFFFFFFFFFFFFFFFFFFFFFFFFFFFFFFFFFFFFFFFFFFFFFFFFFFFFFFFFFF
310
F000FFFFFFFFFFFFFFFFFFFFFFFFFFFFFFFFFFFFFFFFFFFFFFFFFFFFFFFFFFFF
310
FFFFFFFFFFFFFFFFFFFFFFFFFFFFFFFFFFFFFFFFFFFFFFFFFFFFFFFFFFFFFFFF
310
FFFFFFFFFFFFFFFFFFFFFFFFFFFFFFFFFFFFFFFFFFFFFFFFF000FFFFFFFFFFFF
310
FFFFFFFFFFFFFFFFFFFFFFFFFFFFFFFFFFFFFFFFFFFFFFFFFFFFFFFFFFFFFFFF
310
FFFFFFFFFFFFFFFFFFFFFFFFFFFFFFFFFFFFFFFFFFFFFFFFFFFFFFFFFFFFFFFF
310
FFFFFFFFFFFFFFFFFFFFFFFFFFFFFFFFF000FFFFFFFFFFFFFFFFFFFFFFFFFFFF
310
FFFFFFFFFFFFFFFFFFFFFFFFFFFFFFFFFFFFFFFFFFFFFFFFFFFFFFFFFFFFFFFF
310
FFFFFFFFFFFFFFFFFFFFFFFFFFFFFFFFFFFFFFFFFFFFFFFFFFFFFFFFFFFFFFFF
310
FFFFFFFFFFFFFFFFF000FFFFFFFFFFFFFFFFFFFFFFFFFFFFFFFFFFFFFFFFFFFF
310
FFFFFFFFFFFFFFFFFFFFFFFFFFFFFFFFFFFFFFFFFFFFFFFFFFFFFFFFFFFFFFFF
310
FFFFFFFFFFFFFFFFFFFFFFFFFFFFFFFFFFFFFFFFFFFFFFFFFFFFFFFFFFFFFFFF
310
F000FFFFFFFFFFFFFFFFFFFFFFFFFFFFFFFFFFFFFFFFFFFFFFFFFFFFFFFFFFFF
310
FFFFFFFFFFFFFFFFFFFFFFFFFFFFFFFFFFFFFFFFFFFFFFFFFFFFFFFFFFFFFFFF
310
FFFFFFFFFFFFFFFFFFFFFFFFFFFFFFFFFFFFFFFFFFFFFFFFF000FFFFFFFFFFFF
310
FFFFFFFFFFFFFFFFFFFFFFFFFFFFFFFFFFFFFFFFFFFFFFFFFFFFFFFFFFFFFFFF
310
FFFFFFFFFFFFFFFFFFFFFFFFFFFFFFFFFFFFFFFFFFFFFFFFFFFFFFFFFFFFFFFF
310
FFFFFFFFFFFFFFFFFFFFFFFFFFFFFFFFF000FFFFFFFFFFFFFFFFFFFFFFFFFFFF
310
FFFFFFFFFFFFFFFFFFFFFFFFFFFFFFFFFFFFFFFFFFFFFFFFFFFFFFFFFFFFFFFF
310
FFFFFFFFFFFFFFFFFFFFFFFFFFFFFFFFFFFFFFFFFFFFFFFFFFFFFFFFFFFFFFFF
310
FFFFFFFFFFFFFFFFF000FFFFFFFFFFFFFFFFFFFFFFFFFFFFFFFFFFFFFFFFFFFF
310
FFFFFFFFFFFFFFFFFFFFFFFFFFFFFFFFFFFFFFFFFFFFFFFFFFFFFFFFFFFFFFFF
310
FFFFFFFFFFFFFFFFFFFFFFFFFFFFFFFFFFFFFFFFFFFFFFFFFFFFFFFFFFFFFFFF
310
F000FFFFFFFFFFFFFFFFFFFFFFFFFFFFFFFFFFFFFFFFFFFFFFFFFFFFFFFFFFFF
310
FFFFFFFFFFFFFFFFFFFFFFFFFFFFFFFFFFFFFFFFFFFFFFFFFFFFFFFFFFFFFFFF
310
FFFFFFFFFFFFFFFFFFFFFFFFFFFFFFFFFFFFFFFFFFFFFFFFF000FFFFFFFFFFFF
310
FFFFFFFFFFFFFFFFFFFFFFFFFFFFFFFFFFFFFFFFFFFFFFFFFFFFFFFFFFFFFFFF
310
FFFFFFFFFFFFFFFFFFFFFFFFFFFFFFFFFFFFFFFFFFFFFFFFFFFFFFFFFFFFFFFF
310
FFFFFFFFFFFFFFFFFFFFFFFFFFFFFFFFF000FFFFFFFFFFFFFFFFFFFFFFFFFFFF
310
FFFFFFFFFFFFFFFFFFFFFFFFFFFFFFFFFFFFFFFFFFFFFFFFFFFFFFFFFFFFFFFF
310
FFFFFFFFFFFFFFFFFFFFFFFFFFFFFFFFFFFFFFFFFFFFFFFFFFFFFFFFFFFFFFFF
310
FFFFFFFFFFFFFFFFF000FFFFFFFFFFFFFFFFFFFFFFFFFFFFFFFFFFFFFFFFFFFF
310
FFFFFFFFFFFFFFFFFFFFFFFFFFFFFFFFFFFFFFFFFFFFFFFFFFFFFFFFFFFFFFFF
310
FFFFFFFFFFFFFFFFFFFFFFFFFFFFFFFFFFFFFFFFFFFFFFFFFFFFFFFFFFFFFFFF
310
F000FFFFFFFFFFFFFFFFFFFFFFFFFFFFFFFFFFFFFFFFFFFFFFFFFFFFFFFFFFFF
310
FFFFFFFFFFFFFFFFFFFFFFFFFFFFFFFFFFFFFFFFFFFFFFFFFFFFFFFFFFFFFFFF
310
FFFFFFFFFFFFFFFFFFFFFFFFFFFFFFFFFFFFFFFFFFFFFFFFF000FFFFFFFFFFFF
310
FFFFFFFFFFFFFFFFFFFFFFFFFFFFFFFFFFFFFFFFFFFFFFFFFFFFFFFFFFFFFFFF
310
FFFFFFFFFFFFFFFFFFFFFFFFFFFFFFFFFFFFFFFFFFFFFFFFFFFFFFFFFFFFFFFF
310
FFFFFFFFFFFFFFFFFFFFFFFFFFFFFFFFF0000000000000000000000000000000
310
0000000000000000000000000000000000000000000000000000000000000000
310
0000000000000000000000000000000000000000000000000000000000000000
310
0000000000000000000000000000000000000000000000000000000000000000
310
0000000000000000000000000000000000000000000000000000000000000000
310
0000000000000000000000000000000000000000000000000000000000000000
310
0000000000000000000000000000000000000000000000000000000000000000
310
0000000000000000000000000000000000000000000000000000000000000000
310
0000000000000000000000000000000000000000000000000000000000000000
310
0000000000000000000000000000000000000000000000000000000000000000
310
0000000000000000000000000000000000000000000000000000000000000000
310
0000000000000000000000000000000000000000000000000000000000000000
310
0000000000000000000000000000000000000000000000000000000000000000
310
0000000000000000000000000000000000000000000000000000000000000000
310
0000000000000000000000000000000000000000000000000000000000000000
310
0000000000000000000000000000000000000000000000000000000000000000
  1
OLE
  0
ENDSEC
  0
SECTION
  2
OBJECTS
  0
DICTIONARY
  5
C
330
0
100
AcDbDictionary
281
     1
  3
ACAD_GROUP
350
D
  3
ACAD_LAYOUT
350
1A
  3
ACAD_MLINESTYLE
350
17
  3
ACAD_PLOTSETTINGS
350
19
  3
ACAD_PLOTSTYLENAME
350
E
  0
DICTIONARY
  5
D
102
{ACAD_REACTORS
330
C
102
}
330
C
100
AcDbDictionary
281
     1
  0
DICTIONARY
  5
1A
102
{ACAD_REACTORS
330
C
102
}
330
C
100
AcDbDictionary
281
     1
  3
Layout1
350
1E
  3
Layout2
350
26
  3
Model
350
22
  0
DICTIONARY
  5
17
102
{ACAD_REACTORS
330
C
102
}
330
C
100
AcDbDictionary
281
     1
  3
Standard
350
18
  0
DICTIONARY
  5
19
102
{ACAD_REACTORS
330
C
102
}
330
C
100
AcDbDictionary
281
     1
  0
ACDBDICTIONARYWDFLT
  5
E
102
{ACAD_REACTORS
330
C
102
}
330
C
100
AcDbDictionary
281
     1
  3
Normal
350
F
100
AcDbDictionaryWithDefault
340
F
  0
LAYOUT
  5
1E
102
{ACAD_REACTORS
330
1A
102
}
330
1A
100
AcDbPlotSettings
  1

  2
none_device
  4

  6

 40
0.0
 41
0.0
 42
0.0
 43
0.0
 44
0.0
 45
0.0
 46
0.0
 47
0.0
 48
0.0
 49
0.0
140
0.0
141
0.0
142
1.0
143
1.0
 70
   688
 72
     0
 73
     0
 74
     5
  7

 75
    16
147
1.0
148
0.0
149
0.0
100
AcDbLayout
  1
Layout1
 70
     1
 71
     1
 10
0.0
 20
0.0
 11
420.0
 21
297.0
 12
0.0
 22
0.0
 32
0.0
 14
1.0000000000E+20
 24
1.0000000000E+20
 34
1.0000000000E+20
 15
-1.0000000000E+20
 25
-1.0000000000E+20
 35
-1.0000000000E+20
146
0.0
 13
0.0
 23
0.0
 33
0.0
 16
1.0
 26
0.0
 36
0.0
 17
0.0
 27
1.0
 37
0.0
 76
     0
330
1B
  0
LAYOUT
  5
26
102
{ACAD_REACTORS
330
1A
102
}
330
1A
100
AcDbPlotSettings
  1

  2
none_device
  4

  6

 40
0.0
 41
0.0
 42
0.0
 43
0.0
 44
0.0
 45
0.0
 46
0.0
 47
0.0
 48
0.0
 49
0.0
140
0.0
141
0.0
142
1.0
143
1.0
 70
   688
 72
     0
 73
     0
 74
     5
  7

 75
    16
147
1.0
148
0.0
149
0.0
100
AcDbLayout
  1
Layout2
 70
     1
 71
     2
 10
0.0
 20
0.0
 11
0.0
 21
0.0
 12
0.0
 22
0.0
 32
0.0
 14
0.0
 24
0.0
 34
0.0
 15
0.0
 25
0.0
 35
0.0
146
0.0
 13
0.0
 23
0.0
 33
0.0
 16
1.0
 26
0.0
 36
0.0
 17
0.0
 27
1.0
 37
0.0
 76
     0
330
23
  0
LAYOUT
  5
22
102
{ACAD_REACTORS
330
1A
102
}
330
1A
100
AcDbPlotSettings
  1

  2
none_device
  4

  6

 40
0.0
 41
0.0
 42
0.0
 43
0.0
 44
0.0
 45
0.0
 46
0.0
 47
0.0
 48
0.0
 49
0.0
140
0.0
141
0.0
142
1.0
143
1.0
 70
  1712
 72
     0
 73
     0
 74
     0
  7

 75
     0
147
1.0
148
0.0
149
0.0
100
AcDbLayout
  1
Model
 70
     1
 71
     0
 10
0.0
 20
0.0
 11
297.0
 21
210.0
 12
0.0
 22
0.0
 32
0.0
 14
0.0
 24
0.0
 34
0.0
 15
297.0
 25
210.0
 35
0.0
146
0.0
 13
0.0
 23
0.0
 33
0.0
 16
1.0
 26
0.0
 36
0.0
 17
0.0
 27
1.0
 37
0.0
 76
     0
330
1F
331
29
  0
MLINESTYLE
  5
18
102
{ACAD_REACTORS
330
17
102
}
330
17
100
AcDbMlineStyle
  2
Standard
 70
     0
  3

 62
   256
 51
90.0
 52
90.0
 71
     2
 49
0.5
 62
   256
  6
BYLAYER
 49
-0.5
 62
   256
  6
BYLAYER
  0
ACDBPLACEHOLDER
  5
F
102
{ACAD_REACTORS
330
E
102
}
330
E
  0
ENDSEC
  0
EOF
