  0
SECTION
  2
HEADER
  9
$ACADVER
  1
AC1015
  9
$ACADMAINTVER
 70
     6
  9
$DWGCODEPAGE
  3
ANSI_1252
  9
$INSBASE
 10
0.0
 20
0.0
 30
0.0
  9
$EXTMIN
 10
0.0
 20
0.0
 30
0.0
  9
$EXTMAX
 10
297.0
 20
210.0
 30
0.0
  9
$LIMMIN
 10
0.0
 20
0.0
  9
$LIMMAX
 10
297.0
 20
210.0
  9
$ORTHOMODE
 70
     0
  9
$REGENMODE
 70
     1
  9
$FILLMODE
 70
     1
  9
$QTEXTMODE
 70
     0
  9
$MIRRTEXT
 70
     1
  9
$LTSCALE
 40
1.0
  9
$ATTMODE
 70
     1
  9
$TEXTSIZE
 40
2.0
  9
$TRACEWID
 40
1.0
  9
$TEXTSTYLE
  7
Standard
  9
$CLAYER
  8
0
  9
$CELTYPE
  6
ByLayer
  9
$CECOLOR
 62
   256
  9
$CELTSCALE
 40
1.0
  9
$DISPSILH
 70
     0
  9
$DIMSCALE
 40
1.0
  9
$DIMASZ
 40
3.0
  9
$DIMEXO
 40
0.0
  9
$DIMDLI
 40
3.75
  9
$DIMRND
 40
0.0
  9
$DIMDLE
 40
0.0
  9
$DIMEXE
 40
1.0
  9
$DIMTP
 40
0.0
  9
$DIMTM
 40
0.0
  9
$DIMTXT
 40
2.0
  9
$DIMCEN
 40
2.5
  9
$DIMTSZ
 40
0.0
  9
$DIMTOL
 70
     0
  9
$DIMLIM
 70
     0
  9
$DIMTIH
 70
     1
  9
$DIMTOH
 70
     1
  9
$DIMSE1
 70
     0
  9
$DIMSE2
 70
     0
  9
$DIMTAD
 70
     1
  9
$DIMZIN
 70
     0
  9
$DIMBLK
  1

  9
$DIMASO
 70
     1
  9
$DIMSHO
 70
     1
  9
$DIMPOST
  1

  9
$DIMAPOST
  1

  9
$DIMALT
 70
     0
  9
$DIMALTD
 70
     3
  9
$DIMALTF
 40
0.0393700787
  9
$DIMLFAC
 40
1.0
  9
$DIMTOFL
 70
     1
  9
$DIMTVP
 40
0.0
  9
$DIMTIX
 70
     0
  9
$DIMSOXD
 70
     0
  9
$DIMSAH
 70
     0
  9
$DIMBLK1
  1

  9
$DIMBLK2
  1

  9
$DIMSTYLE
  2
ISO-25
  9
$DIMCLRD
 70
     0
  9
$DIMCLRE
 70
     0
  9
$DIMCLRT
 70
     0
  9
$DIMTFAC
 40
1.0
  9
$DIMGAP
 40
1.524
  9
$DIMJUST
 70
     0
  9
$DIMSD1
 70
     0
  9
$DIMSD2
 70
     0
  9
$DIMTOLJ
 70
     0
  9
$DIMTZIN
 70
     0
  9
$DIMALTZ
 70
     0
  9
$DIMALTTZ
 70
     0
  9
$DIMUPT
 70
     0
  9
$DIMDEC
 70
     2
  9
$DIMTDEC
 70
     3
  9
$DIMALTU
 70
     2
  9
$DIMALTTD
 70
     3
  9
$DIMTXSTY
  7
Standard
  9
$DIMAUNIT
 70
     0
  9
$DIMADEC
 70
     2
  9
$DIMALTRND
 40
0.0
  9
$DIMAZIN
 70
     0
  9
$DIMDSEP
 70
    44
  9
$DIMATFIT
 70
     3
  9
$DIMFRAC
 70
     0
  9
$DIMLDRBLK
  1

  9
$DIMLUNIT
 70
     2
  9
$DIMLWD
 70
    -2
  9
$DIMLWE
 70
    -2
  9
$DIMTMOVE
 70
     0
  9
$LUNITS
 70
     2
  9
$LUPREC
 70
     2
  9
$SKETCHINC
 40
1.0
  9
$FILLETRAD
 40
10.0
  9
$AUNITS
 70
     0
  9
$AUPREC
 70
     2
  9
$MENU
  1
.
  9
$ELEVATION
 40
0.0
  9
$PELEVATION
 40
0.0
  9
$THICKNESS
 40
0.0
  9
$LIMCHECK
 70
     0
  9
$CHAMFERA
 40
10.0
  9
$CHAMFERB
 40
10.0
  9
$CHAMFERC
 40
20.0
  9
$CHAMFERD
 40
0.0
  9
$SKPOLY
 70
     0
  9
$TDCREATE
 40
2456056.572987245
  9
$TDUCREATE
 40
2456056.489653912
  9
$TDUPDATE
 40
2456056.572988866
  9
$TDUUPDATE
 40
2456056.489655532
  9
$TDINDWG
 40
0.0000000116
  9
$TDUSRTIMER
 40
0.0000000116
  9
$USRTIMER
 70
     1
  9
$ANGBASE
 50
0.0
  9
$ANGDIR
 70
     0
  9
$PDMODE
 70
     0
  9
$PDSIZE
 40
-1.0
  9
$PLINEWID
 40
0.0
  9
$SPLFRAME
 70
     0
  9
$SPLINETYPE
 70
     6
  9
$SPLINESEGS
 70
     8
  9
$HANDSEED
  5
286
  9
$SURFTAB1
 70
     6
  9
$SURFTAB2
 70
     6
  9
$SURFTYPE
 70
     6
  9
$SURFU
 70
     6
  9
$SURFV
 70
     6
  9
$UCSBASE
  2

  9
$UCSNAME
  2

  9
$UCSORG
 10
0.0
 20
0.0
 30
0.0
  9
$UCSXDIR
 10
1.0
 20
0.0
 30
0.0
  9
$UCSYDIR
 10
0.0
 20
1.0
 30
0.0
  9
$UCSORTHOREF
  2

  9
$UCSORTHOVIEW
 70
     0
  9
$UCSORGTOP
 10
0.0
 20
0.0
 30
0.0
  9
$UCSORGBOTTOM
 10
0.0
 20
0.0
 30
0.0
  9
$UCSORGLEFT
 10
0.0
 20
0.0
 30
0.0
  9
$UCSORGRIGHT
 10
0.0
 20
0.0
 30
0.0
  9
$UCSORGFRONT
 10
0.0
 20
0.0
 30
0.0
  9
$UCSORGBACK
 10
0.0
 20
0.0
 30
0.0
  9
$PUCSBASE
  2

  9
$PUCSNAME
  2

  9
$PUCSORG
 10
0.0
 20
0.0
 30
0.0
  9
$PUCSXDIR
 10
1.0
 20
0.0
 30
0.0
  9
$PUCSYDIR
 10
0.0
 20
1.0
 30
0.0
  9
$PUCSORTHOREF
  2

  9
$PUCSORTHOVIEW
 70
     0
  9
$PUCSORGTOP
 10
0.0
 20
0.0
 30
0.0
  9
$PUCSORGBOTTOM
 10
0.0
 20
0.0
 30
0.0
  9
$PUCSORGLEFT
 10
0.0
 20
0.0
 30
0.0
  9
$PUCSORGRIGHT
 10
0.0
 20
0.0
 30
0.0
  9
$PUCSORGFRONT
 10
0.0
 20
0.0
 30
0.0
  9
$PUCSORGBACK
 10
0.0
 20
0.0
 30
0.0
  9
$USERI1
 70
     0
  9
$USERI2
 70
     0
  9
$USERI3
 70
     0
  9
$USERI4
 70
     0
  9
$USERI5
 70
     0
  9
$USERR1
 40
0.0
  9
$USERR2
 40
0.0
  9
$USERR3
 40
0.0
  9
$USERR4
 40
0.0
  9
$USERR5
 40
0.0
  9
$WORLDVIEW
 70
     1
  9
$SHADEDGE
 70
     3
  9
$SHADEDIF
 70
    70
  9
$TILEMODE
 70
     1
  9
$MAXACTVP
 70
    64
  9
$PINSBASE
 10
0.0
 20
0.0
 30
0.0
  9
$PLIMCHECK
 70
     0
  9
$PEXTMIN
 10
1.0000000000E+20
 20
1.0000000000E+20
 30
1.0000000000E+20
  9
$PEXTMAX
 10
-1.0000000000E+20
 20
-1.0000000000E+20
 30
-1.0000000000E+20
  9
$PLIMMIN
 10
0.0
 20
0.0
  9
$PLIMMAX
 10
420.0
 20
297.0
  9
$UNITMODE
 70
     0
  9
$VISRETAIN
 70
     1
  9
$PLINEGEN
 70
     0
  9
$PSLTSCALE
 70
     1
  9
$TREEDEPTH
 70
  3020
  9
$CMLSTYLE
  2
Standard
  9
$CMLJUST
 70
     0
  9
$CMLSCALE
 40
20.0
  9
$PROXYGRAPHICS
 70
     1
  9
$MEASUREMENT
 70
     1
  9
$CELWEIGHT
370
    -1
  9
$ENDCAPS
280
     0
  9
$JOINSTYLE
280
     0
  9
$LWDISPLAY
290
     1
  9
$INSUNITS
 70
     4
  9
$HYPERLINKBASE
  1

  9
$STYLESHEET
  1

  9
$XEDIT
290
     1
  9
$CEPSNTYPE
380
     0
  9
$PSTYLEMODE
290
     1
  9
$FINGERPRINTGUID
  2
{7CB69903-9496-43D3-A14F-651F3B42328D}
  9
$VERSIONGUID
  2
{FAEB1C32-E019-11D5-929B-00C0DF256EC4}
  9
$EXTNAMES
290
     1
  9
$PSVPSCALE
 40
0.0
  9
$OLESTARTUP
290
     0
  0
ENDSEC
  0
SECTION
  2
CLASSES
  0
CLASS
  1
ACDBDICTIONARYWDFLT
  2
AcDbDictionaryWithDefault
  3
ObjectDBX Classes
 90
        0
280
     0
281
     0
  0
CLASS
  1
VISUALSTYLE
  2
AcDbVisualStyle
  3
ObjectDBX Classes
 90
     4095
280
     0
281
     0
  0
CLASS
  1
MATERIAL
  2
AcDbMaterial
  3
ObjectDBX Classes
 90
     1153
280
     0
281
     0
  0
CLASS
  1
ACDBPLACEHOLDER
  2
AcDbPlaceHolder
  3
ObjectDBX Classes
 90
        0
280
     0
281
     0
  0
CLASS
  1
LAYOUT
  2
AcDbLayout
  3
ObjectDBX Classes
 90
        0
280
     0
281
     0
  0
ENDSEC
  0
SECTION
  2
TABLES
  0
TABLE
  2
VPORT
  5
8
330
0
100
AcDbSymbolTable
 70
     1
  0
VPORT
  5
29
330
8
100
AcDbSymbolTableRecord
100
AcDbViewportTableRecord
  2
*Active
 70
     0
 10
0.0
 20
0.0
 11
1.0
 21
1.0
 12
148.5
 22
105.0
 13
0.0
 23
0.0
 14
10.0
 24
10.0
 15
10.0
 25
10.0
 16
0.0
 26
0.0
 36
1.0
 17
0.0
 27
0.0
 37
0.0
 40
210.0
 41
1.4142857143
 42
50.0
 43
0.0
 44
0.0
 50
0.0
 51
0.0
 71
     0
 72
  2000
 73
     1
 74
     3
 75
     0
 76
     0
 77
     0
 78
     0
281
     0
 65
     1
110
0.0
120
0.0
130
0.0
111
1.0
121
0.0
131
0.0
112
0.0
122
1.0
132
0.0
 79
     0
146
0.0
  0
ENDTAB
  0
TABLE
  2
LTYPE
  5
5
330
0
100
AcDbSymbolTable
 70
     6
  0
LTYPE
  5
14
330
5
100
AcDbSymbolTableRecord
100
AcDbLinetypeTableRecord
  2
ByBlock
 70
     0
  3

 72
    65
 73
     0
 40
0.0
  0
LTYPE
  5
15
330
5
100
AcDbSymbolTableRecord
100
AcDbLinetypeTableRecord
  2
ByLayer
 70
     0
  3

 72
    65
 73
     0
 40
0.0
  0
LTYPE
  5
16
330
5
100
AcDbSymbolTableRecord
100
AcDbLinetypeTableRecord
  2
Continuous
 70
     0
  3
Solid line
 72
    65
 73
     0
 40
0.0
  0
LTYPE
  5
3F
330
5
100
AcDbSymbolTableRecord
100
AcDbLinetypeTableRecord
  2
HIDDEN
 70
     0
  3
Hidden __ __ __ __ __ __ __ __ __ __ __ __ __ __
 72
    65
 73
     2
 40
1.905
 49
1.27
 74
     0
 49
-0.635
 74
     0
  0
LTYPE
  5
40
330
5
100
AcDbSymbolTableRecord
100
AcDbLinetypeTableRecord
  2
PHANTOM
 70
     0
  3
Phantom ______  __  __  ______  __  __  ______
 72
    65
 73
     6
 40
12.7
 49
6.35
 74
     0
 49
-1.27
 74
     0
 49
1.27
 74
     0
 49
-1.27
 74
     0
 49
1.27
 74
     0
 49
-1.27
 74
     0
  0
LTYPE
  5
41
330
5
100
AcDbSymbolTableRecord
100
AcDbLinetypeTableRecord
  2
CENTER
 70
     0
  3
Center ____ _ ____ _ ____ _ ____ _ ____ _ ____
 72
    65
 73
     4
 40
10.16
 49
6.35
 74
     0
 49
-1.27
 74
     0
 49
1.27
 74
     0
 49
-1.27
 74
     0
  0
LTYPE
  5
42
330
5
100
AcDbSymbolTableRecord
100
AcDbLinetypeTableRecord
  2
CENTERX2
 70
     0
  3
Center (2x) ________  __  ________  __  _____
 72
    65
 73
     4
 40
20.32
 49
12.7
 74
     0
 49
-2.54
 74
     0
 49
2.54
 74
     0
 49
-2.54
 74
     0
  0
LTYPE
  5
43
330
5
100
AcDbSymbolTableRecord
100
AcDbLinetypeTableRecord
  2
DOT2
 70
     0
  3
Dot (.5x) ........................................
 72
    65
 73
     2
 40
0.635
 49
0.0
 74
     0
 49
-0.635
 74
     0
  0
ENDTAB
  0
TABLE
  2
LAYER
  5
2
330
0
100
AcDbSymbolTable
 70
     5
  0
LAYER
  5
10
330
2
100
AcDbSymbolTableRecord
100
AcDbLayerTableRecord
  2
0
 70
     0
 62
     7
  6
Continuous
370
    -3
390
F
  0
LAYER
  5
44
330
2
100
AcDbSymbolTableRecord
100
AcDbLayerTableRecord
  2
FORMAT
 70
     0
 62
     7
  6
Continuous
370
    -3
390
F
  0
LAYER
  5
45
330
2
100
AcDbSymbolTableRecord
100
AcDbLayerTableRecord
  2
VERMASSUNG
 70
     0
 62
     7
  6
Continuous
370
    -3
390
F
  0
LAYER
  5
46
330
2
100
AcDbSymbolTableRecord
100
AcDbLayerTableRecord
  2
KOPF_DÜNN
 70
     0
 62
     7
  6
Continuous
370
    -3
390
F
  0
LAYER
  5
47
330
2
100
AcDbSymbolTableRecord
100
AcDbLayerTableRecord
  2
KOPF_DICK
 70
     0
 62
     7
  6
Continuous
370
    15
390
F
  0
ENDTAB
  0
TABLE
  2
STYLE
  5
3
330
0
100
AcDbSymbolTable
 70
     2
  0
STYLE
  5
11
330
3
100
AcDbSymbolTableRecord
100
AcDbTextStyleTableRecord
  2
Standard
 70
     0
 40
0.0
 41
1.0
 50
0.0
 71
     0
 42
2.0
  3
txt
  4

  0
STYLE
  5
48
330
3
100
AcDbSymbolTableRecord
100
AcDbTextStyleTableRecord
  2
SLDTEXTSTYLE0
 70
     0
 40
0.0
 41
0.7
 50
0.0
 71
     0
 42
0.2
  3
TXT
  4

  0
ENDTAB
  0
TABLE
  2
VIEW
  5
6
330
0
100
AcDbSymbolTable
 70
     0
  0
ENDTAB
  0
TABLE
  2
UCS
  5
7
330
0
100
AcDbSymbolTable
 70
     0
  0
ENDTAB
  0
TABLE
  2
APPID
  5
9
330
0
100
AcDbSymbolTable
 70
     1
  0
APPID
  5
12
330
9
100
AcDbSymbolTableRecord
100
AcDbRegAppTableRecord
  2
ACAD
 70
     0
  0
ENDTAB
  0
TABLE
  2
DIMSTYLE
  5
A
330
0
100
AcDbSymbolTable
 70
     5
100
AcDbDimStyleTable
  0
DIMSTYLE
105
27
330
A
100
AcDbSymbolTableRecord
100
AcDbDimStyleTableRecord
  2
ISO-25
 70
     0
 41
2.5
 42
0.625
 43
3.75
 44
1.25
 73
     0
 74
     0
 77
     1
 78
     8
140
2.5
141
2.5
143
0.0393700787
147
0.625
171
     3
172
     1
178
     0
271
     2
272
     2
274
     3
278
    44
283
     0
284
     8
340
11
  0
DIMSTYLE
105
15A
102
{ACAD_REACTORS
330
159
330
164
330
16E
330
1AD
330
1B7
330
1C1
330
1CB
330
1D4
330
1DE
330
27A
102
}
330
A
100
AcDbSymbolTableRecord
100
AcDbDimStyleTableRecord
  2
SLDDIMSTYLE0
 70
     0
 41
3.0
 44
0.0
 45
0.000000001
 73
     0
 74
     0
 77
     1
 78
    12
 79
     3
140
2.0
147
0.5
173
     1
178
     0
271
     2
272
     3
276
     2
284
    12
340
48
  0
DIMSTYLE
105
17B
102
{ACAD_REACTORS
330
17A
102
}
330
A
100
AcDbSymbolTableRecord
100
AcDbDimStyleTableRecord
  2
SLDDIMSTYLE1
 70
     0
 41
3.0
 44
0.0
 73
     0
 74
     0
 77
     1
 78
    12
 79
     3
140
2.0
147
0.5
173
     1
178
     0
179
     2
272
     3
276
     2
284
    12
340
48
  0
DIMSTYLE
105
1E9
102
{ACAD_REACTORS
330
1E8
102
}
330
A
100
AcDbSymbolTableRecord
100
AcDbDimStyleTableRecord
  2
SLDDIMSTYLE2
 70
     0
 41
3.0
 44
0.0
 45
0.000000001
 73
     0
 74
     0
 77
     1
 78
    12
 79
     3
140
2.0
147
0.5
172
     1
173
     1
178
     0
271
     2
272
     3
276
     2
284
    12
289
     0
340
48
  0
DIMSTYLE
105
1F5
102
{ACAD_REACTORS
330
1F4
102
}
330
A
100
AcDbSymbolTableRecord
100
AcDbDimStyleTableRecord
  2
SLDDIMSTYLE3
 70
     0
 41
3.0
 44
0.0
 45
0.000000001
 73
     0
 74
     0
 77
     1
 78
    12
 79
     3
140
2.0
141
0.0
147
0.5
173
     1
178
     0
271
     2
272
     3
276
     2
284
    12
340
48
  0
ENDTAB
  0
TABLE
  2
BLOCK_RECORD
  5
1
330
0
100
AcDbSymbolTable
 70
    15
  0
BLOCK_RECORD
  5
1F
330
1
100
AcDbSymbolTableRecord
100
AcDbBlockTableRecord
  2
*Model_Space
340
22
  0
BLOCK_RECORD
  5
1B
330
1
100
AcDbSymbolTableRecord
100
AcDbBlockTableRecord
  2
*Paper_Space
340
1E
  0
BLOCK_RECORD
  5
23
330
1
100
AcDbSymbolTableRecord
100
AcDbBlockTableRecord
  2
*Paper_Space0
340
26
  0
BLOCK_RECORD
  5
15B
330
1
100
AcDbSymbolTableRecord
100
AcDbBlockTableRecord
  2
_D
340
0
  0
BLOCK_RECORD
  5
165
330
1
100
AcDbSymbolTableRecord
100
AcDbBlockTableRecord
  2
_D_1
340
0
  0
BLOCK_RECORD
  5
16F
330
1
100
AcDbSymbolTableRecord
100
AcDbBlockTableRecord
  2
_D_2
340
0
  0
BLOCK_RECORD
  5
17C
330
1
100
AcDbSymbolTableRecord
100
AcDbBlockTableRecord
  2
_D_3
340
0
  0
BLOCK_RECORD
  5
1AE
330
1
100
AcDbSymbolTableRecord
100
AcDbBlockTableRecord
  2
_D_4
340
0
  0
BLOCK_RECORD
  5
1B8
330
1
100
AcDbSymbolTableRecord
100
AcDbBlockTableRecord
  2
_D_5
340
0
  0
BLOCK_RECORD
  5
1C2
330
1
100
AcDbSymbolTableRecord
100
AcDbBlockTableRecord
  2
_D_6
340
0
  0
BLOCK_RECORD
  5
1CC
330
1
100
AcDbSymbolTableRecord
100
AcDbBlockTableRecord
  2
_D_7
340
0
  0
BLOCK_RECORD
  5
1D5
330
1
100
AcDbSymbolTableRecord
100
AcDbBlockTableRecord
  2
_D_8
340
0
  0
BLOCK_RECORD
  5
1DF
330
1
100
AcDbSymbolTableRecord
100
AcDbBlockTableRecord
  2
_D_9
340
0
  0
BLOCK_RECORD
  5
1EA
330
1
100
AcDbSymbolTableRecord
100
AcDbBlockTableRecord
  2
_D_10
340
0
  0
BLOCK_RECORD
  5
1F6
330
1
100
AcDbSymbolTableRecord
100
AcDbBlockTableRecord
  2
_D_11
340
0
  0
BLOCK_RECORD
  5
1FD
330
1
100
AcDbSymbolTableRecord
100
AcDbBlockTableRecord
  2
SW_CENTERMARKSYMBOL_0
340
0
102
{BLKREFS
331
208
102
}
  0
BLOCK_RECORD
  5
27B
330
1
100
AcDbSymbolTableRecord
100
AcDbBlockTableRecord
  2
_D_12
340
0
  0
ENDTAB
  0
ENDSEC
  0
SECTION
  2
BLOCKS
  0
BLOCK
  5
20
330
1F
100
AcDbEntity
  8
0
100
AcDbBlockBegin
  2
*Model_Space
 70
     0
 10
0.0
 20
0.0
 30
0.0
  3
*Model_Space
  1

  0
ENDBLK
  5
21
330
1F
100
AcDbEntity
  8
0
100
AcDbBlockEnd
  0
BLOCK
  5
1C
330
1B
100
AcDbEntity
 67
     1
  8
0
100
AcDbBlockBegin
  2
*Paper_Space
 70
     0
 10
0.0
 20
0.0
 30
0.0
  3
*Paper_Space
  1

  0
ENDBLK
  5
1D
330
1B
100
AcDbEntity
 67
     1
  8
0
100
AcDbBlockEnd
  0
BLOCK
  5
24
330
23
100
AcDbEntity
  8
0
100
AcDbBlockBegin
  2
*Paper_Space0
 70
     0
 10
0.0
 20
0.0
 30
0.0
  3
*Paper_Space0
  1

  0
ENDBLK
  5
25
330
23
100
AcDbEntity
  8
0
100
AcDbBlockEnd
  0
BLOCK
  5
15C
330
15B
100
AcDbEntity
  8
0
100
AcDbBlockBegin
  2
_D
 70
     0
 10
0.0
 20
0.0
 30
0.0
  3
_D
  1

  0
SOLID
  5
15E
330
15B
100
AcDbEntity
  8
VERMASSUNG
100
AcDbTrace
 10
188.7955953177
 20
59.5675601726
 30
0.0
 11
191.7955953177
 21
59.1175601726
 31
0.0
 12
191.7955953177
 22
60.0175601726
 32
0.0
 13
191.7955953177
 23
60.0175601726
 33
0.0
  0
SOLID
  5
15F
330
15B
100
AcDbEntity
  8
VERMASSUNG
100
AcDbTrace
 10
268.7955953177
 20
59.5675601726
 30
0.0
 11
265.7955953177
 21
60.0175601726
 31
0.0
 12
265.7955953177
 22
59.1175601726
 32
0.0
 13
265.7955953177
 23
59.1175601726
 33
0.0
  0
LINE
  5
160
330
15B
100
AcDbEntity
  8
VERMASSUNG
100
AcDbLine
 10
188.7955953177
 20
77.7628592143
 30
0.0
 11
188.7955953177
 21
58.5675601726
 31
0.0
  0
LINE
  5
161
330
15B
100
AcDbEntity
  8
VERMASSUNG
100
AcDbLine
 10
268.7955953177
 20
68.4628592143
 30
0.0
 11
268.7955953177
 21
58.5675601726
 31
0.0
  0
LINE
  5
162
330
15B
100
AcDbEntity
  8
VERMASSUNG
100
AcDbLine
 10
188.7955953177
 20
59.5675601726
 30
0.0
 11
268.7955953177
 21
59.5675601726
 31
0.0
  0
MTEXT
  5
163
330
15B
100
AcDbEntity
  8
VERMASSUNG
100
AcDbMText
 10
226.4955952666
 20
62.1456955358
 30
7.1
 40
2.0
 41
0.0
 71
     1
 72
     1
  1
80
  7
SLDTEXTSTYLE0
 73
     1
 44
1.0
  0
ENDBLK
  5
15D
330
15B
100
AcDbEntity
  8
0
100
AcDbBlockEnd
  0
BLOCK
  5
166
330
165
100
AcDbEntity
  8
0
100
AcDbBlockBegin
  2
_D_1
 70
     0
 10
0.0
 20
0.0
 30
0.0
  3
_D_1
  1

  0
SOLID
  5
168
330
165
100
AcDbEntity
  8
VERMASSUNG
100
AcDbTrace
 10
164.7955953177
 20
51.4628592143
 30
0.0
 11
167.7955953177
 21
51.0128592143
 31
0.0
 12
167.7955953177
 22
51.9128592143
 32
0.0
 13
167.7955953177
 23
51.9128592143
 33
0.0
  0
SOLID
  5
169
330
165
100
AcDbEntity
  8
VERMASSUNG
100
AcDbTrace
 10
268.7955953177
 20
51.4628592143
 30
0.0
 11
265.7955953177
 21
51.9128592143
 31
0.0
 12
265.7955953177
 22
51.0128592143
 32
0.0
 13
265.7955953177
 23
51.0128592143
 33
0.0
  0
LINE
  5
16A
330
165
100
AcDbEntity
  8
VERMASSUNG
100
AcDbLine
 10
164.7955953177
 20
84.8313542323
 30
0.0
 11
164.7955953177
 21
50.4628592143
 31
0.0
  0
LINE
  5
16B
330
165
100
AcDbEntity
  8
VERMASSUNG
100
AcDbLine
 10
268.7955953177
 20
68.4628592143
 30
0.0
 11
268.7955953177
 21
50.4628592143
 31
0.0
  0
LINE
  5
16C
330
165
100
AcDbEntity
  8
VERMASSUNG
100
AcDbLine
 10
164.7955953177
 20
51.4628592143
 30
0.0
 11
268.7955953177
 21
51.4628592143
 31
0.0
  0
MTEXT
  5
16D
330
165
100
AcDbEntity
  8
VERMASSUNG
100
AcDbMText
 10
213.8955951217
 20
54.0409945775
 30
7.1
 40
2.0
 41
0.0
 71
     1
 72
     1
  1
104
  7
SLDTEXTSTYLE0
 73
     1
 44
1.0
  0
ENDBLK
  5
167
330
165
100
AcDbEntity
  8
0
100
AcDbBlockEnd
  0
BLOCK
  5
170
330
16F
100
AcDbEntity
  8
0
100
AcDbBlockBegin
  2
_D_2
 70
     0
 10
0.0
 20
0.0
 30
0.0
  3
_D_2
  1

  0
SOLID
  5
172
330
16F
100
AcDbEntity
  8
VERMASSUNG
100
AcDbTrace
 10
154.7955953177
 20
117.4628592143
 30
0.0
 11
154.3455953177
 21
114.4628592143
 31
0.0
 12
155.2455953177
 22
114.4628592143
 32
0.0
 13
155.2455953177
 23
114.4628592143
 33
0.0
  0
SOLID
  5
173
330
16F
100
AcDbEntity
  8
VERMASSUNG
100
AcDbTrace
 10
154.7955953177
 20
77.4628592143
 30
0.0
 11
155.2455953177
 21
80.4628592143
 31
0.0
 12
154.3455953177
 22
80.4628592143
 32
0.0
 13
154.3455953177
 23
80.4628592143
 33
0.0
  0
LINE
  5
174
330
16F
100
AcDbEntity
  8
VERMASSUNG
100
AcDbLine
 10
189.0955953177
 20
117.4628592143
 30
0.0
 11
153.7955953177
 21
117.4628592143
 31
0.0
  0
LINE
  5
175
330
16F
100
AcDbEntity
  8
VERMASSUNG
100
AcDbLine
 10
189.0955953177
 20
77.4628592143
 30
0.0
 11
153.7955953177
 21
77.4628592143
 31
0.0
  0
LINE
  5
176
330
16F
100
AcDbEntity
  8
VERMASSUNG
100
AcDbLine
 10
154.7955953177
 20
117.4628592143
 30
0.0
 11
154.7955953177
 21
77.4628592143
 31
0.0
  0
MTEXT
  5
177
330
16F
100
AcDbEntity
  8
VERMASSUNG
100
AcDbMText
 10
152.0174598286
 20
90.957859275
 30
7.1
 40
2.0
 41
0.0
 71
     1
 72
     1
  1
PSC
  7
SLDTEXTSTYLE0
 11
-7.044195017643634E-15
 21
1.0
 31
0.0
 73
     1
 44
1.0
  0
MTEXT
  5
178
330
16F
100
AcDbEntity
  8
VERMASSUNG
100
AcDbMText
 10
152.2174598381
 20
95.5578593771
 30
7.1
 40
2.0
 41
0.0
 71
     1
 72
     1
  1
%%c
  7
SLDTEXTSTYLE0
 11
-7.044195017643634E-15
 21
1.0
 31
0.0
 73
     1
 44
1.0
  0
MTEXT
  5
179
330
16F
100
AcDbEntity
  8
VERMASSUNG
100
AcDbMText
 10
152.0174598286
 20
99.167859857
 30
7.1
 40
2.0
 41
0.0
 71
     1
 72
     1
  1
40
  7
SLDTEXTSTYLE0
 11
-7.044195017643634E-15
 21
1.0
 31
0.0
 73
     1
 44
1.0
  0
ENDBLK
  5
171
330
16F
100
AcDbEntity
  8
0
100
AcDbBlockEnd
  0
BLOCK
  5
17D
330
17C
100
AcDbEntity
  8
0
100
AcDbBlockBegin
  2
_D_3
 70
     0
 10
0.0
 20
0.0
 30
0.0
  3
_D_3
  1

  0
ARC
  5
17F
330
17C
100
AcDbEntity
  8
VERMASSUNG
100
AcDbCircle
 10
268.7955953177
 20
97.4628592143
 30
0.0
 40
31.22380268320859
100
AcDbArc
 50
150.0
 51
180.0
  0
ARC
  5
180
330
17C
100
AcDbEntity
  8
VERMASSUNG
100
AcDbCircle
 10
268.7955953177
 20
97.4628592143
 30
0.0
 40
31.22380268320858
100
AcDbArc
 50
131.1836427665
 51
150.0
  0
SOLID
  5
181
330
17C
100
AcDbEntity
  8
VERMASSUNG
100
AcDbTrace
 10
241.7549889913
 20
113.0747605559
 30
0.0
 11
239.9810553303
 21
110.6139356197
 31
0.0
 12
240.7811281867
 22
110.2017664499
 32
0.0
 13
240.7811281867
 23
110.2017664499
 33
0.0
  0
SOLID
  5
182
330
17C
100
AcDbEntity
  8
VERMASSUNG
100
AcDbTrace
 10
237.5717926345
 20
97.4628592143
 30
0.0
 11
238.164901491
 21
100.4378754974
 31
0.0
 12
237.2659334876
 22
100.4809629538
 32
0.0
 13
237.2659334876
 23
100.4809629538
 33
0.0
  0
MTEXT
  5
183
330
17C
100
AcDbEntity
  8
VERMASSUNG
100
AcDbMText
 10
242.2840276046
 20
118.6316521468
 30
7.1
 40
2.0
 41
0.0
 71
     1
 72
     1
  1
30°
  7
SLDTEXTSTYLE0
 11
0.688482057652905
 21
0.7252533738563522
 31
0.0
 73
     1
 44
1.0
  0
ENDBLK
  5
17E
330
17C
100
AcDbEntity
  8
0
100
AcDbBlockEnd
  0
BLOCK
  5
1AF
330
1AE
100
AcDbEntity
  8
0
100
AcDbBlockBegin
  2
_D_4
 70
     0
 10
0.0
 20
0.0
 30
0.0
  3
_D_4
  1

  0
SOLID
  5
1B1
330
1AE
100
AcDbEntity
  8
VERMASSUNG
100
AcDbTrace
 10
111.8692728103
 20
67.4628592143
 30
0.0
 11
112.3192728103
 21
70.4628592143
 31
0.0
 12
111.4192728103
 22
70.4628592143
 32
0.0
 13
111.4192728103
 23
70.4628592143
 33
0.0
  0
SOLID
  5
1B2
330
1AE
100
AcDbEntity
  8
VERMASSUNG
100
AcDbTrace
 10
111.8692728103
 20
87.4628592143
 30
0.0
 11
111.4192728103
 21
84.4628592143
 31
0.0
 12
112.3192728103
 22
84.4628592143
 32
0.0
 13
112.3192728103
 23
84.4628592143
 33
0.0
  0
LINE
  5
1B3
330
1AE
100
AcDbEntity
  8
VERMASSUNG
100
AcDbLine
 10
96.650431883
 20
67.4628592143
 30
0.0
 11
112.8692728103
 21
67.4628592143
 31
0.0
  0
LINE
  5
1B4
330
1AE
100
AcDbEntity
  8
VERMASSUNG
100
AcDbLine
 10
94.4429187724
 20
87.4628592143
 30
0.0
 11
112.8692728103
 21
87.4628592143
 31
0.0
  0
LINE
  5
1B5
330
1AE
100
AcDbEntity
  8
VERMASSUNG
100
AcDbLine
 10
111.8692728103
 20
67.4628592143
 30
0.0
 11
111.8692728103
 21
87.4628592143
 31
0.0
  0
MTEXT
  5
1B6
330
1AE
100
AcDbEntity
  8
VERMASSUNG
100
AcDbMText
 10
109.2911374471
 20
75.1628591633
 30
-27.9
 40
2.0
 41
0.0
 71
     1
 72
     1
  1
20
  7
SLDTEXTSTYLE0
 11
-1.608122649676637E-16
 21
1.0
 31
0.0
 73
     1
 44
1.0
  0
ENDBLK
  5
1B0
330
1AE
100
AcDbEntity
  8
0
100
AcDbBlockEnd
  0
BLOCK
  5
1B9
330
1B8
100
AcDbEntity
  8
0
100
AcDbBlockBegin
  2
_D_5
 70
     0
 10
0.0
 20
0.0
 30
0.0
  3
_D_5
  1

  0
SOLID
  5
1BB
330
1B8
100
AcDbEntity
  8
VERMASSUNG
100
AcDbTrace
 10
118.7179992771
 20
67.4628592143
 30
0.0
 11
119.1679992771
 21
70.4628592143
 31
0.0
 12
118.2679992771
 22
70.4628592143
 32
0.0
 13
118.2679992771
 23
70.4628592143
 33
0.0
  0
SOLID
  5
1BC
330
1B8
100
AcDbEntity
  8
VERMASSUNG
100
AcDbTrace
 10
118.7179992771
 20
97.4628592143
 30
0.0
 11
118.2679992771
 21
94.4628592143
 31
0.0
 12
119.1679992771
 22
94.4628592143
 32
0.0
 13
119.1679992771
 23
94.4628592143
 33
0.0
  0
LINE
  5
1BD
330
1B8
100
AcDbEntity
  8
VERMASSUNG
100
AcDbLine
 10
96.650431883
 20
67.4628592143
 30
0.0
 11
119.7179992771
 21
67.4628592143
 31
0.0
  0
LINE
  5
1BE
330
1B8
100
AcDbEntity
  8
VERMASSUNG
100
AcDbLine
 10
112.6929187724
 20
97.4628592143
 30
0.0
 11
119.7179992771
 21
97.4628592143
 31
0.0
  0
LINE
  5
1BF
330
1B8
100
AcDbEntity
  8
VERMASSUNG
100
AcDbLine
 10
118.7179992771
 20
67.4628592143
 30
0.0
 11
118.7179992771
 21
97.4628592143
 31
0.0
  0
MTEXT
  5
1C0
330
1B8
100
AcDbEntity
  8
VERMASSUNG
100
AcDbMText
 10
116.139863914
 20
80.1628591633
 30
-27.9
 40
2.0
 41
0.0
 71
     1
 72
     1
  1
30
  7
SLDTEXTSTYLE0
 11
6.123233995736766E-17
 21
1.0
 31
0.0
 73
     1
 44
1.0
  0
ENDBLK
  5
1BA
330
1B8
100
AcDbEntity
  8
0
100
AcDbBlockEnd
  0
BLOCK
  5
1C3
330
1C2
100
AcDbEntity
  8
0
100
AcDbBlockBegin
  2
_D_6
 70
     0
 10
0.0
 20
0.0
 30
0.0
  3
_D_6
  1

  0
SOLID
  5
1C5
330
1C2
100
AcDbEntity
  8
VERMASSUNG
100
AcDbTrace
 10
125.3055251448
 20
67.4628592143
 30
0.0
 11
125.7555251448
 21
70.4628592143
 31
0.0
 12
124.8555251448
 22
70.4628592143
 32
0.0
 13
124.8555251448
 23
70.4628592143
 33
0.0
  0
SOLID
  5
1C6
330
1C2
100
AcDbEntity
  8
VERMASSUNG
100
AcDbTrace
 10
125.3055251448
 20
118.4628592143
 30
0.0
 11
124.8555251448
 21
115.4628592143
 31
0.0
 12
125.7555251448
 22
115.4628592143
 32
0.0
 13
125.7555251448
 23
115.4628592143
 33
0.0
  0
LINE
  5
1C7
330
1C2
100
AcDbEntity
  8
VERMASSUNG
100
AcDbLine
 10
96.650431883
 20
67.4628592143
 30
0.0
 11
126.3055251448
 21
67.4628592143
 31
0.0
  0
LINE
  5
1C8
330
1C2
100
AcDbEntity
  8
VERMASSUNG
100
AcDbLine
 10
90.1929187724
 20
118.4628592143
 30
0.0
 11
126.3055251448
 21
118.4628592143
 31
0.0
  0
LINE
  5
1C9
330
1C2
100
AcDbEntity
  8
VERMASSUNG
100
AcDbLine
 10
125.3055251448
 20
67.4628592143
 30
0.0
 11
125.3055251448
 21
118.4628592143
 31
0.0
  0
MTEXT
  5
1CA
330
1C2
100
AcDbEntity
  8
VERMASSUNG
100
AcDbMText
 10
122.7273897817
 20
90.8628590564
 30
-27.9
 40
2.0
 41
0.0
 71
     1
 72
     1
  1
51
  7
SLDTEXTSTYLE0
 11
-1.608122649676637E-16
 21
1.0
 31
0.0
 73
     1
 44
1.0
  0
ENDBLK
  5
1C4
330
1C2
100
AcDbEntity
  8
0
100
AcDbBlockEnd
  0
BLOCK
  5
1CD
330
1CC
100
AcDbEntity
  8
0
100
AcDbBlockBegin
  2
_D_7
 70
     0
 10
0.0
 20
0.0
 30
0.0
  3
_D_7
  1

  0
SOLID
  5
1CF
330
1CC
100
AcDbEntity
  8
VERMASSUNG
100
AcDbTrace
 10
70.1929187724
 20
61.2112732368
 30
0.0
 11
73.1929187724
 21
60.7612732368
 31
0.0
 12
73.1929187724
 22
61.6612732368
 32
0.0
 13
73.1929187724
 23
61.6612732368
 33
0.0
  0
SOLID
  5
1D0
330
1CC
100
AcDbEntity
  8
VERMASSUNG
100
AcDbTrace
 10
90.1929187724
 20
61.2112732368
 30
0.0
 11
87.1929187724
 21
61.6612732368
 31
0.0
 12
87.1929187724
 22
60.7612732368
 32
0.0
 13
87.1929187724
 23
60.7612732368
 33
0.0
  0
LINE
  5
1D1
330
1CC
100
AcDbEntity
  8
VERMASSUNG
100
AcDbLine
 10
90.1929187724
 20
67.4628592143
 30
0.0
 11
90.1929187724
 21
60.2112732368
 31
0.0
  0
LINE
  5
1D2
330
1CC
100
AcDbEntity
  8
VERMASSUNG
100
AcDbLine
 10
70.1929187724
 20
61.2112732368
 30
0.0
 11
90.1929187724
 21
61.2112732368
 31
0.0
  0
MTEXT
  5
1D3
330
1CC
100
AcDbEntity
  8
VERMASSUNG
100
AcDbMText
 10
77.8929187213
 20
63.7894085999
 30
-27.9
 40
2.0
 41
0.0
 71
     1
 72
     1
  1
20
  7
SLDTEXTSTYLE0
 73
     1
 44
1.0
  0
ENDBLK
  5
1CE
330
1CC
100
AcDbEntity
  8
0
100
AcDbBlockEnd
  0
BLOCK
  5
1D6
330
1D5
100
AcDbEntity
  8
0
100
AcDbBlockBegin
  2
_D_8
 70
     0
 10
0.0
 20
0.0
 30
0.0
  3
_D_8
  1

  0
SOLID
  5
1D8
330
1D5
100
AcDbEntity
  8
VERMASSUNG
100
AcDbTrace
 10
105.1929187724
 20
53.4366746705
 30
0.0
 11
102.1929187724
 21
53.8866746705
 31
0.0
 12
102.1929187724
 22
52.9866746705
 32
0.0
 13
102.1929187724
 23
52.9866746705
 33
0.0
  0
SOLID
  5
1D9
330
1D5
100
AcDbEntity
  8
VERMASSUNG
100
AcDbTrace
 10
70.1929187724
 20
53.4366746705
 30
0.0
 11
73.1929187724
 21
52.9866746705
 31
0.0
 12
73.1929187724
 22
53.8866746705
 32
0.0
 13
73.1929187724
 23
53.8866746705
 33
0.0
  0
LINE
  5
1DA
330
1D5
100
AcDbEntity
  8
VERMASSUNG
100
AcDbLine
 10
105.1929187724
 20
78.0979424833
 30
0.0
 11
105.1929187724
 21
52.4366746705
 31
0.0
  0
LINE
  5
1DB
330
1D5
100
AcDbEntity
  8
VERMASSUNG
100
AcDbLine
 10
70.1929187724
 20
54.9628592143
 30
0.0
 11
70.1929187724
 21
52.4366746705
 31
0.0
  0
LINE
  5
1DC
330
1D5
100
AcDbEntity
  8
VERMASSUNG
100
AcDbLine
 10
105.1929187724
 20
53.4366746705
 30
0.0
 11
70.1929187724
 21
53.4366746705
 31
0.0
  0
MTEXT
  5
1DD
330
1D5
100
AcDbEntity
  8
VERMASSUNG
100
AcDbMText
 10
85.3929187213
 20
56.0148100337
 30
-27.9
 40
2.0
 41
0.0
 71
     1
 72
     1
  1
35
  7
SLDTEXTSTYLE0
 73
     1
 44
1.0
  0
ENDBLK
  5
1D7
330
1D5
100
AcDbEntity
  8
0
100
AcDbBlockEnd
  0
BLOCK
  5
1E0
330
1DF
100
AcDbEntity
  8
0
100
AcDbBlockBegin
  2
_D_9
 70
     0
 10
0.0
 20
0.0
 30
0.0
  3
_D_9
  1

  0
SOLID
  5
1E2
330
1DF
100
AcDbEntity
  8
VERMASSUNG
100
AcDbTrace
 10
49.1929187724
 20
46.957842532
 30
0.0
 11
52.1929187724
 21
46.507842532
 31
0.0
 12
52.1929187724
 22
47.407842532
 32
0.0
 13
52.1929187724
 23
47.407842532
 33
0.0
  0
SOLID
  5
1E3
330
1DF
100
AcDbEntity
  8
VERMASSUNG
100
AcDbTrace
 10
105.1929187724
 20
46.957842532
 30
0.0
 11
102.1929187724
 21
47.407842532
 31
0.0
 12
102.1929187724
 22
46.507842532
 32
0.0
 13
102.1929187724
 23
46.507842532
 33
0.0
  0
LINE
  5
1E4
330
1DF
100
AcDbEntity
  8
VERMASSUNG
100
AcDbLine
 10
49.1929187724
 20
68.4628592143
 30
0.0
 11
49.1929187724
 21
45.957842532
 31
0.0
  0
LINE
  5
1E5
330
1DF
100
AcDbEntity
  8
VERMASSUNG
100
AcDbLine
 10
105.1929187724
 20
78.0979424833
 30
0.0
 11
105.1929187724
 21
45.957842532
 31
0.0
  0
LINE
  5
1E6
330
1DF
100
AcDbEntity
  8
VERMASSUNG
100
AcDbLine
 10
49.1929187724
 20
46.957842532
 30
0.0
 11
105.1929187724
 21
46.957842532
 31
0.0
  0
MTEXT
  5
1E7
330
1DF
100
AcDbEntity
  8
VERMASSUNG
100
AcDbMText
 10
74.8929187213
 20
49.5359778952
 30
-27.9
 40
2.0
 41
0.0
 71
     1
 72
     1
  1
56
  7
SLDTEXTSTYLE0
 73
     1
 44
1.0
  0
ENDBLK
  5
1E1
330
1DF
100
AcDbEntity
  8
0
100
AcDbBlockEnd
  0
BLOCK
  5
1EB
330
1EA
100
AcDbEntity
  8
0
100
AcDbBlockBegin
  2
_D_10
 70
     0
 10
0.0
 20
0.0
 30
0.0
  3
_D_10
  1

  0
SOLID
  5
1ED
330
1EA
100
AcDbEntity
  8
VERMASSUNG
100
AcDbTrace
 10
69.1929187724
 20
61.2112732368
 30
0.0
 11
66.1929187724
 21
61.6612732368
 31
0.0
 12
66.1929187724
 22
60.7612732368
 32
0.0
 13
66.1929187724
 23
60.7612732368
 33
0.0
  0
SOLID
  5
1EE
330
1EA
100
AcDbEntity
  8
VERMASSUNG
100
AcDbTrace
 10
70.1929187724
 20
61.2112732368
 30
0.0
 11
73.1929187724
 21
60.7612732368
 31
0.0
 12
73.1929187724
 22
61.6612732368
 32
0.0
 13
73.1929187724
 23
61.6612732368
 33
0.0
  0
LINE
  5
1EF
330
1EA
100
AcDbEntity
  8
VERMASSUNG
100
AcDbLine
 10
69.1929187724
 20
67.4628592143
 30
0.0
 11
69.1929187724
 21
60.2112732368
 31
0.0
  0
LINE
  5
1F0
330
1EA
100
AcDbEntity
  8
VERMASSUNG
100
AcDbLine
 10
69.1929187724
 20
61.2112732368
 30
0.0
 11
60.8982275133
 21
61.2112732368
 31
0.0
  0
LINE
  5
1F1
330
1EA
100
AcDbEntity
  8
VERMASSUNG
100
AcDbLine
 10
69.1929187724
 20
61.2112732368
 30
0.0
 11
70.1929187724
 21
61.2112732368
 31
0.0
  0
LINE
  5
1F2
330
1EA
100
AcDbEntity
  8
VERMASSUNG
100
AcDbLine
 10
70.1929187724
 20
61.2112732368
 30
0.0
 11
76.1929187724
 21
61.2112732368
 31
0.0
  0
MTEXT
  5
1F3
330
1EA
100
AcDbEntity
  8
VERMASSUNG
100
AcDbMText
 10
60.8982275133
 20
63.7894085999
 30
-27.9
 40
2.0
 41
0.0
 71
     1
 72
     1
  1
1
  7
SLDTEXTSTYLE0
 73
     1
 44
1.0
  0
ENDBLK
  5
1EC
330
1EA
100
AcDbEntity
  8
0
100
AcDbBlockEnd
  0
BLOCK
  5
1F7
330
1F6
100
AcDbEntity
  8
0
100
AcDbBlockBegin
  2
_D_11
 70
     0
 10
0.0
 20
0.0
 30
0.0
  3
_D_11
  1

  0
SOLID
  5
1F9
330
1F6
100
AcDbEntity
  8
VERMASSUNG
100
AcDbTrace
 10
100.4624248905
 20
71.3141116465
 30
0.0
 11
102.4384644392
 21
69.0124236351
 31
0.0
 12
103.0268112595
 22
69.6934875227
 32
0.0
 13
103.0268112595
 23
69.6934875227
 33
0.0
  0
LINE
  5
1FA
330
1F6
100
AcDbEntity
  8
VERMASSUNG
100
AcDbLine
 10
100.4624248905
 20
71.3141116465
 30
0.0
 11
112.697818861
 21
60.7443908496
 31
0.0
  0
LINE
  5
1FB
330
1F6
100
AcDbEntity
  8
VERMASSUNG
100
AcDbLine
 10
100.4624248905
 20
71.3141116465
 30
0.0
 11
70.1929187724
 21
97.4628592143
 31
0.0
  0
MTEXT
  5
1FC
330
1F6
100
AcDbEntity
  8
VERMASSUNG
100
AcDbMText
 10
109.5392756464
 20
66.878239845
 30
-27.9
 40
2.0
 41
0.0
 71
     1
 72
     1
  1
R40
  7
SLDTEXTSTYLE0
 11
0.7567376529520499
 21
-0.653718689196372
 31
0.0
 73
     1
 44
1.0
  0
ENDBLK
  5
1F8
330
1F6
100
AcDbEntity
  8
0
100
AcDbBlockEnd
  0
BLOCK
  5
1FE
330
1FD
100
AcDbEntity
  8
0
100
AcDbBlockBegin
  2
SW_CENTERMARKSYMBOL_0
 70
     0
 10
0.0
 20
0.0
 30
0.0
  3
SW_CENTERMARKSYMBOL_0
  1

  0
LINE
  5
200
330
1FD
100
AcDbEntity
  8
VERMASSUNG
 62
     0
100
AcDbLine
 10
0.0
 20
0.0
 30
0.0
 11
0.0
 21
2.5
 31
0.0
  0
LINE
  5
201
330
1FD
100
AcDbEntity
  8
VERMASSUNG
 62
     0
100
AcDbLine
 10
0.0
 20
0.0
 30
0.0
 11
-2.5
 21
0.0
 31
0.0
  0
LINE
  5
202
330
1FD
100
AcDbEntity
  8
VERMASSUNG
 62
     0
100
AcDbLine
 10
0.0
 20
0.0
 30
0.0
 11
0.0
 21
-2.5
 31
0.0
  0
LINE
  5
203
330
1FD
100
AcDbEntity
  8
VERMASSUNG
 62
     0
100
AcDbLine
 10
0.0
 20
0.0
 30
0.0
 11
2.5
 21
0.0
 31
0.0
  0
LINE
  5
204
330
1FD
100
AcDbEntity
  8
VERMASSUNG
 62
     0
100
AcDbLine
 10
0.0
 20
5.0
 30
0.0
 11
0.0
 21
42.5
 31
0.0
  0
LINE
  5
205
330
1FD
100
AcDbEntity
  8
VERMASSUNG
 62
     0
100
AcDbLine
 10
-5.0
 20
0.0
 30
0.0
 11
-42.5
 21
0.0
 31
0.0
  0
LINE
  5
206
330
1FD
100
AcDbEntity
  8
VERMASSUNG
 62
     0
100
AcDbLine
 10
0.0
 20
-5.0
 30
0.0
 11
0.0
 21
-42.5
 31
0.0
  0
LINE
  5
207
330
1FD
100
AcDbEntity
  8
VERMASSUNG
 62
     0
100
AcDbLine
 10
5.0
 20
0.0
 30
0.0
 11
42.5
 21
0.0
 31
0.0
  0
ENDBLK
  5
1FF
330
1FD
100
AcDbEntity
  8
0
100
AcDbBlockEnd
  0
BLOCK
  5
27C
330
27B
100
AcDbEntity
  8
0
100
AcDbBlockBegin
  2
_D_12
 70
     0
 10
0.0
 20
0.0
 30
0.0
  3
_D_12
  1

  0
SOLID
  5
27E
330
27B
100
AcDbEntity
  8
VERMASSUNG
100
AcDbTrace
 10
213.7955953177
 20
201.0583224893
 30
0.0
 11
216.7955953177
 21
200.6083224893
 31
0.0
 12
216.7955953177
 22
201.5083224893
 32
0.0
 13
216.7955953177
 23
201.5083224893
 33
0.0
  0
SOLID
  5
27F
330
27B
100
AcDbEntity
  8
VERMASSUNG
100
AcDbTrace
 10
268.7955953177
 20
201.0583224893
 30
0.0
 11
265.7955953177
 21
201.5083224893
 31
0.0
 12
265.7955953177
 22
200.6083224893
 32
0.0
 13
265.7955953177
 23
200.6083224893
 33
0.0
  0
LINE
  5
280
330
27B
100
AcDbEntity
  8
VERMASSUNG
100
AcDbLine
 10
213.7955953177
 20
172.909870251
 30
0.0
 11
213.7955953177
 21
202.0583224893
 31
0.0
  0
LINE
  5
281
330
27B
100
AcDbEntity
  8
VERMASSUNG
100
AcDbLine
 10
268.7955953177
 20
151.909870251
 30
0.0
 11
268.7955953177
 21
202.0583224893
 31
0.0
  0
LINE
  5
282
330
27B
100
AcDbEntity
  8
VERMASSUNG
100
AcDbLine
 10
213.7955953177
 20
201.0583224893
 30
0.0
 11
268.7955953177
 21
201.0583224893
 31
0.0
  0
MTEXT
  5
283
330
27B
100
AcDbEntity
  8
VERMASSUNG
100
AcDbMText
 10
238.9955952666
 20
203.6364578524
 30
-4.4
 40
2.0
 41
0.0
 71
     1
 72
     1
  1
55
  7
SLDTEXTSTYLE0
 73
     1
 44
1.0
  0
ENDBLK
  5
27D
330
27B
100
AcDbEntity
  8
0
100
AcDbBlockEnd
  0
ENDSEC
  0
SECTION
  2
ENTITIES
  0
MTEXT
  5
49
330
1F
100
AcDbEntity
  8
KOPF_DÜNN
100
AcDbMText
 10
13.8892156294
 20
23.8442973028
 30
0.0
 40
3.0
 41
0.0
 71
     1
 72
     1
  1
PS4.V20.L11.080
  7
SLDTEXTSTYLE0
 73
     1
 44
1.0
  0
MTEXT
  5
4A
330
1F
100
AcDbEntity
  8
VERMASSUNG
100
AcDbMText
 10
13.9329988022
 20
28.8834360957
 30
0.0
 40
3.0
 41
0.0
 71
     1
 72
     1
  1
Werkzeughalter axial links_Tool holder axial left
  7
SLDTEXTSTYLE0
 73
     1
 44
1.0
  0
MTEXT
  5
4B
330
1F
100
AcDbEntity
  8
VERMASSUNG
100
AcDbMText
 10
98.8601118557
 20
13.8365368179
 30
0.0
 40
2.0
 41
0.0
 71
     1
 72
     1
  1
Datum: 08.05.2012
  7
SLDTEXTSTYLE0
 73
     1
 44
1.0
  0
MTEXT
  5
4C
330
1F
100
AcDbEntity
  8
VERMASSUNG
100
AcDbMText
 10
13.933048693
 20
18.0482802738
 30
0.0
 40
2.0
 41
0.0
 71
     1
 72
     1
  1
PSC ø40 / 20x20
  7
SLDTEXTSTYLE0
 73
     1
 44
1.0
  0
MTEXT
  5
4D
330
1F
100
AcDbEntity
  8
VERMASSUNG
100
AcDbMText
 10
13.9808475933
 20
13.9090973692
 30
0.0
 40
2.0
 41
0.0
 71
     1
 72
     1
  1
Gewicht: 1067g
  7
SLDTEXTSTYLE0
 73
     1
 44
1.0
  0
LINE
  5
4E
330
1F
100
AcDbEntity
  8
0
  6
Continuous
 62
     7
370
    15
100
AcDbLine
 10
209.7994151552
 20
118.4628592143
 30
0.0
 11
209.7917900158
 21
118.3757034716
 31
0.0
  0
LINE
  5
4F
330
1F
100
AcDbEntity
  8
0
  6
Continuous
 62
     7
370
    15
100
AcDbLine
 10
209.7917900158
 20
76.5500149571
 30
0.0
 11
210.5868131269
 21
67.4628592143
 31
0.0
  0
ARC
  5
50
330
1F
100
AcDbEntity
  8
0
  6
Continuous
 62
     7
370
    15
100
AcDbCircle
 10
208.7955953177
 20
76.4628592143
 30
0.0
 40
1.000000000000009
100
AcDbArc
 50
5.0
 51
90.0
  0
ARC
  5
51
330
1F
100
AcDbEntity
  8
0
  6
Continuous
 62
     7
370
    15
100
AcDbCircle
 10
208.7955953177
 20
118.4628592143
 30
0.0
 40
1.000000000000009
100
AcDbArc
 50
270.0
 51
355.0
  0
LINE
  5
52
330
1F
100
AcDbEntity
  8
0
  6
Continuous
 62
     7
370
    15
100
AcDbLine
 10
189.0955953177
 20
77.4628592143
 30
0.0
 11
208.7955953177
 21
77.4628592143
 31
0.0
  0
LINE
  5
53
330
1F
100
AcDbEntity
  8
0
  6
Continuous
 62
     7
370
    15
100
AcDbLine
 10
208.7955953177
 20
117.4628592143
 30
0.0
 11
189.0955953177
 21
117.4628592143
 31
0.0
  0
ARC
  5
54
330
1F
100
AcDbEntity
  8
0
  6
Continuous
 62
     7
370
    15
100
AcDbCircle
 10
189.0955953177
 20
77.7628592143
 30
0.0
 40
0.3000000000000114
100
AcDbArc
 50
180.0
 51
270.0
  0
ARC
  5
55
330
1F
100
AcDbEntity
  8
0
  6
Continuous
 62
     7
370
    15
100
AcDbCircle
 10
189.0955953177
 20
117.1628592143
 30
0.0
 40
0.3000000000000114
100
AcDbArc
 50
90.0
 51
180.0
  0
LWPOLYLINE
  5
56
330
1F
100
AcDbEntity
  8
0
  6
Continuous
 62
     7
370
    15
100
AcDbPolyline
 90
        3
 70
   128
 43
0.0
 10
188.5955953177
 20
83.3730389355
 10
188.7210502612
 20
83.3047368205
 10
188.7955953177
 20
83.2519990624
  0
LWPOLYLINE
  5
57
330
1F
100
AcDbEntity
  8
0
  6
Continuous
 62
     7
370
    15
100
AcDbPolyline
 90
        3
 70
   128
 43
0.0
 10
188.7955953177
 20
111.6737193663
 10
188.7210502612
 20
111.6209816082
 10
188.5955953177
 20
111.5526794932
  0
ARC
  5
58
330
1F
100
AcDbEntity
  8
0
  6
Continuous
 62
     7
370
    15
100
AcDbCircle
 10
256.7955953177
 20
92.4628592143
 30
0.0
 40
5.000000000000093
100
AcDbArc
 50
44.7464248226
 51
66.4218215218
  0
ARC
  5
59
330
1F
100
AcDbEntity
  8
0
  6
Continuous
 62
     7
370
    15
100
AcDbCircle
 10
256.7955953177
 20
92.4628592143
 30
0.0
 40
5.000000000000131
100
AcDbArc
 50
293.5781784782
 51
324.396505774
  0
LINE
  5
5A
330
1F
100
AcDbEntity
  8
0
  6
Continuous
 62
     7
370
    15
100
AcDbLine
 10
251.475087242
 20
107.4628592143
 30
0.0
 11
258.7955953177
 21
103.2363619062
 31
0.0
  0
LINE
  5
5B
330
1F
100
AcDbEntity
  8
0
  6
Continuous
 62
     7
370
    15
100
AcDbLine
 10
257.7955953177
 20
102.6590116371
 30
0.0
 11
258.7955953177
 21
103.2363619062
 31
0.0
  0
LINE
  5
5C
330
1F
100
AcDbEntity
  8
0
  6
Continuous
 62
     7
370
    15
100
AcDbLine
 10
257.7955953177
 20
102.6590116371
 30
0.0
 11
251.2071380495
 21
106.4628592143
 31
0.0
  0
LINE
  5
5D
330
1F
100
AcDbEntity
  8
0
  6
Continuous
 62
     7
370
    15
100
AcDbLine
 10
251.2071380495
 20
106.4628592143
 30
0.0
 11
251.475087242
 21
107.4628592143
 31
0.0
  0
LINE
  5
5E
330
1F
100
AcDbEntity
  8
0
  6
Continuous
 62
     7
370
    15
100
AcDbLine
 10
257.7955953177
 20
68.4628592143
 30
0.0
 11
257.7955953177
 21
102.6590116371
 31
0.0
  0
LINE
  5
5F
330
1F
100
AcDbEntity
  8
0
  6
Continuous
 62
     7
370
    15
100
AcDbLine
 10
258.7955953177
 20
103.2363619062
 30
0.0
 11
258.7955953177
 21
68.4628592143
 31
0.0
  0
LINE
  5
60
330
1F
100
AcDbEntity
  8
0
  6
Continuous
 62
     7
370
    15
100
AcDbLine
 10
257.7955953177
 20
68.4628592143
 30
0.0
 11
258.7955953177
 21
68.4628592143
 31
0.0
  0
LINE
  5
61
330
1F
100
AcDbEntity
  8
0
  6
Continuous
 62
     7
370
    15
100
AcDbLine
 10
211.0946872316
 20
68.4628592143
 30
0.0
 11
257.7955953177
 21
68.4628592143
 31
0.0
  0
SPLINE
  5
62
330
1F
100
AcDbEntity
  8
0
  6
Continuous
 62
     7
370
    15
100
AcDbSpline
210
0.0
220
0.0
230
1.0
 70
     8
 71
     3
 72
    14
 73
    10
 74
     0
 42
0.00000001
 43
0.00000001
 12
1.0
 22
0.0
 32
0.0
 13
1.0
 23
0.0
 33
0.0
 40
0.0
 40
0.0
 40
0.0
 40
0.0
 40
0.2499999999999999
 40
0.2499999999999999
 40
0.4999999999999999
 40
0.4999999999999999
 40
0.7499999999999999
 40
0.7499999999999999
 40
1.0
 40
1.0
 40
1.0
 40
1.0
 10
209.9610346534112
 20
106.4628592143449
 30
0.0
 10
209.8518458453205
 20
103.2946118300342
 30
0.0
 10
209.7932295756156
 20
100.1227725289509
 30
0.0
 10
209.8066822847292
 20
93.78384075807159
 30
0.0
 10
209.8783545042337
 20
90.61591514658751
 30
0.0
 10
210.1168550694741
 20
84.28232067242185
 30
0.0
 10
210.2815760005365
 20
81.11617148311674
 30
0.0
 10
210.6584670446943
 20
74.78719435555185
 30
0.0
 10
210.870646534768
 20
71.62456276711862
 30
0.0
 10
211.0946872316426
 20
68.46285921434495
 30
0.0
  0
LINE
  5
63
330
1F
100
AcDbEntity
  8
0
  6
Continuous
 62
     7
370
    15
100
AcDbLine
 10
209.9610346534
 20
106.4628592143
 30
0.0
 11
251.2071380495
 21
106.4628592143
 31
0.0
  0
CIRCLE
  5
64
330
1F
100
AcDbEntity
  8
0
  6
Continuous
 62
     7
370
    15
100
AcDbCircle
 10
230.7955953177
 20
77.4628592143
 30
0.0
 40
5.5
  0
CIRCLE
  5
65
330
1F
100
AcDbEntity
  8
0
  6
Continuous
 62
     7
370
    15
100
AcDbCircle
 10
250.7955953177
 20
77.4628592143
 30
0.0
 40
5.500000000000014
  0
SPLINE
  5
66
330
1F
100
AcDbEntity
  8
0
  6
Continuous
 62
     7
370
    15
100
AcDbSpline
210
0.0
220
0.0
230
1.0
 70
    24
 71
     3
 72
     9
 73
     5
 74
     0
 42
0.00000001
 43
0.00000001
 12
1.0
 22
0.0
 32
0.0
 13
1.0
 23
0.0
 33
0.0
 40
0.0
 40
0.0
 40
0.0
 40
0.0
 40
0.7044789810461736
 40
1.0
 40
1.0
 40
1.0
 40
1.0
 10
209.9610346534112
 20
118.4628592143449
 30
0.0
 10
209.8932321106386
 20
118.4628592143449
 30
0.0
 10
209.7969871628165
 20
118.4628592143449
 30
0.0
 10
209.8145279636497
 20
118.4628592143449
 30
0.0
 10
209.8197116389852
 20
118.4628592143449
 30
0.0
  0
SPLINE
  5
67
330
1F
100
AcDbEntity
  8
0
  6
Continuous
 62
     7
370
    15
100
AcDbSpline
210
0.0
220
0.0
230
1.0
 70
     8
 71
     3
 72
     9
 73
     5
 74
     0
 42
0.00000001
 43
0.00000001
 12
1.0
 22
0.0
 32
0.0
 13
1.0
 23
0.0
 33
0.0
 40
0.0
 40
0.0
 40
0.0
 40
0.0
 40
0.4999999999999999
 40
1.0
 40
1.0
 40
1.0
 40
1.0
 10
209.9610346534112
 20
106.4628592143449
 30
0.0
 10
209.8691320588252
 20
108.4628592143449
 30
0.0
 10
209.7670040188727
 20
112.4628592143449
 30
0.0
 10
209.8691320588252
 20
116.4628592143449
 30
0.0
 10
209.9610346534112
 20
118.4628592143449
 30
0.0
  0
SPLINE
  5
68
330
1F
100
AcDbEntity
  8
0
  6
Continuous
 62
     7
370
    15
100
AcDbSpline
210
0.0
220
0.0
230
1.0
 70
     8
 71
     3
 72
     8
 73
     4
 74
     0
 42
0.00000001
 43
0.00000001
 12
1.0
 22
0.0
 32
0.0
 13
1.0
 23
0.0
 33
0.0
 40
0.0
 40
0.0
 40
0.0
 40
0.0
 40
0.0014143833462928
 40
0.0014143833462928
 40
0.0014143833462928
 40
0.0014143833462928
 10
211.1166018448104
 20
67.46285921434493
 30
0.0
 10
211.1085137344203
 20
67.79618350526421
 30
0.0
 10
211.1012033228477
 20
68.12951770483947
 30
0.0
 10
211.0946872316426
 20
68.46285921434495
 30
0.0
  0
SPLINE
  5
69
330
1F
100
AcDbEntity
  8
0
  6
Continuous
 62
     7
370
    15
100
AcDbSpline
210
0.0
220
0.0
230
1.0
 70
    24
 71
     3
 72
    10
 73
     6
 74
     0
 42
0.00000001
 43
0.00000001
 12
1.0
 22
0.0
 32
0.0
 13
1.0
 23
0.0
 33
0.0
 40
0.0
 40
0.0
 40
0.0
 40
0.0
 40
0.1795662628620024
 40
0.6579920684317111
 40
1.0
 40
1.0
 40
1.0
 40
1.0
 10
210.6178723473804
 20
67.46285921434495
 30
0.0
 10
210.6098963714572
 20
67.46285921434493
 30
0.0
 10
210.5806696736812
 20
67.46285921434495
 30
0.0
 10
210.7734848731038
 20
67.46285921434493
 30
0.0
 10
211.0156516389304
 20
67.46285921434493
 30
0.0
 10
211.1166018448104
 20
67.46285921434493
 30
0.0
  0
LINE
  5
6A
330
1F
100
AcDbEntity
  8
0
  6
Continuous
 62
     7
370
    15
100
AcDbLine
 10
209.9610346534
 20
118.4628592143
 30
0.0
 11
232.4225283587
 21
118.4628592143
 31
0.0
  0
LINE
  5
6B
330
1F
100
AcDbEntity
  8
0
  6
Continuous
 62
     7
370
    15
100
AcDbLine
 10
232.4225283587
 20
118.4628592143
 30
0.0
 11
251.475087242
 21
107.4628592143
 31
0.0
  0
LINE
  5
6C
330
1F
100
AcDbEntity
  8
0
  6
Continuous
 62
     7
370
    15
100
AcDbLine
 10
257.7955953177
 20
68.4628592143
 30
0.0
 11
257.7955953177
 21
67.4628592143
 31
0.0
  0
LINE
  5
6D
330
1F
100
AcDbEntity
  8
0
  6
Continuous
 62
     7
370
    15
100
AcDbLine
 10
257.7955953177
 20
67.4628592143
 30
0.0
 11
211.1166018448
 21
67.4628592143
 31
0.0
  0
LINE
  5
6E
330
1F
100
AcDbEntity
  8
0
  6
Continuous
 62
     7
370
    15
100
AcDbLine
 10
257.7955953177
 20
67.4628592143
 30
0.0
 11
258.7955953177
 21
68.4628592143
 31
0.0
  0
SPLINE
  5
6F
330
1F
100
AcDbEntity
  8
0
  6
Continuous
 62
     7
370
    15
100
AcDbSpline
210
0.0
220
0.0
230
1.0
 70
     8
 71
     3
 72
    12
 73
     8
 74
     0
 42
0.00000001
 43
0.00000001
 12
1.0
 22
0.0
 32
0.0
 13
1.0
 23
0.0
 33
0.0
 40
0.0
 40
0.0
 40
0.0
 40
0.0
 40
0.2500000000000027
 40
0.2500000000000027
 40
0.5000000000000053
 40
0.5000000000000053
 40
1.0
 40
1.0
 40
1.0
 40
1.0
 10
195.7274973196654
 20
103.2920722099964
 30
0.0
 10
195.6899854336207
 20
103.2920722099964
 30
0.0
 10
195.6546980859159
 20
103.3068770242832
 30
0.0
 10
195.5957682376775
 20
103.350468897409
 30
0.0
 10
195.5722425112085
 20
103.3779823234951
 30
0.0
 10
195.5119837234404
 20
103.4671140556087
 30
0.0
 10
195.4863889611511
 20
103.5334999062265
 30
0.0
 10
195.46768969853
 20
103.6011043414039
 30
0.0
  0
LINE
  5
70
330
1F
100
AcDbEntity
  8
0
  6
Continuous
 62
     7
370
    15
100
AcDbLine
 10
197.8636933157
 20
103.29207221
 30
0.0
 11
195.7274973197
 21
103.29207221
 31
0.0
  0
SPLINE
  5
71
330
1F
100
AcDbEntity
  8
0
  6
Continuous
 62
     7
370
    15
100
AcDbSpline
210
0.0
220
0.0
230
1.0
 70
     8
 71
     3
 72
    12
 73
     8
 74
     0
 42
0.00000001
 43
0.00000001
 12
1.0
 22
0.0
 32
0.0
 13
1.0
 23
0.0
 33
0.0
 40
0.0
 40
0.0
 40
0.0
 40
0.0
 40
0.5000000000000061
 40
0.5000000000000061
 40
0.750000000000003
 40
0.750000000000003
 40
1.0
 40
1.0
 40
1.0
 40
1.0
 10
198.1235009368023
 20
103.6011043414039
 30
0.0
 10
198.1048077036719
 20
103.5335217049635
 30
0.0
 10
198.0791524062601
 20
103.467039135486
 30
0.0
 10
198.0189917835736
 20
103.3780440525885
 30
0.0
 10
197.9949194718193
 20
103.3500421555893
 30
0.0
 10
197.9365379514687
 20
103.3069657549242
 30
0.0
 10
197.9010691238157
 20
103.2920722099964
 30
0.0
 10
197.8636933156669
 20
103.2920722099964
 30
0.0
  0
ELLIPSE
  5
72
330
1F
100
AcDbEntity
  8
0
  6
Continuous
 62
     7
370
    15
100
AcDbEllipse
 10
187.8466661452
 20
97.4628592143
 30
0.0
 11
9.367417879781694
 21
19.74174915274993
 31
0.0
210
0.0
220
0.0
230
1.0
 40
0.3419987131
 41
5.185211263708394
 42
6.132113578252552
  0
SPLINE
  5
73
330
1F
100
AcDbEntity
  8
0
  6
Continuous
 62
     7
370
    15
100
AcDbSpline
210
0.0
220
0.0
230
1.0
 70
     8
 71
     3
 72
    12
 73
     8
 74
     0
 42
0.00000001
 43
0.00000001
 12
1.0
 22
0.0
 32
0.0
 13
1.0
 23
0.0
 33
0.0
 40
0.0
 40
0.0
 40
0.0
 40
0.0
 40
0.249999999999999
 40
0.249999999999999
 40
0.499999999999998
 40
0.499999999999998
 40
1.0
 40
1.0
 40
1.0
 40
1.0
 10
197.8636933156669
 20
116.5945155945782
 30
0.0
 10
197.9012052017116
 20
116.5945155945782
 30
0.0
 10
197.9364925494163
 20
116.5900120503157
 30
0.0
 10
197.9954223976548
 20
116.5766388508624
 30
0.0
 10
198.0189481241238
 20
116.5681539482913
 30
0.0
 10
198.0792069118919
 20
116.5404061444567
 30
0.0
 10
198.1048016741813
 20
116.5194162807163
 30
0.0
 10
198.1235009368023
 20
116.4976154975268
 30
0.0
  0
LINE
  5
74
330
1F
100
AcDbEntity
  8
0
  6
Continuous
 62
     7
370
    15
100
AcDbLine
 10
195.7274973197
 20
116.5945155946
 30
0.0
 11
197.8636933157
 21
116.5945155946
 31
0.0
  0
SPLINE
  5
75
330
1F
100
AcDbEntity
  8
0
  6
Continuous
 62
     7
370
    15
100
AcDbSpline
210
0.0
220
0.0
230
1.0
 70
     8
 71
     3
 72
    12
 73
     8
 74
     0
 42
0.00000001
 43
0.00000001
 12
1.0
 22
0.0
 32
0.0
 13
1.0
 23
0.0
 33
0.0
 40
0.0
 40
0.0
 40
0.0
 40
0.0
 40
0.4999999999999956
 40
0.4999999999999956
 40
0.7499999999999978
 40
0.7499999999999978
 40
1.0
 40
1.0
 40
1.0
 40
1.0
 10
195.46768969853
 20
116.4976154975268
 30
0.0
 10
195.4863829316604
 20
116.5194092511548
 30
0.0
 10
195.5120382290722
 20
116.5404294128644
 30
0.0
 10
195.5721988517587
 20
116.5681347588281
 30
0.0
 10
195.596271163513
 20
116.5767699750215
 30
0.0
 10
195.6546526838636
 20
116.5899846202481
 30
0.0
 10
195.6901215115166
 20
116.5945155945782
 30
0.0
 10
195.7274973196654
 20
116.5945155945782
 30
0.0
  0
ELLIPSE
  5
76
330
1F
100
AcDbEntity
  8
0
  6
Continuous
 62
     7
370
    15
100
AcDbEllipse
 10
205.7445244901
 20
97.4628592143
 30
0.0
 11
-9.367417879781613
 21
19.74174915274993
 31
0.0
210
0.0
220
0.0
230
1.0
 40
0.3419987131
 41
0.1510717289270697
 42
1.097974043471206
  0
SPLINE
  5
77
330
1F
100
AcDbEntity
  8
0
  6
Continuous
 62
     7
370
    15
100
AcDbSpline
210
0.0
220
0.0
230
1.0
 70
     8
 71
     3
 72
    12
 73
     8
 74
     0
 42
0.00000001
 43
0.00000001
 12
1.0
 22
0.0
 32
0.0
 13
1.0
 23
0.0
 33
0.0
 40
0.0
 40
0.0
 40
0.0
 40
0.0
 40
0.2499999999999996
 40
0.2499999999999996
 40
0.4999999999999992
 40
0.4999999999999992
 40
1.0
 40
1.0
 40
1.0
 40
1.0
 10
195.7274973196654
 20
78.33120283411155
 30
0.0
 10
195.6899964967876
 20
78.33120283411154
 30
0.0
 10
195.6547180927516
 20
78.33570380197469
 30
0.0
 10
195.5958003726992
 20
78.349070323192
 30
0.0
 10
195.5722769913008
 20
78.35755158343686
 30
0.0
 10
195.5120214068349
 20
78.38528897911476
 30
0.0
 10
195.4864997544238
 20
78.40617297816782
 30
0.0
 10
195.46768969853
 20
78.42810293116298
 30
0.0
  0
LINE
  5
78
330
1F
100
AcDbEntity
  8
0
  6
Continuous
 62
     7
370
    15
100
AcDbLine
 10
197.8636933157
 20
78.3312028341
 30
0.0
 11
195.7274973197
 21
78.3312028341
 31
0.0
  0
SPLINE
  5
79
330
1F
100
AcDbEntity
  8
0
  6
Continuous
 62
     7
370
    15
100
AcDbSpline
210
0.0
220
0.0
230
1.0
 70
     8
 71
     3
 72
    12
 73
     8
 74
     0
 42
0.00000001
 43
0.00000001
 12
1.0
 22
0.0
 32
0.0
 13
1.0
 23
0.0
 33
0.0
 40
0.0
 40
0.0
 40
0.0
 40
0.0
 40
0.5000000000000032
 40
0.5000000000000032
 40
0.7500000000000016
 40
0.7500000000000016
 40
1.0
 40
1.0
 40
1.0
 40
1.0
 10
198.1235009368023
 20
78.42810293116298
 30
0.0
 10
198.1046977039506
 20
78.40618093290192
 30
0.0
 10
198.0791610449314
 20
78.38528712489196
 30
0.0
 10
198.0189348709829
 20
78.3575603987742
 30
0.0
 10
197.995008793583
 20
78.34898726539873
 30
0.0
 10
197.9369478734017
 20
78.33580815959121
 30
0.0
 10
197.9011461747757
 20
78.33120283411154
 30
0.0
 10
197.8636933156669
 20
78.33120283411154
 30
0.0
  0
ELLIPSE
  5
7A
330
1F
100
AcDbEntity
  8
0
  6
Continuous
 62
     7
370
    15
100
AcDbEllipse
 10
187.8466661452
 20
97.4628592143
 30
0.0
 11
-9.367417879781812
 21
19.74174915274993
 31
0.0
210
0.0
220
0.0
230
1.0
 40
0.3419987131
 41
3.29266438251689
 42
4.239566697060997
  0
SPLINE
  5
7B
330
1F
100
AcDbEntity
  8
0
  6
Continuous
 62
     7
370
    15
100
AcDbSpline
210
0.0
220
0.0
230
1.0
 70
     8
 71
     3
 72
    12
 73
     8
 74
     0
 42
0.00000001
 43
0.00000001
 12
1.0
 22
0.0
 32
0.0
 13
1.0
 23
0.0
 33
0.0
 40
0.0
 40
0.0
 40
0.0
 40
0.0
 40
0.2500000000000012
 40
0.2500000000000012
 40
0.5000000000000023
 40
0.5000000000000023
 40
1.0
 40
1.0
 40
1.0
 40
1.0
 10
197.8636933156669
 20
91.63364621869316
 30
0.0
 10
197.9011941385447
 20
91.63364621869316
 30
0.0
 10
197.9364725425807
 20
91.61884988094008
 30
0.0
 10
197.9953902626331
 20
91.57527961978094
 30
0.0
 10
198.0189136440315
 20
91.5477778212794
 30
0.0
 10
198.0791692284974
 20
91.45867865803633
 30
0.0
 10
198.1046908809085
 20
91.39261907925396
 30
0.0
 10
198.1235009368023
 20
91.32461408728575
 30
0.0
  0
LINE
  5
7C
330
1F
100
AcDbEntity
  8
0
  6
Continuous
 62
     7
370
    15
100
AcDbLine
 10
195.7274973197
 20
91.6336462187
 30
0.0
 11
197.8636933157
 21
91.6336462187
 31
0.0
  0
SPLINE
  5
7D
330
1F
100
AcDbEntity
  8
0
  6
Continuous
 62
     7
370
    15
100
AcDbSpline
210
0.0
220
0.0
230
1.0
 70
     8
 71
     3
 72
    12
 73
     8
 74
     0
 42
0.00000001
 43
0.00000001
 12
1.0
 22
0.0
 32
0.0
 13
1.0
 23
0.0
 33
0.0
 40
0.0
 40
0.0
 40
0.0
 40
0.0
 40
0.5000000000000008
 40
0.5000000000000008
 40
0.7500000000000003
 40
0.7500000000000003
 40
1.0
 40
1.0
 40
1.0
 40
1.0
 10
195.46768969853
 20
91.32461408728577
 30
0.0
 10
195.4864929313817
 20
91.39259441154817
 30
0.0
 10
195.5120295904009
 20
91.45868479934498
 30
0.0
 10
195.5722557643494
 20
91.54774941179213
 30
0.0
 10
195.5961818417493
 20
91.57555049881205
 30
0.0
 10
195.6542427619306
 20
91.61850957203694
 30
0.0
 10
195.6900444605566
 20
91.63364621869317
 30
0.0
 10
195.7274973196653
 20
91.63364621869317
 30
0.0
  0
ELLIPSE
  5
7E
330
1F
100
AcDbEntity
  8
0
  6
Continuous
 62
     7
370
    15
100
AcDbEllipse
 10
205.7445244901
 20
97.4628592143
 30
0.0
 11
9.367417879781641
 21
19.74174915274993
 31
0.0
210
0.0
220
0.0
230
1.0
 40
0.3419987131
 41
2.043618610118598
 42
2.990520924662732
  0
LINE
  5
7F
330
1F
100
AcDbEntity
  8
0
  6
Continuous
 62
     7
370
    15
100
AcDbLine
 10
188.7955953177
 20
77.7628592143
 30
0.0
 11
188.7955953177
 21
117.162859213
 31
0.0
  0
SPLINE
  5
80
330
1F
100
AcDbEntity
  8
0
  6
Continuous
 62
     7
370
    15
100
AcDbSpline
210
0.0
220
0.0
230
1.0
 70
     8
 71
     3
 72
    18
 73
    14
 74
     0
 42
0.00000001
 43
0.00000001
 12
1.0
 22
0.0
 32
0.0
 13
1.0
 23
0.0
 33
0.0
 40
0.0
 40
0.0
 40
0.0
 40
0.0
 40
0.25
 40
0.25
 40
0.5
 40
0.5
 40
0.625
 40
0.625
 40
0.75
 40
0.75
 40
0.875
 40
0.875
 40
1.0
 40
1.0
 40
1.0
 40
1.0
 10
187.5395110001021
 20
83.63167083166604
 30
0.0
 10
187.573807819554
 20
83.6308091761842
 30
0.0
 10
187.6116190995311
 20
83.63106077927915
 30
0.0
 10
187.6981914667111
 20
83.633459291891
 30
0.0
 10
187.746530596794
 20
83.63563027662292
 30
0.0
 10
187.8358029541164
 20
83.63972515491814
 30
0.0
 10
187.8683444198924
 20
83.64122977286776
 30
0.0
 10
187.9445206197458
 20
83.64419283083588
 30
0.0
 10
187.9877366797404
 20
83.64568016909166
 30
0.0
 10
188.0934259817063
 20
83.64730558041536
 30
0.0
 10
188.1583970404209
 20
83.64726333934145
 30
0.0
 10
188.2920574287787
 20
83.64324116602045
 30
0.0
 10
188.3513638821149
 20
83.63969993919694
 30
0.0
 10
188.4006184287909
 20
83.63613323176084
 30
0.0
  0
SPLINE
  5
81
330
1F
100
AcDbEntity
  8
0
  6
Continuous
 62
     7
370
    15
100
AcDbSpline
210
0.0
220
0.0
230
1.0
 70
     8
 71
     3
 72
    14
 73
    10
 74
     0
 42
0.00000001
 43
0.00000001
 12
1.0
 22
0.0
 32
0.0
 13
1.0
 23
0.0
 33
0.0
 40
0.0
 40
0.0
 40
0.0
 40
0.0
 40
0.1249999999999986
 40
0.1249999999999986
 40
0.2499999999999972
 40
0.2499999999999972
 40
0.4999999999999994
 40
0.4999999999999994
 40
1.0
 40
1.0
 40
1.0
 40
1.0
 10
188.4006184287601
 20
83.6361332317798
 30
0.0
 10
188.4121452064774
 20
83.63529853434578
 30
0.0
 10
188.4254980141299
 20
83.63355812006562
 30
0.0
 10
188.4556405867301
 20
83.62631053006531
 30
0.0
 10
188.4707011123446
 20
83.62096349583736
 30
0.0
 10
188.5060474662728
 20
83.60521622560893
 30
0.0
 10
188.5197795660018
 20
83.59537795144765
 30
0.0
 10
188.5531508116929
 20
83.56917396549719
 30
0.0
 10
188.5640911795469
 20
83.55508606409659
 30
0.0
 10
188.5727443045601
 20
83.54231244060824
 30
0.0
  0
LINE
  5
82
330
1F
100
AcDbEntity
  8
0
  6
Continuous
 62
     7
370
    15
100
AcDbLine
 10
188.5955953177
 20
91.9574144474
 30
0.0
 11
188.5955953177
 21
83.3730389355
 31
0.0
  0
SPLINE
  5
83
330
1F
100
AcDbEntity
  8
0
  6
Continuous
 62
     7
370
    15
100
AcDbSpline
210
0.0
220
0.0
230
1.0
 70
     8
 71
     3
 72
    16
 73
    12
 74
     0
 42
0.00000001
 43
0.00000001
 12
1.0
 22
0.0
 32
0.0
 13
1.0
 23
0.0
 33
0.0
 40
0.0
 40
0.0
 40
0.0
 40
0.0
 40
0.5000000000000007
 40
0.5000000000000007
 40
0.7500000000000004
 40
0.7500000000000004
 40
0.8750000000000003
 40
0.8750000000000003
 40
0.9375000000000002
 40
0.9375000000000002
 40
1.0
 40
1.0
 40
1.0
 40
1.0
 10
188.5955953176662
 20
91.957414447382
 30
0.0
 10
188.5955953176662
 20
92.0749898284015
 30
0.0
 10
188.5917118925072
 20
92.19368558150272
 30
0.0
 10
188.5668965672326
 20
92.37444305949522
 30
0.0
 10
188.5560571195201
 20
92.43608713626816
 30
0.0
 10
188.5228413374712
 20
92.52542411060945
 30
0.0
 10
188.5094595938425
 20
92.55568364203458
 30
0.0
 10
188.4739499439802
 20
92.58919988602202
 30
0.0
 10
188.4585329774795
 20
92.5973382318281
 30
0.0
 10
188.4268319553309
 20
92.59732282239675
 30
0.0
 10
188.4126856703801
 20
92.59028058504087
 30
0.0
 10
188.4006184287904
 20
92.58113952143127
 30
0.0
  0
SPLINE
  5
84
330
1F
100
AcDbEntity
  8
0
  6
Continuous
 62
     7
370
    15
100
AcDbSpline
210
0.0
220
0.0
230
1.0
 70
     8
 71
     3
 72
    18
 73
    14
 74
     0
 42
0.00000001
 43
0.00000001
 12
1.0
 22
0.0
 32
0.0
 13
1.0
 23
0.0
 33
0.0
 40
0.0
 40
0.0
 40
0.0
 40
0.0
 40
0.125
 40
0.125
 40
0.25
 40
0.25
 40
0.375
 40
0.375
 40
0.5
 40
0.5
 40
0.75
 40
0.75
 40
1.0
 40
1.0
 40
1.0
 40
1.0
 10
188.4006184287966
 20
92.58113952142403
 30
0.0
 10
188.3519138451086
 20
92.54424528223346
 30
0.0
 10
188.2934053623331
 20
92.5147139778075
 30
0.0
 10
188.1616785470632
 20
92.50547800452865
 30
0.0
 10
188.0969204755658
 20
92.52854117908564
 30
0.0
 10
187.991709873415
 20
92.59605930073307
 30
0.0
 10
187.9484937248949
 20
92.63907039738362
 30
0.0
 10
187.872315408811
 20
92.72931241937974
 30
0.0
 10
187.8394605765198
 20
92.77694330085502
 30
0.0
 10
187.7490926705588
 20
92.92400760020456
 30
0.0
 10
187.6996700127192
 20
93.02792092550914
 30
0.0
 10
187.6120188871276
 20
93.23905488914947
 30
0.0
 10
187.5739573397371
 20
93.34677763390826
 30
0.0
 10
187.5395110001031
 20
93.45611074981767
 30
0.0
  0
SPLINE
  5
85
330
1F
100
AcDbEntity
  8
0
  6
Continuous
 62
     7
370
    15
100
AcDbSpline
210
0.0
220
0.0
230
1.0
 70
     8
 71
     3
 72
     8
 73
     4
 74
     0
 42
0.00000001
 43
0.00000001
 12
1.0
 22
0.0
 32
0.0
 13
1.0
 23
0.0
 33
0.0
 40
0.0
 40
0.0
 40
0.0
 40
0.0
 40
1.0
 40
1.0
 40
1.0
 40
1.0
 10
187.4742749741064
 20
93.69131452394649
 30
0.0
 10
187.4937011794053
 20
93.61172225237371
 30
0.0
 10
187.5151980038338
 20
93.53328050624097
 30
0.0
 10
187.5395110001031
 20
93.45611074981767
 30
0.0
  0
SPLINE
  5
86
330
1F
100
AcDbEntity
  8
0
  6
Continuous
 62
     7
370
    15
100
AcDbSpline
210
0.0
220
0.0
230
1.0
 70
     8
 71
     3
 72
     8
 73
     4
 74
     0
 42
0.00000001
 43
0.00000001
 12
1.0
 22
0.0
 32
0.0
 13
1.0
 23
0.0
 33
0.0
 40
0.0
 40
0.0
 40
0.0
 40
0.0
 40
1.0
 40
1.0
 40
1.0
 40
1.0
 10
187.5395110001031
 20
101.4696076788722
 30
0.0
 10
187.5151980038338
 20
101.3924379224489
 30
0.0
 10
187.4937011794053
 20
101.3139961763161
 30
0.0
 10
187.4742749741064
 20
101.2344039047434
 30
0.0
  0
SPLINE
  5
87
330
1F
100
AcDbEntity
  8
0
  6
Continuous
 62
     7
370
    15
100
AcDbSpline
210
0.0
220
0.0
230
1.0
 70
     8
 71
     3
 72
    18
 73
    14
 74
     0
 42
0.00000001
 43
0.00000001
 12
1.0
 22
0.0
 32
0.0
 13
1.0
 23
0.0
 33
0.0
 40
0.0
 40
0.0
 40
0.0
 40
0.0
 40
0.2499999999999987
 40
0.2499999999999987
 40
0.4999999999999973
 40
0.4999999999999973
 40
0.624999999999998
 40
0.624999999999998
 40
0.7499999999999987
 40
0.7499999999999987
 40
0.8749999999999993
 40
0.8749999999999993
 40
1.0
 40
1.0
 40
1.0
 40
1.0
 10
187.5395110001031
 20
101.4696076788721
 30
0.0
 10
187.5738093191158
 20
101.5784709754652
 30
0.0
 10
187.6116237164278
 20
101.6854783987015
 30
0.0
 10
187.6982117775014
 20
101.8945132228398
 30
0.0
 10
187.74656188318
 20
101.9966833168294
 30
0.0
 10
187.8358784719798
 20
102.1433640883941
 30
0.0
 10
187.8684388274681
 20
102.1911657869297
 30
0.0
 10
187.944684461197
 20
102.282721324955
 30
0.0
 10
187.987843830977
 20
102.326400716947
 30
0.0
 10
188.0935726549951
 20
102.3957549342736
 30
0.0
 10
188.1585698320497
 20
102.4198712479395
 30
0.0
 10
188.292054322004
 20
102.4116670259013
 30
0.0
 10
188.3513817154495
 20
102.3818762403093
 30
0.0
 10
188.4006184287909
 20
102.3445789072583
 30
0.0
  0
SPLINE
  5
88
330
1F
100
AcDbEntity
  8
0
  6
Continuous
 62
     7
370
    15
100
AcDbSpline
210
0.0
220
0.0
230
1.0
 70
     8
 71
     3
 72
    16
 73
    12
 74
     0
 42
0.00000001
 43
0.00000001
 12
1.0
 22
0.0
 32
0.0
 13
1.0
 23
0.0
 33
0.0
 40
0.0
 40
0.0
 40
0.0
 40
0.0
 40
0.0624999999999999
 40
0.0624999999999999
 40
0.1249999999999997
 40
0.1249999999999997
 40
0.2499999999999996
 40
0.2499999999999996
 40
0.4999999999999993
 40
0.4999999999999993
 40
1.0
 40
1.0
 40
1.0
 40
1.0
 10
188.4006184287601
 20
102.3445789072099
 30
0.0
 10
188.4126882620359
 20
102.3354358803641
 30
0.0
 10
188.4269639169692
 20
102.3283914326729
 30
0.0
 10
188.4584283290937
 20
102.3283843607743
 30
0.0
 10
188.4739288539041
 20
102.3365123295712
 30
0.0
 10
188.5093677505109
 20
102.3699207905784
 30
0.0
 10
188.5229603666143
 20
102.4005879570406
 30
0.0
 10
188.5559546850071
 20
102.4894089511224
 30
0.0
 10
188.5667420783259
 20
102.5503115966702
 30
0.0
 10
188.591795325605
 20
102.7323196740486
 30
0.0
 10
188.5955953176663
 20
102.8510083890872
 30
0.0
 10
188.5955953176663
 20
102.9683039813078
 30
0.0
  0
LINE
  5
89
330
1F
100
AcDbEntity
  8
0
  6
Continuous
 62
     7
370
    15
100
AcDbLine
 10
188.5955953177
 20
111.5526794932
 30
0.0
 11
188.5955953177
 21
102.9683039813
 31
0.0
  0
SPLINE
  5
8A
330
1F
100
AcDbEntity
  8
0
  6
Continuous
 62
     7
370
    15
100
AcDbSpline
210
0.0
220
0.0
230
1.0
 70
     8
 71
     3
 72
    16
 73
    12
 74
     0
 42
0.00000001
 43
0.00000001
 12
1.0
 22
0.0
 32
0.0
 13
1.0
 23
0.0
 33
0.0
 40
0.0
 40
0.0
 40
0.0
 40
0.0
 40
0.5000000000000023
 40
0.5000000000000023
 40
0.7500000000000038
 40
0.7500000000000038
 40
0.8750000000000036
 40
0.8750000000000036
 40
0.9375000000000018
 40
0.9375000000000018
 40
1.0
 40
1.0
 40
1.0
 40
1.0
 10
188.5955953176662
 20
111.447671121005
 30
0.0
 10
188.5955953176662
 20
111.4321058935656
 30
0.0
 10
188.5917118925072
 20
111.4129345157176
 30
0.0
 10
188.5668965672326
 20
111.3741621337358
 30
0.0
 10
188.55605711952
 20
111.3595113575333
 30
0.0
 10
188.5228413374712
 20
111.3324671135536
 30
0.0
 10
188.5094595938425
 20
111.3224890144136
 30
0.0
 10
188.4739499439802
 20
111.3060144786266
 30
0.0
 10
188.4585329774795
 20
111.3002623878367
 30
0.0
 10
188.4268319553308
 20
111.29234186741
 30
0.0
 10
188.4126856703801
 20
111.2904590313913
 30
0.0
 10
188.4006184287904
 20
111.289585196929
 30
0.0
  0
SPLINE
  5
8B
330
1F
100
AcDbEntity
  8
0
  6
Continuous
 62
     7
370
    15
100
AcDbSpline
210
0.0
220
0.0
230
1.0
 70
     8
 71
     3
 72
    18
 73
    14
 74
     0
 42
0.00000001
 43
0.00000001
 12
1.0
 22
0.0
 32
0.0
 13
1.0
 23
0.0
 33
0.0
 40
0.0
 40
0.0
 40
0.0
 40
0.0
 40
0.125
 40
0.125
 40
0.2500000000000001
 40
0.2500000000000001
 40
0.3750000000000001
 40
0.3750000000000001
 40
0.5000000000000001
 40
0.5000000000000001
 40
0.75
 40
0.75
 40
1.0
 40
1.0
 40
1.0
 40
1.0
 10
188.4006184287966
 20
111.2895851969288
 30
0.0
 10
188.3519142997798
 20
111.2860583473106
 30
0.0
 10
188.2934066305752
 20
111.282558074113
 30
0.0
 10
188.1616809679444
 20
111.2785150902251
 30
0.0
 10
188.0969233293241
 20
111.2784035155945
 30
0.0
 10
187.991712912705
 20
111.2799357003559
 30
0.0
 10
187.9484968777648
 20
111.2813908525711
 30
0.0
 10
187.8723186562839
 20
111.2843161141008
 30
0.0
 10
187.8394638885997
 20
111.285826444609
 30
0.0
 10
187.7490961697579
 20
111.2899684372974
 30
0.0
 10
187.6996738005685
 20
111.2922065222839
 30
0.0
 10
187.6120213384804
 20
111.2946578053303
 30
0.0
 10
187.5739586022461
 20
111.2949130406914
 30
0.0
 10
187.5395110001027
 20
111.2940475970235
 30
0.0
  0
SPLINE
  5
8C
330
1F
100
AcDbEntity
  8
0
  6
Continuous
 62
     7
370
    15
100
AcDbSpline
210
0.0
220
0.0
230
1.0
 70
     8
 71
     3
 72
    16
 73
    12
 74
     0
 42
0.00000001
 43
0.00000001
 12
1.0
 22
0.0
 32
0.0
 13
1.0
 23
0.0
 33
0.0
 40
0.0
 40
0.0
 40
0.0
 40
0.0
 40
0.2499999999999998
 40
0.2499999999999998
 40
0.3749999999999998
 40
0.3749999999999998
 40
0.4999999999999999
 40
0.4999999999999999
 40
0.7499999999999999
 40
0.7499999999999999
 40
1.0
 40
1.0
 40
1.0
 40
1.0
 10
187.0955953176662
 20
100.4090576104143
 30
0.0
 10
187.0150585082707
 20
99.93998478355124
 30
0.0
 10
186.9550210994685
 20
99.45962113337126
 30
0.0
 10
186.8942831522212
 20
98.72243685423031
 30
0.0
 10
186.8789606711783
 20
98.47391845100321
 30
0.0
 10
186.8583777194004
 20
97.97113500578948
 30
0.0
 10
186.8531781723638
 20
97.71627645276483
 30
0.0
 10
186.8531244618236
 20
96.95999911304406
 30
0.0
 10
186.8733217990927
 20
96.46134091373422
 30
0.0
 10
186.9540001061657
 20
95.47491794298993
 30
0.0
 10
187.0150464545069
 20
94.98580385021697
 30
0.0
 10
187.0955953176662
 20
94.51666081827553
 30
0.0
  0
LINE
  5
8D
330
1F
100
AcDbEntity
  8
0
  6
Continuous
 62
     7
370
    15
100
AcDbLine
 10
187.0955953177
 20
94.5166608183
 30
0.0
 11
187.0955953177
 21
93.3616555489
 31
0.0
  0
LINE
  5
8E
330
1F
100
AcDbEntity
  8
0
  6
Continuous
 62
     7
370
    15
100
AcDbLine
 10
166.2955953177
 20
101.3027786805
 30
0.0
 11
166.2955953177
 21
93.6229397482
 31
0.0
  0
LINE
  5
8F
330
1F
100
AcDbEntity
  8
0
  6
Continuous
 62
     7
370
    15
100
AcDbLine
 10
187.0955953177
 20
101.5640628798
 30
0.0
 11
187.0955953177
 21
100.4090576104
 31
0.0
  0
SPLINE
  5
90
330
1F
100
AcDbEntity
  8
0
  6
Continuous
 62
     7
370
    15
100
AcDbSpline
210
0.0
220
0.0
230
1.0
 70
     8
 71
     3
 72
     8
 73
     4
 74
     0
 42
0.00000001
 43
0.00000001
 12
1.0
 22
0.0
 32
0.0
 13
1.0
 23
0.0
 33
0.0
 40
0.0
 40
0.0
 40
0.0
 40
0.0
 40
1.0
 40
1.0
 40
1.0
 40
1.0
 10
187.3005553397268
 20
94.516368409981
 30
0.0
 10
187.3512824224493
 20
94.23301728866187
 30
0.0
 10
187.4091697354363
 20
93.9580611045221
 30
0.0
 10
187.4742749741065
 20
93.69131452394653
 30
0.0
  0
SPLINE
  5
91
330
1F
100
AcDbEntity
  8
0
  6
Continuous
 62
     7
370
    15
100
AcDbSpline
210
0.0
220
0.0
230
1.0
 70
     8
 71
     3
 72
    24
 73
    20
 74
     0
 42
0.00000001
 43
0.00000001
 12
1.0
 22
0.0
 32
0.0
 13
1.0
 23
0.0
 33
0.0
 40
0.0
 40
0.0
 40
0.0
 40
0.0
 40
0.2499999999999994
 40
0.2499999999999994
 40
0.3749999999999992
 40
0.3749999999999992
 40
0.437499999999999
 40
0.437499999999999
 40
0.4687499999999989
 40
0.4687499999999989
 40
0.4999999999999989
 40
0.4999999999999989
 40
0.5624999999999984
 40
0.5624999999999984
 40
0.624999999999998
 40
0.624999999999998
 40
0.7499999999999981
 40
0.7499999999999981
 40
1.0
 40
1.0
 40
1.0
 40
1.0
 10
187.0955953176579
 20
94.51666081827426
 30
0.0
 10
187.0959983470318
 20
94.60992911090386
 30
0.0
 10
187.0980280867469
 20
94.70368666975283
 30
0.0
 10
187.1073367981667
 20
94.84527655539236
 30
0.0
 10
187.1112627912812
 20
94.89245697400162
 30
0.0
 10
187.1221921511973
 20
94.96305302068701
 30
0.0
 10
187.1263137792916
 20
94.98683293445178
 30
0.0
 10
187.138208300474
 20
95.02028408149897
 30
0.0
 10
187.1434951124278
 20
95.0324390335686
 30
0.0
 10
187.1600630439427
 20
95.04032167253666
 30
0.0
 10
187.16798975271
 20
95.03275807343462
 30
0.0
 10
187.1849820909352
 20
95.00896564220785
 30
0.0
 10
187.1923797917262
 20
94.98877716436337
 30
0.0
 10
187.206482182068
 20
94.94832753974357
 30
0.0
 10
187.2126353393602
 20
94.9274718653461
 30
0.0
 10
187.2299490728213
 20
94.86434683004506
 30
0.0
 10
187.2399541137099
 20
94.82136771814355
 30
0.0
 10
187.2683105699406
 20
94.6916420738547
 30
0.0
 10
187.2848591092869
 20
94.60404434671875
 30
0.0
 10
187.3005553397269
 20
94.51636840998103
 30
0.0
  0
SPLINE
  5
92
330
1F
100
AcDbEntity
  8
0
  6
Continuous
 62
     7
370
    15
100
AcDbSpline
210
0.0
220
0.0
230
1.0
 70
     8
 71
     3
 72
    24
 73
    20
 74
     0
 42
0.00000001
 43
0.00000001
 12
1.0
 22
0.0
 32
0.0
 13
1.0
 23
0.0
 33
0.0
 40
0.0
 40
0.0
 40
0.0
 40
0.0
 40
0.2499999999999898
 40
0.2499999999999898
 40
0.3749999999999856
 40
0.3749999999999856
 40
0.4374999999999841
 40
0.4374999999999841
 40
0.4999999999999826
 40
0.4999999999999826
 40
0.5312499999999836
 40
0.5312499999999836
 40
0.5624999999999845
 40
0.5624999999999845
 40
0.6249999999999866
 40
0.6249999999999866
 40
0.7499999999999905
 40
0.7499999999999905
 40
1.0
 40
1.0
 40
1.0
 40
1.0
 10
187.300555339727
 20
100.4093500187088
 30
0.0
 10
187.2847862948172
 20
100.3212673552179
 30
0.0
 10
187.2681721302567
 20
100.2333225387084
 30
0.0
 10
187.2396400027633
 20
100.1029751714454
 30
0.0
 10
187.2295523692094
 20
100.0597139936433
 30
0.0
 10
187.2120645463604
 20
99.9962782178079
 30
0.0
 10
187.2058547384341
 20
99.97536409426417
 30
0.0
 10
187.1915768788517
 20
99.9348893025791
 30
0.0
 10
187.1840057164999
 20
99.91441165911988
 30
0.0
 10
187.1665858913256
 20
99.89156527958299
 30
0.0
 10
187.158101808871
 20
99.88501348253926
 30
0.0
 10
187.1420657352535
 20
99.89558485776581
 30
0.0
 10
187.1372453629756
 20
99.90767589804973
 30
0.0
 10
187.1258384623697
 20
99.94131914126963
 30
0.0
 10
187.1218175006603
 20
99.96472682056643
 30
0.0
 10
187.1110634888811
 20
100.0353154236275
 30
0.0
 10
187.1071916032584
 20
100.0822804511501
 30
0.0
 10
187.0980236384575
 20
100.2228573157562
 30
0.0
 10
187.0959953039444
 20
100.3164935453757
 30
0.0
 10
187.0955953176662
 20
100.4090576104143
 30
0.0
  0
SPLINE
  5
93
330
1F
100
AcDbEntity
  8
0
  6
Continuous
 62
     7
370
    15
100
AcDbSpline
210
0.0
220
0.0
230
1.0
 70
     8
 71
     3
 72
     8
 73
     4
 74
     0
 42
0.00000001
 43
0.00000001
 12
1.0
 22
0.0
 32
0.0
 13
1.0
 23
0.0
 33
0.0
 40
0.0
 40
0.0
 40
0.0
 40
0.0
 40
1.0
 40
1.0
 40
1.0
 40
1.0
 10
187.4742749741065
 20
101.2344039047433
 30
0.0
 10
187.4091697354363
 20
100.9676573241677
 30
0.0
 10
187.3512824224493
 20
100.692701140028
 30
0.0
 10
187.3005553397268
 20
100.4093500187089
 30
0.0
  0
LINE
  5
94
330
1F
100
AcDbEntity
  8
0
  6
Continuous
 62
     7
370
    15
100
AcDbLine
 10
164.7955953177
 20
100.8697659786
 30
0.0
 11
164.7955953177
 21
94.0559524501
 31
0.0
  0
LINE
  5
95
330
1F
100
AcDbEntity
  8
0
  6
Continuous
 62
     7
370
    15
100
AcDbLine
 10
187.3005553397
 20
111.2880441991
 30
0.0
 11
187.5395110001
 21
111.294047597
 31
0.0
  0
LINE
  5
96
330
1F
100
AcDbEntity
  8
0
  6
Continuous
 62
     7
370
    15
100
AcDbLine
 10
187.0955953177
 20
101.5640628798
 30
0.0
 11
187.0955953177
 21
111.4829579989
 31
0.0
  0
ARC
  5
97
330
1F
100
AcDbEntity
  8
0
  6
Continuous
 62
     7
370
    15
100
AcDbCircle
 10
187.2955322286
 20
111.48798111
 30
0.0
 40
0.2000000000000059
100
AcDbArc
 50
181.4391666667
 51
271.4391666667
  0
LINE
  5
98
330
1F
100
AcDbEntity
  8
0
  6
Continuous
 62
     7
370
    15
100
AcDbLine
 10
166.2955953177
 20
101.3027786805
 30
0.0
 11
166.2955953177
 21
110.9603896002
 31
0.0
  0
LINE
  5
99
330
1F
100
AcDbEntity
  8
0
  6
Continuous
 62
     7
370
    15
100
AcDbLine
 10
166.2955953177
 20
110.9603896002
 30
0.0
 11
187.0955953177
 21
111.4829579989
 31
0.0
  0
LINE
  5
9A
330
1F
100
AcDbEntity
  8
0
  6
Continuous
 62
     7
370
    15
100
AcDbLine
 10
187.0955953177
 20
83.4427604298
 30
0.0
 11
187.0955953177
 21
93.3616555489
 31
0.0
  0
ARC
  5
9B
330
1F
100
AcDbEntity
  8
0
  6
Continuous
 62
     7
370
    15
100
AcDbCircle
 10
187.2955322286
 20
83.4377373187
 30
0.0
 40
0.2000000000000059
100
AcDbArc
 50
88.5608333333
 51
178.5608333333
  0
LINE
  5
9C
330
1F
100
AcDbEntity
  8
0
  6
Continuous
 62
     7
370
    15
100
AcDbLine
 10
166.2955953177
 20
83.9653288285
 30
0.0
 11
166.2955953177
 21
93.6229397482
 31
0.0
  0
LINE
  5
9D
330
1F
100
AcDbEntity
  8
0
  6
Continuous
 62
     7
370
    15
100
AcDbLine
 10
166.2955953177
 20
83.9653288285
 30
0.0
 11
187.0955953177
 21
83.4427604298
 31
0.0
  0
LINE
  5
9E
330
1F
100
AcDbEntity
  8
0
  6
Continuous
 62
     7
370
    15
100
AcDbLine
 10
187.3005553397
 20
83.6376742296
 30
0.0
 11
187.5395110001
 21
83.6316708317
 31
0.0
  0
LINE
  5
9F
330
1F
100
AcDbEntity
  8
0
  6
Continuous
 62
     7
370
    15
100
AcDbLine
 10
164.7955953177
 20
110.0943641964
 30
0.0
 11
166.2955953177
 21
110.9603896002
 31
0.0
  0
LINE
  5
A0
330
1F
100
AcDbEntity
  8
0
  6
Continuous
 62
     7
370
    15
100
AcDbLine
 10
164.7955953177
 20
100.8697659786
 30
0.0
 11
164.7955953177
 21
110.0943641964
 31
0.0
  0
LINE
  5
A1
330
1F
100
AcDbEntity
  8
0
  6
Continuous
 62
     7
370
    15
100
AcDbLine
 10
164.7955953177
 20
84.8313542323
 30
0.0
 11
166.2955953177
 21
83.9653288285
 31
0.0
  0
LINE
  5
A2
330
1F
100
AcDbEntity
  8
0
  6
Continuous
 62
     7
370
    15
100
AcDbLine
 10
164.7955953177
 20
84.8313542323
 30
0.0
 11
164.7955953177
 21
94.0559524501
 31
0.0
  0
LINE
  5
A3
330
1F
100
AcDbEntity
  8
0
  6
Continuous
 62
     7
370
    15
100
AcDbLine
 10
268.7955953177
 20
68.4628592143
 30
0.0
 11
268.7955953177
 21
97.4628592143
 31
0.0
  0
LINE
  5
A4
330
1F
100
AcDbEntity
  8
0
  6
Continuous
 62
     7
370
    15
100
AcDbLine
 10
267.7955953177
 20
67.4628592143
 30
0.0
 11
268.7955953177
 21
68.4628592143
 31
0.0
  0
LINE
  5
A5
330
1F
100
AcDbEntity
  8
0
  6
Continuous
 62
     7
370
    15
100
AcDbLine
 10
267.7955953177
 20
67.4628592143
 30
0.0
 11
257.7955953177
 21
67.4628592143
 31
0.0
  0
LINE
  5
A6
330
1F
100
AcDbEntity
  8
0
  6
Continuous
 62
     7
370
    15
100
AcDbLine
 10
268.7955953177
 20
97.4628592143
 30
0.0
 11
258.7955953177
 21
103.2363619062
 31
0.0
  0
LWPOLYLINE
  5
A7
330
1F
100
AcDbEntity
  8
0
  6
Continuous
 62
     7
370
    15
100
AcDbPolyline
 90
       32
 70
   128
 43
0.0
 10
260.5141753
 20
90.4188094152
 10
260.4301724411
 20
90.9167506423
 10
260.3515927042
 20
91.4903209339
 10
260.2816531529
 20
92.1160382549
 10
260.2232171207
 20
92.7682856646
 10
260.1786769856
 20
93.4203600775
 10
260.149856226
 20
94.0455654905
 10
260.1379347672
 20
94.6183059205
 10
260.143400675
 20
95.1151333069
 10
260.1660301746
 20
95.5157074784
 10
260.2048968117
 20
95.8036288811
 10
260.2584093814
 20
95.967109979
 10
260.324377073
 20
95.9994578368
 10
260.4000991613
 20
95.8993481294
 10
260.4824755752
 20
95.67087936
 10
260.5681338147
 20
95.3234050668
 10
260.6535670213
 20
94.8711508882
 10
260.7352775495
 20
94.3326321634
 10
260.8099201607
 20
93.7298959123
 10
260.8744389776
 20
93.0876182279
 10
260.9261925923
 20
92.4320940339
 10
260.9630622057
 20
91.790160568
 10
260.9835383715
 20
91.1880986616
 10
260.9867827931
 20
90.6505567999
 10
260.9726626434
 20
90.1995420099
 10
260.9417560031
 20
89.8535188901
 10
260.8953281936
 20
89.6266536677
 10
260.835279975
 20
89.5282342315
 10
260.7640697283
 20
89.5622898849
 10
260.6846128094
 20
89.7274263853
 10
260.6001621939
 20
90.016883025
 10
260.5141753
 20
90.4188094152
  0
LWPOLYLINE
  5
A8
330
1F
100
AcDbEntity
  8
0
  6
Continuous
 62
     7
370
    15
100
AcDbPolyline
 90
       28
 70
   128
 43
0.0
 10
260.5253588108
 20
90.9600211019
 10
260.4514608624
 20
91.4051589686
 10
260.3835564581
 20
91.9235555446
 10
260.3253063419
 20
92.4872639365
 10
260.2798507926
 20
93.065894479
 10
260.2496403306
 20
93.6282530497
 10
260.2363036099
 20
94.1440227524
 10
260.2405596163
 20
94.5853983092
 10
260.2621789076
 20
94.9285850493
 10
260.2999959821
 20
95.1550816869
 10
260.3519721116
 20
95.2526777295
 10
260.4153052495
 20
95.2161117494
 10
260.4865810899
 20
95.0473550278
 10
260.5619571337
 20
94.7555052834
 10
260.6373698391
 20
94.3562962113
 10
260.7087536875
 20
93.8712492762
 10
260.7722603571
 20
93.3265134836
 10
260.824466187
 20
92.7514556813
 10
260.8625567474
 20
92.1770773842
 10
260.8844785663
 20
91.6343434749
 10
260.8890498327
 20
91.152512879
 10
260.8760241085
 20
90.7575612087
 10
260.8461036139
 20
90.4707804107
 10
260.8009013705
 20
90.307630912
 10
260.7428542429
 20
90.2769081444
 10
260.6750915669
 20
90.3802683802
 10
260.6012664457
 20
90.6121394424
 10
260.5253588108
 20
90.9600211019
  0
ARC
  5
A9
330
1F
100
AcDbEntity
  8
0
  6
Continuous
 62
     7
370
    15
100
AcDbCircle
 10
243.1346299878
 20
91.3705713056
 30
0.0
 40
17.30640042958439
100
AcDbArc
 50
0.3612442908
 51
8.7816863058
  0
CIRCLE
  5
AA
330
1F
100
AcDbEntity
  8
0
  6
Continuous
 62
     7
370
    15
100
AcDbCircle
 10
250.7955953177
 20
77.4628592143
 30
0.0
 40
4.171999999999997
  0
LINE
  5
AB
330
1F
100
AcDbEntity
  8
0
  6
Continuous
 62
     7
370
    15
100
AcDbLine
 10
253.2955953177
 20
78.9062348873
 30
0.0
 11
250.7955953177
 21
80.3496105603
 31
0.0
  0
LINE
  5
AC
330
1F
100
AcDbEntity
  8
0
  6
Continuous
 62
     7
370
    15
100
AcDbLine
 10
248.2955953177
 20
78.9062348873
 30
0.0
 11
250.7955953177
 21
80.3496105603
 31
0.0
  0
LINE
  5
AD
330
1F
100
AcDbEntity
  8
0
  6
Continuous
 62
     7
370
    15
100
AcDbLine
 10
248.2955953177
 20
76.0194835414
 30
0.0
 11
248.2955953177
 21
78.9062348873
 31
0.0
  0
LINE
  5
AE
330
1F
100
AcDbEntity
  8
0
  6
Continuous
 62
     7
370
    15
100
AcDbLine
 10
248.2955953177
 20
76.0194835414
 30
0.0
 11
250.7955953177
 21
74.5761078684
 31
0.0
  0
LINE
  5
AF
330
1F
100
AcDbEntity
  8
0
  6
Continuous
 62
     7
370
    15
100
AcDbLine
 10
253.2955953177
 20
76.0194835414
 30
0.0
 11
250.7955953177
 21
74.5761078684
 31
0.0
  0
LINE
  5
B0
330
1F
100
AcDbEntity
  8
0
  6
Continuous
 62
     7
370
    15
100
AcDbLine
 10
253.2955953177
 20
76.0194835414
 30
0.0
 11
253.2955953177
 21
78.9062348873
 31
0.0
  0
LINE
  5
B1
330
1F
100
AcDbEntity
  8
0
  6
Continuous
 62
     7
370
    15
100
AcDbLine
 10
232.7006331967
 20
79.6317676986
 30
0.0
 11
229.8697844114
 21
80.1971246548
 31
0.0
  0
LINE
  5
B2
330
1F
100
AcDbEntity
  8
0
  6
Continuous
 62
     7
370
    15
100
AcDbLine
 10
227.9647465324
 20
78.0282161706
 30
0.0
 11
229.8697844114
 21
80.1971246548
 31
0.0
  0
LINE
  5
B3
330
1F
100
AcDbEntity
  8
0
  6
Continuous
 62
     7
370
    15
100
AcDbLine
 10
228.8905574387
 20
75.2939507301
 30
0.0
 11
227.9647465324
 21
78.0282161706
 31
0.0
  0
LINE
  5
B4
330
1F
100
AcDbEntity
  8
0
  6
Continuous
 62
     7
370
    15
100
AcDbLine
 10
228.8905574387
 20
75.2939507301
 30
0.0
 11
231.721406224
 21
74.7285937738
 31
0.0
  0
LINE
  5
B5
330
1F
100
AcDbEntity
  8
0
  6
Continuous
 62
     7
370
    15
100
AcDbLine
 10
233.626444103
 20
76.8975022581
 30
0.0
 11
231.721406224
 21
74.7285937738
 31
0.0
  0
LINE
  5
B6
330
1F
100
AcDbEntity
  8
0
  6
Continuous
 62
     7
370
    15
100
AcDbLine
 10
233.626444103
 20
76.8975022581
 30
0.0
 11
232.7006331967
 21
79.6317676986
 31
0.0
  0
CIRCLE
  5
B7
330
1F
100
AcDbEntity
  8
0
  6
Continuous
 62
     7
370
    15
100
AcDbCircle
 10
230.7955953177
 20
77.4628592143
 30
0.0
 40
4.172000000000004
  0
CIRCLE
  5
B8
330
1F
100
AcDbEntity
  8
0
  6
HIDDEN
 62
     7
370
     0
100
AcDbCircle
 10
230.7955953177
 20
77.4628592143
 30
0.0
 40
4.25
  0
CIRCLE
  5
B9
330
1F
100
AcDbEntity
  8
0
  6
HIDDEN
 62
     7
370
     0
100
AcDbCircle
 10
250.7955953177
 20
77.4628592143
 30
0.0
 40
4.250000000000014
  0
SPLINE
  5
BA
330
1F
100
AcDbEntity
  8
0
  6
HIDDEN
 62
     7
370
     0
100
AcDbSpline
210
0.0
220
0.0
230
1.0
 70
     8
 71
     3
 72
    10
 73
     6
 74
     0
 42
0.00000001
 43
0.00000001
 12
1.0
 22
0.0
 32
0.0
 13
1.0
 23
0.0
 33
0.0
 40
0.0
 40
0.0
 40
0.0
 40
0.0
 40
0.5
 40
0.5
 40
1.0
 40
1.0
 40
1.0
 40
1.0
 10
211.0689248149005
 20
103.4628592143449
 30
0.0
 10
211.0112572629218
 20
99.56176870654994
 30
0.0
 10
211.0097708604554
 20
95.65813515639911
 30
0.0
 10
211.1195700272183
 20
87.85727706937136
 30
0.0
 10
211.2300440933138
 20
83.95871638718829
 30
0.0
 10
211.3818362381277
 20
80.06154477957271
 30
0.0
  0
SPLINE
  5
BB
330
1F
100
AcDbEntity
  8
0
  6
HIDDEN
 62
     7
370
     0
100
AcDbSpline
210
0.0
220
0.0
230
1.0
 70
     8
 71
     3
 72
    10
 73
     6
 74
     0
 42
0.00000001
 43
0.00000001
 12
1.0
 22
0.0
 32
0.0
 13
1.0
 23
0.0
 33
0.0
 40
0.0
 40
0.0
 40
0.0
 40
0.0
 40
0.5
 40
0.5
 40
1.0
 40
1.0
 40
1.0
 40
1.0
 10
210.4993244634169
 20
118.4628592143449
 30
0.0
 10
210.4917764671356
 20
115.9609134383216
 30
0.0
 10
210.542486240272
 20
113.4600737809106
 30
0.0
 10
210.7424565068993
 20
108.4602656119828
 30
0.0
 10
210.8904172998775
 20
105.9612724235356
 30
0.0
 10
211.0689248149005
 20
103.4628592143449
 30
0.0
  0
SPLINE
  5
BC
330
1F
100
AcDbEntity
  8
0
  6
HIDDEN
 62
     7
370
     0
100
AcDbSpline
210
0.0
220
0.0
230
1.0
 70
    24
 71
     3
 72
    11
 73
     7
 74
     0
 42
0.00000001
 43
0.00000001
 12
1.0
 22
0.0
 32
0.0
 13
1.0
 23
0.0
 33
0.0
 40
0.0
 40
0.0
 40
0.0
 40
0.0
 40
0.1841182771795594
 40
0.5016838975589529
 40
0.8193817509531712
 40
1.0
 40
1.0
 40
1.0
 40
1.0
 10
209.8197116389852
 20
118.4628592143449
 30
0.0
 10
209.8172523376847
 20
118.4628592143449
 30
0.0
 10
209.8105512546605
 20
118.4628592143449
 30
0.0
 10
209.983374646034
 20
118.4628592143449
 30
0.0
 10
210.2336088522689
 20
118.4628592143449
 30
0.0
 10
210.4286356135675
 20
118.4628592143449
 30
0.0
 10
210.4993244634169
 20
118.4628592143449
 30
0.0
  0
SPLINE
  5
BD
330
1F
100
AcDbEntity
  8
0
  6
HIDDEN
 62
     7
370
     0
100
AcDbSpline
210
0.0
220
0.0
230
1.0
 70
    24
 71
     3
 72
    10
 73
     6
 74
     0
 42
0.00000001
 43
0.00000001
 12
1.0
 22
0.0
 32
0.0
 13
1.0
 23
0.0
 33
0.0
 40
0.0
 40
0.0
 40
0.0
 40
0.0
 40
0.3808205939779333
 40
0.7617679139265834
 40
0.9999999999999999
 40
0.9999999999999999
 40
0.9999999999999999
 40
0.9999999999999999
 10
211.3818362381277
 20
67.46285921434495
 30
0.0
 10
211.2170266707111
 20
67.46285921434495
 30
0.0
 10
210.8873526920677
 20
67.46285921434495
 30
0.0
 10
210.6111813775036
 20
67.46285921434495
 30
0.0
 10
210.6160132590356
 20
67.46285921434495
 30
0.0
 10
210.6178723473804
 20
67.46285921434495
 30
0.0
  0
SPLINE
  5
BE
330
1F
100
AcDbEntity
  8
0
  6
HIDDEN
 62
     7
370
     0
100
AcDbSpline
210
0.0
220
0.0
230
1.0
 70
     8
 71
     3
 72
    58
 73
    54
 74
     0
 42
0.00000001
 43
0.00000001
 12
1.0
 22
0.0
 32
0.0
 13
1.0
 23
0.0
 33
0.0
 40
-0.0625000000000001
 40
-0.0625000000000001
 40
0.0
 40
0.0
 40
0.03125
 40
0.03125
 40
0.0625
 40
0.0625
 40
0.09375
 40
0.09375
 40
0.125
 40
0.125
 40
0.1875
 40
0.1875
 40
0.25
 40
0.25
 40
0.28125
 40
0.28125
 40
0.3125
 40
0.3125
 40
0.34375
 40
0.34375
 40
0.3749999999999999
 40
0.3749999999999999
 40
0.4062499999999999
 40
0.4062499999999999
 40
0.4374999999999999
 40
0.4374999999999999
 40
0.4687499999999999
 40
0.4687499999999999
 40
0.5
 40
0.5
 40
0.5625
 40
0.5625
 40
0.625
 40
0.625
 40
0.65625
 40
0.65625
 40
0.6875
 40
0.6875
 40
0.71875
 40
0.71875
 40
0.7499999999999999
 40
0.7499999999999999
 40
0.7812499999999999
 40
0.7812499999999999
 40
0.8124999999999999
 40
0.8124999999999999
 40
0.8437499999999999
 40
0.8437499999999999
 40
0.8749999999999999
 40
0.8749999999999999
 40
0.9374999999999999
 40
0.9374999999999999
 40
1.0
 40
1.0
 40
1.03125
 40
1.03125
 10
198.7955953176662
 20
97.1984230998969
 30
0.0
 10
198.7955953176661
 20
97.59507727156894
 30
0.0
 10
198.8085773553383
 20
97.72506943240943
 30
0.0
 10
198.8594281575966
 20
97.9807890448617
 30
0.0
 10
198.8979200616496
 20
98.10784772872286
 30
0.0
 10
198.998335347376
 20
98.35001092638169
 30
0.0
 10
199.0597714866491
 20
98.46485271076638
 30
0.0
 10
199.2049049629599
 20
98.68219490833658
 30
0.0
 10
199.289326651811
 20
98.78503655618431
 30
0.0
 10
199.5659268259759
 20
99.06158003693591
 30
0.0
 10
199.7889257372429
 20
99.21056267306805
 30
0.0
 10
200.2701602548286
 20
99.41010573662277
 30
0.0
 10
200.5334596703376
 20
99.46271620965419
 30
0.0
 10
200.9250231103779
 20
99.4629302684067
 30
0.0
 10
201.0576107209826
 20
99.4499314190011
 30
0.0
 10
201.3141764265818
 20
99.39888133497473
 30
0.0
 10
201.4388861927624
 20
99.36111009616255
 30
0.0
 10
201.6811253777894
 20
99.26091818805008
 30
0.0
 10
201.7981420315631
 20
99.19833279422554
 30
0.0
 10
202.0147852364094
 20
99.053627708515
 30
0.0
 10
202.1157919928678
 20
98.97100836713479
 30
0.0
 10
202.3025980885244
 20
98.78436433234477
 30
0.0
 10
202.3853116240563
 20
98.68341848438489
 30
0.0
 10
202.5301817534316
 20
98.46693728070316
 30
0.0
 10
202.5928520495283
 20
98.35002011569472
 30
0.0
 10
202.6932799875645
 20
98.10782364649624
 30
0.0
 10
202.7311511664943
 20
97.98316265559278
 30
0.0
 10
202.78241356427
 20
97.72676330652477
 30
0.0
 10
202.7955472049107
 20
97.5941523812269
 30
0.0
 10
202.7956911380494
 20
97.2024777688918
 30
0.0
 10
202.7433258807847
 20
96.93919374923121
 30
0.0
 10
202.544165217434
 20
96.4576810353714
 30
0.0
 10
202.395367544072
 20
96.23455994832648
 30
0.0
 10
202.1190668854859
 20
95.95772779981893
 30
0.0
 10
202.0163018384261
 20
95.87322058553464
 30
0.0
 10
201.7990845646317
 20
95.72789964384876
 30
0.0
 10
201.6843148711939
 20
95.66637742058666
 30
0.0
 10
201.4423283340493
 20
95.56578101731468
 30
0.0
 10
201.3152457611579
 20
95.52715312922606
 30
0.0
 10
201.0595710611547
 20
95.4760750191599
 30
0.0
 10
200.9296305438105
 20
95.4629858793927
 30
0.0
 10
200.6653671760492
 20
95.46273436103414
 30
0.0
 10
200.5351562824023
 20
95.47560883109051
 30
0.0
 10
200.2794063369686
 20
95.52622772822257
 30
0.0
 10
200.1523889526013
 20
95.56457554701835
 30
0.0
 10
199.9100372248496
 20
95.66480966721173
 30
0.0
 10
199.7951344455633
 20
95.72615385420174
 30
0.0
 10
199.5777122804142
 20
95.87105885873089
 30
0.0
 10
199.4747758829695
 20
95.95539775085285
 30
0.0
 10
199.1979387258127
 20
96.23179886389462
 30
0.0
 10
199.0487834847485
 20
96.45464249693711
 30
0.0
 10
198.8488128995132
 20
96.93570577818767
 30
0.0
 10
198.7955953176662
 20
97.1984230998969
 30
0.0
 10
198.7955953176661
 20
97.59507727156894
 30
0.0
  0
SPLINE
  5
BF
330
1F
100
AcDbEntity
  8
0
  6
HIDDEN
 62
     7
370
     0
100
AcDbSpline
210
0.0
220
0.0
230
1.0
 70
     8
 71
     3
 72
    12
 73
     8
 74
     0
 42
0.00000001
 43
0.00000001
 12
1.0
 22
0.0
 32
0.0
 13
1.0
 23
0.0
 33
0.0
 40
0.0
 40
0.0
 40
0.0
 40
0.0
 40
0.2500000000000027
 40
0.2500000000000027
 40
0.5000000000000053
 40
0.5000000000000053
 40
1.0
 40
1.0
 40
1.0
 40
1.0
 10
195.7274973196654
 20
91.63364621869329
 30
0.0
 10
195.6899854336207
 20
91.63364621869329
 30
0.0
 10
195.6546980859159
 20
91.6188414044065
 30
0.0
 10
195.5957682376775
 20
91.57524953128066
 30
0.0
 10
195.5722425112085
 20
91.54773610519464
 30
0.0
 10
195.5119837234404
 20
91.45860437308106
 30
0.0
 10
195.4863889611511
 20
91.39221852246324
 30
0.0
 10
195.46768969853
 20
91.32461408728585
 30
0.0
  0
LINE
  5
C0
330
1F
100
AcDbEntity
  8
0
  6
HIDDEN
 62
     7
370
     0
100
AcDbLine
 10
197.8636933157
 20
91.6336462187
 30
0.0
 11
195.7274973197
 21
91.6336462187
 31
0.0
  0
SPLINE
  5
C1
330
1F
100
AcDbEntity
  8
0
  6
HIDDEN
 62
     7
370
     0
100
AcDbSpline
210
0.0
220
0.0
230
1.0
 70
     8
 71
     3
 72
    12
 73
     8
 74
     0
 42
0.00000001
 43
0.00000001
 12
1.0
 22
0.0
 32
0.0
 13
1.0
 23
0.0
 33
0.0
 40
0.0
 40
0.0
 40
0.0
 40
0.0
 40
0.4999999999999998
 40
0.4999999999999998
 40
0.7499999999999999
 40
0.7499999999999999
 40
1.0
 40
1.0
 40
1.0
 40
1.0
 10
198.1235009368023
 20
91.32461408728587
 30
0.0
 10
198.1048077036719
 20
91.39219672372624
 30
0.0
 10
198.0791524062601
 20
91.45867929320367
 30
0.0
 10
198.0189917835736
 20
91.54767437610118
 30
0.0
 10
197.9949194718193
 20
91.57567627310036
 30
0.0
 10
197.9365379514687
 20
91.61875267376553
 30
0.0
 10
197.9010691238157
 20
91.63364621869329
 30
0.0
 10
197.8636933156669
 20
91.63364621869329
 30
0.0
  0
ELLIPSE
  5
C2
330
1F
100
AcDbEntity
  8
0
  6
HIDDEN
 62
     7
370
     0
100
AcDbEllipse
 10
187.8466661452
 20
97.4628592143
 30
0.0
 11
-9.367417879781755
 21
19.74174915274993
 31
0.0
210
0.0
220
0.0
230
1.0
 40
0.3419987131
 41
3.292664382516899
 42
4.239566697061003
  0
SPLINE
  5
C3
330
1F
100
AcDbEntity
  8
0
  6
HIDDEN
 62
     7
370
     0
100
AcDbSpline
210
0.0
220
0.0
230
1.0
 70
     8
 71
     3
 72
    12
 73
     8
 74
     0
 42
0.00000001
 43
0.00000001
 12
1.0
 22
0.0
 32
0.0
 13
1.0
 23
0.0
 33
0.0
 40
0.0
 40
0.0
 40
0.0
 40
0.0
 40
0.2500000000000014
 40
0.2500000000000014
 40
0.5000000000000029
 40
0.5000000000000029
 40
1.0
 40
1.0
 40
1.0
 40
1.0
 10
197.8636933156669
 20
78.33120283411158
 30
0.0
 10
197.9012052017116
 20
78.33120283411158
 30
0.0
 10
197.9364925494164
 20
78.33570637837411
 30
0.0
 10
197.9954223976548
 20
78.3490795778274
 30
0.0
 10
198.0189481241239
 20
78.35756448039855
 30
0.0
 10
198.0792069118919
 20
78.38531228423312
 30
0.0
 10
198.1048016741813
 20
78.4063021479735
 30
0.0
 10
198.1235009368023
 20
78.42810293116302
 30
0.0
  0
LINE
  5
C4
330
1F
100
AcDbEntity
  8
0
  6
HIDDEN
 62
     7
370
     0
100
AcDbLine
 10
195.7274973197
 20
78.3312028341
 30
0.0
 11
197.8636933157
 21
78.3312028341
 31
0.0
  0
SPLINE
  5
C5
330
1F
100
AcDbEntity
  8
0
  6
HIDDEN
 62
     7
370
     0
100
AcDbSpline
210
0.0
220
0.0
230
1.0
 70
     8
 71
     3
 72
    12
 73
     8
 74
     0
 42
0.00000001
 43
0.00000001
 12
1.0
 22
0.0
 32
0.0
 13
1.0
 23
0.0
 33
0.0
 40
0.0
 40
0.0
 40
0.0
 40
0.0
 40
0.4999999999999947
 40
0.4999999999999947
 40
0.7499999999999973
 40
0.7499999999999973
 40
1.0
 40
1.0
 40
1.0
 40
1.0
 10
195.46768969853
 20
78.42810293116302
 30
0.0
 10
195.4863829316604
 20
78.40630917753506
 30
0.0
 10
195.5120382290722
 20
78.38528901582542
 30
0.0
 10
195.5721988517587
 20
78.3575836698617
 30
0.0
 10
195.596271163513
 20
78.34894845366833
 30
0.0
 10
195.6546526838636
 20
78.33573380844174
 30
0.0
 10
195.6901215115166
 20
78.33120283411158
 30
0.0
 10
195.7274973196654
 20
78.33120283411158
 30
0.0
  0
ELLIPSE
  5
C6
330
1F
100
AcDbEntity
  8
0
  6
HIDDEN
 62
     7
370
     0
100
AcDbEllipse
 10
205.7445244901
 20
97.4628592143
 30
0.0
 11
9.367417879781584
 21
19.74174915274993
 31
0.0
210
0.0
220
0.0
230
1.0
 40
0.3419987131
 41
2.043618610118593
 42
2.99052092466272
  0
SPLINE
  5
C7
330
1F
100
AcDbEntity
  8
0
  6
HIDDEN
 62
     7
370
     0
100
AcDbSpline
210
0.0
220
0.0
230
1.0
 70
     8
 71
     3
 72
    12
 73
     8
 74
     0
 42
0.00000001
 43
0.00000001
 12
1.0
 22
0.0
 32
0.0
 13
1.0
 23
0.0
 33
0.0
 40
0.0
 40
0.0
 40
0.0
 40
0.0
 40
0.2500000000000004
 40
0.2500000000000004
 40
0.5000000000000008
 40
0.5000000000000008
 40
1.0
 40
1.0
 40
1.0
 40
1.0
 10
195.7274973196654
 20
116.5945155945784
 30
0.0
 10
195.6899854336207
 20
116.5945155945784
 30
0.0
 10
195.654698085916
 20
116.5900120503158
 30
0.0
 10
195.5957682376775
 20
116.5766388508625
 30
0.0
 10
195.5722425112085
 20
116.5681539482914
 30
0.0
 10
195.5119837234404
 20
116.5404061444568
 30
0.0
 10
195.4863889611511
 20
116.5194162807165
 30
0.0
 10
195.46768969853
 20
116.4976154975269
 30
0.0
  0
LINE
  5
C8
330
1F
100
AcDbEntity
  8
0
  6
HIDDEN
 62
     7
370
     0
100
AcDbLine
 10
197.8636933157
 20
116.5945155946
 30
0.0
 11
195.7274973197
 21
116.5945155946
 31
0.0
  0
SPLINE
  5
C9
330
1F
100
AcDbEntity
  8
0
  6
HIDDEN
 62
     7
370
     0
100
AcDbSpline
210
0.0
220
0.0
230
1.0
 70
     8
 71
     3
 72
    12
 73
     8
 74
     0
 42
0.00000001
 43
0.00000001
 12
1.0
 22
0.0
 32
0.0
 13
1.0
 23
0.0
 33
0.0
 40
0.0
 40
0.0
 40
0.0
 40
0.0
 40
0.4999999999999916
 40
0.4999999999999916
 40
0.7499999999999958
 40
0.7499999999999958
 40
1.0
 40
1.0
 40
1.0
 40
1.0
 10
198.1235009368023
 20
116.4976154975269
 30
0.0
 10
198.1048077036719
 20
116.5194092511549
 30
0.0
 10
198.0791524062601
 20
116.5404294128645
 30
0.0
 10
198.0189917835736
 20
116.5681347588282
 30
0.0
 10
197.9949194718193
 20
116.5767699750216
 30
0.0
 10
197.9365379514687
 20
116.5899846202482
 30
0.0
 10
197.9010691238157
 20
116.5945155945784
 30
0.0
 10
197.8636933156669
 20
116.5945155945784
 30
0.0
  0
ELLIPSE
  5
CA
330
1F
100
AcDbEntity
  8
0
  6
HIDDEN
 62
     7
370
     0
100
AcDbEllipse
 10
187.8466661452
 20
97.4628592143
 30
0.0
 11
9.367417879781812
 21
19.74174915274993
 31
0.0
210
0.0
220
0.0
230
1.0
 40
0.3419987131
 41
5.185211263708411
 42
6.132113578252571
  0
SPLINE
  5
CB
330
1F
100
AcDbEntity
  8
0
  6
HIDDEN
 62
     7
370
     0
100
AcDbSpline
210
0.0
220
0.0
230
1.0
 70
     8
 71
     3
 72
    12
 73
     8
 74
     0
 42
0.00000001
 43
0.00000001
 12
1.0
 22
0.0
 32
0.0
 13
1.0
 23
0.0
 33
0.0
 40
0.0
 40
0.0
 40
0.0
 40
0.0
 40
0.2500000000000014
 40
0.2500000000000014
 40
0.5000000000000029
 40
0.5000000000000029
 40
1.0
 40
1.0
 40
1.0
 40
1.0
 10
197.8636933156669
 20
103.2920722099968
 30
0.0
 10
197.9012052017116
 20
103.2920722099968
 30
0.0
 10
197.9364925494164
 20
103.3068770242836
 30
0.0
 10
197.9954223976548
 20
103.3504688974095
 30
0.0
 10
198.0189481241239
 20
103.3779823234955
 30
0.0
 10
198.0792069118919
 20
103.467114055609
 30
0.0
 10
198.1048016741813
 20
103.5334999062269
 30
0.0
 10
198.1235009368023
 20
103.6011043414042
 30
0.0
  0
LINE
  5
CC
330
1F
100
AcDbEntity
  8
0
  6
HIDDEN
 62
     7
370
     0
100
AcDbLine
 10
195.7274973197
 20
103.29207221
 30
0.0
 11
197.8636933157
 21
103.29207221
 31
0.0
  0
SPLINE
  5
CD
330
1F
100
AcDbEntity
  8
0
  6
HIDDEN
 62
     7
370
     0
100
AcDbSpline
210
0.0
220
0.0
230
1.0
 70
     8
 71
     3
 72
    12
 73
     8
 74
     0
 42
0.00000001
 43
0.00000001
 12
1.0
 22
0.0
 32
0.0
 13
1.0
 23
0.0
 33
0.0
 40
0.0
 40
0.0
 40
0.0
 40
0.0
 40
0.5000000000000029
 40
0.5000000000000029
 40
0.7500000000000014
 40
0.7500000000000014
 40
1.0
 40
1.0
 40
1.0
 40
1.0
 10
195.46768969853
 20
103.6011043414042
 30
0.0
 10
195.4863829316604
 20
103.5335217049639
 30
0.0
 10
195.5120382290722
 20
103.4670391354864
 30
0.0
 10
195.5721988517587
 20
103.3780440525889
 30
0.0
 10
195.596271163513
 20
103.3500421555898
 30
0.0
 10
195.6546526838636
 20
103.3069657549246
 30
0.0
 10
195.6901215115166
 20
103.2920722099968
 30
0.0
 10
195.7274973196654
 20
103.2920722099968
 30
0.0
  0
ELLIPSE
  5
CE
330
1F
100
AcDbEntity
  8
0
  6
HIDDEN
 62
     7
370
     0
100
AcDbEllipse
 10
205.7445244901
 20
97.4628592143
 30
0.0
 11
-9.367417879781669
 21
19.74174915274993
 31
0.0
210
0.0
220
0.0
230
1.0
 40
0.3419987131
 41
0.1510717289270561
 42
1.097974043471188
  0
LINE
  5
CF
330
1F
100
AcDbEntity
  8
0
  6
HIDDEN
 62
     7
370
     0
100
AcDbLine
 10
188.7955953177
 20
117.162859213
 30
0.0
 11
188.7955953177
 21
77.7628592143
 31
0.0
  0
LINE
  5
D0
330
1F
100
AcDbEntity
  8
0
  6
HIDDEN
 62
     7
370
     0
100
AcDbLine
 10
250.7955953177
 20
86.4628592143
 30
0.0
 11
250.7955953177
 21
98.4628592143
 31
0.0
  0
LINE
  5
D1
330
1F
100
AcDbEntity
  8
0
  6
HIDDEN
 62
     7
370
     0
100
AcDbLine
 10
258.7955953177
 20
98.4628592143
 30
0.0
 11
258.7955953177
 21
86.4628592143
 31
0.0
  0
LINE
  5
D2
330
1F
100
AcDbEntity
  8
0
  6
HIDDEN
 62
     7
370
     0
100
AcDbLine
 10
188.7955953177
 20
81.6628592143
 30
0.0
 11
188.7955953177
 21
113.246485258
 31
0.0
  0
SPLINE
  5
D3
330
1F
100
AcDbEntity
  8
0
  6
HIDDEN
 62
     7
370
     0
100
AcDbSpline
210
0.0
220
0.0
230
1.0
 70
     8
 71
     3
 72
    18
 73
    14
 74
     0
 42
0.00000001
 43
0.00000001
 12
1.0
 22
0.0
 32
0.0
 13
1.0
 23
0.0
 33
0.0
 40
0.0
 40
0.0
 40
0.0
 40
0.0
 40
0.25
 40
0.25
 40
0.5
 40
0.5
 40
0.625
 40
0.625
 40
0.75
 40
0.75
 40
0.875
 40
0.875
 40
1.0
 40
1.0
 40
1.0
 40
1.0
 10
187.5395110001031
 20
107.2872991324962
 30
0.0
 10
187.5738120446359
 20
107.1792889466987
 30
0.0
 10
187.6116323159327
 20
107.0720118586707
 30
0.0
 10
187.6982506363935
 20
106.8605151613541
 30
0.0
 10
187.746621971137
 20
106.7561288111844
 30
0.0
 10
187.8360249532555
 20
106.6052538885402
 30
0.0
 10
187.8686222371327
 20
106.5559088855046
 30
0.0
 10
187.9450041410776
 20
106.4613032470343
 30
0.0
 10
187.9880425784184
 20
106.4163073122797
 30
0.0
 10
188.0938556112502
 20
106.3453795396218
 30
0.0
 10
188.1588940359813
 20
106.3214329957153
 30
0.0
 10
188.2920461077839
 20
106.3337136597861
 30
0.0
 10
188.3514152882471
 20
106.367030617791
 30
0.0
 10
188.4006184287909
 20
106.4078655040157
 30
0.0
  0
SPLINE
  5
D4
330
1F
100
AcDbEntity
  8
0
  6
HIDDEN
 62
     7
370
     0
100
AcDbSpline
210
0.0
220
0.0
230
1.0
 70
     8
 71
     3
 72
    16
 73
    12
 74
     0
 42
0.00000001
 43
0.00000001
 12
1.0
 22
0.0
 32
0.0
 13
1.0
 23
0.0
 33
0.0
 40
0.0
 40
0.0
 40
0.0
 40
0.0
 40
0.0624999999999978
 40
0.0624999999999978
 40
0.1249999999999955
 40
0.1249999999999955
 40
0.2499999999999948
 40
0.2499999999999948
 40
0.499999999999998
 40
0.499999999999998
 40
1.0
 40
1.0
 40
1.0
 40
1.0
 10
188.4006184287601
 20
106.4078655040451
 30
0.0
 10
188.4126882620359
 20
106.4178825530254
 30
0.0
 10
188.4269639169692
 20
106.4268416600811
 30
0.0
 10
188.4584283290937
 20
106.4347120554753
 30
0.0
 10
188.4739288539041
 20
106.432354564833
 30
0.0
 10
188.5093677505109
 20
106.415378872655
 30
0.0
 10
188.5229603666143
 20
106.3948303814874
 30
0.0
 10
188.5559546850071
 20
106.3328880544737
 30
0.0
 10
188.5667420783259
 20
106.2864925042686
 30
0.0
 10
188.591795325605
 20
106.143556475574
 30
0.0
 10
188.5955953176663
 20
106.0439937586886
 30
0.0
 10
188.5955953176663
 20
105.942226354042
 30
0.0
  0
LINE
  5
D5
330
1F
100
AcDbEntity
  8
0
  6
HIDDEN
 62
     7
370
     0
100
AcDbLine
 10
188.5955953177
 20
88.9834920746
 30
0.0
 11
188.5955953177
 21
105.942226354
 31
0.0
  0
SPLINE
  5
D6
330
1F
100
AcDbEntity
  8
0
  6
HIDDEN
 62
     7
370
     0
100
AcDbSpline
210
0.0
220
0.0
230
1.0
 70
     8
 71
     3
 72
    16
 73
    12
 74
     0
 42
0.00000001
 43
0.00000001
 12
1.0
 22
0.0
 32
0.0
 13
1.0
 23
0.0
 33
0.0
 40
0.0
 40
0.0
 40
0.0
 40
0.0
 40
0.4999999999999989
 40
0.4999999999999989
 40
0.7499999999999983
 40
0.7499999999999983
 40
0.874999999999998
 40
0.874999999999998
 40
0.937499999999999
 40
0.937499999999999
 40
1.0
 40
1.0
 40
1.0
 40
1.0
 10
188.5955953176662
 20
88.98349207464773
 30
0.0
 10
188.5955953176662
 20
88.88148192106766
 30
0.0
 10
188.5917118925072
 20
88.78195754581442
 30
0.0
 10
188.5668965672326
 20
88.63997244980376
 30
0.0
 10
188.5560571195201
 20
88.59297914923332
 30
0.0
 10
188.5228413374712
 20
88.53068641887168
 30
0.0
 10
188.5094595938425
 20
88.5104049865866
 30
0.0
 10
188.4739499439802
 20
88.49336327838614
 30
0.0
 10
188.4585329774795
 20
88.49097702337001
 30
0.0
 10
188.4268319553308
 20
88.49891295322803
 30
0.0
 10
188.4126856703801
 20
88.50783802660261
 30
0.0
 10
188.4006184287904
 20
88.51785292467451
 30
0.0
  0
SPLINE
  5
D7
330
1F
100
AcDbEntity
  8
0
  6
HIDDEN
 62
     7
370
     0
100
AcDbSpline
210
0.0
220
0.0
230
1.0
 70
     8
 71
     3
 72
    18
 73
    14
 74
     0
 42
0.00000001
 43
0.00000001
 12
1.0
 22
0.0
 32
0.0
 13
1.0
 23
0.0
 33
0.0
 40
0.0
 40
0.0
 40
0.0
 40
0.0
 40
0.1249999999999997
 40
0.1249999999999997
 40
0.2499999999999993
 40
0.2499999999999993
 40
0.374999999999999
 40
0.374999999999999
 40
0.4999999999999987
 40
0.4999999999999987
 40
0.7499999999999993
 40
0.7499999999999993
 40
1.0
 40
1.0
 40
1.0
 40
1.0
 10
188.4006184287966
 20
88.51785292468192
 30
0.0
 10
188.3519129366545
 20
88.55827480036338
 30
0.0
 10
188.2934028283276
 20
88.59130692183113
 30
0.0
 10
188.1616737100355
 20
88.60458407378397
 30
0.0
 10
188.0969147736949
 20
88.58163048680379
 30
0.0
 10
187.9917038008354
 20
88.51257728988418
 30
0.0
 10
187.9484874253954
 20
88.46810963804327
 30
0.0
 10
187.8723089202835
 20
88.37493997867325
 30
0.0
 10
187.8394539589036
 20
88.32579760911246
 30
0.0
 10
187.7490856790698
 20
88.17458787417259
 30
0.0
 10
187.6996624446998
 20
88.06843310464437
 30
0.0
 10
187.6120139896516
 20
87.85485148898287
 30
0.0
 10
187.5739548174488
 20
87.7468790577476
 30
0.0
 10
187.5395110001032
 20
87.63841929619365
 30
0.0
  0
SPLINE
  5
D8
330
1F
100
AcDbEntity
  8
0
  6
HIDDEN
 62
     7
370
     0
100
AcDbSpline
210
0.0
220
0.0
230
1.0
 70
     8
 71
     3
 72
     8
 73
     4
 74
     0
 42
0.00000001
 43
0.00000001
 12
1.0
 22
0.0
 32
0.0
 13
1.0
 23
0.0
 33
0.0
 40
0.0
 40
0.0
 40
0.0
 40
0.0
 40
1.0
 40
1.0
 40
1.0
 40
1.0
 10
187.5395110001026
 20
87.63841929619313
 30
0.0
 10
187.5151972962125
 20
87.56185813864306
 30
0.0
 10
187.4937006542564
 20
87.48543276750986
 30
0.0
 10
187.4742749741064
 20
87.40933989673815
 30
0.0
  0
SPLINE
  5
D9
330
1F
100
AcDbEntity
  8
0
  6
HIDDEN
 62
     7
370
     0
100
AcDbSpline
210
0.0
220
0.0
230
1.0
 70
     8
 71
     3
 72
     8
 73
     4
 74
     0
 42
0.00000001
 43
0.00000001
 12
1.0
 22
0.0
 32
0.0
 13
1.0
 23
0.0
 33
0.0
 40
0.0
 40
0.0
 40
0.0
 40
0.0
 40
1.0
 40
1.0
 40
1.0
 40
1.0
 10
187.4742749741064
 20
83.63779520633973
 30
0.0
 10
187.4937004009998
 20
83.63429800275244
 30
0.0
 10
187.5151969549688
 20
83.63228168511021
 30
0.0
 10
187.5395110001031
 20
83.63167083166636
 30
0.0
  0
SPLINE
  5
DA
330
1F
100
AcDbEntity
  8
0
  6
HIDDEN
 62
     7
370
     0
100
AcDbSpline
210
0.0
220
0.0
230
1.0
 70
     8
 71
     3
 72
     8
 73
     4
 74
     0
 42
0.00000001
 43
0.00000001
 12
1.0
 22
0.0
 32
0.0
 13
1.0
 23
0.0
 33
0.0
 40
0.0
 40
0.0
 40
0.0
 40
0.0
 40
1.0
 40
1.0
 40
1.0
 40
1.0
 10
188.5727443045601
 20
83.54231244060824
 30
0.0
 10
188.591681236726
 20
83.51435800320675
 30
0.0
 10
188.5955953176663
 20
83.49427415185043
 30
0.0
 10
188.5955953176663
 20
83.478047307685
 30
0.0
  0
LINE
  5
DB
330
1F
100
AcDbEntity
  8
0
  6
HIDDEN
 62
     7
370
     0
100
AcDbLine
 10
188.5955953177
 20
83.3730389355
 30
0.0
 11
188.5955953177
 21
83.4780473077
 31
0.0
  0
LINE
  5
DC
330
1F
100
AcDbEntity
  8
0
  6
HIDDEN
 62
     7
370
     0
100
AcDbLine
 10
188.5955953177
 20
111.447671121
 30
0.0
 11
188.5955953177
 21
111.5526794932
 31
0.0
  0
SPLINE
  5
DD
330
1F
100
AcDbEntity
  8
0
  6
HIDDEN
 62
     7
370
     0
100
AcDbSpline
210
0.0
220
0.0
230
1.0
 70
     8
 71
     3
 72
     8
 73
     4
 74
     0
 42
0.00000001
 43
0.00000001
 12
1.0
 22
0.0
 32
0.0
 13
1.0
 23
0.0
 33
0.0
 40
0.0
 40
0.0
 40
0.0
 40
0.0
 40
1.0
 40
1.0
 40
1.0
 40
1.0
 10
187.5395110001028
 20
111.2940475970235
 30
0.0
 10
187.5151969549686
 20
111.2934367435796
 30
0.0
 10
187.4937004009997
 20
111.2914204259374
 30
0.0
 10
187.4742749741064
 20
111.2879232223501
 30
0.0
  0
SPLINE
  5
DE
330
1F
100
AcDbEntity
  8
0
  6
HIDDEN
 62
     7
370
     0
100
AcDbSpline
210
0.0
220
0.0
230
1.0
 70
     8
 71
     3
 72
     8
 73
     4
 74
     0
 42
0.00000001
 43
0.00000001
 12
1.0
 22
0.0
 32
0.0
 13
1.0
 23
0.0
 33
0.0
 40
0.0
 40
0.0
 40
0.0
 40
0.0
 40
1.0
 40
1.0
 40
1.0
 40
1.0
 10
187.4742749741064
 20
107.5163785319517
 30
0.0
 10
187.4937006542564
 20
107.44028566118
 30
0.0
 10
187.5151972962125
 20
107.3638602900468
 30
0.0
 10
187.5395110001026
 20
107.2872991324968
 30
0.0
  0
SPLINE
  5
DF
330
1F
100
AcDbEntity
  8
0
  6
HIDDEN
 62
     7
370
     0
100
AcDbSpline
210
0.0
220
0.0
230
1.0
 70
     8
 71
     3
 72
    28
 73
    24
 74
     0
 42
0.00000001
 43
0.00000001
 12
1.0
 22
0.0
 32
0.0
 13
1.0
 23
0.0
 33
0.0
 40
0.0
 40
0.0
 40
0.0
 40
0.0
 40
0.1249999999999995
 40
0.1249999999999995
 40
0.2499999999999991
 40
0.2499999999999991
 40
0.3749999999999986
 40
0.3749999999999986
 40
0.4374999999999983
 40
0.4374999999999983
 40
0.4999999999999981
 40
0.4999999999999981
 40
0.6249999999999978
 40
0.6249999999999978
 40
0.7499999999999973
 40
0.7499999999999973
 40
0.812499999999998
 40
0.812499999999998
 40
0.8749999999999987
 40
0.8749999999999987
 40
0.9374999999999993
 40
0.9374999999999993
 40
1.0
 40
1.0
 40
1.0
 40
1.0
 10
228.7955953176662
 20
94.12204041212148
 30
0.0
 10
228.9217744285526
 20
94.24280429315696
 30
0.0
 10
229.0505575034813
 20
94.39593195031124
 30
0.0
 10
229.3126069444428
 20
94.75953752182194
 30
0.0
 10
229.4404855592117
 20
94.96226879823554
 30
0.0
 10
229.6779819608075
 20
95.40247622956413
 30
0.0
 10
229.7839961589673
 20
95.6328067087964
 30
0.0
 10
229.9022209615177
 20
95.99262492932091
 30
0.0
 10
229.9337104637226
 20
96.1123674772581
 30
0.0
 10
229.9771532448489
 20
96.35245186147762
 30
0.0
 10
229.9888682140999
 20
96.47402091584924
 30
0.0
 10
229.989185826683
 20
96.82339188121365
 30
0.0
 10
229.9421091768976
 20
97.04441949953613
 30
0.0
 10
229.786127659958
 20
97.42316883460084
 30
0.0
 10
229.6784935544246
 20
97.5838570732263
 30
0.0
 10
229.5014660834827
 20
97.76747995881775
 30
0.0
 10
229.4387670227334
 20
97.82003399552805
 30
0.0
 10
229.3121942264618
 20
97.90355511574093
 30
0.0
 10
229.2479903894876
 20
97.93502426760759
 30
0.0
 10
229.1181899691846
 20
97.97703342196696
 30
0.0
 10
229.0520880820257
 20
97.98744732450763
 30
0.0
 10
228.9225355955329
 20
97.98552849162267
 30
0.0
 10
228.8587025883604
 20
97.97348348383625
 30
0.0
 10
228.7955953176662
 20
97.94990400090022
 30
0.0
  0
SPLINE
  5
E0
330
1F
100
AcDbEntity
  8
0
  6
HIDDEN
 62
     7
370
     0
100
AcDbSpline
210
0.0
220
0.0
230
1.0
 70
     8
 71
     3
 72
    40
 73
    36
 74
     0
 42
0.00000001
 43
0.00000001
 12
1.0
 22
0.0
 32
0.0
 13
1.0
 23
0.0
 33
0.0
 40
0.0
 40
0.0
 40
0.0
 40
0.0
 40
0.1249999999999988
 40
0.1249999999999988
 40
0.1874999999999982
 40
0.1874999999999982
 40
0.2499999999999976
 40
0.2499999999999976
 40
0.3124999999999969
 40
0.3124999999999969
 40
0.3437499999999973
 40
0.3437499999999973
 40
0.3749999999999978
 40
0.3749999999999978
 40
0.4374999999999987
 40
0.4374999999999987
 40
0.4687499999999991
 40
0.4687499999999991
 40
0.4999999999999996
 40
0.4999999999999996
 40
0.53125
 40
0.53125
 40
0.5625000000000003
 40
0.5625000000000003
 40
0.6250000000000003
 40
0.6250000000000003
 40
0.6875000000000002
 40
0.6875000000000002
 40
0.7500000000000002
 40
0.7500000000000002
 40
0.8125000000000001
 40
0.8125000000000001
 40
0.8750000000000001
 40
0.8750000000000001
 40
1.0
 40
1.0
 40
1.0
 40
1.0
 10
228.7955953176662
 20
97.94990400090022
 30
0.0
 10
228.2463377930801
 20
97.98157035074111
 30
0.0
 10
227.6981383627306
 20
97.99078519829949
 30
0.0
 10
226.8781865227756
 20
97.95486215095337
 30
0.0
 10
226.605266779036
 20
97.9344602240586
 30
0.0
 10
226.0604996472221
 20
97.8708301619967
 30
0.0
 10
225.7873064799914
 20
97.82741490443196
 30
0.0
 10
225.2491801853485
 20
97.70848318717154
 30
0.0
 10
224.985422964115
 20
97.63352046883034
 30
0.0
 10
224.6017318533088
 20
97.48609701223837
 30
0.0
 10
224.4758467027411
 20
97.43106359948953
 30
0.0
 10
224.22928714921
 20
97.30571063334426
 30
0.0
 10
224.1085393306654
 20
97.23518922325901
 30
0.0
 10
223.7668220939448
 20
97.00005884552547
 30
0.0
 10
223.5605979747298
 20
96.80731263900662
 30
0.0
 10
223.3349661218328
 20
96.46819417260625
 30
0.0
 10
223.2728143983722
 20
96.34462947725798
 30
0.0
 10
223.1890230525832
 20
96.09258518693726
 30
0.0
 10
223.1663300594743
 20
95.96042310759023
 30
0.0
 10
223.1653046228617
 20
95.70525350182864
 30
0.0
 10
223.1868313162015
 20
95.57874544580734
 30
0.0
 10
223.2690072240412
 20
95.34502238916563
 30
0.0
 10
223.3300948635695
 20
95.2357617205306
 30
0.0
 10
223.5549450332707
 20
94.94300998811099
 30
0.0
 10
223.7612447750319
 20
94.79069171447172
 30
0.0
 10
224.2136460088804
 20
94.5536955707961
 30
0.0
 10
224.4651831514734
 20
94.46533089931879
 30
0.0
 10
224.9786169342934
 20
94.32795284340736
 30
0.0
 10
225.2425749446068
 20
94.27806469675917
 30
0.0
 10
225.7799827366763
 20
94.20008456980452
 30
0.0
 10
226.0539839116532
 20
94.17227524988375
 30
0.0
 10
226.6004074983983
 20
94.13183704831735
 30
0.0
 10
226.8740723147963
 20
94.119102000425
 30
0.0
 10
227.6960715394867
 20
94.09666300681099
 30
0.0
 10
228.2453893404385
 20
94.10230262051454
 30
0.0
 10
228.7955953176662
 20
94.12204041212148
 30
0.0
  0
LINE
  5
E1
330
1F
100
AcDbEntity
  8
0
  6
HIDDEN
 62
     7
370
     0
100
AcDbLine
 10
250.7955953177
 20
94.9354520986
 30
0.0
 11
250.7955953177
 21
90.704384175
 31
0.0
  0
LINE
  5
E2
330
1F
100
AcDbEntity
  8
0
  6
HIDDEN
 62
     7
370
     0
100
AcDbLine
 10
188.5955953177
 20
83.4780473077
 30
0.0
 11
188.5955953177
 21
91.9574144474
 31
0.0
  0
LINE
  5
E3
330
1F
100
AcDbEntity
  8
0
  6
HIDDEN
 62
     7
370
     0
100
AcDbLine
 10
188.5955953177
 20
102.9683039813
 30
0.0
 11
188.5955953177
 21
111.447671121
 31
0.0
  0
CIRCLE
  5
E4
330
1F
100
AcDbEntity
  8
0
  6
HIDDEN
 62
     7
370
     0
100
AcDbCircle
 10
177.2955953177
 20
97.4628592143
 30
0.0
 40
2.299999999999997
  0
LINE
  5
E5
330
1F
100
AcDbEntity
  8
0
  6
HIDDEN
 62
     7
370
     0
100
AcDbLine
 10
165.8226273497
 20
107.0255525185
 30
0.0
 11
165.8226273497
 21
87.9001659102
 31
0.0
  0
LINE
  5
E6
330
1F
100
AcDbEntity
  8
0
  6
HIDDEN
 62
     7
370
     0
100
AcDbLine
 10
164.7955953177
 20
87.3072086901
 30
0.0
 11
164.7955953177
 21
107.6019469281
 31
0.0
  0
LINE
  5
E7
330
1F
100
AcDbEntity
  8
0
  6
HIDDEN
 62
     7
370
     0
100
AcDbLine
 10
169.3226273497
 20
106.693799322
 30
0.0
 11
169.3226273497
 21
88.2319191067
 31
0.0
  0
LINE
  5
E8
330
1F
100
AcDbEntity
  8
0
  6
HIDDEN
 62
     7
370
     0
100
AcDbLine
 10
172.7226273497
 20
106.4628592143
 30
0.0
 11
172.7226273497
 21
88.4628592143
 31
0.0
  0
LINE
  5
E9
330
1F
100
AcDbEntity
  8
0
  6
HIDDEN
 62
     7
370
     0
100
AcDbLine
 10
167.9226273497
 20
106.4628592143
 30
0.0
 11
167.9226273497
 21
88.4628592143
 31
0.0
  0
LINE
  5
EA
330
1F
100
AcDbEntity
  8
0
  6
HIDDEN
 62
     7
370
     0
100
AcDbLine
 10
168.9226273497
 20
106.4628592143
 30
0.0
 11
168.9226273497
 21
88.4628592143
 31
0.0
  0
SPLINE
  5
EB
330
1F
100
AcDbEntity
  8
0
  6
HIDDEN
 62
     7
370
     0
100
AcDbSpline
210
0.0
220
0.0
230
1.0
 70
     8
 71
     3
 72
    14
 73
    10
 74
     0
 42
0.00000001
 43
0.00000001
 12
1.0
 22
0.0
 32
0.0
 13
1.0
 23
0.0
 33
0.0
 40
0.0
 40
0.0
 40
0.0
 40
0.0
 40
0.2500000000000001
 40
0.2500000000000001
 40
0.5000000000000001
 40
0.5000000000000001
 40
0.75
 40
0.75
 40
1.0
 40
1.0
 40
1.0
 40
1.0
 10
179.2955953176661
 20
98.598640883505
 30
0.0
 10
179.3938196641691
 20
98.42567745370147
 30
0.0
 10
179.4691345021532
 20
98.24064489927707
 30
0.0
 10
179.5701012123475
 20
97.85763268514258
 30
0.0
 10
179.5954767986377
 20
97.66291413167697
 30
0.0
 10
179.595713023904
 20
97.26553883041139
 30
0.0
 10
179.5700099545685
 20
97.06804649593599
 30
0.0
 10
179.469689841052
 20
96.68687466130497
 30
0.0
 10
179.3937980129644
 20
96.5000028493324
 30
0.0
 10
179.2955953176707
 20
96.3270775451825
 30
0.0
  0
LINE
  5
EC
330
1F
100
AcDbEntity
  8
0
  6
HIDDEN
 62
     7
370
     0
100
AcDbLine
 10
179.7955953177
 20
105.9628591551
 30
0.0
 11
179.7955953177
 21
88.9628592143
 31
0.0
  0
SPLINE
  5
ED
330
1F
100
AcDbEntity
  8
0
  6
HIDDEN
 62
     7
370
     0
100
AcDbSpline
210
0.0
220
0.0
230
1.0
 70
     8
 71
     3
 72
    14
 73
    10
 74
     0
 42
0.00000001
 43
0.00000001
 12
1.0
 22
0.0
 32
0.0
 13
1.0
 23
0.0
 33
0.0
 40
0.0
 40
0.0
 40
0.0
 40
0.0
 40
0.2500000000000001
 40
0.2500000000000001
 40
0.5000000000000001
 40
0.5000000000000001
 40
0.75
 40
0.75
 40
1.0
 40
1.0
 40
1.0
 40
1.0
 10
179.2955953176661
 20
96.32707754518486
 30
0.0
 10
179.3938196641691
 20
96.5000409749884
 30
0.0
 10
179.4691345021532
 20
96.68507352941279
 30
0.0
 10
179.5701012123475
 20
97.06808574354727
 30
0.0
 10
179.5954767986377
 20
97.26280429701289
 30
0.0
 10
179.595713023904
 20
97.66017959827848
 30
0.0
 10
179.5700099545685
 20
97.85767193275387
 30
0.0
 10
179.469689841052
 20
98.23884376738488
 30
0.0
 10
179.3937980129644
 20
98.42571557935746
 30
0.0
 10
179.2955953176707
 20
98.59864088350736
 30
0.0
  0
SPLINE
  5
EE
330
1F
100
AcDbEntity
  8
0
  6
HIDDEN
 62
     7
370
     0
100
AcDbSpline
210
0.0
220
0.0
230
1.0
 70
     8
 71
     3
 72
    60
 73
    56
 74
     0
 42
0.00000001
 43
0.00000001
 12
1.0
 22
0.0
 32
0.0
 13
1.0
 23
0.0
 33
0.0
 40
0.0
 40
0.0
 40
0.0
 40
0.0
 40
0.0625000000000005
 40
0.0625000000000005
 40
0.125000000000001
 40
0.125000000000001
 40
0.1875000000000014
 40
0.1875000000000014
 40
0.2187500000000015
 40
0.2187500000000015
 40
0.2500000000000016
 40
0.2500000000000016
 40
0.3125000000000017
 40
0.3125000000000017
 40
0.3750000000000017
 40
0.3750000000000017
 40
0.4062500000000017
 40
0.4062500000000017
 40
0.4375000000000016
 40
0.4375000000000016
 40
0.4687500000000016
 40
0.4687500000000016
 40
0.5000000000000014
 40
0.5000000000000014
 40
0.5312500000000014
 40
0.5312500000000014
 40
0.5625000000000013
 40
0.5625000000000013
 40
0.5937500000000013
 40
0.5937500000000013
 40
0.6250000000000012
 40
0.6250000000000012
 40
0.6562500000000011
 40
0.6562500000000011
 40
0.687500000000001
 40
0.687500000000001
 40
0.7187500000000009
 40
0.7187500000000009
 40
0.7500000000000008
 40
0.7500000000000008
 40
0.7812500000000008
 40
0.7812500000000008
 40
0.8125000000000007
 40
0.8125000000000007
 40
0.8437500000000006
 40
0.8437500000000006
 40
0.8750000000000004
 40
0.8750000000000004
 40
0.9062500000000003
 40
0.9062500000000003
 40
0.9375000000000003
 40
0.9375000000000003
 40
0.9687500000000002
 40
0.9687500000000002
 40
1.0
 40
1.0
 40
1.0
 40
1.0
 10
179.2955953176661
 20
96.32707754518486
 30
0.0
 10
179.1704054160874
 20
96.10663042056929
 30
0.0
 10
179.0135380975193
 20
95.91289669174895
 30
0.0
 10
178.6365005777004
 20
95.57720699298652
 30
0.0
 10
178.4247872712795
 20
95.44322963467378
 30
0.0
 10
177.9588972893307
 20
95.24610288998865
 30
0.0
 10
177.7130580582791
 20
95.18688547776678
 30
0.0
 10
177.3335770051845
 20
95.15967874187612
 30
0.0
 10
177.2058312764906
 20
95.16117200701798
 30
0.0
 10
176.9553650298225
 20
95.18468781282692
 30
0.0
 10
176.8315356470142
 20
95.20660703163115
 30
0.0
 10
176.4643159729156
 20
95.30344359647606
 30
0.0
 10
176.2335469548299
 20
95.40724471792784
 30
0.0
 10
175.8136579934104
 20
95.68596319885587
 30
0.0
 10
175.6293996185228
 20
95.85752549035959
 30
0.0
 10
175.3986512310395
 20
96.15617285162638
 30
0.0
 10
175.3296043812505
 20
96.26264039212867
 30
0.0
 10
175.211039717445
 20
96.48292374052163
 30
0.0
 10
175.1608313486954
 20
96.59758525692304
 30
0.0
 10
175.0789994963376
 20
96.83626589369982
 30
0.0
 10
175.0476485974549
 20
96.96031152057789
 30
0.0
 10
175.0062542194163
 20
97.20842655668626
 30
0.0
 10
174.995748444352
 20
97.33366425917471
 30
0.0
 10
174.9954454920163
 20
97.58654331476573
 30
0.0
 10
175.0059300216328
 20
97.71442300100236
 30
0.0
 10
175.0470700990943
 20
97.96284506220782
 30
0.0
 10
175.0776482196428
 20
98.0846439889762
 30
0.0
 10
175.1589309279941
 20
98.32342351845053
 30
0.0
 10
175.2099318145561
 20
98.44046508075718
 30
0.0
 10
175.3284988629191
 20
98.6612902786831
 30
0.0
 10
175.3963876161909
 20
98.76622864224586
 30
0.0
 10
175.5495380539285
 20
98.96520597547527
 30
0.0
 10
175.635094225501
 20
99.05921410066942
 30
0.0
 10
175.8178055964602
 20
99.22970678560617
 30
0.0
 10
175.9156128961421
 20
99.30714498065551
 30
0.0
 10
176.1244160080591
 20
99.44631087654379
 30
0.0
 10
176.235998183347
 20
99.50809268555079
 30
0.0
 10
176.464643982846
 20
99.61117155615158
 30
0.0
 10
176.5825987938171
 20
99.65317559134724
 30
0.0
 10
176.8259272388058
 20
99.71791171264402
 30
0.0
 10
176.9522711141489
 20
99.7405849752067
 30
0.0
 10
177.2033770951668
 20
99.76446777138784
 30
0.0
 10
177.3290590888897
 20
99.76607107265453
 30
0.0
 10
177.5806811586815
 20
99.74860433388362
 30
0.0
 10
177.7075787789672
 20
99.72916844324368
 30
0.0
 10
177.9527693452284
 20
99.67057527192001
 30
0.0
 10
178.0719585022619
 20
99.63151242076339
 30
0.0
 10
178.3036435266167
 20
99.5340026986396
 30
0.0
 10
178.4168183309672
 20
99.474967344351
 30
0.0
 10
178.6288967479029
 20
99.3411636275115
 30
0.0
 10
178.7286855266038
 20
99.26616841136675
 30
0.0
 10
178.9159437135927
 20
99.09997334684593
 30
0.0
 10
179.0038387505361
 20
99.00807914810441
 30
0.0
 10
179.162059826168
 20
98.81271495039007
 30
0.0
 10
179.2329977824596
 20
98.7088689967176
 30
0.0
 10
179.2955953176661
 20
98.59864088350498
 30
0.0
  0
SPLINE
  5
EF
330
1F
100
AcDbEntity
  8
0
  6
HIDDEN
 62
     7
370
     0
100
AcDbSpline
210
0.0
220
0.0
230
1.0
 70
     8
 71
     3
 72
    60
 73
    56
 74
     0
 42
0.00000001
 43
0.00000001
 12
1.0
 22
0.0
 32
0.0
 13
1.0
 23
0.0
 33
0.0
 40
0.0
 40
0.0
 40
0.0
 40
0.0
 40
0.0625000000000005
 40
0.0625000000000005
 40
0.125000000000001
 40
0.125000000000001
 40
0.1875000000000014
 40
0.1875000000000014
 40
0.2187500000000015
 40
0.2187500000000015
 40
0.2500000000000016
 40
0.2500000000000016
 40
0.3125000000000017
 40
0.3125000000000017
 40
0.3750000000000017
 40
0.3750000000000017
 40
0.4062500000000017
 40
0.4062500000000017
 40
0.4375000000000016
 40
0.4375000000000016
 40
0.4687500000000016
 40
0.4687500000000016
 40
0.5000000000000014
 40
0.5000000000000014
 40
0.5312500000000014
 40
0.5312500000000014
 40
0.5625000000000013
 40
0.5625000000000013
 40
0.5937500000000013
 40
0.5937500000000013
 40
0.6250000000000012
 40
0.6250000000000012
 40
0.6562500000000011
 40
0.6562500000000011
 40
0.687500000000001
 40
0.687500000000001
 40
0.7187500000000009
 40
0.7187500000000009
 40
0.7500000000000008
 40
0.7500000000000008
 40
0.7812500000000008
 40
0.7812500000000008
 40
0.8125000000000007
 40
0.8125000000000007
 40
0.8437500000000006
 40
0.8437500000000006
 40
0.8750000000000004
 40
0.8750000000000004
 40
0.9062500000000003
 40
0.9062500000000003
 40
0.9375000000000003
 40
0.9375000000000003
 40
0.9687500000000002
 40
0.9687500000000002
 40
1.0
 40
1.0
 40
1.0
 40
1.0
 10
179.2955953176661
 20
98.598640883505
 30
0.0
 10
179.1704054160874
 20
98.81908800812057
 30
0.0
 10
179.0135380975193
 20
99.0128217369409
 30
0.0
 10
178.6365005777004
 20
99.34851143570333
 30
0.0
 10
178.4247872712795
 20
99.48248879401606
 30
0.0
 10
177.9588972893307
 20
99.67961553870121
 30
0.0
 10
177.7130580582791
 20
99.73883295092308
 30
0.0
 10
177.3335770051845
 20
99.76603968681374
 30
0.0
 10
177.2058312764906
 20
99.76454642167187
 30
0.0
 10
176.9553650298225
 20
99.74103061586294
 30
0.0
 10
176.8315356470142
 20
99.71911139705871
 30
0.0
 10
176.4643159729156
 20
99.6222748322138
 30
0.0
 10
176.2335469548299
 20
99.51847371076201
 30
0.0
 10
175.8136579934104
 20
99.23975522983399
 30
0.0
 10
175.6293996185228
 20
99.06819293833027
 30
0.0
 10
175.3986512310395
 20
98.76954557706348
 30
0.0
 10
175.3296043812505
 20
98.66307803656119
 30
0.0
 10
175.211039717445
 20
98.44279468816823
 30
0.0
 10
175.1608313486954
 20
98.32813317176682
 30
0.0
 10
175.0789994963376
 20
98.08945253499004
 30
0.0
 10
175.0476485974549
 20
97.96540690811196
 30
0.0
 10
175.0062542194163
 20
97.71729187200359
 30
0.0
 10
174.995748444352
 20
97.59205416951515
 30
0.0
 10
174.9954454920163
 20
97.33917511392411
 30
0.0
 10
175.0059300216328
 20
97.2112954276875
 30
0.0
 10
175.0470700990943
 20
96.96287336648204
 30
0.0
 10
175.0776482196428
 20
96.84107443971367
 30
0.0
 10
175.1589309279941
 20
96.60229491023934
 30
0.0
 10
175.2099318145561
 20
96.48525334793267
 30
0.0
 10
175.3284988629191
 20
96.26442815000675
 30
0.0
 10
175.3963876161909
 20
96.159489786444
 30
0.0
 10
175.5495380539285
 20
95.96051245321459
 30
0.0
 10
175.635094225501
 20
95.86650432802044
 30
0.0
 10
175.8178055964602
 20
95.6960116430837
 30
0.0
 10
175.9156128961421
 20
95.61857344803435
 30
0.0
 10
176.1244160080591
 20
95.47940755214607
 30
0.0
 10
176.235998183347
 20
95.41762574313907
 30
0.0
 10
176.464643982846
 20
95.31454687253827
 30
0.0
 10
176.5825987938171
 20
95.27254283734263
 30
0.0
 10
176.8259272388058
 20
95.20780671604584
 30
0.0
 10
176.9522711141489
 20
95.18513345348316
 30
0.0
 10
177.2033770951668
 20
95.16125065730202
 30
0.0
 10
177.3290590888897
 20
95.15964735603534
 30
0.0
 10
177.5806811586815
 20
95.17711409480624
 30
0.0
 10
177.7075787789672
 20
95.19654998544617
 30
0.0
 10
177.9527693452284
 20
95.25514315676985
 30
0.0
 10
178.0719585022619
 20
95.29420600792648
 30
0.0
 10
178.3036435266167
 20
95.39171573005027
 30
0.0
 10
178.4168183309672
 20
95.45075108433886
 30
0.0
 10
178.6288967479029
 20
95.58455480117834
 30
0.0
 10
178.7286855266038
 20
95.65955001732311
 30
0.0
 10
178.9159437135927
 20
95.82574508184392
 30
0.0
 10
179.0038387505361
 20
95.91763928058545
 30
0.0
 10
179.162059826168
 20
96.11300347829979
 30
0.0
 10
179.2329977824596
 20
96.21684943197225
 30
0.0
 10
179.2955953176661
 20
96.32707754518488
 30
0.0
  0
LINE
  5
F0
330
1F
100
AcDbEntity
  8
0
  6
HIDDEN
 62
     7
370
     0
100
AcDbLine
 10
180.6955953177
 20
103.7128592143
 30
0.0
 11
180.6955953177
 21
91.2128592143
 31
0.0
  0
LINE
  5
F1
330
1F
100
AcDbEntity
  8
0
  6
HIDDEN
 62
     7
370
     0
100
AcDbLine
 10
179.7955953177
 20
90.3128592143
 30
0.0
 11
179.7955953177
 21
104.6128592143
 31
0.0
  0
LINE
  5
F2
330
1F
100
AcDbEntity
  8
0
  6
HIDDEN
 62
     7
370
     0
100
AcDbLine
 10
199.7955953177
 20
103.7128592143
 30
0.0
 11
199.7955953177
 21
91.2128592143
 31
0.0
  0
LINE
  5
F3
330
1F
100
AcDbEntity
  8
0
  6
HIDDEN
 62
     7
370
     0
100
AcDbLine
 10
200.9973165557
 20
101.7128592143
 30
0.0
 11
200.9973165557
 21
93.2128592143
 31
0.0
  0
LINE
  5
F4
330
1F
100
AcDbEntity
  8
0
  6
HIDDEN
 62
     7
370
     0
100
AcDbLine
 10
222.2955953177
 20
67.4628592143
 30
0.0
 11
222.2955953177
 21
87.4628592143
 31
0.0
  0
LINE
  5
F5
330
1F
100
AcDbEntity
  8
0
  6
HIDDEN
 62
     7
370
     0
100
AcDbLine
 10
222.2955953177
 20
87.4628592143
 30
0.0
 11
213.7955953177
 21
87.4628592143
 31
0.0
  0
LINE
  5
F6
330
1F
100
AcDbEntity
  8
0
  6
HIDDEN
 62
     7
370
     0
100
AcDbLine
 10
213.7955953177
 20
67.4628592143
 30
0.0
 11
213.7955953177
 21
87.4628592143
 31
0.0
  0
LINE
  5
F7
330
1F
100
AcDbEntity
  8
0
  6
HIDDEN
 62
     7
370
     0
100
AcDbLine
 10
213.7955953177
 20
67.4628592143
 30
0.0
 11
222.2955953177
 21
67.4628592143
 31
0.0
  0
LINE
  5
F8
330
1F
100
AcDbEntity
  8
0
  6
HIDDEN
 62
     7
370
     0
100
AcDbLine
 10
228.7955953177
 20
93.2128592143
 30
0.0
 11
228.7955953177
 21
101.7128592143
 31
0.0
  0
LINE
  5
F9
330
1F
100
AcDbEntity
  8
0
  6
HIDDEN
 62
     7
370
     0
100
AcDbLine
 10
258.7955953177
 20
87.4628592143
 30
0.0
 11
222.2955953177
 21
87.4628592143
 31
0.0
  0
CIRCLE
  5
FA
330
1F
100
AcDbEntity
  8
0
  6
HIDDEN
 62
     7
370
     0
100
AcDbCircle
 10
250.7955953177
 20
77.4628592143
 30
0.0
 40
4.25
  0
CIRCLE
  5
FB
330
1F
100
AcDbEntity
  8
0
  6
HIDDEN
 62
     7
370
     0
100
AcDbCircle
 10
230.7955953177
 20
77.4628592143
 30
0.0
 40
4.25
  0
LINE
  5
FC
330
1F
100
AcDbEntity
  8
0
  6
HIDDEN
 62
     7
370
     0
100
AcDbLine
 10
258.7955953177
 20
68.4628592143
 30
0.0
 11
257.7955953177
 21
67.4628592143
 31
0.0
  0
LINE
  5
FD
330
1F
100
AcDbEntity
  8
0
  6
HIDDEN
 62
     7
370
     0
100
AcDbLine
 10
222.2955953177
 20
67.4628592143
 30
0.0
 11
257.7955953177
 21
67.4628592143
 31
0.0
  0
LINE
  5
FE
330
1F
100
AcDbEntity
  8
0
  6
HIDDEN
 62
     7
370
     0
100
AcDbLine
 10
258.7955953177
 20
87.4628592143
 30
0.0
 11
258.7955953177
 21
68.4628592143
 31
0.0
  0
LINE
  5
FF
330
1F
100
AcDbEntity
  8
0
  6
HIDDEN
 62
     7
370
     0
100
AcDbLine
 10
187.0955953177
 20
83.542622826
 30
0.0
 11
187.0955953177
 21
83.4427604298
 31
0.0
  0
SPLINE
  5
100
330
1F
100
AcDbEntity
  8
0
  6
HIDDEN
 62
     7
370
     0
100
AcDbSpline
210
0.0
220
0.0
230
1.0
 70
     8
 71
     3
 72
    24
 73
    20
 74
     0
 42
0.00000001
 43
0.00000001
 12
1.0
 22
0.0
 32
0.0
 13
1.0
 23
0.0
 33
0.0
 40
0.0
 40
0.0
 40
0.0
 40
0.0
 40
0.2499999999999953
 40
0.2499999999999953
 40
0.3749999999999938
 40
0.3749999999999938
 40
0.437499999999993
 40
0.437499999999993
 40
0.4687499999999926
 40
0.4687499999999926
 40
0.4999999999999921
 40
0.4999999999999921
 40
0.5624999999999929
 40
0.5624999999999929
 40
0.6249999999999938
 40
0.6249999999999938
 40
0.749999999999995
 40
0.749999999999995
 40
1.0
 40
1.0
 40
1.0
 40
1.0
 10
187.0955953176661
 20
83.5426228260375
 30
0.0
 10
187.0959982283019
 20
83.5730470628755
 30
0.0
 10
187.0980422076425
 20
83.60590516342965
 30
0.0
 10
187.1072794504686
 20
83.66193053058322
 30
0.0
 10
187.1111665134491
 20
83.68154158376863
 30
0.0
 10
187.1220704048557
 20
83.71581586719816
 30
0.0
 10
187.1262124506062
 20
83.72787829267037
 30
0.0
 10
187.1381075243589
 20
83.75019745736985
 30
0.0
 10
187.1433545886677
 20
83.75916396973012
 30
0.0
 10
187.1602216550468
 20
83.77681353425643
 30
0.0
 10
187.168044062572
 20
83.78095781839625
 30
0.0
 10
187.1849928631936
 20
83.78744535957028
 30
0.0
 10
187.1924492144115
 20
83.78684847819864
 30
0.0
 10
187.206509117604
 20
83.78510221422661
 30
0.0
 10
187.2126415027399
 20
83.78327152632814
 30
0.0
 10
187.2299362652631
 20
83.7767051167553
 30
0.0
 10
187.2399535836721
 20
83.7708399015966
 30
0.0
 10
187.2683249179149
 20
83.75209521756625
 30
0.0
 10
187.2848603555593
 20
83.73793106947961
 30
0.0
 10
187.3005553397238
 20
83.72377468318736
 30
0.0
  0
LINE
  5
101
330
1F
100
AcDbEntity
  8
0
  6
HIDDEN
 62
     7
370
     0
100
AcDbLine
 10
166.2955953177
 20
87.8052482946
 30
0.0
 11
166.2955953177
 21
83.9653288285
 31
0.0
  0
LINE
  5
102
330
1F
100
AcDbEntity
  8
0
  6
HIDDEN
 62
     7
370
     0
100
AcDbLine
 10
164.7955953177
 20
88.2382609965
 30
0.0
 11
164.7955953177
 21
84.8313542323
 31
0.0
  0
LINE
  5
103
330
1F
100
AcDbEntity
  8
0
  6
HIDDEN
 62
     7
370
     0
100
AcDbLine
 10
187.0955953177
 20
87.5439640952
 30
0.0
 11
187.0955953177
 21
86.4888212221
 31
0.0
  0
SPLINE
  5
104
330
1F
100
AcDbEntity
  8
0
  6
HIDDEN
 62
     7
370
     0
100
AcDbSpline
210
0.0
220
0.0
230
1.0
 70
     8
 71
     3
 72
    16
 73
    12
 74
     0
 42
0.00000001
 43
0.00000001
 12
1.0
 22
0.0
 32
0.0
 13
1.0
 23
0.0
 33
0.0
 40
0.0
 40
0.0
 40
0.0
 40
0.0
 40
0.2499999999999995
 40
0.2499999999999995
 40
0.3749999999999996
 40
0.3749999999999996
 40
0.4999999999999997
 40
0.4999999999999997
 40
0.7499999999999998
 40
0.7499999999999998
 40
1.0
 40
1.0
 40
1.0
 40
1.0
 10
187.095595317666
 20
86.48882122209852
 30
0.0
 10
187.0150579857668
 20
86.09981403815452
 30
0.0
 10
186.9550206417396
 20
85.74331359653016
 30
0.0
 10
186.894282934586
 20
85.25681121134284
 30
0.0
 10
186.878960559473
 20
85.1027322704894
 30
0.0
 10
186.8583777501688
 20
84.81126271199673
 30
0.0
 10
186.853178153143
 20
84.67369282809786
 30
0.0
 10
186.8531244999627
 20
84.2954479929086
 30
0.0
 10
186.8733220434402
 20
84.08556692435653
 30
0.0
 10
186.9540001317976
 20
83.7489876254447
 30
0.0
 10
187.0150462964047
 20
83.62270313352616
 30
0.0
 10
187.0955953176623
 20
83.54262282603368
 30
0.0
  0
SPLINE
  5
105
330
1F
100
AcDbEntity
  8
0
  6
HIDDEN
 62
     7
370
     0
100
AcDbSpline
210
0.0
220
0.0
230
1.0
 70
     8
 71
     3
 72
     8
 73
     4
 74
     0
 42
0.00000001
 43
0.00000001
 12
1.0
 22
0.0
 32
0.0
 13
1.0
 23
0.0
 33
0.0
 40
0.0
 40
0.0
 40
0.0
 40
0.0
 40
1.0
 40
1.0
 40
1.0
 40
1.0
 10
187.3005553397238
 20
83.72377468318733
 30
0.0
 10
187.3512824829304
 20
83.67802038186211
 30
0.0
 10
187.4091698124913
 20
83.64951623599859
 30
0.0
 10
187.4742749741065
 20
83.63779520633977
 30
0.0
  0
LINE
  5
106
330
1F
100
AcDbEntity
  8
0
  6
HIDDEN
 62
     7
370
     0
100
AcDbLine
 10
166.2955953177
 20
110.9603896002
 30
0.0
 11
166.2955953177
 21
107.1204701341
 31
0.0
  0
LINE
  5
107
330
1F
100
AcDbEntity
  8
0
  6
HIDDEN
 62
     7
370
     0
100
AcDbLine
 10
164.7955953177
 20
110.0943641964
 30
0.0
 11
164.7955953177
 21
106.6874574322
 31
0.0
  0
LINE
  5
108
330
1F
100
AcDbEntity
  8
0
  6
HIDDEN
 62
     7
370
     0
100
AcDbLine
 10
187.0955953177
 20
111.4829579989
 30
0.0
 11
187.0955953177
 21
111.3830956027
 31
0.0
  0
LINE
  5
109
330
1F
100
AcDbEntity
  8
0
  6
HIDDEN
 62
     7
370
     0
100
AcDbLine
 10
187.0955953177
 20
108.4368972066
 30
0.0
 11
187.0955953177
 21
107.3817543334
 31
0.0
  0
SPLINE
  5
10A
330
1F
100
AcDbEntity
  8
0
  6
HIDDEN
 62
     7
370
     0
100
AcDbSpline
210
0.0
220
0.0
230
1.0
 70
     8
 71
     3
 72
    16
 73
    12
 74
     0
 42
0.00000001
 43
0.00000001
 12
1.0
 22
0.0
 32
0.0
 13
1.0
 23
0.0
 33
0.0
 40
0.0
 40
0.0
 40
0.0
 40
0.0
 40
0.2500000000000003
 40
0.2500000000000003
 40
0.3750000000000003
 40
0.3750000000000003
 40
0.5000000000000002
 40
0.5000000000000002
 40
0.7500000000000001
 40
0.7500000000000001
 40
1.0
 40
1.0
 40
1.0
 40
1.0
 10
187.095595317666
 20
111.3830956026598
 30
0.0
 10
187.0150579857667
 20
111.3030269165074
 30
0.0
 10
186.9550206417394
 20
111.1791624250172
 30
0.0
 10
186.8942829345857
 20
110.9284816010851
 30
0.0
 10
186.8789605594728
 20
110.8340429967756
 30
0.0
 10
186.8583777501686
 20
110.6227319291569
 30
0.0
 10
186.8531781531429
 20
110.5054424744033
 30
0.0
 10
186.8531244999629
 20
110.127406802648
 30
0.0
 10
186.8733220434406
 20
109.8386296489039
 30
0.0
 10
186.9540001317986
 20
109.1887897857651
 30
0.0
 10
187.015046296406
 20
108.8259608518724
 30
0.0
 10
187.0955953176641
 20
108.4368972066007
 30
0.0
  0
SPLINE
  5
10B
330
1F
100
AcDbEntity
  8
0
  6
HIDDEN
 62
     7
370
     0
100
AcDbSpline
210
0.0
220
0.0
230
1.0
 70
     8
 71
     3
 72
    24
 73
    20
 74
     0
 42
0.00000001
 43
0.00000001
 12
1.0
 22
0.0
 32
0.0
 13
1.0
 23
0.0
 33
0.0
 40
0.0
 40
0.0
 40
0.0
 40
0.0
 40
0.2500000000000029
 40
0.2500000000000029
 40
0.3750000000000058
 40
0.3750000000000058
 40
0.4375000000000071
 40
0.4375000000000071
 40
0.5000000000000084
 40
0.5000000000000084
 40
0.5312500000000078
 40
0.5312500000000078
 40
0.5625000000000072
 40
0.5625000000000072
 40
0.625000000000007
 40
0.625000000000007
 40
0.7500000000000048
 40
0.7500000000000048
 40
1.0
 40
1.0
 40
1.0
 40
1.0
 10
187.3005553397266
 20
111.2019437455049
 30
0.0
 10
187.2847887514282
 20
111.1877227745167
 30
0.0
 10
187.2681772184735
 20
111.1734924841818
 30
0.0
 10
187.2396508705156
 20
111.1546954289604
 30
0.0
 10
187.2295654367256
 20
111.1488070086191
 30
0.0
 10
187.2120826661907
 20
111.1422696138167
 30
0.0
 10
187.2058750097451
 20
111.1404583998156
 30
0.0
 10
187.1916035094999
 20
111.1388525973091
 30
0.0
 10
187.1840334389969
 20
111.138299819923
 30
0.0
 10
187.1666371095616
 20
111.1454985646357
 30
0.0
 10
187.1581778366016
 20
111.1505903133834
 30
0.0
 10
187.142116872054
 20
111.1684052458625
 30
0.0
 10
187.1372836362077
 20
111.1769276607249
 30
0.0
 10
187.1258577164724
 20
111.1988240973737
 30
0.0
 10
187.1218363605899
 20
111.2105646201796
 30
0.0
 10
187.1110758655588
 20
111.244614884133
 30
0.0
 10
187.1072015564979
 20
111.2641898731617
 30
0.0
 10
187.0980286843708
 20
111.3200381818429
 30
0.0
 10
187.095996313656
 20
111.3528159428717
 30
0.0
 10
187.0955953176662
 20
111.3830956026597
 30
0.0
  0
SPLINE
  5
10C
330
1F
100
AcDbEntity
  8
0
  6
HIDDEN
 62
     7
370
     0
100
AcDbSpline
210
0.0
220
0.0
230
1.0
 70
     8
 71
     3
 72
     8
 73
     4
 74
     0
 42
0.00000001
 43
0.00000001
 12
1.0
 22
0.0
 32
0.0
 13
1.0
 23
0.0
 33
0.0
 40
0.0
 40
0.0
 40
0.0
 40
0.0
 40
1.0
 40
1.0
 40
1.0
 40
1.0
 10
187.4742749741065
 20
111.2879232223501
 30
0.0
 10
187.4091698124925
 20
111.2762021926915
 30
0.0
 10
187.3512824829325
 20
111.2476980468287
 30
0.0
 10
187.3005553397265
 20
111.201943745505
 30
0.0
  0
LINE
  5
10D
330
1F
100
AcDbEntity
  8
0
  6
HIDDEN
 62
     7
370
     0
100
AcDbLine
 10
164.7955953177
 20
106.6874574322
 30
0.0
 11
164.7955953177
 21
99.313073028
 31
0.0
  0
LINE
  5
10E
330
1F
100
AcDbEntity
  8
0
  6
HIDDEN
 62
     7
370
     0
100
AcDbLine
 10
164.7955953177
 20
95.6126454007
 30
0.0
 11
164.7955953177
 21
88.2382609965
 31
0.0
  0
SPLINE
  5
10F
330
1F
100
AcDbEntity
  8
0
  6
HIDDEN
 62
     7
370
     0
100
AcDbSpline
210
0.0
220
0.0
230
1.0
 70
     8
 71
     3
 72
    24
 73
    20
 74
     0
 42
0.00000001
 43
0.00000001
 12
1.0
 22
0.0
 32
0.0
 13
1.0
 23
0.0
 33
0.0
 40
0.0
 40
0.0
 40
0.0
 40
0.0
 40
0.2500000000000113
 40
0.2500000000000113
 40
0.3750000000000169
 40
0.3750000000000169
 40
0.4375000000000179
 40
0.4375000000000179
 40
0.5000000000000189
 40
0.5000000000000189
 40
0.5312500000000182
 40
0.5312500000000182
 40
0.5625000000000174
 40
0.5625000000000174
 40
0.6250000000000161
 40
0.6250000000000161
 40
0.7500000000000094
 40
0.7500000000000094
 40
1.0
 40
1.0
 40
1.0
 40
1.0
 10
187.3005553397266
 20
86.67026548754673
 30
0.0
 10
187.2847864623691
 20
86.59640679561717
 30
0.0
 10
187.2681724805191
 20
86.52269540688141
 30
0.0
 10
187.239640814514
 20
86.41114858325938
 30
0.0
 10
187.2295533996953
 20
86.3737770101309
 30
0.0
 10
187.212065839241
 20
86.31687751249322
 30
0.0
 10
187.2058562774577
 20
86.29777441234793
 30
0.0
 10
187.1915787238051
 20
86.25890089811237
 30
0.0
 10
187.1840071760097
 20
86.238976238679
 30
0.0
 10
187.1665895923315
 20
86.2089040206516
 30
0.0
 10
187.1581070956864
 20
86.19722264184851
 30
0.0
 10
187.1420687838146
 20
86.1899611310998
 30
0.0
 10
187.1372482356111
 20
86.19353937810959
 30
0.0
 10
187.1258390110631
 20
86.20530023334122
 30
0.0
 10
187.1218185306056
 20
86.21696588339178
 30
0.0
 10
187.1110646757853
 20
86.25350121350536
 30
0.0
 10
187.1071919945031
 20
86.28089694682893
 30
0.0
 10
187.0980238446655
 20
86.3656229385849
 30
0.0
 10
187.0959953392964
 20
86.42645506075701
 30
0.0
 10
187.0955953176662
 20
86.48882122209861
 30
0.0
  0
SPLINE
  5
110
330
1F
100
AcDbEntity
  8
0
  6
HIDDEN
 62
     7
370
     0
100
AcDbSpline
210
0.0
220
0.0
230
1.0
 70
     8
 71
     3
 72
    24
 73
    20
 74
     0
 42
0.00000001
 43
0.00000001
 12
1.0
 22
0.0
 32
0.0
 13
1.0
 23
0.0
 33
0.0
 40
0.0
 40
0.0
 40
0.0
 40
0.0
 40
0.2499999999999858
 40
0.2499999999999858
 40
0.3749999999999787
 40
0.3749999999999787
 40
0.4374999999999782
 40
0.4374999999999782
 40
0.4687499999999808
 40
0.4687499999999808
 40
0.4999999999999833
 40
0.4999999999999833
 40
0.5624999999999849
 40
0.5624999999999849
 40
0.6249999999999865
 40
0.6249999999999865
 40
0.7499999999999898
 40
0.7499999999999898
 40
1.0
 40
1.0
 40
1.0
 40
1.0
 10
187.0955953176625
 20
108.4368972066021
 30
0.0
 10
187.0959999872384
 20
108.4999880150947
 30
0.0
 10
187.0980434340527
 20
108.5611737375973
 30
0.0
 10
187.107442999307
 20
108.646673470099
 30
0.0
 10
187.1113938928358
 20
108.6742538535401
 30
0.0
 10
187.1225462011328
 20
108.7107079356517
 30
0.0
 10
187.1267677420593
 20
108.7225663573461
 30
0.0
 10
187.138975463623
 20
108.7331864087214
 30
0.0
 10
187.1447662338752
 20
108.7360197759436
 30
0.0
 10
187.1616877469851
 20
108.7247051889452
 30
0.0
 10
187.1690938629348
 20
108.7129243031914
 30
0.0
 10
187.1855511161779
 20
108.6828834619617
 30
0.0
 10
187.1930076340889
 20
108.6631705083486
 30
0.0
 10
187.2069155633635
 20
108.6247684422886
 30
0.0
 10
187.2130075092585
 20
108.6058867923772
 30
0.0
 10
187.2302018016096
 20
108.5495858818457
 30
0.0
 10
187.2401867518131
 20
108.512509804036
 30
0.0
 10
187.268432796912
 20
108.4018511331462
 30
0.0
 10
187.2849123338731
 20
108.3287220727377
 30
0.0
 10
187.3005553397328
 20
108.2554529411139
 30
0.0
  0
SPLINE
  5
111
330
1F
100
AcDbEntity
  8
0
  6
HIDDEN
 62
     7
370
     0
100
AcDbSpline
210
0.0
220
0.0
230
1.0
 70
     8
 71
     3
 72
     8
 73
     4
 74
     0
 42
0.00000001
 43
0.00000001
 12
1.0
 22
0.0
 32
0.0
 13
1.0
 23
0.0
 33
0.0
 40
0.0
 40
0.0
 40
0.0
 40
0.0
 40
1.0
 40
1.0
 40
1.0
 40
1.0
 10
187.4742749741065
 20
87.40933989673815
 30
0.0
 10
187.4091698124925
 20
87.15431466153251
 30
0.0
 10
187.3512824829325
 20
86.90786264539128
 30
0.0
 10
187.3005553397265
 20
86.67026548754671
 30
0.0
  0
SPLINE
  5
112
330
1F
100
AcDbEntity
  8
0
  6
HIDDEN
 62
     7
370
     0
100
AcDbSpline
210
0.0
220
0.0
230
1.0
 70
     8
 71
     3
 72
     8
 73
     4
 74
     0
 42
0.00000001
 43
0.00000001
 12
1.0
 22
0.0
 32
0.0
 13
1.0
 23
0.0
 33
0.0
 40
0.0
 40
0.0
 40
0.0
 40
0.0
 40
1.0
 40
1.0
 40
1.0
 40
1.0
 10
187.3005553397327
 20
108.2554529411139
 30
0.0
 10
187.3512824829372
 20
108.0178557832783
 30
0.0
 10
187.4091698124952
 20
107.7714037671469
 30
0.0
 10
187.4742749741065
 20
107.5163785319517
 30
0.0
  0
LINE
  5
113
330
1F
100
AcDbEntity
  8
0
  6
HIDDEN
 62
     7
370
     0
100
AcDbLine
 10
166.2955953177
 20
94.9078309773
 30
0.0
 11
166.2955953177
 21
87.8052482946
 31
0.0
  0
LINE
  5
114
330
1F
100
AcDbEntity
  8
0
  6
HIDDEN
 62
     7
370
     0
100
AcDbLine
 10
166.2955953177
 20
107.1204701341
 30
0.0
 11
166.2955953177
 21
100.0178874514
 31
0.0
  0
LINE
  5
115
330
1F
100
AcDbEntity
  8
0
  6
HIDDEN
 62
     7
370
     0
100
AcDbLine
 10
187.0955953177
 20
107.3817543334
 30
0.0
 11
187.0955953177
 21
87.5439640952
 31
0.0
  0
LINE
  5
116
330
1F
100
AcDbEntity
  8
0
  6
HIDDEN
 62
     7
370
     0
100
AcDbLine
 10
188.5955953177
 20
105.942226354
 30
0.0
 11
188.5955953177
 21
88.9834920746
 31
0.0
  0
SPLINE
  5
117
330
1F
100
AcDbEntity
  8
0
  6
HIDDEN
 62
     7
370
     0
100
AcDbSpline
210
0.0
220
0.0
230
1.0
 70
     8
 71
     3
 72
    22
 73
    18
 74
     0
 42
0.00000001
 43
0.00000001
 12
1.0
 22
0.0
 32
0.0
 13
1.0
 23
0.0
 33
0.0
 40
0.0
 40
0.0
 40
0.0
 40
0.0
 40
0.125
 40
0.125
 40
0.25
 40
0.25
 40
0.375
 40
0.375
 40
0.5
 40
0.5
 40
0.625
 40
0.625
 40
0.75
 40
0.75
 40
0.875
 40
0.875
 40
1.0
 40
1.0
 40
1.0
 40
1.0
 10
168.9955953176661
 20
94.86991453451697
 30
0.0
 10
169.1765316757423
 20
95.06153439382352
 30
0.0
 10
169.3556271245192
 20
95.25517625821068
 30
0.0
 10
169.7064671130312
 20
95.64983151159493
 30
0.0
 10
169.8786602209359
 20
95.8508430422625
 30
0.0
 10
170.2043917265551
 20
96.26705415749625
 30
0.0
 10
170.3604679617234
 20
96.48306999778299
 30
0.0
 10
170.6118471756125
 20
96.94839276094773
 30
0.0
 10
170.7057123059313
 20
97.20393195397055
 30
0.0
 10
170.7019843890692
 20
97.73826258907117
 30
0.0
 10
170.6046117465818
 20
97.99368345507189
 30
0.0
 10
170.3527909375879
 20
98.45371217101959
 30
0.0
 10
170.1978216821153
 20
98.66754917194814
 30
0.0
 10
169.8730089243901
 20
99.08158775464189
 30
0.0
 10
169.7021158602622
 20
99.28088022667772
 30
0.0
 10
169.3534816207346
 20
99.67285511911189
 30
0.0
 10
169.1754737702061
 20
99.86530440510128
 30
0.0
 10
168.9955953176661
 20
100.0558038941729
 30
0.0
  0
LINE
  5
118
330
1F
100
AcDbEntity
  8
0
  6
HIDDEN
 62
     7
370
     0
100
AcDbLine
 10
168.9955953177
 20
94.8699145345
 30
0.0
 11
168.9955953177
 21
100.0558038942
 31
0.0
  0
SPLINE
  5
119
330
1F
100
AcDbEntity
  8
0
  6
HIDDEN
 62
     7
370
     0
100
AcDbSpline
210
0.0
220
0.0
230
1.0
 70
     8
 71
     3
 72
     8
 73
     4
 74
     0
 42
0.00000001
 43
0.00000001
 12
1.0
 22
0.0
 32
0.0
 13
1.0
 23
0.0
 33
0.0
 40
0.0000137051794235
 40
0.0000137051794235
 40
0.0000137051794235
 40
0.0000137051794235
 40
0.0027147144718019
 40
0.0027147144718019
 40
0.0027147144718019
 40
0.0027147144718019
 10
166.2955953176661
 20
94.9078309772832
 30
0.0
 10
167.1955914531609
 20
94.89485941008479
 30
0.0
 10
168.0955916317563
 20
94.88222455277274
 30
0.0
 10
168.9955953176661
 20
94.86991453451697
 30
0.0
  0
SPLINE
  5
11A
330
1F
100
AcDbEntity
  8
0
  6
HIDDEN
 62
     7
370
     0
100
AcDbSpline
210
0.0
220
0.0
230
1.0
 70
     8
 71
     3
 72
     8
 73
     4
 74
     0
 42
0.00000001
 43
0.00000001
 12
1.0
 22
0.0
 32
0.0
 13
1.0
 23
0.0
 33
0.0
 40
0.0000137050638847
 40
0.0000137050638847
 40
0.0000137050638847
 40
0.0000137050638847
 40
0.0027147143562631
 40
0.0027147143562631
 40
0.0027147143562631
 40
0.0027147143562631
 10
168.9955953176661
 20
100.0558038941729
 30
0.0
 10
168.0955916317563
 20
100.0434938759171
 30
0.0
 10
167.1955914531609
 20
100.0308590186051
 30
0.0
 10
166.2955953176661
 20
100.0178874514067
 30
0.0
  0
SPLINE
  5
11B
330
1F
100
AcDbEntity
  8
0
  6
HIDDEN
 62
     7
370
     0
100
AcDbSpline
210
0.0
220
0.0
230
1.0
 70
     8
 71
     3
 72
    10
 73
     6
 74
     0
 42
0.00000001
 43
0.00000001
 12
1.0
 22
0.0
 32
0.0
 13
1.0
 23
0.0
 33
0.0
 40
0.0
 40
0.0
 40
0.0
 40
0.0
 40
0.5
 40
0.5
 40
1.0
 40
1.0
 40
1.0
 40
1.0
 10
164.7955953176653
 20
95.6126454006948
 30
0.0
 10
165.0327372783811
 20
95.45703058616594
 30
0.0
 10
165.2780800371446
 20
95.32512155674667
 30
0.0
 10
165.7793436258776
 20
95.09346468010912
 30
0.0
 10
166.0353781951279
 20
94.9940190639863
 30
0.0
 10
166.2955953176661
 20
94.9078309772832
 30
0.0
  0
SPLINE
  5
11C
330
1F
100
AcDbEntity
  8
0
  6
HIDDEN
 62
     7
370
     0
100
AcDbSpline
210
0.0
220
0.0
230
1.0
 70
     8
 71
     3
 72
    10
 73
     6
 74
     0
 42
0.00000001
 43
0.00000001
 12
1.0
 22
0.0
 32
0.0
 13
1.0
 23
0.0
 33
0.0
 40
0.0
 40
0.0
 40
0.0
 40
0.0
 40
0.5
 40
0.5
 40
1.0
 40
1.0
 40
1.0
 40
1.0
 10
166.2955953176661
 20
100.0178874514067
 30
0.0
 10
166.0353781951281
 20
99.93169936470362
 30
0.0
 10
165.7793436258779
 20
99.83225374858085
 30
0.0
 10
165.2780800371452
 20
99.60059687194351
 30
0.0
 10
165.0327372783819
 20
99.46868784252435
 30
0.0
 10
164.7955953176661
 20
99.31307302799563
 30
0.0
  0
LINE
  5
11D
330
1F
100
AcDbEntity
  8
0
  6
HIDDEN
 62
     7
370
     0
100
AcDbLine
 10
164.7955953177
 20
95.6126454007
 30
0.0
 11
164.7955953177
 21
99.313073028
 31
0.0
  0
SPLINE
  5
11E
330
1F
100
AcDbEntity
  8
0
  6
HIDDEN
 62
     7
370
     0
100
AcDbSpline
210
0.0
220
0.0
230
1.0
 70
     8
 71
     3
 72
    62
 73
    58
 74
     0
 42
0.00000001
 43
0.00000001
 12
1.0
 22
0.0
 32
0.0
 13
1.0
 23
0.0
 33
0.0
 40
-0.03125
 40
-0.03125
 40
0.0
 40
0.0
 40
0.0312499999999999
 40
0.0312499999999999
 40
0.0624999999999998
 40
0.0624999999999998
 40
0.0937499999999996
 40
0.0937499999999996
 40
0.1249999999999995
 40
0.1249999999999995
 40
0.1874999999999996
 40
0.1874999999999996
 40
0.2499999999999997
 40
0.2499999999999997
 40
0.2812499999999997
 40
0.2812499999999997
 40
0.3124999999999997
 40
0.3124999999999997
 40
0.3437499999999998
 40
0.3437499999999998
 40
0.3749999999999998
 40
0.3749999999999998
 40
0.4374999999999999
 40
0.4374999999999999
 40
0.46875
 40
0.46875
 40
0.5000000000000001
 40
0.5000000000000001
 40
0.5625000000000002
 40
0.5625000000000002
 40
0.5937500000000002
 40
0.5937500000000002
 40
0.6250000000000001
 40
0.6250000000000001
 40
0.6562500000000001
 40
0.6562500000000001
 40
0.6875000000000001
 40
0.6875000000000001
 40
0.7187500000000001
 40
0.7187500000000001
 40
0.7500000000000001
 40
0.7500000000000001
 40
0.7812500000000001
 40
0.7812500000000001
 40
0.8125000000000001
 40
0.8125000000000001
 40
0.8437500000000001
 40
0.8437500000000001
 40
0.875
 40
0.875
 40
0.90625
 40
0.90625
 40
0.9375
 40
0.9375
 40
0.96875
 40
0.96875
 40
1.0
 40
1.0
 40
1.03125
 40
1.03125
 10
175.2493674455944
 20
98.95083825300127
 30
0.0
 10
175.4768677921827
 20
99.2001847948619
 30
0.0
 10
175.6013303211001
 20
99.31178247231881
 30
0.0
 10
175.8704245872519
 20
99.51043326813719
 30
0.0
 10
176.0162376788412
 20
99.59777351292593
 30
0.0
 10
176.3174045571306
 20
99.74196926556814
 30
0.0
 10
176.473740284195
 20
99.79978893608238
 30
0.0
 10
176.7978635835294
 20
99.88704254813341
 30
0.0
 10
176.9645287952399
 20
99.9158445976152
 30
0.0
 10
177.4625450618718
 20
99.95662390288307
 30
0.0
 10
177.8032160106647
 20
99.92318064274181
 30
0.0
 10
178.4422269260862
 20
99.74072799828302
 30
0.0
 10
178.74868153315
 20
99.58930343797026
 30
0.0
 10
179.1452374424124
 20
99.28880553238592
 30
0.0
 10
179.269586633262
 20
99.17454434719058
 30
0.0
 10
179.4920507273112
 20
98.92488447661802
 30
0.0
 10
179.5896160657884
 20
98.79071786861893
 30
0.0
 10
179.7568716694272
 20
98.50324877412021
 30
0.0
 10
179.8269573249463
 20
98.34798192422033
 30
0.0
 10
179.9310126856679
 20
98.0310025041333
 30
0.0
 10
179.9659884483352
 20
97.86834975262887
 30
0.0
 10
180.0178529678593
 20
97.3674127324263
 30
0.0
 10
179.9785468600879
 20
97.027258131116
 30
0.0
 10
179.8158270676271
 20
96.55076349901884
 30
0.0
 10
179.7455465697408
 20
96.3996961391914
 30
0.0
 10
179.5742134246108
 20
96.11240156875051
 30
0.0
 10
179.4728211834291
 20
95.97654379045314
 30
0.0
 10
179.1362215962059
 20
95.60773539545494
 30
0.0
 10
178.8609888300412
 20
95.40531028612382
 30
0.0
 10
178.4112056026953
 20
95.18823355951507
 30
0.0
 10
178.2524058041917
 20
95.12893128744086
 30
0.0
 10
177.929844083312
 20
95.04095876964033
 30
0.0
 10
177.7659849713448
 20
95.01183900579406
 30
0.0
 10
177.4331521979909
 20
94.98298239068386
 30
0.0
 10
177.26309990655
 20
94.98360591389786
 30
0.0
 10
176.9308242425304
 20
95.01486235770224
 30
0.0
 10
176.7671096307816
 20
95.04518105275409
 30
0.0
 10
176.4446441452073
 20
95.1358980917571
 30
0.0
 10
176.2861330466808
 20
95.19666700045889
 30
0.0
 10
175.9875793404829
 20
95.34417767525586
 30
0.0
 10
175.8457532112808
 20
95.43131270311976
 30
0.0
 10
175.5778314727225
 20
95.63389816969179
 30
0.0
 10
175.45373804233
 20
95.74823633633396
 30
0.0
 10
175.2326038544118
 20
95.99642277428671
 30
0.0
 10
175.1341468523132
 20
96.13145539114055
 30
0.0
 10
174.9647883385782
 20
96.42345978919528
 30
0.0
 10
174.8966215008722
 20
96.57559553563082
 30
0.0
 10
174.7928875345458
 20
96.89200448407088
 30
0.0
 10
174.7572189726766
 20
97.0585009534251
 30
0.0
 10
174.7230052080241
 20
97.3917628295356
 30
0.0
 10
174.7238636108532
 20
97.55842528335748
 30
0.0
 10
174.7616603908028
 20
97.89181348257503
 30
0.0
 10
174.7990031462568
 20
98.05756905505456
 30
0.0
 10
174.9062527293252
 20
98.37346037151721
 30
0.0
 10
174.9770139458644
 20
98.52673970458936
 30
0.0
 10
175.1491370959651
 20
98.81611674707582
 30
0.0
 10
175.2493674455944
 20
98.95083825300127
 30
0.0
 10
175.4768677921827
 20
99.2001847948619
 30
0.0
  0
CIRCLE
  5
11F
330
1F
100
AcDbEntity
  8
0
  6
HIDDEN
 62
     7
370
     0
100
AcDbCircle
 10
177.2955953177
 20
97.4628592143
 30
0.0
 40
2.299999999999997
  0
CIRCLE
  5
120
330
1F
100
AcDbEntity
  8
0
  6
HIDDEN
 62
     7
370
     0
100
AcDbCircle
 10
200.7955953177
 20
97.4628592143
 30
0.0
 40
2.0
  0
LINE
  5
121
330
1F
100
AcDbEntity
  8
0
  6
HIDDEN
 62
     7
370
     0
100
AcDbLine
 10
258.7955953177
 20
87.4628592143
 30
0.0
 11
258.7955953177
 21
103.2363619062
 31
0.0
  0
LINE
  5
122
330
1F
100
AcDbEntity
  8
0
  6
HIDDEN
 62
     7
370
     0
100
AcDbLine
 10
213.7955953177
 20
87.4628592143
 30
0.0
 11
222.2955953177
 21
87.4628592143
 31
0.0
  0
LINE
  5
123
330
1F
100
AcDbEntity
  8
0
  6
HIDDEN
 62
     7
370
     0
100
AcDbLine
 10
222.2955953177
 20
67.4628592143
 30
0.0
 11
213.7955953177
 21
67.4628592143
 31
0.0
  0
LINE
  5
124
330
1F
100
AcDbEntity
  8
0
  6
HIDDEN
 62
     7
370
     0
100
AcDbLine
 10
210.4993244634
 20
118.4628592143
 30
0.0
 11
232.4225283587
 21
118.4628592143
 31
0.0
  0
LINE
  5
125
330
1F
100
AcDbEntity
  8
0
  6
HIDDEN
 62
     7
370
     0
100
AcDbLine
 10
258.4032904723
 20
103.4628592143
 30
0.0
 11
232.4225283587
 21
118.4628592143
 31
0.0
  0
SPLINE
  5
126
330
1F
100
AcDbEntity
  8
0
  6
HIDDEN
 62
     7
370
     0
100
AcDbSpline
210
0.0
220
0.0
230
1.0
 70
     8
 71
     3
 72
    18
 73
    14
 74
     0
 42
0.00000001
 43
0.00000001
 12
1.0
 22
0.0
 32
0.0
 13
1.0
 23
0.0
 33
0.0
 40
0.0
 40
0.0
 40
0.0
 40
0.0
 40
0.250000000000002
 40
0.250000000000002
 40
0.500000000000004
 40
0.500000000000004
 40
0.625000000000003
 40
0.625000000000003
 40
0.750000000000002
 40
0.750000000000002
 40
0.875000000000001
 40
0.875000000000001
 40
1.0
 40
1.0
 40
1.0
 40
1.0
 10
211.3818362381277
 20
80.06154477957273
 30
0.0
 10
211.3894719440684
 20
79.86550264292121
 30
0.0
 10
211.4084589937021
 20
79.67045957983959
 30
0.0
 10
211.4748698320039
 20
79.28287627582252
 30
0.0
 10
211.522748676047
 20
79.0881825717581
 30
0.0
 10
211.6247061816619
 20
78.81028011370391
 30
0.0
 10
211.6637248552671
 20
78.71987120591335
 30
0.0
 10
211.7558173868486
 20
78.5452678213891
 30
0.0
 10
211.809650420242
 20
78.45985344222875
 30
0.0
 10
211.9355156750316
 20
78.30581368649338
 30
0.0
 10
212.0072380898423
 20
78.23658177888821
 30
0.0
 10
212.1792384397197
 20
78.1306695718895
 30
0.0
 10
212.2778402732483
 20
78.0979424833077
 30
0.0
 10
212.3780309362195
 20
78.09794248330769
 30
0.0
  0
SPLINE
  5
127
330
1F
100
AcDbEntity
  8
0
  6
HIDDEN
 62
     7
370
     0
100
AcDbSpline
210
0.0
220
0.0
230
1.0
 70
    24
 71
     3
 72
    14
 73
    10
 74
     0
 42
0.00000001
 43
0.00000001
 12
1.0
 22
0.0
 32
0.0
 13
1.0
 23
0.0
 33
0.0
 40
0.0
 40
0.0
 40
0.0
 40
0.0
 40
0.25
 40
0.25
 40
0.5
 40
0.5
 40
0.75
 40
0.75
 40
1.0
 40
1.0
 40
1.0
 40
1.0
 10
212.3780309362195
 20
67.46285921434495
 30
0.0
 10
212.2211268009956
 20
67.46285921434495
 30
0.0
 10
212.0652138360348
 20
67.46285921434495
 30
0.0
 10
211.8142195386154
 20
67.46285921434495
 30
0.0
 10
211.7122797755952
 20
67.46285921434495
 30
0.0
 10
211.5542035632656
 20
67.46285921434495
 30
0.0
 10
211.4958563421798
 20
67.46285921434495
 30
0.0
 10
211.4145910677052
 20
67.46285921434495
 30
0.0
 10
211.3906011893722
 20
67.46285921434495
 30
0.0
 10
211.3818362381277
 20
67.46285921434495
 30
0.0
  0
LINE
  5
128
330
1F
100
AcDbEntity
  8
0
  6
HIDDEN
 62
     7
370
     0
100
AcDbLine
 10
268.7955953177
 20
78.0979424833
 30
0.0
 11
268.7955953177
 21
68.4628592143
 31
0.0
  0
LINE
  5
129
330
1F
100
AcDbEntity
  8
0
  6
HIDDEN
 62
     7
370
     0
100
AcDbLine
 10
268.7955953177
 20
68.4628592143
 30
0.0
 11
267.7955953177
 21
67.4628592143
 31
0.0
  0
LINE
  5
12A
330
1F
100
AcDbEntity
  8
0
  6
HIDDEN
 62
     7
370
     0
100
AcDbLine
 10
267.7955953177
 20
67.4628592143
 30
0.0
 11
212.3780309362
 21
67.4628592143
 31
0.0
  0
LINE
  5
12B
330
1F
100
AcDbEntity
  8
0
  6
HIDDEN
 62
     7
370
     0
100
AcDbLine
 10
212.3780309362
 20
78.0979424833
 30
0.0
 11
268.7955953177
 21
78.0979424833
 31
0.0
  0
LINE
  5
12C
330
1F
100
AcDbEntity
  8
0
  6
HIDDEN
 62
     7
370
     0
100
AcDbLine
 10
211.0689248149
 20
103.4628592143
 30
0.0
 11
258.4032904723
 21
103.4628592143
 31
0.0
  0
LINE
  5
12D
330
1F
100
AcDbEntity
  8
0
  6
HIDDEN
 62
     7
370
     0
100
AcDbLine
 10
268.7955953177
 20
78.0979424833
 30
0.0
 11
268.7955953177
 21
97.4628592143
 31
0.0
  0
LINE
  5
12E
330
1F
100
AcDbEntity
  8
0
  6
HIDDEN
 62
     7
370
     0
100
AcDbLine
 10
258.4032904723
 20
103.4628592143
 30
0.0
 11
268.7955953177
 21
97.4628592143
 31
0.0
  0
LINE
  5
12F
330
1F
100
AcDbEntity
  8
0
  6
HIDDEN
 62
     7
370
     0
100
AcDbLine
 10
258.7955953177
 20
98.4628592143
 30
0.0
 11
250.7955953177
 21
98.4628592143
 31
0.0
  0
LINE
  5
130
330
1F
100
AcDbEntity
  8
0
  6
HIDDEN
 62
     7
370
     0
100
AcDbLine
 10
250.7955953177
 20
86.4628592143
 30
0.0
 11
258.7955953177
 21
86.4628592143
 31
0.0
  0
LINE
  5
131
330
1F
100
AcDbEntity
  8
0
  6
HIDDEN
 62
     7
370
     0
100
AcDbLine
 10
188.7955953177
 20
81.6628592143
 30
0.0
 11
188.8884885365
 21
81.7557524332
 31
0.0
  0
LINE
  5
132
330
1F
100
AcDbEntity
  8
0
  6
HIDDEN
 62
     7
370
     0
100
AcDbLine
 10
188.8884885365
 20
113.1699659955
 30
0.0
 11
188.7955953177
 21
113.2628592143
 31
0.0
  0
ARC
  5
133
330
1F
100
AcDbEntity
  8
0
  6
HIDDEN
 62
     7
370
     0
100
AcDbCircle
 10
188.1813817553
 20
82.4628592143
 30
0.0
 40
1.000000000000018
100
AcDbArc
 50
315.0
 51
0.0
  0
ARC
  5
134
330
1F
100
AcDbEntity
  8
0
  6
HIDDEN
 62
     7
370
     0
100
AcDbCircle
 10
188.1813817553
 20
82.4628592143
 30
0.0
 40
1.00000000000001
100
AcDbArc
 50
0.0
 51
52.1052014664
  0
ARC
  5
135
330
1F
100
AcDbEntity
  8
0
  6
HIDDEN
 62
     7
370
     0
100
AcDbCircle
 10
188.1813817553
 20
112.4628592143
 30
0.0
 40
1.000000000000032
100
AcDbArc
 50
351.8087250651
 51
45.0
  0
ARC
  5
136
330
1F
100
AcDbEntity
  8
0
  6
HIDDEN
 62
     7
370
     0
100
AcDbCircle
 10
188.1813817553
 20
112.4628592143
 30
0.0
 40
1.000000000000032
100
AcDbArc
 50
307.8947985336
 51
351.8087250651
  0
LINE
  5
137
330
1F
100
AcDbEntity
  8
0
  6
HIDDEN
 62
     7
370
     0
100
AcDbLine
 10
189.1813817553
 20
82.4628592143
 30
0.0
 11
189.1813817553
 21
112.4628592143
 31
0.0
  0
LINE
  5
138
330
1F
100
AcDbEntity
  8
0
  6
HIDDEN
 62
     7
370
     0
100
AcDbLine
 10
189.1813817553
 20
82.4628592143
 30
0.0
 11
189.1813817553
 21
112.4628592143
 31
0.0
  0
LINE
  5
139
330
1F
100
AcDbEntity
  8
0
  6
HIDDEN
 62
     7
370
     0
100
AcDbLine
 10
250.7955953177
 20
94.940394938
 30
0.0
 11
229.0758895648
 21
97.9809050884
 31
0.0
  0
LINE
  5
13A
330
1F
100
AcDbEntity
  8
0
  6
HIDDEN
 62
     7
370
     0
100
AcDbLine
 10
225.5731854238
 20
94.2302899656
 30
0.0
 11
250.7955953177
 21
90.6994413357
 31
0.0
  0
LINE
  5
13B
330
1F
100
AcDbEntity
  8
0
  6
HIDDEN
 62
     7
370
     0
100
AcDbLine
 10
164.7955953177
 20
87.3072086901
 30
0.0
 11
165.8226273497
 21
87.9001659102
 31
0.0
  0
LINE
  5
13C
330
1F
100
AcDbEntity
  8
0
  6
HIDDEN
 62
     7
370
     0
100
AcDbLine
 10
165.8226273497
 20
107.0255525185
 30
0.0
 11
164.7955953177
 21
107.6185097386
 31
0.0
  0
ARC
  5
13D
330
1F
100
AcDbEntity
  8
0
  6
HIDDEN
 62
     7
370
     0
100
AcDbCircle
 10
171.3084137873
 20
88.4628592143
 30
0.0
 40
1.000000000000008
100
AcDbArc
 50
270.0
 51
315.0
  0
ARC
  5
13E
330
1F
100
AcDbEntity
  8
0
  6
HIDDEN
 62
     7
370
     0
100
AcDbCircle
 10
171.3084137873
 20
106.4628592143
 30
0.0
 40
1.000000000000018
100
AcDbArc
 50
45.0
 51
90.0
  0
LINE
  5
13F
330
1F
100
AcDbEntity
  8
0
  6
HIDDEN
 62
     7
370
     0
100
AcDbLine
 10
170.2955953177
 20
87.4628592143
 30
0.0
 11
171.3084137873
 21
87.4628592143
 31
0.0
  0
LINE
  5
140
330
1F
100
AcDbEntity
  8
0
  6
HIDDEN
 62
     7
370
     0
100
AcDbLine
 10
171.3084137873
 20
107.4628592143
 30
0.0
 11
170.2955953177
 21
107.4628592143
 31
0.0
  0
ARC
  5
141
330
1F
100
AcDbEntity
  8
0
  6
HIDDEN
 62
     7
370
     0
100
AcDbCircle
 10
170.2955953177
 20
88.4628592143
 30
0.0
 40
1.000000000000004
100
AcDbArc
 50
193.3524261238
 51
270.0
  0
ARC
  5
142
330
1F
100
AcDbEntity
  8
0
  6
HIDDEN
 62
     7
370
     0
100
AcDbCircle
 10
170.2955953177
 20
106.4628592143
 30
0.0
 40
1.000000000000014
100
AcDbArc
 50
90.0
 51
166.6475738762
  0
LINE
  5
143
330
1F
100
AcDbEntity
  8
0
  6
HIDDEN
 62
     7
370
     0
100
AcDbLine
 10
172.0155205685
 20
87.7557524332
 30
0.0
 11
172.7226273497
 21
88.4628592143
 31
0.0
  0
LINE
  5
144
330
1F
100
AcDbEntity
  8
0
  6
HIDDEN
 62
     7
370
     0
100
AcDbLine
 10
172.7226273497
 20
106.4628592143
 30
0.0
 11
172.0155205685
 21
107.1699659955
 31
0.0
  0
LINE
  5
145
330
1F
100
AcDbEntity
  8
0
  6
HIDDEN
 62
     7
370
     0
100
AcDbLine
 10
165.8226273497
 20
87.9001659102
 30
0.0
 11
167.9226273497
 21
88.4628592143
 31
0.0
  0
LINE
  5
146
330
1F
100
AcDbEntity
  8
0
  6
HIDDEN
 62
     7
370
     0
100
AcDbLine
 10
167.9226273497
 20
106.4628592143
 30
0.0
 11
165.8226273497
 21
107.0255525185
 31
0.0
  0
LINE
  5
147
330
1F
100
AcDbEntity
  8
0
  6
HIDDEN
 62
     7
370
     0
100
AcDbLine
 10
169.3226273497
 20
106.693799322
 30
0.0
 11
168.9226273497
 21
106.4628592143
 31
0.0
  0
LINE
  5
148
330
1F
100
AcDbEntity
  8
0
  6
HIDDEN
 62
     7
370
     0
100
AcDbLine
 10
168.9226273497
 20
88.4628592143
 30
0.0
 11
169.3226273497
 21
88.2319191067
 31
0.0
  0
ARC
  5
149
330
1F
100
AcDbEntity
  8
0
  6
HIDDEN
 62
     7
370
     0
100
AcDbCircle
 10
179.2955953177
 20
88.9628592143
 30
0.0
 40
0.5
100
AcDbArc
 50
270.0
 51
0.0
  0
ARC
  5
14A
330
1F
100
AcDbEntity
  8
0
  6
HIDDEN
 62
     7
370
     0
100
AcDbCircle
 10
179.2955953177
 20
105.9628592143
 30
0.0
 40
0.5
100
AcDbArc
 50
0.0
 51
90.0
  0
LINE
  5
14B
330
1F
100
AcDbEntity
  8
0
  6
HIDDEN
 62
     7
370
     0
100
AcDbLine
 10
167.9226273497
 20
88.4628592143
 30
0.0
 11
168.9226273497
 21
88.4628592143
 31
0.0
  0
LINE
  5
14C
330
1F
100
AcDbEntity
  8
0
  6
HIDDEN
 62
     7
370
     0
100
AcDbLine
 10
168.9226273497
 20
106.4628592143
 30
0.0
 11
167.9226273497
 21
106.4628592143
 31
0.0
  0
LINE
  5
14D
330
1F
100
AcDbEntity
  8
0
  6
HIDDEN
 62
     7
370
     0
100
AcDbLine
 10
172.7226273497
 20
88.4628592143
 30
0.0
 11
179.2955953177
 21
88.4628592143
 31
0.0
  0
LINE
  5
14E
330
1F
100
AcDbEntity
  8
0
  6
HIDDEN
 62
     7
370
     0
100
AcDbLine
 10
179.2955953177
 20
106.4628592143
 30
0.0
 11
172.7226273497
 21
106.4628592143
 31
0.0
  0
LINE
  5
14F
330
1F
100
AcDbEntity
  8
0
  6
HIDDEN
 62
     7
370
     0
100
AcDbLine
 10
179.7955953177
 20
90.3128592143
 30
0.0
 11
180.6955953177
 21
91.2128592143
 31
0.0
  0
LINE
  5
150
330
1F
100
AcDbEntity
  8
0
  6
HIDDEN
 62
     7
370
     0
100
AcDbLine
 10
180.6955953177
 20
103.7128592143
 30
0.0
 11
179.7955953177
 21
104.6128592143
 31
0.0
  0
LINE
  5
151
330
1F
100
AcDbEntity
  8
0
  6
HIDDEN
 62
     7
370
     0
100
AcDbLine
 10
199.7955953177
 20
91.2128592143
 30
0.0
 11
200.9973165557
 21
93.2128592143
 31
0.0
  0
LINE
  5
152
330
1F
100
AcDbEntity
  8
0
  6
HIDDEN
 62
     7
370
     0
100
AcDbLine
 10
200.9973165557
 20
101.7128592143
 30
0.0
 11
199.7955953177
 21
103.7128592143
 31
0.0
  0
LINE
  5
153
330
1F
100
AcDbEntity
  8
0
  6
HIDDEN
 62
     7
370
     0
100
AcDbLine
 10
180.6955953177
 20
91.2128592143
 30
0.0
 11
199.7955953177
 21
91.2128592143
 31
0.0
  0
LINE
  5
154
330
1F
100
AcDbEntity
  8
0
  6
HIDDEN
 62
     7
370
     0
100
AcDbLine
 10
199.7955953177
 20
103.7128592143
 30
0.0
 11
180.6955953177
 21
103.7128592143
 31
0.0
  0
LINE
  5
155
330
1F
100
AcDbEntity
  8
0
  6
HIDDEN
 62
     7
370
     0
100
AcDbLine
 10
228.7955953177
 20
93.2128592143
 30
0.0
 11
231.3492529485
 21
97.4628592143
 31
0.0
  0
LINE
  5
156
330
1F
100
AcDbEntity
  8
0
  6
HIDDEN
 62
     7
370
     0
100
AcDbLine
 10
231.3492529485
 20
97.4628592143
 30
0.0
 11
228.7955953177
 21
101.7128592143
 31
0.0
  0
LINE
  5
157
330
1F
100
AcDbEntity
  8
0
  6
HIDDEN
 62
     7
370
     0
100
AcDbLine
 10
200.9973165557
 20
93.2128592143
 30
0.0
 11
228.7955953177
 21
93.2128592143
 31
0.0
  0
LINE
  5
158
330
1F
100
AcDbEntity
  8
0
  6
HIDDEN
 62
     7
370
     0
100
AcDbLine
 10
228.7955953177
 20
101.7128592143
 30
0.0
 11
200.9973165557
 21
101.7128592143
 31
0.0
  0
DIMENSION
  5
159
330
1F
100
AcDbEntity
  8
VERMASSUNG
100
AcDbDimension
  2
_D
 10
268.7955953177
 20
59.5675601726
 30
0.0
 11
228.7955953177
 21
59.5675601726
 31
0.0
 70
   160
  1
<>
 71
     2
 42
-1.0
  3
SLDDIMSTYLE0
100
AcDbAlignedDimension
 13
188.7955953177
 23
77.7628592143
 33
0.0
 14
268.7955953177
 24
68.4628592143
 34
0.0
 50
0.0
100
AcDbRotatedDimension
  0
DIMENSION
  5
164
330
1F
100
AcDbEntity
  8
VERMASSUNG
100
AcDbDimension
  2
_D_1
 10
268.7955953177
 20
51.4628592143
 30
0.0
 11
216.7955953177
 21
51.4628592143
 31
0.0
 70
   160
  1
<>
 71
     2
 42
-1.0
  3
SLDDIMSTYLE0
100
AcDbAlignedDimension
 13
164.7955953177
 23
84.8313542323
 33
0.0
 14
268.7955953177
 24
68.4628592143
 34
0.0
100
AcDbRotatedDimension
  0
DIMENSION
  5
16E
330
1F
100
AcDbEntity
  8
VERMASSUNG
100
AcDbDimension
  2
_D_2
 10
154.7955953177
 20
77.4628592143
 30
0.0
 11
154.7955953177
 21
97.4628592143
 31
0.0
 70
   160
  1
PSC%%c<>
 71
     2
 42
-1.0
  3
SLDDIMSTYLE0
100
AcDbAlignedDimension
 13
189.0955953177
 23
117.4628592143
 33
0.0
 14
189.0955953177
 24
77.4628592143
 34
0.0
 50
90.0
100
AcDbRotatedDimension
  0
DIMENSION
  5
17A
330
1F
100
AcDbEntity
  8
VERMASSUNG
100
AcDbDimension
  2
_D_3
 10
232.4225283587
 20
118.4628592143
 30
0.0
 11
246.150427077
 21
118.9598871334
 31
0.0
 70
   162
  1
<>
 71
     1
 42
-1.0
  3
SLDDIMSTYLE1
100
AcDb2LineAngularDimension
 13
273.3291357144
 23
97.4628592143
 33
0.0
 14
161.5032126555
 24
97.4628592143
 34
0.0
 15
251.475087242
 25
107.4628592143
 35
0.0
 16
238.635717911
 26
105.5441740093
 36
0.0
  0
LINE
  5
184
330
1F
100
AcDbEntity
  8
VERMASSUNG
  6
CENTERX2
370
     0
100
AcDbLine
 10
161.5032126555
 20
97.4628592143
 30
0.0
 11
273.3291357144
 21
97.4628592143
 31
0.0
  0
LINE
  5
185
330
1F
100
AcDbEntity
  8
0
  6
Continuous
 62
     7
370
    15
100
AcDbLine
 10
69.1929187724
 20
72.9628592143
 30
0.0
 11
70.1929187724
 21
73.9628592143
 31
0.0
  0
LINE
  5
186
330
1F
100
AcDbEntity
  8
0
  6
Continuous
 62
     7
370
    15
100
AcDbLine
 10
70.1929187724
 20
80.9628592143
 30
0.0
 11
69.1929187724
 21
81.9628592143
 31
0.0
  0
LINE
  5
187
330
1F
100
AcDbEntity
  8
0
  6
Continuous
 62
     7
370
    15
100
AcDbLine
 10
105.1929187724
 20
97.4628592143
 30
0.0
 11
90.1929187724
 21
97.4628592143
 31
0.0
  0
LINE
  5
188
330
1F
100
AcDbEntity
  8
0
  6
Continuous
 62
     7
370
    15
100
AcDbLine
 10
105.1929187724
 20
78.0979424833
 30
0.0
 11
105.1929187724
 21
97.4628592143
 31
0.0
  0
ARC
  5
189
330
1F
100
AcDbEntity
  8
0
  6
Continuous
 62
     7
370
    15
100
AcDbCircle
 10
70.1929187724
 20
97.4628592143
 30
0.0
 40
40.00000000000001
100
AcDbArc
 50
313.5311521674
 51
331.0449756281
  0
LINE
  5
18A
330
1F
100
AcDbEntity
  8
0
  6
Continuous
 62
     7
370
    15
100
AcDbLine
 10
90.1929187724
 20
68.4628592143
 30
0.0
 11
97.7428734003
 21
68.4628592143
 31
0.0
  0
LINE
  5
18B
330
1F
100
AcDbEntity
  8
0
  6
Continuous
 62
     7
370
    15
100
AcDbLine
 10
90.1929187724
 20
68.4628592143
 30
0.0
 11
90.1929187724
 21
97.4628592143
 31
0.0
  0
LINE
  5
18C
330
1F
100
AcDbEntity
  8
0
  6
Continuous
 62
     7
370
    15
100
AcDbLine
 10
90.1929187724
 20
118.4628592143
 30
0.0
 11
61.1929187724
 21
118.4628592143
 31
0.0
  0
LINE
  5
18D
330
1F
100
AcDbEntity
  8
0
  6
Continuous
 62
     7
370
    15
100
AcDbLine
 10
105.1929187724
 20
103.4628592143
 30
0.0
 11
90.1929187724
 21
118.4628592143
 31
0.0
  0
LINE
  5
18E
330
1F
100
AcDbEntity
  8
0
  6
Continuous
 62
     7
370
    15
100
AcDbLine
 10
90.1929187724
 20
97.4628592143
 30
0.0
 11
90.1929187724
 21
103.2363619062
 31
0.0
  0
LINE
  5
18F
330
1F
100
AcDbEntity
  8
0
  6
Continuous
 62
     7
370
    15
100
AcDbLine
 10
50.1929187724
 20
103.2363619062
 30
0.0
 11
90.1929187724
 21
103.2363619062
 31
0.0
  0
LINE
  5
190
330
1F
100
AcDbEntity
  8
0
  6
Continuous
 62
     7
370
    15
100
AcDbLine
 10
50.1929187724
 20
107.4628592143
 30
0.0
 11
50.1929187724
 21
103.2363619062
 31
0.0
  0
LINE
  5
191
330
1F
100
AcDbEntity
  8
0
  6
Continuous
 62
     7
370
    15
100
AcDbLine
 10
61.1929187724
 20
118.4628592143
 30
0.0
 11
50.1929187724
 21
107.4628592143
 31
0.0
  0
LINE
  5
192
330
1F
100
AcDbEntity
  8
0
  6
Continuous
 62
     7
370
    15
100
AcDbLine
 10
105.1929187724
 20
103.4628592143
 30
0.0
 11
105.1929187724
 21
97.4628592143
 31
0.0
  0
LINE
  5
193
330
1F
100
AcDbEntity
  8
0
  6
Continuous
 62
     7
370
    15
100
AcDbLine
 10
96.650431883
 20
67.4628592143
 30
0.0
 11
90.1929187724
 21
67.4628592143
 31
0.0
  0
LINE
  5
194
330
1F
100
AcDbEntity
  8
0
  6
Continuous
 62
     7
370
    15
100
AcDbLine
 10
90.1929187724
 20
67.4628592143
 30
0.0
 11
90.1929187724
 21
68.4628592143
 31
0.0
  0
ARC
  5
195
330
1F
100
AcDbEntity
  8
0
  6
Continuous
 62
     7
370
    15
100
AcDbCircle
 10
70.1929187724
 20
97.4628592143
 30
0.0
 40
40.00000000000001
100
AcDbArc
 50
311.4096221093
 51
313.5311521674
  0
LINE
  5
196
330
1F
100
AcDbEntity
  8
0
  6
Continuous
 62
     7
370
    15
100
AcDbLine
 10
69.1929187724
 20
87.4628592143
 30
0.0
 11
90.1929187724
 21
87.4628592143
 31
0.0
  0
LINE
  5
197
330
1F
100
AcDbEntity
  8
0
  6
Continuous
 62
     7
370
    15
100
AcDbLine
 10
69.1929187724
 20
87.4628592143
 30
0.0
 11
69.1929187724
 21
68.4628592143
 31
0.0
  0
LINE
  5
198
330
1F
100
AcDbEntity
  8
0
  6
Continuous
 62
     7
370
    15
100
AcDbLine
 10
50.1929187724
 20
68.4628592143
 30
0.0
 11
69.1929187724
 21
68.4628592143
 31
0.0
  0
LINE
  5
199
330
1F
100
AcDbEntity
  8
0
  6
Continuous
 62
     7
370
    15
100
AcDbLine
 10
50.1929187724
 20
103.2363619062
 30
0.0
 11
50.1929187724
 21
68.4628592143
 31
0.0
  0
CIRCLE
  5
19A
330
1F
100
AcDbEntity
  8
0
  6
Continuous
 62
     7
370
    15
100
AcDbCircle
 10
58.1929187724
 20
92.4628592143
 30
0.0
 40
6.000000000000014
  0
LINE
  5
19B
330
1F
100
AcDbEntity
  8
0
  6
Continuous
 62
     7
370
    15
100
AcDbLine
 10
50.1929187724
 20
67.4628592143
 30
0.0
 11
50.1929187724
 21
68.4628592143
 31
0.0
  0
LINE
  5
19C
330
1F
100
AcDbEntity
  8
0
  6
Continuous
 62
     7
370
    15
100
AcDbLine
 10
69.1929187724
 20
68.4628592143
 30
0.0
 11
69.1929187724
 21
67.4628592143
 31
0.0
  0
LINE
  5
19D
330
1F
100
AcDbEntity
  8
0
  6
Continuous
 62
     7
370
    15
100
AcDbLine
 10
69.1929187724
 20
67.4628592143
 30
0.0
 11
50.1929187724
 21
67.4628592143
 31
0.0
  0
LINE
  5
19E
330
1F
100
AcDbEntity
  8
0
  6
Continuous
 62
     7
370
    15
100
AcDbLine
 10
49.1929187724
 20
68.4628592143
 30
0.0
 11
49.1929187724
 21
102.6590116371
 31
0.0
  0
LINE
  5
19F
330
1F
100
AcDbEntity
  8
0
  6
Continuous
 62
     7
370
    15
100
AcDbLine
 10
49.1929187724
 20
102.6590116371
 30
0.0
 11
50.1929187724
 21
103.2363619062
 31
0.0
  0
LINE
  5
1A0
330
1F
100
AcDbEntity
  8
0
  6
Continuous
 62
     7
370
    15
100
AcDbLine
 10
49.1929187724
 20
68.4628592143
 30
0.0
 11
50.1929187724
 21
68.4628592143
 31
0.0
  0
LINE
  5
1A1
330
1F
100
AcDbEntity
  8
0
  6
Continuous
 62
     7
370
    15
100
AcDbLine
 10
49.1929187724
 20
68.4628592143
 30
0.0
 11
50.1929187724
 21
67.4628592143
 31
0.0
  0
LINE
  5
1A2
330
1F
100
AcDbEntity
  8
0
  6
Continuous
 62
     7
370
    15
100
AcDbLine
 10
49.1929187724
 20
102.6590116371
 30
0.0
 11
49.1929187724
 21
106.4628592143
 31
0.0
  0
LINE
  5
1A3
330
1F
100
AcDbEntity
  8
0
  6
Continuous
 62
     7
370
    15
100
AcDbLine
 10
49.1929187724
 20
106.4628592143
 30
0.0
 11
50.1929187724
 21
107.4628592143
 31
0.0
  0
ELLIPSE
  5
1A4
330
1F
100
AcDbEntity
  8
0
  6
Continuous
 62
     7
370
    15
100
AcDbEllipse
 10
59.0498601863
 20
92.8199181368
 30
0.0
 11
-2.062867682030237
 21
-0.8595282008459152
 31
0.0
210
0.0
220
0.0
230
1.0
 40
0.9396926208
 41
0.0
 42
0.9403887412119709
  0
ELLIPSE
  5
1A5
330
1F
100
AcDbEntity
  8
0
  6
Continuous
 62
     7
370
    15
100
AcDbEllipse
 10
59.0498601863
 20
92.8199181368
 30
0.0
 11
-2.062867682030237
 21
-0.8595282008459152
 31
0.0
210
0.0
220
0.0
230
1.0
 40
0.9396926208
 41
5.245021380700736
 42
6.283185307179586
  0
LINE
  5
1A6
330
1F
100
AcDbEntity
  8
0
  6
Continuous
 62
     7
370
    15
100
AcDbLine
 10
90.1929187724
 20
67.4628592143
 30
0.0
 11
69.1929187724
 21
67.4628592143
 31
0.0
  0
CIRCLE
  5
1A7
330
1F
100
AcDbEntity
  8
0
  6
Continuous
 62
     7
370
    15
100
AcDbCircle
 10
57.7862589203
 20
92.7482392242
 30
0.0
 40
3.230281095829585
  0
CIRCLE
  5
1A8
330
1F
100
AcDbEntity
  8
0
  6
Continuous
 62
     7
370
    15
100
AcDbCircle
 10
57.7885325452
 20
92.7520864861
 30
0.0
 40
2.484714303143288
  0
CIRCLE
  5
1A9
330
1F
100
AcDbEntity
  8
0
  6
Continuous
 62
     7
370
    15
100
AcDbCircle
 10
57.8314062116
 20
92.7223855744
 30
0.0
 40
2.087087153940129
  0
ARC
  5
1AA
330
1F
100
AcDbEntity
  8
0
  6
Continuous
 62
     7
370
    15
100
AcDbCircle
 10
58.4329921014
 20
92.2798823395
 30
0.0
 40
2.10264563478771
100
AcDbArc
 50
63.1596096861
 51
222.213209477
  0
CIRCLE
  5
1AB
330
1F
100
AcDbEntity
  8
0
  6
Continuous
 62
     7
370
    15
100
AcDbCircle
 10
58.1929187724
 20
92.4628592143
 30
0.0
 40
4.582575694955866
  0
LINE
  5
1AC
330
1F
100
AcDbEntity
  8
0
  6
Continuous
 62
     7
370
    15
100
AcDbLine
 10
70.1929187724
 20
73.9628592143
 30
0.0
 11
70.1929187724
 21
80.9628592143
 31
0.0
  0
DIMENSION
  5
1AD
330
1F
100
AcDbEntity
  8
VERMASSUNG
100
AcDbDimension
  2
_D_4
 10
111.8692728103
 20
87.4628592143
 30
0.0
 11
111.8692728103
 21
77.4628592143
 31
0.0
 70
   160
  1
<>
 71
     2
 42
-1.0
  3
SLDDIMSTYLE0
100
AcDbAlignedDimension
 13
96.650431883
 23
67.4628592143
 33
0.0
 14
94.4429187724
 24
87.4628592143
 34
0.0
 50
90.0
100
AcDbRotatedDimension
  0
DIMENSION
  5
1B7
330
1F
100
AcDbEntity
  8
VERMASSUNG
100
AcDbDimension
  2
_D_5
 10
118.7179992771
 20
97.4628592143
 30
0.0
 11
118.7179992771
 21
82.4628592143
 31
0.0
 70
   160
  1
<>
 71
     2
 42
-1.0
  3
SLDDIMSTYLE0
100
AcDbAlignedDimension
 13
96.650431883
 23
67.4628592143
 33
0.0
 14
112.6929187724
 24
97.4628592143
 34
0.0
 50
90.0
100
AcDbRotatedDimension
  0
DIMENSION
  5
1C1
330
1F
100
AcDbEntity
  8
VERMASSUNG
100
AcDbDimension
  2
_D_6
 10
125.3055251448
 20
118.4628592143
 30
0.0
 11
125.3055251448
 21
92.9628592143
 31
0.0
 70
   160
  1
<>
 71
     2
 42
-1.0
  3
SLDDIMSTYLE0
100
AcDbAlignedDimension
 13
96.650431883
 23
67.4628592143
 33
0.0
 14
90.1929187724
 24
118.4628592143
 34
0.0
 50
90.0
100
AcDbRotatedDimension
  0
DIMENSION
  5
1CB
330
1F
100
AcDbEntity
  8
VERMASSUNG
100
AcDbDimension
  2
_D_7
 10
90.1929187724
 20
61.2112732368
 30
0.0
 11
80.1929187724
 21
61.2112732368
 31
0.0
 70
   160
  1
<>
 71
     2
 42
-1.0
  3
SLDDIMSTYLE0
100
AcDbAlignedDimension
 13
70.1929187724
 23
54.9628592143
 33
0.0
 14
90.1929187724
 24
67.4628592143
 34
0.0
100
AcDbRotatedDimension
  0
DIMENSION
  5
1D4
330
1F
100
AcDbEntity
  8
VERMASSUNG
100
AcDbDimension
  2
_D_8
 10
70.1929187724
 20
53.4366746705
 30
0.0
 11
87.6929187724
 21
53.4366746705
 31
0.0
 70
   160
  1
<>
 71
     2
 42
-1.0
  3
SLDDIMSTYLE0
100
AcDbAlignedDimension
 13
105.1929187724
 23
78.0979424833
 33
0.0
 14
70.1929187724
 24
54.9628592143
 34
0.0
100
AcDbRotatedDimension
  0
DIMENSION
  5
1DE
330
1F
100
AcDbEntity
  8
VERMASSUNG
100
AcDbDimension
  2
_D_9
 10
105.1929187724
 20
46.957842532
 30
0.0
 11
77.1929187724
 21
46.957842532
 31
0.0
 70
   160
  1
<>
 71
     2
 42
-1.0
  3
SLDDIMSTYLE0
100
AcDbAlignedDimension
 13
49.1929187724
 23
68.4628592143
 33
0.0
 14
105.1929187724
 24
78.0979424833
 34
0.0
 50
0.0
100
AcDbRotatedDimension
  0
DIMENSION
  5
1E8
330
1F
100
AcDbEntity
  8
VERMASSUNG
100
AcDbDimension
  2
_D_10
 10
70.1929187724
 20
61.2112732368
 30
0.0
 11
62.2982275798
 21
61.2112732368
 31
0.0
 70
   160
  1
<>
 71
     2
 42
-1.0
  3
SLDDIMSTYLE2
100
AcDbAlignedDimension
 13
69.1929187724
 23
67.4628592143
 33
0.0
 14
70.1929187724
 24
54.9628592143
 34
0.0
100
AcDbRotatedDimension
  0
DIMENSION
  5
1F4
330
1F
100
AcDbEntity
  8
VERMASSUNG
100
AcDbDimension
  2
_D_11
 10
70.1929187724
 20
97.4628592143
 30
0.0
 11
110.3020140829
 21
62.8140598525
 31
0.0
 70
   164
  1
<>
 71
     1
 42
-1.0
  3
SLDDIMSTYLE3
100
AcDbRadialDimension
 15
100.4624248905
 25
71.3141116465
 35
0.0
 40
0.0
  0
INSERT
  5
208
330
1F
100
AcDbEntity
  8
VERMASSUNG
100
AcDbBlockReference
  2
SW_CENTERMARKSYMBOL_0
 10
70.1929187724
 20
97.4628592143
 30
0.0
  0
LINE
  5
209
330
1F
100
AcDbEntity
  8
0
  6
Continuous
 62
     7
370
    15
100
AcDbLine
 10
209.7994151552
 20
192.909870251
 30
0.0
 11
209.7917900158
 21
192.8227145083
 31
0.0
  0
LINE
  5
20A
330
1F
100
AcDbEntity
  8
0
  6
Continuous
 62
     7
370
    15
100
AcDbLine
 10
209.7917900158
 20
150.9970259938
 30
0.0
 11
211.0242564446
 21
136.909870251
 31
0.0
  0
ARC
  5
20B
330
1F
100
AcDbEntity
  8
0
  6
Continuous
 62
     7
370
    15
100
AcDbCircle
 10
208.7955953177
 20
150.909870251
 30
0.0
 40
1.000000000000028
100
AcDbArc
 50
5.0
 51
90.0
  0
ARC
  5
20C
330
1F
100
AcDbEntity
  8
0
  6
Continuous
 62
     7
370
    15
100
AcDbCircle
 10
208.7955953177
 20
192.909870251
 30
0.0
 40
1.000000000000008
100
AcDbArc
 50
270.0
 51
355.0
  0
LINE
  5
20D
330
1F
100
AcDbEntity
  8
0
  6
Continuous
 62
     7
370
    15
100
AcDbLine
 10
202.7917201585
 20
151.909870251
 30
0.0
 11
208.7955953177
 21
151.909870251
 31
0.0
  0
LINE
  5
20E
330
1F
100
AcDbEntity
  8
0
  6
Continuous
 62
     7
370
    15
100
AcDbLine
 10
189.0955953177
 20
151.909870251
 30
0.0
 11
198.7955953177
 21
151.909870251
 31
0.0
  0
LINE
  5
20F
330
1F
100
AcDbEntity
  8
0
  6
Continuous
 62
     7
370
    15
100
AcDbLine
 10
208.7955953177
 20
191.909870251
 30
0.0
 11
189.0955953177
 21
191.909870251
 31
0.0
  0
ARC
  5
210
330
1F
100
AcDbEntity
  8
0
  6
Continuous
 62
     7
370
    15
100
AcDbCircle
 10
189.0955953177
 20
152.209870251
 30
0.0
 40
0.3000000000000114
100
AcDbArc
 50
180.0
 51
270.0
  0
ARC
  5
211
330
1F
100
AcDbEntity
  8
0
  6
Continuous
 62
     7
370
    15
100
AcDbCircle
 10
189.0955953177
 20
191.609870251
 30
0.0
 40
0.3000000000000114
100
AcDbArc
 50
90.0
 51
180.0
  0
LWPOLYLINE
  5
212
330
1F
100
AcDbEntity
  8
0
  6
Continuous
 62
     7
370
    15
100
AcDbPolyline
 90
        3
 70
   128
 43
0.0
 10
188.5955953177
 20
157.8200499721
 10
188.7210502612
 20
157.7517478572
 10
188.7955953177
 20
157.6990100991
  0
ARC
  5
213
330
1F
100
AcDbEntity
  8
0
  6
Continuous
 62
     7
370
    15
100
AcDbCircle
 10
188.1813817553
 20
186.909870251
 30
0.0
 40
1.000000000000021
100
AcDbArc
 50
225.0
 51
307.8947985336
  0
LINE
  5
214
330
1F
100
AcDbEntity
  8
0
  6
Continuous
 62
     7
370
    15
100
AcDbLine
 10
179.9883566645
 20
158.9683300396
 30
0.0
 11
187.0955953177
 21
158.7897714664
 31
0.0
  0
LINE
  5
215
330
1F
100
AcDbEntity
  8
0
  6
Continuous
 62
     7
370
    15
100
AcDbLine
 10
170.7017520436
 20
159.2016418717
 30
0.0
 11
174.728800737
 21
159.1004683915
 31
0.0
  0
ARC
  5
216
330
1F
100
AcDbEntity
  8
0
  6
Continuous
 62
     7
370
    15
100
AcDbCircle
 10
187.2955322286
 20
158.7847483553
 30
0.0
 40
0.2000000000000052
100
AcDbArc
 50
88.5608333333
 51
178.5608333333
  0
LINE
  5
217
330
1F
100
AcDbEntity
  8
0
  6
Continuous
 62
     7
370
    15
100
AcDbLine
 10
187.3005553397
 20
158.9846852663
 30
0.0
 11
188.4006184288
 21
158.9570478525
 31
0.0
  0
ARC
  5
218
330
1F
100
AcDbEntity
  8
0
  6
Continuous
 62
     7
370
    15
100
AcDbCircle
 10
188.3955953177
 20
158.7571109415
 30
0.0
 40
0.2000000000000171
100
AcDbArc
 50
0.0
 51
88.5608333333
  0
LINE
  5
219
330
1F
100
AcDbEntity
  8
0
  6
Continuous
 62
     7
370
    15
100
AcDbLine
 10
186.8552303193
 20
186.8239302302
 30
0.0
 11
166.2955953177
 21
186.3074006369
 31
0.0
  0
LINE
  5
21A
330
1F
100
AcDbEntity
  8
0
  6
Continuous
 62
     7
370
    15
100
AcDbLine
 10
166.2955953177
 20
186.3074006369
 30
0.0
 11
164.7955953177
 21
185.4413752331
 31
0.0
  0
LINE
  5
21B
330
1F
100
AcDbEntity
  8
0
  6
Continuous
 62
     7
370
    15
100
AcDbLine
 10
187.4742749741
 20
186.2027634698
 30
0.0
 11
186.8567292876
 21
186.8203091563
 31
0.0
  0
ARC
  5
21C
330
1F
100
AcDbEntity
  8
0
  6
Continuous
 62
     7
370
    15
100
AcDbCircle
 10
256.7955953177
 20
183.909870251
 30
0.0
 40
5.000000000000073
100
AcDbArc
 50
46.3184916609
 51
66.4218215218
  0
ARC
  5
21D
330
1F
100
AcDbEntity
  8
0
  6
Continuous
 62
     7
370
    15
100
AcDbCircle
 10
256.7955953177
 20
183.909870251
 30
0.0
 40
5.000000000000095
100
AcDbArc
 50
293.5781784782
 51
325.6591253534
  0
LINE
  5
21E
330
1F
100
AcDbEntity
  8
0
  6
Continuous
 62
     7
370
    15
100
AcDbLine
 10
246.2955953177
 20
172.909870251
 30
0.0
 11
247.2955953177
 21
171.909870251
 31
0.0
  0
LINE
  5
21F
330
1F
100
AcDbEntity
  8
0
  6
Continuous
 62
     7
370
    15
100
AcDbLine
 10
254.2955953177
 20
171.909870251
 30
0.0
 11
255.2955953177
 21
172.909870251
 31
0.0
  0
LINE
  5
220
330
1F
100
AcDbEntity
  8
0
  6
Continuous
 62
     7
370
    15
100
AcDbLine
 10
226.2955953177
 20
172.909870251
 30
0.0
 11
227.2955953177
 21
171.909870251
 31
0.0
  0
LINE
  5
221
330
1F
100
AcDbEntity
  8
0
  6
Continuous
 62
     7
370
    15
100
AcDbLine
 10
234.2955953177
 20
171.909870251
 30
0.0
 11
235.2955953177
 21
172.909870251
 31
0.0
  0
LINE
  5
222
330
1F
100
AcDbEntity
  8
0
  6
Continuous
 62
     7
370
    15
100
AcDbLine
 10
257.7955953177
 20
172.909870251
 30
0.0
 11
257.7955953177
 21
191.909870251
 31
0.0
  0
LINE
  5
223
330
1F
100
AcDbEntity
  8
0
  6
Continuous
 62
     7
370
    15
100
AcDbLine
 10
257.7955953177
 20
191.909870251
 30
0.0
 11
258.7955953177
 21
191.909870251
 31
0.0
  0
LINE
  5
224
330
1F
100
AcDbEntity
  8
0
  6
Continuous
 62
     7
370
    15
100
AcDbLine
 10
258.7955953177
 20
191.909870251
 30
0.0
 11
258.7955953177
 21
172.909870251
 31
0.0
  0
LINE
  5
225
330
1F
100
AcDbEntity
  8
0
  6
Continuous
 62
     7
370
    15
100
AcDbLine
 10
258.7955953177
 20
172.909870251
 30
0.0
 11
257.7955953177
 21
172.909870251
 31
0.0
  0
SPLINE
  5
226
330
1F
100
AcDbEntity
  8
0
  6
Continuous
 62
     7
370
    15
100
AcDbSpline
210
0.0
220
0.0
230
1.0
 70
     8
 71
     3
 72
    14
 73
    10
 74
     0
 42
0.00000001
 43
0.00000001
 12
1.0
 22
0.0
 32
0.0
 13
1.0
 23
0.0
 33
0.0
 40
0.0
 40
0.0
 40
0.0
 40
0.0
 40
0.25
 40
0.25
 40
0.5
 40
0.5
 40
0.75
 40
0.75
 40
1.0
 40
1.0
 40
1.0
 40
1.0
 10
212.3780309362195
 20
145.4523571403699
 30
0.0
 10
212.2211268009956
 20
145.4523571403699
 30
0.0
 10
212.0652138360348
 20
145.5127463386896
 30
0.0
 10
211.8142195386154
 20
145.6984024455867
 30
0.0
 10
211.7122797755952
 20
145.8232557237245
 30
0.0
 10
211.5542035632656
 20
146.0929331092938
 30
0.0
 10
211.4958563421798
 20
146.2410591396279
 30
0.0
 10
211.4145910677052
 20
146.5414845997968
 30
0.0
 10
211.3906011893722
 20
146.6975325400178
 30
0.0
 10
211.3818362381277
 20
146.8538182064936
 30
0.0
  0
SPLINE
  5
227
330
1F
100
AcDbEntity
  8
0
  6
Continuous
 62
     7
370
    15
100
AcDbSpline
210
0.0
220
0.0
230
1.0
 70
     8
 71
     3
 72
    12
 73
     8
 74
     0
 42
0.00000001
 43
0.00000001
 12
1.0
 22
0.0
 32
0.0
 13
1.0
 23
0.0
 33
0.0
 40
0.0
 40
0.0
 40
0.0
 40
0.0
 40
0.5000000000000001
 40
0.5000000000000001
 40
0.75
 40
0.75
 40
1.0
 40
1.0
 40
1.0
 40
1.0
 10
211.3818362381277
 20
146.8538182064936
 30
0.0
 10
210.9610201205377
 20
154.3572857748569
 30
0.0
 10
210.6515551242676
 20
161.8627054286231
 30
0.0
 10
210.5684979962739
 20
173.127516643025
 30
0.0
 10
210.6038537249884
 20
176.8835588876556
 30
0.0
 10
210.7875506104515
 20
184.3976241131876
 30
0.0
 10
210.9344183891155
 20
188.1558307870641
 30
0.0
 10
211.1166018448104
 20
191.9098702510158
 30
0.0
  0
LINE
  5
228
330
1F
100
AcDbEntity
  8
0
  6
Continuous
 62
     7
370
    15
100
AcDbLine
 10
257.7955953177
 20
191.909870251
 30
0.0
 11
211.1166018448
 21
191.909870251
 31
0.0
  0
LINE
  5
229
330
1F
100
AcDbEntity
  8
0
  6
Continuous
 62
     7
370
    15
100
AcDbLine
 10
222.2955953177
 20
172.909870251
 30
0.0
 11
257.7955953177
 21
172.909870251
 31
0.0
  0
ARC
  5
22A
330
1F
100
AcDbEntity
  8
0
  6
Continuous
 62
     7
370
    15
100
AcDbCircle
 10
218.0455953177
 20
172.909870251
 30
0.0
 40
4.250000000000028
100
AcDbArc
 50
0.0
 51
180.0
  0
LINE
  5
22B
330
1F
100
AcDbEntity
  8
0
  6
Continuous
 62
     7
370
    15
100
AcDbLine
 10
213.7955953177
 20
151.909870251
 30
0.0
 11
213.7955953177
 21
172.909870251
 31
0.0
  0
ARC
  5
22C
330
1F
100
AcDbEntity
  8
0
  6
Continuous
 62
     7
370
    15
100
AcDbCircle
 10
218.0455953177
 20
151.909870251
 30
0.0
 40
4.250000000000028
100
AcDbArc
 50
180.0
 51
0.0
  0
LINE
  5
22D
330
1F
100
AcDbEntity
  8
0
  6
Continuous
 62
     7
370
    15
100
AcDbLine
 10
267.7955953177
 20
151.909870251
 30
0.0
 11
222.2955953177
 21
151.909870251
 31
0.0
  0
LINE
  5
22E
330
1F
100
AcDbEntity
  8
0
  6
Continuous
 62
     7
370
    15
100
AcDbLine
 10
267.7955953177
 20
145.4523571404
 30
0.0
 11
267.7955953177
 21
151.909870251
 31
0.0
  0
LINE
  5
22F
330
1F
100
AcDbEntity
  8
0
  6
Continuous
 62
     7
370
    15
100
AcDbLine
 10
267.7955953177
 20
145.4523571404
 30
0.0
 11
212.3780309362
 21
145.4523571404
 31
0.0
  0
LINE
  5
230
330
1F
100
AcDbEntity
  8
0
  6
Continuous
 62
     7
370
    15
100
AcDbLine
 10
257.7955953177
 20
192.909870251
 30
0.0
 11
258.7955953177
 21
191.909870251
 31
0.0
  0
LINE
  5
231
330
1F
100
AcDbEntity
  8
0
  6
Continuous
 62
     7
370
    15
100
AcDbLine
 10
257.7955953177
 20
192.909870251
 30
0.0
 11
257.7955953177
 21
191.909870251
 31
0.0
  0
LINE
  5
232
330
1F
100
AcDbEntity
  8
0
  6
Continuous
 62
     7
370
    15
100
AcDbLine
 10
211.0946872316
 20
192.909870251
 30
0.0
 11
257.7955953177
 21
192.909870251
 31
0.0
  0
SPLINE
  5
233
330
1F
100
AcDbEntity
  8
0
  6
Continuous
 62
     7
370
    15
100
AcDbSpline
210
0.0
220
0.0
230
1.0
 70
     8
 71
     3
 72
     8
 73
     4
 74
     0
 42
0.00000001
 43
0.00000001
 12
1.0
 22
0.0
 32
0.0
 13
1.0
 23
0.0
 33
0.0
 40
0.0
 40
0.0
 40
0.0
 40
0.0
 40
0.0014143833462928
 40
0.0014143833462928
 40
0.0014143833462928
 40
0.0014143833462928
 10
211.1166018448104
 20
191.9098702510158
 30
0.0
 10
211.1085137344203
 20
192.2431945419351
 30
0.0
 10
211.1012033228477
 20
192.5765287415103
 30
0.0
 10
211.0946872316426
 20
192.9098702510158
 30
0.0
  0
SPLINE
  5
234
330
1F
100
AcDbEntity
  8
0
  6
Continuous
 62
     7
370
    15
100
AcDbSpline
210
0.0
220
0.0
230
1.0
 70
    24
 71
     3
 72
     9
 73
     5
 74
     0
 42
0.00000001
 43
0.00000001
 12
1.0
 22
0.0
 32
0.0
 13
1.0
 23
0.0
 33
0.0
 40
0.0
 40
0.0
 40
0.0
 40
0.0
 40
0.4568281883146596
 40
1.0
 40
1.0
 40
1.0
 40
1.0
 10
211.0389868207486
 20
136.9098702510159
 30
0.0
 10
211.0470008697756
 20
136.9098702510159
 30
0.0
 10
211.0645436774045
 20
136.9098702510159
 30
0.0
 10
211.2701543283512
 20
136.9098702510159
 30
0.0
 10
211.3818362381277
 20
136.9098702510159
 30
0.0
  0
SPLINE
  5
235
330
1F
100
AcDbEntity
  8
0
  6
Continuous
 62
     7
370
    15
100
AcDbSpline
210
0.0
220
0.0
230
1.0
 70
    24
 71
     3
 72
    13
 73
     9
 74
     0
 42
0.00000001
 43
0.00000001
 12
1.0
 22
0.0
 32
0.0
 13
1.0
 23
0.0
 33
0.0
 40
0.0
 40
0.0
 40
0.0
 40
0.0
 40
0.2015749094741828
 40
0.4031596387296669
 40
0.5878663915017475
 40
0.7726086785437466
 40
0.9575174312682426
 40
1.0
 40
1.0
 40
1.0
 40
1.0
 10
211.0946872316426
 20
192.9098702510158
 30
0.0
 10
210.9594454845886
 20
192.9098702510158
 30
0.0
 10
210.688955402139
 20
192.9098702510159
 30
0.0
 10
210.3436336260717
 20
192.9098702510159
 30
0.0
 10
210.0618358922631
 20
192.9098702510159
 30
0.0
 10
209.8767078087224
 20
192.909870251016
 30
0.0
 10
209.7894985982533
 20
192.909870251016
 30
0.0
 10
209.8067444481999
 20
192.909870251016
 30
0.0
 10
209.8099664181546
 20
192.909870251016
 30
0.0
  0
SPLINE
  5
236
330
1F
100
AcDbEntity
  8
0
  6
Continuous
 62
     7
370
    15
100
AcDbSpline
210
0.0
220
0.0
230
1.0
 70
    24
 71
     3
 72
    18
 73
    14
 74
     0
 42
0.00000001
 43
0.00000001
 12
1.0
 22
0.0
 32
0.0
 13
1.0
 23
0.0
 33
0.0
 40
0.0
 40
0.0
 40
0.0
 40
0.0
 40
0.250000000000002
 40
0.250000000000002
 40
0.500000000000004
 40
0.500000000000004
 40
0.625000000000003
 40
0.625000000000003
 40
0.750000000000002
 40
0.750000000000002
 40
0.875000000000001
 40
0.875000000000001
 40
1.0
 40
1.0
 40
1.0
 40
1.0
 10
211.3818362381277
 20
136.9098702510159
 30
0.0
 10
211.3894719440684
 20
136.9098702510159
 30
0.0
 10
211.4084589937021
 20
136.9098702510159
 30
0.0
 10
211.4748698320039
 20
136.9098702510159
 30
0.0
 10
211.522748676047
 20
136.9098702510159
 30
0.0
 10
211.6247061816619
 20
136.9098702510159
 30
0.0
 10
211.6637248552671
 20
136.9098702510159
 30
0.0
 10
211.7558173868486
 20
136.9098702510159
 30
0.0
 10
211.809650420242
 20
136.9098702510159
 30
0.0
 10
211.9355156750316
 20
136.9098702510159
 30
0.0
 10
212.0072380898423
 20
136.9098702510159
 30
0.0
 10
212.1792384397197
 20
136.9098702510159
 30
0.0
 10
212.2778402732483
 20
136.9098702510159
 30
0.0
 10
212.3780309362195
 20
136.9098702510159
 30
0.0
  0
LINE
  5
237
330
1F
100
AcDbEntity
  8
0
  6
Continuous
 62
     7
370
    15
100
AcDbLine
 10
268.7955953177
 20
151.909870251
 30
0.0
 11
268.7955953177
 21
144.3599156231
 31
0.0
  0
ARC
  5
238
330
1F
100
AcDbEntity
  8
0
  6
Continuous
 62
     7
370
    15
100
AcDbCircle
 10
297.7955953177
 20
171.909870251
 30
0.0
 40
40.00000000000014
100
AcDbArc
 50
221.4096221093
 51
223.5311521674
  0
LINE
  5
239
330
1F
100
AcDbEntity
  8
0
  6
Continuous
 62
     7
370
    15
100
AcDbLine
 10
267.7955953177
 20
151.909870251
 30
0.0
 11
268.7955953177
 21
151.909870251
 31
0.0
  0
LINE
  5
23A
330
1F
100
AcDbEntity
  8
0
  6
Continuous
 62
     7
370
    15
100
AcDbLine
 10
212.3780309362
 20
136.909870251
 30
0.0
 11
268.7955953177
 21
136.909870251
 31
0.0
  0
LINE
  5
23B
330
1F
100
AcDbEntity
  8
0
  6
Continuous
 62
     7
370
    15
100
AcDbLine
 10
268.7955953177
 20
136.909870251
 30
0.0
 11
268.7955953177
 21
144.3599156231
 31
0.0
  0
ARC
  5
23C
330
1F
100
AcDbEntity
  8
0
  6
Continuous
 62
     7
370
    15
100
AcDbCircle
 10
200.7955833748
 20
131.9704006215
 30
0.0
 40
20.0395209856491
100
AcDbArc
 50
84.2832867243
 51
95.7277797476
  0
SPLINE
  5
23D
330
1F
100
AcDbEntity
  8
0
  6
Continuous
 62
     7
370
    15
100
AcDbSpline
210
0.0
220
0.0
230
1.0
 70
     8
 71
     3
 72
    12
 73
     8
 74
     0
 42
0.00000001
 43
0.00000001
 12
1.0
 22
0.0
 32
0.0
 13
1.0
 23
0.0
 33
0.0
 40
0.0
 40
0.0
 40
0.0
 40
0.0
 40
0.2500000000000027
 40
0.2500000000000027
 40
0.5000000000000053
 40
0.5000000000000053
 40
1.0
 40
1.0
 40
1.0
 40
1.0
 10
195.7274973196654
 20
152.7782138707826
 30
0.0
 10
195.6899854336207
 20
152.7782138707826
 30
0.0
 10
195.6546980859159
 20
152.7827174150451
 30
0.0
 10
195.5957682376775
 20
152.7960906144984
 30
0.0
 10
195.5722425112085
 20
152.8045755170695
 30
0.0
 10
195.5119837234404
 20
152.8323233209041
 30
0.0
 10
195.4863889611511
 20
152.8533131846445
 30
0.0
 10
195.46768969853
 20
152.875113967834
 30
0.0
  0
LINE
  5
23E
330
1F
100
AcDbEntity
  8
0
  6
Continuous
 62
     7
370
    15
100
AcDbLine
 10
197.8636933157
 20
152.7782138708
 30
0.0
 11
195.7274973197
 21
152.7782138708
 31
0.0
  0
SPLINE
  5
23F
330
1F
100
AcDbEntity
  8
0
  6
Continuous
 62
     7
370
    15
100
AcDbSpline
210
0.0
220
0.0
230
1.0
 70
     8
 71
     3
 72
    12
 73
     8
 74
     0
 42
0.00000001
 43
0.00000001
 12
1.0
 22
0.0
 32
0.0
 13
1.0
 23
0.0
 33
0.0
 40
0.0
 40
0.0
 40
0.0
 40
0.0
 40
0.4999999999999998
 40
0.4999999999999998
 40
0.7499999999999999
 40
0.7499999999999999
 40
1.0
 40
1.0
 40
1.0
 40
1.0
 10
198.1235009368023
 20
152.875113967834
 30
0.0
 10
198.1048077036719
 20
152.853320214206
 30
0.0
 10
198.0791524062601
 20
152.8323000524964
 30
0.0
 10
198.0189917835736
 20
152.8045947065327
 30
0.0
 10
197.9949194718193
 20
152.7959594903393
 30
0.0
 10
197.9365379514687
 20
152.7827448451127
 30
0.0
 10
197.9010691238157
 20
152.7782138707825
 30
0.0
 10
197.8636933156669
 20
152.7782138707825
 30
0.0
  0
ELLIPSE
  5
240
330
1F
100
AcDbEntity
  8
0
  6
Continuous
 62
     7
370
    15
100
AcDbEllipse
 10
187.8466661452
 20
171.909870251
 30
0.0
 11
-9.367417879781813
 21
19.74174915274992
 31
0.0
210
0.0
220
0.0
230
1.0
 40
0.3419987131
 41
3.29266438251689
 42
4.239566697060992
  0
SPLINE
  5
241
330
1F
100
AcDbEntity
  8
0
  6
Continuous
 62
     7
370
    15
100
AcDbSpline
210
0.0
220
0.0
230
1.0
 70
     8
 71
     3
 72
    12
 73
     8
 74
     0
 42
0.00000001
 43
0.00000001
 12
1.0
 22
0.0
 32
0.0
 13
1.0
 23
0.0
 33
0.0
 40
0.0
 40
0.0
 40
0.0
 40
0.0
 40
0.2500000000000014
 40
0.2500000000000014
 40
0.5000000000000029
 40
0.5000000000000029
 40
1.0
 40
1.0
 40
1.0
 40
1.0
 10
197.8636933156669
 20
166.0806572553641
 30
0.0
 10
197.9012052017116
 20
166.0806572553641
 30
0.0
 10
197.9364925494164
 20
166.0658524410773
 30
0.0
 10
197.9954223976548
 20
166.0222605679515
 30
0.0
 10
198.0189481241239
 20
165.9947471418655
 30
0.0
 10
198.0792069118919
 20
165.9056154097519
 30
0.0
 10
198.1048016741813
 20
165.8392295591341
 30
0.0
 10
198.1235009368023
 20
165.7716251239567
 30
0.0
  0
LINE
  5
242
330
1F
100
AcDbEntity
  8
0
  6
Continuous
 62
     7
370
    15
100
AcDbLine
 10
195.7274973197
 20
166.0806572554
 30
0.0
 11
197.8636933157
 21
166.0806572554
 31
0.0
  0
SPLINE
  5
243
330
1F
100
AcDbEntity
  8
0
  6
Continuous
 62
     7
370
    15
100
AcDbSpline
210
0.0
220
0.0
230
1.0
 70
     8
 71
     3
 72
    12
 73
     8
 74
     0
 42
0.00000001
 43
0.00000001
 12
1.0
 22
0.0
 32
0.0
 13
1.0
 23
0.0
 33
0.0
 40
0.0
 40
0.0
 40
0.0
 40
0.0
 40
0.4999999999999947
 40
0.4999999999999947
 40
0.7499999999999973
 40
0.7499999999999973
 40
1.0
 40
1.0
 40
1.0
 40
1.0
 10
195.46768969853
 20
165.7716251239567
 30
0.0
 10
195.4863829316604
 20
165.8392077603971
 30
0.0
 10
195.5120382290722
 20
165.9056903298745
 30
0.0
 10
195.5721988517587
 20
165.994685412772
 30
0.0
 10
195.596271163513
 20
166.0226873097712
 30
0.0
 10
195.6546526838636
 20
166.0657637104364
 30
0.0
 10
195.6901215115166
 20
166.0806572553641
 30
0.0
 10
195.7274973196654
 20
166.0806572553641
 30
0.0
  0
ELLIPSE
  5
244
330
1F
100
AcDbEntity
  8
0
  6
Continuous
 62
     7
370
    15
100
AcDbEllipse
 10
205.7445244901
 20
171.909870251
 30
0.0
 11
9.367417879781669
 21
19.74174915274995
 31
0.0
210
0.0
220
0.0
230
1.0
 40
0.3419987131
 41
2.043618610118601
 42
2.990520924662731
  0
SPLINE
  5
245
330
1F
100
AcDbEntity
  8
0
  6
Continuous
 62
     7
370
    15
100
AcDbSpline
210
0.0
220
0.0
230
1.0
 70
     8
 71
     3
 72
    12
 73
     8
 74
     0
 42
0.00000001
 43
0.00000001
 12
1.0
 22
0.0
 32
0.0
 13
1.0
 23
0.0
 33
0.0
 40
0.0
 40
0.0
 40
0.0
 40
0.0
 40
0.2499999999999996
 40
0.2499999999999996
 40
0.4999999999999992
 40
0.4999999999999992
 40
1.0
 40
1.0
 40
1.0
 40
1.0
 10
195.7274973196654
 20
177.7390832466677
 30
0.0
 10
195.6899964967876
 20
177.7390832466677
 30
0.0
 10
195.6547180927516
 20
177.7538795844207
 30
0.0
 10
195.5958003726992
 20
177.7974498455798
 30
0.0
 10
195.5722769913008
 20
177.8249516440814
 30
0.0
 10
195.5120214068349
 20
177.9140508073245
 30
0.0
 10
195.4864997544238
 20
177.9801103861068
 30
0.0
 10
195.46768969853
 20
178.048115378075
 30
0.0
  0
LINE
  5
246
330
1F
100
AcDbEntity
  8
0
  6
Continuous
 62
     7
370
    15
100
AcDbLine
 10
197.8636933157
 20
177.7390832467
 30
0.0
 11
195.7274973197
 21
177.7390832467
 31
0.0
  0
SPLINE
  5
247
330
1F
100
AcDbEntity
  8
0
  6
Continuous
 62
     7
370
    15
100
AcDbSpline
210
0.0
220
0.0
230
1.0
 70
     8
 71
     3
 72
    12
 73
     8
 74
     0
 42
0.00000001
 43
0.00000001
 12
1.0
 22
0.0
 32
0.0
 13
1.0
 23
0.0
 33
0.0
 40
0.0
 40
0.0
 40
0.0
 40
0.0
 40
0.5000000000000032
 40
0.5000000000000032
 40
0.7500000000000016
 40
0.7500000000000016
 40
1.0
 40
1.0
 40
1.0
 40
1.0
 10
198.1235009368023
 20
178.0481153780751
 30
0.0
 10
198.1046977039506
 20
177.9801350538127
 30
0.0
 10
198.0791610449314
 20
177.9140446660159
 30
0.0
 10
198.0189348709829
 20
177.8249800535687
 30
0.0
 10
197.995008793583
 20
177.7971789665488
 30
0.0
 10
197.9369478734017
 20
177.7542198933239
 30
0.0
 10
197.9011461747757
 20
177.7390832466677
 30
0.0
 10
197.8636933156669
 20
177.7390832466677
 30
0.0
  0
ELLIPSE
  5
248
330
1F
100
AcDbEntity
  8
0
  6
Continuous
 62
     7
370
    15
100
AcDbEllipse
 10
187.8466661452
 20
171.909870251
 30
0.0
 11
9.367417879781756
 21
19.74174915274992
 31
0.0
210
0.0
220
0.0
230
1.0
 40
0.3419987131
 41
5.185211263708403
 42
6.132113578252563
  0
SPLINE
  5
249
330
1F
100
AcDbEntity
  8
0
  6
Continuous
 62
     7
370
    15
100
AcDbSpline
210
0.0
220
0.0
230
1.0
 70
     8
 71
     3
 72
    12
 73
     8
 74
     0
 42
0.00000001
 43
0.00000001
 12
1.0
 22
0.0
 32
0.0
 13
1.0
 23
0.0
 33
0.0
 40
0.0
 40
0.0
 40
0.0
 40
0.0
 40
0.2500000000000012
 40
0.2500000000000012
 40
0.5000000000000023
 40
0.5000000000000023
 40
1.0
 40
1.0
 40
1.0
 40
1.0
 10
197.8636933156669
 20
191.0415266312493
 30
0.0
 10
197.9011941385447
 20
191.0415266312493
 30
0.0
 10
197.9364725425807
 20
191.0370256633862
 30
0.0
 10
197.9953902626331
 20
191.0236591421688
 30
0.0
 10
198.0189136440315
 20
191.015177881924
 30
0.0
 10
198.0791692284974
 20
190.9874404862461
 30
0.0
 10
198.1046908809085
 20
190.966556487193
 30
0.0
 10
198.1235009368023
 20
190.9446265341979
 30
0.0
  0
LINE
  5
24A
330
1F
100
AcDbEntity
  8
0
  6
Continuous
 62
     7
370
    15
100
AcDbLine
 10
195.7274973197
 20
191.0415266312
 30
0.0
 11
197.8636933157
 21
191.0415266312
 31
0.0
  0
SPLINE
  5
24B
330
1F
100
AcDbEntity
  8
0
  6
Continuous
 62
     7
370
    15
100
AcDbSpline
210
0.0
220
0.0
230
1.0
 70
     8
 71
     3
 72
    12
 73
     8
 74
     0
 42
0.00000001
 43
0.00000001
 12
1.0
 22
0.0
 32
0.0
 13
1.0
 23
0.0
 33
0.0
 40
0.0
 40
0.0
 40
0.0
 40
0.0
 40
0.5000000000000008
 40
0.5000000000000008
 40
0.7500000000000003
 40
0.7500000000000003
 40
1.0
 40
1.0
 40
1.0
 40
1.0
 10
195.46768969853
 20
190.9446265341979
 30
0.0
 10
195.4864929313817
 20
190.9665485324589
 30
0.0
 10
195.5120295904009
 20
190.9874423404689
 30
0.0
 10
195.5722557643494
 20
191.0151690665867
 30
0.0
 10
195.5961818417493
 20
191.0237421999621
 30
0.0
 10
195.6542427619306
 20
191.0369213057697
 30
0.0
 10
195.6900444605566
 20
191.0415266312494
 30
0.0
 10
195.7274973196653
 20
191.0415266312494
 30
0.0
  0
ELLIPSE
  5
24C
330
1F
100
AcDbEntity
  8
0
  6
Continuous
 62
     7
370
    15
100
AcDbEllipse
 10
205.7445244901
 20
171.909870251
 30
0.0
 11
-9.367417879781641
 21
19.74174915274995
 31
0.0
210
0.0
220
0.0
230
1.0
 40
0.3419987131
 41
0.1510717289270632
 42
1.097974043471199
  0
LINE
  5
24D
330
1F
100
AcDbEntity
  8
0
  6
Continuous
 62
     7
370
    15
100
AcDbLine
 10
188.7955953177
 20
171.909870251
 30
0.0
 11
188.7955953177
 21
191.609870251
 31
0.0
  0
LINE
  5
24E
330
1F
100
AcDbEntity
  8
0
  6
Continuous
 62
     7
370
    15
100
AcDbLine
 10
188.7955953177
 20
152.209870251
 30
0.0
 11
188.7955953177
 21
171.909870251
 31
0.0
  0
LINE
  5
24F
330
1F
100
AcDbEntity
  8
0
  6
Continuous
 62
     7
370
    15
100
AcDbLine
 10
188.5955953177
 20
160.6571653139
 30
0.0
 11
188.5955953177
 21
157.8200499721
 31
0.0
  0
SPLINE
  5
250
330
1F
100
AcDbEntity
  8
0
  6
Continuous
 62
     7
370
    15
100
AcDbSpline
210
0.0
220
0.0
230
1.0
 70
     8
 71
     3
 72
    16
 73
    12
 74
     0
 42
0.00000001
 43
0.00000001
 12
1.0
 22
0.0
 32
0.0
 13
1.0
 23
0.0
 33
0.0
 40
0.0
 40
0.0
 40
0.0
 40
0.0
 40
0.4999999999999989
 40
0.4999999999999989
 40
0.7499999999999983
 40
0.7499999999999983
 40
0.874999999999998
 40
0.874999999999998
 40
0.937499999999999
 40
0.937499999999999
 40
1.0
 40
1.0
 40
1.0
 40
1.0
 10
188.5955953176662
 20
160.6571653139248
 30
0.0
 10
188.5955953176662
 20
160.7340340800586
 30
0.0
 10
188.5917118925072
 20
160.8136317052246
 30
0.0
 10
188.5668965672326
 20
160.9403773289759
 30
0.0
 10
188.5560571195201
 20
160.984426182879
 30
0.0
 10
188.5228413374712
 20
161.0516189106053
 30
0.0
 10
188.5094595938425
 20
161.0748501174436
 30
0.0
 10
188.4739499439802
 20
161.1037123076034
 30
0.0
 10
188.4585329774795
 20
161.1117319549113
 30
0.0
 10
188.4268319553308
 20
161.1162959728724
 30
0.0
 10
188.4126856703801
 20
161.1133171911215
 30
0.0
 10
188.4006184287904
 20
161.1085441041479
 30
0.0
  0
SPLINE
  5
251
330
1F
100
AcDbEntity
  8
0
  6
Continuous
 62
     7
370
    15
100
AcDbSpline
210
0.0
220
0.0
230
1.0
 70
     8
 71
     3
 72
    18
 73
    14
 74
     0
 42
0.00000001
 43
0.00000001
 12
1.0
 22
0.0
 32
0.0
 13
1.0
 23
0.0
 33
0.0
 40
0.0
 40
0.0
 40
0.0
 40
0.0
 40
0.1249999999999997
 40
0.1249999999999997
 40
0.2499999999999993
 40
0.2499999999999993
 40
0.374999999999999
 40
0.374999999999999
 40
0.4999999999999987
 40
0.4999999999999987
 40
0.7499999999999993
 40
0.7499999999999993
 40
1.0
 40
1.0
 40
1.0
 40
1.0
 10
188.4006184287966
 20
161.1085441041438
 30
0.0
 10
188.3519129366545
 20
161.0892790924702
 30
0.0
 10
188.2934028283276
 20
161.0742498852735
 30
0.0
 10
188.1616737100355
 20
161.0712526583445
 30
0.0
 10
188.0969147736949
 20
161.084633578731
 30
0.0
 10
187.9917038008354
 20
161.1227320012966
 30
0.0
 10
187.9484874253954
 20
161.1467250523341
 30
0.0
 10
187.8723089202835
 20
161.1971386595127
 30
0.0
 10
187.8394539589036
 20
161.2237670045679
 30
0.0
 10
187.7490856790698
 20
161.306285181395
 30
0.0
 10
187.6996624446998
 20
161.3649894153846
 30
0.0
 10
187.6120139896516
 20
161.4854707109142
 30
0.0
 10
187.5739548174488
 20
161.5475141194928
 30
0.0
 10
187.5395110001032
 20
161.6111326104941
 30
0.0
  0
SPLINE
  5
252
330
1F
100
AcDbEntity
  8
0
  6
Continuous
 62
     7
370
    15
100
AcDbSpline
210
0.0
220
0.0
230
1.0
 70
     8
 71
     3
 72
     8
 73
     4
 74
     0
 42
0.00000001
 43
0.00000001
 12
1.0
 22
0.0
 32
0.0
 13
1.0
 23
0.0
 33
0.0
 40
0.0
 40
0.0
 40
0.0
 40
0.0
 40
1.0
 40
1.0
 40
1.0
 40
1.0
 10
187.5395110001026
 20
161.611132610493
 30
0.0
 10
187.5151972962125
 20
161.6560405583149
 30
0.0
 10
187.4937006542564
 20
161.7024929672318
 30
0.0
 10
187.4742749741064
 20
161.7504634821681
 30
0.0
  0
SPLINE
  5
253
330
1F
100
AcDbEntity
  8
0
  6
Continuous
 62
     7
370
    15
100
AcDbSpline
210
0.0
220
0.0
230
1.0
 70
     8
 71
     3
 72
     8
 73
     4
 74
     0
 42
0.00000001
 43
0.00000001
 12
1.0
 22
0.0
 32
0.0
 13
1.0
 23
0.0
 33
0.0
 40
0.0
 40
0.0
 40
0.0
 40
0.0
 40
1.0
 40
1.0
 40
1.0
 40
1.0
 10
187.4742749741064
 20
168.2829705089548
 30
0.0
 10
187.4937004009998
 20
168.3728529537269
 30
0.0
 10
187.5151969549688
 20
168.4622653971896
 30
0.0
 10
187.5395110001031
 20
168.5510245242039
 30
0.0
  0
SPLINE
  5
254
330
1F
100
AcDbEntity
  8
0
  6
Continuous
 62
     7
370
    15
100
AcDbSpline
210
0.0
220
0.0
230
1.0
 70
     8
 71
     3
 72
    18
 73
    14
 74
     0
 42
0.00000001
 43
0.00000001
 12
1.0
 22
0.0
 32
0.0
 13
1.0
 23
0.0
 33
0.0
 40
0.0
 40
0.0
 40
0.0
 40
0.0
 40
0.25
 40
0.25
 40
0.5
 40
0.5
 40
0.625
 40
0.625
 40
0.75
 40
0.75
 40
0.875
 40
0.875
 40
1.0
 40
1.0
 40
1.0
 40
1.0
 10
187.5395110001021
 20
168.5510245242044
 30
0.0
 10
187.573807819554
 20
168.6762260584243
 30
0.0
 10
187.6116190995311
 20
168.7999218893548
 30
0.0
 10
187.6981914667111
 20
169.0426427205428
 30
0.0
 10
187.746530596794
 20
169.1618464544092
 30
0.0
 10
187.8358029541164
 20
169.3335279835813
 30
0.0
 10
187.8683444198924
 20
169.3895720293499
 30
0.0
 10
187.9445206197458
 20
169.4969535974369
 30
0.0
 10
187.9877366797404
 20
169.5483404543035
 30
0.0
 10
188.0934259817063
 20
169.6293934015278
 30
0.0
 10
188.1583970404209
 20
169.6572835629801
 30
0.0
 10
188.2920574287787
 20
169.6455262599077
 30
0.0
 10
188.3513638821149
 20
169.6090727294165
 30
0.0
 10
188.4006184287909
 20
169.5639306405834
 30
0.0
  0
SPLINE
  5
255
330
1F
100
AcDbEntity
  8
0
  6
Continuous
 62
     7
370
    15
100
AcDbSpline
210
0.0
220
0.0
230
1.0
 70
     8
 71
     3
 72
    16
 73
    12
 74
     0
 42
0.00000001
 43
0.00000001
 12
1.0
 22
0.0
 32
0.0
 13
1.0
 23
0.0
 33
0.0
 40
0.0
 40
0.0
 40
0.0
 40
0.0
 40
0.0625000000000013
 40
0.0625000000000013
 40
0.1250000000000025
 40
0.1250000000000025
 40
0.2500000000000028
 40
0.2500000000000028
 40
0.5000000000000019
 40
0.5000000000000019
 40
1.0
 40
1.0
 40
1.0
 40
1.0
 10
188.4006184287601
 20
169.5639306405386
 30
0.0
 10
188.4126882620359
 20
169.5528685656026
 30
0.0
 10
188.4269639169692
 20
169.5436289089615
 30
0.0
 10
188.4584283290937
 20
169.5390808510995
 30
0.0
 10
188.4739288539041
 20
169.5451346339293
 30
0.0
 10
188.5093677505109
 20
169.5742239383337
 30
0.0
 10
188.5229603666143
 20
169.6037933120529
 30
0.0
 10
188.5559546850071
 20
169.6908365560714
 30
0.0
 10
188.5667420783259
 20
169.7527851982729
 30
0.0
 10
188.591795325605
 20
169.9403917653857
 30
0.0
 10
188.5955953176663
 20
170.0663992883581
 30
0.0
 10
188.5955953176663
 20
170.1928753685688
 30
0.0
  0
LINE
  5
256
330
1F
100
AcDbEntity
  8
0
  6
Continuous
 62
     7
370
    15
100
AcDbLine
 10
188.5955953177
 20
184.8795700706
 30
0.0
 11
188.5955953177
 21
170.1928753686
 31
0.0
  0
SPLINE
  5
257
330
1F
100
AcDbEntity
  8
0
  6
Continuous
 62
     7
370
    15
100
AcDbSpline
210
0.0
220
0.0
230
1.0
 70
     8
 71
     3
 72
    16
 73
    12
 74
     0
 42
0.00000001
 43
0.00000001
 12
1.0
 22
0.0
 32
0.0
 13
1.0
 23
0.0
 33
0.0
 40
0.0
 40
0.0
 40
0.0
 40
0.0
 40
0.5000000000000007
 40
0.5000000000000007
 40
0.7500000000000004
 40
0.7500000000000004
 40
0.8750000000000003
 40
0.8750000000000003
 40
0.9375000000000002
 40
0.9375000000000002
 40
1.0
 40
1.0
 40
1.0
 40
1.0
 10
188.5955953176662
 20
184.8795700705543
 30
0.0
 10
188.5955953176662
 20
184.9294790719317
 30
0.0
 10
188.5917118925072
 20
184.9758708966138
 30
0.0
 10
188.5668965672326
 20
185.0354607848421
 30
0.0
 10
188.5560571195201
 20
185.0541337499922
 30
0.0
 10
188.5228413374712
 20
185.0744844730934
 30
0.0
 10
188.5094595938425
 20
185.0804331052582
 30
0.0
 10
188.4739499439802
 20
185.0807605624038
 30
0.0
 10
188.4585329774795
 20
185.0788172962137
 30
0.0
 10
188.4268319553309
 20
185.0696625703735
 30
0.0
 10
188.4126856703801
 20
185.0634226209759
 30
0.0
 10
188.4006184287904
 20
185.0571360083161
 30
0.0
  0
SPLINE
  5
258
330
1F
100
AcDbEntity
  8
0
  6
Continuous
 62
     7
370
    15
100
AcDbSpline
210
0.0
220
0.0
230
1.0
 70
     8
 71
     3
 72
    18
 73
    14
 74
     0
 42
0.00000001
 43
0.00000001
 12
1.0
 22
0.0
 32
0.0
 13
1.0
 23
0.0
 33
0.0
 40
0.0
 40
0.0
 40
0.0
 40
0.0
 40
0.125
 40
0.125
 40
0.25
 40
0.25
 40
0.375
 40
0.375
 40
0.5
 40
0.5
 40
0.75
 40
0.75
 40
1.0
 40
1.0
 40
1.0
 40
1.0
 10
188.4006184287966
 20
185.0571360083118
 30
0.0
 10
188.3519138451086
 20
185.0317626162128
 30
0.0
 10
188.2934053623331
 20
185.0106708990523
 30
0.0
 10
188.1616785470632
 20
185.0006701035232
 30
0.0
 10
188.0969204755658
 20
185.0138568564873
 30
0.0
 10
187.991709873415
 20
185.0546077583836
 30
0.0
 10
187.9484937248949
 20
185.0811205232392
 30
0.0
 10
187.872315408811
 20
185.136599619913
 30
0.0
 10
187.8394605765198
 20
185.1658433135432
 30
0.0
 10
187.7490926705588
 20
185.2555337019448
 30
0.0
 10
187.6996700127192
 20
185.3181123838232
 30
0.0
 10
187.6120188871276
 20
185.442841002304
 30
0.0
 10
187.5739573397371
 20
185.5053294060919
 30
0.0
 10
187.5395110001031
 20
185.5674536183498
 30
0.0
  0
SPLINE
  5
259
330
1F
100
AcDbEntity
  8
0
  6
Continuous
 62
     7
370
    15
100
AcDbSpline
210
0.0
220
0.0
230
1.0
 70
     8
 71
     3
 72
     8
 73
     4
 74
     0
 42
0.00000001
 43
0.00000001
 12
1.0
 22
0.0
 32
0.0
 13
1.0
 23
0.0
 33
0.0
 40
0.0
 40
0.0
 40
0.0
 40
0.0
 40
1.0
 40
1.0
 40
1.0
 40
1.0
 10
187.4742749741064
 20
185.6961767619249
 30
0.0
 10
187.4937011794053
 20
185.6542625271896
 30
0.0
 10
187.5151980038338
 20
185.6113022756213
 30
0.0
 10
187.5395110001031
 20
185.5674536183498
 30
0.0
  0
SPLINE
  5
25A
330
1F
100
AcDbEntity
  8
0
  6
Continuous
 62
     7
370
    15
100
AcDbSpline
210
0.0
220
0.0
230
1.0
 70
     8
 71
     3
 72
    24
 73
    20
 74
     0
 42
0.00000001
 43
0.00000001
 12
1.0
 22
0.0
 32
0.0
 13
1.0
 23
0.0
 33
0.0
 40
0.0
 40
0.0
 40
0.0
 40
0.0
 40
0.2500000000000113
 40
0.2500000000000113
 40
0.3750000000000169
 40
0.3750000000000169
 40
0.4375000000000179
 40
0.4375000000000179
 40
0.5000000000000189
 40
0.5000000000000189
 40
0.5312500000000182
 40
0.5312500000000182
 40
0.5625000000000174
 40
0.5625000000000174
 40
0.6250000000000161
 40
0.6250000000000161
 40
0.7500000000000094
 40
0.7500000000000094
 40
1.0
 40
1.0
 40
1.0
 40
1.0
 10
187.3005553397266
 20
162.2764488394687
 30
0.0
 10
187.2847864623691
 20
162.3355145220565
 30
0.0
 10
187.2681724805191
 20
162.3945060308202
 30
0.0
 10
187.239640814514
 20
162.4806147245012
 30
0.0
 10
187.2295533996953
 20
162.5089911390552
 30
0.0
 10
187.212065839241
 20
162.5493893065671
 30
0.0
 10
187.2058562774577
 20
162.5625091033049
 30
0.0
 10
187.1915787238051
 20
162.586802044549
 30
0.0
 10
187.1840071760097
 20
162.5989444407277
 30
0.0
 10
187.1665895923315
 20
162.6079637914209
 30
0.0
 10
187.1581070956864
 20
162.6087888723624
 30
0.0
 10
187.1420687838146
 20
162.5923964740641
 30
0.0
 10
187.1372482356111
 20
162.5805024534582
 30
0.0
 10
187.1258390110631
 20
162.5484415958608
 30
0.0
 10
187.1218185306056
 20
162.5281491476292
 30
0.0
 10
187.1110646757853
 20
162.4677398092241
 30
0.0
 10
187.1071919945031
 20
162.4293196731071
 30
0.0
 10
187.0980238446655
 20
162.3159131921664
 30
0.0
 10
187.0959953392964
 20
162.2429156903931
 30
0.0
 10
187.0955953176662
 20
162.172029587983
 30
0.0
  0
SPLINE
  5
25B
330
1F
100
AcDbEntity
  8
0
  6
Continuous
 62
     7
370
    15
100
AcDbSpline
210
0.0
220
0.0
230
1.0
 70
     8
 71
     3
 72
    16
 73
    12
 74
     0
 42
0.00000001
 43
0.00000001
 12
1.0
 22
0.0
 32
0.0
 13
1.0
 23
0.0
 33
0.0
 40
0.0
 40
0.0
 40
0.0
 40
0.0
 40
0.2499999999999995
 40
0.2499999999999995
 40
0.3749999999999996
 40
0.3749999999999996
 40
0.4999999999999997
 40
0.4999999999999997
 40
0.7499999999999998
 40
0.7499999999999998
 40
1.0
 40
1.0
 40
1.0
 40
1.0
 10
187.095595317666
 20
162.1720295879829
 30
0.0
 10
187.0150579857668
 20
162.489078345357
 30
0.0
 10
186.9550206417396
 20
162.8379303663046
 30
0.0
 10
186.894282934586
 20
163.4082739317088
 30
0.0
 10
186.878960559473
 20
163.6062797569267
 30
0.0
 10
186.8583777501688
 20
164.0185607885271
 30
0.0
 10
186.853178153143
 20
164.2334209945783
 30
0.0
 10
186.8531244999627
 20
164.8883187456955
 30
0.0
 10
186.8733220434402
 20
165.3429447720208
 30
0.0
 10
186.9540001317976
 20
166.2876393606757
 30
0.0
 10
187.0150462964047
 20
166.7795085113836
 30
0.0
 10
187.0955953176623
 20
167.2749948991288
 30
0.0
  0
SPLINE
  5
25C
330
1F
100
AcDbEntity
  8
0
  6
Continuous
 62
     7
370
    15
100
AcDbSpline
210
0.0
220
0.0
230
1.0
 70
     8
 71
     3
 72
    24
 73
    20
 74
     0
 42
0.00000001
 43
0.00000001
 12
1.0
 22
0.0
 32
0.0
 13
1.0
 23
0.0
 33
0.0
 40
0.0
 40
0.0
 40
0.0
 40
0.0
 40
0.2499999999999953
 40
0.2499999999999953
 40
0.3749999999999938
 40
0.3749999999999938
 40
0.437499999999993
 40
0.437499999999993
 40
0.4687499999999926
 40
0.4687499999999926
 40
0.4999999999999921
 40
0.4999999999999921
 40
0.5624999999999929
 40
0.5624999999999929
 40
0.6249999999999938
 40
0.6249999999999938
 40
0.749999999999995
 40
0.749999999999995
 40
1.0
 40
1.0
 40
1.0
 40
1.0
 10
187.0955953176661
 20
167.2749948991295
 30
0.0
 10
187.0959982283019
 20
167.1848951220569
 30
0.0
 10
187.0980422076425
 20
167.0956217222435
 30
0.0
 10
187.1072794504686
 20
166.9652840974252
 30
0.0
 10
187.1111665134491
 20
166.9223009284191
 30
0.0
 10
187.1220704048557
 20
166.8602927466991
 30
0.0
 10
187.1262124506062
 20
166.839530760727
 30
0.0
 10
187.1381075243589
 20
166.8135541121249
 30
0.0
 10
187.1433545886677
 20
166.8045134614377
 30
0.0
 10
187.1602216550468
 20
166.8054557128858
 30
0.0
 10
187.168044062572
 20
166.816729716882
 30
0.0
 10
187.1849928631936
 20
166.8479321844364
 30
0.0
 10
187.1924492144115
 20
166.8710574236991
 30
0.0
 10
187.206509117604
 20
166.9166521289302
 30
0.0
 10
187.2126415027399
 20
166.9395957399601
 30
0.0
 10
187.2299362652631
 20
167.0086151513059
 30
0.0
 10
187.2399535836721
 20
167.0549068629819
 30
0.0
 10
187.2683249179149
 20
167.193961095348
 30
0.0
 10
187.2848603555593
 20
167.2868623971042
 30
0.0
 10
187.3005553397238
 20
167.3799206166418
 30
0.0
  0
SPLINE
  5
25D
330
1F
100
AcDbEntity
  8
0
  6
Continuous
 62
     7
370
    15
100
AcDbSpline
210
0.0
220
0.0
230
1.0
 70
     8
 71
     3
 72
     8
 73
     4
 74
     0
 42
0.00000001
 43
0.00000001
 12
1.0
 22
0.0
 32
0.0
 13
1.0
 23
0.0
 33
0.0
 40
0.0
 40
0.0
 40
0.0
 40
0.0
 40
1.0
 40
1.0
 40
1.0
 40
1.0
 10
187.3005553397238
 20
167.3799206166418
 30
0.0
 10
187.3512824829304
 20
167.6806904409135
 30
0.0
 10
187.4091698124913
 20
167.9817255929286
 30
0.0
 10
187.4742749741065
 20
168.2829705089548
 30
0.0
  0
SPLINE
  5
25E
330
1F
100
AcDbEntity
  8
0
  6
Continuous
 62
     7
370
    15
100
AcDbSpline
210
0.0
220
0.0
230
1.0
 70
     8
 71
     3
 72
     8
 73
     4
 74
     0
 42
0.00000001
 43
0.00000001
 12
1.0
 22
0.0
 32
0.0
 13
1.0
 23
0.0
 33
0.0
 40
0.0
 40
0.0
 40
0.0
 40
0.0
 40
1.0
 40
1.0
 40
1.0
 40
1.0
 10
187.4742749741065
 20
161.7504634821682
 30
0.0
 10
187.4091698124925
 20
161.9112366496215
 30
0.0
 10
187.3512824829325
 20
162.0864395400566
 30
0.0
 10
187.3005553397265
 20
162.2764488394687
 30
0.0
  0
LINE
  5
25F
330
1F
100
AcDbEntity
  8
0
  6
Continuous
 62
     7
370
    15
100
AcDbLine
 10
187.0955953177
 20
161.4475314034
 30
0.0
 11
187.0955953177
 21
162.172029588
 31
0.0
  0
LINE
  5
260
330
1F
100
AcDbEntity
  8
0
  6
Continuous
 62
     7
370
    15
100
AcDbLine
 10
166.2955953177
 20
161.9000889119
 30
0.0
 11
166.2955953177
 21
168.5510245242
 31
0.0
  0
LINE
  5
261
330
1F
100
AcDbEntity
  8
0
  6
Continuous
 62
     7
370
    15
100
AcDbLine
 10
187.0955953177
 20
167.2749948991
 30
0.0
 11
187.0955953177
 21
168.5510245242
 31
0.0
  0
LINE
  5
262
330
1F
100
AcDbEntity
  8
0
  6
Continuous
 62
     7
370
    15
100
AcDbLine
 10
187.0955953177
 20
168.5510245242
 30
0.0
 11
187.0955953177
 21
185.7310548254
 31
0.0
  0
LINE
  5
263
330
1F
100
AcDbEntity
  8
0
  6
Continuous
 62
     7
370
    15
100
AcDbLine
 10
166.2955953177
 20
168.5510245242
 30
0.0
 11
166.2955953177
 21
185.2784973169
 31
0.0
  0
LINE
  5
264
330
1F
100
AcDbEntity
  8
0
  6
Continuous
 62
     7
370
    15
100
AcDbLine
 10
164.7955953177
 20
168.5510245242
 30
0.0
 11
164.7955953177
 21
184.5284973169
 31
0.0
  0
LINE
  5
265
330
1F
100
AcDbEntity
  8
0
  6
Continuous
 62
     7
370
    15
100
AcDbLine
 10
164.7955953177
 20
162.6500889119
 30
0.0
 11
164.7955953177
 21
168.5510245242
 31
0.0
  0
LINE
  5
266
330
1F
100
AcDbEntity
  8
0
  6
Continuous
 62
     7
370
    15
100
AcDbLine
 10
258.7955953177
 20
172.909870251
 30
0.0
 11
258.7955953177
 21
151.909870251
 31
0.0
  0
SPLINE
  5
267
330
1F
100
AcDbEntity
  8
0
  6
Continuous
 62
     7
370
    15
100
AcDbSpline
210
0.0
220
0.0
230
1.0
 70
     8
 71
     3
 72
     8
 73
     4
 74
     0
 42
0.00000001
 43
0.00000001
 12
1.0
 22
0.0
 32
0.0
 13
1.0
 23
0.0
 33
0.0
 40
0.0000137051794235
 40
0.0000137051794235
 40
0.0000137051794235
 40
0.0000137051794235
 40
0.0027147144718019
 40
0.0027147144718019
 40
0.0027147144718019
 40
0.0027147144718019
 10
166.2955953176661
 20
159.4820759334307
 30
0.0
 10
167.1955914531609
 20
159.4609955361
 30
0.0
 10
168.0955916317563
 20
159.4398780279418
 30
0.0
 10
168.9955953176661
 20
159.4187234205961
 30
0.0
  0
LINE
  5
268
330
1F
100
AcDbEntity
  8
0
  6
Continuous
 62
     7
370
    15
100
AcDbLine
 10
166.2955953177
 20
159.4820759334
 30
0.0
 11
166.2955953177
 21
161.9000889119
 31
0.0
  0
LINE
  5
269
330
1F
100
AcDbEntity
  8
0
  6
Continuous
 62
     7
370
    15
100
AcDbLine
 10
187.0955953177
 20
158.7897714664
 30
0.0
 11
187.0955953177
 21
161.4475314034
 31
0.0
  0
SPLINE
  5
26A
330
1F
100
AcDbEntity
  8
0
  6
Continuous
 62
     7
370
    15
100
AcDbSpline
210
0.0
220
0.0
230
1.0
 70
     8
 71
     3
 72
    14
 73
    10
 74
     0
 42
0.00000001
 43
0.00000001
 12
1.0
 22
0.0
 32
0.0
 13
1.0
 23
0.0
 33
0.0
 40
0.0
 40
0.0
 40
0.0
 40
0.0
 40
0.3775288239686481
 40
0.5338733690476656
 40
0.690880859974605
 40
0.7817757575789298
 40
0.87387486205186
 40
0.9402566634510724
 40
1.0
 40
1.0
 40
1.0
 40
1.0
 10
168.9955953176661
 20
159.4187234205961
 30
0.0
 10
169.2661470494948
 20
159.3761749494612
 30
0.0
 10
169.6487413188666
 20
159.3160060452864
 30
0.0
 10
170.1084995804203
 20
159.2606426535367
 30
0.0
 10
170.3565757598361
 20
159.2339624601805
 30
0.0
 10
170.5350857027869
 20
159.2166442963325
 30
0.0
 10
170.6368785771051
 20
159.2074028570265
 30
0.0
 10
170.6951407545658
 20
159.2023356216669
 30
0.0
 10
170.6996291988027
 20
159.201952779099
 30
0.0
 10
170.7017552986349
 20
159.2017714330744
 30
0.0
  0
SPLINE
  5
26B
330
1F
100
AcDbEntity
  8
0
  6
Continuous
 62
     7
370
    15
100
AcDbSpline
210
0.0
220
0.0
230
1.0
 70
     8
 71
     3
 72
    27
 73
    23
 74
     0
 42
0.00000001
 43
0.00000001
 12
1.0
 22
0.0
 32
0.0
 13
1.0
 23
0.0
 33
0.0
 40
0.0
 40
0.0
 40
0.0
 40
0.0
 40
0.0320048888823139
 40
0.081629980864461
 40
0.1292910406044127
 40
0.1782329011447843
 40
0.22788498322502
 40
0.2788080991010479
 40
0.3317507939392641
 40
0.3860723031504809
 40
0.4419521139322964
 40
0.4993720553881288
 40
0.5566423887905804
 40
0.6155860317163387
 40
0.6725583336459853
 40
0.7312836920047278
 40
0.7864689484547134
 40
0.8434363526702111
 40
0.8956187083338399
 40
0.9495000915392614
 40
0.9987346993711221
 40
1.0
 40
1.0
 40
1.0
 40
1.0
 10
179.9883779551114
 20
158.9691774779714
 30
0.0
 10
179.9884550448695
 20
158.9691676422977
 30
0.0
 10
179.9886516659389
 20
158.9691425559473
 30
0.0
 10
179.9137901092272
 20
158.9797764790082
 30
0.0
 10
179.776299644415
 20
158.9986312213478
 30
0.0
 10
179.5792911145902
 20
159.0242436891954
 30
0.0
 10
179.3261362616791
 20
159.0546464980807
 30
0.0
 10
179.0192202961843
 20
159.087731406689
 30
0.0
 10
178.662413946282
 20
159.120921899784
 30
0.0
 10
178.2614049031809
 20
159.1513755601861
 30
0.0
 10
177.8256017662869
 20
159.1761942224197
 30
0.0
 10
177.3691585765437
 20
159.1928182170145
 30
0.0
 10
176.9040002088985
 20
159.1998972629015
 30
0.0
 10
176.4524281532941
 20
159.1971620599854
 30
0.0
 10
176.0232826270901
 20
159.1858583972826
 30
0.0
 10
175.6417244567472
 20
159.1686495343394
 30
0.0
 10
175.3109253020024
 20
159.1483583101874
 30
0.0
 10
175.0527603646109
 20
159.129044263107
 30
0.0
 10
174.8619106265344
 20
159.1128389957215
 30
0.0
 10
174.7589023590926
 20
159.1034136966047
 30
0.0
 10
174.7170207269934
 20
159.099471951582
 30
0.0
 10
174.7285153090142
 20
159.100544007221
 30
0.0
 10
174.7288033115532
 20
159.1005708681147
 30
0.0
  0
SPLINE
  5
26C
330
1F
100
AcDbEntity
  8
0
  6
Continuous
 62
     7
370
    15
100
AcDbSpline
210
0.0
220
0.0
230
1.0
 70
     8
 71
     3
 72
    10
 73
     6
 74
     0
 42
0.00000001
 43
0.00000001
 12
1.0
 22
0.0
 32
0.0
 13
1.0
 23
0.0
 33
0.0
 40
0.0
 40
0.0
 40
0.0
 40
0.0
 40
0.5
 40
0.5
 40
1.0
 40
1.0
 40
1.0
 40
1.0
 10
164.7955953176653
 20
160.2713758817055
 30
0.0
 10
165.0327372783811
 20
160.149453377813
 30
0.0
 10
165.2780800371446
 20
160.0219471813513
 30
0.0
 10
165.7793436258776
 20
159.7583184633016
 30
0.0
 10
166.0353781951279
 20
159.622142209547
 30
0.0
 10
166.2955953176661
 20
159.4820759334307
 30
0.0
  0
LINE
  5
26D
330
1F
100
AcDbEntity
  8
0
  6
Continuous
 62
     7
370
    15
100
AcDbLine
 10
164.7955953177
 20
160.2713758817
 30
0.0
 11
164.7955953177
 21
162.6500889119
 31
0.0
  0
SPLINE
  5
26E
330
1F
100
AcDbEntity
  8
0
  6
Continuous
 62
     7
370
    15
100
AcDbSpline
210
0.0
220
0.0
230
1.0
 70
     8
 71
     3
 72
    24
 73
    20
 74
     0
 42
0.00000001
 43
0.00000001
 12
1.0
 22
0.0
 32
0.0
 13
1.0
 23
0.0
 33
0.0
 40
0.0
 40
0.0
 40
0.0
 40
0.0
 40
0.2499999999999994
 40
0.2499999999999994
 40
0.3749999999999992
 40
0.3749999999999992
 40
0.437499999999999
 40
0.437499999999999
 40
0.4687499999999989
 40
0.4687499999999989
 40
0.4999999999999989
 40
0.4999999999999989
 40
0.5624999999999984
 40
0.5624999999999984
 40
0.624999999999998
 40
0.624999999999998
 40
0.7499999999999981
 40
0.7499999999999981
 40
1.0
 40
1.0
 40
1.0
 40
1.0
 10
187.0955953176579
 20
186.2825862659213
 30
0.0
 10
187.0959983470318
 20
186.3012935039298
 30
0.0
 10
187.0980280867469
 20
186.3174944087261
 30
0.0
 10
187.1073367981667
 20
186.3341957615096
 30
0.0
 10
187.1112627912812
 20
186.3386871842522
 30
0.0
 10
187.1221921511973
 20
186.339937226392
 30
0.0
 10
187.1263137792916
 20
186.3398516900933
 30
0.0
 10
187.138208300474
 20
186.3334761587853
 30
0.0
 10
187.1434951124278
 20
186.3301642452783
 30
0.0
 10
187.1600630439427
 20
186.3146902590126
 30
0.0
 10
187.16798975271
 20
186.3053799897841
 30
0.0
 10
187.1849820909352
 20
186.2841139566608
 30
0.0
 10
187.1923797917262
 20
186.2731514972544
 30
0.0
 10
187.206482182068
 20
186.2518080828802
 30
0.0
 10
187.2126353393602
 20
186.2418882363188
 30
0.0
 10
187.2299490728213
 20
186.2130335708916
 30
0.0
 10
187.2399541137099
 20
186.1949872381414
 30
0.0
 10
187.2683105699406
 20
186.1417222373296
 30
0.0
 10
187.2848591092869
 20
186.1075133377235
 30
0.0
 10
187.3005553397269
 20
186.0732412969206
 30
0.0
  0
LINE
  5
26F
330
1F
100
AcDbEntity
  8
0
  6
Continuous
 62
     7
370
    15
100
AcDbLine
 10
187.0955953177
 20
186.2825862659
 30
0.0
 11
187.0955953177
 21
185.7310548254
 31
0.0
  0
SPLINE
  5
270
330
1F
100
AcDbEntity
  8
0
  6
Continuous
 62
     7
370
    15
100
AcDbSpline
210
0.0
220
0.0
230
1.0
 70
     8
 71
     3
 72
    13
 73
     9
 74
     0
 42
0.00000001
 43
0.00000001
 12
1.0
 22
0.0
 32
0.0
 13
1.0
 23
0.0
 33
0.0
 40
0.0
 40
0.0
 40
0.0
 40
0.0
 40
0.0600464699330921
 40
0.2706632009151286
 40
0.4859158968176962
 40
0.7027576939530374
 40
0.8511279435644113
 40
1.0
 40
1.0
 40
1.0
 40
1.0
 10
186.8553557600355
 20
186.8189372630187
 30
0.0
 10
186.8547176360115
 20
186.8203733005066
 30
0.0
 10
186.8518412522521
 20
186.8268463288724
 30
0.0
 10
186.8686866424942
 20
186.7889319397716
 30
0.0
 10
186.906943434685
 20
186.7029737346782
 30
0.0
 10
186.9635202456576
 20
186.5763071016187
 30
0.0
 10
187.0272442990028
 20
186.4341811145713
 30
0.0
 10
187.072786016815
 20
186.3331747220641
 30
0.0
 10
187.0955953176662
 20
186.2825862659131
 30
0.0
  0
LINE
  5
271
330
1F
100
AcDbEntity
  8
0
  6
Continuous
 62
     7
370
    15
100
AcDbLine
 10
166.2955953177
 20
186.3074006369
 30
0.0
 11
166.2955953177
 21
185.2784973169
 31
0.0
  0
SPLINE
  5
272
330
1F
100
AcDbEntity
  8
0
  6
Continuous
 62
     7
370
    15
100
AcDbSpline
210
0.0
220
0.0
230
1.0
 70
     8
 71
     3
 72
     8
 73
     4
 74
     0
 42
0.00000001
 43
0.00000001
 12
1.0
 22
0.0
 32
0.0
 13
1.0
 23
0.0
 33
0.0
 40
0.0
 40
0.0
 40
0.0
 40
0.0
 40
1.0
 40
1.0
 40
1.0
 40
1.0
 10
187.3005553397268
 20
186.0732412969206
 30
0.0
 10
187.3512824224493
 20
185.9624809041295
 30
0.0
 10
187.4091697354363
 20
185.8366486767498
 30
0.0
 10
187.4742749741065
 20
185.6961767619249
 30
0.0
  0
LINE
  5
273
330
1F
100
AcDbEntity
  8
0
  6
Continuous
 62
     7
370
    15
100
AcDbLine
 10
164.7955953177
 20
185.4413752331
 30
0.0
 11
164.7955953177
 21
184.5284973169
 31
0.0
  0
ARC
  5
274
330
1F
100
AcDbEntity
  8
0
  6
Continuous
 62
     7
370
    15
100
AcDbCircle
 10
257.7645190978
 20
186.3252818696
 30
0.0
 40
2.759193077525792
100
AcDbArc
 50
4.7651306154
 51
25.7919776122
  0
ARC
  5
275
330
1F
100
AcDbEntity
  8
0
  6
Continuous
 62
     7
370
    15
100
AcDbCircle
 10
240.7938855604
 20
182.3274616094
 30
0.0
 40
20.1682327426217
100
AcDbArc
 50
356.4802858281
 51
12.098240075
  0
LINE
  5
276
330
1F
100
AcDbEntity
  8
0
  6
Continuous
 62
     7
370
    15
100
AcDbLine
 10
250.7955953177
 20
171.909870251
 30
0.0
 11
254.2955953177
 21
171.909870251
 31
0.0
  0
LINE
  5
277
330
1F
100
AcDbEntity
  8
0
  6
Continuous
 62
     7
370
    15
100
AcDbLine
 10
247.2955953177
 20
171.909870251
 30
0.0
 11
250.7955953177
 21
171.909870251
 31
0.0
  0
LINE
  5
278
330
1F
100
AcDbEntity
  8
0
  6
Continuous
 62
     7
370
    15
100
AcDbLine
 10
231.9180813872
 20
171.909870251
 30
0.0
 11
234.2955953177
 21
171.909870251
 31
0.0
  0
LINE
  5
279
330
1F
100
AcDbEntity
  8
0
  6
Continuous
 62
     7
370
    15
100
AcDbLine
 10
227.2955953177
 20
171.909870251
 30
0.0
 11
231.9180813872
 21
171.909870251
 31
0.0
  0
DIMENSION
  5
27A
330
1F
100
AcDbEntity
  8
VERMASSUNG
100
AcDbDimension
  2
_D_12
 10
268.7955953177
 20
201.0583224893
 30
0.0
 11
241.2955953177
 21
201.0583224893
 31
0.0
 70
   160
  1
<>
 71
     2
 42
-1.0
  3
SLDDIMSTYLE0
100
AcDbAlignedDimension
 13
213.7955953177
 23
172.909870251
 33
0.0
 14
268.7955953177
 24
151.909870251
 34
0.0
100
AcDbRotatedDimension
  0
LINE
  5
284
330
1F
100
AcDbEntity
  8
VERMASSUNG
  6
CENTERX2
370
     0
100
AcDbLine
 10
162.7955953177
 20
171.909870251
 30
0.0
 11
275.7533978739
 21
171.909870251
 31
0.0
  0
OLE2FRAME
  5
285
330
1F
100
AcDbEntity
  8
0
100
AcDbOle2Frame
 70
     2
  3
Paintbrush-Bild
 10
13.8511154363
 20
38.264191557
 30
0.0
 11
51.6290888628
 21
31.9806341108
 31
0.0
 71
     2
 72
     0
 73
     1
 90
    12928
310
80552BED0767C5B32B40DDAF6807D121434000000000000000006FFBDDFB85D0
310
4940DDAF6807D121434000000000000000006FFBDDFB85D04940416F4BD60AFB
310
3F4000000000000000002BED0767C5B32B40416F4BD60AFB3F40000000000000
310
0000000000000100000000010000010000000100000000000100000000320000
310
D0CF11E0A1B11AE1000000000000000000000000000000003E000300FEFF0900
310
0600000000000000000000000100000001000000000000000010000002000000
310
01000000FEFFFFFF0000000000000000FFFFFFFFFFFFFFFFFFFFFFFFFFFFFFFF
310
FFFFFFFFFFFFFFFFFFFFFFFFFFFFFFFFFFFFFFFFFFFFFFFFFFFFFFFFFFFFFFFF
310
FFFFFFFFFFFFFFFFFFFFFFFFFFFFFFFFFFFFFFFFFFFFFFFFFFFFFFFFFFFFFFFF
310
FFFFFFFFFFFFFFFFFFFFFFFFFFFFFFFFFFFFFFFFFFFFFFFFFFFFFFFFFFFFFFFF
310
FFFFFFFFFFFFFFFFFFFFFFFFFFFFFFFFFFFFFFFFFFFFFFFFFFFFFFFFFFFFFFFF
310
FFFFFFFFFFFFFFFFFFFFFFFFFFFFFFFFFFFFFFFFFFFFFFFFFFFFFFFFFFFFFFFF
310
FFFFFFFFFFFFFFFFFFFFFFFFFFFFFFFFFFFFFFFFFFFFFFFFFFFFFFFFFFFFFFFF
310
FFFFFFFFFFFFFFFFFFFFFFFFFFFFFFFFFFFFFFFFFFFFFFFFFFFFFFFFFFFFFFFF
310
FFFFFFFFFFFFFFFFFFFFFFFFFFFFFFFFFFFFFFFFFFFFFFFFFFFFFFFFFFFFFFFF
310
FFFFFFFFFFFFFFFFFFFFFFFFFFFFFFFFFFFFFFFFFFFFFFFFFFFFFFFFFFFFFFFF
310
FFFFFFFFFFFFFFFFFFFFFFFFFFFFFFFFFFFFFFFFFFFFFFFFFFFFFFFFFFFFFFFF
310
FFFFFFFFFFFFFFFFFFFFFFFFFFFFFFFFFFFFFFFFFFFFFFFFFFFFFFFFFFFFFFFF
310
FFFFFFFFFFFFFFFFFFFFFFFFFFFFFFFFFFFFFFFFFFFFFFFFFFFFFFFFFFFFFFFF
310
FFFFFFFFFFFFFFFFFFFFFFFFFFFFFFFFFFFFFFFFFFFFFFFFFFFFFFFFFFFFFFFF
310
FDFFFFFFFEFFFFFFFEFFFFFFFEFFFFFF05000000060000000700000008000000
310
090000000A0000000B0000000C0000000D0000000E0000000F00000010000000
310
11000000120000001300000014000000150000001600000017000000FEFFFFFF
310
FFFFFFFFFFFFFFFFFFFFFFFFFFFFFFFFFFFFFFFFFFFFFFFFFFFFFFFFFFFFFFFF
310
FFFFFFFFFFFFFFFFFFFFFFFFFFFFFFFFFFFFFFFFFFFFFFFFFFFFFFFFFFFFFFFF
310
FFFFFFFFFFFFFFFFFFFFFFFFFFFFFFFFFFFFFFFFFFFFFFFFFFFFFFFFFFFFFFFF
310
FFFFFFFFFFFFFFFFFFFFFFFFFFFFFFFFFFFFFFFFFFFFFFFFFFFFFFFFFFFFFFFF
310
FFFFFFFFFFFFFFFFFFFFFFFFFFFFFFFFFFFFFFFFFFFFFFFFFFFFFFFFFFFFFFFF
310
FFFFFFFFFFFFFFFFFFFFFFFFFFFFFFFFFFFFFFFFFFFFFFFFFFFFFFFFFFFFFFFF
310
FFFFFFFFFFFFFFFFFFFFFFFFFFFFFFFFFFFFFFFFFFFFFFFFFFFFFFFFFFFFFFFF
310
FFFFFFFFFFFFFFFFFFFFFFFFFFFFFFFFFFFFFFFFFFFFFFFFFFFFFFFFFFFFFFFF
310
FFFFFFFFFFFFFFFFFFFFFFFFFFFFFFFFFFFFFFFFFFFFFFFFFFFFFFFFFFFFFFFF
310
FFFFFFFFFFFFFFFFFFFFFFFFFFFFFFFFFFFFFFFFFFFFFFFFFFFFFFFFFFFFFFFF
310
FFFFFFFFFFFFFFFFFFFFFFFFFFFFFFFFFFFFFFFFFFFFFFFFFFFFFFFFFFFFFFFF
310
FFFFFFFFFFFFFFFFFFFFFFFFFFFFFFFFFFFFFFFFFFFFFFFFFFFFFFFFFFFFFFFF
310
FFFFFFFFFFFFFFFFFFFFFFFFFFFFFFFFFFFFFFFFFFFFFFFFFFFFFFFFFFFFFFFF
310
52006F006F007400200045006E00740072007900000000000000000000000000
310
0000000000000000000000000000000000000000000000000000000000000000
310
16000500FFFFFFFFFFFFFFFF020000000A00030000000000C000000000000046
310
000000000000000000000000E01D5703102DCD0103000000C000000000000000
310
01004F006C006500000000000000000000000000000000000000000000000000
310
0000000000000000000000000000000000000000000000000000000000000000
310
0A000200FFFFFFFFFFFFFFFFFFFFFFFF00000000000000000000000000000000
310
0000000000000000000000000000000000000000000000001400000000000000
310
010043006F006D0070004F0062006A0000000000000000000000000000000000
310
0000000000000000000000000000000000000000000000000000000000000000
310
120002010100000003000000FFFFFFFF00000000000000000000000000000000
310
0000000000000000000000000000000000000000010000004D00000000000000
310
01004F006C006500310030004E00610074006900760065000000000000000000
310
0000000000000000000000000000000000000000000000000000000000000000
310
1A000200FFFFFFFFFFFFFFFFFFFFFFFF00000000000000000000000000000000
310
0000000000000000000000000000000000000000040000002426000000000000
310
FEFFFFFF02000000FEFFFFFFFFFFFFFFFFFFFFFFFFFFFFFFFFFFFFFFFFFFFFFF
310
FFFFFFFFFFFFFFFFFFFFFFFFFFFFFFFFFFFFFFFFFFFFFFFFFFFFFFFFFFFFFFFF
310
FFFFFFFFFFFFFFFFFFFFFFFFFFFFFFFFFFFFFFFFFFFFFFFFFFFFFFFFFFFFFFFF
310
FFFFFFFFFFFFFFFFFFFFFFFFFFFFFFFFFFFFFFFFFFFFFFFFFFFFFFFFFFFFFFFF
310
FFFFFFFFFFFFFFFFFFFFFFFFFFFFFFFFFFFFFFFFFFFFFFFFFFFFFFFFFFFFFFFF
310
FFFFFFFFFFFFFFFFFFFFFFFFFFFFFFFFFFFFFFFFFFFFFFFFFFFFFFFFFFFFFFFF
310
FFFFFFFFFFFFFFFFFFFFFFFFFFFFFFFFFFFFFFFFFFFFFFFFFFFFFFFFFFFFFFFF
310
FFFFFFFFFFFFFFFFFFFFFFFFFFFFFFFFFFFFFFFFFFFFFFFFFFFFFFFFFFFFFFFF
310
FFFFFFFFFFFFFFFFFFFFFFFFFFFFFFFFFFFFFFFFFFFFFFFFFFFFFFFFFFFFFFFF
310
FFFFFFFFFFFFFFFFFFFFFFFFFFFFFFFFFFFFFFFFFFFFFFFFFFFFFFFFFFFFFFFF
310
FFFFFFFFFFFFFFFFFFFFFFFFFFFFFFFFFFFFFFFFFFFFFFFFFFFFFFFFFFFFFFFF
310
FFFFFFFFFFFFFFFFFFFFFFFFFFFFFFFFFFFFFFFFFFFFFFFFFFFFFFFFFFFFFFFF
310
FFFFFFFFFFFFFFFFFFFFFFFFFFFFFFFFFFFFFFFFFFFFFFFFFFFFFFFFFFFFFFFF
310
FFFFFFFFFFFFFFFFFFFFFFFFFFFFFFFFFFFFFFFFFFFFFFFFFFFFFFFFFFFFFFFF
310
FFFFFFFFFFFFFFFFFFFFFFFFFFFFFFFFFFFFFFFFFFFFFFFFFFFFFFFFFFFFFFFF
310
FFFFFFFFFFFFFFFFFFFFFFFFFFFFFFFFFFFFFFFFFFFFFFFFFFFFFFFFFFFFFFFF
310
0100000200000000000000000000000000000000000000000000000000000000
310
0000000000000000000000000000000000000000000000000000000000000000
310
0100FEFF030A0000FFFFFFFF0A00030000000000C00000000000004607000000
310
5042727573680007000000504272757368000700000050427275736800F439B2
310
7100000000000000000000000000000000000000000000000000000000000000
310
0000000000000000000000000000000000000000000000000000000000000000
310
0000000000000000000000000000000000000000000000000000000000000000
310
0000000000000000000000000000000000000000000000000000000000000000
310
0000000000000000000000000000000000000000000000000000000000000000
310
0000000000000000000000000000000000000000000000000000000000000000
310
0000000000000000000000000000000000000000000000000000000000000000
310
0000000000000000000000000000000000000000000000000000000000000000
310
0000000000000000000000000000000000000000000000000000000000000000
310
0000000000000000000000000000000000000000000000000000000000000000
310
0000000000000000000000000000000000000000000000000000000000000000
310
0000000000000000000000000000000000000000000000000000000000000000
310
20260000424D0E260000000000003E00000028000000B40200006E0000000100
310
01000000000000000000130B0000130B00000200000002000000000000FFFFFF
310
FFFFFFFFFFFFFFFFFFFFFFFFFFFFFFFFFFFFFFFFFFFFFFFFFFFFFFFFFFFFFFFF
310
FFFFFFFFFFFFFFFFFFFFFFFFFFFFFFFFFFFFFFFFFFFFFFFFFFFFFFFFFFFFFFFF
310
FFFFFFFFFFFFFFFFFFFFFFFFFFFFFFFFFFFFFFFFFFFFFFFFF000FFFFFFFFFFFF
310
FFFFFFFFFFFFFFFFFFFFFFFFFFFFFFFFFFFFFFFFFFFFFFFFFFFFFFFFFFFFFFFF
310
FFFFFFFFFFFFFFFFFFFFFFFFFFFFFFFFFFFFFFFFFFFFFFFFFFFFFFFFFFFFFFFF
310
FFFFFFFFFFFFFFFFFFFFFFFFFFFFFFFFF000FFFFFFFFFFFFFFFFFFFFFFFFFFFF
310
FFFFFFFFFFFFFFFFFFFFFFFFFFFFFFFFFFFFFFFFFFFFFFFFFFFFFFFFFFFFFFFF
310
FFFFFFFFFFFFFFFFFFFFFFFFFFFFFFFFFFFFFFFFFFFFFFFFFFFFFFFFFFFFFFFF
310
FFFFFFFFFFFFFFFFF000FFFFFFFFFFFFFFFFFFFFFFFFFFFFFFFFFFFFFFFFFFFF
310
FFFFFFFFFFFFFFFFFFFFFFFFFFFFFFFFFFFFFFFFFFFFFFFFFFFFFFFFFFFFFFFF
310
FFFFFFFFFFFFFFFFFFFFFFFFFFFFFFFFFFFFFFFFFFFFFFFFFFFFFFFFFFFFFFFF
310
F000FFFFFFFFFFFFFFFFFFFFFFFFFFFFFFFFFFFFFFFFFFFFFFFFFFFFFFFFFFFF
310
FFFFFFFFFFFFFFFFFFFFFFFFFFFFFFFFFFFFFFFFFFFFFFFFFFFFFFFFFFFFFFFF
310
FFFFFFFFFFFFFFFFFFFFFFFFFFFFFFFFFFFFFFFFFFFFFFFFF000FFFFFFFFFFFF
310
FFFFFFFFFFFFFFFFFFFFFFFFFFFFFFFFFFFFFFFFFFFFFFFFFFFFFFFFFFFFFFFF
310
FFFFFFFFFFFFFFFFFFFFFFFFFFFFFFFFFFFFFFFFFFFFFFFFFFFFFFFFFFFFFFFF
310
FFFFFFFFFFFFFFFFFFFFFFFFFFFFFFFFF000FFFFFFFFFFFFFFFFFFFFFFFFFFFF
310
FFFFFFFFFFFFFFFFFFFFFFFFFFFFFFFFFFFFFFFFFFFFFFFFFFFFFFFFFFFFFFFF
310
FFFFFFFFFFFFFFFFFFFFFFFFFFFFFFFFFFFFFFFFFFFFFFFFFFFFFFFFFFFFFFFF
310
FFFFFFFFFFFFFFFFF000FFFFFFFFFFFFFFFFFFFFFFFFFFFFFFFFFFFFFFFFFFFF
310
FFFFFFFFFFFFFFFFFFFFFFFFFFFFFFFFFFFFFFFFFFFFFFFFFFFFFFFFFFFFFFFF
310
FFFFFFFFFFFFFFFFFFFFFFFFFFFFFFFFFFFFFFFFFFFFFFFFFFFFFFFFFFFFFFFF
310
F000FFFFFFFFFFFFFFFFFFFFFFFFFFFFFFFFFFFFFFFFFFFFFFFFFFFFFFFFFFFF
310
FFFFFFFFFFFFFFFFFFFFFFFFFFFFFFFFFFFFFFFFFFFFFFFFFFFFFFFFFFFFFFFF
310
FFFFFFFFFFFFFFFFFFFFFFFFFFFFFFFFFFFFFFFFFFFFFFFFF000FFFFFFFFFFFF
310
FFFFFFFFFFFFFFFFFFFFFFFFFFFFFFFFFFFFFFFFFFFFFFFFFFFFFFFFFFFFFFFF
310
FFFFFFFFFFFFFFFFFFFFFFFFFFFFFFFFFFFFFFFFFFFFFFFFFFFFFFFFFFFFFFFF
310
FFFFFFFFFFFFFFFFFFFFFFFFFFFFFFFFF000FFFFFFFFFFFFFFFFFFFFFFFFFFFF
310
FFFFFFFFFFFFFFFFFFFFFFFFFFFFFFFFFFFFFFFFFFFFFFFFFFFFFFFFFFFFFFFF
310
FFFFFFFFFFFFFFFFFFFFFFFFFFFFFFFFFFFFFFFFFFFFFFFFFFFFFFFFFFFFFFFF
310
FFFFFFFFFFFFFFFFF000FFFFFFFFFFFFFFFFFFFFFFFFFFFFFFFFFFFFFFFFFFFF
310
FFFFFFFFFFFFFFFFFFFFFFFFFFFFFFFFFFFFFFFFFFFFFFFFFFFFFFFFFFFFFFFF
310
FFFFFFFFFFFFFFFFFFFFFFFFFFFFFFFFFFFFFFFFFFFFFFFFFFFFFFFFFFFFFFFF
310
F000FFFFFFFFFFFFFFFFFFFFFFFFFFFFFFFFFFFFFFFFFFFFFFFFFFFFFFFFFFFF
310
FFFFFFFFFFFFFFFFFFFFFFFFFFFFFFFFFFFFFFFFFFFFFFFFFFFFFFFFFFFFFFFF
310
FFFFFFFFFFFFFFFFFFFFFFFFFFFFFFFFFFFFFFFFFFFFFFFFF000FFFFFFFFFFFF
310
FFFFFFFFFFFFFFFFFFFFFFFFFFFFFFFFFFFFFFFFFFFFFFFFFFFFFFFFFFFFFFFF
310
FFFFFFFFFFFFFFFFFFFFFFFFFFFFFFFFFFFFFFFFFFFFFFFFFFFFFFFFFFFFFFFF
310
FFFFFFFFFFFFFFFFFFFFFFFFFFFFFFFFF000FFFFFFFFFFFFFFFFFFFFFFFFFFFF
310
FFFFFFFFFFFFFFFFFFFFFFFFFFFFFFFFFFFFFFFFFFFFFFFFFFFFFFFFFFFFFFFF
310
FFFFFFFFFFFFFFFFFFFFFFFFFFFFFFFFFFFFFFFFFFFFFFFFFFFFFFFFFFFFFFFF
310
FFFFFFFFFFFFFFFFF000FFFFFFFFFFFFFFFFFFFFFFFFFFFFFFFFFFFFFFFFFFFF
310
FFFFFFFFFFFFFFFFFFFFFFFFFFFFFFFFFFFFFFFFFFFFFFFFFFFFFFFFFFFFFFFF
310
FFFFFFFFFFFFFFFFFFFFFFFFFFFFFFFFFFFFFFFFFFFFFFFFFFFFFFFFFFFFFFFF
310
F000FFFFFFFFFFFFFFFFFFFFFFFFFFFFFFFFFFFFFFFFFFFFFFFFFFFFFFFFFFFF
310
FFFFFFFFFFFFFFFFFFFFFFFFFFFFFFFFFFFFFFFFFFFFFFFFFFFFFFFFFFFFFFFF
310
FFFFFFFFFFFFFFFFFFFFFFFFFFFFFFFFFFFFFFFFFFFFFFFFF000FFFFFFFFFFFF
310
FFFFFFFFFFFFFFFFFFFFFFFFFFFFFFFFFFFFFFFFFFFFFFFFFFFFFFFFFFFFFFFF
310
FFFFFFFFFFFFFFFFFFFFFFFFFFFFFFFFFFFFFFFFFFFFFFFFFFFFFFFFFFFFFFFF
310
FFFFFFFFFFFFFFFFFFFFFFFFFFFFFFFFF000FFFFFFFFFFFFFFFFFFFFFFFFFFFF
310
FFFFFFFFFFFFFFFFFFFFFFFFFFFFFFFFFFFFFFFFFFFFFFFFFFFFFFFFFFFFFFFF
310
FFFFFFFFFFFFFFFFFFFFFFFFFFFFFFFFFFFFFFFFFFFFFFFFFFFFFFFFFFFFFFFF
310
FFFFFFFFFFFFFFFFF000FFFFF80003FFFFFFFFFFFFFFFFFFFFFFFFFFFFFFFFFF
310
FFFFF00007FFFFFFFFFF00007FFFFFF800000000000000007FFFFFFFFFFFFFFF
310
FFFFFFFC001FFFFFFFFFFFFFFC001FFFFFFFFFFFFFFFFFFFFFFFFFFE0007FFFF
310
F000FFFF8000007FFFFFFFF8000FFFFFC0007FFFFF80007FFFFF0000007FFFFF
310
FFF8000007FFFFF800000000000000007FFFFFF0001FFFFFFFFFFFC00001FFFF
310
FFFFFFFFC00001FFFFFFFF000000000003FFFFE000007FFFF000FFFE0000000F
310
FFFFFFF0000FFFFF80007FFFFF80007FFFFC0000001FFFFFFFC0000001FFFFF8
310
00000000000000007FFFFFF0001FFFFFFFFFFE0000003FFFFFFFFFFE0000003F
310
FFFFFF000000000003FFFF0000000FFFF000FFF800000003FFFFFFF00007FFFF
310
80007FFFFF80007FFFF000000007FFFFFF000000003FFFF80000000000000000
310
7FFFFFF0001FFFFFFFFFF80000000FFFFFFFFFF80000000FFFFFFF0000000000
310
03FFFC00000003FFF000FFE000000000FFFFFFF00007FFFF80003FFFFF80007F
310
FFC000000001FFFFFC000000001FFFF800000000000000007FFFFFF0001FFFFF
310
FFFFE000000003FFFFFFFFE000000003FFFFFF000000000003FFF000000000FF
310
F000FF80000000007FFFFFF00007FFFF80003FFFFF80007FFF8000000000FFFF
310
F80000000007FFF800000000000000007FFFFFF0001FFFFFFFFFC000000001FF
310
FFFFFFC000000001FFFFFF000000000003FFC0000000007FF000FF0000000000
310
3FFFFFE00007FFFF00003FFFFF80007FFE00000000003FFFF00000000003FFF8
310
00000000000000007FFFFFF0001FFFFFFFFF8000000000FFFFFFFF8000000000
310
FFFFFF000000000003FF80000000003FF000FE00000000001FFFFFE00003FFFF
310
00003FFFFF80007FFC00000000001FFFE00000000001FFF8000001FFFE000000
310
7FFFFFF0001FFFFFFFFE00000000003FFFFFFE00000000003FFFFF0000000000
310
03FF00000000001FF000FC00000000000FFFFFE00003FFFF00001FFFFF80007F
310
F800000000001FFFC00000000000FFF8000001FFFE0000007FFFFFF0001FFFFF
310
FFFC00000000001FFFFFFC00000000001FFFFF000000000003FE00000000000F
310
F000F8000000000007FFFFE00003FFFF00001FFFFF80007FF800000000000FFF
310
800000000000FFF8000001FFFE0000007FFFFFF0001FFFFFFFF800000000000F
310
FFFFF800000000000FFFFF000000000003FC000000000007F000F80000000000
310
03FFFFC00003FFFE00001FFFFF80007FF0000000000007FF0000000000007FF8
310
000001FFFE0000007FFFFFF0001FFFFFFFF0000000000007FFFFF00000000000
310
07FFFF000000000003F8000000000003F000F0000000000003FFFFC00001FFFE
310
00001FFFFF80007FE0000000000007FE0000000000003FF8000001FFFE000000
310
7FFFFFF0001FFFFFFFF0000000000007FFFFF0000000000007FFFF0000000000
310
03F800001F800003F000E00001FFF00001FFFFC00001FFFE00000FFFFF80007F
310
E00001FFE00003FE00001FFF00003FF8000001FFFE0000007FFFFFF0001FFFFF
310
FFE000003E000003FFFFE000003E000003FFFF000000000003F00001FFF80001
310
F000E00007FFFC0001FFFFC00001FFFE00000FFFFF80007FC0000FFFFC0003FC
310
0000FFFFC0001FF8000001FFFE0000007FFFFFF0001FFFFFFFC00003FFE00001
310
FFFFC00003FFE00001FFFF0001FFFFFFFFF00007FFFE0001F000E0000FFFFF00
310
00FFFF800001FFFC00000FFFFF80007FC0001FFFFE0001FC0001FFFFE0001FF8
310
000001FFFE0000007FFFFFF0001FFFFFFF80000FFFF80000FFFF80000FFFF800
310
00FFFF0003FFFFFFFFE0000FFFFF8000F000C0003FFFFF8000FFFF800000FFFC
310
000007FFFF80007F80003FFFFF0001FC0003FFFFF0001FF8000001FFFE000000
310
7FFFFFF0001FFFFFFF80003FFFFE0000FFFF80003FFFFE0000FFFF0003FFFFFF
310
FFE0003FFFFF8000F000C0003FFFFF8000FFFF800000FFFC000007FFFF80007F
310
80007FFFFF8001F80007FFFFF8000FF8000001FFFE0000007FFFFFF0001FFFFF
310
FF00007FFFFF00007FFF00007FFFFF00007FFF0003FFFFFFFFE0003FFFFFC000
310
F000C0007FFFFFC000FFFF000000FFFC000007FFFF80007F8000FFFFFF8000F8
310
000FFFFFF8000FF8000001FFFE0000007FFFFFF0001FFFFFFF0000FFFFFF8000
310
7FFF0000FFFFFF80007FFF0003FFFFFFFFC0007FFFFFC00070008000FFFFFFC0
310
00FFFF000000FFF8000007FFFF80007F8000FFFFFF8000F8000FFFFFF8000FF8
310
000001FFFE0000007FFFFFF0001FFFFFFE0001FFFFFFC0003FFE0001FFFFFFC0
310
003FFF0003FFFFFFFFC0007FFFFFE00070008000FFFFFFC0007FFF0000007FF8
310
000003FFFF80007F0001FFFFFF8000F8000FFFFFF8000FF8000001FFFE000000
310
7FFFFFF0001FFFFFFE0001FFFFFFC0003FFE0001FFFFFFC0003FFF0003FFFFFF
310
FFC000FFFFFFE00070008000FFFFFFC0007FFF0000007FF8000003FFFF80007F
310
0001FFFFFF8000F8001FFFFFF8000FF8000001FFFE0000007FFFFFF0001FFFFF
310
FE0003FFFFFFE0003FFE0003FFFFFFE0003FFF0003FFFFFFFFC000FFFFFFE000
310
70008000FFFFFFC0007FFE0000007FF8000003FFFF80007F0001FFFFFF8000F0
310
001FFFFFF8000FF8000001FFFE0000007FFFFFF0001FFFFFFC0003FFFFFFE000
310
1FFC0003FFFFFFE0001FFF0003FFFFFFFFC000FFFFFFC00070008000FFFFFF80
310
007FFE0000007FF0000003FFFF80007F0001FFFFFF0000F0001FFFFFF8000FF8
310
000001FFFE0000007FFFFFF0001FFFFFFC0007FFFFFFF0001FFC0007FFFFFFF0
310
001FFF0003FFFFFFFFC000FFFFFFC00070008001FFFFFF0000FFFE0000003FF0
310
000001FFFF80007F0001FFFFFF0000F8001FFFFFF0000FF8000001FFFE000000
310
7FFFFFF0001FFFFFFC0007FFFFFFF0001FFC0007FFFFFFF0001FFF0003FFFFFF
310
FFC001FFFFFF80007000FFFFFFFFFE0000FFFE0008003FF0008001FFFF80007F
310
FFFFFFFFFC0000FFFFFFFFFFE0000FF8000001FFFE0000007FFFFFF0001FFFFF
310
F8000FFFFFFFF8000FF8000FFFFFFFF8000FFF0003FFFFFFFFFFFFFFFFFF0000
310
7000FFFFFFFFFC0000FFFC0008003FF0008001FFFF80007FFFFFFFFFF80001FF
310
FFFFFFFF80000FF8000001FFFE0000007FFFFFF0001FFFFFF8000FFFFFFFF800
310
0FF8000FFFFFFFF8000FFF0003FFFFFFFFFFFFFFFFFE0000F000FFFFFFFFE000
310
00FFFC000C003FE000C001FFFF80007FFFFFFFFFC00001FFFFFFFFFE00001FF8
310
000001FFFE0000007FFFFFF0001FFFFFF8000FFFFFFFF8000FF8000FFFFFFFF8
310
000FFF0003FFFFFFFFFFFFFFFFF00000F000FFFFFFFE000001FFFC000C001FE0
310
00C000FFFF80007FFFFFFFFE000001FFFFFFFFE000001FF80FFFFFFFFFFFFFC0
310
7FFFFFF0001FFFFFF8000FFFFFFFF8000FF8000FFFFFFFF8000FFF0003FFFFFF
310
FFFFFFFFFF800000F000FFFFFFC0000001FFFC001C001FE001C000FFFF80007F
310
FFFFFF80000003FFFFFFF80000001FF80FFFFFFFFFFFFFC07FFFFFF0001FFFFF
310
F8001FFFFFFFFC000FF8001FFFFFFFFC000FFF0003FFFFFFFFFFFFFFF0000001
310
F000FFFFF800000001FFF8001C001FE001C000FFFF80007FFFFFF800000003FF
310
FFFF800000003FF80FFFFFFFFFFFFFC07FFFFFF0001FFFFFF8001FFFFFFFFC00
310
0FF8001FFFFFFFFC000FFF0003FFFFFFFFFFFFFE00000001F000FFFFC0000000
310
03FFF8001E001FC001E000FFFF80007FFFFF8000000007FFFFFC000000003FF8
310
0FFFFFFFFFFFFFC07FFFFFF0001FFFFFF8001FFFFFFFFC000FF8001FFFFFFFFC
310
000FFF0003FFFFFFFFFFFFE000000003F000FFFE0000000007FFF8001E000FC0
310
01E0007FFF80007FFFFE0000000007FFFFE0000000007FF80FFFFFFFFFFFFFC0
310
7FFFFFF0001FFFFFF0001FFFFFFFFC0007F0001FFFFFFFFC0007FF0003FFFFFF
310
FFFFFF0000000003F000FFF80000000007FFF8001E000FC003E0007FFF80007F
310
FFF0000000000FFFFF8000000000FFF80FFFFFFFFFFFFFC07FFFFFF0001FFFFF
310
F0001FFFFFFFFC0007F0001FFFFFFFFC0007FF0003FFFFFFFFFFFC0000000007
310
F000FFE0000000000FFFF0003E000FC003E0007FFF80007FFFC0000000001FFF
310
FE0000000001FFF80FFFFFFFFFFFFFC07FFFFFF0001FFFFFF0001FFFFFFFFC00
310
07F0001FFFFFFFFC0007FF0003FFFFFFFFFFF0000000000FF000FFC000000000
310
1FFFF0003F000F8003F0003FFF80007FFF80000000003FFFF80000000003FFF8
310
0FFFFFFFFFFFFFC07FFFFFF0001FFFFFF0001FFFFFFFFC0007F0001FFFFFFFFC
310
0007FF0003FFFFFFFFFFE0000000001FF000FF00000000007FFFF0003F000780
310
03F0003FFF80007FFF00000000007FFFF00000000007FFF80FFFFFFFFFFFFFC0
310
7FFFFFF0001FFFFFF0001FFFFFFFFC0007F0001FFFFFFFFC0007FF0003FFFFFF
310
FFFF80000000007FF000FE0000000000FFFFE0003F00078007F0003FFF80007F
310
FE0000000001FFFFE0000000001FFFF80FFFFFFFFFFFFFC07FFFFFF0001FFFFF
310
F0001FFFFFFFFC0007F0001FFFFFFFFC0007FF0003FFFFFFFFFF0000000000FF
310
F000FC0000000003FFFFE0007F00078007F0003FFF80007FFC0000000007FFFF
310
C0000000007FFFF80FFFFFFFFFFFFFC07FFFFFF0001FFFFFF8001FFFFFFFFC00
310
0FF8001FFFFFFFFC000FFF0003FFFFFFFFFE0000000003FFF000FC000000000F
310
FFFFE0007F80070007F8001FFF80007FF8000000001FFFFF8000000001FFFFF8
310
0FFFFFFFFFFFFFC07FFFFFF0001FFFFFF8001FFFFFFFFC000FF8001FFFFFFFFC
310
000FFF0003FFFFFFFFFC000000000FFFF000F8000000007FFFFFE0007F800700
310
07F8001FFF80007FF000000000FFFFFF800000000FFFFFF80FFFFFFFFFFFFFC0
310
7FFFFFF0001FFFFFF8000FFFFFFFF8000FF8000FFFFFFFF8000FFF0003FFFFFF
310
FFFC000000007FFFF000F800000007FFFFFFC0007F8003000FF8001FFF80007F
310
F000000007FFFFFF000000007FFFFFF80FFFFFFFFFFFFFC07FFFFFF0001FFFFF
310
F8000FFFFFFFF8000FF8000FFFFFFFF8000FFF0003FFFFFFFFF80000000FFFFF
310
F000F0000000FFFFFFFFC000FF8003000FF8001FFF80007FE0000000FFFFFFFF
310
0000000FFFFFFFF8000001FFFE0000007FFFFFF0001FFFFFF8000FFFFFFFF800
310
0FF8000FFFFFFFF8000FFF0003FFFFFFFFF8000000FFFFFFF000F000000FFFFF
310
FFFFC000FFC002000FF8000FFF80007FE000001FFFFFFFFE000001FFFFFFFFF8
310
000001FFFE0000007FFFFFF0001FFFFFF8000FFFFFFFF8000FF8000FFFFFFFF8
310
000FFF0003FFFFFFFFF000001FFFFFFFF000E00000FFFFFFFFFFC000FFC00200
310
0FFC000FFF80007FE00001FFFFFFFFFE00001FFFFFFFFFF8000001FFFE000000
310
7FFFFFF0001FFFFFFC000FFFFFFFF8001FFC000FFFFFFFF8001FFF0003FFFFFF
310
FFF00001FFFFFFFFF000E00007FFFFFFFFFF8000FFC000001FFC000FFF80007F
310
C0000FFFFFFFFFFE0000FFFFFFFFFFF8000001FFFE0000007FFFFFF0001FFFFF
310
FC0007FFFFFFF0001FFC0007FFFFFFF0001FFF0003FFFFFFFFF00007FFFFFFFF
310
F000E0001FFFFFFFFFFF8000FFC000001FFC000FFF80007FC0003FFFFFFFFFFE
310
0001FFFFFFFFFFF8000001FFFE0000007FFFFFF0001FFFFFFC0007FFFFFFF000
310
1FFC0007FFFFFFF0001FFF0003FFFFFFFFF0001FFFFFFFFFF000E0003FFFFF00
310
03FF8001FFE000001FFC0007FF80007FC0007FFFFF0007FC0003FFFFF0003FF8
310
000001FFFE0000007FFFFFF0001FFFFFFC0003FFFFFFE0001FFC0003FFFFFFE0
310
001FFF0003FFFFFFFFF0003FFFFFFFFFF000E0003FFFFF0001FF8001FFE00000
310
1FFE0007FF80007FC0007FFFFE0003FC0007FFFFE0003FF8000001FFFE000000
310
7FFFFFF0001FFFFFFE0003FFFFFFE0003FFE0003FFFFFFE0003FFF0003FFFFFF
310
FFF0003FFFFF8001F000E0003FFFFF0001FF0001FFE000001FFE0007FF80007F
310
C0007FFFFE0003FC0007FFFFE0003FF8000001FFFE0000007FFFFFF0001FFFFF
310
FE0001FFFFFFC0003FFE0001FFFFFFC0003FFF0003FFFFFFFFF0003FFFFF0001
310
F000E0003FFFFF0003FF0001FFE000003FFE0007FF80007FC0007FFFFE0003FC
310
0007FFFFE0003FF8000001FFFE0000007FFFFFF0001FFFFFFF0001FFFFFFC000
310
7FFF0001FFFFFFC0007FFF0003FFFFFFFFF0003FFFFF0001F000E0003FFFFE00
310
03FF0003FFF000003FFE0003FF80007FC0007FFFFC0003FE0007FFFFE0003FF8
310
000001FFFE0000007FFFFFF0001FFFFFFF0000FFFFFF80007FFF0000FFFFFF80
310
007FFF0003FFFFFFFFF0003FFFFF0001F000E0003FFFFE0003FF0003FFF00000
310
3FFF0003FF80007FC0007FFFFC0007FE0007FFFFC0003FF8000001FFFE000000
310
7FFFFFF0001FFFFFFF80007FFFFF0000FFFF80007FFFFF0000FFFF0003FFFFFF
310
FFF0003FFFFF0003F000E0003FFFFC0003FE0003FFF000003FFF0003FF80007F
310
E0003FFFF80007FE0003FFFFC0007FF8000001FFFE0000007FFFFFF0001FFFFF
310
FF80003FFFFE0000FFFF80003FFFFE0000FFFF0003FFFFFFFFF0001FFFFE0003
310
F000F0001FFFF80003FE0003FFF000007FFF0001FF80007FE0003FFFF00007FE
310
0001FFFF80007FF8000001FFFE0000007FFFFFF0001FFFFFFFC0000FFFF80001
310
FFFFC0000FFFF80001FFFF0003FFFFFFFFF0001FFFFC0003F000F0000FFFF000
310
07FE0007FFF800007FFF0001FF80007FE0001FFFE00007FF0000FFFE00007FF8
310
000001FFFE0000007FFFFFF0001FFFFFFFC00003FFE00001FFFFC00003FFE000
310
01FFFF0003FFFFFFFFF8000FFFF80003F000F00003FFC00007FC0007FFF80000
310
7FFF8001FF80007FF00007FF80000FFF00007FF80000FFF8000001FFFE000000
310
7F80000000000001FFE000003E000003FFFFE000003E000003FFFF0003FFFFFF
310
FFF80003FFE00007F000F800000000000FFC0007FFF800007FFF8001FF80007F
310
F000000000000FFF000000000000FFF8000001FFFE0000007F80000000000001
310
FFF0000000000007FFFFF0000000000007FFFF0003FFFFFFFFFC00007E000007
310
F000F800000000000FFC0007FFF80000FFFF8000FF80007FF800000000001FFF
310
800000000001FFF8000001FFFE0000007F80000000000001FFF800000000000F
310
FFFFF800000000000FFFFF0003FFFFFFFFFC00000000000FF000FC0000000000
310
1FFC0007FFFC0000FFFF8000FF80007FF800000000003FFFC00000000001FFF8
310
000001FFFE0000007F80000000000001FFF800000000000FFFFFF80000000000
310
0FFFFF0003FFFFFFFFFE00000000001FF000FE00000000003FF8000FFFFC0000
310
FFFF8000FF80007FFC00000000003FFFC00000000003FFF8000001FFFE000000
310
7F80000000000001FFFC00000000001FFFFFFC00000000001FFFFF0003FFFFFF
310
FFFF00000000001FF000FF00000000003FF8000FFFFC0000FFFFC000FF80007F
310
FE00000000007FFFE00000000007FFF8000001FFFE0000007F80000000000001
310
FFFE00000000003FFFFFFE00000000003FFFFF0003FFFFFFFFFF80000000003F
310
F000FF80000000007FF8000FFFFC0001FFFFC0007F80007FFF0000000000FFFF
310
F0000000000FFFF800000000000000007F80000000000001FFFF8000000000FF
310
FFFFFF8000000000FFFFFF0003FFFFFFFFFFC0000000007FF000FFC000000000
310
FFF8000FFFFE0001FFFFC0007F80007FFF8000000001FFFFF8000000001FFFF8
310
00000000000000007F80000000000001FFFFC000000001FFFFFFFFC000000001
310
FFFFFF0003FFFFFFFFFFE000000000FFF000FFE000000003FFF0001FFFFE0001
310
FFFFC0007F80007FFFC000000007FFFFFE000000003FFFF80000000000000000
310
7F80000000000001FFFFE000000003FFFFFFFFE000000003FFFFFF0003FFFFFF
310
FFFFF000000003FFF000FFF80000000FFFF0001FFFFE0001FFFFE0007F80007F
310
FFF00000000FFFFFFF00000000FFFFF800000000000000007F80000000000001
310
FFFFF80000000FFFFFFFFFF80000000FFFFFFF0003FFFFFFFFFFFC0000000FFF
310
F000FFFE0000003FFFF0001FFFFE0003FFFFE0003F80007FFFFC0000003FFFFF
310
FFC0000003FFFFF800000000000000007F80000000000001FFFFFE0000003FFF
310
FFFFFFFE0000003FFFFFFF0003FFFFFFFFFFFF0000003FFFF000FFFF800000FF
310
FFF0001FFFFF0003FFFFE0003F80007FFFFF000001FFFFFFFFF800001FFFFFF8
310
00000000000000007F80000000000001FFFFFFC00001FFFFFFFFFFFFC00001FF
310
FFFFFF0003FFFFFFFFFFFFC00000FFFFF000FFFFF8000FFFFFFFFFFFFFFFFFFF
310
FFFFFFFFFFFFFFFFFFFFF0001FFFFFFFFFFF0000FFFFFFF80000000000000000
310
7FFFFFFFFFFFFFFFFFFFFFFC001FFFFFFFFFFFFFFC001FFFFFFFFFFFFFFFFFFF
310
FFFFFFFC001FFFFFF000FFFFFFFFFFFFFFFFFFFFFFFFFFFFFFFFFFFFFFFFFFFF
310
FFFFFFFFFFFFFFFFFFFFFFFFFFFFFFFFFFFFFFFFFFFFFFFFFFFFFFFFFFFFFFFF
310
FFFFFFFFFFFFFFFFFFFFFFFFFFFFFFFFFFFFFFFFFFFFFFFFFFFFFFFFFFFFFFFF
310
F000FFFFFFFFFFFFFFFFFFFFFFFFFFFFFFFFFFFFFFFFFFFFFFFFFFFFFFFFFFFF
310
FFFFFFFFFFFFFFFFFFFFFFFFFFFFFFFFFFFFFFFFFFFFFFFFFFFFFFFFFFFFFFFF
310
FFFFFFFFFFFFFFFFFFFFFFFFFFFFFFFFFFFFFFFFFFFFFFFFF000FFFFFFFFFFFF
310
FFFFFFFFFFFFFFFFFFFFFFFFFFFFFFFFFFFFFFFFFFFFFFFFFFFFFFFFFFFFFFFF
310
FFFFFFFFFFFFFFFFFFFFFFFFFFFFFFFFFFFFFFFFFFFFFFFFFFFFFFFFFFFFFFFF
310
FFFFFFFFFFFFFFFFFFFFFFFFFFFFFFFFF000FFFFFFFFFFFFFFFFFFFFFFFFFFFF
310
FFFFFFFFFFFFFFFFFFFFFFFFFFFFFFFFFFFFFFFFFFFFFFFFFFFFFFFFFFFFFFFF
310
FFFFFFFFFFFFFFFFFFFFFFFFFFFFFFFFFFFFFFFFFFFFFFFFFFFFFFFFFFFFFFFF
310
FFFFFFFFFFFFFFFFF000FFFFFFFFFFFFFFFFFFFFFFFFFFFFFFFFFFFFFFFFFFFF
310
FFFFFFFFFFFFFFFFFFFFFFFFFFFFFFFFFFFFFFFFFFFFFFFFFFFFFFFFFFFFFFFF
310
FFFFFFFFFFFFFFFFFFFFFFFFFFFFFFFFFFFFFFFFFFFFFFFFFFFFFFFFFFFFFFFF
310
F000FFFFFFFFFFFFFFFFFFFFFFFFFFFFFFFFFFFFFFFFFFFFFFFFFFFFFFFFFFFF
310
FFFFFFFFFFFFFFFFFFFFFFFFFFFFFFFFFFFFFFFFFFFFFFFFFFFFFFFFFFFFFFFF
310
FFFFFFFFFFFFFFFFFFFFFFFFFFFFFFFFFFFFFFFFFFFFFFFFF000FFFFFFFFFFFF
310
FFFFFFFFFFFFFFFFFFFFFFFFFFFFFFFFFFFFFFFFFFFFFFFFFFFFFFFFFFFFFFFF
310
FFFFFFFFFFFFFFFFFFFFFFFFFFFFFFFFFFFFFFFFFFFFFFFFFFFFFFFFFFFFFFFF
310
FFFFFFFFFFFFFFFFFFFFFFFFFFFFFFFFF000FFFFFFFFFFFFFFFFFFFFFFFFFFFF
310
FFFFFFFFFFFFFFFFFFFFFFFFFFFFFFFFFFFFFFFFFFFFFFFFFFFFFFFFFFFFFFFF
310
FFFFFFFFFFFFFFFFFFFFFFFFFFFFFFFFFFFFFFFFFFFFFFFFFFFFFFFFFFFFFFFF
310
FFFFFFFFFFFFFFFFF000FFFFFFFFFFFFFFFFFFFFFFFFFFFFFFFFFFFFFFFFFFFF
310
FFFFFFFFFFFFFFFFFFFFFFFFFFFFFFFFFFFFFFFFFFFFFFFFFFFFFFFFFFFFFFFF
310
FFFFFFFFFFFFFFFFFFFFFFFFFFFFFFFFFFFFFFFFFFFFFFFFFFFFFFFFFFFFFFFF
310
F000FFFFFFFFFFFFFFFFFFFFFFFFFFFFFFFFFFFFFFFFFFFFFFFFFFFFFFFFFFFF
310
FFFFFFFFFFFFFFFFFFFFFFFFFFFFFFFFFFFFFFFFFFFFFFFFFFFFFFFFFFFFFFFF
310
FFFFFFFFFFFFFFFFFFFFFFFFFFFFFFFFFFFFFFFFFFFFFFFFF000FFFFFFFFFFFF
310
FFFFFFFFFFFFFFFFFFFFFFFFFFFFFFFFFFFFFFFFFFFFFFFFFFFFFFFFFFFFFFFF
310
FFFFFFFFFFFFFFFFFFFFFFFFFFFFFFFFFFFFFFFFFFFFFFFFFFFFFFFFFFFFFFFF
310
FFFFFFFFFFFFFFFFFFFFFFFFFFFFFFFFF000FFFFFFFFFFFFFFFFFFFFFFFFFFFF
310
FFFFFFFFFFFFFFFFFFFFFFFFFFFFFFFFFFFFFFFFFFFFFFFFFFFFFFFFFFFFFFFF
310
FFFFFFFFFFFFFFFFFFFFFFFFFFFFFFFFFFFFFFFFFFFFFFFFFFFFFFFFFFFFFFFF
310
FFFFFFFFFFFFFFFFF000FFFFFFFFFFFFFFFFFFFFFFFFFFFFFFFFFFFFFFFFFFFF
310
FFFFFFFFFFFFFFFFFFFFFFFFFFFFFFFFFFFFFFFFFFFFFFFFFFFFFFFFFFFFFFFF
310
FFFFFFFFFFFFFFFFFFFFFFFFFFFFFFFFFFFFFFFFFFFFFFFFFFFFFFFFFFFFFFFF
310
F000FFFFFFFFFFFFFFFFFFFFFFFFFFFFFFFFFFFFFFFFFFFFFFFFFFFFFFFFFFFF
310
FFFFFFFFFFFFFFFFFFFFFFFFFFFFFFFFFFFFFFFFFFFFFFFFFFFFFFFFFFFFFFFF
310
FFFFFFFFFFFFFFFFFFFFFFFFFFFFFFFFFFFFFFFFFFFFFFFFF000FFFFFFFFFFFF
310
FFFFFFFFFFFFFFFFFFFFFFFFFFFFFFFFFFFFFFFFFFFFFFFFFFFFFFFFFFFFFFFF
310
FFFFFFFFFFFFFFFFFFFFFFFFFFFFFFFFFFFFFFFFFFFFFFFFFFFFFFFFFFFFFFFF
310
FFFFFFFFFFFFFFFFFFFFFFFFFFFFFFFFF000FFFFFFFFFFFFFFFFFFFFFFFFFFFF
310
FFFFFFFFFFFFFFFFFFFFFFFFFFFFFFFFFFFFFFFFFFFFFFFFFFFFFFFFFFFFFFFF
310
FFFFFFFFFFFFFFFFFFFFFFFFFFFFFFFFFFFFFFFFFFFFFFFFFFFFFFFFFFFFFFFF
310
FFFFFFFFFFFFFFFFF000FFFFFFFFFFFFFFFFFFFFFFFFFFFFFFFFFFFFFFFFFFFF
310
FFFFFFFFFFFFFFFFFFFFFFFFFFFFFFFFFFFFFFFFFFFFFFFFFFFFFFFFFFFFFFFF
310
FFFFFFFFFFFFFFFFFFFFFFFFFFFFFFFFFFFFFFFFFFFFFFFFFFFFFFFFFFFFFFFF
310
F000FFFFFFFFFFFFFFFFFFFFFFFFFFFFFFFFFFFFFFFFFFFFFFFFFFFFFFFFFFFF
310
FFFFFFFFFFFFFFFFFFFFFFFFFFFFFFFFFFFFFFFFFFFFFFFFFFFFFFFFFFFFFFFF
310
FFFFFFFFFFFFFFFFFFFFFFFFFFFFFFFFFFFFFFFFFFFFFFFFF000FFFFFFFFFFFF
310
FFFFFFFFFFFFFFFFFFFFFFFFFFFFFFFFFFFFFFFFFFFFFFFFFFFFFFFFFFFFFFFF
310
FFFFFFFFFFFFFFFFFFFFFFFFFFFFFFFFFFFFFFFFFFFFFFFFFFFFFFFFFFFFFFFF
310
FFFFFFFFFFFFFFFFFFFFFFFFFFFFFFFFF000FFFFFFFFFFFFFFFFFFFFFFFFFFFF
310
FFFFFFFFFFFFFFFFFFFFFFFFFFFFFFFFFFFFFFFFFFFFFFFFFFFFFFFFFFFFFFFF
310
FFFFFFFFFFFFFFFFFFFFFFFFFFFFFFFFFFFFFFFFFFFFFFFFFFFFFFFFFFFFFFFF
310
FFFFFFFFFFFFFFFFF000FFFFFFFFFFFFFFFFFFFFFFFFFFFFFFFFFFFFFFFFFFFF
310
FFFFFFFFFFFFFFFFFFFFFFFFFFFFFFFFFFFFFFFFFFFFFFFFFFFFFFFFFFFFFFFF
310
FFFFFFFFFFFFFFFFFFFFFFFFFFFFFFFFFFFFFFFFFFFFFFFFFFFFFFFFFFFFFFFF
310
F000FFFFFFFFFFFFFFFFFFFFFFFFFFFFFFFFFFFFFFFFFFFFFFFFFFFFFFFFFFFF
310
FFFFFFFFFFFFFFFFFFFFFFFFFFFFFFFFFFFFFFFFFFFFFFFFFFFFFFFFFFFFFFFF
310
FFFFFFFFFFFFFFFFFFFFFFFFFFFFFFFFFFFFFFFFFFFFFFFFF000FFFFFFFFFFFF
310
FFFFFFFFFFFFFFFFFFFFFFFFFFFFFFFFFFFFFFFFFFFFFFFFFFFFFFFFFFFFFFFF
310
FFFFFFFFFFFFFFFFFFFFFFFFFFFFFFFFFFFFFFFFFFFFFFFFFFFFFFFFFFFFFFFF
310
FFFFFFFFFFFFFFFFFFFFFFFFFFFFFFFFF0000000000000000000000000000000
310
0000000000000000000000000000000000000000000000000000000000000000
310
0000000000000000000000000000000000000000000000000000000000000000
310
0000000000000000000000000000000000000000000000000000000000000000
310
0000000000000000000000000000000000000000000000000000000000000000
310
0000000000000000000000000000000000000000000000000000000000000000
310
0000000000000000000000000000000000000000000000000000000000000000
310
0000000000000000000000000000000000000000000000000000000000000000
310
0000000000000000000000000000000000000000000000000000000000000000
310
0000000000000000000000000000000000000000000000000000000000000000
310
0000000000000000000000000000000000000000000000000000000000000000
310
0000000000000000000000000000000000000000000000000000000000000000
310
0000000000000000000000000000000000000000000000000000000000000000
310
0000000000000000000000000000000000000000000000000000000000000000
310
0000000000000000000000000000000000000000000000000000000000000000
310
0000000000000000000000000000000000000000000000000000000000000000
  1
OLE
  0
ENDSEC
  0
SECTION
  2
OBJECTS
  0
DICTIONARY
  5
C
330
0
100
AcDbDictionary
281
     1
  3
ACAD_GROUP
350
D
  3
ACAD_LAYOUT
350
1A
  3
ACAD_MLINESTYLE
350
17
  3
ACAD_PLOTSETTINGS
350
19
  3
ACAD_PLOTSTYLENAME
350
E
  0
DICTIONARY
  5
D
102
{ACAD_REACTORS
330
C
102
}
330
C
100
AcDbDictionary
281
     1
  0
DICTIONARY
  5
1A
102
{ACAD_REACTORS
330
C
102
}
330
C
100
AcDbDictionary
281
     1
  3
Layout1
350
1E
  3
Layout2
350
26
  3
Model
350
22
  0
DICTIONARY
  5
17
102
{ACAD_REACTORS
330
C
102
}
330
C
100
AcDbDictionary
281
     1
  3
Standard
350
18
  0
DICTIONARY
  5
19
102
{ACAD_REACTORS
330
C
102
}
330
C
100
AcDbDictionary
281
     1
  0
ACDBDICTIONARYWDFLT
  5
E
102
{ACAD_REACTORS
330
C
102
}
330
C
100
AcDbDictionary
281
     1
  3
Normal
350
F
100
AcDbDictionaryWithDefault
340
F
  0
LAYOUT
  5
1E
102
{ACAD_REACTORS
330
1A
102
}
330
1A
100
AcDbPlotSettings
  1

  2
none_device
  4

  6

 40
0.0
 41
0.0
 42
0.0
 43
0.0
 44
0.0
 45
0.0
 46
0.0
 47
0.0
 48
0.0
 49
0.0
140
0.0
141
0.0
142
1.0
143
1.0
 70
   688
 72
     0
 73
     0
 74
     5
  7

 75
    16
147
1.0
148
0.0
149
0.0
100
AcDbLayout
  1
Layout1
 70
     1
 71
     1
 10
0.0
 20
0.0
 11
420.0
 21
297.0
 12
0.0
 22
0.0
 32
0.0
 14
1.0000000000E+20
 24
1.0000000000E+20
 34
1.0000000000E+20
 15
-1.0000000000E+20
 25
-1.0000000000E+20
 35
-1.0000000000E+20
146
0.0
 13
0.0
 23
0.0
 33
0.0
 16
1.0
 26
0.0
 36
0.0
 17
0.0
 27
1.0
 37
0.0
 76
     0
330
1B
  0
LAYOUT
  5
26
102
{ACAD_REACTORS
330
1A
102
}
330
1A
100
AcDbPlotSettings
  1

  2
none_device
  4

  6

 40
0.0
 41
0.0
 42
0.0
 43
0.0
 44
0.0
 45
0.0
 46
0.0
 47
0.0
 48
0.0
 49
0.0
140
0.0
141
0.0
142
1.0
143
1.0
 70
   688
 72
     0
 73
     0
 74
     5
  7

 75
    16
147
1.0
148
0.0
149
0.0
100
AcDbLayout
  1
Layout2
 70
     1
 71
     2
 10
0.0
 20
0.0
 11
0.0
 21
0.0
 12
0.0
 22
0.0
 32
0.0
 14
0.0
 24
0.0
 34
0.0
 15
0.0
 25
0.0
 35
0.0
146
0.0
 13
0.0
 23
0.0
 33
0.0
 16
1.0
 26
0.0
 36
0.0
 17
0.0
 27
1.0
 37
0.0
 76
     0
330
23
  0
LAYOUT
  5
22
102
{ACAD_REACTORS
330
1A
102
}
330
1A
100
AcDbPlotSettings
  1

  2
none_device
  4

  6

 40
0.0
 41
0.0
 42
0.0
 43
0.0
 44
0.0
 45
0.0
 46
0.0
 47
0.0
 48
0.0
 49
0.0
140
0.0
141
0.0
142
1.0
143
1.0
 70
  1712
 72
     0
 73
     0
 74
     0
  7

 75
     0
147
1.0
148
0.0
149
0.0
100
AcDbLayout
  1
Model
 70
     1
 71
     0
 10
0.0
 20
0.0
 11
297.0
 21
210.0
 12
0.0
 22
0.0
 32
0.0
 14
0.0
 24
0.0
 34
0.0
 15
297.0
 25
210.0
 35
0.0
146
0.0
 13
0.0
 23
0.0
 33
0.0
 16
1.0
 26
0.0
 36
0.0
 17
0.0
 27
1.0
 37
0.0
 76
     0
330
1F
331
29
  0
MLINESTYLE
  5
18
102
{ACAD_REACTORS
330
17
102
}
330
17
100
AcDbMlineStyle
  2
Standard
 70
     0
  3

 62
   256
 51
90.0
 52
90.0
 71
     2
 49
0.5
 62
   256
  6
BYLAYER
 49
-0.5
 62
   256
  6
BYLAYER
  0
ACDBPLACEHOLDER
  5
F
102
{ACAD_REACTORS
330
E
102
}
330
E
  0
ENDSEC
  0
EOF
