  0
SECTION
  2
HEADER
  9
$ACADVER
  1
AC1015
  9
$ACADMAINTVER
 70
     6
  9
$DWGCODEPAGE
  3
ANSI_1252
  9
$INSBASE
 10
0.0
 20
0.0
 30
0.0
  9
$EXTMIN
 10
0.0
 20
0.0
 30
0.0
  9
$EXTMAX
 10
297.0
 20
210.0
 30
0.0
  9
$LIMMIN
 10
0.0
 20
0.0
  9
$LIMMAX
 10
297.0
 20
210.0
  9
$ORTHOMODE
 70
     0
  9
$REGENMODE
 70
     1
  9
$FILLMODE
 70
     1
  9
$QTEXTMODE
 70
     0
  9
$MIRRTEXT
 70
     1
  9
$LTSCALE
 40
1.0
  9
$ATTMODE
 70
     1
  9
$TEXTSIZE
 40
2.0
  9
$TRACEWID
 40
1.0
  9
$TEXTSTYLE
  7
Standard
  9
$CLAYER
  8
0
  9
$CELTYPE
  6
ByLayer
  9
$CECOLOR
 62
   256
  9
$CELTSCALE
 40
1.0
  9
$DISPSILH
 70
     0
  9
$DIMSCALE
 40
1.0
  9
$DIMASZ
 40
3.0
  9
$DIMEXO
 40
0.0
  9
$DIMDLI
 40
3.75
  9
$DIMRND
 40
0.0
  9
$DIMDLE
 40
0.0
  9
$DIMEXE
 40
1.0
  9
$DIMTP
 40
0.0
  9
$DIMTM
 40
0.0
  9
$DIMTXT
 40
2.0
  9
$DIMCEN
 40
2.5
  9
$DIMTSZ
 40
0.0
  9
$DIMTOL
 70
     0
  9
$DIMLIM
 70
     0
  9
$DIMTIH
 70
     1
  9
$DIMTOH
 70
     1
  9
$DIMSE1
 70
     0
  9
$DIMSE2
 70
     0
  9
$DIMTAD
 70
     1
  9
$DIMZIN
 70
     0
  9
$DIMBLK
  1

  9
$DIMASO
 70
     1
  9
$DIMSHO
 70
     1
  9
$DIMPOST
  1

  9
$DIMAPOST
  1

  9
$DIMALT
 70
     0
  9
$DIMALTD
 70
     3
  9
$DIMALTF
 40
0.0393700787
  9
$DIMLFAC
 40
1.0
  9
$DIMTOFL
 70
     1
  9
$DIMTVP
 40
0.0
  9
$DIMTIX
 70
     0
  9
$DIMSOXD
 70
     0
  9
$DIMSAH
 70
     0
  9
$DIMBLK1
  1

  9
$DIMBLK2
  1

  9
$DIMSTYLE
  2
ISO-25
  9
$DIMCLRD
 70
     0
  9
$DIMCLRE
 70
     0
  9
$DIMCLRT
 70
     0
  9
$DIMTFAC
 40
1.0
  9
$DIMGAP
 40
1.524
  9
$DIMJUST
 70
     0
  9
$DIMSD1
 70
     0
  9
$DIMSD2
 70
     0
  9
$DIMTOLJ
 70
     0
  9
$DIMTZIN
 70
     0
  9
$DIMALTZ
 70
     0
  9
$DIMALTTZ
 70
     0
  9
$DIMUPT
 70
     0
  9
$DIMDEC
 70
     2
  9
$DIMTDEC
 70
     3
  9
$DIMALTU
 70
     2
  9
$DIMALTTD
 70
     3
  9
$DIMTXSTY
  7
Standard
  9
$DIMAUNIT
 70
     0
  9
$DIMADEC
 70
     2
  9
$DIMALTRND
 40
0.0
  9
$DIMAZIN
 70
     0
  9
$DIMDSEP
 70
    44
  9
$DIMATFIT
 70
     3
  9
$DIMFRAC
 70
     0
  9
$DIMLDRBLK
  1

  9
$DIMLUNIT
 70
     2
  9
$DIMLWD
 70
    -2
  9
$DIMLWE
 70
    -2
  9
$DIMTMOVE
 70
     0
  9
$LUNITS
 70
     2
  9
$LUPREC
 70
     2
  9
$SKETCHINC
 40
1.0
  9
$FILLETRAD
 40
10.0
  9
$AUNITS
 70
     0
  9
$AUPREC
 70
     2
  9
$MENU
  1
.
  9
$ELEVATION
 40
0.0
  9
$PELEVATION
 40
0.0
  9
$THICKNESS
 40
0.0
  9
$LIMCHECK
 70
     0
  9
$CHAMFERA
 40
10.0
  9
$CHAMFERB
 40
10.0
  9
$CHAMFERC
 40
20.0
  9
$CHAMFERD
 40
0.0
  9
$SKPOLY
 70
     0
  9
$TDCREATE
 40
2456044.678188507
  9
$TDUCREATE
 40
2456044.594855173
  9
$TDUPDATE
 40
2456044.678189954
  9
$TDUUPDATE
 40
2456044.59485662
  9
$TDINDWG
 40
0.0000000116
  9
$TDUSRTIMER
 40
0.0000000116
  9
$USRTIMER
 70
     1
  9
$ANGBASE
 50
0.0
  9
$ANGDIR
 70
     0
  9
$PDMODE
 70
     0
  9
$PDSIZE
 40
-1.0
  9
$PLINEWID
 40
0.0
  9
$SPLFRAME
 70
     0
  9
$SPLINETYPE
 70
     6
  9
$SPLINESEGS
 70
     8
  9
$HANDSEED
  5
27C
  9
$SURFTAB1
 70
     6
  9
$SURFTAB2
 70
     6
  9
$SURFTYPE
 70
     6
  9
$SURFU
 70
     6
  9
$SURFV
 70
     6
  9
$UCSBASE
  2

  9
$UCSNAME
  2

  9
$UCSORG
 10
0.0
 20
0.0
 30
0.0
  9
$UCSXDIR
 10
1.0
 20
0.0
 30
0.0
  9
$UCSYDIR
 10
0.0
 20
1.0
 30
0.0
  9
$UCSORTHOREF
  2

  9
$UCSORTHOVIEW
 70
     0
  9
$UCSORGTOP
 10
0.0
 20
0.0
 30
0.0
  9
$UCSORGBOTTOM
 10
0.0
 20
0.0
 30
0.0
  9
$UCSORGLEFT
 10
0.0
 20
0.0
 30
0.0
  9
$UCSORGRIGHT
 10
0.0
 20
0.0
 30
0.0
  9
$UCSORGFRONT
 10
0.0
 20
0.0
 30
0.0
  9
$UCSORGBACK
 10
0.0
 20
0.0
 30
0.0
  9
$PUCSBASE
  2

  9
$PUCSNAME
  2

  9
$PUCSORG
 10
0.0
 20
0.0
 30
0.0
  9
$PUCSXDIR
 10
1.0
 20
0.0
 30
0.0
  9
$PUCSYDIR
 10
0.0
 20
1.0
 30
0.0
  9
$PUCSORTHOREF
  2

  9
$PUCSORTHOVIEW
 70
     0
  9
$PUCSORGTOP
 10
0.0
 20
0.0
 30
0.0
  9
$PUCSORGBOTTOM
 10
0.0
 20
0.0
 30
0.0
  9
$PUCSORGLEFT
 10
0.0
 20
0.0
 30
0.0
  9
$PUCSORGRIGHT
 10
0.0
 20
0.0
 30
0.0
  9
$PUCSORGFRONT
 10
0.0
 20
0.0
 30
0.0
  9
$PUCSORGBACK
 10
0.0
 20
0.0
 30
0.0
  9
$USERI1
 70
     0
  9
$USERI2
 70
     0
  9
$USERI3
 70
     0
  9
$USERI4
 70
     0
  9
$USERI5
 70
     0
  9
$USERR1
 40
0.0
  9
$USERR2
 40
0.0
  9
$USERR3
 40
0.0
  9
$USERR4
 40
0.0
  9
$USERR5
 40
0.0
  9
$WORLDVIEW
 70
     1
  9
$SHADEDGE
 70
     3
  9
$SHADEDIF
 70
    70
  9
$TILEMODE
 70
     1
  9
$MAXACTVP
 70
    64
  9
$PINSBASE
 10
0.0
 20
0.0
 30
0.0
  9
$PLIMCHECK
 70
     0
  9
$PEXTMIN
 10
1.0000000000E+20
 20
1.0000000000E+20
 30
1.0000000000E+20
  9
$PEXTMAX
 10
-1.0000000000E+20
 20
-1.0000000000E+20
 30
-1.0000000000E+20
  9
$PLIMMIN
 10
0.0
 20
0.0
  9
$PLIMMAX
 10
420.0
 20
297.0
  9
$UNITMODE
 70
     0
  9
$VISRETAIN
 70
     1
  9
$PLINEGEN
 70
     0
  9
$PSLTSCALE
 70
     1
  9
$TREEDEPTH
 70
  3020
  9
$CMLSTYLE
  2
Standard
  9
$CMLJUST
 70
     0
  9
$CMLSCALE
 40
20.0
  9
$PROXYGRAPHICS
 70
     1
  9
$MEASUREMENT
 70
     1
  9
$CELWEIGHT
370
    -1
  9
$ENDCAPS
280
     0
  9
$JOINSTYLE
280
     0
  9
$LWDISPLAY
290
     1
  9
$INSUNITS
 70
     4
  9
$HYPERLINKBASE
  1

  9
$STYLESHEET
  1

  9
$XEDIT
290
     1
  9
$CEPSNTYPE
380
     0
  9
$PSTYLEMODE
290
     1
  9
$FINGERPRINTGUID
  2
{EF548A7E-FAC8-40B1-A713-AECFB4B3C1C6}
  9
$VERSIONGUID
  2
{FAEB1C32-E019-11D5-929B-00C0DF256EC4}
  9
$EXTNAMES
290
     1
  9
$PSVPSCALE
 40
0.0
  9
$OLESTARTUP
290
     0
  0
ENDSEC
  0
SECTION
  2
CLASSES
  0
CLASS
  1
ACDBDICTIONARYWDFLT
  2
AcDbDictionaryWithDefault
  3
ObjectDBX Classes
 90
        0
280
     0
281
     0
  0
CLASS
  1
VISUALSTYLE
  2
AcDbVisualStyle
  3
ObjectDBX Classes
 90
     4095
280
     0
281
     0
  0
CLASS
  1
MATERIAL
  2
AcDbMaterial
  3
ObjectDBX Classes
 90
     1153
280
     0
281
     0
  0
CLASS
  1
ACDBPLACEHOLDER
  2
AcDbPlaceHolder
  3
ObjectDBX Classes
 90
        0
280
     0
281
     0
  0
CLASS
  1
LAYOUT
  2
AcDbLayout
  3
ObjectDBX Classes
 90
        0
280
     0
281
     0
  0
ENDSEC
  0
SECTION
  2
TABLES
  0
TABLE
  2
VPORT
  5
8
330
0
100
AcDbSymbolTable
 70
     1
  0
VPORT
  5
29
330
8
100
AcDbSymbolTableRecord
100
AcDbViewportTableRecord
  2
*Active
 70
     0
 10
0.0
 20
0.0
 11
1.0
 21
1.0
 12
148.5
 22
105.0
 13
0.0
 23
0.0
 14
10.0
 24
10.0
 15
10.0
 25
10.0
 16
0.0
 26
0.0
 36
1.0
 17
0.0
 27
0.0
 37
0.0
 40
210.0
 41
1.4142857143
 42
50.0
 43
0.0
 44
0.0
 50
0.0
 51
0.0
 71
     0
 72
  2000
 73
     1
 74
     3
 75
     0
 76
     0
 77
     0
 78
     0
281
     0
 65
     1
110
0.0
120
0.0
130
0.0
111
1.0
121
0.0
131
0.0
112
0.0
122
1.0
132
0.0
 79
     0
146
0.0
  0
ENDTAB
  0
TABLE
  2
LTYPE
  5
5
330
0
100
AcDbSymbolTable
 70
     6
  0
LTYPE
  5
14
330
5
100
AcDbSymbolTableRecord
100
AcDbLinetypeTableRecord
  2
ByBlock
 70
     0
  3

 72
    65
 73
     0
 40
0.0
  0
LTYPE
  5
15
330
5
100
AcDbSymbolTableRecord
100
AcDbLinetypeTableRecord
  2
ByLayer
 70
     0
  3

 72
    65
 73
     0
 40
0.0
  0
LTYPE
  5
16
330
5
100
AcDbSymbolTableRecord
100
AcDbLinetypeTableRecord
  2
Continuous
 70
     0
  3
Solid line
 72
    65
 73
     0
 40
0.0
  0
LTYPE
  5
3F
330
5
100
AcDbSymbolTableRecord
100
AcDbLinetypeTableRecord
  2
HIDDEN
 70
     0
  3
Hidden __ __ __ __ __ __ __ __ __ __ __ __ __ __
 72
    65
 73
     2
 40
1.905
 49
1.27
 74
     0
 49
-0.635
 74
     0
  0
LTYPE
  5
40
330
5
100
AcDbSymbolTableRecord
100
AcDbLinetypeTableRecord
  2
PHANTOM
 70
     0
  3
Phantom ______  __  __  ______  __  __  ______
 72
    65
 73
     6
 40
12.7
 49
6.35
 74
     0
 49
-1.27
 74
     0
 49
1.27
 74
     0
 49
-1.27
 74
     0
 49
1.27
 74
     0
 49
-1.27
 74
     0
  0
LTYPE
  5
41
330
5
100
AcDbSymbolTableRecord
100
AcDbLinetypeTableRecord
  2
CENTER
 70
     0
  3
Center ____ _ ____ _ ____ _ ____ _ ____ _ ____
 72
    65
 73
     4
 40
10.16
 49
6.35
 74
     0
 49
-1.27
 74
     0
 49
1.27
 74
     0
 49
-1.27
 74
     0
  0
LTYPE
  5
42
330
5
100
AcDbSymbolTableRecord
100
AcDbLinetypeTableRecord
  2
CENTERX2
 70
     0
  3
Center (2x) ________  __  ________  __  _____
 72
    65
 73
     4
 40
20.32
 49
12.7
 74
     0
 49
-2.54
 74
     0
 49
2.54
 74
     0
 49
-2.54
 74
     0
  0
LTYPE
  5
43
330
5
100
AcDbSymbolTableRecord
100
AcDbLinetypeTableRecord
  2
DOT2
 70
     0
  3
Dot (.5x) ........................................
 72
    65
 73
     2
 40
0.635
 49
0.0
 74
     0
 49
-0.635
 74
     0
  0
ENDTAB
  0
TABLE
  2
LAYER
  5
2
330
0
100
AcDbSymbolTable
 70
     5
  0
LAYER
  5
10
330
2
100
AcDbSymbolTableRecord
100
AcDbLayerTableRecord
  2
0
 70
     0
 62
     7
  6
Continuous
370
    -3
390
F
  0
LAYER
  5
44
330
2
100
AcDbSymbolTableRecord
100
AcDbLayerTableRecord
  2
FORMAT
 70
     0
 62
     7
  6
Continuous
370
    -3
390
F
  0
LAYER
  5
45
330
2
100
AcDbSymbolTableRecord
100
AcDbLayerTableRecord
  2
VERMASSUNG
 70
     0
 62
     7
  6
Continuous
370
    -3
390
F
  0
LAYER
  5
46
330
2
100
AcDbSymbolTableRecord
100
AcDbLayerTableRecord
  2
KOPF_DÜNN
 70
     0
 62
     7
  6
Continuous
370
    -3
390
F
  0
LAYER
  5
47
330
2
100
AcDbSymbolTableRecord
100
AcDbLayerTableRecord
  2
KOPF_DICK
 70
     0
 62
     7
  6
Continuous
370
    15
390
F
  0
ENDTAB
  0
TABLE
  2
STYLE
  5
3
330
0
100
AcDbSymbolTable
 70
     2
  0
STYLE
  5
11
330
3
100
AcDbSymbolTableRecord
100
AcDbTextStyleTableRecord
  2
Standard
 70
     0
 40
0.0
 41
1.0
 50
0.0
 71
     0
 42
2.0
  3
txt
  4

  0
STYLE
  5
48
330
3
100
AcDbSymbolTableRecord
100
AcDbTextStyleTableRecord
  2
SLDTEXTSTYLE0
 70
     0
 40
0.0
 41
0.7
 50
0.0
 71
     0
 42
0.2
  3
TXT
  4

  0
ENDTAB
  0
TABLE
  2
VIEW
  5
6
330
0
100
AcDbSymbolTable
 70
     0
  0
ENDTAB
  0
TABLE
  2
UCS
  5
7
330
0
100
AcDbSymbolTable
 70
     0
  0
ENDTAB
  0
TABLE
  2
APPID
  5
9
330
0
100
AcDbSymbolTable
 70
     1
  0
APPID
  5
12
330
9
100
AcDbSymbolTableRecord
100
AcDbRegAppTableRecord
  2
ACAD
 70
     0
  0
ENDTAB
  0
TABLE
  2
DIMSTYLE
  5
A
330
0
100
AcDbSymbolTable
 70
     4
100
AcDbDimStyleTable
  0
DIMSTYLE
105
27
330
A
100
AcDbSymbolTableRecord
100
AcDbDimStyleTableRecord
  2
ISO-25
 70
     0
 41
2.5
 42
0.625
 43
3.75
 44
1.25
 73
     0
 74
     0
 77
     1
 78
     8
140
2.5
141
2.5
143
0.0393700787
147
0.625
171
     3
172
     1
178
     0
271
     2
272
     2
274
     3
278
    44
283
     0
284
     8
340
11
  0
DIMSTYLE
105
1D2
102
{ACAD_REACTORS
330
1D1
102
}
330
A
100
AcDbSymbolTableRecord
100
AcDbDimStyleTableRecord
  2
SLDDIMSTYLE0
 70
     0
 41
3.0
 44
0.0
 73
     0
 74
     0
 77
     1
 78
    12
 79
     3
140
2.0
147
0.5
173
     1
178
     0
179
     1
272
     3
276
     2
284
    12
340
48
  0
DIMSTYLE
105
1DD
102
{ACAD_REACTORS
330
1DC
330
200
102
}
330
A
100
AcDbSymbolTableRecord
100
AcDbDimStyleTableRecord
  2
SLDDIMSTYLE1
 70
     0
 41
3.0
 44
0.0
 45
0.000000001
 73
     0
 74
     0
 77
     1
 78
    12
 79
     3
140
2.0
147
0.5
173
     1
178
     0
271
     2
272
     3
276
     2
284
    12
340
48
  0
DIMSTYLE
105
1E8
102
{ACAD_REACTORS
330
1E7
330
1F4
102
}
330
A
100
AcDbSymbolTableRecord
100
AcDbDimStyleTableRecord
  2
SLDDIMSTYLE2
 70
     0
 41
3.0
 44
0.0
 45
0.000000001
 47
0.1
 48
0.1
 71
     1
 73
     0
 74
     0
 77
     1
 78
    12
 79
     3
140
2.0
147
0.5
173
     1
178
     0
271
     2
272
     1
276
     2
284
     8
340
48
  0
ENDTAB
  0
TABLE
  2
BLOCK_RECORD
  5
1
330
0
100
AcDbSymbolTable
 70
     7
  0
BLOCK_RECORD
  5
1F
330
1
100
AcDbSymbolTableRecord
100
AcDbBlockTableRecord
  2
*Model_Space
340
22
  0
BLOCK_RECORD
  5
1B
330
1
100
AcDbSymbolTableRecord
100
AcDbBlockTableRecord
  2
*Paper_Space
340
1E
  0
BLOCK_RECORD
  5
23
330
1
100
AcDbSymbolTableRecord
100
AcDbBlockTableRecord
  2
*Paper_Space0
340
26
  0
BLOCK_RECORD
  5
1D3
330
1
100
AcDbSymbolTableRecord
100
AcDbBlockTableRecord
  2
_D
340
0
  0
BLOCK_RECORD
  5
1DE
330
1
100
AcDbSymbolTableRecord
100
AcDbBlockTableRecord
  2
_D_1
340
0
  0
BLOCK_RECORD
  5
1E9
330
1
100
AcDbSymbolTableRecord
100
AcDbBlockTableRecord
  2
_D_2
340
0
  0
BLOCK_RECORD
  5
1F5
330
1
100
AcDbSymbolTableRecord
100
AcDbBlockTableRecord
  2
_D_3
340
0
  0
BLOCK_RECORD
  5
201
330
1
100
AcDbSymbolTableRecord
100
AcDbBlockTableRecord
  2
_D_4
340
0
  0
BLOCK_RECORD
  5
26F
330
1
100
AcDbSymbolTableRecord
100
AcDbBlockTableRecord
  2
SW_CENTERMARKSYMBOL_0
340
0
102
{BLKREFS
331
27A
102
}
  0
ENDTAB
  0
ENDSEC
  0
SECTION
  2
BLOCKS
  0
BLOCK
  5
20
330
1F
100
AcDbEntity
  8
0
100
AcDbBlockBegin
  2
*Model_Space
 70
     0
 10
0.0
 20
0.0
 30
0.0
  3
*Model_Space
  1

  0
ENDBLK
  5
21
330
1F
100
AcDbEntity
  8
0
100
AcDbBlockEnd
  0
BLOCK
  5
1C
330
1B
100
AcDbEntity
 67
     1
  8
0
100
AcDbBlockBegin
  2
*Paper_Space
 70
     0
 10
0.0
 20
0.0
 30
0.0
  3
*Paper_Space
  1

  0
ENDBLK
  5
1D
330
1B
100
AcDbEntity
 67
     1
  8
0
100
AcDbBlockEnd
  0
BLOCK
  5
24
330
23
100
AcDbEntity
  8
0
100
AcDbBlockBegin
  2
*Paper_Space0
 70
     0
 10
0.0
 20
0.0
 30
0.0
  3
*Paper_Space0
  1

  0
ENDBLK
  5
25
330
23
100
AcDbEntity
  8
0
100
AcDbBlockEnd
  0
BLOCK
  5
1D4
330
1D3
100
AcDbEntity
  8
0
100
AcDbBlockBegin
  2
_D
 70
     0
 10
0.0
 20
0.0
 30
0.0
  3
_D
  1

  0
ARC
  5
1D6
330
1D3
100
AcDbEntity
  8
VERMASSUNG
100
AcDbCircle
 10
222.5911675399
 20
141.5959369258
 30
0.0
 40
13.39720672431025
100
AcDbArc
 50
264.9722024819
 51
0.0
  0
SOLID
  5
1D7
330
1D3
100
AcDbEntity
  8
VERMASSUNG
100
AcDbTrace
 10
221.4170491434
 20
128.2502786803
 30
0.0
 11
224.4263737654
 21
127.8675708027
 31
0.0
 12
224.4062199808
 22
128.7673451216
 32
0.0
 13
224.4062199808
 23
128.7673451216
 33
0.0
  0
SOLID
  5
1D8
330
1D3
100
AcDbEntity
  8
VERMASSUNG
100
AcDbTrace
 10
235.9883742642
 20
141.5959369258
 30
0.0
 11
235.2113292651
 21
138.6635827403
 31
0.0
 12
236.1058752608
 22
138.5646511399
 32
0.0
 13
236.1058752608
 23
138.5646511399
 33
0.0
  0
LINE
  5
1D9
330
1D3
100
AcDbEntity
  8
VERMASSUNG
100
AcDbLine
 10
221.8410862989
 20
133.0701119937
 30
0.0
 11
221.3294100989
 21
127.2541263838
 31
0.0
  0
LINE
  5
1DA
330
1D3
100
AcDbEntity
  8
VERMASSUNG
100
AcDbLine
 10
230.2996232885
 20
141.5959369258
 30
0.0
 11
236.9883742642
 21
141.5959369258
 31
0.0
  0
MTEXT
  5
1DB
330
1D3
100
AcDbEntity
  8
VERMASSUNG
100
AcDbMText
 10
227.7599113997
 20
131.6588149498
 30
0.1
 40
2.0
 41
0.0
 71
     1
 72
     1
  1
95°
  7
SLDTEXTSTYLE0
 11
0.7374411991856012
 21
0.6754113396617667
 31
0.0
 73
     1
 44
1.0
  0
ENDBLK
  5
1D5
330
1D3
100
AcDbEntity
  8
0
100
AcDbBlockEnd
  0
BLOCK
  5
1DF
330
1DE
100
AcDbEntity
  8
0
100
AcDbBlockBegin
  2
_D_1
 70
     0
 10
0.0
 20
0.0
 30
0.0
  3
_D_1
  1

  0
SOLID
  5
1E1
330
1DE
100
AcDbEntity
  8
VERMASSUNG
100
AcDbTrace
 10
148.5542817704
 20
156.4187855049
 30
0.0
 11
151.5542817704
 21
155.9687855049
 31
0.0
 12
151.5542817704
 22
156.8687855049
 32
0.0
 13
151.5542817704
 23
156.8687855049
 33
0.0
  0
SOLID
  5
1E2
330
1DE
100
AcDbEntity
  8
VERMASSUNG
100
AcDbTrace
 10
222.5542817704
 20
156.4187855049
 30
0.0
 11
219.5542817704
 21
156.8687855049
 31
0.0
 12
219.5542817704
 22
155.9687855049
 32
0.0
 13
219.5542817704
 23
155.9687855049
 33
0.0
  0
LINE
  5
1E3
330
1DE
100
AcDbEntity
  8
VERMASSUNG
100
AcDbLine
 10
148.5542817704
 20
127.2274419079
 30
0.0
 11
148.5542817704
 21
157.4187855049
 31
0.0
  0
LINE
  5
1E4
330
1DE
100
AcDbEntity
  8
VERMASSUNG
100
AcDbLine
 10
222.5542817704
 20
141.5959369258
 30
0.0
 11
222.5542817704
 21
157.4187855049
 31
0.0
  0
LINE
  5
1E5
330
1DE
100
AcDbEntity
  8
VERMASSUNG
100
AcDbLine
 10
148.5542817704
 20
156.4187855049
 30
0.0
 11
222.5542817704
 21
156.4187855049
 31
0.0
  0
MTEXT
  5
1E6
330
1DE
100
AcDbEntity
  8
VERMASSUNG
100
AcDbMText
 10
183.1542816564
 20
158.996920868
 30
0.1
 40
2.0
 41
0.0
 71
     1
 72
     1
  1
74
  7
SLDTEXTSTYLE0
 73
     1
 44
1.0
  0
ENDBLK
  5
1E0
330
1DE
100
AcDbEntity
  8
0
100
AcDbBlockEnd
  0
BLOCK
  5
1EA
330
1E9
100
AcDbEntity
  8
0
100
AcDbBlockBegin
  2
_D_2
 70
     0
 10
0.0
 20
0.0
 30
0.0
  3
_D_2
  1

  0
SOLID
  5
1EC
330
1E9
100
AcDbEntity
  8
VERMASSUNG
100
AcDbTrace
 10
222.5542817704
 20
149.6420581497
 30
0.0
 11
219.5542817704
 21
150.0920581497
 31
0.0
 12
219.5542817704
 22
149.1920581497
 32
0.0
 13
219.5542817704
 23
149.1920581497
 33
0.0
  0
SOLID
  5
1ED
330
1E9
100
AcDbEntity
  8
VERMASSUNG
100
AcDbTrace
 10
172.5542817704
 20
149.6420581497
 30
0.0
 11
175.5542817704
 21
149.1920581497
 31
0.0
 12
175.5542817704
 22
150.0920581497
 32
0.0
 13
175.5542817704
 23
150.0920581497
 33
0.0
  0
LINE
  5
1EE
330
1E9
100
AcDbEntity
  8
VERMASSUNG
100
AcDbLine
 10
222.5542817704
 20
141.5959369258
 30
0.0
 11
222.5542817704
 21
150.6420581497
 31
0.0
  0
LINE
  5
1EF
330
1E9
100
AcDbEntity
  8
VERMASSUNG
100
AcDbLine
 10
172.5542817704
 20
134.2959369258
 30
0.0
 11
172.5542817704
 21
150.6420581497
 31
0.0
  0
LINE
  5
1F0
330
1E9
100
AcDbEntity
  8
VERMASSUNG
100
AcDbLine
 10
222.5542817704
 20
149.6420581497
 30
0.0
 11
172.5542817704
 21
149.6420581497
 31
0.0
  0
MTEXT
  5
1F1
330
1E9
100
AcDbEntity
  8
VERMASSUNG
100
AcDbMText
 10
193.0042815834
 20
152.2201935129
 30
0.1
 40
2.0
 41
0.0
 71
     1
 72
     1
  1
50
  7
SLDTEXTSTYLE0
 73
     1
 44
1.0
  0
MTEXT
  5
1F2
330
1E9
100
AcDbEntity
  8
VERMASSUNG
100
AcDbMText
 10
198.7917816854
 20
152.2201935129
 30
0.1
 40
2.0
 41
0.0
 71
     1
 72
     1
  1

  7
SLDTEXTSTYLE0
 73
     1
 44
1.0
  0
MTEXT
  5
1F3
330
1E9
100
AcDbEntity
  8
VERMASSUNG
100
AcDbMText
 10
198.8042819753
 20
151.7256596501
 30
0.1
 40
1.5
 41
0.0
 71
     1
 72
     1
  1
±0.1
  7
SLDTEXTSTYLE0
 73
     1
 44
1.0
  0
ENDBLK
  5
1EB
330
1E9
100
AcDbEntity
  8
0
100
AcDbBlockEnd
  0
BLOCK
  5
1F6
330
1F5
100
AcDbEntity
  8
0
100
AcDbBlockBegin
  2
_D_3
 70
     0
 10
0.0
 20
0.0
 30
0.0
  3
_D_3
  1

  0
SOLID
  5
1F8
330
1F5
100
AcDbEntity
  8
VERMASSUNG
100
AcDbTrace
 10
240.2996232885
 20
141.5959369258
 30
0.0
 11
239.8496232885
 21
138.5959369258
 31
0.0
 12
240.7496232885
 22
138.5959369258
 32
0.0
 13
240.7496232885
 23
138.5959369258
 33
0.0
  0
SOLID
  5
1F9
330
1F5
100
AcDbEntity
  8
VERMASSUNG
100
AcDbTrace
 10
240.2996232885
 20
114.5959369258
 30
0.0
 11
240.7496232885
 21
117.5959369258
 31
0.0
 12
239.8496232885
 22
117.5959369258
 32
0.0
 13
239.8496232885
 23
117.5959369258
 33
0.0
  0
LINE
  5
1FA
330
1F5
100
AcDbEntity
  8
VERMASSUNG
100
AcDbLine
 10
222.5542817704
 20
141.5959369258
 30
0.0
 11
241.2996232885
 21
141.5959369258
 31
0.0
  0
LINE
  5
1FB
330
1F5
100
AcDbEntity
  8
VERMASSUNG
100
AcDbLine
 10
222.5542817704
 20
114.5959369258
 30
0.0
 11
241.2996232885
 21
114.5959369258
 31
0.0
  0
LINE
  5
1FC
330
1F5
100
AcDbEntity
  8
VERMASSUNG
100
AcDbLine
 10
240.2996232885
 20
141.5959369258
 30
0.0
 11
240.2996232885
 21
114.5959369258
 31
0.0
  0
MTEXT
  5
1FD
330
1F5
100
AcDbEntity
  8
VERMASSUNG
100
AcDbMText
 10
237.7214879254
 20
123.5459367388
 30
0.1
 40
2.0
 41
0.0
 71
     1
 72
     1
  1
27
  7
SLDTEXTSTYLE0
 11
-7.044195017643634E-15
 21
1.0
 31
0.0
 73
     1
 44
1.0
  0
MTEXT
  5
1FE
330
1F5
100
AcDbEntity
  8
VERMASSUNG
100
AcDbMText
 10
237.7214879254
 20
129.3334368409
 30
0.1
 40
2.0
 41
0.0
 71
     1
 72
     1
  1

  7
SLDTEXTSTYLE0
 11
-7.044195017643634E-15
 21
1.0
 31
0.0
 73
     1
 44
1.0
  0
MTEXT
  5
1FF
330
1F5
100
AcDbEntity
  8
VERMASSUNG
100
AcDbMText
 10
238.2160217882
 20
129.3459371307
 30
0.1
 40
1.5
 41
0.0
 71
     1
 72
     1
  1
±0.1
  7
SLDTEXTSTYLE0
 11
-7.044195017643634E-15
 21
1.0
 31
0.0
 73
     1
 44
1.0
  0
ENDBLK
  5
1F7
330
1F5
100
AcDbEntity
  8
0
100
AcDbBlockEnd
  0
BLOCK
  5
202
330
201
100
AcDbEntity
  8
0
100
AcDbBlockBegin
  2
_D_4
 70
     0
 10
0.0
 20
0.0
 30
0.0
  3
_D_4
  1

  0
SOLID
  5
204
330
201
100
AcDbEntity
  8
VERMASSUNG
100
AcDbTrace
 10
139.9640730029
 20
134.5959369258
 30
0.0
 11
139.5140730029
 21
131.5959369258
 31
0.0
 12
140.4140730029
 22
131.5959369258
 32
0.0
 13
140.4140730029
 23
131.5959369258
 33
0.0
  0
SOLID
  5
205
330
201
100
AcDbEntity
  8
VERMASSUNG
100
AcDbTrace
 10
139.9640730029
 20
94.5959369258
 30
0.0
 11
140.4140730029
 21
97.5959369258
 31
0.0
 12
139.5140730029
 22
97.5959369258
 32
0.0
 13
139.5140730029
 23
97.5959369258
 33
0.0
  0
LINE
  5
206
330
201
100
AcDbEntity
  8
VERMASSUNG
100
AcDbLine
 10
172.8542817704
 20
134.5959369258
 30
0.0
 11
138.9640730029
 21
134.5959369258
 31
0.0
  0
LINE
  5
207
330
201
100
AcDbEntity
  8
VERMASSUNG
100
AcDbLine
 10
172.8542817704
 20
94.5959369258
 30
0.0
 11
138.9640730029
 21
94.5959369258
 31
0.0
  0
LINE
  5
208
330
201
100
AcDbEntity
  8
VERMASSUNG
100
AcDbLine
 10
139.9640730029
 20
134.5959369258
 30
0.0
 11
139.9640730029
 21
94.5959369258
 31
0.0
  0
MTEXT
  5
209
330
201
100
AcDbEntity
  8
VERMASSUNG
100
AcDbMText
 10
137.1859375139
 20
108.0909369864
 30
0.4000000777
 40
2.0
 41
0.0
 71
     1
 72
     1
  1
PSC
  7
SLDTEXTSTYLE0
 11
-7.044195017643634E-15
 21
1.0
 31
0.0
 73
     1
 44
1.0
  0
MTEXT
  5
20A
330
201
100
AcDbEntity
  8
VERMASSUNG
100
AcDbMText
 10
137.3859375234
 20
112.6909370885
 30
0.4000000777
 40
2.0
 41
0.0
 71
     1
 72
     1
  1
%%c
  7
SLDTEXTSTYLE0
 11
-7.044195017643634E-15
 21
1.0
 31
0.0
 73
     1
 44
1.0
  0
MTEXT
  5
20B
330
201
100
AcDbEntity
  8
VERMASSUNG
100
AcDbMText
 10
137.1859375139
 20
116.3009375685
 30
0.4000000777
 40
2.0
 41
0.0
 71
     1
 72
     1
  1
40
  7
SLDTEXTSTYLE0
 11
-7.044195017643634E-15
 21
1.0
 31
0.0
 73
     1
 44
1.0
  0
ENDBLK
  5
203
330
201
100
AcDbEntity
  8
0
100
AcDbBlockEnd
  0
BLOCK
  5
270
330
26F
100
AcDbEntity
  8
0
100
AcDbBlockBegin
  2
SW_CENTERMARKSYMBOL_0
 70
     0
 10
0.0
 20
0.0
 30
0.0
  3
SW_CENTERMARKSYMBOL_0
  1

  0
LINE
  5
272
330
26F
100
AcDbEntity
  8
VERMASSUNG
 62
     0
100
AcDbLine
 10
0.0
 20
0.0
 30
0.0
 11
0.0
 21
2.5
 31
0.0
  0
LINE
  5
273
330
26F
100
AcDbEntity
  8
VERMASSUNG
 62
     0
100
AcDbLine
 10
0.0
 20
0.0
 30
0.0
 11
-2.5
 21
0.0
 31
0.0
  0
LINE
  5
274
330
26F
100
AcDbEntity
  8
VERMASSUNG
 62
     0
100
AcDbLine
 10
0.0
 20
0.0
 30
0.0
 11
0.0
 21
-2.5
 31
0.0
  0
LINE
  5
275
330
26F
100
AcDbEntity
  8
VERMASSUNG
 62
     0
100
AcDbLine
 10
0.0
 20
0.0
 30
0.0
 11
2.5
 21
0.0
 31
0.0
  0
LINE
  5
276
330
26F
100
AcDbEntity
  8
VERMASSUNG
 62
     0
100
AcDbLine
 10
0.0
 20
5.0
 30
0.0
 11
0.0
 21
29.9013489231
 31
0.0
  0
LINE
  5
277
330
26F
100
AcDbEntity
  8
VERMASSUNG
 62
     0
100
AcDbLine
 10
-5.0
 20
0.0
 30
0.0
 11
-22.5
 21
0.0
 31
0.0
  0
LINE
  5
278
330
26F
100
AcDbEntity
  8
VERMASSUNG
 62
     0
100
AcDbLine
 10
0.0
 20
-5.0
 30
0.0
 11
0.0
 21
-22.5
 31
0.0
  0
LINE
  5
279
330
26F
100
AcDbEntity
  8
VERMASSUNG
 62
     0
100
AcDbLine
 10
5.0
 20
0.0
 30
0.0
 11
22.5
 21
0.0
 31
0.0
  0
ENDBLK
  5
271
330
26F
100
AcDbEntity
  8
0
100
AcDbBlockEnd
  0
ENDSEC
  0
SECTION
  2
ENTITIES
  0
MTEXT
  5
49
330
1F
100
AcDbEntity
  8
KOPF_DÜNN
100
AcDbMText
 10
13.8892156294
 20
23.8442973028
 30
0.0
 40
3.0
 41
0.0
 71
     1
 72
     1
  1
PS4.PWE.RLA.050
  7
SLDTEXTSTYLE0
 73
     1
 44
1.0
  0
MTEXT
  5
4A
330
1F
100
AcDbEntity
  8
VERMASSUNG
100
AcDbMText
 10
13.9329988022
 20
28.8834360957
 30
0.0
 40
3.0
 41
0.0
 71
     1
 72
     1
  1
Klemmhalter rechts_Turning tool right 95° /80°
  7
SLDTEXTSTYLE0
 73
     1
 44
1.0
  0
MTEXT
  5
4B
330
1F
100
AcDbEntity
  8
VERMASSUNG
100
AcDbMText
 10
98.8601118557
 20
13.8365368179
 30
0.0
 40
2.0
 41
0.0
 71
     1
 72
     1
  1
Datum: 26.04.2012
  7
SLDTEXTSTYLE0
 73
     1
 44
1.0
  0
MTEXT
  5
4C
330
1F
100
AcDbEntity
  8
VERMASSUNG
100
AcDbMText
 10
13.933048693
 20
18.0482802738
 30
0.0
 40
2.0
 41
0.0
 71
     1
 72
     1
  1
PSC ø40 / WN..08 04..
  7
SLDTEXTSTYLE0
 73
     1
 44
1.0
  0
MTEXT
  5
4D
330
1F
100
AcDbEntity
  8
VERMASSUNG
100
AcDbMText
 10
13.9808475933
 20
13.9090973692
 30
0.0
 40
2.0
 41
0.0
 71
     1
 72
     1
  1
Gewicht: 405g
  7
SLDTEXTSTYLE0
 73
     1
 44
1.0
  0
LINE
  5
4E
330
1F
100
AcDbEntity
  8
0
  6
Continuous
 62
     7
370
    15
100
AcDbLine
 10
216.8141133961
 20
132.5209910311
 30
0.0
 11
217.2018318107
 21
133.1068208135
 31
0.0
  0
LINE
  5
4F
330
1F
100
AcDbEntity
  8
0
  6
Continuous
 62
     7
370
    15
100
AcDbLine
 10
213.2858922316
 20
135.7059467807
 30
0.0
 11
213.1769749155
 21
135.5413762956
 31
0.0
  0
LINE
  5
50
330
1F
100
AcDbEntity
  8
0
  6
Continuous
 62
     7
370
    15
100
AcDbLine
 10
217.8512493238
 20
125.0244490081
 30
0.0
 11
218.348804809
 21
125.6832839218
 31
0.0
  0
LINE
  5
51
330
1F
100
AcDbEntity
  8
0
  6
Continuous
 62
     7
370
    15
100
AcDbLine
 10
206.4355877602
 20
137.5569226758
 30
0.0
 11
205.9781474266
 21
136.9512059834
 31
0.0
  0
LINE
  5
52
330
1F
100
AcDbEntity
  8
0
  6
Continuous
 62
     7
370
    15
100
AcDbLine
 10
194.7869547824
 20
134.5959369258
 30
0.0
 11
172.8542817704
 21
134.5959369258
 31
0.0
  0
LINE
  5
53
330
1F
100
AcDbEntity
  8
0
  6
Continuous
 62
     7
370
    15
100
AcDbLine
 10
172.8542817704
 20
94.5959369258
 30
0.0
 11
194.7869547824
 21
94.5959369258
 31
0.0
  0
ARC
  5
54
330
1F
100
AcDbEntity
  8
0
  6
Continuous
 62
     7
370
    15
100
AcDbCircle
 10
172.8542817704
 20
94.8959369258
 30
0.0
 40
0.3000000000000114
100
AcDbArc
 50
180.0
 51
270.0
  0
ARC
  5
55
330
1F
100
AcDbEntity
  8
0
  6
Continuous
 62
     7
370
    15
100
AcDbCircle
 10
172.8542817704
 20
134.2959369258
 30
0.0
 40
0.3000000000000114
100
AcDbArc
 50
90.0
 51
180.0
  0
LWPOLYLINE
  5
56
330
1F
100
AcDbEntity
  8
0
  6
Continuous
 62
     7
370
    15
100
AcDbPolyline
 90
        3
 70
   128
 43
0.0
 10
172.3542817704
 20
100.5061166469
 10
172.4797367138
 20
100.437814532
 10
172.5542817704
 20
100.3850767739
  0
LWPOLYLINE
  5
57
330
1F
100
AcDbEntity
  8
0
  6
Continuous
 62
     7
370
    15
100
AcDbPolyline
 90
        3
 70
   128
 43
0.0
 10
172.5542817704
 20
128.8067970777
 10
172.4797367138
 20
128.7540593196
 10
172.3542817704
 20
128.6857572047
  0
ARC
  5
58
330
1F
100
AcDbEntity
  8
0
  6
Continuous
 62
     7
370
    15
100
AcDbCircle
 10
194.7869547824
 20
135.5959369258
 30
0.0
 40
1.0
100
AcDbArc
 50
270.0
 51
342.6253299998
  0
ARC
  5
59
330
1F
100
AcDbEntity
  8
0
  6
Continuous
 62
     7
370
    15
100
AcDbCircle
 10
194.7869547824
 20
93.5959369258
 30
0.0
 40
1.000000000000008
100
AcDbArc
 50
30.0
 51
90.0
  0
LINE
  5
5A
330
1F
100
AcDbEntity
  8
0
  6
Continuous
 62
     7
370
    15
100
AcDbLine
 10
195.6529801862
 20
94.0959369258
 30
0.0
 11
202.823159326
 21
94.0959369258
 31
0.0
  0
CIRCLE
  5
5B
330
1F
100
AcDbEntity
  8
0
  6
Continuous
 62
     7
370
    15
100
AcDbCircle
 10
204.5958051586
 20
123.9991275844
 30
0.0
 40
3.475990512938026
  0
CIRCLE
  5
5C
330
1F
100
AcDbEntity
  8
0
  6
Continuous
 62
     7
370
    15
100
AcDbCircle
 10
204.6166392853
 20
124.0042510257
 30
0.0
 40
1.985348152638282
  0
SPLINE
  5
5D
330
1F
100
AcDbEntity
  8
0
  6
Continuous
 62
     7
370
    15
100
AcDbSpline
210
0.0
220
0.0
230
1.0
 70
     8
 71
     3
 72
    11
 73
     7
 74
     0
 42
0.00000001
 43
0.00000001
 12
1.0
 22
0.0
 32
0.0
 13
1.0
 23
0.0
 33
0.0
 40
0.0
 40
0.0
 40
0.0
 40
0.0
 40
0.1081100880371222
 40
0.4711580666043589
 40
0.813580843083598
 40
1.0
 40
1.0
 40
1.0
 40
1.0
 10
203.5566354474007
 20
122.6355999447017
 30
0.0
 10
203.611376050049
 20
122.6228156019272
 30
0.0
 10
203.8499428385591
 20
122.5670997447503
 30
0.0
 10
204.3150469664945
 20
122.4754948567883
 30
0.0
 10
204.8595980609973
 20
122.4062380817398
 30
0.0
 10
205.1574425277066
 20
122.3808784843575
 30
0.0
 10
205.2624340400468
 20
122.3719391123728
 30
0.0
  0
SPLINE
  5
5E
330
1F
100
AcDbEntity
  8
0
  6
Continuous
 62
     7
370
    15
100
AcDbSpline
210
0.0
220
0.0
230
1.0
 70
     8
 71
     3
 72
    11
 73
     7
 74
     0
 42
0.00000001
 43
0.00000001
 12
1.0
 22
0.0
 32
0.0
 13
1.0
 23
0.0
 33
0.0
 40
0.0
 40
0.0
 40
0.0
 40
0.0
 40
0.2164499953511904
 40
0.4402998152333226
 40
0.751891476001033
 40
1.0
 40
1.0
 40
1.0
 40
1.0
 10
205.2624340400468
 20
122.3719391123728
 30
0.0
 10
205.3293997242996
 20
122.4559399423744
 30
0.0
 10
205.4656204636702
 20
122.6268133575905
 30
0.0
 10
205.7302209523148
 20
122.959548272339
 30
0.0
 10
206.0301930308541
 20
123.3378381552892
 30
0.0
 10
206.2330328631862
 20
123.5943218254093
 30
0.0
 10
206.3229493805965
 20
123.7080180266172
 30
0.0
  0
SPLINE
  5
5F
330
1F
100
AcDbEntity
  8
0
  6
Continuous
 62
     7
370
    15
100
AcDbSpline
210
0.0
220
0.0
230
1.0
 70
     8
 71
     3
 72
    11
 73
     7
 74
     0
 42
0.00000001
 43
0.00000001
 12
1.0
 22
0.0
 32
0.0
 13
1.0
 23
0.0
 33
0.0
 40
0.0
 40
0.0
 40
0.0
 40
0.0
 40
0.2164499953511758
 40
0.4402998152332906
 40
0.7518914760010259
 40
1.0
 40
1.0
 40
1.0
 40
1.0
 10
206.3229493805965
 20
123.7080180266172
 30
0.0
 10
206.2730691704725
 20
123.8100794212708
 30
0.0
 10
206.1716034842951
 20
124.0176914063646
 30
0.0
 10
205.9951163679708
 20
124.4186040799395
 30
0.0
 10
205.8219313941828
 20
124.870028612418
 30
0.0
 10
205.7219754330971
 20
125.1733146373193
 30
0.0
 10
205.6776661285001
 20
125.3077577731906
 30
0.0
  0
SPLINE
  5
60
330
1F
100
AcDbEntity
  8
0
  6
Continuous
 62
     7
370
    15
100
AcDbSpline
210
0.0
220
0.0
230
1.0
 70
     8
 71
     3
 72
    11
 73
     7
 74
     0
 42
0.00000001
 43
0.00000001
 12
1.0
 22
0.0
 32
0.0
 13
1.0
 23
0.0
 33
0.0
 40
0.0
 40
0.0
 40
0.0
 40
0.0
 40
0.1864191569163744
 40
0.5288419333956523
 40
0.8918899119628749
 40
0.9999999999999999
 40
0.9999999999999999
 40
0.9999999999999999
 40
0.9999999999999999
 10
205.6776661285001
 20
125.3077577731906
 30
0.0
 10
205.5726746161598
 20
125.3166971451753
 30
0.0
 10
205.2748301494506
 20
125.3420567425575
 30
0.0
 10
204.7302790549477
 20
125.4113135176061
 30
0.0
 10
204.2651749270123
 20
125.502918405568
 30
0.0
 10
204.0266081385023
 20
125.5586342627449
 30
0.0
 10
203.9718675358539
 20
125.5714186055194
 30
0.0
  0
SPLINE
  5
61
330
1F
100
AcDbEntity
  8
0
  6
Continuous
 62
     7
370
    15
100
AcDbSpline
210
0.0
220
0.0
230
1.0
 70
     8
 71
     3
 72
    11
 73
     7
 74
     0
 42
0.00000001
 43
0.00000001
 12
1.0
 22
0.0
 32
0.0
 13
1.0
 23
0.0
 33
0.0
 40
0.0
 40
0.0
 40
0.0
 40
0.0
 40
0.2164499953511927
 40
0.4402998152333316
 40
0.7518914760010581
 40
1.0
 40
1.0
 40
1.0
 40
1.0
 10
203.9718675358539
 20
125.5714186055194
 30
0.0
 10
203.8935442463661
 20
125.4723786751805
 30
0.0
 10
203.7342200115284
 20
125.270912914194
 30
0.0
 10
203.4503616450509
 20
124.912677803672
 30
0.0
 10
203.1619989522453
 20
124.5497604145962
 30
0.0
 10
202.9883352684439
 20
124.3319101549645
 30
0.0
 10
202.9113521953042
 20
124.235339691275
 30
0.0
  0
SPLINE
  5
62
330
1F
100
AcDbEntity
  8
0
  6
Continuous
 62
     7
370
    15
100
AcDbSpline
210
0.0
220
0.0
230
1.0
 70
     8
 71
     3
 72
    11
 73
     7
 74
     0
 42
0.00000001
 43
0.00000001
 12
1.0
 22
0.0
 32
0.0
 13
1.0
 23
0.0
 33
0.0
 40
0.0
 40
0.0
 40
0.0
 40
0.0
 40
0.2164499953512022
 40
0.4402998152333406
 40
0.7518914760010805
 40
1.0
 40
1.0
 40
1.0
 40
1.0
 10
202.9113521953042
 20
124.235339691275
 30
0.0
 10
202.9498748001932
 20
124.1182391962842
 30
0.0
 10
203.0282369909035
 20
123.8800348654199
 30
0.0
 10
203.1854662293949
 20
123.4536219960714
 30
0.0
 10
203.3702605889165
 20
123.0175699574673
 30
0.0
 10
203.4993926985329
 20
122.7529173430545
 30
0.0
 10
203.5566354474007
 20
122.6355999447017
 30
0.0
  0
LINE
  5
63
330
1F
100
AcDbEntity
  8
0
  6
Continuous
 62
     7
370
    15
100
AcDbLine
 10
203.5817620001
 20
125.0548628552
 30
0.0
 11
203.9718675359
 21
125.5714186055
 31
0.0
  0
LINE
  5
64
330
1F
100
AcDbEntity
  8
0
  6
Continuous
 62
     7
370
    15
100
AcDbLine
 10
203.5817620001
 20
125.0548628552
 30
0.0
 11
203.0515043298
 21
124.3868233981
 31
0.0
  0
LINE
  5
65
330
1F
100
AcDbEntity
  8
0
  6
Continuous
 62
     7
370
    15
100
AcDbLine
 10
205.9328438448
 20
123.1914622763
 30
0.0
 11
205.6102022188
 21
123.9913321496
 31
0.0
  0
LINE
  5
66
330
1F
100
AcDbEntity
  8
0
  6
Continuous
 62
     7
370
    15
100
AcDbLine
 10
205.6102022188
 20
123.9913321496
 30
0.0
 11
205.2875605927
 21
124.7912020228
 31
0.0
  0
LINE
  5
67
330
1F
100
AcDbEntity
  8
0
  6
Continuous
 62
     7
370
    15
100
AcDbLine
 10
205.2875605927
 20
124.7912020228
 30
0.0
 11
205.6776661285
 21
125.3077577732
 31
0.0
  0
LINE
  5
68
330
1F
100
AcDbEntity
  8
0
  6
Continuous
 62
     7
370
    15
100
AcDbLine
 10
205.2875605927
 20
124.7912020228
 30
0.0
 11
204.4346612964
 21
124.923032439
 31
0.0
  0
LINE
  5
69
330
1F
100
AcDbEntity
  8
0
  6
Continuous
 62
     7
370
    15
100
AcDbLine
 10
204.4346612964
 20
124.923032439
 30
0.0
 11
203.5817620001
 21
125.0548628552
 31
0.0
  0
ARC
  5
6A
330
1F
100
AcDbEntity
  8
0
  6
Continuous
 62
     7
370
    15
100
AcDbCircle
 10
204.2455652373
 20
123.4353518375
 30
0.0
 40
1.47354952361812
100
AcDbArc
 50
326.4465547576
 51
22.1669614838
  0
ARC
  5
6B
330
1F
100
AcDbEntity
  8
0
  6
Continuous
 62
     7
370
    15
100
AcDbCircle
 10
204.2038391406
 20
123.4664020348
 30
0.0
 40
1.474805411581401
100
AcDbArc
 50
80.9956039981
 51
141.384073106
  0
ARC
  5
6C
330
1F
100
AcDbEntity
  8
0
  6
Continuous
 62
     7
370
    15
100
AcDbCircle
 10
204.2015702576
 20
123.4214884174
 30
0.0
 40
1.519528177128598
100
AcDbArc
 50
22.025153407
 51
81.1761616207
  0
ELLIPSE
  5
6D
330
1F
100
AcDbEntity
  8
0
  6
Continuous
 62
     7
370
    15
100
AcDbEllipse
 10
215.2438620211
 20
134.4063837971
 30
0.0
 11
1.895184197371663
 21
-1.389650252276084
 31
0.0
210
0.0
220
0.0
230
1.0
 40
0.9861321518
 41
1.410764123840553
 42
3.290169263605441
  0
ELLIPSE
  5
6E
330
1F
100
AcDbEntity
  8
0
  6
Continuous
 62
     7
370
    15
100
AcDbEllipse
 10
215.2438620211
 20
134.4063837971
 30
0.0
 11
1.895184197371663
 21
-1.389650252276084
 31
0.0
210
0.0
220
0.0
230
1.0
 40
0.9861321518
 41
5.842599441649734
 42
7.693949431020156
  0
SPLINE
  5
6F
330
1F
100
AcDbEntity
  8
0
  6
Continuous
 62
     7
370
    15
100
AcDbSpline
210
0.0
220
0.0
230
1.0
 70
     8
 71
     3
 72
    10
 73
     6
 74
     0
 42
0.00000001
 43
0.00000001
 12
1.0
 22
0.0
 32
0.0
 13
1.0
 23
0.0
 33
0.0
 40
0.0
 40
0.0
 40
0.0
 40
0.0
 40
0.2212513080540239
 40
0.6300139433579203
 40
0.9999999999999999
 40
0.9999999999999999
 40
0.9999999999999999
 40
0.9999999999999999
 10
216.9196512891021
 20
132.5451494290914
 30
0.0
 10
216.9511554462844
 20
132.5866267094212
 30
0.0
 10
217.0408636539922
 20
132.7047334233213
 30
0.0
 10
217.1649721124337
 20
132.9382645898373
 30
0.0
 10
217.2275796428534
 20
133.1415950049648
 30
0.0
 10
217.2573246858123
 20
133.238197951803
 30
0.0
  0
ARC
  5
70
330
1F
100
AcDbEntity
  8
0
  6
Continuous
 62
     7
370
    15
100
AcDbCircle
 10
218.0338115841
 20
125.9231991246
 30
0.0
 40
0.395465659310298
100
AcDbArc
 50
234.0121140989
 51
334.2948736829
  0
LINE
  5
71
330
1F
100
AcDbEntity
  8
0
  6
Continuous
 62
     7
370
    15
100
AcDbLine
 10
211.1125365161
 20
130.3646354217
 30
0.0
 11
217.8014303519
 21
125.6032115458
 31
0.0
  0
LINE
  5
72
330
1F
100
AcDbEntity
  8
0
  6
Continuous
 62
     7
370
    15
100
AcDbLine
 10
206.42892263
 20
137.0934295497
 30
0.0
 11
211.1125365161
 21
130.3646354217
 31
0.0
  0
ARC
  5
73
330
1F
100
AcDbEntity
  8
0
  6
Continuous
 62
     7
370
    15
100
AcDbCircle
 10
206.74881968
 20
137.320256124
 30
0.0
 40
0.3921535635117849
100
AcDbArc
 50
114.4243987549
 51
215.3389728063
  0
LINE
  5
74
330
1F
100
AcDbEntity
  8
0
  6
Continuous
 62
     7
370
    15
100
AcDbLine
 10
213.9872427664
 20
141.0052461405
 30
0.0
 11
206.5866672416
 21
137.6773149484
 31
0.0
  0
LINE
  5
75
330
1F
100
AcDbEntity
  8
0
  6
Continuous
 62
     7
370
    15
100
AcDbLine
 10
222.1218016944
 20
141.5948940393
 30
0.0
 11
213.9872427664
 21
141.0052461405
 31
0.0
  0
ARC
  5
76
330
1F
100
AcDbEntity
  8
0
  6
Continuous
 62
     7
370
    15
100
AcDbCircle
 10
222.1506826378
 20
141.192489973
 30
0.0
 40
0.4034391422338564
100
AcDbArc
 50
355.3048862805
 51
94.105136579
  0
LINE
  5
77
330
1F
100
AcDbEntity
  8
0
  6
Continuous
 62
     7
370
    15
100
AcDbLine
 10
221.8410862989
 20
133.0701119937
 30
0.0
 11
222.5527679879
 21
141.1594670617
 31
0.0
  0
LINE
  5
78
330
1F
100
AcDbEntity
  8
0
  6
Continuous
 62
     7
370
    15
100
AcDbLine
 10
218.390141257
 20
125.7516699669
 30
0.0
 11
221.8410862989
 21
133.0701119937
 31
0.0
  0
ARC
  5
79
330
1F
100
AcDbEntity
  8
0
  6
Continuous
 62
     7
370
    15
100
AcDbCircle
 10
218.033601209
 20
125.9232564653
 30
0.0
 40
0.3756923763447006
100
AcDbArc
 50
234.0121140989
 51
334.2948736829
  0
LINE
  5
7A
330
1F
100
AcDbEntity
  8
0
  6
Continuous
 62
     7
370
    15
100
AcDbLine
 10
218.3721143982
 20
125.7603037655
 30
0.0
 11
221.8215772246
 21
133.0756024479
 31
0.0
  0
LINE
  5
7B
330
1F
100
AcDbEntity
  8
0
  6
Continuous
 62
     7
370
    15
100
AcDbLine
 10
221.8215772246
 20
133.0756024479
 30
0.0
 11
222.5329532388
 21
141.1614830566
 31
0.0
  0
ARC
  5
7C
330
1F
100
AcDbEntity
  8
0
  6
Continuous
 62
     7
370
    15
100
AcDbCircle
 10
222.150972156
 20
141.192854822
 30
0.0
 40
0.3832671853187954
100
AcDbArc
 50
355.3048863191
 51
94.1051364978
  0
LINE
  5
7D
330
1F
100
AcDbEntity
  8
0
  6
Continuous
 62
     7
370
    15
100
AcDbLine
 10
222.1235352603
 20
141.5751386853
 30
0.0
 11
213.9924702071
 21
140.9857440462
 31
0.0
  0
LINE
  5
7E
330
1F
100
AcDbEntity
  8
0
  6
Continuous
 62
     7
370
    15
100
AcDbLine
 10
213.9924702071
 20
140.9857440462
 30
0.0
 11
206.5950733039
 21
137.659242234
 31
0.0
  0
ARC
  5
7F
330
1F
100
AcDbEntity
  8
0
  6
Continuous
 62
     7
370
    15
100
AcDbCircle
 10
206.7491181204
 20
137.3200363508
 30
0.0
 40
0.3725458853362092
100
AcDbArc
 50
114.4243987549
 51
215.3389728063
  0
LINE
  5
80
330
1F
100
AcDbEntity
  8
0
  6
Continuous
 62
     7
370
    15
100
AcDbLine
 10
206.4452159229
 20
137.1045511052
 30
0.0
 11
211.1268181497
 21
130.378647062
 31
0.0
  0
LINE
  5
81
330
1F
100
AcDbEntity
  8
0
  6
Continuous
 62
     7
370
    15
100
AcDbLine
 10
211.1268181497
 20
130.378647062
 30
0.0
 11
217.8128390384
 21
125.6192682655
 31
0.0
  0
LINE
  5
82
330
1F
100
AcDbEntity
  8
0
  6
Continuous
 62
     7
370
    15
100
AcDbLine
 10
218.0066712579
 20
125.8939795861
 30
0.0
 11
217.8128390384
 21
125.6192682655
 31
0.0
  0
LINE
  5
83
330
1F
100
AcDbEntity
  8
0
  6
Continuous
 62
     7
370
    15
100
AcDbLine
 10
211.3090649215
 20
130.5516769585
 30
0.0
 11
211.1268181497
 21
130.378647062
 31
0.0
  0
LINE
  5
84
330
1F
100
AcDbEntity
  8
0
  6
Continuous
 62
     7
370
    15
100
AcDbLine
 10
217.7316933457
 20
126.737801242
 30
0.0
 11
218.0066712579
 21
125.8939795861
 31
0.0
  0
LINE
  5
85
330
1F
100
AcDbEntity
  8
0
  6
Continuous
 62
     7
370
    15
100
AcDbLine
 10
214.3489545545
 20
127.0478078528
 30
0.0
 11
217.3038748667
 21
124.9443766321
 31
0.0
  0
LINE
  5
86
330
1F
100
AcDbEntity
  8
0
  6
Continuous
 62
     7
370
    15
100
AcDbLine
 10
210.97795275
 20
130.1864271885
 30
0.0
 11
211.1125365161
 21
130.3646354217
 31
0.0
  0
LINE
  5
87
330
1F
100
AcDbEntity
  8
0
  6
Continuous
 62
     7
370
    15
100
AcDbLine
 10
206.7318556636
 20
137.2854943074
 30
0.0
 11
206.4452159229
 21
137.1045511052
 31
0.0
  0
LINE
  5
88
330
1F
100
AcDbEntity
  8
0
  6
Continuous
 62
     7
370
    15
100
AcDbLine
 10
207.5876699162
 20
136.9868196197
 30
0.0
 11
206.7318556636
 21
137.2854943074
 31
0.0
  0
ARC
  5
89
330
1F
100
AcDbEntity
  8
0
  6
Continuous
 62
     7
370
    15
100
AcDbCircle
 10
218.9134280034
 20
133.8835912056
 30
0.0
 40
0.9762522099140268
100
AcDbArc
 50
334.7712890702
 51
354.992082491
  0
LINE
  5
8A
330
1F
100
AcDbEntity
  8
0
  6
Continuous
 62
     7
370
    15
100
AcDbLine
 10
217.8817806188
 20
129.4067974131
 30
0.0
 11
219.7965590107
 21
133.4674806419
 31
0.0
  0
ARC
  5
8B
330
1F
100
AcDbEntity
  8
0
  6
Continuous
 62
     7
370
    15
100
AcDbCircle
 10
216.9909564367
 20
129.8356203073
 30
0.0
 40
0.9886641482755751
100
AcDbArc
 50
234.0121140989
 51
334.2948736829
  0
LINE
  5
8C
330
1F
100
AcDbEntity
  8
0
  6
Continuous
 62
     7
370
    15
100
AcDbLine
 10
212.6986288697
 20
131.6775571112
 30
0.0
 11
216.410003356
 21
129.0356513603
 31
0.0
  0
ARC
  5
8D
330
1F
100
AcDbEntity
  8
0
  6
Continuous
 62
     7
370
    15
100
AcDbCircle
 10
213.286679761
 20
132.5038270468
 30
0.0
 40
1.014162638510816
100
AcDbArc
 50
214.8492313998
 51
234.5607914597
  0
LINE
  5
8E
330
1F
100
AcDbEntity
  8
0
  6
Continuous
 62
     7
370
    15
100
AcDbLine
 10
209.8556661582
 20
135.6578287302
 30
0.0
 11
212.4543985506
 21
131.9243153177
 31
0.0
  0
ARC
  5
8F
330
1F
100
AcDbEntity
  8
0
  6
Continuous
 62
     7
370
    15
100
AcDbCircle
 10
210.6554087831
 20
136.2248951658
 30
0.0
 40
0.9803839087795482
100
AcDbArc
 50
114.4243987549
 51
215.3389728063
  0
LINE
  5
90
330
1F
100
AcDbEntity
  8
0
  6
Continuous
 62
     7
370
    15
100
AcDbLine
 10
214.3562831999
 20
138.9640656165
 30
0.0
 11
210.2500276872
 21
137.1175422269
 31
0.0
  0
ARC
  5
91
330
1F
100
AcDbEntity
  8
0
  6
Continuous
 62
     7
370
    15
100
AcDbCircle
 10
214.7608437147
 20
138.0633430436
 30
0.0
 40
0.9874058757810078
100
AcDbArc
 50
94.1197041613
 51
114.1872837139
  0
LINE
  5
92
330
1F
100
AcDbEntity
  8
0
  6
Continuous
 62
     7
370
    15
100
AcDbLine
 10
219.2034188044
 20
139.3753674128
 30
0.0
 11
214.68990802
 21
139.0481975967
 31
0.0
  0
ARC
  5
93
330
1F
100
AcDbEntity
  8
0
  6
Continuous
 62
     7
370
    15
100
AcDbCircle
 10
219.2756211628
 20
138.3693572469
 30
0.0
 40
1.008597855584801
100
AcDbArc
 50
355.3048862805
 51
94.105136579
  0
LINE
  5
94
330
1F
100
AcDbEntity
  8
0
  6
Continuous
 62
     7
370
    15
100
AcDbLine
 10
219.8859535119
 20
133.7983708283
 30
0.0
 11
220.2808345382
 21
138.2867999688
 31
0.0
  0
CIRCLE
  5
95
330
1F
100
AcDbEntity
  8
0
  6
Continuous
 62
     7
370
    15
100
AcDbCircle
 10
215.6539411207
 20
134.7751288176
 30
0.0
 40
2.558897235927361
  0
SPLINE
  5
96
330
1F
100
AcDbEntity
  8
0
  6
Continuous
 62
     7
370
    15
100
AcDbSpline
210
0.0
220
0.0
230
1.0
 70
     8
 71
     3
 72
    11
 73
     7
 74
     0
 42
0.00000001
 43
0.00000001
 12
1.0
 22
0.0
 32
0.0
 13
1.0
 23
0.0
 33
0.0
 40
0.0
 40
0.0
 40
0.0
 40
0.0
 40
0.0048811438300569
 40
0.315650045781568
 40
0.6571801970776069
 40
1.0
 40
1.0
 40
1.0
 40
1.0
 10
217.3727967524363
 20
128.1657771231653
 30
0.0
 10
217.3732181054422
 20
128.1635550926536
 30
0.0
 10
217.4004658367663
 20
128.0198625367397
 30
0.0
 10
217.4657058301976
 20
127.7070002253817
 30
0.0
 10
217.5875052304598
 20
127.2073870271679
 30
0.0
 10
217.6835702960479
 20
126.894526364835
 30
0.0
 10
217.7316933457386
 20
126.7378012420495
 30
0.0
  0
LINE
  5
97
330
1F
100
AcDbEntity
  8
0
  6
Continuous
 62
     7
370
    15
100
AcDbLine
 10
218.0066712579
 20
125.8939795861
 30
0.0
 11
218.3721143982
 21
125.7603037655
 31
0.0
  0
LINE
  5
98
330
1F
100
AcDbEntity
  8
0
  6
Continuous
 62
     7
370
    15
100
AcDbLine
 10
221.532817064
 20
133.1298559724
 30
0.0
 11
221.8215772246
 21
133.0756024479
 31
0.0
  0
ARC
  5
99
330
1F
100
AcDbEntity
  8
0
  6
Continuous
 62
     7
370
    15
100
AcDbCircle
 10
217.5364649733
 20
125.2653525892
 30
0.0
 40
0.3963883483458787
100
AcDbArc
 50
234.0716341271
 51
322.5732711489
  0
SPLINE
  5
9A
330
1F
100
AcDbEntity
  8
0
  6
Continuous
 62
     7
370
    15
100
AcDbSpline
210
0.0
220
0.0
230
1.0
 70
     8
 71
     3
 72
    11
 73
     7
 74
     0
 42
0.00000001
 43
0.00000001
 12
1.0
 22
0.0
 32
0.0
 13
1.0
 23
0.0
 33
0.0
 40
0.0
 40
0.0
 40
0.0
 40
0.0
 40
0.3219798907253716
 40
0.6440235861688447
 40
0.9911766261994323
 40
1.0
 40
1.0
 40
1.0
 40
1.0
 10
211.3090649215103
 20
130.5516769584576
 30
0.0
 10
211.4105007467451
 20
130.6487301984599
 30
0.0
 10
211.6133924981105
 20
130.8428559108911
 30
0.0
 10
211.98605672396
 20
131.2085689673561
 30
0.0
 10
212.2376540128275
 20
131.4596060567933
 30
0.0
 10
212.3602073530165
 20
131.5831446339088
 30
0.0
 10
212.3632450091335
 20
131.5862067105025
 30
0.0
  0
SPLINE
  5
9B
330
1F
100
AcDbEntity
  8
0
  6
Continuous
 62
     7
370
    15
100
AcDbSpline
210
0.0
220
0.0
230
1.0
 70
     8
 71
     3
 72
    11
 73
     7
 74
     0
 42
0.00000001
 43
0.00000001
 12
1.0
 22
0.0
 32
0.0
 13
1.0
 23
0.0
 33
0.0
 40
0.0
 40
0.0
 40
0.0
 40
0.0
 40
0.3428198029224097
 40
0.6843499542184668
 40
0.9951188561699896
 40
0.9999999999999999
 40
0.9999999999999999
 40
0.9999999999999999
 40
0.9999999999999999
 10
207.5876699162134
 20
136.9868196197312
 30
0.0
 10
207.7459158557795
 20
136.9350397466274
 30
0.0
 10
208.0618124305226
 20
136.8316747907934
 30
0.0
 10
208.5587008336566
 20
136.7061965042414
 30
0.0
 10
208.8672138050543
 20
136.641437348945
 30
0.0
 10
209.008258090029
 20
136.6150959947586
 30
0.0
 10
209.0104391682534
 20
136.6146886577721
 30
0.0
  0
LINE
  5
9C
330
1F
100
AcDbEntity
  8
0
  6
Continuous
 62
     7
370
    15
100
AcDbLine
 10
206.7318556636
 20
137.2854943074
 30
0.0
 11
206.5950733039
 21
137.659242234
 31
0.0
  0
LINE
  5
9D
330
1F
100
AcDbEntity
  8
0
  6
Continuous
 62
     7
370
    15
100
AcDbLine
 10
214.0485110517
 20
140.6916277286
 30
0.0
 11
213.9924702071
 21
140.9857440462
 31
0.0
  0
LWPOLYLINE
  5
9E
330
1F
100
AcDbEntity
  8
0
  6
Continuous
 62
     7
370
    15
100
AcDbPolyline
 90
        3
 70
   128
 43
0.0
 10
217.6200473143
 20
134.8079052084
 10
217.430071607
 20
135.2917794736
 10
217.1819212155
 20
135.6841214238
  0
ARC
  5
9F
330
1F
100
AcDbEntity
  8
0
  6
Continuous
 62
     7
370
    15
100
AcDbCircle
 10
215.1014909344
 20
134.1839143617
 30
0.0
 40
2.524640999584055
100
AcDbArc
 50
99.8826856894
 51
133.4048788708
  0
ARC
  5
A0
330
1F
100
AcDbEntity
  8
0
  6
Continuous
 62
     7
370
    15
100
AcDbCircle
 10
215.1820008207
 20
134.1188472921
 30
0.0
 40
2.533549193799399
100
AcDbArc
 50
332.5187667632
 51
15.7817277624
  0
SPLINE
  5
A1
330
1F
100
AcDbEntity
  8
0
  6
Continuous
 62
     7
370
    15
100
AcDbSpline
210
0.0
220
0.0
230
1.0
 70
     8
 71
     3
 72
    11
 73
     7
 74
     0
 42
0.00000001
 43
0.00000001
 12
1.0
 22
0.0
 32
0.0
 13
1.0
 23
0.0
 33
0.0
 40
0.0
 40
0.0
 40
0.0
 40
0.0
 40
0.0088233741927942
 40
0.3559983152956033
 40
0.6780419869442618
 40
1.0
 40
1.0
 40
1.0
 40
1.0
 10
220.0947037077331
 20
133.5358905727157
 30
0.0
 10
220.0982887184121
 20
133.5344985699432
 30
0.0
 10
220.242933809298
 20
133.4783351758656
 30
0.0
 10
220.5576933971113
 20
133.3701124077322
 30
0.0
 10
221.0661146150883
 20
133.2265890783381
 30
0.0
 10
221.3772633763436
 20
133.1620974816763
 30
0.0
 10
221.5328170640401
 20
133.1298559723556
 30
0.0
  0
LINE
  5
A2
330
1F
100
AcDbEntity
  8
0
  6
Continuous
 62
     7
370
    15
100
AcDbLine
 10
222.1335401884
 20
141.1694206064
 30
0.0
 11
222.5329532388
 21
141.1614830566
 31
0.0
  0
LINE
  5
A3
330
1F
100
AcDbEntity
  8
0
  6
Continuous
 62
     7
370
    15
100
AcDbLine
 10
221.4446636175
 20
140.481212858
 30
0.0
 11
222.1335401884
 21
141.1694206064
 31
0.0
  0
LINE
  5
A4
330
1F
100
AcDbEntity
  8
0
  6
Continuous
 62
     7
370
    15
100
AcDbLine
 10
222.1335401884
 20
141.1694206064
 30
0.0
 11
222.1235352603
 21
141.5751386853
 31
0.0
  0
SPLINE
  5
A5
330
1F
100
AcDbEntity
  8
0
  6
Continuous
 62
     7
370
    15
100
AcDbSpline
210
0.0
220
0.0
230
1.0
 70
     8
 71
     3
 72
    11
 73
     7
 74
     0
 42
0.00000001
 43
0.00000001
 12
1.0
 22
0.0
 32
0.0
 13
1.0
 23
0.0
 33
0.0
 40
0.0
 40
0.0
 40
0.0
 40
0.0
 40
0.322483705012194
 40
0.6449232485211622
 40
0.9911766421304066
 40
0.9999999999999999
 40
0.9999999999999999
 40
0.9999999999999999
 40
0.9999999999999999
 10
214.0485110517163
 20
140.6916277286404
 30
0.0
 10
214.0811408240477
 20
140.533528442635
 30
0.0
 10
214.1463959003304
 20
140.2173515210268
 30
0.0
 10
214.2830291416634
 20
139.7092142795812
 30
0.0
 10
214.3827885630704
 20
139.3989027136062
 30
0.0
 10
214.4336200052606
 20
139.2577990101363
 30
0.0
 10
214.4348831237374
 20
139.2542927020853
 30
0.0
  0
SPLINE
  5
A6
330
1F
100
AcDbEntity
  8
0
  6
Continuous
 62
     7
370
    15
100
AcDbSpline
210
0.0
220
0.0
230
1.0
 70
     8
 71
     3
 72
    11
 73
     7
 74
     0
 42
0.00000001
 43
0.00000001
 12
1.0
 22
0.0
 32
0.0
 13
1.0
 23
0.0
 33
0.0
 40
0.0
 40
0.0
 40
0.0
 40
0.0
 40
0.0048811438300587
 40
0.3156500457815662
 40
0.6571801970776064
 40
1.0
 40
1.0
 40
1.0
 40
1.0
 10
220.4336320637766
 20
139.4953371500656
 30
0.0
 10
220.4350059727246
 20
139.4966409674435
 30
0.0
 10
220.5238528572684
 20
139.5809552243842
 30
0.0
 10
220.7258959305664
 20
139.7744640658515
 30
0.0
 10
221.0741507838835
 20
140.1130667099926
 30
0.0
 10
221.3210042752174
 20
140.3583434013814
 30
0.0
 10
221.4446636175293
 20
140.4812128579878
 30
0.0
  0
LINE
  5
A7
330
1F
100
AcDbEntity
  8
0
  6
Continuous
 62
     7
370
    15
100
AcDbLine
 10
214.3489545545
 20
127.0478078528
 30
0.0
 11
216.7213471572
 21
125.3590433039
 31
0.0
  0
LINE
  5
A8
330
1F
100
AcDbEntity
  8
0
  6
Continuous
 62
     7
370
    15
100
AcDbLine
 10
214.0505683371
 20
126.3110417165
 30
0.0
 11
216.255150211
 21
124.741731599
 31
0.0
  0
ARC
  5
A9
330
1F
100
AcDbEntity
  8
0
  6
Continuous
 62
     7
370
    15
100
AcDbCircle
 10
216.8368821554
 20
125.5454240633
 30
0.0
 40
0.9921358940228843
100
AcDbArc
 50
234.102075866
 51
317.1115602383
  0
ELLIPSE
  5
AA
330
1F
100
AcDbEntity
  8
0
  6
Continuous
 62
     7
370
    15
100
AcDbEllipse
 10
194.32519772
 20
114.5959369258
 30
0.0
 11
-0.802178193401204
 21
19.99887070822257
 31
0.0
210
0.0
220
0.0
230
1.0
 40
0.2649452246
 41
0.2148138301593795
 42
2.626272414920023
  0
ELLIPSE
  5
AB
330
1F
100
AcDbEntity
  8
0
  6
Continuous
 62
     7
370
    15
100
AcDbEllipse
 10
190.5905276114
 20
122.3431752006
 30
0.0
 11
0.1364367921297003
 21
2.498394279662264
 31
0.0
210
0.0
220
0.0
230
1.0
 40
0.2525873267
 41
0.0
 42
6.283185307179586
  0
ELLIPSE
  5
AC
330
1F
100
AcDbEntity
  8
0
  6
Continuous
 62
     7
370
    15
100
AcDbEllipse
 10
255.4361274288
 20
114.5959369258
 30
0.0
 11
190.2870637919224
 21
-2.813935298683987
 31
0.0
210
0.0
220
0.0
230
1.0
 40
0.1040588589
 41
1.896718364751602
 42
1.906080260567545
  0
SPLINE
  5
AD
330
1F
100
AcDbEntity
  8
0
  6
Continuous
 62
     7
370
    15
100
AcDbSpline
210
0.0
220
0.0
230
1.0
 70
     8
 71
     3
 72
    10
 73
     6
 74
     0
 42
0.00000001
 43
0.00000001
 12
1.0
 22
0.0
 32
0.0
 13
1.0
 23
0.0
 33
0.0
 40
0.0
 40
0.0
 40
0.0
 40
0.0
 40
0.5
 40
0.5
 40
1.0
 40
1.0
 40
1.0
 40
1.0
 10
192.4119766492219
 20
134.089850740241
 30
0.0
 10
192.4524254422975
 20
134.1259756818843
 30
0.0
 10
192.5376065682942
 20
134.1569996973539
 30
0.0
 10
192.7786752470178
 20
134.2024384248888
 30
0.0
 10
192.9352398521933
 20
134.2167386297308
 30
0.0
 10
193.1010945396389
 20
134.2202976833202
 30
0.0
  0
SPLINE
  5
AE
330
1F
100
AcDbEntity
  8
0
  6
Continuous
 62
     7
370
    15
100
AcDbSpline
210
0.0
220
0.0
230
1.0
 70
     8
 71
     3
 72
    10
 73
     6
 74
     0
 42
0.00000001
 43
0.00000001
 12
1.0
 22
0.0
 32
0.0
 13
1.0
 23
0.0
 33
0.0
 40
0.0
 40
0.0
 40
0.0
 40
0.0
 40
0.5
 40
0.5
 40
1.0
 40
1.0
 40
1.0
 40
1.0
 10
193.101094539639
 20
96.7952102885371
 30
0.0
 10
192.9354266531968
 20
96.80361200802432
 30
0.0
 10
192.7808402859454
 20
96.83680912676391
 30
0.0
 10
192.5375129330998
 20
96.94151631975859
 30
0.0
 10
192.4523930933464
 20
97.01140056644554
 30
0.0
 10
192.4119766492219
 20
97.08948130690653
 30
0.0
  0
ELLIPSE
  5
AF
330
1F
100
AcDbEntity
  8
0
  6
Continuous
 62
     7
370
    15
100
AcDbEllipse
 10
255.4361274288
 20
114.5959369258
 30
0.0
 11
190.2870637919224
 21
-2.813935298683987
 31
0.0
210
0.0
220
0.0
230
1.0
 40
0.1040588589
 41
4.380182656400772
 42
4.389544552216714
  0
SPLINE
  5
B0
330
1F
100
AcDbEntity
  8
0
  6
Continuous
 62
     7
370
    15
100
AcDbSpline
210
0.0
220
0.0
230
1.0
 70
     8
 71
     3
 72
    12
 73
     8
 74
     0
 42
0.00000001
 43
0.00000001
 12
1.0
 22
0.0
 32
0.0
 13
1.0
 23
0.0
 33
0.0
 40
0.0
 40
0.0
 40
0.0
 40
0.0
 40
0.4999999999999993
 40
0.4999999999999993
 40
0.7499999999999997
 40
0.7499999999999997
 40
1.0
 40
1.0
 40
1.0
 40
1.0
 10
179.2263761512237
 20
95.56118064261915
 30
0.0
 10
179.2451793840753
 20
95.53925864435809
 30
0.0
 10
179.2707160430946
 20
95.51836483634813
 30
0.0
 10
179.330942217043
 20
95.49063811023036
 30
0.0
 10
179.354868294443
 20
95.48206497685491
 30
0.0
 10
179.4129292146243
 20
95.46888587104738
 30
0.0
 10
179.4487309132502
 20
95.4642805455677
 30
0.0
 10
179.486183772359
 20
95.4642805455677
 30
0.0
  0
LINE
  5
B1
330
1F
100
AcDbEntity
  8
0
  6
Continuous
 62
     7
370
    15
100
AcDbLine
 10
179.4861837724
 20
95.4642805456
 30
0.0
 11
181.6223797684
 21
95.4642805456
 31
0.0
  0
SPLINE
  5
B2
330
1F
100
AcDbEntity
  8
0
  6
Continuous
 62
     7
370
    15
100
AcDbSpline
210
0.0
220
0.0
230
1.0
 70
     8
 71
     3
 72
    12
 73
     8
 74
     0
 42
0.00000001
 43
0.00000001
 12
1.0
 22
0.0
 32
0.0
 13
1.0
 23
0.0
 33
0.0
 40
0.0
 40
0.0
 40
0.0
 40
0.0
 40
0.2499999999999988
 40
0.2499999999999988
 40
0.4999999999999977
 40
0.4999999999999977
 40
1.0
 40
1.0
 40
1.0
 40
1.0
 10
181.6223797683606
 20
95.4642805455677
 30
0.0
 10
181.6598805912384
 20
95.4642805455677
 30
0.0
 10
181.6951589952744
 20
95.46878151343086
 30
0.0
 10
181.7540767153267
 20
95.48214803464816
 30
0.0
 10
181.7776000967251
 20
95.49062929489301
 30
0.0
 10
181.837855681191
 20
95.51836669057091
 30
0.0
 10
181.8633773336022
 20
95.53925068962397
 30
0.0
 10
181.882187389496
 20
95.56118064261914
 30
0.0
  0
ELLIPSE
  5
B3
330
1F
100
AcDbEntity
  8
0
  6
Continuous
 62
     7
370
    15
100
AcDbEllipse
 10
171.6053525979
 20
114.5959369258
 30
0.0
 11
-9.367417879781781
 21
19.74174915274992
 31
0.0
210
0.0
220
0.0
230
1.0
 40
0.3419987131
 41
3.292664382516894
 42
4.239566697060997
  0
SPLINE
  5
B4
330
1F
100
AcDbEntity
  8
0
  6
Continuous
 62
     7
370
    15
100
AcDbSpline
210
0.0
220
0.0
230
1.0
 70
     8
 71
     3
 72
    12
 73
     8
 74
     0
 42
0.00000001
 43
0.00000001
 12
1.0
 22
0.0
 32
0.0
 13
1.0
 23
0.0
 33
0.0
 40
0.0
 40
0.0
 40
0.0
 40
0.0
 40
0.5
 40
0.5
 40
0.75
 40
0.75
 40
1.0
 40
1.0
 40
1.0
 40
1.0
 10
181.8821873894959
 20
108.4576917987419
 30
0.0
 10
181.8633841566443
 20
108.5256721230043
 30
0.0
 10
181.8378474976251
 20
108.5917625108011
 30
0.0
 10
181.7776213236766
 20
108.6808271232483
 30
0.0
 10
181.7536952462766
 20
108.7086282102682
 30
0.0
 10
181.6956343260953
 20
108.7515872834931
 30
0.0
 10
181.6598326274694
 20
108.7667239301493
 30
0.0
 10
181.6223797683606
 20
108.7667239301493
 30
0.0
  0
LINE
  5
B5
330
1F
100
AcDbEntity
  8
0
  6
Continuous
 62
     7
370
    15
100
AcDbLine
 10
181.6223797684
 20
108.7667239301
 30
0.0
 11
179.4861837724
 21
108.7667239301
 31
0.0
  0
SPLINE
  5
B6
330
1F
100
AcDbEntity
  8
0
  6
Continuous
 62
     7
370
    15
100
AcDbSpline
210
0.0
220
0.0
230
1.0
 70
     8
 71
     3
 72
    12
 73
     8
 74
     0
 42
0.00000001
 43
0.00000001
 12
1.0
 22
0.0
 32
0.0
 13
1.0
 23
0.0
 33
0.0
 40
0.0
 40
0.0
 40
0.0
 40
0.0
 40
0.2499999999999986
 40
0.2499999999999986
 40
0.4999999999999971
 40
0.4999999999999971
 40
1.0
 40
1.0
 40
1.0
 40
1.0
 10
179.486183772359
 20
108.7667239301493
 30
0.0
 10
179.4486829494812
 20
108.7667239301493
 30
0.0
 10
179.4134045454452
 20
108.7519275923962
 30
0.0
 10
179.3544868253929
 20
108.7083573312371
 30
0.0
 10
179.3309634439945
 20
108.6808555327356
 30
0.0
 10
179.2707078595286
 20
108.5917563694925
 30
0.0
 10
179.2451862071174
 20
108.5256967907101
 30
0.0
 10
179.2263761512236
 20
108.4576917987419
 30
0.0
  0
ELLIPSE
  5
B7
330
1F
100
AcDbEntity
  8
0
  6
Continuous
 62
     7
370
    15
100
AcDbEllipse
 10
189.5032109428
 20
114.5959369258
 30
0.0
 11
9.367417879781669
 21
19.74174915274995
 31
0.0
210
0.0
220
0.0
230
1.0
 40
0.3419987131
 41
2.043618610118596
 42
2.990520924662729
  0
SPLINE
  5
B8
330
1F
100
AcDbEntity
  8
0
  6
Continuous
 62
     7
370
    15
100
AcDbSpline
210
0.0
220
0.0
230
1.0
 70
     8
 71
     3
 72
    12
 73
     8
 74
     0
 42
0.00000001
 43
0.00000001
 12
1.0
 22
0.0
 32
0.0
 13
1.0
 23
0.0
 33
0.0
 40
0.0
 40
0.0
 40
0.0
 40
0.0
 40
0.4999999999999947
 40
0.4999999999999947
 40
0.7499999999999973
 40
0.7499999999999973
 40
1.0
 40
1.0
 40
1.0
 40
1.0
 10
179.2263761512237
 20
120.73418205286
 30
0.0
 10
179.2450693843541
 20
120.6665994164196
 30
0.0
 10
179.2707246817659
 20
120.6001168469422
 30
0.0
 10
179.3308853044523
 20
120.5111217640447
 30
0.0
 10
179.3549576162067
 20
120.4831198670455
 30
0.0
 10
179.4133391365572
 20
120.4400434663803
 30
0.0
 10
179.4488079642103
 20
120.4251499214526
 30
0.0
 10
179.486183772359
 20
120.4251499214526
 30
0.0
  0
LINE
  5
B9
330
1F
100
AcDbEntity
  8
0
  6
Continuous
 62
     7
370
    15
100
AcDbLine
 10
179.4861837724
 20
120.4251499215
 30
0.0
 11
181.6223797684
 21
120.4251499215
 31
0.0
  0
SPLINE
  5
BA
330
1F
100
AcDbEntity
  8
0
  6
Continuous
 62
     7
370
    15
100
AcDbSpline
210
0.0
220
0.0
230
1.0
 70
     8
 71
     3
 72
    12
 73
     8
 74
     0
 42
0.00000001
 43
0.00000001
 12
1.0
 22
0.0
 32
0.0
 13
1.0
 23
0.0
 33
0.0
 40
0.0
 40
0.0
 40
0.0
 40
0.0
 40
0.2500000000000016
 40
0.2500000000000016
 40
0.5000000000000032
 40
0.5000000000000032
 40
1.0
 40
1.0
 40
1.0
 40
1.0
 10
181.6223797683606
 20
120.4251499214526
 30
0.0
 10
181.6598916544053
 20
120.4251499214526
 30
0.0
 10
181.69517900211
 20
120.4399547357394
 30
0.0
 10
181.7541088503484
 20
120.4835466088652
 30
0.0
 10
181.7776345768175
 20
120.5110600349512
 30
0.0
 10
181.8378933645856
 20
120.6001917670648
 30
0.0
 10
181.8634881268749
 20
120.6665776176826
 30
0.0
 10
181.8821873894959
 20
120.73418205286
 30
0.0
  0
ELLIPSE
  5
BB
330
1F
100
AcDbEntity
  8
0
  6
Continuous
 62
     7
370
    15
100
AcDbEllipse
 10
171.6053525979
 20
114.5959369258
 30
0.0
 11
9.367417879781728
 21
19.74174915274992
 31
0.0
210
0.0
220
0.0
230
1.0
 40
0.3419987131
 41
5.185211263708396
 42
6.132113578252557
  0
SPLINE
  5
BC
330
1F
100
AcDbEntity
  8
0
  6
Continuous
 62
     7
370
    15
100
AcDbSpline
210
0.0
220
0.0
230
1.0
 70
     8
 71
     3
 72
    12
 73
     8
 74
     0
 42
0.00000001
 43
0.00000001
 12
1.0
 22
0.0
 32
0.0
 13
1.0
 23
0.0
 33
0.0
 40
0.0
 40
0.0
 40
0.0
 40
0.0
 40
0.5000000000000038
 40
0.5000000000000038
 40
0.7500000000000019
 40
0.7500000000000019
 40
1.0
 40
1.0
 40
1.0
 40
1.0
 10
181.8821873894959
 20
133.630693208983
 30
0.0
 10
181.8634941563655
 20
133.6524869626109
 30
0.0
 10
181.8378388589537
 20
133.6735071243205
 30
0.0
 10
181.7776782362673
 20
133.7012124702843
 30
0.0
 10
181.753605924513
 20
133.7098476864776
 30
0.0
 10
181.6952244041624
 20
133.7230623317042
 30
0.0
 10
181.6597555765094
 20
133.7275933060344
 30
0.0
 10
181.6223797683606
 20
133.7275933060344
 30
0.0
  0
LINE
  5
BD
330
1F
100
AcDbEntity
  8
0
  6
Continuous
 62
     7
370
    15
100
AcDbLine
 10
181.6223797684
 20
133.727593306
 30
0.0
 11
179.4861837724
 21
133.727593306
 31
0.0
  0
SPLINE
  5
BE
330
1F
100
AcDbEntity
  8
0
  6
Continuous
 62
     7
370
    15
100
AcDbSpline
210
0.0
220
0.0
230
1.0
 70
     8
 71
     3
 72
    12
 73
     8
 74
     0
 42
0.00000001
 43
0.00000001
 12
1.0
 22
0.0
 32
0.0
 13
1.0
 23
0.0
 33
0.0
 40
0.0
 40
0.0
 40
0.0
 40
0.0
 40
0.2500000000000014
 40
0.2500000000000014
 40
0.5000000000000029
 40
0.5000000000000029
 40
1.0
 40
1.0
 40
1.0
 40
1.0
 10
179.486183772359
 20
133.7275933060344
 30
0.0
 10
179.4486718863143
 20
133.7275933060344
 30
0.0
 10
179.4133845386096
 20
133.7230897617719
 30
0.0
 10
179.3544546903712
 20
133.7097165623186
 30
0.0
 10
179.3309289639021
 20
133.7012316597475
 30
0.0
 10
179.270670176134
 20
133.6734838559128
 30
0.0
 10
179.2450754138447
 20
133.6524939921725
 30
0.0
 10
179.2263761512237
 20
133.630693208983
 30
0.0
  0
ELLIPSE
  5
BF
330
1F
100
AcDbEntity
  8
0
  6
Continuous
 62
     7
370
    15
100
AcDbEllipse
 10
189.5032109428
 20
114.5959369258
 30
0.0
 11
-9.367417879781586
 21
19.74174915274995
 31
0.0
210
0.0
220
0.0
230
1.0
 40
0.3419987131
 41
0.151071728927075
 42
1.097974043471207
  0
LINE
  5
C0
330
1F
100
AcDbEntity
  8
0
  6
Continuous
 62
     7
370
    15
100
AcDbLine
 10
172.5542817704
 20
94.8959369258
 30
0.0
 11
172.5542817704
 21
134.2959369258
 31
0.0
  0
SPLINE
  5
C1
330
1F
100
AcDbEntity
  8
0
  6
Continuous
 62
     7
370
    15
100
AcDbSpline
210
0.0
220
0.0
230
1.0
 70
     8
 71
     3
 72
    18
 73
    14
 74
     0
 42
0.00000001
 43
0.00000001
 12
1.0
 22
0.0
 32
0.0
 13
1.0
 23
0.0
 33
0.0
 40
0.0
 40
0.0
 40
0.0
 40
0.0
 40
0.2500000000000003
 40
0.2500000000000003
 40
0.5000000000000007
 40
0.5000000000000007
 40
0.6250000000000004
 40
0.6250000000000004
 40
0.7500000000000003
 40
0.7500000000000003
 40
0.8750000000000001
 40
0.8750000000000001
 40
1.0
 40
1.0
 40
1.0
 40
1.0
 10
171.2981974527958
 20
100.7647485431222
 30
0.0
 10
171.3324942722476
 20
100.7638868876404
 30
0.0
 10
171.3703055522248
 20
100.7641384907353
 30
0.0
 10
171.4568779194047
 20
100.7665370033472
 30
0.0
 10
171.5052170494877
 20
100.7687079880791
 30
0.0
 10
171.5944894068101
 20
100.7728028663743
 30
0.0
 10
171.627030872586
 20
100.7743074843239
 30
0.0
 10
171.7032070724395
 20
100.777270542292
 30
0.0
 10
171.746423132434
 20
100.7787578805478
 30
0.0
 10
171.8521124344
 20
100.7803832918715
 30
0.0
 10
171.9170834931145
 20
100.7803410507976
 30
0.0
 10
172.0507438814724
 20
100.7763188774766
 30
0.0
 10
172.1100503348086
 20
100.7727776506531
 30
0.0
 10
172.1593048814845
 20
100.769210943217
 30
0.0
  0
SPLINE
  5
C2
330
1F
100
AcDbEntity
  8
0
  6
Continuous
 62
     7
370
    15
100
AcDbSpline
210
0.0
220
0.0
230
1.0
 70
     8
 71
     3
 72
    14
 73
    10
 74
     0
 42
0.00000001
 43
0.00000001
 12
1.0
 22
0.0
 32
0.0
 13
1.0
 23
0.0
 33
0.0
 40
0.0
 40
0.0
 40
0.0
 40
0.0
 40
0.1250000000000016
 40
0.1250000000000016
 40
0.2500000000000033
 40
0.2500000000000033
 40
0.5000000000000022
 40
0.5000000000000022
 40
1.0
 40
1.0
 40
1.0
 40
1.0
 10
172.1593048814537
 20
100.769210943236
 30
0.0
 10
172.1708316591711
 20
100.7683762458019
 30
0.0
 10
172.1841844668235
 20
100.7666358315218
 30
0.0
 10
172.2143270394238
 20
100.7593882415215
 30
0.0
 10
172.2293875650382
 20
100.7540412072935
 30
0.0
 10
172.2647339189665
 20
100.7382939370651
 30
0.0
 10
172.2784660186954
 20
100.7284556629038
 30
0.0
 10
172.3118372643865
 20
100.7022516769533
 30
0.0
 10
172.3227776322405
 20
100.6881637755527
 30
0.0
 10
172.3314307572538
 20
100.6753901520644
 30
0.0
  0
LINE
  5
C3
330
1F
100
AcDbEntity
  8
0
  6
Continuous
 62
     7
370
    15
100
AcDbLine
 10
172.3542817704
 20
109.0904921588
 30
0.0
 11
172.3542817704
 21
100.5061166469
 31
0.0
  0
SPLINE
  5
C4
330
1F
100
AcDbEntity
  8
0
  6
Continuous
 62
     7
370
    15
100
AcDbSpline
210
0.0
220
0.0
230
1.0
 70
     8
 71
     3
 72
    16
 73
    12
 74
     0
 42
0.00000001
 43
0.00000001
 12
1.0
 22
0.0
 32
0.0
 13
1.0
 23
0.0
 33
0.0
 40
0.0
 40
0.0
 40
0.0
 40
0.0
 40
0.5000000000000026
 40
0.5000000000000026
 40
0.7500000000000022
 40
0.7500000000000022
 40
0.8750000000000012
 40
0.8750000000000012
 40
0.9375000000000007
 40
0.9375000000000007
 40
1.0
 40
1.0
 40
1.0
 40
1.0
 10
172.3542817703598
 20
109.0904921588381
 30
0.0
 10
172.3542817703598
 20
109.2080675398577
 30
0.0
 10
172.3503983452009
 20
109.3267632929589
 30
0.0
 10
172.3255830199262
 20
109.5075207709514
 30
0.0
 10
172.3147435722137
 20
109.5691648477243
 30
0.0
 10
172.2815277901649
 20
109.6585018220656
 30
0.0
 10
172.2681460465361
 20
109.6887613534907
 30
0.0
 10
172.2326363966739
 20
109.7222775974782
 30
0.0
 10
172.2172194301731
 20
109.7304159432843
 30
0.0
 10
172.1855184080245
 20
109.7304005338529
 30
0.0
 10
172.1713721230737
 20
109.723358296497
 30
0.0
 10
172.1593048814841
 20
109.7142172328874
 30
0.0
  0
SPLINE
  5
C5
330
1F
100
AcDbEntity
  8
0
  6
Continuous
 62
     7
370
    15
100
AcDbSpline
210
0.0
220
0.0
230
1.0
 70
     8
 71
     3
 72
    18
 73
    14
 74
     0
 42
0.00000001
 43
0.00000001
 12
1.0
 22
0.0
 32
0.0
 13
1.0
 23
0.0
 33
0.0
 40
0.0
 40
0.0
 40
0.0
 40
0.0
 40
0.1249999999999997
 40
0.1249999999999997
 40
0.2499999999999993
 40
0.2499999999999993
 40
0.374999999999999
 40
0.374999999999999
 40
0.4999999999999987
 40
0.4999999999999987
 40
0.7499999999999993
 40
0.7499999999999993
 40
1.0
 40
1.0
 40
1.0
 40
1.0
 10
172.1593048814902
 20
109.7142172328802
 30
0.0
 10
172.1106002978023
 20
109.6773229936896
 30
0.0
 10
172.0520918150267
 20
109.6477916892637
 30
0.0
 10
171.9203649997569
 20
109.6385557159848
 30
0.0
 10
171.8556069282594
 20
109.6616188905418
 30
0.0
 10
171.7503963261087
 20
109.7291370121892
 30
0.0
 10
171.7071801775886
 20
109.7721481088398
 30
0.0
 10
171.6310018615047
 20
109.8623901308359
 30
0.0
 10
171.5981470292134
 20
109.9100210123112
 30
0.0
 10
171.5077791232525
 20
110.0570853116607
 30
0.0
 10
171.4583564654129
 20
110.1609986369653
 30
0.0
 10
171.3707053398213
 20
110.3721326006057
 30
0.0
 10
171.3326437924307
 20
110.4798553453644
 30
0.0
 10
171.2981974527968
 20
110.5891884612738
 30
0.0
  0
SPLINE
  5
C6
330
1F
100
AcDbEntity
  8
0
  6
Continuous
 62
     7
370
    15
100
AcDbSpline
210
0.0
220
0.0
230
1.0
 70
     8
 71
     3
 72
     8
 73
     4
 74
     0
 42
0.00000001
 43
0.00000001
 12
1.0
 22
0.0
 32
0.0
 13
1.0
 23
0.0
 33
0.0
 40
0.0
 40
0.0
 40
0.0
 40
0.0
 40
1.0
 40
1.0
 40
1.0
 40
1.0
 10
171.2329614268001
 20
110.8243922354027
 30
0.0
 10
171.252387632099
 20
110.7447999638299
 30
0.0
 10
171.2738844565275
 20
110.6663582176971
 30
0.0
 10
171.2981974527968
 20
110.5891884612738
 30
0.0
  0
SPLINE
  5
C7
330
1F
100
AcDbEntity
  8
0
  6
Continuous
 62
     7
370
    15
100
AcDbSpline
210
0.0
220
0.0
230
1.0
 70
     8
 71
     3
 72
     8
 73
     4
 74
     0
 42
0.00000001
 43
0.00000001
 12
1.0
 22
0.0
 32
0.0
 13
1.0
 23
0.0
 33
0.0
 40
0.0
 40
0.0
 40
0.0
 40
0.0
 40
1.0
 40
1.0
 40
1.0
 40
1.0
 10
171.2981974527968
 20
118.6026853903283
 30
0.0
 10
171.2738844565275
 20
118.525515633905
 30
0.0
 10
171.252387632099
 20
118.4470738877723
 30
0.0
 10
171.2329614268001
 20
118.3674816161995
 30
0.0
  0
SPLINE
  5
C8
330
1F
100
AcDbEntity
  8
0
  6
Continuous
 62
     7
370
    15
100
AcDbSpline
210
0.0
220
0.0
230
1.0
 70
     8
 71
     3
 72
    18
 73
    14
 74
     0
 42
0.00000001
 43
0.00000001
 12
1.0
 22
0.0
 32
0.0
 13
1.0
 23
0.0
 33
0.0
 40
0.0
 40
0.0
 40
0.0
 40
0.0
 40
0.2500000000000008
 40
0.2500000000000008
 40
0.5000000000000016
 40
0.5000000000000016
 40
0.6250000000000011
 40
0.6250000000000011
 40
0.7500000000000008
 40
0.7500000000000008
 40
0.8750000000000003
 40
0.8750000000000003
 40
1.0
 40
1.0
 40
1.0
 40
1.0
 10
171.2981974527968
 20
118.6026853903283
 30
0.0
 10
171.3324957718095
 20
118.7115486869214
 30
0.0
 10
171.3703101691214
 20
118.8185561101577
 30
0.0
 10
171.456898230195
 20
119.027590934296
 30
0.0
 10
171.5052483358737
 20
119.1297610282855
 30
0.0
 10
171.5945649246734
 20
119.2764417998502
 30
0.0
 10
171.6271252801617
 20
119.3242434983858
 30
0.0
 10
171.7033709138906
 20
119.4157990364112
 30
0.0
 10
171.7465302836706
 20
119.4594784284031
 30
0.0
 10
171.8522591076887
 20
119.5288326457297
 30
0.0
 10
171.9172562847434
 20
119.5529489593957
 30
0.0
 10
172.0507407746977
 20
119.5447447373574
 30
0.0
 10
172.1100681681431
 20
119.5149539517655
 30
0.0
 10
172.1593048814845
 20
119.4776566187144
 30
0.0
  0
SPLINE
  5
C9
330
1F
100
AcDbEntity
  8
0
  6
Continuous
 62
     7
370
    15
100
AcDbSpline
210
0.0
220
0.0
230
1.0
 70
     8
 71
     3
 72
    16
 73
    12
 74
     0
 42
0.00000001
 43
0.00000001
 12
1.0
 22
0.0
 32
0.0
 13
1.0
 23
0.0
 33
0.0
 40
0.0
 40
0.0
 40
0.0
 40
0.0
 40
0.0624999999999993
 40
0.0624999999999993
 40
0.1249999999999987
 40
0.1249999999999987
 40
0.2499999999999995
 40
0.2499999999999995
 40
0.4999999999999997
 40
0.4999999999999997
 40
1.0
 40
1.0
 40
1.0
 40
1.0
 10
172.1593048814537
 20
119.4776566186661
 30
0.0
 10
172.1713747147296
 20
119.4685135918203
 30
0.0
 10
172.1856503696629
 20
119.461469144129
 30
0.0
 10
172.2171147817873
 20
119.4614620722304
 30
0.0
 10
172.2326153065977
 20
119.4695900410274
 30
0.0
 10
172.2680542032046
 20
119.5029985020346
 30
0.0
 10
172.281646819308
 20
119.5336656684967
 30
0.0
 10
172.3146411377008
 20
119.6224866625786
 30
0.0
 10
172.3254285310195
 20
119.6833893081264
 30
0.0
 10
172.3504817782987
 20
119.8653973855047
 30
0.0
 10
172.3542817703599
 20
119.9840861005434
 30
0.0
 10
172.3542817703599
 20
120.1013816927639
 30
0.0
  0
LINE
  5
CA
330
1F
100
AcDbEntity
  8
0
  6
Continuous
 62
     7
370
    15
100
AcDbLine
 10
172.3542817704
 20
128.6857572047
 30
0.0
 11
172.3542817704
 21
120.1013816928
 31
0.0
  0
SPLINE
  5
CB
330
1F
100
AcDbEntity
  8
0
  6
Continuous
 62
     7
370
    15
100
AcDbSpline
210
0.0
220
0.0
230
1.0
 70
     8
 71
     3
 72
    12
 73
     8
 74
     0
 42
0.00000001
 43
0.00000001
 12
1.0
 22
0.0
 32
0.0
 13
1.0
 23
0.0
 33
0.0
 40
0.0
 40
0.0
 40
0.0
 40
0.0
 40
0.499999999999998
 40
0.499999999999998
 40
0.749999999999999
 40
0.749999999999999
 40
1.0
 40
1.0
 40
1.0
 40
1.0
 10
172.3139424404921
 20
128.4945444286718
 30
0.0
 10
172.303819588411
 20
128.4836106840341
 30
0.0
 10
172.2914568040649
 20
128.4715453972116
 30
0.0
 10
172.2566222008916
 20
128.4501960568674
 30
0.0
 10
172.2412649796486
 20
128.4419763806384
 30
0.0
 10
172.1985959375088
 20
128.4276370810088
 30
0.0
 10
172.1761717231491
 20
128.4238842999855
 30
0.0
 10
172.1593048814841
 20
128.4226629083852
 30
0.0
  0
SPLINE
  5
CC
330
1F
100
AcDbEntity
  8
0
  6
Continuous
 62
     7
370
    15
100
AcDbSpline
210
0.0
220
0.0
230
1.0
 70
     8
 71
     3
 72
    18
 73
    14
 74
     0
 42
0.00000001
 43
0.00000001
 12
1.0
 22
0.0
 32
0.0
 13
1.0
 23
0.0
 33
0.0
 40
0.0
 40
0.0
 40
0.0
 40
0.0
 40
0.1249999999999998
 40
0.1249999999999998
 40
0.2499999999999997
 40
0.2499999999999997
 40
0.3749999999999995
 40
0.3749999999999995
 40
0.4999999999999993
 40
0.4999999999999993
 40
0.7499999999999997
 40
0.7499999999999997
 40
1.0
 40
1.0
 40
1.0
 40
1.0
 10
172.1593048814902
 20
128.422662908385
 30
0.0
 10
172.1106007524735
 20
128.4191360587668
 30
0.0
 10
172.0520930832689
 20
128.4156357855692
 30
0.0
 10
171.920367420638
 20
128.4115928016813
 30
0.0
 10
171.8556097820177
 20
128.4114812270506
 30
0.0
 10
171.7503993653987
 20
128.4130134118121
 30
0.0
 10
171.7071833304585
 20
128.4144685640272
 30
0.0
 10
171.6310051089775
 20
128.417393825557
 30
0.0
 10
171.5981503412934
 20
128.4189041560652
 30
0.0
 10
171.5077826224516
 20
128.4230461487535
 30
0.0
 10
171.4583602532621
 20
128.4252842337401
 30
0.0
 10
171.3707077911741
 20
128.4277355167865
 30
0.0
 10
171.3326450549397
 20
128.4279907521476
 30
0.0
 10
171.2981974527963
 20
128.4271253084797
 30
0.0
  0
SPLINE
  5
CD
330
1F
100
AcDbEntity
  8
0
  6
Continuous
 62
     7
370
    15
100
AcDbSpline
210
0.0
220
0.0
230
1.0
 70
     8
 71
     3
 72
    16
 73
    12
 74
     0
 42
0.00000001
 43
0.00000001
 12
1.0
 22
0.0
 32
0.0
 13
1.0
 23
0.0
 33
0.0
 40
0.0
 40
0.0
 40
0.0
 40
0.0
 40
0.2500000000000001
 40
0.2500000000000001
 40
0.3750000000000001
 40
0.3750000000000001
 40
0.5000000000000001
 40
0.5000000000000001
 40
0.75
 40
0.75
 40
1.0
 40
1.0
 40
1.0
 40
1.0
 10
170.8542817703598
 20
117.5421353218704
 30
0.0
 10
170.7737449609643
 20
117.0730624950073
 30
0.0
 10
170.7137075521621
 20
116.5926988448274
 30
0.0
 10
170.6529696049148
 20
115.8555145656864
 30
0.0
 10
170.6376471238719
 20
115.6069961624594
 30
0.0
 10
170.617064172094
 20
115.1042127172456
 30
0.0
 10
170.6118646250575
 20
114.849354164221
 30
0.0
 10
170.6118109145173
 20
114.0930768245002
 30
0.0
 10
170.6320082517864
 20
113.5944186251904
 30
0.0
 10
170.7126865588594
 20
112.6079956544462
 30
0.0
 10
170.7737329072006
 20
112.1188815616732
 30
0.0
 10
170.8542817703598
 20
111.6497385297318
 30
0.0
  0
LINE
  5
CE
330
1F
100
AcDbEntity
  8
0
  6
Continuous
 62
     7
370
    15
100
AcDbLine
 10
170.8542817704
 20
111.6497385297
 30
0.0
 11
170.8542817704
 21
110.4947332603
 31
0.0
  0
LINE
  5
CF
330
1F
100
AcDbEntity
  8
0
  6
Continuous
 62
     7
370
    15
100
AcDbLine
 10
150.0542817704
 20
118.4358563919
 30
0.0
 11
150.0542817704
 21
110.7560174597
 31
0.0
  0
LINE
  5
D0
330
1F
100
AcDbEntity
  8
0
  6
Continuous
 62
     7
370
    15
100
AcDbLine
 10
170.8542817704
 20
118.6971405913
 30
0.0
 11
170.8542817704
 21
117.5421353219
 31
0.0
  0
SPLINE
  5
D1
330
1F
100
AcDbEntity
  8
0
  6
Continuous
 62
     7
370
    15
100
AcDbSpline
210
0.0
220
0.0
230
1.0
 70
     8
 71
     3
 72
     8
 73
     4
 74
     0
 42
0.00000001
 43
0.00000001
 12
1.0
 22
0.0
 32
0.0
 13
1.0
 23
0.0
 33
0.0
 40
0.0
 40
0.0
 40
0.0
 40
0.0
 40
1.0
 40
1.0
 40
1.0
 40
1.0
 10
171.0592417924205
 20
111.6494461214372
 30
0.0
 10
171.1099688751429
 20
111.3660950001181
 30
0.0
 10
171.16785618813
 20
111.0911388159783
 30
0.0
 10
171.2329614268002
 20
110.8243922354027
 30
0.0
  0
SPLINE
  5
D2
330
1F
100
AcDbEntity
  8
0
  6
Continuous
 62
     7
370
    15
100
AcDbSpline
210
0.0
220
0.0
230
1.0
 70
     8
 71
     3
 72
    24
 73
    20
 74
     0
 42
0.00000001
 43
0.00000001
 12
1.0
 22
0.0
 32
0.0
 13
1.0
 23
0.0
 33
0.0
 40
0.0
 40
0.0
 40
0.0
 40
0.0
 40
0.2499999999999968
 40
0.2499999999999968
 40
0.3749999999999958
 40
0.3749999999999958
 40
0.4374999999999952
 40
0.4374999999999952
 40
0.4687499999999941
 40
0.4687499999999941
 40
0.4999999999999929
 40
0.4999999999999929
 40
0.5624999999999927
 40
0.5624999999999927
 40
0.6249999999999925
 40
0.6249999999999925
 40
0.7499999999999949
 40
0.7499999999999949
 40
1.0
 40
1.0
 40
1.0
 40
1.0
 10
170.8542817703515
 20
111.6497385297305
 30
0.0
 10
170.8546847997254
 20
111.7430068223601
 30
0.0
 10
170.8567145394405
 20
111.8367643812091
 30
0.0
 10
170.8660232508603
 20
111.9783542668486
 30
0.0
 10
170.8699492439749
 20
112.0255346854579
 30
0.0
 10
170.8808786038909
 20
112.0961307321433
 30
0.0
 10
170.8850002319853
 20
112.119910645908
 30
0.0
 10
170.8968947531676
 20
112.1533617929553
 30
0.0
 10
170.9021815651214
 20
112.1655167450249
 30
0.0
 10
170.9187494966363
 20
112.1733993839929
 30
0.0
 10
170.9266762054037
 20
112.1658357848909
 30
0.0
 10
170.9436685436289
 20
112.1420433536641
 30
0.0
 10
170.9510662444198
 20
112.1218548758197
 30
0.0
 10
170.9651686347616
 20
112.0814052511999
 30
0.0
 10
170.9713217920539
 20
112.0605495768024
 30
0.0
 10
170.988635525515
 20
111.9974245415013
 30
0.0
 10
170.9986405664035
 20
111.9544454295998
 30
0.0
 10
171.0269970226343
 20
111.8247197853109
 30
0.0
 10
171.0435455619805
 20
111.737122058175
 30
0.0
 10
171.0592417924206
 20
111.6494461214373
 30
0.0
  0
SPLINE
  5
D3
330
1F
100
AcDbEntity
  8
0
  6
Continuous
 62
     7
370
    15
100
AcDbSpline
210
0.0
220
0.0
230
1.0
 70
     8
 71
     3
 72
    24
 73
    20
 74
     0
 42
0.00000001
 43
0.00000001
 12
1.0
 22
0.0
 32
0.0
 13
1.0
 23
0.0
 33
0.0
 40
0.0
 40
0.0
 40
0.0
 40
0.0
 40
0.2499999999999956
 40
0.2499999999999956
 40
0.3749999999999942
 40
0.3749999999999942
 40
0.437499999999993
 40
0.437499999999993
 40
0.4999999999999918
 40
0.4999999999999918
 40
0.5312499999999916
 40
0.5312499999999916
 40
0.5624999999999913
 40
0.5624999999999913
 40
0.6249999999999919
 40
0.6249999999999919
 40
0.7499999999999942
 40
0.7499999999999942
 40
1.0
 40
1.0
 40
1.0
 40
1.0
 10
171.0592417924156
 20
117.5424277301368
 30
0.0
 10
171.0434727475061
 20
117.4543450666483
 30
0.0
 10
171.0268585829457
 20
117.3664002501412
 30
0.0
 10
170.9983264554524
 20
117.2360528828819
 30
0.0
 10
170.9882388218985
 20
117.192791705081
 30
0.0
 10
170.9707509990494
 20
117.1293559292478
 30
0.0
 10
170.9645411911229
 20
117.1084418057047
 30
0.0
 10
170.95026333154
 20
117.0679670140215
 30
0.0
 10
170.9426921691881
 20
117.0474893705626
 30
0.0
 10
170.9252723440108
 20
117.024642991031
 30
0.0
 10
170.9167882615527
 20
117.0180911939946
 30
0.0
 10
170.9007521879397
 20
117.0286625692353
 30
0.0
 10
170.895931815664
 20
117.0407536095184
 30
0.0
 10
170.884524915061
 20
117.0743968527381
 30
0.0
 10
170.8805039533518
 20
117.0978045320343
 30
0.0
 10
170.8697499415738
 20
117.1683931350938
 30
0.0
 10
170.8658780559514
 20
117.2153581626149
 30
0.0
 10
170.8567100911511
 20
117.3559350272172
 30
0.0
 10
170.854681756638
 20
117.4495712568343
 30
0.0
 10
170.8542817703598
 20
117.5421353218704
 30
0.0
  0
SPLINE
  5
D4
330
1F
100
AcDbEntity
  8
0
  6
Continuous
 62
     7
370
    15
100
AcDbSpline
210
0.0
220
0.0
230
1.0
 70
     8
 71
     3
 72
     8
 73
     4
 74
     0
 42
0.00000001
 43
0.00000001
 12
1.0
 22
0.0
 32
0.0
 13
1.0
 23
0.0
 33
0.0
 40
0.0
 40
0.0
 40
0.0
 40
0.0
 40
1.0
 40
1.0
 40
1.0
 40
1.0
 10
171.2329614268002
 20
118.3674816161995
 30
0.0
 10
171.1678561881278
 20
118.1007350356151
 30
0.0
 10
171.1099688751391
 20
117.8257788514659
 30
0.0
 10
171.0592417924155
 20
117.5424277301369
 30
0.0
  0
LINE
  5
D5
330
1F
100
AcDbEntity
  8
0
  6
Continuous
 62
     7
370
    15
100
AcDbLine
 10
148.5542817704
 20
118.00284369
 30
0.0
 11
148.5542817704
 21
111.1890301616
 31
0.0
  0
LINE
  5
D6
330
1F
100
AcDbEntity
  8
0
  6
Continuous
 62
     7
370
    15
100
AcDbLine
 10
171.0592417924
 20
128.4211219106
 30
0.0
 11
171.2981974528
 21
128.4271253085
 31
0.0
  0
LINE
  5
D7
330
1F
100
AcDbEntity
  8
0
  6
Continuous
 62
     7
370
    15
100
AcDbLine
 10
150.0542817704
 20
101.09840654
 30
0.0
 11
150.0542817704
 21
110.7560174597
 31
0.0
  0
LINE
  5
D8
330
1F
100
AcDbEntity
  8
0
  6
Continuous
 62
     7
370
    15
100
AcDbLine
 10
170.8542817704
 20
100.5758381412
 30
0.0
 11
170.8542817704
 21
110.4947332603
 31
0.0
  0
LINE
  5
D9
330
1F
100
AcDbEntity
  8
0
  6
Continuous
 62
     7
370
    15
100
AcDbLine
 10
150.0542817704
 20
101.09840654
 30
0.0
 11
170.8542817704
 21
100.5758381412
 31
0.0
  0
ARC
  5
DA
330
1F
100
AcDbEntity
  8
0
  6
Continuous
 62
     7
370
    15
100
AcDbCircle
 10
171.0542186813
 20
100.5708150301
 30
0.0
 40
0.2000000000000055
100
AcDbArc
 50
88.5608333333
 51
178.5608333333
  0
LINE
  5
DB
330
1F
100
AcDbEntity
  8
0
  6
Continuous
 62
     7
370
    15
100
AcDbLine
 10
170.8542817704
 20
118.6971405913
 30
0.0
 11
170.8542817704
 21
128.6160357104
 31
0.0
  0
ARC
  5
DC
330
1F
100
AcDbEntity
  8
0
  6
Continuous
 62
     7
370
    15
100
AcDbCircle
 10
171.0542186813
 20
128.6210588215
 30
0.0
 40
0.2000000000000066
100
AcDbArc
 50
181.4391666667
 51
271.4391666667
  0
LINE
  5
DD
330
1F
100
AcDbEntity
  8
0
  6
Continuous
 62
     7
370
    15
100
AcDbLine
 10
150.0542817704
 20
118.4358563919
 30
0.0
 11
150.0542817704
 21
128.0934673116
 31
0.0
  0
LINE
  5
DE
330
1F
100
AcDbEntity
  8
0
  6
Continuous
 62
     7
370
    15
100
AcDbLine
 10
150.0542817704
 20
128.0934673116
 30
0.0
 11
170.8542817704
 21
128.6160357104
 31
0.0
  0
LINE
  5
DF
330
1F
100
AcDbEntity
  8
0
  6
Continuous
 62
     7
370
    15
100
AcDbLine
 10
171.0592417924
 20
100.770751941
 30
0.0
 11
171.2981974528
 21
100.7647485431
 31
0.0
  0
LINE
  5
E0
330
1F
100
AcDbEntity
  8
0
  6
Continuous
 62
     7
370
    15
100
AcDbLine
 10
148.5542817704
 20
101.9644319437
 30
0.0
 11
150.0542817704
 21
101.09840654
 31
0.0
  0
LINE
  5
E1
330
1F
100
AcDbEntity
  8
0
  6
Continuous
 62
     7
370
    15
100
AcDbLine
 10
148.5542817704
 20
101.9644319437
 30
0.0
 11
148.5542817704
 21
111.1890301616
 31
0.0
  0
LINE
  5
E2
330
1F
100
AcDbEntity
  8
0
  6
Continuous
 62
     7
370
    15
100
AcDbLine
 10
148.5542817704
 20
127.2274419079
 30
0.0
 11
150.0542817704
 21
128.0934673116
 31
0.0
  0
LINE
  5
E3
330
1F
100
AcDbEntity
  8
0
  6
Continuous
 62
     7
370
    15
100
AcDbLine
 10
148.5542817704
 20
118.00284369
 30
0.0
 11
148.5542817704
 21
127.2274419079
 31
0.0
  0
LINE
  5
E4
330
1F
100
AcDbEntity
  8
0
  6
Continuous
 62
     7
370
    15
100
AcDbLine
 10
220.1200091052
 20
118.3671627257
 30
0.0
 11
204.0598316415
 21
95.7638799821
 31
0.0
  0
ELLIPSE
  5
E5
330
1F
100
AcDbEntity
  8
0
  6
Continuous
 62
     7
370
    15
100
AcDbEllipse
 10
255.4361274288
 20
114.5959369258
 30
0.0
 11
195.0442403867206
 21
-2.88428368115109
 31
0.0
210
0.0
220
0.0
230
1.0
 40
0.1040588589
 41
4.402403047622824
 42
4.447374400871343
  0
SPLINE
  5
E6
330
1F
100
AcDbEntity
  8
0
  6
Continuous
 62
     7
370
    15
100
AcDbSpline
210
0.0
220
0.0
230
1.0
 70
     8
 71
     3
 72
    12
 73
     8
 74
     0
 42
0.00000001
 43
0.00000001
 12
1.0
 22
0.0
 32
0.0
 13
1.0
 23
0.0
 33
0.0
 40
0.0
 40
0.0
 40
0.0
 40
0.0
 40
0.25
 40
0.25
 40
0.5
 40
0.5
 40
1.0
 40
1.0
 40
1.0
 40
1.0
 10
195.6529801861653
 20
96.14704747744456
 30
0.0
 10
195.6104868250406
 20
96.22566312755525
 30
0.0
 10
195.5578063037786
 20
96.30024369166757
 30
0.0
 10
195.4367798963459
 20
96.4333632043408
 30
0.0
 10
195.3689871530435
 20
96.49185742222713
 30
0.0
 10
195.142502502743
 20
96.64173876966
 30
0.0
 10
194.9673565461329
 20
96.70167913027326
 30
0.0
 10
194.7869547823808
 20
96.71063178400867
 30
0.0
  0
SPLINE
  5
E7
330
1F
100
AcDbEntity
  8
0
  6
Continuous
 62
     7
370
    15
100
AcDbSpline
210
0.0
220
0.0
230
1.0
 70
     8
 71
     3
 72
    10
 73
     6
 74
     0
 42
0.00000001
 43
0.00000001
 12
1.0
 22
0.0
 32
0.0
 13
1.0
 23
0.0
 33
0.0
 40
0.0
 40
0.0
 40
0.0
 40
0.0
 40
0.5
 40
0.5
 40
1.0
 40
1.0
 40
1.0
 40
1.0
 10
194.7869547823808
 20
134.2555557316273
 30
0.0
 10
195.0128082325077
 20
134.2601565547219
 30
0.0
 10
195.2312585062114
 20
134.3460310316929
 30
0.0
 10
195.5747200520658
 20
134.6327351317035
 30
0.0
 10
195.696938847366
 20
134.8284720093596
 30
0.0
 10
195.7528806086699
 20
135.0464048094056
 30
0.0
  0
SPLINE
  5
E8
330
1F
100
AcDbEntity
  8
0
  6
Continuous
 62
     7
370
    15
100
AcDbSpline
210
0.0
220
0.0
230
1.0
 70
     8
 71
     3
 72
     8
 73
     4
 74
     0
 42
0.00000001
 43
0.00000001
 12
1.0
 22
0.0
 32
0.0
 13
1.0
 23
0.0
 33
0.0
 40
0.0
 40
0.0
 40
0.0
 40
0.0
 40
1.0
 40
1.0
 40
1.0
 40
1.0
 10
195.7528806086699
 20
135.0464048094056
 30
0.0
 10
195.81452412786
 20
135.2865499966262
 30
0.0
 10
195.8762823350794
 20
135.5266640660213
 30
0.0
 10
195.9381444980328
 20
135.7667499295397
 30
0.0
  0
LINE
  5
E9
330
1F
100
AcDbEntity
  8
0
  6
Continuous
 62
     7
370
    15
100
AcDbLine
 10
195.938144498
 20
135.7667499295
 30
0.0
 11
199.3885680984
 21
135.7162782292
 31
0.0
  0
ARC
  5
EA
330
1F
100
AcDbEntity
  8
0
  6
Continuous
 62
     7
370
    15
100
AcDbCircle
 10
199.6460840763
 20
152.5375093808
 30
0.0
 40
16.82320219027299
100
AcDbArc
 50
269.1229282765
 51
293.5087530238
  0
LINE
  5
EB
330
1F
100
AcDbEntity
  8
0
  6
Continuous
 62
     7
370
    15
100
AcDbLine
 10
206.3566771119
 20
137.1106473199
 30
0.0
 11
210.4028355303
 21
131.2976645104
 31
0.0
  0
ARC
  5
EC
330
1F
100
AcDbEntity
  8
0
  6
Continuous
 62
     7
370
    15
100
AcDbCircle
 10
212.3985741449
 20
131.6257548137
 30
0.0
 40
2.02252709869923
100
AcDbArc
 50
189.3356604554
 51
260.0743624041
  0
LINE
  5
ED
330
1F
100
AcDbEntity
  8
0
  6
Continuous
 62
     7
370
    15
100
AcDbLine
 10
212.0499513905
 20
129.6335003019
 30
0.0
 11
214.6840485516
 21
127.758443914
 31
0.0
  0
LINE
  5
EE
330
1F
100
AcDbEntity
  8
0
  6
Continuous
 62
     7
370
    15
100
AcDbLine
 10
214.6840485516
 20
127.758443914
 30
0.0
 11
214.1910590544
 21
126.7129578191
 31
0.0
  0
ARC
  5
EF
330
1F
100
AcDbEntity
  8
0
  6
Continuous
 62
     7
370
    15
100
AcDbCircle
 10
216.0934054382
 20
125.8262991388
 30
0.0
 40
2.098829526049201
100
AcDbArc
 50
155.0103914852
 51
333.8062826237
  0
LINE
  5
F0
330
1F
100
AcDbEntity
  8
0
  6
Continuous
 62
     7
370
    15
100
AcDbLine
 10
217.9766993946
 20
124.8998601213
 30
0.0
 11
218.3416457791
 21
125.6738043382
 31
0.0
  0
LINE
  5
F1
330
1F
100
AcDbEntity
  8
0
  6
Continuous
 62
     7
370
    15
100
AcDbLine
 10
221.0677486013
 20
129.1396772002
 30
0.0
 11
220.1867012845
 21
129.5616467267
 31
0.0
  0
LINE
  5
F2
330
1F
100
AcDbEntity
  8
0
  6
Continuous
 62
     7
370
    15
100
AcDbLine
 10
221.0677486013
 20
129.1396772002
 30
0.0
 11
220.1200091052
 21
118.3671627257
 31
0.0
  0
CIRCLE
  5
F3
330
1F
100
AcDbEntity
  8
0
  6
Continuous
 62
     7
370
    15
100
AcDbCircle
 10
204.6937724036
 20
124.0218318662
 30
0.0
 40
3.479343842004038
  0
LINE
  5
F4
330
1F
100
AcDbEntity
  8
0
  6
Continuous
 62
     7
370
    15
100
AcDbLine
 10
195.6529801862
 20
96.1470474774
 30
0.0
 11
195.6529801862
 21
94.0959369258
 31
0.0
  0
LINE
  5
F5
330
1F
100
AcDbEntity
  8
0
  6
Continuous
 62
     7
370
    15
100
AcDbLine
 10
195.7435224792
 20
135.2973880119
 30
0.0
 11
195.7528806087
 21
135.3353593946
 31
0.0
  0
ELLIPSE
  5
F6
330
1F
100
AcDbEntity
  8
0
  6
Continuous
 62
     7
370
    15
100
AcDbEllipse
 10
217.4158844989
 20
114.5959369258
 30
0.0
 11
14.5930244222354
 21
20.49991501973238
 31
0.0
210
0.0
220
0.0
230
1.0
 40
0.0040448756
 41
3.144472021887708
 42
3.550651746454092
  0
SPLINE
  5
F7
330
1F
100
AcDbEntity
  8
0
  6
Continuous
 62
     7
370
    15
100
AcDbSpline
210
0.0
220
0.0
230
1.0
 70
     8
 71
     3
 72
     8
 73
     4
 74
     0
 42
0.00000001
 43
0.00000001
 12
1.0
 22
0.0
 32
0.0
 13
1.0
 23
0.0
 33
0.0
 40
0.0
 40
0.0
 40
0.0
 40
0.0
 40
1.0
 40
1.0
 40
1.0
 40
1.0
 10
195.7528806086699
 20
135.3353593945614
 30
0.0
 10
195.7949268700501
 20
135.4789832782418
 30
0.0
 10
195.8572720419581
 20
135.6227853058523
 30
0.0
 10
195.9381444980328
 20
135.7667499295397
 30
0.0
  0
LINE
  5
F8
330
1F
100
AcDbEntity
  8
0
  6
Continuous
 62
     7
370
    15
100
AcDbLine
 10
217.2079794869
 20
124.0373202686
 30
0.0
 11
217.6028333535
 21
124.874689481
 31
0.0
  0
LINE
  5
F9
330
1F
100
AcDbEntity
  8
0
  6
Continuous
 62
     7
370
    15
100
AcDbLine
 10
220.2506958026
 20
129.5309971395
 30
0.0
 11
220.2686891259
 21
129.7355188855
 31
0.0
  0
SPLINE
  5
FA
330
1F
100
AcDbEntity
  8
0
  6
HIDDEN
 62
     7
370
     0
100
AcDbSpline
210
0.0
220
0.0
230
1.0
 70
     8
 71
     3
 72
    12
 73
     8
 74
     0
 42
0.00000001
 43
0.00000001
 12
1.0
 22
0.0
 32
0.0
 13
1.0
 23
0.0
 33
0.0
 40
0.0
 40
0.0
 40
0.0
 40
0.0
 40
0.5000000000000046
 40
0.5000000000000046
 40
0.7500000000000022
 40
0.7500000000000022
 40
1.0
 40
1.0
 40
1.0
 40
1.0
 10
179.2263761512237
 20
133.6306932089831
 30
0.0
 10
179.2450693843541
 20
133.652486962611
 30
0.0
 10
179.2707246817659
 20
133.6735071243207
 30
0.0
 10
179.3308853044523
 20
133.7012124702844
 30
0.0
 10
179.3549576162067
 20
133.7098476864778
 30
0.0
 10
179.4133391365572
 20
133.7230623317044
 30
0.0
 10
179.4488079642103
 20
133.7275933060345
 30
0.0
 10
179.486183772359
 20
133.7275933060345
 30
0.0
  0
LINE
  5
FB
330
1F
100
AcDbEntity
  8
0
  6
HIDDEN
 62
     7
370
     0
100
AcDbLine
 10
179.4861837724
 20
133.727593306
 30
0.0
 11
181.6223797684
 21
133.727593306
 31
0.0
  0
SPLINE
  5
FC
330
1F
100
AcDbEntity
  8
0
  6
HIDDEN
 62
     7
370
     0
100
AcDbSpline
210
0.0
220
0.0
230
1.0
 70
     8
 71
     3
 72
    12
 73
     8
 74
     0
 42
0.00000001
 43
0.00000001
 12
1.0
 22
0.0
 32
0.0
 13
1.0
 23
0.0
 33
0.0
 40
0.0
 40
0.0
 40
0.0
 40
0.0
 40
0.2499999999999988
 40
0.2499999999999988
 40
0.4999999999999977
 40
0.4999999999999977
 40
1.0
 40
1.0
 40
1.0
 40
1.0
 10
181.6223797683606
 20
133.7275933060345
 30
0.0
 10
181.6598916544053
 20
133.7275933060345
 30
0.0
 10
181.69517900211
 20
133.723089761772
 30
0.0
 10
181.7541088503484
 20
133.7097165623187
 30
0.0
 10
181.7776345768175
 20
133.7012316597476
 30
0.0
 10
181.8378933645856
 20
133.673483855913
 30
0.0
 10
181.8634881268749
 20
133.6524939921726
 30
0.0
 10
181.8821873894959
 20
133.6306932089831
 30
0.0
  0
ELLIPSE
  5
FD
330
1F
100
AcDbEntity
  8
0
  6
HIDDEN
 62
     7
370
     0
100
AcDbEllipse
 10
171.6053525979
 20
114.5959369258
 30
0.0
 11
9.367417879781813
 21
19.74174915274992
 31
0.0
210
0.0
220
0.0
230
1.0
 40
0.3419987131
 41
5.185211263708412
 42
6.132113578252571
  0
SPLINE
  5
FE
330
1F
100
AcDbEntity
  8
0
  6
HIDDEN
 62
     7
370
     0
100
AcDbSpline
210
0.0
220
0.0
230
1.0
 70
     8
 71
     3
 72
    12
 73
     8
 74
     0
 42
0.00000001
 43
0.00000001
 12
1.0
 22
0.0
 32
0.0
 13
1.0
 23
0.0
 33
0.0
 40
0.0
 40
0.0
 40
0.0
 40
0.0
 40
0.5000000000000061
 40
0.5000000000000061
 40
0.750000000000003
 40
0.750000000000003
 40
1.0
 40
1.0
 40
1.0
 40
1.0
 10
181.8821873894959
 20
120.7341820528604
 30
0.0
 10
181.8634941563655
 20
120.66659941642
 30
0.0
 10
181.8378388589537
 20
120.6001168469426
 30
0.0
 10
181.7776782362673
 20
120.5111217640451
 30
0.0
 10
181.753605924513
 20
120.4831198670459
 30
0.0
 10
181.6952244041624
 20
120.4400434663807
 30
0.0
 10
181.6597555765094
 20
120.425149921453
 30
0.0
 10
181.6223797683606
 20
120.425149921453
 30
0.0
  0
LINE
  5
FF
330
1F
100
AcDbEntity
  8
0
  6
HIDDEN
 62
     7
370
     0
100
AcDbLine
 10
181.6223797684
 20
120.4251499215
 30
0.0
 11
179.4861837724
 21
120.4251499215
 31
0.0
  0
SPLINE
  5
100
330
1F
100
AcDbEntity
  8
0
  6
HIDDEN
 62
     7
370
     0
100
AcDbSpline
210
0.0
220
0.0
230
1.0
 70
     8
 71
     3
 72
    12
 73
     8
 74
     0
 42
0.00000001
 43
0.00000001
 12
1.0
 22
0.0
 32
0.0
 13
1.0
 23
0.0
 33
0.0
 40
0.0
 40
0.0
 40
0.0
 40
0.0
 40
0.2500000000000007
 40
0.2500000000000007
 40
0.5000000000000013
 40
0.5000000000000013
 40
1.0
 40
1.0
 40
1.0
 40
1.0
 10
179.486183772359
 20
120.425149921453
 30
0.0
 10
179.4486718863143
 20
120.425149921453
 30
0.0
 10
179.4133845386096
 20
120.4399547357398
 30
0.0
 10
179.3544546903712
 20
120.4835466088656
 30
0.0
 10
179.3309289639021
 20
120.5110600349516
 30
0.0
 10
179.270670176134
 20
120.6001917670652
 30
0.0
 10
179.2450754138447
 20
120.666577617683
 30
0.0
 10
179.2263761512237
 20
120.7341820528604
 30
0.0
  0
ELLIPSE
  5
101
330
1F
100
AcDbEntity
  8
0
  6
HIDDEN
 62
     7
370
     0
100
AcDbEllipse
 10
189.5032109428
 20
114.5959369258
 30
0.0
 11
-9.367417879781698
 21
19.74174915274995
 31
0.0
210
0.0
220
0.0
230
1.0
 40
0.3419987131
 41
0.1510717289270583
 42
1.09797404347119
  0
SPLINE
  5
102
330
1F
100
AcDbEntity
  8
0
  6
HIDDEN
 62
     7
370
     0
100
AcDbSpline
210
0.0
220
0.0
230
1.0
 70
     8
 71
     3
 72
    12
 73
     8
 74
     0
 42
0.00000001
 43
0.00000001
 12
1.0
 22
0.0
 32
0.0
 13
1.0
 23
0.0
 33
0.0
 40
0.0
 40
0.0
 40
0.0
 40
0.0
 40
0.5000000000000029
 40
0.5000000000000029
 40
0.7500000000000014
 40
0.7500000000000014
 40
1.0
 40
1.0
 40
1.0
 40
1.0
 10
179.2263761512237
 20
108.457691798742
 30
0.0
 10
179.2450693843541
 20
108.5252744351824
 30
0.0
 10
179.2707246817659
 20
108.5917570046598
 30
0.0
 10
179.3308853044523
 20
108.6807520875574
 30
0.0
 10
179.3549576162067
 20
108.7087539845565
 30
0.0
 10
179.4133391365572
 20
108.7518303852217
 30
0.0
 10
179.4488079642103
 20
108.7667239301494
 30
0.0
 10
179.486183772359
 20
108.7667239301494
 30
0.0
  0
LINE
  5
103
330
1F
100
AcDbEntity
  8
0
  6
HIDDEN
 62
     7
370
     0
100
AcDbLine
 10
179.4861837724
 20
108.7667239301
 30
0.0
 11
181.6223797684
 21
108.7667239301
 31
0.0
  0
SPLINE
  5
104
330
1F
100
AcDbEntity
  8
0
  6
HIDDEN
 62
     7
370
     0
100
AcDbSpline
210
0.0
220
0.0
230
1.0
 70
     8
 71
     3
 72
    12
 73
     8
 74
     0
 42
0.00000001
 43
0.00000001
 12
1.0
 22
0.0
 32
0.0
 13
1.0
 23
0.0
 33
0.0
 40
0.0
 40
0.0
 40
0.0
 40
0.0
 40
0.2499999999999987
 40
0.2499999999999987
 40
0.4999999999999974
 40
0.4999999999999974
 40
1.0
 40
1.0
 40
1.0
 40
1.0
 10
181.6223797683606
 20
108.7667239301494
 30
0.0
 10
181.6598916544053
 20
108.7667239301494
 30
0.0
 10
181.69517900211
 20
108.7519191158626
 30
0.0
 10
181.7541088503484
 20
108.7083272427368
 30
0.0
 10
181.7776345768175
 20
108.6808138166508
 30
0.0
 10
181.8378933645856
 20
108.5916820845372
 30
0.0
 10
181.8634881268749
 20
108.5252962339194
 30
0.0
 10
181.8821873894959
 20
108.457691798742
 30
0.0
  0
ELLIPSE
  5
105
330
1F
100
AcDbEntity
  8
0
  6
HIDDEN
 62
     7
370
     0
100
AcDbEllipse
 10
171.6053525979
 20
114.5959369258
 30
0.0
 11
-9.367417879781756
 21
19.74174915274992
 31
0.0
210
0.0
220
0.0
230
1.0
 40
0.3419987131
 41
3.292664382516898
 42
4.239566697061003
  0
SPLINE
  5
106
330
1F
100
AcDbEntity
  8
0
  6
HIDDEN
 62
     7
370
     0
100
AcDbSpline
210
0.0
220
0.0
230
1.0
 70
     8
 71
     3
 72
    12
 73
     8
 74
     0
 42
0.00000001
 43
0.00000001
 12
1.0
 22
0.0
 32
0.0
 13
1.0
 23
0.0
 33
0.0
 40
0.0
 40
0.0
 40
0.0
 40
0.0
 40
0.5000000000000038
 40
0.5000000000000038
 40
0.7500000000000019
 40
0.7500000000000019
 40
1.0
 40
1.0
 40
1.0
 40
1.0
 10
181.8821873894959
 20
95.56118064261919
 30
0.0
 10
181.8634941563655
 20
95.53938688899122
 30
0.0
 10
181.8378388589537
 20
95.51836672728159
 30
0.0
 10
181.7776782362673
 20
95.49066138131788
 30
0.0
 10
181.753605924513
 20
95.4820261651245
 30
0.0
 10
181.6952244041624
 20
95.4688115198979
 30
0.0
 10
181.6597555765094
 20
95.46428054556773
 30
0.0
 10
181.6223797683606
 20
95.46428054556775
 30
0.0
  0
LINE
  5
107
330
1F
100
AcDbEntity
  8
0
  6
HIDDEN
 62
     7
370
     0
100
AcDbLine
 10
181.6223797684
 20
95.4642805456
 30
0.0
 11
179.4861837724
 21
95.4642805456
 31
0.0
  0
SPLINE
  5
108
330
1F
100
AcDbEntity
  8
0
  6
HIDDEN
 62
     7
370
     0
100
AcDbSpline
210
0.0
220
0.0
230
1.0
 70
     8
 71
     3
 72
    12
 73
     8
 74
     0
 42
0.00000001
 43
0.00000001
 12
1.0
 22
0.0
 32
0.0
 13
1.0
 23
0.0
 33
0.0
 40
0.0
 40
0.0
 40
0.0
 40
0.0
 40
0.2499999999999966
 40
0.2499999999999966
 40
0.4999999999999931
 40
0.4999999999999931
 40
1.0
 40
1.0
 40
1.0
 40
1.0
 10
179.486183772359
 20
95.46428054556775
 30
0.0
 10
179.4486718863143
 20
95.46428054556775
 30
0.0
 10
179.4133845386096
 20
95.46878408983027
 30
0.0
 10
179.3544546903712
 20
95.48215728928356
 30
0.0
 10
179.3309289639021
 20
95.4906421918547
 30
0.0
 10
179.270670176134
 20
95.51838999568928
 30
0.0
 10
179.2450754138447
 20
95.53937985942964
 30
0.0
 10
179.2263761512237
 20
95.56118064261918
 30
0.0
  0
ELLIPSE
  5
109
330
1F
100
AcDbEntity
  8
0
  6
HIDDEN
 62
     7
370
     0
100
AcDbEllipse
 10
189.5032109428
 20
114.5959369258
 30
0.0
 11
9.367417879781614
 21
19.74174915274995
 31
0.0
210
0.0
220
0.0
230
1.0
 40
0.3419987131
 41
2.04361861011859
 42
2.990520924662722
  0
SPLINE
  5
10A
330
1F
100
AcDbEntity
  8
0
  6
HIDDEN
 62
     7
370
     0
100
AcDbSpline
210
0.0
220
0.0
230
1.0
 70
     8
 71
     3
 72
    58
 73
    54
 74
     0
 42
0.00000001
 43
0.00000001
 12
1.0
 22
0.0
 32
0.0
 13
1.0
 23
0.0
 33
0.0
 40
-0.0625
 40
-0.0625
 40
0.0
 40
0.0
 40
0.0312500000000001
 40
0.0312500000000001
 40
0.0625000000000002
 40
0.0625000000000002
 40
0.0937500000000003
 40
0.0937500000000003
 40
0.1250000000000004
 40
0.1250000000000004
 40
0.1875000000000003
 40
0.1875000000000003
 40
0.2500000000000003
 40
0.2500000000000003
 40
0.2812500000000002
 40
0.2812500000000002
 40
0.3125000000000002
 40
0.3125000000000002
 40
0.3437500000000002
 40
0.3437500000000002
 40
0.3750000000000002
 40
0.3750000000000002
 40
0.4062500000000002
 40
0.4062500000000002
 40
0.4375000000000002
 40
0.4375000000000002
 40
0.4687500000000002
 40
0.4687500000000002
 40
0.5000000000000001
 40
0.5000000000000001
 40
0.5625000000000001
 40
0.5625000000000001
 40
0.6250000000000001
 40
0.6250000000000001
 40
0.6562500000000001
 40
0.6562500000000001
 40
0.6875000000000001
 40
0.6875000000000001
 40
0.7187500000000001
 40
0.7187500000000001
 40
0.75
 40
0.75
 40
0.78125
 40
0.78125
 40
0.8125
 40
0.8125
 40
0.84375
 40
0.84375
 40
0.875
 40
0.875
 40
0.9375
 40
0.9375
 40
1.0
 40
1.0
 40
1.03125
 40
1.03125
 10
186.5542817703598
 20
114.3315008113531
 30
0.0
 10
186.5542817703598
 20
114.7281549830251
 30
0.0
 10
186.5412997326876
 20
114.8581471438656
 30
0.0
 10
186.4904489304293
 20
115.1138667563179
 30
0.0
 10
186.4519570263764
 20
115.240925440179
 30
0.0
 10
186.3515417406499
 20
115.4830886378379
 30
0.0
 10
186.2901056013769
 20
115.5979304222225
 30
0.0
 10
186.1449721250661
 20
115.8152726197927
 30
0.0
 10
186.060550436215
 20
115.9181142676405
 30
0.0
 10
185.7839502620501
 20
116.1946577483921
 30
0.0
 10
185.560951350783
 20
116.3436403845242
 30
0.0
 10
185.0797168331973
 20
116.5431834480789
 30
0.0
 10
184.8164174176883
 20
116.5957939211103
 30
0.0
 10
184.4248539776481
 20
116.5960079798628
 30
0.0
 10
184.2922663670434
 20
116.5830091304573
 30
0.0
 10
184.0357006614441
 20
116.5319590464309
 30
0.0
 10
183.9109908952636
 20
116.4941878076187
 30
0.0
 10
183.6687517102366
 20
116.3939958995062
 30
0.0
 10
183.5517350564629
 20
116.3314105056817
 30
0.0
 10
183.3350918516166
 20
116.1867054199711
 30
0.0
 10
183.2340850951581
 20
116.1040860785909
 30
0.0
 10
183.0472789995015
 20
115.9174420438009
 30
0.0
 10
182.9645654639697
 20
115.816496195841
 30
0.0
 10
182.8196953345943
 20
115.6000149921593
 30
0.0
 10
182.7570250384976
 20
115.4830978271509
 30
0.0
 10
182.6565971004614
 20
115.2409013579524
 30
0.0
 10
182.6187259215317
 20
115.1162403670489
 30
0.0
 10
182.567463523756
 20
114.8598410179809
 30
0.0
 10
182.5543298831153
 20
114.7272300926831
 30
0.0
 10
182.5541859499765
 20
114.3355554803479
 30
0.0
 10
182.6065512072413
 20
114.0722714606874
 30
0.0
 10
182.8057118705919
 20
113.5907587468276
 30
0.0
 10
182.9545095439539
 20
113.3676376597826
 30
0.0
 10
183.2308102025401
 20
113.0908055112751
 30
0.0
 10
183.3335752495998
 20
113.0062982969908
 30
0.0
 10
183.5507925233942
 20
112.8609773553049
 30
0.0
 10
183.665562216832
 20
112.7994551320428
 30
0.0
 10
183.9075487539766
 20
112.6988587287708
 30
0.0
 10
184.034631326868
 20
112.6602308406822
 30
0.0
 10
184.2903060268712
 20
112.609152730616
 30
0.0
 10
184.4202465442154
 20
112.5960635908489
 30
0.0
 10
184.6845099119768
 20
112.5958120724903
 30
0.0
 10
184.8147208056237
 20
112.6086865425467
 30
0.0
 10
185.0704707510573
 20
112.6593054396787
 30
0.0
 10
185.1974881354247
 20
112.6976532584745
 30
0.0
 10
185.4398398631764
 20
112.7978873786679
 30
0.0
 10
185.5547426424627
 20
112.8592315656579
 30
0.0
 10
185.7721648076117
 20
113.004136570187
 30
0.0
 10
185.8751012050564
 20
113.088475462309
 30
0.0
 10
186.1519383622133
 20
113.3648765753508
 30
0.0
 10
186.3010936032775
 20
113.5877202083933
 30
0.0
 10
186.5010641885127
 20
114.0687834896438
 30
0.0
 10
186.5542817703598
 20
114.3315008113531
 30
0.0
 10
186.5542817703598
 20
114.7281549830251
 30
0.0
  0
SPLINE
  5
10B
330
1F
100
AcDbEntity
  8
0
  6
HIDDEN
 62
     7
370
     0
100
AcDbSpline
210
0.0
220
0.0
230
1.0
 70
     8
 71
     3
 72
    68
 73
    64
 74
     0
 42
0.00000001
 43
0.00000001
 12
1.0
 22
0.0
 32
0.0
 13
1.0
 23
0.0
 33
0.0
 40
-0.0624999999999997
 40
-0.0624999999999997
 40
0.0
 40
0.0
 40
0.03125
 40
0.03125
 40
0.0624999999999999
 40
0.0624999999999999
 40
0.0937499999999999
 40
0.0937499999999999
 40
0.1249999999999998
 40
0.1249999999999998
 40
0.1562499999999998
 40
0.1562499999999998
 40
0.1874999999999997
 40
0.1874999999999997
 40
0.2187499999999997
 40
0.2187499999999997
 40
0.2499999999999996
 40
0.2499999999999996
 40
0.2812499999999996
 40
0.2812499999999996
 40
0.3124999999999995
 40
0.3124999999999995
 40
0.3437499999999994
 40
0.3437499999999994
 40
0.3749999999999994
 40
0.3749999999999994
 40
0.4062499999999994
 40
0.4062499999999994
 40
0.4374999999999993
 40
0.4374999999999993
 40
0.4687499999999994
 40
0.4687499999999994
 40
0.4999999999999994
 40
0.4999999999999994
 40
0.5312499999999996
 40
0.5312499999999996
 40
0.5624999999999996
 40
0.5624999999999996
 40
0.5937499999999997
 40
0.5937499999999997
 40
0.6249999999999997
 40
0.6249999999999997
 40
0.6562499999999998
 40
0.6562499999999998
 40
0.6874999999999998
 40
0.6874999999999998
 40
0.7187499999999999
 40
0.7187499999999999
 40
0.7499999999999999
 40
0.7499999999999999
 40
0.78125
 40
0.78125
 40
0.8125000000000001
 40
0.8125000000000001
 40
0.8437500000000001
 40
0.8437500000000001
 40
0.8750000000000002
 40
0.8750000000000002
 40
0.9062500000000002
 40
0.9062500000000002
 40
0.9375000000000003
 40
0.9375000000000003
 40
1.0
 40
1.0
 40
1.03125
 40
1.03125
 10
189.1542817703598
 20
108.0662623089944
 30
0.0
 10
189.1542817703598
 20
107.6001699344343
 30
0.0
 10
189.1380421722378
 20
107.4481328042025
 30
0.0
 10
189.0744423477777
 20
107.1503537765345
 30
0.0
 10
189.0262984402223
 20
107.0030751143089
 30
0.0
 10
188.9007588501244
 20
106.7236168594432
 30
0.0
 10
188.8239597995558
 20
106.5916849725395
 30
0.0
 10
188.6425442809143
 20
106.3428988837573
 30
0.0
 10
188.5370572072172
 20
106.2257079229527
 30
0.0
 10
188.3066501918175
 20
106.0162358596787
 30
0.0
 10
188.1809009909686
 20
105.9225275911481
 30
0.0
 10
187.9076879723937
 20
105.7573173697719
 30
0.0
 10
187.762420566618
 20
105.6874156173813
 30
0.0
 10
187.4616778579856
 20
105.5751636396405
 30
0.0
 10
187.3039743304978
 20
105.5319924135576
 30
0.0
 10
186.9811986000376
 20
105.4743016858311
 30
0.0
 10
186.818886223052
 20
105.460035217723
 30
0.0
 10
186.4924557067257
 20
105.459872582861
 30
0.0
 10
186.3266459141781
 20
105.4744481829882
 30
0.0
 10
186.0058959728511
 20
105.5317409013854
 30
0.0
 10
185.8499812878254
 20
105.5741505351328
 30
0.0
 10
185.5471110249362
 20
105.6869138627962
 30
0.0
 10
185.400934001583
 20
105.75739505314
 30
0.0
 10
185.1302127762359
 20
105.9208735514235
 30
0.0
 10
185.0038614184547
 20
106.0145251016981
 30
0.0
 10
184.770545294365
 20
106.2265215874622
 30
0.0
 10
184.6672147237943
 20
106.3415302855953
 30
0.0
 10
184.4861416556694
 20
106.5893091836342
 30
0.0
 10
184.4077677011402
 20
106.7236895674756
 30
0.0
 10
184.2822560412695
 20
107.0031049167935
 30
0.0
 10
184.2348928694155
 20
107.1475653774813
 30
0.0
 10
184.1707661538527
 20
107.4461750566759
 30
0.0
 10
184.1543431928369
 20
107.6012720712567
 30
0.0
 10
184.1542206998633
 20
107.9080330912511
 30
0.0
 10
184.1699911044862
 20
108.0612636929519
 30
0.0
 10
184.233984915862
 20
108.3673411309556
 30
0.0
 10
184.2819164800519
 20
108.5175587157084
 30
0.0
 10
184.4064236114577
 20
108.8052875609254
 30
0.0
 10
184.4839807287335
 20
108.9450045700844
 30
0.0
 10
184.6664145884414
 20
109.2082364276797
 30
0.0
 10
184.7697143160299
 20
109.3299521615784
 30
0.0
 10
184.9999544259134
 20
109.5537132519418
 30
0.0
 10
185.1283996912697
 20
109.6565133560014
 30
0.0
 10
185.3997314881852
 20
109.8335927402653
 30
0.0
 10
185.5431624198776
 20
109.9088292073251
 30
0.0
 10
185.8457827792211
 20
110.0320673235288
 30
0.0
 10
186.0045379977472
 20
110.0794336201323
 30
0.0
 10
186.3241476057572
 20
110.1421539906038
 30
0.0
 10
186.486698300707
 20
110.1582685064644
 30
0.0
 10
186.8173369805125
 20
110.1585627946412
 30
0.0
 10
186.979891347995
 20
110.1427438489372
 30
0.0
 10
187.299703362723
 20
110.0805717227531
 30
0.0
 10
187.4586345352212
 20
110.0334465220461
 30
0.0
 10
187.7613868178875
 20
109.9107650468518
 30
0.0
 10
187.9049916815221
 20
109.8357680697431
 30
0.0
 10
188.1768366406449
 20
109.6590071882937
 30
0.0
 10
188.305395213319
 20
109.556450061246
 30
0.0
 10
188.5359354938948
 20
109.3331604005628
 30
0.0
 10
188.6394868626626
 20
109.2115969360274
 30
0.0
 10
188.8225395025389
 20
108.948421219472
 30
0.0
 10
188.9001860998621
 20
108.8090784828773
 30
0.0
 10
189.087690923901
 20
108.3779090652933
 30
0.0
 10
189.1542817703598
 20
108.0662623089944
 30
0.0
 10
189.1542817703598
 20
107.6001699344343
 30
0.0
  0
LINE
  5
10C
330
1F
100
AcDbEntity
  8
0
  6
HIDDEN
 62
     7
370
     0
100
AcDbLine
 10
172.5542817704
 20
134.295936921
 30
0.0
 11
172.5542817704
 21
94.8959369258
 31
0.0
  0
LWPOLYLINE
  5
10D
330
1F
100
AcDbEntity
  8
0
  6
HIDDEN
 62
     7
370
     0
100
AcDbPolyline
 90
       29
 70
   128
 43
0.0
 10
183.3199497501
 20
120.4154023317
 10
183.4786850621
 20
120.4495487656
 10
183.6837930806
 20
120.3917794737
 10
183.9249888331
 20
120.2449912493
 10
184.1901777574
 20
120.016544667
 10
184.4660621735
 20
119.7178949923
 10
184.7388080848
 20
119.364017767
 10
184.9947388725
 20
118.9726578728
 10
185.2210210981
 20
118.563439729
 10
185.406308026
 20
118.156883242
 10
185.5413085959
 20
117.7733748518
 10
185.6192533156
 20
117.4321452704
 10
185.6362337113
 20
117.1503051739
 10
185.5913983151
 20
116.9419872016
 10
185.486995361
 20
116.8176372865
 10
185.328260049
 20
116.7834908525
 10
185.1231520306
 20
116.8412601445
 10
184.8819562781
 20
116.9880483689
 10
184.6167673538
 20
117.2164949512
 10
184.3408829377
 20
117.5151446259
 10
184.0681370264
 20
117.8690218512
 10
183.8122062387
 20
118.2603817454
 10
183.5859240131
 20
118.6695998892
 10
183.4006370852
 20
119.0761563761
 10
183.2656365152
 20
119.4596647663
 10
183.1876917956
 20
119.8008943477
 10
183.1707113998
 20
120.0827344442
 10
183.215546796
 20
120.2910524165
 10
183.3199497501
 20
120.4154023317
  0
SPLINE
  5
10E
330
1F
100
AcDbEntity
  8
0
  6
HIDDEN
 62
     7
370
     0
100
AcDbSpline
210
0.0
220
0.0
230
1.0
 70
     8
 71
     3
 72
    32
 73
    28
 74
     0
 42
0.00000001
 43
0.00000001
 12
1.0
 22
0.0
 32
0.0
 13
1.0
 23
0.0
 33
0.0
 40
0.0
 40
0.0
 40
0.0
 40
0.0
 40
0.0624999999999997
 40
0.0624999999999997
 40
0.1249999999999994
 40
0.1249999999999994
 40
0.2499999999999999
 40
0.2499999999999999
 40
0.3750000000000004
 40
0.3750000000000004
 40
0.4375000000000003
 40
0.4375000000000003
 40
0.5000000000000001
 40
0.5000000000000001
 40
0.5624999999999999
 40
0.5624999999999999
 40
0.6249999999999998
 40
0.6249999999999998
 40
0.6874999999999996
 40
0.6874999999999996
 40
0.7499999999999994
 40
0.7499999999999994
 40
0.8749999999999994
 40
0.8749999999999994
 40
0.9374999999999997
 40
0.9374999999999997
 40
1.0
 40
1.0
 40
1.0
 40
1.0
 10
188.3326053306818
 20
118.5401288287948
 30
0.0
 10
188.3808813840176
 20
118.5581039437498
 30
0.0
 10
188.4306102533081
 20
118.5880937013759
 30
0.0
 10
188.5225831824986
 20
118.6618303605022
 30
0.0
 10
188.5652505577565
 20
118.7060420022053
 30
0.0
 10
188.6775287715932
 20
118.8589501765832
 30
0.0
 10
188.7310427751189
 20
118.9869267211523
 30
0.0
 10
188.7656854821178
 20
119.2968418063152
 30
0.0
 10
188.7468500449266
 20
119.4806901971899
 30
0.0
 10
188.6313702637478
 20
119.7952306229513
 30
0.0
 10
188.5794468924601
 20
119.9035916623199
 30
0.0
 10
188.4434596798356
 20
120.1284238562391
 30
0.0
 10
188.3616285709928
 20
120.2407250883708
 30
0.0
 10
188.1742064882419
 20
120.4589569393264
 30
0.0
 10
188.0686539136601
 20
120.5645182065612
 30
0.0
 10
187.8479859093981
 20
120.7576322159282
 30
0.0
 10
187.7315073583227
 20
120.8465207872604
 30
0.0
 10
187.4994660164049
 20
121.003677389448
 30
0.0
 10
187.3812192731669
 20
121.0738976687272
 30
0.0
 10
187.1477170100302
 20
121.1964871365481
 30
0.0
 10
187.03321626311
 20
121.2486392721054
 30
0.0
 10
186.6944835644973
 20
121.3826654179297
 30
0.0
 10
186.4743355155556
 20
121.4427044944643
 30
0.0
 10
186.1587555705714
 20
121.488541728665
 30
0.0
 10
186.0554760738161
 20
121.4966889922807
 30
0.0
 10
185.8471261790707
 20
121.493426892536
 30
0.0
 10
185.7439103934414
 20
121.483761319246
 30
0.0
 10
185.6312516822379
 20
121.4495977947753
 30
0.0
  0
SPLINE
  5
10F
330
1F
100
AcDbEntity
  8
0
  6
HIDDEN
 62
     7
370
     0
100
AcDbSpline
210
0.0
220
0.0
230
1.0
 70
     8
 71
     3
 72
     8
 73
     4
 74
     0
 42
0.00000001
 43
0.00000001
 12
1.0
 22
0.0
 32
0.0
 13
1.0
 23
0.0
 33
0.0
 40
0.0
 40
0.0
 40
0.0
 40
0.0
 40
1.0
 40
1.0
 40
1.0
 40
1.0
 10
185.6312516822378
 20
121.4495977947753
 30
0.0
 10
185.4688595596377
 20
121.3430395089168
 30
0.0
 10
185.3086911363235
 20
121.2284619386757
 30
0.0
 10
185.1518019304302
 20
121.1049171769986
 30
0.0
  0
SPLINE
  5
110
330
1F
100
AcDbEntity
  8
0
  6
HIDDEN
 62
     7
370
     0
100
AcDbSpline
210
0.0
220
0.0
230
1.0
 70
     8
 71
     3
 72
    30
 73
    26
 74
     0
 42
0.00000001
 43
0.00000001
 12
1.0
 22
0.0
 32
0.0
 13
1.0
 23
0.0
 33
0.0
 40
0.0
 40
0.0
 40
0.0
 40
0.0
 40
0.0625000000000001
 40
0.0625000000000001
 40
0.1250000000000002
 40
0.1250000000000002
 40
0.25
 40
0.25
 40
0.3125000000000001
 40
0.3125000000000001
 40
0.3750000000000003
 40
0.3750000000000003
 40
0.4375000000000004
 40
0.4375000000000004
 40
0.5000000000000006
 40
0.5000000000000006
 40
0.6250000000000007
 40
0.6250000000000007
 40
0.7500000000000009
 40
0.7500000000000009
 40
0.812500000000001
 40
0.812500000000001
 40
0.875000000000001
 40
0.875000000000001
 40
1.0
 40
1.0
 40
1.0
 40
1.0
 10
185.1518019304302
 20
121.1049171769986
 30
0.0
 10
185.0708671254872
 20
121.0081045184323
 30
0.0
 10
185.0028277019652
 20
120.9074315387063
 30
0.0
 10
184.8802897385482
 20
120.6984655479889
 30
0.0
 10
184.8263719791204
 20
120.5901521657166
 30
0.0
 10
184.6840301413737
 20
120.2526614297489
 30
0.0
 10
184.6164695161767
 20
120.0141102814942
 30
0.0
 10
184.5637159981576
 20
119.6449339153621
 30
0.0
 10
184.5542025683238
 20
119.5181493137109
 30
0.0
 10
184.5543619781756
 20
119.2652562363442
 30
0.0
 10
184.5638277531195
 20
119.139487008089
 30
0.0
 10
184.6038757612455
 20
118.8894577153839
 30
0.0
 10
184.6349905838774
 20
118.7644602822712
 30
0.0
 10
184.7179018337611
 20
118.5287930613348
 30
0.0
 10
184.7697734261897
 20
118.416600540847
 30
0.0
 10
184.959617738705
 20
118.098644696072
 30
0.0
 10
185.1279456188358
 20
117.9226009262009
 30
0.0
 10
185.5075752208829
 20
117.6712962093173
 30
0.0
 10
185.7178191018236
 20
117.5952532674989
 30
0.0
 10
186.0330349382339
 20
117.5469629850795
 30
0.0
 10
186.139587171487
 20
117.5415064828104
 30
0.0
 10
186.3484469833232
 20
117.5495500389891
 30
0.0
 10
186.450912370327
 20
117.5628482282218
 30
0.0
 10
186.7522411888847
 20
117.6268177531926
 30
0.0
 10
186.9478206599995
 20
117.7024904293514
 30
0.0
 10
187.1209667912682
 20
117.802230174221
 30
0.0
  0
SPLINE
  5
111
330
1F
100
AcDbEntity
  8
0
  6
HIDDEN
 62
     7
370
     0
100
AcDbSpline
210
0.0
220
0.0
230
1.0
 70
     8
 71
     3
 72
    10
 73
     6
 74
     0
 42
0.00000001
 43
0.00000001
 12
1.0
 22
0.0
 32
0.0
 13
1.0
 23
0.0
 33
0.0
 40
0.0
 40
0.0
 40
0.0
 40
0.0
 40
0.5
 40
0.5
 40
1.0
 40
1.0
 40
1.0
 40
1.0
 10
187.1209667912682
 20
117.8022301742209
 30
0.0
 10
187.3295784766988
 20
117.9262337591293
 30
0.0
 10
187.5337799447616
 20
118.0528678063174
 30
0.0
 10
187.9378966170887
 20
118.3017030413629
 30
0.0
 10
188.1387409293145
 20
118.4242083160674
 30
0.0
 10
188.3326053306817
 20
118.5401288287948
 30
0.0
  0
LINE
  5
112
330
1F
100
AcDbEntity
  8
0
  6
HIDDEN
 62
     7
370
     0
100
AcDbLine
 10
172.5542817704
 20
98.7959369258
 30
0.0
 11
172.5542817704
 21
130.3827881554
 31
0.0
  0
SPLINE
  5
113
330
1F
100
AcDbEntity
  8
0
  6
HIDDEN
 62
     7
370
     0
100
AcDbSpline
210
0.0
220
0.0
230
1.0
 70
     8
 71
     3
 72
    18
 73
    14
 74
     0
 42
0.00000001
 43
0.00000001
 12
1.0
 22
0.0
 32
0.0
 13
1.0
 23
0.0
 33
0.0
 40
0.0
 40
0.0
 40
0.0
 40
0.0
 40
0.2499999999999993
 40
0.2499999999999993
 40
0.4999999999999987
 40
0.4999999999999987
 40
0.624999999999999
 40
0.624999999999999
 40
0.7499999999999993
 40
0.7499999999999993
 40
0.8749999999999997
 40
0.8749999999999997
 40
1.0
 40
1.0
 40
1.0
 40
1.0
 10
171.2981974527968
 20
124.4203768439524
 30
0.0
 10
171.3324984973296
 20
124.3123666581548
 30
0.0
 10
171.3703187686264
 20
124.2050895701268
 30
0.0
 10
171.4569370890872
 20
123.9935928728102
 30
0.0
 10
171.5053084238307
 20
123.8892065226406
 30
0.0
 10
171.5947114059491
 20
123.7383315999963
 30
0.0
 10
171.6273086898264
 20
123.6889865969607
 30
0.0
 10
171.7036905937713
 20
123.5943809584905
 30
0.0
 10
171.746729031112
 20
123.5493850237359
 30
0.0
 10
171.8525420639439
 20
123.478457251078
 30
0.0
 10
171.917580488675
 20
123.4545107071714
 30
0.0
 10
172.0507325604776
 20
123.4667913712422
 30
0.0
 10
172.1101017409408
 20
123.5001083292471
 30
0.0
 10
172.1593048814845
 20
123.5409432154718
 30
0.0
  0
SPLINE
  5
114
330
1F
100
AcDbEntity
  8
0
  6
HIDDEN
 62
     7
370
     0
100
AcDbSpline
210
0.0
220
0.0
230
1.0
 70
     8
 71
     3
 72
    16
 73
    12
 74
     0
 42
0.00000001
 43
0.00000001
 12
1.0
 22
0.0
 32
0.0
 13
1.0
 23
0.0
 33
0.0
 40
0.0
 40
0.0
 40
0.0
 40
0.0
 40
0.0624999999999994
 40
0.0624999999999994
 40
0.1249999999999989
 40
0.1249999999999989
 40
0.2499999999999978
 40
0.2499999999999978
 40
0.5000000000000002
 40
0.5000000000000002
 40
1.0
 40
1.0
 40
1.0
 40
1.0
 10
172.1593048814537
 20
123.5409432155012
 30
0.0
 10
172.1713747147296
 20
123.5509602644816
 30
0.0
 10
172.1856503696629
 20
123.5599193715372
 30
0.0
 10
172.2171147817873
 20
123.5677897669314
 30
0.0
 10
172.2326153065977
 20
123.5654322762891
 30
0.0
 10
172.2680542032046
 20
123.5484565841111
 30
0.0
 10
172.281646819308
 20
123.5279080929435
 30
0.0
 10
172.3146411377008
 20
123.4659657659298
 30
0.0
 10
172.3254285310195
 20
123.4195702157247
 30
0.0
 10
172.3504817782987
 20
123.2766341870302
 30
0.0
 10
172.3542817703599
 20
123.1770714701447
 30
0.0
 10
172.3542817703599
 20
123.0753040654982
 30
0.0
  0
LINE
  5
115
330
1F
100
AcDbEntity
  8
0
  6
HIDDEN
 62
     7
370
     0
100
AcDbLine
 10
172.3542817704
 20
106.1165697861
 30
0.0
 11
172.3542817704
 21
123.0753040655
 31
0.0
  0
SPLINE
  5
116
330
1F
100
AcDbEntity
  8
0
  6
HIDDEN
 62
     7
370
     0
100
AcDbSpline
210
0.0
220
0.0
230
1.0
 70
     8
 71
     3
 72
    16
 73
    12
 74
     0
 42
0.00000001
 43
0.00000001
 12
1.0
 22
0.0
 32
0.0
 13
1.0
 23
0.0
 33
0.0
 40
0.0
 40
0.0
 40
0.0
 40
0.0
 40
0.4999999999999992
 40
0.4999999999999992
 40
0.750000000000001
 40
0.750000000000001
 40
0.8750000000000018
 40
0.8750000000000018
 40
0.9375000000000009
 40
0.9375000000000009
 40
1.0
 40
1.0
 40
1.0
 40
1.0
 10
172.3542817703598
 20
106.1165697861039
 30
0.0
 10
172.3542817703598
 20
106.0145596325238
 30
0.0
 10
172.3503983452009
 20
105.9150352572706
 30
0.0
 10
172.3255830199262
 20
105.77305016126
 30
0.0
 10
172.3147435722137
 20
105.7260568606895
 30
0.0
 10
172.2815277901649
 20
105.6637641303279
 30
0.0
 10
172.2681460465361
 20
105.6434826980428
 30
0.0
 10
172.2326363966739
 20
105.6264409898423
 30
0.0
 10
172.2172194301731
 20
105.6240547348262
 30
0.0
 10
172.1855184080245
 20
105.6319906646842
 30
0.0
 10
172.1713721230737
 20
105.6409157380588
 30
0.0
 10
172.1593048814841
 20
105.6509306361307
 30
0.0
  0
SPLINE
  5
117
330
1F
100
AcDbEntity
  8
0
  6
HIDDEN
 62
     7
370
     0
100
AcDbSpline
210
0.0
220
0.0
230
1.0
 70
     8
 71
     3
 72
    18
 73
    14
 74
     0
 42
0.00000001
 43
0.00000001
 12
1.0
 22
0.0
 32
0.0
 13
1.0
 23
0.0
 33
0.0
 40
0.0
 40
0.0
 40
0.0
 40
0.0
 40
0.1249999999999996
 40
0.1249999999999996
 40
0.2499999999999992
 40
0.2499999999999992
 40
0.3749999999999988
 40
0.3749999999999988
 40
0.4999999999999984
 40
0.4999999999999984
 40
0.7499999999999992
 40
0.7499999999999992
 40
1.0
 40
1.0
 40
1.0
 40
1.0
 10
172.1593048814902
 20
105.6509306361381
 30
0.0
 10
172.1105993893481
 20
105.6913525118195
 30
0.0
 10
172.0520892810213
 20
105.7243846332873
 30
0.0
 10
171.9203601627292
 20
105.7376617852401
 30
0.0
 10
171.8556012263886
 20
105.71470819826
 30
0.0
 10
171.750390253529
 20
105.6456550013403
 30
0.0
 10
171.7071738780891
 20
105.6011873494995
 30
0.0
 10
171.6309953729772
 20
105.5080176901294
 30
0.0
 10
171.5981404115973
 20
105.4588753205686
 30
0.0
 10
171.5077721317635
 20
105.3076655856288
 30
0.0
 10
171.4583488973934
 20
105.2015108161005
 30
0.0
 10
171.3707004423452
 20
104.9879292004391
 30
0.0
 10
171.3326412701424
 20
104.8799567692038
 30
0.0
 10
171.2981974527968
 20
104.7714970076498
 30
0.0
  0
SPLINE
  5
118
330
1F
100
AcDbEntity
  8
0
  6
HIDDEN
 62
     7
370
     0
100
AcDbSpline
210
0.0
220
0.0
230
1.0
 70
     8
 71
     3
 72
     8
 73
     4
 74
     0
 42
0.00000001
 43
0.00000001
 12
1.0
 22
0.0
 32
0.0
 13
1.0
 23
0.0
 33
0.0
 40
0.0
 40
0.0
 40
0.0
 40
0.0
 40
1.0
 40
1.0
 40
1.0
 40
1.0
 10
171.2981974527962
 20
104.7714970076493
 30
0.0
 10
171.2738837489061
 20
104.6949358500992
 30
0.0
 10
171.25238710695
 20
104.6185104789661
 30
0.0
 10
171.2329614268001
 20
104.5424176081943
 30
0.0
  0
SPLINE
  5
119
330
1F
100
AcDbEntity
  8
0
  6
HIDDEN
 62
     7
370
     0
100
AcDbSpline
210
0.0
220
0.0
230
1.0
 70
     8
 71
     3
 72
     8
 73
     4
 74
     0
 42
0.00000001
 43
0.00000001
 12
1.0
 22
0.0
 32
0.0
 13
1.0
 23
0.0
 33
0.0
 40
0.0
 40
0.0
 40
0.0
 40
0.0
 40
1.0
 40
1.0
 40
1.0
 40
1.0
 10
171.2329614268001
 20
100.7708729177959
 30
0.0
 10
171.2523868536934
 20
100.7673757142086
 30
0.0
 10
171.2738834076625
 20
100.7653593965664
 30
0.0
 10
171.2981974527968
 20
100.7647485431225
 30
0.0
  0
SPLINE
  5
11A
330
1F
100
AcDbEntity
  8
0
  6
HIDDEN
 62
     7
370
     0
100
AcDbSpline
210
0.0
220
0.0
230
1.0
 70
     8
 71
     3
 72
     8
 73
     4
 74
     0
 42
0.00000001
 43
0.00000001
 12
1.0
 22
0.0
 32
0.0
 13
1.0
 23
0.0
 33
0.0
 40
0.0
 40
0.0
 40
0.0
 40
0.0
 40
1.0
 40
1.0
 40
1.0
 40
1.0
 10
172.3314307572538
 20
100.6753901520644
 30
0.0
 10
172.3503676894196
 20
100.6474357146629
 30
0.0
 10
172.3542817703599
 20
100.6273518633066
 30
0.0
 10
172.3542817703599
 20
100.6111250191412
 30
0.0
  0
LINE
  5
11B
330
1F
100
AcDbEntity
  8
0
  6
HIDDEN
 62
     7
370
     0
100
AcDbLine
 10
172.3542817704
 20
100.5061166469
 30
0.0
 11
172.3542817704
 21
100.6111250191
 31
0.0
  0
LINE
  5
11C
330
1F
100
AcDbEntity
  8
0
  6
HIDDEN
 62
     7
370
     0
100
AcDbLine
 10
172.3542817704
 20
128.5807488325
 30
0.0
 11
172.3542817704
 21
128.6857572047
 31
0.0
  0
SPLINE
  5
11D
330
1F
100
AcDbEntity
  8
0
  6
HIDDEN
 62
     7
370
     0
100
AcDbSpline
210
0.0
220
0.0
230
1.0
 70
     8
 71
     3
 72
    10
 73
     6
 74
     0
 42
0.00000001
 43
0.00000001
 12
1.0
 22
0.0
 32
0.0
 13
1.0
 23
0.0
 33
0.0
 40
0.0
 40
0.0
 40
0.0
 40
0.0
 40
0.4999999999999993
 40
0.4999999999999993
 40
1.0
 40
1.0
 40
1.0
 40
1.0
 10
172.3542817703598
 20
128.5807488324612
 30
0.0
 10
172.3542817703598
 20
128.5706226323411
 30
0.0
 10
172.3522731913143
 20
128.5588620397873
 30
0.0
 10
172.3410899634088
 20
128.530880825037
 30
0.0
 10
172.3327888297343
 20
128.5149005106993
 30
0.0
 10
172.3139424404921
 20
128.4945444286718
 30
0.0
  0
SPLINE
  5
11E
330
1F
100
AcDbEntity
  8
0
  6
HIDDEN
 62
     7
370
     0
100
AcDbSpline
210
0.0
220
0.0
230
1.0
 70
     8
 71
     3
 72
     8
 73
     4
 74
     0
 42
0.00000001
 43
0.00000001
 12
1.0
 22
0.0
 32
0.0
 13
1.0
 23
0.0
 33
0.0
 40
0.0
 40
0.0
 40
0.0
 40
0.0
 40
1.0
 40
1.0
 40
1.0
 40
1.0
 10
171.2981974527964
 20
128.4271253084797
 30
0.0
 10
171.2738834076622
 20
128.4265144550358
 30
0.0
 10
171.2523868536933
 20
128.4244981373936
 30
0.0
 10
171.2329614268001
 20
128.4210009338063
 30
0.0
  0
SPLINE
  5
11F
330
1F
100
AcDbEntity
  8
0
  6
HIDDEN
 62
     7
370
     0
100
AcDbSpline
210
0.0
220
0.0
230
1.0
 70
     8
 71
     3
 72
     8
 73
     4
 74
     0
 42
0.00000001
 43
0.00000001
 12
1.0
 22
0.0
 32
0.0
 13
1.0
 23
0.0
 33
0.0
 40
0.0
 40
0.0
 40
0.0
 40
0.0
 40
1.0
 40
1.0
 40
1.0
 40
1.0
 10
171.2329614268001
 20
124.6494562434079
 30
0.0
 10
171.25238710695
 20
124.5733633726361
 30
0.0
 10
171.2738837489061
 20
124.496938001503
 30
0.0
 10
171.2981974527962
 20
124.4203768439529
 30
0.0
  0
SPLINE
  5
120
330
1F
100
AcDbEntity
  8
0
  6
HIDDEN
 62
     7
370
     0
100
AcDbSpline
210
0.0
220
0.0
230
1.0
 70
     8
 71
     3
 72
    62
 73
    58
 74
     0
 42
0.00000001
 43
0.00000001
 12
1.0
 22
0.0
 32
0.0
 13
1.0
 23
0.0
 33
0.0
 40
-0.0312500000000001
 40
-0.0312500000000001
 40
0.0
 40
0.0
 40
0.0312499999999997
 40
0.0312499999999997
 40
0.0624999999999993
 40
0.0624999999999993
 40
0.093749999999999
 40
0.093749999999999
 40
0.1249999999999987
 40
0.1249999999999987
 40
0.187499999999998
 40
0.187499999999998
 40
0.2187499999999978
 40
0.2187499999999978
 40
0.2499999999999976
 40
0.2499999999999976
 40
0.2812499999999974
 40
0.2812499999999974
 40
0.3124999999999972
 40
0.3124999999999972
 40
0.3437499999999969
 40
0.3437499999999969
 40
0.3749999999999967
 40
0.3749999999999967
 40
0.4062499999999968
 40
0.4062499999999968
 40
0.4374999999999969
 40
0.4374999999999969
 40
0.468749999999997
 40
0.468749999999997
 40
0.4999999999999971
 40
0.4999999999999971
 40
0.5624999999999973
 40
0.5624999999999973
 40
0.5937499999999974
 40
0.5937499999999974
 40
0.6249999999999976
 40
0.6249999999999976
 40
0.6874999999999981
 40
0.6874999999999981
 40
0.7187499999999983
 40
0.7187499999999983
 40
0.7499999999999986
 40
0.7499999999999986
 40
0.7812499999999989
 40
0.7812499999999989
 40
0.8124999999999991
 40
0.8124999999999991
 40
0.8749999999999996
 40
0.8749999999999996
 40
0.9062499999999997
 40
0.9062499999999997
 40
0.9374999999999998
 40
0.9374999999999998
 40
0.9687499999999999
 40
0.9687499999999999
 40
1.0
 40
1.0
 40
1.03125
 40
1.03125
 10
186.5144402245581
 20
114.6359309929177
 30
0.0
 10
186.7941233161615
 20
114.6359309929177
 30
0.0
 10
186.931407273119
 20
114.650628350489
 30
0.0
 10
187.2011430279705
 20
114.7077822102908
 30
0.0
 10
187.335025047066
 20
114.7509891700997
 30
0.0
 10
187.588771605464
 20
114.8621259612832
 30
0.0
 10
187.7089572672066
 20
114.9297171777173
 30
0.0
 10
187.9364198587205
 20
115.0879859232258
 30
0.0
 10
188.0432350641821
 20
115.1787561289236
 30
0.0
 10
188.3314796615067
 20
115.4737726513226
 30
0.0
 10
188.487600360408
 20
115.7082820924582
 30
0.0
 10
188.6453158212502
 20
116.0808444418679
 30
0.0
 10
188.6862250503578
 20
116.2108154165146
 30
0.0
 10
188.7406019553801
 20
116.4721615790207
 30
0.0
 10
188.7541894232696
 20
116.6024393893178
 30
0.0
 10
188.7543731882573
 20
116.8620608507254
 30
0.0
 10
188.7404871520511
 20
116.9922706297473
 30
0.0
 10
188.6864000675004
 20
117.2401042012019
 30
0.0
 10
188.6463913114554
 20
117.3591704532274
 30
0.0
 10
188.5400450368731
 20
117.5880282082091
 30
0.0
 10
188.4748457619557
 20
117.6950912832883
 30
0.0
 10
188.3231383579175
 20
117.8931571165465
 30
0.0
 10
188.2353376832775
 20
117.9854969633382
 30
0.0
 10
188.0419997739141
 20
118.150875546902
 30
0.0
 10
187.9370513879025
 20
118.2238451878483
 30
0.0
 10
187.7103233779565
 20
118.3515729597627
 30
0.0
 10
187.5875516269745
 20
118.4064258242381
 30
0.0
 10
187.3348731547491
 20
118.4935130178256
 30
0.0
 10
187.2038921832484
 20
118.5265302330615
 30
0.0
 10
186.9321038119996
 20
118.5713343105668
 30
0.0
 10
186.7928702016654
 20
118.5825937095313
 30
0.0
 10
186.379686418867
 20
118.5827321491181
 30
0.0
 10
186.1016106741523
 20
118.537487138054
 30
0.0
 10
185.721541846121
 20
118.406665369059
 30
0.0
 10
185.5987736041789
 20
118.3518277594549
 30
0.0
 10
185.3720874382926
 20
118.2242147690505
 30
0.0
 10
185.2669193297472
 20
118.1511801975974
 30
0.0
 10
184.975832834017
 20
117.902187298988
 30
0.0
 10
184.8219023117889
 20
117.7026858652814
 30
0.0
 10
184.6624707090392
 20
117.3599246494451
 30
0.0
 10
184.6224695114837
 20
117.2410740401477
 30
0.0
 10
184.5683102905543
 20
116.9937705649119
 30
0.0
 10
184.5542873840049
 20
116.8636840733274
 30
0.0
 10
184.5542761601681
 20
116.6036016170064
 30
0.0
 10
184.5678171133672
 20
116.4732180899535
 30
0.0
 10
184.622035199977
 20
116.2119139145498
 30
0.0
 10
184.6629151545833
 20
116.0817339037729
 30
0.0
 10
184.8208832317591
 20
115.7082639580324
 30
0.0
 10
184.9769111891141
 20
115.4739082107509
 30
0.0
 10
185.2656583084393
 20
115.1784391680171
 30
0.0
 10
185.3728731431682
 20
115.0874382172729
 30
0.0
 10
185.5997265501181
 20
114.9296737857727
 30
0.0
 10
185.719744062358
 20
114.8621478851239
 30
0.0
 10
185.9735622698122
 20
114.7509778003224
 30
0.0
 10
186.1074293138636
 20
114.7077821725459
 30
0.0
 10
186.3770965557578
 20
114.6506391759682
 30
0.0
 10
186.5144402245581
 20
114.6359309929177
 30
0.0
 10
186.7941233161615
 20
114.6359309929177
 30
0.0
  0
ARC
  5
121
330
1F
100
AcDbEntity
  8
0
  6
HIDDEN
 62
     7
370
     0
100
AcDbCircle
 10
186.5999140787
 20
119.5963942521
 30
0.0
 40
2.091093065582559
100
AcDbArc
 50
117.5958962927
 51
133.8294798296
  0
ARC
  5
122
330
1F
100
AcDbEntity
  8
0
  6
HIDDEN
 62
     7
370
     0
100
AcDbCircle
 10
186.6900074458
 20
119.8735825608
 30
0.0
 40
2.115709494870749
100
AcDbArc
 50
281.7531134828
 51
320.9304600213
  0
LINE
  5
123
330
1F
100
AcDbEntity
  8
0
  6
HIDDEN
 62
     7
370
     0
100
AcDbLine
 10
172.3542817704
 20
100.6111250191
 30
0.0
 11
172.3542817704
 21
109.0904921588
 31
0.0
  0
LINE
  5
124
330
1F
100
AcDbEntity
  8
0
  6
HIDDEN
 62
     7
370
     0
100
AcDbLine
 10
172.3542817704
 20
120.1013816928
 30
0.0
 11
172.3542817704
 21
128.5807488325
 31
0.0
  0
CIRCLE
  5
125
330
1F
100
AcDbEntity
  8
0
  6
HIDDEN
 62
     7
370
     0
100
AcDbCircle
 10
161.0542817704
 20
114.5959369258
 30
0.0
 40
2.300000000000011
  0
LINE
  5
126
330
1F
100
AcDbEntity
  8
0
  6
HIDDEN
 62
     7
370
     0
100
AcDbLine
 10
149.5813138024
 20
124.1586302299
 30
0.0
 11
149.5813138024
 21
105.0332436217
 31
0.0
  0
LINE
  5
127
330
1F
100
AcDbEntity
  8
0
  6
HIDDEN
 62
     7
370
     0
100
AcDbLine
 10
148.5542817704
 20
104.4402864015
 30
0.0
 11
148.5542817704
 21
124.7515874501
 31
0.0
  0
LINE
  5
128
330
1F
100
AcDbEntity
  8
0
  6
HIDDEN
 62
     7
370
     0
100
AcDbLine
 10
153.0813138024
 20
123.8268770335
 30
0.0
 11
153.0813138024
 21
105.3649968181
 31
0.0
  0
LINE
  5
129
330
1F
100
AcDbEntity
  8
0
  6
HIDDEN
 62
     7
370
     0
100
AcDbLine
 10
156.4813138024
 20
123.5959369258
 30
0.0
 11
156.4813138024
 21
105.5959369258
 31
0.0
  0
LINE
  5
12A
330
1F
100
AcDbEntity
  8
0
  6
HIDDEN
 62
     7
370
     0
100
AcDbLine
 10
151.6813138024
 20
123.5959369258
 30
0.0
 11
151.6813138024
 21
105.5959369258
 31
0.0
  0
LINE
  5
12B
330
1F
100
AcDbEntity
  8
0
  6
HIDDEN
 62
     7
370
     0
100
AcDbLine
 10
152.6813138024
 20
123.5959369258
 30
0.0
 11
152.6813138024
 21
105.5959369258
 31
0.0
  0
LINE
  5
12C
330
1F
100
AcDbEntity
  8
0
  6
HIDDEN
 62
     7
370
     0
100
AcDbLine
 10
218.3416457791
 20
125.6738043382
 30
0.0
 11
220.1770926537
 21
129.5662486922
 31
0.0
  0
LINE
  5
12D
330
1F
100
AcDbEntity
  8
0
  6
HIDDEN
 62
     7
370
     0
100
AcDbLine
 10
220.1867012845
 20
129.5616467267
 30
0.0
 11
220.1770926537
 21
129.5662486922
 31
0.0
  0
SPLINE
  5
12E
330
1F
100
AcDbEntity
  8
0
  6
HIDDEN
 62
     7
370
     0
100
AcDbSpline
210
0.0
220
0.0
230
1.0
 70
     8
 71
     3
 72
    14
 73
    10
 74
     0
 42
0.00000001
 43
0.00000001
 12
1.0
 22
0.0
 32
0.0
 13
1.0
 23
0.0
 33
0.0
 40
0.0
 40
0.0
 40
0.0
 40
0.0
 40
0.2500000000000001
 40
0.2500000000000001
 40
0.5000000000000001
 40
0.5000000000000001
 40
0.7500000000000001
 40
0.7500000000000001
 40
1.0
 40
1.0
 40
1.0
 40
1.0
 10
163.0542817703598
 20
115.7317185949612
 30
0.0
 10
163.1525061168628
 20
115.5587551651576
 30
0.0
 10
163.2278209548468
 20
115.3737226107332
 30
0.0
 10
163.3287876650412
 20
114.9907103965987
 30
0.0
 10
163.3541632513313
 20
114.7959918431331
 30
0.0
 10
163.3543994765976
 20
114.3986165418675
 30
0.0
 10
163.3286964072621
 20
114.2011242073922
 30
0.0
 10
163.2283762937456
 20
113.8199523727611
 30
0.0
 10
163.152484465658
 20
113.6330805607886
 30
0.0
 10
163.0542817703644
 20
113.4601552566387
 30
0.0
  0
LINE
  5
12F
330
1F
100
AcDbEntity
  8
0
  6
HIDDEN
 62
     7
370
     0
100
AcDbLine
 10
163.5542817704
 20
123.095936897
 30
0.0
 11
163.5542817704
 21
106.0959369258
 31
0.0
  0
SPLINE
  5
130
330
1F
100
AcDbEntity
  8
0
  6
HIDDEN
 62
     7
370
     0
100
AcDbSpline
210
0.0
220
0.0
230
1.0
 70
     8
 71
     3
 72
    14
 73
    10
 74
     0
 42
0.00000001
 43
0.00000001
 12
1.0
 22
0.0
 32
0.0
 13
1.0
 23
0.0
 33
0.0
 40
0.0
 40
0.0
 40
0.0
 40
0.0
 40
0.2500000000000001
 40
0.2500000000000001
 40
0.5000000000000001
 40
0.5000000000000001
 40
0.7500000000000001
 40
0.7500000000000001
 40
1.0
 40
1.0
 40
1.0
 40
1.0
 10
163.0542817703598
 20
113.460155256641
 30
0.0
 10
163.1525061168628
 20
113.6331186864445
 30
0.0
 10
163.2278209548468
 20
113.818151240869
 30
0.0
 10
163.3287876650412
 20
114.2011634550034
 30
0.0
 10
163.3541632513313
 20
114.395882008469
 30
0.0
 10
163.3543994765976
 20
114.7932573097346
 30
0.0
 10
163.3286964072621
 20
114.99074964421
 30
0.0
 10
163.2283762937456
 20
115.371921478841
 30
0.0
 10
163.152484465658
 20
115.5587932908136
 30
0.0
 10
163.0542817703644
 20
115.7317185949635
 30
0.0
  0
LINE
  5
131
330
1F
100
AcDbEntity
  8
0
  6
HIDDEN
 62
     7
370
     0
100
AcDbLine
 10
195.6529801862
 20
94.0959369258
 30
0.0
 11
195.6529801862
 21
114.5959369258
 31
0.0
  0
SPLINE
  5
132
330
1F
100
AcDbEntity
  8
0
  6
HIDDEN
 62
     7
370
     0
100
AcDbSpline
210
0.0
220
0.0
230
1.0
 70
     8
 71
     3
 72
    10
 73
     6
 74
     0
 42
0.00000001
 43
0.00000001
 12
1.0
 22
0.0
 32
0.0
 13
1.0
 23
0.0
 33
0.0
 40
0.0
 40
0.0
 40
0.0
 40
0.0
 40
0.5
 40
0.5
 40
1.0
 40
1.0
 40
1.0
 40
1.0
 10
195.7528806086699
 20
117.7497580056662
 30
0.0
 10
195.7314699015825
 20
117.224255263659
 30
0.0
 10
195.7049683847764
 20
116.6988959270902
 30
0.0
 10
195.6655229157995
 20
115.6477953444709
 30
0.0
 10
195.6529801861655
 20
115.1220427961921
 30
0.0
 10
195.6529801861655
 20
114.5959369258011
 30
0.0
  0
SPLINE
  5
133
330
1F
100
AcDbEntity
  8
0
  6
HIDDEN
 62
     7
370
     0
100
AcDbSpline
210
0.0
220
0.0
230
1.0
 70
     8
 71
     3
 72
    10
 73
     6
 74
     0
 42
0.00000001
 43
0.00000001
 12
1.0
 22
0.0
 32
0.0
 13
1.0
 23
0.0
 33
0.0
 40
0.0
 40
0.0
 40
0.0
 40
0.0
 40
0.0912757555477547
 40
0.5675399008251337
 40
1.0
 40
1.0
 40
1.0
 40
1.0
 10
195.7528806086699
 20
134.4575052754452
 30
0.0
 10
195.7449113963493
 20
134.483046287828
 30
0.0
 10
195.695359947085
 20
134.6418567358785
 30
0.0
 10
195.6126263231388
 20
134.9219910597089
 30
0.0
 10
195.7013154813966
 20
135.1763426060386
 30
0.0
 10
195.743522479185
 20
135.2973880118617
 30
0.0
  0
SPLINE
  5
134
330
1F
100
AcDbEntity
  8
0
  6
HIDDEN
 62
     7
370
     0
100
AcDbSpline
210
0.0
220
0.0
230
1.0
 70
     8
 71
     3
 72
    60
 73
    56
 74
     0
 42
0.00000001
 43
0.00000001
 12
1.0
 22
0.0
 32
0.0
 13
1.0
 23
0.0
 33
0.0
 40
0.0
 40
0.0
 40
0.0
 40
0.0
 40
0.0624999999999999
 40
0.0624999999999999
 40
0.1249999999999999
 40
0.1249999999999999
 40
0.1874999999999998
 40
0.1874999999999998
 40
0.2187499999999998
 40
0.2187499999999998
 40
0.2499999999999997
 40
0.2499999999999997
 40
0.3125000000000001
 40
0.3125000000000001
 40
0.3750000000000003
 40
0.3750000000000003
 40
0.4062500000000004
 40
0.4062500000000004
 40
0.4375000000000004
 40
0.4375000000000004
 40
0.4687500000000004
 40
0.4687500000000004
 40
0.5000000000000004
 40
0.5000000000000004
 40
0.5312500000000004
 40
0.5312500000000004
 40
0.5625000000000003
 40
0.5625000000000003
 40
0.5937500000000003
 40
0.5937500000000003
 40
0.6250000000000003
 40
0.6250000000000003
 40
0.6562500000000002
 40
0.6562500000000002
 40
0.6875000000000002
 40
0.6875000000000002
 40
0.7187500000000002
 40
0.7187500000000002
 40
0.7500000000000001
 40
0.7500000000000001
 40
0.7812500000000001
 40
0.7812500000000001
 40
0.8125000000000001
 40
0.8125000000000001
 40
0.8437500000000001
 40
0.8437500000000001
 40
0.875
 40
0.875
 40
0.90625
 40
0.90625
 40
0.9375
 40
0.9375
 40
0.9687499999999999
 40
0.9687499999999999
 40
1.0
 40
1.0
 40
1.0
 40
1.0
 10
163.0542817703598
 20
113.460155256641
 30
0.0
 10
162.9290918687811
 20
113.2397081320254
 30
0.0
 10
162.7722245502129
 20
113.0459744032051
 30
0.0
 10
162.3951870303941
 20
112.7102847044427
 30
0.0
 10
162.1834737239731
 20
112.57630734613
 30
0.0
 10
161.7175837420244
 20
112.3791806014448
 30
0.0
 10
161.4717445109728
 20
112.3199631892229
 30
0.0
 10
161.0922634578782
 20
112.2927564533323
 30
0.0
 10
160.9645177291843
 20
112.2942497184741
 30
0.0
 10
160.7140514825161
 20
112.3177655242831
 30
0.0
 10
160.5902220997079
 20
112.3396847430873
 30
0.0
 10
160.2230024256093
 20
112.4365213079322
 30
0.0
 10
159.9922334075235
 20
112.540322429384
 30
0.0
 10
159.572344446104
 20
112.819040910312
 30
0.0
 10
159.3880860712165
 20
112.9906032018157
 30
0.0
 10
159.1573376837332
 20
113.2892505630825
 30
0.0
 10
159.0882908339441
 20
113.3957181035848
 30
0.0
 10
158.9697261701387
 20
113.6160014519778
 30
0.0
 10
158.919517801389
 20
113.7306629683792
 30
0.0
 10
158.8376859490313
 20
113.969343605156
 30
0.0
 10
158.8063350501485
 20
114.093389232034
 30
0.0
 10
158.76494067211
 20
114.3415042681424
 30
0.0
 10
158.7544348970457
 20
114.4667419706309
 30
0.0
 10
158.7541319447099
 20
114.7196210262219
 30
0.0
 10
158.7646164743265
 20
114.8475007124585
 30
0.0
 10
158.8057565517879
 20
115.095922773664
 30
0.0
 10
158.8363346723365
 20
115.2177217004323
 30
0.0
 10
158.9176173806878
 20
115.4565012299067
 30
0.0
 10
158.9686182672497
 20
115.5735427922133
 30
0.0
 10
159.0871853156127
 20
115.7943679901393
 30
0.0
 10
159.1550740688845
 20
115.899306353702
 30
0.0
 10
159.3082245066222
 20
116.0982836869314
 30
0.0
 10
159.3937806781946
 20
116.1922918121256
 30
0.0
 10
159.5764920491539
 20
116.3627844970623
 30
0.0
 10
159.6742993488357
 20
116.4402226921117
 30
0.0
 10
159.8831024607528
 20
116.579388588
 30
0.0
 10
159.9946846360406
 20
116.6411703970069
 30
0.0
 10
160.2233304355396
 20
116.7442492676078
 30
0.0
 10
160.3412852465108
 20
116.7862533028034
 30
0.0
 10
160.5846136914995
 20
116.8509894241002
 30
0.0
 10
160.7109575668425
 20
116.8736626866629
 30
0.0
 10
160.9620635478604
 20
116.897545482844
 30
0.0
 10
161.0877455415833
 20
116.8991487841107
 30
0.0
 10
161.3393676113751
 20
116.8816820453398
 30
0.0
 10
161.4662652316609
 20
116.8622461546998
 30
0.0
 10
161.7114557979221
 20
116.8036529833762
 30
0.0
 10
161.8306449549555
 20
116.7645901322196
 30
0.0
 10
162.0623299793104
 20
116.6670804100958
 30
0.0
 10
162.1755047836609
 20
116.6080450558072
 30
0.0
 10
162.3875832005966
 20
116.4742413389677
 30
0.0
 10
162.4873719792974
 20
116.3992461228229
 30
0.0
 10
162.6746301662864
 20
116.2330510583021
 30
0.0
 10
162.7625252032297
 20
116.1411568595606
 30
0.0
 10
162.9207462788616
 20
115.9457926618462
 30
0.0
 10
162.9916842351533
 20
115.8419467081738
 30
0.0
 10
163.0542817703598
 20
115.7317185949612
 30
0.0
  0
SPLINE
  5
135
330
1F
100
AcDbEntity
  8
0
  6
HIDDEN
 62
     7
370
     0
100
AcDbSpline
210
0.0
220
0.0
230
1.0
 70
     8
 71
     3
 72
    60
 73
    56
 74
     0
 42
0.00000001
 43
0.00000001
 12
1.0
 22
0.0
 32
0.0
 13
1.0
 23
0.0
 33
0.0
 40
0.0
 40
0.0
 40
0.0
 40
0.0
 40
0.0624999999999999
 40
0.0624999999999999
 40
0.1249999999999999
 40
0.1249999999999999
 40
0.1874999999999998
 40
0.1874999999999998
 40
0.2187499999999998
 40
0.2187499999999998
 40
0.2499999999999997
 40
0.2499999999999997
 40
0.3125000000000001
 40
0.3125000000000001
 40
0.3750000000000003
 40
0.3750000000000003
 40
0.4062500000000004
 40
0.4062500000000004
 40
0.4375000000000004
 40
0.4375000000000004
 40
0.4687500000000004
 40
0.4687500000000004
 40
0.5000000000000004
 40
0.5000000000000004
 40
0.5312500000000004
 40
0.5312500000000004
 40
0.5625000000000003
 40
0.5625000000000003
 40
0.5937500000000003
 40
0.5937500000000003
 40
0.6250000000000003
 40
0.6250000000000003
 40
0.6562500000000002
 40
0.6562500000000002
 40
0.6875000000000002
 40
0.6875000000000002
 40
0.7187500000000002
 40
0.7187500000000002
 40
0.7500000000000001
 40
0.7500000000000001
 40
0.7812500000000001
 40
0.7812500000000001
 40
0.8125000000000001
 40
0.8125000000000001
 40
0.8437500000000001
 40
0.8437500000000001
 40
0.875
 40
0.875
 40
0.90625
 40
0.90625
 40
0.9375
 40
0.9375
 40
0.9687499999999999
 40
0.9687499999999999
 40
1.0
 40
1.0
 40
1.0
 40
1.0
 10
163.0542817703598
 20
115.7317185949612
 30
0.0
 10
162.9290918687811
 20
115.9521657195767
 30
0.0
 10
162.7722245502129
 20
116.1458994483971
 30
0.0
 10
162.3951870303941
 20
116.4815891471595
 30
0.0
 10
162.1834737239731
 20
116.6155665054722
 30
0.0
 10
161.7175837420244
 20
116.8126932501574
 30
0.0
 10
161.4717445109728
 20
116.8719106623792
 30
0.0
 10
161.0922634578782
 20
116.8991173982699
 30
0.0
 10
160.9645177291843
 20
116.897624133128
 30
0.0
 10
160.7140514825161
 20
116.8741083273191
 30
0.0
 10
160.5902220997079
 20
116.8521891085149
 30
0.0
 10
160.2230024256093
 20
116.75535254367
 30
0.0
 10
159.9922334075235
 20
116.6515514222182
 30
0.0
 10
159.572344446104
 20
116.3728329412902
 30
0.0
 10
159.3880860712165
 20
116.2012706497864
 30
0.0
 10
159.1573376837332
 20
115.9026232885196
 30
0.0
 10
159.0882908339441
 20
115.7961557480174
 30
0.0
 10
158.9697261701387
 20
115.5758723996244
 30
0.0
 10
158.919517801389
 20
115.461210883223
 30
0.0
 10
158.8376859490313
 20
115.2225302464462
 30
0.0
 10
158.8063350501485
 20
115.0984846195681
 30
0.0
 10
158.76494067211
 20
114.8503695834598
 30
0.0
 10
158.7544348970457
 20
114.7251318809713
 30
0.0
 10
158.7541319447099
 20
114.4722528253803
 30
0.0
 10
158.7646164743265
 20
114.3443731391437
 30
0.0
 10
158.8057565517879
 20
114.0959510779382
 30
0.0
 10
158.8363346723365
 20
113.9741521511698
 30
0.0
 10
158.9176173806878
 20
113.7353726216955
 30
0.0
 10
158.9686182672497
 20
113.6183310593888
 30
0.0
 10
159.0871853156127
 20
113.3975058614629
 30
0.0
 10
159.1550740688845
 20
113.2925674979002
 30
0.0
 10
159.3082245066222
 20
113.0935901646708
 30
0.0
 10
159.3937806781946
 20
112.9995820394766
 30
0.0
 10
159.5764920491539
 20
112.8290893545398
 30
0.0
 10
159.6742993488357
 20
112.7516511594905
 30
0.0
 10
159.8831024607528
 20
112.6124852636022
 30
0.0
 10
159.9946846360406
 20
112.5507034545952
 30
0.0
 10
160.2233304355396
 20
112.4476245839944
 30
0.0
 10
160.3412852465108
 20
112.4056205487988
 30
0.0
 10
160.5846136914995
 20
112.340884427502
 30
0.0
 10
160.7109575668425
 20
112.3182111649393
 30
0.0
 10
160.9620635478604
 20
112.2943283687582
 30
0.0
 10
161.0877455415833
 20
112.2927250674915
 30
0.0
 10
161.3393676113751
 20
112.3101918062624
 30
0.0
 10
161.4662652316609
 20
112.3296276969023
 30
0.0
 10
161.7114557979221
 20
112.388220868226
 30
0.0
 10
161.8306449549555
 20
112.4272837193826
 30
0.0
 10
162.0623299793104
 20
112.5247934415064
 30
0.0
 10
162.1755047836609
 20
112.583828795795
 30
0.0
 10
162.3875832005966
 20
112.7176325126345
 30
0.0
 10
162.4873719792974
 20
112.7926277287793
 30
0.0
 10
162.6746301662864
 20
112.9588227933001
 30
0.0
 10
162.7625252032297
 20
113.0507169920416
 30
0.0
 10
162.9207462788616
 20
113.2460811897559
 30
0.0
 10
162.9916842351533
 20
113.3499271434284
 30
0.0
 10
163.0542817703598
 20
113.460155256641
 30
0.0
  0
ELLIPSE
  5
136
330
1F
100
AcDbEntity
  8
0
  6
HIDDEN
 62
     7
370
     0
100
AcDbEllipse
 10
217.4158844989
 20
114.5959369258
 30
0.0
 11
14.5930244222354
 21
20.49991501973238
 31
0.0
210
0.0
220
0.0
230
1.0
 40
0.0040448756
 41
1.573675695089376
 42
3.144472021887708
  0
LINE
  5
137
330
1F
100
AcDbEntity
  8
0
  6
HIDDEN
 62
     7
370
     0
100
AcDbLine
 10
164.4542817704
 20
120.8459369258
 30
0.0
 11
164.4542817704
 21
108.3459369258
 31
0.0
  0
LINE
  5
138
330
1F
100
AcDbEntity
  8
0
  6
HIDDEN
 62
     7
370
     0
100
AcDbLine
 10
163.5542817704
 20
107.4459369258
 30
0.0
 11
163.5542817704
 21
121.7459369258
 31
0.0
  0
LINE
  5
139
330
1F
100
AcDbEntity
  8
0
  6
HIDDEN
 62
     7
370
     0
100
AcDbLine
 10
189.5542817704
 20
120.8459369258
 30
0.0
 11
189.5542817704
 21
108.3459369258
 31
0.0
  0
SPLINE
  5
13A
330
1F
100
AcDbEntity
  8
0
  6
HIDDEN
 62
     7
370
     0
100
AcDbSpline
210
0.0
220
0.0
230
1.0
 70
     8
 71
     3
 72
    62
 73
    58
 74
     0
 42
0.00000001
 43
0.00000001
 12
1.0
 22
0.0
 32
0.0
 13
1.0
 23
0.0
 33
0.0
 40
-0.0312500000000002
 40
-0.0312500000000002
 40
0.0
 40
0.0
 40
0.03125
 40
0.03125
 40
0.0625000000000001
 40
0.0625000000000001
 40
0.0937500000000001
 40
0.0937500000000001
 40
0.1250000000000002
 40
0.1250000000000002
 40
0.1875000000000001
 40
0.1875000000000001
 40
0.21875
 40
0.21875
 40
0.25
 40
0.25
 40
0.28125
 40
0.28125
 40
0.3125
 40
0.3125
 40
0.34375
 40
0.34375
 40
0.3749999999999999
 40
0.3749999999999999
 40
0.4062499999999998
 40
0.4062499999999998
 40
0.4374999999999998
 40
0.4374999999999998
 40
0.4687499999999997
 40
0.4687499999999997
 40
0.4999999999999997
 40
0.4999999999999997
 40
0.5624999999999992
 40
0.5624999999999992
 40
0.5937499999999989
 40
0.5937499999999989
 40
0.6249999999999987
 40
0.6249999999999987
 40
0.6874999999999984
 40
0.6874999999999984
 40
0.7187499999999984
 40
0.7187499999999984
 40
0.7499999999999984
 40
0.7499999999999984
 40
0.7812499999999986
 40
0.7812499999999986
 40
0.8124999999999986
 40
0.8124999999999986
 40
0.8749999999999989
 40
0.8749999999999989
 40
0.9062499999999992
 40
0.9062499999999992
 40
0.9374999999999994
 40
0.9374999999999994
 40
0.9687499999999998
 40
0.9687499999999998
 40
1.0
 40
1.0
 40
1.03125
 40
1.03125
 10
186.7941233161615
 20
110.6092338513836
 30
0.0
 10
186.5144402245581
 20
110.6092338513836
 30
0.0
 10
186.3771562676006
 20
110.6205222412282
 30
0.0
 10
186.1074205127491
 20
110.6647941366682
 30
0.0
 10
185.9735384936536
 20
110.6983687237485
 30
0.0
 10
185.7197919352556
 20
110.7859132021316
 30
0.0
 10
185.599606273513
 20
110.839614077817
 30
0.0
 10
185.3721436819991
 20
110.9675908265329
 30
0.0
 10
185.2653284765375
 20
111.0419797563641
 30
0.0
 10
184.9770838792129
 20
111.2887665718522
 30
0.0
 10
184.8209631803116
 20
111.4913757584097
 30
0.0
 10
184.6632477194694
 20
111.8301945888216
 30
0.0
 10
184.6223384903618
 20
111.9510161191179
 30
0.0
 10
184.5679615853395
 20
112.2000808997471
 30
0.0
 10
184.55437411745
 20
112.3272088225705
 30
0.0
 10
184.5541903524623
 20
112.5867880478943
 30
0.0
 10
184.5680763886685
 20
112.7202157999474
 30
0.0
 10
184.6221634732192
 20
112.9802654545568
 30
0.0
 10
184.6621722292641
 20
113.1082879753327
 30
0.0
 10
184.7685185038465
 20
113.3599037364643
 30
0.0
 10
184.8337177787639
 20
113.480511289733
 30
0.0
 10
184.9854251828022
 20
113.7080662003248
 30
0.0
 10
185.0732258574421
 20
113.8165841790869
 30
0.0
 10
185.2665637668055
 20
114.0142992089778
 30
0.0
 10
185.3715121528171
 20
114.1033535174186
 30
0.0
 10
185.5982401627631
 20
114.2613002914367
 30
0.0
 10
185.7210119137451
 20
114.3303362596994
 30
0.0
 10
185.9736903859705
 20
114.4408968746077
 30
0.0
 10
186.1046713574712
 20
114.4833836885333
 30
0.0
 10
186.37645972872
 20
114.5412217713327
 30
0.0
 10
186.5156933390542
 20
114.5558827532247
 30
0.0
 10
186.9288771218526
 20
114.5560625080631
 30
0.0
 10
187.2069528665673
 20
114.4967293328492
 30
0.0
 10
187.5870216945986
 20
114.3306375936156
 30
0.0
 10
187.7097899365407
 20
114.261619283258
 30
0.0
 10
187.936476102427
 20
114.1038066473028
 30
0.0
 10
188.0416442109724
 20
114.0146633731737
 30
0.0
 10
188.3327307067026
 20
113.7169850998303
 30
0.0
 10
188.4866612289307
 20
113.4859826272846
 30
0.0
 10
188.6460928316804
 20
113.1091074668665
 30
0.0
 10
188.6860940292359
 20
112.9813036971306
 30
0.0
 10
188.7402532501654
 20
112.7217692749864
 30
0.0
 10
188.7542761567148
 20
112.5884335719829
 30
0.0
 10
188.7542873805514
 20
112.328348536003
 30
0.0
 10
188.7407464273524
 20
112.2011041851669
 30
0.0
 10
188.6865283407426
 20
111.9520467076925
 30
0.0
 10
188.6456483861363
 20
111.8310115926026
 30
0.0
 10
188.4876803089604
 20
111.4913431201124
 30
0.0
 10
188.3316523516056
 20
111.2888765450709
 30
0.0
 10
188.0429052322803
 20
111.0417163272136
 30
0.0
 10
187.9356903975514
 20
110.9671455403229
 30
0.0
 10
187.7088369906015
 20
110.8395814089154
 30
0.0
 10
187.5888194783616
 20
110.7859305021611
 30
0.0
 10
187.3350012709074
 20
110.6983597373502
 30
0.0
 10
187.201134226856
 20
110.664794123286
 30
0.0
 10
186.9314669849618
 20
110.6205306108897
 30
0.0
 10
186.7941233161615
 20
110.6092338513836
 30
0.0
 10
186.5144402245581
 20
110.6092338513836
 30
0.0
  0
CIRCLE
  5
13B
330
1F
100
AcDbEntity
  8
0
  6
HIDDEN
 62
     7
370
     0
100
AcDbCircle
 10
204.2150950133
 20
123.387994261
 30
0.0
 40
3.479343842004054
  0
LINE
  5
13C
330
1F
100
AcDbEntity
  8
0
  6
HIDDEN
 62
     7
370
     0
100
AcDbLine
 10
220.1200091052
 20
118.3671627257
 30
0.0
 11
217.6026118659
 21
115.0337672706
 31
0.0
  0
ARC
  5
13D
330
1F
100
AcDbEntity
  8
0
  6
HIDDEN
 62
     7
370
     0
100
AcDbCircle
 10
215.1296530069
 20
124.5501525203
 30
0.0
 40
2.098829526049221
100
AcDbArc
 50
155.0103914852
 51
333.8062826237
  0
LINE
  5
13E
330
1F
100
AcDbEntity
  8
0
  6
HIDDEN
 62
     7
370
     0
100
AcDbLine
 10
217.0129469633
 20
123.6237135028
 30
0.0
 11
217.2079794869
 21
124.0373202686
 31
0.0
  0
LINE
  5
13F
330
1F
100
AcDbEntity
  8
0
  6
HIDDEN
 62
     7
370
     0
100
AcDbLine
 10
217.6028333535
 20
124.874689481
 30
0.0
 11
219.2133402223
 21
128.2901020737
 31
0.0
  0
LINE
  5
140
330
1F
100
AcDbEntity
  8
0
  6
HIDDEN
 62
     7
370
     0
100
AcDbLine
 10
219.2133402223
 20
128.2901020737
 30
0.0
 11
220.1770926537
 21
129.5662486922
 31
0.0
  0
LINE
  5
141
330
1F
100
AcDbEntity
  8
0
  6
HIDDEN
 62
     7
370
     0
100
AcDbLine
 10
212.0333864171
 20
129.6115658983
 30
0.0
 11
212.0499513905
 21
129.6335003019
 31
0.0
  0
LINE
  5
142
330
1F
100
AcDbEntity
  8
0
  6
HIDDEN
 62
     7
370
     0
100
AcDbLine
 10
213.7202961203
 20
126.4822972955
 30
0.0
 11
214.6840485516
 21
127.758443914
 31
0.0
  0
ELLIPSE
  5
143
330
1F
100
AcDbEntity
  8
0
  6
HIDDEN
 62
     7
370
     0
100
AcDbEllipse
 10
210.6523363439
 20
129.7552643069
 30
0.0
 11
-1.334428566009279
 21
2.209358540186116
 31
0.0
210
0.0
220
0.0
230
1.0
 40
0.2605793844
 41
5.303806342098982
 42
6.387077430388273
  0
SPLINE
  5
144
330
1F
100
AcDbEntity
  8
0
  6
HIDDEN
 62
     7
370
     0
100
AcDbSpline
210
0.0
220
0.0
230
1.0
 70
     8
 71
     3
 72
    36
 73
    32
 74
     0
 42
0.00000001
 43
0.00000001
 12
1.0
 22
0.0
 32
0.0
 13
1.0
 23
0.0
 33
0.0
 40
0.0
 40
0.0
 40
0.0
 40
0.0
 40
0.1249999999999993
 40
0.1249999999999993
 40
0.2499999999999986
 40
0.2499999999999986
 40
0.3124999999999982
 40
0.3124999999999982
 40
0.3749999999999977
 40
0.3749999999999977
 40
0.4062499999999979
 40
0.4062499999999979
 40
0.4374999999999982
 40
0.4374999999999982
 40
0.4687499999999985
 40
0.4687499999999985
 40
0.4999999999999988
 40
0.4999999999999988
 40
0.531249999999999
 40
0.531249999999999
 40
0.5624999999999993
 40
0.5624999999999993
 40
0.6249999999999994
 40
0.6249999999999994
 40
0.6874999999999996
 40
0.6874999999999996
 40
0.7499999999999996
 40
0.7499999999999996
 40
0.8749999999999998
 40
0.8749999999999998
 40
1.0
 40
1.0
 40
1.0
 40
1.0
 10
204.0302123296894
 20
126.4845489955146
 30
0.0
 10
204.0853463427287
 20
126.5575543462852
 30
0.0
 10
204.2089422289711
 20
126.6185097293899
 30
0.0
 10
204.533881111323
 20
126.714128496169
 30
0.0
 10
204.7382529578084
 20
126.7485979069892
 30
0.0
 10
205.0941785700637
 20
126.7579796994353
 30
0.0
 10
205.2214722499525
 20
126.7540410370875
 30
0.0
 10
205.4973575691651
 20
126.723852371595
 30
0.0
 10
205.6471661690949
 20
126.6975208827329
 30
0.0
 10
205.8886075370809
 20
126.62952796357
 30
0.0
 10
205.9720053361357
 20
126.6020739547791
 30
0.0
 10
206.1466890523451
 20
126.5332860505458
 30
0.0
 10
206.2389848288352
 20
126.4914725789761
 30
0.0
 10
206.4293132751361
 20
126.3888850635474
 30
0.0
 10
206.5288830076666
 20
126.3271356167525
 30
0.0
 10
206.7268447792813
 20
126.1812818866655
 30
0.0
 10
206.8267187068284
 20
126.095714541649
 30
0.0
 10
207.0122068328931
 20
125.907819839013
 30
0.0
 10
207.0973505154194
 20
125.8059876355308
 30
0.0
 10
207.2439750730134
 20
125.602707170324
 30
0.0
 10
207.3059735085405
 20
125.5012495350514
 30
0.0
 10
207.4640115074934
 20
125.2062348184054
 30
0.0
 10
207.5323536722682
 20
125.0249585328703
 30
0.0
 10
207.6338674759481
 20
124.6852665758075
 30
0.0
 10
207.6656886832143
 20
124.5282494908781
 30
0.0
 10
207.707942824418
 20
124.2374026762777
 30
0.0
 10
207.7183454398295
 20
124.1025032014605
 30
0.0
 10
207.7293390128856
 20
123.7234071639698
 30
0.0
 10
207.7098141359865
 20
123.5026278126475
 30
0.0
 10
207.6455645440248
 20
123.1445060227225
 30
0.0
 10
207.6011601454282
 20
123.0045284531161
 30
0.0
 10
207.5463782109566
 20
122.9319893049293
 30
0.0
  0
ELLIPSE
  5
145
330
1F
100
AcDbEntity
  8
0
  6
HIDDEN
 62
     7
370
     0
100
AcDbEllipse
 10
210.6523363439
 20
129.7552643069
 30
0.0
 11
2.137853599931617
 21
-1.378829910960434
 31
0.0
210
0.0
220
0.0
230
1.0
 40
0.2825155173
 41
6.262243946044725
 42
7.345515034334059
  0
SPLINE
  5
146
330
1F
100
AcDbEntity
  8
0
  6
HIDDEN
 62
     7
370
     0
100
AcDbSpline
210
0.0
220
0.0
230
1.0
 70
     8
 71
     3
 72
    14
 73
    10
 74
     0
 42
0.00000001
 43
0.00000001
 12
1.0
 22
0.0
 32
0.0
 13
1.0
 23
0.0
 33
0.0
 40
0.0
 40
0.0
 40
0.0
 40
0.0
 40
0.2499999999999986
 40
0.2499999999999986
 40
0.4999999999999971
 40
0.4999999999999971
 40
0.7499999999999986
 40
0.7499999999999986
 40
1.0
 40
1.0
 40
1.0
 40
1.0
 10
210.3862705568602
 20
131.2757301068005
 30
0.0
 10
210.4181382798247
 20
131.0680629630672
 30
0.0
 10
210.4819767473895
 20
130.8715095346291
 30
0.0
 10
210.6712913043131
 20
130.498574105275
 30
0.0
 10
210.7935760775777
 20
130.3295043255332
 30
0.0
 10
211.0873218389054
 20
130.0322608056312
 30
0.0
 10
211.2562357820265
 20
129.9071937162502
 30
0.0
 10
211.625444978088
 20
129.713901422165
 30
0.0
 10
211.8258036180295
 20
129.6458553560124
 30
0.0
 10
212.0333864170971
 20
129.6115658982868
 30
0.0
  0
LINE
  5
147
330
1F
100
AcDbEntity
  8
0
  6
HIDDEN
 62
     7
370
     0
100
AcDbLine
 10
210.3862705569
 20
131.2757301068
 30
0.0
 11
210.4028355303
 21
131.2976645104
 31
0.0
  0
LINE
  5
148
330
1F
100
AcDbEntity
  8
0
  6
HIDDEN
 62
     7
370
     0
100
AcDbLine
 10
205.3929246806
 20
135.8345007014
 30
0.0
 11
206.3566771119
 21
137.1106473199
 31
0.0
  0
LINE
  5
149
330
1F
100
AcDbEntity
  8
0
  6
HIDDEN
 62
     7
370
     0
100
AcDbLine
 10
221.0677486013
 20
129.1396772002
 30
0.0
 11
220.10399617
 21
127.8635305816
 31
0.0
  0
ELLIPSE
  5
14A
330
1F
100
AcDbEntity
  8
0
  6
HIDDEN
 62
     7
370
     0
100
AcDbEllipse
 10
202.0375897631
 20
120.5559696249
 30
0.0
 11
2.570105550204431
 21
3.403188827857562
 31
0.0
210
0.0
220
0.0
230
1.0
 40
0.9848432766
 41
0.0
 42
6.283185307179586
  0
LINE
  5
14B
330
1F
100
AcDbEntity
  8
0
  6
HIDDEN
 62
     7
370
     0
100
AcDbLine
 10
203.6370494565
 20
125.9639448914
 30
0.0
 11
204.0302123297
 21
126.4845489955
 31
0.0
  0
ELLIPSE
  5
14C
330
1F
100
AcDbEntity
  8
0
  6
HIDDEN
 62
     7
370
     0
100
AcDbEllipse
 10
203.287619732
 20
122.2111888139
 30
0.0
 11
3.167078026784197
 21
-2.762841112032547
 31
0.0
210
0.0
220
0.0
230
1.0
 40
0.8543839535
 41
0.8476007917787198
 42
2.122724633017102
  0
LINE
  5
14D
330
1F
100
AcDbEntity
  8
0
  6
HIDDEN
 62
     7
370
     0
100
AcDbLine
 10
207.546378211
 20
122.9319893049
 30
0.0
 11
207.1532153378
 21
122.4113852008
 31
0.0
  0
CIRCLE
  5
14E
330
1F
100
AcDbEntity
  8
0
  6
HIDDEN
 62
     7
370
     0
100
AcDbCircle
 10
204.1811744274
 20
123.3320586184
 30
0.0
 40
4.174884188578913
  0
LINE
  5
14F
330
1F
100
AcDbEntity
  8
0
  6
HIDDEN
 62
     7
370
     0
100
AcDbLine
 10
212.7815642739
 20
128.3640895491
 30
0.0
 11
212.1855059432
 21
127.5748227224
 31
0.0
  0
LINE
  5
150
330
1F
100
AcDbEntity
  8
0
  6
HIDDEN
 62
     7
370
     0
100
AcDbLine
 10
211.3256143713
 20
133.7334400154
 30
0.0
 11
208.6693400619
 21
131.127382413
 31
0.0
  0
LINE
  5
151
330
1F
100
AcDbEntity
  8
0
  6
HIDDEN
 62
     7
370
     0
100
AcDbLine
 10
211.0734867325
 20
133.3995868148
 30
0.0
 11
211.3256143713
 21
133.7334400154
 31
0.0
  0
LINE
  5
152
330
1F
100
AcDbEntity
  8
0
  6
HIDDEN
 62
     7
370
     0
100
AcDbLine
 10
206.4480326057
 20
128.6001527184
 30
0.0
 11
203.6370494565
 21
125.9639448914
 31
0.0
  0
LINE
  5
153
330
1F
100
AcDbEntity
  8
0
  6
HIDDEN
 62
     7
370
     0
100
AcDbLine
 10
208.6693400619
 20
131.127382413
 30
0.0
 11
209.2653983926
 21
131.9166492397
 31
0.0
  0
SPLINE
  5
154
330
1F
100
AcDbEntity
  8
0
  6
HIDDEN
 62
     7
370
     0
100
AcDbSpline
210
0.0
220
0.0
230
1.0
 70
     8
 71
     3
 72
     8
 73
     4
 74
     0
 42
0.00000001
 43
0.00000001
 12
1.0
 22
0.0
 32
0.0
 13
1.0
 23
0.0
 33
0.0
 40
0.0
 40
0.0
 40
0.0
 40
0.0
 40
1.0
 40
1.0
 40
1.0
 40
1.0
 10
171.2329614268002
 20
128.4210009338063
 30
0.0
 10
171.1678562651861
 20
128.4092799041476
 30
0.0
 10
171.1099689356261
 20
128.3807757582849
 30
0.0
 10
171.0592417924201
 20
128.3350214569611
 30
0.0
  0
LINE
  5
155
330
1F
100
AcDbEntity
  8
0
  6
HIDDEN
 62
     7
370
     0
100
AcDbLine
 10
150.0542817704
 20
128.0934673116
 30
0.0
 11
150.0542817704
 21
124.2535478455
 31
0.0
  0
LINE
  5
156
330
1F
100
AcDbEntity
  8
0
  6
HIDDEN
 62
     7
370
     0
100
AcDbLine
 10
148.5542817704
 20
127.2274419079
 30
0.0
 11
148.5542817704
 21
123.8205351436
 31
0.0
  0
LINE
  5
157
330
1F
100
AcDbEntity
  8
0
  6
HIDDEN
 62
     7
370
     0
100
AcDbLine
 10
170.8542817704
 20
128.6160357104
 30
0.0
 11
170.8542817704
 21
128.5161733141
 31
0.0
  0
SPLINE
  5
158
330
1F
100
AcDbEntity
  8
0
  6
HIDDEN
 62
     7
370
     0
100
AcDbSpline
210
0.0
220
0.0
230
1.0
 70
     8
 71
     3
 72
    24
 73
    20
 74
     0
 42
0.00000001
 43
0.00000001
 12
1.0
 22
0.0
 32
0.0
 13
1.0
 23
0.0
 33
0.0
 40
0.0
 40
0.0
 40
0.0
 40
0.0
 40
0.2500000000000088
 40
0.2500000000000088
 40
0.375000000000012
 40
0.375000000000012
 40
0.4375000000000139
 40
0.4375000000000139
 40
0.5000000000000158
 40
0.5000000000000158
 40
0.5312500000000161
 40
0.5312500000000161
 40
0.5625000000000164
 40
0.5625000000000164
 40
0.6250000000000141
 40
0.6250000000000141
 40
0.7500000000000095
 40
0.7500000000000095
 40
1.0
 40
1.0
 40
1.0
 40
1.0
 10
171.0592417924202
 20
128.3350214569611
 30
0.0
 10
171.0434752041218
 20
128.3208004859728
 30
0.0
 10
171.0268636711672
 20
128.306570195638
 30
0.0
 10
170.9983373232092
 20
128.2877731404165
 30
0.0
 10
170.9882518894192
 20
128.2818847200753
 30
0.0
 10
170.9707691188843
 20
128.2753473252729
 30
0.0
 10
170.9645614624388
 20
128.2735361112717
 30
0.0
 10
170.9502899621936
 20
128.2719303087652
 30
0.0
 10
170.9427198916905
 20
128.2713775313791
 30
0.0
 10
170.9253235622552
 20
128.2785762760919
 30
0.0
 10
170.9168642892951
 20
128.2836680248396
 30
0.0
 10
170.9008033247476
 20
128.3014829573188
 30
0.0
 10
170.8959700889013
 20
128.3100053721811
 30
0.0
 10
170.884544169166
 20
128.3319018088299
 30
0.0
 10
170.8805228132836
 20
128.3436423316358
 30
0.0
 10
170.8697623182525
 20
128.3776925955891
 30
0.0
 10
170.8658880091916
 20
128.3972675846178
 30
0.0
 10
170.8567151370644
 20
128.453115893299
 30
0.0
 10
170.8546827663497
 20
128.4858936543279
 30
0.0
 10
170.8542817703598
 20
128.5161733141158
 30
0.0
  0
LINE
  5
159
330
1F
100
AcDbEntity
  8
0
  6
HIDDEN
 62
     7
370
     0
100
AcDbLine
 10
170.8542817704
 20
125.5699749181
 30
0.0
 11
170.8542817704
 21
124.5148320449
 31
0.0
  0
SPLINE
  5
15A
330
1F
100
AcDbEntity
  8
0
  6
HIDDEN
 62
     7
370
     0
100
AcDbSpline
210
0.0
220
0.0
230
1.0
 70
     8
 71
     3
 72
    16
 73
    12
 74
     0
 42
0.00000001
 43
0.00000001
 12
1.0
 22
0.0
 32
0.0
 13
1.0
 23
0.0
 33
0.0
 40
0.0
 40
0.0
 40
0.0
 40
0.0
 40
0.2499999999999998
 40
0.2499999999999998
 40
0.3749999999999998
 40
0.3749999999999998
 40
0.4999999999999999
 40
0.4999999999999999
 40
0.7499999999999999
 40
0.7499999999999999
 40
1.0
 40
1.0
 40
1.0
 40
1.0
 10
170.8542817703596
 20
128.516173314116
 30
0.0
 10
170.7737444384604
 20
128.4361046279636
 30
0.0
 10
170.713707094433
 20
128.3122401364733
 30
0.0
 10
170.6529693872794
 20
128.0615593125412
 30
0.0
 10
170.6376470121665
 20
127.9671207082317
 30
0.0
 10
170.6170642028623
 20
127.755809640613
 30
0.0
 10
170.6118646058366
 20
127.6385201858594
 30
0.0
 10
170.6118109526565
 20
127.2604845141042
 30
0.0
 10
170.6320084961342
 20
126.9717073603601
 30
0.0
 10
170.7126865844922
 20
126.3218674972213
 30
0.0
 10
170.7737327490996
 20
125.9590385633285
 30
0.0
 10
170.8542817703577
 20
125.5699749180569
 30
0.0
  0
SPLINE
  5
15B
330
1F
100
AcDbEntity
  8
0
  6
HIDDEN
 62
     7
370
     0
100
AcDbSpline
210
0.0
220
0.0
230
1.0
 70
     8
 71
     3
 72
     8
 73
     4
 74
     0
 42
0.00000001
 43
0.00000001
 12
1.0
 22
0.0
 32
0.0
 13
1.0
 23
0.0
 33
0.0
 40
0.0
 40
0.0
 40
0.0
 40
0.0
 40
1.0
 40
1.0
 40
1.0
 40
1.0
 10
171.0592417924174
 20
100.8568523946435
 30
0.0
 10
171.1099689356241
 20
100.8110980933183
 30
0.0
 10
171.167856265185
 20
100.7825939474547
 30
0.0
 10
171.2329614268002
 20
100.7708729177959
 30
0.0
  0
LINE
  5
15C
330
1F
100
AcDbEntity
  8
0
  6
HIDDEN
 62
     7
370
     0
100
AcDbLine
 10
170.8542817704
 20
100.6757005375
 30
0.0
 11
170.8542817704
 21
100.5758381412
 31
0.0
  0
SPLINE
  5
15D
330
1F
100
AcDbEntity
  8
0
  6
HIDDEN
 62
     7
370
     0
100
AcDbSpline
210
0.0
220
0.0
230
1.0
 70
     8
 71
     3
 72
    24
 73
    20
 74
     0
 42
0.00000001
 43
0.00000001
 12
1.0
 22
0.0
 32
0.0
 13
1.0
 23
0.0
 33
0.0
 40
0.0
 40
0.0
 40
0.0
 40
0.0
 40
0.249999999999986
 40
0.249999999999986
 40
0.3749999999999789
 40
0.3749999999999789
 40
0.4374999999999762
 40
0.4374999999999762
 40
0.4687499999999772
 40
0.4687499999999772
 40
0.4999999999999781
 40
0.4999999999999781
 40
0.5624999999999806
 40
0.5624999999999806
 40
0.6249999999999831
 40
0.6249999999999831
 40
0.7499999999999885
 40
0.7499999999999885
 40
1.0
 40
1.0
 40
1.0
 40
1.0
 10
170.8542817703596
 20
100.6757005374859
 30
0.0
 10
170.8546846809951
 20
100.7061247743241
 30
0.0
 10
170.8567286603355
 20
100.7389828748786
 30
0.0
 10
170.8659659031608
 20
100.7950082420324
 30
0.0
 10
170.8698529661412
 20
100.8146192952179
 30
0.0
 10
170.8807568575467
 20
100.848893578647
 30
0.0
 10
170.8848989032971
 20
100.8609560041192
 30
0.0
 10
170.8967939770472
 20
100.8832751688171
 30
0.0
 10
170.9020410413542
 20
100.892241681176
 30
0.0
 10
170.9189081077296
 20
100.9098912457042
 30
0.0
 10
170.926730515259
 20
100.9140355298491
 30
0.0
 10
170.9436793158835
 20
100.9205230710266
 30
0.0
 10
170.9511356671017
 20
100.9199261896549
 30
0.0
 10
170.9651955702949
 20
100.9181799256835
 30
0.0
 10
170.9713279554312
 20
100.9163492377851
 30
0.0
 10
170.9886227179551
 20
100.9097828282124
 30
0.0
 10
170.9986400363643
 20
100.9039176130537
 30
0.0
 10
171.0270113706079
 20
100.885172929023
 30
0.0
 10
171.0435468082526
 20
100.8710087809361
 30
0.0
 10
171.0592417924175
 20
100.8568523946435
 30
0.0
  0
LINE
  5
15E
330
1F
100
AcDbEntity
  8
0
  6
HIDDEN
 62
     7
370
     0
100
AcDbLine
 10
170.8542817704
 20
104.6770418067
 30
0.0
 11
170.8542817704
 21
103.6218989336
 31
0.0
  0
LINE
  5
15F
330
1F
100
AcDbEntity
  8
0
  6
HIDDEN
 62
     7
370
     0
100
AcDbLine
 10
150.0542817704
 20
104.9383260061
 30
0.0
 11
150.0542817704
 21
101.09840654
 31
0.0
  0
SPLINE
  5
160
330
1F
100
AcDbEntity
  8
0
  6
HIDDEN
 62
     7
370
     0
100
AcDbSpline
210
0.0
220
0.0
230
1.0
 70
     8
 71
     3
 72
    16
 73
    12
 74
     0
 42
0.00000001
 43
0.00000001
 12
1.0
 22
0.0
 32
0.0
 13
1.0
 23
0.0
 33
0.0
 40
0.0
 40
0.0
 40
0.0
 40
0.0
 40
0.2500000000000006
 40
0.2500000000000006
 40
0.3750000000000006
 40
0.3750000000000006
 40
0.5000000000000007
 40
0.5000000000000007
 40
0.7500000000000003
 40
0.7500000000000003
 40
1.0
 40
1.0
 40
1.0
 40
1.0
 10
170.8542817703596
 20
103.6218989335546
 30
0.0
 10
170.7737444384602
 20
103.2328917496091
 30
0.0
 10
170.7137070944328
 20
102.8763913079835
 30
0.0
 10
170.6529693872791
 20
102.3898889227946
 30
0.0
 10
170.6376470121662
 20
102.2358099819407
 30
0.0
 10
170.6170642028621
 20
101.9443404234473
 30
0.0
 10
170.6118646058365
 20
101.8067705395482
 30
0.0
 10
170.6118109526567
 20
101.4285257043584
 30
0.0
 10
170.6320084961347
 20
101.2186446358063
 30
0.0
 10
170.7126865844934
 20
100.8820653368952
 30
0.0
 10
170.7737327491012
 20
100.7557808449774
 30
0.0
 10
170.8542817703598
 20
100.675700537486
 30
0.0
  0
LINE
  5
161
330
1F
100
AcDbEntity
  8
0
  6
HIDDEN
 62
     7
370
     0
100
AcDbLine
 10
148.5542817704
 20
105.371338708
 30
0.0
 11
148.5542817704
 21
101.9644319437
 31
0.0
  0
LWPOLYLINE
  5
162
330
1F
100
AcDbEntity
  8
0
  6
HIDDEN
 62
     7
370
     0
100
AcDbPolyline
 90
       29
 70
   128
 43
0.0
 10
186.6542817704
 20
107.9165029896
 10
187.1215757317
 20
107.965979107
 10
187.5654376225
 20
108.1119265201
 10
187.9636103543
 20
108.3470268162
 10
188.2961278835
 20
108.6594910848
 10
188.546316393
 20
109.0336510626
 10
188.7016303859
 20
109.4507448061
 10
188.7542817704
 20
109.8898574933
 10
188.7016303859
 20
110.3289701804
 10
188.546316393
 20
110.7460639239
 10
188.2961278835
 20
111.1202239017
 10
187.9636103543
 20
111.4326881703
 10
187.5654376225
 20
111.6677884664
 10
187.1215757317
 20
111.8137358795
 10
186.6542817704
 20
111.8632119969
 10
186.1869878091
 20
111.8137358795
 10
185.7431259182
 20
111.6677884664
 10
185.3449531865
 20
111.4326881703
 10
185.0124356572
 20
111.1202239017
 10
184.7622471478
 20
110.7460639239
 10
184.6069331548
 20
110.3289701804
 10
184.5542817704
 20
109.8898574933
 10
184.6069331548
 20
109.4507448061
 10
184.7622471478
 20
109.0336510626
 10
185.0124356572
 20
108.6594910848
 10
185.3449531865
 20
108.3470268162
 10
185.7431259182
 20
108.1119265201
 10
186.1869878091
 20
107.965979107
 10
186.6542817704
 20
107.9165029896
  0
SPLINE
  5
163
330
1F
100
AcDbEntity
  8
0
  6
HIDDEN
 62
     7
370
     0
100
AcDbSpline
210
0.0
220
0.0
230
1.0
 70
     8
 71
     3
 72
     8
 73
     4
 74
     0
 42
0.00000001
 43
0.00000001
 12
1.0
 22
0.0
 32
0.0
 13
1.0
 23
0.0
 33
0.0
 40
0.0
 40
0.0
 40
0.0
 40
0.0
 40
1.0
 40
1.0
 40
1.0
 40
1.0
 10
196.75787413616
 20
133.0312968098868
 30
0.0
 10
196.2585612854056
 20
133.5052575976313
 30
0.0
 10
195.8925578266362
 20
133.9803883131397
 30
0.0
 10
195.7528806086699
 20
134.4575052754452
 30
0.0
  0
ARC
  5
164
330
1F
100
AcDbEntity
  8
0
  6
HIDDEN
 62
     7
370
     0
100
AcDbCircle
 10
214.6490715998
 20
133.5064981522
 30
0.0
 40
3.331196565623402
100
AcDbArc
 50
273.3163939892
 51
176.0936288704
  0
LINE
  5
165
330
1F
100
AcDbEntity
  8
0
  6
HIDDEN
 62
     7
370
     0
100
AcDbLine
 10
213.0512870985
 20
139.277121624
 30
0.0
 11
205.5699686167
 21
135.9128814983
 31
0.0
  0
ELLIPSE
  5
166
330
1F
100
AcDbEntity
  8
0
  6
HIDDEN
 62
     7
370
     0
100
AcDbEllipse
 10
193.3529417408
 20
119.7719203057
 30
0.0
 11
150.3435108670281
 21
13.45908089674937
 31
0.0
210
0.0
220
0.0
230
1.0
 40
0.1182598878
 41
1.377862409096235
 42
1.428817192971325
  0
LINE
  5
167
330
1F
100
AcDbEntity
  8
0
  6
HIDDEN
 62
     7
370
     0
100
AcDbLine
 10
221.1094204826
 20
139.2915822464
 30
0.0
 11
220.6176116636
 21
139.8028909519
 31
0.0
  0
LINE
  5
168
330
1F
100
AcDbEntity
  8
0
  6
HIDDEN
 62
     7
370
     0
100
AcDbLine
 10
212.1855059432
 20
127.5748227224
 30
0.0
 11
214.8417802526
 21
130.1808803248
 31
0.0
  0
LINE
  5
169
330
1F
100
AcDbEntity
  8
0
  6
HIDDEN
 62
     7
370
     0
100
AcDbLine
 10
219.2133402223
 20
128.2901020737
 30
0.0
 11
220.10399617
 21
127.8635305816
 31
0.0
  0
LINE
  5
16A
330
1F
100
AcDbEntity
  8
0
  6
HIDDEN
 62
     7
370
     0
100
AcDbLine
 10
205.3929246806
 20
135.8345007014
 30
0.0
 11
208.6693400619
 21
131.127382413
 31
0.0
  0
LINE
  5
16B
330
1F
100
AcDbEntity
  8
0
  6
HIDDEN
 62
     7
370
     0
100
AcDbLine
 10
212.1855059432
 20
127.5748227224
 30
0.0
 11
213.7202961203
 21
126.4822972955
 31
0.0
  0
LINE
  5
16C
330
1F
100
AcDbEntity
  8
0
  6
HIDDEN
 62
     7
370
     0
100
AcDbLine
 10
213.7202961203
 20
126.4822972955
 30
0.0
 11
213.227306623
 21
125.4368112006
 31
0.0
  0
ARC
  5
16D
330
1F
100
AcDbEntity
  8
0
  6
HIDDEN
 62
     7
370
     0
100
AcDbCircle
 10
198.7349398505
 20
151.1124761697
 30
0.0
 40
16.66569219714193
100
AcDbArc
 50
293.5470777855
 51
294.2127316539
  0
LINE
  5
16E
330
1F
100
AcDbEntity
  8
0
  6
HIDDEN
 62
     7
370
     0
100
AcDbLine
 10
220.10399617
 20
127.8635305816
 30
0.0
 11
220.2506958026
 21
129.5309971395
 31
0.0
  0
LINE
  5
16F
330
1F
100
AcDbEntity
  8
0
  6
HIDDEN
 62
     7
370
     0
100
AcDbLine
 10
220.2686891259
 20
129.7355188855
 30
0.0
 11
221.1094071064
 21
139.2915695206
 31
0.0
  0
SPLINE
  5
170
330
1F
100
AcDbEntity
  8
0
  6
HIDDEN
 62
     7
370
     0
100
AcDbSpline
210
0.0
220
0.0
230
1.0
 70
     8
 71
     3
 72
    12
 73
     8
 74
     0
 42
0.00000001
 43
0.00000001
 12
1.0
 22
0.0
 32
0.0
 13
1.0
 23
0.0
 33
0.0
 40
0.0
 40
0.0
 40
0.0
 40
0.0
 40
0.2499999999999996
 40
0.2499999999999996
 40
0.4999999999999991
 40
0.4999999999999991
 40
1.0
 40
1.0
 40
1.0
 40
1.0
 10
214.5896526137545
 20
129.8470271242451
 30
0.0
 10
214.5609772871499
 20
129.8090568739073
 30
0.0
 10
214.5080769274889
 20
129.7697121981714
 30
0.0
 10
214.3751769296736
 20
129.6930078173572
 30
0.0
 10
214.2946818279806
 20
129.6553957062868
 30
0.0
 10
214.0230803424741
 20
129.5495026679428
 30
0.0
 10
213.80219968956
 20
129.4873698114838
 30
0.0
 10
213.5488161113849
 20
129.4510258308223
 30
0.0
  0
ARC
  5
171
330
1F
100
AcDbEntity
  8
0
  6
HIDDEN
 62
     7
370
     0
100
AcDbCircle
 10
214.0676307004
 20
132.7381889759
 30
0.0
 40
3.3278536807336
100
AcDbArc
 50
261.030964629
 51
188.3790582305
  0
SPLINE
  5
172
330
1F
100
AcDbEntity
  8
0
  6
HIDDEN
 62
     7
370
     0
100
AcDbSpline
210
0.0
220
0.0
230
1.0
 70
     8
 71
     3
 72
    12
 73
     8
 74
     0
 42
0.00000001
 43
0.00000001
 12
1.0
 22
0.0
 32
0.0
 13
1.0
 23
0.0
 33
0.0
 40
0.0
 40
0.0
 40
0.0
 40
0.0
 40
0.5000000000000004
 40
0.5000000000000004
 40
0.7500000000000002
 40
0.7500000000000002
 40
1.0
 40
1.0
 40
1.0
 40
1.0
 10
210.7752996591833
 20
132.2532493555314
 30
0.0
 10
210.7971839472773
 20
132.5239150548418
 30
0.0
 10
210.8437055172858
 20
132.7604244138897
 30
0.0
 10
210.9253432039023
 20
133.0583630156137
 30
0.0
 10
210.9546938481678
 20
133.1478809387393
 30
0.0
 10
211.0143633899834
 20
133.2993104779433
 30
0.0
 10
211.0447541787612
 20
133.3615407875653
 30
0.0
 10
211.0734867324874
 20
133.3995868148303
 30
0.0
  0
LINE
  5
173
330
1F
100
AcDbEntity
  8
0
  6
HIDDEN
 62
     7
370
     0
100
AcDbLine
 10
214.8417802526
 20
130.1808803248
 30
0.0
 11
214.5896526138
 21
129.8470271242
 31
0.0
  0
ELLIPSE
  5
174
330
1F
100
AcDbEntity
  8
0
  6
HIDDEN
 62
     7
370
     0
100
AcDbEllipse
 10
163.4002651322
 20
116.6237671366
 30
0.0
 11
50.47498485374436
 21
23.34912968655911
 31
0.0
210
0.0
220
0.0
230
1.0
 40
0.026675174
 41
5.65873174666178
 42
6.089495365401596
  0
SPLINE
  5
175
330
1F
100
AcDbEntity
  8
0
  6
HIDDEN
 62
     7
370
     0
100
AcDbSpline
210
0.0
220
0.0
230
1.0
 70
     8
 71
     3
 72
    10
 73
     6
 74
     0
 42
0.00000001
 43
0.00000001
 12
1.0
 22
0.0
 32
0.0
 13
1.0
 23
0.0
 33
0.0
 40
0.0
 40
0.0
 40
0.0
 40
0.0
 40
0.5000000000000002
 40
0.5000000000000002
 40
1.0
 40
1.0
 40
1.0
 40
1.0
 10
196.75787413616
 20
133.0312968098868
 30
0.0
 10
196.7347631664994
 20
132.0613147373548
 30
0.0
 10
196.7007021623064
 20
130.9869633088971
 30
0.0
 10
196.60949746886
 20
128.6231400191357
 30
0.0
 10
196.5537199893196
 20
127.3696275578012
 30
0.0
 10
196.4875220318667
 20
126.0500451745185
 30
0.0
  0
SPLINE
  5
176
330
1F
100
AcDbEntity
  8
0
  6
HIDDEN
 62
     7
370
     0
100
AcDbSpline
210
0.0
220
0.0
230
1.0
 70
     8
 71
     3
 72
    16
 73
    12
 74
     0
 42
0.00000001
 43
0.00000001
 12
1.0
 22
0.0
 32
0.0
 13
1.0
 23
0.0
 33
0.0
 40
0.0
 40
0.0
 40
0.0
 40
0.0
 40
0.2499999999999979
 40
0.2499999999999979
 40
0.3749999999999976
 40
0.3749999999999976
 40
0.4999999999999973
 40
0.4999999999999973
 40
0.7499999999999986
 40
0.7499999999999986
 40
1.0
 40
1.0
 40
1.0
 40
1.0
 10
197.3530855360241
 20
133.0210070115425
 30
0.0
 10
198.0058860538822
 20
133.0097965518858
 30
0.0
 10
198.6535659425538
 20
133.043478325592
 30
0.0
 10
199.6180154242794
 20
133.1561058097806
 30
0.0
 10
199.9383141329759
 20
133.2040488977294
 30
0.0
 10
200.5765834425736
 20
133.3203622196258
 30
0.0
 10
200.8958998145303
 20
133.3890789965058
 30
0.0
 10
201.8406911155953
 20
133.6232343022465
 30
0.0
 10
202.446351729333
 20
133.8144598380491
 30
0.0
 10
203.6133124654582
 20
134.2553770687645
 30
0.0
 10
204.174561017982
 20
134.5051700197981
 30
0.0
 10
204.7138952199704
 20
134.7793173848463
 30
0.0
  0
ELLIPSE
  5
177
330
1F
100
AcDbEntity
  8
0
  6
HIDDEN
 62
     7
370
     0
100
AcDbEllipse
 10
336.3879859261
 20
134.805509241
 30
0.0
 11
173.8758250944553
 21
0.3502521611526391
 31
0.0
210
0.0
220
0.0
230
1.0
 40
0.0144089656
 41
3.779972429757533
 42
3.785694805063293
  0
SPLINE
  5
178
330
1F
100
AcDbEntity
  8
0
  6
HIDDEN
 62
     7
370
     0
100
AcDbSpline
210
0.0
220
0.0
230
1.0
 70
     8
 71
     3
 72
    38
 73
    34
 74
     0
 42
0.00000001
 43
0.00000001
 12
1.0
 22
0.0
 32
0.0
 13
1.0
 23
0.0
 33
0.0
 40
0.0
 40
0.0
 40
0.0
 40
0.0
 40
0.026061307789087
 40
0.0525269154715913
 40
0.0793972300878027
 40
0.1066726405120117
 40
0.1343535184983207
 40
0.1624402196533593
 40
0.1909330843418516
 40
0.2198324385304354
 40
0.2491385945746512
 40
0.2788518519535613
 40
0.3089724979560707
 40
0.3395008083226542
 40
0.3704370478458973
 40
0.4017814709329091
 40
0.4335343221324736
 40
0.4656958366295099
 40
0.4982662407092164
 40
0.5164733464599676
 40
0.5373928854484937
 40
0.561024920136943
 40
0.5873694804201454
 40
0.6164265743257433
 40
0.6481961941466156
 40
0.6826783201613728
 40
0.7198729229982321
 40
0.759779965195566
 40
0.8023994022658523
 40
0.8477311834413419
 40
0.8957752522092611
 40
0.9465315467040235
 40
1.0
 40
1.0
 40
1.0
 40
1.0
 10
220.6176473030077
 20
139.802281681762
 30
0.0
 10
220.6007373494299
 20
139.7536251043578
 30
0.0
 10
220.5666551111403
 20
139.6555571198526
 30
0.0
 10
220.5142259141134
 20
139.4946230942759
 30
0.0
 10
220.4603946396378
 20
139.3217654216011
 30
0.0
 10
220.4051254249681
 20
139.1357169891409
 30
0.0
 10
220.3484724607156
 20
138.9364028291075
 30
0.0
 10
220.2904639022252
 20
138.7234341529628
 30
0.0
 10
220.2311335185673
 20
138.4965226195077
 30
0.0
 10
220.1705118492905
 20
138.2553684668965
 30
0.0
 10
220.1086284576165
 20
137.9996928282537
 30
0.0
 10
220.0455111021901
 20
137.7292306171009
 30
0.0
 10
219.9811858883059
 20
137.4437342481893
 30
0.0
 10
219.9156766081862
 20
137.1429744808313
 30
0.0
 10
219.8490063463111
 20
136.8267419438839
 30
0.0
 10
219.7811906637904
 20
136.4948490929938
 30
0.0
 10
219.7122627581685
 20
136.1471298955754
 30
0.0
 10
219.6421769493201
 20
135.7834485175215
 30
0.0
 10
219.5819093942631
 20
135.4610896909661
 30
0.0
 10
219.5293116677476
 20
135.1760565468807
 30
0.0
 10
219.4827945459723
 20
134.9223373288974
 30
0.0
 10
219.4301387657792
 20
134.6303872039571
 30
0.0
 10
219.3714856214938
 20
134.2984081501735
 30
0.0
 10
219.3070485703652
 20
133.9244878030402
 30
0.0
 10
219.2370312321139
 20
133.5066344071557
 30
0.0
 10
219.1616478140159
 20
133.0428147702109
 30
0.0
 10
219.0811108829854
 20
132.5309962666793
 30
0.0
 10
218.995627978122
 20
131.9692017819605
 30
0.0
 10
218.9053973504445
 20
131.3555383629794
 30
0.0
 10
218.8105926563133
 20
130.6883636142007
 30
0.0
 10
218.711393363619
 20
129.9659177199177
 30
0.0
 10
218.607824863885
 20
129.1881614850704
 30
0.0
 10
218.5380032536335
 20
128.6433653857675
 30
0.0
 10
218.502183992029
 20
128.3638789354871
 30
0.0
  0
SPLINE
  5
179
330
1F
100
AcDbEntity
  8
0
  6
HIDDEN
 62
     7
370
     0
100
AcDbSpline
210
0.0
220
0.0
230
1.0
 70
     8
 71
     3
 72
    27
 73
    23
 74
     0
 42
0.00000001
 43
0.00000001
 12
1.0
 22
0.0
 32
0.0
 13
1.0
 23
0.0
 33
0.0
 40
0.0
 40
0.0
 40
0.0
 40
0.0
 40
0.0250760348106614
 40
0.0501196994911137
 40
0.0751455694613046
 40
0.1001682512368339
 40
0.1252023569138983
 40
0.1502624786055023
 40
0.175363163051989
 40
0.2005188866254172
 40
0.2257440309393731
 40
0.251052859263766
 40
0.3767465199064032
 40
0.5017573060790529
 40
0.6264638631591671
 40
0.7515283337263231
 40
0.7933091101250022
 40
0.8348504504020671
 40
0.8762207461572756
 40
0.9174892393821565
 40
0.9587256848952074
 40
1.0
 40
1.0
 40
1.0
 40
1.0
 10
218.8053984583477
 20
126.8556796032675
 30
0.0
 10
218.8232497709524
 20
126.9970960875366
 30
0.0
 10
218.8589293522748
 20
127.2797465044855
 30
0.0
 10
218.9132344158429
 20
127.6998075363125
 30
0.0
 10
218.9680554616496
 20
128.1165271488257
 30
0.0
 10
219.0234525560838
 20
128.5296562964949
 30
0.0
 10
219.0794095551161
 20
128.9392611710105
 30
0.0
 10
219.1359306736777
 20
129.3453233442061
 30
0.0
 10
219.1930148440953
 20
129.7478479348645
 30
0.0
 10
219.2506617577671
 20
130.1468306374797
 30
0.0
 10
219.3088733648828
 20
130.5422814783064
 30
0.0
 10
219.4452512369932
 20
131.4516800209043
 30
0.0
 10
219.6627234434809
 20
132.822727249058
 30
0.0
 10
219.9626787363382
 20
134.5312186688362
 30
0.0
 10
220.2620131524111
 20
136.0578863011813
 30
0.0
 10
220.4913745583538
 20
137.0864950964241
 30
0.0
 10
220.6519307433094
 20
137.7403418293054
 30
0.0
 10
220.7468798158089
 20
138.1064288202964
 30
0.0
 10
220.8401474932074
 20
138.4452041766601
 30
0.0
 10
220.9316909105903
 20
138.7560026181968
 30
0.0
 10
221.021681943799
 20
139.0413617978236
 30
0.0
 10
221.080147975416
 20
139.2081302232089
 30
0.0
 10
221.10939440817
 20
139.2915527063776
 30
0.0
  0
LINE
  5
17A
330
1F
100
AcDbEntity
  8
0
  6
HIDDEN
 62
     7
370
     0
100
AcDbLine
 10
148.5542817704
 20
123.8205351436
 30
0.0
 11
148.5542817704
 21
116.4461507395
 31
0.0
  0
LINE
  5
17B
330
1F
100
AcDbEntity
  8
0
  6
HIDDEN
 62
     7
370
     0
100
AcDbLine
 10
148.5542817704
 20
112.7457231122
 30
0.0
 11
148.5542817704
 21
105.371338708
 31
0.0
  0
SPLINE
  5
17C
330
1F
100
AcDbEntity
  8
0
  6
HIDDEN
 62
     7
370
     0
100
AcDbSpline
210
0.0
220
0.0
230
1.0
 70
     8
 71
     3
 72
    24
 73
    20
 74
     0
 42
0.00000001
 43
0.00000001
 12
1.0
 22
0.0
 32
0.0
 13
1.0
 23
0.0
 33
0.0
 40
0.0
 40
0.0
 40
0.0
 40
0.0
 40
0.2500000000000144
 40
0.2500000000000144
 40
0.3750000000000185
 40
0.3750000000000185
 40
0.4375000000000188
 40
0.4375000000000188
 40
0.5000000000000191
 40
0.5000000000000191
 40
0.5312500000000194
 40
0.5312500000000194
 40
0.5625000000000197
 40
0.5625000000000197
 40
0.6250000000000163
 40
0.6250000000000163
 40
0.7500000000000118
 40
0.7500000000000118
 40
1.0
 40
1.0
 40
1.0
 40
1.0
 10
171.0592417924202
 20
103.8033431990029
 30
0.0
 10
171.0434729150628
 20
103.7294845070733
 30
0.0
 10
171.0268589332128
 20
103.6557731183375
 30
0.0
 10
170.9983272672077
 20
103.5442262947155
 30
0.0
 10
170.988239852389
 20
103.506854721587
 30
0.0
 10
170.9707522919346
 20
103.4499552239493
 30
0.0
 10
170.9645427301514
 20
103.430852123804
 30
0.0
 10
170.9502651764988
 20
103.3919786095685
 30
0.0
 10
170.9426936287034
 20
103.3720539501351
 30
0.0
 10
170.9252760450251
 20
103.3419817321077
 30
0.0
 10
170.9167935483801
 20
103.3303003533046
 30
0.0
 10
170.9007552365082
 20
103.3230388425559
 30
0.0
 10
170.8959346883047
 20
103.3266170895657
 30
0.0
 10
170.8845254637568
 20
103.3383779447973
 30
0.0
 10
170.8805049832992
 20
103.3500435948479
 30
0.0
 10
170.8697511284789
 20
103.3865789249615
 30
0.0
 10
170.8658784471968
 20
103.413974658285
 30
0.0
 10
170.8567102973591
 20
103.498700650041
 30
0.0
 10
170.85468179199
 20
103.5595327722131
 30
0.0
 10
170.8542817703598
 20
103.6218989335547
 30
0.0
  0
SPLINE
  5
17D
330
1F
100
AcDbEntity
  8
0
  6
HIDDEN
 62
     7
370
     0
100
AcDbSpline
210
0.0
220
0.0
230
1.0
 70
     8
 71
     3
 72
    24
 73
    20
 74
     0
 42
0.00000001
 43
0.00000001
 12
1.0
 22
0.0
 32
0.0
 13
1.0
 23
0.0
 33
0.0
 40
0.0
 40
0.0
 40
0.0
 40
0.0
 40
0.2499999999999851
 40
0.2499999999999851
 40
0.374999999999979
 40
0.374999999999979
 40
0.437499999999978
 40
0.437499999999978
 40
0.46874999999998
 40
0.46874999999998
 40
0.499999999999982
 40
0.499999999999982
 40
0.5624999999999845
 40
0.5624999999999845
 40
0.624999999999987
 40
0.624999999999987
 40
0.749999999999991
 40
0.749999999999991
 40
1.0
 40
1.0
 40
1.0
 40
1.0
 10
170.8542817703562
 20
125.5699749180583
 30
0.0
 10
170.854686439932
 20
125.6330657265509
 30
0.0
 10
170.8567298867464
 20
125.6942514490534
 30
0.0
 10
170.8661294520007
 20
125.779751181555
 30
0.0
 10
170.8700803455294
 20
125.8073315649961
 30
0.0
 10
170.8812326538263
 20
125.8437856471077
 30
0.0
 10
170.8854541947528
 20
125.8556440688021
 30
0.0
 10
170.8976619163164
 20
125.8662641201775
 30
0.0
 10
170.9034526865685
 20
125.8690974873999
 30
0.0
 10
170.9203741996784
 20
125.8577829004018
 30
0.0
 10
170.9277803156282
 20
125.8460020146481
 30
0.0
 10
170.9442375688714
 20
125.8159611734183
 30
0.0
 10
170.9516940867824
 20
125.7962482198052
 30
0.0
 10
170.9656020160571
 20
125.7578461537451
 30
0.0
 10
170.971693961952
 20
125.7389645038337
 30
0.0
 10
170.9888882543031
 20
125.6826635933021
 30
0.0
 10
170.9988732045067
 20
125.6455875154925
 30
0.0
 10
171.0271192496056
 20
125.5349288446025
 30
0.0
 10
171.0435987865667
 20
125.461799784194
 30
0.0
 10
171.0592417924264
 20
125.3885306525701
 30
0.0
  0
ELLIPSE
  5
17E
330
1F
100
AcDbEntity
  8
0
  6
HIDDEN
 62
     7
370
     0
100
AcDbEllipse
 10
210.8089648165
 20
129.524624668
 30
0.0
 11
2.219475038682532
 21
2.141201758675777
 31
0.0
210
0.0
220
0.0
230
1.0
 40
0.8103652656
 41
5.384719722770163
 42
7.202395580435209
  0
LWPOLYLINE
  5
17F
330
1F
100
AcDbEntity
  8
0
  6
HIDDEN
 62
     7
370
     0
100
AcDbPolyline
 90
       16
 70
   128
 43
0.0
 10
209.964198487
 20
125.0475930278
 10
210.1850045498
 20
125.3295158953
 10
210.3193236675
 20
125.6767493335
 10
210.36128545
 20
126.0741175748
 10
210.309055966
 20
126.5042537204
 10
210.1649178946
 20
126.9483587567
 10
209.9351707613
 20
127.3870231626
 10
209.6298556181
 20
127.8010751984
 10
209.262316202
 20
128.1724188036
 10
208.848615749
 20
128.4848244805
 10
208.406834954
 20
128.724638602
 10
207.9562817578
 20
128.8813801403
 10
207.516647497
 20
128.948198738
 10
207.1071462984
 20
128.9221741018
 10
206.7456753293
 20
128.8044436331
 10
206.4480326057
 20
128.6001527184
  0
SPLINE
  5
180
330
1F
100
AcDbEntity
  8
0
  6
HIDDEN
 62
     7
370
     0
100
AcDbSpline
210
0.0
220
0.0
230
1.0
 70
     8
 71
     3
 72
     8
 73
     4
 74
     0
 42
0.00000001
 43
0.00000001
 12
1.0
 22
0.0
 32
0.0
 13
1.0
 23
0.0
 33
0.0
 40
0.0
 40
0.0
 40
0.0
 40
0.0
 40
1.0
 40
1.0
 40
1.0
 40
1.0
 10
171.2329614268002
 20
104.5424176081943
 30
0.0
 10
171.1678562651861
 20
104.2873923729887
 30
0.0
 10
171.1099689356261
 20
104.0409403568474
 30
0.0
 10
171.0592417924201
 20
103.8033431990028
 30
0.0
  0
SPLINE
  5
181
330
1F
100
AcDbEntity
  8
0
  6
HIDDEN
 62
     7
370
     0
100
AcDbSpline
210
0.0
220
0.0
230
1.0
 70
     8
 71
     3
 72
     8
 73
     4
 74
     0
 42
0.00000001
 43
0.00000001
 12
1.0
 22
0.0
 32
0.0
 13
1.0
 23
0.0
 33
0.0
 40
0.0
 40
0.0
 40
0.0
 40
0.0
 40
1.0
 40
1.0
 40
1.0
 40
1.0
 10
171.0592417924264
 20
125.3885306525701
 30
0.0
 10
171.1099689356309
 20
125.1509334947345
 30
0.0
 10
171.1678562651888
 20
124.9044814786031
 30
0.0
 10
171.2329614268002
 20
124.6494562434078
 30
0.0
  0
LINE
  5
182
330
1F
100
AcDbEntity
  8
0
  6
HIDDEN
 62
     7
370
     0
100
AcDbLine
 10
150.0542817704
 20
112.0409086887
 30
0.0
 11
150.0542817704
 21
104.9383260061
 31
0.0
  0
LINE
  5
183
330
1F
100
AcDbEntity
  8
0
  6
HIDDEN
 62
     7
370
     0
100
AcDbLine
 10
150.0542817704
 20
124.2535478455
 30
0.0
 11
150.0542817704
 21
117.1509651629
 31
0.0
  0
LINE
  5
184
330
1F
100
AcDbEntity
  8
0
  6
HIDDEN
 62
     7
370
     0
100
AcDbLine
 10
170.8542817704
 20
124.5148320449
 30
0.0
 11
170.8542817704
 21
104.6770418067
 31
0.0
  0
LINE
  5
185
330
1F
100
AcDbEntity
  8
0
  6
HIDDEN
 62
     7
370
     0
100
AcDbLine
 10
172.3542817704
 20
123.0753040655
 30
0.0
 11
172.3542817704
 21
106.1165697861
 31
0.0
  0
SPLINE
  5
186
330
1F
100
AcDbEntity
  8
0
  6
HIDDEN
 62
     7
370
     0
100
AcDbSpline
210
0.0
220
0.0
230
1.0
 70
     8
 71
     3
 72
    22
 73
    18
 74
     0
 42
0.00000001
 43
0.00000001
 12
1.0
 22
0.0
 32
0.0
 13
1.0
 23
0.0
 33
0.0
 40
0.0
 40
0.0
 40
0.0
 40
0.0
 40
0.125
 40
0.125
 40
0.25
 40
0.25
 40
0.3749999999999999
 40
0.3749999999999999
 40
0.4999999999999999
 40
0.4999999999999999
 40
0.6249999999999999
 40
0.6249999999999999
 40
0.7499999999999999
 40
0.7499999999999999
 40
0.875
 40
0.875
 40
1.0
 40
1.0
 40
1.0
 40
1.0
 10
152.7542817703598
 20
112.0029922459731
 30
0.0
 10
152.935218128436
 20
112.1946121052797
 30
0.0
 10
153.1143135772128
 20
112.3882539696668
 30
0.0
 10
153.4651535657249
 20
112.7829092230511
 30
0.0
 10
153.6373466736295
 20
112.9839207537187
 30
0.0
 10
153.9630781792488
 20
113.4001318689524
 30
0.0
 10
154.1191544144171
 20
113.6161477092392
 30
0.0
 10
154.3705336283062
 20
114.0814704724039
 30
0.0
 10
154.464398758625
 20
114.3370096654267
 30
0.0
 10
154.4606708417629
 20
114.8713403005273
 30
0.0
 10
154.3632981992755
 20
115.1267611665281
 30
0.0
 10
154.1114773902816
 20
115.5867898824758
 30
0.0
 10
153.956508134809
 20
115.8006268834043
 30
0.0
 10
153.6316953770838
 20
116.2146654660981
 30
0.0
 10
153.4608023129558
 20
116.4139579381339
 30
0.0
 10
153.1121680734283
 20
116.8059328305681
 30
0.0
 10
152.9341602228998
 20
116.9983821165575
 30
0.0
 10
152.7542817703598
 20
117.188881605629
 30
0.0
  0
LINE
  5
187
330
1F
100
AcDbEntity
  8
0
  6
HIDDEN
 62
     7
370
     0
100
AcDbLine
 10
152.7542817704
 20
112.002992246
 30
0.0
 11
152.7542817704
 21
117.1888816056
 31
0.0
  0
SPLINE
  5
188
330
1F
100
AcDbEntity
  8
0
  6
HIDDEN
 62
     7
370
     0
100
AcDbSpline
210
0.0
220
0.0
230
1.0
 70
     8
 71
     3
 72
     8
 73
     4
 74
     0
 42
0.00000001
 43
0.00000001
 12
1.0
 22
0.0
 32
0.0
 13
1.0
 23
0.0
 33
0.0
 40
0.0000137051794235
 40
0.0000137051794235
 40
0.0000137051794235
 40
0.0000137051794235
 40
0.0027147144718019
 40
0.0027147144718019
 40
0.0027147144718019
 40
0.0027147144718019
 10
150.0542817703598
 20
112.0409086887393
 30
0.0
 10
150.9542779058546
 20
112.027937121541
 30
0.0
 10
151.85427808445
 20
112.0153022642289
 30
0.0
 10
152.7542817703598
 20
112.0029922459731
 30
0.0
  0
SPLINE
  5
189
330
1F
100
AcDbEntity
  8
0
  6
HIDDEN
 62
     7
370
     0
100
AcDbSpline
210
0.0
220
0.0
230
1.0
 70
     8
 71
     3
 72
     8
 73
     4
 74
     0
 42
0.00000001
 43
0.00000001
 12
1.0
 22
0.0
 32
0.0
 13
1.0
 23
0.0
 33
0.0
 40
0.0000137050638847
 40
0.0000137050638847
 40
0.0000137050638847
 40
0.0000137050638847
 40
0.0027147143562631
 40
0.0027147143562631
 40
0.0027147143562631
 40
0.0027147143562631
 10
152.7542817703598
 20
117.188881605629
 30
0.0
 10
151.85427808445
 20
117.1765715873733
 30
0.0
 10
150.9542779058546
 20
117.1639367300612
 30
0.0
 10
150.0542817703598
 20
117.1509651628628
 30
0.0
  0
SPLINE
  5
18A
330
1F
100
AcDbEntity
  8
0
  6
HIDDEN
 62
     7
370
     0
100
AcDbSpline
210
0.0
220
0.0
230
1.0
 70
     8
 71
     3
 72
    10
 73
     6
 74
     0
 42
0.00000001
 43
0.00000001
 12
1.0
 22
0.0
 32
0.0
 13
1.0
 23
0.0
 33
0.0
 40
0.0
 40
0.0
 40
0.0
 40
0.0
 40
0.5
 40
0.5
 40
1.0
 40
1.0
 40
1.0
 40
1.0
 10
148.5542817703598
 20
112.7457231121504
 30
0.0
 10
148.7914237310756
 20
112.5901082976217
 30
0.0
 10
149.0367664898388
 20
112.4581992682025
 30
0.0
 10
149.5380300785716
 20
112.2265423915651
 30
0.0
 10
149.7940646478218
 20
112.1270967754424
 30
0.0
 10
150.0542817703598
 20
112.0409086887393
 30
0.0
  0
SPLINE
  5
18B
330
1F
100
AcDbEntity
  8
0
  6
HIDDEN
 62
     7
370
     0
100
AcDbSpline
210
0.0
220
0.0
230
1.0
 70
     8
 71
     3
 72
    10
 73
     6
 74
     0
 42
0.00000001
 43
0.00000001
 12
1.0
 22
0.0
 32
0.0
 13
1.0
 23
0.0
 33
0.0
 40
0.0
 40
0.0
 40
0.0
 40
0.0
 40
0.5
 40
0.5
 40
1.0
 40
1.0
 40
1.0
 40
1.0
 10
150.0542817703598
 20
117.1509651628628
 30
0.0
 10
149.7940646478218
 20
117.0647770761598
 30
0.0
 10
149.5380300785716
 20
116.965331460037
 30
0.0
 10
149.0367664898389
 20
116.7336745833997
 30
0.0
 10
148.7914237310755
 20
116.6017655539805
 30
0.0
 10
148.5542817703598
 20
116.4461507394518
 30
0.0
  0
LINE
  5
18C
330
1F
100
AcDbEntity
  8
0
  6
HIDDEN
 62
     7
370
     0
100
AcDbLine
 10
148.5542817704
 20
112.7457231122
 30
0.0
 11
148.5542817704
 21
116.4461507395
 31
0.0
  0
LINE
  5
18D
330
1F
100
AcDbEntity
  8
0
  6
HIDDEN
 62
     7
370
     0
100
AcDbLine
 10
207.1532153378
 20
122.4113852008
 30
0.0
 11
209.964198487
 21
125.0475930278
 31
0.0
  0
LWPOLYLINE
  5
18E
330
1F
100
AcDbEntity
  8
0
  6
HIDDEN
 62
     7
370
     0
100
AcDbPolyline
 90
       31
 70
   128
 43
0.0
 10
186.6542817704
 20
107.4584233673
 10
187.1740609974
 20
107.5097597131
 10
187.671123378
 20
107.661525106
 10
188.1237449011
 20
107.90708667
 10
188.5121438341
 20
108.2357121864
 10
188.8193452798
 20
108.6330391433
 10
189.0319230611
 20
109.081702446
 10
189.1405865088
 20
109.5620933553
 10
189.1405865088
 20
110.0532164832
 10
189.0319230611
 20
110.5336073925
 10
188.8193452798
 20
110.9822706952
 10
188.5121438341
 20
111.3795976521
 10
188.1237449011
 20
111.7082231685
 10
187.671123378
 20
111.9537847325
 10
187.1740609974
 20
112.1055501254
 10
186.6542817704
 20
112.1568864712
 10
186.1345025433
 20
112.1055501254
 10
185.6374401627
 20
111.9537847325
 10
185.1848186396
 20
111.7082231685
 10
184.7964197067
 20
111.3795976521
 10
184.4892182609
 20
110.9822706952
 10
184.2766404796
 20
110.5336073925
 10
184.1679770319
 20
110.0532164832
 10
184.1679770319
 20
109.5620933553
 10
184.2766404796
 20
109.081702446
 10
184.4892182609
 20
108.6330391433
 10
184.7964197067
 20
108.2357121864
 10
185.1848186396
 20
107.90708667
 10
185.6374401627
 20
107.661525106
 10
186.1345025433
 20
107.5097597131
 10
186.6542817704
 20
107.4584233673
  0
SPLINE
  5
18F
330
1F
100
AcDbEntity
  8
0
  6
HIDDEN
 62
     7
370
     0
100
AcDbSpline
210
0.0
220
0.0
230
1.0
 70
     8
 71
     3
 72
    62
 73
    58
 74
     0
 42
0.00000001
 43
0.00000001
 12
1.0
 22
0.0
 32
0.0
 13
1.0
 23
0.0
 33
0.0
 40
-0.0312500000000001
 40
-0.0312500000000001
 40
0.0
 40
0.0
 40
0.0312499999999999
 40
0.0312499999999999
 40
0.0624999999999998
 40
0.0624999999999998
 40
0.0937499999999996
 40
0.0937499999999996
 40
0.1249999999999995
 40
0.1249999999999995
 40
0.1874999999999996
 40
0.1874999999999996
 40
0.2499999999999996
 40
0.2499999999999996
 40
0.2812499999999997
 40
0.2812499999999997
 40
0.3124999999999997
 40
0.3124999999999997
 40
0.3437499999999997
 40
0.3437499999999997
 40
0.3749999999999997
 40
0.3749999999999997
 40
0.4374999999999997
 40
0.4374999999999997
 40
0.4687499999999997
 40
0.4687499999999997
 40
0.4999999999999998
 40
0.4999999999999998
 40
0.5624999999999998
 40
0.5624999999999998
 40
0.5937499999999998
 40
0.5937499999999998
 40
0.6249999999999998
 40
0.6249999999999998
 40
0.6562499999999998
 40
0.6562499999999998
 40
0.6874999999999998
 40
0.6874999999999998
 40
0.7187499999999998
 40
0.7187499999999998
 40
0.7499999999999998
 40
0.7499999999999998
 40
0.7812499999999998
 40
0.7812499999999998
 40
0.8124999999999998
 40
0.8124999999999998
 40
0.8437499999999998
 40
0.8437499999999998
 40
0.8749999999999998
 40
0.8749999999999998
 40
0.9062499999999998
 40
0.9062499999999998
 40
0.9374999999999998
 40
0.9374999999999998
 40
0.9687499999999999
 40
0.9687499999999999
 40
1.0
 40
1.0
 40
1.03125
 40
1.03125
 10
159.0080538982881
 20
116.0839159644574
 30
0.0
 10
159.2355542448763
 20
116.3332625063181
 30
0.0
 10
159.3600167737938
 20
116.444860183775
 30
0.0
 10
159.6291110399456
 20
116.6435109795934
 30
0.0
 10
159.7749241315349
 20
116.7308512243821
 30
0.0
 10
160.0760910098242
 20
116.8750469770243
 30
0.0
 10
160.2324267368886
 20
116.9328666475386
 30
0.0
 10
160.5565500362231
 20
117.0201202595896
 30
0.0
 10
160.7232152479335
 20
117.0489223090714
 30
0.0
 10
161.2212315145654
 20
117.0897016143392
 30
0.0
 10
161.5619024633584
 20
117.056258354198
 30
0.0
 10
162.2009133787799
 20
116.8738057097392
 30
0.0
 10
162.5073679858437
 20
116.7223811494264
 30
0.0
 10
162.9039238951061
 20
116.4218832438421
 30
0.0
 10
163.0282730859556
 20
116.3076220586467
 30
0.0
 10
163.2507371800048
 20
116.0579621880742
 30
0.0
 10
163.3483025184821
 20
115.9237955800751
 30
0.0
 10
163.5155581221208
 20
115.6363264855764
 30
0.0
 10
163.5856437776399
 20
115.4810596356765
 30
0.0
 10
163.6896991383615
 20
115.1640802155895
 30
0.0
 10
163.7246749010289
 20
115.001427464085
 30
0.0
 10
163.776539420553
 20
114.5004904438825
 30
0.0
 10
163.7372333127816
 20
114.1603358425722
 30
0.0
 10
163.5745135203207
 20
113.683841210475
 30
0.0
 10
163.5042330224344
 20
113.5327738506476
 30
0.0
 10
163.3328998773044
 20
113.2454792802067
 30
0.0
 10
163.2315076361227
 20
113.1096215019093
 30
0.0
 10
162.8949080488996
 20
112.7408131069111
 30
0.0
 10
162.6196752827349
 20
112.53838799758
 30
0.0
 10
162.1698920553889
 20
112.3213112709712
 30
0.0
 10
162.0110922568853
 20
112.262008998897
 30
0.0
 10
161.6885305360056
 20
112.1740364810965
 30
0.0
 10
161.5246714240384
 20
112.1449167172502
 30
0.0
 10
161.1918386506845
 20
112.11606010214
 30
0.0
 10
161.0217863592437
 20
112.116683625354
 30
0.0
 10
160.689510695224
 20
112.1479400691584
 30
0.0
 10
160.5257960834753
 20
112.1782587642102
 30
0.0
 10
160.2033305979009
 20
112.2689758032132
 30
0.0
 10
160.0448194993744
 20
112.329744711915
 30
0.0
 10
159.7462657931765
 20
112.477255386712
 30
0.0
 10
159.6044396639745
 20
112.5643904145759
 30
0.0
 10
159.3365179254161
 20
112.7669758811479
 30
0.0
 10
159.2124244950236
 20
112.8813140477901
 30
0.0
 10
158.9912903071054
 20
113.1295004857429
 30
0.0
 10
158.8928333050068
 20
113.2645331025967
 30
0.0
 10
158.7234747912718
 20
113.5565375006514
 30
0.0
 10
158.6553079535659
 20
113.708673247087
 30
0.0
 10
158.5515739872394
 20
114.025082195527
 30
0.0
 10
158.5159054253702
 20
114.1915786648813
 30
0.0
 10
158.4816916607177
 20
114.5248405409918
 30
0.0
 10
158.4825500635468
 20
114.6915029948136
 30
0.0
 10
158.5203468434964
 20
115.0248911940312
 30
0.0
 10
158.5576895989504
 20
115.1906467665107
 30
0.0
 10
158.6649391820189
 20
115.5065380829734
 30
0.0
 10
158.735700398558
 20
115.6598174160455
 30
0.0
 10
158.9078235486587
 20
115.949194458532
 30
0.0
 10
159.0080538982881
 20
116.0839159644574
 30
0.0
 10
159.2355542448763
 20
116.3332625063181
 30
0.0
  0
CIRCLE
  5
190
330
1F
100
AcDbEntity
  8
0
  6
HIDDEN
 62
     7
370
     0
100
AcDbCircle
 10
161.0542817704
 20
114.5959369258
 30
0.0
 40
2.300000000000011
  0
CIRCLE
  5
191
330
1F
100
AcDbEntity
  8
0
  6
HIDDEN
 62
     7
370
     0
100
AcDbCircle
 10
184.5542817704
 20
114.5959369258
 30
0.0
 40
2.0
  0
SPLINE
  5
192
330
1F
100
AcDbEntity
  8
0
  6
HIDDEN
 62
     7
370
     0
100
AcDbSpline
210
0.0
220
0.0
230
1.0
 70
     8
 71
     3
 72
    11
 73
     7
 74
     0
 42
0.00000001
 43
0.00000001
 12
1.0
 22
0.0
 32
0.0
 13
1.0
 23
0.0
 33
0.0
 40
0.0
 40
0.0
 40
0.0
 40
0.0
 40
0.253679036851118
 40
0.5048384259994839
 40
0.7535778678255518
 40
1.0
 40
1.0
 40
1.0
 40
1.0
 10
218.5020940869722
 20
128.3638246232291
 30
0.0
 10
218.5321011168274
 20
128.2370251349826
 30
0.0
 10
218.5918171340003
 20
127.9846855847442
 30
0.0
 10
218.6714186457952
 20
127.6058670055571
 30
0.0
 10
218.7437713321955
 20
127.2293888938062
 30
0.0
 10
218.7851460783158
 20
126.9784373332664
 30
0.0
 10
218.8057366364134
 20
126.8535487678612
 30
0.0
  0
LINE
  5
193
330
1F
100
AcDbEntity
  8
0
  6
HIDDEN
 62
     7
370
     0
100
AcDbLine
 10
196.4875220319
 20
126.0500451745
 30
0.0
 11
218.5021822231
 21
128.3638791986
 31
0.0
  0
SPLINE
  5
194
330
1F
100
AcDbEntity
  8
0
  6
HIDDEN
 62
     7
370
     0
100
AcDbSpline
210
0.0
220
0.0
230
1.0
 70
     8
 71
     3
 72
     8
 73
     4
 74
     0
 42
0.00000001
 43
0.00000001
 12
1.0
 22
0.0
 32
0.0
 13
1.0
 23
0.0
 33
0.0
 40
0.0
 40
0.0
 40
0.0
 40
0.0
 40
1.0
 40
1.0
 40
1.0
 40
1.0
 10
196.4875220318667
 20
126.0500451745185
 30
0.0
 10
196.1279538461065
 20
123.2988636064206
 30
0.0
 10
195.8663350554439
 20
120.5343751894472
 30
0.0
 10
195.7528806086699
 20
117.7497580056662
 30
0.0
  0
LINE
  5
195
330
1F
100
AcDbEntity
  8
0
  6
HIDDEN
 62
     7
370
     0
100
AcDbLine
 10
218.805398458
 20
126.8556796033
 30
0.0
 11
217.6026118659
 21
115.0337672706
 31
0.0
  0
LINE
  5
196
330
1F
100
AcDbEntity
  8
0
  6
HIDDEN
 62
     7
370
     0
100
AcDbLine
 10
217.6026118659
 20
115.0337672706
 30
0.0
 11
217.2909466027
 21
114.5959369258
 31
0.0
  0
LINE
  5
197
330
1F
100
AcDbEntity
  8
0
  6
HIDDEN
 62
     7
370
     0
100
AcDbLine
 10
190.6182819107
 20
124.8114144327
 30
0.0
 11
183.3199497501
 21
120.4154023317
 31
0.0
  0
LINE
  5
198
330
1F
100
AcDbEntity
  8
0
  6
HIDDEN
 62
     7
370
     0
100
AcDbLine
 10
188.4097081536
 20
118.5780779627
 30
0.0
 11
190.5627733121
 21
119.8749359685
 31
0.0
  0
LINE
  5
199
330
1F
100
AcDbEntity
  8
0
  6
HIDDEN
 62
     7
370
     0
100
AcDbLine
 10
185.486995361
 20
116.8176372865
 30
0.0
 11
187.2442317522
 21
117.8760753337
 31
0.0
  0
LINE
  5
19A
330
1F
100
AcDbEntity
  8
0
  6
HIDDEN
 62
     7
370
     0
100
AcDbLine
 10
183.1777399814
 20
119.8766590353
 30
0.0
 11
183.3826490063
 21
118.0016460849
 31
0.0
  0
LINE
  5
19B
330
1F
100
AcDbEntity
  8
0
  6
HIDDEN
 62
     7
370
     0
100
AcDbLine
 10
183.3826490063
 20
118.0016460849
 30
0.0
 11
184.9442760689
 21
116.9438265398
 31
0.0
  0
LINE
  5
19C
330
1F
100
AcDbEntity
  8
0
  6
HIDDEN
 62
     7
370
     0
100
AcDbLine
 10
172.5542817704
 20
98.7959369258
 30
0.0
 11
172.6471749892
 21
98.8888301446
 31
0.0
  0
LINE
  5
19D
330
1F
100
AcDbEntity
  8
0
  6
HIDDEN
 62
     7
370
     0
100
AcDbLine
 10
172.6471749892
 20
130.303043707
 30
0.0
 11
172.5542817704
 21
130.3959369258
 31
0.0
  0
ARC
  5
19E
330
1F
100
AcDbEntity
  8
0
  6
HIDDEN
 62
     7
370
     0
100
AcDbCircle
 10
171.940068208
 20
99.5959369258
 30
0.0
 40
1.000000000000018
100
AcDbArc
 50
315.0
 51
0.0
  0
ARC
  5
19F
330
1F
100
AcDbEntity
  8
0
  6
HIDDEN
 62
     7
370
     0
100
AcDbCircle
 10
171.940068208
 20
99.5959369258
 30
0.0
 40
1.0
100
AcDbArc
 50
0.0
 51
52.1052014664
  0
ARC
  5
1A0
330
1F
100
AcDbEntity
  8
0
  6
HIDDEN
 62
     7
370
     0
100
AcDbCircle
 10
171.940068208
 20
129.5959369258
 30
0.0
 40
1.000000000000008
100
AcDbArc
 50
351.8087250651
 51
45.0
  0
ARC
  5
1A1
330
1F
100
AcDbEntity
  8
0
  6
HIDDEN
 62
     7
370
     0
100
AcDbCircle
 10
171.940068208
 20
129.5959369258
 30
0.0
 40
1.000000000000021
100
AcDbArc
 50
307.8947985336
 51
351.8087250651
  0
LINE
  5
1A2
330
1F
100
AcDbEntity
  8
0
  6
HIDDEN
 62
     7
370
     0
100
AcDbLine
 10
172.940068208
 20
99.5959369258
 30
0.0
 11
172.940068208
 21
129.5959369258
 31
0.0
  0
LINE
  5
1A3
330
1F
100
AcDbEntity
  8
0
  6
HIDDEN
 62
     7
370
     0
100
AcDbLine
 10
172.940068208
 20
99.5959369258
 30
0.0
 11
172.940068208
 21
129.5959369258
 31
0.0
  0
LINE
  5
1A4
330
1F
100
AcDbEntity
  8
0
  6
HIDDEN
 62
     7
370
     0
100
AcDbLine
 10
184.5542817704
 20
119.3943729401
 30
0.0
 11
184.5542817704
 21
116.7335298072
 31
0.0
  0
LINE
  5
1A5
330
1F
100
AcDbEntity
  8
0
  6
HIDDEN
 62
     7
370
     0
100
AcDbLine
 10
188.7542817704
 20
116.7334805442
 30
0.0
 11
188.7542817704
 21
119.2502402643
 31
0.0
  0
LINE
  5
1A6
330
1F
100
AcDbEntity
  8
0
  6
HIDDEN
 62
     7
370
     0
100
AcDbLine
 10
148.5542817704
 20
104.4402864015
 30
0.0
 11
149.5813138024
 21
105.0332436217
 31
0.0
  0
LINE
  5
1A7
330
1F
100
AcDbEntity
  8
0
  6
HIDDEN
 62
     7
370
     0
100
AcDbLine
 10
149.5813138024
 20
124.1586302299
 30
0.0
 11
148.5542817704
 21
124.7515874501
 31
0.0
  0
LINE
  5
1A8
330
1F
100
AcDbEntity
  8
0
  6
HIDDEN
 62
     7
370
     0
100
AcDbLine
 10
154.0542817704
 20
104.5959369258
 30
0.0
 11
155.06710024
 21
104.5959369258
 31
0.0
  0
LINE
  5
1A9
330
1F
100
AcDbEntity
  8
0
  6
HIDDEN
 62
     7
370
     0
100
AcDbLine
 10
155.06710024
 20
124.5959369258
 30
0.0
 11
154.0542817704
 21
124.5959369258
 31
0.0
  0
ARC
  5
1AA
330
1F
100
AcDbEntity
  8
0
  6
HIDDEN
 62
     7
370
     0
100
AcDbCircle
 10
154.0542817704
 20
105.5959369258
 30
0.0
 40
1.0
100
AcDbArc
 50
193.3524261238
 51
270.0
  0
ARC
  5
1AB
330
1F
100
AcDbEntity
  8
0
  6
HIDDEN
 62
     7
370
     0
100
AcDbCircle
 10
154.0542817704
 20
123.5959369258
 30
0.0
 40
1.0
100
AcDbArc
 50
90.0
 51
166.6475738762
  0
ARC
  5
1AC
330
1F
100
AcDbEntity
  8
0
  6
HIDDEN
 62
     7
370
     0
100
AcDbCircle
 10
155.06710024
 20
105.5959369258
 30
0.0
 40
0.999999999999998
100
AcDbArc
 50
270.0
 51
315.0
  0
ARC
  5
1AD
330
1F
100
AcDbEntity
  8
0
  6
HIDDEN
 62
     7
370
     0
100
AcDbCircle
 10
155.06710024
 20
123.5959369258
 30
0.0
 40
1.0
100
AcDbArc
 50
45.0
 51
90.0
  0
LINE
  5
1AE
330
1F
100
AcDbEntity
  8
0
  6
HIDDEN
 62
     7
370
     0
100
AcDbLine
 10
155.7742070212
 20
104.8888301446
 30
0.0
 11
156.4813138024
 21
105.5959369258
 31
0.0
  0
LINE
  5
1AF
330
1F
100
AcDbEntity
  8
0
  6
HIDDEN
 62
     7
370
     0
100
AcDbLine
 10
156.4813138024
 20
123.5959369258
 30
0.0
 11
155.7742070212
 21
124.303043707
 31
0.0
  0
LINE
  5
1B0
330
1F
100
AcDbEntity
  8
0
  6
HIDDEN
 62
     7
370
     0
100
AcDbLine
 10
149.5813138024
 20
105.0332436217
 30
0.0
 11
151.6813138024
 21
105.5959369258
 31
0.0
  0
LINE
  5
1B1
330
1F
100
AcDbEntity
  8
0
  6
HIDDEN
 62
     7
370
     0
100
AcDbLine
 10
151.6813138024
 20
123.5959369258
 30
0.0
 11
149.5813138024
 21
124.1586302299
 31
0.0
  0
LINE
  5
1B2
330
1F
100
AcDbEntity
  8
0
  6
HIDDEN
 62
     7
370
     0
100
AcDbLine
 10
153.0813138024
 20
123.8268770335
 30
0.0
 11
152.6813138024
 21
123.5959369258
 31
0.0
  0
LINE
  5
1B3
330
1F
100
AcDbEntity
  8
0
  6
HIDDEN
 62
     7
370
     0
100
AcDbLine
 10
152.6813138024
 20
105.5959369258
 30
0.0
 11
153.0813138024
 21
105.3649968181
 31
0.0
  0
ARC
  5
1B4
330
1F
100
AcDbEntity
  8
0
  6
HIDDEN
 62
     7
370
     0
100
AcDbCircle
 10
163.0542817704
 20
106.0959369258
 30
0.0
 40
0.5
100
AcDbArc
 50
270.0
 51
0.0
  0
ARC
  5
1B5
330
1F
100
AcDbEntity
  8
0
  6
HIDDEN
 62
     7
370
     0
100
AcDbCircle
 10
163.0542817704
 20
123.0959369258
 30
0.0
 40
0.5
100
AcDbArc
 50
0.0
 51
90.0
  0
LINE
  5
1B6
330
1F
100
AcDbEntity
  8
0
  6
HIDDEN
 62
     7
370
     0
100
AcDbLine
 10
156.4813138024
 20
105.5959369258
 30
0.0
 11
163.0542817704
 21
105.5959369258
 31
0.0
  0
LINE
  5
1B7
330
1F
100
AcDbEntity
  8
0
  6
HIDDEN
 62
     7
370
     0
100
AcDbLine
 10
163.0542817704
 20
123.5959369258
 30
0.0
 11
156.4813138024
 21
123.5959369258
 31
0.0
  0
LINE
  5
1B8
330
1F
100
AcDbEntity
  8
0
  6
HIDDEN
 62
     7
370
     0
100
AcDbLine
 10
151.6813138024
 20
105.5959369258
 30
0.0
 11
152.6813138024
 21
105.5959369258
 31
0.0
  0
LINE
  5
1B9
330
1F
100
AcDbEntity
  8
0
  6
HIDDEN
 62
     7
370
     0
100
AcDbLine
 10
152.6813138024
 20
123.5959369258
 30
0.0
 11
151.6813138024
 21
123.5959369258
 31
0.0
  0
LINE
  5
1BA
330
1F
100
AcDbEntity
  8
0
  6
HIDDEN
 62
     7
370
     0
100
AcDbLine
 10
163.5542817704
 20
107.4459369258
 30
0.0
 11
164.4542817704
 21
108.3459369258
 31
0.0
  0
LINE
  5
1BB
330
1F
100
AcDbEntity
  8
0
  6
HIDDEN
 62
     7
370
     0
100
AcDbLine
 10
164.4542817704
 20
120.8459369258
 30
0.0
 11
163.5542817704
 21
121.7459369258
 31
0.0
  0
LINE
  5
1BC
330
1F
100
AcDbEntity
  8
0
  6
HIDDEN
 62
     7
370
     0
100
AcDbLine
 10
189.5542817704
 20
108.3459369258
 30
0.0
 11
193.3096606393
 21
114.5959369258
 31
0.0
  0
LINE
  5
1BD
330
1F
100
AcDbEntity
  8
0
  6
HIDDEN
 62
     7
370
     0
100
AcDbLine
 10
193.3096606393
 20
114.5959369258
 30
0.0
 11
189.5542817704
 21
120.8459369258
 31
0.0
  0
LINE
  5
1BE
330
1F
100
AcDbEntity
  8
0
  6
HIDDEN
 62
     7
370
     0
100
AcDbLine
 10
164.4542817704
 20
108.3459369258
 30
0.0
 11
189.5542817704
 21
108.3459369258
 31
0.0
  0
LINE
  5
1BF
330
1F
100
AcDbEntity
  8
0
  6
HIDDEN
 62
     7
370
     0
100
AcDbLine
 10
189.5542817704
 20
120.8459369258
 30
0.0
 11
164.4542817704
 21
120.8459369258
 31
0.0
  0
LINE
  5
1C0
330
1F
100
AcDbEntity
  8
0
  6
HIDDEN
 62
     7
370
     0
100
AcDbLine
 10
201.8521527417
 20
126.118058536
 30
0.0
 11
201.3734753514
 21
125.4842209309
 31
0.0
  0
LINE
  5
1C1
330
1F
100
AcDbEntity
  8
0
  6
HIDDEN
 62
     7
370
     0
100
AcDbLine
 10
206.9594880785
 20
121.2656356452
 30
0.0
 11
207.4381654688
 21
121.8994732504
 31
0.0
  0
LINE
  5
1C2
330
1F
100
AcDbEntity
  8
0
  6
HIDDEN
 62
     7
370
     0
100
AcDbLine
 10
216.7959306113
 20
123.264686766
 30
0.0
 11
217.7596830426
 21
124.5408333845
 31
0.0
  0
LINE
  5
1C3
330
1F
100
AcDbEntity
  8
0
  6
HIDDEN
 62
     7
370
     0
100
AcDbLine
 10
209.2812216165
 20
131.9352166598
 30
0.0
 11
204.0496253383
 21
126.5068412251
 31
0.0
  0
LINE
  5
1C4
330
1F
100
AcDbEntity
  8
0
  6
HIDDEN
 62
     7
370
     0
100
AcDbLine
 10
200.7709091527
 20
125.8478635838
 30
0.0
 11
198.6859821269
 21
123.0871207962
 31
0.0
  0
LINE
  5
1C5
330
1F
100
AcDbEntity
  8
0
  6
HIDDEN
 62
     7
370
     0
100
AcDbLine
 10
205.3891973994
 20
118.0248184535
 30
0.0
 11
207.4741244252
 21
120.7855612411
 31
0.0
  0
LINE
  5
1C6
330
1F
100
AcDbEntity
  8
0
  6
HIDDEN
 62
     7
370
     0
100
AcDbLine
 10
184.5542817704
 20
112.4583933074
 30
0.0
 11
184.5542817704
 21
109.8898574933
 31
0.0
  0
LINE
  5
1C7
330
1F
100
AcDbEntity
  8
0
  6
HIDDEN
 62
     7
370
     0
100
AcDbLine
 10
188.7542817704
 20
109.8898574933
 30
0.0
 11
188.7542817704
 21
112.4583440444
 31
0.0
  0
LINE
  5
1C8
330
1F
100
AcDbEntity
  8
0
  6
HIDDEN
 62
     7
370
     0
100
AcDbLine
 10
211.9785381326
 20
135.5145557447
 30
0.0
 11
211.3931787383
 21
134.7394558462
 31
0.0
  0
LINE
  5
1C9
330
1F
100
AcDbEntity
  8
0
  6
HIDDEN
 62
     7
370
     0
100
AcDbLine
 10
216.73979092
 20
130.7016670728
 30
0.0
 11
217.3251503143
 21
131.4767669713
 31
0.0
  0
LINE
  5
1CA
330
1F
100
AcDbEntity
  8
0
  6
HIDDEN
 62
     7
370
     0
100
AcDbLine
 10
170.8542186813
 20
103.5940624676
 30
0.0
 11
170.8542186813
 21
103.2521892444
 31
0.0
  0
LINE
  5
1CB
330
1F
100
AcDbEntity
  8
0
  6
HIDDEN
 62
     7
370
     0
100
AcDbLine
 10
210.0062081551
 20
125.0890338028
 30
0.0
 11
214.570906168
 21
129.8254265293
 31
0.0
  0
LINE
  5
1CC
330
1F
100
AcDbEntity
  8
0
  6
HIDDEN
 62
     7
370
     0
100
AcDbLine
 10
184.1542817704
 20
109.8076549192
 30
0.0
 11
184.1542817704
 21
107.7557561151
 31
0.0
  0
LINE
  5
1CD
330
1F
100
AcDbEntity
  8
0
  6
HIDDEN
 62
     7
370
     0
100
AcDbLine
 10
189.1542817704
 20
107.7555340593
 30
0.0
 11
189.1542817704
 21
109.8076549192
 31
0.0
  0
LINE
  5
1CE
330
1F
100
AcDbEntity
  8
VERMASSUNG
100
AcDbLine
 10
222.5542817704
 20
141.5959369258
 30
0.0
 11
230.2996232885
 21
141.5959369258
 31
0.0
  0
LINE
  5
1CF
330
1F
100
AcDbEntity
  8
VERMASSUNG
  6
CENTERX2
100
AcDbLine
 10
222.5542817704
 20
141.5959369258
 30
0.0
 11
222.5542817704
 21
114.5959369258
 31
0.0
  0
LINE
  5
1D0
330
1F
100
AcDbEntity
  8
VERMASSUNG
  6
CENTERX2
100
AcDbLine
 10
222.5542817704
 20
114.5959369258
 30
0.0
 11
145.5790555168
 21
114.5959369258
 31
0.0
  0
DIMENSION
  5
1D1
330
1F
100
AcDbEntity
  8
VERMASSUNG
100
AcDbDimension
  2
_D
 10
230.2996232885
 20
141.5959369258
 30
0.0
 11
231.6397928812
 21
131.7162847333
 31
0.0
 70
   162
  1
<>
 71
     1
 42
-1.0
  3
SLDDIMSTYLE0
100
AcDb2LineAngularDimension
 13
221.8410862989
 23
133.0701119937
 33
0.0
 14
222.5527679879
 24
141.1594670617
 34
0.0
 15
222.5542817704
 25
141.5959369258
 35
0.0
 16
231.6397928812
 26
131.7162847333
 36
0.0
  0
DIMENSION
  5
1DC
330
1F
100
AcDbEntity
  8
VERMASSUNG
100
AcDbDimension
  2
_D_1
 10
222.5542817704
 20
156.4187855049
 30
0.0
 11
185.5542817704
 21
156.4187855049
 31
0.0
 70
   160
  1
<>
 71
     2
 42
-1.0
  3
SLDDIMSTYLE1
100
AcDbAlignedDimension
 13
148.5542817704
 23
127.2274419079
 33
0.0
 14
222.5542817704
 24
141.5959369258
 34
0.0
100
AcDbRotatedDimension
  0
DIMENSION
  5
1E7
330
1F
100
AcDbEntity
  8
VERMASSUNG
100
AcDbDimension
  2
_D_2
 10
172.5542817704
 20
149.6420581497
 30
0.0
 11
197.5542817704
 21
149.6420581497
 31
0.0
 70
   160
  1
<>
 71
     2
 42
-1.0
  3
SLDDIMSTYLE2
100
AcDbAlignedDimension
 13
222.5542817704
 23
141.5959369258
 33
0.0
 14
172.5542817704
 24
134.2959369258
 34
0.0
100
AcDbRotatedDimension
  0
DIMENSION
  5
1F4
330
1F
100
AcDbEntity
  8
VERMASSUNG
100
AcDbDimension
  2
_D_3
 10
240.2996232885
 20
114.5959369258
 30
0.0
 11
240.2996232885
 21
128.0959369258
 31
0.0
 70
   160
  1
<>
 71
     2
 42
-1.0
  3
SLDDIMSTYLE2
100
AcDbAlignedDimension
 13
222.5542817704
 23
141.5959369258
 33
0.0
 14
222.5542817704
 24
114.5959369258
 34
0.0
 50
90.0
100
AcDbRotatedDimension
  0
DIMENSION
  5
200
330
1F
100
AcDbEntity
  8
VERMASSUNG
100
AcDbDimension
  2
_D_4
 10
139.9640730029
 20
94.5959369258
 30
0.0
 11
139.9640730029
 21
114.5959369258
 31
0.0
 70
   160
  1
PSC%%c<>
 71
     2
 42
-1.0
  3
SLDDIMSTYLE1
100
AcDbAlignedDimension
 13
172.8542817704
 23
134.5959369258
 33
0.0
 14
172.8542817704
 24
94.5959369258
 34
0.0
 50
90.0
100
AcDbRotatedDimension
  0
LINE
  5
20C
330
1F
100
AcDbEntity
  8
0
  6
Continuous
 62
     7
370
    15
100
AcDbLine
 10
89.9523265484
 20
140.9370585696
 30
0.0
 11
85.264472656
 21
141.5958947853
 31
0.0
  0
LINE
  5
20D
330
1F
100
AcDbEntity
  8
0
  6
Continuous
 62
     7
370
    15
100
AcDbLine
 10
82.5682968656
 20
125.5282390282
 30
0.0
 11
82.8901272557
 21
125.4830084161
 31
0.0
  0
LINE
  5
20E
330
1F
100
AcDbEntity
  8
0
  6
Continuous
 62
     7
370
    15
100
AcDbLine
 10
82.9070158592
 20
128.8674150945
 30
0.0
 11
83.0488630394
 21
128.5063683406
 31
0.0
  0
SPLINE
  5
20F
330
1F
100
AcDbEntity
  8
0
  6
Continuous
 62
     7
370
    15
100
AcDbSpline
210
0.0
220
0.0
230
1.0
 70
     8
 71
     3
 72
     9
 73
     5
 74
     0
 42
0.00000001
 43
0.00000001
 12
1.0
 22
0.0
 32
0.0
 13
1.0
 23
0.0
 33
0.0
 40
0.0
 40
0.0
 40
0.0
 40
0.0
 40
0.6944221424277653
 40
1.0
 40
1.0
 40
1.0
 40
1.0
 10
84.44087550145585
 20
139.543125720414
 30
0.0
 10
84.41271756699084
 20
139.4762226367881
 30
0.0
 10
84.37216883914274
 20
139.3798791023036
 30
0.0
 10
84.29620920478968
 20
139.293288546183
 30
0.0
 10
84.2729976224621
 20
139.2668283895576
 30
0.0
  0
LINE
  5
210
330
1F
100
AcDbEntity
  8
0
  6
Continuous
 62
     7
370
    15
100
AcDbLine
 10
84.2772644768
 20
139.2652153389
 30
0.0
 11
84.1023191401
 21
139.0367991642
 31
0.0
  0
SPLINE
  5
211
330
1F
100
AcDbEntity
  8
0
  6
Continuous
 62
     7
370
    15
100
AcDbSpline
210
0.0
220
0.0
230
1.0
 70
     8
 71
     3
 72
     9
 73
     5
 74
     0
 42
0.00000001
 43
0.00000001
 12
1.0
 22
0.0
 32
0.0
 13
1.0
 23
0.0
 33
0.0
 40
0.0
 40
0.0
 40
0.0
 40
0.0
 40
0.830810437223467
 40
0.9999999999999999
 40
0.9999999999999999
 40
0.9999999999999999
 40
0.9999999999999999
 10
84.41548130343679
 20
139.4918377862299
 30
0.0
 10
84.40741135807623
 20
139.4649360615288
 30
0.0
 10
84.39769801674231
 20
139.4325559619348
 30
0.0
 10
84.35641125793475
 20
139.3765401959319
 30
0.0
 10
84.34942596926365
 20
139.3670629129732
 30
0.0
  0
LINE
  5
212
330
1F
100
AcDbEntity
  8
0
  6
Continuous
 62
     7
370
    15
100
AcDbLine
 10
94.2680506791
 20
140.26989633
 30
0.0
 11
89.9657883505
 21
140.8745388851
 31
0.0
  0
LINE
  5
213
330
1F
100
AcDbEntity
  8
0
  6
Continuous
 62
     7
370
    15
100
AcDbLine
 10
94.5288275192
 20
139.9263835863
 30
0.0
 11
94.2781592543
 21
140.2628816084
 31
0.0
  0
LWPOLYLINE
  5
214
330
1F
100
AcDbEntity
  8
0
  6
Continuous
 62
     7
370
    15
100
AcDbPolyline
 90
       37
 70
   128
 43
0.0
 10
81.7715653042
 20
127.4338879974
 10
81.8139977577
 20
127.2893346266
 10
81.8389523133
 20
127.0451036633
 10
81.8456711071
 20
126.7086149544
 10
81.8339497141
 20
126.2900925593
 10
81.8041443649
 20
125.8022536875
 10
81.7571607708
 20
125.2599203379
 10
81.6944261837
 20
124.6795713321
 10
81.6178472537
 20
124.0788403318
 10
81.5297504245
 20
123.4759793968
 10
81.4328125502
 20
122.8893076421
 10
81.3299791711
 20
122.3366501161
 10
81.2243741761
 20
121.8347985649
 10
81.1192073683
 20
121.3990019985
 10
81.0176736499
 20
121.0425019615
 10
80.9228580269
 20
120.776130201
 10
80.8376415457
 20
120.6079803758
 10
80.7646137486
 20
120.5431621873
 10
80.7059925805
 20
120.5836439856
 10
80.663560127
 20
120.7281968907
 10
80.6386053386
 20
120.972427854
 10
80.6318867776
 20
121.3089165629
 10
80.6436079378
 20
121.7274389581
 10
80.6734135198
 20
122.2152778299
 10
80.7203973467
 20
122.7576111794
 10
80.783131701
 20
123.3379601852
 10
80.859710631
 20
123.9386921168
 10
80.947807693
 20
124.5415521205
 10
81.0447453345
 20
125.1282238753
 10
81.1475787136
 20
125.6808818669
 10
81.2531832429
 20
126.1827334181
 10
81.3583505164
 20
126.6185299844
 10
81.459884002
 20
126.9750300215
 10
81.554699625
 20
127.2414013163
 10
81.6399161062
 20
127.4095516072
 10
81.7129443689
 20
127.4743697957
 10
81.7715653042
 20
127.4338879974
  0
LWPOLYLINE
  5
215
330
1F
100
AcDbEntity
  8
0
  6
Continuous
 62
     7
370
    15
100
AcDbPolyline
 90
       28
 70
   128
 43
0.0
 10
81.543228292
 20
125.9659783334
 10
81.5733661233
 20
125.843010226
 10
81.5854663319
 20
125.6211580128
 10
81.5788765262
 20
125.3123817385
 10
81.5539520058
 20
124.9333260001
 10
81.5120364363
 20
124.5044277401
 10
81.4553894392
 20
124.0488079728
 10
81.387065054
 20
123.591030331
 10
81.310745963
 20
123.1557720692
 10
81.2305479134
 20
122.7664987908
 10
81.1507931734
 20
122.4441969187
 10
81.0757816593
 20
122.2062412069
 10
81.0095576393
 20
122.0654601582
 10
80.9556908729
 20
122.0294431203
 10
80.9170856896
 20
122.1001319007
 10
80.8958226639
 20
122.2737155274
 10
80.8930487196
 20
122.540836537
 10
80.908913334
 20
122.8870938883
 10
80.9425606216
 20
123.2938201518
 10
80.9921777631
 20
123.7390901313
 10
81.055088603
 20
124.1988980562
 10
81.1279026615
 20
124.6484558449
 10
81.2066939483
 20
125.0635286213
 10
81.2872147011
 20
125.4217376352
 10
81.3651249568
 20
125.7037737758
 10
81.4362232863
 20
125.8944313393
 10
81.4966772973
 20
125.9834322498
 10
81.543228292
 20
125.9659783334
  0
LINE
  5
216
330
1F
100
AcDbEntity
  8
0
  6
Continuous
 62
     7
370
    15
100
AcDbLine
 10
81.5016670908
 20
124.4161364974
 30
0.0
 11
81.3586732197
 21
124.2353397773
 31
0.0
  0
LINE
  5
217
330
1F
100
AcDbEntity
  8
0
  6
Continuous
 62
     7
370
    15
100
AcDbLine
 10
81.3586732197
 20
124.2353397773
 30
0.0
 11
81.4415646541
 21
123.978928046
 31
0.0
  0
LINE
  5
218
330
1F
100
AcDbEntity
  8
0
  6
Continuous
 62
     7
370
    15
100
AcDbLine
 10
81.4778405997
 20
124.2185918034
 30
0.0
 11
81.3586732197
 21
124.2353397773
 31
0.0
  0
ELLIPSE
  5
219
330
1F
100
AcDbEntity
  8
0
  6
Continuous
 62
     7
370
    15
100
AcDbEllipse
 10
83.8452927986
 20
134.4063837971
 30
0.0
 11
0.3276187943153985
 21
2.328679888184524
 31
0.0
210
0.0
220
0.0
230
1.0
 40
0.1045283628
 41
0.3692499247563849
 42
1.139330894868305
  0
LWPOLYLINE
  5
21A
330
1F
100
AcDbEntity
  8
0
  6
Continuous
 62
     7
370
    15
100
AcDbPolyline
 90
        9
 70
   128
 43
0.0
 10
82.554615737
 20
125.6032114268
 10
82.5566895596
 20
125.5606173889
 10
82.5619526963
 20
125.5352667884
 10
82.5701557855
 20
125.5283619628
 10
82.5809100001
 20
125.5402298064
 10
82.5937052081
 20
125.5703078003
 10
82.6079351186
 20
125.6171700896
 10
82.6229252211
 20
125.6785945387
 10
82.6379644508
 20
125.7516698332
  0
LINE
  5
21B
330
1F
100
AcDbEntity
  8
0
  6
Continuous
 62
     7
370
    15
100
AcDbLine
 10
82.5138501181
 20
130.3646362738
 30
0.0
 11
82.554615737
 21
125.6032114268
 31
0.0
  0
LINE
  5
21C
330
1F
100
AcDbEntity
  8
0
  6
Continuous
 62
     7
370
    15
100
AcDbLine
 10
82.9624151169
 20
137.0934288369
 30
0.0
 11
82.5138501181
 21
130.3646362738
 31
0.0
  0
ARC
  5
21D
330
1F
100
AcDbEntity
  8
0
  6
Continuous
 62
     7
370
    15
100
AcDbCircle
 10
85.6603251408
 20
136.9372039738
 30
0.0
 40
2.702429407912889
100
AcDbArc
 50
164.1054086343
 51
176.6859380877
  0
LINE
  5
21E
330
1F
100
AcDbEntity
  8
0
  6
Continuous
 62
     7
370
    15
100
AcDbLine
 10
84.3144036421
 20
141.0052462832
 30
0.0
 11
83.0612172662
 21
137.6773140744
 31
0.0
  0
LINE
  5
21F
330
1F
100
AcDbEntity
  8
0
  6
Continuous
 62
     7
370
    15
100
AcDbLine
 10
85.2606521816
 20
141.5948945449
 30
0.0
 11
84.3144036421
 21
141.0052462832
 31
0.0
  0
ARC
  5
220
330
1F
100
AcDbEntity
  8
0
  6
Continuous
 62
     7
370
    15
100
AcDbCircle
 10
84.3695290499
 20
141.4085337463
 30
0.0
 40
0.9104014406169547
100
AcDbArc
 50
344.1226949599
 51
11.8120422957
  0
LINE
  5
221
330
1F
100
AcDbEntity
  8
0
  6
Continuous
 62
     7
370
    15
100
AcDbLine
 10
84.0327778655
 20
133.0701115892
 30
0.0
 11
85.2451984478
 21
141.1594677136
 31
0.0
  0
LINE
  5
222
330
1F
100
AcDbEntity
  8
0
  6
Continuous
 62
     7
370
    15
100
AcDbLine
 10
82.6379644508
 20
125.7516698332
 30
0.0
 11
84.0327778655
 21
133.0701115892
 31
0.0
  0
LWPOLYLINE
  5
223
330
1F
100
AcDbEntity
  8
0
  6
Continuous
 62
     7
370
    15
100
AcDbPolyline
 90
        9
 70
   128
 43
0.0
 10
82.5580832838
 20
125.6192683593
 10
82.5600534967
 20
125.5788042561
 10
82.5650533019
 20
125.5547211857
 10
82.5728463764
 20
125.5481609494
 10
82.5830627522
 20
125.5594355405
 10
82.5952183745
 20
125.5880094484
 10
82.6087367545
 20
125.6325285302
 10
82.6229771423
 20
125.6908824087
 10
82.6372645619
 20
125.7603041247
  0
LINE
  5
224
330
1F
100
AcDbEntity
  8
0
  6
Continuous
 62
     7
370
    15
100
AcDbLine
 10
82.6372645619
 20
125.7603041247
 30
0.0
 11
84.0314789033
 21
133.0756026671
 31
0.0
  0
LINE
  5
225
330
1F
100
AcDbEntity
  8
0
  6
Continuous
 62
     7
370
    15
100
AcDbLine
 10
84.0314789033
 20
133.0756026671
 30
0.0
 11
85.2433786944
 21
141.1614830957
 31
0.0
  0
ARC
  5
226
330
1F
100
AcDbEntity
  8
0
  6
Continuous
 62
     7
370
    15
100
AcDbCircle
 10
84.4114910793
 20
141.3980962092
 30
0.0
 40
0.8648830959358155
100
AcDbArc
 50
344.1227011644
 51
11.8120429039
  0
LINE
  5
227
330
1F
100
AcDbEntity
  8
0
  6
Continuous
 62
     7
370
    15
100
AcDbLine
 10
85.2580597434
 20
141.5751393304
 30
0.0
 11
84.3122175951
 21
140.9857443885
 31
0.0
  0
LINE
  5
228
330
1F
100
AcDbEntity
  8
0
  6
Continuous
 62
     7
370
    15
100
AcDbLine
 10
84.3122175951
 20
140.9857443885
 30
0.0
 11
83.0595695238
 21
137.6592426912
 31
0.0
  0
ARC
  5
229
330
1F
100
AcDbEntity
  8
0
  6
Continuous
 62
     7
370
    15
100
AcDbCircle
 10
85.5287760602
 20
136.9561285772
 30
0.0
 40
2.567362533212304
100
AcDbArc
 50
164.1055347171
 51
176.685818764
  0
LINE
  5
22A
330
1F
100
AcDbEntity
  8
0
  6
Continuous
 62
     7
370
    15
100
AcDbLine
 10
82.9657073422
 20
137.104550691
 30
0.0
 11
82.5173351272
 21
130.3786470906
 31
0.0
  0
LINE
  5
22B
330
1F
100
AcDbEntity
  8
0
  6
Continuous
 62
     7
370
    15
100
AcDbLine
 10
82.5173351272
 20
130.3786470906
 30
0.0
 11
82.5580832838
 21
125.6192683593
 31
0.0
  0
LINE
  5
22C
330
1F
100
AcDbEntity
  8
0
  6
Continuous
 62
     7
370
    15
100
AcDbLine
 10
88.7206319543
 20
132.4112772361
 30
0.0
 11
84.0327778655
 21
133.0701115892
 31
0.0
  0
LINE
  5
22D
330
1F
100
AcDbEntity
  8
0
  6
Continuous
 62
     7
370
    15
100
AcDbLine
 10
88.7206319543
 20
132.4112772361
 30
0.0
 11
89.933052362
 21
140.5006314979
 31
0.0
  0
LINE
  5
22E
330
1F
100
AcDbEntity
  8
0
  6
Continuous
 62
     7
370
    15
100
AcDbLine
 10
88.0607484664
 20
128.9489365534
 30
0.0
 11
88.7206319543
 21
132.4112772361
 31
0.0
  0
ARC
  5
22F
330
1F
100
AcDbEntity
  8
0
  6
Continuous
 62
     7
370
    15
100
AcDbCircle
 10
75.4688286164
 20
135.0595473969
 30
0.0
 40
8.552288959875826
100
AcDbArc
 50
349.2714175587
 51
351.519859466
  0
LINE
  5
230
330
1F
100
AcDbEntity
  8
0
  6
Continuous
 62
     7
370
    15
100
AcDbLine
 10
83.0977032251
 20
129.4067970828
 30
0.0
 11
83.8716240191
 21
133.4674808548
 31
0.0
  0
LWPOLYLINE
  5
231
330
1F
100
AcDbEntity
  8
0
  6
Continuous
 62
     7
370
    15
100
AcDbPolyline
 90
        9
 70
   128
 43
0.0
 10
82.8893316734
 20
129.035651067
 10
82.8945161133
 20
128.9291664378
 10
82.9076738386
 20
128.8657899366
 10
82.9281815617
 20
128.8485269413
 10
82.9550669818
 20
128.8781970159
 10
82.9870553511
 20
128.9533910693
 10
83.0226302436
 20
129.0705467925
 10
83.0601050342
 20
129.2241088466
 10
83.0977032251
 20
129.4067970828
  0
LINE
  5
232
330
1F
100
AcDbEntity
  8
0
  6
Continuous
 62
     7
370
    15
100
AcDbLine
 10
82.866712642
 20
131.6775570975
 30
0.0
 11
82.8893316734
 21
129.035651067
 31
0.0
  0
ARC
  5
233
330
1F
100
AcDbEntity
  8
0
  6
Continuous
 62
     7
370
    15
100
AcDbCircle
 10
86.254670907
 20
131.6808490764
 30
0.0
 40
3.387959864360276
100
AcDbArc
 50
175.8790570936
 51
180.055672599
  0
LINE
  5
234
330
1F
100
AcDbEntity
  8
0
  6
Continuous
 62
     7
370
    15
100
AcDbLine
 10
83.124359307
 20
135.6578286157
 30
0.0
 11
82.8754703338
 21
131.9243147389
 31
0.0
  0
ARC
  5
235
330
1F
100
AcDbEntity
  8
0
  6
Continuous
 62
     7
370
    15
100
AcDbCircle
 10
89.8692122519
 20
135.2672523863
 30
0.0
 40
6.756152088265468
100
AcDbArc
 50
164.105466076
 51
176.685857135
  0
LINE
  5
236
330
1F
100
AcDbEntity
  8
0
  6
Continuous
 62
     7
370
    15
100
AcDbLine
 10
84.0667032693
 20
138.9640647338
 30
0.0
 11
83.3713651459
 21
137.117542641
 31
0.0
  0
ARC
  5
237
330
1F
100
AcDbEntity
  8
0
  6
Continuous
 62
     7
370
    15
100
AcDbCircle
 10
84.2538963323
 20
138.9142945939
 30
0.0
 40
0.1936964368377135
100
AcDbArc
 50
136.2669992622
 51
165.1108862612
  0
LINE
  5
238
330
1F
100
AcDbEntity
  8
0
  6
Continuous
 62
     7
370
    15
100
AcDbLine
 10
84.6389692101
 20
139.375366585
 30
0.0
 11
84.1139372728
 21
139.0481966899
 31
0.0
  0
ARC
  5
239
330
1F
100
AcDbEntity
  8
0
  6
Continuous
 62
     7
370
    15
100
AcDbCircle
 10
82.4111733426
 20
138.9094641861
 30
0.0
 40
2.275991975447823
100
AcDbArc
 50
344.1226222512
 51
11.8121138569
  0
LINE
  5
23A
330
1F
100
AcDbEntity
  8
0
  6
Continuous
 62
     7
370
    15
100
AcDbLine
 10
83.9276157143
 20
133.7983704523
 30
0.0
 11
84.6003348647
 21
138.2867995069
 31
0.0
  0
LWPOLYLINE
  5
23B
330
1F
100
AcDbEntity
  8
0
  6
Continuous
 62
     7
370
    15
100
AcDbPolyline
 90
       32
 70
   128
 43
0.0
 10
83.9744019844
 20
135.4667398498
 10
84.0222426281
 20
135.9506140814
 10
84.0536294795
 20
136.3879277722
 10
84.0672775461
 20
136.760777177
 10
84.062628151
 20
137.0538979189
 10
84.0398715167
 20
137.2552908377
 10
83.9999393151
 20
137.3567081408
 10
83.9444665993
 20
137.3539998547
 10
83.8757241667
 20
137.2472758756
 10
83.7965263576
 20
137.0409059689
 10
83.710115688
 20
136.7433390931
 10
83.6200297867
 20
136.3667569474
 10
83.5299566911
 20
135.9265785084
 10
83.4435840893
 20
135.4408230052
 10
83.3644480967
 20
134.9293779002
 10
83.2957885518
 20
134.4131811873
 10
83.2404160696
 20
133.9133683012
 10
83.2005980714
 20
133.4503985361
 10
83.1779646045
 20
133.0432280318
 10
83.1734421021
 20
132.7085255996
 10
83.1872156645
 20
132.4599928574
 10
83.2187218415
 20
132.3078072981
 10
83.2666702858
 20
132.2581994698
 10
83.329098235
 20
132.3131977932
 10
83.4034496742
 20
132.4705521927
 10
83.486680925
 20
132.723819779
 10
83.5753842779
 20
133.0626312063
 10
83.66592839
 20
133.473117219
 10
83.754606248
 20
133.9384730325
 10
83.8377873237
 20
134.4396456496
 10
83.9120662362
 20
134.9561143086
 10
83.9744019844
 20
135.4667398498
  0
ARC
  5
23C
330
1F
100
AcDbEntity
  8
0
  6
Continuous
 62
     7
370
    15
100
AcDbCircle
 10
88.9185191618
 20
140.7640760709
 30
0.0
 40
1.048179687518745
100
AcDbArc
 50
345.4434566239
 51
9.4990550954
  0
LINE
  5
23D
330
1F
100
AcDbEntity
  8
0
  6
Continuous
 62
     7
370
    15
100
AcDbLine
 10
84.4402604793
 20
140.6916271315
 30
0.0
 11
84.3122175951
 21
140.9857443885
 31
0.0
  0
LINE
  5
23E
330
1F
100
AcDbEntity
  8
0
  6
Continuous
 62
     7
370
    15
100
AcDbLine
 10
82.7244263432
 20
130.5516775117
 30
0.0
 11
82.5173351272
 21
130.3786470906
 31
0.0
  0
LINE
  5
23F
330
1F
100
AcDbEntity
  8
0
  6
Continuous
 62
     7
370
    15
100
AcDbLine
 10
83.0787021491
 20
128.4054800288
 30
0.0
 11
83.0775170411
 21
128.4462635756
 31
0.0
  0
LINE
  5
240
330
1F
100
AcDbEntity
  8
0
  6
Continuous
 62
     7
370
    15
100
AcDbLine
 10
84.2791458649
 20
139.2637717889
 30
0.0
 11
84.278157848
 21
139.2625666575
 31
0.0
  0
SPLINE
  5
241
330
1F
100
AcDbEntity
  8
0
  6
Continuous
 62
     7
370
    15
100
AcDbSpline
210
0.0
220
0.0
230
1.0
 70
     8
 71
     3
 72
    10
 73
     6
 74
     0
 42
0.00000001
 43
0.00000001
 12
1.0
 22
0.0
 32
0.0
 13
1.0
 23
0.0
 33
0.0
 40
0.0
 40
0.0
 40
0.0
 40
0.0
 40
0.3544712817996364
 40
0.7088948912815011
 40
1.0
 40
1.0
 40
1.0
 40
1.0
 10
84.44026047931064
 20
140.6916271314943
 30
0.0
 10
84.49046421089727
 20
140.5341017852379
 30
0.0
 10
84.59086492224505
 20
140.2190722780754
 30
0.0
 10
84.54887442054958
 20
139.7445835293125
 30
0.0
 10
84.4004549439072
 20
139.4893063362846
 30
0.0
 10
84.33352427658636
 20
139.374187530669
 30
0.0
  0
LINE
  5
242
330
1F
100
AcDbEntity
  8
0
  6
Continuous
 62
     7
370
    15
100
AcDbLine
 10
83.3927429571
 20
137.1743123398
 30
0.0
 11
83.2443299527
 21
137.2854936288
 31
0.0
  0
LINE
  5
243
330
1F
100
AcDbEntity
  8
0
  6
Continuous
 62
     7
370
    15
100
AcDbLine
 10
82.7244263432
 20
130.5516775117
 30
0.0
 11
82.8747958234
 21
130.7334474639
 31
0.0
  0
LINE
  5
244
330
1F
100
AcDbEntity
  8
0
  6
Continuous
 62
     7
370
    15
100
AcDbLine
 10
88.7206319543
 20
132.4112772361
 30
0.0
 11
89.8274641308
 21
139.7961399869
 31
0.0
  0
LINE
  5
245
330
1F
100
AcDbEntity
  8
0
  6
Continuous
 62
     7
370
    15
100
AcDbLine
 10
93.113032804
 20
131.7939649687
 30
0.0
 11
94.2198649804
 21
139.1788277195
 31
0.0
  0
LINE
  5
246
330
1F
100
AcDbEntity
  8
0
  6
Continuous
 62
     7
370
    15
100
AcDbLine
 10
93.113032804
 20
131.7939649687
 30
0.0
 11
88.7206319543
 21
132.4112772361
 31
0.0
  0
LINE
  5
247
330
1F
100
AcDbEntity
  8
0
  6
Continuous
 62
     7
370
    15
100
AcDbLine
 10
93.3890004466
 20
131.8347997383
 30
0.0
 11
93.113032804
 21
131.7939649687
 31
0.0
  0
LINE
  5
248
330
1F
100
AcDbEntity
  8
0
  6
Continuous
 62
     7
370
    15
100
AcDbLine
 10
94.4880216206
 20
139.1675456778
 30
0.0
 11
93.3890004466
 21
131.8347997383
 31
0.0
  0
LINE
  5
249
330
1F
100
AcDbEntity
  8
0
  6
Continuous
 62
     7
370
    15
100
AcDbLine
 10
92.453149316
 20
128.3316252173
 30
0.0
 11
93.113032804
 21
131.7939649687
 31
0.0
  0
LINE
  5
24A
330
1F
100
AcDbEntity
  8
0
  6
Continuous
 62
     7
370
    15
100
AcDbLine
 10
93.3890004466
 20
131.8347997383
 30
0.0
 11
92.714338732
 21
128.294917138
 31
0.0
  0
ARC
  5
24B
330
1F
100
AcDbEntity
  8
0
  6
Continuous
 62
     7
370
    15
100
AcDbCircle
 10
91.6835204977
 20
139.8374405797
 30
0.0
 40
2.620460691262108
100
AcDbArc
 50
345.4434895073
 51
9.4990021174
  0
ARC
  5
24C
330
1F
100
AcDbEntity
  8
0
  6
Continuous
 62
     7
370
    15
100
AcDbCircle
 10
92.4094261236
 20
139.6598365864
 30
0.0
 40
2.136096809387897
100
AcDbArc
 50
346.6756781927
 51
7.1681820856
  0
SPLINE
  5
24D
330
1F
100
AcDbEntity
  8
0
  6
Continuous
 62
     7
370
    15
100
AcDbSpline
210
0.0
220
0.0
230
1.0
 70
     8
 71
     3
 72
    38
 73
    34
 74
     0
 42
0.00000001
 43
0.00000001
 12
1.0
 22
0.0
 32
0.0
 13
1.0
 23
0.0
 33
0.0
 40
0.0
 40
0.0
 40
0.0
 40
0.0
 40
0.026061307789087
 40
0.0525269154715913
 40
0.0793972300878027
 40
0.1066726405120117
 40
0.1343535184983207
 40
0.1624402196533593
 40
0.1909330843418516
 40
0.2198324385304354
 40
0.2491385945746512
 40
0.2788518519535613
 40
0.3089724979560707
 40
0.3395008083226542
 40
0.3704370478458973
 40
0.4017814709329091
 40
0.4335343221324736
 40
0.4656958366295099
 40
0.4982662407092164
 40
0.5164733464599676
 40
0.5373928854484937
 40
0.561024920136943
 40
0.5873694804201454
 40
0.6164265743257433
 40
0.6481961941466156
 40
0.6826783201613728
 40
0.7198729229982321
 40
0.759779965195566
 40
0.8023994022658523
 40
0.8477311834413419
 40
0.8957752522092611
 40
0.9465315467040235
 40
1.0
 40
1.0
 40
1.0
 40
1.0
 10
94.51558576914043
 20
139.802281681762
 30
0.0
 10
94.65184503314889
 20
139.7536251043578
 30
0.0
 10
94.92647740772952
 20
139.6555571198526
 30
0.0
 10
95.33677596987756
 20
139.4946230942759
 30
0.0
 10
95.74939922456156
 20
139.3217654216011
 30
0.0
 10
96.16358377939352
 20
139.1357169891409
 30
0.0
 10
96.57896851075623
 20
138.9364028291075
 30
0.0
 10
96.9950537272555
 20
138.7234341529628
 30
0.0
 10
97.41134914344674
 20
138.4965226195077
 30
0.0
 10
97.82733316878434
 20
138.2553684668965
 30
0.0
 10
98.24246395852742
 20
137.9996928282537
 30
0.0
 10
98.65617635957535
 20
137.7292306171009
 30
0.0
 10
99.06788282507829
 20
137.4437342481893
 30
0.0
 10
99.47697323431183
 20
137.1429744808313
 30
0.0
 10
99.88281546886377
 20
136.8267419438839
 30
0.0
 10
100.2847544924348
 20
136.4948490929938
 30
0.0
 10
100.6821172226543
 20
136.1471298955754
 30
0.0
 10
101.0741958361928
 20
135.7834485175215
 30
0.0
 10
101.4019386983697
 20
135.4610896909661
 30
0.0
 10
101.6786875899715
 20
135.1760565468807
 30
0.0
 10
101.9164294877927
 20
134.9223373288974
 30
0.0
 10
102.179176600003
 20
134.6303872039571
 30
0.0
 10
102.4646951953767
 20
134.2984081501735
 30
0.0
 10
102.7704269750409
 20
133.9244878030402
 30
0.0
 10
103.0934577141551
 20
133.5066344071557
 30
0.0
 10
103.4305000470378
 20
133.0428147702109
 30
0.0
 10
103.7778674712987
 20
132.5309962666793
 30
0.0
 10
104.1314733927783
 20
131.9692017819605
 30
0.0
 10
104.4867394045964
 20
131.3555383629794
 30
0.0
 10
104.8388889322124
 20
130.6883636142007
 30
0.0
 10
105.1816815224081
 20
129.9659177199177
 30
0.0
 10
105.5125212324055
 20
129.1881614850704
 30
0.0
 10
105.7069546208258
 20
128.6433653857675
 30
0.0
 10
105.8067011087598
 20
128.3638789354871
 30
0.0
  0
SPLINE
  5
24E
330
1F
100
AcDbEntity
  8
0
  6
Continuous
 62
     7
370
    15
100
AcDbSpline
210
0.0
220
0.0
230
1.0
 70
    24
 71
     3
 72
    11
 73
     7
 74
     0
 42
0.00000001
 43
0.00000001
 12
1.0
 22
0.0
 32
0.0
 13
1.0
 23
0.0
 33
0.0
 40
0.0
 40
0.0
 40
0.0
 40
0.0
 40
0.253679036851118
 40
0.5048384259994839
 40
0.7535778678255518
 40
1.0
 40
1.0
 40
1.0
 40
1.0
 10
105.8067009533663
 20
128.3638246232291
 30
0.0
 10
105.8067009533663
 20
128.2370251349826
 30
0.0
 10
105.8067009533663
 20
127.9846855847442
 30
0.0
 10
105.8067009533663
 20
127.6058670055571
 30
0.0
 10
105.8067009533663
 20
127.2293888938062
 30
0.0
 10
105.8067009533663
 20
126.9784373332664
 30
0.0
 10
105.8067009533663
 20
126.8535487678612
 30
0.0
  0
SPLINE
  5
24F
330
1F
100
AcDbEntity
  8
0
  6
Continuous
 62
     7
370
    15
100
AcDbSpline
210
0.0
220
0.0
230
1.0
 70
     8
 71
     3
 72
    27
 73
    23
 74
     0
 42
0.00000001
 43
0.00000001
 12
1.0
 22
0.0
 32
0.0
 13
1.0
 23
0.0
 33
0.0
 40
0.0
 40
0.0
 40
0.0
 40
0.0
 40
0.0250760348106614
 40
0.0501196994911137
 40
0.0751455694613046
 40
0.1001682512368339
 40
0.1252023569138983
 40
0.1502624786055023
 40
0.175363163051989
 40
0.2005188866254172
 40
0.2257440309393731
 40
0.251052859263766
 40
0.3767465199064032
 40
0.5017573060790529
 40
0.6264638631591671
 40
0.7515283337263231
 40
0.7933091101250022
 40
0.8348504504020671
 40
0.8762207461572756
 40
0.9174892393821565
 40
0.9587256848952074
 40
1.0
 40
1.0
 40
1.0
 40
1.0
 10
105.8067009500164
 20
126.8556796032675
 30
0.0
 10
105.7689901006238
 20
126.9970960875366
 30
0.0
 10
105.6936170819873
 20
127.2797465044855
 30
0.0
 10
105.5676656386699
 20
127.6998075363125
 30
0.0
 10
105.4323940530902
 20
128.1165271488257
 30
0.0
 10
105.2868723768805
 20
128.5296562964949
 30
0.0
 10
105.1313497275699
 20
128.9392611710105
 30
0.0
 10
104.9657597945162
 20
129.3453233442061
 30
0.0
 10
104.7901198741006
 20
129.7478479348645
 30
0.0
 10
104.6044285567869
 20
130.1468306374797
 30
0.0
 10
104.4086757150117
 20
130.5422814783064
 30
0.0
 10
103.9311651692715
 20
131.4516800209043
 30
0.0
 10
103.0820750350586
 20
132.822727249058
 30
0.0
 10
101.7086847922659
 20
134.5312186688362
 30
0.0
 10
100.1406232959024
 20
136.0578863011813
 30
0.0
 10
98.78270784633843
 20
137.0864950964241
 30
0.0
 10
97.75881591634352
 20
137.7403418293054
 30
0.0
 10
97.13050894089872
 20
138.1064288202964
 30
0.0
 10
96.49025324982976
 20
138.4452041766601
 30
0.0
 10
95.83777856230971
 20
138.7560026181968
 30
0.0
 10
95.17402468719877
 20
139.0413617978236
 30
0.0
 10
94.72215779082994
 20
139.2081302232089
 30
0.0
 10
94.49612064698961
 20
139.2915527063776
 30
0.0
  0
LINE
  5
250
330
1F
100
AcDbEntity
  8
0
  6
Continuous
 62
     7
370
    15
100
AcDbLine
 10
82.0883598003
 20
118.3671626148
 30
0.0
 11
105.8067015196
 21
115.0337672678
 31
0.0
  0
LINE
  5
251
330
1F
100
AcDbEntity
  8
0
  6
Continuous
 62
     7
370
    15
100
AcDbLine
 10
83.7029284389
 20
129.1396770046
 30
0.0
 11
82.0883598003
 21
118.3671626148
 31
0.0
  0
LINE
  5
252
330
1F
100
AcDbEntity
  8
0
  6
Continuous
 62
     7
370
    15
100
AcDbLine
 10
83.7029284389
 20
129.1396770046
 30
0.0
 11
92.7831834937
 21
127.8635303841
 31
0.0
  0
LINE
  5
253
330
1F
100
AcDbEntity
  8
0
  6
Continuous
 62
     7
370
    15
100
AcDbLine
 10
92.7831834937
 20
127.8635303841
 30
0.0
 11
93.3393311511
 21
131.5741896049
 31
0.0
  0
LINE
  5
254
330
1F
100
AcDbEntity
  8
0
  6
Continuous
 62
     7
370
    15
100
AcDbLine
 10
105.8067015196
 20
126.8556791709
 30
0.0
 11
105.8067015196
 21
115.0337672678
 31
0.0
  0
LINE
  5
255
330
1F
100
AcDbEntity
  8
0
  6
Continuous
 62
     7
370
    15
100
AcDbLine
 10
92.7486025552
 20
128.2901022003
 30
0.0
 11
92.7831834937
 21
127.8635303841
 31
0.0
  0
LINE
  5
256
330
1F
100
AcDbEntity
  8
0
  6
Continuous
 62
     7
370
    15
100
AcDbLine
 10
83.7029284389
 20
129.1396770046
 30
0.0
 11
83.6683473839
 21
129.5662488208
 31
0.0
  0
LINE
  5
257
330
1F
100
AcDbEntity
  8
0
  6
Continuous
 62
     7
370
    15
100
AcDbLine
 10
92.7486025552
 20
128.2901022003
 30
0.0
 11
83.6683473839
 21
129.5662488208
 31
0.0
  0
LINE
  5
258
330
1F
100
AcDbEntity
  8
0
  6
Continuous
 62
     7
370
    15
100
AcDbLine
 10
82.0883598003
 20
118.3671626148
 30
0.0
 11
77.2070937614
 21
95.7638792113
 31
0.0
  0
ARC
  5
259
330
1F
100
AcDbEntity
  8
0
  6
Continuous
 62
     7
370
    15
100
AcDbCircle
 10
85.3067009534
 20
114.5959369258
 30
0.0
 40
20.5
100
AcDbArc
 50
244.1509473184
 51
246.7276160585
  0
SPLINE
  5
25A
330
1F
100
AcDbEntity
  8
0
  6
Continuous
 62
     7
370
    15
100
AcDbSpline
210
0.0
220
0.0
230
1.0
 70
     8
 71
     3
 72
    12
 73
     8
 74
     0
 42
0.00000001
 43
0.00000001
 12
1.0
 22
0.0
 32
0.0
 13
1.0
 23
0.0
 33
0.0
 40
0.0
 40
0.0
 40
0.0
 40
0.0
 40
0.25
 40
0.25
 40
0.5
 40
0.5
 40
1.0
 40
1.0
 40
1.0
 40
1.0
 10
76.36866548004676
 20
96.14704747744456
 30
0.0
 10
76.37520406468803
 20
96.22566312755525
 30
0.0
 10
76.38009431878294
 20
96.30024369166757
 30
0.0
 10
76.38595764767352
 20
96.4333632043408
 30
0.0
 10
76.38698314499304
 20
96.49185742222713
 30
0.0
 10
76.38400915828791
 20
96.64173876966
 30
0.0
 10
76.37384373309861
 20
96.70167913027326
 30
0.0
 10
76.35595461660908
 20
96.71063178400867
 30
0.0
  0
ARC
  5
25B
330
1F
100
AcDbEntity
  8
0
  6
Continuous
 62
     7
370
    15
100
AcDbCircle
 10
85.3067009534
 20
114.5959369258
 30
0.0
 40
19.99999999999999
100
AcDbArc
 50
242.8778126822
 51
243.4142098007
  0
ARC
  5
25C
330
1F
100
AcDbEntity
  8
0
  6
Continuous
 62
     7
370
    15
100
AcDbCircle
 10
85.3067009534
 20
114.5959369258
 30
0.0
 40
20.00000000000001
100
AcDbArc
 50
100.5857901993
 51
101.1221873178
  0
SPLINE
  5
25D
330
1F
100
AcDbEntity
  8
0
  6
Continuous
 62
     7
370
    15
100
AcDbSpline
210
0.0
220
0.0
230
1.0
 70
     8
 71
     3
 72
    10
 73
     6
 74
     0
 42
0.00000001
 43
0.00000001
 12
1.0
 22
0.0
 32
0.0
 13
1.0
 23
0.0
 33
0.0
 40
0.0
 40
0.0
 40
0.0
 40
0.0
 40
0.5
 40
0.5
 40
1.0
 40
1.0
 40
1.0
 40
1.0
 10
81.63254956704523
 20
134.2555557316273
 30
0.0
 10
81.65716761315241
 20
134.2601565547219
 30
0.0
 10
81.69242217433293
 20
134.3460310316929
 30
0.0
 10
81.76916983910739
 20
134.6327351317035
 30
0.0
 10
81.80965081846657
 20
134.8284720093596
 30
0.0
 10
81.84621677547109
 20
135.0464048094056
 30
0.0
  0
SPLINE
  5
25E
330
1F
100
AcDbEntity
  8
0
  6
Continuous
 62
     7
370
    15
100
AcDbSpline
210
0.0
220
0.0
230
1.0
 70
     8
 71
     3
 72
     8
 73
     4
 74
     0
 42
0.00000001
 43
0.00000001
 12
1.0
 22
0.0
 32
0.0
 13
1.0
 23
0.0
 33
0.0
 40
0.0
 40
0.0
 40
0.0
 40
0.0
 40
1.0
 40
1.0
 40
1.0
 40
1.0
 10
81.84621677547109
 20
135.0464048094056
 30
0.0
 10
81.88650964826905
 20
135.2865499966262
 30
0.0
 10
81.92681032040295
 20
135.5266640660213
 30
0.0
 10
81.96711806202524
 20
135.7667499295397
 30
0.0
  0
LINE
  5
25F
330
1F
100
AcDbEntity
  8
0
  6
Continuous
 62
     7
370
    15
100
AcDbLine
 10
81.967118132
 20
135.7667505161
 30
0.0
 11
82.3262428689
 21
135.7162784205
 31
0.0
  0
ARC
  5
260
330
1F
100
AcDbEntity
  8
0
  6
Continuous
 62
     7
370
    15
100
AcDbCircle
 10
82.0118740624
 20
136.607705735
 30
0.0
 40
0.9452356339118609
100
AcDbArc
 50
289.4255963699
 51
341.9302183754
  0
LWPOLYLINE
  5
261
330
1F
100
AcDbEntity
  8
0
  6
Continuous
 62
     7
370
    15
100
AcDbPolyline
 90
       14
 70
   128
 43
0.0
 10
82.5491546943
 20
126.2410807774
 10
82.4844943649
 20
125.8110323341
 10
82.4256084683
 20
125.3481212423
 10
82.3807573701
 20
124.9081905351
 10
82.3521899815
 20
124.5133004502
 10
82.3413386765
 20
124.183251837
 10
82.3487475804
 20
123.9345961601
 10
82.3740453283
 20
123.7798001037
 10
82.4159634589
 20
123.7266271726
 10
82.4723997443
 20
123.7777428121
 10
82.5405243608
 20
123.9305840225
 10
82.6169212173
 20
124.1774869503
 10
82.6977595511
 20
124.5060715244
 10
82.7789857807
 20
124.8998598547
  0
LINE
  5
262
330
1F
100
AcDbEntity
  8
0
  6
Continuous
 62
     7
370
    15
100
AcDbLine
 10
82.7789857807
 20
124.8998598547
 30
0.0
 11
83.6683473839
 21
129.5662488208
 31
0.0
  0
LWPOLYLINE
  5
263
330
1F
100
AcDbEntity
  8
0
  6
Continuous
 62
     7
370
    15
100
AcDbPolyline
 90
       37
 70
   128
 43
0.0
 10
80.7516730214
 20
120.5428278425
 10
80.8219841505
 20
120.5866414473
 10
80.904959404
 20
120.7344348893
 10
80.9980776916
 20
120.9817173311
 10
81.0985091898
 20
121.3209748619
 10
81.2032028857
 20
121.7418996037
 10
81.3089778471
 20
122.2317017035
 10
81.4126193813
 20
122.7754990921
 10
81.5109791524
 20
123.3567691759
 10
81.6010680805
 20
123.9578494222
 10
81.6801492414
 20
124.5604765953
 10
81.7458193573
 20
125.1463408933
 10
81.7960835352
 20
125.6976400853
 10
81.8294141731
 20
126.1976234035
 10
81.8447986907
 20
126.6311000452
 10
81.841769564
 20
126.9848983155
 10
81.820418994
 20
127.2482679577
 10
81.781395414
 20
127.4132070483
 10
81.7258848633
 20
127.4747041405
 10
81.6555737342
 20
127.43089007
 10
81.5725984807
 20
127.283096628
 10
81.4794804259
 20
127.0358146519
 10
81.3790486949
 20
126.6965571211
 10
81.274354999
 20
126.2756319136
 10
81.1685800376
 20
125.7858298139
 10
81.0649382706
 20
125.2420324252
 10
80.9665789652
 20
124.6607623414
 10
80.8764898042
 20
124.0596820951
 10
80.7974088761
 20
123.4570549221
 10
80.7317385274
 20
122.871190624
 10
80.6814745824
 20
122.3198918977
 10
80.6481434788
 20
121.8199081139
 10
80.6327589611
 20
121.3864314721
 10
80.6357880878
 20
121.0326336675
 10
80.6571391235
 20
120.7692635597
 10
80.6961624707
 20
120.6043244691
 10
80.7516730214
 20
120.5428278425
  0
LINE
  5
264
330
1F
100
AcDbEntity
  8
0
  6
Continuous
 62
     7
370
    15
100
AcDbLine
 10
105.8067015196
 20
115.0337672678
 30
0.0
 11
105.8067015196
 21
114.5959369258
 31
0.0
  0
ARC
  5
265
330
1F
100
AcDbEntity
  8
0
  6
Continuous
 62
     7
370
    15
100
AcDbCircle
 10
85.3067009534
 20
114.5959369258
 30
0.0
 40
20.5
100
AcDbArc
 50
246.7276160585
 51
0.0
  0
SPLINE
  5
266
330
1F
100
AcDbEntity
  8
0
  6
Continuous
 62
     7
370
    15
100
AcDbSpline
210
0.0
220
0.0
230
1.0
 70
     8
 71
     3
 72
    10
 73
     6
 74
     0
 42
0.00000001
 43
0.00000001
 12
1.0
 22
0.0
 32
0.0
 13
1.0
 23
0.0
 33
0.0
 40
0.0
 40
0.0
 40
0.0
 40
0.0
 40
0.5
 40
0.5
 40
1.0
 40
1.0
 40
1.0
 40
1.0
 10
80.83598242105113
 20
134.089850740241
 30
0.0
 10
80.99349994174815
 20
134.1259756818843
 30
0.0
 10
81.13808546711111
 20
134.1569996973539
 30
0.0
 10
81.35731735701249
 20
134.2024384248888
 30
0.0
 10
81.43055842502801
 20
134.2167386297308
 30
0.0
 10
81.44866196201927
 20
134.2202976833202
 30
0.0
  0
SPLINE
  5
267
330
1F
100
AcDbEntity
  8
0
  6
Continuous
 62
     7
370
    15
100
AcDbSpline
210
0.0
220
0.0
230
1.0
 70
     8
 71
     3
 72
    10
 73
     6
 74
     0
 42
0.00000001
 43
0.00000001
 12
1.0
 22
0.0
 32
0.0
 13
1.0
 23
0.0
 33
0.0
 40
0.0
 40
0.0
 40
0.0
 40
0.0
 40
0.5
 40
0.5
 40
1.0
 40
1.0
 40
1.0
 40
1.0
 10
76.18890894074619
 20
96.7952102885371
 30
0.0
 10
76.1725062073138
 20
96.80361200802432
 30
0.0
 10
76.10745865462292
 20
96.83680912676391
 30
0.0
 10
75.9080780692164
 20
96.94151631975859
 30
0.0
 10
75.7772646610081
 20
97.01140056644554
 30
0.0
 10
75.63591961659344
 20
97.08948130690653
 30
0.0
  0
ELLIPSE
  5
268
330
1F
100
AcDbEntity
  8
0
  6
Continuous
 62
     7
370
    15
100
AcDbEllipse
 10
72.320549197
 20
122.3431752006
 30
0.0
 11
2.082553459432447
 21
2.014167845411635
 31
0.0
210
0.0
220
0.0
230
1.0
 40
0.7099989018
 41
0.0
 42
6.283185307179586
  0
ARC
  5
269
330
1F
100
AcDbEntity
  8
0
  6
Continuous
 62
     7
370
    15
100
AcDbCircle
 10
85.3067009534
 20
114.5959369258
 30
0.0
 40
20.0
100
AcDbArc
 50
102.9168003113
 51
241.0831996887
  0
LWPOLYLINE
  5
26A
330
1F
100
AcDbEntity
  8
0
  6
Continuous
 62
     7
370
    15
100
AcDbPolyline
 90
        3
 70
   128
 43
0.0
 10
70.8821142848
 20
119.9350327604
 10
70.6674202169
 20
120.0827344672
 10
70.2965051691
 20
120.2718069197
  0
SPLINE
  5
26B
330
1F
100
AcDbEntity
  8
0
  6
Continuous
 62
     7
370
    15
100
AcDbSpline
210
0.0
220
0.0
230
1.0
 70
     8
 71
     3
 72
    12
 73
     8
 74
     0
 42
0.00000001
 43
0.00000001
 12
1.0
 22
0.0
 32
0.0
 13
1.0
 23
0.0
 33
0.0
 40
0.0
 40
0.0
 40
0.0
 40
0.0
 40
0.0528113355721686
 40
0.2604924067127591
 40
0.5596069436418943
 40
0.8776646608328127
 40
1.0
 40
1.0
 40
1.0
 40
1.0
 10
73.44294682246644
 20
120.6371046953822
 30
0.0
 10
73.44386659762199
 20
120.6748698754003
 30
0.0
 10
73.44840339718043
 20
120.8611469790993
 30
0.0
 10
73.23823644968017
 20
121.1581896722186
 30
0.0
 10
72.78313635388915
 20
121.4290300358277
 30
0.0
 10
72.22647304184335
 20
121.532217827595
 30
0.0
 10
71.92289340132002
 20
121.4675592529253
 30
0.0
 10
71.8385630111118
 20
121.4495979600573
 30
0.0
  0
SPLINE
  5
26C
330
1F
100
AcDbEntity
  8
0
  6
Continuous
 62
     7
370
    15
100
AcDbSpline
210
0.0
220
0.0
230
1.0
 70
     8
 71
     3
 72
     8
 73
     4
 74
     0
 42
0.00000001
 43
0.00000001
 12
1.0
 22
0.0
 32
0.0
 13
1.0
 23
0.0
 33
0.0
 40
0.0
 40
0.0
 40
0.0
 40
0.0
 40
1.0
 40
1.0
 40
1.0
 40
1.0
 10
71.83856291828934
 20
121.4495977947753
 30
0.0
 10
71.78403402607705
 20
121.3430395089168
 30
0.0
 10
71.74268285510408
 20
121.2284619386757
 30
0.0
 10
71.71310943309012
 20
121.1049171769986
 30
0.0
  0
SPLINE
  5
26D
330
1F
100
AcDbEntity
  8
0
  6
Continuous
 62
     7
370
    15
100
AcDbSpline
210
0.0
220
0.0
230
1.0
 70
     8
 71
     3
 72
    10
 73
     6
 74
     0
 42
0.00000001
 43
0.00000001
 12
1.0
 22
0.0
 32
0.0
 13
1.0
 23
0.0
 33
0.0
 40
0.0
 40
0.0
 40
0.0
 40
0.0
 40
0.3300656469543092
 40
0.6705138814192779
 40
0.9999999999999999
 40
0.9999999999999999
 40
0.9999999999999999
 40
0.9999999999999999
 10
71.71310920369822
 20
121.1049173378373
 30
0.0
 10
71.74799937737639
 20
120.9894499902784
 30
0.0
 10
71.81887723453062
 20
120.7548831394011
 30
0.0
 10
71.95414333624296
 20
120.3683201357359
 30
0.0
 10
72.00467658591062
 20
120.077018700058
 30
0.0
 10
72.02952977371413
 20
119.9337512605811
 30
0.0
  0
LWPOLYLINE
  5
26E
330
1F
100
AcDbEntity
  8
0
  6
Continuous
 62
     7
370
    15
100
AcDbPolyline
 90
        9
 70
   128
 43
0.0
 10
71.8385630111
 20
121.4495979601
 10
71.8255412589
 20
121.413821669
 10
71.8117213632
 20
121.3758521133
 10
71.7971210192
 20
121.3357377217
 10
71.7817588533
 20
121.293531114
 10
71.7656553547
 20
121.2492867724
 10
71.7488310124
 20
121.2030624391
 10
71.7313081781
 20
121.1549186499
 10
71.7131092037
 20
121.1049173378
  0
INSERT
  5
27A
330
1F
100
AcDbEntity
  8
VERMASSUNG
100
AcDbBlockReference
  2
SW_CENTERMARKSYMBOL_0
 10
85.3067009534
 20
114.5959369258
 30
0.0
  0
OLE2FRAME
  5
27B
330
1F
100
AcDbEntity
  8
0
100
AcDbOle2Frame
 70
     2
  3
Paintbrush-Bild
 10
13.8511154363
 20
38.264191557
 30
0.0
 11
51.6290888628
 21
31.9806341108
 31
0.0
 71
     2
 72
     0
 73
     1
 90
    12928
310
80552BED0767C5B32B40DDAF6807D121434000000000000000006FFBDDFB85D0
310
4940DDAF6807D121434000000000000000006FFBDDFB85D04940416F4BD60AFB
310
3F4000000000000000002BED0767C5B32B40416F4BD60AFB3F40000000000000
310
0000000000000100000000010000010000000100000000000100000000320000
310
D0CF11E0A1B11AE1000000000000000000000000000000003E000300FEFF0900
310
0600000000000000000000000100000001000000000000000010000002000000
310
01000000FEFFFFFF0000000000000000FFFFFFFFFFFFFFFFFFFFFFFFFFFFFFFF
310
FFFFFFFFFFFFFFFFFFFFFFFFFFFFFFFFFFFFFFFFFFFFFFFFFFFFFFFFFFFFFFFF
310
FFFFFFFFFFFFFFFFFFFFFFFFFFFFFFFFFFFFFFFFFFFFFFFFFFFFFFFFFFFFFFFF
310
FFFFFFFFFFFFFFFFFFFFFFFFFFFFFFFFFFFFFFFFFFFFFFFFFFFFFFFFFFFFFFFF
310
FFFFFFFFFFFFFFFFFFFFFFFFFFFFFFFFFFFFFFFFFFFFFFFFFFFFFFFFFFFFFFFF
310
FFFFFFFFFFFFFFFFFFFFFFFFFFFFFFFFFFFFFFFFFFFFFFFFFFFFFFFFFFFFFFFF
310
FFFFFFFFFFFFFFFFFFFFFFFFFFFFFFFFFFFFFFFFFFFFFFFFFFFFFFFFFFFFFFFF
310
FFFFFFFFFFFFFFFFFFFFFFFFFFFFFFFFFFFFFFFFFFFFFFFFFFFFFFFFFFFFFFFF
310
FFFFFFFFFFFFFFFFFFFFFFFFFFFFFFFFFFFFFFFFFFFFFFFFFFFFFFFFFFFFFFFF
310
FFFFFFFFFFFFFFFFFFFFFFFFFFFFFFFFFFFFFFFFFFFFFFFFFFFFFFFFFFFFFFFF
310
FFFFFFFFFFFFFFFFFFFFFFFFFFFFFFFFFFFFFFFFFFFFFFFFFFFFFFFFFFFFFFFF
310
FFFFFFFFFFFFFFFFFFFFFFFFFFFFFFFFFFFFFFFFFFFFFFFFFFFFFFFFFFFFFFFF
310
FFFFFFFFFFFFFFFFFFFFFFFFFFFFFFFFFFFFFFFFFFFFFFFFFFFFFFFFFFFFFFFF
310
FFFFFFFFFFFFFFFFFFFFFFFFFFFFFFFFFFFFFFFFFFFFFFFFFFFFFFFFFFFFFFFF
310
FDFFFFFFFEFFFFFFFEFFFFFFFEFFFFFF05000000060000000700000008000000
310
090000000A0000000B0000000C0000000D0000000E0000000F00000010000000
310
11000000120000001300000014000000150000001600000017000000FEFFFFFF
310
FFFFFFFFFFFFFFFFFFFFFFFFFFFFFFFFFFFFFFFFFFFFFFFFFFFFFFFFFFFFFFFF
310
FFFFFFFFFFFFFFFFFFFFFFFFFFFFFFFFFFFFFFFFFFFFFFFFFFFFFFFFFFFFFFFF
310
FFFFFFFFFFFFFFFFFFFFFFFFFFFFFFFFFFFFFFFFFFFFFFFFFFFFFFFFFFFFFFFF
310
FFFFFFFFFFFFFFFFFFFFFFFFFFFFFFFFFFFFFFFFFFFFFFFFFFFFFFFFFFFFFFFF
310
FFFFFFFFFFFFFFFFFFFFFFFFFFFFFFFFFFFFFFFFFFFFFFFFFFFFFFFFFFFFFFFF
310
FFFFFFFFFFFFFFFFFFFFFFFFFFFFFFFFFFFFFFFFFFFFFFFFFFFFFFFFFFFFFFFF
310
FFFFFFFFFFFFFFFFFFFFFFFFFFFFFFFFFFFFFFFFFFFFFFFFFFFFFFFFFFFFFFFF
310
FFFFFFFFFFFFFFFFFFFFFFFFFFFFFFFFFFFFFFFFFFFFFFFFFFFFFFFFFFFFFFFF
310
FFFFFFFFFFFFFFFFFFFFFFFFFFFFFFFFFFFFFFFFFFFFFFFFFFFFFFFFFFFFFFFF
310
FFFFFFFFFFFFFFFFFFFFFFFFFFFFFFFFFFFFFFFFFFFFFFFFFFFFFFFFFFFFFFFF
310
FFFFFFFFFFFFFFFFFFFFFFFFFFFFFFFFFFFFFFFFFFFFFFFFFFFFFFFFFFFFFFFF
310
FFFFFFFFFFFFFFFFFFFFFFFFFFFFFFFFFFFFFFFFFFFFFFFFFFFFFFFFFFFFFFFF
310
FFFFFFFFFFFFFFFFFFFFFFFFFFFFFFFFFFFFFFFFFFFFFFFFFFFFFFFFFFFFFFFF
310
52006F006F007400200045006E00740072007900000000000000000000000000
310
0000000000000000000000000000000000000000000000000000000000000000
310
16000500FFFFFFFFFFFFFFFF020000000A00030000000000C000000000000046
310
000000000000000000000000C0851230B723CD0103000000C000000000000000
310
01004F006C006500000000000000000000000000000000000000000000000000
310
0000000000000000000000000000000000000000000000000000000000000000
310
0A000200FFFFFFFFFFFFFFFFFFFFFFFF00000000000000000000000000000000
310
0000000000000000000000000000000000000000000000001400000000000000
310
010043006F006D0070004F0062006A0000000000000000000000000000000000
310
0000000000000000000000000000000000000000000000000000000000000000
310
120002010100000003000000FFFFFFFF00000000000000000000000000000000
310
0000000000000000000000000000000000000000010000004D00000000000000
310
01004F006C006500310030004E00610074006900760065000000000000000000
310
0000000000000000000000000000000000000000000000000000000000000000
310
1A000200FFFFFFFFFFFFFFFFFFFFFFFF00000000000000000000000000000000
310
0000000000000000000000000000000000000000040000002426000000000000
310
FEFFFFFF02000000FEFFFFFFFFFFFFFFFFFFFFFFFFFFFFFFFFFFFFFFFFFFFFFF
310
FFFFFFFFFFFFFFFFFFFFFFFFFFFFFFFFFFFFFFFFFFFFFFFFFFFFFFFFFFFFFFFF
310
FFFFFFFFFFFFFFFFFFFFFFFFFFFFFFFFFFFFFFFFFFFFFFFFFFFFFFFFFFFFFFFF
310
FFFFFFFFFFFFFFFFFFFFFFFFFFFFFFFFFFFFFFFFFFFFFFFFFFFFFFFFFFFFFFFF
310
FFFFFFFFFFFFFFFFFFFFFFFFFFFFFFFFFFFFFFFFFFFFFFFFFFFFFFFFFFFFFFFF
310
FFFFFFFFFFFFFFFFFFFFFFFFFFFFFFFFFFFFFFFFFFFFFFFFFFFFFFFFFFFFFFFF
310
FFFFFFFFFFFFFFFFFFFFFFFFFFFFFFFFFFFFFFFFFFFFFFFFFFFFFFFFFFFFFFFF
310
FFFFFFFFFFFFFFFFFFFFFFFFFFFFFFFFFFFFFFFFFFFFFFFFFFFFFFFFFFFFFFFF
310
FFFFFFFFFFFFFFFFFFFFFFFFFFFFFFFFFFFFFFFFFFFFFFFFFFFFFFFFFFFFFFFF
310
FFFFFFFFFFFFFFFFFFFFFFFFFFFFFFFFFFFFFFFFFFFFFFFFFFFFFFFFFFFFFFFF
310
FFFFFFFFFFFFFFFFFFFFFFFFFFFFFFFFFFFFFFFFFFFFFFFFFFFFFFFFFFFFFFFF
310
FFFFFFFFFFFFFFFFFFFFFFFFFFFFFFFFFFFFFFFFFFFFFFFFFFFFFFFFFFFFFFFF
310
FFFFFFFFFFFFFFFFFFFFFFFFFFFFFFFFFFFFFFFFFFFFFFFFFFFFFFFFFFFFFFFF
310
FFFFFFFFFFFFFFFFFFFFFFFFFFFFFFFFFFFFFFFFFFFFFFFFFFFFFFFFFFFFFFFF
310
FFFFFFFFFFFFFFFFFFFFFFFFFFFFFFFFFFFFFFFFFFFFFFFFFFFFFFFFFFFFFFFF
310
FFFFFFFFFFFFFFFFFFFFFFFFFFFFFFFFFFFFFFFFFFFFFFFFFFFFFFFFFFFFFFFF
310
0100000200000000000000000000000000000000000000000000000000000000
310
0000000000000000000000000000000000000000000000000000000000000000
310
0100FEFF030A0000FFFFFFFF0A00030000000000C00000000000004607000000
310
5042727573680007000000504272757368000700000050427275736800F439B2
310
7100000000000000000000000000000000000000000000000000000000000000
310
0000000000000000000000000000000000000000000000000000000000000000
310
0000000000000000000000000000000000000000000000000000000000000000
310
0000000000000000000000000000000000000000000000000000000000000000
310
0000000000000000000000000000000000000000000000000000000000000000
310
0000000000000000000000000000000000000000000000000000000000000000
310
0000000000000000000000000000000000000000000000000000000000000000
310
0000000000000000000000000000000000000000000000000000000000000000
310
0000000000000000000000000000000000000000000000000000000000000000
310
0000000000000000000000000000000000000000000000000000000000000000
310
0000000000000000000000000000000000000000000000000000000000000000
310
0000000000000000000000000000000000000000000000000000000000000000
310
20260000424D0E260000000000003E00000028000000B40200006E0000000100
310
01000000000000000000130B0000130B00000200000002000000000000FFFFFF
310
FFFFFFFFFFFFFFFFFFFFFFFFFFFFFFFFFFFFFFFFFFFFFFFFFFFFFFFFFFFFFFFF
310
FFFFFFFFFFFFFFFFFFFFFFFFFFFFFFFFFFFFFFFFFFFFFFFFFFFFFFFFFFFFFFFF
310
FFFFFFFFFFFFFFFFFFFFFFFFFFFFFFFFFFFFFFFFFFFFFFFFF000FFFFFFFFFFFF
310
FFFFFFFFFFFFFFFFFFFFFFFFFFFFFFFFFFFFFFFFFFFFFFFFFFFFFFFFFFFFFFFF
310
FFFFFFFFFFFFFFFFFFFFFFFFFFFFFFFFFFFFFFFFFFFFFFFFFFFFFFFFFFFFFFFF
310
FFFFFFFFFFFFFFFFFFFFFFFFFFFFFFFFF000FFFFFFFFFFFFFFFFFFFFFFFFFFFF
310
FFFFFFFFFFFFFFFFFFFFFFFFFFFFFFFFFFFFFFFFFFFFFFFFFFFFFFFFFFFFFFFF
310
FFFFFFFFFFFFFFFFFFFFFFFFFFFFFFFFFFFFFFFFFFFFFFFFFFFFFFFFFFFFFFFF
310
FFFFFFFFFFFFFFFFF000FFFFFFFFFFFFFFFFFFFFFFFFFFFFFFFFFFFFFFFFFFFF
310
FFFFFFFFFFFFFFFFFFFFFFFFFFFFFFFFFFFFFFFFFFFFFFFFFFFFFFFFFFFFFFFF
310
FFFFFFFFFFFFFFFFFFFFFFFFFFFFFFFFFFFFFFFFFFFFFFFFFFFFFFFFFFFFFFFF
310
F000FFFFFFFFFFFFFFFFFFFFFFFFFFFFFFFFFFFFFFFFFFFFFFFFFFFFFFFFFFFF
310
FFFFFFFFFFFFFFFFFFFFFFFFFFFFFFFFFFFFFFFFFFFFFFFFFFFFFFFFFFFFFFFF
310
FFFFFFFFFFFFFFFFFFFFFFFFFFFFFFFFFFFFFFFFFFFFFFFFF000FFFFFFFFFFFF
310
FFFFFFFFFFFFFFFFFFFFFFFFFFFFFFFFFFFFFFFFFFFFFFFFFFFFFFFFFFFFFFFF
310
FFFFFFFFFFFFFFFFFFFFFFFFFFFFFFFFFFFFFFFFFFFFFFFFFFFFFFFFFFFFFFFF
310
FFFFFFFFFFFFFFFFFFFFFFFFFFFFFFFFF000FFFFFFFFFFFFFFFFFFFFFFFFFFFF
310
FFFFFFFFFFFFFFFFFFFFFFFFFFFFFFFFFFFFFFFFFFFFFFFFFFFFFFFFFFFFFFFF
310
FFFFFFFFFFFFFFFFFFFFFFFFFFFFFFFFFFFFFFFFFFFFFFFFFFFFFFFFFFFFFFFF
310
FFFFFFFFFFFFFFFFF000FFFFFFFFFFFFFFFFFFFFFFFFFFFFFFFFFFFFFFFFFFFF
310
FFFFFFFFFFFFFFFFFFFFFFFFFFFFFFFFFFFFFFFFFFFFFFFFFFFFFFFFFFFFFFFF
310
FFFFFFFFFFFFFFFFFFFFFFFFFFFFFFFFFFFFFFFFFFFFFFFFFFFFFFFFFFFFFFFF
310
F000FFFFFFFFFFFFFFFFFFFFFFFFFFFFFFFFFFFFFFFFFFFFFFFFFFFFFFFFFFFF
310
FFFFFFFFFFFFFFFFFFFFFFFFFFFFFFFFFFFFFFFFFFFFFFFFFFFFFFFFFFFFFFFF
310
FFFFFFFFFFFFFFFFFFFFFFFFFFFFFFFFFFFFFFFFFFFFFFFFF000FFFFFFFFFFFF
310
FFFFFFFFFFFFFFFFFFFFFFFFFFFFFFFFFFFFFFFFFFFFFFFFFFFFFFFFFFFFFFFF
310
FFFFFFFFFFFFFFFFFFFFFFFFFFFFFFFFFFFFFFFFFFFFFFFFFFFFFFFFFFFFFFFF
310
FFFFFFFFFFFFFFFFFFFFFFFFFFFFFFFFF000FFFFFFFFFFFFFFFFFFFFFFFFFFFF
310
FFFFFFFFFFFFFFFFFFFFFFFFFFFFFFFFFFFFFFFFFFFFFFFFFFFFFFFFFFFFFFFF
310
FFFFFFFFFFFFFFFFFFFFFFFFFFFFFFFFFFFFFFFFFFFFFFFFFFFFFFFFFFFFFFFF
310
FFFFFFFFFFFFFFFFF000FFFFFFFFFFFFFFFFFFFFFFFFFFFFFFFFFFFFFFFFFFFF
310
FFFFFFFFFFFFFFFFFFFFFFFFFFFFFFFFFFFFFFFFFFFFFFFFFFFFFFFFFFFFFFFF
310
FFFFFFFFFFFFFFFFFFFFFFFFFFFFFFFFFFFFFFFFFFFFFFFFFFFFFFFFFFFFFFFF
310
F000FFFFFFFFFFFFFFFFFFFFFFFFFFFFFFFFFFFFFFFFFFFFFFFFFFFFFFFFFFFF
310
FFFFFFFFFFFFFFFFFFFFFFFFFFFFFFFFFFFFFFFFFFFFFFFFFFFFFFFFFFFFFFFF
310
FFFFFFFFFFFFFFFFFFFFFFFFFFFFFFFFFFFFFFFFFFFFFFFFF000FFFFFFFFFFFF
310
FFFFFFFFFFFFFFFFFFFFFFFFFFFFFFFFFFFFFFFFFFFFFFFFFFFFFFFFFFFFFFFF
310
FFFFFFFFFFFFFFFFFFFFFFFFFFFFFFFFFFFFFFFFFFFFFFFFFFFFFFFFFFFFFFFF
310
FFFFFFFFFFFFFFFFFFFFFFFFFFFFFFFFF000FFFFFFFFFFFFFFFFFFFFFFFFFFFF
310
FFFFFFFFFFFFFFFFFFFFFFFFFFFFFFFFFFFFFFFFFFFFFFFFFFFFFFFFFFFFFFFF
310
FFFFFFFFFFFFFFFFFFFFFFFFFFFFFFFFFFFFFFFFFFFFFFFFFFFFFFFFFFFFFFFF
310
FFFFFFFFFFFFFFFFF000FFFFFFFFFFFFFFFFFFFFFFFFFFFFFFFFFFFFFFFFFFFF
310
FFFFFFFFFFFFFFFFFFFFFFFFFFFFFFFFFFFFFFFFFFFFFFFFFFFFFFFFFFFFFFFF
310
FFFFFFFFFFFFFFFFFFFFFFFFFFFFFFFFFFFFFFFFFFFFFFFFFFFFFFFFFFFFFFFF
310
F000FFFFFFFFFFFFFFFFFFFFFFFFFFFFFFFFFFFFFFFFFFFFFFFFFFFFFFFFFFFF
310
FFFFFFFFFFFFFFFFFFFFFFFFFFFFFFFFFFFFFFFFFFFFFFFFFFFFFFFFFFFFFFFF
310
FFFFFFFFFFFFFFFFFFFFFFFFFFFFFFFFFFFFFFFFFFFFFFFFF000FFFFFFFFFFFF
310
FFFFFFFFFFFFFFFFFFFFFFFFFFFFFFFFFFFFFFFFFFFFFFFFFFFFFFFFFFFFFFFF
310
FFFFFFFFFFFFFFFFFFFFFFFFFFFFFFFFFFFFFFFFFFFFFFFFFFFFFFFFFFFFFFFF
310
FFFFFFFFFFFFFFFFFFFFFFFFFFFFFFFFF000FFFFFFFFFFFFFFFFFFFFFFFFFFFF
310
FFFFFFFFFFFFFFFFFFFFFFFFFFFFFFFFFFFFFFFFFFFFFFFFFFFFFFFFFFFFFFFF
310
FFFFFFFFFFFFFFFFFFFFFFFFFFFFFFFFFFFFFFFFFFFFFFFFFFFFFFFFFFFFFFFF
310
FFFFFFFFFFFFFFFFF000FFFFF80003FFFFFFFFFFFFFFFFFFFFFFFFFFFFFFFFFF
310
FFFFF00007FFFFFFFFFF00007FFFFFF800000000000000007FFFFFFFFFFFFFFF
310
FFFFFFFC001FFFFFFFFFFFFFFC001FFFFFFFFFFFFFFFFFFFFFFFFFFE0007FFFF
310
F000FFFF8000007FFFFFFFF8000FFFFFC0007FFFFF80007FFFFF0000007FFFFF
310
FFF8000007FFFFF800000000000000007FFFFFF0001FFFFFFFFFFFC00001FFFF
310
FFFFFFFFC00001FFFFFFFF000000000003FFFFE000007FFFF000FFFE0000000F
310
FFFFFFF0000FFFFF80007FFFFF80007FFFFC0000001FFFFFFFC0000001FFFFF8
310
00000000000000007FFFFFF0001FFFFFFFFFFE0000003FFFFFFFFFFE0000003F
310
FFFFFF000000000003FFFF0000000FFFF000FFF800000003FFFFFFF00007FFFF
310
80007FFFFF80007FFFF000000007FFFFFF000000003FFFF80000000000000000
310
7FFFFFF0001FFFFFFFFFF80000000FFFFFFFFFF80000000FFFFFFF0000000000
310
03FFFC00000003FFF000FFE000000000FFFFFFF00007FFFF80003FFFFF80007F
310
FFC000000001FFFFFC000000001FFFF800000000000000007FFFFFF0001FFFFF
310
FFFFE000000003FFFFFFFFE000000003FFFFFF000000000003FFF000000000FF
310
F000FF80000000007FFFFFF00007FFFF80003FFFFF80007FFF8000000000FFFF
310
F80000000007FFF800000000000000007FFFFFF0001FFFFFFFFFC000000001FF
310
FFFFFFC000000001FFFFFF000000000003FFC0000000007FF000FF0000000000
310
3FFFFFE00007FFFF00003FFFFF80007FFE00000000003FFFF00000000003FFF8
310
00000000000000007FFFFFF0001FFFFFFFFF8000000000FFFFFFFF8000000000
310
FFFFFF000000000003FF80000000003FF000FE00000000001FFFFFE00003FFFF
310
00003FFFFF80007FFC00000000001FFFE00000000001FFF8000001FFFE000000
310
7FFFFFF0001FFFFFFFFE00000000003FFFFFFE00000000003FFFFF0000000000
310
03FF00000000001FF000FC00000000000FFFFFE00003FFFF00001FFFFF80007F
310
F800000000001FFFC00000000000FFF8000001FFFE0000007FFFFFF0001FFFFF
310
FFFC00000000001FFFFFFC00000000001FFFFF000000000003FE00000000000F
310
F000F8000000000007FFFFE00003FFFF00001FFFFF80007FF800000000000FFF
310
800000000000FFF8000001FFFE0000007FFFFFF0001FFFFFFFF800000000000F
310
FFFFF800000000000FFFFF000000000003FC000000000007F000F80000000000
310
03FFFFC00003FFFE00001FFFFF80007FF0000000000007FF0000000000007FF8
310
000001FFFE0000007FFFFFF0001FFFFFFFF0000000000007FFFFF00000000000
310
07FFFF000000000003F8000000000003F000F0000000000003FFFFC00001FFFE
310
00001FFFFF80007FE0000000000007FE0000000000003FF8000001FFFE000000
310
7FFFFFF0001FFFFFFFF0000000000007FFFFF0000000000007FFFF0000000000
310
03F800001F800003F000E00001FFF00001FFFFC00001FFFE00000FFFFF80007F
310
E00001FFE00003FE00001FFF00003FF8000001FFFE0000007FFFFFF0001FFFFF
310
FFE000003E000003FFFFE000003E000003FFFF000000000003F00001FFF80001
310
F000E00007FFFC0001FFFFC00001FFFE00000FFFFF80007FC0000FFFFC0003FC
310
0000FFFFC0001FF8000001FFFE0000007FFFFFF0001FFFFFFFC00003FFE00001
310
FFFFC00003FFE00001FFFF0001FFFFFFFFF00007FFFE0001F000E0000FFFFF00
310
00FFFF800001FFFC00000FFFFF80007FC0001FFFFE0001FC0001FFFFE0001FF8
310
000001FFFE0000007FFFFFF0001FFFFFFF80000FFFF80000FFFF80000FFFF800
310
00FFFF0003FFFFFFFFE0000FFFFF8000F000C0003FFFFF8000FFFF800000FFFC
310
000007FFFF80007F80003FFFFF0001FC0003FFFFF0001FF8000001FFFE000000
310
7FFFFFF0001FFFFFFF80003FFFFE0000FFFF80003FFFFE0000FFFF0003FFFFFF
310
FFE0003FFFFF8000F000C0003FFFFF8000FFFF800000FFFC000007FFFF80007F
310
80007FFFFF8001F80007FFFFF8000FF8000001FFFE0000007FFFFFF0001FFFFF
310
FF00007FFFFF00007FFF00007FFFFF00007FFF0003FFFFFFFFE0003FFFFFC000
310
F000C0007FFFFFC000FFFF000000FFFC000007FFFF80007F8000FFFFFF8000F8
310
000FFFFFF8000FF8000001FFFE0000007FFFFFF0001FFFFFFF0000FFFFFF8000
310
7FFF0000FFFFFF80007FFF0003FFFFFFFFC0007FFFFFC00070008000FFFFFFC0
310
00FFFF000000FFF8000007FFFF80007F8000FFFFFF8000F8000FFFFFF8000FF8
310
000001FFFE0000007FFFFFF0001FFFFFFE0001FFFFFFC0003FFE0001FFFFFFC0
310
003FFF0003FFFFFFFFC0007FFFFFE00070008000FFFFFFC0007FFF0000007FF8
310
000003FFFF80007F0001FFFFFF8000F8000FFFFFF8000FF8000001FFFE000000
310
7FFFFFF0001FFFFFFE0001FFFFFFC0003FFE0001FFFFFFC0003FFF0003FFFFFF
310
FFC000FFFFFFE00070008000FFFFFFC0007FFF0000007FF8000003FFFF80007F
310
0001FFFFFF8000F8001FFFFFF8000FF8000001FFFE0000007FFFFFF0001FFFFF
310
FE0003FFFFFFE0003FFE0003FFFFFFE0003FFF0003FFFFFFFFC000FFFFFFE000
310
70008000FFFFFFC0007FFE0000007FF8000003FFFF80007F0001FFFFFF8000F0
310
001FFFFFF8000FF8000001FFFE0000007FFFFFF0001FFFFFFC0003FFFFFFE000
310
1FFC0003FFFFFFE0001FFF0003FFFFFFFFC000FFFFFFC00070008000FFFFFF80
310
007FFE0000007FF0000003FFFF80007F0001FFFFFF0000F0001FFFFFF8000FF8
310
000001FFFE0000007FFFFFF0001FFFFFFC0007FFFFFFF0001FFC0007FFFFFFF0
310
001FFF0003FFFFFFFFC000FFFFFFC00070008001FFFFFF0000FFFE0000003FF0
310
000001FFFF80007F0001FFFFFF0000F8001FFFFFF0000FF8000001FFFE000000
310
7FFFFFF0001FFFFFFC0007FFFFFFF0001FFC0007FFFFFFF0001FFF0003FFFFFF
310
FFC001FFFFFF80007000FFFFFFFFFE0000FFFE0008003FF0008001FFFF80007F
310
FFFFFFFFFC0000FFFFFFFFFFE0000FF8000001FFFE0000007FFFFFF0001FFFFF
310
F8000FFFFFFFF8000FF8000FFFFFFFF8000FFF0003FFFFFFFFFFFFFFFFFF0000
310
7000FFFFFFFFFC0000FFFC0008003FF0008001FFFF80007FFFFFFFFFF80001FF
310
FFFFFFFF80000FF8000001FFFE0000007FFFFFF0001FFFFFF8000FFFFFFFF800
310
0FF8000FFFFFFFF8000FFF0003FFFFFFFFFFFFFFFFFE0000F000FFFFFFFFE000
310
00FFFC000C003FE000C001FFFF80007FFFFFFFFFC00001FFFFFFFFFE00001FF8
310
000001FFFE0000007FFFFFF0001FFFFFF8000FFFFFFFF8000FF8000FFFFFFFF8
310
000FFF0003FFFFFFFFFFFFFFFFF00000F000FFFFFFFE000001FFFC000C001FE0
310
00C000FFFF80007FFFFFFFFE000001FFFFFFFFE000001FF80FFFFFFFFFFFFFC0
310
7FFFFFF0001FFFFFF8000FFFFFFFF8000FF8000FFFFFFFF8000FFF0003FFFFFF
310
FFFFFFFFFF800000F000FFFFFFC0000001FFFC001C001FE001C000FFFF80007F
310
FFFFFF80000003FFFFFFF80000001FF80FFFFFFFFFFFFFC07FFFFFF0001FFFFF
310
F8001FFFFFFFFC000FF8001FFFFFFFFC000FFF0003FFFFFFFFFFFFFFF0000001
310
F000FFFFF800000001FFF8001C001FE001C000FFFF80007FFFFFF800000003FF
310
FFFF800000003FF80FFFFFFFFFFFFFC07FFFFFF0001FFFFFF8001FFFFFFFFC00
310
0FF8001FFFFFFFFC000FFF0003FFFFFFFFFFFFFE00000001F000FFFFC0000000
310
03FFF8001E001FC001E000FFFF80007FFFFF8000000007FFFFFC000000003FF8
310
0FFFFFFFFFFFFFC07FFFFFF0001FFFFFF8001FFFFFFFFC000FF8001FFFFFFFFC
310
000FFF0003FFFFFFFFFFFFE000000003F000FFFE0000000007FFF8001E000FC0
310
01E0007FFF80007FFFFE0000000007FFFFE0000000007FF80FFFFFFFFFFFFFC0
310
7FFFFFF0001FFFFFF0001FFFFFFFFC0007F0001FFFFFFFFC0007FF0003FFFFFF
310
FFFFFF0000000003F000FFF80000000007FFF8001E000FC003E0007FFF80007F
310
FFF0000000000FFFFF8000000000FFF80FFFFFFFFFFFFFC07FFFFFF0001FFFFF
310
F0001FFFFFFFFC0007F0001FFFFFFFFC0007FF0003FFFFFFFFFFFC0000000007
310
F000FFE0000000000FFFF0003E000FC003E0007FFF80007FFFC0000000001FFF
310
FE0000000001FFF80FFFFFFFFFFFFFC07FFFFFF0001FFFFFF0001FFFFFFFFC00
310
07F0001FFFFFFFFC0007FF0003FFFFFFFFFFF0000000000FF000FFC000000000
310
1FFFF0003F000F8003F0003FFF80007FFF80000000003FFFF80000000003FFF8
310
0FFFFFFFFFFFFFC07FFFFFF0001FFFFFF0001FFFFFFFFC0007F0001FFFFFFFFC
310
0007FF0003FFFFFFFFFFE0000000001FF000FF00000000007FFFF0003F000780
310
03F0003FFF80007FFF00000000007FFFF00000000007FFF80FFFFFFFFFFFFFC0
310
7FFFFFF0001FFFFFF0001FFFFFFFFC0007F0001FFFFFFFFC0007FF0003FFFFFF
310
FFFF80000000007FF000FE0000000000FFFFE0003F00078007F0003FFF80007F
310
FE0000000001FFFFE0000000001FFFF80FFFFFFFFFFFFFC07FFFFFF0001FFFFF
310
F0001FFFFFFFFC0007F0001FFFFFFFFC0007FF0003FFFFFFFFFF0000000000FF
310
F000FC0000000003FFFFE0007F00078007F0003FFF80007FFC0000000007FFFF
310
C0000000007FFFF80FFFFFFFFFFFFFC07FFFFFF0001FFFFFF8001FFFFFFFFC00
310
0FF8001FFFFFFFFC000FFF0003FFFFFFFFFE0000000003FFF000FC000000000F
310
FFFFE0007F80070007F8001FFF80007FF8000000001FFFFF8000000001FFFFF8
310
0FFFFFFFFFFFFFC07FFFFFF0001FFFFFF8001FFFFFFFFC000FF8001FFFFFFFFC
310
000FFF0003FFFFFFFFFC000000000FFFF000F8000000007FFFFFE0007F800700
310
07F8001FFF80007FF000000000FFFFFF800000000FFFFFF80FFFFFFFFFFFFFC0
310
7FFFFFF0001FFFFFF8000FFFFFFFF8000FF8000FFFFFFFF8000FFF0003FFFFFF
310
FFFC000000007FFFF000F800000007FFFFFFC0007F8003000FF8001FFF80007F
310
F000000007FFFFFF000000007FFFFFF80FFFFFFFFFFFFFC07FFFFFF0001FFFFF
310
F8000FFFFFFFF8000FF8000FFFFFFFF8000FFF0003FFFFFFFFF80000000FFFFF
310
F000F0000000FFFFFFFFC000FF8003000FF8001FFF80007FE0000000FFFFFFFF
310
0000000FFFFFFFF8000001FFFE0000007FFFFFF0001FFFFFF8000FFFFFFFF800
310
0FF8000FFFFFFFF8000FFF0003FFFFFFFFF8000000FFFFFFF000F000000FFFFF
310
FFFFC000FFC002000FF8000FFF80007FE000001FFFFFFFFE000001FFFFFFFFF8
310
000001FFFE0000007FFFFFF0001FFFFFF8000FFFFFFFF8000FF8000FFFFFFFF8
310
000FFF0003FFFFFFFFF000001FFFFFFFF000E00000FFFFFFFFFFC000FFC00200
310
0FFC000FFF80007FE00001FFFFFFFFFE00001FFFFFFFFFF8000001FFFE000000
310
7FFFFFF0001FFFFFFC000FFFFFFFF8001FFC000FFFFFFFF8001FFF0003FFFFFF
310
FFF00001FFFFFFFFF000E00007FFFFFFFFFF8000FFC000001FFC000FFF80007F
310
C0000FFFFFFFFFFE0000FFFFFFFFFFF8000001FFFE0000007FFFFFF0001FFFFF
310
FC0007FFFFFFF0001FFC0007FFFFFFF0001FFF0003FFFFFFFFF00007FFFFFFFF
310
F000E0001FFFFFFFFFFF8000FFC000001FFC000FFF80007FC0003FFFFFFFFFFE
310
0001FFFFFFFFFFF8000001FFFE0000007FFFFFF0001FFFFFFC0007FFFFFFF000
310
1FFC0007FFFFFFF0001FFF0003FFFFFFFFF0001FFFFFFFFFF000E0003FFFFF00
310
03FF8001FFE000001FFC0007FF80007FC0007FFFFF0007FC0003FFFFF0003FF8
310
000001FFFE0000007FFFFFF0001FFFFFFC0003FFFFFFE0001FFC0003FFFFFFE0
310
001FFF0003FFFFFFFFF0003FFFFFFFFFF000E0003FFFFF0001FF8001FFE00000
310
1FFE0007FF80007FC0007FFFFE0003FC0007FFFFE0003FF8000001FFFE000000
310
7FFFFFF0001FFFFFFE0003FFFFFFE0003FFE0003FFFFFFE0003FFF0003FFFFFF
310
FFF0003FFFFF8001F000E0003FFFFF0001FF0001FFE000001FFE0007FF80007F
310
C0007FFFFE0003FC0007FFFFE0003FF8000001FFFE0000007FFFFFF0001FFFFF
310
FE0001FFFFFFC0003FFE0001FFFFFFC0003FFF0003FFFFFFFFF0003FFFFF0001
310
F000E0003FFFFF0003FF0001FFE000003FFE0007FF80007FC0007FFFFE0003FC
310
0007FFFFE0003FF8000001FFFE0000007FFFFFF0001FFFFFFF0001FFFFFFC000
310
7FFF0001FFFFFFC0007FFF0003FFFFFFFFF0003FFFFF0001F000E0003FFFFE00
310
03FF0003FFF000003FFE0003FF80007FC0007FFFFC0003FE0007FFFFE0003FF8
310
000001FFFE0000007FFFFFF0001FFFFFFF0000FFFFFF80007FFF0000FFFFFF80
310
007FFF0003FFFFFFFFF0003FFFFF0001F000E0003FFFFE0003FF0003FFF00000
310
3FFF0003FF80007FC0007FFFFC0007FE0007FFFFC0003FF8000001FFFE000000
310
7FFFFFF0001FFFFFFF80007FFFFF0000FFFF80007FFFFF0000FFFF0003FFFFFF
310
FFF0003FFFFF0003F000E0003FFFFC0003FE0003FFF000003FFF0003FF80007F
310
E0003FFFF80007FE0003FFFFC0007FF8000001FFFE0000007FFFFFF0001FFFFF
310
FF80003FFFFE0000FFFF80003FFFFE0000FFFF0003FFFFFFFFF0001FFFFE0003
310
F000F0001FFFF80003FE0003FFF000007FFF0001FF80007FE0003FFFF00007FE
310
0001FFFF80007FF8000001FFFE0000007FFFFFF0001FFFFFFFC0000FFFF80001
310
FFFFC0000FFFF80001FFFF0003FFFFFFFFF0001FFFFC0003F000F0000FFFF000
310
07FE0007FFF800007FFF0001FF80007FE0001FFFE00007FF0000FFFE00007FF8
310
000001FFFE0000007FFFFFF0001FFFFFFFC00003FFE00001FFFFC00003FFE000
310
01FFFF0003FFFFFFFFF8000FFFF80003F000F00003FFC00007FC0007FFF80000
310
7FFF8001FF80007FF00007FF80000FFF00007FF80000FFF8000001FFFE000000
310
7F80000000000001FFE000003E000003FFFFE000003E000003FFFF0003FFFFFF
310
FFF80003FFE00007F000F800000000000FFC0007FFF800007FFF8001FF80007F
310
F000000000000FFF000000000000FFF8000001FFFE0000007F80000000000001
310
FFF0000000000007FFFFF0000000000007FFFF0003FFFFFFFFFC00007E000007
310
F000F800000000000FFC0007FFF80000FFFF8000FF80007FF800000000001FFF
310
800000000001FFF8000001FFFE0000007F80000000000001FFF800000000000F
310
FFFFF800000000000FFFFF0003FFFFFFFFFC00000000000FF000FC0000000000
310
1FFC0007FFFC0000FFFF8000FF80007FF800000000003FFFC00000000001FFF8
310
000001FFFE0000007F80000000000001FFF800000000000FFFFFF80000000000
310
0FFFFF0003FFFFFFFFFE00000000001FF000FE00000000003FF8000FFFFC0000
310
FFFF8000FF80007FFC00000000003FFFC00000000003FFF8000001FFFE000000
310
7F80000000000001FFFC00000000001FFFFFFC00000000001FFFFF0003FFFFFF
310
FFFF00000000001FF000FF00000000003FF8000FFFFC0000FFFFC000FF80007F
310
FE00000000007FFFE00000000007FFF8000001FFFE0000007F80000000000001
310
FFFE00000000003FFFFFFE00000000003FFFFF0003FFFFFFFFFF80000000003F
310
F000FF80000000007FF8000FFFFC0001FFFFC0007F80007FFF0000000000FFFF
310
F0000000000FFFF800000000000000007F80000000000001FFFF8000000000FF
310
FFFFFF8000000000FFFFFF0003FFFFFFFFFFC0000000007FF000FFC000000000
310
FFF8000FFFFE0001FFFFC0007F80007FFF8000000001FFFFF8000000001FFFF8
310
00000000000000007F80000000000001FFFFC000000001FFFFFFFFC000000001
310
FFFFFF0003FFFFFFFFFFE000000000FFF000FFE000000003FFF0001FFFFE0001
310
FFFFC0007F80007FFFC000000007FFFFFE000000003FFFF80000000000000000
310
7F80000000000001FFFFE000000003FFFFFFFFE000000003FFFFFF0003FFFFFF
310
FFFFF000000003FFF000FFF80000000FFFF0001FFFFE0001FFFFE0007F80007F
310
FFF00000000FFFFFFF00000000FFFFF800000000000000007F80000000000001
310
FFFFF80000000FFFFFFFFFF80000000FFFFFFF0003FFFFFFFFFFFC0000000FFF
310
F000FFFE0000003FFFF0001FFFFE0003FFFFE0003F80007FFFFC0000003FFFFF
310
FFC0000003FFFFF800000000000000007F80000000000001FFFFFE0000003FFF
310
FFFFFFFE0000003FFFFFFF0003FFFFFFFFFFFF0000003FFFF000FFFF800000FF
310
FFF0001FFFFF0003FFFFE0003F80007FFFFF000001FFFFFFFFF800001FFFFFF8
310
00000000000000007F80000000000001FFFFFFC00001FFFFFFFFFFFFC00001FF
310
FFFFFF0003FFFFFFFFFFFFC00000FFFFF000FFFFF8000FFFFFFFFFFFFFFFFFFF
310
FFFFFFFFFFFFFFFFFFFFF0001FFFFFFFFFFF0000FFFFFFF80000000000000000
310
7FFFFFFFFFFFFFFFFFFFFFFC001FFFFFFFFFFFFFFC001FFFFFFFFFFFFFFFFFFF
310
FFFFFFFC001FFFFFF000FFFFFFFFFFFFFFFFFFFFFFFFFFFFFFFFFFFFFFFFFFFF
310
FFFFFFFFFFFFFFFFFFFFFFFFFFFFFFFFFFFFFFFFFFFFFFFFFFFFFFFFFFFFFFFF
310
FFFFFFFFFFFFFFFFFFFFFFFFFFFFFFFFFFFFFFFFFFFFFFFFFFFFFFFFFFFFFFFF
310
F000FFFFFFFFFFFFFFFFFFFFFFFFFFFFFFFFFFFFFFFFFFFFFFFFFFFFFFFFFFFF
310
FFFFFFFFFFFFFFFFFFFFFFFFFFFFFFFFFFFFFFFFFFFFFFFFFFFFFFFFFFFFFFFF
310
FFFFFFFFFFFFFFFFFFFFFFFFFFFFFFFFFFFFFFFFFFFFFFFFF000FFFFFFFFFFFF
310
FFFFFFFFFFFFFFFFFFFFFFFFFFFFFFFFFFFFFFFFFFFFFFFFFFFFFFFFFFFFFFFF
310
FFFFFFFFFFFFFFFFFFFFFFFFFFFFFFFFFFFFFFFFFFFFFFFFFFFFFFFFFFFFFFFF
310
FFFFFFFFFFFFFFFFFFFFFFFFFFFFFFFFF000FFFFFFFFFFFFFFFFFFFFFFFFFFFF
310
FFFFFFFFFFFFFFFFFFFFFFFFFFFFFFFFFFFFFFFFFFFFFFFFFFFFFFFFFFFFFFFF
310
FFFFFFFFFFFFFFFFFFFFFFFFFFFFFFFFFFFFFFFFFFFFFFFFFFFFFFFFFFFFFFFF
310
FFFFFFFFFFFFFFFFF000FFFFFFFFFFFFFFFFFFFFFFFFFFFFFFFFFFFFFFFFFFFF
310
FFFFFFFFFFFFFFFFFFFFFFFFFFFFFFFFFFFFFFFFFFFFFFFFFFFFFFFFFFFFFFFF
310
FFFFFFFFFFFFFFFFFFFFFFFFFFFFFFFFFFFFFFFFFFFFFFFFFFFFFFFFFFFFFFFF
310
F000FFFFFFFFFFFFFFFFFFFFFFFFFFFFFFFFFFFFFFFFFFFFFFFFFFFFFFFFFFFF
310
FFFFFFFFFFFFFFFFFFFFFFFFFFFFFFFFFFFFFFFFFFFFFFFFFFFFFFFFFFFFFFFF
310
FFFFFFFFFFFFFFFFFFFFFFFFFFFFFFFFFFFFFFFFFFFFFFFFF000FFFFFFFFFFFF
310
FFFFFFFFFFFFFFFFFFFFFFFFFFFFFFFFFFFFFFFFFFFFFFFFFFFFFFFFFFFFFFFF
310
FFFFFFFFFFFFFFFFFFFFFFFFFFFFFFFFFFFFFFFFFFFFFFFFFFFFFFFFFFFFFFFF
310
FFFFFFFFFFFFFFFFFFFFFFFFFFFFFFFFF000FFFFFFFFFFFFFFFFFFFFFFFFFFFF
310
FFFFFFFFFFFFFFFFFFFFFFFFFFFFFFFFFFFFFFFFFFFFFFFFFFFFFFFFFFFFFFFF
310
FFFFFFFFFFFFFFFFFFFFFFFFFFFFFFFFFFFFFFFFFFFFFFFFFFFFFFFFFFFFFFFF
310
FFFFFFFFFFFFFFFFF000FFFFFFFFFFFFFFFFFFFFFFFFFFFFFFFFFFFFFFFFFFFF
310
FFFFFFFFFFFFFFFFFFFFFFFFFFFFFFFFFFFFFFFFFFFFFFFFFFFFFFFFFFFFFFFF
310
FFFFFFFFFFFFFFFFFFFFFFFFFFFFFFFFFFFFFFFFFFFFFFFFFFFFFFFFFFFFFFFF
310
F000FFFFFFFFFFFFFFFFFFFFFFFFFFFFFFFFFFFFFFFFFFFFFFFFFFFFFFFFFFFF
310
FFFFFFFFFFFFFFFFFFFFFFFFFFFFFFFFFFFFFFFFFFFFFFFFFFFFFFFFFFFFFFFF
310
FFFFFFFFFFFFFFFFFFFFFFFFFFFFFFFFFFFFFFFFFFFFFFFFF000FFFFFFFFFFFF
310
FFFFFFFFFFFFFFFFFFFFFFFFFFFFFFFFFFFFFFFFFFFFFFFFFFFFFFFFFFFFFFFF
310
FFFFFFFFFFFFFFFFFFFFFFFFFFFFFFFFFFFFFFFFFFFFFFFFFFFFFFFFFFFFFFFF
310
FFFFFFFFFFFFFFFFFFFFFFFFFFFFFFFFF000FFFFFFFFFFFFFFFFFFFFFFFFFFFF
310
FFFFFFFFFFFFFFFFFFFFFFFFFFFFFFFFFFFFFFFFFFFFFFFFFFFFFFFFFFFFFFFF
310
FFFFFFFFFFFFFFFFFFFFFFFFFFFFFFFFFFFFFFFFFFFFFFFFFFFFFFFFFFFFFFFF
310
FFFFFFFFFFFFFFFFF000FFFFFFFFFFFFFFFFFFFFFFFFFFFFFFFFFFFFFFFFFFFF
310
FFFFFFFFFFFFFFFFFFFFFFFFFFFFFFFFFFFFFFFFFFFFFFFFFFFFFFFFFFFFFFFF
310
FFFFFFFFFFFFFFFFFFFFFFFFFFFFFFFFFFFFFFFFFFFFFFFFFFFFFFFFFFFFFFFF
310
F000FFFFFFFFFFFFFFFFFFFFFFFFFFFFFFFFFFFFFFFFFFFFFFFFFFFFFFFFFFFF
310
FFFFFFFFFFFFFFFFFFFFFFFFFFFFFFFFFFFFFFFFFFFFFFFFFFFFFFFFFFFFFFFF
310
FFFFFFFFFFFFFFFFFFFFFFFFFFFFFFFFFFFFFFFFFFFFFFFFF000FFFFFFFFFFFF
310
FFFFFFFFFFFFFFFFFFFFFFFFFFFFFFFFFFFFFFFFFFFFFFFFFFFFFFFFFFFFFFFF
310
FFFFFFFFFFFFFFFFFFFFFFFFFFFFFFFFFFFFFFFFFFFFFFFFFFFFFFFFFFFFFFFF
310
FFFFFFFFFFFFFFFFFFFFFFFFFFFFFFFFF000FFFFFFFFFFFFFFFFFFFFFFFFFFFF
310
FFFFFFFFFFFFFFFFFFFFFFFFFFFFFFFFFFFFFFFFFFFFFFFFFFFFFFFFFFFFFFFF
310
FFFFFFFFFFFFFFFFFFFFFFFFFFFFFFFFFFFFFFFFFFFFFFFFFFFFFFFFFFFFFFFF
310
FFFFFFFFFFFFFFFFF000FFFFFFFFFFFFFFFFFFFFFFFFFFFFFFFFFFFFFFFFFFFF
310
FFFFFFFFFFFFFFFFFFFFFFFFFFFFFFFFFFFFFFFFFFFFFFFFFFFFFFFFFFFFFFFF
310
FFFFFFFFFFFFFFFFFFFFFFFFFFFFFFFFFFFFFFFFFFFFFFFFFFFFFFFFFFFFFFFF
310
F000FFFFFFFFFFFFFFFFFFFFFFFFFFFFFFFFFFFFFFFFFFFFFFFFFFFFFFFFFFFF
310
FFFFFFFFFFFFFFFFFFFFFFFFFFFFFFFFFFFFFFFFFFFFFFFFFFFFFFFFFFFFFFFF
310
FFFFFFFFFFFFFFFFFFFFFFFFFFFFFFFFFFFFFFFFFFFFFFFFF000FFFFFFFFFFFF
310
FFFFFFFFFFFFFFFFFFFFFFFFFFFFFFFFFFFFFFFFFFFFFFFFFFFFFFFFFFFFFFFF
310
FFFFFFFFFFFFFFFFFFFFFFFFFFFFFFFFFFFFFFFFFFFFFFFFFFFFFFFFFFFFFFFF
310
FFFFFFFFFFFFFFFFFFFFFFFFFFFFFFFFF000FFFFFFFFFFFFFFFFFFFFFFFFFFFF
310
FFFFFFFFFFFFFFFFFFFFFFFFFFFFFFFFFFFFFFFFFFFFFFFFFFFFFFFFFFFFFFFF
310
FFFFFFFFFFFFFFFFFFFFFFFFFFFFFFFFFFFFFFFFFFFFFFFFFFFFFFFFFFFFFFFF
310
FFFFFFFFFFFFFFFFF000FFFFFFFFFFFFFFFFFFFFFFFFFFFFFFFFFFFFFFFFFFFF
310
FFFFFFFFFFFFFFFFFFFFFFFFFFFFFFFFFFFFFFFFFFFFFFFFFFFFFFFFFFFFFFFF
310
FFFFFFFFFFFFFFFFFFFFFFFFFFFFFFFFFFFFFFFFFFFFFFFFFFFFFFFFFFFFFFFF
310
F000FFFFFFFFFFFFFFFFFFFFFFFFFFFFFFFFFFFFFFFFFFFFFFFFFFFFFFFFFFFF
310
FFFFFFFFFFFFFFFFFFFFFFFFFFFFFFFFFFFFFFFFFFFFFFFFFFFFFFFFFFFFFFFF
310
FFFFFFFFFFFFFFFFFFFFFFFFFFFFFFFFFFFFFFFFFFFFFFFFF000FFFFFFFFFFFF
310
FFFFFFFFFFFFFFFFFFFFFFFFFFFFFFFFFFFFFFFFFFFFFFFFFFFFFFFFFFFFFFFF
310
FFFFFFFFFFFFFFFFFFFFFFFFFFFFFFFFFFFFFFFFFFFFFFFFFFFFFFFFFFFFFFFF
310
FFFFFFFFFFFFFFFFFFFFFFFFFFFFFFFFF0000000000000000000000000000000
310
0000000000000000000000000000000000000000000000000000000000000000
310
0000000000000000000000000000000000000000000000000000000000000000
310
0000000000000000000000000000000000000000000000000000000000000000
310
0000000000000000000000000000000000000000000000000000000000000000
310
0000000000000000000000000000000000000000000000000000000000000000
310
0000000000000000000000000000000000000000000000000000000000000000
310
0000000000000000000000000000000000000000000000000000000000000000
310
0000000000000000000000000000000000000000000000000000000000000000
310
0000000000000000000000000000000000000000000000000000000000000000
310
0000000000000000000000000000000000000000000000000000000000000000
310
0000000000000000000000000000000000000000000000000000000000000000
310
0000000000000000000000000000000000000000000000000000000000000000
310
0000000000000000000000000000000000000000000000000000000000000000
310
0000000000000000000000000000000000000000000000000000000000000000
310
0000000000000000000000000000000000000000000000000000000000000000
  1
OLE
  0
ENDSEC
  0
SECTION
  2
OBJECTS
  0
DICTIONARY
  5
C
330
0
100
AcDbDictionary
281
     1
  3
ACAD_GROUP
350
D
  3
ACAD_LAYOUT
350
1A
  3
ACAD_MLINESTYLE
350
17
  3
ACAD_PLOTSETTINGS
350
19
  3
ACAD_PLOTSTYLENAME
350
E
  0
DICTIONARY
  5
D
102
{ACAD_REACTORS
330
C
102
}
330
C
100
AcDbDictionary
281
     1
  0
DICTIONARY
  5
1A
102
{ACAD_REACTORS
330
C
102
}
330
C
100
AcDbDictionary
281
     1
  3
Layout1
350
1E
  3
Layout2
350
26
  3
Model
350
22
  0
DICTIONARY
  5
17
102
{ACAD_REACTORS
330
C
102
}
330
C
100
AcDbDictionary
281
     1
  3
Standard
350
18
  0
DICTIONARY
  5
19
102
{ACAD_REACTORS
330
C
102
}
330
C
100
AcDbDictionary
281
     1
  0
ACDBDICTIONARYWDFLT
  5
E
102
{ACAD_REACTORS
330
C
102
}
330
C
100
AcDbDictionary
281
     1
  3
Normal
350
F
100
AcDbDictionaryWithDefault
340
F
  0
LAYOUT
  5
1E
102
{ACAD_REACTORS
330
1A
102
}
330
1A
100
AcDbPlotSettings
  1

  2
none_device
  4

  6

 40
0.0
 41
0.0
 42
0.0
 43
0.0
 44
0.0
 45
0.0
 46
0.0
 47
0.0
 48
0.0
 49
0.0
140
0.0
141
0.0
142
1.0
143
1.0
 70
   688
 72
     0
 73
     0
 74
     5
  7

 75
    16
147
1.0
148
0.0
149
0.0
100
AcDbLayout
  1
Layout1
 70
     1
 71
     1
 10
0.0
 20
0.0
 11
420.0
 21
297.0
 12
0.0
 22
0.0
 32
0.0
 14
1.0000000000E+20
 24
1.0000000000E+20
 34
1.0000000000E+20
 15
-1.0000000000E+20
 25
-1.0000000000E+20
 35
-1.0000000000E+20
146
0.0
 13
0.0
 23
0.0
 33
0.0
 16
1.0
 26
0.0
 36
0.0
 17
0.0
 27
1.0
 37
0.0
 76
     0
330
1B
  0
LAYOUT
  5
26
102
{ACAD_REACTORS
330
1A
102
}
330
1A
100
AcDbPlotSettings
  1

  2
none_device
  4

  6

 40
0.0
 41
0.0
 42
0.0
 43
0.0
 44
0.0
 45
0.0
 46
0.0
 47
0.0
 48
0.0
 49
0.0
140
0.0
141
0.0
142
1.0
143
1.0
 70
   688
 72
     0
 73
     0
 74
     5
  7

 75
    16
147
1.0
148
0.0
149
0.0
100
AcDbLayout
  1
Layout2
 70
     1
 71
     2
 10
0.0
 20
0.0
 11
0.0
 21
0.0
 12
0.0
 22
0.0
 32
0.0
 14
0.0
 24
0.0
 34
0.0
 15
0.0
 25
0.0
 35
0.0
146
0.0
 13
0.0
 23
0.0
 33
0.0
 16
1.0
 26
0.0
 36
0.0
 17
0.0
 27
1.0
 37
0.0
 76
     0
330
23
  0
LAYOUT
  5
22
102
{ACAD_REACTORS
330
1A
102
}
330
1A
100
AcDbPlotSettings
  1

  2
none_device
  4

  6

 40
0.0
 41
0.0
 42
0.0
 43
0.0
 44
0.0
 45
0.0
 46
0.0
 47
0.0
 48
0.0
 49
0.0
140
0.0
141
0.0
142
1.0
143
1.0
 70
  1712
 72
     0
 73
     0
 74
     0
  7

 75
     0
147
1.0
148
0.0
149
0.0
100
AcDbLayout
  1
Model
 70
     1
 71
     0
 10
0.0
 20
0.0
 11
297.0
 21
210.0
 12
0.0
 22
0.0
 32
0.0
 14
0.0
 24
0.0
 34
0.0
 15
297.0
 25
210.0
 35
0.0
146
0.0
 13
0.0
 23
0.0
 33
0.0
 16
1.0
 26
0.0
 36
0.0
 17
0.0
 27
1.0
 37
0.0
 76
     0
330
1F
331
29
  0
MLINESTYLE
  5
18
102
{ACAD_REACTORS
330
17
102
}
330
17
100
AcDbMlineStyle
  2
Standard
 70
     0
  3

 62
   256
 51
90.0
 52
90.0
 71
     2
 49
0.5
 62
   256
  6
BYLAYER
 49
-0.5
 62
   256
  6
BYLAYER
  0
ACDBPLACEHOLDER
  5
F
102
{ACAD_REACTORS
330
E
102
}
330
E
  0
ENDSEC
  0
EOF
