  0
SECTION
  2
HEADER
  9
$ACADVER
  1
AC1015
  9
$ACADMAINTVER
 70
     6
  9
$DWGCODEPAGE
  3
ANSI_1252
  9
$INSBASE
 10
0.0
 20
0.0
 30
0.0
  9
$EXTMIN
 10
0.0
 20
0.0
 30
0.0
  9
$EXTMAX
 10
297.0
 20
210.0
 30
0.0
  9
$LIMMIN
 10
0.0
 20
0.0
  9
$LIMMAX
 10
297.0
 20
210.0
  9
$ORTHOMODE
 70
     0
  9
$REGENMODE
 70
     1
  9
$FILLMODE
 70
     1
  9
$QTEXTMODE
 70
     0
  9
$MIRRTEXT
 70
     1
  9
$LTSCALE
 40
1.0
  9
$ATTMODE
 70
     1
  9
$TEXTSIZE
 40
2.0
  9
$TRACEWID
 40
1.0
  9
$TEXTSTYLE
  7
Standard
  9
$CLAYER
  8
0
  9
$CELTYPE
  6
ByLayer
  9
$CECOLOR
 62
   256
  9
$CELTSCALE
 40
1.0
  9
$DISPSILH
 70
     0
  9
$DIMSCALE
 40
1.0
  9
$DIMASZ
 40
3.0
  9
$DIMEXO
 40
0.0
  9
$DIMDLI
 40
3.75
  9
$DIMRND
 40
0.0
  9
$DIMDLE
 40
0.0
  9
$DIMEXE
 40
1.0
  9
$DIMTP
 40
0.0
  9
$DIMTM
 40
0.0
  9
$DIMTXT
 40
2.0
  9
$DIMCEN
 40
2.5
  9
$DIMTSZ
 40
0.0
  9
$DIMTOL
 70
     0
  9
$DIMLIM
 70
     0
  9
$DIMTIH
 70
     1
  9
$DIMTOH
 70
     1
  9
$DIMSE1
 70
     0
  9
$DIMSE2
 70
     0
  9
$DIMTAD
 70
     1
  9
$DIMZIN
 70
     0
  9
$DIMBLK
  1

  9
$DIMASO
 70
     1
  9
$DIMSHO
 70
     1
  9
$DIMPOST
  1

  9
$DIMAPOST
  1

  9
$DIMALT
 70
     0
  9
$DIMALTD
 70
     3
  9
$DIMALTF
 40
0.0393700787
  9
$DIMLFAC
 40
1.0
  9
$DIMTOFL
 70
     1
  9
$DIMTVP
 40
0.0
  9
$DIMTIX
 70
     0
  9
$DIMSOXD
 70
     0
  9
$DIMSAH
 70
     0
  9
$DIMBLK1
  1

  9
$DIMBLK2
  1

  9
$DIMSTYLE
  2
ISO-25
  9
$DIMCLRD
 70
     0
  9
$DIMCLRE
 70
     0
  9
$DIMCLRT
 70
     0
  9
$DIMTFAC
 40
1.0
  9
$DIMGAP
 40
1.524
  9
$DIMJUST
 70
     0
  9
$DIMSD1
 70
     0
  9
$DIMSD2
 70
     0
  9
$DIMTOLJ
 70
     0
  9
$DIMTZIN
 70
     0
  9
$DIMALTZ
 70
     0
  9
$DIMALTTZ
 70
     0
  9
$DIMUPT
 70
     0
  9
$DIMDEC
 70
     2
  9
$DIMTDEC
 70
     3
  9
$DIMALTU
 70
     2
  9
$DIMALTTD
 70
     3
  9
$DIMTXSTY
  7
Standard
  9
$DIMAUNIT
 70
     0
  9
$DIMADEC
 70
     2
  9
$DIMALTRND
 40
0.0
  9
$DIMAZIN
 70
     0
  9
$DIMDSEP
 70
    44
  9
$DIMATFIT
 70
     3
  9
$DIMFRAC
 70
     0
  9
$DIMLDRBLK
  1

  9
$DIMLUNIT
 70
     2
  9
$DIMLWD
 70
    -2
  9
$DIMLWE
 70
    -2
  9
$DIMTMOVE
 70
     0
  9
$LUNITS
 70
     2
  9
$LUPREC
 70
     2
  9
$SKETCHINC
 40
1.0
  9
$FILLETRAD
 40
10.0
  9
$AUNITS
 70
     0
  9
$AUPREC
 70
     2
  9
$MENU
  1
.
  9
$ELEVATION
 40
0.0
  9
$PELEVATION
 40
0.0
  9
$THICKNESS
 40
0.0
  9
$LIMCHECK
 70
     0
  9
$CHAMFERA
 40
10.0
  9
$CHAMFERB
 40
10.0
  9
$CHAMFERC
 40
20.0
  9
$CHAMFERD
 40
0.0
  9
$SKPOLY
 70
     0
  9
$TDCREATE
 40
2456044.69550147
  9
$TDUCREATE
 40
2456044.612168137
  9
$TDUPDATE
 40
2456044.695503091
  9
$TDUUPDATE
 40
2456044.612169757
  9
$TDINDWG
 40
0.0000000116
  9
$TDUSRTIMER
 40
0.0000000116
  9
$USRTIMER
 70
     1
  9
$ANGBASE
 50
0.0
  9
$ANGDIR
 70
     0
  9
$PDMODE
 70
     0
  9
$PDSIZE
 40
-1.0
  9
$PLINEWID
 40
0.0
  9
$SPLFRAME
 70
     0
  9
$SPLINETYPE
 70
     6
  9
$SPLINESEGS
 70
     8
  9
$HANDSEED
  5
27E
  9
$SURFTAB1
 70
     6
  9
$SURFTAB2
 70
     6
  9
$SURFTYPE
 70
     6
  9
$SURFU
 70
     6
  9
$SURFV
 70
     6
  9
$UCSBASE
  2

  9
$UCSNAME
  2

  9
$UCSORG
 10
0.0
 20
0.0
 30
0.0
  9
$UCSXDIR
 10
1.0
 20
0.0
 30
0.0
  9
$UCSYDIR
 10
0.0
 20
1.0
 30
0.0
  9
$UCSORTHOREF
  2

  9
$UCSORTHOVIEW
 70
     0
  9
$UCSORGTOP
 10
0.0
 20
0.0
 30
0.0
  9
$UCSORGBOTTOM
 10
0.0
 20
0.0
 30
0.0
  9
$UCSORGLEFT
 10
0.0
 20
0.0
 30
0.0
  9
$UCSORGRIGHT
 10
0.0
 20
0.0
 30
0.0
  9
$UCSORGFRONT
 10
0.0
 20
0.0
 30
0.0
  9
$UCSORGBACK
 10
0.0
 20
0.0
 30
0.0
  9
$PUCSBASE
  2

  9
$PUCSNAME
  2

  9
$PUCSORG
 10
0.0
 20
0.0
 30
0.0
  9
$PUCSXDIR
 10
1.0
 20
0.0
 30
0.0
  9
$PUCSYDIR
 10
0.0
 20
1.0
 30
0.0
  9
$PUCSORTHOREF
  2

  9
$PUCSORTHOVIEW
 70
     0
  9
$PUCSORGTOP
 10
0.0
 20
0.0
 30
0.0
  9
$PUCSORGBOTTOM
 10
0.0
 20
0.0
 30
0.0
  9
$PUCSORGLEFT
 10
0.0
 20
0.0
 30
0.0
  9
$PUCSORGRIGHT
 10
0.0
 20
0.0
 30
0.0
  9
$PUCSORGFRONT
 10
0.0
 20
0.0
 30
0.0
  9
$PUCSORGBACK
 10
0.0
 20
0.0
 30
0.0
  9
$USERI1
 70
     0
  9
$USERI2
 70
     0
  9
$USERI3
 70
     0
  9
$USERI4
 70
     0
  9
$USERI5
 70
     0
  9
$USERR1
 40
0.0
  9
$USERR2
 40
0.0
  9
$USERR3
 40
0.0
  9
$USERR4
 40
0.0
  9
$USERR5
 40
0.0
  9
$WORLDVIEW
 70
     1
  9
$SHADEDGE
 70
     3
  9
$SHADEDIF
 70
    70
  9
$TILEMODE
 70
     1
  9
$MAXACTVP
 70
    64
  9
$PINSBASE
 10
0.0
 20
0.0
 30
0.0
  9
$PLIMCHECK
 70
     0
  9
$PEXTMIN
 10
1.0000000000E+20
 20
1.0000000000E+20
 30
1.0000000000E+20
  9
$PEXTMAX
 10
-1.0000000000E+20
 20
-1.0000000000E+20
 30
-1.0000000000E+20
  9
$PLIMMIN
 10
0.0
 20
0.0
  9
$PLIMMAX
 10
420.0
 20
297.0
  9
$UNITMODE
 70
     0
  9
$VISRETAIN
 70
     1
  9
$PLINEGEN
 70
     0
  9
$PSLTSCALE
 70
     1
  9
$TREEDEPTH
 70
  3020
  9
$CMLSTYLE
  2
Standard
  9
$CMLJUST
 70
     0
  9
$CMLSCALE
 40
20.0
  9
$PROXYGRAPHICS
 70
     1
  9
$MEASUREMENT
 70
     1
  9
$CELWEIGHT
370
    -1
  9
$ENDCAPS
280
     0
  9
$JOINSTYLE
280
     0
  9
$LWDISPLAY
290
     1
  9
$INSUNITS
 70
     4
  9
$HYPERLINKBASE
  1

  9
$STYLESHEET
  1

  9
$XEDIT
290
     1
  9
$CEPSNTYPE
380
     0
  9
$PSTYLEMODE
290
     1
  9
$FINGERPRINTGUID
  2
{1A12989A-E54F-4DCF-91EF-D8F4ECE23BF4}
  9
$VERSIONGUID
  2
{FAEB1C32-E019-11D5-929B-00C0DF256EC4}
  9
$EXTNAMES
290
     1
  9
$PSVPSCALE
 40
0.0
  9
$OLESTARTUP
290
     0
  0
ENDSEC
  0
SECTION
  2
CLASSES
  0
CLASS
  1
ACDBDICTIONARYWDFLT
  2
AcDbDictionaryWithDefault
  3
ObjectDBX Classes
 90
        0
280
     0
281
     0
  0
CLASS
  1
VISUALSTYLE
  2
AcDbVisualStyle
  3
ObjectDBX Classes
 90
     4095
280
     0
281
     0
  0
CLASS
  1
MATERIAL
  2
AcDbMaterial
  3
ObjectDBX Classes
 90
     1153
280
     0
281
     0
  0
CLASS
  1
ACDBPLACEHOLDER
  2
AcDbPlaceHolder
  3
ObjectDBX Classes
 90
        0
280
     0
281
     0
  0
CLASS
  1
LAYOUT
  2
AcDbLayout
  3
ObjectDBX Classes
 90
        0
280
     0
281
     0
  0
ENDSEC
  0
SECTION
  2
TABLES
  0
TABLE
  2
VPORT
  5
8
330
0
100
AcDbSymbolTable
 70
     1
  0
VPORT
  5
29
330
8
100
AcDbSymbolTableRecord
100
AcDbViewportTableRecord
  2
*Active
 70
     0
 10
0.0
 20
0.0
 11
1.0
 21
1.0
 12
148.5
 22
105.0
 13
0.0
 23
0.0
 14
10.0
 24
10.0
 15
10.0
 25
10.0
 16
0.0
 26
0.0
 36
1.0
 17
0.0
 27
0.0
 37
0.0
 40
210.0
 41
1.4142857143
 42
50.0
 43
0.0
 44
0.0
 50
0.0
 51
0.0
 71
     0
 72
  2000
 73
     1
 74
     3
 75
     0
 76
     0
 77
     0
 78
     0
281
     0
 65
     1
110
0.0
120
0.0
130
0.0
111
1.0
121
0.0
131
0.0
112
0.0
122
1.0
132
0.0
 79
     0
146
0.0
  0
ENDTAB
  0
TABLE
  2
LTYPE
  5
5
330
0
100
AcDbSymbolTable
 70
     6
  0
LTYPE
  5
14
330
5
100
AcDbSymbolTableRecord
100
AcDbLinetypeTableRecord
  2
ByBlock
 70
     0
  3

 72
    65
 73
     0
 40
0.0
  0
LTYPE
  5
15
330
5
100
AcDbSymbolTableRecord
100
AcDbLinetypeTableRecord
  2
ByLayer
 70
     0
  3

 72
    65
 73
     0
 40
0.0
  0
LTYPE
  5
16
330
5
100
AcDbSymbolTableRecord
100
AcDbLinetypeTableRecord
  2
Continuous
 70
     0
  3
Solid line
 72
    65
 73
     0
 40
0.0
  0
LTYPE
  5
3F
330
5
100
AcDbSymbolTableRecord
100
AcDbLinetypeTableRecord
  2
HIDDEN
 70
     0
  3
Hidden __ __ __ __ __ __ __ __ __ __ __ __ __ __
 72
    65
 73
     2
 40
1.905
 49
1.27
 74
     0
 49
-0.635
 74
     0
  0
LTYPE
  5
40
330
5
100
AcDbSymbolTableRecord
100
AcDbLinetypeTableRecord
  2
PHANTOM
 70
     0
  3
Phantom ______  __  __  ______  __  __  ______
 72
    65
 73
     6
 40
12.7
 49
6.35
 74
     0
 49
-1.27
 74
     0
 49
1.27
 74
     0
 49
-1.27
 74
     0
 49
1.27
 74
     0
 49
-1.27
 74
     0
  0
LTYPE
  5
41
330
5
100
AcDbSymbolTableRecord
100
AcDbLinetypeTableRecord
  2
CENTER
 70
     0
  3
Center ____ _ ____ _ ____ _ ____ _ ____ _ ____
 72
    65
 73
     4
 40
10.16
 49
6.35
 74
     0
 49
-1.27
 74
     0
 49
1.27
 74
     0
 49
-1.27
 74
     0
  0
LTYPE
  5
42
330
5
100
AcDbSymbolTableRecord
100
AcDbLinetypeTableRecord
  2
CENTERX2
 70
     0
  3
Center (2x) ________  __  ________  __  _____
 72
    65
 73
     4
 40
20.32
 49
12.7
 74
     0
 49
-2.54
 74
     0
 49
2.54
 74
     0
 49
-2.54
 74
     0
  0
LTYPE
  5
43
330
5
100
AcDbSymbolTableRecord
100
AcDbLinetypeTableRecord
  2
DOT2
 70
     0
  3
Dot (.5x) ........................................
 72
    65
 73
     2
 40
0.635
 49
0.0
 74
     0
 49
-0.635
 74
     0
  0
ENDTAB
  0
TABLE
  2
LAYER
  5
2
330
0
100
AcDbSymbolTable
 70
     5
  0
LAYER
  5
10
330
2
100
AcDbSymbolTableRecord
100
AcDbLayerTableRecord
  2
0
 70
     0
 62
     7
  6
Continuous
370
    -3
390
F
  0
LAYER
  5
44
330
2
100
AcDbSymbolTableRecord
100
AcDbLayerTableRecord
  2
FORMAT
 70
     0
 62
     7
  6
Continuous
370
    -3
390
F
  0
LAYER
  5
45
330
2
100
AcDbSymbolTableRecord
100
AcDbLayerTableRecord
  2
VERMASSUNG
 70
     0
 62
     7
  6
Continuous
370
    -3
390
F
  0
LAYER
  5
46
330
2
100
AcDbSymbolTableRecord
100
AcDbLayerTableRecord
  2
KOPF_DÜNN
 70
     0
 62
     7
  6
Continuous
370
    -3
390
F
  0
LAYER
  5
47
330
2
100
AcDbSymbolTableRecord
100
AcDbLayerTableRecord
  2
KOPF_DICK
 70
     0
 62
     7
  6
Continuous
370
    15
390
F
  0
ENDTAB
  0
TABLE
  2
STYLE
  5
3
330
0
100
AcDbSymbolTable
 70
     2
  0
STYLE
  5
11
330
3
100
AcDbSymbolTableRecord
100
AcDbTextStyleTableRecord
  2
Standard
 70
     0
 40
0.0
 41
1.0
 50
0.0
 71
     0
 42
2.0
  3
txt
  4

  0
STYLE
  5
48
330
3
100
AcDbSymbolTableRecord
100
AcDbTextStyleTableRecord
  2
SLDTEXTSTYLE0
 70
     0
 40
0.0
 41
0.7
 50
0.0
 71
     0
 42
0.2
  3
TXT
  4

  0
ENDTAB
  0
TABLE
  2
VIEW
  5
6
330
0
100
AcDbSymbolTable
 70
     0
  0
ENDTAB
  0
TABLE
  2
UCS
  5
7
330
0
100
AcDbSymbolTable
 70
     0
  0
ENDTAB
  0
TABLE
  2
APPID
  5
9
330
0
100
AcDbSymbolTable
 70
     1
  0
APPID
  5
12
330
9
100
AcDbSymbolTableRecord
100
AcDbRegAppTableRecord
  2
ACAD
 70
     0
  0
ENDTAB
  0
TABLE
  2
DIMSTYLE
  5
A
330
0
100
AcDbSymbolTable
 70
     4
100
AcDbDimStyleTable
  0
DIMSTYLE
105
27
330
A
100
AcDbSymbolTableRecord
100
AcDbDimStyleTableRecord
  2
ISO-25
 70
     0
 41
2.5
 42
0.625
 43
3.75
 44
1.25
 73
     0
 74
     0
 77
     1
 78
     8
140
2.5
141
2.5
143
0.0393700787
147
0.625
171
     3
172
     1
178
     0
271
     2
272
     2
274
     3
278
    44
283
     0
284
     8
340
11
  0
DIMSTYLE
105
1D5
102
{ACAD_REACTORS
330
1D4
330
202
102
}
330
A
100
AcDbSymbolTableRecord
100
AcDbDimStyleTableRecord
  2
SLDDIMSTYLE0
 70
     0
 41
3.0
 44
0.0
 45
0.000000001
 73
     0
 74
     0
 77
     1
 78
    12
 79
     3
140
2.0
147
0.5
173
     1
178
     0
271
     2
272
     3
276
     2
284
    12
340
48
  0
DIMSTYLE
105
1E0
102
{ACAD_REACTORS
330
1DF
330
1EC
102
}
330
A
100
AcDbSymbolTableRecord
100
AcDbDimStyleTableRecord
  2
SLDDIMSTYLE1
 70
     0
 41
3.0
 44
0.0
 45
0.000000001
 47
0.1
 48
0.1
 71
     1
 73
     0
 74
     0
 77
     1
 78
    12
 79
     3
140
2.0
147
0.5
173
     1
178
     0
271
     2
272
     1
276
     2
284
     8
340
48
  0
DIMSTYLE
105
1F9
102
{ACAD_REACTORS
330
1F8
102
}
330
A
100
AcDbSymbolTableRecord
100
AcDbDimStyleTableRecord
  2
SLDDIMSTYLE2
 70
     0
 41
3.0
 44
0.0
 73
     0
 74
     0
 77
     1
 78
    12
 79
     3
140
2.0
147
0.5
173
     1
178
     0
179
     1
272
     3
276
     2
284
    12
340
48
  0
ENDTAB
  0
TABLE
  2
BLOCK_RECORD
  5
1
330
0
100
AcDbSymbolTable
 70
     7
  0
BLOCK_RECORD
  5
1F
330
1
100
AcDbSymbolTableRecord
100
AcDbBlockTableRecord
  2
*Model_Space
340
22
  0
BLOCK_RECORD
  5
1B
330
1
100
AcDbSymbolTableRecord
100
AcDbBlockTableRecord
  2
*Paper_Space
340
1E
  0
BLOCK_RECORD
  5
23
330
1
100
AcDbSymbolTableRecord
100
AcDbBlockTableRecord
  2
*Paper_Space0
340
26
  0
BLOCK_RECORD
  5
1D6
330
1
100
AcDbSymbolTableRecord
100
AcDbBlockTableRecord
  2
_D
340
0
  0
BLOCK_RECORD
  5
1E1
330
1
100
AcDbSymbolTableRecord
100
AcDbBlockTableRecord
  2
_D_1
340
0
  0
BLOCK_RECORD
  5
1ED
330
1
100
AcDbSymbolTableRecord
100
AcDbBlockTableRecord
  2
_D_2
340
0
  0
BLOCK_RECORD
  5
1FA
330
1
100
AcDbSymbolTableRecord
100
AcDbBlockTableRecord
  2
_D_3
340
0
  0
BLOCK_RECORD
  5
203
330
1
100
AcDbSymbolTableRecord
100
AcDbBlockTableRecord
  2
_D_4
340
0
  0
BLOCK_RECORD
  5
271
330
1
100
AcDbSymbolTableRecord
100
AcDbBlockTableRecord
  2
SW_CENTERMARKSYMBOL_0
340
0
102
{BLKREFS
331
27C
102
}
  0
ENDTAB
  0
ENDSEC
  0
SECTION
  2
BLOCKS
  0
BLOCK
  5
20
330
1F
100
AcDbEntity
  8
0
100
AcDbBlockBegin
  2
*Model_Space
 70
     0
 10
0.0
 20
0.0
 30
0.0
  3
*Model_Space
  1

  0
ENDBLK
  5
21
330
1F
100
AcDbEntity
  8
0
100
AcDbBlockEnd
  0
BLOCK
  5
1C
330
1B
100
AcDbEntity
 67
     1
  8
0
100
AcDbBlockBegin
  2
*Paper_Space
 70
     0
 10
0.0
 20
0.0
 30
0.0
  3
*Paper_Space
  1

  0
ENDBLK
  5
1D
330
1B
100
AcDbEntity
 67
     1
  8
0
100
AcDbBlockEnd
  0
BLOCK
  5
24
330
23
100
AcDbEntity
  8
0
100
AcDbBlockBegin
  2
*Paper_Space0
 70
     0
 10
0.0
 20
0.0
 30
0.0
  3
*Paper_Space0
  1

  0
ENDBLK
  5
25
330
23
100
AcDbEntity
  8
0
100
AcDbBlockEnd
  0
BLOCK
  5
1D7
330
1D6
100
AcDbEntity
  8
0
100
AcDbBlockBegin
  2
_D
 70
     0
 10
0.0
 20
0.0
 30
0.0
  3
_D
  1

  0
SOLID
  5
1D9
330
1D6
100
AcDbEntity
  8
VERMASSUNG
100
AcDbTrace
 10
148.0015586606
 20
76.9817757813
 30
0.0
 11
151.0015586606
 21
76.5317757813
 31
0.0
 12
151.0015586606
 22
77.4317757813
 32
0.0
 13
151.0015586606
 23
77.4317757813
 33
0.0
  0
SOLID
  5
1DA
330
1D6
100
AcDbEntity
  8
VERMASSUNG
100
AcDbTrace
 10
222.0015586606
 20
76.9817757813
 30
0.0
 11
219.0015586606
 21
77.4317757813
 31
0.0
 12
219.0015586606
 22
76.5317757813
 32
0.0
 13
219.0015586606
 23
76.5317757813
 33
0.0
  0
LINE
  5
1DB
330
1D6
100
AcDbEntity
  8
VERMASSUNG
100
AcDbLine
 10
148.0015586606
 20
108.4215905386
 30
0.0
 11
148.0015586606
 21
75.9817757813
 31
0.0
  0
LINE
  5
1DC
330
1D6
100
AcDbEntity
  8
VERMASSUNG
100
AcDbLine
 10
222.0015586606
 20
94.0530955206
 30
0.0
 11
222.0015586606
 21
75.9817757813
 31
0.0
  0
LINE
  5
1DD
330
1D6
100
AcDbEntity
  8
VERMASSUNG
100
AcDbLine
 10
148.0015586606
 20
76.9817757813
 30
0.0
 11
222.0015586606
 21
76.9817757813
 31
0.0
  0
MTEXT
  5
1DE
330
1D6
100
AcDbEntity
  8
VERMASSUNG
100
AcDbMText
 10
182.6015585466
 20
79.5599111444
 30
0.1
 40
2.0
 41
0.0
 71
     1
 72
     1
  1
74
  7
SLDTEXTSTYLE0
 73
     1
 44
1.0
  0
ENDBLK
  5
1D8
330
1D6
100
AcDbEntity
  8
0
100
AcDbBlockEnd
  0
BLOCK
  5
1E2
330
1E1
100
AcDbEntity
  8
0
100
AcDbBlockBegin
  2
_D_1
 70
     0
 10
0.0
 20
0.0
 30
0.0
  3
_D_1
  1

  0
SOLID
  5
1E4
330
1E1
100
AcDbEntity
  8
VERMASSUNG
100
AcDbTrace
 10
172.0015586606
 20
85.3044881044
 30
0.0
 11
175.0015586606
 21
84.8544881044
 31
0.0
 12
175.0015586606
 22
85.7544881044
 32
0.0
 13
175.0015586606
 23
85.7544881044
 33
0.0
  0
SOLID
  5
1E5
330
1E1
100
AcDbEntity
  8
VERMASSUNG
100
AcDbTrace
 10
222.0015586606
 20
85.3044881044
 30
0.0
 11
219.0015586606
 21
85.7544881044
 31
0.0
 12
219.0015586606
 22
84.8544881044
 32
0.0
 13
219.0015586606
 23
84.8544881044
 33
0.0
  0
LINE
  5
1E6
330
1E1
100
AcDbEntity
  8
VERMASSUNG
100
AcDbLine
 10
172.0015586606
 20
101.3530955206
 30
0.0
 11
172.0015586606
 21
84.3044881044
 31
0.0
  0
LINE
  5
1E7
330
1E1
100
AcDbEntity
  8
VERMASSUNG
100
AcDbLine
 10
222.0015586606
 20
94.0530955206
 30
0.0
 11
222.0015586606
 21
84.3044881044
 31
0.0
  0
LINE
  5
1E8
330
1E1
100
AcDbEntity
  8
VERMASSUNG
100
AcDbLine
 10
172.0015586606
 20
85.3044881044
 30
0.0
 11
222.0015586606
 21
85.3044881044
 31
0.0
  0
MTEXT
  5
1E9
330
1E1
100
AcDbEntity
  8
VERMASSUNG
100
AcDbMText
 10
192.4515584735
 20
87.8826234676
 30
0.1
 40
2.0
 41
0.0
 71
     1
 72
     1
  1
50
  7
SLDTEXTSTYLE0
 73
     1
 44
1.0
  0
MTEXT
  5
1EA
330
1E1
100
AcDbEntity
  8
VERMASSUNG
100
AcDbMText
 10
198.2390585756
 20
87.8826234676
 30
0.1
 40
2.0
 41
0.0
 71
     1
 72
     1
  1

  7
SLDTEXTSTYLE0
 73
     1
 44
1.0
  0
MTEXT
  5
1EB
330
1E1
100
AcDbEntity
  8
VERMASSUNG
100
AcDbMText
 10
198.2515588654
 20
87.3880896048
 30
0.1
 40
1.5
 41
0.0
 71
     1
 72
     1
  1
±0.1
  7
SLDTEXTSTYLE0
 73
     1
 44
1.0
  0
ENDBLK
  5
1E3
330
1E1
100
AcDbEntity
  8
0
100
AcDbBlockEnd
  0
BLOCK
  5
1EE
330
1ED
100
AcDbEntity
  8
0
100
AcDbBlockBegin
  2
_D_2
 70
     0
 10
0.0
 20
0.0
 30
0.0
  3
_D_2
  1

  0
SOLID
  5
1F0
330
1ED
100
AcDbEntity
  8
VERMASSUNG
100
AcDbTrace
 10
242.9251685048
 20
94.0530955206
 30
0.0
 11
243.3751685048
 21
97.0530955206
 31
0.0
 12
242.4751685048
 22
97.0530955206
 32
0.0
 13
242.4751685048
 23
97.0530955206
 33
0.0
  0
SOLID
  5
1F1
330
1ED
100
AcDbEntity
  8
VERMASSUNG
100
AcDbTrace
 10
242.9251685048
 20
121.0530955206
 30
0.0
 11
242.4751685048
 21
118.0530955206
 31
0.0
 12
243.3751685048
 22
118.0530955206
 32
0.0
 13
243.3751685048
 23
118.0530955206
 33
0.0
  0
LINE
  5
1F2
330
1ED
100
AcDbEntity
  8
VERMASSUNG
100
AcDbLine
 10
222.0015586606
 20
94.0530955206
 30
0.0
 11
243.9251685048
 21
94.0530955206
 31
0.0
  0
LINE
  5
1F3
330
1ED
100
AcDbEntity
  8
VERMASSUNG
100
AcDbLine
 10
222.0015586606
 20
121.0530955206
 30
0.0
 11
243.9251685048
 21
121.0530955206
 31
0.0
  0
LINE
  5
1F4
330
1ED
100
AcDbEntity
  8
VERMASSUNG
100
AcDbLine
 10
242.9251685048
 20
94.0530955206
 30
0.0
 11
242.9251685048
 21
121.0530955206
 31
0.0
  0
MTEXT
  5
1F5
330
1ED
100
AcDbEntity
  8
VERMASSUNG
100
AcDbMText
 10
240.3470331417
 20
103.0030953336
 30
0.1
 40
2.0
 41
0.0
 71
     1
 72
     1
  1
27
  7
SLDTEXTSTYLE0
 11
6.123233995736766E-17
 21
1.0
 31
0.0
 73
     1
 44
1.0
  0
MTEXT
  5
1F6
330
1ED
100
AcDbEntity
  8
VERMASSUNG
100
AcDbMText
 10
240.3470331417
 20
108.7905954357
 30
0.1
 40
2.0
 41
0.0
 71
     1
 72
     1
  1

  7
SLDTEXTSTYLE0
 11
6.123233995736766E-17
 21
1.0
 31
0.0
 73
     1
 44
1.0
  0
MTEXT
  5
1F7
330
1ED
100
AcDbEntity
  8
VERMASSUNG
100
AcDbMText
 10
240.8415670044
 20
108.8030957255
 30
0.1
 40
1.5
 41
0.0
 71
     1
 72
     1
  1
±0.1
  7
SLDTEXTSTYLE0
 11
6.123233995736766E-17
 21
1.0
 31
0.0
 73
     1
 44
1.0
  0
ENDBLK
  5
1EF
330
1ED
100
AcDbEntity
  8
0
100
AcDbBlockEnd
  0
BLOCK
  5
1FB
330
1FA
100
AcDbEntity
  8
0
100
AcDbBlockBegin
  2
_D_3
 70
     0
 10
0.0
 20
0.0
 30
0.0
  3
_D_3
  1

  0
ARC
  5
1FD
330
1FA
100
AcDbEntity
  8
VERMASSUNG
100
AcDbCircle
 10
222.03844443
 20
94.0530955206
 30
0.0
 40
12.41867253497814
100
AcDbArc
 50
0.0
 51
95.0277975181
  0
SOLID
  5
1FE
330
1FA
100
AcDbEntity
  8
VERMASSUNG
100
AcDbTrace
 10
234.457116965
 20
94.0530955206
 30
0.0
 11
234.5492462378
 21
97.0852584775
 31
0.0
 12
233.6555594854
 22
96.9788442465
 32
0.0
 13
233.6555594854
 23
96.9788442465
 33
0.0
  0
SOLID
  5
1FF
330
1FA
100
AcDbEntity
  8
VERMASSUNG
100
AcDbTrace
 10
220.950083835
 20
106.4239846862
 30
0.0
 11
223.9348228789
 21
105.8819211849
 31
0.0
 12
223.9625058065
 22
106.7814953372
 32
0.0
 13
223.9625058065
 23
106.7814953372
 33
0.0
  0
LINE
  5
200
330
1FA
100
AcDbEntity
  8
VERMASSUNG
100
AcDbLine
 10
221.2883631891
 20
102.5789204527
 30
0.0
 11
220.8624447905
 21
107.4201369827
 31
0.0
  0
MTEXT
  5
201
330
1FA
100
AcDbEntity
  8
VERMASSUNG
100
AcDbMText
 10
230.028878921
 20
107.0710525383
 30
0.1
 40
2.0
 41
0.0
 71
     1
 72
     1
  1
95°
  7
SLDTEXTSTYLE0
 11
0.7374411991856037
 21
-0.675411339661764
 31
0.0
 73
     1
 44
1.0
  0
ENDBLK
  5
1FC
330
1FA
100
AcDbEntity
  8
0
100
AcDbBlockEnd
  0
BLOCK
  5
204
330
203
100
AcDbEntity
  8
0
100
AcDbBlockBegin
  2
_D_4
 70
     0
 10
0.0
 20
0.0
 30
0.0
  3
_D_4
  1

  0
SOLID
  5
206
330
203
100
AcDbEntity
  8
VERMASSUNG
100
AcDbTrace
 10
139.7292105934
 20
141.0530955206
 30
0.0
 11
139.2792105934
 21
138.0530955206
 31
0.0
 12
140.1792105934
 22
138.0530955206
 32
0.0
 13
140.1792105934
 23
138.0530955206
 33
0.0
  0
SOLID
  5
207
330
203
100
AcDbEntity
  8
VERMASSUNG
100
AcDbTrace
 10
139.7292105934
 20
101.0530955206
 30
0.0
 11
140.1792105934
 21
104.0530955206
 31
0.0
 12
139.2792105934
 22
104.0530955206
 32
0.0
 13
139.2792105934
 23
104.0530955206
 33
0.0
  0
LINE
  5
208
330
203
100
AcDbEntity
  8
VERMASSUNG
100
AcDbLine
 10
172.3015586606
 20
141.0530955206
 30
0.0
 11
138.7292105934
 21
141.0530955206
 31
0.0
  0
LINE
  5
209
330
203
100
AcDbEntity
  8
VERMASSUNG
100
AcDbLine
 10
172.3015586606
 20
101.0530955206
 30
0.0
 11
138.7292105934
 21
101.0530955206
 31
0.0
  0
LINE
  5
20A
330
203
100
AcDbEntity
  8
VERMASSUNG
100
AcDbLine
 10
139.7292105934
 20
141.0530955206
 30
0.0
 11
139.7292105934
 21
101.0530955206
 31
0.0
  0
MTEXT
  5
20B
330
203
100
AcDbEntity
  8
VERMASSUNG
100
AcDbMText
 10
136.9510751043
 20
114.5480955813
 30
0.4000000777
 40
2.0
 41
0.0
 71
     1
 72
     1
  1
PSC
  7
SLDTEXTSTYLE0
 11
-7.044195017643634E-15
 21
1.0
 31
0.0
 73
     1
 44
1.0
  0
MTEXT
  5
20C
330
203
100
AcDbEntity
  8
VERMASSUNG
100
AcDbMText
 10
137.1510751138
 20
119.1480956834
 30
0.4000000777
 40
2.0
 41
0.0
 71
     1
 72
     1
  1
%%c
  7
SLDTEXTSTYLE0
 11
-7.044195017643634E-15
 21
1.0
 31
0.0
 73
     1
 44
1.0
  0
MTEXT
  5
20D
330
203
100
AcDbEntity
  8
VERMASSUNG
100
AcDbMText
 10
136.9510751043
 20
122.7580961633
 30
0.4000000777
 40
2.0
 41
0.0
 71
     1
 72
     1
  1
40
  7
SLDTEXTSTYLE0
 11
-7.044195017643634E-15
 21
1.0
 31
0.0
 73
     1
 44
1.0
  0
ENDBLK
  5
205
330
203
100
AcDbEntity
  8
0
100
AcDbBlockEnd
  0
BLOCK
  5
272
330
271
100
AcDbEntity
  8
0
100
AcDbBlockBegin
  2
SW_CENTERMARKSYMBOL_0
 70
     0
 10
0.0
 20
0.0
 30
0.0
  3
SW_CENTERMARKSYMBOL_0
  1

  0
LINE
  5
274
330
271
100
AcDbEntity
  8
VERMASSUNG
 62
     0
100
AcDbLine
 10
0.0
 20
0.0
 30
0.0
 11
0.0
 21
2.5
 31
0.0
  0
LINE
  5
275
330
271
100
AcDbEntity
  8
VERMASSUNG
 62
     0
100
AcDbLine
 10
0.0
 20
0.0
 30
0.0
 11
-2.5
 21
0.0
 31
0.0
  0
LINE
  5
276
330
271
100
AcDbEntity
  8
VERMASSUNG
 62
     0
100
AcDbLine
 10
0.0
 20
0.0
 30
0.0
 11
0.0
 21
-2.5
 31
0.0
  0
LINE
  5
277
330
271
100
AcDbEntity
  8
VERMASSUNG
 62
     0
100
AcDbLine
 10
0.0
 20
0.0
 30
0.0
 11
2.5
 21
0.0
 31
0.0
  0
LINE
  5
278
330
271
100
AcDbEntity
  8
VERMASSUNG
 62
     0
100
AcDbLine
 10
0.0
 20
5.0
 30
0.0
 11
0.0
 21
23.0
 31
0.0
  0
LINE
  5
279
330
271
100
AcDbEntity
  8
VERMASSUNG
 62
     0
100
AcDbLine
 10
-5.0
 20
0.0
 30
0.0
 11
-23.0
 21
0.0
 31
0.0
  0
LINE
  5
27A
330
271
100
AcDbEntity
  8
VERMASSUNG
 62
     0
100
AcDbLine
 10
0.0
 20
-5.0
 30
0.0
 11
0.0
 21
-23.0
 31
0.0
  0
LINE
  5
27B
330
271
100
AcDbEntity
  8
VERMASSUNG
 62
     0
100
AcDbLine
 10
5.0
 20
0.0
 30
0.0
 11
23.0
 21
0.0
 31
0.0
  0
ENDBLK
  5
273
330
271
100
AcDbEntity
  8
0
100
AcDbBlockEnd
  0
ENDSEC
  0
SECTION
  2
ENTITIES
  0
MTEXT
  5
49
330
1F
100
AcDbEntity
  8
KOPF_DÜNN
100
AcDbMText
 10
13.8892156294
 20
23.8442973028
 30
0.0
 40
3.0
 41
0.0
 71
     1
 72
     1
  1
PS4.PWE.LLA.050
  7
SLDTEXTSTYLE0
 73
     1
 44
1.0
  0
MTEXT
  5
4A
330
1F
100
AcDbEntity
  8
VERMASSUNG
100
AcDbMText
 10
13.9329988022
 20
28.8834360957
 30
0.0
 40
3.0
 41
0.0
 71
     1
 72
     1
  1
Klemmhalter links_Turning tool left 95° /80°
  7
SLDTEXTSTYLE0
 73
     1
 44
1.0
  0
MTEXT
  5
4B
330
1F
100
AcDbEntity
  8
VERMASSUNG
100
AcDbMText
 10
98.8601118557
 20
13.8365368179
 30
0.0
 40
2.0
 41
0.0
 71
     1
 72
     1
  1
Datum: 26.04.2012
  7
SLDTEXTSTYLE0
 73
     1
 44
1.0
  0
MTEXT
  5
4C
330
1F
100
AcDbEntity
  8
VERMASSUNG
100
AcDbMText
 10
13.933048693
 20
18.0482802738
 30
0.0
 40
2.0
 41
0.0
 71
     1
 72
     1
  1
PSC ø40 / WN..08 04..
  7
SLDTEXTSTYLE0
 73
     1
 44
1.0
  0
MTEXT
  5
4D
330
1F
100
AcDbEntity
  8
VERMASSUNG
100
AcDbMText
 10
13.9808475933
 20
13.9090973692
 30
0.0
 40
2.0
 41
0.0
 71
     1
 72
     1
  1
Gewicht: 405g
  7
SLDTEXTSTYLE0
 73
     1
 44
1.0
  0
LINE
  5
4E
330
1F
100
AcDbEntity
  8
0
  6
Continuous
 62
     7
370
    15
100
AcDbLine
 10
194.2342316726
 20
141.0530955206
 30
0.0
 11
172.3015586606
 21
141.0530955206
 31
0.0
  0
LINE
  5
4F
330
1F
100
AcDbEntity
  8
0
  6
Continuous
 62
     7
370
    15
100
AcDbLine
 10
172.3015586606
 20
101.0530955206
 30
0.0
 11
194.2342316726
 21
101.0530955206
 31
0.0
  0
ARC
  5
50
330
1F
100
AcDbEntity
  8
0
  6
Continuous
 62
     7
370
    15
100
AcDbCircle
 10
172.3015586606
 20
101.3530955206
 30
0.0
 40
0.3000000000000114
100
AcDbArc
 50
180.0
 51
270.0
  0
ARC
  5
51
330
1F
100
AcDbEntity
  8
0
  6
Continuous
 62
     7
370
    15
100
AcDbCircle
 10
172.3015586606
 20
140.7530955206
 30
0.0
 40
0.2999999999999829
100
AcDbArc
 50
90.0
 51
180.0
  0
LWPOLYLINE
  5
52
330
1F
100
AcDbEntity
  8
0
  6
Continuous
 62
     7
370
    15
100
AcDbPolyline
 90
        3
 70
   128
 43
0.0
 10
171.8015586606
 20
106.9632752418
 10
171.927013604
 20
106.8949731268
 10
172.0015586606
 20
106.8422353687
  0
LWPOLYLINE
  5
53
330
1F
100
AcDbEntity
  8
0
  6
Continuous
 62
     7
370
    15
100
AcDbPolyline
 90
        3
 70
   128
 43
0.0
 10
172.0015586606
 20
135.2639556726
 10
171.927013604
 20
135.2112179145
 10
171.8015586606
 20
135.1429157995
  0
ARC
  5
54
330
1F
100
AcDbEntity
  8
0
  6
Continuous
 62
     7
370
    15
100
AcDbCircle
 10
194.2342316726
 20
142.0530955206
 30
0.0
 40
1.000000000000008
100
AcDbArc
 50
270.0
 51
330.0
  0
ARC
  5
55
330
1F
100
AcDbEntity
  8
0
  6
Continuous
 62
     7
370
    15
100
AcDbCircle
 10
194.2342316726
 20
100.0530955206
 30
0.0
 40
1.0
100
AcDbArc
 50
17.3858078565
 51
90.0
  0
LINE
  5
56
330
1F
100
AcDbEntity
  8
0
  6
Continuous
 62
     7
370
    15
100
AcDbLine
 10
202.2704362162
 20
141.5530955206
 30
0.0
 11
195.1002570764
 21
141.5530955206
 31
0.0
  0
LINE
  5
57
330
1F
100
AcDbEntity
  8
0
  6
Continuous
 62
     7
370
    15
100
AcDbLine
 10
212.6242518057
 20
100.1076561508
 30
0.0
 11
212.7331691218
 21
99.9430856657
 31
0.0
  0
LINE
  5
58
330
1F
100
AcDbEntity
  8
0
  6
Continuous
 62
     7
370
    15
100
AcDbLine
 10
216.6491087009
 20
102.542211633
 30
0.0
 11
216.2613902863
 21
103.1280414153
 31
0.0
  0
LINE
  5
59
330
1F
100
AcDbEntity
  8
0
  6
Continuous
 62
     7
370
    15
100
AcDbLine
 10
217.7960816992
 20
109.9657485246
 30
0.0
 11
217.298526214
 21
110.6245834383
 31
0.0
  0
LINE
  5
5A
330
1F
100
AcDbEntity
  8
0
  6
Continuous
 62
     7
370
    15
100
AcDbLine
 10
205.4254243168
 20
98.697826463
 30
0.0
 11
205.8828646504
 21
98.0921097707
 31
0.0
  0
ELLIPSE
  5
5B
330
1F
100
AcDbEntity
  8
0
  6
Continuous
 62
     7
370
    15
100
AcDbEllipse
 10
254.883404319
 20
121.0530955206
 30
0.0
 11
190.2870637919225
 21
2.813935298684001
 31
0.0
210
0.0
220
0.0
230
1.0
 40
0.1040588589
 41
1.893640754962888
 42
1.90300265077883
  0
SPLINE
  5
5C
330
1F
100
AcDbEntity
  8
0
  6
Continuous
 62
     7
370
    15
100
AcDbSpline
210
0.0
220
0.0
230
1.0
 70
     8
 71
     3
 72
    10
 73
     6
 74
     0
 42
0.00000001
 43
0.00000001
 12
1.0
 22
0.0
 32
0.0
 13
1.0
 23
0.0
 33
0.0
 40
0.0
 40
0.0
 40
0.0
 40
0.0
 40
0.5
 40
0.5
 40
1.0
 40
1.0
 40
1.0
 40
1.0
 10
191.8592535394132
 20
138.5595511395267
 30
0.0
 10
191.8997023324888
 20
138.6376943750961
 30
0.0
 10
191.9848834584855
 20
138.7073697447217
 30
0.0
 10
192.225952137209
 20
138.8114767514564
 30
0.0
 10
192.3825167423846
 20
138.8454109649401
 30
0.0
 10
192.5483714298302
 20
138.8538221578966
 30
0.0
  0
ELLIPSE
  5
5D
330
1F
100
AcDbEntity
  8
0
  6
Continuous
 62
     7
370
    15
100
AcDbEllipse
 10
193.7724746102
 20
121.0530955206
 30
0.0
 11
0.8021781934011756
 21
19.99887070822258
 31
0.0
210
0.0
220
0.0
230
1.0
 40
0.2649452246
 41
0.5153202386697662
 42
2.926778823430409
  0
SPLINE
  5
5E
330
1F
100
AcDbEntity
  8
0
  6
Continuous
 62
     7
370
    15
100
AcDbSpline
210
0.0
220
0.0
230
1.0
 70
     8
 71
     3
 72
    10
 73
     6
 74
     0
 42
0.00000001
 43
0.00000001
 12
1.0
 22
0.0
 32
0.0
 13
1.0
 23
0.0
 33
0.0
 40
0.0
 40
0.0
 40
0.0
 40
0.0
 40
0.5
 40
0.5
 40
1.0
 40
1.0
 40
1.0
 40
1.0
 10
192.5483714298303
 20
101.4287347631134
 30
0.0
 10
192.3827035433881
 20
101.432289808165
 30
0.0
 10
192.2281171761367
 20
101.4462713913988
 30
0.0
 10
191.9847898232912
 20
101.4919656679511
 30
0.0
 10
191.8996699835376
 20
101.5230856554968
 30
0.0
 10
191.8592535394132
 20
101.5591817061922
 30
0.0
  0
ELLIPSE
  5
5F
330
1F
100
AcDbEntity
  8
0
  6
Continuous
 62
     7
370
    15
100
AcDbEllipse
 10
254.883404319
 20
121.0530955206
 30
0.0
 11
190.2870637919225
 21
2.813935298684001
 31
0.0
210
0.0
220
0.0
230
1.0
 40
0.1040588589
 41
4.377105046612057
 42
4.386466942427999
  0
SPLINE
  5
60
330
1F
100
AcDbEntity
  8
0
  6
Continuous
 62
     7
370
    15
100
AcDbSpline
210
0.0
220
0.0
230
1.0
 70
     8
 71
     3
 72
    12
 73
     8
 74
     0
 42
0.00000001
 43
0.00000001
 12
1.0
 22
0.0
 32
0.0
 13
1.0
 23
0.0
 33
0.0
 40
0.0
 40
0.0
 40
0.0
 40
0.0
 40
0.5000000000000029
 40
0.5000000000000029
 40
0.7500000000000014
 40
0.7500000000000014
 40
1.0
 40
1.0
 40
1.0
 40
1.0
 10
178.673653041415
 20
102.0183392374502
 30
0.0
 10
178.6924562742666
 20
101.9964172391891
 30
0.0
 10
178.7179929332858
 20
101.9755234311792
 30
0.0
 10
178.7782191072343
 20
101.9477967050614
 30
0.0
 10
178.8021451846342
 20
101.9392235716859
 30
0.0
 10
178.8602061048155
 20
101.9260444658784
 30
0.0
 10
178.8960078034415
 20
101.9214391403987
 30
0.0
 10
178.9334606625503
 20
101.9214391403987
 30
0.0
  0
LINE
  5
61
330
1F
100
AcDbEntity
  8
0
  6
Continuous
 62
     7
370
    15
100
AcDbLine
 10
178.9334606626
 20
101.9214391404
 30
0.0
 11
181.0696566586
 21
101.9214391404
 31
0.0
  0
SPLINE
  5
62
330
1F
100
AcDbEntity
  8
0
  6
Continuous
 62
     7
370
    15
100
AcDbSpline
210
0.0
220
0.0
230
1.0
 70
     8
 71
     3
 72
    12
 73
     8
 74
     0
 42
0.00000001
 43
0.00000001
 12
1.0
 22
0.0
 32
0.0
 13
1.0
 23
0.0
 33
0.0
 40
0.0
 40
0.0
 40
0.0
 40
0.0
 40
0.2500000000000013
 40
0.2500000000000013
 40
0.5000000000000027
 40
0.5000000000000027
 40
1.0
 40
1.0
 40
1.0
 40
1.0
 10
181.0696566585519
 20
101.9214391403987
 30
0.0
 10
181.1071574814297
 20
101.9214391403987
 30
0.0
 10
181.1424358854657
 20
101.9259401082619
 30
0.0
 10
181.201353605518
 20
101.9393066294792
 30
0.0
 10
181.2248769869164
 20
101.9477878897241
 30
0.0
 10
181.2851325713823
 20
101.975525285402
 30
0.0
 10
181.3106542237934
 20
101.996409284455
 30
0.0
 10
181.3294642796872
 20
102.0183392374502
 30
0.0
  0
ELLIPSE
  5
63
330
1F
100
AcDbEntity
  8
0
  6
Continuous
 62
     7
370
    15
100
AcDbEllipse
 10
171.0526294881
 20
121.0530955206
 30
0.0
 11
-9.367417879781812
 21
19.74174915274995
 31
0.0
210
0.0
220
0.0
230
1.0
 40
0.3419987131
 41
3.292664382516895
 42
4.239566697060999
  0
SPLINE
  5
64
330
1F
100
AcDbEntity
  8
0
  6
Continuous
 62
     7
370
    15
100
AcDbSpline
210
0.0
220
0.0
230
1.0
 70
     8
 71
     3
 72
    12
 73
     8
 74
     0
 42
0.00000001
 43
0.00000001
 12
1.0
 22
0.0
 32
0.0
 13
1.0
 23
0.0
 33
0.0
 40
0.0
 40
0.0
 40
0.0
 40
0.0
 40
0.5000000000000031
 40
0.5000000000000031
 40
0.7500000000000016
 40
0.7500000000000016
 40
1.0
 40
1.0
 40
1.0
 40
1.0
 10
181.3294642796872
 20
114.9148503935729
 30
0.0
 10
181.3106610468355
 20
114.9828307178354
 30
0.0
 10
181.2851243878164
 20
115.0489211056322
 30
0.0
 10
181.2248982138679
 20
115.1379857180793
 30
0.0
 10
181.2009721364679
 20
115.1657868050993
 30
0.0
 10
181.1429112162866
 20
115.2087458783242
 30
0.0
 10
181.1071095176607
 20
115.2238825249804
 30
0.0
 10
181.0696566585519
 20
115.2238825249804
 30
0.0
  0
LINE
  5
65
330
1F
100
AcDbEntity
  8
0
  6
Continuous
 62
     7
370
    15
100
AcDbLine
 10
181.0696566586
 20
115.223882525
 30
0.0
 11
178.9334606626
 21
115.223882525
 31
0.0
  0
SPLINE
  5
66
330
1F
100
AcDbEntity
  8
0
  6
Continuous
 62
     7
370
    15
100
AcDbSpline
210
0.0
220
0.0
230
1.0
 70
     8
 71
     3
 72
    12
 73
     8
 74
     0
 42
0.00000001
 43
0.00000001
 12
1.0
 22
0.0
 32
0.0
 13
1.0
 23
0.0
 33
0.0
 40
0.0
 40
0.0
 40
0.0
 40
0.0
 40
0.2500000000000012
 40
0.2500000000000012
 40
0.5000000000000023
 40
0.5000000000000023
 40
1.0
 40
1.0
 40
1.0
 40
1.0
 10
178.9334606625503
 20
115.2238825249804
 30
0.0
 10
178.8959598396725
 20
115.2238825249804
 30
0.0
 10
178.8606814356365
 20
115.2090861872273
 30
0.0
 10
178.8017637155841
 20
115.1655159260682
 30
0.0
 10
178.7782403341858
 20
115.1380141275666
 30
0.0
 10
178.7179847497198
 20
115.0489149643236
 30
0.0
 10
178.6924630973087
 20
114.9828553855412
 30
0.0
 10
178.673653041415
 20
114.914850393573
 30
0.0
  0
ELLIPSE
  5
67
330
1F
100
AcDbEntity
  8
0
  6
Continuous
 62
     7
370
    15
100
AcDbEllipse
 10
188.950487833
 20
121.0530955206
 30
0.0
 11
9.367417879781641
 21
19.74174915274993
 31
0.0
210
0.0
220
0.0
230
1.0
 40
0.3419987131
 41
2.043618610118599
 42
2.990520924662729
  0
SPLINE
  5
68
330
1F
100
AcDbEntity
  8
0
  6
Continuous
 62
     7
370
    15
100
AcDbSpline
210
0.0
220
0.0
230
1.0
 70
     8
 71
     3
 72
    12
 73
     8
 74
     0
 42
0.00000001
 43
0.00000001
 12
1.0
 22
0.0
 32
0.0
 13
1.0
 23
0.0
 33
0.0
 40
0.0
 40
0.0
 40
0.0
 40
0.0
 40
0.5000000000000006
 40
0.5000000000000006
 40
0.7500000000000002
 40
0.7500000000000002
 40
1.0
 40
1.0
 40
1.0
 40
1.0
 10
178.673653041415
 20
127.191340647691
 30
0.0
 10
178.6923462745454
 20
127.1237580112507
 30
0.0
 10
178.7180015719571
 20
127.0572754417733
 30
0.0
 10
178.7781621946436
 20
126.9682803588757
 30
0.0
 10
178.802234506398
 20
126.9402784618766
 30
0.0
 10
178.8606160267485
 20
126.8972020612114
 30
0.0
 10
178.8960848544015
 20
126.8823085162836
 30
0.0
 10
178.9334606625503
 20
126.8823085162836
 30
0.0
  0
LINE
  5
69
330
1F
100
AcDbEntity
  8
0
  6
Continuous
 62
     7
370
    15
100
AcDbLine
 10
178.9334606626
 20
126.8823085163
 30
0.0
 11
181.0696566586
 21
126.8823085163
 31
0.0
  0
SPLINE
  5
6A
330
1F
100
AcDbEntity
  8
0
  6
Continuous
 62
     7
370
    15
100
AcDbSpline
210
0.0
220
0.0
230
1.0
 70
     8
 71
     3
 72
    12
 73
     8
 74
     0
 42
0.00000001
 43
0.00000001
 12
1.0
 22
0.0
 32
0.0
 13
1.0
 23
0.0
 33
0.0
 40
0.0
 40
0.0
 40
0.0
 40
0.0
 40
0.2500000000000004
 40
0.2500000000000004
 40
0.5000000000000009
 40
0.5000000000000009
 40
1.0
 40
1.0
 40
1.0
 40
1.0
 10
181.0696566585519
 20
126.8823085162836
 30
0.0
 10
181.1071685445966
 20
126.8823085162836
 30
0.0
 10
181.1424558923013
 20
126.8971133305704
 30
0.0
 10
181.2013857405397
 20
126.9407052036963
 30
0.0
 10
181.2249114670088
 20
126.9682186297823
 30
0.0
 10
181.2851702547769
 20
127.0573503618959
 30
0.0
 10
181.3107650170662
 20
127.1237362125137
 30
0.0
 10
181.3294642796872
 20
127.191340647691
 30
0.0
  0
ELLIPSE
  5
6B
330
1F
100
AcDbEntity
  8
0
  6
Continuous
 62
     7
370
    15
100
AcDbEllipse
 10
171.0526294881
 20
121.0530955206
 30
0.0
 11
9.367417879781694
 21
19.74174915274993
 31
0.0
210
0.0
220
0.0
230
1.0
 40
0.3419987131
 41
5.185211263708393
 42
6.132113578252552
  0
SPLINE
  5
6C
330
1F
100
AcDbEntity
  8
0
  6
Continuous
 62
     7
370
    15
100
AcDbSpline
210
0.0
220
0.0
230
1.0
 70
     8
 71
     3
 72
    12
 73
     8
 74
     0
 42
0.00000001
 43
0.00000001
 12
1.0
 22
0.0
 32
0.0
 13
1.0
 23
0.0
 33
0.0
 40
0.0
 40
0.0
 40
0.0
 40
0.0
 40
0.4999999999999969
 40
0.4999999999999969
 40
0.7499999999999984
 40
0.7499999999999984
 40
1.0
 40
1.0
 40
1.0
 40
1.0
 10
181.3294642796872
 20
140.087851803814
 30
0.0
 10
181.3107710465568
 20
140.109645557442
 30
0.0
 10
181.285115749145
 20
140.1306657191516
 30
0.0
 10
181.2249551264586
 20
140.1583710651153
 30
0.0
 10
181.2008828147042
 20
140.1670062813087
 30
0.0
 10
181.1425012943537
 20
140.1802209265353
 30
0.0
 10
181.1070324667006
 20
140.1847519008654
 30
0.0
 10
181.0696566585519
 20
140.1847519008654
 30
0.0
  0
LINE
  5
6D
330
1F
100
AcDbEntity
  8
0
  6
Continuous
 62
     7
370
    15
100
AcDbLine
 10
181.0696566586
 20
140.1847519009
 30
0.0
 11
178.9334606626
 21
140.1847519009
 31
0.0
  0
SPLINE
  5
6E
330
1F
100
AcDbEntity
  8
0
  6
Continuous
 62
     7
370
    15
100
AcDbSpline
210
0.0
220
0.0
230
1.0
 70
     8
 71
     3
 72
    12
 73
     8
 74
     0
 42
0.00000001
 43
0.00000001
 12
1.0
 22
0.0
 32
0.0
 13
1.0
 23
0.0
 33
0.0
 40
0.0
 40
0.0
 40
0.0
 40
0.0
 40
0.2500000000000023
 40
0.2500000000000023
 40
0.5000000000000046
 40
0.5000000000000046
 40
1.0
 40
1.0
 40
1.0
 40
1.0
 10
178.9334606625503
 20
140.1847519008654
 30
0.0
 10
178.8959487765056
 20
140.1847519008654
 30
0.0
 10
178.8606614288009
 20
140.1802483566029
 30
0.0
 10
178.8017315805625
 20
140.1668751571496
 30
0.0
 10
178.7782058540934
 20
140.1583902545785
 30
0.0
 10
178.7179470663253
 20
140.1306424507439
 30
0.0
 10
178.692352304036
 20
140.1096525870035
 30
0.0
 10
178.673653041415
 20
140.087851803814
 30
0.0
  0
ELLIPSE
  5
6F
330
1F
100
AcDbEntity
  8
0
  6
Continuous
 62
     7
370
    15
100
AcDbEllipse
 10
188.950487833
 20
121.0530955206
 30
0.0
 11
-9.367417879781584
 21
19.74174915274993
 31
0.0
210
0.0
220
0.0
230
1.0
 40
0.3419987131
 41
0.1510717289270749
 42
1.097974043471208
  0
ELLIPSE
  5
70
330
1F
100
AcDbEntity
  8
0
  6
Continuous
 62
     7
370
    15
100
AcDbEllipse
 10
190.0378045016
 20
113.3058572458
 30
0.0
 11
-0.1364367921297003
 21
2.498394279662278
 31
0.0
210
0.0
220
0.0
230
1.0
 40
0.2525873267
 41
0.0
 42
6.283185307179586
  0
LINE
  5
71
330
1F
100
AcDbEntity
  8
0
  6
Continuous
 62
     7
370
    15
100
AcDbLine
 10
172.0015586606
 20
101.3530955206
 30
0.0
 11
172.0015586606
 21
140.7530955206
 31
0.0
  0
SPLINE
  5
72
330
1F
100
AcDbEntity
  8
0
  6
Continuous
 62
     7
370
    15
100
AcDbSpline
210
0.0
220
0.0
230
1.0
 70
     8
 71
     3
 72
    18
 73
    14
 74
     0
 42
0.00000001
 43
0.00000001
 12
1.0
 22
0.0
 32
0.0
 13
1.0
 23
0.0
 33
0.0
 40
0.0
 40
0.0
 40
0.0
 40
0.0
 40
0.25
 40
0.25
 40
0.5
 40
0.5
 40
0.625
 40
0.625
 40
0.75
 40
0.75
 40
0.875
 40
0.875
 40
1.0
 40
1.0
 40
1.0
 40
1.0
 10
170.7454743429871
 20
107.2219071379532
 30
0.0
 10
170.7797711624389
 20
107.2210454824714
 30
0.0
 10
170.817582442416
 20
107.2212970855663
 30
0.0
 10
170.904154809596
 20
107.2236955981782
 30
0.0
 10
170.952493939679
 20
107.2258665829101
 30
0.0
 10
171.0417662970014
 20
107.2299614612053
 30
0.0
 10
171.0743077627773
 20
107.231466079155
 30
0.0
 10
171.1504839626308
 20
107.2344291371231
 30
0.0
 10
171.1937000226253
 20
107.2359164753789
 30
0.0
 10
171.2993893245913
 20
107.2375418867025
 30
0.0
 10
171.3643603833058
 20
107.2374996456286
 30
0.0
 10
171.4980207716636
 20
107.2334774723076
 30
0.0
 10
171.5573272249999
 20
107.2299362454841
 30
0.0
 10
171.6065817716758
 20
107.226369538048
 30
0.0
  0
SPLINE
  5
73
330
1F
100
AcDbEntity
  8
0
  6
Continuous
 62
     7
370
    15
100
AcDbSpline
210
0.0
220
0.0
230
1.0
 70
     8
 71
     3
 72
    14
 73
    10
 74
     0
 42
0.00000001
 43
0.00000001
 12
1.0
 22
0.0
 32
0.0
 13
1.0
 23
0.0
 33
0.0
 40
0.0
 40
0.0
 40
0.0
 40
0.0
 40
0.1249999999999983
 40
0.1249999999999983
 40
0.2499999999999967
 40
0.2499999999999967
 40
0.499999999999998
 40
0.499999999999998
 40
1.0
 40
1.0
 40
1.0
 40
1.0
 10
171.606581771645
 20
107.226369538067
 30
0.0
 10
171.6181085493624
 20
107.225534840633
 30
0.0
 10
171.6314613570148
 20
107.2237944263528
 30
0.0
 10
171.661603929615
 20
107.2165468363525
 30
0.0
 10
171.6766644552295
 20
107.2111998021246
 30
0.0
 10
171.7120108091578
 20
107.1954525318961
 30
0.0
 10
171.7257429088868
 20
107.1856142577348
 30
0.0
 10
171.7591141545778
 20
107.1594102717844
 30
0.0
 10
171.7700545224318
 20
107.1453223703838
 30
0.0
 10
171.7787076474451
 20
107.1325487468954
 30
0.0
  0
LINE
  5
74
330
1F
100
AcDbEntity
  8
0
  6
Continuous
 62
     7
370
    15
100
AcDbLine
 10
171.8015586606
 20
115.5476507537
 30
0.0
 11
171.8015586606
 21
106.9632752418
 31
0.0
  0
SPLINE
  5
75
330
1F
100
AcDbEntity
  8
0
  6
Continuous
 62
     7
370
    15
100
AcDbSpline
210
0.0
220
0.0
230
1.0
 70
     8
 71
     3
 72
    16
 73
    12
 74
     0
 42
0.00000001
 43
0.00000001
 12
1.0
 22
0.0
 32
0.0
 13
1.0
 23
0.0
 33
0.0
 40
0.0
 40
0.0
 40
0.0
 40
0.0
 40
0.5000000000000028
 40
0.5000000000000028
 40
0.7500000000000026
 40
0.7500000000000026
 40
0.8750000000000002
 40
0.8750000000000002
 40
0.9375000000000001
 40
0.9375000000000001
 40
1.0
 40
1.0
 40
1.0
 40
1.0
 10
171.8015586605511
 20
115.5476507536692
 30
0.0
 10
171.8015586605511
 20
115.6652261346887
 30
0.0
 10
171.7976752353921
 20
115.7839218877899
 30
0.0
 10
171.7728599101175
 20
115.9646793657824
 30
0.0
 10
171.762020462405
 20
116.0263234425554
 30
0.0
 10
171.7288046803562
 20
116.1156604168967
 30
0.0
 10
171.7154229367274
 20
116.1459199483218
 30
0.0
 10
171.6799132868652
 20
116.1794361923092
 30
0.0
 10
171.6644963203644
 20
116.1875745381153
 30
0.0
 10
171.6327952982158
 20
116.187559128684
 30
0.0
 10
171.618649013265
 20
116.1805168913281
 30
0.0
 10
171.6065817716753
 20
116.1713758277185
 30
0.0
  0
SPLINE
  5
76
330
1F
100
AcDbEntity
  8
0
  6
Continuous
 62
     7
370
    15
100
AcDbSpline
210
0.0
220
0.0
230
1.0
 70
     8
 71
     3
 72
    18
 73
    14
 74
     0
 42
0.00000001
 43
0.00000001
 12
1.0
 22
0.0
 32
0.0
 13
1.0
 23
0.0
 33
0.0
 40
0.0
 40
0.0
 40
0.0
 40
0.0
 40
0.125
 40
0.125
 40
0.25
 40
0.25
 40
0.375
 40
0.375
 40
0.5
 40
0.5
 40
0.75
 40
0.75
 40
1.0
 40
1.0
 40
1.0
 40
1.0
 10
171.6065817716815
 20
116.1713758277112
 30
0.0
 10
171.5578771879935
 20
116.1344815885207
 30
0.0
 10
171.499368705218
 20
116.1049502840947
 30
0.0
 10
171.3676418899482
 20
116.0957143108159
 30
0.0
 10
171.3028838184507
 20
116.1187774853729
 30
0.0
 10
171.1976732163
 20
116.1862956070203
 30
0.0
 10
171.1544570677798
 20
116.2293067036708
 30
0.0
 10
171.078278751696
 20
116.3195487256669
 30
0.0
 10
171.0454239194047
 20
116.3671796071422
 30
0.0
 10
170.9550560134437
 20
116.5142439064918
 30
0.0
 10
170.9056333556042
 20
116.6181572317963
 30
0.0
 10
170.8179822300125
 20
116.8292911954367
 30
0.0
 10
170.779920682622
 20
116.9370139401955
 30
0.0
 10
170.7454743429881
 20
117.0463470561049
 30
0.0
  0
SPLINE
  5
77
330
1F
100
AcDbEntity
  8
0
  6
Continuous
 62
     7
370
    15
100
AcDbSpline
210
0.0
220
0.0
230
1.0
 70
     8
 71
     3
 72
     8
 73
     4
 74
     0
 42
0.00000001
 43
0.00000001
 12
1.0
 22
0.0
 32
0.0
 13
1.0
 23
0.0
 33
0.0
 40
0.0
 40
0.0
 40
0.0
 40
0.0
 40
1.0
 40
1.0
 40
1.0
 40
1.0
 10
170.6802383169914
 20
117.2815508302337
 30
0.0
 10
170.6996645222903
 20
117.2019585586609
 30
0.0
 10
170.7211613467188
 20
117.1235168125282
 30
0.0
 10
170.7454743429881
 20
117.0463470561049
 30
0.0
  0
SPLINE
  5
78
330
1F
100
AcDbEntity
  8
0
  6
Continuous
 62
     7
370
    15
100
AcDbSpline
210
0.0
220
0.0
230
1.0
 70
     8
 71
     3
 72
     8
 73
     4
 74
     0
 42
0.00000001
 43
0.00000001
 12
1.0
 22
0.0
 32
0.0
 13
1.0
 23
0.0
 33
0.0
 40
0.0
 40
0.0
 40
0.0
 40
0.0
 40
1.0
 40
1.0
 40
1.0
 40
1.0
 10
170.7454743429881
 20
125.0598439851594
 30
0.0
 10
170.7211613467188
 20
124.9826742287361
 30
0.0
 10
170.6996645222903
 20
124.9042324826033
 30
0.0
 10
170.6802383169914
 20
124.8246402110306
 30
0.0
  0
SPLINE
  5
79
330
1F
100
AcDbEntity
  8
0
  6
Continuous
 62
     7
370
    15
100
AcDbSpline
210
0.0
220
0.0
230
1.0
 70
     8
 71
     3
 72
    18
 73
    14
 74
     0
 42
0.00000001
 43
0.00000001
 12
1.0
 22
0.0
 32
0.0
 13
1.0
 23
0.0
 33
0.0
 40
0.0
 40
0.0
 40
0.0
 40
0.0
 40
0.2499999999999999
 40
0.2499999999999999
 40
0.4999999999999998
 40
0.4999999999999998
 40
0.6249999999999998
 40
0.6249999999999998
 40
0.7499999999999999
 40
0.7499999999999999
 40
0.8749999999999999
 40
0.8749999999999999
 40
1.0
 40
1.0
 40
1.0
 40
1.0
 10
170.7454743429881
 20
125.0598439851594
 30
0.0
 10
170.7797726620008
 20
125.1687072817524
 30
0.0
 10
170.8175870593127
 20
125.2757147049887
 30
0.0
 10
170.9041751203863
 20
125.4847495291271
 30
0.0
 10
170.952525226065
 20
125.5869196231166
 30
0.0
 10
171.0418418148647
 20
125.7336003946813
 30
0.0
 10
171.074402170353
 20
125.7814020932169
 30
0.0
 10
171.1506478040819
 20
125.8729576312422
 30
0.0
 10
171.1938071738619
 20
125.9166370232342
 30
0.0
 10
171.29953599788
 20
125.9859912405608
 30
0.0
 10
171.3645331749347
 20
126.0101075542267
 30
0.0
 10
171.4980176648889
 20
126.0019033321885
 30
0.0
 10
171.5573450583344
 20
125.9721125465965
 30
0.0
 10
171.6065817716758
 20
125.9348152135455
 30
0.0
  0
SPLINE
  5
7A
330
1F
100
AcDbEntity
  8
0
  6
Continuous
 62
     7
370
    15
100
AcDbSpline
210
0.0
220
0.0
230
1.0
 70
     8
 71
     3
 72
    16
 73
    12
 74
     0
 42
0.00000001
 43
0.00000001
 12
1.0
 22
0.0
 32
0.0
 13
1.0
 23
0.0
 33
0.0
 40
0.0
 40
0.0
 40
0.0
 40
0.0
 40
0.0624999999999997
 40
0.0624999999999997
 40
0.1249999999999994
 40
0.1249999999999994
 40
0.2499999999999991
 40
0.2499999999999991
 40
0.4999999999999984
 40
0.4999999999999984
 40
1.0
 40
1.0
 40
1.0
 40
1.0
 10
171.606581771645
 20
125.9348152134971
 30
0.0
 10
171.6186516049208
 20
125.9256721866513
 30
0.0
 10
171.6329272598542
 20
125.9186277389601
 30
0.0
 10
171.6643916719786
 20
125.9186206670615
 30
0.0
 10
171.679892196789
 20
125.9267486358584
 30
0.0
 10
171.7153310933959
 20
125.9601570968656
 30
0.0
 10
171.7289237094992
 20
125.9908242633278
 30
0.0
 10
171.761918027892
 20
126.0796452574096
 30
0.0
 10
171.7727054212108
 20
126.1405479029574
 30
0.0
 10
171.79775866849
 20
126.3225559803358
 30
0.0
 10
171.8015586605512
 20
126.4412446953744
 30
0.0
 10
171.8015586605513
 20
126.558540287595
 30
0.0
  0
LINE
  5
7B
330
1F
100
AcDbEntity
  8
0
  6
Continuous
 62
     7
370
    15
100
AcDbLine
 10
171.8015586606
 20
135.1429157995
 30
0.0
 11
171.8015586606
 21
126.5585402876
 31
0.0
  0
SPLINE
  5
7C
330
1F
100
AcDbEntity
  8
0
  6
Continuous
 62
     7
370
    15
100
AcDbSpline
210
0.0
220
0.0
230
1.0
 70
     8
 71
     3
 72
    14
 73
    10
 74
     0
 42
0.00000001
 43
0.00000001
 12
1.0
 22
0.0
 32
0.0
 13
1.0
 23
0.0
 33
0.0
 40
0.0
 40
0.0
 40
0.0
 40
0.0
 40
0.4999999999999999
 40
0.4999999999999999
 40
0.7499999999999998
 40
0.7499999999999998
 40
0.8749999999999999
 40
0.8749999999999999
 40
1.0
 40
1.0
 40
1.0
 40
1.0
 10
171.7940227923199
 20
135.002191288444
 30
0.0
 10
171.7882428917596
 20
134.9876726426602
 30
0.0
 10
171.7796523834231
 20
134.9709949616564
 30
0.0
 10
171.7489505678297
 20
134.9388092858741
 30
0.0
 10
171.7365330333373
 20
134.9269971313147
 30
0.0
 10
171.7015082042097
 20
134.9060966965334
 30
0.0
 10
171.6858314072172
 20
134.8980247818297
 30
0.0
 10
171.6443794330158
 20
134.8845144600704
 30
0.0
 10
171.6228959053895
 20
134.8810028711499
 30
0.0
 10
171.6065817716753
 20
134.8798215032162
 30
0.0
  0
SPLINE
  5
7D
330
1F
100
AcDbEntity
  8
0
  6
Continuous
 62
     7
370
    15
100
AcDbSpline
210
0.0
220
0.0
230
1.0
 70
     8
 71
     3
 72
    18
 73
    14
 74
     0
 42
0.00000001
 43
0.00000001
 12
1.0
 22
0.0
 32
0.0
 13
1.0
 23
0.0
 33
0.0
 40
0.0
 40
0.0
 40
0.0
 40
0.0
 40
0.125
 40
0.125
 40
0.25
 40
0.25
 40
0.375
 40
0.375
 40
0.5
 40
0.5
 40
0.75
 40
0.75
 40
1.0
 40
1.0
 40
1.0
 40
1.0
 10
171.6065817716815
 20
134.879821503216
 30
0.0
 10
171.5578776426647
 20
134.8762946535979
 30
0.0
 10
171.4993699734602
 20
134.8727943804002
 30
0.0
 10
171.3676443108293
 20
134.8687513965123
 30
0.0
 10
171.302886672209
 20
134.8686398218817
 30
0.0
 10
171.1976762555899
 20
134.8701720066431
 30
0.0
 10
171.1544602206497
 20
134.8716271588582
 30
0.0
 10
171.0782819991688
 20
134.874552420388
 30
0.0
 10
171.0454272314847
 20
134.8760627508962
 30
0.0
 10
170.9550595126428
 20
134.8802047435846
 30
0.0
 10
170.9056371434534
 20
134.8824428285711
 30
0.0
 10
170.8179846813654
 20
134.8848941116176
 30
0.0
 10
170.779921945131
 20
134.8851493469786
 30
0.0
 10
170.7454743429876
 20
134.8842839033107
 30
0.0
  0
SPLINE
  5
7E
330
1F
100
AcDbEntity
  8
0
  6
Continuous
 62
     7
370
    15
100
AcDbSpline
210
0.0
220
0.0
230
1.0
 70
     8
 71
     3
 72
     8
 73
     4
 74
     0
 42
0.00000001
 43
0.00000001
 12
1.0
 22
0.0
 32
0.0
 13
1.0
 23
0.0
 33
0.0
 40
0.0
 40
0.0
 40
0.0
 40
0.0
 40
1.0
 40
1.0
 40
1.0
 40
1.0
 10
170.5065186826118
 20
118.1066047162683
 30
0.0
 10
170.5572457653342
 20
117.8232535949492
 30
0.0
 10
170.6151330783213
 20
117.5482974108094
 30
0.0
 10
170.6802383169915
 20
117.2815508302338
 30
0.0
  0
SPLINE
  5
7F
330
1F
100
AcDbEntity
  8
0
  6
Continuous
 62
     7
370
    15
100
AcDbSpline
210
0.0
220
0.0
230
1.0
 70
     8
 71
     3
 72
    24
 73
    20
 74
     0
 42
0.00000001
 43
0.00000001
 12
1.0
 22
0.0
 32
0.0
 13
1.0
 23
0.0
 33
0.0
 40
0.0
 40
0.0
 40
0.0
 40
0.0
 40
0.2500000000000015
 40
0.2500000000000015
 40
0.3750000000000022
 40
0.3750000000000022
 40
0.4375000000000032
 40
0.4375000000000032
 40
0.4687500000000047
 40
0.4687500000000047
 40
0.5000000000000062
 40
0.5000000000000062
 40
0.5625000000000056
 40
0.5625000000000056
 40
0.625000000000005
 40
0.625000000000005
 40
0.7500000000000029
 40
0.7500000000000029
 40
1.0
 40
1.0
 40
1.0
 40
1.0
 10
170.3015586605428
 20
118.1068971245616
 30
0.0
 10
170.3019616899167
 20
118.2001654171912
 30
0.0
 10
170.3039914296318
 20
118.2939229760402
 30
0.0
 10
170.3133001410516
 20
118.4355128616797
 30
0.0
 10
170.3172261341662
 20
118.4826932802889
 30
0.0
 10
170.3281554940822
 20
118.5532893269743
 30
0.0
 10
170.3322771221766
 20
118.5770692407391
 30
0.0
 10
170.3441716433589
 20
118.6105203877863
 30
0.0
 10
170.3494584553127
 20
118.6226753398559
 30
0.0
 10
170.3660263868276
 20
118.630557978824
 30
0.0
 10
170.3739530955949
 20
118.622994379722
 30
0.0
 10
170.3909454338201
 20
118.5992019484952
 30
0.0
 10
170.3983431346111
 20
118.5790134706507
 30
0.0
 10
170.4124455249529
 20
118.5385638460309
 30
0.0
 10
170.4185986822452
 20
118.5177081716335
 30
0.0
 10
170.4359124157063
 20
118.4545831363324
 30
0.0
 10
170.4459174565948
 20
118.4116040244309
 30
0.0
 10
170.4742739128255
 20
118.281878380142
 30
0.0
 10
170.4908224521718
 20
118.1942806530061
 30
0.0
 10
170.5065186826118
 20
118.1066047162683
 30
0.0
  0
SPLINE
  5
80
330
1F
100
AcDbEntity
  8
0
  6
Continuous
 62
     7
370
    15
100
AcDbSpline
210
0.0
220
0.0
230
1.0
 70
     8
 71
     3
 72
    16
 73
    12
 74
     0
 42
0.00000001
 43
0.00000001
 12
1.0
 22
0.0
 32
0.0
 13
1.0
 23
0.0
 33
0.0
 40
0.0
 40
0.0
 40
0.0
 40
0.0
 40
0.25
 40
0.25
 40
0.3749999999999999
 40
0.3749999999999999
 40
0.4999999999999999
 40
0.4999999999999999
 40
0.75
 40
0.75
 40
1.0
 40
1.0
 40
1.0
 40
1.0
 10
170.3015586605511
 20
123.9992939167014
 30
0.0
 10
170.2210218511556
 20
123.5302210898383
 30
0.0
 10
170.1609844423534
 20
123.0498574396584
 30
0.0
 10
170.1002464951061
 20
122.3126731605175
 30
0.0
 10
170.0849240140632
 20
122.0641547572904
 30
0.0
 10
170.0643410622853
 20
121.5613713120767
 30
0.0
 10
170.0591415152488
 20
121.306512759052
 30
0.0
 10
170.0590878047086
 20
120.5502354193313
 30
0.0
 10
170.0792851419777
 20
120.0515772200215
 30
0.0
 10
170.1599634490507
 20
119.0651542492772
 30
0.0
 10
170.2210097973919
 20
118.5760401565043
 30
0.0
 10
170.3015586605511
 20
118.1068971245628
 30
0.0
  0
SPLINE
  5
81
330
1F
100
AcDbEntity
  8
0
  6
Continuous
 62
     7
370
    15
100
AcDbSpline
210
0.0
220
0.0
230
1.0
 70
     8
 71
     3
 72
    24
 73
    20
 74
     0
 42
0.00000001
 43
0.00000001
 12
1.0
 22
0.0
 32
0.0
 13
1.0
 23
0.0
 33
0.0
 40
0.0
 40
0.0
 40
0.0
 40
0.0
 40
0.2500000000000021
 40
0.2500000000000021
 40
0.3750000000000026
 40
0.3750000000000026
 40
0.4375000000000015
 40
0.4375000000000015
 40
0.5000000000000004
 40
0.5000000000000004
 40
0.53125
 40
0.53125
 40
0.5624999999999997
 40
0.5624999999999997
 40
0.6249999999999997
 40
0.6249999999999997
 40
0.75
 40
0.75
 40
1.0
 40
1.0
 40
1.0
 40
1.0
 10
170.5065186826119
 20
123.9995863249959
 30
0.0
 10
170.4907496377022
 20
123.911503661505
 30
0.0
 10
170.4741354731416
 20
123.8235588449955
 30
0.0
 10
170.4456033456482
 20
123.6932114777324
 30
0.0
 10
170.4355157120943
 20
123.6499502999303
 30
0.0
 10
170.4180278892453
 20
123.5865145240949
 30
0.0
 10
170.411818081319
 20
123.5656004005511
 30
0.0
 10
170.3975402217366
 20
123.525125608866
 30
0.0
 10
170.3899690593848
 20
123.5046479654068
 30
0.0
 10
170.3725492342104
 20
123.48180158587
 30
0.0
 10
170.3640651517558
 20
123.4752497888263
 30
0.0
 10
170.3480290781384
 20
123.485821164053
 30
0.0
 10
170.3432087058605
 20
123.4979122043369
 30
0.0
 10
170.3318018052546
 20
123.5315554475568
 30
0.0
 10
170.3277808435453
 20
123.5549631268536
 30
0.0
 10
170.317026831766
 20
123.6255517299147
 30
0.0
 10
170.3131549461433
 20
123.6725167574372
 30
0.0
 10
170.3039869813424
 20
123.8130936220433
 30
0.0
 10
170.3019586468293
 20
123.9067298516628
 30
0.0
 10
170.3015586605511
 20
123.9992939167014
 30
0.0
  0
SPLINE
  5
82
330
1F
100
AcDbEntity
  8
0
  6
Continuous
 62
     7
370
    15
100
AcDbSpline
210
0.0
220
0.0
230
1.0
 70
     8
 71
     3
 72
     8
 73
     4
 74
     0
 42
0.00000001
 43
0.00000001
 12
1.0
 22
0.0
 32
0.0
 13
1.0
 23
0.0
 33
0.0
 40
0.0
 40
0.0
 40
0.0
 40
0.0
 40
1.0
 40
1.0
 40
1.0
 40
1.0
 10
170.6802383169915
 20
124.8246402110305
 30
0.0
 10
170.6151330783213
 20
124.5578936304549
 30
0.0
 10
170.5572457653342
 20
124.2829374463151
 30
0.0
 10
170.5065186826118
 20
123.999586324996
 30
0.0
  0
LINE
  5
83
330
1F
100
AcDbEntity
  8
0
  6
Continuous
 62
     7
370
    15
100
AcDbLine
 10
170.3015586606
 20
118.1068971246
 30
0.0
 11
170.3015586606
 21
116.9518918552
 31
0.0
  0
LINE
  5
84
330
1F
100
AcDbEntity
  8
0
  6
Continuous
 62
     7
370
    15
100
AcDbLine
 10
149.5015586606
 20
124.8930149867
 30
0.0
 11
149.5015586606
 21
117.2131760545
 31
0.0
  0
LINE
  5
85
330
1F
100
AcDbEntity
  8
0
  6
Continuous
 62
     7
370
    15
100
AcDbLine
 10
170.3015586606
 20
125.1542991861
 30
0.0
 11
170.3015586606
 21
123.9992939167
 31
0.0
  0
LINE
  5
86
330
1F
100
AcDbEntity
  8
0
  6
Continuous
 62
     7
370
    15
100
AcDbLine
 10
148.0015586606
 20
124.4600022848
 30
0.0
 11
148.0015586606
 21
117.6461887564
 31
0.0
  0
LINE
  5
87
330
1F
100
AcDbEntity
  8
0
  6
Continuous
 62
     7
370
    15
100
AcDbLine
 10
170.5065186826
 20
134.8782805054
 30
0.0
 11
170.745474343
 21
134.8842839033
 31
0.0
  0
LINE
  5
88
330
1F
100
AcDbEntity
  8
0
  6
Continuous
 62
     7
370
    15
100
AcDbLine
 10
170.3015586606
 20
107.0329967361
 30
0.0
 11
170.3015586606
 21
116.9518918552
 31
0.0
  0
ARC
  5
89
330
1F
100
AcDbEntity
  8
0
  6
Continuous
 62
     7
370
    15
100
AcDbCircle
 10
170.5014955715
 20
107.0279736249
 30
0.0
 40
0.2000000000000059
100
AcDbArc
 50
88.5608333333
 51
178.5608333333
  0
LINE
  5
8A
330
1F
100
AcDbEntity
  8
0
  6
Continuous
 62
     7
370
    15
100
AcDbLine
 10
149.5015586606
 20
107.5555651348
 30
0.0
 11
149.5015586606
 21
117.2131760545
 31
0.0
  0
LINE
  5
8B
330
1F
100
AcDbEntity
  8
0
  6
Continuous
 62
     7
370
    15
100
AcDbLine
 10
149.5015586606
 20
107.5555651348
 30
0.0
 11
170.3015586606
 21
107.0329967361
 31
0.0
  0
LINE
  5
8C
330
1F
100
AcDbEntity
  8
0
  6
Continuous
 62
     7
370
    15
100
AcDbLine
 10
149.5015586606
 20
124.8930149867
 30
0.0
 11
149.5015586606
 21
134.5506259065
 31
0.0
  0
LINE
  5
8D
330
1F
100
AcDbEntity
  8
0
  6
Continuous
 62
     7
370
    15
100
AcDbLine
 10
149.5015586606
 20
134.5506259065
 30
0.0
 11
170.3015586606
 21
135.0731943052
 31
0.0
  0
LINE
  5
8E
330
1F
100
AcDbEntity
  8
0
  6
Continuous
 62
     7
370
    15
100
AcDbLine
 10
170.3015586606
 20
125.1542991861
 30
0.0
 11
170.3015586606
 21
135.0731943052
 31
0.0
  0
ARC
  5
8F
330
1F
100
AcDbEntity
  8
0
  6
Continuous
 62
     7
370
    15
100
AcDbCircle
 10
170.5014955715
 20
135.0782174163
 30
0.0
 40
0.2000000000000059
100
AcDbArc
 50
181.4391666667
 51
271.4391666667
  0
LINE
  5
90
330
1F
100
AcDbEntity
  8
0
  6
Continuous
 62
     7
370
    15
100
AcDbLine
 10
170.5065186826
 20
107.2279105359
 30
0.0
 11
170.745474343
 21
107.221907138
 31
0.0
  0
LINE
  5
91
330
1F
100
AcDbEntity
  8
0
  6
Continuous
 62
     7
370
    15
100
AcDbLine
 10
148.0015586606
 20
108.4215905386
 30
0.0
 11
149.5015586606
 21
107.5555651348
 31
0.0
  0
LINE
  5
92
330
1F
100
AcDbEntity
  8
0
  6
Continuous
 62
     7
370
    15
100
AcDbLine
 10
148.0015586606
 20
108.4215905386
 30
0.0
 11
148.0015586606
 21
117.6461887564
 31
0.0
  0
LINE
  5
93
330
1F
100
AcDbEntity
  8
0
  6
Continuous
 62
     7
370
    15
100
AcDbLine
 10
148.0015586606
 20
133.6846005027
 30
0.0
 11
149.5015586606
 21
134.5506259065
 31
0.0
  0
LINE
  5
94
330
1F
100
AcDbEntity
  8
0
  6
Continuous
 62
     7
370
    15
100
AcDbLine
 10
148.0015586606
 20
124.4600022848
 30
0.0
 11
148.0015586606
 21
133.6846005027
 31
0.0
  0
ARC
  5
95
330
1F
100
AcDbEntity
  8
0
  6
Continuous
 62
     7
370
    15
100
AcDbCircle
 10
215.5406823284
 20
109.8227333076
 30
0.0
 40
2.098829526049211
100
AcDbArc
 50
26.1937173763
 51
204.9896085148
  0
LINE
  5
96
330
1F
100
AcDbEntity
  8
0
  6
Continuous
 62
     7
370
    15
100
AcDbLine
 10
213.6383359446
 20
108.9360746273
 30
0.0
 11
214.1313254418
 21
107.8905885324
 31
0.0
  0
LINE
  5
97
330
1F
100
AcDbEntity
  8
0
  6
Continuous
 62
     7
370
    15
100
AcDbLine
 10
214.1313254418
 20
107.8905885324
 30
0.0
 11
211.4972282807
 21
106.0155321446
 31
0.0
  0
ARC
  5
98
330
1F
100
AcDbEntity
  8
0
  6
Continuous
 62
     7
370
    15
100
AcDbCircle
 10
211.845851035
 20
104.0232776327
 30
0.0
 40
2.022527098699104
100
AcDbArc
 50
99.9256375959
 51
170.6643395446
  0
LINE
  5
99
330
1F
100
AcDbEntity
  8
0
  6
Continuous
 62
     7
370
    15
100
AcDbLine
 10
209.8501124204
 20
104.3513679361
 30
0.0
 11
205.8039540021
 21
98.5383851265
 31
0.0
  0
ARC
  5
9A
330
1F
100
AcDbEntity
  8
0
  6
Continuous
 62
     7
370
    15
100
AcDbCircle
 10
199.0933609665
 20
83.1115230657
 30
0.0
 40
16.82320219027304
100
AcDbArc
 50
66.4912469762
 51
90.8770717235
  0
LINE
  5
9B
330
1F
100
AcDbEntity
  8
0
  6
Continuous
 62
     7
370
    15
100
AcDbLine
 10
198.8358449886
 20
99.9327542173
 30
0.0
 11
195.3854213882
 21
99.8822825169
 31
0.0
  0
SPLINE
  5
9C
330
1F
100
AcDbEntity
  8
0
  6
Continuous
 62
     7
370
    15
100
AcDbSpline
210
0.0
220
0.0
230
1.0
 70
     8
 71
     3
 72
     8
 73
     4
 74
     0
 42
0.00000001
 43
0.00000001
 12
1.0
 22
0.0
 32
0.0
 13
1.0
 23
0.0
 33
0.0
 40
0.0
 40
0.0
 40
0.0
 40
0.0
 40
1.0
 40
1.0
 40
1.0
 40
1.0
 10
195.385421388224
 20
99.88228251689355
 30
0.0
 10
195.3235592252707
 20
100.122368380412
 30
0.0
 10
195.2618010180513
 20
100.362482449807
 30
0.0
 10
195.2001574988612
 20
100.6026276370277
 30
0.0
  0
SPLINE
  5
9D
330
1F
100
AcDbEntity
  8
0
  6
Continuous
 62
     7
370
    15
100
AcDbSpline
210
0.0
220
0.0
230
1.0
 70
     8
 71
     3
 72
    12
 73
     8
 74
     0
 42
0.00000001
 43
0.00000001
 12
1.0
 22
0.0
 32
0.0
 13
1.0
 23
0.0
 33
0.0
 40
0.0
 40
0.0
 40
0.0
 40
0.0
 40
0.25
 40
0.25
 40
0.5
 40
0.5
 40
1.0
 40
1.0
 40
1.0
 40
1.0
 10
195.2001574988612
 20
100.6026276370277
 30
0.0
 10
195.1721607967072
 20
100.711694630098
 30
0.0
 10
195.1284084534152
 20
100.8135906457578
 30
0.0
 10
195.00969907933
 20
101.0031802649246
 30
0.0
 10
194.9363662045552
 20
101.0876697069573
 30
0.0
 10
194.6798370410094
 20
101.3021292768261
 30
0.0
 10
194.4613346072009
 20
101.388850438675
 30
0.0
 10
194.2342316725729
 20
101.3934767148109
 30
0.0
  0
SPLINE
  5
9E
330
1F
100
AcDbEntity
  8
0
  6
Continuous
 62
     7
370
    15
100
AcDbSpline
210
0.0
220
0.0
230
1.0
 70
     8
 71
     3
 72
    12
 73
     8
 74
     0
 42
0.00000001
 43
0.00000001
 12
1.0
 22
0.0
 32
0.0
 13
1.0
 23
0.0
 33
0.0
 40
0.0
 40
0.0
 40
0.0
 40
0.0
 40
0.2499999999999993
 40
0.2499999999999993
 40
0.4999999999999987
 40
0.4999999999999987
 40
1.0
 40
1.0
 40
1.0
 40
1.0
 10
194.2342316725721
 20
138.9384006624246
 30
0.0
 10
194.3246294539082
 20
138.9428867606639
 30
0.0
 10
194.412388206599
 20
138.9598068406976
 30
0.0
 10
194.5829765743497
 20
139.0168710031539
 30
0.0
 10
194.6649230311758
 20
139.0571374820036
 30
0.0
 10
194.8896176173929
 20
139.2054889976194
 30
0.0
 10
195.0146630878717
 20
139.3436301843303
 30
0.0
 10
195.1002570763566
 20
139.5019849689887
 30
0.0
  0
ELLIPSE
  5
9F
330
1F
100
AcDbEntity
  8
0
  6
Continuous
 62
     7
370
    15
100
AcDbEllipse
 10
254.883404319
 20
121.0530955206
 30
0.0
 11
195.0442403867207
 21
2.884283681151103
 31
0.0
210
0.0
220
0.0
230
1.0
 40
0.1040588589
 41
1.835810906308255
 42
1.880782259556777
  0
LINE
  5
A0
330
1F
100
AcDbEntity
  8
0
  6
Continuous
 62
     7
370
    15
100
AcDbLine
 10
203.5071085316
 20
139.8851524643
 30
0.0
 11
219.5672859954
 21
117.2818697207
 31
0.0
  0
LINE
  5
A1
330
1F
100
AcDbEntity
  8
0
  6
Continuous
 62
     7
370
    15
100
AcDbLine
 10
219.5672859954
 20
117.2818697207
 30
0.0
 11
220.5150254915
 21
106.5093552463
 31
0.0
  0
LINE
  5
A2
330
1F
100
AcDbEntity
  8
0
  6
Continuous
 62
     7
370
    15
100
AcDbLine
 10
219.6339781747
 20
106.0873857198
 30
0.0
 11
220.5150254915
 21
106.5093552463
 31
0.0
  0
LINE
  5
A3
330
1F
100
AcDbEntity
  8
0
  6
Continuous
 62
     7
370
    15
100
AcDbLine
 10
217.7889226693
 20
109.9752281082
 30
0.0
 11
217.4239762848
 21
110.7491723251
 31
0.0
  0
CIRCLE
  5
A4
330
1F
100
AcDbEntity
  8
0
  6
Continuous
 62
     7
370
    15
100
AcDbCircle
 10
204.0403829461
 20
111.6474381631
 30
0.0
 40
3.473499899741038
  0
LINE
  5
A5
330
1F
100
AcDbEntity
  8
0
  6
Continuous
 62
     7
370
    15
100
AcDbLine
 10
195.1002570764
 20
139.501984969
 30
0.0
 11
195.1002570764
 21
141.5530955206
 31
0.0
  0
LINE
  5
A6
330
1F
100
AcDbEntity
  8
0
  6
Continuous
 62
     7
370
    15
100
AcDbLine
 10
195.2001574989
 20
100.3136730519
 30
0.0
 11
195.1883977639
 21
100.3516435222
 31
0.0
  0
ELLIPSE
  5
A7
330
1F
100
AcDbEntity
  8
0
  6
Continuous
 62
     7
370
    15
100
AcDbEllipse
 10
216.8631613891
 20
121.0530955206
 30
0.0
 11
-14.59302442225024
 21
20.49991501975292
 31
0.0
210
0.0
220
0.0
230
1.0
 40
0.0040448756
 41
5.874126214320778
 42
6.280305938888712
  0
SPLINE
  5
A8
330
1F
100
AcDbEntity
  8
0
  6
Continuous
 62
     7
370
    15
100
AcDbSpline
210
0.0
220
0.0
230
1.0
 70
     8
 71
     3
 72
     8
 73
     4
 74
     0
 42
0.00000001
 43
0.00000001
 12
1.0
 22
0.0
 32
0.0
 13
1.0
 23
0.0
 33
0.0
 40
0.0
 40
0.0
 40
0.0
 40
0.0
 40
1.0
 40
1.0
 40
1.0
 40
1.0
 10
195.3854213882241
 20
99.88228251689355
 30
0.0
 10
195.3045489321493
 20
100.0262471405809
 30
0.0
 10
195.2422037602413
 20
100.1700491681915
 30
0.0
 10
195.2001574988612
 20
100.313673051872
 30
0.0
  0
LINE
  5
A9
330
1F
100
AcDbEntity
  8
0
  6
Continuous
 62
     7
370
    15
100
AcDbLine
 10
217.0501102437
 20
110.7743429654
 30
0.0
 11
216.6552563771
 21
111.6117121779
 31
0.0
  0
LINE
  5
AA
330
1F
100
AcDbEntity
  8
0
  6
Continuous
 62
     7
370
    15
100
AcDbLine
 10
219.7159660161
 20
105.9135135609
 30
0.0
 11
219.6979726927
 21
106.1180353069
 31
0.0
  0
CIRCLE
  5
AB
330
1F
100
AcDbEntity
  8
0
  6
Continuous
 62
     7
370
    15
100
AcDbCircle
 10
204.144221852
 20
111.6299477079
 30
0.0
 40
3.476648286452256
  0
CIRCLE
  5
AC
330
1F
100
AcDbEntity
  8
0
  6
Continuous
 62
     7
370
    15
100
AcDbCircle
 10
204.121714686
 20
111.6327060857
 30
0.0
 40
1.988348509356006
  0
SPLINE
  5
AD
330
1F
100
AcDbEntity
  8
0
  6
Continuous
 62
     7
370
    15
100
AcDbSpline
210
0.0
220
0.0
230
1.0
 70
     8
 71
     3
 72
    11
 73
     7
 74
     0
 42
0.00000001
 43
0.00000001
 12
1.0
 22
0.0
 32
0.0
 13
1.0
 23
0.0
 33
0.0
 40
0.0
 40
0.0
 40
0.0
 40
0.0
 40
0.1081100880371184
 40
0.4711580666043628
 40
0.8135808430835998
 40
1.0
 40
1.0
 40
1.0
 40
1.0
 10
202.9644968359708
 20
110.3412746732425
 30
0.0
 10
203.0189744969173
 20
110.3362329907682
 30
0.0
 10
203.2563953507034
 20
110.314260671532
 30
0.0
 10
203.7193178679016
 20
110.2579641509002
 30
0.0
 10
204.2614318653263
 20
110.1619989252557
 30
0.0
 10
204.557981961532
 20
110.0996072031871
 30
0.0
 10
204.6625172024558
 20
110.0776138409136
 30
0.0
  0
SPLINE
  5
AE
330
1F
100
AcDbEntity
  8
0
  6
Continuous
 62
     7
370
    15
100
AcDbSpline
210
0.0
220
0.0
230
1.0
 70
     8
 71
     3
 72
    11
 73
     7
 74
     0
 42
0.00000001
 43
0.00000001
 12
1.0
 22
0.0
 32
0.0
 13
1.0
 23
0.0
 33
0.0
 40
0.0
 40
0.0
 40
0.0
 40
0.0
 40
0.2164499953511907
 40
0.4402998152333233
 40
0.7518914760010315
 40
1.0
 40
1.0
 40
1.0
 40
1.0
 10
204.6625172024558
 20
110.0776138409136
 30
0.0
 10
204.7321828183179
 20
110.1766537712525
 30
0.0
 10
204.8738957240742
 20
110.378119532239
 30
0.0
 10
205.1486883240757
 20
110.736354642761
 30
0.0
 10
205.4595935354265
 20
111.0992720318368
 30
0.0
 10
205.6694300015569
 20
111.3171222914685
 30
0.0
 10
205.7624480446267
 20
111.413692755158
 30
0.0
  0
SPLINE
  5
AF
330
1F
100
AcDbEntity
  8
0
  6
Continuous
 62
     7
370
    15
100
AcDbSpline
210
0.0
220
0.0
230
1.0
 70
     8
 71
     3
 72
    11
 73
     7
 74
     0
 42
0.00000001
 43
0.00000001
 12
1.0
 22
0.0
 32
0.0
 13
1.0
 23
0.0
 33
0.0
 40
0.0
 40
0.0
 40
0.0
 40
0.0
 40
0.216449995351176
 40
0.440299815233289
 40
0.7518914760010237
 40
1.0
 40
1.0
 40
1.0
 40
1.0
 10
205.7624480446267
 20
111.413692755158
 30
0.0
 10
205.715800568634
 20
111.5307932501488
 30
0.0
 10
205.620910868926
 20
111.768997581013
 30
0.0
 10
205.4566271677334
 20
112.1954104503615
 30
0.0
 10
205.2965328631616
 20
112.6314624889656
 30
0.0
 10
205.2049542464528
 20
112.8961151033784
 30
0.0
 10
205.1643585203124
 20
113.0134325017313
 30
0.0
  0
SPLINE
  5
B0
330
1F
100
AcDbEntity
  8
0
  6
Continuous
 62
     7
370
    15
100
AcDbSpline
210
0.0
220
0.0
230
1.0
 70
     8
 71
     3
 72
    11
 73
     7
 74
     0
 42
0.00000001
 43
0.00000001
 12
1.0
 22
0.0
 32
0.0
 13
1.0
 23
0.0
 33
0.0
 40
0.0
 40
0.0
 40
0.0
 40
0.0
 40
0.1864191569163711
 40
0.5288419333956522
 40
0.8918899119628756
 40
1.0
 40
1.0
 40
1.0
 40
1.0
 10
205.1643585203124
 20
113.0134325017313
 30
0.0
 10
205.0598232793887
 20
113.0354258640048
 30
0.0
 10
204.763273183183
 20
113.0978175860734
 30
0.0
 10
204.2211591857583
 20
113.1937828117181
 30
0.0
 10
203.7582366685601
 20
113.2500793323497
 30
0.0
 10
203.5208158147739
 20
113.2720516515859
 30
0.0
 10
203.4663381538274
 20
113.2770933340602
 30
0.0
  0
SPLINE
  5
B1
330
1F
100
AcDbEntity
  8
0
  6
Continuous
 62
     7
370
    15
100
AcDbSpline
210
0.0
220
0.0
230
1.0
 70
     8
 71
     3
 72
    11
 73
     7
 74
     0
 42
0.00000001
 43
0.00000001
 12
1.0
 22
0.0
 32
0.0
 13
1.0
 23
0.0
 33
0.0
 40
0.0
 40
0.0
 40
0.0
 40
0.0
 40
0.2164499953511957
 40
0.4402998152333298
 40
0.751891476001058
 40
0.9999999999999999
 40
0.9999999999999999
 40
0.9999999999999999
 40
0.9999999999999999
 10
203.4663381538274
 20
113.2770933340602
 30
0.0
 10
203.3853149327304
 20
113.1930925040585
 30
0.0
 10
203.2204985315069
 20
113.0222190888424
 30
0.0
 10
202.9264480536725
 20
112.689484174094
 30
0.0
 10
202.6271522280554
 20
112.3111942911438
 30
0.0
 10
202.4464919104557
 20
112.0547106210237
 30
0.0
 10
202.3664073116566
 20
111.9410144198158
 30
0.0
  0
SPLINE
  5
B2
330
1F
100
AcDbEntity
  8
0
  6
Continuous
 62
     7
370
    15
100
AcDbSpline
210
0.0
220
0.0
230
1.0
 70
     8
 71
     3
 72
    11
 73
     7
 74
     0
 42
0.00000001
 43
0.00000001
 12
1.0
 22
0.0
 32
0.0
 13
1.0
 23
0.0
 33
0.0
 40
0.0
 40
0.0
 40
0.0
 40
0.0
 40
0.2164499953511987
 40
0.4402998152333409
 40
0.7518914760010732
 40
1.0
 40
1.0
 40
1.0
 40
1.0
 10
202.3664073116566
 20
111.9410144198158
 30
0.0
 10
202.4016971824142
 20
111.8389530251622
 30
0.0
 10
202.473483386655
 20
111.6313410400684
 30
0.0
 10
202.6185092100148
 20
111.2304283664934
 30
0.0
 10
202.7902129003203
 20
110.779003834015
 30
0.0
 10
202.9109676655598
 20
110.4757178091137
 30
0.0
 10
202.9644968359708
 20
110.3412746732425
 30
0.0
  0
LINE
  5
B3
330
1F
100
AcDbEntity
  8
0
  6
Continuous
 62
     7
370
    15
100
AcDbLine
 10
205.3723425089
 20
111.9302485055
 30
0.0
 11
205.7624480446
 21
111.4136927552
 31
0.0
  0
LINE
  5
B4
330
1F
100
AcDbEntity
  8
0
  6
Continuous
 62
     7
370
    15
100
AcDbLine
 10
205.3723425089
 20
111.9302485055
 30
0.0
 11
205.0732977467
 21
112.7301183788
 31
0.0
  0
LINE
  5
B5
330
1F
100
AcDbEntity
  8
0
  6
Continuous
 62
     7
370
    15
100
AcDbLine
 10
205.0732977467
 20
112.7301183788
 30
0.0
 11
204.9509233697
 21
113.0574392011
 31
0.0
  0
LINE
  5
B6
330
1F
100
AcDbEntity
  8
0
  6
Continuous
 62
     7
370
    15
100
AcDbLine
 10
204.2724116667
 20
110.5941695913
 30
0.0
 11
204.6625172025
 21
110.0776138409
 31
0.0
  0
LINE
  5
B7
330
1F
100
AcDbEntity
  8
0
  6
Continuous
 62
     7
370
    15
100
AcDbLine
 10
204.2724116667
 20
110.5941695913
 30
0.0
 11
204.8223770878
 21
111.2622090484
 31
0.0
  0
LINE
  5
B8
330
1F
100
AcDbEntity
  8
0
  6
Continuous
 62
     7
370
    15
100
AcDbLine
 10
204.8223770878
 20
111.2622090484
 30
0.0
 11
205.3723425089
 21
111.9302485055
 31
0.0
  0
LINE
  5
B9
330
1F
100
AcDbEntity
  8
0
  6
Continuous
 62
     7
370
    15
100
AcDbLine
 10
202.7736930792
 20
110.8268837554
 30
0.0
 11
203.4234014835
 21
110.7260000074
 31
0.0
  0
LINE
  5
BA
330
1F
100
AcDbEntity
  8
0
  6
Continuous
 62
     7
370
    15
100
AcDbLine
 10
203.4234014835
 20
110.7260000074
 30
0.0
 11
204.2724116667
 21
110.5941695913
 31
0.0
  0
ARC
  5
BB
330
1F
100
AcDbEntity
  8
0
  6
Continuous
 62
     7
370
    15
100
AcDbCircle
 10
203.6754303926
 20
112.2136657094
 30
0.0
 40
1.490220285511008
100
AcDbArc
 50
320.3223884057
 51
20.2771320803
  0
ARC
  5
BC
330
1F
100
AcDbEntity
  8
0
  6
Continuous
 62
     7
370
    15
100
AcDbCircle
 10
203.6517253214
 20
112.2233767731
 30
0.0
 40
1.514684440153518
100
AcDbArc
 50
261.3301752497
 51
320.6121736669
  0
ARC
  5
BD
330
1F
100
AcDbEntity
  8
0
  6
Continuous
 62
     7
370
    15
100
AcDbCircle
 10
203.6467456648
 20
112.1772147041
 30
0.0
 40
1.468300622872331
100
AcDbArc
 50
226.5198472858
 51
261.2507375623
  0
ARC
  5
BE
330
1F
100
AcDbEntity
  8
0
  6
Continuous
 62
     7
370
    15
100
AcDbCircle
 10
203.7091641349
 20
112.2203182212
 30
0.0
 40
1.456281810499505
100
AcDbArc
 50
20.4915792219
 51
35.9387851985
  0
ELLIPSE
  5
BF
330
1F
100
AcDbEntity
  8
0
  6
Continuous
 62
     7
370
    15
100
AcDbEllipse
 10
214.6911389113
 20
101.2426486493
 30
0.0
 11
1.895184197371691
 21
1.389650252276098
 31
0.0
210
0.0
220
0.0
230
1.0
 40
0.9861321518
 41
4.872421183339062
 42
6.723771172175049
  0
ELLIPSE
  5
C0
330
1F
100
AcDbEntity
  8
0
  6
Continuous
 62
     7
370
    15
100
AcDbEllipse
 10
214.6911389113
 20
101.2426486493
 30
0.0
 11
1.895184197371691
 21
1.389650252276098
 31
0.0
210
0.0
220
0.0
230
1.0
 40
0.9861321518
 41
2.993016044034311
 42
4.872421183339084
  0
SPLINE
  5
C1
330
1F
100
AcDbEntity
  8
0
  6
Continuous
 62
     7
370
    15
100
AcDbSpline
210
0.0
220
0.0
230
1.0
 70
     8
 71
     3
 72
    12
 73
     8
 74
     0
 42
0.00000001
 43
0.00000001
 12
1.0
 22
0.0
 32
0.0
 13
1.0
 23
0.0
 33
0.0
 40
0.0
 40
0.0
 40
0.0
 40
0.0
 40
0.0424840928711076
 40
0.2624476285806852
 40
0.4841059159937486
 40
0.8242428267935772
 40
0.9999999999999999
 40
0.9999999999999999
 40
0.9999999999999999
 40
0.9999999999999999
 10
216.7056678626656
 20
102.4128345470224
 30
0.0
 10
216.7029131486625
 20
102.424257110948
 30
0.0
 10
216.6858957638325
 20
102.4948205762828
 30
0.0
 10
216.6412117452826
 20
102.6184440772853
 30
0.0
 10
216.5592249154773
 20
102.8085157217333
 30
0.0
 10
216.4660787805154
 20
102.9773968349227
 30
0.0
 10
216.3921001736371
 20
103.0715807457275
 30
0.0
 10
216.3668968010345
 20
103.1036677543554
 30
0.0
  0
LINE
  5
C2
330
1F
100
AcDbEntity
  8
0
  6
Continuous
 62
     7
370
    15
100
AcDbLine
 10
213.0071314207
 20
99.6043656845
 30
0.0
 11
212.76586746
 21
99.6777217955
 31
0.0
  0
ARC
  5
C3
330
1F
100
AcDbEntity
  8
0
  6
Continuous
 62
     7
370
    15
100
AcDbCircle
 10
206.1960965702
 20
98.3287763225
 30
0.0
 40
0.3921535635117784
100
AcDbArc
 50
144.6610271937
 51
245.5756012451
  0
LINE
  5
C4
330
1F
100
AcDbEntity
  8
0
  6
Continuous
 62
     7
370
    15
100
AcDbLine
 10
210.5598134063
 20
105.2843970247
 30
0.0
 11
205.8761995202
 21
98.5556028967
 31
0.0
  0
LINE
  5
C5
330
1F
100
AcDbEntity
  8
0
  6
Continuous
 62
     7
370
    15
100
AcDbLine
 10
217.2487072421
 20
110.0458209006
 30
0.0
 11
210.5598134063
 21
105.2843970247
 31
0.0
  0
ARC
  5
C6
330
1F
100
AcDbEntity
  8
0
  6
Continuous
 62
     7
370
    15
100
AcDbCircle
 10
217.4810884743
 20
109.7258333218
 30
0.0
 40
0.3954656593102712
100
AcDbArc
 50
25.7051263171
 51
125.9878859011
  0
LINE
  5
C7
330
1F
100
AcDbEntity
  8
0
  6
Continuous
 62
     7
370
    15
100
AcDbLine
 10
221.2883631891
 20
102.5789204527
 30
0.0
 11
217.8374181472
 21
109.8973624795
 31
0.0
  0
LINE
  5
C8
330
1F
100
AcDbEntity
  8
0
  6
Continuous
 62
     7
370
    15
100
AcDbLine
 10
222.0000448781
 20
94.4895653847
 30
0.0
 11
221.2883631891
 21
102.5789204527
 31
0.0
  0
ARC
  5
C9
330
1F
100
AcDbEntity
  8
0
  6
Continuous
 62
     7
370
    15
100
AcDbCircle
 10
221.5979595279
 20
94.4565424734
 30
0.0
 40
0.403439142233937
100
AcDbArc
 50
265.894863421
 51
4.6951137195
  0
LINE
  5
CA
330
1F
100
AcDbEntity
  8
0
  6
Continuous
 62
     7
370
    15
100
AcDbLine
 10
213.4345196565
 20
94.643786306
 30
0.0
 11
221.5690785846
 21
94.0541384071
 31
0.0
  0
LINE
  5
CB
330
1F
100
AcDbEntity
  8
0
  6
Continuous
 62
     7
370
    15
100
AcDbLine
 10
206.0339441318
 20
97.971717498
 30
0.0
 11
213.4345196565
 21
94.643786306
 31
0.0
  0
ARC
  5
CC
330
1F
100
AcDbEntity
  8
0
  6
Continuous
 62
     7
370
    15
100
AcDbCircle
 10
206.1963950106
 20
98.3289960957
 30
0.0
 40
0.3725458853362746
100
AcDbArc
 50
144.6610271937
 51
245.5756012451
  0
LINE
  5
CD
330
1F
100
AcDbEntity
  8
0
  6
Continuous
 62
     7
370
    15
100
AcDbLine
 10
206.0423501941
 20
97.9897902125
 30
0.0
 11
213.4397470973
 21
94.6632884003
 31
0.0
  0
LINE
  5
CE
330
1F
100
AcDbEntity
  8
0
  6
Continuous
 62
     7
370
    15
100
AcDbLine
 10
213.4397470973
 20
94.6632884003
 30
0.0
 11
221.5708121505
 21
94.0738937615
 31
0.0
  0
ARC
  5
CF
330
1F
100
AcDbEntity
  8
0
  6
Continuous
 62
     7
370
    15
100
AcDbCircle
 10
221.5982490465
 20
94.4561776247
 30
0.0
 40
0.383267185312974
100
AcDbArc
 50
265.8948634593
 51
4.6951136386
  0
LINE
  5
D0
330
1F
100
AcDbEntity
  8
0
  6
Continuous
 62
     7
370
    15
100
AcDbLine
 10
221.9802301293
 20
94.4875493898
 30
0.0
 11
221.2688541148
 21
102.5734299985
 31
0.0
  0
LINE
  5
D1
330
1F
100
AcDbEntity
  8
0
  6
Continuous
 62
     7
370
    15
100
AcDbLine
 10
221.2688541148
 20
102.5734299985
 30
0.0
 11
217.8193912884
 21
109.8887286809
 31
0.0
  0
ARC
  5
D2
330
1F
100
AcDbEntity
  8
0
  6
Continuous
 62
     7
370
    15
100
AcDbCircle
 10
217.4808780992
 20
109.7257759811
 30
0.0
 40
0.3756923763446821
100
AcDbArc
 50
25.7051263171
 51
125.9878859011
  0
LINE
  5
D3
330
1F
100
AcDbEntity
  8
0
  6
Continuous
 62
     7
370
    15
100
AcDbLine
 10
217.2601159286
 20
110.029764181
 30
0.0
 11
210.5740950399
 21
105.2703853845
 31
0.0
  0
LINE
  5
D4
330
1F
100
AcDbEntity
  8
0
  6
Continuous
 62
     7
370
    15
100
AcDbLine
 10
210.5740950399
 20
105.2703853845
 30
0.0
 11
205.8924928131
 21
98.5444813412
 31
0.0
  0
LINE
  5
D5
330
1F
100
AcDbEntity
  8
0
  6
Continuous
 62
     7
370
    15
100
AcDbLine
 10
217.4539481481
 20
109.7550528603
 30
0.0
 11
217.2601159286
 21
110.029764181
 31
0.0
  0
LINE
  5
D6
330
1F
100
AcDbEntity
  8
0
  6
Continuous
 62
     7
370
    15
100
AcDbLine
 10
217.1789702359
 20
108.9112312044
 30
0.0
 11
217.4539481481
 21
109.7550528603
 31
0.0
  0
LINE
  5
D7
330
1F
100
AcDbEntity
  8
0
  6
Continuous
 62
     7
370
    15
100
AcDbLine
 10
210.7563418117
 20
105.097355488
 30
0.0
 11
210.5740950399
 21
105.2703853845
 31
0.0
  0
LINE
  5
D8
330
1F
100
AcDbEntity
  8
0
  6
Continuous
 62
     7
370
    15
100
AcDbLine
 10
206.1791325538
 20
98.363538139
 30
0.0
 11
205.8924928131
 21
98.5444813412
 31
0.0
  0
LINE
  5
D9
330
1F
100
AcDbEntity
  8
0
  6
Continuous
 62
     7
370
    15
100
AcDbLine
 10
207.0349468064
 20
98.6622128267
 30
0.0
 11
206.1791325538
 21
98.363538139
 31
0.0
  0
LINE
  5
DA
330
1F
100
AcDbEntity
  8
0
  6
Continuous
 62
     7
370
    15
100
AcDbLine
 10
210.4252296402
 20
105.4626052579
 30
0.0
 11
210.5598134063
 21
105.2843970247
 31
0.0
  0
LINE
  5
DB
330
1F
100
AcDbEntity
  8
0
  6
Continuous
 62
     7
370
    15
100
AcDbLine
 10
216.7511517569
 20
110.7046558143
 30
0.0
 11
213.7962314446
 21
108.6012245936
 31
0.0
  0
ARC
  5
DC
330
1F
100
AcDbEntity
  8
0
  6
Continuous
 62
     7
370
    15
100
AcDbCircle
 10
214.2081206069
 20
97.5856894139
 30
0.0
 40
0.9874058866869618
100
AcDbArc
 50
245.8127164439
 51
265.8802957743
  0
LINE
  5
DD
330
1F
100
AcDbEntity
  8
0
  6
Continuous
 62
     7
370
    15
100
AcDbLine
 10
209.6973045774
 20
98.5314902196
 30
0.0
 11
213.80356009
 21
96.6849668299
 31
0.0
  0
ARC
  5
DE
330
1F
100
AcDbEntity
  8
0
  6
Continuous
 62
     7
370
    15
100
AcDbCircle
 10
210.1026856733
 20
99.4241372806
 30
0.0
 40
0.9803839087795596
100
AcDbArc
 50
144.6610271937
 51
245.5756012451
  0
LINE
  5
DF
330
1F
100
AcDbEntity
  8
0
  6
Continuous
 62
     7
370
    15
100
AcDbLine
 10
211.9016754408
 20
103.7247171287
 30
0.0
 11
209.3029430484
 21
99.9912037162
 31
0.0
  0
ARC
  5
E0
330
1F
100
AcDbEntity
  8
0
  6
Continuous
 62
     7
370
    15
100
AcDbCircle
 10
212.7339566512
 20
103.1452053996
 30
0.0
 40
1.014162638509922
100
AcDbArc
 50
125.4392085403
 51
145.1507686002
  0
LINE
  5
E1
330
1F
100
AcDbEntity
  8
0
  6
Continuous
 62
     7
370
    15
100
AcDbLine
 10
215.8572802462
 20
106.6133810861
 30
0.0
 11
212.1459057599
 21
103.9714753352
 31
0.0
  0
ARC
  5
E2
330
1F
100
AcDbEntity
  8
0
  6
Continuous
 62
     7
370
    15
100
AcDbCircle
 10
216.4382333269
 20
105.8134121391
 30
0.0
 40
0.9886641482756066
100
AcDbArc
 50
25.7051263171
 51
125.9878859011
  0
LINE
  5
E3
330
1F
100
AcDbEntity
  8
0
  6
Continuous
 62
     7
370
    15
100
AcDbLine
 10
219.2438359009
 20
102.1815518046
 30
0.0
 11
217.329057509
 21
106.2422350334
 31
0.0
  0
ARC
  5
E4
330
1F
100
AcDbEntity
  8
0
  6
Continuous
 62
     7
370
    15
100
AcDbCircle
 10
218.3607049048
 20
101.7654412431
 30
0.0
 40
0.9762521988329883
100
AcDbArc
 50
5.0079174424
 51
25.228711093
  0
LINE
  5
E5
330
1F
100
AcDbEntity
  8
0
  6
Continuous
 62
     7
370
    15
100
AcDbLine
 10
219.7281114284
 20
97.3622324776
 30
0.0
 11
219.3332304023
 21
101.8506616182
 31
0.0
  0
ARC
  5
E6
330
1F
100
AcDbEntity
  8
0
  6
Continuous
 62
     7
370
    15
100
AcDbCircle
 10
218.722898053
 20
97.2796751995
 30
0.0
 40
1.008597855584758
100
AcDbArc
 50
265.894863421
 51
4.6951137195
  0
LINE
  5
E7
330
1F
100
AcDbEntity
  8
0
  6
Continuous
 62
     7
370
    15
100
AcDbLine
 10
214.1371849103
 20
96.60083485
 30
0.0
 11
218.6506956946
 21
96.2736650337
 31
0.0
  0
CIRCLE
  5
E8
330
1F
100
AcDbEntity
  8
0
  6
Continuous
 62
     7
370
    15
100
AcDbCircle
 10
215.0608686107
 20
100.8445403427
 30
0.0
 40
2.563696187524127
  0
SPLINE
  5
E9
330
1F
100
AcDbEntity
  8
0
  6
Continuous
 62
     7
370
    15
100
AcDbSpline
210
0.0
220
0.0
230
1.0
 70
     8
 71
     3
 72
    11
 73
     7
 74
     0
 42
0.00000001
 43
0.00000001
 12
1.0
 22
0.0
 32
0.0
 13
1.0
 23
0.0
 33
0.0
 40
0.0
 40
0.0
 40
0.0
 40
0.0
 40
0.3428198029224076
 40
0.6843499542184708
 40
0.9951188561699867
 40
1.0
 40
1.0
 40
1.0
 40
1.0
 10
217.1789702359299
 20
108.911231204384
 30
0.0
 10
217.1308471862393
 20
108.7545060815985
 30
0.0
 10
217.0347821206512
 20
108.4416454192656
 30
0.0
 10
216.9129827203887
 20
107.9420322210518
 30
0.0
 10
216.8477427269582
 20
107.6291699096938
 30
0.0
 10
216.8204949956336
 20
107.4854773537799
 30
0.0
 10
216.8200736426276
 20
107.4832553232683
 30
0.0
  0
LINE
  5
EA
330
1F
100
AcDbEntity
  8
0
  6
Continuous
 62
     7
370
    15
100
AcDbLine
 10
217.4539481481
 20
109.7550528603
 30
0.0
 11
217.8193912884
 21
109.8887286809
 31
0.0
  0
LINE
  5
EB
330
1F
100
AcDbEntity
  8
0
  6
Continuous
 62
     7
370
    15
100
AcDbLine
 10
220.9800939542
 20
102.5191764741
 30
0.0
 11
221.2688541148
 21
102.5734299985
 31
0.0
  0
ARC
  5
EC
330
1F
100
AcDbEntity
  8
0
  6
Continuous
 62
     7
370
    15
100
AcDbCircle
 10
216.9837418635
 20
110.3836798572
 30
0.0
 40
0.3963883483458249
100
AcDbArc
 50
37.4267288511
 51
125.9283658729
  0
SPLINE
  5
ED
330
1F
100
AcDbEntity
  8
0
  6
Continuous
 62
     7
370
    15
100
AcDbSpline
210
0.0
220
0.0
230
1.0
 70
     8
 71
     3
 72
    11
 73
     7
 74
     0
 42
0.00000001
 43
0.00000001
 12
1.0
 22
0.0
 32
0.0
 13
1.0
 23
0.0
 33
0.0
 40
0.0
 40
0.0
 40
0.0
 40
0.0
 40
0.3219798907253771
 40
0.6440235861688467
 40
0.9911766261994233
 40
0.9999999999999999
 40
0.9999999999999999
 40
0.9999999999999999
 40
0.9999999999999999
 10
210.7563418117017
 20
105.0973554879759
 30
0.0
 10
210.8577776369365
 20
105.0003022479736
 30
0.0
 10
211.060669388302
 20
104.8061765355425
 30
0.0
 10
211.4333336141506
 20
104.4404634790767
 30
0.0
 10
211.6849309030206
 20
104.1894263896416
 30
0.0
 10
211.807484243208
 20
104.0658878125246
 30
0.0
 10
211.810521899325
 20
104.062825735931
 30
0.0
  0
SPLINE
  5
EE
330
1F
100
AcDbEntity
  8
0
  6
Continuous
 62
     7
370
    15
100
AcDbSpline
210
0.0
220
0.0
230
1.0
 70
     8
 71
     3
 72
    11
 73
     7
 74
     0
 42
0.00000001
 43
0.00000001
 12
1.0
 22
0.0
 32
0.0
 13
1.0
 23
0.0
 33
0.0
 40
0.0
 40
0.0
 40
0.0
 40
0.0
 40
0.0048811438300562
 40
0.3156500457815677
 40
0.6571801970776053
 40
1.0
 40
1.0
 40
1.0
 40
1.0
 10
208.4577160584448
 20
99.03434378866139
 30
0.0
 10
208.4555349802205
 20
99.0339364516748
 30
0.0
 10
208.3144906952455
 20
99.00759509748903
 30
0.0
 10
208.0059777238482
 20
98.9428359421917
 30
0.0
 10
207.509089320714
 20
98.8173576556401
 30
0.0
 10
207.1931927459709
 20
98.71399269980608
 30
0.0
 10
207.0349468064048
 20
98.66221282670217
 30
0.0
  0
LINE
  5
EF
330
1F
100
AcDbEntity
  8
0
  6
Continuous
 62
     7
370
    15
100
AcDbLine
 10
206.1791325538
 20
98.363538139
 30
0.0
 11
206.0423501941
 21
97.9897902125
 31
0.0
  0
LINE
  5
F0
330
1F
100
AcDbEntity
  8
0
  6
Continuous
 62
     7
370
    15
100
AcDbLine
 10
213.4957879419
 20
94.9574047178
 30
0.0
 11
213.4397470973
 21
94.6632884003
 31
0.0
  0
ARC
  5
F1
330
1F
100
AcDbEntity
  8
0
  6
Continuous
 62
     7
370
    15
100
AcDbCircle
 10
214.607217757
 20
101.5265348962
 30
0.0
 40
2.55481381800157
100
AcDbArc
 50
322.3202387771
 51
27.3255616672
  0
ARC
  5
F2
330
1F
100
AcDbEntity
  8
0
  6
Continuous
 62
     7
370
    15
100
AcDbCircle
 10
214.5486276781
 20
101.4648387539
 30
0.0
 40
2.524341761270348
100
AcDbArc
 50
226.5930755745
 51
260.1193520322
  0
LINE
  5
F3
330
1F
100
AcDbEntity
  8
0
  6
Continuous
 62
     7
370
    15
100
AcDbLine
 10
221.5808170786
 20
94.47961184
 30
0.0
 11
221.9802301293
 21
94.4875493898
 31
0.0
  0
LINE
  5
F4
330
1F
100
AcDbEntity
  8
0
  6
Continuous
 62
     7
370
    15
100
AcDbLine
 10
220.8919405077
 20
95.1678195884
 30
0.0
 11
221.5808170786
 21
94.47961184
 31
0.0
  0
SPLINE
  5
F5
330
1F
100
AcDbEntity
  8
0
  6
Continuous
 62
     7
370
    15
100
AcDbSpline
210
0.0
220
0.0
230
1.0
 70
     8
 71
     3
 72
    11
 73
     7
 74
     0
 42
0.00000001
 43
0.00000001
 12
1.0
 22
0.0
 32
0.0
 13
1.0
 23
0.0
 33
0.0
 40
0.0
 40
0.0
 40
0.0
 40
0.0
 40
0.3224837050121914
 40
0.6449232485211611
 40
0.9911766421304081
 40
1.0
 40
1.0
 40
1.0
 40
1.0
 10
220.9800939542286
 20
102.5191764740775
 30
0.0
 10
220.8242735246022
 20
102.4868750185467
 30
0.0
 10
220.5126540036817
 20
102.4222765309051
 30
0.0
 10
220.0042319828636
 20
102.2786819144407
 30
0.0
 10
219.6898366137338
 20
102.1705520120078
 30
0.0
 10
219.5455656107013
 20
102.1145338771349
 30
0.0
 10
219.5419805979269
 20
102.1131418737184
 30
0.0
  0
SPLINE
  5
F6
330
1F
100
AcDbEntity
  8
0
  6
Continuous
 62
     7
370
    15
100
AcDbSpline
210
0.0
220
0.0
230
1.0
 70
     8
 71
     3
 72
    11
 73
     7
 74
     0
 42
0.00000001
 43
0.00000001
 12
1.0
 22
0.0
 32
0.0
 13
1.0
 23
0.0
 33
0.0
 40
0.0
 40
0.0
 40
0.0
 40
0.0
 40
0.0088233741927929
 40
0.3559983152956006
 40
0.678041986944266
 40
1.0
 40
1.0
 40
1.0
 40
1.0
 10
213.8821600139294
 20
96.39473974435045
 30
0.0
 10
213.880896896057
 20
96.39123343838321
 30
0.0
 10
213.8299336449496
 20
96.24976386110174
 30
0.0
 10
213.7300842416645
 20
95.93908625909644
 30
0.0
 10
213.5935073336231
 20
95.43093545809658
 30
0.0
 10
213.5283581839855
 20
95.11523430076686
 30
0.0
 10
213.4957879419073
 20
94.95740471779003
 30
0.0
  0
LINE
  5
F7
330
1F
100
AcDbEntity
  8
0
  6
Continuous
 62
     7
370
    15
100
AcDbLine
 10
221.5808170786
 20
94.47961184
 30
0.0
 11
221.5708121505
 21
94.0738937615
 31
0.0
  0
SPLINE
  5
F8
330
1F
100
AcDbEntity
  8
0
  6
Continuous
 62
     7
370
    15
100
AcDbSpline
210
0.0
220
0.0
230
1.0
 70
     8
 71
     3
 72
    11
 73
     7
 74
     0
 42
0.00000001
 43
0.00000001
 12
1.0
 22
0.0
 32
0.0
 13
1.0
 23
0.0
 33
0.0
 40
0.0
 40
0.0
 40
0.0
 40
0.0
 40
0.0048811438300686
 40
0.3156500457815777
 40
0.6571801970776101
 40
1.0
 40
1.0
 40
1.0
 40
1.0
 10
219.8809089539682
 20
96.15369529636806
 30
0.0
 10
219.8822828629161
 20
96.15239147899007
 30
0.0
 10
219.9711297474614
 20
96.0680772220504
 30
0.0
 10
220.1731728207571
 20
95.87456838058154
 30
0.0
 10
220.5214276740752
 20
95.53596573644117
 30
0.0
 10
220.768281165409
 20
95.2906890450522
 30
0.0
 10
220.8919405077208
 20
95.16781958844584
 30
0.0
  0
LINE
  5
F9
330
1F
100
AcDbEntity
  8
0
  6
Continuous
 62
     7
370
    15
100
AcDbLine
 10
216.1686240474
 20
110.2899891426
 30
0.0
 11
213.7962314446
 21
108.6012245936
 31
0.0
  0
LINE
  5
FA
330
1F
100
AcDbEntity
  8
0
  6
Continuous
 62
     7
370
    15
100
AcDbLine
 10
215.7024271012
 20
110.9073008474
 30
0.0
 11
213.4978452273
 21
109.33799073
 31
0.0
  0
ARC
  5
FB
330
1F
100
AcDbEntity
  8
0
  6
Continuous
 62
     7
370
    15
100
AcDbCircle
 10
216.2838566832
 20
110.1005284264
 30
0.0
 40
0.9944556793128201
100
AcDbArc
 50
43.0065996513
 51
125.7797642448
  0
SPLINE
  5
FC
330
1F
100
AcDbEntity
  8
0
  6
HIDDEN
 62
     7
370
     0
100
AcDbSpline
210
0.0
220
0.0
230
1.0
 70
     8
 71
     3
 72
    12
 73
     8
 74
     0
 42
0.00000001
 43
0.00000001
 12
1.0
 22
0.0
 32
0.0
 13
1.0
 23
0.0
 33
0.0
 40
0.0
 40
0.0
 40
0.0
 40
0.0
 40
0.4999999999999956
 40
0.4999999999999956
 40
0.7499999999999978
 40
0.7499999999999978
 40
1.0
 40
1.0
 40
1.0
 40
1.0
 10
178.673653041415
 20
140.0878518038141
 30
0.0
 10
178.6923462745454
 20
140.1096455574421
 30
0.0
 10
178.7180015719571
 20
140.1306657191517
 30
0.0
 10
178.7781621946436
 20
140.1583710651154
 30
0.0
 10
178.802234506398
 20
140.1670062813088
 30
0.0
 10
178.8606160267485
 20
140.1802209265354
 30
0.0
 10
178.8960848544015
 20
140.1847519008655
 30
0.0
 10
178.9334606625503
 20
140.1847519008655
 30
0.0
  0
LINE
  5
FD
330
1F
100
AcDbEntity
  8
0
  6
HIDDEN
 62
     7
370
     0
100
AcDbLine
 10
178.9334606626
 20
140.1847519009
 30
0.0
 11
181.0696566586
 21
140.1847519009
 31
0.0
  0
SPLINE
  5
FE
330
1F
100
AcDbEntity
  8
0
  6
HIDDEN
 62
     7
370
     0
100
AcDbSpline
210
0.0
220
0.0
230
1.0
 70
     8
 71
     3
 72
    12
 73
     8
 74
     0
 42
0.00000001
 43
0.00000001
 12
1.0
 22
0.0
 32
0.0
 13
1.0
 23
0.0
 33
0.0
 40
0.0
 40
0.0
 40
0.0
 40
0.0
 40
0.2500000000000012
 40
0.2500000000000012
 40
0.5000000000000024
 40
0.5000000000000024
 40
1.0
 40
1.0
 40
1.0
 40
1.0
 10
181.0696566585519
 20
140.1847519008656
 30
0.0
 10
181.1071685445966
 20
140.1847519008656
 30
0.0
 10
181.1424558923013
 20
140.180248356603
 30
0.0
 10
181.2013857405397
 20
140.1668751571497
 30
0.0
 10
181.2249114670088
 20
140.1583902545786
 30
0.0
 10
181.2851702547769
 20
140.130642450744
 30
0.0
 10
181.3107650170662
 20
140.1096525870036
 30
0.0
 10
181.3294642796872
 20
140.0878518038141
 30
0.0
  0
ELLIPSE
  5
FF
330
1F
100
AcDbEntity
  8
0
  6
HIDDEN
 62
     7
370
     0
100
AcDbEllipse
 10
171.0526294881
 20
121.0530955206
 30
0.0
 11
9.36741787978184
 21
19.74174915274993
 31
0.0
210
0.0
220
0.0
230
1.0
 40
0.3419987131
 41
5.185211263708414
 42
6.132113578252574
  0
SPLINE
  5
100
330
1F
100
AcDbEntity
  8
0
  6
HIDDEN
 62
     7
370
     0
100
AcDbSpline
210
0.0
220
0.0
230
1.0
 70
     8
 71
     3
 72
    12
 73
     8
 74
     0
 42
0.00000001
 43
0.00000001
 12
1.0
 22
0.0
 32
0.0
 13
1.0
 23
0.0
 33
0.0
 40
0.0
 40
0.0
 40
0.0
 40
0.0
 40
0.5000000000000002
 40
0.5000000000000002
 40
0.7500000000000001
 40
0.7500000000000001
 40
1.0
 40
1.0
 40
1.0
 40
1.0
 10
181.3294642796872
 20
127.1913406476914
 30
0.0
 10
181.3107710465568
 20
127.1237580112511
 30
0.0
 10
181.285115749145
 20
127.0572754417736
 30
0.0
 10
181.2249551264586
 20
126.9682803588761
 30
0.0
 10
181.2008828147042
 20
126.940278461877
 30
0.0
 10
181.1425012943537
 20
126.8972020612118
 30
0.0
 10
181.1070324667006
 20
126.882308516284
 30
0.0
 10
181.0696566585519
 20
126.882308516284
 30
0.0
  0
LINE
  5
101
330
1F
100
AcDbEntity
  8
0
  6
HIDDEN
 62
     7
370
     0
100
AcDbLine
 10
181.0696566586
 20
126.8823085163
 30
0.0
 11
178.9334606626
 21
126.8823085163
 31
0.0
  0
SPLINE
  5
102
330
1F
100
AcDbEntity
  8
0
  6
HIDDEN
 62
     7
370
     0
100
AcDbSpline
210
0.0
220
0.0
230
1.0
 70
     8
 71
     3
 72
    12
 73
     8
 74
     0
 42
0.00000001
 43
0.00000001
 12
1.0
 22
0.0
 32
0.0
 13
1.0
 23
0.0
 33
0.0
 40
0.0
 40
0.0
 40
0.0
 40
0.0
 40
0.2500000000000014
 40
0.2500000000000014
 40
0.5000000000000029
 40
0.5000000000000029
 40
1.0
 40
1.0
 40
1.0
 40
1.0
 10
178.9334606625503
 20
126.882308516284
 30
0.0
 10
178.8959487765056
 20
126.882308516284
 30
0.0
 10
178.8606614288009
 20
126.8971133305708
 30
0.0
 10
178.8017315805625
 20
126.9407052036967
 30
0.0
 10
178.7782058540934
 20
126.9682186297827
 30
0.0
 10
178.7179470663253
 20
127.0573503618963
 30
0.0
 10
178.692352304036
 20
127.1237362125141
 30
0.0
 10
178.673653041415
 20
127.1913406476914
 30
0.0
  0
ELLIPSE
  5
103
330
1F
100
AcDbEntity
  8
0
  6
HIDDEN
 62
     7
370
     0
100
AcDbEllipse
 10
188.950487833
 20
121.0530955206
 30
0.0
 11
-9.367417879781694
 21
19.74174915274993
 31
0.0
210
0.0
220
0.0
230
1.0
 40
0.3419987131
 41
0.1510717289270583
 42
1.097974043471189
  0
SPLINE
  5
104
330
1F
100
AcDbEntity
  8
0
  6
HIDDEN
 62
     7
370
     0
100
AcDbSpline
210
0.0
220
0.0
230
1.0
 70
     8
 71
     3
 72
    12
 73
     8
 74
     0
 42
0.00000001
 43
0.00000001
 12
1.0
 22
0.0
 32
0.0
 13
1.0
 23
0.0
 33
0.0
 40
0.0
 40
0.0
 40
0.0
 40
0.0
 40
0.4999999999999971
 40
0.4999999999999971
 40
0.7499999999999986
 40
0.7499999999999986
 40
1.0
 40
1.0
 40
1.0
 40
1.0
 10
178.673653041415
 20
114.9148503935731
 30
0.0
 10
178.6923462745454
 20
114.9824330300134
 30
0.0
 10
178.7180015719572
 20
115.0489155994909
 30
0.0
 10
178.7781621946436
 20
115.1379106823884
 30
0.0
 10
178.802234506398
 20
115.1659125793876
 30
0.0
 10
178.8606160267485
 20
115.2089889800527
 30
0.0
 10
178.8960848544016
 20
115.2238825249805
 30
0.0
 10
178.9334606625503
 20
115.2238825249805
 30
0.0
  0
LINE
  5
105
330
1F
100
AcDbEntity
  8
0
  6
HIDDEN
 62
     7
370
     0
100
AcDbLine
 10
178.9334606626
 20
115.223882525
 30
0.0
 11
181.0696566586
 21
115.223882525
 31
0.0
  0
SPLINE
  5
106
330
1F
100
AcDbEntity
  8
0
  6
HIDDEN
 62
     7
370
     0
100
AcDbSpline
210
0.0
220
0.0
230
1.0
 70
     8
 71
     3
 72
    12
 73
     8
 74
     0
 42
0.00000001
 43
0.00000001
 12
1.0
 22
0.0
 32
0.0
 13
1.0
 23
0.0
 33
0.0
 40
0.0
 40
0.0
 40
0.0
 40
0.0
 40
0.2500000000000016
 40
0.2500000000000016
 40
0.5000000000000032
 40
0.5000000000000032
 40
1.0
 40
1.0
 40
1.0
 40
1.0
 10
181.0696566585519
 20
115.2238825249805
 30
0.0
 10
181.1071685445966
 20
115.2238825249805
 30
0.0
 10
181.1424558923013
 20
115.2090777106937
 30
0.0
 10
181.2013857405397
 20
115.1654858375679
 30
0.0
 10
181.2249114670088
 20
115.1379724114819
 30
0.0
 10
181.2851702547769
 20
115.0488406793683
 30
0.0
 10
181.3107650170662
 20
114.9824548287505
 30
0.0
 10
181.3294642796872
 20
114.9148503935731
 30
0.0
  0
ELLIPSE
  5
107
330
1F
100
AcDbEntity
  8
0
  6
HIDDEN
 62
     7
370
     0
100
AcDbEllipse
 10
171.0526294881
 20
121.0530955206
 30
0.0
 11
-9.367417879781755
 21
19.74174915274993
 31
0.0
210
0.0
220
0.0
230
1.0
 40
0.3419987131
 41
3.292664382516903
 42
4.239566697061004
  0
SPLINE
  5
108
330
1F
100
AcDbEntity
  8
0
  6
HIDDEN
 62
     7
370
     0
100
AcDbSpline
210
0.0
220
0.0
230
1.0
 70
     8
 71
     3
 72
    12
 73
     8
 74
     0
 42
0.00000001
 43
0.00000001
 12
1.0
 22
0.0
 32
0.0
 13
1.0
 23
0.0
 33
0.0
 40
0.0
 40
0.0
 40
0.0
 40
0.0
 40
0.5000000000000056
 40
0.5000000000000056
 40
0.7500000000000028
 40
0.7500000000000028
 40
1.0
 40
1.0
 40
1.0
 40
1.0
 10
181.3294642796872
 20
102.0183392374502
 30
0.0
 10
181.3107710465568
 20
101.9965454838223
 30
0.0
 10
181.285115749145
 20
101.9755253221126
 30
0.0
 10
181.2249551264586
 20
101.9478199761489
 30
0.0
 10
181.2008828147042
 20
101.9391847599555
 30
0.0
 10
181.1425012943537
 20
101.9259701147289
 30
0.0
 10
181.1070324667006
 20
101.9214391403988
 30
0.0
 10
181.0696566585519
 20
101.9214391403988
 30
0.0
  0
LINE
  5
109
330
1F
100
AcDbEntity
  8
0
  6
HIDDEN
 62
     7
370
     0
100
AcDbLine
 10
181.0696566586
 20
101.9214391404
 30
0.0
 11
178.9334606626
 21
101.9214391404
 31
0.0
  0
SPLINE
  5
10A
330
1F
100
AcDbEntity
  8
0
  6
HIDDEN
 62
     7
370
     0
100
AcDbSpline
210
0.0
220
0.0
230
1.0
 70
     8
 71
     3
 72
    12
 73
     8
 74
     0
 42
0.00000001
 43
0.00000001
 12
1.0
 22
0.0
 32
0.0
 13
1.0
 23
0.0
 33
0.0
 40
0.0
 40
0.0
 40
0.0
 40
0.0
 40
0.2500000000000018
 40
0.2500000000000018
 40
0.5000000000000037
 40
0.5000000000000037
 40
1.0
 40
1.0
 40
1.0
 40
1.0
 10
178.9334606625503
 20
101.9214391403988
 30
0.0
 10
178.8959487765056
 20
101.9214391403988
 30
0.0
 10
178.8606614288009
 20
101.9259426846613
 30
0.0
 10
178.8017315805625
 20
101.9393158841146
 30
0.0
 10
178.7782058540934
 20
101.9478007866857
 30
0.0
 10
178.7179470663253
 20
101.9755485905203
 30
0.0
 10
178.692352304036
 20
101.9965384542607
 30
0.0
 10
178.673653041415
 20
102.0183392374502
 30
0.0
  0
ELLIPSE
  5
10B
330
1F
100
AcDbEntity
  8
0
  6
HIDDEN
 62
     7
370
     0
100
AcDbEllipse
 10
188.950487833
 20
121.0530955206
 30
0.0
 11
9.367417879781584
 21
19.74174915274993
 31
0.0
210
0.0
220
0.0
230
1.0
 40
0.3419987131
 41
2.043618610118592
 42
2.990520924662726
  0
SPLINE
  5
10C
330
1F
100
AcDbEntity
  8
0
  6
HIDDEN
 62
     7
370
     0
100
AcDbSpline
210
0.0
220
0.0
230
1.0
 70
     8
 71
     3
 72
    58
 73
    54
 74
     0
 42
0.00000001
 43
0.00000001
 12
1.0
 22
0.0
 32
0.0
 13
1.0
 23
0.0
 33
0.0
 40
-0.0625000000000004
 40
-0.0625000000000004
 40
0.0
 40
0.0
 40
0.0312499999999998
 40
0.0312499999999998
 40
0.0624999999999996
 40
0.0624999999999996
 40
0.0937499999999995
 40
0.0937499999999995
 40
0.1249999999999993
 40
0.1249999999999993
 40
0.1874999999999989
 40
0.1874999999999989
 40
0.2499999999999986
 40
0.2499999999999986
 40
0.2812499999999986
 40
0.2812499999999986
 40
0.3124999999999986
 40
0.3124999999999986
 40
0.3437499999999987
 40
0.3437499999999987
 40
0.3749999999999987
 40
0.3749999999999987
 40
0.4062499999999988
 40
0.4062499999999988
 40
0.4374999999999988
 40
0.4374999999999988
 40
0.4687499999999988
 40
0.4687499999999988
 40
0.4999999999999989
 40
0.4999999999999989
 40
0.562499999999999
 40
0.562499999999999
 40
0.6249999999999989
 40
0.6249999999999989
 40
0.656249999999999
 40
0.656249999999999
 40
0.687499999999999
 40
0.687499999999999
 40
0.7187499999999991
 40
0.7187499999999991
 40
0.7499999999999991
 40
0.7499999999999991
 40
0.7812499999999991
 40
0.7812499999999991
 40
0.8124999999999992
 40
0.8124999999999992
 40
0.8437499999999992
 40
0.8437499999999992
 40
0.8749999999999992
 40
0.8749999999999992
 40
0.9374999999999996
 40
0.9374999999999996
 40
1.0
 40
1.0
 40
1.03125
 40
1.03125
 10
186.0015586605511
 20
120.7886594061841
 30
0.0
 10
186.0015586605511
 20
121.1853135778561
 30
0.0
 10
185.9885766228789
 20
121.3153057386967
 30
0.0
 10
185.9377258206206
 20
121.5710253511489
 30
0.0
 10
185.8992339165677
 20
121.6980840350101
 30
0.0
 10
185.7988186308412
 20
121.9402472326689
 30
0.0
 10
185.7373824915682
 20
122.0550890170536
 30
0.0
 10
185.5922490152574
 20
122.2724312146238
 30
0.0
 10
185.5078273264062
 20
122.3752728624715
 30
0.0
 10
185.2312271522414
 20
122.6518163432231
 30
0.0
 10
185.0082282409743
 20
122.8007989793552
 30
0.0
 10
184.5269937233886
 20
123.00034204291
 30
0.0
 10
184.2636943078796
 20
123.0529525159414
 30
0.0
 10
183.8721308678394
 20
123.0531665746939
 30
0.0
 10
183.7395432572347
 20
123.0401677252883
 30
0.0
 10
183.4829775516354
 20
122.989117641262
 30
0.0
 10
183.3582677854549
 20
122.9513464024498
 30
0.0
 10
183.1160286004279
 20
122.8511544943373
 30
0.0
 10
182.9990119466542
 20
122.7885691005127
 30
0.0
 10
182.7823687418079
 20
122.6438640148022
 30
0.0
 10
182.6813619853494
 20
122.561244673422
 30
0.0
 10
182.4945558896928
 20
122.374600638632
 30
0.0
 10
182.411842354161
 20
122.2736547906721
 30
0.0
 10
182.2669722247856
 20
122.0571735869904
 30
0.0
 10
182.2043019286889
 20
121.9402564219819
 30
0.0
 10
182.1038739906527
 20
121.6980599527835
 30
0.0
 10
182.066002811723
 20
121.57339896188
 30
0.0
 10
182.0147404139473
 20
121.316999612812
 30
0.0
 10
182.0016067733066
 20
121.1843886875141
 30
0.0
 10
182.0014628401678
 20
120.792714075179
 30
0.0
 10
182.0538280974326
 20
120.5294300555184
 30
0.0
 10
182.2529887607832
 20
120.0479173416586
 30
0.0
 10
182.4017864341452
 20
119.8247962546137
 30
0.0
 10
182.6780870927314
 20
119.5479641061061
 30
0.0
 10
182.7808521397911
 20
119.4634568918219
 30
0.0
 10
182.9980694135855
 20
119.318135950136
 30
0.0
 10
183.1128391070233
 20
119.2566137268739
 30
0.0
 10
183.3548256441679
 20
119.1560173236019
 30
0.0
 10
183.4819082170593
 20
119.1173894355133
 30
0.0
 10
183.7375829170625
 20
119.0663113254471
 30
0.0
 10
183.8675234344067
 20
119.0532221856799
 30
0.0
 10
184.1317868021681
 20
119.0529706673213
 30
0.0
 10
184.261997695815
 20
119.0658451373777
 30
0.0
 10
184.5177476412486
 20
119.1164640345098
 30
0.0
 10
184.644765025616
 20
119.1548118533055
 30
0.0
 10
184.8871167533676
 20
119.2550459734989
 30
0.0
 10
185.002019532654
 20
119.316390160489
 30
0.0
 10
185.219441697803
 20
119.4612951650181
 30
0.0
 10
185.3223780952477
 20
119.5456340571401
 30
0.0
 10
185.5992152524046
 20
119.8220351701818
 30
0.0
 10
185.7483704934687
 20
120.0448788032243
 30
0.0
 10
185.948341078704
 20
120.5259420844748
 30
0.0
 10
186.0015586605511
 20
120.7886594061841
 30
0.0
 10
186.0015586605511
 20
121.1853135778561
 30
0.0
  0
SPLINE
  5
10D
330
1F
100
AcDbEntity
  8
0
  6
HIDDEN
 62
     7
370
     0
100
AcDbSpline
210
0.0
220
0.0
230
1.0
 70
     8
 71
     3
 72
    68
 73
    64
 74
     0
 42
0.00000001
 43
0.00000001
 12
1.0
 22
0.0
 32
0.0
 13
1.0
 23
0.0
 33
0.0
 40
-0.0625
 40
-0.0625
 40
0.0
 40
0.0
 40
0.03125
 40
0.03125
 40
0.0625
 40
0.0625
 40
0.09375
 40
0.09375
 40
0.125
 40
0.125
 40
0.15625
 40
0.15625
 40
0.1875
 40
0.1875
 40
0.21875
 40
0.21875
 40
0.25
 40
0.25
 40
0.28125
 40
0.28125
 40
0.3125
 40
0.3125
 40
0.34375
 40
0.34375
 40
0.375
 40
0.375
 40
0.40625
 40
0.40625
 40
0.4375
 40
0.4375
 40
0.46875
 40
0.46875
 40
0.5
 40
0.5
 40
0.53125
 40
0.53125
 40
0.5625
 40
0.5625
 40
0.59375
 40
0.59375
 40
0.625
 40
0.625
 40
0.65625
 40
0.65625
 40
0.6875
 40
0.6875
 40
0.71875
 40
0.71875
 40
0.75
 40
0.75
 40
0.78125
 40
0.78125
 40
0.8125
 40
0.8125
 40
0.84375
 40
0.84375
 40
0.875
 40
0.875
 40
0.90625
 40
0.90625
 40
0.9375
 40
0.9375
 40
1.0
 40
1.0
 40
1.03125
 40
1.03125
 10
188.6015586605511
 20
128.2042266368523
 30
0.0
 10
188.6015586605511
 20
127.7381342622922
 30
0.0
 10
188.5853190624291
 20
127.5846959697923
 30
0.0
 10
188.521719237969
 20
127.2815817476996
 30
0.0
 10
188.4735753304136
 20
127.1303056436132
 30
0.0
 10
188.3480357403157
 20
126.8409207699781
 30
0.0
 10
188.2712366897471
 20
126.7031061170316
 30
0.0
 10
188.0898211711056
 20
126.4413892842299
 30
0.0
 10
187.9843340974084
 20
126.3171069250744
 30
0.0
 10
187.7539270820087
 20
126.0936509724003
 30
0.0
 10
187.6281778811599
 20
125.9929815137641
 30
0.0
 10
187.3549648625849
 20
125.8147117301236
 30
0.0
 10
187.2096974568093
 20
125.7388387012353
 30
0.0
 10
186.9089547481769
 20
125.6166687881129
 30
0.0
 10
186.7512512206891
 20
125.5694796739771
 30
0.0
 10
186.4284754902289
 20
125.5063572970651
 30
0.0
 10
186.2661631132433
 20
125.4907053012253
 30
0.0
 10
185.939732596917
 20
125.4905270339794
 30
0.0
 10
185.7739228043694
 20
125.5065175186194
 30
0.0
 10
185.4531728630424
 20
125.5692045499964
 30
0.0
 10
185.2972581780166
 20
125.6155642371479
 30
0.0
 10
184.9943879151274
 20
125.7382945231084
 30
0.0
 10
184.8482108917742
 20
125.8147926912812
 30
0.0
 10
184.5774896664271
 20
125.9911995607238
 30
0.0
 10
184.451138308646
 20
126.0918239473837
 30
0.0
 10
184.2178221845563
 20
126.3179769599521
 30
0.0
 10
184.1144916139855
 20
126.4399397049348
 30
0.0
 10
183.9334185458607
 20
126.7006165457332
 30
0.0
 10
183.8550445913315
 20
126.840996354021
 30
0.0
 10
183.7295329314608
 20
127.1303362112491
 30
0.0
 10
183.6821697596068
 20
127.2787291685491
 30
0.0
 10
183.618043044044
 20
127.582717143197
 30
0.0
 10
183.6016200830282
 20
127.7392311471838
 30
0.0
 10
183.6014975900546
 20
128.0460026409435
 30
0.0
 10
183.6172679946775
 20
128.1978717019732
 30
0.0
 10
183.6812618060533
 20
128.4985801765206
 30
0.0
 10
183.7291933702432
 20
128.6448186425342
 30
0.0
 10
183.853700501649
 20
128.922698869356
 30
0.0
 10
183.9312576189247
 20
129.0564704733767
 30
0.0
 10
184.1136914786327
 20
129.3066982983971
 30
0.0
 10
184.2169912062212
 20
129.4214673398735
 30
0.0
 10
184.4472313161047
 20
129.6312399608278
 30
0.0
 10
184.575676581461
 20
129.7269329886233
 30
0.0
 10
184.8470083783764
 20
129.891040843664
 30
0.0
 10
184.9904393100689
 20
129.9603612684361
 30
0.0
 10
185.2930596694124
 20
130.0735983027904
 30
0.0
 10
185.4518148879385
 20
130.1169307831209
 30
0.0
 10
185.7714244959485
 20
130.1742547941606
 30
0.0
 10
185.9339751908983
 20
130.1889437320373
 30
0.0
 10
186.2646138707038
 20
130.1892122138772
 30
0.0
 10
186.4271682381863
 20
130.1747929564327
 30
0.0
 10
186.7469802529143
 20
130.1179718849105
 30
0.0
 10
186.9059114254124
 20
130.0748619794684
 30
0.0
 10
187.2086637080787
 20
129.9621435102742
 30
0.0
 10
187.3522685717134
 20
129.8930494662485
 30
0.0
 10
187.6241135308362
 20
129.7292513076265
 30
0.0
 10
187.7526721035103
 20
129.6337936971625
 30
0.0
 10
187.983212384086
 20
129.4244866811402
 30
0.0
 10
188.0867637528538
 20
129.3098764473383
 30
0.0
 10
188.2698163927301
 20
129.0597342652468
 30
0.0
 10
188.3474629900533
 20
128.9263388927519
 30
0.0
 10
188.5349678140923
 20
128.5099904583161
 30
0.0
 10
188.6015586605511
 20
128.2042266368523
 30
0.0
 10
188.6015586605511
 20
127.7381342622922
 30
0.0
  0
SPLINE
  5
10E
330
1F
100
AcDbEntity
  8
0
  6
HIDDEN
 62
     7
370
     0
100
AcDbSpline
210
0.0
220
0.0
230
1.0
 70
     8
 71
     3
 72
    68
 73
    64
 74
     0
 42
0.00000001
 43
0.00000001
 12
1.0
 22
0.0
 32
0.0
 13
1.0
 23
0.0
 33
0.0
 40
-0.0625
 40
-0.0625
 40
0.0
 40
0.0
 40
0.03125
 40
0.03125
 40
0.0625
 40
0.0625
 40
0.09375
 40
0.09375
 40
0.125
 40
0.125
 40
0.15625
 40
0.15625
 40
0.1875
 40
0.1875
 40
0.21875
 40
0.21875
 40
0.25
 40
0.25
 40
0.28125
 40
0.28125
 40
0.3125
 40
0.3125
 40
0.34375
 40
0.34375
 40
0.375
 40
0.375
 40
0.40625
 40
0.40625
 40
0.4375
 40
0.4375
 40
0.46875
 40
0.46875
 40
0.5
 40
0.5
 40
0.53125
 40
0.53125
 40
0.5625
 40
0.5625
 40
0.59375
 40
0.59375
 40
0.625
 40
0.625
 40
0.65625
 40
0.65625
 40
0.6875
 40
0.6875
 40
0.71875
 40
0.71875
 40
0.75
 40
0.75
 40
0.78125
 40
0.78125
 40
0.8125
 40
0.8125
 40
0.84375
 40
0.84375
 40
0.875
 40
0.875
 40
0.90625
 40
0.90625
 40
0.9375
 40
0.9375
 40
1.0
 40
1.0
 40
1.03125
 40
1.03125
 10
188.6015586605511
 20
128.2042266368523
 30
0.0
 10
188.6015586605511
 20
127.7381342622922
 30
0.0
 10
188.5853190624291
 20
127.5846959697923
 30
0.0
 10
188.521719237969
 20
127.2815817476996
 30
0.0
 10
188.4735753304136
 20
127.1303056436132
 30
0.0
 10
188.3480357403157
 20
126.8409207699781
 30
0.0
 10
188.2712366897471
 20
126.7031061170316
 30
0.0
 10
188.0898211711056
 20
126.4413892842299
 30
0.0
 10
187.9843340974084
 20
126.3171069250744
 30
0.0
 10
187.7539270820087
 20
126.0936509724003
 30
0.0
 10
187.6281778811599
 20
125.9929815137641
 30
0.0
 10
187.3549648625849
 20
125.8147117301236
 30
0.0
 10
187.2096974568093
 20
125.7388387012353
 30
0.0
 10
186.9089547481769
 20
125.6166687881129
 30
0.0
 10
186.7512512206891
 20
125.5694796739771
 30
0.0
 10
186.4284754902289
 20
125.5063572970651
 30
0.0
 10
186.2661631132433
 20
125.4907053012253
 30
0.0
 10
185.939732596917
 20
125.4905270339794
 30
0.0
 10
185.7739228043694
 20
125.5065175186194
 30
0.0
 10
185.4531728630424
 20
125.5692045499964
 30
0.0
 10
185.2972581780166
 20
125.6155642371479
 30
0.0
 10
184.9943879151274
 20
125.7382945231084
 30
0.0
 10
184.8482108917742
 20
125.8147926912812
 30
0.0
 10
184.5774896664271
 20
125.9911995607238
 30
0.0
 10
184.451138308646
 20
126.0918239473837
 30
0.0
 10
184.2178221845563
 20
126.3179769599521
 30
0.0
 10
184.1144916139855
 20
126.4399397049348
 30
0.0
 10
183.9334185458607
 20
126.7006165457332
 30
0.0
 10
183.8550445913315
 20
126.840996354021
 30
0.0
 10
183.7295329314608
 20
127.1303362112491
 30
0.0
 10
183.6821697596068
 20
127.2787291685491
 30
0.0
 10
183.618043044044
 20
127.582717143197
 30
0.0
 10
183.6016200830282
 20
127.7392311471838
 30
0.0
 10
183.6014975900546
 20
128.0460026409435
 30
0.0
 10
183.6172679946775
 20
128.1978717019732
 30
0.0
 10
183.6812618060533
 20
128.4985801765206
 30
0.0
 10
183.7291933702432
 20
128.6448186425342
 30
0.0
 10
183.853700501649
 20
128.922698869356
 30
0.0
 10
183.9312576189247
 20
129.0564704733767
 30
0.0
 10
184.1136914786327
 20
129.3066982983971
 30
0.0
 10
184.2169912062212
 20
129.4214673398735
 30
0.0
 10
184.4472313161047
 20
129.6312399608278
 30
0.0
 10
184.575676581461
 20
129.7269329886233
 30
0.0
 10
184.8470083783764
 20
129.891040843664
 30
0.0
 10
184.9904393100689
 20
129.9603612684361
 30
0.0
 10
185.2930596694124
 20
130.0735983027904
 30
0.0
 10
185.4518148879385
 20
130.1169307831209
 30
0.0
 10
185.7714244959485
 20
130.1742547941606
 30
0.0
 10
185.9339751908983
 20
130.1889437320373
 30
0.0
 10
186.2646138707038
 20
130.1892122138772
 30
0.0
 10
186.4271682381863
 20
130.1747929564327
 30
0.0
 10
186.7469802529143
 20
130.1179718849105
 30
0.0
 10
186.9059114254124
 20
130.0748619794684
 30
0.0
 10
187.2086637080787
 20
129.9621435102742
 30
0.0
 10
187.3522685717134
 20
129.8930494662485
 30
0.0
 10
187.6241135308362
 20
129.7292513076265
 30
0.0
 10
187.7526721035103
 20
129.6337936971625
 30
0.0
 10
187.983212384086
 20
129.4244866811402
 30
0.0
 10
188.0867637528538
 20
129.3098764473383
 30
0.0
 10
188.2698163927301
 20
129.0597342652468
 30
0.0
 10
188.3474629900533
 20
128.9263388927519
 30
0.0
 10
188.5349678140923
 20
128.5099904583161
 30
0.0
 10
188.6015586605511
 20
128.2042266368523
 30
0.0
 10
188.6015586605511
 20
127.7381342622922
 30
0.0
  0
LINE
  5
10F
330
1F
100
AcDbEntity
  8
0
  6
HIDDEN
 62
     7
370
     0
100
AcDbLine
 10
172.0015586606
 20
140.7530955158
 30
0.0
 11
172.0015586606
 21
101.3530955206
 31
0.0
  0
LWPOLYLINE
  5
110
330
1F
100
AcDbEntity
  8
0
  6
HIDDEN
 62
     7
370
     0
100
AcDbPolyline
 90
       29
 70
   128
 43
0.0
 10
182.7672266403
 20
115.2336301148
 10
182.9259619523
 20
115.1994836808
 10
183.1310699708
 20
115.2572529728
 10
183.3722657233
 20
115.4040411972
 10
183.6374546476
 20
115.6324877795
 10
183.9133390637
 20
115.9311374542
 10
184.186084975
 20
116.2850146795
 10
184.4420157626
 20
116.6763745737
 10
184.6682979883
 20
117.0855927175
 10
184.8535849162
 20
117.4921492044
 10
184.9885854861
 20
117.8756575946
 10
185.0665302058
 20
118.216887176
 10
185.0835106015
 20
118.4987272725
 10
185.0386752053
 20
118.7070452448
 10
184.9342722512
 20
118.8313951599
 10
184.7755369392
 20
118.8655415939
 10
184.5704289208
 20
118.8077723019
 10
184.3292331683
 20
118.6609840776
 10
184.064044244
 20
118.4325374952
 10
183.7881598279
 20
118.1338878206
 10
183.5154139165
 20
117.7800105953
 10
183.2594831289
 20
117.3886507011
 10
183.0332009033
 20
116.9794325573
 10
182.8479139754
 20
116.5728760703
 10
182.7129134054
 20
116.1893676801
 10
182.6349686857
 20
115.8481380987
 10
182.61798829
 20
115.5662980022
 10
182.6628236862
 20
115.3579800299
 10
182.7672266403
 20
115.2336301148
  0
SPLINE
  5
111
330
1F
100
AcDbEntity
  8
0
  6
HIDDEN
 62
     7
370
     0
100
AcDbSpline
210
0.0
220
0.0
230
1.0
 70
     8
 71
     3
 72
    10
 73
     6
 74
     0
 42
0.00000001
 43
0.00000001
 12
1.0
 22
0.0
 32
0.0
 13
1.0
 23
0.0
 33
0.0
 40
0.0
 40
0.0
 40
0.0
 40
0.0
 40
0.5
 40
0.5
 40
1.0
 40
1.0
 40
1.0
 40
1.0
 10
186.5682436814592
 20
117.8468022722123
 30
0.0
 10
186.7768553668899
 20
117.722798687304
 30
0.0
 10
186.9810568349527
 20
117.5961646401158
 30
0.0
 10
187.38517350728
 20
117.3473294050702
 30
0.0
 10
187.5860178195058
 20
117.2248241303656
 30
0.0
 10
187.7798822208731
 20
117.1089036176383
 30
0.0
  0
SPLINE
  5
112
330
1F
100
AcDbEntity
  8
0
  6
HIDDEN
 62
     7
370
     0
100
AcDbSpline
210
0.0
220
0.0
230
1.0
 70
     8
 71
     3
 72
    30
 73
    26
 74
     0
 42
0.00000001
 43
0.00000001
 12
1.0
 22
0.0
 32
0.0
 13
1.0
 23
0.0
 33
0.0
 40
0.0
 40
0.0
 40
0.0
 40
0.0
 40
0.0624999999999995
 40
0.0624999999999995
 40
0.1249999999999989
 40
0.1249999999999989
 40
0.2499999999999986
 40
0.2499999999999986
 40
0.3124999999999986
 40
0.3124999999999986
 40
0.3749999999999986
 40
0.3749999999999986
 40
0.4374999999999985
 40
0.4374999999999985
 40
0.4999999999999984
 40
0.4999999999999984
 40
0.6249999999999987
 40
0.6249999999999987
 40
0.749999999999999
 40
0.749999999999999
 40
0.8124999999999991
 40
0.8124999999999991
 40
0.8749999999999992
 40
0.8749999999999992
 40
1.0
 40
1.0
 40
1.0
 40
1.0
 10
184.5990788206223
 20
114.5441152694339
 30
0.0
 10
184.5181440156791
 20
114.6409279280001
 30
0.0
 10
184.4501045921571
 20
114.7416009077261
 30
0.0
 10
184.3275666287399
 20
114.9505668984435
 30
0.0
 10
184.2736488693121
 20
115.0588802807159
 30
0.0
 10
184.1313070315653
 20
115.3963710166835
 30
0.0
 10
184.0637464063682
 20
115.6349221649382
 30
0.0
 10
184.010992888349
 20
116.0040985310704
 30
0.0
 10
184.0014794585151
 20
116.1308831327216
 30
0.0
 10
184.0016388683669
 20
116.3837762100883
 30
0.0
 10
184.0111046433107
 20
116.5095454383436
 30
0.0
 10
184.0511526514367
 20
116.7595747310487
 30
0.0
 10
184.0822674740685
 20
116.8845721641615
 30
0.0
 10
184.1651787239522
 20
117.1202393850978
 30
0.0
 10
184.2170503163807
 20
117.2324319055857
 30
0.0
 10
184.406894628896
 20
117.5503877503609
 30
0.0
 10
184.5752225090267
 20
117.726431520232
 30
0.0
 10
184.9548521110738
 20
117.9777362371157
 30
0.0
 10
185.1650959920145
 20
118.0537791789342
 30
0.0
 10
185.4803118284248
 20
118.1020694613537
 30
0.0
 10
185.5868640616779
 20
118.1075259636228
 30
0.0
 10
185.7957238735141
 20
118.0994824074442
 30
0.0
 10
185.898189260518
 20
118.0861842182114
 30
0.0
 10
186.1995180790757
 20
118.0222146932407
 30
0.0
 10
186.3950975501905
 20
117.9465420170819
 30
0.0
 10
186.5682436814593
 20
117.8468022722123
 30
0.0
  0
SPLINE
  5
113
330
1F
100
AcDbEntity
  8
0
  6
HIDDEN
 62
     7
370
     0
100
AcDbSpline
210
0.0
220
0.0
230
1.0
 70
     8
 71
     3
 72
     8
 73
     4
 74
     0
 42
0.00000001
 43
0.00000001
 12
1.0
 22
0.0
 32
0.0
 13
1.0
 23
0.0
 33
0.0
 40
0.0
 40
0.0
 40
0.0
 40
0.0
 40
1.0
 40
1.0
 40
1.0
 40
1.0
 10
185.078528572428
 20
114.1994346516585
 30
0.0
 10
184.9161364498285
 20
114.3059929375166
 30
0.0
 10
184.755968026515
 20
114.4205705077573
 30
0.0
 10
184.5990788206223
 20
114.5441152694339
 30
0.0
  0
SPLINE
  5
114
330
1F
100
AcDbEntity
  8
0
  6
HIDDEN
 62
     7
370
     0
100
AcDbSpline
210
0.0
220
0.0
230
1.0
 70
     8
 71
     3
 72
    32
 73
    28
 74
     0
 42
0.00000001
 43
0.00000001
 12
1.0
 22
0.0
 32
0.0
 13
1.0
 23
0.0
 33
0.0
 40
0.0
 40
0.0
 40
0.0
 40
0.0
 40
0.0624999999999999
 40
0.0624999999999999
 40
0.1249999999999998
 40
0.1249999999999998
 40
0.2499999999999988
 40
0.2499999999999988
 40
0.3749999999999977
 40
0.3749999999999977
 40
0.4374999999999973
 40
0.4374999999999973
 40
0.4999999999999969
 40
0.4999999999999969
 40
0.5624999999999974
 40
0.5624999999999974
 40
0.624999999999998
 40
0.624999999999998
 40
0.6874999999999986
 40
0.6874999999999986
 40
0.7499999999999991
 40
0.7499999999999991
 40
0.8749999999999998
 40
0.8749999999999998
 40
0.9374999999999999
 40
0.9374999999999999
 40
1.0
 40
1.0
 40
1.0
 40
1.0
 10
187.7798822208732
 20
117.1089036176382
 30
0.0
 10
187.8281582742091
 20
117.0909285026833
 30
0.0
 10
187.8778871434996
 20
117.0609387450572
 30
0.0
 10
187.96986007269
 20
116.9872020859309
 30
0.0
 10
188.0125274479479
 20
116.9429904442278
 30
0.0
 10
188.1248056617846
 20
116.7900822698498
 30
0.0
 10
188.1783196653102
 20
116.6621057252807
 30
0.0
 10
188.212962372309
 20
116.3521906401177
 30
0.0
 10
188.1941269351178
 20
116.168342249243
 30
0.0
 10
188.0786471539388
 20
115.8538018234815
 30
0.0
 10
188.0267237826512
 20
115.7454407841129
 30
0.0
 10
187.8907365700265
 20
115.5206085901937
 30
0.0
 10
187.8089054611837
 20
115.408307358062
 30
0.0
 10
187.6214833784327
 20
115.1900755071063
 30
0.0
 10
187.5159308038509
 20
115.0845142398716
 30
0.0
 10
187.2952627995889
 20
114.8914002305046
 30
0.0
 10
187.1787842485134
 20
114.8025116591725
 30
0.0
 10
186.9467429065956
 20
114.6453550569849
 30
0.0
 10
186.8284961633576
 20
114.5751347777058
 30
0.0
 10
186.5949939002209
 20
114.4525453098849
 30
0.0
 10
186.4804931533006
 20
114.4003931743276
 30
0.0
 10
186.1417604546879
 20
114.2663670285033
 30
0.0
 10
185.9216124057462
 20
114.2063279519688
 30
0.0
 10
185.6060324607619
 20
114.1604907177682
 30
0.0
 10
185.5027529640066
 20
114.1523434541526
 30
0.0
 10
185.2944030692611
 20
114.1556055538975
 30
0.0
 10
185.1911872836318
 20
114.1652711271875
 30
0.0
 10
185.0785285724282
 20
114.1994346516584
 30
0.0
  0
LINE
  5
115
330
1F
100
AcDbEntity
  8
0
  6
HIDDEN
 62
     7
370
     0
100
AcDbLine
 10
172.0015586606
 20
105.2530955206
 30
0.0
 11
172.0015586606
 21
136.8399467503
 31
0.0
  0
SPLINE
  5
116
330
1F
100
AcDbEntity
  8
0
  6
HIDDEN
 62
     7
370
     0
100
AcDbSpline
210
0.0
220
0.0
230
1.0
 70
     8
 71
     3
 72
    18
 73
    14
 74
     0
 42
0.00000001
 43
0.00000001
 12
1.0
 22
0.0
 32
0.0
 13
1.0
 23
0.0
 33
0.0
 40
0.0
 40
0.0
 40
0.0
 40
0.0
 40
0.2500000000000001
 40
0.2500000000000001
 40
0.5000000000000002
 40
0.5000000000000002
 40
0.6250000000000001
 40
0.6250000000000001
 40
0.7500000000000001
 40
0.7500000000000001
 40
0.875
 40
0.875
 40
1.0
 40
1.0
 40
1.0
 40
1.0
 10
170.7454743429881
 20
130.8775354387834
 30
0.0
 10
170.7797753875209
 20
130.7695252529859
 30
0.0
 10
170.8175956588177
 20
130.6622481649579
 30
0.0
 10
170.9042139792785
 20
130.4507514676413
 30
0.0
 10
170.952585314022
 20
130.3463651174716
 30
0.0
 10
171.0419882961404
 20
130.1954901948274
 30
0.0
 10
171.0745855800177
 20
130.1461451917918
 30
0.0
 10
171.1509674839625
 20
130.0515395533215
 30
0.0
 10
171.1940059213033
 20
130.0065436185669
 30
0.0
 10
171.2998189541352
 20
129.9356158459091
 30
0.0
 10
171.3648573788663
 20
129.9116693020025
 30
0.0
 10
171.4980094506689
 20
129.9239499660733
 30
0.0
 10
171.5573786311321
 20
129.9572669240782
 30
0.0
 10
171.6065817716758
 20
129.9981018103029
 30
0.0
  0
SPLINE
  5
117
330
1F
100
AcDbEntity
  8
0
  6
HIDDEN
 62
     7
370
     0
100
AcDbSpline
210
0.0
220
0.0
230
1.0
 70
     8
 71
     3
 72
    16
 73
    12
 74
     0
 42
0.00000001
 43
0.00000001
 12
1.0
 22
0.0
 32
0.0
 13
1.0
 23
0.0
 33
0.0
 40
0.0
 40
0.0
 40
0.0
 40
0.0
 40
0.0625000000000004
 40
0.0625000000000004
 40
0.1250000000000009
 40
0.1250000000000009
 40
0.2499999999999956
 40
0.2499999999999956
 40
0.499999999999994
 40
0.499999999999994
 40
1.0
 40
1.0
 40
1.0
 40
1.0
 10
171.606581771645
 20
129.9981018103323
 30
0.0
 10
171.6186516049208
 20
130.0081188593126
 30
0.0
 10
171.6329272598542
 20
130.0170779663683
 30
0.0
 10
171.6643916719786
 20
130.0249483617625
 30
0.0
 10
171.679892196789
 20
130.0225908711201
 30
0.0
 10
171.7153310933959
 20
130.0056151789422
 30
0.0
 10
171.7289237094993
 20
129.9850666877745
 30
0.0
 10
171.7619180278921
 20
129.9231243607609
 30
0.0
 10
171.7727054212108
 20
129.8767288105557
 30
0.0
 10
171.79775866849
 20
129.7337927818612
 30
0.0
 10
171.8015586605512
 20
129.6342300649757
 30
0.0
 10
171.8015586605513
 20
129.5324626603292
 30
0.0
  0
LINE
  5
118
330
1F
100
AcDbEntity
  8
0
  6
HIDDEN
 62
     7
370
     0
100
AcDbLine
 10
171.8015586606
 20
112.5737283809
 30
0.0
 11
171.8015586606
 21
129.5324626603
 31
0.0
  0
SPLINE
  5
119
330
1F
100
AcDbEntity
  8
0
  6
HIDDEN
 62
     7
370
     0
100
AcDbSpline
210
0.0
220
0.0
230
1.0
 70
     8
 71
     3
 72
    16
 73
    12
 74
     0
 42
0.00000001
 43
0.00000001
 12
1.0
 22
0.0
 32
0.0
 13
1.0
 23
0.0
 33
0.0
 40
0.0
 40
0.0
 40
0.0
 40
0.0
 40
0.5000000000000016
 40
0.5000000000000016
 40
0.7500000000000026
 40
0.7500000000000026
 40
0.8750000000000033
 40
0.8750000000000033
 40
0.9375000000000017
 40
0.9375000000000017
 40
1.0
 40
1.0
 40
1.0
 40
1.0
 10
171.8015586605511
 20
112.573728380935
 30
0.0
 10
171.8015586605511
 20
112.4717182273549
 30
0.0
 10
171.7976752353921
 20
112.3721938521016
 30
0.0
 10
171.7728599101175
 20
112.230208756091
 30
0.0
 10
171.762020462405
 20
112.1832154555206
 30
0.0
 10
171.7288046803562
 20
112.1209227251589
 30
0.0
 10
171.7154229367274
 20
112.1006412928738
 30
0.0
 10
171.6799132868652
 20
112.0835995846734
 30
0.0
 10
171.6644963203644
 20
112.0812133296572
 30
0.0
 10
171.6327952982158
 20
112.0891492595152
 30
0.0
 10
171.618649013265
 20
112.0980743328898
 30
0.0
 10
171.6065817716753
 20
112.1080892309617
 30
0.0
  0
SPLINE
  5
11A
330
1F
100
AcDbEntity
  8
0
  6
HIDDEN
 62
     7
370
     0
100
AcDbSpline
210
0.0
220
0.0
230
1.0
 70
     8
 71
     3
 72
    18
 73
    14
 74
     0
 42
0.00000001
 43
0.00000001
 12
1.0
 22
0.0
 32
0.0
 13
1.0
 23
0.0
 33
0.0
 40
0.0
 40
0.0
 40
0.0
 40
0.0
 40
0.1250000000000003
 40
0.1250000000000003
 40
0.2500000000000006
 40
0.2500000000000006
 40
0.3750000000000009
 40
0.3750000000000009
 40
0.5000000000000012
 40
0.5000000000000012
 40
0.7500000000000006
 40
0.7500000000000006
 40
1.0
 40
1.0
 40
1.0
 40
1.0
 10
171.6065817716815
 20
112.1080892309691
 30
0.0
 10
171.5578762795394
 20
112.1485111066506
 30
0.0
 10
171.4993661712126
 20
112.1815432281183
 30
0.0
 10
171.3676370529204
 20
112.1948203800712
 30
0.0
 10
171.3028781165799
 20
112.171866793091
 30
0.0
 10
171.1976671437203
 20
112.1028135961714
 30
0.0
 10
171.1544507682804
 20
112.0583459443305
 30
0.0
 10
171.0782722631684
 20
111.9651762849605
 30
0.0
 10
171.0454173017885
 20
111.9160339153997
 30
0.0
 10
170.9550490219548
 20
111.7648241804598
 30
0.0
 10
170.9056257875847
 20
111.6586694109316
 30
0.0
 10
170.8179773325365
 20
111.4450877952701
 30
0.0
 10
170.7799181603337
 20
111.3371153640348
 30
0.0
 10
170.7454743429881
 20
111.2286556024809
 30
0.0
  0
SPLINE
  5
11B
330
1F
100
AcDbEntity
  8
0
  6
HIDDEN
 62
     7
370
     0
100
AcDbSpline
210
0.0
220
0.0
230
1.0
 70
     8
 71
     3
 72
     8
 73
     4
 74
     0
 42
0.00000001
 43
0.00000001
 12
1.0
 22
0.0
 32
0.0
 13
1.0
 23
0.0
 33
0.0
 40
0.0
 40
0.0
 40
0.0
 40
0.0
 40
1.0
 40
1.0
 40
1.0
 40
1.0
 10
170.7454743429875
 20
111.2286556024804
 30
0.0
 10
170.7211606390974
 20
111.1520944449303
 30
0.0
 10
170.6996639971414
 20
111.0756690737971
 30
0.0
 10
170.6802383169914
 20
110.9995762030254
 30
0.0
  0
SPLINE
  5
11C
330
1F
100
AcDbEntity
  8
0
  6
HIDDEN
 62
     7
370
     0
100
AcDbSpline
210
0.0
220
0.0
230
1.0
 70
     8
 71
     3
 72
     8
 73
     4
 74
     0
 42
0.00000001
 43
0.00000001
 12
1.0
 22
0.0
 32
0.0
 13
1.0
 23
0.0
 33
0.0
 40
0.0
 40
0.0
 40
0.0
 40
0.0
 40
1.0
 40
1.0
 40
1.0
 40
1.0
 10
170.6802383169914
 20
107.2280315126269
 30
0.0
 10
170.6996637438847
 20
107.2245343090397
 30
0.0
 10
170.7211602978537
 20
107.2225179913974
 30
0.0
 10
170.7454743429881
 20
107.2219071379536
 30
0.0
  0
SPLINE
  5
11D
330
1F
100
AcDbEntity
  8
0
  6
HIDDEN
 62
     7
370
     0
100
AcDbSpline
210
0.0
220
0.0
230
1.0
 70
     8
 71
     3
 72
     8
 73
     4
 74
     0
 42
0.00000001
 43
0.00000001
 12
1.0
 22
0.0
 32
0.0
 13
1.0
 23
0.0
 33
0.0
 40
0.0
 40
0.0
 40
0.0
 40
0.0
 40
1.0
 40
1.0
 40
1.0
 40
1.0
 10
171.7787076474451
 20
107.1325487468954
 30
0.0
 10
171.7976445796109
 20
107.104594309494
 30
0.0
 10
171.8015586605512
 20
107.0845104581376
 30
0.0
 10
171.8015586605513
 20
107.0682836139722
 30
0.0
  0
LINE
  5
11E
330
1F
100
AcDbEntity
  8
0
  6
HIDDEN
 62
     7
370
     0
100
AcDbLine
 10
171.8015586606
 20
106.9632752418
 30
0.0
 11
171.8015586606
 21
107.068283614
 31
0.0
  0
LINE
  5
11F
330
1F
100
AcDbEntity
  8
0
  6
HIDDEN
 62
     7
370
     0
100
AcDbLine
 10
171.8015586606
 20
135.0379074273
 30
0.0
 11
171.8015586606
 21
135.1429157995
 31
0.0
  0
SPLINE
  5
120
330
1F
100
AcDbEntity
  8
0
  6
HIDDEN
 62
     7
370
     0
100
AcDbSpline
210
0.0
220
0.0
230
1.0
 70
     8
 71
     3
 72
     8
 73
     4
 74
     0
 42
0.00000001
 43
0.00000001
 12
1.0
 22
0.0
 32
0.0
 13
1.0
 23
0.0
 33
0.0
 40
0.0
 40
0.0
 40
0.0
 40
0.0
 40
1.0
 40
1.0
 40
1.0
 40
1.0
 10
171.8015586605511
 20
135.0379074272923
 30
0.0
 10
171.8015586605511
 20
135.0278201577886
 30
0.0
 10
171.7995641030688
 20
135.0161106157928
 30
0.0
 10
171.7940227923199
 20
135.002191288444
 30
0.0
  0
SPLINE
  5
121
330
1F
100
AcDbEntity
  8
0
  6
HIDDEN
 62
     7
370
     0
100
AcDbSpline
210
0.0
220
0.0
230
1.0
 70
     8
 71
     3
 72
     8
 73
     4
 74
     0
 42
0.00000001
 43
0.00000001
 12
1.0
 22
0.0
 32
0.0
 13
1.0
 23
0.0
 33
0.0
 40
0.0
 40
0.0
 40
0.0
 40
0.0
 40
1.0
 40
1.0
 40
1.0
 40
1.0
 10
170.7454743429878
 20
134.8842839033107
 30
0.0
 10
170.7211602978535
 20
134.8836730498668
 30
0.0
 10
170.6996637438846
 20
134.8816567322246
 30
0.0
 10
170.6802383169914
 20
134.8781595286373
 30
0.0
  0
SPLINE
  5
122
330
1F
100
AcDbEntity
  8
0
  6
HIDDEN
 62
     7
370
     0
100
AcDbSpline
210
0.0
220
0.0
230
1.0
 70
     8
 71
     3
 72
     8
 73
     4
 74
     0
 42
0.00000001
 43
0.00000001
 12
1.0
 22
0.0
 32
0.0
 13
1.0
 23
0.0
 33
0.0
 40
0.0
 40
0.0
 40
0.0
 40
0.0
 40
1.0
 40
1.0
 40
1.0
 40
1.0
 10
170.6802383169914
 20
131.1066148382389
 30
0.0
 10
170.6996639971413
 20
131.0305219674672
 30
0.0
 10
170.7211606390974
 20
130.954096596334
 30
0.0
 10
170.7454743429875
 20
130.877535438784
 30
0.0
  0
ARC
  5
123
330
1F
100
AcDbEntity
  8
0
  6
HIDDEN
 62
     7
370
     0
100
AcDbCircle
 10
186.0471909689
 20
116.0526381943
 30
0.0
 40
2.091093065584256
100
AcDbArc
 50
226.1705201704
 51
242.4041037073
  0
ARC
  5
124
330
1F
100
AcDbEntity
  8
0
  6
HIDDEN
 62
     7
370
     0
100
AcDbCircle
 10
186.137284336
 20
115.7754498857
 30
0.0
 40
2.115709494870912
100
AcDbArc
 50
39.0695399787
 51
78.2468865172
  0
SPLINE
  5
125
330
1F
100
AcDbEntity
  8
0
  6
HIDDEN
 62
     7
370
     0
100
AcDbSpline
210
0.0
220
0.0
230
1.0
 70
     8
 71
     3
 72
    62
 73
    58
 74
     0
 42
0.00000001
 43
0.00000001
 12
1.0
 22
0.0
 32
0.0
 13
1.0
 23
0.0
 33
0.0
 40
-0.0312500000000002
 40
-0.0312500000000002
 40
0.0
 40
0.0
 40
0.0312499999999998
 40
0.0312499999999998
 40
0.0624999999999995
 40
0.0624999999999995
 40
0.0937499999999993
 40
0.0937499999999993
 40
0.124999999999999
 40
0.124999999999999
 40
0.1874999999999985
 40
0.1874999999999985
 40
0.2187499999999983
 40
0.2187499999999983
 40
0.2499999999999981
 40
0.2499999999999981
 40
0.2812499999999979
 40
0.2812499999999979
 40
0.3124999999999977
 40
0.3124999999999977
 40
0.3437499999999974
 40
0.3437499999999974
 40
0.3749999999999972
 40
0.3749999999999972
 40
0.4062499999999972
 40
0.4062499999999972
 40
0.4374999999999972
 40
0.4374999999999972
 40
0.4687499999999973
 40
0.4687499999999973
 40
0.4999999999999973
 40
0.4999999999999973
 40
0.5624999999999974
 40
0.5624999999999974
 40
0.5937499999999976
 40
0.5937499999999976
 40
0.6249999999999976
 40
0.6249999999999976
 40
0.6874999999999979
 40
0.6874999999999979
 40
0.7187499999999981
 40
0.7187499999999981
 40
0.7499999999999983
 40
0.7499999999999983
 40
0.7812499999999986
 40
0.7812499999999986
 40
0.8124999999999988
 40
0.8124999999999988
 40
0.8749999999999991
 40
0.8749999999999991
 40
0.9062499999999993
 40
0.9062499999999993
 40
0.9374999999999996
 40
0.9374999999999996
 40
0.9687499999999998
 40
0.9687499999999998
 40
1.0
 40
1.0
 40
1.03125
 40
1.03125
 10
185.9617171147494
 20
117.0663924462146
 30
0.0
 10
186.2414002063528
 20
117.0663924462146
 30
0.0
 10
186.3786841633103
 20
117.0776808360592
 30
0.0
 10
186.6484199181617
 20
117.1219527314992
 30
0.0
 10
186.7823019372573
 20
117.1555273185795
 30
0.0
 10
187.0360484956553
 20
117.2430717969626
 30
0.0
 10
187.1562341573979
 20
117.296772672648
 30
0.0
 10
187.3836967489117
 20
117.4247494213639
 30
0.0
 10
187.4905119543733
 20
117.4991383511951
 30
0.0
 10
187.778756551698
 20
117.7459251666833
 30
0.0
 10
187.9348772505992
 20
117.9485343532407
 30
0.0
 10
188.0925927114415
 20
118.2873531836526
 30
0.0
 10
188.1335019405491
 20
118.408174713949
 30
0.0
 10
188.1878788455714
 20
118.6572394945781
 30
0.0
 10
188.2014663134609
 20
118.7843674174015
 30
0.0
 10
188.2016500784486
 20
119.0439466427254
 30
0.0
 10
188.1877640422424
 20
119.1773743947785
 30
0.0
 10
188.1336769576917
 20
119.4374240493878
 30
0.0
 10
188.0936682016468
 20
119.5654465701638
 30
0.0
 10
187.9873219270644
 20
119.8170623312954
 30
0.0
 10
187.922122652147
 20
119.9376698845641
 30
0.0
 10
187.7704152481087
 20
120.1652247951558
 30
0.0
 10
187.6826145734688
 20
120.273742773918
 30
0.0
 10
187.4892766641054
 20
120.4714578038089
 30
0.0
 10
187.3843282780938
 20
120.5605121122497
 30
0.0
 10
187.1576002681478
 20
120.7184588862677
 30
0.0
 10
187.0348285171657
 20
120.7874948545304
 30
0.0
 10
186.7821500449404
 20
120.8980554694388
 30
0.0
 10
186.6511690734397
 20
120.9405422833643
 30
0.0
 10
186.3793807021909
 20
120.9983803661637
 30
0.0
 10
186.2401470918567
 20
121.0130413480558
 30
0.0
 10
185.8269633090583
 20
121.0132211028941
 30
0.0
 10
185.5488875643435
 20
120.9538879276803
 30
0.0
 10
185.1688187363123
 20
120.7877961884466
 30
0.0
 10
185.0460504943702
 20
120.718777878089
 30
0.0
 10
184.8193643284838
 20
120.5609652421339
 30
0.0
 10
184.7141962199385
 20
120.4718219680048
 30
0.0
 10
184.4231097242083
 20
120.1741436946613
 30
0.0
 10
184.2691792019802
 20
119.9431412221157
 30
0.0
 10
184.1097475992305
 20
119.5662660616976
 30
0.0
 10
184.069746401675
 20
119.4384622919616
 30
0.0
 10
184.0155871807455
 20
119.1789278698174
 30
0.0
 10
184.0015642741961
 20
119.0455921668139
 30
0.0
 10
184.0015530503594
 20
118.785507130834
 30
0.0
 10
184.0150940035585
 20
118.6582627799979
 30
0.0
 10
184.0693120901683
 20
118.4092053025235
 30
0.0
 10
184.1101920447746
 20
118.2881701874336
 30
0.0
 10
184.2681601219504
 20
117.9485017149434
 30
0.0
 10
184.4241880793053
 20
117.7460351399019
 30
0.0
 10
184.7129351986306
 20
117.4988749220447
 30
0.0
 10
184.8201500333595
 20
117.424304135154
 30
0.0
 10
185.0470034403094
 20
117.2967400037464
 30
0.0
 10
185.1670209525493
 20
117.2430890969921
 30
0.0
 10
185.4208391600035
 20
117.1555183321813
 30
0.0
 10
185.5547062040548
 20
117.1219527181171
 30
0.0
 10
185.8243734459491
 20
117.0776892057207
 30
0.0
 10
185.9617171147494
 20
117.0663924462146
 30
0.0
 10
186.2414002063528
 20
117.0663924462146
 30
0.0
  0
LINE
  5
126
330
1F
100
AcDbEntity
  8
0
  6
HIDDEN
 62
     7
370
     0
100
AcDbLine
 10
171.8015586606
 20
107.068283614
 30
0.0
 11
171.8015586606
 21
115.5476507537
 31
0.0
  0
LINE
  5
127
330
1F
100
AcDbEntity
  8
0
  6
HIDDEN
 62
     7
370
     0
100
AcDbLine
 10
171.8015586606
 20
126.5585402876
 30
0.0
 11
171.8015586606
 21
135.0379074273
 31
0.0
  0
CIRCLE
  5
128
330
1F
100
AcDbEntity
  8
0
  6
HIDDEN
 62
     7
370
     0
100
AcDbCircle
 10
160.5015586606
 20
121.0530955206
 30
0.0
 40
2.299999999999983
  0
LINE
  5
129
330
1F
100
AcDbEntity
  8
0
  6
HIDDEN
 62
     7
370
     0
100
AcDbLine
 10
149.0285906926
 20
130.6157888247
 30
0.0
 11
149.0285906926
 21
111.4904022165
 31
0.0
  0
LINE
  5
12A
330
1F
100
AcDbEntity
  8
0
  6
HIDDEN
 62
     7
370
     0
100
AcDbLine
 10
148.0015586606
 20
110.8974449964
 30
0.0
 11
148.0015586606
 21
131.2087460449
 31
0.0
  0
LINE
  5
12B
330
1F
100
AcDbEntity
  8
0
  6
HIDDEN
 62
     7
370
     0
100
AcDbLine
 10
152.5285906926
 20
130.2840356283
 30
0.0
 11
152.5285906926
 21
111.822155413
 31
0.0
  0
LINE
  5
12C
330
1F
100
AcDbEntity
  8
0
  6
HIDDEN
 62
     7
370
     0
100
AcDbLine
 10
155.9285906926
 20
130.0530955206
 30
0.0
 11
155.9285906926
 21
112.0530955206
 31
0.0
  0
LINE
  5
12D
330
1F
100
AcDbEntity
  8
0
  6
HIDDEN
 62
     7
370
     0
100
AcDbLine
 10
151.1285906926
 20
130.0530955206
 30
0.0
 11
151.1285906926
 21
112.0530955206
 31
0.0
  0
LINE
  5
12E
330
1F
100
AcDbEntity
  8
0
  6
HIDDEN
 62
     7
370
     0
100
AcDbLine
 10
152.1285906926
 20
130.0530955206
 30
0.0
 11
152.1285906926
 21
112.0530955206
 31
0.0
  0
LINE
  5
12F
330
1F
100
AcDbEntity
  8
0
  6
HIDDEN
 62
     7
370
     0
100
AcDbLine
 10
219.6243695438
 20
106.0827837542
 30
0.0
 11
219.6339781747
 21
106.0873857198
 31
0.0
  0
LINE
  5
130
330
1F
100
AcDbEntity
  8
0
  6
HIDDEN
 62
     7
370
     0
100
AcDbLine
 10
219.6243695438
 20
106.0827837542
 30
0.0
 11
217.7889226693
 21
109.9752281082
 31
0.0
  0
SPLINE
  5
131
330
1F
100
AcDbEntity
  8
0
  6
HIDDEN
 62
     7
370
     0
100
AcDbSpline
210
0.0
220
0.0
230
1.0
 70
     8
 71
     3
 72
    14
 73
    10
 74
     0
 42
0.00000001
 43
0.00000001
 12
1.0
 22
0.0
 32
0.0
 13
1.0
 23
0.0
 33
0.0
 40
0.0
 40
0.0
 40
0.0
 40
0.0
 40
0.25
 40
0.25
 40
0.5
 40
0.5
 40
0.75
 40
0.75
 40
1.0
 40
1.0
 40
1.0
 40
1.0
 10
162.5015586605511
 20
122.1888771897922
 30
0.0
 10
162.599783007054
 20
122.0159137599887
 30
0.0
 10
162.6750978450382
 20
121.8308812055643
 30
0.0
 10
162.7760645552325
 20
121.4478689914298
 30
0.0
 10
162.8014401415226
 20
121.2531504379642
 30
0.0
 10
162.8016763667889
 20
120.8557751366986
 30
0.0
 10
162.7759732974534
 20
120.6582828022232
 30
0.0
 10
162.675653183937
 20
120.2771109675922
 30
0.0
 10
162.5997613558493
 20
120.0902391556196
 30
0.0
 10
162.5015586605556
 20
119.9173138514697
 30
0.0
  0
LINE
  5
132
330
1F
100
AcDbEntity
  8
0
  6
HIDDEN
 62
     7
370
     0
100
AcDbLine
 10
163.0015586606
 20
129.5530954918
 30
0.0
 11
163.0015586606
 21
112.5530955206
 31
0.0
  0
SPLINE
  5
133
330
1F
100
AcDbEntity
  8
0
  6
HIDDEN
 62
     7
370
     0
100
AcDbSpline
210
0.0
220
0.0
230
1.0
 70
     8
 71
     3
 72
    14
 73
    10
 74
     0
 42
0.00000001
 43
0.00000001
 12
1.0
 22
0.0
 32
0.0
 13
1.0
 23
0.0
 33
0.0
 40
0.0
 40
0.0
 40
0.0
 40
0.0
 40
0.25
 40
0.25
 40
0.5
 40
0.5
 40
0.7500000000000001
 40
0.7500000000000001
 40
1.0
 40
1.0
 40
1.0
 40
1.0
 10
162.5015586605511
 20
119.9173138514721
 30
0.0
 10
162.599783007054
 20
120.0902772812756
 30
0.0
 10
162.6750978450382
 20
120.2753098357
 30
0.0
 10
162.7760645552325
 20
120.6583220498345
 30
0.0
 10
162.8014401415226
 20
120.8530406033001
 30
0.0
 10
162.8016763667889
 20
121.2504159045657
 30
0.0
 10
162.7759732974534
 20
121.4479082390411
 30
0.0
 10
162.675653183937
 20
121.8290800736721
 30
0.0
 10
162.5997613558493
 20
122.0159518856447
 30
0.0
 10
162.5015586605556
 20
122.1888771897946
 30
0.0
  0
SPLINE
  5
134
330
1F
100
AcDbEntity
  8
0
  6
HIDDEN
 62
     7
370
     0
100
AcDbSpline
210
0.0
220
0.0
230
1.0
 70
     8
 71
     3
 72
    10
 73
     6
 74
     0
 42
0.00000001
 43
0.00000001
 12
1.0
 22
0.0
 32
0.0
 13
1.0
 23
0.0
 33
0.0
 40
0.0
 40
0.0
 40
0.0
 40
0.0
 40
0.5000000000000001
 40
0.5000000000000001
 40
1.0
 40
1.0
 40
1.0
 40
1.0
 10
195.2001574988612
 20
117.8992744407671
 30
0.0
 10
195.1787467917737
 20
118.4247771827743
 30
0.0
 10
195.1522452749677
 20
118.9501365193431
 30
0.0
 10
195.1127998059908
 20
120.0012371019623
 30
0.0
 10
195.1002570763567
 20
120.5269896502411
 30
0.0
 10
195.1002570763567
 20
121.0530955206322
 30
0.0
  0
LINE
  5
135
330
1F
100
AcDbEntity
  8
0
  6
HIDDEN
 62
     7
370
     0
100
AcDbLine
 10
195.1002570764
 20
141.5530955206
 30
0.0
 11
195.1002570764
 21
121.0530955206
 31
0.0
  0
SPLINE
  5
136
330
1F
100
AcDbEntity
  8
0
  6
HIDDEN
 62
     7
370
     0
100
AcDbSpline
210
0.0
220
0.0
230
1.0
 70
     8
 71
     3
 72
    12
 73
     8
 74
     0
 42
0.00000001
 43
0.00000001
 12
1.0
 22
0.0
 32
0.0
 13
1.0
 23
0.0
 33
0.0
 40
0.0
 40
0.0
 40
0.0
 40
0.0
 40
0.0352485753877091
 40
0.3664886377785233
 40
0.6041719097795365
 40
0.8421449336399832
 40
1.0
 40
1.0
 40
1.0
 40
1.0
 10
195.188397763903
 20
100.3516435221532
 30
0.0
 10
195.1853520742609
 20
100.3615079980957
 30
0.0
 10
195.1536852441628
 20
100.4640715289842
 30
0.0
 10
195.0964476029821
 20
100.6331578480099
 30
0.0
 10
195.0990544486775
 20
100.8592614628188
 30
0.0
 10
195.150695306163
 20
101.0365870849619
 30
0.0
 10
195.1860558278642
 20
101.1473537529044
 30
0.0
 10
195.2001574988612
 20
101.191527170988
 30
0.0
  0
SPLINE
  5
137
330
1F
100
AcDbEntity
  8
0
  6
HIDDEN
 62
     7
370
     0
100
AcDbSpline
210
0.0
220
0.0
230
1.0
 70
     8
 71
     3
 72
    60
 73
    56
 74
     0
 42
0.00000001
 43
0.00000001
 12
1.0
 22
0.0
 32
0.0
 13
1.0
 23
0.0
 33
0.0
 40
0.0
 40
0.0
 40
0.0
 40
0.0
 40
0.0625000000000005
 40
0.0625000000000005
 40
0.125000000000001
 40
0.125000000000001
 40
0.1875000000000015
 40
0.1875000000000015
 40
0.2187500000000015
 40
0.2187500000000015
 40
0.2500000000000016
 40
0.2500000000000016
 40
0.3125000000000016
 40
0.3125000000000016
 40
0.3750000000000017
 40
0.3750000000000017
 40
0.4062500000000016
 40
0.4062500000000016
 40
0.4375000000000015
 40
0.4375000000000015
 40
0.4687500000000014
 40
0.4687500000000014
 40
0.5000000000000013
 40
0.5000000000000013
 40
0.5312500000000012
 40
0.5312500000000012
 40
0.5625000000000011
 40
0.5625000000000011
 40
0.5937500000000011
 40
0.5937500000000011
 40
0.625000000000001
 40
0.625000000000001
 40
0.6562500000000009
 40
0.6562500000000009
 40
0.6875000000000008
 40
0.6875000000000008
 40
0.7187500000000008
 40
0.7187500000000008
 40
0.7500000000000007
 40
0.7500000000000007
 40
0.7812500000000006
 40
0.7812500000000006
 40
0.8125000000000004
 40
0.8125000000000004
 40
0.8437500000000004
 40
0.8437500000000004
 40
0.8750000000000003
 40
0.8750000000000003
 40
0.9062500000000002
 40
0.9062500000000002
 40
0.9375000000000001
 40
0.9375000000000001
 40
0.9687500000000001
 40
0.9687500000000001
 40
1.0
 40
1.0
 40
1.0
 40
1.0
 10
162.5015586605511
 20
119.9173138514721
 30
0.0
 10
162.3763687589724
 20
119.6968667268565
 30
0.0
 10
162.2195014404042
 20
119.5031329980362
 30
0.0
 10
161.8424639205854
 20
119.1674432992737
 30
0.0
 10
161.6307506141644
 20
119.033465940961
 30
0.0
 10
161.1648606322157
 20
118.8363391962758
 30
0.0
 10
160.9190214011641
 20
118.777121784054
 30
0.0
 10
160.5395403480695
 20
118.7499150481633
 30
0.0
 10
160.4117946193755
 20
118.7514083133052
 30
0.0
 10
160.1613283727074
 20
118.7749241191141
 30
0.0
 10
160.0374989898992
 20
118.7968433379184
 30
0.0
 10
159.6702793158006
 20
118.8936799027632
 30
0.0
 10
159.4395102977149
 20
118.997481024215
 30
0.0
 10
159.0196213362954
 20
119.2761995051431
 30
0.0
 10
158.8353629614078
 20
119.4477617966468
 30
0.0
 10
158.6046145739244
 20
119.7464091579136
 30
0.0
 10
158.5355677241355
 20
119.8528766984159
 30
0.0
 10
158.4170030603299
 20
120.0731600468088
 30
0.0
 10
158.3667946915803
 20
120.1878215632102
 30
0.0
 10
158.2849628392225
 20
120.426502199987
 30
0.0
 10
158.2536119403399
 20
120.5505478268651
 30
0.0
 10
158.2122175623012
 20
120.7986628629735
 30
0.0
 10
158.201711787237
 20
120.9239005654619
 30
0.0
 10
158.2014088349012
 20
121.1767796210529
 30
0.0
 10
158.2118933645178
 20
121.3046593072896
 30
0.0
 10
158.2530334419792
 20
121.553081368495
 30
0.0
 10
158.2836115625278
 20
121.6748802952634
 30
0.0
 10
158.3648942708791
 20
121.9136598247377
 30
0.0
 10
158.415895157441
 20
122.0307013870444
 30
0.0
 10
158.534462205804
 20
122.2515265849703
 30
0.0
 10
158.6023509590758
 20
122.3564649485331
 30
0.0
 10
158.7555013968134
 20
122.5554422817625
 30
0.0
 10
158.841057568386
 20
122.6494504069566
 30
0.0
 10
159.0237689393451
 20
122.8199430918934
 30
0.0
 10
159.121576239027
 20
122.8973812869427
 30
0.0
 10
159.330379350944
 20
123.036547182831
 30
0.0
 10
159.4419615262319
 20
123.098328991838
 30
0.0
 10
159.6706073257309
 20
123.2014078624388
 30
0.0
 10
159.7885621367021
 20
123.2434118976344
 30
0.0
 10
160.0318905816908
 20
123.3081480189312
 30
0.0
 10
160.1582344570338
 20
123.3308212814939
 30
0.0
 10
160.4093404380517
 20
123.354704077675
 30
0.0
 10
160.5350224317746
 20
123.3563073789417
 30
0.0
 10
160.7866445015664
 20
123.3388406401708
 30
0.0
 10
160.9135421218522
 20
123.3194047495309
 30
0.0
 10
161.1587326881134
 20
123.2608115782072
 30
0.0
 10
161.2779218451469
 20
123.2217487270506
 30
0.0
 10
161.5096068695017
 20
123.1242390049268
 30
0.0
 10
161.6227816738522
 20
123.0652036506382
 30
0.0
 10
161.8348600907879
 20
122.9313999337987
 30
0.0
 10
161.9346488694887
 20
122.856404717654
 30
0.0
 10
162.1219070564777
 20
122.6902096531332
 30
0.0
 10
162.209802093421
 20
122.5983154543916
 30
0.0
 10
162.3680231690529
 20
122.4029512566773
 30
0.0
 10
162.4389611253446
 20
122.2991053030048
 30
0.0
 10
162.5015586605511
 20
122.1888771897922
 30
0.0
  0
SPLINE
  5
138
330
1F
100
AcDbEntity
  8
0
  6
HIDDEN
 62
     7
370
     0
100
AcDbSpline
210
0.0
220
0.0
230
1.0
 70
     8
 71
     3
 72
    60
 73
    56
 74
     0
 42
0.00000001
 43
0.00000001
 12
1.0
 22
0.0
 32
0.0
 13
1.0
 23
0.0
 33
0.0
 40
0.0
 40
0.0
 40
0.0
 40
0.0
 40
0.0624999999999997
 40
0.0624999999999997
 40
0.1249999999999993
 40
0.1249999999999993
 40
0.187499999999999
 40
0.187499999999999
 40
0.2187499999999988
 40
0.2187499999999988
 40
0.2499999999999987
 40
0.2499999999999987
 40
0.3124999999999988
 40
0.3124999999999988
 40
0.3749999999999989
 40
0.3749999999999989
 40
0.4062499999999989
 40
0.4062499999999989
 40
0.437499999999999
 40
0.437499999999999
 40
0.4687499999999991
 40
0.4687499999999991
 40
0.4999999999999991
 40
0.4999999999999991
 40
0.5312499999999991
 40
0.5312499999999991
 40
0.5624999999999992
 40
0.5624999999999992
 40
0.5937499999999992
 40
0.5937499999999992
 40
0.6249999999999993
 40
0.6249999999999993
 40
0.6562499999999993
 40
0.6562499999999993
 40
0.6874999999999994
 40
0.6874999999999994
 40
0.7187499999999994
 40
0.7187499999999994
 40
0.7499999999999996
 40
0.7499999999999996
 40
0.7812499999999996
 40
0.7812499999999996
 40
0.8124999999999997
 40
0.8124999999999997
 40
0.8437499999999997
 40
0.8437499999999997
 40
0.8749999999999998
 40
0.8749999999999998
 40
0.9062499999999998
 40
0.9062499999999998
 40
0.9374999999999999
 40
0.9374999999999999
 40
0.9687499999999999
 40
0.9687499999999999
 40
1.0
 40
1.0
 40
1.0
 40
1.0
 10
162.5015586605511
 20
122.1888771897922
 30
0.0
 10
162.3763687589724
 20
122.4093243144078
 30
0.0
 10
162.2195014404042
 20
122.6030580432281
 30
0.0
 10
161.8424639205854
 20
122.9387477419906
 30
0.0
 10
161.6307506141644
 20
123.0727251003033
 30
0.0
 10
161.1648606322157
 20
123.2698518449884
 30
0.0
 10
160.9190214011641
 20
123.3290692572103
 30
0.0
 10
160.5395403480695
 20
123.356275993101
 30
0.0
 10
160.4117946193755
 20
123.3547827279591
 30
0.0
 10
160.1613283727074
 20
123.3312669221501
 30
0.0
 10
160.0374989898992
 20
123.3093477033459
 30
0.0
 10
159.6702793158006
 20
123.212511138501
 30
0.0
 10
159.4395102977149
 20
123.1087100170492
 30
0.0
 10
159.0196213362953
 20
122.8299915361212
 30
0.0
 10
158.8353629614078
 20
122.6584292446175
 30
0.0
 10
158.6046145739244
 20
122.3597818833507
 30
0.0
 10
158.5355677241355
 20
122.2533143428484
 30
0.0
 10
158.41700306033
 20
122.0330309944554
 30
0.0
 10
158.3667946915803
 20
121.918369478054
 30
0.0
 10
158.2849628392225
 20
121.6796888412773
 30
0.0
 10
158.2536119403399
 20
121.5556432143992
 30
0.0
 10
158.2122175623012
 20
121.3075281782908
 30
0.0
 10
158.201711787237
 20
121.1822904758023
 30
0.0
 10
158.2014088349012
 20
120.9294114202113
 30
0.0
 10
158.2118933645178
 20
120.8015317339747
 30
0.0
 10
158.2530334419792
 20
120.5531096727693
 30
0.0
 10
158.2836115625278
 20
120.4313107460009
 30
0.0
 10
158.3648942708791
 20
120.1925312165265
 30
0.0
 10
158.415895157441
 20
120.0754896542199
 30
0.0
 10
158.534462205804
 20
119.854664456294
 30
0.0
 10
158.6023509590758
 20
119.7497260927312
 30
0.0
 10
158.7555013968134
 20
119.5507487595018
 30
0.0
 10
158.841057568386
 20
119.4567406343076
 30
0.0
 10
159.0237689393451
 20
119.2862479493709
 30
0.0
 10
159.121576239027
 20
119.2088097543216
 30
0.0
 10
159.330379350944
 20
119.0696438584333
 30
0.0
 10
159.4419615262319
 20
119.0078620494263
 30
0.0
 10
159.6706073257309
 20
118.9047831788255
 30
0.0
 10
159.7885621367021
 20
118.8627791436298
 30
0.0
 10
160.0318905816908
 20
118.798043022333
 30
0.0
 10
160.1582344570338
 20
118.7753697597704
 30
0.0
 10
160.4093404380517
 20
118.7514869635892
 30
0.0
 10
160.5350224317746
 20
118.7498836623225
 30
0.0
 10
160.7866445015664
 20
118.7673504010934
 30
0.0
 10
160.9135421218522
 20
118.7867862917334
 30
0.0
 10
161.1587326881134
 20
118.845379463057
 30
0.0
 10
161.2779218451469
 20
118.8844423142137
 30
0.0
 10
161.5096068695017
 20
118.9819520363374
 30
0.0
 10
161.6227816738522
 20
119.040987390626
 30
0.0
 10
161.8348600907879
 20
119.1747911074655
 30
0.0
 10
161.9346488694887
 20
119.2497863236103
 30
0.0
 10
162.1219070564777
 20
119.4159813881311
 30
0.0
 10
162.209802093421
 20
119.5078755868726
 30
0.0
 10
162.3680231690529
 20
119.703239784587
 30
0.0
 10
162.4389611253446
 20
119.8070857382594
 30
0.0
 10
162.5015586605511
 20
119.9173138514721
 30
0.0
  0
ELLIPSE
  5
139
330
1F
100
AcDbEntity
  8
0
  6
HIDDEN
 62
     7
370
     0
100
AcDbEllipse
 10
216.8631613891
 20
121.0530955206
 30
0.0
 11
-14.59302442225024
 21
20.49991501975292
 31
0.0
210
0.0
220
0.0
230
1.0
 40
0.0040448756
 41
6.280305938888712
 42
7.851102265680024
  0
LINE
  5
13A
330
1F
100
AcDbEntity
  8
0
  6
HIDDEN
 62
     7
370
     0
100
AcDbLine
 10
163.9015586606
 20
127.3030955206
 30
0.0
 11
163.9015586606
 21
114.8030955206
 31
0.0
  0
LINE
  5
13B
330
1F
100
AcDbEntity
  8
0
  6
HIDDEN
 62
     7
370
     0
100
AcDbLine
 10
163.0015586606
 20
113.9030955206
 30
0.0
 11
163.0015586606
 21
128.2030955206
 31
0.0
  0
LINE
  5
13C
330
1F
100
AcDbEntity
  8
0
  6
HIDDEN
 62
     7
370
     0
100
AcDbLine
 10
189.0015586606
 20
127.3030955206
 30
0.0
 11
189.0015586606
 21
114.8030955206
 31
0.0
  0
SPLINE
  5
13D
330
1F
100
AcDbEntity
  8
0
  6
HIDDEN
 62
     7
370
     0
100
AcDbSpline
210
0.0
220
0.0
230
1.0
 70
     8
 71
     3
 72
    62
 73
    58
 74
     0
 42
0.00000001
 43
0.00000001
 12
1.0
 22
0.0
 32
0.0
 13
1.0
 23
0.0
 33
0.0
 40
-0.0312499999999999
 40
-0.0312499999999999
 40
0.0
 40
0.0
 40
0.03125
 40
0.03125
 40
0.0625000000000001
 40
0.0625000000000001
 40
0.0937500000000001
 40
0.0937500000000001
 40
0.1250000000000001
 40
0.1250000000000001
 40
0.1875000000000002
 40
0.1875000000000002
 40
0.2187500000000003
 40
0.2187500000000003
 40
0.2500000000000004
 40
0.2500000000000004
 40
0.2812500000000005
 40
0.2812500000000005
 40
0.3125000000000006
 40
0.3125000000000006
 40
0.3437500000000007
 40
0.3437500000000007
 40
0.3750000000000008
 40
0.3750000000000008
 40
0.4062500000000008
 40
0.4062500000000008
 40
0.4375000000000009
 40
0.4375000000000009
 40
0.468750000000001
 40
0.468750000000001
 40
0.5000000000000011
 40
0.5000000000000011
 40
0.5625000000000009
 40
0.5625000000000009
 40
0.5937500000000007
 40
0.5937500000000007
 40
0.6250000000000004
 40
0.6250000000000004
 40
0.6875000000000004
 40
0.6875000000000004
 40
0.7187500000000004
 40
0.7187500000000004
 40
0.7500000000000004
 40
0.7500000000000004
 40
0.7812500000000006
 40
0.7812500000000006
 40
0.8125000000000006
 40
0.8125000000000006
 40
0.8750000000000003
 40
0.8750000000000003
 40
0.9062500000000002
 40
0.9062500000000002
 40
0.9375000000000001
 40
0.9375000000000001
 40
0.9687500000000001
 40
0.9687500000000001
 40
1.0
 40
1.0
 40
1.03125
 40
1.03125
 10
186.2414002063528
 20
121.0930895877488
 30
0.0
 10
185.9617171147494
 20
121.0930895877488
 30
0.0
 10
185.8244331577918
 20
121.10778694532
 30
0.0
 10
185.5546974029404
 20
121.1649408051219
 30
0.0
 10
185.4208153838449
 20
121.2081477649307
 30
0.0
 10
185.1670688254469
 20
121.3192845561142
 30
0.0
 10
185.0468831637043
 20
121.3868757725483
 30
0.0
 10
184.8194205721904
 20
121.5451445180568
 30
0.0
 10
184.7126053667288
 20
121.6359147237546
 30
0.0
 10
184.4243607694042
 20
121.9309312461536
 30
0.0
 10
184.2682400705029
 20
122.1654406872892
 30
0.0
 10
184.1105246096607
 20
122.538003036699
 30
0.0
 10
184.0696153805531
 20
122.6679740113456
 30
0.0
 10
184.0152384755308
 20
122.9293201738517
 30
0.0
 10
184.0016510076413
 20
123.0595979841489
 30
0.0
 10
184.0014672426536
 20
123.3192194455565
 30
0.0
 10
184.0153532788598
 20
123.4494292245783
 30
0.0
 10
184.0694403634105
 20
123.6972627960329
 30
0.0
 10
184.1094491194554
 20
123.8163290480584
 30
0.0
 10
184.2157953940378
 20
124.0451868030401
 30
0.0
 10
184.2809946689552
 20
124.1522498781193
 30
0.0
 10
184.4327020729934
 20
124.3503157113776
 30
0.0
 10
184.5205027476334
 20
124.4426555581693
 30
0.0
 10
184.7138406569968
 20
124.608034141733
 30
0.0
 10
184.8187890430084
 20
124.6810037826793
 30
0.0
 10
185.0455170529544
 20
124.8087315545938
 30
0.0
 10
185.1682888039364
 20
124.8635844190692
 30
0.0
 10
185.4209672761618
 20
124.9506716126567
 30
0.0
 10
185.5519482476625
 20
124.9836888278925
 30
0.0
 10
185.8237366189113
 20
125.0284929053979
 30
0.0
 10
185.9629702292455
 20
125.0397523043624
 30
0.0
 10
186.3761540120439
 20
125.0398907439491
 30
0.0
 10
186.6542297567586
 20
124.9946457328851
 30
0.0
 10
187.0342985847899
 20
124.86382396389
 30
0.0
 10
187.157066826732
 20
124.808986354286
 30
0.0
 10
187.3837529926183
 20
124.6813733638815
 30
0.0
 10
187.4889211011637
 20
124.6083387924284
 30
0.0
 10
187.7800075968939
 20
124.359345893819
 30
0.0
 10
187.933938119122
 20
124.1598444601125
 30
0.0
 10
188.0933697218717
 20
123.8170832442761
 30
0.0
 10
188.1333709194272
 20
123.6982326349788
 30
0.0
 10
188.1875301403566
 20
123.4509291597429
 30
0.0
 10
188.201553046906
 20
123.3208426681585
 30
0.0
 10
188.2015642707428
 20
123.0607602118375
 30
0.0
 10
188.1880233175437
 20
122.9303766847845
 30
0.0
 10
188.1338052309339
 20
122.6690725093808
 30
0.0
 10
188.0929252763275
 20
122.5388924986039
 30
0.0
 10
187.9349571991518
 20
122.1654225528635
 30
0.0
 10
187.7789292417968
 20
121.9310668055819
 30
0.0
 10
187.4901821224716
 20
121.6355977628481
 30
0.0
 10
187.3829672877427
 20
121.544596812104
 30
0.0
 10
187.1561138807928
 20
121.3868323806037
 30
0.0
 10
187.0360963685529
 20
121.319306479955
 30
0.0
 10
186.7822781610987
 20
121.2081363951535
 30
0.0
 10
186.6484111170473
 20
121.1649407673769
 30
0.0
 10
186.3787438751531
 20
121.1077977707993
 30
0.0
 10
186.2414002063528
 20
121.0930895877488
 30
0.0
 10
185.9617171147494
 20
121.0930895877488
 30
0.0
  0
CIRCLE
  5
13E
330
1F
100
AcDbEntity
  8
0
  6
HIDDEN
 62
     7
370
     0
100
AcDbCircle
 10
203.5617055557
 20
112.2812757683
 30
0.0
 40
3.473499899741042
  0
LINE
  5
13F
330
1F
100
AcDbEntity
  8
0
  6
HIDDEN
 62
     7
370
     0
100
AcDbLine
 10
217.0498887561
 20
120.6152651758
 30
0.0
 11
219.5672859954
 21
117.2818697207
 31
0.0
  0
ARC
  5
140
330
1F
100
AcDbEntity
  8
0
  6
HIDDEN
 62
     7
370
     0
100
AcDbCircle
 10
214.576929897
 20
111.0988799261
 30
0.0
 40
2.098829526049239
100
AcDbArc
 50
26.1937173763
 51
204.9896085148
  0
LINE
  5
141
330
1F
100
AcDbEntity
  8
0
  6
HIDDEN
 62
     7
370
     0
100
AcDbLine
 10
218.6606171125
 20
107.3589303728
 30
0.0
 11
217.0501102437
 21
110.7743429654
 31
0.0
  0
LINE
  5
142
330
1F
100
AcDbEntity
  8
0
  6
HIDDEN
 62
     7
370
     0
100
AcDbLine
 10
216.6552563771
 20
111.6117121779
 30
0.0
 11
216.4602238535
 21
112.0253189436
 31
0.0
  0
LINE
  5
143
330
1F
100
AcDbEntity
  8
0
  6
HIDDEN
 62
     7
370
     0
100
AcDbLine
 10
219.6243695438
 20
106.0827837542
 30
0.0
 11
218.6606171125
 21
107.3589303728
 31
0.0
  0
LINE
  5
144
330
1F
100
AcDbEntity
  8
0
  6
HIDDEN
 62
     7
370
     0
100
AcDbLine
 10
211.4806633073
 20
106.0374665481
 30
0.0
 11
211.4972282807
 21
106.0155321446
 31
0.0
  0
LINE
  5
145
330
1F
100
AcDbEntity
  8
0
  6
HIDDEN
 62
     7
370
     0
100
AcDbLine
 10
213.1675730105
 20
109.166735151
 30
0.0
 11
214.1313254418
 21
107.8905885324
 31
0.0
  0
ELLIPSE
  5
146
330
1F
100
AcDbEntity
  8
0
  6
HIDDEN
 62
     7
370
     0
100
AcDbEllipse
 10
210.0996132341
 20
105.8937681396
 30
0.0
 11
1.33442856600928
 21
2.209358540186145
 31
0.0
210
0.0
220
0.0
230
1.0
 40
0.2605793844
 41
3.037700530381154
 42
4.120971618670573
  0
SPLINE
  5
147
330
1F
100
AcDbEntity
  8
0
  6
HIDDEN
 62
     7
370
     0
100
AcDbSpline
210
0.0
220
0.0
230
1.0
 70
     8
 71
     3
 72
    38
 73
    34
 74
     0
 42
0.00000001
 43
0.00000001
 12
1.0
 22
0.0
 32
0.0
 13
1.0
 23
0.0
 33
0.0
 40
0.0
 40
0.0
 40
0.0
 40
0.0
 40
0.1250000000000001
 40
0.1250000000000001
 40
0.1875000000000003
 40
0.1875000000000003
 40
0.2500000000000004
 40
0.2500000000000004
 40
0.3125000000000005
 40
0.3125000000000005
 40
0.3750000000000007
 40
0.3750000000000007
 40
0.4062500000000007
 40
0.4062500000000007
 40
0.4375000000000007
 40
0.4375000000000007
 40
0.4687500000000007
 40
0.4687500000000007
 40
0.5000000000000008
 40
0.5000000000000008
 40
0.5312500000000008
 40
0.5312500000000008
 40
0.5625000000000009
 40
0.5625000000000009
 40
0.6250000000000008
 40
0.6250000000000008
 40
0.6875000000000008
 40
0.6875000000000008
 40
0.7500000000000007
 40
0.7500000000000007
 40
0.8750000000000004
 40
0.8750000000000004
 40
1.0
 40
1.0
 40
1.0
 40
1.0
 10
206.9936551011479
 20
112.7170431415035
 30
0.0
 10
207.0484864741163
 20
112.6444385296472
 30
0.0
 10
207.0930296546909
 20
112.5040782392444
 30
0.0
 10
207.1413039449428
 20
112.2340965605471
 30
0.0
 10
207.1540614494036
 20
112.1331896242039
 30
0.0
 10
207.1698380190906
 20
111.9148990930688
 30
0.0
 10
207.1729616043741
 20
111.7972705850346
 30
0.0
 10
207.1654988682918
 20
111.5446499705929
 30
0.0
 10
207.1550336832908
 20
111.4097329315075
 30
0.0
 10
207.1125458245134
 20
111.1185189119733
 30
0.0
 10
207.0803892446492
 20
110.9608523304636
 30
0.0
 10
207.0045312514638
 20
110.7075948296797
 30
0.0
 10
206.9746051769294
 20
110.6202818980014
 30
0.0
 10
206.9012035185686
 20
110.437781131985
 30
0.0
 10
206.8574297040815
 20
110.3420630063637
 30
0.0
 10
206.7522473491654
 20
110.1461094052841
 30
0.0
 10
206.6895244440985
 20
110.0437019979006
 30
0.0
 10
206.5430764531834
 20
109.841127983163
 30
0.0
 10
206.4570513342667
 20
109.7385552687898
 30
0.0
 10
206.2727750449434
 20
109.552278782169
 30
0.0
 10
206.1721936907227
 20
109.4661609558887
 30
0.0
 10
205.9736665196353
 20
109.320232688626
 30
0.0
 10
205.8741923994499
 20
109.2587591309117
 30
0.0
 10
205.5906466976089
 20
109.1062175142086
 30
0.0
 10
205.4143454679312
 20
109.0414766125847
 30
0.0
 10
205.0927628288914
 20
108.9511633027487
 30
0.0
 10
204.9437247778591
 20
108.9250120724611
 30
0.0
 10
204.6668913868135
 20
108.8948572738779
 30
0.0
 10
204.539690724479
 20
108.8910400684832
 30
0.0
 10
204.1848265488571
 20
108.9005725328796
 30
0.0
 10
203.9823824958184
 20
108.9345619836726
 30
0.0
 10
203.6553258228301
 20
109.0307672416105
 30
0.0
 10
203.532253656565
 20
109.0919674723147
 30
0.0
 10
203.4774892198809
 20
109.1644834509183
 30
0.0
  0
ELLIPSE
  5
148
330
1F
100
AcDbEntity
  8
0
  6
HIDDEN
 62
     7
370
     0
100
AcDbEllipse
 10
210.0996132341
 20
105.8937681396
 30
0.0
 11
2.137853599931645
 21
1.378829910960406
 31
0.0
210
0.0
220
0.0
230
1.0
 40
0.2825155173
 41
5.220855580025126
 42
6.304126668314562
  0
SPLINE
  5
149
330
1F
100
AcDbEntity
  8
0
  6
HIDDEN
 62
     7
370
     0
100
AcDbSpline
210
0.0
220
0.0
230
1.0
 70
     8
 71
     3
 72
    14
 73
    10
 74
     0
 42
0.00000001
 43
0.00000001
 12
1.0
 22
0.0
 32
0.0
 13
1.0
 23
0.0
 33
0.0
 40
0.0
 40
0.0
 40
0.0
 40
0.0
 40
0.25
 40
0.25
 40
0.5
 40
0.5
 40
0.75
 40
0.75
 40
1.0
 40
1.0
 40
1.0
 40
1.0
 10
211.4806633072884
 20
106.0374665481462
 30
0.0
 10
211.2730477751361
 20
106.0031716834227
 30
0.0
 10
211.0766969909726
 20
105.936842790939
 30
0.0
 10
210.705043804271
 20
105.7430042224169
 30
0.0
 10
210.5370268468739
 20
105.6187675253651
 30
0.0
 10
210.2428217289358
 20
105.3219746248433
 30
0.0
 10
210.1197158367048
 20
105.1519993496277
 30
0.0
 10
209.930916240102
 20
104.781507223196
 30
0.0
 10
209.8654101456866
 20
104.580936742144
 30
0.0
 10
209.8335474470517
 20
104.3733023396327
 30
0.0
  0
LINE
  5
14A
330
1F
100
AcDbEntity
  8
0
  6
HIDDEN
 62
     7
370
     0
100
AcDbLine
 10
209.8335474471
 20
104.3733023396
 30
0.0
 11
209.8501124204
 21
104.3513679361
 31
0.0
  0
LINE
  5
14B
330
1F
100
AcDbEntity
  8
0
  6
HIDDEN
 62
     7
370
     0
100
AcDbLine
 10
205.8039540021
 20
98.5383851265
 30
0.0
 11
204.8402015708
 21
99.8145317451
 31
0.0
  0
LINE
  5
14C
330
1F
100
AcDbEntity
  8
0
  6
HIDDEN
 62
     7
370
     0
100
AcDbLine
 10
219.5512730602
 20
107.7855018648
 30
0.0
 11
220.5150254915
 21
106.5093552463
 31
0.0
  0
LINE
  5
14D
330
1F
100
AcDbEntity
  8
0
  6
HIDDEN
 62
     7
370
     0
100
AcDbLine
 10
206.600492228
 20
113.2376472457
 30
0.0
 11
206.9936551011
 21
112.7170431415
 31
0.0
  0
ELLIPSE
  5
14E
330
1F
100
AcDbEntity
  8
0
  6
HIDDEN
 62
     7
370
     0
100
AcDbEllipse
 10
202.7348966222
 20
113.4378436325
 30
0.0
 11
3.167078026784111
 21
2.762841112032646
 31
0.0
210
0.0
220
0.0
230
1.0
 40
0.8543839535
 41
4.160460674162463
 42
5.435584515400866
  0
LINE
  5
14F
330
1F
100
AcDbEntity
  8
0
  6
HIDDEN
 62
     7
370
     0
100
AcDbLine
 10
203.4774892199
 20
109.1644834509
 30
0.0
 11
203.0843263467
 21
109.6850875551
 31
0.0
  0
ELLIPSE
  5
150
330
1F
100
AcDbEntity
  8
0
  6
HIDDEN
 62
     7
370
     0
100
AcDbEllipse
 10
201.4848666533
 20
115.0930628216
 30
0.0
 11
2.570105550204545
 21
-3.403188827857463
 31
0.0
210
0.0
220
0.0
230
1.0
 40
0.9848432766
 41
0.0
 42
6.283185307179586
  0
CIRCLE
  5
151
330
1F
100
AcDbEntity
  8
0
  6
HIDDEN
 62
     7
370
     0
100
AcDbCircle
 10
203.5074175177
 20
112.3412941728
 30
0.0
 40
4.168566735152875
  0
LINE
  5
152
330
1F
100
AcDbEntity
  8
0
  6
HIDDEN
 62
     7
370
     0
100
AcDbLine
 10
211.6327828334
 20
108.074209724
 30
0.0
 11
212.2288411641
 21
107.2849428973
 31
0.0
  0
LINE
  5
153
330
1F
100
AcDbEntity
  8
0
  6
HIDDEN
 62
     7
370
     0
100
AcDbLine
 10
203.0843263467
 20
109.6850875551
 30
0.0
 11
205.8953094959
 21
107.048879728
 31
0.0
  0
LINE
  5
154
330
1F
100
AcDbEntity
  8
0
  6
HIDDEN
 62
     7
370
     0
100
AcDbLine
 10
210.7728912615
 20
101.9155924311
 30
0.0
 11
210.5207636227
 21
102.2494456316
 31
0.0
  0
LINE
  5
155
330
1F
100
AcDbEntity
  8
0
  6
HIDDEN
 62
     7
370
     0
100
AcDbLine
 10
208.1166169521
 20
104.5216500334
 30
0.0
 11
210.7728912615
 21
101.9155924311
 31
0.0
  0
LINE
  5
156
330
1F
100
AcDbEntity
  8
0
  6
HIDDEN
 62
     7
370
     0
100
AcDbLine
 10
208.7126752828
 20
103.7323832067
 30
0.0
 11
208.1166169521
 21
104.5216500334
 31
0.0
  0
LINE
  5
157
330
1F
100
AcDbEntity
  8
0
  6
HIDDEN
 62
     7
370
     0
100
AcDbLine
 10
149.5015586606
 20
134.5506259065
 30
0.0
 11
149.5015586606
 21
130.7107064404
 31
0.0
  0
LINE
  5
158
330
1F
100
AcDbEntity
  8
0
  6
HIDDEN
 62
     7
370
     0
100
AcDbLine
 10
148.0015586606
 20
133.6846005027
 30
0.0
 11
148.0015586606
 21
130.2776937385
 31
0.0
  0
SPLINE
  5
159
330
1F
100
AcDbEntity
  8
0
  6
HIDDEN
 62
     7
370
     0
100
AcDbSpline
210
0.0
220
0.0
230
1.0
 70
     8
 71
     3
 72
     8
 73
     4
 74
     0
 42
0.00000001
 43
0.00000001
 12
1.0
 22
0.0
 32
0.0
 13
1.0
 23
0.0
 33
0.0
 40
0.0
 40
0.0
 40
0.0
 40
0.0
 40
1.0
 40
1.0
 40
1.0
 40
1.0
 10
170.5065186826087
 20
107.3140109894745
 30
0.0
 10
170.5572458258154
 20
107.2682566881493
 30
0.0
 10
170.6151331553763
 20
107.2397525422858
 30
0.0
 10
170.6802383169915
 20
107.228031512627
 30
0.0
  0
LINE
  5
15A
330
1F
100
AcDbEntity
  8
0
  6
HIDDEN
 62
     7
370
     0
100
AcDbLine
 10
170.3015586606
 20
135.0731943052
 30
0.0
 11
170.3015586606
 21
134.9733319089
 31
0.0
  0
SPLINE
  5
15B
330
1F
100
AcDbEntity
  8
0
  6
HIDDEN
 62
     7
370
     0
100
AcDbSpline
210
0.0
220
0.0
230
1.0
 70
     8
 71
     3
 72
    24
 73
    20
 74
     0
 42
0.00000001
 43
0.00000001
 12
1.0
 22
0.0
 32
0.0
 13
1.0
 23
0.0
 33
0.0
 40
0.0
 40
0.0
 40
0.0
 40
0.0
 40
0.2500000000000077
 40
0.2500000000000077
 40
0.3750000000000129
 40
0.3750000000000129
 40
0.4375000000000145
 40
0.4375000000000145
 40
0.5000000000000162
 40
0.5000000000000162
 40
0.531250000000017
 40
0.531250000000017
 40
0.5625000000000177
 40
0.5625000000000177
 40
0.6250000000000148
 40
0.6250000000000148
 40
0.7500000000000092
 40
0.7500000000000092
 40
1.0
 40
1.0
 40
1.0
 40
1.0
 10
170.5065186826115
 20
134.7921800517921
 30
0.0
 10
170.4907520943131
 20
134.7779590808038
 30
0.0
 10
170.4741405613585
 20
134.763728790469
 30
0.0
 10
170.4456142134005
 20
134.7449317352475
 30
0.0
 10
170.4355287796105
 20
134.7390433149063
 30
0.0
 10
170.4180460090756
 20
134.7325059201039
 30
0.0
 10
170.41183835263
 20
134.7306947061028
 30
0.0
 10
170.3975668523848
 20
134.7290889035962
 30
0.0
 10
170.3899967818818
 20
134.7285361262102
 30
0.0
 10
170.3726004524464
 20
134.735734870923
 30
0.0
 10
170.3641411794863
 20
134.7408266196708
 30
0.0
 10
170.3480802149388
 20
134.7586415521499
 30
0.0
 10
170.3432469790925
 20
134.7671639670123
 30
0.0
 10
170.3318210593573
 20
134.789060403661
 30
0.0
 10
170.3277997034748
 20
134.8008009264669
 30
0.0
 10
170.3170392084437
 20
134.8348511904202
 30
0.0
 10
170.3131648993828
 20
134.8544261794489
 30
0.0
 10
170.3039920272557
 20
134.9102744881301
 30
0.0
 10
170.301959656541
 20
134.9430522491589
 30
0.0
 10
170.3015586605511
 20
134.9733319089469
 30
0.0
  0
LINE
  5
15C
330
1F
100
AcDbEntity
  8
0
  6
HIDDEN
 62
     7
370
     0
100
AcDbLine
 10
149.5015586606
 20
111.3954846009
 30
0.0
 11
149.5015586606
 21
107.5555651348
 31
0.0
  0
LINE
  5
15D
330
1F
100
AcDbEntity
  8
0
  6
HIDDEN
 62
     7
370
     0
100
AcDbLine
 10
148.0015586606
 20
111.8284973028
 30
0.0
 11
148.0015586606
 21
108.4215905386
 31
0.0
  0
SPLINE
  5
15E
330
1F
100
AcDbEntity
  8
0
  6
HIDDEN
 62
     7
370
     0
100
AcDbSpline
210
0.0
220
0.0
230
1.0
 70
     8
 71
     3
 72
     8
 73
     4
 74
     0
 42
0.00000001
 43
0.00000001
 12
1.0
 22
0.0
 32
0.0
 13
1.0
 23
0.0
 33
0.0
 40
0.0
 40
0.0
 40
0.0
 40
0.0
 40
1.0
 40
1.0
 40
1.0
 40
1.0
 10
170.6802383169915
 20
134.8781595286373
 30
0.0
 10
170.6151331553774
 20
134.8664384989787
 30
0.0
 10
170.5572458258174
 20
134.8379343531159
 30
0.0
 10
170.5065186826114
 20
134.7921800517921
 30
0.0
  0
LINE
  5
15F
330
1F
100
AcDbEntity
  8
0
  6
HIDDEN
 62
     7
370
     0
100
AcDbLine
 10
170.3015586606
 20
107.1328591323
 30
0.0
 11
170.3015586606
 21
107.0329967361
 31
0.0
  0
SPLINE
  5
160
330
1F
100
AcDbEntity
  8
0
  6
HIDDEN
 62
     7
370
     0
100
AcDbSpline
210
0.0
220
0.0
230
1.0
 70
     8
 71
     3
 72
    24
 73
    20
 74
     0
 42
0.00000001
 43
0.00000001
 12
1.0
 22
0.0
 32
0.0
 13
1.0
 23
0.0
 33
0.0
 40
0.0
 40
0.0
 40
0.0
 40
0.0
 40
0.2499999999999996
 40
0.2499999999999996
 40
0.3749999999999996
 40
0.3749999999999996
 40
0.4374999999999997
 40
0.4374999999999997
 40
0.4687499999999997
 40
0.4687499999999997
 40
0.4999999999999997
 40
0.4999999999999997
 40
0.5625000000000006
 40
0.5625000000000006
 40
0.6250000000000014
 40
0.6250000000000014
 40
0.7500000000000009
 40
0.7500000000000009
 40
1.0
 40
1.0
 40
1.0
 40
1.0
 10
170.3015586605511
 20
107.1328591323247
 30
0.0
 10
170.3019615711868
 20
107.1632833691627
 30
0.0
 10
170.3040055505274
 20
107.1961414697168
 30
0.0
 10
170.3132427933535
 20
107.2521668368704
 30
0.0
 10
170.3171298563341
 20
107.2717778900558
 30
0.0
 10
170.3280337477406
 20
107.3060521734853
 30
0.0
 10
170.3321757934911
 20
107.3181145989575
 30
0.0
 10
170.3440708672438
 20
107.3404337636569
 30
0.0
 10
170.3493179315525
 20
107.3494002760172
 30
0.0
 10
170.3661849979316
 20
107.3670498405436
 30
0.0
 10
170.3740074054568
 20
107.3711941246834
 30
0.0
 10
170.3909562060784
 20
107.3776816658575
 30
0.0
 10
170.3984125572964
 20
107.3770847844859
 30
0.0
 10
170.4124724604889
 20
107.3753385205138
 30
0.0
 10
170.4186048456249
 20
107.3735078326154
 30
0.0
 10
170.435899608148
 20
107.3669414230425
 30
0.0
 10
170.445916926557
 20
107.3610762078838
 30
0.0
 10
170.4742882607999
 20
107.3423315238535
 30
0.0
 10
170.4908236984443
 20
107.3281673757668
 30
0.0
 10
170.5065186826088
 20
107.3140109894745
 30
0.0
  0
LINE
  5
161
330
1F
100
AcDbEntity
  8
0
  6
HIDDEN
 62
     7
370
     0
100
AcDbLine
 10
170.3015586606
 20
132.0271335129
 30
0.0
 11
170.3015586606
 21
130.9719906397
 31
0.0
  0
SPLINE
  5
162
330
1F
100
AcDbEntity
  8
0
  6
HIDDEN
 62
     7
370
     0
100
AcDbSpline
210
0.0
220
0.0
230
1.0
 70
     8
 71
     3
 72
    16
 73
    12
 74
     0
 42
0.00000001
 43
0.00000001
 12
1.0
 22
0.0
 32
0.0
 13
1.0
 23
0.0
 33
0.0
 40
0.0
 40
0.0
 40
0.0
 40
0.0
 40
0.2500000000000002
 40
0.2500000000000002
 40
0.3750000000000001
 40
0.3750000000000001
 40
0.5000000000000001
 40
0.5000000000000001
 40
0.75
 40
0.75
 40
1.0
 40
1.0
 40
1.0
 40
1.0
 10
170.3015586605509
 20
134.973331908947
 30
0.0
 10
170.2210213286516
 20
134.8932632227946
 30
0.0
 10
170.1609839846243
 20
134.7693987313043
 30
0.0
 10
170.1002462774707
 20
134.5187179073723
 30
0.0
 10
170.0849239023578
 20
134.4242793030628
 30
0.0
 10
170.0643410930536
 20
134.2129682354441
 30
0.0
 10
170.0591414960279
 20
134.0956787806905
 30
0.0
 10
170.0590878428478
 20
133.7176431089352
 30
0.0
 10
170.0792853863255
 20
133.4288659551912
 30
0.0
 10
170.1599634746835
 20
132.7790260920523
 30
0.0
 10
170.2210096392909
 20
132.4161971581596
 30
0.0
 10
170.301558660549
 20
132.027133512888
 30
0.0
  0
LINE
  5
163
330
1F
100
AcDbEntity
  8
0
  6
HIDDEN
 62
     7
370
     0
100
AcDbLine
 10
170.3015586606
 20
111.1342004015
 30
0.0
 11
170.3015586606
 21
110.0790575284
 31
0.0
  0
SPLINE
  5
164
330
1F
100
AcDbEntity
  8
0
  6
HIDDEN
 62
     7
370
     0
100
AcDbSpline
210
0.0
220
0.0
230
1.0
 70
     8
 71
     3
 72
    16
 73
    12
 74
     0
 42
0.00000001
 43
0.00000001
 12
1.0
 22
0.0
 32
0.0
 13
1.0
 23
0.0
 33
0.0
 40
0.0
 40
0.0
 40
0.0
 40
0.0
 40
0.2499999999999993
 40
0.2499999999999993
 40
0.3749999999999992
 40
0.3749999999999992
 40
0.4999999999999992
 40
0.4999999999999992
 40
0.7499999999999996
 40
0.7499999999999996
 40
1.0
 40
1.0
 40
1.0
 40
1.0
 10
170.3015586605509
 20
110.0790575283857
 30
0.0
 10
170.2210213286518
 20
109.6900503444417
 30
0.0
 10
170.1609839846245
 20
109.3335499028173
 30
0.0
 10
170.1002462774709
 20
108.84704751763
 30
0.0
 10
170.084923902358
 20
108.6929685767766
 30
0.0
 10
170.0643410930537
 20
108.4014990182839
 30
0.0
 10
170.059141496028
 20
108.2639291343851
 30
0.0
 10
170.0590878428477
 20
107.8856842991958
 30
0.0
 10
170.0792853863252
 20
107.6758032306437
 30
0.0
 10
170.1599634746825
 20
107.3392239317319
 30
0.0
 10
170.2210096392896
 20
107.2129394398134
 30
0.0
 10
170.3015586605472
 20
107.1328591323209
 30
0.0
  0
LWPOLYLINE
  5
165
330
1F
100
AcDbEntity
  8
0
  6
HIDDEN
 62
     7
370
     0
100
AcDbPolyline
 90
       29
 70
   128
 43
0.0
 10
186.1015586606
 20
123.7858204495
 10
186.5688526219
 20
123.8352965669
 10
187.0127145127
 20
123.9812439801
 10
187.4108872445
 20
124.2163442762
 10
187.7434047737
 20
124.5288085447
 10
187.9935932831
 20
124.9029685225
 10
188.1489072761
 20
125.320062266
 10
188.2015586606
 20
125.7591749532
 10
188.1489072761
 20
126.1982876404
 10
187.9935932831
 20
126.6153813838
 10
187.7434047737
 20
126.9895413617
 10
187.4108872445
 20
127.3020056302
 10
187.0127145127
 20
127.5371059263
 10
186.5688526219
 20
127.6830533394
 10
186.1015586606
 20
127.7325294568
 10
185.6342646992
 20
127.6830533394
 10
185.1904028084
 20
127.5371059263
 10
184.7922300766
 20
127.3020056302
 10
184.4597125474
 20
126.9895413617
 10
184.209524038
 20
126.6153813838
 10
184.054210045
 20
126.1982876404
 10
184.0015586606
 20
125.7591749532
 10
184.054210045
 20
125.320062266
 10
184.209524038
 20
124.9029685225
 10
184.4597125474
 20
124.5288085447
 10
184.7922300766
 20
124.2163442762
 10
185.1904028084
 20
123.9812439801
 10
185.6342646992
 20
123.8352965669
 10
186.1015586606
 20
123.7858204495
  0
SPLINE
  5
166
330
1F
100
AcDbEntity
  8
0
  6
HIDDEN
 62
     7
370
     0
100
AcDbSpline
210
0.0
220
0.0
230
1.0
 70
     8
 71
     3
 72
     8
 73
     4
 74
     0
 42
0.00000001
 43
0.00000001
 12
1.0
 22
0.0
 32
0.0
 13
1.0
 23
0.0
 33
0.0
 40
0.0
 40
0.0
 40
0.0
 40
0.0
 40
1.0
 40
1.0
 40
1.0
 40
1.0
 10
195.2001574988612
 20
101.191527170988
 30
0.0
 10
195.3398347168276
 20
101.6686441332935
 30
0.0
 10
195.7058381755969
 20
102.143774848802
 30
0.0
 10
196.2051510263513
 20
102.6177356365464
 30
0.0
  0
LINE
  5
167
330
1F
100
AcDbEntity
  8
0
  6
HIDDEN
 62
     7
370
     0
100
AcDbLine
 10
205.0172455069
 20
99.7361509481
 30
0.0
 11
212.4985639887
 21
96.3719108224
 31
0.0
  0
ARC
  5
168
330
1F
100
AcDbEntity
  8
0
  6
HIDDEN
 62
     7
370
     0
100
AcDbCircle
 10
214.09634849
 20
102.1425342942
 30
0.0
 40
3.331196565623396
100
AcDbArc
 50
183.9063711296
 51
86.6836060108
  0
LINE
  5
169
330
1F
100
AcDbEntity
  8
0
  6
HIDDEN
 62
     7
370
     0
100
AcDbLine
 10
220.0648885538
 20
95.8461414945
 30
0.0
 11
220.5566973728
 21
96.3574502001
 31
0.0
  0
ELLIPSE
  5
16A
330
1F
100
AcDbEntity
  8
0
  6
HIDDEN
 62
     7
370
     0
100
AcDbEllipse
 10
192.800218631
 20
115.8771121407
 30
0.0
 11
150.3435108670281
 21
-13.45908089674936
 31
0.0
210
0.0
220
0.0
230
1.0
 40
0.1182598878
 41
4.854368114208262
 42
4.905322898083361
  0
LINE
  5
16B
330
1F
100
AcDbEntity
  8
0
  6
HIDDEN
 62
     7
370
     0
100
AcDbLine
 10
214.2890571428
 20
105.4681521217
 30
0.0
 11
211.6327828334
 21
108.074209724
 31
0.0
  0
LINE
  5
16C
330
1F
100
AcDbEntity
  8
0
  6
HIDDEN
 62
     7
370
     0
100
AcDbLine
 10
219.5512730602
 20
107.7855018648
 30
0.0
 11
218.6606171125
 21
107.3589303728
 31
0.0
  0
LINE
  5
16D
330
1F
100
AcDbEntity
  8
0
  6
HIDDEN
 62
     7
370
     0
100
AcDbLine
 10
208.1166169521
 20
104.5216500334
 30
0.0
 11
204.8402015708
 21
99.8145317451
 31
0.0
  0
LINE
  5
16E
330
1F
100
AcDbEntity
  8
0
  6
HIDDEN
 62
     7
370
     0
100
AcDbLine
 10
213.1675730105
 20
109.166735151
 30
0.0
 11
211.6327828334
 21
108.074209724
 31
0.0
  0
LINE
  5
16F
330
1F
100
AcDbEntity
  8
0
  6
HIDDEN
 62
     7
370
     0
100
AcDbLine
 10
212.6745835132
 20
110.2122212458
 30
0.0
 11
213.1675730105
 21
109.166735151
 31
0.0
  0
ARC
  5
170
330
1F
100
AcDbEntity
  8
0
  6
HIDDEN
 62
     7
370
     0
100
AcDbCircle
 10
198.1822167403
 20
84.5365562759
 30
0.0
 40
16.66569219795634
100
AcDbArc
 50
65.7872683461
 51
66.4529222145
  0
LINE
  5
171
330
1F
100
AcDbEntity
  8
0
  6
HIDDEN
 62
     7
370
     0
100
AcDbLine
 10
220.5566839966
 20
96.3574629258
 30
0.0
 11
219.7159660161
 21
105.9135135609
 31
0.0
  0
LINE
  5
172
330
1F
100
AcDbEntity
  8
0
  6
HIDDEN
 62
     7
370
     0
100
AcDbLine
 10
219.6979726927
 20
106.1180353069
 30
0.0
 11
219.5512730602
 21
107.7855018648
 31
0.0
  0
SPLINE
  5
173
330
1F
100
AcDbEntity
  8
0
  6
HIDDEN
 62
     7
370
     0
100
AcDbSpline
210
0.0
220
0.0
230
1.0
 70
     8
 71
     3
 72
    12
 73
     8
 74
     0
 42
0.00000001
 43
0.00000001
 12
1.0
 22
0.0
 32
0.0
 13
1.0
 23
0.0
 33
0.0
 40
0.0
 40
0.0
 40
0.0
 40
0.0
 40
0.2499999999999999
 40
0.2499999999999999
 40
0.4999999999999998
 40
0.4999999999999998
 40
1.0
 40
1.0
 40
1.0
 40
1.0
 10
210.5207636226788
 20
102.2494456316026
 30
0.0
 10
210.4920882960741
 20
102.2874158819405
 30
0.0
 10
210.4617358836056
 20
102.3495418856926
 30
0.0
 10
210.4022388364404
 20
102.5004089688523
 30
0.0
 10
210.3729134238315
 20
102.5897203970081
 30
0.0
 10
210.2912227218902
 20
102.8874898761353
 30
0.0
 10
210.2444289716973
 20
103.1255115086504
 30
0.0
 10
210.2225765493747
 20
103.3957830909015
 30
0.0
  0
ARC
  5
174
330
1F
100
AcDbEntity
  8
0
  6
HIDDEN
 62
     7
370
     0
100
AcDbCircle
 10
213.5149075906
 20
102.9108434705
 30
0.0
 40
3.327853680733577
100
AcDbArc
 50
171.6209417695
 51
98.969035371
  0
SPLINE
  5
175
330
1F
100
AcDbEntity
  8
0
  6
HIDDEN
 62
     7
370
     0
100
AcDbSpline
210
0.0
220
0.0
230
1.0
 70
     8
 71
     3
 72
    12
 73
     8
 74
     0
 42
0.00000001
 43
0.00000001
 12
1.0
 22
0.0
 32
0.0
 13
1.0
 23
0.0
 33
0.0
 40
0.0
 40
0.0
 40
0.0
 40
0.0
 40
0.5000000000000007
 40
0.5000000000000007
 40
0.7500000000000003
 40
0.7500000000000003
 40
1.0
 40
1.0
 40
1.0
 40
1.0
 10
212.9960930015761
 20
106.1980066156107
 30
0.0
 10
213.2498460702833
 20
106.1616096372103
 30
0.0
 10
213.4693238711725
 20
106.0998466794445
 30
0.0
 10
213.7410997688185
 20
105.9940142999388
 30
0.0
 10
213.8217920759819
 20
105.9563694477143
 30
0.0
 10
213.9552027705145
 20
105.8794443134576
 30
0.0
 10
214.0081969502194
 20
105.8400513494529
 30
0.0
 10
214.0369295039457
 20
105.802005322188
 30
0.0
  0
LINE
  5
176
330
1F
100
AcDbEntity
  8
0
  6
HIDDEN
 62
     7
370
     0
100
AcDbLine
 10
214.0369295039
 20
105.8020053222
 30
0.0
 11
214.2890571428
 21
105.4681521217
 31
0.0
  0
ELLIPSE
  5
177
330
1F
100
AcDbEntity
  8
0
  6
HIDDEN
 62
     7
370
     0
100
AcDbEllipse
 10
162.8475420224
 20
119.0252653099
 30
0.0
 11
50.47498485374519
 21
-23.34912968655859
 31
0.0
210
0.0
220
0.0
230
1.0
 40
0.026675174
 41
0.1936899417784849
 42
0.6244535605181333
  0
SPLINE
  5
178
330
1F
100
AcDbEntity
  8
0
  6
HIDDEN
 62
     7
370
     0
100
AcDbSpline
210
0.0
220
0.0
230
1.0
 70
     8
 71
     3
 72
    12
 73
     8
 74
     0
 42
0.00000001
 43
0.00000001
 12
1.0
 22
0.0
 32
0.0
 13
1.0
 23
0.0
 33
0.0
 40
0.0
 40
0.0
 40
0.0
 40
0.0
 40
0.5
 40
0.5
 40
0.75
 40
0.75
 40
1.0
 40
1.0
 40
1.0
 40
1.0
 10
195.934798922058
 20
109.5989872719148
 30
0.0
 10
196.0010079126208
 20
108.2791849559013
 30
0.0
 10
196.056316451448
 20
107.0353880262928
 30
0.0
 10
196.1241530093284
 20
105.2807408563336
 30
0.0
 10
196.1442510967652
 20
104.7133857824912
 30
0.0
 10
196.1790344830025
 20
103.6227189526289
 30
0.0
 10
196.1935154820391
 20
103.1060868201027
 30
0.0
 10
196.2051510263512
 20
102.6177356365464
 30
0.0
  0
SPLINE
  5
179
330
1F
100
AcDbEntity
  8
0
  6
HIDDEN
 62
     7
370
     0
100
AcDbSpline
210
0.0
220
0.0
230
1.0
 70
     8
 71
     3
 72
    16
 73
    12
 74
     0
 42
0.00000001
 43
0.00000001
 12
1.0
 22
0.0
 32
0.0
 13
1.0
 23
0.0
 33
0.0
 40
0.0
 40
0.0
 40
0.0
 40
0.0
 40
0.2500000000000004
 40
0.2500000000000004
 40
0.3749999999999999
 40
0.3749999999999999
 40
0.4999999999999994
 40
0.4999999999999994
 40
0.7499999999999997
 40
0.7499999999999997
 40
1.0
 40
1.0
 40
1.0
 40
1.0
 10
204.1611721101608
 20
100.869715061587
 30
0.0
 10
203.6217582242332
 20
101.1439029305416
 30
0.0
 10
203.0597101369754
 20
101.3940986398514
 30
0.0
 10
202.1819541216148
 20
101.7255775846253
 30
0.0
 10
201.8835671555787
 20
101.8287667939629
 30
0.0
 10
201.2747550383782
 20
102.0190938450005
 30
0.0
 10
200.9630265137332
 20
102.1065483392159
 30
0.0
 10
200.0179810337364
 20
102.3401041096849
 30
0.0
 10
199.3824522075974
 20
102.4559987763243
 30
0.0
 10
198.1001252647151
 20
102.6055277180202
 30
0.0
 10
197.4533386138745
 20
102.6392389113025
 30
0.0
 10
196.8003624262148
 20
102.6280254348907
 30
0.0
  0
ELLIPSE
  5
17A
330
1F
100
AcDbEntity
  8
0
  6
HIDDEN
 62
     7
370
     0
100
AcDbEllipse
 10
335.8352628163
 20
100.8435232055
 30
0.0
 11
173.8758250944552
 21
-0.3502521611525822
 31
0.0
210
0.0
220
0.0
230
1.0
 40
0.0144089656
 41
2.497490502116911
 42
2.503212877422676
  0
SPLINE
  5
17B
330
1F
100
AcDbEntity
  8
0
  6
HIDDEN
 62
     7
370
     0
100
AcDbSpline
210
0.0
220
0.0
230
1.0
 70
     8
 71
     3
 72
    45
 73
    41
 74
     0
 42
0.00000001
 43
0.00000001
 12
1.0
 22
0.0
 32
0.0
 13
1.0
 23
0.0
 33
0.0
 40
0.0
 40
0.0
 40
0.0
 40
0.0
 40
0.0261510198368833
 40
0.0516699828661301
 40
0.0765568877228198
 40
0.1008117331412535
 40
0.1244345179602804
 40
0.1474252411293551
 40
0.1697839017154488
 40
0.1915104989109762
 40
0.2126050320428829
 40
0.233067500583172
 40
0.252897904161087
 40
0.2720962425772976
 40
0.2906625158205107
 40
0.3085967240870078
 40
0.3258988678037404
 40
0.3425689476558162
 40
0.3586069646193948
 40
0.3740129200013301
 40
0.3887868154873003
 40
0.402928653200678
 40
0.4164384357751919
 40
0.4293161664453977
 40
0.4415618491605112
 40
0.4531754887292107
 40
0.4641570910060975
 40
0.4745066631351028
 40
0.4842242138720243
 40
0.493309754019249
 40
0.5017632970229569
 40
0.5629333305493935
 40
0.6226465671153866
 40
0.6809045975361019
 40
0.7377091371455501
 40
0.7930620386686088
 40
0.8469653067828505
 40
0.8994211146391823
 40
0.950431822660649
 40
1.0
 40
1.0
 40
1.0
 40
1.0
 10
217.9494608822202
 20
107.2851535109462
 30
0.0
 10
217.9669495369718
 20
107.1481392237734
 30
0.0
 10
218.0015041546119
 20
106.8774222148465
 30
0.0
 10
218.0530717103141
 20
106.4806026177937
 30
0.0
 10
218.1036394344264
 20
106.0968418915917
 30
0.0
 10
218.1532242144662
 20
105.7263521554902
 30
0.0
 10
218.2018092820887
 20
105.3689605552907
 30
0.0
 10
218.2493837206938
 20
105.0245666091163
 30
0.0
 10
218.2959325551672
 20
104.69302691359
 30
0.0
 10
218.3414395723339
 20
104.3741873882342
 30
0.0
 10
218.3858868535639
 20
104.0678774355936
 30
0.0
 10
218.4292551436923
 20
103.7739138081566
 30
0.0
 10
218.4715239953795
 20
103.4921018888802
 30
0.0
 10
218.5126719613528
 20
103.2222375424594
 30
0.0
 10
218.5526767645816
 20
102.9641087267963
 30
0.0
 10
218.5915154643224
 20
102.7174970723847
 30
0.0
 10
218.6291646134954
 20
102.4821793768839
 30
0.0
 10
218.6656004086649
 20
102.2579290291607
 30
0.0
 10
218.7007988323979
 20
102.0445173602924
 30
0.0
 10
218.7347357883654
 20
101.8417149235944
 30
0.0
 10
218.7673872288523
 20
101.6492927048239
 30
0.0
 10
218.7987292765869
 20
101.4670232641503
 30
0.0
 10
218.8287383351618
 20
101.2946818115613
 30
0.0
 10
218.857391209088
 20
101.1320472174439
 30
0.0
 10
218.8846651615564
 20
100.9789029603569
 30
0.0
 10
218.910538160507
 20
100.8350380133745
 30
0.0
 10
218.934988449839
 20
100.7002476728289
 30
0.0
 10
218.9579964139455
 20
100.5743343249868
 30
0.0
 10
218.9795385873836
 20
100.4571081746316
 30
0.0
 10
218.9996083322559
 20
100.3483878626098
 30
0.0
 10
219.0571431737875
 20
100.0368286299589
 30
0.0
 10
219.1510968258462
 20
99.54056997860266
 30
0.0
 10
219.2806648472077
 20
98.89353616681859
 30
0.0
 10
219.4061219328212
 20
98.30249451646796
 30
0.0
 10
219.5274024752111
 20
97.76615551387232
 30
0.0
 10
219.6443196894108
 20
97.28303098534266
 30
0.0
 10
219.7567119067517
 20
96.85107306253204
 30
0.0
 10
219.8642970556163
 20
96.46927325260224
 30
0.0
 10
219.9671166987131
 20
96.13205026282975
 30
0.0
 10
220.0326349219698
 20
95.94093693032261
 30
0.0
 10
220.064924193199
 20
95.84675076467119
 30
0.0
  0
SPLINE
  5
17C
330
1F
100
AcDbEntity
  8
0
  6
HIDDEN
 62
     7
370
     0
100
AcDbSpline
210
0.0
220
0.0
230
1.0
 70
     8
 71
     3
 72
    27
 73
    23
 74
     0
 42
0.00000001
 43
0.00000001
 12
1.0
 22
0.0
 32
0.0
 13
1.0
 23
0.0
 33
0.0
 40
0.0
 40
0.0
 40
0.0
 40
0.0
 40
0.0247643434381421
 40
0.0495071794063576
 40
0.0742435990725181
 40
0.0989887053437286
 40
0.1237575852370382
 40
0.1485652823951295
 40
0.1734267699960072
 40
0.1983569242974201
 40
0.2233704990435172
 40
0.2484821009435864
 40
0.373491561579161
 40
0.4982530480001853
 40
0.6232085807916916
 40
0.7489574228156044
 40
0.7910747129380293
 40
0.8329918580303046
 40
0.8747755250258261
 40
0.9164930207796926
 40
0.9582119724183734
 40
1.0
 40
1.0
 40
1.0
 40
1.0
 10
220.5566712983613
 20
96.35747974005564
 30
0.0
 10
220.5391685119375
 20
96.4068845652353
 30
0.0
 10
220.5041781400037
 20
96.50565130822687
 30
0.0
 10
220.4508624005007
 20
96.66648032181725
 30
0.0
 10
220.3969837863099
 20
96.83646963706428
 30
0.0
 10
220.34247977422
 20
97.01653559811314
 30
0.0
 10
220.287367184721
 20
97.20643246647133
 30
0.0
 10
220.2316416252399
 20
97.40622557909666
 30
0.0
 10
220.1753042180152
 20
97.61589785521437
 30
0.0
 10
220.1183552646679
 20
97.83545030690378
 30
0.0
 10
220.0607928129251
 20
98.0648940178781
 30
0.0
 10
219.9255925880081
 20
98.62107039499033
 30
0.0
 10
219.7093289425452
 20
99.59097694060804
 30
0.0
 10
219.4100461100869
 20
101.1173253245029
 30
0.0
 10
219.1100395677996
 20
102.8260526956711
 30
0.0
 10
218.8793402721807
 20
104.2805280628478
 30
0.0
 10
218.7172947258141
 20
105.3676602613306
 30
0.0
 10
218.6211842359401
 20
106.0328271716994
 30
0.0
 10
218.5266198354747
 20
106.7078850595567
 30
0.0
 10
218.4336424023613
 20
107.3930420388964
 30
0.0
 10
218.3420869908259
 20
108.0875954647383
 30
0.0
 10
218.2824956603724
 20
108.5579706874963
 30
0.0
 10
218.252675348539
 20
108.7933528431658
 30
0.0
  0
LINE
  5
17D
330
1F
100
AcDbEntity
  8
0
  6
HIDDEN
 62
     7
370
     0
100
AcDbLine
 10
148.0015586606
 20
130.2776937385
 30
0.0
 11
148.0015586606
 21
122.9033093343
 31
0.0
  0
LINE
  5
17E
330
1F
100
AcDbEntity
  8
0
  6
HIDDEN
 62
     7
370
     0
100
AcDbLine
 10
148.0015586606
 20
119.202881707
 30
0.0
 11
148.0015586606
 21
111.8284973028
 31
0.0
  0
SPLINE
  5
17F
330
1F
100
AcDbEntity
  8
0
  6
HIDDEN
 62
     7
370
     0
100
AcDbSpline
210
0.0
220
0.0
230
1.0
 70
     8
 71
     3
 72
    24
 73
    20
 74
     0
 42
0.00000001
 43
0.00000001
 12
1.0
 22
0.0
 32
0.0
 13
1.0
 23
0.0
 33
0.0
 40
0.0
 40
0.0
 40
0.0
 40
0.0
 40
0.2499999999999959
 40
0.2499999999999959
 40
0.3749999999999952
 40
0.3749999999999952
 40
0.437499999999993
 40
0.437499999999993
 40
0.4999999999999909
 40
0.4999999999999909
 40
0.5312499999999897
 40
0.5312499999999897
 40
0.5624999999999886
 40
0.5624999999999886
 40
0.6249999999999902
 40
0.6249999999999902
 40
0.7499999999999938
 40
0.7499999999999938
 40
1.0
 40
1.0
 40
1.0
 40
1.0
 10
170.5065186826115
 20
110.2605017938339
 30
0.0
 10
170.4907498052541
 20
110.1866431019042
 30
0.0
 10
170.474135823404
 20
110.1129317131684
 30
0.0
 10
170.4456041573989
 20
110.0013848895463
 30
0.0
 10
170.4355167425802
 20
109.9640133164178
 30
0.0
 10
170.4180291821259
 20
109.9071138187801
 30
0.0
 10
170.4118196203426
 20
109.8880107186348
 30
0.0
 10
170.39754206669
 20
109.8491372043992
 30
0.0
 10
170.3899705188945
 20
109.8292125449658
 30
0.0
 10
170.3725529352162
 20
109.7991403269384
 30
0.0
 10
170.364070438571
 20
109.7874589481353
 30
0.0
 10
170.3480321266993
 20
109.780197437387
 30
0.0
 10
170.3432115784959
 20
109.7837756843968
 30
0.0
 10
170.3318023539479
 20
109.7955365396285
 30
0.0
 10
170.3277818734905
 20
109.807202189679
 30
0.0
 10
170.3170280186702
 20
109.8437375197926
 30
0.0
 10
170.313155337388
 20
109.8711332531162
 30
0.0
 10
170.3039871875504
 20
109.9558592448721
 30
0.0
 10
170.3019586821813
 20
110.0166913670442
 30
0.0
 10
170.3015586605511
 20
110.0790575283858
 30
0.0
  0
SPLINE
  5
180
330
1F
100
AcDbEntity
  8
0
  6
HIDDEN
 62
     7
370
     0
100
AcDbSpline
210
0.0
220
0.0
230
1.0
 70
     8
 71
     3
 72
    24
 73
    20
 74
     0
 42
0.00000001
 43
0.00000001
 12
1.0
 22
0.0
 32
0.0
 13
1.0
 23
0.0
 33
0.0
 40
0.0
 40
0.0
 40
0.0
 40
0.0
 40
0.2500000000000117
 40
0.2500000000000117
 40
0.3750000000000175
 40
0.3750000000000175
 40
0.4375000000000175
 40
0.4375000000000175
 40
0.4687500000000161
 40
0.4687500000000161
 40
0.5000000000000147
 40
0.5000000000000147
 40
0.5625000000000129
 40
0.5625000000000129
 40
0.6250000000000112
 40
0.6250000000000112
 40
0.7500000000000077
 40
0.7500000000000077
 40
1.0
 40
1.0
 40
1.0
 40
1.0
 10
170.3015586605475
 20
132.0271335128893
 30
0.0
 10
170.3019633301233
 20
132.0902243213819
 30
0.0
 10
170.3040067769377
 20
132.1514100438844
 30
0.0
 10
170.3134063421919
 20
132.236909776386
 30
0.0
 10
170.3173572357206
 20
132.2644901598271
 30
0.0
 10
170.3285095440175
 20
132.3009442419387
 30
0.0
 10
170.3327310849441
 20
132.3128026636331
 30
0.0
 10
170.3449388065075
 20
132.3234227150085
 30
0.0
 10
170.3507295767596
 20
132.326256082231
 30
0.0
 10
170.3676510898694
 20
132.3149414952332
 30
0.0
 10
170.3750572058193
 20
132.3031606094794
 30
0.0
 10
170.3915144590626
 20
132.2731197682496
 30
0.0
 10
170.3989709769736
 20
132.2534068146365
 30
0.0
 10
170.4128789062483
 20
132.2150047485764
 30
0.0
 10
170.4189708521433
 20
132.1961230986649
 30
0.0
 10
170.4361651444944
 20
132.1398221881334
 30
0.0
 10
170.4461500946979
 20
132.1027461103237
 30
0.0
 10
170.4743961397969
 20
131.9920874394337
 30
0.0
 10
170.490875676758
 20
131.9189583790251
 30
0.0
 10
170.5065186826177
 20
131.8456892474012
 30
0.0
  0
ELLIPSE
  5
181
330
1F
100
AcDbEntity
  8
0
  6
HIDDEN
 62
     7
370
     0
100
AcDbEllipse
 10
210.2562417067
 20
106.1244077784
 30
0.0
 11
2.219475038682589
 21
-2.14120175867572
 31
0.0
210
0.0
220
0.0
230
1.0
 40
0.8103652656
 41
5.363975033923976
 42
7.181650891589033
  0
LWPOLYLINE
  5
182
330
1F
100
AcDbEntity
  8
0
  6
HIDDEN
 62
     7
370
     0
100
AcDbPolyline
 90
       16
 70
   128
 43
0.0
 10
205.8953094959
 20
107.048879728
 10
206.1929522195
 20
106.8445888133
 10
206.5544231885
 20
106.7268583446
 10
206.9639243872
 20
106.7008337084
 10
207.403558648
 20
106.7676523061
 10
207.8541118442
 20
106.9243938444
 10
208.2958926391
 20
107.164207966
 10
208.7095930922
 20
107.4766136429
 10
209.0771325083
 20
107.847957248
 10
209.3824476515
 20
108.2620092839
 10
209.6121947848
 20
108.7006736897
 10
209.7563328562
 20
109.144778726
 10
209.8085623402
 20
109.5749148716
 10
209.7666005577
 20
109.972283113
 10
209.63228144
 20
110.3195165511
 10
209.4114753772
 20
110.6014394186
  0
SPLINE
  5
183
330
1F
100
AcDbEntity
  8
0
  6
HIDDEN
 62
     7
370
     0
100
AcDbSpline
210
0.0
220
0.0
230
1.0
 70
     8
 71
     3
 72
     8
 73
     4
 74
     0
 42
0.00000001
 43
0.00000001
 12
1.0
 22
0.0
 32
0.0
 13
1.0
 23
0.0
 33
0.0
 40
0.0
 40
0.0
 40
0.0
 40
0.0
 40
1.0
 40
1.0
 40
1.0
 40
1.0
 10
170.6802383169915
 20
110.9995762030254
 30
0.0
 10
170.6151331553774
 20
110.7445509678197
 30
0.0
 10
170.5572458258174
 20
110.4980989516784
 30
0.0
 10
170.5065186826114
 20
110.2605017938338
 30
0.0
  0
SPLINE
  5
184
330
1F
100
AcDbEntity
  8
0
  6
HIDDEN
 62
     7
370
     0
100
AcDbSpline
210
0.0
220
0.0
230
1.0
 70
     8
 71
     3
 72
     8
 73
     4
 74
     0
 42
0.00000001
 43
0.00000001
 12
1.0
 22
0.0
 32
0.0
 13
1.0
 23
0.0
 33
0.0
 40
0.0
 40
0.0
 40
0.0
 40
0.0
 40
1.0
 40
1.0
 40
1.0
 40
1.0
 10
170.5065186826176
 20
131.8456892474012
 30
0.0
 10
170.5572458258222
 20
131.6080920895656
 30
0.0
 10
170.6151331553801
 20
131.3616400734342
 30
0.0
 10
170.6802383169915
 20
131.1066148382389
 30
0.0
  0
LINE
  5
185
330
1F
100
AcDbEntity
  8
0
  6
HIDDEN
 62
     7
370
     0
100
AcDbLine
 10
149.5015586606
 20
118.4980672836
 30
0.0
 11
149.5015586606
 21
111.3954846009
 31
0.0
  0
LINE
  5
186
330
1F
100
AcDbEntity
  8
0
  6
HIDDEN
 62
     7
370
     0
100
AcDbLine
 10
149.5015586606
 20
130.7107064404
 30
0.0
 11
149.5015586606
 21
123.6081237577
 31
0.0
  0
LINE
  5
187
330
1F
100
AcDbEntity
  8
0
  6
HIDDEN
 62
     7
370
     0
100
AcDbLine
 10
170.3015586606
 20
130.9719906397
 30
0.0
 11
170.3015586606
 21
111.1342004015
 31
0.0
  0
LINE
  5
188
330
1F
100
AcDbEntity
  8
0
  6
HIDDEN
 62
     7
370
     0
100
AcDbLine
 10
171.8015586606
 20
129.5324626603
 30
0.0
 11
171.8015586606
 21
112.5737283809
 31
0.0
  0
SPLINE
  5
189
330
1F
100
AcDbEntity
  8
0
  6
HIDDEN
 62
     7
370
     0
100
AcDbSpline
210
0.0
220
0.0
230
1.0
 70
     8
 71
     3
 72
    22
 73
    18
 74
     0
 42
0.00000001
 43
0.00000001
 12
1.0
 22
0.0
 32
0.0
 13
1.0
 23
0.0
 33
0.0
 40
0.0
 40
0.0
 40
0.0
 40
0.0
 40
0.125
 40
0.125
 40
0.25
 40
0.25
 40
0.375
 40
0.375
 40
0.5
 40
0.5
 40
0.625
 40
0.625
 40
0.75
 40
0.75
 40
0.875
 40
0.875
 40
1.0
 40
1.0
 40
1.0
 40
1.0
 10
152.2015586605511
 20
118.4601508408042
 30
0.0
 10
152.3824950186273
 20
118.6517707001107
 30
0.0
 10
152.5615904674041
 20
118.8454125644979
 30
0.0
 10
152.9124304559162
 20
119.2400678178821
 30
0.0
 10
153.0846235638208
 20
119.4410793485497
 30
0.0
 10
153.4103550694401
 20
119.8572904637834
 30
0.0
 10
153.5664313046084
 20
120.0733063040702
 30
0.0
 10
153.8178105184975
 20
120.538629067235
 30
0.0
 10
153.9116756488163
 20
120.7941682602578
 30
0.0
 10
153.9079477319542
 20
121.3284988953584
 30
0.0
 10
153.8105750894668
 20
121.5839197613591
 30
0.0
 10
153.5587542804729
 20
122.0439484773068
 30
0.0
 10
153.4037850250003
 20
122.2577854782354
 30
0.0
 10
153.078972267275
 20
122.6718240609291
 30
0.0
 10
152.9080792031471
 20
122.8711165329649
 30
0.0
 10
152.5594449636195
 20
123.2630914253991
 30
0.0
 10
152.381437113091
 20
123.4555407113885
 30
0.0
 10
152.2015586605511
 20
123.6460402004601
 30
0.0
  0
LINE
  5
18A
330
1F
100
AcDbEntity
  8
0
  6
HIDDEN
 62
     7
370
     0
100
AcDbLine
 10
152.2015586606
 20
118.4601508408
 30
0.0
 11
152.2015586606
 21
123.6460402005
 31
0.0
  0
SPLINE
  5
18B
330
1F
100
AcDbEntity
  8
0
  6
HIDDEN
 62
     7
370
     0
100
AcDbSpline
210
0.0
220
0.0
230
1.0
 70
     8
 71
     3
 72
     8
 73
     4
 74
     0
 42
0.00000001
 43
0.00000001
 12
1.0
 22
0.0
 32
0.0
 13
1.0
 23
0.0
 33
0.0
 40
0.0000137051794235
 40
0.0000137051794235
 40
0.0000137051794235
 40
0.0000137051794235
 40
0.0027147144718019
 40
0.0027147144718019
 40
0.0027147144718019
 40
0.0027147144718019
 10
149.5015586605511
 20
118.4980672835704
 30
0.0
 10
150.4015547960459
 20
118.485095716372
 30
0.0
 10
151.3015549746412
 20
118.4724608590599
 30
0.0
 10
152.2015586605511
 20
118.4601508408042
 30
0.0
  0
SPLINE
  5
18C
330
1F
100
AcDbEntity
  8
0
  6
HIDDEN
 62
     7
370
     0
100
AcDbSpline
210
0.0
220
0.0
230
1.0
 70
     8
 71
     3
 72
     8
 73
     4
 74
     0
 42
0.00000001
 43
0.00000001
 12
1.0
 22
0.0
 32
0.0
 13
1.0
 23
0.0
 33
0.0
 40
0.0000137050638847
 40
0.0000137050638847
 40
0.0000137050638847
 40
0.0000137050638847
 40
0.0027147143562631
 40
0.0027147143562631
 40
0.0027147143562631
 40
0.0027147143562631
 10
152.2015586605511
 20
123.6460402004601
 30
0.0
 10
151.3015549746412
 20
123.6337301822043
 30
0.0
 10
150.4015547960459
 20
123.6210953248923
 30
0.0
 10
149.5015586605511
 20
123.6081237576939
 30
0.0
  0
SPLINE
  5
18D
330
1F
100
AcDbEntity
  8
0
  6
HIDDEN
 62
     7
370
     0
100
AcDbSpline
210
0.0
220
0.0
230
1.0
 70
     8
 71
     3
 72
    10
 73
     6
 74
     0
 42
0.00000001
 43
0.00000001
 12
1.0
 22
0.0
 32
0.0
 13
1.0
 23
0.0
 33
0.0
 40
0.0
 40
0.0
 40
0.0
 40
0.0
 40
0.5
 40
0.5
 40
1.0
 40
1.0
 40
1.0
 40
1.0
 10
148.0015586605511
 20
119.2028817069814
 30
0.0
 10
148.2387006212668
 20
119.0472668924527
 30
0.0
 10
148.4840433800302
 20
118.9153578630336
 30
0.0
 10
148.9853069687629
 20
118.6837009863962
 30
0.0
 10
149.241341538013
 20
118.5842553702735
 30
0.0
 10
149.5015586605511
 20
118.4980672835704
 30
0.0
  0
SPLINE
  5
18E
330
1F
100
AcDbEntity
  8
0
  6
HIDDEN
 62
     7
370
     0
100
AcDbSpline
210
0.0
220
0.0
230
1.0
 70
     8
 71
     3
 72
    10
 73
     6
 74
     0
 42
0.00000001
 43
0.00000001
 12
1.0
 22
0.0
 32
0.0
 13
1.0
 23
0.0
 33
0.0
 40
0.0
 40
0.0
 40
0.0
 40
0.0
 40
0.5
 40
0.5
 40
1.0
 40
1.0
 40
1.0
 40
1.0
 10
149.5015586605511
 20
123.6081237576939
 30
0.0
 10
149.241341538013
 20
123.5219356709908
 30
0.0
 10
148.9853069687629
 20
123.4224900548681
 30
0.0
 10
148.4840433800302
 20
123.1908331782307
 30
0.0
 10
148.2387006212668
 20
123.0589241488115
 30
0.0
 10
148.0015586605511
 20
122.9033093342828
 30
0.0
  0
LINE
  5
18F
330
1F
100
AcDbEntity
  8
0
  6
HIDDEN
 62
     7
370
     0
100
AcDbLine
 10
148.0015586606
 20
119.202881707
 30
0.0
 11
148.0015586606
 21
122.9033093343
 31
0.0
  0
LINE
  5
190
330
1F
100
AcDbEntity
  8
0
  6
HIDDEN
 62
     7
370
     0
100
AcDbLine
 10
209.4114753772
 20
110.6014394186
 30
0.0
 11
206.600492228
 21
113.2376472457
 31
0.0
  0
LWPOLYLINE
  5
191
330
1F
100
AcDbEntity
  8
0
  6
HIDDEN
 62
     7
370
     0
100
AcDbPolyline
 90
       31
 70
   128
 43
0.0
 10
186.1015586606
 20
123.4921459752
 10
186.6213378876
 20
123.5434823211
 10
187.1184002682
 20
123.6952477139
 10
187.5710217913
 20
123.9408092779
 10
187.9594207242
 20
124.2694347943
 10
188.26662217
 20
124.6667617512
 10
188.4791999513
 20
125.1154250539
 10
188.587863399
 20
125.5958159632
 10
188.587863399
 20
126.0869390912
 10
188.4791999513
 20
126.5673300005
 10
188.26662217
 20
127.0159933032
 10
187.9594207242
 20
127.41332026
 10
187.5710217913
 20
127.7419457765
 10
187.1184002682
 20
127.9875073404
 10
186.6213378876
 20
128.1392727333
 10
186.1015586606
 20
128.1906090792
 10
185.5817794335
 20
128.1392727333
 10
185.0847170529
 20
127.9875073404
 10
184.6320955298
 20
127.7419457765
 10
184.2436965969
 20
127.41332026
 10
183.9364951511
 20
127.0159933032
 10
183.7239173698
 20
126.5673300005
 10
183.6152539221
 20
126.0869390912
 10
183.6152539221
 20
125.5958159632
 10
183.7239173698
 20
125.1154250539
 10
183.9364951511
 20
124.6667617512
 10
184.2436965969
 20
124.2694347943
 10
184.6320955298
 20
123.9408092779
 10
185.0847170529
 20
123.6952477139
 10
185.5817794335
 20
123.5434823211
 10
186.1015586606
 20
123.4921459752
  0
SPLINE
  5
192
330
1F
100
AcDbEntity
  8
0
  6
HIDDEN
 62
     7
370
     0
100
AcDbSpline
210
0.0
220
0.0
230
1.0
 70
     8
 71
     3
 72
    62
 73
    58
 74
     0
 42
0.00000001
 43
0.00000001
 12
1.0
 22
0.0
 32
0.0
 13
1.0
 23
0.0
 33
0.0
 40
-0.03125
 40
-0.03125
 40
0.0
 40
0.0
 40
0.0312499999999997
 40
0.0312499999999997
 40
0.0624999999999994
 40
0.0624999999999994
 40
0.0937499999999991
 40
0.0937499999999991
 40
0.1249999999999988
 40
0.1249999999999988
 40
0.1874999999999985
 40
0.1874999999999985
 40
0.2499999999999982
 40
0.2499999999999982
 40
0.2812499999999982
 40
0.2812499999999982
 40
0.3124999999999982
 40
0.3124999999999982
 40
0.3437499999999983
 40
0.3437499999999983
 40
0.3749999999999983
 40
0.3749999999999983
 40
0.4374999999999983
 40
0.4374999999999983
 40
0.4687499999999983
 40
0.4687499999999983
 40
0.4999999999999983
 40
0.4999999999999983
 40
0.5624999999999983
 40
0.5624999999999983
 40
0.5937499999999984
 40
0.5937499999999984
 40
0.6249999999999986
 40
0.6249999999999986
 40
0.6562499999999988
 40
0.6562499999999988
 40
0.6874999999999989
 40
0.6874999999999989
 40
0.718749999999999
 40
0.718749999999999
 40
0.7499999999999991
 40
0.7499999999999991
 40
0.7812499999999992
 40
0.7812499999999992
 40
0.8124999999999993
 40
0.8124999999999993
 40
0.8437499999999994
 40
0.8437499999999994
 40
0.8749999999999996
 40
0.8749999999999996
 40
0.9062499999999998
 40
0.9062499999999998
 40
0.9374999999999999
 40
0.9374999999999999
 40
0.96875
 40
0.96875
 40
1.0
 40
1.0
 40
1.03125
 40
1.03125
 10
158.4553307884793
 20
122.5410745592885
 30
0.0
 10
158.6828311350676
 20
122.7904211011491
 30
0.0
 10
158.8072936639851
 20
122.902018778606
 30
0.0
 10
159.0763879301369
 20
123.1006695744244
 30
0.0
 10
159.2222010217262
 20
123.1880098192131
 30
0.0
 10
159.5233679000155
 20
123.3322055718554
 30
0.0
 10
159.6797036270799
 20
123.3900252423696
 30
0.0
 10
160.0038269264143
 20
123.4772788544206
 30
0.0
 10
160.1704921381248
 20
123.5060809039024
 30
0.0
 10
160.6685084047567
 20
123.5468602091703
 30
0.0
 10
161.0091793535497
 20
123.513416949029
 30
0.0
 10
161.6481902689712
 20
123.3309643045702
 30
0.0
 10
161.954644876035
 20
123.1795397442575
 30
0.0
 10
162.3512007852974
 20
122.8790418386731
 30
0.0
 10
162.4755499761469
 20
122.7647806534778
 30
0.0
 10
162.6980140701961
 20
122.5151207829052
 30
0.0
 10
162.7955794086734
 20
122.3809541749062
 30
0.0
 10
162.9628350123122
 20
122.0934850804074
 30
0.0
 10
163.0329206678313
 20
121.9382182305075
 30
0.0
 10
163.1369760285528
 20
121.6212388104205
 30
0.0
 10
163.1719517912202
 20
121.4585860589161
 30
0.0
 10
163.2238163107443
 20
120.9576490387135
 30
0.0
 10
163.1845102029728
 20
120.6174944374032
 30
0.0
 10
163.021790410512
 20
120.140999805306
 30
0.0
 10
162.9515099126257
 20
119.9899324454786
 30
0.0
 10
162.7801767674957
 20
119.7026378750377
 30
0.0
 10
162.678784526314
 20
119.5667800967403
 30
0.0
 10
162.3421849390909
 20
119.1979717017421
 30
0.0
 10
162.0669521729262
 20
118.995546592411
 30
0.0
 10
161.6171689455803
 20
118.7784698658023
 30
0.0
 10
161.4583691470766
 20
118.719167593728
 30
0.0
 10
161.1358074261969
 20
118.6311950759275
 30
0.0
 10
160.9719483142297
 20
118.6020753120812
 30
0.0
 10
160.6391155408758
 20
118.573218696971
 30
0.0
 10
160.469063249435
 20
118.573842220185
 30
0.0
 10
160.1367875854153
 20
118.6050986639894
 30
0.0
 10
159.9730729736666
 20
118.6354173590413
 30
0.0
 10
159.6506074880922
 20
118.7261343980443
 30
0.0
 10
159.4920963895657
 20
118.7869033067461
 30
0.0
 10
159.1935426833678
 20
118.9344139815431
 30
0.0
 10
159.0517165541658
 20
119.021549009407
 30
0.0
 10
158.7837948156075
 20
119.224134475979
 30
0.0
 10
158.6597013852149
 20
119.3384726426212
 30
0.0
 10
158.4385671972967
 20
119.5866590805739
 30
0.0
 10
158.3401101951981
 20
119.7216916974277
 30
0.0
 10
158.1707516814631
 20
120.0136960954825
 30
0.0
 10
158.1025848437571
 20
120.165831841918
 30
0.0
 10
157.9988508774307
 20
120.4822407903581
 30
0.0
 10
157.9631823155616
 20
120.6487372597123
 30
0.0
 10
157.928968550909
 20
120.9819991358228
 30
0.0
 10
157.9298269537381
 20
121.1486615896447
 30
0.0
 10
157.9676237336877
 20
121.4820497888622
 30
0.0
 10
158.0049664891418
 20
121.6478053613418
 30
0.0
 10
158.1122160722102
 20
121.9636966778044
 30
0.0
 10
158.1829772887493
 20
122.1169760108766
 30
0.0
 10
158.35510043885
 20
122.406353053363
 30
0.0
 10
158.4553307884793
 20
122.5410745592885
 30
0.0
 10
158.6828311350676
 20
122.7904211011491
 30
0.0
  0
CIRCLE
  5
193
330
1F
100
AcDbEntity
  8
0
  6
HIDDEN
 62
     7
370
     0
100
AcDbCircle
 10
160.5015586606
 20
121.0530955206
 30
0.0
 40
2.299999999999997
  0
CIRCLE
  5
194
330
1F
100
AcDbEntity
  8
0
  6
HIDDEN
 62
     7
370
     0
100
AcDbCircle
 10
184.0015586606
 20
121.0530955206
 30
0.0
 40
2.000000000000014
  0
SPLINE
  5
195
330
1F
100
AcDbEntity
  8
0
  6
HIDDEN
 62
     7
370
     0
100
AcDbSpline
210
0.0
220
0.0
230
1.0
 70
     8
 71
     3
 72
    11
 73
     7
 74
     0
 42
0.00000001
 43
0.00000001
 12
1.0
 22
0.0
 32
0.0
 13
1.0
 23
0.0
 33
0.0
 40
0.0
 40
0.0
 40
0.0
 40
0.0
 40
0.2464221321678248
 40
0.4951615739916258
 40
0.7463209631421716
 40
1.0
 40
1.0
 40
1.0
 40
1.0
 10
218.2530135266045
 20
108.7954836785721
 30
0.0
 10
218.2324229685095
 20
108.6705951131699
 30
0.0
 10
218.1910482223938
 20
108.4196435526339
 30
0.0
 10
218.1186955359955
 20
108.043165440886
 30
0.0
 10
218.0390940241985
 20
107.6643468616957
 30
0.0
 10
217.9793780070212
 20
107.4120073114537
 30
0.0
 10
217.9493709771635
 20
107.2852078232042
 30
0.0
  0
LINE
  5
196
330
1F
100
AcDbEntity
  8
0
  6
HIDDEN
 62
     7
370
     0
100
AcDbLine
 10
195.9347989221
 20
109.5989872719
 30
0.0
 11
217.9494591133
 21
107.2851532479
 31
0.0
  0
SPLINE
  5
197
330
1F
100
AcDbEntity
  8
0
  6
HIDDEN
 62
     7
370
     0
100
AcDbSpline
210
0.0
220
0.0
230
1.0
 70
     8
 71
     3
 72
     8
 73
     4
 74
     0
 42
0.00000001
 43
0.00000001
 12
1.0
 22
0.0
 32
0.0
 13
1.0
 23
0.0
 33
0.0
 40
0.0
 40
0.0
 40
0.0
 40
0.0
 40
1.0
 40
1.0
 40
1.0
 40
1.0
 10
195.934798922058
 20
109.5989872719148
 30
0.0
 10
195.5752307362978
 20
112.3501688400127
 30
0.0
 10
195.3136119456352
 20
115.1146572569861
 30
0.0
 10
195.2001574988612
 20
117.8992744407671
 30
0.0
  0
LINE
  5
198
330
1F
100
AcDbEntity
  8
0
  6
HIDDEN
 62
     7
370
     0
100
AcDbLine
 10
218.2526753482
 20
108.7933528431
 30
0.0
 11
217.0498887561
 21
120.6152651758
 31
0.0
  0
LINE
  5
199
330
1F
100
AcDbEntity
  8
0
  6
HIDDEN
 62
     7
370
     0
100
AcDbLine
 10
217.0498887561
 20
120.6152651758
 30
0.0
 11
216.7382234929
 21
121.0530955206
 31
0.0
  0
LINE
  5
19A
330
1F
100
AcDbEntity
  8
0
  6
HIDDEN
 62
     7
370
     0
100
AcDbLine
 10
182.7672266403
 20
115.2336301148
 30
0.0
 11
190.0655588009
 21
110.8376180137
 31
0.0
  0
LINE
  5
19B
330
1F
100
AcDbEntity
  8
0
  6
HIDDEN
 62
     7
370
     0
100
AcDbLine
 10
186.6915086424
 20
117.7729571127
 30
0.0
 11
184.9342722512
 21
118.8313951599
 31
0.0
  0
LINE
  5
19C
330
1F
100
AcDbEntity
  8
0
  6
HIDDEN
 62
     7
370
     0
100
AcDbLine
 10
190.0100502023
 20
115.7740964779
 30
0.0
 11
187.8569850437
 21
117.0709544837
 31
0.0
  0
LINE
  5
19D
330
1F
100
AcDbEntity
  8
0
  6
HIDDEN
 62
     7
370
     0
100
AcDbLine
 10
184.3915529591
 20
118.7052059066
 30
0.0
 11
182.8299258965
 21
117.6473863615
 31
0.0
  0
LINE
  5
19E
330
1F
100
AcDbEntity
  8
0
  6
HIDDEN
 62
     7
370
     0
100
AcDbLine
 10
182.8299258965
 20
117.6473863615
 30
0.0
 11
182.6250168716
 21
115.7723734111
 31
0.0
  0
LINE
  5
19F
330
1F
100
AcDbEntity
  8
0
  6
HIDDEN
 62
     7
370
     0
100
AcDbLine
 10
172.0015586606
 20
105.2530955206
 30
0.0
 11
172.0944518794
 21
105.3459887394
 31
0.0
  0
LINE
  5
1A0
330
1F
100
AcDbEntity
  8
0
  6
HIDDEN
 62
     7
370
     0
100
AcDbLine
 10
172.0944518794
 20
136.7602023018
 30
0.0
 11
172.0015586606
 21
136.8530955206
 31
0.0
  0
ARC
  5
1A1
330
1F
100
AcDbEntity
  8
0
  6
HIDDEN
 62
     7
370
     0
100
AcDbCircle
 10
171.3873450982
 20
106.0530955206
 30
0.0
 40
1.0
100
AcDbArc
 50
315.0
 51
0.0
  0
ARC
  5
1A2
330
1F
100
AcDbEntity
  8
0
  6
HIDDEN
 62
     7
370
     0
100
AcDbCircle
 10
171.3873450982
 20
106.0530955206
 30
0.0
 40
1.0
100
AcDbArc
 50
0.0
 51
52.1052014664
  0
ARC
  5
1A3
330
1F
100
AcDbEntity
  8
0
  6
HIDDEN
 62
     7
370
     0
100
AcDbCircle
 10
171.3873450982
 20
136.0530955206
 30
0.0
 40
0.999999999999988
100
AcDbArc
 50
351.8087250651
 51
45.0
  0
ARC
  5
1A4
330
1F
100
AcDbEntity
  8
0
  6
HIDDEN
 62
     7
370
     0
100
AcDbCircle
 10
171.3873450982
 20
136.0530955206
 30
0.0
 40
1.000000000000004
100
AcDbArc
 50
307.8947985336
 51
351.8087250651
  0
LINE
  5
1A5
330
1F
100
AcDbEntity
  8
0
  6
HIDDEN
 62
     7
370
     0
100
AcDbLine
 10
172.3873450982
 20
106.0530955206
 30
0.0
 11
172.3873450982
 21
136.0530955206
 31
0.0
  0
LINE
  5
1A6
330
1F
100
AcDbEntity
  8
0
  6
HIDDEN
 62
     7
370
     0
100
AcDbLine
 10
172.3873450982
 20
106.0530955206
 30
0.0
 11
172.3873450982
 21
136.0530955206
 31
0.0
  0
LINE
  5
1A7
330
1F
100
AcDbEntity
  8
0
  6
HIDDEN
 62
     7
370
     0
100
AcDbLine
 10
188.2015586606
 20
116.3987921822
 30
0.0
 11
188.2015586606
 21
118.9163354379
 31
0.0
  0
LINE
  5
1A8
330
1F
100
AcDbEntity
  8
0
  6
HIDDEN
 62
     7
370
     0
100
AcDbLine
 10
184.0015586606
 20
118.9162453209
 30
0.0
 11
184.0015586606
 21
116.2546595063
 31
0.0
  0
LINE
  5
1A9
330
1F
100
AcDbEntity
  8
0
  6
HIDDEN
 62
     7
370
     0
100
AcDbLine
 10
148.0015586606
 20
110.8974449964
 30
0.0
 11
149.0285906926
 21
111.4904022165
 31
0.0
  0
LINE
  5
1AA
330
1F
100
AcDbEntity
  8
0
  6
HIDDEN
 62
     7
370
     0
100
AcDbLine
 10
149.0285906926
 20
130.6157888247
 30
0.0
 11
148.0015586606
 21
131.2087460449
 31
0.0
  0
LINE
  5
1AB
330
1F
100
AcDbEntity
  8
0
  6
HIDDEN
 62
     7
370
     0
100
AcDbLine
 10
153.5015586606
 20
111.0530955206
 30
0.0
 11
154.5143771302
 21
111.0530955206
 31
0.0
  0
LINE
  5
1AC
330
1F
100
AcDbEntity
  8
0
  6
HIDDEN
 62
     7
370
     0
100
AcDbLine
 10
154.5143771302
 20
131.0530955206
 30
0.0
 11
153.5015586606
 21
131.0530955206
 31
0.0
  0
ARC
  5
1AD
330
1F
100
AcDbEntity
  8
0
  6
HIDDEN
 62
     7
370
     0
100
AcDbCircle
 10
153.5015586606
 20
112.0530955206
 30
0.0
 40
1.000000000000022
100
AcDbArc
 50
193.3524261238
 51
270.0
  0
ARC
  5
1AE
330
1F
100
AcDbEntity
  8
0
  6
HIDDEN
 62
     7
370
     0
100
AcDbCircle
 10
153.5015586606
 20
130.0530955206
 30
0.0
 40
1.000000000000026
100
AcDbArc
 50
90.0
 51
166.6475738762
  0
ARC
  5
1AF
330
1F
100
AcDbEntity
  8
0
  6
HIDDEN
 62
     7
370
     0
100
AcDbCircle
 10
154.5143771302
 20
112.0530955206
 30
0.0
 40
1.0
100
AcDbArc
 50
270.0
 51
315.0
  0
ARC
  5
1B0
330
1F
100
AcDbEntity
  8
0
  6
HIDDEN
 62
     7
370
     0
100
AcDbCircle
 10
154.5143771302
 20
130.0530955206
 30
0.0
 40
1.000000000000008
100
AcDbArc
 50
45.0
 51
90.0
  0
LINE
  5
1B1
330
1F
100
AcDbEntity
  8
0
  6
HIDDEN
 62
     7
370
     0
100
AcDbLine
 10
155.2214839114
 20
111.3459887394
 30
0.0
 11
155.9285906926
 21
112.0530955206
 31
0.0
  0
LINE
  5
1B2
330
1F
100
AcDbEntity
  8
0
  6
HIDDEN
 62
     7
370
     0
100
AcDbLine
 10
155.9285906926
 20
130.0530955206
 30
0.0
 11
155.2214839114
 21
130.7602023018
 31
0.0
  0
LINE
  5
1B3
330
1F
100
AcDbEntity
  8
0
  6
HIDDEN
 62
     7
370
     0
100
AcDbLine
 10
149.0285906926
 20
111.4904022165
 30
0.0
 11
151.1285906926
 21
112.0530955206
 31
0.0
  0
LINE
  5
1B4
330
1F
100
AcDbEntity
  8
0
  6
HIDDEN
 62
     7
370
     0
100
AcDbLine
 10
151.1285906926
 20
130.0530955206
 30
0.0
 11
149.0285906926
 21
130.6157888247
 31
0.0
  0
LINE
  5
1B5
330
1F
100
AcDbEntity
  8
0
  6
HIDDEN
 62
     7
370
     0
100
AcDbLine
 10
152.5285906926
 20
130.2840356283
 30
0.0
 11
152.1285906926
 21
130.0530955206
 31
0.0
  0
LINE
  5
1B6
330
1F
100
AcDbEntity
  8
0
  6
HIDDEN
 62
     7
370
     0
100
AcDbLine
 10
152.1285906926
 20
112.0530955206
 30
0.0
 11
152.5285906926
 21
111.822155413
 31
0.0
  0
ARC
  5
1B7
330
1F
100
AcDbEntity
  8
0
  6
HIDDEN
 62
     7
370
     0
100
AcDbCircle
 10
162.5015586606
 20
112.5530955206
 30
0.0
 40
0.5
100
AcDbArc
 50
270.0
 51
360.0
  0
ARC
  5
1B8
330
1F
100
AcDbEntity
  8
0
  6
HIDDEN
 62
     7
370
     0
100
AcDbCircle
 10
162.5015586606
 20
129.5530955206
 30
0.0
 40
0.5
100
AcDbArc
 50
0.0
 51
90.0
  0
LINE
  5
1B9
330
1F
100
AcDbEntity
  8
0
  6
HIDDEN
 62
     7
370
     0
100
AcDbLine
 10
155.9285906926
 20
112.0530955206
 30
0.0
 11
162.5015586606
 21
112.0530955206
 31
0.0
  0
LINE
  5
1BA
330
1F
100
AcDbEntity
  8
0
  6
HIDDEN
 62
     7
370
     0
100
AcDbLine
 10
162.5015586606
 20
130.0530955206
 30
0.0
 11
155.9285906926
 21
130.0530955206
 31
0.0
  0
LINE
  5
1BB
330
1F
100
AcDbEntity
  8
0
  6
HIDDEN
 62
     7
370
     0
100
AcDbLine
 10
151.1285906926
 20
112.0530955206
 30
0.0
 11
152.1285906926
 21
112.0530955206
 31
0.0
  0
LINE
  5
1BC
330
1F
100
AcDbEntity
  8
0
  6
HIDDEN
 62
     7
370
     0
100
AcDbLine
 10
152.1285906926
 20
130.0530955206
 30
0.0
 11
151.1285906926
 21
130.0530955206
 31
0.0
  0
LINE
  5
1BD
330
1F
100
AcDbEntity
  8
0
  6
HIDDEN
 62
     7
370
     0
100
AcDbLine
 10
163.0015586606
 20
113.9030955206
 30
0.0
 11
163.9015586606
 21
114.8030955206
 31
0.0
  0
LINE
  5
1BE
330
1F
100
AcDbEntity
  8
0
  6
HIDDEN
 62
     7
370
     0
100
AcDbLine
 10
163.9015586606
 20
127.3030955206
 30
0.0
 11
163.0015586606
 21
128.2030955206
 31
0.0
  0
LINE
  5
1BF
330
1F
100
AcDbEntity
  8
0
  6
HIDDEN
 62
     7
370
     0
100
AcDbLine
 10
163.9015586606
 20
114.8030955206
 30
0.0
 11
189.0015586606
 21
114.8030955206
 31
0.0
  0
LINE
  5
1C0
330
1F
100
AcDbEntity
  8
0
  6
HIDDEN
 62
     7
370
     0
100
AcDbLine
 10
189.0015586606
 20
127.3030955206
 30
0.0
 11
163.9015586606
 21
127.3030955206
 31
0.0
  0
LINE
  5
1C1
330
1F
100
AcDbEntity
  8
0
  6
HIDDEN
 62
     7
370
     0
100
AcDbLine
 10
189.0015586606
 20
114.8030955206
 30
0.0
 11
192.7569375295
 21
121.0530955206
 31
0.0
  0
LINE
  5
1C2
330
1F
100
AcDbEntity
  8
0
  6
HIDDEN
 62
     7
370
     0
100
AcDbLine
 10
192.7569375295
 20
121.0530955206
 30
0.0
 11
189.0015586606
 21
127.3030955206
 31
0.0
  0
LINE
  5
1C3
330
1F
100
AcDbEntity
  8
0
  6
HIDDEN
 62
     7
370
     0
100
AcDbLine
 10
206.885442359
 20
113.7495591961
 30
0.0
 11
206.4067649687
 21
114.3833968012
 31
0.0
  0
LINE
  5
1C4
330
1F
100
AcDbEntity
  8
0
  6
HIDDEN
 62
     7
370
     0
100
AcDbLine
 10
200.8207522416
 20
110.1648115156
 30
0.0
 11
201.2994296319
 21
109.5309739104
 31
0.0
  0
LINE
  5
1C5
330
1F
100
AcDbEntity
  8
0
  6
HIDDEN
 62
     7
370
     0
100
AcDbLine
 10
217.2069599328
 20
111.1081990619
 30
0.0
 11
216.2432075015
 21
112.3843456804
 31
0.0
  0
LINE
  5
1C6
330
1F
100
AcDbEntity
  8
0
  6
HIDDEN
 62
     7
370
     0
100
AcDbLine
 10
203.4960738503
 20
109.1430507578
 30
0.0
 11
208.7284985067
 21
103.7138157866
 31
0.0
  0
LINE
  5
1C7
330
1F
100
AcDbEntity
  8
0
  6
HIDDEN
 62
     7
370
     0
100
AcDbLine
 10
206.9214013154
 20
114.8634712054
 30
0.0
 11
204.8364742896
 21
117.624213993
 31
0.0
  0
LINE
  5
1C8
330
1F
100
AcDbEntity
  8
0
  6
HIDDEN
 62
     7
370
     0
100
AcDbLine
 10
198.1332590171
 20
112.5619116502
 30
0.0
 11
200.2181860428
 21
109.8011688626
 31
0.0
  0
LINE
  5
1C9
330
1F
100
AcDbEntity
  8
0
  6
HIDDEN
 62
     7
370
     0
100
AcDbLine
 10
188.2015586606
 20
123.1899457204
 30
0.0
 11
188.2015586606
 21
125.7591749532
 31
0.0
  0
LINE
  5
1CA
330
1F
100
AcDbEntity
  8
0
  6
HIDDEN
 62
     7
370
     0
100
AcDbLine
 10
184.0015586606
 20
125.7591749532
 30
0.0
 11
184.0015586606
 21
123.1898556033
 31
0.0
  0
LINE
  5
1CB
330
1F
100
AcDbEntity
  8
0
  6
HIDDEN
 62
     7
370
     0
100
AcDbLine
 10
216.7724272045
 20
104.1722654752
 30
0.0
 11
216.1870678102
 21
104.9473653736
 31
0.0
  0
LINE
  5
1CC
330
1F
100
AcDbEntity
  8
0
  6
HIDDEN
 62
     7
370
     0
100
AcDbLine
 10
210.8404556285
 20
100.9095766002
 30
0.0
 11
211.4258150228
 21
100.1344767018
 31
0.0
  0
LINE
  5
1CD
330
1F
100
AcDbEntity
  8
0
  6
HIDDEN
 62
     7
370
     0
100
AcDbLine
 10
170.3014955715
 20
110.0512210624
 30
0.0
 11
170.3014955715
 21
109.7093478393
 31
0.0
  0
LINE
  5
1CE
330
1F
100
AcDbEntity
  8
0
  6
HIDDEN
 62
     7
370
     0
100
AcDbLine
 10
214.0167439918
 20
105.8250991119
 30
0.0
 11
209.4534850453
 21
110.5599986436
 31
0.0
  0
LINE
  5
1CF
330
1F
100
AcDbEntity
  8
0
  6
HIDDEN
 62
     7
370
     0
100
AcDbLine
 10
188.6015586606
 20
125.8413775272
 30
0.0
 11
188.6015586606
 21
127.8934983871
 31
0.0
  0
LINE
  5
1D0
330
1F
100
AcDbEntity
  8
0
  6
HIDDEN
 62
     7
370
     0
100
AcDbLine
 10
183.6015586606
 20
127.8931816347
 30
0.0
 11
183.6015586606
 21
125.8413775272
 31
0.0
  0
LINE
  5
1D1
330
1F
100
AcDbEntity
  8
VERMASSUNG
  6
CENTERX2
100
AcDbLine
 10
222.0015586606
 20
121.0530955206
 30
0.0
 11
145.0152606651
 21
121.0530955206
 31
0.0
  0
LINE
  5
1D2
330
1F
100
AcDbEntity
  8
VERMASSUNG
  6
CENTERX2
100
AcDbLine
 10
222.0015586606
 20
94.0530955206
 30
0.0
 11
222.0015586606
 21
121.0530955206
 31
0.0
  0
LINE
  5
1D3
330
1F
100
AcDbEntity
  8
VERMASSUNG
  6
CENTERX2
100
AcDbLine
 10
222.0015586606
 20
94.0530955206
 30
0.0
 11
235.0437439937
 21
94.0530955206
 31
0.0
  0
DIMENSION
  5
1D4
330
1F
100
AcDbEntity
  8
VERMASSUNG
100
AcDbDimension
  2
_D
 10
222.0015586606
 20
76.9817757813
 30
0.0
 11
185.0015586606
 21
76.9817757813
 31
0.0
 70
   160
  1
<>
 71
     2
 42
-1.0
  3
SLDDIMSTYLE0
100
AcDbAlignedDimension
 13
148.0015586606
 23
108.4215905386
 33
0.0
 14
222.0015586606
 24
94.0530955206
 34
0.0
100
AcDbRotatedDimension
  0
DIMENSION
  5
1DF
330
1F
100
AcDbEntity
  8
VERMASSUNG
100
AcDbDimension
  2
_D_1
 10
222.0015586606
 20
85.3044881044
 30
0.0
 11
197.0015586606
 21
85.3044881044
 31
0.0
 70
   160
  1
<>
 71
     2
 42
-1.0
  3
SLDDIMSTYLE1
100
AcDbAlignedDimension
 13
172.0015586606
 23
101.3530955206
 33
0.0
 14
222.0015586606
 24
94.0530955206
 34
0.0
100
AcDbRotatedDimension
  0
DIMENSION
  5
1EC
330
1F
100
AcDbEntity
  8
VERMASSUNG
100
AcDbDimension
  2
_D_2
 10
242.9251685048
 20
121.0530955206
 30
0.0
 11
242.9251685048
 21
107.5530955206
 31
0.0
 70
   160
  1
<>
 71
     2
 42
-1.0
  3
SLDDIMSTYLE1
100
AcDbAlignedDimension
 13
222.0015586606
 23
94.0530955206
 33
0.0
 14
222.0015586606
 24
121.0530955206
 34
0.0
 50
90.0
100
AcDbRotatedDimension
  0
DIMENSION
  5
1F8
330
1F
100
AcDbEntity
  8
VERMASSUNG
100
AcDbDimension
  2
_D_3
 10
222.0000448781
 20
94.4895653847
 30
0.0
 11
230.4261566837
 21
103.2111362871
 31
0.0
 70
   162
  1
<>
 71
     1
 42
-1.0
  3
SLDDIMSTYLE2
100
AcDb2LineAngularDimension
 13
235.0437439937
 23
94.0530955206
 33
0.0
 14
222.0015586606
 24
94.0530955206
 34
0.0
 15
221.2883631891
 25
102.5789204527
 35
0.0
 16
230.4261566837
 26
103.2111362871
 36
0.0
  0
DIMENSION
  5
202
330
1F
100
AcDbEntity
  8
VERMASSUNG
100
AcDbDimension
  2
_D_4
 10
139.7292105934
 20
101.0530955206
 30
0.0
 11
139.7292105934
 21
121.0530955206
 31
0.0
 70
   160
  1
PSC%%c<>
 71
     2
 42
-1.0
  3
SLDDIMSTYLE0
100
AcDbAlignedDimension
 13
172.3015586606
 23
141.0530955206
 33
0.0
 14
172.3015586606
 24
101.0530955206
 34
0.0
 50
90.0
100
AcDbRotatedDimension
  0
LINE
  5
20E
330
1F
100
AcDbEntity
  8
0
  6
Continuous
 62
     7
370
    15
100
AcDbLine
 10
87.0612665516
 20
94.0531376611
 30
0.0
 11
91.749120444
 21
94.7119738769
 31
0.0
  0
LINE
  5
20F
330
1F
100
AcDbEntity
  8
0
  6
Continuous
 62
     7
370
    15
100
AcDbLine
 10
84.6869211513
 20
110.1660240303
 30
0.0
 11
84.3650907613
 21
110.1207934182
 31
0.0
  0
LINE
  5
210
330
1F
100
AcDbEntity
  8
0
  6
Continuous
 62
     7
370
    15
100
AcDbLine
 10
84.8456569351
 20
107.1426641058
 30
0.0
 11
84.7038097549
 21
106.781617352
 31
0.0
  0
SPLINE
  5
211
330
1F
100
AcDbEntity
  8
0
  6
Continuous
 62
     7
370
    15
100
AcDbSpline
210
0.0
220
0.0
230
1.0
 70
     8
 71
     3
 72
     9
 73
     5
 74
     0
 42
0.00000001
 43
0.00000001
 12
1.0
 22
0.0
 32
0.0
 13
1.0
 23
0.0
 33
0.0
 40
0.0
 40
0.0
 40
0.0
 40
0.0
 40
0.4662365913430769
 40
1.0
 40
1.0
 40
1.0
 40
1.0
 10
86.0695657888093
 20
96.38226366152037
 30
0.0
 10
86.10422446392514
 20
96.33935687749198
 30
0.0
 10
86.17856156178358
 20
96.24732895685028
 30
0.0
 10
86.21885836379553
 20
96.14944183554348
 30
0.0
 10
86.24036732219541
 20
96.09719327201117
 30
0.0
  0
SPLINE
  5
212
330
1F
100
AcDbEntity
  8
0
  6
Continuous
 62
     7
370
    15
100
AcDbSpline
210
0.0
220
0.0
230
1.0
 70
     8
 71
     3
 72
     9
 73
     5
 74
     0
 42
0.00000001
 43
0.00000001
 12
1.0
 22
0.0
 32
0.0
 13
1.0
 23
0.0
 33
0.0
 40
0.0
 40
0.0
 40
0.0
 40
0.0
 40
0.4655580295708742
 40
1.0
 40
1.0
 40
1.0
 40
1.0
 10
86.14254620481664
 20
96.28553463627566
 30
0.0
 10
86.15962046778448
 20
96.25975223439089
 30
0.0
 10
86.19629530074481
 20
96.20437266783388
 30
0.0
 10
86.20414058521355
 20
96.17837051776482
 30
0.0
 10
86.20833343450361
 20
96.16447387744654
 30
0.0
  0
LINE
  5
213
330
1F
100
AcDbEntity
  8
0
  6
Continuous
 62
     7
370
    15
100
AcDbLine
 10
85.8991130357
 20
96.6122332822
 30
0.0
 11
86.0740583725
 21
96.3838171076
 31
0.0
  0
LINE
  5
214
330
1F
100
AcDbEntity
  8
0
  6
Continuous
 62
     7
370
    15
100
AcDbLine
 10
91.7625822462
 20
94.7744935613
 30
0.0
 11
96.0648445747
 21
95.3791361164
 31
0.0
  0
LINE
  5
215
330
1F
100
AcDbEntity
  8
0
  6
Continuous
 62
     7
370
    15
100
AcDbLine
 10
96.07495315
 20
95.386150838
 30
0.0
 11
96.3256214149
 21
95.7226488601
 31
0.0
  0
SPLINE
  5
216
330
1F
100
AcDbEntity
  8
0
  6
Continuous
 62
     7
370
    15
100
AcDbSpline
210
0.0
220
0.0
230
1.0
 70
     8
 71
     3
 72
    27
 73
    23
 74
     0
 42
0.00000001
 43
0.00000001
 12
1.0
 22
0.0
 32
0.0
 13
1.0
 23
0.0
 33
0.0
 40
0.0
 40
0.0
 40
0.0
 40
0.0
 40
0.0247643434381421
 40
0.0495071794063576
 40
0.0742435990725181
 40
0.0989887053437286
 40
0.1237575852370382
 40
0.1485652823951295
 40
0.1734267699960072
 40
0.1983569242974201
 40
0.2233704990435172
 40
0.2484821009435864
 40
0.373491561579161
 40
0.4982530480001853
 40
0.6232085807916916
 40
0.7489574228156044
 40
0.7910747129380293
 40
0.8329918580303046
 40
0.8747755250258261
 40
0.9164930207796926
 40
0.9582119724183734
 40
1.0
 40
1.0
 40
1.0
 40
1.0
 10
96.29291454264582
 20
96.35747974005565
 30
0.0
 10
96.42876465677928
 20
96.40688456523533
 30
0.0
 10
96.70034690120983
 20
96.50565130822689
 30
0.0
 10
97.10271367472545
 20
96.66648032181726
 30
0.0
 10
97.50106127286742
 20
96.8364696370643
 30
0.0
 10
97.8950553294589
 20
97.01653559811315
 30
0.0
 10
98.28478493015523
 20
97.20643246647134
 30
0.0
 10
98.67022552147056
 20
97.40622557909667
 30
0.0
 10
99.05138380645326
 20
97.61589785521439
 30
0.0
 10
99.4282553796158
 20
97.8354503069038
 30
0.0
 10
99.80084921970573
 20
98.06489401787812
 30
0.0
 10
100.6568506150304
 20
98.62107039499034
 30
0.0
 10
101.9371810731013
 20
99.59097694060806
 30
0.0
 10
103.505034566808
 20
101.1173253245029
 30
0.0
 10
104.8787214532953
 20
102.8260526956711
 30
0.0
 10
105.7794124534261
 20
104.2805280628478
 30
0.0
 10
106.339510313262
 20
105.3676602613306
 30
0.0
 10
106.6491307040663
 20
106.0328271716994
 30
0.0
 10
106.9309585452889
 20
106.7078850595567
 30
0.0
 10
107.1843181716314
 20
107.3930420388964
 30
0.0
 10
107.4117840487951
 20
108.0875954647383
 30
0.0
 10
107.5395560162484
 20
108.5579706874963
 30
0.0
 10
107.6034948456727
 20
108.7933528431658
 30
0.0
  0
SPLINE
  5
217
330
1F
100
AcDbEntity
  8
0
  6
Continuous
 62
     7
370
    15
100
AcDbSpline
210
0.0
220
0.0
230
1.0
 70
    24
 71
     3
 72
    11
 73
     7
 74
     0
 42
0.00000001
 43
0.00000001
 12
1.0
 22
0.0
 32
0.0
 13
1.0
 23
0.0
 33
0.0
 40
0.0
 40
0.0
 40
0.0
 40
0.0
 40
0.2464221321678248
 40
0.4951615739916258
 40
0.7463209631421716
 40
1.0
 40
1.0
 40
1.0
 40
1.0
 10
107.6034948490226
 20
108.7954836785722
 30
0.0
 10
107.6034948490226
 20
108.6705951131699
 30
0.0
 10
107.6034948490226
 20
108.4196435526339
 30
0.0
 10
107.6034948490226
 20
108.043165440886
 30
0.0
 10
107.6034948490226
 20
107.6643468616958
 30
0.0
 10
107.6034948490226
 20
107.4120073114537
 30
0.0
 10
107.6034948490226
 20
107.2852078232042
 30
0.0
  0
SPLINE
  5
218
330
1F
100
AcDbEntity
  8
0
  6
Continuous
 62
     7
370
    15
100
AcDbSpline
210
0.0
220
0.0
230
1.0
 70
     8
 71
     3
 72
    45
 73
    41
 74
     0
 42
0.00000001
 43
0.00000001
 12
1.0
 22
0.0
 32
0.0
 13
1.0
 23
0.0
 33
0.0
 40
0.0
 40
0.0
 40
0.0
 40
0.0
 40
0.0261510198368833
 40
0.0516699828661301
 40
0.0765568877228198
 40
0.1008117331412535
 40
0.1244345179602804
 40
0.1474252411293551
 40
0.1697839017154488
 40
0.1915104989109762
 40
0.2126050320428829
 40
0.233067500583172
 40
0.252897904161087
 40
0.2720962425772976
 40
0.2906625158205107
 40
0.3085967240870078
 40
0.3258988678037404
 40
0.3425689476558162
 40
0.3586069646193948
 40
0.3740129200013301
 40
0.3887868154873003
 40
0.402928653200678
 40
0.4164384357751919
 40
0.4293161664453977
 40
0.4415618491605112
 40
0.4531754887292107
 40
0.4641570910060975
 40
0.4745066631351028
 40
0.4842242138720243
 40
0.493309754019249
 40
0.5017632970229569
 40
0.5629333305493935
 40
0.6226465671153866
 40
0.6809045975361019
 40
0.7377091371455501
 40
0.7930620386686088
 40
0.8469653067828505
 40
0.8994211146391823
 40
0.950431822660649
 40
1.0
 40
1.0
 40
1.0
 40
1.0
 10
107.6034950044161
 20
107.2851535109462
 30
0.0
 10
107.5556755814574
 20
107.1481392237734
 30
0.0
 10
107.4611925065962
 20
106.8774222148465
 30
0.0
 10
107.3094920709275
 20
106.4806026177937
 30
0.0
 10
107.1535279443825
 20
106.0968418915917
 30
0.0
 10
106.9931950457813
 20
105.7263521554902
 30
0.0
 10
106.8294118412201
 20
105.3689605552907
 30
0.0
 10
106.6628018604655
 20
105.0245666091163
 30
0.0
 10
106.4940334443859
 20
104.69302691359
 30
0.0
 10
106.3237321337572
 20
104.3741873882342
 30
0.0
 10
106.1525032316219
 20
104.0678774355937
 30
0.0
 10
105.9809261274724
 20
103.7739138081566
 30
0.0
 10
105.8095559720989
 20
103.4921018888802
 30
0.0
 10
105.6389235506633
 20
103.2222375424594
 30
0.0
 10
105.4695356930954
 20
102.9641087267963
 30
0.0
 10
105.3018756134713
 20
102.7174970723847
 30
0.0
 10
105.1364033255063
 20
102.4821793768839
 30
0.0
 10
104.9735560884101
 20
102.2579290291607
 30
0.0
 10
104.8137488870087
 20
102.0445173602924
 30
0.0
 10
104.6573749377793
 20
101.8417149235944
 30
0.0
 10
104.5048062158929
 20
101.6492927048239
 30
0.0
 10
104.3563939980687
 20
101.4670232641503
 30
0.0
 10
104.2124694157983
 20
101.2946818115613
 30
0.0
 10
104.073344016351
 20
101.1320472174439
 30
0.0
 10
103.9393103202011
 20
100.9789029603569
 30
0.0
 10
103.8106423952531
 20
100.8350380133745
 30
0.0
 10
103.687596359857
 20
100.7002476728289
 30
0.0
 10
103.5704111006389
 20
100.5743343249868
 30
0.0
 10
103.4593082118228
 20
100.4571081746316
 30
0.0
 10
103.3544945209076
 20
100.3483878626098
 30
0.0
 10
103.049291217666
 20
100.0368286299589
 30
0.0
 10
102.5315309092063
 20
99.54056997860269
 30
0.0
 10
101.7778803906973
 20
98.8935361668186
 30
0.0
 10
101.0097261385466
 20
98.30249451646797
 30
0.0
 10
100.231485536488
 20
97.76615551387233
 30
0.0
 10
99.44721666495865
 20
97.28303098534268
 30
0.0
 10
98.66082548819818
 20
96.85107306253204
 30
0.0
 10
97.87548500535175
 20
96.46927325260224
 30
0.0
 10
97.09566549657991
 20
96.13205026282976
 30
0.0
 10
96.57096648174135
 20
95.94093693032261
 30
0.0
 10
96.31237966479664
 20
95.8467507646712
 30
0.0
  0
LINE
  5
219
330
1F
100
AcDbEntity
  8
0
  6
Continuous
 62
     7
370
    15
100
AcDbLine
 10
94.5799773894
 20
107.7855020623
 30
0.0
 11
85.4997223345
 21
106.5093554418
 31
0.0
  0
LINE
  5
21A
330
1F
100
AcDbEntity
  8
0
  6
Continuous
 62
     7
370
    15
100
AcDbLine
 10
83.8851536959
 20
117.2818698317
 30
0.0
 11
85.4997223345
 21
106.5093554418
 31
0.0
  0
LINE
  5
21B
330
1F
100
AcDbEntity
  8
0
  6
Continuous
 62
     7
370
    15
100
AcDbLine
 10
107.6034954153
 20
120.6152651787
 30
0.0
 11
83.8851536959
 21
117.2818698317
 31
0.0
  0
LINE
  5
21C
330
1F
100
AcDbEntity
  8
0
  6
Continuous
 62
     7
370
    15
100
AcDbLine
 10
107.6034954153
 20
108.7933532756
 30
0.0
 11
107.6034954153
 21
120.6152651787
 31
0.0
  0
LINE
  5
21D
330
1F
100
AcDbEntity
  8
0
  6
Continuous
 62
     7
370
    15
100
AcDbLine
 10
95.1361250467
 20
104.0748428415
 30
0.0
 11
94.5799773894
 21
107.7855020623
 31
0.0
  0
LINE
  5
21E
330
1F
100
AcDbEntity
  8
0
  6
Continuous
 62
     7
370
    15
100
AcDbLine
 10
94.5799773894
 20
107.7855020623
 30
0.0
 11
94.5453964509
 21
107.3589302461
 31
0.0
  0
LINE
  5
21F
330
1F
100
AcDbEntity
  8
0
  6
Continuous
 62
     7
370
    15
100
AcDbLine
 10
85.4651412796
 20
106.0827836256
 30
0.0
 11
85.4997223345
 21
106.5093554418
 31
0.0
  0
LINE
  5
220
330
1F
100
AcDbEntity
  8
0
  6
Continuous
 62
     7
370
    15
100
AcDbLine
 10
85.4651412796
 20
106.0827836256
 30
0.0
 11
94.5453964509
 21
107.3589302461
 31
0.0
  0
LWPOLYLINE
  5
221
330
1F
100
AcDbEntity
  8
0
  6
Continuous
 62
     7
370
    15
100
AcDbPolyline
 90
       14
 70
   128
 43
0.0
 10
84.5757796764
 20
110.7491725918
 10
84.4945534467
 20
111.142960922
 10
84.4137151129
 20
111.4715454962
 10
84.3373182565
 20
111.7184484239
 10
84.2691936399
 20
111.8712896343
 10
84.2127573546
 20
111.9224052738
 10
84.170839224
 20
111.8692323427
 10
84.1455414761
 20
111.7144362863
 10
84.1381325721
 20
111.4657806094
 10
84.1489838771
 20
111.1357319962
 10
84.1775512658
 20
110.7408419113
 10
84.222402364
 20
110.3009112041
 10
84.2812882606
 20
109.8380001124
 10
84.3459485899
 20
109.407951669
  0
ARC
  5
222
330
1F
100
AcDbEntity
  8
0
  6
Continuous
 62
     7
370
    15
100
AcDbCircle
 10
83.808667958
 20
99.0413267114
 30
0.0
 40
0.9452356339118728
100
AcDbArc
 50
18.0697816246
 51
70.5744036301
  0
LINE
  5
223
330
1F
100
AcDbEntity
  8
0
  6
Continuous
 62
     7
370
    15
100
AcDbLine
 10
84.1230367645
 20
99.932754026
 30
0.0
 11
83.7639120277
 21
99.8822819303
 31
0.0
  0
SPLINE
  5
224
330
1F
100
AcDbEntity
  8
0
  6
Continuous
 62
     7
370
    15
100
AcDbSpline
210
0.0
220
0.0
230
1.0
 70
     8
 71
     3
 72
     8
 73
     4
 74
     0
 42
0.00000001
 43
0.00000001
 12
1.0
 22
0.0
 32
0.0
 13
1.0
 23
0.0
 33
0.0
 40
0.0
 40
0.0
 40
0.0
 40
0.0
 40
1.0
 40
1.0
 40
1.0
 40
1.0
 10
83.76391195768146
 20
99.88228251689357
 30
0.0
 10
83.72360421605917
 20
100.122368380412
 30
0.0
 10
83.68330354392528
 20
100.362482449807
 30
0.0
 10
83.64301067112731
 20
100.6026276370277
 30
0.0
  0
SPLINE
  5
225
330
1F
100
AcDbEntity
  8
0
  6
Continuous
 62
     7
370
    15
100
AcDbSpline
210
0.0
220
0.0
230
1.0
 70
     8
 71
     3
 72
    12
 73
     8
 74
     0
 42
0.00000001
 43
0.00000001
 12
1.0
 22
0.0
 32
0.0
 13
1.0
 23
0.0
 33
0.0
 40
0.0
 40
0.0
 40
0.0
 40
0.0
 40
0.25
 40
0.25
 40
0.5
 40
0.5
 40
1.0
 40
1.0
 40
1.0
 40
1.0
 10
83.64301067112731
 20
100.6026276370277
 30
0.0
 10
83.62471081457345
 20
100.711694630098
 30
0.0
 10
83.60574651424868
 20
100.8135906457578
 30
0.0
 10
83.56650195571137
 20
101.0031802649246
 30
0.0
 10
83.5468443963256
 20
101.0876697069573
 30
0.0
 10
83.48947679383467
 20
101.3021292768261
 30
0.0
 10
83.45409770272954
 20
101.3888504386751
 30
0.0
 10
83.42934346270084
 20
101.393476714811
 30
0.0
  0
ARC
  5
226
330
1F
100
AcDbEntity
  8
0
  6
Continuous
 62
     7
370
    15
100
AcDbCircle
 10
87.103494849
 20
121.0530955206
 30
0.0
 40
20.00000000000001
100
AcDbArc
 50
258.8778126822
 51
259.4142098007
  0
ARC
  5
227
330
1F
100
AcDbEntity
  8
0
  6
Continuous
 62
     7
370
    15
100
AcDbCircle
 10
87.103494849
 20
121.0530955206
 30
0.0
 40
20.00000000000001
100
AcDbArc
 50
116.5857901993
 51
117.1221873178
  0
SPLINE
  5
228
330
1F
100
AcDbEntity
  8
0
  6
Continuous
 62
     7
370
    15
100
AcDbSpline
210
0.0
220
0.0
230
1.0
 70
     8
 71
     3
 72
    12
 73
     8
 74
     0
 42
0.00000001
 43
0.00000001
 12
1.0
 22
0.0
 32
0.0
 13
1.0
 23
0.0
 33
0.0
 40
0.0
 40
0.0
 40
0.0
 40
0.0
 40
0.2499999999999993
 40
0.2499999999999993
 40
0.4999999999999987
 40
0.4999999999999987
 40
1.0
 40
1.0
 40
1.0
 40
1.0
 10
78.1527485122653
 20
138.9384006624246
 30
0.0
 10
78.1617125955818
 20
138.9428867606639
 30
0.0
 10
78.16864909772649
 20
138.9598068406977
 30
0.0
 10
78.17873501669148
 20
139.0168710031539
 30
0.0
 10
78.18177349591357
 20
139.0571374820036
 30
0.0
 10
78.18477249415056
 20
139.2054889976194
 30
0.0
 10
78.17862998691565
 20
139.3436301843304
 30
0.0
 10
78.16545937570298
 20
139.5019849689887
 30
0.0
  0
ARC
  5
229
330
1F
100
AcDbEntity
  8
0
  6
Continuous
 62
     7
370
    15
100
AcDbCircle
 10
87.103494849
 20
121.0530955206
 30
0.0
 40
20.50000000000002
100
AcDbArc
 50
113.2723839415
 51
115.8490526816
  0
LINE
  5
22A
330
1F
100
AcDbEntity
  8
0
  6
Continuous
 62
     7
370
    15
100
AcDbLine
 10
79.003887657
 20
139.8851532351
 30
0.0
 11
83.8851536959
 21
117.2818698317
 31
0.0
  0
LINE
  5
22B
330
1F
100
AcDbEntity
  8
0
  6
Continuous
 62
     7
370
    15
100
AcDbLine
 10
85.4651412796
 20
106.0827836256
 30
0.0
 11
84.5757796764
 21
110.7491725918
 31
0.0
  0
LWPOLYLINE
  5
22C
330
1F
100
AcDbEntity
  8
0
  6
Continuous
 62
     7
370
    15
100
AcDbPolyline
 90
       37
 70
   128
 43
0.0
 10
83.5226787589
 20
108.1743283059
 10
83.5781893097
 20
108.2358253982
 10
83.6172128897
 20
108.4007644888
 10
83.6385634597
 20
108.664134131
 10
83.6415925864
 20
109.0179324012
 10
83.6262080688
 20
109.451409043
 10
83.5928774308
 20
109.9513923611
 10
83.542613253
 20
110.5026915531
 10
83.4769431371
 20
111.0885558512
 10
83.3978619761
 20
111.6911830242
 10
83.307773048
 20
112.2922632705
 10
83.209413277
 20
112.8735333543
 10
83.1057717427
 20
113.417330743
 10
82.9999967813
 20
113.9071328427
 10
82.8953030854
 20
114.3280575845
 10
82.7948715873
 20
114.6673151154
 10
82.7017532996
 20
114.9145975571
 10
82.6187780462
 20
115.0623909991
 10
82.5484669171
 20
115.106204604
 10
82.4929563664
 20
115.0447079774
 10
82.4539330192
 20
114.8797688868
 10
82.4325819835
 20
114.6163987789
 10
82.4295528568
 20
114.2626009743
 10
82.4449373744
 20
113.8291243326
 10
82.478268478
 20
113.3291405488
 10
82.528532423
 20
112.7778418224
 10
82.5942027717
 20
112.1919775244
 10
82.6732836999
 20
111.5893503513
 10
82.7633728608
 20
110.988270105
 10
82.8617321662
 20
110.4070000212
 10
82.9653739333
 20
109.8632026326
 10
83.0711488947
 20
109.3734005328
 10
83.1758425906
 20
108.9524753254
 10
83.2762743216
 20
108.6132177945
 10
83.3693923764
 20
108.3659358185
 10
83.4523676298
 20
108.2181423764
 10
83.5226787589
 20
108.1743283059
  0
LINE
  5
22D
330
1F
100
AcDbEntity
  8
0
  6
Continuous
 62
     7
370
    15
100
AcDbLine
 10
107.6034954153
 20
120.6152651787
 30
0.0
 11
107.6034954153
 21
121.0530955206
 31
0.0
  0
ARC
  5
22E
330
1F
100
AcDbEntity
  8
0
  6
Continuous
 62
     7
370
    15
100
AcDbCircle
 10
87.103494849
 20
121.0530955206
 30
0.0
 40
20.5
100
AcDbArc
 50
0.0
 51
113.2723839415
  0
SPLINE
  5
22F
330
1F
100
AcDbEntity
  8
0
  6
Continuous
 62
     7
370
    15
100
AcDbSpline
210
0.0
220
0.0
230
1.0
 70
     8
 71
     3
 72
    10
 73
     6
 74
     0
 42
0.00000001
 43
0.00000001
 12
1.0
 22
0.0
 32
0.0
 13
1.0
 23
0.0
 33
0.0
 40
0.0
 40
0.0
 40
0.0
 40
0.0
 40
0.5
 40
0.5
 40
1.0
 40
1.0
 40
1.0
 40
1.0
 10
77.43271351224966
 20
138.5595511395267
 30
0.0
 10
77.57417168794129
 20
138.6376943750961
 30
0.0
 10
77.70460483766891
 20
138.7073697447218
 30
0.0
 10
77.90281944524989
 20
138.8114767514564
 30
0.0
 10
77.96928160785254
 20
138.8454109649401
 30
0.0
 10
77.98570283640265
 20
138.8538221578966
 30
0.0
  0
SPLINE
  5
230
330
1F
100
AcDbEntity
  8
0
  6
Continuous
 62
     7
370
    15
100
AcDbSpline
210
0.0
220
0.0
230
1.0
 70
     8
 71
     3
 72
    10
 73
     6
 74
     0
 42
0.00000001
 43
0.00000001
 12
1.0
 22
0.0
 32
0.0
 13
1.0
 23
0.0
 33
0.0
 40
0.0
 40
0.0
 40
0.0
 40
0.0
 40
0.5
 40
0.5
 40
1.0
 40
1.0
 40
1.0
 40
1.0
 10
83.24545585767514
 20
101.4287347631134
 30
0.0
 10
83.22737271057413
 20
101.432289808165
 30
0.0
 10
83.15569462372771
 20
101.4462713913988
 30
0.0
 10
82.93517649025058
 20
101.4919656679511
 30
0.0
 10
82.79016786265478
 20
101.5230856554968
 30
0.0
 10
82.63277631670735
 20
101.5591817061922
 30
0.0
  0
ELLIPSE
  5
231
330
1F
100
AcDbEntity
  8
0
  6
Continuous
 62
     7
370
    15
100
AcDbEllipse
 10
74.1173430927
 20
113.3058572458
 30
0.0
 11
2.082553459432475
 21
-2.014167845411649
 31
0.0
210
0.0
220
0.0
230
1.0
 40
0.7099989018
 41
0.0
 42
6.283185307179586
  0
ARC
  5
232
330
1F
100
AcDbEntity
  8
0
  6
Continuous
 62
     7
370
    15
100
AcDbCircle
 10
87.103494849
 20
121.0530955206
 30
0.0
 40
20.0
100
AcDbArc
 50
118.9168003113
 51
257.0831996887
  0
LWPOLYLINE
  5
233
330
1F
100
AcDbEntity
  8
0
  6
Continuous
 62
     7
370
    15
100
AcDbPolyline
 90
        3
 70
   128
 43
0.0
 10
72.6789081804
 20
115.713999686
 10
72.4642141126
 20
115.5662979793
 10
72.0932990648
 20
115.3772255268
  0
SPLINE
  5
234
330
1F
100
AcDbEntity
  8
0
  6
Continuous
 62
     7
370
    15
100
AcDbSpline
210
0.0
220
0.0
230
1.0
 70
     8
 71
     3
 72
    10
 73
     6
 74
     0
 42
0.00000001
 43
0.00000001
 12
1.0
 22
0.0
 32
0.0
 13
1.0
 23
0.0
 33
0.0
 40
0.0
 40
0.0
 40
0.0
 40
0.0
 40
0.3328557498792416
 40
0.6761818531061791
 40
1.0
 40
1.0
 40
1.0
 40
1.0
 10
73.50990309935445
 20
114.544115108596
 30
0.0
 10
73.5447821015357
 20
114.6595914615032
 30
0.0
 10
73.61563726428408
 20
114.8941766063508
 30
0.0
 10
73.74994050257746
 20
115.277361488623
 30
0.0
 10
73.79992049886852
 20
115.564954214953
 30
0.0
 10
73.82417976480359
 20
115.7045458305346
 30
0.0
  0
SPLINE
  5
235
330
1F
100
AcDbEntity
  8
0
  6
Continuous
 62
     7
370
    15
100
AcDbSpline
210
0.0
220
0.0
230
1.0
 70
     8
 71
     3
 72
     8
 73
     4
 74
     0
 42
0.00000001
 43
0.00000001
 12
1.0
 22
0.0
 32
0.0
 13
1.0
 23
0.0
 33
0.0
 40
0.0
 40
0.0
 40
0.0
 40
0.0
 40
1.0
 40
1.0
 40
1.0
 40
1.0
 10
73.63535681394532
 20
114.1994346516585
 30
0.0
 10
73.5808279217333
 20
114.3059929375166
 30
0.0
 10
73.53947675076047
 20
114.4205705077573
 30
0.0
 10
73.5099033287466
 20
114.5441152694339
 30
0.0
  0
SPLINE
  5
236
330
1F
100
AcDbEntity
  8
0
  6
Continuous
 62
     7
370
    15
100
AcDbSpline
210
0.0
220
0.0
230
1.0
 70
     8
 71
     3
 72
    12
 73
     8
 74
     0
 42
0.00000001
 43
0.00000001
 12
1.0
 22
0.0
 32
0.0
 13
1.0
 23
0.0
 33
0.0
 40
0.0
 40
0.0
 40
0.0
 40
0.0
 40
0.0669447765826349
 40
0.2715269422166555
 40
0.5661782525238647
 40
0.879490083121475
 40
1.0
 40
1.0
 40
1.0
 40
1.0
 10
75.24015608799094
 20
115.0438572141992
 30
0.0
 10
75.24171803144104
 20
114.9950828138571
 30
0.0
 10
75.24805324907229
 20
114.7972546268139
 30
0.0
 10
75.0365985969437
 20
114.4901071686662
 30
0.0
 10
74.5794009360311
 20
114.2202506908917
 30
0.0
 10
74.02331149933616
 20
114.116793716622
 30
0.0
 10
73.71969698457588
 20
114.1814686494335
 30
0.0
 10
73.63535690676802
 20
114.1994344863759
 30
0.0
  0
LWPOLYLINE
  5
237
330
1F
100
AcDbEntity
  8
0
  6
Continuous
 62
     7
370
    15
100
AcDbPolyline
 90
        9
 70
   128
 43
0.0
 10
73.5099030994
 20
114.5441151086
 10
73.5281020738
 20
114.4941137965
 10
73.545624908
 20
114.4459700074
 10
73.5624492503
 20
114.399745674
 10
73.578552749
 20
114.3555013325
 10
73.5939149148
 20
114.3132947247
 10
73.6085152588
 20
114.2731803331
 10
73.6223351545
 20
114.2352107774
 10
73.6353569068
 20
114.1994344864
  0
LWPOLYLINE
  5
238
330
1F
100
AcDbEntity
  8
0
  6
Continuous
 62
     7
370
    15
100
AcDbPolyline
 90
       37
 70
   128
 43
0.0
 10
82.6163445003
 20
115.0653884608
 10
82.6989556066
 20
114.9208355557
 10
82.7917944975
 20
114.6766045924
 10
82.8920401968
 20
114.3401158835
 10
82.9966477453
 20
113.9215934884
 10
83.1024371422
 20
113.4337546166
 10
83.2061955575
 20
112.891421267
 10
83.3047695327
 20
112.3110722612
 10
83.3951639346
 20
111.7103403296
 10
83.4746325258
 20
111.1074803259
 10
83.5407603867
 20
110.5208085712
 10
83.5915384218
 20
109.9681505795
 10
83.6254236623
 20
109.4662990283
 10
83.6413867641
 20
109.030502462
 10
83.6389422752
 20
108.674002425
 10
83.6181649342
 20
108.4076311301
 10
83.5796857122
 20
108.2394808393
 10
83.5246738847
 20
108.1746626507
 10
83.4548009429
 20
108.2151444491
 10
83.3721900694
 20
108.3596978198
 10
83.2793511785
 20
108.6039287831
 10
83.1791050136
 20
108.940417492
 10
83.0744979307
 20
109.3589398872
 10
82.9687080681
 20
109.846778759
 10
82.8649498857
 20
110.3891121085
 10
82.7663763761
 20
110.9694611143
 10
82.6759817414
 20
111.5701921146
 10
82.5965133831
 20
112.1730530496
 10
82.5303852893
 20
112.7597248044
 10
82.4796072542
 20
113.3123823303
 10
82.4457220137
 20
113.8142338816
 10
82.4297591447
 20
114.2500304479
 10
82.4322034008
 20
114.6065304849
 10
82.4529807418
 20
114.8729022454
 10
82.4914601966
 20
115.0410520706
 10
82.5464720241
 20
115.1058702592
 10
82.6163445003
 20
115.0653884608
  0
LWPOLYLINE
  5
239
330
1F
100
AcDbEntity
  8
0
  6
Continuous
 62
     7
370
    15
100
AcDbPolyline
 90
       28
 70
   128
 43
0.0
 10
82.7960138544
 20
113.5974787969
 10
82.8603305258
 20
113.4745111551
 10
82.934094999
 20
113.2526589419
 10
83.0133295953
 20
112.9438817363
 10
83.0937637351
 20
112.5648269292
 10
83.1710607148
 20
112.1359286692
 10
83.2410535644
 20
111.6803089019
 10
83.2999685648
 20
111.2225303288
 10
83.3446301389
 20
110.787272067
 10
83.3726303521
 20
110.3979997199
 10
83.3824597634
 20
110.0756978478
 10
83.3735884502
 20
109.837742136
 10
83.3464944139
 20
109.6969606217
 10
83.3026386667
 20
109.6609435837
 10
83.2443851381
 20
109.7316328298
 10
83.1748749464
 20
109.9052164565
 10
83.0978545695
 20
110.1723374661
 10
83.0174763091
 20
110.5185938861
 10
82.9380740747
 20
110.9253210809
 10
82.8639277592
 20
111.3705910604
 10
82.7990350648
 20
111.8303989853
 10
82.7468940392
 20
112.279956774
 10
82.7103158794
 20
112.6950286191
 10
82.6912726611
 20
113.0532385643
 10
82.690790236
 20
113.3352747049
 10
82.7088951468
 20
113.5259322684
 10
82.7446118332
 20
113.6149327133
 10
82.7960138544
 20
113.5974787969
  0
LINE
  5
23A
330
1F
100
AcDbEntity
  8
0
  6
Continuous
 62
     7
370
    15
100
AcDbLine
 10
83.1681629046
 20
112.142923833
 30
0.0
 11
83.0821827389
 21
111.9410140302
 31
0.0
  0
LINE
  5
23B
330
1F
100
AcDbEntity
  8
0
  6
Continuous
 62
     7
370
    15
100
AcDbLine
 10
83.0821827389
 20
111.9410140302
 30
0.0
 11
83.2319848109
 21
111.7148348923
 31
0.0
  0
LINE
  5
23C
330
1F
100
AcDbEntity
  8
0
  6
Continuous
 62
     7
370
    15
100
AcDbLine
 10
83.3754250183
 20
110.3419685598
 30
0.0
 11
83.3704908713
 21
110.3412747245
 31
0.0
  0
LINE
  5
23D
330
1F
100
AcDbEntity
  8
0
  6
Continuous
 62
     7
370
    15
100
AcDbLine
 10
83.1998411435
 20
111.9575505938
 30
0.0
 11
83.0821827389
 21
111.9410140302
 31
0.0
  0
ELLIPSE
  5
23E
330
1F
100
AcDbEntity
  8
0
  6
Continuous
 62
     7
370
    15
100
AcDbEllipse
 10
85.6420866942
 20
101.2426486493
 30
0.0
 11
-0.3276187943153843
 21
2.328679888184524
 31
0.0
210
0.0
220
0.0
230
1.0
 40
0.1045283628
 41
2.002261758722234
 42
2.772342728833412
  0
ARC
  5
23F
330
1F
100
AcDbEntity
  8
0
  6
Continuous
 62
     7
370
    15
100
AcDbCircle
 10
87.4571190365
 20
98.7118284726
 30
0.0
 40
2.702429407912889
100
AcDbArc
 50
183.3140619123
 51
195.8945913657
  0
LINE
  5
240
330
1F
100
AcDbEntity
  8
0
  6
Continuous
 62
     7
370
    15
100
AcDbLine
 10
84.3106440138
 20
105.2843961727
 30
0.0
 11
84.7592090126
 21
98.5556036096
 31
0.0
  0
LINE
  5
241
330
1F
100
AcDbEntity
  8
0
  6
Continuous
 62
     7
370
    15
100
AcDbLine
 10
84.3514096327
 20
110.0458210196
 30
0.0
 11
84.3106440138
 21
105.2843961727
 31
0.0
  0
LWPOLYLINE
  5
242
330
1F
100
AcDbEntity
  8
0
  6
Continuous
 62
     7
370
    15
100
AcDbPolyline
 90
        9
 70
   128
 43
0.0
 10
84.4347583465
 20
109.8973626133
 10
84.4197191167
 20
109.9704379078
 10
84.4047290142
 20
110.0318623569
 10
84.3904991038
 20
110.0787246462
 10
84.3777038958
 20
110.10880264
 10
84.3669496812
 20
110.1206704836
 10
84.3587465919
 20
110.113765658
 10
84.3534834552
 20
110.0884150576
 10
84.3514096327
 20
110.0458210196
  0
LINE
  5
243
330
1F
100
AcDbEntity
  8
0
  6
Continuous
 62
     7
370
    15
100
AcDbLine
 10
85.8295717612
 20
102.5789208572
 30
0.0
 11
84.4347583465
 21
109.8973626133
 31
0.0
  0
LINE
  5
244
330
1F
100
AcDbEntity
  8
0
  6
Continuous
 62
     7
370
    15
100
AcDbLine
 10
87.0419923435
 20
94.4895647328
 30
0.0
 11
85.8295717612
 21
102.5789208572
 31
0.0
  0
ARC
  5
245
330
1F
100
AcDbEntity
  8
0
  6
Continuous
 62
     7
370
    15
100
AcDbCircle
 10
86.1663229456
 20
94.2404987001
 30
0.0
 40
0.9104014406169391
100
AcDbArc
 50
348.1879577043
 51
15.8773050401
  0
LINE
  5
246
330
1F
100
AcDbEntity
  8
0
  6
Continuous
 62
     7
370
    15
100
AcDbLine
 10
86.1111975377
 20
94.6437861632
 30
0.0
 11
87.0574460773
 21
94.0541379016
 31
0.0
  0
LINE
  5
247
330
1F
100
AcDbEntity
  8
0
  6
Continuous
 62
     7
370
    15
100
AcDbLine
 10
84.8580111619
 20
97.971718372
 30
0.0
 11
86.1111975377
 21
94.6437861632
 31
0.0
  0
ARC
  5
248
330
1F
100
AcDbEntity
  8
0
  6
Continuous
 62
     7
370
    15
100
AcDbCircle
 10
87.3255699559
 20
98.6929038693
 30
0.0
 40
2.567362533212291
100
AcDbArc
 50
183.314181236
 51
195.8944652829
  0
LINE
  5
249
330
1F
100
AcDbEntity
  8
0
  6
Continuous
 62
     7
370
    15
100
AcDbLine
 10
84.8563634194
 20
97.9897897552
 30
0.0
 11
86.1090114908
 21
94.6632880579
 31
0.0
  0
LINE
  5
24A
330
1F
100
AcDbEntity
  8
0
  6
Continuous
 62
     7
370
    15
100
AcDbLine
 10
86.1090114908
 20
94.6632880579
 30
0.0
 11
87.054853639
 21
94.073893116
 31
0.0
  0
ARC
  5
24B
330
1F
100
AcDbEntity
  8
0
  6
Continuous
 62
     7
370
    15
100
AcDbCircle
 10
86.208284975
 20
94.2509362372
 30
0.0
 40
0.8648830959358117
100
AcDbArc
 50
348.1879570961
 51
15.8772988356
  0
LINE
  5
24C
330
1F
100
AcDbEntity
  8
0
  6
Continuous
 62
     7
370
    15
100
AcDbLine
 10
87.0401725901
 20
94.4875493508
 30
0.0
 11
85.828272799
 21
102.5734297793
 31
0.0
  0
LINE
  5
24D
330
1F
100
AcDbEntity
  8
0
  6
Continuous
 62
     7
370
    15
100
AcDbLine
 10
85.828272799
 20
102.5734297793
 30
0.0
 11
84.4340584576
 21
109.8887283217
 31
0.0
  0
LWPOLYLINE
  5
24E
330
1F
100
AcDbEntity
  8
0
  6
Continuous
 62
     7
370
    15
100
AcDbPolyline
 90
        9
 70
   128
 43
0.0
 10
84.4340584576
 20
109.8887283217
 10
84.419771038
 20
109.9581500377
 10
84.4055306501
 20
110.0165039163
 10
84.3920122701
 20
110.061022998
 10
84.3798566479
 20
110.0895969059
 10
84.3696402721
 20
110.100871497
 10
84.3618471976
 20
110.0943112608
 10
84.3568473924
 20
110.0702281903
 10
84.3548771795
 20
110.0297640871
  0
LINE
  5
24F
330
1F
100
AcDbEntity
  8
0
  6
Continuous
 62
     7
370
    15
100
AcDbLine
 10
84.3548771795
 20
110.0297640871
 30
0.0
 11
84.3141290228
 21
105.2703853558
 31
0.0
  0
LINE
  5
250
330
1F
100
AcDbEntity
  8
0
  6
Continuous
 62
     7
370
    15
100
AcDbLine
 10
84.3141290228
 20
105.2703853558
 30
0.0
 11
84.7625012379
 21
98.5444817554
 31
0.0
  0
LINE
  5
251
330
1F
100
AcDbEntity
  8
0
  6
Continuous
 62
     7
370
    15
100
AcDbLine
 10
90.51742585
 20
103.2377552103
 30
0.0
 11
85.8295717612
 21
102.5789208572
 31
0.0
  0
LINE
  5
252
330
1F
100
AcDbEntity
  8
0
  6
Continuous
 62
     7
370
    15
100
AcDbLine
 10
91.7298462577
 20
95.1484009485
 30
0.0
 11
90.51742585
 21
103.2377552103
 31
0.0
  0
ARC
  5
253
330
1F
100
AcDbEntity
  8
0
  6
Continuous
 62
     7
370
    15
100
AcDbCircle
 10
90.7153130575
 20
94.8849563756
 30
0.0
 40
1.048179687518763
100
AcDbArc
 50
350.5009449046
 51
14.5565433761
  0
LINE
  5
254
330
1F
100
AcDbEntity
  8
0
  6
Continuous
 62
     7
370
    15
100
AcDbLine
 10
86.237054375
 20
94.9574053149
 30
0.0
 11
86.1090114908
 21
94.6632880579
 31
0.0
  0
LINE
  5
255
330
1F
100
AcDbEntity
  8
0
  6
Continuous
 62
     7
370
    15
100
AcDbLine
 10
90.51742585
 20
103.2377552103
 30
0.0
 11
89.857542362
 21
106.700095893
 31
0.0
  0
LINE
  5
256
330
1F
100
AcDbEntity
  8
0
  6
Continuous
 62
     7
370
    15
100
AcDbLine
 10
86.3971287603
 20
97.3622329395
 30
0.0
 11
85.72440961
 21
101.8506619941
 31
0.0
  0
ARC
  5
257
330
1F
100
AcDbEntity
  8
0
  6
Continuous
 62
     7
370
    15
100
AcDbCircle
 10
86.050690228
 20
96.7347378525
 30
0.0
 40
0.1936964368377272
100
AcDbArc
 50
194.8891137388
 51
223.7330007378
  0
LINE
  5
258
330
1F
100
AcDbEntity
  8
0
  6
Continuous
 62
     7
370
    15
100
AcDbLine
 10
85.1681590415
 20
98.5314898055
 30
0.0
 11
85.863497165
 21
96.6849677127
 31
0.0
  0
ARC
  5
259
330
1F
100
AcDbEntity
  8
0
  6
Continuous
 62
     7
370
    15
100
AcDbCircle
 10
91.6660061476
 20
100.3817800601
 30
0.0
 40
6.756152088265448
100
AcDbArc
 50
183.314142865
 51
195.894533924
  0
LINE
  5
25A
330
1F
100
AcDbEntity
  8
0
  6
Continuous
 62
     7
370
    15
100
AcDbLine
 10
84.6722642295
 20
103.7247177075
 30
0.0
 11
84.9211532026
 21
99.9912038307
 31
0.0
  0
ARC
  5
25B
330
1F
100
AcDbEntity
  8
0
  6
Continuous
 62
     7
370
    15
100
AcDbCircle
 10
88.0514648026
 20
103.96818337
 30
0.0
 40
3.387959864360277
100
AcDbArc
 50
179.944327401
 51
184.1209429064
  0
LINE
  5
25C
330
1F
100
AcDbEntity
  8
0
  6
Continuous
 62
     7
370
    15
100
AcDbLine
 10
84.686125569
 20
106.6133813794
 30
0.0
 11
84.6635065376
 21
103.971475349
 31
0.0
  0
LWPOLYLINE
  5
25D
330
1F
100
AcDbEntity
  8
0
  6
Continuous
 62
     7
370
    15
100
AcDbPolyline
 90
        9
 70
   128
 43
0.0
 10
84.8944971207
 20
106.2422353636
 10
84.8568989299
 20
106.4249235999
 10
84.8194241393
 20
106.5784856539
 10
84.7838492468
 20
106.6956413772
 10
84.7518608775
 20
106.7708354305
 10
84.7249754574
 20
106.8005055051
 10
84.7044677343
 20
106.7832425099
 10
84.691310009
 20
106.7198660087
 10
84.686125569
 20
106.6133813794
  0
LINE
  5
25E
330
1F
100
AcDbEntity
  8
0
  6
Continuous
 62
     7
370
    15
100
AcDbLine
 10
85.6684179147
 20
102.1815515917
 30
0.0
 11
84.8944971207
 21
106.2422353636
 31
0.0
  0
ARC
  5
25F
330
1F
100
AcDbEntity
  8
0
  6
Continuous
 62
     7
370
    15
100
AcDbCircle
 10
77.2656225121
 20
100.5894850495
 30
0.0
 40
8.552288959875805
100
AcDbArc
 50
8.480140534
 51
10.7285824413
  0
ARC
  5
260
330
1F
100
AcDbEntity
  8
0
  6
Continuous
 62
     7
370
    15
100
AcDbCircle
 10
84.2079672383
 20
96.7395682603
 30
0.0
 40
2.275991975447823
100
AcDbArc
 50
348.1878861431
 51
15.8773777488
  0
LINE
  5
261
330
1F
100
AcDbEntity
  8
0
  6
Continuous
 62
     7
370
    15
100
AcDbLine
 10
85.9107311684
 20
96.6008357566
 30
0.0
 11
86.4357631057
 21
96.2736658614
 31
0.0
  0
LWPOLYLINE
  5
262
330
1F
100
AcDbEntity
  8
0
  6
Continuous
 62
     7
370
    15
100
AcDbPolyline
 90
       32
 70
   128
 43
0.0
 10
85.8349570175
 20
98.3857508611
 10
85.858659992
 20
98.5819823902
 10
85.864287043
 20
98.8704800468
 10
85.8516076682
 20
99.2394346606
 10
85.8211411964
 20
99.6737401794
 10
85.7741346685
 20
100.1556176554
 10
85.7125126626
 20
100.6653360884
 10
85.6387980152
 20
101.1820301275
 10
85.5560085605
 20
101.6845457118
 10
85.4675337309
 20
102.1523099255
 10
85.3769956724
 20
102.5661710512
 10
85.2881009327
 20
102.9091864686
 10
85.2044891202
 20
103.167313696
 10
85.1295831948
 20
103.3299859475
 10
85.066449536
 20
103.3905386787
 10
85.0176733788
 20
103.3464982968
 10
84.985251246
 20
103.199664117
 10
84.9705105051
 20
102.9560506206
 10
84.974054886
 20
102.625628547
 10
84.9957391023
 20
102.2219281506
 10
85.0346753709
 20
101.7614729564
 10
85.089269733
 20
101.2631185215
 10
85.1572870146
 20
100.7472645353
 10
85.2359426776
 20
100.2350315314
 10
85.3220164412
 20
99.7473910313
 10
85.4119844138
 20
99.3043050032
 10
85.5021635638
 20
98.9239137482
 10
85.5888615464
 20
98.621792705
 10
85.6685292078
 20
98.4103079747
 10
85.7379049398
 20
98.2981208574
 10
85.794148325
 20
98.2898209106
 10
85.8349570175
 20
98.3857508611
  0
LINE
  5
263
330
1F
100
AcDbEntity
  8
0
  6
Continuous
 62
     7
370
    15
100
AcDbLine
 10
84.5212202388
 20
105.0973549347
 30
0.0
 11
84.3141290228
 21
105.2703853558
 31
0.0
  0
LINE
  5
264
330
1F
100
AcDbEntity
  8
0
  6
Continuous
 62
     7
370
    15
100
AcDbLine
 10
86.075042082
 20
96.3863558929
 30
0.0
 11
86.0759397605
 21
96.3852606576
 31
0.0
  0
SPLINE
  5
265
330
1F
100
AcDbEntity
  8
0
  6
Continuous
 62
     7
370
    15
100
AcDbSpline
210
0.0
220
0.0
230
1.0
 70
     8
 71
     3
 72
    10
 73
     6
 74
     0
 42
0.00000001
 43
0.00000001
 12
1.0
 22
0.0
 32
0.0
 13
1.0
 23
0.0
 33
0.0
 40
0.0
 40
0.0
 40
0.0
 40
0.0
 40
0.2944402564025664
 40
0.647266370832925
 40
0.9999999999999999
 40
0.9999999999999999
 40
0.9999999999999999
 40
0.9999999999999999
 10
86.12827438485259
 20
96.27884028960932
 30
0.0
 10
86.1962173186025
 20
96.16201558064202
 30
0.0
 10
86.34557589031877
 20
95.90520047553127
 30
0.0
 10
86.38755493268354
 20
95.42923904190971
 30
0.0
 10
86.28721684341018
 20
95.11466947926328
 30
0.0
 10
86.23705437496686
 20
94.95740531493891
 30
0.0
  0
LINE
  5
266
330
1F
100
AcDbEntity
  8
0
  6
Continuous
 62
     7
370
    15
100
AcDbLine
 10
85.1895368527
 20
98.4747201066
 30
0.0
 11
85.0411238484
 21
98.3635388177
 31
0.0
  0
LINE
  5
267
330
1F
100
AcDbEntity
  8
0
  6
Continuous
 62
     7
370
    15
100
AcDbLine
 10
84.5212202388
 20
105.0973549347
 30
0.0
 11
84.6715897191
 21
104.9155849825
 31
0.0
  0
LINE
  5
268
330
1F
100
AcDbEntity
  8
0
  6
Continuous
 62
     7
370
    15
100
AcDbLine
 10
91.6242580264
 20
95.8528924595
 30
0.0
 11
90.51742585
 21
103.2377552103
 31
0.0
  0
LINE
  5
269
330
1F
100
AcDbEntity
  8
0
  6
Continuous
 62
     7
370
    15
100
AcDbLine
 10
94.9098266996
 20
103.8550674777
 30
0.0
 11
90.51742585
 21
103.2377552103
 31
0.0
  0
LINE
  5
26A
330
1F
100
AcDbEntity
  8
0
  6
Continuous
 62
     7
370
    15
100
AcDbLine
 10
96.0166588761
 20
96.470204727
 30
0.0
 11
94.9098266996
 21
103.8550674777
 31
0.0
  0
LINE
  5
26B
330
1F
100
AcDbEntity
  8
0
  6
Continuous
 62
     7
370
    15
100
AcDbLine
 10
95.1857943423
 20
103.8142327081
 30
0.0
 11
94.9098266996
 21
103.8550674777
 31
0.0
  0
LINE
  5
26C
330
1F
100
AcDbEntity
  8
0
  6
Continuous
 62
     7
370
    15
100
AcDbLine
 10
95.1857943423
 20
103.8142327081
 30
0.0
 11
96.2848155163
 21
96.4814867686
 31
0.0
  0
LINE
  5
26D
330
1F
100
AcDbEntity
  8
0
  6
Continuous
 62
     7
370
    15
100
AcDbLine
 10
94.9098266996
 20
103.8550674777
 30
0.0
 11
94.2499432116
 21
107.3174072291
 31
0.0
  0
LINE
  5
26E
330
1F
100
AcDbEntity
  8
0
  6
Continuous
 62
     7
370
    15
100
AcDbLine
 10
94.5111326277
 20
107.3541153084
 30
0.0
 11
95.1857943423
 21
103.8142327081
 31
0.0
  0
ARC
  5
26F
330
1F
100
AcDbEntity
  8
0
  6
Continuous
 62
     7
370
    15
100
AcDbCircle
 10
93.4803143934
 20
95.8115918668
 30
0.0
 40
2.620460691262108
100
AcDbArc
 50
350.5009978826
 51
14.5565104927
  0
ARC
  5
270
330
1F
100
AcDbEntity
  8
0
  6
Continuous
 62
     7
370
    15
100
AcDbCircle
 10
94.2062200192
 20
95.98919586
 30
0.0
 40
2.136096809387912
100
AcDbArc
 50
352.8318179144
 51
13.3243218073
  0
INSERT
  5
27C
330
1F
100
AcDbEntity
  8
VERMASSUNG
100
AcDbBlockReference
  2
SW_CENTERMARKSYMBOL_0
 10
87.103494849
 20
121.0530955206
 30
0.0
  0
OLE2FRAME
  5
27D
330
1F
100
AcDbEntity
  8
0
100
AcDbOle2Frame
 70
     2
  3
Paintbrush-Bild
 10
13.8511154363
 20
38.264191557
 30
0.0
 11
51.6290888628
 21
31.9806341108
 31
0.0
 71
     2
 72
     0
 73
     1
 90
    12928
310
80552BED0767C5B32B40DDAF6807D121434000000000000000006FFBDDFB85D0
310
4940DDAF6807D121434000000000000000006FFBDDFB85D04940416F4BD60AFB
310
3F4000000000000000002BED0767C5B32B40416F4BD60AFB3F40000000000000
310
0000000000000100000000010000010000000100000000000100000000320000
310
D0CF11E0A1B11AE1000000000000000000000000000000003E000300FEFF0900
310
0600000000000000000000000100000001000000000000000010000002000000
310
01000000FEFFFFFF0000000000000000FFFFFFFFFFFFFFFFFFFFFFFFFFFFFFFF
310
FFFFFFFFFFFFFFFFFFFFFFFFFFFFFFFFFFFFFFFFFFFFFFFFFFFFFFFFFFFFFFFF
310
FFFFFFFFFFFFFFFFFFFFFFFFFFFFFFFFFFFFFFFFFFFFFFFFFFFFFFFFFFFFFFFF
310
FFFFFFFFFFFFFFFFFFFFFFFFFFFFFFFFFFFFFFFFFFFFFFFFFFFFFFFFFFFFFFFF
310
FFFFFFFFFFFFFFFFFFFFFFFFFFFFFFFFFFFFFFFFFFFFFFFFFFFFFFFFFFFFFFFF
310
FFFFFFFFFFFFFFFFFFFFFFFFFFFFFFFFFFFFFFFFFFFFFFFFFFFFFFFFFFFFFFFF
310
FFFFFFFFFFFFFFFFFFFFFFFFFFFFFFFFFFFFFFFFFFFFFFFFFFFFFFFFFFFFFFFF
310
FFFFFFFFFFFFFFFFFFFFFFFFFFFFFFFFFFFFFFFFFFFFFFFFFFFFFFFFFFFFFFFF
310
FFFFFFFFFFFFFFFFFFFFFFFFFFFFFFFFFFFFFFFFFFFFFFFFFFFFFFFFFFFFFFFF
310
FFFFFFFFFFFFFFFFFFFFFFFFFFFFFFFFFFFFFFFFFFFFFFFFFFFFFFFFFFFFFFFF
310
FFFFFFFFFFFFFFFFFFFFFFFFFFFFFFFFFFFFFFFFFFFFFFFFFFFFFFFFFFFFFFFF
310
FFFFFFFFFFFFFFFFFFFFFFFFFFFFFFFFFFFFFFFFFFFFFFFFFFFFFFFFFFFFFFFF
310
FFFFFFFFFFFFFFFFFFFFFFFFFFFFFFFFFFFFFFFFFFFFFFFFFFFFFFFFFFFFFFFF
310
FFFFFFFFFFFFFFFFFFFFFFFFFFFFFFFFFFFFFFFFFFFFFFFFFFFFFFFFFFFFFFFF
310
FDFFFFFFFEFFFFFFFEFFFFFFFEFFFFFF05000000060000000700000008000000
310
090000000A0000000B0000000C0000000D0000000E0000000F00000010000000
310
11000000120000001300000014000000150000001600000017000000FEFFFFFF
310
FFFFFFFFFFFFFFFFFFFFFFFFFFFFFFFFFFFFFFFFFFFFFFFFFFFFFFFFFFFFFFFF
310
FFFFFFFFFFFFFFFFFFFFFFFFFFFFFFFFFFFFFFFFFFFFFFFFFFFFFFFFFFFFFFFF
310
FFFFFFFFFFFFFFFFFFFFFFFFFFFFFFFFFFFFFFFFFFFFFFFFFFFFFFFFFFFFFFFF
310
FFFFFFFFFFFFFFFFFFFFFFFFFFFFFFFFFFFFFFFFFFFFFFFFFFFFFFFFFFFFFFFF
310
FFFFFFFFFFFFFFFFFFFFFFFFFFFFFFFFFFFFFFFFFFFFFFFFFFFFFFFFFFFFFFFF
310
FFFFFFFFFFFFFFFFFFFFFFFFFFFFFFFFFFFFFFFFFFFFFFFFFFFFFFFFFFFFFFFF
310
FFFFFFFFFFFFFFFFFFFFFFFFFFFFFFFFFFFFFFFFFFFFFFFFFFFFFFFFFFFFFFFF
310
FFFFFFFFFFFFFFFFFFFFFFFFFFFFFFFFFFFFFFFFFFFFFFFFFFFFFFFFFFFFFFFF
310
FFFFFFFFFFFFFFFFFFFFFFFFFFFFFFFFFFFFFFFFFFFFFFFFFFFFFFFFFFFFFFFF
310
FFFFFFFFFFFFFFFFFFFFFFFFFFFFFFFFFFFFFFFFFFFFFFFFFFFFFFFFFFFFFFFF
310
FFFFFFFFFFFFFFFFFFFFFFFFFFFFFFFFFFFFFFFFFFFFFFFFFFFFFFFFFFFFFFFF
310
FFFFFFFFFFFFFFFFFFFFFFFFFFFFFFFFFFFFFFFFFFFFFFFFFFFFFFFFFFFFFFFF
310
FFFFFFFFFFFFFFFFFFFFFFFFFFFFFFFFFFFFFFFFFFFFFFFFFFFFFFFFFFFFFFFF
310
52006F006F007400200045006E00740072007900000000000000000000000000
310
0000000000000000000000000000000000000000000000000000000000000000
310
16000500FFFFFFFFFFFFFFFF020000000A00030000000000C000000000000046
310
000000000000000000000000B0E1ABABBA23CD0103000000C000000000000000
310
01004F006C006500000000000000000000000000000000000000000000000000
310
0000000000000000000000000000000000000000000000000000000000000000
310
0A000200FFFFFFFFFFFFFFFFFFFFFFFF00000000000000000000000000000000
310
0000000000000000000000000000000000000000000000001400000000000000
310
010043006F006D0070004F0062006A0000000000000000000000000000000000
310
0000000000000000000000000000000000000000000000000000000000000000
310
120002010100000003000000FFFFFFFF00000000000000000000000000000000
310
0000000000000000000000000000000000000000010000004D00000000000000
310
01004F006C006500310030004E00610074006900760065000000000000000000
310
0000000000000000000000000000000000000000000000000000000000000000
310
1A000200FFFFFFFFFFFFFFFFFFFFFFFF00000000000000000000000000000000
310
0000000000000000000000000000000000000000040000002426000000000000
310
FEFFFFFF02000000FEFFFFFFFFFFFFFFFFFFFFFFFFFFFFFFFFFFFFFFFFFFFFFF
310
FFFFFFFFFFFFFFFFFFFFFFFFFFFFFFFFFFFFFFFFFFFFFFFFFFFFFFFFFFFFFFFF
310
FFFFFFFFFFFFFFFFFFFFFFFFFFFFFFFFFFFFFFFFFFFFFFFFFFFFFFFFFFFFFFFF
310
FFFFFFFFFFFFFFFFFFFFFFFFFFFFFFFFFFFFFFFFFFFFFFFFFFFFFFFFFFFFFFFF
310
FFFFFFFFFFFFFFFFFFFFFFFFFFFFFFFFFFFFFFFFFFFFFFFFFFFFFFFFFFFFFFFF
310
FFFFFFFFFFFFFFFFFFFFFFFFFFFFFFFFFFFFFFFFFFFFFFFFFFFFFFFFFFFFFFFF
310
FFFFFFFFFFFFFFFFFFFFFFFFFFFFFFFFFFFFFFFFFFFFFFFFFFFFFFFFFFFFFFFF
310
FFFFFFFFFFFFFFFFFFFFFFFFFFFFFFFFFFFFFFFFFFFFFFFFFFFFFFFFFFFFFFFF
310
FFFFFFFFFFFFFFFFFFFFFFFFFFFFFFFFFFFFFFFFFFFFFFFFFFFFFFFFFFFFFFFF
310
FFFFFFFFFFFFFFFFFFFFFFFFFFFFFFFFFFFFFFFFFFFFFFFFFFFFFFFFFFFFFFFF
310
FFFFFFFFFFFFFFFFFFFFFFFFFFFFFFFFFFFFFFFFFFFFFFFFFFFFFFFFFFFFFFFF
310
FFFFFFFFFFFFFFFFFFFFFFFFFFFFFFFFFFFFFFFFFFFFFFFFFFFFFFFFFFFFFFFF
310
FFFFFFFFFFFFFFFFFFFFFFFFFFFFFFFFFFFFFFFFFFFFFFFFFFFFFFFFFFFFFFFF
310
FFFFFFFFFFFFFFFFFFFFFFFFFFFFFFFFFFFFFFFFFFFFFFFFFFFFFFFFFFFFFFFF
310
FFFFFFFFFFFFFFFFFFFFFFFFFFFFFFFFFFFFFFFFFFFFFFFFFFFFFFFFFFFFFFFF
310
FFFFFFFFFFFFFFFFFFFFFFFFFFFFFFFFFFFFFFFFFFFFFFFFFFFFFFFFFFFFFFFF
310
0100000200000000000000000000000000000000000000000000000000000000
310
0000000000000000000000000000000000000000000000000000000000000000
310
0100FEFF030A0000FFFFFFFF0A00030000000000C00000000000004607000000
310
5042727573680007000000504272757368000700000050427275736800F439B2
310
7100000000000000000000000000000000000000000000000000000000000000
310
0000000000000000000000000000000000000000000000000000000000000000
310
0000000000000000000000000000000000000000000000000000000000000000
310
0000000000000000000000000000000000000000000000000000000000000000
310
0000000000000000000000000000000000000000000000000000000000000000
310
0000000000000000000000000000000000000000000000000000000000000000
310
0000000000000000000000000000000000000000000000000000000000000000
310
0000000000000000000000000000000000000000000000000000000000000000
310
0000000000000000000000000000000000000000000000000000000000000000
310
0000000000000000000000000000000000000000000000000000000000000000
310
0000000000000000000000000000000000000000000000000000000000000000
310
0000000000000000000000000000000000000000000000000000000000000000
310
20260000424D0E260000000000003E00000028000000B40200006E0000000100
310
01000000000000000000130B0000130B00000200000002000000000000FFFFFF
310
FFFFFFFFFFFFFFFFFFFFFFFFFFFFFFFFFFFFFFFFFFFFFFFFFFFFFFFFFFFFFFFF
310
FFFFFFFFFFFFFFFFFFFFFFFFFFFFFFFFFFFFFFFFFFFFFFFFFFFFFFFFFFFFFFFF
310
FFFFFFFFFFFFFFFFFFFFFFFFFFFFFFFFFFFFFFFFFFFFFFFFF000FFFFFFFFFFFF
310
FFFFFFFFFFFFFFFFFFFFFFFFFFFFFFFFFFFFFFFFFFFFFFFFFFFFFFFFFFFFFFFF
310
FFFFFFFFFFFFFFFFFFFFFFFFFFFFFFFFFFFFFFFFFFFFFFFFFFFFFFFFFFFFFFFF
310
FFFFFFFFFFFFFFFFFFFFFFFFFFFFFFFFF000FFFFFFFFFFFFFFFFFFFFFFFFFFFF
310
FFFFFFFFFFFFFFFFFFFFFFFFFFFFFFFFFFFFFFFFFFFFFFFFFFFFFFFFFFFFFFFF
310
FFFFFFFFFFFFFFFFFFFFFFFFFFFFFFFFFFFFFFFFFFFFFFFFFFFFFFFFFFFFFFFF
310
FFFFFFFFFFFFFFFFF000FFFFFFFFFFFFFFFFFFFFFFFFFFFFFFFFFFFFFFFFFFFF
310
FFFFFFFFFFFFFFFFFFFFFFFFFFFFFFFFFFFFFFFFFFFFFFFFFFFFFFFFFFFFFFFF
310
FFFFFFFFFFFFFFFFFFFFFFFFFFFFFFFFFFFFFFFFFFFFFFFFFFFFFFFFFFFFFFFF
310
F000FFFFFFFFFFFFFFFFFFFFFFFFFFFFFFFFFFFFFFFFFFFFFFFFFFFFFFFFFFFF
310
FFFFFFFFFFFFFFFFFFFFFFFFFFFFFFFFFFFFFFFFFFFFFFFFFFFFFFFFFFFFFFFF
310
FFFFFFFFFFFFFFFFFFFFFFFFFFFFFFFFFFFFFFFFFFFFFFFFF000FFFFFFFFFFFF
310
FFFFFFFFFFFFFFFFFFFFFFFFFFFFFFFFFFFFFFFFFFFFFFFFFFFFFFFFFFFFFFFF
310
FFFFFFFFFFFFFFFFFFFFFFFFFFFFFFFFFFFFFFFFFFFFFFFFFFFFFFFFFFFFFFFF
310
FFFFFFFFFFFFFFFFFFFFFFFFFFFFFFFFF000FFFFFFFFFFFFFFFFFFFFFFFFFFFF
310
FFFFFFFFFFFFFFFFFFFFFFFFFFFFFFFFFFFFFFFFFFFFFFFFFFFFFFFFFFFFFFFF
310
FFFFFFFFFFFFFFFFFFFFFFFFFFFFFFFFFFFFFFFFFFFFFFFFFFFFFFFFFFFFFFFF
310
FFFFFFFFFFFFFFFFF000FFFFFFFFFFFFFFFFFFFFFFFFFFFFFFFFFFFFFFFFFFFF
310
FFFFFFFFFFFFFFFFFFFFFFFFFFFFFFFFFFFFFFFFFFFFFFFFFFFFFFFFFFFFFFFF
310
FFFFFFFFFFFFFFFFFFFFFFFFFFFFFFFFFFFFFFFFFFFFFFFFFFFFFFFFFFFFFFFF
310
F000FFFFFFFFFFFFFFFFFFFFFFFFFFFFFFFFFFFFFFFFFFFFFFFFFFFFFFFFFFFF
310
FFFFFFFFFFFFFFFFFFFFFFFFFFFFFFFFFFFFFFFFFFFFFFFFFFFFFFFFFFFFFFFF
310
FFFFFFFFFFFFFFFFFFFFFFFFFFFFFFFFFFFFFFFFFFFFFFFFF000FFFFFFFFFFFF
310
FFFFFFFFFFFFFFFFFFFFFFFFFFFFFFFFFFFFFFFFFFFFFFFFFFFFFFFFFFFFFFFF
310
FFFFFFFFFFFFFFFFFFFFFFFFFFFFFFFFFFFFFFFFFFFFFFFFFFFFFFFFFFFFFFFF
310
FFFFFFFFFFFFFFFFFFFFFFFFFFFFFFFFF000FFFFFFFFFFFFFFFFFFFFFFFFFFFF
310
FFFFFFFFFFFFFFFFFFFFFFFFFFFFFFFFFFFFFFFFFFFFFFFFFFFFFFFFFFFFFFFF
310
FFFFFFFFFFFFFFFFFFFFFFFFFFFFFFFFFFFFFFFFFFFFFFFFFFFFFFFFFFFFFFFF
310
FFFFFFFFFFFFFFFFF000FFFFFFFFFFFFFFFFFFFFFFFFFFFFFFFFFFFFFFFFFFFF
310
FFFFFFFFFFFFFFFFFFFFFFFFFFFFFFFFFFFFFFFFFFFFFFFFFFFFFFFFFFFFFFFF
310
FFFFFFFFFFFFFFFFFFFFFFFFFFFFFFFFFFFFFFFFFFFFFFFFFFFFFFFFFFFFFFFF
310
F000FFFFFFFFFFFFFFFFFFFFFFFFFFFFFFFFFFFFFFFFFFFFFFFFFFFFFFFFFFFF
310
FFFFFFFFFFFFFFFFFFFFFFFFFFFFFFFFFFFFFFFFFFFFFFFFFFFFFFFFFFFFFFFF
310
FFFFFFFFFFFFFFFFFFFFFFFFFFFFFFFFFFFFFFFFFFFFFFFFF000FFFFFFFFFFFF
310
FFFFFFFFFFFFFFFFFFFFFFFFFFFFFFFFFFFFFFFFFFFFFFFFFFFFFFFFFFFFFFFF
310
FFFFFFFFFFFFFFFFFFFFFFFFFFFFFFFFFFFFFFFFFFFFFFFFFFFFFFFFFFFFFFFF
310
FFFFFFFFFFFFFFFFFFFFFFFFFFFFFFFFF000FFFFFFFFFFFFFFFFFFFFFFFFFFFF
310
FFFFFFFFFFFFFFFFFFFFFFFFFFFFFFFFFFFFFFFFFFFFFFFFFFFFFFFFFFFFFFFF
310
FFFFFFFFFFFFFFFFFFFFFFFFFFFFFFFFFFFFFFFFFFFFFFFFFFFFFFFFFFFFFFFF
310
FFFFFFFFFFFFFFFFF000FFFFFFFFFFFFFFFFFFFFFFFFFFFFFFFFFFFFFFFFFFFF
310
FFFFFFFFFFFFFFFFFFFFFFFFFFFFFFFFFFFFFFFFFFFFFFFFFFFFFFFFFFFFFFFF
310
FFFFFFFFFFFFFFFFFFFFFFFFFFFFFFFFFFFFFFFFFFFFFFFFFFFFFFFFFFFFFFFF
310
F000FFFFFFFFFFFFFFFFFFFFFFFFFFFFFFFFFFFFFFFFFFFFFFFFFFFFFFFFFFFF
310
FFFFFFFFFFFFFFFFFFFFFFFFFFFFFFFFFFFFFFFFFFFFFFFFFFFFFFFFFFFFFFFF
310
FFFFFFFFFFFFFFFFFFFFFFFFFFFFFFFFFFFFFFFFFFFFFFFFF000FFFFFFFFFFFF
310
FFFFFFFFFFFFFFFFFFFFFFFFFFFFFFFFFFFFFFFFFFFFFFFFFFFFFFFFFFFFFFFF
310
FFFFFFFFFFFFFFFFFFFFFFFFFFFFFFFFFFFFFFFFFFFFFFFFFFFFFFFFFFFFFFFF
310
FFFFFFFFFFFFFFFFFFFFFFFFFFFFFFFFF000FFFFFFFFFFFFFFFFFFFFFFFFFFFF
310
FFFFFFFFFFFFFFFFFFFFFFFFFFFFFFFFFFFFFFFFFFFFFFFFFFFFFFFFFFFFFFFF
310
FFFFFFFFFFFFFFFFFFFFFFFFFFFFFFFFFFFFFFFFFFFFFFFFFFFFFFFFFFFFFFFF
310
FFFFFFFFFFFFFFFFF000FFFFF80003FFFFFFFFFFFFFFFFFFFFFFFFFFFFFFFFFF
310
FFFFF00007FFFFFFFFFF00007FFFFFF800000000000000007FFFFFFFFFFFFFFF
310
FFFFFFFC001FFFFFFFFFFFFFFC001FFFFFFFFFFFFFFFFFFFFFFFFFFE0007FFFF
310
F000FFFF8000007FFFFFFFF8000FFFFFC0007FFFFF80007FFFFF0000007FFFFF
310
FFF8000007FFFFF800000000000000007FFFFFF0001FFFFFFFFFFFC00001FFFF
310
FFFFFFFFC00001FFFFFFFF000000000003FFFFE000007FFFF000FFFE0000000F
310
FFFFFFF0000FFFFF80007FFFFF80007FFFFC0000001FFFFFFFC0000001FFFFF8
310
00000000000000007FFFFFF0001FFFFFFFFFFE0000003FFFFFFFFFFE0000003F
310
FFFFFF000000000003FFFF0000000FFFF000FFF800000003FFFFFFF00007FFFF
310
80007FFFFF80007FFFF000000007FFFFFF000000003FFFF80000000000000000
310
7FFFFFF0001FFFFFFFFFF80000000FFFFFFFFFF80000000FFFFFFF0000000000
310
03FFFC00000003FFF000FFE000000000FFFFFFF00007FFFF80003FFFFF80007F
310
FFC000000001FFFFFC000000001FFFF800000000000000007FFFFFF0001FFFFF
310
FFFFE000000003FFFFFFFFE000000003FFFFFF000000000003FFF000000000FF
310
F000FF80000000007FFFFFF00007FFFF80003FFFFF80007FFF8000000000FFFF
310
F80000000007FFF800000000000000007FFFFFF0001FFFFFFFFFC000000001FF
310
FFFFFFC000000001FFFFFF000000000003FFC0000000007FF000FF0000000000
310
3FFFFFE00007FFFF00003FFFFF80007FFE00000000003FFFF00000000003FFF8
310
00000000000000007FFFFFF0001FFFFFFFFF8000000000FFFFFFFF8000000000
310
FFFFFF000000000003FF80000000003FF000FE00000000001FFFFFE00003FFFF
310
00003FFFFF80007FFC00000000001FFFE00000000001FFF8000001FFFE000000
310
7FFFFFF0001FFFFFFFFE00000000003FFFFFFE00000000003FFFFF0000000000
310
03FF00000000001FF000FC00000000000FFFFFE00003FFFF00001FFFFF80007F
310
F800000000001FFFC00000000000FFF8000001FFFE0000007FFFFFF0001FFFFF
310
FFFC00000000001FFFFFFC00000000001FFFFF000000000003FE00000000000F
310
F000F8000000000007FFFFE00003FFFF00001FFFFF80007FF800000000000FFF
310
800000000000FFF8000001FFFE0000007FFFFFF0001FFFFFFFF800000000000F
310
FFFFF800000000000FFFFF000000000003FC000000000007F000F80000000000
310
03FFFFC00003FFFE00001FFFFF80007FF0000000000007FF0000000000007FF8
310
000001FFFE0000007FFFFFF0001FFFFFFFF0000000000007FFFFF00000000000
310
07FFFF000000000003F8000000000003F000F0000000000003FFFFC00001FFFE
310
00001FFFFF80007FE0000000000007FE0000000000003FF8000001FFFE000000
310
7FFFFFF0001FFFFFFFF0000000000007FFFFF0000000000007FFFF0000000000
310
03F800001F800003F000E00001FFF00001FFFFC00001FFFE00000FFFFF80007F
310
E00001FFE00003FE00001FFF00003FF8000001FFFE0000007FFFFFF0001FFFFF
310
FFE000003E000003FFFFE000003E000003FFFF000000000003F00001FFF80001
310
F000E00007FFFC0001FFFFC00001FFFE00000FFFFF80007FC0000FFFFC0003FC
310
0000FFFFC0001FF8000001FFFE0000007FFFFFF0001FFFFFFFC00003FFE00001
310
FFFFC00003FFE00001FFFF0001FFFFFFFFF00007FFFE0001F000E0000FFFFF00
310
00FFFF800001FFFC00000FFFFF80007FC0001FFFFE0001FC0001FFFFE0001FF8
310
000001FFFE0000007FFFFFF0001FFFFFFF80000FFFF80000FFFF80000FFFF800
310
00FFFF0003FFFFFFFFE0000FFFFF8000F000C0003FFFFF8000FFFF800000FFFC
310
000007FFFF80007F80003FFFFF0001FC0003FFFFF0001FF8000001FFFE000000
310
7FFFFFF0001FFFFFFF80003FFFFE0000FFFF80003FFFFE0000FFFF0003FFFFFF
310
FFE0003FFFFF8000F000C0003FFFFF8000FFFF800000FFFC000007FFFF80007F
310
80007FFFFF8001F80007FFFFF8000FF8000001FFFE0000007FFFFFF0001FFFFF
310
FF00007FFFFF00007FFF00007FFFFF00007FFF0003FFFFFFFFE0003FFFFFC000
310
F000C0007FFFFFC000FFFF000000FFFC000007FFFF80007F8000FFFFFF8000F8
310
000FFFFFF8000FF8000001FFFE0000007FFFFFF0001FFFFFFF0000FFFFFF8000
310
7FFF0000FFFFFF80007FFF0003FFFFFFFFC0007FFFFFC00070008000FFFFFFC0
310
00FFFF000000FFF8000007FFFF80007F8000FFFFFF8000F8000FFFFFF8000FF8
310
000001FFFE0000007FFFFFF0001FFFFFFE0001FFFFFFC0003FFE0001FFFFFFC0
310
003FFF0003FFFFFFFFC0007FFFFFE00070008000FFFFFFC0007FFF0000007FF8
310
000003FFFF80007F0001FFFFFF8000F8000FFFFFF8000FF8000001FFFE000000
310
7FFFFFF0001FFFFFFE0001FFFFFFC0003FFE0001FFFFFFC0003FFF0003FFFFFF
310
FFC000FFFFFFE00070008000FFFFFFC0007FFF0000007FF8000003FFFF80007F
310
0001FFFFFF8000F8001FFFFFF8000FF8000001FFFE0000007FFFFFF0001FFFFF
310
FE0003FFFFFFE0003FFE0003FFFFFFE0003FFF0003FFFFFFFFC000FFFFFFE000
310
70008000FFFFFFC0007FFE0000007FF8000003FFFF80007F0001FFFFFF8000F0
310
001FFFFFF8000FF8000001FFFE0000007FFFFFF0001FFFFFFC0003FFFFFFE000
310
1FFC0003FFFFFFE0001FFF0003FFFFFFFFC000FFFFFFC00070008000FFFFFF80
310
007FFE0000007FF0000003FFFF80007F0001FFFFFF0000F0001FFFFFF8000FF8
310
000001FFFE0000007FFFFFF0001FFFFFFC0007FFFFFFF0001FFC0007FFFFFFF0
310
001FFF0003FFFFFFFFC000FFFFFFC00070008001FFFFFF0000FFFE0000003FF0
310
000001FFFF80007F0001FFFFFF0000F8001FFFFFF0000FF8000001FFFE000000
310
7FFFFFF0001FFFFFFC0007FFFFFFF0001FFC0007FFFFFFF0001FFF0003FFFFFF
310
FFC001FFFFFF80007000FFFFFFFFFE0000FFFE0008003FF0008001FFFF80007F
310
FFFFFFFFFC0000FFFFFFFFFFE0000FF8000001FFFE0000007FFFFFF0001FFFFF
310
F8000FFFFFFFF8000FF8000FFFFFFFF8000FFF0003FFFFFFFFFFFFFFFFFF0000
310
7000FFFFFFFFFC0000FFFC0008003FF0008001FFFF80007FFFFFFFFFF80001FF
310
FFFFFFFF80000FF8000001FFFE0000007FFFFFF0001FFFFFF8000FFFFFFFF800
310
0FF8000FFFFFFFF8000FFF0003FFFFFFFFFFFFFFFFFE0000F000FFFFFFFFE000
310
00FFFC000C003FE000C001FFFF80007FFFFFFFFFC00001FFFFFFFFFE00001FF8
310
000001FFFE0000007FFFFFF0001FFFFFF8000FFFFFFFF8000FF8000FFFFFFFF8
310
000FFF0003FFFFFFFFFFFFFFFFF00000F000FFFFFFFE000001FFFC000C001FE0
310
00C000FFFF80007FFFFFFFFE000001FFFFFFFFE000001FF80FFFFFFFFFFFFFC0
310
7FFFFFF0001FFFFFF8000FFFFFFFF8000FF8000FFFFFFFF8000FFF0003FFFFFF
310
FFFFFFFFFF800000F000FFFFFFC0000001FFFC001C001FE001C000FFFF80007F
310
FFFFFF80000003FFFFFFF80000001FF80FFFFFFFFFFFFFC07FFFFFF0001FFFFF
310
F8001FFFFFFFFC000FF8001FFFFFFFFC000FFF0003FFFFFFFFFFFFFFF0000001
310
F000FFFFF800000001FFF8001C001FE001C000FFFF80007FFFFFF800000003FF
310
FFFF800000003FF80FFFFFFFFFFFFFC07FFFFFF0001FFFFFF8001FFFFFFFFC00
310
0FF8001FFFFFFFFC000FFF0003FFFFFFFFFFFFFE00000001F000FFFFC0000000
310
03FFF8001E001FC001E000FFFF80007FFFFF8000000007FFFFFC000000003FF8
310
0FFFFFFFFFFFFFC07FFFFFF0001FFFFFF8001FFFFFFFFC000FF8001FFFFFFFFC
310
000FFF0003FFFFFFFFFFFFE000000003F000FFFE0000000007FFF8001E000FC0
310
01E0007FFF80007FFFFE0000000007FFFFE0000000007FF80FFFFFFFFFFFFFC0
310
7FFFFFF0001FFFFFF0001FFFFFFFFC0007F0001FFFFFFFFC0007FF0003FFFFFF
310
FFFFFF0000000003F000FFF80000000007FFF8001E000FC003E0007FFF80007F
310
FFF0000000000FFFFF8000000000FFF80FFFFFFFFFFFFFC07FFFFFF0001FFFFF
310
F0001FFFFFFFFC0007F0001FFFFFFFFC0007FF0003FFFFFFFFFFFC0000000007
310
F000FFE0000000000FFFF0003E000FC003E0007FFF80007FFFC0000000001FFF
310
FE0000000001FFF80FFFFFFFFFFFFFC07FFFFFF0001FFFFFF0001FFFFFFFFC00
310
07F0001FFFFFFFFC0007FF0003FFFFFFFFFFF0000000000FF000FFC000000000
310
1FFFF0003F000F8003F0003FFF80007FFF80000000003FFFF80000000003FFF8
310
0FFFFFFFFFFFFFC07FFFFFF0001FFFFFF0001FFFFFFFFC0007F0001FFFFFFFFC
310
0007FF0003FFFFFFFFFFE0000000001FF000FF00000000007FFFF0003F000780
310
03F0003FFF80007FFF00000000007FFFF00000000007FFF80FFFFFFFFFFFFFC0
310
7FFFFFF0001FFFFFF0001FFFFFFFFC0007F0001FFFFFFFFC0007FF0003FFFFFF
310
FFFF80000000007FF000FE0000000000FFFFE0003F00078007F0003FFF80007F
310
FE0000000001FFFFE0000000001FFFF80FFFFFFFFFFFFFC07FFFFFF0001FFFFF
310
F0001FFFFFFFFC0007F0001FFFFFFFFC0007FF0003FFFFFFFFFF0000000000FF
310
F000FC0000000003FFFFE0007F00078007F0003FFF80007FFC0000000007FFFF
310
C0000000007FFFF80FFFFFFFFFFFFFC07FFFFFF0001FFFFFF8001FFFFFFFFC00
310
0FF8001FFFFFFFFC000FFF0003FFFFFFFFFE0000000003FFF000FC000000000F
310
FFFFE0007F80070007F8001FFF80007FF8000000001FFFFF8000000001FFFFF8
310
0FFFFFFFFFFFFFC07FFFFFF0001FFFFFF8001FFFFFFFFC000FF8001FFFFFFFFC
310
000FFF0003FFFFFFFFFC000000000FFFF000F8000000007FFFFFE0007F800700
310
07F8001FFF80007FF000000000FFFFFF800000000FFFFFF80FFFFFFFFFFFFFC0
310
7FFFFFF0001FFFFFF8000FFFFFFFF8000FF8000FFFFFFFF8000FFF0003FFFFFF
310
FFFC000000007FFFF000F800000007FFFFFFC0007F8003000FF8001FFF80007F
310
F000000007FFFFFF000000007FFFFFF80FFFFFFFFFFFFFC07FFFFFF0001FFFFF
310
F8000FFFFFFFF8000FF8000FFFFFFFF8000FFF0003FFFFFFFFF80000000FFFFF
310
F000F0000000FFFFFFFFC000FF8003000FF8001FFF80007FE0000000FFFFFFFF
310
0000000FFFFFFFF8000001FFFE0000007FFFFFF0001FFFFFF8000FFFFFFFF800
310
0FF8000FFFFFFFF8000FFF0003FFFFFFFFF8000000FFFFFFF000F000000FFFFF
310
FFFFC000FFC002000FF8000FFF80007FE000001FFFFFFFFE000001FFFFFFFFF8
310
000001FFFE0000007FFFFFF0001FFFFFF8000FFFFFFFF8000FF8000FFFFFFFF8
310
000FFF0003FFFFFFFFF000001FFFFFFFF000E00000FFFFFFFFFFC000FFC00200
310
0FFC000FFF80007FE00001FFFFFFFFFE00001FFFFFFFFFF8000001FFFE000000
310
7FFFFFF0001FFFFFFC000FFFFFFFF8001FFC000FFFFFFFF8001FFF0003FFFFFF
310
FFF00001FFFFFFFFF000E00007FFFFFFFFFF8000FFC000001FFC000FFF80007F
310
C0000FFFFFFFFFFE0000FFFFFFFFFFF8000001FFFE0000007FFFFFF0001FFFFF
310
FC0007FFFFFFF0001FFC0007FFFFFFF0001FFF0003FFFFFFFFF00007FFFFFFFF
310
F000E0001FFFFFFFFFFF8000FFC000001FFC000FFF80007FC0003FFFFFFFFFFE
310
0001FFFFFFFFFFF8000001FFFE0000007FFFFFF0001FFFFFFC0007FFFFFFF000
310
1FFC0007FFFFFFF0001FFF0003FFFFFFFFF0001FFFFFFFFFF000E0003FFFFF00
310
03FF8001FFE000001FFC0007FF80007FC0007FFFFF0007FC0003FFFFF0003FF8
310
000001FFFE0000007FFFFFF0001FFFFFFC0003FFFFFFE0001FFC0003FFFFFFE0
310
001FFF0003FFFFFFFFF0003FFFFFFFFFF000E0003FFFFF0001FF8001FFE00000
310
1FFE0007FF80007FC0007FFFFE0003FC0007FFFFE0003FF8000001FFFE000000
310
7FFFFFF0001FFFFFFE0003FFFFFFE0003FFE0003FFFFFFE0003FFF0003FFFFFF
310
FFF0003FFFFF8001F000E0003FFFFF0001FF0001FFE000001FFE0007FF80007F
310
C0007FFFFE0003FC0007FFFFE0003FF8000001FFFE0000007FFFFFF0001FFFFF
310
FE0001FFFFFFC0003FFE0001FFFFFFC0003FFF0003FFFFFFFFF0003FFFFF0001
310
F000E0003FFFFF0003FF0001FFE000003FFE0007FF80007FC0007FFFFE0003FC
310
0007FFFFE0003FF8000001FFFE0000007FFFFFF0001FFFFFFF0001FFFFFFC000
310
7FFF0001FFFFFFC0007FFF0003FFFFFFFFF0003FFFFF0001F000E0003FFFFE00
310
03FF0003FFF000003FFE0003FF80007FC0007FFFFC0003FE0007FFFFE0003FF8
310
000001FFFE0000007FFFFFF0001FFFFFFF0000FFFFFF80007FFF0000FFFFFF80
310
007FFF0003FFFFFFFFF0003FFFFF0001F000E0003FFFFE0003FF0003FFF00000
310
3FFF0003FF80007FC0007FFFFC0007FE0007FFFFC0003FF8000001FFFE000000
310
7FFFFFF0001FFFFFFF80007FFFFF0000FFFF80007FFFFF0000FFFF0003FFFFFF
310
FFF0003FFFFF0003F000E0003FFFFC0003FE0003FFF000003FFF0003FF80007F
310
E0003FFFF80007FE0003FFFFC0007FF8000001FFFE0000007FFFFFF0001FFFFF
310
FF80003FFFFE0000FFFF80003FFFFE0000FFFF0003FFFFFFFFF0001FFFFE0003
310
F000F0001FFFF80003FE0003FFF000007FFF0001FF80007FE0003FFFF00007FE
310
0001FFFF80007FF8000001FFFE0000007FFFFFF0001FFFFFFFC0000FFFF80001
310
FFFFC0000FFFF80001FFFF0003FFFFFFFFF0001FFFFC0003F000F0000FFFF000
310
07FE0007FFF800007FFF0001FF80007FE0001FFFE00007FF0000FFFE00007FF8
310
000001FFFE0000007FFFFFF0001FFFFFFFC00003FFE00001FFFFC00003FFE000
310
01FFFF0003FFFFFFFFF8000FFFF80003F000F00003FFC00007FC0007FFF80000
310
7FFF8001FF80007FF00007FF80000FFF00007FF80000FFF8000001FFFE000000
310
7F80000000000001FFE000003E000003FFFFE000003E000003FFFF0003FFFFFF
310
FFF80003FFE00007F000F800000000000FFC0007FFF800007FFF8001FF80007F
310
F000000000000FFF000000000000FFF8000001FFFE0000007F80000000000001
310
FFF0000000000007FFFFF0000000000007FFFF0003FFFFFFFFFC00007E000007
310
F000F800000000000FFC0007FFF80000FFFF8000FF80007FF800000000001FFF
310
800000000001FFF8000001FFFE0000007F80000000000001FFF800000000000F
310
FFFFF800000000000FFFFF0003FFFFFFFFFC00000000000FF000FC0000000000
310
1FFC0007FFFC0000FFFF8000FF80007FF800000000003FFFC00000000001FFF8
310
000001FFFE0000007F80000000000001FFF800000000000FFFFFF80000000000
310
0FFFFF0003FFFFFFFFFE00000000001FF000FE00000000003FF8000FFFFC0000
310
FFFF8000FF80007FFC00000000003FFFC00000000003FFF8000001FFFE000000
310
7F80000000000001FFFC00000000001FFFFFFC00000000001FFFFF0003FFFFFF
310
FFFF00000000001FF000FF00000000003FF8000FFFFC0000FFFFC000FF80007F
310
FE00000000007FFFE00000000007FFF8000001FFFE0000007F80000000000001
310
FFFE00000000003FFFFFFE00000000003FFFFF0003FFFFFFFFFF80000000003F
310
F000FF80000000007FF8000FFFFC0001FFFFC0007F80007FFF0000000000FFFF
310
F0000000000FFFF800000000000000007F80000000000001FFFF8000000000FF
310
FFFFFF8000000000FFFFFF0003FFFFFFFFFFC0000000007FF000FFC000000000
310
FFF8000FFFFE0001FFFFC0007F80007FFF8000000001FFFFF8000000001FFFF8
310
00000000000000007F80000000000001FFFFC000000001FFFFFFFFC000000001
310
FFFFFF0003FFFFFFFFFFE000000000FFF000FFE000000003FFF0001FFFFE0001
310
FFFFC0007F80007FFFC000000007FFFFFE000000003FFFF80000000000000000
310
7F80000000000001FFFFE000000003FFFFFFFFE000000003FFFFFF0003FFFFFF
310
FFFFF000000003FFF000FFF80000000FFFF0001FFFFE0001FFFFE0007F80007F
310
FFF00000000FFFFFFF00000000FFFFF800000000000000007F80000000000001
310
FFFFF80000000FFFFFFFFFF80000000FFFFFFF0003FFFFFFFFFFFC0000000FFF
310
F000FFFE0000003FFFF0001FFFFE0003FFFFE0003F80007FFFFC0000003FFFFF
310
FFC0000003FFFFF800000000000000007F80000000000001FFFFFE0000003FFF
310
FFFFFFFE0000003FFFFFFF0003FFFFFFFFFFFF0000003FFFF000FFFF800000FF
310
FFF0001FFFFF0003FFFFE0003F80007FFFFF000001FFFFFFFFF800001FFFFFF8
310
00000000000000007F80000000000001FFFFFFC00001FFFFFFFFFFFFC00001FF
310
FFFFFF0003FFFFFFFFFFFFC00000FFFFF000FFFFF8000FFFFFFFFFFFFFFFFFFF
310
FFFFFFFFFFFFFFFFFFFFF0001FFFFFFFFFFF0000FFFFFFF80000000000000000
310
7FFFFFFFFFFFFFFFFFFFFFFC001FFFFFFFFFFFFFFC001FFFFFFFFFFFFFFFFFFF
310
FFFFFFFC001FFFFFF000FFFFFFFFFFFFFFFFFFFFFFFFFFFFFFFFFFFFFFFFFFFF
310
FFFFFFFFFFFFFFFFFFFFFFFFFFFFFFFFFFFFFFFFFFFFFFFFFFFFFFFFFFFFFFFF
310
FFFFFFFFFFFFFFFFFFFFFFFFFFFFFFFFFFFFFFFFFFFFFFFFFFFFFFFFFFFFFFFF
310
F000FFFFFFFFFFFFFFFFFFFFFFFFFFFFFFFFFFFFFFFFFFFFFFFFFFFFFFFFFFFF
310
FFFFFFFFFFFFFFFFFFFFFFFFFFFFFFFFFFFFFFFFFFFFFFFFFFFFFFFFFFFFFFFF
310
FFFFFFFFFFFFFFFFFFFFFFFFFFFFFFFFFFFFFFFFFFFFFFFFF000FFFFFFFFFFFF
310
FFFFFFFFFFFFFFFFFFFFFFFFFFFFFFFFFFFFFFFFFFFFFFFFFFFFFFFFFFFFFFFF
310
FFFFFFFFFFFFFFFFFFFFFFFFFFFFFFFFFFFFFFFFFFFFFFFFFFFFFFFFFFFFFFFF
310
FFFFFFFFFFFFFFFFFFFFFFFFFFFFFFFFF000FFFFFFFFFFFFFFFFFFFFFFFFFFFF
310
FFFFFFFFFFFFFFFFFFFFFFFFFFFFFFFFFFFFFFFFFFFFFFFFFFFFFFFFFFFFFFFF
310
FFFFFFFFFFFFFFFFFFFFFFFFFFFFFFFFFFFFFFFFFFFFFFFFFFFFFFFFFFFFFFFF
310
FFFFFFFFFFFFFFFFF000FFFFFFFFFFFFFFFFFFFFFFFFFFFFFFFFFFFFFFFFFFFF
310
FFFFFFFFFFFFFFFFFFFFFFFFFFFFFFFFFFFFFFFFFFFFFFFFFFFFFFFFFFFFFFFF
310
FFFFFFFFFFFFFFFFFFFFFFFFFFFFFFFFFFFFFFFFFFFFFFFFFFFFFFFFFFFFFFFF
310
F000FFFFFFFFFFFFFFFFFFFFFFFFFFFFFFFFFFFFFFFFFFFFFFFFFFFFFFFFFFFF
310
FFFFFFFFFFFFFFFFFFFFFFFFFFFFFFFFFFFFFFFFFFFFFFFFFFFFFFFFFFFFFFFF
310
FFFFFFFFFFFFFFFFFFFFFFFFFFFFFFFFFFFFFFFFFFFFFFFFF000FFFFFFFFFFFF
310
FFFFFFFFFFFFFFFFFFFFFFFFFFFFFFFFFFFFFFFFFFFFFFFFFFFFFFFFFFFFFFFF
310
FFFFFFFFFFFFFFFFFFFFFFFFFFFFFFFFFFFFFFFFFFFFFFFFFFFFFFFFFFFFFFFF
310
FFFFFFFFFFFFFFFFFFFFFFFFFFFFFFFFF000FFFFFFFFFFFFFFFFFFFFFFFFFFFF
310
FFFFFFFFFFFFFFFFFFFFFFFFFFFFFFFFFFFFFFFFFFFFFFFFFFFFFFFFFFFFFFFF
310
FFFFFFFFFFFFFFFFFFFFFFFFFFFFFFFFFFFFFFFFFFFFFFFFFFFFFFFFFFFFFFFF
310
FFFFFFFFFFFFFFFFF000FFFFFFFFFFFFFFFFFFFFFFFFFFFFFFFFFFFFFFFFFFFF
310
FFFFFFFFFFFFFFFFFFFFFFFFFFFFFFFFFFFFFFFFFFFFFFFFFFFFFFFFFFFFFFFF
310
FFFFFFFFFFFFFFFFFFFFFFFFFFFFFFFFFFFFFFFFFFFFFFFFFFFFFFFFFFFFFFFF
310
F000FFFFFFFFFFFFFFFFFFFFFFFFFFFFFFFFFFFFFFFFFFFFFFFFFFFFFFFFFFFF
310
FFFFFFFFFFFFFFFFFFFFFFFFFFFFFFFFFFFFFFFFFFFFFFFFFFFFFFFFFFFFFFFF
310
FFFFFFFFFFFFFFFFFFFFFFFFFFFFFFFFFFFFFFFFFFFFFFFFF000FFFFFFFFFFFF
310
FFFFFFFFFFFFFFFFFFFFFFFFFFFFFFFFFFFFFFFFFFFFFFFFFFFFFFFFFFFFFFFF
310
FFFFFFFFFFFFFFFFFFFFFFFFFFFFFFFFFFFFFFFFFFFFFFFFFFFFFFFFFFFFFFFF
310
FFFFFFFFFFFFFFFFFFFFFFFFFFFFFFFFF000FFFFFFFFFFFFFFFFFFFFFFFFFFFF
310
FFFFFFFFFFFFFFFFFFFFFFFFFFFFFFFFFFFFFFFFFFFFFFFFFFFFFFFFFFFFFFFF
310
FFFFFFFFFFFFFFFFFFFFFFFFFFFFFFFFFFFFFFFFFFFFFFFFFFFFFFFFFFFFFFFF
310
FFFFFFFFFFFFFFFFF000FFFFFFFFFFFFFFFFFFFFFFFFFFFFFFFFFFFFFFFFFFFF
310
FFFFFFFFFFFFFFFFFFFFFFFFFFFFFFFFFFFFFFFFFFFFFFFFFFFFFFFFFFFFFFFF
310
FFFFFFFFFFFFFFFFFFFFFFFFFFFFFFFFFFFFFFFFFFFFFFFFFFFFFFFFFFFFFFFF
310
F000FFFFFFFFFFFFFFFFFFFFFFFFFFFFFFFFFFFFFFFFFFFFFFFFFFFFFFFFFFFF
310
FFFFFFFFFFFFFFFFFFFFFFFFFFFFFFFFFFFFFFFFFFFFFFFFFFFFFFFFFFFFFFFF
310
FFFFFFFFFFFFFFFFFFFFFFFFFFFFFFFFFFFFFFFFFFFFFFFFF000FFFFFFFFFFFF
310
FFFFFFFFFFFFFFFFFFFFFFFFFFFFFFFFFFFFFFFFFFFFFFFFFFFFFFFFFFFFFFFF
310
FFFFFFFFFFFFFFFFFFFFFFFFFFFFFFFFFFFFFFFFFFFFFFFFFFFFFFFFFFFFFFFF
310
FFFFFFFFFFFFFFFFFFFFFFFFFFFFFFFFF000FFFFFFFFFFFFFFFFFFFFFFFFFFFF
310
FFFFFFFFFFFFFFFFFFFFFFFFFFFFFFFFFFFFFFFFFFFFFFFFFFFFFFFFFFFFFFFF
310
FFFFFFFFFFFFFFFFFFFFFFFFFFFFFFFFFFFFFFFFFFFFFFFFFFFFFFFFFFFFFFFF
310
FFFFFFFFFFFFFFFFF000FFFFFFFFFFFFFFFFFFFFFFFFFFFFFFFFFFFFFFFFFFFF
310
FFFFFFFFFFFFFFFFFFFFFFFFFFFFFFFFFFFFFFFFFFFFFFFFFFFFFFFFFFFFFFFF
310
FFFFFFFFFFFFFFFFFFFFFFFFFFFFFFFFFFFFFFFFFFFFFFFFFFFFFFFFFFFFFFFF
310
F000FFFFFFFFFFFFFFFFFFFFFFFFFFFFFFFFFFFFFFFFFFFFFFFFFFFFFFFFFFFF
310
FFFFFFFFFFFFFFFFFFFFFFFFFFFFFFFFFFFFFFFFFFFFFFFFFFFFFFFFFFFFFFFF
310
FFFFFFFFFFFFFFFFFFFFFFFFFFFFFFFFFFFFFFFFFFFFFFFFF000FFFFFFFFFFFF
310
FFFFFFFFFFFFFFFFFFFFFFFFFFFFFFFFFFFFFFFFFFFFFFFFFFFFFFFFFFFFFFFF
310
FFFFFFFFFFFFFFFFFFFFFFFFFFFFFFFFFFFFFFFFFFFFFFFFFFFFFFFFFFFFFFFF
310
FFFFFFFFFFFFFFFFFFFFFFFFFFFFFFFFF000FFFFFFFFFFFFFFFFFFFFFFFFFFFF
310
FFFFFFFFFFFFFFFFFFFFFFFFFFFFFFFFFFFFFFFFFFFFFFFFFFFFFFFFFFFFFFFF
310
FFFFFFFFFFFFFFFFFFFFFFFFFFFFFFFFFFFFFFFFFFFFFFFFFFFFFFFFFFFFFFFF
310
FFFFFFFFFFFFFFFFF000FFFFFFFFFFFFFFFFFFFFFFFFFFFFFFFFFFFFFFFFFFFF
310
FFFFFFFFFFFFFFFFFFFFFFFFFFFFFFFFFFFFFFFFFFFFFFFFFFFFFFFFFFFFFFFF
310
FFFFFFFFFFFFFFFFFFFFFFFFFFFFFFFFFFFFFFFFFFFFFFFFFFFFFFFFFFFFFFFF
310
F000FFFFFFFFFFFFFFFFFFFFFFFFFFFFFFFFFFFFFFFFFFFFFFFFFFFFFFFFFFFF
310
FFFFFFFFFFFFFFFFFFFFFFFFFFFFFFFFFFFFFFFFFFFFFFFFFFFFFFFFFFFFFFFF
310
FFFFFFFFFFFFFFFFFFFFFFFFFFFFFFFFFFFFFFFFFFFFFFFFF000FFFFFFFFFFFF
310
FFFFFFFFFFFFFFFFFFFFFFFFFFFFFFFFFFFFFFFFFFFFFFFFFFFFFFFFFFFFFFFF
310
FFFFFFFFFFFFFFFFFFFFFFFFFFFFFFFFFFFFFFFFFFFFFFFFFFFFFFFFFFFFFFFF
310
FFFFFFFFFFFFFFFFFFFFFFFFFFFFFFFFF0000000000000000000000000000000
310
0000000000000000000000000000000000000000000000000000000000000000
310
0000000000000000000000000000000000000000000000000000000000000000
310
0000000000000000000000000000000000000000000000000000000000000000
310
0000000000000000000000000000000000000000000000000000000000000000
310
0000000000000000000000000000000000000000000000000000000000000000
310
0000000000000000000000000000000000000000000000000000000000000000
310
0000000000000000000000000000000000000000000000000000000000000000
310
0000000000000000000000000000000000000000000000000000000000000000
310
0000000000000000000000000000000000000000000000000000000000000000
310
0000000000000000000000000000000000000000000000000000000000000000
310
0000000000000000000000000000000000000000000000000000000000000000
310
0000000000000000000000000000000000000000000000000000000000000000
310
0000000000000000000000000000000000000000000000000000000000000000
310
0000000000000000000000000000000000000000000000000000000000000000
310
0000000000000000000000000000000000000000000000000000000000000000
  1
OLE
  0
ENDSEC
  0
SECTION
  2
OBJECTS
  0
DICTIONARY
  5
C
330
0
100
AcDbDictionary
281
     1
  3
ACAD_GROUP
350
D
  3
ACAD_LAYOUT
350
1A
  3
ACAD_MLINESTYLE
350
17
  3
ACAD_PLOTSETTINGS
350
19
  3
ACAD_PLOTSTYLENAME
350
E
  0
DICTIONARY
  5
D
102
{ACAD_REACTORS
330
C
102
}
330
C
100
AcDbDictionary
281
     1
  0
DICTIONARY
  5
1A
102
{ACAD_REACTORS
330
C
102
}
330
C
100
AcDbDictionary
281
     1
  3
Layout1
350
1E
  3
Layout2
350
26
  3
Model
350
22
  0
DICTIONARY
  5
17
102
{ACAD_REACTORS
330
C
102
}
330
C
100
AcDbDictionary
281
     1
  3
Standard
350
18
  0
DICTIONARY
  5
19
102
{ACAD_REACTORS
330
C
102
}
330
C
100
AcDbDictionary
281
     1
  0
ACDBDICTIONARYWDFLT
  5
E
102
{ACAD_REACTORS
330
C
102
}
330
C
100
AcDbDictionary
281
     1
  3
Normal
350
F
100
AcDbDictionaryWithDefault
340
F
  0
LAYOUT
  5
1E
102
{ACAD_REACTORS
330
1A
102
}
330
1A
100
AcDbPlotSettings
  1

  2
none_device
  4

  6

 40
0.0
 41
0.0
 42
0.0
 43
0.0
 44
0.0
 45
0.0
 46
0.0
 47
0.0
 48
0.0
 49
0.0
140
0.0
141
0.0
142
1.0
143
1.0
 70
   688
 72
     0
 73
     0
 74
     5
  7

 75
    16
147
1.0
148
0.0
149
0.0
100
AcDbLayout
  1
Layout1
 70
     1
 71
     1
 10
0.0
 20
0.0
 11
420.0
 21
297.0
 12
0.0
 22
0.0
 32
0.0
 14
1.0000000000E+20
 24
1.0000000000E+20
 34
1.0000000000E+20
 15
-1.0000000000E+20
 25
-1.0000000000E+20
 35
-1.0000000000E+20
146
0.0
 13
0.0
 23
0.0
 33
0.0
 16
1.0
 26
0.0
 36
0.0
 17
0.0
 27
1.0
 37
0.0
 76
     0
330
1B
  0
LAYOUT
  5
26
102
{ACAD_REACTORS
330
1A
102
}
330
1A
100
AcDbPlotSettings
  1

  2
none_device
  4

  6

 40
0.0
 41
0.0
 42
0.0
 43
0.0
 44
0.0
 45
0.0
 46
0.0
 47
0.0
 48
0.0
 49
0.0
140
0.0
141
0.0
142
1.0
143
1.0
 70
   688
 72
     0
 73
     0
 74
     5
  7

 75
    16
147
1.0
148
0.0
149
0.0
100
AcDbLayout
  1
Layout2
 70
     1
 71
     2
 10
0.0
 20
0.0
 11
0.0
 21
0.0
 12
0.0
 22
0.0
 32
0.0
 14
0.0
 24
0.0
 34
0.0
 15
0.0
 25
0.0
 35
0.0
146
0.0
 13
0.0
 23
0.0
 33
0.0
 16
1.0
 26
0.0
 36
0.0
 17
0.0
 27
1.0
 37
0.0
 76
     0
330
23
  0
LAYOUT
  5
22
102
{ACAD_REACTORS
330
1A
102
}
330
1A
100
AcDbPlotSettings
  1

  2
none_device
  4

  6

 40
0.0
 41
0.0
 42
0.0
 43
0.0
 44
0.0
 45
0.0
 46
0.0
 47
0.0
 48
0.0
 49
0.0
140
0.0
141
0.0
142
1.0
143
1.0
 70
  1712
 72
     0
 73
     0
 74
     0
  7

 75
     0
147
1.0
148
0.0
149
0.0
100
AcDbLayout
  1
Model
 70
     1
 71
     0
 10
0.0
 20
0.0
 11
297.0
 21
210.0
 12
0.0
 22
0.0
 32
0.0
 14
0.0
 24
0.0
 34
0.0
 15
297.0
 25
210.0
 35
0.0
146
0.0
 13
0.0
 23
0.0
 33
0.0
 16
1.0
 26
0.0
 36
0.0
 17
0.0
 27
1.0
 37
0.0
 76
     0
330
1F
331
29
  0
MLINESTYLE
  5
18
102
{ACAD_REACTORS
330
17
102
}
330
17
100
AcDbMlineStyle
  2
Standard
 70
     0
  3

 62
   256
 51
90.0
 52
90.0
 71
     2
 49
0.5
 62
   256
  6
BYLAYER
 49
-0.5
 62
   256
  6
BYLAYER
  0
ACDBPLACEHOLDER
  5
F
102
{ACAD_REACTORS
330
E
102
}
330
E
  0
ENDSEC
  0
EOF
