  0
SECTION
  2
HEADER
  9
$ACADVER
  1
AC1015
  9
$ACADMAINTVER
 70
     6
  9
$DWGCODEPAGE
  3
ANSI_1252
  9
$INSBASE
 10
0.0
 20
0.0
 30
0.0
  9
$EXTMIN
 10
0.0
 20
0.0
 30
0.0
  9
$EXTMAX
 10
297.0
 20
210.0
 30
0.0
  9
$LIMMIN
 10
0.0
 20
0.0
  9
$LIMMAX
 10
297.0
 20
210.0
  9
$ORTHOMODE
 70
     0
  9
$REGENMODE
 70
     1
  9
$FILLMODE
 70
     1
  9
$QTEXTMODE
 70
     0
  9
$MIRRTEXT
 70
     1
  9
$LTSCALE
 40
1.0
  9
$ATTMODE
 70
     1
  9
$TEXTSIZE
 40
2.0
  9
$TRACEWID
 40
1.0
  9
$TEXTSTYLE
  7
Standard
  9
$CLAYER
  8
0
  9
$CELTYPE
  6
ByLayer
  9
$CECOLOR
 62
   256
  9
$CELTSCALE
 40
1.0
  9
$DISPSILH
 70
     0
  9
$DIMSCALE
 40
1.0
  9
$DIMASZ
 40
3.0
  9
$DIMEXO
 40
0.0
  9
$DIMDLI
 40
3.75
  9
$DIMRND
 40
0.0
  9
$DIMDLE
 40
0.0
  9
$DIMEXE
 40
1.0
  9
$DIMTP
 40
0.0
  9
$DIMTM
 40
0.0
  9
$DIMTXT
 40
2.0
  9
$DIMCEN
 40
2.5
  9
$DIMTSZ
 40
0.0
  9
$DIMTOL
 70
     0
  9
$DIMLIM
 70
     0
  9
$DIMTIH
 70
     1
  9
$DIMTOH
 70
     1
  9
$DIMSE1
 70
     0
  9
$DIMSE2
 70
     0
  9
$DIMTAD
 70
     1
  9
$DIMZIN
 70
     0
  9
$DIMBLK
  1

  9
$DIMASO
 70
     1
  9
$DIMSHO
 70
     1
  9
$DIMPOST
  1

  9
$DIMAPOST
  1

  9
$DIMALT
 70
     0
  9
$DIMALTD
 70
     3
  9
$DIMALTF
 40
0.0393700787
  9
$DIMLFAC
 40
1.0
  9
$DIMTOFL
 70
     1
  9
$DIMTVP
 40
0.0
  9
$DIMTIX
 70
     0
  9
$DIMSOXD
 70
     0
  9
$DIMSAH
 70
     0
  9
$DIMBLK1
  1

  9
$DIMBLK2
  1

  9
$DIMSTYLE
  2
ISO-25
  9
$DIMCLRD
 70
     0
  9
$DIMCLRE
 70
     0
  9
$DIMCLRT
 70
     0
  9
$DIMTFAC
 40
1.0
  9
$DIMGAP
 40
1.524
  9
$DIMJUST
 70
     0
  9
$DIMSD1
 70
     0
  9
$DIMSD2
 70
     0
  9
$DIMTOLJ
 70
     0
  9
$DIMTZIN
 70
     0
  9
$DIMALTZ
 70
     0
  9
$DIMALTTZ
 70
     0
  9
$DIMUPT
 70
     0
  9
$DIMDEC
 70
     2
  9
$DIMTDEC
 70
     3
  9
$DIMALTU
 70
     2
  9
$DIMALTTD
 70
     3
  9
$DIMTXSTY
  7
Standard
  9
$DIMAUNIT
 70
     0
  9
$DIMADEC
 70
     2
  9
$DIMALTRND
 40
0.0
  9
$DIMAZIN
 70
     0
  9
$DIMDSEP
 70
    44
  9
$DIMATFIT
 70
     3
  9
$DIMFRAC
 70
     0
  9
$DIMLDRBLK
  1

  9
$DIMLUNIT
 70
     2
  9
$DIMLWD
 70
    -2
  9
$DIMLWE
 70
    -2
  9
$DIMTMOVE
 70
     0
  9
$LUNITS
 70
     2
  9
$LUPREC
 70
     2
  9
$SKETCHINC
 40
1.0
  9
$FILLETRAD
 40
10.0
  9
$AUNITS
 70
     0
  9
$AUPREC
 70
     2
  9
$MENU
  1
.
  9
$ELEVATION
 40
0.0
  9
$PELEVATION
 40
0.0
  9
$THICKNESS
 40
0.0
  9
$LIMCHECK
 70
     0
  9
$CHAMFERA
 40
10.0
  9
$CHAMFERB
 40
10.0
  9
$CHAMFERC
 40
20.0
  9
$CHAMFERD
 40
0.0
  9
$SKPOLY
 70
     0
  9
$TDCREATE
 40
2456045.617285648
  9
$TDUCREATE
 40
2456045.533952315
  9
$TDUPDATE
 40
2456045.61728691
  9
$TDUUPDATE
 40
2456045.533953576
  9
$TDINDWG
 40
0.0000000116
  9
$TDUSRTIMER
 40
0.0000000116
  9
$USRTIMER
 70
     1
  9
$ANGBASE
 50
0.0
  9
$ANGDIR
 70
     0
  9
$PDMODE
 70
     0
  9
$PDSIZE
 40
-1.0
  9
$PLINEWID
 40
0.0
  9
$SPLFRAME
 70
     0
  9
$SPLINETYPE
 70
     6
  9
$SPLINESEGS
 70
     8
  9
$HANDSEED
  5
25C
  9
$SURFTAB1
 70
     6
  9
$SURFTAB2
 70
     6
  9
$SURFTYPE
 70
     6
  9
$SURFU
 70
     6
  9
$SURFV
 70
     6
  9
$UCSBASE
  2

  9
$UCSNAME
  2

  9
$UCSORG
 10
0.0
 20
0.0
 30
0.0
  9
$UCSXDIR
 10
1.0
 20
0.0
 30
0.0
  9
$UCSYDIR
 10
0.0
 20
1.0
 30
0.0
  9
$UCSORTHOREF
  2

  9
$UCSORTHOVIEW
 70
     0
  9
$UCSORGTOP
 10
0.0
 20
0.0
 30
0.0
  9
$UCSORGBOTTOM
 10
0.0
 20
0.0
 30
0.0
  9
$UCSORGLEFT
 10
0.0
 20
0.0
 30
0.0
  9
$UCSORGRIGHT
 10
0.0
 20
0.0
 30
0.0
  9
$UCSORGFRONT
 10
0.0
 20
0.0
 30
0.0
  9
$UCSORGBACK
 10
0.0
 20
0.0
 30
0.0
  9
$PUCSBASE
  2

  9
$PUCSNAME
  2

  9
$PUCSORG
 10
0.0
 20
0.0
 30
0.0
  9
$PUCSXDIR
 10
1.0
 20
0.0
 30
0.0
  9
$PUCSYDIR
 10
0.0
 20
1.0
 30
0.0
  9
$PUCSORTHOREF
  2

  9
$PUCSORTHOVIEW
 70
     0
  9
$PUCSORGTOP
 10
0.0
 20
0.0
 30
0.0
  9
$PUCSORGBOTTOM
 10
0.0
 20
0.0
 30
0.0
  9
$PUCSORGLEFT
 10
0.0
 20
0.0
 30
0.0
  9
$PUCSORGRIGHT
 10
0.0
 20
0.0
 30
0.0
  9
$PUCSORGFRONT
 10
0.0
 20
0.0
 30
0.0
  9
$PUCSORGBACK
 10
0.0
 20
0.0
 30
0.0
  9
$USERI1
 70
     0
  9
$USERI2
 70
     0
  9
$USERI3
 70
     0
  9
$USERI4
 70
     0
  9
$USERI5
 70
     0
  9
$USERR1
 40
0.0
  9
$USERR2
 40
0.0
  9
$USERR3
 40
0.0
  9
$USERR4
 40
0.0
  9
$USERR5
 40
0.0
  9
$WORLDVIEW
 70
     1
  9
$SHADEDGE
 70
     3
  9
$SHADEDIF
 70
    70
  9
$TILEMODE
 70
     1
  9
$MAXACTVP
 70
    64
  9
$PINSBASE
 10
0.0
 20
0.0
 30
0.0
  9
$PLIMCHECK
 70
     0
  9
$PEXTMIN
 10
1.0000000000E+20
 20
1.0000000000E+20
 30
1.0000000000E+20
  9
$PEXTMAX
 10
-1.0000000000E+20
 20
-1.0000000000E+20
 30
-1.0000000000E+20
  9
$PLIMMIN
 10
0.0
 20
0.0
  9
$PLIMMAX
 10
420.0
 20
297.0
  9
$UNITMODE
 70
     0
  9
$VISRETAIN
 70
     1
  9
$PLINEGEN
 70
     0
  9
$PSLTSCALE
 70
     1
  9
$TREEDEPTH
 70
  3020
  9
$CMLSTYLE
  2
Standard
  9
$CMLJUST
 70
     0
  9
$CMLSCALE
 40
20.0
  9
$PROXYGRAPHICS
 70
     1
  9
$MEASUREMENT
 70
     1
  9
$CELWEIGHT
370
    -1
  9
$ENDCAPS
280
     0
  9
$JOINSTYLE
280
     0
  9
$LWDISPLAY
290
     1
  9
$INSUNITS
 70
     4
  9
$HYPERLINKBASE
  1

  9
$STYLESHEET
  1

  9
$XEDIT
290
     1
  9
$CEPSNTYPE
380
     0
  9
$PSTYLEMODE
290
     1
  9
$FINGERPRINTGUID
  2
{05ABFA97-B134-4634-B720-E4590F23F26D}
  9
$VERSIONGUID
  2
{FAEB1C32-E019-11D5-929B-00C0DF256EC4}
  9
$EXTNAMES
290
     1
  9
$PSVPSCALE
 40
0.0
  9
$OLESTARTUP
290
     0
  0
ENDSEC
  0
SECTION
  2
CLASSES
  0
CLASS
  1
ACDBDICTIONARYWDFLT
  2
AcDbDictionaryWithDefault
  3
ObjectDBX Classes
 90
        0
280
     0
281
     0
  0
CLASS
  1
VISUALSTYLE
  2
AcDbVisualStyle
  3
ObjectDBX Classes
 90
     4095
280
     0
281
     0
  0
CLASS
  1
MATERIAL
  2
AcDbMaterial
  3
ObjectDBX Classes
 90
     1153
280
     0
281
     0
  0
CLASS
  1
ACDBPLACEHOLDER
  2
AcDbPlaceHolder
  3
ObjectDBX Classes
 90
        0
280
     0
281
     0
  0
CLASS
  1
LAYOUT
  2
AcDbLayout
  3
ObjectDBX Classes
 90
        0
280
     0
281
     0
  0
ENDSEC
  0
SECTION
  2
TABLES
  0
TABLE
  2
VPORT
  5
8
330
0
100
AcDbSymbolTable
 70
     1
  0
VPORT
  5
29
330
8
100
AcDbSymbolTableRecord
100
AcDbViewportTableRecord
  2
*Active
 70
     0
 10
0.0
 20
0.0
 11
1.0
 21
1.0
 12
148.5
 22
105.0
 13
0.0
 23
0.0
 14
10.0
 24
10.0
 15
10.0
 25
10.0
 16
0.0
 26
0.0
 36
1.0
 17
0.0
 27
0.0
 37
0.0
 40
210.0
 41
1.4142857143
 42
50.0
 43
0.0
 44
0.0
 50
0.0
 51
0.0
 71
     0
 72
  2000
 73
     1
 74
     3
 75
     0
 76
     0
 77
     0
 78
     0
281
     0
 65
     1
110
0.0
120
0.0
130
0.0
111
1.0
121
0.0
131
0.0
112
0.0
122
1.0
132
0.0
 79
     0
146
0.0
  0
ENDTAB
  0
TABLE
  2
LTYPE
  5
5
330
0
100
AcDbSymbolTable
 70
     6
  0
LTYPE
  5
14
330
5
100
AcDbSymbolTableRecord
100
AcDbLinetypeTableRecord
  2
ByBlock
 70
     0
  3

 72
    65
 73
     0
 40
0.0
  0
LTYPE
  5
15
330
5
100
AcDbSymbolTableRecord
100
AcDbLinetypeTableRecord
  2
ByLayer
 70
     0
  3

 72
    65
 73
     0
 40
0.0
  0
LTYPE
  5
16
330
5
100
AcDbSymbolTableRecord
100
AcDbLinetypeTableRecord
  2
Continuous
 70
     0
  3
Solid line
 72
    65
 73
     0
 40
0.0
  0
LTYPE
  5
3F
330
5
100
AcDbSymbolTableRecord
100
AcDbLinetypeTableRecord
  2
HIDDEN
 70
     0
  3
Hidden __ __ __ __ __ __ __ __ __ __ __ __ __ __
 72
    65
 73
     2
 40
1.905
 49
1.27
 74
     0
 49
-0.635
 74
     0
  0
LTYPE
  5
40
330
5
100
AcDbSymbolTableRecord
100
AcDbLinetypeTableRecord
  2
PHANTOM
 70
     0
  3
Phantom ______  __  __  ______  __  __  ______
 72
    65
 73
     6
 40
12.7
 49
6.35
 74
     0
 49
-1.27
 74
     0
 49
1.27
 74
     0
 49
-1.27
 74
     0
 49
1.27
 74
     0
 49
-1.27
 74
     0
  0
LTYPE
  5
41
330
5
100
AcDbSymbolTableRecord
100
AcDbLinetypeTableRecord
  2
CENTER
 70
     0
  3
Center ____ _ ____ _ ____ _ ____ _ ____ _ ____
 72
    65
 73
     4
 40
10.16
 49
6.35
 74
     0
 49
-1.27
 74
     0
 49
1.27
 74
     0
 49
-1.27
 74
     0
  0
LTYPE
  5
42
330
5
100
AcDbSymbolTableRecord
100
AcDbLinetypeTableRecord
  2
CENTERX2
 70
     0
  3
Center (2x) ________  __  ________  __  _____
 72
    65
 73
     4
 40
20.32
 49
12.7
 74
     0
 49
-2.54
 74
     0
 49
2.54
 74
     0
 49
-2.54
 74
     0
  0
LTYPE
  5
43
330
5
100
AcDbSymbolTableRecord
100
AcDbLinetypeTableRecord
  2
DOT2
 70
     0
  3
Dot (.5x) ........................................
 72
    65
 73
     2
 40
0.635
 49
0.0
 74
     0
 49
-0.635
 74
     0
  0
ENDTAB
  0
TABLE
  2
LAYER
  5
2
330
0
100
AcDbSymbolTable
 70
     5
  0
LAYER
  5
10
330
2
100
AcDbSymbolTableRecord
100
AcDbLayerTableRecord
  2
0
 70
     0
 62
     7
  6
Continuous
370
    -3
390
F
  0
LAYER
  5
44
330
2
100
AcDbSymbolTableRecord
100
AcDbLayerTableRecord
  2
FORMAT
 70
     0
 62
     7
  6
Continuous
370
    -3
390
F
  0
LAYER
  5
45
330
2
100
AcDbSymbolTableRecord
100
AcDbLayerTableRecord
  2
VERMASSUNG
 70
     0
 62
     7
  6
Continuous
370
    -3
390
F
  0
LAYER
  5
46
330
2
100
AcDbSymbolTableRecord
100
AcDbLayerTableRecord
  2
KOPF_DÜNN
 70
     0
 62
     7
  6
Continuous
370
    -3
390
F
  0
LAYER
  5
47
330
2
100
AcDbSymbolTableRecord
100
AcDbLayerTableRecord
  2
KOPF_DICK
 70
     0
 62
     7
  6
Continuous
370
    15
390
F
  0
ENDTAB
  0
TABLE
  2
STYLE
  5
3
330
0
100
AcDbSymbolTable
 70
     2
  0
STYLE
  5
11
330
3
100
AcDbSymbolTableRecord
100
AcDbTextStyleTableRecord
  2
Standard
 70
     0
 40
0.0
 41
1.0
 50
0.0
 71
     0
 42
2.0
  3
txt
  4

  0
STYLE
  5
48
330
3
100
AcDbSymbolTableRecord
100
AcDbTextStyleTableRecord
  2
SLDTEXTSTYLE0
 70
     0
 40
0.0
 41
0.7
 50
0.0
 71
     0
 42
0.2
  3
TXT
  4

  0
ENDTAB
  0
TABLE
  2
VIEW
  5
6
330
0
100
AcDbSymbolTable
 70
     0
  0
ENDTAB
  0
TABLE
  2
UCS
  5
7
330
0
100
AcDbSymbolTable
 70
     0
  0
ENDTAB
  0
TABLE
  2
APPID
  5
9
330
0
100
AcDbSymbolTable
 70
     1
  0
APPID
  5
12
330
9
100
AcDbSymbolTableRecord
100
AcDbRegAppTableRecord
  2
ACAD
 70
     0
  0
ENDTAB
  0
TABLE
  2
DIMSTYLE
  5
A
330
0
100
AcDbSymbolTable
 70
     5
100
AcDbDimStyleTable
  0
DIMSTYLE
105
27
330
A
100
AcDbSymbolTableRecord
100
AcDbDimStyleTableRecord
  2
ISO-25
 70
     0
 41
2.5
 42
0.625
 43
3.75
 44
1.25
 73
     0
 74
     0
 77
     1
 78
     8
140
2.5
141
2.5
143
0.0393700787
147
0.625
171
     3
172
     1
178
     0
271
     2
272
     2
274
     3
278
    44
283
     0
284
     8
340
11
  0
DIMSTYLE
105
9D
102
{ACAD_REACTORS
330
9C
102
}
330
A
100
AcDbSymbolTableRecord
100
AcDbDimStyleTableRecord
  2
SLDDIMSTYLE0
 70
     0
 41
3.0
 44
0.0
 45
0.000000001
 73
     0
 74
     0
 77
     1
 78
    12
 79
     3
140
2.0
147
0.5
172
     1
173
     1
178
     0
271
     2
272
     3
276
     2
284
    12
289
     0
340
48
  0
DIMSTYLE
105
222
102
{ACAD_REACTORS
330
221
330
22E
102
}
330
A
100
AcDbSymbolTableRecord
100
AcDbDimStyleTableRecord
  2
SLDDIMSTYLE1
 70
     0
 41
3.0
 44
0.0
 45
0.000000001
 47
0.1
 48
0.1
 71
     1
 73
     0
 74
     0
 77
     1
 78
    12
 79
     3
140
2.0
147
0.5
173
     1
178
     0
271
     2
272
     1
276
     2
284
     8
340
48
  0
DIMSTYLE
105
23B
102
{ACAD_REACTORS
330
23A
330
24F
102
}
330
A
100
AcDbSymbolTableRecord
100
AcDbDimStyleTableRecord
  2
SLDDIMSTYLE2
 70
     0
 41
3.0
 44
0.0
 45
0.000000001
 73
     0
 74
     0
 77
     1
 78
    12
 79
     3
140
2.0
147
0.5
173
     1
178
     0
271
     2
272
     3
276
     2
284
    12
340
48
  0
DIMSTYLE
105
246
102
{ACAD_REACTORS
330
245
102
}
330
A
100
AcDbSymbolTableRecord
100
AcDbDimStyleTableRecord
  2
SLDDIMSTYLE3
 70
     0
 41
3.0
 44
0.0
 73
     0
 74
     0
 77
     1
 78
    12
 79
     3
140
2.0
147
0.5
173
     1
178
     0
179
     1
272
     3
276
     2
284
    12
340
48
  0
ENDTAB
  0
TABLE
  2
BLOCK_RECORD
  5
1
330
0
100
AcDbSymbolTable
 70
     8
  0
BLOCK_RECORD
  5
1F
330
1
100
AcDbSymbolTableRecord
100
AcDbBlockTableRecord
  2
*Model_Space
340
22
  0
BLOCK_RECORD
  5
1B
330
1
100
AcDbSymbolTableRecord
100
AcDbBlockTableRecord
  2
*Paper_Space
340
1E
  0
BLOCK_RECORD
  5
23
330
1
100
AcDbSymbolTableRecord
100
AcDbBlockTableRecord
  2
*Paper_Space0
340
26
  0
BLOCK_RECORD
  5
9E
330
1
100
AcDbSymbolTableRecord
100
AcDbBlockTableRecord
  2
_D
340
0
  0
BLOCK_RECORD
  5
AB
330
1
100
AcDbSymbolTableRecord
100
AcDbBlockTableRecord
  2
SW_CENTERMARKSYMBOL_0
340
0
102
{BLKREFS
331
B6
102
}
  0
BLOCK_RECORD
  5
223
330
1
100
AcDbSymbolTableRecord
100
AcDbBlockTableRecord
  2
_D_1
340
0
  0
BLOCK_RECORD
  5
22F
330
1
100
AcDbSymbolTableRecord
100
AcDbBlockTableRecord
  2
_D_2
340
0
  0
BLOCK_RECORD
  5
23C
330
1
100
AcDbSymbolTableRecord
100
AcDbBlockTableRecord
  2
_D_3
340
0
  0
BLOCK_RECORD
  5
247
330
1
100
AcDbSymbolTableRecord
100
AcDbBlockTableRecord
  2
_D_4
340
0
  0
BLOCK_RECORD
  5
250
330
1
100
AcDbSymbolTableRecord
100
AcDbBlockTableRecord
  2
_D_5
340
0
  0
ENDTAB
  0
ENDSEC
  0
SECTION
  2
BLOCKS
  0
BLOCK
  5
20
330
1F
100
AcDbEntity
  8
0
100
AcDbBlockBegin
  2
*Model_Space
 70
     0
 10
0.0
 20
0.0
 30
0.0
  3
*Model_Space
  1

  0
ENDBLK
  5
21
330
1F
100
AcDbEntity
  8
0
100
AcDbBlockEnd
  0
BLOCK
  5
1C
330
1B
100
AcDbEntity
 67
     1
  8
0
100
AcDbBlockBegin
  2
*Paper_Space
 70
     0
 10
0.0
 20
0.0
 30
0.0
  3
*Paper_Space
  1

  0
ENDBLK
  5
1D
330
1B
100
AcDbEntity
 67
     1
  8
0
100
AcDbBlockEnd
  0
BLOCK
  5
24
330
23
100
AcDbEntity
  8
0
100
AcDbBlockBegin
  2
*Paper_Space0
 70
     0
 10
0.0
 20
0.0
 30
0.0
  3
*Paper_Space0
  1

  0
ENDBLK
  5
25
330
23
100
AcDbEntity
  8
0
100
AcDbBlockEnd
  0
BLOCK
  5
9F
330
9E
100
AcDbEntity
  8
0
100
AcDbBlockBegin
  2
_D
 70
     0
 10
0.0
 20
0.0
 30
0.0
  3
_D
  1

  0
SOLID
  5
A1
330
9E
100
AcDbEntity
  8
VERMASSUNG
100
AcDbTrace
 10
101.2303548558
 20
93.4569447862
 30
0.0
 11
103.0334771478
 21
91.0174263911
 31
0.0
 12
103.6698732509
 22
91.6538224942
 32
0.0
 13
103.6698732509
 23
91.6538224942
 33
0.0
  0
SOLID
  5
A2
330
9E
100
AcDbEntity
  8
VERMASSUNG
100
AcDbTrace
 10
65.8750157964
 20
128.8122838455
 30
0.0
 11
64.0718935044
 21
131.2518022406
 31
0.0
 12
63.4354974014
 22
130.6154061375
 32
0.0
 13
63.4354974014
 23
130.6154061375
 33
0.0
  0
LINE
  5
A3
330
9E
100
AcDbEntity
  8
VERMASSUNG
100
AcDbLine
 10
101.2303548558
 20
93.4569447862
 30
0.0
 11
101.937461637
 21
94.1640515674
 31
0.0
  0
LINE
  5
A4
330
9E
100
AcDbEntity
  8
VERMASSUNG
100
AcDbLine
 10
65.8750157964
 20
128.8122838455
 30
0.0
 11
66.5821225776
 21
129.5193906267
 31
0.0
  0
LINE
  5
A5
330
9E
100
AcDbEntity
  8
VERMASSUNG
100
AcDbLine
 10
101.2303548558
 20
93.4569447862
 30
0.0
 11
105.4729955429
 21
89.2143040991
 31
0.0
  0
LINE
  5
A6
330
9E
100
AcDbEntity
  8
VERMASSUNG
100
AcDbLine
 10
101.2303548558
 20
93.4569447862
 30
0.0
 11
65.8750157964
 21
128.8122838455
 31
0.0
  0
LINE
  5
A7
330
9E
100
AcDbEntity
  8
VERMASSUNG
100
AcDbLine
 10
65.8750157964
 20
128.8122838455
 30
0.0
 11
54.3226484815
 21
140.3646511605
 31
0.0
  0
MTEXT
  5
A8
330
9E
100
AcDbEntity
  8
VERMASSUNG
100
AcDbMText
 10
56.1456655619
 20
142.1876682409
 30
0.1
 40
2.0
 41
0.0
 71
     1
 72
     1
  1
%%c
  7
SLDTEXTSTYLE0
 11
0.7071067811865464
 21
-0.7071067811865488
 31
0.0
 73
     1
 44
1.0
  0
MTEXT
  5
A9
330
9E
100
AcDbEntity
  8
VERMASSUNG
100
AcDbMText
 10
58.8397424151
 20
139.7764341136
 30
0.1
 40
2.0
 41
0.0
 71
     1
 72
     1
  1
50
  7
SLDTEXTSTYLE0
 11
0.7071067811865464
 21
-0.7071067811865488
 31
0.0
 73
     1
 44
1.0
  0
MTEXT
  5
AA
330
9E
100
AcDbEntity
  8
VERMASSUNG
100
AcDbMText
 10
62.9321233126
 20
135.6840532161
 30
0.1
 40
2.0
 41
0.0
 71
     1
 72
     1
  1
min.
  7
SLDTEXTSTYLE0
 11
0.7071067811865464
 21
-0.7071067811865488
 31
0.0
 73
     1
 44
1.0
  0
ENDBLK
  5
A0
330
9E
100
AcDbEntity
  8
0
100
AcDbBlockEnd
  0
BLOCK
  5
AC
330
AB
100
AcDbEntity
  8
0
100
AcDbBlockBegin
  2
SW_CENTERMARKSYMBOL_0
 70
     0
 10
0.0
 20
0.0
 30
0.0
  3
SW_CENTERMARKSYMBOL_0
  1

  0
LINE
  5
AE
330
AB
100
AcDbEntity
  8
VERMASSUNG
 62
     0
100
AcDbLine
 10
0.0
 20
0.0
 30
0.0
 11
0.0
 21
2.5
 31
0.0
  0
LINE
  5
AF
330
AB
100
AcDbEntity
  8
VERMASSUNG
 62
     0
100
AcDbLine
 10
0.0
 20
0.0
 30
0.0
 11
-2.5
 21
0.0
 31
0.0
  0
LINE
  5
B0
330
AB
100
AcDbEntity
  8
VERMASSUNG
 62
     0
100
AcDbLine
 10
0.0
 20
0.0
 30
0.0
 11
0.0
 21
-2.5
 31
0.0
  0
LINE
  5
B1
330
AB
100
AcDbEntity
  8
VERMASSUNG
 62
     0
100
AcDbLine
 10
0.0
 20
0.0
 30
0.0
 11
2.5
 21
0.0
 31
0.0
  0
LINE
  5
B2
330
AB
100
AcDbEntity
  8
VERMASSUNG
 62
     0
100
AcDbLine
 10
0.0
 20
5.0
 30
0.0
 11
0.0
 21
23.0
 31
0.0
  0
LINE
  5
B3
330
AB
100
AcDbEntity
  8
VERMASSUNG
 62
     0
100
AcDbLine
 10
-5.0
 20
0.0
 30
0.0
 11
-23.0
 21
0.0
 31
0.0
  0
LINE
  5
B4
330
AB
100
AcDbEntity
  8
VERMASSUNG
 62
     0
100
AcDbLine
 10
0.0
 20
-5.0
 30
0.0
 11
0.0
 21
-23.0
 31
0.0
  0
LINE
  5
B5
330
AB
100
AcDbEntity
  8
VERMASSUNG
 62
     0
100
AcDbLine
 10
5.0
 20
0.0
 30
0.0
 11
23.0
 21
0.0
 31
0.0
  0
ENDBLK
  5
AD
330
AB
100
AcDbEntity
  8
0
100
AcDbBlockEnd
  0
BLOCK
  5
224
330
223
100
AcDbEntity
  8
0
100
AcDbBlockBegin
  2
_D_1
 70
     0
 10
0.0
 20
0.0
 30
0.0
  3
_D_1
  1

  0
SOLID
  5
226
330
223
100
AcDbEntity
  8
VERMASSUNG
100
AcDbTrace
 10
239.1708437523
 20
136.4240591595
 30
0.0
 11
238.7208437523
 21
133.4240591595
 31
0.0
 12
239.6208437523
 22
133.4240591595
 32
0.0
 13
239.6208437523
 23
133.4240591595
 33
0.0
  0
SOLID
  5
227
330
223
100
AcDbEntity
  8
VERMASSUNG
100
AcDbTrace
 10
239.1708437523
 20
109.4240591595
 30
0.0
 11
239.6208437523
 21
112.4240591595
 31
0.0
 12
238.7208437523
 22
112.4240591595
 32
0.0
 13
238.7208437523
 23
112.4240591595
 33
0.0
  0
LINE
  5
228
330
223
100
AcDbEntity
  8
VERMASSUNG
100
AcDbLine
 10
223.8777565033
 20
136.4240591595
 30
0.0
 11
240.1708437523
 21
136.4240591595
 31
0.0
  0
LINE
  5
229
330
223
100
AcDbEntity
  8
VERMASSUNG
100
AcDbLine
 10
223.8777565033
 20
109.4240591595
 30
0.0
 11
240.1708437523
 21
109.4240591595
 31
0.0
  0
LINE
  5
22A
330
223
100
AcDbEntity
  8
VERMASSUNG
100
AcDbLine
 10
239.1708437523
 20
136.4240591595
 30
0.0
 11
239.1708437523
 21
109.4240591595
 31
0.0
  0
MTEXT
  5
22B
330
223
100
AcDbEntity
  8
VERMASSUNG
100
AcDbMText
 10
236.5927083892
 20
118.3740589725
 30
0.1
 40
2.0
 41
0.0
 71
     1
 72
     1
  1
27
  7
SLDTEXTSTYLE0
 11
-7.044195017643634E-15
 21
1.0
 31
0.0
 73
     1
 44
1.0
  0
MTEXT
  5
22C
330
223
100
AcDbEntity
  8
VERMASSUNG
100
AcDbMText
 10
236.5927083892
 20
124.1615590746
 30
0.1
 40
2.0
 41
0.0
 71
     1
 72
     1
  1

  7
SLDTEXTSTYLE0
 11
-7.044195017643634E-15
 21
1.0
 31
0.0
 73
     1
 44
1.0
  0
MTEXT
  5
22D
330
223
100
AcDbEntity
  8
VERMASSUNG
100
AcDbMText
 10
237.087242252
 20
124.1740593644
 30
0.1
 40
1.5
 41
0.0
 71
     1
 72
     1
  1
±0.1
  7
SLDTEXTSTYLE0
 11
-7.044195017643634E-15
 21
1.0
 31
0.0
 73
     1
 44
1.0
  0
ENDBLK
  5
225
330
223
100
AcDbEntity
  8
0
100
AcDbBlockEnd
  0
BLOCK
  5
230
330
22F
100
AcDbEntity
  8
0
100
AcDbBlockBegin
  2
_D_2
 70
     0
 10
0.0
 20
0.0
 30
0.0
  3
_D_2
  1

  0
SOLID
  5
232
330
22F
100
AcDbEntity
  8
VERMASSUNG
100
AcDbTrace
 10
173.8777565033
 20
140.5778193244
 30
0.0
 11
176.8777565033
 21
140.1278193244
 31
0.0
 12
176.8777565033
 22
141.0278193244
 32
0.0
 13
176.8777565033
 23
141.0278193244
 33
0.0
  0
SOLID
  5
233
330
22F
100
AcDbEntity
  8
VERMASSUNG
100
AcDbTrace
 10
223.8777565033
 20
140.5778193244
 30
0.0
 11
220.8777565033
 21
141.0278193244
 31
0.0
 12
220.8777565033
 22
140.1278193244
 32
0.0
 13
220.8777565033
 23
140.1278193244
 33
0.0
  0
LINE
  5
234
330
22F
100
AcDbEntity
  8
VERMASSUNG
100
AcDbLine
 10
173.8777565033
 20
129.1240591595
 30
0.0
 11
173.8777565033
 21
141.5778193244
 31
0.0
  0
LINE
  5
235
330
22F
100
AcDbEntity
  8
VERMASSUNG
100
AcDbLine
 10
223.8777565033
 20
136.4240591595
 30
0.0
 11
223.8777565033
 21
141.5778193244
 31
0.0
  0
LINE
  5
236
330
22F
100
AcDbEntity
  8
VERMASSUNG
100
AcDbLine
 10
173.8777565033
 20
140.5778193244
 30
0.0
 11
223.8777565033
 21
140.5778193244
 31
0.0
  0
MTEXT
  5
237
330
22F
100
AcDbEntity
  8
VERMASSUNG
100
AcDbMText
 10
194.3277563163
 20
143.1559546875
 30
0.1
 40
2.0
 41
0.0
 71
     1
 72
     1
  1
50
  7
SLDTEXTSTYLE0
 73
     1
 44
1.0
  0
MTEXT
  5
238
330
22F
100
AcDbEntity
  8
VERMASSUNG
100
AcDbMText
 10
200.1152564184
 20
143.1559546875
 30
0.1
 40
2.0
 41
0.0
 71
     1
 72
     1
  1

  7
SLDTEXTSTYLE0
 73
     1
 44
1.0
  0
MTEXT
  5
239
330
22F
100
AcDbEntity
  8
VERMASSUNG
100
AcDbMText
 10
200.1277567082
 20
142.6614208247
 30
0.1
 40
1.5
 41
0.0
 71
     1
 72
     1
  1
±0.1
  7
SLDTEXTSTYLE0
 73
     1
 44
1.0
  0
ENDBLK
  5
231
330
22F
100
AcDbEntity
  8
0
100
AcDbBlockEnd
  0
BLOCK
  5
23D
330
23C
100
AcDbEntity
  8
0
100
AcDbBlockBegin
  2
_D_3
 70
     0
 10
0.0
 20
0.0
 30
0.0
  3
_D_3
  1

  0
SOLID
  5
23F
330
23C
100
AcDbEntity
  8
VERMASSUNG
100
AcDbTrace
 10
149.8777565033
 20
147.2817054152
 30
0.0
 11
152.8777565033
 21
146.8317054152
 31
0.0
 12
152.8777565033
 22
147.7317054152
 32
0.0
 13
152.8777565033
 23
147.7317054152
 33
0.0
  0
SOLID
  5
240
330
23C
100
AcDbEntity
  8
VERMASSUNG
100
AcDbTrace
 10
223.8777565033
 20
147.2817054152
 30
0.0
 11
220.8777565033
 21
147.7317054152
 31
0.0
 12
220.8777565033
 22
146.8317054152
 32
0.0
 13
220.8777565033
 23
146.8317054152
 33
0.0
  0
LINE
  5
241
330
23C
100
AcDbEntity
  8
VERMASSUNG
100
AcDbLine
 10
149.8777565033
 20
122.0555641416
 30
0.0
 11
149.8777565033
 21
148.2817054152
 31
0.0
  0
LINE
  5
242
330
23C
100
AcDbEntity
  8
VERMASSUNG
100
AcDbLine
 10
223.8777565033
 20
136.4240591595
 30
0.0
 11
223.8777565033
 21
148.2817054152
 31
0.0
  0
LINE
  5
243
330
23C
100
AcDbEntity
  8
VERMASSUNG
100
AcDbLine
 10
149.8777565033
 20
147.2817054152
 30
0.0
 11
223.8777565033
 21
147.2817054152
 31
0.0
  0
MTEXT
  5
244
330
23C
100
AcDbEntity
  8
VERMASSUNG
100
AcDbMText
 10
184.4777563894
 20
149.8598407783
 30
0.1
 40
2.0
 41
0.0
 71
     1
 72
     1
  1
74
  7
SLDTEXTSTYLE0
 73
     1
 44
1.0
  0
ENDBLK
  5
23E
330
23C
100
AcDbEntity
  8
0
100
AcDbBlockEnd
  0
BLOCK
  5
248
330
247
100
AcDbEntity
  8
0
100
AcDbBlockBegin
  2
_D_4
 70
     0
 10
0.0
 20
0.0
 30
0.0
  3
_D_4
  1

  0
ARC
  5
24A
330
247
100
AcDbEntity
  8
VERMASSUNG
100
AcDbCircle
 10
223.9005133648
 20
136.4240591595
 30
0.0
 40
11.35904516287567
100
AcDbArc
 50
266.9675391515
 51
0.0
  0
SOLID
  5
24B
330
247
100
AcDbEntity
  8
VERMASSUNG
100
AcDbTrace
 10
223.2996003374
 20
125.0809197993
 30
0.0
 11
226.3251470911
 21
124.8605409409
 31
0.0
 12
226.256652278
 22
125.757930745
 32
0.0
 13
226.256652278
 23
125.757930745
 33
0.0
  0
SOLID
  5
24C
330
247
100
AcDbEntity
  8
VERMASSUNG
100
AcDbTrace
 10
235.2595585277
 20
136.4240591595
 30
0.0
 11
234.4270624504
 21
133.5069629524
 31
0.0
 12
235.3195721674
 22
133.3910905868
 32
0.0
 13
235.3195721674
 23
133.3910905868
 33
0.0
  0
LINE
  5
24D
330
247
100
AcDbEntity
  8
VERMASSUNG
100
AcDbLine
 10
235.0497501479
 20
136.4240591595
 30
0.0
 11
236.2595585277
 21
136.4240591595
 31
0.0
  0
MTEXT
  5
24E
330
247
100
AcDbEntity
  8
VERMASSUNG
100
AcDbMText
 10
227.8389370469
 20
128.0572678422
 30
0.1
 40
2.0
 41
0.0
 71
     1
 72
     1
  1
93°
  7
SLDTEXTSTYLE0
 11
0.7255693350955871
 21
0.6881490681305524
 31
0.0
 73
     1
 44
1.0
  0
ENDBLK
  5
249
330
247
100
AcDbEntity
  8
0
100
AcDbBlockEnd
  0
BLOCK
  5
251
330
250
100
AcDbEntity
  8
0
100
AcDbBlockBegin
  2
_D_5
 70
     0
 10
0.0
 20
0.0
 30
0.0
  3
_D_5
  1

  0
SOLID
  5
253
330
250
100
AcDbEntity
  8
VERMASSUNG
100
AcDbTrace
 10
144.4149299783
 20
129.4240591595
 30
0.0
 11
143.9649299783
 21
126.4240591595
 31
0.0
 12
144.8649299783
 22
126.4240591595
 32
0.0
 13
144.8649299783
 23
126.4240591595
 33
0.0
  0
SOLID
  5
254
330
250
100
AcDbEntity
  8
VERMASSUNG
100
AcDbTrace
 10
144.4149299783
 20
89.4240591595
 30
0.0
 11
144.8649299783
 21
92.4240591595
 31
0.0
 12
143.9649299783
 22
92.4240591595
 32
0.0
 13
143.9649299783
 23
92.4240591595
 33
0.0
  0
LINE
  5
255
330
250
100
AcDbEntity
  8
VERMASSUNG
100
AcDbLine
 10
174.1777565033
 20
129.4240591595
 30
0.0
 11
143.4149299783
 21
129.4240591595
 31
0.0
  0
LINE
  5
256
330
250
100
AcDbEntity
  8
VERMASSUNG
100
AcDbLine
 10
174.1777565033
 20
89.4240591595
 30
0.0
 11
143.4149299783
 21
89.4240591595
 31
0.0
  0
LINE
  5
257
330
250
100
AcDbEntity
  8
VERMASSUNG
100
AcDbLine
 10
144.4149299783
 20
129.4240591595
 30
0.0
 11
144.4149299783
 21
89.4240591595
 31
0.0
  0
MTEXT
  5
258
330
250
100
AcDbEntity
  8
VERMASSUNG
100
AcDbMText
 10
141.6367944893
 20
102.9190592202
 30
0.35
 40
2.0
 41
0.0
 71
     1
 72
     1
  1
PSC
  7
SLDTEXTSTYLE0
 11
-7.044195017643634E-15
 21
1.0
 31
0.0
 73
     1
 44
1.0
  0
MTEXT
  5
259
330
250
100
AcDbEntity
  8
VERMASSUNG
100
AcDbMText
 10
141.8367944988
 20
107.5190593222
 30
0.35
 40
2.0
 41
0.0
 71
     1
 72
     1
  1
%%c
  7
SLDTEXTSTYLE0
 11
-7.044195017643634E-15
 21
1.0
 31
0.0
 73
     1
 44
1.0
  0
MTEXT
  5
25A
330
250
100
AcDbEntity
  8
VERMASSUNG
100
AcDbMText
 10
141.6367944893
 20
111.1290598022
 30
0.35
 40
2.0
 41
0.0
 71
     1
 72
     1
  1
40
  7
SLDTEXTSTYLE0
 11
-7.044195017643634E-15
 21
1.0
 31
0.0
 73
     1
 44
1.0
  0
ENDBLK
  5
252
330
250
100
AcDbEntity
  8
0
100
AcDbBlockEnd
  0
ENDSEC
  0
SECTION
  2
ENTITIES
  0
MTEXT
  5
49
330
1F
100
AcDbEntity
  8
KOPF_DÜNN
100
AcDbMText
 10
13.8892156294
 20
23.8442973028
 30
0.0
 40
3.0
 41
0.0
 71
     1
 72
     1
  1
PS4.PDF.RUA.050
  7
SLDTEXTSTYLE0
 73
     1
 44
1.0
  0
MTEXT
  5
4A
330
1F
100
AcDbEntity
  8
VERMASSUNG
100
AcDbMText
 10
13.9329988022
 20
28.8834360957
 30
0.0
 40
3.0
 41
0.0
 71
     1
 72
     1
  1
Klemmhalter rechts_Turning tool right 93° /55°
  7
SLDTEXTSTYLE0
 73
     1
 44
1.0
  0
MTEXT
  5
4B
330
1F
100
AcDbEntity
  8
VERMASSUNG
100
AcDbMText
 10
98.8601118557
 20
13.8365368179
 30
0.0
 40
2.0
 41
0.0
 71
     1
 72
     1
  1
Datum: 27.04.2012
  7
SLDTEXTSTYLE0
 73
     1
 44
1.0
  0
MTEXT
  5
4C
330
1F
100
AcDbEntity
  8
VERMASSUNG
100
AcDbMText
 10
13.933048693
 20
18.0482802738
 30
0.0
 40
2.0
 41
0.0
 71
     1
 72
     1
  1
PSC ø40 / DN..15 06..
  7
SLDTEXTSTYLE0
 73
     1
 44
1.0
  0
MTEXT
  5
4D
330
1F
100
AcDbEntity
  8
VERMASSUNG
100
AcDbMText
 10
13.9808475933
 20
13.9090973692
 30
0.0
 40
2.0
 41
0.0
 71
     1
 72
     1
  1
Gewicht: 420g
  7
SLDTEXTSTYLE0
 73
     1
 44
1.0
  0
LINE
  5
4E
330
1F
100
AcDbEntity
  8
0
  6
Continuous
 62
     7
370
    15
100
AcDbLine
 10
92.3822855038
 20
134.3319833944
 30
0.0
 11
89.6700529774
 21
134.8102231244
 31
0.0
  0
LINE
  5
4F
330
1F
100
AcDbEntity
  8
0
  6
Continuous
 62
     7
370
    15
100
AcDbLine
 10
92.6309151036
 20
133.9795783827
 30
0.0
 11
92.3921435533
 21
134.3246203581
 31
0.0
  0
LINE
  5
50
330
1F
100
AcDbEntity
  8
0
  6
Continuous
 62
     7
370
    15
100
AcDbLine
 10
89.719694799
 20
135.3290945957
 30
0.0
 11
83.5004230066
 21
136.4257194767
 31
0.0
  0
LINE
  5
51
330
1F
100
AcDbEntity
  8
0
  6
Continuous
 62
     7
370
    15
100
AcDbLine
 10
82.8792269967
 20
132.7778015951
 30
0.0
 11
82.4375627489
 21
132.2410431424
 31
0.0
  0
LINE
  5
52
330
1F
100
AcDbEntity
  8
0
  6
Continuous
 62
     7
370
    15
100
AcDbLine
 10
79.1844611449
 20
118.1983685786
 30
0.0
 11
79.4176326526
 21
117.5380357275
 31
0.0
  0
LINE
  5
53
330
1F
100
AcDbEntity
  8
0
  6
Continuous
 62
     7
370
    15
100
AcDbLine
 10
78.1590805782
 20
114.0070831137
 30
0.0
 11
78.4745055643
 21
113.9514649952
 31
0.0
  0
LINE
  5
54
330
1F
100
AcDbEntity
  8
0
  6
Continuous
 62
     7
370
    15
100
AcDbLine
 10
87.1461329443
 20
120.94107072
 30
0.0
 11
89.4816399013
 21
133.7748755435
 31
0.0
  0
LINE
  5
55
330
1F
100
AcDbEntity
  8
0
  6
Continuous
 62
     7
370
    15
100
AcDbLine
 10
89.9668417332
 20
120.443703487
 30
0.0
 11
92.3023491559
 21
133.2775083104
 31
0.0
  0
LINE
  5
56
330
1F
100
AcDbEntity
  8
0
  6
Continuous
 62
     7
370
    15
100
AcDbLine
 10
92.5680592117
 20
133.2465995768
 30
0.0
 11
90.2325522547
 21
120.4127947534
 31
0.0
  0
ARC
  5
57
330
1F
100
AcDbEntity
  8
0
  6
Continuous
 62
     7
370
    15
100
AcDbCircle
 10
89.7806231539
 20
133.9989396081
 30
0.0
 40
2.622892515288691
100
AcDbArc
 50
344.0348990961
 51
7.294868126
  0
ARC
  5
58
330
1F
100
AcDbEntity
  8
0
  6
Continuous
 62
     7
370
    15
100
AcDbCircle
 10
90.5071706671
 20
133.7925135662
 30
0.0
 40
2.131967091040913
100
AcDbArc
 50
345.1635264033
 51
5.0337667275
  0
ARC
  5
59
330
1F
100
AcDbEntity
  8
0
  6
Continuous
 62
     7
370
    15
100
AcDbCircle
 10
84.2525103303
 20
121.4039366607
 30
0.0
 40
5.794448302538799
100
AcDbArc
 50
342.742763028
 51
350.4611653216
  0
ARC
  5
5A
330
1F
100
AcDbEntity
  8
0
  6
Continuous
 62
     7
370
    15
100
AcDbCircle
 10
86.3254041549
 20
121.0655182756
 30
0.0
 40
3.961294519484142
100
AcDbArc
 50
342.4375004652
 51
350.5158181277
  0
LINE
  5
5B
330
1F
100
AcDbEntity
  8
0
  6
Continuous
 62
     7
370
    15
100
AcDbLine
 10
90.1020562669
 20
119.870213672
 30
0.0
 11
90.0217497183
 21
119.6433919216
 31
0.0
  0
LWPOLYLINE
  5
5C
330
1F
100
AcDbEntity
  8
0
  6
Continuous
 62
     7
370
    15
100
AcDbPolyline
 90
       37
 70
   128
 43
0.0
 10
78.773879206
 20
113.405841283
 10
78.843325602
 20
113.4331951583
 10
78.8940552083
 20
113.355892125
 10
78.9245262203
 20
113.1762814442
 10
78.9338138347
 20
112.8998202006
 10
78.9216349294
 20
112.534908458
 10
78.8883597051
 20
112.0926340776
 10
78.8349995782
 20
111.5864353454
 10
78.7631755156
 20
111.031692821
 10
78.6750700717
 20
110.4452619296
 10
78.5733598677
 20
109.8449612585
 10
78.4611359631
 20
109.249030513
 10
78.3418079299
 20
108.6755768013
 10
78.2190009413
 20
108.142024252
 10
78.0964472724
 20
107.6645845281
 10
77.9778703509
 20
107.2577644339
 10
77.8668734638
 20
106.9339249483
 10
77.7668279988
 20
106.7029059598
 10
77.6807751899
 20
106.5717266141
 10
77.6113287938
 20
106.5443727387
 10
77.5605991875
 20
106.6216755392
 10
77.5301277099
 20
106.8012864528
 10
77.5208405612
 20
107.0777476965
 10
77.5330194665
 20
107.4426592061
 10
77.5662946907
 20
107.8849335866
 10
77.6196548177
 20
108.3911323188
 10
77.6914788803
 20
108.9458749305
 10
77.7795843241
 20
109.5323058001
 10
77.8812945282
 20
110.1326065221
 10
77.9935184328
 20
110.7285371948
 10
78.1128464659
 20
111.3019909211
 10
78.2356529889
 20
111.8355434122
 10
78.3582066578
 20
112.3129831361
 10
78.4767835794
 20
112.7198032303
 10
78.5877809321
 20
113.0436427159
 10
78.6878259314
 20
113.2746619372
 10
78.773879206
 20
113.405841283
  0
LWPOLYLINE
  5
5D
330
1F
100
AcDbEntity
  8
0
  6
Continuous
 62
     7
370
    15
100
AcDbPolyline
 90
       28
 70
   128
 43
0.0
 10
78.5396427309
 20
111.9413879899
 10
78.5902279822
 20
111.9489102824
 10
78.6212489402
 20
111.8507616887
 10
78.6310338808
 20
111.6522332853
 10
78.6190547442
 20
111.3640278312
 10
78.5859574025
 20
111.0016825808
 10
78.5335262699
 20
110.5847317925
 10
78.4645879102
 20
110.1356533439
 10
78.3828583007
 20
109.6786570818
 10
78.2927444597
 20
109.2383798499
 10
78.1991041658
 20
108.8385570877
 10
78.1069847216
 20
108.5007433397
 10
78.0213533362
 20
108.243150284
 10
77.9468261098
 20
108.0796647551
 10
77.8874207681
 20
108.019100266
 10
77.8463396636
 20
108.0647220336
 10
77.8257979473
 20
108.2140704351
 10
77.8269024958
 20
108.4590940703
 10
77.8495941704
 20
108.7865837001
 10
77.8926496787
 20
109.1788842717
 10
77.9537472335
 20
109.6148467298
 10
78.029594144
 20
110.0709682181
 10
78.116100507
 20
110.5226591429
 10
78.2086031904
 20
110.9455687659
 10
78.3021154275
 20
111.3168977866
 10
78.3915959691
 20
111.6166278919
 10
78.4722200987
 20
111.8286004024
 10
78.5396427309
 20
111.9413879899
  0
LINE
  5
5E
330
1F
100
AcDbEntity
  8
0
  6
Continuous
 62
     7
370
    15
100
AcDbLine
 10
78.4282514287
 20
109.9449735451
 30
0.0
 11
78.2681850178
 21
109.7166118237
 31
0.0
  0
LINE
  5
5F
330
1F
100
AcDbEntity
  8
0
  6
Continuous
 62
     7
370
    15
100
AcDbLine
 10
78.2681850178
 20
109.7166118237
 30
0.0
 11
78.3481995968
 21
109.5124655443
 31
0.0
  0
LINE
  5
60
330
1F
100
AcDbEntity
  8
0
  6
Continuous
 62
     7
370
    15
100
AcDbLine
 10
78.613845857
 20
111.293901686
 30
0.0
 11
78.6132088324
 21
111.2940140268
 31
0.0
  0
LINE
  5
61
330
1F
100
AcDbEntity
  8
0
  6
Continuous
 62
     7
370
    15
100
AcDbLine
 10
78.3861360905
 20
109.6958138481
 30
0.0
 11
78.2681850178
 21
109.7166118237
 31
0.0
  0
ELLIPSE
  5
62
330
1F
100
AcDbEntity
  8
0
  6
Continuous
 62
     7
370
    15
100
AcDbEllipse
 10
81.0270974874
 20
124.502222577
 30
0.0
 11
0.4087148498875594
 21
2.317396459798929
 31
0.0
210
0.0
220
0.0
230
1.0
 40
0.1043907487
 41
0.4110192178873106
 42
1.645821917583286
  0
LINE
  5
63
330
1F
100
AcDbEntity
  8
0
  6
Continuous
 62
     7
370
    15
100
AcDbLine
 10
78.1914552135
 20
114.0630928533
 30
0.0
 11
80.7964461783
 21
121.4207735578
 31
0.0
  0
LWPOLYLINE
  5
64
330
1F
100
AcDbEntity
  8
0
  6
Continuous
 62
     7
370
    15
100
AcDbPolyline
 90
        9
 70
   128
 43
0.0
 10
78.1910552105
 20
114.4288730541
 10
78.1731775423
 20
114.3219916815
 10
78.1593916399
 20
114.2209501671
 10
78.1507163701
 20
114.1332167866
 10
78.1477934142
 20
114.0652754078
 10
78.1508379077
 20
114.0221481877
 10
78.1596254019
 20
114.0070216464
 10
78.1735067648
 20
114.0210147681
 10
78.1914552135
 20
114.0630928533
  0
LINE
  5
65
330
1F
100
AcDbEntity
  8
0
  6
Continuous
 62
     7
370
    15
100
AcDbLine
 10
80.7884882597
 20
128.7019819686
 30
0.0
 11
78.1910552105
 21
114.4288730541
 31
0.0
  0
ARC
  5
66
330
1F
100
AcDbEntity
  8
0
  6
Continuous
 62
     7
370
    15
100
AcDbCircle
 10
83.0211244436
 20
128.3290024647
 30
0.0
 40
2.263576382612403
100
AcDbArc
 50
162.437471747
 51
170.5158692056
  0
LINE
  5
67
330
1F
100
AcDbEntity
  8
0
  6
Continuous
 62
     7
370
    15
100
AcDbLine
 10
83.4680484913
 20
136.3697097371
 30
0.0
 11
80.8630573956
 21
129.012028567
 31
0.0
  0
LWPOLYLINE
  5
68
330
1F
100
AcDbEntity
  8
0
  6
Continuous
 62
     7
370
    15
100
AcDbPolyline
 90
        9
 70
   128
 43
0.0
 10
83.4684482615
 20
136.0039290706
 10
83.4863259806
 20
136.1108113745
 10
83.5001118867
 20
136.2118524233
 10
83.5087870728
 20
136.2995848725
 10
83.5117103597
 20
136.3675267169
 10
83.5086656843
 20
136.4106544027
 10
83.4998780774
 20
136.425780944
 10
83.4859970346
 20
136.411786891
 10
83.4680484913
 20
136.3697097371
  0
LINE
  5
69
330
1F
100
AcDbEntity
  8
0
  6
Continuous
 62
     7
370
    15
100
AcDbLine
 10
80.8710153142
 20
121.7308192248
 30
0.0
 11
83.4684482615
 21
136.0039290706
 31
0.0
  0
ARC
  5
6A
330
1F
100
AcDbEntity
  8
0
  6
Continuous
 62
     7
370
    15
100
AcDbCircle
 10
78.6383429947
 20
122.1038094714
 30
0.0
 40
2.263613794342448
100
AcDbArc
 50
342.4375109741
 51
350.5157517191
  0
LWPOLYLINE
  5
6B
330
1F
100
AcDbEntity
  8
0
  6
Continuous
 62
     7
370
    15
100
AcDbPolyline
 90
        9
 70
   128
 43
0.0
 10
83.4665740403
 20
136.0053223292
 10
83.4835578644
 20
136.1068607042
 10
83.4966544789
 20
136.2028483967
 10
83.5048959052
 20
136.2861961791
 10
83.5076730291
 20
136.3507405589
 10
83.5047805849
 20
136.3917113016
 10
83.4964323585
 20
136.4060816089
 10
83.4832453693
 20
136.3927879105
 10
83.4661942499
 20
136.3528136829
  0
LINE
  5
6C
330
1F
100
AcDbEntity
  8
0
  6
Continuous
 62
     7
370
    15
100
AcDbLine
 10
83.4661942499
 20
136.3528136829
 30
0.0
 11
80.8612031323
 21
128.9951343754
 31
0.0
  0
ARC
  5
6D
330
1F
100
AcDbEntity
  8
0
  6
Continuous
 62
     7
370
    15
100
AcDbCircle
 10
82.911543857
 20
128.3462176758
 30
0.0
 40
2.150578984882612
100
AcDbArc
 50
162.4378305769
 51
170.5155825654
  0
LINE
  5
6E
330
1F
100
AcDbEntity
  8
0
  6
Continuous
 62
     7
370
    15
100
AcDbLine
 10
80.7903623135
 20
128.7005887101
 30
0.0
 11
78.1929294971
 21
114.4274797956
 31
0.0
  0
LWPOLYLINE
  5
6F
330
1F
100
AcDbEntity
  8
0
  6
Continuous
 62
     7
370
    15
100
AcDbPolyline
 90
        9
 70
   128
 43
0.0
 10
78.1929294971
 20
114.4274797956
 10
78.1759458987
 20
114.3259423519
 10
78.162849175
 20
114.2299532624
 10
78.1546074358
 20
114.1466064112
 10
78.1518306976
 20
114.0820620315
 10
78.1547229198
 20
114.0410908232
 10
78.1630712954
 20
114.0267209815
 10
78.1762583574
 20
114.0400146799
 10
78.1933094767
 20
114.0799889075
  0
LINE
  5
70
330
1F
100
AcDbEntity
  8
0
  6
Continuous
 62
     7
370
    15
100
AcDbLine
 10
78.1933094767
 20
114.0799889075
 30
0.0
 11
80.7983004415
 21
121.4376686806
 31
0.0
  0
ARC
  5
71
330
1F
100
AcDbEntity
  8
0
  6
Continuous
 62
     7
370
    15
100
AcDbCircle
 10
78.7480690199
 20
122.0865613327
 30
0.0
 40
2.150467520398529
100
AcDbArc
 50
342.4375626913
 51
350.5156856948
  0
LINE
  5
72
330
1F
100
AcDbEntity
  8
0
  6
Continuous
 62
     7
370
    15
100
AcDbLine
 10
80.8691412603
 20
121.7322124833
 30
0.0
 11
83.4665740403
 21
136.0053223292
 31
0.0
  0
ARC
  5
73
330
1F
100
AcDbEntity
  8
0
  6
Continuous
 62
     7
370
    15
100
AcDbCircle
 10
88.6790416533
 20
135.1958761549
 30
0.0
 40
1.049145424868918
100
AcDbArc
 50
344.0347496064
 51
7.2950000867
  0
LINE
  5
74
330
1F
100
AcDbEntity
  8
0
  6
Continuous
 62
     7
370
    15
100
AcDbLine
 10
87.0902871174
 20
120.6341943437
 30
0.0
 11
89.6877201667
 21
134.9073041896
 31
0.0
  0
LINE
  5
75
330
1F
100
AcDbEntity
  8
0
  6
Continuous
 62
     7
370
    15
100
AcDbLine
 10
81.1152288152
 20
128.5467733363
 30
0.0
 11
81.0408492034
 21
128.6362268696
 31
0.0
  0
ARC
  5
76
330
1F
100
AcDbEntity
  8
0
  6
Continuous
 62
     7
370
    15
100
AcDbCircle
 10
84.8576289335
 20
121.0071807596
 30
0.0
 40
2.26359922089391
100
AcDbArc
 50
342.4374712031
 51
350.5157884021
  0
LINE
  5
77
330
1F
100
AcDbEntity
  8
0
  6
Continuous
 62
     7
370
    15
100
AcDbLine
 10
86.9654938506
 20
120.1822924162
 30
0.0
 11
87.0157177487
 21
120.3241477454
 31
0.0
  0
LWPOLYLINE
  5
78
330
1F
100
AcDbEntity
  8
0
  6
Continuous
 62
     7
370
    15
100
AcDbPolyline
 90
        9
 70
   128
 43
0.0
 10
82.3792674273
 20
131.1997201959
 10
82.4239617141
 20
131.4669222305
 10
82.4584264701
 20
131.719526715
 10
82.4801144117
 20
131.9388606319
 10
82.4874227328
 20
132.1087133805
 10
82.4798110334
 20
132.2165325949
 10
82.4578419488
 20
132.2543480167
 10
82.4231393562
 20
132.2193656782
 10
82.3782680017
 20
132.1141690681
  0
LINE
  5
79
330
1F
100
AcDbEntity
  8
0
  6
Continuous
 62
     7
370
    15
100
AcDbLine
 10
80.9255780113
 20
123.2115764836
 30
0.0
 11
82.3792674273
 21
131.1997201959
 31
0.0
  0
ARC
  5
7A
330
1F
100
AcDbEntity
  8
0
  6
Continuous
 62
     7
370
    15
100
AcDbCircle
 10
75.3439576956
 20
124.1440340448
 30
0.0
 40
5.658971854731784
100
AcDbArc
 50
342.437477292
 51
350.5158311217
  0
LINE
  5
7B
330
1F
100
AcDbEntity
  8
0
  6
Continuous
 62
     7
370
    15
100
AcDbLine
 10
79.2812353393
 20
118.3186321253
 30
0.0
 11
80.7391549388
 21
122.4364599878
 31
0.0
  0
LWPOLYLINE
  5
7C
330
1F
100
AcDbEntity
  8
0
  6
Continuous
 62
     7
370
    15
100
AcDbPolyline
 90
        9
 70
   128
 43
0.0
 10
79.2802360301
 20
119.2330828602
 10
79.2355418598
 20
118.9658789629
 10
79.2010768709
 20
118.7132754097
 10
79.1793891621
 20
118.4939424241
 10
79.1720810739
 20
118.3240887443
 10
79.1796927733
 20
118.2162695298
 10
79.2016617415
 20
118.178454108
 10
79.2363642176
 20
118.2134373779
 10
79.2812353393
 20
118.3186321253
  0
LINE
  5
7D
330
1F
100
AcDbEntity
  8
0
  6
Continuous
 62
     7
370
    15
100
AcDbLine
 10
80.7339255625
 20
127.2212256411
 30
0.0
 11
79.2802360301
 21
119.2330828602
 31
0.0
  0
ARC
  5
7E
330
1F
100
AcDbEntity
  8
0
  6
Continuous
 62
     7
370
    15
100
AcDbCircle
 10
86.3156914308
 20
126.2887351249
 30
0.0
 40
5.659120847966473
100
AcDbArc
 50
162.4375948685
 51
170.5157448489
  0
LINE
  5
7F
330
1F
100
AcDbEntity
  8
0
  6
Continuous
 62
     7
370
    15
100
AcDbLine
 10
82.3782680017
 20
132.1141690681
 30
0.0
 11
80.9203486351
 21
127.9963430682
 31
0.0
  0
LWPOLYLINE
  5
80
330
1F
100
AcDbEntity
  8
0
  6
Continuous
 62
     7
370
    15
100
AcDbPolyline
 90
       32
 70
   128
 43
0.0
 10
81.071526969
 20
125.0366595308
 10
81.1594363695
 20
125.5506043056
 10
81.2338485775
 20
126.0508679519
 10
81.2917170042
 20
126.5169669608
 10
81.3306723648
 20
126.9298222581
 10
81.3491200024
 20
127.2725284765
 10
81.3463048471
 20
127.5310561726
 10
81.3223416844
 20
127.6948236594
 10
81.2782121284
 20
127.7571216891
 10
81.2157222462
 20
127.7154040257
 10
81.1374308468
 20
127.5713768521
 10
81.0465430768
 20
127.3309373031
 10
80.9467798026
 20
127.0039257327
 10
80.8422253394
 20
126.6037345598
 10
80.7371602786
 20
126.1467457483
 10
80.6358857007
 20
125.6516695688
 10
80.5425483195
 20
125.1387716005
 10
80.4609688857
 20
124.6290522361
 10
80.3944875879
 20
124.1433796207
 10
80.3458259834
 20
123.7016356284
 10
80.316976404
 20
123.321907475
 10
80.3091199996
 20
123.0197398657
 10
80.3225780764
 20
122.8075035582
 10
80.3568002229
 20
122.693887792
 10
80.4103847986
 20
122.6835435922
 10
80.4811383059
 20
122.7768956417
 10
80.5661643317
 20
122.9701208616
 10
80.6619813593
 20
123.2553095291
 10
80.7646671237
 20
123.6207847217
 10
80.870017402
 20
124.0515856737
 10
80.9737192394
 20
124.5300731355
 10
81.071526969
 20
125.0366595308
  0
ARC
  5
81
330
1F
100
AcDbEntity
  8
0
  6
Continuous
 62
     7
370
    15
100
AcDbCircle
 10
83.5526853261
 20
109.4240591595
 30
0.0
 40
20.50000000000001
100
AcDbArc
 50
337.9427524477
 51
0.0
  0
LINE
  5
82
330
1F
100
AcDbEntity
  8
0
  6
Continuous
 62
     7
370
    15
100
AcDbLine
 10
78.280108275
 20
106.005473874
 30
0.0
 11
102.5522712079
 21
101.725636396
 31
0.0
  0
LINE
  5
83
330
1F
100
AcDbEntity
  8
0
  6
Continuous
 62
     7
370
    15
100
AcDbLine
 10
81.0498401915
 20
121.2253820816
 30
0.0
 11
78.280108275
 21
106.005473874
 31
0.0
  0
LINE
  5
84
330
1F
100
AcDbEntity
  8
0
  6
Continuous
 62
     7
370
    15
100
AcDbLine
 10
81.0498401915
 20
121.2253820816
 30
0.0
 11
90.0800267627
 21
119.6331166396
 31
0.0
  0
LINE
  5
85
330
1F
100
AcDbEntity
  8
0
  6
Continuous
 62
     7
370
    15
100
AcDbLine
 10
90.0800267627
 20
119.6331166396
 30
0.0
 11
90.1587146727
 21
120.0655129472
 31
0.0
  0
LINE
  5
86
330
1F
100
AcDbEntity
  8
0
  6
Continuous
 62
     7
370
    15
100
AcDbLine
 10
92.6231543926
 20
133.6078149
 30
0.0
 11
92.6565497575
 21
133.7913264254
 31
0.0
  0
ARC
  5
87
330
1F
100
AcDbEntity
  8
0
  6
Continuous
 62
     7
370
    15
100
AcDbCircle
 10
82.5526853261
 20
110.9240591595
 30
0.0
 40
24.99999999999999
100
AcDbArc
 50
30.683417109
 51
66.1618394223
  0
LINE
  5
88
330
1F
100
AcDbEntity
  8
0
  6
Continuous
 62
     7
370
    15
100
AcDbLine
 10
104.0526858924
 20
123.681410096
 30
0.0
 11
104.0526858924
 21
109.4240591595
 31
0.0
  0
LWPOLYLINE
  5
89
330
1F
100
AcDbEntity
  8
0
  6
Continuous
 62
     7
370
    15
100
AcDbPolyline
 90
       37
 70
   128
 43
0.0
 10
78.8350959701
 20
113.4356110091
 10
78.8884262947
 20
113.3722140188
 10
78.921669854
 20
113.2060136846
 10
78.933816163
 20
112.9420591718
 10
78.9244959524
 20
112.5883710304
 10
78.8939928097
 20
112.1556955589
 10
78.8432329354
 20
111.6571795395
 10
78.773759531
 20
111.1079703517
 10
78.6876829734
 20
110.5247552008
 10
78.587618882
 20
109.9252547686
 10
78.4766070937
 20
109.3276846626
 10
78.3580213246
 20
108.7502017002
 10
78.2354643961
 20
108.2103524789
 10
78.1126602014
 20
107.7245399323
 10
77.9933400845
 20
107.3075254647
 10
77.8811296841
 20
106.9719794871
 10
77.7794385722
 20
106.728097537
 10
77.6913559457
 20
106.583290148
 10
77.6195584258
 20
106.5419566551
 10
77.5662281012
 20
106.6053534126
 10
77.5329845419
 20
106.7715539796
 10
77.5208382329
 20
107.0355084924
 10
77.5301584435
 20
107.3891968666
 10
77.5606615861
 20
107.8218722217
 10
77.6114209948
 20
108.3203881247
 10
77.6808948649
 20
108.8695974289
 10
77.7669714225
 20
109.4528125999
 10
77.8670355139
 20
110.052313012
 10
77.9780473021
 20
110.6498830453
 10
78.0966330712
 20
111.2273660222
 10
78.2191899998
 20
111.7672153017
 10
78.3419937288
 20
112.2530278484
 10
78.4613138457
 20
112.6700424323
 10
78.5735242461
 20
113.0055884099
 10
78.6752158237
 20
113.2494701272
 10
78.7632984502
 20
113.3942775162
 10
78.8350959701
 20
113.4356110091
  0
LWPOLYLINE
  5
8A
330
1F
100
AcDbEntity
  8
0
  6
Continuous
 62
     7
370
    15
100
AcDbPolyline
 90
       14
 70
   128
 43
0.0
 10
78.6163743978
 20
116.7660359027
 10
78.527828904
 20
116.4291215794
 10
78.4332340045
 20
116.016101438
 10
78.3427792994
 20
115.5667843962
 10
78.2610007954
 20
115.1037005441
 10
78.1919991059
 20
114.6500710132
 10
78.1392336284
 20
114.2286424259
 10
78.1053516475
 20
113.8605469572
 10
78.0920509642
 20
113.5642424891
 10
78.099998871
 20
113.354587342
 10
78.128796762
 20
113.2420942852
 10
78.1770010871
 20
113.2324041067
 10
78.2421936674
 20
113.3260024911
 10
78.3211064918
 20
113.518196504
  0
LINE
  5
8B
330
1F
100
AcDbEntity
  8
0
  6
Continuous
 62
     7
370
    15
100
AcDbLine
 10
78.280108275
 20
106.005473874
 30
0.0
 11
74.495452216
 21
91.0333943287
 31
0.0
  0
ARC
  5
8C
330
1F
100
AcDbEntity
  8
0
  6
Continuous
 62
     7
370
    15
100
AcDbCircle
 10
83.5526853261
 20
109.4240591595
 30
0.0
 40
20.5
100
AcDbArc
 50
239.3954159287
 51
243.7801782119
  0
SPLINE
  5
8D
330
1F
100
AcDbEntity
  8
0
  6
Continuous
 62
     7
370
    15
100
AcDbSpline
210
0.0
220
0.0
230
1.0
 70
     8
 71
     3
 72
     8
 73
     4
 74
     0
 42
0.00000001
 43
0.00000001
 12
1.0
 22
0.0
 32
0.0
 13
1.0
 23
0.0
 33
0.0
 40
0.0
 40
0.0
 40
0.0
 40
0.0
 40
1.0
 40
1.0
 40
1.0
 40
1.0
 10
73.11592459377883
 20
91.77968256480118
 30
0.0
 10
73.14252559862868
 20
92.00220664780184
 30
0.0
 10
73.1544494866205
 20
92.18853120506253
 30
0.0
 10
73.14620130093559
 20
92.28543077336775
 30
0.0
  0
SPLINE
  5
8E
330
1F
100
AcDbEntity
  8
0
  6
Continuous
 62
     7
370
    15
100
AcDbSpline
210
0.0
220
0.0
230
1.0
 70
     8
 71
     3
 72
    12
 73
     8
 74
     0
 42
0.00000001
 43
0.00000001
 12
1.0
 22
0.0
 32
0.0
 13
1.0
 23
0.0
 33
0.0
 40
0.0
 40
0.0
 40
0.0
 40
0.0
 40
0.4999999999999964
 40
0.4999999999999964
 40
0.7499999999999982
 40
0.7499999999999982
 40
1.0
 40
1.0
 40
1.0
 40
1.0
 10
79.63554521636199
 20
129.0883289421722
 30
0.0
 10
79.66345015267461
 20
129.1485403178797
 30
0.0
 10
79.69675537472905
 20
129.2507057894489
 30
0.0
 10
79.74861365966319
 20
129.4434082281309
 30
0.0
 10
79.76649294415989
 20
129.5152852741083
 30
0.0
 10
79.80152387037978
 20
129.666374831514
 30
0.0
 10
79.8187878449552
 20
129.745886293584
 30
0.0
 10
79.83579285206463
 20
129.8294824028603
 30
0.0
  0
SPLINE
  5
8F
330
1F
100
AcDbEntity
  8
0
  6
Continuous
 62
     7
370
    15
100
AcDbSpline
210
0.0
220
0.0
230
1.0
 70
     8
 71
     3
 72
     8
 73
     4
 74
     0
 42
0.00000001
 43
0.00000001
 12
1.0
 22
0.0
 32
0.0
 13
1.0
 23
0.0
 33
0.0
 40
0.0
 40
0.0
 40
0.0
 40
0.0
 40
1.0
 40
1.0
 40
1.0
 40
1.0
 10
79.83579285206463
 20
129.8294824028603
 30
0.0
 10
79.90560015122365
 20
130.1726530096838
 30
0.0
 10
79.97542545994679
 20
130.5157410821741
 30
0.0
 10
80.04526645147517
 20
130.8587572834151
 30
0.0
  0
LINE
  5
90
330
1F
100
AcDbEntity
  8
0
  6
Continuous
 62
     7
370
    15
100
AcDbLine
 10
80.0452665353
 20
130.8587574134
 30
0.0
 11
81.3099392617
 21
130.6357615361
 31
0.0
  0
ARC
  5
91
330
1F
100
AcDbEntity
  8
0
  6
Continuous
 62
     7
370
    15
100
AcDbCircle
 10
81.3426644164
 20
130.8618465145
 30
0.0
 40
0.2284411372510552
100
AcDbArc
 50
261.7638025757
 51
296.844843288
  0
LINE
  5
92
330
1F
100
AcDbEntity
  8
0
  6
Continuous
 62
     7
370
    15
100
AcDbLine
 10
78.3211064918
 20
113.518196504
 30
0.0
 11
81.0498401915
 21
121.2253820816
 31
0.0
  0
LINE
  5
93
330
1F
100
AcDbEntity
  8
0
  6
Continuous
 62
     7
370
    15
100
AcDbLine
 10
92.6565502088
 20
133.791326474
 30
0.0
 11
92.6409533888
 21
133.7982115481
 31
0.0
  0
ARC
  5
94
330
1F
100
AcDbEntity
  8
0
  6
Continuous
 62
     7
370
    15
100
AcDbCircle
 10
83.5526853261
 20
109.4240591595
 30
0.0
 40
20.50000000000001
100
AcDbArc
 50
243.7801782119
 51
337.9427524477
  0
SPLINE
  5
95
330
1F
100
AcDbEntity
  8
0
  6
Continuous
 62
     7
370
    15
100
AcDbSpline
210
0.0
220
0.0
230
1.0
 70
     8
 71
     3
 72
     8
 73
     4
 74
     0
 42
0.00000001
 43
0.00000001
 12
1.0
 22
0.0
 32
0.0
 13
1.0
 23
0.0
 33
0.0
 40
0.0
 40
0.0
 40
0.0
 40
0.0
 40
1.0
 40
1.0
 40
1.0
 40
1.0
 10
79.51920654501247
 20
129.0131134736545
 30
0.0
 10
79.57894658957969
 20
129.0254142309182
 30
0.0
 10
79.61701344131693
 20
129.0483423370326
 30
0.0
 10
79.63554521636215
 20
129.0883289421721
 30
0.0
  0
SPLINE
  5
96
330
1F
100
AcDbEntity
  8
0
  6
Continuous
 62
     7
370
    15
100
AcDbSpline
210
0.0
220
0.0
230
1.0
 70
     8
 71
     3
 72
     8
 73
     4
 74
     0
 42
0.00000001
 43
0.00000001
 12
1.0
 22
0.0
 32
0.0
 13
1.0
 23
0.0
 33
0.0
 40
0.0
 40
0.0
 40
0.0
 40
0.0
 40
1.0
 40
1.0
 40
1.0
 40
1.0
 10
73.1462013009356
 20
92.28543077336774
 30
0.0
 10
73.14246370531839
 20
92.32933999360634
 30
0.0
 10
73.1145442253959
 20
92.36390288837268
 30
0.0
 10
73.06260391527935
 20
92.39590036315211
 30
0.0
  0
SPLINE
  5
97
330
1F
100
AcDbEntity
  8
0
  6
Continuous
 62
     7
370
    15
100
AcDbSpline
210
0.0
220
0.0
230
1.0
 70
     8
 71
     3
 72
     8
 73
     4
 74
     0
 42
0.00000001
 43
0.00000001
 12
1.0
 22
0.0
 32
0.0
 13
1.0
 23
0.0
 33
0.0
 40
0.0
 40
0.0
 40
0.0
 40
0.0
 40
1.0
 40
1.0
 40
1.0
 40
1.0
 10
73.06260391527915
 20
92.39590036315208
 30
0.0
 10
72.96297756725534
 20
92.45727449725149
 30
0.0
 10
72.79882328160855
 20
92.55986048390228
 30
0.0
 10
72.61779256049064
 20
92.678070977135
 30
0.0
  0
SPLINE
  5
98
330
1F
100
AcDbEntity
  8
0
  6
Continuous
 62
     7
370
    15
100
AcDbSpline
210
0.0
220
0.0
230
1.0
 70
     8
 71
     3
 72
    10
 73
     6
 74
     0
 42
0.00000001
 43
0.00000001
 12
1.0
 22
0.0
 32
0.0
 13
1.0
 23
0.0
 33
0.0
 40
0.0
 40
0.0
 40
0.0
 40
0.0
 40
0.5
 40
0.5
 40
1.0
 40
1.0
 40
1.0
 40
1.0
 10
79.00471256343918
 20
128.9000942732098
 30
0.0
 10
79.1100887730241
 20
128.9247013417547
 30
0.0
 10
79.20915845930521
 20
128.9469173186863
 30
0.0
 10
79.38629637612303
 20
128.985485985368
 30
0.0
 10
79.46183415542603
 20
129.0013002277312
 30
0.0
 10
79.51920654501248
 20
129.0131134736545
 30
0.0
  0
ELLIPSE
  5
99
330
1F
100
AcDbEntity
  8
0
  6
Continuous
 62
     7
370
    15
100
AcDbEllipse
 10
73.0841312907
 20
118.7561650463
 30
0.0
 11
1.79548262128651
 21
2.111692994981865
 31
0.0
210
0.0
220
0.0
230
1.0
 40
0.7389313757
 41
0.0
 42
6.283185307179586
  0
ARC
  5
9A
330
1F
100
AcDbEntity
  8
0
  6
Continuous
 62
     7
370
    15
100
AcDbCircle
 10
83.5526853261
 20
109.4240591595
 30
0.0
 40
19.99999999999997
100
AcDbArc
 50
103.143966919
 51
236.856033081
  0
CIRCLE
  5
9B
330
1F
100
AcDbEntity
  8
VERMASSUNG
  6
CENTERX2
100
AcDbCircle
 10
83.5526853261
 20
111.1346143159
 30
0.0
 40
24.99999999999999
  0
DIMENSION
  5
9C
330
1F
100
AcDbEntity
  8
VERMASSUNG
100
AcDbDimension
  2
_D
 10
65.8750157964
 20
128.8122838455
 30
0.0
 11
59.2052206115
 21
135.4820790305
 31
0.0
 70
   160
  1
%%c<> min. 
 71
     2
 42
-1.0
  3
SLDDIMSTYLE0
100
AcDbAlignedDimension
 13
101.2303548558
 23
93.4569447862
 33
0.0
 14
65.8750157964
 24
128.8122838455
 34
0.0
 50
-45.0
100
AcDbRotatedDimension
  0
INSERT
  5
B6
330
1F
100
AcDbEntity
  8
VERMASSUNG
100
AcDbBlockReference
  2
SW_CENTERMARKSYMBOL_0
 10
83.5526853261
 20
109.4240591595
 30
0.0
  0
LINE
  5
B7
330
1F
100
AcDbEntity
  8
0
  6
Continuous
 62
     7
370
    15
100
AcDbLine
 10
215.0070063547
 20
125.9618415028
 30
0.0
 11
214.4113499814
 21
125.2164954067
 31
0.0
  0
LINE
  5
B8
330
1F
100
AcDbEntity
  8
0
  6
Continuous
 62
     7
370
    15
100
AcDbLine
 10
210.8865040186
 20
128.8812389844
 30
0.0
 11
210.8041607881
 21
128.7451954473
 31
0.0
  0
LINE
  5
B9
330
1F
100
AcDbEntity
  8
0
  6
Continuous
 62
     7
370
    15
100
AcDbLine
 10
222.6476098008
 20
120.8585662031
 30
0.0
 11
223.0670610023
 21
121.5515633653
 31
0.0
  0
LINE
  5
BA
330
1F
100
AcDbEntity
  8
0
  6
Continuous
 62
     7
370
    15
100
AcDbLine
 10
196.1104295154
 20
129.4240591595
 30
0.0
 11
174.1777565033
 21
129.4240591595
 31
0.0
  0
LINE
  5
BB
330
1F
100
AcDbEntity
  8
0
  6
Continuous
 62
     7
370
    15
100
AcDbLine
 10
174.1777565033
 20
89.4240591595
 30
0.0
 11
196.1104295154
 21
89.4240591595
 31
0.0
  0
ARC
  5
BC
330
1F
100
AcDbEntity
  8
0
  6
Continuous
 62
     7
370
    15
100
AcDbCircle
 10
174.1777565033
 20
89.7240591595
 30
0.0
 40
0.3000000000000114
100
AcDbArc
 50
180.0
 51
270.0
  0
ARC
  5
BD
330
1F
100
AcDbEntity
  8
0
  6
Continuous
 62
     7
370
    15
100
AcDbCircle
 10
174.1777565033
 20
129.1240591595
 30
0.0
 40
0.3000000000000114
100
AcDbArc
 50
90.0
 51
180.0
  0
LWPOLYLINE
  5
BE
330
1F
100
AcDbEntity
  8
0
  6
Continuous
 62
     7
370
    15
100
AcDbPolyline
 90
        3
 70
   128
 43
0.0
 10
173.6777565033
 20
95.3342388806
 10
173.8032114468
 20
95.2659367657
 10
173.8777565033
 20
95.2131990076
  0
LWPOLYLINE
  5
BF
330
1F
100
AcDbEntity
  8
0
  6
Continuous
 62
     7
370
    15
100
AcDbPolyline
 90
        3
 70
   128
 43
0.0
 10
173.8777565033
 20
123.6349193115
 10
173.8032114468
 20
123.5821815533
 10
173.6777565033
 20
123.5138794384
  0
ARC
  5
C0
330
1F
100
AcDbEntity
  8
0
  6
Continuous
 62
     7
370
    15
100
AcDbCircle
 10
196.1104295154
 20
130.4240591595
 30
0.0
 40
1.0
100
AcDbArc
 50
270.0
 51
345.0
  0
ARC
  5
C1
330
1F
100
AcDbEntity
  8
0
  6
Continuous
 62
     7
370
    15
100
AcDbCircle
 10
196.1104295154
 20
88.4240591595
 30
0.0
 40
1.0
100
AcDbArc
 50
30.0
 51
90.0
  0
LINE
  5
C2
330
1F
100
AcDbEntity
  8
0
  6
Continuous
 62
     7
370
    15
100
AcDbLine
 10
196.9764549192
 20
88.9240591595
 30
0.0
 11
209.8041608127
 21
88.9240591595
 31
0.0
  0
LINE
  5
C3
330
1F
100
AcDbEntity
  8
0
  6
Continuous
 62
     7
370
    15
100
AcDbLine
 10
197.0965437824
 20
130.2405844008
 30
0.0
 11
197.0763553417
 21
130.1652401144
 31
0.0
  0
ARC
  5
C4
330
1F
100
AcDbEntity
  8
0
  6
Continuous
 62
     7
370
    15
100
AcDbCircle
 10
210.1632108941
 20
113.9176129733
 30
0.0
 40
0.9939519164425188
100
AcDbArc
 50
177.1341110944
 51
217.3795488676
  0
LINE
  5
C5
330
1F
100
AcDbEntity
  8
0
  6
Continuous
 62
     7
370
    15
100
AcDbLine
 10
209.6384281093
 20
117.6148635651
 30
0.0
 11
209.4715440868
 21
114.4646760364
 31
0.0
  0
LINE
  5
C6
330
1F
100
AcDbEntity
  8
0
  6
Continuous
 62
     7
370
    15
100
AcDbLine
 10
209.3373861351
 20
117.1174964505
 30
0.0
 11
209.1705021126
 21
113.9673089218
 31
0.0
  0
CIRCLE
  5
C7
330
1F
100
AcDbEntity
  8
0
  6
Continuous
 62
     7
370
    15
100
AcDbCircle
 10
214.7152592781
 20
109.9726889106
 30
0.0
 40
3.463105209017691
  0
CIRCLE
  5
C8
330
1F
100
AcDbEntity
  8
0
  6
Continuous
 62
     7
370
    15
100
AcDbCircle
 10
214.7448144752
 20
109.9816085924
 30
0.0
 40
1.976859460511466
  0
SPLINE
  5
C9
330
1F
100
AcDbEntity
  8
0
  6
Continuous
 62
     7
370
    15
100
AcDbSpline
210
0.0
220
0.0
230
1.0
 70
     8
 71
     3
 72
    11
 73
     7
 74
     0
 42
0.00000001
 43
0.00000001
 12
1.0
 22
0.0
 32
0.0
 13
1.0
 23
0.0
 33
0.0
 40
0.0
 40
0.0
 40
0.0
 40
0.0
 40
0.1081100880371211
 40
0.4711580666043554
 40
0.8135808430835965
 40
0.9999999999999999
 40
0.9999999999999999
 40
0.9999999999999999
 40
0.9999999999999999
 10
214.1304573184815
 20
108.365107693983
 30
0.0
 10
214.1850999950435
 20
108.3679138308297
 30
0.0
 10
214.4232400087135
 20
108.3801433464589
 30
0.0
 10
214.8875316500788
 20
108.421475111174
 30
0.0
 10
215.4311751084886
 20
108.50891641801
 30
0.0
 10
215.7285375191495
 20
108.5696107395584
 30
0.0
 10
215.8333591045675
 20
108.5910057605244
 30
0.0
  0
SPLINE
  5
CA
330
1F
100
AcDbEntity
  8
0
  6
Continuous
 62
     7
370
    15
100
AcDbSpline
210
0.0
220
0.0
230
1.0
 70
     8
 71
     3
 72
    11
 73
     7
 74
     0
 42
0.00000001
 43
0.00000001
 12
1.0
 22
0.0
 32
0.0
 13
1.0
 23
0.0
 33
0.0
 40
0.0
 40
0.0
 40
0.0
 40
0.0
 40
0.2164499953511901
 40
0.4402998152333213
 40
0.7518914760010343
 40
0.9999999999999999
 40
0.9999999999999999
 40
0.9999999999999999
 40
0.9999999999999999
 10
215.8333591045675
 20
108.5910057605244
 30
0.0
 10
215.870609195039
 20
108.6896743543571
 30
0.0
 10
215.9463828531785
 20
108.8903847473667
 30
0.0
 10
216.098808411235
 20
109.2823629729339
 30
0.0
 10
216.2784498368513
 20
109.7294954671774
 30
0.0
 10
216.404284337983
 20
110.0336013703683
 30
0.0
 10
216.4600652957058
 20
110.1684079486644
 30
0.0
  0
SPLINE
  5
CB
330
1F
100
AcDbEntity
  8
0
  6
Continuous
 62
     7
370
    15
100
AcDbSpline
210
0.0
220
0.0
230
1.0
 70
     8
 71
     3
 72
    11
 73
     7
 74
     0
 42
0.00000001
 43
0.00000001
 12
1.0
 22
0.0
 32
0.0
 13
1.0
 23
0.0
 33
0.0
 40
0.0
 40
0.0
 40
0.0
 40
0.0
 40
0.2164499953511765
 40
0.4402998152332891
 40
0.7518914760010272
 40
0.9999999999999999
 40
0.9999999999999999
 40
0.9999999999999999
 40
0.9999999999999999
 10
216.4600652957058
 20
110.1684079486644
 30
0.0
 10
216.3806679208265
 20
110.2516026983182
 30
0.0
 10
216.2191587952077
 20
110.4208363951892
 30
0.0
 10
215.93124580828
 20
110.7544016067186
 30
0.0
 10
215.6385337022537
 20
111.1388741458233
 30
0.0
 10
215.462086621226
 20
111.4028809513922
 30
0.0
 10
215.3838697007581
 20
111.5199120702629
 30
0.0
  0
SPLINE
  5
CC
330
1F
100
AcDbEntity
  8
0
  6
Continuous
 62
     7
370
    15
100
AcDbSpline
210
0.0
220
0.0
230
1.0
 70
     8
 71
     3
 72
    11
 73
     7
 74
     0
 42
0.00000001
 43
0.00000001
 12
1.0
 22
0.0
 32
0.0
 13
1.0
 23
0.0
 33
0.0
 40
0.0
 40
0.0
 40
0.0
 40
0.0
 40
0.186419156916376
 40
0.5288419333956508
 40
0.8918899119628763
 40
1.0
 40
1.0
 40
1.0
 40
1.0
 10
215.3838697007581
 20
111.5199120702629
 30
0.0
 10
215.2790481153402
 20
111.498517049297
 30
0.0
 10
214.9816857046792
 20
111.4378227277485
 30
0.0
 10
214.4380422462694
 20
111.3503814209126
 30
0.0
 10
213.9737506049041
 20
111.3090496561974
 30
0.0
 10
213.7356105912341
 20
111.2968201405682
 30
0.0
 10
213.6809679146721
 20
111.2940140037215
 30
0.0
  0
SPLINE
  5
CD
330
1F
100
AcDbEntity
  8
0
  6
Continuous
 62
     7
370
    15
100
AcDbSpline
210
0.0
220
0.0
230
1.0
 70
     8
 71
     3
 72
    11
 73
     7
 74
     0
 42
0.00000001
 43
0.00000001
 12
1.0
 22
0.0
 32
0.0
 13
1.0
 23
0.0
 33
0.0
 40
0.0
 40
0.0
 40
0.0
 40
0.0
 40
0.2164499953511919
 40
0.4402998152333303
 40
0.751891476001058
 40
1.0
 40
1.0
 40
1.0
 40
1.0
 10
213.6809679146721
 20
111.2940140037215
 30
0.0
 10
213.6323602189656
 20
111.1765809191265
 30
0.0
 10
213.5334830653591
 20
110.9377000387386
 30
0.0
 10
213.3617996294697
 20
110.5139048708479
 30
0.0
 10
213.193767589587
 20
110.0859528470335
 30
0.0
 10
213.097109236986
 20
109.8300503774235
 30
0.0
 10
213.0542617235338
 20
109.7166118155816
 30
0.0
  0
SPLINE
  5
CE
330
1F
100
AcDbEntity
  8
0
  6
Continuous
 62
     7
370
    15
100
AcDbSpline
210
0.0
220
0.0
230
1.0
 70
     8
 71
     3
 72
    11
 73
     7
 74
     0
 42
0.00000001
 43
0.00000001
 12
1.0
 22
0.0
 32
0.0
 13
1.0
 23
0.0
 33
0.0
 40
0.0
 40
0.0
 40
0.0
 40
0.0
 40
0.2164499953512022
 40
0.440299815233341
 40
0.7518914760010807
 40
0.9999999999999999
 40
0.9999999999999999
 40
0.9999999999999999
 40
0.9999999999999999
 10
213.0542617235338
 20
109.7166118155816
 30
0.0
 10
213.1223014931781
 20
109.6146525751654
 30
0.0
 10
213.2607071233297
 20
109.4072483909161
 30
0.0
 10
213.5293622324246
 20
109.0418662370632
 30
0.0
 10
213.8336837241845
 20
108.6765741683875
 30
0.0
 10
214.039306953743
 20
108.4607707963996
 30
0.0
 10
214.1304573184815
 20
108.365107693983
 30
0.0
  0
LINE
  5
CF
330
1F
100
AcDbEntity
  8
0
  6
Continuous
 62
     7
370
    15
100
AcDbLine
 10
215.687835139
 20
108.5620971627
 30
0.0
 11
215.7566066644
 21
108.7351931943
 31
0.0
  0
LINE
  5
D0
330
1F
100
AcDbEntity
  8
0
  6
Continuous
 62
     7
370
    15
100
AcDbLine
 10
215.7566066644
 20
108.7351931943
 30
0.0
 11
216.06995976
 21
109.5238942884
 31
0.0
  0
LINE
  5
D1
330
1F
100
AcDbEntity
  8
0
  6
Continuous
 62
     7
370
    15
100
AcDbLine
 10
216.06995976
 20
109.5238942884
 30
0.0
 11
216.4600652957
 21
110.1684079487
 31
0.0
  0
LINE
  5
D2
330
1F
100
AcDbEntity
  8
0
  6
Continuous
 62
     7
370
    15
100
AcDbLine
 10
216.06995976
 20
109.5238942884
 30
0.0
 11
215.5318619625
 21
110.1996463492
 31
0.0
  0
LINE
  5
D3
330
1F
100
AcDbEntity
  8
0
  6
Continuous
 62
     7
370
    15
100
AcDbLine
 10
215.5318619625
 20
110.1996463492
 30
0.0
 11
214.993764165
 21
110.87539841
 31
0.0
  0
LINE
  5
D4
330
1F
100
AcDbEntity
  8
0
  6
Continuous
 62
     7
370
    15
100
AcDbLine
 10
214.993764165
 20
110.87539841
 30
0.0
 11
215.3838697008
 21
111.5199120703
 31
0.0
  0
LINE
  5
D5
330
1F
100
AcDbEntity
  8
0
  6
Continuous
 62
     7
370
    15
100
AcDbLine
 10
214.993764165
 20
110.87539841
 30
0.0
 11
214.142313272
 21
110.7624493767
 31
0.0
  0
LINE
  5
D6
330
1F
100
AcDbEntity
  8
0
  6
Continuous
 62
     7
370
    15
100
AcDbLine
 10
214.142313272
 20
110.7624493767
 30
0.0
 11
213.4245254031
 21
110.6672313829
 31
0.0
  0
ARC
  5
D7
330
1F
100
AcDbEntity
  8
0
  6
Continuous
 62
     7
370
    15
100
AcDbCircle
 10
214.3815659914
 20
109.2736423097
 30
0.0
 40
1.476707250037649
100
AcDbArc
 50
338.6152963378
 51
38.8345419652
  0
LWPOLYLINE
  5
D8
330
1F
100
AcDbEntity
  8
0
  6
Continuous
 62
     7
370
    15
100
AcDbPolyline
 90
        3
 70
   128
 43
0.0
 10
215.7566066644
 20
108.7351931943
 10
215.6738766426
 20
108.5617000889
 10
215.6594906686
 20
108.5366788917
  0
ARC
  5
D9
330
1F
100
AcDbEntity
  8
0
  6
Continuous
 62
     7
370
    15
100
AcDbCircle
 10
214.3323220787
 20
109.3086631335
 30
0.0
 40
1.46615067016273
100
AcDbArc
 50
97.4463082021
 51
134.9662195314
  0
ARC
  5
DA
330
1F
100
AcDbEntity
  8
0
  6
Continuous
 62
     7
370
    15
100
AcDbCircle
 10
214.3387389476
 20
109.2506356096
 30
0.0
 40
1.524520879610024
100
AcDbArc
 50
38.4987599794
 51
97.4028082648
  0
ELLIPSE
  5
DB
330
1F
100
AcDbEntity
  8
0
  6
Continuous
 62
     7
370
    15
100
AcDbEllipse
 10
216.8487729885
 20
124.502222577
 30
0.0
 11
1.980360473108391
 21
-1.266117462755034
 31
0.0
210
0.0
220
0.0
230
1.0
 40
0.9803342941
 41
1.990847558493998
 42
3.696040273471179
  0
ELLIPSE
  5
DC
330
1F
100
AcDbEntity
  8
0
  6
Continuous
 62
     7
370
    15
100
AcDbEllipse
 10
216.8487729885
 20
124.502222577
 30
0.0
 11
1.980360473108391
 21
-1.266117462755034
 31
0.0
210
0.0
220
0.0
230
1.0
 40
0.9803342941
 41
0.2149108427355713
 42
1.99084755849401
  0
SPLINE
  5
DD
330
1F
100
AcDbEntity
  8
0
  6
Continuous
 62
     7
370
    15
100
AcDbSpline
210
0.0
220
0.0
230
1.0
 70
     8
 71
     3
 72
    12
 73
     8
 74
     0
 42
0.00000001
 43
0.00000001
 12
1.0
 22
0.0
 32
0.0
 13
1.0
 23
0.0
 33
0.0
 40
0.0
 40
0.0
 40
0.0
 40
0.0
 40
0.0587088252320976
 40
0.329318730096316
 40
0.6057935134768658
 40
0.8842977765607254
 40
1.0
 40
1.0
 40
1.0
 40
1.0
 10
215.0075809914341
 20
125.9774079351865
 30
0.0
 10
214.9955432346306
 20
125.9714942202269
 30
0.0
 10
214.9280191653264
 20
125.938322084812
 30
0.0
 10
214.8120686418905
 20
125.8648467123424
 30
0.0
 10
214.6623407734489
 20
125.7562980715335
 30
0.0
 10
214.54832021765
 20
125.6598215415116
 30
0.0
 10
214.4890006939691
 20
125.5974507269723
 30
0.0
 10
214.4715900195691
 20
125.5791444784284
 30
0.0
  0
LINE
  5
DE
330
1F
100
AcDbEntity
  8
0
  6
Continuous
 62
     7
370
    15
100
AcDbLine
 10
210.6833785156
 20
114.0630930267
 30
0.0
 11
222.9356687094
 21
121.4207732437
 31
0.0
  0
ARC
  5
DF
330
1F
100
AcDbEntity
  8
0
  6
Continuous
 62
     7
370
    15
100
AcDbCircle
 10
210.4784450433
 20
114.4107287952
 30
0.0
 40
0.4035447379891389
100
AcDbArc
 50
177.4229820073
 51
300.5196171078
  0
LINE
  5
E0
330
1F
100
AcDbEntity
  8
0
  6
Continuous
 62
     7
370
    15
100
AcDbLine
 10
210.831439261
 20
128.7019827694
 30
0.0
 11
210.0753084161
 21
114.428873089
 31
0.0
  0
ARC
  5
E1
330
1F
100
AcDbEntity
  8
0
  6
Continuous
 62
     7
370
    15
100
AcDbCircle
 10
211.2156781295
 20
128.6819968378
 30
0.0
 40
0.3847582949292732
100
AcDbArc
 50
120.933424075
 51
177.0224810537
  0
LINE
  5
E2
330
1F
100
AcDbEntity
  8
0
  6
Continuous
 62
     7
370
    15
100
AcDbLine
 10
223.2701865054
 20
136.369709323
 30
0.0
 11
211.0178963116
 21
129.012029106
 31
0.0
  0
ARC
  5
E3
330
1F
100
AcDbEntity
  8
0
  6
Continuous
 62
     7
370
    15
100
AcDbCircle
 10
223.4751199777
 20
136.0220735545
 30
0.0
 40
0.4035447379891137
100
AcDbArc
 50
357.4229820073
 51
120.5196171078
  0
LINE
  5
E4
330
1F
100
AcDbEntity
  8
0
  6
Continuous
 62
     7
370
    15
100
AcDbLine
 10
223.12212576
 20
121.7308195803
 30
0.0
 11
223.8782566049
 21
136.0039292607
 31
0.0
  0
ARC
  5
E5
330
1F
100
AcDbEntity
  8
0
  6
Continuous
 62
     7
370
    15
100
AcDbCircle
 10
222.7378868915
 20
121.7508055119
 30
0.0
 40
0.3847582949295318
100
AcDbArc
 50
300.933424075
 51
357.0224810537
  0
ARC
  5
E6
330
1F
100
AcDbEntity
  8
0
  6
Continuous
 62
     7
370
    15
100
AcDbCircle
 10
223.4754136304
 20
136.022559683
 30
0.0
 40
0.3833675010896681
100
AcDbArc
 50
357.4229820073
 51
120.5196171078
  0
LINE
  5
E7
330
1F
100
AcDbEntity
  8
0
  6
Continuous
 62
     7
370
    15
100
AcDbLine
 10
223.2807268316
 20
136.352813663
 30
0.0
 11
211.028436638
 21
128.9951334457
 31
0.0
  0
ARC
  5
E8
330
1F
100
AcDbEntity
  8
0
  6
Continuous
 62
     7
370
    15
100
AcDbCircle
 10
211.2163293659
 20
128.6816027902
 30
0.0
 40
0.3655203813237105
100
AcDbArc
 50
120.9334241415
 51
177.0224808999
  0
LINE
  5
E9
330
1F
100
AcDbEntity
  8
0
  6
Continuous
 62
     7
370
    15
100
AcDbLine
 10
210.8513024398
 20
128.7005894263
 30
0.0
 11
210.0951715949
 21
114.4274797458
 31
0.0
  0
ARC
  5
EA
330
1F
100
AcDbEntity
  8
0
  6
Continuous
 62
     7
370
    15
100
AcDbCircle
 10
210.4781513907
 20
114.4102426667
 30
0.0
 40
0.3833675010896911
100
AcDbArc
 50
177.4229820073
 51
300.5196171078
  0
LINE
  5
EB
330
1F
100
AcDbEntity
  8
0
  6
Continuous
 62
     7
370
    15
100
AcDbLine
 10
210.6728381894
 20
114.0799886867
 30
0.0
 11
222.9251283831
 21
121.4376689037
 31
0.0
  0
ARC
  5
EC
330
1F
100
AcDbEntity
  8
0
  6
Continuous
 62
     7
370
    15
100
AcDbCircle
 10
222.7372356562
 20
121.7511995585
 30
0.0
 40
0.3655203801828596
100
AcDbArc
 50
300.933424075
 51
357.0224810537
  0
LINE
  5
ED
330
1F
100
AcDbEntity
  8
0
  6
Continuous
 62
     7
370
    15
100
AcDbLine
 10
223.1022625813
 20
121.7322129235
 30
0.0
 11
223.8583934262
 21
136.0053226039
 31
0.0
  0
LINE
  5
EE
330
1F
100
AcDbEntity
  8
0
  6
Continuous
 62
     7
370
    15
100
AcDbLine
 10
210.4496391674
 20
114.3631177143
 30
0.0
 11
210.6728381894
 21
114.0799886867
 31
0.0
  0
LINE
  5
EF
330
1F
100
AcDbEntity
  8
0
  6
Continuous
 62
     7
370
    15
100
AcDbLine
 10
210.4496391674
 20
114.3631177143
 30
0.0
 11
210.0951715949
 21
114.4274797458
 31
0.0
  0
LINE
  5
F0
330
1F
100
AcDbEntity
  8
0
  6
Continuous
 62
     7
370
    15
100
AcDbLine
 10
222.7019293611
 20
121.7207979313
 30
0.0
 11
222.9251283831
 21
121.4376689037
 31
0.0
  0
LINE
  5
F1
330
1F
100
AcDbEntity
  8
0
  6
Continuous
 62
     7
370
    15
100
AcDbLine
 10
211.4882598876
 20
116.0908152092
 30
0.0
 11
210.4496391674
 21
114.3631177143
 31
0.0
  0
LINE
  5
F2
330
1F
100
AcDbEntity
  8
0
  6
Continuous
 62
     7
370
    15
100
AcDbLine
 10
211.4882598876
 20
116.0908152092
 30
0.0
 11
212.0577486119
 21
116.4328015526
 31
0.0
  0
LINE
  5
F3
330
1F
100
AcDbEntity
  8
0
  6
Continuous
 62
     7
370
    15
100
AcDbLine
 10
222.2583710081
 20
121.928841516
 30
0.0
 11
222.7019293611
 21
121.7207979313
 31
0.0
  0
LINE
  5
F4
330
1F
100
AcDbEntity
  8
0
  6
Continuous
 62
     7
370
    15
100
AcDbLine
 10
209.6384281093
 20
117.6148635651
 30
0.0
 11
209.4115526744
 21
113.3322476801
 31
0.0
  0
LINE
  5
F5
330
1F
100
AcDbEntity
  8
0
  6
Continuous
 62
     7
370
    15
100
AcDbLine
 10
211.2057700122
 20
128.6362273947
 30
0.0
 11
210.8513024398
 21
128.7005894263
 31
0.0
  0
LINE
  5
F6
330
1F
100
AcDbEntity
  8
0
  6
Continuous
 62
     7
370
    15
100
AcDbLine
 10
211.5971689871
 20
128.3420085864
 30
0.0
 11
211.2057700122
 21
128.6362273947
 31
0.0
  0
LINE
  5
F7
330
1F
100
AcDbEntity
  8
0
  6
Continuous
 62
     7
370
    15
100
AcDbLine
 10
211.5234049897
 20
116.7542319987
 30
0.0
 11
211.4882598876
 21
116.0908152092
 31
0.0
  0
ARC
  5
F8
330
1F
100
AcDbEntity
  8
0
  6
Continuous
 62
     7
370
    15
100
AcDbCircle
 10
213.3512935392
 20
119.187721853
 30
0.0
 40
1.008861844972843
100
AcDbArc
 50
177.4229820073
 51
300.5196171078
  0
LINE
  5
F9
330
1F
100
AcDbEntity
  8
0
  6
Continuous
 62
     7
370
    15
100
AcDbLine
 10
212.0478219008
 20
117.0235249651
 30
0.0
 11
212.0498121886
 21
117.0223277222
 31
0.0
  0
SPLINE
  5
FA
330
1F
100
AcDbEntity
  8
0
  6
Continuous
 62
     7
370
    15
100
AcDbSpline
210
0.0
220
0.0
230
1.0
 70
     8
 71
     3
 72
    14
 73
    10
 74
     0
 42
0.00000001
 43
0.00000001
 12
1.0
 22
0.0
 32
0.0
 13
1.0
 23
0.0
 33
0.0
 40
0.0
 40
0.0
 40
0.0
 40
0.0
 40
0.2210591904779578
 40
0.3460797326519236
 40
0.4396016244131491
 40
0.5338897453199838
 40
0.6146561933587628
 40
0.7517253237593913
 40
1.0
 40
1.0
 40
1.0
 40
1.0
 10
212.0478219007997
 20
117.0235249650609
 30
0.0
 10
211.9962275999781
 20
117.0524062524367
 30
0.0
 10
211.9154540216612
 20
117.0976214194337
 30
0.0
 10
211.8006555562406
 20
117.1261308037827
 30
0.0
 10
211.7165599336602
 20
117.1223137535722
 30
0.0
 10
211.6507243931948
 20
117.0917483215125
 30
0.0
 10
211.5934429044994
 20
117.0323305290535
 30
0.0
 10
211.5399356774079
 20
116.9204679218327
 30
0.0
 10
211.5298823120321
 20
116.8193692557709
 30
0.0
 10
211.5234049897272
 20
116.7542319987234
 30
0.0
  0
SPLINE
  5
FB
330
1F
100
AcDbEntity
  8
0
  6
Continuous
 62
     7
370
    15
100
AcDbSpline
210
0.0
220
0.0
230
1.0
 70
     8
 71
     3
 72
    14
 73
    10
 74
     0
 42
0.00000001
 43
0.00000001
 12
1.0
 22
0.0
 32
0.0
 13
1.0
 23
0.0
 33
0.0
 40
0.0
 40
0.0
 40
0.0
 40
0.0
 40
0.2234968253973708
 40
0.3567622963774682
 40
0.4531212562341385
 40
0.5344619041500402
 40
0.6157317558035367
 40
0.7396161778922133
 40
1.0
 40
1.0
 40
1.0
 40
1.0
 10
212.0577486119365
 20
116.4328015525633
 30
0.0
 10
212.1068015277203
 20
116.4652472573425
 30
0.0
 10
212.1851034492258
 20
116.5170395104272
 30
0.0
 10
212.261397818753
 20
116.6094839585824
 30
0.0
 10
212.2929884762237
 20
116.6856683478538
 30
0.0
 10
212.2954076905296
 20
116.7549439052899
 30
0.0
 10
212.2714043125944
 20
116.8279642625762
 30
0.0
 10
212.1951541498129
 20
116.9282682059545
 30
0.0
 10
212.108517802612
 20
116.9843357919263
 30
0.0
 10
212.0498121886084
 20
117.0223277221786
 30
0.0
  0
LINE
  5
FC
330
1F
100
AcDbEntity
  8
0
  6
Continuous
 62
     7
370
    15
100
AcDbLine
 10
213.86362722
 20
118.318632432
 30
0.0
 11
220.7207913116
 21
122.4364601837
 31
0.0
  0
LINE
  5
FD
330
1F
100
AcDbEntity
  8
0
  6
Continuous
 62
     7
370
    15
100
AcDbLine
 10
212.7666310828
 20
127.2212263247
 30
0.0
 11
212.3434519713
 21
119.2330825875
 31
0.0
  0
ARC
  5
FE
330
1F
100
AcDbEntity
  8
0
  6
Continuous
 62
     7
370
    15
100
AcDbCircle
 10
213.727228254
 20
127.1712614956
 30
0.0
 40
0.9618957373232847
100
AcDbArc
 50
120.933424075
 51
177.0224810537
  0
LINE
  5
FF
330
1F
100
AcDbEntity
  8
0
  6
Continuous
 62
     7
370
    15
100
AcDbLine
 10
220.089937801
 20
132.1141699178
 30
0.0
 11
213.2327737094
 21
127.9963421661
 31
0.0
  0
ARC
  5
100
330
1F
100
AcDbEntity
  8
0
  6
Continuous
 62
     7
370
    15
100
AcDbCircle
 10
220.6022714822
 20
131.2450804969
 30
0.0
 40
1.008861844953783
100
AcDbArc
 50
357.4229819929
 51
120.5196171286
  0
LINE
  5
101
330
1F
100
AcDbEntity
  8
0
  6
Continuous
 62
     7
370
    15
100
AcDbLine
 10
221.1869339383
 20
123.2115760251
 30
0.0
 11
221.61011305
 21
131.1997197622
 31
0.0
  0
ARC
  5
102
330
1F
100
AcDbEntity
  8
0
  6
Continuous
 62
     7
370
    15
100
AcDbCircle
 10
220.226336767
 20
123.2615408542
 30
0.0
 40
0.961895737323286
100
AcDbArc
 50
300.933424075
 51
357.0224810537
  0
LWPOLYLINE
  5
103
330
1F
100
AcDbEntity
  8
0
  6
Continuous
 62
     7
370
    15
100
AcDbPolyline
 90
       32
 70
   128
 43
0.0
 10
219.5391325697
 20
125.0366599096
 10
219.5137129032
 20
125.5506050097
 10
219.3844310083
 20
126.0508677655
 10
219.1565797011
 20
126.5169673611
 10
218.8394872407
 20
126.9298216242
 10
218.4461354299
 20
127.2725282527
 10
217.9926281378
 20
127.5310567971
 10
217.4975320065
 20
127.6948230684
 10
216.9811163296
 20
127.7571224562
 10
216.4645232256
 20
127.7154044161
 10
215.9689020769
 20
127.5713768898
 10
215.5145436716
 20
127.330936381
 10
215.1200494962
 20
127.0039265524
 10
214.8015701886
 20
126.6037352248
 10
214.5721443289
 20
126.1467462782
 10
214.441164639
 20
125.6516688938
 10
214.4139934426
 20
125.1387715978
 10
214.4917431318
 20
124.6290524658
 10
214.6712306252
 20
124.143379459
 10
214.9451076836
 20
123.7016360873
 10
215.3021617481
 20
123.3219073762
 10
215.7277749834
 20
123.0197394639
 10
216.2045227337
 20
122.8075031401
 10
216.7128868899
 20
122.6938873849
 10
217.2320549638
 20
122.6835436406
 10
217.7407721535
 20
122.7768953814
 10
218.2182115175
 20
122.970120776
 10
218.644826632
 20
123.255309154
 10
219.0031518242
 20
123.6207848698
 10
219.2785172187
 20
124.0515853046
 10
219.4596493237
 20
124.530073438
 10
219.5391325697
 20
125.0366599096
  0
ARC
  5
104
330
1F
100
AcDbEntity
  8
0
  6
Continuous
 62
     7
370
    15
100
AcDbCircle
 10
216.2542714922
 20
124.1354965483
 30
0.0
 40
2.524458720682891
100
AcDbArc
 50
98.2372720445
 51
133.7083237569
  0
SPLINE
  5
105
330
1F
100
AcDbEntity
  8
0
  6
Continuous
 62
     7
370
    15
100
AcDbSpline
210
0.0
220
0.0
230
1.0
 70
     8
 71
     3
 72
    11
 73
     7
 74
     0
 42
0.00000001
 43
0.00000001
 12
1.0
 22
0.0
 32
0.0
 13
1.0
 23
0.0
 33
0.0
 40
0.0
 40
0.0
 40
0.0
 40
0.0
 40
0.3280455501580007
 40
0.6557028173711981
 40
0.9906967996087748
 40
1.0
 40
1.0
 40
1.0
 40
1.0
 10
222.2583710080658
 20
121.9288415160442
 30
0.0
 10
222.1915532491071
 20
121.9621853958843
 30
0.0
 10
222.0579968183659
 20
122.0288336889115
 30
0.0
 10
221.8492993887038
 20
122.1573340860453
 30
0.0
 10
221.7228044917915
 20
122.2467759917594
 30
0.0
 10
221.6653908383639
 20
122.2910466721727
 30
0.0
 10
221.6638394730028
 20
122.2922429033128
 30
0.0
  0
LINE
  5
106
330
1F
100
AcDbEntity
  8
0
  6
Continuous
 62
     7
370
    15
100
AcDbLine
 10
222.2980595922
 20
134.0656720769
 30
0.0
 11
223.458060206
 21
135.9939076117
 31
0.0
  0
LINE
  5
107
330
1F
100
AcDbEntity
  8
0
  6
Continuous
 62
     7
370
    15
100
AcDbLine
 10
223.458060206
 20
135.9939076117
 30
0.0
 11
223.8583934262
 21
136.0053226039
 31
0.0
  0
LINE
  5
108
330
1F
100
AcDbEntity
  8
0
  6
Continuous
 62
     7
370
    15
100
AcDbLine
 10
222.7019293611
 20
121.7207979313
 30
0.0
 11
223.1022625813
 21
121.7322129235
 31
0.0
  0
LINE
  5
109
330
1F
100
AcDbEntity
  8
0
  6
Continuous
 62
     7
370
    15
100
AcDbLine
 10
222.2629144901
 20
133.4022552874
 30
0.0
 11
222.2980595922
 21
134.0656720769
 31
0.0
  0
SPLINE
  5
10A
330
1F
100
AcDbEntity
  8
0
  6
Continuous
 62
     7
370
    15
100
AcDbSpline
210
0.0
220
0.0
230
1.0
 70
     8
 71
     3
 72
    11
 73
     7
 74
     0
 42
0.00000001
 43
0.00000001
 12
1.0
 22
0.0
 32
0.0
 13
1.0
 23
0.0
 33
0.0
 40
0.0
 40
0.0
 40
0.0
 40
0.0
 40
0.3280455501579987
 40
0.655702817371199
 40
0.9906967996087708
 40
1.0
 40
1.0
 40
1.0
 40
1.0
 10
211.5971689871113
 20
128.3420085863825
 30
0.0
 10
211.6579079740945
 20
128.2986216509669
 30
0.0
 10
211.7793140558717
 20
128.2118991340011
 30
0.0
 10
211.9906382876145
 20
128.0877386133075
 30
0.0
 10
212.1289802534646
 20
128.0178698668153
 30
0.0
 10
212.1950320981479
 20
127.987870791786
 30
0.0
 10
212.1968168747256
 20
127.9870601914655
 30
0.0
  0
LINE
  5
10B
330
1F
100
AcDbEntity
  8
0
  6
Continuous
 62
     7
370
    15
100
AcDbLine
 10
211.2057700122
 20
128.6362273947
 30
0.0
 11
211.028436638
 21
128.9951334457
 31
0.0
  0
LINE
  5
10C
330
1F
100
AcDbEntity
  8
0
  6
Continuous
 62
     7
370
    15
100
AcDbLine
 10
223.458060206
 20
135.9939076117
 30
0.0
 11
223.2807268316
 21
136.352813663
 31
0.0
  0
LINE
  5
10D
330
1F
100
AcDbEntity
  8
0
  6
Continuous
 62
     7
370
    15
100
AcDbLine
 10
222.2980595922
 20
134.0656720769
 30
0.0
 11
221.7285708679
 21
133.7236857335
 31
0.0
  0
LINE
  5
10E
330
1F
100
AcDbEntity
  8
0
  6
Continuous
 62
     7
370
    15
100
AcDbLine
 10
221.738497579
 20
133.132962321
 30
0.0
 11
221.7365072912
 21
133.1341595639
 31
0.0
  0
SPLINE
  5
10F
330
1F
100
AcDbEntity
  8
0
  6
Continuous
 62
     7
370
    15
100
AcDbSpline
210
0.0
220
0.0
230
1.0
 70
     8
 71
     3
 72
    14
 73
    10
 74
     0
 42
0.00000001
 43
0.00000001
 12
1.0
 22
0.0
 32
0.0
 13
1.0
 23
0.0
 33
0.0
 40
0.0
 40
0.0
 40
0.0
 40
0.0
 40
0.223496825397379
 40
0.3567622963774714
 40
0.4531212562341427
 40
0.5344619041500404
 40
0.6157317558035388
 40
0.7396161778921985
 40
1.0
 40
1.0
 40
1.0
 40
1.0
 10
221.7285708678635
 20
133.723685733541
 30
0.0
 10
221.6795179520798
 20
133.6912400287618
 30
0.0
 10
221.6012160305742
 20
133.6394477756771
 30
0.0
 10
221.5249216610471
 20
133.5470033275219
 30
0.0
 10
221.4933310035763
 20
133.4708189382505
 30
0.0
 10
221.4909117892704
 20
133.4015433808144
 30
0.0
 10
221.5149151672057
 20
133.3285230235281
 30
0.0
 10
221.5911653299871
 20
133.2282190801498
 30
0.0
 10
221.677801677188
 20
133.172151494178
 30
0.0
 10
221.7365072911916
 20
133.1341595639257
 30
0.0
  0
SPLINE
  5
110
330
1F
100
AcDbEntity
  8
0
  6
Continuous
 62
     7
370
    15
100
AcDbSpline
210
0.0
220
0.0
230
1.0
 70
     8
 71
     3
 72
    14
 73
    10
 74
     0
 42
0.00000001
 43
0.00000001
 12
1.0
 22
0.0
 32
0.0
 13
1.0
 23
0.0
 33
0.0
 40
0.0
 40
0.0
 40
0.0
 40
0.0
 40
0.2210591904779534
 40
0.3460797326519281
 40
0.4396016244131444
 40
0.5338897453199767
 40
0.614656193358752
 40
0.7517253237593696
 40
1.0
 40
1.0
 40
1.0
 40
1.0
 10
221.7384975790004
 20
133.1329623210434
 30
0.0
 10
221.790091879822
 20
133.1040810336675
 30
0.0
 10
221.8708654581388
 20
133.0588658666705
 30
0.0
 10
221.9856639235595
 20
133.0303564823215
 30
0.0
 10
222.0697595461398
 20
133.0341735325321
 30
0.0
 10
222.1355950866052
 20
133.0647389645918
 30
0.0
 10
222.1928765753007
 20
133.1241567570508
 30
0.0
 10
222.2463838023921
 20
133.2360193642716
 30
0.0
 10
222.256437167768
 20
133.3371180303334
 30
0.0
 10
222.2629144900729
 20
133.4022552873809
 30
0.0
  0
SPLINE
  5
111
330
1F
100
AcDbEntity
  8
0
  6
Continuous
 62
     7
370
    15
100
AcDbSpline
210
0.0
220
0.0
230
1.0
 70
     8
 71
     3
 72
    12
 73
     8
 74
     0
 42
0.00000001
 43
0.00000001
 12
1.0
 22
0.0
 32
0.0
 13
1.0
 23
0.0
 33
0.0
 40
0.0
 40
0.0
 40
0.0
 40
0.0
 40
0.4999999999999956
 40
0.4999999999999956
 40
0.7499999999999978
 40
0.7499999999999978
 40
1.0
 40
1.0
 40
1.0
 40
1.0
 10
180.5498508842127
 20
115.5623042865714
 30
0.0
 10
180.5685441173432
 20
115.494721650131
 30
0.0
 10
180.5941994147549
 20
115.4282390806536
 30
0.0
 10
180.6543600374414
 20
115.3392439977561
 30
0.0
 10
180.6784323491957
 20
115.3112421007569
 30
0.0
 10
180.7368138695463
 20
115.2681657000917
 30
0.0
 10
180.7722826971993
 20
115.253272155164
 30
0.0
 10
180.809658505348
 20
115.253272155164
 30
0.0
  0
LINE
  5
112
330
1F
100
AcDbEntity
  8
0
  6
Continuous
 62
     7
370
    15
100
AcDbLine
 10
180.8096585053
 20
115.2532721552
 30
0.0
 11
182.9458545013
 21
115.2532721552
 31
0.0
  0
SPLINE
  5
113
330
1F
100
AcDbEntity
  8
0
  6
Continuous
 62
     7
370
    15
100
AcDbSpline
210
0.0
220
0.0
230
1.0
 70
     8
 71
     3
 72
    12
 73
     8
 74
     0
 42
0.00000001
 43
0.00000001
 12
1.0
 22
0.0
 32
0.0
 13
1.0
 23
0.0
 33
0.0
 40
0.0
 40
0.0
 40
0.0
 40
0.0
 40
0.2499999999999988
 40
0.2499999999999988
 40
0.4999999999999977
 40
0.4999999999999977
 40
1.0
 40
1.0
 40
1.0
 40
1.0
 10
182.9458545013497
 20
115.253272155164
 30
0.0
 10
182.9833663873943
 20
115.253272155164
 30
0.0
 10
183.0186537350991
 20
115.2680769694508
 30
0.0
 10
183.0775835833375
 20
115.3116688425766
 30
0.0
 10
183.1011093098066
 20
115.3391822686626
 30
0.0
 10
183.1613680975746
 20
115.4283140007762
 30
0.0
 10
183.1869628598639
 20
115.494699851394
 30
0.0
 10
183.205662122485
 20
115.5623042865714
 30
0.0
  0
ELLIPSE
  5
114
330
1F
100
AcDbEntity
  8
0
  6
Continuous
 62
     7
370
    15
100
AcDbEllipse
 10
172.9288273309
 20
109.4240591595
 30
0.0
 11
9.367417879781726
 21
19.74174915274994
 31
0.0
210
0.0
220
0.0
230
1.0
 40
0.3419987131
 41
5.185211263708393
 42
6.132113578252552
  0
SPLINE
  5
115
330
1F
100
AcDbEntity
  8
0
  6
Continuous
 62
     7
370
    15
100
AcDbSpline
210
0.0
220
0.0
230
1.0
 70
     8
 71
     3
 72
    12
 73
     8
 74
     0
 42
0.00000001
 43
0.00000001
 12
1.0
 22
0.0
 32
0.0
 13
1.0
 23
0.0
 33
0.0
 40
0.0
 40
0.0
 40
0.0
 40
0.0
 40
0.5000000000000023
 40
0.5000000000000023
 40
0.7500000000000011
 40
0.7500000000000011
 40
1.0
 40
1.0
 40
1.0
 40
1.0
 10
183.205662122485
 20
128.4588154426943
 30
0.0
 10
183.1869688893546
 20
128.4806091963223
 30
0.0
 10
183.1613135919428
 20
128.5016293580319
 30
0.0
 10
183.1011529692563
 20
128.5293347039956
 30
0.0
 10
183.077080657502
 20
128.537969920189
 30
0.0
 10
183.0186991371514
 20
128.5511845654156
 30
0.0
 10
182.9832303094984
 20
128.5557155397457
 30
0.0
 10
182.9458545013497
 20
128.5557155397457
 30
0.0
  0
LINE
  5
116
330
1F
100
AcDbEntity
  8
0
  6
Continuous
 62
     7
370
    15
100
AcDbLine
 10
182.9458545013
 20
128.5557155397
 30
0.0
 11
180.8096585053
 21
128.5557155397
 31
0.0
  0
SPLINE
  5
117
330
1F
100
AcDbEntity
  8
0
  6
Continuous
 62
     7
370
    15
100
AcDbSpline
210
0.0
220
0.0
230
1.0
 70
     8
 71
     3
 72
    12
 73
     8
 74
     0
 42
0.00000001
 43
0.00000001
 12
1.0
 22
0.0
 32
0.0
 13
1.0
 23
0.0
 33
0.0
 40
0.0
 40
0.0
 40
0.0
 40
0.0
 40
0.2499999999999997
 40
0.2499999999999997
 40
0.4999999999999994
 40
0.4999999999999994
 40
1.0
 40
1.0
 40
1.0
 40
1.0
 10
180.809658505348
 20
128.5557155397457
 30
0.0
 10
180.7721466193034
 20
128.5557155397457
 30
0.0
 10
180.7368592715987
 20
128.5512119954832
 30
0.0
 10
180.6779294233602
 20
128.5378387960299
 30
0.0
 10
180.6544036968912
 20
128.5293538934588
 30
0.0
 10
180.5941449091231
 20
128.5016060896242
 30
0.0
 10
180.5685501468338
 20
128.4806162258838
 30
0.0
 10
180.5498508842127
 20
128.4588154426943
 30
0.0
  0
ELLIPSE
  5
118
330
1F
100
AcDbEntity
  8
0
  6
Continuous
 62
     7
370
    15
100
AcDbEllipse
 10
190.8266856758
 20
109.4240591595
 30
0.0
 11
-9.367417879781613
 21
19.74174915274993
 31
0.0
210
0.0
220
0.0
230
1.0
 40
0.3419987131
 41
0.1510717289270761
 42
1.097974043471206
  0
SPLINE
  5
119
330
1F
100
AcDbEntity
  8
0
  6
Continuous
 62
     7
370
    15
100
AcDbSpline
210
0.0
220
0.0
230
1.0
 70
     8
 71
     3
 72
    12
 73
     8
 74
     0
 42
0.00000001
 43
0.00000001
 12
1.0
 22
0.0
 32
0.0
 13
1.0
 23
0.0
 33
0.0
 40
0.0
 40
0.0
 40
0.0
 40
0.0
 40
0.5000000000000006
 40
0.5000000000000006
 40
0.7500000000000002
 40
0.7500000000000002
 40
1.0
 40
1.0
 40
1.0
 40
1.0
 10
180.5498508842127
 20
90.38930287633052
 30
0.0
 10
180.5686541170644
 20
90.36738087806945
 30
0.0
 10
180.5941907760836
 20
90.3464870700595
 30
0.0
 10
180.6544169500321
 20
90.31876034394173
 30
0.0
 10
180.678343027432
 20
90.31018721056627
 30
0.0
 10
180.7364039476133
 20
90.29700810475873
 30
0.0
 10
180.7722056462393
 20
90.29240277927907
 30
0.0
 10
180.809658505348
 20
90.29240277927907
 30
0.0
  0
LINE
  5
11A
330
1F
100
AcDbEntity
  8
0
  6
Continuous
 62
     7
370
    15
100
AcDbLine
 10
180.8096585053
 20
90.2924027793
 30
0.0
 11
182.9458545013
 21
90.2924027793
 31
0.0
  0
SPLINE
  5
11B
330
1F
100
AcDbEntity
  8
0
  6
Continuous
 62
     7
370
    15
100
AcDbSpline
210
0.0
220
0.0
230
1.0
 70
     8
 71
     3
 72
    12
 73
     8
 74
     0
 42
0.00000001
 43
0.00000001
 12
1.0
 22
0.0
 32
0.0
 13
1.0
 23
0.0
 33
0.0
 40
0.0
 40
0.0
 40
0.0
 40
0.0
 40
0.2499999999999986
 40
0.2499999999999986
 40
0.4999999999999971
 40
0.4999999999999971
 40
1.0
 40
1.0
 40
1.0
 40
1.0
 10
182.9458545013497
 20
90.29240277927907
 30
0.0
 10
182.9833553242274
 20
90.29240277927907
 30
0.0
 10
183.0186337282634
 20
90.29690374714222
 30
0.0
 10
183.0775514483158
 20
90.31027026835953
 30
0.0
 10
183.1010748297142
 20
90.31875152860438
 30
0.0
 10
183.1613304141801
 20
90.34648892428228
 30
0.0
 10
183.1868520665912
 20
90.36737292333535
 30
0.0
 10
183.205662122485
 20
90.38930287633052
 30
0.0
  0
ELLIPSE
  5
11C
330
1F
100
AcDbEntity
  8
0
  6
Continuous
 62
     7
370
    15
100
AcDbEllipse
 10
172.9288273309
 20
109.4240591595
 30
0.0
 11
-9.367417879781812
 21
19.74174915274993
 31
0.0
210
0.0
220
0.0
230
1.0
 40
0.3419987131
 41
3.292664382516895
 42
4.239566697060996
  0
SPLINE
  5
11D
330
1F
100
AcDbEntity
  8
0
  6
Continuous
 62
     7
370
    15
100
AcDbSpline
210
0.0
220
0.0
230
1.0
 70
     8
 71
     3
 72
    12
 73
     8
 74
     0
 42
0.00000001
 43
0.00000001
 12
1.0
 22
0.0
 32
0.0
 13
1.0
 23
0.0
 33
0.0
 40
0.0
 40
0.0
 40
0.0
 40
0.0
 40
0.5000000000000031
 40
0.5000000000000031
 40
0.7500000000000016
 40
0.7500000000000016
 40
1.0
 40
1.0
 40
1.0
 40
1.0
 10
183.205662122485
 20
103.2858140324532
 30
0.0
 10
183.1868588896333
 20
103.3537943567157
 30
0.0
 10
183.1613222306141
 20
103.4198847445125
 30
0.0
 10
183.1010960566656
 20
103.5089493569596
 30
0.0
 10
183.0771699792656
 20
103.5367504439795
 30
0.0
 10
183.0191090590844
 20
103.5797095172044
 30
0.0
 10
182.9833073604584
 20
103.5948461638607
 30
0.0
 10
182.9458545013497
 20
103.5948461638607
 30
0.0
  0
LINE
  5
11E
330
1F
100
AcDbEntity
  8
0
  6
Continuous
 62
     7
370
    15
100
AcDbLine
 10
182.9458545013
 20
103.5948461639
 30
0.0
 11
180.8096585053
 21
103.5948461639
 31
0.0
  0
SPLINE
  5
11F
330
1F
100
AcDbEntity
  8
0
  6
Continuous
 62
     7
370
    15
100
AcDbSpline
210
0.0
220
0.0
230
1.0
 70
     8
 71
     3
 72
    12
 73
     8
 74
     0
 42
0.00000001
 43
0.00000001
 12
1.0
 22
0.0
 32
0.0
 13
1.0
 23
0.0
 33
0.0
 40
0.0
 40
0.0
 40
0.0
 40
0.0
 40
0.2500000000000008
 40
0.2500000000000008
 40
0.5000000000000017
 40
0.5000000000000017
 40
1.0
 40
1.0
 40
1.0
 40
1.0
 10
180.809658505348
 20
103.5948461638607
 30
0.0
 10
180.7721576824703
 20
103.5948461638607
 30
0.0
 10
180.7368792784343
 20
103.5800498261076
 30
0.0
 10
180.677961558382
 20
103.5364795649485
 30
0.0
 10
180.6544381769836
 20
103.5089777664469
 30
0.0
 10
180.5941825925176
 20
103.4198786032039
 30
0.0
 10
180.5686609401065
 20
103.3538190244215
 30
0.0
 10
180.5498508842127
 20
103.2858140324533
 30
0.0
  0
ELLIPSE
  5
120
330
1F
100
AcDbEntity
  8
0
  6
Continuous
 62
     7
370
    15
100
AcDbEllipse
 10
190.8266856758
 20
109.4240591595
 30
0.0
 11
9.367417879781641
 21
19.74174915274993
 31
0.0
210
0.0
220
0.0
230
1.0
 40
0.3419987131
 41
2.043618610118599
 42
2.990520924662724
  0
SPLINE
  5
121
330
1F
100
AcDbEntity
  8
0
  6
Continuous
 62
     7
370
    15
100
AcDbSpline
210
0.0
220
0.0
230
1.0
 70
     8
 71
     3
 72
    10
 73
     6
 74
     0
 42
0.00000001
 43
0.00000001
 12
1.0
 22
0.0
 32
0.0
 13
1.0
 23
0.0
 33
0.0
 40
0.0
 40
0.0
 40
0.0
 40
0.0
 40
0.5
 40
0.5
 40
1.0
 40
1.0
 40
1.0
 40
1.0
 10
195.7354513822109
 20
128.9000942732098
 30
0.0
 10
195.7621129526724
 20
128.9247013417547
 30
0.0
 10
195.8075575510568
 20
128.9469173186863
 30
0.0
 10
195.9350772324245
 20
128.985485985368
 30
0.0
 10
196.015413665173
 20
129.0013002277312
 30
0.0
 10
196.1104295153699
 20
129.0131134736545
 30
0.0
  0
ELLIPSE
  5
122
330
1F
100
AcDbEntity
  8
0
  6
Continuous
 62
     7
370
    15
100
AcDbEllipse
 10
197.8417616251
 20
109.4240591595
 30
0.0
 11
-0.9999649288125453
 21
19.99826732264189
 31
0.0
210
0.0
220
0.0
230
1.0
 40
0.263265937
 41
0.2162422841860931
 42
2.549958088355993
  0
SPLINE
  5
123
330
1F
100
AcDbEntity
  8
0
  6
Continuous
 62
     7
370
    15
100
AcDbSpline
210
0.0
220
0.0
230
1.0
 70
     8
 71
     3
 72
     8
 73
     4
 74
     0
 42
0.00000001
 43
0.00000001
 12
1.0
 22
0.0
 32
0.0
 13
1.0
 23
0.0
 33
0.0
 40
0.0
 40
0.0
 40
0.0
 40
0.0
 40
1.0
 40
1.0
 40
1.0
 40
1.0
 10
196.1104295153699
 20
92.39590036315208
 30
0.0
 10
195.9206221287606
 20
92.45727449725149
 30
0.0
 10
195.7887216897903
 20
92.55986048390228
 30
0.0
 10
195.7354513822109
 20
92.678070977135
 30
0.0
  0
ELLIPSE
  5
124
330
1F
100
AcDbEntity
  8
0
  6
Continuous
 62
     7
370
    15
100
AcDbEllipse
 10
194.6451233763
 20
118.7561650463
 30
0.0
 11
0.07015558194839855
 21
2.493831804543646
 31
0.0
210
0.0
220
0.0
230
1.0
 40
0.2406917832
 41
0.0
 42
6.283185307179586
  0
LINE
  5
125
330
1F
100
AcDbEntity
  8
0
  6
Continuous
 62
     7
370
    15
100
AcDbLine
 10
173.8777565033
 20
89.7240591595
 30
0.0
 11
173.8777565033
 21
129.1240591563
 31
0.0
  0
SPLINE
  5
126
330
1F
100
AcDbEntity
  8
0
  6
Continuous
 62
     7
370
    15
100
AcDbSpline
210
0.0
220
0.0
230
1.0
 70
     8
 71
     3
 72
    18
 73
    14
 74
     0
 42
0.00000001
 43
0.00000001
 12
1.0
 22
0.0
 32
0.0
 13
1.0
 23
0.0
 33
0.0
 40
0.0
 40
0.0
 40
0.0
 40
0.0
 40
0.2500000000000004
 40
0.2500000000000004
 40
0.5000000000000009
 40
0.5000000000000009
 40
0.6250000000000007
 40
0.6250000000000007
 40
0.7500000000000004
 40
0.7500000000000004
 40
0.8750000000000002
 40
0.8750000000000002
 40
1.0
 40
1.0
 40
1.0
 40
1.0
 10
172.6216721857848
 20
95.59287077683356
 30
0.0
 10
172.6559690052366
 20
95.59200912135171
 30
0.0
 10
172.6937802852138
 20
95.59226072444667
 30
0.0
 10
172.7803526523938
 20
95.59465923705852
 30
0.0
 10
172.8286917824767
 20
95.59683022179044
 30
0.0
 10
172.9179641397992
 20
95.60092510008566
 30
0.0
 10
172.9505056055751
 20
95.60242971803527
 30
0.0
 10
173.0266818054285
 20
95.6053927760034
 30
0.0
 10
173.0698978654231
 20
95.60688011425918
 30
0.0
 10
173.1755871673891
 20
95.60850552558287
 30
0.0
 10
173.2405582261036
 20
95.60846328450896
 30
0.0
 10
173.3742186144614
 20
95.60444111118797
 30
0.0
 10
173.4335250677976
 20
95.60089988436447
 30
0.0
 10
173.4827796144736
 20
95.59733317692837
 30
0.0
  0
SPLINE
  5
127
330
1F
100
AcDbEntity
  8
0
  6
Continuous
 62
     7
370
    15
100
AcDbSpline
210
0.0
220
0.0
230
1.0
 70
     8
 71
     3
 72
    14
 73
    10
 74
     0
 42
0.00000001
 43
0.00000001
 12
1.0
 22
0.0
 32
0.0
 13
1.0
 23
0.0
 33
0.0
 40
0.0
 40
0.0
 40
0.0
 40
0.0
 40
0.1249999999999995
 40
0.1249999999999995
 40
0.249999999999999
 40
0.249999999999999
 40
0.4999999999999983
 40
0.4999999999999983
 40
1.0
 40
1.0
 40
1.0
 40
1.0
 10
173.4827796144428
 20
95.5973331769473
 30
0.0
 10
173.4943063921602
 20
95.59649847951326
 30
0.0
 10
173.5076591998126
 20
95.59475806523312
 30
0.0
 10
173.5378017724128
 20
95.58751047523282
 30
0.0
 10
173.5528622980272
 20
95.58216344100487
 30
0.0
 10
173.5882086519555
 20
95.56641617077644
 30
0.0
 10
173.6019407516845
 20
95.55657789661517
 30
0.0
 10
173.6353119973756
 20
95.5303739106647
 30
0.0
 10
173.6462523652296
 20
95.51628600926414
 30
0.0
 10
173.6549054902428
 20
95.50351238577578
 30
0.0
  0
LINE
  5
128
330
1F
100
AcDbEntity
  8
0
  6
Continuous
 62
     7
370
    15
100
AcDbLine
 10
173.6777565033
 20
103.9186143925
 30
0.0
 11
173.6777565033
 21
95.3342388806
 31
0.0
  0
SPLINE
  5
129
330
1F
100
AcDbEntity
  8
0
  6
Continuous
 62
     7
370
    15
100
AcDbSpline
210
0.0
220
0.0
230
1.0
 70
     8
 71
     3
 72
    16
 73
    12
 74
     0
 42
0.00000001
 43
0.00000001
 12
1.0
 22
0.0
 32
0.0
 13
1.0
 23
0.0
 33
0.0
 40
0.0
 40
0.0
 40
0.0
 40
0.0
 40
0.5000000000000003
 40
0.5000000000000003
 40
0.7499999999999993
 40
0.7499999999999993
 40
0.8749999999999997
 40
0.8749999999999997
 40
0.9374999999999999
 40
0.9374999999999999
 40
1.0
 40
1.0
 40
1.0
 40
1.0
 10
173.6777565033489
 20
103.9186143925495
 30
0.0
 10
173.6777565033489
 20
104.036189773569
 30
0.0
 10
173.6738730781899
 20
104.1548855266703
 30
0.0
 10
173.6490577529152
 20
104.3356430046627
 30
0.0
 10
173.6382183052028
 20
104.3972870814357
 30
0.0
 10
173.6050025231539
 20
104.486624055777
 30
0.0
 10
173.5916207795251
 20
104.5168835872021
 30
0.0
 10
173.5561111296629
 20
104.5503998311895
 30
0.0
 10
173.5406941631622
 20
104.5585381769956
 30
0.0
 10
173.5089931410136
 20
104.5585227675642
 30
0.0
 10
173.4948468560628
 20
104.5514805302084
 30
0.0
 10
173.4827796144731
 20
104.5423394665988
 30
0.0
  0
SPLINE
  5
12A
330
1F
100
AcDbEntity
  8
0
  6
Continuous
 62
     7
370
    15
100
AcDbSpline
210
0.0
220
0.0
230
1.0
 70
     8
 71
     3
 72
    18
 73
    14
 74
     0
 42
0.00000001
 43
0.00000001
 12
1.0
 22
0.0
 32
0.0
 13
1.0
 23
0.0
 33
0.0
 40
0.0
 40
0.0
 40
0.0
 40
0.0
 40
0.1250000000000001
 40
0.1250000000000001
 40
0.2500000000000001
 40
0.2500000000000001
 40
0.3750000000000002
 40
0.3750000000000002
 40
0.5000000000000002
 40
0.5000000000000002
 40
0.7500000000000001
 40
0.7500000000000001
 40
1.0
 40
1.0
 40
1.0
 40
1.0
 10
173.4827796144793
 20
104.5423394665916
 30
0.0
 10
173.4340750307913
 20
104.505445227401
 30
0.0
 10
173.3755665480158
 20
104.475913922975
 30
0.0
 10
173.243839732746
 20
104.4666779496962
 30
0.0
 10
173.1790816612485
 20
104.4897411242532
 30
0.0
 10
173.0738710590978
 20
104.5572592459006
 30
0.0
 10
173.0306549105776
 20
104.6002703425511
 30
0.0
 10
172.9544765944937
 20
104.6905123645472
 30
0.0
 10
172.9216217622025
 20
104.7381432460225
 30
0.0
 10
172.8312538562415
 20
104.8852075453721
 30
0.0
 10
172.7818311984019
 20
104.9891208706766
 30
0.0
 10
172.6941800728103
 20
105.200254834317
 30
0.0
 10
172.6561185254198
 20
105.3079775790758
 30
0.0
 10
172.6216721857859
 20
105.4173106949852
 30
0.0
  0
SPLINE
  5
12B
330
1F
100
AcDbEntity
  8
0
  6
Continuous
 62
     7
370
    15
100
AcDbSpline
210
0.0
220
0.0
230
1.0
 70
     8
 71
     3
 72
     8
 73
     4
 74
     0
 42
0.00000001
 43
0.00000001
 12
1.0
 22
0.0
 32
0.0
 13
1.0
 23
0.0
 33
0.0
 40
0.0
 40
0.0
 40
0.0
 40
0.0
 40
1.0
 40
1.0
 40
1.0
 40
1.0
 10
172.5564361597891
 20
105.652514469114
 30
0.0
 10
172.5758623650881
 20
105.5729221975412
 30
0.0
 10
172.5973591895165
 20
105.4944804514085
 30
0.0
 10
172.6216721857859
 20
105.4173106949852
 30
0.0
  0
SPLINE
  5
12C
330
1F
100
AcDbEntity
  8
0
  6
Continuous
 62
     7
370
    15
100
AcDbSpline
210
0.0
220
0.0
230
1.0
 70
     8
 71
     3
 72
     8
 73
     4
 74
     0
 42
0.00000001
 43
0.00000001
 12
1.0
 22
0.0
 32
0.0
 13
1.0
 23
0.0
 33
0.0
 40
0.0
 40
0.0
 40
0.0
 40
0.0
 40
1.0
 40
1.0
 40
1.0
 40
1.0
 10
172.6216721857859
 20
113.4308076240397
 30
0.0
 10
172.5973591895165
 20
113.3536378676164
 30
0.0
 10
172.575862365088
 20
113.2751961214836
 30
0.0
 10
172.5564361597891
 20
113.1956038499109
 30
0.0
  0
SPLINE
  5
12D
330
1F
100
AcDbEntity
  8
0
  6
Continuous
 62
     7
370
    15
100
AcDbSpline
210
0.0
220
0.0
230
1.0
 70
     8
 71
     3
 72
    18
 73
    14
 74
     0
 42
0.00000001
 43
0.00000001
 12
1.0
 22
0.0
 32
0.0
 13
1.0
 23
0.0
 33
0.0
 40
0.0
 40
0.0
 40
0.0
 40
0.0
 40
0.25
 40
0.25
 40
0.5
 40
0.5
 40
0.625
 40
0.625
 40
0.75
 40
0.75
 40
0.875
 40
0.875
 40
1.0
 40
1.0
 40
1.0
 40
1.0
 10
172.6216721857858
 20
113.4308076240397
 30
0.0
 10
172.6559705047985
 20
113.5396709206327
 30
0.0
 10
172.6937849021105
 20
113.646678343869
 30
0.0
 10
172.780372963184
 20
113.8557131680074
 30
0.0
 10
172.8287230688627
 20
113.9578832619969
 30
0.0
 10
172.9180396576625
 20
114.1045640335616
 30
0.0
 10
172.9506000131508
 20
114.1523657320972
 30
0.0
 10
173.0268456468797
 20
114.2439212701226
 30
0.0
 10
173.0700050166597
 20
114.2876006621145
 30
0.0
 10
173.1757338406778
 20
114.3569548794411
 30
0.0
 10
173.2407310177325
 20
114.3810711931071
 30
0.0
 10
173.3742155076867
 20
114.3728669710688
 30
0.0
 10
173.4335429011322
 20
114.3430761854769
 30
0.0
 10
173.4827796144736
 20
114.3057788524258
 30
0.0
  0
SPLINE
  5
12E
330
1F
100
AcDbEntity
  8
0
  6
Continuous
 62
     7
370
    15
100
AcDbSpline
210
0.0
220
0.0
230
1.0
 70
     8
 71
     3
 72
    16
 73
    12
 74
     0
 42
0.00000001
 43
0.00000001
 12
1.0
 22
0.0
 32
0.0
 13
1.0
 23
0.0
 33
0.0
 40
0.0
 40
0.0
 40
0.0
 40
0.0
 40
0.0625
 40
0.0625
 40
0.1249999999999999
 40
0.1249999999999999
 40
0.2499999999999976
 40
0.2499999999999976
 40
0.4999999999999974
 40
0.4999999999999974
 40
1.0
 40
1.0
 40
1.0
 40
1.0
 10
173.4827796144428
 20
114.3057788523774
 30
0.0
 10
173.4948494477186
 20
114.2966358255316
 30
0.0
 10
173.509125102652
 20
114.2895913778403
 30
0.0
 10
173.5405895147764
 20
114.2895843059417
 30
0.0
 10
173.5560900395868
 20
114.2977122747387
 30
0.0
 10
173.5915289361937
 20
114.3311207357459
 30
0.0
 10
173.605121552297
 20
114.3617879022081
 30
0.0
 10
173.6381158706898
 20
114.4506088962899
 30
0.0
 10
173.6489032640086
 20
114.5115115418378
 30
0.0
 10
173.6739565112877
 20
114.6935196192161
 30
0.0
 10
173.677756503349
 20
114.8122083342548
 30
0.0
 10
173.677756503349
 20
114.9295039264753
 30
0.0
  0
LINE
  5
12F
330
1F
100
AcDbEntity
  8
0
  6
Continuous
 62
     7
370
    15
100
AcDbLine
 10
173.6777565033
 20
123.5138794384
 30
0.0
 11
173.6777565033
 21
114.9295039265
 31
0.0
  0
SPLINE
  5
130
330
1F
100
AcDbEntity
  8
0
  6
Continuous
 62
     7
370
    15
100
AcDbSpline
210
0.0
220
0.0
230
1.0
 70
     8
 71
     3
 72
    12
 73
     8
 74
     0
 42
0.00000001
 43
0.00000001
 12
1.0
 22
0.0
 32
0.0
 13
1.0
 23
0.0
 33
0.0
 40
0.0
 40
0.0
 40
0.0
 40
0.0
 40
0.4999999999999982
 40
0.4999999999999982
 40
0.7499999999999991
 40
0.7499999999999991
 40
1.0
 40
1.0
 40
1.0
 40
1.0
 10
173.6374171734812
 20
123.3226666623831
 30
0.0
 10
173.6272943214001
 20
123.3117329177455
 30
0.0
 10
173.614931537054
 20
123.299667630923
 30
0.0
 10
173.5800969338808
 20
123.2783182905788
 30
0.0
 10
173.5647397126377
 20
123.2700986143497
 30
0.0
 10
173.5220706704979
 20
123.2557593147202
 30
0.0
 10
173.4996464561382
 20
123.2520065336968
 30
0.0
 10
173.4827796144731
 20
123.2507851420965
 30
0.0
  0
SPLINE
  5
131
330
1F
100
AcDbEntity
  8
0
  6
Continuous
 62
     7
370
    15
100
AcDbSpline
210
0.0
220
0.0
230
1.0
 70
     8
 71
     3
 72
    18
 73
    14
 74
     0
 42
0.00000001
 43
0.00000001
 12
1.0
 22
0.0
 32
0.0
 13
1.0
 23
0.0
 33
0.0
 40
0.0
 40
0.0
 40
0.0
 40
0.0
 40
0.1250000000000002
 40
0.1250000000000002
 40
0.2500000000000004
 40
0.2500000000000004
 40
0.3750000000000006
 40
0.3750000000000006
 40
0.5000000000000008
 40
0.5000000000000008
 40
0.7500000000000003
 40
0.7500000000000003
 40
1.0
 40
1.0
 40
1.0
 40
1.0
 10
173.4827796144793
 20
123.2507851420963
 30
0.0
 10
173.4340754854625
 20
123.2472582924782
 30
0.0
 10
173.375567816258
 20
123.2437580192805
 30
0.0
 10
173.2438421536271
 20
123.2397150353926
 30
0.0
 10
173.1790845150068
 20
123.239603460762
 30
0.0
 10
173.0738740983877
 20
123.2411356455235
 30
0.0
 10
173.0306580634475
 20
123.2425907977386
 30
0.0
 10
172.9544798419666
 20
123.2455160592683
 30
0.0
 10
172.9216250742824
 20
123.2470263897765
 30
0.0
 10
172.8312573554406
 20
123.2511683824649
 30
0.0
 10
172.7818349862512
 20
123.2534064674514
 30
0.0
 10
172.6941825241632
 20
123.2558577504979
 30
0.0
 10
172.6561197879287
 20
123.2561129858589
 30
0.0
 10
172.6216721857853
 20
123.255247542191
 30
0.0
  0
SPLINE
  5
132
330
1F
100
AcDbEntity
  8
0
  6
Continuous
 62
     7
370
    15
100
AcDbSpline
210
0.0
220
0.0
230
1.0
 70
     8
 71
     3
 72
    16
 73
    12
 74
     0
 42
0.00000001
 43
0.00000001
 12
1.0
 22
0.0
 32
0.0
 13
1.0
 23
0.0
 33
0.0
 40
0.0
 40
0.0
 40
0.0
 40
0.0
 40
0.2500000000000001
 40
0.2500000000000001
 40
0.375
 40
0.375
 40
0.5
 40
0.5
 40
0.7499999999999999
 40
0.7499999999999999
 40
1.0
 40
1.0
 40
1.0
 40
1.0
 10
172.1777565033489
 20
112.3702575555817
 30
0.0
 10
172.0972196939533
 20
111.9011847287187
 30
0.0
 10
172.0371822851512
 20
111.4208210785387
 30
0.0
 10
171.9764443379039
 20
110.6836367993978
 30
0.0
 10
171.961121856861
 20
110.4351183961707
 30
0.0
 10
171.9405389050831
 20
109.932334950957
 30
0.0
 10
171.9353393580465
 20
109.6774763979323
 30
0.0
 10
171.9352856475063
 20
108.9211990582116
 30
0.0
 10
171.9554829847754
 20
108.4225408589018
 30
0.0
 10
172.0361612918484
 20
107.4361178881575
 30
0.0
 10
172.0972076401897
 20
106.9470037953845
 30
0.0
 10
172.1777565033489
 20
106.4778607634431
 30
0.0
  0
LINE
  5
133
330
1F
100
AcDbEntity
  8
0
  6
Continuous
 62
     7
370
    15
100
AcDbLine
 10
172.1777565033
 20
106.4778607634
 30
0.0
 11
172.1777565033
 21
105.322855494
 31
0.0
  0
LINE
  5
134
330
1F
100
AcDbEntity
  8
0
  6
Continuous
 62
     7
370
    15
100
AcDbLine
 10
151.3777565033
 20
113.2639786256
 30
0.0
 11
151.3777565033
 21
105.5841396934
 31
0.0
  0
LINE
  5
135
330
1F
100
AcDbEntity
  8
0
  6
Continuous
 62
     7
370
    15
100
AcDbLine
 10
172.1777565033
 20
113.525262825
 30
0.0
 11
172.1777565033
 21
112.3702575556
 31
0.0
  0
SPLINE
  5
136
330
1F
100
AcDbEntity
  8
0
  6
Continuous
 62
     7
370
    15
100
AcDbSpline
210
0.0
220
0.0
230
1.0
 70
     8
 71
     3
 72
     8
 73
     4
 74
     0
 42
0.00000001
 43
0.00000001
 12
1.0
 22
0.0
 32
0.0
 13
1.0
 23
0.0
 33
0.0
 40
0.0
 40
0.0
 40
0.0
 40
0.0
 40
1.0
 40
1.0
 40
1.0
 40
1.0
 10
172.3827165254096
 20
106.4775683551486
 30
0.0
 10
172.433443608132
 20
106.1942172338294
 30
0.0
 10
172.4913309211191
 20
105.9192610496897
 30
0.0
 10
172.5564361597893
 20
105.6525144691141
 30
0.0
  0
SPLINE
  5
137
330
1F
100
AcDbEntity
  8
0
  6
Continuous
 62
     7
370
    15
100
AcDbSpline
210
0.0
220
0.0
230
1.0
 70
     8
 71
     3
 72
    24
 73
    20
 74
     0
 42
0.00000001
 43
0.00000001
 12
1.0
 22
0.0
 32
0.0
 13
1.0
 23
0.0
 33
0.0
 40
0.0
 40
0.0
 40
0.0
 40
0.0
 40
0.2499999999999977
 40
0.2499999999999977
 40
0.3749999999999965
 40
0.3749999999999965
 40
0.4374999999999955
 40
0.4374999999999955
 40
0.4687499999999954
 40
0.4687499999999954
 40
0.4999999999999953
 40
0.4999999999999953
 40
0.5624999999999952
 40
0.5624999999999952
 40
0.624999999999995
 40
0.624999999999995
 40
0.7499999999999967
 40
0.7499999999999967
 40
1.0
 40
1.0
 40
1.0
 40
1.0
 10
172.1777565033406
 20
106.4778607634418
 30
0.0
 10
172.1781595327145
 20
106.5711290560715
 30
0.0
 10
172.1801892724296
 20
106.6648866149204
 30
0.0
 10
172.1894979838494
 20
106.80647650056
 30
0.0
 10
172.1934239769639
 20
106.8536569191692
 30
0.0
 10
172.2043533368799
 20
106.9242529658546
 30
0.0
 10
172.2084749649743
 20
106.9480328796194
 30
0.0
 10
172.2203694861567
 20
106.9814840266666
 30
0.0
 10
172.2256562981105
 20
106.9936389787362
 30
0.0
 10
172.2422242296254
 20
107.0015216177043
 30
0.0
 10
172.2501509383927
 20
106.9939580186023
 30
0.0
 10
172.2671432766179
 20
106.9701655873755
 30
0.0
 10
172.2745409774089
 20
106.949977109531
 30
0.0
 10
172.2886433677507
 20
106.9095274849112
 30
0.0
 10
172.294796525043
 20
106.8886718105137
 30
0.0
 10
172.312110258504
 20
106.8255467752127
 30
0.0
 10
172.3221152993926
 20
106.7825676633112
 30
0.0
 10
172.3504717556233
 20
106.6528420190223
 30
0.0
 10
172.3670202949696
 20
106.5652442918864
 30
0.0
 10
172.3827165254096
 20
106.4775683551486
 30
0.0
  0
SPLINE
  5
138
330
1F
100
AcDbEntity
  8
0
  6
Continuous
 62
     7
370
    15
100
AcDbSpline
210
0.0
220
0.0
230
1.0
 70
     8
 71
     3
 72
    24
 73
    20
 74
     0
 42
0.00000001
 43
0.00000001
 12
1.0
 22
0.0
 32
0.0
 13
1.0
 23
0.0
 33
0.0
 40
0.0
 40
0.0
 40
0.0
 40
0.0
 40
0.2500000000000029
 40
0.2500000000000029
 40
0.3750000000000039
 40
0.3750000000000039
 40
0.4375000000000039
 40
0.4375000000000039
 40
0.5000000000000039
 40
0.5000000000000039
 40
0.5312500000000034
 40
0.5312500000000034
 40
0.5625000000000031
 40
0.5625000000000031
 40
0.6250000000000022
 40
0.6250000000000022
 40
0.7500000000000019
 40
0.7500000000000019
 40
1.0
 40
1.0
 40
1.0
 40
1.0
 10
172.3827165254046
 20
112.3705499638481
 30
0.0
 10
172.3669474804951
 20
112.2824673003596
 30
0.0
 10
172.3503333159347
 20
112.1945224838525
 30
0.0
 10
172.3218011884414
 20
112.0641751165932
 30
0.0
 10
172.3117135548875
 20
112.0209139387923
 30
0.0
 10
172.2942257320383
 20
111.957478162959
 30
0.0
 10
172.2880159241119
 20
111.9365640394159
 30
0.0
 10
172.273738064529
 20
111.8960892477327
 30
0.0
 10
172.2661669021771
 20
111.8756116042738
 30
0.0
 10
172.2487470769997
 20
111.8527652247423
 30
0.0
 10
172.2402629945416
 20
111.8462134277059
 30
0.0
 10
172.2242269209287
 20
111.8567848029468
 30
0.0
 10
172.219406548653
 20
111.86887584323
 30
0.0
 10
172.20799964805
 20
111.9025190864497
 30
0.0
 10
172.2039786863409
 20
111.9259267657459
 30
0.0
 10
172.1932246745628
 20
111.9965153688053
 30
0.0
 10
172.1893527889404
 20
112.0434803963264
 30
0.0
 10
172.1801848241401
 20
112.1840572609287
 30
0.0
 10
172.1781564896271
 20
112.2776934905457
 30
0.0
 10
172.1777565033489
 20
112.3702575555817
 30
0.0
  0
SPLINE
  5
139
330
1F
100
AcDbEntity
  8
0
  6
Continuous
 62
     7
370
    15
100
AcDbSpline
210
0.0
220
0.0
230
1.0
 70
     8
 71
     3
 72
     8
 73
     4
 74
     0
 42
0.00000001
 43
0.00000001
 12
1.0
 22
0.0
 32
0.0
 13
1.0
 23
0.0
 33
0.0
 40
0.0
 40
0.0
 40
0.0
 40
0.0
 40
1.0
 40
1.0
 40
1.0
 40
1.0
 10
172.5564361597893
 20
113.1956038499108
 30
0.0
 10
172.4913309211169
 20
112.9288572693264
 30
0.0
 10
172.4334436081282
 20
112.6539010851773
 30
0.0
 10
172.3827165254045
 20
112.3705499638482
 30
0.0
  0
LINE
  5
13A
330
1F
100
AcDbEntity
  8
0
  6
Continuous
 62
     7
370
    15
100
AcDbLine
 10
149.8777565033
 20
112.8309659237
 30
0.0
 11
149.8777565033
 21
106.0171523953
 31
0.0
  0
LINE
  5
13B
330
1F
100
AcDbEntity
  8
0
  6
Continuous
 62
     7
370
    15
100
AcDbLine
 10
172.3827165254
 20
123.2492441443
 30
0.0
 11
172.6216721858
 21
123.2552475422
 31
0.0
  0
LINE
  5
13C
330
1F
100
AcDbEntity
  8
0
  6
Continuous
 62
     7
370
    15
100
AcDbLine
 10
151.3777565033
 20
95.9265287737
 30
0.0
 11
151.3777565033
 21
105.5841396934
 31
0.0
  0
LINE
  5
13D
330
1F
100
AcDbEntity
  8
0
  6
Continuous
 62
     7
370
    15
100
AcDbLine
 10
172.1777565033
 20
95.4039603749
 30
0.0
 11
172.1777565033
 21
105.322855494
 31
0.0
  0
LINE
  5
13E
330
1F
100
AcDbEntity
  8
0
  6
Continuous
 62
     7
370
    15
100
AcDbLine
 10
151.3777565033
 20
95.9265287737
 30
0.0
 11
172.1777565033
 21
95.4039603749
 31
0.0
  0
ARC
  5
13F
330
1F
100
AcDbEntity
  8
0
  6
Continuous
 62
     7
370
    15
100
AcDbCircle
 10
172.3776934143
 20
95.3989372638
 30
0.0
 40
0.1999999999999778
100
AcDbArc
 50
88.5608333333
 51
178.5608333333
  0
LINE
  5
140
330
1F
100
AcDbEntity
  8
0
  6
Continuous
 62
     7
370
    15
100
AcDbLine
 10
172.1777565033
 20
113.525262825
 30
0.0
 11
172.1777565033
 21
123.4441579441
 31
0.0
  0
ARC
  5
141
330
1F
100
AcDbEntity
  8
0
  6
Continuous
 62
     7
370
    15
100
AcDbCircle
 10
172.3776934143
 20
123.4491810552
 30
0.0
 40
0.1999999999999917
100
AcDbArc
 50
181.4391666667
 51
271.4391666667
  0
LINE
  5
142
330
1F
100
AcDbEntity
  8
0
  6
Continuous
 62
     7
370
    15
100
AcDbLine
 10
151.3777565033
 20
113.2639786256
 30
0.0
 11
151.3777565033
 21
122.9215895454
 31
0.0
  0
LINE
  5
143
330
1F
100
AcDbEntity
  8
0
  6
Continuous
 62
     7
370
    15
100
AcDbLine
 10
151.3777565033
 20
122.9215895454
 30
0.0
 11
172.1777565033
 21
123.4441579441
 31
0.0
  0
LINE
  5
144
330
1F
100
AcDbEntity
  8
0
  6
Continuous
 62
     7
370
    15
100
AcDbLine
 10
172.3827165254
 20
95.5988741748
 30
0.0
 11
172.6216721858
 21
95.5928707768
 31
0.0
  0
LINE
  5
145
330
1F
100
AcDbEntity
  8
0
  6
Continuous
 62
     7
370
    15
100
AcDbLine
 10
149.8777565033
 20
122.0555641416
 30
0.0
 11
151.3777565033
 21
122.9215895454
 31
0.0
  0
LINE
  5
146
330
1F
100
AcDbEntity
  8
0
  6
Continuous
 62
     7
370
    15
100
AcDbLine
 10
149.8777565033
 20
112.8309659237
 30
0.0
 11
149.8777565033
 21
122.0555641416
 31
0.0
  0
LINE
  5
147
330
1F
100
AcDbEntity
  8
0
  6
Continuous
 62
     7
370
    15
100
AcDbLine
 10
149.8777565033
 20
96.7925541775
 30
0.0
 11
151.3777565033
 21
95.9265287737
 31
0.0
  0
LINE
  5
148
330
1F
100
AcDbEntity
  8
0
  6
Continuous
 62
     7
370
    15
100
AcDbLine
 10
149.8777565033
 20
96.7925541775
 30
0.0
 11
149.8777565033
 21
106.0171523953
 31
0.0
  0
SPLINE
  5
149
330
1F
100
AcDbEntity
  8
0
  6
Continuous
 62
     7
370
    15
100
AcDbSpline
210
0.0
220
0.0
230
1.0
 70
     8
 71
     3
 72
     8
 73
     4
 74
     0
 42
0.00000001
 43
0.00000001
 12
1.0
 22
0.0
 32
0.0
 13
1.0
 23
0.0
 33
0.0
 40
0.0
 40
0.0
 40
0.0
 40
0.0
 40
1.0
 40
1.0
 40
1.0
 40
1.0
 10
196.1104295153699
 20
129.0131134736545
 30
0.0
 10
196.2093664982334
 20
129.0254142309182
 30
0.0
 10
196.3169938300259
 20
129.0483423370326
 30
0.0
 10
196.424569272628
 20
129.0883289421721
 30
0.0
  0
SPLINE
  5
14A
330
1F
100
AcDbEntity
  8
0
  6
Continuous
 62
     7
370
    15
100
AcDbSpline
210
0.0
220
0.0
230
1.0
 70
     8
 71
     3
 72
     8
 73
     4
 74
     0
 42
0.00000001
 43
0.00000001
 12
1.0
 22
0.0
 32
0.0
 13
1.0
 23
0.0
 33
0.0
 40
0.0
 40
0.0
 40
0.0
 40
0.0
 40
1.0
 40
1.0
 40
1.0
 40
1.0
 10
196.424569272628
 20
92.28543077336774
 30
0.0
 10
196.3170039667192
 20
92.32933999360634
 30
0.0
 10
196.2093858127596
 20
92.36390288837268
 30
0.0
 10
196.1104295153698
 20
92.39590036315211
 30
0.0
  0
SPLINE
  5
14B
330
1F
100
AcDbEntity
  8
0
  6
Continuous
 62
     7
370
    15
100
AcDbSpline
210
0.0
220
0.0
230
1.0
 70
     8
 71
     3
 72
    12
 73
     8
 74
     0
 42
0.00000001
 43
0.00000001
 12
1.0
 22
0.0
 32
0.0
 13
1.0
 23
0.0
 33
0.0
 40
0.0
 40
0.0
 40
0.0
 40
0.0
 40
0.4999999999999964
 40
0.4999999999999964
 40
0.7499999999999982
 40
0.7499999999999982
 40
1.0
 40
1.0
 40
1.0
 40
1.0
 10
196.424569272628
 20
129.0883289421722
 30
0.0
 10
196.58655515187
 20
129.1485403178797
 30
0.0
 10
196.729826190363
 20
129.2507057894489
 30
0.0
 10
196.897355250514
 20
129.4434082281309
 30
0.0
 10
196.9461291170253
 20
129.5152852741083
 30
0.0
 10
197.0247396640471
 20
129.666374831514
 30
0.0
 10
197.0551349712345
 20
129.745886293584
 30
0.0
 10
197.076355341659
 20
129.8294824028603
 30
0.0
  0
SPLINE
  5
14C
330
1F
100
AcDbEntity
  8
0
  6
Continuous
 62
     7
370
    15
100
AcDbSpline
210
0.0
220
0.0
230
1.0
 70
     8
 71
     3
 72
     8
 73
     4
 74
     0
 42
0.00000001
 43
0.00000001
 12
1.0
 22
0.0
 32
0.0
 13
1.0
 23
0.0
 33
0.0
 40
0.0
 40
0.0
 40
0.0
 40
0.0
 40
1.0
 40
1.0
 40
1.0
 40
1.0
 10
196.9764549191543
 20
91.77968256480118
 30
0.0
 10
196.8580579234998
 20
92.00220664780184
 30
0.0
 10
196.6619461071641
 20
92.18853120506253
 30
0.0
 10
196.424569272628
 20
92.28543077336775
 30
0.0
  0
LINE
  5
14D
330
1F
100
AcDbEntity
  8
0
  6
Continuous
 62
     7
370
    15
100
AcDbLine
 10
196.9764549192
 20
91.7796825648
 30
0.0
 11
196.9764549192
 21
88.9240591595
 31
0.0
  0
CIRCLE
  5
14E
330
1F
100
AcDbEntity
  8
0
  6
Continuous
 62
     7
370
    15
100
AcDbCircle
 10
214.7185640023
 20
109.9694686816
 30
0.0
 40
3.466782267169987
  0
LINE
  5
14F
330
1F
100
AcDbEntity
  8
0
  6
Continuous
 62
     7
370
    15
100
AcDbLine
 10
210.905838945
 20
130.6645239541
 30
0.0
 11
210.2697800275
 21
118.6579529304
 31
0.0
  0
LINE
  5
150
330
1F
100
AcDbEntity
  8
0
  6
Continuous
 62
     7
370
    15
100
AcDbLine
 10
210.2697800275
 20
118.6579529304
 30
0.0
 11
207.6192739963
 21
117.0662851293
 31
0.0
  0
ARC
  5
151
330
1F
100
AcDbEntity
  8
0
  6
Continuous
 62
     7
370
    15
100
AcDbCircle
 10
208.7419895252
 20
115.3022107218
 30
0.0
 40
2.091040093844596
100
AcDbArc
 50
122.474029286
 51
301.4417722183
  0
LINE
  5
152
330
1F
100
AcDbEntity
  8
0
  6
Continuous
 62
     7
370
    15
100
AcDbLine
 10
209.8327425027
 20
113.5181965357
 30
0.0
 11
222.6670421985
 21
121.2253820069
 31
0.0
  0
LINE
  5
153
330
1F
100
AcDbEntity
  8
0
  6
Continuous
 62
     7
370
    15
100
AcDbLine
 10
222.6670421985
 20
121.2253820069
 30
0.0
 11
221.8607538548
 21
106.0054739168
 31
0.0
  0
LINE
  5
154
330
1F
100
AcDbEntity
  8
0
  6
Continuous
 62
     7
370
    15
100
AcDbLine
 10
221.8607538548
 20
106.0054739168
 30
0.0
 11
211.1353631898
 21
91.0333948798
 31
0.0
  0
ELLIPSE
  5
155
330
1F
100
AcDbEntity
  8
0
  6
Continuous
 62
     7
370
    15
100
AcDbEllipse
 10
265.6158301599
 20
109.4240591595
 30
0.0
 11
195.0441159362921
 21
-3.598319842585198
 31
0.0
210
0.0
220
0.0
230
1.0
 40
0.1034726254
 41
4.354680085461533
 42
4.431208624220505
  0
SPLINE
  5
156
330
1F
100
AcDbEntity
  8
0
  6
Continuous
 62
     7
370
    15
100
AcDbSpline
210
0.0
220
0.0
230
1.0
 70
     8
 71
     3
 72
     8
 73
     4
 74
     0
 42
0.00000001
 43
0.00000001
 12
1.0
 22
0.0
 32
0.0
 13
1.0
 23
0.0
 33
0.0
 40
0.0
 40
0.0
 40
0.0
 40
0.0
 40
1.0
 40
1.0
 40
1.0
 40
1.0
 10
197.076355341659
 20
129.8294824028603
 30
0.0
 10
197.1634671397872
 20
130.1726530096838
 30
0.0
 10
197.250884043555
 20
130.5157410821741
 30
0.0
 10
197.3385666346151
 20
130.8587572834151
 30
0.0
  0
LINE
  5
157
330
1F
100
AcDbEntity
  8
0
  6
Continuous
 62
     7
370
    15
100
AcDbLine
 10
197.3385666346
 20
130.8587572834
 30
0.0
 11
209.5567466115
 21
130.635761339
 31
0.0
  0
ARC
  5
158
330
1F
100
AcDbEntity
  8
0
  6
Continuous
 62
     7
370
    15
100
AcDbCircle
 10
209.8682760069
 20
147.6772154756
 30
0.0
 40
17.04430138361635
100
AcDbArc
 50
268.9527107553
 51
273.4900083868
  0
ELLIPSE
  5
159
330
1F
100
AcDbEntity
  8
0
  6
Continuous
 62
     7
370
    15
100
AcDbEllipse
 10
224.3923567614
 20
109.4240591595
 30
0.0
 11
14.59102914264875
 21
20.49919546684258
 31
0.0
210
0.0
220
0.0
230
1.0
 40
0.0124472587
 41
2.692829979984446
 42
4.336276932552133
  0
LINE
  5
15A
330
1F
100
AcDbEntity
  8
0
  6
Continuous
 62
     7
370
    15
100
AcDbLine
 10
221.8607538548
 20
106.0054739168
 30
0.0
 11
219.2702917007
 21
101.7256365607
 31
0.0
  0
LINE
  5
15B
330
1F
100
AcDbEntity
  8
0
  6
Continuous
 62
     7
370
    15
100
AcDbLine
 10
209.3060275962
 20
117.0656873761
 30
0.0
 11
210.2697800275
 21
118.6579529304
 31
0.0
  0
LINE
  5
15C
330
1F
100
AcDbEntity
  8
0
  6
Continuous
 62
     7
370
    15
100
AcDbLine
 10
209.3060275962
 20
117.0656873761
 30
0.0
 11
206.6555215649
 21
115.474019575
 31
0.0
  0
SPLINE
  5
15D
330
1F
100
AcDbEntity
  8
0
  6
Continuous
 62
     7
370
    15
100
AcDbSpline
210
0.0
220
0.0
230
1.0
 70
     8
 71
     3
 72
    11
 73
     7
 74
     0
 42
0.00000001
 43
0.00000001
 12
1.0
 22
0.0
 32
0.0
 13
1.0
 23
0.0
 33
0.0
 40
0.0
 40
0.0
 40
0.0
 40
0.0
 40
0.1089636071564382
 40
0.5854897305547329
 40
0.8238169551879427
 40
1.0
 40
1.0
 40
1.0
 40
1.0
 10
197.0975873068249
 20
130.2403047892709
 30
0.0
 10
197.1033975535577
 20
130.2627981285218
 30
0.0
 10
197.1346175166522
 20
130.3836606759444
 30
0.0
 10
197.1976531663958
 20
130.5535594696031
 30
0.0
 10
197.277949713886
 20
130.7371522723865
 30
0.0
 10
197.3204867386634
 20
130.8224867846803
 30
0.0
 10
197.3385666346151
 20
130.8587572834151
 30
0.0
  0
LWPOLYLINE
  5
15E
330
1F
100
AcDbEntity
  8
0
  6
Continuous
 62
     7
370
    15
100
AcDbPolyline
 90
        3
 70
   128
 43
0.0
 10
211.3627813042
 20
129.2191376095
 10
210.9473522543
 20
129.1636469901
 10
210.8255716822
 20
129.1493583549
  0
SPLINE
  5
15F
330
1F
100
AcDbEntity
  8
0
  6
HIDDEN
 62
     7
370
     0
100
AcDbSpline
210
0.0
220
0.0
230
1.0
 70
     8
 71
     3
 72
    68
 73
    64
 74
     0
 42
0.00000001
 43
0.00000001
 12
1.0
 22
0.0
 32
0.0
 13
1.0
 23
0.0
 33
0.0
 40
-0.0624999999999996
 40
-0.0624999999999996
 40
0.0
 40
0.0
 40
0.03125
 40
0.03125
 40
0.0625
 40
0.0625
 40
0.09375
 40
0.09375
 40
0.1250000000000001
 40
0.1250000000000001
 40
0.1562500000000001
 40
0.1562500000000001
 40
0.1875000000000001
 40
0.1875000000000001
 40
0.2187500000000001
 40
0.2187500000000001
 40
0.2500000000000001
 40
0.2500000000000001
 40
0.2812500000000001
 40
0.2812500000000001
 40
0.3125000000000001
 40
0.3125000000000001
 40
0.3437500000000002
 40
0.3437500000000002
 40
0.3750000000000002
 40
0.3750000000000002
 40
0.4062500000000002
 40
0.4062500000000002
 40
0.4375000000000002
 40
0.4375000000000002
 40
0.4687500000000002
 40
0.4687500000000002
 40
0.5000000000000002
 40
0.5000000000000002
 40
0.5312500000000002
 40
0.5312500000000002
 40
0.5625000000000002
 40
0.5625000000000002
 40
0.5937500000000002
 40
0.5937500000000002
 40
0.6250000000000002
 40
0.6250000000000002
 40
0.6562500000000003
 40
0.6562500000000003
 40
0.6875000000000003
 40
0.6875000000000003
 40
0.7187500000000003
 40
0.7187500000000003
 40
0.7500000000000003
 40
0.7500000000000003
 40
0.7812500000000003
 40
0.7812500000000003
 40
0.8125000000000003
 40
0.8125000000000003
 40
0.8437500000000003
 40
0.8437500000000003
 40
0.8750000000000004
 40
0.8750000000000004
 40
0.9062500000000004
 40
0.9062500000000004
 40
0.9375000000000004
 40
0.9375000000000004
 40
1.0
 40
1.0
 40
1.03125
 40
1.03125
 10
188.2084270160258
 20
104.3086496534527
 30
0.0
 10
187.7124212470108
 20
104.3086496534527
 30
0.0
 10
187.5498815045882
 20
104.292818924777
 30
0.0
 10
187.2301542948908
 20
104.2309074882888
 30
0.0
 10
187.0712977183055
 20
104.184065298442
 30
0.0
 10
186.7686258200765
 20
104.0622024178369
 30
0.0
 10
186.6250980044804
 20
103.9877603143261
 30
0.0
 10
186.3534662255332
 20
103.8124541513263
 30
0.0
 10
186.2249815932101
 20
103.7107599035189
 30
0.0
 10
185.9946248372496
 20
103.489473724681
 30
0.0
 10
185.8911973372868
 20
103.3690749154594
 30
0.0
 10
185.7084322607315
 20
103.1086234231897
 30
0.0
 10
185.6308658850101
 20
102.9706775357588
 30
0.0
 10
185.5061306920138
 20
102.6864295217988
 30
0.0
 10
185.4580503486711
 20
102.5380223225476
 30
0.0
 10
185.3937668398597
 20
102.2357961534632
 30
0.0
 10
185.3778475123033
 20
102.0845496716863
 30
0.0
 10
185.3776662651171
 20
101.7818789835555
 30
0.0
 10
185.3939302943976
 20
101.6289112806274
 30
0.0
 10
185.4577705121968
 20
101.3344495685131
 30
0.0
 10
185.5050040567839
 20
101.1920354460893
 30
0.0
 10
185.6303092230122
 20
100.9166448441161
 30
0.0
 10
185.7085170006373
 20
100.784389920792
 30
0.0
 10
185.8893688831355
 20
100.5404389120201
 30
0.0
 10
185.9927410467953
 20
100.4271012910102
 30
0.0
 10
186.2258775826725
 20
100.2185270469569
 30
0.0
 10
186.3519676196569
 20
100.1265360693998
 30
0.0
 10
186.62250975598
 20
99.9657350237421
 30
0.0
 10
186.7687047165671
 20
99.8963700475035
 30
0.0
 10
187.0713300655168
 20
99.78546470572654
 30
0.0
 10
187.2271525640658
 20
99.74371936264347
 30
0.0
 10
187.5477857363444
 20
99.68722938272956
 30
0.0
 10
187.7135909169524
 20
99.67278446753556
 30
0.0
 10
188.0400447330622
 20
99.67267660385096
 30
0.0
 10
188.2023843353508
 20
99.68654688848702
 30
0.0
 10
188.5252463230054
 20
99.74291856471866
 30
0.0
 10
188.6829870334306
 20
99.78516544642441
 30
0.0
 10
188.9839393661031
 20
99.89518150330447
 30
0.0
 10
189.1294588440429
 20
99.96381942424992
 30
0.0
 10
189.4026620999335
 20
100.1258230711829
 30
0.0
 10
189.5284927478648
 20
100.2177891785117
 30
0.0
 10
189.7591725714406
 20
100.4236024901806
 30
0.0
 10
189.8647900493797
 20
100.5388094129676
 30
0.0
 10
190.0463344367036
 20
100.7833026958099
 30
0.0
 10
190.1232528936971
 20
100.9130657968471
 30
0.0
 10
190.2490806888217
 20
101.1882067479155
 30
0.0
 10
190.2973409581074
 20
101.3332092179354
 30
0.0
 10
190.3612157269056
 20
101.6266141704563
 30
0.0
 10
190.3776058873714
 20
101.7765563163715
 30
0.0
 10
190.3779050723318
 20
102.0831034367029
 30
0.0
 10
190.361815703417
 20
102.2345814703734
 30
0.0
 10
190.2985002965025
 20
102.5340163237053
 30
0.0
 10
190.2504866290117
 20
102.683559850137
 30
0.0
 10
190.1252310900018
 20
102.9696952061129
 30
0.0
 10
190.0485606423534
 20
103.1060621715202
 30
0.0
 10
189.8673508581386
 20
103.3651907747974
 30
0.0
 10
189.7619878120513
 20
103.488270558823
 30
0.0
 10
189.5318061937371
 20
103.7096806360336
 30
0.0
 10
189.4061408538613
 20
103.8095044813378
 30
0.0
 10
189.133012619416
 20
103.9863838534098
 30
0.0
 10
188.9878928846961
 20
104.0616474586457
 30
0.0
 10
188.5369426344431
 20
104.24365783144
 30
0.0
 10
188.2084270160258
 20
104.3086496534527
 30
0.0
 10
187.7124212470108
 20
104.3086496534527
 30
0.0
  0
SPLINE
  5
160
330
1F
100
AcDbEntity
  8
0
  6
HIDDEN
 62
     7
370
     0
100
AcDbSpline
210
0.0
220
0.0
230
1.0
 70
     8
 71
     3
 72
    58
 73
    54
 74
     0
 42
0.00000001
 43
0.00000001
 12
1.0
 22
0.0
 32
0.0
 13
1.0
 23
0.0
 33
0.0
 40
-0.0625
 40
-0.0625
 40
0.0
 40
0.0
 40
0.03125
 40
0.03125
 40
0.0625
 40
0.0625
 40
0.0937499999999999
 40
0.0937499999999999
 40
0.1249999999999999
 40
0.1249999999999999
 40
0.1874999999999996
 40
0.1874999999999996
 40
0.2499999999999993
 40
0.2499999999999993
 40
0.2812499999999994
 40
0.2812499999999994
 40
0.3124999999999994
 40
0.3124999999999994
 40
0.3437499999999994
 40
0.3437499999999994
 40
0.3749999999999995
 40
0.3749999999999995
 40
0.4062499999999995
 40
0.4062499999999995
 40
0.4374999999999996
 40
0.4374999999999996
 40
0.4687499999999996
 40
0.4687499999999996
 40
0.4999999999999996
 40
0.4999999999999996
 40
0.5624999999999997
 40
0.5624999999999997
 40
0.6249999999999997
 40
0.6249999999999997
 40
0.6562499999999997
 40
0.6562499999999997
 40
0.6874999999999997
 40
0.6874999999999997
 40
0.7187499999999997
 40
0.7187499999999997
 40
0.7499999999999997
 40
0.7499999999999997
 40
0.7812499999999997
 40
0.7812499999999997
 40
0.8124999999999998
 40
0.8124999999999998
 40
0.8437499999999999
 40
0.8437499999999999
 40
0.875
 40
0.875
 40
0.9375
 40
0.9375
 40
1.0
 40
1.0
 40
1.03125
 40
1.03125
 10
187.8777565033489
 20
109.1596230450644
 30
0.0
 10
187.8777565033489
 20
109.5562772167365
 30
0.0
 10
187.8647744656767
 20
109.6862693775769
 30
0.0
 10
187.8139236634184
 20
109.9419889900292
 30
0.0
 10
187.7754317593654
 20
110.0690476738904
 30
0.0
 10
187.675016473639
 20
110.3112108715492
 30
0.0
 10
187.6135803343659
 20
110.4260526559339
 30
0.0
 10
187.4684468580551
 20
110.6433948535041
 30
0.0
 10
187.384025169204
 20
110.7462365013518
 30
0.0
 10
187.1074249950392
 20
111.0227799821034
 30
0.0
 10
186.8844260837721
 20
111.1717626182355
 30
0.0
 10
186.4031915661864
 20
111.3713056817903
 30
0.0
 10
186.1398921506774
 20
111.4239161548217
 30
0.0
 10
185.7483287106371
 20
111.4241302135742
 30
0.0
 10
185.6157411000325
 20
111.4111313641686
 30
0.0
 10
185.3591753944332
 20
111.3600812801423
 30
0.0
 10
185.2344656282526
 20
111.3223100413301
 30
0.0
 10
184.9922264432256
 20
111.2221181332176
 30
0.0
 10
184.8752097894519
 20
111.159532739393
 30
0.0
 10
184.6585665846056
 20
111.0148276536825
 30
0.0
 10
184.5575598281472
 20
110.9322083123023
 30
0.0
 10
184.3707537324906
 20
110.7455642775123
 30
0.0
 10
184.2880401969587
 20
110.6446184295524
 30
0.0
 10
184.1431700675834
 20
110.4281372258707
 30
0.0
 10
184.0804997714867
 20
110.3112200608622
 30
0.0
 10
183.9800718334505
 20
110.0690235916638
 30
0.0
 10
183.9422006545207
 20
109.9443626007603
 30
0.0
 10
183.890938256745
 20
109.6879632516923
 30
0.0
 10
183.8778046161044
 20
109.5553523263944
 30
0.0
 10
183.8776606829656
 20
109.1636777140593
 30
0.0
 10
183.9300259402303
 20
108.9003936943987
 30
0.0
 10
184.129186603581
 20
108.4188809805389
 30
0.0
 10
184.277984276943
 20
108.195759893494
 30
0.0
 10
184.5542849355291
 20
107.9189277449864
 30
0.0
 10
184.6570499825889
 20
107.8344205307022
 30
0.0
 10
184.8742672563833
 20
107.6890995890163
 30
0.0
 10
184.989036949821
 20
107.6275773657542
 30
0.0
 10
185.2310234869657
 20
107.5269809624822
 30
0.0
 10
185.3581060598571
 20
107.4883530743936
 30
0.0
 10
185.6137807598603
 20
107.4372749643274
 30
0.0
 10
185.7437212772045
 20
107.4241858245602
 30
0.0
 10
186.0079846449658
 20
107.4239343062016
 30
0.0
 10
186.1381955386128
 20
107.436808776258
 30
0.0
 10
186.3939454840464
 20
107.4874276733901
 30
0.0
 10
186.5209628684137
 20
107.5257754921859
 30
0.0
 10
186.7633145961654
 20
107.6260096123792
 30
0.0
 10
186.8782173754518
 20
107.6873537993693
 30
0.0
 10
187.0956395406008
 20
107.8322588038984
 30
0.0
 10
187.1985759380455
 20
107.9165976960204
 30
0.0
 10
187.4754130952024
 20
108.1929988090621
 30
0.0
 10
187.6245683362665
 20
108.4158424421046
 30
0.0
 10
187.8245389215018
 20
108.8969057233552
 30
0.0
 10
187.8777565033489
 20
109.1596230450644
 30
0.0
 10
187.8777565033489
 20
109.5562772167365
 30
0.0
  0
SPLINE
  5
161
330
1F
100
AcDbEntity
  8
0
  6
HIDDEN
 62
     7
370
     0
100
AcDbSpline
210
0.0
220
0.0
230
1.0
 70
     8
 71
     3
 72
    12
 73
     8
 74
     0
 42
0.00000001
 43
0.00000001
 12
1.0
 22
0.0
 32
0.0
 13
1.0
 23
0.0
 33
0.0
 40
0.0
 40
0.0
 40
0.0
 40
0.0
 40
0.5000000000000006
 40
0.5000000000000006
 40
0.7500000000000002
 40
0.7500000000000002
 40
1.0
 40
1.0
 40
1.0
 40
1.0
 10
180.5498508842127
 20
103.2858140324534
 30
0.0
 10
180.5685441173431
 20
103.3533966688938
 30
0.0
 10
180.5941994147549
 20
103.4198792383712
 30
0.0
 10
180.6543600374413
 20
103.5088743212687
 30
0.0
 10
180.6784323491957
 20
103.5368762182679
 30
0.0
 10
180.7368138695462
 20
103.5799526189331
 30
0.0
 10
180.7722826971993
 20
103.5948461638608
 30
0.0
 10
180.809658505348
 20
103.5948461638608
 30
0.0
  0
LINE
  5
162
330
1F
100
AcDbEntity
  8
0
  6
HIDDEN
 62
     7
370
     0
100
AcDbLine
 10
180.8096585053
 20
103.5948461639
 30
0.0
 11
182.9458545013
 21
103.5948461639
 31
0.0
  0
SPLINE
  5
163
330
1F
100
AcDbEntity
  8
0
  6
HIDDEN
 62
     7
370
     0
100
AcDbSpline
210
0.0
220
0.0
230
1.0
 70
     8
 71
     3
 72
    12
 73
     8
 74
     0
 42
0.00000001
 43
0.00000001
 12
1.0
 22
0.0
 32
0.0
 13
1.0
 23
0.0
 33
0.0
 40
0.0
 40
0.0
 40
0.0
 40
0.0
 40
0.25
 40
0.25
 40
0.5
 40
0.5
 40
1.0
 40
1.0
 40
1.0
 40
1.0
 10
182.9458545013497
 20
103.5948461638608
 30
0.0
 10
182.9833663873943
 20
103.5948461638608
 30
0.0
 10
183.0186537350991
 20
103.580041349574
 30
0.0
 10
183.0775835833375
 20
103.5364494764482
 30
0.0
 10
183.1011093098066
 20
103.5089360503622
 30
0.0
 10
183.1613680975746
 20
103.4198043182486
 30
0.0
 10
183.1869628598639
 20
103.3534184676308
 30
0.0
 10
183.205662122485
 20
103.2858140324534
 30
0.0
  0
ELLIPSE
  5
164
330
1F
100
AcDbEntity
  8
0
  6
HIDDEN
 62
     7
370
     0
100
AcDbEllipse
 10
172.9288273309
 20
109.4240591595
 30
0.0
 11
-9.367417879781755
 21
19.74174915274993
 31
0.0
210
0.0
220
0.0
230
1.0
 40
0.3419987131
 41
3.2926643825169
 42
4.239566697061004
  0
SPLINE
  5
165
330
1F
100
AcDbEntity
  8
0
  6
HIDDEN
 62
     7
370
     0
100
AcDbSpline
210
0.0
220
0.0
230
1.0
 70
     8
 71
     3
 72
    12
 73
     8
 74
     0
 42
0.00000001
 43
0.00000001
 12
1.0
 22
0.0
 32
0.0
 13
1.0
 23
0.0
 33
0.0
 40
0.0
 40
0.0
 40
0.0
 40
0.0
 40
0.4999999999999939
 40
0.4999999999999939
 40
0.7499999999999969
 40
0.7499999999999969
 40
1.0
 40
1.0
 40
1.0
 40
1.0
 10
183.205662122485
 20
90.38930287633055
 30
0.0
 10
183.1869688893546
 20
90.36750912270259
 30
0.0
 10
183.1613135919428
 20
90.34648896099294
 30
0.0
 10
183.1011529692563
 20
90.31878361502923
 30
0.0
 10
183.077080657502
 20
90.31014839883585
 30
0.0
 10
183.0186991371514
 20
90.29693375360925
 30
0.0
 10
182.9832303094984
 20
90.2924027792791
 30
0.0
 10
182.9458545013497
 20
90.2924027792791
 30
0.0
  0
LINE
  5
166
330
1F
100
AcDbEntity
  8
0
  6
HIDDEN
 62
     7
370
     0
100
AcDbLine
 10
182.9458545013
 20
90.2924027793
 30
0.0
 11
180.8096585053
 21
90.2924027793
 31
0.0
  0
SPLINE
  5
167
330
1F
100
AcDbEntity
  8
0
  6
HIDDEN
 62
     7
370
     0
100
AcDbSpline
210
0.0
220
0.0
230
1.0
 70
     8
 71
     3
 72
    12
 73
     8
 74
     0
 42
0.00000001
 43
0.00000001
 12
1.0
 22
0.0
 32
0.0
 13
1.0
 23
0.0
 33
0.0
 40
0.0
 40
0.0
 40
0.0
 40
0.0
 40
0.2499999999999993
 40
0.2499999999999993
 40
0.4999999999999987
 40
0.4999999999999987
 40
1.0
 40
1.0
 40
1.0
 40
1.0
 10
180.809658505348
 20
90.29240277927912
 30
0.0
 10
180.7721466193034
 20
90.29240277927912
 30
0.0
 10
180.7368592715986
 20
90.29690632354162
 30
0.0
 10
180.6779294233602
 20
90.3102795229949
 30
0.0
 10
180.6544036968911
 20
90.31876442556603
 30
0.0
 10
180.5941449091231
 20
90.34651222940063
 30
0.0
 10
180.5685501468338
 20
90.367502093141
 30
0.0
 10
180.5498508842127
 20
90.38930287633055
 30
0.0
  0
ELLIPSE
  5
168
330
1F
100
AcDbEntity
  8
0
  6
HIDDEN
 62
     7
370
     0
100
AcDbEllipse
 10
190.8266856758
 20
109.4240591595
 30
0.0
 11
9.367417879781584
 21
19.74174915274993
 31
0.0
210
0.0
220
0.0
230
1.0
 40
0.3419987131
 41
2.043618610118591
 42
2.990520924662717
  0
SPLINE
  5
169
330
1F
100
AcDbEntity
  8
0
  6
HIDDEN
 62
     7
370
     0
100
AcDbSpline
210
0.0
220
0.0
230
1.0
 70
     8
 71
     3
 72
    12
 73
     8
 74
     0
 42
0.00000001
 43
0.00000001
 12
1.0
 22
0.0
 32
0.0
 13
1.0
 23
0.0
 33
0.0
 40
0.0
 40
0.0
 40
0.0
 40
0.0
 40
0.4999999999999994
 40
0.4999999999999994
 40
0.7499999999999997
 40
0.7499999999999997
 40
1.0
 40
1.0
 40
1.0
 40
1.0
 10
180.5498508842127
 20
128.4588154426944
 30
0.0
 10
180.5685441173432
 20
128.4806091963224
 30
0.0
 10
180.5941994147549
 20
128.501629358032
 30
0.0
 10
180.6543600374414
 20
128.5293347039957
 30
0.0
 10
180.6784323491957
 20
128.5379699201891
 30
0.0
 10
180.7368138695463
 20
128.5511845654157
 30
0.0
 10
180.7722826971993
 20
128.5557155397458
 30
0.0
 10
180.809658505348
 20
128.5557155397458
 30
0.0
  0
LINE
  5
16A
330
1F
100
AcDbEntity
  8
0
  6
HIDDEN
 62
     7
370
     0
100
AcDbLine
 10
180.8096585053
 20
128.5557155397
 30
0.0
 11
182.9458545013
 21
128.5557155397
 31
0.0
  0
SPLINE
  5
16B
330
1F
100
AcDbEntity
  8
0
  6
HIDDEN
 62
     7
370
     0
100
AcDbSpline
210
0.0
220
0.0
230
1.0
 70
     8
 71
     3
 72
    12
 73
     8
 74
     0
 42
0.00000001
 43
0.00000001
 12
1.0
 22
0.0
 32
0.0
 13
1.0
 23
0.0
 33
0.0
 40
0.0
 40
0.0
 40
0.0
 40
0.0
 40
0.2499999999999988
 40
0.2499999999999988
 40
0.4999999999999977
 40
0.4999999999999977
 40
1.0
 40
1.0
 40
1.0
 40
1.0
 10
182.9458545013497
 20
128.5557155397458
 30
0.0
 10
182.9833663873943
 20
128.5557155397458
 30
0.0
 10
183.0186537350991
 20
128.5512119954833
 30
0.0
 10
183.0775835833375
 20
128.53783879603
 30
0.0
 10
183.1011093098066
 20
128.5293538934589
 30
0.0
 10
183.1613680975747
 20
128.5016060896243
 30
0.0
 10
183.186962859864
 20
128.480616225884
 30
0.0
 10
183.205662122485
 20
128.4588154426944
 30
0.0
  0
ELLIPSE
  5
16C
330
1F
100
AcDbEntity
  8
0
  6
HIDDEN
 62
     7
370
     0
100
AcDbEllipse
 10
172.9288273309
 20
109.4240591595
 30
0.0
 11
9.36741787978184
 21
19.74174915274993
 31
0.0
210
0.0
220
0.0
230
1.0
 40
0.3419987131
 41
5.185211263708411
 42
6.132113578252568
  0
SPLINE
  5
16D
330
1F
100
AcDbEntity
  8
0
  6
HIDDEN
 62
     7
370
     0
100
AcDbSpline
210
0.0
220
0.0
230
1.0
 70
     8
 71
     3
 72
    12
 73
     8
 74
     0
 42
0.00000001
 43
0.00000001
 12
1.0
 22
0.0
 32
0.0
 13
1.0
 23
0.0
 33
0.0
 40
0.0
 40
0.0
 40
0.0
 40
0.0
 40
0.5000000000000031
 40
0.5000000000000031
 40
0.7500000000000016
 40
0.7500000000000016
 40
1.0
 40
1.0
 40
1.0
 40
1.0
 10
183.205662122485
 20
115.5623042865718
 30
0.0
 10
183.1869688893546
 20
115.4947216501314
 30
0.0
 10
183.1613135919428
 20
115.428239080654
 30
0.0
 10
183.1011529692564
 20
115.3392439977564
 30
0.0
 10
183.077080657502
 20
115.3112421007573
 30
0.0
 10
183.0186991371515
 20
115.2681657000921
 30
0.0
 10
182.9832303094984
 20
115.2532721551644
 30
0.0
 10
182.9458545013497
 20
115.2532721551644
 30
0.0
  0
LINE
  5
16E
330
1F
100
AcDbEntity
  8
0
  6
HIDDEN
 62
     7
370
     0
100
AcDbLine
 10
182.9458545013
 20
115.2532721552
 30
0.0
 11
180.8096585053
 21
115.2532721552
 31
0.0
  0
SPLINE
  5
16F
330
1F
100
AcDbEntity
  8
0
  6
HIDDEN
 62
     7
370
     0
100
AcDbSpline
210
0.0
220
0.0
230
1.0
 70
     8
 71
     3
 72
    12
 73
     8
 74
     0
 42
0.00000001
 43
0.00000001
 12
1.0
 22
0.0
 32
0.0
 13
1.0
 23
0.0
 33
0.0
 40
0.0
 40
0.0
 40
0.0
 40
0.0
 40
0.2500000000000003
 40
0.2500000000000003
 40
0.5000000000000007
 40
0.5000000000000007
 40
1.0
 40
1.0
 40
1.0
 40
1.0
 10
180.809658505348
 20
115.2532721551644
 30
0.0
 10
180.7721466193034
 20
115.2532721551644
 30
0.0
 10
180.7368592715986
 20
115.2680769694511
 30
0.0
 10
180.6779294233602
 20
115.311668842577
 30
0.0
 10
180.6544036968911
 20
115.339182268663
 30
0.0
 10
180.5941449091231
 20
115.4283140007766
 30
0.0
 10
180.5685501468338
 20
115.4946998513944
 30
0.0
 10
180.5498508842127
 20
115.5623042865718
 30
0.0
  0
ELLIPSE
  5
170
330
1F
100
AcDbEntity
  8
0
  6
HIDDEN
 62
     7
370
     0
100
AcDbEllipse
 10
190.8266856758
 20
109.4240591595
 30
0.0
 11
-9.367417879781728
 21
19.74174915274996
 31
0.0
210
0.0
220
0.0
230
1.0
 40
0.3419987131
 41
0.1510717289270599
 42
1.09797404347119
  0
LINE
  5
171
330
1F
100
AcDbEntity
  8
0
  6
HIDDEN
 62
     7
370
     0
100
AcDbLine
 10
173.8777565033
 20
129.1240591563
 30
0.0
 11
173.8777565033
 21
89.7240591595
 31
0.0
  0
LINE
  5
172
330
1F
100
AcDbEntity
  8
0
  6
HIDDEN
 62
     7
370
     0
100
AcDbLine
 10
173.8777565033
 20
93.6240591595
 30
0.0
 11
173.8777565033
 21
125.2240591595
 31
0.0
  0
SPLINE
  5
173
330
1F
100
AcDbEntity
  8
0
  6
HIDDEN
 62
     7
370
     0
100
AcDbSpline
210
0.0
220
0.0
230
1.0
 70
     8
 71
     3
 72
    18
 73
    14
 74
     0
 42
0.00000001
 43
0.00000001
 12
1.0
 22
0.0
 32
0.0
 13
1.0
 23
0.0
 33
0.0
 40
0.0
 40
0.0
 40
0.0
 40
0.0
 40
0.2499999999999993
 40
0.2499999999999993
 40
0.4999999999999987
 40
0.4999999999999987
 40
0.624999999999999
 40
0.624999999999999
 40
0.7499999999999993
 40
0.7499999999999993
 40
0.8749999999999997
 40
0.8749999999999997
 40
1.0
 40
1.0
 40
1.0
 40
1.0
 10
172.6216721857859
 20
119.2484990776637
 30
0.0
 10
172.6559732303186
 20
119.1404888918662
 30
0.0
 10
172.6937935016154
 20
119.0332118038382
 30
0.0
 10
172.7804118220762
 20
118.8217151065216
 30
0.0
 10
172.8287831568197
 20
118.7173287563519
 30
0.0
 10
172.9181861389382
 20
118.5664538337076
 30
0.0
 10
172.9507834228154
 20
118.5171088306721
 30
0.0
 10
173.0271653267603
 20
118.4225031922018
 30
0.0
 10
173.0702037641011
 20
118.3775072574472
 30
0.0
 10
173.1760167969329
 20
118.3065794847893
 30
0.0
 10
173.2410552216641
 20
118.2826329408827
 30
0.0
 10
173.3742072934667
 20
118.2949136049535
 30
0.0
 10
173.4335764739298
 20
118.3282305629584
 30
0.0
 10
173.4827796144736
 20
118.3690654491831
 30
0.0
  0
SPLINE
  5
174
330
1F
100
AcDbEntity
  8
0
  6
HIDDEN
 62
     7
370
     0
100
AcDbSpline
210
0.0
220
0.0
230
1.0
 70
     8
 71
     3
 72
    16
 73
    12
 74
     0
 42
0.00000001
 43
0.00000001
 12
1.0
 22
0.0
 32
0.0
 13
1.0
 23
0.0
 33
0.0
 40
0.0
 40
0.0
 40
0.0
 40
0.0
 40
0.0625000000000014
 40
0.0625000000000014
 40
0.1250000000000028
 40
0.1250000000000028
 40
0.2500000000000017
 40
0.2500000000000017
 40
0.4999999999999994
 40
0.4999999999999994
 40
1.0
 40
1.0
 40
1.0
 40
1.0
 10
173.4827796144428
 20
118.3690654492126
 30
0.0
 10
173.4948494477187
 20
118.3790824981929
 30
0.0
 10
173.509125102652
 20
118.3880416052485
 30
0.0
 10
173.5405895147764
 20
118.3959120006427
 30
0.0
 10
173.5560900395868
 20
118.3935545100004
 30
0.0
 10
173.5915289361937
 20
118.3765788178224
 30
0.0
 10
173.605121552297
 20
118.3560303266548
 30
0.0
 10
173.6381158706898
 20
118.2940879996412
 30
0.0
 10
173.6489032640086
 20
118.247692449436
 30
0.0
 10
173.6739565112877
 20
118.1047564207415
 30
0.0
 10
173.677756503349
 20
118.0051937038561
 30
0.0
 10
173.677756503349
 20
117.9034262992095
 30
0.0
  0
LINE
  5
175
330
1F
100
AcDbEntity
  8
0
  6
HIDDEN
 62
     7
370
     0
100
AcDbLine
 10
173.6777565033
 20
100.9446920198
 30
0.0
 11
173.6777565033
 21
117.9034262992
 31
0.0
  0
SPLINE
  5
176
330
1F
100
AcDbEntity
  8
0
  6
HIDDEN
 62
     7
370
     0
100
AcDbSpline
210
0.0
220
0.0
230
1.0
 70
     8
 71
     3
 72
    16
 73
    12
 74
     0
 42
0.00000001
 43
0.00000001
 12
1.0
 22
0.0
 32
0.0
 13
1.0
 23
0.0
 33
0.0
 40
0.0
 40
0.0
 40
0.0
 40
0.0
 40
0.4999999999999982
 40
0.4999999999999982
 40
0.7499999999999951
 40
0.7499999999999951
 40
0.8749999999999957
 40
0.8749999999999957
 40
0.9374999999999979
 40
0.9374999999999979
 40
1.0
 40
1.0
 40
1.0
 40
1.0
 10
173.6777565033489
 20
100.9446920198153
 30
0.0
 10
173.6777565033489
 20
100.8426818662352
 30
0.0
 10
173.6738730781899
 20
100.743157490982
 30
0.0
 10
173.6490577529153
 20
100.6011723949713
 30
0.0
 10
173.6382183052028
 20
100.5541790944009
 30
0.0
 10
173.605002523154
 20
100.4918863640392
 30
0.0
 10
173.5916207795252
 20
100.4716049317542
 30
0.0
 10
173.556111129663
 20
100.4545632235537
 30
0.0
 10
173.5406941631622
 20
100.4521769685375
 30
0.0
 10
173.5089931410136
 20
100.4601128983956
 30
0.0
 10
173.4948468560628
 20
100.4690379717702
 30
0.0
 10
173.4827796144731
 20
100.4790528698421
 30
0.0
  0
SPLINE
  5
177
330
1F
100
AcDbEntity
  8
0
  6
HIDDEN
 62
     7
370
     0
100
AcDbSpline
210
0.0
220
0.0
230
1.0
 70
     8
 71
     3
 72
    18
 73
    14
 74
     0
 42
0.00000001
 43
0.00000001
 12
1.0
 22
0.0
 32
0.0
 13
1.0
 23
0.0
 33
0.0
 40
0.0
 40
0.0
 40
0.0
 40
0.0
 40
0.125
 40
0.125
 40
0.25
 40
0.25
 40
0.375
 40
0.375
 40
0.5
 40
0.5
 40
0.75
 40
0.75
 40
1.0
 40
1.0
 40
1.0
 40
1.0
 10
173.4827796144793
 20
100.4790528698495
 30
0.0
 10
173.4340741223372
 20
100.5194747455309
 30
0.0
 10
173.3755640140103
 20
100.5525068669987
 30
0.0
 10
173.2438348957182
 20
100.5657840189515
 30
0.0
 10
173.1790759593776
 20
100.5428304319714
 30
0.0
 10
173.0738649865181
 20
100.4737772350517
 30
0.0
 10
173.0306486110781
 20
100.4293095832108
 30
0.0
 10
172.9544701059662
 20
100.3361399238408
 30
0.0
 10
172.9216151445863
 20
100.28699755428
 30
0.0
 10
172.8312468647525
 20
100.1357878193402
 30
0.0
 10
172.7818236303825
 20
100.0296330498119
 30
0.0
 10
172.6941751753343
 20
99.81605143415042
 30
0.0
 10
172.6561160031315
 20
99.70807900291516
 30
0.0
 10
172.6216721857859
 20
99.59961924136118
 30
0.0
  0
SPLINE
  5
178
330
1F
100
AcDbEntity
  8
0
  6
HIDDEN
 62
     7
370
     0
100
AcDbSpline
210
0.0
220
0.0
230
1.0
 70
     8
 71
     3
 72
     8
 73
     4
 74
     0
 42
0.00000001
 43
0.00000001
 12
1.0
 22
0.0
 32
0.0
 13
1.0
 23
0.0
 33
0.0
 40
0.0
 40
0.0
 40
0.0
 40
0.0
 40
1.0
 40
1.0
 40
1.0
 40
1.0
 10
172.6216721857853
 20
99.59961924136067
 30
0.0
 10
172.5973584818952
 20
99.5230580838106
 30
0.0
 10
172.5758618399391
 20
99.44663271267741
 30
0.0
 10
172.5564361597891
 20
99.3705398419057
 30
0.0
  0
SPLINE
  5
179
330
1F
100
AcDbEntity
  8
0
  6
HIDDEN
 62
     7
370
     0
100
AcDbSpline
210
0.0
220
0.0
230
1.0
 70
     8
 71
     3
 72
     8
 73
     4
 74
     0
 42
0.00000001
 43
0.00000001
 12
1.0
 22
0.0
 32
0.0
 13
1.0
 23
0.0
 33
0.0
 40
0.0
 40
0.0
 40
0.0
 40
0.0
 40
1.0
 40
1.0
 40
1.0
 40
1.0
 10
172.5564361597892
 20
95.59899515150724
 30
0.0
 10
172.5758615866825
 20
95.59549794791995
 30
0.0
 10
172.5973581406515
 20
95.59348163027772
 30
0.0
 10
172.6216721857859
 20
95.59287077683388
 30
0.0
  0
SPLINE
  5
17A
330
1F
100
AcDbEntity
  8
0
  6
HIDDEN
 62
     7
370
     0
100
AcDbSpline
210
0.0
220
0.0
230
1.0
 70
     8
 71
     3
 72
     8
 73
     4
 74
     0
 42
0.00000001
 43
0.00000001
 12
1.0
 22
0.0
 32
0.0
 13
1.0
 23
0.0
 33
0.0
 40
0.0
 40
0.0
 40
0.0
 40
0.0
 40
1.0
 40
1.0
 40
1.0
 40
1.0
 10
173.6549054902428
 20
95.50351238577578
 30
0.0
 10
173.6738424224087
 20
95.47555794837429
 30
0.0
 10
173.677756503349
 20
95.45547409701794
 30
0.0
 10
173.677756503349
 20
95.43924725285252
 30
0.0
  0
LINE
  5
17B
330
1F
100
AcDbEntity
  8
0
  6
HIDDEN
 62
     7
370
     0
100
AcDbLine
 10
173.6777565033
 20
95.3342388806
 30
0.0
 11
173.6777565033
 21
95.4392472529
 31
0.0
  0
LINE
  5
17C
330
1F
100
AcDbEntity
  8
0
  6
HIDDEN
 62
     7
370
     0
100
AcDbLine
 10
173.6777565033
 20
123.4088710662
 30
0.0
 11
173.6777565033
 21
123.5138794384
 31
0.0
  0
SPLINE
  5
17D
330
1F
100
AcDbEntity
  8
0
  6
HIDDEN
 62
     7
370
     0
100
AcDbSpline
210
0.0
220
0.0
230
1.0
 70
     8
 71
     3
 72
    10
 73
     6
 74
     0
 42
0.00000001
 43
0.00000001
 12
1.0
 22
0.0
 32
0.0
 13
1.0
 23
0.0
 33
0.0
 40
0.0
 40
0.0
 40
0.0
 40
0.0
 40
0.5
 40
0.5
 40
1.0
 40
1.0
 40
1.0
 40
1.0
 10
173.6777565033489
 20
123.4088710661726
 30
0.0
 10
173.6777565033489
 20
123.3987448660525
 30
0.0
 10
173.6757479243034
 20
123.3869842734987
 30
0.0
 10
173.6645646963979
 20
123.3590030587484
 30
0.0
 10
173.6562635627234
 20
123.3430227444107
 30
0.0
 10
173.6374171734812
 20
123.3226666623831
 30
0.0
  0
SPLINE
  5
17E
330
1F
100
AcDbEntity
  8
0
  6
HIDDEN
 62
     7
370
     0
100
AcDbSpline
210
0.0
220
0.0
230
1.0
 70
     8
 71
     3
 72
     8
 73
     4
 74
     0
 42
0.00000001
 43
0.00000001
 12
1.0
 22
0.0
 32
0.0
 13
1.0
 23
0.0
 33
0.0
 40
0.0
 40
0.0
 40
0.0
 40
0.0
 40
1.0
 40
1.0
 40
1.0
 40
1.0
 10
172.6216721857855
 20
123.255247542191
 30
0.0
 10
172.5973581406513
 20
123.2546366887471
 30
0.0
 10
172.5758615866824
 20
123.2526203711049
 30
0.0
 10
172.5564361597891
 20
123.2491231675177
 30
0.0
  0
SPLINE
  5
17F
330
1F
100
AcDbEntity
  8
0
  6
HIDDEN
 62
     7
370
     0
100
AcDbSpline
210
0.0
220
0.0
230
1.0
 70
     8
 71
     3
 72
     8
 73
     4
 74
     0
 42
0.00000001
 43
0.00000001
 12
1.0
 22
0.0
 32
0.0
 13
1.0
 23
0.0
 33
0.0
 40
0.0
 40
0.0
 40
0.0
 40
0.0
 40
1.0
 40
1.0
 40
1.0
 40
1.0
 10
172.5564361597891
 20
119.4775784771192
 30
0.0
 10
172.5758618399391
 20
119.4014856063475
 30
0.0
 10
172.5973584818952
 20
119.3250602352143
 30
0.0
 10
172.6216721857853
 20
119.2484990776642
 30
0.0
  0
SPLINE
  5
180
330
1F
100
AcDbEntity
  8
0
  6
HIDDEN
 62
     7
370
     0
100
AcDbSpline
210
0.0
220
0.0
230
1.0
 70
     8
 71
     3
 72
    62
 73
    58
 74
     0
 42
0.00000001
 43
0.00000001
 12
1.0
 22
0.0
 32
0.0
 13
1.0
 23
0.0
 33
0.0
 40
-0.0312500000000001
 40
-0.0312500000000001
 40
0.0
 40
0.0
 40
0.0312499999999999
 40
0.0312499999999999
 40
0.0624999999999998
 40
0.0624999999999998
 40
0.0937499999999997
 40
0.0937499999999997
 40
0.1249999999999996
 40
0.1249999999999996
 40
0.1874999999999994
 40
0.1874999999999994
 40
0.2187499999999993
 40
0.2187499999999993
 40
0.2499999999999993
 40
0.2499999999999993
 40
0.2812499999999993
 40
0.2812499999999993
 40
0.3124999999999992
 40
0.3124999999999992
 40
0.3437499999999992
 40
0.3437499999999992
 40
0.3749999999999992
 40
0.3749999999999992
 40
0.4062499999999991
 40
0.4062499999999991
 40
0.4374999999999991
 40
0.4374999999999991
 40
0.4687499999999991
 40
0.4687499999999991
 40
0.499999999999999
 40
0.499999999999999
 40
0.5624999999999986
 40
0.5624999999999986
 40
0.5937499999999986
 40
0.5937499999999986
 40
0.6249999999999984
 40
0.6249999999999984
 40
0.6874999999999988
 40
0.6874999999999988
 40
0.7187499999999989
 40
0.7187499999999989
 40
0.749999999999999
 40
0.749999999999999
 40
0.7812499999999991
 40
0.7812499999999991
 40
0.8124999999999992
 40
0.8124999999999992
 40
0.8749999999999994
 40
0.8749999999999994
 40
0.9062499999999997
 40
0.9062499999999997
 40
0.9374999999999998
 40
0.9374999999999998
 40
0.9687499999999999
 40
0.9687499999999999
 40
1.0
 40
1.0
 40
1.03125
 40
1.03125
 10
187.7379149575471
 20
113.5763184410389
 30
0.0
 10
188.0175980491505
 20
113.5763184410389
 30
0.0
 10
188.154882006108
 20
113.5653654035918
 30
0.0
 10
188.4246177609594
 20
113.5223822488415
 30
0.0
 10
188.558499780055
 20
113.4897775714269
 30
0.0
 10
188.812246338453
 20
113.4046793663556
 30
0.0
 10
188.9324320001956
 20
113.352447494477
 30
0.0
 10
189.1598945917094
 20
113.2278189877993
 30
0.0
 10
189.266709797171
 20
113.1553096946401
 30
0.0
 10
189.5549543944957
 20
112.9144265770986
 30
0.0
 10
189.7110750933969
 20
112.7162464247936
 30
0.0
 10
189.8687905542392
 20
112.38376986841
 30
0.0
 10
189.9096997833468
 20
112.2650534198081
 30
0.0
 10
189.964076688369
 20
112.0199708827859
 30
0.0
 10
189.9776641562586
 20
111.89470624971
 30
0.0
 10
189.9778479212463
 20
111.6385847196402
 30
0.0
 10
189.96396188504
 20
111.5067583813508
 30
0.0
 10
189.9098748004894
 20
111.249507131217
 30
0.0
 10
189.8698660444444
 20
111.1227025172883
 30
0.0
 10
189.7635197698621
 20
110.8732005294881
 30
0.0
 10
189.6983204949447
 20
110.7534630662038
 30
0.0
 10
189.5466130909064
 20
110.5273361850705
 30
0.0
 10
189.4588124162665
 20
110.4193843737635
 30
0.0
 10
189.2654745069031
 20
110.2225455632471
 30
0.0
 10
189.1605261208915
 20
110.1338034051801
 30
0.0
 10
188.9337981109455
 20
109.9763184378428
 30
0.0
 10
188.8110263599634
 20
109.9074313882574
 30
0.0
 10
188.5583478877381
 20
109.7970680411758
 30
0.0
 10
188.4273669162374
 20
109.7546326504512
 30
0.0
 10
188.1555785449886
 20
109.6968568142349
 30
0.0
 10
188.0163449346543
 20
109.6822063072801
 30
0.0
 10
187.603161151856
 20
109.6820267020881
 30
0.0
 10
187.3250854071412
 20
109.7413349631981
 30
0.0
 10
186.94501657911
 20
109.9071307107872
 30
0.0
 10
186.8222483371679
 20
109.9760002070513
 30
0.0
 10
186.5955621712815
 20
110.1333517709671
 30
0.0
 10
186.4903940627362
 20
110.2221830154167
 30
0.0
 10
186.199307567006
 20
110.5185420519437
 30
0.0
 10
186.0453770447779
 20
110.7481798400291
 30
0.0
 10
185.8859454420282
 20
111.1218903893153
 30
0.0
 10
185.8459442444727
 20
111.248478995357
 30
0.0
 10
185.7917850235432
 20
111.5052226785812
 30
0.0
 10
185.7777621169938
 20
111.636959889193
 30
0.0
 10
185.7777508931571
 20
111.8935829300195
 30
0.0
 10
185.7912918463562
 20
112.0189630228274
 30
0.0
 10
185.845509932966
 20
112.2640402370407
 30
0.0
 10
185.8863898875723
 20
112.3829676742563
 30
0.0
 10
186.0443579647481
 20
112.7162794160974
 30
0.0
 10
186.200385922103
 20
112.9143194569712
 30
0.0
 10
186.4891330414283
 20
113.1555667106879
 30
0.0
 10
186.5963478761572
 20
113.2282527857839
 30
0.0
 10
186.8232012831071
 20
113.3524791463082
 30
0.0
 10
186.943218795347
 20
113.4046625476614
 30
0.0
 10
187.1970370028011
 20
113.4897863087992
 30
0.0
 10
187.3309040468525
 20
113.5223822607227
 30
0.0
 10
187.6005712887468
 20
113.5653572786796
 30
0.0
 10
187.7379149575471
 20
113.5763184410389
 30
0.0
 10
188.0175980491505
 20
113.5763184410389
 30
0.0
  0
SPLINE
  5
181
330
1F
100
AcDbEntity
  8
0
  6
HIDDEN
 62
     7
370
     0
100
AcDbSpline
210
0.0
220
0.0
230
1.0
 70
     8
 71
     3
 72
    54
 73
    50
 74
     0
 42
0.00000001
 43
0.00000001
 12
1.0
 22
0.0
 32
0.0
 13
1.0
 23
0.0
 33
0.0
 40
0.0
 40
0.0
 40
0.0
 40
0.0
 40
0.0624999999999983
 40
0.0624999999999983
 40
0.1249999999999967
 40
0.1249999999999967
 40
0.1874999999999951
 40
0.1874999999999951
 40
0.2031249999999948
 40
0.2031249999999948
 40
0.2109374999999947
 40
0.2109374999999947
 40
0.2187499999999947
 40
0.2187499999999947
 40
0.234374999999995
 40
0.234374999999995
 40
0.2499999999999953
 40
0.2499999999999953
 40
0.3124999999999963
 40
0.3124999999999963
 40
0.3749999999999973
 40
0.3749999999999973
 40
0.4374999999999983
 40
0.4374999999999983
 40
0.4999999999999992
 40
0.4999999999999992
 40
0.5625000000000002
 40
0.5625000000000002
 40
0.6250000000000012
 40
0.6250000000000012
 40
0.6562500000000013
 40
0.6562500000000013
 40
0.6875000000000013
 40
0.6875000000000013
 40
0.7500000000000011
 40
0.7500000000000011
 40
0.812500000000001
 40
0.812500000000001
 40
0.8750000000000008
 40
0.8750000000000008
 40
0.9375000000000006
 40
0.9375000000000006
 40
0.9687500000000003
 40
0.9687500000000003
 40
0.9843750000000002
 40
0.9843750000000002
 40
0.9921875000000001
 40
0.9921875000000001
 40
1.0
 40
1.0
 40
1.0
 40
1.0
 10
189.9558385013337
 20
114.7625792815493
 30
0.0
 10
189.9300710686958
 20
114.5542489928717
 30
0.0
 10
189.8838468693284
 20
114.3560960668785
 30
0.0
 10
189.7601182685671
 20
113.9754687907152
 30
0.0
 10
189.6815885900896
 20
113.7917092169797
 30
0.0
 10
189.5004321494375
 20
113.4469950253479
 30
0.0
 10
189.396335541236
 20
113.2855986935749
 30
0.0
 10
189.2610078996446
 20
113.0988562201705
 30
0.0
 10
189.2334656329674
 20
113.0621945410083
 30
0.0
 10
189.1975435075591
 20
113.0104729171121
 30
0.0
 10
189.1862985671801
 20
112.993533325219
 30
0.0
 10
189.1730730814702
 20
112.9649367585657
 30
0.0
 10
189.1728790161596
 20
112.9542814158852
 30
0.0
 10
189.1910854892139
 20
112.9390565992179
 30
0.0
 10
189.2179128434171
 20
112.9431384826381
 30
0.0
 10
189.2680538733341
 20
112.9519717457097
 30
0.0
 10
189.2941785154625
 20
112.9587633565648
 30
0.0
 10
189.4227382866558
 20
112.9978088331275
 30
0.0
 10
189.5198993505174
 20
113.0451928770817
 30
0.0
 10
189.6910099007751
 20
113.1633537130387
 30
0.0
 10
189.7644939207857
 20
113.2342541318075
 30
0.0
 10
189.8824855517125
 20
113.4004763414939
 30
0.0
 10
189.927437481555
 20
113.4959102724897
 30
0.0
 10
189.9796561865288
 20
113.7188074940415
 30
0.0
 10
189.9860558895808
 20
113.8420223233482
 30
0.0
 10
189.9465506845475
 20
114.1195291257641
 30
0.0
 10
189.900841711426
 20
114.2698487965111
 30
0.0
 10
189.7436816980645
 20
114.5910848324255
 30
0.0
 10
189.6359386907574
 20
114.7535890434363
 30
0.0
 10
189.434163262542
 20
114.9910571885628
 30
0.0
 10
189.3621121071894
 20
115.0670002745735
 30
0.0
 10
189.2092198834227
 20
115.2129918737441
 30
0.0
 10
189.127969551832
 20
115.2832344174676
 30
0.0
 10
188.8811382001427
 20
115.4782074713418
 30
0.0
 10
188.7076779287171
 20
115.5911846748784
 30
0.0
 10
188.3683737444501
 20
115.778426365703
 30
0.0
 10
188.1986483210219
 20
115.855141633683
 30
0.0
 10
187.8701838735956
 20
115.9769546212436
 30
0.0
 10
187.7126100026063
 20
116.0219200866488
 30
0.0
 10
187.4079960055315
 20
116.0855929466544
 30
0.0
 10
187.2604544539414
 20
116.1043081512745
 30
0.0
 10
187.0494796710789
 20
116.1120418690114
 30
0.0
 10
186.9807815155469
 20
116.1113876229293
 30
0.0
 10
186.878584577581
 20
116.1034273763759
 30
0.0
 10
186.8447522033995
 20
116.099706765054
 30
0.0
 10
186.792416713466
 20
116.0902853153605
 30
0.0
 10
186.7747355353976
 20
116.0865163493012
 30
0.0
 10
186.7377517176894
 20
116.0759774791437
 30
0.0
 10
186.7181640610383
 20
116.0692378545836
 30
0.0
 10
186.6967178806706
 20
116.058219198376
 30
0.0
  0
SPLINE
  5
182
330
1F
100
AcDbEntity
  8
0
  6
HIDDEN
 62
     7
370
     0
100
AcDbSpline
210
0.0
220
0.0
230
1.0
 70
     8
 71
     3
 72
    18
 73
    14
 74
     0
 42
0.00000001
 43
0.00000001
 12
1.0
 22
0.0
 32
0.0
 13
1.0
 23
0.0
 33
0.0
 40
0.0
 40
0.0
 40
0.0
 40
0.0
 40
0.0624999999999995
 40
0.0624999999999995
 40
0.124999999999999
 40
0.124999999999999
 40
0.2499999999999984
 40
0.2499999999999984
 40
0.499999999999999
 40
0.499999999999999
 40
0.7499999999999996
 40
0.7499999999999996
 40
1.0
 40
1.0
 40
1.0
 40
1.0
 10
186.7047366313564
 20
116.1538236689794
 30
0.0
 10
186.7418448410425
 20
116.1812267337464
 30
0.0
 10
186.772753811237
 20
116.2092570851585
 30
0.0
 10
186.8346991010658
 20
116.2637521344592
 30
0.0
 10
186.864654853877
 20
116.2901741064125
 30
0.0
 10
186.9547872376093
 20
116.3674369184082
 30
0.0
 10
187.0149971786999
 20
116.4162429265693
 30
0.0
 10
187.1998317329119
 20
116.5548663796333
 30
0.0
 10
187.3268577145092
 20
116.6358178196561
 30
0.0
 10
187.5892249114173
 20
116.7729079962561
 30
0.0
 10
187.7246882330593
 20
116.8292830741901
 30
0.0
 10
188.0059749653505
 20
116.9136600549185
 30
0.0
 10
188.15196364069
 20
116.9414495849385
 30
0.0
 10
188.2997177655072
 20
116.9505329349268
 30
0.0
  0
LWPOLYLINE
  5
183
330
1F
100
AcDbEntity
  8
0
  6
HIDDEN
 62
     7
370
     0
100
AcDbPolyline
 90
       22
 70
   128
 43
0.0
 10
189.9558385013
 20
114.7625792815
 10
189.8343099351
 20
114.3358810496
 10
189.6122644814
 20
113.9455187963
 10
189.3011096067
 20
113.6115471739
 10
188.9168307267
 20
113.3511237962
 10
188.4791699635
 20
113.177627775
 10
188.010611905
 20
113.0999723757
 10
187.5352284712
 20
113.1221471031
 10
187.0774422321
 20
113.2430127423
 10
186.6607717112
 20
113.4563598858
 10
186.3066231339
 20
113.7512279378
 10
186.0331906943
 20
114.1124682099
 10
185.8545218379
 20
114.521522176
 10
185.7797955817
 20
114.9573749069
 10
185.8128509472
 20
115.3976347016
 10
185.9519897327
 20
115.8196834483
 10
186.1900637574
 20
116.2018386179
 10
186.5148420955
 20
116.5244671927
 10
186.9096394333
 20
116.7709943022
 10
187.3541732684
 20
116.9287547477
 10
187.8256059126
 20
116.9896436706
 10
188.2997177655
 20
116.9505329349
  0
SPLINE
  5
184
330
1F
100
AcDbEntity
  8
0
  6
HIDDEN
 62
     7
370
     0
100
AcDbSpline
210
0.0
220
0.0
230
1.0
 70
     8
 71
     3
 72
    24
 73
    20
 74
     0
 42
0.00000001
 43
0.00000001
 12
1.0
 22
0.0
 32
0.0
 13
1.0
 23
0.0
 33
0.0
 40
0.0
 40
0.0
 40
0.0
 40
0.0
 40
0.1249999999999999
 40
0.1249999999999999
 40
0.2499999999999998
 40
0.2499999999999998
 40
0.3749999999999998
 40
0.3749999999999998
 40
0.4999999999999997
 40
0.4999999999999997
 40
0.6249999999999996
 40
0.6249999999999996
 40
0.7499999999999996
 40
0.7499999999999996
 40
0.8124999999999997
 40
0.8124999999999997
 40
0.8749999999999999
 40
0.8749999999999999
 40
1.0
 40
1.0
 40
1.0
 40
1.0
 10
188.299717765507
 20
116.9505329349269
 30
0.0
 10
188.2609423510195
 20
116.8697833000143
 30
0.0
 10
188.2363875987394
 20
116.7866418364999
 30
0.0
 10
188.239631631999
 20
116.6110600127015
 30
0.0
 10
188.2703949017528
 20
116.5226260876347
 30
0.0
 10
188.3833749780692
 20
116.344788260755
 30
0.0
 10
188.4607642738036
 20
116.2576268467402
 30
0.0
 10
188.6257121189236
 20
116.0685058046063
 30
0.0
 10
188.7104397927873
 20
115.9691535166898
 30
0.0
 10
188.8732446280528
 20
115.7546543813754
 30
0.0
 10
188.9521504070404
 20
115.6381868994307
 30
0.0
 10
189.1092872957725
 20
115.4028248116978
 30
0.0
 10
189.1886669003721
 20
115.2830975909457
 30
0.0
 10
189.3275324860216
 20
115.1210128173771
 30
0.0
 10
189.3763463400476
 20
115.0710706105366
 30
0.0
 10
189.4809022747962
 20
114.9811684773496
 30
0.0
 10
189.53721290928
 20
114.9409546497305
 30
0.0
 10
189.7099932473777
 20
114.8390895373426
 30
0.0
 10
189.8324455941021
 20
114.7937890745254
 30
0.0
 10
189.9558385013337
 20
114.7625792815492
 30
0.0
  0
LINE
  5
185
330
1F
100
AcDbEntity
  8
0
  6
HIDDEN
 62
     7
370
     0
100
AcDbLine
 10
173.6777565033
 20
95.4392472529
 30
0.0
 11
173.6777565033
 21
103.9186143925
 31
0.0
  0
LINE
  5
186
330
1F
100
AcDbEntity
  8
0
  6
HIDDEN
 62
     7
370
     0
100
AcDbLine
 10
173.6777565033
 20
114.9295039265
 30
0.0
 11
173.6777565033
 21
123.4088710662
 31
0.0
  0
CIRCLE
  5
187
330
1F
100
AcDbEntity
  8
0
  6
HIDDEN
 62
     7
370
     0
100
AcDbCircle
 10
162.3777565033
 20
109.4240591595
 30
0.0
 40
2.300000000000011
  0
LINE
  5
188
330
1F
100
AcDbEntity
  8
0
  6
HIDDEN
 62
     7
370
     0
100
AcDbLine
 10
196.9764549192
 20
88.9240591595
 30
0.0
 11
196.9764549192
 21
109.4240591595
 31
0.0
  0
SPLINE
  5
189
330
1F
100
AcDbEntity
  8
0
  6
HIDDEN
 62
     7
370
     0
100
AcDbSpline
210
0.0
220
0.0
230
1.0
 70
     8
 71
     3
 72
    10
 73
     6
 74
     0
 42
0.00000001
 43
0.00000001
 12
1.0
 22
0.0
 32
0.0
 13
1.0
 23
0.0
 33
0.0
 40
0.0
 40
0.0
 40
0.0
 40
0.0
 40
0.5
 40
0.5
 40
1.0
 40
1.0
 40
1.0
 40
1.0
 10
197.076355341659
 20
112.5778802393776
 30
0.0
 10
197.0549446345715
 20
112.0523774973703
 30
0.0
 10
197.0284431177655
 20
111.5270181608016
 30
0.0
 10
196.9889976487885
 20
110.4759175781823
 30
0.0
 10
196.9764549191545
 20
109.9501650299035
 30
0.0
 10
196.9764549191545
 20
109.4240591595125
 30
0.0
  0
SPLINE
  5
18A
330
1F
100
AcDbEntity
  8
0
  6
HIDDEN
 62
     7
370
     0
100
AcDbSpline
210
0.0
220
0.0
230
1.0
 70
     8
 71
     3
 72
    14
 73
    10
 74
     0
 42
0.00000001
 43
0.00000001
 12
1.0
 22
0.0
 32
0.0
 13
1.0
 23
0.0
 33
0.0
 40
0.0
 40
0.0
 40
0.0
 40
0.0
 40
0.2500000000000002
 40
0.2500000000000002
 40
0.5000000000000004
 40
0.5000000000000004
 40
0.7500000000000002
 40
0.7500000000000002
 40
1.0
 40
1.0
 40
1.0
 40
1.0
 10
197.076355341659
 20
129.0649628130566
 30
0.0
 10
197.0549365976042
 20
129.1562496601797
 30
0.0
 10
197.0284264261576
 20
129.2475004246953
 30
0.0
 10
196.9889747852051
 20
129.4300905213559
 30
0.0
 10
196.976440450872
 20
129.5214691713215
 30
0.0
 10
196.976469414363
 20
129.7041066043162
 30
0.0
 10
196.9890158611604
 20
129.7953717335372
 30
0.0
 10
197.0284568679767
 20
129.9778406387675
 30
0.0
 10
197.0549505807971
 20
130.0690461288184
 30
0.0
 10
197.076355341659
 20
130.1602733794688
 30
0.0
  0
SPLINE
  5
18B
330
1F
100
AcDbEntity
  8
0
  6
HIDDEN
 62
     7
370
     0
100
AcDbSpline
210
0.0
220
0.0
230
1.0
 70
     8
 71
     3
 72
    66
 73
    62
 74
     0
 42
0.00000001
 43
0.00000001
 12
1.0
 22
0.0
 32
0.0
 13
1.0
 23
0.0
 33
0.0
 40
0.0
 40
0.0
 40
0.0
 40
0.0
 40
0.0625000000000002
 40
0.0625000000000002
 40
0.0937500000000003
 40
0.0937500000000003
 40
0.1250000000000004
 40
0.1250000000000004
 40
0.1562500000000004
 40
0.1562500000000004
 40
0.1875000000000006
 40
0.1875000000000006
 40
0.2187500000000006
 40
0.2187500000000006
 40
0.2500000000000008
 40
0.2500000000000008
 40
0.2812500000000008
 40
0.2812500000000008
 40
0.3125000000000008
 40
0.3125000000000008
 40
0.3437500000000009
 40
0.3437500000000009
 40
0.3750000000000009
 40
0.3750000000000009
 40
0.4062500000000009
 40
0.4062500000000009
 40
0.437500000000001
 40
0.437500000000001
 40
0.468750000000001
 40
0.468750000000001
 40
0.500000000000001
 40
0.500000000000001
 40
0.5312500000000011
 40
0.5312500000000011
 40
0.5625000000000012
 40
0.5625000000000012
 40
0.5937500000000011
 40
0.5937500000000011
 40
0.6250000000000011
 40
0.6250000000000011
 40
0.6562500000000011
 40
0.6562500000000011
 40
0.6875000000000011
 40
0.6875000000000011
 40
0.7187500000000011
 40
0.7187500000000011
 40
0.750000000000001
 40
0.750000000000001
 40
0.781250000000001
 40
0.781250000000001
 40
0.812500000000001
 40
0.812500000000001
 40
0.875000000000001
 40
0.875000000000001
 40
0.9062500000000008
 40
0.9062500000000008
 40
0.9375000000000004
 40
0.9375000000000004
 40
0.9687500000000002
 40
0.9687500000000002
 40
1.0
 40
1.0
 40
1.0
 40
1.0
 10
213.5958062883542
 20
109.4240591595125
 30
0.0
 10
214.0566581874517
 20
109.2467909207798
 30
0.0
 10
214.4747268390765
 20
108.9933442932867
 30
0.0
 10
215.0306271669529
 20
108.5069148457232
 30
0.0
 10
215.1992615768047
 20
108.3308904714673
 30
0.0
 10
215.5046254865155
 20
107.9524057048041
 30
0.0
 10
215.6421999633481
 20
107.7483646735518
 30
0.0
 10
215.8799121270974
 20
107.3199618210469
 30
0.0
 10
215.9788038517347
 20
107.0985344488764
 30
0.0
 10
216.1379285345107
 20
106.6418868257581
 30
0.0
 10
216.1984641089874
 20
106.4044661430589
 30
0.0
 10
216.2768784434153
 20
105.9261975568785
 30
0.0
 10
216.2949099244014
 20
105.6871373553003
 30
0.0
 10
216.2895898916636
 20
105.2092248526446
 30
0.0
 10
216.2656900246159
 20
104.9680367078558
 30
0.0
 10
216.1764716013323
 20
104.4990000896357
 30
0.0
 10
216.1117600600997
 20
104.2715196869646
 30
0.0
 10
215.942650400576
 20
103.8301657442532
 30
0.0
 10
215.8368896556143
 20
103.6143702433652
 30
0.0
 10
215.5910157143589
 20
103.2099632379634
 30
0.0
 10
215.451101596
 20
103.020547827394
 30
0.0
 10
215.1372806310588
 20
102.6666545350866
 30
0.0
 10
214.961502291007
 20
102.5010060505917
 30
0.0
 10
214.5870002182285
 20
102.2064127203728
 30
0.0
 10
214.3876266792149
 20
102.076169493287
 30
0.0
 10
213.9643826205983
 20
101.8493698790494
 30
0.0
 10
213.7386149600474
 20
101.7525175550517
 30
0.0
 10
213.278990357985
 20
101.6002607065614
 30
0.0
 10
213.0435225633456
 20
101.5436630636933
 30
0.0
 10
212.5612109084939
 20
101.4693232733121
 30
0.0
 10
212.3133624733234
 20
101.452016499299
 30
0.0
 10
211.8255796147115
 20
101.4578475104446
 30
0.0
 10
211.5832628345938
 20
101.4804343243333
 30
0.0
 10
211.1017727415879
 20
101.5650548150967
 30
0.0
 10
210.8633362877675
 20
101.6274279212739
 30
0.0
 10
210.407340985029
 20
101.7870778945764
 30
0.0
 10
210.1874371030365
 20
101.8846823598787
 30
0.0
 10
209.7639256235105
 20
102.1163400355425
 30
0.0
 10
209.5623293089367
 20
102.2497036140562
 30
0.0
 10
209.1895408937869
 20
102.5440520992059
 30
0.0
 10
209.0166213979857
 20
102.7059338600129
 30
0.0
 10
208.6985507491916
 20
103.0607487261376
 30
0.0
 10
208.5553970736317
 20
103.2520035943492
 30
0.0
 10
208.3077013535396
 20
103.6525583273021
 30
0.0
 10
208.2018829053142
 20
103.8632211549553
 30
0.0
 10
208.0280166867828
 20
104.3067794925313
 30
0.0
 10
207.9613476977768
 20
104.5373134627586
 30
0.0
 10
207.871750167784
 20
105.0029832830102
 30
0.0
 10
207.8480367460422
 20
105.2399989783627
 30
0.0
 10
207.8446025845224
 20
105.722837793597
 30
0.0
 10
207.8652245794665
 20
105.9645042426597
 30
0.0
 10
207.9906164420114
 20
106.6750380191035
 30
0.0
 10
208.1630600401205
 20
107.1420363011232
 30
0.0
 10
208.5297222027596
 20
107.7717403052657
 30
0.0
 10
208.6712892178751
 20
107.9730562757542
 30
0.0
 10
208.9872330467402
 20
108.3490490471564
 30
0.0
 10
209.159381929654
 20
108.521566575212
 30
0.0
 10
209.5311161647444
 20
108.8365527715063
 30
0.0
 10
209.7322558188309
 20
108.9798826098526
 30
0.0
 10
210.1557550462711
 20
109.2300188959002
 30
0.0
 10
210.3769170841007
 20
109.3365211223698
 30
0.0
 10
210.6076888425912
 20
109.4240591595125
 30
0.0
  0
ELLIPSE
  5
18C
330
1F
100
AcDbEntity
  8
0
  6
HIDDEN
 62
     7
370
     0
100
AcDbEllipse
 10
221.6030538494
 20
109.4240591595
 30
0.0
 11
1.450835801923773
 21
20.49954741249586
 31
0.0
210
0.0
220
0.0
230
1.0
 40
0.0938906935
 41
1.577441252748315
 42
1.962412846463534
  0
LINE
  5
18D
330
1F
100
AcDbEntity
  8
0
  6
HIDDEN
 62
     7
370
     0
100
AcDbLine
 10
150.9047885354
 20
118.9867524636
 30
0.0
 11
150.9047885354
 21
99.8613658554
 31
0.0
  0
LINE
  5
18E
330
1F
100
AcDbEntity
  8
0
  6
HIDDEN
 62
     7
370
     0
100
AcDbLine
 10
149.8777565033
 20
99.2684086352
 30
0.0
 11
149.8777565033
 21
119.5797096838
 31
0.0
  0
LINE
  5
18F
330
1F
100
AcDbEntity
  8
0
  6
HIDDEN
 62
     7
370
     0
100
AcDbLine
 10
154.4047885354
 20
118.6549992672
 30
0.0
 11
154.4047885354
 21
100.1931190518
 31
0.0
  0
LINE
  5
190
330
1F
100
AcDbEntity
  8
0
  6
HIDDEN
 62
     7
370
     0
100
AcDbLine
 10
157.8047885354
 20
118.4240591595
 30
0.0
 11
157.8047885354
 21
100.4240591595
 31
0.0
  0
LINE
  5
191
330
1F
100
AcDbEntity
  8
0
  6
HIDDEN
 62
     7
370
     0
100
AcDbLine
 10
153.0047885354
 20
118.4240591595
 30
0.0
 11
153.0047885354
 21
100.4240591595
 31
0.0
  0
LINE
  5
192
330
1F
100
AcDbEntity
  8
0
  6
HIDDEN
 62
     7
370
     0
100
AcDbLine
 10
154.0047885354
 20
118.4240591595
 30
0.0
 11
154.0047885354
 21
100.4240591595
 31
0.0
  0
SPLINE
  5
193
330
1F
100
AcDbEntity
  8
0
  6
HIDDEN
 62
     7
370
     0
100
AcDbSpline
210
0.0
220
0.0
230
1.0
 70
     8
 71
     3
 72
    14
 73
    10
 74
     0
 42
0.00000001
 43
0.00000001
 12
1.0
 22
0.0
 32
0.0
 13
1.0
 23
0.0
 33
0.0
 40
0.0
 40
0.0
 40
0.0
 40
0.0
 40
0.2500000000000001
 40
0.2500000000000001
 40
0.5000000000000001
 40
0.5000000000000001
 40
0.7500000000000001
 40
0.7500000000000001
 40
1.0
 40
1.0
 40
1.0
 40
1.0
 10
164.3777565033488
 20
110.5598408286725
 30
0.0
 10
164.4759808498518
 20
110.386877398869
 30
0.0
 10
164.5512956878359
 20
110.2018448444446
 30
0.0
 10
164.6522623980302
 20
109.8188326303101
 30
0.0
 10
164.6776379843204
 20
109.6241140768445
 30
0.0
 10
164.6778742095867
 20
109.2267387755789
 30
0.0
 10
164.6521711402512
 20
109.0292464411035
 30
0.0
 10
164.5518510267347
 20
108.6480746064725
 30
0.0
 10
164.4759591986471
 20
108.4612027944999
 30
0.0
 10
164.3777565033534
 20
108.28827749035
 30
0.0
  0
LINE
  5
194
330
1F
100
AcDbEntity
  8
0
  6
HIDDEN
 62
     7
370
     0
100
AcDbLine
 10
164.8777565033
 20
117.9240591492
 30
0.0
 11
164.8777565033
 21
100.9240591595
 31
0.0
  0
SPLINE
  5
195
330
1F
100
AcDbEntity
  8
0
  6
HIDDEN
 62
     7
370
     0
100
AcDbSpline
210
0.0
220
0.0
230
1.0
 70
     8
 71
     3
 72
    14
 73
    10
 74
     0
 42
0.00000001
 43
0.00000001
 12
1.0
 22
0.0
 32
0.0
 13
1.0
 23
0.0
 33
0.0
 40
0.0
 40
0.0
 40
0.0
 40
0.0
 40
0.2500000000000001
 40
0.2500000000000001
 40
0.5
 40
0.5
 40
0.75
 40
0.75
 40
1.0
 40
1.0
 40
1.0
 40
1.0
 10
164.3777565033488
 20
108.2882774903524
 30
0.0
 10
164.4759808498518
 20
108.4612409201559
 30
0.0
 10
164.5512956878359
 20
108.6462734745803
 30
0.0
 10
164.6522623980302
 20
109.0292856887148
 30
0.0
 10
164.6776379843204
 20
109.2240042421804
 30
0.0
 10
164.6778742095867
 20
109.621379543446
 30
0.0
 10
164.6521711402512
 20
109.8188718779214
 30
0.0
 10
164.5518510267347
 20
110.2000437125524
 30
0.0
 10
164.4759591986471
 20
110.386915524525
 30
0.0
 10
164.3777565033534
 20
110.5598408286749
 30
0.0
  0
SPLINE
  5
196
330
1F
100
AcDbEntity
  8
0
  6
HIDDEN
 62
     7
370
     0
100
AcDbSpline
210
0.0
220
0.0
230
1.0
 70
     8
 71
     3
 72
    60
 73
    56
 74
     0
 42
0.00000001
 43
0.00000001
 12
1.0
 22
0.0
 32
0.0
 13
1.0
 23
0.0
 33
0.0
 40
0.0
 40
0.0
 40
0.0
 40
0.0
 40
0.0624999999999997
 40
0.0624999999999997
 40
0.1249999999999993
 40
0.1249999999999993
 40
0.1874999999999989
 40
0.1874999999999989
 40
0.218749999999999
 40
0.218749999999999
 40
0.2499999999999991
 40
0.2499999999999991
 40
0.3124999999999991
 40
0.3124999999999991
 40
0.3749999999999991
 40
0.3749999999999991
 40
0.4062499999999992
 40
0.4062499999999992
 40
0.4374999999999992
 40
0.4374999999999992
 40
0.4687499999999993
 40
0.4687499999999993
 40
0.4999999999999993
 40
0.4999999999999993
 40
0.5312499999999993
 40
0.5312499999999993
 40
0.5624999999999994
 40
0.5624999999999994
 40
0.5937499999999994
 40
0.5937499999999994
 40
0.6249999999999996
 40
0.6249999999999996
 40
0.6562499999999996
 40
0.6562499999999996
 40
0.6874999999999997
 40
0.6874999999999997
 40
0.7187499999999997
 40
0.7187499999999997
 40
0.7499999999999997
 40
0.7499999999999997
 40
0.7812499999999998
 40
0.7812499999999998
 40
0.8124999999999998
 40
0.8124999999999998
 40
0.8437499999999999
 40
0.8437499999999999
 40
0.8749999999999999
 40
0.8749999999999999
 40
0.90625
 40
0.90625
 40
0.9375
 40
0.9375
 40
0.9687500000000001
 40
0.9687500000000001
 40
1.0
 40
1.0
 40
1.0
 40
1.0
 10
164.3777565033488
 20
108.2882774903524
 30
0.0
 10
164.2525666017701
 20
108.0678303657368
 30
0.0
 10
164.095699283202
 20
107.8740966369165
 30
0.0
 10
163.7186617633832
 20
107.538406938154
 30
0.0
 10
163.5069484569622
 20
107.4044295798413
 30
0.0
 10
163.0410584750134
 20
107.2073028351562
 30
0.0
 10
162.7952192439618
 20
107.1480854229343
 30
0.0
 10
162.4157381908672
 20
107.1208786870436
 30
0.0
 10
162.2879924621733
 20
107.1223719521855
 30
0.0
 10
162.0375262155052
 20
107.1458877579944
 30
0.0
 10
161.913696832697
 20
107.1678069767987
 30
0.0
 10
161.5464771585983
 20
107.2646435416436
 30
0.0
 10
161.3157081405126
 20
107.3684446630953
 30
0.0
 10
160.8958191790931
 20
107.6471631440234
 30
0.0
 10
160.7115608042055
 20
107.8187254355271
 30
0.0
 10
160.4808124167222
 20
108.1173727967939
 30
0.0
 10
160.4117655669332
 20
108.2238403372962
 30
0.0
 10
160.2932009031277
 20
108.4441236856891
 30
0.0
 10
160.2429925343781
 20
108.5587852020905
 30
0.0
 10
160.1611606820203
 20
108.7974658388673
 30
0.0
 10
160.1298097831376
 20
108.9215114657454
 30
0.0
 10
160.088415405099
 20
109.1696265018538
 30
0.0
 10
160.0779096300347
 20
109.2948642043422
 30
0.0
 10
160.0776066776989
 20
109.5477432599332
 30
0.0
 10
160.0880912073155
 20
109.6756229461699
 30
0.0
 10
160.129231284777
 20
109.9240450073753
 30
0.0
 10
160.1598094053256
 20
110.0458439341437
 30
0.0
 10
160.2410921136768
 20
110.284623463618
 30
0.0
 10
160.2920930002387
 20
110.4016650259247
 30
0.0
 10
160.4106600486018
 20
110.6224902238506
 30
0.0
 10
160.4785488018736
 20
110.7274285874134
 30
0.0
 10
160.6316992396112
 20
110.9264059206428
 30
0.0
 10
160.7172554111837
 20
111.0204140458369
 30
0.0
 10
160.8999667821429
 20
111.1909067307737
 30
0.0
 10
160.9977740818248
 20
111.268344925823
 30
0.0
 10
161.2065771937418
 20
111.4075108217113
 30
0.0
 10
161.3181593690296
 20
111.4692926307183
 30
0.0
 10
161.5468051685287
 20
111.5723715013191
 30
0.0
 10
161.6647599794998
 20
111.6143755365147
 30
0.0
 10
161.9080884244885
 20
111.6791116578115
 30
0.0
 10
162.0344322998316
 20
111.7017849203742
 30
0.0
 10
162.2855382808494
 20
111.7256677165554
 30
0.0
 10
162.4112202745724
 20
111.727271017822
 30
0.0
 10
162.6628423443642
 20
111.7098042790511
 30
0.0
 10
162.78973996465
 20
111.6903683884112
 30
0.0
 10
163.0349305309111
 20
111.6317752170875
 30
0.0
 10
163.1541196879446
 20
111.5927123659309
 30
0.0
 10
163.3858047122994
 20
111.4952026438071
 30
0.0
 10
163.4989795166499
 20
111.4361672895185
 30
0.0
 10
163.7110579335856
 20
111.302363572679
 30
0.0
 10
163.8108467122865
 20
111.2273683565343
 30
0.0
 10
163.9981048992754
 20
111.0611732920135
 30
0.0
 10
164.0859999362188
 20
110.9692790932719
 30
0.0
 10
164.2442210118507
 20
110.7739148955576
 30
0.0
 10
164.3151589681424
 20
110.6700689418851
 30
0.0
 10
164.3777565033488
 20
110.5598408286725
 30
0.0
  0
SPLINE
  5
197
330
1F
100
AcDbEntity
  8
0
  6
HIDDEN
 62
     7
370
     0
100
AcDbSpline
210
0.0
220
0.0
230
1.0
 70
     8
 71
     3
 72
    60
 73
    56
 74
     0
 42
0.00000001
 43
0.00000001
 12
1.0
 22
0.0
 32
0.0
 13
1.0
 23
0.0
 33
0.0
 40
0.0
 40
0.0
 40
0.0
 40
0.0
 40
0.0625000000000001
 40
0.0625000000000001
 40
0.1250000000000002
 40
0.1250000000000002
 40
0.1875000000000002
 40
0.1875000000000002
 40
0.2187500000000001
 40
0.2187500000000001
 40
0.2499999999999999
 40
0.2499999999999999
 40
0.3124999999999996
 40
0.3124999999999996
 40
0.3749999999999993
 40
0.3749999999999993
 40
0.4062499999999993
 40
0.4062499999999993
 40
0.4374999999999992
 40
0.4374999999999992
 40
0.4687499999999993
 40
0.4687499999999993
 40
0.4999999999999993
 40
0.4999999999999993
 40
0.5312499999999993
 40
0.5312499999999993
 40
0.5624999999999994
 40
0.5624999999999994
 40
0.5937499999999994
 40
0.5937499999999994
 40
0.6249999999999994
 40
0.6249999999999994
 40
0.6562499999999996
 40
0.6562499999999996
 40
0.6874999999999996
 40
0.6874999999999996
 40
0.7187499999999997
 40
0.7187499999999997
 40
0.7499999999999997
 40
0.7499999999999997
 40
0.7812499999999997
 40
0.7812499999999997
 40
0.8124999999999998
 40
0.8124999999999998
 40
0.8437499999999998
 40
0.8437499999999998
 40
0.8749999999999998
 40
0.8749999999999998
 40
0.9062499999999999
 40
0.9062499999999999
 40
0.9374999999999999
 40
0.9374999999999999
 40
0.96875
 40
0.96875
 40
1.0
 40
1.0
 40
1.0
 40
1.0
 10
164.3777565033488
 20
110.5598408286725
 30
0.0
 10
164.2525666017701
 20
110.7802879532881
 30
0.0
 10
164.095699283202
 20
110.9740216821084
 30
0.0
 10
163.7186617633832
 20
111.3097113808709
 30
0.0
 10
163.5069484569621
 20
111.4436887391836
 30
0.0
 10
163.0410584750134
 20
111.6408154838687
 30
0.0
 10
162.7952192439618
 20
111.7000328960906
 30
0.0
 10
162.4157381908672
 20
111.7272396319812
 30
0.0
 10
162.2879924621733
 20
111.7257463668394
 30
0.0
 10
162.0375262155052
 20
111.7022305610305
 30
0.0
 10
161.913696832697
 20
111.6803113422262
 30
0.0
 10
161.5464771585983
 20
111.5834747773813
 30
0.0
 10
161.3157081405126
 20
111.4796736559295
 30
0.0
 10
160.8958191790931
 20
111.2009551750015
 30
0.0
 10
160.7115608042055
 20
111.0293928834978
 30
0.0
 10
160.4808124167222
 20
110.730745522231
 30
0.0
 10
160.4117655669332
 20
110.6242779817287
 30
0.0
 10
160.2932009031277
 20
110.4039946333357
 30
0.0
 10
160.2429925343781
 20
110.2893331169343
 30
0.0
 10
160.1611606820203
 20
110.0506524801576
 30
0.0
 10
160.1298097831376
 20
109.9266068532795
 30
0.0
 10
160.088415405099
 20
109.6784918171711
 30
0.0
 10
160.0779096300347
 20
109.5532541146827
 30
0.0
 10
160.0776066776989
 20
109.3003750590916
 30
0.0
 10
160.0880912073155
 20
109.172495372855
 30
0.0
 10
160.129231284777
 20
108.9240733116496
 30
0.0
 10
160.1598094053256
 20
108.8022743848812
 30
0.0
 10
160.2410921136768
 20
108.5634948554068
 30
0.0
 10
160.2920930002388
 20
108.4464532931002
 30
0.0
 10
160.4106600486018
 20
108.2256280951743
 30
0.0
 10
160.4785488018736
 20
108.1206897316115
 30
0.0
 10
160.6316992396112
 20
107.9217123983821
 30
0.0
 10
160.7172554111837
 20
107.8277042731879
 30
0.0
 10
160.8999667821429
 20
107.6572115882512
 30
0.0
 10
160.9977740818248
 20
107.5797733932019
 30
0.0
 10
161.2065771937418
 20
107.4406074973136
 30
0.0
 10
161.3181593690296
 20
107.3788256883066
 30
0.0
 10
161.5468051685287
 20
107.2757468177058
 30
0.0
 10
161.6647599794998
 20
107.2337427825101
 30
0.0
 10
161.9080884244885
 20
107.1690066612134
 30
0.0
 10
162.0344322998316
 20
107.1463333986507
 30
0.0
 10
162.2855382808495
 20
107.1224506024695
 30
0.0
 10
162.4112202745724
 20
107.1208473012029
 30
0.0
 10
162.6628423443642
 20
107.1383140399737
 30
0.0
 10
162.78973996465
 20
107.1577499306137
 30
0.0
 10
163.0349305309111
 20
107.2163431019374
 30
0.0
 10
163.1541196879446
 20
107.255405953094
 30
0.0
 10
163.3858047122994
 20
107.3529156752178
 30
0.0
 10
163.4989795166499
 20
107.4119510295064
 30
0.0
 10
163.7110579335856
 20
107.5457547463458
 30
0.0
 10
163.8108467122865
 20
107.6207499624906
 30
0.0
 10
163.9981048992754
 20
107.7869450270114
 30
0.0
 10
164.0859999362188
 20
107.878839225753
 30
0.0
 10
164.2442210118507
 20
108.0742034234673
 30
0.0
 10
164.3151589681424
 20
108.1780493771398
 30
0.0
 10
164.3777565033488
 20
108.2882774903524
 30
0.0
  0
LINE
  5
198
330
1F
100
AcDbEntity
  8
0
  6
HIDDEN
 62
     7
370
     0
100
AcDbLine
 10
165.7777565033
 20
115.6740591595
 30
0.0
 11
165.7777565033
 21
103.1740591595
 31
0.0
  0
LINE
  5
199
330
1F
100
AcDbEntity
  8
0
  6
HIDDEN
 62
     7
370
     0
100
AcDbLine
 10
164.8777565033
 20
102.2740591595
 30
0.0
 11
164.8777565033
 21
116.5740591595
 31
0.0
  0
LINE
  5
19A
330
1F
100
AcDbEntity
  8
0
  6
HIDDEN
 62
     7
370
     0
100
AcDbLine
 10
190.8623776344
 20
103.1740591595
 30
0.0
 11
190.8623776344
 21
115.6740591595
 31
0.0
  0
SPLINE
  5
19B
330
1F
100
AcDbEntity
  8
0
  6
HIDDEN
 62
     7
370
     0
100
AcDbSpline
210
0.0
220
0.0
230
1.0
 70
     8
 71
     3
 72
    62
 73
    58
 74
     0
 42
0.00000001
 43
0.00000001
 12
1.0
 22
0.0
 32
0.0
 13
1.0
 23
0.0
 33
0.0
 40
-0.0312499999999998
 40
-0.0312499999999998
 40
0.0
 40
0.0
 40
0.03125
 40
0.03125
 40
0.0625000000000001
 40
0.0625000000000001
 40
0.0937500000000001
 40
0.0937500000000001
 40
0.1250000000000001
 40
0.1250000000000001
 40
0.1875000000000002
 40
0.1875000000000002
 40
0.2187500000000002
 40
0.2187500000000002
 40
0.2500000000000002
 40
0.2500000000000002
 40
0.2812500000000002
 40
0.2812500000000002
 40
0.3125000000000003
 40
0.3125000000000003
 40
0.3437500000000003
 40
0.3437500000000003
 40
0.3750000000000003
 40
0.3750000000000003
 40
0.4062500000000003
 40
0.4062500000000003
 40
0.4375000000000004
 40
0.4375000000000004
 40
0.4687500000000006
 40
0.4687500000000006
 40
0.5000000000000006
 40
0.5000000000000006
 40
0.5625000000000008
 40
0.5625000000000008
 40
0.5937500000000007
 40
0.5937500000000007
 40
0.6250000000000006
 40
0.6250000000000006
 40
0.6875000000000002
 40
0.6875000000000002
 40
0.7187500000000003
 40
0.7187500000000003
 40
0.7500000000000003
 40
0.7500000000000003
 40
0.7812500000000003
 40
0.7812500000000003
 40
0.8125000000000003
 40
0.8125000000000003
 40
0.8750000000000004
 40
0.8750000000000004
 40
0.9062500000000003
 40
0.9062500000000003
 40
0.9375000000000002
 40
0.9375000000000002
 40
0.9687500000000002
 40
0.9687500000000002
 40
1.0
 40
1.0
 40
1.03125
 40
1.03125
 10
188.0175980491507
 20
109.1659720671666
 30
0.0
 10
187.7379149575472
 20
109.1659720671666
 30
0.0
 10
187.6006310005897
 20
109.1512852677991
 30
0.0
 10
187.3308952457382
 20
109.0941928014183
 30
0.0
 10
187.1970132266428
 20
109.0510380134188
 30
0.0
 10
186.9432666682447
 20
108.9400997047704
 30
0.0
 10
186.8230810065021
 20
108.8726540703963
 30
0.0
 10
186.5956184149883
 20
108.7148474543363
 30
0.0
 10
186.4888032095267
 20
108.6243961362175
 30
0.0
 10
186.200558612202
 20
108.3306881586206
 30
0.0
 10
186.0444379133008
 20
108.0975684101256
 30
0.0
 10
185.8867224524586
 20
107.728133373523
 30
0.0
 10
185.845813223351
 20
107.5993957543947
 30
0.0
 10
185.7914363183287
 20
107.3408617095676
 30
0.0
 10
185.7778488504391
 20
107.2121470790597
 30
0.0
 10
185.7776650854515
 20
106.9559792888039
 30
0.0
 10
185.7915511216576
 20
106.8276775204513
 30
0.0
 10
185.8456382062083
 20
106.5838062579724
 30
0.0
 10
185.8856469622533
 20
106.4668112338934
 30
0.0
 10
185.9919932368356
 20
106.2422355532804
 30
0.0
 10
186.0571925117531
 20
106.1373330373908
 30
0.0
 10
186.2088999157913
 20
105.9435048469003
 30
0.0
 10
186.2967005904313
 20
105.8532725618363
 30
0.0
 10
186.4900384997946
 20
105.691851098041
 30
0.0
 10
186.5949868858062
 20
105.6207260967818
 30
0.0
 10
186.8217148957523
 20
105.4963392894661
 30
0.0
 10
186.9444866467343
 20
105.4429866588251
 30
0.0
 10
187.1971651189596
 20
105.3583331962881
 30
0.0
 10
187.3281460904603
 20
105.326269633584
 30
0.0
 10
187.5999344617091
 20
105.2827696358442
 30
0.0
 10
187.7391680720434
 20
105.2718448024135
 30
0.0
 10
188.1523518548417
 20
105.2717104488417
 30
0.0
 10
188.4304275995565
 20
105.3155882761524
 30
0.0
 10
188.8104964275878
 20
105.4427536574932
 30
0.0
 10
188.9332646695299
 20
105.4960913667991
 30
0.0
 10
189.1599508354162
 20
105.6203659714689
 30
0.0
 10
189.2651189439616
 20
105.6915537339437
 30
0.0
 10
189.5562054396918
 20
105.9345888281994
 30
0.0
 10
189.7101359619198
 20
106.1297242716748
 30
0.0
 10
189.8695675646696
 20
106.4660706223396
 30
0.0
 10
189.9095687622251
 20
106.5828530429923
 30
0.0
 10
189.9637279831545
 20
106.8262004586429
 30
0.0
 10
189.9777508897039
 20
106.9543788846487
 30
0.0
 10
189.9777621135406
 20
107.2109991000357
 30
0.0
 10
189.9642211603416
 20
107.3398174584886
 30
0.0
 10
189.9100030737317
 20
107.5983081919973
 30
0.0
 10
189.8691231191254
 20
107.7272518176957
 30
0.0
 10
189.7111550419496
 20
108.0975855156812
 30
0.0
 10
189.5551270845947
 20
108.3305530145214
 30
0.0
 10
189.2663799652695
 20
108.6247117843348
 30
0.0
 10
189.1591651305405
 20
108.7153934302487
 30
0.0
 10
188.9323117235906
 20
108.8726974669235
 30
0.0
 10
188.8122942113507
 20
108.9400778217249
 30
0.0
 10
188.5584760038966
 20
109.0510493612498
 30
0.0
 10
188.4246089598452
 20
109.0941928399835
 30
0.0
 10
188.1549417179509
 20
109.1512744530877
 30
0.0
 10
188.0175980491507
 20
109.1659720671666
 30
0.0
 10
187.7379149575472
 20
109.1659720671666
 30
0.0
  0
CIRCLE
  5
19C
330
1F
100
AcDbEntity
  8
0
  6
HIDDEN
 62
     7
370
     0
100
AcDbCircle
 10
214.239886612
 20
109.1786208503
 30
0.0
 40
3.466782267170059
  0
ARC
  5
19D
330
1F
100
AcDbEntity
  8
0
  6
HIDDEN
 62
     7
370
     0
100
AcDbCircle
 10
207.7782370938
 20
113.7099451675
 30
0.0
 40
2.091040093844614
100
AcDbArc
 50
122.474029286
 51
301.4417722183
  0
LINE
  5
19E
330
1F
100
AcDbEntity
  8
0
  6
HIDDEN
 62
     7
370
     0
100
AcDbLine
 10
222.6670421985
 20
121.2253820069
 30
0.0
 11
221.7032897671
 21
119.6331164526
 31
0.0
  0
LINE
  5
19F
330
1F
100
AcDbEntity
  8
0
  6
HIDDEN
 62
     7
370
     0
100
AcDbLine
 10
197.0763553417
 20
130.1602733795
 30
0.0
 11
197.0975873068
 21
130.2403047893
 31
0.0
  0
SPLINE
  5
1A0
330
1F
100
AcDbEntity
  8
0
  6
HIDDEN
 62
     7
370
     0
100
AcDbSpline
210
0.0
220
0.0
230
1.0
 70
     8
 71
     3
 72
    40
 73
    36
 74
     0
 42
0.00000001
 43
0.00000001
 12
1.0
 22
0.0
 32
0.0
 13
1.0
 23
0.0
 33
0.0
 40
0.0
 40
0.0
 40
0.0
 40
0.0
 40
0.062500000000001
 40
0.062500000000001
 40
0.125000000000002
 40
0.125000000000002
 40
0.2500000000000037
 40
0.2500000000000037
 40
0.3125000000000048
 40
0.3125000000000048
 40
0.3750000000000058
 40
0.3750000000000058
 40
0.4062500000000063
 40
0.4062500000000063
 40
0.4375000000000068
 40
0.4375000000000068
 40
0.4687500000000073
 40
0.4687500000000073
 40
0.4843750000000075
 40
0.4843750000000075
 40
0.5000000000000078
 40
0.5000000000000078
 40
0.5312500000000067
 40
0.5312500000000067
 40
0.5625000000000057
 40
0.5625000000000057
 40
0.6250000000000049
 40
0.6250000000000049
 40
0.6875000000000041
 40
0.6875000000000041
 40
0.7500000000000032
 40
0.7500000000000032
 40
0.8750000000000017
 40
0.8750000000000017
 40
1.0
 40
1.0
 40
1.0
 40
1.0
 10
216.5241800064534
 20
110.9175348750281
 30
0.0
 10
216.5532107112758
 20
110.9654980134881
 30
0.0
 10
216.5696503507383
 20
111.0258272255981
 30
0.0
 10
216.5831808687998
 20
111.1641454437262
 30
0.0
 10
216.5801317921994
 20
111.2424911616299
 30
0.0
 10
216.5442252326086
 20
111.4951897474304
 30
0.0
 10
216.4865159395076
 20
111.686051677984
 30
0.0
 10
216.3361005030302
 20
111.9914222138451
 30
0.0
 10
216.2750696052262
 20
112.0965396095289
 30
0.0
 10
216.1214609643487
 20
112.312459742762
 30
0.0
 10
216.0294509871612
 20
112.4226966510075
 30
0.0
 10
215.8570109564632
 20
112.5861113500234
 30
0.0
 10
215.7936130081316
 20
112.6404023656761
 30
0.0
 10
215.6495244555269
 20
112.7479525033797
 30
0.0
 10
215.5682046273026
 20
112.8017175099064
 30
0.0
 10
215.380308376094
 20
112.9047368056067
 30
0.0
 10
215.2746773590385
 20
112.9534665835143
 30
0.0
 10
215.0939100837968
 20
113.0164587913792
 30
0.0
 10
215.030918112299
 20
113.035399591509
 30
0.0
 10
214.8984619667631
 20
113.0683797728538
 30
0.0
 10
214.8286417049392
 20
113.0823684224819
 30
0.0
 10
214.6199192644151
 20
113.114058578009
 30
0.0
 10
214.4761444338149
 20
113.1221084964823
 30
0.0
 10
214.206991031997
 20
113.1163252637643
 30
0.0
 10
214.0798940574688
 20
113.1030340461584
 30
0.0
 10
213.7353234615148
 20
113.0479578248757
 30
0.0
 10
213.5388511851203
 20
112.9904734258496
 30
0.0
 10
213.1860216439796
 20
112.862546212746
 30
0.0
 10
213.0318462221763
 20
112.7921295102377
 30
0.0
 10
212.7495224311526
 20
112.6463192994205
 30
0.0
 10
212.621495587553
 20
112.5705231014457
 30
0.0
 10
212.2702087431137
 20
112.3428146196625
 30
0.0
 10
212.0806926606013
 20
112.1921695762936
 30
0.0
 10
211.7753661486967
 20
111.9158734218612
 30
0.0
 10
211.6585272607422
 20
111.7894573087152
 30
0.0
 10
211.5999636232157
 20
111.692701274971
 30
0.0
  0
ELLIPSE
  5
1A1
330
1F
100
AcDbEntity
  8
0
  6
HIDDEN
 62
     7
370
     0
100
AcDbEllipse
 10
215.2167460305
 20
116.1411047283
 30
0.0
 11
3.105839292631231
 21
2.305055007060048
 31
0.0
210
0.0
220
0.0
230
1.0
 40
0.0904236958
 41
6.065479689650804
 42
9.20707234324054
  0
LINE
  5
1A2
330
1F
100
AcDbEntity
  8
0
  6
HIDDEN
 62
     7
370
     0
100
AcDbLine
 10
209.9420865136
 20
129.0722583998
 30
0.0
 11
210.905838945
 21
130.6645239541
 31
0.0
  0
LINE
  5
1A3
330
1F
100
AcDbEntity
  8
0
  6
HIDDEN
 62
     7
370
     0
100
AcDbLine
 10
211.5999636232
 20
111.692701275
 30
0.0
 11
211.1617975817
 21
110.9687843515
 31
0.0
  0
ELLIPSE
  5
1A4
330
1F
100
AcDbEntity
  8
0
  6
HIDDEN
 62
     7
370
     0
100
AcDbEllipse
 10
213.3947314796
 20
107.6915650119
 30
0.0
 11
3.953222233227735
 21
-1.47868202636252
 31
0.0
210
0.0
220
0.0
230
1.0
 40
0.8454008504
 41
1.170661207113688
 42
2.445785048352085
  0
LINE
  5
1A5
330
1F
100
AcDbEntity
  8
0
  6
HIDDEN
 62
     7
370
     0
100
AcDbLine
 10
216.0860139649
 20
110.1936179516
 30
0.0
 11
216.5241800065
 21
110.917534875
 31
0.0
  0
ELLIPSE
  5
1A6
330
1F
100
AcDbEntity
  8
0
  6
HIDDEN
 62
     7
370
     0
100
AcDbEllipse
 10
212.028944008
 20
105.435076442
 30
0.0
 11
-2.220506159017901
 21
-3.668613800738158
 31
0.0
210
0.0
220
0.0
230
1.0
 40
0.9794128731
 41
3.315099981596751
 42
4.038317802124052
  0
LWPOLYLINE
  5
1A7
330
1F
100
AcDbEntity
  8
0
  6
HIDDEN
 62
     7
370
     0
100
AcDbPolyline
 90
       41
 70
   128
 43
0.0
 10
214.2625295106
 20
113.2614918697
 10
214.9159550134
 20
113.198642703
 10
215.5532910118
 20
113.0354943031
 10
216.1588441782
 20
112.7760639253
 10
216.717703784
 20
112.4267396064
 10
217.2161088509
 20
111.9961228705
 10
217.6417869921
 20
111.4948169307
 10
217.9842565989
 20
110.9351656031
 10
218.2350849332
 20
110.3309493606
 10
218.3880957688
 20
109.6970460125
 10
218.4395214711
 20
109.049064363
 10
218.3880957688
 20
108.4029598708
 10
218.2350849332
 20
107.7746417729
 10
217.9842565989
 20
107.179581346
 10
217.6417869921
 20
106.6324309528
 10
217.2161088509
 20
106.1466632518
 10
216.717703784
 20
105.734239456
 10
216.1588441782
 20
105.4053148081
 10
215.5532910118
 20
105.1679885244
 10
214.9159550134
 20
105.0281043658
 10
214.2625295106
 20
104.9891067444
 10
213.6091040078
 20
105.0519559112
 10
212.9717680094
 20
105.215104311
 10
212.366214843
 20
105.4745346888
 10
211.8073552372
 20
105.8238590077
 10
211.3089501703
 20
106.2544757436
 10
210.8832720292
 20
106.7557816834
 10
210.5408024223
 20
107.3154330111
 10
210.289974088
 20
107.9196492535
 10
210.1369632524
 20
108.5535526016
 10
210.0855375501
 20
109.2015342511
 10
210.1369632524
 20
109.8476387433
 10
210.289974088
 20
110.4759568413
 10
210.5408024223
 20
111.0710172682
 10
210.8832720292
 20
111.6181676614
 10
211.3089501703
 20
112.1039353623
 10
211.8073552372
 20
112.5163591581
 10
212.366214843
 20
112.8452838061
 10
212.9717680094
 20
113.0826100897
 10
213.6091040078
 20
113.2224942484
 10
214.2625295106
 20
113.2614918697
  0
LINE
  5
1A8
330
1F
100
AcDbEntity
  8
0
  6
HIDDEN
 62
     7
370
     0
100
AcDbLine
 10
216.0860139649
 20
110.1936179516
 30
0.0
 11
216.4607182679
 21
114.9182276725
 31
0.0
  0
LINE
  5
1A9
330
1F
100
AcDbEntity
  8
0
  6
HIDDEN
 62
     7
370
     0
100
AcDbLine
 10
218.1662592982
 20
121.2400546105
 30
0.0
 11
217.8424104545
 21
120.7050070799
 31
0.0
  0
LINE
  5
1AA
330
1F
100
AcDbEntity
  8
0
  6
HIDDEN
 62
     7
370
     0
100
AcDbLine
 10
217.5857525513
 20
117.1604748781
 30
0.0
 11
218.1662592982
 21
121.2400546105
 31
0.0
  0
LINE
  5
1AB
330
1F
100
AcDbEntity
  8
0
  6
HIDDEN
 62
     7
370
     0
100
AcDbLine
 10
218.2942929288
 20
118.3310913148
 30
0.0
 11
217.5857525513
 21
117.1604748781
 31
0.0
  0
LINE
  5
1AC
330
1F
100
AcDbEntity
  8
0
  6
HIDDEN
 62
     7
370
     0
100
AcDbLine
 10
172.1777565033
 20
95.5038227712
 30
0.0
 11
172.1777565033
 21
95.4039603749
 31
0.0
  0
SPLINE
  5
1AD
330
1F
100
AcDbEntity
  8
0
  6
HIDDEN
 62
     7
370
     0
100
AcDbSpline
210
0.0
220
0.0
230
1.0
 70
     8
 71
     3
 72
    24
 73
    20
 74
     0
 42
0.00000001
 43
0.00000001
 12
1.0
 22
0.0
 32
0.0
 13
1.0
 23
0.0
 33
0.0
 40
0.0
 40
0.0
 40
0.0
 40
0.0
 40
0.2499999999999958
 40
0.2499999999999958
 40
0.3749999999999937
 40
0.3749999999999937
 40
0.4374999999999916
 40
0.4374999999999916
 40
0.4687499999999915
 40
0.4687499999999915
 40
0.4999999999999912
 40
0.4999999999999912
 40
0.5624999999999913
 40
0.5624999999999913
 40
0.6249999999999915
 40
0.6249999999999915
 40
0.7499999999999941
 40
0.7499999999999941
 40
1.0
 40
1.0
 40
1.0
 40
1.0
 10
172.1777565033487
 20
95.50382277119729
 30
0.0
 10
172.1781594139842
 20
95.53424700803548
 30
0.0
 10
172.1802033933245
 20
95.56710510858993
 30
0.0
 10
172.1894406361499
 20
95.62313047574375
 30
0.0
 10
172.1933276991303
 20
95.64274152892929
 30
0.0
 10
172.2042315905358
 20
95.67701581235833
 30
0.0
 10
172.2083736362861
 20
95.6890782378306
 30
0.0
 10
172.2202687100363
 20
95.71139740252842
 30
0.0
 10
172.2255157743433
 20
95.72036391488734
 30
0.0
 10
172.2423828407187
 20
95.7380134794155
 30
0.0
 10
172.250205248248
 20
95.74215776356046
 30
0.0
 10
172.2671540488726
 20
95.74864530473798
 30
0.0
 10
172.2746104000907
 20
95.74804842336627
 30
0.0
 10
172.288670303284
 20
95.74630215939482
 30
0.0
 10
172.2948026884203
 20
95.74447147149644
 30
0.0
 10
172.3120974509441
 20
95.73790506192377
 30
0.0
 10
172.3221147693533
 20
95.732039846765
 30
0.0
 10
172.3504861035969
 20
95.71329516273438
 30
0.0
 10
172.3670215412417
 20
95.69913101464745
 30
0.0
 10
172.3827165254065
 20
95.6849746283549
 30
0.0
  0
LINE
  5
1AE
330
1F
100
AcDbEntity
  8
0
  6
HIDDEN
 62
     7
370
     0
100
AcDbLine
 10
172.1777565033
 20
99.5051640404
 30
0.0
 11
172.1777565033
 21
98.4500211673
 31
0.0
  0
LINE
  5
1AF
330
1F
100
AcDbEntity
  8
0
  6
HIDDEN
 62
     7
370
     0
100
AcDbLine
 10
151.3777565033
 20
99.7664482398
 30
0.0
 11
151.3777565033
 21
95.9265287737
 31
0.0
  0
SPLINE
  5
1B0
330
1F
100
AcDbEntity
  8
0
  6
HIDDEN
 62
     7
370
     0
100
AcDbSpline
210
0.0
220
0.0
230
1.0
 70
     8
 71
     3
 72
    16
 73
    12
 74
     0
 42
0.00000001
 43
0.00000001
 12
1.0
 22
0.0
 32
0.0
 13
1.0
 23
0.0
 33
0.0
 40
0.0
 40
0.0
 40
0.0
 40
0.0
 40
0.2499999999999998
 40
0.2499999999999998
 40
0.3749999999999998
 40
0.3749999999999998
 40
0.4999999999999997
 40
0.4999999999999997
 40
0.7499999999999998
 40
0.7499999999999998
 40
1.0
 40
1.0
 40
1.0
 40
1.0
 10
172.1777565033487
 20
98.45002116726599
 30
0.0
 10
172.0972191714492
 20
98.06101398332046
 30
0.0
 10
172.0371818274218
 20
97.70451354169482
 30
0.0
 10
171.9764441202682
 20
97.21801115650597
 30
0.0
 10
171.9611217451553
 20
97.06393221565209
 30
0.0
 10
171.9405389358512
 20
96.77246265715867
 30
0.0
 10
171.9353393388256
 20
96.63489277325954
 30
0.0
 10
171.9352856856458
 20
96.25664793806982
 30
0.0
 10
171.9554832291237
 20
96.04676686951773
 30
0.0
 10
172.0361613174824
 20
95.71018757060655
 30
0.0
 10
172.0972074820903
 20
95.58390307868878
 30
0.0
 10
172.1777565033489
 20
95.50382277119742
 30
0.0
  0
SPLINE
  5
1B1
330
1F
100
AcDbEntity
  8
0
  6
HIDDEN
 62
     7
370
     0
100
AcDbSpline
210
0.0
220
0.0
230
1.0
 70
     8
 71
     3
 72
     8
 73
     4
 74
     0
 42
0.00000001
 43
0.00000001
 12
1.0
 22
0.0
 32
0.0
 13
1.0
 23
0.0
 33
0.0
 40
0.0
 40
0.0
 40
0.0
 40
0.0
 40
1.0
 40
1.0
 40
1.0
 40
1.0
 10
172.3827165254065
 20
95.68497462835485
 30
0.0
 10
172.4334436686131
 20
95.63922032702962
 30
0.0
 10
172.491330998174
 20
95.6107161811661
 30
0.0
 10
172.5564361597893
 20
95.59899515150728
 30
0.0
  0
LINE
  5
1B2
330
1F
100
AcDbEntity
  8
0
  6
HIDDEN
 62
     7
370
     0
100
AcDbLine
 10
172.1777565033
 20
123.4441579441
 30
0.0
 11
172.1777565033
 21
123.3442955478
 31
0.0
  0
SPLINE
  5
1B3
330
1F
100
AcDbEntity
  8
0
  6
HIDDEN
 62
     7
370
     0
100
AcDbSpline
210
0.0
220
0.0
230
1.0
 70
     8
 71
     3
 72
    24
 73
    20
 74
     0
 42
0.00000001
 43
0.00000001
 12
1.0
 22
0.0
 32
0.0
 13
1.0
 23
0.0
 33
0.0
 40
0.0
 40
0.0
 40
0.0
 40
0.0
 40
0.250000000000009
 40
0.250000000000009
 40
0.3750000000000135
 40
0.3750000000000135
 40
0.4375000000000156
 40
0.4375000000000156
 40
0.5000000000000177
 40
0.5000000000000177
 40
0.531250000000019
 40
0.531250000000019
 40
0.5625000000000203
 40
0.5625000000000203
 40
0.625000000000019
 40
0.625000000000019
 40
0.7500000000000139
 40
0.7500000000000139
 40
1.0
 40
1.0
 40
1.0
 40
1.0
 10
172.3827165254093
 20
123.1631436906724
 30
0.0
 10
172.3669499371109
 20
123.1489227196842
 30
0.0
 10
172.3503384041562
 20
123.1346924293493
 30
0.0
 10
172.3218120561982
 20
123.1158953741278
 30
0.0
 10
172.3117266224082
 20
123.1100069537866
 30
0.0
 10
172.2942438518733
 20
123.1034695589842
 30
0.0
 10
172.2880361954278
 20
123.1016583449831
 30
0.0
 10
172.2737646951826
 20
123.1000525424765
 30
0.0
 10
172.2661946246795
 20
123.0994997650905
 30
0.0
 10
172.2487982952441
 20
123.1066985098033
 30
0.0
 10
172.240339022284
 20
123.1117902585511
 30
0.0
 10
172.2242780577365
 20
123.1296051910303
 30
0.0
 10
172.2194448218902
 20
123.1381276058927
 30
0.0
 10
172.208018902155
 20
123.1600240425414
 30
0.0
 10
172.2039975462726
 20
123.1717645653473
 30
0.0
 10
172.1932370512415
 20
123.2058148293006
 30
0.0
 10
172.1893627421806
 20
123.2253898183293
 30
0.0
 10
172.1801898700535
 20
123.2812381270104
 30
0.0
 10
172.1781574993387
 20
123.3140158880393
 30
0.0
 10
172.1777565033489
 20
123.3442955478272
 30
0.0
  0
SPLINE
  5
1B4
330
1F
100
AcDbEntity
  8
0
  6
HIDDEN
 62
     7
370
     0
100
AcDbSpline
210
0.0
220
0.0
230
1.0
 70
     8
 71
     3
 72
     8
 73
     4
 74
     0
 42
0.00000001
 43
0.00000001
 12
1.0
 22
0.0
 32
0.0
 13
1.0
 23
0.0
 33
0.0
 40
0.0
 40
0.0
 40
0.0
 40
0.0
 40
1.0
 40
1.0
 40
1.0
 40
1.0
 10
172.5564361597893
 20
123.2491231675176
 30
0.0
 10
172.4913309981752
 20
123.237402137859
 30
0.0
 10
172.4334436686152
 20
123.2088979919963
 30
0.0
 10
172.3827165254092
 20
123.1631436906725
 30
0.0
  0
LINE
  5
1B5
330
1F
100
AcDbEntity
  8
0
  6
HIDDEN
 62
     7
370
     0
100
AcDbLine
 10
151.3777565033
 20
122.9215895454
 30
0.0
 11
151.3777565033
 21
119.0816700792
 31
0.0
  0
LINE
  5
1B6
330
1F
100
AcDbEntity
  8
0
  6
HIDDEN
 62
     7
370
     0
100
AcDbLine
 10
172.1777565033
 20
120.3980971518
 30
0.0
 11
172.1777565033
 21
119.3429542786
 31
0.0
  0
SPLINE
  5
1B7
330
1F
100
AcDbEntity
  8
0
  6
HIDDEN
 62
     7
370
     0
100
AcDbSpline
210
0.0
220
0.0
230
1.0
 70
     8
 71
     3
 72
    16
 73
    12
 74
     0
 42
0.00000001
 43
0.00000001
 12
1.0
 22
0.0
 32
0.0
 13
1.0
 23
0.0
 33
0.0
 40
0.0
 40
0.0
 40
0.0
 40
0.0
 40
0.2499999999999999
 40
0.2499999999999999
 40
0.3749999999999998
 40
0.3749999999999998
 40
0.4999999999999997
 40
0.4999999999999997
 40
0.7499999999999999
 40
0.7499999999999999
 40
1.0
 40
1.0
 40
1.0
 40
1.0
 10
172.1777565033487
 20
123.3442955478273
 30
0.0
 10
172.0972191714492
 20
123.2642268616748
 30
0.0
 10
172.0371818274218
 20
123.1403623701841
 30
0.0
 10
171.9764441202682
 20
122.8896815462512
 30
0.0
 10
171.9611217451553
 20
122.7952429419414
 30
0.0
 10
171.9405389358512
 20
122.583931874322
 30
0.0
 10
171.9353393388256
 20
122.4666424195679
 30
0.0
 10
171.9352856856458
 20
122.0886067478114
 30
0.0
 10
171.9554832291237
 20
121.7998295940663
 30
0.0
 10
172.0361613174824
 20
121.1499897309251
 30
0.0
 10
172.0972074820903
 20
120.7871607970312
 30
0.0
 10
172.1777565033489
 20
120.3980971517582
 30
0.0
  0
LINE
  5
1B8
330
1F
100
AcDbEntity
  8
0
  6
HIDDEN
 62
     7
370
     0
100
AcDbLine
 10
149.8777565033
 20
100.1994609417
 30
0.0
 11
149.8777565033
 21
96.7925541775
 31
0.0
  0
LINE
  5
1B9
330
1F
100
AcDbEntity
  8
0
  6
HIDDEN
 62
     7
370
     0
100
AcDbLine
 10
149.8777565033
 20
122.0555641416
 30
0.0
 11
149.8777565033
 21
118.6486573774
 31
0.0
  0
ARC
  5
1BA
330
1F
100
AcDbEntity
  8
0
  6
HIDDEN
 62
     7
370
     0
100
AcDbCircle
 10
216.0098076421
 20
123.5693098436
 30
0.0
 40
3.174226470561605
100
AcDbArc
 50
312.7938767535
 51
209.3140364659
  0
LINE
  5
1BB
330
1F
100
AcDbEntity
  8
0
  6
HIDDEN
 62
     7
370
     0
100
AcDbLine
 10
213.2420429149
 20
122.0152210104
 30
0.0
 11
212.0808343476
 21
113.8546906433
 31
0.0
  0
LINE
  5
1BC
330
1F
100
AcDbEntity
  8
0
  6
HIDDEN
 62
     7
370
     0
100
AcDbLine
 10
221.5593821465
 20
133.8302454287
 30
0.0
 11
217.5522714682
 21
131.4239166119
 31
0.0
  0
ELLIPSE
  5
1BD
330
1F
100
AcDbEntity
  8
0
  6
HIDDEN
 62
     7
370
     0
100
AcDbEllipse
 10
165.5621422127
 20
110.9240591595
 30
0.0
 11
237.858677971088
 21
-4.388194929981964
 31
0.0
210
0.0
220
0.0
230
1.0
 40
0.1034726254
 41
1.331183800417986
 42
1.335052635744569
  0
ARC
  5
1BE
330
1F
100
AcDbEntity
  8
0
  6
HIDDEN
 62
     7
370
     0
100
AcDbCircle
 10
208.9530224714
 20
145.7743560794
 30
0.0
 40
16.72968009910515
100
AcDbArc
 50
278.2817460491
 51
300.9314092647
  0
LINE
  5
1BF
330
1F
100
AcDbEntity
  8
0
  6
HIDDEN
 62
     7
370
     0
100
AcDbLine
 10
210.8255716822
 20
129.1493583549
 30
0.0
 11
209.9420865136
 21
129.0722583998
 31
0.0
  0
LINE
  5
1C0
330
1F
100
AcDbEntity
  8
0
  6
HIDDEN
 62
     7
370
     0
100
AcDbLine
 10
209.9420865136
 20
129.0722583998
 30
0.0
 11
209.3060275962
 21
117.0656873761
 31
0.0
  0
LINE
  5
1C1
330
1F
100
AcDbEntity
  8
0
  6
HIDDEN
 62
     7
370
     0
100
AcDbLine
 10
208.8689900714
 20
111.9259309814
 30
0.0
 11
212.0808343476
 21
113.8546906433
 31
0.0
  0
LINE
  5
1C2
330
1F
100
AcDbEntity
  8
0
  6
HIDDEN
 62
     7
370
     0
100
AcDbLine
 10
217.5857525513
 20
117.1604748781
 30
0.0
 11
221.7032897671
 21
119.6331164526
 31
0.0
  0
LINE
  5
1C3
330
1F
100
AcDbEntity
  8
0
  6
HIDDEN
 62
     7
370
     0
100
AcDbLine
 10
221.7032897671
 20
119.6331164526
 30
0.0
 11
222.4533336991
 21
133.791326474
 31
0.0
  0
LINE
  5
1C4
330
1F
100
AcDbEntity
  8
0
  6
HIDDEN
 62
     7
370
     0
100
AcDbLine
 10
212.0808343476
 20
113.8546906433
 30
0.0
 11
212.1391991322
 21
113.9511181418
 31
0.0
  0
LWPOLYLINE
  5
1C5
330
1F
100
AcDbEntity
  8
0
  6
HIDDEN
 62
     7
370
     0
100
AcDbPolyline
 90
       29
 70
   128
 43
0.0
 10
187.8777565033
 20
106.2166874861
 10
188.3450504647
 20
106.1678699726
 10
188.7889123555
 20
106.0238653459
 10
189.1870850873
 20
105.7918945994
 10
189.5196026165
 20
105.4835897149
 10
189.7697911259
 20
105.1144103866
 10
189.9251051189
 20
104.7028688078
 10
189.9777565033
 20
104.2696013915
 10
189.9251051189
 20
103.8363339753
 10
189.7697911259
 20
103.4247923964
 10
189.5196026165
 20
103.0556130682
 10
189.1870850873
 20
102.7473081837
 10
188.7889123555
 20
102.5153374372
 10
188.3450504647
 20
102.3713328105
 10
187.8777565033
 20
102.3225152969
 10
187.410462542
 20
102.3713328105
 10
186.9666006512
 20
102.5153374372
 10
186.5684279194
 20
102.7473081837
 10
186.2359103902
 20
103.0556130682
 10
185.9857218808
 20
103.4247923964
 10
185.8304078878
 20
103.8363339753
 10
185.7777565033
 20
104.2696013915
 10
185.8304078878
 20
104.7028688078
 10
185.9857218808
 20
105.1144103866
 10
186.2359103902
 20
105.4835897149
 10
186.5684279194
 20
105.7918945994
 10
186.9666006512
 20
106.0238653459
 10
187.410462542
 20
106.1678699726
 10
187.8777565033
 20
106.2166874861
  0
SPLINE
  5
1C6
330
1F
100
AcDbEntity
  8
0
  6
HIDDEN
 62
     7
370
     0
100
AcDbSpline
210
0.0
220
0.0
230
1.0
 70
     8
 71
     3
 72
    10
 73
     6
 74
     0
 42
0.00000001
 43
0.00000001
 12
1.0
 22
0.0
 32
0.0
 13
1.0
 23
0.0
 33
0.0
 40
0.0
 40
0.0
 40
0.0
 40
0.0
 40
0.5
 40
0.5
 40
1.0
 40
1.0
 40
1.0
 40
1.0
 10
217.2647874387596
 20
120.0190693785238
 30
0.0
 10
217.4009619647528
 20
120.155160528678
 30
0.0
 10
217.5193129334063
 20
120.2867502904629
 30
0.0
 10
217.7169488974702
 20
120.5241537383625
 30
0.0
 10
217.7977054935356
 20
120.6311476869473
 30
0.0
 10
217.8424104545255
 20
120.7050070798532
 30
0.0
  0
ARC
  5
1C7
330
1F
100
AcDbEntity
  8
0
  6
HIDDEN
 62
     7
370
     0
100
AcDbCircle
 10
215.4298092312
 20
122.6077300747
 30
0.0
 40
3.173059914700967
100
AcDbArc
 50
305.3310104976
 51
216.7769027218
  0
SPLINE
  5
1C8
330
1F
100
AcDbEntity
  8
0
  6
HIDDEN
 62
     7
370
     0
100
AcDbSpline
210
0.0
220
0.0
230
1.0
 70
     8
 71
     3
 72
    10
 73
     6
 74
     0
 42
0.00000001
 43
0.00000001
 12
1.0
 22
0.0
 32
0.0
 13
1.0
 23
0.0
 33
0.0
 40
0.0
 40
0.0
 40
0.0
 40
0.0
 40
0.5
 40
0.5
 40
1.0
 40
1.0
 40
1.0
 40
1.0
 10
212.9181940712871
 20
121.480173479796
 30
0.0
 10
212.8735415634122
 20
121.4064007474115
 30
0.0
 10
212.8551196300427
 20
121.2894753631144
 30
0.0
 10
212.8478449745798
 20
121.0220988690594
 30
0.0
 10
212.8599390522508
 20
120.8699837560274
 30
0.0
 10
212.8882745899243
 20
120.708016704414
 30
0.0
  0
LINE
  5
1C9
330
1F
100
AcDbEntity
  8
0
  6
HIDDEN
 62
     7
370
     0
100
AcDbLine
 10
212.9181940713
 20
121.4801734798
 30
0.0
 11
213.2420429149
 21
122.0152210104
 31
0.0
  0
SPLINE
  5
1CA
330
1F
100
AcDbEntity
  8
0
  6
HIDDEN
 62
     7
370
     0
100
AcDbSpline
210
0.0
220
0.0
230
1.0
 70
     8
 71
     3
 72
     8
 73
     4
 74
     0
 42
0.00000001
 43
0.00000001
 12
1.0
 22
0.0
 32
0.0
 13
1.0
 23
0.0
 33
0.0
 40
0.0
 40
0.0
 40
0.0
 40
0.0
 40
1.0
 40
1.0
 40
1.0
 40
1.0
 10
198.2889847046187
 20
127.0477931490538
 30
0.0
 10
197.6860839132079
 20
127.7161770046225
 30
0.0
 10
197.2352793639135
 20
128.3876274433138
 30
0.0
 10
197.076355341659
 20
129.0649628130566
 30
0.0
  0
ELLIPSE
  5
1CB
330
1F
100
AcDbEntity
  8
0
  6
HIDDEN
 62
     7
370
     0
100
AcDbEllipse
 10
183.079935764
 20
110.9240591595
 30
0.0
 11
40.2959792788939
 21
24.92197537396953
 31
0.0
210
0.0
220
0.0
230
1.0
 40
0.0489778835
 41
5.674493101149785
 42
5.950026454853758
  0
SPLINE
  5
1CC
330
1F
100
AcDbEntity
  8
0
  6
HIDDEN
 62
     7
370
     0
100
AcDbSpline
210
0.0
220
0.0
230
1.0
 70
     8
 71
     3
 72
     8
 73
     4
 74
     0
 42
0.00000001
 43
0.00000001
 12
1.0
 22
0.0
 32
0.0
 13
1.0
 23
0.0
 33
0.0
 40
0.0
 40
0.0
 40
0.0
 40
0.0
 40
1.0
 40
1.0
 40
1.0
 40
1.0
 10
198.2095774806857
 20
123.6814099816855
 30
0.0
 10
198.2363937776148
 20
124.8751981536027
 30
0.0
 10
198.2628570593137
 20
125.9966695127001
 30
0.0
 10
198.2889847046187
 20
127.0477931490538
 30
0.0
  0
SPLINE
  5
1CD
330
1F
100
AcDbEntity
  8
0
  6
HIDDEN
 62
     7
370
     0
100
AcDbSpline
210
0.0
220
0.0
230
1.0
 70
     8
 71
     3
 72
    18
 73
    14
 74
     0
 42
0.00000001
 43
0.00000001
 12
1.0
 22
0.0
 32
0.0
 13
1.0
 23
0.0
 33
0.0
 40
0.0
 40
0.0
 40
0.0
 40
0.0
 40
0.2500000000000002
 40
0.2500000000000002
 40
0.375
 40
0.375
 40
0.4999999999999999
 40
0.4999999999999999
 40
0.7499999999999998
 40
0.7499999999999998
 40
0.8749999999999999
 40
0.8749999999999999
 40
1.0
 40
1.0
 40
1.0
 40
1.0
 10
216.8365641714063
 20
130.2414593350119
 30
0.0
 10
216.2364093892719
 20
129.8093244088647
 30
0.0
 10
215.5864062126154
 20
129.3944860768861
 30
0.0
 10
214.5277925115186
 20
128.8206995851444
 30
0.0
 10
214.1609413441517
 20
128.6375356848808
 30
0.0
 10
213.3969435820733
 20
128.291727062697
 30
0.0
 10
213.0009122121283
 20
128.1298438210494
 30
0.0
 10
211.7935491277562
 20
127.6916588651685
 30
0.0
 10
210.9547865620487
 20
127.4584543772168
 30
0.0
 10
209.6414605886093
 20
127.2160437893309
 30
0.0
 10
209.192354166933
 20
127.153177663889
 30
0.0
 10
208.2924130408306
 20
127.0692899362524
 30
0.0
 10
207.8400039393366
 20
127.0477931490538
 30
0.0
 10
207.3850529155381
 20
127.0477931490538
 30
0.0
  0
LINE
  5
1CE
330
1F
100
AcDbEntity
  8
0
  6
HIDDEN
 62
     7
370
     0
100
AcDbLine
 10
207.3850529155
 20
127.0477931491
 30
0.0
 11
198.2889847046
 21
127.0477931491
 31
0.0
  0
ELLIPSE
  5
1CF
330
1F
100
AcDbEntity
  8
0
  6
HIDDEN
 62
     7
370
     0
100
AcDbEllipse
 10
221.8026312276
 20
110.9240591595
 30
0.0
 11
1.769311953565563
 21
24.99944806401932
 31
0.0
210
0.0
220
0.0
230
1.0
 40
0.0938906935
 41
0.4226993156541148
 42
1.041914598433925
  0
LWPOLYLINE
  5
1D0
330
1F
100
AcDbEntity
  8
0
  6
HIDDEN
 62
     7
370
     0
100
AcDbPolyline
 90
       16
 70
   128
 43
0.0
 10
211.5365018847
 20
115.6933940724
 10
211.6195663955
 20
116.053880325
 10
211.806606531
 20
116.3816723529
 10
212.0894477399
 20
116.6624440716
 10
212.4557285041
 20
116.8839244096
 10
212.8894405965
 20
117.0364336134
 10
213.3716287176
 20
117.1133062989
 10
213.8812189326
 20
117.111182761
 10
214.395939704
 20
117.0301558085
 10
214.893295264
 20
116.8737667079
 10
215.3515487881
 20
116.6488504134
 10
215.7506723984
 20
116.3652368463
 10
216.0732224779
 20
116.0353212806
 10
216.3051020404
 20
115.6735226093
 10
216.4361768362
 20
115.2956531708
 10
216.4607182679
 20
114.9182276725
  0
ELLIPSE
  5
1D1
330
1F
100
AcDbEntity
  8
0
  6
HIDDEN
 62
     7
370
     0
100
AcDbEllipse
 10
214.8852245736
 20
119.0191144324
 30
0.0
 11
0.31248247745404
 21
2.947022789647619
 31
0.0
210
0.0
220
0.0
230
1.0
 40
0.8407155321
 41
5.146056947021451
 42
7.335381317564584
  0
LINE
  5
1D2
330
1F
100
AcDbEntity
  8
0
  6
HIDDEN
 62
     7
370
     0
100
AcDbLine
 10
149.8777565033
 20
107.5738453459
 30
0.0
 11
149.8777565033
 21
100.1994609417
 31
0.0
  0
LINE
  5
1D3
330
1F
100
AcDbEntity
  8
0
  6
HIDDEN
 62
     7
370
     0
100
AcDbLine
 10
149.8777565033
 20
118.6486573774
 30
0.0
 11
149.8777565033
 21
111.2742729732
 31
0.0
  0
SPLINE
  5
1D4
330
1F
100
AcDbEntity
  8
0
  6
HIDDEN
 62
     7
370
     0
100
AcDbSpline
210
0.0
220
0.0
230
1.0
 70
     8
 71
     3
 72
    24
 73
    20
 74
     0
 42
0.00000001
 43
0.00000001
 12
1.0
 22
0.0
 32
0.0
 13
1.0
 23
0.0
 33
0.0
 40
0.0
 40
0.0
 40
0.0
 40
0.0
 40
0.2500000000000039
 40
0.2500000000000039
 40
0.3750000000000073
 40
0.3750000000000073
 40
0.437500000000009
 40
0.437500000000009
 40
0.5000000000000107
 40
0.5000000000000107
 40
0.5312500000000102
 40
0.5312500000000102
 40
0.5625000000000099
 40
0.5625000000000099
 40
0.6250000000000107
 40
0.6250000000000107
 40
0.7500000000000083
 40
0.7500000000000083
 40
1.0
 40
1.0
 40
1.0
 40
1.0
 10
172.3827165254093
 20
98.63146543271421
 30
0.0
 10
172.3669476480518
 20
98.55760674078458
 30
0.0
 10
172.3503336662018
 20
98.48389535204876
 30
0.0
 10
172.3218020001967
 20
98.37234852842663
 30
0.0
 10
172.311714585378
 20
98.33497695529813
 30
0.0
 10
172.2942270249236
 20
98.2780774576604
 30
0.0
 10
172.2880174631404
 20
98.2589743575151
 30
0.0
 10
172.2737399094877
 20
98.22010084327952
 30
0.0
 10
172.2661683616923
 20
98.20017618384612
 30
0.0
 10
172.2487507780139
 20
98.17010396581871
 30
0.0
 10
172.2402682813688
 20
98.15842258701562
 30
0.0
 10
172.2242299694971
 20
98.15116107626733
 30
0.0
 10
172.2194094212936
 20
98.15473932327716
 30
0.0
 10
172.2080001967457
 20
98.16650017850888
 30
0.0
 10
172.2039797162882
 20
98.17816582855941
 30
0.0
 10
172.193225861468
 20
98.21470115867301
 30
0.0
 10
172.1893531801858
 20
98.24209689199655
 30
0.0
 10
172.1801850303482
 20
98.32682288375247
 30
0.0
 10
172.1781565249791
 20
98.38765500592453
 30
0.0
 10
172.1777565033489
 20
98.45002116726609
 30
0.0
  0
SPLINE
  5
1D5
330
1F
100
AcDbEntity
  8
0
  6
HIDDEN
 62
     7
370
     0
100
AcDbSpline
210
0.0
220
0.0
230
1.0
 70
     8
 71
     3
 72
    24
 73
    20
 74
     0
 42
0.00000001
 43
0.00000001
 12
1.0
 22
0.0
 32
0.0
 13
1.0
 23
0.0
 33
0.0
 40
0.0
 40
0.0
 40
0.0
 40
0.0
 40
0.2499999999999976
 40
0.2499999999999976
 40
0.3749999999999932
 40
0.3749999999999932
 40
0.437499999999993
 40
0.437499999999993
 40
0.468749999999993
 40
0.468749999999993
 40
0.4999999999999929
 40
0.4999999999999929
 40
0.5624999999999939
 40
0.5624999999999939
 40
0.6249999999999948
 40
0.6249999999999948
 40
0.7499999999999977
 40
0.7499999999999977
 40
1.0
 40
1.0
 40
1.0
 40
1.0
 10
172.1777565033452
 20
120.398097151761
 30
0.0
 10
172.1781611729209
 20
120.4611879602545
 30
0.0
 10
172.180204619735
 20
120.5223736827579
 30
0.0
 10
172.1896041849889
 20
120.607873415261
 30
0.0
 10
172.1935550785176
 20
120.6354537987026
 30
0.0
 10
172.2047073868139
 20
120.6719078808153
 30
0.0
 10
172.2089289277403
 20
120.6837663025099
 30
0.0
 10
172.2211366493025
 20
120.6943863538875
 30
0.0
 10
172.2269274195527
 20
120.6972197211118
 30
0.0
 10
172.2438489326624
 20
120.6859051341194
 30
0.0
 10
172.2512550486138
 20
120.6741242483651
 30
0.0
 10
172.2677123018584
 20
120.6440834071349
 30
0.0
 10
172.2751688197696
 20
120.6243704535215
 30
0.0
 10
172.2890767490447
 20
120.5859683874609
 30
0.0
 10
172.2951686949398
 20
120.5670867375491
 30
0.0
 10
172.3123629872912
 20
120.5107858270169
 30
0.0
 10
172.322347937495
 20
120.4737097492068
 30
0.0
 10
172.3505939825943
 20
120.3630510783155
 30
0.0
 10
172.3670735195556
 20
120.2899220179062
 30
0.0
 10
172.3827165254155
 20
120.2166528862814
 30
0.0
  0
SPLINE
  5
1D6
330
1F
100
AcDbEntity
  8
0
  6
HIDDEN
 62
     7
370
     0
100
AcDbSpline
210
0.0
220
0.0
230
1.0
 70
     8
 71
     3
 72
     8
 73
     4
 74
     0
 42
0.00000001
 43
0.00000001
 12
1.0
 22
0.0
 32
0.0
 13
1.0
 23
0.0
 33
0.0
 40
0.0
 40
0.0
 40
0.0
 40
0.0
 40
1.0
 40
1.0
 40
1.0
 40
1.0
 10
172.5564361597893
 20
99.3705398419057
 30
0.0
 10
172.4913309981752
 20
99.11551460670002
 30
0.0
 10
172.4334436686152
 20
98.86906259055876
 30
0.0
 10
172.3827165254092
 20
98.63146543271418
 30
0.0
  0
SPLINE
  5
1D7
330
1F
100
AcDbEntity
  8
0
  6
HIDDEN
 62
     7
370
     0
100
AcDbSpline
210
0.0
220
0.0
230
1.0
 70
     8
 71
     3
 72
     8
 73
     4
 74
     0
 42
0.00000001
 43
0.00000001
 12
1.0
 22
0.0
 32
0.0
 13
1.0
 23
0.0
 33
0.0
 40
0.0
 40
0.0
 40
0.0
 40
0.0
 40
1.0
 40
1.0
 40
1.0
 40
1.0
 10
172.3827165254154
 20
120.2166528862815
 30
0.0
 10
172.4334436686199
 20
119.9790557284459
 30
0.0
 10
172.4913309981779
 20
119.7326037123144
 30
0.0
 10
172.5564361597893
 20
119.4775784771192
 30
0.0
  0
LINE
  5
1D8
330
1F
100
AcDbEntity
  8
0
  6
HIDDEN
 62
     7
370
     0
100
AcDbLine
 10
151.3777565033
 20
119.0816700792
 30
0.0
 11
151.3777565033
 21
111.9790873966
 31
0.0
  0
LINE
  5
1D9
330
1F
100
AcDbEntity
  8
0
  6
HIDDEN
 62
     7
370
     0
100
AcDbLine
 10
151.3777565033
 20
106.8690309225
 30
0.0
 11
151.3777565033
 21
99.7664482398
 31
0.0
  0
LINE
  5
1DA
330
1F
100
AcDbEntity
  8
0
  6
HIDDEN
 62
     7
370
     0
100
AcDbLine
 10
172.1777565033
 20
119.3429542786
 30
0.0
 11
172.1777565033
 21
99.5051640404
 31
0.0
  0
LINE
  5
1DB
330
1F
100
AcDbEntity
  8
0
  6
HIDDEN
 62
     7
370
     0
100
AcDbLine
 10
211.5365018847
 20
115.6933940724
 30
0.0
 11
211.1617975817
 21
110.9687843515
 31
0.0
  0
LINE
  5
1DC
330
1F
100
AcDbEntity
  8
0
  6
HIDDEN
 62
     7
370
     0
100
AcDbLine
 10
173.6777565033
 20
117.9034262992
 30
0.0
 11
173.6777565033
 21
100.9446920198
 31
0.0
  0
SPLINE
  5
1DD
330
1F
100
AcDbEntity
  8
0
  6
HIDDEN
 62
     7
370
     0
100
AcDbSpline
210
0.0
220
0.0
230
1.0
 70
     8
 71
     3
 72
     8
 73
     4
 74
     0
 42
0.00000001
 43
0.00000001
 12
1.0
 22
0.0
 32
0.0
 13
1.0
 23
0.0
 33
0.0
 40
0.0000137051794235
 40
0.0000137051794235
 40
0.0000137051794235
 40
0.0000137051794235
 40
0.0027147144718018
 40
0.0027147144718018
 40
0.0027147144718018
 40
0.0027147144718018
 10
151.3777565033489
 20
106.8690309224507
 30
0.0
 10
152.2777526388436
 20
106.8560593552523
 30
0.0
 10
153.177752817439
 20
106.8434244979403
 30
0.0
 10
154.0777565033488
 20
106.8311144796845
 30
0.0
  0
SPLINE
  5
1DE
330
1F
100
AcDbEntity
  8
0
  6
HIDDEN
 62
     7
370
     0
100
AcDbSpline
210
0.0
220
0.0
230
1.0
 70
     8
 71
     3
 72
     8
 73
     4
 74
     0
 42
0.00000001
 43
0.00000001
 12
1.0
 22
0.0
 32
0.0
 13
1.0
 23
0.0
 33
0.0
 40
0.0000137050638848
 40
0.0000137050638848
 40
0.0000137050638848
 40
0.0000137050638848
 40
0.0027147143562632
 40
0.0027147143562632
 40
0.0027147143562632
 40
0.0027147143562632
 10
154.0777565033489
 20
112.0170038393404
 30
0.0
 10
153.177752817439
 20
112.0046938210846
 30
0.0
 10
152.2777526388436
 20
111.9920589637726
 30
0.0
 10
151.3777565033488
 20
111.9790873965742
 30
0.0
  0
SPLINE
  5
1DF
330
1F
100
AcDbEntity
  8
0
  6
HIDDEN
 62
     7
370
     0
100
AcDbSpline
210
0.0
220
0.0
230
1.0
 70
     8
 71
     3
 72
    10
 73
     6
 74
     0
 42
0.00000001
 43
0.00000001
 12
1.0
 22
0.0
 32
0.0
 13
1.0
 23
0.0
 33
0.0
 40
0.0
 40
0.0
 40
0.0
 40
0.0
 40
0.5
 40
0.5
 40
1.0
 40
1.0
 40
1.0
 40
1.0
 10
151.3777565033488
 20
111.9790873965742
 30
0.0
 10
151.1175393808108
 20
111.8928993098711
 30
0.0
 10
150.8615048115606
 20
111.7934536937484
 30
0.0
 10
150.3602412228279
 20
111.561796817111
 30
0.0
 10
150.1148984640646
 20
111.4298877876919
 30
0.0
 10
149.8777565033488
 20
111.2742729731631
 30
0.0
  0
SPLINE
  5
1E0
330
1F
100
AcDbEntity
  8
0
  6
HIDDEN
 62
     7
370
     0
100
AcDbSpline
210
0.0
220
0.0
230
1.0
 70
     8
 71
     3
 72
    10
 73
     6
 74
     0
 42
0.00000001
 43
0.00000001
 12
1.0
 22
0.0
 32
0.0
 13
1.0
 23
0.0
 33
0.0
 40
0.0
 40
0.0
 40
0.0
 40
0.0
 40
0.5
 40
0.5
 40
1.0
 40
1.0
 40
1.0
 40
1.0
 10
149.8777565033488
 20
107.5738453458618
 30
0.0
 10
150.1148984640646
 20
107.418230531333
 30
0.0
 10
150.3602412228279
 20
107.2863215019139
 30
0.0
 10
150.8615048115606
 20
107.0546646252765
 30
0.0
 10
151.1175393808108
 20
106.9552190091538
 30
0.0
 10
151.3777565033488
 20
106.8690309224507
 30
0.0
  0
LINE
  5
1E1
330
1F
100
AcDbEntity
  8
0
  6
HIDDEN
 62
     7
370
     0
100
AcDbLine
 10
149.8777565033
 20
107.5738453459
 30
0.0
 11
149.8777565033
 21
111.2742729732
 31
0.0
  0
LINE
  5
1E2
330
1F
100
AcDbEntity
  8
0
  6
HIDDEN
 62
     7
370
     0
100
AcDbLine
 10
154.0777565033
 20
106.8311144797
 30
0.0
 11
154.0777565033
 21
112.0170038393
 31
0.0
  0
SPLINE
  5
1E3
330
1F
100
AcDbEntity
  8
0
  6
HIDDEN
 62
     7
370
     0
100
AcDbSpline
210
0.0
220
0.0
230
1.0
 70
     8
 71
     3
 72
    22
 73
    18
 74
     0
 42
0.00000001
 43
0.00000001
 12
1.0
 22
0.0
 32
0.0
 13
1.0
 23
0.0
 33
0.0
 40
0.0
 40
0.0
 40
0.0
 40
0.0
 40
0.1250000000000001
 40
0.1250000000000001
 40
0.2500000000000001
 40
0.2500000000000001
 40
0.3750000000000001
 40
0.3750000000000001
 40
0.5000000000000001
 40
0.5000000000000001
 40
0.6250000000000001
 40
0.6250000000000001
 40
0.75
 40
0.75
 40
0.875
 40
0.875
 40
1.0
 40
1.0
 40
1.0
 40
1.0
 10
154.0777565033489
 20
106.8311144796845
 30
0.0
 10
154.258692861425
 20
107.022734338991
 30
0.0
 10
154.4377883102019
 20
107.2163762033782
 30
0.0
 10
154.7886282987139
 20
107.6110314567624
 30
0.0
 10
154.9608214066186
 20
107.81204298743
 30
0.0
 10
155.2865529122378
 20
108.2282541026637
 30
0.0
 10
155.4426291474062
 20
108.4442699429505
 30
0.0
 10
155.6940083612953
 20
108.9095927061152
 30
0.0
 10
155.7878734916141
 20
109.1651318991381
 30
0.0
 10
155.784145574752
 20
109.6994625342387
 30
0.0
 10
155.6867729322645
 20
109.9548834002394
 30
0.0
 10
155.4349521232706
 20
110.4149121161871
 30
0.0
 10
155.2799828677981
 20
110.6287491171157
 30
0.0
 10
154.9551701100728
 20
111.0427876998094
 30
0.0
 10
154.7842770459449
 20
111.2420801718452
 30
0.0
 10
154.4356428064173
 20
111.6340550642794
 30
0.0
 10
154.2576349558888
 20
111.8265043502688
 30
0.0
 10
154.0777565033489
 20
112.0170038393404
 30
0.0
  0
LWPOLYLINE
  5
1E4
330
1F
100
AcDbEntity
  8
0
  6
HIDDEN
 62
     7
370
     0
100
AcDbPolyline
 90
       32
 70
   128
 43
0.0
 10
187.8777565033
 20
106.4975264881
 10
188.3810028036
 20
106.4500777182
 10
188.8636461411
 20
106.3096739666
 10
189.3059270411
 20
106.0820633795
 10
189.6897384714
 20
105.7765643609
 10
189.9993671471
 20
105.4056840767
 10
190.2221368337
 20
104.9846064093
 10
190.3489273142
 20
104.5305703278
 10
190.3745477713
 20
104.0621641227
 10
190.2979493005
 20
103.5985643991
 10
190.1222678523
 20
103.1587509843
 10
189.8546958457
 20
102.7607298909
 10
189.5061877102
 20
102.4207961495
 10
189.0910114097
 20
102.1528666872
 10
188.6261643108
 20
101.9679105678
 10
188.1306773083
 20
101.8734999166
 10
187.6248356984
 20
101.8734999166
 10
187.1293486959
 20
101.9679105678
 10
186.664501597
 20
102.1528666872
 10
186.2493252965
 20
102.4207961495
 10
185.900817161
 20
102.7607298909
 10
185.6332451544
 20
103.1587509843
 10
185.4575637062
 20
103.5985643991
 10
185.3809652354
 20
104.0621641227
 10
185.4065856925
 20
104.5305703278
 10
185.533376173
 20
104.9846064093
 10
185.7561458596
 20
105.4056840767
 10
186.0657745353
 20
105.7765643609
 10
186.4495859656
 20
106.0820633795
 10
186.8918668656
 20
106.3096739666
 10
187.3745102031
 20
106.4500777182
 10
187.8777565033
 20
106.4975264881
  0
SPLINE
  5
1E5
330
1F
100
AcDbEntity
  8
0
  6
HIDDEN
 62
     7
370
     0
100
AcDbSpline
210
0.0
220
0.0
230
1.0
 70
     8
 71
     3
 72
    62
 73
    58
 74
     0
 42
0.00000001
 43
0.00000001
 12
1.0
 22
0.0
 32
0.0
 13
1.0
 23
0.0
 33
0.0
 40
-0.0312499999999998
 40
-0.0312499999999998
 40
0.0
 40
0.0
 40
0.0312500000000001
 40
0.0312500000000001
 40
0.0625000000000001
 40
0.0625000000000001
 40
0.0937500000000002
 40
0.0937500000000002
 40
0.1250000000000002
 40
0.1250000000000002
 40
0.1875000000000007
 40
0.1875000000000007
 40
0.2500000000000012
 40
0.2500000000000012
 40
0.2812500000000014
 40
0.2812500000000014
 40
0.3125000000000016
 40
0.3125000000000016
 40
0.3437500000000018
 40
0.3437500000000018
 40
0.375000000000002
 40
0.375000000000002
 40
0.4375000000000023
 40
0.4375000000000023
 40
0.4687500000000024
 40
0.4687500000000024
 40
0.5000000000000024
 40
0.5000000000000024
 40
0.5625000000000023
 40
0.5625000000000023
 40
0.5937500000000022
 40
0.5937500000000022
 40
0.625000000000002
 40
0.625000000000002
 40
0.6562500000000019
 40
0.6562500000000019
 40
0.6875000000000017
 40
0.6875000000000017
 40
0.7187500000000016
 40
0.7187500000000016
 40
0.7500000000000013
 40
0.7500000000000013
 40
0.7812500000000012
 40
0.7812500000000012
 40
0.8125000000000011
 40
0.8125000000000011
 40
0.8437500000000009
 40
0.8437500000000009
 40
0.8750000000000008
 40
0.8750000000000008
 40
0.9062500000000006
 40
0.9062500000000006
 40
0.9375000000000004
 40
0.9375000000000004
 40
0.9687500000000002
 40
0.9687500000000002
 40
1.0
 40
1.0
 40
1.03125
 40
1.03125
 10
160.3315286312771
 20
110.9120381981688
 30
0.0
 10
160.5590289778654
 20
111.1613847400294
 30
0.0
 10
160.6834915067828
 20
111.2729824174863
 30
0.0
 10
160.9525857729346
 20
111.4716332133047
 30
0.0
 10
161.0983988645239
 20
111.5589734580935
 30
0.0
 10
161.3995657428133
 20
111.7031692107357
 30
0.0
 10
161.5559014698777
 20
111.7609888812499
 30
0.0
 10
161.8800247692121
 20
111.8482424933009
 30
0.0
 10
162.0466899809226
 20
111.8770445427827
 30
0.0
 10
162.5447062475545
 20
111.9178238480506
 30
0.0
 10
162.8853771963475
 20
111.8843805879094
 30
0.0
 10
163.524388111769
 20
111.7019279434506
 30
0.0
 10
163.8308427188328
 20
111.5505033831378
 30
0.0
 10
164.2273986280952
 20
111.2500054775534
 30
0.0
 10
164.3517478189447
 20
111.1357442923581
 30
0.0
 10
164.5742119129939
 20
110.8860844217855
 30
0.0
 10
164.6717772514711
 20
110.7519178137864
 30
0.0
 10
164.8390328551099
 20
110.4644487192877
 30
0.0
 10
164.909118510629
 20
110.3091818693878
 30
0.0
 10
165.0131738713506
 20
109.9922024493008
 30
0.0
 10
165.048149634018
 20
109.8295496977964
 30
0.0
 10
165.100014153542
 20
109.3286126775938
 30
0.0
 10
165.0607080457706
 20
108.9884580762835
 30
0.0
 10
164.8979882533098
 20
108.5119634441863
 30
0.0
 10
164.8277077554235
 20
108.3608960843589
 30
0.0
 10
164.6563746102935
 20
108.073601513918
 30
0.0
 10
164.5549823691118
 20
107.9377437356206
 30
0.0
 10
164.2183827818886
 20
107.5689353406224
 30
0.0
 10
163.9431500157239
 20
107.3665102312913
 30
0.0
 10
163.493366788378
 20
107.1494335046826
 30
0.0
 10
163.3345669898744
 20
107.0901312326084
 30
0.0
 10
163.0120052689947
 20
107.0021587148078
 30
0.0
 10
162.8481461570275
 20
106.9730389509616
 30
0.0
 10
162.5153133836736
 20
106.9441823358514
 30
0.0
 10
162.3452610922327
 20
106.9448058590654
 30
0.0
 10
162.0129854282131
 20
106.9760623028697
 30
0.0
 10
161.8492708164643
 20
107.0063809979216
 30
0.0
 10
161.5268053308899
 20
107.0970980369246
 30
0.0
 10
161.3682942323635
 20
107.1578669456264
 30
0.0
 10
161.0697405261656
 20
107.3053776204234
 30
0.0
 10
160.9279143969635
 20
107.3925126482873
 30
0.0
 10
160.6599926584052
 20
107.5950981148593
 30
0.0
 10
160.5358992280127
 20
107.7094362815015
 30
0.0
 10
160.3147650400945
 20
107.9576227194542
 30
0.0
 10
160.2163080379958
 20
108.0926553363081
 30
0.0
 10
160.0469495242608
 20
108.3846597343628
 30
0.0
 10
159.9787826865549
 20
108.5367954807983
 30
0.0
 10
159.8750487202285
 20
108.8532044292384
 30
0.0
 10
159.8393801583593
 20
109.0197008985926
 30
0.0
 10
159.8051663937068
 20
109.3529627747031
 30
0.0
 10
159.8060247965359
 20
109.519625228525
 30
0.0
 10
159.8438215764855
 20
109.8530134277426
 30
0.0
 10
159.8811643319395
 20
110.0187690002221
 30
0.0
 10
159.9884139150079
 20
110.3346603166847
 30
0.0
 10
160.0591751315471
 20
110.4879396497569
 30
0.0
 10
160.2312982816478
 20
110.7773166922434
 30
0.0
 10
160.3315286312771
 20
110.9120381981688
 30
0.0
 10
160.5590289778654
 20
111.1613847400294
 30
0.0
  0
CIRCLE
  5
1E6
330
1F
100
AcDbEntity
  8
0
  6
HIDDEN
 62
     7
370
     0
100
AcDbCircle
 10
162.3777565033
 20
109.4240591595
 30
0.0
 40
2.299999999999997
  0
CIRCLE
  5
1E7
330
1F
100
AcDbEntity
  8
0
  6
HIDDEN
 62
     7
370
     0
100
AcDbCircle
 10
185.8777565033
 20
109.4240591595
 30
0.0
 40
2.0
  0
LINE
  5
1E8
330
1F
100
AcDbEntity
  8
0
  6
HIDDEN
 62
     7
370
     0
100
AcDbLine
 10
220.6688499143
 20
123.6814099817
 30
0.0
 11
198.2095774807
 21
123.6814099817
 31
0.0
  0
SPLINE
  5
1E9
330
1F
100
AcDbEntity
  8
0
  6
HIDDEN
 62
     7
370
     0
100
AcDbSpline
210
0.0
220
0.0
230
1.0
 70
     8
 71
     3
 72
     8
 73
     4
 74
     0
 42
0.00000001
 43
0.00000001
 12
1.0
 22
0.0
 32
0.0
 13
1.0
 23
0.0
 33
0.0
 40
0.0
 40
0.0
 40
0.0
 40
0.0
 40
1.0
 40
1.0
 40
1.0
 40
1.0
 10
198.2095774806857
 20
123.6814099816855
 30
0.0
 10
197.6470746190734
 20
120.004700148847
 30
0.0
 10
197.2283712907048
 20
116.3089479582581
 30
0.0
 10
197.076355341659
 20
112.5778802393776
 30
0.0
  0
LINE
  5
1EA
330
1F
100
AcDbEntity
  8
0
  6
HIDDEN
 62
     7
370
     0
100
AcDbLine
 10
220.6688499143
 20
123.6814099817
 30
0.0
 11
219.668738994
 21
109.4240591595
 31
0.0
  0
LINE
  5
1EB
330
1F
100
AcDbEntity
  8
0
  6
HIDDEN
 62
     7
370
     0
100
AcDbLine
 10
173.8777565033
 20
93.6240591595
 30
0.0
 11
173.9706497222
 21
93.7169523783
 31
0.0
  0
LINE
  5
1EC
330
1F
100
AcDbEntity
  8
0
  6
HIDDEN
 62
     7
370
     0
100
AcDbLine
 10
173.9706497222
 20
125.1311659407
 30
0.0
 11
173.8777565033
 21
125.2240591595
 31
0.0
  0
ARC
  5
1ED
330
1F
100
AcDbEntity
  8
0
  6
HIDDEN
 62
     7
370
     0
100
AcDbCircle
 10
173.263542941
 20
94.4240591595
 30
0.0
 40
1.000000000000018
100
AcDbArc
 50
315.0
 51
0.0
  0
ARC
  5
1EE
330
1F
100
AcDbEntity
  8
0
  6
HIDDEN
 62
     7
370
     0
100
AcDbCircle
 10
173.263542941
 20
94.4240591595
 30
0.0
 40
1.0
100
AcDbArc
 50
0.0
 51
52.1052014664
  0
ARC
  5
1EF
330
1F
100
AcDbEntity
  8
0
  6
HIDDEN
 62
     7
370
     0
100
AcDbCircle
 10
173.263542941
 20
124.4240591595
 30
0.0
 40
1.000000000000034
100
AcDbArc
 50
351.8087250651
 51
45.0
  0
ARC
  5
1F0
330
1F
100
AcDbEntity
  8
0
  6
HIDDEN
 62
     7
370
     0
100
AcDbCircle
 10
173.263542941
 20
124.4240591595
 30
0.0
 40
1.000000000000034
100
AcDbArc
 50
307.8947985336
 51
351.8087250651
  0
LINE
  5
1F1
330
1F
100
AcDbEntity
  8
0
  6
HIDDEN
 62
     7
370
     0
100
AcDbLine
 10
174.263542941
 20
94.4240591595
 30
0.0
 11
174.263542941
 21
124.4240591595
 31
0.0
  0
LINE
  5
1F2
330
1F
100
AcDbEntity
  8
0
  6
HIDDEN
 62
     7
370
     0
100
AcDbLine
 10
174.263542941
 20
94.4240591595
 30
0.0
 11
174.263542941
 21
124.4240591595
 31
0.0
  0
LINE
  5
1F3
330
1F
100
AcDbEntity
  8
0
  6
HIDDEN
 62
     7
370
     0
100
AcDbLine
 10
189.9777565033
 20
111.7652602519
 30
0.0
 11
189.9777565033
 21
113.8234370529
 31
0.0
  0
LINE
  5
1F4
330
1F
100
AcDbEntity
  8
0
  6
HIDDEN
 62
     7
370
     0
100
AcDbLine
 10
185.7777565033
 20
115.0431580608
 30
0.0
 11
185.7777565033
 21
111.7653142084
 31
0.0
  0
LINE
  5
1F5
330
1F
100
AcDbEntity
  8
0
  6
HIDDEN
 62
     7
370
     0
100
AcDbLine
 10
194.6189169387
 20
121.2209373661
 30
0.0
 11
187.2731493282
 21
116.5979345942
 31
0.0
  0
LINE
  5
1F6
330
1F
100
AcDbEntity
  8
0
  6
HIDDEN
 62
     7
370
     0
100
AcDbLine
 10
189.5698046205
 20
113.0807867886
 30
0.0
 11
194.6713298138
 21
116.2913927266
 31
0.0
  0
LINE
  5
1F7
330
1F
100
AcDbEntity
  8
0
  6
HIDDEN
 62
     7
370
     0
100
AcDbLine
 10
149.8777565033
 20
99.2684086352
 30
0.0
 11
150.9047885354
 21
99.8613658554
 31
0.0
  0
LINE
  5
1F8
330
1F
100
AcDbEntity
  8
0
  6
HIDDEN
 62
     7
370
     0
100
AcDbLine
 10
150.9047885354
 20
118.9867524636
 30
0.0
 11
149.8777565033
 21
119.5797096838
 31
0.0
  0
LINE
  5
1F9
330
1F
100
AcDbEntity
  8
0
  6
HIDDEN
 62
     7
370
     0
100
AcDbLine
 10
155.3777565033
 20
99.4240591595
 30
0.0
 11
156.390574973
 21
99.4240591595
 31
0.0
  0
LINE
  5
1FA
330
1F
100
AcDbEntity
  8
0
  6
HIDDEN
 62
     7
370
     0
100
AcDbLine
 10
156.390574973
 20
119.4240591595
 30
0.0
 11
155.3777565033
 21
119.4240591595
 31
0.0
  0
ARC
  5
1FB
330
1F
100
AcDbEntity
  8
0
  6
HIDDEN
 62
     7
370
     0
100
AcDbCircle
 10
155.3777565033
 20
100.4240591595
 30
0.0
 40
1.0
100
AcDbArc
 50
193.3524261238
 51
270.0
  0
ARC
  5
1FC
330
1F
100
AcDbEntity
  8
0
  6
HIDDEN
 62
     7
370
     0
100
AcDbCircle
 10
155.3777565033
 20
118.4240591595
 30
0.0
 40
1.0
100
AcDbArc
 50
90.0
 51
166.6475738762
  0
ARC
  5
1FD
330
1F
100
AcDbEntity
  8
0
  6
HIDDEN
 62
     7
370
     0
100
AcDbCircle
 10
156.390574973
 20
100.4240591595
 30
0.0
 40
1.0
100
AcDbArc
 50
270.0
 51
315.0
  0
ARC
  5
1FE
330
1F
100
AcDbEntity
  8
0
  6
HIDDEN
 62
     7
370
     0
100
AcDbCircle
 10
156.390574973
 20
118.4240591595
 30
0.0
 40
0.9999999999999858
100
AcDbArc
 50
45.0
 51
90.0
  0
LINE
  5
1FF
330
1F
100
AcDbEntity
  8
0
  6
HIDDEN
 62
     7
370
     0
100
AcDbLine
 10
157.0976817542
 20
99.7169523783
 30
0.0
 11
157.8047885354
 21
100.4240591595
 31
0.0
  0
LINE
  5
200
330
1F
100
AcDbEntity
  8
0
  6
HIDDEN
 62
     7
370
     0
100
AcDbLine
 10
157.8047885354
 20
118.4240591595
 30
0.0
 11
157.0976817542
 21
119.1311659407
 31
0.0
  0
LINE
  5
201
330
1F
100
AcDbEntity
  8
0
  6
HIDDEN
 62
     7
370
     0
100
AcDbLine
 10
150.9047885354
 20
99.8613658554
 30
0.0
 11
153.0047885354
 21
100.4240591595
 31
0.0
  0
LINE
  5
202
330
1F
100
AcDbEntity
  8
0
  6
HIDDEN
 62
     7
370
     0
100
AcDbLine
 10
153.0047885354
 20
118.4240591595
 30
0.0
 11
150.9047885354
 21
118.9867524636
 31
0.0
  0
LINE
  5
203
330
1F
100
AcDbEntity
  8
0
  6
HIDDEN
 62
     7
370
     0
100
AcDbLine
 10
154.4047885354
 20
118.6549992672
 30
0.0
 11
154.0047885354
 21
118.4240591595
 31
0.0
  0
LINE
  5
204
330
1F
100
AcDbEntity
  8
0
  6
HIDDEN
 62
     7
370
     0
100
AcDbLine
 10
154.0047885354
 20
100.4240591595
 30
0.0
 11
154.4047885354
 21
100.1931190518
 31
0.0
  0
ARC
  5
205
330
1F
100
AcDbEntity
  8
0
  6
HIDDEN
 62
     7
370
     0
100
AcDbCircle
 10
164.3777565033
 20
100.9240591595
 30
0.0
 40
0.5
100
AcDbArc
 50
270.0
 51
0.0
  0
ARC
  5
206
330
1F
100
AcDbEntity
  8
0
  6
HIDDEN
 62
     7
370
     0
100
AcDbCircle
 10
164.3777565033
 20
117.9240591595
 30
0.0
 40
0.5
100
AcDbArc
 50
360.0
 51
90.0
  0
LINE
  5
207
330
1F
100
AcDbEntity
  8
0
  6
HIDDEN
 62
     7
370
     0
100
AcDbLine
 10
157.8047885354
 20
100.4240591595
 30
0.0
 11
164.3777565033
 21
100.4240591595
 31
0.0
  0
LINE
  5
208
330
1F
100
AcDbEntity
  8
0
  6
HIDDEN
 62
     7
370
     0
100
AcDbLine
 10
164.3777565033
 20
118.4240591595
 30
0.0
 11
157.8047885354
 21
118.4240591595
 31
0.0
  0
LINE
  5
209
330
1F
100
AcDbEntity
  8
0
  6
HIDDEN
 62
     7
370
     0
100
AcDbLine
 10
153.0047885354
 20
100.4240591595
 30
0.0
 11
154.0047885354
 21
100.4240591595
 31
0.0
  0
LINE
  5
20A
330
1F
100
AcDbEntity
  8
0
  6
HIDDEN
 62
     7
370
     0
100
AcDbLine
 10
154.0047885354
 20
118.4240591595
 30
0.0
 11
153.0047885354
 21
118.4240591595
 31
0.0
  0
LINE
  5
20B
330
1F
100
AcDbEntity
  8
0
  6
HIDDEN
 62
     7
370
     0
100
AcDbLine
 10
164.8777565033
 20
102.2740591595
 30
0.0
 11
165.7777565033
 21
103.1740591595
 31
0.0
  0
LINE
  5
20C
330
1F
100
AcDbEntity
  8
0
  6
HIDDEN
 62
     7
370
     0
100
AcDbLine
 10
165.7777565033
 20
115.6740591595
 30
0.0
 11
164.8777565033
 21
116.5740591595
 31
0.0
  0
LINE
  5
20D
330
1F
100
AcDbEntity
  8
0
  6
HIDDEN
 62
     7
370
     0
100
AcDbLine
 10
165.7777565033
 20
103.1740591595
 30
0.0
 11
190.8623776344
 21
103.1740591595
 31
0.0
  0
LINE
  5
20E
330
1F
100
AcDbEntity
  8
0
  6
HIDDEN
 62
     7
370
     0
100
AcDbLine
 10
190.8623776344
 20
115.6740591595
 30
0.0
 11
165.7777565033
 21
115.6740591595
 31
0.0
  0
LINE
  5
20F
330
1F
100
AcDbEntity
  8
0
  6
HIDDEN
 62
     7
370
     0
100
AcDbLine
 10
190.8623776344
 20
103.1740591595
 30
0.0
 11
194.6177565033
 21
109.4240591595
 31
0.0
  0
LINE
  5
210
330
1F
100
AcDbEntity
  8
0
  6
HIDDEN
 62
     7
370
     0
100
AcDbLine
 10
194.6177565033
 20
109.4240591595
 30
0.0
 11
190.8623776344
 21
115.6740591595
 31
0.0
  0
LINE
  5
211
330
1F
100
AcDbEntity
  8
0
  6
HIDDEN
 62
     7
370
     0
100
AcDbLine
 10
217.300734089
 20
107.3856091189
 30
0.0
 11
217.7794114793
 21
108.1764569502
 31
0.0
  0
LINE
  5
212
330
1F
100
AcDbEntity
  8
0
  6
HIDDEN
 62
     7
370
     0
100
AcDbLine
 10
211.7909321745
 20
111.8011108118
 30
0.0
 11
211.3122547842
 21
111.0102629804
 31
0.0
  0
LINE
  5
213
330
1F
100
AcDbEntity
  8
0
  6
HIDDEN
 62
     7
370
     0
100
AcDbLine
 10
206.929464458
 20
116.379636991
 30
0.0
 11
205.9657120267
 21
114.7873714367
 31
0.0
  0
LINE
  5
214
330
1F
100
AcDbEntity
  8
0
  6
HIDDEN
 62
     7
370
     0
100
AcDbLine
 10
216.5642627889
 20
111.0199721395
 30
0.0
 11
218.3270339878
 21
118.4027800994
 31
0.0
  0
LINE
  5
215
330
1F
100
AcDbEntity
  8
0
  6
HIDDEN
 62
     7
370
     0
100
AcDbLine
 10
215.7180063357
 20
103.4188489964
 30
0.0
 11
217.8556170935
 21
106.9505069901
 31
0.0
  0
LINE
  5
216
330
1F
100
AcDbEntity
  8
0
  6
HIDDEN
 62
     7
370
     0
100
AcDbLine
 10
210.6694419277
 20
111.300091624
 30
0.0
 11
208.4445570487
 21
107.6242435121
 31
0.0
  0
LINE
  5
217
330
1F
100
AcDbEntity
  8
0
  6
HIDDEN
 62
     7
370
     0
100
AcDbLine
 10
189.9777565033
 20
104.2696013915
 30
0.0
 11
189.9777565033
 21
107.0828041106
 31
0.0
  0
LINE
  5
218
330
1F
100
AcDbEntity
  8
0
  6
HIDDEN
 62
     7
370
     0
100
AcDbLine
 10
185.7777565033
 20
107.0828580671
 30
0.0
 11
185.7777565033
 21
104.2696013915
 31
0.0
  0
LINE
  5
219
330
1F
100
AcDbEntity
  8
0
  6
HIDDEN
 62
     7
370
     0
100
AcDbLine
 10
213.2430357162
 20
125.2275841994
 30
0.0
 11
212.6576763219
 21
124.2604814766
 31
0.0
  0
LINE
  5
21A
330
1F
100
AcDbEntity
  8
0
  6
HIDDEN
 62
     7
370
     0
100
AcDbLine
 10
218.1328574006
 20
120.9465122318
 30
0.0
 11
218.7182167949
 21
121.9136149546
 31
0.0
  0
LINE
  5
21B
330
1F
100
AcDbEntity
  8
0
  6
HIDDEN
 62
     7
370
     0
100
AcDbLine
 10
212.8757905082
 20
121.368016362
 30
0.0
 11
211.5669631131
 21
115.8864080187
 31
0.0
  0
LINE
  5
21C
330
1F
100
AcDbEntity
  8
0
  6
HIDDEN
 62
     7
370
     0
100
AcDbLine
 10
190.3777565033
 20
101.931934496
 30
0.0
 11
190.3777565033
 21
104.1795668517
 31
0.0
  0
LINE
  5
21D
330
1F
100
AcDbEntity
  8
0
  6
HIDDEN
 62
     7
370
     0
100
AcDbLine
 10
185.3777565033
 20
104.1795668517
 30
0.0
 11
185.3777565033
 21
101.9321456836
 31
0.0
  0
LINE
  5
21E
330
1F
100
AcDbEntity
  8
VERMASSUNG
  6
CENTERX2
100
AcDbLine
 10
223.8777565033
 20
136.4240591595
 30
0.0
 11
235.0497501479
 21
136.4240591595
 31
0.0
  0
LINE
  5
21F
330
1F
100
AcDbEntity
  8
VERMASSUNG
  6
CENTERX2
100
AcDbLine
 10
223.8777565033
 20
136.4240591595
 30
0.0
 11
223.8777565033
 21
109.4240591595
 31
0.0
  0
LINE
  5
220
330
1F
100
AcDbEntity
  8
VERMASSUNG
  6
CENTERX2
100
AcDbLine
 10
148.5554057454
 20
109.4240591595
 30
0.0
 11
223.8777565033
 21
109.4240591595
 31
0.0
  0
DIMENSION
  5
221
330
1F
100
AcDbEntity
  8
VERMASSUNG
100
AcDbDimension
  2
_D_1
 10
239.1708437523
 20
109.4240591595
 30
0.0
 11
239.1708437523
 21
122.9240591595
 31
0.0
 70
   160
  1
<>
 71
     2
 42
-1.0
  3
SLDDIMSTYLE1
100
AcDbAlignedDimension
 13
223.8777565033
 23
136.4240591595
 33
0.0
 14
223.8777565033
 24
109.4240591595
 34
0.0
 50
90.0
100
AcDbRotatedDimension
  0
DIMENSION
  5
22E
330
1F
100
AcDbEntity
  8
VERMASSUNG
100
AcDbDimension
  2
_D_2
 10
223.8777565033
 20
140.5778193244
 30
0.0
 11
198.8777565033
 21
140.5778193244
 31
0.0
 70
   160
  1
<>
 71
     2
 42
-1.0
  3
SLDDIMSTYLE1
100
AcDbAlignedDimension
 13
173.8777565033
 23
129.1240591595
 33
0.0
 14
223.8777565033
 24
136.4240591595
 34
0.0
100
AcDbRotatedDimension
  0
DIMENSION
  5
23A
330
1F
100
AcDbEntity
  8
VERMASSUNG
100
AcDbDimension
  2
_D_3
 10
223.8777565033
 20
147.2817054152
 30
0.0
 11
186.8777565033
 21
147.2817054152
 31
0.0
 70
   160
  1
<>
 71
     2
 42
-1.0
  3
SLDDIMSTYLE2
100
AcDbAlignedDimension
 13
149.8777565033
 23
122.0555641416
 33
0.0
 14
223.8777565033
 24
136.4240591595
 34
0.0
 50
0.0
100
AcDbRotatedDimension
  0
DIMENSION
  5
245
330
1F
100
AcDbEntity
  8
VERMASSUNG
100
AcDbDimension
  2
_D_4
 10
235.0497501479
 20
136.4240591595
 30
0.0
 11
231.7172297085
 21
128.1822843134
 31
0.0
 70
   162
  1
<>
 71
     1
 42
-1.0
  3
SLDDIMSTYLE3
100
AcDb2LineAngularDimension
 13
223.12212576
 23
121.7308195803
 33
0.0
 14
223.8782566049
 24
136.0039292607
 34
0.0
 15
223.8777565033
 25
136.4240591595
 35
0.0
 16
231.7172297085
 26
128.1822843134
 36
0.0
  0
DIMENSION
  5
24F
330
1F
100
AcDbEntity
  8
VERMASSUNG
100
AcDbDimension
  2
_D_5
 10
144.4149299783
 20
89.4240591595
 30
0.0
 11
144.4149299783
 21
109.4240591595
 31
0.0
 70
   160
  1
PSC%%c<>
 71
     2
 42
-1.0
  3
SLDDIMSTYLE2
100
AcDbAlignedDimension
 13
174.1777565033
 23
129.4240591595
 33
0.0
 14
174.1777565033
 24
89.4240591595
 34
0.0
 50
90.0
100
AcDbRotatedDimension
  0
OLE2FRAME
  5
25B
330
1F
100
AcDbEntity
  8
0
100
AcDbOle2Frame
 70
     2
  3
Paintbrush-Bild
 10
13.8511154363
 20
38.264191557
 30
0.0
 11
51.6290888628
 21
31.9806341108
 31
0.0
 71
     2
 72
     0
 73
     1
 90
    12928
310
80552BED0767C5B32B40DDAF6807D121434000000000000000006FFBDDFB85D0
310
4940DDAF6807D121434000000000000000006FFBDDFB85D04940416F4BD60AFB
310
3F4000000000000000002BED0767C5B32B40416F4BD60AFB3F40000000000000
310
0000000000000100000000010000010000000100000000000100000000320000
310
D0CF11E0A1B11AE1000000000000000000000000000000003E000300FEFF0900
310
0600000000000000000000000100000001000000000000000010000002000000
310
01000000FEFFFFFF0000000000000000FFFFFFFFFFFFFFFFFFFFFFFFFFFFFFFF
310
FFFFFFFFFFFFFFFFFFFFFFFFFFFFFFFFFFFFFFFFFFFFFFFFFFFFFFFFFFFFFFFF
310
FFFFFFFFFFFFFFFFFFFFFFFFFFFFFFFFFFFFFFFFFFFFFFFFFFFFFFFFFFFFFFFF
310
FFFFFFFFFFFFFFFFFFFFFFFFFFFFFFFFFFFFFFFFFFFFFFFFFFFFFFFFFFFFFFFF
310
FFFFFFFFFFFFFFFFFFFFFFFFFFFFFFFFFFFFFFFFFFFFFFFFFFFFFFFFFFFFFFFF
310
FFFFFFFFFFFFFFFFFFFFFFFFFFFFFFFFFFFFFFFFFFFFFFFFFFFFFFFFFFFFFFFF
310
FFFFFFFFFFFFFFFFFFFFFFFFFFFFFFFFFFFFFFFFFFFFFFFFFFFFFFFFFFFFFFFF
310
FFFFFFFFFFFFFFFFFFFFFFFFFFFFFFFFFFFFFFFFFFFFFFFFFFFFFFFFFFFFFFFF
310
FFFFFFFFFFFFFFFFFFFFFFFFFFFFFFFFFFFFFFFFFFFFFFFFFFFFFFFFFFFFFFFF
310
FFFFFFFFFFFFFFFFFFFFFFFFFFFFFFFFFFFFFFFFFFFFFFFFFFFFFFFFFFFFFFFF
310
FFFFFFFFFFFFFFFFFFFFFFFFFFFFFFFFFFFFFFFFFFFFFFFFFFFFFFFFFFFFFFFF
310
FFFFFFFFFFFFFFFFFFFFFFFFFFFFFFFFFFFFFFFFFFFFFFFFFFFFFFFFFFFFFFFF
310
FFFFFFFFFFFFFFFFFFFFFFFFFFFFFFFFFFFFFFFFFFFFFFFFFFFFFFFFFFFFFFFF
310
FFFFFFFFFFFFFFFFFFFFFFFFFFFFFFFFFFFFFFFFFFFFFFFFFFFFFFFFFFFFFFFF
310
FDFFFFFFFEFFFFFFFEFFFFFFFEFFFFFF05000000060000000700000008000000
310
090000000A0000000B0000000C0000000D0000000E0000000F00000010000000
310
11000000120000001300000014000000150000001600000017000000FEFFFFFF
310
FFFFFFFFFFFFFFFFFFFFFFFFFFFFFFFFFFFFFFFFFFFFFFFFFFFFFFFFFFFFFFFF
310
FFFFFFFFFFFFFFFFFFFFFFFFFFFFFFFFFFFFFFFFFFFFFFFFFFFFFFFFFFFFFFFF
310
FFFFFFFFFFFFFFFFFFFFFFFFFFFFFFFFFFFFFFFFFFFFFFFFFFFFFFFFFFFFFFFF
310
FFFFFFFFFFFFFFFFFFFFFFFFFFFFFFFFFFFFFFFFFFFFFFFFFFFFFFFFFFFFFFFF
310
FFFFFFFFFFFFFFFFFFFFFFFFFFFFFFFFFFFFFFFFFFFFFFFFFFFFFFFFFFFFFFFF
310
FFFFFFFFFFFFFFFFFFFFFFFFFFFFFFFFFFFFFFFFFFFFFFFFFFFFFFFFFFFFFFFF
310
FFFFFFFFFFFFFFFFFFFFFFFFFFFFFFFFFFFFFFFFFFFFFFFFFFFFFFFFFFFFFFFF
310
FFFFFFFFFFFFFFFFFFFFFFFFFFFFFFFFFFFFFFFFFFFFFFFFFFFFFFFFFFFFFFFF
310
FFFFFFFFFFFFFFFFFFFFFFFFFFFFFFFFFFFFFFFFFFFFFFFFFFFFFFFFFFFFFFFF
310
FFFFFFFFFFFFFFFFFFFFFFFFFFFFFFFFFFFFFFFFFFFFFFFFFFFFFFFFFFFFFFFF
310
FFFFFFFFFFFFFFFFFFFFFFFFFFFFFFFFFFFFFFFFFFFFFFFFFFFFFFFFFFFFFFFF
310
FFFFFFFFFFFFFFFFFFFFFFFFFFFFFFFFFFFFFFFFFFFFFFFFFFFFFFFFFFFFFFFF
310
FFFFFFFFFFFFFFFFFFFFFFFFFFFFFFFFFFFFFFFFFFFFFFFFFFFFFFFFFFFFFFFF
310
52006F006F007400200045006E00740072007900000000000000000000000000
310
0000000000000000000000000000000000000000000000000000000000000000
310
16000500FFFFFFFFFFFFFFFF020000000A00030000000000C000000000000046
310
0000000000000000000000005048131A7424CD0103000000C000000000000000
310
01004F006C006500000000000000000000000000000000000000000000000000
310
0000000000000000000000000000000000000000000000000000000000000000
310
0A000200FFFFFFFFFFFFFFFFFFFFFFFF00000000000000000000000000000000
310
0000000000000000000000000000000000000000000000001400000000000000
310
010043006F006D0070004F0062006A0000000000000000000000000000000000
310
0000000000000000000000000000000000000000000000000000000000000000
310
120002010100000003000000FFFFFFFF00000000000000000000000000000000
310
0000000000000000000000000000000000000000010000004D00000000000000
310
01004F006C006500310030004E00610074006900760065000000000000000000
310
0000000000000000000000000000000000000000000000000000000000000000
310
1A000200FFFFFFFFFFFFFFFFFFFFFFFF00000000000000000000000000000000
310
0000000000000000000000000000000000000000040000002426000000000000
310
FEFFFFFF02000000FEFFFFFFFFFFFFFFFFFFFFFFFFFFFFFFFFFFFFFFFFFFFFFF
310
FFFFFFFFFFFFFFFFFFFFFFFFFFFFFFFFFFFFFFFFFFFFFFFFFFFFFFFFFFFFFFFF
310
FFFFFFFFFFFFFFFFFFFFFFFFFFFFFFFFFFFFFFFFFFFFFFFFFFFFFFFFFFFFFFFF
310
FFFFFFFFFFFFFFFFFFFFFFFFFFFFFFFFFFFFFFFFFFFFFFFFFFFFFFFFFFFFFFFF
310
FFFFFFFFFFFFFFFFFFFFFFFFFFFFFFFFFFFFFFFFFFFFFFFFFFFFFFFFFFFFFFFF
310
FFFFFFFFFFFFFFFFFFFFFFFFFFFFFFFFFFFFFFFFFFFFFFFFFFFFFFFFFFFFFFFF
310
FFFFFFFFFFFFFFFFFFFFFFFFFFFFFFFFFFFFFFFFFFFFFFFFFFFFFFFFFFFFFFFF
310
FFFFFFFFFFFFFFFFFFFFFFFFFFFFFFFFFFFFFFFFFFFFFFFFFFFFFFFFFFFFFFFF
310
FFFFFFFFFFFFFFFFFFFFFFFFFFFFFFFFFFFFFFFFFFFFFFFFFFFFFFFFFFFFFFFF
310
FFFFFFFFFFFFFFFFFFFFFFFFFFFFFFFFFFFFFFFFFFFFFFFFFFFFFFFFFFFFFFFF
310
FFFFFFFFFFFFFFFFFFFFFFFFFFFFFFFFFFFFFFFFFFFFFFFFFFFFFFFFFFFFFFFF
310
FFFFFFFFFFFFFFFFFFFFFFFFFFFFFFFFFFFFFFFFFFFFFFFFFFFFFFFFFFFFFFFF
310
FFFFFFFFFFFFFFFFFFFFFFFFFFFFFFFFFFFFFFFFFFFFFFFFFFFFFFFFFFFFFFFF
310
FFFFFFFFFFFFFFFFFFFFFFFFFFFFFFFFFFFFFFFFFFFFFFFFFFFFFFFFFFFFFFFF
310
FFFFFFFFFFFFFFFFFFFFFFFFFFFFFFFFFFFFFFFFFFFFFFFFFFFFFFFFFFFFFFFF
310
FFFFFFFFFFFFFFFFFFFFFFFFFFFFFFFFFFFFFFFFFFFFFFFFFFFFFFFFFFFFFFFF
310
0100000200000000000000000000000000000000000000000000000000000000
310
0000000000000000000000000000000000000000000000000000000000000000
310
0100FEFF030A0000FFFFFFFF0A00030000000000C00000000000004607000000
310
5042727573680007000000504272757368000700000050427275736800F439B2
310
7100000000000000000000000000000000000000000000000000000000000000
310
0000000000000000000000000000000000000000000000000000000000000000
310
0000000000000000000000000000000000000000000000000000000000000000
310
0000000000000000000000000000000000000000000000000000000000000000
310
0000000000000000000000000000000000000000000000000000000000000000
310
0000000000000000000000000000000000000000000000000000000000000000
310
0000000000000000000000000000000000000000000000000000000000000000
310
0000000000000000000000000000000000000000000000000000000000000000
310
0000000000000000000000000000000000000000000000000000000000000000
310
0000000000000000000000000000000000000000000000000000000000000000
310
0000000000000000000000000000000000000000000000000000000000000000
310
0000000000000000000000000000000000000000000000000000000000000000
310
20260000424D0E260000000000003E00000028000000B40200006E0000000100
310
01000000000000000000130B0000130B00000200000002000000000000FFFFFF
310
FFFFFFFFFFFFFFFFFFFFFFFFFFFFFFFFFFFFFFFFFFFFFFFFFFFFFFFFFFFFFFFF
310
FFFFFFFFFFFFFFFFFFFFFFFFFFFFFFFFFFFFFFFFFFFFFFFFFFFFFFFFFFFFFFFF
310
FFFFFFFFFFFFFFFFFFFFFFFFFFFFFFFFFFFFFFFFFFFFFFFFF000FFFFFFFFFFFF
310
FFFFFFFFFFFFFFFFFFFFFFFFFFFFFFFFFFFFFFFFFFFFFFFFFFFFFFFFFFFFFFFF
310
FFFFFFFFFFFFFFFFFFFFFFFFFFFFFFFFFFFFFFFFFFFFFFFFFFFFFFFFFFFFFFFF
310
FFFFFFFFFFFFFFFFFFFFFFFFFFFFFFFFF000FFFFFFFFFFFFFFFFFFFFFFFFFFFF
310
FFFFFFFFFFFFFFFFFFFFFFFFFFFFFFFFFFFFFFFFFFFFFFFFFFFFFFFFFFFFFFFF
310
FFFFFFFFFFFFFFFFFFFFFFFFFFFFFFFFFFFFFFFFFFFFFFFFFFFFFFFFFFFFFFFF
310
FFFFFFFFFFFFFFFFF000FFFFFFFFFFFFFFFFFFFFFFFFFFFFFFFFFFFFFFFFFFFF
310
FFFFFFFFFFFFFFFFFFFFFFFFFFFFFFFFFFFFFFFFFFFFFFFFFFFFFFFFFFFFFFFF
310
FFFFFFFFFFFFFFFFFFFFFFFFFFFFFFFFFFFFFFFFFFFFFFFFFFFFFFFFFFFFFFFF
310
F000FFFFFFFFFFFFFFFFFFFFFFFFFFFFFFFFFFFFFFFFFFFFFFFFFFFFFFFFFFFF
310
FFFFFFFFFFFFFFFFFFFFFFFFFFFFFFFFFFFFFFFFFFFFFFFFFFFFFFFFFFFFFFFF
310
FFFFFFFFFFFFFFFFFFFFFFFFFFFFFFFFFFFFFFFFFFFFFFFFF000FFFFFFFFFFFF
310
FFFFFFFFFFFFFFFFFFFFFFFFFFFFFFFFFFFFFFFFFFFFFFFFFFFFFFFFFFFFFFFF
310
FFFFFFFFFFFFFFFFFFFFFFFFFFFFFFFFFFFFFFFFFFFFFFFFFFFFFFFFFFFFFFFF
310
FFFFFFFFFFFFFFFFFFFFFFFFFFFFFFFFF000FFFFFFFFFFFFFFFFFFFFFFFFFFFF
310
FFFFFFFFFFFFFFFFFFFFFFFFFFFFFFFFFFFFFFFFFFFFFFFFFFFFFFFFFFFFFFFF
310
FFFFFFFFFFFFFFFFFFFFFFFFFFFFFFFFFFFFFFFFFFFFFFFFFFFFFFFFFFFFFFFF
310
FFFFFFFFFFFFFFFFF000FFFFFFFFFFFFFFFFFFFFFFFFFFFFFFFFFFFFFFFFFFFF
310
FFFFFFFFFFFFFFFFFFFFFFFFFFFFFFFFFFFFFFFFFFFFFFFFFFFFFFFFFFFFFFFF
310
FFFFFFFFFFFFFFFFFFFFFFFFFFFFFFFFFFFFFFFFFFFFFFFFFFFFFFFFFFFFFFFF
310
F000FFFFFFFFFFFFFFFFFFFFFFFFFFFFFFFFFFFFFFFFFFFFFFFFFFFFFFFFFFFF
310
FFFFFFFFFFFFFFFFFFFFFFFFFFFFFFFFFFFFFFFFFFFFFFFFFFFFFFFFFFFFFFFF
310
FFFFFFFFFFFFFFFFFFFFFFFFFFFFFFFFFFFFFFFFFFFFFFFFF000FFFFFFFFFFFF
310
FFFFFFFFFFFFFFFFFFFFFFFFFFFFFFFFFFFFFFFFFFFFFFFFFFFFFFFFFFFFFFFF
310
FFFFFFFFFFFFFFFFFFFFFFFFFFFFFFFFFFFFFFFFFFFFFFFFFFFFFFFFFFFFFFFF
310
FFFFFFFFFFFFFFFFFFFFFFFFFFFFFFFFF000FFFFFFFFFFFFFFFFFFFFFFFFFFFF
310
FFFFFFFFFFFFFFFFFFFFFFFFFFFFFFFFFFFFFFFFFFFFFFFFFFFFFFFFFFFFFFFF
310
FFFFFFFFFFFFFFFFFFFFFFFFFFFFFFFFFFFFFFFFFFFFFFFFFFFFFFFFFFFFFFFF
310
FFFFFFFFFFFFFFFFF000FFFFFFFFFFFFFFFFFFFFFFFFFFFFFFFFFFFFFFFFFFFF
310
FFFFFFFFFFFFFFFFFFFFFFFFFFFFFFFFFFFFFFFFFFFFFFFFFFFFFFFFFFFFFFFF
310
FFFFFFFFFFFFFFFFFFFFFFFFFFFFFFFFFFFFFFFFFFFFFFFFFFFFFFFFFFFFFFFF
310
F000FFFFFFFFFFFFFFFFFFFFFFFFFFFFFFFFFFFFFFFFFFFFFFFFFFFFFFFFFFFF
310
FFFFFFFFFFFFFFFFFFFFFFFFFFFFFFFFFFFFFFFFFFFFFFFFFFFFFFFFFFFFFFFF
310
FFFFFFFFFFFFFFFFFFFFFFFFFFFFFFFFFFFFFFFFFFFFFFFFF000FFFFFFFFFFFF
310
FFFFFFFFFFFFFFFFFFFFFFFFFFFFFFFFFFFFFFFFFFFFFFFFFFFFFFFFFFFFFFFF
310
FFFFFFFFFFFFFFFFFFFFFFFFFFFFFFFFFFFFFFFFFFFFFFFFFFFFFFFFFFFFFFFF
310
FFFFFFFFFFFFFFFFFFFFFFFFFFFFFFFFF000FFFFFFFFFFFFFFFFFFFFFFFFFFFF
310
FFFFFFFFFFFFFFFFFFFFFFFFFFFFFFFFFFFFFFFFFFFFFFFFFFFFFFFFFFFFFFFF
310
FFFFFFFFFFFFFFFFFFFFFFFFFFFFFFFFFFFFFFFFFFFFFFFFFFFFFFFFFFFFFFFF
310
FFFFFFFFFFFFFFFFF000FFFFFFFFFFFFFFFFFFFFFFFFFFFFFFFFFFFFFFFFFFFF
310
FFFFFFFFFFFFFFFFFFFFFFFFFFFFFFFFFFFFFFFFFFFFFFFFFFFFFFFFFFFFFFFF
310
FFFFFFFFFFFFFFFFFFFFFFFFFFFFFFFFFFFFFFFFFFFFFFFFFFFFFFFFFFFFFFFF
310
F000FFFFFFFFFFFFFFFFFFFFFFFFFFFFFFFFFFFFFFFFFFFFFFFFFFFFFFFFFFFF
310
FFFFFFFFFFFFFFFFFFFFFFFFFFFFFFFFFFFFFFFFFFFFFFFFFFFFFFFFFFFFFFFF
310
FFFFFFFFFFFFFFFFFFFFFFFFFFFFFFFFFFFFFFFFFFFFFFFFF000FFFFFFFFFFFF
310
FFFFFFFFFFFFFFFFFFFFFFFFFFFFFFFFFFFFFFFFFFFFFFFFFFFFFFFFFFFFFFFF
310
FFFFFFFFFFFFFFFFFFFFFFFFFFFFFFFFFFFFFFFFFFFFFFFFFFFFFFFFFFFFFFFF
310
FFFFFFFFFFFFFFFFFFFFFFFFFFFFFFFFF000FFFFFFFFFFFFFFFFFFFFFFFFFFFF
310
FFFFFFFFFFFFFFFFFFFFFFFFFFFFFFFFFFFFFFFFFFFFFFFFFFFFFFFFFFFFFFFF
310
FFFFFFFFFFFFFFFFFFFFFFFFFFFFFFFFFFFFFFFFFFFFFFFFFFFFFFFFFFFFFFFF
310
FFFFFFFFFFFFFFFFF000FFFFF80003FFFFFFFFFFFFFFFFFFFFFFFFFFFFFFFFFF
310
FFFFF00007FFFFFFFFFF00007FFFFFF800000000000000007FFFFFFFFFFFFFFF
310
FFFFFFFC001FFFFFFFFFFFFFFC001FFFFFFFFFFFFFFFFFFFFFFFFFFE0007FFFF
310
F000FFFF8000007FFFFFFFF8000FFFFFC0007FFFFF80007FFFFF0000007FFFFF
310
FFF8000007FFFFF800000000000000007FFFFFF0001FFFFFFFFFFFC00001FFFF
310
FFFFFFFFC00001FFFFFFFF000000000003FFFFE000007FFFF000FFFE0000000F
310
FFFFFFF0000FFFFF80007FFFFF80007FFFFC0000001FFFFFFFC0000001FFFFF8
310
00000000000000007FFFFFF0001FFFFFFFFFFE0000003FFFFFFFFFFE0000003F
310
FFFFFF000000000003FFFF0000000FFFF000FFF800000003FFFFFFF00007FFFF
310
80007FFFFF80007FFFF000000007FFFFFF000000003FFFF80000000000000000
310
7FFFFFF0001FFFFFFFFFF80000000FFFFFFFFFF80000000FFFFFFF0000000000
310
03FFFC00000003FFF000FFE000000000FFFFFFF00007FFFF80003FFFFF80007F
310
FFC000000001FFFFFC000000001FFFF800000000000000007FFFFFF0001FFFFF
310
FFFFE000000003FFFFFFFFE000000003FFFFFF000000000003FFF000000000FF
310
F000FF80000000007FFFFFF00007FFFF80003FFFFF80007FFF8000000000FFFF
310
F80000000007FFF800000000000000007FFFFFF0001FFFFFFFFFC000000001FF
310
FFFFFFC000000001FFFFFF000000000003FFC0000000007FF000FF0000000000
310
3FFFFFE00007FFFF00003FFFFF80007FFE00000000003FFFF00000000003FFF8
310
00000000000000007FFFFFF0001FFFFFFFFF8000000000FFFFFFFF8000000000
310
FFFFFF000000000003FF80000000003FF000FE00000000001FFFFFE00003FFFF
310
00003FFFFF80007FFC00000000001FFFE00000000001FFF8000001FFFE000000
310
7FFFFFF0001FFFFFFFFE00000000003FFFFFFE00000000003FFFFF0000000000
310
03FF00000000001FF000FC00000000000FFFFFE00003FFFF00001FFFFF80007F
310
F800000000001FFFC00000000000FFF8000001FFFE0000007FFFFFF0001FFFFF
310
FFFC00000000001FFFFFFC00000000001FFFFF000000000003FE00000000000F
310
F000F8000000000007FFFFE00003FFFF00001FFFFF80007FF800000000000FFF
310
800000000000FFF8000001FFFE0000007FFFFFF0001FFFFFFFF800000000000F
310
FFFFF800000000000FFFFF000000000003FC000000000007F000F80000000000
310
03FFFFC00003FFFE00001FFFFF80007FF0000000000007FF0000000000007FF8
310
000001FFFE0000007FFFFFF0001FFFFFFFF0000000000007FFFFF00000000000
310
07FFFF000000000003F8000000000003F000F0000000000003FFFFC00001FFFE
310
00001FFFFF80007FE0000000000007FE0000000000003FF8000001FFFE000000
310
7FFFFFF0001FFFFFFFF0000000000007FFFFF0000000000007FFFF0000000000
310
03F800001F800003F000E00001FFF00001FFFFC00001FFFE00000FFFFF80007F
310
E00001FFE00003FE00001FFF00003FF8000001FFFE0000007FFFFFF0001FFFFF
310
FFE000003E000003FFFFE000003E000003FFFF000000000003F00001FFF80001
310
F000E00007FFFC0001FFFFC00001FFFE00000FFFFF80007FC0000FFFFC0003FC
310
0000FFFFC0001FF8000001FFFE0000007FFFFFF0001FFFFFFFC00003FFE00001
310
FFFFC00003FFE00001FFFF0001FFFFFFFFF00007FFFE0001F000E0000FFFFF00
310
00FFFF800001FFFC00000FFFFF80007FC0001FFFFE0001FC0001FFFFE0001FF8
310
000001FFFE0000007FFFFFF0001FFFFFFF80000FFFF80000FFFF80000FFFF800
310
00FFFF0003FFFFFFFFE0000FFFFF8000F000C0003FFFFF8000FFFF800000FFFC
310
000007FFFF80007F80003FFFFF0001FC0003FFFFF0001FF8000001FFFE000000
310
7FFFFFF0001FFFFFFF80003FFFFE0000FFFF80003FFFFE0000FFFF0003FFFFFF
310
FFE0003FFFFF8000F000C0003FFFFF8000FFFF800000FFFC000007FFFF80007F
310
80007FFFFF8001F80007FFFFF8000FF8000001FFFE0000007FFFFFF0001FFFFF
310
FF00007FFFFF00007FFF00007FFFFF00007FFF0003FFFFFFFFE0003FFFFFC000
310
F000C0007FFFFFC000FFFF000000FFFC000007FFFF80007F8000FFFFFF8000F8
310
000FFFFFF8000FF8000001FFFE0000007FFFFFF0001FFFFFFF0000FFFFFF8000
310
7FFF0000FFFFFF80007FFF0003FFFFFFFFC0007FFFFFC00070008000FFFFFFC0
310
00FFFF000000FFF8000007FFFF80007F8000FFFFFF8000F8000FFFFFF8000FF8
310
000001FFFE0000007FFFFFF0001FFFFFFE0001FFFFFFC0003FFE0001FFFFFFC0
310
003FFF0003FFFFFFFFC0007FFFFFE00070008000FFFFFFC0007FFF0000007FF8
310
000003FFFF80007F0001FFFFFF8000F8000FFFFFF8000FF8000001FFFE000000
310
7FFFFFF0001FFFFFFE0001FFFFFFC0003FFE0001FFFFFFC0003FFF0003FFFFFF
310
FFC000FFFFFFE00070008000FFFFFFC0007FFF0000007FF8000003FFFF80007F
310
0001FFFFFF8000F8001FFFFFF8000FF8000001FFFE0000007FFFFFF0001FFFFF
310
FE0003FFFFFFE0003FFE0003FFFFFFE0003FFF0003FFFFFFFFC000FFFFFFE000
310
70008000FFFFFFC0007FFE0000007FF8000003FFFF80007F0001FFFFFF8000F0
310
001FFFFFF8000FF8000001FFFE0000007FFFFFF0001FFFFFFC0003FFFFFFE000
310
1FFC0003FFFFFFE0001FFF0003FFFFFFFFC000FFFFFFC00070008000FFFFFF80
310
007FFE0000007FF0000003FFFF80007F0001FFFFFF0000F0001FFFFFF8000FF8
310
000001FFFE0000007FFFFFF0001FFFFFFC0007FFFFFFF0001FFC0007FFFFFFF0
310
001FFF0003FFFFFFFFC000FFFFFFC00070008001FFFFFF0000FFFE0000003FF0
310
000001FFFF80007F0001FFFFFF0000F8001FFFFFF0000FF8000001FFFE000000
310
7FFFFFF0001FFFFFFC0007FFFFFFF0001FFC0007FFFFFFF0001FFF0003FFFFFF
310
FFC001FFFFFF80007000FFFFFFFFFE0000FFFE0008003FF0008001FFFF80007F
310
FFFFFFFFFC0000FFFFFFFFFFE0000FF8000001FFFE0000007FFFFFF0001FFFFF
310
F8000FFFFFFFF8000FF8000FFFFFFFF8000FFF0003FFFFFFFFFFFFFFFFFF0000
310
7000FFFFFFFFFC0000FFFC0008003FF0008001FFFF80007FFFFFFFFFF80001FF
310
FFFFFFFF80000FF8000001FFFE0000007FFFFFF0001FFFFFF8000FFFFFFFF800
310
0FF8000FFFFFFFF8000FFF0003FFFFFFFFFFFFFFFFFE0000F000FFFFFFFFE000
310
00FFFC000C003FE000C001FFFF80007FFFFFFFFFC00001FFFFFFFFFE00001FF8
310
000001FFFE0000007FFFFFF0001FFFFFF8000FFFFFFFF8000FF8000FFFFFFFF8
310
000FFF0003FFFFFFFFFFFFFFFFF00000F000FFFFFFFE000001FFFC000C001FE0
310
00C000FFFF80007FFFFFFFFE000001FFFFFFFFE000001FF80FFFFFFFFFFFFFC0
310
7FFFFFF0001FFFFFF8000FFFFFFFF8000FF8000FFFFFFFF8000FFF0003FFFFFF
310
FFFFFFFFFF800000F000FFFFFFC0000001FFFC001C001FE001C000FFFF80007F
310
FFFFFF80000003FFFFFFF80000001FF80FFFFFFFFFFFFFC07FFFFFF0001FFFFF
310
F8001FFFFFFFFC000FF8001FFFFFFFFC000FFF0003FFFFFFFFFFFFFFF0000001
310
F000FFFFF800000001FFF8001C001FE001C000FFFF80007FFFFFF800000003FF
310
FFFF800000003FF80FFFFFFFFFFFFFC07FFFFFF0001FFFFFF8001FFFFFFFFC00
310
0FF8001FFFFFFFFC000FFF0003FFFFFFFFFFFFFE00000001F000FFFFC0000000
310
03FFF8001E001FC001E000FFFF80007FFFFF8000000007FFFFFC000000003FF8
310
0FFFFFFFFFFFFFC07FFFFFF0001FFFFFF8001FFFFFFFFC000FF8001FFFFFFFFC
310
000FFF0003FFFFFFFFFFFFE000000003F000FFFE0000000007FFF8001E000FC0
310
01E0007FFF80007FFFFE0000000007FFFFE0000000007FF80FFFFFFFFFFFFFC0
310
7FFFFFF0001FFFFFF0001FFFFFFFFC0007F0001FFFFFFFFC0007FF0003FFFFFF
310
FFFFFF0000000003F000FFF80000000007FFF8001E000FC003E0007FFF80007F
310
FFF0000000000FFFFF8000000000FFF80FFFFFFFFFFFFFC07FFFFFF0001FFFFF
310
F0001FFFFFFFFC0007F0001FFFFFFFFC0007FF0003FFFFFFFFFFFC0000000007
310
F000FFE0000000000FFFF0003E000FC003E0007FFF80007FFFC0000000001FFF
310
FE0000000001FFF80FFFFFFFFFFFFFC07FFFFFF0001FFFFFF0001FFFFFFFFC00
310
07F0001FFFFFFFFC0007FF0003FFFFFFFFFFF0000000000FF000FFC000000000
310
1FFFF0003F000F8003F0003FFF80007FFF80000000003FFFF80000000003FFF8
310
0FFFFFFFFFFFFFC07FFFFFF0001FFFFFF0001FFFFFFFFC0007F0001FFFFFFFFC
310
0007FF0003FFFFFFFFFFE0000000001FF000FF00000000007FFFF0003F000780
310
03F0003FFF80007FFF00000000007FFFF00000000007FFF80FFFFFFFFFFFFFC0
310
7FFFFFF0001FFFFFF0001FFFFFFFFC0007F0001FFFFFFFFC0007FF0003FFFFFF
310
FFFF80000000007FF000FE0000000000FFFFE0003F00078007F0003FFF80007F
310
FE0000000001FFFFE0000000001FFFF80FFFFFFFFFFFFFC07FFFFFF0001FFFFF
310
F0001FFFFFFFFC0007F0001FFFFFFFFC0007FF0003FFFFFFFFFF0000000000FF
310
F000FC0000000003FFFFE0007F00078007F0003FFF80007FFC0000000007FFFF
310
C0000000007FFFF80FFFFFFFFFFFFFC07FFFFFF0001FFFFFF8001FFFFFFFFC00
310
0FF8001FFFFFFFFC000FFF0003FFFFFFFFFE0000000003FFF000FC000000000F
310
FFFFE0007F80070007F8001FFF80007FF8000000001FFFFF8000000001FFFFF8
310
0FFFFFFFFFFFFFC07FFFFFF0001FFFFFF8001FFFFFFFFC000FF8001FFFFFFFFC
310
000FFF0003FFFFFFFFFC000000000FFFF000F8000000007FFFFFE0007F800700
310
07F8001FFF80007FF000000000FFFFFF800000000FFFFFF80FFFFFFFFFFFFFC0
310
7FFFFFF0001FFFFFF8000FFFFFFFF8000FF8000FFFFFFFF8000FFF0003FFFFFF
310
FFFC000000007FFFF000F800000007FFFFFFC0007F8003000FF8001FFF80007F
310
F000000007FFFFFF000000007FFFFFF80FFFFFFFFFFFFFC07FFFFFF0001FFFFF
310
F8000FFFFFFFF8000FF8000FFFFFFFF8000FFF0003FFFFFFFFF80000000FFFFF
310
F000F0000000FFFFFFFFC000FF8003000FF8001FFF80007FE0000000FFFFFFFF
310
0000000FFFFFFFF8000001FFFE0000007FFFFFF0001FFFFFF8000FFFFFFFF800
310
0FF8000FFFFFFFF8000FFF0003FFFFFFFFF8000000FFFFFFF000F000000FFFFF
310
FFFFC000FFC002000FF8000FFF80007FE000001FFFFFFFFE000001FFFFFFFFF8
310
000001FFFE0000007FFFFFF0001FFFFFF8000FFFFFFFF8000FF8000FFFFFFFF8
310
000FFF0003FFFFFFFFF000001FFFFFFFF000E00000FFFFFFFFFFC000FFC00200
310
0FFC000FFF80007FE00001FFFFFFFFFE00001FFFFFFFFFF8000001FFFE000000
310
7FFFFFF0001FFFFFFC000FFFFFFFF8001FFC000FFFFFFFF8001FFF0003FFFFFF
310
FFF00001FFFFFFFFF000E00007FFFFFFFFFF8000FFC000001FFC000FFF80007F
310
C0000FFFFFFFFFFE0000FFFFFFFFFFF8000001FFFE0000007FFFFFF0001FFFFF
310
FC0007FFFFFFF0001FFC0007FFFFFFF0001FFF0003FFFFFFFFF00007FFFFFFFF
310
F000E0001FFFFFFFFFFF8000FFC000001FFC000FFF80007FC0003FFFFFFFFFFE
310
0001FFFFFFFFFFF8000001FFFE0000007FFFFFF0001FFFFFFC0007FFFFFFF000
310
1FFC0007FFFFFFF0001FFF0003FFFFFFFFF0001FFFFFFFFFF000E0003FFFFF00
310
03FF8001FFE000001FFC0007FF80007FC0007FFFFF0007FC0003FFFFF0003FF8
310
000001FFFE0000007FFFFFF0001FFFFFFC0003FFFFFFE0001FFC0003FFFFFFE0
310
001FFF0003FFFFFFFFF0003FFFFFFFFFF000E0003FFFFF0001FF8001FFE00000
310
1FFE0007FF80007FC0007FFFFE0003FC0007FFFFE0003FF8000001FFFE000000
310
7FFFFFF0001FFFFFFE0003FFFFFFE0003FFE0003FFFFFFE0003FFF0003FFFFFF
310
FFF0003FFFFF8001F000E0003FFFFF0001FF0001FFE000001FFE0007FF80007F
310
C0007FFFFE0003FC0007FFFFE0003FF8000001FFFE0000007FFFFFF0001FFFFF
310
FE0001FFFFFFC0003FFE0001FFFFFFC0003FFF0003FFFFFFFFF0003FFFFF0001
310
F000E0003FFFFF0003FF0001FFE000003FFE0007FF80007FC0007FFFFE0003FC
310
0007FFFFE0003FF8000001FFFE0000007FFFFFF0001FFFFFFF0001FFFFFFC000
310
7FFF0001FFFFFFC0007FFF0003FFFFFFFFF0003FFFFF0001F000E0003FFFFE00
310
03FF0003FFF000003FFE0003FF80007FC0007FFFFC0003FE0007FFFFE0003FF8
310
000001FFFE0000007FFFFFF0001FFFFFFF0000FFFFFF80007FFF0000FFFFFF80
310
007FFF0003FFFFFFFFF0003FFFFF0001F000E0003FFFFE0003FF0003FFF00000
310
3FFF0003FF80007FC0007FFFFC0007FE0007FFFFC0003FF8000001FFFE000000
310
7FFFFFF0001FFFFFFF80007FFFFF0000FFFF80007FFFFF0000FFFF0003FFFFFF
310
FFF0003FFFFF0003F000E0003FFFFC0003FE0003FFF000003FFF0003FF80007F
310
E0003FFFF80007FE0003FFFFC0007FF8000001FFFE0000007FFFFFF0001FFFFF
310
FF80003FFFFE0000FFFF80003FFFFE0000FFFF0003FFFFFFFFF0001FFFFE0003
310
F000F0001FFFF80003FE0003FFF000007FFF0001FF80007FE0003FFFF00007FE
310
0001FFFF80007FF8000001FFFE0000007FFFFFF0001FFFFFFFC0000FFFF80001
310
FFFFC0000FFFF80001FFFF0003FFFFFFFFF0001FFFFC0003F000F0000FFFF000
310
07FE0007FFF800007FFF0001FF80007FE0001FFFE00007FF0000FFFE00007FF8
310
000001FFFE0000007FFFFFF0001FFFFFFFC00003FFE00001FFFFC00003FFE000
310
01FFFF0003FFFFFFFFF8000FFFF80003F000F00003FFC00007FC0007FFF80000
310
7FFF8001FF80007FF00007FF80000FFF00007FF80000FFF8000001FFFE000000
310
7F80000000000001FFE000003E000003FFFFE000003E000003FFFF0003FFFFFF
310
FFF80003FFE00007F000F800000000000FFC0007FFF800007FFF8001FF80007F
310
F000000000000FFF000000000000FFF8000001FFFE0000007F80000000000001
310
FFF0000000000007FFFFF0000000000007FFFF0003FFFFFFFFFC00007E000007
310
F000F800000000000FFC0007FFF80000FFFF8000FF80007FF800000000001FFF
310
800000000001FFF8000001FFFE0000007F80000000000001FFF800000000000F
310
FFFFF800000000000FFFFF0003FFFFFFFFFC00000000000FF000FC0000000000
310
1FFC0007FFFC0000FFFF8000FF80007FF800000000003FFFC00000000001FFF8
310
000001FFFE0000007F80000000000001FFF800000000000FFFFFF80000000000
310
0FFFFF0003FFFFFFFFFE00000000001FF000FE00000000003FF8000FFFFC0000
310
FFFF8000FF80007FFC00000000003FFFC00000000003FFF8000001FFFE000000
310
7F80000000000001FFFC00000000001FFFFFFC00000000001FFFFF0003FFFFFF
310
FFFF00000000001FF000FF00000000003FF8000FFFFC0000FFFFC000FF80007F
310
FE00000000007FFFE00000000007FFF8000001FFFE0000007F80000000000001
310
FFFE00000000003FFFFFFE00000000003FFFFF0003FFFFFFFFFF80000000003F
310
F000FF80000000007FF8000FFFFC0001FFFFC0007F80007FFF0000000000FFFF
310
F0000000000FFFF800000000000000007F80000000000001FFFF8000000000FF
310
FFFFFF8000000000FFFFFF0003FFFFFFFFFFC0000000007FF000FFC000000000
310
FFF8000FFFFE0001FFFFC0007F80007FFF8000000001FFFFF8000000001FFFF8
310
00000000000000007F80000000000001FFFFC000000001FFFFFFFFC000000001
310
FFFFFF0003FFFFFFFFFFE000000000FFF000FFE000000003FFF0001FFFFE0001
310
FFFFC0007F80007FFFC000000007FFFFFE000000003FFFF80000000000000000
310
7F80000000000001FFFFE000000003FFFFFFFFE000000003FFFFFF0003FFFFFF
310
FFFFF000000003FFF000FFF80000000FFFF0001FFFFE0001FFFFE0007F80007F
310
FFF00000000FFFFFFF00000000FFFFF800000000000000007F80000000000001
310
FFFFF80000000FFFFFFFFFF80000000FFFFFFF0003FFFFFFFFFFFC0000000FFF
310
F000FFFE0000003FFFF0001FFFFE0003FFFFE0003F80007FFFFC0000003FFFFF
310
FFC0000003FFFFF800000000000000007F80000000000001FFFFFE0000003FFF
310
FFFFFFFE0000003FFFFFFF0003FFFFFFFFFFFF0000003FFFF000FFFF800000FF
310
FFF0001FFFFF0003FFFFE0003F80007FFFFF000001FFFFFFFFF800001FFFFFF8
310
00000000000000007F80000000000001FFFFFFC00001FFFFFFFFFFFFC00001FF
310
FFFFFF0003FFFFFFFFFFFFC00000FFFFF000FFFFF8000FFFFFFFFFFFFFFFFFFF
310
FFFFFFFFFFFFFFFFFFFFF0001FFFFFFFFFFF0000FFFFFFF80000000000000000
310
7FFFFFFFFFFFFFFFFFFFFFFC001FFFFFFFFFFFFFFC001FFFFFFFFFFFFFFFFFFF
310
FFFFFFFC001FFFFFF000FFFFFFFFFFFFFFFFFFFFFFFFFFFFFFFFFFFFFFFFFFFF
310
FFFFFFFFFFFFFFFFFFFFFFFFFFFFFFFFFFFFFFFFFFFFFFFFFFFFFFFFFFFFFFFF
310
FFFFFFFFFFFFFFFFFFFFFFFFFFFFFFFFFFFFFFFFFFFFFFFFFFFFFFFFFFFFFFFF
310
F000FFFFFFFFFFFFFFFFFFFFFFFFFFFFFFFFFFFFFFFFFFFFFFFFFFFFFFFFFFFF
310
FFFFFFFFFFFFFFFFFFFFFFFFFFFFFFFFFFFFFFFFFFFFFFFFFFFFFFFFFFFFFFFF
310
FFFFFFFFFFFFFFFFFFFFFFFFFFFFFFFFFFFFFFFFFFFFFFFFF000FFFFFFFFFFFF
310
FFFFFFFFFFFFFFFFFFFFFFFFFFFFFFFFFFFFFFFFFFFFFFFFFFFFFFFFFFFFFFFF
310
FFFFFFFFFFFFFFFFFFFFFFFFFFFFFFFFFFFFFFFFFFFFFFFFFFFFFFFFFFFFFFFF
310
FFFFFFFFFFFFFFFFFFFFFFFFFFFFFFFFF000FFFFFFFFFFFFFFFFFFFFFFFFFFFF
310
FFFFFFFFFFFFFFFFFFFFFFFFFFFFFFFFFFFFFFFFFFFFFFFFFFFFFFFFFFFFFFFF
310
FFFFFFFFFFFFFFFFFFFFFFFFFFFFFFFFFFFFFFFFFFFFFFFFFFFFFFFFFFFFFFFF
310
FFFFFFFFFFFFFFFFF000FFFFFFFFFFFFFFFFFFFFFFFFFFFFFFFFFFFFFFFFFFFF
310
FFFFFFFFFFFFFFFFFFFFFFFFFFFFFFFFFFFFFFFFFFFFFFFFFFFFFFFFFFFFFFFF
310
FFFFFFFFFFFFFFFFFFFFFFFFFFFFFFFFFFFFFFFFFFFFFFFFFFFFFFFFFFFFFFFF
310
F000FFFFFFFFFFFFFFFFFFFFFFFFFFFFFFFFFFFFFFFFFFFFFFFFFFFFFFFFFFFF
310
FFFFFFFFFFFFFFFFFFFFFFFFFFFFFFFFFFFFFFFFFFFFFFFFFFFFFFFFFFFFFFFF
310
FFFFFFFFFFFFFFFFFFFFFFFFFFFFFFFFFFFFFFFFFFFFFFFFF000FFFFFFFFFFFF
310
FFFFFFFFFFFFFFFFFFFFFFFFFFFFFFFFFFFFFFFFFFFFFFFFFFFFFFFFFFFFFFFF
310
FFFFFFFFFFFFFFFFFFFFFFFFFFFFFFFFFFFFFFFFFFFFFFFFFFFFFFFFFFFFFFFF
310
FFFFFFFFFFFFFFFFFFFFFFFFFFFFFFFFF000FFFFFFFFFFFFFFFFFFFFFFFFFFFF
310
FFFFFFFFFFFFFFFFFFFFFFFFFFFFFFFFFFFFFFFFFFFFFFFFFFFFFFFFFFFFFFFF
310
FFFFFFFFFFFFFFFFFFFFFFFFFFFFFFFFFFFFFFFFFFFFFFFFFFFFFFFFFFFFFFFF
310
FFFFFFFFFFFFFFFFF000FFFFFFFFFFFFFFFFFFFFFFFFFFFFFFFFFFFFFFFFFFFF
310
FFFFFFFFFFFFFFFFFFFFFFFFFFFFFFFFFFFFFFFFFFFFFFFFFFFFFFFFFFFFFFFF
310
FFFFFFFFFFFFFFFFFFFFFFFFFFFFFFFFFFFFFFFFFFFFFFFFFFFFFFFFFFFFFFFF
310
F000FFFFFFFFFFFFFFFFFFFFFFFFFFFFFFFFFFFFFFFFFFFFFFFFFFFFFFFFFFFF
310
FFFFFFFFFFFFFFFFFFFFFFFFFFFFFFFFFFFFFFFFFFFFFFFFFFFFFFFFFFFFFFFF
310
FFFFFFFFFFFFFFFFFFFFFFFFFFFFFFFFFFFFFFFFFFFFFFFFF000FFFFFFFFFFFF
310
FFFFFFFFFFFFFFFFFFFFFFFFFFFFFFFFFFFFFFFFFFFFFFFFFFFFFFFFFFFFFFFF
310
FFFFFFFFFFFFFFFFFFFFFFFFFFFFFFFFFFFFFFFFFFFFFFFFFFFFFFFFFFFFFFFF
310
FFFFFFFFFFFFFFFFFFFFFFFFFFFFFFFFF000FFFFFFFFFFFFFFFFFFFFFFFFFFFF
310
FFFFFFFFFFFFFFFFFFFFFFFFFFFFFFFFFFFFFFFFFFFFFFFFFFFFFFFFFFFFFFFF
310
FFFFFFFFFFFFFFFFFFFFFFFFFFFFFFFFFFFFFFFFFFFFFFFFFFFFFFFFFFFFFFFF
310
FFFFFFFFFFFFFFFFF000FFFFFFFFFFFFFFFFFFFFFFFFFFFFFFFFFFFFFFFFFFFF
310
FFFFFFFFFFFFFFFFFFFFFFFFFFFFFFFFFFFFFFFFFFFFFFFFFFFFFFFFFFFFFFFF
310
FFFFFFFFFFFFFFFFFFFFFFFFFFFFFFFFFFFFFFFFFFFFFFFFFFFFFFFFFFFFFFFF
310
F000FFFFFFFFFFFFFFFFFFFFFFFFFFFFFFFFFFFFFFFFFFFFFFFFFFFFFFFFFFFF
310
FFFFFFFFFFFFFFFFFFFFFFFFFFFFFFFFFFFFFFFFFFFFFFFFFFFFFFFFFFFFFFFF
310
FFFFFFFFFFFFFFFFFFFFFFFFFFFFFFFFFFFFFFFFFFFFFFFFF000FFFFFFFFFFFF
310
FFFFFFFFFFFFFFFFFFFFFFFFFFFFFFFFFFFFFFFFFFFFFFFFFFFFFFFFFFFFFFFF
310
FFFFFFFFFFFFFFFFFFFFFFFFFFFFFFFFFFFFFFFFFFFFFFFFFFFFFFFFFFFFFFFF
310
FFFFFFFFFFFFFFFFFFFFFFFFFFFFFFFFF000FFFFFFFFFFFFFFFFFFFFFFFFFFFF
310
FFFFFFFFFFFFFFFFFFFFFFFFFFFFFFFFFFFFFFFFFFFFFFFFFFFFFFFFFFFFFFFF
310
FFFFFFFFFFFFFFFFFFFFFFFFFFFFFFFFFFFFFFFFFFFFFFFFFFFFFFFFFFFFFFFF
310
FFFFFFFFFFFFFFFFF000FFFFFFFFFFFFFFFFFFFFFFFFFFFFFFFFFFFFFFFFFFFF
310
FFFFFFFFFFFFFFFFFFFFFFFFFFFFFFFFFFFFFFFFFFFFFFFFFFFFFFFFFFFFFFFF
310
FFFFFFFFFFFFFFFFFFFFFFFFFFFFFFFFFFFFFFFFFFFFFFFFFFFFFFFFFFFFFFFF
310
F000FFFFFFFFFFFFFFFFFFFFFFFFFFFFFFFFFFFFFFFFFFFFFFFFFFFFFFFFFFFF
310
FFFFFFFFFFFFFFFFFFFFFFFFFFFFFFFFFFFFFFFFFFFFFFFFFFFFFFFFFFFFFFFF
310
FFFFFFFFFFFFFFFFFFFFFFFFFFFFFFFFFFFFFFFFFFFFFFFFF000FFFFFFFFFFFF
310
FFFFFFFFFFFFFFFFFFFFFFFFFFFFFFFFFFFFFFFFFFFFFFFFFFFFFFFFFFFFFFFF
310
FFFFFFFFFFFFFFFFFFFFFFFFFFFFFFFFFFFFFFFFFFFFFFFFFFFFFFFFFFFFFFFF
310
FFFFFFFFFFFFFFFFFFFFFFFFFFFFFFFFF000FFFFFFFFFFFFFFFFFFFFFFFFFFFF
310
FFFFFFFFFFFFFFFFFFFFFFFFFFFFFFFFFFFFFFFFFFFFFFFFFFFFFFFFFFFFFFFF
310
FFFFFFFFFFFFFFFFFFFFFFFFFFFFFFFFFFFFFFFFFFFFFFFFFFFFFFFFFFFFFFFF
310
FFFFFFFFFFFFFFFFF000FFFFFFFFFFFFFFFFFFFFFFFFFFFFFFFFFFFFFFFFFFFF
310
FFFFFFFFFFFFFFFFFFFFFFFFFFFFFFFFFFFFFFFFFFFFFFFFFFFFFFFFFFFFFFFF
310
FFFFFFFFFFFFFFFFFFFFFFFFFFFFFFFFFFFFFFFFFFFFFFFFFFFFFFFFFFFFFFFF
310
F000FFFFFFFFFFFFFFFFFFFFFFFFFFFFFFFFFFFFFFFFFFFFFFFFFFFFFFFFFFFF
310
FFFFFFFFFFFFFFFFFFFFFFFFFFFFFFFFFFFFFFFFFFFFFFFFFFFFFFFFFFFFFFFF
310
FFFFFFFFFFFFFFFFFFFFFFFFFFFFFFFFFFFFFFFFFFFFFFFFF000FFFFFFFFFFFF
310
FFFFFFFFFFFFFFFFFFFFFFFFFFFFFFFFFFFFFFFFFFFFFFFFFFFFFFFFFFFFFFFF
310
FFFFFFFFFFFFFFFFFFFFFFFFFFFFFFFFFFFFFFFFFFFFFFFFFFFFFFFFFFFFFFFF
310
FFFFFFFFFFFFFFFFFFFFFFFFFFFFFFFFF0000000000000000000000000000000
310
0000000000000000000000000000000000000000000000000000000000000000
310
0000000000000000000000000000000000000000000000000000000000000000
310
0000000000000000000000000000000000000000000000000000000000000000
310
0000000000000000000000000000000000000000000000000000000000000000
310
0000000000000000000000000000000000000000000000000000000000000000
310
0000000000000000000000000000000000000000000000000000000000000000
310
0000000000000000000000000000000000000000000000000000000000000000
310
0000000000000000000000000000000000000000000000000000000000000000
310
0000000000000000000000000000000000000000000000000000000000000000
310
0000000000000000000000000000000000000000000000000000000000000000
310
0000000000000000000000000000000000000000000000000000000000000000
310
0000000000000000000000000000000000000000000000000000000000000000
310
0000000000000000000000000000000000000000000000000000000000000000
310
0000000000000000000000000000000000000000000000000000000000000000
310
0000000000000000000000000000000000000000000000000000000000000000
  1
OLE
  0
ENDSEC
  0
SECTION
  2
OBJECTS
  0
DICTIONARY
  5
C
330
0
100
AcDbDictionary
281
     1
  3
ACAD_GROUP
350
D
  3
ACAD_LAYOUT
350
1A
  3
ACAD_MLINESTYLE
350
17
  3
ACAD_PLOTSETTINGS
350
19
  3
ACAD_PLOTSTYLENAME
350
E
  0
DICTIONARY
  5
D
102
{ACAD_REACTORS
330
C
102
}
330
C
100
AcDbDictionary
281
     1
  0
DICTIONARY
  5
1A
102
{ACAD_REACTORS
330
C
102
}
330
C
100
AcDbDictionary
281
     1
  3
Layout1
350
1E
  3
Layout2
350
26
  3
Model
350
22
  0
DICTIONARY
  5
17
102
{ACAD_REACTORS
330
C
102
}
330
C
100
AcDbDictionary
281
     1
  3
Standard
350
18
  0
DICTIONARY
  5
19
102
{ACAD_REACTORS
330
C
102
}
330
C
100
AcDbDictionary
281
     1
  0
ACDBDICTIONARYWDFLT
  5
E
102
{ACAD_REACTORS
330
C
102
}
330
C
100
AcDbDictionary
281
     1
  3
Normal
350
F
100
AcDbDictionaryWithDefault
340
F
  0
LAYOUT
  5
1E
102
{ACAD_REACTORS
330
1A
102
}
330
1A
100
AcDbPlotSettings
  1

  2
none_device
  4

  6

 40
0.0
 41
0.0
 42
0.0
 43
0.0
 44
0.0
 45
0.0
 46
0.0
 47
0.0
 48
0.0
 49
0.0
140
0.0
141
0.0
142
1.0
143
1.0
 70
   688
 72
     0
 73
     0
 74
     5
  7

 75
    16
147
1.0
148
0.0
149
0.0
100
AcDbLayout
  1
Layout1
 70
     1
 71
     1
 10
0.0
 20
0.0
 11
420.0
 21
297.0
 12
0.0
 22
0.0
 32
0.0
 14
1.0000000000E+20
 24
1.0000000000E+20
 34
1.0000000000E+20
 15
-1.0000000000E+20
 25
-1.0000000000E+20
 35
-1.0000000000E+20
146
0.0
 13
0.0
 23
0.0
 33
0.0
 16
1.0
 26
0.0
 36
0.0
 17
0.0
 27
1.0
 37
0.0
 76
     0
330
1B
  0
LAYOUT
  5
26
102
{ACAD_REACTORS
330
1A
102
}
330
1A
100
AcDbPlotSettings
  1

  2
none_device
  4

  6

 40
0.0
 41
0.0
 42
0.0
 43
0.0
 44
0.0
 45
0.0
 46
0.0
 47
0.0
 48
0.0
 49
0.0
140
0.0
141
0.0
142
1.0
143
1.0
 70
   688
 72
     0
 73
     0
 74
     5
  7

 75
    16
147
1.0
148
0.0
149
0.0
100
AcDbLayout
  1
Layout2
 70
     1
 71
     2
 10
0.0
 20
0.0
 11
0.0
 21
0.0
 12
0.0
 22
0.0
 32
0.0
 14
0.0
 24
0.0
 34
0.0
 15
0.0
 25
0.0
 35
0.0
146
0.0
 13
0.0
 23
0.0
 33
0.0
 16
1.0
 26
0.0
 36
0.0
 17
0.0
 27
1.0
 37
0.0
 76
     0
330
23
  0
LAYOUT
  5
22
102
{ACAD_REACTORS
330
1A
102
}
330
1A
100
AcDbPlotSettings
  1

  2
none_device
  4

  6

 40
0.0
 41
0.0
 42
0.0
 43
0.0
 44
0.0
 45
0.0
 46
0.0
 47
0.0
 48
0.0
 49
0.0
140
0.0
141
0.0
142
1.0
143
1.0
 70
  1712
 72
     0
 73
     0
 74
     0
  7

 75
     0
147
1.0
148
0.0
149
0.0
100
AcDbLayout
  1
Model
 70
     1
 71
     0
 10
0.0
 20
0.0
 11
297.0
 21
210.0
 12
0.0
 22
0.0
 32
0.0
 14
0.0
 24
0.0
 34
0.0
 15
297.0
 25
210.0
 35
0.0
146
0.0
 13
0.0
 23
0.0
 33
0.0
 16
1.0
 26
0.0
 36
0.0
 17
0.0
 27
1.0
 37
0.0
 76
     0
330
1F
331
29
  0
MLINESTYLE
  5
18
102
{ACAD_REACTORS
330
17
102
}
330
17
100
AcDbMlineStyle
  2
Standard
 70
     0
  3

 62
   256
 51
90.0
 52
90.0
 71
     2
 49
0.5
 62
   256
  6
BYLAYER
 49
-0.5
 62
   256
  6
BYLAYER
  0
ACDBPLACEHOLDER
  5
F
102
{ACAD_REACTORS
330
E
102
}
330
E
  0
ENDSEC
  0
EOF
