  0
SECTION
  2
HEADER
  9
$ACADVER
  1
AC1015
  9
$ACADMAINTVER
 70
     6
  9
$DWGCODEPAGE
  3
ANSI_1252
  9
$INSBASE
 10
0.0
 20
0.0
 30
0.0
  9
$EXTMIN
 10
0.0
 20
0.0
 30
0.0
  9
$EXTMAX
 10
297.0
 20
210.0
 30
0.0
  9
$LIMMIN
 10
0.0
 20
0.0
  9
$LIMMAX
 10
297.0
 20
210.0
  9
$ORTHOMODE
 70
     0
  9
$REGENMODE
 70
     1
  9
$FILLMODE
 70
     1
  9
$QTEXTMODE
 70
     0
  9
$MIRRTEXT
 70
     1
  9
$LTSCALE
 40
1.0
  9
$ATTMODE
 70
     1
  9
$TEXTSIZE
 40
2.0
  9
$TRACEWID
 40
1.0
  9
$TEXTSTYLE
  7
Standard
  9
$CLAYER
  8
0
  9
$CELTYPE
  6
ByLayer
  9
$CECOLOR
 62
   256
  9
$CELTSCALE
 40
1.0
  9
$DISPSILH
 70
     0
  9
$DIMSCALE
 40
1.0
  9
$DIMASZ
 40
3.0
  9
$DIMEXO
 40
0.0
  9
$DIMDLI
 40
3.75
  9
$DIMRND
 40
0.0
  9
$DIMDLE
 40
0.0
  9
$DIMEXE
 40
1.0
  9
$DIMTP
 40
0.0
  9
$DIMTM
 40
0.0
  9
$DIMTXT
 40
2.0
  9
$DIMCEN
 40
2.5
  9
$DIMTSZ
 40
0.0
  9
$DIMTOL
 70
     0
  9
$DIMLIM
 70
     0
  9
$DIMTIH
 70
     1
  9
$DIMTOH
 70
     1
  9
$DIMSE1
 70
     0
  9
$DIMSE2
 70
     0
  9
$DIMTAD
 70
     1
  9
$DIMZIN
 70
     0
  9
$DIMBLK
  1

  9
$DIMASO
 70
     1
  9
$DIMSHO
 70
     1
  9
$DIMPOST
  1

  9
$DIMAPOST
  1

  9
$DIMALT
 70
     0
  9
$DIMALTD
 70
     3
  9
$DIMALTF
 40
0.0393700787
  9
$DIMLFAC
 40
1.0
  9
$DIMTOFL
 70
     1
  9
$DIMTVP
 40
0.0
  9
$DIMTIX
 70
     0
  9
$DIMSOXD
 70
     0
  9
$DIMSAH
 70
     0
  9
$DIMBLK1
  1

  9
$DIMBLK2
  1

  9
$DIMSTYLE
  2
ISO-25
  9
$DIMCLRD
 70
     0
  9
$DIMCLRE
 70
     0
  9
$DIMCLRT
 70
     0
  9
$DIMTFAC
 40
1.0
  9
$DIMGAP
 40
1.524
  9
$DIMJUST
 70
     0
  9
$DIMSD1
 70
     0
  9
$DIMSD2
 70
     0
  9
$DIMTOLJ
 70
     0
  9
$DIMTZIN
 70
     0
  9
$DIMALTZ
 70
     0
  9
$DIMALTTZ
 70
     0
  9
$DIMUPT
 70
     0
  9
$DIMDEC
 70
     2
  9
$DIMTDEC
 70
     3
  9
$DIMALTU
 70
     2
  9
$DIMALTTD
 70
     3
  9
$DIMTXSTY
  7
Standard
  9
$DIMAUNIT
 70
     0
  9
$DIMADEC
 70
     2
  9
$DIMALTRND
 40
0.0
  9
$DIMAZIN
 70
     0
  9
$DIMDSEP
 70
    44
  9
$DIMATFIT
 70
     3
  9
$DIMFRAC
 70
     0
  9
$DIMLDRBLK
  1

  9
$DIMLUNIT
 70
     2
  9
$DIMLWD
 70
    -2
  9
$DIMLWE
 70
    -2
  9
$DIMTMOVE
 70
     0
  9
$LUNITS
 70
     2
  9
$LUPREC
 70
     2
  9
$SKETCHINC
 40
1.0
  9
$FILLETRAD
 40
10.0
  9
$AUNITS
 70
     0
  9
$AUPREC
 70
     2
  9
$MENU
  1
.
  9
$ELEVATION
 40
0.0
  9
$PELEVATION
 40
0.0
  9
$THICKNESS
 40
0.0
  9
$LIMCHECK
 70
     0
  9
$CHAMFERA
 40
10.0
  9
$CHAMFERB
 40
10.0
  9
$CHAMFERC
 40
20.0
  9
$CHAMFERD
 40
0.0
  9
$SKPOLY
 70
     0
  9
$TDCREATE
 40
2456050.464363611
  9
$TDUCREATE
 40
2456050.381030278
  9
$TDUPDATE
 40
2456050.464365231
  9
$TDUUPDATE
 40
2456050.381031898
  9
$TDINDWG
 40
0.0000000116
  9
$TDUSRTIMER
 40
0.0000000116
  9
$USRTIMER
 70
     1
  9
$ANGBASE
 50
0.0
  9
$ANGDIR
 70
     0
  9
$PDMODE
 70
     0
  9
$PDSIZE
 40
-1.0
  9
$PLINEWID
 40
0.0
  9
$SPLFRAME
 70
     0
  9
$SPLINETYPE
 70
     6
  9
$SPLINESEGS
 70
     8
  9
$HANDSEED
  5
25E
  9
$SURFTAB1
 70
     6
  9
$SURFTAB2
 70
     6
  9
$SURFTYPE
 70
     6
  9
$SURFU
 70
     6
  9
$SURFV
 70
     6
  9
$UCSBASE
  2

  9
$UCSNAME
  2

  9
$UCSORG
 10
0.0
 20
0.0
 30
0.0
  9
$UCSXDIR
 10
1.0
 20
0.0
 30
0.0
  9
$UCSYDIR
 10
0.0
 20
1.0
 30
0.0
  9
$UCSORTHOREF
  2

  9
$UCSORTHOVIEW
 70
     0
  9
$UCSORGTOP
 10
0.0
 20
0.0
 30
0.0
  9
$UCSORGBOTTOM
 10
0.0
 20
0.0
 30
0.0
  9
$UCSORGLEFT
 10
0.0
 20
0.0
 30
0.0
  9
$UCSORGRIGHT
 10
0.0
 20
0.0
 30
0.0
  9
$UCSORGFRONT
 10
0.0
 20
0.0
 30
0.0
  9
$UCSORGBACK
 10
0.0
 20
0.0
 30
0.0
  9
$PUCSBASE
  2

  9
$PUCSNAME
  2

  9
$PUCSORG
 10
0.0
 20
0.0
 30
0.0
  9
$PUCSXDIR
 10
1.0
 20
0.0
 30
0.0
  9
$PUCSYDIR
 10
0.0
 20
1.0
 30
0.0
  9
$PUCSORTHOREF
  2

  9
$PUCSORTHOVIEW
 70
     0
  9
$PUCSORGTOP
 10
0.0
 20
0.0
 30
0.0
  9
$PUCSORGBOTTOM
 10
0.0
 20
0.0
 30
0.0
  9
$PUCSORGLEFT
 10
0.0
 20
0.0
 30
0.0
  9
$PUCSORGRIGHT
 10
0.0
 20
0.0
 30
0.0
  9
$PUCSORGFRONT
 10
0.0
 20
0.0
 30
0.0
  9
$PUCSORGBACK
 10
0.0
 20
0.0
 30
0.0
  9
$USERI1
 70
     0
  9
$USERI2
 70
     0
  9
$USERI3
 70
     0
  9
$USERI4
 70
     0
  9
$USERI5
 70
     0
  9
$USERR1
 40
0.0
  9
$USERR2
 40
0.0
  9
$USERR3
 40
0.0
  9
$USERR4
 40
0.0
  9
$USERR5
 40
0.0
  9
$WORLDVIEW
 70
     1
  9
$SHADEDGE
 70
     3
  9
$SHADEDIF
 70
    70
  9
$TILEMODE
 70
     1
  9
$MAXACTVP
 70
    64
  9
$PINSBASE
 10
0.0
 20
0.0
 30
0.0
  9
$PLIMCHECK
 70
     0
  9
$PEXTMIN
 10
1.0000000000E+20
 20
1.0000000000E+20
 30
1.0000000000E+20
  9
$PEXTMAX
 10
-1.0000000000E+20
 20
-1.0000000000E+20
 30
-1.0000000000E+20
  9
$PLIMMIN
 10
0.0
 20
0.0
  9
$PLIMMAX
 10
420.0
 20
297.0
  9
$UNITMODE
 70
     0
  9
$VISRETAIN
 70
     1
  9
$PLINEGEN
 70
     0
  9
$PSLTSCALE
 70
     1
  9
$TREEDEPTH
 70
  3020
  9
$CMLSTYLE
  2
Standard
  9
$CMLJUST
 70
     0
  9
$CMLSCALE
 40
20.0
  9
$PROXYGRAPHICS
 70
     1
  9
$MEASUREMENT
 70
     1
  9
$CELWEIGHT
370
    -1
  9
$ENDCAPS
280
     0
  9
$JOINSTYLE
280
     0
  9
$LWDISPLAY
290
     1
  9
$INSUNITS
 70
     4
  9
$HYPERLINKBASE
  1

  9
$STYLESHEET
  1

  9
$XEDIT
290
     1
  9
$CEPSNTYPE
380
     0
  9
$PSTYLEMODE
290
     1
  9
$FINGERPRINTGUID
  2
{176084DB-80CD-443E-892F-DDE98E5D3733}
  9
$VERSIONGUID
  2
{FAEB1C32-E019-11D5-929B-00C0DF256EC4}
  9
$EXTNAMES
290
     1
  9
$PSVPSCALE
 40
0.0
  9
$OLESTARTUP
290
     0
  0
ENDSEC
  0
SECTION
  2
CLASSES
  0
CLASS
  1
ACDBDICTIONARYWDFLT
  2
AcDbDictionaryWithDefault
  3
ObjectDBX Classes
 90
        0
280
     0
281
     0
  0
CLASS
  1
VISUALSTYLE
  2
AcDbVisualStyle
  3
ObjectDBX Classes
 90
     4095
280
     0
281
     0
  0
CLASS
  1
MATERIAL
  2
AcDbMaterial
  3
ObjectDBX Classes
 90
     1153
280
     0
281
     0
  0
CLASS
  1
ACDBPLACEHOLDER
  2
AcDbPlaceHolder
  3
ObjectDBX Classes
 90
        0
280
     0
281
     0
  0
CLASS
  1
LAYOUT
  2
AcDbLayout
  3
ObjectDBX Classes
 90
        0
280
     0
281
     0
  0
ENDSEC
  0
SECTION
  2
TABLES
  0
TABLE
  2
VPORT
  5
8
330
0
100
AcDbSymbolTable
 70
     1
  0
VPORT
  5
29
330
8
100
AcDbSymbolTableRecord
100
AcDbViewportTableRecord
  2
*Active
 70
     0
 10
0.0
 20
0.0
 11
1.0
 21
1.0
 12
148.5
 22
105.0
 13
0.0
 23
0.0
 14
10.0
 24
10.0
 15
10.0
 25
10.0
 16
0.0
 26
0.0
 36
1.0
 17
0.0
 27
0.0
 37
0.0
 40
210.0
 41
1.4142857143
 42
50.0
 43
0.0
 44
0.0
 50
0.0
 51
0.0
 71
     0
 72
  2000
 73
     1
 74
     3
 75
     0
 76
     0
 77
     0
 78
     0
281
     0
 65
     1
110
0.0
120
0.0
130
0.0
111
1.0
121
0.0
131
0.0
112
0.0
122
1.0
132
0.0
 79
     0
146
0.0
  0
ENDTAB
  0
TABLE
  2
LTYPE
  5
5
330
0
100
AcDbSymbolTable
 70
     6
  0
LTYPE
  5
14
330
5
100
AcDbSymbolTableRecord
100
AcDbLinetypeTableRecord
  2
ByBlock
 70
     0
  3

 72
    65
 73
     0
 40
0.0
  0
LTYPE
  5
15
330
5
100
AcDbSymbolTableRecord
100
AcDbLinetypeTableRecord
  2
ByLayer
 70
     0
  3

 72
    65
 73
     0
 40
0.0
  0
LTYPE
  5
16
330
5
100
AcDbSymbolTableRecord
100
AcDbLinetypeTableRecord
  2
Continuous
 70
     0
  3
Solid line
 72
    65
 73
     0
 40
0.0
  0
LTYPE
  5
3F
330
5
100
AcDbSymbolTableRecord
100
AcDbLinetypeTableRecord
  2
HIDDEN
 70
     0
  3
Hidden __ __ __ __ __ __ __ __ __ __ __ __ __ __
 72
    65
 73
     2
 40
1.905
 49
1.27
 74
     0
 49
-0.635
 74
     0
  0
LTYPE
  5
40
330
5
100
AcDbSymbolTableRecord
100
AcDbLinetypeTableRecord
  2
PHANTOM
 70
     0
  3
Phantom ______  __  __  ______  __  __  ______
 72
    65
 73
     6
 40
12.7
 49
6.35
 74
     0
 49
-1.27
 74
     0
 49
1.27
 74
     0
 49
-1.27
 74
     0
 49
1.27
 74
     0
 49
-1.27
 74
     0
  0
LTYPE
  5
41
330
5
100
AcDbSymbolTableRecord
100
AcDbLinetypeTableRecord
  2
CENTER
 70
     0
  3
Center ____ _ ____ _ ____ _ ____ _ ____ _ ____
 72
    65
 73
     4
 40
10.16
 49
6.35
 74
     0
 49
-1.27
 74
     0
 49
1.27
 74
     0
 49
-1.27
 74
     0
  0
LTYPE
  5
42
330
5
100
AcDbSymbolTableRecord
100
AcDbLinetypeTableRecord
  2
CENTERX2
 70
     0
  3
Center (2x) ________  __  ________  __  _____
 72
    65
 73
     4
 40
20.32
 49
12.7
 74
     0
 49
-2.54
 74
     0
 49
2.54
 74
     0
 49
-2.54
 74
     0
  0
LTYPE
  5
43
330
5
100
AcDbSymbolTableRecord
100
AcDbLinetypeTableRecord
  2
DOT2
 70
     0
  3
Dot (.5x) ........................................
 72
    65
 73
     2
 40
0.635
 49
0.0
 74
     0
 49
-0.635
 74
     0
  0
ENDTAB
  0
TABLE
  2
LAYER
  5
2
330
0
100
AcDbSymbolTable
 70
     5
  0
LAYER
  5
10
330
2
100
AcDbSymbolTableRecord
100
AcDbLayerTableRecord
  2
0
 70
     0
 62
     7
  6
Continuous
370
    -3
390
F
  0
LAYER
  5
44
330
2
100
AcDbSymbolTableRecord
100
AcDbLayerTableRecord
  2
FORMAT
 70
     0
 62
     7
  6
Continuous
370
    -3
390
F
  0
LAYER
  5
45
330
2
100
AcDbSymbolTableRecord
100
AcDbLayerTableRecord
  2
VERMASSUNG
 70
     0
 62
     7
  6
Continuous
370
    -3
390
F
  0
LAYER
  5
46
330
2
100
AcDbSymbolTableRecord
100
AcDbLayerTableRecord
  2
KOPF_DÜNN
 70
     0
 62
     7
  6
Continuous
370
    -3
390
F
  0
LAYER
  5
47
330
2
100
AcDbSymbolTableRecord
100
AcDbLayerTableRecord
  2
KOPF_DICK
 70
     0
 62
     7
  6
Continuous
370
    15
390
F
  0
ENDTAB
  0
TABLE
  2
STYLE
  5
3
330
0
100
AcDbSymbolTable
 70
     2
  0
STYLE
  5
11
330
3
100
AcDbSymbolTableRecord
100
AcDbTextStyleTableRecord
  2
Standard
 70
     0
 40
0.0
 41
1.0
 50
0.0
 71
     0
 42
2.0
  3
txt
  4

  0
STYLE
  5
48
330
3
100
AcDbSymbolTableRecord
100
AcDbTextStyleTableRecord
  2
SLDTEXTSTYLE0
 70
     0
 40
0.0
 41
0.7
 50
0.0
 71
     0
 42
0.2
  3
TXT
  4

  0
ENDTAB
  0
TABLE
  2
VIEW
  5
6
330
0
100
AcDbSymbolTable
 70
     0
  0
ENDTAB
  0
TABLE
  2
UCS
  5
7
330
0
100
AcDbSymbolTable
 70
     0
  0
ENDTAB
  0
TABLE
  2
APPID
  5
9
330
0
100
AcDbSymbolTable
 70
     1
  0
APPID
  5
12
330
9
100
AcDbSymbolTableRecord
100
AcDbRegAppTableRecord
  2
ACAD
 70
     0
  0
ENDTAB
  0
TABLE
  2
DIMSTYLE
  5
A
330
0
100
AcDbSymbolTable
 70
     5
100
AcDbDimStyleTable
  0
DIMSTYLE
105
27
330
A
100
AcDbSymbolTableRecord
100
AcDbDimStyleTableRecord
  2
ISO-25
 70
     0
 41
2.5
 42
0.625
 43
3.75
 44
1.25
 73
     0
 74
     0
 77
     1
 78
     8
140
2.5
141
2.5
143
0.0393700787
147
0.625
171
     3
172
     1
178
     0
271
     2
272
     2
274
     3
278
    44
283
     0
284
     8
340
11
  0
DIMSTYLE
105
1BB
102
{ACAD_REACTORS
330
1BA
330
1E7
102
}
330
A
100
AcDbSymbolTableRecord
100
AcDbDimStyleTableRecord
  2
SLDDIMSTYLE0
 70
     0
 41
3.0
 44
0.0
 45
0.000000001
 73
     0
 74
     0
 77
     1
 78
    12
 79
     3
140
2.0
147
0.5
173
     1
178
     0
271
     2
272
     3
276
     2
284
    12
340
48
  0
DIMSTYLE
105
1C6
102
{ACAD_REACTORS
330
1C5
330
1D2
102
}
330
A
100
AcDbSymbolTableRecord
100
AcDbDimStyleTableRecord
  2
SLDDIMSTYLE1
 70
     0
 41
3.0
 44
0.0
 45
0.000000001
 47
0.1
 48
0.1
 71
     1
 73
     0
 74
     0
 77
     1
 78
    12
 79
     3
140
2.0
147
0.5
173
     1
178
     0
271
     2
272
     1
276
     2
284
     8
340
48
  0
DIMSTYLE
105
1DF
102
{ACAD_REACTORS
330
1DE
102
}
330
A
100
AcDbSymbolTableRecord
100
AcDbDimStyleTableRecord
  2
SLDDIMSTYLE2
 70
     0
 41
3.0
 44
0.0
 73
     0
 74
     0
 77
     1
 78
    12
 79
     3
140
2.0
147
0.5
173
     1
178
     0
179
     1
272
     3
276
     2
284
    12
340
48
  0
DIMSTYLE
105
243
102
{ACAD_REACTORS
330
242
102
}
330
A
100
AcDbSymbolTableRecord
100
AcDbDimStyleTableRecord
  2
SLDDIMSTYLE3
 70
     0
 41
3.0
 44
0.0
 45
0.000000001
 73
     0
 74
     0
 77
     1
 78
    12
 79
     3
140
2.0
147
0.5
172
     1
173
     1
178
     0
271
     2
272
     3
276
     2
284
    12
289
     0
340
48
  0
ENDTAB
  0
TABLE
  2
BLOCK_RECORD
  5
1
330
0
100
AcDbSymbolTable
 70
     8
  0
BLOCK_RECORD
  5
1F
330
1
100
AcDbSymbolTableRecord
100
AcDbBlockTableRecord
  2
*Model_Space
340
22
  0
BLOCK_RECORD
  5
1B
330
1
100
AcDbSymbolTableRecord
100
AcDbBlockTableRecord
  2
*Paper_Space
340
1E
  0
BLOCK_RECORD
  5
23
330
1
100
AcDbSymbolTableRecord
100
AcDbBlockTableRecord
  2
*Paper_Space0
340
26
  0
BLOCK_RECORD
  5
1BC
330
1
100
AcDbSymbolTableRecord
100
AcDbBlockTableRecord
  2
_D
340
0
  0
BLOCK_RECORD
  5
1C7
330
1
100
AcDbSymbolTableRecord
100
AcDbBlockTableRecord
  2
_D_1
340
0
  0
BLOCK_RECORD
  5
1D3
330
1
100
AcDbSymbolTableRecord
100
AcDbBlockTableRecord
  2
_D_2
340
0
  0
BLOCK_RECORD
  5
1E0
330
1
100
AcDbSymbolTableRecord
100
AcDbBlockTableRecord
  2
_D_3
340
0
  0
BLOCK_RECORD
  5
1E8
330
1
100
AcDbSymbolTableRecord
100
AcDbBlockTableRecord
  2
_D_4
340
0
  0
BLOCK_RECORD
  5
244
330
1
100
AcDbSymbolTableRecord
100
AcDbBlockTableRecord
  2
_D_5
340
0
  0
BLOCK_RECORD
  5
251
330
1
100
AcDbSymbolTableRecord
100
AcDbBlockTableRecord
  2
SW_CENTERMARKSYMBOL_0
340
0
102
{BLKREFS
331
25C
102
}
  0
ENDTAB
  0
ENDSEC
  0
SECTION
  2
BLOCKS
  0
BLOCK
  5
20
330
1F
100
AcDbEntity
  8
0
100
AcDbBlockBegin
  2
*Model_Space
 70
     0
 10
0.0
 20
0.0
 30
0.0
  3
*Model_Space
  1

  0
ENDBLK
  5
21
330
1F
100
AcDbEntity
  8
0
100
AcDbBlockEnd
  0
BLOCK
  5
1C
330
1B
100
AcDbEntity
 67
     1
  8
0
100
AcDbBlockBegin
  2
*Paper_Space
 70
     0
 10
0.0
 20
0.0
 30
0.0
  3
*Paper_Space
  1

  0
ENDBLK
  5
1D
330
1B
100
AcDbEntity
 67
     1
  8
0
100
AcDbBlockEnd
  0
BLOCK
  5
24
330
23
100
AcDbEntity
  8
0
100
AcDbBlockBegin
  2
*Paper_Space0
 70
     0
 10
0.0
 20
0.0
 30
0.0
  3
*Paper_Space0
  1

  0
ENDBLK
  5
25
330
23
100
AcDbEntity
  8
0
100
AcDbBlockEnd
  0
BLOCK
  5
1BD
330
1BC
100
AcDbEntity
  8
0
100
AcDbBlockBegin
  2
_D
 70
     0
 10
0.0
 20
0.0
 30
0.0
  3
_D
  1

  0
SOLID
  5
1BF
330
1BC
100
AcDbEntity
  8
VERMASSUNG
100
AcDbTrace
 10
229.1044888877
 20
153.1250600273
 30
0.0
 11
226.1044888877
 21
153.5750600273
 31
0.0
 12
226.1044888877
 22
152.6750600273
 32
0.0
 13
226.1044888877
 23
152.6750600273
 33
0.0
  0
SOLID
  5
1C0
330
1BC
100
AcDbEntity
  8
VERMASSUNG
100
AcDbTrace
 10
155.1044888877
 20
153.1250600273
 30
0.0
 11
158.1044888877
 21
152.6750600273
 31
0.0
 12
158.1044888877
 22
153.5750600273
 32
0.0
 13
158.1044888877
 23
153.5750600273
 33
0.0
  0
LINE
  5
1C1
330
1BC
100
AcDbEntity
  8
VERMASSUNG
100
AcDbLine
 10
229.1044888877
 20
139.3479372406
 30
0.0
 11
229.1044888877
 21
154.1250600273
 31
0.0
  0
LINE
  5
1C2
330
1BC
100
AcDbEntity
  8
VERMASSUNG
100
AcDbLine
 10
155.1044888877
 20
124.9794422227
 30
0.0
 11
155.1044888877
 21
154.1250600273
 31
0.0
  0
LINE
  5
1C3
330
1BC
100
AcDbEntity
  8
VERMASSUNG
100
AcDbLine
 10
229.1044888877
 20
153.1250600273
 30
0.0
 11
155.1044888877
 21
153.1250600273
 31
0.0
  0
MTEXT
  5
1C4
330
1BC
100
AcDbEntity
  8
VERMASSUNG
100
AcDbMText
 10
189.7044887737
 20
155.7031953904
 30
0.1
 40
2.0
 41
0.0
 71
     1
 72
     1
  1
74
  7
SLDTEXTSTYLE0
 73
     1
 44
1.0
  0
ENDBLK
  5
1BE
330
1BC
100
AcDbEntity
  8
0
100
AcDbBlockEnd
  0
BLOCK
  5
1C8
330
1C7
100
AcDbEntity
  8
0
100
AcDbBlockBegin
  2
_D_1
 70
     0
 10
0.0
 20
0.0
 30
0.0
  3
_D_1
  1

  0
SOLID
  5
1CA
330
1C7
100
AcDbEntity
  8
VERMASSUNG
100
AcDbTrace
 10
179.1044888877
 20
145.1681093334
 30
0.0
 11
182.1044888877
 21
144.7181093334
 31
0.0
 12
182.1044888877
 22
145.6181093334
 32
0.0
 13
182.1044888877
 23
145.6181093334
 33
0.0
  0
SOLID
  5
1CB
330
1C7
100
AcDbEntity
  8
VERMASSUNG
100
AcDbTrace
 10
229.1044888877
 20
145.1681093334
 30
0.0
 11
226.1044888877
 21
145.6181093334
 31
0.0
 12
226.1044888877
 22
144.7181093334
 32
0.0
 13
226.1044888877
 23
144.7181093334
 33
0.0
  0
LINE
  5
1CC
330
1C7
100
AcDbEntity
  8
VERMASSUNG
100
AcDbLine
 10
179.1044888877
 20
132.0479372406
 30
0.0
 11
179.1044888877
 21
146.1681093334
 31
0.0
  0
LINE
  5
1CD
330
1C7
100
AcDbEntity
  8
VERMASSUNG
100
AcDbLine
 10
229.1044888877
 20
139.3479372406
 30
0.0
 11
229.1044888877
 21
146.1681093334
 31
0.0
  0
LINE
  5
1CE
330
1C7
100
AcDbEntity
  8
VERMASSUNG
100
AcDbLine
 10
179.1044888877
 20
145.1681093334
 30
0.0
 11
229.1044888877
 21
145.1681093334
 31
0.0
  0
MTEXT
  5
1CF
330
1C7
100
AcDbEntity
  8
VERMASSUNG
100
AcDbMText
 10
199.5544887007
 20
147.7462446965
 30
0.1
 40
2.0
 41
0.0
 71
     1
 72
     1
  1
50
  7
SLDTEXTSTYLE0
 73
     1
 44
1.0
  0
MTEXT
  5
1D0
330
1C7
100
AcDbEntity
  8
VERMASSUNG
100
AcDbMText
 10
205.3419888028
 20
147.7462446965
 30
0.1
 40
2.0
 41
0.0
 71
     1
 72
     1
  1

  7
SLDTEXTSTYLE0
 73
     1
 44
1.0
  0
MTEXT
  5
1D1
330
1C7
100
AcDbEntity
  8
VERMASSUNG
100
AcDbMText
 10
205.3544890926
 20
147.2517108338
 30
0.1
 40
1.5
 41
0.0
 71
     1
 72
     1
  1
±0.1
  7
SLDTEXTSTYLE0
 73
     1
 44
1.0
  0
ENDBLK
  5
1C9
330
1C7
100
AcDbEntity
  8
0
100
AcDbBlockEnd
  0
BLOCK
  5
1D4
330
1D3
100
AcDbEntity
  8
0
100
AcDbBlockBegin
  2
_D_2
 70
     0
 10
0.0
 20
0.0
 30
0.0
  3
_D_2
  1

  0
SOLID
  5
1D6
330
1D3
100
AcDbEntity
  8
VERMASSUNG
100
AcDbTrace
 10
246.0755902991
 20
139.3479372406
 30
0.0
 11
245.6255902991
 21
136.3479372406
 31
0.0
 12
246.5255902991
 22
136.3479372406
 32
0.0
 13
246.5255902991
 23
136.3479372406
 33
0.0
  0
SOLID
  5
1D7
330
1D3
100
AcDbEntity
  8
VERMASSUNG
100
AcDbTrace
 10
246.0755902991
 20
112.3479372406
 30
0.0
 11
246.5255902991
 21
115.3479372406
 31
0.0
 12
245.6255902991
 22
115.3479372406
 32
0.0
 13
245.6255902991
 23
115.3479372406
 33
0.0
  0
LINE
  5
1D8
330
1D3
100
AcDbEntity
  8
VERMASSUNG
100
AcDbLine
 10
229.1044888877
 20
139.3479372406
 30
0.0
 11
247.0755902991
 21
139.3479372406
 31
0.0
  0
LINE
  5
1D9
330
1D3
100
AcDbEntity
  8
VERMASSUNG
100
AcDbLine
 10
229.1044888877
 20
112.3479372406
 30
0.0
 11
247.0755902991
 21
112.3479372406
 31
0.0
  0
LINE
  5
1DA
330
1D3
100
AcDbEntity
  8
VERMASSUNG
100
AcDbLine
 10
246.0755902991
 20
139.3479372406
 30
0.0
 11
246.0755902991
 21
112.3479372406
 31
0.0
  0
MTEXT
  5
1DB
330
1D3
100
AcDbEntity
  8
VERMASSUNG
100
AcDbMText
 10
243.497454936
 20
121.2979370536
 30
0.1
 40
2.0
 41
0.0
 71
     1
 72
     1
  1
27
  7
SLDTEXTSTYLE0
 11
-7.932373437343760E-15
 21
1.0
 31
0.0
 73
     1
 44
1.0
  0
MTEXT
  5
1DC
330
1D3
100
AcDbEntity
  8
VERMASSUNG
100
AcDbMText
 10
243.497454936
 20
127.0854371557
 30
0.1
 40
2.0
 41
0.0
 71
     1
 72
     1
  1

  7
SLDTEXTSTYLE0
 11
-7.932373437343760E-15
 21
1.0
 31
0.0
 73
     1
 44
1.0
  0
MTEXT
  5
1DD
330
1D3
100
AcDbEntity
  8
VERMASSUNG
100
AcDbMText
 10
243.9919887987
 20
127.0979374455
 30
0.1
 40
1.5
 41
0.0
 71
     1
 72
     1
  1
±0.1
  7
SLDTEXTSTYLE0
 11
-7.932373437343760E-15
 21
1.0
 31
0.0
 73
     1
 44
1.0
  0
ENDBLK
  5
1D5
330
1D3
100
AcDbEntity
  8
0
100
AcDbBlockEnd
  0
BLOCK
  5
1E1
330
1E0
100
AcDbEntity
  8
0
100
AcDbBlockBegin
  2
_D_3
 70
     0
 10
0.0
 20
0.0
 30
0.0
  3
_D_3
  1

  0
ARC
  5
1E3
330
1E0
100
AcDbEntity
  8
VERMASSUNG
100
AcDbCircle
 10
229.2498743223
 20
139.3479372406
 30
0.0
 40
11.00886061290428
100
AcDbArc
 50
252.5469096605
 51
0.0
  0
SOLID
  5
1E4
330
1E0
100
AcDbEntity
  8
VERMASSUNG
100
AcDbTrace
 10
225.9480433
 20
128.8458934445
 30
0.0
 11
228.8271496909
 21
127.8902541871
 31
0.0
 12
228.9808240084
 22
128.777037252
 32
0.0
 13
228.9808240084
 23
128.777037252
 33
0.0
  0
SOLID
  5
1E5
330
1E0
100
AcDbEntity
  8
VERMASSUNG
100
AcDbTrace
 10
240.2587349352
 20
139.3479372406
 30
0.0
 11
239.4148148418
 21
136.4341254972
 31
0.0
 12
240.3068636704
 22
136.3147567935
 32
0.0
 13
240.3068636704
 23
136.3147567935
 33
0.0
  0
MTEXT
  5
1E6
330
1E0
100
AcDbEntity
  8
VERMASSUNG
100
AcDbMText
 10
230.6905354433
 20
129.9478508814
 30
0.1
 40
2.0
 41
0.0
 71
     1
 72
     1
  1
107.5°
  7
SLDTEXTSTYLE0
 11
0.8062024758119982
 21
0.5916397282084803
 31
0.0
 73
     1
 44
1.0
  0
ENDBLK
  5
1E2
330
1E0
100
AcDbEntity
  8
0
100
AcDbBlockEnd
  0
BLOCK
  5
1E9
330
1E8
100
AcDbEntity
  8
0
100
AcDbBlockBegin
  2
_D_4
 70
     0
 10
0.0
 20
0.0
 30
0.0
  3
_D_4
  1

  0
SOLID
  5
1EB
330
1E8
100
AcDbEntity
  8
VERMASSUNG
100
AcDbTrace
 10
145.1044888877
 20
132.3479372406
 30
0.0
 11
144.6544888877
 21
129.3479372406
 31
0.0
 12
145.5544888877
 22
129.3479372406
 32
0.0
 13
145.5544888877
 23
129.3479372406
 33
0.0
  0
SOLID
  5
1EC
330
1E8
100
AcDbEntity
  8
VERMASSUNG
100
AcDbTrace
 10
145.1044888877
 20
92.3479372406
 30
0.0
 11
145.5544888877
 21
95.3479372406
 31
0.0
 12
144.6544888877
 22
95.3479372406
 32
0.0
 13
144.6544888877
 23
95.3479372406
 33
0.0
  0
LINE
  5
1ED
330
1E8
100
AcDbEntity
  8
VERMASSUNG
100
AcDbLine
 10
179.4044888877
 20
132.3479372406
 30
0.0
 11
144.1044888877
 21
132.3479372406
 31
0.0
  0
LINE
  5
1EE
330
1E8
100
AcDbEntity
  8
VERMASSUNG
100
AcDbLine
 10
179.4044888877
 20
92.3479372406
 30
0.0
 11
144.1044888877
 21
92.3479372406
 31
0.0
  0
LINE
  5
1EF
330
1E8
100
AcDbEntity
  8
VERMASSUNG
100
AcDbLine
 10
145.1044888877
 20
132.3479372406
 30
0.0
 11
145.1044888877
 21
92.3479372406
 31
0.0
  0
MTEXT
  5
1F0
330
1E8
100
AcDbEntity
  8
VERMASSUNG
100
AcDbMText
 10
142.3263533987
 20
105.8429373013
 30
0.4000236906
 40
2.0
 41
0.0
 71
     1
 72
     1
  1
PSC
  7
SLDTEXTSTYLE0
 11
-7.044195017643634E-15
 21
1.0
 31
0.0
 73
     1
 44
1.0
  0
MTEXT
  5
1F1
330
1E8
100
AcDbEntity
  8
VERMASSUNG
100
AcDbMText
 10
142.5263534082
 20
110.4429374034
 30
0.4000236906
 40
2.0
 41
0.0
 71
     1
 72
     1
  1
%%c
  7
SLDTEXTSTYLE0
 11
-7.044195017643634E-15
 21
1.0
 31
0.0
 73
     1
 44
1.0
  0
MTEXT
  5
1F2
330
1E8
100
AcDbEntity
  8
VERMASSUNG
100
AcDbMText
 10
142.3263533987
 20
114.0529378833
 30
0.4000236906
 40
2.0
 41
0.0
 71
     1
 72
     1
  1
40
  7
SLDTEXTSTYLE0
 11
-7.044195017643634E-15
 21
1.0
 31
0.0
 73
     1
 44
1.0
  0
ENDBLK
  5
1EA
330
1E8
100
AcDbEntity
  8
0
100
AcDbBlockEnd
  0
BLOCK
  5
245
330
244
100
AcDbEntity
  8
0
100
AcDbBlockBegin
  2
_D_5
 70
     0
 10
0.0
 20
0.0
 30
0.0
  3
_D_5
  1

  0
SOLID
  5
247
330
244
100
AcDbEntity
  8
VERMASSUNG
100
AcDbTrace
 10
106.9827874587
 20
96.5113773558
 30
0.0
 11
108.7859097507
 21
94.0718589607
 31
0.0
 12
109.4223058538
 22
94.7082550638
 32
0.0
 13
109.4223058538
 23
94.7082550638
 33
0.0
  0
SOLID
  5
248
330
244
100
AcDbEntity
  8
VERMASSUNG
100
AcDbTrace
 10
71.6274483994
 20
131.8667164151
 30
0.0
 11
69.8243261073
 21
134.3062348102
 31
0.0
 12
69.1879300043
 22
133.6698387072
 32
0.0
 13
69.1879300043
 23
133.6698387072
 33
0.0
  0
LINE
  5
249
330
244
100
AcDbEntity
  8
VERMASSUNG
100
AcDbLine
 10
106.9827874587
 20
96.5113773558
 30
0.0
 11
106.2756806775
 21
95.8042705746
 31
0.0
  0
LINE
  5
24A
330
244
100
AcDbEntity
  8
VERMASSUNG
100
AcDbLine
 10
71.6274483994
 20
131.8667164151
 30
0.0
 11
70.9203416182
 21
131.159609634
 31
0.0
  0
LINE
  5
24B
330
244
100
AcDbEntity
  8
VERMASSUNG
100
AcDbLine
 10
106.9827874587
 20
96.5113773558
 30
0.0
 11
111.2254281458
 21
92.2687366687
 31
0.0
  0
LINE
  5
24C
330
244
100
AcDbEntity
  8
VERMASSUNG
100
AcDbLine
 10
106.9827874587
 20
96.5113773558
 30
0.0
 11
71.6274483994
 21
131.8667164151
 31
0.0
  0
LINE
  5
24D
330
244
100
AcDbEntity
  8
VERMASSUNG
100
AcDbLine
 10
71.6274483994
 20
131.8667164151
 30
0.0
 11
58.4332096029
 21
145.0609552116
 31
0.0
  0
MTEXT
  5
24E
330
244
100
AcDbEntity
  8
VERMASSUNG
100
AcDbMText
 10
60.2562266833
 20
146.883972292
 30
0.1
 40
2.0
 41
0.0
 71
     1
 72
     1
  1
%%c
  7
SLDTEXTSTYLE0
 11
0.7071067811865464
 21
-0.7071067811865488
 31
0.0
 73
     1
 44
1.0
  0
MTEXT
  5
24F
330
244
100
AcDbEntity
  8
VERMASSUNG
100
AcDbMText
 10
62.9503035364
 20
144.4727381648
 30
0.1
 40
2.0
 41
0.0
 71
     1
 72
     1
  1
50
  7
SLDTEXTSTYLE0
 11
0.7071067811865464
 21
-0.7071067811865488
 31
0.0
 73
     1
 44
1.0
  0
MTEXT
  5
250
330
244
100
AcDbEntity
  8
VERMASSUNG
100
AcDbMText
 10
67.042684434
 20
140.3803572672
 30
0.1
 40
2.0
 41
0.0
 71
     1
 72
     1
  1
min.
  7
SLDTEXTSTYLE0
 11
0.7071067811865464
 21
-0.7071067811865488
 31
0.0
 73
     1
 44
1.0
  0
ENDBLK
  5
246
330
244
100
AcDbEntity
  8
0
100
AcDbBlockEnd
  0
BLOCK
  5
252
330
251
100
AcDbEntity
  8
0
100
AcDbBlockBegin
  2
SW_CENTERMARKSYMBOL_0
 70
     0
 10
0.0
 20
0.0
 30
0.0
  3
SW_CENTERMARKSYMBOL_0
  1

  0
LINE
  5
254
330
251
100
AcDbEntity
  8
VERMASSUNG
 62
     0
100
AcDbLine
 10
0.0
 20
0.0
 30
0.0
 11
0.0
 21
2.5
 31
0.0
  0
LINE
  5
255
330
251
100
AcDbEntity
  8
VERMASSUNG
 62
     0
100
AcDbLine
 10
0.0
 20
0.0
 30
0.0
 11
-2.5
 21
0.0
 31
0.0
  0
LINE
  5
256
330
251
100
AcDbEntity
  8
VERMASSUNG
 62
     0
100
AcDbLine
 10
0.0
 20
0.0
 30
0.0
 11
0.0
 21
-2.5
 31
0.0
  0
LINE
  5
257
330
251
100
AcDbEntity
  8
VERMASSUNG
 62
     0
100
AcDbLine
 10
0.0
 20
0.0
 30
0.0
 11
2.5
 21
0.0
 31
0.0
  0
LINE
  5
258
330
251
100
AcDbEntity
  8
VERMASSUNG
 62
     0
100
AcDbLine
 10
0.0
 20
5.0
 30
0.0
 11
0.0
 21
22.5
 31
0.0
  0
LINE
  5
259
330
251
100
AcDbEntity
  8
VERMASSUNG
 62
     0
100
AcDbLine
 10
-5.0
 20
0.0
 30
0.0
 11
-22.5
 21
0.0
 31
0.0
  0
LINE
  5
25A
330
251
100
AcDbEntity
  8
VERMASSUNG
 62
     0
100
AcDbLine
 10
0.0
 20
-5.0
 30
0.0
 11
0.0
 21
-22.5
 31
0.0
  0
LINE
  5
25B
330
251
100
AcDbEntity
  8
VERMASSUNG
 62
     0
100
AcDbLine
 10
5.0
 20
0.0
 30
0.0
 11
22.5
 21
0.0
 31
0.0
  0
ENDBLK
  5
253
330
251
100
AcDbEntity
  8
0
100
AcDbBlockEnd
  0
ENDSEC
  0
SECTION
  2
ENTITIES
  0
MTEXT
  5
49
330
1F
100
AcDbEntity
  8
KOPF_DÜNN
100
AcDbMText
 10
13.8892156294
 20
23.8442973028
 30
0.0
 40
3.0
 41
0.0
 71
     1
 72
     1
  1
PS4.PDF.RHA.050
  7
SLDTEXTSTYLE0
 73
     1
 44
1.0
  0
MTEXT
  5
4A
330
1F
100
AcDbEntity
  8
VERMASSUNG
100
AcDbMText
 10
13.9329988022
 20
28.8834360957
 30
0.0
 40
3.0
 41
0.0
 71
     1
 72
     1
  1
Klemmhalter rechts_Turning tool right 107.5° /55°
  7
SLDTEXTSTYLE0
 73
     1
 44
1.0
  0
MTEXT
  5
4B
330
1F
100
AcDbEntity
  8
VERMASSUNG
100
AcDbMText
 10
98.8601118557
 20
13.8365368179
 30
0.0
 40
2.0
 41
0.0
 71
     1
 72
     1
  1
Datum: 02.05.2012
  7
SLDTEXTSTYLE0
 73
     1
 44
1.0
  0
MTEXT
  5
4C
330
1F
100
AcDbEntity
  8
VERMASSUNG
100
AcDbMText
 10
13.933048693
 20
18.0482802738
 30
0.0
 40
2.0
 41
0.0
 71
     1
 72
     1
  1
PSC ø40 / DN..15 06..
  7
SLDTEXTSTYLE0
 73
     1
 44
1.0
  0
MTEXT
  5
4D
330
1F
100
AcDbEntity
  8
VERMASSUNG
100
AcDbMText
 10
13.9808475933
 20
13.9090973692
 30
0.0
 40
2.0
 41
0.0
 71
     1
 72
     1
  1
Gewicht: 388g
  7
SLDTEXTSTYLE0
 73
     1
 44
1.0
  0
LINE
  5
4E
330
1F
100
AcDbEntity
  8
0
  6
Continuous
 62
     7
370
    15
100
AcDbLine
 10
217.4573516027
 20
130.7464107196
 30
0.0
 11
217.1304183852
 21
130.2636491148
 31
0.0
  0
LINE
  5
4F
330
1F
100
AcDbEntity
  8
0
  6
Continuous
 62
     7
370
    15
100
AcDbLine
 10
224.113886224
 20
124.0631941437
 30
0.0
 11
224.7776419658
 21
125.1598195526
 31
0.0
  0
LINE
  5
50
330
1F
100
AcDbEntity
  8
0
  6
Continuous
 62
     7
370
    15
100
AcDbLine
 10
214.6095077167
 20
135.0404256361
 30
0.0
 11
214.3481365832
 21
134.6086007821
 31
0.0
  0
LINE
  5
51
330
1F
100
AcDbEntity
  8
0
  6
Continuous
 62
     7
370
    15
100
AcDbLine
 10
201.3371618997
 20
132.3479372406
 30
0.0
 11
179.4044888877
 21
132.3479372406
 31
0.0
  0
LINE
  5
52
330
1F
100
AcDbEntity
  8
0
  6
Continuous
 62
     7
370
    15
100
AcDbLine
 10
179.4044888877
 20
92.3479372406
 30
0.0
 11
201.3371618997
 21
92.3479372406
 31
0.0
  0
ARC
  5
53
330
1F
100
AcDbEntity
  8
0
  6
Continuous
 62
     7
370
    15
100
AcDbCircle
 10
179.4044888877
 20
92.6479372406
 30
0.0
 40
0.3000000000000114
100
AcDbArc
 50
180.0
 51
270.0
  0
ARC
  5
54
330
1F
100
AcDbEntity
  8
0
  6
Continuous
 62
     7
370
    15
100
AcDbCircle
 10
179.4044888877
 20
132.0479372406
 30
0.0
 40
0.2999999999999829
100
AcDbArc
 50
90.0
 51
180.0
  0
LWPOLYLINE
  5
55
330
1F
100
AcDbEntity
  8
0
  6
Continuous
 62
     7
370
    15
100
AcDbPolyline
 90
        3
 70
   128
 43
0.0
 10
178.9044888877
 20
98.2581169618
 10
179.0299438312
 20
98.1898148468
 10
179.1044888877
 20
98.1370770887
  0
LWPOLYLINE
  5
56
330
1F
100
AcDbEntity
  8
0
  6
Continuous
 62
     7
370
    15
100
AcDbPolyline
 90
        3
 70
   128
 43
0.0
 10
179.1044888877
 20
126.5587973926
 10
179.0299438312
 20
126.5060596345
 10
178.9044888877
 20
126.4377575195
  0
ARC
  5
57
330
1F
100
AcDbEntity
  8
0
  6
Continuous
 62
     7
370
    15
100
AcDbCircle
 10
201.3371618997
 20
133.3479372406
 30
0.0
 40
1.000000000000028
100
AcDbArc
 50
270.0
 51
345.0
  0
ARC
  5
58
330
1F
100
AcDbEntity
  8
0
  6
Continuous
 62
     7
370
    15
100
AcDbCircle
 10
201.3371618997
 20
91.3479372406
 30
0.0
 40
1.000000000000028
100
AcDbArc
 50
30.0
 51
90.0
  0
LINE
  5
59
330
1F
100
AcDbEntity
  8
0
  6
Continuous
 62
     7
370
    15
100
AcDbLine
 10
202.2031873035
 20
91.8479372406
 30
0.0
 11
213.4020885916
 21
91.8479372406
 31
0.0
  0
LINE
  5
5A
330
1F
100
AcDbEntity
  8
0
  6
Continuous
 62
     7
370
    15
100
AcDbLine
 10
202.323276313
 20
133.1644630278
 30
0.0
 11
202.303087726
 21
133.0891181955
 31
0.0
  0
LINE
  5
5B
330
1F
100
AcDbEntity
  8
0
  6
Continuous
 62
     7
370
    15
100
AcDbLine
 10
210.9175395399
 20
124.348637283
 30
0.0
 11
209.974613253
 21
121.3494973833
 31
0.0
  0
LWPOLYLINE
  5
5C
330
1F
100
AcDbEntity
  8
0
  6
Continuous
 62
     7
370
    15
100
AcDbPolyline
 90
        3
 70
   128
 43
0.0
 10
209.6735712788
 20
120.8521302687
 10
209.6294703581
 20
120.5887874891
 10
209.6320519577
 20
120.4857822369
  0
LINE
  5
5D
330
1F
100
AcDbEntity
  8
0
  6
Continuous
 62
     7
370
    15
100
AcDbLine
 10
210.6164975657
 20
123.8512701684
 30
0.0
 11
209.6735712788
 21
120.8521302687
 31
0.0
  0
CIRCLE
  5
5E
330
1F
100
AcDbEntity
  8
0
  6
Continuous
 62
     7
370
    15
100
AcDbCircle
 10
213.7288691069
 20
115.9149609848
 30
0.0
 40
3.461440415570775
  0
CIRCLE
  5
5F
330
1F
100
AcDbEntity
  8
0
  6
Continuous
 62
     7
370
    15
100
AcDbCircle
 10
213.7587870729
 20
115.9222493699
 30
0.0
 40
1.976859460511432
  0
SPLINE
  5
60
330
1F
100
AcDbEntity
  8
0
  6
Continuous
 62
     7
370
    15
100
AcDbSpline
210
0.0
220
0.0
230
1.0
 70
     8
 71
     3
 72
    11
 73
     7
 74
     0
 42
0.00000001
 43
0.00000001
 12
1.0
 22
0.0
 32
0.0
 13
1.0
 23
0.0
 33
0.0
 40
0.0
 40
0.0
 40
0.0
 40
0.0
 40
0.1081100880371211
 40
0.4711580666043554
 40
0.8135808430835965
 40
1.0
 40
1.0
 40
1.0
 40
1.0
 10
213.1444299161155
 20
114.3057484714859
 30
0.0
 10
213.1990725926775
 20
114.3085546083326
 30
0.0
 10
213.4372126063475
 20
114.3207841239618
 30
0.0
 10
213.9015042477128
 20
114.3621158886769
 30
0.0
 10
214.4451477061226
 20
114.449557195513
 30
0.0
 10
214.7425101167836
 20
114.5102515170613
 30
0.0
 10
214.8473317022015
 20
114.5316465380273
 30
0.0
  0
SPLINE
  5
61
330
1F
100
AcDbEntity
  8
0
  6
Continuous
 62
     7
370
    15
100
AcDbSpline
210
0.0
220
0.0
230
1.0
 70
     8
 71
     3
 72
    11
 73
     7
 74
     0
 42
0.00000001
 43
0.00000001
 12
1.0
 22
0.0
 32
0.0
 13
1.0
 23
0.0
 33
0.0
 40
0.0
 40
0.0
 40
0.0
 40
0.0
 40
0.2164499953511898
 40
0.4402998152333205
 40
0.7518914760010332
 40
0.9999999999999999
 40
0.9999999999999999
 40
0.9999999999999999
 40
0.9999999999999999
 10
214.8473317022015
 20
114.5316465380273
 30
0.0
 10
214.884581792673
 20
114.63031513186
 30
0.0
 10
214.9603554508125
 20
114.8310255248696
 30
0.0
 10
215.112781008869
 20
115.2230037504368
 30
0.0
 10
215.2924224344853
 20
115.6701362446804
 30
0.0
 10
215.418256935617
 20
115.9742421478712
 30
0.0
 10
215.4740378933399
 20
116.1090487261673
 30
0.0
  0
SPLINE
  5
62
330
1F
100
AcDbEntity
  8
0
  6
Continuous
 62
     7
370
    15
100
AcDbSpline
210
0.0
220
0.0
230
1.0
 70
     8
 71
     3
 72
    11
 73
     7
 74
     0
 42
0.00000001
 43
0.00000001
 12
1.0
 22
0.0
 32
0.0
 13
1.0
 23
0.0
 33
0.0
 40
0.0
 40
0.0
 40
0.0
 40
0.0
 40
0.2164499953511758
 40
0.4402998152332903
 40
0.7518914760010279
 40
1.0
 40
1.0
 40
1.0
 40
1.0
 10
215.4740378933399
 20
116.1090487261673
 30
0.0
 10
215.3946405184606
 20
116.1922434758211
 30
0.0
 10
215.2331313928417
 20
116.3614771726921
 30
0.0
 10
214.945218405914
 20
116.6950423842215
 30
0.0
 10
214.6525062998877
 20
117.0795149233262
 30
0.0
 10
214.47605921886
 20
117.3435217288951
 30
0.0
 10
214.3978422983922
 20
117.4605528477658
 30
0.0
  0
SPLINE
  5
63
330
1F
100
AcDbEntity
  8
0
  6
Continuous
 62
     7
370
    15
100
AcDbSpline
210
0.0
220
0.0
230
1.0
 70
     8
 71
     3
 72
    11
 73
     7
 74
     0
 42
0.00000001
 43
0.00000001
 12
1.0
 22
0.0
 32
0.0
 13
1.0
 23
0.0
 33
0.0
 40
0.0
 40
0.0
 40
0.0
 40
0.0
 40
0.186419156916376
 40
0.5288419333956508
 40
0.8918899119628763
 40
1.0
 40
1.0
 40
1.0
 40
1.0
 10
214.3978422983922
 20
117.4605528477658
 30
0.0
 10
214.2930207129742
 20
117.4391578267999
 30
0.0
 10
213.9956583023132
 20
117.3784635052514
 30
0.0
 10
213.4520148439035
 20
117.2910221984155
 30
0.0
 10
212.9877232025381
 20
117.2496904337003
 30
0.0
 10
212.7495831888681
 20
117.2374609180711
 30
0.0
 10
212.6949405123061
 20
117.2346547812244
 30
0.0
  0
SPLINE
  5
64
330
1F
100
AcDbEntity
  8
0
  6
Continuous
 62
     7
370
    15
100
AcDbSpline
210
0.0
220
0.0
230
1.0
 70
     8
 71
     3
 72
    11
 73
     7
 74
     0
 42
0.00000001
 43
0.00000001
 12
1.0
 22
0.0
 32
0.0
 13
1.0
 23
0.0
 33
0.0
 40
0.0
 40
0.0
 40
0.0
 40
0.0
 40
0.2164499953511919
 40
0.4402998152333303
 40
0.751891476001058
 40
1.0
 40
1.0
 40
1.0
 40
1.0
 10
212.6949405123061
 20
117.2346547812244
 30
0.0
 10
212.6463328165996
 20
117.1172216966294
 30
0.0
 10
212.5474556629931
 20
116.8783408162415
 30
0.0
 10
212.3757722271037
 20
116.4545456483509
 30
0.0
 10
212.207740187221
 20
116.0265936245364
 30
0.0
 10
212.11108183462
 20
115.7706911549264
 30
0.0
 10
212.0682343211678
 20
115.6572525930845
 30
0.0
  0
SPLINE
  5
65
330
1F
100
AcDbEntity
  8
0
  6
Continuous
 62
     7
370
    15
100
AcDbSpline
210
0.0
220
0.0
230
1.0
 70
     8
 71
     3
 72
    11
 73
     7
 74
     0
 42
0.00000001
 43
0.00000001
 12
1.0
 22
0.0
 32
0.0
 13
1.0
 23
0.0
 33
0.0
 40
0.0
 40
0.0
 40
0.0
 40
0.0
 40
0.2164499953512023
 40
0.4402998152333411
 40
0.7518914760010809
 40
1.0
 40
1.0
 40
1.0
 40
1.0
 10
212.0682343211678
 20
115.6572525930845
 30
0.0
 10
212.1362740908121
 20
115.5552933526683
 30
0.0
 10
212.2746797209637
 20
115.347889168419
 30
0.0
 10
212.5433348300587
 20
114.9825070145661
 30
0.0
 10
212.8476563218185
 20
114.6172149458904
 30
0.0
 10
213.053279551377
 20
114.4014115739025
 30
0.0
 10
213.1444299161155
 20
114.3057484714859
 30
0.0
  0
LINE
  5
66
330
1F
100
AcDbEntity
  8
0
  6
Continuous
 62
     7
370
    15
100
AcDbLine
 10
214.7018077366
 20
114.5027379402
 30
0.0
 11
214.770579262
 21
114.6758339718
 31
0.0
  0
LINE
  5
67
330
1F
100
AcDbEntity
  8
0
  6
Continuous
 62
     7
370
    15
100
AcDbLine
 10
214.770579262
 20
114.6758339718
 30
0.0
 11
215.0839323576
 21
115.4645350659
 31
0.0
  0
LINE
  5
68
330
1F
100
AcDbEntity
  8
0
  6
Continuous
 62
     7
370
    15
100
AcDbLine
 10
215.0839323576
 20
115.4645350659
 30
0.0
 11
215.4740378933
 21
116.1090487262
 31
0.0
  0
LINE
  5
69
330
1F
100
AcDbEntity
  8
0
  6
Continuous
 62
     7
370
    15
100
AcDbLine
 10
215.0839323576
 20
115.4645350659
 30
0.0
 11
214.5458345601
 21
116.1402871267
 31
0.0
  0
LINE
  5
6A
330
1F
100
AcDbEntity
  8
0
  6
Continuous
 62
     7
370
    15
100
AcDbLine
 10
214.5458345601
 20
116.1402871267
 30
0.0
 11
214.0077367626
 21
116.8160391875
 31
0.0
  0
LINE
  5
6B
330
1F
100
AcDbEntity
  8
0
  6
Continuous
 62
     7
370
    15
100
AcDbLine
 10
214.0077367626
 20
116.8160391875
 30
0.0
 11
214.3978422984
 21
117.4605528478
 31
0.0
  0
LINE
  5
6C
330
1F
100
AcDbEntity
  8
0
  6
Continuous
 62
     7
370
    15
100
AcDbLine
 10
214.0077367626
 20
116.8160391875
 30
0.0
 11
213.1562858696
 21
116.7030901542
 31
0.0
  0
LINE
  5
6D
330
1F
100
AcDbEntity
  8
0
  6
Continuous
 62
     7
370
    15
100
AcDbLine
 10
213.1562858696
 20
116.7030901542
 30
0.0
 11
212.4384980007
 21
116.6078721604
 31
0.0
  0
ARC
  5
6E
330
1F
100
AcDbEntity
  8
0
  6
Continuous
 62
     7
370
    15
100
AcDbCircle
 10
213.395538589
 20
115.2142830872
 30
0.0
 40
1.476707250037803
100
AcDbArc
 50
338.6152963378
 51
38.8345419652
  0
LWPOLYLINE
  5
6F
330
1F
100
AcDbEntity
  8
0
  6
Continuous
 62
     7
370
    15
100
AcDbPolyline
 90
        3
 70
   128
 43
0.0
 10
214.770579262
 20
114.6758339718
 10
214.6878492403
 20
114.5023408664
 10
214.6734632662
 20
114.4773196692
  0
ARC
  5
70
330
1F
100
AcDbEntity
  8
0
  6
Continuous
 62
     7
370
    15
100
AcDbCircle
 10
213.3462946763
 20
115.249303911
 30
0.0
 40
1.466150670162583
100
AcDbArc
 50
97.4463082021
 51
134.9662195314
  0
ARC
  5
71
330
1F
100
AcDbEntity
  8
0
  6
Continuous
 62
     7
370
    15
100
AcDbCircle
 10
213.3527115453
 20
115.1912763872
 30
0.0
 40
1.524520879609905
100
AcDbArc
 50
38.4987599794
 51
97.4028082648
  0
ELLIPSE
  5
72
330
1F
100
AcDbEntity
  8
0
  6
Continuous
 62
     7
370
    15
100
AcDbEllipse
 10
219.4051964023
 20
129.4317191151
 30
0.0
 11
1.997919256371489
 21
-1.237404163304348
 31
0.0
210
0.0
220
0.0
230
1.0
 40
0.9806947386
 41
1.728688694103233
 42
3.453114417399409
  0
ELLIPSE
  5
73
330
1F
100
AcDbEntity
  8
0
  6
Continuous
 62
     7
370
    15
100
AcDbEllipse
 10
219.4051964023
 20
129.4317191151
 30
0.0
 11
1.997919256371489
 21
-1.237404163304348
 31
0.0
210
0.0
220
0.0
230
1.0
 40
0.9806947386
 41
6.243225041291579
 42
8.011874001282836
  0
SPLINE
  5
74
330
1F
100
AcDbEntity
  8
0
  6
Continuous
 62
     7
370
    15
100
AcDbSpline
210
0.0
220
0.0
230
1.0
 70
     8
 71
     3
 72
     9
 73
     5
 74
     0
 42
0.00000001
 43
0.00000001
 12
1.0
 22
0.0
 32
0.0
 13
1.0
 23
0.0
 33
0.0
 40
0.0
 40
0.0
 40
0.0
 40
0.0
 40
0.4007047680070518
 40
1.0
 40
1.0
 40
1.0
 40
1.0
 10
217.3621035700269
 20
130.6057639738066
 30
0.0
 10
217.3377822035656
 20
130.5858585686493
 30
0.0
 10
217.2770857297448
 20
130.5361825808733
 30
0.0
 10
217.2251320033627
 20
130.481226720833
 30
0.0
 10
217.1939963828577
 20
130.4482919359407
 30
0.0
  0
LINE
  5
75
330
1F
100
AcDbEntity
  8
0
  6
Continuous
 62
     7
370
    15
100
AcDbLine
 10
210.801032538
 20
120.867285729
 30
0.0
 11
224.557051418
 21
124.9896573754
 31
0.0
  0
ARC
  5
76
330
1F
100
AcDbEntity
  8
0
  6
Continuous
 62
     7
370
    15
100
AcDbCircle
 10
210.6852528248
 20
121.2529206998
 30
0.0
 40
0.4026403764246634
100
AcDbArc
 50
163.3936720209
 51
286.7114050701
  0
LINE
  5
77
330
1F
100
AcDbEntity
  8
0
  6
Continuous
 62
     7
370
    15
100
AcDbLine
 10
214.5716884352
 20
134.9567245611
 30
0.0
 11
210.2994061694
 21
121.3679929868
 31
0.0
  0
ARC
  5
78
330
1F
100
AcDbEntity
  8
0
  6
Continuous
 62
     7
370
    15
100
AcDbCircle
 10
214.9398303029
 20
134.8404399804
 30
0.0
 40
0.3860706391891947
100
AcDbArc
 50
106.512700654
 51
162.4702916187
  0
LINE
  5
79
330
1F
100
AcDbEntity
  8
0
  6
Continuous
 62
     7
370
    15
100
AcDbLine
 10
228.5861171445
 20
139.3329594597
 30
0.0
 11
214.8300982645
 21
135.2105878133
 31
0.0
  0
ARC
  5
7A
330
1F
100
AcDbEntity
  8
0
  6
Continuous
 62
     7
370
    15
100
AcDbCircle
 10
228.7018968577
 20
138.9473244888
 30
0.0
 40
0.4026403764246861
100
AcDbArc
 50
343.3936720209
 51
106.7114050701
  0
LINE
  5
7B
330
1F
100
AcDbEntity
  8
0
  6
Continuous
 62
     7
370
    15
100
AcDbLine
 10
224.8154612473
 20
125.2435206276
 30
0.0
 11
229.0877435131
 21
138.8322522018
 31
0.0
  0
ARC
  5
7C
330
1F
100
AcDbEntity
  8
0
  6
Continuous
 62
     7
370
    15
100
AcDbCircle
 10
224.4473193796
 20
125.3598052083
 30
0.0
 40
0.3860706391894899
100
AcDbArc
 50
286.512700654
 51
342.4702916186
  0
ARC
  5
7D
330
1F
100
AcDbEntity
  8
0
  6
Continuous
 62
     7
370
    15
100
AcDbCircle
 10
228.7021882855
 20
138.9477419746
 30
0.0
 40
0.3825083576034114
100
AcDbArc
 50
343.3936720209
 51
106.7114050701
  0
LINE
  5
7E
330
1F
100
AcDbEntity
  8
0
  6
Continuous
 62
     7
370
    15
100
AcDbLine
 10
228.592197558
 20
139.314095197
 30
0.0
 11
214.8361786781
 21
135.1917235502
 31
0.0
  0
ARC
  5
7F
330
1F
100
AcDbEntity
  8
0
  6
Continuous
 62
     7
370
    15
100
AcDbCircle
 10
214.9404241153
 20
134.840083108
 30
0.0
 40
0.3667671084148285
100
AcDbArc
 50
106.5127007219
 51
162.4702914608
  0
LINE
  5
80
330
1F
100
AcDbEntity
  8
0
  6
Continuous
 62
     7
370
    15
100
AcDbLine
 10
214.5906893402
 20
134.950553461
 30
0.0
 11
210.3184070744
 21
121.3618218867
 31
0.0
  0
ARC
  5
81
330
1F
100
AcDbEntity
  8
0
  6
Continuous
 62
     7
370
    15
100
AcDbCircle
 10
210.684961397
 20
121.2525032141
 30
0.0
 40
0.3825083576034386
100
AcDbArc
 50
163.3936720209
 51
286.7114050701
  0
LINE
  5
82
330
1F
100
AcDbEntity
  8
0
  6
Continuous
 62
     7
370
    15
100
AcDbLine
 10
210.7949521245
 20
120.8861499918
 30
0.0
 11
224.5509710045
 21
125.0085216382
 31
0.0
  0
ARC
  5
83
330
1F
100
AcDbEntity
  8
0
  6
Continuous
 62
     7
370
    15
100
AcDbCircle
 10
224.4467255681
 20
125.3601620794
 30
0.0
 40
0.3667671072297707
100
AcDbArc
 50
286.512700654
 51
342.4702916187
  0
LINE
  5
84
330
1F
100
AcDbEntity
  8
0
  6
Continuous
 62
     7
370
    15
100
AcDbLine
 10
224.7964603423
 20
125.2496917277
 30
0.0
 11
229.0687426082
 21
138.838423302
 31
0.0
  0
LINE
  5
85
330
1F
100
AcDbEntity
  8
0
  6
Continuous
 62
     7
370
    15
100
AcDbLine
 10
210.6564914445
 20
121.2066824721
 30
0.0
 11
210.7949521245
 21
120.8861499918
 31
0.0
  0
LINE
  5
86
330
1F
100
AcDbEntity
  8
0
  6
Continuous
 62
     7
370
    15
100
AcDbLine
 10
210.6564914445
 20
121.2066824721
 30
0.0
 11
210.3184070744
 21
121.3618218867
 31
0.0
  0
LINE
  5
87
330
1F
100
AcDbEntity
  8
0
  6
Continuous
 62
     7
370
    15
100
AcDbLine
 10
224.4125103245
 20
125.3290541185
 30
0.0
 11
224.5509710045
 21
125.0085216382
 31
0.0
  0
LINE
  5
88
330
1F
100
AcDbEntity
  8
0
  6
Continuous
 62
     7
370
    15
100
AcDbLine
 10
212.1193302718
 20
122.6031365854
 30
0.0
 11
210.6564914445
 21
121.2066824721
 31
0.0
  0
LINE
  5
89
330
1F
100
AcDbEntity
  8
0
  6
Continuous
 62
     7
370
    15
100
AcDbLine
 10
212.1193302718
 20
122.6031365854
 30
0.0
 11
212.7587125849
 21
122.7947451853
 31
0.0
  0
LINE
  5
8A
330
1F
100
AcDbEntity
  8
0
  6
Continuous
 62
     7
370
    15
100
AcDbLine
 10
224.0420323394
 20
125.6297337751
 30
0.0
 11
224.4125103245
 21
125.3290541185
 31
0.0
  0
LINE
  5
8B
330
1F
100
AcDbEntity
  8
0
  6
Continuous
 62
     7
370
    15
100
AcDbLine
 10
210.9175395399
 20
124.348637283
 30
0.0
 11
209.7079439969
 21
120.50130976
 31
0.0
  0
LINE
  5
8C
330
1F
100
AcDbEntity
  8
0
  6
Continuous
 62
     7
370
    15
100
AcDbLine
 10
214.9287737103
 20
134.7954140464
 30
0.0
 11
214.5906893402
 21
134.950553461
 31
0.0
  0
LINE
  5
8D
330
1F
100
AcDbEntity
  8
0
  6
Continuous
 62
     7
370
    15
100
AcDbLine
 10
215.2470923173
 20
134.4085591663
 30
0.0
 11
214.9287737103
 21
134.7954140464
 31
0.0
  0
LINE
  5
8E
330
1F
100
AcDbEntity
  8
0
  6
Continuous
 62
     7
370
    15
100
AcDbLine
 10
212.3179067452
 20
123.2347433534
 30
0.0
 11
212.1193302718
 21
122.6031365854
 31
0.0
  0
ARC
  5
8F
330
1F
100
AcDbEntity
  8
0
  6
Continuous
 62
     7
370
    15
100
AcDbCircle
 10
214.6632518783
 20
125.1648646382
 30
0.0
 40
1.006600941061625
100
AcDbArc
 50
163.3936720209
 51
286.7114050701
  0
LINE
  5
90
330
1F
100
AcDbEntity
  8
0
  6
Continuous
 62
     7
370
    15
100
AcDbLine
 10
212.8953824957
 20
123.3671605385
 30
0.0
 11
212.8970243801
 21
123.3655216624
 31
0.0
  0
SPLINE
  5
91
330
1F
100
AcDbEntity
  8
0
  6
Continuous
 62
     7
370
    15
100
AcDbSpline
210
0.0
220
0.0
230
1.0
 70
     8
 71
     3
 72
    14
 73
    10
 74
     0
 42
0.00000001
 43
0.00000001
 12
1.0
 22
0.0
 32
0.0
 13
1.0
 23
0.0
 33
0.0
 40
0.0
 40
0.0
 40
0.0
 40
0.0
 40
0.2234968253973722
 40
0.3567622963774675
 40
0.45312125623414
 40
0.5344619041500417
 40
0.6157317558035398
 40
0.739616177892215
 40
1.0
 40
1.0
 40
1.0
 40
1.0
 10
212.7587125848663
 20
122.79474518534
 30
0.0
 10
212.8145261695195
 20
122.8141332701946
 30
0.0
 10
212.9036199747426
 20
122.8450819767939
 30
0.0
 10
213.0008291415735
 20
122.9157447865688
 30
0.0
 10
213.0504703262446
 20
122.9815806007063
 30
0.0
 10
213.0699879930921
 20
123.0478383975419
 30
0.0
 10
213.0646986245159
 20
123.1241301686283
 30
0.0
 10
213.0152815131837
 20
123.239444174179
 30
0.0
 10
212.9447900601096
 20
123.3145972335934
 30
0.0
 10
212.8970243801333
 20
123.3655216624239
 30
0.0
  0
SPLINE
  5
92
330
1F
100
AcDbEntity
  8
0
  6
Continuous
 62
     7
370
    15
100
AcDbSpline
210
0.0
220
0.0
230
1.0
 70
     8
 71
     3
 72
    14
 73
    10
 74
     0
 42
0.00000001
 43
0.00000001
 12
1.0
 22
0.0
 32
0.0
 13
1.0
 23
0.0
 33
0.0
 40
0.0
 40
0.0
 40
0.0
 40
0.0
 40
0.2210591904779571
 40
0.346079732651926
 40
0.4396016244131541
 40
0.5338897453199806
 40
0.6146561933587602
 40
0.7517253237593914
 40
1.0
 40
1.0
 40
1.0
 40
1.0
 10
212.8953824956751
 20
123.3671605385203
 30
0.0
 10
212.8522860445049
 20
123.4075658837766
 30
0.0
 10
212.7848162945843
 20
123.47082256654
 30
0.0
 10
212.6800689640839
 20
123.526227275534
 30
0.0
 10
212.5972170449611
 20
123.5429788292719
 30
0.0
 10
212.5255235379624
 20
123.5294831389898
 30
0.0
 10
212.4550138806653
 20
123.4860685306677
 30
0.0
 10
212.375188226578
 20
123.3911315373617
 30
0.0
 10
212.3403517048009
 20
123.2960219094746
 30
0.0
 10
212.3179067452181
 20
123.2347433533799
 30
0.0
  0
LINE
  5
93
330
1F
100
AcDbEntity
  8
0
  6
Continuous
 62
     7
370
    15
100
AcDbLine
 10
214.9527011611
 20
124.2007772111
 30
0.0
 11
222.651447862
 21
126.5079196619
 31
0.0
  0
LINE
  5
94
330
1F
100
AcDbEntity
  8
0
  6
Continuous
 62
     7
370
    15
100
AcDbLine
 10
216.0896772473
 20
133.0576673964
 30
0.0
 11
213.6986352397
 21
125.4525453557
 31
0.0
  0
ARC
  5
95
330
1F
100
AcDbEntity
  8
0
  6
Continuous
 62
     7
370
    15
100
AcDbCircle
 10
217.0100319165
 20
132.7669559445
 30
0.0
 40
0.9651765979733724
100
AcDbArc
 50
106.512700654
 51
162.4702916187
  0
LINE
  5
96
330
1F
100
AcDbEntity
  8
0
  6
Continuous
 62
     7
370
    15
100
AcDbLine
 10
224.4344485214
 20
135.9994679776
 30
0.0
 11
216.7357018205
 21
133.6923255268
 31
0.0
  0
ARC
  5
97
330
1F
100
AcDbEntity
  8
0
  6
Continuous
 62
     7
370
    15
100
AcDbCircle
 10
224.7238978046
 20
135.0353805506
 30
0.0
 40
1.006600941051297
100
AcDbArc
 50
343.3936720068
 51
106.7114050907
  0
LINE
  5
98
330
1F
100
AcDbEntity
  8
0
  6
Continuous
 62
     7
370
    15
100
AcDbLine
 10
223.2974724352
 20
127.1425777923
 30
0.0
 11
225.6885144431
 21
134.7476998329
 31
0.0
  0
ARC
  5
99
330
1F
100
AcDbEntity
  8
0
  6
Continuous
 62
     7
370
    15
100
AcDbCircle
 10
222.3771177661
 20
127.4332892442
 30
0.0
 40
0.9651765979733236
100
AcDbArc
 50
286.512700654
 51
342.4702916187
  0
CIRCLE
  5
9A
330
1F
100
AcDbEntity
  8
0
  6
Continuous
 62
     7
370
    15
100
AcDbCircle
 10
219.7213410108
 20
130.0727719137
 30
0.0
 40
2.542353303381603
  0
LINE
  5
9B
330
1F
100
AcDbEntity
  8
0
  6
Continuous
 62
     7
370
    15
100
AcDbLine
 10
221.4966993721
 20
128.2595544932
 30
0.0
 11
221.5475380961
 21
128.4676441163
 31
0.0
  0
ARC
  5
9C
330
1F
100
AcDbEntity
  8
0
  6
Continuous
 62
     7
370
    15
100
AcDbCircle
 10
218.9624132295
 20
129.032966921
 30
0.0
 40
2.508544709496348
100
AcDbArc
 50
109.0536048816
 51
133.7824889668
  0
SPLINE
  5
9D
330
1F
100
AcDbEntity
  8
0
  6
Continuous
 62
     7
370
    15
100
AcDbSpline
210
0.0
220
0.0
230
1.0
 70
     8
 71
     3
 72
    11
 73
     7
 74
     0
 42
0.00000001
 43
0.00000001
 12
1.0
 22
0.0
 32
0.0
 13
1.0
 23
0.0
 33
0.0
 40
0.0
 40
0.0
 40
0.0
 40
0.0
 40
0.3280455501580032
 40
0.6557028173712
 40
0.9906967996087712
 40
0.9999999999999999
 40
0.9999999999999999
 40
0.9999999999999999
 40
0.9999999999999999
 10
224.0420323393847
 20
125.6297337750514
 30
0.0
 10
223.9863790957961
 20
125.6772297025141
 30
0.0
 10
223.8751384811945
 20
125.772165340068
 30
0.0
 10
223.7032038135478
 20
125.9472659111937
 30
0.0
 10
223.5998889938868
 20
126.0660906916933
 30
0.0
 10
223.553281765797
 20
126.1240595077568
 30
0.0
 10
223.552022399167
 20
126.1256258740807
 30
0.0
  0
LINE
  5
9E
330
1F
100
AcDbEntity
  8
0
  6
Continuous
 62
     7
370
    15
100
AcDbLine
 10
224.4125103245
 20
125.3290541185
 30
0.0
 11
224.7964603423
 21
125.2496917277
 31
0.0
  0
LINE
  5
9F
330
1F
100
AcDbEntity
  8
0
  6
Continuous
 62
     7
370
    15
100
AcDbLine
 10
227.1005738695
 20
137.3207935397
 30
0.0
 11
228.6847925904
 21
138.9177856928
 31
0.0
  0
LINE
  5
A0
330
1F
100
AcDbEntity
  8
0
  6
Continuous
 62
     7
370
    15
100
AcDbLine
 10
228.6847925904
 20
138.9177856928
 30
0.0
 11
229.0687426082
 21
138.838423302
 31
0.0
  0
LINE
  5
A1
330
1F
100
AcDbEntity
  8
0
  6
Continuous
 62
     7
370
    15
100
AcDbLine
 10
226.9019973961
 20
136.6891867717
 30
0.0
 11
227.1005738695
 21
137.3207935397
 31
0.0
  0
ARC
  5
A2
330
1F
100
AcDbEntity
  8
0
  6
Continuous
 62
     7
370
    15
100
AcDbCircle
 10
223.7840813146
 20
124.2630899439
 30
0.0
 40
0.3856547797623119
100
AcDbArc
 50
298.1271766506
 51
328.7798137872
  0
SPLINE
  5
A3
330
1F
100
AcDbEntity
  8
0
  6
Continuous
 62
     7
370
    15
100
AcDbSpline
210
0.0
220
0.0
230
1.0
 70
     8
 71
     3
 72
    11
 73
     7
 74
     0
 42
0.00000001
 43
0.00000001
 12
1.0
 22
0.0
 32
0.0
 13
1.0
 23
0.0
 33
0.0
 40
0.0
 40
0.0
 40
0.0
 40
0.0
 40
0.328045550158001
 40
0.6557028173711971
 40
0.9906967996087732
 40
0.9999999999999999
 40
0.9999999999999999
 40
0.9999999999999999
 40
0.9999999999999999
 10
215.2470923173166
 20
134.4085591663368
 30
0.0
 10
215.2966667889297
 20
134.3510201832985
 30
0.0
 10
215.3957570545673
 20
134.2360103218062
 30
0.0
 10
215.5703185242946
 20
134.0652496271205
 30
0.0
 10
215.6854804128934
 20
133.9659980058431
 30
0.0
 10
215.740725832239
 20
133.9223007951634
 30
0.0
 10
215.7422186100856
 20
133.9211200596592
 30
0.0
  0
LINE
  5
A4
330
1F
100
AcDbEntity
  8
0
  6
Continuous
 62
     7
370
    15
100
AcDbLine
 10
214.9287737103
 20
134.7954140464
 30
0.0
 11
214.8361786781
 21
135.1917235502
 31
0.0
  0
LINE
  5
A5
330
1F
100
AcDbEntity
  8
0
  6
Continuous
 62
     7
370
    15
100
AcDbLine
 10
228.6847925904
 20
138.9177856928
 30
0.0
 11
228.592197558
 21
139.314095197
 31
0.0
  0
LINE
  5
A6
330
1F
100
AcDbEntity
  8
0
  6
Continuous
 62
     7
370
    15
100
AcDbLine
 10
227.1005738695
 20
137.3207935397
 30
0.0
 11
226.4611915565
 21
137.1291849397
 31
0.0
  0
LINE
  5
A7
330
1F
100
AcDbEntity
  8
0
  6
Continuous
 62
     7
370
    15
100
AcDbLine
 10
226.3245216456
 20
136.5567695865
 30
0.0
 11
226.3228797612
 21
136.5584084626
 31
0.0
  0
SPLINE
  5
A8
330
1F
100
AcDbEntity
  8
0
  6
Continuous
 62
     7
370
    15
100
AcDbSpline
210
0.0
220
0.0
230
1.0
 70
     8
 71
     3
 72
    14
 73
    10
 74
     0
 42
0.00000001
 43
0.00000001
 12
1.0
 22
0.0
 32
0.0
 13
1.0
 23
0.0
 33
0.0
 40
0.0
 40
0.0
 40
0.0
 40
0.0
 40
0.2210591904779529
 40
0.3460797326519239
 40
0.4396016244131518
 40
0.5338897453199776
 40
0.6146561933587492
 40
0.7517253237593696
 40
1.0
 40
1.0
 40
1.0
 40
1.0
 10
226.3245216456492
 20
136.5567695865455
 30
0.0
 10
226.3676180968193
 20
136.5163642412892
 30
0.0
 10
226.4350878467399
 20
136.4531075585259
 30
0.0
 10
226.5398351772403
 20
136.3977028495318
 30
0.0
 10
226.6226870963631
 20
136.3809512957939
 30
0.0
 10
226.6943806033617
 20
136.394446986076
 30
0.0
 10
226.7648902606589
 20
136.4378615943982
 30
0.0
 10
226.8447159147462
 20
136.5327985877041
 30
0.0
 10
226.8795524365233
 20
136.6279082155912
 30
0.0
 10
226.9019973961061
 20
136.689186771686
 30
0.0
  0
SPLINE
  5
A9
330
1F
100
AcDbEntity
  8
0
  6
Continuous
 62
     7
370
    15
100
AcDbSpline
210
0.0
220
0.0
230
1.0
 70
     8
 71
     3
 72
    14
 73
    10
 74
     0
 42
0.00000001
 43
0.00000001
 12
1.0
 22
0.0
 32
0.0
 13
1.0
 23
0.0
 33
0.0
 40
0.0
 40
0.0
 40
0.0
 40
0.0
 40
0.2234968253973705
 40
0.3567622963774695
 40
0.4531212562341452
 40
0.5344619041500382
 40
0.6157317558035361
 40
0.7396161778921985
 40
1.0
 40
1.0
 40
1.0
 40
1.0
 10
226.4611915564579
 20
137.1291849397258
 30
0.0
 10
226.4053779718047
 20
137.1097968548712
 30
0.0
 10
226.3162841665816
 20
137.0788481482719
 30
0.0
 10
226.2190749997507
 20
137.008185338497
 30
0.0
 10
226.1694338150796
 20
136.9423495243595
 30
0.0
 10
226.1499161482321
 20
136.8760917275239
 30
0.0
 10
226.1552055168083
 20
136.7997999564376
 30
0.0
 10
226.2046226281405
 20
136.6844859508868
 30
0.0
 10
226.2751140812145
 20
136.6093328914725
 30
0.0
 10
226.3228797611909
 20
136.5584084626419
 30
0.0
  0
SPLINE
  5
AA
330
1F
100
AcDbEntity
  8
0
  6
Continuous
 62
     7
370
    15
100
AcDbSpline
210
0.0
220
0.0
230
1.0
 70
     8
 71
     3
 72
    12
 73
     8
 74
     0
 42
0.00000001
 43
0.00000001
 12
1.0
 22
0.0
 32
0.0
 13
1.0
 23
0.0
 33
0.0
 40
0.0
 40
0.0
 40
0.0
 40
0.0
 40
0.4999999999999987
 40
0.4999999999999987
 40
0.7499999999999993
 40
0.7499999999999993
 40
1.0
 40
1.0
 40
1.0
 40
1.0
 10
185.7765832685633
 20
118.48618236769
 30
0.0
 10
185.7952765016937
 20
118.4185997312496
 30
0.0
 10
185.8209317991055
 20
118.3521171617722
 30
0.0
 10
185.881092421792
 20
118.2631220788747
 30
0.0
 10
185.9051647335463
 20
118.2351201818756
 30
0.0
 10
185.9635462538969
 20
118.1920437812105
 30
0.0
 10
185.9990150815499
 20
118.1771502362826
 30
0.0
 10
186.0363908896986
 20
118.1771502362826
 30
0.0
  0
LINE
  5
AB
330
1F
100
AcDbEntity
  8
0
  6
Continuous
 62
     7
370
    15
100
AcDbLine
 10
186.0363908897
 20
118.1771502363
 30
0.0
 11
188.1725868857
 21
118.1771502363
 31
0.0
  0
SPLINE
  5
AC
330
1F
100
AcDbEntity
  8
0
  6
Continuous
 62
     7
370
    15
100
AcDbSpline
210
0.0
220
0.0
230
1.0
 70
     8
 71
     3
 72
    12
 73
     8
 74
     0
 42
0.00000001
 43
0.00000001
 12
1.0
 22
0.0
 32
0.0
 13
1.0
 23
0.0
 33
0.0
 40
0.0
 40
0.0
 40
0.0
 40
0.0
 40
0.25
 40
0.25
 40
0.5
 40
0.5
 40
1.0
 40
1.0
 40
1.0
 40
1.0
 10
188.1725868857002
 20
118.1771502362826
 30
0.0
 10
188.2100987717449
 20
118.1771502362826
 30
0.0
 10
188.2453861194495
 20
118.1919550505695
 30
0.0
 10
188.304315967688
 20
118.2355469236953
 30
0.0
 10
188.327841694157
 20
118.2630603497813
 30
0.0
 10
188.3881004819251
 20
118.3521920818948
 30
0.0
 10
188.4136952442144
 20
118.4185779325126
 30
0.0
 10
188.4323945068355
 20
118.48618236769
 30
0.0
  0
ELLIPSE
  5
AD
330
1F
100
AcDbEntity
  8
0
  6
Continuous
 62
     7
370
    15
100
AcDbEllipse
 10
178.1555597153
 20
112.3479372406
 30
0.0
 11
9.367417879781669
 21
19.74174915274995
 31
0.0
210
0.0
220
0.0
230
1.0
 40
0.3419987131
 41
5.185211263708394
 42
6.132113578252552
  0
SPLINE
  5
AE
330
1F
100
AcDbEntity
  8
0
  6
Continuous
 62
     7
370
    15
100
AcDbSpline
210
0.0
220
0.0
230
1.0
 70
     8
 71
     3
 72
    12
 73
     8
 74
     0
 42
0.00000001
 43
0.00000001
 12
1.0
 22
0.0
 32
0.0
 13
1.0
 23
0.0
 33
0.0
 40
0.0
 40
0.0
 40
0.0
 40
0.0
 40
0.4999999999999947
 40
0.4999999999999947
 40
0.7499999999999973
 40
0.7499999999999973
 40
1.0
 40
1.0
 40
1.0
 40
1.0
 10
188.4323945068355
 20
131.3826935238129
 30
0.0
 10
188.4137012737051
 20
131.4044872774409
 30
0.0
 10
188.3880459762933
 20
131.4255074391505
 30
0.0
 10
188.3278853536068
 20
131.4532127851142
 30
0.0
 10
188.3038130418525
 20
131.4618480013076
 30
0.0
 10
188.245431521502
 20
131.4750626465342
 30
0.0
 10
188.2099626938489
 20
131.4795936208644
 30
0.0
 10
188.1725868857002
 20
131.4795936208644
 30
0.0
  0
LINE
  5
AF
330
1F
100
AcDbEntity
  8
0
  6
Continuous
 62
     7
370
    15
100
AcDbLine
 10
188.1725868857
 20
131.4795936209
 30
0.0
 11
186.0363908897
 21
131.4795936209
 31
0.0
  0
SPLINE
  5
B0
330
1F
100
AcDbEntity
  8
0
  6
Continuous
 62
     7
370
    15
100
AcDbSpline
210
0.0
220
0.0
230
1.0
 70
     8
 71
     3
 72
    12
 73
     8
 74
     0
 42
0.00000001
 43
0.00000001
 12
1.0
 22
0.0
 32
0.0
 13
1.0
 23
0.0
 33
0.0
 40
0.0
 40
0.0
 40
0.0
 40
0.0
 40
0.249999999999998
 40
0.249999999999998
 40
0.499999999999996
 40
0.499999999999996
 40
1.0
 40
1.0
 40
1.0
 40
1.0
 10
186.0363908896986
 20
131.4795936208644
 30
0.0
 10
185.9988790036539
 20
131.4795936208644
 30
0.0
 10
185.9635916559492
 20
131.4750900766018
 30
0.0
 10
185.9046618077108
 20
131.4617168771485
 30
0.0
 10
185.8811360812418
 20
131.4532319745774
 30
0.0
 10
185.8208772934737
 20
131.4254841707428
 30
0.0
 10
185.7952825311843
 20
131.4044943070025
 30
0.0
 10
185.7765832685633
 20
131.3826935238129
 30
0.0
  0
ELLIPSE
  5
B1
330
1F
100
AcDbEntity
  8
0
  6
Continuous
 62
     7
370
    15
100
AcDbEllipse
 10
196.0534180601
 20
112.3479372406
 30
0.0
 11
-9.367417879781556
 21
19.74174915274995
 31
0.0
210
0.0
220
0.0
230
1.0
 40
0.3419987131
 41
0.1510717289270826
 42
1.097974043471208
  0
SPLINE
  5
B2
330
1F
100
AcDbEntity
  8
0
  6
Continuous
 62
     7
370
    15
100
AcDbSpline
210
0.0
220
0.0
230
1.0
 70
     8
 71
     3
 72
    12
 73
     8
 74
     0
 42
0.00000001
 43
0.00000001
 12
1.0
 22
0.0
 32
0.0
 13
1.0
 23
0.0
 33
0.0
 40
0.0
 40
0.0
 40
0.0
 40
0.0
 40
0.4999999999999977
 40
0.4999999999999977
 40
0.7499999999999988
 40
0.7499999999999988
 40
1.0
 40
1.0
 40
1.0
 40
1.0
 10
185.7765832685633
 20
93.31318095744916
 30
0.0
 10
185.7953865014149
 20
93.2912589591881
 30
0.0
 10
185.8209231604342
 20
93.27036515117811
 30
0.0
 10
185.8811493343825
 20
93.24263842506035
 30
0.0
 10
185.9050754117825
 20
93.23406529168489
 30
0.0
 10
185.9631363319638
 20
93.22088618587735
 30
0.0
 10
185.9989380305898
 20
93.21628086039769
 30
0.0
 10
186.0363908896986
 20
93.21628086039769
 30
0.0
  0
LINE
  5
B3
330
1F
100
AcDbEntity
  8
0
  6
Continuous
 62
     7
370
    15
100
AcDbLine
 10
186.0363908897
 20
93.2162808604
 30
0.0
 11
188.1725868857
 21
93.2162808604
 31
0.0
  0
SPLINE
  5
B4
330
1F
100
AcDbEntity
  8
0
  6
Continuous
 62
     7
370
    15
100
AcDbSpline
210
0.0
220
0.0
230
1.0
 70
     8
 71
     3
 72
    12
 73
     8
 74
     0
 42
0.00000001
 43
0.00000001
 12
1.0
 22
0.0
 32
0.0
 13
1.0
 23
0.0
 33
0.0
 40
0.0
 40
0.0
 40
0.0
 40
0.0
 40
0.2500000000000028
 40
0.2500000000000028
 40
0.5000000000000056
 40
0.5000000000000056
 40
1.0
 40
1.0
 40
1.0
 40
1.0
 10
188.1725868857002
 20
93.21628086039769
 30
0.0
 10
188.210087708578
 20
93.21628086039769
 30
0.0
 10
188.245366112614
 20
93.22078182826083
 30
0.0
 10
188.3042838326663
 20
93.23414834947816
 30
0.0
 10
188.3278072140647
 20
93.242629609723
 30
0.0
 10
188.3880627985306
 20
93.27036700540093
 30
0.0
 10
188.4135844509418
 20
93.291251004454
 30
0.0
 10
188.4323945068356
 20
93.31318095744916
 30
0.0
  0
ELLIPSE
  5
B5
330
1F
100
AcDbEntity
  8
0
  6
Continuous
 62
     7
370
    15
100
AcDbEllipse
 10
178.1555597153
 20
112.3479372406
 30
0.0
 11
-9.36741787978184
 21
19.74174915274992
 31
0.0
210
0.0
220
0.0
230
1.0
 40
0.3419987131
 41
3.292664382516887
 42
4.239566697060993
  0
SPLINE
  5
B6
330
1F
100
AcDbEntity
  8
0
  6
Continuous
 62
     7
370
    15
100
AcDbSpline
210
0.0
220
0.0
230
1.0
 70
     8
 71
     3
 72
    12
 73
     8
 74
     0
 42
0.00000001
 43
0.00000001
 12
1.0
 22
0.0
 32
0.0
 13
1.0
 23
0.0
 33
0.0
 40
0.0
 40
0.0
 40
0.0
 40
0.0
 40
0.5000000000000026
 40
0.5000000000000026
 40
0.7500000000000012
 40
0.7500000000000012
 40
1.0
 40
1.0
 40
1.0
 40
1.0
 10
188.4323945068355
 20
106.2096921135719
 30
0.0
 10
188.4135912739839
 20
106.2776724378343
 30
0.0
 10
188.3880546149646
 20
106.3437628256311
 30
0.0
 10
188.3278284410162
 20
106.4328274380783
 30
0.0
 10
188.3039023636162
 20
106.4606285250982
 30
0.0
 10
188.2458414434349
 20
106.5035875983231
 30
0.0
 10
188.210039744809
 20
106.5187242449793
 30
0.0
 10
188.1725868857002
 20
106.5187242449793
 30
0.0
  0
LINE
  5
B7
330
1F
100
AcDbEntity
  8
0
  6
Continuous
 62
     7
370
    15
100
AcDbLine
 10
188.1725868857
 20
106.518724245
 30
0.0
 11
186.0363908897
 21
106.518724245
 31
0.0
  0
SPLINE
  5
B8
330
1F
100
AcDbEntity
  8
0
  6
Continuous
 62
     7
370
    15
100
AcDbSpline
210
0.0
220
0.0
230
1.0
 70
     8
 71
     3
 72
    12
 73
     8
 74
     0
 42
0.00000001
 43
0.00000001
 12
1.0
 22
0.0
 32
0.0
 13
1.0
 23
0.0
 33
0.0
 40
0.0
 40
0.0
 40
0.0
 40
0.0
 40
0.2499999999999986
 40
0.2499999999999986
 40
0.4999999999999971
 40
0.4999999999999971
 40
1.0
 40
1.0
 40
1.0
 40
1.0
 10
186.0363908896986
 20
106.5187242449793
 30
0.0
 10
185.9988900668208
 20
106.5187242449793
 30
0.0
 10
185.9636116627848
 20
106.5039279072262
 30
0.0
 10
185.9046939427325
 20
106.4603576460671
 30
0.0
 10
185.8811705613341
 20
106.4328558475656
 30
0.0
 10
185.8209149768682
 20
106.3437566843225
 30
0.0
 10
185.795393324457
 20
106.2776971055401
 30
0.0
 10
185.7765832685632
 20
106.2096921135719
 30
0.0
  0
ELLIPSE
  5
B9
330
1F
100
AcDbEntity
  8
0
  6
Continuous
 62
     7
370
    15
100
AcDbEllipse
 10
196.0534180601
 20
112.3479372406
 30
0.0
 11
9.367417879781641
 21
19.74174915274995
 31
0.0
210
0.0
220
0.0
230
1.0
 40
0.3419987131
 41
2.043618610118598
 42
2.990520924662725
  0
SPLINE
  5
BA
330
1F
100
AcDbEntity
  8
0
  6
Continuous
 62
     7
370
    15
100
AcDbSpline
210
0.0
220
0.0
230
1.0
 70
     8
 71
     3
 72
    10
 73
     6
 74
     0
 42
0.00000001
 43
0.00000001
 12
1.0
 22
0.0
 32
0.0
 13
1.0
 23
0.0
 33
0.0
 40
0.0
 40
0.0
 40
0.0
 40
0.0
 40
0.5
 40
0.5
 40
1.0
 40
1.0
 40
1.0
 40
1.0
 10
200.9621837665615
 20
131.8239723543284
 30
0.0
 10
200.9888453370229
 20
131.8485794228734
 30
0.0
 10
201.0342899354073
 20
131.8707953998049
 30
0.0
 10
201.1618096167751
 20
131.9093640664867
 30
0.0
 10
201.2421460495236
 20
131.9251783088498
 30
0.0
 10
201.3371618997204
 20
131.9369915547732
 30
0.0
  0
ELLIPSE
  5
BB
330
1F
100
AcDbEntity
  8
0
  6
Continuous
 62
     7
370
    15
100
AcDbEllipse
 10
203.0684940094
 20
112.3479372406
 30
0.0
 11
-0.9999649288125738
 21
19.99826732264187
 31
0.0
210
0.0
220
0.0
230
1.0
 40
0.263265937
 41
0.2162422841860974
 42
2.549958088355985
  0
SPLINE
  5
BC
330
1F
100
AcDbEntity
  8
0
  6
Continuous
 62
     7
370
    15
100
AcDbSpline
210
0.0
220
0.0
230
1.0
 70
     8
 71
     3
 72
     8
 73
     4
 74
     0
 42
0.00000001
 43
0.00000001
 12
1.0
 22
0.0
 32
0.0
 13
1.0
 23
0.0
 33
0.0
 40
0.0
 40
0.0
 40
0.0
 40
0.0
 40
1.0
 40
1.0
 40
1.0
 40
1.0
 10
201.3371618997205
 20
95.31977844427072
 30
0.0
 10
201.1473545131111
 20
95.38115257837013
 30
0.0
 10
201.0154540741409
 20
95.48373856502093
 30
0.0
 10
200.9621837665615
 20
95.60194905825365
 30
0.0
  0
ELLIPSE
  5
BD
330
1F
100
AcDbEntity
  8
0
  6
Continuous
 62
     7
370
    15
100
AcDbEllipse
 10
199.8718557606
 20
121.6800431275
 30
0.0
 11
0.07015558194842697
 21
2.493831804543646
 31
0.0
210
0.0
220
0.0
230
1.0
 40
0.2406917832
 41
0.0
 42
6.283185307179586
  0
LINE
  5
BE
330
1F
100
AcDbEntity
  8
0
  6
Continuous
 62
     7
370
    15
100
AcDbLine
 10
179.1044888877
 20
92.6479372406
 30
0.0
 11
179.1044888877
 21
132.0479372402
 31
0.0
  0
SPLINE
  5
BF
330
1F
100
AcDbEntity
  8
0
  6
Continuous
 62
     7
370
    15
100
AcDbSpline
210
0.0
220
0.0
230
1.0
 70
     8
 71
     3
 72
    18
 73
    14
 74
     0
 42
0.00000001
 43
0.00000001
 12
1.0
 22
0.0
 32
0.0
 13
1.0
 23
0.0
 33
0.0
 40
0.0
 40
0.0
 40
0.0
 40
0.0
 40
0.25
 40
0.25
 40
0.5
 40
0.5
 40
0.625
 40
0.625
 40
0.75
 40
0.75
 40
0.875
 40
0.875
 40
1.0
 40
1.0
 40
1.0
 40
1.0
 10
177.8484045701354
 20
98.5167488579522
 30
0.0
 10
177.8827013895872
 20
98.51588720247037
 30
0.0
 10
177.9205126695643
 20
98.5161388055653
 30
0.0
 10
178.0070850367443
 20
98.51853731817717
 30
0.0
 10
178.0554241668272
 20
98.52070830290907
 30
0.0
 10
178.1446965241497
 20
98.52480318120429
 30
0.0
 10
178.1772379899256
 20
98.52630779915391
 30
0.0
 10
178.2534141897791
 20
98.52927085712204
 30
0.0
 10
178.2966302497736
 20
98.53075819537781
 30
0.0
 10
178.4023195517396
 20
98.53238360670152
 30
0.0
 10
178.4672906104541
 20
98.5323413656276
 30
0.0
 10
178.600950998812
 20
98.5283191923066
 30
0.0
 10
178.6602574521482
 20
98.5247779654831
 30
0.0
 10
178.7095119988241
 20
98.521211258047
 30
0.0
  0
SPLINE
  5
C0
330
1F
100
AcDbEntity
  8
0
  6
Continuous
 62
     7
370
    15
100
AcDbSpline
210
0.0
220
0.0
230
1.0
 70
     8
 71
     3
 72
    14
 73
    10
 74
     0
 42
0.00000001
 43
0.00000001
 12
1.0
 22
0.0
 32
0.0
 13
1.0
 23
0.0
 33
0.0
 40
0.0
 40
0.0
 40
0.0
 40
0.0
 40
0.1249999999999996
 40
0.1249999999999996
 40
0.2499999999999993
 40
0.2499999999999993
 40
0.4999999999999986
 40
0.4999999999999986
 40
1.0
 40
1.0
 40
1.0
 40
1.0
 10
178.7095119987933
 20
98.52121125806596
 30
0.0
 10
178.7210387765107
 20
98.52037656063192
 30
0.0
 10
178.7343915841631
 20
98.51863614635177
 30
0.0
 10
178.7645341567633
 20
98.51138855635146
 30
0.0
 10
178.7795946823778
 20
98.5060415221235
 30
0.0
 10
178.8149410363061
 20
98.49029425189508
 30
0.0
 10
178.8286731360351
 20
98.48045597773381
 30
0.0
 10
178.8620443817262
 20
98.45425199178334
 30
0.0
 10
178.8729847495801
 20
98.44016409038275
 30
0.0
 10
178.8816378745934
 20
98.4273904668944
 30
0.0
  0
LINE
  5
C1
330
1F
100
AcDbEntity
  8
0
  6
Continuous
 62
     7
370
    15
100
AcDbLine
 10
178.9044888877
 20
106.8424924737
 30
0.0
 11
178.9044888877
 21
98.2581169618
 31
0.0
  0
SPLINE
  5
C2
330
1F
100
AcDbEntity
  8
0
  6
Continuous
 62
     7
370
    15
100
AcDbSpline
210
0.0
220
0.0
230
1.0
 70
     8
 71
     3
 72
    16
 73
    12
 74
     0
 42
0.00000001
 43
0.00000001
 12
1.0
 22
0.0
 32
0.0
 13
1.0
 23
0.0
 33
0.0
 40
0.0
 40
0.0
 40
0.0
 40
0.0
 40
0.4999999999999959
 40
0.4999999999999959
 40
0.7499999999999964
 40
0.7499999999999964
 40
0.8749999999999983
 40
0.8749999999999983
 40
0.9374999999999992
 40
0.9374999999999992
 40
1.0
 40
1.0
 40
1.0
 40
1.0
 10
178.9044888876994
 20
106.8424924736681
 30
0.0
 10
178.9044888876994
 20
106.9600678546877
 30
0.0
 10
178.9006054625405
 20
107.0787636077889
 30
0.0
 10
178.8757901372658
 20
107.2595210857814
 30
0.0
 10
178.8649506895533
 20
107.3211651625543
 30
0.0
 10
178.8317349075045
 20
107.4105021368956
 30
0.0
 10
178.8183531638757
 20
107.4407616683208
 30
0.0
 10
178.7828435140135
 20
107.4742779123082
 30
0.0
 10
178.7674265475127
 20
107.4824162581143
 30
0.0
 10
178.7357255253641
 20
107.4824008486829
 30
0.0
 10
178.7215792404133
 20
107.475358611327
 30
0.0
 10
178.7095119988236
 20
107.4662175477174
 30
0.0
  0
SPLINE
  5
C3
330
1F
100
AcDbEntity
  8
0
  6
Continuous
 62
     7
370
    15
100
AcDbSpline
210
0.0
220
0.0
230
1.0
 70
     8
 71
     3
 72
    18
 73
    14
 74
     0
 42
0.00000001
 43
0.00000001
 12
1.0
 22
0.0
 32
0.0
 13
1.0
 23
0.0
 33
0.0
 40
0.0
 40
0.0
 40
0.0
 40
0.0
 40
0.1250000000000004
 40
0.1250000000000004
 40
0.2500000000000008
 40
0.2500000000000008
 40
0.3750000000000012
 40
0.3750000000000012
 40
0.5000000000000016
 40
0.5000000000000016
 40
0.7500000000000008
 40
0.7500000000000008
 40
1.0
 40
1.0
 40
1.0
 40
1.0
 10
178.7095119988298
 20
107.4662175477102
 30
0.0
 10
178.6608074151418
 20
107.4293233085196
 30
0.0
 10
178.6022989323664
 20
107.3997920040937
 30
0.0
 10
178.4705721170965
 20
107.3905560308148
 30
0.0
 10
178.405814045599
 20
107.4136192053718
 30
0.0
 10
178.3006034434483
 20
107.4811373270192
 30
0.0
 10
178.2573872949281
 20
107.5241484236698
 30
0.0
 10
178.1812089788442
 20
107.6143904456659
 30
0.0
 10
178.148354146553
 20
107.6620213271412
 30
0.0
 10
178.057986240592
 20
107.8090856264907
 30
0.0
 10
178.0085635827524
 20
107.9129989517953
 30
0.0
 10
177.9209124571608
 20
108.1241329154356
 30
0.0
 10
177.8828509097703
 20
108.2318556601944
 30
0.0
 10
177.8484045701364
 20
108.3411887761038
 30
0.0
  0
SPLINE
  5
C4
330
1F
100
AcDbEntity
  8
0
  6
Continuous
 62
     7
370
    15
100
AcDbSpline
210
0.0
220
0.0
230
1.0
 70
     8
 71
     3
 72
     8
 73
     4
 74
     0
 42
0.00000001
 43
0.00000001
 12
1.0
 22
0.0
 32
0.0
 13
1.0
 23
0.0
 33
0.0
 40
0.0
 40
0.0
 40
0.0
 40
0.0
 40
1.0
 40
1.0
 40
1.0
 40
1.0
 10
177.7831685441396
 20
108.5763925502326
 30
0.0
 10
177.8025947494386
 20
108.4968002786599
 30
0.0
 10
177.824091573867
 20
108.4183585325271
 30
0.0
 10
177.8484045701364
 20
108.3411887761038
 30
0.0
  0
SPLINE
  5
C5
330
1F
100
AcDbEntity
  8
0
  6
Continuous
 62
     7
370
    15
100
AcDbSpline
210
0.0
220
0.0
230
1.0
 70
     8
 71
     3
 72
     8
 73
     4
 74
     0
 42
0.00000001
 43
0.00000001
 12
1.0
 22
0.0
 32
0.0
 13
1.0
 23
0.0
 33
0.0
 40
0.0
 40
0.0
 40
0.0
 40
0.0
 40
1.0
 40
1.0
 40
1.0
 40
1.0
 10
177.8484045701364
 20
116.3546857051583
 30
0.0
 10
177.824091573867
 20
116.277515948735
 30
0.0
 10
177.8025947494386
 20
116.1990742026023
 30
0.0
 10
177.7831685441396
 20
116.1194819310295
 30
0.0
  0
SPLINE
  5
C6
330
1F
100
AcDbEntity
  8
0
  6
Continuous
 62
     7
370
    15
100
AcDbSpline
210
0.0
220
0.0
230
1.0
 70
     8
 71
     3
 72
    18
 73
    14
 74
     0
 42
0.00000001
 43
0.00000001
 12
1.0
 22
0.0
 32
0.0
 13
1.0
 23
0.0
 33
0.0
 40
0.0
 40
0.0
 40
0.0
 40
0.0
 40
0.2500000000000009
 40
0.2500000000000009
 40
0.5000000000000018
 40
0.5000000000000018
 40
0.6250000000000013
 40
0.6250000000000013
 40
0.7500000000000009
 40
0.7500000000000009
 40
0.8750000000000004
 40
0.8750000000000004
 40
1.0
 40
1.0
 40
1.0
 40
1.0
 10
177.8484045701364
 20
116.3546857051583
 30
0.0
 10
177.882702889149
 20
116.4635490017514
 30
0.0
 10
177.920517286461
 20
116.5705564249877
 30
0.0
 10
178.0071053475345
 20
116.779591249126
 30
0.0
 10
178.0554554532132
 20
116.8817613431156
 30
0.0
 10
178.144772042013
 20
117.0284421146803
 30
0.0
 10
178.1773323975013
 20
117.0762438132159
 30
0.0
 10
178.2535780312302
 20
117.1677993512412
 30
0.0
 10
178.2967374010102
 20
117.2114787432332
 30
0.0
 10
178.4024662250283
 20
117.2808329605598
 30
0.0
 10
178.467463402083
 20
117.3049492742257
 30
0.0
 10
178.6009478920372
 20
117.2967450521875
 30
0.0
 10
178.6602752854828
 20
117.2669542665955
 30
0.0
 10
178.7095119988241
 20
117.2296569335444
 30
0.0
  0
SPLINE
  5
C7
330
1F
100
AcDbEntity
  8
0
  6
Continuous
 62
     7
370
    15
100
AcDbSpline
210
0.0
220
0.0
230
1.0
 70
     8
 71
     3
 72
    16
 73
    12
 74
     0
 42
0.00000001
 43
0.00000001
 12
1.0
 22
0.0
 32
0.0
 13
1.0
 23
0.0
 33
0.0
 40
0.0
 40
0.0
 40
0.0
 40
0.0
 40
0.0624999999999992
 40
0.0624999999999992
 40
0.1249999999999984
 40
0.1249999999999984
 40
0.2499999999999969
 40
0.2499999999999969
 40
0.4999999999999982
 40
0.4999999999999982
 40
1.0
 40
1.0
 40
1.0
 40
1.0
 10
178.7095119987933
 20
117.229656933496
 30
0.0
 10
178.7215818320691
 20
117.2205139066502
 30
0.0
 10
178.7358574870025
 20
117.213469458959
 30
0.0
 10
178.7673218991269
 20
117.2134623870604
 30
0.0
 10
178.7828224239373
 20
117.2215903558574
 30
0.0
 10
178.8182613205442
 20
117.2549988168646
 30
0.0
 10
178.8318539366475
 20
117.2856659833267
 30
0.0
 10
178.8648482550403
 20
117.3744869774086
 30
0.0
 10
178.8756356483591
 20
117.4353896229564
 30
0.0
 10
178.9006888956383
 20
117.6173977003347
 30
0.0
 10
178.9044888876995
 20
117.7360864153734
 30
0.0
 10
178.9044888876995
 20
117.853382007594
 30
0.0
  0
LINE
  5
C8
330
1F
100
AcDbEntity
  8
0
  6
Continuous
 62
     7
370
    15
100
AcDbLine
 10
178.9044888877
 20
126.4377575195
 30
0.0
 11
178.9044888877
 21
117.8533820076
 31
0.0
  0
SPLINE
  5
C9
330
1F
100
AcDbEntity
  8
0
  6
Continuous
 62
     7
370
    15
100
AcDbSpline
210
0.0
220
0.0
230
1.0
 70
     8
 71
     3
 72
    16
 73
    12
 74
     0
 42
0.00000001
 43
0.00000001
 12
1.0
 22
0.0
 32
0.0
 13
1.0
 23
0.0
 33
0.0
 40
0.0
 40
0.0
 40
0.0
 40
0.0
 40
0.0481840062094082
 40
0.5049257909320152
 40
0.6441571288197334
 40
0.7843138357158047
 40
0.8390062363419796
 40
0.8752746432220132
 40
0.9117973478248578
 40
0.9441121370577322
 40
1.0
 40
1.0
 40
1.0
 40
1.0
 10
178.8977570632138
 20
126.3008437621849
 30
0.0
 10
178.8975168818747
 20
126.2995931454566
 30
0.0
 10
178.894999993759
 20
126.2864877876762
 30
0.0
 10
178.8800914334614
 20
126.2615167566888
 30
0.0
 10
178.8449824617409
 20
126.2273788452175
 30
0.0
 10
178.8198728702669
 20
126.2089694570052
 30
0.0
 10
178.7911140933524
 20
126.1945960290125
 30
0.0
 10
178.7707673897755
 20
126.1867290127399
 30
0.0
 10
178.7518601058983
 20
126.1812006816987
 30
0.0
 10
178.730133149986
 20
126.176638889827
 30
0.0
 10
178.7175102495688
 20
126.1754295178233
 30
0.0
 10
178.7095119988241
 20
126.1746632232151
 30
0.0
  0
SPLINE
  5
CA
330
1F
100
AcDbEntity
  8
0
  6
Continuous
 62
     7
370
    15
100
AcDbSpline
210
0.0
220
0.0
230
1.0
 70
     8
 71
     3
 72
    18
 73
    14
 74
     0
 42
0.00000001
 43
0.00000001
 12
1.0
 22
0.0
 32
0.0
 13
1.0
 23
0.0
 33
0.0
 40
0.0
 40
0.0
 40
0.0
 40
0.0
 40
0.1249999999999999
 40
0.1249999999999999
 40
0.2499999999999999
 40
0.2499999999999999
 40
0.3749999999999998
 40
0.3749999999999998
 40
0.4999999999999998
 40
0.4999999999999998
 40
0.7499999999999999
 40
0.7499999999999999
 40
1.0
 40
1.0
 40
1.0
 40
1.0
 10
178.7095119988298
 20
126.174663223215
 30
0.0
 10
178.660807869813
 20
126.1711363735968
 30
0.0
 10
178.6023002006085
 20
126.1676361003992
 30
0.0
 10
178.4705745379776
 20
126.1635931165113
 30
0.0
 10
178.4058168993573
 20
126.1634815418806
 30
0.0
 10
178.3006064827382
 20
126.1650137266421
 30
0.0
 10
178.257390447798
 20
126.1664688788572
 30
0.0
 10
178.181212226317
 20
126.1693941403869
 30
0.0
 10
178.1483574586329
 20
126.1709044708952
 30
0.0
 10
178.0579897397911
 20
126.1750464635835
 30
0.0
 10
178.0085673706017
 20
126.1772845485701
 30
0.0
 10
177.9209149085137
 20
126.1797358316165
 30
0.0
 10
177.8828521722792
 20
126.1799910669775
 30
0.0
 10
177.8484045701358
 20
126.1791256233097
 30
0.0
  0
SPLINE
  5
CB
330
1F
100
AcDbEntity
  8
0
  6
Continuous
 62
     7
370
    15
100
AcDbSpline
210
0.0
220
0.0
230
1.0
 70
     8
 71
     3
 72
     8
 73
     4
 74
     0
 42
0.00000001
 43
0.00000001
 12
1.0
 22
0.0
 32
0.0
 13
1.0
 23
0.0
 33
0.0
 40
0.0
 40
0.0
 40
0.0
 40
0.0
 40
1.0
 40
1.0
 40
1.0
 40
1.0
 10
177.6094489097601
 20
109.4014464362672
 30
0.0
 10
177.6601759924825
 20
109.1180953149481
 30
0.0
 10
177.7180633054695
 20
108.8431391308083
 30
0.0
 10
177.7831685441398
 20
108.5763925502327
 30
0.0
  0
SPLINE
  5
CC
330
1F
100
AcDbEntity
  8
0
  6
Continuous
 62
     7
370
    15
100
AcDbSpline
210
0.0
220
0.0
230
1.0
 70
     8
 71
     3
 72
    24
 73
    20
 74
     0
 42
0.00000001
 43
0.00000001
 12
1.0
 22
0.0
 32
0.0
 13
1.0
 23
0.0
 33
0.0
 40
0.0
 40
0.0
 40
0.0
 40
0.0
 40
0.2499999999999983
 40
0.2499999999999983
 40
0.3749999999999975
 40
0.3749999999999975
 40
0.4374999999999976
 40
0.4374999999999976
 40
0.4687499999999977
 40
0.4687499999999977
 40
0.4999999999999978
 40
0.4999999999999978
 40
0.5624999999999979
 40
0.5624999999999979
 40
0.624999999999998
 40
0.624999999999998
 40
0.7499999999999983
 40
0.7499999999999983
 40
1.0
 40
1.0
 40
1.0
 40
1.0
 10
177.4044888876911
 20
109.4017388445605
 30
0.0
 10
177.404891917065
 20
109.4950071371901
 30
0.0
 10
177.4069216567801
 20
109.5887646960391
 30
0.0
 10
177.4162303681999
 20
109.7303545816786
 30
0.0
 10
177.4201563613145
 20
109.7775350002879
 30
0.0
 10
177.4310857212305
 20
109.8481310469733
 30
0.0
 10
177.4352073493249
 20
109.8719109607381
 30
0.0
 10
177.4471018705072
 20
109.9053621077853
 30
0.0
 10
177.452388682461
 20
109.9175170598548
 30
0.0
 10
177.4689566139759
 20
109.9253996988229
 30
0.0
 10
177.4768833227432
 20
109.9178360997209
 30
0.0
 10
177.4938756609685
 20
109.8940436684941
 30
0.0
 10
177.5012733617594
 20
109.8738551906496
 30
0.0
 10
177.5153757521012
 20
109.8334055660298
 30
0.0
 10
177.5215289093935
 20
109.8125498916323
 30
0.0
 10
177.5388426428546
 20
109.7494248563313
 30
0.0
 10
177.5488476837431
 20
109.7064457444298
 30
0.0
 10
177.5772041399738
 20
109.5767201001409
 30
0.0
 10
177.5937526793201
 20
109.489122373005
 30
0.0
 10
177.6094489097601
 20
109.4014464362672
 30
0.0
  0
SPLINE
  5
CD
330
1F
100
AcDbEntity
  8
0
  6
Continuous
 62
     7
370
    15
100
AcDbSpline
210
0.0
220
0.0
230
1.0
 70
     8
 71
     3
 72
    16
 73
    12
 74
     0
 42
0.00000001
 43
0.00000001
 12
1.0
 22
0.0
 32
0.0
 13
1.0
 23
0.0
 33
0.0
 40
0.0
 40
0.0
 40
0.0
 40
0.0
 40
0.2500000000000001
 40
0.2500000000000001
 40
0.3750000000000001
 40
0.3750000000000001
 40
0.5000000000000001
 40
0.5000000000000001
 40
0.75
 40
0.75
 40
1.0
 40
1.0
 40
1.0
 40
1.0
 10
177.4044888876994
 20
115.2941356367004
 30
0.0
 10
177.3239520783039
 20
114.8250628098373
 30
0.0
 10
177.2639146695017
 20
114.3446991596574
 30
0.0
 10
177.2031767222544
 20
113.6075148805164
 30
0.0
 10
177.1878542412115
 20
113.3589964772894
 30
0.0
 10
177.1672712894336
 20
112.8562130320756
 30
0.0
 10
177.162071742397
 20
112.601354479051
 30
0.0
 10
177.1620180318568
 20
111.8450771393302
 30
0.0
 10
177.182215369126
 20
111.3464189400204
 30
0.0
 10
177.2628936761989
 20
110.3599959692761
 30
0.0
 10
177.3239400245402
 20
109.8708818765032
 30
0.0
 10
177.4044888876994
 20
109.4017388445618
 30
0.0
  0
SPLINE
  5
CE
330
1F
100
AcDbEntity
  8
0
  6
Continuous
 62
     7
370
    15
100
AcDbSpline
210
0.0
220
0.0
230
1.0
 70
     8
 71
     3
 72
    24
 73
    20
 74
     0
 42
0.00000001
 43
0.00000001
 12
1.0
 22
0.0
 32
0.0
 13
1.0
 23
0.0
 33
0.0
 40
0.0
 40
0.0
 40
0.0
 40
0.0
 40
0.2500000000000053
 40
0.2500000000000053
 40
0.3750000000000094
 40
0.3750000000000094
 40
0.4375000000000105
 40
0.4375000000000105
 40
0.5000000000000118
 40
0.5000000000000118
 40
0.531250000000011
 40
0.531250000000011
 40
0.5625000000000102
 40
0.5625000000000102
 40
0.6250000000000087
 40
0.6250000000000087
 40
0.7500000000000054
 40
0.7500000000000054
 40
1.0
 40
1.0
 40
1.0
 40
1.0
 10
177.6094489097552
 20
115.2944280449668
 30
0.0
 10
177.5936798648456
 20
115.2063453814783
 30
0.0
 10
177.5770657002852
 20
115.1184005649712
 30
0.0
 10
177.5485335727919
 20
114.9880531977119
 30
0.0
 10
177.538445939238
 20
114.944792019911
 30
0.0
 10
177.5209581163888
 20
114.8813562440777
 30
0.0
 10
177.5147483084624
 20
114.8604421205347
 30
0.0
 10
177.5004704488795
 20
114.8199673288514
 30
0.0
 10
177.4928992865276
 20
114.7994896853926
 30
0.0
 10
177.4754794613503
 20
114.776643305861
 30
0.0
 10
177.4669953788922
 20
114.7700915088247
 30
0.0
 10
177.4509593052793
 20
114.7806628840654
 30
0.0
 10
177.4461389330035
 20
114.7927539243485
 30
0.0
 10
177.4347320324006
 20
114.8263971675682
 30
0.0
 10
177.4307110706914
 20
114.8498048468644
 30
0.0
 10
177.4199570589133
 20
114.9203934499238
 30
0.0
 10
177.4160851732909
 20
114.9673584774449
 30
0.0
 10
177.4069172084906
 20
115.1079353420473
 30
0.0
 10
177.4048888739776
 20
115.2015715716643
 30
0.0
 10
177.4044888876994
 20
115.2941356367004
 30
0.0
  0
SPLINE
  5
CF
330
1F
100
AcDbEntity
  8
0
  6
Continuous
 62
     7
370
    15
100
AcDbSpline
210
0.0
220
0.0
230
1.0
 70
     8
 71
     3
 72
     8
 73
     4
 74
     0
 42
0.00000001
 43
0.00000001
 12
1.0
 22
0.0
 32
0.0
 13
1.0
 23
0.0
 33
0.0
 40
0.0
 40
0.0
 40
0.0
 40
0.0
 40
1.0
 40
1.0
 40
1.0
 40
1.0
 10
177.7831685441397
 20
116.1194819310295
 30
0.0
 10
177.7180633054674
 20
115.8527353504451
 30
0.0
 10
177.6601759924786
 20
115.5777791662959
 30
0.0
 10
177.609448909755
 20
115.2944280449668
 30
0.0
  0
LINE
  5
D0
330
1F
100
AcDbEntity
  8
0
  6
Continuous
 62
     7
370
    15
100
AcDbLine
 10
177.4044888877
 20
109.4017388446
 30
0.0
 11
177.4044888877
 21
108.2467335752
 31
0.0
  0
LINE
  5
D1
330
1F
100
AcDbEntity
  8
0
  6
Continuous
 62
     7
370
    15
100
AcDbLine
 10
156.6044888877
 20
116.1878567067
 30
0.0
 11
156.6044888877
 21
108.5080177745
 31
0.0
  0
LINE
  5
D2
330
1F
100
AcDbEntity
  8
0
  6
Continuous
 62
     7
370
    15
100
AcDbLine
 10
177.4044888877
 20
116.4491409061
 30
0.0
 11
177.4044888877
 21
115.2941356367
 31
0.0
  0
LINE
  5
D3
330
1F
100
AcDbEntity
  8
0
  6
Continuous
 62
     7
370
    15
100
AcDbLine
 10
155.1044888877
 20
115.7548440048
 30
0.0
 11
155.1044888877
 21
108.9410304764
 31
0.0
  0
LINE
  5
D4
330
1F
100
AcDbEntity
  8
0
  6
Continuous
 62
     7
370
    15
100
AcDbLine
 10
177.6094489098
 20
126.1731222254
 30
0.0
 11
177.8484045701
 21
126.1791256233
 31
0.0
  0
LINE
  5
D5
330
1F
100
AcDbEntity
  8
0
  6
Continuous
 62
     7
370
    15
100
AcDbLine
 10
156.6044888877
 20
116.1878567067
 30
0.0
 11
156.6044888877
 21
125.8454676265
 31
0.0
  0
LINE
  5
D6
330
1F
100
AcDbEntity
  8
0
  6
Continuous
 62
     7
370
    15
100
AcDbLine
 10
156.6044888877
 20
125.8454676265
 30
0.0
 11
177.4044888877
 21
126.3680360252
 31
0.0
  0
LINE
  5
D7
330
1F
100
AcDbEntity
  8
0
  6
Continuous
 62
     7
370
    15
100
AcDbLine
 10
177.4044888877
 20
116.4491409061
 30
0.0
 11
177.4044888877
 21
126.3680360252
 31
0.0
  0
ARC
  5
D8
330
1F
100
AcDbEntity
  8
0
  6
Continuous
 62
     7
370
    15
100
AcDbCircle
 10
177.6044257986
 20
126.3730591363
 30
0.0
 40
0.2000000000000069
100
AcDbArc
 50
181.4391666667
 51
271.4391666667
  0
LINE
  5
D9
330
1F
100
AcDbEntity
  8
0
  6
Continuous
 62
     7
370
    15
100
AcDbLine
 10
177.4044888877
 20
98.3278384561
 30
0.0
 11
177.4044888877
 21
108.2467335752
 31
0.0
  0
ARC
  5
DA
330
1F
100
AcDbEntity
  8
0
  6
Continuous
 62
     7
370
    15
100
AcDbCircle
 10
177.6044257986
 20
98.3228153449
 30
0.0
 40
0.2000000000000343
100
AcDbArc
 50
88.5608333333
 51
178.5608333333
  0
LINE
  5
DB
330
1F
100
AcDbEntity
  8
0
  6
Continuous
 62
     7
370
    15
100
AcDbLine
 10
156.6044888877
 20
98.8504068548
 30
0.0
 11
156.6044888877
 21
108.5080177745
 31
0.0
  0
LINE
  5
DC
330
1F
100
AcDbEntity
  8
0
  6
Continuous
 62
     7
370
    15
100
AcDbLine
 10
156.6044888877
 20
98.8504068548
 30
0.0
 11
177.4044888877
 21
98.3278384561
 31
0.0
  0
LINE
  5
DD
330
1F
100
AcDbEntity
  8
0
  6
Continuous
 62
     7
370
    15
100
AcDbLine
 10
177.6094489098
 20
98.5227522559
 30
0.0
 11
177.8484045701
 21
98.516748858
 31
0.0
  0
LINE
  5
DE
330
1F
100
AcDbEntity
  8
0
  6
Continuous
 62
     7
370
    15
100
AcDbLine
 10
155.1044888877
 20
124.9794422227
 30
0.0
 11
156.6044888877
 21
125.8454676265
 31
0.0
  0
LINE
  5
DF
330
1F
100
AcDbEntity
  8
0
  6
Continuous
 62
     7
370
    15
100
AcDbLine
 10
155.1044888877
 20
115.7548440048
 30
0.0
 11
155.1044888877
 21
124.9794422227
 31
0.0
  0
LINE
  5
E0
330
1F
100
AcDbEntity
  8
0
  6
Continuous
 62
     7
370
    15
100
AcDbLine
 10
155.1044888877
 20
99.7164322586
 30
0.0
 11
156.6044888877
 21
98.8504068548
 31
0.0
  0
LINE
  5
E1
330
1F
100
AcDbEntity
  8
0
  6
Continuous
 62
     7
370
    15
100
AcDbLine
 10
155.1044888877
 20
99.7164322586
 30
0.0
 11
155.1044888877
 21
108.9410304764
 31
0.0
  0
SPLINE
  5
E2
330
1F
100
AcDbEntity
  8
0
  6
Continuous
 62
     7
370
    15
100
AcDbSpline
210
0.0
220
0.0
230
1.0
 70
     8
 71
     3
 72
     8
 73
     4
 74
     0
 42
0.00000001
 43
0.00000001
 12
1.0
 22
0.0
 32
0.0
 13
1.0
 23
0.0
 33
0.0
 40
0.0
 40
0.0
 40
0.0
 40
0.0
 40
1.0
 40
1.0
 40
1.0
 40
1.0
 10
201.3371618997205
 20
131.9369915547731
 30
0.0
 10
201.436098882584
 20
131.9492923120368
 30
0.0
 10
201.5437262143765
 20
131.9722204181513
 30
0.0
 10
201.6513016569786
 20
132.0122070232908
 30
0.0
  0
SPLINE
  5
E3
330
1F
100
AcDbEntity
  8
0
  6
Continuous
 62
     7
370
    15
100
AcDbSpline
210
0.0
220
0.0
230
1.0
 70
     8
 71
     3
 72
     8
 73
     4
 74
     0
 42
0.00000001
 43
0.00000001
 12
1.0
 22
0.0
 32
0.0
 13
1.0
 23
0.0
 33
0.0
 40
0.0
 40
0.0
 40
0.0
 40
0.0
 40
1.0
 40
1.0
 40
1.0
 40
1.0
 10
201.6513016569786
 20
95.2093088544864
 30
0.0
 10
201.5437363510698
 20
95.253218074725
 30
0.0
 10
201.4361181971101
 20
95.28778096949134
 30
0.0
 10
201.3371618997204
 20
95.31977844427077
 30
0.0
  0
SPLINE
  5
E4
330
1F
100
AcDbEntity
  8
0
  6
Continuous
 62
     7
370
    15
100
AcDbSpline
210
0.0
220
0.0
230
1.0
 70
     8
 71
     3
 72
    12
 73
     8
 74
     0
 42
0.00000001
 43
0.00000001
 12
1.0
 22
0.0
 32
0.0
 13
1.0
 23
0.0
 33
0.0
 40
0.0
 40
0.0
 40
0.0
 40
0.0
 40
0.5000000000000068
 40
0.5000000000000068
 40
0.7500000000000033
 40
0.7500000000000033
 40
1.0
 40
1.0
 40
1.0
 40
1.0
 10
201.6513016569786
 20
132.0122070232909
 30
0.0
 10
201.8132875362206
 20
132.0724183989984
 30
0.0
 10
201.9565585747136
 20
132.1745838705676
 30
0.0
 10
202.1240876348646
 20
132.3672863092496
 30
0.0
 10
202.1728615013758
 20
132.439163355227
 30
0.0
 10
202.2514720483976
 20
132.5902529126326
 30
0.0
 10
202.281867355585
 20
132.6697643747026
 30
0.0
 10
202.3030877260095
 20
132.7533604839789
 30
0.0
  0
SPLINE
  5
E5
330
1F
100
AcDbEntity
  8
0
  6
Continuous
 62
     7
370
    15
100
AcDbSpline
210
0.0
220
0.0
230
1.0
 70
     8
 71
     3
 72
     8
 73
     4
 74
     0
 42
0.00000001
 43
0.00000001
 12
1.0
 22
0.0
 32
0.0
 13
1.0
 23
0.0
 33
0.0
 40
0.0
 40
0.0
 40
0.0
 40
0.0
 40
1.0
 40
1.0
 40
1.0
 40
1.0
 10
202.2031873035049
 20
94.70356064591982
 30
0.0
 10
202.0847903078503
 20
94.92608472892047
 30
0.0
 10
201.8886784915147
 20
95.11240928618118
 30
0.0
 10
201.6513016569786
 20
95.2093088544864
 30
0.0
  0
LINE
  5
E6
330
1F
100
AcDbEntity
  8
0
  6
Continuous
 62
     7
370
    15
100
AcDbLine
 10
202.2031873035
 20
94.7035606459
 30
0.0
 11
202.2031873035
 21
91.8479372406
 31
0.0
  0
CIRCLE
  5
E7
330
1F
100
AcDbEntity
  8
0
  6
Continuous
 62
     7
370
    15
100
AcDbCircle
 10
213.7325408901
 20
115.9110083428
 30
0.0
 40
3.465883467022256
  0
LINE
  5
E8
330
1F
100
AcDbEntity
  8
0
  6
Continuous
 62
     7
370
    15
100
AcDbLine
 10
214.4569155213
 20
134.6411994005
 30
0.0
 11
211.548891458
 21
125.3917266483
 31
0.0
  0
LINE
  5
E9
330
1F
100
AcDbEntity
  8
0
  6
Continuous
 62
     7
370
    15
100
AcDbLine
 10
211.548891458
 20
125.3917266483
 30
0.0
 11
208.573087716
 21
124.4999447251
 31
0.0
  0
ARC
  5
EA
330
1F
100
AcDbEntity
  8
0
  6
Continuous
 62
     7
370
    15
100
AcDbCircle
 10
209.2152495495
 20
122.5203956735
 30
0.0
 40
2.081102176307289
100
AcDbArc
 50
107.9729613025
 51
287.7578411067
  0
LINE
  5
EB
330
1F
100
AcDbEntity
  8
0
  6
Continuous
 62
     7
370
    15
100
AcDbLine
 10
209.8499745472
 20
120.5384495477
 30
0.0
 11
224.2594331982
 21
124.8566425003
 31
0.0
  0
LINE
  5
EC
330
1F
100
AcDbEntity
  8
0
  6
Continuous
 62
     7
370
    15
100
AcDbLine
 10
224.2594331982
 20
124.8566425003
 30
0.0
 11
214.5722229001
 21
94.0447971555
 31
0.0
  0
ELLIPSE
  5
ED
330
1F
100
AcDbEntity
  8
0
  6
Continuous
 62
     7
370
    15
100
AcDbEllipse
 10
270.8425625443
 20
112.3479372406
 30
0.0
 11
195.0441159362921
 21
-3.598319842585013
 31
0.0
210
0.0
220
0.0
230
1.0
 40
0.1034726254
 41
4.354680085461533
 42
4.421638012071593
  0
SPLINE
  5
EE
330
1F
100
AcDbEntity
  8
0
  6
Continuous
 62
     7
370
    15
100
AcDbSpline
210
0.0
220
0.0
230
1.0
 70
     8
 71
     3
 72
     8
 73
     4
 74
     0
 42
0.00000001
 43
0.00000001
 12
1.0
 22
0.0
 32
0.0
 13
1.0
 23
0.0
 33
0.0
 40
0.0
 40
0.0
 40
0.0
 40
0.0
 40
1.0
 40
1.0
 40
1.0
 40
1.0
 10
202.3030877260095
 20
132.7533604839789
 30
0.0
 10
202.3901995241377
 20
133.0965310908025
 30
0.0
 10
202.4776164279055
 20
133.4396191632928
 30
0.0
 10
202.5652990189657
 20
133.7826353645337
 30
0.0
  0
LINE
  5
EF
330
1F
100
AcDbEntity
  8
0
  6
Continuous
 62
     7
370
    15
100
AcDbLine
 10
202.565299019
 20
133.7826353645
 30
0.0
 11
208.4262234109
 21
133.675666702
 31
0.0
  0
ARC
  5
F0
330
1F
100
AcDbEntity
  8
0
  6
Continuous
 62
     7
370
    15
100
AcDbCircle
 10
208.7432048133
 20
150.6004511025
 30
0.0
 40
16.92775248555871
100
AcDbArc
 50
268.9270425527
 51
286.6540746437
  0
LINE
  5
F1
330
1F
100
AcDbEntity
  8
0
  6
Continuous
 62
     7
370
    15
100
AcDbLine
 10
213.5945748706
 20
134.3827751661
 30
0.0
 11
214.4569155213
 21
134.6411994005
 31
0.0
  0
ELLIPSE
  5
F2
330
1F
100
AcDbEntity
  8
0
  6
Continuous
 62
     7
370
    15
100
AcDbEllipse
 10
220.0600637391
 20
112.3479372406
 30
0.0
 11
6.672029803933555
 21
20.49782756633792
 31
0.0
210
0.0
220
0.0
230
1.0
 40
0.0447296713
 41
3.156151104435598
 42
3.623343936072386
  0
LWPOLYLINE
  5
F3
330
1F
100
AcDbEntity
  8
0
  6
Continuous
 62
     7
370
    15
100
AcDbPolyline
 90
        3
 70
   128
 43
0.0
 10
207.6093352846
 20
122.9076791709
 10
207.1828554204
 20
122.7254142294
 10
207.1275262646
 20
122.6927866389
  0
LINE
  5
F4
330
1F
100
AcDbEntity
  8
0
  6
Continuous
 62
     7
370
    15
100
AcDbLine
 10
210.5851390267
 20
123.799461094
 30
0.0
 11
211.548891458
 21
125.3917266483
 31
0.0
  0
LINE
  5
F5
330
1F
100
AcDbEntity
  8
0
  6
Continuous
 62
     7
370
    15
100
AcDbLine
 10
210.5851390267
 20
123.799461094
 30
0.0
 11
207.6093352846
 21
122.9076791709
 31
0.0
  0
SPLINE
  5
F6
330
1F
100
AcDbEntity
  8
0
  6
Continuous
 62
     7
370
    15
100
AcDbSpline
210
0.0
220
0.0
230
1.0
 70
     8
 71
     3
 72
    12
 73
     8
 74
     0
 42
0.00000001
 43
0.00000001
 12
1.0
 22
0.0
 32
0.0
 13
1.0
 23
0.0
 33
0.0
 40
0.0
 40
0.0
 40
0.0
 40
0.0
 40
0.1091766649356588
 40
0.3476175539710634
 40
0.5861338817257314
 40
0.8246737212611088
 40
1.0
 40
1.0
 40
1.0
 40
1.0
 10
202.3243218772749
 20
133.1641828696698
 30
0.0
 10
202.330115386712
 20
133.1867205781582
 30
0.0
 10
202.3485618704968
 20
133.2584804464548
 30
0.0
 10
202.3891953072335
 20
133.3793968805366
 30
0.0
 10
202.4456944251788
 20
133.5269204301582
 30
0.0
 10
202.5048855190653
 20
133.6613383846939
 30
0.0
 10
202.5473217433308
 20
133.7465409610666
 30
0.0
 10
202.5652990189657
 20
133.7826353645337
 30
0.0
  0
SPLINE
  5
F7
330
1F
100
AcDbEntity
  8
0
  6
HIDDEN
 62
     7
370
     0
100
AcDbSpline
210
0.0
220
0.0
230
1.0
 70
     8
 71
     3
 72
    68
 73
    64
 74
     0
 42
0.00000001
 43
0.00000001
 12
1.0
 22
0.0
 32
0.0
 13
1.0
 23
0.0
 33
0.0
 40
-0.0625000000000013
 40
-0.0625000000000013
 40
0.0
 40
0.0
 40
0.0312499999999999
 40
0.0312499999999999
 40
0.0624999999999998
 40
0.0624999999999998
 40
0.0937499999999997
 40
0.0937499999999997
 40
0.1249999999999996
 40
0.1249999999999996
 40
0.1562499999999995
 40
0.1562499999999995
 40
0.1874999999999994
 40
0.1874999999999994
 40
0.2187499999999993
 40
0.2187499999999993
 40
0.2499999999999992
 40
0.2499999999999992
 40
0.2812499999999991
 40
0.2812499999999991
 40
0.3124999999999989
 40
0.3124999999999989
 40
0.3437499999999988
 40
0.3437499999999988
 40
0.3749999999999988
 40
0.3749999999999988
 40
0.4062499999999987
 40
0.4062499999999987
 40
0.4374999999999986
 40
0.4374999999999986
 40
0.4687499999999984
 40
0.4687499999999984
 40
0.4999999999999983
 40
0.4999999999999983
 40
0.5312499999999982
 40
0.5312499999999982
 40
0.5624999999999981
 40
0.5624999999999981
 40
0.593749999999998
 40
0.593749999999998
 40
0.6249999999999979
 40
0.6249999999999979
 40
0.6562499999999978
 40
0.6562499999999978
 40
0.6874999999999977
 40
0.6874999999999977
 40
0.7187499999999976
 40
0.7187499999999976
 40
0.7499999999999976
 40
0.7499999999999976
 40
0.7812499999999977
 40
0.7812499999999977
 40
0.8124999999999977
 40
0.8124999999999977
 40
0.8437499999999977
 40
0.8437499999999977
 40
0.8749999999999977
 40
0.8749999999999977
 40
0.9062499999999981
 40
0.9062499999999981
 40
0.9374999999999987
 40
0.9374999999999987
 40
1.0
 40
1.0
 40
1.03125
 40
1.03125
 10
193.4351594003763
 20
107.2325277345714
 30
0.0
 10
192.9391536313614
 20
107.2325277345714
 30
0.0
 10
192.7766138889388
 20
107.2166970058956
 30
0.0
 10
192.4568866792413
 20
107.1547855694074
 30
0.0
 10
192.298030102656
 20
107.1079433795606
 30
0.0
 10
191.9953582044271
 20
106.9860804989555
 30
0.0
 10
191.851830388831
 20
106.9116383954447
 30
0.0
 10
191.5801986098837
 20
106.7363322324449
 30
0.0
 10
191.4517139775607
 20
106.6346379846376
 30
0.0
 10
191.2213572216002
 20
106.4133518057996
 30
0.0
 10
191.1179297216374
 20
106.292952996578
 30
0.0
 10
190.9351646450821
 20
106.0325015043083
 30
0.0
 10
190.8575982693606
 20
105.8945556168775
 30
0.0
 10
190.7328630763644
 20
105.6103076029174
 30
0.0
 10
190.6847827330217
 20
105.4619004036662
 30
0.0
 10
190.6204992242103
 20
105.1596742345819
 30
0.0
 10
190.6045798966539
 20
105.0084277528049
 30
0.0
 10
190.6043986494676
 20
104.7057570646741
 30
0.0
 10
190.6206626787482
 20
104.5527893617461
 30
0.0
 10
190.6845028965474
 20
104.2583276496318
 30
0.0
 10
190.7317364411344
 20
104.115913527208
 30
0.0
 10
190.8570416073627
 20
103.8405229252347
 30
0.0
 10
190.9352493849879
 20
103.7082680019107
 30
0.0
 10
191.1161012674861
 20
103.4643169931388
 30
0.0
 10
191.2194734311459
 20
103.3509793721288
 30
0.0
 10
191.452609967023
 20
103.1424051280755
 30
0.0
 10
191.5787000040074
 20
103.0504141505185
 30
0.0
 10
191.8492421403305
 20
102.8896131048607
 30
0.0
 10
191.9954371009176
 20
102.8202481286221
 30
0.0
 10
192.2980624498674
 20
102.7093427868452
 30
0.0
 10
192.4538849484164
 20
102.6675974437621
 30
0.0
 10
192.7745181206949
 20
102.6111074638482
 30
0.0
 10
192.9403233013029
 20
102.5966625486542
 30
0.0
 10
193.2667771174128
 20
102.5965546849696
 30
0.0
 10
193.4291167197014
 20
102.6104249696056
 30
0.0
 10
193.7519787073559
 20
102.6667966458373
 30
0.0
 10
193.9097194177812
 20
102.709043527543
 30
0.0
 10
194.2106717504537
 20
102.8190595844231
 30
0.0
 10
194.3561912283935
 20
102.8876975053685
 30
0.0
 10
194.6293944842841
 20
103.0497011523016
 30
0.0
 10
194.7552251322153
 20
103.1416672596303
 30
0.0
 10
194.9859049557912
 20
103.3474805712992
 30
0.0
 10
195.0915224337302
 20
103.4626874940862
 30
0.0
 10
195.2730668210542
 20
103.7071807769285
 30
0.0
 10
195.3499852780477
 20
103.8369438779657
 30
0.0
 10
195.4758130731722
 20
104.1120848290341
 30
0.0
 10
195.524073342458
 20
104.257087299054
 30
0.0
 10
195.5879481112562
 20
104.5504922515749
 30
0.0
 10
195.6043382717219
 20
104.7004343974902
 30
0.0
 10
195.6046374566824
 20
105.0069815178216
 30
0.0
 10
195.5885480877675
 20
105.158459551492
 30
0.0
 10
195.525232680853
 20
105.4578944048239
 30
0.0
 10
195.4772190133623
 20
105.6074379312557
 30
0.0
 10
195.3519634743524
 20
105.8935732872316
 30
0.0
 10
195.275293026704
 20
106.0299402526389
 30
0.0
 10
195.0940832424891
 20
106.2890688559161
 30
0.0
 10
194.9887201964019
 20
106.4121486399416
 30
0.0
 10
194.7585385780876
 20
106.6335587171523
 30
0.0
 10
194.6328732382118
 20
106.7333825624564
 30
0.0
 10
194.3597450037664
 20
106.9102619345285
 30
0.0
 10
194.2146252690466
 20
106.9855255397644
 30
0.0
 10
193.7636750187936
 20
107.1675359125586
 30
0.0
 10
193.4351594003763
 20
107.2325277345714
 30
0.0
 10
192.9391536313614
 20
107.2325277345714
 30
0.0
  0
SPLINE
  5
F8
330
1F
100
AcDbEntity
  8
0
  6
HIDDEN
 62
     7
370
     0
100
AcDbSpline
210
0.0
220
0.0
230
1.0
 70
     8
 71
     3
 72
    58
 73
    54
 74
     0
 42
0.00000001
 43
0.00000001
 12
1.0
 22
0.0
 32
0.0
 13
1.0
 23
0.0
 33
0.0
 40
-0.0625000000000003
 40
-0.0625000000000003
 40
0.0
 40
0.0
 40
0.0312499999999998
 40
0.0312499999999998
 40
0.0624999999999996
 40
0.0624999999999996
 40
0.0937499999999994
 40
0.0937499999999994
 40
0.1249999999999991
 40
0.1249999999999991
 40
0.1874999999999987
 40
0.1874999999999987
 40
0.2499999999999983
 40
0.2499999999999983
 40
0.2812499999999983
 40
0.2812499999999983
 40
0.3124999999999983
 40
0.3124999999999983
 40
0.3437499999999983
 40
0.3437499999999983
 40
0.3749999999999983
 40
0.3749999999999983
 40
0.4062499999999983
 40
0.4062499999999983
 40
0.4374999999999983
 40
0.4374999999999983
 40
0.4687499999999983
 40
0.4687499999999983
 40
0.4999999999999983
 40
0.4999999999999983
 40
0.5624999999999983
 40
0.5624999999999983
 40
0.6249999999999983
 40
0.6249999999999983
 40
0.6562499999999984
 40
0.6562499999999984
 40
0.6874999999999986
 40
0.6874999999999986
 40
0.7187499999999987
 40
0.7187499999999987
 40
0.7499999999999988
 40
0.7499999999999988
 40
0.781249999999999
 40
0.781249999999999
 40
0.8124999999999991
 40
0.8124999999999991
 40
0.8437499999999992
 40
0.8437499999999992
 40
0.8749999999999993
 40
0.8749999999999993
 40
0.9374999999999997
 40
0.9374999999999997
 40
1.0
 40
1.0
 40
1.03125
 40
1.03125
 10
193.1044888876994
 20
112.0835011261831
 30
0.0
 10
193.1044888876994
 20
112.4801552978551
 30
0.0
 10
193.0915068500272
 20
112.6101474586956
 30
0.0
 10
193.0406560477689
 20
112.8658670711479
 30
0.0
 10
193.002164143716
 20
112.992925755009
 30
0.0
 10
192.9017488579895
 20
113.2350889526679
 30
0.0
 10
192.8403127187165
 20
113.3499307370525
 30
0.0
 10
192.6951792424057
 20
113.5672729346227
 30
0.0
 10
192.6107575535545
 20
113.6701145824705
 30
0.0
 10
192.3341573793897
 20
113.9466580632221
 30
0.0
 10
192.1111584681226
 20
114.0956406993542
 30
0.0
 10
191.6299239505369
 20
114.2951837629089
 30
0.0
 10
191.3666245350279
 20
114.3477942359403
 30
0.0
 10
190.9750610949877
 20
114.3480082946928
 30
0.0
 10
190.842473484383
 20
114.3350094452873
 30
0.0
 10
190.5859077787837
 20
114.2839593612609
 30
0.0
 10
190.4611980126032
 20
114.2461881224487
 30
0.0
 10
190.2189588275762
 20
114.1459962143362
 30
0.0
 10
190.1019421738025
 20
114.0834108205117
 30
0.0
 10
189.8852989689562
 20
113.9387057348011
 30
0.0
 10
189.7842922124977
 20
113.8560863934209
 30
0.0
 10
189.5974861168411
 20
113.6694423586309
 30
0.0
 10
189.5147725813092
 20
113.568496510671
 30
0.0
 10
189.3699024519339
 20
113.3520153069893
 30
0.0
 10
189.3072321558373
 20
113.2350981419809
 30
0.0
 10
189.206804217801
 20
112.9929016727824
 30
0.0
 10
189.1689330388713
 20
112.8682406818789
 30
0.0
 10
189.1176706410956
 20
112.6118413328109
 30
0.0
 10
189.1045370004549
 20
112.4792304075131
 30
0.0
 10
189.1043930673161
 20
112.0875557951779
 30
0.0
 10
189.1567583245809
 20
111.8242717755174
 30
0.0
 10
189.3559189879315
 20
111.3427590616576
 30
0.0
 10
189.5047166612935
 20
111.1196379746126
 30
0.0
 10
189.7810173198797
 20
110.8428058261051
 30
0.0
 10
189.8837823669394
 20
110.7582986118208
 30
0.0
 10
190.1009996407338
 20
110.6129776701349
 30
0.0
 10
190.2157693341716
 20
110.5514554468728
 30
0.0
 10
190.4577558713162
 20
110.4508590436008
 30
0.0
 10
190.5848384442077
 20
110.4122311555122
 30
0.0
 10
190.8405131442108
 20
110.3611530454461
 30
0.0
 10
190.970453661555
 20
110.3480639056789
 30
0.0
 10
191.2347170293164
 20
110.3478123873203
 30
0.0
 10
191.3649279229633
 20
110.3606868573766
 30
0.0
 10
191.6206778683969
 20
110.4113057545087
 30
0.0
 10
191.7476952527643
 20
110.4496535733045
 30
0.0
 10
191.990046980516
 20
110.5498876934979
 30
0.0
 10
192.1049497598023
 20
110.6112318804879
 30
0.0
 10
192.3223719249513
 20
110.7561368850171
 30
0.0
 10
192.425308322396
 20
110.840475777139
 30
0.0
 10
192.7021454795529
 20
111.1168768901808
 30
0.0
 10
192.8513007206171
 20
111.3397205232233
 30
0.0
 10
193.0512713058523
 20
111.8207838044738
 30
0.0
 10
193.1044888876994
 20
112.0835011261831
 30
0.0
 10
193.1044888876994
 20
112.4801552978551
 30
0.0
  0
SPLINE
  5
F9
330
1F
100
AcDbEntity
  8
0
  6
HIDDEN
 62
     7
370
     0
100
AcDbSpline
210
0.0
220
0.0
230
1.0
 70
     8
 71
     3
 72
    12
 73
     8
 74
     0
 42
0.00000001
 43
0.00000001
 12
1.0
 22
0.0
 32
0.0
 13
1.0
 23
0.0
 33
0.0
 40
0.0
 40
0.0
 40
0.0
 40
0.0
 40
0.5000000000000006
 40
0.5000000000000006
 40
0.7500000000000002
 40
0.7500000000000002
 40
1.0
 40
1.0
 40
1.0
 40
1.0
 10
185.7765832685633
 20
106.209692113572
 30
0.0
 10
185.7952765016937
 20
106.2772747500124
 30
0.0
 10
185.8209317991055
 20
106.3437573194898
 30
0.0
 10
185.8810924217919
 20
106.4327524023873
 30
0.0
 10
185.9051647335463
 20
106.4607542993865
 30
0.0
 10
185.9635462538968
 20
106.5038307000517
 30
0.0
 10
185.9990150815499
 20
106.5187242449794
 30
0.0
 10
186.0363908896986
 20
106.5187242449794
 30
0.0
  0
LINE
  5
FA
330
1F
100
AcDbEntity
  8
0
  6
HIDDEN
 62
     7
370
     0
100
AcDbLine
 10
186.0363908897
 20
106.518724245
 30
0.0
 11
188.1725868857
 21
106.518724245
 31
0.0
  0
SPLINE
  5
FB
330
1F
100
AcDbEntity
  8
0
  6
HIDDEN
 62
     7
370
     0
100
AcDbSpline
210
0.0
220
0.0
230
1.0
 70
     8
 71
     3
 72
    12
 73
     8
 74
     0
 42
0.00000001
 43
0.00000001
 12
1.0
 22
0.0
 32
0.0
 13
1.0
 23
0.0
 33
0.0
 40
0.0
 40
0.0
 40
0.0
 40
0.0
 40
0.2500000000000027
 40
0.2500000000000027
 40
0.5000000000000053
 40
0.5000000000000053
 40
1.0
 40
1.0
 40
1.0
 40
1.0
 10
188.1725868857002
 20
106.5187242449795
 30
0.0
 10
188.2100987717449
 20
106.5187242449795
 30
0.0
 10
188.2453861194496
 20
106.5039194306927
 30
0.0
 10
188.304315967688
 20
106.4603275575669
 30
0.0
 10
188.3278416941571
 20
106.4328141314808
 30
0.0
 10
188.3881004819252
 20
106.3436823993673
 30
0.0
 10
188.4136952442145
 20
106.2772965487494
 30
0.0
 10
188.4323945068356
 20
106.209692113572
 30
0.0
  0
ELLIPSE
  5
FC
330
1F
100
AcDbEntity
  8
0
  6
HIDDEN
 62
     7
370
     0
100
AcDbEllipse
 10
178.1555597153
 20
112.3479372406
 30
0.0
 11
-9.367417879781783
 21
19.74174915274995
 31
0.0
210
0.0
220
0.0
230
1.0
 40
0.3419987131
 41
3.292664382516895
 42
4.239566697061004
  0
SPLINE
  5
FD
330
1F
100
AcDbEntity
  8
0
  6
HIDDEN
 62
     7
370
     0
100
AcDbSpline
210
0.0
220
0.0
230
1.0
 70
     8
 71
     3
 72
    12
 73
     8
 74
     0
 42
0.00000001
 43
0.00000001
 12
1.0
 22
0.0
 32
0.0
 13
1.0
 23
0.0
 33
0.0
 40
0.0
 40
0.0
 40
0.0
 40
0.0
 40
0.5
 40
0.5
 40
0.75
 40
0.75
 40
1.0
 40
1.0
 40
1.0
 40
1.0
 10
188.4323945068356
 20
93.31318095744918
 30
0.0
 10
188.4137012737052
 20
93.29138720382122
 30
0.0
 10
188.3880459762934
 20
93.27036704211157
 30
0.0
 10
188.3278853536069
 20
93.24266169614785
 30
0.0
 10
188.3038130418526
 20
93.23402647995447
 30
0.0
 10
188.245431521502
 20
93.22081183472785
 30
0.0
 10
188.2099626938489
 20
93.21628086039775
 30
0.0
 10
188.1725868857002
 20
93.21628086039775
 30
0.0
  0
LINE
  5
FE
330
1F
100
AcDbEntity
  8
0
  6
HIDDEN
 62
     7
370
     0
100
AcDbLine
 10
188.1725868857
 20
93.2162808604
 30
0.0
 11
186.0363908897
 21
93.2162808604
 31
0.0
  0
SPLINE
  5
FF
330
1F
100
AcDbEntity
  8
0
  6
HIDDEN
 62
     7
370
     0
100
AcDbSpline
210
0.0
220
0.0
230
1.0
 70
     8
 71
     3
 72
    12
 73
     8
 74
     0
 42
0.00000001
 43
0.00000001
 12
1.0
 22
0.0
 32
0.0
 13
1.0
 23
0.0
 33
0.0
 40
0.0
 40
0.0
 40
0.0
 40
0.0
 40
0.2500000000000014
 40
0.2500000000000014
 40
0.5000000000000029
 40
0.5000000000000029
 40
1.0
 40
1.0
 40
1.0
 40
1.0
 10
186.0363908896986
 20
93.21628086039776
 30
0.0
 10
185.9988790036539
 20
93.21628086039776
 30
0.0
 10
185.9635916559492
 20
93.22078440466025
 30
0.0
 10
185.9046618077108
 20
93.23415760411355
 30
0.0
 10
185.8811360812417
 20
93.24264250668467
 30
0.0
 10
185.8208772934736
 20
93.27039031051928
 30
0.0
 10
185.7952825311843
 20
93.29138017425964
 30
0.0
 10
185.7765832685633
 20
93.31318095744918
 30
0.0
  0
ELLIPSE
  5
100
330
1F
100
AcDbEntity
  8
0
  6
HIDDEN
 62
     7
370
     0
100
AcDbEllipse
 10
196.0534180601
 20
112.3479372406
 30
0.0
 11
9.367417879781614
 21
19.74174915274995
 31
0.0
210
0.0
220
0.0
230
1.0
 40
0.3419987131
 41
2.043618610118592
 42
2.990520924662722
  0
SPLINE
  5
101
330
1F
100
AcDbEntity
  8
0
  6
HIDDEN
 62
     7
370
     0
100
AcDbSpline
210
0.0
220
0.0
230
1.0
 70
     8
 71
     3
 72
    12
 73
     8
 74
     0
 42
0.00000001
 43
0.00000001
 12
1.0
 22
0.0
 32
0.0
 13
1.0
 23
0.0
 33
0.0
 40
0.0
 40
0.0
 40
0.0
 40
0.0
 40
0.4999999999999971
 40
0.4999999999999971
 40
0.7499999999999986
 40
0.7499999999999986
 40
1.0
 40
1.0
 40
1.0
 40
1.0
 10
185.7765832685633
 20
131.3826935238131
 30
0.0
 10
185.7952765016937
 20
131.404487277441
 30
0.0
 10
185.8209317991055
 20
131.4255074391507
 30
0.0
 10
185.8810924217919
 20
131.4532127851144
 30
0.0
 10
185.9051647335463
 20
131.4618480013077
 30
0.0
 10
185.9635462538968
 20
131.4750626465344
 30
0.0
 10
185.9990150815499
 20
131.4795936208645
 30
0.0
 10
186.0363908896986
 20
131.4795936208645
 30
0.0
  0
LINE
  5
102
330
1F
100
AcDbEntity
  8
0
  6
HIDDEN
 62
     7
370
     0
100
AcDbLine
 10
186.0363908897
 20
131.4795936209
 30
0.0
 11
188.1725868857
 21
131.4795936209
 31
0.0
  0
SPLINE
  5
103
330
1F
100
AcDbEntity
  8
0
  6
HIDDEN
 62
     7
370
     0
100
AcDbSpline
210
0.0
220
0.0
230
1.0
 70
     8
 71
     3
 72
    12
 73
     8
 74
     0
 42
0.00000001
 43
0.00000001
 12
1.0
 22
0.0
 32
0.0
 13
1.0
 23
0.0
 33
0.0
 40
0.0
 40
0.0
 40
0.0
 40
0.0
 40
0.2499999999999988
 40
0.2499999999999988
 40
0.4999999999999977
 40
0.4999999999999977
 40
1.0
 40
1.0
 40
1.0
 40
1.0
 10
188.1725868857002
 20
131.4795936208645
 30
0.0
 10
188.2100987717449
 20
131.4795936208645
 30
0.0
 10
188.2453861194495
 20
131.475090076602
 30
0.0
 10
188.304315967688
 20
131.4617168771487
 30
0.0
 10
188.327841694157
 20
131.4532319745776
 30
0.0
 10
188.3881004819251
 20
131.4254841707429
 30
0.0
 10
188.4136952442145
 20
131.4044943070026
 30
0.0
 10
188.4323945068355
 20
131.3826935238131
 30
0.0
  0
ELLIPSE
  5
104
330
1F
100
AcDbEntity
  8
0
  6
HIDDEN
 62
     7
370
     0
100
AcDbEllipse
 10
178.1555597153
 20
112.3479372406
 30
0.0
 11
9.367417879781812
 21
19.74174915274995
 31
0.0
210
0.0
220
0.0
230
1.0
 40
0.3419987131
 41
5.185211263708414
 42
6.132113578252574
  0
SPLINE
  5
105
330
1F
100
AcDbEntity
  8
0
  6
HIDDEN
 62
     7
370
     0
100
AcDbSpline
210
0.0
220
0.0
230
1.0
 70
     8
 71
     3
 72
    12
 73
     8
 74
     0
 42
0.00000001
 43
0.00000001
 12
1.0
 22
0.0
 32
0.0
 13
1.0
 23
0.0
 33
0.0
 40
0.0
 40
0.0
 40
0.0
 40
0.0
 40
0.4999999999999971
 40
0.4999999999999971
 40
0.7499999999999986
 40
0.7499999999999986
 40
1.0
 40
1.0
 40
1.0
 40
1.0
 10
188.4323945068355
 20
118.4861823676904
 30
0.0
 10
188.4137012737051
 20
118.41859973125
 30
0.0
 10
188.3880459762933
 20
118.3521171617726
 30
0.0
 10
188.3278853536068
 20
118.2631220788751
 30
0.0
 10
188.3038130418525
 20
118.235120181876
 30
0.0
 10
188.2454315215019
 20
118.1920437812108
 30
0.0
 10
188.2099626938489
 20
118.177150236283
 30
0.0
 10
188.1725868857002
 20
118.177150236283
 30
0.0
  0
LINE
  5
106
330
1F
100
AcDbEntity
  8
0
  6
HIDDEN
 62
     7
370
     0
100
AcDbLine
 10
188.1725868857
 20
118.1771502363
 30
0.0
 11
186.0363908897
 21
118.1771502363
 31
0.0
  0
SPLINE
  5
107
330
1F
100
AcDbEntity
  8
0
  6
HIDDEN
 62
     7
370
     0
100
AcDbSpline
210
0.0
220
0.0
230
1.0
 70
     8
 71
     3
 72
    12
 73
     8
 74
     0
 42
0.00000001
 43
0.00000001
 12
1.0
 22
0.0
 32
0.0
 13
1.0
 23
0.0
 33
0.0
 40
0.0
 40
0.0
 40
0.0
 40
0.0
 40
0.2499999999999981
 40
0.2499999999999981
 40
0.4999999999999961
 40
0.4999999999999961
 40
1.0
 40
1.0
 40
1.0
 40
1.0
 10
186.0363908896986
 20
118.177150236283
 30
0.0
 10
185.9988790036539
 20
118.177150236283
 30
0.0
 10
185.9635916559492
 20
118.1919550505698
 30
0.0
 10
185.9046618077108
 20
118.2355469236957
 30
0.0
 10
185.8811360812417
 20
118.2630603497817
 30
0.0
 10
185.8208772934736
 20
118.3521920818952
 30
0.0
 10
185.7952825311843
 20
118.418577932513
 30
0.0
 10
185.7765832685633
 20
118.4861823676904
 30
0.0
  0
ELLIPSE
  5
108
330
1F
100
AcDbEntity
  8
0
  6
HIDDEN
 62
     7
370
     0
100
AcDbEllipse
 10
196.0534180601
 20
112.3479372406
 30
0.0
 11
-9.367417879781698
 21
19.74174915274995
 31
0.0
210
0.0
220
0.0
230
1.0
 40
0.3419987131
 41
0.1510717289270579
 42
1.097974043471188
  0
LINE
  5
109
330
1F
100
AcDbEntity
  8
0
  6
HIDDEN
 62
     7
370
     0
100
AcDbLine
 10
179.1044888877
 20
132.0479372402
 30
0.0
 11
179.1044888877
 21
92.6479372406
 31
0.0
  0
LINE
  5
10A
330
1F
100
AcDbEntity
  8
0
  6
HIDDEN
 62
     7
370
     0
100
AcDbLine
 10
179.1044888877
 20
96.5479372406
 30
0.0
 11
179.1044888877
 21
128.1479372406
 31
0.0
  0
SPLINE
  5
10B
330
1F
100
AcDbEntity
  8
0
  6
HIDDEN
 62
     7
370
     0
100
AcDbSpline
210
0.0
220
0.0
230
1.0
 70
     8
 71
     3
 72
    18
 73
    14
 74
     0
 42
0.00000001
 43
0.00000001
 12
1.0
 22
0.0
 32
0.0
 13
1.0
 23
0.0
 33
0.0
 40
0.0
 40
0.0
 40
0.0
 40
0.0
 40
0.2500000000000008
 40
0.2500000000000008
 40
0.5000000000000016
 40
0.5000000000000016
 40
0.6250000000000011
 40
0.6250000000000011
 40
0.7500000000000008
 40
0.7500000000000008
 40
0.8750000000000003
 40
0.8750000000000003
 40
1.0
 40
1.0
 40
1.0
 40
1.0
 10
177.8484045701364
 20
122.1723771587824
 30
0.0
 10
177.8827056146692
 20
122.0643669729848
 30
0.0
 10
177.9205258859659
 20
121.9570898849568
 30
0.0
 10
178.0071442064268
 20
121.7455931876402
 30
0.0
 10
178.0555155411703
 20
121.6412068374705
 30
0.0
 10
178.1449185232887
 20
121.4903319148263
 30
0.0
 10
178.1775158071659
 20
121.4409869117907
 30
0.0
 10
178.2538977111109
 20
121.3463812733204
 30
0.0
 10
178.2969361484516
 20
121.3013853385658
 30
0.0
 10
178.4027491812835
 20
121.230457565908
 30
0.0
 10
178.4677876060146
 20
121.2065110220014
 30
0.0
 10
178.6009396778172
 20
121.2187916860723
 30
0.0
 10
178.6603088582803
 20
121.2521086440771
 30
0.0
 10
178.7095119988241
 20
121.2929435303018
 30
0.0
  0
SPLINE
  5
10C
330
1F
100
AcDbEntity
  8
0
  6
HIDDEN
 62
     7
370
     0
100
AcDbSpline
210
0.0
220
0.0
230
1.0
 70
     8
 71
     3
 72
    16
 73
    12
 74
     0
 42
0.00000001
 43
0.00000001
 12
1.0
 22
0.0
 32
0.0
 13
1.0
 23
0.0
 33
0.0
 40
0.0
 40
0.0
 40
0.0
 40
0.0
 40
0.0624999999999991
 40
0.0624999999999991
 40
0.1249999999999981
 40
0.1249999999999981
 40
0.2499999999999964
 40
0.2499999999999964
 40
0.4999999999999976
 40
0.4999999999999976
 40
1.0
 40
1.0
 40
1.0
 40
1.0
 10
178.7095119987933
 20
121.2929435303312
 30
0.0
 10
178.7215818320691
 20
121.3029605793116
 30
0.0
 10
178.7358574870025
 20
121.3119196863672
 30
0.0
 10
178.7673218991269
 20
121.3197900817614
 30
0.0
 10
178.7828224239373
 20
121.3174325911191
 30
0.0
 10
178.8182613205442
 20
121.3004568989411
 30
0.0
 10
178.8318539366476
 20
121.2799084077735
 30
0.0
 10
178.8648482550404
 20
121.2179660807598
 30
0.0
 10
178.8756356483592
 20
121.1715705305547
 30
0.0
 10
178.9006888956383
 20
121.0286345018602
 30
0.0
 10
178.9044888876995
 20
120.9290717849747
 30
0.0
 10
178.9044888876996
 20
120.8273043803282
 30
0.0
  0
LINE
  5
10D
330
1F
100
AcDbEntity
  8
0
  6
HIDDEN
 62
     7
370
     0
100
AcDbLine
 10
178.9044888877
 20
103.8685701009
 30
0.0
 11
178.9044888877
 21
120.8273043803
 31
0.0
  0
SPLINE
  5
10E
330
1F
100
AcDbEntity
  8
0
  6
HIDDEN
 62
     7
370
     0
100
AcDbSpline
210
0.0
220
0.0
230
1.0
 70
     8
 71
     3
 72
    16
 73
    12
 74
     0
 42
0.00000001
 43
0.00000001
 12
1.0
 22
0.0
 32
0.0
 13
1.0
 23
0.0
 33
0.0
 40
0.0
 40
0.0
 40
0.0
 40
0.0
 40
0.4999999999999958
 40
0.4999999999999958
 40
0.7499999999999915
 40
0.7499999999999915
 40
0.8749999999999937
 40
0.8749999999999937
 40
0.9374999999999969
 40
0.9374999999999969
 40
1.0
 40
1.0
 40
1.0
 40
1.0
 10
178.9044888876994
 20
103.8685701009339
 30
0.0
 10
178.9044888876994
 20
103.7665599473538
 30
0.0
 10
178.9006054625405
 20
103.6670355721006
 30
0.0
 10
178.8757901372659
 20
103.52505047609
 30
0.0
 10
178.8649506895533
 20
103.4780571755195
 30
0.0
 10
178.8317349075045
 20
103.4157644451578
 30
0.0
 10
178.8183531638757
 20
103.3954830128727
 30
0.0
 10
178.7828435140136
 20
103.3784413046723
 30
0.0
 10
178.7674265475127
 20
103.3760550496561
 30
0.0
 10
178.735725525364
 20
103.3839909795142
 30
0.0
 10
178.7215792404133
 20
103.3929160528888
 30
0.0
 10
178.7095119988236
 20
103.4029309509607
 30
0.0
  0
SPLINE
  5
10F
330
1F
100
AcDbEntity
  8
0
  6
HIDDEN
 62
     7
370
     0
100
AcDbSpline
210
0.0
220
0.0
230
1.0
 70
     8
 71
     3
 72
    18
 73
    14
 74
     0
 42
0.00000001
 43
0.00000001
 12
1.0
 22
0.0
 32
0.0
 13
1.0
 23
0.0
 33
0.0
 40
0.0
 40
0.0
 40
0.0
 40
0.0
 40
0.125
 40
0.125
 40
0.25
 40
0.25
 40
0.375
 40
0.375
 40
0.5
 40
0.5
 40
0.75
 40
0.75
 40
1.0
 40
1.0
 40
1.0
 40
1.0
 10
178.7095119988298
 20
103.4029309509681
 30
0.0
 10
178.6608065066876
 20
103.4433528266495
 30
0.0
 10
178.6022963983608
 20
103.4763849481172
 30
0.0
 10
178.4705672800687
 20
103.4896621000701
 30
0.0
 10
178.4058083437282
 20
103.46670851309
 30
0.0
 10
178.3005973708686
 20
103.3976553161704
 30
0.0
 10
178.2573809954287
 20
103.3531876643295
 30
0.0
 10
178.1812024903167
 20
103.2600180049595
 30
0.0
 10
178.1483475289369
 20
103.2108756353987
 30
0.0
 10
178.0579792491031
 20
103.0596659004588
 30
0.0
 10
178.008556014733
 20
102.9535111309305
 30
0.0
 10
177.9209075596848
 20
102.7399295152691
 30
0.0
 10
177.882848387482
 20
102.6319570840338
 30
0.0
 10
177.8484045701364
 20
102.5234973224798
 30
0.0
  0
SPLINE
  5
110
330
1F
100
AcDbEntity
  8
0
  6
HIDDEN
 62
     7
370
     0
100
AcDbSpline
210
0.0
220
0.0
230
1.0
 70
     8
 71
     3
 72
     8
 73
     4
 74
     0
 42
0.00000001
 43
0.00000001
 12
1.0
 22
0.0
 32
0.0
 13
1.0
 23
0.0
 33
0.0
 40
0.0
 40
0.0
 40
0.0
 40
0.0
 40
1.0
 40
1.0
 40
1.0
 40
1.0
 10
177.8484045701358
 20
102.5234973224793
 30
0.0
 10
177.8240908662457
 20
102.4469361649292
 30
0.0
 10
177.8025942242896
 20
102.3705107937961
 30
0.0
 10
177.7831685441397
 20
102.2944179230243
 30
0.0
  0
SPLINE
  5
111
330
1F
100
AcDbEntity
  8
0
  6
HIDDEN
 62
     7
370
     0
100
AcDbSpline
210
0.0
220
0.0
230
1.0
 70
     8
 71
     3
 72
     8
 73
     4
 74
     0
 42
0.00000001
 43
0.00000001
 12
1.0
 22
0.0
 32
0.0
 13
1.0
 23
0.0
 33
0.0
 40
0.0
 40
0.0
 40
0.0
 40
0.0
 40
1.0
 40
1.0
 40
1.0
 40
1.0
 10
177.7831685441397
 20
98.52287323262588
 30
0.0
 10
177.802593971033
 20
98.5193760290386
 30
0.0
 10
177.824090525002
 20
98.51735971139638
 30
0.0
 10
177.8484045701364
 20
98.5167488579525
 30
0.0
  0
SPLINE
  5
112
330
1F
100
AcDbEntity
  8
0
  6
HIDDEN
 62
     7
370
     0
100
AcDbSpline
210
0.0
220
0.0
230
1.0
 70
     8
 71
     3
 72
     8
 73
     4
 74
     0
 42
0.00000001
 43
0.00000001
 12
1.0
 22
0.0
 32
0.0
 13
1.0
 23
0.0
 33
0.0
 40
0.0
 40
0.0
 40
0.0
 40
0.0
 40
1.0
 40
1.0
 40
1.0
 40
1.0
 10
178.8816378745934
 20
98.4273904668944
 30
0.0
 10
178.9005748067592
 20
98.39943602949292
 30
0.0
 10
178.9044888876996
 20
98.37935217813657
 30
0.0
 10
178.9044888876996
 20
98.36312533397115
 30
0.0
  0
LINE
  5
113
330
1F
100
AcDbEntity
  8
0
  6
HIDDEN
 62
     7
370
     0
100
AcDbLine
 10
178.9044888877
 20
98.2581169618
 30
0.0
 11
178.9044888877
 21
98.363125334
 31
0.0
  0
LINE
  5
114
330
1F
100
AcDbEntity
  8
0
  6
HIDDEN
 62
     7
370
     0
100
AcDbLine
 10
178.9044888877
 20
126.3327491473
 30
0.0
 11
178.9044888877
 21
126.4377575195
 31
0.0
  0
LINE
  5
115
330
1F
100
AcDbEntity
  8
0
  6
HIDDEN
 62
     7
370
     0
100
AcDbLine
 10
178.9044888877
 20
126.3327491473
 30
0.0
 11
178.8977570632
 21
126.3008437622
 31
0.0
  0
SPLINE
  5
116
330
1F
100
AcDbEntity
  8
0
  6
HIDDEN
 62
     7
370
     0
100
AcDbSpline
210
0.0
220
0.0
230
1.0
 70
     8
 71
     3
 72
     8
 73
     4
 74
     0
 42
0.00000001
 43
0.00000001
 12
1.0
 22
0.0
 32
0.0
 13
1.0
 23
0.0
 33
0.0
 40
0.0
 40
0.0
 40
0.0
 40
0.0
 40
1.0
 40
1.0
 40
1.0
 40
1.0
 10
177.848404570136
 20
126.1791256233097
 30
0.0
 10
177.8240905250018
 20
126.1785147698658
 30
0.0
 10
177.8025939710329
 20
126.1764984522236
 30
0.0
 10
177.7831685441396
 20
126.1730012486363
 30
0.0
  0
SPLINE
  5
117
330
1F
100
AcDbEntity
  8
0
  6
HIDDEN
 62
     7
370
     0
100
AcDbSpline
210
0.0
220
0.0
230
1.0
 70
     8
 71
     3
 72
     8
 73
     4
 74
     0
 42
0.00000001
 43
0.00000001
 12
1.0
 22
0.0
 32
0.0
 13
1.0
 23
0.0
 33
0.0
 40
0.0
 40
0.0
 40
0.0
 40
0.0
 40
1.0
 40
1.0
 40
1.0
 40
1.0
 10
177.7831685441396
 20
122.4014565582378
 30
0.0
 10
177.8025942242896
 20
122.3253636874661
 30
0.0
 10
177.8240908662457
 20
122.2489383163329
 30
0.0
 10
177.8484045701358
 20
122.1723771587829
 30
0.0
  0
SPLINE
  5
118
330
1F
100
AcDbEntity
  8
0
  6
HIDDEN
 62
     7
370
     0
100
AcDbSpline
210
0.0
220
0.0
230
1.0
 70
     8
 71
     3
 72
    62
 73
    58
 74
     0
 42
0.00000001
 43
0.00000001
 12
1.0
 22
0.0
 32
0.0
 13
1.0
 23
0.0
 33
0.0
 40
-0.0312500000000001
 40
-0.0312500000000001
 40
0.0
 40
0.0
 40
0.03125
 40
0.03125
 40
0.0624999999999999
 40
0.0624999999999999
 40
0.0937499999999999
 40
0.0937499999999999
 40
0.1249999999999998
 40
0.1249999999999998
 40
0.1874999999999994
 40
0.1874999999999994
 40
0.2187499999999994
 40
0.2187499999999994
 40
0.2499999999999994
 40
0.2499999999999994
 40
0.2812499999999994
 40
0.2812499999999994
 40
0.3124999999999994
 40
0.3124999999999994
 40
0.3437499999999994
 40
0.3437499999999994
 40
0.3749999999999994
 40
0.3749999999999994
 40
0.4062499999999995
 40
0.4062499999999995
 40
0.4374999999999995
 40
0.4374999999999995
 40
0.4687499999999995
 40
0.4687499999999995
 40
0.4999999999999994
 40
0.4999999999999994
 40
0.5624999999999993
 40
0.5624999999999993
 40
0.5937499999999993
 40
0.5937499999999993
 40
0.6249999999999992
 40
0.6249999999999992
 40
0.6874999999999994
 40
0.6874999999999994
 40
0.7187499999999996
 40
0.7187499999999996
 40
0.7499999999999996
 40
0.7499999999999996
 40
0.7812499999999997
 40
0.7812499999999997
 40
0.8124999999999998
 40
0.8124999999999998
 40
0.875
 40
0.875
 40
0.90625
 40
0.90625
 40
0.9375
 40
0.9375
 40
0.9687499999999999
 40
0.9687499999999999
 40
1.0
 40
1.0
 40
1.03125
 40
1.03125
 10
192.9646473418976
 20
116.5001965221575
 30
0.0
 10
193.244330433501
 20
116.5001965221575
 30
0.0
 10
193.3816143904586
 20
116.4892434847104
 30
0.0
 10
193.65135014531
 20
116.4462603299601
 30
0.0
 10
193.7852321644055
 20
116.4136556525456
 30
0.0
 10
194.0389787228035
 20
116.3285574474742
 30
0.0
 10
194.1591643845461
 20
116.2763255755956
 30
0.0
 10
194.38662697606
 20
116.1516970689179
 30
0.0
 10
194.4934421815216
 20
116.0791877757587
 30
0.0
 10
194.7816867788463
 20
115.8383046582173
 30
0.0
 10
194.9378074777475
 20
115.6401245059122
 30
0.0
 10
195.0955229385897
 20
115.3076479495286
 30
0.0
 10
195.1364321676973
 20
115.1889315009267
 30
0.0
 10
195.1908090727196
 20
114.9438489639045
 30
0.0
 10
195.2043965406091
 20
114.8185843308286
 30
0.0
 10
195.2045803055968
 20
114.5624628007589
 30
0.0
 10
195.1906942693906
 20
114.4306364624694
 30
0.0
 10
195.13660718484
 20
114.1733852123356
 30
0.0
 10
195.096598428795
 20
114.0465805984069
 30
0.0
 10
194.9902521542127
 20
113.7970786106067
 30
0.0
 10
194.9250528792952
 20
113.6773411473224
 30
0.0
 10
194.773345475257
 20
113.4512142661892
 30
0.0
 10
194.685544800617
 20
113.3432624548821
 30
0.0
 10
194.4922068912537
 20
113.1464236443657
 30
0.0
 10
194.3872585052421
 20
113.0576814862987
 30
0.0
 10
194.160530495296
 20
112.9001965189614
 30
0.0
 10
194.037758744314
 20
112.831309469376
 30
0.0
 10
193.7850802720887
 20
112.7209461222944
 30
0.0
 10
193.6540993005879
 20
112.6785107315698
 30
0.0
 10
193.3823109293391
 20
112.6207348953536
 30
0.0
 10
193.2430773190049
 20
112.6060843883987
 30
0.0
 10
192.8298935362065
 20
112.6059047832067
 30
0.0
 10
192.5518177914918
 20
112.6652130443168
 30
0.0
 10
192.1717489634605
 20
112.8310087919058
 30
0.0
 10
192.0489807215184
 20
112.8998782881699
 30
0.0
 10
191.8222945556321
 20
113.0572298520857
 30
0.0
 10
191.7171264470867
 20
113.1460610965353
 30
0.0
 10
191.4260399513565
 20
113.4424201330624
 30
0.0
 10
191.2721094291284
 20
113.6720579211477
 30
0.0
 10
191.1126778263787
 20
114.0457684704339
 30
0.0
 10
191.0726766288232
 20
114.1723570764756
 30
0.0
 10
191.0185174078938
 20
114.4291007596998
 30
0.0
 10
191.0044945013444
 20
114.5608379703117
 30
0.0
 10
191.0044832775077
 20
114.8174610111382
 30
0.0
 10
191.0180242307067
 20
114.942841103946
 30
0.0
 10
191.0722423173166
 20
115.1879183181593
 30
0.0
 10
191.1131222719229
 20
115.3068457553749
 30
0.0
 10
191.2710903490987
 20
115.6401574972161
 30
0.0
 10
191.4271183064536
 20
115.8381975380898
 30
0.0
 10
191.7158654257788
 20
116.0794447918065
 30
0.0
 10
191.8230802605078
 20
116.1521308669025
 30
0.0
 10
192.0499336674577
 20
116.2763572274268
 30
0.0
 10
192.1699511796975
 20
116.32854062878
 30
0.0
 10
192.4237693871517
 20
116.4136643899178
 30
0.0
 10
192.5576364312031
 20
116.4462603418413
 30
0.0
 10
192.8273036730973
 20
116.4892353597982
 30
0.0
 10
192.9646473418976
 20
116.5001965221575
 30
0.0
 10
193.244330433501
 20
116.5001965221575
 30
0.0
  0
SPLINE
  5
119
330
1F
100
AcDbEntity
  8
0
  6
HIDDEN
 62
     7
370
     0
100
AcDbSpline
210
0.0
220
0.0
230
1.0
 70
     8
 71
     3
 72
    54
 73
    50
 74
     0
 42
0.00000001
 43
0.00000001
 12
1.0
 22
0.0
 32
0.0
 13
1.0
 23
0.0
 33
0.0
 40
0.0
 40
0.0
 40
0.0
 40
0.0
 40
0.0625000000000005
 40
0.0625000000000005
 40
0.1250000000000009
 40
0.1250000000000009
 40
0.1875000000000016
 40
0.1875000000000016
 40
0.2031250000000018
 40
0.2031250000000018
 40
0.2109375000000019
 40
0.2109375000000019
 40
0.218750000000002
 40
0.218750000000002
 40
0.2343750000000023
 40
0.2343750000000023
 40
0.2500000000000026
 40
0.2500000000000026
 40
0.3125000000000025
 40
0.3125000000000025
 40
0.3750000000000024
 40
0.3750000000000024
 40
0.4375000000000023
 40
0.4375000000000023
 40
0.5000000000000022
 40
0.5000000000000022
 40
0.5625000000000021
 40
0.5625000000000021
 40
0.625000000000002
 40
0.625000000000002
 40
0.6562500000000019
 40
0.6562500000000019
 40
0.6875000000000017
 40
0.6875000000000017
 40
0.750000000000001
 40
0.750000000000001
 40
0.8125000000000003
 40
0.8125000000000003
 40
0.8749999999999997
 40
0.8749999999999997
 40
0.9374999999999991
 40
0.9374999999999991
 40
0.9687499999999988
 40
0.9687499999999988
 40
0.984374999999999
 40
0.984374999999999
 40
0.9921874999999994
 40
0.9921874999999994
 40
1.0
 40
1.0
 40
1.0
 40
1.0
 10
195.1825708856842
 20
117.686457362668
 30
0.0
 10
195.1568034530463
 20
117.4781270739903
 30
0.0
 10
195.110579253679
 20
117.2799741479971
 30
0.0
 10
194.9868506529177
 20
116.8993468718338
 30
0.0
 10
194.9083209744403
 20
116.7155872980984
 30
0.0
 10
194.7271645337882
 20
116.3708731064666
 30
0.0
 10
194.6230679255868
 20
116.2094767746935
 30
0.0
 10
194.4877402839955
 20
116.0227343012893
 30
0.0
 10
194.4601980173185
 20
115.9860726221271
 30
0.0
 10
194.4242758919104
 20
115.934350998231
 30
0.0
 10
194.4130309515316
 20
115.9174114063381
 30
0.0
 10
194.3998054658218
 20
115.8888148396849
 30
0.0
 10
194.3996114005113
 20
115.8781594970048
 30
0.0
 10
194.417817873565
 20
115.8629346803371
 30
0.0
 10
194.4446452277682
 20
115.8670165637572
 30
0.0
 10
194.4947862576849
 20
115.8758498268286
 30
0.0
 10
194.5209108998133
 20
115.8826414376838
 30
0.0
 10
194.6494706710062
 20
115.9216869142462
 30
0.0
 10
194.746631734868
 20
115.9690709582004
 30
0.0
 10
194.9177422851255
 20
116.0872317941573
 30
0.0
 10
194.9912263051362
 20
116.1581322129261
 30
0.0
 10
195.1092179360629
 20
116.3243544226123
 30
0.0
 10
195.1541698659055
 20
116.4197883536081
 30
0.0
 10
195.2063885708793
 20
116.6426855751598
 30
0.0
 10
195.2127882739313
 20
116.7659004044663
 30
0.0
 10
195.1732830688982
 20
117.0434072068821
 30
0.0
 10
195.1275740957768
 20
117.193726877629
 30
0.0
 10
194.9704140824155
 20
117.5149629135432
 30
0.0
 10
194.8626710751087
 20
117.6774671245539
 30
0.0
 10
194.6608956468934
 20
117.9149352696804
 30
0.0
 10
194.5888444915409
 20
117.9908783556911
 30
0.0
 10
194.4359522677743
 20
118.1368699548617
 30
0.0
 10
194.3547019361837
 20
118.2071124985852
 30
0.0
 10
194.1078705844945
 20
118.4020855524595
 30
0.0
 10
193.934410313069
 20
118.5150627559961
 30
0.0
 10
193.5951061288021
 20
118.7023044468209
 30
0.0
 10
193.425380705374
 20
118.7790197148009
 30
0.0
 10
193.0969162579477
 20
118.9008327023617
 30
0.0
 10
192.9393423869583
 20
118.9457981677669
 30
0.0
 10
192.6347283898836
 20
119.0094710277727
 30
0.0
 10
192.4871868382934
 20
119.0281862323929
 30
0.0
 10
192.2762120554309
 20
119.0359199501299
 30
0.0
 10
192.2075138998989
 20
119.0352657040478
 30
0.0
 10
192.1053169619329
 20
119.0273054574945
 30
0.0
 10
192.0714845877514
 20
119.0235848461725
 30
0.0
 10
192.0191490978179
 20
119.0141633964791
 30
0.0
 10
192.0014679197495
 20
119.0103944304197
 30
0.0
 10
191.9644841020414
 20
118.9998555602623
 30
0.0
 10
191.9448964453888
 20
118.9931159357023
 30
0.0
 10
191.9234502650212
 20
118.9820972794947
 30
0.0
  0
SPLINE
  5
11A
330
1F
100
AcDbEntity
  8
0
  6
HIDDEN
 62
     7
370
     0
100
AcDbSpline
210
0.0
220
0.0
230
1.0
 70
     8
 71
     3
 72
    18
 73
    14
 74
     0
 42
0.00000001
 43
0.00000001
 12
1.0
 22
0.0
 32
0.0
 13
1.0
 23
0.0
 33
0.0
 40
0.0
 40
0.0
 40
0.0
 40
0.0
 40
0.0625000000000008
 40
0.0625000000000008
 40
0.1250000000000017
 40
0.1250000000000017
 40
0.2500000000000022
 40
0.2500000000000022
 40
0.5000000000000014
 40
0.5000000000000014
 40
0.7500000000000008
 40
0.7500000000000008
 40
1.0
 40
1.0
 40
1.0
 40
1.0
 10
191.9314690157069
 20
119.0777017500981
 30
0.0
 10
191.968577225393
 20
119.105104814865
 30
0.0
 10
191.9994861955871
 20
119.1331351662771
 30
0.0
 10
192.0614314854161
 20
119.1876302155779
 30
0.0
 10
192.0913872382272
 20
119.2140521875311
 30
0.0
 10
192.1815196219596
 20
119.2913149995269
 30
0.0
 10
192.2417295630503
 20
119.3401210076879
 30
0.0
 10
192.4265641172624
 20
119.478744460752
 30
0.0
 10
192.5535900988596
 20
119.5596959007747
 30
0.0
 10
192.8159572957678
 20
119.6967860773748
 30
0.0
 10
192.9514206174098
 20
119.7531611553087
 30
0.0
 10
193.2327073497009
 20
119.8375381360372
 30
0.0
 10
193.3786960250405
 20
119.8653276660571
 30
0.0
 10
193.5264501498577
 20
119.8744110160455
 30
0.0
  0
LWPOLYLINE
  5
11B
330
1F
100
AcDbEntity
  8
0
  6
HIDDEN
 62
     7
370
     0
100
AcDbPolyline
 90
       22
 70
   128
 43
0.0
 10
195.1825708857
 20
117.6864573627
 10
195.0610423194
 20
117.2597591307
 10
194.8389968657
 20
116.8693968774
 10
194.5278419911
 20
116.535425255
 10
194.1435631111
 20
116.2750018773
 10
193.7059023478
 20
116.1015058561
 10
193.2373442893
 20
116.0238504568
 10
192.7619608555
 20
116.0460251842
 10
192.3041746164
 20
116.1668908235
 10
191.8875040955
 20
116.3802379669
 10
191.5333555183
 20
116.675106019
 10
191.2599230786
 20
117.036346291
 10
191.0812542222
 20
117.4454002571
 10
191.006527966
 20
117.8812529881
 10
191.0395833315
 20
118.3215127828
 10
191.1787221171
 20
118.7435615294
 10
191.4167961418
 20
119.125716699
 10
191.7415744799
 20
119.4483452739
 10
192.1363718177
 20
119.6948723833
 10
192.5809056528
 20
119.8526328288
 10
193.052338297
 20
119.9135217517
 10
193.5264501499
 20
119.874411016
  0
SPLINE
  5
11C
330
1F
100
AcDbEntity
  8
0
  6
HIDDEN
 62
     7
370
     0
100
AcDbSpline
210
0.0
220
0.0
230
1.0
 70
     8
 71
     3
 72
    24
 73
    20
 74
     0
 42
0.00000001
 43
0.00000001
 12
1.0
 22
0.0
 32
0.0
 13
1.0
 23
0.0
 33
0.0
 40
0.0
 40
0.0
 40
0.0
 40
0.0
 40
0.1249999999999996
 40
0.1249999999999996
 40
0.2499999999999991
 40
0.2499999999999991
 40
0.3749999999999987
 40
0.3749999999999987
 40
0.4999999999999982
 40
0.4999999999999982
 40
0.6249999999999978
 40
0.6249999999999978
 40
0.7499999999999973
 40
0.7499999999999973
 40
0.8124999999999979
 40
0.8124999999999979
 40
0.8749999999999984
 40
0.8749999999999984
 40
1.0
 40
1.0
 40
1.0
 40
1.0
 10
193.5264501498575
 20
119.8744110160455
 30
0.0
 10
193.48767473537
 20
119.793661381133
 30
0.0
 10
193.4631199830899
 20
119.7105199176186
 30
0.0
 10
193.4663640163495
 20
119.5349380938201
 30
0.0
 10
193.4971272861033
 20
119.4465041687533
 30
0.0
 10
193.6101073624197
 20
119.2686663418737
 30
0.0
 10
193.6874966581542
 20
119.1815049278588
 30
0.0
 10
193.8524445032741
 20
118.992383885725
 30
0.0
 10
193.9371721771378
 20
118.8930315978084
 30
0.0
 10
194.0999770124034
 20
118.6785324624941
 30
0.0
 10
194.1788827913909
 20
118.5620649805494
 30
0.0
 10
194.336019680123
 20
118.3267028928165
 30
0.0
 10
194.4153992847226
 20
118.2069756720644
 30
0.0
 10
194.5542648703721
 20
118.0448908984958
 30
0.0
 10
194.6030787243981
 20
117.9949486916553
 30
0.0
 10
194.7076346591467
 20
117.9050465584683
 30
0.0
 10
194.7639452936305
 20
117.8648327308492
 30
0.0
 10
194.9367256317282
 20
117.7629676184613
 30
0.0
 10
195.0591779784526
 20
117.7176671556441
 30
0.0
 10
195.1825708856842
 20
117.6864573626679
 30
0.0
  0
LINE
  5
11D
330
1F
100
AcDbEntity
  8
0
  6
HIDDEN
 62
     7
370
     0
100
AcDbLine
 10
178.9044888877
 20
98.363125334
 30
0.0
 11
178.9044888877
 21
106.8424924737
 31
0.0
  0
LINE
  5
11E
330
1F
100
AcDbEntity
  8
0
  6
HIDDEN
 62
     7
370
     0
100
AcDbLine
 10
178.9044888877
 20
117.8533820076
 30
0.0
 11
178.9044888877
 21
126.3327491473
 31
0.0
  0
CIRCLE
  5
11F
330
1F
100
AcDbEntity
  8
0
  6
HIDDEN
 62
     7
370
     0
100
AcDbCircle
 10
167.6044888877
 20
112.3479372406
 30
0.0
 40
2.299999999999997
  0
LINE
  5
120
330
1F
100
AcDbEntity
  8
0
  6
HIDDEN
 62
     7
370
     0
100
AcDbLine
 10
202.2031873035
 20
91.8479372406
 30
0.0
 11
202.2031873035
 21
112.3479372406
 31
0.0
  0
SPLINE
  5
121
330
1F
100
AcDbEntity
  8
0
  6
HIDDEN
 62
     7
370
     0
100
AcDbSpline
210
0.0
220
0.0
230
1.0
 70
     8
 71
     3
 72
    10
 73
     6
 74
     0
 42
0.00000001
 43
0.00000001
 12
1.0
 22
0.0
 32
0.0
 13
1.0
 23
0.0
 33
0.0
 40
0.0
 40
0.0
 40
0.0
 40
0.0
 40
0.5
 40
0.5
 40
1.0
 40
1.0
 40
1.0
 40
1.0
 10
202.3030877260095
 20
115.5017583204963
 30
0.0
 10
202.2816769263491
 20
114.9762533063858
 30
0.0
 10
202.2551751715525
 20
114.4508892693149
 30
0.0
 10
202.2157297301502
 20
113.3997857496498
 30
0.0
 10
202.2031873035049
 20
112.8740351554979
 30
0.0
 10
202.2031873035049
 20
112.3479372406311
 30
0.0
  0
SPLINE
  5
122
330
1F
100
AcDbEntity
  8
0
  6
HIDDEN
 62
     7
370
     0
100
AcDbSpline
210
0.0
220
0.0
230
1.0
 70
     8
 71
     3
 72
    14
 73
    10
 74
     0
 42
0.00000001
 43
0.00000001
 12
1.0
 22
0.0
 32
0.0
 13
1.0
 23
0.0
 33
0.0
 40
0.0
 40
0.0
 40
0.0
 40
0.0
 40
0.25
 40
0.25
 40
0.5
 40
0.5
 40
0.75
 40
0.75
 40
1.0
 40
1.0
 40
1.0
 40
1.0
 10
202.3030877260095
 20
131.9888408941752
 30
0.0
 10
202.2816751399163
 20
132.0801014960203
 30
0.0
 10
202.2551656477128
 20
132.1713584610302
 30
0.0
 10
202.2157233597669
 20
132.353882078536
 30
0.0
 10
202.2031933828234
 20
132.4451490184584
 30
0.0
 10
202.2031812289322
 20
132.6277007708548
 30
0.0
 10
202.2157009586793
 20
132.7189855846894
 30
0.0
 10
202.2551463271721
 20
132.9015654915191
 30
0.0
 10
202.2816679690008
 20
132.9928602962471
 30
0.0
 10
202.3030877260095
 20
133.0841514605875
 30
0.0
  0
SPLINE
  5
123
330
1F
100
AcDbEntity
  8
0
  6
HIDDEN
 62
     7
370
     0
100
AcDbSpline
210
0.0
220
0.0
230
1.0
 70
     8
 71
     3
 72
    38
 73
    34
 74
     0
 42
0.00000001
 43
0.00000001
 12
1.0
 22
0.0
 32
0.0
 13
1.0
 23
0.0
 33
0.0
 40
0.0
 40
0.0
 40
0.0
 40
0.0
 40
0.0624999999999997
 40
0.0624999999999997
 40
0.1249999999999995
 40
0.1249999999999995
 40
0.1874999999999992
 40
0.1874999999999992
 40
0.2499999999999989
 40
0.2499999999999989
 40
0.3124999999999986
 40
0.3124999999999986
 40
0.3749999999999983
 40
0.3749999999999983
 40
0.4374999999999979
 40
0.4374999999999979
 40
0.4999999999999976
 40
0.4999999999999976
 40
0.5624999999999973
 40
0.5624999999999973
 40
0.6249999999999976
 40
0.6249999999999976
 40
0.687499999999998
 40
0.687499999999998
 40
0.7499999999999983
 40
0.7499999999999983
 40
0.8124999999999988
 40
0.8124999999999988
 40
0.8749999999999992
 40
0.8749999999999992
 40
0.9374999999999996
 40
0.9374999999999996
 40
1.0
 40
1.0
 40
1.0
 40
1.0
 10
215.1535982943766
 20
112.3479372406311
 30
0.0
 10
215.2223015460478
 20
112.0348216324943
 30
0.0
 10
215.255730145583
 20
111.7201276401145
 30
0.0
 10
215.2542358208117
 20
111.0877130954647
 30
0.0
 10
215.2179700061116
 20
110.7669446510249
 30
0.0
 10
215.0777813284321
 20
110.1522494674362
 30
0.0
 10
214.9745008306287
 20
109.8551121670651
 30
0.0
 10
214.6983308033714
 20
109.2819207233579
 30
0.0
 10
214.5305889812309
 20
109.0166423649759
 30
0.0
 10
214.1379960576587
 20
108.5275874037583
 30
0.0
 10
213.9101330047836
 20
108.3021837482641
 30
0.0
 10
213.4165059409443
 20
107.9143203931926
 30
0.0
 10
213.1490559705628
 20
107.7488546036891
 30
0.0
 10
212.5721680467099
 20
107.4769107134236
 30
0.0
 10
212.2734600958448
 20
107.3754346747463
 30
0.0
 10
211.6562491476022
 20
107.2382742830912
 30
0.0
 10
211.3347005070082
 20
107.2032643827832
 30
0.0
 10
210.7016598015821
 20
107.2036865455654
 30
0.0
 10
210.3864411278728
 20
107.2379186180492
 30
0.0
 10
209.7619661457647
 20
107.3764195275832
 30
0.0
 10
209.4633923420748
 20
107.4781934812662
 30
0.0
 10
208.8926131241629
 20
107.7452109312218
 30
0.0
 10
208.6185166327604
 20
107.91280550672
 30
0.0
 10
208.1236733275244
 20
108.2986315212684
 30
0.0
 10
207.8993222294564
 20
108.5180487689815
 30
0.0
 10
207.5006803546686
 20
109.0123052780623
 30
0.0
 10
207.3339169354587
 20
109.2777341099932
 30
0.0
 10
207.0638939191081
 20
109.844922912359
 30
0.0
 10
206.9607634396874
 20
110.1499601165035
 30
0.0
 10
206.8306075531075
 20
110.7666698173478
 30
0.0
 10
206.8014431578281
 20
111.0831052097387
 30
0.0
 10
206.8169695875906
 20
111.7222225947375
 30
0.0
 10
206.8610746106713
 20
112.037278456157
 30
0.0
 10
206.9405785562966
 20
112.3479372406311
 30
0.0
  0
ELLIPSE
  5
124
330
1F
100
AcDbEntity
  8
0
  6
HIDDEN
 62
     7
370
     0
100
AcDbEllipse
 10
220.0600637391
 20
112.3479372406
 30
0.0
 11
6.672029803933555
 21
20.49782756633792
 31
0.0
210
0.0
220
0.0
230
1.0
 40
0.0447296713
 41
1.585354777640343
 42
3.156151104435598
  0
LINE
  5
125
330
1F
100
AcDbEntity
  8
0
  6
HIDDEN
 62
     7
370
     0
100
AcDbLine
 10
156.1315209197
 20
121.9106305447
 30
0.0
 11
156.1315209197
 21
102.7852439365
 31
0.0
  0
LINE
  5
126
330
1F
100
AcDbEntity
  8
0
  6
HIDDEN
 62
     7
370
     0
100
AcDbLine
 10
155.1044888877
 20
102.1922867164
 30
0.0
 11
155.1044888877
 21
122.4909634912
 31
0.0
  0
LINE
  5
127
330
1F
100
AcDbEntity
  8
0
  6
HIDDEN
 62
     7
370
     0
100
AcDbLine
 10
159.6315209197
 20
121.5788773483
 30
0.0
 11
159.6315209197
 21
103.116997133
 31
0.0
  0
LINE
  5
128
330
1F
100
AcDbEntity
  8
0
  6
HIDDEN
 62
     7
370
     0
100
AcDbLine
 10
163.0315209197
 20
121.3479372406
 30
0.0
 11
163.0315209197
 21
103.3479372406
 31
0.0
  0
LINE
  5
129
330
1F
100
AcDbEntity
  8
0
  6
HIDDEN
 62
     7
370
     0
100
AcDbLine
 10
158.2315209197
 20
121.3479372406
 30
0.0
 11
158.2315209197
 21
103.3479372406
 31
0.0
  0
LINE
  5
12A
330
1F
100
AcDbEntity
  8
0
  6
HIDDEN
 62
     7
370
     0
100
AcDbLine
 10
159.2315209197
 20
121.3479372406
 30
0.0
 11
159.2315209197
 21
103.3479372406
 31
0.0
  0
SPLINE
  5
12B
330
1F
100
AcDbEntity
  8
0
  6
HIDDEN
 62
     7
370
     0
100
AcDbSpline
210
0.0
220
0.0
230
1.0
 70
     8
 71
     3
 72
    14
 73
    10
 74
     0
 42
0.00000001
 43
0.00000001
 12
1.0
 22
0.0
 32
0.0
 13
1.0
 23
0.0
 33
0.0
 40
0.0
 40
0.0
 40
0.0
 40
0.0
 40
0.25
 40
0.25
 40
0.5
 40
0.5
 40
0.75
 40
0.75
 40
1.0
 40
1.0
 40
1.0
 40
1.0
 10
169.6044888876993
 20
113.4837189097911
 30
0.0
 10
169.7027132342023
 20
113.3107554799876
 30
0.0
 10
169.7780280721864
 20
113.1257229255632
 30
0.0
 10
169.8789947823807
 20
112.7427107114287
 30
0.0
 10
169.9043703686709
 20
112.5479921579631
 30
0.0
 10
169.9046065939372
 20
112.1506168566975
 30
0.0
 10
169.8789035246017
 20
111.9531245222221
 30
0.0
 10
169.7785834110852
 20
111.5719526875911
 30
0.0
 10
169.7026915829976
 20
111.3850808756185
 30
0.0
 10
169.6044888877039
 20
111.2121555714687
 30
0.0
  0
LINE
  5
12C
330
1F
100
AcDbEntity
  8
0
  6
HIDDEN
 62
     7
370
     0
100
AcDbLine
 10
170.1044888877
 20
120.8479372365
 30
0.0
 11
170.1044888877
 21
103.8479372406
 31
0.0
  0
SPLINE
  5
12D
330
1F
100
AcDbEntity
  8
0
  6
HIDDEN
 62
     7
370
     0
100
AcDbSpline
210
0.0
220
0.0
230
1.0
 70
     8
 71
     3
 72
    14
 73
    10
 74
     0
 42
0.00000001
 43
0.00000001
 12
1.0
 22
0.0
 32
0.0
 13
1.0
 23
0.0
 33
0.0
 40
0.0
 40
0.0
 40
0.0
 40
0.0
 40
0.25
 40
0.25
 40
0.5
 40
0.5
 40
0.75
 40
0.75
 40
1.0
 40
1.0
 40
1.0
 40
1.0
 10
169.6044888876993
 20
111.212155571471
 30
0.0
 10
169.7027132342023
 20
111.3851190012746
 30
0.0
 10
169.7780280721864
 20
111.570151555699
 30
0.0
 10
169.8789947823807
 20
111.9531637698335
 30
0.0
 10
169.9043703686709
 20
112.1478823232991
 30
0.0
 10
169.9046065939372
 20
112.5452576245646
 30
0.0
 10
169.8789035246017
 20
112.74274995904
 30
0.0
 10
169.7785834110852
 20
113.123921793671
 30
0.0
 10
169.7026915829975
 20
113.3107936056436
 30
0.0
 10
169.6044888877039
 20
113.4837189097935
 30
0.0
  0
SPLINE
  5
12E
330
1F
100
AcDbEntity
  8
0
  6
HIDDEN
 62
     7
370
     0
100
AcDbSpline
210
0.0
220
0.0
230
1.0
 70
     8
 71
     3
 72
    60
 73
    56
 74
     0
 42
0.00000001
 43
0.00000001
 12
1.0
 22
0.0
 32
0.0
 13
1.0
 23
0.0
 33
0.0
 40
0.0
 40
0.0
 40
0.0
 40
0.0
 40
0.0625000000000004
 40
0.0625000000000004
 40
0.1250000000000007
 40
0.1250000000000007
 40
0.1875000000000011
 40
0.1875000000000011
 40
0.2187500000000013
 40
0.2187500000000013
 40
0.2500000000000015
 40
0.2500000000000015
 40
0.3125000000000015
 40
0.3125000000000015
 40
0.3750000000000014
 40
0.3750000000000014
 40
0.4062500000000014
 40
0.4062500000000014
 40
0.4375000000000013
 40
0.4375000000000013
 40
0.4687500000000012
 40
0.4687500000000012
 40
0.5000000000000011
 40
0.5000000000000011
 40
0.5312500000000011
 40
0.5312500000000011
 40
0.562500000000001
 40
0.562500000000001
 40
0.593750000000001
 40
0.593750000000001
 40
0.625000000000001
 40
0.625000000000001
 40
0.6562500000000009
 40
0.6562500000000009
 40
0.6875000000000009
 40
0.6875000000000009
 40
0.7187500000000009
 40
0.7187500000000009
 40
0.7500000000000008
 40
0.7500000000000008
 40
0.7812500000000008
 40
0.7812500000000008
 40
0.8125000000000008
 40
0.8125000000000008
 40
0.8437500000000008
 40
0.8437500000000008
 40
0.8750000000000007
 40
0.8750000000000007
 40
0.9062500000000006
 40
0.9062500000000006
 40
0.9375000000000004
 40
0.9375000000000004
 40
0.9687500000000002
 40
0.9687500000000002
 40
1.0
 40
1.0
 40
1.0
 40
1.0
 10
169.6044888876993
 20
111.212155571471
 30
0.0
 10
169.4792989861207
 20
110.9917084468554
 30
0.0
 10
169.3224316675525
 20
110.7979747180351
 30
0.0
 10
168.9453941477337
 20
110.4622850192727
 30
0.0
 10
168.7336808413127
 20
110.3283076609599
 30
0.0
 10
168.2677908593639
 20
110.1311809162748
 30
0.0
 10
168.0219516283123
 20
110.0719635040529
 30
0.0
 10
167.6424705752178
 20
110.0447567681622
 30
0.0
 10
167.5147248465238
 20
110.0462500333041
 30
0.0
 10
167.2642585998557
 20
110.069765839113
 30
0.0
 10
167.1404292170475
 20
110.0916850579173
 30
0.0
 10
166.7732095429488
 20
110.1885216227622
 30
0.0
 10
166.5424405248631
 20
110.292322744214
 30
0.0
 10
166.1225515634436
 20
110.571041225142
 30
0.0
 10
165.938293188556
 20
110.7426035166457
 30
0.0
 10
165.7075448010727
 20
111.0412508779125
 30
0.0
 10
165.6384979512837
 20
111.1477184184148
 30
0.0
 10
165.5199332874782
 20
111.3680017668078
 30
0.0
 10
165.4697249187286
 20
111.4826632832092
 30
0.0
 10
165.3878930663708
 20
111.7213439199859
 30
0.0
 10
165.3565421674881
 20
111.845389546864
 30
0.0
 10
165.3151477894495
 20
112.0935045829724
 30
0.0
 10
165.3046420143852
 20
112.2187422854608
 30
0.0
 10
165.3043390620495
 20
112.4716213410519
 30
0.0
 10
165.314823591666
 20
112.5995010272885
 30
0.0
 10
165.3559636691275
 20
112.847923088494
 30
0.0
 10
165.386541789676
 20
112.9697220152623
 30
0.0
 10
165.4678244980273
 20
113.2085015447367
 30
0.0
 10
165.5188253845893
 20
113.3255431070433
 30
0.0
 10
165.6373924329523
 20
113.5463683049692
 30
0.0
 10
165.7052811862241
 20
113.651306668532
 30
0.0
 10
165.8584316239617
 20
113.8502840017614
 30
0.0
 10
165.9439877955342
 20
113.9442921269556
 30
0.0
 10
166.1266991664934
 20
114.1147848118923
 30
0.0
 10
166.2245064661753
 20
114.1922230069417
 30
0.0
 10
166.4333095780923
 20
114.33138890283
 30
0.0
 10
166.5448917533802
 20
114.3931707118369
 30
0.0
 10
166.7735375528792
 20
114.4962495824377
 30
0.0
 10
166.8914923638503
 20
114.5382536176334
 30
0.0
 10
167.1348208088391
 20
114.6029897389302
 30
0.0
 10
167.2611646841821
 20
114.6256630014928
 30
0.0
 10
167.5122706652
 20
114.649545797674
 30
0.0
 10
167.6379526589229
 20
114.6511490989406
 30
0.0
 10
167.8895747287147
 20
114.6336823601698
 30
0.0
 10
168.0164723490005
 20
114.6142464695298
 30
0.0
 10
168.2616629152616
 20
114.5556532982062
 30
0.0
 10
168.3808520722951
 20
114.5165904470495
 30
0.0
 10
168.6125370966499
 20
114.4190807249257
 30
0.0
 10
168.7257119010004
 20
114.3600453706371
 30
0.0
 10
168.9377903179361
 20
114.2262416537976
 30
0.0
 10
169.037579096637
 20
114.1512464376529
 30
0.0
 10
169.2248372836259
 20
113.9850513731321
 30
0.0
 10
169.3127323205693
 20
113.8931571743906
 30
0.0
 10
169.4709533962012
 20
113.6977929766762
 30
0.0
 10
169.5418913524929
 20
113.5939470230038
 30
0.0
 10
169.6044888876994
 20
113.4837189097911
 30
0.0
  0
SPLINE
  5
12F
330
1F
100
AcDbEntity
  8
0
  6
HIDDEN
 62
     7
370
     0
100
AcDbSpline
210
0.0
220
0.0
230
1.0
 70
     8
 71
     3
 72
    60
 73
    56
 74
     0
 42
0.00000001
 43
0.00000001
 12
1.0
 22
0.0
 32
0.0
 13
1.0
 23
0.0
 33
0.0
 40
0.0
 40
0.0
 40
0.0
 40
0.0
 40
0.0625000000000001
 40
0.0625000000000001
 40
0.1250000000000001
 40
0.1250000000000001
 40
0.1875000000000002
 40
0.1875000000000002
 40
0.21875
 40
0.21875
 40
0.2499999999999998
 40
0.2499999999999998
 40
0.3124999999999998
 40
0.3124999999999998
 40
0.3749999999999998
 40
0.3749999999999998
 40
0.4062499999999997
 40
0.4062499999999997
 40
0.4374999999999997
 40
0.4374999999999997
 40
0.4687499999999997
 40
0.4687499999999997
 40
0.4999999999999997
 40
0.4999999999999997
 40
0.5312499999999997
 40
0.5312499999999997
 40
0.5624999999999997
 40
0.5624999999999997
 40
0.5937499999999998
 40
0.5937499999999998
 40
0.6249999999999998
 40
0.6249999999999998
 40
0.6562499999999998
 40
0.6562499999999998
 40
0.6874999999999998
 40
0.6874999999999998
 40
0.7187499999999999
 40
0.7187499999999999
 40
0.7499999999999999
 40
0.7499999999999999
 40
0.7812499999999999
 40
0.7812499999999999
 40
0.8124999999999999
 40
0.8124999999999999
 40
0.84375
 40
0.84375
 40
0.875
 40
0.875
 40
0.90625
 40
0.90625
 40
0.9375
 40
0.9375
 40
0.9687500000000001
 40
0.9687500000000001
 40
1.0
 40
1.0
 40
1.0
 40
1.0
 10
169.6044888876993
 20
113.4837189097911
 30
0.0
 10
169.4792989861206
 20
113.7041660344067
 30
0.0
 10
169.3224316675525
 20
113.897899763227
 30
0.0
 10
168.9453941477337
 20
114.2335894619895
 30
0.0
 10
168.7336808413127
 20
114.3675668203022
 30
0.0
 10
168.2677908593639
 20
114.5646935649873
 30
0.0
 10
168.0219516283123
 20
114.6239109772092
 30
0.0
 10
167.6424705752177
 20
114.6511177130999
 30
0.0
 10
167.5147248465238
 20
114.649624447958
 30
0.0
 10
167.2642585998557
 20
114.6261086421491
 30
0.0
 10
167.1404292170475
 20
114.6041894233448
 30
0.0
 10
166.7732095429488
 20
114.5073528585
 30
0.0
 10
166.5424405248631
 20
114.4035517370482
 30
0.0
 10
166.1225515634436
 20
114.1248332561201
 30
0.0
 10
165.9382931885561
 20
113.9532709646164
 30
0.0
 10
165.7075448010727
 20
113.6546236033497
 30
0.0
 10
165.6384979512837
 20
113.5481560628474
 30
0.0
 10
165.5199332874782
 20
113.3278727144544
 30
0.0
 10
165.4697249187286
 20
113.213211198053
 30
0.0
 10
165.3878930663708
 20
112.9745305612762
 30
0.0
 10
165.3565421674881
 20
112.8504849343981
 30
0.0
 10
165.3151477894495
 20
112.6023698982898
 30
0.0
 10
165.3046420143852
 20
112.4771321958013
 30
0.0
 10
165.3043390620494
 20
112.2242531402103
 30
0.0
 10
165.314823591666
 20
112.0963734539737
 30
0.0
 10
165.3559636691275
 20
111.8479513927682
 30
0.0
 10
165.386541789676
 20
111.7261524659998
 30
0.0
 10
165.4678244980273
 20
111.4873729365255
 30
0.0
 10
165.5188253845892
 20
111.3703313742188
 30
0.0
 10
165.6373924329523
 20
111.1495061762929
 30
0.0
 10
165.7052811862241
 20
111.0445678127301
 30
0.0
 10
165.8584316239617
 20
110.8455904795007
 30
0.0
 10
165.9439877955342
 20
110.7515823543065
 30
0.0
 10
166.1266991664934
 20
110.5810896693698
 30
0.0
 10
166.2245064661753
 20
110.5036514743205
 30
0.0
 10
166.4333095780923
 20
110.3644855784322
 30
0.0
 10
166.5448917533802
 20
110.3027037694252
 30
0.0
 10
166.7735375528792
 20
110.1996248988244
 30
0.0
 10
166.8914923638503
 20
110.1576208636288
 30
0.0
 10
167.134820808839
 20
110.092884742332
 30
0.0
 10
167.2611646841821
 20
110.0702114797693
 30
0.0
 10
167.5122706651999
 20
110.0463286835881
 30
0.0
 10
167.6379526589229
 20
110.0447253823215
 30
0.0
 10
167.8895747287147
 20
110.0621921210924
 30
0.0
 10
168.0164723490005
 20
110.0816280117323
 30
0.0
 10
168.2616629152617
 20
110.140221183056
 30
0.0
 10
168.3808520722951
 20
110.1792840342126
 30
0.0
 10
168.61253709665
 20
110.2767937563364
 30
0.0
 10
168.7257119010004
 20
110.335829110625
 30
0.0
 10
168.9377903179362
 20
110.4696328274645
 30
0.0
 10
169.037579096637
 20
110.5446280436093
 30
0.0
 10
169.224837283626
 20
110.7108231081301
 30
0.0
 10
169.3127323205693
 20
110.8027173068716
 30
0.0
 10
169.4709533962012
 20
110.9980815045859
 30
0.0
 10
169.5418913524929
 20
111.1019274582584
 30
0.0
 10
169.6044888876993
 20
111.212155571471
 30
0.0
  0
LINE
  5
130
330
1F
100
AcDbEntity
  8
0
  6
HIDDEN
 62
     7
370
     0
100
AcDbLine
 10
171.0044888877
 20
118.5979372406
 30
0.0
 11
171.0044888877
 21
106.0979372406
 31
0.0
  0
LINE
  5
131
330
1F
100
AcDbEntity
  8
0
  6
HIDDEN
 62
     7
370
     0
100
AcDbLine
 10
170.1044888877
 20
105.1979372406
 30
0.0
 11
170.1044888877
 21
119.4979372406
 31
0.0
  0
LINE
  5
132
330
1F
100
AcDbEntity
  8
0
  6
HIDDEN
 62
     7
370
     0
100
AcDbLine
 10
196.0891100188
 20
106.0979372406
 30
0.0
 11
196.0891100188
 21
118.5979372406
 31
0.0
  0
SPLINE
  5
133
330
1F
100
AcDbEntity
  8
0
  6
HIDDEN
 62
     7
370
     0
100
AcDbSpline
210
0.0
220
0.0
230
1.0
 70
     8
 71
     3
 72
    62
 73
    58
 74
     0
 42
0.00000001
 43
0.00000001
 12
1.0
 22
0.0
 32
0.0
 13
1.0
 23
0.0
 33
0.0
 40
-0.03125
 40
-0.03125
 40
0.0
 40
0.0
 40
0.03125
 40
0.03125
 40
0.0625
 40
0.0625
 40
0.09375
 40
0.09375
 40
0.125
 40
0.125
 40
0.1874999999999999
 40
0.1874999999999999
 40
0.2187500000000001
 40
0.2187500000000001
 40
0.2500000000000001
 40
0.2500000000000001
 40
0.2812500000000002
 40
0.2812500000000002
 40
0.3125000000000002
 40
0.3125000000000002
 40
0.3437500000000003
 40
0.3437500000000003
 40
0.3750000000000003
 40
0.3750000000000003
 40
0.4062500000000003
 40
0.4062500000000003
 40
0.4375000000000004
 40
0.4375000000000004
 40
0.4687500000000004
 40
0.4687500000000004
 40
0.5000000000000004
 40
0.5000000000000004
 40
0.5625000000000009
 40
0.5625000000000009
 40
0.5937500000000009
 40
0.5937500000000009
 40
0.6250000000000009
 40
0.6250000000000009
 40
0.6875000000000007
 40
0.6875000000000007
 40
0.7187500000000006
 40
0.7187500000000006
 40
0.7500000000000003
 40
0.7500000000000003
 40
0.7812500000000002
 40
0.7812500000000002
 40
0.8125000000000001
 40
0.8125000000000001
 40
0.875
 40
0.875
 40
0.90625
 40
0.90625
 40
0.9375
 40
0.9375
 40
0.96875
 40
0.96875
 40
1.0
 40
1.0
 40
1.03125
 40
1.03125
 10
193.2443304335012
 20
112.0898501482852
 30
0.0
 10
192.9646473418978
 20
112.0898501482852
 30
0.0
 10
192.8273633849402
 20
112.0751633489177
 30
0.0
 10
192.5576276300888
 20
112.0180708825369
 30
0.0
 10
192.4237456109933
 20
111.9749160945374
 30
0.0
 10
192.1699990525953
 20
111.8639777858891
 30
0.0
 10
192.0498133908527
 20
111.7965321515149
 30
0.0
 10
191.8223507993388
 20
111.6387255354549
 30
0.0
 10
191.7155355938772
 20
111.5482742173361
 30
0.0
 10
191.4272909965526
 20
111.2545662397392
 30
0.0
 10
191.2711702976513
 20
111.0214464912443
 30
0.0
 10
191.1134548368091
 20
110.6520114546416
 30
0.0
 10
191.0725456077015
 20
110.5232738355133
 30
0.0
 10
191.0181687026792
 20
110.2647397906862
 30
0.0
 10
191.0045812347897
 20
110.1360251601783
 30
0.0
 10
191.004397469802
 20
109.8798573699225
 30
0.0
 10
191.0182835060082
 20
109.7515556015699
 30
0.0
 10
191.0723705905589
 20
109.5076843390911
 30
0.0
 10
191.1123793466039
 20
109.390689315012
 30
0.0
 10
191.2187256211862
 20
109.1661136343991
 30
0.0
 10
191.2839248961036
 20
109.0612111185094
 30
0.0
 10
191.4356323001419
 20
108.867382928019
 30
0.0
 10
191.5234329747818
 20
108.777150642955
 30
0.0
 10
191.7167708841451
 20
108.6157291791597
 30
0.0
 10
191.8217192701568
 20
108.5446041779004
 30
0.0
 10
192.0484472801028
 20
108.4202173705847
 30
0.0
 10
192.1712190310848
 20
108.3668647399438
 30
0.0
 10
192.4238975033102
 20
108.2822112774067
 30
0.0
 10
192.5548784748109
 20
108.2501477147027
 30
0.0
 10
192.8266668460597
 20
108.2066477169628
 30
0.0
 10
192.9659004563939
 20
108.1957228835321
 30
0.0
 10
193.3790842391923
 20
108.1955885299604
 30
0.0
 10
193.6571599839071
 20
108.239466357271
 30
0.0
 10
194.0372288119383
 20
108.3666317386118
 30
0.0
 10
194.1599970538805
 20
108.4199694479177
 30
0.0
 10
194.3866832197668
 20
108.5442440525876
 30
0.0
 10
194.4918513283122
 20
108.6154318150623
 30
0.0
 10
194.7829378240423
 20
108.858466909318
 30
0.0
 10
194.9368683462704
 20
109.0536023527934
 30
0.0
 10
195.0962999490201
 20
109.3899487034582
 30
0.0
 10
195.1363011465756
 20
109.5067311241109
 30
0.0
 10
195.190460367505
 20
109.7500785397615
 30
0.0
 10
195.2044832740545
 20
109.8782569657674
 30
0.0
 10
195.2044944978912
 20
110.1348771811543
 30
0.0
 10
195.1909535446921
 20
110.2636955396073
 30
0.0
 10
195.1367354580823
 20
110.5221862731159
 30
0.0
 10
195.095855503476
 20
110.6511298988143
 30
0.0
 10
194.9378874263002
 20
111.0214635967998
 30
0.0
 10
194.7818594689452
 20
111.25443109564
 30
0.0
 10
194.49311234962
 20
111.5485898654534
 30
0.0
 10
194.385897514891
 20
111.6392715113673
 30
0.0
 10
194.1590441079412
 20
111.7965755480421
 30
0.0
 10
194.0390265957013
 20
111.8639559028436
 30
0.0
 10
193.7852083882471
 20
111.9749274423684
 30
0.0
 10
193.6513413441957
 20
112.0180709211022
 30
0.0
 10
193.3816741023015
 20
112.0751525342063
 30
0.0
 10
193.2443304335012
 20
112.0898501482852
 30
0.0
 10
192.9646473418978
 20
112.0898501482852
 30
0.0
  0
CIRCLE
  5
134
330
1F
100
AcDbEntity
  8
0
  6
HIDDEN
 62
     7
370
     0
100
AcDbCircle
 10
213.2538634997
 20
115.1201605115
 30
0.0
 40
3.465883467022233
  0
ARC
  5
135
330
1F
100
AcDbEntity
  8
0
  6
HIDDEN
 62
     7
370
     0
100
AcDbCircle
 10
208.2600419244
 20
120.9383249919
 30
0.0
 40
2.08823547287043
100
AcDbArc
 50
122.8424885605
 51
287.4492493159
  0
LINE
  5
136
330
1F
100
AcDbEntity
  8
0
  6
HIDDEN
 62
     7
370
     0
100
AcDbLine
 10
224.2594331982
 20
124.8566425003
 30
0.0
 11
223.2956807668
 21
123.264376946
 31
0.0
  0
LINE
  5
137
330
1F
100
AcDbEntity
  8
0
  6
HIDDEN
 62
     7
370
     0
100
AcDbLine
 10
202.303087726
 20
133.0841514606
 30
0.0
 11
202.3243218773
 21
133.1641828697
 31
0.0
  0
SPLINE
  5
138
330
1F
100
AcDbEntity
  8
0
  6
HIDDEN
 62
     7
370
     0
100
AcDbSpline
210
0.0
220
0.0
230
1.0
 70
     8
 71
     3
 72
    36
 73
    32
 74
     0
 42
0.00000001
 43
0.00000001
 12
1.0
 22
0.0
 32
0.0
 13
1.0
 23
0.0
 33
0.0
 40
0.0
 40
0.0
 40
0.0
 40
0.0
 40
0.1250000000000003
 40
0.1250000000000003
 40
0.2500000000000007
 40
0.2500000000000007
 40
0.3125000000000007
 40
0.3125000000000007
 40
0.3750000000000008
 40
0.3750000000000008
 40
0.4375000000000008
 40
0.4375000000000008
 40
0.4687500000000007
 40
0.4687500000000007
 40
0.5000000000000007
 40
0.5000000000000007
 40
0.5312500000000008
 40
0.5312500000000008
 40
0.5625000000000007
 40
0.5625000000000007
 40
0.6250000000000007
 40
0.6250000000000007
 40
0.6875000000000006
 40
0.6875000000000006
 40
0.7500000000000006
 40
0.7500000000000006
 40
0.8750000000000006
 40
0.8750000000000006
 40
0.9375000000000002
 40
0.9375000000000002
 40
1.0
 40
1.0
 40
1.0
 40
1.0
 10
216.1791096641926
 20
116.0448392446282
 30
0.0
 10
216.2376097820199
 20
116.1414903341711
 30
0.0
 10
216.2602327108988
 20
116.2952469578491
 30
0.0
 10
216.2536930743063
 20
116.6632179732296
 30
0.0
 10
216.2234775751711
 20
116.880160035237
 30
0.0
 10
216.1212951972843
 20
117.236678165576
 30
0.0
 10
216.0776281675579
 20
117.3609402709557
 30
0.0
 10
215.962092785244
 20
117.6211392328985
 30
0.0
 10
215.890283462078
 20
117.7574729283963
 30
0.0
 10
215.7010351133311
 20
118.0397563309594
 30
0.0
 10
215.5842372833684
 20
118.1865799960879
 30
0.0
 10
215.343402688746
 20
118.4078378454651
 30
0.0
 10
215.2499884115684
 20
118.4830372857434
 30
0.0
 10
215.0364400218067
 20
118.6243559531108
 30
0.0
 10
214.9147744739675
 20
118.6909016699318
 30
0.0
 10
214.6570271017015
 20
118.800288475667
 30
0.0
 10
214.5220106262075
 20
118.8426087955853
 30
0.0
 10
214.2640134976539
 20
118.9006958076756
 30
0.0
 10
214.1435058243783
 20
118.9168862392859
 30
0.0
 10
213.7979068353116
 20
118.9421153831274
 30
0.0
 10
213.6022271512079
 20
118.9282484408657
 30
0.0
 10
213.2422838821844
 20
118.8772070367707
 30
0.0
 10
213.0816750842119
 20
118.8390037628785
 30
0.0
 10
212.787451630599
 20
118.7510333074071
 30
0.0
 10
212.6547965499625
 20
118.7012966795164
 30
0.0
 10
212.2887333976202
 20
118.5437009587217
 30
0.0
 10
212.0861208006351
 20
118.4274711979626
 30
0.0
 10
211.8403018290256
 20
118.2556754238998
 30
0.0
 10
211.768285201832
 20
118.1985843313127
 30
0.0
 10
211.6504401949097
 20
118.0895696670353
 30
0.0
 10
211.6042486691959
 20
118.0375003756196
 30
0.0
 10
211.5751168198378
 20
117.9893701310076
 30
0.0
  0
ELLIPSE
  5
139
330
1F
100
AcDbEntity
  8
0
  6
HIDDEN
 62
     7
370
     0
100
AcDbEllipse
 10
215.9659795164
 20
121.5864389674
 30
0.0
 11
3.440412096721814
 21
1.586775504002276
 31
0.0
210
0.0
220
0.0
230
1.0
 40
0.1360681752
 41
6.08452646003606
 42
9.226119113625728
  0
LINE
  5
13A
330
1F
100
AcDbEntity
  8
0
  6
HIDDEN
 62
     7
370
     0
100
AcDbLine
 10
213.49316309
 20
133.0489338462
 30
0.0
 11
214.4569155213
 21
134.6411994005
 31
0.0
  0
LINE
  5
13B
330
1F
100
AcDbEntity
  8
0
  6
HIDDEN
 62
     7
370
     0
100
AcDbLine
 10
211.5751168198
 20
117.989370131
 30
0.0
 11
211.1369507783
 21
117.2654532076
 31
0.0
  0
ELLIPSE
  5
13C
330
1F
100
AcDbEntity
  8
0
  6
HIDDEN
 62
     7
370
     0
100
AcDbEllipse
 10
212.4087040772
 20
113.6322057894
 30
0.0
 11
3.738204015186938
 21
-1.921056458613734
 31
0.0
210
0.0
220
0.0
230
1.0
 40
0.8435555064
 41
1.022163896444855
 42
2.297287737683266
  0
LINE
  5
13D
330
1F
100
AcDbEntity
  8
0
  6
HIDDEN
 62
     7
370
     0
100
AcDbLine
 10
215.7409436226
 20
115.3209223212
 30
0.0
 11
216.1791096642
 21
116.0448392446
 31
0.0
  0
ELLIPSE
  5
13E
330
1F
100
AcDbEntity
  8
0
  6
HIDDEN
 62
     7
370
     0
100
AcDbEllipse
 10
211.0289223034
 20
111.3525965044
 30
0.0
 11
-2.220506159018016
 21
-3.668613800738072
 31
-3.552713678800502E-15
210
-4.289880804380762E-16
220
-7.087535361501736E-16
230
1.0
 40
0.9794128731
 41
2.341470492230711
 42
5.011947291490138
  0
LWPOLYLINE
  5
13F
330
1F
100
AcDbEntity
  8
0
  6
HIDDEN
 62
     7
370
     0
100
AcDbPolyline
 90
       41
 70
   128
 43
0.0
 10
213.2765021082
 20
119.2021326472
 10
213.9299276111
 20
119.1392834805
 10
214.5672636094
 20
118.9761350807
 10
215.1728167758
 20
118.7167047028
 10
215.7316763816
 20
118.3673803839
 10
216.2300814485
 20
117.936763648
 10
216.6557595897
 20
117.4354577082
 10
216.9982291966
 20
116.8758063806
 10
217.2490575308
 20
116.2715901381
 10
217.4020683664
 20
115.63768679
 10
217.4534940688
 20
114.9897051405
 10
217.4020683664
 20
114.3436006483
 10
217.2490575308
 20
113.7152825504
 10
216.9982291966
 20
113.1202221235
 10
216.6557595897
 20
112.5730717303
 10
216.2300814485
 20
112.0873040293
 10
215.7316763816
 20
111.6748802335
 10
215.1728167758
 20
111.3459555856
 10
214.5672636094
 20
111.1086293019
 10
213.9299276111
 20
110.9687451433
 10
213.2765021082
 20
110.9297475219
 10
212.6230766054
 20
110.9925966887
 10
211.9857406071
 20
111.1557450885
 10
211.3801874407
 20
111.4151754663
 10
210.8213278349
 20
111.7644997852
 10
210.322922768
 20
112.1951165211
 10
209.8972446268
 20
112.6964224609
 10
209.5547750199
 20
113.2560737886
 10
209.3039466856
 20
113.860290031
 10
209.15093585
 20
114.4941933791
 10
209.0995101477
 20
115.1421750286
 10
209.15093585
 20
115.7882795208
 10
209.3039466856
 20
116.4165976188
 10
209.5547750199
 20
117.0116580457
 10
209.8972446268
 20
117.5588084389
 10
210.322922768
 20
118.0445761398
 10
210.8213278349
 20
118.4569999356
 10
211.3801874407
 20
118.7859245836
 10
211.9857406071
 20
119.0232508672
 10
212.6230766054
 20
119.1631350259
 10
213.2765021082
 20
119.2021326472
  0
LINE
  5
140
330
1F
100
AcDbEntity
  8
0
  6
HIDDEN
 62
     7
370
     0
100
AcDbLine
 10
215.7409436226
 20
115.3209223212
 30
0.0
 11
217.4254106073
 21
119.6716781598
 31
0.0
  0
LINE
  5
141
330
1F
100
AcDbEntity
  8
0
  6
HIDDEN
 62
     7
370
     0
100
AcDbLine
 10
220.2488131528
 20
125.6744267844
 30
0.0
 11
219.9249643092
 21
125.1393792538
 31
0.0
  0
LINE
  5
142
330
1F
100
AcDbEntity
  8
0
  6
HIDDEN
 62
     7
370
     0
100
AcDbLine
 10
218.6727964909
 20
121.879001771
 30
0.0
 11
220.2488131528
 21
125.6744267844
 31
0.0
  0
LINE
  5
143
330
1F
100
AcDbEntity
  8
0
  6
HIDDEN
 62
     7
370
     0
100
AcDbLine
 10
219.3813368684
 20
123.0496182076
 30
0.0
 11
218.6727964909
 21
121.879001771
 31
0.0
  0
LINE
  5
144
330
1F
100
AcDbEntity
  8
0
  6
HIDDEN
 62
     7
370
     0
100
AcDbLine
 10
177.4044888877
 20
126.3680360252
 30
0.0
 11
177.4044888877
 21
126.2681736289
 31
0.0
  0
LINE
  5
145
330
1F
100
AcDbEntity
  8
0
  6
HIDDEN
 62
     7
370
     0
100
AcDbLine
 10
156.6044888877
 20
125.8454676265
 30
0.0
 11
156.6044888877
 21
122.0055481604
 31
0.0
  0
LINE
  5
146
330
1F
100
AcDbEntity
  8
0
  6
HIDDEN
 62
     7
370
     0
100
AcDbLine
 10
177.4044888877
 20
123.3219752329
 30
0.0
 11
177.4044888877
 21
122.2668323597
 31
0.0
  0
SPLINE
  5
147
330
1F
100
AcDbEntity
  8
0
  6
HIDDEN
 62
     7
370
     0
100
AcDbSpline
210
0.0
220
0.0
230
1.0
 70
     8
 71
     3
 72
    16
 73
    12
 74
     0
 42
0.00000001
 43
0.00000001
 12
1.0
 22
0.0
 32
0.0
 13
1.0
 23
0.0
 33
0.0
 40
0.0
 40
0.0
 40
0.0
 40
0.0
 40
0.2499999999999996
 40
0.2499999999999996
 40
0.3749999999999994
 40
0.3749999999999994
 40
0.4999999999999992
 40
0.4999999999999992
 40
0.7499999999999996
 40
0.7499999999999996
 40
1.0
 40
1.0
 40
1.0
 40
1.0
 10
177.4044888876992
 20
126.268173628946
 30
0.0
 10
177.3239515557997
 20
126.1881049427934
 30
0.0
 10
177.2639142117723
 20
126.0642404513028
 30
0.0
 10
177.2031765046187
 20
125.8135596273699
 30
0.0
 10
177.1878541295058
 20
125.71912102306
 30
0.0
 10
177.1672713202017
 20
125.5078099554406
 30
0.0
 10
177.1620717231761
 20
125.3905205006865
 30
0.0
 10
177.1620180699963
 20
125.01248482893
 30
0.0
 10
177.1822156134742
 20
124.7237076751849
 30
0.0
 10
177.2628937018329
 20
124.0738678120438
 30
0.0
 10
177.3239398664408
 20
123.7110388781498
 30
0.0
 10
177.4044888876994
 20
123.3219752328768
 30
0.0
  0
SPLINE
  5
148
330
1F
100
AcDbEntity
  8
0
  6
HIDDEN
 62
     7
370
     0
100
AcDbSpline
210
0.0
220
0.0
230
1.0
 70
     8
 71
     3
 72
    24
 73
    20
 74
     0
 42
0.00000001
 43
0.00000001
 12
1.0
 22
0.0
 32
0.0
 13
1.0
 23
0.0
 33
0.0
 40
0.0
 40
0.0
 40
0.0
 40
0.0
 40
0.2499999999999866
 40
0.2499999999999866
 40
0.374999999999981
 40
0.374999999999981
 40
0.4374999999999793
 40
0.4374999999999793
 40
0.4999999999999777
 40
0.4999999999999777
 40
0.5312499999999771
 40
0.5312499999999771
 40
0.5624999999999766
 40
0.5624999999999766
 40
0.6249999999999799
 40
0.6249999999999799
 40
0.7499999999999866
 40
0.7499999999999866
 40
1.0
 40
1.0
 40
1.0
 40
1.0
 10
177.6094489097598
 20
126.087021771791
 30
0.0
 10
177.5936823214614
 20
126.0728008008028
 30
0.0
 10
177.5770707885068
 20
126.058570510468
 30
0.0
 10
177.5485444405488
 20
126.0397734552465
 30
0.0
 10
177.5384590067588
 20
126.0338850349053
 30
0.0
 10
177.5209762362239
 20
126.0273476401029
 30
0.0
 10
177.5147685797783
 20
126.0255364261017
 30
0.0
 10
177.5004970795331
 20
126.0239306235952
 30
0.0
 10
177.4929270090301
 20
126.0233778462091
 30
0.0
 10
177.4755306795948
 20
126.0305765909219
 30
0.0
 10
177.4670714066348
 20
126.0356683396695
 30
0.0
 10
177.4510104420872
 20
126.0534832721487
 30
0.0
 10
177.4461772062409
 20
126.0620056870111
 30
0.0
 10
177.4347512865056
 20
126.0839021236598
 30
0.0
 10
177.4307299306231
 20
126.0956426464658
 30
0.0
 10
177.419969435592
 20
126.1296929104191
 30
0.0
 10
177.4160951265311
 20
126.1492678994478
 30
0.0
 10
177.406922254404
 20
126.205116208129
 30
0.0
 10
177.4048898836892
 20
126.2378939691579
 30
0.0
 10
177.4044888876994
 20
126.2681736289458
 30
0.0
  0
SPLINE
  5
149
330
1F
100
AcDbEntity
  8
0
  6
HIDDEN
 62
     7
370
     0
100
AcDbSpline
210
0.0
220
0.0
230
1.0
 70
     8
 71
     3
 72
     8
 73
     4
 74
     0
 42
0.00000001
 43
0.00000001
 12
1.0
 22
0.0
 32
0.0
 13
1.0
 23
0.0
 33
0.0
 40
0.0
 40
0.0
 40
0.0
 40
0.0
 40
1.0
 40
1.0
 40
1.0
 40
1.0
 10
177.7831685441398
 20
126.1730012486363
 30
0.0
 10
177.7180633825257
 20
126.1612802189777
 30
0.0
 10
177.6601760529657
 20
126.1327760731149
 30
0.0
 10
177.6094489097597
 20
126.0870217717911
 30
0.0
  0
LINE
  5
14A
330
1F
100
AcDbEntity
  8
0
  6
HIDDEN
 62
     7
370
     0
100
AcDbLine
 10
155.1044888877
 20
124.9794422227
 30
0.0
 11
155.1044888877
 21
121.5725354585
 31
0.0
  0
LINE
  5
14B
330
1F
100
AcDbEntity
  8
0
  6
HIDDEN
 62
     7
370
     0
100
AcDbLine
 10
177.4044888877
 20
102.4290421215
 30
0.0
 11
177.4044888877
 21
101.3738992484
 31
0.0
  0
LINE
  5
14C
330
1F
100
AcDbEntity
  8
0
  6
HIDDEN
 62
     7
370
     0
100
AcDbLine
 10
156.6044888877
 20
102.6903263209
 30
0.0
 11
156.6044888877
 21
98.8504068548
 31
0.0
  0
LINE
  5
14D
330
1F
100
AcDbEntity
  8
0
  6
HIDDEN
 62
     7
370
     0
100
AcDbLine
 10
177.4044888877
 20
98.4277008523
 30
0.0
 11
177.4044888877
 21
98.3278384561
 31
0.0
  0
SPLINE
  5
14E
330
1F
100
AcDbEntity
  8
0
  6
HIDDEN
 62
     7
370
     0
100
AcDbSpline
210
0.0
220
0.0
230
1.0
 70
     8
 71
     3
 72
    16
 73
    12
 74
     0
 42
0.00000001
 43
0.00000001
 12
1.0
 22
0.0
 32
0.0
 13
1.0
 23
0.0
 33
0.0
 40
0.0
 40
0.0
 40
0.0
 40
0.0
 40
0.2499999999999995
 40
0.2499999999999995
 40
0.3749999999999996
 40
0.3749999999999996
 40
0.4999999999999997
 40
0.4999999999999997
 40
0.7499999999999998
 40
0.7499999999999998
 40
1.0
 40
1.0
 40
1.0
 40
1.0
 10
177.4044888876992
 20
101.3738992483846
 30
0.0
 10
177.3239515557998
 20
100.9848920644391
 30
0.0
 10
177.2639142117724
 20
100.6283916228135
 30
0.0
 10
177.2031765046187
 20
100.1418892376246
 30
0.0
 10
177.1878541295058
 20
99.9878102967707
 30
0.0
 10
177.1672713202017
 20
99.6963407382773
 30
0.0
 10
177.1620717231761
 20
99.55877085437817
 30
0.0
 10
177.1620180699963
 20
99.18052601918845
 30
0.0
 10
177.1822156134743
 20
98.97064495063636
 30
0.0
 10
177.262893701833
 20
98.6340656517252
 30
0.0
 10
177.3239398664408
 20
98.50778115980741
 30
0.0
 10
177.4044888876994
 20
98.42770085231606
 30
0.0
  0
SPLINE
  5
14F
330
1F
100
AcDbEntity
  8
0
  6
HIDDEN
 62
     7
370
     0
100
AcDbSpline
210
0.0
220
0.0
230
1.0
 70
     8
 71
     3
 72
    24
 73
    20
 74
     0
 42
0.00000001
 43
0.00000001
 12
1.0
 22
0.0
 32
0.0
 13
1.0
 23
0.0
 33
0.0
 40
0.0
 40
0.0
 40
0.0
 40
0.0
 40
0.2500000000000052
 40
0.2500000000000052
 40
0.3750000000000058
 40
0.3750000000000058
 40
0.4375000000000051
 40
0.4375000000000051
 40
0.468750000000004
 40
0.468750000000004
 40
0.5000000000000029
 40
0.5000000000000029
 40
0.5625000000000028
 40
0.5625000000000028
 40
0.6250000000000024
 40
0.6250000000000024
 40
0.7500000000000014
 40
0.7500000000000014
 40
1.0
 40
1.0
 40
1.0
 40
1.0
 10
177.4044888876992
 20
98.42770085231591
 30
0.0
 10
177.4048917983347
 20
98.45812508915411
 30
0.0
 10
177.406935777675
 20
98.49098318970856
 30
0.0
 10
177.4161730205004
 20
98.54700855686238
 30
0.0
 10
177.4200600834808
 20
98.56661961004792
 30
0.0
 10
177.4309639748863
 20
98.60089389347696
 30
0.0
 10
177.4351060206367
 20
98.61295631894922
 30
0.0
 10
177.4470010943868
 20
98.63527548364705
 30
0.0
 10
177.4522481586938
 20
98.64424199600599
 30
0.0
 10
177.4691152250692
 20
98.66189156053412
 30
0.0
 10
177.4769376325985
 20
98.66603584467909
 30
0.0
 10
177.4938864332231
 20
98.6725233858566
 30
0.0
 10
177.5013427844413
 20
98.6719265044849
 30
0.0
 10
177.5154026876345
 20
98.67018024051345
 30
0.0
 10
177.5215350727708
 20
98.66834955261507
 30
0.0
 10
177.5388298352946
 20
98.6617831430424
 30
0.0
 10
177.5488471537039
 20
98.65591792788364
 30
0.0
 10
177.5772184879475
 20
98.63717324385301
 30
0.0
 10
177.5937539255922
 20
98.62300909576608
 30
0.0
 10
177.609448909757
 20
98.60885270947351
 30
0.0
  0
LINE
  5
150
330
1F
100
AcDbEntity
  8
0
  6
HIDDEN
 62
     7
370
     0
100
AcDbLine
 10
155.1044888877
 20
103.1233390228
 30
0.0
 11
155.1044888877
 21
99.7164322586
 31
0.0
  0
SPLINE
  5
151
330
1F
100
AcDbEntity
  8
0
  6
HIDDEN
 62
     7
370
     0
100
AcDbSpline
210
0.0
220
0.0
230
1.0
 70
     8
 71
     3
 72
     8
 73
     4
 74
     0
 42
0.00000001
 43
0.00000001
 12
1.0
 22
0.0
 32
0.0
 13
1.0
 23
0.0
 33
0.0
 40
0.0
 40
0.0
 40
0.0
 40
0.0
 40
1.0
 40
1.0
 40
1.0
 40
1.0
 10
177.609448909757
 20
98.6088527094735
 30
0.0
 10
177.6601760529637
 20
98.56309840814828
 30
0.0
 10
177.7180633825246
 20
98.53459426228476
 30
0.0
 10
177.7831685441398
 20
98.52287323262593
 30
0.0
  0
ARC
  5
152
330
1F
100
AcDbEntity
  8
0
  6
HIDDEN
 62
     7
370
     0
100
AcDbCircle
 10
218.7093437802
 20
128.4520989222
 30
0.0
 40
3.175756359343134
100
AcDbArc
 50
298.9965374079
 51
195.2092040717
  0
LINE
  5
153
330
1F
100
AcDbEntity
  8
0
  6
HIDDEN
 62
     7
370
     0
100
AcDbLine
 10
215.6448203084
 20
127.6189576708
 30
0.0
 11
212.4922573798
 21
120.0268322288
 31
0.0
  0
ELLIPSE
  5
154
330
1F
100
AcDbEntity
  8
0
  6
HIDDEN
 62
     7
370
     0
100
AcDbEllipse
 10
170.2932289823
 20
114.1479372406
 30
0.0
 11
237.8586779710873
 21
-4.388194929981793
 31
0.0
210
0.0
220
0.0
230
1.0
 40
0.1034726254
 41
1.33163583492813
 42
1.332907312128211
  0
LINE
  5
155
330
1F
100
AcDbEntity
  8
0
  6
HIDDEN
 62
     7
370
     0
100
AcDbLine
 10
227.451369584
 20
136.4820388826
 30
0.0
 11
227.0806686171
 21
137.0216756438
 31
0.0
  0
LINE
  5
156
330
1F
100
AcDbEntity
  8
0
  6
HIDDEN
 62
     7
370
     0
100
AcDbLine
 10
226.7862820095
 20
137.0325847124
 30
0.0
 11
213.49316309
 21
133.0489338462
 31
0.0
  0
LINE
  5
157
330
1F
100
AcDbEntity
  8
0
  6
HIDDEN
 62
     7
370
     0
100
AcDbLine
 10
213.49316309
 20
133.0489338462
 30
0.0
 11
210.5851390267
 21
123.799461094
 31
0.0
  0
LINE
  5
158
330
1F
100
AcDbEntity
  8
0
  6
HIDDEN
 62
     7
370
     0
100
AcDbLine
 10
208.8862221158
 20
118.9461839934
 30
0.0
 11
212.4922573798
 21
120.0268322288
 31
0.0
  0
LINE
  5
159
330
1F
100
AcDbEntity
  8
0
  6
HIDDEN
 62
     7
370
     0
100
AcDbLine
 10
218.6727964909
 20
121.879001771
 30
0.0
 11
223.2956807668
 21
123.264376946
 31
0.0
  0
LINE
  5
15A
330
1F
100
AcDbEntity
  8
0
  6
HIDDEN
 62
     7
370
     0
100
AcDbLine
 10
223.2956807668
 20
123.264376946
 30
0.0
 11
227.451280598
 21
136.4819798856
 31
0.0
  0
LINE
  5
15B
330
1F
100
AcDbEntity
  8
0
  6
HIDDEN
 62
     7
370
     0
100
AcDbLine
 10
212.4922573798
 20
120.0268322288
 30
0.0
 11
212.5506221644
 21
120.1232597273
 31
0.0
  0
LWPOLYLINE
  5
15C
330
1F
100
AcDbEntity
  8
0
  6
HIDDEN
 62
     7
370
     0
100
AcDbPolyline
 90
       29
 70
   128
 43
0.0
 10
193.1044888877
 20
109.1405655672
 10
193.571782849
 20
109.0917480537
 10
194.0156447398
 20
108.947743427
 10
194.4138174716
 20
108.7157726805
 10
194.7463350009
 20
108.407467796
 10
194.9965235103
 20
108.0382884678
 10
195.1518375033
 20
107.6267468889
 10
195.2044888877
 20
107.1934794727
 10
195.1518375033
 20
106.7602120564
 10
194.9965235103
 20
106.3486704775
 10
194.7463350009
 20
105.9794911493
 10
194.4138174716
 20
105.6711862648
 10
194.0156447398
 20
105.4392155183
 10
193.571782849
 20
105.2952108916
 10
193.1044888877
 20
105.2463933781
 10
192.6371949264
 20
105.2952108916
 10
192.1933330356
 20
105.4392155183
 10
191.7951603038
 20
105.6711862648
 10
191.4626427745
 20
105.9794911493
 10
191.2124542651
 20
106.3486704775
 10
191.0571402721
 20
106.7602120564
 10
191.0044888877
 20
107.1934794727
 10
191.0571402721
 20
107.6267468889
 10
191.2124542651
 20
108.0382884678
 10
191.4626427745
 20
108.407467796
 10
191.7951603038
 20
108.7157726805
 10
192.1933330356
 20
108.947743427
 10
192.6371949264
 20
109.0917480537
 10
193.1044888877
 20
109.1405655672
  0
SPLINE
  5
15D
330
1F
100
AcDbEntity
  8
0
  6
HIDDEN
 62
     7
370
     0
100
AcDbSpline
210
0.0
220
0.0
230
1.0
 70
     8
 71
     3
 72
    10
 73
     6
 74
     0
 42
0.00000001
 43
0.00000001
 12
1.0
 22
0.0
 32
0.0
 13
1.0
 23
0.0
 33
0.0
 40
0.0
 40
0.0
 40
0.0
 40
0.0
 40
0.5
 40
0.5
 40
1.0
 40
1.0
 40
1.0
 40
1.0
 10
219.2926771806658
 20
124.539160102409
 30
0.0
 10
219.442631109508
 20
124.6502575197106
 30
0.0
 10
219.5739930451024
 20
124.7614345838448
 30
0.0
 10
219.7919538639856
 20
124.9686676294518
 30
0.0
 10
219.880259348188
 20
125.0655198609113
 30
0.0
 10
219.924964309178
 20
125.1393792538171
 30
0.0
  0
ARC
  5
15E
330
1F
100
AcDbEntity
  8
0
  6
HIDDEN
 62
     7
370
     0
100
AcDbCircle
 10
218.1294840927
 20
127.4933621482
 30
0.0
 40
3.174953210221019
100
AcDbArc
 50
291.4916375851
 51
202.7141038945
  0
SPLINE
  5
15F
330
1F
100
AcDbEntity
  8
0
  6
HIDDEN
 62
     7
370
     0
100
AcDbSpline
210
0.0
220
0.0
230
1.0
 70
     8
 71
     3
 72
    10
 73
     6
 74
     0
 42
0.00000001
 43
0.00000001
 12
1.0
 22
0.0
 32
0.0
 13
1.0
 23
0.0
 33
0.0
 40
0.0
 40
0.0
 40
0.0
 40
0.0
 40
0.5
 40
0.5
 40
1.0
 40
1.0
 40
1.0
 40
1.0
 10
215.3209714648225
 20
127.0839101401966
 30
0.0
 10
215.2763189569476
 20
127.0101374078121
 30
0.0
 10
215.2462884347157
 20
126.8885368099254
 30
0.0
 10
215.2063082530473
 20
126.6061252668208
 30
0.0
 10
215.1969094898221
 20
126.4434464519544
 30
0.0
 10
215.200770515505
 20
126.2674075527375
 30
0.0
  0
LINE
  5
160
330
1F
100
AcDbEntity
  8
0
  6
HIDDEN
 62
     7
370
     0
100
AcDbLine
 10
215.3209714648
 20
127.0839101402
 30
0.0
 11
215.6448203084
 21
127.6189576708
 31
0.0
  0
SPLINE
  5
161
330
1F
100
AcDbEntity
  8
0
  6
HIDDEN
 62
     7
370
     0
100
AcDbSpline
210
0.0
220
0.0
230
1.0
 70
     8
 71
     3
 72
     8
 73
     4
 74
     0
 42
0.00000001
 43
0.00000001
 12
1.0
 22
0.0
 32
0.0
 13
1.0
 23
0.0
 33
0.0
 40
0.0
 40
0.0
 40
0.0
 40
0.0
 40
1.0
 40
1.0
 40
1.0
 40
1.0
 10
203.5623102422591
 20
129.9203530942417
 30
0.0
 10
202.9360601815141
 20
130.6056878026296
 30
0.0
 10
202.4660788808356
 20
131.2941713750384
 30
0.0
 10
202.3030877260095
 20
131.9888408941752
 30
0.0
  0
SPLINE
  5
162
330
1F
100
AcDbEntity
  8
0
  6
HIDDEN
 62
     7
370
     0
100
AcDbSpline
210
0.0
220
0.0
230
1.0
 70
     8
 71
     3
 72
    32
 73
    28
 74
     0
 42
0.00000001
 43
0.00000001
 12
1.0
 22
0.0
 32
0.0
 13
1.0
 23
0.0
 33
0.0
 40
0.0
 40
0.0
 40
0.0
 40
0.0
 40
0.0316627379492198
 40
0.0632455405634988
 40
0.0947604605565888
 40
0.1262196286644074
 40
0.1576352402065673
 40
0.1890195412783875
 40
0.2203848146493014
 40
0.2517433654475201
 40
0.2831075067136786
 40
0.3144895449079939
 40
0.3459017654560886
 40
0.3773564184181168
 40
0.4088657043641347
 40
0.4404417605358763
 40
0.4720966473712586
 40
0.5038423354631475
 40
0.5600924721769666
 40
0.6158974447867516
 40
0.6713261329238125
 40
0.726448826818194
 40
0.7813369922886566
 40
0.8360630139622023
 40
0.8906999209086538
 40
0.9453210996408821
 40
1.0
 40
1.0
 40
1.0
 40
1.0
 10
223.4791879901222
 20
125.9972661811027
 30
0.0
 10
223.5297355490686
 20
126.1406127326702
 30
0.0
 10
223.6307030552537
 20
126.4269439449723
 30
0.0
 10
223.780604200605
 20
126.8500116033006
 30
0.0
 10
223.9290970287649
 20
127.2675947408514
 30
0.0
 10
224.0760873871889
 20
127.6792814954805
 30
0.0
 10
224.2216003362708
 20
128.0851816227799
 30
0.0
 10
224.3656290873802
 20
128.4852655248706
 30
0.0
 10
224.5081753673992
 20
128.8795408642767
 30
0.0
 10
224.6492386277423
 20
129.2680053473718
 30
0.0
 10
224.7888189319616
 20
129.6506593577478
 30
0.0
 10
224.9269161826545
 20
130.0275025745564
 30
0.0
 10
225.0635303322503
 20
130.3985348871522
 30
0.0
 10
225.1986613154209
 20
130.7637561241631
 30
0.0
 10
225.3323091113278
 20
131.1231662294337
 30
0.0
 10
225.4644735640934
 20
131.4767648339359
 30
0.0
 10
225.5951550426645
 20
131.8245528014648
 30
0.0
 10
225.757450874405
 20
132.2541365260074
 30
0.0
 10
225.9485552191958
 20
132.7560455504072
 30
0.0
 10
226.164832804681
 20
133.3179645975743
 30
0.0
 10
226.3730410917498
 20
133.8525863720465
 30
0.0
 10
226.5731810808864
 20
134.3599157399319
 30
0.0
 10
226.7652369715354
 20
134.8399004691628
 30
0.0
 10
226.9492626036694
 20
135.2927209036972
 30
0.0
 10
227.1250512984442
 20
135.7176887612569
 30
0.0
 10
227.2933682144435
 20
136.11735603978
 30
0.0
 10
227.3985870546259
 20
136.3603337763508
 30
0.0
 10
227.4512242578747
 20
136.4818868031911
 30
0.0
  0
SPLINE
  5
163
330
1F
100
AcDbEntity
  8
0
  6
HIDDEN
 62
     7
370
     0
100
AcDbSpline
210
0.0
220
0.0
230
1.0
 70
     8
 71
     3
 72
    36
 73
    32
 74
     0
 42
0.00000001
 43
0.00000001
 12
1.0
 22
0.0
 32
0.0
 13
1.0
 23
0.0
 33
0.0
 40
0.0
 40
0.0
 40
0.0
 40
0.0
 40
0.0298254787893016
 40
0.0599773231576753
 40
0.0904563787028802
 40
0.1212634640687445
 40
0.1523993720149094
 40
0.1838648704375048
 40
0.2156607033431096
 40
0.2477875917783823
 40
0.2802462347175987
 40
0.3130373099101383
 40
0.3461614746899551
 40
0.3796193667489229
 40
0.4134116048758164
 40
0.44753878966264
 40
0.4820015041799273
 40
0.5168003146225267
 40
0.5519357709272898
 40
0.5874084073640751
 40
0.6232187431013434
 40
0.6593672827475717
 40
0.6958545168696632
 40
0.7326809224894382
 40
0.769846963559281
 40
0.8073530914179116
 40
0.8451997452272348
 40
0.8833873523911536
 40
0.9219163289572142
 40
0.9607870800018474
 40
1.0
 40
1.0
 40
1.0
 40
1.0
 10
227.0805369049318
 20
137.0197343438536
 30
0.0
 10
227.0532350832285
 20
136.9558643595325
 30
0.0
 10
226.998332689384
 20
136.8274254929926
 30
0.0
 10
226.9122958506806
 20
136.6236803003888
 30
0.0
 10
226.8230100542067
 20
136.4103232957146
 30
0.0
 10
226.7302351920452
 20
136.1864602997493
 30
0.0
 10
226.6340366405396
 20
135.9521341430786
 30
0.0
 10
226.5343965931666
 20
135.7071397836299
 30
0.0
 10
226.4313198909789
 20
135.4513474368744
 30
0.0
 10
226.3248052097801
 20
135.1846151102168
 30
0.0
 10
226.2148529035416
 20
134.9068129309123
 30
0.0
 10
226.1014628695619
 20
134.6178170520718
 30
0.0
 10
225.9846351294726
 20
134.3175118479387
 30
0.0
 10
225.8643696711462
 20
134.0057898619696
 30
0.0
 10
225.7406664917176
 20
133.682552374523
 30
0.0
 10
225.6135255858886
 20
133.3477098095393
 30
0.0
 10
225.482946949107
 20
133.0011821919334
 30
0.0
 10
225.348930576735
 20
132.6428995976114
 30
0.0
 10
225.2114764641715
 20
132.2728026105673
 30
0.0
 10
225.0705846072299
 20
131.8908427847868
 30
0.0
 10
224.9262550004918
 20
131.4969831016276
 30
0.0
 10
224.7784876436095
 20
131.0911984589829
 30
0.0
 10
224.6272825174393
 20
130.6734760503969
 30
0.0
 10
224.4726396743764
 20
130.2438161677441
 30
0.0
 10
224.3145588965142
 20
129.8022314043609
 30
0.0
 10
224.153040989083
 20
129.3487519100501
 30
0.0
 10
223.9880828869381
 20
128.8834077447067
 30
0.0
 10
223.8196961663916
 20
128.406297859393
 30
0.0
 10
223.6478370234879
 20
127.917331385225
 30
0.0
 10
223.4726711065556
 20
127.4172083114999
 30
0.0
 10
223.3537930137729
 20
127.0763727674019
 30
0.0
 10
223.2940935006792
 20
126.9052082109107
 30
0.0
  0
SPLINE
  5
164
330
1F
100
AcDbEntity
  8
0
  6
HIDDEN
 62
     7
370
     0
100
AcDbSpline
210
0.0
220
0.0
230
1.0
 70
     8
 71
     3
 72
     8
 73
     4
 74
     0
 42
0.00000001
 43
0.00000001
 12
1.0
 22
0.0
 32
0.0
 13
1.0
 23
0.0
 33
0.0
 40
0.0
 40
0.0
 40
0.0
 40
0.0
 40
1.0
 40
1.0
 40
1.0
 40
1.0
 10
203.4825303447049
 20
126.9052880628042
 30
0.0
 10
203.5095945957773
 20
127.9663734255799
 30
0.0
 10
203.536179840657
 20
128.9709347405754
 30
0.0
 10
203.5623102422591
 20
129.9203530942417
 30
0.0
  0
ELLIPSE
  5
165
330
1F
100
AcDbEntity
  8
0
  6
HIDDEN
 62
     7
370
     0
100
AcDbEllipse
 10
151.3558936984
 20
114.1479372406
 30
0.0
 11
78.33234788355928
 21
24.79521835240381
 31
0.0
210
0.0
220
0.0
230
1.0
 40
0.0407660087
 41
5.574453379065255
 42
5.996936224941703
  0
SPLINE
  5
166
330
1F
100
AcDbEntity
  8
0
  6
HIDDEN
 62
     7
370
     0
100
AcDbSpline
210
0.0
220
0.0
230
1.0
 70
     8
 71
     3
 72
    10
 73
     6
 74
     0
 42
0.00000001
 43
0.00000001
 12
1.0
 22
0.0
 32
0.0
 13
1.0
 23
0.0
 33
0.0
 40
0.0
 40
0.0
 40
0.0
 40
0.0
 40
0.5
 40
0.5
 40
1.0
 40
1.0
 40
1.0
 40
1.0
 10
211.4827619048473
 20
130.8937390473927
 30
0.0
 10
210.6521688564045
 20
130.5867081046705
 30
0.0
 10
209.7919536379481
 20
130.3447136194743
 30
0.0
 10
208.0099375361885
 20
130.0110821818195
 30
0.0
 10
207.0819383009595
 20
129.9203530942417
 30
0.0
 10
206.1532403584256
 20
129.9203530942417
 30
0.0
  0
LINE
  5
167
330
1F
100
AcDbEntity
  8
0
  6
HIDDEN
 62
     7
370
     0
100
AcDbLine
 10
206.1532403584
 20
129.9203530942
 30
0.0
 11
203.5623102423
 21
129.9203530942
 31
0.0
  0
LWPOLYLINE
  5
168
330
1F
100
AcDbEntity
  8
0
  6
HIDDEN
 62
     7
370
     0
100
AcDbPolyline
 90
       16
 70
   128
 43
0.0
 10
212.8214177629
 20
121.6162090462
 10
213.003265893
 20
121.9347234608
 10
213.277774677
 20
122.1968246017
 10
213.6329467639
 20
122.3910573915
 10
214.0532594292
 20
122.5089329252
 10
214.5203429925
 20
122.5452994762
 10
215.0137836607
 20
122.4985676519
 10
215.512015709
 20
122.3707798571
 10
215.9932640059
 20
122.1675210318
 10
216.4364956916
 20
121.8976745619
 10
216.8223394147
 20
121.573034033
 10
217.1339319528
 20
121.2077877941
 10
217.357655217
 20
120.8178988584
 10
217.483731427
 20
120.4204072433
 10
217.5066504475
 20
120.0326852397
 10
217.4254106073
 20
119.6716781598
  0
ELLIPSE
  5
169
330
1F
100
AcDbEntity
  8
0
  6
HIDDEN
 62
     7
370
     0
100
AcDbEllipse
 10
216.7273463564
 20
124.1524986226
 30
0.0
 11
1.091603625900518
 21
2.745937317723801
 31
0.0
210
0.0
220
0.0
230
1.0
 40
0.8456084473
 41
5.170551878466392
 42
7.359876249009522
  0
LINE
  5
16A
330
1F
100
AcDbEntity
  8
0
  6
HIDDEN
 62
     7
370
     0
100
AcDbLine
 10
155.1044888877
 20
121.5725354585
 30
0.0
 11
155.1044888877
 21
114.1981510543
 31
0.0
  0
LINE
  5
16B
330
1F
100
AcDbEntity
  8
0
  6
HIDDEN
 62
     7
370
     0
100
AcDbLine
 10
155.1044888877
 20
110.497723427
 30
0.0
 11
155.1044888877
 21
103.1233390228
 31
0.0
  0
SPLINE
  5
16C
330
1F
100
AcDbEntity
  8
0
  6
HIDDEN
 62
     7
370
     0
100
AcDbSpline
210
0.0
220
0.0
230
1.0
 70
     8
 71
     3
 72
    24
 73
    20
 74
     0
 42
0.00000001
 43
0.00000001
 12
1.0
 22
0.0
 32
0.0
 13
1.0
 23
0.0
 33
0.0
 40
0.0
 40
0.0
 40
0.0
 40
0.0
 40
0.249999999999999
 40
0.249999999999999
 40
0.3749999999999967
 40
0.3749999999999967
 40
0.4374999999999968
 40
0.4374999999999968
 40
0.4999999999999969
 40
0.4999999999999969
 40
0.5312499999999958
 40
0.5312499999999958
 40
0.5624999999999947
 40
0.5624999999999947
 40
0.6249999999999976
 40
0.6249999999999976
 40
0.7499999999999974
 40
0.7499999999999974
 40
1.0
 40
1.0
 40
1.0
 40
1.0
 10
177.6094489097598
 20
101.5553435138329
 30
0.0
 10
177.5936800324023
 20
101.4814848219033
 30
0.0
 10
177.5770660505523
 20
101.4077734331674
 30
0.0
 10
177.5485343845472
 20
101.2962266095454
 30
0.0
 10
177.5384469697285
 20
101.2588550364169
 30
0.0
 10
177.5209594092742
 20
101.2019555387792
 30
0.0
 10
177.5147498474909
 20
101.1828524386339
 30
0.0
 10
177.5004722938383
 20
101.1439789243983
 30
0.0
 10
177.4929007460429
 20
101.1240542649649
 30
0.0
 10
177.4754831623646
 20
101.0939820469375
 30
0.0
 10
177.4670006657194
 20
101.0823006681344
 30
0.0
 10
177.4509623538477
 20
101.0750391573859
 30
0.0
 10
177.4461418056442
 20
101.0786174043957
 30
0.0
 10
177.4347325810963
 20
101.0903782596274
 30
0.0
 10
177.4307121006388
 20
101.102043909678
 30
0.0
 10
177.4199582458185
 20
101.1385792397916
 30
0.0
 10
177.4160855645363
 20
101.1659749731151
 30
0.0
 10
177.4069174146987
 20
101.2507009648711
 30
0.0
 10
177.4048889093296
 20
101.3115330870431
 30
0.0
 10
177.4044888876994
 20
101.3738992483847
 30
0.0
  0
SPLINE
  5
16D
330
1F
100
AcDbEntity
  8
0
  6
HIDDEN
 62
     7
370
     0
100
AcDbSpline
210
0.0
220
0.0
230
1.0
 70
     8
 71
     3
 72
    24
 73
    20
 74
     0
 42
0.00000001
 43
0.00000001
 12
1.0
 22
0.0
 32
0.0
 13
1.0
 23
0.0
 33
0.0
 40
0.0
 40
0.0
 40
0.0
 40
0.0
 40
0.2499999999999923
 40
0.2499999999999923
 40
0.3749999999999885
 40
0.3749999999999885
 40
0.4374999999999873
 40
0.4374999999999873
 40
0.4687499999999887
 40
0.4687499999999887
 40
0.4999999999999902
 40
0.4999999999999902
 40
0.5624999999999916
 40
0.5624999999999916
 40
0.6249999999999928
 40
0.6249999999999928
 40
0.7499999999999943
 40
0.7499999999999943
 40
1.0
 40
1.0
 40
1.0
 40
1.0
 10
177.4044888876957
 20
123.3219752328797
 30
0.0
 10
177.4048935572714
 20
123.3850660413732
 30
0.0
 10
177.4069370040856
 20
123.4462517638765
 30
0.0
 10
177.4163365693394
 20
123.5317514963797
 30
0.0
 10
177.4202874628681
 20
123.5593318798213
 30
0.0
 10
177.4314397711644
 20
123.5957859619339
 30
0.0
 10
177.4356613120908
 20
123.6076443836286
 30
0.0
 10
177.447869033653
 20
123.6182644350061
 30
0.0
 10
177.4536598039032
 20
123.6210978022304
 30
0.0
 10
177.470581317013
 20
123.6097832152379
 30
0.0
 10
177.4779874329643
 20
123.5980023294837
 30
0.0
 10
177.494444686209
 20
123.5679614882535
 30
0.0
 10
177.5019012041201
 20
123.5482485346401
 30
0.0
 10
177.5158091333952
 20
123.5098464685795
 30
0.0
 10
177.5219010792903
 20
123.4909648186677
 30
0.0
 10
177.5390953716418
 20
123.4346639081355
 30
0.0
 10
177.5490803218455
 20
123.3975878303254
 30
0.0
 10
177.5773263669448
 20
123.2869291594342
 30
0.0
 10
177.5938059039061
 20
123.2138000990248
 30
0.0
 10
177.609448909766
 20
123.1405309674001
 30
0.0
  0
SPLINE
  5
16E
330
1F
100
AcDbEntity
  8
0
  6
HIDDEN
 62
     7
370
     0
100
AcDbSpline
210
0.0
220
0.0
230
1.0
 70
     8
 71
     3
 72
     8
 73
     4
 74
     0
 42
0.00000001
 43
0.00000001
 12
1.0
 22
0.0
 32
0.0
 13
1.0
 23
0.0
 33
0.0
 40
0.0
 40
0.0
 40
0.0
 40
0.0
 40
1.0
 40
1.0
 40
1.0
 40
1.0
 10
177.7831685441398
 20
102.2944179230243
 30
0.0
 10
177.7180633825257
 20
102.0393926878187
 30
0.0
 10
177.6601760529657
 20
101.7929406716774
 30
0.0
 10
177.6094489097597
 20
101.5553435138328
 30
0.0
  0
SPLINE
  5
16F
330
1F
100
AcDbEntity
  8
0
  6
HIDDEN
 62
     7
370
     0
100
AcDbSpline
210
0.0
220
0.0
230
1.0
 70
     8
 71
     3
 72
     8
 73
     4
 74
     0
 42
0.00000001
 43
0.00000001
 12
1.0
 22
0.0
 32
0.0
 13
1.0
 23
0.0
 33
0.0
 40
0.0
 40
0.0
 40
0.0
 40
0.0
 40
1.0
 40
1.0
 40
1.0
 40
1.0
 10
177.6094489097659
 20
123.1405309674001
 30
0.0
 10
177.6601760529704
 20
122.9029338095645
 30
0.0
 10
177.7180633825284
 20
122.6564817934331
 30
0.0
 10
177.7831685441398
 20
122.4014565582378
 30
0.0
  0
LINE
  5
170
330
1F
100
AcDbEntity
  8
0
  6
HIDDEN
 62
     7
370
     0
100
AcDbLine
 10
156.6044888877
 20
109.7929090036
 30
0.0
 11
156.6044888877
 21
102.6903263209
 31
0.0
  0
LINE
  5
171
330
1F
100
AcDbEntity
  8
0
  6
HIDDEN
 62
     7
370
     0
100
AcDbLine
 10
156.6044888877
 20
122.0055481604
 30
0.0
 11
156.6044888877
 21
114.9029654777
 31
0.0
  0
LINE
  5
172
330
1F
100
AcDbEntity
  8
0
  6
HIDDEN
 62
     7
370
     0
100
AcDbLine
 10
177.4044888877
 20
122.2668323597
 30
0.0
 11
177.4044888877
 21
102.4290421215
 31
0.0
  0
LINE
  5
173
330
1F
100
AcDbEntity
  8
0
  6
HIDDEN
 62
     7
370
     0
100
AcDbLine
 10
212.8214177629
 20
121.6162090462
 30
0.0
 11
211.1369507783
 21
117.2654532076
 31
0.0
  0
LINE
  5
174
330
1F
100
AcDbEntity
  8
0
  6
HIDDEN
 62
     7
370
     0
100
AcDbLine
 10
178.9044888877
 20
120.8273043803
 30
0.0
 11
178.9044888877
 21
103.8685701009
 31
0.0
  0
SPLINE
  5
175
330
1F
100
AcDbEntity
  8
0
  6
HIDDEN
 62
     7
370
     0
100
AcDbSpline
210
0.0
220
0.0
230
1.0
 70
     8
 71
     3
 72
     8
 73
     4
 74
     0
 42
0.00000001
 43
0.00000001
 12
1.0
 22
0.0
 32
0.0
 13
1.0
 23
0.0
 33
0.0
 40
0.0000137051794235
 40
0.0000137051794235
 40
0.0000137051794235
 40
0.0000137051794235
 40
0.0027147144718019
 40
0.0027147144718019
 40
0.0027147144718019
 40
0.0027147144718019
 10
156.6044888876993
 20
109.7929090035693
 30
0.0
 10
157.5044850231941
 20
109.779937436371
 30
0.0
 10
158.4044852017895
 20
109.7673025790589
 30
0.0
 10
159.3044888876994
 20
109.7549925608031
 30
0.0
  0
SPLINE
  5
176
330
1F
100
AcDbEntity
  8
0
  6
HIDDEN
 62
     7
370
     0
100
AcDbSpline
210
0.0
220
0.0
230
1.0
 70
     8
 71
     3
 72
     8
 73
     4
 74
     0
 42
0.00000001
 43
0.00000001
 12
1.0
 22
0.0
 32
0.0
 13
1.0
 23
0.0
 33
0.0
 40
0.0000137050638847
 40
0.0000137050638847
 40
0.0000137050638847
 40
0.0000137050638847
 40
0.0027147143562631
 40
0.0027147143562631
 40
0.0027147143562631
 40
0.0027147143562631
 10
159.3044888876994
 20
114.940881920459
 30
0.0
 10
158.4044852017895
 20
114.9285719022032
 30
0.0
 10
157.5044850231941
 20
114.9159370448912
 30
0.0
 10
156.6044888876993
 20
114.9029654776928
 30
0.0
  0
SPLINE
  5
177
330
1F
100
AcDbEntity
  8
0
  6
HIDDEN
 62
     7
370
     0
100
AcDbSpline
210
0.0
220
0.0
230
1.0
 70
     8
 71
     3
 72
    10
 73
     6
 74
     0
 42
0.00000001
 43
0.00000001
 12
1.0
 22
0.0
 32
0.0
 13
1.0
 23
0.0
 33
0.0
 40
0.0
 40
0.0
 40
0.0
 40
0.0
 40
0.5
 40
0.5
 40
1.0
 40
1.0
 40
1.0
 40
1.0
 10
155.1044888876994
 20
110.4977234269804
 30
0.0
 10
155.3416308484151
 20
110.3421086124517
 30
0.0
 10
155.5869736071784
 20
110.2101995830325
 30
0.0
 10
156.0882371959112
 20
109.9785427063951
 30
0.0
 10
156.3442717651614
 20
109.8790970902724
 30
0.0
 10
156.6044888876994
 20
109.7929090035693
 30
0.0
  0
SPLINE
  5
178
330
1F
100
AcDbEntity
  8
0
  6
HIDDEN
 62
     7
370
     0
100
AcDbSpline
210
0.0
220
0.0
230
1.0
 70
     8
 71
     3
 72
    10
 73
     6
 74
     0
 42
0.00000001
 43
0.00000001
 12
1.0
 22
0.0
 32
0.0
 13
1.0
 23
0.0
 33
0.0
 40
0.0
 40
0.0
 40
0.0
 40
0.0
 40
0.5
 40
0.5
 40
1.0
 40
1.0
 40
1.0
 40
1.0
 10
156.6044888876993
 20
114.9029654776928
 30
0.0
 10
156.3442717651613
 20
114.8167773909897
 30
0.0
 10
156.0882371959112
 20
114.717331774867
 30
0.0
 10
155.5869736071784
 20
114.4856748982296
 30
0.0
 10
155.3416308484151
 20
114.3537658688105
 30
0.0
 10
155.1044888876994
 20
114.1981510542817
 30
0.0
  0
LINE
  5
179
330
1F
100
AcDbEntity
  8
0
  6
HIDDEN
 62
     7
370
     0
100
AcDbLine
 10
155.1044888877
 20
110.497723427
 30
0.0
 11
155.1044888877
 21
114.1981510543
 31
0.0
  0
LINE
  5
17A
330
1F
100
AcDbEntity
  8
0
  6
HIDDEN
 62
     7
370
     0
100
AcDbLine
 10
159.3044888877
 20
109.7549925608
 30
0.0
 11
159.3044888877
 21
114.9408819205
 31
0.0
  0
SPLINE
  5
17B
330
1F
100
AcDbEntity
  8
0
  6
HIDDEN
 62
     7
370
     0
100
AcDbSpline
210
0.0
220
0.0
230
1.0
 70
     8
 71
     3
 72
    22
 73
    18
 74
     0
 42
0.00000001
 43
0.00000001
 12
1.0
 22
0.0
 32
0.0
 13
1.0
 23
0.0
 33
0.0
 40
0.0
 40
0.0
 40
0.0
 40
0.0
 40
0.1250000000000001
 40
0.1250000000000001
 40
0.2500000000000001
 40
0.2500000000000001
 40
0.3750000000000002
 40
0.3750000000000002
 40
0.5000000000000002
 40
0.5000000000000002
 40
0.6250000000000002
 40
0.6250000000000002
 40
0.7500000000000002
 40
0.7500000000000002
 40
0.8750000000000001
 40
0.8750000000000001
 40
1.0
 40
1.0
 40
1.0
 40
1.0
 10
159.3044888876994
 20
109.7549925608031
 30
0.0
 10
159.4854252457755
 20
109.9466124201096
 30
0.0
 10
159.6645206945524
 20
110.1402542844968
 30
0.0
 10
160.0153606830644
 20
110.534909537881
 30
0.0
 10
160.1875537909691
 20
110.7359210685486
 30
0.0
 10
160.5132852965883
 20
111.1521321837824
 30
0.0
 10
160.6693615317567
 20
111.3681480240691
 30
0.0
 10
160.9207407456457
 20
111.8334707872338
 30
0.0
 10
161.0146058759645
 20
112.0890099802567
 30
0.0
 10
161.0108779591024
 20
112.6233406153573
 30
0.0
 10
160.913505316615
 20
112.878761481358
 30
0.0
 10
160.6616845076212
 20
113.3387901973057
 30
0.0
 10
160.5067152521486
 20
113.5526271982343
 30
0.0
 10
160.1819024944233
 20
113.966665780928
 30
0.0
 10
160.0110094302954
 20
114.1659582529638
 30
0.0
 10
159.6623751907678
 20
114.557933145398
 30
0.0
 10
159.4843673402393
 20
114.7503824313874
 30
0.0
 10
159.3044888876994
 20
114.940881920459
 30
0.0
  0
LWPOLYLINE
  5
17C
330
1F
100
AcDbEntity
  8
0
  6
HIDDEN
 62
     7
370
     0
100
AcDbPolyline
 90
       32
 70
   128
 43
0.0
 10
193.1044888877
 20
109.4214045692
 10
193.6077351879
 20
109.3739557993
 10
194.0903785255
 20
109.2335520477
 10
194.5326594254
 20
109.0059414606
 10
194.9164708558
 20
108.7004424421
 10
195.2260995314
 20
108.3295621579
 10
195.4488692181
 20
107.9084844904
 10
195.5756596985
 20
107.4544484089
 10
195.6012801556
 20
106.9860422038
 10
195.5246816849
 20
106.5224424803
 10
195.3490002366
 20
106.0826290654
 10
195.08142823
 20
105.6846079721
 10
194.7329200945
 20
105.3446742306
 10
194.317743794
 20
105.0767447683
 10
193.8528966951
 20
104.891788649
 10
193.3574096927
 20
104.7973779977
 10
192.8515680827
 20
104.7973779977
 10
192.3560810803
 20
104.891788649
 10
191.8912339814
 20
105.0767447683
 10
191.4760576809
 20
105.3446742306
 10
191.1275495454
 20
105.6846079721
 10
190.8599775388
 20
106.0826290654
 10
190.6842960905
 20
106.5224424803
 10
190.6076976198
 20
106.9860422038
 10
190.6333180769
 20
107.4544484089
 10
190.7601085573
 20
107.9084844904
 10
190.982878244
 20
108.3295621579
 10
191.2925069196
 20
108.7004424421
 10
191.67631835
 20
109.0059414606
 10
192.1185992499
 20
109.2335520477
 10
192.6012425875
 20
109.3739557993
 10
193.1044888877
 20
109.4214045692
  0
SPLINE
  5
17D
330
1F
100
AcDbEntity
  8
0
  6
HIDDEN
 62
     7
370
     0
100
AcDbSpline
210
0.0
220
0.0
230
1.0
 70
     8
 71
     3
 72
    62
 73
    58
 74
     0
 42
0.00000001
 43
0.00000001
 12
1.0
 22
0.0
 32
0.0
 13
1.0
 23
0.0
 33
0.0
 40
-0.03125
 40
-0.03125
 40
0.0
 40
0.0
 40
0.0312500000000001
 40
0.0312500000000001
 40
0.0625000000000001
 40
0.0625000000000001
 40
0.0937500000000002
 40
0.0937500000000002
 40
0.1250000000000002
 40
0.1250000000000002
 40
0.1875000000000003
 40
0.1875000000000003
 40
0.2500000000000004
 40
0.2500000000000004
 40
0.2812500000000005
 40
0.2812500000000005
 40
0.3125000000000006
 40
0.3125000000000006
 40
0.3437500000000006
 40
0.3437500000000006
 40
0.3750000000000007
 40
0.3750000000000007
 40
0.4375000000000007
 40
0.4375000000000007
 40
0.4687500000000007
 40
0.4687500000000007
 40
0.5000000000000007
 40
0.5000000000000007
 40
0.5625000000000008
 40
0.5625000000000008
 40
0.5937500000000007
 40
0.5937500000000007
 40
0.6250000000000007
 40
0.6250000000000007
 40
0.6562500000000006
 40
0.6562500000000006
 40
0.6875000000000006
 40
0.6875000000000006
 40
0.7187500000000004
 40
0.7187500000000004
 40
0.7500000000000004
 40
0.7500000000000004
 40
0.7812500000000003
 40
0.7812500000000003
 40
0.8125000000000003
 40
0.8125000000000003
 40
0.8437500000000002
 40
0.8437500000000002
 40
0.8750000000000002
 40
0.8750000000000002
 40
0.9062500000000001
 40
0.9062500000000001
 40
0.9375000000000001
 40
0.9375000000000001
 40
0.96875
 40
0.96875
 40
1.0
 40
1.0
 40
1.03125
 40
1.03125
 10
165.5582610156276
 20
113.8359162792874
 30
0.0
 10
165.7857613622159
 20
114.085262821148
 30
0.0
 10
165.9102238911334
 20
114.196860498605
 30
0.0
 10
166.1793181572851
 20
114.3955112944234
 30
0.0
 10
166.3251312488745
 20
114.4828515392121
 30
0.0
 10
166.6262981271638
 20
114.6270472918543
 30
0.0
 10
166.7826338542282
 20
114.6848669623685
 30
0.0
 10
167.1067571535626
 20
114.7721205744196
 30
0.0
 10
167.2734223652731
 20
114.8009226239014
 30
0.0
 10
167.771438631905
 20
114.8417019291692
 30
0.0
 10
168.112109580698
 20
114.808258669028
 30
0.0
 10
168.7511204961194
 20
114.6258060245692
 30
0.0
 10
169.0575751031833
 20
114.4743814642564
 30
0.0
 10
169.4541310124457
 20
114.1738835586721
 30
0.0
 10
169.5784802032952
 20
114.0596223734767
 30
0.0
 10
169.8009442973444
 20
113.8099625029042
 30
0.0
 10
169.8985096358216
 20
113.6757958949051
 30
0.0
 10
170.0657652394604
 20
113.3883268004063
 30
0.0
 10
170.1358508949795
 20
113.2330599505065
 30
0.0
 10
170.2399062557011
 20
112.9160805304194
 30
0.0
 10
170.2748820183684
 20
112.753427778915
 30
0.0
 10
170.3267465378925
 20
112.2524907587124
 30
0.0
 10
170.2874404301211
 20
111.9123361574021
 30
0.0
 10
170.1247206376603
 20
111.435841525305
 30
0.0
 10
170.054440139774
 20
111.2847741654775
 30
0.0
 10
169.883106994644
 20
110.9974795950367
 30
0.0
 10
169.7817147534623
 20
110.8616218167393
 30
0.0
 10
169.4451151662391
 20
110.4928134217411
 30
0.0
 10
169.1698824000744
 20
110.29038831241
 30
0.0
 10
168.7200991727285
 20
110.0733115858012
 30
0.0
 10
168.5612993742248
 20
110.014009313727
 30
0.0
 10
168.2387376533452
 20
109.9260367959264
 30
0.0
 10
168.074878541378
 20
109.8969170320802
 30
0.0
 10
167.7420457680241
 20
109.86806041697
 30
0.0
 10
167.5719934765833
 20
109.868683940184
 30
0.0
 10
167.2397178125636
 20
109.8999403839884
 30
0.0
 10
167.0760032008148
 20
109.9302590790402
 30
0.0
 10
166.7535377152405
 20
110.0209761180432
 30
0.0
 10
166.595026616714
 20
110.081745026745
 30
0.0
 10
166.2964729105161
 20
110.229255701542
 30
0.0
 10
166.154646781314
 20
110.3163907294059
 30
0.0
 10
165.8867250427557
 20
110.5189761959779
 30
0.0
 10
165.7626316123632
 20
110.6333143626201
 30
0.0
 10
165.541497424445
 20
110.8815008005728
 30
0.0
 10
165.4430404223463
 20
111.0165334174267
 30
0.0
 10
165.2736819086114
 20
111.3085378154814
 30
0.0
 10
165.2055150709054
 20
111.4606735619169
 30
0.0
 10
165.101781104579
 20
111.777082510357
 30
0.0
 10
165.0661125427098
 20
111.9435789797112
 30
0.0
 10
165.0318987780573
 20
112.2768408558217
 30
0.0
 10
165.0327571808864
 20
112.4435033096436
 30
0.0
 10
165.070553960836
 20
112.7768915088612
 30
0.0
 10
165.10789671629
 20
112.9426470813407
 30
0.0
 10
165.2151462993585
 20
113.2585383978034
 30
0.0
 10
165.2859075158976
 20
113.4118177308755
 30
0.0
 10
165.4580306659983
 20
113.701194773362
 30
0.0
 10
165.5582610156276
 20
113.8359162792874
 30
0.0
 10
165.7857613622159
 20
114.085262821148
 30
0.0
  0
CIRCLE
  5
17E
330
1F
100
AcDbEntity
  8
0
  6
HIDDEN
 62
     7
370
     0
100
AcDbCircle
 10
167.6044888877
 20
112.3479372406
 30
0.0
 40
2.299999999999997
  0
CIRCLE
  5
17F
330
1F
100
AcDbEntity
  8
0
  6
HIDDEN
 62
     7
370
     0
100
AcDbCircle
 10
191.1044888877
 20
112.3479372406
 30
0.0
 40
2.0
  0
LINE
  5
180
330
1F
100
AcDbEntity
  8
0
  6
HIDDEN
 62
     7
370
     0
100
AcDbLine
 10
223.2937906215
 20
126.9052880628
 30
0.0
 11
203.4825303447
 21
126.9052880628
 31
0.0
  0
LINE
  5
181
330
1F
100
AcDbEntity
  8
0
  6
HIDDEN
 62
     7
370
     0
100
AcDbLine
 10
223.2962706476
 20
126.9070696708
 30
0.0
 11
223.4796943596
 21
125.9945489816
 31
0.0
  0
SPLINE
  5
182
330
1F
100
AcDbEntity
  8
0
  6
HIDDEN
 62
     7
370
     0
100
AcDbSpline
210
0.0
220
0.0
230
1.0
 70
     8
 71
     3
 72
     8
 73
     4
 74
     0
 42
0.00000001
 43
0.00000001
 12
1.0
 22
0.0
 32
0.0
 13
1.0
 23
0.0
 33
0.0
 40
0.0
 40
0.0
 40
0.0
 40
0.0
 40
1.0
 40
1.0
 40
1.0
 40
1.0
 10
203.4825303447049
 20
126.9052880628042
 30
0.0
 10
202.8967790362184
 20
123.1296166404255
 30
0.0
 10
202.4592388180127
 20
119.3343186689194
 30
0.0
 10
202.3030877260095
 20
115.5017583204962
 30
0.0
  0
LINE
  5
183
330
1F
100
AcDbEntity
  8
0
  6
HIDDEN
 62
     7
370
     0
100
AcDbLine
 10
223.4791879897
 20
125.9972661812
 30
0.0
 11
219.0461688255
 21
112.3479372406
 31
0.0
  0
LINE
  5
184
330
1F
100
AcDbEntity
  8
0
  6
HIDDEN
 62
     7
370
     0
100
AcDbLine
 10
179.1044888877
 20
96.5479372406
 30
0.0
 11
179.1973821065
 21
96.6408304594
 31
0.0
  0
LINE
  5
185
330
1F
100
AcDbEntity
  8
0
  6
HIDDEN
 62
     7
370
     0
100
AcDbLine
 10
179.1973821065
 20
128.0550440218
 30
0.0
 11
179.1044888877
 21
128.1479372406
 31
0.0
  0
ARC
  5
186
330
1F
100
AcDbEntity
  8
0
  6
HIDDEN
 62
     7
370
     0
100
AcDbCircle
 10
178.4902753253
 20
97.3479372406
 30
0.0
 40
1.0
100
AcDbArc
 50
315.0
 51
0.0
  0
ARC
  5
187
330
1F
100
AcDbEntity
  8
0
  6
HIDDEN
 62
     7
370
     0
100
AcDbCircle
 10
178.4902753253
 20
97.3479372406
 30
0.0
 40
1.0
100
AcDbArc
 50
0.0
 51
52.1052014664
  0
ARC
  5
188
330
1F
100
AcDbEntity
  8
0
  6
HIDDEN
 62
     7
370
     0
100
AcDbCircle
 10
178.4902753253
 20
127.3479372406
 30
0.0
 40
1.000000000000008
100
AcDbArc
 50
351.8087250651
 51
45.0
  0
ARC
  5
189
330
1F
100
AcDbEntity
  8
0
  6
HIDDEN
 62
     7
370
     0
100
AcDbCircle
 10
178.4902753253
 20
127.3479372406
 30
0.0
 40
1.000000000000005
100
AcDbArc
 50
307.8947985336
 51
351.8087250651
  0
LINE
  5
18A
330
1F
100
AcDbEntity
  8
0
  6
HIDDEN
 62
     7
370
     0
100
AcDbLine
 10
179.4902753253
 20
97.3479372406
 30
0.0
 11
179.4902753253
 21
127.3479372406
 31
0.0
  0
LINE
  5
18B
330
1F
100
AcDbEntity
  8
0
  6
HIDDEN
 62
     7
370
     0
100
AcDbLine
 10
179.4902753253
 20
97.3479372406
 30
0.0
 11
179.4902753253
 21
127.3479372406
 31
0.0
  0
LINE
  5
18C
330
1F
100
AcDbEntity
  8
0
  6
HIDDEN
 62
     7
370
     0
100
AcDbLine
 10
195.2044888877
 20
114.6891840237
 30
0.0
 11
195.2044888877
 21
116.747315134
 31
0.0
  0
LINE
  5
18D
330
1F
100
AcDbEntity
  8
0
  6
HIDDEN
 62
     7
370
     0
100
AcDbLine
 10
191.0044888877
 20
117.9670361419
 30
0.0
 11
191.0044888877
 21
114.6883727339
 31
0.0
  0
LINE
  5
18E
330
1F
100
AcDbEntity
  8
0
  6
HIDDEN
 62
     7
370
     0
100
AcDbLine
 10
199.845649323
 20
124.1448154472
 30
0.0
 11
192.4998817125
 21
119.5218126753
 31
0.0
  0
LINE
  5
18F
330
1F
100
AcDbEntity
  8
0
  6
HIDDEN
 62
     7
370
     0
100
AcDbLine
 10
194.7965370049
 20
116.0046648697
 30
0.0
 11
199.8980621982
 21
119.2152708077
 31
0.0
  0
LINE
  5
190
330
1F
100
AcDbEntity
  8
0
  6
HIDDEN
 62
     7
370
     0
100
AcDbLine
 10
155.1044888877
 20
102.1922867164
 30
0.0
 11
156.1315209197
 21
102.7852439365
 31
0.0
  0
LINE
  5
191
330
1F
100
AcDbEntity
  8
0
  6
HIDDEN
 62
     7
370
     0
100
AcDbLine
 10
156.1315209197
 20
121.9106305447
 30
0.0
 11
155.1044888877
 21
122.5035877649
 31
0.0
  0
LINE
  5
192
330
1F
100
AcDbEntity
  8
0
  6
HIDDEN
 62
     7
370
     0
100
AcDbLine
 10
160.6044888877
 20
102.3479372406
 30
0.0
 11
161.6173073574
 21
102.3479372406
 31
0.0
  0
LINE
  5
193
330
1F
100
AcDbEntity
  8
0
  6
HIDDEN
 62
     7
370
     0
100
AcDbLine
 10
161.6173073574
 20
122.3479372406
 30
0.0
 11
160.6044888877
 21
122.3479372406
 31
0.0
  0
ARC
  5
194
330
1F
100
AcDbEntity
  8
0
  6
HIDDEN
 62
     7
370
     0
100
AcDbCircle
 10
160.6044888877
 20
103.3479372406
 30
0.0
 40
1.000000000000033
100
AcDbArc
 50
193.3524261238
 51
270.0
  0
ARC
  5
195
330
1F
100
AcDbEntity
  8
0
  6
HIDDEN
 62
     7
370
     0
100
AcDbCircle
 10
160.6044888877
 20
121.3479372406
 30
0.0
 40
1.000000000000012
100
AcDbArc
 50
90.0
 51
166.6475738762
  0
ARC
  5
196
330
1F
100
AcDbEntity
  8
0
  6
HIDDEN
 62
     7
370
     0
100
AcDbCircle
 10
161.6173073574
 20
103.3479372406
 30
0.0
 40
0.999999999999998
100
AcDbArc
 50
270.0
 51
315.0
  0
ARC
  5
197
330
1F
100
AcDbEntity
  8
0
  6
HIDDEN
 62
     7
370
     0
100
AcDbCircle
 10
161.6173073574
 20
121.3479372406
 30
0.0
 40
1.000000000000008
100
AcDbArc
 50
45.0
 51
90.0
  0
LINE
  5
198
330
1F
100
AcDbEntity
  8
0
  6
HIDDEN
 62
     7
370
     0
100
AcDbLine
 10
162.3244141386
 20
102.6408304594
 30
0.0
 11
163.0315209197
 21
103.3479372406
 31
0.0
  0
LINE
  5
199
330
1F
100
AcDbEntity
  8
0
  6
HIDDEN
 62
     7
370
     0
100
AcDbLine
 10
163.0315209197
 20
121.3479372406
 30
0.0
 11
162.3244141386
 21
122.0550440218
 31
0.0
  0
LINE
  5
19A
330
1F
100
AcDbEntity
  8
0
  6
HIDDEN
 62
     7
370
     0
100
AcDbLine
 10
156.1315209197
 20
102.7852439365
 30
0.0
 11
158.2315209197
 21
103.3479372406
 31
0.0
  0
LINE
  5
19B
330
1F
100
AcDbEntity
  8
0
  6
HIDDEN
 62
     7
370
     0
100
AcDbLine
 10
158.2315209197
 20
121.3479372406
 30
0.0
 11
156.1315209197
 21
121.9106305447
 31
0.0
  0
LINE
  5
19C
330
1F
100
AcDbEntity
  8
0
  6
HIDDEN
 62
     7
370
     0
100
AcDbLine
 10
159.6315209197
 20
121.5788773483
 30
0.0
 11
159.2315209197
 21
121.3479372406
 31
0.0
  0
LINE
  5
19D
330
1F
100
AcDbEntity
  8
0
  6
HIDDEN
 62
     7
370
     0
100
AcDbLine
 10
159.2315209197
 20
103.3479372406
 30
0.0
 11
159.6315209197
 21
103.116997133
 31
0.0
  0
ARC
  5
19E
330
1F
100
AcDbEntity
  8
0
  6
HIDDEN
 62
     7
370
     0
100
AcDbCircle
 10
169.6044888877
 20
103.8479372406
 30
0.0
 40
0.5
100
AcDbArc
 50
270.0
 51
0.0
  0
ARC
  5
19F
330
1F
100
AcDbEntity
  8
0
  6
HIDDEN
 62
     7
370
     0
100
AcDbCircle
 10
169.6044888877
 20
120.8479372406
 30
0.0
 40
0.5000000000000284
100
AcDbArc
 50
0.0
 51
90.0
  0
LINE
  5
1A0
330
1F
100
AcDbEntity
  8
0
  6
HIDDEN
 62
     7
370
     0
100
AcDbLine
 10
163.0315209197
 20
103.3479372406
 30
0.0
 11
169.6044888877
 21
103.3479372406
 31
0.0
  0
LINE
  5
1A1
330
1F
100
AcDbEntity
  8
0
  6
HIDDEN
 62
     7
370
     0
100
AcDbLine
 10
169.6044888877
 20
121.3479372406
 30
0.0
 11
163.0315209197
 21
121.3479372406
 31
0.0
  0
LINE
  5
1A2
330
1F
100
AcDbEntity
  8
0
  6
HIDDEN
 62
     7
370
     0
100
AcDbLine
 10
158.2315209197
 20
103.3479372406
 30
0.0
 11
159.2315209197
 21
103.3479372406
 31
0.0
  0
LINE
  5
1A3
330
1F
100
AcDbEntity
  8
0
  6
HIDDEN
 62
     7
370
     0
100
AcDbLine
 10
159.2315209197
 20
121.3479372406
 30
0.0
 11
158.2315209197
 21
121.3479372406
 31
0.0
  0
LINE
  5
1A4
330
1F
100
AcDbEntity
  8
0
  6
HIDDEN
 62
     7
370
     0
100
AcDbLine
 10
170.1044888877
 20
105.1979372406
 30
0.0
 11
171.0044888877
 21
106.0979372406
 31
0.0
  0
LINE
  5
1A5
330
1F
100
AcDbEntity
  8
0
  6
HIDDEN
 62
     7
370
     0
100
AcDbLine
 10
171.0044888877
 20
118.5979372406
 30
0.0
 11
170.1044888877
 21
119.4979372406
 31
0.0
  0
LINE
  5
1A6
330
1F
100
AcDbEntity
  8
0
  6
HIDDEN
 62
     7
370
     0
100
AcDbLine
 10
171.0044888877
 20
106.0979372406
 30
0.0
 11
196.0891100188
 21
106.0979372406
 31
0.0
  0
LINE
  5
1A7
330
1F
100
AcDbEntity
  8
0
  6
HIDDEN
 62
     7
370
     0
100
AcDbLine
 10
196.0891100188
 20
118.5979372406
 30
0.0
 11
171.0044888877
 21
118.5979372406
 31
0.0
  0
LINE
  5
1A8
330
1F
100
AcDbEntity
  8
0
  6
HIDDEN
 62
     7
370
     0
100
AcDbLine
 10
196.0891100188
 20
106.0979372406
 30
0.0
 11
199.8444888877
 21
112.3479372406
 31
0.0
  0
LINE
  5
1A9
330
1F
100
AcDbEntity
  8
0
  6
HIDDEN
 62
     7
370
     0
100
AcDbLine
 10
199.8444888877
 20
112.3479372406
 30
0.0
 11
196.0891100188
 21
118.5979372406
 31
0.0
  0
LINE
  5
1AA
330
1F
100
AcDbEntity
  8
0
  6
HIDDEN
 62
     7
370
     0
100
AcDbLine
 10
216.3147066866
 20
113.3262498964
 30
0.0
 11
216.793384077
 21
114.1170977277
 31
0.0
  0
LINE
  5
1AB
330
1F
100
AcDbEntity
  8
0
  6
HIDDEN
 62
     7
370
     0
100
AcDbLine
 10
210.8049047722
 20
117.7417515893
 30
0.0
 11
210.3262273818
 21
116.9509037579
 31
0.0
  0
LINE
  5
1AC
330
1F
100
AcDbEntity
  8
0
  6
HIDDEN
 62
     7
370
     0
100
AcDbLine
 10
207.4149873401
 20
123.6065932949
 30
0.0
 11
206.4512349088
 21
122.0143277406
 31
0.0
  0
LINE
  5
1AD
330
1F
100
AcDbEntity
  8
0
  6
HIDDEN
 62
     7
370
     0
100
AcDbLine
 10
216.1979872566
 20
116.0809272845
 30
0.0
 11
219.3978220221
 21
123.0804728573
 31
0.0
  0
LINE
  5
1AE
330
1F
100
AcDbEntity
  8
0
  6
HIDDEN
 62
     7
370
     0
100
AcDbLine
 10
214.6477378738
 20
109.2203107347
 30
0.0
 11
216.8695896911
 21
112.8911477676
 31
0.0
  0
LINE
  5
1AF
330
1F
100
AcDbEntity
  8
0
  6
HIDDEN
 62
     7
370
     0
100
AcDbLine
 10
209.6834145254
 20
117.2407324015
 30
0.0
 11
207.4358347205
 21
113.5273888213
 31
0.0
  0
LINE
  5
1B0
330
1F
100
AcDbEntity
  8
0
  6
HIDDEN
 62
     7
370
     0
100
AcDbLine
 10
195.2044888877
 20
107.1934794727
 30
0.0
 11
195.2044888877
 21
110.0079123683
 31
0.0
  0
LINE
  5
1B1
330
1F
100
AcDbEntity
  8
0
  6
HIDDEN
 62
     7
370
     0
100
AcDbLine
 10
191.0044888877
 20
110.0066904575
 30
0.0
 11
191.0044888877
 21
107.1934794727
 31
0.0
  0
LINE
  5
1B2
330
1F
100
AcDbEntity
  8
0
  6
HIDDEN
 62
     7
370
     0
100
AcDbLine
 10
215.959828047
 20
130.1113056189
 30
0.0
 11
215.3744686527
 21
129.1442028961
 31
0.0
  0
LINE
  5
1B3
330
1F
100
AcDbEntity
  8
0
  6
HIDDEN
 62
     7
370
     0
100
AcDbLine
 10
220.8496497313
 20
125.8302336513
 30
0.0
 11
221.4350091256
 21
126.797336374
 31
0.0
  0
LINE
  5
1B4
330
1F
100
AcDbEntity
  8
0
  6
HIDDEN
 62
     7
370
     0
100
AcDbLine
 10
215.3012465696
 20
127.0459686501
 30
0.0
 11
212.8497332167
 21
121.6833544237
 31
0.0
  0
LINE
  5
1B5
330
1F
100
AcDbEntity
  8
0
  6
HIDDEN
 62
     7
370
     0
100
AcDbLine
 10
195.6044888877
 20
104.855819859
 30
0.0
 11
195.6044888877
 21
107.1034449328
 31
0.0
  0
LINE
  5
1B6
330
1F
100
AcDbEntity
  8
0
  6
HIDDEN
 62
     7
370
     0
100
AcDbLine
 10
190.6044888877
 20
107.1034449328
 30
0.0
 11
190.6044888877
 21
104.8558950803
 31
0.0
  0
LINE
  5
1B7
330
1F
100
AcDbEntity
  8
VERMASSUNG
  6
CENTERX2
100
AcDbLine
 10
151.9434532292
 20
112.3479372406
 30
0.0
 11
229.1044888877
 21
112.3479372406
 31
0.0
  0
LINE
  5
1B8
330
1F
100
AcDbEntity
  8
VERMASSUNG
  6
CENTERX2
100
AcDbLine
 10
229.1044888877
 20
139.3479372406
 30
0.0
 11
229.1044888877
 21
112.3479372406
 31
0.0
  0
LINE
  5
1B9
330
1F
100
AcDbEntity
  8
VERMASSUNG
  6
CENTERX2
100
AcDbLine
 10
229.1044888877
 20
139.3479372406
 30
0.0
 11
243.9623537333
 21
139.3479372406
 31
0.0
  0
DIMENSION
  5
1BA
330
1F
100
AcDbEntity
  8
VERMASSUNG
100
AcDbDimension
  2
_D
 10
155.1044888877
 20
153.1250600273
 30
0.0
 11
192.1044888877
 21
153.1250600273
 31
0.0
 70
   160
  1
<>
 71
     2
 42
-1.0
  3
SLDDIMSTYLE0
100
AcDbAlignedDimension
 13
229.1044888877
 23
139.3479372406
 33
0.0
 14
155.1044888877
 24
124.9794422227
 34
0.0
 50
0.0
100
AcDbRotatedDimension
  0
DIMENSION
  5
1C5
330
1F
100
AcDbEntity
  8
VERMASSUNG
100
AcDbDimension
  2
_D_1
 10
229.1044888877
 20
145.1681093334
 30
0.0
 11
204.1044888877
 21
145.1681093334
 31
0.0
 70
   160
  1
<>
 71
     2
 42
-1.0
  3
SLDDIMSTYLE1
100
AcDbAlignedDimension
 13
179.1044888877
 23
132.0479372406
 33
0.0
 14
229.1044888877
 24
139.3479372406
 34
0.0
 50
0.0
100
AcDbRotatedDimension
  0
DIMENSION
  5
1D2
330
1F
100
AcDbEntity
  8
VERMASSUNG
100
AcDbDimension
  2
_D_2
 10
246.0755902991
 20
112.3479372406
 30
0.0
 11
246.0755902991
 21
125.8479372406
 31
0.0
 70
   160
  1
<>
 71
     2
 42
-1.0
  3
SLDDIMSTYLE1
100
AcDbAlignedDimension
 13
229.1044888877
 23
139.3479372406
 33
0.0
 14
229.1044888877
 24
112.3479372406
 34
0.0
 50
90.0
100
AcDbRotatedDimension
  0
DIMENSION
  5
1DE
330
1F
100
AcDbEntity
  8
VERMASSUNG
100
AcDbDimension
  2
_D_3
 10
229.1044888877
 20
139.3479372406
 30
0.0
 11
235.7631536232
 21
130.4725665586
 31
0.0
 70
   162
  1
<>
 71
     1
 42
-1.0
  3
SLDDIMSTYLE2
100
AcDb2LineAngularDimension
 13
229.0877435131
 23
138.8322522018
 33
0.0
 14
224.8154612473
 24
125.2435206276
 34
0.0
 15
243.9623537333
 25
139.3479372406
 35
0.0
 16
235.7631536232
 26
130.4725665586
 36
0.0
  0
DIMENSION
  5
1E7
330
1F
100
AcDbEntity
  8
VERMASSUNG
100
AcDbDimension
  2
_D_4
 10
145.1044888877
 20
92.3479372406
 30
0.0
 11
145.1044888877
 21
112.3479372406
 31
0.0
 70
   160
  1
PSC%%c<>
 71
     2
 42
-1.0
  3
SLDDIMSTYLE0
100
AcDbAlignedDimension
 13
179.4044888877
 23
132.3479372406
 33
0.0
 14
179.4044888877
 24
92.3479372406
 34
0.0
 50
90.0
100
AcDbRotatedDimension
  0
CIRCLE
  5
1F3
330
1F
100
AcDbEntity
  8
0
  6
Continuous
 62
     7
100
AcDbCircle
 10
89.305117929
 20
114.1890468855
 30
0.0
 40
25.0
  0
POINT
  5
1F4
330
1F
100
AcDbEntity
  8
0
  6
Continuous
 62
     7
100
AcDbPoint
 10
89.160091263
 20
139.1886262273
 30
0.0
  0
LINE
  5
1F5
330
1F
100
AcDbEntity
  8
0
  6
Continuous
 62
     7
370
    15
100
AcDbLine
 10
98.1425533236
 20
137.4534918511
 30
0.0
 11
95.4563498661
 21
137.9271420235
 31
0.0
  0
LINE
  5
1F6
330
1F
100
AcDbEntity
  8
0
  6
Continuous
 62
     7
370
    15
100
AcDbLine
 10
98.3911829234
 20
137.1010868395
 30
0.0
 11
98.152411373
 21
137.4461306775
 31
0.0
  0
LINE
  5
1F7
330
1F
100
AcDbEntity
  8
0
  6
Continuous
 62
     7
370
    15
100
AcDbLine
 10
95.4721274019
 20
138.2529726768
 30
0.0
 11
89.2528556095
 21
139.3495975578
 31
0.0
  0
LINE
  5
1F8
330
1F
100
AcDbEntity
  8
0
  6
Continuous
 62
     7
370
    15
100
AcDbLine
 10
88.6915662257
 20
136.5958946342
 30
0.0
 11
88.2242087672
 21
136.0279107982
 31
0.0
  0
LINE
  5
1F9
330
1F
100
AcDbEntity
  8
0
  6
Continuous
 62
     7
370
    15
100
AcDbLine
 10
85.0580769755
 20
124.1789432758
 30
0.0
 11
85.3493187741
 21
123.3541584158
 31
0.0
  0
LINE
  5
1FA
330
1F
100
AcDbEntity
  8
0
  6
Continuous
 62
     7
370
    15
100
AcDbLine
 10
84.0669099406
 20
120.8506478513
 30
0.0
 11
84.376975631
 21
120.7959745595
 31
0.0
  0
LINE
  5
1FB
330
1F
100
AcDbEntity
  8
0
  6
Continuous
 62
     7
370
    15
100
AcDbLine
 10
92.6307604813
 20
124.4390579456
 30
0.0
 11
95.1951837331
 21
136.6574978972
 31
0.0
  0
LINE
  5
1FC
330
1F
100
AcDbEntity
  8
0
  6
Continuous
 62
     7
370
    15
100
AcDbLine
 10
95.4514697358
 20
123.9416907126
 30
0.0
 11
98.0158925221
 21
136.1601306641
 31
0.0
  0
LINE
  5
1FD
330
1F
100
AcDbEntity
  8
0
  6
Continuous
 62
     7
370
    15
100
AcDbLine
 10
98.2956208453
 20
136.2008872027
 30
0.0
 11
95.7311971277
 21
123.9824481824
 31
0.0
  0
ARC
  5
1FE
330
1F
100
AcDbEntity
  8
0
  6
Continuous
 62
     7
370
    15
100
AcDbCircle
 10
95.2781075347
 20
137.0811286901
 30
0.0
 40
2.888547039775145
100
AcDbArc
 50
341.4069260394
 51
7.4066211793
  0
ARC
  5
1FF
330
1F
100
AcDbEntity
  8
0
  6
Continuous
 62
     7
370
    15
100
AcDbCircle
 10
95.4264081424
 20
136.9606449817
 30
0.0
 40
2.968099293734094
100
AcDbArc
 50
345.1686625558
 51
2.7120829187
  0
ARC
  5
200
330
1F
100
AcDbEntity
  8
0
  6
Continuous
 62
     7
370
    15
100
AcDbCircle
 10
92.2620498264
 20
124.5023246938
 30
0.0
 40
3.238318980528172
100
AcDbArc
 50
338.5140267934
 51
350.0304367364
  0
ARC
  5
201
330
1F
100
AcDbEntity
  8
0
  6
Continuous
 62
     7
370
    15
100
AcDbCircle
 10
93.5811612047
 20
124.354963634
 30
0.0
 40
2.182068338044171
100
AcDbArc
 50
338.0181605154
 51
350.1705093349
  0
LINE
  5
202
330
1F
100
AcDbEntity
  8
0
  6
Continuous
 62
     7
370
    15
100
AcDbLine
 10
95.6045987249
 20
123.5381877566
 30
0.0
 11
95.4682898872
 21
123.2821895325
 31
0.0
  0
LWPOLYLINE
  5
203
330
1F
100
AcDbEntity
  8
0
  6
Continuous
 62
     7
370
    15
100
AcDbPolyline
 90
       38
 70
   128
 43
0.0
 10
84.395187644
 20
119.3464817995
 10
84.4629949123
 20
119.3744759591
 10
84.5131280065
 20
119.30336203
 10
84.5441452392
 20
119.1351861278
 10
84.555153472
 20
118.8747860076
 10
84.5458369866
 20
118.5296536939
 10
84.5164630726
 20
118.1097170854
 10
84.4678769052
 20
117.6270577641
 10
84.401475934
 20
117.0955603527
 10
84.3191712328
 20
116.5305153051
 10
84.2233302236
 20
115.9481783913
 10
84.1167096213
 20
115.3653015433
 10
84.0023767367
 20
114.7986536896
 10
83.8836214669
 20
114.2645360021
 10
83.7638599031
 20
113.7783142555
 10
83.6465365418
 20
113.3539758673
 10
83.5350274273
 20
113.0037285554
 10
83.4325405002
 20
112.7376481242
 10
83.3420238622
 20
112.5633893323
 10
83.2660814912
 20
112.4859652416
 10
83.2068978042
 20
112.5076032119
 10
83.1661761903
 20
112.6276807561
 10
83.1450873219
 20
112.842743453
 10
83.1442384214
 20
113.1466043232
 10
83.1636537031
 20
113.5305219147
 10
83.2027748391
 20
113.9834515568
 10
83.2604758606
 20
114.492363348
 10
83.3350976162
 20
115.0426166648
 10
83.4244924762
 20
115.6183819337
 10
83.5260895245
 20
116.2030953498
 10
83.6369653397
 20
116.7799355978
 10
83.7539306075
 20
117.3323081391
 10
83.8736204595
 20
117.8443227479
 10
83.9925917961
 20
118.3012486951
 10
84.1074215413
 20
118.6899417596
 10
84.2148062937
 20
118.9992200168
 10
84.3116573222
 20
119.2201856108
 10
84.395187644
 20
119.3464817995
  0
LWPOLYLINE
  5
204
330
1F
100
AcDbEntity
  8
0
  6
Continuous
 62
     7
370
    15
100
AcDbPolyline
 90
       28
 70
   128
 43
0.0
 10
84.1609511689
 20
117.8820287393
 10
84.2115364202
 20
117.8895510318
 10
84.2425573782
 20
117.7914022053
 10
84.2523423188
 20
117.5928740347
 10
84.2403631822
 20
117.3046683477
 10
84.2072658405
 20
116.9423233302
 10
84.1548347079
 20
116.5253725419
 10
84.0858963483
 20
116.0762941515
 10
84.0041672044
 20
115.6192978894
 10
83.9140528977
 20
115.1790207302
 10
83.8204126038
 20
114.7791978953
 10
83.7282936253
 20
114.4413841473
 10
83.6426617742
 20
114.1837910334
 10
83.5681345478
 20
114.0203055045
 10
83.5087292061
 20
113.9597410154
 10
83.4676481016
 20
114.005362783
 10
83.4471063853
 20
114.1547111845
 10
83.4482109338
 20
114.3997349361
 10
83.4709026084
 20
114.7272245077
 10
83.5139581167
 20
115.1195250502
 10
83.5750561372
 20
115.5554876247
 10
83.650902582
 20
116.0116089093
 10
83.737408945
 20
116.4632998923
 10
83.8299116284
 20
116.8862097481
 10
83.9234238655
 20
117.2575387688
 10
84.0129044071
 20
117.5572686413
 10
84.0935290024
 20
117.7692413846
 10
84.1609511689
 20
117.8820287393
  0
LINE
  5
205
330
1F
100
AcDbEntity
  8
0
  6
Continuous
 62
     7
370
    15
100
AcDbLine
 10
84.0495598667
 20
115.8856142363
 30
0.0
 11
83.8894934558
 21
115.657252544
 31
0.0
  0
LINE
  5
206
330
1F
100
AcDbEntity
  8
0
  6
Continuous
 62
     7
370
    15
100
AcDbLine
 10
83.8894934558
 20
115.657252544
 30
0.0
 11
83.9695080348
 21
115.4531064028
 31
0.0
  0
LINE
  5
207
330
1F
100
AcDbEntity
  8
0
  6
Continuous
 62
     7
370
    15
100
AcDbLine
 10
84.235154295
 20
117.2345425518
 30
0.0
 11
84.2345172704
 21
117.2346547762
 31
0.0
  0
LINE
  5
208
330
1F
100
AcDbEntity
  8
0
  6
Continuous
 62
     7
370
    15
100
AcDbLine
 10
84.0074445285
 20
115.6364547139
 30
0.0
 11
83.8894934558
 21
115.657252544
 31
0.0
  0
ELLIPSE
  5
209
330
1F
100
AcDbEntity
  8
0
  6
Continuous
 62
     7
370
    15
100
AcDbEllipse
 10
86.8481843101
 20
129.4317191151
 30
0.0
 11
0.4087880550088557
 21
2.316979695793151
 31
0.0
210
0.0
220
0.0
230
1.0
 40
0.104426044
 41
0.3657005290225131
 42
1.39828222303751
  0
LINE
  5
20A
330
1F
100
AcDbEntity
  8
0
  6
Continuous
 62
     7
370
    15
100
AcDbLine
 10
84.0828220524
 20
120.8672859291
 30
0.0
 11
86.2778273575
 21
124.9896577144
 31
0.0
  0
LWPOLYLINE
  5
20B
330
1F
100
AcDbEntity
  8
0
  6
Continuous
 62
     7
370
    15
100
AcDbPolyline
 90
        9
 70
   128
 43
0.0
 10
84.1175738886
 20
121.3679928848
 10
84.0971173883
 20
121.262655645
 10
84.0795619578
 20
121.1559819573
 10
84.0662053951
 20
121.0558554673
 10
84.0580344364
 20
120.9696773956
 10
84.0556530446
 20
120.903817057
 10
84.0592372396
 20
120.8631406123
 10
84.0685225256
 20
120.8506562332
 10
84.0828220524
 20
120.8672859291
  0
LINE
  5
20C
330
1F
100
AcDbEntity
  8
0
  6
Continuous
 62
     7
370
    15
100
AcDbLine
 10
86.9695960708
 20
134.956724062
 30
0.0
 11
84.1175738886
 21
121.3679928848
 31
0.0
  0
ARC
  5
20D
330
1F
100
AcDbEntity
  8
0
  6
Continuous
 62
     7
370
    15
100
AcDbCircle
 10
88.1981804911
 20
134.7438615185
 30
0.0
 40
1.246888182709485
100
AcDbArc
 50
158.0181554717
 51
170.1706054648
  0
LINE
  5
20E
330
1F
100
AcDbEntity
  8
0
  6
Continuous
 62
     7
370
    15
100
AcDbLine
 10
89.2369431884
 20
139.3329585487
 30
0.0
 11
87.0419379488
 21
135.2105876947
 31
0.0
  0
LWPOLYLINE
  5
20F
330
1F
100
AcDbEntity
  8
0
  6
Continuous
 62
     7
370
    15
100
AcDbPolyline
 90
        9
 70
   128
 43
0.0
 10
89.2021913813
 20
138.8322515929
 10
89.222647838
 20
138.937589764
 10
89.2402032249
 20
139.0442634517
 10
89.2535600313
 20
139.1443899417
 10
89.2617310554
 20
139.2305670822
 10
89.2641123854
 20
139.296428352
 10
89.2605280122
 20
139.3371047968
 10
89.2512428608
 20
139.3495882446
 10
89.2369431884
 20
139.3329585487
  0
LINE
  5
210
330
1F
100
AcDbEntity
  8
0
  6
Continuous
 62
     7
370
    15
100
AcDbLine
 10
86.3501692355
 20
125.2435204158
 30
0.0
 11
89.2021913813
 21
138.8322515929
 31
0.0
  0
ARC
  5
211
330
1F
100
AcDbEntity
  8
0
  6
Continuous
 62
     7
370
    15
100
AcDbCircle
 10
85.1215614245
 20
125.456391337
 30
0.0
 40
1.246912660306068
100
AcDbArc
 50
338.0182404954
 51
350.1704096423
  0
LWPOLYLINE
  5
212
330
1F
100
AcDbEntity
  8
0
  6
Continuous
 62
     7
370
    15
100
AcDbPolyline
 90
        9
 70
   128
 43
0.0
 10
89.2012516332
 20
138.8384225363
 10
89.2206852649
 20
138.9384931469
 10
89.2373628802
 20
139.0398340816
 10
89.2500518447
 20
139.1349537814
 10
89.2578143201
 20
139.2168226236
 10
89.2600765827
 20
139.2793907368
 10
89.2566714309
 20
139.3180331731
 10
89.2478505328
 20
139.3298926348
 10
89.234265847
 20
139.3140955413
  0
LINE
  5
213
330
1F
100
AcDbEntity
  8
0
  6
Continuous
 62
     7
370
    15
100
AcDbLine
 10
89.234265847
 20
139.3140955413
 30
0.0
 11
87.0392606292
 21
135.1917228246
 31
0.0
  0
ARC
  5
214
330
1F
100
AcDbEntity
  8
0
  6
Continuous
 62
     7
370
    15
100
AcDbCircle
 10
88.1376834913
 20
134.7483341468
 30
0.0
 40
1.184536324287562
100
AcDbArc
 50
158.0180720772
 51
170.170564859
  0
LINE
  5
215
330
1F
100
AcDbEntity
  8
0
  6
Continuous
 62
     7
370
    15
100
AcDbLine
 10
86.9705357753
 20
134.9505531186
 30
0.0
 11
84.1185135931
 21
121.3618219415
 31
0.0
  0
LWPOLYLINE
  5
216
330
1F
100
AcDbEntity
  8
0
  6
Continuous
 62
     7
370
    15
100
AcDbPolyline
 90
        9
 70
   128
 43
0.0
 10
84.1185135931
 20
121.3618219415
 10
84.0990801506
 20
121.2617513308
 10
84.0824024916
 20
121.1604113275
 10
84.0697136872
 20
121.0652916277
 10
84.0619511135
 20
120.9834218541
 10
84.059688931
 20
120.9208546722
 10
84.0630938463
 20
120.882212236
 10
84.0719148681
 20
120.870351843
 10
84.0854996048
 20
120.8861498678
  0
LINE
  5
217
330
1F
100
AcDbEntity
  8
0
  6
Continuous
 62
     7
370
    15
100
AcDbLine
 10
84.0854996048
 20
120.8861498678
 30
0.0
 11
86.2805046771
 21
125.0085216531
 31
0.0
  0
ARC
  5
218
330
1F
100
AcDbEntity
  8
0
  6
Continuous
 62
     7
370
    15
100
AcDbCircle
 10
85.182057846
 20
125.4519171612
 30
0.0
 40
1.184561107527293
100
AcDbArc
 50
338.0181996824
 51
350.1704372538
  0
LINE
  5
219
330
1F
100
AcDbEntity
  8
0
  6
Continuous
 62
     7
370
    15
100
AcDbLine
 10
86.349229531
 20
125.2496913591
 30
0.0
 11
89.2012516332
 21
138.8384225363
 31
0.0
  0
ARC
  5
21A
330
1F
100
AcDbEntity
  8
0
  6
Continuous
 62
     7
370
    15
100
AcDbCircle
 10
94.3263244978
 20
138.1040289564
 30
0.0
 40
1.155443000226076
100
AcDbArc
 50
341.4071707272
 51
7.4063880749
  0
LINE
  5
21B
330
1F
100
AcDbEntity
  8
0
  6
Continuous
 62
     7
370
    15
100
AcDbLine
 10
92.5694410388
 20
124.1468955347
 30
0.0
 11
95.4214629882
 21
137.7356267119
 31
0.0
  0
LINE
  5
21C
330
1F
100
AcDbEntity
  8
0
  6
Continuous
 62
     7
370
    15
100
AcDbLine
 10
87.3902678421
 20
134.4673364008
 30
0.0
 11
87.2032674659
 21
134.7954134041
 31
0.0
  0
LWPOLYLINE
  5
21D
330
1F
100
AcDbEntity
  8
0
  6
Continuous
 62
     7
370
    15
100
AcDbPolyline
 90
        9
 70
   128
 43
0.0
 10
88.1191896905
 20
134.747699886
 10
88.1703308249
 20
135.0110425198
 10
88.2142192848
 20
135.2777267391
 10
88.2476112737
 20
135.5280420327
 10
88.268038903
 20
135.7434886092
 10
88.2739922662
 20
135.9081408525
 10
88.2650313132
 20
136.0098301018
 10
88.2418184473
 20
136.0410424465
 10
88.2060691646
 20
135.9994682068
  0
LWPOLYLINE
  5
21E
330
1F
100
AcDbEntity
  8
0
  6
Continuous
 62
     7
370
    15
100
AcDbPolyline
 90
        3
 70
   128
 43
0.0
 10
88.6606346165
 20
136.5477471197
 10
88.7112921617
 20
136.6182109857
 10
88.7316211291
 20
136.6535714412
  0
LINE
  5
21F
330
1F
100
AcDbEntity
  8
0
  6
Continuous
 62
     7
370
    15
100
AcDbLine
 10
86.5230159533
 20
127.1425774837
 30
0.0
 11
88.1191896905
 21
134.747699886
 31
0.0
  0
LINE
  5
220
330
1F
100
AcDbEntity
  8
0
  6
Continuous
 62
     7
370
    15
100
AcDbLine
 10
85.1136960254
 20
124.2007772023
 30
0.0
 11
86.3421612584
 21
126.5079193333
 31
0.0
  0
LWPOLYLINE
  5
221
330
1F
100
AcDbEntity
  8
0
  6
Continuous
 62
     7
370
    15
100
AcDbPolyline
 90
        9
 70
   128
 43
0.0
 10
85.2005758487
 20
125.4525455231
 10
85.1494345978
 20
125.1892028892
 10
85.1055460215
 20
124.9225177387
 10
85.0721539163
 20
124.672202445
 10
85.0517262869
 20
124.4567567998
 10
85.045773273
 20
124.2921045566
 10
85.0547339932
 20
124.190414376
 10
85.0779472083
 20
124.1592029625
 10
85.1136960254
 20
124.2007772023
  0
LINE
  5
222
330
1F
100
AcDbEntity
  8
0
  6
Continuous
 62
     7
370
    15
100
AcDbLine
 10
86.7967493531
 20
133.0576679254
 30
0.0
 11
85.2005758487
 21
125.4525455231
 31
0.0
  0
ARC
  5
223
330
1F
100
AcDbEntity
  8
0
  6
Continuous
 62
     7
370
    15
100
AcDbCircle
 10
89.8683099402
 20
132.5254797779
 30
0.0
 40
3.117323958925662
100
AcDbArc
 50
158.0183302113
 51
170.1703420861
  0
LINE
  5
224
330
1F
100
AcDbEntity
  8
0
  6
Continuous
 62
     7
370
    15
100
AcDbLine
 10
88.2060691646
 20
135.9994682068
 30
0.0
 11
86.977604048
 21
133.6923251444
 31
0.0
  0
ARC
  5
225
330
1F
100
AcDbEntity
  8
0
  6
Continuous
 62
     7
370
    15
100
AcDbCircle
 10
83.4514443708
 20
127.6747670522
 30
0.0
 40
3.117335035390618
100
AcDbArc
 50
338.018365764
 51
350.170350853
  0
LWPOLYLINE
  5
226
330
1F
100
AcDbEntity
  8
0
  6
Continuous
 62
     7
370
    15
100
AcDbPolyline
 90
       32
 70
   128
 43
0.0
 10
86.7811108172
 20
129.3040505195
 10
86.8805893396
 20
129.8061451459
 10
86.9710324031
 20
130.3202761853
 10
87.0487366036
 20
130.8253920222
 10
87.1105214745
 20
131.3008172953
 10
87.1538568452
 20
131.7270855004
 10
87.1769690119
 20
132.0867455149
 10
87.178911518
 20
132.365073129
 10
87.1596049682
 20
132.5506726796
 10
87.1198398225
 20
132.6359464372
 10
87.0612438001
 20
132.6174038047
 10
86.9862159878
 20
132.4958028788
 10
86.8978281204
 20
132.2761243725
 10
86.7996988517
 20
131.9673574114
 10
86.6958454416
 20
131.5821474934
 10
86.5905196105
 20
131.1362619096
 10
86.4880336147
 20
130.6479583079
 10
86.3925830625
 20
130.1372247333
 10
86.3080757834
 20
129.6249731028
 10
86.2379716408
 20
129.1321730757
 10
86.1851405051
 20
128.6790026868
 10
86.1517453731
 20
128.2840120191
 10
86.1391534262
 20
127.9633734891
 10
86.1478801515
 20
127.7302131573
 10
86.1775683869
 20
127.5940780112
 10
86.2270027563
 20
127.560540154
 10
86.2941590302
 20
127.6309732864
 10
86.3762881771
 20
127.8024931023
 10
86.4700276569
 20
128.0680792922
 10
86.5715399549
 20
128.4168558711
 10
86.6766690441
 20
128.8345465952
 10
86.7811108172
 20
129.3040505195
  0
ARC
  5
227
330
1F
100
AcDbEntity
  8
0
  6
Continuous
 62
     7
370
    15
100
AcDbCircle
 10
91.3408332458
 20
124.3597647386
 30
0.0
 40
1.246912349328097
100
AcDbArc
 50
338.0182736795
 51
350.170487257
  0
LINE
  5
228
330
1F
100
AcDbEntity
  8
0
  6
Continuous
 62
     7
370
    15
100
AcDbLine
 10
92.4547796302
 20
123.8135528335
 30
0.0
 11
92.4970991608
 21
123.893031902
 31
0.0
  0
SPLINE
  5
229
330
1F
100
AcDbEntity
  8
0
  6
Continuous
 62
     7
370
    15
100
AcDbSpline
210
0.0
220
0.0
230
1.0
 70
     8
 71
     3
 72
    32
 73
    28
 74
     0
 42
0.00000001
 43
0.00000001
 12
1.0
 22
0.0
 32
0.0
 13
1.0
 23
0.0
 33
0.0
 40
0.0
 40
0.0
 40
0.0
 40
0.0
 40
0.0316627379492198
 40
0.0632455405634988
 40
0.0947604605565888
 40
0.1262196286644074
 40
0.1576352402065673
 40
0.1890195412783875
 40
0.2203848146493014
 40
0.2517433654475201
 40
0.2831075067136786
 40
0.3144895449079939
 40
0.3459017654560886
 40
0.3773564184181168
 40
0.4088657043641347
 40
0.4404417605358763
 40
0.4720966473712586
 40
0.5038423354631475
 40
0.5600924721769666
 40
0.6158974447867516
 40
0.6713261329238125
 40
0.726448826818194
 40
0.7813369922886566
 40
0.8360630139622023
 40
0.8906999209086538
 40
0.9453210996408821
 40
1.0
 40
1.0
 40
1.0
 40
1.0
 10
109.8051179205817
 20
125.9972661811027
 30
0.0
 10
109.7244121398485
 20
126.1406127326702
 30
0.0
 10
109.5632043271428
 20
126.4269439449723
 30
0.0
 10
109.3105158863566
 20
126.8500116033006
 30
0.0
 10
109.0502869199114
 20
127.2675947408514
 30
0.0
 10
108.7817165156588
 20
127.6792814954805
 30
0.0
 10
108.5050187114862
 20
128.0851816227799
 30
0.0
 10
108.2201364058033
 20
128.4852655248706
 30
0.0
 10
107.9270850004086
 20
128.8795408642767
 30
0.0
 10
107.6258605255594
 20
129.2680053473718
 30
0.0
 10
107.3164642152364
 20
129.6506593577478
 30
0.0
 10
106.9988959319061
 20
130.0275025745564
 30
0.0
 10
106.6731559108205
 20
130.3985348871522
 30
0.0
 10
106.3392443475018
 20
130.7637561241631
 30
0.0
 10
105.9971612945243
 20
131.1231662294337
 30
0.0
 10
105.6469074802801
 20
131.4767648339359
 30
0.0
 10
105.2884811173211
 20
131.8245528014648
 30
0.0
 10
104.8279730482438
 20
132.2541365260074
 30
0.0
 10
104.2599247724978
 20
132.7560455504072
 30
0.0
 10
103.5769669607763
 20
133.3179645975743
 30
0.0
 10
102.8779089147562
 20
133.8525863720465
 30
0.0
 10
102.1627623600139
 20
134.3599157399319
 30
0.0
 10
101.4315037749549
 20
134.8399004691628
 30
0.0
 10
100.684228836315
 20
135.2927209036972
 30
0.0
 10
99.92059663105243
 20
135.7176887612569
 30
0.0
 10
99.14189465737508
 20
136.11735603978
 30
0.0
 10
98.61003826374724
 20
136.3603337763508
 30
0.0
 10
98.34396962963187
 20
136.4818868031911
 30
0.0
  0
SPLINE
  5
22A
330
1F
100
AcDbEntity
  8
0
  6
Continuous
 62
     7
370
    15
100
AcDbSpline
210
0.0
220
0.0
230
1.0
 70
     8
 71
     3
 72
    36
 73
    32
 74
     0
 42
0.00000001
 43
0.00000001
 12
1.0
 22
0.0
 32
0.0
 13
1.0
 23
0.0
 33
0.0
 40
0.0
 40
0.0
 40
0.0
 40
0.0
 40
0.0298254787893016
 40
0.0599773231576753
 40
0.0904563787028802
 40
0.1212634640687445
 40
0.1523993720149094
 40
0.1838648704375048
 40
0.2156607033431096
 40
0.2477875917783823
 40
0.2802462347175987
 40
0.3130373099101383
 40
0.3461614746899551
 40
0.3796193667489229
 40
0.4134116048758164
 40
0.44753878966264
 40
0.4820015041799273
 40
0.5168003146225267
 40
0.5519357709272898
 40
0.5874084073640751
 40
0.6232187431013434
 40
0.6593672827475717
 40
0.6958545168696632
 40
0.7326809224894382
 40
0.769846963559281
 40
0.8073530914179116
 40
0.8451997452272348
 40
0.8833873523911536
 40
0.9219163289572142
 40
0.9607870800018474
 40
1.0
 40
1.0
 40
1.0
 40
1.0
 10
98.39872468127307
 20
137.0197343438536
 30
0.0
 10
98.54135372268277
 20
136.9558643595325
 30
0.0
 10
98.82817252511445
 20
136.8274254929926
 30
0.0
 10
99.25550626857458
 20
136.6236803003888
 30
0.0
 10
99.68336838813823
 20
136.4103232957146
 30
0.0
 10
100.1111140965402
 20
136.1864602997493
 30
0.0
 10
100.5385586636831
 20
135.9521341430786
 30
0.0
 10
100.9653807939842
 20
135.7071397836299
 30
0.0
 10
101.3912850828943
 20
135.4513474368744
 30
0.0
 10
101.8159578061879
 20
135.1846151102168
 30
0.0
 10
102.239078991686
 20
134.9068129309123
 30
0.0
 10
102.6603191888932
 20
134.6178170520718
 30
0.0
 10
103.0793404229274
 20
134.3175118479387
 30
0.0
 10
103.4957960299387
 20
134.0057898619696
 30
0.0
 10
103.9093308178684
 20
133.682552374523
 30
0.0
 10
104.3195811604821
 20
133.3477098095393
 30
0.0
 10
104.7261751320424
 20
133.0011821919334
 30
0.0
 10
105.1287326545007
 20
132.6428995976114
 30
0.0
 10
105.5268656644519
 20
132.2728026105673
 30
0.0
 10
105.9201783030967
 20
131.8908427847868
 30
0.0
 10
106.3082671122152
 20
131.4969831016276
 30
0.0
 10
106.6907213053588
 20
131.0911984589829
 30
0.0
 10
107.0671228545011
 20
130.6734760503969
 30
0.0
 10
107.4370473781091
 20
130.2438161677441
 30
0.0
 10
107.8000621020294
 20
129.8022314043609
 30
0.0
 10
108.1557350044528
 20
129.3487519100501
 30
0.0
 10
108.5036017573926
 20
128.8834077447067
 30
0.0
 10
108.8432924376152
 20
128.406297859393
 30
0.0
 10
109.1740540053516
 20
127.917331385225
 30
0.0
 10
109.4965582455405
 20
127.4172083114999
 30
0.0
 10
109.7019962067042
 20
127.0763727674019
 30
0.0
 10
109.8051653101558
 20
126.9052082109107
 30
0.0
  0
LINE
  5
22B
330
1F
100
AcDbEntity
  8
0
  6
Continuous
 62
     7
370
    15
100
AcDbLine
 10
109.8051184953
 20
126.9070692876
 30
0.0
 11
109.8051184953
 21
125.9945491845
 31
0.0
  0
ARC
  5
22C
330
1F
100
AcDbEntity
  8
0
  6
Continuous
 62
     7
370
    15
100
AcDbCircle
 10
89.305117929
 20
112.3479372406
 30
0.0
 40
20.50000000000004
100
AcDbArc
 50
243.2318225284
 51
0.0
  0
LINE
  5
22D
330
1F
100
AcDbEntity
  8
0
  6
Continuous
 62
     7
370
    15
100
AcDbLine
 10
86.5391259712
 20
124.856642499
 30
0.0
 11
80.0722923294
 21
94.0447962427
 31
0.0
  0
LINE
  5
22E
330
1F
100
AcDbEntity
  8
0
  6
Continuous
 62
     7
370
    15
100
AcDbLine
 10
86.5391259712
 20
124.856642499
 30
0.0
 11
95.5693127752
 21
123.264377057
 31
0.0
  0
LINE
  5
22F
330
1F
100
AcDbEntity
  8
0
  6
Continuous
 62
     7
370
    15
100
AcDbLine
 10
95.5693127752
 20
123.264377057
 30
0.0
 11
95.6557134331
 21
123.6760411927
 31
0.0
  0
LINE
  5
230
330
1F
100
AcDbEntity
  8
0
  6
Continuous
 62
     7
370
    15
100
AcDbLine
 10
109.8051184953
 20
125.9972658524
 30
0.0
 11
109.8051184953
 21
112.3479372406
 31
0.0
  0
LWPOLYLINE
  5
231
330
1F
100
AcDbEntity
  8
0
  6
Continuous
 62
     7
370
    15
100
AcDbPolyline
 90
       38
 70
   128
 43
0.0
 10
84.4564044081
 20
119.3762519913
 10
84.5085514874
 20
119.3159358161
 10
84.5417144873
 20
119.1581963146
 10
84.5549388022
 20
118.9075704249
 10
84.5478435211
 20
118.5712693775
 10
84.5206340008
 20
118.1589668201
 10
84.4740920864
 20
117.6825245427
 10
84.4095565543
 20
117.1556483539
 10
84.3288849272
 20
116.5934964599
 10
84.2343971298
 20
116.012240346
 10
84.1288116925
 20
115.428601676
 10
84.015166124
 20
114.8593707992
 10
83.8967293665
 20
114.320923393
 10
83.776909595
 20
113.8287496803
 10
83.6591531687
 20
113.3970085582
 10
83.5468477734
 20
113.0381204355
 10
83.4432241671
 20
112.7624098378
 10
83.3512635135
 20
112.577808534
 10
83.2736112342
 20
112.4896271146
 10
83.2125015721
 20
112.5004024004
 10
83.1696923987
 20
112.609824421
 10
83.1464149222
 20
112.8147453062
 10
83.1433392294
 20
113.1092698131
 10
83.1605537959
 20
113.48492506
 10
83.1975626924
 20
113.9309041252
 10
83.2533023484
 20
114.4343768762
 10
83.326168561
 20
114.9808595007
 10
83.414064923
 20
115.554630808
 10
83.5144633592
 20
116.1391840367
 10
83.624474907
 20
116.7177027607
 10
83.7409353979
 20
117.2735444786
 10
83.8604943991
 20
117.7907181488
 10
83.9797120706
 20
118.2543458933
 10
84.0951588169
 20
118.6510897757
 10
84.2035140075
 20
118.969536438
 10
84.3016595744
 20
119.20052446
 10
84.3867726788
 20
119.337408855
 10
84.4564044081
 20
119.3762519913
  0
ARC
  5
232
330
1F
100
AcDbEntity
  8
0
  6
Continuous
 62
     7
370
    15
100
AcDbCircle
 10
97.8441411454
 20
120.1553498009
 30
0.0
 40
13.75998479154768
100
AcDbArc
 50
162.0814174206
 51
174.2120443264
  0
LWPOLYLINE
  5
233
330
1F
100
AcDbEntity
  8
0
  6
Continuous
 62
     7
370
    15
100
AcDbPolyline
 90
        6
 70
   128
 43
0.0
 10
84.0982200742
 20
120.845126971
 10
84.0976216995
 20
120.8183160568
 10
84.1033507303
 20
120.5990398819
 10
84.1300210149
 20
120.47604756
 10
84.1762956396
 20
120.4555072406
 10
84.2398532831
 20
120.5384498978
  0
ARC
  5
234
330
1F
100
AcDbEntity
  8
0
  6
Continuous
 62
     7
370
    15
100
AcDbCircle
 10
89.305117929
 20
112.3479372406
 30
0.0
 40
20.50000000000004
100
AcDbArc
 50
239.3954159287
 51
243.2318225284
  0
SPLINE
  5
235
330
1F
100
AcDbEntity
  8
0
  6
Continuous
 62
     7
370
    15
100
AcDbSpline
210
0.0
220
0.0
230
1.0
 70
     8
 71
     3
 72
     8
 73
     4
 74
     0
 42
0.00000001
 43
0.00000001
 12
1.0
 22
0.0
 32
0.0
 13
1.0
 23
0.0
 33
0.0
 40
0.0
 40
0.0
 40
0.0
 40
0.0
 40
1.0
 40
1.0
 40
1.0
 40
1.0
 10
78.86835719669044
 20
94.70356064591982
 30
0.0
 10
78.89495820154029
 20
94.92608472892047
 30
0.0
 10
78.90688208953212
 20
95.11240928618118
 30
0.0
 10
78.8986339038472
 20
95.2093088544864
 30
0.0
  0
SPLINE
  5
236
330
1F
100
AcDbEntity
  8
0
  6
Continuous
 62
     7
370
    15
100
AcDbSpline
210
0.0
220
0.0
230
1.0
 70
     8
 71
     3
 72
    12
 73
     8
 74
     0
 42
0.00000001
 43
0.00000001
 12
1.0
 22
0.0
 32
0.0
 13
1.0
 23
0.0
 33
0.0
 40
0.0
 40
0.0
 40
0.0
 40
0.0
 40
0.5000000000000068
 40
0.5000000000000068
 40
0.7500000000000033
 40
0.7500000000000033
 40
1.0
 40
1.0
 40
1.0
 40
1.0
 10
85.3879778192736
 20
132.0122070232909
 30
0.0
 10
85.41588275558624
 20
132.0724183989984
 30
0.0
 10
85.44918797764068
 20
132.1745838705676
 30
0.0
 10
85.50104626257482
 20
132.3672863092496
 30
0.0
 10
85.51892554707152
 20
132.439163355227
 30
0.0
 10
85.55395647329141
 20
132.5902529126326
 30
0.0
 10
85.57122044786682
 20
132.6697643747026
 30
0.0
 10
85.58822545497625
 20
132.7533604839789
 30
0.0
  0
SPLINE
  5
237
330
1F
100
AcDbEntity
  8
0
  6
Continuous
 62
     7
370
    15
100
AcDbSpline
210
0.0
220
0.0
230
1.0
 70
     8
 71
     3
 72
     8
 73
     4
 74
     0
 42
0.00000001
 43
0.00000001
 12
1.0
 22
0.0
 32
0.0
 13
1.0
 23
0.0
 33
0.0
 40
0.0
 40
0.0
 40
0.0
 40
0.0
 40
1.0
 40
1.0
 40
1.0
 40
1.0
 10
85.58822545497625
 20
132.7533604839789
 30
0.0
 10
85.65803275413528
 20
133.0965310908025
 30
0.0
 10
85.7278580628584
 20
133.4396191632928
 30
0.0
 10
85.7976990543868
 20
133.7826353645337
 30
0.0
  0
LINE
  5
238
330
1F
100
AcDbEntity
  8
0
  6
Continuous
 62
     7
370
    15
100
AcDbLine
 10
85.7976991382
 20
133.7826354945
 30
0.0
 11
86.4043484606
 21
133.6756675089
 31
0.0
  0
ARC
  5
239
330
1F
100
AcDbEntity
  8
0
  6
Continuous
 62
     7
370
    15
100
AcDbCircle
 10
86.3781394483
 20
134.1189981691
 30
0.0
 40
0.4441047022974868
100
AcDbArc
 50
273.3832986309
 51
324.4854959997
  0
LINE
  5
23A
330
1F
100
AcDbEntity
  8
0
  6
Continuous
 62
     7
370
    15
100
AcDbLine
 10
84.2398532831
 20
120.5384498978
 30
0.0
 11
86.5391259712
 21
124.856642499
 31
0.0
  0
SPLINE
  5
23B
330
1F
100
AcDbEntity
  8
0
  6
Continuous
 62
     7
370
    15
100
AcDbSpline
210
0.0
220
0.0
230
1.0
 70
     8
 71
     3
 72
     8
 73
     4
 74
     0
 42
0.00000001
 43
0.00000001
 12
1.0
 22
0.0
 32
0.0
 13
1.0
 23
0.0
 33
0.0
 40
0.0
 40
0.0
 40
0.0
 40
0.0
 40
1.0
 40
1.0
 40
1.0
 40
1.0
 10
85.27163914792403
 20
131.9369915547731
 30
0.0
 10
85.33137919249126
 20
131.9492923120368
 30
0.0
 10
85.3694460442285
 20
131.9722204181513
 30
0.0
 10
85.38797781927371
 20
132.0122070232908
 30
0.0
  0
SPLINE
  5
23C
330
1F
100
AcDbEntity
  8
0
  6
Continuous
 62
     7
370
    15
100
AcDbSpline
210
0.0
220
0.0
230
1.0
 70
     8
 71
     3
 72
     8
 73
     4
 74
     0
 42
0.00000001
 43
0.00000001
 12
1.0
 22
0.0
 32
0.0
 13
1.0
 23
0.0
 33
0.0
 40
0.0
 40
0.0
 40
0.0
 40
0.0
 40
1.0
 40
1.0
 40
1.0
 40
1.0
 10
78.89863390384718
 20
95.2093088544864
 30
0.0
 10
78.89489630822997
 20
95.253218074725
 30
0.0
 10
78.8669768283075
 20
95.28778096949134
 30
0.0
 10
78.81503651819094
 20
95.31977844427077
 30
0.0
  0
SPLINE
  5
23D
330
1F
100
AcDbEntity
  8
0
  6
Continuous
 62
     7
370
    15
100
AcDbSpline
210
0.0
220
0.0
230
1.0
 70
     8
 71
     3
 72
     8
 73
     4
 74
     0
 42
0.00000001
 43
0.00000001
 12
1.0
 22
0.0
 32
0.0
 13
1.0
 23
0.0
 33
0.0
 40
0.0
 40
0.0
 40
0.0
 40
0.0
 40
1.0
 40
1.0
 40
1.0
 40
1.0
 10
78.81503651819074
 20
95.31977844427072
 30
0.0
 10
78.71541017016692
 20
95.38115257837013
 30
0.0
 10
78.55125588452016
 20
95.48373856502093
 30
0.0
 10
78.37022516340222
 20
95.60194905825365
 30
0.0
  0
SPLINE
  5
23E
330
1F
100
AcDbEntity
  8
0
  6
Continuous
 62
     7
370
    15
100
AcDbSpline
210
0.0
220
0.0
230
1.0
 70
     8
 71
     3
 72
    10
 73
     6
 74
     0
 42
0.00000001
 43
0.00000001
 12
1.0
 22
0.0
 32
0.0
 13
1.0
 23
0.0
 33
0.0
 40
0.0
 40
0.0
 40
0.0
 40
0.0
 40
0.5
 40
0.5
 40
1.0
 40
1.0
 40
1.0
 40
1.0
 10
84.75714516635074
 20
131.8239723543284
 30
0.0
 10
84.86252137593566
 20
131.8485794228734
 30
0.0
 10
84.96159106221678
 20
131.8707953998049
 30
0.0
 10
85.1387289790346
 20
131.9093640664867
 30
0.0
 10
85.21426675833759
 20
131.9251783088498
 30
0.0
 10
85.27163914792405
 20
131.9369915547732
 30
0.0
  0
ELLIPSE
  5
23F
330
1F
100
AcDbEntity
  8
0
  6
Continuous
 62
     7
370
    15
100
AcDbEllipse
 10
78.8365638936
 20
121.6800431275
 30
0.0
 11
1.79548262128651
 21
2.111692994981865
 31
0.0
210
0.0
220
0.0
230
1.0
 40
0.7389313757
 41
0.0
 42
6.283185307179586
  0
ARC
  5
240
330
1F
100
AcDbEntity
  8
0
  6
Continuous
 62
     7
370
    15
100
AcDbCircle
 10
89.305117929
 20
112.3479372406
 30
0.0
 40
20.00000000000001
100
AcDbArc
 50
103.143966919
 51
236.856033081
  0
CIRCLE
  5
241
330
1F
100
AcDbEntity
  8
VERMASSUNG
100
AcDbCircle
 10
89.305117929
 20
114.1890468855
 30
0.0
 40
25.0
  0
DIMENSION
  5
242
330
1F
100
AcDbEntity
  8
VERMASSUNG
100
AcDbDimension
  2
_D_5
 10
71.6274483994
 20
131.8667164151
 30
0.0
 11
63.3157817329
 21
140.1783830816
 31
0.0
 70
   160
  1
%%c<> min. 
 71
     2
 42
-1.0
  3
SLDDIMSTYLE3
100
AcDbAlignedDimension
 13
106.9827874587
 23
96.5113773558
 33
0.0
 14
71.6274483994
 24
131.8667164151
 34
0.0
 50
-45.0
100
AcDbRotatedDimension
  0
INSERT
  5
25C
330
1F
100
AcDbEntity
  8
VERMASSUNG
100
AcDbBlockReference
  2
SW_CENTERMARKSYMBOL_0
 10
89.305117929
 20
112.3479372406
 30
0.0
  0
OLE2FRAME
  5
25D
330
1F
100
AcDbEntity
  8
0
100
AcDbOle2Frame
 70
     2
  3
Paintbrush-Bild
 10
13.8511154363
 20
38.264191557
 30
0.0
 11
51.6290888628
 21
31.9806341108
 31
0.0
 71
     2
 72
     0
 73
     1
 90
    12928
310
80552BED0767C5B32B40DDAF6807D121434000000000000000006FFBDDFB85D0
310
4940DDAF6807D121434000000000000000006FFBDDFB85D04940416F4BD60AFB
310
3F4000000000000000002BED0767C5B32B40416F4BD60AFB3F40000000000000
310
0000000000000100000000010000010000000100000000000100000000320000
310
D0CF11E0A1B11AE1000000000000000000000000000000003E000300FEFF0900
310
0600000000000000000000000100000001000000000000000010000002000000
310
01000000FEFFFFFF0000000000000000FFFFFFFFFFFFFFFFFFFFFFFFFFFFFFFF
310
FFFFFFFFFFFFFFFFFFFFFFFFFFFFFFFFFFFFFFFFFFFFFFFFFFFFFFFFFFFFFFFF
310
FFFFFFFFFFFFFFFFFFFFFFFFFFFFFFFFFFFFFFFFFFFFFFFFFFFFFFFFFFFFFFFF
310
FFFFFFFFFFFFFFFFFFFFFFFFFFFFFFFFFFFFFFFFFFFFFFFFFFFFFFFFFFFFFFFF
310
FFFFFFFFFFFFFFFFFFFFFFFFFFFFFFFFFFFFFFFFFFFFFFFFFFFFFFFFFFFFFFFF
310
FFFFFFFFFFFFFFFFFFFFFFFFFFFFFFFFFFFFFFFFFFFFFFFFFFFFFFFFFFFFFFFF
310
FFFFFFFFFFFFFFFFFFFFFFFFFFFFFFFFFFFFFFFFFFFFFFFFFFFFFFFFFFFFFFFF
310
FFFFFFFFFFFFFFFFFFFFFFFFFFFFFFFFFFFFFFFFFFFFFFFFFFFFFFFFFFFFFFFF
310
FFFFFFFFFFFFFFFFFFFFFFFFFFFFFFFFFFFFFFFFFFFFFFFFFFFFFFFFFFFFFFFF
310
FFFFFFFFFFFFFFFFFFFFFFFFFFFFFFFFFFFFFFFFFFFFFFFFFFFFFFFFFFFFFFFF
310
FFFFFFFFFFFFFFFFFFFFFFFFFFFFFFFFFFFFFFFFFFFFFFFFFFFFFFFFFFFFFFFF
310
FFFFFFFFFFFFFFFFFFFFFFFFFFFFFFFFFFFFFFFFFFFFFFFFFFFFFFFFFFFFFFFF
310
FFFFFFFFFFFFFFFFFFFFFFFFFFFFFFFFFFFFFFFFFFFFFFFFFFFFFFFFFFFFFFFF
310
FFFFFFFFFFFFFFFFFFFFFFFFFFFFFFFFFFFFFFFFFFFFFFFFFFFFFFFFFFFFFFFF
310
FDFFFFFFFEFFFFFFFEFFFFFFFEFFFFFF05000000060000000700000008000000
310
090000000A0000000B0000000C0000000D0000000E0000000F00000010000000
310
11000000120000001300000014000000150000001600000017000000FEFFFFFF
310
FFFFFFFFFFFFFFFFFFFFFFFFFFFFFFFFFFFFFFFFFFFFFFFFFFFFFFFFFFFFFFFF
310
FFFFFFFFFFFFFFFFFFFFFFFFFFFFFFFFFFFFFFFFFFFFFFFFFFFFFFFFFFFFFFFF
310
FFFFFFFFFFFFFFFFFFFFFFFFFFFFFFFFFFFFFFFFFFFFFFFFFFFFFFFFFFFFFFFF
310
FFFFFFFFFFFFFFFFFFFFFFFFFFFFFFFFFFFFFFFFFFFFFFFFFFFFFFFFFFFFFFFF
310
FFFFFFFFFFFFFFFFFFFFFFFFFFFFFFFFFFFFFFFFFFFFFFFFFFFFFFFFFFFFFFFF
310
FFFFFFFFFFFFFFFFFFFFFFFFFFFFFFFFFFFFFFFFFFFFFFFFFFFFFFFFFFFFFFFF
310
FFFFFFFFFFFFFFFFFFFFFFFFFFFFFFFFFFFFFFFFFFFFFFFFFFFFFFFFFFFFFFFF
310
FFFFFFFFFFFFFFFFFFFFFFFFFFFFFFFFFFFFFFFFFFFFFFFFFFFFFFFFFFFFFFFF
310
FFFFFFFFFFFFFFFFFFFFFFFFFFFFFFFFFFFFFFFFFFFFFFFFFFFFFFFFFFFFFFFF
310
FFFFFFFFFFFFFFFFFFFFFFFFFFFFFFFFFFFFFFFFFFFFFFFFFFFFFFFFFFFFFFFF
310
FFFFFFFFFFFFFFFFFFFFFFFFFFFFFFFFFFFFFFFFFFFFFFFFFFFFFFFFFFFFFFFF
310
FFFFFFFFFFFFFFFFFFFFFFFFFFFFFFFFFFFFFFFFFFFFFFFFFFFFFFFFFFFFFFFF
310
FFFFFFFFFFFFFFFFFFFFFFFFFFFFFFFFFFFFFFFFFFFFFFFFFFFFFFFFFFFFFFFF
310
52006F006F007400200045006E00740072007900000000000000000000000000
310
0000000000000000000000000000000000000000000000000000000000000000
310
16000500FFFFFFFFFFFFFFFF020000000A00030000000000C000000000000046
310
00000000000000000000000040C0EA2A4328CD0103000000C000000000000000
310
01004F006C006500000000000000000000000000000000000000000000000000
310
0000000000000000000000000000000000000000000000000000000000000000
310
0A000200FFFFFFFFFFFFFFFFFFFFFFFF00000000000000000000000000000000
310
0000000000000000000000000000000000000000000000001400000000000000
310
010043006F006D0070004F0062006A0000000000000000000000000000000000
310
0000000000000000000000000000000000000000000000000000000000000000
310
120002010100000003000000FFFFFFFF00000000000000000000000000000000
310
0000000000000000000000000000000000000000010000004D00000000000000
310
01004F006C006500310030004E00610074006900760065000000000000000000
310
0000000000000000000000000000000000000000000000000000000000000000
310
1A000200FFFFFFFFFFFFFFFFFFFFFFFF00000000000000000000000000000000
310
0000000000000000000000000000000000000000040000002426000000000000
310
FEFFFFFF02000000FEFFFFFFFFFFFFFFFFFFFFFFFFFFFFFFFFFFFFFFFFFFFFFF
310
FFFFFFFFFFFFFFFFFFFFFFFFFFFFFFFFFFFFFFFFFFFFFFFFFFFFFFFFFFFFFFFF
310
FFFFFFFFFFFFFFFFFFFFFFFFFFFFFFFFFFFFFFFFFFFFFFFFFFFFFFFFFFFFFFFF
310
FFFFFFFFFFFFFFFFFFFFFFFFFFFFFFFFFFFFFFFFFFFFFFFFFFFFFFFFFFFFFFFF
310
FFFFFFFFFFFFFFFFFFFFFFFFFFFFFFFFFFFFFFFFFFFFFFFFFFFFFFFFFFFFFFFF
310
FFFFFFFFFFFFFFFFFFFFFFFFFFFFFFFFFFFFFFFFFFFFFFFFFFFFFFFFFFFFFFFF
310
FFFFFFFFFFFFFFFFFFFFFFFFFFFFFFFFFFFFFFFFFFFFFFFFFFFFFFFFFFFFFFFF
310
FFFFFFFFFFFFFFFFFFFFFFFFFFFFFFFFFFFFFFFFFFFFFFFFFFFFFFFFFFFFFFFF
310
FFFFFFFFFFFFFFFFFFFFFFFFFFFFFFFFFFFFFFFFFFFFFFFFFFFFFFFFFFFFFFFF
310
FFFFFFFFFFFFFFFFFFFFFFFFFFFFFFFFFFFFFFFFFFFFFFFFFFFFFFFFFFFFFFFF
310
FFFFFFFFFFFFFFFFFFFFFFFFFFFFFFFFFFFFFFFFFFFFFFFFFFFFFFFFFFFFFFFF
310
FFFFFFFFFFFFFFFFFFFFFFFFFFFFFFFFFFFFFFFFFFFFFFFFFFFFFFFFFFFFFFFF
310
FFFFFFFFFFFFFFFFFFFFFFFFFFFFFFFFFFFFFFFFFFFFFFFFFFFFFFFFFFFFFFFF
310
FFFFFFFFFFFFFFFFFFFFFFFFFFFFFFFFFFFFFFFFFFFFFFFFFFFFFFFFFFFFFFFF
310
FFFFFFFFFFFFFFFFFFFFFFFFFFFFFFFFFFFFFFFFFFFFFFFFFFFFFFFFFFFFFFFF
310
FFFFFFFFFFFFFFFFFFFFFFFFFFFFFFFFFFFFFFFFFFFFFFFFFFFFFFFFFFFFFFFF
310
0100000200000000000000000000000000000000000000000000000000000000
310
0000000000000000000000000000000000000000000000000000000000000000
310
0100FEFF030A0000FFFFFFFF0A00030000000000C00000000000004607000000
310
5042727573680007000000504272757368000700000050427275736800F439B2
310
7100000000000000000000000000000000000000000000000000000000000000
310
0000000000000000000000000000000000000000000000000000000000000000
310
0000000000000000000000000000000000000000000000000000000000000000
310
0000000000000000000000000000000000000000000000000000000000000000
310
0000000000000000000000000000000000000000000000000000000000000000
310
0000000000000000000000000000000000000000000000000000000000000000
310
0000000000000000000000000000000000000000000000000000000000000000
310
0000000000000000000000000000000000000000000000000000000000000000
310
0000000000000000000000000000000000000000000000000000000000000000
310
0000000000000000000000000000000000000000000000000000000000000000
310
0000000000000000000000000000000000000000000000000000000000000000
310
0000000000000000000000000000000000000000000000000000000000000000
310
20260000424D0E260000000000003E00000028000000B40200006E0000000100
310
01000000000000000000130B0000130B00000200000002000000000000FFFFFF
310
FFFFFFFFFFFFFFFFFFFFFFFFFFFFFFFFFFFFFFFFFFFFFFFFFFFFFFFFFFFFFFFF
310
FFFFFFFFFFFFFFFFFFFFFFFFFFFFFFFFFFFFFFFFFFFFFFFFFFFFFFFFFFFFFFFF
310
FFFFFFFFFFFFFFFFFFFFFFFFFFFFFFFFFFFFFFFFFFFFFFFFF000FFFFFFFFFFFF
310
FFFFFFFFFFFFFFFFFFFFFFFFFFFFFFFFFFFFFFFFFFFFFFFFFFFFFFFFFFFFFFFF
310
FFFFFFFFFFFFFFFFFFFFFFFFFFFFFFFFFFFFFFFFFFFFFFFFFFFFFFFFFFFFFFFF
310
FFFFFFFFFFFFFFFFFFFFFFFFFFFFFFFFF000FFFFFFFFFFFFFFFFFFFFFFFFFFFF
310
FFFFFFFFFFFFFFFFFFFFFFFFFFFFFFFFFFFFFFFFFFFFFFFFFFFFFFFFFFFFFFFF
310
FFFFFFFFFFFFFFFFFFFFFFFFFFFFFFFFFFFFFFFFFFFFFFFFFFFFFFFFFFFFFFFF
310
FFFFFFFFFFFFFFFFF000FFFFFFFFFFFFFFFFFFFFFFFFFFFFFFFFFFFFFFFFFFFF
310
FFFFFFFFFFFFFFFFFFFFFFFFFFFFFFFFFFFFFFFFFFFFFFFFFFFFFFFFFFFFFFFF
310
FFFFFFFFFFFFFFFFFFFFFFFFFFFFFFFFFFFFFFFFFFFFFFFFFFFFFFFFFFFFFFFF
310
F000FFFFFFFFFFFFFFFFFFFFFFFFFFFFFFFFFFFFFFFFFFFFFFFFFFFFFFFFFFFF
310
FFFFFFFFFFFFFFFFFFFFFFFFFFFFFFFFFFFFFFFFFFFFFFFFFFFFFFFFFFFFFFFF
310
FFFFFFFFFFFFFFFFFFFFFFFFFFFFFFFFFFFFFFFFFFFFFFFFF000FFFFFFFFFFFF
310
FFFFFFFFFFFFFFFFFFFFFFFFFFFFFFFFFFFFFFFFFFFFFFFFFFFFFFFFFFFFFFFF
310
FFFFFFFFFFFFFFFFFFFFFFFFFFFFFFFFFFFFFFFFFFFFFFFFFFFFFFFFFFFFFFFF
310
FFFFFFFFFFFFFFFFFFFFFFFFFFFFFFFFF000FFFFFFFFFFFFFFFFFFFFFFFFFFFF
310
FFFFFFFFFFFFFFFFFFFFFFFFFFFFFFFFFFFFFFFFFFFFFFFFFFFFFFFFFFFFFFFF
310
FFFFFFFFFFFFFFFFFFFFFFFFFFFFFFFFFFFFFFFFFFFFFFFFFFFFFFFFFFFFFFFF
310
FFFFFFFFFFFFFFFFF000FFFFFFFFFFFFFFFFFFFFFFFFFFFFFFFFFFFFFFFFFFFF
310
FFFFFFFFFFFFFFFFFFFFFFFFFFFFFFFFFFFFFFFFFFFFFFFFFFFFFFFFFFFFFFFF
310
FFFFFFFFFFFFFFFFFFFFFFFFFFFFFFFFFFFFFFFFFFFFFFFFFFFFFFFFFFFFFFFF
310
F000FFFFFFFFFFFFFFFFFFFFFFFFFFFFFFFFFFFFFFFFFFFFFFFFFFFFFFFFFFFF
310
FFFFFFFFFFFFFFFFFFFFFFFFFFFFFFFFFFFFFFFFFFFFFFFFFFFFFFFFFFFFFFFF
310
FFFFFFFFFFFFFFFFFFFFFFFFFFFFFFFFFFFFFFFFFFFFFFFFF000FFFFFFFFFFFF
310
FFFFFFFFFFFFFFFFFFFFFFFFFFFFFFFFFFFFFFFFFFFFFFFFFFFFFFFFFFFFFFFF
310
FFFFFFFFFFFFFFFFFFFFFFFFFFFFFFFFFFFFFFFFFFFFFFFFFFFFFFFFFFFFFFFF
310
FFFFFFFFFFFFFFFFFFFFFFFFFFFFFFFFF000FFFFFFFFFFFFFFFFFFFFFFFFFFFF
310
FFFFFFFFFFFFFFFFFFFFFFFFFFFFFFFFFFFFFFFFFFFFFFFFFFFFFFFFFFFFFFFF
310
FFFFFFFFFFFFFFFFFFFFFFFFFFFFFFFFFFFFFFFFFFFFFFFFFFFFFFFFFFFFFFFF
310
FFFFFFFFFFFFFFFFF000FFFFFFFFFFFFFFFFFFFFFFFFFFFFFFFFFFFFFFFFFFFF
310
FFFFFFFFFFFFFFFFFFFFFFFFFFFFFFFFFFFFFFFFFFFFFFFFFFFFFFFFFFFFFFFF
310
FFFFFFFFFFFFFFFFFFFFFFFFFFFFFFFFFFFFFFFFFFFFFFFFFFFFFFFFFFFFFFFF
310
F000FFFFFFFFFFFFFFFFFFFFFFFFFFFFFFFFFFFFFFFFFFFFFFFFFFFFFFFFFFFF
310
FFFFFFFFFFFFFFFFFFFFFFFFFFFFFFFFFFFFFFFFFFFFFFFFFFFFFFFFFFFFFFFF
310
FFFFFFFFFFFFFFFFFFFFFFFFFFFFFFFFFFFFFFFFFFFFFFFFF000FFFFFFFFFFFF
310
FFFFFFFFFFFFFFFFFFFFFFFFFFFFFFFFFFFFFFFFFFFFFFFFFFFFFFFFFFFFFFFF
310
FFFFFFFFFFFFFFFFFFFFFFFFFFFFFFFFFFFFFFFFFFFFFFFFFFFFFFFFFFFFFFFF
310
FFFFFFFFFFFFFFFFFFFFFFFFFFFFFFFFF000FFFFFFFFFFFFFFFFFFFFFFFFFFFF
310
FFFFFFFFFFFFFFFFFFFFFFFFFFFFFFFFFFFFFFFFFFFFFFFFFFFFFFFFFFFFFFFF
310
FFFFFFFFFFFFFFFFFFFFFFFFFFFFFFFFFFFFFFFFFFFFFFFFFFFFFFFFFFFFFFFF
310
FFFFFFFFFFFFFFFFF000FFFFFFFFFFFFFFFFFFFFFFFFFFFFFFFFFFFFFFFFFFFF
310
FFFFFFFFFFFFFFFFFFFFFFFFFFFFFFFFFFFFFFFFFFFFFFFFFFFFFFFFFFFFFFFF
310
FFFFFFFFFFFFFFFFFFFFFFFFFFFFFFFFFFFFFFFFFFFFFFFFFFFFFFFFFFFFFFFF
310
F000FFFFFFFFFFFFFFFFFFFFFFFFFFFFFFFFFFFFFFFFFFFFFFFFFFFFFFFFFFFF
310
FFFFFFFFFFFFFFFFFFFFFFFFFFFFFFFFFFFFFFFFFFFFFFFFFFFFFFFFFFFFFFFF
310
FFFFFFFFFFFFFFFFFFFFFFFFFFFFFFFFFFFFFFFFFFFFFFFFF000FFFFFFFFFFFF
310
FFFFFFFFFFFFFFFFFFFFFFFFFFFFFFFFFFFFFFFFFFFFFFFFFFFFFFFFFFFFFFFF
310
FFFFFFFFFFFFFFFFFFFFFFFFFFFFFFFFFFFFFFFFFFFFFFFFFFFFFFFFFFFFFFFF
310
FFFFFFFFFFFFFFFFFFFFFFFFFFFFFFFFF000FFFFFFFFFFFFFFFFFFFFFFFFFFFF
310
FFFFFFFFFFFFFFFFFFFFFFFFFFFFFFFFFFFFFFFFFFFFFFFFFFFFFFFFFFFFFFFF
310
FFFFFFFFFFFFFFFFFFFFFFFFFFFFFFFFFFFFFFFFFFFFFFFFFFFFFFFFFFFFFFFF
310
FFFFFFFFFFFFFFFFF000FFFFF80003FFFFFFFFFFFFFFFFFFFFFFFFFFFFFFFFFF
310
FFFFF00007FFFFFFFFFF00007FFFFFF800000000000000007FFFFFFFFFFFFFFF
310
FFFFFFFC001FFFFFFFFFFFFFFC001FFFFFFFFFFFFFFFFFFFFFFFFFFE0007FFFF
310
F000FFFF8000007FFFFFFFF8000FFFFFC0007FFFFF80007FFFFF0000007FFFFF
310
FFF8000007FFFFF800000000000000007FFFFFF0001FFFFFFFFFFFC00001FFFF
310
FFFFFFFFC00001FFFFFFFF000000000003FFFFE000007FFFF000FFFE0000000F
310
FFFFFFF0000FFFFF80007FFFFF80007FFFFC0000001FFFFFFFC0000001FFFFF8
310
00000000000000007FFFFFF0001FFFFFFFFFFE0000003FFFFFFFFFFE0000003F
310
FFFFFF000000000003FFFF0000000FFFF000FFF800000003FFFFFFF00007FFFF
310
80007FFFFF80007FFFF000000007FFFFFF000000003FFFF80000000000000000
310
7FFFFFF0001FFFFFFFFFF80000000FFFFFFFFFF80000000FFFFFFF0000000000
310
03FFFC00000003FFF000FFE000000000FFFFFFF00007FFFF80003FFFFF80007F
310
FFC000000001FFFFFC000000001FFFF800000000000000007FFFFFF0001FFFFF
310
FFFFE000000003FFFFFFFFE000000003FFFFFF000000000003FFF000000000FF
310
F000FF80000000007FFFFFF00007FFFF80003FFFFF80007FFF8000000000FFFF
310
F80000000007FFF800000000000000007FFFFFF0001FFFFFFFFFC000000001FF
310
FFFFFFC000000001FFFFFF000000000003FFC0000000007FF000FF0000000000
310
3FFFFFE00007FFFF00003FFFFF80007FFE00000000003FFFF00000000003FFF8
310
00000000000000007FFFFFF0001FFFFFFFFF8000000000FFFFFFFF8000000000
310
FFFFFF000000000003FF80000000003FF000FE00000000001FFFFFE00003FFFF
310
00003FFFFF80007FFC00000000001FFFE00000000001FFF8000001FFFE000000
310
7FFFFFF0001FFFFFFFFE00000000003FFFFFFE00000000003FFFFF0000000000
310
03FF00000000001FF000FC00000000000FFFFFE00003FFFF00001FFFFF80007F
310
F800000000001FFFC00000000000FFF8000001FFFE0000007FFFFFF0001FFFFF
310
FFFC00000000001FFFFFFC00000000001FFFFF000000000003FE00000000000F
310
F000F8000000000007FFFFE00003FFFF00001FFFFF80007FF800000000000FFF
310
800000000000FFF8000001FFFE0000007FFFFFF0001FFFFFFFF800000000000F
310
FFFFF800000000000FFFFF000000000003FC000000000007F000F80000000000
310
03FFFFC00003FFFE00001FFFFF80007FF0000000000007FF0000000000007FF8
310
000001FFFE0000007FFFFFF0001FFFFFFFF0000000000007FFFFF00000000000
310
07FFFF000000000003F8000000000003F000F0000000000003FFFFC00001FFFE
310
00001FFFFF80007FE0000000000007FE0000000000003FF8000001FFFE000000
310
7FFFFFF0001FFFFFFFF0000000000007FFFFF0000000000007FFFF0000000000
310
03F800001F800003F000E00001FFF00001FFFFC00001FFFE00000FFFFF80007F
310
E00001FFE00003FE00001FFF00003FF8000001FFFE0000007FFFFFF0001FFFFF
310
FFE000003E000003FFFFE000003E000003FFFF000000000003F00001FFF80001
310
F000E00007FFFC0001FFFFC00001FFFE00000FFFFF80007FC0000FFFFC0003FC
310
0000FFFFC0001FF8000001FFFE0000007FFFFFF0001FFFFFFFC00003FFE00001
310
FFFFC00003FFE00001FFFF0001FFFFFFFFF00007FFFE0001F000E0000FFFFF00
310
00FFFF800001FFFC00000FFFFF80007FC0001FFFFE0001FC0001FFFFE0001FF8
310
000001FFFE0000007FFFFFF0001FFFFFFF80000FFFF80000FFFF80000FFFF800
310
00FFFF0003FFFFFFFFE0000FFFFF8000F000C0003FFFFF8000FFFF800000FFFC
310
000007FFFF80007F80003FFFFF0001FC0003FFFFF0001FF8000001FFFE000000
310
7FFFFFF0001FFFFFFF80003FFFFE0000FFFF80003FFFFE0000FFFF0003FFFFFF
310
FFE0003FFFFF8000F000C0003FFFFF8000FFFF800000FFFC000007FFFF80007F
310
80007FFFFF8001F80007FFFFF8000FF8000001FFFE0000007FFFFFF0001FFFFF
310
FF00007FFFFF00007FFF00007FFFFF00007FFF0003FFFFFFFFE0003FFFFFC000
310
F000C0007FFFFFC000FFFF000000FFFC000007FFFF80007F8000FFFFFF8000F8
310
000FFFFFF8000FF8000001FFFE0000007FFFFFF0001FFFFFFF0000FFFFFF8000
310
7FFF0000FFFFFF80007FFF0003FFFFFFFFC0007FFFFFC00070008000FFFFFFC0
310
00FFFF000000FFF8000007FFFF80007F8000FFFFFF8000F8000FFFFFF8000FF8
310
000001FFFE0000007FFFFFF0001FFFFFFE0001FFFFFFC0003FFE0001FFFFFFC0
310
003FFF0003FFFFFFFFC0007FFFFFE00070008000FFFFFFC0007FFF0000007FF8
310
000003FFFF80007F0001FFFFFF8000F8000FFFFFF8000FF8000001FFFE000000
310
7FFFFFF0001FFFFFFE0001FFFFFFC0003FFE0001FFFFFFC0003FFF0003FFFFFF
310
FFC000FFFFFFE00070008000FFFFFFC0007FFF0000007FF8000003FFFF80007F
310
0001FFFFFF8000F8001FFFFFF8000FF8000001FFFE0000007FFFFFF0001FFFFF
310
FE0003FFFFFFE0003FFE0003FFFFFFE0003FFF0003FFFFFFFFC000FFFFFFE000
310
70008000FFFFFFC0007FFE0000007FF8000003FFFF80007F0001FFFFFF8000F0
310
001FFFFFF8000FF8000001FFFE0000007FFFFFF0001FFFFFFC0003FFFFFFE000
310
1FFC0003FFFFFFE0001FFF0003FFFFFFFFC000FFFFFFC00070008000FFFFFF80
310
007FFE0000007FF0000003FFFF80007F0001FFFFFF0000F0001FFFFFF8000FF8
310
000001FFFE0000007FFFFFF0001FFFFFFC0007FFFFFFF0001FFC0007FFFFFFF0
310
001FFF0003FFFFFFFFC000FFFFFFC00070008001FFFFFF0000FFFE0000003FF0
310
000001FFFF80007F0001FFFFFF0000F8001FFFFFF0000FF8000001FFFE000000
310
7FFFFFF0001FFFFFFC0007FFFFFFF0001FFC0007FFFFFFF0001FFF0003FFFFFF
310
FFC001FFFFFF80007000FFFFFFFFFE0000FFFE0008003FF0008001FFFF80007F
310
FFFFFFFFFC0000FFFFFFFFFFE0000FF8000001FFFE0000007FFFFFF0001FFFFF
310
F8000FFFFFFFF8000FF8000FFFFFFFF8000FFF0003FFFFFFFFFFFFFFFFFF0000
310
7000FFFFFFFFFC0000FFFC0008003FF0008001FFFF80007FFFFFFFFFF80001FF
310
FFFFFFFF80000FF8000001FFFE0000007FFFFFF0001FFFFFF8000FFFFFFFF800
310
0FF8000FFFFFFFF8000FFF0003FFFFFFFFFFFFFFFFFE0000F000FFFFFFFFE000
310
00FFFC000C003FE000C001FFFF80007FFFFFFFFFC00001FFFFFFFFFE00001FF8
310
000001FFFE0000007FFFFFF0001FFFFFF8000FFFFFFFF8000FF8000FFFFFFFF8
310
000FFF0003FFFFFFFFFFFFFFFFF00000F000FFFFFFFE000001FFFC000C001FE0
310
00C000FFFF80007FFFFFFFFE000001FFFFFFFFE000001FF80FFFFFFFFFFFFFC0
310
7FFFFFF0001FFFFFF8000FFFFFFFF8000FF8000FFFFFFFF8000FFF0003FFFFFF
310
FFFFFFFFFF800000F000FFFFFFC0000001FFFC001C001FE001C000FFFF80007F
310
FFFFFF80000003FFFFFFF80000001FF80FFFFFFFFFFFFFC07FFFFFF0001FFFFF
310
F8001FFFFFFFFC000FF8001FFFFFFFFC000FFF0003FFFFFFFFFFFFFFF0000001
310
F000FFFFF800000001FFF8001C001FE001C000FFFF80007FFFFFF800000003FF
310
FFFF800000003FF80FFFFFFFFFFFFFC07FFFFFF0001FFFFFF8001FFFFFFFFC00
310
0FF8001FFFFFFFFC000FFF0003FFFFFFFFFFFFFE00000001F000FFFFC0000000
310
03FFF8001E001FC001E000FFFF80007FFFFF8000000007FFFFFC000000003FF8
310
0FFFFFFFFFFFFFC07FFFFFF0001FFFFFF8001FFFFFFFFC000FF8001FFFFFFFFC
310
000FFF0003FFFFFFFFFFFFE000000003F000FFFE0000000007FFF8001E000FC0
310
01E0007FFF80007FFFFE0000000007FFFFE0000000007FF80FFFFFFFFFFFFFC0
310
7FFFFFF0001FFFFFF0001FFFFFFFFC0007F0001FFFFFFFFC0007FF0003FFFFFF
310
FFFFFF0000000003F000FFF80000000007FFF8001E000FC003E0007FFF80007F
310
FFF0000000000FFFFF8000000000FFF80FFFFFFFFFFFFFC07FFFFFF0001FFFFF
310
F0001FFFFFFFFC0007F0001FFFFFFFFC0007FF0003FFFFFFFFFFFC0000000007
310
F000FFE0000000000FFFF0003E000FC003E0007FFF80007FFFC0000000001FFF
310
FE0000000001FFF80FFFFFFFFFFFFFC07FFFFFF0001FFFFFF0001FFFFFFFFC00
310
07F0001FFFFFFFFC0007FF0003FFFFFFFFFFF0000000000FF000FFC000000000
310
1FFFF0003F000F8003F0003FFF80007FFF80000000003FFFF80000000003FFF8
310
0FFFFFFFFFFFFFC07FFFFFF0001FFFFFF0001FFFFFFFFC0007F0001FFFFFFFFC
310
0007FF0003FFFFFFFFFFE0000000001FF000FF00000000007FFFF0003F000780
310
03F0003FFF80007FFF00000000007FFFF00000000007FFF80FFFFFFFFFFFFFC0
310
7FFFFFF0001FFFFFF0001FFFFFFFFC0007F0001FFFFFFFFC0007FF0003FFFFFF
310
FFFF80000000007FF000FE0000000000FFFFE0003F00078007F0003FFF80007F
310
FE0000000001FFFFE0000000001FFFF80FFFFFFFFFFFFFC07FFFFFF0001FFFFF
310
F0001FFFFFFFFC0007F0001FFFFFFFFC0007FF0003FFFFFFFFFF0000000000FF
310
F000FC0000000003FFFFE0007F00078007F0003FFF80007FFC0000000007FFFF
310
C0000000007FFFF80FFFFFFFFFFFFFC07FFFFFF0001FFFFFF8001FFFFFFFFC00
310
0FF8001FFFFFFFFC000FFF0003FFFFFFFFFE0000000003FFF000FC000000000F
310
FFFFE0007F80070007F8001FFF80007FF8000000001FFFFF8000000001FFFFF8
310
0FFFFFFFFFFFFFC07FFFFFF0001FFFFFF8001FFFFFFFFC000FF8001FFFFFFFFC
310
000FFF0003FFFFFFFFFC000000000FFFF000F8000000007FFFFFE0007F800700
310
07F8001FFF80007FF000000000FFFFFF800000000FFFFFF80FFFFFFFFFFFFFC0
310
7FFFFFF0001FFFFFF8000FFFFFFFF8000FF8000FFFFFFFF8000FFF0003FFFFFF
310
FFFC000000007FFFF000F800000007FFFFFFC0007F8003000FF8001FFF80007F
310
F000000007FFFFFF000000007FFFFFF80FFFFFFFFFFFFFC07FFFFFF0001FFFFF
310
F8000FFFFFFFF8000FF8000FFFFFFFF8000FFF0003FFFFFFFFF80000000FFFFF
310
F000F0000000FFFFFFFFC000FF8003000FF8001FFF80007FE0000000FFFFFFFF
310
0000000FFFFFFFF8000001FFFE0000007FFFFFF0001FFFFFF8000FFFFFFFF800
310
0FF8000FFFFFFFF8000FFF0003FFFFFFFFF8000000FFFFFFF000F000000FFFFF
310
FFFFC000FFC002000FF8000FFF80007FE000001FFFFFFFFE000001FFFFFFFFF8
310
000001FFFE0000007FFFFFF0001FFFFFF8000FFFFFFFF8000FF8000FFFFFFFF8
310
000FFF0003FFFFFFFFF000001FFFFFFFF000E00000FFFFFFFFFFC000FFC00200
310
0FFC000FFF80007FE00001FFFFFFFFFE00001FFFFFFFFFF8000001FFFE000000
310
7FFFFFF0001FFFFFFC000FFFFFFFF8001FFC000FFFFFFFF8001FFF0003FFFFFF
310
FFF00001FFFFFFFFF000E00007FFFFFFFFFF8000FFC000001FFC000FFF80007F
310
C0000FFFFFFFFFFE0000FFFFFFFFFFF8000001FFFE0000007FFFFFF0001FFFFF
310
FC0007FFFFFFF0001FFC0007FFFFFFF0001FFF0003FFFFFFFFF00007FFFFFFFF
310
F000E0001FFFFFFFFFFF8000FFC000001FFC000FFF80007FC0003FFFFFFFFFFE
310
0001FFFFFFFFFFF8000001FFFE0000007FFFFFF0001FFFFFFC0007FFFFFFF000
310
1FFC0007FFFFFFF0001FFF0003FFFFFFFFF0001FFFFFFFFFF000E0003FFFFF00
310
03FF8001FFE000001FFC0007FF80007FC0007FFFFF0007FC0003FFFFF0003FF8
310
000001FFFE0000007FFFFFF0001FFFFFFC0003FFFFFFE0001FFC0003FFFFFFE0
310
001FFF0003FFFFFFFFF0003FFFFFFFFFF000E0003FFFFF0001FF8001FFE00000
310
1FFE0007FF80007FC0007FFFFE0003FC0007FFFFE0003FF8000001FFFE000000
310
7FFFFFF0001FFFFFFE0003FFFFFFE0003FFE0003FFFFFFE0003FFF0003FFFFFF
310
FFF0003FFFFF8001F000E0003FFFFF0001FF0001FFE000001FFE0007FF80007F
310
C0007FFFFE0003FC0007FFFFE0003FF8000001FFFE0000007FFFFFF0001FFFFF
310
FE0001FFFFFFC0003FFE0001FFFFFFC0003FFF0003FFFFFFFFF0003FFFFF0001
310
F000E0003FFFFF0003FF0001FFE000003FFE0007FF80007FC0007FFFFE0003FC
310
0007FFFFE0003FF8000001FFFE0000007FFFFFF0001FFFFFFF0001FFFFFFC000
310
7FFF0001FFFFFFC0007FFF0003FFFFFFFFF0003FFFFF0001F000E0003FFFFE00
310
03FF0003FFF000003FFE0003FF80007FC0007FFFFC0003FE0007FFFFE0003FF8
310
000001FFFE0000007FFFFFF0001FFFFFFF0000FFFFFF80007FFF0000FFFFFF80
310
007FFF0003FFFFFFFFF0003FFFFF0001F000E0003FFFFE0003FF0003FFF00000
310
3FFF0003FF80007FC0007FFFFC0007FE0007FFFFC0003FF8000001FFFE000000
310
7FFFFFF0001FFFFFFF80007FFFFF0000FFFF80007FFFFF0000FFFF0003FFFFFF
310
FFF0003FFFFF0003F000E0003FFFFC0003FE0003FFF000003FFF0003FF80007F
310
E0003FFFF80007FE0003FFFFC0007FF8000001FFFE0000007FFFFFF0001FFFFF
310
FF80003FFFFE0000FFFF80003FFFFE0000FFFF0003FFFFFFFFF0001FFFFE0003
310
F000F0001FFFF80003FE0003FFF000007FFF0001FF80007FE0003FFFF00007FE
310
0001FFFF80007FF8000001FFFE0000007FFFFFF0001FFFFFFFC0000FFFF80001
310
FFFFC0000FFFF80001FFFF0003FFFFFFFFF0001FFFFC0003F000F0000FFFF000
310
07FE0007FFF800007FFF0001FF80007FE0001FFFE00007FF0000FFFE00007FF8
310
000001FFFE0000007FFFFFF0001FFFFFFFC00003FFE00001FFFFC00003FFE000
310
01FFFF0003FFFFFFFFF8000FFFF80003F000F00003FFC00007FC0007FFF80000
310
7FFF8001FF80007FF00007FF80000FFF00007FF80000FFF8000001FFFE000000
310
7F80000000000001FFE000003E000003FFFFE000003E000003FFFF0003FFFFFF
310
FFF80003FFE00007F000F800000000000FFC0007FFF800007FFF8001FF80007F
310
F000000000000FFF000000000000FFF8000001FFFE0000007F80000000000001
310
FFF0000000000007FFFFF0000000000007FFFF0003FFFFFFFFFC00007E000007
310
F000F800000000000FFC0007FFF80000FFFF8000FF80007FF800000000001FFF
310
800000000001FFF8000001FFFE0000007F80000000000001FFF800000000000F
310
FFFFF800000000000FFFFF0003FFFFFFFFFC00000000000FF000FC0000000000
310
1FFC0007FFFC0000FFFF8000FF80007FF800000000003FFFC00000000001FFF8
310
000001FFFE0000007F80000000000001FFF800000000000FFFFFF80000000000
310
0FFFFF0003FFFFFFFFFE00000000001FF000FE00000000003FF8000FFFFC0000
310
FFFF8000FF80007FFC00000000003FFFC00000000003FFF8000001FFFE000000
310
7F80000000000001FFFC00000000001FFFFFFC00000000001FFFFF0003FFFFFF
310
FFFF00000000001FF000FF00000000003FF8000FFFFC0000FFFFC000FF80007F
310
FE00000000007FFFE00000000007FFF8000001FFFE0000007F80000000000001
310
FFFE00000000003FFFFFFE00000000003FFFFF0003FFFFFFFFFF80000000003F
310
F000FF80000000007FF8000FFFFC0001FFFFC0007F80007FFF0000000000FFFF
310
F0000000000FFFF800000000000000007F80000000000001FFFF8000000000FF
310
FFFFFF8000000000FFFFFF0003FFFFFFFFFFC0000000007FF000FFC000000000
310
FFF8000FFFFE0001FFFFC0007F80007FFF8000000001FFFFF8000000001FFFF8
310
00000000000000007F80000000000001FFFFC000000001FFFFFFFFC000000001
310
FFFFFF0003FFFFFFFFFFE000000000FFF000FFE000000003FFF0001FFFFE0001
310
FFFFC0007F80007FFFC000000007FFFFFE000000003FFFF80000000000000000
310
7F80000000000001FFFFE000000003FFFFFFFFE000000003FFFFFF0003FFFFFF
310
FFFFF000000003FFF000FFF80000000FFFF0001FFFFE0001FFFFE0007F80007F
310
FFF00000000FFFFFFF00000000FFFFF800000000000000007F80000000000001
310
FFFFF80000000FFFFFFFFFF80000000FFFFFFF0003FFFFFFFFFFFC0000000FFF
310
F000FFFE0000003FFFF0001FFFFE0003FFFFE0003F80007FFFFC0000003FFFFF
310
FFC0000003FFFFF800000000000000007F80000000000001FFFFFE0000003FFF
310
FFFFFFFE0000003FFFFFFF0003FFFFFFFFFFFF0000003FFFF000FFFF800000FF
310
FFF0001FFFFF0003FFFFE0003F80007FFFFF000001FFFFFFFFF800001FFFFFF8
310
00000000000000007F80000000000001FFFFFFC00001FFFFFFFFFFFFC00001FF
310
FFFFFF0003FFFFFFFFFFFFC00000FFFFF000FFFFF8000FFFFFFFFFFFFFFFFFFF
310
FFFFFFFFFFFFFFFFFFFFF0001FFFFFFFFFFF0000FFFFFFF80000000000000000
310
7FFFFFFFFFFFFFFFFFFFFFFC001FFFFFFFFFFFFFFC001FFFFFFFFFFFFFFFFFFF
310
FFFFFFFC001FFFFFF000FFFFFFFFFFFFFFFFFFFFFFFFFFFFFFFFFFFFFFFFFFFF
310
FFFFFFFFFFFFFFFFFFFFFFFFFFFFFFFFFFFFFFFFFFFFFFFFFFFFFFFFFFFFFFFF
310
FFFFFFFFFFFFFFFFFFFFFFFFFFFFFFFFFFFFFFFFFFFFFFFFFFFFFFFFFFFFFFFF
310
F000FFFFFFFFFFFFFFFFFFFFFFFFFFFFFFFFFFFFFFFFFFFFFFFFFFFFFFFFFFFF
310
FFFFFFFFFFFFFFFFFFFFFFFFFFFFFFFFFFFFFFFFFFFFFFFFFFFFFFFFFFFFFFFF
310
FFFFFFFFFFFFFFFFFFFFFFFFFFFFFFFFFFFFFFFFFFFFFFFFF000FFFFFFFFFFFF
310
FFFFFFFFFFFFFFFFFFFFFFFFFFFFFFFFFFFFFFFFFFFFFFFFFFFFFFFFFFFFFFFF
310
FFFFFFFFFFFFFFFFFFFFFFFFFFFFFFFFFFFFFFFFFFFFFFFFFFFFFFFFFFFFFFFF
310
FFFFFFFFFFFFFFFFFFFFFFFFFFFFFFFFF000FFFFFFFFFFFFFFFFFFFFFFFFFFFF
310
FFFFFFFFFFFFFFFFFFFFFFFFFFFFFFFFFFFFFFFFFFFFFFFFFFFFFFFFFFFFFFFF
310
FFFFFFFFFFFFFFFFFFFFFFFFFFFFFFFFFFFFFFFFFFFFFFFFFFFFFFFFFFFFFFFF
310
FFFFFFFFFFFFFFFFF000FFFFFFFFFFFFFFFFFFFFFFFFFFFFFFFFFFFFFFFFFFFF
310
FFFFFFFFFFFFFFFFFFFFFFFFFFFFFFFFFFFFFFFFFFFFFFFFFFFFFFFFFFFFFFFF
310
FFFFFFFFFFFFFFFFFFFFFFFFFFFFFFFFFFFFFFFFFFFFFFFFFFFFFFFFFFFFFFFF
310
F000FFFFFFFFFFFFFFFFFFFFFFFFFFFFFFFFFFFFFFFFFFFFFFFFFFFFFFFFFFFF
310
FFFFFFFFFFFFFFFFFFFFFFFFFFFFFFFFFFFFFFFFFFFFFFFFFFFFFFFFFFFFFFFF
310
FFFFFFFFFFFFFFFFFFFFFFFFFFFFFFFFFFFFFFFFFFFFFFFFF000FFFFFFFFFFFF
310
FFFFFFFFFFFFFFFFFFFFFFFFFFFFFFFFFFFFFFFFFFFFFFFFFFFFFFFFFFFFFFFF
310
FFFFFFFFFFFFFFFFFFFFFFFFFFFFFFFFFFFFFFFFFFFFFFFFFFFFFFFFFFFFFFFF
310
FFFFFFFFFFFFFFFFFFFFFFFFFFFFFFFFF000FFFFFFFFFFFFFFFFFFFFFFFFFFFF
310
FFFFFFFFFFFFFFFFFFFFFFFFFFFFFFFFFFFFFFFFFFFFFFFFFFFFFFFFFFFFFFFF
310
FFFFFFFFFFFFFFFFFFFFFFFFFFFFFFFFFFFFFFFFFFFFFFFFFFFFFFFFFFFFFFFF
310
FFFFFFFFFFFFFFFFF000FFFFFFFFFFFFFFFFFFFFFFFFFFFFFFFFFFFFFFFFFFFF
310
FFFFFFFFFFFFFFFFFFFFFFFFFFFFFFFFFFFFFFFFFFFFFFFFFFFFFFFFFFFFFFFF
310
FFFFFFFFFFFFFFFFFFFFFFFFFFFFFFFFFFFFFFFFFFFFFFFFFFFFFFFFFFFFFFFF
310
F000FFFFFFFFFFFFFFFFFFFFFFFFFFFFFFFFFFFFFFFFFFFFFFFFFFFFFFFFFFFF
310
FFFFFFFFFFFFFFFFFFFFFFFFFFFFFFFFFFFFFFFFFFFFFFFFFFFFFFFFFFFFFFFF
310
FFFFFFFFFFFFFFFFFFFFFFFFFFFFFFFFFFFFFFFFFFFFFFFFF000FFFFFFFFFFFF
310
FFFFFFFFFFFFFFFFFFFFFFFFFFFFFFFFFFFFFFFFFFFFFFFFFFFFFFFFFFFFFFFF
310
FFFFFFFFFFFFFFFFFFFFFFFFFFFFFFFFFFFFFFFFFFFFFFFFFFFFFFFFFFFFFFFF
310
FFFFFFFFFFFFFFFFFFFFFFFFFFFFFFFFF000FFFFFFFFFFFFFFFFFFFFFFFFFFFF
310
FFFFFFFFFFFFFFFFFFFFFFFFFFFFFFFFFFFFFFFFFFFFFFFFFFFFFFFFFFFFFFFF
310
FFFFFFFFFFFFFFFFFFFFFFFFFFFFFFFFFFFFFFFFFFFFFFFFFFFFFFFFFFFFFFFF
310
FFFFFFFFFFFFFFFFF000FFFFFFFFFFFFFFFFFFFFFFFFFFFFFFFFFFFFFFFFFFFF
310
FFFFFFFFFFFFFFFFFFFFFFFFFFFFFFFFFFFFFFFFFFFFFFFFFFFFFFFFFFFFFFFF
310
FFFFFFFFFFFFFFFFFFFFFFFFFFFFFFFFFFFFFFFFFFFFFFFFFFFFFFFFFFFFFFFF
310
F000FFFFFFFFFFFFFFFFFFFFFFFFFFFFFFFFFFFFFFFFFFFFFFFFFFFFFFFFFFFF
310
FFFFFFFFFFFFFFFFFFFFFFFFFFFFFFFFFFFFFFFFFFFFFFFFFFFFFFFFFFFFFFFF
310
FFFFFFFFFFFFFFFFFFFFFFFFFFFFFFFFFFFFFFFFFFFFFFFFF000FFFFFFFFFFFF
310
FFFFFFFFFFFFFFFFFFFFFFFFFFFFFFFFFFFFFFFFFFFFFFFFFFFFFFFFFFFFFFFF
310
FFFFFFFFFFFFFFFFFFFFFFFFFFFFFFFFFFFFFFFFFFFFFFFFFFFFFFFFFFFFFFFF
310
FFFFFFFFFFFFFFFFFFFFFFFFFFFFFFFFF000FFFFFFFFFFFFFFFFFFFFFFFFFFFF
310
FFFFFFFFFFFFFFFFFFFFFFFFFFFFFFFFFFFFFFFFFFFFFFFFFFFFFFFFFFFFFFFF
310
FFFFFFFFFFFFFFFFFFFFFFFFFFFFFFFFFFFFFFFFFFFFFFFFFFFFFFFFFFFFFFFF
310
FFFFFFFFFFFFFFFFF000FFFFFFFFFFFFFFFFFFFFFFFFFFFFFFFFFFFFFFFFFFFF
310
FFFFFFFFFFFFFFFFFFFFFFFFFFFFFFFFFFFFFFFFFFFFFFFFFFFFFFFFFFFFFFFF
310
FFFFFFFFFFFFFFFFFFFFFFFFFFFFFFFFFFFFFFFFFFFFFFFFFFFFFFFFFFFFFFFF
310
F000FFFFFFFFFFFFFFFFFFFFFFFFFFFFFFFFFFFFFFFFFFFFFFFFFFFFFFFFFFFF
310
FFFFFFFFFFFFFFFFFFFFFFFFFFFFFFFFFFFFFFFFFFFFFFFFFFFFFFFFFFFFFFFF
310
FFFFFFFFFFFFFFFFFFFFFFFFFFFFFFFFFFFFFFFFFFFFFFFFF000FFFFFFFFFFFF
310
FFFFFFFFFFFFFFFFFFFFFFFFFFFFFFFFFFFFFFFFFFFFFFFFFFFFFFFFFFFFFFFF
310
FFFFFFFFFFFFFFFFFFFFFFFFFFFFFFFFFFFFFFFFFFFFFFFFFFFFFFFFFFFFFFFF
310
FFFFFFFFFFFFFFFFFFFFFFFFFFFFFFFFF000FFFFFFFFFFFFFFFFFFFFFFFFFFFF
310
FFFFFFFFFFFFFFFFFFFFFFFFFFFFFFFFFFFFFFFFFFFFFFFFFFFFFFFFFFFFFFFF
310
FFFFFFFFFFFFFFFFFFFFFFFFFFFFFFFFFFFFFFFFFFFFFFFFFFFFFFFFFFFFFFFF
310
FFFFFFFFFFFFFFFFF000FFFFFFFFFFFFFFFFFFFFFFFFFFFFFFFFFFFFFFFFFFFF
310
FFFFFFFFFFFFFFFFFFFFFFFFFFFFFFFFFFFFFFFFFFFFFFFFFFFFFFFFFFFFFFFF
310
FFFFFFFFFFFFFFFFFFFFFFFFFFFFFFFFFFFFFFFFFFFFFFFFFFFFFFFFFFFFFFFF
310
F000FFFFFFFFFFFFFFFFFFFFFFFFFFFFFFFFFFFFFFFFFFFFFFFFFFFFFFFFFFFF
310
FFFFFFFFFFFFFFFFFFFFFFFFFFFFFFFFFFFFFFFFFFFFFFFFFFFFFFFFFFFFFFFF
310
FFFFFFFFFFFFFFFFFFFFFFFFFFFFFFFFFFFFFFFFFFFFFFFFF000FFFFFFFFFFFF
310
FFFFFFFFFFFFFFFFFFFFFFFFFFFFFFFFFFFFFFFFFFFFFFFFFFFFFFFFFFFFFFFF
310
FFFFFFFFFFFFFFFFFFFFFFFFFFFFFFFFFFFFFFFFFFFFFFFFFFFFFFFFFFFFFFFF
310
FFFFFFFFFFFFFFFFFFFFFFFFFFFFFFFFF0000000000000000000000000000000
310
0000000000000000000000000000000000000000000000000000000000000000
310
0000000000000000000000000000000000000000000000000000000000000000
310
0000000000000000000000000000000000000000000000000000000000000000
310
0000000000000000000000000000000000000000000000000000000000000000
310
0000000000000000000000000000000000000000000000000000000000000000
310
0000000000000000000000000000000000000000000000000000000000000000
310
0000000000000000000000000000000000000000000000000000000000000000
310
0000000000000000000000000000000000000000000000000000000000000000
310
0000000000000000000000000000000000000000000000000000000000000000
310
0000000000000000000000000000000000000000000000000000000000000000
310
0000000000000000000000000000000000000000000000000000000000000000
310
0000000000000000000000000000000000000000000000000000000000000000
310
0000000000000000000000000000000000000000000000000000000000000000
310
0000000000000000000000000000000000000000000000000000000000000000
310
0000000000000000000000000000000000000000000000000000000000000000
  1
OLE
  0
ENDSEC
  0
SECTION
  2
OBJECTS
  0
DICTIONARY
  5
C
330
0
100
AcDbDictionary
281
     1
  3
ACAD_GROUP
350
D
  3
ACAD_LAYOUT
350
1A
  3
ACAD_MLINESTYLE
350
17
  3
ACAD_PLOTSETTINGS
350
19
  3
ACAD_PLOTSTYLENAME
350
E
  0
DICTIONARY
  5
D
102
{ACAD_REACTORS
330
C
102
}
330
C
100
AcDbDictionary
281
     1
  0
DICTIONARY
  5
1A
102
{ACAD_REACTORS
330
C
102
}
330
C
100
AcDbDictionary
281
     1
  3
Layout1
350
1E
  3
Layout2
350
26
  3
Model
350
22
  0
DICTIONARY
  5
17
102
{ACAD_REACTORS
330
C
102
}
330
C
100
AcDbDictionary
281
     1
  3
Standard
350
18
  0
DICTIONARY
  5
19
102
{ACAD_REACTORS
330
C
102
}
330
C
100
AcDbDictionary
281
     1
  0
ACDBDICTIONARYWDFLT
  5
E
102
{ACAD_REACTORS
330
C
102
}
330
C
100
AcDbDictionary
281
     1
  3
Normal
350
F
100
AcDbDictionaryWithDefault
340
F
  0
LAYOUT
  5
1E
102
{ACAD_REACTORS
330
1A
102
}
330
1A
100
AcDbPlotSettings
  1

  2
none_device
  4

  6

 40
0.0
 41
0.0
 42
0.0
 43
0.0
 44
0.0
 45
0.0
 46
0.0
 47
0.0
 48
0.0
 49
0.0
140
0.0
141
0.0
142
1.0
143
1.0
 70
   688
 72
     0
 73
     0
 74
     5
  7

 75
    16
147
1.0
148
0.0
149
0.0
100
AcDbLayout
  1
Layout1
 70
     1
 71
     1
 10
0.0
 20
0.0
 11
420.0
 21
297.0
 12
0.0
 22
0.0
 32
0.0
 14
1.0000000000E+20
 24
1.0000000000E+20
 34
1.0000000000E+20
 15
-1.0000000000E+20
 25
-1.0000000000E+20
 35
-1.0000000000E+20
146
0.0
 13
0.0
 23
0.0
 33
0.0
 16
1.0
 26
0.0
 36
0.0
 17
0.0
 27
1.0
 37
0.0
 76
     0
330
1B
  0
LAYOUT
  5
26
102
{ACAD_REACTORS
330
1A
102
}
330
1A
100
AcDbPlotSettings
  1

  2
none_device
  4

  6

 40
0.0
 41
0.0
 42
0.0
 43
0.0
 44
0.0
 45
0.0
 46
0.0
 47
0.0
 48
0.0
 49
0.0
140
0.0
141
0.0
142
1.0
143
1.0
 70
   688
 72
     0
 73
     0
 74
     5
  7

 75
    16
147
1.0
148
0.0
149
0.0
100
AcDbLayout
  1
Layout2
 70
     1
 71
     2
 10
0.0
 20
0.0
 11
0.0
 21
0.0
 12
0.0
 22
0.0
 32
0.0
 14
0.0
 24
0.0
 34
0.0
 15
0.0
 25
0.0
 35
0.0
146
0.0
 13
0.0
 23
0.0
 33
0.0
 16
1.0
 26
0.0
 36
0.0
 17
0.0
 27
1.0
 37
0.0
 76
     0
330
23
  0
LAYOUT
  5
22
102
{ACAD_REACTORS
330
1A
102
}
330
1A
100
AcDbPlotSettings
  1

  2
none_device
  4

  6

 40
0.0
 41
0.0
 42
0.0
 43
0.0
 44
0.0
 45
0.0
 46
0.0
 47
0.0
 48
0.0
 49
0.0
140
0.0
141
0.0
142
1.0
143
1.0
 70
  1712
 72
     0
 73
     0
 74
     0
  7

 75
     0
147
1.0
148
0.0
149
0.0
100
AcDbLayout
  1
Model
 70
     1
 71
     0
 10
0.0
 20
0.0
 11
297.0
 21
210.0
 12
0.0
 22
0.0
 32
0.0
 14
0.0
 24
0.0
 34
0.0
 15
297.0
 25
210.0
 35
0.0
146
0.0
 13
0.0
 23
0.0
 33
0.0
 16
1.0
 26
0.0
 36
0.0
 17
0.0
 27
1.0
 37
0.0
 76
     0
330
1F
331
29
  0
MLINESTYLE
  5
18
102
{ACAD_REACTORS
330
17
102
}
330
17
100
AcDbMlineStyle
  2
Standard
 70
     0
  3

 62
   256
 51
90.0
 52
90.0
 71
     2
 49
0.5
 62
   256
  6
BYLAYER
 49
-0.5
 62
   256
  6
BYLAYER
  0
ACDBPLACEHOLDER
  5
F
102
{ACAD_REACTORS
330
E
102
}
330
E
  0
ENDSEC
  0
EOF
