  0
SECTION
  2
HEADER
  9
$ACADVER
  1
AC1015
  9
$ACADMAINTVER
 70
     6
  9
$DWGCODEPAGE
  3
ANSI_1252
  9
$INSBASE
 10
0.0
 20
0.0
 30
0.0
  9
$EXTMIN
 10
0.0
 20
0.0
 30
0.0
  9
$EXTMAX
 10
297.0
 20
210.0
 30
0.0
  9
$LIMMIN
 10
0.0
 20
0.0
  9
$LIMMAX
 10
297.0
 20
210.0
  9
$ORTHOMODE
 70
     0
  9
$REGENMODE
 70
     1
  9
$FILLMODE
 70
     1
  9
$QTEXTMODE
 70
     0
  9
$MIRRTEXT
 70
     1
  9
$LTSCALE
 40
1.0
  9
$ATTMODE
 70
     1
  9
$TEXTSIZE
 40
2.0
  9
$TRACEWID
 40
1.0
  9
$TEXTSTYLE
  7
Standard
  9
$CLAYER
  8
0
  9
$CELTYPE
  6
ByLayer
  9
$CECOLOR
 62
   256
  9
$CELTSCALE
 40
1.0
  9
$DISPSILH
 70
     0
  9
$DIMSCALE
 40
1.0
  9
$DIMASZ
 40
3.0
  9
$DIMEXO
 40
0.0
  9
$DIMDLI
 40
3.75
  9
$DIMRND
 40
0.0
  9
$DIMDLE
 40
0.0
  9
$DIMEXE
 40
1.0
  9
$DIMTP
 40
0.0
  9
$DIMTM
 40
0.0
  9
$DIMTXT
 40
2.0
  9
$DIMCEN
 40
2.5
  9
$DIMTSZ
 40
0.0
  9
$DIMTOL
 70
     0
  9
$DIMLIM
 70
     0
  9
$DIMTIH
 70
     1
  9
$DIMTOH
 70
     1
  9
$DIMSE1
 70
     0
  9
$DIMSE2
 70
     0
  9
$DIMTAD
 70
     1
  9
$DIMZIN
 70
     0
  9
$DIMBLK
  1

  9
$DIMASO
 70
     1
  9
$DIMSHO
 70
     1
  9
$DIMPOST
  1

  9
$DIMAPOST
  1

  9
$DIMALT
 70
     0
  9
$DIMALTD
 70
     3
  9
$DIMALTF
 40
0.0393700787
  9
$DIMLFAC
 40
1.0
  9
$DIMTOFL
 70
     1
  9
$DIMTVP
 40
0.0
  9
$DIMTIX
 70
     0
  9
$DIMSOXD
 70
     0
  9
$DIMSAH
 70
     0
  9
$DIMBLK1
  1

  9
$DIMBLK2
  1

  9
$DIMSTYLE
  2
ISO-25
  9
$DIMCLRD
 70
     0
  9
$DIMCLRE
 70
     0
  9
$DIMCLRT
 70
     0
  9
$DIMTFAC
 40
1.0
  9
$DIMGAP
 40
1.524
  9
$DIMJUST
 70
     0
  9
$DIMSD1
 70
     0
  9
$DIMSD2
 70
     0
  9
$DIMTOLJ
 70
     0
  9
$DIMTZIN
 70
     0
  9
$DIMALTZ
 70
     0
  9
$DIMALTTZ
 70
     0
  9
$DIMUPT
 70
     0
  9
$DIMDEC
 70
     2
  9
$DIMTDEC
 70
     3
  9
$DIMALTU
 70
     2
  9
$DIMALTTD
 70
     3
  9
$DIMTXSTY
  7
Standard
  9
$DIMAUNIT
 70
     0
  9
$DIMADEC
 70
     2
  9
$DIMALTRND
 40
0.0
  9
$DIMAZIN
 70
     0
  9
$DIMDSEP
 70
    44
  9
$DIMATFIT
 70
     3
  9
$DIMFRAC
 70
     0
  9
$DIMLDRBLK
  1

  9
$DIMLUNIT
 70
     2
  9
$DIMLWD
 70
    -2
  9
$DIMLWE
 70
    -2
  9
$DIMTMOVE
 70
     0
  9
$LUNITS
 70
     2
  9
$LUPREC
 70
     2
  9
$SKETCHINC
 40
1.0
  9
$FILLETRAD
 40
10.0
  9
$AUNITS
 70
     0
  9
$AUPREC
 70
     2
  9
$MENU
  1
.
  9
$ELEVATION
 40
0.0
  9
$PELEVATION
 40
0.0
  9
$THICKNESS
 40
0.0
  9
$LIMCHECK
 70
     0
  9
$CHAMFERA
 40
10.0
  9
$CHAMFERB
 40
10.0
  9
$CHAMFERC
 40
20.0
  9
$CHAMFERD
 40
0.0
  9
$SKPOLY
 70
     0
  9
$TDCREATE
 40
2456050.617363171
  9
$TDUCREATE
 40
2456050.534029838
  9
$TDUPDATE
 40
2456050.61736515
  9
$TDUUPDATE
 40
2456050.534031817
  9
$TDINDWG
 40
0.0000000116
  9
$TDUSRTIMER
 40
0.0000000116
  9
$USRTIMER
 70
     1
  9
$ANGBASE
 50
0.0
  9
$ANGDIR
 70
     0
  9
$PDMODE
 70
     0
  9
$PDSIZE
 40
-1.0
  9
$PLINEWID
 40
0.0
  9
$SPLFRAME
 70
     0
  9
$SPLINETYPE
 70
     6
  9
$SPLINESEGS
 70
     8
  9
$HANDSEED
  5
285
  9
$SURFTAB1
 70
     6
  9
$SURFTAB2
 70
     6
  9
$SURFTYPE
 70
     6
  9
$SURFU
 70
     6
  9
$SURFV
 70
     6
  9
$UCSBASE
  2

  9
$UCSNAME
  2

  9
$UCSORG
 10
0.0
 20
0.0
 30
0.0
  9
$UCSXDIR
 10
1.0
 20
0.0
 30
0.0
  9
$UCSYDIR
 10
0.0
 20
1.0
 30
0.0
  9
$UCSORTHOREF
  2

  9
$UCSORTHOVIEW
 70
     0
  9
$UCSORGTOP
 10
0.0
 20
0.0
 30
0.0
  9
$UCSORGBOTTOM
 10
0.0
 20
0.0
 30
0.0
  9
$UCSORGLEFT
 10
0.0
 20
0.0
 30
0.0
  9
$UCSORGRIGHT
 10
0.0
 20
0.0
 30
0.0
  9
$UCSORGFRONT
 10
0.0
 20
0.0
 30
0.0
  9
$UCSORGBACK
 10
0.0
 20
0.0
 30
0.0
  9
$PUCSBASE
  2

  9
$PUCSNAME
  2

  9
$PUCSORG
 10
0.0
 20
0.0
 30
0.0
  9
$PUCSXDIR
 10
1.0
 20
0.0
 30
0.0
  9
$PUCSYDIR
 10
0.0
 20
1.0
 30
0.0
  9
$PUCSORTHOREF
  2

  9
$PUCSORTHOVIEW
 70
     0
  9
$PUCSORGTOP
 10
0.0
 20
0.0
 30
0.0
  9
$PUCSORGBOTTOM
 10
0.0
 20
0.0
 30
0.0
  9
$PUCSORGLEFT
 10
0.0
 20
0.0
 30
0.0
  9
$PUCSORGRIGHT
 10
0.0
 20
0.0
 30
0.0
  9
$PUCSORGFRONT
 10
0.0
 20
0.0
 30
0.0
  9
$PUCSORGBACK
 10
0.0
 20
0.0
 30
0.0
  9
$USERI1
 70
     0
  9
$USERI2
 70
     0
  9
$USERI3
 70
     0
  9
$USERI4
 70
     0
  9
$USERI5
 70
     0
  9
$USERR1
 40
0.0
  9
$USERR2
 40
0.0
  9
$USERR3
 40
0.0
  9
$USERR4
 40
0.0
  9
$USERR5
 40
0.0
  9
$WORLDVIEW
 70
     1
  9
$SHADEDGE
 70
     3
  9
$SHADEDIF
 70
    70
  9
$TILEMODE
 70
     1
  9
$MAXACTVP
 70
    64
  9
$PINSBASE
 10
0.0
 20
0.0
 30
0.0
  9
$PLIMCHECK
 70
     0
  9
$PEXTMIN
 10
1.0000000000E+20
 20
1.0000000000E+20
 30
1.0000000000E+20
  9
$PEXTMAX
 10
-1.0000000000E+20
 20
-1.0000000000E+20
 30
-1.0000000000E+20
  9
$PLIMMIN
 10
0.0
 20
0.0
  9
$PLIMMAX
 10
420.0
 20
297.0
  9
$UNITMODE
 70
     0
  9
$VISRETAIN
 70
     1
  9
$PLINEGEN
 70
     0
  9
$PSLTSCALE
 70
     1
  9
$TREEDEPTH
 70
  3020
  9
$CMLSTYLE
  2
Standard
  9
$CMLJUST
 70
     0
  9
$CMLSCALE
 40
20.0
  9
$PROXYGRAPHICS
 70
     1
  9
$MEASUREMENT
 70
     1
  9
$CELWEIGHT
370
    -1
  9
$ENDCAPS
280
     0
  9
$JOINSTYLE
280
     0
  9
$LWDISPLAY
290
     1
  9
$INSUNITS
 70
     4
  9
$HYPERLINKBASE
  1

  9
$STYLESHEET
  1

  9
$XEDIT
290
     1
  9
$CEPSNTYPE
380
     0
  9
$PSTYLEMODE
290
     1
  9
$FINGERPRINTGUID
  2
{78D6B8AA-6A11-4D15-9467-DB71446DCA81}
  9
$VERSIONGUID
  2
{FAEB1C32-E019-11D5-929B-00C0DF256EC4}
  9
$EXTNAMES
290
     1
  9
$PSVPSCALE
 40
0.0
  9
$OLESTARTUP
290
     0
  0
ENDSEC
  0
SECTION
  2
CLASSES
  0
CLASS
  1
ACDBDICTIONARYWDFLT
  2
AcDbDictionaryWithDefault
  3
ObjectDBX Classes
 90
        0
280
     0
281
     0
  0
CLASS
  1
VISUALSTYLE
  2
AcDbVisualStyle
  3
ObjectDBX Classes
 90
     4095
280
     0
281
     0
  0
CLASS
  1
MATERIAL
  2
AcDbMaterial
  3
ObjectDBX Classes
 90
     1153
280
     0
281
     0
  0
CLASS
  1
ACDBPLACEHOLDER
  2
AcDbPlaceHolder
  3
ObjectDBX Classes
 90
        0
280
     0
281
     0
  0
CLASS
  1
LAYOUT
  2
AcDbLayout
  3
ObjectDBX Classes
 90
        0
280
     0
281
     0
  0
ENDSEC
  0
SECTION
  2
TABLES
  0
TABLE
  2
VPORT
  5
8
330
0
100
AcDbSymbolTable
 70
     1
  0
VPORT
  5
29
330
8
100
AcDbSymbolTableRecord
100
AcDbViewportTableRecord
  2
*Active
 70
     0
 10
0.0
 20
0.0
 11
1.0
 21
1.0
 12
148.5
 22
105.0
 13
0.0
 23
0.0
 14
10.0
 24
10.0
 15
10.0
 25
10.0
 16
0.0
 26
0.0
 36
1.0
 17
0.0
 27
0.0
 37
0.0
 40
210.0
 41
1.4142857143
 42
50.0
 43
0.0
 44
0.0
 50
0.0
 51
0.0
 71
     0
 72
  2000
 73
     1
 74
     3
 75
     0
 76
     0
 77
     0
 78
     0
281
     0
 65
     1
110
0.0
120
0.0
130
0.0
111
1.0
121
0.0
131
0.0
112
0.0
122
1.0
132
0.0
 79
     0
146
0.0
  0
ENDTAB
  0
TABLE
  2
LTYPE
  5
5
330
0
100
AcDbSymbolTable
 70
     6
  0
LTYPE
  5
14
330
5
100
AcDbSymbolTableRecord
100
AcDbLinetypeTableRecord
  2
ByBlock
 70
     0
  3

 72
    65
 73
     0
 40
0.0
  0
LTYPE
  5
15
330
5
100
AcDbSymbolTableRecord
100
AcDbLinetypeTableRecord
  2
ByLayer
 70
     0
  3

 72
    65
 73
     0
 40
0.0
  0
LTYPE
  5
16
330
5
100
AcDbSymbolTableRecord
100
AcDbLinetypeTableRecord
  2
Continuous
 70
     0
  3
Solid line
 72
    65
 73
     0
 40
0.0
  0
LTYPE
  5
3F
330
5
100
AcDbSymbolTableRecord
100
AcDbLinetypeTableRecord
  2
HIDDEN
 70
     0
  3
Hidden __ __ __ __ __ __ __ __ __ __ __ __ __ __
 72
    65
 73
     2
 40
1.905
 49
1.27
 74
     0
 49
-0.635
 74
     0
  0
LTYPE
  5
40
330
5
100
AcDbSymbolTableRecord
100
AcDbLinetypeTableRecord
  2
PHANTOM
 70
     0
  3
Phantom ______  __  __  ______  __  __  ______
 72
    65
 73
     6
 40
12.7
 49
6.35
 74
     0
 49
-1.27
 74
     0
 49
1.27
 74
     0
 49
-1.27
 74
     0
 49
1.27
 74
     0
 49
-1.27
 74
     0
  0
LTYPE
  5
41
330
5
100
AcDbSymbolTableRecord
100
AcDbLinetypeTableRecord
  2
CENTER
 70
     0
  3
Center ____ _ ____ _ ____ _ ____ _ ____ _ ____
 72
    65
 73
     4
 40
10.16
 49
6.35
 74
     0
 49
-1.27
 74
     0
 49
1.27
 74
     0
 49
-1.27
 74
     0
  0
LTYPE
  5
42
330
5
100
AcDbSymbolTableRecord
100
AcDbLinetypeTableRecord
  2
CENTERX2
 70
     0
  3
Center (2x) ________  __  ________  __  _____
 72
    65
 73
     4
 40
20.32
 49
12.7
 74
     0
 49
-2.54
 74
     0
 49
2.54
 74
     0
 49
-2.54
 74
     0
  0
LTYPE
  5
43
330
5
100
AcDbSymbolTableRecord
100
AcDbLinetypeTableRecord
  2
DOT2
 70
     0
  3
Dot (.5x) ........................................
 72
    65
 73
     2
 40
0.635
 49
0.0
 74
     0
 49
-0.635
 74
     0
  0
ENDTAB
  0
TABLE
  2
LAYER
  5
2
330
0
100
AcDbSymbolTable
 70
     5
  0
LAYER
  5
10
330
2
100
AcDbSymbolTableRecord
100
AcDbLayerTableRecord
  2
0
 70
     0
 62
     7
  6
Continuous
370
    -3
390
F
  0
LAYER
  5
44
330
2
100
AcDbSymbolTableRecord
100
AcDbLayerTableRecord
  2
FORMAT
 70
     0
 62
     7
  6
Continuous
370
    -3
390
F
  0
LAYER
  5
45
330
2
100
AcDbSymbolTableRecord
100
AcDbLayerTableRecord
  2
VERMASSUNG
 70
     0
 62
     7
  6
Continuous
370
    -3
390
F
  0
LAYER
  5
46
330
2
100
AcDbSymbolTableRecord
100
AcDbLayerTableRecord
  2
KOPF_DÜNN
 70
     0
 62
     7
  6
Continuous
370
    -3
390
F
  0
LAYER
  5
47
330
2
100
AcDbSymbolTableRecord
100
AcDbLayerTableRecord
  2
KOPF_DICK
 70
     0
 62
     7
  6
Continuous
370
    15
390
F
  0
ENDTAB
  0
TABLE
  2
STYLE
  5
3
330
0
100
AcDbSymbolTable
 70
     2
  0
STYLE
  5
11
330
3
100
AcDbSymbolTableRecord
100
AcDbTextStyleTableRecord
  2
Standard
 70
     0
 40
0.0
 41
1.0
 50
0.0
 71
     0
 42
2.0
  3
txt
  4

  0
STYLE
  5
48
330
3
100
AcDbSymbolTableRecord
100
AcDbTextStyleTableRecord
  2
SLDTEXTSTYLE0
 70
     0
 40
0.0
 41
0.7
 50
0.0
 71
     0
 42
0.2
  3
TXT
  4

  0
ENDTAB
  0
TABLE
  2
VIEW
  5
6
330
0
100
AcDbSymbolTable
 70
     0
  0
ENDTAB
  0
TABLE
  2
UCS
  5
7
330
0
100
AcDbSymbolTable
 70
     0
  0
ENDTAB
  0
TABLE
  2
APPID
  5
9
330
0
100
AcDbSymbolTable
 70
     1
  0
APPID
  5
12
330
9
100
AcDbSymbolTableRecord
100
AcDbRegAppTableRecord
  2
ACAD
 70
     0
  0
ENDTAB
  0
TABLE
  2
DIMSTYLE
  5
A
330
0
100
AcDbSymbolTable
 70
     5
100
AcDbDimStyleTable
  0
DIMSTYLE
105
27
330
A
100
AcDbSymbolTableRecord
100
AcDbDimStyleTableRecord
  2
ISO-25
 70
     0
 41
2.5
 42
0.625
 43
3.75
 44
1.25
 73
     0
 74
     0
 77
     1
 78
     8
140
2.5
141
2.5
143
0.0393700787
147
0.625
171
     3
172
     1
178
     0
271
     2
272
     2
274
     3
278
    44
283
     0
284
     8
340
11
  0
DIMSTYLE
105
1C8
102
{ACAD_REACTORS
330
1C7
330
1DF
102
}
330
A
100
AcDbSymbolTableRecord
100
AcDbDimStyleTableRecord
  2
SLDDIMSTYLE0
 70
     0
 41
3.0
 44
0.0
 45
0.000000001
 47
0.1
 48
0.1
 71
     1
 73
     0
 74
     0
 77
     1
 78
    12
 79
     3
140
2.0
147
0.5
173
     1
178
     0
271
     2
272
     1
276
     2
284
     8
340
48
  0
DIMSTYLE
105
1D5
102
{ACAD_REACTORS
330
1D4
330
1F5
102
}
330
A
100
AcDbSymbolTableRecord
100
AcDbDimStyleTableRecord
  2
SLDDIMSTYLE1
 70
     0
 41
3.0
 44
0.0
 45
0.000000001
 73
     0
 74
     0
 77
     1
 78
    12
 79
     3
140
2.0
147
0.5
173
     1
178
     0
271
     2
272
     3
276
     2
284
    12
340
48
  0
DIMSTYLE
105
1EC
102
{ACAD_REACTORS
330
1EB
102
}
330
A
100
AcDbSymbolTableRecord
100
AcDbDimStyleTableRecord
  2
SLDDIMSTYLE2
 70
     0
 41
3.0
 44
0.0
 73
     0
 74
     0
 77
     1
 78
    12
 79
     3
140
2.0
147
0.5
173
     1
178
     0
179
     2
272
     3
276
     2
284
    12
340
48
  0
DIMSTYLE
105
26A
102
{ACAD_REACTORS
330
269
102
}
330
A
100
AcDbSymbolTableRecord
100
AcDbDimStyleTableRecord
  2
SLDDIMSTYLE3
 70
     0
 41
3.0
 44
0.0
 45
0.000000001
 73
     0
 74
     0
 77
     1
 78
    12
 79
     3
140
2.0
147
0.5
172
     1
173
     1
178
     0
271
     2
272
     3
276
     2
284
    12
289
     0
340
48
  0
ENDTAB
  0
TABLE
  2
BLOCK_RECORD
  5
1
330
0
100
AcDbSymbolTable
 70
     8
  0
BLOCK_RECORD
  5
1F
330
1
100
AcDbSymbolTableRecord
100
AcDbBlockTableRecord
  2
*Model_Space
340
22
  0
BLOCK_RECORD
  5
1B
330
1
100
AcDbSymbolTableRecord
100
AcDbBlockTableRecord
  2
*Paper_Space
340
1E
  0
BLOCK_RECORD
  5
23
330
1
100
AcDbSymbolTableRecord
100
AcDbBlockTableRecord
  2
*Paper_Space0
340
26
  0
BLOCK_RECORD
  5
1C9
330
1
100
AcDbSymbolTableRecord
100
AcDbBlockTableRecord
  2
_D
340
0
  0
BLOCK_RECORD
  5
1D6
330
1
100
AcDbSymbolTableRecord
100
AcDbBlockTableRecord
  2
_D_1
340
0
  0
BLOCK_RECORD
  5
1E0
330
1
100
AcDbSymbolTableRecord
100
AcDbBlockTableRecord
  2
_D_2
340
0
  0
BLOCK_RECORD
  5
1ED
330
1
100
AcDbSymbolTableRecord
100
AcDbBlockTableRecord
  2
_D_3
340
0
  0
BLOCK_RECORD
  5
1F6
330
1
100
AcDbSymbolTableRecord
100
AcDbBlockTableRecord
  2
_D_4
340
0
  0
BLOCK_RECORD
  5
26B
330
1
100
AcDbSymbolTableRecord
100
AcDbBlockTableRecord
  2
_D_5
340
0
  0
BLOCK_RECORD
  5
278
330
1
100
AcDbSymbolTableRecord
100
AcDbBlockTableRecord
  2
SW_CENTERMARKSYMBOL_0
340
0
102
{BLKREFS
331
283
102
}
  0
ENDTAB
  0
ENDSEC
  0
SECTION
  2
BLOCKS
  0
BLOCK
  5
20
330
1F
100
AcDbEntity
  8
0
100
AcDbBlockBegin
  2
*Model_Space
 70
     0
 10
0.0
 20
0.0
 30
0.0
  3
*Model_Space
  1

  0
ENDBLK
  5
21
330
1F
100
AcDbEntity
  8
0
100
AcDbBlockEnd
  0
BLOCK
  5
1C
330
1B
100
AcDbEntity
 67
     1
  8
0
100
AcDbBlockBegin
  2
*Paper_Space
 70
     0
 10
0.0
 20
0.0
 30
0.0
  3
*Paper_Space
  1

  0
ENDBLK
  5
1D
330
1B
100
AcDbEntity
 67
     1
  8
0
100
AcDbBlockEnd
  0
BLOCK
  5
24
330
23
100
AcDbEntity
  8
0
100
AcDbBlockBegin
  2
*Paper_Space0
 70
     0
 10
0.0
 20
0.0
 30
0.0
  3
*Paper_Space0
  1

  0
ENDBLK
  5
25
330
23
100
AcDbEntity
  8
0
100
AcDbBlockEnd
  0
BLOCK
  5
1CA
330
1C9
100
AcDbEntity
  8
0
100
AcDbBlockBegin
  2
_D
 70
     0
 10
0.0
 20
0.0
 30
0.0
  3
_D
  1

  0
SOLID
  5
1CC
330
1C9
100
AcDbEntity
  8
VERMASSUNG
100
AcDbTrace
 10
229.5204705163
 20
83.293101085
 30
0.0
 11
226.5204705163
 21
83.743101085
 31
0.0
 12
226.5204705163
 22
82.843101085
 32
0.0
 13
226.5204705163
 23
82.843101085
 33
0.0
  0
SOLID
  5
1CD
330
1C9
100
AcDbEntity
  8
VERMASSUNG
100
AcDbTrace
 10
179.5204705163
 20
83.293101085
 30
0.0
 11
182.5204705163
 21
82.843101085
 31
0.0
 12
182.5204705163
 22
83.743101085
 32
0.0
 13
182.5204705163
 23
83.743101085
 33
0.0
  0
LINE
  5
1CE
330
1C9
100
AcDbEntity
  8
VERMASSUNG
100
AcDbLine
 10
229.5204705163
 20
99.5011012689
 30
0.0
 11
229.5204705163
 21
82.293101085
 31
0.0
  0
LINE
  5
1CF
330
1C9
100
AcDbEntity
  8
VERMASSUNG
100
AcDbLine
 10
179.5204705163
 20
106.8011012689
 30
0.0
 11
179.5204705163
 21
82.293101085
 31
0.0
  0
LINE
  5
1D0
330
1C9
100
AcDbEntity
  8
VERMASSUNG
100
AcDbLine
 10
229.5204705163
 20
83.293101085
 30
0.0
 11
179.5204705163
 21
83.293101085
 31
0.0
  0
MTEXT
  5
1D1
330
1C9
100
AcDbEntity
  8
VERMASSUNG
100
AcDbMText
 10
199.9704703293
 20
85.8712364481
 30
0.1
 40
2.0
 41
0.0
 71
     1
 72
     1
  1
50
  7
SLDTEXTSTYLE0
 73
     1
 44
1.0
  0
MTEXT
  5
1D2
330
1C9
100
AcDbEntity
  8
VERMASSUNG
100
AcDbMText
 10
205.7579704313
 20
85.8712364481
 30
0.1
 40
2.0
 41
0.0
 71
     1
 72
     1
  1

  7
SLDTEXTSTYLE0
 73
     1
 44
1.0
  0
MTEXT
  5
1D3
330
1C9
100
AcDbEntity
  8
VERMASSUNG
100
AcDbMText
 10
205.7704707212
 20
85.3767025854
 30
0.1
 40
1.5
 41
0.0
 71
     1
 72
     1
  1
±0.1
  7
SLDTEXTSTYLE0
 73
     1
 44
1.0
  0
ENDBLK
  5
1CB
330
1C9
100
AcDbEntity
  8
0
100
AcDbBlockEnd
  0
BLOCK
  5
1D7
330
1D6
100
AcDbEntity
  8
0
100
AcDbBlockBegin
  2
_D_1
 70
     0
 10
0.0
 20
0.0
 30
0.0
  3
_D_1
  1

  0
SOLID
  5
1D9
330
1D6
100
AcDbEntity
  8
VERMASSUNG
100
AcDbTrace
 10
229.5204705163
 20
77.293101085
 30
0.0
 11
226.5204705163
 21
77.743101085
 31
0.0
 12
226.5204705163
 22
76.843101085
 32
0.0
 13
226.5204705163
 23
76.843101085
 33
0.0
  0
SOLID
  5
1DA
330
1D6
100
AcDbEntity
  8
VERMASSUNG
100
AcDbTrace
 10
155.5204705163
 20
77.293101085
 30
0.0
 11
158.5204705163
 21
76.843101085
 31
0.0
 12
158.5204705163
 22
77.743101085
 32
0.0
 13
158.5204705163
 23
77.743101085
 33
0.0
  0
LINE
  5
1DB
330
1D6
100
AcDbEntity
  8
VERMASSUNG
100
AcDbLine
 10
229.5204705163
 20
99.5011012689
 30
0.0
 11
229.5204705163
 21
76.293101085
 31
0.0
  0
LINE
  5
1DC
330
1D6
100
AcDbEntity
  8
VERMASSUNG
100
AcDbLine
 10
155.5204705163
 20
113.8695962868
 30
0.0
 11
155.5204705163
 21
76.293101085
 31
0.0
  0
LINE
  5
1DD
330
1D6
100
AcDbEntity
  8
VERMASSUNG
100
AcDbLine
 10
229.5204705163
 20
77.293101085
 30
0.0
 11
155.5204705163
 21
77.293101085
 31
0.0
  0
MTEXT
  5
1DE
330
1D6
100
AcDbEntity
  8
VERMASSUNG
100
AcDbMText
 10
190.1204704023
 20
79.8712364481
 30
0.1
 40
2.0
 41
0.0
 71
     1
 72
     1
  1
74
  7
SLDTEXTSTYLE0
 73
     1
 44
1.0
  0
ENDBLK
  5
1D8
330
1D6
100
AcDbEntity
  8
0
100
AcDbBlockEnd
  0
BLOCK
  5
1E1
330
1E0
100
AcDbEntity
  8
0
100
AcDbBlockBegin
  2
_D_2
 70
     0
 10
0.0
 20
0.0
 30
0.0
  3
_D_2
  1

  0
SOLID
  5
1E3
330
1E0
100
AcDbEntity
  8
VERMASSUNG
100
AcDbTrace
 10
241.1739740377
 20
99.5011012689
 30
0.0
 11
241.6239740377
 21
102.5011012689
 31
0.0
 12
240.7239740377
 22
102.5011012689
 32
0.0
 13
240.7239740377
 23
102.5011012689
 33
0.0
  0
SOLID
  5
1E4
330
1E0
100
AcDbEntity
  8
VERMASSUNG
100
AcDbTrace
 10
241.1739740377
 20
126.5011012689
 30
0.0
 11
240.7239740377
 21
123.5011012689
 31
0.0
 12
241.6239740377
 22
123.5011012689
 32
0.0
 13
241.6239740377
 23
123.5011012689
 33
0.0
  0
LINE
  5
1E5
330
1E0
100
AcDbEntity
  8
VERMASSUNG
100
AcDbLine
 10
229.5204705163
 20
99.5011012689
 30
0.0
 11
242.1739740377
 21
99.5011012689
 31
0.0
  0
LINE
  5
1E6
330
1E0
100
AcDbEntity
  8
VERMASSUNG
100
AcDbLine
 10
229.5204705163
 20
126.5011012689
 30
0.0
 11
242.1739740377
 21
126.5011012689
 31
0.0
  0
LINE
  5
1E7
330
1E0
100
AcDbEntity
  8
VERMASSUNG
100
AcDbLine
 10
241.1739740377
 20
99.5011012689
 30
0.0
 11
241.1739740377
 21
126.5011012689
 31
0.0
  0
MTEXT
  5
1E8
330
1E0
100
AcDbEntity
  8
VERMASSUNG
100
AcDbMText
 10
238.5958386746
 20
108.4511010818
 30
0.1
 40
2.0
 41
0.0
 71
     1
 72
     1
  1
27
  7
SLDTEXTSTYLE0
 11
6.123233995736766E-17
 21
1.0
 31
0.0
 73
     1
 44
1.0
  0
MTEXT
  5
1E9
330
1E0
100
AcDbEntity
  8
VERMASSUNG
100
AcDbMText
 10
238.5958386746
 20
114.2386011839
 30
0.1
 40
2.0
 41
0.0
 71
     1
 72
     1
  1

  7
SLDTEXTSTYLE0
 11
6.123233995736766E-17
 21
1.0
 31
0.0
 73
     1
 44
1.0
  0
MTEXT
  5
1EA
330
1E0
100
AcDbEntity
  8
VERMASSUNG
100
AcDbMText
 10
239.0903725373
 20
114.2511014737
 30
0.1
 40
1.5
 41
0.0
 71
     1
 72
     1
  1
±0.1
  7
SLDTEXTSTYLE0
 11
6.123233995736766E-17
 21
1.0
 31
0.0
 73
     1
 44
1.0
  0
ENDBLK
  5
1E2
330
1E0
100
AcDbEntity
  8
0
100
AcDbBlockEnd
  0
BLOCK
  5
1EE
330
1ED
100
AcDbEntity
  8
0
100
AcDbBlockBegin
  2
_D_3
 70
     0
 10
0.0
 20
0.0
 30
0.0
  3
_D_3
  1

  0
ARC
  5
1F0
330
1ED
100
AcDbEntity
  8
VERMASSUNG
100
AcDbCircle
 10
229.5204705163
 20
99.2445041517
 30
0.0
 40
10.0688557208499
100
AcDbArc
 50
152.7203307484
 51
270.0
  0
SOLID
  5
1F1
330
1ED
100
AcDbEntity
  8
VERMASSUNG
100
AcDbTrace
 10
220.5714737017
 20
103.8594051842
 30
0.0
 11
219.1700372685
 21
101.1689635989
 31
0.0
 12
220.0210857918
 22
100.8761899475
 32
0.0
 13
220.0210857918
 23
100.8761899475
 33
0.0
  0
SOLID
  5
1F2
330
1ED
100
AcDbEntity
  8
VERMASSUNG
100
AcDbTrace
 10
229.5204705163
 20
89.1756484308
 30
0.0
 11
226.6167870993
 21
90.0537843053
 31
0.0
 12
226.4869337902
 22
89.1632012839
 32
0.0
 13
226.4869337902
 23
89.1632012839
 33
0.0
  0
LINE
  5
1F3
330
1ED
100
AcDbEntity
  8
VERMASSUNG
100
AcDbLine
 10
229.5204705163
 20
91.4664530353
 30
0.0
 11
229.5204705163
 21
88.1756484308
 31
0.0
  0
MTEXT
  5
1F4
330
1ED
100
AcDbEntity
  8
VERMASSUNG
100
AcDbMText
 10
220.9383009154
 20
98.9326465545
 30
0.1
 40
2.0
 41
0.0
 71
     1
 72
     1
  1
117.5°
  7
SLDTEXTSTYLE0
 11
0.5204160787235361
 21
-0.853912820495171
 31
0.0
 73
     1
 44
1.0
  0
ENDBLK
  5
1EF
330
1ED
100
AcDbEntity
  8
0
100
AcDbBlockEnd
  0
BLOCK
  5
1F7
330
1F6
100
AcDbEntity
  8
0
100
AcDbBlockBegin
  2
_D_4
 70
     0
 10
0.0
 20
0.0
 30
0.0
  3
_D_4
  1

  0
SOLID
  5
1F9
330
1F6
100
AcDbEntity
  8
VERMASSUNG
100
AcDbTrace
 10
145.5204205163
 20
146.5011012689
 30
0.0
 11
145.0704205163
 21
143.5011012689
 31
0.0
 12
145.9704205163
 22
143.5011012689
 32
0.0
 13
145.9704205163
 23
143.5011012689
 33
0.0
  0
SOLID
  5
1FA
330
1F6
100
AcDbEntity
  8
VERMASSUNG
100
AcDbTrace
 10
145.5204205163
 20
106.5011012689
 30
0.0
 11
145.9704205163
 21
109.5011012689
 31
0.0
 12
145.0704205163
 22
109.5011012689
 32
0.0
 13
145.0704205163
 23
109.5011012689
 33
0.0
  0
LINE
  5
1FB
330
1F6
100
AcDbEntity
  8
VERMASSUNG
100
AcDbLine
 10
179.8204705163
 20
146.5011012689
 30
0.0
 11
144.5204205163
 21
146.5011012689
 31
0.0
  0
LINE
  5
1FC
330
1F6
100
AcDbEntity
  8
VERMASSUNG
100
AcDbLine
 10
179.8204705163
 20
106.5011012689
 30
0.0
 11
144.5204205163
 21
106.5011012689
 31
0.0
  0
LINE
  5
1FD
330
1F6
100
AcDbEntity
  8
VERMASSUNG
100
AcDbLine
 10
145.5204205163
 20
146.5011012689
 30
0.0
 11
145.5204205163
 21
106.5011012689
 31
0.0
  0
MTEXT
  5
1FE
330
1F6
100
AcDbEntity
  8
VERMASSUNG
100
AcDbMText
 10
142.7422850272
 20
119.9961013295
 30
0.35
 40
2.0
 41
0.0
 71
     1
 72
     1
  1
PSC
  7
SLDTEXTSTYLE0
 11
-7.044195017643634E-15
 21
1.0
 31
0.0
 73
     1
 44
1.0
  0
MTEXT
  5
1FF
330
1F6
100
AcDbEntity
  8
VERMASSUNG
100
AcDbMText
 10
142.9422850367
 20
124.5961014316
 30
0.35
 40
2.0
 41
0.0
 71
     1
 72
     1
  1
%%c
  7
SLDTEXTSTYLE0
 11
-7.044195017643634E-15
 21
1.0
 31
0.0
 73
     1
 44
1.0
  0
MTEXT
  5
200
330
1F6
100
AcDbEntity
  8
VERMASSUNG
100
AcDbMText
 10
142.7422850272
 20
128.2061019115
 30
0.35
 40
2.0
 41
0.0
 71
     1
 72
     1
  1
40
  7
SLDTEXTSTYLE0
 11
-7.044195017643634E-15
 21
1.0
 31
0.0
 73
     1
 44
1.0
  0
ENDBLK
  5
1F8
330
1F6
100
AcDbEntity
  8
0
100
AcDbBlockEnd
  0
BLOCK
  5
26C
330
26B
100
AcDbEntity
  8
0
100
AcDbBlockBegin
  2
_D_5
 70
     0
 10
0.0
 20
0.0
 30
0.0
  3
_D_5
  1

  0
SOLID
  5
26E
330
26B
100
AcDbEntity
  8
VERMASSUNG
100
AcDbTrace
 10
99.1261075983
 20
109.2956323129
 30
0.0
 11
101.2049227077
 21
107.0863275035
 31
0.0
 12
101.7616413022
 22
107.7934798255
 32
0.0
 13
101.7616413022
 23
107.7934798255
 33
0.0
  0
SOLID
  5
26F
330
26B
100
AcDbEntity
  8
VERMASSUNG
100
AcDbTrace
 10
59.8398674866
 20
140.2244431192
 30
0.0
 11
57.7610523772
 21
142.4337479285
 31
0.0
 12
57.2043337827
 22
141.7265956065
 32
0.0
 13
57.2043337827
 23
141.7265956065
 33
0.0
  0
LINE
  5
270
330
26B
100
AcDbEntity
  8
VERMASSUNG
100
AcDbLine
 10
99.1261075983
 20
109.2956323129
 30
0.0
 11
98.5075313822
 21
108.5099075106
 31
0.0
  0
LINE
  5
271
330
26B
100
AcDbEntity
  8
VERMASSUNG
100
AcDbLine
 10
59.8398674866
 20
140.2244431192
 30
0.0
 11
59.2212912705
 21
139.4387183169
 31
0.0
  0
LINE
  5
272
330
26B
100
AcDbEntity
  8
VERMASSUNG
100
AcDbLine
 10
99.1261075983
 20
109.2956323129
 30
0.0
 11
103.8404564117
 21
105.5841750161
 31
0.0
  0
LINE
  5
273
330
26B
100
AcDbEntity
  8
VERMASSUNG
100
AcDbLine
 10
99.1261075983
 20
109.2956323129
 30
0.0
 11
59.8398674866
 21
140.2244431192
 31
0.0
  0
LINE
  5
274
330
26B
100
AcDbEntity
  8
VERMASSUNG
100
AcDbLine
 10
59.8398674866
 20
140.2244431192
 30
0.0
 11
45.8534737217
 21
151.2354873267
 31
0.0
  0
MTEXT
  5
275
330
26B
100
AcDbEntity
  8
VERMASSUNG
100
AcDbMText
 10
47.4482470113
 20
153.2611923165
 30
0.1
 40
2.0
 41
0.0
 71
     1
 72
     1
  1
%%c
  7
SLDTEXTSTYLE0
 11
0.7857248022327477
 21
-0.6185762161256361
 31
0.0
 73
     1
 44
1.0
  0
MTEXT
  5
276
330
26B
100
AcDbEntity
  8
VERMASSUNG
100
AcDbMText
 10
50.4084288077
 20
151.1852771353
 30
0.1
 40
2.0
 41
0.0
 71
     1
 72
     1
  1
50
  7
SLDTEXTSTYLE0
 11
0.7857248022327477
 21
-0.6185762161256361
 31
0.0
 73
     1
 44
1.0
  0
MTEXT
  5
277
330
26B
100
AcDbEntity
  8
VERMASSUNG
100
AcDbMText
 10
54.9558115467
 20
147.6052669333
 30
0.1
 40
2.0
 41
0.0
 71
     1
 72
     1
  1
min.
  7
SLDTEXTSTYLE0
 11
0.7857248022327477
 21
-0.6185762161256361
 31
0.0
 73
     1
 44
1.0
  0
ENDBLK
  5
26D
330
26B
100
AcDbEntity
  8
0
100
AcDbBlockEnd
  0
BLOCK
  5
279
330
278
100
AcDbEntity
  8
0
100
AcDbBlockBegin
  2
SW_CENTERMARKSYMBOL_0
 70
     0
 10
0.0
 20
0.0
 30
0.0
  3
SW_CENTERMARKSYMBOL_0
  1

  0
LINE
  5
27B
330
278
100
AcDbEntity
  8
VERMASSUNG
 62
     0
100
AcDbLine
 10
0.0
 20
0.0
 30
0.0
 11
0.0
 21
2.5
 31
0.0
  0
LINE
  5
27C
330
278
100
AcDbEntity
  8
VERMASSUNG
 62
     0
100
AcDbLine
 10
0.0
 20
0.0
 30
0.0
 11
-2.5
 21
0.0
 31
0.0
  0
LINE
  5
27D
330
278
100
AcDbEntity
  8
VERMASSUNG
 62
     0
100
AcDbLine
 10
0.0
 20
0.0
 30
0.0
 11
0.0
 21
-2.5
 31
0.0
  0
LINE
  5
27E
330
278
100
AcDbEntity
  8
VERMASSUNG
 62
     0
100
AcDbLine
 10
0.0
 20
0.0
 30
0.0
 11
2.5
 21
0.0
 31
0.0
  0
LINE
  5
27F
330
278
100
AcDbEntity
  8
VERMASSUNG
 62
     0
100
AcDbLine
 10
0.0
 20
5.0
 30
0.0
 11
0.0
 21
22.5
 31
0.0
  0
LINE
  5
280
330
278
100
AcDbEntity
  8
VERMASSUNG
 62
     0
100
AcDbLine
 10
-5.0
 20
0.0
 30
0.0
 11
-22.5
 21
0.0
 31
0.0
  0
LINE
  5
281
330
278
100
AcDbEntity
  8
VERMASSUNG
 62
     0
100
AcDbLine
 10
0.0
 20
-5.0
 30
0.0
 11
0.0
 21
-22.5
 31
0.0
  0
LINE
  5
282
330
278
100
AcDbEntity
  8
VERMASSUNG
 62
     0
100
AcDbLine
 10
5.0
 20
0.0
 30
0.0
 11
22.5
 21
0.0
 31
0.0
  0
ENDBLK
  5
27A
330
278
100
AcDbEntity
  8
0
100
AcDbBlockEnd
  0
ENDSEC
  0
SECTION
  2
ENTITIES
  0
MTEXT
  5
49
330
1F
100
AcDbEntity
  8
KOPF_DÜNN
100
AcDbMText
 10
13.8892156294
 20
23.8442973028
 30
0.0
 40
3.0
 41
0.0
 71
     1
 72
     1
  1
PS4.KVF.LPA.050
  7
SLDTEXTSTYLE0
 73
     1
 44
1.0
  0
MTEXT
  5
4A
330
1F
100
AcDbEntity
  8
VERMASSUNG
100
AcDbMText
 10
13.9329988022
 20
28.8834360957
 30
0.0
 40
3.0
 41
0.0
 71
     1
 72
     1
  1
Klemmhalter links_Turning tool left 117.5° /35°
  7
SLDTEXTSTYLE0
 73
     1
 44
1.0
  0
MTEXT
  5
4B
330
1F
100
AcDbEntity
  8
VERMASSUNG
100
AcDbMText
 10
98.8601118557
 20
13.8365368179
 30
0.0
 40
2.0
 41
0.0
 71
     1
 72
     1
  1
Datum: 02.05.2012
  7
SLDTEXTSTYLE0
 73
     1
 44
1.0
  0
MTEXT
  5
4C
330
1F
100
AcDbEntity
  8
VERMASSUNG
100
AcDbMText
 10
13.933048693
 20
18.0482802738
 30
0.0
 40
2.0
 41
0.0
 71
     1
 72
     1
  1
PSC ø40 / VB..16 04..
  7
SLDTEXTSTYLE0
 73
     1
 44
1.0
  0
MTEXT
  5
4D
330
1F
100
AcDbEntity
  8
VERMASSUNG
100
AcDbMText
 10
13.9808475933
 20
13.9090973692
 30
0.0
 40
2.0
 41
0.0
 71
     1
 72
     1
  1
Gewicht: 354g
  7
SLDTEXTSTYLE0
 73
     1
 44
1.0
  0
ARC
  5
4E
330
1F
100
AcDbEntity
  8
0
  6
Continuous
 62
     7
370
    15
100
AcDbCircle
 10
179.8204705163
 20
106.8011012689
 30
0.0
 40
0.2999999999999972
100
AcDbArc
 50
180.0
 51
270.0
  0
ARC
  5
4F
330
1F
100
AcDbEntity
  8
0
  6
Continuous
 62
     7
370
    15
100
AcDbCircle
 10
179.8204705163
 20
146.2011012689
 30
0.0
 40
0.2999999999999829
100
AcDbArc
 50
90.0
 51
180.0
  0
LINE
  5
50
330
1F
100
AcDbEntity
  8
0
  6
Continuous
 62
     7
370
    15
100
AcDbLine
 10
201.7531435283
 20
146.5011012689
 30
0.0
 11
179.8204705163
 21
146.5011012689
 31
0.0
  0
LINE
  5
51
330
1F
100
AcDbEntity
  8
0
  6
Continuous
 62
     7
370
    15
100
AcDbLine
 10
179.8204705163
 20
106.5011012689
 30
0.0
 11
201.7531435283
 21
106.5011012689
 31
0.0
  0
LWPOLYLINE
  5
52
330
1F
100
AcDbEntity
  8
0
  6
Continuous
 62
     7
370
    15
100
AcDbPolyline
 90
        3
 70
   128
 43
0.0
 10
179.3204705163
 20
112.41128099
 10
179.4459254598
 20
112.342978875
 10
179.5204705163
 20
112.2902411169
  0
LWPOLYLINE
  5
53
330
1F
100
AcDbEntity
  8
0
  6
Continuous
 62
     7
370
    15
100
AcDbPolyline
 90
        3
 70
   128
 43
0.0
 10
179.5204705163
 20
140.7119614208
 10
179.4459254598
 20
140.6592236627
 10
179.3204705163
 20
140.5909215477
  0
ARC
  5
54
330
1F
100
AcDbEntity
  8
0
  6
Continuous
 62
     7
370
    15
100
AcDbCircle
 10
201.7531435283
 20
147.5011012689
 30
0.0
 40
1.000000000000008
100
AcDbArc
 50
270.0
 51
330.0
  0
ARC
  5
55
330
1F
100
AcDbEntity
  8
0
  6
Continuous
 62
     7
370
    15
100
AcDbCircle
 10
201.7531435283
 20
105.5011012689
 30
0.0
 40
1.0
100
AcDbArc
 50
20.1955349551
 51
90.0
  0
LINE
  5
56
330
1F
100
AcDbEntity
  8
0
  6
Continuous
 62
     7
370
    15
100
AcDbLine
 10
203.9164289423
 20
147.0011012689
 30
0.0
 11
202.6191689321
 21
147.0011012689
 31
0.0
  0
LINE
  5
57
330
1F
100
AcDbEntity
  8
0
  6
Continuous
 62
     7
370
    15
100
AcDbLine
 10
219.4878076251
 20
111.1919233732
 30
0.0
 11
219.5798732834
 21
111.1000819822
 31
0.0
  0
LINE
  5
58
330
1F
100
AcDbEntity
  8
0
  6
Continuous
 62
     7
370
    15
100
AcDbLine
 10
217.8859469526
 20
109.3794758572
 30
0.0
 11
217.7939118712
 21
109.4712867457
 31
0.0
  0
LINE
  5
59
330
1F
100
AcDbEntity
  8
0
  6
Continuous
 62
     7
370
    15
100
AcDbLine
 10
220.5707856788
 20
112.1123938025
 30
0.0
 11
220.5202429375
 21
112.1628134242
 31
0.0
  0
LINE
  5
5A
330
1F
100
AcDbEntity
  8
0
  6
Continuous
 62
     7
370
    15
100
AcDbLine
 10
216.812462108
 20
108.4459785718
 30
0.0
 11
216.8630048493
 21
108.3955589501
 31
0.0
  0
ELLIPSE
  5
5B
330
1F
100
AcDbEntity
  8
0
  6
Continuous
 62
     7
370
    15
100
AcDbEllipse
 10
199.4367279803
 20
117.7046345916
 30
0.0
 11
-0.1533054465530484
 21
2.542222654825268
 31
0.0
210
0.0
220
0.0
230
1.0
 40
0.2386235143
 41
0.0
 42
6.283185307179586
  0
ELLIPSE
  5
5C
330
1F
100
AcDbEntity
  8
0
  6
Continuous
 62
     7
370
    15
100
AcDbEllipse
 10
202.469182937
 20
126.5011012689
 30
0.0
 11
0.4025701892337282
 21
19.99971074150078
 31
0.0
210
0.0
220
0.0
230
1.0
 40
0.2671959542
 41
0.2812379932420691
 42
3.010737564948815
  0
LINE
  5
5D
330
1F
100
AcDbEntity
  8
0
  6
Continuous
 62
     7
370
    15
100
AcDbLine
 10
179.5204705163
 20
106.8011012689
 30
0.0
 11
179.5204705163
 21
146.2011012686
 31
0.0
  0
SPLINE
  5
5E
330
1F
100
AcDbEntity
  8
0
  6
Continuous
 62
     7
370
    15
100
AcDbSpline
210
0.0
220
0.0
230
1.0
 70
     8
 71
     3
 72
     8
 73
     4
 74
     0
 42
0.00000001
 43
0.00000001
 12
1.0
 22
0.0
 32
0.0
 13
1.0
 23
0.0
 33
0.0
 40
0.0
 40
0.0
 40
0.0
 40
0.0
 40
1.0
 40
1.0
 40
1.0
 40
1.0
 10
201.3727794516962
 20
106.6864097129012
 30
0.0
 10
201.4277431997424
 20
106.6579488423601
 30
0.0
 10
201.565031219131
 20
106.6367139544104
 30
0.0
 10
201.7531435282863
 20
106.6247633739076
 30
0.0
  0
SPLINE
  5
5F
330
1F
100
AcDbEntity
  8
0
  6
Continuous
 62
     7
370
    15
100
AcDbSpline
210
0.0
220
0.0
230
1.0
 70
     8
 71
     3
 72
     8
 73
     4
 74
     0
 42
0.00000001
 43
0.00000001
 12
1.0
 22
0.0
 32
0.0
 13
1.0
 23
0.0
 33
0.0
 40
0.0
 40
0.0
 40
0.0
 40
0.0
 40
1.0
 40
1.0
 40
1.0
 40
1.0
 10
201.7531435282863
 20
145.8749522255039
 30
0.0
 10
201.5650729376367
 20
145.8482369577262
 30
0.0
 10
201.4277323949333
 20
145.8019966629138
 30
0.0
 10
201.3727794516962
 20
145.7449290707873
 30
0.0
  0
SPLINE
  5
60
330
1F
100
AcDbEntity
  8
0
  6
Continuous
 62
     7
370
    15
100
AcDbSpline
210
0.0
220
0.0
230
1.0
 70
     8
 71
     3
 72
    12
 73
     8
 74
     0
 42
0.00000001
 43
0.00000001
 12
1.0
 22
0.0
 32
0.0
 13
1.0
 23
0.0
 33
0.0
 40
0.0
 40
0.0
 40
0.0
 40
0.0
 40
0.5
 40
0.5
 40
0.75
 40
0.75
 40
1.0
 40
1.0
 40
1.0
 40
1.0
 10
186.1925648971291
 20
107.4663449856689
 30
0.0
 10
186.2113681299808
 20
107.4444229874078
 30
0.0
 10
186.236904789
 20
107.4235291793979
 30
0.0
 10
186.2971309629485
 20
107.3958024532801
 30
0.0
 10
186.3210570403484
 20
107.3872293199046
 30
0.0
 10
186.3791179605298
 20
107.3740502140971
 30
0.0
 10
186.4149196591557
 20
107.3694448886174
 30
0.0
 10
186.4523725182645
 20
107.3694448886174
 30
0.0
  0
LINE
  5
61
330
1F
100
AcDbEntity
  8
0
  6
Continuous
 62
     7
370
    15
100
AcDbLine
 10
186.4523725183
 20
107.3694448886
 30
0.0
 11
188.5885685143
 21
107.3694448886
 31
0.0
  0
SPLINE
  5
62
330
1F
100
AcDbEntity
  8
0
  6
Continuous
 62
     7
370
    15
100
AcDbSpline
210
0.0
220
0.0
230
1.0
 70
     8
 71
     3
 72
    12
 73
     8
 74
     0
 42
0.00000001
 43
0.00000001
 12
1.0
 22
0.0
 32
0.0
 13
1.0
 23
0.0
 33
0.0
 40
0.0
 40
0.0
 40
0.0
 40
0.0
 40
0.2500000000000012
 40
0.2500000000000012
 40
0.5000000000000023
 40
0.5000000000000023
 40
1.0
 40
1.0
 40
1.0
 40
1.0
 10
188.5885685142661
 20
107.3694448886174
 30
0.0
 10
188.6260693371439
 20
107.3694448886174
 30
0.0
 10
188.6613477411798
 20
107.3739458564806
 30
0.0
 10
188.7202654612322
 20
107.3873123776979
 30
0.0
 10
188.7437888426306
 20
107.3957936379427
 30
0.0
 10
188.8040444270965
 20
107.4235310336206
 30
0.0
 10
188.8295660795076
 20
107.4444150326737
 30
0.0
 10
188.8483761354014
 20
107.4663449856689
 30
0.0
  0
ELLIPSE
  5
63
330
1F
100
AcDbEntity
  8
0
  6
Continuous
 62
     7
370
    15
100
AcDbEllipse
 10
178.5715413438
 20
126.5011012689
 30
0.0
 11
-9.367417879781783
 21
19.74174915274993
 31
0.0
210
0.0
220
0.0
230
1.0
 40
0.3419987131
 41
3.292664382516893
 42
4.239566697060997
  0
SPLINE
  5
64
330
1F
100
AcDbEntity
  8
0
  6
Continuous
 62
     7
370
    15
100
AcDbSpline
210
0.0
220
0.0
230
1.0
 70
     8
 71
     3
 72
    12
 73
     8
 74
     0
 42
0.00000001
 43
0.00000001
 12
1.0
 22
0.0
 32
0.0
 13
1.0
 23
0.0
 33
0.0
 40
0.0
 40
0.0
 40
0.0
 40
0.0
 40
0.4999999999999977
 40
0.4999999999999977
 40
0.7499999999999988
 40
0.7499999999999988
 40
1.0
 40
1.0
 40
1.0
 40
1.0
 10
188.8483761354014
 20
120.3628561417916
 30
0.0
 10
188.8295729025497
 20
120.4308364660541
 30
0.0
 10
188.8040362435305
 20
120.4969268538509
 30
0.0
 10
188.7438100695821
 20
120.585991466298
 30
0.0
 10
188.7198839921821
 20
120.6137925533179
 30
0.0
 10
188.6618230720008
 20
120.6567516265428
 30
0.0
 10
188.6260213733748
 20
120.671888273199
 30
0.0
 10
188.5885685142661
 20
120.671888273199
 30
0.0
  0
LINE
  5
65
330
1F
100
AcDbEntity
  8
0
  6
Continuous
 62
     7
370
    15
100
AcDbLine
 10
188.5885685143
 20
120.6718882732
 30
0.0
 11
186.4523725183
 21
120.6718882732
 31
0.0
  0
SPLINE
  5
66
330
1F
100
AcDbEntity
  8
0
  6
Continuous
 62
     7
370
    15
100
AcDbSpline
210
0.0
220
0.0
230
1.0
 70
     8
 71
     3
 72
    12
 73
     8
 74
     0
 42
0.00000001
 43
0.00000001
 12
1.0
 22
0.0
 32
0.0
 13
1.0
 23
0.0
 33
0.0
 40
0.0
 40
0.0
 40
0.0
 40
0.0
 40
0.249999999999998
 40
0.249999999999998
 40
0.499999999999996
 40
0.499999999999996
 40
1.0
 40
1.0
 40
1.0
 40
1.0
 10
186.4523725182645
 20
120.671888273199
 30
0.0
 10
186.4148716953867
 20
120.671888273199
 30
0.0
 10
186.3795932913507
 20
120.657091935446
 30
0.0
 10
186.3206755712983
 20
120.6135216742868
 30
0.0
 10
186.2971521898999
 20
120.5860198757853
 30
0.0
 10
186.236896605434
 20
120.4969207125422
 30
0.0
 10
186.2113749530229
 20
120.4308611337598
 30
0.0
 10
186.1925648971291
 20
120.3628561417917
 30
0.0
  0
ELLIPSE
  5
67
330
1F
100
AcDbEntity
  8
0
  6
Continuous
 62
     7
370
    15
100
AcDbEllipse
 10
196.4693996887
 20
126.5011012689
 30
0.0
 11
9.367417879781694
 21
19.74174915274993
 31
0.0
210
0.0
220
0.0
230
1.0
 40
0.3419987131
 41
2.043618610118599
 42
2.990520924662738
  0
SPLINE
  5
68
330
1F
100
AcDbEntity
  8
0
  6
Continuous
 62
     7
370
    15
100
AcDbSpline
210
0.0
220
0.0
230
1.0
 70
     8
 71
     3
 72
    12
 73
     8
 74
     0
 42
0.00000001
 43
0.00000001
 12
1.0
 22
0.0
 32
0.0
 13
1.0
 23
0.0
 33
0.0
 40
0.0
 40
0.0
 40
0.0
 40
0.0
 40
0.5000000000000046
 40
0.5000000000000046
 40
0.7500000000000022
 40
0.7500000000000022
 40
1.0
 40
1.0
 40
1.0
 40
1.0
 10
186.1925648971291
 20
132.6393463959097
 30
0.0
 10
186.2112581302596
 20
132.5717637594693
 30
0.0
 10
186.2369134276713
 20
132.5052811899919
 30
0.0
 10
186.2970740503578
 20
132.4162861070944
 30
0.0
 10
186.3211463621121
 20
132.3882842100952
 30
0.0
 10
186.3795278824627
 20
132.3452078094301
 30
0.0
 10
186.4149967101157
 20
132.3303142645023
 30
0.0
 10
186.4523725182645
 20
132.3303142645023
 30
0.0
  0
LINE
  5
69
330
1F
100
AcDbEntity
  8
0
  6
Continuous
 62
     7
370
    15
100
AcDbLine
 10
186.4523725183
 20
132.3303142645
 30
0.0
 11
188.5885685143
 21
132.3303142645
 31
0.0
  0
SPLINE
  5
6A
330
1F
100
AcDbEntity
  8
0
  6
Continuous
 62
     7
370
    15
100
AcDbSpline
210
0.0
220
0.0
230
1.0
 70
     8
 71
     3
 72
    12
 73
     8
 74
     0
 42
0.00000001
 43
0.00000001
 12
1.0
 22
0.0
 32
0.0
 13
1.0
 23
0.0
 33
0.0
 40
0.0
 40
0.0
 40
0.0
 40
0.0
 40
0.2499999999999972
 40
0.2499999999999972
 40
0.4999999999999944
 40
0.4999999999999944
 40
1.0
 40
1.0
 40
1.0
 40
1.0
 10
188.5885685142661
 20
132.3303142645023
 30
0.0
 10
188.6260804003107
 20
132.3303142645023
 30
0.0
 10
188.6613677480155
 20
132.3451190787891
 30
0.0
 10
188.7202975962539
 20
132.388710951915
 30
0.0
 10
188.743823322723
 20
132.416224378001
 30
0.0
 10
188.804082110491
 20
132.5053561101145
 30
0.0
 10
188.8296768727803
 20
132.5717419607324
 30
0.0
 10
188.8483761354014
 20
132.6393463959097
 30
0.0
  0
ELLIPSE
  5
6B
330
1F
100
AcDbEntity
  8
0
  6
Continuous
 62
     7
370
    15
100
AcDbEllipse
 10
178.5715413438
 20
126.5011012689
 30
0.0
 11
9.367417879781694
 21
19.74174915274993
 31
0.0
210
0.0
220
0.0
230
1.0
 40
0.3419987131
 41
5.185211263708394
 42
6.132113578252552
  0
SPLINE
  5
6C
330
1F
100
AcDbEntity
  8
0
  6
Continuous
 62
     7
370
    15
100
AcDbSpline
210
0.0
220
0.0
230
1.0
 70
     8
 71
     3
 72
    12
 73
     8
 74
     0
 42
0.00000001
 43
0.00000001
 12
1.0
 22
0.0
 32
0.0
 13
1.0
 23
0.0
 33
0.0
 40
0.0
 40
0.0
 40
0.0
 40
0.0
 40
0.4999999999999968
 40
0.4999999999999968
 40
0.7499999999999983
 40
0.7499999999999983
 40
1.0
 40
1.0
 40
1.0
 40
1.0
 10
188.8483761354014
 20
145.5358575520327
 30
0.0
 10
188.829682902271
 20
145.5576513056606
 30
0.0
 10
188.8040276048592
 20
145.5786714673703
 30
0.0
 10
188.7438669821727
 20
145.606376813334
 30
0.0
 10
188.7197946704184
 20
145.6150120295274
 30
0.0
 10
188.6614131500679
 20
145.628226674754
 30
0.0
 10
188.6259443224148
 20
145.6327576490841
 30
0.0
 10
188.5885685142661
 20
145.6327576490841
 30
0.0
  0
LINE
  5
6D
330
1F
100
AcDbEntity
  8
0
  6
Continuous
 62
     7
370
    15
100
AcDbLine
 10
188.5885685143
 20
145.6327576491
 30
0.0
 11
186.4523725183
 21
145.6327576491
 31
0.0
  0
SPLINE
  5
6E
330
1F
100
AcDbEntity
  8
0
  6
Continuous
 62
     7
370
    15
100
AcDbSpline
210
0.0
220
0.0
230
1.0
 70
     8
 71
     3
 72
    12
 73
     8
 74
     0
 42
0.00000001
 43
0.00000001
 12
1.0
 22
0.0
 32
0.0
 13
1.0
 23
0.0
 33
0.0
 40
0.0
 40
0.0
 40
0.0
 40
0.0
 40
0.2500000000000005
 40
0.2500000000000005
 40
0.500000000000001
 40
0.500000000000001
 40
1.0
 40
1.0
 40
1.0
 40
1.0
 10
186.4523725182645
 20
145.6327576490841
 30
0.0
 10
186.4148606322198
 20
145.6327576490841
 30
0.0
 10
186.379573284515
 20
145.6282541048216
 30
0.0
 10
186.3206434362766
 20
145.6148809053683
 30
0.0
 10
186.2971177098076
 20
145.6063960027972
 30
0.0
 10
186.2368589220395
 20
145.5786481989626
 30
0.0
 10
186.2112641597502
 20
145.5576583352222
 30
0.0
 10
186.1925648971291
 20
145.5358575520327
 30
0.0
  0
ELLIPSE
  5
6F
330
1F
100
AcDbEntity
  8
0
  6
Continuous
 62
     7
370
    15
100
AcDbEllipse
 10
196.4693996887
 20
126.5011012689
 30
0.0
 11
-9.367417879781556
 21
19.74174915274993
 31
0.0
210
0.0
220
0.0
230
1.0
 40
0.3419987131
 41
0.1510717289270749
 42
1.097974043471208
  0
SPLINE
  5
70
330
1F
100
AcDbEntity
  8
0
  6
Continuous
 62
     7
370
    15
100
AcDbSpline
210
0.0
220
0.0
230
1.0
 70
     8
 71
     3
 72
    18
 73
    14
 74
     0
 42
0.00000001
 43
0.00000001
 12
1.0
 22
0.0
 32
0.0
 13
1.0
 23
0.0
 33
0.0
 40
0.0
 40
0.0
 40
0.0
 40
0.0
 40
0.2500000000000003
 40
0.2500000000000003
 40
0.5000000000000007
 40
0.5000000000000007
 40
0.6250000000000004
 40
0.6250000000000004
 40
0.7500000000000003
 40
0.7500000000000003
 40
0.8750000000000001
 40
0.8750000000000001
 40
1.0
 40
1.0
 40
1.0
 40
1.0
 10
178.2643861987013
 20
112.6699128861719
 30
0.0
 10
178.2986830181531
 20
112.6690512306901
 30
0.0
 10
178.3364942981302
 20
112.6693028337851
 30
0.0
 10
178.4230666653102
 20
112.6717013463969
 30
0.0
 10
178.4714057953931
 20
112.6738723311288
 30
0.0
 10
178.5606781527156
 20
112.677967209424
 30
0.0
 10
178.5932196184915
 20
112.6794718273737
 30
0.0
 10
178.669395818345
 20
112.6824348853418
 30
0.0
 10
178.7126118783395
 20
112.6839222235976
 30
0.0
 10
178.8183011803054
 20
112.6855476349212
 30
0.0
 10
178.88327223902
 20
112.6855053938473
 30
0.0
 10
179.0169326273778
 20
112.6814832205263
 30
0.0
 10
179.0762390807141
 20
112.6779419937028
 30
0.0
 10
179.12549362739
 20
112.6743752862667
 30
0.0
  0
SPLINE
  5
71
330
1F
100
AcDbEntity
  8
0
  6
Continuous
 62
     7
370
    15
100
AcDbSpline
210
0.0
220
0.0
230
1.0
 70
     8
 71
     3
 72
    14
 73
    10
 74
     0
 42
0.00000001
 43
0.00000001
 12
1.0
 22
0.0
 32
0.0
 13
1.0
 23
0.0
 33
0.0
 40
0.0
 40
0.0
 40
0.0
 40
0.0
 40
0.1249999999999973
 40
0.1249999999999973
 40
0.2499999999999946
 40
0.2499999999999946
 40
0.4999999999999953
 40
0.4999999999999953
 40
1.0
 40
1.0
 40
1.0
 40
1.0
 10
179.1254936273592
 20
112.6743752862857
 30
0.0
 10
179.1370204050766
 20
112.6735405888517
 30
0.0
 10
179.150373212729
 20
112.6718001745715
 30
0.0
 10
179.1805157853292
 20
112.6645525845712
 30
0.0
 10
179.1955763109438
 20
112.6592055503432
 30
0.0
 10
179.230922664872
 20
112.6434582801148
 30
0.0
 10
179.244654764601
 20
112.6336200059535
 30
0.0
 10
179.2780260102921
 20
112.607416020003
 30
0.0
 10
179.288966378146
 20
112.5933281186024
 30
0.0
 10
179.2976195031593
 20
112.580554495114
 30
0.0
  0
LINE
  5
72
330
1F
100
AcDbEntity
  8
0
  6
Continuous
 62
     7
370
    15
100
AcDbLine
 10
179.3204705163
 20
120.9956565019
 30
0.0
 11
179.3204705163
 21
112.41128099
 31
0.0
  0
SPLINE
  5
73
330
1F
100
AcDbEntity
  8
0
  6
Continuous
 62
     7
370
    15
100
AcDbSpline
210
0.0
220
0.0
230
1.0
 70
     8
 71
     3
 72
    16
 73
    12
 74
     0
 42
0.00000001
 43
0.00000001
 12
1.0
 22
0.0
 32
0.0
 13
1.0
 23
0.0
 33
0.0
 40
0.0
 40
0.0
 40
0.0
 40
0.0
 40
0.4999999999999998
 40
0.4999999999999998
 40
0.7499999999999991
 40
0.7499999999999991
 40
0.8749999999999996
 40
0.8749999999999996
 40
0.9374999999999998
 40
0.9374999999999998
 40
1.0
 40
1.0
 40
1.0
 40
1.0
 10
179.3204705162653
 20
120.9956565018879
 30
0.0
 10
179.3204705162653
 20
121.1132318829074
 30
0.0
 10
179.3165870911063
 20
121.2319276360087
 30
0.0
 10
179.2917717658317
 20
121.4126851140012
 30
0.0
 10
179.2809323181192
 20
121.4743291907741
 30
0.0
 10
179.2477165360704
 20
121.5636661651154
 30
0.0
 10
179.2343347924416
 20
121.5939256965405
 30
0.0
 10
179.1988251425793
 20
121.6274419405279
 30
0.0
 10
179.1834081760786
 20
121.635580286334
 30
0.0
 10
179.1517071539299
 20
121.6355648769027
 30
0.0
 10
179.1375608689792
 20
121.6285226395468
 30
0.0
 10
179.1254936273895
 20
121.6193815759372
 30
0.0
  0
SPLINE
  5
74
330
1F
100
AcDbEntity
  8
0
  6
Continuous
 62
     7
370
    15
100
AcDbSpline
210
0.0
220
0.0
230
1.0
 70
     8
 71
     3
 72
    18
 73
    14
 74
     0
 42
0.00000001
 43
0.00000001
 12
1.0
 22
0.0
 32
0.0
 13
1.0
 23
0.0
 33
0.0
 40
0.0
 40
0.0
 40
0.0
 40
0.0
 40
0.1250000000000007
 40
0.1250000000000007
 40
0.2500000000000014
 40
0.2500000000000014
 40
0.3750000000000021
 40
0.3750000000000021
 40
0.5000000000000028
 40
0.5000000000000028
 40
0.7500000000000013
 40
0.7500000000000013
 40
1.0
 40
1.0
 40
1.0
 40
1.0
 10
179.1254936273957
 20
121.6193815759299
 30
0.0
 10
179.0767890437077
 20
121.5824873367394
 30
0.0
 10
179.0182805609322
 20
121.5529560323134
 30
0.0
 10
178.8865537456624
 20
121.5437200590346
 30
0.0
 10
178.8217956741649
 20
121.5667832335916
 30
0.0
 10
178.7165850720142
 20
121.634301355239
 30
0.0
 10
178.673368923494
 20
121.6773124518895
 30
0.0
 10
178.5971906074101
 20
121.7675544738857
 30
0.0
 10
178.5643357751189
 20
121.8151853553609
 30
0.0
 10
178.4739678691579
 20
121.9622496547105
 30
0.0
 10
178.4245452113183
 20
122.066162980015
 30
0.0
 10
178.3368940857267
 20
122.2772969436554
 30
0.0
 10
178.2988325383362
 20
122.3850196884142
 30
0.0
 10
178.2643861987023
 20
122.4943528043236
 30
0.0
  0
SPLINE
  5
75
330
1F
100
AcDbEntity
  8
0
  6
Continuous
 62
     7
370
    15
100
AcDbSpline
210
0.0
220
0.0
230
1.0
 70
     8
 71
     3
 72
     8
 73
     4
 74
     0
 42
0.00000001
 43
0.00000001
 12
1.0
 22
0.0
 32
0.0
 13
1.0
 23
0.0
 33
0.0
 40
0.0
 40
0.0
 40
0.0
 40
0.0
 40
1.0
 40
1.0
 40
1.0
 40
1.0
 10
178.1991501727055
 20
122.7295565784524
 30
0.0
 10
178.2185763780045
 20
122.6499643068796
 30
0.0
 10
178.2400732024329
 20
122.5715225607469
 30
0.0
 10
178.2643861987023
 20
122.4943528043236
 30
0.0
  0
SPLINE
  5
76
330
1F
100
AcDbEntity
  8
0
  6
Continuous
 62
     7
370
    15
100
AcDbSpline
210
0.0
220
0.0
230
1.0
 70
     8
 71
     3
 72
     8
 73
     4
 74
     0
 42
0.00000001
 43
0.00000001
 12
1.0
 22
0.0
 32
0.0
 13
1.0
 23
0.0
 33
0.0
 40
0.0
 40
0.0
 40
0.0
 40
0.0
 40
1.0
 40
1.0
 40
1.0
 40
1.0
 10
178.2643861987023
 20
130.5078497333781
 30
0.0
 10
178.2400732024329
 20
130.4306799769548
 30
0.0
 10
178.2185763780045
 20
130.352238230822
 30
0.0
 10
178.1991501727055
 20
130.2726459592492
 30
0.0
  0
SPLINE
  5
77
330
1F
100
AcDbEntity
  8
0
  6
Continuous
 62
     7
370
    15
100
AcDbSpline
210
0.0
220
0.0
230
1.0
 70
     8
 71
     3
 72
    18
 73
    14
 74
     0
 42
0.00000001
 43
0.00000001
 12
1.0
 22
0.0
 32
0.0
 13
1.0
 23
0.0
 33
0.0
 40
0.0
 40
0.0
 40
0.0
 40
0.0
 40
0.2499999999999993
 40
0.2499999999999993
 40
0.4999999999999987
 40
0.4999999999999987
 40
0.624999999999999
 40
0.624999999999999
 40
0.7499999999999993
 40
0.7499999999999993
 40
0.8749999999999997
 40
0.8749999999999997
 40
1.0
 40
1.0
 40
1.0
 40
1.0
 10
178.2643861987023
 20
130.507849733378
 30
0.0
 10
178.2986845177149
 20
130.6167130299711
 30
0.0
 10
178.3364989150269
 20
130.7237204532074
 30
0.0
 10
178.4230869761005
 20
130.9327552773457
 30
0.0
 10
178.4714370817792
 20
131.0349253713352
 30
0.0
 10
178.5607536705789
 20
131.1816061429
 30
0.0
 10
178.5933140260672
 20
131.2294078414355
 30
0.0
 10
178.6695596597961
 20
131.3209633794609
 30
0.0
 10
178.7127190295761
 20
131.3646427714528
 30
0.0
 10
178.8184478535942
 20
131.4339969887795
 30
0.0
 10
178.8834450306489
 20
131.4581133024454
 30
0.0
 10
179.0169295206031
 20
131.4499090804071
 30
0.0
 10
179.0762569140486
 20
131.4201182948152
 30
0.0
 10
179.12549362739
 20
131.3828209617641
 30
0.0
  0
SPLINE
  5
78
330
1F
100
AcDbEntity
  8
0
  6
Continuous
 62
     7
370
    15
100
AcDbSpline
210
0.0
220
0.0
230
1.0
 70
     8
 71
     3
 72
    16
 73
    12
 74
     0
 42
0.00000001
 43
0.00000001
 12
1.0
 22
0.0
 32
0.0
 13
1.0
 23
0.0
 33
0.0
 40
0.0
 40
0.0
 40
0.0
 40
0.0
 40
0.0625000000000001
 40
0.0625000000000001
 40
0.1250000000000001
 40
0.1250000000000001
 40
0.2500000000000001
 40
0.2500000000000001
 40
0.5000000000000001
 40
0.5000000000000001
 40
1.0
 40
1.0
 40
1.0
 40
1.0
 10
179.1254936273592
 20
131.3828209617158
 30
0.0
 10
179.137563460635
 20
131.37367793487
 30
0.0
 10
179.1518391155684
 20
131.3666334871787
 30
0.0
 10
179.1833035276928
 20
131.3666264152801
 30
0.0
 10
179.1988040525031
 20
131.3747543840771
 30
0.0
 10
179.2342429491101
 20
131.4081628450842
 30
0.0
 10
179.2478355652134
 20
131.4388300115464
 30
0.0
 10
179.2808298836062
 20
131.5276510056282
 30
0.0
 10
179.291617276925
 20
131.5885536511761
 30
0.0
 10
179.3166705242041
 20
131.7705617285544
 30
0.0
 10
179.3204705162654
 20
131.8892504435931
 30
0.0
 10
179.3204705162654
 20
132.0065460358137
 30
0.0
  0
LINE
  5
79
330
1F
100
AcDbEntity
  8
0
  6
Continuous
 62
     7
370
    15
100
AcDbLine
 10
179.3204705163
 20
140.5909215477
 30
0.0
 11
179.3204705163
 21
132.0065460358
 31
0.0
  0
SPLINE
  5
7A
330
1F
100
AcDbEntity
  8
0
  6
Continuous
 62
     7
370
    15
100
AcDbSpline
210
0.0
220
0.0
230
1.0
 70
     8
 71
     3
 72
    16
 73
    12
 74
     0
 42
0.00000001
 43
0.00000001
 12
1.0
 22
0.0
 32
0.0
 13
1.0
 23
0.0
 33
0.0
 40
0.0
 40
0.0
 40
0.0
 40
0.0
 40
0.0621684675815637
 40
0.5121996192750271
 40
0.6493853146444835
 40
0.7874827831305988
 40
0.8413716211260778
 40
0.87710715806245
 40
0.9130932564777339
 40
0.9449332638990374
 40
1.0
 40
1.0
 40
1.0
 40
1.0
 10
179.3139875188836
 20
140.4551871028766
 30
0.0
 10
179.3136826306289
 20
140.4535562459012
 30
0.0
 10
179.3111706876125
 20
140.4401197827812
 30
0.0
 10
179.2960919378262
 20
140.4146941005411
 30
0.0
 10
179.2609614259015
 20
140.3805409938748
 30
0.0
 10
179.2358547571584
 20
140.3621336674568
 30
0.0
 10
179.2070956959311
 20
140.3477600389
 30
0.0
 10
179.186749024133
 20
140.3398930450452
 30
0.0
 10
179.1678417331389
 20
140.3343647089835
 30
0.0
 10
179.1461147791455
 20
140.3298029184654
 30
0.0
 10
179.1334918783649
 20
140.3285935462054
 30
0.0
 10
179.12549362739
 20
140.3278272514349
 30
0.0
  0
SPLINE
  5
7B
330
1F
100
AcDbEntity
  8
0
  6
Continuous
 62
     7
370
    15
100
AcDbSpline
210
0.0
220
0.0
230
1.0
 70
     8
 71
     3
 72
    18
 73
    14
 74
     0
 42
0.00000001
 43
0.00000001
 12
1.0
 22
0.0
 32
0.0
 13
1.0
 23
0.0
 33
0.0
 40
0.0
 40
0.0
 40
0.0
 40
0.0
 40
0.1249999999999999
 40
0.1249999999999999
 40
0.2499999999999999
 40
0.2499999999999999
 40
0.3749999999999998
 40
0.3749999999999998
 40
0.4999999999999998
 40
0.4999999999999998
 40
0.7499999999999999
 40
0.7499999999999999
 40
1.0
 40
1.0
 40
1.0
 40
1.0
 10
179.1254936273957
 20
140.3278272514347
 30
0.0
 10
179.0767894983789
 20
140.3243004018165
 30
0.0
 10
179.0182818291744
 20
140.3208001286189
 30
0.0
 10
178.8865561665435
 20
140.316757144731
 30
0.0
 10
178.8217985279232
 20
140.3166455701004
 30
0.0
 10
178.7165881113041
 20
140.3181777548618
 30
0.0
 10
178.6733720763639
 20
140.3196329070769
 30
0.0
 10
178.597193854883
 20
140.3225581686067
 30
0.0
 10
178.5643390871988
 20
140.3240684991149
 30
0.0
 10
178.473971368357
 20
140.3282104918032
 30
0.0
 10
178.4245489991676
 20
140.3304485767898
 30
0.0
 10
178.3368965370796
 20
140.3328998598362
 30
0.0
 10
178.2988338008452
 20
140.3331550951973
 30
0.0
 10
178.2643861987018
 20
140.3322896515294
 30
0.0
  0
SPLINE
  5
7C
330
1F
100
AcDbEntity
  8
0
  6
Continuous
 62
     7
370
    15
100
AcDbSpline
210
0.0
220
0.0
230
1.0
 70
     8
 71
     3
 72
     8
 73
     4
 74
     0
 42
0.00000001
 43
0.00000001
 12
1.0
 22
0.0
 32
0.0
 13
1.0
 23
0.0
 33
0.0
 40
0.0
 40
0.0
 40
0.0
 40
0.0
 40
1.0
 40
1.0
 40
1.0
 40
1.0
 10
178.025430538326
 20
123.554610464487
 30
0.0
 10
178.0761576210484
 20
123.2712593431679
 30
0.0
 10
178.1340449340354
 20
122.9963031590281
 30
0.0
 10
178.1991501727057
 20
122.7295565784525
 30
0.0
  0
SPLINE
  5
7D
330
1F
100
AcDbEntity
  8
0
  6
Continuous
 62
     7
370
    15
100
AcDbSpline
210
0.0
220
0.0
230
1.0
 70
     8
 71
     3
 72
    24
 73
    20
 74
     0
 42
0.00000001
 43
0.00000001
 12
1.0
 22
0.0
 32
0.0
 13
1.0
 23
0.0
 33
0.0
 40
0.0
 40
0.0
 40
0.0
 40
0.0
 40
0.2499999999999904
 40
0.2499999999999904
 40
0.3749999999999856
 40
0.3749999999999856
 40
0.4374999999999832
 40
0.4374999999999832
 40
0.4687499999999825
 40
0.4687499999999825
 40
0.4999999999999818
 40
0.4999999999999818
 40
0.5624999999999828
 40
0.5624999999999828
 40
0.6249999999999839
 40
0.6249999999999839
 40
0.7499999999999889
 40
0.7499999999999889
 40
1.0
 40
1.0
 40
1.0
 40
1.0
 10
177.820470516257
 20
123.5549028727803
 30
0.0
 10
177.8208735456309
 20
123.6481711654099
 30
0.0
 10
177.822903285346
 20
123.7419287242588
 30
0.0
 10
177.8322119967658
 20
123.8835186098983
 30
0.0
 10
177.8361379898803
 20
123.9306990285076
 30
0.0
 10
177.8470673497963
 20
124.0012950751929
 30
0.0
 10
177.8511889778907
 20
124.0250749889577
 30
0.0
 10
177.8630834990731
 20
124.0585261360049
 30
0.0
 10
177.8683703110268
 20
124.0706810880745
 30
0.0
 10
177.8849382425417
 20
124.0785637270427
 30
0.0
 10
177.8928649513091
 20
124.0710001279407
 30
0.0
 10
177.9098572895343
 20
124.047207696714
 30
0.0
 10
177.9172549903252
 20
124.0270192188695
 30
0.0
 10
177.9313573806671
 20
123.9865695942497
 30
0.0
 10
177.9375105379593
 20
123.9657139198522
 30
0.0
 10
177.9548242714204
 20
123.9025888845512
 30
0.0
 10
177.964829312309
 20
123.8596097726496
 30
0.0
 10
177.9931857685397
 20
123.7298841283608
 30
0.0
 10
178.009734307886
 20
123.6422864012248
 30
0.0
 10
178.025430538326
 20
123.554610464487
 30
0.0
  0
SPLINE
  5
7E
330
1F
100
AcDbEntity
  8
0
  6
Continuous
 62
     7
370
    15
100
AcDbSpline
210
0.0
220
0.0
230
1.0
 70
     8
 71
     3
 72
    16
 73
    12
 74
     0
 42
0.00000001
 43
0.00000001
 12
1.0
 22
0.0
 32
0.0
 13
1.0
 23
0.0
 33
0.0
 40
0.0
 40
0.0
 40
0.0
 40
0.0
 40
0.2500000000000003
 40
0.2500000000000003
 40
0.3750000000000003
 40
0.3750000000000003
 40
0.5000000000000002
 40
0.5000000000000002
 40
0.7500000000000001
 40
0.7500000000000001
 40
1.0
 40
1.0
 40
1.0
 40
1.0
 10
177.8204705162653
 20
129.4472996649201
 30
0.0
 10
177.7399337068698
 20
128.978226838057
 30
0.0
 10
177.6798962980676
 20
128.4978631878771
 30
0.0
 10
177.6191583508203
 20
127.7606789087362
 30
0.0
 10
177.6038358697774
 20
127.5121605055091
 30
0.0
 10
177.5832529179995
 20
127.0093770602954
 30
0.0
 10
177.5780533709629
 20
126.7545185072707
 30
0.0
 10
177.5779996604227
 20
125.99824116755
 30
0.0
 10
177.5981969976919
 20
125.4995829682401
 30
0.0
 10
177.6788753047648
 20
124.5131599974959
 30
0.0
 10
177.7399216531061
 20
124.024045904723
 30
0.0
 10
177.8204705162653
 20
123.5549028727815
 30
0.0
  0
SPLINE
  5
7F
330
1F
100
AcDbEntity
  8
0
  6
Continuous
 62
     7
370
    15
100
AcDbSpline
210
0.0
220
0.0
230
1.0
 70
     8
 71
     3
 72
    24
 73
    20
 74
     0
 42
0.00000001
 43
0.00000001
 12
1.0
 22
0.0
 32
0.0
 13
1.0
 23
0.0
 33
0.0
 40
0.0
 40
0.0
 40
0.0
 40
0.0
 40
0.2500000000000068
 40
0.2500000000000068
 40
0.3750000000000097
 40
0.3750000000000097
 40
0.4375000000000115
 40
0.4375000000000115
 40
0.5000000000000133
 40
0.5000000000000133
 40
0.5312500000000128
 40
0.5312500000000128
 40
0.5625000000000121
 40
0.5625000000000121
 40
0.6250000000000102
 40
0.6250000000000102
 40
0.7500000000000067
 40
0.7500000000000067
 40
1.0
 40
1.0
 40
1.0
 40
1.0
 10
178.0254305383261
 20
129.4475920732146
 30
0.0
 10
178.0096614934164
 20
129.3595094097237
 30
0.0
 10
177.9930473288558
 20
129.2715645932142
 30
0.0
 10
177.9645152013624
 20
129.1412172259512
 30
0.0
 10
177.9544275678085
 20
129.097956048149
 30
0.0
 10
177.9369397449595
 20
129.0345202723136
 30
0.0
 10
177.9307299370332
 20
129.0136061487699
 30
0.0
 10
177.9164520774508
 20
128.9731313570848
 30
0.0
 10
177.908880915099
 20
128.9526537136256
 30
0.0
 10
177.8914610899247
 20
128.9298073340887
 30
0.0
 10
177.88297700747
 20
128.923255537045
 30
0.0
 10
177.8669409338526
 20
128.9338269122716
 30
0.0
 10
177.8621205615747
 20
128.9459179525555
 30
0.0
 10
177.8507136609688
 20
128.9795611957754
 30
0.0
 10
177.8466926992594
 20
129.0029688750722
 30
0.0
 10
177.8359386874802
 20
129.0735574781333
 30
0.0
 10
177.8320668018575
 20
129.1205225056559
 30
0.0
 10
177.8228988370566
 20
129.261099370262
 30
0.0
 10
177.8208705025435
 20
129.3547355998815
 30
0.0
 10
177.8204705162653
 20
129.4472996649201
 30
0.0
  0
SPLINE
  5
80
330
1F
100
AcDbEntity
  8
0
  6
Continuous
 62
     7
370
    15
100
AcDbSpline
210
0.0
220
0.0
230
1.0
 70
     8
 71
     3
 72
     8
 73
     4
 74
     0
 42
0.00000001
 43
0.00000001
 12
1.0
 22
0.0
 32
0.0
 13
1.0
 23
0.0
 33
0.0
 40
0.0
 40
0.0
 40
0.0
 40
0.0
 40
1.0
 40
1.0
 40
1.0
 40
1.0
 10
178.1991501727057
 20
130.2726459592492
 30
0.0
 10
178.1340449340354
 20
130.0058993786736
 30
0.0
 10
178.0761576210484
 20
129.7309431945338
 30
0.0
 10
178.025430538326
 20
129.4475920732146
 30
0.0
  0
LINE
  5
81
330
1F
100
AcDbEntity
  8
0
  6
Continuous
 62
     7
370
    15
100
AcDbLine
 10
177.8204705163
 20
123.5549028728
 30
0.0
 11
177.8204705163
 21
122.3998976034
 31
0.0
  0
LINE
  5
82
330
1F
100
AcDbEntity
  8
0
  6
Continuous
 62
     7
370
    15
100
AcDbLine
 10
157.0204705163
 20
130.341020735
 30
0.0
 11
157.0204705163
 21
122.6611818027
 31
0.0
  0
LINE
  5
83
330
1F
100
AcDbEntity
  8
0
  6
Continuous
 62
     7
370
    15
100
AcDbLine
 10
177.8204705163
 20
130.6023049343
 30
0.0
 11
177.8204705163
 21
129.4472996649
 31
0.0
  0
LINE
  5
84
330
1F
100
AcDbEntity
  8
0
  6
Continuous
 62
     7
370
    15
100
AcDbLine
 10
155.5204705163
 20
129.9080080331
 30
0.0
 11
155.5204705163
 21
123.0941945046
 31
0.0
  0
LINE
  5
85
330
1F
100
AcDbEntity
  8
0
  6
Continuous
 62
     7
370
    15
100
AcDbLine
 10
177.8204705163
 20
130.6023049343
 30
0.0
 11
177.8204705163
 21
140.5212000534
 31
0.0
  0
ARC
  5
86
330
1F
100
AcDbEntity
  8
0
  6
Continuous
 62
     7
370
    15
100
AcDbCircle
 10
178.0204074272
 20
140.5262231645
 30
0.0
 40
0.2000000000000059
100
AcDbArc
 50
181.4391666667
 51
271.4391666667
  0
LINE
  5
87
330
1F
100
AcDbEntity
  8
0
  6
Continuous
 62
     7
370
    15
100
AcDbLine
 10
157.0204705163
 20
130.341020735
 30
0.0
 11
157.0204705163
 21
139.9986316547
 31
0.0
  0
LINE
  5
88
330
1F
100
AcDbEntity
  8
0
  6
Continuous
 62
     7
370
    15
100
AcDbLine
 10
157.0204705163
 20
139.9986316547
 30
0.0
 11
177.8204705163
 21
140.5212000534
 31
0.0
  0
LINE
  5
89
330
1F
100
AcDbEntity
  8
0
  6
Continuous
 62
     7
370
    15
100
AcDbLine
 10
157.0204705163
 20
113.003570883
 30
0.0
 11
157.0204705163
 21
122.6611818027
 31
0.0
  0
LINE
  5
8A
330
1F
100
AcDbEntity
  8
0
  6
Continuous
 62
     7
370
    15
100
AcDbLine
 10
177.8204705163
 20
112.4810024843
 30
0.0
 11
177.8204705163
 21
122.3998976034
 31
0.0
  0
LINE
  5
8B
330
1F
100
AcDbEntity
  8
0
  6
Continuous
 62
     7
370
    15
100
AcDbLine
 10
157.0204705163
 20
113.003570883
 30
0.0
 11
177.8204705163
 21
112.4810024843
 31
0.0
  0
ARC
  5
8C
330
1F
100
AcDbEntity
  8
0
  6
Continuous
 62
     7
370
    15
100
AcDbCircle
 10
178.0204074272
 20
112.4759793732
 30
0.0
 40
0.2000000000000059
100
AcDbArc
 50
88.5608333333
 51
178.5608333333
  0
LINE
  5
8D
330
1F
100
AcDbEntity
  8
0
  6
Continuous
 62
     7
370
    15
100
AcDbLine
 10
178.0254305383
 20
140.3262862536
 30
0.0
 11
178.2643861987
 21
140.3322896515
 31
0.0
  0
LINE
  5
8E
330
1F
100
AcDbEntity
  8
0
  6
Continuous
 62
     7
370
    15
100
AcDbLine
 10
178.0254305383
 20
112.6759162841
 30
0.0
 11
178.2643861987
 21
112.6699128862
 31
0.0
  0
LINE
  5
8F
330
1F
100
AcDbEntity
  8
0
  6
Continuous
 62
     7
370
    15
100
AcDbLine
 10
155.5204705163
 20
139.1326062509
 30
0.0
 11
157.0204705163
 21
139.9986316547
 31
0.0
  0
LINE
  5
90
330
1F
100
AcDbEntity
  8
0
  6
Continuous
 62
     7
370
    15
100
AcDbLine
 10
155.5204705163
 20
129.9080080331
 30
0.0
 11
155.5204705163
 21
139.1326062509
 31
0.0
  0
LINE
  5
91
330
1F
100
AcDbEntity
  8
0
  6
Continuous
 62
     7
370
    15
100
AcDbLine
 10
155.5204705163
 20
113.8695962868
 30
0.0
 11
157.0204705163
 21
113.003570883
 31
0.0
  0
LINE
  5
92
330
1F
100
AcDbEntity
  8
0
  6
Continuous
 62
     7
370
    15
100
AcDbLine
 10
155.5204705163
 20
113.8695962868
 30
0.0
 11
155.5204705163
 21
123.0941945046
 31
0.0
  0
SPLINE
  5
93
330
1F
100
AcDbEntity
  8
0
  6
Continuous
 62
     7
370
    15
100
AcDbSpline
210
0.0
220
0.0
230
1.0
 70
     8
 71
     3
 72
     8
 73
     4
 74
     0
 42
0.00000001
 43
0.00000001
 12
1.0
 22
0.0
 32
0.0
 13
1.0
 23
0.0
 33
0.0
 40
0.0
 40
0.0
 40
0.0
 40
0.0
 40
1.0
 40
1.0
 40
1.0
 40
1.0
 10
202.0897149337322
 20
145.9592580126892
 30
0.0
 10
201.9756384797874
 20
145.9159826609676
 30
0.0
 10
201.8591432773684
 20
145.8900093998936
 30
0.0
 10
201.7531435282856
 20
145.8749522255033
 30
0.0
  0
SPLINE
  5
94
330
1F
100
AcDbEntity
  8
0
  6
Continuous
 62
     7
370
    15
100
AcDbSpline
210
0.0
220
0.0
230
1.0
 70
     8
 71
     3
 72
     8
 73
     4
 74
     0
 42
0.00000001
 43
0.00000001
 12
1.0
 22
0.0
 32
0.0
 13
1.0
 23
0.0
 33
0.0
 40
0.0
 40
0.0
 40
0.0
 40
0.0
 40
1.0
 40
1.0
 40
1.0
 40
1.0
 10
201.7531435282863
 20
106.6247633739076
 30
0.0
 10
201.8591055391837
 20
106.6180317169142
 30
0.0
 10
201.9756210395693
 20
106.5967012679205
 30
0.0
 10
202.0897149337323
 20
106.5545323654897
 30
0.0
  0
LINE
  5
95
330
1F
100
AcDbEntity
  8
0
  6
Continuous
 62
     7
370
    15
100
AcDbLine
 10
202.6191689321
 20
146.4155053975
 30
0.0
 11
202.6191689321
 21
147.0011012689
 31
0.0
  0
SPLINE
  5
96
330
1F
100
AcDbEntity
  8
0
  6
Continuous
 62
     7
370
    15
100
AcDbSpline
210
0.0
220
0.0
230
1.0
 70
     8
 71
     3
 72
    10
 73
     6
 74
     0
 42
0.00000001
 43
0.00000001
 12
1.0
 22
0.0
 32
0.0
 13
1.0
 23
0.0
 33
0.0
 40
0.0
 40
0.0
 40
0.0
 40
0.0
 40
0.5
 40
0.5
 40
1.0
 40
1.0
 40
1.0
 40
1.0
 10
202.6191689320707
 20
146.4155053974805
 30
0.0
 10
202.56103104919
 20
146.3126087012098
 30
0.0
 10
202.484171184571
 20
146.2186254967087
 30
0.0
 10
202.305259830683
 20
146.064039394088
 30
0.0
 10
202.2012653909036
 20
146.0015751175945
 30
0.0
 10
202.0897149337322
 20
145.9592580126892
 30
0.0
  0
SPLINE
  5
97
330
1F
100
AcDbEntity
  8
0
  6
Continuous
 62
     7
370
    15
100
AcDbSpline
210
0.0
220
0.0
230
1.0
 70
     8
 71
     3
 72
    12
 73
     8
 74
     0
 42
0.00000001
 43
0.00000001
 12
1.0
 22
0.0
 32
0.0
 13
1.0
 23
0.0
 33
0.0
 40
0.0
 40
0.0
 40
0.0
 40
0.0
 40
0.4999999999999964
 40
0.4999999999999964
 40
0.7499999999999982
 40
0.7499999999999982
 40
1.0
 40
1.0
 40
1.0
 40
1.0
 10
202.0897149337322
 20
106.5545323654886
 30
0.0
 10
202.2429084435417
 20
106.497912313946
 30
0.0
 10
202.380721662245
 20
106.403654899381
 30
0.0
 10
202.5433292117434
 20
106.2235041540391
 30
0.0
 10
202.5910196819061
 20
106.1559968644036
 30
0.0
 10
202.6682554178634
 20
106.0131310581528
 30
0.0
 10
202.6981379881582
 20
105.9378735184587
 30
0.0
 10
202.7190693545754
 20
105.8586968104748
 30
0.0
  0
LINE
  5
98
330
1F
100
AcDbEntity
  8
0
  6
Continuous
 62
     7
370
    15
100
AcDbLine
 10
202.6926627892
 20
105.8471357823
 30
0.0
 11
202.7190693546
 21
105.769551056
 31
0.0
  0
LINE
  5
99
330
1F
100
AcDbEntity
  8
0
  6
Continuous
 62
     7
370
    15
100
AcDbLine
 10
213.0538960074
 20
105.6893076648
 30
0.0
 11
202.7870257864
 21
105.6016939962
 31
0.0
  0
LINE
  5
9A
330
1F
100
AcDbEntity
  8
0
  6
Continuous
 62
     7
370
    15
100
AcDbLine
 10
202.7190693546
 20
105.8586968105
 30
0.0
 11
202.7870257864
 21
105.6016939962
 31
0.0
  0
ELLIPSE
  5
9B
330
1F
100
AcDbEntity
  8
0
  6
Continuous
 62
     7
370
    15
100
AcDbEllipse
 10
252.1540237654
 20
126.5011012689
 30
0.0
 11
293.1636411261456
 21
1.43699985287644
 31
0.0
210
0.0
220
0.0
230
1.0
 40
0.0697548059
 41
1.73238787993084
 42
1.740235468592221
  0
LINE
  5
9C
330
1F
100
AcDbEntity
  8
0
  6
Continuous
 62
     7
370
    15
100
AcDbLine
 10
219.9937595824
 20
124.9870592647
 30
0.0
 11
204.8882198209
 21
146.4530689321
 31
0.0
  0
LINE
  5
9D
330
1F
100
AcDbEntity
  8
0
  6
Continuous
 62
     7
370
    15
100
AcDbLine
 10
219.9937595824
 20
122.1233210799
 30
0.0
 11
219.9937595824
 21
124.9870592647
 31
0.0
  0
ELLIPSE
  5
9E
330
1F
100
AcDbEntity
  8
0
  6
Continuous
 62
     7
370
    15
100
AcDbEllipse
 10
236.9758851013
 20
122.2681887088
 30
0.0
 11
11.30266368140195
 21
12.78377576882548
 31
0.0
210
0.0
220
0.0
230
1.0
 40
0.9914502387
 41
2.299043391287561
 42
2.778646957592303
  0
LINE
  5
9F
330
1F
100
AcDbEntity
  8
0
  6
Continuous
 62
     7
370
    15
100
AcDbLine
 10
222.2055168332
 20
113.7289018375
 30
0.0
 11
221.9097183419
 21
114.2956825925
 31
0.0
  0
LINE
  5
A0
330
1F
100
AcDbEntity
  8
0
  6
Continuous
 62
     7
370
    15
100
AcDbLine
 10
210.9805820539
 20
123.2860419583
 30
0.0
 11
213.6716145322
 21
118.1297431113
 31
0.0
  0
ARC
  5
A1
330
1F
100
AcDbEntity
  8
0
  6
Continuous
 62
     7
370
    15
100
AcDbCircle
 10
209.2830261267
 20
122.3876002856
 30
0.0
 40
1.920649256187368
100
AcDbArc
 50
27.8903000369
 51
207.548604237
  0
LINE
  5
A2
330
1F
100
AcDbEntity
  8
0
  6
Continuous
 62
     7
370
    15
100
AcDbLine
 10
215.947714764
 20
105.4661569966
 30
0.0
 11
215.3749376126
 21
106.5636577474
 31
0.0
  0
LINE
  5
A3
330
1F
100
AcDbEntity
  8
0
  6
Continuous
 62
     7
370
    15
100
AcDbLine
 10
208.2558699299
 20
120.2045337979
 30
0.0
 11
207.580142367
 21
121.4992982726
 31
0.0
  0
ELLIPSE
  5
A4
330
1F
100
AcDbEntity
  8
0
  6
Continuous
 62
     7
370
    15
100
AcDbEllipse
 10
213.0538960074
 20
88.7074457589
 30
0.0
 11
12.76867214261731
 21
11.32022387550815
 31
0.0
210
0.0
220
0.0
230
1.0
 40
0.9914322785
 41
0.6786665878957059
 42
0.8497242122885418
  0
ELLIPSE
  5
A5
330
1F
100
AcDbEntity
  8
0
  6
Continuous
 62
     7
370
    15
100
AcDbEllipse
 10
218.6423645134
 20
126.5011012689
 30
0.0
 11
-14.84790304774597
 21
20.46493716704343
 31
0.0
210
0.0
220
0.0
230
1.0
 40
0.0807169094
 41
5.992943028022013
 42
6.224689668269359
  0
ARC
  5
A6
330
1F
100
AcDbEntity
  8
0
  6
Continuous
 62
     7
370
    15
100
AcDbCircle
 10
209.1419988367
 20
122.5210987214
 30
0.0
 40
1.744093551366862
100
AcDbArc
 50
164.2943961439
 51
207.5130061451
  0
ARC
  5
A7
330
1F
100
AcDbEntity
  8
0
  6
Continuous
 62
     7
370
    15
100
AcDbCircle
 10
209.1518638081
 20
122.536717578
 30
0.0
 40
1.738397735435272
100
AcDbArc
 50
27.6221073652
 51
105.9077926784
  0
LINE
  5
A8
330
1F
100
AcDbEntity
  8
0
  6
Continuous
 62
     7
370
    15
100
AcDbLine
 10
207.595151813
 20
121.7154147875
 30
0.0
 11
208.2715176072
 21
120.419427395
 31
0.0
  0
LINE
  5
A9
330
1F
100
AcDbEntity
  8
0
  6
Continuous
 62
     7
370
    15
100
AcDbLine
 10
215.5672600131
 20
106.4400241516
 30
0.0
 11
215.9506259613
 21
105.7054550177
 31
0.0
  0
ELLIPSE
  5
AA
330
1F
100
AcDbEntity
  8
0
  6
Continuous
 62
     7
370
    15
100
AcDbEllipse
 10
213.0538960074
 20
-959.8137153446
 30
0.0
 11
15.02096450989422
 21
1741.012615576872
 31
0.0
210
0.0
220
0.0
230
1.0
 40
0.0045723775
 41
0.9122346270658306
 42
0.9124084128924994
  0
LINE
  5
AB
330
1F
100
AcDbEntity
  8
0
  6
Continuous
 62
     7
370
    15
100
AcDbLine
 10
210.6921272308
 20
123.3427047212
 30
0.0
 11
213.3174004379
 21
118.3124074952
 31
0.0
  0
SPLINE
  5
AC
330
1F
100
AcDbEntity
  8
0
  6
Continuous
 62
     7
370
    15
100
AcDbSpline
210
0.0
220
0.0
230
1.0
 70
     8
 71
     3
 72
     8
 73
     4
 74
     0
 42
0.00000001
 43
0.00000001
 12
1.0
 22
0.0
 32
0.0
 13
1.0
 23
0.0
 33
0.0
 40
0.0
 40
0.0
 40
0.0
 40
0.0
 40
1.0
 40
1.0
 40
1.0
 40
1.0
 10
202.7190693545754
 20
105.7695510559832
 30
0.0
 10
202.7377568549782
 20
105.7136539063169
 30
0.0
 10
202.7604491946554
 20
105.6577009933611
 30
0.0
 10
202.7870257863651
 20
105.6016939961697
 30
0.0
  0
LINE
  5
AD
330
1F
100
AcDbEntity
  8
0
  6
Continuous
 62
     7
370
    15
100
AcDbLine
 10
210.5177360465
 20
123.5166710974
 30
0.0
 11
210.2892761001
 21
123.8518855634
 31
0.0
  0
LINE
  5
AE
330
1F
100
AcDbEntity
  8
0
  6
Continuous
 62
     7
370
    15
100
AcDbLine
 10
213.2030162663
 20
118.3713941775
 30
0.0
 11
210.5177360465
 21
123.5166710974
 31
0.0
  0
ELLIPSE
  5
AF
330
1F
100
AcDbEntity
  8
0
  6
Continuous
 62
     7
370
    15
100
AcDbEllipse
 10
213.0538960074
 20
89.2530580357
 30
0.0
 11
12.76867214261733
 21
11.32022387550811
 31
0.0
210
0.0
220
0.0
230
1.0
 40
0.9914322785
 41
0.636509382599626
 42
0.6888735203736172
  0
SPLINE
  5
B0
330
1F
100
AcDbEntity
  8
0
  6
Continuous
 62
     7
370
    15
100
AcDbSpline
210
0.0
220
0.0
230
1.0
 70
     8
 71
     3
 72
    10
 73
     6
 74
     0
 42
0.00000001
 43
0.00000001
 12
1.0
 22
0.0
 32
0.0
 13
1.0
 23
0.0
 33
0.0
 40
0.0
 40
0.0
 40
0.0
 40
0.0
 40
0.2724625973603081
 40
0.5448192322760552
 40
1.0
 40
1.0
 40
1.0
 40
1.0
 10
222.468350862659
 20
113.5123156156657
 30
0.0
 10
222.4572091502648
 20
113.5312697193621
 30
0.0
 10
222.4349300585595
 20
113.5691705553831
 30
0.0
 10
222.3807065347325
 20
113.6298935034502
 30
0.0
 10
222.330633961743
 20
113.6610455142517
 30
0.0
 10
222.2993062634933
 20
113.6805356410016
 30
0.0
  0
LINE
  5
B1
330
1F
100
AcDbEntity
  8
0
  6
Continuous
 62
     7
370
    15
100
AcDbLine
 10
229.4832688096
 20
100.0710013196
 30
0.0
 11
222.4683508627
 21
113.5123156157
 31
0.0
  0
SPLINE
  5
B2
330
1F
100
AcDbEntity
  8
0
  6
Continuous
 62
     7
370
    15
100
AcDbSpline
210
0.0
220
0.0
230
1.0
 70
     8
 71
     3
 72
    22
 73
    18
 74
     0
 42
0.00000001
 43
0.00000001
 12
1.0
 22
0.0
 32
0.0
 13
1.0
 23
0.0
 33
0.0
 40
0.0
 40
0.0
 40
0.0
 40
0.0
 40
0.067486476963701
 40
0.1369325816431848
 40
0.2043039051223331
 40
0.2736971534790855
 40
0.3398665269454088
 40
0.4080370858089397
 40
0.4728149753967583
 40
0.5395176553645794
 40
0.6035446801762419
 40
0.6694139584805722
 40
0.7337520852414187
 40
0.7998933349635764
 40
0.865393525881616
 40
0.9327181810852806
 40
1.0
 40
1.0
 40
1.0
 40
1.0
 10
228.9523401345371
 20
99.53748285527207
 30
0.0
 10
228.9728243969079
 20
99.52813882421603
 30
0.0
 10
229.014387730122
 20
99.50917943630566
 30
0.0
 10
229.081383804182
 20
99.49458967194819
 30
0.0
 10
229.1502739967927
 20
99.49075255848891
 30
0.0
 10
229.2178844872853
 20
99.49883479404279
 30
0.0
 10
229.2833671671332
 20
99.51839318320214
 30
0.0
 10
229.3432273862003
 20
99.54822776034725
 30
0.0
 10
229.3972516901793
 20
99.58792771185766
 30
0.0
 10
229.4428379821616
 20
99.63522649910229
 30
0.0
 10
229.4799937427003
 20
99.68978311331207
 30
0.0
 10
229.5072171030847
 20
99.74904035830114
 30
0.0
 10
229.5243995368514
 20
99.81260095139396
 30
0.0
 10
229.5309201834976
 20
99.87799403571368
 30
0.0
 10
229.5263545329799
 20
99.94439360329643
 30
0.0
 10
229.5115351485101
 20
100.009866387746
 30
0.0
 10
229.4926889234105
 20
100.0506273328326
 30
0.0
 10
229.4832688096108
 20
100.0710013196268
 30
0.0
  0
LINE
  5
B3
330
1F
100
AcDbEntity
  8
0
  6
Continuous
 62
     7
370
    15
100
AcDbLine
 10
215.4768081363
 20
106.4866692078
 30
0.0
 11
228.9523401345
 21
99.5374828553
 31
0.0
  0
SPLINE
  5
B4
330
1F
100
AcDbEntity
  8
0
  6
Continuous
 62
     7
370
    15
100
AcDbSpline
210
0.0
220
0.0
230
1.0
 70
     8
 71
     3
 72
    10
 73
     6
 74
     0
 42
0.00000001
 43
0.00000001
 12
1.0
 22
0.0
 32
0.0
 13
1.0
 23
0.0
 33
0.0
 40
0.0
 40
0.0
 40
0.0
 40
0.0
 40
0.2724625973602715
 40
0.5448192322760387
 40
1.0
 40
1.0
 40
1.0
 40
1.0
 10
215.3077635371079
 20
106.6548892331604
 30
0.0
 10
215.3189052495022
 20
106.635935129464
 30
0.0
 10
215.3411843412075
 20
106.598034293443
 30
0.0
 10
215.3954078650345
 20
106.5373113453759
 30
0.0
 10
215.445480438024
 20
106.5061593345744
 30
0.0
 10
215.4768081362737
 20
106.4866692078245
 30
0.0
  0
LINE
  5
B5
330
1F
100
AcDbEntity
  8
0
  6
Continuous
 62
     7
370
    15
100
AcDbLine
 10
208.2928455902
 20
120.0962035292
 30
0.0
 11
215.3077635371
 21
106.6548892332
 31
0.0
  0
LINE
  5
B6
330
1F
100
AcDbEntity
  8
0
  6
Continuous
 62
     7
370
    15
100
AcDbLine
 10
222.2993062635
 20
113.680535641
 30
0.0
 11
208.8237742652
 21
120.6297219936
 31
0.0
  0
LINE
  5
B7
330
1F
100
AcDbEntity
  8
0
  6
Continuous
 62
     7
370
    15
100
AcDbLine
 10
215.4864454027
 20
106.5041920876
 30
0.0
 11
228.9464078458
 21
99.5630347865
 31
0.0
  0
ARC
  5
B8
330
1F
100
AcDbEntity
  8
0
  6
Continuous
 62
     7
370
    15
100
AcDbCircle
 10
229.1199064351
 20
99.9016645376
 30
0.0
 40
0.3804889864577436
100
AcDbArc
 50
242.8714480677
 51
27.4073515032
  0
LINE
  5
B9
330
1F
100
AcDbEntity
  8
0
  6
Continuous
 62
     7
370
    15
100
AcDbLine
 10
229.4576879415
 20
100.0768088288
 30
0.0
 11
222.4508749917
 21
113.5025931044
 31
0.0
  0
ARC
  5
BA
330
1F
100
AcDbEntity
  8
0
  6
Continuous
 62
     7
370
    15
100
AcDbCircle
 10
222.1171669052
 20
113.3284571844
 30
0.0
 40
0.3764098905403522
100
AcDbArc
 50
27.5565029613
 51
62.723659729
  0
LINE
  5
BB
330
1F
100
AcDbEntity
  8
0
  6
Continuous
 62
     7
370
    15
100
AcDbLine
 10
222.2896689971
 20
113.6630127612
 30
0.0
 11
208.829706554
 21
120.6041700623
 31
0.0
  0
ARC
  5
BC
330
1F
100
AcDbEntity
  8
0
  6
Continuous
 62
     7
370
    15
100
AcDbCircle
 10
208.6562079647
 20
120.2655403112
 30
0.0
 40
0.3804889864577566
100
AcDbArc
 50
62.8714480677
 51
207.4073515032
  0
LINE
  5
BD
330
1F
100
AcDbEntity
  8
0
  6
Continuous
 62
     7
370
    15
100
AcDbLine
 10
208.3184264583
 20
120.09039602
 30
0.0
 11
215.3252394078
 21
106.6646117442
 31
0.0
  0
ARC
  5
BE
330
1F
100
AcDbEntity
  8
0
  6
Continuous
 62
     7
370
    15
100
AcDbCircle
 10
215.6589474916
 20
106.8387476621
 30
0.0
 40
0.3764098870635217
100
AcDbArc
 50
207.5565028562
 51
242.7236599761
  0
SPLINE
  5
BF
330
1F
100
AcDbEntity
  8
0
  6
Continuous
 62
     7
370
    15
100
AcDbSpline
210
0.0
220
0.0
230
1.0
 70
     8
 71
     3
 72
    22
 73
    18
 74
     0
 42
0.00000001
 43
0.00000001
 12
1.0
 22
0.0
 32
0.0
 13
1.0
 23
0.0
 33
0.0
 40
0.0
 40
0.0
 40
0.0
 40
0.0
 40
0.0674864769636945
 40
0.1369325816431723
 40
0.2043039051223229
 40
0.2736971534790777
 40
0.3398665269453988
 40
0.4080370858089334
 40
0.4728149753967499
 40
0.5395176553645764
 40
0.6035446801762424
 40
0.6694139584805725
 40
0.7337520852414126
 40
0.799893334963568
 40
0.8653935258816102
 40
0.9327181810852708
 40
1.0
 40
1.0
 40
1.0
 40
1.0
 10
208.8237742652299
 20
120.629721993554
 30
0.0
 10
208.8032900028591
 20
120.6390660246101
 30
0.0
 10
208.761726669645
 20
120.6580254125204
 30
0.0
 10
208.694730595585
 20
120.672615176878
 30
0.0
 10
208.6258404029745
 20
120.6764522903371
 30
0.0
 10
208.5582299124817
 20
120.6683700547833
 30
0.0
 10
208.4927472326339
 20
120.648811665624
 30
0.0
 10
208.4328870135667
 20
120.6189770884789
 30
0.0
 10
208.3788627095877
 20
120.5792771369684
 30
0.0
 10
208.3332764176054
 20
120.5319783497237
 30
0.0
 10
208.2961206570667
 20
120.477421735514
 30
0.0
 10
208.2688972966823
 20
120.418164490525
 30
0.0
 10
208.2517148629158
 20
120.354603897432
 30
0.0
 10
208.2451942162694
 20
120.2892108131125
 30
0.0
 10
208.2497598667871
 20
120.2228112455297
 30
0.0
 10
208.2645792512569
 20
120.1573384610801
 30
0.0
 10
208.2834254763565
 20
120.1165775159935
 30
0.0
 10
208.2928455901562
 20
120.0962035291993
 30
0.0
  0
LINE
  5
C0
330
1F
100
AcDbEntity
  8
0
  6
Continuous
 62
     7
370
    15
100
AcDbLine
 10
208.6393654144
 20
120.282340022
 30
0.0
 11
208.3184264583
 21
120.09039602
 31
0.0
  0
LINE
  5
C1
330
1F
100
AcDbEntity
  8
0
  6
Continuous
 62
     7
370
    15
100
AcDbLine
 10
208.6393654144
 20
120.282340022
 30
0.0
 11
208.829706554
 21
120.6041700623
 31
0.0
  0
LINE
  5
C2
330
1F
100
AcDbEntity
  8
0
  6
Continuous
 62
     7
370
    15
100
AcDbLine
 10
215.646178364
 20
106.8565557462
 30
0.0
 11
215.3252394078
 21
106.6646117442
 31
0.0
  0
LINE
  5
C3
330
1F
100
AcDbEntity
  8
0
  6
Continuous
 62
     7
370
    15
100
AcDbLine
 10
210.9578581617
 20
117.9752554291
 30
0.0
 11
208.6393654144
 21
120.282340022
 31
0.0
  0
LINE
  5
C4
330
1F
100
AcDbEntity
  8
0
  6
Continuous
 62
     7
370
    15
100
AcDbLine
 10
210.9578581617
 20
117.9752554291
 30
0.0
 11
211.5363819973
 21
116.8667434321
 31
0.0
  0
LINE
  5
C5
330
1F
100
AcDbEntity
  8
0
  6
Continuous
 62
     7
370
    15
100
AcDbLine
 10
215.7372992098
 20
106.9586288682
 30
0.0
 11
215.646178364
 21
106.8565557462
 31
0.0
  0
LINE
  5
C6
330
1F
100
AcDbEntity
  8
0
  6
Continuous
 62
     7
370
    15
100
AcDbLine
 10
222.0993278575
 20
113.341182721
 30
0.0
 11
222.2896689971
 21
113.6630127612
 31
0.0
  0
LINE
  5
C7
330
1F
100
AcDbEntity
  8
0
  6
Continuous
 62
     7
370
    15
100
AcDbLine
 10
221.997712023
 20
113.2495790224
 30
0.0
 11
222.0993278575
 21
113.341182721
 31
0.0
  0
LINE
  5
C8
330
1F
100
AcDbEntity
  8
0
  6
Continuous
 62
     7
370
    15
100
AcDbLine
 10
212.0691921099
 20
117.4021525114
 30
0.0
 11
210.9578581617
 21
117.9752554291
 31
0.0
  0
SPLINE
  5
C9
330
1F
100
AcDbEntity
  8
0
  6
Continuous
 62
     7
370
    15
100
AcDbSpline
210
0.0
220
0.0
230
1.0
 70
     8
 71
     3
 72
    14
 73
    10
 74
     0
 42
0.00000001
 43
0.00000001
 12
1.0
 22
0.0
 32
0.0
 13
1.0
 23
0.0
 33
0.0
 40
0.0
 40
0.0
 40
0.0
 40
0.0
 40
0.2055181916619003
 40
0.3570166013208004
 40
0.466847183576183
 40
0.5770815399050415
 40
0.7093665789830449
 40
0.924058534023187
 40
1.0
 40
1.0
 40
1.0
 40
1.0
 10
212.1508671308668
 20
116.8420412142865
 30
0.0
 10
212.1844132602375
 20
116.8773389290522
 30
0.0
 10
212.2426880289989
 20
116.9386564701327
 30
0.0
 10
212.2935973983884
 20
117.0386117084881
 30
0.0
 10
212.3061359807409
 20
117.1268868498411
 30
0.0
 10
212.2867312027418
 20
117.2094658728259
 30
0.0
 10
212.2253161836914
 20
117.2998464631256
 30
0.0
 10
212.1449047098208
 20
117.3611880137734
 30
0.0
 10
212.0848771064179
 20
117.3936661035012
 30
0.0
 10
212.0691921098833
 20
117.4021525113527
 30
0.0
  0
SPLINE
  5
CA
330
1F
100
AcDbEntity
  8
0
  6
Continuous
 62
     7
370
    15
100
AcDbSpline
210
0.0
220
0.0
230
1.0
 70
     8
 71
     3
 72
    14
 73
    10
 74
     0
 42
0.00000001
 43
0.00000001
 12
1.0
 22
0.0
 32
0.0
 13
1.0
 23
0.0
 33
0.0
 40
0.0
 40
0.0
 40
0.0
 40
0.0
 40
0.208606488549101
 40
0.36520360950924
 40
0.4768526932686649
 40
0.5890212938927287
 40
0.718567008374363
 40
0.9352579530973535
 40
1.0
 40
1.0
 40
1.0
 40
1.0
 10
211.5363819972799
 20
116.8667434321022
 30
0.0
 10
211.5611554459325
 20
116.82420475691
 30
0.0
 10
211.604525874776
 20
116.7497330670216
 30
0.0
 10
211.688921188495
 20
116.6728818906081
 30
0.0
 10
211.7722840769566
 20
116.6364321135705
 30
0.0
 10
211.857481626642
 20
116.6332524705847
 30
0.0
 10
211.9613552965973
 20
116.6694595801998
 30
0.0
 10
212.0393516271175
 20
116.7298826117047
 30
0.0
 10
212.0861304845863
 20
116.7769702506283
 30
0.0
 10
212.0968916926693
 20
116.7878024921154
 30
0.0
  0
ARC
  5
CB
330
1F
100
AcDbEntity
  8
0
  6
Continuous
 62
     7
370
    15
100
AcDbCircle
 10
213.8663102196
 20
115.0808489688
 30
0.0
 40
1.001286806467799
100
AcDbArc
 50
62.8714480677
 51
207.4073515032
  0
ARC
  5
CC
330
1F
100
AcDbEntity
  8
0
  6
Continuous
 62
     7
370
    15
100
AcDbCircle
 10
213.8229322015
 20
115.1241165544
 30
0.0
 40
2.397304056072413
100
AcDbArc
 50
134.2249532139
 51
136.053846357
  0
LINE
  5
CD
330
1F
100
AcDbEntity
  8
0
  6
Continuous
 62
     7
370
    15
100
AcDbLine
 10
220.9333082706
 20
112.5630562211
 30
0.0
 11
214.3228854547
 21
115.9719798927
 31
0.0
  0
ARC
  5
CE
330
1F
100
AcDbEntity
  8
0
  6
Continuous
 62
     7
370
    15
100
AcDbCircle
 10
220.4793554052
 20
111.6826468145
 30
0.0
 40
0.9905523343766867
100
AcDbArc
 50
27.5565028562
 51
62.7236599761
  0
LINE
  5
CF
330
1F
100
AcDbEntity
  8
0
  6
Continuous
 62
     7
370
    15
100
AcDbLine
 10
224.7987028813
 20
105.5472619094
 30
0.0
 11
221.3575345731
 21
112.1408992299
 31
0.0
  0
ARC
  5
D0
330
1F
100
AcDbEntity
  8
0
  6
Continuous
 62
     7
370
    15
100
AcDbCircle
 10
223.9098041802
 20
105.0863558797
 30
0.0
 40
1.001286806532784
100
AcDbArc
 50
242.871448055
 51
27.4073515202
  0
LINE
  5
D1
330
1F
100
AcDbEntity
  8
0
  6
Continuous
 62
     7
370
    15
100
AcDbLine
 10
216.8428061292
 20
107.6041486277
 30
0.0
 11
223.4532289449
 21
104.1952249558
 31
0.0
  0
ARC
  5
D2
330
1F
100
AcDbEntity
  8
0
  6
Continuous
 62
     7
370
    15
100
AcDbCircle
 10
217.2967589946
 20
108.4845580343
 30
0.0
 40
0.990552334376598
100
AcDbArc
 50
207.5565028562
 51
242.7236599761
  0
LINE
  5
D3
330
1F
100
AcDbEntity
  8
0
  6
Continuous
 62
     7
370
    15
100
AcDbLine
 10
212.9774115185
 20
114.6199429394
 30
0.0
 11
216.4185798267
 21
108.0263056189
 31
0.0
  0
CIRCLE
  5
D4
330
1F
100
AcDbEntity
  8
0
  6
Continuous
 62
     7
370
    15
100
AcDbCircle
 10
218.8775348009
 20
110.0785701244
 30
0.0
 40
3.039343572120392
  0
ARC
  5
D5
330
1F
100
AcDbEntity
  8
0
  6
Continuous
 62
     7
370
    15
100
AcDbCircle
 10
218.807802857
 20
110.1616871642
 30
0.0
 40
3.05142781972815
100
AcDbArc
 50
242.8105388991
 51
44.814900466
  0
LWPOLYLINE
  5
D6
330
1F
100
AcDbEntity
  8
0
  6
Continuous
 62
     7
370
    15
100
AcDbPolyline
 90
        3
 70
   128
 43
0.0
 10
216.6643592971
 20
107.9937824959
 10
216.9415200066
 20
107.7492407974
 10
217.4135007568
 20
107.4474407877
  0
LINE
  5
D7
330
1F
100
AcDbEntity
  8
0
  6
Continuous
 62
     7
370
    15
100
AcDbLine
 10
226.7066458801
 20
102.3032879005
 30
0.0
 11
229.106140807
 21
99.9153984452
 31
0.0
  0
LINE
  5
D8
330
1F
100
AcDbEntity
  8
0
  6
Continuous
 62
     7
370
    15
100
AcDbLine
 10
229.106140807
 20
99.9153984452
 30
0.0
 11
228.9464078458
 21
99.5630347865
 31
0.0
  0
LINE
  5
D9
330
1F
100
AcDbEntity
  8
0
  6
Continuous
 62
     7
370
    15
100
AcDbLine
 10
215.646178364
 20
106.8565557462
 30
0.0
 11
215.4864454027
 21
106.5041920876
 31
0.0
  0
LINE
  5
DA
330
1F
100
AcDbEntity
  8
0
  6
Continuous
 62
     7
370
    15
100
AcDbLine
 10
225.5953119319
 20
102.8763908182
 30
0.0
 11
226.7066458801
 21
102.3032879005
 31
0.0
  0
LINE
  5
DB
330
1F
100
AcDbEntity
  8
0
  6
Continuous
 62
     7
370
    15
100
AcDbLine
 10
222.0993278575
 20
113.341182721
 30
0.0
 11
222.4508749917
 21
113.5025931044
 31
0.0
  0
LINE
  5
DC
330
1F
100
AcDbEntity
  8
0
  6
Continuous
 62
     7
370
    15
100
AcDbLine
 10
229.106140807
 20
99.9153984452
 30
0.0
 11
229.4576879415
 21
100.0768088288
 31
0.0
  0
LINE
  5
DD
330
1F
100
AcDbEntity
  8
0
  6
Continuous
 62
     7
370
    15
100
AcDbLine
 10
226.7066458801
 20
102.3032879005
 30
0.0
 11
226.1281220445
 21
103.4117998975
 31
0.0
  0
SPLINE
  5
DE
330
1F
100
AcDbEntity
  8
0
  6
Continuous
 62
     7
370
    15
100
AcDbSpline
210
0.0
220
0.0
230
1.0
 70
     8
 71
     3
 72
    11
 73
     7
 74
     0
 42
0.00000001
 43
0.00000001
 12
1.0
 22
0.0
 32
0.0
 13
1.0
 23
0.0
 33
0.0
 40
0.0
 40
0.0
 40
0.0
 40
0.0
 40
0.3241878797140254
 40
0.6482205889188999
 40
0.9887961381647123
 40
1.0
 40
1.0
 40
1.0
 40
1.0
 10
215.7372992097627
 20
106.9586288681981
 30
0.0
 10
215.7865580581201
 20
107.0124835571582
 30
0.0
 10
215.8850521773939
 20
107.1201671578669
 30
0.0
 10
216.0589425308175
 20
107.2942111749619
 30
0.0
 10
216.1738274836104
 20
107.4019655171509
 30
0.0
 10
216.2289478939381
 20
107.4514404148605
 30
0.0
 10
216.2307034300558
 20
107.453016146415
 30
0.0
  0
SPLINE
  5
DF
330
1F
100
AcDbEntity
  8
0
  6
Continuous
 62
     7
370
    15
100
AcDbSpline
210
0.0
220
0.0
230
1.0
 70
     8
 71
     3
 72
    11
 73
     7
 74
     0
 42
0.00000001
 43
0.00000001
 12
1.0
 22
0.0
 32
0.0
 13
1.0
 23
0.0
 33
0.0
 40
0.0
 40
0.0
 40
0.0
 40
0.0
 40
0.3241878797140395
 40
0.6482205889188968
 40
0.9887961381644986
 40
1.0
 40
1.0
 40
1.0
 40
1.0
 10
221.997712022973
 20
113.2495790224102
 30
0.0
 10
221.9441029226105
 20
113.2000639884601
 30
0.0
 10
221.8369103815473
 20
113.1010576206224
 30
0.0
 10
221.6637137282323
 20
112.9263215932375
 30
0.0
 10
221.5565103983002
 20
112.8109043402348
 30
0.0
 10
221.5072971573528
 20
112.7555366627127
 30
0.0
 10
221.5057297593338
 20
112.7537732513544
 30
0.0
  0
ARC
  5
E0
330
1F
100
AcDbEntity
  8
0
  6
Continuous
 62
     7
370
    15
100
AcDbCircle
 10
223.8415718403
 20
105.1544267752
 30
0.0
 40
2.3973040560993
100
AcDbArc
 50
314.2249532139
 51
316.053846357
  0
SPLINE
  5
E1
330
1F
100
AcDbEntity
  8
0
  6
Continuous
 62
     7
370
    15
100
AcDbSpline
210
0.0
220
0.0
230
1.0
 70
     8
 71
     3
 72
    14
 73
    10
 74
     0
 42
0.00000001
 43
0.00000001
 12
1.0
 22
0.0
 32
0.0
 13
1.0
 23
0.0
 33
0.0
 40
0.0
 40
0.0
 40
0.0
 40
0.0
 40
0.2055181916618982
 40
0.3570166013207986
 40
0.4668471835762025
 40
0.5770815399050508
 40
0.709366578983045
 40
0.9240585340231967
 40
1.0
 40
1.0
 40
1.0
 40
1.0
 10
225.5136369109334
 20
103.4365021152839
 30
0.0
 10
225.4800907815627
 20
103.4012044005183
 30
0.0
 10
225.4218160128013
 20
103.3398868594377
 30
0.0
 10
225.3709066434119
 20
103.2399316210824
 30
0.0
 10
225.3583680610593
 20
103.1516564797294
 30
0.0
 10
225.3777728390584
 20
103.0690774567445
 30
0.0
 10
225.4391878581088
 20
102.9786968664448
 30
0.0
 10
225.5195993319794
 20
102.917355315797
 30
0.0
 10
225.5796269353823
 20
102.8848772260693
 30
0.0
 10
225.5953119319169
 20
102.8763908182177
 30
0.0
  0
SPLINE
  5
E2
330
1F
100
AcDbEntity
  8
0
  6
Continuous
 62
     7
370
    15
100
AcDbSpline
210
0.0
220
0.0
230
1.0
 70
     8
 71
     3
 72
    14
 73
    10
 74
     0
 42
0.00000001
 43
0.00000001
 12
1.0
 22
0.0
 32
0.0
 13
1.0
 23
0.0
 33
0.0
 40
0.0
 40
0.0
 40
0.0
 40
0.0
 40
0.2086064885492641
 40
0.3652036095092931
 40
0.476852693268716
 40
0.5890212938927736
 40
0.718567008374352
 40
0.9352579530972266
 40
1.0
 40
1.0
 40
1.0
 40
1.0
 10
226.1281220445203
 20
103.4117998974681
 30
0.0
 10
226.1033485958677
 20
103.4543385726603
 30
0.0
 10
226.0599781670243
 20
103.5288102625488
 30
0.0
 10
225.9755828533053
 20
103.6056614389623
 30
0.0
 10
225.8922199648436
 20
103.642111216
 30
0.0
 10
225.8070224151582
 20
103.6452908589858
 30
0.0
 10
225.703148745203
 20
103.6090837493706
 30
0.0
 10
225.6251524146828
 20
103.5486607178658
 30
0.0
 10
225.5783735572139
 20
103.5015730789422
 30
0.0
 10
225.5676123491309
 20
103.4907408374551
 30
0.0
  0
CIRCLE
  5
E3
330
1F
100
AcDbEntity
  8
0
  6
Continuous
 62
     7
370
    15
100
AcDbCircle
 10
218.7217001922
 20
110.2610666777
 30
0.0
 40
2.616581548661308
  0
CIRCLE
  5
E4
330
1F
100
AcDbEntity
  8
0
  6
Continuous
 62
     7
370
    15
100
AcDbCircle
 10
218.7397474262
 20
110.2402666489
 30
0.0
 40
1.793562721069758
  0
ARC
  5
E5
330
1F
100
AcDbEntity
  8
0
  6
Continuous
 62
     7
370
    15
100
AcDbCircle
 10
218.7441182628
 20
110.2288104102
 30
0.0
 40
1.676762216394742
100
AcDbArc
 50
76.8620264218
 51
135.3206440079
  0
ARC
  5
E6
330
1F
100
AcDbEntity
  8
0
  6
Continuous
 62
     7
370
    15
100
AcDbCircle
 10
218.7417244567
 20
110.2269824222
 30
0.0
 40
1.676348076602157
100
AcDbArc
 50
135.2186891207
 51
195.1905644378
  0
ARC
  5
E7
330
1F
100
AcDbEntity
  8
0
  6
Continuous
 62
     7
370
    15
100
AcDbCircle
 10
218.7254801818
 20
110.2241630463
 30
0.0
 40
1.659933330749403
100
AcDbArc
 50
195.2435695029
 51
254.1116257799
  0
LINE
  5
E8
330
1F
100
AcDbEntity
  8
0
  6
Continuous
 62
     7
370
    15
100
AcDbLine
 10
218.3530303135
 20
108.606526495
 30
0.0
 11
218.2710500807
 21
108.6276443506
 31
0.0
  0
ARC
  5
E9
330
1F
100
AcDbEntity
  8
0
  6
Continuous
 62
     7
370
    15
100
AcDbCircle
 10
218.7281138469
 20
110.2405479181
 30
0.0
 40
1.676518317276154
100
AcDbArc
 50
257.0719282555
 51
313.3855518266
  0
LINE
  5
EA
330
1F
100
AcDbEntity
  8
0
  6
Continuous
 62
     7
370
    15
100
AcDbLine
 10
219.9638782033
 20
109.1074159032
 30
0.0
 11
219.8797214377
 21
109.0221417358
 31
0.0
  0
ARC
  5
EB
330
1F
100
AcDbEntity
  8
0
  6
Continuous
 62
     7
370
    15
100
AcDbCircle
 10
218.7304430097
 20
110.2427834265
 30
0.0
 40
1.676431266026708
100
AcDbArc
 50
317.3706730629
 51
13.0385804956
  0
LINE
  5
EC
330
1F
100
AcDbEntity
  8
0
  6
Continuous
 62
     7
370
    15
100
AcDbLine
 10
220.3324518341
 20
110.7362179536
 30
0.0
 11
220.3636531478
 21
110.620998226
 31
0.0
  0
ARC
  5
ED
330
1F
100
AcDbEntity
  8
0
  6
Continuous
 62
     7
370
    15
100
AcDbCircle
 10
218.7467894666
 20
110.2455254454
 30
0.0
 40
1.659850680427062
100
AcDbArc
 50
17.1949881985
 51
73.8982012118
  0
LINE
  5
EE
330
1F
100
AcDbEntity
  8
0
  6
Continuous
 62
     7
370
    15
100
AcDbLine
 10
219.125240905
 20
111.8616842761
 30
0.0
 11
219.2071404491
 21
111.8402609264
 31
0.0
  0
SPLINE
  5
EF
330
1F
100
AcDbEntity
  8
0
  6
Continuous
 62
     7
370
    15
100
AcDbSpline
210
0.0
220
0.0
230
1.0
 70
     8
 71
     3
 72
    12
 73
     8
 74
     0
 42
0.00000001
 43
0.00000001
 12
1.0
 22
0.0
 32
0.0
 13
1.0
 23
0.0
 33
0.0
 40
0.0
 40
0.0
 40
0.0
 40
0.0
 40
0.2058585741214004
 40
0.4121026961457087
 40
0.6141937841967403
 40
0.8133180967416348
 40
1.0
 40
1.0
 40
1.0
 40
1.0
 10
218.7832295653706
 20
111.6886877593487
 30
0.0
 10
218.7463541652192
 20
111.6347016663578
 30
0.0
 10
218.6725343018071
 20
111.5266283710341
 30
0.0
 10
218.5015585288176
 20
111.4195957158079
 30
0.0
 10
218.311552765873
 20
111.3714242726066
 30
0.0
 10
218.121491718541
 20
111.3830574675897
 30
0.0
 10
218.01329692636
 20
111.4359184791417
 30
0.0
 10
217.960944193564
 20
111.4614965902257
 30
0.0
  0
SPLINE
  5
F0
330
1F
100
AcDbEntity
  8
0
  6
Continuous
 62
     7
370
    15
100
AcDbSpline
210
0.0
220
0.0
230
1.0
 70
     8
 71
     3
 72
    11
 73
     7
 74
     0
 42
0.00000001
 43
0.00000001
 12
1.0
 22
0.0
 32
0.0
 13
1.0
 23
0.0
 33
0.0
 40
0.0
 40
0.0
 40
0.0
 40
0.0
 40
0.2524782265335369
 40
0.5068902417933472
 40
0.7591786113116954
 40
1.0
 40
1.0
 40
1.0
 40
1.0
 10
217.960944193564
 20
111.4614965902257
 30
0.0
 10
217.9275308364339
 20
111.477434791877
 30
0.0
 10
217.860448201597
 20
111.5094332695267
 30
0.0
 10
217.7459298644216
 20
111.511004718231
 30
0.0
 10
217.6367370279167
 20
111.4789881190301
 30
0.0
 10
217.5797047147946
 20
111.4311630361216
 30
0.0
 10
217.5518516848806
 20
111.4078065669207
 30
0.0
  0
SPLINE
  5
F1
330
1F
100
AcDbEntity
  8
0
  6
Continuous
 62
     7
370
    15
100
AcDbSpline
210
0.0
220
0.0
230
1.0
 70
     8
 71
     3
 72
    11
 73
     7
 74
     0
 42
0.00000001
 43
0.00000001
 12
1.0
 22
0.0
 32
0.0
 13
1.0
 23
0.0
 33
0.0
 40
0.0
 40
0.0
 40
0.0
 40
0.0
 40
0.2423611237745424
 40
0.51668479284582
 40
0.7923341374633172
 40
1.0
 40
1.0
 40
1.0
 40
1.0
 10
219.1252409049618
 20
111.861684276089
 30
0.0
 10
219.0921307149636
 20
111.8631486784738
 30
0.0
 10
219.0215437685349
 20
111.8662706083899
 30
0.0
 10
218.9179058408625
 20
111.8289755764343
 30
0.0
 10
218.8338768595363
 20
111.7666240260791
 30
0.0
 10
218.7984509867516
 20
111.7121105458234
 30
0.0
 10
218.7832295653706
 20
111.6886877593487
 30
0.0
  0
SPLINE
  5
F2
330
1F
100
AcDbEntity
  8
0
  6
Continuous
 62
     7
370
    15
100
AcDbSpline
210
0.0
220
0.0
230
1.0
 70
     8
 71
     3
 72
    12
 73
     8
 74
     0
 42
0.00000001
 43
0.00000001
 12
1.0
 22
0.0
 32
0.0
 13
1.0
 23
0.0
 33
0.0
 40
0.0
 40
0.0
 40
0.0
 40
0.0
 40
0.205843556409513
 40
0.4120691620553106
 40
0.6141397217727034
 40
0.8132604579561369
 40
1.0
 40
1.0
 40
1.0
 40
1.0
 10
217.5023978804654
 20
110.9977344228405
 30
0.0
 10
217.5308081419165
 20
110.9399700186542
 30
0.0
 10
217.58768139476
 20
110.8243339985384
 30
0.0
 10
217.5945777244926
 20
110.6247120705918
 30
0.0
 10
217.5404797730159
 20
110.4361776983164
 30
0.0
 10
217.4341602566202
 20
110.275746426988
 30
0.0
 10
217.333345992275
 20
110.2064862943075
 30
0.0
 10
217.2845562862141
 20
110.1729674114671
 30
0.0
  0
SPLINE
  5
F3
330
1F
100
AcDbEntity
  8
0
  6
Continuous
 62
     7
370
    15
100
AcDbSpline
210
0.0
220
0.0
230
1.0
 70
     8
 71
     3
 72
    11
 73
     7
 74
     0
 42
0.00000001
 43
0.00000001
 12
1.0
 22
0.0
 32
0.0
 13
1.0
 23
0.0
 33
0.0
 40
0.0
 40
0.0
 40
0.0
 40
0.0
 40
0.2535086227483905
 40
0.5075674742604679
 40
0.759505625192458
 40
0.9999999999999999
 40
0.9999999999999999
 40
0.9999999999999999
 40
0.9999999999999999
 10
217.2845562862141
 20
110.1729674114671
 30
0.0
 10
217.2535991831383
 20
110.1512528252108
 30
0.0
 10
217.1916177860234
 20
110.1077765221911
 30
0.0
 10
217.132271243759
 20
110.0078956894983
 30
0.0
 10
217.1049389899113
 20
109.8966390170825
 30
0.0
 10
217.1177109693726
 20
109.8234651758704
 30
0.0
 10
217.1239485533156
 20
109.7877285088658
 30
0.0
  0
SPLINE
  5
F4
330
1F
100
AcDbEntity
  8
0
  6
Continuous
 62
     7
370
    15
100
AcDbSpline
210
0.0
220
0.0
230
1.0
 70
     8
 71
     3
 72
    12
 73
     8
 74
     0
 42
0.00000001
 43
0.00000001
 12
1.0
 22
0.0
 32
0.0
 13
1.0
 23
0.0
 33
0.0
 40
0.0
 40
0.0
 40
0.0
 40
0.0
 40
0.0091681771491529
 40
0.2573268097002444
 40
0.5054934687429486
 40
0.7549925359452864
 40
0.9999999999999999
 40
0.9999999999999999
 40
0.9999999999999999
 40
0.9999999999999999
 10
217.5518516848806
 20
111.4078065669207
 30
0.0
 10
217.5508895165549
 20
111.4068275341528
 30
0.0
 10
217.5238839622726
 20
111.3793486389845
 30
0.0
 10
217.4798857499591
 20
111.3156072169632
 30
0.0
 10
217.4497126761821
 20
111.2072703234295
 30
0.0
 10
217.4543542335048
 20
111.0949194161663
 30
0.0
 10
217.4864805994127
 20
111.0299326623734
 30
0.0
 10
217.5023978804654
 20
110.9977344228405
 30
0.0
  0
LWPOLYLINE
  5
F5
330
1F
100
AcDbEntity
  8
0
  6
Continuous
 62
     7
370
    15
100
AcDbPolyline
 90
        3
 70
   128
 43
0.0
 10
219.2604731566
 20
111.8155373052
 10
219.3016895492
 20
111.7303745814
 10
219.3172407616
 20
111.6201411153
  0
SPLINE
  5
F6
330
1F
100
AcDbEntity
  8
0
  6
Continuous
 62
     7
370
    15
100
AcDbSpline
210
0.0
220
0.0
230
1.0
 70
     8
 71
     3
 72
    11
 73
     7
 74
     0
 42
0.00000001
 43
0.00000001
 12
1.0
 22
0.0
 32
0.0
 13
1.0
 23
0.0
 33
0.0
 40
0.0
 40
0.0
 40
0.0
 40
0.0
 40
0.2802371411013403
 40
0.5612869875923893
 40
0.8399906057824401
 40
1.0
 40
1.0
 40
1.0
 40
1.0
 10
219.4122117902587
 20
111.5254014313409
 30
0.0
 10
219.4099628776413
 20
111.5626895095814
 30
0.0
 10
219.4054585304181
 20
111.6373738038417
 30
0.0
 10
219.3509862963629
 20
111.737876648142
 30
0.0
 10
219.2801623680722
 20
111.805838267648
 30
0.0
 10
219.2266556583255
 20
111.831061423045
 30
0.0
 10
219.2071404491317
 20
111.8402609263677
 30
0.0
  0
SPLINE
  5
F7
330
1F
100
AcDbEntity
  8
0
  6
Continuous
 62
     7
370
    15
100
AcDbSpline
210
0.0
220
0.0
230
1.0
 70
     8
 71
     3
 72
    11
 73
     7
 74
     0
 42
0.00000001
 43
0.00000001
 12
1.0
 22
0.0
 32
0.0
 13
1.0
 23
0.0
 33
0.0
 40
0.0
 40
0.0
 40
0.0
 40
0.0
 40
0.2657596322624975
 40
0.5530029385954106
 40
0.8418208483438441
 40
1.0
 40
1.0
 40
1.0
 40
1.0
 10
220.3324518340663
 20
110.7362179536276
 30
0.0
 10
220.3146975555213
 20
110.7660843104501
 30
0.0
 10
220.2777537649071
 20
110.8282313827776
 30
0.0
 10
220.1871275606643
 20
110.8941663331226
 30
0.0
 10
220.0951628366816
 20
110.9257938717967
 30
0.0
 10
220.0371755444223
 20
110.9272945637685
 30
0.0
 10
220.0166555421932
 20
110.9278256146489
 30
0.0
  0
SPLINE
  5
F8
330
1F
100
AcDbEntity
  8
0
  6
Continuous
 62
     7
370
    15
100
AcDbSpline
210
0.0
220
0.0
230
1.0
 70
     8
 71
     3
 72
    12
 73
     8
 74
     0
 42
0.00000001
 43
0.00000001
 12
1.0
 22
0.0
 32
0.0
 13
1.0
 23
0.0
 33
0.0
 40
0.0
 40
0.0
 40
0.0
 40
0.0
 40
0.2057904614204231
 40
0.4120344203360224
 40
0.614130247142803
 40
0.8132633242113047
 40
1.0
 40
1.0
 40
1.0
 40
1.0
 10
220.0166555421932
 20
110.9278256146489
 30
0.0
 10
219.9507094290571
 20
110.9322832883523
 30
0.0
 10
219.8186718782789
 20
110.9412084590708
 30
0.0
 10
219.6397182515495
 20
111.0348737324765
 30
0.0
 10
219.5038872675954
 20
111.1751546969757
 30
0.0
 10
219.4212841711113
 20
111.3460640919405
 30
0.0
 10
219.415170447649
 20
111.4669164808949
 30
0.0
 10
219.4122117902587
 20
111.5254014313409
 30
0.0
  0
LWPOLYLINE
  5
F9
330
1F
100
AcDbEntity
  8
0
  6
Continuous
 62
     7
370
    15
100
AcDbPolyline
 90
        3
 70
   128
 43
0.0
 10
217.3600505847
 20
109.6406292563
 10
217.2496424234
 20
109.6549239335
 10
217.1598838877
 20
109.6979288712
  0
SPLINE
  5
FA
330
1F
100
AcDbEntity
  8
0
  6
Continuous
 62
     7
370
    15
100
AcDbSpline
210
0.0
220
0.0
230
1.0
 70
     8
 71
     3
 72
    12
 73
     8
 74
     0
 42
0.00000001
 43
0.00000001
 12
1.0
 22
0.0
 32
0.0
 13
1.0
 23
0.0
 33
0.0
 40
0.0
 40
0.0
 40
0.0
 40
0.0
 40
0.0091735205189834
 40
0.2576775215524885
 40
0.5061895192299188
 40
0.7560357430218858
 40
1.0
 40
1.0
 40
1.0
 40
1.0
 10
217.1239485533156
 20
109.7877285088658
 30
0.0
 10
217.1243134544139
 20
109.7864116747107
 30
0.0
 10
217.1345632609547
 20
109.7494227607282
 30
0.0
 10
217.167758619026
 20
109.6799659846015
 30
0.0
 10
217.2467219481324
 20
109.6010361706602
 30
0.0
 10
217.346587171372
 20
109.5508263227815
 30
0.0
 10
217.4191452916889
 20
109.5475416634037
 30
0.0
 10
217.45499221799
 20
109.5459188961363
 30
0.0
  0
SPLINE
  5
FB
330
1F
100
AcDbEntity
  8
0
  6
Continuous
 62
     7
370
    15
100
AcDbSpline
210
0.0
220
0.0
230
1.0
 70
     8
 71
     3
 72
    12
 73
     8
 74
     0
 42
0.00000001
 43
0.00000001
 12
1.0
 22
0.0
 32
0.0
 13
1.0
 23
0.0
 33
0.0
 40
0.0
 40
0.0
 40
0.0
 40
0.0
 40
0.2057532787804106
 40
0.4119604088044365
 40
0.6140154573248958
 40
0.8131414684041058
 40
1.0
 40
1.0
 40
1.0
 40
1.0
 10
217.45499221799
 20
109.5459188961363
 30
0.0
 10
217.5195671760803
 20
109.542821326413
 30
0.0
 10
217.6488595319109
 20
109.536619354337
 30
0.0
 10
217.8256033177669
 20
109.4451651136065
 30
0.0
 10
217.9615921420025
 20
109.3047596848925
 30
0.0
 10
218.0465449635774
 20
109.1315443264626
 30
0.0
 10
218.0552310057104
 20
109.0081023881918
 30
0.0
 10
218.0594359955453
 20
108.9483430538859
 30
0.0
  0
SPLINE
  5
FC
330
1F
100
AcDbEntity
  8
0
  6
Continuous
 62
     7
370
    15
100
AcDbSpline
210
0.0
220
0.0
230
1.0
 70
     8
 71
     3
 72
    11
 73
     7
 74
     0
 42
0.00000001
 43
0.00000001
 12
1.0
 22
0.0
 32
0.0
 13
1.0
 23
0.0
 33
0.0
 40
0.0
 40
0.0
 40
0.0
 40
0.0
 40
0.2794069064555946
 40
0.5596240257155529
 40
0.8375007392219658
 40
0.9999999999999999
 40
0.9999999999999999
 40
0.9999999999999999
 40
0.9999999999999999
 10
218.0594359955453
 20
108.9483430538859
 30
0.0
 10
218.0624814618536
 20
108.9102575350962
 30
0.0
 10
218.0685812255897
 20
108.8339760586755
 30
0.0
 10
218.1247955304117
 20
108.7317437259222
 30
0.0
 10
218.1968912720295
 20
108.6625154039981
 30
0.0
 10
218.2510612822251
 20
108.6370435099136
 30
0.0
 10
218.2710500807226
 20
108.6276443505565
 30
0.0
  0
ARC
  5
FD
330
1F
100
AcDbEntity
  8
0
  6
Continuous
 62
     7
370
    15
100
AcDbCircle
 10
219.8990805614
 20
111.6038196171
 30
0.0
 40
0.5820686762571086
100
AcDbArc
 50
178.3931869375
 51
225.0433846257
  0
ARC
  5
FE
330
1F
100
AcDbEntity
  8
0
  6
Continuous
 62
     7
370
    15
100
AcDbCircle
 10
217.3830362359
 20
109.0590643182
 30
0.0
 40
0.5820190009126868
100
AcDbArc
 50
45.0937499976
 51
92.2633683606
  0
ARC
  5
FF
330
1F
100
AcDbEntity
  8
0
  6
Continuous
 62
     7
370
    15
100
AcDbCircle
 10
219.9323321905
 20
110.6898035064
 30
0.0
 40
0.3348381182229427
100
AcDbArc
 50
298.498990941
 51
34.3743435286
  0
SPLINE
  5
100
330
1F
100
AcDbEntity
  8
0
  6
Continuous
 62
     7
370
    15
100
AcDbSpline
210
0.0
220
0.0
230
1.0
 70
     8
 71
     3
 72
    11
 73
     7
 74
     0
 42
0.00000001
 43
0.00000001
 12
1.0
 22
0.0
 32
0.0
 13
1.0
 23
0.0
 33
0.0
 40
0.0
 40
0.0
 40
0.0
 40
0.0
 40
0.2928993220619625
 40
0.5864344719079686
 40
0.8775178868032939
 40
1.0
 40
1.0
 40
1.0
 40
1.0
 10
220.1870914540252
 20
110.3007771192134
 30
0.0
 10
220.2188309595247
 20
110.3216906657335
 30
0.0
 10
220.2823788708521
 20
110.3635631580388
 30
0.0
 10
220.3436579461985
 20
110.4617947144826
 30
0.0
 10
220.3663682514797
 20
110.5518434928672
 30
0.0
 10
220.364273524801
 20
110.605196985178
 30
0.0
 10
220.3636531477802
 20
110.6209982259506
 30
0.0
  0
ARC
  5
101
330
1F
100
AcDbEntity
  8
0
  6
Continuous
 62
     7
370
    15
100
AcDbCircle
 10
218.6736762762
 20
110.2971156645
 30
0.0
 40
2.625038421777401
100
AcDbArc
 50
45.4971084357
 51
224.8444725632
  0
ARC
  5
102
330
1F
100
AcDbEntity
  8
0
  6
Continuous
 62
     7
370
    15
100
AcDbCircle
 10
218.2973108686
 20
109.0364298638
 30
0.0
 40
0.3350085980989362
100
AcDbArc
 50
237.2015774276
 51
332.1245855152
  0
SPLINE
  5
103
330
1F
100
AcDbEntity
  8
0
  6
Continuous
 62
     7
370
    15
100
AcDbSpline
210
0.0
220
0.0
230
1.0
 70
     8
 71
     3
 72
    11
 73
     7
 74
     0
 42
0.00000001
 43
0.00000001
 12
1.0
 22
0.0
 32
0.0
 13
1.0
 23
0.0
 33
0.0
 40
0.0
 40
0.0
 40
0.0
 40
0.0
 40
0.2431090893442968
 40
0.5182793655622131
 40
0.7947794085751999
 40
1.0
 40
1.0
 40
1.0
 40
1.0
 10
218.3530303135372
 20
108.6065264949834
 30
0.0
 10
218.3860076494824
 20
108.605323077484
 30
0.0
 10
218.4563113670345
 20
108.6027575359824
 30
0.0
 10
218.5585474614691
 20
108.6416967521501
 30
0.0
 10
218.6402783375842
 20
108.7058108284725
 30
0.0
 10
218.6740366476619
 20
108.7613823716229
 30
0.0
 10
218.6884182204333
 20
108.7850567258781
 30
0.0
  0
SPLINE
  5
104
330
1F
100
AcDbEntity
  8
0
  6
Continuous
 62
     7
370
    15
100
AcDbSpline
210
0.0
220
0.0
230
1.0
 70
     8
 71
     3
 72
    11
 73
     7
 74
     0
 42
0.00000001
 43
0.00000001
 12
1.0
 22
0.0
 32
0.0
 13
1.0
 23
0.0
 33
0.0
 40
0.0
 40
0.0
 40
0.0
 40
0.0
 40
0.2669010467950309
 40
0.554614341079272
 40
0.8439070439786349
 40
1.0
 40
1.0
 40
1.0
 40
1.0
 10
219.9638782032608
 20
109.1074159032245
 30
0.0
 10
219.9807981538175
 20
109.137935124591
 30
0.0
 10
220.0159574285441
 20
109.2013533766048
 30
0.0
 10
220.0268711225523
 20
109.3129530241181
 30
0.0
 10
220.00731117845
 20
109.4078704621194
 30
0.0
 10
219.979127357651
 20
109.458326821255
 30
0.0
 10
219.9692498597739
 20
109.47601010784
 30
0.0
  0
SPLINE
  5
105
330
1F
100
AcDbEntity
  8
0
  6
Continuous
 62
     7
370
    15
100
AcDbSpline
210
0.0
220
0.0
230
1.0
 70
     8
 71
     3
 72
    12
 73
     8
 74
     0
 42
0.00000001
 43
0.00000001
 12
1.0
 22
0.0
 32
0.0
 13
1.0
 23
0.0
 33
0.0
 40
0.0
 40
0.0
 40
0.0
 40
0.0
 40
0.2058401281338208
 40
0.4120619935510083
 40
0.6141387330969506
 40
0.8132772113524593
 40
1.0
 40
1.0
 40
1.0
 40
1.0
 10
219.9692498597739
 20
109.47601010784
 30
0.0
 10
219.9394774991105
 20
109.5351329199609
 30
0.0
 10
219.8798775639622
 20
109.6534881894012
 30
0.0
 10
219.8707897942171
 20
109.8552943842046
 30
0.0
 10
219.9250494756802
 20
110.0436716106827
 30
0.0
 10
220.0336860021832
 20
110.2017964811062
 30
0.0
 10
220.1370650980972
 20
110.2684989923771
 30
0.0
 10
220.1870914540252
 20
110.3007771192134
 30
0.0
  0
SPLINE
  5
106
330
1F
100
AcDbEntity
  8
0
  6
Continuous
 62
     7
370
    15
100
AcDbSpline
210
0.0
220
0.0
230
1.0
 70
     8
 71
     3
 72
    12
 73
     8
 74
     0
 42
0.00000001
 43
0.00000001
 12
1.0
 22
0.0
 32
0.0
 13
1.0
 23
0.0
 33
0.0
 40
0.0
 40
0.0
 40
0.0
 40
0.0
 40
0.2058179564998872
 40
0.4120215045907293
 40
0.6140779969167806
 40
0.8132130006453933
 40
1.0
 40
1.0
 40
1.0
 40
1.0
 10
218.6884182204333
 20
108.7850567258781
 30
0.0
 10
218.7239248977856
 20
108.8403940336618
 30
0.0
 10
218.7950047728096
 20
108.9511723214301
 30
0.0
 10
218.963757274512
 20
109.0603867852097
 30
0.0
 10
219.1538955692712
 20
109.1084142790656
 30
0.0
 10
219.3462902285458
 20
109.0945033983096
 30
0.0
 10
219.4570807425639
 20
109.039075251375
 30
0.0
 10
219.5107035666191
 20
109.0122479205595
 30
0.0
  0
SPLINE
  5
107
330
1F
100
AcDbEntity
  8
0
  6
Continuous
 62
     7
370
    15
100
AcDbSpline
210
0.0
220
0.0
230
1.0
 70
     8
 71
     3
 72
    11
 73
     7
 74
     0
 42
0.00000001
 43
0.00000001
 12
1.0
 22
0.0
 32
0.0
 13
1.0
 23
0.0
 33
0.0
 40
0.0
 40
0.0
 40
0.0
 40
0.0
 40
0.2908641666076859
 40
0.5839560789892202
 40
0.8745988053617638
 40
1.0
 40
1.0
 40
1.0
 40
1.0
 10
219.5107035666192
 20
109.0122479205594
 30
0.0
 10
219.5449001225919
 20
108.995526963496
 30
0.0
 10
219.6135551479725
 20
108.9619569825747
 30
0.0
 10
219.7299782874121
 20
108.9585318901147
 30
0.0
 10
219.8203060089191
 20
108.9843765694923
 30
0.0
 10
219.8659605494191
 20
109.0133951484872
 30
0.0
 10
219.8797214377057
 20
109.0221417357798
 30
0.0
  0
ARC
  5
108
330
1F
100
AcDbEntity
  8
0
  6
Continuous
 62
     7
370
    15
100
AcDbCircle
 10
220.3723121783
 20
109.8803754265
 30
0.0
 40
0.5864416020809059
100
AcDbArc
 50
118.5431974421
 51
211.8660561164
  0
ARC
  5
109
330
1F
100
AcDbEntity
  8
0
  6
Continuous
 62
     7
370
    15
100
AcDbCircle
 10
219.1117920941
 20
108.6054026863
 30
0.0
 40
0.5864924153615229
100
AcDbArc
 50
58.7879008298
 51
152.1048154355
  0
ARC
  5
10A
330
1F
100
AcDbEntity
  8
0
  6
Continuous
 62
     7
370
    15
100
AcDbCircle
 10
219.5894169771
 20
109.3938307358
 30
0.0
 40
0.3353233628301152
100
AcDbArc
 50
238.801301967
 51
31.8484421367
  0
LINE
  5
10B
330
1F
100
AcDbEntity
  8
0
  6
HIDDEN
 62
     7
370
     0
100
AcDbLine
 10
179.5204705163
 20
106.8011012689
 30
0.0
 11
179.5204705163
 21
146.2011012689
 31
0.0
  0
SPLINE
  5
10C
330
1F
100
AcDbEntity
  8
0
  6
HIDDEN
 62
     7
370
     0
100
AcDbSpline
210
0.0
220
0.0
230
1.0
 70
     8
 71
     3
 72
    68
 73
    64
 74
     0
 42
0.00000001
 43
0.00000001
 12
1.0
 22
0.0
 32
0.0
 13
1.0
 23
0.0
 33
0.0
 40
-0.0625
 40
-0.0625
 40
0.0
 40
0.0
 40
0.0312499999999999
 40
0.0312499999999999
 40
0.0624999999999998
 40
0.0624999999999998
 40
0.0937499999999997
 40
0.0937499999999997
 40
0.1249999999999996
 40
0.1249999999999996
 40
0.1562499999999996
 40
0.1562499999999996
 40
0.1874999999999994
 40
0.1874999999999994
 40
0.2187499999999994
 40
0.2187499999999994
 40
0.2499999999999993
 40
0.2499999999999993
 40
0.2812499999999992
 40
0.2812499999999992
 40
0.3124999999999993
 40
0.3124999999999993
 40
0.3437499999999993
 40
0.3437499999999993
 40
0.3749999999999994
 40
0.3749999999999994
 40
0.4062499999999995
 40
0.4062499999999995
 40
0.4374999999999996
 40
0.4374999999999996
 40
0.4687499999999997
 40
0.4687499999999997
 40
0.4999999999999997
 40
0.4999999999999997
 40
0.5312499999999997
 40
0.5312499999999997
 40
0.5624999999999997
 40
0.5624999999999997
 40
0.5937499999999998
 40
0.5937499999999998
 40
0.6249999999999998
 40
0.6249999999999998
 40
0.6562499999999998
 40
0.6562499999999998
 40
0.6874999999999998
 40
0.6874999999999998
 40
0.7187499999999998
 40
0.7187499999999998
 40
0.7499999999999998
 40
0.7499999999999998
 40
0.7812499999999999
 40
0.7812499999999999
 40
0.8124999999999999
 40
0.8124999999999999
 40
0.8437499999999999
 40
0.8437499999999999
 40
0.8749999999999999
 40
0.8749999999999999
 40
0.9062499999999999
 40
0.9062499999999999
 40
0.9375
 40
0.9375
 40
1.0
 40
1.0
 40
1.03125
 40
1.03125
 10
193.1898000035886
 20
131.6165107749105
 30
0.0
 10
193.6858057726036
 20
131.6165107749105
 30
0.0
 10
193.8483455150262
 20
131.6323415035863
 30
0.0
 10
194.1680727247236
 20
131.6942529400745
 30
0.0
 10
194.3269293013089
 20
131.7410951299213
 30
0.0
 10
194.6296011995379
 20
131.8629580105264
 30
0.0
 10
194.773129015134
 20
131.9374001140372
 30
0.0
 10
195.0447607940812
 20
132.112706277037
 30
0.0
 10
195.1732454264043
 20
132.2144005248443
 30
0.0
 10
195.4036021823648
 20
132.4356867036823
 30
0.0
 10
195.5070296823276
 20
132.5560855129039
 30
0.0
 10
195.6897947588829
 20
132.8165370051735
 30
0.0
 10
195.7673611346044
 20
132.9544828926045
 30
0.0
 10
195.8920963276006
 20
133.2387309065645
 30
0.0
 10
195.9401766709433
 20
133.3871381058157
 30
0.0
 10
196.0044601797547
 20
133.6893642749
 30
0.0
 10
196.0203795073111
 20
133.840610756677
 30
0.0
 10
196.0205607544973
 20
134.1432814448078
 30
0.0
 10
196.0042967252168
 20
134.2962491477359
 30
0.0
 10
195.9404565074176
 20
134.5907108598502
 30
0.0
 10
195.8932229628306
 20
134.733124982274
 30
0.0
 10
195.7679177966022
 20
135.0085155842472
 30
0.0
 10
195.6897100189771
 20
135.1407705075713
 30
0.0
 10
195.5088581364789
 20
135.3847215163431
 30
0.0
 10
195.4054859728191
 20
135.498059137353
 30
0.0
 10
195.1723494369419
 20
135.7066333814064
 30
0.0
 10
195.0462593999575
 20
135.7986243589635
 30
0.0
 10
194.7757172636344
 20
135.9594254046212
 30
0.0
 10
194.6295223030474
 20
136.0287903808598
 30
0.0
 10
194.3268969540976
 20
136.1396957226367
 30
0.0
 10
194.1710744555486
 20
136.1814410657198
 30
0.0
 10
193.8504412832701
 20
136.2379310456337
 30
0.0
 10
193.684636102662
 20
136.2523759608277
 30
0.0
 10
193.3581822865522
 20
136.2524838245123
 30
0.0
 10
193.1958426842636
 20
136.2386135398763
 30
0.0
 10
192.872980696609
 20
136.1822418636446
 30
0.0
 10
192.7152399861837
 20
136.1399949819389
 30
0.0
 10
192.4142876535113
 20
136.0299789250588
 30
0.0
 10
192.2687681755715
 20
135.9613410041134
 30
0.0
 10
191.9955649196809
 20
135.7993373571803
 30
0.0
 10
191.8697342717496
 20
135.7073712498516
 30
0.0
 10
191.6390544481737
 20
135.5015579381826
 30
0.0
 10
191.5334369702348
 20
135.3863510153957
 30
0.0
 10
191.3518925829108
 20
135.1418577325534
 30
0.0
 10
191.2749741259173
 20
135.0120946315162
 30
0.0
 10
191.1491463307927
 20
134.7369536804478
 30
0.0
 10
191.100886061507
 20
134.5919512104279
 30
0.0
 10
191.0370112927088
 20
134.298546257907
 30
0.0
 10
191.0206211322431
 20
134.1486041119917
 30
0.0
 10
191.0203219472826
 20
133.8420569916603
 30
0.0
 10
191.0364113161974
 20
133.6905789579899
 30
0.0
 10
191.099726723112
 20
133.391144104658
 30
0.0
 10
191.1477403906027
 20
133.2416005782263
 30
0.0
 10
191.2729959296126
 20
132.9554652222504
 30
0.0
 10
191.349666377261
 20
132.8190982568431
 30
0.0
 10
191.5308761614758
 20
132.5599696535659
 30
0.0
 10
191.6362392075631
 20
132.4368898695403
 30
0.0
 10
191.8664208258773
 20
132.2154797923297
 30
0.0
 10
191.9920861657531
 20
132.1156559470255
 30
0.0
 10
192.2652144001985
 20
131.9387765749535
 30
0.0
 10
192.4103341349183
 20
131.8635129697176
 30
0.0
 10
192.8612843851713
 20
131.6815025969233
 30
0.0
 10
193.1898000035886
 20
131.6165107749105
 30
0.0
 10
193.6858057726036
 20
131.6165107749105
 30
0.0
  0
SPLINE
  5
10D
330
1F
100
AcDbEntity
  8
0
  6
HIDDEN
 62
     7
370
     0
100
AcDbSpline
210
0.0
220
0.0
230
1.0
 70
     8
 71
     3
 72
    12
 73
     8
 74
     0
 42
0.00000001
 43
0.00000001
 12
1.0
 22
0.0
 32
0.0
 13
1.0
 23
0.0
 33
0.0
 40
0.0
 40
0.0
 40
0.0
 40
0.0
 40
0.4999999999999956
 40
0.4999999999999956
 40
0.7499999999999978
 40
0.7499999999999978
 40
1.0
 40
1.0
 40
1.0
 40
1.0
 10
186.1925648971291
 20
145.5358575520328
 30
0.0
 10
186.2112581302596
 20
145.5576513056608
 30
0.0
 10
186.2369134276713
 20
145.5786714673704
 30
0.0
 10
186.2970740503578
 20
145.6063768133341
 30
0.0
 10
186.3211463621121
 20
145.6150120295275
 30
0.0
 10
186.3795278824627
 20
145.6282266747541
 30
0.0
 10
186.4149967101157
 20
145.6327576490843
 30
0.0
 10
186.4523725182645
 20
145.6327576490843
 30
0.0
  0
LINE
  5
10E
330
1F
100
AcDbEntity
  8
0
  6
HIDDEN
 62
     7
370
     0
100
AcDbLine
 10
186.4523725183
 20
145.6327576491
 30
0.0
 11
188.5885685143
 21
145.6327576491
 31
0.0
  0
SPLINE
  5
10F
330
1F
100
AcDbEntity
  8
0
  6
HIDDEN
 62
     7
370
     0
100
AcDbSpline
210
0.0
220
0.0
230
1.0
 70
     8
 71
     3
 72
    12
 73
     8
 74
     0
 42
0.00000001
 43
0.00000001
 12
1.0
 22
0.0
 32
0.0
 13
1.0
 23
0.0
 33
0.0
 40
0.0
 40
0.0
 40
0.0
 40
0.0
 40
0.2500000000000016
 40
0.2500000000000016
 40
0.5000000000000032
 40
0.5000000000000032
 40
1.0
 40
1.0
 40
1.0
 40
1.0
 10
188.5885685142661
 20
145.6327576490843
 30
0.0
 10
188.6260804003107
 20
145.6327576490843
 30
0.0
 10
188.6613677480155
 20
145.6282541048217
 30
0.0
 10
188.7202975962539
 20
145.6148809053684
 30
0.0
 10
188.7438233227229
 20
145.6063960027973
 30
0.0
 10
188.804082110491
 20
145.5786481989627
 30
0.0
 10
188.8296768727803
 20
145.5576583352224
 30
0.0
 10
188.8483761354014
 20
145.5358575520328
 30
0.0
  0
ELLIPSE
  5
110
330
1F
100
AcDbEntity
  8
0
  6
HIDDEN
 62
     7
370
     0
100
AcDbEllipse
 10
178.5715413438
 20
126.5011012689
 30
0.0
 11
9.36741787978184
 21
19.74174915274993
 31
0.0
210
0.0
220
0.0
230
1.0
 40
0.3419987131
 41
5.185211263708414
 42
6.132113578252574
  0
SPLINE
  5
111
330
1F
100
AcDbEntity
  8
0
  6
HIDDEN
 62
     7
370
     0
100
AcDbSpline
210
0.0
220
0.0
230
1.0
 70
     8
 71
     3
 72
    12
 73
     8
 74
     0
 42
0.00000001
 43
0.00000001
 12
1.0
 22
0.0
 32
0.0
 13
1.0
 23
0.0
 33
0.0
 40
0.0
 40
0.0
 40
0.0
 40
0.0
 40
0.4999999999999916
 40
0.4999999999999916
 40
0.7499999999999958
 40
0.7499999999999958
 40
1.0
 40
1.0
 40
1.0
 40
1.0
 10
188.8483761354014
 20
132.6393463959101
 30
0.0
 10
188.829682902271
 20
132.5717637594698
 30
0.0
 10
188.8040276048592
 20
132.5052811899923
 30
0.0
 10
188.7438669821727
 20
132.4162861070948
 30
0.0
 10
188.7197946704184
 20
132.3882842100957
 30
0.0
 10
188.6614131500679
 20
132.3452078094305
 30
0.0
 10
188.6259443224148
 20
132.3303142645027
 30
0.0
 10
188.5885685142661
 20
132.3303142645027
 30
0.0
  0
LINE
  5
112
330
1F
100
AcDbEntity
  8
0
  6
HIDDEN
 62
     7
370
     0
100
AcDbLine
 10
188.5885685143
 20
132.3303142645
 30
0.0
 11
186.4523725183
 21
132.3303142645
 31
0.0
  0
SPLINE
  5
113
330
1F
100
AcDbEntity
  8
0
  6
HIDDEN
 62
     7
370
     0
100
AcDbSpline
210
0.0
220
0.0
230
1.0
 70
     8
 71
     3
 72
    12
 73
     8
 74
     0
 42
0.00000001
 43
0.00000001
 12
1.0
 22
0.0
 32
0.0
 13
1.0
 23
0.0
 33
0.0
 40
0.0
 40
0.0
 40
0.0
 40
0.0
 40
0.2499999999999986
 40
0.2499999999999986
 40
0.4999999999999971
 40
0.4999999999999971
 40
1.0
 40
1.0
 40
1.0
 40
1.0
 10
186.4523725182645
 20
132.3303142645028
 30
0.0
 10
186.4148606322198
 20
132.3303142645028
 30
0.0
 10
186.3795732845151
 20
132.3451190787895
 30
0.0
 10
186.3206434362766
 20
132.3887109519154
 30
0.0
 10
186.2971177098076
 20
132.4162243780013
 30
0.0
 10
186.2368589220395
 20
132.505356110115
 30
0.0
 10
186.2112641597502
 20
132.5717419607328
 30
0.0
 10
186.1925648971291
 20
132.6393463959101
 30
0.0
  0
ELLIPSE
  5
114
330
1F
100
AcDbEntity
  8
0
  6
HIDDEN
 62
     7
370
     0
100
AcDbEllipse
 10
196.4693996887
 20
126.5011012689
 30
0.0
 11
-9.367417879781694
 21
19.74174915274993
 31
0.0
210
0.0
220
0.0
230
1.0
 40
0.3419987131
 41
0.1510717289270564
 42
1.097974043471189
  0
SPLINE
  5
115
330
1F
100
AcDbEntity
  8
0
  6
HIDDEN
 62
     7
370
     0
100
AcDbSpline
210
0.0
220
0.0
230
1.0
 70
     8
 71
     3
 72
    12
 73
     8
 74
     0
 42
0.00000001
 43
0.00000001
 12
1.0
 22
0.0
 32
0.0
 13
1.0
 23
0.0
 33
0.0
 40
0.0
 40
0.0
 40
0.0
 40
0.0
 40
0.4999999999999993
 40
0.4999999999999993
 40
0.7499999999999997
 40
0.7499999999999997
 40
1.0
 40
1.0
 40
1.0
 40
1.0
 10
186.1925648971291
 20
120.3628561417918
 30
0.0
 10
186.2112581302596
 20
120.4304387782321
 30
0.0
 10
186.2369134276713
 20
120.4969213477096
 30
0.0
 10
186.2970740503578
 20
120.5859164306071
 30
0.0
 10
186.3211463621121
 20
120.6139183276063
 30
0.0
 10
186.3795278824627
 20
120.6569947282714
 30
0.0
 10
186.4149967101157
 20
120.6718882731992
 30
0.0
 10
186.4523725182645
 20
120.6718882731992
 30
0.0
  0
LINE
  5
116
330
1F
100
AcDbEntity
  8
0
  6
HIDDEN
 62
     7
370
     0
100
AcDbLine
 10
186.4523725183
 20
120.6718882732
 30
0.0
 11
188.5885685143
 21
120.6718882732
 31
0.0
  0
SPLINE
  5
117
330
1F
100
AcDbEntity
  8
0
  6
HIDDEN
 62
     7
370
     0
100
AcDbSpline
210
0.0
220
0.0
230
1.0
 70
     8
 71
     3
 72
    12
 73
     8
 74
     0
 42
0.00000001
 43
0.00000001
 12
1.0
 22
0.0
 32
0.0
 13
1.0
 23
0.0
 33
0.0
 40
0.0
 40
0.0
 40
0.0
 40
0.0
 40
0.25
 40
0.25
 40
0.5
 40
0.5
 40
1.0
 40
1.0
 40
1.0
 40
1.0
 10
188.5885685142661
 20
120.6718882731992
 30
0.0
 10
188.6260804003107
 20
120.6718882731992
 30
0.0
 10
188.6613677480155
 20
120.6570834589124
 30
0.0
 10
188.7202975962539
 20
120.6134915857866
 30
0.0
 10
188.7438233227229
 20
120.5859781597006
 30
0.0
 10
188.804082110491
 20
120.496846427587
 30
0.0
 10
188.8296768727803
 20
120.4304605769692
 30
0.0
 10
188.8483761354014
 20
120.3628561417918
 30
0.0
  0
ELLIPSE
  5
118
330
1F
100
AcDbEntity
  8
0
  6
HIDDEN
 62
     7
370
     0
100
AcDbEllipse
 10
178.5715413438
 20
126.5011012689
 30
0.0
 11
-9.367417879781755
 21
19.74174915274993
 31
0.0
210
0.0
220
0.0
230
1.0
 40
0.3419987131
 41
3.292664382516897
 42
4.239566697061003
  0
SPLINE
  5
119
330
1F
100
AcDbEntity
  8
0
  6
HIDDEN
 62
     7
370
     0
100
AcDbSpline
210
0.0
220
0.0
230
1.0
 70
     8
 71
     3
 72
    12
 73
     8
 74
     0
 42
0.00000001
 43
0.00000001
 12
1.0
 22
0.0
 32
0.0
 13
1.0
 23
0.0
 33
0.0
 40
0.0
 40
0.0
 40
0.0
 40
0.0
 40
0.5000000000000053
 40
0.5000000000000053
 40
0.7500000000000027
 40
0.7500000000000027
 40
1.0
 40
1.0
 40
1.0
 40
1.0
 10
188.8483761354014
 20
107.4663449856689
 30
0.0
 10
188.829682902271
 20
107.444551232041
 30
0.0
 10
188.8040276048592
 20
107.4235310703313
 30
0.0
 10
188.7438669821727
 20
107.3958257243676
 30
0.0
 10
188.7197946704184
 20
107.3871905081742
 30
0.0
 10
188.6614131500679
 20
107.3739758629476
 30
0.0
 10
188.6259443224148
 20
107.3694448886175
 30
0.0
 10
188.5885685142661
 20
107.3694448886175
 30
0.0
  0
LINE
  5
11A
330
1F
100
AcDbEntity
  8
0
  6
HIDDEN
 62
     7
370
     0
100
AcDbLine
 10
188.5885685143
 20
107.3694448886
 30
0.0
 11
186.4523725183
 21
107.3694448886
 31
0.0
  0
SPLINE
  5
11B
330
1F
100
AcDbEntity
  8
0
  6
HIDDEN
 62
     7
370
     0
100
AcDbSpline
210
0.0
220
0.0
230
1.0
 70
     8
 71
     3
 72
    12
 73
     8
 74
     0
 42
0.00000001
 43
0.00000001
 12
1.0
 22
0.0
 32
0.0
 13
1.0
 23
0.0
 33
0.0
 40
0.0
 40
0.0
 40
0.0
 40
0.0
 40
0.2500000000000027
 40
0.2500000000000027
 40
0.5000000000000053
 40
0.5000000000000053
 40
1.0
 40
1.0
 40
1.0
 40
1.0
 10
186.4523725182645
 20
107.3694448886175
 30
0.0
 10
186.4148606322198
 20
107.3694448886175
 30
0.0
 10
186.379573284515
 20
107.37394843288
 30
0.0
 10
186.3206434362766
 20
107.3873216323333
 30
0.0
 10
186.2971177098076
 20
107.3958065349044
 30
0.0
 10
186.2368589220395
 20
107.423554338739
 30
0.0
 10
186.2112641597502
 20
107.4445442024794
 30
0.0
 10
186.1925648971291
 20
107.4663449856689
 30
0.0
  0
ELLIPSE
  5
11C
330
1F
100
AcDbEntity
  8
0
  6
HIDDEN
 62
     7
370
     0
100
AcDbEllipse
 10
196.4693996887
 20
126.5011012689
 30
0.0
 11
9.367417879781641
 21
19.74174915274993
 31
0.0
210
0.0
220
0.0
230
1.0
 40
0.3419987131
 41
2.043618610118595
 42
2.990520924662731
  0
SPLINE
  5
11D
330
1F
100
AcDbEntity
  8
0
  6
HIDDEN
 62
     7
370
     0
100
AcDbSpline
210
0.0
220
0.0
230
1.0
 70
     8
 71
     3
 72
    58
 73
    54
 74
     0
 42
0.00000001
 43
0.00000001
 12
1.0
 22
0.0
 32
0.0
 13
1.0
 23
0.0
 33
0.0
 40
-0.0625000000000001
 40
-0.0625000000000001
 40
0.0
 40
0.0
 40
0.0312499999999998
 40
0.0312499999999998
 40
0.0624999999999997
 40
0.0624999999999997
 40
0.0937499999999995
 40
0.0937499999999995
 40
0.1249999999999993
 40
0.1249999999999993
 40
0.187499999999999
 40
0.187499999999999
 40
0.2499999999999987
 40
0.2499999999999987
 40
0.2812499999999987
 40
0.2812499999999987
 40
0.3124999999999988
 40
0.3124999999999988
 40
0.3437499999999988
 40
0.3437499999999988
 40
0.3749999999999989
 40
0.3749999999999989
 40
0.4062499999999989
 40
0.4062499999999989
 40
0.437499999999999
 40
0.437499999999999
 40
0.4687499999999991
 40
0.4687499999999991
 40
0.4999999999999991
 40
0.4999999999999991
 40
0.5624999999999992
 40
0.5624999999999992
 40
0.6249999999999993
 40
0.6249999999999993
 40
0.6562499999999993
 40
0.6562499999999993
 40
0.6874999999999994
 40
0.6874999999999994
 40
0.7187499999999994
 40
0.7187499999999994
 40
0.7499999999999996
 40
0.7499999999999996
 40
0.7812499999999996
 40
0.7812499999999996
 40
0.8124999999999997
 40
0.8124999999999997
 40
0.8437499999999997
 40
0.8437499999999997
 40
0.8749999999999998
 40
0.8749999999999998
 40
0.9374999999999999
 40
0.9374999999999999
 40
1.0
 40
1.0
 40
1.03125
 40
1.03125
 10
193.5204705162652
 20
126.2366651544028
 30
0.0
 10
193.5204705162652
 20
126.6333193260748
 30
0.0
 10
193.507488478593
 20
126.7633114869153
 30
0.0
 10
193.4566376763348
 20
127.0190310993676
 30
0.0
 10
193.4181457722818
 20
127.1460897832287
 30
0.0
 10
193.3177304865554
 20
127.3882529808876
 30
0.0
 10
193.2562943472823
 20
127.5030947652723
 30
0.0
 10
193.1111608709715
 20
127.7204369628425
 30
0.0
 10
193.0267391821204
 20
127.8232786106902
 30
0.0
 10
192.7501390079556
 20
128.0998220914418
 30
0.0
 10
192.5271400966885
 20
128.2488047275739
 30
0.0
 10
192.0459055791028
 20
128.4483477911286
 30
0.0
 10
191.7826061635938
 20
128.5009582641601
 30
0.0
 10
191.3910427235535
 20
128.5011723229126
 30
0.0
 10
191.2584551129489
 20
128.488173473507
 30
0.0
 10
191.0018894073496
 20
128.4371233894806
 30
0.0
 10
190.8771796411691
 20
128.3993521506684
 30
0.0
 10
190.634940456142
 20
128.299160242556
 30
0.0
 10
190.5179238023683
 20
128.2365748487314
 30
0.0
 10
190.301280597522
 20
128.0918697630209
 30
0.0
 10
190.2002738410636
 20
128.0092504216407
 30
0.0
 10
190.013467745407
 20
127.8226063868507
 30
0.0
 10
189.9307542098751
 20
127.7216605388908
 30
0.0
 10
189.7858840804998
 20
127.505179335209
 30
0.0
 10
189.7232137844031
 20
127.3882621702006
 30
0.0
 10
189.6227858463669
 20
127.1460657010021
 30
0.0
 10
189.5849146674371
 20
127.0214047100987
 30
0.0
 10
189.5336522696614
 20
126.7650053610307
 30
0.0
 10
189.5205186290208
 20
126.6323944357328
 30
0.0
 10
189.520374695882
 20
126.2407198233977
 30
0.0
 10
189.5727399531467
 20
125.9774358037371
 30
0.0
 10
189.7719006164974
 20
125.4959230898773
 30
0.0
 10
189.9206982898594
 20
125.2728020028324
 30
0.0
 10
190.1969989484455
 20
124.9959698543248
 30
0.0
 10
190.2997639955053
 20
124.9114626400405
 30
0.0
 10
190.5169812692997
 20
124.7661416983546
 30
0.0
 10
190.6317509627374
 20
124.7046194750926
 30
0.0
 10
190.8737374998821
 20
124.6040230718206
 30
0.0
 10
191.0008200727735
 20
124.565395183732
 30
0.0
 10
191.2564947727767
 20
124.5143170736658
 30
0.0
 10
191.3864352901209
 20
124.5012279338986
 30
0.0
 10
191.6506986578822
 20
124.50097641554
 30
0.0
 10
191.7809095515292
 20
124.5138508855964
 30
0.0
 10
192.0366594969628
 20
124.5644697827285
 30
0.0
 10
192.1636768813301
 20
124.6028176015242
 30
0.0
 10
192.4060286090818
 20
124.7030517217176
 30
0.0
 10
192.5209313883682
 20
124.7643959087076
 30
0.0
 10
192.7383535535172
 20
124.9093009132368
 30
0.0
 10
192.8412899509619
 20
124.9936398053588
 30
0.0
 10
193.1181271081188
 20
125.2700409184005
 30
0.0
 10
193.2672823491829
 20
125.492884551443
 30
0.0
 10
193.4672529344182
 20
125.9739478326936
 30
0.0
 10
193.5204705162652
 20
126.2366651544028
 30
0.0
 10
193.5204705162652
 20
126.6333193260748
 30
0.0
  0
LINE
  5
11E
330
1F
100
AcDbEntity
  8
0
  6
HIDDEN
 62
     7
370
     0
100
AcDbLine
 10
179.5204705163
 20
110.7011012689
 30
0.0
 11
179.5204705163
 21
142.3011012689
 31
0.0
  0
SPLINE
  5
11F
330
1F
100
AcDbEntity
  8
0
  6
HIDDEN
 62
     7
370
     0
100
AcDbSpline
210
0.0
220
0.0
230
1.0
 70
     8
 71
     3
 72
    18
 73
    14
 74
     0
 42
0.00000001
 43
0.00000001
 12
1.0
 22
0.0
 32
0.0
 13
1.0
 23
0.0
 33
0.0
 40
0.0
 40
0.0
 40
0.0
 40
0.0
 40
0.2499999999999993
 40
0.2499999999999993
 40
0.4999999999999987
 40
0.4999999999999987
 40
0.624999999999999
 40
0.624999999999999
 40
0.7499999999999993
 40
0.7499999999999993
 40
0.8749999999999997
 40
0.8749999999999997
 40
1.0
 40
1.0
 40
1.0
 40
1.0
 10
178.2643861987023
 20
136.3255411870021
 30
0.0
 10
178.2986872432351
 20
136.2175310012046
 30
0.0
 10
178.3365075145318
 20
136.1102539131766
 30
0.0
 10
178.4231258349926
 20
135.89875721586
 30
0.0
 10
178.4714971697361
 20
135.7943708656904
 30
0.0
 10
178.5609001518546
 20
135.6434959430461
 30
0.0
 10
178.5934974357318
 20
135.5941509400105
 30
0.0
 10
178.6698793396767
 20
135.4995453015402
 30
0.0
 10
178.7129177770175
 20
135.4545493667856
 30
0.0
 10
178.8187308098493
 20
135.3836215941278
 30
0.0
 10
178.8837692345804
 20
135.3596750502212
 30
0.0
 10
179.0169213063831
 20
135.371955714292
 30
0.0
 10
179.0762904868462
 20
135.4052726722969
 30
0.0
 10
179.12549362739
 20
135.4461075585216
 30
0.0
  0
SPLINE
  5
120
330
1F
100
AcDbEntity
  8
0
  6
HIDDEN
 62
     7
370
     0
100
AcDbSpline
210
0.0
220
0.0
230
1.0
 70
     8
 71
     3
 72
    16
 73
    12
 74
     0
 42
0.00000001
 43
0.00000001
 12
1.0
 22
0.0
 32
0.0
 13
1.0
 23
0.0
 33
0.0
 40
0.0
 40
0.0
 40
0.0
 40
0.0
 40
0.0625000000000008
 40
0.0625000000000008
 40
0.1250000000000017
 40
0.1250000000000017
 40
0.2500000000000033
 40
0.2500000000000033
 40
0.5000000000000021
 40
0.5000000000000021
 40
1.0
 40
1.0
 40
1.0
 40
1.0
 10
179.1254936273592
 20
135.446107558551
 30
0.0
 10
179.137563460635
 20
135.4561246075313
 30
0.0
 10
179.1518391155684
 20
135.465083714587
 30
0.0
 10
179.1833035276928
 20
135.4729541099812
 30
0.0
 10
179.1988040525032
 20
135.4705966193389
 30
0.0
 10
179.2342429491101
 20
135.4536209271609
 30
0.0
 10
179.2478355652134
 20
135.4330724359933
 30
0.0
 10
179.2808298836062
 20
135.3711301089796
 30
0.0
 10
179.291617276925
 20
135.3247345587745
 30
0.0
 10
179.3166705242041
 20
135.18179853008
 30
0.0
 10
179.3204705162654
 20
135.0822358131945
 30
0.0
 10
179.3204705162654
 20
134.980468408548
 30
0.0
  0
LINE
  5
121
330
1F
100
AcDbEntity
  8
0
  6
HIDDEN
 62
     7
370
     0
100
AcDbLine
 10
179.3204705163
 20
118.0217341292
 30
0.0
 11
179.3204705163
 21
134.9804684085
 31
0.0
  0
SPLINE
  5
122
330
1F
100
AcDbEntity
  8
0
  6
HIDDEN
 62
     7
370
     0
100
AcDbSpline
210
0.0
220
0.0
230
1.0
 70
     8
 71
     3
 72
    16
 73
    12
 74
     0
 42
0.00000001
 43
0.00000001
 12
1.0
 22
0.0
 32
0.0
 13
1.0
 23
0.0
 33
0.0
 40
0.0
 40
0.0
 40
0.0
 40
0.0
 40
0.5000000000000006
 40
0.5000000000000006
 40
0.7500000000000006
 40
0.7500000000000006
 40
0.8750000000000004
 40
0.8750000000000004
 40
0.9375000000000002
 40
0.9375000000000002
 40
1.0
 40
1.0
 40
1.0
 40
1.0
 10
179.3204705162653
 20
118.0217341291536
 30
0.0
 10
179.3204705162653
 20
117.9197239755735
 30
0.0
 10
179.3165870911063
 20
117.8201996003203
 30
0.0
 10
179.2917717658317
 20
117.6782145043096
 30
0.0
 10
179.2809323181192
 20
117.6312212037392
 30
0.0
 10
179.2477165360704
 20
117.5689284733775
 30
0.0
 10
179.2343347924416
 20
117.5486470410924
 30
0.0
 10
179.1988251425794
 20
117.531605332892
 30
0.0
 10
179.1834081760786
 20
117.5292190778759
 30
0.0
 10
179.1517071539299
 20
117.5371550077339
 30
0.0
 10
179.1375608689792
 20
117.5460800811085
 30
0.0
 10
179.1254936273895
 20
117.5560949791804
 30
0.0
  0
SPLINE
  5
123
330
1F
100
AcDbEntity
  8
0
  6
HIDDEN
 62
     7
370
     0
100
AcDbSpline
210
0.0
220
0.0
230
1.0
 70
     8
 71
     3
 72
    18
 73
    14
 74
     0
 42
0.00000001
 43
0.00000001
 12
1.0
 22
0.0
 32
0.0
 13
1.0
 23
0.0
 33
0.0
 40
0.0
 40
0.0
 40
0.0
 40
0.0
 40
0.125
 40
0.125
 40
0.25
 40
0.25
 40
0.375
 40
0.375
 40
0.5
 40
0.5
 40
0.75
 40
0.75
 40
1.0
 40
1.0
 40
1.0
 40
1.0
 10
179.1254936273957
 20
117.5560949791878
 30
0.0
 10
179.0767881352536
 20
117.5965168548692
 30
0.0
 10
179.0182780269267
 20
117.629548976337
 30
0.0
 10
178.8865489086346
 20
117.6428261282898
 30
0.0
 10
178.821789972294
 20
117.6198725413096
 30
0.0
 10
178.7165789994345
 20
117.55081934439
 30
0.0
 10
178.6733626239945
 20
117.5063516925491
 30
0.0
 10
178.5971841188826
 20
117.4131820331791
 30
0.0
 10
178.5643291575027
 20
117.3640396636183
 30
0.0
 10
178.4739608776689
 20
117.2128299286785
 30
0.0
 10
178.4245376432989
 20
117.1066751591502
 30
0.0
 10
178.3368891882507
 20
116.8930935434888
 30
0.0
 10
178.2988300160479
 20
116.7851211122535
 30
0.0
 10
178.2643861987023
 20
116.6766613506995
 30
0.0
  0
SPLINE
  5
124
330
1F
100
AcDbEntity
  8
0
  6
HIDDEN
 62
     7
370
     0
100
AcDbSpline
210
0.0
220
0.0
230
1.0
 70
     8
 71
     3
 72
     8
 73
     4
 74
     0
 42
0.00000001
 43
0.00000001
 12
1.0
 22
0.0
 32
0.0
 13
1.0
 23
0.0
 33
0.0
 40
0.0
 40
0.0
 40
0.0
 40
0.0
 40
1.0
 40
1.0
 40
1.0
 40
1.0
 10
178.2643861987017
 20
116.676661350699
 30
0.0
 10
178.2400724948116
 20
116.6001001931489
 30
0.0
 10
178.2185758528555
 20
116.5236748220157
 30
0.0
 10
178.1991501727055
 20
116.447581951244
 30
0.0
  0
SPLINE
  5
125
330
1F
100
AcDbEntity
  8
0
  6
HIDDEN
 62
     7
370
     0
100
AcDbSpline
210
0.0
220
0.0
230
1.0
 70
     8
 71
     3
 72
     8
 73
     4
 74
     0
 42
0.00000001
 43
0.00000001
 12
1.0
 22
0.0
 32
0.0
 13
1.0
 23
0.0
 33
0.0
 40
0.0
 40
0.0
 40
0.0
 40
0.0
 40
1.0
 40
1.0
 40
1.0
 40
1.0
 10
178.1991501727055
 20
112.6760372608456
 30
0.0
 10
178.2185755995989
 20
112.6725400572583
 30
0.0
 10
178.2400721535679
 20
112.6705237396161
 30
0.0
 10
178.2643861987023
 20
112.6699128861722
 30
0.0
  0
SPLINE
  5
126
330
1F
100
AcDbEntity
  8
0
  6
HIDDEN
 62
     7
370
     0
100
AcDbSpline
210
0.0
220
0.0
230
1.0
 70
     8
 71
     3
 72
     8
 73
     4
 74
     0
 42
0.00000001
 43
0.00000001
 12
1.0
 22
0.0
 32
0.0
 13
1.0
 23
0.0
 33
0.0
 40
0.0
 40
0.0
 40
0.0
 40
0.0
 40
1.0
 40
1.0
 40
1.0
 40
1.0
 10
179.2976195031593
 20
112.580554495114
 30
0.0
 10
179.3165564353251
 20
112.5526000577126
 30
0.0
 10
179.3204705162654
 20
112.5325162063563
 30
0.0
 10
179.3204705162654
 20
112.5162893621909
 30
0.0
  0
LINE
  5
127
330
1F
100
AcDbEntity
  8
0
  6
HIDDEN
 62
     7
370
     0
100
AcDbLine
 10
179.3204705163
 20
112.41128099
 30
0.0
 11
179.3204705163
 21
112.5162893622
 31
0.0
  0
LINE
  5
128
330
1F
100
AcDbEntity
  8
0
  6
HIDDEN
 62
     7
370
     0
100
AcDbLine
 10
179.3204705163
 20
140.4859131755
 30
0.0
 11
179.3204705163
 21
140.5909215477
 31
0.0
  0
LINE
  5
129
330
1F
100
AcDbEntity
  8
0
  6
HIDDEN
 62
     7
370
     0
100
AcDbLine
 10
179.3204705163
 20
140.4859131755
 30
0.0
 11
179.3139875189
 21
140.4551871029
 31
0.0
  0
SPLINE
  5
12A
330
1F
100
AcDbEntity
  8
0
  6
HIDDEN
 62
     7
370
     0
100
AcDbSpline
210
0.0
220
0.0
230
1.0
 70
     8
 71
     3
 72
     8
 73
     4
 74
     0
 42
0.00000001
 43
0.00000001
 12
1.0
 22
0.0
 32
0.0
 13
1.0
 23
0.0
 33
0.0
 40
0.0
 40
0.0
 40
0.0
 40
0.0
 40
1.0
 40
1.0
 40
1.0
 40
1.0
 10
178.2643861987019
 20
140.3322896515294
 30
0.0
 10
178.2400721535677
 20
140.3316787980855
 30
0.0
 10
178.2185755995988
 20
140.3296624804433
 30
0.0
 10
178.1991501727055
 20
140.326165276856
 30
0.0
  0
SPLINE
  5
12B
330
1F
100
AcDbEntity
  8
0
  6
HIDDEN
 62
     7
370
     0
100
AcDbSpline
210
0.0
220
0.0
230
1.0
 70
     8
 71
     3
 72
     8
 73
     4
 74
     0
 42
0.00000001
 43
0.00000001
 12
1.0
 22
0.0
 32
0.0
 13
1.0
 23
0.0
 33
0.0
 40
0.0
 40
0.0
 40
0.0
 40
0.0
 40
1.0
 40
1.0
 40
1.0
 40
1.0
 10
178.1991501727055
 20
136.5546205864576
 30
0.0
 10
178.2185758528555
 20
136.4785277156859
 30
0.0
 10
178.2400724948116
 20
136.4021023445527
 30
0.0
 10
178.2643861987017
 20
136.3255411870027
 30
0.0
  0
SPLINE
  5
12C
330
1F
100
AcDbEntity
  8
0
  6
HIDDEN
 62
     7
370
     0
100
AcDbSpline
210
0.0
220
0.0
230
1.0
 70
     8
 71
     3
 72
    54
 73
    50
 74
     0
 42
0.00000001
 43
0.00000001
 12
1.0
 22
0.0
 32
0.0
 13
1.0
 23
0.0
 33
0.0
 40
0.0
 40
0.0
 40
0.0
 40
0.0
 40
0.0078125000000001
 40
0.0078125000000001
 40
0.0156250000000002
 40
0.0156250000000002
 40
0.0312500000000004
 40
0.0312500000000004
 40
0.0625000000000011
 40
0.0625000000000011
 40
0.1250000000000022
 40
0.1250000000000022
 40
0.2500000000000036
 40
0.2500000000000036
 40
0.3125000000000042
 40
0.3125000000000042
 40
0.3750000000000047
 40
0.3750000000000047
 40
0.4062500000000044
 40
0.4062500000000044
 40
0.4375000000000041
 40
0.4375000000000041
 40
0.5000000000000034
 40
0.5000000000000034
 40
0.5625000000000028
 40
0.5625000000000028
 40
0.6250000000000021
 40
0.6250000000000021
 40
0.6875000000000014
 40
0.6875000000000014
 40
0.7500000000000007
 40
0.7500000000000007
 40
0.7656250000000007
 40
0.7656250000000007
 40
0.7734375000000007
 40
0.7734375000000007
 40
0.7812500000000007
 40
0.7812500000000007
 40
0.7890625000000007
 40
0.7890625000000007
 40
0.7968750000000007
 40
0.7968750000000007
 40
0.8125000000000007
 40
0.8125000000000007
 40
0.8750000000000004
 40
0.8750000000000004
 40
0.9375000000000002
 40
0.9375000000000002
 40
1.0
 40
1.0
 40
1.0
 40
1.0
 10
192.3394318929457
 20
119.8669412309524
 30
0.0
 10
192.3612081861535
 20
119.8557529686875
 30
0.0
 10
192.3803418805334
 20
119.849218525564
 30
0.0
 10
192.417561868991
 20
119.8386117882082
 30
0.0
 10
192.4353925396317
 20
119.8348209173669
 30
0.0
 10
192.4877937767531
 20
119.8254089972719
 30
0.0
 10
192.5216796450735
 20
119.8216926695025
 30
0.0
 10
192.6240402911127
 20
119.8137519828609
 30
0.0
 10
192.6930568247923
 20
119.8131254209512
 30
0.0
 10
192.9037687165404
 20
119.820924250435
 30
0.0
 10
193.0491822515707
 20
119.839350883288
 30
0.0
 10
193.504976216511
 20
119.9343182680215
 30
0.0
 10
193.8395886604232
 20
120.0518189168578
 30
0.0
 10
194.3543867014668
 20
120.3363189811784
 30
0.0
 10
194.5259486821914
 20
120.4483259721712
 30
0.0
 10
194.856766067791
 20
120.7102110033036
 30
0.0
 10
195.0133196445647
 20
120.8586103111472
 30
0.0
 10
195.2154663476338
 20
121.0975693891719
 30
0.0
 10
195.2758173243382
 20
121.1779004125375
 30
0.0
 10
195.3829272664399
 20
121.3398685630037
 30
0.0
 10
195.4299792999414
 20
121.4223236761756
 30
0.0
 10
195.5457574209103
 20
121.6616079962267
 30
0.0
 10
195.5914894275224
 20
121.8148502418316
 30
0.0
 10
195.6287694408022
 20
122.0899274746171
 30
0.0
 10
195.6212578913683
 20
122.2154844926605
 30
0.0
 10
195.5675567812862
 20
122.4356227603995
 30
0.0
 10
195.5218856382187
 20
122.5311899695055
 30
0.0
 10
195.4002655971085
 20
122.6986859656806
 30
0.0
 10
195.3249104975314
 20
122.7692149182607
 30
0.0
 10
195.1535834942002
 20
122.8847350398221
 30
0.0
 10
195.0560415746585
 20
122.9314237685929
 30
0.0
 10
194.9272036806034
 20
122.9689622899777
 30
0.0
 10
194.9010219174795
 20
122.9754482303205
 30
0.0
 10
194.8636802104043
 20
122.9810270361397
 30
0.0
 10
194.8515788850636
 20
122.9822104482749
 30
0.0
 10
194.8303248042735
 20
122.9809655011686
 30
0.0
 10
194.8210177315615
 20
122.978546558206
 30
0.0
 10
194.8149507372246
 20
122.963314607029
 30
0.0
 10
194.819725990229
 20
122.9496436619238
 30
0.0
 10
194.8373406285812
 20
122.9186344308678
 30
0.0
 10
194.8490865335484
 20
122.9017267447875
 30
0.0
 10
194.8862361706893
 20
122.8494947733139
 30
0.0
 10
194.913397986085
 20
122.8131047947744
 30
0.0
 10
195.0470928767043
 20
122.6276943928828
 30
0.0
 10
195.1503380148288
 20
122.4657305250713
 30
0.0
 10
195.3275492264492
 20
122.1259475693302
 30
0.0
 10
195.4037455078493
 20
121.9471404085869
 30
0.0
 10
195.5264909136821
 20
121.5690196915404
 30
0.0
 10
195.5730658570525
 20
121.3686413595681
 30
0.0
 10
195.5985525142505
 20
121.1625811468145
 30
0.0
  0
SPLINE
  5
12D
330
1F
100
AcDbEntity
  8
0
  6
HIDDEN
 62
     7
370
     0
100
AcDbSpline
210
0.0
220
0.0
230
1.0
 70
     8
 71
     3
 72
    16
 73
    12
 74
     0
 42
0.00000001
 43
0.00000001
 12
1.0
 22
0.0
 32
0.0
 13
1.0
 23
0.0
 33
0.0
 40
0.0
 40
0.0
 40
0.0
 40
0.0
 40
0.5000000000000011
 40
0.5000000000000011
 40
0.7500000000000008
 40
0.7500000000000008
 40
0.8750000000000003
 40
0.8750000000000003
 40
0.9375000000000002
 40
0.9375000000000002
 40
1.0
 40
1.0
 40
1.0
 40
1.0
 10
193.9424317784242
 20
118.9746274934365
 30
0.0
 10
193.6468619688533
 20
118.9927979778791
 30
0.0
 10
193.3689453335448
 20
119.0810026249826
 30
0.0
 10
192.9700182720005
 20
119.2889425204757
 30
0.0
 10
192.8426912922953
 20
119.3702020052929
 30
0.0
 10
192.6579722368181
 20
119.5087131873104
 30
0.0
 10
192.5976282364233
 20
119.5576170631376
 30
0.0
 10
192.5074301756151
 20
119.6349325659332
 30
0.0
 10
192.4773750256829
 20
119.6614415077697
 30
0.0
 10
192.4156321689545
 20
119.7157590572617
 30
0.0
 10
192.3840265921418
 20
119.7443267510922
 30
0.0
 10
192.3474506446871
 20
119.7713367596712
 30
0.0
  0
SPLINE
  5
12E
330
1F
100
AcDbEntity
  8
0
  6
HIDDEN
 62
     7
370
     0
100
AcDbSpline
210
0.0
220
0.0
230
1.0
 70
     8
 71
     3
 72
    62
 73
    58
 74
     0
 42
0.00000001
 43
0.00000001
 12
1.0
 22
0.0
 32
0.0
 13
1.0
 23
0.0
 33
0.0
 40
-0.0312499999999999
 40
-0.0312499999999999
 40
0.0
 40
0.0
 40
0.03125
 40
0.03125
 40
0.0625000000000001
 40
0.0625000000000001
 40
0.0937500000000001
 40
0.0937500000000001
 40
0.1250000000000001
 40
0.1250000000000001
 40
0.1875
 40
0.1875
 40
0.21875
 40
0.21875
 40
0.2499999999999999
 40
0.2499999999999999
 40
0.2812499999999999
 40
0.2812499999999999
 40
0.3124999999999999
 40
0.3124999999999999
 40
0.3437499999999998
 40
0.3437499999999998
 40
0.3749999999999998
 40
0.3749999999999998
 40
0.4062499999999998
 40
0.4062499999999998
 40
0.4374999999999998
 40
0.4374999999999998
 40
0.4687499999999997
 40
0.4687499999999997
 40
0.4999999999999997
 40
0.4999999999999997
 40
0.5624999999999996
 40
0.5624999999999996
 40
0.5937499999999998
 40
0.5937499999999998
 40
0.6249999999999999
 40
0.6249999999999999
 40
0.6875000000000003
 40
0.6875000000000003
 40
0.7187500000000006
 40
0.7187500000000006
 40
0.7500000000000006
 40
0.7500000000000006
 40
0.7812500000000006
 40
0.7812500000000006
 40
0.8125000000000006
 40
0.8125000000000006
 40
0.8750000000000003
 40
0.8750000000000003
 40
0.9062500000000002
 40
0.9062500000000002
 40
0.9375000000000001
 40
0.9375000000000001
 40
0.9687500000000001
 40
0.9687500000000001
 40
1.0
 40
1.0
 40
1.03125
 40
1.03125
 10
193.6603120620672
 20
122.3488419873244
 30
0.0
 10
193.3806289704637
 20
122.3488419873244
 30
0.0
 10
193.2433450135062
 20
122.3597950247715
 30
0.0
 10
192.9736092586548
 20
122.4027781795218
 30
0.0
 10
192.8397272395592
 20
122.4353828569364
 30
0.0
 10
192.5859806811612
 20
122.5204810620077
 30
0.0
 10
192.4657950194186
 20
122.5727129338863
 30
0.0
 10
192.2383324279048
 20
122.697341440564
 30
0.0
 10
192.1315172224432
 20
122.7698507337232
 30
0.0
 10
191.8432726251185
 20
123.0107338512647
 30
0.0
 10
191.6871519262173
 20
123.2089140035697
 30
0.0
 10
191.5294364653751
 20
123.5413905599533
 30
0.0
 10
191.4885272362675
 20
123.6601070085552
 30
0.0
 10
191.4341503312452
 20
123.9051895455774
 30
0.0
 10
191.4205628633557
 20
124.0304541786533
 30
0.0
 10
191.420379098368
 20
124.2865757087231
 30
0.0
 10
191.4342651345742
 20
124.4184020470125
 30
0.0
 10
191.4883522191248
 20
124.6756532971463
 30
0.0
 10
191.5283609751698
 20
124.802457911075
 30
0.0
 10
191.6347072497521
 20
125.0519598988752
 30
0.0
 10
191.6999065246696
 20
125.1716973621595
 30
0.0
 10
191.8516139287078
 20
125.3978242432928
 30
0.0
 10
191.9394146033478
 20
125.5057760545998
 30
0.0
 10
192.1327525127111
 20
125.7026148651162
 30
0.0
 10
192.2377008987227
 20
125.7913570231831
 30
0.0
 10
192.4644289086687
 20
125.9488419905205
 30
0.0
 10
192.5872006596508
 20
126.0177290401059
 30
0.0
 10
192.8398791318761
 20
126.1280923871875
 30
0.0
 10
192.9708601033768
 20
126.1705277779121
 30
0.0
 10
193.2426484746256
 20
126.2283036141283
 30
0.0
 10
193.3818820849599
 20
126.2429541210832
 30
0.0
 10
193.7950658677582
 20
126.2431337262752
 30
0.0
 10
194.073141612473
 20
126.1838254651651
 30
0.0
 10
194.4532104405043
 20
126.0180297175761
 30
0.0
 10
194.5759786824464
 20
125.949160221312
 30
0.0
 10
194.8026648483327
 20
125.7918086573962
 30
0.0
 10
194.9078329568781
 20
125.7029774129466
 30
0.0
 10
195.1989194526083
 20
125.4066183764196
 30
0.0
 10
195.3528499748363
 20
125.1769805883342
 30
0.0
 10
195.5122815775861
 20
124.803270039048
 30
0.0
 10
195.5522827751415
 20
124.6766814330063
 30
0.0
 10
195.606441996071
 20
124.4199377497821
 30
0.0
 10
195.6204649026204
 20
124.2882005391703
 30
0.0
 10
195.6204761264571
 20
124.0315774983438
 30
0.0
 10
195.6069351732581
 20
123.9061974055359
 30
0.0
 10
195.5527170866482
 20
123.6611201913226
 30
0.0
 10
195.5118371320419
 20
123.542192754107
 30
0.0
 10
195.3538690548661
 20
123.2088810122658
 30
0.0
 10
195.1978410975112
 20
123.0108409713921
 30
0.0
 10
194.909093978186
 20
122.7695937176754
 30
0.0
 10
194.801879143457
 20
122.6969076425794
 30
0.0
 10
194.5750257365071
 20
122.5726812820551
 30
0.0
 10
194.4550082242672
 20
122.5204978807019
 30
0.0
 10
194.2011900168131
 20
122.4353741195641
 30
0.0
 10
194.0673229727617
 20
122.4027781676406
 30
0.0
 10
193.7976557308674
 20
122.3598031496837
 30
0.0
 10
193.6603120620672
 20
122.3488419873244
 30
0.0
 10
193.3806289704637
 20
122.3488419873244
 30
0.0
  0
LWPOLYLINE
  5
12F
330
1F
100
AcDbEntity
  8
0
  6
HIDDEN
 62
     7
370
     0
100
AcDbPolyline
 90
       22
 70
   128
 43
0.0
 10
195.5985525143
 20
121.1625811468
 10
195.477023948
 20
121.5892793788
 10
195.2549784943
 20
121.9796416321
 10
194.9438236196
 20
122.3136132544
 10
194.5595447396
 20
122.5740366322
 10
194.1218839764
 20
122.7475326534
 10
193.6533259179
 20
122.8251880527
 10
193.1779424841
 20
122.8030133253
 10
192.720156245
 20
122.682147686
 10
192.3034857241
 20
122.4688005426
 10
191.9493371468
 20
122.1739324905
 10
191.6759047072
 20
121.8126922184
 10
191.4972358508
 20
121.4036382524
 10
191.4225095946
 20
120.9677855214
 10
191.4555649601
 20
120.5275257267
 10
191.5947037456
 20
120.1054769801
 10
191.8327777704
 20
119.7233218105
 10
192.1575561084
 20
119.4006932356
 10
192.5523534462
 20
119.1541661262
 10
192.9968872814
 20
118.9964056807
 10
193.4683199255
 20
118.9355167578
 10
193.9424317784
 20
118.9746274934
  0
SPLINE
  5
130
330
1F
100
AcDbEntity
  8
0
  6
HIDDEN
 62
     7
370
     0
100
AcDbSpline
210
0.0
220
0.0
230
1.0
 70
     8
 71
     3
 72
    24
 73
    20
 74
     0
 42
0.00000001
 43
0.00000001
 12
1.0
 22
0.0
 32
0.0
 13
1.0
 23
0.0
 33
0.0
 40
0.0
 40
0.0
 40
0.0
 40
0.0
 40
0.125
 40
0.125
 40
0.25
 40
0.25
 40
0.375
 40
0.375
 40
0.5
 40
0.5
 40
0.625
 40
0.625
 40
0.75
 40
0.75
 40
0.8125
 40
0.8125
 40
0.875
 40
0.875
 40
1.0
 40
1.0
 40
1.0
 40
1.0
 10
195.5985525142505
 20
121.1625811468146
 30
0.0
 10
195.4756570423858
 20
121.1314971702664
 30
0.0
 10
195.3552599938494
 20
121.0873019197214
 30
0.0
 10
195.1232633262262
 20
120.9510688345824
 30
0.0
 10
195.017999589696
 20
120.859622506656
 30
0.0
 10
194.8325403899824
 20
120.6436753022912
 30
0.0
 10
194.7538917157129
 20
120.5251614866435
 30
0.0
 10
194.5958317079271
 20
120.2884278638374
 30
0.0
 10
194.5181445162453
 20
120.1735827140292
 30
0.0
 10
194.3554648441672
 20
119.9588603948117
 30
0.0
 10
194.2694407278131
 20
119.857824565064
 30
0.0
 10
194.1053686991345
 20
119.6696944920828
 30
0.0
 10
194.0270982872674
 20
119.5816317488007
 30
0.0
 10
193.9420206730835
 20
119.4482044613606
 30
0.0
 10
193.9197715982799
 20
119.4042994455828
 30
0.0
 10
193.8895667251992
 20
119.3160108047812
 30
0.0
 10
193.881687057694
 20
119.2712274907024
 30
0.0
 10
193.8788746574098
 20
119.140371091946
 30
0.0
 10
193.9035101423162
 20
119.0556816342488
 30
0.0
 10
193.9424317784242
 20
118.9746274934365
 30
0.0
  0
LINE
  5
131
330
1F
100
AcDbEntity
  8
0
  6
HIDDEN
 62
     7
370
     0
100
AcDbLine
 10
179.3204705163
 20
112.5162893622
 30
0.0
 11
179.3204705163
 21
120.9956565019
 31
0.0
  0
LINE
  5
132
330
1F
100
AcDbEntity
  8
0
  6
HIDDEN
 62
     7
370
     0
100
AcDbLine
 10
179.3204705163
 20
132.0065460358
 30
0.0
 11
179.3204705163
 21
140.4859131755
 31
0.0
  0
CIRCLE
  5
133
330
1F
100
AcDbEntity
  8
0
  6
HIDDEN
 62
     7
370
     0
100
AcDbCircle
 10
168.0204705163
 20
126.5011012689
 30
0.0
 40
2.299999999999997
  0
LINE
  5
134
330
1F
100
AcDbEntity
  8
0
  6
HIDDEN
 62
     7
370
     0
100
AcDbLine
 10
156.5475025483
 20
136.063794573
 30
0.0
 11
156.5475025483
 21
116.9384079647
 31
0.0
  0
LINE
  5
135
330
1F
100
AcDbEntity
  8
0
  6
HIDDEN
 62
     7
370
     0
100
AcDbLine
 10
155.5204705163
 20
116.3454507446
 30
0.0
 11
155.5204705163
 21
136.6441275194
 31
0.0
  0
LINE
  5
136
330
1F
100
AcDbEntity
  8
0
  6
HIDDEN
 62
     7
370
     0
100
AcDbLine
 10
160.0475025483
 20
135.7320413765
 30
0.0
 11
160.0475025483
 21
117.2701611612
 31
0.0
  0
LINE
  5
137
330
1F
100
AcDbEntity
  8
0
  6
HIDDEN
 62
     7
370
     0
100
AcDbLine
 10
163.4475025483
 20
135.5011012689
 30
0.0
 11
163.4475025483
 21
117.5011012689
 31
0.0
  0
LINE
  5
138
330
1F
100
AcDbEntity
  8
0
  6
HIDDEN
 62
     7
370
     0
100
AcDbLine
 10
158.6475025483
 20
135.5011012689
 30
0.0
 11
158.6475025483
 21
117.5011012689
 31
0.0
  0
LINE
  5
139
330
1F
100
AcDbEntity
  8
0
  6
HIDDEN
 62
     7
370
     0
100
AcDbLine
 10
159.6475025483
 20
135.5011012689
 30
0.0
 11
159.6475025483
 21
117.5011012689
 31
0.0
  0
SPLINE
  5
13A
330
1F
100
AcDbEntity
  8
0
  6
HIDDEN
 62
     7
370
     0
100
AcDbSpline
210
0.0
220
0.0
230
1.0
 70
     8
 71
     3
 72
    14
 73
    10
 74
     0
 42
0.00000001
 43
0.00000001
 12
1.0
 22
0.0
 32
0.0
 13
1.0
 23
0.0
 33
0.0
 40
0.0
 40
0.0
 40
0.0
 40
0.0
 40
0.2499999999999999
 40
0.2499999999999999
 40
0.4999999999999999
 40
0.4999999999999999
 40
0.7499999999999999
 40
0.7499999999999999
 40
1.0
 40
1.0
 40
1.0
 40
1.0
 10
170.0204705162652
 20
127.6368829380109
 30
0.0
 10
170.1186948627682
 20
127.4639195082074
 30
0.0
 10
170.1940097007523
 20
127.2788869537829
 30
0.0
 10
170.2949764109466
 20
126.8958747396485
 30
0.0
 10
170.3203519972368
 20
126.7011561861829
 30
0.0
 10
170.3205882225031
 20
126.3037808849173
 30
0.0
 10
170.2948851531676
 20
126.1062885504419
 30
0.0
 10
170.1945650396511
 20
125.7251167158109
 30
0.0
 10
170.1186732115635
 20
125.5382449038383
 30
0.0
 10
170.0204705162698
 20
125.3653195996884
 30
0.0
  0
LINE
  5
13B
330
1F
100
AcDbEntity
  8
0
  6
HIDDEN
 62
     7
370
     0
100
AcDbLine
 10
170.5204705163
 20
135.0011012676
 30
0.0
 11
170.5204705163
 21
118.0011012689
 31
0.0
  0
SPLINE
  5
13C
330
1F
100
AcDbEntity
  8
0
  6
HIDDEN
 62
     7
370
     0
100
AcDbSpline
210
0.0
220
0.0
230
1.0
 70
     8
 71
     3
 72
    14
 73
    10
 74
     0
 42
0.00000001
 43
0.00000001
 12
1.0
 22
0.0
 32
0.0
 13
1.0
 23
0.0
 33
0.0
 40
0.0
 40
0.0
 40
0.0
 40
0.0
 40
0.2499999999999999
 40
0.2499999999999999
 40
0.4999999999999999
 40
0.4999999999999999
 40
0.7499999999999999
 40
0.7499999999999999
 40
1.0
 40
1.0
 40
1.0
 40
1.0
 10
170.0204705162652
 20
125.3653195996908
 30
0.0
 10
170.1186948627682
 20
125.5382830294943
 30
0.0
 10
170.1940097007523
 20
125.7233155839187
 30
0.0
 10
170.2949764109466
 20
126.1063277980532
 30
0.0
 10
170.3203519972368
 20
126.3010463515188
 30
0.0
 10
170.3205882225031
 20
126.6984216527844
 30
0.0
 10
170.2948851531676
 20
126.8959139872598
 30
0.0
 10
170.1945650396511
 20
127.2770858218908
 30
0.0
 10
170.1186732115635
 20
127.4639576338634
 30
0.0
 10
170.0204705162698
 20
127.6368829380133
 30
0.0
  0
SPLINE
  5
13D
330
1F
100
AcDbEntity
  8
0
  6
HIDDEN
 62
     7
370
     0
100
AcDbSpline
210
0.0
220
0.0
230
1.0
 70
     8
 71
     3
 72
    60
 73
    56
 74
     0
 42
0.00000001
 43
0.00000001
 12
1.0
 22
0.0
 32
0.0
 13
1.0
 23
0.0
 33
0.0
 40
0.0
 40
0.0
 40
0.0
 40
0.0
 40
0.0625000000000005
 40
0.0625000000000005
 40
0.125000000000001
 40
0.125000000000001
 40
0.1875000000000015
 40
0.1875000000000015
 40
0.2187500000000015
 40
0.2187500000000015
 40
0.2500000000000016
 40
0.2500000000000016
 40
0.3125000000000017
 40
0.3125000000000017
 40
0.3750000000000018
 40
0.3750000000000018
 40
0.4062500000000017
 40
0.4062500000000017
 40
0.4375000000000016
 40
0.4375000000000016
 40
0.4687500000000015
 40
0.4687500000000015
 40
0.5000000000000014
 40
0.5000000000000014
 40
0.5312500000000013
 40
0.5312500000000013
 40
0.5625000000000012
 40
0.5625000000000012
 40
0.5937500000000012
 40
0.5937500000000012
 40
0.6250000000000011
 40
0.6250000000000011
 40
0.656250000000001
 40
0.656250000000001
 40
0.6875000000000009
 40
0.6875000000000009
 40
0.7187500000000009
 40
0.7187500000000009
 40
0.7500000000000008
 40
0.7500000000000008
 40
0.7812500000000007
 40
0.7812500000000007
 40
0.8125000000000006
 40
0.8125000000000006
 40
0.8437500000000006
 40
0.8437500000000006
 40
0.8750000000000004
 40
0.8750000000000004
 40
0.9062500000000003
 40
0.9062500000000003
 40
0.9375000000000002
 40
0.9375000000000002
 40
0.9687500000000002
 40
0.9687500000000002
 40
1.0
 40
1.0
 40
1.0
 40
1.0
 10
170.0204705162652
 20
125.3653195996908
 30
0.0
 10
169.8952806146866
 20
125.1448724750752
 30
0.0
 10
169.7384132961184
 20
124.9511387462549
 30
0.0
 10
169.3613757762996
 20
124.6154490474924
 30
0.0
 10
169.1496624698786
 20
124.4814716891797
 30
0.0
 10
168.6837724879298
 20
124.2843449444945
 30
0.0
 10
168.4379332568782
 20
124.2251275322727
 30
0.0
 10
168.0584522037836
 20
124.197920796382
 30
0.0
 10
167.9307064750897
 20
124.1994140615239
 30
0.0
 10
167.6802402284216
 20
124.2229298673328
 30
0.0
 10
167.5564108456134
 20
124.2448490861371
 30
0.0
 10
167.1891911715148
 20
124.3416856509819
 30
0.0
 10
166.958422153429
 20
124.4454867724337
 30
0.0
 10
166.5385331920095
 20
124.7242052533618
 30
0.0
 10
166.354274817122
 20
124.8957675448655
 30
0.0
 10
166.1235264296386
 20
125.1944149061323
 30
0.0
 10
166.0544795798496
 20
125.3008824466346
 30
0.0
 10
165.9359149160441
 20
125.5211657950275
 30
0.0
 10
165.8857065472945
 20
125.6358273114289
 30
0.0
 10
165.8038746949367
 20
125.8745079482057
 30
0.0
 10
165.772523796054
 20
125.9985535750838
 30
0.0
 10
165.7311294180154
 20
126.2466686111922
 30
0.0
 10
165.7206236429512
 20
126.3719063136806
 30
0.0
 10
165.7203206906154
 20
126.6247853692716
 30
0.0
 10
165.730805220232
 20
126.7526650555082
 30
0.0
 10
165.7719452976934
 20
127.0010871167137
 30
0.0
 10
165.802523418242
 20
127.1228860434821
 30
0.0
 10
165.8838061265933
 20
127.3616655729564
 30
0.0
 10
165.9348070131552
 20
127.4787071352631
 30
0.0
 10
166.0533740615182
 20
127.699532333189
 30
0.0
 10
166.12126281479
 20
127.8044706967518
 30
0.0
 10
166.2744132525276
 20
128.0034480299811
 30
0.0
 10
166.3599694241001
 20
128.0974561551753
 30
0.0
 10
166.5426807950593
 20
128.2679488401121
 30
0.0
 10
166.6404880947412
 20
128.3453870351614
 30
0.0
 10
166.8492912066582
 20
128.4845529310497
 30
0.0
 10
166.9608733819461
 20
128.5463347400567
 30
0.0
 10
167.1895191814451
 20
128.6494136106575
 30
0.0
 10
167.3074739924162
 20
128.6914176458531
 30
0.0
 10
167.5508024374049
 20
128.7561537671499
 30
0.0
 10
167.677146312748
 20
128.7788270297126
 30
0.0
 10
167.9282522937658
 20
128.8027098258937
 30
0.0
 10
168.0539342874888
 20
128.8043131271604
 30
0.0
 10
168.3055563572806
 20
128.7868463883895
 30
0.0
 10
168.4324539775664
 20
128.7674104977496
 30
0.0
 10
168.6776445438275
 20
128.7088173264259
 30
0.0
 10
168.796833700861
 20
128.6697544752693
 30
0.0
 10
169.0285187252158
 20
128.5722447531455
 30
0.0
 10
169.1416935295663
 20
128.5132093988569
 30
0.0
 10
169.353771946502
 20
128.3794056820174
 30
0.0
 10
169.4535607252029
 20
128.3044104658726
 30
0.0
 10
169.6408189121919
 20
128.1382154013518
 30
0.0
 10
169.7287139491352
 20
128.0463212026103
 30
0.0
 10
169.8869350247671
 20
127.850957004896
 30
0.0
 10
169.9578729810588
 20
127.7471110512235
 30
0.0
 10
170.0204705162652
 20
127.6368829380109
 30
0.0
  0
SPLINE
  5
13E
330
1F
100
AcDbEntity
  8
0
  6
HIDDEN
 62
     7
370
     0
100
AcDbSpline
210
0.0
220
0.0
230
1.0
 70
     8
 71
     3
 72
    60
 73
    56
 74
     0
 42
0.00000001
 43
0.00000001
 12
1.0
 22
0.0
 32
0.0
 13
1.0
 23
0.0
 33
0.0
 40
0.0
 40
0.0
 40
0.0
 40
0.0
 40
0.0625000000000005
 40
0.0625000000000005
 40
0.125000000000001
 40
0.125000000000001
 40
0.1875000000000015
 40
0.1875000000000015
 40
0.2187500000000015
 40
0.2187500000000015
 40
0.2500000000000016
 40
0.2500000000000016
 40
0.3125000000000017
 40
0.3125000000000017
 40
0.3750000000000018
 40
0.3750000000000018
 40
0.4062500000000017
 40
0.4062500000000017
 40
0.4375000000000016
 40
0.4375000000000016
 40
0.4687500000000015
 40
0.4687500000000015
 40
0.5000000000000014
 40
0.5000000000000014
 40
0.5312500000000013
 40
0.5312500000000013
 40
0.5625000000000012
 40
0.5625000000000012
 40
0.5937500000000012
 40
0.5937500000000012
 40
0.6250000000000011
 40
0.6250000000000011
 40
0.656250000000001
 40
0.656250000000001
 40
0.6875000000000009
 40
0.6875000000000009
 40
0.7187500000000009
 40
0.7187500000000009
 40
0.7500000000000008
 40
0.7500000000000008
 40
0.7812500000000007
 40
0.7812500000000007
 40
0.8125000000000006
 40
0.8125000000000006
 40
0.8437500000000006
 40
0.8437500000000006
 40
0.8750000000000004
 40
0.8750000000000004
 40
0.9062500000000003
 40
0.9062500000000003
 40
0.9375000000000002
 40
0.9375000000000002
 40
0.9687500000000002
 40
0.9687500000000002
 40
1.0
 40
1.0
 40
1.0
 40
1.0
 10
170.0204705162652
 20
127.6368829380109
 30
0.0
 10
169.8952806146866
 20
127.8573300626264
 30
0.0
 10
169.7384132961184
 20
128.0510637914468
 30
0.0
 10
169.3613757762996
 20
128.3867534902092
 30
0.0
 10
169.1496624698786
 20
128.520730848522
 30
0.0
 10
168.6837724879298
 20
128.7178575932071
 30
0.0
 10
168.4379332568782
 20
128.777075005429
 30
0.0
 10
168.0584522037836
 20
128.8042817413196
 30
0.0
 10
167.9307064750897
 20
128.8027884761778
 30
0.0
 10
167.6802402284216
 20
128.7792726703688
 30
0.0
 10
167.5564108456134
 20
128.7573534515646
 30
0.0
 10
167.1891911715148
 20
128.6605168867197
 30
0.0
 10
166.958422153429
 20
128.5567157652679
 30
0.0
 10
166.5385331920095
 20
128.2779972843399
 30
0.0
 10
166.354274817122
 20
128.1064349928362
 30
0.0
 10
166.1235264296386
 20
127.8077876315694
 30
0.0
 10
166.0544795798496
 20
127.7013200910671
 30
0.0
 10
165.9359149160441
 20
127.4810367426741
 30
0.0
 10
165.8857065472945
 20
127.3663752262727
 30
0.0
 10
165.8038746949367
 20
127.1276945894959
 30
0.0
 10
165.772523796054
 20
127.0036489626179
 30
0.0
 10
165.7311294180154
 20
126.7555339265095
 30
0.0
 10
165.7206236429512
 20
126.6302962240211
 30
0.0
 10
165.7203206906154
 20
126.37741716843
 30
0.0
 10
165.730805220232
 20
126.2495374821934
 30
0.0
 10
165.7719452976934
 20
126.0011154209879
 30
0.0
 10
165.802523418242
 20
125.8793164942196
 30
0.0
 10
165.8838061265933
 20
125.6405369647452
 30
0.0
 10
165.9348070131552
 20
125.5234954024386
 30
0.0
 10
166.0533740615182
 20
125.3026702045127
 30
0.0
 10
166.12126281479
 20
125.1977318409499
 30
0.0
 10
166.2744132525276
 20
124.9987545077205
 30
0.0
 10
166.3599694241001
 20
124.9047463825263
 30
0.0
 10
166.5426807950593
 20
124.7342536975896
 30
0.0
 10
166.6404880947412
 20
124.6568155025403
 30
0.0
 10
166.8492912066582
 20
124.517649606652
 30
0.0
 10
166.9608733819461
 20
124.455867797645
 30
0.0
 10
167.1895191814451
 20
124.3527889270442
 30
0.0
 10
167.3074739924162
 20
124.3107848918485
 30
0.0
 10
167.5508024374049
 20
124.2460487705518
 30
0.0
 10
167.677146312748
 20
124.2233755079891
 30
0.0
 10
167.9282522937658
 20
124.1994927118079
 30
0.0
 10
168.0539342874888
 20
124.1978894105413
 30
0.0
 10
168.3055563572806
 20
124.2153561493121
 30
0.0
 10
168.4324539775664
 20
124.2347920399521
 30
0.0
 10
168.6776445438275
 20
124.2933852112757
 30
0.0
 10
168.796833700861
 20
124.3324480624324
 30
0.0
 10
169.0285187252158
 20
124.4299577845562
 30
0.0
 10
169.1416935295663
 20
124.4889931388448
 30
0.0
 10
169.353771946502
 20
124.6227968556842
 30
0.0
 10
169.4535607252029
 20
124.697792071829
 30
0.0
 10
169.6408189121919
 20
124.8639871363498
 30
0.0
 10
169.7287139491352
 20
124.9558813350913
 30
0.0
 10
169.8869350247671
 20
125.1512455328057
 30
0.0
 10
169.9578729810588
 20
125.2550914864782
 30
0.0
 10
170.0204705162652
 20
125.3653195996908
 30
0.0
  0
LINE
  5
13F
330
1F
100
AcDbEntity
  8
0
  6
HIDDEN
 62
     7
370
     0
100
AcDbLine
 10
171.4204705163
 20
132.7511012689
 30
0.0
 11
171.4204705163
 21
120.2511012689
 31
0.0
  0
LINE
  5
140
330
1F
100
AcDbEntity
  8
0
  6
HIDDEN
 62
     7
370
     0
100
AcDbLine
 10
170.5204705163
 20
119.3511012689
 30
0.0
 11
170.5204705163
 21
133.638543951
 31
0.0
  0
SPLINE
  5
141
330
1F
100
AcDbEntity
  8
0
  6
HIDDEN
 62
     7
370
     0
100
AcDbSpline
210
0.0
220
0.0
230
1.0
 70
     8
 71
     3
 72
    62
 73
    58
 74
     0
 42
0.00000001
 43
0.00000001
 12
1.0
 22
0.0
 32
0.0
 13
1.0
 23
0.0
 33
0.0
 40
-0.0312499999999997
 40
-0.0312499999999997
 40
0.0
 40
0.0
 40
0.0312500000000001
 40
0.0312500000000001
 40
0.0625000000000001
 40
0.0625000000000001
 40
0.0937500000000002
 40
0.0937500000000002
 40
0.1250000000000002
 40
0.1250000000000002
 40
0.1875000000000003
 40
0.1875000000000003
 40
0.2187500000000005
 40
0.2187500000000005
 40
0.2500000000000007
 40
0.2500000000000007
 40
0.2812500000000008
 40
0.2812500000000008
 40
0.312500000000001
 40
0.312500000000001
 40
0.3437500000000012
 40
0.3437500000000012
 40
0.3750000000000013
 40
0.3750000000000013
 40
0.4062500000000015
 40
0.4062500000000015
 40
0.4375000000000017
 40
0.4375000000000017
 40
0.4687500000000018
 40
0.4687500000000018
 40
0.500000000000002
 40
0.500000000000002
 40
0.5625000000000023
 40
0.5625000000000023
 40
0.5937500000000024
 40
0.5937500000000024
 40
0.6250000000000023
 40
0.6250000000000023
 40
0.6875000000000022
 40
0.6875000000000022
 40
0.7187500000000021
 40
0.7187500000000021
 40
0.7500000000000019
 40
0.7500000000000019
 40
0.7812500000000018
 40
0.7812500000000018
 40
0.8125000000000016
 40
0.8125000000000016
 40
0.8750000000000012
 40
0.8750000000000012
 40
0.9062500000000009
 40
0.9062500000000009
 40
0.9375000000000007
 40
0.9375000000000007
 40
0.9687500000000003
 40
0.9687500000000003
 40
1.0
 40
1.0
 40
1.03125
 40
1.03125
 10
193.3806289704636
 20
126.7591883611967
 30
0.0
 10
193.6603120620671
 20
126.7591883611967
 30
0.0
 10
193.7975960190246
 20
126.7738751605642
 30
0.0
 10
194.067331773876
 20
126.830967626945
 30
0.0
 10
194.2012137929716
 20
126.8741224149445
 30
0.0
 10
194.4549603513696
 20
126.9850607235928
 30
0.0
 10
194.5751460131122
 20
127.052506357967
 30
0.0
 10
194.802608604626
 20
127.210312974027
 30
0.0
 10
194.9094238100876
 20
127.3007642921458
 30
0.0
 10
195.1976684074123
 20
127.5944722697427
 30
0.0
 10
195.3537891063135
 20
127.8275920182377
 30
0.0
 10
195.5115045671558
 20
128.1970270548403
 30
0.0
 10
195.5524137962634
 20
128.3257646739686
 30
0.0
 10
195.6067907012856
 20
128.5842987187957
 30
0.0
 10
195.6203781691752
 20
128.7130133493036
 30
0.0
 10
195.6205619341629
 20
128.9691811395594
 30
0.0
 10
195.6066758979566
 20
129.097482907912
 30
0.0
 10
195.552588813406
 20
129.3413541703908
 30
0.0
 10
195.512580057361
 20
129.4583491944699
 30
0.0
 10
195.4062337827787
 20
129.6829248750829
 30
0.0
 10
195.3410345078612
 20
129.7878273909725
 30
0.0
 10
195.189327103823
 20
129.981655581463
 30
0.0
 10
195.1015264291831
 20
130.071887866527
 30
0.0
 10
194.9081885198197
 20
130.2333093303222
 30
0.0
 10
194.8032401338081
 20
130.3044343315815
 30
0.0
 10
194.5765121238621
 20
130.4288211388972
 30
0.0
 10
194.45374037288
 20
130.4821737695382
 30
0.0
 10
194.2010619006547
 20
130.5668272320752
 30
0.0
 10
194.070080929154
 20
130.5988907947793
 30
0.0
 10
193.7982925579052
 20
130.6423907925191
 30
0.0
 10
193.6590589475709
 20
130.6533156259498
 30
0.0
 10
193.2458751647726
 20
130.6534499795215
 30
0.0
 10
192.9677994200578
 20
130.6095721522109
 30
0.0
 10
192.5877305920266
 20
130.4824067708701
 30
0.0
 10
192.4649623500844
 20
130.4290690615642
 30
0.0
 10
192.2382761841981
 20
130.3047944568944
 30
0.0
 10
192.1331080756527
 20
130.2336066944196
 30
0.0
 10
191.8420215799226
 20
129.9905716001639
 30
0.0
 10
191.6880910576945
 20
129.7954361566885
 30
0.0
 10
191.5286594549447
 20
129.4590898060237
 30
0.0
 10
191.4886582573893
 20
129.342307385371
 30
0.0
 10
191.4344990364598
 20
129.0989599697204
 30
0.0
 10
191.4204761299104
 20
128.9707815437146
 30
0.0
 10
191.4204649060737
 20
128.7141613283276
 30
0.0
 10
191.4340058592727
 20
128.5853429698746
 30
0.0
 10
191.4882239458826
 20
128.326852236366
 30
0.0
 10
191.5291039004889
 20
128.1979086106676
 30
0.0
 10
191.6870719776647
 20
127.8275749126821
 30
0.0
 10
191.8430999350196
 20
127.5946074138419
 30
0.0
 10
192.1318470543448
 20
127.3004486440285
 30
0.0
 10
192.2390618890738
 20
127.2097669981146
 30
0.0
 10
192.4659152960237
 20
127.0524629614398
 30
0.0
 10
192.5859328082636
 20
126.9850826066383
 30
0.0
 10
192.8397510157177
 20
126.8741110671135
 30
0.0
 10
192.9736180597691
 20
126.8309675883797
 30
0.0
 10
193.2432853016634
 20
126.7738859752756
 30
0.0
 10
193.3806289704636
 20
126.7591883611967
 30
0.0
 10
193.6603120620671
 20
126.7591883611967
 30
0.0
  0
LINE
  5
142
330
1F
100
AcDbEntity
  8
0
  6
HIDDEN
 62
     7
370
     0
100
AcDbLine
 10
196.5050916473
 20
120.2511012689
 30
0.0
 11
196.5050916473
 21
132.7511012689
 31
0.0
  0
SPLINE
  5
143
330
1F
100
AcDbEntity
  8
0
  6
HIDDEN
 62
     7
370
     0
100
AcDbSpline
210
0.0
220
0.0
230
1.0
 70
     8
 71
     3
 72
    10
 73
     6
 74
     0
 42
0.00000001
 43
0.00000001
 12
1.0
 22
0.0
 32
0.0
 13
1.0
 23
0.0
 33
0.0
 40
0.0
 40
0.0
 40
0.0
 40
0.0
 40
0.5
 40
0.5
 40
1.0
 40
1.0
 40
1.0
 40
1.0
 10
202.7190693545754
 20
123.3472801889862
 30
0.0
 10
202.6976586474879
 20
123.8727829309934
 30
0.0
 10
202.6711571306819
 20
124.3981422675621
 30
0.0
 10
202.631711661705
 20
125.4492428501812
 30
0.0
 10
202.6191689320709
 20
125.9749953984599
 30
0.0
 10
202.6191689320709
 20
126.5011012688508
 30
0.0
  0
LINE
  5
144
330
1F
100
AcDbEntity
  8
0
  6
HIDDEN
 62
     7
370
     0
100
AcDbLine
 10
202.6191689321
 20
147.0011012689
 30
0.0
 11
202.6191689321
 21
126.5011012689
 31
0.0
  0
SPLINE
  5
145
330
1F
100
AcDbEntity
  8
0
  6
HIDDEN
 62
     7
370
     0
100
AcDbSpline
210
0.0
220
0.0
230
1.0
 70
     8
 71
     3
 72
    12
 73
     8
 74
     0
 42
0.00000001
 43
0.00000001
 12
1.0
 22
0.0
 32
0.0
 13
1.0
 23
0.0
 33
0.0
 40
0.0
 40
0.0
 40
0.0
 40
0.0
 40
0.0872558333518606
 40
0.4397567635886238
 40
0.7757849972437967
 40
0.8627006576978757
 40
1.0
 40
1.0
 40
1.0
 40
1.0
 10
202.7190693545754
 20
106.5382592644242
 30
0.0
 10
202.7119906436407
 20
106.5181660563052
 30
0.0
 10
202.6763149656782
 20
106.4168991973107
 30
0.0
 10
202.6089798892926
 20
106.2382527066727
 30
0.0
 10
202.6176126906689
 20
106.0593974833625
 30
0.0
 10
202.6648816006719
 20
105.9303937430917
 30
0.0
 10
202.6821117862855
 20
105.8787562792549
 30
0.0
 10
202.692662789222
 20
105.8471357822508
 30
0.0
  0
LINE
  5
146
330
1F
100
AcDbEntity
  8
0
  6
HIDDEN
 62
     7
370
     0
100
AcDbLine
 10
222.2193939298
 20
113.7023118734
 30
0.0
 11
222.2055168332
 21
113.7289018375
 31
0.0
  0
LINE
  5
147
330
1F
100
AcDbEntity
  8
0
  6
HIDDEN
 62
     7
370
     0
100
AcDbLine
 10
213.6854916288
 20
118.1031531471
 30
0.0
 11
222.2193939298
 21
113.7023118734
 31
0.0
  0
LINE
  5
148
330
1F
100
AcDbEntity
  8
0
  6
HIDDEN
 62
     7
370
     0
100
AcDbLine
 10
213.6716145322
 20
118.1297431113
 30
0.0
 11
213.6854916288
 21
118.1031531471
 31
0.0
  0
LINE
  5
149
330
1F
100
AcDbEntity
  8
0
  6
HIDDEN
 62
     7
370
     0
100
AcDbLine
 10
215.3749376126
 20
106.5636577474
 30
0.0
 11
208.2558699299
 21
120.2045337979
 31
0.0
  0
ELLIPSE
  5
14A
330
1F
100
AcDbEntity
  8
0
  6
HIDDEN
 62
     7
370
     0
100
AcDbEllipse
 10
218.6423645134
 20
126.5011012689
 30
0.0
 11
-14.84790304774597
 21
20.46493716704343
 31
0.0
210
0.0
220
0.0
230
1.0
 40
0.0807169094
 41
6.224689668269359
 42
7.79548599506408
  0
ARC
  5
14B
330
1F
100
AcDbEntity
  8
0
  6
HIDDEN
 62
     7
370
     0
100
AcDbCircle
 10
209.1546465426
 20
122.5180795463
 30
0.0
 40
1.757086409113091
100
AcDbArc
 50
105.8284782114
 51
164.3112615581
  0
LINE
  5
14C
330
1F
100
AcDbEntity
  8
0
  6
HIDDEN
 62
     7
370
     0
100
AcDbLine
 10
208.2715176072
 20
120.419427395
 30
0.0
 11
215.5672600131
 21
106.4400241516
 31
0.0
  0
LINE
  5
14D
330
1F
100
AcDbEntity
  8
0
  6
HIDDEN
 62
     7
370
     0
100
AcDbLine
 10
213.6854916288
 20
118.1031531471
 30
0.0
 11
213.4219412322
 21
118.1120964318
 31
0.0
  0
LINE
  5
14E
330
1F
100
AcDbEntity
  8
0
  6
HIDDEN
 62
     7
370
     0
100
AcDbLine
 10
213.3174004379
 20
118.3124074952
 30
0.0
 11
213.4219412322
 21
118.1120964318
 31
0.0
  0
LINE
  5
14F
330
1F
100
AcDbEntity
  8
0
  6
HIDDEN
 62
     7
370
     0
100
AcDbLine
 10
217.2128754054
 20
124.9870592647
 30
0.0
 11
219.9937595824
 21
124.9870592647
 31
0.0
  0
LINE
  5
150
330
1F
100
AcDbEntity
  8
0
  6
HIDDEN
 62
     7
370
     0
100
AcDbLine
 10
221.9819935475
 20
113.697769878
 30
0.0
 11
222.2193939298
 21
113.7023118734
 31
0.0
  0
LINE
  5
151
330
1F
100
AcDbEntity
  8
0
  6
HIDDEN
 62
     7
370
     0
100
AcDbLine
 10
221.9819935475
 20
113.697769878
 30
0.0
 11
213.4219412322
 21
118.1120964318
 31
0.0
  0
ARC
  5
152
330
1F
100
AcDbEntity
  8
0
  6
HIDDEN
 62
     7
370
     0
100
AcDbCircle
 10
208.9734452408
 20
122.6975334576
 30
0.0
 40
1.750411275873189
100
AcDbArc
 50
41.2598294661
 51
207.4963952413
  0
ELLIPSE
  5
153
330
1F
100
AcDbEntity
  8
0
  6
HIDDEN
 62
     7
370
     0
100
AcDbEllipse
 10
213.0538960074
 20
103.5877494293
 30
0.0
 11
-16.75870106002321
 21
22.00462164012706
 31
0.0
210
0.0
220
0.0
230
1.0
 40
0.1297049843
 41
4.709845219430448
 42
4.725631024907507
  0
LINE
  5
154
330
1F
100
AcDbEntity
  8
0
  6
HIDDEN
 62
     7
370
     0
100
AcDbLine
 10
213.4219412322
 20
118.1120964318
 30
0.0
 11
213.2475500479
 21
118.286062808
 31
0.0
  0
LINE
  5
155
330
1F
100
AcDbEntity
  8
0
  6
HIDDEN
 62
     7
370
     0
100
AcDbLine
 10
213.2475500479
 20
118.286062808
 30
0.0
 11
213.2030162663
 21
118.3713941775
 31
0.0
  0
LINE
  5
156
330
1F
100
AcDbEntity
  8
0
  6
HIDDEN
 62
     7
370
     0
100
AcDbLine
 10
221.5035374529
 20
114.0285392454
 30
0.0
 11
221.9819935475
 21
113.697769878
 31
0.0
  0
LINE
  5
157
330
1F
100
AcDbEntity
  8
0
  6
HIDDEN
 62
     7
370
     0
100
AcDbLine
 10
228.1559330298
 20
100.6433070334
 30
0.0
 11
228.374539627
 21
100.8629825775
 31
0.0
  0
LINE
  5
158
330
1F
100
AcDbEntity
  8
0
  6
HIDDEN
 62
     7
370
     0
100
AcDbLine
 10
220.9535084727
 20
104.357519611
 30
0.0
 11
228.1559330298
 21
100.6433070334
 31
0.0
  0
CIRCLE
  5
159
330
1F
100
AcDbEntity
  8
0
  6
HIDDEN
 62
     7
370
     0
100
AcDbCircle
 10
218.405024356
 20
110.5545313228
 30
0.0
 40
2.395109070151866
  0
LINE
  5
15A
330
1F
100
AcDbEntity
  8
0
  6
HIDDEN
 62
     7
370
     0
100
AcDbLine
 10
221.5035374529
 20
114.0285392454
 30
0.0
 11
213.2475500479
 21
118.286062808
 31
0.0
  0
LINE
  5
15B
330
1F
100
AcDbEntity
  8
0
  6
HIDDEN
 62
     7
370
     0
100
AcDbLine
 10
207.4207606287
 20
121.8893811637
 30
0.0
 11
215.6858418991
 21
106.0526235739
 31
0.0
  0
LINE
  5
15C
330
1F
100
AcDbEntity
  8
0
  6
HIDDEN
 62
     7
370
     0
100
AcDbLine
 10
221.5035374529
 20
114.0285392454
 30
0.0
 11
228.374539627
 21
100.8629825775
 31
0.0
  0
ELLIPSE
  5
15D
330
1F
100
AcDbEntity
  8
0
  6
HIDDEN
 62
     7
370
     0
100
AcDbEllipse
 10
213.0538960074
 20
89.2530580357
 30
0.0
 11
12.76867214261733
 21
11.32022387550811
 31
0.0
210
0.0
220
0.0
230
1.0
 40
0.9914322785
 41
0.6888735203736172
 42
0.6942786075461002
  0
ELLIPSE
  5
15E
330
1F
100
AcDbEntity
  8
0
  6
HIDDEN
 62
     7
370
     0
100
AcDbEllipse
 10
213.0538960074
 20
89.2530580357
 30
0.0
 11
12.76867214261733
 21
11.32022387550811
 31
0.0
210
0.0
220
0.0
230
1.0
 40
0.9914322785
 41
0.3664475364584858
 42
0.636509382599626
  0
CIRCLE
  5
15F
330
1F
100
AcDbEntity
  8
0
  6
HIDDEN
 62
     7
370
     0
100
AcDbCircle
 10
218.3528317664
 20
110.610327801
 30
0.0
 40
1.647061004696584
  0
LINE
  5
160
330
1F
100
AcDbEntity
  8
0
  6
HIDDEN
 62
     7
370
     0
100
AcDbLine
 10
157.0204705163
 20
116.8434903491
 30
0.0
 11
157.0204705163
 21
113.003570883
 31
0.0
  0
LINE
  5
161
330
1F
100
AcDbEntity
  8
0
  6
HIDDEN
 62
     7
370
     0
100
AcDbLine
 10
155.5204705163
 20
117.276503051
 30
0.0
 11
155.5204705163
 21
113.8695962868
 31
0.0
  0
SPLINE
  5
162
330
1F
100
AcDbEntity
  8
0
  6
HIDDEN
 62
     7
370
     0
100
AcDbSpline
210
0.0
220
0.0
230
1.0
 70
     8
 71
     3
 72
     8
 73
     4
 74
     0
 42
0.00000001
 43
0.00000001
 12
1.0
 22
0.0
 32
0.0
 13
1.0
 23
0.0
 33
0.0
 40
0.0
 40
0.0
 40
0.0
 40
0.0
 40
1.0
 40
1.0
 40
1.0
 40
1.0
 10
178.0254305383229
 20
112.7620167376933
 30
0.0
 10
178.0761576815295
 20
112.716262436368
 30
0.0
 10
178.1340450110904
 20
112.6877582905045
 30
0.0
 10
178.1991501727057
 20
112.6760372608457
 30
0.0
  0
LINE
  5
163
330
1F
100
AcDbEntity
  8
0
  6
HIDDEN
 62
     7
370
     0
100
AcDbLine
 10
177.8204705163
 20
112.5808648805
 30
0.0
 11
177.8204705163
 21
112.4810024843
 31
0.0
  0
SPLINE
  5
164
330
1F
100
AcDbEntity
  8
0
  6
HIDDEN
 62
     7
370
     0
100
AcDbSpline
210
0.0
220
0.0
230
1.0
 70
     8
 71
     3
 72
    24
 73
    20
 74
     0
 42
0.00000001
 43
0.00000001
 12
1.0
 22
0.0
 32
0.0
 13
1.0
 23
0.0
 33
0.0
 40
0.0
 40
0.0
 40
0.0
 40
0.0
 40
0.2499999999999974
 40
0.2499999999999974
 40
0.3749999999999962
 40
0.3749999999999962
 40
0.4374999999999956
 40
0.4374999999999956
 40
0.4687499999999953
 40
0.4687499999999953
 40
0.4999999999999951
 40
0.4999999999999951
 40
0.5624999999999947
 40
0.5624999999999947
 40
0.6249999999999942
 40
0.6249999999999942
 40
0.749999999999996
 40
0.749999999999996
 40
1.0
 40
1.0
 40
1.0
 40
1.0
 10
177.8204705162652
 20
112.5808648805434
 30
0.0
 10
177.820873426901
 20
112.6112891173814
 30
0.0
 10
177.8229174062416
 20
112.6441472179356
 30
0.0
 10
177.8321546490677
 20
112.7001725850891
 30
0.0
 10
177.8360417120483
 20
112.7197836382746
 30
0.0
 10
177.8469456034549
 20
112.7540579217041
 30
0.0
 10
177.8510876492053
 20
112.7661203471763
 30
0.0
 10
177.862982722958
 20
112.7884395118758
 30
0.0
 10
177.8682297872668
 20
112.7974060242361
 30
0.0
 10
177.885096853646
 20
112.8150555887624
 30
0.0
 10
177.8929192611711
 20
112.8191998729022
 30
0.0
 10
177.9098680617927
 20
112.8256874140762
 30
0.0
 10
177.9173244130106
 20
112.8250905327046
 30
0.0
 10
177.931384316203
 20
112.8233442687325
 30
0.0
 10
177.937516701339
 20
112.8215135808341
 30
0.0
 10
177.9548114638622
 20
112.8149471712612
 30
0.0
 10
177.9648287822712
 20
112.8090819561025
 30
0.0
 10
177.993200116514
 20
112.7903372720722
 30
0.0
 10
178.0097355541584
 20
112.7761731239855
 30
0.0
 10
178.0254305383229
 20
112.7620167376933
 30
0.0
  0
LINE
  5
165
330
1F
100
AcDbEntity
  8
0
  6
HIDDEN
 62
     7
370
     0
100
AcDbLine
 10
177.8204705163
 20
116.5822061498
 30
0.0
 11
177.8204705163
 21
115.5270632766
 31
0.0
  0
SPLINE
  5
166
330
1F
100
AcDbEntity
  8
0
  6
HIDDEN
 62
     7
370
     0
100
AcDbSpline
210
0.0
220
0.0
230
1.0
 70
     8
 71
     3
 72
    16
 73
    12
 74
     0
 42
0.00000001
 43
0.00000001
 12
1.0
 22
0.0
 32
0.0
 13
1.0
 23
0.0
 33
0.0
 40
0.0
 40
0.0
 40
0.0
 40
0.0
 40
0.2500000000000006
 40
0.2500000000000006
 40
0.3750000000000005
 40
0.3750000000000005
 40
0.5000000000000004
 40
0.5000000000000004
 40
0.7500000000000002
 40
0.7500000000000002
 40
1.0
 40
1.0
 40
1.0
 40
1.0
 10
177.8204705162651
 20
115.5270632766043
 30
0.0
 10
177.739933184366
 20
115.1380560926603
 30
0.0
 10
177.6798958403387
 20
114.781555651036
 30
0.0
 10
177.6191581331851
 20
114.2950532658487
 30
0.0
 10
177.6038357580721
 20
114.1409743249953
 30
0.0
 10
177.5832529487679
 20
113.8495047665026
 30
0.0
 10
177.5780533517422
 20
113.7119348826038
 30
0.0
 10
177.5779996985619
 20
113.3336900474145
 30
0.0
 10
177.5981972420393
 20
113.1238089788624
 30
0.0
 10
177.6788753303967
 20
112.7872296799506
 30
0.0
 10
177.7399214950038
 20
112.6609451880321
 30
0.0
 10
177.8204705162614
 20
112.5808648805396
 30
0.0
  0
LINE
  5
167
330
1F
100
AcDbEntity
  8
0
  6
HIDDEN
 62
     7
370
     0
100
AcDbLine
 10
177.8204705163
 20
140.5212000534
 30
0.0
 11
177.8204705163
 21
140.4213376572
 31
0.0
  0
LINE
  5
168
330
1F
100
AcDbEntity
  8
0
  6
HIDDEN
 62
     7
370
     0
100
AcDbLine
 10
157.0204705163
 20
139.9986316547
 30
0.0
 11
157.0204705163
 21
136.1587121886
 31
0.0
  0
LINE
  5
169
330
1F
100
AcDbEntity
  8
0
  6
HIDDEN
 62
     7
370
     0
100
AcDbLine
 10
177.8204705163
 20
137.4751392611
 30
0.0
 11
177.8204705163
 21
136.4199963879
 31
0.0
  0
SPLINE
  5
16A
330
1F
100
AcDbEntity
  8
0
  6
HIDDEN
 62
     7
370
     0
100
AcDbSpline
210
0.0
220
0.0
230
1.0
 70
     8
 71
     3
 72
    16
 73
    12
 74
     0
 42
0.00000001
 43
0.00000001
 12
1.0
 22
0.0
 32
0.0
 13
1.0
 23
0.0
 33
0.0
 40
0.0
 40
0.0
 40
0.0
 40
0.0
 40
0.2499999999999997
 40
0.2499999999999997
 40
0.3749999999999997
 40
0.3749999999999997
 40
0.4999999999999998
 40
0.4999999999999998
 40
0.7499999999999999
 40
0.7499999999999999
 40
1.0
 40
1.0
 40
1.0
 40
1.0
 10
177.8204705162651
 20
140.4213376571657
 30
0.0
 10
177.7399331843658
 20
140.3412689710133
 30
0.0
 10
177.6798958403385
 20
140.217404479523
 30
0.0
 10
177.6191581331849
 20
139.966723655591
 30
0.0
 10
177.603835758072
 20
139.8722850512815
 30
0.0
 10
177.5832529487678
 20
139.6609739836628
 30
0.0
 10
177.5780533517421
 20
139.5436845289092
 30
0.0
 10
177.577999698562
 20
139.1656488571539
 30
0.0
 10
177.5981972420397
 20
138.8768717034098
 30
0.0
 10
177.6788753303977
 20
138.227031840271
 30
0.0
 10
177.7399214950051
 20
137.8642029063783
 30
0.0
 10
177.8204705162632
 20
137.4751392611067
 30
0.0
  0
SPLINE
  5
16B
330
1F
100
AcDbEntity
  8
0
  6
HIDDEN
 62
     7
370
     0
100
AcDbSpline
210
0.0
220
0.0
230
1.0
 70
     8
 71
     3
 72
    24
 73
    20
 74
     0
 42
0.00000001
 43
0.00000001
 12
1.0
 22
0.0
 32
0.0
 13
1.0
 23
0.0
 33
0.0
 40
0.0
 40
0.0
 40
0.0
 40
0.0
 40
0.2499999999999963
 40
0.2499999999999963
 40
0.3749999999999937
 40
0.3749999999999937
 40
0.4374999999999925
 40
0.4374999999999925
 40
0.4999999999999913
 40
0.4999999999999913
 40
0.5312499999999899
 40
0.5312499999999899
 40
0.5624999999999885
 40
0.5624999999999885
 40
0.6249999999999882
 40
0.6249999999999882
 40
0.7499999999999921
 40
0.7499999999999921
 40
1.0
 40
1.0
 40
1.0
 40
1.0
 10
178.0254305383257
 20
140.2401858000108
 30
0.0
 10
178.0096639500273
 20
140.2259648290225
 30
0.0
 10
177.9930524170727
 20
140.2117345386877
 30
0.0
 10
177.9645260691147
 20
140.1929374834662
 30
0.0
 10
177.9544406353247
 20
140.187049063125
 30
0.0
 10
177.9369578647897
 20
140.1805116683226
 30
0.0
 10
177.9307502083442
 20
140.1787004543214
 30
0.0
 10
177.916478708099
 20
140.1770946518149
 30
0.0
 10
177.908908637596
 20
140.1765418744289
 30
0.0
 10
177.8915123081606
 20
140.1837406191416
 30
0.0
 10
177.8830530352006
 20
140.1888323678893
 30
0.0
 10
177.8669920706531
 20
140.2066473003685
 30
0.0
 10
177.8621588348068
 20
140.2151697152309
 30
0.0
 10
177.8507329150715
 20
140.2370661518796
 30
0.0
 10
177.846711559189
 20
140.2488066746855
 30
0.0
 10
177.8359510641579
 20
140.2828569386389
 30
0.0
 10
177.832076755097
 20
140.3024319276676
 30
0.0
 10
177.8229038829699
 20
140.3582802363488
 30
0.0
 10
177.8208715122551
 20
140.3910579973776
 30
0.0
 10
177.8204705162653
 20
140.4213376571655
 30
0.0
  0
LINE
  5
16C
330
1F
100
AcDbEntity
  8
0
  6
HIDDEN
 62
     7
370
     0
100
AcDbLine
 10
155.5204705163
 20
139.1326062509
 30
0.0
 11
155.5204705163
 21
135.7256994867
 31
0.0
  0
SPLINE
  5
16D
330
1F
100
AcDbEntity
  8
0
  6
HIDDEN
 62
     7
370
     0
100
AcDbSpline
210
0.0
220
0.0
230
1.0
 70
     8
 71
     3
 72
     8
 73
     4
 74
     0
 42
0.00000001
 43
0.00000001
 12
1.0
 22
0.0
 32
0.0
 13
1.0
 23
0.0
 33
0.0
 40
0.0
 40
0.0
 40
0.0
 40
0.0
 40
1.0
 40
1.0
 40
1.0
 40
1.0
 10
178.1991501727057
 20
140.326165276856
 30
0.0
 10
178.1340450110916
 20
140.3144442471973
 30
0.0
 10
178.0761576815316
 20
140.2859401013346
 30
0.0
 10
178.0254305383256
 20
140.2401858000108
 30
0.0
  0
CIRCLE
  5
16E
330
1F
100
AcDbEntity
  8
0
  6
HIDDEN
 62
     7
370
     0
100
AcDbCircle
 10
217.7424626211
 20
111.2192101177
 30
0.0
 40
1.64706100469667
  0
LWPOLYLINE
  5
16F
330
1F
100
AcDbEntity
  8
0
  6
HIDDEN
 62
     7
370
     0
100
AcDbPolyline
 90
       29
 70
   128
 43
0.0
 10
193.5204705163
 20
129.7084729422
 10
193.9877644776
 20
129.7572904558
 10
194.4316263684
 20
129.9012950825
 10
194.8297991002
 20
130.133265829
 10
195.1623166294
 20
130.4415707135
 10
195.4125051389
 20
130.8107500417
 10
195.5678191318
 20
131.2222916206
 10
195.6204705163
 20
131.6555590368
 10
195.5678191318
 20
132.0888264531
 10
195.4125051389
 20
132.5003680319
 10
195.1623166294
 20
132.8695473601
 10
194.8297991002
 20
133.1778522447
 10
194.4316263684
 20
133.4098229912
 10
193.9877644776
 20
133.5538276179
 10
193.5204705163
 20
133.6026451314
 10
193.053176555
 20
133.5538276179
 10
192.6093146641
 20
133.4098229912
 10
192.2111419324
 20
133.1778522447
 10
191.8786244031
 20
132.8695473601
 10
191.6284358937
 20
132.5003680319
 10
191.4731219007
 20
132.0888264531
 10
191.4204705163
 20
131.6555590368
 10
191.4731219007
 20
131.2222916206
 10
191.6284358937
 20
130.8107500417
 10
191.8786244031
 20
130.4415707135
 10
192.2111419324
 20
130.133265829
 10
192.6093146641
 20
129.9012950825
 10
193.053176555
 20
129.7572904558
 10
193.5204705163
 20
129.7084729422
  0
LINE
  5
170
330
1F
100
AcDbEntity
  8
0
  6
HIDDEN
 62
     7
370
     0
100
AcDbLine
 10
226.9945935821
 20
101.7999206104
 30
0.0
 11
228.1559330298
 21
100.6433070334
 31
0.0
  0
LINE
  5
171
330
1F
100
AcDbEntity
  8
0
  6
HIDDEN
 62
     7
370
     0
100
AcDbLine
 10
228.374539627
 20
100.8629825775
 30
0.0
 11
226.9310472751
 21
102.3006008861
 31
0.0
  0
SPLINE
  5
172
330
1F
100
AcDbEntity
  8
0
  6
HIDDEN
 62
     7
370
     0
100
AcDbSpline
210
0.0
220
0.0
230
1.0
 70
     8
 71
     3
 72
     8
 73
     4
 74
     0
 42
0.00000001
 43
0.00000001
 12
1.0
 22
0.0
 32
0.0
 13
1.0
 23
0.0
 33
0.0
 40
0.0
 40
0.0
 40
0.0
 40
0.0
 40
1.0
 40
1.0
 40
1.0
 40
1.0
 10
204.003936183494
 20
108.0095881428231
 30
0.0
 10
203.3648062001101
 20
107.5220809291315
 30
0.0
 10
202.8842586838131
 20
107.0323656168326
 30
0.0
 10
202.7190693545754
 20
106.5382592644242
 30
0.0
  0
SPLINE
  5
173
330
1F
100
AcDbEntity
  8
0
  6
HIDDEN
 62
     7
370
     0
100
AcDbSpline
210
0.0
220
0.0
230
1.0
 70
     8
 71
     3
 72
     8
 73
     4
 74
     0
 42
0.00000001
 43
0.00000001
 12
1.0
 22
0.0
 32
0.0
 13
1.0
 23
0.0
 33
0.0
 40
0.0
 40
0.0
 40
0.0
 40
0.0
 40
1.0
 40
1.0
 40
1.0
 40
1.0
 10
203.8985119732708
 20
111.9437504466778
 30
0.0
 10
203.9346140958143
 20
110.5283248472925
 30
0.0
 10
203.9697315972048
 20
109.2183401484752
 30
0.0
 10
204.003936183494
 20
108.0095881428231
 30
0.0
  0
ELLIPSE
  5
174
330
1F
100
AcDbEntity
  8
0
  6
HIDDEN
 62
     7
370
     0
100
AcDbEllipse
 10
255.0287444927
 20
124.7011012689
 30
0.0
 11
27.47985732456351
 21
24.07640120492577
 31
0.0
210
0.0
220
0.0
230
1.0
 40
0.2449985756
 41
2.954186673042725
 42
3.001574769871994
  0
ELLIPSE
  5
175
330
1F
100
AcDbEntity
  8
0
  6
HIDDEN
 62
     7
370
     0
100
AcDbEllipse
 10
181.352023307
 20
124.7011012689
 30
0.0
 11
47.62233213074285
 21
-24.88510526955329
 31
0.0
210
0.0
220
0.0
230
1.0
 40
0.0502718471
 41
0.3167755888986485
 42
0.6156407211769215
  0
ELLIPSE
  5
176
330
1F
100
AcDbEntity
  8
0
  6
HIDDEN
 62
     7
370
     0
100
AcDbEllipse
 10
216.3104005656
 20
124.7011012689
 30
0.0
 11
-13.51451846527638
 21
24.96686315732087
 31
0.0
210
0.0
220
0.0
230
1.0
 40
0.0952129519
 41
2.054829940334207
 42
2.630026451522432
  0
SPLINE
  5
177
330
1F
100
AcDbEntity
  8
0
  6
HIDDEN
 62
     7
370
     0
100
AcDbSpline
210
0.0
220
0.0
230
1.0
 70
     8
 71
     3
 72
    16
 73
    12
 74
     0
 42
0.00000001
 43
0.00000001
 12
1.0
 22
0.0
 32
0.0
 13
1.0
 23
0.0
 33
0.0
 40
0.0
 40
0.0
 40
0.0
 40
0.0
 40
0.2499999999999999
 40
0.2499999999999999
 40
0.375
 40
0.375
 40
0.5000000000000001
 40
0.5000000000000001
 40
0.75
 40
0.75
 40
1.0
 40
1.0
 40
1.0
 40
1.0
 10
213.0538960073736
 20
108.0095881428231
 30
0.0
 10
213.7882763206413
 20
108.0095881428231
 30
0.0
 10
214.5101112911003
 20
107.9560107086259
 30
0.0
 10
215.5749239689305
 20
107.800809375609
 30
0.0
 10
215.9268503877884
 20
107.7365483173445
 30
0.0
 10
216.6245917047548
 20
107.5833351136089
 30
0.0
 10
216.9720635708393
 20
107.4938067052273
 30
0.0
 10
217.9850046128658
 20
107.1946837811812
 30
0.0
 10
218.6257323499131
 20
106.9541912926756
 30
0.0
 10
219.8418343688529
 20
106.4060892743324
 30
0.0
 10
220.4198803481649
 20
106.0963304474144
 30
0.0
 10
220.9535084727324
 20
105.7673389039951
 30
0.0
  0
LINE
  5
178
330
1F
100
AcDbEntity
  8
0
  6
HIDDEN
 62
     7
370
     0
100
AcDbLine
 10
204.0039361835
 20
108.0095881428
 30
0.0
 11
213.0538960074
 21
108.0095881428
 31
0.0
  0
LINE
  5
179
330
1F
100
AcDbEntity
  8
0
  6
HIDDEN
 62
     7
370
     0
100
AcDbLine
 10
155.5204705163
 20
135.7256994867
 30
0.0
 11
155.5204705163
 21
128.3513150825
 31
0.0
  0
LINE
  5
17A
330
1F
100
AcDbEntity
  8
0
  6
HIDDEN
 62
     7
370
     0
100
AcDbLine
 10
155.5204705163
 20
124.6508874552
 30
0.0
 11
155.5204705163
 21
117.276503051
 31
0.0
  0
SPLINE
  5
17B
330
1F
100
AcDbEntity
  8
0
  6
HIDDEN
 62
     7
370
     0
100
AcDbSpline
210
0.0
220
0.0
230
1.0
 70
     8
 71
     3
 72
    24
 73
    20
 74
     0
 42
0.00000001
 43
0.00000001
 12
1.0
 22
0.0
 32
0.0
 13
1.0
 23
0.0
 33
0.0
 40
0.0
 40
0.0
 40
0.0
 40
0.0
 40
0.2500000000000105
 40
0.2500000000000105
 40
0.375000000000014
 40
0.375000000000014
 40
0.4375000000000146
 40
0.4375000000000146
 40
0.5000000000000152
 40
0.5000000000000152
 40
0.5312500000000155
 40
0.5312500000000155
 40
0.5625000000000159
 40
0.5625000000000159
 40
0.6250000000000149
 40
0.6250000000000149
 40
0.7500000000000109
 40
0.7500000000000109
 40
1.0
 40
1.0
 40
1.0
 40
1.0
 10
178.0254305383257
 20
115.7085075420525
 30
0.0
 10
178.0096616609682
 20
115.6346488501229
 30
0.0
 10
177.9930476791182
 20
115.5609374613872
 30
0.0
 10
177.9645160131131
 20
115.4493906377651
 30
0.0
 10
177.9544285982944
 20
115.4120190646366
 30
0.0
 10
177.9369410378401
 20
115.3551195669989
 30
0.0
 10
177.9307314760568
 20
115.3360164668536
 30
0.0
 10
177.9164539224042
 20
115.2971429526181
 30
0.0
 10
177.9088823746088
 20
115.2772182931847
 30
0.0
 10
177.8914647909305
 20
115.2471460751573
 30
0.0
 10
177.8829822942855
 20
115.2354646963542
 30
0.0
 10
177.8669439824137
 20
115.2282031856056
 30
0.0
 10
177.8621234342102
 20
115.2317814326154
 30
0.0
 10
177.8507142096622
 20
115.243542287847
 30
0.0
 10
177.8466937292047
 20
115.2552079378976
 30
0.0
 10
177.8359398743844
 20
115.2917432680112
 30
0.0
 10
177.8320671931022
 20
115.3191390013347
 30
0.0
 10
177.8228990432646
 20
115.4038649930907
 30
0.0
 10
177.8208705378955
 20
115.4646971152628
 30
0.0
 10
177.8204705162653
 20
115.5270632766044
 30
0.0
  0
SPLINE
  5
17C
330
1F
100
AcDbEntity
  8
0
  6
HIDDEN
 62
     7
370
     0
100
AcDbSpline
210
0.0
220
0.0
230
1.0
 70
     8
 71
     3
 72
    24
 73
    20
 74
     0
 42
0.00000001
 43
0.00000001
 12
1.0
 22
0.0
 32
0.0
 13
1.0
 23
0.0
 33
0.0
 40
0.0
 40
0.0
 40
0.0
 40
0.0
 40
0.2500000000000025
 40
0.2500000000000025
 40
0.3750000000000033
 40
0.3750000000000033
 40
0.4375000000000037
 40
0.4375000000000037
 40
0.4687500000000058
 40
0.4687500000000058
 40
0.500000000000008
 40
0.500000000000008
 40
0.5625000000000074
 40
0.5625000000000074
 40
0.6250000000000068
 40
0.6250000000000068
 40
0.7500000000000066
 40
0.7500000000000066
 40
1.0
 40
1.0
 40
1.0
 40
1.0
 10
177.8204705162617
 20
137.4751392611081
 30
0.0
 10
177.8208751858375
 20
137.5382300696007
 30
0.0
 10
177.8229186326518
 20
137.5994157921032
 30
0.0
 10
177.8323181979061
 20
137.6849155246048
 30
0.0
 10
177.8362690914348
 20
137.7124959080459
 30
0.0
 10
177.8474213997318
 20
137.7489499901575
 30
0.0
 10
177.8516429406583
 20
137.7608084118519
 30
0.0
 10
177.8638506622219
 20
137.7714284632273
 30
0.0
 10
177.8696414324739
 20
137.7742618304497
 30
0.0
 10
177.8865629455838
 20
137.7629472434517
 30
0.0
 10
177.8939690615337
 20
137.7511663576979
 30
0.0
 10
177.9104263147769
 20
137.7211255164681
 30
0.0
 10
177.9178828326879
 20
137.7014125628551
 30
0.0
 10
177.9317907619625
 20
137.663010496795
 30
0.0
 10
177.9378827078575
 20
137.6441288468835
 30
0.0
 10
177.9550770002086
 20
137.587827936352
 30
0.0
 10
177.9650619504121
 20
137.5507518585423
 30
0.0
 10
177.9933079955111
 20
137.4400931876523
 30
0.0
 10
178.0097875324722
 20
137.3669641272438
 30
0.0
 10
178.0254305383319
 20
137.2936949956199
 30
0.0
  0
SPLINE
  5
17D
330
1F
100
AcDbEntity
  8
0
  6
HIDDEN
 62
     7
370
     0
100
AcDbSpline
210
0.0
220
0.0
230
1.0
 70
     8
 71
     3
 72
     8
 73
     4
 74
     0
 42
0.00000001
 43
0.00000001
 12
1.0
 22
0.0
 32
0.0
 13
1.0
 23
0.0
 33
0.0
 40
0.0
 40
0.0
 40
0.0
 40
0.0
 40
1.0
 40
1.0
 40
1.0
 40
1.0
 10
178.1991501727057
 20
116.447581951244
 30
0.0
 10
178.1340450110916
 20
116.1925567160383
 30
0.0
 10
178.0761576815316
 20
115.9461046998971
 30
0.0
 10
178.0254305383256
 20
115.7085075420525
 30
0.0
  0
SPLINE
  5
17E
330
1F
100
AcDbEntity
  8
0
  6
HIDDEN
 62
     7
370
     0
100
AcDbSpline
210
0.0
220
0.0
230
1.0
 70
     8
 71
     3
 72
     8
 73
     4
 74
     0
 42
0.00000001
 43
0.00000001
 12
1.0
 22
0.0
 32
0.0
 13
1.0
 23
0.0
 33
0.0
 40
0.0
 40
0.0
 40
0.0
 40
0.0
 40
1.0
 40
1.0
 40
1.0
 40
1.0
 10
178.0254305383318
 20
137.2936949956199
 30
0.0
 10
178.0761576815363
 20
137.0560978377844
 30
0.0
 10
178.1340450110943
 20
136.8096458216529
 30
0.0
 10
178.1991501727057
 20
136.5546205864576
 30
0.0
  0
LINE
  5
17F
330
1F
100
AcDbEntity
  8
0
  6
HIDDEN
 62
     7
370
     0
100
AcDbLine
 10
157.0204705163
 20
123.9460730318
 30
0.0
 11
157.0204705163
 21
116.8434903491
 31
0.0
  0
LINE
  5
180
330
1F
100
AcDbEntity
  8
0
  6
HIDDEN
 62
     7
370
     0
100
AcDbLine
 10
157.0204705163
 20
136.1587121886
 30
0.0
 11
157.0204705163
 21
129.0561295059
 31
0.0
  0
LINE
  5
181
330
1F
100
AcDbEntity
  8
0
  6
HIDDEN
 62
     7
370
     0
100
AcDbLine
 10
177.8204705163
 20
136.4199963879
 30
0.0
 11
177.8204705163
 21
116.5822061498
 31
0.0
  0
LINE
  5
182
330
1F
100
AcDbEntity
  8
0
  6
HIDDEN
 62
     7
370
     0
100
AcDbLine
 10
179.3204705163
 20
134.9804684085
 30
0.0
 11
179.3204705163
 21
118.0217341292
 31
0.0
  0
SPLINE
  5
183
330
1F
100
AcDbEntity
  8
0
  6
HIDDEN
 62
     7
370
     0
100
AcDbSpline
210
0.0
220
0.0
230
1.0
 70
     8
 71
     3
 72
     8
 73
     4
 74
     0
 42
0.00000001
 43
0.00000001
 12
1.0
 22
0.0
 32
0.0
 13
1.0
 23
0.0
 33
0.0
 40
0.0000137051794235
 40
0.0000137051794235
 40
0.0000137051794235
 40
0.0000137051794235
 40
0.0027147144718019
 40
0.0027147144718019
 40
0.0027147144718019
 40
0.0027147144718019
 10
157.0204705162653
 20
123.9460730317891
 30
0.0
 10
157.92046665176
 20
123.9331014645907
 30
0.0
 10
158.8204668303554
 20
123.9204666072786
 30
0.0
 10
159.7204705162653
 20
123.9081565890229
 30
0.0
  0
SPLINE
  5
184
330
1F
100
AcDbEntity
  8
0
  6
HIDDEN
 62
     7
370
     0
100
AcDbSpline
210
0.0
220
0.0
230
1.0
 70
     8
 71
     3
 72
     8
 73
     4
 74
     0
 42
0.00000001
 43
0.00000001
 12
1.0
 22
0.0
 32
0.0
 13
1.0
 23
0.0
 33
0.0
 40
0.0000137050638847
 40
0.0000137050638847
 40
0.0000137050638847
 40
0.0000137050638847
 40
0.0027147143562631
 40
0.0027147143562631
 40
0.0027147143562631
 40
0.0027147143562631
 10
159.7204705162653
 20
129.0940459486788
 30
0.0
 10
158.8204668303554
 20
129.081735930423
 30
0.0
 10
157.92046665176
 20
129.0691010731109
 30
0.0
 10
157.0204705162653
 20
129.0561295059126
 30
0.0
  0
SPLINE
  5
185
330
1F
100
AcDbEntity
  8
0
  6
HIDDEN
 62
     7
370
     0
100
AcDbSpline
210
0.0
220
0.0
230
1.0
 70
     8
 71
     3
 72
    10
 73
     6
 74
     0
 42
0.00000001
 43
0.00000001
 12
1.0
 22
0.0
 32
0.0
 13
1.0
 23
0.0
 33
0.0
 40
0.0
 40
0.0
 40
0.0
 40
0.0
 40
0.5
 40
0.5
 40
1.0
 40
1.0
 40
1.0
 40
1.0
 10
155.5204705162644
 20
124.6508874552007
 30
0.0
 10
155.7576124769803
 20
124.4952726406718
 30
0.0
 10
156.0029552357437
 20
124.3633636112526
 30
0.0
 10
156.5042188244767
 20
124.131706734615
 30
0.0
 10
156.7602533937271
 20
124.0322611184922
 30
0.0
 10
157.0204705162653
 20
123.9460730317891
 30
0.0
  0
SPLINE
  5
186
330
1F
100
AcDbEntity
  8
0
  6
HIDDEN
 62
     7
370
     0
100
AcDbSpline
210
0.0
220
0.0
230
1.0
 70
     8
 71
     3
 72
    10
 73
     6
 74
     0
 42
0.00000001
 43
0.00000001
 12
1.0
 22
0.0
 32
0.0
 13
1.0
 23
0.0
 33
0.0
 40
0.0
 40
0.0
 40
0.0
 40
0.0
 40
0.5
 40
0.5
 40
1.0
 40
1.0
 40
1.0
 40
1.0
 10
157.0204705162653
 20
129.0561295059126
 30
0.0
 10
156.7602533937272
 20
128.9699414192095
 30
0.0
 10
156.5042188244771
 20
128.8704958030868
 30
0.0
 10
156.0029552357443
 20
128.6388389264494
 30
0.0
 10
155.757612476981
 20
128.5069298970302
 30
0.0
 10
155.5204705162652
 20
128.3513150825015
 30
0.0
  0
LINE
  5
187
330
1F
100
AcDbEntity
  8
0
  6
HIDDEN
 62
     7
370
     0
100
AcDbLine
 10
155.5204705163
 20
124.6508874552
 30
0.0
 11
155.5204705163
 21
128.3513150825
 31
0.0
  0
LINE
  5
188
330
1F
100
AcDbEntity
  8
0
  6
HIDDEN
 62
     7
370
     0
100
AcDbLine
 10
159.7204705163
 20
123.908156589
 30
0.0
 11
159.7204705163
 21
129.0940459487
 31
0.0
  0
SPLINE
  5
189
330
1F
100
AcDbEntity
  8
0
  6
HIDDEN
 62
     7
370
     0
100
AcDbSpline
210
0.0
220
0.0
230
1.0
 70
     8
 71
     3
 72
    22
 73
    18
 74
     0
 42
0.00000001
 43
0.00000001
 12
1.0
 22
0.0
 32
0.0
 13
1.0
 23
0.0
 33
0.0
 40
0.0
 40
0.0
 40
0.0
 40
0.0
 40
0.125
 40
0.125
 40
0.25
 40
0.25
 40
0.375
 40
0.375
 40
0.5
 40
0.5
 40
0.625
 40
0.625
 40
0.75
 40
0.75
 40
0.875
 40
0.875
 40
1.0
 40
1.0
 40
1.0
 40
1.0
 10
159.7204705162653
 20
123.9081565890229
 30
0.0
 10
159.9014068743414
 20
124.0997764483294
 30
0.0
 10
160.0805023231183
 20
124.2934183127166
 30
0.0
 10
160.4313423116303
 20
124.6880735661008
 30
0.0
 10
160.603535419535
 20
124.8890850967684
 30
0.0
 10
160.9292669251542
 20
125.3052962120021
 30
0.0
 10
161.0853431603226
 20
125.5213120522889
 30
0.0
 10
161.3367223742117
 20
125.9866348154536
 30
0.0
 10
161.4305875045304
 20
126.2421740084765
 30
0.0
 10
161.4268595876683
 20
126.7765046435771
 30
0.0
 10
161.3294869451809
 20
127.0319255095778
 30
0.0
 10
161.0776661361871
 20
127.4919542255255
 30
0.0
 10
160.9226968807145
 20
127.705791226454
 30
0.0
 10
160.5978841229892
 20
128.1198298091478
 30
0.0
 10
160.4269910588613
 20
128.3191222811836
 30
0.0
 10
160.0783568193337
 20
128.7110971736178
 30
0.0
 10
159.9003489688052
 20
128.9035464596072
 30
0.0
 10
159.7204705162653
 20
129.0940459486788
 30
0.0
  0
LWPOLYLINE
  5
18A
330
1F
100
AcDbEntity
  8
0
  6
HIDDEN
 62
     7
370
     0
100
AcDbPolyline
 90
       32
 70
   128
 43
0.0
 10
193.5204705163
 20
129.4276339403
 10
194.0237168165
 20
129.4750827102
 10
194.506360154
 20
129.6154864618
 10
194.948641054
 20
129.8430970489
 10
195.3324524843
 20
130.1485960674
 10
195.64208116
 20
130.5194763516
 10
195.8648508466
 20
130.9405540191
 10
195.9916413271
 20
131.3945901006
 10
196.0172617842
 20
131.8629963057
 10
195.9406633134
 20
132.3265960292
 10
195.7649818652
 20
132.7664094441
 10
195.4974098586
 20
133.1644305374
 10
195.1489017231
 20
133.5043642789
 10
194.7337254226
 20
133.7722937411
 10
194.2688783237
 20
133.9572498605
 10
193.7733913212
 20
134.0516605118
 10
193.2675497113
 20
134.0516605118
 10
192.7720627088
 20
133.9572498605
 10
192.3072156099
 20
133.7722937411
 10
191.8920393095
 20
133.5043642789
 10
191.5435311739
 20
133.1644305374
 10
191.2759591673
 20
132.7664094441
 10
191.1002777191
 20
132.3265960292
 10
191.0236792483
 20
131.8629963057
 10
191.0492997054
 20
131.3945901006
 10
191.1760901859
 20
130.9405540191
 10
191.3988598725
 20
130.5194763516
 10
191.7084885482
 20
130.1485960674
 10
192.0922999785
 20
129.8430970489
 10
192.5345808785
 20
129.6154864618
 10
193.017224216
 20
129.4750827102
 10
193.5204705163
 20
129.4276339403
  0
SPLINE
  5
18B
330
1F
100
AcDbEntity
  8
0
  6
HIDDEN
 62
     7
370
     0
100
AcDbSpline
210
0.0
220
0.0
230
1.0
 70
     8
 71
     3
 72
    62
 73
    58
 74
     0
 42
0.00000001
 43
0.00000001
 12
1.0
 22
0.0
 32
0.0
 13
1.0
 23
0.0
 33
0.0
 40
-0.0312499999999999
 40
-0.0312499999999999
 40
0.0
 40
0.0
 40
0.0312500000000003
 40
0.0312500000000003
 40
0.0625000000000006
 40
0.0625000000000006
 40
0.0937500000000009
 40
0.0937500000000009
 40
0.1250000000000012
 40
0.1250000000000012
 40
0.1875000000000015
 40
0.1875000000000015
 40
0.2500000000000018
 40
0.2500000000000018
 40
0.2812500000000018
 40
0.2812500000000018
 40
0.3125000000000018
 40
0.3125000000000018
 40
0.3437500000000018
 40
0.3437500000000018
 40
0.3750000000000018
 40
0.3750000000000018
 40
0.4375000000000019
 40
0.4375000000000019
 40
0.4687500000000018
 40
0.4687500000000018
 40
0.5000000000000018
 40
0.5000000000000018
 40
0.5625000000000014
 40
0.5625000000000014
 40
0.5937500000000013
 40
0.5937500000000013
 40
0.6250000000000011
 40
0.6250000000000011
 40
0.656250000000001
 40
0.656250000000001
 40
0.6875000000000008
 40
0.6875000000000008
 40
0.7187500000000007
 40
0.7187500000000007
 40
0.7500000000000004
 40
0.7500000000000004
 40
0.7812500000000004
 40
0.7812500000000004
 40
0.8125000000000004
 40
0.8125000000000004
 40
0.8437500000000003
 40
0.8437500000000003
 40
0.8750000000000003
 40
0.8750000000000003
 40
0.9062500000000002
 40
0.9062500000000002
 40
0.9375000000000002
 40
0.9375000000000002
 40
0.9687500000000001
 40
0.9687500000000001
 40
1.0
 40
1.0
 40
1.03125
 40
1.03125
 10
165.9742426441936
 20
127.9890803075072
 30
0.0
 10
166.2017429907818
 20
128.2384268493678
 30
0.0
 10
166.3262055196992
 20
128.3500245268247
 30
0.0
 10
166.595299785851
 20
128.5486753226431
 30
0.0
 10
166.7411128774403
 20
128.6360155674318
 30
0.0
 10
167.0422797557297
 20
128.780211320074
 30
0.0
 10
167.1986154827941
 20
128.8380309905883
 30
0.0
 10
167.5227387821285
 20
128.9252846026393
 30
0.0
 10
167.689403993839
 20
128.9540866521211
 30
0.0
 10
168.1874202604709
 20
128.994865957389
 30
0.0
 10
168.5280912092638
 20
128.9614226972477
 30
0.0
 10
169.1671021246853
 20
128.7789700527889
 30
0.0
 10
169.4735567317492
 20
128.6275454924761
 30
0.0
 10
169.8701126410115
 20
128.3270475868918
 30
0.0
 10
169.9944618318611
 20
128.2127864016965
 30
0.0
 10
170.2169259259103
 20
127.9631265311239
 30
0.0
 10
170.3144912643875
 20
127.8289599231248
 30
0.0
 10
170.4817468680263
 20
127.5414908286261
 30
0.0
 10
170.5518325235454
 20
127.3862239787262
 30
0.0
 10
170.655887884267
 20
127.0692445586392
 30
0.0
 10
170.6908636469343
 20
126.9065918071348
 30
0.0
 10
170.7427281664584
 20
126.4056547869322
 30
0.0
 10
170.703422058687
 20
126.0655001856219
 30
0.0
 10
170.5407022662262
 20
125.5890055535247
 30
0.0
 10
170.4704217683399
 20
125.4379381936973
 30
0.0
 10
170.2990886232099
 20
125.1506436232564
 30
0.0
 10
170.1976963820282
 20
125.014785844959
 30
0.0
 10
169.861096794805
 20
124.6459774499608
 30
0.0
 10
169.5858640286403
 20
124.4435523406297
 30
0.0
 10
169.1360808012944
 20
124.226475614021
 30
0.0
 10
168.9772810027908
 20
124.1671733419468
 30
0.0
 10
168.6547192819111
 20
124.0792008241462
 30
0.0
 10
168.4908601699439
 20
124.0500810602999
 30
0.0
 10
168.15802739659
 20
124.0212244451897
 30
0.0
 10
167.9879751051492
 20
124.0218479684038
 30
0.0
 10
167.6556994411295
 20
124.0531044122081
 30
0.0
 10
167.4919848293808
 20
124.08342310726
 30
0.0
 10
167.1695193438064
 20
124.174140146263
 30
0.0
 10
167.0110082452799
 20
124.2349090549648
 30
0.0
 10
166.712454539082
 20
124.3824197297618
 30
0.0
 10
166.5706284098799
 20
124.4695547576257
 30
0.0
 10
166.3027066713216
 20
124.6721402241977
 30
0.0
 10
166.1786132409291
 20
124.7864783908398
 30
0.0
 10
165.9574790530109
 20
125.0346648287926
 30
0.0
 10
165.8590220509122
 20
125.1696974456464
 30
0.0
 10
165.6896635371773
 20
125.4617018437012
 30
0.0
 10
165.6214966994713
 20
125.6138375901367
 30
0.0
 10
165.5177627331449
 20
125.9302465385768
 30
0.0
 10
165.4820941712757
 20
126.096743007931
 30
0.0
 10
165.4478804066232
 20
126.4300048840415
 30
0.0
 10
165.4487388094523
 20
126.5966673378634
 30
0.0
 10
165.4865355894019
 20
126.9300555370809
 30
0.0
 10
165.5238783448559
 20
127.0958111095604
 30
0.0
 10
165.6311279279244
 20
127.4117024260231
 30
0.0
 10
165.7018891444635
 20
127.5649817590952
 30
0.0
 10
165.8740122945642
 20
127.8543588015817
 30
0.0
 10
165.9742426441936
 20
127.9890803075072
 30
0.0
 10
166.2017429907818
 20
128.2384268493678
 30
0.0
  0
CIRCLE
  5
18C
330
1F
100
AcDbEntity
  8
0
  6
HIDDEN
 62
     7
370
     0
100
AcDbCircle
 10
168.0204705163
 20
126.5011012689
 30
0.0
 40
2.299999999999997
  0
CIRCLE
  5
18D
330
1F
100
AcDbEntity
  8
0
  6
HIDDEN
 62
     7
370
     0
100
AcDbCircle
 10
191.5204705163
 20
126.5011012689
 30
0.0
 40
2.000000000000014
  0
LINE
  5
18E
330
1F
100
AcDbEntity
  8
0
  6
HIDDEN
 62
     7
370
     0
100
AcDbLine
 10
203.8985119733
 20
111.9437504467
 30
0.0
 11
220.4953333772
 21
111.9437504467
 31
0.0
  0
SPLINE
  5
18F
330
1F
100
AcDbEntity
  8
0
  6
HIDDEN
 62
     7
370
     0
100
AcDbSpline
210
0.0
220
0.0
230
1.0
 70
     8
 71
     3
 72
     8
 73
     4
 74
     0
 42
0.00000001
 43
0.00000001
 12
1.0
 22
0.0
 32
0.0
 13
1.0
 23
0.0
 33
0.0
 40
0.0
 40
0.0
 40
0.0
 40
0.0
 40
1.0
 40
1.0
 40
1.0
 40
1.0
 10
203.8985119732708
 20
111.9437504466778
 30
0.0
 10
203.3130476802629
 20
115.7175718072218
 30
0.0
 10
202.8753146982465
 20
119.5124065349012
 30
0.0
 10
202.7190693545753
 20
123.3472801889862
 30
0.0
  0
LINE
  5
190
330
1F
100
AcDbEntity
  8
0
  6
HIDDEN
 62
     7
370
     0
100
AcDbLine
 10
219.2371200709
 20
114.2956825925
 30
0.0
 11
220.4953333772
 21
111.9437504467
 31
0.0
  0
ELLIPSE
  5
191
330
1F
100
AcDbEntity
  8
0
  6
HIDDEN
 62
     7
370
     0
100
AcDbEllipse
 10
234.3645084015
 20
122.2681887088
 30
0.0
 11
17.12766703280039
 21
0.0
 31
0.0
210
0.0
220
0.0
230
1.0
 40
0.9925461516
 41
3.150114381959561
 42
3.629717948264304
  0
LINE
  5
192
330
1F
100
AcDbEntity
  8
0
  6
HIDDEN
 62
     7
370
     0
100
AcDbLine
 10
217.2128754054
 20
124.9870592647
 30
0.0
 11
217.2374632693
 21
122.1233210799
 31
0.0
  0
LINE
  5
193
330
1F
100
AcDbEntity
  8
0
  6
HIDDEN
 62
     7
370
     0
100
AcDbLine
 10
216.1252810149
 20
126.5011012689
 30
0.0
 11
217.2128754054
 21
124.9870592647
 31
0.0
  0
LINE
  5
194
330
1F
100
AcDbEntity
  8
0
  6
HIDDEN
 62
     7
370
     0
100
AcDbLine
 10
179.5204705163
 20
110.7011012689
 30
0.0
 11
179.6133637351
 21
110.7939944877
 31
0.0
  0
LINE
  5
195
330
1F
100
AcDbEntity
  8
0
  6
HIDDEN
 62
     7
370
     0
100
AcDbLine
 10
179.6133637351
 20
142.20820805
 30
0.0
 11
179.5204705163
 21
142.3011012689
 31
0.0
  0
ARC
  5
196
330
1F
100
AcDbEntity
  8
0
  6
HIDDEN
 62
     7
370
     0
100
AcDbCircle
 10
178.9062569539
 20
111.5011012689
 30
0.0
 40
1.0
100
AcDbArc
 50
315.0
 51
0.0
  0
ARC
  5
197
330
1F
100
AcDbEntity
  8
0
  6
HIDDEN
 62
     7
370
     0
100
AcDbCircle
 10
178.9062569539
 20
111.5011012689
 30
0.0
 40
1.00000000000001
100
AcDbArc
 50
0.0
 51
52.1052014664
  0
ARC
  5
198
330
1F
100
AcDbEntity
  8
0
  6
HIDDEN
 62
     7
370
     0
100
AcDbCircle
 10
178.9062569539
 20
141.5011012689
 30
0.0
 40
1.000000000000002
100
AcDbArc
 50
351.8087250651
 51
45.0
  0
ARC
  5
199
330
1F
100
AcDbEntity
  8
0
  6
HIDDEN
 62
     7
370
     0
100
AcDbCircle
 10
178.9062569539
 20
141.5011012689
 30
0.0
 40
1.000000000000002
100
AcDbArc
 50
307.8947985336
 51
351.8087250651
  0
LINE
  5
19A
330
1F
100
AcDbEntity
  8
0
  6
HIDDEN
 62
     7
370
     0
100
AcDbLine
 10
179.9062569539
 20
111.5011012689
 30
0.0
 11
179.9062569539
 21
141.5011012689
 31
0.0
  0
LINE
  5
19B
330
1F
100
AcDbEntity
  8
0
  6
HIDDEN
 62
     7
370
     0
100
AcDbLine
 10
179.9062569539
 20
111.5011012689
 30
0.0
 11
179.9062569539
 21
141.5011012689
 31
0.0
  0
LINE
  5
19C
330
1F
100
AcDbEntity
  8
0
  6
HIDDEN
 62
     7
370
     0
100
AcDbLine
 10
195.6204705163
 20
122.1019342033
 30
0.0
 11
195.6204705163
 21
124.1600531061
 31
0.0
  0
LINE
  5
19D
330
1F
100
AcDbEntity
  8
0
  6
HIDDEN
 62
     7
370
     0
100
AcDbLine
 10
191.4204705163
 20
124.1598544857
 30
0.0
 11
191.4204705163
 21
120.8820023676
 31
0.0
  0
LINE
  5
19E
330
1F
100
AcDbEntity
  8
0
  6
HIDDEN
 62
     7
370
     0
100
AcDbLine
 10
192.9159688755
 20
119.3271594168
 30
0.0
 11
199.4855547912
 21
115.1926406696
 31
0.0
  0
LINE
  5
19F
330
1F
100
AcDbEntity
  8
0
  6
HIDDEN
 62
     7
370
     0
100
AcDbLine
 10
199.3879011694
 20
120.2166285135
 30
0.0
 11
195.2127980559
 21
122.8441977874
 31
0.0
  0
LINE
  5
1A0
330
1F
100
AcDbEntity
  8
0
  6
HIDDEN
 62
     7
370
     0
100
AcDbLine
 10
155.5204705163
 20
116.3454507446
 30
0.0
 11
156.5475025483
 21
116.9384079647
 31
0.0
  0
LINE
  5
1A1
330
1F
100
AcDbEntity
  8
0
  6
HIDDEN
 62
     7
370
     0
100
AcDbLine
 10
156.5475025483
 20
136.063794573
 30
0.0
 11
155.5204705163
 21
136.6567517931
 31
0.0
  0
ARC
  5
1A2
330
1F
100
AcDbEntity
  8
0
  6
HIDDEN
 62
     7
370
     0
100
AcDbCircle
 10
162.0332889859
 20
117.5011012689
 30
0.0
 40
1.000000000000008
100
AcDbArc
 50
270.0
 51
315.0
  0
ARC
  5
1A3
330
1F
100
AcDbEntity
  8
0
  6
HIDDEN
 62
     7
370
     0
100
AcDbCircle
 10
162.0332889859
 20
135.5011012689
 30
0.0
 40
1.000000000000008
100
AcDbArc
 50
45.0
 51
90.0
  0
LINE
  5
1A4
330
1F
100
AcDbEntity
  8
0
  6
HIDDEN
 62
     7
370
     0
100
AcDbLine
 10
161.0204705163
 20
116.5011012689
 30
0.0
 11
162.0332889859
 21
116.5011012689
 31
0.0
  0
LINE
  5
1A5
330
1F
100
AcDbEntity
  8
0
  6
HIDDEN
 62
     7
370
     0
100
AcDbLine
 10
162.0332889859
 20
136.5011012689
 30
0.0
 11
161.0204705163
 21
136.5011012689
 31
0.0
  0
ARC
  5
1A6
330
1F
100
AcDbEntity
  8
0
  6
HIDDEN
 62
     7
370
     0
100
AcDbCircle
 10
161.0204705163
 20
117.5011012689
 30
0.0
 40
1.0
100
AcDbArc
 50
193.3524261238
 51
270.0
  0
ARC
  5
1A7
330
1F
100
AcDbEntity
  8
0
  6
HIDDEN
 62
     7
370
     0
100
AcDbCircle
 10
161.0204705163
 20
135.5011012689
 30
0.0
 40
1.0
100
AcDbArc
 50
90.0
 51
166.6475738762
  0
LINE
  5
1A8
330
1F
100
AcDbEntity
  8
0
  6
HIDDEN
 62
     7
370
     0
100
AcDbLine
 10
162.7403957671
 20
116.7939944877
 30
0.0
 11
163.4475025483
 21
117.5011012689
 31
0.0
  0
LINE
  5
1A9
330
1F
100
AcDbEntity
  8
0
  6
HIDDEN
 62
     7
370
     0
100
AcDbLine
 10
163.4475025483
 20
135.5011012689
 30
0.0
 11
162.7403957671
 21
136.20820805
 31
0.0
  0
LINE
  5
1AA
330
1F
100
AcDbEntity
  8
0
  6
HIDDEN
 62
     7
370
     0
100
AcDbLine
 10
156.5475025483
 20
116.9384079647
 30
0.0
 11
158.6475025483
 21
117.5011012689
 31
0.0
  0
LINE
  5
1AB
330
1F
100
AcDbEntity
  8
0
  6
HIDDEN
 62
     7
370
     0
100
AcDbLine
 10
158.6475025483
 20
135.5011012689
 30
0.0
 11
156.5475025483
 21
136.063794573
 31
0.0
  0
LINE
  5
1AC
330
1F
100
AcDbEntity
  8
0
  6
HIDDEN
 62
     7
370
     0
100
AcDbLine
 10
160.0475025483
 20
135.7320413765
 30
0.0
 11
159.6475025483
 21
135.5011012689
 31
0.0
  0
LINE
  5
1AD
330
1F
100
AcDbEntity
  8
0
  6
HIDDEN
 62
     7
370
     0
100
AcDbLine
 10
159.6475025483
 20
117.5011012689
 30
0.0
 11
160.0475025483
 21
117.2701611612
 31
0.0
  0
LINE
  5
1AE
330
1F
100
AcDbEntity
  8
0
  6
HIDDEN
 62
     7
370
     0
100
AcDbLine
 10
158.6475025483
 20
117.5011012689
 30
0.0
 11
159.6475025483
 21
117.5011012689
 31
0.0
  0
LINE
  5
1AF
330
1F
100
AcDbEntity
  8
0
  6
HIDDEN
 62
     7
370
     0
100
AcDbLine
 10
159.6475025483
 20
135.5011012689
 30
0.0
 11
158.6475025483
 21
135.5011012689
 31
0.0
  0
ARC
  5
1B0
330
1F
100
AcDbEntity
  8
0
  6
HIDDEN
 62
     7
370
     0
100
AcDbCircle
 10
170.0204705163
 20
118.0011012689
 30
0.0
 40
0.5
100
AcDbArc
 50
270.0
 51
0.0
  0
ARC
  5
1B1
330
1F
100
AcDbEntity
  8
0
  6
HIDDEN
 62
     7
370
     0
100
AcDbCircle
 10
170.0204705163
 20
135.0011012689
 30
0.0
 40
0.5
100
AcDbArc
 50
0.0
 51
90.0
  0
LINE
  5
1B2
330
1F
100
AcDbEntity
  8
0
  6
HIDDEN
 62
     7
370
     0
100
AcDbLine
 10
163.4475025483
 20
117.5011012689
 30
0.0
 11
170.0204705163
 21
117.5011012689
 31
0.0
  0
LINE
  5
1B3
330
1F
100
AcDbEntity
  8
0
  6
HIDDEN
 62
     7
370
     0
100
AcDbLine
 10
170.0204705163
 20
135.5011012689
 30
0.0
 11
163.4475025483
 21
135.5011012689
 31
0.0
  0
LINE
  5
1B4
330
1F
100
AcDbEntity
  8
0
  6
HIDDEN
 62
     7
370
     0
100
AcDbLine
 10
170.5204705163
 20
119.3511012689
 30
0.0
 11
171.4204705163
 21
120.2511012689
 31
0.0
  0
LINE
  5
1B5
330
1F
100
AcDbEntity
  8
0
  6
HIDDEN
 62
     7
370
     0
100
AcDbLine
 10
171.4204705163
 20
132.7511012689
 30
0.0
 11
170.5204705163
 21
133.6511012689
 31
0.0
  0
LINE
  5
1B6
330
1F
100
AcDbEntity
  8
0
  6
HIDDEN
 62
     7
370
     0
100
AcDbLine
 10
171.4204705163
 20
120.2511012689
 30
0.0
 11
196.5050916473
 21
120.2511012689
 31
0.0
  0
LINE
  5
1B7
330
1F
100
AcDbEntity
  8
0
  6
HIDDEN
 62
     7
370
     0
100
AcDbLine
 10
196.5050916473
 20
132.7511012689
 30
0.0
 11
171.4204705163
 21
132.7511012689
 31
0.0
  0
LINE
  5
1B8
330
1F
100
AcDbEntity
  8
0
  6
HIDDEN
 62
     7
370
     0
100
AcDbLine
 10
196.5050916473
 20
120.2511012689
 30
0.0
 11
200.2604705163
 21
126.5011012689
 31
0.0
  0
LINE
  5
1B9
330
1F
100
AcDbEntity
  8
0
  6
HIDDEN
 62
     7
370
     0
100
AcDbLine
 10
200.2604705163
 20
126.5011012689
 30
0.0
 11
196.5050916473
 21
132.7511012689
 31
0.0
  0
LINE
  5
1BA
330
1F
100
AcDbEntity
  8
0
  6
HIDDEN
 62
     7
370
     0
100
AcDbLine
 10
208.7195731075
 20
124.2228631818
 30
0.0
 11
208.632896728
 21
124.1959215306
 31
0.0
  0
LINE
  5
1BB
330
1F
100
AcDbEntity
  8
0
  6
HIDDEN
 62
     7
370
     0
100
AcDbLine
 10
207.4755370441
 20
123.0357356924
 30
0.0
 11
207.4488068695
 21
122.9489938622
 31
0.0
  0
LINE
  5
1BC
330
1F
100
AcDbEntity
  8
0
  6
HIDDEN
 62
     7
370
     0
100
AcDbLine
 10
210.3795664651
 20
123.7680047052
 30
0.0
 11
210.2051752807
 21
123.9419710814
 31
0.0
  0
LINE
  5
1BD
330
1F
100
AcDbEntity
  8
0
  6
HIDDEN
 62
     7
370
     0
100
AcDbLine
 10
219.5170533726
 20
111.7863794372
 30
0.0
 11
218.9066842274
 21
112.3952617539
 31
0.0
  0
LINE
  5
1BE
330
1F
100
AcDbEntity
  8
0
  6
HIDDEN
 62
     7
370
     0
100
AcDbLine
 10
216.5760791345
 20
110.0589655609
 30
0.0
 11
217.1864482798
 21
109.4500832442
 31
0.0
  0
LINE
  5
1BF
330
1F
100
AcDbEntity
  8
0
  6
HIDDEN
 62
     7
370
     0
100
AcDbLine
 10
195.6204705163
 20
128.842348052
 30
0.0
 11
195.6204705163
 21
131.6555590368
 31
0.0
  0
LINE
  5
1C0
330
1F
100
AcDbEntity
  8
0
  6
HIDDEN
 62
     7
370
     0
100
AcDbLine
 10
191.4204705163
 20
131.6555590368
 30
0.0
 11
191.4204705163
 21
128.8421494316
 31
0.0
  0
LINE
  5
1C1
330
1F
100
AcDbEntity
  8
0
  6
HIDDEN
 62
     7
370
     0
100
AcDbLine
 10
196.0204705163
 20
131.7455935767
 30
0.0
 11
196.0204705163
 21
133.99301486
 31
0.0
  0
LINE
  5
1C2
330
1F
100
AcDbEntity
  8
0
  6
HIDDEN
 62
     7
370
     0
100
AcDbLine
 10
191.0204705163
 20
133.9932259258
 30
0.0
 11
191.0204705163
 21
131.7455935767
 31
0.0
  0
LINE
  5
1C3
330
1F
100
AcDbEntity
  8
VERMASSUNG
  6
CENTERX2
100
AcDbLine
 10
152.9480301408
 20
126.5011012689
 30
0.0
 11
229.5204705163
 21
126.5011012689
 31
0.0
  0
LINE
  5
1C4
330
1F
100
AcDbEntity
  8
VERMASSUNG
  6
CENTERX2
100
AcDbLine
 10
229.5204705163
 20
99.5011012689
 30
0.0
 11
229.5204705163
 21
126.5011012689
 31
0.0
  0
LINE
  5
1C5
330
1F
100
AcDbEntity
  8
VERMASSUNG
  6
CENTERX2
100
AcDbLine
 10
229.5204705163
 20
99.5011012689
 30
0.0
 11
242.4800816863
 21
99.5011012689
 31
0.0
  0
LINE
  5
1C6
330
1F
100
AcDbEntity
  8
VERMASSUNG
100
AcDbLine
 10
229.5204705163
 20
99.5011012689
 30
0.0
 11
229.5204705163
 21
91.4664530353
 31
0.0
  0
DIMENSION
  5
1C7
330
1F
100
AcDbEntity
  8
VERMASSUNG
100
AcDbDimension
  2
_D
 10
179.5204705163
 20
83.293101085
 30
0.0
 11
204.5204705163
 21
83.293101085
 31
0.0
 70
   160
  1
<>
 71
     2
 42
-1.0
  3
SLDDIMSTYLE0
100
AcDbAlignedDimension
 13
229.5204705163
 23
99.5011012689
 33
0.0
 14
179.5204705163
 24
106.8011012689
 34
0.0
100
AcDbRotatedDimension
  0
DIMENSION
  5
1D4
330
1F
100
AcDbEntity
  8
VERMASSUNG
100
AcDbDimension
  2
_D_1
 10
155.5204705163
 20
77.293101085
 30
0.0
 11
192.5204705163
 21
77.293101085
 31
0.0
 70
   160
  1
<>
 71
     2
 42
-1.0
  3
SLDDIMSTYLE1
100
AcDbAlignedDimension
 13
229.5204705163
 23
99.5011012689
 33
0.0
 14
155.5204705163
 24
113.8695962868
 34
0.0
100
AcDbRotatedDimension
  0
DIMENSION
  5
1DF
330
1F
100
AcDbEntity
  8
VERMASSUNG
100
AcDbDimension
  2
_D_2
 10
241.1739740377
 20
126.5011012689
 30
0.0
 11
241.1739740377
 21
113.0011012689
 31
0.0
 70
   160
  1
<>
 71
     2
 42
-1.0
  3
SLDDIMSTYLE0
100
AcDbAlignedDimension
 13
229.5204705163
 23
99.5011012689
 33
0.0
 14
229.5204705163
 24
126.5011012689
 34
0.0
 50
90.0
100
AcDbRotatedDimension
  0
DIMENSION
  5
1EB
330
1F
100
AcDbEntity
  8
VERMASSUNG
100
AcDbDimension
  2
_D_3
 10
229.5204705163
 20
91.4664530353
 30
0.0
 11
220.9225455285
 21
94.0045097402
 31
0.0
 70
   162
  1
<>
 71
     1
 42
-1.0
  3
SLDDIMSTYLE2
100
AcDb2LineAngularDimension
 13
228.9523401345
 23
99.5374828553
 33
0.0
 14
215.4768081363
 24
106.4866692078
 34
0.0
 15
229.5204705163
 25
99.5011012689
 35
0.0
 16
220.9225455285
 26
94.0045097402
 36
0.0
  0
DIMENSION
  5
1F5
330
1F
100
AcDbEntity
  8
VERMASSUNG
100
AcDbDimension
  2
_D_4
 10
145.5204205163
 20
106.5011012689
 30
0.0
 11
145.5204205163
 21
126.5011012689
 31
0.0
 70
   160
  1
PSC%%c<>
 71
     2
 42
-1.0
  3
SLDDIMSTYLE1
100
AcDbAlignedDimension
 13
179.8204705163
 23
146.5011012689
 33
0.0
 14
179.8204705163
 24
106.5011012689
 34
0.0
 50
90.0
100
AcDbRotatedDimension
  0
LINE
  5
201
330
1F
100
AcDbEntity
  8
0
  6
Continuous
 62
     7
370
    15
100
AcDbLine
 10
99.4094461396
 20
131.3163090632
 30
0.0
 11
99.4737707272
 21
131.3422976196
 31
0.0
  0
LINE
  5
202
330
1F
100
AcDbEntity
  8
0
  6
Continuous
 62
     7
370
    15
100
AcDbLine
 10
97.2261317268
 20
136.9054002822
 30
0.0
 11
97.1618071392
 21
136.879412657
 31
0.0
  0
LINE
  5
203
330
1F
100
AcDbEntity
  8
0
  6
Continuous
 62
     7
370
    15
100
AcDbLine
 10
99.4737707272
 20
131.3422976196
 30
0.0
 11
99.5511319682
 21
131.5245481342
 31
0.0
  0
LINE
  5
204
330
1F
100
AcDbEntity
  8
0
  6
Continuous
 62
     7
370
    15
100
AcDbLine
 10
97.4083822414
 20
136.8280399725
 30
0.0
 11
97.2261317268
 21
136.9054002822
 31
0.0
  0
SPLINE
  5
205
330
1F
100
AcDbEntity
  8
0
  6
Continuous
 62
     7
370
    15
100
AcDbSpline
210
0.0
220
0.0
230
1.0
 70
     8
 71
     3
 72
    11
 73
     7
 74
     0
 42
0.00000001
 43
0.00000001
 12
1.0
 22
0.0
 32
0.0
 13
1.0
 23
0.0
 33
0.0
 40
0.0
 40
0.0
 40
0.0
 40
0.0
 40
0.248492499930207
 40
0.5009731397168606
 40
0.7526537367033267
 40
1.0
 40
1.0
 40
1.0
 40
1.0
 10
79.40191076096183
 20
99.47846011670734
 30
0.0
 10
79.79286891738056
 20
99.5667928271068
 30
0.0
 10
80.5810598493967
 20
99.74487592933704
 30
0.0
 10
81.79876482194842
 20
99.92788449476501
 30
0.0
 10
83.01470114747053
 20
100.1185375277127
 30
0.0
 10
83.78818825480867
 20
100.3155225965513
 30
0.0
 10
84.17157271952404
 20
100.4131596669784
 30
0.0
  0
LINE
  5
206
330
1F
100
AcDbEntity
  8
0
  6
Continuous
 62
     7
370
    15
100
AcDbLine
 10
78.7605151611
 20
104.0915131703
 30
0.0
 11
79.058155204
 21
103.6461770669
 31
0.0
  0
LINE
  5
207
330
1F
100
AcDbEntity
  8
0
  6
Continuous
 62
     7
370
    15
100
AcDbLine
 10
77.4082355395
 20
116.4688144014
 30
0.0
 11
77.2179900862
 21
116.0745138437
 31
0.0
  0
LINE
  5
208
330
1F
100
AcDbEntity
  8
0
  6
Continuous
 62
     7
370
    15
100
AcDbLine
 10
77.1036814161
 20
120.6380973704
 30
0.0
 11
76.4781963274
 21
120.6810779073
 31
0.0
  0
ARC
  5
209
330
1F
100
AcDbEntity
  8
0
  6
Continuous
 62
     7
370
    15
100
AcDbCircle
 10
84.7081534866
 20
110.7055355879
 30
0.0
 40
7.000000000000001
100
AcDbArc
 50
198.365394812
 51
203.6920512209
  0
ARC
  5
20A
330
1F
100
AcDbEntity
  8
0
  6
Continuous
 62
     7
370
    15
100
AcDbCircle
 10
84.7081534866
 20
110.7055355879
 30
0.0
 40
6.999999999999993
100
AcDbArc
 50
164.811169779
 51
169.634605188
  0
LINE
  5
20B
330
1F
100
AcDbEntity
  8
0
  6
Continuous
 62
     7
370
    15
100
AcDbLine
 10
77.9399683427
 20
111.379029429
 30
0.0
 11
77.9817949709
 21
111.3819547132
 31
0.0
  0
LINE
  5
20C
330
1F
100
AcDbEntity
  8
0
  6
Continuous
 62
     7
370
    15
100
AcDbLine
 10
78.1306699112
 20
109.5572143927
 30
0.0
 11
77.9780376664
 21
109.546541436
 31
0.0
  0
LINE
  5
20D
330
1F
100
AcDbEntity
  8
0
  6
Continuous
 62
     7
370
    15
100
AcDbLine
 10
82.6884377942
 20
114.0285397083
 30
0.0
 11
80.2328817275
 21
113.6977702514
 31
0.0
  0
LINE
  5
20E
330
1F
100
AcDbEntity
  8
0
  6
Continuous
 62
     7
370
    15
100
AcDbLine
 10
78.2796213364
 20
113.7023123116
 30
0.0
 11
78.2164213209
 21
114.2956821382
 31
0.0
  0
LINE
  5
20F
330
1F
100
AcDbEntity
  8
0
  6
Continuous
 62
     7
370
    15
100
AcDbLine
 10
99.9829881087
 20
114.2956821382
 30
0.0
 11
99.9829881087
 21
111.9437508419
 31
0.0
  0
ARC
  5
210
330
1F
100
AcDbEntity
  8
0
  6
Continuous
 62
     7
370
    15
100
AcDbCircle
 10
78.4829875425
 20
124.7011012689
 30
0.0
 40
25.00000000000001
100
AcDbArc
 50
296.3602504093
 51
329.316582891
  0
LINE
  5
211
330
1F
100
AcDbEntity
  8
0
  6
Continuous
 62
     7
370
    15
100
AcDbLine
 10
84.0952513002
 20
100.8641731128
 30
0.0
 11
89.5833289445
 21
102.3006003484
 31
0.0
  0
LINE
  5
212
330
1F
100
AcDbEntity
  8
0
  6
Continuous
 62
     7
370
    15
100
AcDbLine
 10
82.6884377942
 20
114.0285397083
 30
0.0
 11
82.7242853314
 21
113.6919764936
 31
0.0
  0
LINE
  5
213
330
1F
100
AcDbEntity
  8
0
  6
Continuous
 62
     7
370
    15
100
AcDbLine
 10
88.5097477779
 20
101.7999213323
 30
0.0
 11
84.1180156179
 21
100.6504457578
 31
0.0
  0
ARC
  5
214
330
1F
100
AcDbEntity
  8
0
  6
Continuous
 62
     7
370
    15
100
AcDbCircle
 10
78.4829875425
 20
124.7011012689
 30
0.0
 40
25.00000000000001
100
AcDbArc
 50
293.6451124618
 51
296.3602504093
  0
LINE
  5
215
330
1F
100
AcDbEntity
  8
0
  6
Continuous
 62
     7
370
    15
100
AcDbLine
 10
78.174797721
 20
105.6865241513
 30
0.0
 11
77.4839101553
 21
105.6016937033
 31
0.0
  0
LINE
  5
216
330
1F
100
AcDbEntity
  8
0
  6
Continuous
 62
     7
370
    15
100
AcDbLine
 10
77.4611751743
 20
105.858695893
 30
0.0
 11
77.4839101553
 21
105.6016937033
 31
0.0
  0
SPLINE
  5
217
330
1F
100
AcDbEntity
  8
0
  6
Continuous
 62
     7
370
    15
100
AcDbSpline
210
0.0
220
0.0
230
1.0
 70
     8
 71
     3
 72
    12
 73
     8
 74
     0
 42
0.00000001
 43
0.00000001
 12
1.0
 22
0.0
 32
0.0
 13
1.0
 23
0.0
 33
0.0
 40
0.0
 40
0.0
 40
0.0
 40
0.0
 40
0.4999999999999964
 40
0.4999999999999964
 40
0.7499999999999982
 40
0.7499999999999982
 40
1.0
 40
1.0
 40
1.0
 40
1.0
 10
77.36840131793363
 20
106.5545323654886
 30
0.0
 10
77.38309906980872
 20
106.497912313946
 30
0.0
 10
77.39935056151762
 20
106.403654899381
 30
0.0
 10
77.42334632225655
 20
106.2235041540391
 30
0.0
 10
77.43140987768787
 20
106.1559968644036
 30
0.0
 10
77.44681406516061
 20
106.0131310581528
 30
0.0
 10
77.45417128043235
 20
105.9378735184587
 30
0.0
 10
77.46117509304267
 20
105.8586968104748
 30
0.0
  0
SPLINE
  5
218
330
1F
100
AcDbEntity
  8
0
  6
Continuous
 62
     7
370
    15
100
AcDbSpline
210
0.0
220
0.0
230
1.0
 70
     8
 71
     3
 72
    10
 73
     6
 74
     0
 42
0.00000001
 43
0.00000001
 12
1.0
 22
0.0
 32
0.0
 13
1.0
 23
0.0
 33
0.0
 40
0.0
 40
0.0
 40
0.0
 40
0.0
 40
0.5
 40
0.5
 40
1.0
 40
1.0
 40
1.0
 40
1.0
 10
74.61816398948108
 20
146.4155053974805
 30
0.0
 10
74.62128390332316
 20
146.3126087012098
 30
0.0
 10
74.62246815975027
 20
146.2186254967087
 30
0.0
 10
74.62073662262362
 20
146.064039394088
 30
0.0
 10
74.6178147932236
 20
146.0015751175945
 30
0.0
 10
74.6129544779162
 20
145.9592580126892
 30
0.0
  0
ARC
  5
219
330
1F
100
AcDbEntity
  8
0
  6
Continuous
 62
     7
370
    15
100
AcDbCircle
 10
79.4829875425
 20
126.5011012689
 30
0.0
 40
20.50000000000002
100
AcDbArc
 50
103.2781044025
 51
103.7277381122
  0
LINE
  5
21A
330
1F
100
AcDbEntity
  8
0
  6
Continuous
 62
     7
370
    15
100
AcDbLine
 10
77.3345034298
 20
124.9870592397
 30
0.0
 11
74.7745922029
 21
146.4530687914
 31
0.0
  0
LINE
  5
21B
330
1F
100
AcDbEntity
  8
0
  6
Continuous
 62
     7
370
    15
100
AcDbLine
 10
77.5347554784
 20
122.1233212523
 30
0.0
 11
77.3345034298
 21
124.9870592397
 31
0.0
  0
ELLIPSE
  5
21C
330
1F
100
AcDbEntity
  8
0
  6
Continuous
 62
     7
370
    15
100
AcDbEllipse
 10
78.7150310449
 20
122.2681887088
 30
0.0
 11
-1.184376789874364
 21
16.99979965494748
 31
0.0
210
0.0
220
0.0
230
1.0
 40
0.0696847268
 41
1.574463155323292
 42
2.05406672162803
  0
LINE
  5
21D
330
1F
100
AcDbEntity
  8
0
  6
Continuous
 62
     7
370
    15
100
AcDbLine
 10
76.8216483023
 20
123.2860418637
 30
0.0
 11
77.3736788154
 21
118.103153272
 31
0.0
  0
LWPOLYLINE
  5
21E
330
1F
100
AcDbEntity
  8
0
  6
Continuous
 62
     7
370
    15
100
AcDbPolyline
 90
       14
 70
   128
 43
0.0
 10
76.7082271826
 20
121.4992983401
 10
76.6666471221
 20
121.9311139681
 10
76.6307795614
 20
122.3897540145
 10
76.6027088005
 20
122.848563096
 10
76.5840660509
 20
123.2808774472
 10
76.5759349063
 20
123.6615725462
 10
76.578788013
 20
123.9685236611
 10
76.5924595956
 20
124.1838917736
 10
76.6161547702
 20
124.2951606069
 10
76.6484968092
 20
124.2958635226
 10
76.6876058381
 20
124.1859600082
 10
76.7312091969
 20
123.9718368411
 10
76.7767725241
 20
123.6659383536
 10
76.8216483023
 20
123.2860418637
  0
LINE
  5
21F
330
1F
100
AcDbEntity
  8
0
  6
Continuous
 62
     7
370
    15
100
AcDbLine
 10
76.7977144763
 20
120.6591219776
 30
0.0
 11
76.7082271826
 21
121.4992983401
 31
0.0
  0
LINE
  5
220
330
1F
100
AcDbEntity
  8
0
  6
Continuous
 62
     7
370
    15
100
AcDbLine
 10
77.3736788154
 20
118.103153272
 30
0.0
 11
78.2796213364
 21
113.7023123116
 31
0.0
  0
LINE
  5
221
330
1F
100
AcDbEntity
  8
0
  6
Continuous
 62
     7
370
    15
100
AcDbLine
 10
99.9829881087
 20
122.1233212523
 30
0.0
 11
99.9829881087
 21
114.2956821382
 31
0.0
  0
LINE
  5
222
330
1F
100
AcDbEntity
  8
0
  6
Continuous
 62
     7
370
    15
100
AcDbLine
 10
99.9829881087
 20
124.9870592397
 30
0.0
 11
77.3345034298
 21
124.9870592397
 31
0.0
  0
LINE
  5
223
330
1F
100
AcDbEntity
  8
0
  6
Continuous
 62
     7
370
    15
100
AcDbLine
 10
99.9829881087
 20
124.9870592397
 30
0.0
 11
99.9829881087
 21
122.1233212523
 31
0.0
  0
ARC
  5
224
330
1F
100
AcDbEntity
  8
0
  6
Continuous
 62
     7
370
    15
100
AcDbCircle
 10
79.4829875425
 20
126.5011012689
 30
0.0
 40
20.50000000000002
100
AcDbArc
 50
0.0
 51
103.2781044025
  0
LINE
  5
225
330
1F
100
AcDbEntity
  8
0
  6
Continuous
 62
     7
370
    15
100
AcDbLine
 10
99.9829881087
 20
126.5011012689
 30
0.0
 11
99.9829881087
 21
124.9870592397
 31
0.0
  0
SPLINE
  5
226
330
1F
100
AcDbEntity
  8
0
  6
Continuous
 62
     7
370
    15
100
AcDbSpline
210
0.0
220
0.0
230
1.0
 70
     8
 71
     3
 72
     8
 73
     4
 74
     0
 42
0.00000001
 43
0.00000001
 12
1.0
 22
0.0
 32
0.0
 13
1.0
 23
0.0
 33
0.0
 40
0.0
 40
0.0
 40
0.0
 40
0.0
 40
1.0
 40
1.0
 40
1.0
 40
1.0
 10
74.6129544779162
 20
145.9592580126892
 30
0.0
 10
74.60798410352795
 20
145.9159826609676
 30
0.0
 10
74.57646943833264
 20
145.8900093998936
 30
0.0
 10
74.51771825375324
 20
145.8749522255033
 30
0.0
  0
SPLINE
  5
227
330
1F
100
AcDbEntity
  8
0
  6
Continuous
 62
     7
370
    15
100
AcDbSpline
210
0.0
220
0.0
230
1.0
 70
     8
 71
     3
 72
     8
 73
     4
 74
     0
 42
0.00000001
 43
0.00000001
 12
1.0
 22
0.0
 32
0.0
 13
1.0
 23
0.0
 33
0.0
 40
0.0
 40
0.0
 40
0.0
 40
0.0
 40
1.0
 40
1.0
 40
1.0
 40
1.0
 10
77.26235882832451
 20
106.6247633739076
 30
0.0
 10
77.32261234488104
 20
106.6180317169142
 30
0.0
 10
77.35745487673809
 20
106.5967012679205
 30
0.0
 10
77.36840131793491
 20
106.5545323654897
 30
0.0
  0
SPLINE
  5
228
330
1F
100
AcDbEntity
  8
0
  6
Continuous
 62
     7
370
    15
100
AcDbSpline
210
0.0
220
0.0
230
1.0
 70
     8
 71
     3
 72
     8
 73
     4
 74
     0
 42
0.00000001
 43
0.00000001
 12
1.0
 22
0.0
 32
0.0
 13
1.0
 23
0.0
 33
0.0
 40
0.0
 40
0.0
 40
0.0
 40
0.0
 40
1.0
 40
1.0
 40
1.0
 40
1.0
 10
76.76674039932719
 20
106.6864097129012
 30
0.0
 10
76.97435897800139
 20
106.6579488423601
 30
0.0
 10
77.15539192539217
 20
106.6367139544104
 30
0.0
 10
77.26235882832451
 20
106.6247633739076
 30
0.0
  0
SPLINE
  5
229
330
1F
100
AcDbEntity
  8
0
  6
Continuous
 62
     7
370
    15
100
AcDbSpline
210
0.0
220
0.0
230
1.0
 70
     8
 71
     3
 72
     8
 73
     4
 74
     0
 42
0.00000001
 43
0.00000001
 12
1.0
 22
0.0
 32
0.0
 13
1.0
 23
0.0
 33
0.0
 40
0.0
 40
0.0
 40
0.0
 40
0.0
 40
1.0
 40
1.0
 40
1.0
 40
1.0
 10
74.51771825375165
 20
145.8749522255039
 30
0.0
 10
74.41347866751838
 20
145.8482369577262
 30
0.0
 10
74.23710008478194
 20
145.8019966629138
 30
0.0
 10
74.03550266139634
 20
145.7449290707873
 30
0.0
  0
ELLIPSE
  5
22A
330
1F
100
AcDbEntity
  8
0
  6
Continuous
 62
     7
370
    15
100
AcDbEllipse
 10
68.7531848088
 20
117.7046345916
 30
0.0
 11
-1.779035261107424
 21
2.187503333372349
 31
0.0
210
0.0
220
0.0
230
1.0
 40
0.7283648831
 41
0.0
 42
6.283185307179586
  0
ARC
  5
22B
330
1F
100
AcDbEntity
  8
0
  6
Continuous
 62
     7
370
    15
100
AcDbCircle
 10
79.4829875425
 20
126.5011012689
 30
0.0
 40
20.0
100
AcDbArc
 50
105.8055971792
 51
262.1944028208
  0
SPLINE
  5
22C
330
1F
100
AcDbEntity
  8
0
  6
Continuous
 62
     7
370
    15
100
AcDbSpline
210
0.0
220
0.0
230
1.0
 70
     8
 71
     3
 72
    13
 73
     9
 74
     0
 42
0.00000001
 43
0.00000001
 12
1.0
 22
0.0
 32
0.0
 13
1.0
 23
0.0
 33
0.0
 40
0.0
 40
0.0
 40
0.0
 40
0.0
 40
0.1722805985684297
 40
0.4504834777231732
 40
0.7533682135336657
 40
0.9154709708901828
 40
0.9823902632645234
 40
1.0
 40
1.0
 40
1.0
 40
1.0
 10
66.4551733255483
 20
119.00212915095
 30
0.0
 10
66.51988563576083
 20
119.0151857233258
 30
0.0
 10
66.68909695031556
 20
119.0493263646973
 30
0.0
 10
66.96697799828425
 20
119.215722412962
 30
0.0
 10
67.23045296009792
 20
119.4369989637209
 30
0.0
 10
67.3999377016083
 20
119.6308550887464
 30
0.0
 10
67.46943395948657
 20
119.7308178484766
 30
0.0
 10
67.47489623964375
 20
119.7643509891758
 30
0.0
 10
67.47603418380989
 20
119.7713368706634
 30
0.0
  0
LINE
  5
22D
330
1F
100
AcDbEntity
  8
0
  6
Continuous
 62
     7
370
    15
100
AcDbLine
 10
67.4760341838
 20
119.7713368707
 30
0.0
 11
67.6981760383
 21
119.8669413239
 31
0.0
  0
SPLINE
  5
22E
330
1F
100
AcDbEntity
  8
0
  6
Continuous
 62
     7
370
    15
100
AcDbSpline
210
0.0
220
0.0
230
1.0
 70
     8
 71
     3
 72
    12
 73
     8
 74
     0
 42
0.00000001
 43
0.00000001
 12
1.0
 22
0.0
 32
0.0
 13
1.0
 23
0.0
 33
0.0
 40
0.0
 40
0.0
 40
0.0
 40
0.0
 40
0.050924030675912
 40
0.2504533304841829
 40
0.5977933124059654
 40
0.9559964564460512
 40
0.9999999999999999
 40
0.9999999999999999
 40
0.9999999999999999
 40
0.9999999999999999
 10
67.6981760382749
 20
119.8669413238993
 30
0.0
 10
67.7176339370911
 20
119.8574806702249
 30
0.0
 10
67.81333130232434
 20
119.8109515131675
 30
0.0
 10
68.13222440445855
 20
119.8123192752279
 30
0.0
 10
68.53463788445386
 20
119.84510923464
 30
0.0
 10
68.8741968381452
 20
119.9138951046245
 30
0.0
 10
68.9943005110992
 20
120.0108895803086
 30
0.0
 10
69.00744048954023
 20
120.021501290076
 30
0.0
  0
LWPOLYLINE
  5
22F
330
1F
100
AcDbEntity
  8
0
  6
Continuous
 62
     7
370
    15
100
AcDbPolyline
 90
        5
 70
   128
 43
0.0
 10
97.4185858116
 20
136.4290567249
 10
97.3494611874
 20
136.6001453385
 10
97.2724445358
 20
136.7907703057
 10
97.232120131
 20
136.8905764207
 10
97.2261317268
 20
136.9054002822
  0
LWPOLYLINE
  5
230
330
1F
100
AcDbEntity
  8
0
  6
Continuous
 62
     7
370
    15
100
AcDbPolyline
 90
        5
 70
   128
 43
0.0
 10
99.4737707272
 20
131.3422976196
 10
99.470039849
 20
131.3515330799
 10
99.4341541275
 20
131.4403519169
 10
99.361347054
 20
131.6205544532
 10
99.2813147798
 20
131.8186416425
  0
LINE
  5
231
330
1F
100
AcDbEntity
  8
0
  6
Continuous
 62
     7
370
    15
100
AcDbLine
 10
98.8776367352
 20
133.1915075094
 30
0.0
 11
98.7349823311
 21
133.5445891269
 31
0.0
  0
LWPOLYLINE
  5
232
330
1F
100
AcDbEntity
  8
0
  6
Continuous
 62
     7
370
    15
100
AcDbPolyline
 90
        9
 70
   128
 43
0.0
 10
98.2245300159
 20
134.8079994455
 10
98.0812572137
 20
135.1626163483
 10
97.9002472207
 20
135.6106318668
 10
97.7401808098
 20
136.0068062455
 10
97.6068470821
 20
136.3368222624
 10
97.5050609753
 20
136.5887506068
 10
97.4385030761
 20
136.7534857378
 10
97.4095799223
 20
136.8250755728
 10
97.4083822414
 20
136.8280399725
  0
LWPOLYLINE
  5
233
330
1F
100
AcDbEntity
  8
0
  6
Continuous
 62
     7
370
    15
100
AcDbPolyline
 90
        8
 70
   128
 43
0.0
 10
99.5511319682
 20
131.5245481342
 10
99.5499026224
 20
131.5275912307
 10
99.5208528087
 20
131.5994916618
 10
99.4541738376
 20
131.764524816
 10
99.3522778347
 20
132.0167255722
 10
99.2188472495
 20
132.3469786108
 10
99.0587044701
 20
132.7433476359
 10
98.8776367352
 20
133.1915075094
  0
SPLINE
  5
234
330
1F
100
AcDbEntity
  8
0
  6
Continuous
 62
     7
370
    15
100
AcDbSpline
210
0.0
220
0.0
230
1.0
 70
     8
 71
     3
 72
    10
 73
     6
 74
     0
 42
0.00000001
 43
0.00000001
 12
1.0
 22
0.0
 32
0.0
 13
1.0
 23
0.0
 33
0.0
 40
0.0
 40
0.0
 40
0.0
 40
0.0
 40
0.2724591711573845
 40
0.544824754880901
 40
0.9999999999999999
 40
0.9999999999999999
 40
0.9999999999999999
 40
0.9999999999999999
 10
78.00889156834258
 20
113.5123159870734
 30
0.0
 10
78.00678510963215
 20
113.5312699632261
 30
0.0
 10
78.00257291576213
 20
113.5691714049999
 30
0.0
 10
77.99452638159282
 20
113.6298926862552
 30
0.0
 10
77.98883779593803
 20
113.6610451278034
 30
0.0
 10
77.98527881578578
 20
113.6805351957908
 30
0.0
  0
LINE
  5
235
330
1F
100
AcDbEntity
  8
0
  6
Continuous
 62
     7
370
    15
100
AcDbLine
 10
79.440528499
 20
100.0710010663
 30
0.0
 11
78.0088915683
 21
113.5123159871
 31
0.0
  0
SPLINE
  5
236
330
1F
100
AcDbEntity
  8
0
  6
Continuous
 62
     7
370
    15
100
AcDbSpline
210
0.0
220
0.0
230
1.0
 70
     8
 71
     3
 72
    15
 73
    11
 74
     0
 42
0.00000001
 43
0.00000001
 12
1.0
 22
0.0
 32
0.0
 13
1.0
 23
0.0
 33
0.0
 40
0.0
 40
0.0
 40
0.0
 40
0.0
 40
0.1369011335072373
 40
0.273615998144404
 40
0.4079028596781161
 40
0.5393420676719931
 40
0.6692143656531169
 40
0.7996805834773746
 40
0.9324940079702281
 40
1.0
 40
1.0
 40
1.0
 40
1.0
 10
79.44061893550482
 20
99.53748361619617
 30
0.0
 10
79.44479050157626
 20
99.52054774566952
 30
0.0
 10
79.45312795785019
 20
99.48669904770854
 30
0.0
 10
79.46242159784977
 20
99.49356335442602
 30
0.0
 10
79.46783356956243
 20
99.54325115366427
 30
0.0
 10
79.46871455297251
 20
99.63200634733124
 30
0.0
 10
79.46518481438945
 20
99.74791538121511
 30
0.0
 10
79.45767856188186
 20
99.87872875759842
 30
0.0
 10
79.44879056385767
 20
99.9901318732404
 30
0.0
 10
79.4426109708811
 20
100.0506178056767
 30
0.0
 10
79.44052849898965
 20
100.0710010662904
 30
0.0
  0
LINE
  5
237
330
1F
100
AcDbEntity
  8
0
  6
Continuous
 62
     7
370
    15
100
AcDbLine
 10
78.0100824971
 20
106.4866699413
 30
0.0
 11
79.4406189355
 21
99.5374836162
 31
0.0
  0
SPLINE
  5
238
330
1F
100
AcDbEntity
  8
0
  6
Continuous
 62
     7
370
    15
100
AcDbSpline
210
0.0
220
0.0
230
1.0
 70
     8
 71
     3
 72
    10
 73
     6
 74
     0
 42
0.00000001
 43
0.00000001
 12
1.0
 22
0.0
 32
0.0
 13
1.0
 23
0.0
 33
0.0
 40
0.0
 40
0.0
 40
0.0
 40
0.0
 40
0.2724622905602965
 40
0.5448249301353026
 40
1.0
 40
1.0
 40
1.0
 40
1.0
 10
77.98646974452807
 20
106.6548891499868
 30
0.0
 10
77.98857618930143
 20
106.6359347858294
 30
0.0
 10
77.9927883084322
 20
106.5980329899276
 30
0.0
 10
78.0008350026747
 20
106.5373125891306
 30
0.0
 10
78.00652353586632
 20
106.5061601092812
 30
0.0
 10
78.01008249708487
 20
106.4866699412694
 30
0.0
  0
LINE
  5
239
330
1F
100
AcDbEntity
  8
0
  6
Continuous
 62
     7
370
    15
100
AcDbLine
 10
76.5548327666
 20
120.0962036051
 30
0.0
 11
77.9864697445
 21
106.65488915
 31
0.0
  0
SPLINE
  5
23A
330
1F
100
AcDbEntity
  8
0
  6
Continuous
 62
     7
370
    15
100
AcDbSpline
210
0.0
220
0.0
230
1.0
 70
     8
 71
     3
 72
    15
 73
    11
 74
     0
 42
0.00000001
 43
0.00000001
 12
1.0
 22
0.0
 32
0.0
 13
1.0
 23
0.0
 33
0.0
 40
0.0
 40
0.0
 40
0.0
 40
0.0
 40
0.1368991240492821
 40
0.2736141281307669
 40
0.4079028890062754
 40
0.5393408622243564
 40
0.6692124089268625
 40
0.7996791215093603
 40
0.9324936446335312
 40
1.0
 40
1.0
 40
1.0
 40
1.0
 10
76.55474242829753
 20
120.6297219865253
 30
0.0
 10
76.55057081260588
 20
120.6466571764891
 30
0.0
 10
76.54223319176064
 20
120.6805047797433
 30
0.0
 10
76.53293966879352
 20
120.6736417336455
 30
0.0
 10
76.5275278122229
 20
120.6239549133242
 30
0.0
 10
76.526646825565
 20
120.5351986185347
 30
0.0
 10
76.53017659995109
 20
120.4192890006644
 30
0.0
 10
76.53768261141802
 20
120.2884764980288
 30
0.0
 10
76.54657094639596
 20
120.1770720969247
 30
0.0
 10
76.55275035935117
 20
120.1165866597661
 30
0.0
 10
76.55483276658727
 20
120.0962036051085
 30
0.0
  0
LINE
  5
23B
330
1F
100
AcDbEntity
  8
0
  6
Continuous
 62
     7
370
    15
100
AcDbLine
 10
77.9852788158
 20
113.6805351958
 30
0.0
 11
76.5547424283
 21
120.6297219865
 31
0.0
  0
LINE
  5
23C
330
1F
100
AcDbEntity
  8
0
  6
Continuous
 62
     7
370
    15
100
AcDbLine
 10
78.0095326675
 20
106.5041918442
 30
0.0
 11
79.4384163321
 21
99.5630353824
 31
0.0
  0
LWPOLYLINE
  5
23D
330
1F
100
AcDbEntity
  8
0
  6
Continuous
 62
     7
370
    15
100
AcDbPolyline
 90
        9
 70
   128
 43
0.0
 10
79.4384163321
 20
99.5630353824
 10
79.4489598787
 20
99.5258197323
 10
79.4573354318
 20
99.5257508144
 10
79.4627118042
 20
99.5628342167
 10
79.4645554463
 20
99.6333930776
 10
79.462683397
 20
99.7304219887
 10
79.4572814351
 20
99.8442929372
 10
79.4488856494
 20
99.9637052551
 10
79.4383292426
 20
100.0768087939
  0
LINE
  5
23E
330
1F
100
AcDbEntity
  8
0
  6
Continuous
 62
     7
370
    15
100
AcDbLine
 10
79.4383292426
 20
100.0768087939
 30
0.0
 11
78.0083463954
 21
113.5025929794
 31
0.0
  0
ARC
  5
23F
330
1F
100
AcDbEntity
  8
0
  6
Continuous
 62
     7
370
    15
100
AcDbCircle
 10
76.1648101397
 20
113.3256095339
 30
0.0
 40
1.852012166837063
100
AcDbArc
 50
5.4837125465
 51
10.4968667517
  0
LINE
  5
240
330
1F
100
AcDbEntity
  8
0
  6
Continuous
 62
     7
370
    15
100
AcDbLine
 10
77.9858286454
 20
113.6630123615
 30
0.0
 11
76.5569450062
 21
120.6041702204
 31
0.0
  0
LWPOLYLINE
  5
241
330
1F
100
AcDbEntity
  8
0
  6
Continuous
 62
     7
370
    15
100
AcDbPolyline
 90
        9
 70
   128
 43
0.0
 10
76.5569450062
 20
120.6041702204
 10
76.5464015033
 20
120.6413854048
 10
76.5380258866
 20
120.6414543227
 10
76.5326495942
 20
120.6043695234
 10
76.5308058083
 20
120.5338115938
 10
76.5326779995
 20
120.4367826827
 10
76.5380799033
 20
120.3229117342
 10
76.5464757763
 20
120.2034994163
 10
76.5570320848
 20
120.0903958775
  0
LINE
  5
242
330
1F
100
AcDbEntity
  8
0
  6
Continuous
 62
     7
370
    15
100
AcDbLine
 10
76.5570320848
 20
120.0903958775
 30
0.0
 11
77.9870149175
 21
106.6646121577
 31
0.0
  0
ARC
  5
243
330
1F
100
AcDbEntity
  8
0
  6
Continuous
 62
     7
370
    15
100
AcDbCircle
 10
79.8306956317
 20
106.8416139216
 30
0.0
 40
1.852157714731372
100
AcDbArc
 50
185.4838495788
 51
190.4966381421
  0
LINE
  5
244
330
1F
100
AcDbEntity
  8
0
  6
Continuous
 62
     7
370
    15
100
AcDbLine
 10
84.1288618006
 20
100.5486149475
 30
0.0
 11
82.7369238444
 21
113.6172024667
 31
0.0
  0
SPLINE
  5
245
330
1F
100
AcDbEntity
  8
0
  6
Continuous
 62
     7
370
    15
100
AcDbSpline
210
0.0
220
0.0
230
1.0
 70
     8
 71
     3
 72
    15
 73
    11
 74
     0
 42
0.00000001
 43
0.00000001
 12
1.0
 22
0.0
 32
0.0
 13
1.0
 23
0.0
 33
0.0
 40
0.0
 40
0.0
 40
0.0
 40
0.0
 40
0.1386175338022543
 40
0.2773948224700845
 40
0.4120950404100261
 40
0.5418179721762458
 40
0.6691615167931226
 40
0.7974678931978922
 40
0.929578211175866
 40
1.0
 40
1.0
 40
1.0
 40
1.0
 10
84.12886180059088
 20
100.5486149475207
 30
0.0
 10
84.12993516812793
 20
100.5377010586405
 30
0.0
 10
84.13208314024386
 20
100.5158607027681
 30
0.0
 10
84.13448150978849
 20
100.4801021202802
 30
0.0
 10
84.13585714797097
 20
100.4478291907854
 30
0.0
 10
84.13606156130838
 20
100.4224781286538
 30
0.0
 10
84.13516052450277
 20
100.4063114643243
 30
0.0
 10
84.13327114556715
 20
100.4005191467159
 30
0.0
 10
84.13101867346998
 20
100.4044168723292
 30
0.0
 10
84.12943520183423
 20
100.4114720729653
 30
0.0
 10
84.12888461799396
 20
100.4139252141347
 30
0.0
  0
LWPOLYLINE
  5
246
330
1F
100
AcDbEntity
  8
0
  6
Continuous
 62
     7
370
    15
100
AcDbPolyline
 90
        9
 70
   128
 43
0.0
 10
77.2659178086
 20
115.9719798848
 10
77.2381716136
 20
116.0699159041
 10
77.2161307007
 20
116.0700965807
 10
77.201982281
 20
115.9725051508
 10
77.197130556
 20
115.7868264377
 10
77.2020570196
 20
115.5314866588
 10
77.2162727274
 20
115.2318261698
 10
77.2383669585
 20
114.917583032
 10
77.2661469139
 20
114.6199425817
  0
LINE
  5
247
330
1F
100
AcDbEntity
  8
0
  6
Continuous
 62
     7
370
    15
100
AcDbLine
 10
77.9676675059
 20
112.5630561397
 30
0.0
 11
77.2659178086
 21
115.9719798848
 31
0.0
  0
ARC
  5
248
330
1F
100
AcDbEntity
  8
0
  6
Continuous
 62
     7
370
    15
100
AcDbCircle
 10
73.1754640677
 20
111.6751479249
 30
0.0
 40
4.873765976250483
100
AcDbArc
 50
5.4837149599
 51
10.4968305683
  0
LINE
  5
249
330
1F
100
AcDbEntity
  8
0
  6
Continuous
 62
     7
370
    15
100
AcDbLine
 10
78.7292143989
 20
105.5472616241
 30
0.0
 11
78.0269247674
 21
112.1408987925
 31
0.0
  0
LWPOLYLINE
  5
24A
330
1F
100
AcDbEntity
  8
0
  6
Continuous
 62
     7
370
    15
100
AcDbPolyline
 90
        9
 70
   128
 43
0.0
 10
78.7294435625
 20
104.1952252522
 10
78.7571897575
 20
104.0972892329
 10
78.7792306704
 20
104.0971085564
 10
78.7933790319
 20
104.1946999863
 10
78.7982306986
 20
104.380377768
 10
78.7933042932
 20
104.6357184783
 10
78.7790885855
 20
104.9353789672
 10
78.7569944126
 20
105.2496221051
 10
78.7292143989
 20
105.5472616241
  0
LINE
  5
24B
330
1F
100
AcDbEntity
  8
0
  6
Continuous
 62
     7
370
    15
100
AcDbLine
 10
78.027693807
 20
107.6041489974
 30
0.0
 11
78.7294435625
 21
104.1952252522
 31
0.0
  0
ARC
  5
24C
330
1F
100
AcDbEntity
  8
0
  6
Continuous
 62
     7
370
    15
100
AcDbCircle
 10
82.8199428416
 20
108.4920636124
 30
0.0
 40
4.873811975643341
100
AcDbArc
 50
185.4837386321
 51
190.4968068961
  0
LINE
  5
24D
330
1F
100
AcDbEntity
  8
0
  6
Continuous
 62
     7
370
    15
100
AcDbLine
 10
77.2661469139
 20
114.6199425817
 30
0.0
 11
77.9684365455
 21
108.0263063446
 31
0.0
  0
LWPOLYLINE
  5
24E
330
1F
100
AcDbEntity
  8
0
  6
Continuous
 62
     7
370
    15
100
AcDbPolyline
 90
       35
 70
   128
 43
0.0
 10
78.0883976452
 20
107.377956821
 10
78.1394969866
 20
107.1682937578
 10
78.1857669547
 20
107.0579096809
 10
78.2256318683
 20
107.0505596832
 10
78.2577342082
 20
107.1464989469
 10
78.2809807181
 20
107.3424548045
 10
78.294579774
 20
107.6317589864
 10
78.2980682755
 20
108.0045580998
 10
78.2913274791
 20
108.4481563553
 10
78.2745868394
 20
108.9474458382
 10
78.2484165587
 20
109.4854280487
 10
78.2137076797
 20
110.0437801466
 10
78.1716424001
 20
110.6034863875
 10
78.1236529777
 20
111.1454909802
 10
78.0713736506
 20
111.6513332486
 10
78.0165848749
 20
112.1037883818
 10
77.9611523224
 20
112.4874485791
 10
77.9069637841
 20
112.789248316
 10
77.8558644427
 20
112.998910448
 10
77.8095944746
 20
113.1092954561
 10
77.7697294446
 20
113.1166445226
 10
77.7376272211
 20
113.0207071215
 10
77.7143807111
 20
112.8247494012
 10
77.7007816553
 20
112.5354452193
 10
77.6972930374
 20
112.1626470372
 10
77.7040339502
 20
111.719049713
 10
77.7207744734
 20
111.2197583676
 10
77.7469447542
 20
110.6817770884
 10
77.7816536332
 20
110.1234249905
 10
77.8237190291
 20
109.563716887
 10
77.8717084516
 20
109.0217132256
 10
77.9239876622
 20
108.5158709571
 10
77.978776438
 20
108.0634176865
 10
78.0342089905
 20
107.6797574893
 10
78.0883976452
 20
107.377956821
  0
SPLINE
  5
24F
330
1F
100
AcDbEntity
  8
0
  6
Continuous
 62
     7
370
    15
100
AcDbSpline
210
0.0
220
0.0
230
1.0
 70
     8
 71
     3
 72
    10
 73
     6
 74
     0
 42
0.00000001
 43
0.00000001
 12
1.0
 22
0.0
 32
0.0
 13
1.0
 23
0.0
 33
0.0
 40
0.0
 40
0.0
 40
0.0
 40
0.0
 40
0.4149334051637517
 40
0.7027879749327722
 40
1.0
 40
1.0
 40
1.0
 40
1.0
 10
82.73102065623773
 20
113.6592572689285
 30
0.0
 10
82.73182959566246
 20
113.6548652294156
 30
0.0
 10
82.73319972612936
 20
113.6474262704966
 30
0.0
 10
82.73521571888243
 20
113.6325179606258
 30
0.0
 10
82.73634843041377
 20
113.6223617767985
 30
0.0
 10
82.73692384437693
 20
113.6172024667492
 30
0.0
  0
LINE
  5
250
330
1F
100
AcDbEntity
  8
0
  6
Continuous
 62
     7
370
    15
100
AcDbLine
 10
82.7310206562
 20
113.6592572689
 30
0.0
 11
82.6559036698
 21
114.0241569042
 31
0.0
  0
LWPOLYLINE
  5
251
330
1F
100
AcDbEntity
  8
0
  6
Continuous
 62
     7
370
    15
100
AcDbPolyline
 90
       27
 70
   128
 43
0.0
 10
77.97582822
 20
111.5136232361
 10
77.9334029842
 20
111.7781290919
 10
77.8934797466
 20
111.9529420644
 10
77.8583787808
 20
112.0279042185
 10
77.830140149
 20
111.9986578956
 10
77.8104048416
 20
111.8669027597
 10
77.8003197823
 20
111.6402970761
 10
77.8004711222
 20
111.3320088148
 10
77.8108500138
 20
110.9599556908
 10
77.8308534257
 20
110.545759289
 10
77.8593187181
 20
110.1134933666
 10
77.8945916293
 20
109.6882756934
 10
77.9346220855
 20
109.2948217079
 10
77.9770838756
 20
108.9559953794
 10
78.0195092278
 20
108.691490455
 10
78.059432349
 20
108.5166774824
 10
78.0945333148
 20
108.4417153284
 10
78.1227719465
 20
108.4709607199
 10
78.1425073704
 20
108.6027167872
 10
78.1525923133
 20
108.8293224707
 10
78.1524409734
 20
109.137610732
 10
78.1420620818
 20
109.5096629247
 10
78.1220586699
 20
109.9238593266
 10
78.0935933774
 20
110.3561271116
 10
78.0583204663
 20
110.7813429222
 10
78.0182900101
 20
111.1747978389
 10
77.97582822
 20
111.5136232361
  0
LWPOLYLINE
  5
252
330
1F
100
AcDbEntity
  8
0
  6
Continuous
 62
     7
370
    15
100
AcDbPolyline
 90
        9
 70
   128
 43
0.0
 10
77.8899711052
 20
111.8616845593
 10
77.872755491
 20
111.8970096246
 10
77.8572324392
 20
111.9052052632
 10
77.8436553858
 20
111.8861355022
 10
77.8322459858
 20
111.8401123345
 10
77.8231903872
 20
111.7678882689
 10
77.816636321
 20
111.6706395656
 10
77.8126908893
 20
111.5499559924
 10
77.8114185862
 20
111.4078063652
  0
ARC
  5
253
330
1F
100
AcDbEntity
  8
0
  6
Continuous
 62
     7
370
    15
100
AcDbCircle
 10
97.737177377
 20
111.6200544149
 30
0.0
 40
19.92688918574392
100
AcDbArc
 50
180.6102883044
 51
185.2759407486
  0
ARC
  5
254
330
1F
100
AcDbEntity
  8
0
  6
Continuous
 62
     7
370
    15
100
AcDbCircle
 10
85.5532110293
 20
110.2628100052
 30
0.0
 40
7.673221847533402
100
AcDbArc
 50
183.5496979912
 51
192.3040965434
  0
LINE
  5
255
330
1F
100
AcDbEntity
  8
0
  6
Continuous
 62
     7
370
    15
100
AcDbLine
 10
78.0634638116
 20
108.6065258965
 30
0.0
 11
78.0562404737
 21
108.6276445672
 31
0.0
  0
LWPOLYLINE
  5
256
330
1F
100
AcDbEntity
  8
0
  6
Continuous
 62
     7
370
    15
100
AcDbPolyline
 90
        9
 70
   128
 43
0.0
 10
78.0634638116
 20
108.6065258965
 10
78.0800307596
 20
108.5727766291
 10
78.0950290112
 20
108.5641991481
 10
78.1082315564
 20
108.5809201136
 10
78.1194385102
 20
108.6226899311
 10
78.1284799062
 20
108.6888753012
 10
78.1352190727
 20
108.7784722582
 10
78.1395537973
 20
108.8901247964
 10
78.1414185379
 20
109.022141634
  0
LINE
  5
257
330
1F
100
AcDbEntity
  8
0
  6
Continuous
 62
     7
370
    15
100
AcDbLine
 10
78.1413547423
 20
109.1074153915
 30
0.0
 11
78.1414185379
 21
109.022141634
 31
0.0
  0
ARC
  5
258
330
1F
100
AcDbEntity
  8
0
  6
Continuous
 62
     7
370
    15
100
AcDbCircle
 10
57.9743751123
 20
108.829377269
 30
0.0
 40
20.16889616693465
100
AcDbArc
 50
0.7898754321
 51
5.0963546534
  0
LINE
  5
259
330
1F
100
AcDbEntity
  8
0
  6
Continuous
 62
     7
370
    15
100
AcDbLine
 10
78.0532938855
 20
110.7362184808
 30
0.0
 11
78.0635379681
 21
110.6209989771
 31
0.0
  0
ARC
  5
25A
330
1F
100
AcDbEntity
  8
0
  6
Continuous
 62
     7
370
    15
100
AcDbCircle
 10
70.6819490035
 20
110.257151404
 30
0.0
 40
7.38689587259166
100
AcDbArc
 50
3.7184495321
 51
12.3752425462
  0
LINE
  5
25B
330
1F
100
AcDbEntity
  8
0
  6
Continuous
 62
     7
370
    15
100
AcDbLine
 10
77.8899711052
 20
111.8616845593
 30
0.0
 11
77.8972101592
 21
111.8402613461
 31
0.0
  0
SPLINE
  5
25C
330
1F
100
AcDbEntity
  8
0
  6
Continuous
 62
     7
370
    15
100
AcDbSpline
210
0.0
220
0.0
230
1.0
 70
     8
 71
     3
 72
    10
 73
     6
 74
     0
 42
0.00000001
 43
0.00000001
 12
1.0
 22
0.0
 32
0.0
 13
1.0
 23
0.0
 33
0.0
 40
0.0
 40
0.0
 40
0.0
 40
0.0
 40
0.1928107469484741
 40
0.705593614787667
 40
1.0
 40
1.0
 40
1.0
 40
1.0
 10
77.93271555175109
 20
111.6976060107579
 30
0.0
 10
77.92979156620925
 20
111.7102236511297
 30
0.0
 10
77.9190912003805
 20
111.7563980818648
 30
0.0
 10
77.90691904493764
 20
111.8055010140964
 30
0.0
 10
77.89980490252036
 20
111.8309714911672
 30
0.0
 10
77.89721015916241
 20
111.8402613461247
 30
0.0
  0
SPLINE
  5
25D
330
1F
100
AcDbEntity
  8
0
  6
Continuous
 62
     7
370
    15
100
AcDbSpline
210
0.0
220
0.0
230
1.0
 70
     8
 71
     3
 72
    11
 73
     7
 74
     0
 42
0.00000001
 43
0.00000001
 12
1.0
 22
0.0
 32
0.0
 13
1.0
 23
0.0
 33
0.0
 40
0.0
 40
0.0
 40
0.0
 40
0.0
 40
0.1529067984821491
 40
0.4608690097824799
 40
0.7703248291269728
 40
1.0
 40
1.0
 40
1.0
 40
1.0
 10
78.06807548814488
 20
108.6076397583118
 30
0.0
 10
78.06999980348058
 20
108.6072844132652
 30
0.0
 10
78.07579978956413
 20
108.6062133848912
 30
0.0
 10
78.08767871333126
 20
108.6423034967406
 30
0.0
 10
78.10120139175486
 20
108.7057038387114
 30
0.0
 10
78.1096243533002
 20
108.7613506240517
 30
0.0
 10
78.11321261880023
 20
108.785056708776
 30
0.0
  0
LINE
  5
25E
330
1F
100
AcDbEntity
  8
0
  6
Continuous
 62
     7
370
    15
100
AcDbLine
 10
77.8899711052
 20
111.8616845593
 30
0.0
 11
77.8886308156
 21
111.8609432265
 31
0.0
  0
SPLINE
  5
25F
330
1F
100
AcDbEntity
  8
0
  6
Continuous
 62
     7
370
    15
100
AcDbSpline
210
0.0
220
0.0
230
1.0
 70
     8
 71
     3
 72
    10
 73
     6
 74
     0
 42
0.00000001
 43
0.00000001
 12
1.0
 22
0.0
 32
0.0
 13
1.0
 23
0.0
 33
0.0
 40
0.0
 40
0.0
 40
0.0
 40
0.0
 40
0.3620735264854139
 40
0.7259072015518327
 40
0.9999999999999999
 40
0.9999999999999999
 40
0.9999999999999999
 40
0.9999999999999999
 10
77.88699704297854
 20
111.8600398436418
 30
0.0
 10
77.88783123277747
 20
111.850397942664
 30
0.0
 10
77.88950366762349
 20
111.8310672685208
 30
0.0
 10
77.90087668304035
 20
111.7662494807035
 30
0.0
 10
77.91216510795931
 20
111.7119976281468
 30
0.0
 10
77.91701531578822
 20
111.6886876657834
 30
0.0
  0
SPLINE
  5
260
330
1F
100
AcDbEntity
  8
0
  6
Continuous
 62
     7
370
    15
100
AcDbSpline
210
0.0
220
0.0
230
1.0
 70
     8
 71
     3
 72
    12
 73
     8
 74
     0
 42
0.00000001
 43
0.00000001
 12
1.0
 22
0.0
 32
0.0
 13
1.0
 23
0.0
 33
0.0
 40
0.0
 40
0.0
 40
0.0
 40
0.0
 40
0.2058598590448475
 40
0.4121048435736223
 40
0.6141931347670778
 40
0.8133186591686673
 40
1.0
 40
1.0
 40
1.0
 40
1.0
 10
77.91701531578822
 20
111.6886876657834
 30
0.0
 10
77.9280296956757
 20
111.6347013534839
 30
0.0
 10
77.95007906130556
 20
111.5266277305419
 30
0.0
 10
77.96141735717696
 20
111.4195969679033
 30
0.0
 10
77.95036039636638
 20
111.371424264771
 30
0.0
 10
77.91960307445743
 20
111.3830579107241
 30
0.0
 10
77.88987274809988
 20
111.4359184283489
 30
0.0
 10
77.8754870601095
 20
111.4614961803188
 30
0.0
  0
SPLINE
  5
261
330
1F
100
AcDbEntity
  8
0
  6
Continuous
 62
     7
370
    15
100
AcDbSpline
210
0.0
220
0.0
230
1.0
 70
     8
 71
     3
 72
    11
 73
     7
 74
     0
 42
0.00000001
 43
0.00000001
 12
1.0
 22
0.0
 32
0.0
 13
1.0
 23
0.0
 33
0.0
 40
0.0
 40
0.0
 40
0.0
 40
0.0
 40
0.2524809929497054
 40
0.5068912355106355
 40
0.7591742439371667
 40
0.9999999999999999
 40
0.9999999999999999
 40
0.9999999999999999
 40
0.9999999999999999
 10
77.8754870601095
 20
111.4614961803188
 30
0.0
 10
77.86632494279995
 20
111.4774343076198
 30
0.0
 10
77.8479306989059
 20
111.5094323481255
 30
0.0
 10
77.82734447559052
 20
111.511005683544
 30
0.0
 10
77.8138562756291
 20
111.4789873141716
 30
0.0
 10
77.81221846466345
 20
111.4311629527165
 30
0.0
 10
77.81141858623398
 20
111.4078063652148
 30
0.0
  0
SPLINE
  5
262
330
1F
100
AcDbEntity
  8
0
  6
Continuous
 62
     7
370
    15
100
AcDbSpline
210
0.0
220
0.0
230
1.0
 70
     8
 71
     3
 72
    11
 73
     7
 74
     0
 42
0.00000001
 43
0.00000001
 12
1.0
 22
0.0
 32
0.0
 13
1.0
 23
0.0
 33
0.0
 40
0.0
 40
0.0
 40
0.0
 40
0.0
 40
0.2794101045892204
 40
0.5596246724717788
 40
0.837505124169173
 40
1.0
 40
1.0
 40
1.0
 40
1.0
 10
78.05790276807768
 20
108.9483436331382
 30
0.0
 10
78.05503927912359
 20
108.910257981039
 30
0.0
 10
78.04930405680436
 20
108.8339770225777
 30
0.0
 10
78.04788714795951
 20
108.7317418646668
 30
0.0
 10
78.0507579498129
 20
108.6625166035994
 30
0.0
 10
78.05476273929798
 20
108.6370438163245
 30
0.0
 10
78.05624047369731
 20
108.6276445672145
 30
0.0
  0
SPLINE
  5
263
330
1F
100
AcDbEntity
  8
0
  6
Continuous
 62
     7
370
    15
100
AcDbSpline
210
0.0
220
0.0
230
1.0
 70
     8
 71
     3
 72
    12
 73
     8
 74
     0
 42
0.00000001
 43
0.00000001
 12
1.0
 22
0.0
 32
0.0
 13
1.0
 23
0.0
 33
0.0
 40
0.0
 40
0.0
 40
0.0
 40
0.0
 40
0.0091700728500161
 40
0.2576750861132176
 40
0.5061889385686296
 40
0.7560312061035158
 40
1.0
 40
1.0
 40
1.0
 40
1.0
 10
77.89471048937214
 20
109.7877279058328
 30
0.0
 10
77.89482894713356
 20
109.786411568655
 30
0.0
 10
77.89815755906228
 20
109.7494230625462
 30
0.0
 10
77.90729066441928
 20
109.6799664058064
 30
0.0
 10
77.92640314278376
 20
109.6010357248466
 30
0.0
 10
77.9493521781883
 20
109.5508263703567
 30
0.0
 10
77.96583024314931
 20
109.5475419767781
 30
0.0
 10
77.9739712791614
 20
109.5459193125596
 30
0.0
  0
SPLINE
  5
264
330
1F
100
AcDbEntity
  8
0
  6
Continuous
 62
     7
370
    15
100
AcDbSpline
210
0.0
220
0.0
230
1.0
 70
     8
 71
     3
 72
    12
 73
     8
 74
     0
 42
0.00000001
 43
0.00000001
 12
1.0
 22
0.0
 32
0.0
 13
1.0
 23
0.0
 33
0.0
 40
0.0
 40
0.0
 40
0.0
 40
0.0
 40
0.2057519889707486
 40
0.4119580211762026
 40
0.6140141328224669
 40
0.8131410912300338
 40
1.0
 40
1.0
 40
1.0
 40
1.0
 10
77.9739712791614
 20
109.5459193125596
 30
0.0
 10
77.9885157418817
 20
109.54282149144
 30
0.0
 10
78.01763676331773
 20
109.5366190130836
 30
0.0
 10
78.05215138164473
 20
109.4451655166305
 30
0.0
 10
78.07027957840303
 20
109.3047593580691
 30
0.0
 10
78.07163056906465
 20
109.1315452846639
 30
0.0
 10
78.06238070349744
 20
109.0081030341598
 30
0.0
 10
78.05790276807768
 20
108.9483436331382
 30
0.0
  0
SPLINE
  5
265
330
1F
100
AcDbEntity
  8
0
  6
Continuous
 62
     7
370
    15
100
AcDbSpline
210
0.0
220
0.0
230
1.0
 70
     8
 71
     3
 72
    12
 73
     8
 74
     0
 42
0.00000001
 43
0.00000001
 12
1.0
 22
0.0
 32
0.0
 13
1.0
 23
0.0
 33
0.0
 40
0.0
 40
0.0
 40
0.0
 40
0.0
 40
0.0091659449642481
 40
0.2573250307977623
 40
0.5054927021089702
 40
0.754993215863032
 40
1.0
 40
1.0
 40
1.0
 40
1.0
 10
77.81141858623398
 20
111.4078063652148
 30
0.0
 10
77.81142037510848
 20
111.4068274719917
 30
0.0
 10
77.81147059602802
 20
111.3793459924756
 30
0.0
 10
77.81479574725375
 20
111.3156075209173
 30
0.0
 10
77.82831383143477
 20
111.2072704420091
 30
0.0
 10
77.84895580678293
 20
111.0949194963303
 30
0.0
 10
77.8669549527751
 20
111.0299328420314
 30
0.0
 10
77.87587274407072
 20
110.9977347910633
 30
0.0
  0
SPLINE
  5
266
330
1F
100
AcDbEntity
  8
0
  6
Continuous
 62
     7
370
    15
100
AcDbSpline
210
0.0
220
0.0
230
1.0
 70
     8
 71
     3
 72
    12
 73
     8
 74
     0
 42
0.00000001
 43
0.00000001
 12
1.0
 22
0.0
 32
0.0
 13
1.0
 23
0.0
 33
0.0
 40
0.0
 40
0.0
 40
0.0
 40
0.0
 40
0.2058435631279377
 40
0.4120692455473403
 40
0.6141400272365559
 40
0.8132621882281392
 40
1.0
 40
1.0
 40
1.0
 40
1.0
 10
77.87587274407072
 20
110.9977347910633
 30
0.0
 10
77.89171956744804
 20
110.9399702000269
 30
0.0
 10
77.92344263157587
 20
110.8243337862084
 30
0.0
 10
77.95367291170763
 20
110.6247121767735
 30
0.0
 10
77.96189650078075
 20
110.4361771840546
 30
0.0
 10
77.94898678774169
 20
110.2757462945028
 30
0.0
 10
77.92829142754744
 20
110.2064862043805
 30
0.0
 10
77.91827586089296
 20
110.1729676261773
 30
0.0
  0
SPLINE
  5
267
330
1F
100
AcDbEntity
  8
0
  6
Continuous
 62
     7
370
    15
100
AcDbSpline
210
0.0
220
0.0
230
1.0
 70
     8
 71
     3
 72
    11
 73
     7
 74
     0
 42
0.00000001
 43
0.00000001
 12
1.0
 22
0.0
 32
0.0
 13
1.0
 23
0.0
 33
0.0
 40
0.0
 40
0.0
 40
0.0
 40
0.0
 40
0.2535130257114568
 40
0.5075706571074964
 40
0.7595061562192008
 40
1.0
 40
1.0
 40
1.0
 40
1.0
 10
77.91827586089296
 20
110.1729676261773
 30
0.0
 10
77.91188302195795
 20
110.1512529521518
 30
0.0
 10
77.89908361076431
 20
110.1077769558669
 30
0.0
 10
77.88943644204602
 20
110.0078953879958
 30
0.0
 10
77.88722726569365
 20
109.896638276823
 30
0.0
 10
77.89225502165188
 20
109.8234646299852
 30
0.0
 10
77.89471048937214
 20
109.7877279058328
 30
0.0
  0
CIRCLE
  5
268
330
1F
100
AcDbEntity
  8
VERMASSUNG
  6
CENTERX2
100
AcDbCircle
 10
79.4829875425
 20
124.760037716
 30
0.0
 40
25.0
  0
DIMENSION
  5
269
330
1F
100
AcDbEntity
  8
VERMASSUNG
100
AcDbDimension
  2
_D_5
 10
59.8398674866
 20
140.2244431192
 30
0.0
 11
51.2789032655
 21
146.9642187241
 31
0.0
 70
   160
  1
%%c<> min. 
 71
     2
 42
-1.0
  3
SLDDIMSTYLE3
100
AcDbAlignedDimension
 13
99.1261075983
 23
109.2956323129
 33
0.0
 14
59.8398674866
 24
140.2244431192
 34
0.0
 50
-38.2122366171
100
AcDbRotatedDimension
  0
INSERT
  5
283
330
1F
100
AcDbEntity
  8
VERMASSUNG
100
AcDbBlockReference
  2
SW_CENTERMARKSYMBOL_0
 10
79.4829875425
 20
126.5011012689
 30
0.0
  0
OLE2FRAME
  5
284
330
1F
100
AcDbEntity
  8
0
100
AcDbOle2Frame
 70
     2
  3
Paintbrush-Bild
 10
13.8511154363
 20
38.264191557
 30
0.0
 11
51.6290888628
 21
31.9806341108
 31
0.0
 71
     2
 72
     0
 73
     1
 90
    12928
310
80552BED0767C5B32B40DDAF6807D121434000000000000000006FFBDDFB85D0
310
4940DDAF6807D121434000000000000000006FFBDDFB85D04940416F4BD60AFB
310
3F4000000000000000002BED0767C5B32B40416F4BD60AFB3F40000000000000
310
0000000000000100000000010000010000000100000000000100000000320000
310
D0CF11E0A1B11AE1000000000000000000000000000000003E000300FEFF0900
310
0600000000000000000000000100000001000000000000000010000002000000
310
01000000FEFFFFFF0000000000000000FFFFFFFFFFFFFFFFFFFFFFFFFFFFFFFF
310
FFFFFFFFFFFFFFFFFFFFFFFFFFFFFFFFFFFFFFFFFFFFFFFFFFFFFFFFFFFFFFFF
310
FFFFFFFFFFFFFFFFFFFFFFFFFFFFFFFFFFFFFFFFFFFFFFFFFFFFFFFFFFFFFFFF
310
FFFFFFFFFFFFFFFFFFFFFFFFFFFFFFFFFFFFFFFFFFFFFFFFFFFFFFFFFFFFFFFF
310
FFFFFFFFFFFFFFFFFFFFFFFFFFFFFFFFFFFFFFFFFFFFFFFFFFFFFFFFFFFFFFFF
310
FFFFFFFFFFFFFFFFFFFFFFFFFFFFFFFFFFFFFFFFFFFFFFFFFFFFFFFFFFFFFFFF
310
FFFFFFFFFFFFFFFFFFFFFFFFFFFFFFFFFFFFFFFFFFFFFFFFFFFFFFFFFFFFFFFF
310
FFFFFFFFFFFFFFFFFFFFFFFFFFFFFFFFFFFFFFFFFFFFFFFFFFFFFFFFFFFFFFFF
310
FFFFFFFFFFFFFFFFFFFFFFFFFFFFFFFFFFFFFFFFFFFFFFFFFFFFFFFFFFFFFFFF
310
FFFFFFFFFFFFFFFFFFFFFFFFFFFFFFFFFFFFFFFFFFFFFFFFFFFFFFFFFFFFFFFF
310
FFFFFFFFFFFFFFFFFFFFFFFFFFFFFFFFFFFFFFFFFFFFFFFFFFFFFFFFFFFFFFFF
310
FFFFFFFFFFFFFFFFFFFFFFFFFFFFFFFFFFFFFFFFFFFFFFFFFFFFFFFFFFFFFFFF
310
FFFFFFFFFFFFFFFFFFFFFFFFFFFFFFFFFFFFFFFFFFFFFFFFFFFFFFFFFFFFFFFF
310
FFFFFFFFFFFFFFFFFFFFFFFFFFFFFFFFFFFFFFFFFFFFFFFFFFFFFFFFFFFFFFFF
310
FDFFFFFFFEFFFFFFFEFFFFFFFEFFFFFF05000000060000000700000008000000
310
090000000A0000000B0000000C0000000D0000000E0000000F00000010000000
310
11000000120000001300000014000000150000001600000017000000FEFFFFFF
310
FFFFFFFFFFFFFFFFFFFFFFFFFFFFFFFFFFFFFFFFFFFFFFFFFFFFFFFFFFFFFFFF
310
FFFFFFFFFFFFFFFFFFFFFFFFFFFFFFFFFFFFFFFFFFFFFFFFFFFFFFFFFFFFFFFF
310
FFFFFFFFFFFFFFFFFFFFFFFFFFFFFFFFFFFFFFFFFFFFFFFFFFFFFFFFFFFFFFFF
310
FFFFFFFFFFFFFFFFFFFFFFFFFFFFFFFFFFFFFFFFFFFFFFFFFFFFFFFFFFFFFFFF
310
FFFFFFFFFFFFFFFFFFFFFFFFFFFFFFFFFFFFFFFFFFFFFFFFFFFFFFFFFFFFFFFF
310
FFFFFFFFFFFFFFFFFFFFFFFFFFFFFFFFFFFFFFFFFFFFFFFFFFFFFFFFFFFFFFFF
310
FFFFFFFFFFFFFFFFFFFFFFFFFFFFFFFFFFFFFFFFFFFFFFFFFFFFFFFFFFFFFFFF
310
FFFFFFFFFFFFFFFFFFFFFFFFFFFFFFFFFFFFFFFFFFFFFFFFFFFFFFFFFFFFFFFF
310
FFFFFFFFFFFFFFFFFFFFFFFFFFFFFFFFFFFFFFFFFFFFFFFFFFFFFFFFFFFFFFFF
310
FFFFFFFFFFFFFFFFFFFFFFFFFFFFFFFFFFFFFFFFFFFFFFFFFFFFFFFFFFFFFFFF
310
FFFFFFFFFFFFFFFFFFFFFFFFFFFFFFFFFFFFFFFFFFFFFFFFFFFFFFFFFFFFFFFF
310
FFFFFFFFFFFFFFFFFFFFFFFFFFFFFFFFFFFFFFFFFFFFFFFFFFFFFFFFFFFFFFFF
310
FFFFFFFFFFFFFFFFFFFFFFFFFFFFFFFFFFFFFFFFFFFFFFFFFFFFFFFFFFFFFFFF
310
52006F006F007400200045006E00740072007900000000000000000000000000
310
0000000000000000000000000000000000000000000000000000000000000000
310
16000500FFFFFFFFFFFFFFFF020000000A00030000000000C000000000000046
310
000000000000000000000000D0862BF26128CD0103000000C000000000000000
310
01004F006C006500000000000000000000000000000000000000000000000000
310
0000000000000000000000000000000000000000000000000000000000000000
310
0A000200FFFFFFFFFFFFFFFFFFFFFFFF00000000000000000000000000000000
310
0000000000000000000000000000000000000000000000001400000000000000
310
010043006F006D0070004F0062006A0000000000000000000000000000000000
310
0000000000000000000000000000000000000000000000000000000000000000
310
120002010100000003000000FFFFFFFF00000000000000000000000000000000
310
0000000000000000000000000000000000000000010000004D00000000000000
310
01004F006C006500310030004E00610074006900760065000000000000000000
310
0000000000000000000000000000000000000000000000000000000000000000
310
1A000200FFFFFFFFFFFFFFFFFFFFFFFF00000000000000000000000000000000
310
0000000000000000000000000000000000000000040000002426000000000000
310
FEFFFFFF02000000FEFFFFFFFFFFFFFFFFFFFFFFFFFFFFFFFFFFFFFFFFFFFFFF
310
FFFFFFFFFFFFFFFFFFFFFFFFFFFFFFFFFFFFFFFFFFFFFFFFFFFFFFFFFFFFFFFF
310
FFFFFFFFFFFFFFFFFFFFFFFFFFFFFFFFFFFFFFFFFFFFFFFFFFFFFFFFFFFFFFFF
310
FFFFFFFFFFFFFFFFFFFFFFFFFFFFFFFFFFFFFFFFFFFFFFFFFFFFFFFFFFFFFFFF
310
FFFFFFFFFFFFFFFFFFFFFFFFFFFFFFFFFFFFFFFFFFFFFFFFFFFFFFFFFFFFFFFF
310
FFFFFFFFFFFFFFFFFFFFFFFFFFFFFFFFFFFFFFFFFFFFFFFFFFFFFFFFFFFFFFFF
310
FFFFFFFFFFFFFFFFFFFFFFFFFFFFFFFFFFFFFFFFFFFFFFFFFFFFFFFFFFFFFFFF
310
FFFFFFFFFFFFFFFFFFFFFFFFFFFFFFFFFFFFFFFFFFFFFFFFFFFFFFFFFFFFFFFF
310
FFFFFFFFFFFFFFFFFFFFFFFFFFFFFFFFFFFFFFFFFFFFFFFFFFFFFFFFFFFFFFFF
310
FFFFFFFFFFFFFFFFFFFFFFFFFFFFFFFFFFFFFFFFFFFFFFFFFFFFFFFFFFFFFFFF
310
FFFFFFFFFFFFFFFFFFFFFFFFFFFFFFFFFFFFFFFFFFFFFFFFFFFFFFFFFFFFFFFF
310
FFFFFFFFFFFFFFFFFFFFFFFFFFFFFFFFFFFFFFFFFFFFFFFFFFFFFFFFFFFFFFFF
310
FFFFFFFFFFFFFFFFFFFFFFFFFFFFFFFFFFFFFFFFFFFFFFFFFFFFFFFFFFFFFFFF
310
FFFFFFFFFFFFFFFFFFFFFFFFFFFFFFFFFFFFFFFFFFFFFFFFFFFFFFFFFFFFFFFF
310
FFFFFFFFFFFFFFFFFFFFFFFFFFFFFFFFFFFFFFFFFFFFFFFFFFFFFFFFFFFFFFFF
310
FFFFFFFFFFFFFFFFFFFFFFFFFFFFFFFFFFFFFFFFFFFFFFFFFFFFFFFFFFFFFFFF
310
0100000200000000000000000000000000000000000000000000000000000000
310
0000000000000000000000000000000000000000000000000000000000000000
310
0100FEFF030A0000FFFFFFFF0A00030000000000C00000000000004607000000
310
5042727573680007000000504272757368000700000050427275736800F439B2
310
7100000000000000000000000000000000000000000000000000000000000000
310
0000000000000000000000000000000000000000000000000000000000000000
310
0000000000000000000000000000000000000000000000000000000000000000
310
0000000000000000000000000000000000000000000000000000000000000000
310
0000000000000000000000000000000000000000000000000000000000000000
310
0000000000000000000000000000000000000000000000000000000000000000
310
0000000000000000000000000000000000000000000000000000000000000000
310
0000000000000000000000000000000000000000000000000000000000000000
310
0000000000000000000000000000000000000000000000000000000000000000
310
0000000000000000000000000000000000000000000000000000000000000000
310
0000000000000000000000000000000000000000000000000000000000000000
310
0000000000000000000000000000000000000000000000000000000000000000
310
20260000424D0E260000000000003E00000028000000B40200006E0000000100
310
01000000000000000000130B0000130B00000200000002000000000000FFFFFF
310
FFFFFFFFFFFFFFFFFFFFFFFFFFFFFFFFFFFFFFFFFFFFFFFFFFFFFFFFFFFFFFFF
310
FFFFFFFFFFFFFFFFFFFFFFFFFFFFFFFFFFFFFFFFFFFFFFFFFFFFFFFFFFFFFFFF
310
FFFFFFFFFFFFFFFFFFFFFFFFFFFFFFFFFFFFFFFFFFFFFFFFF000FFFFFFFFFFFF
310
FFFFFFFFFFFFFFFFFFFFFFFFFFFFFFFFFFFFFFFFFFFFFFFFFFFFFFFFFFFFFFFF
310
FFFFFFFFFFFFFFFFFFFFFFFFFFFFFFFFFFFFFFFFFFFFFFFFFFFFFFFFFFFFFFFF
310
FFFFFFFFFFFFFFFFFFFFFFFFFFFFFFFFF000FFFFFFFFFFFFFFFFFFFFFFFFFFFF
310
FFFFFFFFFFFFFFFFFFFFFFFFFFFFFFFFFFFFFFFFFFFFFFFFFFFFFFFFFFFFFFFF
310
FFFFFFFFFFFFFFFFFFFFFFFFFFFFFFFFFFFFFFFFFFFFFFFFFFFFFFFFFFFFFFFF
310
FFFFFFFFFFFFFFFFF000FFFFFFFFFFFFFFFFFFFFFFFFFFFFFFFFFFFFFFFFFFFF
310
FFFFFFFFFFFFFFFFFFFFFFFFFFFFFFFFFFFFFFFFFFFFFFFFFFFFFFFFFFFFFFFF
310
FFFFFFFFFFFFFFFFFFFFFFFFFFFFFFFFFFFFFFFFFFFFFFFFFFFFFFFFFFFFFFFF
310
F000FFFFFFFFFFFFFFFFFFFFFFFFFFFFFFFFFFFFFFFFFFFFFFFFFFFFFFFFFFFF
310
FFFFFFFFFFFFFFFFFFFFFFFFFFFFFFFFFFFFFFFFFFFFFFFFFFFFFFFFFFFFFFFF
310
FFFFFFFFFFFFFFFFFFFFFFFFFFFFFFFFFFFFFFFFFFFFFFFFF000FFFFFFFFFFFF
310
FFFFFFFFFFFFFFFFFFFFFFFFFFFFFFFFFFFFFFFFFFFFFFFFFFFFFFFFFFFFFFFF
310
FFFFFFFFFFFFFFFFFFFFFFFFFFFFFFFFFFFFFFFFFFFFFFFFFFFFFFFFFFFFFFFF
310
FFFFFFFFFFFFFFFFFFFFFFFFFFFFFFFFF000FFFFFFFFFFFFFFFFFFFFFFFFFFFF
310
FFFFFFFFFFFFFFFFFFFFFFFFFFFFFFFFFFFFFFFFFFFFFFFFFFFFFFFFFFFFFFFF
310
FFFFFFFFFFFFFFFFFFFFFFFFFFFFFFFFFFFFFFFFFFFFFFFFFFFFFFFFFFFFFFFF
310
FFFFFFFFFFFFFFFFF000FFFFFFFFFFFFFFFFFFFFFFFFFFFFFFFFFFFFFFFFFFFF
310
FFFFFFFFFFFFFFFFFFFFFFFFFFFFFFFFFFFFFFFFFFFFFFFFFFFFFFFFFFFFFFFF
310
FFFFFFFFFFFFFFFFFFFFFFFFFFFFFFFFFFFFFFFFFFFFFFFFFFFFFFFFFFFFFFFF
310
F000FFFFFFFFFFFFFFFFFFFFFFFFFFFFFFFFFFFFFFFFFFFFFFFFFFFFFFFFFFFF
310
FFFFFFFFFFFFFFFFFFFFFFFFFFFFFFFFFFFFFFFFFFFFFFFFFFFFFFFFFFFFFFFF
310
FFFFFFFFFFFFFFFFFFFFFFFFFFFFFFFFFFFFFFFFFFFFFFFFF000FFFFFFFFFFFF
310
FFFFFFFFFFFFFFFFFFFFFFFFFFFFFFFFFFFFFFFFFFFFFFFFFFFFFFFFFFFFFFFF
310
FFFFFFFFFFFFFFFFFFFFFFFFFFFFFFFFFFFFFFFFFFFFFFFFFFFFFFFFFFFFFFFF
310
FFFFFFFFFFFFFFFFFFFFFFFFFFFFFFFFF000FFFFFFFFFFFFFFFFFFFFFFFFFFFF
310
FFFFFFFFFFFFFFFFFFFFFFFFFFFFFFFFFFFFFFFFFFFFFFFFFFFFFFFFFFFFFFFF
310
FFFFFFFFFFFFFFFFFFFFFFFFFFFFFFFFFFFFFFFFFFFFFFFFFFFFFFFFFFFFFFFF
310
FFFFFFFFFFFFFFFFF000FFFFFFFFFFFFFFFFFFFFFFFFFFFFFFFFFFFFFFFFFFFF
310
FFFFFFFFFFFFFFFFFFFFFFFFFFFFFFFFFFFFFFFFFFFFFFFFFFFFFFFFFFFFFFFF
310
FFFFFFFFFFFFFFFFFFFFFFFFFFFFFFFFFFFFFFFFFFFFFFFFFFFFFFFFFFFFFFFF
310
F000FFFFFFFFFFFFFFFFFFFFFFFFFFFFFFFFFFFFFFFFFFFFFFFFFFFFFFFFFFFF
310
FFFFFFFFFFFFFFFFFFFFFFFFFFFFFFFFFFFFFFFFFFFFFFFFFFFFFFFFFFFFFFFF
310
FFFFFFFFFFFFFFFFFFFFFFFFFFFFFFFFFFFFFFFFFFFFFFFFF000FFFFFFFFFFFF
310
FFFFFFFFFFFFFFFFFFFFFFFFFFFFFFFFFFFFFFFFFFFFFFFFFFFFFFFFFFFFFFFF
310
FFFFFFFFFFFFFFFFFFFFFFFFFFFFFFFFFFFFFFFFFFFFFFFFFFFFFFFFFFFFFFFF
310
FFFFFFFFFFFFFFFFFFFFFFFFFFFFFFFFF000FFFFFFFFFFFFFFFFFFFFFFFFFFFF
310
FFFFFFFFFFFFFFFFFFFFFFFFFFFFFFFFFFFFFFFFFFFFFFFFFFFFFFFFFFFFFFFF
310
FFFFFFFFFFFFFFFFFFFFFFFFFFFFFFFFFFFFFFFFFFFFFFFFFFFFFFFFFFFFFFFF
310
FFFFFFFFFFFFFFFFF000FFFFFFFFFFFFFFFFFFFFFFFFFFFFFFFFFFFFFFFFFFFF
310
FFFFFFFFFFFFFFFFFFFFFFFFFFFFFFFFFFFFFFFFFFFFFFFFFFFFFFFFFFFFFFFF
310
FFFFFFFFFFFFFFFFFFFFFFFFFFFFFFFFFFFFFFFFFFFFFFFFFFFFFFFFFFFFFFFF
310
F000FFFFFFFFFFFFFFFFFFFFFFFFFFFFFFFFFFFFFFFFFFFFFFFFFFFFFFFFFFFF
310
FFFFFFFFFFFFFFFFFFFFFFFFFFFFFFFFFFFFFFFFFFFFFFFFFFFFFFFFFFFFFFFF
310
FFFFFFFFFFFFFFFFFFFFFFFFFFFFFFFFFFFFFFFFFFFFFFFFF000FFFFFFFFFFFF
310
FFFFFFFFFFFFFFFFFFFFFFFFFFFFFFFFFFFFFFFFFFFFFFFFFFFFFFFFFFFFFFFF
310
FFFFFFFFFFFFFFFFFFFFFFFFFFFFFFFFFFFFFFFFFFFFFFFFFFFFFFFFFFFFFFFF
310
FFFFFFFFFFFFFFFFFFFFFFFFFFFFFFFFF000FFFFFFFFFFFFFFFFFFFFFFFFFFFF
310
FFFFFFFFFFFFFFFFFFFFFFFFFFFFFFFFFFFFFFFFFFFFFFFFFFFFFFFFFFFFFFFF
310
FFFFFFFFFFFFFFFFFFFFFFFFFFFFFFFFFFFFFFFFFFFFFFFFFFFFFFFFFFFFFFFF
310
FFFFFFFFFFFFFFFFF000FFFFF80003FFFFFFFFFFFFFFFFFFFFFFFFFFFFFFFFFF
310
FFFFF00007FFFFFFFFFF00007FFFFFF800000000000000007FFFFFFFFFFFFFFF
310
FFFFFFFC001FFFFFFFFFFFFFFC001FFFFFFFFFFFFFFFFFFFFFFFFFFE0007FFFF
310
F000FFFF8000007FFFFFFFF8000FFFFFC0007FFFFF80007FFFFF0000007FFFFF
310
FFF8000007FFFFF800000000000000007FFFFFF0001FFFFFFFFFFFC00001FFFF
310
FFFFFFFFC00001FFFFFFFF000000000003FFFFE000007FFFF000FFFE0000000F
310
FFFFFFF0000FFFFF80007FFFFF80007FFFFC0000001FFFFFFFC0000001FFFFF8
310
00000000000000007FFFFFF0001FFFFFFFFFFE0000003FFFFFFFFFFE0000003F
310
FFFFFF000000000003FFFF0000000FFFF000FFF800000003FFFFFFF00007FFFF
310
80007FFFFF80007FFFF000000007FFFFFF000000003FFFF80000000000000000
310
7FFFFFF0001FFFFFFFFFF80000000FFFFFFFFFF80000000FFFFFFF0000000000
310
03FFFC00000003FFF000FFE000000000FFFFFFF00007FFFF80003FFFFF80007F
310
FFC000000001FFFFFC000000001FFFF800000000000000007FFFFFF0001FFFFF
310
FFFFE000000003FFFFFFFFE000000003FFFFFF000000000003FFF000000000FF
310
F000FF80000000007FFFFFF00007FFFF80003FFFFF80007FFF8000000000FFFF
310
F80000000007FFF800000000000000007FFFFFF0001FFFFFFFFFC000000001FF
310
FFFFFFC000000001FFFFFF000000000003FFC0000000007FF000FF0000000000
310
3FFFFFE00007FFFF00003FFFFF80007FFE00000000003FFFF00000000003FFF8
310
00000000000000007FFFFFF0001FFFFFFFFF8000000000FFFFFFFF8000000000
310
FFFFFF000000000003FF80000000003FF000FE00000000001FFFFFE00003FFFF
310
00003FFFFF80007FFC00000000001FFFE00000000001FFF8000001FFFE000000
310
7FFFFFF0001FFFFFFFFE00000000003FFFFFFE00000000003FFFFF0000000000
310
03FF00000000001FF000FC00000000000FFFFFE00003FFFF00001FFFFF80007F
310
F800000000001FFFC00000000000FFF8000001FFFE0000007FFFFFF0001FFFFF
310
FFFC00000000001FFFFFFC00000000001FFFFF000000000003FE00000000000F
310
F000F8000000000007FFFFE00003FFFF00001FFFFF80007FF800000000000FFF
310
800000000000FFF8000001FFFE0000007FFFFFF0001FFFFFFFF800000000000F
310
FFFFF800000000000FFFFF000000000003FC000000000007F000F80000000000
310
03FFFFC00003FFFE00001FFFFF80007FF0000000000007FF0000000000007FF8
310
000001FFFE0000007FFFFFF0001FFFFFFFF0000000000007FFFFF00000000000
310
07FFFF000000000003F8000000000003F000F0000000000003FFFFC00001FFFE
310
00001FFFFF80007FE0000000000007FE0000000000003FF8000001FFFE000000
310
7FFFFFF0001FFFFFFFF0000000000007FFFFF0000000000007FFFF0000000000
310
03F800001F800003F000E00001FFF00001FFFFC00001FFFE00000FFFFF80007F
310
E00001FFE00003FE00001FFF00003FF8000001FFFE0000007FFFFFF0001FFFFF
310
FFE000003E000003FFFFE000003E000003FFFF000000000003F00001FFF80001
310
F000E00007FFFC0001FFFFC00001FFFE00000FFFFF80007FC0000FFFFC0003FC
310
0000FFFFC0001FF8000001FFFE0000007FFFFFF0001FFFFFFFC00003FFE00001
310
FFFFC00003FFE00001FFFF0001FFFFFFFFF00007FFFE0001F000E0000FFFFF00
310
00FFFF800001FFFC00000FFFFF80007FC0001FFFFE0001FC0001FFFFE0001FF8
310
000001FFFE0000007FFFFFF0001FFFFFFF80000FFFF80000FFFF80000FFFF800
310
00FFFF0003FFFFFFFFE0000FFFFF8000F000C0003FFFFF8000FFFF800000FFFC
310
000007FFFF80007F80003FFFFF0001FC0003FFFFF0001FF8000001FFFE000000
310
7FFFFFF0001FFFFFFF80003FFFFE0000FFFF80003FFFFE0000FFFF0003FFFFFF
310
FFE0003FFFFF8000F000C0003FFFFF8000FFFF800000FFFC000007FFFF80007F
310
80007FFFFF8001F80007FFFFF8000FF8000001FFFE0000007FFFFFF0001FFFFF
310
FF00007FFFFF00007FFF00007FFFFF00007FFF0003FFFFFFFFE0003FFFFFC000
310
F000C0007FFFFFC000FFFF000000FFFC000007FFFF80007F8000FFFFFF8000F8
310
000FFFFFF8000FF8000001FFFE0000007FFFFFF0001FFFFFFF0000FFFFFF8000
310
7FFF0000FFFFFF80007FFF0003FFFFFFFFC0007FFFFFC00070008000FFFFFFC0
310
00FFFF000000FFF8000007FFFF80007F8000FFFFFF8000F8000FFFFFF8000FF8
310
000001FFFE0000007FFFFFF0001FFFFFFE0001FFFFFFC0003FFE0001FFFFFFC0
310
003FFF0003FFFFFFFFC0007FFFFFE00070008000FFFFFFC0007FFF0000007FF8
310
000003FFFF80007F0001FFFFFF8000F8000FFFFFF8000FF8000001FFFE000000
310
7FFFFFF0001FFFFFFE0001FFFFFFC0003FFE0001FFFFFFC0003FFF0003FFFFFF
310
FFC000FFFFFFE00070008000FFFFFFC0007FFF0000007FF8000003FFFF80007F
310
0001FFFFFF8000F8001FFFFFF8000FF8000001FFFE0000007FFFFFF0001FFFFF
310
FE0003FFFFFFE0003FFE0003FFFFFFE0003FFF0003FFFFFFFFC000FFFFFFE000
310
70008000FFFFFFC0007FFE0000007FF8000003FFFF80007F0001FFFFFF8000F0
310
001FFFFFF8000FF8000001FFFE0000007FFFFFF0001FFFFFFC0003FFFFFFE000
310
1FFC0003FFFFFFE0001FFF0003FFFFFFFFC000FFFFFFC00070008000FFFFFF80
310
007FFE0000007FF0000003FFFF80007F0001FFFFFF0000F0001FFFFFF8000FF8
310
000001FFFE0000007FFFFFF0001FFFFFFC0007FFFFFFF0001FFC0007FFFFFFF0
310
001FFF0003FFFFFFFFC000FFFFFFC00070008001FFFFFF0000FFFE0000003FF0
310
000001FFFF80007F0001FFFFFF0000F8001FFFFFF0000FF8000001FFFE000000
310
7FFFFFF0001FFFFFFC0007FFFFFFF0001FFC0007FFFFFFF0001FFF0003FFFFFF
310
FFC001FFFFFF80007000FFFFFFFFFE0000FFFE0008003FF0008001FFFF80007F
310
FFFFFFFFFC0000FFFFFFFFFFE0000FF8000001FFFE0000007FFFFFF0001FFFFF
310
F8000FFFFFFFF8000FF8000FFFFFFFF8000FFF0003FFFFFFFFFFFFFFFFFF0000
310
7000FFFFFFFFFC0000FFFC0008003FF0008001FFFF80007FFFFFFFFFF80001FF
310
FFFFFFFF80000FF8000001FFFE0000007FFFFFF0001FFFFFF8000FFFFFFFF800
310
0FF8000FFFFFFFF8000FFF0003FFFFFFFFFFFFFFFFFE0000F000FFFFFFFFE000
310
00FFFC000C003FE000C001FFFF80007FFFFFFFFFC00001FFFFFFFFFE00001FF8
310
000001FFFE0000007FFFFFF0001FFFFFF8000FFFFFFFF8000FF8000FFFFFFFF8
310
000FFF0003FFFFFFFFFFFFFFFFF00000F000FFFFFFFE000001FFFC000C001FE0
310
00C000FFFF80007FFFFFFFFE000001FFFFFFFFE000001FF80FFFFFFFFFFFFFC0
310
7FFFFFF0001FFFFFF8000FFFFFFFF8000FF8000FFFFFFFF8000FFF0003FFFFFF
310
FFFFFFFFFF800000F000FFFFFFC0000001FFFC001C001FE001C000FFFF80007F
310
FFFFFF80000003FFFFFFF80000001FF80FFFFFFFFFFFFFC07FFFFFF0001FFFFF
310
F8001FFFFFFFFC000FF8001FFFFFFFFC000FFF0003FFFFFFFFFFFFFFF0000001
310
F000FFFFF800000001FFF8001C001FE001C000FFFF80007FFFFFF800000003FF
310
FFFF800000003FF80FFFFFFFFFFFFFC07FFFFFF0001FFFFFF8001FFFFFFFFC00
310
0FF8001FFFFFFFFC000FFF0003FFFFFFFFFFFFFE00000001F000FFFFC0000000
310
03FFF8001E001FC001E000FFFF80007FFFFF8000000007FFFFFC000000003FF8
310
0FFFFFFFFFFFFFC07FFFFFF0001FFFFFF8001FFFFFFFFC000FF8001FFFFFFFFC
310
000FFF0003FFFFFFFFFFFFE000000003F000FFFE0000000007FFF8001E000FC0
310
01E0007FFF80007FFFFE0000000007FFFFE0000000007FF80FFFFFFFFFFFFFC0
310
7FFFFFF0001FFFFFF0001FFFFFFFFC0007F0001FFFFFFFFC0007FF0003FFFFFF
310
FFFFFF0000000003F000FFF80000000007FFF8001E000FC003E0007FFF80007F
310
FFF0000000000FFFFF8000000000FFF80FFFFFFFFFFFFFC07FFFFFF0001FFFFF
310
F0001FFFFFFFFC0007F0001FFFFFFFFC0007FF0003FFFFFFFFFFFC0000000007
310
F000FFE0000000000FFFF0003E000FC003E0007FFF80007FFFC0000000001FFF
310
FE0000000001FFF80FFFFFFFFFFFFFC07FFFFFF0001FFFFFF0001FFFFFFFFC00
310
07F0001FFFFFFFFC0007FF0003FFFFFFFFFFF0000000000FF000FFC000000000
310
1FFFF0003F000F8003F0003FFF80007FFF80000000003FFFF80000000003FFF8
310
0FFFFFFFFFFFFFC07FFFFFF0001FFFFFF0001FFFFFFFFC0007F0001FFFFFFFFC
310
0007FF0003FFFFFFFFFFE0000000001FF000FF00000000007FFFF0003F000780
310
03F0003FFF80007FFF00000000007FFFF00000000007FFF80FFFFFFFFFFFFFC0
310
7FFFFFF0001FFFFFF0001FFFFFFFFC0007F0001FFFFFFFFC0007FF0003FFFFFF
310
FFFF80000000007FF000FE0000000000FFFFE0003F00078007F0003FFF80007F
310
FE0000000001FFFFE0000000001FFFF80FFFFFFFFFFFFFC07FFFFFF0001FFFFF
310
F0001FFFFFFFFC0007F0001FFFFFFFFC0007FF0003FFFFFFFFFF0000000000FF
310
F000FC0000000003FFFFE0007F00078007F0003FFF80007FFC0000000007FFFF
310
C0000000007FFFF80FFFFFFFFFFFFFC07FFFFFF0001FFFFFF8001FFFFFFFFC00
310
0FF8001FFFFFFFFC000FFF0003FFFFFFFFFE0000000003FFF000FC000000000F
310
FFFFE0007F80070007F8001FFF80007FF8000000001FFFFF8000000001FFFFF8
310
0FFFFFFFFFFFFFC07FFFFFF0001FFFFFF8001FFFFFFFFC000FF8001FFFFFFFFC
310
000FFF0003FFFFFFFFFC000000000FFFF000F8000000007FFFFFE0007F800700
310
07F8001FFF80007FF000000000FFFFFF800000000FFFFFF80FFFFFFFFFFFFFC0
310
7FFFFFF0001FFFFFF8000FFFFFFFF8000FF8000FFFFFFFF8000FFF0003FFFFFF
310
FFFC000000007FFFF000F800000007FFFFFFC0007F8003000FF8001FFF80007F
310
F000000007FFFFFF000000007FFFFFF80FFFFFFFFFFFFFC07FFFFFF0001FFFFF
310
F8000FFFFFFFF8000FF8000FFFFFFFF8000FFF0003FFFFFFFFF80000000FFFFF
310
F000F0000000FFFFFFFFC000FF8003000FF8001FFF80007FE0000000FFFFFFFF
310
0000000FFFFFFFF8000001FFFE0000007FFFFFF0001FFFFFF8000FFFFFFFF800
310
0FF8000FFFFFFFF8000FFF0003FFFFFFFFF8000000FFFFFFF000F000000FFFFF
310
FFFFC000FFC002000FF8000FFF80007FE000001FFFFFFFFE000001FFFFFFFFF8
310
000001FFFE0000007FFFFFF0001FFFFFF8000FFFFFFFF8000FF8000FFFFFFFF8
310
000FFF0003FFFFFFFFF000001FFFFFFFF000E00000FFFFFFFFFFC000FFC00200
310
0FFC000FFF80007FE00001FFFFFFFFFE00001FFFFFFFFFF8000001FFFE000000
310
7FFFFFF0001FFFFFFC000FFFFFFFF8001FFC000FFFFFFFF8001FFF0003FFFFFF
310
FFF00001FFFFFFFFF000E00007FFFFFFFFFF8000FFC000001FFC000FFF80007F
310
C0000FFFFFFFFFFE0000FFFFFFFFFFF8000001FFFE0000007FFFFFF0001FFFFF
310
FC0007FFFFFFF0001FFC0007FFFFFFF0001FFF0003FFFFFFFFF00007FFFFFFFF
310
F000E0001FFFFFFFFFFF8000FFC000001FFC000FFF80007FC0003FFFFFFFFFFE
310
0001FFFFFFFFFFF8000001FFFE0000007FFFFFF0001FFFFFFC0007FFFFFFF000
310
1FFC0007FFFFFFF0001FFF0003FFFFFFFFF0001FFFFFFFFFF000E0003FFFFF00
310
03FF8001FFE000001FFC0007FF80007FC0007FFFFF0007FC0003FFFFF0003FF8
310
000001FFFE0000007FFFFFF0001FFFFFFC0003FFFFFFE0001FFC0003FFFFFFE0
310
001FFF0003FFFFFFFFF0003FFFFFFFFFF000E0003FFFFF0001FF8001FFE00000
310
1FFE0007FF80007FC0007FFFFE0003FC0007FFFFE0003FF8000001FFFE000000
310
7FFFFFF0001FFFFFFE0003FFFFFFE0003FFE0003FFFFFFE0003FFF0003FFFFFF
310
FFF0003FFFFF8001F000E0003FFFFF0001FF0001FFE000001FFE0007FF80007F
310
C0007FFFFE0003FC0007FFFFE0003FF8000001FFFE0000007FFFFFF0001FFFFF
310
FE0001FFFFFFC0003FFE0001FFFFFFC0003FFF0003FFFFFFFFF0003FFFFF0001
310
F000E0003FFFFF0003FF0001FFE000003FFE0007FF80007FC0007FFFFE0003FC
310
0007FFFFE0003FF8000001FFFE0000007FFFFFF0001FFFFFFF0001FFFFFFC000
310
7FFF0001FFFFFFC0007FFF0003FFFFFFFFF0003FFFFF0001F000E0003FFFFE00
310
03FF0003FFF000003FFE0003FF80007FC0007FFFFC0003FE0007FFFFE0003FF8
310
000001FFFE0000007FFFFFF0001FFFFFFF0000FFFFFF80007FFF0000FFFFFF80
310
007FFF0003FFFFFFFFF0003FFFFF0001F000E0003FFFFE0003FF0003FFF00000
310
3FFF0003FF80007FC0007FFFFC0007FE0007FFFFC0003FF8000001FFFE000000
310
7FFFFFF0001FFFFFFF80007FFFFF0000FFFF80007FFFFF0000FFFF0003FFFFFF
310
FFF0003FFFFF0003F000E0003FFFFC0003FE0003FFF000003FFF0003FF80007F
310
E0003FFFF80007FE0003FFFFC0007FF8000001FFFE0000007FFFFFF0001FFFFF
310
FF80003FFFFE0000FFFF80003FFFFE0000FFFF0003FFFFFFFFF0001FFFFE0003
310
F000F0001FFFF80003FE0003FFF000007FFF0001FF80007FE0003FFFF00007FE
310
0001FFFF80007FF8000001FFFE0000007FFFFFF0001FFFFFFFC0000FFFF80001
310
FFFFC0000FFFF80001FFFF0003FFFFFFFFF0001FFFFC0003F000F0000FFFF000
310
07FE0007FFF800007FFF0001FF80007FE0001FFFE00007FF0000FFFE00007FF8
310
000001FFFE0000007FFFFFF0001FFFFFFFC00003FFE00001FFFFC00003FFE000
310
01FFFF0003FFFFFFFFF8000FFFF80003F000F00003FFC00007FC0007FFF80000
310
7FFF8001FF80007FF00007FF80000FFF00007FF80000FFF8000001FFFE000000
310
7F80000000000001FFE000003E000003FFFFE000003E000003FFFF0003FFFFFF
310
FFF80003FFE00007F000F800000000000FFC0007FFF800007FFF8001FF80007F
310
F000000000000FFF000000000000FFF8000001FFFE0000007F80000000000001
310
FFF0000000000007FFFFF0000000000007FFFF0003FFFFFFFFFC00007E000007
310
F000F800000000000FFC0007FFF80000FFFF8000FF80007FF800000000001FFF
310
800000000001FFF8000001FFFE0000007F80000000000001FFF800000000000F
310
FFFFF800000000000FFFFF0003FFFFFFFFFC00000000000FF000FC0000000000
310
1FFC0007FFFC0000FFFF8000FF80007FF800000000003FFFC00000000001FFF8
310
000001FFFE0000007F80000000000001FFF800000000000FFFFFF80000000000
310
0FFFFF0003FFFFFFFFFE00000000001FF000FE00000000003FF8000FFFFC0000
310
FFFF8000FF80007FFC00000000003FFFC00000000003FFF8000001FFFE000000
310
7F80000000000001FFFC00000000001FFFFFFC00000000001FFFFF0003FFFFFF
310
FFFF00000000001FF000FF00000000003FF8000FFFFC0000FFFFC000FF80007F
310
FE00000000007FFFE00000000007FFF8000001FFFE0000007F80000000000001
310
FFFE00000000003FFFFFFE00000000003FFFFF0003FFFFFFFFFF80000000003F
310
F000FF80000000007FF8000FFFFC0001FFFFC0007F80007FFF0000000000FFFF
310
F0000000000FFFF800000000000000007F80000000000001FFFF8000000000FF
310
FFFFFF8000000000FFFFFF0003FFFFFFFFFFC0000000007FF000FFC000000000
310
FFF8000FFFFE0001FFFFC0007F80007FFF8000000001FFFFF8000000001FFFF8
310
00000000000000007F80000000000001FFFFC000000001FFFFFFFFC000000001
310
FFFFFF0003FFFFFFFFFFE000000000FFF000FFE000000003FFF0001FFFFE0001
310
FFFFC0007F80007FFFC000000007FFFFFE000000003FFFF80000000000000000
310
7F80000000000001FFFFE000000003FFFFFFFFE000000003FFFFFF0003FFFFFF
310
FFFFF000000003FFF000FFF80000000FFFF0001FFFFE0001FFFFE0007F80007F
310
FFF00000000FFFFFFF00000000FFFFF800000000000000007F80000000000001
310
FFFFF80000000FFFFFFFFFF80000000FFFFFFF0003FFFFFFFFFFFC0000000FFF
310
F000FFFE0000003FFFF0001FFFFE0003FFFFE0003F80007FFFFC0000003FFFFF
310
FFC0000003FFFFF800000000000000007F80000000000001FFFFFE0000003FFF
310
FFFFFFFE0000003FFFFFFF0003FFFFFFFFFFFF0000003FFFF000FFFF800000FF
310
FFF0001FFFFF0003FFFFE0003F80007FFFFF000001FFFFFFFFF800001FFFFFF8
310
00000000000000007F80000000000001FFFFFFC00001FFFFFFFFFFFFC00001FF
310
FFFFFF0003FFFFFFFFFFFFC00000FFFFF000FFFFF8000FFFFFFFFFFFFFFFFFFF
310
FFFFFFFFFFFFFFFFFFFFF0001FFFFFFFFFFF0000FFFFFFF80000000000000000
310
7FFFFFFFFFFFFFFFFFFFFFFC001FFFFFFFFFFFFFFC001FFFFFFFFFFFFFFFFFFF
310
FFFFFFFC001FFFFFF000FFFFFFFFFFFFFFFFFFFFFFFFFFFFFFFFFFFFFFFFFFFF
310
FFFFFFFFFFFFFFFFFFFFFFFFFFFFFFFFFFFFFFFFFFFFFFFFFFFFFFFFFFFFFFFF
310
FFFFFFFFFFFFFFFFFFFFFFFFFFFFFFFFFFFFFFFFFFFFFFFFFFFFFFFFFFFFFFFF
310
F000FFFFFFFFFFFFFFFFFFFFFFFFFFFFFFFFFFFFFFFFFFFFFFFFFFFFFFFFFFFF
310
FFFFFFFFFFFFFFFFFFFFFFFFFFFFFFFFFFFFFFFFFFFFFFFFFFFFFFFFFFFFFFFF
310
FFFFFFFFFFFFFFFFFFFFFFFFFFFFFFFFFFFFFFFFFFFFFFFFF000FFFFFFFFFFFF
310
FFFFFFFFFFFFFFFFFFFFFFFFFFFFFFFFFFFFFFFFFFFFFFFFFFFFFFFFFFFFFFFF
310
FFFFFFFFFFFFFFFFFFFFFFFFFFFFFFFFFFFFFFFFFFFFFFFFFFFFFFFFFFFFFFFF
310
FFFFFFFFFFFFFFFFFFFFFFFFFFFFFFFFF000FFFFFFFFFFFFFFFFFFFFFFFFFFFF
310
FFFFFFFFFFFFFFFFFFFFFFFFFFFFFFFFFFFFFFFFFFFFFFFFFFFFFFFFFFFFFFFF
310
FFFFFFFFFFFFFFFFFFFFFFFFFFFFFFFFFFFFFFFFFFFFFFFFFFFFFFFFFFFFFFFF
310
FFFFFFFFFFFFFFFFF000FFFFFFFFFFFFFFFFFFFFFFFFFFFFFFFFFFFFFFFFFFFF
310
FFFFFFFFFFFFFFFFFFFFFFFFFFFFFFFFFFFFFFFFFFFFFFFFFFFFFFFFFFFFFFFF
310
FFFFFFFFFFFFFFFFFFFFFFFFFFFFFFFFFFFFFFFFFFFFFFFFFFFFFFFFFFFFFFFF
310
F000FFFFFFFFFFFFFFFFFFFFFFFFFFFFFFFFFFFFFFFFFFFFFFFFFFFFFFFFFFFF
310
FFFFFFFFFFFFFFFFFFFFFFFFFFFFFFFFFFFFFFFFFFFFFFFFFFFFFFFFFFFFFFFF
310
FFFFFFFFFFFFFFFFFFFFFFFFFFFFFFFFFFFFFFFFFFFFFFFFF000FFFFFFFFFFFF
310
FFFFFFFFFFFFFFFFFFFFFFFFFFFFFFFFFFFFFFFFFFFFFFFFFFFFFFFFFFFFFFFF
310
FFFFFFFFFFFFFFFFFFFFFFFFFFFFFFFFFFFFFFFFFFFFFFFFFFFFFFFFFFFFFFFF
310
FFFFFFFFFFFFFFFFFFFFFFFFFFFFFFFFF000FFFFFFFFFFFFFFFFFFFFFFFFFFFF
310
FFFFFFFFFFFFFFFFFFFFFFFFFFFFFFFFFFFFFFFFFFFFFFFFFFFFFFFFFFFFFFFF
310
FFFFFFFFFFFFFFFFFFFFFFFFFFFFFFFFFFFFFFFFFFFFFFFFFFFFFFFFFFFFFFFF
310
FFFFFFFFFFFFFFFFF000FFFFFFFFFFFFFFFFFFFFFFFFFFFFFFFFFFFFFFFFFFFF
310
FFFFFFFFFFFFFFFFFFFFFFFFFFFFFFFFFFFFFFFFFFFFFFFFFFFFFFFFFFFFFFFF
310
FFFFFFFFFFFFFFFFFFFFFFFFFFFFFFFFFFFFFFFFFFFFFFFFFFFFFFFFFFFFFFFF
310
F000FFFFFFFFFFFFFFFFFFFFFFFFFFFFFFFFFFFFFFFFFFFFFFFFFFFFFFFFFFFF
310
FFFFFFFFFFFFFFFFFFFFFFFFFFFFFFFFFFFFFFFFFFFFFFFFFFFFFFFFFFFFFFFF
310
FFFFFFFFFFFFFFFFFFFFFFFFFFFFFFFFFFFFFFFFFFFFFFFFF000FFFFFFFFFFFF
310
FFFFFFFFFFFFFFFFFFFFFFFFFFFFFFFFFFFFFFFFFFFFFFFFFFFFFFFFFFFFFFFF
310
FFFFFFFFFFFFFFFFFFFFFFFFFFFFFFFFFFFFFFFFFFFFFFFFFFFFFFFFFFFFFFFF
310
FFFFFFFFFFFFFFFFFFFFFFFFFFFFFFFFF000FFFFFFFFFFFFFFFFFFFFFFFFFFFF
310
FFFFFFFFFFFFFFFFFFFFFFFFFFFFFFFFFFFFFFFFFFFFFFFFFFFFFFFFFFFFFFFF
310
FFFFFFFFFFFFFFFFFFFFFFFFFFFFFFFFFFFFFFFFFFFFFFFFFFFFFFFFFFFFFFFF
310
FFFFFFFFFFFFFFFFF000FFFFFFFFFFFFFFFFFFFFFFFFFFFFFFFFFFFFFFFFFFFF
310
FFFFFFFFFFFFFFFFFFFFFFFFFFFFFFFFFFFFFFFFFFFFFFFFFFFFFFFFFFFFFFFF
310
FFFFFFFFFFFFFFFFFFFFFFFFFFFFFFFFFFFFFFFFFFFFFFFFFFFFFFFFFFFFFFFF
310
F000FFFFFFFFFFFFFFFFFFFFFFFFFFFFFFFFFFFFFFFFFFFFFFFFFFFFFFFFFFFF
310
FFFFFFFFFFFFFFFFFFFFFFFFFFFFFFFFFFFFFFFFFFFFFFFFFFFFFFFFFFFFFFFF
310
FFFFFFFFFFFFFFFFFFFFFFFFFFFFFFFFFFFFFFFFFFFFFFFFF000FFFFFFFFFFFF
310
FFFFFFFFFFFFFFFFFFFFFFFFFFFFFFFFFFFFFFFFFFFFFFFFFFFFFFFFFFFFFFFF
310
FFFFFFFFFFFFFFFFFFFFFFFFFFFFFFFFFFFFFFFFFFFFFFFFFFFFFFFFFFFFFFFF
310
FFFFFFFFFFFFFFFFFFFFFFFFFFFFFFFFF000FFFFFFFFFFFFFFFFFFFFFFFFFFFF
310
FFFFFFFFFFFFFFFFFFFFFFFFFFFFFFFFFFFFFFFFFFFFFFFFFFFFFFFFFFFFFFFF
310
FFFFFFFFFFFFFFFFFFFFFFFFFFFFFFFFFFFFFFFFFFFFFFFFFFFFFFFFFFFFFFFF
310
FFFFFFFFFFFFFFFFF000FFFFFFFFFFFFFFFFFFFFFFFFFFFFFFFFFFFFFFFFFFFF
310
FFFFFFFFFFFFFFFFFFFFFFFFFFFFFFFFFFFFFFFFFFFFFFFFFFFFFFFFFFFFFFFF
310
FFFFFFFFFFFFFFFFFFFFFFFFFFFFFFFFFFFFFFFFFFFFFFFFFFFFFFFFFFFFFFFF
310
F000FFFFFFFFFFFFFFFFFFFFFFFFFFFFFFFFFFFFFFFFFFFFFFFFFFFFFFFFFFFF
310
FFFFFFFFFFFFFFFFFFFFFFFFFFFFFFFFFFFFFFFFFFFFFFFFFFFFFFFFFFFFFFFF
310
FFFFFFFFFFFFFFFFFFFFFFFFFFFFFFFFFFFFFFFFFFFFFFFFF000FFFFFFFFFFFF
310
FFFFFFFFFFFFFFFFFFFFFFFFFFFFFFFFFFFFFFFFFFFFFFFFFFFFFFFFFFFFFFFF
310
FFFFFFFFFFFFFFFFFFFFFFFFFFFFFFFFFFFFFFFFFFFFFFFFFFFFFFFFFFFFFFFF
310
FFFFFFFFFFFFFFFFFFFFFFFFFFFFFFFFF000FFFFFFFFFFFFFFFFFFFFFFFFFFFF
310
FFFFFFFFFFFFFFFFFFFFFFFFFFFFFFFFFFFFFFFFFFFFFFFFFFFFFFFFFFFFFFFF
310
FFFFFFFFFFFFFFFFFFFFFFFFFFFFFFFFFFFFFFFFFFFFFFFFFFFFFFFFFFFFFFFF
310
FFFFFFFFFFFFFFFFF000FFFFFFFFFFFFFFFFFFFFFFFFFFFFFFFFFFFFFFFFFFFF
310
FFFFFFFFFFFFFFFFFFFFFFFFFFFFFFFFFFFFFFFFFFFFFFFFFFFFFFFFFFFFFFFF
310
FFFFFFFFFFFFFFFFFFFFFFFFFFFFFFFFFFFFFFFFFFFFFFFFFFFFFFFFFFFFFFFF
310
F000FFFFFFFFFFFFFFFFFFFFFFFFFFFFFFFFFFFFFFFFFFFFFFFFFFFFFFFFFFFF
310
FFFFFFFFFFFFFFFFFFFFFFFFFFFFFFFFFFFFFFFFFFFFFFFFFFFFFFFFFFFFFFFF
310
FFFFFFFFFFFFFFFFFFFFFFFFFFFFFFFFFFFFFFFFFFFFFFFFF000FFFFFFFFFFFF
310
FFFFFFFFFFFFFFFFFFFFFFFFFFFFFFFFFFFFFFFFFFFFFFFFFFFFFFFFFFFFFFFF
310
FFFFFFFFFFFFFFFFFFFFFFFFFFFFFFFFFFFFFFFFFFFFFFFFFFFFFFFFFFFFFFFF
310
FFFFFFFFFFFFFFFFFFFFFFFFFFFFFFFFF0000000000000000000000000000000
310
0000000000000000000000000000000000000000000000000000000000000000
310
0000000000000000000000000000000000000000000000000000000000000000
310
0000000000000000000000000000000000000000000000000000000000000000
310
0000000000000000000000000000000000000000000000000000000000000000
310
0000000000000000000000000000000000000000000000000000000000000000
310
0000000000000000000000000000000000000000000000000000000000000000
310
0000000000000000000000000000000000000000000000000000000000000000
310
0000000000000000000000000000000000000000000000000000000000000000
310
0000000000000000000000000000000000000000000000000000000000000000
310
0000000000000000000000000000000000000000000000000000000000000000
310
0000000000000000000000000000000000000000000000000000000000000000
310
0000000000000000000000000000000000000000000000000000000000000000
310
0000000000000000000000000000000000000000000000000000000000000000
310
0000000000000000000000000000000000000000000000000000000000000000
310
0000000000000000000000000000000000000000000000000000000000000000
  1
OLE
  0
ENDSEC
  0
SECTION
  2
OBJECTS
  0
DICTIONARY
  5
C
330
0
100
AcDbDictionary
281
     1
  3
ACAD_GROUP
350
D
  3
ACAD_LAYOUT
350
1A
  3
ACAD_MLINESTYLE
350
17
  3
ACAD_PLOTSETTINGS
350
19
  3
ACAD_PLOTSTYLENAME
350
E
  0
DICTIONARY
  5
D
102
{ACAD_REACTORS
330
C
102
}
330
C
100
AcDbDictionary
281
     1
  0
DICTIONARY
  5
1A
102
{ACAD_REACTORS
330
C
102
}
330
C
100
AcDbDictionary
281
     1
  3
Layout1
350
1E
  3
Layout2
350
26
  3
Model
350
22
  0
DICTIONARY
  5
17
102
{ACAD_REACTORS
330
C
102
}
330
C
100
AcDbDictionary
281
     1
  3
Standard
350
18
  0
DICTIONARY
  5
19
102
{ACAD_REACTORS
330
C
102
}
330
C
100
AcDbDictionary
281
     1
  0
ACDBDICTIONARYWDFLT
  5
E
102
{ACAD_REACTORS
330
C
102
}
330
C
100
AcDbDictionary
281
     1
  3
Normal
350
F
100
AcDbDictionaryWithDefault
340
F
  0
LAYOUT
  5
1E
102
{ACAD_REACTORS
330
1A
102
}
330
1A
100
AcDbPlotSettings
  1

  2
none_device
  4

  6

 40
0.0
 41
0.0
 42
0.0
 43
0.0
 44
0.0
 45
0.0
 46
0.0
 47
0.0
 48
0.0
 49
0.0
140
0.0
141
0.0
142
1.0
143
1.0
 70
   688
 72
     0
 73
     0
 74
     5
  7

 75
    16
147
1.0
148
0.0
149
0.0
100
AcDbLayout
  1
Layout1
 70
     1
 71
     1
 10
0.0
 20
0.0
 11
420.0
 21
297.0
 12
0.0
 22
0.0
 32
0.0
 14
1.0000000000E+20
 24
1.0000000000E+20
 34
1.0000000000E+20
 15
-1.0000000000E+20
 25
-1.0000000000E+20
 35
-1.0000000000E+20
146
0.0
 13
0.0
 23
0.0
 33
0.0
 16
1.0
 26
0.0
 36
0.0
 17
0.0
 27
1.0
 37
0.0
 76
     0
330
1B
  0
LAYOUT
  5
26
102
{ACAD_REACTORS
330
1A
102
}
330
1A
100
AcDbPlotSettings
  1

  2
none_device
  4

  6

 40
0.0
 41
0.0
 42
0.0
 43
0.0
 44
0.0
 45
0.0
 46
0.0
 47
0.0
 48
0.0
 49
0.0
140
0.0
141
0.0
142
1.0
143
1.0
 70
   688
 72
     0
 73
     0
 74
     5
  7

 75
    16
147
1.0
148
0.0
149
0.0
100
AcDbLayout
  1
Layout2
 70
     1
 71
     2
 10
0.0
 20
0.0
 11
0.0
 21
0.0
 12
0.0
 22
0.0
 32
0.0
 14
0.0
 24
0.0
 34
0.0
 15
0.0
 25
0.0
 35
0.0
146
0.0
 13
0.0
 23
0.0
 33
0.0
 16
1.0
 26
0.0
 36
0.0
 17
0.0
 27
1.0
 37
0.0
 76
     0
330
23
  0
LAYOUT
  5
22
102
{ACAD_REACTORS
330
1A
102
}
330
1A
100
AcDbPlotSettings
  1

  2
none_device
  4

  6

 40
0.0
 41
0.0
 42
0.0
 43
0.0
 44
0.0
 45
0.0
 46
0.0
 47
0.0
 48
0.0
 49
0.0
140
0.0
141
0.0
142
1.0
143
1.0
 70
  1712
 72
     0
 73
     0
 74
     0
  7

 75
     0
147
1.0
148
0.0
149
0.0
100
AcDbLayout
  1
Model
 70
     1
 71
     0
 10
0.0
 20
0.0
 11
297.0
 21
210.0
 12
0.0
 22
0.0
 32
0.0
 14
0.0
 24
0.0
 34
0.0
 15
297.0
 25
210.0
 35
0.0
146
0.0
 13
0.0
 23
0.0
 33
0.0
 16
1.0
 26
0.0
 36
0.0
 17
0.0
 27
1.0
 37
0.0
 76
     0
330
1F
331
29
  0
MLINESTYLE
  5
18
102
{ACAD_REACTORS
330
17
102
}
330
17
100
AcDbMlineStyle
  2
Standard
 70
     0
  3

 62
   256
 51
90.0
 52
90.0
 71
     2
 49
0.5
 62
   256
  6
BYLAYER
 49
-0.5
 62
   256
  6
BYLAYER
  0
ACDBPLACEHOLDER
  5
F
102
{ACAD_REACTORS
330
E
102
}
330
E
  0
ENDSEC
  0
EOF
