  0
SECTION
  2
HEADER
  9
$ACADVER
  1
AC1015
  9
$ACADMAINTVER
 70
     6
  9
$DWGCODEPAGE
  3
ANSI_1252
  9
$INSBASE
 10
0.0
 20
0.0
 30
0.0
  9
$EXTMIN
 10
0.0
 20
0.0
 30
0.0
  9
$EXTMAX
 10
297.0
 20
210.0
 30
0.0
  9
$LIMMIN
 10
0.0
 20
0.0
  9
$LIMMAX
 10
297.0
 20
210.0
  9
$ORTHOMODE
 70
     0
  9
$REGENMODE
 70
     1
  9
$FILLMODE
 70
     1
  9
$QTEXTMODE
 70
     0
  9
$MIRRTEXT
 70
     1
  9
$LTSCALE
 40
1.0
  9
$ATTMODE
 70
     1
  9
$TEXTSIZE
 40
2.0
  9
$TRACEWID
 40
1.0
  9
$TEXTSTYLE
  7
Standard
  9
$CLAYER
  8
0
  9
$CELTYPE
  6
ByLayer
  9
$CECOLOR
 62
   256
  9
$CELTSCALE
 40
1.0
  9
$DISPSILH
 70
     0
  9
$DIMSCALE
 40
1.0
  9
$DIMASZ
 40
3.0
  9
$DIMEXO
 40
0.0
  9
$DIMDLI
 40
3.75
  9
$DIMRND
 40
0.0
  9
$DIMDLE
 40
0.0
  9
$DIMEXE
 40
1.0
  9
$DIMTP
 40
0.0
  9
$DIMTM
 40
0.0
  9
$DIMTXT
 40
2.0
  9
$DIMCEN
 40
2.5
  9
$DIMTSZ
 40
0.0
  9
$DIMTOL
 70
     0
  9
$DIMLIM
 70
     0
  9
$DIMTIH
 70
     1
  9
$DIMTOH
 70
     1
  9
$DIMSE1
 70
     0
  9
$DIMSE2
 70
     0
  9
$DIMTAD
 70
     1
  9
$DIMZIN
 70
     0
  9
$DIMBLK
  1

  9
$DIMASO
 70
     1
  9
$DIMSHO
 70
     1
  9
$DIMPOST
  1

  9
$DIMAPOST
  1

  9
$DIMALT
 70
     0
  9
$DIMALTD
 70
     3
  9
$DIMALTF
 40
0.0393700787
  9
$DIMLFAC
 40
1.0
  9
$DIMTOFL
 70
     1
  9
$DIMTVP
 40
0.0
  9
$DIMTIX
 70
     0
  9
$DIMSOXD
 70
     0
  9
$DIMSAH
 70
     0
  9
$DIMBLK1
  1

  9
$DIMBLK2
  1

  9
$DIMSTYLE
  2
ISO-25
  9
$DIMCLRD
 70
     0
  9
$DIMCLRE
 70
     0
  9
$DIMCLRT
 70
     0
  9
$DIMTFAC
 40
1.0
  9
$DIMGAP
 40
1.524
  9
$DIMJUST
 70
     0
  9
$DIMSD1
 70
     0
  9
$DIMSD2
 70
     0
  9
$DIMTOLJ
 70
     0
  9
$DIMTZIN
 70
     0
  9
$DIMALTZ
 70
     0
  9
$DIMALTTZ
 70
     0
  9
$DIMUPT
 70
     0
  9
$DIMDEC
 70
     2
  9
$DIMTDEC
 70
     3
  9
$DIMALTU
 70
     2
  9
$DIMALTTD
 70
     3
  9
$DIMTXSTY
  7
Standard
  9
$DIMAUNIT
 70
     0
  9
$DIMADEC
 70
     2
  9
$DIMALTRND
 40
0.0
  9
$DIMAZIN
 70
     0
  9
$DIMDSEP
 70
    44
  9
$DIMATFIT
 70
     3
  9
$DIMFRAC
 70
     0
  9
$DIMLDRBLK
  1

  9
$DIMLUNIT
 70
     2
  9
$DIMLWD
 70
    -2
  9
$DIMLWE
 70
    -2
  9
$DIMTMOVE
 70
     0
  9
$LUNITS
 70
     2
  9
$LUPREC
 70
     2
  9
$SKETCHINC
 40
1.0
  9
$FILLETRAD
 40
10.0
  9
$AUNITS
 70
     0
  9
$AUPREC
 70
     2
  9
$MENU
  1
.
  9
$ELEVATION
 40
0.0
  9
$PELEVATION
 40
0.0
  9
$THICKNESS
 40
0.0
  9
$LIMCHECK
 70
     0
  9
$CHAMFERA
 40
10.0
  9
$CHAMFERB
 40
10.0
  9
$CHAMFERC
 40
20.0
  9
$CHAMFERD
 40
0.0
  9
$SKPOLY
 70
     0
  9
$TDCREATE
 40
2456072.472084988
  9
$TDUCREATE
 40
2456072.388751655
  9
$TDUPDATE
 40
2456072.472086621
  9
$TDUUPDATE
 40
2456072.388753287
  9
$TDINDWG
 40
0.0000000116
  9
$TDUSRTIMER
 40
0.0000000116
  9
$USRTIMER
 70
     1
  9
$ANGBASE
 50
0.0
  9
$ANGDIR
 70
     0
  9
$PDMODE
 70
     0
  9
$PDSIZE
 40
-1.0
  9
$PLINEWID
 40
0.0
  9
$SPLFRAME
 70
     0
  9
$SPLINETYPE
 70
     6
  9
$SPLINESEGS
 70
     8
  9
$HANDSEED
  5
2AD
  9
$SURFTAB1
 70
     6
  9
$SURFTAB2
 70
     6
  9
$SURFTYPE
 70
     6
  9
$SURFU
 70
     6
  9
$SURFV
 70
     6
  9
$UCSBASE
  2

  9
$UCSNAME
  2

  9
$UCSORG
 10
0.0
 20
0.0
 30
0.0
  9
$UCSXDIR
 10
1.0
 20
0.0
 30
0.0
  9
$UCSYDIR
 10
0.0
 20
1.0
 30
0.0
  9
$UCSORTHOREF
  2

  9
$UCSORTHOVIEW
 70
     0
  9
$UCSORGTOP
 10
0.0
 20
0.0
 30
0.0
  9
$UCSORGBOTTOM
 10
0.0
 20
0.0
 30
0.0
  9
$UCSORGLEFT
 10
0.0
 20
0.0
 30
0.0
  9
$UCSORGRIGHT
 10
0.0
 20
0.0
 30
0.0
  9
$UCSORGFRONT
 10
0.0
 20
0.0
 30
0.0
  9
$UCSORGBACK
 10
0.0
 20
0.0
 30
0.0
  9
$PUCSBASE
  2

  9
$PUCSNAME
  2

  9
$PUCSORG
 10
0.0
 20
0.0
 30
0.0
  9
$PUCSXDIR
 10
1.0
 20
0.0
 30
0.0
  9
$PUCSYDIR
 10
0.0
 20
1.0
 30
0.0
  9
$PUCSORTHOREF
  2

  9
$PUCSORTHOVIEW
 70
     0
  9
$PUCSORGTOP
 10
0.0
 20
0.0
 30
0.0
  9
$PUCSORGBOTTOM
 10
0.0
 20
0.0
 30
0.0
  9
$PUCSORGLEFT
 10
0.0
 20
0.0
 30
0.0
  9
$PUCSORGRIGHT
 10
0.0
 20
0.0
 30
0.0
  9
$PUCSORGFRONT
 10
0.0
 20
0.0
 30
0.0
  9
$PUCSORGBACK
 10
0.0
 20
0.0
 30
0.0
  9
$USERI1
 70
     0
  9
$USERI2
 70
     0
  9
$USERI3
 70
     0
  9
$USERI4
 70
     0
  9
$USERI5
 70
     0
  9
$USERR1
 40
0.0
  9
$USERR2
 40
0.0
  9
$USERR3
 40
0.0
  9
$USERR4
 40
0.0
  9
$USERR5
 40
0.0
  9
$WORLDVIEW
 70
     1
  9
$SHADEDGE
 70
     3
  9
$SHADEDIF
 70
    70
  9
$TILEMODE
 70
     1
  9
$MAXACTVP
 70
    64
  9
$PINSBASE
 10
0.0
 20
0.0
 30
0.0
  9
$PLIMCHECK
 70
     0
  9
$PEXTMIN
 10
1.0000000000E+20
 20
1.0000000000E+20
 30
1.0000000000E+20
  9
$PEXTMAX
 10
-1.0000000000E+20
 20
-1.0000000000E+20
 30
-1.0000000000E+20
  9
$PLIMMIN
 10
0.0
 20
0.0
  9
$PLIMMAX
 10
420.0
 20
297.0
  9
$UNITMODE
 70
     0
  9
$VISRETAIN
 70
     1
  9
$PLINEGEN
 70
     0
  9
$PSLTSCALE
 70
     1
  9
$TREEDEPTH
 70
  3020
  9
$CMLSTYLE
  2
Standard
  9
$CMLJUST
 70
     0
  9
$CMLSCALE
 40
20.0
  9
$PROXYGRAPHICS
 70
     1
  9
$MEASUREMENT
 70
     1
  9
$CELWEIGHT
370
    -1
  9
$ENDCAPS
280
     0
  9
$JOINSTYLE
280
     0
  9
$LWDISPLAY
290
     1
  9
$INSUNITS
 70
     4
  9
$HYPERLINKBASE
  1

  9
$STYLESHEET
  1

  9
$XEDIT
290
     1
  9
$CEPSNTYPE
380
     0
  9
$PSTYLEMODE
290
     1
  9
$FINGERPRINTGUID
  2
{A93F4959-3B9A-4F65-B0CA-7F8F9325D1D5}
  9
$VERSIONGUID
  2
{FAEB1C32-E019-11D5-929B-00C0DF256EC4}
  9
$EXTNAMES
290
     1
  9
$PSVPSCALE
 40
0.0
  9
$OLESTARTUP
290
     0
  0
ENDSEC
  0
SECTION
  2
CLASSES
  0
CLASS
  1
ACDBDICTIONARYWDFLT
  2
AcDbDictionaryWithDefault
  3
ObjectDBX Classes
 90
        0
280
     0
281
     0
  0
CLASS
  1
VISUALSTYLE
  2
AcDbVisualStyle
  3
ObjectDBX Classes
 90
     4095
280
     0
281
     0
  0
CLASS
  1
MATERIAL
  2
AcDbMaterial
  3
ObjectDBX Classes
 90
     1153
280
     0
281
     0
  0
CLASS
  1
ACDBPLACEHOLDER
  2
AcDbPlaceHolder
  3
ObjectDBX Classes
 90
        0
280
     0
281
     0
  0
CLASS
  1
LAYOUT
  2
AcDbLayout
  3
ObjectDBX Classes
 90
        0
280
     0
281
     0
  0
ENDSEC
  0
SECTION
  2
TABLES
  0
TABLE
  2
VPORT
  5
8
330
0
100
AcDbSymbolTable
 70
     1
  0
VPORT
  5
29
330
8
100
AcDbSymbolTableRecord
100
AcDbViewportTableRecord
  2
*Active
 70
     0
 10
0.0
 20
0.0
 11
1.0
 21
1.0
 12
148.5
 22
105.0
 13
0.0
 23
0.0
 14
10.0
 24
10.0
 15
10.0
 25
10.0
 16
0.0
 26
0.0
 36
1.0
 17
0.0
 27
0.0
 37
0.0
 40
210.0
 41
1.4142857143
 42
50.0
 43
0.0
 44
0.0
 50
0.0
 51
0.0
 71
     0
 72
  2000
 73
     1
 74
     3
 75
     0
 76
     0
 77
     0
 78
     0
281
     0
 65
     1
110
0.0
120
0.0
130
0.0
111
1.0
121
0.0
131
0.0
112
0.0
122
1.0
132
0.0
 79
     0
146
0.0
  0
ENDTAB
  0
TABLE
  2
LTYPE
  5
5
330
0
100
AcDbSymbolTable
 70
     6
  0
LTYPE
  5
14
330
5
100
AcDbSymbolTableRecord
100
AcDbLinetypeTableRecord
  2
ByBlock
 70
     0
  3

 72
    65
 73
     0
 40
0.0
  0
LTYPE
  5
15
330
5
100
AcDbSymbolTableRecord
100
AcDbLinetypeTableRecord
  2
ByLayer
 70
     0
  3

 72
    65
 73
     0
 40
0.0
  0
LTYPE
  5
16
330
5
100
AcDbSymbolTableRecord
100
AcDbLinetypeTableRecord
  2
Continuous
 70
     0
  3
Solid line
 72
    65
 73
     0
 40
0.0
  0
LTYPE
  5
3F
330
5
100
AcDbSymbolTableRecord
100
AcDbLinetypeTableRecord
  2
HIDDEN
 70
     0
  3
Hidden __ __ __ __ __ __ __ __ __ __ __ __ __ __
 72
    65
 73
     2
 40
1.905
 49
1.27
 74
     0
 49
-0.635
 74
     0
  0
LTYPE
  5
40
330
5
100
AcDbSymbolTableRecord
100
AcDbLinetypeTableRecord
  2
PHANTOM
 70
     0
  3
Phantom ______  __  __  ______  __  __  ______
 72
    65
 73
     6
 40
12.7
 49
6.35
 74
     0
 49
-1.27
 74
     0
 49
1.27
 74
     0
 49
-1.27
 74
     0
 49
1.27
 74
     0
 49
-1.27
 74
     0
  0
LTYPE
  5
41
330
5
100
AcDbSymbolTableRecord
100
AcDbLinetypeTableRecord
  2
CENTER
 70
     0
  3
Center ____ _ ____ _ ____ _ ____ _ ____ _ ____
 72
    65
 73
     4
 40
10.16
 49
6.35
 74
     0
 49
-1.27
 74
     0
 49
1.27
 74
     0
 49
-1.27
 74
     0
  0
LTYPE
  5
42
330
5
100
AcDbSymbolTableRecord
100
AcDbLinetypeTableRecord
  2
CENTERX2
 70
     0
  3
Center (2x) ________  __  ________  __  _____
 72
    65
 73
     4
 40
20.32
 49
12.7
 74
     0
 49
-2.54
 74
     0
 49
2.54
 74
     0
 49
-2.54
 74
     0
  0
LTYPE
  5
43
330
5
100
AcDbSymbolTableRecord
100
AcDbLinetypeTableRecord
  2
DOT2
 70
     0
  3
Dot (.5x) ........................................
 72
    65
 73
     2
 40
0.635
 49
0.0
 74
     0
 49
-0.635
 74
     0
  0
ENDTAB
  0
TABLE
  2
LAYER
  5
2
330
0
100
AcDbSymbolTable
 70
     5
  0
LAYER
  5
10
330
2
100
AcDbSymbolTableRecord
100
AcDbLayerTableRecord
  2
0
 70
     0
 62
     7
  6
Continuous
370
    -3
390
F
  0
LAYER
  5
44
330
2
100
AcDbSymbolTableRecord
100
AcDbLayerTableRecord
  2
FORMAT
 70
     0
 62
     7
  6
Continuous
370
    -3
390
F
  0
LAYER
  5
45
330
2
100
AcDbSymbolTableRecord
100
AcDbLayerTableRecord
  2
VERMASSUNG
 70
     0
 62
     7
  6
Continuous
370
    -3
390
F
  0
LAYER
  5
46
330
2
100
AcDbSymbolTableRecord
100
AcDbLayerTableRecord
  2
KOPF_DÜNN
 70
     0
 62
     7
  6
Continuous
370
    -3
390
F
  0
LAYER
  5
47
330
2
100
AcDbSymbolTableRecord
100
AcDbLayerTableRecord
  2
KOPF_DICK
 70
     0
 62
     7
  6
Continuous
370
    15
390
F
  0
ENDTAB
  0
TABLE
  2
STYLE
  5
3
330
0
100
AcDbSymbolTable
 70
     2
  0
STYLE
  5
11
330
3
100
AcDbSymbolTableRecord
100
AcDbTextStyleTableRecord
  2
Standard
 70
     0
 40
0.0
 41
1.0
 50
0.0
 71
     0
 42
2.0
  3
txt
  4

  0
STYLE
  5
48
330
3
100
AcDbSymbolTableRecord
100
AcDbTextStyleTableRecord
  2
SLDTEXTSTYLE0
 70
     0
 40
0.0
 41
0.7
 50
0.0
 71
     0
 42
0.2
  3
TXT
  4

  0
ENDTAB
  0
TABLE
  2
VIEW
  5
6
330
0
100
AcDbSymbolTable
 70
     0
  0
ENDTAB
  0
TABLE
  2
UCS
  5
7
330
0
100
AcDbSymbolTable
 70
     0
  0
ENDTAB
  0
TABLE
  2
APPID
  5
9
330
0
100
AcDbSymbolTable
 70
     1
  0
APPID
  5
12
330
9
100
AcDbSymbolTableRecord
100
AcDbRegAppTableRecord
  2
ACAD
 70
     0
  0
ENDTAB
  0
TABLE
  2
DIMSTYLE
  5
A
330
0
100
AcDbSymbolTable
 70
     5
100
AcDbDimStyleTable
  0
DIMSTYLE
105
27
330
A
100
AcDbSymbolTableRecord
100
AcDbDimStyleTableRecord
  2
ISO-25
 70
     0
 41
2.5
 42
0.625
 43
3.75
 44
1.25
 73
     0
 74
     0
 77
     1
 78
     8
140
2.5
141
2.5
143
0.0393700787
147
0.625
171
     3
172
     1
178
     0
271
     2
272
     2
274
     3
278
    44
283
     0
284
     8
340
11
  0
DIMSTYLE
105
1D8
102
{ACAD_REACTORS
330
1D7
102
}
330
A
100
AcDbSymbolTableRecord
100
AcDbDimStyleTableRecord
  2
SLDDIMSTYLE0
 70
     0
 41
3.0
 44
0.0
 73
     0
 74
     0
 77
     1
 78
    12
 79
     3
140
2.0
147
0.5
173
     1
178
     0
179
     1
272
     3
276
     2
284
    12
340
48
  0
DIMSTYLE
105
1E1
102
{ACAD_REACTORS
330
1E0
330
1ED
102
}
330
A
100
AcDbSymbolTableRecord
100
AcDbDimStyleTableRecord
  2
SLDDIMSTYLE1
 70
     0
 41
3.0
 44
0.0
 45
0.000000001
 47
0.1
 48
0.1
 71
     1
 73
     0
 74
     0
 77
     1
 78
    12
 79
     3
140
2.0
147
0.5
173
     1
178
     0
271
     2
272
     1
276
     2
284
     8
340
48
  0
DIMSTYLE
105
1FA
102
{ACAD_REACTORS
330
1F9
330
204
102
}
330
A
100
AcDbSymbolTableRecord
100
AcDbDimStyleTableRecord
  2
SLDDIMSTYLE2
 70
     0
 41
3.0
 44
0.0
 45
0.000000001
 73
     0
 74
     0
 77
     1
 78
    12
 79
     3
140
2.0
147
0.5
173
     1
178
     0
271
     2
272
     3
276
     2
284
    12
340
48
  0
DIMSTYLE
105
292
102
{ACAD_REACTORS
330
291
102
}
330
A
100
AcDbSymbolTableRecord
100
AcDbDimStyleTableRecord
  2
SLDDIMSTYLE3
 70
     0
 41
3.0
 44
0.0
 45
0.000000001
 73
     0
 74
     0
 77
     1
 78
    12
 79
     3
140
2.0
147
0.5
172
     1
173
     1
178
     0
271
     2
272
     3
276
     2
284
    12
289
     0
340
48
  0
ENDTAB
  0
TABLE
  2
BLOCK_RECORD
  5
1
330
0
100
AcDbSymbolTable
 70
     8
  0
BLOCK_RECORD
  5
1F
330
1
100
AcDbSymbolTableRecord
100
AcDbBlockTableRecord
  2
*Model_Space
340
22
  0
BLOCK_RECORD
  5
1B
330
1
100
AcDbSymbolTableRecord
100
AcDbBlockTableRecord
  2
*Paper_Space
340
1E
  0
BLOCK_RECORD
  5
23
330
1
100
AcDbSymbolTableRecord
100
AcDbBlockTableRecord
  2
*Paper_Space0
340
26
  0
BLOCK_RECORD
  5
1D9
330
1
100
AcDbSymbolTableRecord
100
AcDbBlockTableRecord
  2
_D
340
0
  0
BLOCK_RECORD
  5
1E2
330
1
100
AcDbSymbolTableRecord
100
AcDbBlockTableRecord
  2
_D_1
340
0
  0
BLOCK_RECORD
  5
1EE
330
1
100
AcDbSymbolTableRecord
100
AcDbBlockTableRecord
  2
_D_2
340
0
  0
BLOCK_RECORD
  5
1FB
330
1
100
AcDbSymbolTableRecord
100
AcDbBlockTableRecord
  2
_D_3
340
0
  0
BLOCK_RECORD
  5
205
330
1
100
AcDbSymbolTableRecord
100
AcDbBlockTableRecord
  2
_D_4
340
0
  0
BLOCK_RECORD
  5
293
330
1
100
AcDbSymbolTableRecord
100
AcDbBlockTableRecord
  2
_D_5
340
0
  0
BLOCK_RECORD
  5
2A0
330
1
100
AcDbSymbolTableRecord
100
AcDbBlockTableRecord
  2
SW_CENTERMARKSYMBOL_0
340
0
102
{BLKREFS
331
2AB
102
}
  0
ENDTAB
  0
ENDSEC
  0
SECTION
  2
BLOCKS
  0
BLOCK
  5
20
330
1F
100
AcDbEntity
  8
0
100
AcDbBlockBegin
  2
*Model_Space
 70
     0
 10
0.0
 20
0.0
 30
0.0
  3
*Model_Space
  1

  0
ENDBLK
  5
21
330
1F
100
AcDbEntity
  8
0
100
AcDbBlockEnd
  0
BLOCK
  5
1C
330
1B
100
AcDbEntity
 67
     1
  8
0
100
AcDbBlockBegin
  2
*Paper_Space
 70
     0
 10
0.0
 20
0.0
 30
0.0
  3
*Paper_Space
  1

  0
ENDBLK
  5
1D
330
1B
100
AcDbEntity
 67
     1
  8
0
100
AcDbBlockEnd
  0
BLOCK
  5
24
330
23
100
AcDbEntity
  8
0
100
AcDbBlockBegin
  2
*Paper_Space0
 70
     0
 10
0.0
 20
0.0
 30
0.0
  3
*Paper_Space0
  1

  0
ENDBLK
  5
25
330
23
100
AcDbEntity
  8
0
100
AcDbBlockEnd
  0
BLOCK
  5
1DA
330
1D9
100
AcDbEntity
  8
0
100
AcDbBlockBegin
  2
_D
 70
     0
 10
0.0
 20
0.0
 30
0.0
  3
_D
  1

  0
ARC
  5
1DC
330
1D9
100
AcDbEntity
  8
VERMASSUNG
100
AcDbCircle
 10
230.0101560964
 20
137.115482576
 30
0.0
 40
10.66403569250132
100
AcDbArc
 50
90.0
 51
207.5210251811
  0
SOLID
  5
1DD
330
1D9
100
AcDbEntity
  8
VERMASSUNG
100
AcDbTrace
 10
230.0101560964
 20
147.7795182685
 30
0.0
 11
226.9768041011
 21
147.8152348225
 31
0.0
 12
227.0998220704
 22
146.9236819193
 32
0.0
 13
227.0998220704
 23
146.9236819193
 33
0.0
  0
SOLID
  5
1DE
330
1D9
100
AcDbEntity
  8
VERMASSUNG
100
AcDbTrace
 10
220.552848491
 20
132.1879081111
 30
0.0
 11
219.9670496249
 21
135.1643724043
 31
0.0
 12
219.1195402469
 22
134.8615063378
 32
0.0
 13
219.1195402469
 23
134.8615063378
 33
0.0
  0
MTEXT
  5
1DF
330
1D9
100
AcDbEntity
  8
VERMASSUNG
100
AcDbMText
 10
216.5098178495
 20
140.3920600932
 30
0.1
 40
2.0
 41
0.0
 71
     1
 72
     1
  1
117.5°
  7
SLDTEXTSTYLE0
 11
0.5186163907821639
 21
0.8550070404459146
 31
0.0
 73
     1
 44
1.0
  0
ENDBLK
  5
1DB
330
1D9
100
AcDbEntity
  8
0
100
AcDbBlockEnd
  0
BLOCK
  5
1E3
330
1E2
100
AcDbEntity
  8
0
100
AcDbBlockBegin
  2
_D_1
 70
     0
 10
0.0
 20
0.0
 30
0.0
  3
_D_1
  1

  0
SOLID
  5
1E5
330
1E2
100
AcDbEntity
  8
VERMASSUNG
100
AcDbTrace
 10
180.0101560964
 20
153.3604061668
 30
0.0
 11
183.0101560964
 21
152.9104061668
 31
0.0
 12
183.0101560964
 22
153.8104061668
 32
0.0
 13
183.0101560964
 23
153.8104061668
 33
0.0
  0
SOLID
  5
1E6
330
1E2
100
AcDbEntity
  8
VERMASSUNG
100
AcDbTrace
 10
230.0101560964
 20
153.3604061668
 30
0.0
 11
227.0101560964
 21
153.8104061668
 31
0.0
 12
227.0101560964
 22
152.9104061668
 32
0.0
 13
227.0101560964
 23
152.9104061668
 33
0.0
  0
LINE
  5
1E7
330
1E2
100
AcDbEntity
  8
VERMASSUNG
100
AcDbLine
 10
180.0101560964
 20
129.5530441766
 30
0.0
 11
180.0101560964
 21
154.3604061668
 31
0.0
  0
LINE
  5
1E8
330
1E2
100
AcDbEntity
  8
VERMASSUNG
100
AcDbLine
 10
230.0101560964
 20
136.8530441766
 30
0.0
 11
230.0101560964
 21
154.3604061668
 31
0.0
  0
LINE
  5
1E9
330
1E2
100
AcDbEntity
  8
VERMASSUNG
100
AcDbLine
 10
180.0101560964
 20
153.3604061668
 30
0.0
 11
230.0101560964
 21
153.3604061668
 31
0.0
  0
MTEXT
  5
1EA
330
1E2
100
AcDbEntity
  8
VERMASSUNG
100
AcDbMText
 10
200.4601559094
 20
155.93854153
 30
0.1
 40
2.0
 41
0.0
 71
     1
 72
     1
  1
50
  7
SLDTEXTSTYLE0
 73
     1
 44
1.0
  0
MTEXT
  5
1EB
330
1E2
100
AcDbEntity
  8
VERMASSUNG
100
AcDbMText
 10
206.2476560115
 20
155.93854153
 30
0.1
 40
2.0
 41
0.0
 71
     1
 72
     1
  1

  7
SLDTEXTSTYLE0
 73
     1
 44
1.0
  0
MTEXT
  5
1EC
330
1E2
100
AcDbEntity
  8
VERMASSUNG
100
AcDbMText
 10
206.2601563013
 20
155.4440076672
 30
0.1
 40
1.5
 41
0.0
 71
     1
 72
     1
  1
±0.1
  7
SLDTEXTSTYLE0
 73
     1
 44
1.0
  0
ENDBLK
  5
1E4
330
1E2
100
AcDbEntity
  8
0
100
AcDbBlockEnd
  0
BLOCK
  5
1EF
330
1EE
100
AcDbEntity
  8
0
100
AcDbBlockBegin
  2
_D_2
 70
     0
 10
0.0
 20
0.0
 30
0.0
  3
_D_2
  1

  0
SOLID
  5
1F1
330
1EE
100
AcDbEntity
  8
VERMASSUNG
100
AcDbTrace
 10
238.5116351069
 20
136.8530441766
 30
0.0
 11
238.0616351069
 21
133.8530441766
 31
0.0
 12
238.9616351069
 22
133.8530441766
 32
0.0
 13
238.9616351069
 23
133.8530441766
 33
0.0
  0
SOLID
  5
1F2
330
1EE
100
AcDbEntity
  8
VERMASSUNG
100
AcDbTrace
 10
238.5116351069
 20
109.8530441766
 30
0.0
 11
238.9616351069
 21
112.8530441766
 31
0.0
 12
238.0616351069
 22
112.8530441766
 32
0.0
 13
238.0616351069
 23
112.8530441766
 33
0.0
  0
LINE
  5
1F3
330
1EE
100
AcDbEntity
  8
VERMASSUNG
100
AcDbLine
 10
230.0101560964
 20
136.8530441766
 30
0.0
 11
239.5116351069
 21
136.8530441766
 31
0.0
  0
LINE
  5
1F4
330
1EE
100
AcDbEntity
  8
VERMASSUNG
100
AcDbLine
 10
230.0101560964
 20
109.8530441766
 30
0.0
 11
239.5116351069
 21
109.8530441766
 31
0.0
  0
LINE
  5
1F5
330
1EE
100
AcDbEntity
  8
VERMASSUNG
100
AcDbLine
 10
238.5116351069
 20
136.8530441766
 30
0.0
 11
238.5116351069
 21
109.8530441766
 31
0.0
  0
MTEXT
  5
1F6
330
1EE
100
AcDbEntity
  8
VERMASSUNG
100
AcDbMText
 10
235.9334997438
 20
118.8030439896
 30
0.1
 40
2.0
 41
0.0
 71
     1
 72
     1
  1
27
  7
SLDTEXTSTYLE0
 11
-7.044195017643634E-15
 21
1.0
 31
0.0
 73
     1
 44
1.0
  0
MTEXT
  5
1F7
330
1EE
100
AcDbEntity
  8
VERMASSUNG
100
AcDbMText
 10
235.9334997438
 20
124.5905440917
 30
0.1
 40
2.0
 41
0.0
 71
     1
 72
     1
  1

  7
SLDTEXTSTYLE0
 11
-7.044195017643634E-15
 21
1.0
 31
0.0
 73
     1
 44
1.0
  0
MTEXT
  5
1F8
330
1EE
100
AcDbEntity
  8
VERMASSUNG
100
AcDbMText
 10
236.4280336065
 20
124.6030443815
 30
0.1
 40
1.5
 41
0.0
 71
     1
 72
     1
  1
±0.1
  7
SLDTEXTSTYLE0
 11
-7.044195017643634E-15
 21
1.0
 31
0.0
 73
     1
 44
1.0
  0
ENDBLK
  5
1F0
330
1EE
100
AcDbEntity
  8
0
100
AcDbBlockEnd
  0
BLOCK
  5
1FC
330
1FB
100
AcDbEntity
  8
0
100
AcDbBlockBegin
  2
_D_3
 70
     0
 10
0.0
 20
0.0
 30
0.0
  3
_D_3
  1

  0
SOLID
  5
1FE
330
1FB
100
AcDbEntity
  8
VERMASSUNG
100
AcDbTrace
 10
156.0101560964
 20
160.0759979465
 30
0.0
 11
159.0101560964
 21
159.6259979465
 31
0.0
 12
159.0101560964
 22
160.5259979465
 32
0.0
 13
159.0101560964
 23
160.5259979465
 33
0.0
  0
SOLID
  5
1FF
330
1FB
100
AcDbEntity
  8
VERMASSUNG
100
AcDbTrace
 10
230.0101560964
 20
160.0759979465
 30
0.0
 11
227.0101560964
 21
160.5259979465
 31
0.0
 12
227.0101560964
 22
159.6259979465
 32
0.0
 13
227.0101560964
 23
159.6259979465
 33
0.0
  0
LINE
  5
200
330
1FB
100
AcDbEntity
  8
VERMASSUNG
100
AcDbLine
 10
156.0101560964
 20
122.4845491587
 30
0.0
 11
156.0101560964
 21
161.0759979465
 31
0.0
  0
LINE
  5
201
330
1FB
100
AcDbEntity
  8
VERMASSUNG
100
AcDbLine
 10
230.0101560964
 20
136.8530441766
 30
0.0
 11
230.0101560964
 21
161.0759979465
 31
0.0
  0
LINE
  5
202
330
1FB
100
AcDbEntity
  8
VERMASSUNG
100
AcDbLine
 10
156.0101560964
 20
160.0759979465
 30
0.0
 11
230.0101560964
 21
160.0759979465
 31
0.0
  0
MTEXT
  5
203
330
1FB
100
AcDbEntity
  8
VERMASSUNG
100
AcDbMText
 10
190.6101559824
 20
162.6541333097
 30
0.1
 40
2.0
 41
0.0
 71
     1
 72
     1
  1
74
  7
SLDTEXTSTYLE0
 73
     1
 44
1.0
  0
ENDBLK
  5
1FD
330
1FB
100
AcDbEntity
  8
0
100
AcDbBlockEnd
  0
BLOCK
  5
206
330
205
100
AcDbEntity
  8
0
100
AcDbBlockBegin
  2
_D_4
 70
     0
 10
0.0
 20
0.0
 30
0.0
  3
_D_4
  1

  0
SOLID
  5
208
330
205
100
AcDbEntity
  8
VERMASSUNG
100
AcDbTrace
 10
149.9521579243
 20
129.8530441766
 30
0.0
 11
149.5021579243
 21
126.8530441766
 31
0.0
 12
150.4021579243
 22
126.8530441766
 32
0.0
 13
150.4021579243
 23
126.8530441766
 33
0.0
  0
SOLID
  5
209
330
205
100
AcDbEntity
  8
VERMASSUNG
100
AcDbTrace
 10
149.9521579243
 20
89.8530441766
 30
0.0
 11
150.4021579243
 21
92.8530441766
 31
0.0
 12
149.5021579243
 22
92.8530441766
 32
0.0
 13
149.5021579243
 23
92.8530441766
 33
0.0
  0
LINE
  5
20A
330
205
100
AcDbEntity
  8
VERMASSUNG
100
AcDbLine
 10
180.3101560964
 20
129.8530441766
 30
0.0
 11
148.9521579243
 21
129.8530441766
 31
0.0
  0
LINE
  5
20B
330
205
100
AcDbEntity
  8
VERMASSUNG
100
AcDbLine
 10
180.3101560964
 20
89.8530441766
 30
0.0
 11
148.9521579243
 21
89.8530441766
 31
0.0
  0
LINE
  5
20C
330
205
100
AcDbEntity
  8
VERMASSUNG
100
AcDbLine
 10
149.9521579243
 20
129.8530441766
 30
0.0
 11
149.9521579243
 21
89.8530441766
 31
0.0
  0
MTEXT
  5
20D
330
205
100
AcDbEntity
  8
VERMASSUNG
100
AcDbMText
 10
147.1740224353
 20
103.3480442373
 30
-2.9879981152
 40
2.0
 41
0.0
 71
     1
 72
     1
  1
PSC
  7
SLDTEXTSTYLE0
 11
-7.044195017643634E-15
 21
1.0
 31
0.0
 73
     1
 44
1.0
  0
MTEXT
  5
20E
330
205
100
AcDbEntity
  8
VERMASSUNG
100
AcDbMText
 10
147.3740224448
 20
107.9480443394
 30
-2.9879981152
 40
2.0
 41
0.0
 71
     1
 72
     1
  1
%%c
  7
SLDTEXTSTYLE0
 11
-7.044195017643634E-15
 21
1.0
 31
0.0
 73
     1
 44
1.0
  0
MTEXT
  5
20F
330
205
100
AcDbEntity
  8
VERMASSUNG
100
AcDbMText
 10
147.1740224353
 20
111.5580448193
 30
-2.9879981152
 40
2.0
 41
0.0
 71
     1
 72
     1
  1
40
  7
SLDTEXTSTYLE0
 11
-7.044195017643634E-15
 21
1.0
 31
0.0
 73
     1
 44
1.0
  0
ENDBLK
  5
207
330
205
100
AcDbEntity
  8
0
100
AcDbBlockEnd
  0
BLOCK
  5
294
330
293
100
AcDbEntity
  8
0
100
AcDbBlockBegin
  2
_D_5
 70
     0
 10
0.0
 20
0.0
 30
0.0
  3
_D_5
  1

  0
SOLID
  5
296
330
293
100
AcDbEntity
  8
VERMASSUNG
100
AcDbTrace
 10
101.2467027618
 20
89.9076120754
 30
0.0
 11
103.0498250538
 21
87.4680936803
 31
0.0
 12
103.6862211569
 22
88.1044897833
 32
0.0
 13
103.6862211569
 23
88.1044897833
 33
0.0
  0
SOLID
  5
297
330
293
100
AcDbEntity
  8
VERMASSUNG
100
AcDbTrace
 10
62.3558297965
 20
128.7984850406
 30
0.0
 11
60.5527075045
 21
131.2380034357
 31
0.0
 12
59.9163114014
 22
130.6016073327
 32
0.0
 13
59.9163114014
 23
130.6016073327
 33
0.0
  0
LINE
  5
298
330
293
100
AcDbEntity
  8
VERMASSUNG
100
AcDbLine
 10
101.2467027618
 20
89.9076120754
 30
0.0
 11
100.5395959806
 21
89.2005052942
 31
0.0
  0
LINE
  5
299
330
293
100
AcDbEntity
  8
VERMASSUNG
100
AcDbLine
 10
62.3558297965
 20
128.7984850406
 30
0.0
 11
61.6487230153
 21
128.0913782594
 31
0.0
  0
LINE
  5
29A
330
293
100
AcDbEntity
  8
VERMASSUNG
100
AcDbLine
 10
101.2467027618
 20
89.9076120754
 30
0.0
 11
105.4893434489
 21
85.6649713883
 31
0.0
  0
LINE
  5
29B
330
293
100
AcDbEntity
  8
VERMASSUNG
100
AcDbLine
 10
101.2467027618
 20
89.9076120754
 30
0.0
 11
62.3558297965
 21
128.7984850406
 31
0.0
  0
LINE
  5
29C
330
293
100
AcDbEntity
  8
VERMASSUNG
100
AcDbLine
 10
62.3558297965
 20
128.7984850406
 30
0.0
 11
49.4076261883
 21
141.7466886489
 31
0.0
  0
MTEXT
  5
29D
330
293
100
AcDbEntity
  8
VERMASSUNG
100
AcDbMText
 10
51.2306432687
 20
143.5697057293
 30
0.1
 40
2.0
 41
0.0
 71
     1
 72
     1
  1
%%c
  7
SLDTEXTSTYLE0
 11
0.707106781186546
 21
-0.7071067811865491
 31
0.0
 73
     1
 44
1.0
  0
MTEXT
  5
29E
330
293
100
AcDbEntity
  8
VERMASSUNG
100
AcDbMText
 10
53.9247201218
 20
141.1584716021
 30
0.1
 40
2.0
 41
0.0
 71
     1
 72
     1
  1
55
  7
SLDTEXTSTYLE0
 11
0.707106781186546
 21
-0.7071067811865491
 31
0.0
 73
     1
 44
1.0
  0
MTEXT
  5
29F
330
293
100
AcDbEntity
  8
VERMASSUNG
100
AcDbMText
 10
58.0171010194
 20
137.0660907045
 30
0.1
 40
2.0
 41
0.0
 71
     1
 72
     1
  1
min.
  7
SLDTEXTSTYLE0
 11
0.707106781186546
 21
-0.7071067811865491
 31
0.0
 73
     1
 44
1.0
  0
ENDBLK
  5
295
330
293
100
AcDbEntity
  8
0
100
AcDbBlockEnd
  0
BLOCK
  5
2A1
330
2A0
100
AcDbEntity
  8
0
100
AcDbBlockBegin
  2
SW_CENTERMARKSYMBOL_0
 70
     0
 10
0.0
 20
0.0
 30
0.0
  3
SW_CENTERMARKSYMBOL_0
  1

  0
LINE
  5
2A3
330
2A0
100
AcDbEntity
  8
VERMASSUNG
 62
     0
100
AcDbLine
 10
0.0
 20
0.0
 30
0.0
 11
0.0
 21
2.5
 31
0.0
  0
LINE
  5
2A4
330
2A0
100
AcDbEntity
  8
VERMASSUNG
 62
     0
100
AcDbLine
 10
0.0
 20
0.0
 30
0.0
 11
-2.5
 21
0.0
 31
0.0
  0
LINE
  5
2A5
330
2A0
100
AcDbEntity
  8
VERMASSUNG
 62
     0
100
AcDbLine
 10
0.0
 20
0.0
 30
0.0
 11
0.0
 21
-2.5
 31
0.0
  0
LINE
  5
2A6
330
2A0
100
AcDbEntity
  8
VERMASSUNG
 62
     0
100
AcDbLine
 10
0.0
 20
0.0
 30
0.0
 11
2.5
 21
0.0
 31
0.0
  0
LINE
  5
2A7
330
2A0
100
AcDbEntity
  8
VERMASSUNG
 62
     0
100
AcDbLine
 10
0.0
 20
5.0
 30
0.0
 11
0.0
 21
31.4628701512
 31
0.0
  0
LINE
  5
2A8
330
2A0
100
AcDbEntity
  8
VERMASSUNG
 62
     0
100
AcDbLine
 10
-5.0
 20
0.0
 30
0.0
 11
-23.0
 21
0.0
 31
0.0
  0
LINE
  5
2A9
330
2A0
100
AcDbEntity
  8
VERMASSUNG
 62
     0
100
AcDbLine
 10
0.0
 20
-5.0
 30
0.0
 11
0.0
 21
-23.0
 31
0.0
  0
LINE
  5
2AA
330
2A0
100
AcDbEntity
  8
VERMASSUNG
 62
     0
100
AcDbLine
 10
5.0
 20
0.0
 30
0.0
 11
23.0
 21
0.0
 31
0.0
  0
ENDBLK
  5
2A2
330
2A0
100
AcDbEntity
  8
0
100
AcDbBlockEnd
  0
ENDSEC
  0
SECTION
  2
ENTITIES
  0
MTEXT
  5
49
330
1F
100
AcDbEntity
  8
KOPF_DÜNN
100
AcDbMText
 10
13.8892156294
 20
23.8442973028
 30
0.0
 40
3.0
 41
0.0
 71
     1
 72
     1
  1
PS4.KVD.RPA.050
  7
SLDTEXTSTYLE0
 73
     1
 44
1.0
  0
MTEXT
  5
4A
330
1F
100
AcDbEntity
  8
VERMASSUNG
100
AcDbMText
 10
13.9329988022
 20
28.8834360957
 30
0.0
 40
3.0
 41
0.0
 71
     1
 72
     1
  1
Klemmhalter rechts_Turning tool right 117.5° /35°
  7
SLDTEXTSTYLE0
 73
     1
 44
1.0
  0
MTEXT
  5
4B
330
1F
100
AcDbEntity
  8
VERMASSUNG
100
AcDbMText
 10
98.8601118557
 20
13.8365368179
 30
0.0
 40
2.0
 41
0.0
 71
     1
 72
     1
  1
Datum: 24.05.2012
  7
SLDTEXTSTYLE0
 73
     1
 44
1.0
  0
MTEXT
  5
4C
330
1F
100
AcDbEntity
  8
VERMASSUNG
100
AcDbMText
 10
13.933048693
 20
18.0482802738
 30
0.0
 40
2.0
 41
0.0
 71
     1
 72
     1
  1
PSC ø40 / VN..16 04..
  7
SLDTEXTSTYLE0
 73
     1
 44
1.0
  0
MTEXT
  5
4D
330
1F
100
AcDbEntity
  8
VERMASSUNG
100
AcDbMText
 10
13.9808475933
 20
13.9090973692
 30
0.0
 40
2.0
 41
0.0
 71
     1
 72
     1
  1
Gewicht: 434g
  7
SLDTEXTSTYLE0
 73
     1
 44
1.0
  0
ARC
  5
4E
330
1F
100
AcDbEntity
  8
0
  6
Continuous
 62
     7
370
    15
100
AcDbCircle
 10
180.3101560964
 20
90.1530441766
 30
0.0
 40
0.3000000000000114
100
AcDbArc
 50
180.0
 51
270.0
  0
ARC
  5
4F
330
1F
100
AcDbEntity
  8
0
  6
Continuous
 62
     7
370
    15
100
AcDbCircle
 10
180.3101560964
 20
129.5530441766
 30
0.0
 40
0.3000000000000114
100
AcDbArc
 50
90.0
 51
180.0
  0
LINE
  5
50
330
1F
100
AcDbEntity
  8
0
  6
Continuous
 62
     7
370
    15
100
AcDbLine
 10
202.242828296
 20
129.8530437296
 30
0.0
 11
180.3101561107
 21
129.8530437296
 31
0.0
  0
LINE
  5
51
330
1F
100
AcDbEntity
  8
0
  6
Continuous
 62
     7
370
    15
100
AcDbLine
 10
180.3101561107
 20
89.8530446237
 30
0.0
 11
202.242828296
 21
89.8530446237
 31
0.0
  0
LWPOLYLINE
  5
52
330
1F
100
AcDbEntity
  8
0
  6
Continuous
 62
     7
370
    15
100
AcDbPolyline
 90
        3
 70
   128
 43
0.0
 10
179.8101561015
 20
95.7632242014
 10
179.9356110367
 20
95.6949219351
 10
180.0101560964
 20
95.6421839317
  0
LWPOLYLINE
  5
53
330
1F
100
AcDbEntity
  8
0
  6
Continuous
 62
     7
370
    15
100
AcDbPolyline
 90
        3
 70
   128
 43
0.0
 10
180.0101560964
 20
124.0639044216
 10
179.9356110367
 20
124.0111664181
 10
179.8101561015
 20
123.9428641518
  0
ARC
  5
54
330
1F
100
AcDbEntity
  8
0
  6
Continuous
 62
     7
370
    15
100
AcDbCircle
 10
202.2428291085
 20
130.8530441766
 30
0.0
 40
1.000000000000003
100
AcDbArc
 50
270.0
 51
345.0
  0
ARC
  5
55
330
1F
100
AcDbEntity
  8
0
  6
Continuous
 62
     7
370
    15
100
AcDbCircle
 10
202.2428291085
 20
88.8530441766
 30
0.0
 40
1.000000000000008
100
AcDbArc
 50
30.0
 51
90.0
  0
LINE
  5
56
330
1F
100
AcDbEntity
  8
0
  6
Continuous
 62
     7
370
    15
100
AcDbLine
 10
203.1088539823
 20
89.3530436104
 30
0.0
 11
209.4636814161
 21
89.3530436104
 31
0.0
  0
LINE
  5
57
330
1F
100
AcDbEntity
  8
0
  6
Continuous
 62
     7
370
    15
100
AcDbLine
 10
203.2678083941
 20
130.8146137988
 30
0.0
 11
203.2087550922
 21
130.5942256247
 31
0.0
  0
LINE
  5
58
330
1F
100
AcDbEntity
  8
0
  6
Continuous
 62
     7
370
    15
100
AcDbLine
 10
213.9203151181
 20
106.9442697579
 30
0.0
 11
214.9623421445
 21
108.1729475653
 31
0.0
  0
LINE
  5
59
330
1F
100
AcDbEntity
  8
0
  6
Continuous
 62
     7
370
    15
100
AcDbLine
 10
212.6743619754
 20
110.1133491564
 30
0.0
 11
211.636145921
 21
108.8891610514
 31
0.0
  0
LINE
  5
5A
330
1F
100
AcDbEntity
  8
0
  6
Continuous
 62
     7
370
    15
100
AcDbLine
 10
212.9387570038
 20
120.6722762679
 30
0.0
 11
212.5914593651
 21
120.2627700066
 31
0.0
  0
LINE
  5
5B
330
1F
100
AcDbEntity
  8
0
  6
Continuous
 62
     7
370
    15
100
AcDbLine
 10
221.3620406999
 20
112.8245636599
 30
0.0
 11
221.7093383386
 21
113.2340696884
 31
0.0
  0
LINE
  5
5C
330
1F
100
AcDbEntity
  8
0
  6
Continuous
 62
     7
370
    15
100
AcDbLine
 10
211.4644882693
 20
120.8665175607
 30
0.0
 11
210.6671979143
 21
119.9264116829
 31
0.0
  0
LINE
  5
5D
330
1F
100
AcDbEntity
  8
0
  6
Continuous
 62
     7
370
    15
100
AcDbLine
 10
221.3444275274
 20
110.8712043158
 30
0.0
 11
222.1417178824
 21
111.8113098444
 31
0.0
  0
LINE
  5
5E
330
1F
100
AcDbEntity
  8
0
  6
Continuous
 62
     7
370
    15
100
AcDbLine
 10
217.0877282932
 20
101.1734176671
 30
0.0
 11
218.1987588718
 21
102.483459307
 31
0.0
  0
LINE
  5
5F
330
1F
100
AcDbEntity
  8
0
  6
Continuous
 62
     7
370
    15
100
AcDbLine
 10
213.882458718
 20
125.6567761546
 30
0.0
 11
213.0174761131
 21
124.6368559321
 31
0.0
  0
LINE
  5
60
330
1F
100
AcDbEntity
  8
0
  6
Continuous
 62
     7
370
    15
100
AcDbLine
 10
223.3135861769
 20
127.9255133366
 30
0.0
 11
218.5988848521
 21
129.9903355783
 31
0.0
  0
LINE
  5
61
330
1F
100
AcDbEntity
  8
0
  6
Continuous
 62
     7
370
    15
100
AcDbLine
 10
216.2489270284
 20
129.9143731838
 30
0.0
 11
216.1672016098
 21
129.8180073743
 31
0.0
  0
LINE
  5
62
330
1F
100
AcDbEntity
  8
0
  6
Continuous
 62
     7
370
    15
100
AcDbLine
 10
180.0101560964
 20
90.1530441141
 30
0.0
 11
180.0101560964
 21
129.5530442392
 31
0.0
  0
SPLINE
  5
63
330
1F
100
AcDbEntity
  8
0
  6
Continuous
 62
     7
370
    15
100
AcDbSpline
210
0.0
220
0.0
230
1.0
 70
     8
 71
     3
 72
    10
 73
     6
 74
     0
 42
0.00000001
 43
0.00000001
 12
1.0
 22
0.0
 32
0.0
 13
1.0
 23
0.0
 33
0.0
 40
0.0
 40
0.0
 40
0.0
 40
0.0
 40
0.5
 40
0.5
 40
1.0
 40
1.0
 40
1.0
 40
1.0
 10
201.8782473631842
 20
128.5896243869268
 30
0.0
 10
201.9037139159035
 20
128.6290309981806
 30
0.0
 10
201.9460673324481
 20
128.6652714225165
 30
0.0
 10
202.0691444866523
 20
128.730737854658
 30
0.0
 10
202.1475443368013
 20
128.7585167435033
 30
0.0
 10
202.2428291084575
 20
128.779796043448
 30
0.0
  0
ELLIPSE
  5
64
330
1F
100
AcDbEntity
  8
0
  6
Continuous
 62
     7
370
    15
100
AcDbEllipse
 10
204.7556018732
 20
109.8530441766
 30
0.0
 11
-1.195939561569929
 21
19.99755988885701
 31
0.0
210
0.0
220
0.0
230
1.0
 40
0.2612235458
 41
0.3417234187989308
 42
2.349748186449412
  0
SPLINE
  5
65
330
1F
100
AcDbEntity
  8
0
  6
Continuous
 62
     7
370
    15
100
AcDbSpline
210
0.0
220
0.0
230
1.0
 70
     8
 71
     3
 72
     8
 73
     4
 74
     0
 42
0.00000001
 43
0.00000001
 12
1.0
 22
0.0
 32
0.0
 13
1.0
 23
0.0
 33
0.0
 40
0.0
 40
0.0
 40
0.0
 40
0.0
 40
1.0
 40
1.0
 40
1.0
 40
1.0
 10
202.2428291084575
 20
95.19157702177958
 30
0.0
 10
202.0523571515199
 20
95.28109806996576
 30
0.0
 10
201.9291605653466
 20
95.42396228404532
 30
0.0
 10
201.8782473631842
 20
95.58175558252583
 30
0.0
  0
SPLINE
  5
66
330
1F
100
AcDbEntity
  8
0
  6
Continuous
 62
     7
370
    15
100
AcDbSpline
210
0.0
220
0.0
230
1.0
 70
     8
 71
     3
 72
    12
 73
     8
 74
     0
 42
0.00000001
 43
0.00000001
 12
1.0
 22
0.0
 32
0.0
 13
1.0
 23
0.0
 33
0.0
 40
0.0
 40
0.0
 40
0.0
 40
0.0
 40
0.5
 40
0.5
 40
0.75
 40
0.75
 40
1.0
 40
1.0
 40
1.0
 40
1.0
 10
186.6822504773004
 20
90.81828789345624
 30
0.0
 10
186.7010537101521
 20
90.79636589519518
 30
0.0
 10
186.7265903691713
 20
90.77547208718524
 30
0.0
 10
186.7868165431197
 20
90.74774536106747
 30
0.0
 10
186.8107426205197
 20
90.73917222769201
 30
0.0
 10
186.868803540701
 20
90.72599312188449
 30
0.0
 10
186.9046052393269
 20
90.7213877964048
 30
0.0
 10
186.9420580984357
 20
90.7213877964048
 30
0.0
  0
LINE
  5
67
330
1F
100
AcDbEntity
  8
0
  6
Continuous
 62
     7
370
    15
100
AcDbLine
 10
186.9420580058
 20
90.7213874405
 30
0.0
 11
189.0782540157
 21
90.7213874405
 31
0.0
  0
SPLINE
  5
68
330
1F
100
AcDbEntity
  8
0
  6
Continuous
 62
     7
370
    15
100
AcDbSpline
210
0.0
220
0.0
230
1.0
 70
     8
 71
     3
 72
    12
 73
     8
 74
     0
 42
0.00000001
 43
0.00000001
 12
1.0
 22
0.0
 32
0.0
 13
1.0
 23
0.0
 33
0.0
 40
0.0
 40
0.0
 40
0.0
 40
0.0
 40
0.2499999999999988
 40
0.2499999999999988
 40
0.4999999999999977
 40
0.4999999999999977
 40
1.0
 40
1.0
 40
1.0
 40
1.0
 10
189.0782540944373
 20
90.7213877964048
 30
0.0
 10
189.1157549173151
 20
90.7213877964048
 30
0.0
 10
189.1510333213511
 20
90.72588876426796
 30
0.0
 10
189.2099510414034
 20
90.73925528548527
 30
0.0
 10
189.2334744228018
 20
90.7477365457301
 30
0.0
 10
189.2937300072678
 20
90.77547394140802
 30
0.0
 10
189.3192516596789
 20
90.79635794046109
 30
0.0
 10
189.3380617155726
 20
90.81828789345624
 30
0.0
  0
ELLIPSE
  5
69
330
1F
100
AcDbEntity
  8
0
  6
Continuous
 62
     7
370
    15
100
AcDbEllipse
 10
179.061226924
 20
109.8530441766
 30
0.0
 11
-9.367417879781783
 21
19.74174915274995
 31
0.0
210
0.0
220
0.0
230
1.0
 40
0.3419987131
 41
3.292664382516894
 42
4.239566697060998
  0
SPLINE
  5
6A
330
1F
100
AcDbEntity
  8
0
  6
Continuous
 62
     7
370
    15
100
AcDbSpline
210
0.0
220
0.0
230
1.0
 70
     8
 71
     3
 72
    12
 73
     8
 74
     0
 42
0.00000001
 43
0.00000001
 12
1.0
 22
0.0
 32
0.0
 13
1.0
 23
0.0
 33
0.0
 40
0.0
 40
0.0
 40
0.0
 40
0.0
 40
0.5
 40
0.5
 40
0.75
 40
0.75
 40
1.0
 40
1.0
 40
1.0
 40
1.0
 10
189.3380617155726
 20
103.714799049579
 30
0.0
 10
189.319258482721
 20
103.7827793738414
 30
0.0
 10
189.2937218237018
 20
103.8488697616383
 30
0.0
 10
189.2334956497533
 20
103.9379343740854
 30
0.0
 10
189.2095695723534
 20
103.9657354611053
 30
0.0
 10
189.151508652172
 20
104.0086945343302
 30
0.0
 10
189.1157069535461
 20
104.0238311809864
 30
0.0
 10
189.0782540944373
 20
104.0238311809864
 30
0.0
  0
LINE
  5
6B
330
1F
100
AcDbEntity
  8
0
  6
Continuous
 62
     7
370
    15
100
AcDbLine
 10
189.0782540157
 20
104.0238309895
 30
0.0
 11
186.9420580058
 21
104.0238309895
 31
0.0
  0
SPLINE
  5
6C
330
1F
100
AcDbEntity
  8
0
  6
Continuous
 62
     7
370
    15
100
AcDbSpline
210
0.0
220
0.0
230
1.0
 70
     8
 71
     3
 72
    12
 73
     8
 74
     0
 42
0.00000001
 43
0.00000001
 12
1.0
 22
0.0
 32
0.0
 13
1.0
 23
0.0
 33
0.0
 40
0.0
 40
0.0
 40
0.0
 40
0.0
 40
0.2499999999999992
 40
0.2499999999999992
 40
0.4999999999999984
 40
0.4999999999999984
 40
1.0
 40
1.0
 40
1.0
 40
1.0
 10
186.9420580984357
 20
104.0238311809864
 30
0.0
 10
186.9045572755579
 20
104.0238311809864
 30
0.0
 10
186.869278871522
 20
104.0090348432334
 30
0.0
 10
186.8103611514696
 20
103.9654645820742
 30
0.0
 10
186.7868377700712
 20
103.9379627835727
 30
0.0
 10
186.7265821856053
 20
103.8488636203296
 30
0.0
 10
186.7010605331942
 20
103.7828040415472
 30
0.0
 10
186.6822504773004
 20
103.714799049579
 30
0.0
  0
ELLIPSE
  5
6D
330
1F
100
AcDbEntity
  8
0
  6
Continuous
 62
     7
370
    15
100
AcDbEllipse
 10
196.9590852689
 20
109.8530441766
 30
0.0
 11
9.367417879781669
 21
19.74174915274995
 31
0.0
210
0.0
220
0.0
230
1.0
 40
0.3419987131
 41
2.043618610118598
 42
2.990520924662734
  0
SPLINE
  5
6E
330
1F
100
AcDbEntity
  8
0
  6
Continuous
 62
     7
370
    15
100
AcDbSpline
210
0.0
220
0.0
230
1.0
 70
     8
 71
     3
 72
    12
 73
     8
 74
     0
 42
0.00000001
 43
0.00000001
 12
1.0
 22
0.0
 32
0.0
 13
1.0
 23
0.0
 33
0.0
 40
0.0
 40
0.0
 40
0.0
 40
0.0
 40
0.4999999999999971
 40
0.4999999999999971
 40
0.7499999999999986
 40
0.7499999999999986
 40
1.0
 40
1.0
 40
1.0
 40
1.0
 10
186.6822504773004
 20
115.9912893036971
 30
0.0
 10
186.7009437104308
 20
115.9237066672568
 30
0.0
 10
186.7265990078426
 20
115.8572240977793
 30
0.0
 10
186.786759630529
 20
115.7682290148818
 30
0.0
 10
186.8108319422834
 20
115.7402271178826
 30
0.0
 10
186.869213462634
 20
115.6971507172175
 30
0.0
 10
186.904682290287
 20
115.6822571722897
 30
0.0
 10
186.9420580984357
 20
115.6822571722897
 30
0.0
  0
LINE
  5
6F
330
1F
100
AcDbEntity
  8
0
  6
Continuous
 62
     7
370
    15
100
AcDbLine
 10
186.9420580058
 20
115.6822573637
 30
0.0
 11
189.0782540157
 21
115.6822573637
 31
0.0
  0
SPLINE
  5
70
330
1F
100
AcDbEntity
  8
0
  6
Continuous
 62
     7
370
    15
100
AcDbSpline
210
0.0
220
0.0
230
1.0
 70
     8
 71
     3
 72
    12
 73
     8
 74
     0
 42
0.00000001
 43
0.00000001
 12
1.0
 22
0.0
 32
0.0
 13
1.0
 23
0.0
 33
0.0
 40
0.0
 40
0.0
 40
0.0
 40
0.0
 40
0.2500000000000016
 40
0.2500000000000016
 40
0.5000000000000032
 40
0.5000000000000032
 40
1.0
 40
1.0
 40
1.0
 40
1.0
 10
189.0782540944373
 20
115.6822571722897
 30
0.0
 10
189.115765980482
 20
115.6822571722897
 30
0.0
 10
189.1510533281867
 20
115.6970619865765
 30
0.0
 10
189.2099831764251
 20
115.7406538597023
 30
0.0
 10
189.2335089028942
 20
115.7681672857883
 30
0.0
 10
189.2937676906623
 20
115.8572990179019
 30
0.0
 10
189.3193624529516
 20
115.9236848685197
 30
0.0
 10
189.3380617155726
 20
115.9912893036971
 30
0.0
  0
ELLIPSE
  5
71
330
1F
100
AcDbEntity
  8
0
  6
Continuous
 62
     7
370
    15
100
AcDbEllipse
 10
179.061226924
 20
109.8530441766
 30
0.0
 11
9.367417879781698
 21
19.74174915274995
 31
0.0
210
0.0
220
0.0
230
1.0
 40
0.3419987131
 41
5.185211263708394
 42
6.132113578252552
  0
SPLINE
  5
72
330
1F
100
AcDbEntity
  8
0
  6
Continuous
 62
     7
370
    15
100
AcDbSpline
210
0.0
220
0.0
230
1.0
 70
     8
 71
     3
 72
    12
 73
     8
 74
     0
 42
0.00000001
 43
0.00000001
 12
1.0
 22
0.0
 32
0.0
 13
1.0
 23
0.0
 33
0.0
 40
0.0
 40
0.0
 40
0.0
 40
0.0
 40
0.4999999999999971
 40
0.4999999999999971
 40
0.7499999999999986
 40
0.7499999999999986
 40
1.0
 40
1.0
 40
1.0
 40
1.0
 10
189.3380617155726
 20
128.8878004598201
 30
0.0
 10
189.3193684824422
 20
128.909594213448
 30
0.0
 10
189.2937131850305
 20
128.9306143751577
 30
0.0
 10
189.233552562344
 20
128.9583197211214
 30
0.0
 10
189.2094802505896
 20
128.9669549373148
 30
0.0
 10
189.1510987302391
 20
128.9801695825414
 30
0.0
 10
189.1156299025861
 20
128.9847005568715
 30
0.0
 10
189.0782540944373
 20
128.9847005568715
 30
0.0
  0
LINE
  5
73
330
1F
100
AcDbEntity
  8
0
  6
Continuous
 62
     7
370
    15
100
AcDbLine
 10
189.0782540157
 20
128.9847009128
 30
0.0
 11
186.9420580058
 21
128.9847009128
 31
0.0
  0
SPLINE
  5
74
330
1F
100
AcDbEntity
  8
0
  6
Continuous
 62
     7
370
    15
100
AcDbSpline
210
0.0
220
0.0
230
1.0
 70
     8
 71
     3
 72
    12
 73
     8
 74
     0
 42
0.00000001
 43
0.00000001
 12
1.0
 22
0.0
 32
0.0
 13
1.0
 23
0.0
 33
0.0
 40
0.0
 40
0.0
 40
0.0
 40
0.0
 40
0.2500000000000007
 40
0.2500000000000007
 40
0.5000000000000013
 40
0.5000000000000013
 40
1.0
 40
1.0
 40
1.0
 40
1.0
 10
186.9420580984357
 20
128.9847005568715
 30
0.0
 10
186.904546212391
 20
128.9847005568715
 30
0.0
 10
186.8692588646863
 20
128.980197012609
 30
0.0
 10
186.8103290164479
 20
128.9668238131557
 30
0.0
 10
186.7868032899788
 20
128.9583389105846
 30
0.0
 10
186.7265445022107
 20
128.93059110675
 30
0.0
 10
186.7009497399214
 20
128.9096012430096
 30
0.0
 10
186.6822504773004
 20
128.8878004598201
 30
0.0
  0
ELLIPSE
  5
75
330
1F
100
AcDbEntity
  8
0
  6
Continuous
 62
     7
370
    15
100
AcDbEllipse
 10
196.9590852689
 20
109.8530441766
 30
0.0
 11
-9.367417879781556
 21
19.74174915274995
 31
0.0
210
0.0
220
0.0
230
1.0
 40
0.3419987131
 41
0.151071728927077
 42
1.097974043471209
  0
SPLINE
  5
76
330
1F
100
AcDbEntity
  8
0
  6
Continuous
 62
     7
370
    15
100
AcDbSpline
210
0.0
220
0.0
230
1.0
 70
     8
 71
     3
 72
    18
 73
    14
 74
     0
 42
0.00000001
 43
0.00000001
 12
1.0
 22
0.0
 32
0.0
 13
1.0
 23
0.0
 33
0.0
 40
0.0
 40
0.0
 40
0.0
 40
0.0
 40
0.2499999999999997
 40
0.2499999999999997
 40
0.4999999999999993
 40
0.4999999999999993
 40
0.6249999999999994
 40
0.6249999999999994
 40
0.7499999999999997
 40
0.7499999999999997
 40
0.8749999999999998
 40
0.8749999999999998
 40
1.0
 40
1.0
 40
1.0
 40
1.0
 10
178.7540717788725
 20
96.02185579395932
 30
0.0
 10
178.7883685983243
 20
96.02099413847748
 30
0.0
 10
178.8261798783015
 20
96.02124574157243
 30
0.0
 10
178.9127522454815
 20
96.02364425418428
 30
0.0
 10
178.9610913755644
 20
96.0258152389162
 30
0.0
 10
179.0503637328868
 20
96.02991011721141
 30
0.0
 10
179.0829051986628
 20
96.03141473516104
 30
0.0
 10
179.1590813985162
 20
96.03437779312915
 30
0.0
 10
179.2022974585107
 20
96.03586513138492
 30
0.0
 10
179.3079867604767
 20
96.03749054270862
 30
0.0
 10
179.3729578191912
 20
96.03744830163471
 30
0.0
 10
179.5066182075491
 20
96.0334261283137
 30
0.0
 10
179.5659246608853
 20
96.0298849014902
 30
0.0
 10
179.6151792075612
 20
96.02631819405411
 30
0.0
  0
SPLINE
  5
77
330
1F
100
AcDbEntity
  8
0
  6
Continuous
 62
     7
370
    15
100
AcDbSpline
210
0.0
220
0.0
230
1.0
 70
     8
 71
     3
 72
    14
 73
    10
 74
     0
 42
0.00000001
 43
0.00000001
 12
1.0
 22
0.0
 32
0.0
 13
1.0
 23
0.0
 33
0.0
 40
0.0
 40
0.0
 40
0.0
 40
0.0
 40
0.1250000000000001
 40
0.1250000000000001
 40
0.2500000000000002
 40
0.2500000000000002
 40
0.5000000000000001
 40
0.5000000000000001
 40
1.0
 40
1.0
 40
1.0
 40
1.0
 10
179.6151792075304
 20
96.02631819407307
 30
0.0
 10
179.6267059852478
 20
96.02548349663904
 30
0.0
 10
179.6400587929002
 20
96.02374308235889
 30
0.0
 10
179.6702013655005
 20
96.01649549235856
 30
0.0
 10
179.685261891115
 20
96.0111484581306
 30
0.0
 10
179.7206082450433
 20
95.99540118790215
 30
0.0
 10
179.7343403447722
 20
95.98556291374086
 30
0.0
 10
179.7677115904633
 20
95.95935892779036
 30
0.0
 10
179.7786519583173
 20
95.94527102638978
 30
0.0
 10
179.7873050833306
 20
95.93249740290142
 30
0.0
  0
LINE
  5
78
330
1F
100
AcDbEntity
  8
0
  6
Continuous
 62
     7
370
    15
100
AcDbLine
 10
179.8101561015
 20
104.347599229
 30
0.0
 11
179.8101561015
 21
95.7632242014
 31
0.0
  0
SPLINE
  5
79
330
1F
100
AcDbEntity
  8
0
  6
Continuous
 62
     7
370
    15
100
AcDbSpline
210
0.0
220
0.0
230
1.0
 70
     8
 71
     3
 72
    16
 73
    12
 74
     0
 42
0.00000001
 43
0.00000001
 12
1.0
 22
0.0
 32
0.0
 13
1.0
 23
0.0
 33
0.0
 40
0.0
 40
0.0
 40
0.0
 40
0.0
 40
0.4999999999999994
 40
0.4999999999999994
 40
0.7499999999999987
 40
0.7499999999999987
 40
0.8749999999999981
 40
0.8749999999999981
 40
0.9374999999999991
 40
0.9374999999999991
 40
1.0
 40
1.0
 40
1.0
 40
1.0
 10
179.8101560964365
 20
104.3475994096753
 30
0.0
 10
179.8101560964365
 20
104.4651747906948
 30
0.0
 10
179.8062726712776
 20
104.583870543796
 30
0.0
 10
179.7814573460029
 20
104.7646280217885
 30
0.0
 10
179.7706178982904
 20
104.8262720985615
 30
0.0
 10
179.7374021162416
 20
104.9156090729028
 30
0.0
 10
179.7240203726128
 20
104.9458686043279
 30
0.0
 10
179.6885107227506
 20
104.9793848483153
 30
0.0
 10
179.6730937562498
 20
104.9875231941214
 30
0.0
 10
179.6413927341012
 20
104.98750778469
 30
0.0
 10
179.6272464491504
 20
104.9804655473342
 30
0.0
 10
179.6151792075608
 20
104.9713244837246
 30
0.0
  0
SPLINE
  5
7A
330
1F
100
AcDbEntity
  8
0
  6
Continuous
 62
     7
370
    15
100
AcDbSpline
210
0.0
220
0.0
230
1.0
 70
     8
 71
     3
 72
    18
 73
    14
 74
     0
 42
0.00000001
 43
0.00000001
 12
1.0
 22
0.0
 32
0.0
 13
1.0
 23
0.0
 33
0.0
 40
0.0
 40
0.0
 40
0.0
 40
0.0
 40
0.1250000000000003
 40
0.1250000000000003
 40
0.2500000000000006
 40
0.2500000000000006
 40
0.3750000000000009
 40
0.3750000000000009
 40
0.5000000000000012
 40
0.5000000000000012
 40
0.7500000000000006
 40
0.7500000000000006
 40
1.0
 40
1.0
 40
1.0
 40
1.0
 10
179.6151792075669
 20
104.9713244837173
 30
0.0
 10
179.566474623879
 20
104.9344302445268
 30
0.0
 10
179.5079661411035
 20
104.9048989401008
 30
0.0
 10
179.3762393258336
 20
104.895662966822
 30
0.0
 10
179.3114812543361
 20
104.9187261413789
 30
0.0
 10
179.2062706521854
 20
104.9862442630264
 30
0.0
 10
179.1630545036653
 20
105.0292553596769
 30
0.0
 10
179.0868761875814
 20
105.119497381673
 30
0.0
 10
179.0540213552901
 20
105.1671282631483
 30
0.0
 10
178.9636534493292
 20
105.3141925624978
 30
0.0
 10
178.9142307914896
 20
105.4181058878024
 30
0.0
 10
178.826579665898
 20
105.6292398514427
 30
0.0
 10
178.7885181185074
 20
105.7369625962015
 30
0.0
 10
178.7540717788735
 20
105.8462957121109
 30
0.0
  0
SPLINE
  5
7B
330
1F
100
AcDbEntity
  8
0
  6
Continuous
 62
     7
370
    15
100
AcDbSpline
210
0.0
220
0.0
230
1.0
 70
     8
 71
     3
 72
     8
 73
     4
 74
     0
 42
0.00000001
 43
0.00000001
 12
1.0
 22
0.0
 32
0.0
 13
1.0
 23
0.0
 33
0.0
 40
0.0
 40
0.0
 40
0.0
 40
0.0
 40
1.0
 40
1.0
 40
1.0
 40
1.0
 10
178.6888357528768
 20
106.0814994862398
 30
0.0
 10
178.7082619581757
 20
106.001907214667
 30
0.0
 10
178.7297587826042
 20
105.9234654685343
 30
0.0
 10
178.7540717788735
 20
105.8462957121109
 30
0.0
  0
SPLINE
  5
7C
330
1F
100
AcDbEntity
  8
0
  6
Continuous
 62
     7
370
    15
100
AcDbSpline
210
0.0
220
0.0
230
1.0
 70
     8
 71
     3
 72
     8
 73
     4
 74
     0
 42
0.00000001
 43
0.00000001
 12
1.0
 22
0.0
 32
0.0
 13
1.0
 23
0.0
 33
0.0
 40
0.0
 40
0.0
 40
0.0
 40
0.0
 40
1.0
 40
1.0
 40
1.0
 40
1.0
 10
178.7540717788735
 20
113.8597926411655
 30
0.0
 10
178.7297587826042
 20
113.7826228847421
 30
0.0
 10
178.7082619581757
 20
113.7041811386094
 30
0.0
 10
178.6888357528768
 20
113.6245888670366
 30
0.0
  0
SPLINE
  5
7D
330
1F
100
AcDbEntity
  8
0
  6
Continuous
 62
     7
370
    15
100
AcDbSpline
210
0.0
220
0.0
230
1.0
 70
     8
 71
     3
 72
    18
 73
    14
 74
     0
 42
0.00000001
 43
0.00000001
 12
1.0
 22
0.0
 32
0.0
 13
1.0
 23
0.0
 33
0.0
 40
0.0
 40
0.0
 40
0.0
 40
0.0
 40
0.2499999999999993
 40
0.2499999999999993
 40
0.4999999999999987
 40
0.4999999999999987
 40
0.624999999999999
 40
0.624999999999999
 40
0.7499999999999993
 40
0.7499999999999993
 40
0.8749999999999997
 40
0.8749999999999997
 40
1.0
 40
1.0
 40
1.0
 40
1.0
 10
178.7540717788735
 20
113.8597926411654
 30
0.0
 10
178.7883700978862
 20
113.9686559377585
 30
0.0
 10
178.8261844951982
 20
114.0756633609948
 30
0.0
 10
178.9127725562717
 20
114.2846981851331
 30
0.0
 10
178.9611226619504
 20
114.3868682791226
 30
0.0
 10
179.0504392507502
 20
114.5335490506874
 30
0.0
 10
179.0829996062385
 20
114.5813507492229
 30
0.0
 10
179.1592452399674
 20
114.6729062872483
 30
0.0
 10
179.2024046097474
 20
114.7165856792402
 30
0.0
 10
179.3081334337655
 20
114.7859398965668
 30
0.0
 10
179.3731306108201
 20
114.8100562102328
 30
0.0
 10
179.5066151007744
 20
114.8018519881945
 30
0.0
 10
179.5659424942199
 20
114.7720612026026
 30
0.0
 10
179.6151792075612
 20
114.7347638695515
 30
0.0
  0
SPLINE
  5
7E
330
1F
100
AcDbEntity
  8
0
  6
Continuous
 62
     7
370
    15
100
AcDbSpline
210
0.0
220
0.0
230
1.0
 70
     8
 71
     3
 72
    16
 73
    12
 74
     0
 42
0.00000001
 43
0.00000001
 12
1.0
 22
0.0
 32
0.0
 13
1.0
 23
0.0
 33
0.0
 40
0.0
 40
0.0
 40
0.0
 40
0.0
 40
0.062499999999999
 40
0.062499999999999
 40
0.1249999999999979
 40
0.1249999999999979
 40
0.2499999999999982
 40
0.2499999999999982
 40
0.4999999999999988
 40
0.4999999999999988
 40
1.0
 40
1.0
 40
1.0
 40
1.0
 10
179.6151792075304
 20
114.7347638695032
 30
0.0
 10
179.6272490408063
 20
114.7256208426573
 30
0.0
 10
179.6415246957396
 20
114.7185763949661
 30
0.0
 10
179.672989107864
 20
114.7185693230675
 30
0.0
 10
179.6884896326744
 20
114.7266972918645
 30
0.0
 10
179.7239285292813
 20
114.7601057528716
 30
0.0
 10
179.7375211453846
 20
114.7907729193338
 30
0.0
 10
179.7705154637775
 20
114.8795939134156
 30
0.0
 10
179.7813028570963
 20
114.9404965589635
 30
0.0
 10
179.8063561043754
 20
115.1225046363418
 30
0.0
 10
179.8101560964366
 20
115.2411933513805
 30
0.0
 10
179.8101560964367
 20
115.358488943601
 30
0.0
  0
LINE
  5
7F
330
1F
100
AcDbEntity
  8
0
  6
Continuous
 62
     7
370
    15
100
AcDbLine
 10
179.8101561015
 20
123.9428641518
 30
0.0
 11
179.8101561015
 21
115.3584891243
 31
0.0
  0
SPLINE
  5
80
330
1F
100
AcDbEntity
  8
0
  6
Continuous
 62
     7
370
    15
100
AcDbSpline
210
0.0
220
0.0
230
1.0
 70
     8
 71
     3
 72
    16
 73
    12
 74
     0
 42
0.00000001
 43
0.00000001
 12
1.0
 22
0.0
 32
0.0
 13
1.0
 23
0.0
 33
0.0
 40
0.0
 40
0.0
 40
0.0
 40
0.0
 40
0.4999999999999979
 40
0.4999999999999979
 40
0.7499999999999983
 40
0.7499999999999983
 40
0.8749999999999993
 40
0.8749999999999993
 40
0.9374999999999997
 40
0.9374999999999997
 40
1.0
 40
1.0
 40
1.0
 40
1.0
 10
179.8101560964365
 20
123.8378560832983
 30
0.0
 10
179.8101560964365
 20
123.8222908558589
 30
0.0
 10
179.8062726712776
 20
123.8031194780109
 30
0.0
 10
179.7814573460029
 20
123.7643470960291
 30
0.0
 10
179.7706178982904
 20
123.7496963198266
 30
0.0
 10
179.7374021162416
 20
123.7226520758469
 30
0.0
 10
179.7240203726128
 20
123.7126739767069
 30
0.0
 10
179.6885107227506
 20
123.6961994409199
 30
0.0
 10
179.6730937562498
 20
123.6904473501299
 30
0.0
 10
179.6413927341012
 20
123.6825268297033
 30
0.0
 10
179.6272464491504
 20
123.6806439936846
 30
0.0
 10
179.6151792075608
 20
123.6797701592223
 30
0.0
  0
SPLINE
  5
81
330
1F
100
AcDbEntity
  8
0
  6
Continuous
 62
     7
370
    15
100
AcDbSpline
210
0.0
220
0.0
230
1.0
 70
     8
 71
     3
 72
    18
 73
    14
 74
     0
 42
0.00000001
 43
0.00000001
 12
1.0
 22
0.0
 32
0.0
 13
1.0
 23
0.0
 33
0.0
 40
0.0
 40
0.0
 40
0.0
 40
0.0
 40
0.1249999999999999
 40
0.1249999999999999
 40
0.2499999999999999
 40
0.2499999999999999
 40
0.3749999999999998
 40
0.3749999999999998
 40
0.4999999999999998
 40
0.4999999999999998
 40
0.7499999999999999
 40
0.7499999999999999
 40
1.0
 40
1.0
 40
1.0
 40
1.0
 10
179.6151792075669
 20
123.6797701592221
 30
0.0
 10
179.5664750785502
 20
123.6762433096039
 30
0.0
 10
179.5079674093456
 20
123.6727430364063
 30
0.0
 10
179.3762417467148
 20
123.6687000525184
 30
0.0
 10
179.3114841080944
 20
123.6685884778877
 30
0.0
 10
179.2062736914754
 20
123.6701206626492
 30
0.0
 10
179.1630576565352
 20
123.6715758148643
 30
0.0
 10
179.0868794350542
 20
123.674501076394
 30
0.0
 10
179.0540246673701
 20
123.6760114069023
 30
0.0
 10
178.9636569485283
 20
123.6801533995906
 30
0.0
 10
178.9142345793389
 20
123.6823914845771
 30
0.0
 10
178.8265821172508
 20
123.6848427676236
 30
0.0
 10
178.7885193810164
 20
123.6850980029847
 30
0.0
 10
178.754071778873
 20
123.6842325593168
 30
0.0
  0
SPLINE
  5
82
330
1F
100
AcDbEntity
  8
0
  6
Continuous
 62
     7
370
    15
100
AcDbSpline
210
0.0
220
0.0
230
1.0
 70
     8
 71
     3
 72
     8
 73
     4
 74
     0
 42
0.00000001
 43
0.00000001
 12
1.0
 22
0.0
 32
0.0
 13
1.0
 23
0.0
 33
0.0
 40
0.0
 40
0.0
 40
0.0
 40
0.0
 40
1.0
 40
1.0
 40
1.0
 40
1.0
 10
178.5151161184972
 20
106.9065533722744
 30
0.0
 10
178.5658432012196
 20
106.6232022509552
 30
0.0
 10
178.6237305142067
 20
106.3482460668154
 30
0.0
 10
178.6888357528769
 20
106.0814994862398
 30
0.0
  0
SPLINE
  5
83
330
1F
100
AcDbEntity
  8
0
  6
Continuous
 62
     7
370
    15
100
AcDbSpline
210
0.0
220
0.0
230
1.0
 70
     8
 71
     3
 72
    24
 73
    20
 74
     0
 42
0.00000001
 43
0.00000001
 12
1.0
 22
0.0
 32
0.0
 13
1.0
 23
0.0
 33
0.0
 40
0.0
 40
0.0
 40
0.0
 40
0.0
 40
0.2500000000000046
 40
0.2500000000000046
 40
0.3750000000000075
 40
0.3750000000000075
 40
0.4375000000000089
 40
0.4375000000000089
 40
0.4687500000000096
 40
0.4687500000000096
 40
0.5000000000000102
 40
0.5000000000000102
 40
0.5625000000000085
 40
0.5625000000000085
 40
0.625000000000007
 40
0.625000000000007
 40
0.7500000000000037
 40
0.7500000000000037
 40
1.0
 40
1.0
 40
1.0
 40
1.0
 10
178.3101560964282
 20
106.9068457805676
 30
0.0
 10
178.3105591258021
 20
107.0001140731973
 30
0.0
 10
178.3125888655172
 20
107.0938716320462
 30
0.0
 10
178.3218975769371
 20
107.2354615176858
 30
0.0
 10
178.3258235700516
 20
107.2826419362951
 30
0.0
 10
178.3367529299676
 20
107.3532379829805
 30
0.0
 10
178.340874558062
 20
107.3770178967453
 30
0.0
 10
178.3527690792444
 20
107.4104690437924
 30
0.0
 10
178.3580558911982
 20
107.4226239958621
 30
0.0
 10
178.3746238227131
 20
107.43050663483
 30
0.0
 10
178.3825505314804
 20
107.422943035728
 30
0.0
 10
178.3995428697056
 20
107.3991506045012
 30
0.0
 10
178.4069405704965
 20
107.3789621266567
 30
0.0
 10
178.4210429608384
 20
107.3385125020369
 30
0.0
 10
178.4271961181306
 20
107.3176568276394
 30
0.0
 10
178.4445098515917
 20
107.2545317923384
 30
0.0
 10
178.4545148924803
 20
107.2115526804369
 30
0.0
 10
178.482871348711
 20
107.0818270361481
 30
0.0
 10
178.4994198880572
 20
106.9942293090121
 30
0.0
 10
178.5151161184972
 20
106.9065533722744
 30
0.0
  0
SPLINE
  5
84
330
1F
100
AcDbEntity
  8
0
  6
Continuous
 62
     7
370
    15
100
AcDbSpline
210
0.0
220
0.0
230
1.0
 70
     8
 71
     3
 72
    16
 73
    12
 74
     0
 42
0.00000001
 43
0.00000001
 12
1.0
 22
0.0
 32
0.0
 13
1.0
 23
0.0
 33
0.0
 40
0.0
 40
0.0
 40
0.0
 40
0.0
 40
0.2500000000000001
 40
0.2500000000000001
 40
0.375
 40
0.375
 40
0.5
 40
0.5
 40
0.75
 40
0.75
 40
1.0
 40
1.0
 40
1.0
 40
1.0
 10
178.3101560964365
 20
112.7992425727075
 30
0.0
 10
178.229619287041
 20
112.3301697458444
 30
0.0
 10
178.1695818782388
 20
111.8498060956645
 30
0.0
 10
178.1088439309916
 20
111.1126218165235
 30
0.0
 10
178.0935214499486
 20
110.8641034132965
 30
0.0
 10
178.0729384981707
 20
110.3613199680827
 30
0.0
 10
178.0677389511342
 20
110.1064614150581
 30
0.0
 10
178.067685240594
 20
109.3501840753374
 30
0.0
 10
178.0878825778631
 20
108.8515258760275
 30
0.0
 10
178.1685608849361
 20
107.8651029052833
 30
0.0
 10
178.2296072332773
 20
107.3759888125103
 30
0.0
 10
178.3101560964365
 20
106.9068457805689
 30
0.0
  0
SPLINE
  5
85
330
1F
100
AcDbEntity
  8
0
  6
Continuous
 62
     7
370
    15
100
AcDbSpline
210
0.0
220
0.0
230
1.0
 70
     8
 71
     3
 72
    24
 73
    20
 74
     0
 42
0.00000001
 43
0.00000001
 12
1.0
 22
0.0
 32
0.0
 13
1.0
 23
0.0
 33
0.0
 40
0.0
 40
0.0
 40
0.0
 40
0.0
 40
0.2500000000000029
 40
0.2500000000000029
 40
0.3750000000000052
 40
0.3750000000000052
 40
0.4375000000000063
 40
0.4375000000000063
 40
0.5000000000000074
 40
0.5000000000000074
 40
0.5312500000000069
 40
0.5312500000000069
 40
0.5625000000000064
 40
0.5625000000000064
 40
0.6250000000000052
 40
0.6250000000000052
 40
0.7500000000000029
 40
0.7500000000000029
 40
1.0
 40
1.0
 40
1.0
 40
1.0
 10
178.5151161184974
 20
112.799534981002
 30
0.0
 10
178.4993470735876
 20
112.7114523175111
 30
0.0
 10
178.482732909027
 20
112.6235075010016
 30
0.0
 10
178.4542007815336
 20
112.4931601337386
 30
0.0
 10
178.4441131479797
 20
112.4498989559364
 30
0.0
 10
178.4266253251308
 20
112.386463180101
 30
0.0
 10
178.4204155172045
 20
112.3655490565573
 30
0.0
 10
178.4061376576221
 20
112.3250742648722
 30
0.0
 10
178.3985664952703
 20
112.304596621413
 30
0.0
 10
178.3811466700959
 20
112.2817502418761
 30
0.0
 10
178.3726625876413
 20
112.2751984448324
 30
0.0
 10
178.3566265140238
 20
112.285769820059
 30
0.0
 10
178.3518061417459
 20
112.2978608603429
 30
0.0
 10
178.3403992411401
 20
112.3315041035628
 30
0.0
 10
178.3363782794307
 20
112.3549117828596
 30
0.0
 10
178.3256242676514
 20
112.4255003859207
 30
0.0
 10
178.3217523820287
 20
112.4724654134432
 30
0.0
 10
178.3125844172279
 20
112.6130422780494
 30
0.0
 10
178.3105560827147
 20
112.7066785076689
 30
0.0
 10
178.3101560964365
 20
112.7992425727075
 30
0.0
  0
SPLINE
  5
86
330
1F
100
AcDbEntity
  8
0
  6
Continuous
 62
     7
370
    15
100
AcDbSpline
210
0.0
220
0.0
230
1.0
 70
     8
 71
     3
 72
     8
 73
     4
 74
     0
 42
0.00000001
 43
0.00000001
 12
1.0
 22
0.0
 32
0.0
 13
1.0
 23
0.0
 33
0.0
 40
0.0
 40
0.0
 40
0.0
 40
0.0
 40
1.0
 40
1.0
 40
1.0
 40
1.0
 10
178.6888357528769
 20
113.6245888670366
 30
0.0
 10
178.6237305142067
 20
113.357842286461
 30
0.0
 10
178.5658432012196
 20
113.0828861023212
 30
0.0
 10
178.5151161184972
 20
112.799534981002
 30
0.0
  0
LINE
  5
87
330
1F
100
AcDbEntity
  8
0
  6
Continuous
 62
     7
370
    15
100
AcDbLine
 10
178.3101560739
 20
106.9068457244
 30
0.0
 11
178.3101560739
 21
105.7518404221
 31
0.0
  0
LINE
  5
88
330
1F
100
AcDbEntity
  8
0
  6
Continuous
 62
     7
370
    15
100
AcDbLine
 10
157.5101552024
 20
113.6929637531
 30
0.0
 11
157.5101552024
 21
106.0131246002
 31
0.0
  0
LINE
  5
89
330
1F
100
AcDbEntity
  8
0
  6
Continuous
 62
     7
370
    15
100
AcDbLine
 10
178.3101560739
 20
113.9542479312
 30
0.0
 11
178.3101560739
 21
112.7992426289
 31
0.0
  0
LINE
  5
8A
330
1F
100
AcDbEntity
  8
0
  6
Continuous
 62
     7
370
    15
100
AcDbLine
 10
156.0101558878
 20
113.2599509099
 30
0.0
 11
156.0101558878
 21
106.4461374433
 31
0.0
  0
SPLINE
  5
8B
330
1F
100
AcDbEntity
  8
0
  6
Continuous
 62
     7
370
    15
100
AcDbSpline
210
0.0
220
0.0
230
1.0
 70
     8
 71
     3
 72
     8
 73
     4
 74
     0
 42
0.00000001
 43
0.00000001
 12
1.0
 22
0.0
 32
0.0
 13
1.0
 23
0.0
 33
0.0
 40
0.0
 40
0.0
 40
0.0
 40
0.0
 40
1.0
 40
1.0
 40
1.0
 40
1.0
 10
202.2428291084575
 20
128.779796043448
 30
0.0
 10
202.3277311534747
 20
128.7987566396738
 30
0.0
 10
202.4184105894943
 20
128.8231215780842
 30
0.0
 10
202.5120694820819
 20
128.8589007559554
 30
0.0
  0
SPLINE
  5
8C
330
1F
100
AcDbEntity
  8
0
  6
Continuous
 62
     7
370
    15
100
AcDbSpline
210
0.0
220
0.0
230
1.0
 70
     8
 71
     3
 72
     8
 73
     4
 74
     0
 42
0.00000001
 43
0.00000001
 12
1.0
 22
0.0
 32
0.0
 13
1.0
 23
0.0
 33
0.0
 40
0.0
 40
0.0
 40
0.0
 40
0.0
 40
1.0
 40
1.0
 40
1.0
 40
1.0
 10
202.5120694820819
 20
95.07097274985543
 30
0.0
 10
202.4184105894943
 20
95.11361908028138
 30
0.0
 10
202.3277311534747
 20
95.15167340454747
 30
0.0
 10
202.2428291084575
 20
95.19157702177958
 30
0.0
  0
LINE
  5
8D
330
1F
100
AcDbEntity
  8
0
  6
Continuous
 62
     7
370
    15
100
AcDbLine
 10
178.5151160746
 20
123.6782288423
 30
0.0
 11
178.754071794
 21
123.6842321476
 31
0.0
  0
LINE
  5
8E
330
1F
100
AcDbEntity
  8
0
  6
Continuous
 62
     7
370
    15
100
AcDbLine
 10
178.3101560739
 20
113.9542479312
 30
0.0
 11
178.3101560739
 21
123.8731425499
 31
0.0
  0
ARC
  5
8F
330
1F
100
AcDbEntity
  8
0
  6
Continuous
 62
     7
370
    15
100
AcDbCircle
 10
178.5100930074
 20
123.8781660723
 30
0.0
 40
0.2000000000000063
100
AcDbArc
 50
181.4391666667
 51
271.4391666667
  0
LINE
  5
90
330
1F
100
AcDbEntity
  8
0
  6
Continuous
 62
     7
370
    15
100
AcDbLine
 10
157.5101552024
 20
113.6929637531
 30
0.0
 11
157.5101552024
 21
123.3505746593
 31
0.0
  0
LINE
  5
91
330
1F
100
AcDbEntity
  8
0
  6
Continuous
 62
     7
370
    15
100
AcDbLine
 10
157.5101552024
 20
123.3505746593
 30
0.0
 11
178.3101560739
 21
123.8731425499
 31
0.0
  0
LINE
  5
92
330
1F
100
AcDbEntity
  8
0
  6
Continuous
 62
     7
370
    15
100
AcDbLine
 10
178.3101560739
 20
95.8329458033
 30
0.0
 11
178.3101560739
 21
105.7518404221
 31
0.0
  0
ARC
  5
93
330
1F
100
AcDbEntity
  8
0
  6
Continuous
 62
     7
370
    15
100
AcDbCircle
 10
178.5100930074
 20
95.8279222809
 30
0.0
 40
0.2000000000000059
100
AcDbArc
 50
88.5608333333
 51
178.5608333333
  0
LINE
  5
94
330
1F
100
AcDbEntity
  8
0
  6
Continuous
 62
     7
370
    15
100
AcDbLine
 10
157.5101552024
 20
96.3555136939
 30
0.0
 11
157.5101552024
 21
106.0131246002
 31
0.0
  0
LINE
  5
95
330
1F
100
AcDbEntity
  8
0
  6
Continuous
 62
     7
370
    15
100
AcDbLine
 10
157.5101552024
 20
96.3555136939
 30
0.0
 11
178.3101560739
 21
95.8329458033
 31
0.0
  0
LINE
  5
96
330
1F
100
AcDbEntity
  8
0
  6
Continuous
 62
     7
370
    15
100
AcDbLine
 10
178.5151160746
 20
96.027859511
 30
0.0
 11
178.754071794
 21
96.0218562057
 31
0.0
  0
SPLINE
  5
97
330
1F
100
AcDbEntity
  8
0
  6
Continuous
 62
     7
370
    15
100
AcDbSpline
210
0.0
220
0.0
230
1.0
 70
     8
 71
     3
 72
    10
 73
     6
 74
     0
 42
0.00000001
 43
0.00000001
 12
1.0
 22
0.0
 32
0.0
 13
1.0
 23
0.0
 33
0.0
 40
0.0
 40
0.0
 40
0.0
 40
0.0
 40
0.5
 40
0.5
 40
1.0
 40
1.0
 40
1.0
 40
1.0
 10
202.5120694820819
 20
128.8589007559554
 30
0.0
 10
202.6900802815844
 20
128.926903696012
 30
0.0
 10
202.8434150836256
 20
129.0450763831638
 30
0.0
 10
203.0805256120514
 20
129.3362599341066
 30
0.0
 10
203.1649551505895
 20
129.5095806331
 30
0.0
 10
203.2087549347466
 20
129.6948474986702
 30
0.0
  0
SPLINE
  5
98
330
1F
100
AcDbEntity
  8
0
  6
Continuous
 62
     7
370
    15
100
AcDbSpline
210
0.0
220
0.0
230
1.0
 70
     8
 71
     3
 72
    10
 73
     6
 74
     0
 42
0.00000001
 43
0.00000001
 12
1.0
 22
0.0
 32
0.0
 13
1.0
 23
0.0
 33
0.0
 40
0.0
 40
0.0
 40
0.0
 40
0.0
 40
0.5
 40
0.5
 40
1.0
 40
1.0
 40
1.0
 40
1.0
 10
203.108854512242
 20
94.46733540892835
 30
0.0
 10
203.0463351650262
 20
94.59722977444164
 30
0.0
 10
202.9639826599994
 20
94.71678469679027
 30
0.0
 10
202.7624177087046
 20
94.92421662049003
 30
0.0
 10
202.6440982202138
 20
95.01085522084638
 30
0.0
 10
202.5120694820819
 20
95.07097274985544
 30
0.0
  0
LINE
  5
99
330
1F
100
AcDbEntity
  8
0
  6
Continuous
 62
     7
370
    15
100
AcDbLine
 10
203.1088539823
 20
94.467335405
 30
0.0
 11
203.1088539823
 21
89.3530436104
 31
0.0
  0
LINE
  5
9A
330
1F
100
AcDbEntity
  8
0
  6
Continuous
 62
     7
370
    15
100
AcDbLine
 10
217.1336015179
 20
131.7782644426
 30
0.0
 11
214.3984412267
 21
126.2302417552
 31
0.0
  0
LINE
  5
9B
330
1F
100
AcDbEntity
  8
0
  6
Continuous
 62
     7
370
    15
100
AcDbLine
 10
210.1395217194
 20
120.7543909793
 30
0.0
 11
207.0053455844
 21
119.1213801747
 31
0.0
  0
ARC
  5
9C
330
1F
100
AcDbEntity
  8
0
  6
Continuous
 62
     7
370
    15
100
AcDbCircle
 10
208.0252734783
 20
117.3265608717
 30
0.0
 40
2.064371390816516
100
AcDbArc
 50
119.6079304737
 51
248.7291870218
  0
LINE
  5
9D
330
1F
100
AcDbEntity
  8
0
  6
Continuous
 62
     7
370
    15
100
AcDbLine
 10
222.572003813
 20
107.0091412646
 30
0.0
 11
222.572003813
 21
112.0126892591
 31
0.0
  0
LINE
  5
9E
330
1F
100
AcDbEntity
  8
0
  6
Continuous
 62
     7
370
    15
100
AcDbLine
 10
212.6434197142
 20
93.2895336544
 30
0.0
 11
222.572003813
 21
107.0091412646
 31
0.0
  0
ELLIPSE
  5
9F
330
1F
100
AcDbEntity
  8
0
  6
Continuous
 62
     7
370
    15
100
AcDbEllipse
 10
260.1189213415
 20
109.8530441766
 30
0.0
 11
116.2588156647557
 21
-4.392585877548214
 31
0.0
210
0.0
220
0.0
230
1.0
 40
0.1722352441
 41
4.206391800836029
 42
4.29824869099706
  0
SPLINE
  5
A0
330
1F
100
AcDbEntity
  8
0
  6
Continuous
 62
     7
370
    15
100
AcDbSpline
210
0.0
220
0.0
230
1.0
 70
     8
 71
     3
 72
     8
 73
     4
 74
     0
 42
0.00000001
 43
0.00000001
 12
1.0
 22
0.0
 32
0.0
 13
1.0
 23
0.0
 33
0.0
 40
0.0
 40
0.0
 40
0.0
 40
0.0
 40
1.0
 40
1.0
 40
1.0
 40
1.0
 10
203.2087549347466
 20
129.6948474986702
 30
0.0
 10
203.3883329714228
 20
130.454437086164
 30
0.0
 10
203.5708558152422
 20
131.2132127490373
 30
0.0
 10
203.7556010731748
 20
131.9713741517994
 30
0.0
  0
LINE
  5
A1
330
1F
100
AcDbEntity
  8
0
  6
Continuous
 62
     7
370
    15
100
AcDbLine
 10
203.755601631
 20
131.9713741785
 30
0.0
 11
213.2296947255
 21
131.6240504628
 31
0.0
  0
ARC
  5
A2
330
1F
100
AcDbEntity
  8
0
  6
Continuous
 62
     7
370
    15
100
AcDbCircle
 10
214.1736133261
 20
157.2194268689
 30
0.0
 40
25.61277563430405
100
AcDbArc
 50
267.8879758076
 51
276.6363220412
  0
ELLIPSE
  5
A3
330
1F
100
AcDbEntity
  8
0
  6
Continuous
 62
     7
370
    15
100
AcDbEllipse
 10
224.4723992755
 20
109.8530441766
 30
0.0
 11
15.01361785357446
 21
20.49858484107503
 31
0.0
210
0.0
220
0.0
230
1.0
 40
0.0160435947
 41
3.153342797152328
 42
3.783430038104363
  0
LINE
  5
A4
330
1F
100
AcDbEntity
  8
0
  6
Continuous
 62
     7
370
    15
100
AcDbLine
 10
156.0101558878
 20
122.4845489731
 30
0.0
 11
157.5101552024
 21
123.3505746593
 31
0.0
  0
LINE
  5
A5
330
1F
100
AcDbEntity
  8
0
  6
Continuous
 62
     7
370
    15
100
AcDbLine
 10
156.0101558878
 20
113.2599509099
 30
0.0
 11
156.0101558878
 21
122.4845489731
 31
0.0
  0
LINE
  5
A6
330
1F
100
AcDbEntity
  8
0
  6
Continuous
 62
     7
370
    15
100
AcDbLine
 10
156.0101558878
 20
97.2215393802
 30
0.0
 11
157.5101552024
 21
96.3555136939
 31
0.0
  0
LINE
  5
A7
330
1F
100
AcDbEntity
  8
0
  6
Continuous
 62
     7
370
    15
100
AcDbLine
 10
156.0101558878
 20
97.2215393802
 30
0.0
 11
156.0101558878
 21
106.4461374433
 31
0.0
  0
LINE
  5
A8
330
1F
100
AcDbEntity
  8
0
  6
Continuous
 62
     7
370
    15
100
AcDbLine
 10
209.3464875086
 20
119.4681218138
 30
0.0
 11
205.9792870148
 21
117.713697279
 31
0.0
  0
SPLINE
  5
A9
330
1F
100
AcDbEntity
  8
0
  6
Continuous
 62
     7
370
    15
100
AcDbSpline
210
0.0
220
0.0
230
1.0
 70
     8
 71
     3
 72
     9
 73
     5
 74
     0
 42
0.00000001
 43
0.00000001
 12
1.0
 22
0.0
 32
0.0
 13
1.0
 23
0.0
 33
0.0
 40
0.0
 40
0.0
 40
0.0
 40
0.0
 40
0.3530929086293732
 40
1.0
 40
1.0
 40
1.0
 40
1.0
 10
203.2812473788042
 20
130.8110133057237
 30
0.0
 10
203.3164730853379
 20
130.9479247426813
 30
0.0
 10
203.4162363648398
 20
131.3356737843966
 30
0.0
 10
203.6222985452517
 20
131.7216702971347
 30
0.0
 10
203.7556016310234
 20
131.9713741784693
 30
0.0
  0
LWPOLYLINE
  5
AA
330
1F
100
AcDbEntity
  8
0
  6
Continuous
 62
     7
370
    15
100
AcDbPolyline
 90
        3
 70
   128
 43
0.0
 10
217.1276298775
 20
130.4032542055
 10
216.936827959
 20
130.371499831
 10
216.3999763741
 20
130.2901730185
  0
LWPOLYLINE
  5
AB
330
1F
100
AcDbEntity
  8
0
  6
Continuous
 62
     7
370
    15
100
AcDbPolyline
 90
       24
 70
   128
 43
0.0
 10
213.926409693
 20
107.6758962834
 10
213.5348183527
 20
107.7136018092
 10
213.1632206454
 20
107.8521267289
 10
212.8378277137
 20
108.0817010032
 10
212.5815873458
 20
108.3861340547
 10
212.412570925
 20
108.7439557548
 10
212.3426956548
 20
109.1299305215
 10
212.3768938198
 20
109.516837513
 10
212.5127477064
 20
109.8773899856
 10
212.7406833186
 20
110.1861599262
 10
213.0446185782
 20
110.4213713214
 10
213.40312189
 20
110.5664357554
 10
213.790909709
 20
110.6111225916
 10
214.1806346788
 20
110.5522802925
 10
214.5448078825
 20
110.394058657
 10
214.8577471688
 20
110.1476163556
 10
215.0973839178
 20
109.8303337756
 10
215.2468164875
 20
109.4645873189
 10
215.2955060317
 20
109.0761713229
 10
215.240021558
 20
108.6924788786
 10
215.0842708959
 20
108.3405699126
 10
214.8392399266
 20
108.0452630074
 10
214.5222139969
 20
107.8273847477
 10
214.1555448487
 20
107.7023009082
  0
LINE
  5
AC
330
1F
100
AcDbEntity
  8
0
  6
Continuous
 62
     7
370
    15
100
AcDbLine
 10
214.1820987179
 20
107.8255314158
 30
0.0
 11
214.1555448487
 21
107.7023009082
 31
0.0
  0
LWPOLYLINE
  5
AD
330
1F
100
AcDbEntity
  8
0
  6
Continuous
 62
     7
370
    15
100
AcDbPolyline
 90
       23
 70
   128
 43
0.0
 10
213.9644188299
 20
107.8004469407
 10
213.5757518425
 20
107.8402172087
 10
213.2091199472
 20
107.9843086434
 10
212.892768295
 20
108.2216204621
 10
212.6510677352
 20
108.5338702203
 10
212.5026372685
 20
108.8970022054
 10
212.4589135363
 20
109.2830407677
 10
212.5232679262
 20
109.662245576
 10
212.6907383516
 20
110.0054027436
 10
212.9484278574
 20
110.2860754716
 10
213.2764769211
 20
110.4826408217
 10
213.6496168985
 20
110.5799553578
 10
214.0390997245
 20
110.5705219914
 10
214.414921911
 20
110.4550675034
 10
214.7481305017
 20
110.2424864319
 10
215.013050796
 20
109.9491560624
 10
215.1892793789
 20
109.597674508
 10
215.2632338419
 20
109.2151198198
 10
215.2292182162
 20
108.8309641007
 10
215.0898588314
 20
108.4748023666
 10
214.8558807983
 20
108.1740736507
 10
214.5453219726
 20
107.951945766
 10
214.1820987179
 20
107.8255314158
  0
LINE
  5
AE
330
1F
100
AcDbEntity
  8
0
  6
Continuous
 62
     7
370
    15
100
AcDbLine
 10
213.9644188299
 20
107.8004469407
 30
0.0
 11
213.926409693
 21
107.6758962834
 31
0.0
  0
LINE
  5
AF
330
1F
100
AcDbEntity
  8
0
  6
Continuous
 62
     7
370
    15
100
AcDbLine
 10
214.1315204515
 20
108.0416585563
 30
0.0
 11
214.1820987179
 21
107.8255314158
 31
0.0
  0
LWPOLYLINE
  5
B0
330
1F
100
AcDbEntity
  8
0
  6
Continuous
 62
     7
370
    15
100
AcDbPolyline
 90
       21
 70
   128
 43
0.0
 10
213.9482100918
 20
108.0205348797
 10
213.5887940838
 20
108.0623091209
 10
213.2547845557
 20
108.2094657711
 10
212.977283956
 20
108.4483055409
 10
212.7821197226
 20
108.7565947335
 10
212.6874638214
 20
109.1056339454
 10
212.7021228387
 20
109.4629306415
 10
212.8247370436
 20
109.7952234766
 10
213.0438884213
 20
110.0715787714
 10
213.3391772821
 20
110.2662701403
 10
213.6831147089
 20
110.3611734241
 10
214.0436818316
 20
110.3474539366
 10
214.3873137846
 20
110.2263888704
 10
214.6820252254
 20
110.0092483346
 10
214.9003756656
 20
109.7162463218
 10
215.0220361962
 20
109.3746588693
 10
215.0356893852
 20
109.0162848948
 10
214.9400574579
 20
108.6744860757
 10
214.7440475836
 20
108.3810810476
 10
214.4659025087
 20
108.1633832317
 10
214.1315204515
 20
108.0416585563
  0
LINE
  5
B1
330
1F
100
AcDbEntity
  8
0
  6
Continuous
 62
     7
370
    15
100
AcDbLine
 10
213.9482100918
 20
108.0205348797
 30
0.0
 11
213.9644188299
 21
107.8004469407
 31
0.0
  0
LINE
  5
B2
330
1F
100
AcDbEntity
  8
0
  6
Continuous
 62
     7
370
    15
100
AcDbLine
 10
213.9614236965
 20
107.841095213
 30
0.0
 11
214.1315204515
 21
108.0416585563
 31
0.0
  0
LINE
  5
B3
330
1F
100
AcDbEntity
  8
0
  6
Continuous
 62
     7
370
    15
100
AcDbLine
 10
214.1555448487
 20
107.7023009082
 30
0.0
 11
213.0785596981
 21
106.4323967101
 31
0.0
  0
LINE
  5
B4
330
1F
100
AcDbEntity
  8
0
  6
Continuous
 62
     7
370
    15
100
AcDbLine
 10
213.926409693
 20
107.6758962834
 30
0.0
 11
212.8437173977
 21
106.3992667721
 31
0.0
  0
LWPOLYLINE
  5
B5
330
1F
100
AcDbEntity
  8
0
  6
Continuous
 62
     7
370
    15
100
AcDbPolyline
 90
       47
 70
   128
 43
0.0
 10
214.1908456995
 20
112.3830955719
 10
214.8623031988
 20
111.9783630373
 10
215.5796227469
 20
111.6663019882
 10
216.329434277
 20
111.4527252747
 10
217.0977716758
 20
111.3416115066
 10
217.8703298285
 20
111.335030432
 10
218.6327067628
 20
111.4331047527
 10
219.3707091226
 20
111.634007563
 10
220.0705831363
 20
111.9339962268
 10
220.7192977383
 20
112.3274828085
 10
221.3047606363
 20
112.8071372175
 10
221.8160753562
 20
113.364024345
 10
222.2437088802
 20
113.9877704216
 10
222.5797002628
 20
114.6667567326
 10
222.817787291
 20
115.3883342875
 10
222.9535368695
 20
116.1390617734
 10
222.9844195261
 20
116.904954916
 10
222.909861566
 20
117.6717458537
 10
222.7312487974
 20
118.4251513576
 10
222.4519079044
 20
119.1511368623
 10
222.0770505681
 20
119.8361786326
 10
221.613650532
 20
120.4675147554
 10
221.070343019
 20
121.0333854204
 10
220.4572496428
 20
121.5232499188
 10
219.7857884183
 20
121.9279822206
 10
219.0684725954
 20
122.2400432696
 10
218.3186610653
 20
122.4536206817
 10
217.5503199413
 20
122.5647339841
 10
216.7777655139
 20
122.5713156407
 10
216.0153848543
 20
122.4732408544
 10
215.2773862197
 20
122.2723378112
 10
214.5775084808
 20
121.9723494967
 10
213.9287976041
 20
121.578862915
 10
213.3433309808
 20
121.099208506
 10
212.8320199861
 20
120.5423213785
 10
212.4043827369
 20
119.9185755348
 10
212.0683950796
 20
119.2395892238
 10
211.830304326
 20
118.5180116689
 10
211.6945547476
 20
117.7672837173
 10
211.663672091
 20
117.0013910403
 10
211.7382337763
 20
116.234599637
 10
211.916846545
 20
115.4811941331
 10
212.1961837127
 20
114.7552086284
 10
212.5710447743
 20
114.0701673237
 10
213.0344448104
 20
113.4388307353
 10
213.5777523234
 20
112.8729598375
 10
214.1908456995
 20
112.3830955719
  0
LWPOLYLINE
  5
B6
330
1F
100
AcDbEntity
  8
0
  6
Continuous
 62
     7
370
    15
100
AcDbPolyline
 90
       31
 70
   128
 43
0.0
 10
216.3090830161
 20
115.3756887896
 10
216.7652336373
 20
115.122163227
 10
217.2609915449
 20
114.9665587825
 10
217.7746792748
 20
114.9156764393
 10
218.2838519528
 20
114.97173973
 10
218.76625842
 20
115.1322988106
 10
219.200809808
 20
115.3903361654
 10
219.5685145869
 20
115.7345739437
 10
219.8533055796
 20
116.1499680264
 10
220.042732866
 20
116.6183632111
 10
220.128518851
 20
117.1192890277
 10
220.1069158926
 20
117.6308519451
 10
219.9788664892
 20
118.1306941679
 10
219.7499660268
 20
118.5969701281
 10
219.4302206352
 20
119.0093020221
 10
219.0336038782
 20
119.3496687582
 10
218.5774495318
 20
119.6031943207
 10
218.0816953494
 20
119.7587987652
 10
217.5680038943
 20
119.809681574
 10
217.0588312163
 20
119.7536178177
 10
216.5764284744
 20
119.5930587372
 10
216.1418770864
 20
119.335021848
 10
215.7741723075
 20
118.990783604
 10
215.4893813147
 20
118.5753895214
 10
215.2999540283
 20
118.1069948023
 10
215.2141680434
 20
117.6060689857
 10
215.2357710018
 20
117.0945060683
 10
215.3638204052
 20
116.5946638455
 10
215.5927208676
 20
116.1283874197
 10
215.9124662592
 20
115.7160555256
 10
216.3090830161
 20
115.3756887896
  0
SPLINE
  5
B7
330
1F
100
AcDbEntity
  8
0
  6
Continuous
 62
     7
370
    15
100
AcDbSpline
210
0.0
220
0.0
230
1.0
 70
     8
 71
     3
 72
    11
 73
     7
 74
     0
 42
0.00000001
 43
0.00000001
 12
1.0
 22
0.0
 32
0.0
 13
1.0
 23
0.0
 33
0.0
 40
0.0
 40
0.0
 40
0.0
 40
0.0
 40
0.1208914715029029
 40
0.4766716556861726
 40
0.814367368064416
 40
0.9999999999999999
 40
0.9999999999999999
 40
0.9999999999999999
 40
0.9999999999999999
 10
217.7808297290583
 20
119.5729170238376
 30
0.0
 10
217.8453119438884
 20
119.5144800285981
 30
0.0
 10
218.0995634946658
 20
119.2840646078254
 30
0.0
 10
218.6043956440783
 20
118.8793980108645
 30
0.0
 10
219.2110523116597
 20
118.4989767212672
 30
0.0
 10
219.5537260304692
 20
118.3178288212569
 30
0.0
 10
219.6752776815672
 20
118.2535728683472
 30
0.0
  0
SPLINE
  5
B8
330
1F
100
AcDbEntity
  8
0
  6
Continuous
 62
     7
370
    15
100
AcDbSpline
210
0.0
220
0.0
230
1.0
 70
     8
 71
     3
 72
    11
 73
     7
 74
     0
 42
0.00000001
 43
0.00000001
 12
1.0
 22
0.0
 32
0.0
 13
1.0
 23
0.0
 33
0.0
 40
0.0
 40
0.0
 40
0.0
 40
0.0
 40
0.2164532232524671
 40
0.4403056042989931
 40
0.7518967667256915
 40
1.0
 40
1.0
 40
1.0
 40
1.0
 10
215.7437962903757
 20
118.6429970210195
 30
0.0
 10
215.8707550118181
 20
118.6918650315865
 30
0.0
 10
216.1290123651887
 20
118.7912715389152
 30
0.0
 10
216.6344269256967
 20
119.0065853398676
 30
0.0
 10
217.2123183261052
 20
119.279686909804
 30
0.0
 10
217.606219762197
 20
119.482855680779
 30
0.0
 10
217.7808297290583
 20
119.5729170238376
 30
0.0
  0
SPLINE
  5
B9
330
1F
100
AcDbEntity
  8
0
  6
Continuous
 62
     7
370
    15
100
AcDbSpline
210
0.0
220
0.0
230
1.0
 70
     8
 71
     3
 72
    11
 73
     7
 74
     0
 42
0.00000001
 43
0.00000001
 12
1.0
 22
0.0
 32
0.0
 13
1.0
 23
0.0
 33
0.0
 40
0.0
 40
0.0
 40
0.0
 40
0.0
 40
0.2164524901644481
 40
0.4403055948768407
 40
0.7518962461437932
 40
1.0
 40
1.0
 40
1.0
 40
1.0
 10
215.6012108042021
 20
116.3937333283723
 30
0.0
 10
215.598400356483
 20
116.5329763485358
 30
0.0
 10
215.5926833704882
 20
116.8162231745665
 30
0.0
 10
215.6082248794085
 20
117.3726957067271
 30
0.0
 10
215.6606315358722
 20
118.0117591513644
 30
0.0
 10
215.7182534149043
 20
118.4491212572576
 30
0.0
 10
215.7437962903757
 20
118.6429970210195
 30
0.0
  0
SPLINE
  5
BA
330
1F
100
AcDbEntity
  8
0
  6
Continuous
 62
     7
370
    15
100
AcDbSpline
210
0.0
220
0.0
230
1.0
 70
     8
 71
     3
 72
    11
 73
     7
 74
     0
 42
0.00000001
 43
0.00000001
 12
1.0
 22
0.0
 32
0.0
 13
1.0
 23
0.0
 33
0.0
 40
0.0
 40
0.0
 40
0.0
 40
0.0
 40
0.185632785108642
 40
0.5233284337514915
 40
0.8791083170520162
 40
1.0
 40
1.0
 40
1.0
 40
1.0
 10
217.495658756711
 20
115.0743891728819
 30
0.0
 10
217.3741071220878
 20
115.1386448900384
 30
0.0
 10
217.0314336739138
 20
115.3197920069088
 30
0.0
 10
216.4247770912824
 20
115.7002149503706
 30
0.0
 10
215.9199439335723
 20
116.1048796053715
 30
0.0
 10
215.6656929899333
 20
116.3352959784411
 30
0.0
 10
215.6012108042021
 20
116.3937333283723
 30
0.0
  0
SPLINE
  5
BB
330
1F
100
AcDbEntity
  8
0
  6
Continuous
 62
     7
370
    15
100
AcDbSpline
210
0.0
220
0.0
230
1.0
 70
     8
 71
     3
 72
    11
 73
     7
 74
     0
 42
0.00000001
 43
0.00000001
 12
1.0
 22
0.0
 32
0.0
 13
1.0
 23
0.0
 33
0.0
 40
0.0
 40
0.0
 40
0.0
 40
0.0
 40
0.2164516556046321
 40
0.4403043857022485
 40
0.7518955796326691
 40
1.0
 40
1.0
 40
1.0
 40
1.0
 10
219.5326921953936
 20
116.0043091757
 30
0.0
 10
219.3805774156449
 20
115.9257776582752
 30
0.0
 10
219.0711466355181
 20
115.7660294159188
 30
0.0
 10
218.5230764107188
 20
115.5004196536287
 30
0.0
 10
217.9709009563937
 20
115.2576394378321
 30
0.0
 10
217.6416227149018
 20
115.1306719146702
 30
0.0
 10
217.495658756711
 20
115.0743891728819
 30
0.0
  0
SPLINE
  5
BC
330
1F
100
AcDbEntity
  8
0
  6
Continuous
 62
     7
370
    15
100
AcDbSpline
210
0.0
220
0.0
230
1.0
 70
     8
 71
     3
 72
    11
 73
     7
 74
     0
 42
0.00000001
 43
0.00000001
 12
1.0
 22
0.0
 32
0.0
 13
1.0
 23
0.0
 33
0.0
 40
0.0
 40
0.0
 40
0.0
 40
0.0
 40
0.2164526865600552
 40
0.4403055517992305
 40
0.7518957367519353
 40
1.0
 40
1.0
 40
1.0
 40
1.0
 10
219.6752776815672
 20
118.2535728683472
 30
0.0
 10
219.6529324507385
 20
118.0846661654976
 30
0.0
 10
219.6074780406017
 20
117.7410781039091
 30
0.0
 10
219.5492774366002
 20
117.1343086419428
 30
0.0
 10
219.5225895292092
 20
116.5255675933697
 30
0.0
 10
219.5295893004335
 20
116.1644065289699
 30
0.0
 10
219.5326921953936
 20
116.0043091757
 30
0.0
  0
LINE
  5
BD
330
1F
100
AcDbEntity
  8
0
  6
Continuous
 62
     7
370
    15
100
AcDbLine
 10
217.292984338
 20
118.997683773
 30
0.0
 11
217.7808297291
 21
119.5729170238
 31
0.0
  0
LINE
  5
BE
330
1F
100
AcDbEntity
  8
0
  6
Continuous
 62
     7
370
    15
100
AcDbLine
 10
217.292984338
 20
118.997683773
 30
0.0
 11
216.2744676187
 21
118.5327237716
 31
0.0
  0
LINE
  5
BF
330
1F
100
AcDbEntity
  8
0
  6
Continuous
 62
     7
370
    15
100
AcDbLine
 10
216.2744676187
 20
118.5327237716
 30
0.0
 11
215.6974089756
 21
118.2692935934
 31
0.0
  0
LINE
  5
C0
330
1F
100
AcDbEntity
  8
0
  6
Continuous
 62
     7
370
    15
100
AcDbLine
 10
219.0662150695
 20
115.7661769783
 30
0.0
 11
219.1161376848
 21
116.553708004
 31
0.0
  0
LINE
  5
C1
330
1F
100
AcDbEntity
  8
0
  6
Continuous
 62
     7
370
    15
100
AcDbLine
 10
219.1161376848
 20
116.553708004
 30
0.0
 11
219.1874322905
 21
117.6783396175
 31
0.0
  0
LINE
  5
C2
330
1F
100
AcDbEntity
  8
0
  6
Continuous
 62
     7
370
    15
100
AcDbLine
 10
219.1874322905
 20
117.6783396175
 30
0.0
 11
219.6752776816
 21
118.2535728683
 31
0.0
  0
ARC
  5
C3
330
1F
100
AcDbEntity
  8
0
  6
Continuous
 62
     7
370
    15
100
AcDbCircle
 10
217.1368425961
 20
116.5158352584
 30
0.0
 40
5.610506664345001
100
AcDbArc
 50
234.0565124128
 51
318.8584719094
  0
ARC
  5
C4
330
1F
100
AcDbEntity
  8
0
  6
Continuous
 62
     7
370
    15
100
AcDbCircle
 10
216.9883066015
 20
116.6877631846
 30
0.0
 40
5.666827983790614
100
AcDbArc
 50
140.8859863381
 51
236.2933081495
  0
LINE
  5
C5
330
1F
100
AcDbEntity
  8
0
  6
Continuous
 62
     7
370
    15
100
AcDbLine
 10
219.1874322905
 20
117.6783396175
 30
0.0
 11
218.2402064516
 21
118.3380121609
 31
0.0
  0
LINE
  5
C6
330
1F
100
AcDbEntity
  8
0
  6
Continuous
 62
     7
370
    15
100
AcDbLine
 10
218.2402064516
 20
118.3380121609
 30
0.0
 11
217.292984338
 21
118.997683773
 31
0.0
  0
ARC
  5
C7
330
1F
100
AcDbEntity
  8
0
  6
Continuous
 62
     7
370
    15
100
AcDbCircle
 10
217.0490557349
 20
116.8324179927
 30
0.0
 40
1.868428883156397
100
AcDbArc
 50
114.4920230489
 51
137.4698391213
  0
ARC
  5
C8
330
1F
100
AcDbEntity
  8
0
  6
Continuous
 62
     7
370
    15
100
AcDbCircle
 10
217.0863124277
 20
116.7087646519
 30
0.0
 40
1.996476612493794
100
AcDbArc
 50
54.6924467744
 51
113.9938622085
  0
ARC
  5
C9
330
1F
100
AcDbEntity
  8
0
  6
Continuous
 62
     7
370
    15
100
AcDbCircle
 10
217.0887859618
 20
116.6656159033
 30
0.0
 40
2.030437979073884
100
AcDbArc
 50
356.8405334078
 51
55.4531543212
  0
ARC
  5
CA
330
1F
100
AcDbEntity
  8
0
  6
Continuous
 62
     7
370
    15
100
AcDbCircle
 10
217.2364577001
 20
116.6687269343
 30
0.0
 40
1.883195741033789
100
AcDbArc
 50
325.4079311873
 51
356.4983972542
  0
ARC
  5
CB
330
1F
100
AcDbEntity
  8
0
  6
Continuous
 62
     7
370
    15
100
AcDbCircle
 10
217.2628927301
 20
116.2930956207
 30
0.0
 40
5.619360792470089
100
AcDbArc
 50
317.0461705893
 51
349.7349746112
  0
LWPOLYLINE
  5
CC
330
1F
100
AcDbEntity
  8
0
  6
Continuous
 62
     7
370
    15
100
AcDbPolyline
 90
       29
 70
   128
 43
0.0
 10
214.7919361903
 20
122.076720955
 10
214.1152595594
 20
121.7833599319
 10
213.4517294779
 20
121.3830495497
 10
212.8511046483
 20
120.8963813504
 10
212.324102731
 20
120.3320380544
 10
211.8801263585
 20
119.700090984
 10
211.5270992234
 20
119.0118175244
 10
211.2713245168
 20
118.2795008888
 10
211.1173582687
 20
117.5162070675
 10
211.0679553314
 20
116.7355585156
 10
211.1239948734
 20
115.9514859563
 10
211.2844785168
 20
115.1779806485
 10
211.5465377881
 20
114.4288461899
 10
211.905503036
 20
113.717450319
 10
212.3549593105
 20
113.0564888252
 10
212.8868972375
 20
112.4577559775
 10
213.4918173268
 20
111.9319361413
 10
214.158923687
 20
111.4884129736
 10
214.8763140156
 20
111.1351008538
 10
215.6311882152
 20
110.8783047192
 10
216.4100756361
 20
110.7226070842
 10
217.1990734949
 20
110.6707863753
 10
217.9841039195
 20
110.7237673958
 10
218.7511598184
 20
110.8806046203
 10
219.4865507498
 20
111.1384993663
 10
220.1771525159
 20
111.4928494451
 10
220.8106418564
 20
111.9373315258
 10
221.3757199659
 20
112.4640137667
 10
221.3757199659
 20
112.4640137667
  0
LWPOLYLINE
  5
CD
330
1F
100
AcDbEntity
  8
0
  6
Continuous
 62
     7
370
    15
100
AcDbPolyline
 90
       43
 70
   128
 43
0.0
 10
215.3656644239
 20
109.6950823365
 10
216.2160140886
 20
109.5382788579
 10
217.0754907145
 20
109.4872417696
 10
217.9307354107
 20
109.5427648059
 10
218.7684377148
 20
109.7039844415
 10
219.5755777373
 20
109.9683933306
 10
220.3395975246
 20
110.3318792837
 10
221.048617126
 20
110.7887891947
 10
221.6916059568
 20
111.3320170214
 10
222.2585690632
 20
111.9531141838
 10
222.740688683
 20
112.6424211787
 10
223.1304620816
 20
113.389217552
 10
223.4218282118
 20
114.1818892455
 10
223.6102571203
 20
115.0081074109
 10
223.6928207292
 20
115.8550228236
 10
223.668230088
 20
116.709464254
 10
223.5368726268
 20
117.5581426603
 10
223.3007860794
 20
118.3878593391
 10
222.9636473074
 20
119.1857094189
 10
222.5306940689
 20
119.9392853549
 10
222.0086654141
 20
120.6368664523
 10
221.4056787505
 20
121.2676037347
 10
220.7311069085
 20
121.8216885125
 10
219.9954477563
 20
122.2905023267
 10
219.2101379349
 20
122.6667547842
 10
218.3873963966
 20
122.9445943853
 10
217.540012063
 20
123.1196988618
 10
216.6811687364
 20
123.1893459579
 10
215.8242178573
 20
123.1524525454
 10
214.982495965
 20
123.0095913877
 10
214.1690862789
 20
122.7629855519
 10
213.3966436102
 20
122.4164692929
 10
212.6771782949
 20
121.9754331058
 10
212.0218811049
 20
121.4467343187
 10
211.4409444346
 20
120.8385974413
 10
210.9434002503
 20
120.1604791229
 10
210.5369897052
 20
119.4229265919
 10
210.2280327543
 20
118.6374100169
 10
210.0213350221
 20
117.8161455562
 10
209.9201095714
 20
116.9719072303
 10
209.9259303375
 20
116.117824359
 10
210.038709776
 20
115.2671799307
 10
210.2566895499
 20
114.4332033826
  0
SPLINE
  5
CE
330
1F
100
AcDbEntity
  8
0
  6
Continuous
 62
     7
370
    15
100
AcDbSpline
210
0.0
220
0.0
230
1.0
 70
     8
 71
     3
 72
    14
 73
    10
 74
     0
 42
0.00000001
 43
0.00000001
 12
1.0
 22
0.0
 32
0.0
 13
1.0
 23
0.0
 33
0.0
 40
0.0
 40
0.0
 40
0.0
 40
0.0
 40
0.2406877551835978
 40
0.3654951805964024
 40
0.4913829046121096
 40
0.5985916616062077
 40
0.7015343306056763
 40
0.8683337073608007
 40
1.0
 40
1.0
 40
1.0
 40
1.0
 10
215.3656644239206
 20
109.6950823364789
 30
0.0
 10
215.3252403864174
 20
109.9120043513472
 30
0.0
 10
215.2638546674954
 20
110.2414101864681
 30
0.0
 10
214.9718078004977
 20
110.6299792200416
 30
0.0
 10
214.6631902752262
 20
110.8478355352927
 30
0.0
 10
214.3151976952356
 20
110.9492687677743
 30
0.0
 10
213.9215625100271
 20
110.9561357861355
 30
0.0
 10
213.5287668354244
 20
110.8549683118386
 30
0.0
 10
213.2845958236216
 20
110.7118073254683
 30
0.0
 10
213.1768812849302
 20
110.6486527376586
 30
0.0
  0
ARC
  5
CF
330
1F
100
AcDbEntity
  8
0
  6
Continuous
 62
     7
370
    15
100
AcDbCircle
 10
217.1126493389
 20
116.6941529561
 30
0.0
 40
7.213760674317787
100
AcDbArc
 50
236.6456457543
 51
236.9348913944
  0
SPLINE
  5
D0
330
1F
100
AcDbEntity
  8
0
  6
Continuous
 62
     7
370
    15
100
AcDbSpline
210
0.0
220
0.0
230
1.0
 70
     8
 71
     3
 72
    14
 73
    10
 74
     0
 42
0.00000001
 43
0.00000001
 12
1.0
 22
0.0
 32
0.0
 13
1.0
 23
0.0
 33
0.0
 40
0.0
 40
0.0
 40
0.0
 40
0.0
 40
0.2406878621516778
 40
0.3654957234339282
 40
0.4913830414764915
 40
0.5985912263089419
 40
0.7015348956494404
 40
0.8683341901868384
 40
0.9999999999999999
 40
0.9999999999999999
 40
0.9999999999999999
 40
0.9999999999999999
 10
213.1464121355791
 20
110.6685985822008
 30
0.0
 10
213.1723222138539
 20
110.8956889405686
 30
0.0
 10
213.2116678739075
 20
111.2405362215012
 30
0.0
 10
213.0531150799495
 20
111.717034529487
 30
0.0
 10
212.8296497738497
 20
112.0294394589326
 30
0.0
 10
212.5359461357301
 20
112.2385624446343
 30
0.0
 10
212.1724194278559
 20
112.3681556107954
 30
0.0
 10
211.7780937475034
 20
112.3906505501065
 30
0.0
 10
211.50904687751
 20
112.325793153433
 30
0.0
 10
211.390358717658
 20
112.2971817629189
 30
0.0
  0
ARC
  5
D1
330
1F
100
AcDbEntity
  8
0
  6
Continuous
 62
     7
370
    15
100
AcDbCircle
 10
217.2323467537
 20
116.8044415737
 30
0.0
 40
7.378632340427902
100
AcDbArc
 50
217.3687277634
 51
217.6512070817
  0
SPLINE
  5
D2
330
1F
100
AcDbEntity
  8
0
  6
Continuous
 62
     7
370
    15
100
AcDbSpline
210
0.0
220
0.0
230
1.0
 70
     8
 71
     3
 72
    14
 73
    10
 74
     0
 42
0.00000001
 43
0.00000001
 12
1.0
 22
0.0
 32
0.0
 13
1.0
 23
0.0
 33
0.0
 40
0.0
 40
0.0
 40
0.0
 40
0.0
 40
0.2406875758174127
 40
0.3654952964312237
 40
0.4913833124866171
 40
0.5985914404759618
 40
0.7015343071596323
 40
0.8683336730199941
 40
1.0
 40
1.0
 40
1.0
 40
1.0
 10
211.3682081415434
 20
112.3260385600627
 30
0.0
 10
211.4607907611988
 20
112.5399903335658
 30
0.0
 10
211.6013817821538
 20
112.8648860686818
 30
0.0
 10
211.600245066969
 20
113.3774929391968
 30
0.0
 10
211.490418555782
 20
113.7485820618161
 30
0.0
 10
211.2854997530422
 20
114.0390735009738
 30
0.0
 10
210.992909042571
 20
114.2722018001899
 30
0.0
 10
210.6397075274801
 20
114.4098597354365
 30
0.0
 10
210.3739339491815
 20
114.4260577339521
 30
0.0
 10
210.256689549901
 20
114.4332033825816
 30
0.0
  0
LINE
  5
D3
330
1F
100
AcDbEntity
  8
0
  6
Continuous
 62
     7
370
    15
100
AcDbLine
 10
215.2274002745
 20
109.5320487173
 30
0.0
 11
215.3656644239
 21
109.6950823365
 31
0.0
  0
LINE
  5
D4
330
1F
100
AcDbEntity
  8
0
  6
Continuous
 62
     7
370
    15
100
AcDbLine
 10
213.1768812849
 20
110.6486527377
 30
0.0
 11
212.9089360549
 21
110.332709907
 31
0.0
  0
LINE
  5
D5
330
1F
100
AcDbEntity
  8
0
  6
Continuous
 62
     7
370
    15
100
AcDbLine
 10
212.7069582655
 20
110.1504305796
 30
0.0
 11
213.1464121356
 21
110.6685985822
 31
0.0
  0
SPLINE
  5
D6
330
1F
100
AcDbEntity
  8
0
  6
Continuous
 62
     7
370
    15
100
AcDbSpline
210
0.0
220
0.0
230
1.0
 70
     8
 71
     3
 72
    10
 73
     6
 74
     0
 42
0.00000001
 43
0.00000001
 12
1.0
 22
0.0
 32
0.0
 13
1.0
 23
0.0
 33
0.0
 40
0.0
 40
0.0
 40
0.0
 40
0.0
 40
0.6851307630506198
 40
0.9385422816229626
 40
1.0
 40
1.0
 40
1.0
 40
1.0
 10
210.5930683626909
 20
111.3570761179329
 30
0.0
 10
210.7226304319879
 20
111.314003995958
 30
0.0
 10
210.9001140405014
 20
111.2550006497171
 30
0.0
 10
211.1506646073306
 20
111.111748860249
 30
0.0
 10
211.2483749138172
 20
111.0389718152931
 30
0.0
 10
211.2674464895506
 20
111.0247668355481
 30
0.0
  0
SPLINE
  5
D7
330
1F
100
AcDbEntity
  8
0
  6
Continuous
 62
     7
370
    15
100
AcDbSpline
210
0.0
220
0.0
230
1.0
 70
     8
 71
     3
 72
    10
 73
     6
 74
     0
 42
0.00000001
 43
0.00000001
 12
1.0
 22
0.0
 32
0.0
 13
1.0
 23
0.0
 33
0.0
 40
0.0
 40
0.0
 40
0.0
 40
0.0
 40
0.2782456528334366
 40
0.8463507178690194
 40
0.9999999999999999
 40
0.9999999999999999
 40
0.9999999999999999
 40
0.9999999999999999
 10
211.9468910112162
 20
110.408409231972
 30
0.0
 10
212.0104874078738
 20
110.3288297294303
 30
0.0
 10
212.2039310624894
 20
110.0867696346256
 30
0.0
 10
212.3007262249527
 20
109.883004289228
 30
0.0
 10
212.3406274790847
 20
109.7556125538555
 30
0.0
 10
212.349121780612
 20
109.7284930099743
 30
0.0
  0
LINE
  5
D8
330
1F
100
AcDbEntity
  8
0
  6
Continuous
 62
     7
370
    15
100
AcDbLine
 10
211.3903587177
 20
112.2971817629
 30
0.0
 11
210.5930683627
 21
111.3570761179
 31
0.0
  0
LINE
  5
D9
330
1F
100
AcDbEntity
  8
0
  6
Continuous
 62
     7
370
    15
100
AcDbLine
 10
210.5709177866
 20
111.3859329151
 30
0.0
 11
211.3682081415
 21
112.3260385601
 31
0.0
  0
SPLINE
  5
DA
330
1F
100
AcDbEntity
  8
0
  6
Continuous
 62
     7
370
    15
100
AcDbSpline
210
0.0
220
0.0
230
1.0
 70
     8
 71
     3
 72
    10
 73
     6
 74
     0
 42
0.00000001
 43
0.00000001
 12
1.0
 22
0.0
 32
0.0
 13
1.0
 23
0.0
 33
0.0
 40
0.0
 40
0.0
 40
0.0
 40
0.0
 40
0.7264883744041987
 40
0.9951962987935057
 40
1.0
 40
1.0
 40
1.0
 40
1.0
 10
209.4593991949339
 20
113.4930977375955
 30
0.0
 10
209.5841200052661
 20
113.3887673179749
 30
0.0
 10
209.7549715883033
 20
113.2458479663155
 30
0.0
 10
209.9518904294215
 20
113.0230255943335
 30
0.0
 10
210.0108869172504
 20
112.9376943861406
 30
0.0
 10
210.0119230761309
 20
112.9361957089753
 30
0.0
  0
SPLINE
  5
DB
330
1F
100
AcDbEntity
  8
0
  6
Continuous
 62
     7
370
    15
100
AcDbSpline
210
0.0
220
0.0
230
1.0
 70
     8
 71
     3
 72
    10
 73
     6
 74
     0
 42
0.00000001
 43
0.00000001
 12
1.0
 22
0.0
 32
0.0
 13
1.0
 23
0.0
 33
0.0
 40
0.0
 40
0.0
 40
0.0
 40
0.0
 40
0.2817247314340841
 40
0.8470910032693132
 40
1.0
 40
1.0
 40
1.0
 40
1.0
 10
210.4877786203404
 20
112.0777689164282
 30
0.0
 10
210.5164861583757
 20
111.9866795752416
 30
0.0
 10
210.6028040938723
 20
111.7127917947115
 30
0.0
 10
210.5999227801043
 20
111.5196049916425
 30
0.0
 10
210.5760087009066
 20
111.4093948437786
 30
0.0
 10
210.5709177865763
 20
111.3859329150767
 30
0.0
  0
LINE
  5
DC
330
1F
100
AcDbEntity
  8
0
  6
Continuous
 62
     7
370
    15
100
AcDbLine
 10
210.2566895499
 20
114.4332033826
 30
0.0
 11
209.4593991949
 21
113.4930977376
 31
0.0
  0
ARC
  5
DD
330
1F
100
AcDbEntity
  8
0
  6
Continuous
 62
     7
370
    15
100
AcDbCircle
 10
216.1184047046
 20
115.6212730061
 30
0.0
 40
6.979449605265833
100
AcDbArc
 50
217.3606496826
 51
217.6592851624
  0
ARC
  5
DE
330
1F
100
AcDbEntity
  8
0
  6
Continuous
 62
     7
370
    15
100
AcDbCircle
 10
216.2701140902
 20
115.2348290681
 30
0.0
 40
6.692524025895252
100
AcDbArc
 50
260.9632464613
 51
319.3063176061
  0
ARC
  5
DF
330
1F
100
AcDbEntity
  8
0
  6
Continuous
 62
     7
370
    15
100
AcDbCircle
 10
215.7916786872
 20
115.6343011808
 30
0.0
 40
6.684498167694239
100
AcDbArc
 50
140.0514744869
 51
198.6825043428
  0
SPLINE
  5
E0
330
1F
100
AcDbEntity
  8
0
  6
Continuous
 62
     7
370
    15
100
AcDbSpline
210
0.0
220
0.0
230
1.0
 70
     8
 71
     3
 72
    10
 73
     6
 74
     0
 42
0.00000001
 43
0.00000001
 12
1.0
 22
0.0
 32
0.0
 13
1.0
 23
0.0
 33
0.0
 40
0.0
 40
0.0
 40
0.0
 40
0.0
 40
0.3401614182797624
 40
0.6905233023826239
 40
1.0
 40
1.0
 40
1.0
 40
1.0
 10
205.7412819429417
 20
110.4642090165765
 30
0.0
 10
205.5831954833072
 20
110.0470208858044
 30
0.0
 10
205.2622820042864
 20
109.2001343481354
 30
0.0
 10
205.0440124842681
 20
107.8992177783038
 30
0.0
 10
205.055465500799
 20
107.0401449515545
 30
0.0
 10
205.060837180831
 20
106.6372236480714
 30
0.0
  0
SPLINE
  5
E1
330
1F
100
AcDbEntity
  8
0
  6
Continuous
 62
     7
370
    15
100
AcDbSpline
210
0.0
220
0.0
230
1.0
 70
     8
 71
     3
 72
    14
 73
    10
 74
     0
 42
0.00000001
 43
0.00000001
 12
1.0
 22
0.0
 32
0.0
 13
1.0
 23
0.0
 33
0.0
 40
0.0
 40
0.0
 40
0.0
 40
0.0
 40
0.1271126640971743
 40
0.2544453455295329
 40
0.4212689010359917
 40
0.5883290780189611
 40
0.793226489144591
 40
0.9982399128633055
 40
1.0
 40
1.0
 40
1.0
 40
1.0
 10
205.060837180831
 20
106.6372236480714
 30
0.0
 10
205.0989170716439
 20
106.2271499196684
 30
0.0
 10
205.1751427651611
 20
105.4062926726177
 30
0.0
 10
205.4818659531697
 20
104.1366467489545
 30
0.0
 10
205.9503668143031
 20
102.8640465630217
 30
0.0
 10
206.6496185814218
 20
101.553664935531
 30
0.0
 10
207.5408250047645
 20
100.3621921472028
 30
0.0
 10
208.2668368429357
 20
99.68289674019704
 30
0.0
 10
208.649754094626
 20
99.3878734255633
 30
0.0
 10
208.6530135437031
 20
99.38536214286097
 30
0.0
  0
SPLINE
  5
E2
330
1F
100
AcDbEntity
  8
0
  6
Continuous
 62
     7
370
    15
100
AcDbSpline
210
0.0
220
0.0
230
1.0
 70
     8
 71
     3
 72
    14
 73
    10
 74
     0
 42
0.00000001
 43
0.00000001
 12
1.0
 22
0.0
 32
0.0
 13
1.0
 23
0.0
 33
0.0
 40
0.0
 40
0.0
 40
0.0
 40
0.0
 40
0.1271125310358834
 40
0.2544451633382476
 40
0.4212687218298464
 40
0.5883290416532284
 40
0.7932264499791413
 40
0.9982397401883422
 40
1.0
 40
1.0
 40
1.0
 40
1.0
 10
217.0642589642782
 20
101.3802727928162
 30
0.0
 10
216.7288572346106
 20
101.1337675065812
 30
0.0
 10
216.0574730115625
 20
100.6403300987295
 30
0.0
 10
214.8557530268995
 20
100.0313121644155
 30
0.0
 10
213.5142460528818
 20
99.55141346632442
 30
0.0
 10
211.9494551834457
 20
99.23257697355321
 30
0.0
 10
210.3125954710084
 20
99.14829915902146
 30
0.0
 10
209.1978481200859
 20
99.27512069615112
 30
0.0
 10
208.6576125600908
 20
99.38443158110516
 30
0.0
 10
208.6530135437031
 20
99.38536214286097
 30
0.0
  0
SPLINE
  5
E3
330
1F
100
AcDbEntity
  8
0
  6
Continuous
 62
     7
370
    15
100
AcDbSpline
210
0.0
220
0.0
230
1.0
 70
     8
 71
     3
 72
    10
 73
     6
 74
     0
 42
0.00000001
 43
0.00000001
 12
1.0
 22
0.0
 32
0.0
 13
1.0
 23
0.0
 33
0.0
 40
0.0
 40
0.0
 40
0.0
 40
0.0
 40
0.3401613928368503
 40
0.6905229943858536
 40
1.0
 40
1.0
 40
1.0
 40
1.0
 10
219.437749446847
 20
104.4657822010816
 30
0.0
 10
219.2387452976347
 20
104.0665141431187
 30
0.0
 10
218.834769585214
 20
103.2560054235728
 30
0.0
 10
218.0181848142644
 20
102.2171227725565
 30
0.0
 10
217.3688224230116
 20
101.6474570024425
 30
0.0
 10
217.0642589642782
 20
101.3802727928162
 30
0.0
  0
ARC
  5
E4
330
1F
100
AcDbEntity
  8
0
  6
Continuous
 62
     7
370
    15
100
AcDbCircle
 10
211.5117647341
 20
106.239912344
 30
0.0
 40
7.533972253939567
100
AcDbArc
 50
165.4698357498
 51
317.7407341864
  0
SPLINE
  5
E5
330
1F
100
AcDbEntity
  8
0
  6
Continuous
 62
     7
370
    15
100
AcDbSpline
210
0.0
220
0.0
230
1.0
 70
     8
 71
     3
 72
    10
 73
     6
 74
     0
 42
0.00000001
 43
0.00000001
 12
1.0
 22
0.0
 32
0.0
 13
1.0
 23
0.0
 33
0.0
 40
0.0
 40
0.0
 40
0.0
 40
0.0
 40
0.1480672572916546
 40
0.9078075693006825
 40
1.0
 40
1.0
 40
1.0
 40
1.0
 10
204.2187613858957
 20
108.1301081238092
 30
0.0
 10
204.2377017714669
 20
108.1770687300311
 30
0.0
 10
204.3538261983087
 20
108.464986495018
 30
0.0
 10
204.5070700959562
 20
108.8415526436928
 30
0.0
 10
204.6590536123489
 20
109.1717831398703
 30
0.0
 10
204.6755006029387
 20
109.2075192380474
 30
0.0
  0
ARC
  5
E6
330
1F
100
AcDbEntity
  8
0
  6
Continuous
 62
     7
370
    15
100
AcDbCircle
 10
-154.4469128618
 20
267.6034067286
 30
0.0
 40
392.973616333541
100
AcDbArc
 50
336.4298149349
 51
337.3277325069
  0
SPLINE
  5
E7
330
1F
100
AcDbEntity
  8
0
  6
Continuous
 62
     7
370
    15
100
AcDbSpline
210
0.0
220
0.0
230
1.0
 70
     8
 71
     3
 72
    15
 73
    11
 74
     0
 42
0.00000001
 43
0.00000001
 12
1.0
 22
0.0
 32
0.0
 13
1.0
 23
0.0
 33
0.0
 40
0.0
 40
0.0
 40
0.0
 40
0.0
 40
0.1220877159500064
 40
0.2441780620151137
 40
0.3704039806464899
 40
0.4966403231955538
 40
0.6208487092769001
 40
0.7450698121286926
 40
0.8725282210614296
 40
1.0
 40
1.0
 40
1.0
 40
1.0
 10
208.15957649193
 20
116.1280060430766
 30
0.0
 10
208.4541654177553
 20
116.8042439632335
 30
0.0
 10
209.0433496156854
 20
118.1567343716268
 30
0.0
 10
210.0482814344085
 20
120.0922760895524
 30
0.0
 10
211.1381762535282
 20
121.9411574493101
 30
0.0
 10
212.3055361309024
 20
123.6715548732576
 30
0.0
 10
213.52366747209
 20
125.2578655900188
 30
0.0
 10
214.7904045527447
 20
126.708087753474
 30
0.0
 10
216.1012595807551
 20
128.0361773407402
 30
0.0
 10
216.99939939654
 20
128.8057724975734
 30
0.0
 10
217.4484928562422
 20
129.1905902569891
 30
0.0
  0
SPLINE
  5
E8
330
1F
100
AcDbEntity
  8
0
  6
Continuous
 62
     7
370
    15
100
AcDbSpline
210
0.0
220
0.0
230
1.0
 70
     8
 71
     3
 72
     9
 73
     5
 74
     0
 42
0.00000001
 43
0.00000001
 12
1.0
 22
0.0
 32
0.0
 13
1.0
 23
0.0
 33
0.0
 40
0.0
 40
0.0
 40
0.0
 40
0.0
 40
0.7214415012549379
 40
0.9999999999999999
 40
0.9999999999999999
 40
0.9999999999999999
 40
0.9999999999999999
 10
221.8560439958353
 20
110.1295794022047
 30
0.0
 10
222.1351950315623
 20
110.8156846489553
 30
0.0
 10
222.5221301264265
 20
111.7667045799644
 30
0.0
 10
222.8058827640387
 20
112.7236636051521
 30
0.0
 10
222.8849244727869
 20
112.990232674569
 30
0.0
  0
SPLINE
  5
E9
330
1F
100
AcDbEntity
  8
0
  6
Continuous
 62
     7
370
    15
100
AcDbSpline
210
0.0
220
0.0
230
1.0
 70
     8
 71
     3
 72
    13
 73
     9
 74
     0
 42
0.00000001
 43
0.00000001
 12
1.0
 22
0.0
 32
0.0
 13
1.0
 23
0.0
 33
0.0
 40
0.0
 40
0.0
 40
0.0
 40
0.0
 40
0.0417608367911565
 40
0.233891320592604
 40
0.4229351887004157
 40
0.6119985652938177
 40
0.8059889985931991
 40
1.0
 40
1.0
 40
1.0
 40
1.0
 10
223.6624372615595
 20
115.9291672764123
 30
0.0
 10
223.6992719630742
 20
116.0837412957688
 30
0.0
 10
223.9055733124461
 20
116.949469195269
 30
0.0
 10
224.1196710513296
 20
118.4928041799785
 30
0.0
 10
224.3023615764811
 20
120.5385394474011
 30
0.0
 10
224.3210498229849
 20
122.533758156679
 30
0.0
 10
224.2074419809664
 20
124.4861240869519
 30
0.0
 10
224.0169201177998
 20
125.7324488995022
 30
0.0
 10
223.9216541363974
 20
126.3556443398596
 30
0.0
  0
ARC
  5
EA
330
1F
100
AcDbEntity
  8
0
  6
Continuous
 62
     7
370
    15
100
AcDbCircle
 10
-140.7103882942
 20
261.5878719153
 30
0.0
 40
392.9300601818445
100
AcDbArc
 50
336.4297657932
 51
337.3277829245
  0
LINE
  5
EB
330
1F
100
AcDbEntity
  8
0
  6
Continuous
 62
     7
370
    15
100
AcDbLine
 10
211.8473549797
 20
110.5908049165
 30
0.0
 11
211.4401323213
 21
110.9608006907
 31
0.0
  0
SPLINE
  5
EC
330
1F
100
AcDbEntity
  8
0
  6
Continuous
 62
     7
370
    15
100
AcDbSpline
210
0.0
220
0.0
230
1.0
 70
     8
 71
     3
 72
     9
 73
     5
 74
     0
 42
0.00000001
 43
0.00000001
 12
1.0
 22
0.0
 32
0.0
 13
1.0
 23
0.0
 33
0.0
 40
0.0
 40
0.0
 40
0.0
 40
0.0
 40
0.1224668511994459
 40
1.0
 40
1.0
 40
1.0
 40
1.0
 10
210.5383773758192
 20
112.0133311731518
 30
0.0
 10
210.5081550574591
 20
112.0510082690268
 30
0.0
 10
210.261375475359
 20
112.3586596498371
 30
0.0
 10
210.0987297547796
 20
112.7213950158136
 30
0.0
 10
209.9560027434607
 20
113.0397073237003
 30
0.0
  0
SPLINE
  5
ED
330
1F
100
AcDbEntity
  8
0
  6
Continuous
 62
     7
370
    15
100
AcDbSpline
210
0.0
220
0.0
230
1.0
 70
     8
 71
     3
 72
    18
 73
    14
 74
     0
 42
0.00000001
 43
0.00000001
 12
1.0
 22
0.0
 32
0.0
 13
1.0
 23
0.0
 33
0.0
 40
0.0
 40
0.0
 40
0.0
 40
0.0
 40
0.0143527966926979
 40
0.1257507289850093
 40
0.236305731568244
 40
0.3436640277494981
 40
0.4473821647723951
 40
0.5493520321131712
 40
0.6524459106081226
 40
0.7587315224332583
 40
0.8684197766767103
 40
0.9798883332552928
 40
1.0
 40
1.0
 40
1.0
 40
1.0
 10
213.9118698849459
 20
106.9497810920478
 30
0.0
 10
213.8997318085962
 20
106.930480464015
 30
0.0
 10
213.7933851514165
 20
106.7613797586291
 30
0.0
 10
213.460743110356
 20
106.5503035036313
 30
0.0
 10
212.9652965686757
 20
106.3786982185131
 30
0.0
 10
212.4430774782067
 20
106.400373003861
 30
0.0
 10
211.976176861111
 20
106.5905850229463
 30
0.0
 10
211.6046825810935
 20
106.9223211539755
 30
0.0
 10
211.360229994082
 20
107.3595596917703
 30
0.0
 10
211.2631837742767
 20
107.8679912162093
 30
0.0
 10
211.3461810458273
 20
108.3831040267816
 30
0.0
 10
211.498383630983
 20
108.7549853996525
 30
0.0
 10
211.6530902177624
 20
108.8949550150111
 30
0.0
 10
211.676736684062
 20
108.9163489767128
 30
0.0
  0
LINE
  5
EE
330
1F
100
AcDbEntity
  8
0
  6
Continuous
 62
     7
370
    15
100
AcDbLine
 10
207.0086219772
 20
114.770886047
 30
0.0
 11
205.2986671641
 21
110.6299114425
 31
0.0
  0
ARC
  5
EF
330
1F
100
AcDbEntity
  8
0
  6
Continuous
 62
     7
370
    15
100
AcDbCircle
 10
171.161555419
 20
124.7380726077
 30
0.0
 40
36.93755013212704
100
AcDbArc
 50
335.1367246233
 51
337.5457058842
  0
ARC
  5
F0
330
1F
100
AcDbEntity
  8
0
  6
Continuous
 62
     7
370
    15
100
AcDbCircle
 10
241.4329546027
 20
100.5680302985
 30
0.0
 40
37.23917007833831
100
AcDbArc
 50
140.4800503612
 51
157.5798436228
  0
SPLINE
  5
F1
330
1F
100
AcDbEntity
  8
0
  6
Continuous
 62
     7
370
    15
100
AcDbSpline
210
0.0
220
0.0
230
1.0
 70
     8
 71
     3
 72
     9
 73
     5
 74
     0
 42
0.00000001
 43
0.00000001
 12
1.0
 22
0.0
 32
0.0
 13
1.0
 23
0.0
 33
0.0
 40
0.0
 40
0.0
 40
0.0
 40
0.0
 40
0.1094368500839246
 40
1.0
 40
1.0
 40
1.0
 40
1.0
 10
213.017975301959
 20
124.6364228671194
 30
0.0
 10
213.007577896121
 20
124.6245135359402
 30
0.0
 10
212.91256962578
 20
124.5156897606757
 30
0.0
 10
212.8035942300143
 20
124.383120351993
 30
0.0
 10
212.7065447582979
 20
124.265058921814
 30
0.0
  0
SPLINE
  5
F2
330
1F
100
AcDbEntity
  8
0
  6
Continuous
 62
     7
370
    15
100
AcDbSpline
210
0.0
220
0.0
230
1.0
 70
     8
 71
     3
 72
    12
 73
     8
 74
     0
 42
0.00000001
 43
0.00000001
 12
1.0
 22
0.0
 32
0.0
 13
1.0
 23
0.0
 33
0.0
 40
0.0
 40
0.0
 40
0.0
 40
0.0
 40
0.2188996432148161
 40
0.4437469610085423
 40
0.6628054937906475
 40
0.8894870927855166
 40
1.0
 40
1.0
 40
1.0
 40
1.0
 10
217.4484928562422
 20
129.1905902569891
 30
0.0
 10
217.5818325634863
 20
129.2983680271598
 30
0.0
 10
217.8521349221488
 20
129.5168519738448
 30
0.0
 10
218.1808429909803
 20
129.7572012200137
 30
0.0
 10
218.4308180013279
 20
129.9204104651563
 30
0.0
 10
218.5738811143992
 20
129.9957746414311
 30
0.0
 10
218.5882938549966
 20
129.9815985709777
 30
0.0
 10
218.5930175199289
 20
129.9769524728657
 30
0.0
  0
SPLINE
  5
F3
330
1F
100
AcDbEntity
  8
0
  6
Continuous
 62
     7
370
    15
100
AcDbSpline
210
0.0
220
0.0
230
1.0
 70
     8
 71
     3
 72
    12
 73
     8
 74
     0
 42
0.00000001
 43
0.00000001
 12
1.0
 22
0.0
 32
0.0
 13
1.0
 23
0.0
 33
0.0
 40
0.0
 40
0.0
 40
0.0
 40
0.0
 40
0.2188992922426405
 40
0.4437468215759571
 40
0.6628054017168323
 40
0.8894870971210608
 40
0.9999999999999999
 40
0.9999999999999999
 40
0.9999999999999999
 40
0.9999999999999999
 10
223.9216541363974
 20
126.3556443398596
 30
0.0
 10
223.8863566439554
 20
126.5372767381586
 30
0.0
 10
223.8148025063414
 20
126.905477103791
 30
0.0
 10
223.681087107994
 20
127.3483433191248
 30
0.0
 10
223.5344223781393
 20
127.6852685917046
 30
0.0
 10
223.4063384165031
 20
127.8793788595952
 30
0.0
 10
223.3320622722924
 20
127.9040458253338
 30
0.0
 10
223.3077188446303
 20
127.9121302312017
 30
0.0
  0
LINE
  5
F4
330
1F
100
AcDbEntity
  8
0
  6
Continuous
 62
     7
370
    15
100
AcDbLine
 10
216.1989932372
 20
129.8382543271
 30
0.0
 11
214.4486916675
 21
126.2879241502
 31
0.0
  0
ARC
  5
F5
330
1F
100
AcDbEntity
  8
0
  6
Continuous
 62
     7
370
    15
100
AcDbCircle
 10
216.5327710211
 20
129.6736835434
 30
0.0
 40
0.3721439934004258
100
AcDbArc
 50
117.4661586487
 51
153.7541706396
  0
LINE
  5
F6
330
1F
100
AcDbEntity
  8
0
  6
Continuous
 62
     7
370
    15
100
AcDbLine
 10
229.4233714654
 20
136.8097476905
 30
0.0
 11
216.3611290469
 21
130.0038807338
 31
0.0
  0
ARC
  5
F7
330
1F
100
AcDbEntity
  8
0
  6
Continuous
 62
     7
370
    15
100
AcDbCircle
 10
229.6045752883
 20
136.4486339019
 30
0.0
 40
0.4040272190387185
100
AcDbArc
 50
335.1613034956
 51
116.6471077703
  0
LINE
  5
F8
330
1F
100
AcDbEntity
  8
0
  6
Continuous
 62
     7
370
    15
100
AcDbLine
 10
224.1724779322
 20
124.5166734105
 30
0.0
 11
229.9712275579
 21
136.2789161747
 31
0.0
  0
ARC
  5
F9
330
1F
100
AcDbEntity
  8
0
  6
Continuous
 62
     7
370
    15
100
AcDbCircle
 10
229.6051566051
 20
136.4492753254
 30
0.0
 40
0.3838280820626039
100
AcDbArc
 50
335.1620125988
 51
116.6470174565
  0
LINE
  5
FA
330
1F
100
AcDbEntity
  8
0
  6
Continuous
 62
     7
370
    15
100
AcDbLine
 10
229.4330125167
 20
136.7923356836
 30
0.0
 11
216.3707738235
 21
129.9864705896
 31
0.0
  0
ARC
  5
FB
330
1F
100
AcDbEntity
  8
0
  6
Continuous
 62
     7
370
    15
100
AcDbCircle
 10
216.5338203891
 20
129.672795162
 30
0.0
 40
0.3535200933446182
100
AcDbArc
 50
117.4651344286
 51
153.754987047
  0
LINE
  5
FC
330
1F
100
AcDbEntity
  8
0
  6
Continuous
 62
     7
370
    15
100
AcDbLine
 10
216.2167442455
 20
129.8291255032
 30
0.0
 11
214.499951662
 21
126.3467669731
 31
0.0
  0
LINE
  5
FD
330
1F
100
AcDbEntity
  8
0
  6
Continuous
 62
     7
370
    15
100
AcDbLine
 10
224.1676536813
 20
124.5520264154
 30
0.0
 11
229.9534802749
 21
136.2880468612
 31
0.0
  0
LINE
  5
FE
330
1F
100
AcDbEntity
  8
0
  6
Continuous
 62
     7
370
    15
100
AcDbLine
 10
216.7344590142
 20
129.3268390244
 30
0.0
 11
216.5158925071
 21
129.6107303595
 31
0.0
  0
LINE
  5
FF
330
1F
100
AcDbEntity
  8
0
  6
Continuous
 62
     7
370
    15
100
AcDbLine
 10
223.2618530705
 20
131.3333716487
 30
0.0
 11
219.7318797424
 21
129.4941362237
 31
0.0
  0
ARC
  5
100
330
1F
100
AcDbEntity
  8
0
  6
Continuous
 62
     7
370
    15
100
AcDbCircle
 10
223.7148606914
 20
130.4305800327
 30
0.0
 40
1.01007356493382
100
AcDbArc
 50
335.1618949442
 51
116.6468278436
  0
LINE
  5
101
330
1F
100
AcDbEntity
  8
0
  6
Continuous
 62
     7
370
    15
100
AcDbLine
 10
223.5005957498
 20
127.7123596763
 30
0.0
 11
224.6315007522
 21
130.0062928593
 31
0.0
  0
LINE
  5
102
330
1F
100
AcDbEntity
  8
0
  6
Continuous
 62
     7
370
    15
100
AcDbLine
 10
227.2233640268
 20
133.9952145016
 30
0.0
 11
229.5781349256
 21
136.4165973162
 31
0.0
  0
LINE
  5
103
330
1F
100
AcDbEntity
  8
0
  6
Continuous
 62
     7
370
    15
100
AcDbLine
 10
226.0733408346
 20
131.6624973213
 30
0.0
 11
227.2233640268
 21
133.9952145016
 31
0.0
  0
LINE
  5
104
330
1F
100
AcDbEntity
  8
0
  6
Continuous
 62
     7
370
    15
100
AcDbLine
 10
227.2233640268
 20
133.9952145016
 30
0.0
 11
224.9098730697
 21
132.7898074185
 31
0.0
  0
SPLINE
  5
105
330
1F
100
AcDbEntity
  8
0
  6
Continuous
 62
     7
370
    15
100
AcDbSpline
210
0.0
220
0.0
230
1.0
 70
     8
 71
     3
 72
    10
 73
     6
 74
     0
 42
0.00000001
 43
0.00000001
 12
1.0
 22
0.0
 32
0.0
 13
1.0
 23
0.0
 33
0.0
 40
0.0
 40
0.0
 40
0.0
 40
0.0
 40
0.3960521317877058
 40
0.7919123112897226
 40
1.0
 40
1.0
 40
1.0
 40
1.0
 10
216.7344590141554
 20
129.326839024365
 30
0.0
 10
216.7813494180464
 20
129.2700449853977
 30
0.0
 10
216.8751074997288
 20
129.1564844334999
 30
0.0
 10
217.0231589008399
 20
129.0110829200588
 30
0.0
 10
217.1110326233486
 20
128.942965026673
 30
0.0
 10
217.1413091435213
 20
128.9194952940346
 30
0.0
  0
ARC
  5
106
330
1F
100
AcDbEntity
  8
0
  6
Continuous
 62
     7
370
    15
100
AcDbCircle
 10
223.4914791497
 20
130.1650670603
 30
0.0
 40
2.473694174689922
100
AcDbArc
 50
36.2384636932
 51
55.5700082957
  0
SPLINE
  5
107
330
1F
100
AcDbEntity
  8
0
  6
Continuous
 62
     7
370
    15
100
AcDbSpline
210
0.0
220
0.0
230
1.0
 70
     8
 71
     3
 72
    14
 73
    10
 74
     0
 42
0.00000001
 43
0.00000001
 12
1.0
 22
0.0
 32
0.0
 13
1.0
 23
0.0
 33
0.0
 40
0.0
 40
0.0
 40
0.0
 40
0.0
 40
0.2210609581632064
 40
0.3460793345319889
 40
0.4396013951915105
 40
0.5338876791474205
 40
0.6146577331109225
 40
0.7517266978398874
 40
1.0
 40
1.0
 40
1.0
 40
1.0
 10
225.486670942523
 20
131.6273845975996
 30
0.0
 10
225.5230334658635
 20
131.5808765012335
 30
0.0
 10
225.5799603786215
 20
131.5080663081788
 30
0.0
 10
225.6746546552406
 20
131.4368420137933
 30
0.0
 10
225.7535491141618
 20
131.4069535073811
 30
0.0
 10
225.8259499937708
 20
131.4084361241515
 30
0.0
 10
225.9016045477756
 20
131.4393408780659
 30
0.0
 10
225.99401073972
 20
131.5190612782121
 30
0.0
 10
226.042256458552
 20
131.606293935836
 30
0.0
 10
226.0733408345957
 20
131.6624973213077
 30
0.0
  0
SPLINE
  5
108
330
1F
100
AcDbEntity
  8
0
  6
Continuous
 62
     7
370
    15
100
AcDbSpline
210
0.0
220
0.0
230
1.0
 70
     8
 71
     3
 72
    14
 73
    10
 74
     0
 42
0.00000001
 43
0.00000001
 12
1.0
 22
0.0
 32
0.0
 13
1.0
 23
0.0
 33
0.0
 40
0.0
 40
0.0
 40
0.0
 40
0.0
 40
0.2234960322587226
 40
0.3567623753082832
 40
0.4531204700011985
 40
0.53446218399011
 40
0.6157310547702386
 40
0.7396144424467018
 40
0.9999999999999999
 40
0.9999999999999999
 40
0.9999999999999999
 40
0.9999999999999999
 10
224.9098730697413
 20
132.7898074185253
 30
0.0
 10
224.859790683201
 20
132.760824961999
 30
0.0
 10
224.7798451423221
 20
132.7145608295752
 30
0.0
 10
224.6999802226098
 20
132.6279060700818
 30
0.0
 10
224.6651352213858
 20
132.5544815502526
 30
0.0
 10
224.6594917015132
 20
132.4860243901639
 30
0.0
 10
224.6798366886886
 20
132.412161366893
 30
0.0
 10
224.7506190917192
 20
132.3079138737611
 30
0.0
 10
224.8337633441098
 20
132.2468150345784
 30
0.0
 10
224.8901029541273
 20
132.205413678825
 30
0.0
  0
LINE
  5
109
330
1F
100
AcDbEntity
  8
0
  6
HIDDEN
 62
     7
370
     0
100
AcDbLine
 10
180.0101560964
 20
129.5530442392
 30
0.0
 11
180.0101560964
 21
90.1530441141
 31
0.0
  0
SPLINE
  5
10A
330
1F
100
AcDbEntity
  8
0
  6
HIDDEN
 62
     7
370
     0
100
AcDbSpline
210
0.0
220
0.0
230
1.0
 70
     8
 71
     3
 72
    12
 73
     8
 74
     0
 42
0.00000001
 43
0.00000001
 12
1.0
 22
0.0
 32
0.0
 13
1.0
 23
0.0
 33
0.0
 40
0.0
 40
0.0
 40
0.0
 40
0.0
 40
0.4999999999999956
 40
0.4999999999999956
 40
0.7499999999999978
 40
0.7499999999999978
 40
1.0
 40
1.0
 40
1.0
 40
1.0
 10
186.6822504773004
 20
128.8878004598202
 30
0.0
 10
186.7009437104308
 20
128.9095942134482
 30
0.0
 10
186.7265990078426
 20
128.9306143751578
 30
0.0
 10
186.786759630529
 20
128.9583197211215
 30
0.0
 10
186.8108319422834
 20
128.9669549373149
 30
0.0
 10
186.869213462634
 20
128.9801695825415
 30
0.0
 10
186.904682290287
 20
128.9847005568716
 30
0.0
 10
186.9420580984357
 20
128.9847005568716
 30
0.0
  0
LINE
  5
10B
330
1F
100
AcDbEntity
  8
0
  6
HIDDEN
 62
     7
370
     0
100
AcDbLine
 10
186.9420580058
 20
128.9847009128
 30
0.0
 11
189.0782540157
 21
128.9847009128
 31
0.0
  0
SPLINE
  5
10C
330
1F
100
AcDbEntity
  8
0
  6
HIDDEN
 62
     7
370
     0
100
AcDbSpline
210
0.0
220
0.0
230
1.0
 70
     8
 71
     3
 72
    12
 73
     8
 74
     0
 42
0.00000001
 43
0.00000001
 12
1.0
 22
0.0
 32
0.0
 13
1.0
 23
0.0
 33
0.0
 40
0.0
 40
0.0
 40
0.0
 40
0.0
 40
0.2500000000000016
 40
0.2500000000000016
 40
0.5000000000000032
 40
0.5000000000000032
 40
1.0
 40
1.0
 40
1.0
 40
1.0
 10
189.0782540944373
 20
128.9847005568716
 30
0.0
 10
189.115765980482
 20
128.9847005568716
 30
0.0
 10
189.1510533281867
 20
128.9801970126091
 30
0.0
 10
189.2099831764251
 20
128.9668238131558
 30
0.0
 10
189.2335089028942
 20
128.9583389105847
 30
0.0
 10
189.2937676906623
 20
128.9305911067501
 30
0.0
 10
189.3193624529516
 20
128.9096012430097
 30
0.0
 10
189.3380617155726
 20
128.8878004598202
 30
0.0
  0
ELLIPSE
  5
10D
330
1F
100
AcDbEntity
  8
0
  6
HIDDEN
 62
     7
370
     0
100
AcDbEllipse
 10
179.061226924
 20
109.8530441766
 30
0.0
 11
9.367417879781812
 21
19.74174915274995
 31
0.0
210
0.0
220
0.0
230
1.0
 40
0.3419987131
 41
5.185211263708411
 42
6.132113578252568
  0
SPLINE
  5
10E
330
1F
100
AcDbEntity
  8
0
  6
HIDDEN
 62
     7
370
     0
100
AcDbSpline
210
0.0
220
0.0
230
1.0
 70
     8
 71
     3
 72
    12
 73
     8
 74
     0
 42
0.00000001
 43
0.00000001
 12
1.0
 22
0.0
 32
0.0
 13
1.0
 23
0.0
 33
0.0
 40
0.0
 40
0.0
 40
0.0
 40
0.0
 40
0.4999999999999916
 40
0.4999999999999916
 40
0.7499999999999958
 40
0.7499999999999958
 40
1.0
 40
1.0
 40
1.0
 40
1.0
 10
189.3380617155726
 20
115.9912893036975
 30
0.0
 10
189.3193684824422
 20
115.9237066672572
 30
0.0
 10
189.2937131850304
 20
115.8572240977797
 30
0.0
 10
189.233552562344
 20
115.7682290148822
 30
0.0
 10
189.2094802505896
 20
115.740227117883
 30
0.0
 10
189.1510987302391
 20
115.6971507172179
 30
0.0
 10
189.1156299025861
 20
115.6822571722901
 30
0.0
 10
189.0782540944373
 20
115.6822571722901
 30
0.0
  0
LINE
  5
10F
330
1F
100
AcDbEntity
  8
0
  6
HIDDEN
 62
     7
370
     0
100
AcDbLine
 10
189.0782540157
 20
115.6822573637
 30
0.0
 11
186.9420580058
 21
115.6822573637
 31
0.0
  0
SPLINE
  5
110
330
1F
100
AcDbEntity
  8
0
  6
HIDDEN
 62
     7
370
     0
100
AcDbSpline
210
0.0
220
0.0
230
1.0
 70
     8
 71
     3
 72
    12
 73
     8
 74
     0
 42
0.00000001
 43
0.00000001
 12
1.0
 22
0.0
 32
0.0
 13
1.0
 23
0.0
 33
0.0
 40
0.0
 40
0.0
 40
0.0
 40
0.0
 40
0.2499999999999986
 40
0.2499999999999986
 40
0.4999999999999971
 40
0.4999999999999971
 40
1.0
 40
1.0
 40
1.0
 40
1.0
 10
186.9420580984357
 20
115.6822571722901
 30
0.0
 10
186.904546212391
 20
115.6822571722901
 30
0.0
 10
186.8692588646863
 20
115.6970619865769
 30
0.0
 10
186.8103290164479
 20
115.7406538597027
 30
0.0
 10
186.7868032899788
 20
115.7681672857887
 30
0.0
 10
186.7265445022107
 20
115.8572990179023
 30
0.0
 10
186.7009497399214
 20
115.9236848685201
 30
0.0
 10
186.6822504773004
 20
115.9912893036975
 30
0.0
  0
ELLIPSE
  5
111
330
1F
100
AcDbEntity
  8
0
  6
HIDDEN
 62
     7
370
     0
100
AcDbEllipse
 10
196.9590852689
 20
109.8530441766
 30
0.0
 11
-9.367417879781669
 21
19.74174915274995
 31
0.0
210
0.0
220
0.0
230
1.0
 40
0.3419987131
 41
0.1510717289270581
 42
1.097974043471188
  0
SPLINE
  5
112
330
1F
100
AcDbEntity
  8
0
  6
HIDDEN
 62
     7
370
     0
100
AcDbSpline
210
0.0
220
0.0
230
1.0
 70
     8
 71
     3
 72
    12
 73
     8
 74
     0
 42
0.00000001
 43
0.00000001
 12
1.0
 22
0.0
 32
0.0
 13
1.0
 23
0.0
 33
0.0
 40
0.0
 40
0.0
 40
0.0
 40
0.0
 40
0.4999999999999993
 40
0.4999999999999993
 40
0.7499999999999997
 40
0.7499999999999997
 40
1.0
 40
1.0
 40
1.0
 40
1.0
 10
186.6822504773004
 20
103.7147990495792
 30
0.0
 10
186.7009437104308
 20
103.7823816860195
 30
0.0
 10
186.7265990078426
 20
103.848864255497
 30
0.0
 10
186.786759630529
 20
103.9378593383945
 30
0.0
 10
186.8108319422834
 20
103.9658612353936
 30
0.0
 10
186.869213462634
 20
104.0089376360588
 30
0.0
 10
186.904682290287
 20
104.0238311809866
 30
0.0
 10
186.9420580984357
 20
104.0238311809866
 30
0.0
  0
LINE
  5
113
330
1F
100
AcDbEntity
  8
0
  6
HIDDEN
 62
     7
370
     0
100
AcDbLine
 10
186.9420580058
 20
104.0238309895
 30
0.0
 11
189.0782540157
 21
104.0238309895
 31
0.0
  0
SPLINE
  5
114
330
1F
100
AcDbEntity
  8
0
  6
HIDDEN
 62
     7
370
     0
100
AcDbSpline
210
0.0
220
0.0
230
1.0
 70
     8
 71
     3
 72
    12
 73
     8
 74
     0
 42
0.00000001
 43
0.00000001
 12
1.0
 22
0.0
 32
0.0
 13
1.0
 23
0.0
 33
0.0
 40
0.0
 40
0.0
 40
0.0
 40
0.0
 40
0.25
 40
0.25
 40
0.5
 40
0.5
 40
1.0
 40
1.0
 40
1.0
 40
1.0
 10
189.0782540944373
 20
104.0238311809866
 30
0.0
 10
189.115765980482
 20
104.0238311809866
 30
0.0
 10
189.1510533281867
 20
104.0090263666998
 30
0.0
 10
189.2099831764251
 20
103.9654344935739
 30
0.0
 10
189.2335089028942
 20
103.9379210674879
 30
0.0
 10
189.2937676906623
 20
103.8487893353743
 30
0.0
 10
189.3193624529516
 20
103.7824034847565
 30
0.0
 10
189.3380617155726
 20
103.7147990495792
 30
0.0
  0
ELLIPSE
  5
115
330
1F
100
AcDbEntity
  8
0
  6
HIDDEN
 62
     7
370
     0
100
AcDbEllipse
 10
179.061226924
 20
109.8530441766
 30
0.0
 11
-9.367417879781755
 21
19.74174915274995
 31
0.0
210
0.0
220
0.0
230
1.0
 40
0.3419987131
 41
3.292664382516899
 42
4.239566697061004
  0
SPLINE
  5
116
330
1F
100
AcDbEntity
  8
0
  6
HIDDEN
 62
     7
370
     0
100
AcDbSpline
210
0.0
220
0.0
230
1.0
 70
     8
 71
     3
 72
    12
 73
     8
 74
     0
 42
0.00000001
 43
0.00000001
 12
1.0
 22
0.0
 32
0.0
 13
1.0
 23
0.0
 33
0.0
 40
0.0
 40
0.0
 40
0.0
 40
0.0
 40
0.5000000000000053
 40
0.5000000000000053
 40
0.7500000000000027
 40
0.7500000000000027
 40
1.0
 40
1.0
 40
1.0
 40
1.0
 10
189.3380617155726
 20
90.81828789345629
 30
0.0
 10
189.3193684824422
 20
90.79649413982834
 30
0.0
 10
189.2937131850305
 20
90.7754739781187
 30
0.0
 10
189.233552562344
 20
90.74776863215499
 30
0.0
 10
189.2094802505896
 20
90.7391334159616
 30
0.0
 10
189.1510987302391
 20
90.72591877073502
 30
0.0
 10
189.1156299025861
 20
90.72138779640484
 30
0.0
 10
189.0782540944373
 20
90.72138779640484
 30
0.0
  0
LINE
  5
117
330
1F
100
AcDbEntity
  8
0
  6
HIDDEN
 62
     7
370
     0
100
AcDbLine
 10
189.0782540157
 20
90.7213874405
 30
0.0
 11
186.9420580058
 21
90.7213874405
 31
0.0
  0
SPLINE
  5
118
330
1F
100
AcDbEntity
  8
0
  6
HIDDEN
 62
     7
370
     0
100
AcDbSpline
210
0.0
220
0.0
230
1.0
 70
     8
 71
     3
 72
    12
 73
     8
 74
     0
 42
0.00000001
 43
0.00000001
 12
1.0
 22
0.0
 32
0.0
 13
1.0
 23
0.0
 33
0.0
 40
0.0
 40
0.0
 40
0.0
 40
0.0
 40
0.2500000000000027
 40
0.2500000000000027
 40
0.5000000000000053
 40
0.5000000000000053
 40
1.0
 40
1.0
 40
1.0
 40
1.0
 10
186.9420580984357
 20
90.72138779640484
 30
0.0
 10
186.904546212391
 20
90.72138779640484
 30
0.0
 10
186.8692588646863
 20
90.72589134066739
 30
0.0
 10
186.8103290164479
 20
90.73926454012069
 30
0.0
 10
186.7868032899788
 20
90.7477494426918
 30
0.0
 10
186.7265445022107
 20
90.7754972465264
 30
0.0
 10
186.7009497399214
 20
90.79648711026675
 30
0.0
 10
186.6822504773004
 20
90.81828789345629
 30
0.0
  0
ELLIPSE
  5
119
330
1F
100
AcDbEntity
  8
0
  6
HIDDEN
 62
     7
370
     0
100
AcDbEllipse
 10
196.9590852689
 20
109.8530441766
 30
0.0
 11
9.367417879781641
 21
19.74174915274995
 31
0.0
210
0.0
220
0.0
230
1.0
 40
0.3419987131
 41
2.043618610118594
 42
2.99052092466273
  0
SPLINE
  5
11A
330
1F
100
AcDbEntity
  8
0
  6
HIDDEN
 62
     7
370
     0
100
AcDbSpline
210
0.0
220
0.0
230
1.0
 70
     8
 71
     3
 72
    58
 73
    54
 74
     0
 42
0.00000001
 43
0.00000001
 12
1.0
 22
0.0
 32
0.0
 13
1.0
 23
0.0
 33
0.0
 40
-0.0625000000000001
 40
-0.0625000000000001
 40
0.0
 40
0.0
 40
0.0312499999999998
 40
0.0312499999999998
 40
0.0624999999999997
 40
0.0624999999999997
 40
0.0937499999999995
 40
0.0937499999999995
 40
0.1249999999999993
 40
0.1249999999999993
 40
0.187499999999999
 40
0.187499999999999
 40
0.2499999999999987
 40
0.2499999999999987
 40
0.2812499999999987
 40
0.2812499999999987
 40
0.3124999999999988
 40
0.3124999999999988
 40
0.3437499999999988
 40
0.3437499999999988
 40
0.3749999999999989
 40
0.3749999999999989
 40
0.4062499999999989
 40
0.4062499999999989
 40
0.437499999999999
 40
0.437499999999999
 40
0.4687499999999991
 40
0.4687499999999991
 40
0.4999999999999991
 40
0.4999999999999991
 40
0.5624999999999992
 40
0.5624999999999992
 40
0.6249999999999993
 40
0.6249999999999993
 40
0.6562499999999993
 40
0.6562499999999993
 40
0.6874999999999994
 40
0.6874999999999994
 40
0.7187499999999994
 40
0.7187499999999994
 40
0.7499999999999996
 40
0.7499999999999996
 40
0.7812499999999996
 40
0.7812499999999996
 40
0.8124999999999997
 40
0.8124999999999997
 40
0.8437499999999997
 40
0.8437499999999997
 40
0.8749999999999998
 40
0.8749999999999998
 40
0.9374999999999999
 40
0.9374999999999999
 40
1.0
 40
1.0
 40
1.03125
 40
1.03125
 10
194.0101560964365
 20
109.5886080621902
 30
0.0
 10
194.0101560964365
 20
109.9852622338622
 30
0.0
 10
193.9971740587643
 20
110.1152543947027
 30
0.0
 10
193.946323256506
 20
110.370974007155
 30
0.0
 10
193.9078313524531
 20
110.4980326910161
 30
0.0
 10
193.8074160667266
 20
110.7401958886749
 30
0.0
 10
193.7459799274536
 20
110.8550376730597
 30
0.0
 10
193.6008464511428
 20
111.0723798706299
 30
0.0
 10
193.5164247622917
 20
111.1752215184776
 30
0.0
 10
193.2398245881268
 20
111.4517649992292
 30
0.0
 10
193.0168256768597
 20
111.6007476353613
 30
0.0
 10
192.535591159274
 20
111.800290698916
 30
0.0
 10
192.272291743765
 20
111.8529011719475
 30
0.0
 10
191.8807283037248
 20
111.8531152307
 30
0.0
 10
191.7481406931201
 20
111.8401163812944
 30
0.0
 10
191.4915749875208
 20
111.789066297268
 30
0.0
 10
191.3668652213403
 20
111.7512950584558
 30
0.0
 10
191.1246260363133
 20
111.6511031503433
 30
0.0
 10
191.0076093825396
 20
111.5885177565188
 30
0.0
 10
190.7909661776933
 20
111.4438126708083
 30
0.0
 10
190.6899594212348
 20
111.361193329428
 30
0.0
 10
190.5031533255782
 20
111.174549294638
 30
0.0
 10
190.4204397900463
 20
111.0736034466782
 30
0.0
 10
190.275569660671
 20
110.8571222429964
 30
0.0
 10
190.2128993645744
 20
110.740205077988
 30
0.0
 10
190.1124714265381
 20
110.4980086087895
 30
0.0
 10
190.0746002476084
 20
110.3733476178861
 30
0.0
 10
190.0233378498327
 20
110.116948268818
 30
0.0
 10
190.010204209192
 20
109.9843373435202
 30
0.0
 10
190.0100602760532
 20
109.5926627311851
 30
0.0
 10
190.062425533318
 20
109.3293787115245
 30
0.0
 10
190.2615861966686
 20
108.8478659976647
 30
0.0
 10
190.4103838700306
 20
108.6247449106198
 30
0.0
 10
190.6866845286168
 20
108.3479127621122
 30
0.0
 10
190.7894495756765
 20
108.2634055478279
 30
0.0
 10
191.0066668494709
 20
108.118084606142
 30
0.0
 10
191.1214365429087
 20
108.0565623828799
 30
0.0
 10
191.3634230800533
 20
107.955965979608
 30
0.0
 10
191.4905056529447
 20
107.9173380915193
 30
0.0
 10
191.7461803529479
 20
107.8662599814532
 30
0.0
 10
191.8761208702921
 20
107.853170841686
 30
0.0
 10
192.1403842380535
 20
107.8529193233274
 30
0.0
 10
192.2705951317004
 20
107.8657937933838
 30
0.0
 10
192.526345077134
 20
107.9164126905158
 30
0.0
 10
192.6533624615014
 20
107.9547605093116
 30
0.0
 10
192.8957141892531
 20
108.054994629505
 30
0.0
 10
193.0106169685394
 20
108.116338816495
 30
0.0
 10
193.2280391336884
 20
108.2612438210242
 30
0.0
 10
193.3309755311331
 20
108.3455827131461
 30
0.0
 10
193.60781268829
 20
108.6219838261879
 30
0.0
 10
193.7569679293541
 20
108.8448274592304
 30
0.0
 10
193.9569385145894
 20
109.3258907404809
 30
0.0
 10
194.0101560964365
 20
109.5886080621902
 30
0.0
 10
194.0101560964365
 20
109.9852622338622
 30
0.0
  0
LINE
  5
11B
330
1F
100
AcDbEntity
  8
0
  6
HIDDEN
 62
     7
370
     0
100
AcDbLine
 10
180.0101560964
 20
94.0530449396
 30
0.0
 11
180.0101560964
 21
125.6398950016
 31
0.0
  0
SPLINE
  5
11C
330
1F
100
AcDbEntity
  8
0
  6
HIDDEN
 62
     7
370
     0
100
AcDbSpline
210
0.0
220
0.0
230
1.0
 70
     8
 71
     3
 72
    18
 73
    14
 74
     0
 42
0.00000001
 43
0.00000001
 12
1.0
 22
0.0
 32
0.0
 13
1.0
 23
0.0
 33
0.0
 40
0.0
 40
0.0
 40
0.0
 40
0.0
 40
0.2499999999999993
 40
0.2499999999999993
 40
0.4999999999999987
 40
0.4999999999999987
 40
0.624999999999999
 40
0.624999999999999
 40
0.7499999999999993
 40
0.7499999999999993
 40
0.8749999999999997
 40
0.8749999999999997
 40
1.0
 40
1.0
 40
1.0
 40
1.0
 10
178.7540717788735
 20
119.6774840947895
 30
0.0
 10
178.7883728234063
 20
119.5694739089919
 30
0.0
 10
178.8261930947031
 20
119.462196820964
 30
0.0
 10
178.9128114151639
 20
119.2507001236474
 30
0.0
 10
178.9611827499074
 20
119.1463137734777
 30
0.0
 10
179.0505857320258
 20
118.9954388508334
 30
0.0
 10
179.0831830159031
 20
118.9460938477979
 30
0.0
 10
179.159564919848
 20
118.8514882093276
 30
0.0
 10
179.2026033571888
 20
118.806492274573
 30
0.0
 10
179.3084163900206
 20
118.7355645019151
 30
0.0
 10
179.3734548147517
 20
118.7116179580086
 30
0.0
 10
179.5066068865543
 20
118.7238986220794
 30
0.0
 10
179.5659760670175
 20
118.7572155800843
 30
0.0
 10
179.6151792075613
 20
118.798050466309
 30
0.0
  0
SPLINE
  5
11D
330
1F
100
AcDbEntity
  8
0
  6
HIDDEN
 62
     7
370
     0
100
AcDbSpline
210
0.0
220
0.0
230
1.0
 70
     8
 71
     3
 72
    16
 73
    12
 74
     0
 42
0.00000001
 43
0.00000001
 12
1.0
 22
0.0
 32
0.0
 13
1.0
 23
0.0
 33
0.0
 40
0.0
 40
0.0
 40
0.0
 40
0.0
 40
0.0624999999999983
 40
0.0624999999999983
 40
0.1249999999999966
 40
0.1249999999999966
 40
0.249999999999997
 40
0.249999999999997
 40
0.4999999999999978
 40
0.4999999999999978
 40
1.0
 40
1.0
 40
1.0
 40
1.0
 10
179.6151792075304
 20
118.7980504663384
 30
0.0
 10
179.6272490408063
 20
118.8080675153187
 30
0.0
 10
179.6415246957396
 20
118.8170266223744
 30
0.0
 10
179.672989107864
 20
118.8248970177686
 30
0.0
 10
179.6884896326744
 20
118.8225395271263
 30
0.0
 10
179.7239285292813
 20
118.8055638349483
 30
0.0
 10
179.7375211453846
 20
118.7850153437807
 30
0.0
 10
179.7705154637775
 20
118.723073016767
 30
0.0
 10
179.7813028570963
 20
118.6766774665619
 30
0.0
 10
179.8063561043754
 20
118.5337414378673
 30
0.0
 10
179.8101560964366
 20
118.4341787209819
 30
0.0
 10
179.8101560964367
 20
118.3324113163353
 30
0.0
  0
LINE
  5
11E
330
1F
100
AcDbEntity
  8
0
  6
HIDDEN
 62
     7
370
     0
100
AcDbLine
 10
179.8101561015
 20
101.3736771663
 30
0.0
 11
179.8101561015
 21
118.3324111869
 31
0.0
  0
SPLINE
  5
11F
330
1F
100
AcDbEntity
  8
0
  6
HIDDEN
 62
     7
370
     0
100
AcDbSpline
210
0.0
220
0.0
230
1.0
 70
     8
 71
     3
 72
    16
 73
    12
 74
     0
 42
0.00000001
 43
0.00000001
 12
1.0
 22
0.0
 32
0.0
 13
1.0
 23
0.0
 33
0.0
 40
0.0
 40
0.0
 40
0.0
 40
0.0
 40
0.5000000000000026
 40
0.5000000000000026
 40
0.7500000000000013
 40
0.7500000000000013
 40
0.8750000000000007
 40
0.8750000000000007
 40
0.9375000000000003
 40
0.9375000000000003
 40
1.0
 40
1.0
 40
1.0
 40
1.0
 10
179.8101560964365
 20
101.373677036941
 30
0.0
 10
179.8101560964365
 20
101.2716668833609
 30
0.0
 10
179.8062726712776
 20
101.1721425081077
 30
0.0
 10
179.7814573460029
 20
101.030157412097
 30
0.0
 10
179.7706178982904
 20
100.9831641115265
 30
0.0
 10
179.7374021162416
 20
100.9208713811649
 30
0.0
 10
179.7240203726128
 20
100.9005899488798
 30
0.0
 10
179.6885107227506
 20
100.8835482406794
 30
0.0
 10
179.6730937562498
 20
100.8811619856632
 30
0.0
 10
179.6413927341012
 20
100.8890979155212
 30
0.0
 10
179.6272464491504
 20
100.8980229888959
 30
0.0
 10
179.6151792075608
 20
100.9080378869678
 30
0.0
  0
SPLINE
  5
120
330
1F
100
AcDbEntity
  8
0
  6
HIDDEN
 62
     7
370
     0
100
AcDbSpline
210
0.0
220
0.0
230
1.0
 70
     8
 71
     3
 72
    18
 73
    14
 74
     0
 42
0.00000001
 43
0.00000001
 12
1.0
 22
0.0
 32
0.0
 13
1.0
 23
0.0
 33
0.0
 40
0.0
 40
0.0
 40
0.0
 40
0.0
 40
0.1250000000000003
 40
0.1250000000000003
 40
0.2500000000000006
 40
0.2500000000000006
 40
0.3750000000000009
 40
0.3750000000000009
 40
0.5000000000000012
 40
0.5000000000000012
 40
0.7500000000000006
 40
0.7500000000000006
 40
1.0
 40
1.0
 40
1.0
 40
1.0
 10
179.6151792075669
 20
100.9080378869752
 30
0.0
 10
179.5664737154248
 20
100.9484597626566
 30
0.0
 10
179.5079636070979
 20
100.9814918841244
 30
0.0
 10
179.3762344888059
 20
100.9947690360772
 30
0.0
 10
179.3114755524653
 20
100.971815449097
 30
0.0
 10
179.2062645796057
 20
100.9027622521774
 30
0.0
 10
179.1630482041658
 20
100.8582946003365
 30
0.0
 10
179.0868696990539
 20
100.7651249409665
 30
0.0
 10
179.054014737674
 20
100.7159825714057
 30
0.0
 10
178.9636464578402
 20
100.5647728364659
 30
0.0
 10
178.9142232234701
 20
100.4586180669376
 30
0.0
 10
178.8265747684219
 20
100.2450364512761
 30
0.0
 10
178.7885155962191
 20
100.1370640200409
 30
0.0
 10
178.7540717788735
 20
100.0286042584869
 30
0.0
  0
SPLINE
  5
121
330
1F
100
AcDbEntity
  8
0
  6
HIDDEN
 62
     7
370
     0
100
AcDbSpline
210
0.0
220
0.0
230
1.0
 70
     8
 71
     3
 72
     8
 73
     4
 74
     0
 42
0.00000001
 43
0.00000001
 12
1.0
 22
0.0
 32
0.0
 13
1.0
 23
0.0
 33
0.0
 40
0.0
 40
0.0
 40
0.0
 40
0.0
 40
1.0
 40
1.0
 40
1.0
 40
1.0
 10
178.7540717788729
 20
100.0286042584864
 30
0.0
 10
178.7297580749828
 20
99.95204310093634
 30
0.0
 10
178.7082614330268
 20
99.87561772980312
 30
0.0
 10
178.6888357528768
 20
99.79952485903141
 30
0.0
  0
SPLINE
  5
122
330
1F
100
AcDbEntity
  8
0
  6
HIDDEN
 62
     7
370
     0
100
AcDbSpline
210
0.0
220
0.0
230
1.0
 70
     8
 71
     3
 72
     8
 73
     4
 74
     0
 42
0.00000001
 43
0.00000001
 12
1.0
 22
0.0
 32
0.0
 13
1.0
 23
0.0
 33
0.0
 40
0.0
 40
0.0
 40
0.0
 40
0.0
 40
1.0
 40
1.0
 40
1.0
 40
1.0
 10
178.6888357528768
 20
96.02798016863301
 30
0.0
 10
178.7082611797701
 20
96.02448296504572
 30
0.0
 10
178.7297577337391
 20
96.02246664740349
 30
0.0
 10
178.7540717788735
 20
96.02185579395963
 30
0.0
  0
SPLINE
  5
123
330
1F
100
AcDbEntity
  8
0
  6
HIDDEN
 62
     7
370
     0
100
AcDbSpline
210
0.0
220
0.0
230
1.0
 70
     8
 71
     3
 72
     8
 73
     4
 74
     0
 42
0.00000001
 43
0.00000001
 12
1.0
 22
0.0
 32
0.0
 13
1.0
 23
0.0
 33
0.0
 40
0.0
 40
0.0
 40
0.0
 40
0.0
 40
1.0
 40
1.0
 40
1.0
 40
1.0
 10
179.7873050833306
 20
95.93249740290142
 30
0.0
 10
179.8062420154964
 20
95.90454296549999
 30
0.0
 10
179.8101560964366
 20
95.88445911414367
 30
0.0
 10
179.8101560964367
 20
95.8682322699783
 30
0.0
  0
LINE
  5
124
330
1F
100
AcDbEntity
  8
0
  6
HIDDEN
 62
     7
370
     0
100
AcDbLine
 10
179.8101561015
 20
95.7632242014
 30
0.0
 11
179.8101561015
 21
95.8682326844
 31
0.0
  0
LINE
  5
125
330
1F
100
AcDbEntity
  8
0
  6
HIDDEN
 62
     7
370
     0
100
AcDbLine
 10
179.8101561015
 20
123.8378556689
 30
0.0
 11
179.8101561015
 21
123.9428641518
 31
0.0
  0
SPLINE
  5
126
330
1F
100
AcDbEntity
  8
0
  6
HIDDEN
 62
     7
370
     0
100
AcDbSpline
210
0.0
220
0.0
230
1.0
 70
     8
 71
     3
 72
     8
 73
     4
 74
     0
 42
0.00000001
 43
0.00000001
 12
1.0
 22
0.0
 32
0.0
 13
1.0
 23
0.0
 33
0.0
 40
0.0
 40
0.0
 40
0.0
 40
0.0
 40
1.0
 40
1.0
 40
1.0
 40
1.0
 10
178.7540717788732
 20
123.6842325593168
 30
0.0
 10
178.7297577337389
 20
123.6836217058729
 30
0.0
 10
178.70826117977
 20
123.6816053882307
 30
0.0
 10
178.6888357528768
 20
123.6781081846434
 30
0.0
  0
SPLINE
  5
127
330
1F
100
AcDbEntity
  8
0
  6
HIDDEN
 62
     7
370
     0
100
AcDbSpline
210
0.0
220
0.0
230
1.0
 70
     8
 71
     3
 72
     8
 73
     4
 74
     0
 42
0.00000001
 43
0.00000001
 12
1.0
 22
0.0
 32
0.0
 13
1.0
 23
0.0
 33
0.0
 40
0.0
 40
0.0
 40
0.0
 40
0.0
 40
1.0
 40
1.0
 40
1.0
 40
1.0
 10
178.6888357528768
 20
119.906563494245
 30
0.0
 10
178.7082614330268
 20
119.8304706234733
 30
0.0
 10
178.7297580749828
 20
119.7540452523401
 30
0.0
 10
178.7540717788729
 20
119.67748409479
 30
0.0
  0
LINE
  5
128
330
1F
100
AcDbEntity
  8
0
  6
HIDDEN
 62
     7
370
     0
100
AcDbLine
 10
203.1088539823
 20
89.3530436104
 30
0.0
 11
203.1088539823
 21
109.8530441766
 31
0.0
  0
SPLINE
  5
129
330
1F
100
AcDbEntity
  8
0
  6
HIDDEN
 62
     7
370
     0
100
AcDbSpline
210
0.0
220
0.0
230
1.0
 70
     8
 71
     3
 72
    10
 73
     6
 74
     0
 42
0.00000001
 43
0.00000001
 12
1.0
 22
0.0
 32
0.0
 13
1.0
 23
0.0
 33
0.0
 40
0.0
 40
0.0
 40
0.0
 40
0.0
 40
0.5
 40
0.5
 40
1.0
 40
1.0
 40
1.0
 40
1.0
 10
203.2087549347466
 20
113.0068652565034
 30
0.0
 10
203.1873442276592
 20
112.4813625144961
 30
0.0
 10
203.1608427108531
 20
111.9560031779274
 30
0.0
 10
203.1213972418762
 20
110.9049025953081
 30
0.0
 10
203.1088545122422
 20
110.3791500470293
 30
0.0
 10
203.1088545122422
 20
109.8530441766382
 30
0.0
  0
SPLINE
  5
12A
330
1F
100
AcDbEntity
  8
0
  6
HIDDEN
 62
     7
370
     0
100
AcDbSpline
210
0.0
220
0.0
230
1.0
 70
     8
 71
     3
 72
    14
 73
    10
 74
     0
 42
0.00000001
 43
0.00000001
 12
1.0
 22
0.0
 32
0.0
 13
1.0
 23
0.0
 33
0.0
 40
0.0
 40
0.0
 40
0.0
 40
0.0
 40
0.2499999999999999
 40
0.2499999999999999
 40
0.4999999999999998
 40
0.4999999999999998
 40
0.7499999999999999
 40
0.7499999999999999
 40
1.0
 40
1.0
 40
1.0
 40
1.0
 10
203.2087549347466
 20
129.2493537184297
 30
0.0
 10
203.1873361906919
 20
129.3586528944406
 30
0.0
 10
203.1608260192453
 20
129.4679088681788
 30
0.0
 10
203.1213743782928
 20
129.686526859069
 30
0.0
 10
203.1088400439596
 20
129.7959359520652
 30
0.0
 10
203.1088690074507
 20
130.0146106194917
 30
0.0
 10
203.121415454248
 20
130.1238837923174
 30
0.0
 10
203.1608564610644
 20
130.3423566788044
 30
0.0
 10
203.1873501738848
 20
130.4515584447146
 30
0.0
 10
203.2087549347466
 20
130.5607862649327
 30
0.0
  0
LWPOLYLINE
  5
12B
330
1F
100
AcDbEntity
  8
0
  6
HIDDEN
 62
     7
370
     0
100
AcDbPolyline
 90
       39
 70
   128
 43
0.0
 10
213.9499758794
 20
116.6373663826
 10
214.5109449937
 20
116.6684311127
 10
215.071914108
 20
116.596235918
 10
215.613783659
 20
116.4232390245
 10
216.1180911078
 20
116.1553319787
 10
216.5676740422
 20
115.8016384823
 10
216.9472140684
 20
115.3742023987
 10
217.2437918796
 20
114.8875798343
 10
217.4473082139
 20
114.3583418114
 10
217.5508265807
 20
113.8045117503
 10
217.5508265807
 20
113.2449487002
 10
217.4473082139
 20
112.6987084524
 10
217.2437918796
 20
112.1843925455
 10
216.9472140684
 20
111.7195153154
 10
216.8751893058
 20
111.6310918249
 10
216.5676740422
 20
111.3199076161
 10
216.1180911078
 20
110.9991774672
 10
215.613783659
 20
110.7682471291
 10
215.071914108
 20
110.6349805148
 10
214.5109449937
 20
110.6039159593
 10
213.9499758794
 20
110.6761113286
 10
213.4081100538
 20
110.8491079893
 10
212.9037988796
 20
111.1170149186
 10
212.4542159452
 20
111.4707087643
 10
212.074675919
 20
111.8981447315
 10
211.7780981078
 20
112.3847675288
 10
211.5745854988
 20
112.914005086
 10
211.5573523059
 20
112.977343403
 10
211.4710634067
 20
113.4678353799
 10
211.4601371302
 20
113.6357079038
 10
211.4710634067
 20
114.0273981971
 10
211.5745854988
 20
114.5736384449
 10
211.7780981078
 20
115.0879543518
 10
212.074675919
 20
115.5528314655
 10
212.1467006817
 20
115.6412554217
 10
212.4542159452
 20
115.9524396306
 10
212.9037988796
 20
116.2731694301
 10
213.4081100538
 20
116.5041001757
 10
213.9499758794
 20
116.6373663826
  0
ARC
  5
12C
330
1F
100
AcDbEntity
  8
0
  6
HIDDEN
 62
     7
370
     0
100
AcDbCircle
 10
209.7406657271
 20
102.0805011772
 30
0.0
 40
2.492885922649783
100
AcDbArc
 50
157.8168397414
 51
334.8807299573
  0
LINE
  5
12D
330
1F
100
AcDbEntity
  8
0
  6
HIDDEN
 62
     7
370
     0
100
AcDbLine
 10
213.1045361473
 20
103.7024553178
 30
0.0
 11
211.9977896526
 21
101.0222612193
 31
0.0
  0
ARC
  5
12E
330
1F
100
AcDbEntity
  8
0
  6
HIDDEN
 62
     7
370
     0
100
AcDbCircle
 10
210.7955609378
 20
104.6423009583
 30
0.0
 40
2.492925258853945
100
AcDbArc
 50
337.8517028296
 51
154.8458668692
  0
LINE
  5
12F
330
1F
100
AcDbEntity
  8
0
  6
HIDDEN
 62
     7
370
     0
100
AcDbLine
 10
207.4322992428
 20
103.0217367468
 30
0.0
 11
208.5390457376
 21
105.7019308453
 31
0.0
  0
LINE
  5
130
330
1F
100
AcDbEntity
  8
0
  6
HIDDEN
 62
     7
370
     0
100
AcDbLine
 10
214.3984412267
 20
126.2302417552
 30
0.0
 11
212.2378622606
 21
121.8476966267
 31
0.0
  0
LINE
  5
131
330
1F
100
AcDbEntity
  8
0
  6
HIDDEN
 62
     7
370
     0
100
AcDbLine
 10
212.2378622606
 20
121.8476966267
 30
0.0
 11
210.1395217194
 21
120.7543909793
 31
0.0
  0
ARC
  5
132
330
1F
100
AcDbEntity
  8
0
  6
HIDDEN
 62
     7
370
     0
100
AcDbCircle
 10
208.0870072353
 20
117.3071133605
 30
0.0
 40
2.069652183428193
100
AcDbArc
 50
246.9409868947
 51
297.1177234783
  0
LINE
  5
133
330
1F
100
AcDbEntity
  8
0
  6
HIDDEN
 62
     7
370
     0
100
AcDbLine
 10
209.0303966268
 20
115.4649742191
 30
0.0
 11
223.4463294461
 21
122.9761578386
 31
0.0
  0
ARC
  5
134
330
1F
100
AcDbEntity
  8
0
  6
HIDDEN
 62
     7
370
     0
100
AcDbCircle
 10
247.4839454007
 20
116.4341337578
 30
0.0
 40
24.91194612742108
100
AcDbArc
 50
164.7752565001
 51
180.0345900219
  0
LINE
  5
135
330
1F
100
AcDbEntity
  8
0
  6
HIDDEN
 62
     7
370
     0
100
AcDbLine
 10
222.572003813
 20
112.0126892591
 30
0.0
 11
222.572003813
 21
116.4190941734
 31
0.0
  0
ELLIPSE
  5
136
330
1F
100
AcDbEntity
  8
0
  6
HIDDEN
 62
     7
370
     0
100
AcDbEllipse
 10
224.4723992755
 20
109.8530441766
 30
0.0
 11
15.01361785357446
 21
20.49858484107503
 31
0.0
210
0.0
220
0.0
230
1.0
 40
0.0160435947
 41
2.004043703058749
 42
3.153342797152328
  0
ELLIPSE
  5
137
330
1F
100
AcDbEntity
  8
0
  6
HIDDEN
 62
     7
370
     0
100
AcDbEllipse
 10
221.4046246085
 20
109.8530441766
 30
0.0
 11
0.7745314052906451
 21
20.49956594690752
 31
0.0
210
0.0
220
0.0
230
1.0
 40
0.1722352441
 41
1.577303768120367
 42
1.998801000822602
  0
LINE
  5
138
330
1F
100
AcDbEntity
  8
0
  6
HIDDEN
 62
     7
370
     0
100
AcDbLine
 10
179.8101561015
 20
95.8682326844
 30
0.0
 11
179.8101561015
 21
104.347599229
 31
0.0
  0
LINE
  5
139
330
1F
100
AcDbEntity
  8
0
  6
HIDDEN
 62
     7
370
     0
100
AcDbLine
 10
179.8101561015
 20
115.3584891243
 30
0.0
 11
179.8101561015
 21
123.8378556689
 31
0.0
  0
ARC
  5
13A
330
1F
100
AcDbEntity
  8
0
  6
HIDDEN
 62
     7
370
     0
100
AcDbCircle
 10
209.6466016419
 20
101.9615939142
 30
0.0
 40
1.994179604037849
100
AcDbArc
 50
157.6653696019
 51
335.0321718754
  0
CIRCLE
  5
13B
330
1F
100
AcDbEntity
  8
0
  6
HIDDEN
 62
     7
370
     0
100
AcDbCircle
 10
168.5101560964
 20
109.8530441766
 30
0.0
 40
2.299999999999997
  0
LINE
  5
13C
330
1F
100
AcDbEntity
  8
0
  6
HIDDEN
 62
     7
370
     0
100
AcDbLine
 10
208.9087714865
 20
105.3996067738
 30
0.0
 11
207.8020249917
 21
102.7194126753
 31
0.0
  0
ARC
  5
13D
330
1F
100
AcDbEntity
  8
0
  6
HIDDEN
 62
     7
370
     0
100
AcDbCircle
 10
209.0388334
 20
101.2449577932
 30
0.0
 40
1.994179687522551
100
AcDbArc
 50
157.665351041
 51
335.0321781776
  0
LINE
  5
13E
330
1F
100
AcDbEntity
  8
0
  6
HIDDEN
 62
     7
370
     0
100
AcDbLine
 10
211.4544150843
 20
101.1198321601
 30
0.0
 11
212.5611615791
 21
103.8000262586
 31
0.0
  0
ARC
  5
13F
330
1F
100
AcDbEntity
  8
0
  6
HIDDEN
 62
     7
370
     0
100
AcDbCircle
 10
210.7165847274
 20
104.5578445595
 30
0.0
 40
1.994179615582256
100
AcDbArc
 50
337.6653840336
 51
155.0321574436
  0
LINE
  5
140
330
1F
100
AcDbEntity
  8
0
  6
HIDDEN
 62
     7
370
     0
100
AcDbLine
 10
157.0371886208
 20
119.4157377129
 30
0.0
 11
157.0371886208
 21
100.2903506404
 31
0.0
  0
LINE
  5
141
330
1F
100
AcDbEntity
  8
0
  6
HIDDEN
 62
     7
370
     0
100
AcDbLine
 10
156.0101558878
 20
99.6973933896
 30
0.0
 11
156.0101558878
 21
119.9952289706
 31
0.0
  0
LINE
  5
142
330
1F
100
AcDbEntity
  8
0
  6
HIDDEN
 62
     7
370
     0
100
AcDbLine
 10
210.8466470107
 20
100.4031962028
 30
0.0
 11
211.9533953681
 21
103.0833907669
 31
0.0
  0
LINE
  5
143
330
1F
100
AcDbEntity
  8
0
  6
HIDDEN
 62
     7
370
     0
100
AcDbLine
 10
160.5371882632
 20
119.083983848
 30
0.0
 11
160.5371882632
 21
100.6221045052
 31
0.0
  0
LINE
  5
144
330
1F
100
AcDbEntity
  8
0
  6
HIDDEN
 62
     7
370
     0
100
AcDbLine
 10
163.9371880754
 20
118.8530437892
 30
0.0
 11
163.9371880754
 21
100.8530445641
 31
0.0
  0
ARC
  5
145
330
1F
100
AcDbEntity
  8
0
  6
HIDDEN
 62
     7
370
     0
100
AcDbCircle
 10
210.1088174972
 20
103.8412086009
 30
0.0
 40
1.994180380809359
100
AcDbArc
 50
337.6654075697
 51
155.032167641
  0
LINE
  5
146
330
1F
100
AcDbEntity
  8
0
  6
HIDDEN
 62
     7
370
     0
100
AcDbLine
 10
159.1371887787
 20
118.8530437892
 30
0.0
 11
159.1371887787
 21
100.8530445641
 31
0.0
  0
LINE
  5
147
330
1F
100
AcDbEntity
  8
0
  6
HIDDEN
 62
     7
370
     0
100
AcDbLine
 10
160.1371889426
 20
118.8530437892
 30
0.0
 11
160.1371889426
 21
100.8530445641
 31
0.0
  0
SPLINE
  5
148
330
1F
100
AcDbEntity
  8
0
  6
HIDDEN
 62
     7
370
     0
100
AcDbSpline
210
0.0
220
0.0
230
1.0
 70
     8
 71
     3
 72
    14
 73
    10
 74
     0
 42
0.00000001
 43
0.00000001
 12
1.0
 22
0.0
 32
0.0
 13
1.0
 23
0.0
 33
0.0
 40
0.0
 40
0.0
 40
0.0
 40
0.0
 40
0.25
 40
0.25
 40
0.5
 40
0.5
 40
0.75
 40
0.75
 40
1.0
 40
1.0
 40
1.0
 40
1.0
 10
170.5101560964365
 20
110.9888258457983
 30
0.0
 10
170.6083804429394
 20
110.8158624159948
 30
0.0
 10
170.6836952809235
 20
110.6308298615704
 30
0.0
 10
170.7846619911179
 20
110.2478176474359
 30
0.0
 10
170.810037577408
 20
110.0530990939702
 30
0.0
 10
170.8102738026743
 20
109.6557237927047
 30
0.0
 10
170.7845707333388
 20
109.4582314582293
 30
0.0
 10
170.6842506198223
 20
109.0770596235982
 30
0.0
 10
170.6083587917348
 20
108.8901878116257
 30
0.0
 10
170.5101560964411
 20
108.7172625074758
 30
0.0
  0
LINE
  5
149
330
1F
100
AcDbEntity
  8
0
  6
HIDDEN
 62
     7
370
     0
100
AcDbLine
 10
171.0101564839
 20
118.3530446386
 30
0.0
 11
171.0101564839
 21
101.3530437147
 31
0.0
  0
SPLINE
  5
14A
330
1F
100
AcDbEntity
  8
0
  6
HIDDEN
 62
     7
370
     0
100
AcDbSpline
210
0.0
220
0.0
230
1.0
 70
     8
 71
     3
 72
    14
 73
    10
 74
     0
 42
0.00000001
 43
0.00000001
 12
1.0
 22
0.0
 32
0.0
 13
1.0
 23
0.0
 33
0.0
 40
0.0
 40
0.0
 40
0.0
 40
0.0
 40
0.25
 40
0.25
 40
0.5
 40
0.5
 40
0.75
 40
0.75
 40
1.0
 40
1.0
 40
1.0
 40
1.0
 10
170.5101560964365
 20
108.7172625074781
 30
0.0
 10
170.6083804429394
 20
108.8902259372816
 30
0.0
 10
170.6836952809235
 20
109.0752584917061
 30
0.0
 10
170.7846619911179
 20
109.4582707058405
 30
0.0
 10
170.810037577408
 20
109.6529892593062
 30
0.0
 10
170.8102738026743
 20
110.0503645605718
 30
0.0
 10
170.7845707333388
 20
110.2478568950471
 30
0.0
 10
170.6842506198223
 20
110.6290287296782
 30
0.0
 10
170.6083587917348
 20
110.8159005416507
 30
0.0
 10
170.5101560964411
 20
110.9888258458006
 30
0.0
  0
SPLINE
  5
14B
330
1F
100
AcDbEntity
  8
0
  6
HIDDEN
 62
     7
370
     0
100
AcDbSpline
210
0.0
220
0.0
230
1.0
 70
     8
 71
     3
 72
    60
 73
    56
 74
     0
 42
0.00000001
 43
0.00000001
 12
1.0
 22
0.0
 32
0.0
 13
1.0
 23
0.0
 33
0.0
 40
0.0
 40
0.0
 40
0.0
 40
0.0
 40
0.0625000000000004
 40
0.0625000000000004
 40
0.1250000000000009
 40
0.1250000000000009
 40
0.1875000000000013
 40
0.1875000000000013
 40
0.2187500000000013
 40
0.2187500000000013
 40
0.2500000000000013
 40
0.2500000000000013
 40
0.3125000000000009
 40
0.3125000000000009
 40
0.3750000000000004
 40
0.3750000000000004
 40
0.4062500000000003
 40
0.4062500000000003
 40
0.4375000000000003
 40
0.4375000000000003
 40
0.4687500000000002
 40
0.4687500000000002
 40
0.5000000000000001
 40
0.5000000000000001
 40
0.5312500000000001
 40
0.5312500000000001
 40
0.5625000000000001
 40
0.5625000000000001
 40
0.5937500000000001
 40
0.5937500000000001
 40
0.6250000000000001
 40
0.6250000000000001
 40
0.6562500000000001
 40
0.6562500000000001
 40
0.6875000000000001
 40
0.6875000000000001
 40
0.7187500000000001
 40
0.7187500000000001
 40
0.75
 40
0.75
 40
0.78125
 40
0.78125
 40
0.8125
 40
0.8125
 40
0.84375
 40
0.84375
 40
0.875
 40
0.875
 40
0.90625
 40
0.90625
 40
0.9375
 40
0.9375
 40
0.96875
 40
0.96875
 40
1.0
 40
1.0
 40
1.0
 40
1.0
 10
170.5101560964365
 20
108.7172625074781
 30
0.0
 10
170.3849661948578
 20
108.4968153828626
 30
0.0
 10
170.2280988762896
 20
108.3030816540422
 30
0.0
 10
169.8510613564708
 20
107.9673919552798
 30
0.0
 10
169.6393480500498
 20
107.8334145969671
 30
0.0
 10
169.1734580681011
 20
107.6362878522819
 30
0.0
 10
168.9276188370495
 20
107.5770704400601
 30
0.0
 10
168.5481377839549
 20
107.5498637041694
 30
0.0
 10
168.420392055261
 20
107.5513569693113
 30
0.0
 10
168.1699258085929
 20
107.5748727751202
 30
0.0
 10
168.0460964257846
 20
107.5967919939244
 30
0.0
 10
167.678876751686
 20
107.6936285587693
 30
0.0
 10
167.4481077336003
 20
107.7974296802211
 30
0.0
 10
167.0282187721808
 20
108.0761481611491
 30
0.0
 10
166.8439603972932
 20
108.2477104526529
 30
0.0
 10
166.6132120098099
 20
108.5463578139197
 30
0.0
 10
166.5441651600209
 20
108.6528253544219
 30
0.0
 10
166.4256004962154
 20
108.8731087028149
 30
0.0
 10
166.3753921274658
 20
108.9877702192163
 30
0.0
 10
166.293560275108
 20
109.2264508559931
 30
0.0
 10
166.2622093762253
 20
109.3504964828712
 30
0.0
 10
166.2208149981867
 20
109.5986115189795
 30
0.0
 10
166.2103092231224
 20
109.723849221468
 30
0.0
 10
166.2100062707866
 20
109.976728277059
 30
0.0
 10
166.2204908004032
 20
110.1046079632956
 30
0.0
 10
166.2616308778647
 20
110.3530300245011
 30
0.0
 10
166.2922089984132
 20
110.4748289512695
 30
0.0
 10
166.3734917067645
 20
110.7136084807438
 30
0.0
 10
166.4244925933264
 20
110.8306500430505
 30
0.0
 10
166.5430596416895
 20
111.0514752409764
 30
0.0
 10
166.6109483949612
 20
111.1564136045391
 30
0.0
 10
166.7640988326989
 20
111.3553909377685
 30
0.0
 10
166.8496550042714
 20
111.4493990629627
 30
0.0
 10
167.0323663752306
 20
111.6198917478994
 30
0.0
 10
167.1301736749124
 20
111.6973299429488
 30
0.0
 10
167.3389767868294
 20
111.8364958388371
 30
0.0
 10
167.4505589621173
 20
111.8982776478441
 30
0.0
 10
167.6792047616163
 20
112.0013565184449
 30
0.0
 10
167.7971595725874
 20
112.0433605536405
 30
0.0
 10
168.0404880175762
 20
112.1080966749373
 30
0.0
 10
168.1668318929192
 20
112.1307699375
 30
0.0
 10
168.4179378739371
 20
112.1546527336811
 30
0.0
 10
168.54361986766
 20
112.1562560349478
 30
0.0
 10
168.7952419374518
 20
112.1387892961769
 30
0.0
 10
168.9221395577376
 20
112.119353405537
 30
0.0
 10
169.1673301239988
 20
112.0607602342133
 30
0.0
 10
169.2865192810323
 20
112.0216973830567
 30
0.0
 10
169.5182043053871
 20
111.9241876609329
 30
0.0
 10
169.6313791097376
 20
111.8651523066443
 30
0.0
 10
169.8434575266733
 20
111.7313485898048
 30
0.0
 10
169.9432463053741
 20
111.65635337366
 30
0.0
 10
170.1305044923631
 20
111.4901583091392
 30
0.0
 10
170.2183995293064
 20
111.3982641103977
 30
0.0
 10
170.3766206049383
 20
111.2028999126833
 30
0.0
 10
170.44755856123
 20
111.0990539590109
 30
0.0
 10
170.5101560964365
 20
110.9888258457983
 30
0.0
  0
SPLINE
  5
14C
330
1F
100
AcDbEntity
  8
0
  6
HIDDEN
 62
     7
370
     0
100
AcDbSpline
210
0.0
220
0.0
230
1.0
 70
     8
 71
     3
 72
    60
 73
    56
 74
     0
 42
0.00000001
 43
0.00000001
 12
1.0
 22
0.0
 32
0.0
 13
1.0
 23
0.0
 33
0.0
 40
0.0
 40
0.0
 40
0.0
 40
0.0
 40
0.0625000000000004
 40
0.0625000000000004
 40
0.1250000000000009
 40
0.1250000000000009
 40
0.1875000000000013
 40
0.1875000000000013
 40
0.2187500000000013
 40
0.2187500000000013
 40
0.2500000000000013
 40
0.2500000000000013
 40
0.3125000000000009
 40
0.3125000000000009
 40
0.3750000000000004
 40
0.3750000000000004
 40
0.4062500000000003
 40
0.4062500000000003
 40
0.4375000000000003
 40
0.4375000000000003
 40
0.4687500000000002
 40
0.4687500000000002
 40
0.5000000000000001
 40
0.5000000000000001
 40
0.5312500000000001
 40
0.5312500000000001
 40
0.5625000000000001
 40
0.5625000000000001
 40
0.5937500000000001
 40
0.5937500000000001
 40
0.6250000000000001
 40
0.6250000000000001
 40
0.6562500000000001
 40
0.6562500000000001
 40
0.6875000000000001
 40
0.6875000000000001
 40
0.7187500000000001
 40
0.7187500000000001
 40
0.75
 40
0.75
 40
0.78125
 40
0.78125
 40
0.8125
 40
0.8125
 40
0.84375
 40
0.84375
 40
0.875
 40
0.875
 40
0.90625
 40
0.90625
 40
0.9375
 40
0.9375
 40
0.96875
 40
0.96875
 40
1.0
 40
1.0
 40
1.0
 40
1.0
 10
170.5101560964365
 20
110.9888258457983
 30
0.0
 10
170.3849661948578
 20
111.2092729704139
 30
0.0
 10
170.2280988762896
 20
111.4030066992342
 30
0.0
 10
169.8510613564708
 20
111.7386963979966
 30
0.0
 10
169.6393480500498
 20
111.8726737563094
 30
0.0
 10
169.1734580681011
 20
112.0698005009945
 30
0.0
 10
168.9276188370495
 20
112.1290179132163
 30
0.0
 10
168.5481377839549
 20
112.156224649107
 30
0.0
 10
168.420392055261
 20
112.1547313839652
 30
0.0
 10
168.1699258085929
 20
112.1312155781562
 30
0.0
 10
168.0460964257846
 20
112.109296359352
 30
0.0
 10
167.678876751686
 20
112.0124597945071
 30
0.0
 10
167.4481077336003
 20
111.9086586730553
 30
0.0
 10
167.0282187721808
 20
111.6299401921273
 30
0.0
 10
166.8439603972932
 20
111.4583779006236
 30
0.0
 10
166.6132120098099
 20
111.1597305393568
 30
0.0
 10
166.5441651600209
 20
111.0532629988545
 30
0.0
 10
166.4256004962154
 20
110.8329796504615
 30
0.0
 10
166.3753921274658
 20
110.7183181340601
 30
0.0
 10
166.293560275108
 20
110.4796374972833
 30
0.0
 10
166.2622093762253
 20
110.3555918704052
 30
0.0
 10
166.2208149981867
 20
110.1074768342969
 30
0.0
 10
166.2103092231224
 20
109.9822391318084
 30
0.0
 10
166.2100062707866
 20
109.7293600762174
 30
0.0
 10
166.2204908004032
 20
109.6014803899808
 30
0.0
 10
166.2616308778647
 20
109.3530583287753
 30
0.0
 10
166.2922089984132
 20
109.231259402007
 30
0.0
 10
166.3734917067645
 20
108.9924798725326
 30
0.0
 10
166.4244925933264
 20
108.8754383102259
 30
0.0
 10
166.5430596416895
 20
108.6546131123
 30
0.0
 10
166.6109483949612
 20
108.5496747487373
 30
0.0
 10
166.7640988326989
 20
108.3506974155079
 30
0.0
 10
166.8496550042714
 20
108.2566892903137
 30
0.0
 10
167.0323663752306
 20
108.086196605377
 30
0.0
 10
167.1301736749124
 20
108.0087584103276
 30
0.0
 10
167.3389767868294
 20
107.8695925144393
 30
0.0
 10
167.4505589621173
 20
107.8078107054324
 30
0.0
 10
167.6792047616163
 20
107.7047318348316
 30
0.0
 10
167.7971595725874
 20
107.6627277996359
 30
0.0
 10
168.0404880175762
 20
107.5979916783391
 30
0.0
 10
168.1668318929192
 20
107.5753184157765
 30
0.0
 10
168.4179378739371
 20
107.5514356195953
 30
0.0
 10
168.54361986766
 20
107.5498323183286
 30
0.0
 10
168.7952419374518
 20
107.5672990570995
 30
0.0
 10
168.9221395577376
 20
107.5867349477394
 30
0.0
 10
169.1673301239988
 20
107.6453281190631
 30
0.0
 10
169.2865192810323
 20
107.6843909702197
 30
0.0
 10
169.5182043053871
 20
107.7819006923435
 30
0.0
 10
169.6313791097376
 20
107.8409360466321
 30
0.0
 10
169.8434575266733
 20
107.9747397634716
 30
0.0
 10
169.9432463053741
 20
108.0497349796164
 30
0.0
 10
170.1305044923631
 20
108.2159300441372
 30
0.0
 10
170.2183995293064
 20
108.3078242428787
 30
0.0
 10
170.3766206049383
 20
108.503188440593
 30
0.0
 10
170.44755856123
 20
108.6070343942655
 30
0.0
 10
170.5101560964365
 20
108.7172625074781
 30
0.0
  0
ARC
  5
14D
330
1F
100
AcDbEntity
  8
0
  6
HIDDEN
 62
     7
370
     0
100
AcDbCircle
 10
206.728739736
 20
115.7496557818
 30
0.0
 40
2.090305171740817
100
AcDbArc
 50
120.1556629011
 51
297.802905094
  0
LWPOLYLINE
  5
14E
330
1F
100
AcDbEntity
  8
0
  6
HIDDEN
 62
     7
370
     0
100
AcDbPolyline
 90
       37
 70
   128
 43
0.0
 10
213.2553843274
 20
115.8183543255
 10
213.8163534417
 20
115.8494190557
 10
214.377322556
 20
115.7772233953
 10
214.9191883816
 20
115.6042269675
 10
215.4234995558
 20
115.3363199217
 10
215.8730824902
 20
114.9826259596
 10
216.2526225164
 20
114.555189876
 10
216.5492003276
 20
114.0685673116
 10
216.7527129366
 20
113.5393297544
 10
216.8562350287
 20
112.9854994604
 10
216.8562350287
 20
112.4259366432
 10
216.7527129366
 20
111.8796963954
 10
216.5492003276
 20
111.3653804885
 10
216.2526225164
 20
110.900503142
 10
215.8730824902
 20
110.5008954426
 10
215.4234995558
 20
110.1801652938
 10
214.9191883816
 20
109.9492349265
 10
214.377322556
 20
109.8159683414
 10
213.8163534417
 20
109.7849037931
 10
213.2553843274
 20
109.8570991315
 10
212.7135185017
 20
110.0300958449
 10
212.2952056541
 20
110.2438794576
 10
212.2391214087
 20
110.278743751
 10
212.2092073276
 20
110.2980027161
 10
211.7596243932
 20
110.6516965327
 10
211.380084367
 20
111.0791326744
 10
211.0835046931
 20
111.5657552389
 10
210.8799920841
 20
112.094993029
 10
210.7764718547
 20
112.6488233229
 10
210.7764718547
 20
113.2083861401
 10
210.8799920841
 20
113.7546263879
 10
211.0835046931
 20
114.2689422948
 10
211.380084367
 20
114.7338194085
 10
211.7596243932
 20
115.1334271079
 10
212.2092073276
 20
115.4541573731
 10
212.7135185017
 20
115.685087653
 10
213.2553843274
 20
115.8183543255
  0
LINE
  5
14F
330
1F
100
AcDbEntity
  8
0
  6
HIDDEN
 62
     7
370
     0
100
AcDbLine
 10
210.9111876651
 20
120.2833829691
 30
0.0
 11
212.2378622606
 21
121.8476966267
 31
0.0
  0
LINE
  5
150
330
1F
100
AcDbEntity
  8
0
  6
HIDDEN
 62
     7
370
     0
100
AcDbLine
 10
210.9111876651
 20
120.2833829691
 30
0.0
 11
209.3464875086
 21
119.4681218138
 31
0.0
  0
LINE
  5
151
330
1F
100
AcDbEntity
  8
0
  6
HIDDEN
 62
     7
370
     0
100
AcDbLine
 10
205.9792870148
 20
117.713697279
 30
0.0
 11
205.6786728515
 21
117.5570669828
 31
0.0
  0
LINE
  5
152
330
1F
100
AcDbEntity
  8
0
  6
HIDDEN
 62
     7
370
     0
100
AcDbLine
 10
208.3010034128
 20
104.6829708164
 30
0.0
 11
207.1942569181
 21
102.0027771836
 31
0.0
  0
LINE
  5
153
330
1F
100
AcDbEntity
  8
0
  6
HIDDEN
 62
     7
370
     0
100
AcDbLine
 10
222.572003813
 20
107.0091412646
 30
0.0
 11
217.8708923473
 21
101.4659386372
 31
0.0
  0
LINE
  5
154
330
1F
100
AcDbEntity
  8
0
  6
HIDDEN
 62
     7
370
     0
100
AcDbLine
 10
171.9101558863
 20
116.1030442698
 30
0.0
 11
171.9101558863
 21
103.6030440835
 31
0.0
  0
LINE
  5
155
330
1F
100
AcDbEntity
  8
0
  6
HIDDEN
 62
     7
370
     0
100
AcDbLine
 10
171.0101564839
 20
102.7030442154
 30
0.0
 11
171.0101564839
 21
116.9894831499
 31
0.0
  0
LINE
  5
156
330
1F
100
AcDbEntity
  8
0
  6
HIDDEN
 62
     7
370
     0
100
AcDbLine
 10
196.9947771593
 20
103.6030440835
 30
0.0
 11
196.9947771593
 21
116.1030442698
 31
0.0
  0
SPLINE
  5
157
330
1F
100
AcDbEntity
  8
0
  6
HIDDEN
 62
     7
370
     0
100
AcDbSpline
210
0.0
220
0.0
230
1.0
 70
     8
 71
     3
 72
    64
 73
    60
 74
     0
 42
0.00000001
 43
0.00000001
 12
1.0
 22
0.0
 32
0.0
 13
1.0
 23
0.0
 33
0.0
 40
-0.0312500000000002
 40
-0.0312500000000002
 40
0.0
 40
0.0
 40
0.03125
 40
0.03125
 40
0.0625
 40
0.0625
 40
0.09375
 40
0.09375
 40
0.1249999999999999
 40
0.1249999999999999
 40
0.1874999999999999
 40
0.1874999999999999
 40
0.2187499999999998
 40
0.2187499999999998
 40
0.2499999999999996
 40
0.2499999999999996
 40
0.2812499999999996
 40
0.2812499999999996
 40
0.3124999999999994
 40
0.3124999999999994
 40
0.3437499999999993
 40
0.3437499999999993
 40
0.3749999999999992
 40
0.3749999999999992
 40
0.406249999999999
 40
0.406249999999999
 40
0.4374999999999989
 40
0.4374999999999989
 40
0.4687499999999987
 40
0.4687499999999987
 40
0.4999999999999986
 40
0.4999999999999986
 40
0.5624999999999987
 40
0.5624999999999987
 40
0.5937499999999986
 40
0.5937499999999986
 40
0.6249999999999987
 40
0.6249999999999987
 40
0.6562499999999987
 40
0.6562499999999987
 40
0.6874999999999987
 40
0.6874999999999987
 40
0.7187499999999988
 40
0.7187499999999988
 40
0.7499999999999989
 40
0.7499999999999989
 40
0.7812499999999989
 40
0.7812499999999989
 40
0.812499999999999
 40
0.812499999999999
 40
0.8749999999999996
 40
0.8749999999999996
 40
0.9062499999999997
 40
0.9062499999999997
 40
0.9374999999999997
 40
0.9374999999999997
 40
0.9687499999999998
 40
0.9687499999999998
 40
1.0
 40
1.0
 40
1.03125
 40
1.03125
 10
197.6148888333088
 20
111.2819766862108
 30
0.0
 10
197.5514142874264
 20
111.066193598686
 30
0.0
 10
197.5244741014642
 20
110.9514338435109
 30
0.0
 10
197.4792009442121
 20
110.7086073997205
 30
0.0
 10
197.4607420279117
 20
110.5789962278294
 30
0.0
 10
197.4334791222731
 20
110.3139460383545
 30
0.0
 10
197.4245784242596
 20
110.1789532487356
 30
0.0
 10
197.4159952790487
 20
109.9040400525212
 30
0.0
 10
197.4164481925279
 20
109.7634808833946
 30
0.0
 10
197.4318829566888
 20
109.3529076869582
 30
0.0
 10
197.4613217229186
 20
109.0830127545794
 30
0.0
 10
197.5316703729597
 20
108.7223952503205
 30
0.0
 10
197.5598323173128
 20
108.6075264488166
 30
0.0
 10
197.6245051464595
 20
108.3964039168
 30
0.0
 10
197.6606494681063
 20
108.3008441856641
 30
0.0
 10
197.7413048558438
 20
108.129297131219
 30
0.0
 10
197.7862546874792
 20
108.0529981040989
 30
0.0
 10
197.8821317535056
 20
107.9266084126285
 30
0.0
 10
197.933362328871
 20
107.8755724280151
 30
0.0
 10
198.0438151925297
 20
107.79831884372
 30
0.0
 10
198.1025725574524
 20
107.7727755011002
 30
0.0
 10
198.2244380230402
 20
107.7490482685187
 30
0.0
 10
198.2883618168654
 20
107.7505113719366
 30
0.0
 10
198.4220498150259
 20
107.7812315307018
 30
0.0
 10
198.4900365975593
 20
107.8099674640144
 30
0.0
 10
198.629175481482
 20
107.8932392460097
 30
0.0
 10
198.701178049942
 20
107.9486776109242
 30
0.0
 10
198.8434727199097
 20
108.0817975339801
 30
0.0
 10
198.9139953375779
 20
108.1592924209347
 30
0.0
 10
199.0532459635329
 20
108.3359357561761
 30
0.0
 10
199.1216104648765
 20
108.4349036696413
 30
0.0
 10
199.3126446456086
 20
108.7521802188371
 30
0.0
 10
199.4261816544389
 20
108.998151057409
 30
0.0
 10
199.5341169996602
 20
109.3897174015117
 30
0.0
 10
199.5601411730518
 20
109.5269769019855
 30
0.0
 10
199.5846826726443
 20
109.8018862650623
 30
0.0
 10
199.5835032587263
 20
109.9390741567012
 30
0.0
 10
199.5546343896448
 20
110.2129219382408
 30
0.0
 10
199.5265747950503
 20
110.3498533773276
 30
0.0
 10
199.4508706476919
 20
110.6104573910097
 30
0.0
 10
199.4028627340043
 20
110.7366639628429
 30
0.0
 10
199.2933361088482
 20
110.976687304988
 30
0.0
 10
199.2328012580145
 20
111.0887222385419
 30
0.0
 10
199.1038636527339
 20
111.2977776854185
 30
0.0
 10
199.034711565187
 20
111.3955170902066
 30
0.0
 10
198.8954626713933
 20
111.5678812422598
 30
0.0
 10
198.8249296870993
 20
111.6434143749684
 30
0.0
 10
198.6824591031281
 20
111.7726123789665
 30
0.0
 10
198.6106864158506
 20
111.825755888177
 30
0.0
 10
198.4026639564766
 20
111.9438929471895
 30
0.0
 10
198.2683552368799
 20
111.9702512376046
 30
0.0
 10
198.0866405245778
 20
111.9273787858162
 30
0.0
 10
198.0281200266556
 20
111.8991849229058
 30
0.0
 10
197.9192003173042
 20
111.8174618667105
 30
0.0
 10
197.8685415739938
 20
111.7642151305863
 30
0.0
 10
197.7735915177876
 20
111.6329025121217
 30
0.0
 10
197.7294916678588
 20
111.5546460563345
 30
0.0
 10
197.6504142681533
 20
111.379537984793
 30
0.0
 10
197.6148888333088
 20
111.2819766862108
 30
0.0
 10
197.5514142874264
 20
111.066193598686
 30
0.0
  0
LINE
  5
158
330
1F
100
AcDbEntity
  8
0
  6
HIDDEN
 62
     7
370
     0
100
AcDbLine
 10
203.2087550922
 20
130.5607855564
 30
0.0
 11
203.2812473788
 21
130.8110133057
 31
0.0
  0
LINE
  5
159
330
1F
100
AcDbEntity
  8
0
  6
HIDDEN
 62
     7
370
     0
100
AcDbLine
 10
222.1196567132
 20
121.4118451124
 30
0.0
 11
223.4463294461
 21
122.9761578386
 31
0.0
  0
LWPOLYLINE
  5
15A
330
1F
100
AcDbEntity
  8
0
  6
HIDDEN
 62
     7
370
     0
100
AcDbPolyline
 90
       31
 70
   128
 43
0.0
 10
213.7537499382
 20
115.1887136755
 10
214.2656346276
 20
115.1165105646
 10
214.7551452234
 20
114.9405888526
 10
215.2008873834
 20
114.6686370728
 10
215.5833890154
 20
114.3125402985
 10
215.8859198406
 20
113.8878627924
 10
216.0952699795
 20
113.4131639508
 10
216.2022826686
 20
112.9091908468
 10
216.2022826686
 20
112.3979694919
 10
216.0952699795
 20
111.9018427806
 10
215.8859198406
 20
111.4424936484
 10
215.5833890154
 20
111.0399980342
 10
215.2008873834
 20
110.7119467004
 10
214.7551452234
 20
110.4726772417
 10
214.2656346276
 20
110.3326468681
 10
213.7537499382
 20
110.2979755331
 10
213.2418689742
 20
110.3701785567
 10
212.7523583784
 20
110.546100327
 10
212.306612493
 20
110.8180521649
 10
211.9241145863
 20
111.1741485318
 10
211.6215800359
 20
111.5988263871
 10
211.412229897
 20
112.0735251123
 10
211.3052172079
 20
112.5774982163
 10
211.3052172079
 20
113.0887195712
 10
211.412229897
 20
113.5848462825
 10
211.6215800359
 20
114.0441955311
 10
211.9241145863
 20
114.4466912618
 10
212.306612493
 20
114.7747421881
 10
212.7523583784
 20
115.014011996
 10
213.2418689742
 20
115.1540423987
 10
213.7537499382
 20
115.1887136755
  0
ARC
  5
15B
330
1F
100
AcDbEntity
  8
0
  6
HIDDEN
 62
     7
370
     0
100
AcDbCircle
 10
211.317347598
 20
109.8868267484
 30
0.0
 40
2.507059590107673
100
AcDbArc
 50
33.5928658272
 51
124.9252172812
  0
SPLINE
  5
15C
330
1F
100
AcDbEntity
  8
0
  6
HIDDEN
 62
     7
370
     0
100
AcDbSpline
210
0.0
220
0.0
230
1.0
 70
     8
 71
     3
 72
    28
 73
    24
 74
     0
 42
0.00000001
 43
0.00000001
 12
1.0
 22
0.0
 32
0.0
 13
1.0
 23
0.0
 33
0.0
 40
0.0
 40
0.0
 40
0.0
 40
0.0
 40
0.1249999999999997
 40
0.1249999999999997
 40
0.2499999999999994
 40
0.2499999999999994
 40
0.3124999999999998
 40
0.3124999999999998
 40
0.3750000000000003
 40
0.3750000000000003
 40
0.5000000000000003
 40
0.5000000000000003
 40
0.5625000000000003
 40
0.5625000000000003
 40
0.6250000000000002
 40
0.6250000000000002
 40
0.6875000000000002
 40
0.6875000000000002
 40
0.7500000000000002
 40
0.7500000000000002
 40
0.8750000000000001
 40
0.8750000000000001
 40
1.0
 40
1.0
 40
1.0
 40
1.0
 10
209.8820391909924
 20
111.9423648586196
 30
0.0
 10
209.8285083006324
 20
111.922052282225
 30
0.0
 10
209.7575476470465
 20
111.8761066980016
 30
0.0
 10
209.6149531780656
 20
111.7363369140826
 30
0.0
 10
209.5411161866606
 20
111.6406894811347
 30
0.0
 10
209.4424162695786
 20
111.4523677965601
 30
0.0
 10
209.4114451889072
 20
111.3821507658414
 30
0.0
 10
209.3553386479069
 20
111.2229003462429
 30
0.0
 10
209.3303318992428
 20
111.1338376821829
 30
0.0
 10
209.2704935096584
 20
110.8408542503482
 30
0.0
 10
209.2505119099962
 20
110.6029681854161
 30
0.0
 10
209.2693232863206
 20
110.2108249014847
 30
0.0
 10
209.2831110155508
 20
110.0790324284237
 30
0.0
 10
209.3244692123186
 20
109.8133210995249
 30
0.0
 10
209.3515305901625
 20
109.683185844236
 30
0.0
 10
209.4139937174606
 20
109.4336865573813
 30
0.0
 10
209.4493539117298
 20
109.3144667294311
 30
0.0
 10
209.5229932333286
 20
109.0919892078878
 30
0.0
 10
209.5617388692787
 20
108.9871495680203
 30
0.0
 10
209.6796510663093
 20
108.6899480590193
 30
0.0
 10
209.7577243433668
 20
108.521633645928
 30
0.0
 10
209.8949842093286
 20
108.2243091821094
 30
0.0
 10
209.954757627067
 20
108.0964020863943
 30
0.0
 10
209.9827897345485
 20
107.9922163971686
 30
0.0
  0
ARC
  5
15D
330
1F
100
AcDbEntity
  8
0
  6
HIDDEN
 62
     7
370
     0
100
AcDbCircle
 10
211.4484146877
 20
109.9042561969
 30
0.0
 40
2.409139595750701
100
AcDbArc
 50
232.5289531173
 51
346.3349736081
  0
SPLINE
  5
15E
330
1F
100
AcDbEntity
  8
0
  6
HIDDEN
 62
     7
370
     0
100
AcDbSpline
210
0.0
220
0.0
230
1.0
 70
     8
 71
     3
 72
    14
 73
    10
 74
     0
 42
0.00000001
 43
0.00000001
 12
1.0
 22
0.0
 32
0.0
 13
1.0
 23
0.0
 33
0.0
 40
0.0
 40
0.0
 40
0.0
 40
0.0
 40
0.2500000000000001
 40
0.2500000000000001
 40
0.5000000000000001
 40
0.5000000000000001
 40
0.7499999999999999
 40
0.7499999999999999
 40
1.0
 40
1.0
 40
1.0
 40
1.0
 10
213.7893616137589
 20
109.3351088858136
 30
0.0
 10
213.8357197335304
 20
109.504818207125
 30
0.0
 10
213.8641673987999
 20
109.6774477133305
 30
0.0
 10
213.8807311677398
 20
110.0290850225969
 30
0.0
 10
213.8680722035794
 20
110.2058102237434
 30
0.0
 10
213.8010608231901
 20
110.5440545621302
 30
0.0
 10
213.7457311658275
 20
110.7091493585512
 30
0.0
 10
213.6008254144242
 20
111.0101286642255
 30
0.0
 10
213.5100226790338
 20
111.1496431909178
 30
0.0
 10
213.4057045807988
 20
111.2739523561356
 30
0.0
  0
LINE
  5
15F
330
1F
100
AcDbEntity
  8
0
  6
HIDDEN
 62
     7
370
     0
100
AcDbLine
 10
215.8069287851
 20
130.2139498537
 30
0.0
 11
217.1336015179
 21
131.7782644426
 31
0.0
  0
LINE
  5
160
330
1F
100
AcDbEntity
  8
0
  6
HIDDEN
 62
     7
370
     0
100
AcDbLine
 10
227.8081153943
 20
134.6120722836
 30
0.0
 11
224.4390522554
 21
132.856678242
 31
0.0
  0
LINE
  5
161
330
1F
100
AcDbEntity
  8
0
  6
HIDDEN
 62
     7
370
     0
100
AcDbLine
 10
228.0240369453
 20
134.4028599804
 30
0.0
 11
227.8081153943
 21
134.6120722836
 31
0.0
  0
LINE
  5
162
330
1F
100
AcDbEntity
  8
0
  6
HIDDEN
 62
     7
370
     0
100
AcDbLine
 10
228.0240369453
 20
134.4028599804
 30
0.0
 11
223.7755743279
 21
125.7852372026
 31
0.0
  0
LWPOLYLINE
  5
163
330
1F
100
AcDbEntity
  8
0
  6
HIDDEN
 62
     7
370
     0
100
AcDbPolyline
 90
       31
 70
   128
 43
0.0
 10
218.459763886
 20
122.4998981004
 10
218.9511706545
 20
122.5331826379
 10
219.4211011245
 20
122.667611601
 10
219.8490177705
 20
122.8973102068
 10
220.2162159099
 20
123.2122397294
 10
220.5066507175
 20
123.5986361524
 10
220.7076226785
 20
124.0396108722
 10
220.8103550091
 20
124.5158929622
 10
220.8103550091
 20
125.0066655
 10
220.7076226785
 20
125.4904791957
 10
220.5066507175
 20
125.9461902326
 10
220.2162159099
 20
126.3538804149
 10
219.8490177705
 20
126.6957335418
 10
219.4211011245
 20
126.9568074738
 10
218.9511706545
 20
127.1256916469
 10
218.459763886
 20
127.1950062608
 10
217.9683571174
 20
127.1617226546
 10
217.4984266474
 20
127.0272936916
 10
217.0705137267
 20
126.7975941544
 10
216.703311862
 20
126.4826655632
 10
216.4128807797
 20
126.0962691402
 10
216.2119050934
 20
125.655293489
 10
216.1091727628
 20
125.1790123304
 10
216.1091727628
 20
124.6882397925
 10
216.2119050934
 20
124.2044260969
 10
216.4128807797
 20
123.74871506
 10
216.703311862
 20
123.3410239463
 10
217.0705137267
 20
122.9991717508
 10
217.4984266474
 20
122.7380978187
 10
217.9683571174
 20
122.5692127144
 10
218.459763886
 20
122.4998981004
  0
ARC
  5
164
330
1F
100
AcDbEntity
  8
0
  6
HIDDEN
 62
     7
370
     0
100
AcDbCircle
 10
212.967530349
 20
154.921779025
 30
0.0
 40
24.86894624651247
100
AcDbArc
 50
279.6297618778
 51
297.4696679278
  0
LINE
  5
165
330
1F
100
AcDbEntity
  8
0
  6
HIDDEN
 62
     7
370
     0
100
AcDbLine
 10
216.3999763741
 20
130.2901730185
 30
0.0
 11
215.8069287851
 21
130.2139498537
 31
0.0
  0
ARC
  5
166
330
1F
100
AcDbEntity
  8
0
  6
HIDDEN
 62
     7
370
     0
100
AcDbCircle
 10
245.6851486943
 20
114.9893241194
 30
0.0
 40
24.42501152944359
100
AcDbArc
 50
153.768289568
 51
164.7549100385
  0
LINE
  5
167
330
1F
100
AcDbEntity
  8
0
  6
HIDDEN
 62
     7
370
     0
100
AcDbLine
 10
215.8069287851
 20
130.2139498537
 30
0.0
 11
210.9111876651
 21
120.2833829691
 31
0.0
  0
LINE
  5
168
330
1F
100
AcDbEntity
  8
0
  6
HIDDEN
 62
     7
370
     0
100
AcDbLine
 10
207.703723894
 20
113.9006610272
 30
0.0
 11
222.1196567132
 21
121.4118451124
 31
0.0
  0
LWPOLYLINE
  5
169
330
1F
100
AcDbEntity
  8
0
  6
HIDDEN
 62
     7
370
     0
100
AcDbPolyline
 90
       29
 70
   128
 43
0.0
 10
211.8907955899
 20
109.8530441766
 10
211.9171222164
 20
109.3857502226
 10
211.994779618
 20
108.9418883446
 10
212.1198711409
 20
108.5437155805
 10
212.286130847
 20
108.2111980311
 10
212.4852178111
 20
107.9610095138
 10
212.7071482553
 20
107.8056956419
 10
212.9407947376
 20
107.7530442515
 10
213.1744412198
 20
107.8056956419
 10
213.3963753893
 20
107.9610095138
 10
213.5954586282
 20
108.2111980311
 10
213.7617183342
 20
108.5437155805
 10
213.8868135824
 20
108.9418883446
 10
213.964470984
 20
109.3857502226
 10
213.9907976105
 20
109.8530441766
 10
213.964470984
 20
110.3203381306
 10
213.8868135824
 20
110.7642000086
 10
213.7617183342
 20
111.1623727727
 10
213.5954586282
 20
111.4948903221
 10
213.3963753893
 20
111.7450788395
 10
213.1744412198
 20
111.9003927113
 10
212.9407947376
 20
111.9530441018
 10
212.7071482553
 20
111.9003927113
 10
212.4852178111
 20
111.7450788395
 10
212.286130847
 20
111.4948903221
 10
212.1198711409
 20
111.1623727727
 10
211.994779618
 20
110.7642000086
 10
211.9171222164
 20
110.3203381306
 10
211.8907955899
 20
109.8530441766
  0
SPLINE
  5
16A
330
1F
100
AcDbEntity
  8
0
  6
HIDDEN
 62
     7
370
     0
100
AcDbSpline
210
0.0
220
0.0
230
1.0
 70
     8
 71
     3
 72
    16
 73
    12
 74
     0
 42
0.00000001
 43
0.00000001
 12
1.0
 22
0.0
 32
0.0
 13
1.0
 23
0.0
 33
0.0
 40
0.0
 40
0.0
 40
0.0
 40
0.0
 40
0.1250000000000001
 40
0.1250000000000001
 40
0.2500000000000001
 40
0.2500000000000001
 40
0.5000000000000001
 40
0.5000000000000001
 40
0.7500000000000001
 40
0.7500000000000001
 40
1.0
 40
1.0
 40
1.0
 40
1.0
 10
213.4057045807988
 20
111.2739523561356
 30
0.0
 10
213.2801862151245
 20
111.3664159688912
 30
0.0
 10
213.1463494859273
 20
111.4440854410004
 30
0.0
 10
212.8661452856413
 20
111.5779759742121
 30
0.0
 10
212.7185375074194
 20
111.6343797498441
 30
0.0
 10
212.2701322811583
 20
111.7746272694709
 30
0.0
 10
211.9637174867497
 20
111.83093464082
 30
0.0
 10
211.3437784133488
 20
111.9042036368164
 30
0.0
 10
211.0371831381007
 20
111.9203009814749
 30
0.0
 10
210.4455953980786
 20
111.9388372726753
 30
0.0
 10
210.1577223672846
 20
111.9413650532123
 30
0.0
 10
209.8820391909924
 20
111.9423648586196
 30
0.0
  0
SPLINE
  5
16B
330
1F
100
AcDbEntity
  8
0
  6
HIDDEN
 62
     7
370
     0
100
AcDbSpline
210
0.0
220
0.0
230
1.0
 70
     8
 71
     3
 72
    20
 73
    16
 74
     0
 42
0.00000001
 43
0.00000001
 12
1.0
 22
0.0
 32
0.0
 13
1.0
 23
0.0
 33
0.0
 40
0.0
 40
0.0
 40
0.0
 40
0.0
 40
0.250000000000002
 40
0.250000000000002
 40
0.3750000000000017
 40
0.3750000000000017
 40
0.5000000000000013
 40
0.5000000000000013
 40
0.625000000000001
 40
0.625000000000001
 40
0.7500000000000007
 40
0.7500000000000007
 40
0.8750000000000003
 40
0.8750000000000003
 40
1.0
 40
1.0
 40
1.0
 40
1.0
 10
209.9827897345485
 20
107.9922163971686
 30
0.0
 10
210.2934190809498
 20
107.9861968872441
 30
0.0
 10
210.6108437648509
 20
107.9889579982438
 30
0.0
 10
211.1077365858141
 20
108.0250926087822
 30
0.0
 10
211.2768846043609
 20
108.0426954114005
 30
0.0
 10
211.6229553989816
 20
108.0951180156062
 30
0.0
 10
211.8013875881339
 20
108.1305044287992
 30
0.0
 10
212.151223719072
 20
108.2221200753932
 30
0.0
 10
212.3237651289978
 20
108.2783281055593
 30
0.0
 10
212.6616239581321
 20
108.4156124217526
 30
0.0
 10
212.8283264816046
 20
108.497483762894
 30
0.0
 10
213.143001812196
 20
108.6871899723265
 30
0.0
 10
213.2912326841381
 20
108.7946436316979
 30
0.0
 10
213.564176326985
 20
109.0415197003645
 30
0.0
 10
213.6882606131472
 20
109.1809047472464
 30
0.0
 10
213.7893616137589
 20
109.3351088858137
 30
0.0
  0
LWPOLYLINE
  5
16C
330
1F
100
AcDbEntity
  8
0
  6
HIDDEN
 62
     7
370
     0
100
AcDbPolyline
 90
       25
 70
   128
 43
0.0
 10
218.3295277371
 20
123.0799444264
 10
218.7500943854
 20
123.1195200478
 10
219.1419949248
 20
123.2663858926
 10
219.4785301997
 20
123.5105339682
 10
219.7367635979
 20
123.8353261968
 10
219.8990931227
 20
124.2186278349
 10
219.9544621124
 20
124.6343171468
 10
219.8990931227
 20
125.0540660938
 10
219.7367635979
 20
125.4492700344
 10
219.4785301997
 20
125.7929951196
 10
219.1419949248
 20
126.0618176555
 10
218.7500943854
 20
126.2374185269
 10
218.3295277371
 20
126.3078321015
 10
217.9089648142
 20
126.2682546174
 10
217.5170642748
 20
126.1213887727
 10
217.1805289998
 20
125.8772406971
 10
216.9222956016
 20
125.5524493998
 10
216.7599660768
 20
125.1691477617
 10
216.7045970871
 20
124.7534584498
 10
216.7599660768
 20
124.3337095028
 10
216.9222956016
 20
123.9385055622
 10
217.1805289998
 20
123.5947804769
 10
217.5170642748
 20
123.3259570097
 10
217.9089648142
 20
123.1503561383
 10
218.3295277371
 20
123.0799444264
  0
LINE
  5
16D
330
1F
100
AcDbEntity
  8
0
  6
HIDDEN
 62
     7
370
     0
100
AcDbLine
 10
178.3101560739
 20
95.9328077977
 30
0.0
 11
178.3101560739
 21
95.8329458033
 31
0.0
  0
SPLINE
  5
16E
330
1F
100
AcDbEntity
  8
0
  6
HIDDEN
 62
     7
370
     0
100
AcDbSpline
210
0.0
220
0.0
230
1.0
 70
     8
 71
     3
 72
    24
 73
    20
 74
     0
 42
0.00000001
 43
0.00000001
 12
1.0
 22
0.0
 32
0.0
 13
1.0
 23
0.0
 33
0.0
 40
0.0
 40
0.0
 40
0.0
 40
0.0
 40
0.2500000000000155
 40
0.2500000000000155
 40
0.3750000000000213
 40
0.3750000000000213
 40
0.4375000000000252
 40
0.4375000000000252
 40
0.468750000000025
 40
0.468750000000025
 40
0.5000000000000248
 40
0.5000000000000248
 40
0.5625000000000215
 40
0.5625000000000215
 40
0.6250000000000183
 40
0.6250000000000183
 40
0.7500000000000123
 40
0.7500000000000123
 40
1.0
 40
1.0
 40
1.0
 40
1.0
 10
178.3101560964365
 20
95.93280778833079
 30
0.0
 10
178.3105590070723
 20
95.9632320251688
 30
0.0
 10
178.3126029864129
 20
95.99609012572294
 30
0.0
 10
178.3218402292389
 20
96.05211549287651
 30
0.0
 10
178.3257272922195
 20
96.07172654606192
 30
0.0
 10
178.3366311836261
 20
96.10600082949145
 30
0.0
 10
178.3407732293766
 20
96.11806325496364
 30
0.0
 10
178.3526683031293
 20
96.14038241966314
 30
0.0
 10
178.3579153674381
 20
96.14934893202341
 30
0.0
 10
178.3747824338172
 20
96.16699849654974
 30
0.0
 10
178.3826048413423
 20
96.17114278068952
 30
0.0
 10
178.3995536419639
 20
96.17763032186357
 30
0.0
 10
178.4070099931819
 20
96.17703344049193
 30
0.0
 10
178.4210698963743
 20
96.1752871765199
 30
0.0
 10
178.4272022815103
 20
96.17345648862144
 30
0.0
 10
178.4444970440335
 20
96.1668900790486
 30
0.0
 10
178.4545143624424
 20
96.1610248638899
 30
0.0
 10
178.4828856966853
 20
96.14228017985954
 30
0.0
 10
178.4994211343297
 20
96.12811603177289
 30
0.0
 10
178.5151161184942
 20
96.11395964548063
 30
0.0
  0
LINE
  5
16F
330
1F
100
AcDbEntity
  8
0
  6
HIDDEN
 62
     7
370
     0
100
AcDbLine
 10
157.5101552024
 20
100.1954330375
 30
0.0
 11
157.5101552024
 21
96.3555136939
 31
0.0
  0
LINE
  5
170
330
1F
100
AcDbEntity
  8
0
  6
HIDDEN
 62
     7
370
     0
100
AcDbLine
 10
156.0101558878
 20
100.6284458807
 30
0.0
 11
156.0101558878
 21
97.2215393802
 31
0.0
  0
SPLINE
  5
171
330
1F
100
AcDbEntity
  8
0
  6
HIDDEN
 62
     7
370
     0
100
AcDbSpline
210
0.0
220
0.0
230
1.0
 70
     8
 71
     3
 72
     8
 73
     4
 74
     0
 42
0.00000001
 43
0.00000001
 12
1.0
 22
0.0
 32
0.0
 13
1.0
 23
0.0
 33
0.0
 40
0.0
 40
0.0
 40
0.0
 40
0.0
 40
1.0
 40
1.0
 40
1.0
 40
1.0
 10
178.5151161184941
 20
96.1139596454806
 30
0.0
 10
178.5658432617008
 20
96.0682053441554
 30
0.0
 10
178.6237305912617
 20
96.03970119829187
 30
0.0
 10
178.6888357528769
 20
96.02798016863305
 30
0.0
  0
LINE
  5
172
330
1F
100
AcDbEntity
  8
0
  6
HIDDEN
 62
     7
370
     0
100
AcDbLine
 10
178.3101560739
 20
99.9341486266
 30
0.0
 11
178.3101560739
 21
98.8790057843
 31
0.0
  0
SPLINE
  5
173
330
1F
100
AcDbEntity
  8
0
  6
HIDDEN
 62
     7
370
     0
100
AcDbSpline
210
0.0
220
0.0
230
1.0
 70
     8
 71
     3
 72
    16
 73
    12
 74
     0
 42
0.00000001
 43
0.00000001
 12
1.0
 22
0.0
 32
0.0
 13
1.0
 23
0.0
 33
0.0
 40
0.0
 40
0.0
 40
0.0
 40
0.0
 40
0.2500000000000004
 40
0.2500000000000004
 40
0.3750000000000004
 40
0.3750000000000004
 40
0.5000000000000003
 40
0.5000000000000003
 40
0.7500000000000002
 40
0.7500000000000002
 40
1.0
 40
1.0
 40
1.0
 40
1.0
 10
178.3101560964363
 20
98.8790061843917
 30
0.0
 10
178.2296187645372
 20
98.48999900044772
 30
0.0
 10
178.16958142051
 20
98.13349855882339
 30
0.0
 10
178.1088437133563
 20
97.6469961736361
 30
0.0
 10
178.0935213382434
 20
97.49291723278266
 30
0.0
 10
178.0729385289391
 20
97.20144767429
 30
0.0
 10
178.0677389319134
 20
97.06387779039113
 30
0.0
 10
178.0676852787331
 20
96.6856329552019
 30
0.0
 10
178.0878828222106
 20
96.4757518866498
 30
0.0
 10
178.168560910568
 20
96.13917258773797
 30
0.0
 10
178.229607075175
 20
96.01288809581945
 30
0.0
 10
178.3101560964327
 20
95.93280778832698
 30
0.0
  0
LINE
  5
174
330
1F
100
AcDbEntity
  8
0
  6
HIDDEN
 62
     7
370
     0
100
AcDbLine
 10
178.3101560739
 20
123.8731425499
 30
0.0
 11
178.3101560739
 21
123.7732805555
 31
0.0
  0
SPLINE
  5
175
330
1F
100
AcDbEntity
  8
0
  6
HIDDEN
 62
     7
370
     0
100
AcDbSpline
210
0.0
220
0.0
230
1.0
 70
     8
 71
     3
 72
    24
 73
    20
 74
     0
 42
0.00000001
 43
0.00000001
 12
1.0
 22
0.0
 32
0.0
 13
1.0
 23
0.0
 33
0.0
 40
0.0
 40
0.0
 40
0.0
 40
0.0
 40
0.2500000000000085
 40
0.2500000000000085
 40
0.3750000000000118
 40
0.3750000000000118
 40
0.4375000000000124
 40
0.4375000000000124
 40
0.5000000000000129
 40
0.5000000000000129
 40
0.5312500000000118
 40
0.5312500000000118
 40
0.5625000000000105
 40
0.5625000000000105
 40
0.6250000000000099
 40
0.6250000000000099
 40
0.7500000000000066
 40
0.7500000000000066
 40
1.0
 40
1.0
 40
1.0
 40
1.0
 10
178.5151161184969
 20
123.5921287077982
 30
0.0
 10
178.4993495301985
 20
123.5779077368099
 30
0.0
 10
178.4827379972439
 20
123.5636774464751
 30
0.0
 10
178.4542116492859
 20
123.5448803912536
 30
0.0
 10
178.4441262154959
 20
123.5389919709124
 30
0.0
 10
178.426643444961
 20
123.53245457611
 30
0.0
 10
178.4204357885155
 20
123.5306433621088
 30
0.0
 10
178.4061642882703
 20
123.5290375596023
 30
0.0
 10
178.3985942177673
 20
123.5284847822162
 30
0.0
 10
178.3811978883319
 20
123.535683526929
 30
0.0
 10
178.3727386153719
 20
123.5407752756767
 30
0.0
 10
178.3566776508243
 20
123.5585902081559
 30
0.0
 10
178.351844414978
 20
123.5671126230182
 30
0.0
 10
178.3404184952427
 20
123.589009059667
 30
0.0
 10
178.3363971393603
 20
123.6007495824729
 30
0.0
 10
178.3256366443292
 20
123.6347998464262
 30
0.0
 10
178.3217623352683
 20
123.654374835455
 30
0.0
 10
178.3125894631411
 20
123.7102231441361
 30
0.0
 10
178.3105570924264
 20
123.743000905165
 30
0.0
 10
178.3101560964365
 20
123.7732805649529
 30
0.0
  0
LINE
  5
176
330
1F
100
AcDbEntity
  8
0
  6
HIDDEN
 62
     7
370
     0
100
AcDbLine
 10
157.5101552024
 20
123.3505746593
 30
0.0
 11
157.5101552024
 21
119.5106553158
 31
0.0
  0
LINE
  5
177
330
1F
100
AcDbEntity
  8
0
  6
HIDDEN
 62
     7
370
     0
100
AcDbLine
 10
178.3101560739
 20
120.8270825689
 30
0.0
 11
178.3101560739
 21
119.7719397267
 31
0.0
  0
SPLINE
  5
178
330
1F
100
AcDbEntity
  8
0
  6
HIDDEN
 62
     7
370
     0
100
AcDbSpline
210
0.0
220
0.0
230
1.0
 70
     8
 71
     3
 72
    16
 73
    12
 74
     0
 42
0.00000001
 43
0.00000001
 12
1.0
 22
0.0
 32
0.0
 13
1.0
 23
0.0
 33
0.0
 40
0.0
 40
0.0
 40
0.0
 40
0.0
 40
0.2499999999999996
 40
0.2499999999999996
 40
0.3749999999999994
 40
0.3749999999999994
 40
0.4999999999999992
 40
0.4999999999999992
 40
0.7499999999999996
 40
0.7499999999999996
 40
1.0
 40
1.0
 40
1.0
 40
1.0
 10
178.3101560964363
 20
123.7732805649531
 30
0.0
 10
178.2296187645371
 20
123.6932118788007
 30
0.0
 10
178.1695814205098
 20
123.5693473873104
 30
0.0
 10
178.1088437133562
 20
123.3186665633783
 30
0.0
 10
178.0935213382432
 20
123.2242279590688
 30
0.0
 10
178.072938528939
 20
123.0129168914501
 30
0.0
 10
178.0677389319134
 20
122.8956274366965
 30
0.0
 10
178.0676852787333
 20
122.5175917649413
 30
0.0
 10
178.0878828222109
 20
122.2288146111972
 30
0.0
 10
178.1685609105689
 20
121.5789747480584
 30
0.0
 10
178.2296070751763
 20
121.2161458141657
 30
0.0
 10
178.3101560964344
 20
120.8270821688941
 30
0.0
  0
LINE
  5
179
330
1F
100
AcDbEntity
  8
0
  6
HIDDEN
 62
     7
370
     0
100
AcDbLine
 10
156.0101558878
 20
122.4845489731
 30
0.0
 11
156.0101558878
 21
119.0776424726
 31
0.0
  0
SPLINE
  5
17A
330
1F
100
AcDbEntity
  8
0
  6
HIDDEN
 62
     7
370
     0
100
AcDbSpline
210
0.0
220
0.0
230
1.0
 70
     8
 71
     3
 72
     8
 73
     4
 74
     0
 42
0.00000001
 43
0.00000001
 12
1.0
 22
0.0
 32
0.0
 13
1.0
 23
0.0
 33
0.0
 40
0.0
 40
0.0
 40
0.0
 40
0.0
 40
1.0
 40
1.0
 40
1.0
 40
1.0
 10
178.6888357528769
 20
123.6781081846433
 30
0.0
 10
178.6237305912628
 20
123.6663871549847
 30
0.0
 10
178.5658432617029
 20
123.637883009122
 30
0.0
 10
178.5151161184968
 20
123.5921287077982
 30
0.0
  0
LWPOLYLINE
  5
17B
330
1F
100
AcDbEntity
  8
0
  6
HIDDEN
 62
     7
370
     0
100
AcDbPolyline
 90
       25
 70
   128
 43
0.0
 10
216.4628108456
 20
120.8788492029
 10
216.8833737685
 20
120.9184248244
 10
217.2752780332
 20
121.0652906691
 10
217.6118133082
 20
121.3094387447
 10
217.8700429811
 20
121.6342309734
 10
218.0323762312
 20
122.0175326114
 10
218.0877452209
 20
122.4332219234
 10
218.0323762312
 20
122.8529708704
 10
217.8700429811
 20
123.2481748109
 10
217.6118133082
 20
123.5918998962
 10
217.2752780332
 20
123.8607233634
 10
216.8833737685
 20
124.0363242348
 10
216.4628108456
 20
124.1067359468
 10
216.0422479226
 20
124.0671603253
 10
215.6503436579
 20
123.9202935492
 10
215.313808383
 20
123.6761454737
 10
215.0555787101
 20
123.3513541763
 10
214.89324546
 20
122.9680525383
 10
214.8378764703
 20
122.5523632264
 10
214.89324546
 20
122.1326142793
 10
215.0555787101
 20
121.7374103388
 10
215.313808383
 20
121.3936852535
 10
215.6503436579
 20
121.1248617863
 10
216.0422479226
 20
120.9492609149
 10
216.4628108456
 20
120.8788492029
  0
SPLINE
  5
17C
330
1F
100
AcDbEntity
  8
0
  6
HIDDEN
 62
     7
370
     0
100
AcDbSpline
210
0.0
220
0.0
230
1.0
 70
     8
 71
     3
 72
     8
 73
     4
 74
     0
 42
0.00000001
 43
0.00000001
 12
1.0
 22
0.0
 32
0.0
 13
1.0
 23
0.0
 33
0.0
 40
0.0
 40
0.0
 40
0.0
 40
0.0
 40
1.0
 40
1.0
 40
1.0
 40
1.0
 10
204.4797978170502
 20
126.7572575514627
 30
0.0
 10
203.8477963247905
 20
127.5827164846692
 30
0.0
 10
203.3728219230168
 20
128.412125047006
 30
0.0
 10
203.2087549347466
 20
129.2493537184297
 30
0.0
  0
LINE
  5
17D
330
1F
100
AcDbEntity
  8
0
  6
HIDDEN
 62
     7
370
     0
100
AcDbLine
 10
227.8081153943
 20
134.6120722836
 30
0.0
 11
227.1840286865
 21
133.8761970645
 31
0.0
  0
LINE
  5
17E
330
1F
100
AcDbEntity
  8
0
  6
HIDDEN
 62
     7
370
     0
100
AcDbLine
 10
227.2883442654
 20
133.5353851562
 30
0.0
 11
228.0240369453
 21
134.4028599804
 31
0.0
  0
LINE
  5
17F
330
1F
100
AcDbEntity
  8
0
  6
HIDDEN
 62
     7
370
     0
100
AcDbLine
 10
156.0101558878
 20
119.0776424726
 30
0.0
 11
156.0101558878
 21
111.7032580321
 31
0.0
  0
LINE
  5
180
330
1F
100
AcDbEntity
  8
0
  6
HIDDEN
 62
     7
370
     0
100
AcDbLine
 10
156.0101558878
 20
108.0028303211
 30
0.0
 11
156.0101558878
 21
100.6284458807
 31
0.0
  0
SPLINE
  5
181
330
1F
100
AcDbEntity
  8
0
  6
HIDDEN
 62
     7
370
     0
100
AcDbSpline
210
0.0
220
0.0
230
1.0
 70
     8
 71
     3
 72
    24
 73
    20
 74
     0
 42
0.00000001
 43
0.00000001
 12
1.0
 22
0.0
 32
0.0
 13
1.0
 23
0.0
 33
0.0
 40
0.0
 40
0.0
 40
0.0
 40
0.0
 40
0.2500000000000179
 40
0.2500000000000179
 40
0.375000000000025
 40
0.375000000000025
 40
0.4375000000000291
 40
0.4375000000000291
 40
0.5000000000000332
 40
0.5000000000000332
 40
0.5312500000000326
 40
0.5312500000000326
 40
0.5625000000000321
 40
0.5625000000000321
 40
0.6250000000000286
 40
0.6250000000000286
 40
0.7500000000000193
 40
0.7500000000000193
 40
1.0
 40
1.0
 40
1.0
 40
1.0
 10
178.5151161184969
 20
99.06045044983993
 30
0.0
 10
178.4993472411395
 20
98.98659175791035
 30
0.0
 10
178.4827332592895
 20
98.91288036917457
 30
0.0
 10
178.4542015932844
 20
98.80133354555252
 30
0.0
 10
178.4441141784657
 20
98.76396197242404
 30
0.0
 10
178.4266266180114
 20
98.70706247478635
 30
0.0
 10
178.4204170562281
 20
98.68795937464104
 30
0.0
 10
178.4061395025755
 20
98.64908586040549
 30
0.0
 10
178.3985679547801
 20
98.62916120097212
 30
0.0
 10
178.3811503711018
 20
98.59908898294472
 30
0.0
 10
178.3726678744567
 20
98.58740760414165
 30
0.0
 10
178.3566295625849
 20
98.580146093393
 30
0.0
 10
178.3518090143814
 20
98.58372434040278
 30
0.0
 10
178.3403997898335
 20
98.59548519563444
 30
0.0
 10
178.336379309376
 20
98.60715084568498
 30
0.0
 10
178.3256254545556
 20
98.64368617579856
 30
0.0
 10
178.3217527732735
 20
98.67108190912214
 30
0.0
 10
178.3125846234359
 20
98.75580790087811
 30
0.0
 10
178.3105561180667
 20
98.8166400230502
 30
0.0
 10
178.3101560964365
 20
98.8790061843918
 30
0.0
  0
SPLINE
  5
182
330
1F
100
AcDbEntity
  8
0
  6
HIDDEN
 62
     7
370
     0
100
AcDbSpline
210
0.0
220
0.0
230
1.0
 70
     8
 71
     3
 72
    24
 73
    20
 74
     0
 42
0.00000001
 43
0.00000001
 12
1.0
 22
0.0
 32
0.0
 13
1.0
 23
0.0
 33
0.0
 40
0.0
 40
0.0
 40
0.0
 40
0.0
 40
0.2500000000000093
 40
0.2500000000000093
 40
0.3750000000000139
 40
0.3750000000000139
 40
0.437500000000015
 40
0.437500000000015
 40
0.4687500000000135
 40
0.4687500000000135
 40
0.5000000000000119
 40
0.5000000000000119
 40
0.5625000000000104
 40
0.5625000000000104
 40
0.625000000000009
 40
0.625000000000009
 40
0.750000000000006
 40
0.750000000000006
 40
1.0
 40
1.0
 40
1.0
 40
1.0
 10
178.3101560964329
 20
120.8270821688955
 30
0.0
 10
178.3105607660087
 20
120.890172977388
 30
0.0
 10
178.3126042128231
 20
120.9513586998905
 30
0.0
 10
178.3220037780773
 20
121.0368584323921
 30
0.0
 10
178.3259546716061
 20
121.0644388158332
 30
0.0
 10
178.337106979903
 20
121.1008928979448
 30
0.0
 10
178.3413285208295
 20
121.1127513196392
 30
0.0
 10
178.3535362423931
 20
121.1233713710147
 30
0.0
 10
178.3593270126451
 20
121.126204738237
 30
0.0
 10
178.376248525755
 20
121.1148901512391
 30
0.0
 10
178.3836546417049
 20
121.1031092654853
 30
0.0
 10
178.4001118949481
 20
121.0730684242556
 30
0.0
 10
178.4075684128591
 20
121.0533554706425
 30
0.0
 10
178.4214763421337
 20
121.0149534045824
 30
0.0
 10
178.4275682880287
 20
120.9960717546709
 30
0.0
 10
178.4447625803798
 20
120.9397708441394
 30
0.0
 10
178.4547475305834
 20
120.9026947663297
 30
0.0
 10
178.4829935756823
 20
120.7920360954397
 30
0.0
 10
178.4994731126434
 20
120.7189070350312
 30
0.0
 10
178.5151161185031
 20
120.6456379034072
 30
0.0
  0
SPLINE
  5
183
330
1F
100
AcDbEntity
  8
0
  6
HIDDEN
 62
     7
370
     0
100
AcDbSpline
210
0.0
220
0.0
230
1.0
 70
     8
 71
     3
 72
     8
 73
     4
 74
     0
 42
0.00000001
 43
0.00000001
 12
1.0
 22
0.0
 32
0.0
 13
1.0
 23
0.0
 33
0.0
 40
0.0
 40
0.0
 40
0.0
 40
0.0
 40
1.0
 40
1.0
 40
1.0
 40
1.0
 10
178.6888357528769
 20
99.79952485903141
 30
0.0
 10
178.6237305912628
 20
99.54449962382573
 30
0.0
 10
178.5658432617029
 20
99.29804760768448
 30
0.0
 10
178.5151161184968
 20
99.0604504498399
 30
0.0
  0
SPLINE
  5
184
330
1F
100
AcDbEntity
  8
0
  6
HIDDEN
 62
     7
370
     0
100
AcDbSpline
210
0.0
220
0.0
230
1.0
 70
     8
 71
     3
 72
     8
 73
     4
 74
     0
 42
0.00000001
 43
0.00000001
 12
1.0
 22
0.0
 32
0.0
 13
1.0
 23
0.0
 33
0.0
 40
0.0
 40
0.0
 40
0.0
 40
0.0
 40
1.0
 40
1.0
 40
1.0
 40
1.0
 10
178.5151161185031
 20
120.6456379034073
 30
0.0
 10
178.5658432617076
 20
120.4080407455717
 30
0.0
 10
178.6237305912655
 20
120.1615887294402
 30
0.0
 10
178.6888357528769
 20
119.906563494245
 30
0.0
  0
LINE
  5
185
330
1F
100
AcDbEntity
  8
0
  6
HIDDEN
 62
     7
370
     0
100
AcDbLine
 10
157.5101552024
 20
107.298015874
 30
0.0
 11
157.5101552024
 21
100.1954330375
 31
0.0
  0
LINE
  5
186
330
1F
100
AcDbEntity
  8
0
  6
HIDDEN
 62
     7
370
     0
100
AcDbLine
 10
157.5101552024
 20
119.5106553158
 30
0.0
 11
157.5101552024
 21
112.4080724792
 31
0.0
  0
LWPOLYLINE
  5
187
330
1F
100
AcDbEntity
  8
0
  6
HIDDEN
 62
     7
370
     0
100
AcDbPolyline
 90
       31
 70
   128
 43
0.0
 10
211.8989390745
 20
109.8530441766
 10
211.9262566283
 20
109.3332649569
 10
212.0070097461
 20
108.8362025574
 10
212.137670578
 20
108.3835810667
 10
212.312528254
 20
107.9951820673
 10
212.5239384784
 20
107.6879806595
 10
212.7626699819
 20
107.4754027894
 10
213.0182807758
 20
107.366739331
 10
213.2796024396
 20
107.366739331
 10
213.5352132334
 20
107.4754027894
 10
213.7739410116
 20
107.6879806595
 10
213.9853549614
 20
107.9951820673
 10
214.1602126374
 20
108.3835810667
 10
214.2908734693
 20
108.8362025574
 10
214.3716228618
 20
109.3332649569
 10
214.3989404156
 20
109.8530441766
 10
214.3716228618
 20
110.3728233964
 10
214.2908734693
 20
110.8698857959
 10
214.1602126374
 20
111.3225072866
 10
213.9853549614
 20
111.710906286
 10
213.7739410116
 20
112.0181076938
 10
213.5352132334
 20
112.2306855639
 10
213.2796024396
 20
112.3393490223
 10
213.0182807758
 20
112.3393490223
 10
212.7626699819
 20
112.2306855639
 10
212.5239384784
 20
112.0181076938
 10
212.312528254
 20
111.710906286
 10
212.137670578
 20
111.3225072866
 10
212.0070097461
 20
110.8698857959
 10
211.9262566283
 20
110.3728233964
 10
211.8989390745
 20
109.8530441766
  0
SPLINE
  5
188
330
1F
100
AcDbEntity
  8
0
  6
HIDDEN
 62
     7
370
     0
100
AcDbSpline
210
0.0
220
0.0
230
1.0
 70
     8
 71
     3
 72
    18
 73
    14
 74
     0
 42
0.00000001
 43
0.00000001
 12
1.0
 22
0.0
 32
0.0
 13
1.0
 23
0.0
 33
0.0
 40
0.0
 40
0.0
 40
0.0
 40
0.0
 40
0.2500000000000002
 40
0.2500000000000002
 40
0.3750000000000002
 40
0.3750000000000002
 40
0.5000000000000003
 40
0.5000000000000003
 40
0.6250000000000004
 40
0.6250000000000004
 40
0.7500000000000004
 40
0.7500000000000004
 40
1.0
 40
1.0
 40
1.0
 40
1.0
 10
218.474385730645
 20
111.5874873663083
 30
0.0
 10
218.5122475142676
 20
111.7696744885434
 30
0.0
 10
218.5538143981992
 20
111.9195361862531
 30
0.0
 10
218.6196003222472
 20
112.099055720389
 30
0.0
 10
218.6421148801377
 20
112.1510075809207
 30
0.0
 10
218.686755765641
 20
112.2365589935849
 30
0.0
 10
218.7090608977783
 20
112.2706818281765
 30
0.0
 10
218.7535918673452
 20
112.3219481247107
 30
0.0
 10
218.7759796097901
 20
112.3391014609932
 30
0.0
 10
218.8196778565404
 20
112.3554821921028
 30
0.0
 10
218.8410303802401
 20
112.3549058244864
 30
0.0
 10
218.9038651649549
 20
112.3275242125041
 30
0.0
 10
218.9444200621513
 20
112.2744142097896
 30
0.0
 10
218.9827703068254
 20
112.1869367324499
 30
0.0
  0
ELLIPSE
  5
189
330
1F
100
AcDbEntity
  8
0
  6
HIDDEN
 62
     7
370
     0
100
AcDbEllipse
 10
218.7426605604
 20
109.8530441766
 30
0.0
 11
0.08617317532670654
 21
2.499951391311754
 31
0.0
210
0.0
220
0.0
230
1.0
 40
0.1809121544
 41
0.8103115486275476
 42
5.922836812492121
  0
LINE
  5
18A
330
1F
100
AcDbEntity
  8
0
  6
HIDDEN
 62
     7
370
     0
100
AcDbLine
 10
178.3101560739
 20
119.7719397267
 30
0.0
 11
178.3101560739
 21
99.9341486266
 31
0.0
  0
LINE
  5
18B
330
1F
100
AcDbEntity
  8
0
  6
HIDDEN
 62
     7
370
     0
100
AcDbLine
 10
179.8101561015
 20
118.3324111869
 30
0.0
 11
179.8101561015
 21
101.3736771663
 31
0.0
  0
ELLIPSE
  5
18C
330
1F
100
AcDbEntity
  8
0
  6
HIDDEN
 62
     7
370
     0
100
AcDbEllipse
 10
254.3833863213
 20
111.8530441766
 30
0.0
 11
27.01848097676074
 21
-24.48515609964312
 31
0.0
210
0.0
220
0.0
230
1.0
 40
0.1868161121
 41
3.431276495605498
 42
3.459352403150531
  0
SPLINE
  5
18D
330
1F
100
AcDbEntity
  8
0
  6
HIDDEN
 62
     7
370
     0
100
AcDbSpline
210
0.0
220
0.0
230
1.0
 70
     8
 71
     3
 72
     8
 73
     4
 74
     0
 42
0.00000001
 43
0.00000001
 12
1.0
 22
0.0
 32
0.0
 13
1.0
 23
0.0
 33
0.0
 40
0.0
 40
0.0
 40
0.0
 40
0.0
 40
1.0
 40
1.0
 40
1.0
 40
1.0
 10
204.4797978170502
 20
126.7572575514626
 30
0.0
 10
204.4599386907811
 20
126.0685530484147
 30
0.0
 10
204.4397987158233
 20
125.3531145500832
 30
0.0
 10
204.4193662569551
 20
124.6103949988113
 30
0.0
  0
ELLIPSE
  5
18E
330
1F
100
AcDbEntity
  8
0
  6
HIDDEN
 62
     7
370
     0
100
AcDbEllipse
 10
185.0113468985
 20
111.8530441766
 30
0.0
 11
45.41018437336122
 21
24.90708844896583
 31
0.0
210
0.0
220
0.0
230
1.0
 40
0.0474201264
 41
5.671908357479014
 42
5.876445618485293
  0
ELLIPSE
  5
18F
330
1F
100
AcDbEntity
  8
0
  6
HIDDEN
 62
     7
370
     0
100
AcDbEllipse
 10
217.0181690637
 20
111.8530441766
 30
0.0
 11
12.90536801158996
 21
24.98953538665845
 31
0.0
210
0.0
220
0.0
230
1.0
 40
0.0560442098
 41
0.5499916106819922
 42
1.064204555894452
  0
SPLINE
  5
190
330
1F
100
AcDbEntity
  8
0
  6
HIDDEN
 62
     7
370
     0
100
AcDbSpline
210
0.0
220
0.0
230
1.0
 70
     8
 71
     3
 72
    18
 73
    14
 74
     0
 42
0.00000001
 43
0.00000001
 12
1.0
 22
0.0
 32
0.0
 13
1.0
 23
0.0
 33
0.0
 40
0.0
 40
0.0
 40
0.0
 40
0.0
 40
0.2499999999999991
 40
0.2499999999999991
 40
0.3749999999999992
 40
0.3749999999999992
 40
0.4999999999999994
 40
0.4999999999999994
 40
0.7499999999999996
 40
0.7499999999999996
 40
0.8749999999999998
 40
0.8749999999999998
 40
1.0
 40
1.0
 40
1.0
 40
1.0
 10
209.1022385946186
 20
126.7572575514627
 30
0.0
 10
210.394088323111
 20
126.7572575514627
 30
0.0
 10
211.6609452169054
 20
126.8694779254735
 30
0.0
 10
213.5277247924736
 20
127.1826045825367
 30
0.0
 10
214.1443307651519
 20
127.3113150056629
 30
0.0
 10
215.3662210835546
 20
127.6151962647776
 30
0.0
 10
215.9729609795585
 20
127.7911267353141
 30
0.0
 10
217.7368743415626
 20
128.3718343799159
 30
0.0
 10
218.8512597938334
 20
128.8321253623164
 30
0.0
 10
220.4349566532304
 20
129.6025361681587
 30
0.0
 10
220.9494551069644
 20
129.8734725523291
 30
0.0
 10
221.9427044826059
 20
130.4336599228702
 30
0.0
 10
222.4192107858273
 20
130.7215107165503
 30
0.0
 10
222.8763134246196
 20
131.014012332941
 30
0.0
  0
LINE
  5
191
330
1F
100
AcDbEntity
  8
0
  6
HIDDEN
 62
     7
370
     0
100
AcDbLine
 10
204.479798065
 20
126.7572567111
 30
0.0
 11
209.1022388502
 21
126.7572567111
 31
0.0
  0
SPLINE
  5
192
330
1F
100
AcDbEntity
  8
0
  6
HIDDEN
 62
     7
370
     0
100
AcDbSpline
210
0.0
220
0.0
230
1.0
 70
     8
 71
     3
 72
    22
 73
    18
 74
     0
 42
0.00000001
 43
0.00000001
 12
1.0
 22
0.0
 32
0.0
 13
1.0
 23
0.0
 33
0.0
 40
0.0
 40
0.0
 40
0.0
 40
0.0
 40
0.1249999999999999
 40
0.1249999999999999
 40
0.2499999999999999
 40
0.2499999999999999
 40
0.3749999999999998
 40
0.3749999999999998
 40
0.4999999999999998
 40
0.4999999999999998
 40
0.6249999999999998
 40
0.6249999999999998
 40
0.7499999999999999
 40
0.7499999999999999
 40
0.8749999999999999
 40
0.8749999999999999
 40
1.0
 40
1.0
 40
1.0
 40
1.0
 10
160.2101560964365
 20
107.2600994968102
 30
0.0
 10
160.3910924545127
 20
107.4517193561168
 30
0.0
 10
160.5701879032896
 20
107.645361220504
 30
0.0
 10
160.9210278918016
 20
108.0400164738882
 30
0.0
 10
161.0932209997062
 20
108.2410280045558
 30
0.0
 10
161.4189525053255
 20
108.6572391197895
 30
0.0
 10
161.5750287404938
 20
108.8732549600763
 30
0.0
 10
161.8264079543829
 20
109.338577723241
 30
0.0
 10
161.9202730847017
 20
109.5941169162638
 30
0.0
 10
161.9165451678395
 20
110.1284475513645
 30
0.0
 10
161.8191725253522
 20
110.3838684173652
 30
0.0
 10
161.5673517163583
 20
110.8438971333129
 30
0.0
 10
161.4123824608857
 20
111.0577341342414
 30
0.0
 10
161.0875697031605
 20
111.4717727169352
 30
0.0
 10
160.9166766390326
 20
111.671065188971
 30
0.0
 10
160.5680423995049
 20
112.0630400814052
 30
0.0
 10
160.3900345489765
 20
112.2554893673946
 30
0.0
 10
160.2101560964365
 20
112.4459888564662
 30
0.0
  0
LINE
  5
193
330
1F
100
AcDbEntity
  8
0
  6
HIDDEN
 62
     7
370
     0
100
AcDbLine
 10
160.2101562037
 20
107.2600994037
 30
0.0
 11
160.2101562037
 21
112.4459889496
 31
0.0
  0
SPLINE
  5
194
330
1F
100
AcDbEntity
  8
0
  6
HIDDEN
 62
     7
370
     0
100
AcDbSpline
210
0.0
220
0.0
230
1.0
 70
     8
 71
     3
 72
     8
 73
     4
 74
     0
 42
0.00000001
 43
0.00000001
 12
1.0
 22
0.0
 32
0.0
 13
1.0
 23
0.0
 33
0.0
 40
0.0000137051794235
 40
0.0000137051794235
 40
0.0000137051794235
 40
0.0000137051794235
 40
0.0027147144718019
 40
0.0027147144718019
 40
0.0027147144718019
 40
0.0027147144718019
 10
157.5101560964365
 20
107.2980159395765
 30
0.0
 10
158.4101522319313
 20
107.2850443723781
 30
0.0
 10
159.3101524105267
 20
107.272409515066
 30
0.0
 10
160.2101560964365
 20
107.2600994968102
 30
0.0
  0
SPLINE
  5
195
330
1F
100
AcDbEntity
  8
0
  6
HIDDEN
 62
     7
370
     0
100
AcDbSpline
210
0.0
220
0.0
230
1.0
 70
     8
 71
     3
 72
     8
 73
     4
 74
     0
 42
0.00000001
 43
0.00000001
 12
1.0
 22
0.0
 32
0.0
 13
1.0
 23
0.0
 33
0.0
 40
0.0000137050638847
 40
0.0000137050638847
 40
0.0000137050638847
 40
0.0000137050638847
 40
0.0027147143562631
 40
0.0027147143562631
 40
0.0027147143562631
 40
0.0027147143562631
 10
160.2101560964365
 20
112.4459888564662
 30
0.0
 10
159.3101524105267
 20
112.4336788382104
 30
0.0
 10
158.4101522319313
 20
112.4210439808983
 30
0.0
 10
157.5101560964365
 20
112.4080724136999
 30
0.0
  0
SPLINE
  5
196
330
1F
100
AcDbEntity
  8
0
  6
HIDDEN
 62
     7
370
     0
100
AcDbSpline
210
0.0
220
0.0
230
1.0
 70
     8
 71
     3
 72
    10
 73
     6
 74
     0
 42
0.00000001
 43
0.00000001
 12
1.0
 22
0.0
 32
0.0
 13
1.0
 23
0.0
 33
0.0
 40
0.0
 40
0.0
 40
0.0
 40
0.0
 40
0.5
 40
0.5
 40
1.0
 40
1.0
 40
1.0
 40
1.0
 10
156.0101560964357
 20
108.0028303629881
 30
0.0
 10
156.2472980571515
 20
107.8472155484592
 30
0.0
 10
156.492640815915
 20
107.7153065190399
 30
0.0
 10
156.993904404648
 20
107.4836496424024
 30
0.0
 10
157.2499389738983
 20
107.3842040262796
 30
0.0
 10
157.5101560964365
 20
107.2980159395765
 30
0.0
  0
SPLINE
  5
197
330
1F
100
AcDbEntity
  8
0
  6
HIDDEN
 62
     7
370
     0
100
AcDbSpline
210
0.0
220
0.0
230
1.0
 70
     8
 71
     3
 72
    10
 73
     6
 74
     0
 42
0.00000001
 43
0.00000001
 12
1.0
 22
0.0
 32
0.0
 13
1.0
 23
0.0
 33
0.0
 40
0.0
 40
0.0
 40
0.0
 40
0.0
 40
0.5
 40
0.5
 40
1.0
 40
1.0
 40
1.0
 40
1.0
 10
157.5101560964365
 20
112.4080724136999
 30
0.0
 10
157.2499389738985
 20
112.3218843269969
 30
0.0
 10
156.9939044046483
 20
112.2224387108741
 30
0.0
 10
156.4926408159156
 20
111.9907818342368
 30
0.0
 10
156.2472980571522
 20
111.8588728048176
 30
0.0
 10
156.0101560964365
 20
111.7032579902889
 30
0.0
  0
LINE
  5
198
330
1F
100
AcDbEntity
  8
0
  6
HIDDEN
 62
     7
370
     0
100
AcDbLine
 10
156.0101558878
 20
108.0028303211
 30
0.0
 11
156.0101558878
 21
111.7032580321
 31
0.0
  0
SPLINE
  5
199
330
1F
100
AcDbEntity
  8
0
  6
HIDDEN
 62
     7
370
     0
100
AcDbSpline
210
0.0
220
0.0
230
1.0
 70
     8
 71
     3
 72
    62
 73
    58
 74
     0
 42
0.00000001
 43
0.00000001
 12
1.0
 22
0.0
 32
0.0
 13
1.0
 23
0.0
 33
0.0
 40
-0.0312499999999998
 40
-0.0312499999999998
 40
0.0
 40
0.0
 40
0.0312500000000002
 40
0.0312500000000002
 40
0.0625000000000003
 40
0.0625000000000003
 40
0.0937500000000005
 40
0.0937500000000005
 40
0.1250000000000007
 40
0.1250000000000007
 40
0.1875000000000007
 40
0.1875000000000007
 40
0.2500000000000008
 40
0.2500000000000008
 40
0.2812500000000008
 40
0.2812500000000008
 40
0.3125000000000009
 40
0.3125000000000009
 40
0.3437500000000009
 40
0.3437500000000009
 40
0.3750000000000009
 40
0.3750000000000009
 40
0.437500000000001
 40
0.437500000000001
 40
0.4687500000000011
 40
0.4687500000000011
 40
0.5000000000000011
 40
0.5000000000000011
 40
0.562500000000001
 40
0.562500000000001
 40
0.5937500000000009
 40
0.5937500000000009
 40
0.6250000000000009
 40
0.6250000000000009
 40
0.6562500000000008
 40
0.6562500000000008
 40
0.6875000000000008
 40
0.6875000000000008
 40
0.7187500000000007
 40
0.7187500000000007
 40
0.7500000000000006
 40
0.7500000000000006
 40
0.7812500000000006
 40
0.7812500000000006
 40
0.8125000000000004
 40
0.8125000000000004
 40
0.8437500000000004
 40
0.8437500000000004
 40
0.8750000000000003
 40
0.8750000000000003
 40
0.9062500000000003
 40
0.9062500000000003
 40
0.9375000000000002
 40
0.9375000000000002
 40
0.9687500000000002
 40
0.9687500000000002
 40
1.0
 40
1.0
 40
1.03125
 40
1.03125
 10
166.4639282243648
 20
111.3410232152945
 30
0.0
 10
166.691428570953
 20
111.5903697571552
 30
0.0
 10
166.8158910998705
 20
111.7019674346121
 30
0.0
 10
167.0849853660223
 20
111.9006182304305
 30
0.0
 10
167.2307984576116
 20
111.9879584752192
 30
0.0
 10
167.531965335901
 20
112.1321542278614
 30
0.0
 10
167.6883010629653
 20
112.1899738983757
 30
0.0
 10
168.0124243622998
 20
112.2772275104267
 30
0.0
 10
168.1790895740102
 20
112.3060295599085
 30
0.0
 10
168.6771058406421
 20
112.3468088651763
 30
0.0
 10
169.0177767894351
 20
112.3133656050351
 30
0.0
 10
169.6567877048566
 20
112.1309129605763
 30
0.0
 10
169.9632423119204
 20
111.9794884002635
 30
0.0
 10
170.3597982211828
 20
111.6789904946792
 30
0.0
 10
170.4841474120323
 20
111.5647293094838
 30
0.0
 10
170.7066115060815
 20
111.3150694389113
 30
0.0
 10
170.8041768445588
 20
111.1809028309122
 30
0.0
 10
170.9714324481975
 20
110.8934337364135
 30
0.0
 10
171.0415181037166
 20
110.7381668865136
 30
0.0
 10
171.1455734644382
 20
110.4211874664266
 30
0.0
 10
171.1805492271056
 20
110.2585347149221
 30
0.0
 10
171.2324137466297
 20
109.7575976947196
 30
0.0
 10
171.1931076388583
 20
109.4174430934093
 30
0.0
 10
171.0303878463974
 20
108.9409484613121
 30
0.0
 10
170.9601073485111
 20
108.7898811014847
 30
0.0
 10
170.7887742033811
 20
108.5025865310438
 30
0.0
 10
170.6873819621995
 20
108.3667287527464
 30
0.0
 10
170.3507823749763
 20
107.9979203577482
 30
0.0
 10
170.0755496088116
 20
107.7954952484171
 30
0.0
 10
169.6257663814657
 20
107.5784185218084
 30
0.0
 10
169.466966582962
 20
107.5191162497341
 30
0.0
 10
169.1444048620824
 20
107.4311437319336
 30
0.0
 10
168.9805457501151
 20
107.4020239680873
 30
0.0
 10
168.6477129767613
 20
107.3731673529771
 30
0.0
 10
168.4776606853204
 20
107.3737908761911
 30
0.0
 10
168.1453850213007
 20
107.4050473199955
 30
0.0
 10
167.981670409552
 20
107.4353660150474
 30
0.0
 10
167.6592049239776
 20
107.5260830540504
 30
0.0
 10
167.5006938254511
 20
107.5868519627521
 30
0.0
 10
167.2021401192532
 20
107.7343626375491
 30
0.0
 10
167.0603139900512
 20
107.821497665413
 30
0.0
 10
166.7923922514929
 20
108.0240831319851
 30
0.0
 10
166.6682988211003
 20
108.1384212986272
 30
0.0
 10
166.4471646331822
 20
108.38660773658
 30
0.0
 10
166.3487076310835
 20
108.5216403534338
 30
0.0
 10
166.1793491173485
 20
108.8136447514886
 30
0.0
 10
166.1111822796426
 20
108.9657804979241
 30
0.0
 10
166.0074483133162
 20
109.2821894463642
 30
0.0
 10
165.971779751447
 20
109.4486859157184
 30
0.0
 10
165.9375659867945
 20
109.7819477918289
 30
0.0
 10
165.9384243896235
 20
109.9486102456508
 30
0.0
 10
165.9762211695731
 20
110.2819984448683
 30
0.0
 10
166.0135639250272
 20
110.4477540173478
 30
0.0
 10
166.1208135080956
 20
110.7636453338105
 30
0.0
 10
166.1915747246348
 20
110.9169246668826
 30
0.0
 10
166.3636978747354
 20
111.2063017093691
 30
0.0
 10
166.4639282243648
 20
111.3410232152945
 30
0.0
 10
166.691428570953
 20
111.5903697571552
 30
0.0
  0
CIRCLE
  5
19A
330
1F
100
AcDbEntity
  8
0
  6
HIDDEN
 62
     7
370
     0
100
AcDbCircle
 10
168.5101560964
 20
109.8530441766
 30
0.0
 40
2.299999999999997
  0
CIRCLE
  5
19B
330
1F
100
AcDbEntity
  8
0
  6
HIDDEN
 62
     7
370
     0
100
AcDbCircle
 10
192.0101560964
 20
109.8530441766
 30
0.0
 40
2.000000000000014
  0
LINE
  5
19C
330
1F
100
AcDbEntity
  8
0
  6
HIDDEN
 62
     7
370
     0
100
AcDbLine
 10
204.4193664058
 20
124.6103951951
 30
0.0
 11
222.0552352681
 21
124.6103951951
 31
0.0
  0
SPLINE
  5
19D
330
1F
100
AcDbEntity
  8
0
  6
HIDDEN
 62
     7
370
     0
100
AcDbSpline
210
0.0
220
0.0
230
1.0
 70
     8
 71
     3
 72
     8
 73
     4
 74
     0
 42
0.00000001
 43
0.00000001
 12
1.0
 22
0.0
 32
0.0
 13
1.0
 23
0.0
 33
0.0
 40
0.0
 40
0.0
 40
0.0
 40
0.0
 40
1.0
 40
1.0
 40
1.0
 40
1.0
 10
204.4193662569551
 20
124.6103949988113
 30
0.0
 10
203.8178626088104
 20
120.7680376029162
 30
0.0
 10
203.3676268894759
 20
116.9062062496437
 30
0.0
 10
203.2087549347466
 20
113.0068652565034
 30
0.0
  0
LINE
  5
19E
330
1F
100
AcDbEntity
  8
0
  6
HIDDEN
 62
     7
370
     0
100
AcDbLine
 10
220.9392984822
 20
122.4409109225
 30
0.0
 11
222.0552352681
 21
124.6103951951
 31
0.0
  0
ELLIPSE
  5
19F
330
1F
100
AcDbEntity
  8
0
  6
HIDDEN
 62
     7
370
     0
100
AcDbEllipse
 10
244.3091061042
 20
110.9196640809
 30
0.0
 11
-17.4577339390948
 21
-20.58486436131485
 31
0.0
210
0.0
220
0.0
230
1.0
 40
0.9632873408
 41
4.94907222106705
 42
5.397380441352568
  0
LINE
  5
1A0
330
1F
100
AcDbEntity
  8
0
  6
HIDDEN
 62
     7
370
     0
100
AcDbLine
 10
217.8689104929
 20
109.8530441766
 30
0.0
 11
217.9080148651
 21
110.9196640562
 31
0.0
  0
LINE
  5
1A1
330
1F
100
AcDbEntity
  8
0
  6
HIDDEN
 62
     7
370
     0
100
AcDbLine
 10
180.0101560964
 20
94.0530449396
 30
0.0
 11
180.1030493169
 21
94.1459369158
 31
0.0
  0
LINE
  5
1A2
330
1F
100
AcDbEntity
  8
0
  6
HIDDEN
 62
     7
370
     0
100
AcDbLine
 10
180.1030493169
 20
125.5601514375
 30
0.0
 11
180.0101560964
 21
125.6530434137
 31
0.0
  0
ARC
  5
1A3
330
1F
100
AcDbEntity
  8
0
  6
HIDDEN
 62
     7
370
     0
100
AcDbCircle
 10
179.3959425341
 20
94.8530441766
 30
0.0
 40
1.0
100
AcDbArc
 50
315.0
 51
0.0
  0
ARC
  5
1A4
330
1F
100
AcDbEntity
  8
0
  6
HIDDEN
 62
     7
370
     0
100
AcDbCircle
 10
179.3959425341
 20
94.8530441766
 30
0.0
 40
1.0
100
AcDbArc
 50
0.0
 51
52.1052014664
  0
ARC
  5
1A5
330
1F
100
AcDbEntity
  8
0
  6
HIDDEN
 62
     7
370
     0
100
AcDbCircle
 10
179.3959425341
 20
124.8530441766
 30
0.0
 40
0.999999999999998
100
AcDbArc
 50
351.8087250651
 51
45.0
  0
ARC
  5
1A6
330
1F
100
AcDbEntity
  8
0
  6
HIDDEN
 62
     7
370
     0
100
AcDbCircle
 10
179.3959425341
 20
124.8530441766
 30
0.0
 40
0.9999999999999927
100
AcDbArc
 50
307.8947985336
 51
351.8087250651
  0
LINE
  5
1A7
330
1F
100
AcDbEntity
  8
0
  6
HIDDEN
 62
     7
370
     0
100
AcDbLine
 10
180.3959425322
 20
94.8530445119
 30
0.0
 11
180.3959425322
 21
124.8530438414
 31
0.0
  0
LINE
  5
1A8
330
1F
100
AcDbEntity
  8
0
  6
HIDDEN
 62
     7
370
     0
100
AcDbLine
 10
180.3959425322
 20
94.8530445119
 30
0.0
 11
180.3959425322
 21
124.8530438414
 31
0.0
  0
LINE
  5
1A9
330
1F
100
AcDbEntity
  8
0
  6
HIDDEN
 62
     7
370
     0
100
AcDbLine
 10
210.5457702144
 20
99.9093856906
 30
0.0
 11
211.1535382881
 21
100.6260207167
 31
0.0
  0
LINE
  5
1AA
330
1F
100
AcDbEntity
  8
0
  6
HIDDEN
 62
     7
370
     0
100
AcDbLine
 10
156.0101558878
 20
99.6973933896
 30
0.0
 11
157.0371886208
 21
100.2903506404
 31
0.0
  0
LINE
  5
1AB
330
1F
100
AcDbEntity
  8
0
  6
HIDDEN
 62
     7
370
     0
100
AcDbLine
 10
157.0371886208
 20
119.4157377129
 30
0.0
 11
156.0101558878
 21
120.0086949637
 31
0.0
  0
LINE
  5
1AC
330
1F
100
AcDbEntity
  8
0
  6
HIDDEN
 62
     7
370
     0
100
AcDbLine
 10
161.510155858
 20
99.8530444002
 30
0.0
 11
162.5229747458
 21
99.8530444002
 31
0.0
  0
LINE
  5
1AD
330
1F
100
AcDbEntity
  8
0
  6
HIDDEN
 62
     7
370
     0
100
AcDbLine
 10
162.5229747458
 20
119.8530439531
 30
0.0
 11
161.510155858
 21
119.8530439531
 31
0.0
  0
ARC
  5
1AE
330
1F
100
AcDbEntity
  8
0
  6
HIDDEN
 62
     7
370
     0
100
AcDbCircle
 10
162.5229745661
 20
100.8530441766
 30
0.0
 40
1.000000000000018
100
AcDbArc
 50
270.0
 51
315.0
  0
ARC
  5
1AF
330
1F
100
AcDbEntity
  8
0
  6
HIDDEN
 62
     7
370
     0
100
AcDbCircle
 10
162.5229745661
 20
118.8530441766
 30
0.0
 40
1.000000000000028
100
AcDbArc
 50
45.0
 51
90.0
  0
ARC
  5
1B0
330
1F
100
AcDbEntity
  8
0
  6
HIDDEN
 62
     7
370
     0
100
AcDbCircle
 10
161.5101560964
 20
100.8530441766
 30
0.0
 40
1.0
100
AcDbArc
 50
193.3524261238
 51
270.0
  0
ARC
  5
1B1
330
1F
100
AcDbEntity
  8
0
  6
HIDDEN
 62
     7
370
     0
100
AcDbCircle
 10
161.5101560964
 20
118.8530441766
 30
0.0
 40
0.9999999999999858
100
AcDbArc
 50
90.0
 51
166.6475738762
  0
LINE
  5
1B2
330
1F
100
AcDbEntity
  8
0
  6
HIDDEN
 62
     7
370
     0
100
AcDbLine
 10
163.2300814106
 20
100.145936968
 30
0.0
 11
163.9371880754
 21
100.8530445641
 31
0.0
  0
LINE
  5
1B3
330
1F
100
AcDbEntity
  8
0
  6
HIDDEN
 62
     7
370
     0
100
AcDbLine
 10
163.9371880754
 20
118.8530437892
 30
0.0
 11
163.2300814106
 21
119.5601513853
 31
0.0
  0
LINE
  5
1B4
330
1F
100
AcDbEntity
  8
0
  6
HIDDEN
 62
     7
370
     0
100
AcDbLine
 10
209.2096482827
 20
105.8934172859
 30
0.0
 11
208.6018802091
 21
105.1767817942
 31
0.0
  0
LINE
  5
1B5
330
1F
100
AcDbEntity
  8
0
  6
HIDDEN
 62
     7
370
     0
100
AcDbLine
 10
157.0371886208
 20
100.2903506404
 30
0.0
 11
159.1371887787
 21
100.8530445641
 31
0.0
  0
LINE
  5
1B6
330
1F
100
AcDbEntity
  8
0
  6
HIDDEN
 62
     7
370
     0
100
AcDbLine
 10
159.1371887787
 20
118.8530437892
 30
0.0
 11
157.0371886208
 21
119.4157377129
 31
0.0
  0
LINE
  5
1B7
330
1F
100
AcDbEntity
  8
0
  6
HIDDEN
 62
     7
370
     0
100
AcDbLine
 10
160.5371882632
 20
119.083983848
 30
0.0
 11
160.1371889426
 21
118.8530437892
 31
0.0
  0
LINE
  5
1B8
330
1F
100
AcDbEntity
  8
0
  6
HIDDEN
 62
     7
370
     0
100
AcDbLine
 10
160.1371889426
 20
100.8530445641
 30
0.0
 11
160.5371882632
 21
100.6221045052
 31
0.0
  0
ARC
  5
1B9
330
1F
100
AcDbEntity
  8
0
  6
HIDDEN
 62
     7
370
     0
100
AcDbCircle
 10
170.5101560964
 20
101.3530441766
 30
0.0
 40
0.5
100
AcDbArc
 50
270.0
 51
0.0
  0
ARC
  5
1BA
330
1F
100
AcDbEntity
  8
0
  6
HIDDEN
 62
     7
370
     0
100
AcDbCircle
 10
170.5101560964
 20
118.3530441766
 30
0.0
 40
0.5
100
AcDbArc
 50
0.0
 51
90.0
  0
LINE
  5
1BB
330
1F
100
AcDbEntity
  8
0
  6
HIDDEN
 62
     7
370
     0
100
AcDbLine
 10
159.1371887787
 20
100.8530445641
 30
0.0
 11
160.1371889426
 21
100.8530445641
 31
0.0
  0
LINE
  5
1BC
330
1F
100
AcDbEntity
  8
0
  6
HIDDEN
 62
     7
370
     0
100
AcDbLine
 10
160.1371889426
 20
118.8530437892
 30
0.0
 11
159.1371887787
 21
118.8530437892
 31
0.0
  0
LINE
  5
1BD
330
1F
100
AcDbEntity
  8
0
  6
HIDDEN
 62
     7
370
     0
100
AcDbLine
 10
163.9371880754
 20
100.8530445641
 30
0.0
 11
170.5101564019
 21
100.8530445641
 31
0.0
  0
LINE
  5
1BE
330
1F
100
AcDbEntity
  8
0
  6
HIDDEN
 62
     7
370
     0
100
AcDbLine
 10
170.5101564019
 20
118.8530437892
 30
0.0
 11
163.9371880754
 21
118.8530437892
 31
0.0
  0
LINE
  5
1BF
330
1F
100
AcDbEntity
  8
0
  6
HIDDEN
 62
     7
370
     0
100
AcDbLine
 10
206.4162859186
 20
118.6514580866
 30
0.0
 11
205.0896150484
 21
117.0871448947
 31
0.0
  0
LINE
  5
1C0
330
1F
100
AcDbEntity
  8
0
  6
HIDDEN
 62
     7
370
     0
100
AcDbLine
 10
216.1805977537
 20
110.8120796514
 30
0.0
 11
216.8751893058
 21
111.6310918249
 31
0.0
  0
LINE
  5
1C1
330
1F
100
AcDbEntity
  8
0
  6
HIDDEN
 62
     7
370
     0
100
AcDbLine
 10
212.1467006817
 20
115.6412554217
 30
0.0
 11
211.4521091296
 21
114.822242899
 31
0.0
  0
LINE
  5
1C2
330
1F
100
AcDbEntity
  8
0
  6
HIDDEN
 62
     7
370
     0
100
AcDbLine
 10
171.0101564839
 20
102.7030442154
 30
0.0
 11
171.9101558863
 21
103.6030440835
 31
0.0
  0
LINE
  5
1C3
330
1F
100
AcDbEntity
  8
0
  6
HIDDEN
 62
     7
370
     0
100
AcDbLine
 10
171.9101558863
 20
116.1030442698
 30
0.0
 11
171.0101564839
 21
117.0030441379
 31
0.0
  0
LINE
  5
1C4
330
1F
100
AcDbEntity
  8
0
  6
HIDDEN
 62
     7
370
     0
100
AcDbLine
 10
171.9101558863
 20
103.6030440835
 30
0.0
 11
196.9947771593
 21
103.6030440835
 31
0.0
  0
LINE
  5
1C5
330
1F
100
AcDbEntity
  8
0
  6
HIDDEN
 62
     7
370
     0
100
AcDbLine
 10
196.9947771593
 20
116.1030442698
 30
0.0
 11
171.9101558863
 21
116.1030442698
 31
0.0
  0
LINE
  5
1C6
330
1F
100
AcDbEntity
  8
0
  6
HIDDEN
 62
     7
370
     0
100
AcDbLine
 10
196.9947771593
 20
103.6030440835
 30
0.0
 11
200.7501566275
 21
109.8530441766
 31
0.0
  0
LINE
  5
1C7
330
1F
100
AcDbEntity
  8
0
  6
HIDDEN
 62
     7
370
     0
100
AcDbLine
 10
200.7501566275
 20
109.8530441766
 30
0.0
 11
196.9947771593
 21
116.1030442698
 31
0.0
  0
LINE
  5
1C8
330
1F
100
AcDbEntity
  8
0
  6
HIDDEN
 62
     7
370
     0
100
AcDbLine
 10
213.2919256999
 20
108.3336173568
 30
0.0
 11
215.6603982165
 21
111.126343162
 31
0.0
  0
LINE
  5
1C9
330
1F
100
AcDbEntity
  8
0
  6
HIDDEN
 62
     7
370
     0
100
AcDbLine
 10
211.84710166
 20
114.3603460176
 30
0.0
 11
209.6224681898
 21
111.7372220859
 31
0.0
  0
LINE
  5
1CA
330
1F
100
AcDbEntity
  8
0
  6
HIDDEN
 62
     7
370
     0
100
AcDbLine
 10
198.2500751927
 20
107.7530442515
 30
0.0
 11
212.9407947376
 21
107.7530442515
 31
0.0
  0
LINE
  5
1CB
330
1F
100
AcDbEntity
  8
0
  6
HIDDEN
 62
     7
370
     0
100
AcDbLine
 10
212.9407947376
 20
111.9530441018
 30
0.0
 11
198.2498591258
 21
111.9530441018
 31
0.0
  0
LINE
  5
1CC
330
1F
100
AcDbEntity
  8
0
  6
HIDDEN
 62
     7
370
     0
100
AcDbLine
 10
217.0711395755
 20
125.7611084973
 30
0.0
 11
215.2044226839
 21
123.5600132739
 31
0.0
  0
LINE
  5
1CD
330
1F
100
AcDbEntity
  8
0
  6
HIDDEN
 62
     7
370
     0
100
AcDbLine
 10
217.7211990073
 20
121.4255718758
 30
0.0
 11
219.5879158988
 21
123.6266670992
 31
0.0
  0
LINE
  5
1CE
330
1F
100
AcDbEntity
  8
0
  6
HIDDEN
 62
     7
370
     0
100
AcDbLine
 10
178.3100929768
 20
98.903037632
 30
0.0
 11
178.3100929768
 21
98.5101182258
 31
0.0
  0
LINE
  5
1CF
330
1F
100
AcDbEntity
  8
0
  6
HIDDEN
 62
     7
370
     0
100
AcDbLine
 10
211.9478484108
 20
110.545524304
 30
0.0
 11
211.9318818166
 21
110.4347274766
 31
0.0
  0
LINE
  5
1D0
330
1F
100
AcDbEntity
  8
0
  6
HIDDEN
 62
     7
370
     0
100
AcDbLine
 10
211.9318818166
 20
109.2713608767
 30
0.0
 11
211.9478484108
 21
109.1605640493
 31
0.0
  0
LINE
  5
1D1
330
1F
100
AcDbEntity
  8
0
  6
HIDDEN
 62
     7
370
     0
100
AcDbLine
 10
213.1489416077
 20
107.3530442325
 30
0.0
 11
218.6593090608
 21
107.3530442325
 31
0.0
  0
LINE
  5
1D2
330
1F
100
AcDbEntity
  8
0
  6
HIDDEN
 62
     7
370
     0
100
AcDbLine
 10
218.8275506212
 20
112.3530441208
 30
0.0
 11
213.1489416077
 21
112.3530441208
 31
0.0
  0
LINE
  5
1D3
330
1F
100
AcDbEntity
  8
VERMASSUNG
  6
CENTERX2
100
AcDbLine
 10
230.0101560964
 20
136.8530441766
 30
0.0
 11
236.8981383172
 21
136.8530441766
 31
0.0
  0
LINE
  5
1D4
330
1F
100
AcDbEntity
  8
VERMASSUNG
  6
CENTERX2
100
AcDbLine
 10
230.0101560964
 20
136.8530441766
 30
0.0
 11
230.0101560964
 21
109.8530441766
 31
0.0
  0
LINE
  5
1D5
330
1F
100
AcDbEntity
  8
VERMASSUNG
  6
CENTERX2
100
AcDbLine
 10
153.2605008929
 20
109.8530441766
 30
0.0
 11
230.0101560964
 21
109.8530441766
 31
0.0
  0
LINE
  5
1D6
330
1F
100
AcDbEntity
  8
VERMASSUNG
100
AcDbLine
 10
230.0101560964
 20
136.8530441766
 30
0.0
 11
230.0101560964
 21
148.6806805976
 31
0.0
  0
DIMENSION
  5
1D7
330
1F
100
AcDbEntity
  8
VERMASSUNG
100
AcDbDimension
  2
_D
 10
216.3611289232
 20
130.0038816241
 30
0.0
 11
220.8923304998
 21
142.646026278
 31
0.0
 70
   162
  1
<>
 71
     1
 42
-1.0
  3
SLDDIMSTYLE0
100
AcDb2LineAngularDimension
 13
230.0101560964
 23
136.8530441766
 33
0.0
 14
230.0101560964
 24
148.6806805976
 34
0.0
 15
229.4233710209
 25
136.8097478706
 35
0.0
 16
220.8923304998
 26
142.646026278
 36
0.0
  0
DIMENSION
  5
1E0
330
1F
100
AcDbEntity
  8
VERMASSUNG
100
AcDbDimension
  2
_D_1
 10
230.0101560964
 20
153.3604061668
 30
0.0
 11
205.0101560964
 21
153.3604061668
 31
0.0
 70
   160
  1
<>
 71
     2
 42
-1.0
  3
SLDDIMSTYLE1
100
AcDbAlignedDimension
 13
180.0101560964
 23
129.5530441766
 33
0.0
 14
230.0101560964
 24
136.8530441766
 34
0.0
100
AcDbRotatedDimension
  0
DIMENSION
  5
1ED
330
1F
100
AcDbEntity
  8
VERMASSUNG
100
AcDbDimension
  2
_D_2
 10
238.5116351069
 20
109.8530441766
 30
0.0
 11
238.5116351069
 21
123.3530441766
 31
0.0
 70
   160
  1
<>
 71
     2
 42
-1.0
  3
SLDDIMSTYLE1
100
AcDbAlignedDimension
 13
230.0101560964
 23
136.8530441766
 33
0.0
 14
230.0101560964
 24
109.8530441766
 34
0.0
 50
90.0
100
AcDbRotatedDimension
  0
DIMENSION
  5
1F9
330
1F
100
AcDbEntity
  8
VERMASSUNG
100
AcDbDimension
  2
_D_3
 10
230.0101560964
 20
160.0759979465
 30
0.0
 11
193.0101560964
 21
160.0759979465
 31
0.0
 70
   160
  1
<>
 71
     2
 42
-1.0
  3
SLDDIMSTYLE2
100
AcDbAlignedDimension
 13
156.0101560964
 23
122.4845491587
 33
0.0
 14
230.0101560964
 24
136.8530441766
 34
0.0
100
AcDbRotatedDimension
  0
DIMENSION
  5
204
330
1F
100
AcDbEntity
  8
VERMASSUNG
100
AcDbDimension
  2
_D_4
 10
149.9521579243
 20
89.8530441766
 30
0.0
 11
149.9521579243
 21
109.8530441766
 31
0.0
 70
   160
  1
PSC%%c<>
 71
     2
 42
-1.0
  3
SLDDIMSTYLE2
100
AcDbAlignedDimension
 13
180.3101560964
 23
129.8530441766
 33
0.0
 14
180.3101560964
 24
89.8530441766
 34
0.0
 50
90.0
100
AcDbRotatedDimension
  0
ARC
  5
210
330
1F
100
AcDbEntity
  8
0
  6
Continuous
 62
     7
370
    15
100
AcDbCircle
 10
95.5557489511
 20
109.8530441766
 30
0.0
 40
2.000000000000019
100
AcDbArc
 50
288.7560245113
 51
71.2439754887
  0
LINE
  5
211
330
1F
100
AcDbEntity
  8
0
  6
Continuous
 62
     7
370
    15
100
AcDbLine
 10
59.2070993596
 20
107.8051491884
 30
0.0
 11
59.4316766226
 21
107.6808457972
 31
0.0
  0
LINE
  5
212
330
1F
100
AcDbEntity
  8
0
  6
Continuous
 62
     7
370
    15
100
AcDbLine
 10
59.4447170012
 20
107.675927017
 30
0.0
 11
65.4627148622
 21
106.3967619801
 31
0.0
  0
SPLINE
  5
213
330
1F
100
AcDbEntity
  8
0
  6
Continuous
 62
     7
370
    15
100
AcDbSpline
210
0.0
220
0.0
230
1.0
 70
     8
 71
     3
 72
    27
 73
    23
 74
     0
 42
0.00000001
 43
0.00000001
 12
1.0
 22
0.0
 32
0.0
 13
1.0
 23
0.0
 33
0.0
 40
0.0
 40
0.0
 40
0.0
 40
0.0
 40
0.0109318133076283
 40
0.056015964347716
 40
0.0994148920773774
 40
0.1414442679965178
 40
0.1824548702720689
 40
0.2230762673863285
 40
0.2645029257782491
 40
0.3092068945902585
 40
0.3623632096137515
 40
0.4341513096546579
 40
0.4947809666460809
 40
0.5514627818548847
 40
0.6105965197777881
 40
0.66801107148077
 40
0.7249055265712961
 40
0.7820601239022557
 40
0.840236568280233
 40
0.9008130979366019
 40
0.9666798190721695
 40
1.0
 40
1.0
 40
1.0
 40
1.0
 10
59.90772774450521
 20
122.5717524310351
 30
0.0
 10
59.86891099093329
 20
122.5686455397908
 30
0.0
 10
59.6700091415337
 20
122.5527254445354
 30
0.0
 10
59.32904996607856
 20
122.4505192060907
 30
0.0
 10
58.90378987427307
 20
122.2746280093592
 30
0.0
 10
58.52583431207923
 20
122.0448172512974
 30
0.0
 10
58.19534985241666
 20
121.7800324849517
 30
0.0
 10
57.91039098941139
 20
121.4877830215124
 30
0.0
 10
57.66338980627331
 20
121.171846659238
 30
0.0
 10
57.43886338054043
 20
120.8192699355896
 30
0.0
 10
57.21122263155161
 20
120.3833296552535
 30
0.0
 10
56.99713647321826
 20
119.87866257085
 30
0.0
 10
56.79721812020756
 20
119.3151708931984
 30
0.0
 10
56.6231475916004
 20
118.7484949969817
 30
0.0
 10
56.46526321084692
 20
118.1593794558568
 30
0.0
 10
56.32319968562675
 20
117.549168877586
 30
0.0
 10
56.20139131619251
 20
116.9402359485559
 30
0.0
 10
56.10072014943014
 20
116.3371973450048
 30
0.0
 10
56.02262869825504
 20
115.7431427629918
 30
0.0
 10
55.97048006219004
 20
115.1528556468945
 30
0.0
 10
55.95216171171786
 20
114.673521989899
 30
0.0
 10
55.96140477402803
 20
114.3846810533621
 30
0.0
 10
55.96450982622842
 20
114.2876497713626
 30
0.0
  0
SPLINE
  5
214
330
1F
100
AcDbEntity
  8
0
  6
Continuous
 62
     7
370
    15
100
AcDbSpline
210
0.0
220
0.0
230
1.0
 70
     8
 71
     3
 72
    15
 73
    11
 74
     0
 42
0.00000001
 43
0.00000001
 12
1.0
 22
0.0
 32
0.0
 13
1.0
 23
0.0
 33
0.0
 40
0.0
 40
0.0
 40
0.0
 40
0.0
 40
0.1043080355101883
 40
0.2409068757061234
 40
0.3703716295644083
 40
0.499462383461502
 40
0.6298011228846983
 40
0.7622346469965765
 40
0.8963855008485936
 40
1.0
 40
1.0
 40
1.0
 40
1.0
 10
55.96450982622842
 20
114.2876497713626
 30
0.0
 10
55.9710070665688
 20
114.1818752083606
 30
0.0
 10
55.98601290828996
 20
113.9375812824195
 30
0.0
 10
56.04278670480707
 20
113.5547904132452
 30
0.0
 10
56.14952032379941
 20
113.1308439284371
 30
0.0
 10
56.31314895018302
 20
112.7086448643938
 30
0.0
 10
56.54164483309286
 20
112.2958802499932
 30
0.0
 10
56.83916512374248
 20
111.9116286907496
 30
0.0
 10
57.1674878857277
 20
111.5898472338048
 30
0.0
 10
57.41636353288639
 20
111.4305664075565
 30
0.0
 10
57.52481972806196
 20
111.3611542630718
 30
0.0
  0
LINE
  5
215
330
1F
100
AcDbEntity
  8
0
  6
Continuous
 62
     7
370
    15
100
AcDbLine
 10
57.5830702298
 20
111.3288242148
 30
0.0
 11
59.5096450859
 21
110.9193180699
 31
0.0
  0
LINE
  5
216
330
1F
100
AcDbEntity
  8
0
  6
Continuous
 62
     7
370
    15
100
AcDbLine
 10
61.9006295317
 20
122.168015713
 30
0.0
 11
59.9740546756
 21
122.5775219744
 31
0.0
  0
SPLINE
  5
217
330
1F
100
AcDbEntity
  8
0
  6
Continuous
 62
     7
370
    15
100
AcDbSpline
210
0.0
220
0.0
230
1.0
 70
     8
 71
     3
 72
    22
 73
    18
 74
     0
 42
0.00000001
 43
0.00000001
 12
1.0
 22
0.0
 32
0.0
 13
1.0
 23
0.0
 33
0.0
 40
0.0
 40
0.0
 40
0.0
 40
0.0
 40
0.002210810547714
 40
0.0545427068333513
 40
0.1289322143196871
 40
0.2023121441557376
 40
0.2794328674320991
 40
0.3535330689704845
 40
0.4263083084967835
 40
0.4984528281276594
 40
0.570291326770977
 40
0.6420134514852524
 40
0.7137539808879491
 40
0.7856156255068915
 40
0.8577683987432897
 40
0.9304760344544193
 40
1.0
 40
1.0
 40
1.0
 40
1.0
 10
73.47156373791435
 20
110.0475107912683
 30
0.0
 10
73.47424319147277
 20
110.0494670607382
 30
0.0
 10
73.54034774758689
 20
110.0977300076899
 30
0.0
 10
73.64418567073164
 20
110.2368071941254
 30
0.0
 10
73.80648868863075
 20
110.4796707281939
 30
0.0
 10
73.97492609402816
 20
110.8251441405242
 30
0.0
 10
74.14496015602894
 20
111.2398987227071
 30
0.0
 10
74.31201589176806
 20
111.7184025359519
 30
0.0
 10
74.47056079838892
 20
112.237163638296
 30
0.0
 10
74.61894993957753
 20
112.7878983490338
 30
0.0
 10
74.75459488681703
 20
113.3590060784435
 30
0.0
 10
74.874583743506
 20
113.9374346052723
 30
0.0
 10
74.97605812256589
 20
114.5093525074257
 30
0.0
 10
75.05673480948803
 20
115.0617089100219
 30
0.0
 10
75.11374332528426
 20
115.5802896268727
 30
0.0
 10
75.14757705902824
 20
116.0515403431958
 30
0.0
 10
75.14759013271568
 20
116.3159573892592
 30
0.0
 10
75.1475965232406
 20
116.4452065957487
 30
0.0
  0
LINE
  5
218
330
1F
100
AcDbEntity
  8
0
  6
Continuous
 62
     7
370
    15
100
AcDbLine
 10
62.8913537227
 20
123.123227643
 30
0.0
 11
61.7533632182
 21
122.3587924858
 31
0.0
  0
LINE
  5
219
330
1F
100
AcDbEntity
  8
0
  6
Continuous
 62
     7
370
    15
100
AcDbLine
 10
59.2975140177
 20
110.8049330313
 30
0.0
 11
60.0261975639
 21
109.6437243639
 31
0.0
  0
LINE
  5
21A
330
1F
100
AcDbEntity
  8
0
  6
Continuous
 62
     7
370
    15
100
AcDbLine
 10
60.2130432241
 20
109.4918805127
 30
0.0
 11
64.6358922683
 21
108.5517748968
 31
0.0
  0
LINE
  5
21B
330
1F
100
AcDbEntity
  8
0
  6
Continuous
 62
     7
370
    15
100
AcDbLine
 10
67.5466552936
 20
122.245841684
 30
0.0
 11
63.1238062494
 21
123.1859466305
 31
0.0
  0
LINE
  5
21C
330
1F
100
AcDbEntity
  8
0
  6
Continuous
 62
     7
370
    15
100
AcDbLine
 10
64.7644930147
 20
108.5616197914
 30
0.0
 11
65.845458638
 21
108.9235496136
 31
0.0
  0
LINE
  5
21D
330
1F
100
AcDbEntity
  8
0
  6
Continuous
 62
     7
370
    15
100
AcDbLine
 10
69.1646820494
 20
120.8053147664
 30
0.0
 11
67.6601350867
 21
122.1845401695
 31
0.0
  0
LINE
  5
21E
330
1F
100
AcDbEntity
  8
0
  6
Continuous
 62
     7
370
    15
100
AcDbLine
 10
67.9469777831
 20
99.2607232427
 30
0.0
 11
70.6399463677
 21
98.6883146932
 31
0.0
  0
LINE
  5
21F
330
1F
100
AcDbEntity
  8
0
  6
Continuous
 62
     7
370
    15
100
AcDbLine
 10
65.1405200922
 20
106.0894336795
 30
0.0
 11
66.1418241077
 21
101.0591024777
 31
0.0
  0
LINE
  5
220
330
1F
100
AcDbEntity
  8
0
  6
Continuous
 62
     7
370
    15
100
AcDbLine
 10
86.315446403
 20
135.8781531697
 30
0.0
 11
81.7301986178
 21
136.8527785187
 31
0.0
  0
LINE
  5
221
330
1F
100
AcDbEntity
  8
0
  6
Continuous
 62
     7
370
    15
100
AcDbLine
 10
79.9239728228
 20
131.9503728544
 30
0.0
 11
79.4595064224
 21
131.4052380865
 31
0.0
  0
LINE
  5
222
330
1F
100
AcDbEntity
  8
0
  6
Continuous
 62
     7
370
    15
100
AcDbLine
 10
89.0214353428
 20
135.1573206728
 30
0.0
 11
86.3378116489
 21
135.7277427112
 31
0.0
  0
LINE
  5
223
330
1F
100
AcDbEntity
  8
0
  6
Continuous
 62
     7
370
    15
100
AcDbLine
 10
89.2533863523
 20
134.7981114184
 30
0.0
 11
89.0347811953
 21
135.1464744901
 31
0.0
  0
LINE
  5
224
330
1F
100
AcDbEntity
  8
0
  6
Continuous
 62
     7
370
    15
100
AcDbLine
 10
102.3012668454
 20
122.4409109225
 30
0.0
 11
102.3012668454
 21
124.6103951951
 31
0.0
  0
LINE
  5
225
330
1F
100
AcDbEntity
  8
0
  6
Continuous
 62
     7
370
    15
100
AcDbLine
 10
93.2461888158
 20
133.5353851562
 30
0.0
 11
89.1838891991
 21
134.3988534307
 31
0.0
  0
ARC
  5
226
330
1F
100
AcDbEntity
  8
0
  6
Continuous
 62
     7
370
    15
100
AcDbCircle
 10
80.8012662791
 20
111.8530441766
 30
0.0
 40
25.00000000000001
100
AcDbArc
 50
30.683417109
 51
60.1456486406
  0
LINE
  5
227
330
1F
100
AcDbEntity
  8
0
  6
Continuous
 62
     7
370
    15
100
AcDbLine
 10
89.2399510928
 20
134.5973294472
 30
0.0
 11
92.6326130145
 21
133.8761970645
 31
0.0
  0
ARC
  5
228
330
1F
100
AcDbEntity
  8
0
  6
Continuous
 62
     7
370
    15
100
AcDbCircle
 10
80.8012662791
 20
111.8530441766
 30
0.0
 40
25.00000000000001
100
AcDbArc
 50
60.1456486406
 51
61.754279649
  0
ARC
  5
229
330
1F
100
AcDbEntity
  8
0
  6
Continuous
 62
     7
370
    15
100
AcDbCircle
 10
210.5789912911
 20
88.6535632067
 30
0.0
 40
129.4529699748334
100
AcDbArc
 50
164.2616203443
 51
165.3418357468
  0
LINE
  5
22A
330
1F
100
AcDbEntity
  8
0
  6
Continuous
 62
     7
370
    15
100
AcDbLine
 10
78.858706737
 20
131.7472532635
 30
0.0
 11
78.7128138915
 21
131.7782644426
 31
0.0
  0
ARC
  5
22B
330
1F
100
AcDbEntity
  8
0
  6
Continuous
 62
     7
370
    15
100
AcDbCircle
 10
78.1439043518
 20
132.6594504505
 30
0.0
 40
1.048878851390188
100
AcDbArc
 50
260.804660062
 51
302.8470144223
  0
ARC
  5
22C
330
1F
100
AcDbEntity
  8
0
  6
Continuous
 62
     7
370
    15
100
AcDbCircle
 10
218.5697057669
 20
86.2514702525
 30
0.0
 40
145.3073053091256
100
AcDbArc
 50
165.3604037138
 51
168.0175203396
  0
LINE
  5
22D
330
1F
100
AcDbEntity
  8
0
  6
Continuous
 62
     7
370
    15
100
AcDbLine
 10
85.339355385
 20
121.4118451124
 30
0.0
 11
77.9798402079
 21
122.9761578386
 31
0.0
  0
LINE
  5
22E
330
1F
100
AcDbEntity
  8
0
  6
Continuous
 62
     7
370
    15
100
AcDbLine
 10
102.3012668454
 20
110.9196640562
 30
0.0
 11
102.3012668454
 21
122.4409109225
 31
0.0
  0
SPLINE
  5
22F
330
1F
100
AcDbEntity
  8
0
  6
Continuous
 62
     7
370
    15
100
AcDbSpline
210
0.0
220
0.0
230
1.0
 70
     8
 71
     3
 72
    18
 73
    14
 74
     0
 42
0.00000001
 43
0.00000001
 12
1.0
 22
0.0
 32
0.0
 13
1.0
 23
0.0
 33
0.0
 40
0.0
 40
0.0
 40
0.0
 40
0.0
 40
0.2500000000000002
 40
0.2500000000000002
 40
0.3750000000000002
 40
0.3750000000000002
 40
0.5000000000000003
 40
0.5000000000000003
 40
0.6250000000000004
 40
0.6250000000000004
 40
0.7500000000000004
 40
0.7500000000000004
 40
1.0
 40
1.0
 40
1.0
 40
1.0
 10
99.1594047427039
 20
111.5874873663083
 30
0.0
 10
98.97860788509736
 20
111.7696744885434
 30
0.0
 10
98.77569153987629
 20
111.9195361862531
 30
0.0
 10
98.43998416112007
 20
112.099055720389
 30
0.0
 10
98.32277579103277
 20
112.1510075809207
 30
0.0
 10
98.08519567967231
 20
112.2365589935849
 30
0.0
 10
97.96392562773057
 20
112.2706818281765
 30
0.0
 10
97.71651000864954
 20
112.3219481247107
 30
0.0
 10
97.58941087234369
 20
112.3391014609932
 30
0.0
 10
97.33629435843086
 20
112.3554821921028
 30
0.0
 10
97.21009114977444
 20
112.3549058244864
 30
0.0
 10
96.83255906957167
 20
112.3275242125041
 30
0.0
 10
96.58016513154622
 20
112.2744142097896
 30
0.0
 10
96.33921720564642
 20
112.1869367324499
 30
0.0
  0
ARC
  5
230
330
1F
100
AcDbEntity
  8
0
  6
Continuous
 62
     7
370
    15
100
AcDbCircle
 10
61.4885916783
 20
106.9353224045
 30
0.0
 40
11.00747834022354
100
AcDbArc
 50
345.4894806897
 51
358.2013064815
  0
LINE
  5
231
330
1F
100
AcDbEntity
  8
0
  6
Continuous
 62
     7
370
    15
100
AcDbLine
 10
78.7128138915
 20
131.7782644426
 30
0.0
 11
78.5214664508
 21
131.143458212
 31
0.0
  0
LINE
  5
232
330
1F
100
AcDbEntity
  8
0
  6
Continuous
 62
     7
370
    15
100
AcDbLine
 10
74.4283347019
 20
107.0091412646
 30
0.0
 11
76.4284821787
 21
116.4190941734
 31
0.0
  0
LINE
  5
233
330
1F
100
AcDbEntity
  8
0
  6
Continuous
 62
     7
370
    15
100
AcDbLine
 10
69.7223533504
 20
93.2895336544
 30
0.0
 11
74.4283347019
 21
107.0091412646
 31
0.0
  0
ARC
  5
234
330
1F
100
AcDbEntity
  8
0
  6
Continuous
 62
     7
370
    15
100
AcDbCircle
 10
81.8012662791
 20
109.8530441766
 30
0.0
 40
20.49999999999999
100
AcDbArc
 50
228.635648243
 51
233.8986603684
  0
SPLINE
  5
235
330
1F
100
AcDbEntity
  8
0
  6
Continuous
 62
     7
370
    15
100
AcDbSpline
210
0.0
220
0.0
230
1.0
 70
     8
 71
     3
 72
    10
 73
     6
 74
     0
 42
0.00000001
 43
0.00000001
 12
1.0
 22
0.0
 32
0.0
 13
1.0
 23
0.0
 33
0.0
 40
0.0
 40
0.0
 40
0.0
 40
0.0
 40
0.5
 40
0.5
 40
1.0
 40
1.0
 40
1.0
 40
1.0
 10
68.25394308542239
 20
94.46733540892835
 30
0.0
 10
68.27028285808979
 20
94.59722977444164
 30
0.0
 10
68.28084966567403
 20
94.71678469679027
 30
0.0
 10
68.288605328216
 20
94.92421662049003
 30
0.0
 10
68.28569192304867
 20
95.01085522084638
 30
0.0
 10
68.27466997539028
 20
95.07097274985544
 30
0.0
  0
LINE
  5
236
330
1F
100
AcDbEntity
  8
0
  6
Continuous
 62
     7
370
    15
100
AcDbLine
 10
75.793961864
 20
129.8284027969
 30
0.0
 11
76.3422594034
 21
131.9713741785
 31
0.0
  0
LINE
  5
237
330
1F
100
AcDbEntity
  8
0
  6
Continuous
 62
     7
370
    15
100
AcDbLine
 10
76.3422594034
 20
131.9713741785
 30
0.0
 11
77.9762925674
 21
131.6240504628
 31
0.0
  0
LINE
  5
238
330
1F
100
AcDbEntity
  8
0
  6
Continuous
 62
     7
370
    15
100
AcDbLine
 10
75.7682103292
 20
119.0164583048
 30
0.0
 11
77.1281042696
 21
121.4512111863
 31
0.0
  0
LINE
  5
239
330
1F
100
AcDbEntity
  8
0
  6
Continuous
 62
     7
370
    15
100
AcDbLine
 10
77.459208537
 20
122.0440203568
 30
0.0
 11
77.9798402079
 21
122.9761578386
 31
0.0
  0
LINE
  5
23A
330
1F
100
AcDbEntity
  8
0
  6
Continuous
 62
     7
370
    15
100
AcDbLine
 10
102.3012668454
 20
109.8530441766
 30
0.0
 11
102.3012668454
 21
110.9196640562
 31
0.0
  0
ARC
  5
23B
330
1F
100
AcDbEntity
  8
0
  6
Continuous
 62
     7
370
    15
100
AcDbCircle
 10
81.8012662791
 20
109.8530441766
 30
0.0
 40
20.50000000000001
100
AcDbArc
 50
335.8499874897
 51
0.0
  0
LINE
  5
23C
330
1F
100
AcDbEntity
  8
0
  6
Continuous
 62
     7
370
    15
100
AcDbLine
 10
74.4283347019
 20
107.0091412646
 30
0.0
 11
100.5070534163
 21
101.4659386372
 31
0.0
  0
ELLIPSE
  5
23D
330
1F
100
AcDbEntity
  8
0
  6
Continuous
 62
     7
370
    15
100
AcDbEllipse
 10
97.2352849275
 20
109.8530441766
 30
0.0
 11
2.588061012854879
 21
0.4672453265140886
 31
0.0
210
0.0
220
0.0
230
1.0
 40
0.9489529951
 41
1.749377086373637
 42
6.861902350238221
  0
ARC
  5
23E
330
1F
100
AcDbEntity
  8
0
  6
Continuous
 62
     7
370
    15
100
AcDbCircle
 10
81.8012662791
 20
109.8530441766
 30
0.0
 40
20.50000000000001
100
AcDbArc
 50
233.8986603684
 51
335.8499874897
  0
ARC
  5
23F
330
1F
100
AcDbEntity
  8
0
  6
Continuous
 62
     7
370
    15
100
AcDbCircle
 10
76.2113113964
 20
104.4481879611
 30
0.0
 40
4.168978972977553
100
AcDbArc
 50
153.3397270774
 51
162.2592531983
  0
SPLINE
  5
240
330
1F
100
AcDbEntity
  8
0
  6
Continuous
 62
     7
370
    15
100
AcDbSpline
210
0.0
220
0.0
230
1.0
 70
     8
 71
     3
 72
     8
 73
     4
 74
     0
 42
0.00000001
 43
0.00000001
 12
1.0
 22
0.0
 32
0.0
 13
1.0
 23
0.0
 33
0.0
 40
0.0
 40
0.0
 40
0.0
 40
0.0
 40
1.0
 40
1.0
 40
1.0
 40
1.0
 10
68.27466997539028
 20
95.07097274985543
 30
0.0
 10
68.2668511972481
 20
95.11361908028138
 30
0.0
 10
68.2412832607378
 20
95.15167340454747
 30
0.0
 10
68.19827466454194
 20
95.19157702177958
 30
0.0
  0
SPLINE
  5
241
330
1F
100
AcDbEntity
  8
0
  6
Continuous
 62
     7
370
    15
100
AcDbSpline
210
0.0
220
0.0
230
1.0
 70
     8
 71
     3
 72
     8
 73
     4
 74
     0
 42
0.00000001
 43
0.00000001
 12
1.0
 22
0.0
 32
0.0
 13
1.0
 23
0.0
 33
0.0
 40
0.0
 40
0.0
 40
0.0
 40
0.0
 40
1.0
 40
1.0
 40
1.0
 40
1.0
 10
68.19827466454194
 20
95.19157702177958
 30
0.0
 10
68.10178780747138
 20
95.28109806996576
 30
0.0
 10
67.95018964343514
 20
95.42396228404532
 30
0.0
 10
67.78947403605503
 20
95.58175558252583
 30
0.0
  0
ARC
  5
242
330
1F
100
AcDbEntity
  8
0
  6
Continuous
 62
     7
370
    15
100
AcDbCircle
 10
81.8012662791
 20
109.8530441766
 30
0.0
 40
19.99999999999998
100
AcDbArc
 50
187.688509889
 51
225.5256721721
  0
ARC
  5
243
330
1F
100
AcDbEntity
  8
0
  6
Continuous
 62
     7
370
    15
100
AcDbCircle
 10
81.8012662791
 20
109.8530441766
 30
0.0
 40
19.99999999999999
100
AcDbArc
 50
119.7348510279
 51
140.7474018224
  0
ARC
  5
244
330
1F
100
AcDbEntity
  8
0
  6
Continuous
 62
     7
370
    15
100
AcDbCircle
 10
96.3696843147
 20
109.8526090142
 30
0.0
 40
2.543108512030924
100
AcDbArc
 50
282.0144125701
 51
78.1879370382
  0
LWPOLYLINE
  5
245
330
1F
100
AcDbEntity
  8
0
  6
Continuous
 62
     7
370
    15
100
AcDbPolyline
 90
       13
 70
   128
 43
0.0
 10
96.9571069442
 20
107.5045254791
 10
96.5151757561
 20
107.50945008
 10
96.0844940134
 20
107.6239587517
 10
95.6851987728
 20
107.842696855
 10
95.3359611892
 20
108.1554366054
 10
95.053112004
 20
108.5475544922
 10
94.8498759978
 20
109.0007157425
 10
94.7357563861
 20
109.4937308761
 10
94.7160896473
 20
110.003547098
 10
94.7917940655
 20
110.5063259845
 10
94.9593324774
 20
110.9785581019
 10
95.2108678036
 20
111.398162461
 10
95.2922095173
 20
111.5003666153
  0
LWPOLYLINE
  5
246
330
1F
100
AcDbEntity
  8
0
  6
Continuous
 62
     7
370
    15
100
AcDbPolyline
 90
       18
 70
   128
 43
0.0
 10
96.1139461585
 20
112.0936656615
 10
96.3356707805
 20
112.1626571065
 10
96.7754720338
 20
112.2129343228
 10
97.2143512779
 20
112.1528656466
 10
97.6317868196
 20
111.9852597138
 10
98.0082609319
 20
111.7179538367
 10
98.3261678927
 20
111.36344683
 10
98.5706437939
 20
110.9383150713
 10
98.7302557193
 20
110.46243735
 10
98.7975437754
 20
109.9580649996
 10
98.7693600916
 20
109.4487820181
 10
98.6470215582
 20
108.958401858
 10
98.4362483584
 20
108.5098542051
 10
98.1468976104
 20
108.1241126183
 10
97.7924995684
 20
107.819214022
 10
97.3896224611
 20
107.6094149856
 10
96.9571069442
 20
107.5045254791
 10
96.9571069442
 20
107.5045254791
  0
LWPOLYLINE
  5
247
330
1F
100
AcDbEntity
  8
0
  6
Continuous
 62
     7
370
    15
100
AcDbPolyline
 90
       28
 70
   128
 43
0.0
 10
96.9263909944
 20
107.8627740742
 10
96.5242961981
 20
107.8709813544
 10
96.1346792617
 20
107.986042184
 10
95.7785443031
 20
108.2017534889
 10
95.4750905373
 20
108.5064863099
 10
95.2406775766
 20
108.8838125241
 10
95.0879416057
 20
109.3133901839
 10
95.0251183101
 20
109.7720607238
 10
95.0555939787
 20
110.2350971149
 10
95.1777248272
 20
110.6775369506
 10
95.3849282675
 20
111.0755281068
 10
95.6660321542
 20
111.4076149195
 10
96.0058829375
 20
111.655894342
 10
96.3861596399
 20
111.8069817556
 10
96.7863610574
 20
111.8527318129
 10
97.1849121713
 20
111.790678139
 10
97.5603264385
 20
111.624166161
 10
97.8923652881
 20
111.3621725479
 10
98.1631305628
 20
111.0188215051
 10
98.3580228501
 20
110.6126230105
 10
98.4665349685
 20
110.1654754555
 10
98.4828200751
 20
109.7014846408
 10
98.4059971385
 20
109.2456644645
 10
98.2402086817
 20
108.8225882511
 10
97.9943935388
 20
108.4550641488
 10
97.6818025672
 20
108.1629055796
 10
97.3192871176
 20
107.9618628381
 10
96.9263909944
 20
107.8627740742
  0
LINE
  5
248
330
1F
100
AcDbEntity
  8
0
  6
Continuous
 62
     7
370
    15
100
AcDbLine
 10
59.4641890936
 20
107.6758962834
 30
0.0
 11
59.4316766226
 21
107.6808457972
 31
0.0
  0
ARC
  5
249
330
1F
100
AcDbEntity
  8
0
  6
Continuous
 62
     7
370
    15
100
AcDbCircle
 10
55.715864274
 20
109.9211186652
 30
0.0
 40
4.396250854848674
100
AcDbArc
 50
329.6881081247
 51
355.2314283782
  0
LINE
  5
24A
330
1F
100
AcDbEntity
  8
0
  6
Continuous
 62
     7
370
    15
100
AcDbLine
 10
59.2825588398
 20
107.8255314158
 30
0.0
 11
59.5111072623
 21
107.7023009082
 31
0.0
  0
ARC
  5
24B
330
1F
100
AcDbEntity
  8
0
  6
Continuous
 62
     7
370
    15
100
AcDbCircle
 10
62.897004144
 20
108.5631727236
 30
0.0
 40
3.737666740049673
100
AcDbArc
 50
151.9057278158
 51
191.7747520348
  0
ARC
  5
24C
330
1F
100
AcDbEntity
  8
0
  6
Continuous
 62
     7
370
    15
100
AcDbCircle
 10
55.4026524541
 20
110.0616873206
 30
0.0
 40
4.478176726399138
100
AcDbArc
 50
330.0433139619
 51
357.6898643327
  0
LINE
  5
24D
330
1F
100
AcDbEntity
  8
0
  6
Continuous
 62
     7
370
    15
100
AcDbLine
 10
59.2379876041
 20
107.8004469407
 30
0.0
 11
59.4641890936
 21
107.6758962834
 31
0.0
  0
LINE
  5
24E
330
1F
100
AcDbEntity
  8
0
  6
Continuous
 62
     7
370
    15
100
AcDbLine
 10
59.5111072623
 20
107.7023009082
 30
0.0
 11
65.4855378532
 21
106.4323967101
 31
0.0
  0
LINE
  5
24F
330
1F
100
AcDbEntity
  8
0
  6
Continuous
 62
     7
370
    15
100
AcDbLine
 10
59.4641890936
 20
107.6758962834
 30
0.0
 11
65.470258575
 21
106.3992667721
 31
0.0
  0
LINE
  5
250
330
1F
100
AcDbEntity
  8
0
  6
Continuous
 62
     7
370
    15
100
AcDbLine
 10
59.3193814718
 20
108.0416585563
 30
0.0
 11
59.2825588398
 21
107.8255314158
 31
0.0
  0
ARC
  5
251
330
1F
100
AcDbEntity
  8
0
  6
Continuous
 62
     7
370
    15
100
AcDbCircle
 10
62.4408770412
 20
108.6567905383
 30
0.0
 40
3.222466463723159
100
AcDbArc
 50
150.2678987335
 51
191.3875124461
  0
ARC
  5
252
330
1F
100
AcDbEntity
  8
0
  6
Continuous
 62
     7
370
    15
100
AcDbCircle
 10
55.8720505805
 20
109.995455556
 30
0.0
 40
3.962500850503449
100
AcDbArc
 50
330.4573242707
 51
359.336207115
  0
LINE
  5
253
330
1F
100
AcDbEntity
  8
0
  6
Continuous
 62
     7
370
    15
100
AcDbLine
 10
59.2818473094
 20
108.0205348797
 30
0.0
 11
59.2379876041
 21
107.8004469407
 31
0.0
  0
LINE
  5
254
330
1F
100
AcDbEntity
  8
0
  6
Continuous
 62
     7
370
    15
100
AcDbLine
 10
59.3145963364
 20
108.0135737091
 30
0.0
 11
59.2818473094
 21
108.0205348797
 31
0.0
  0
LWPOLYLINE
  5
255
330
1F
100
AcDbEntity
  8
0
  6
Continuous
 62
     7
370
    15
100
AcDbPolyline
 90
       26
 70
   128
 43
0.0
 10
57.5240355545
 20
111.3530004175
 10
57.5449996256
 20
111.3416115066
 10
57.682865169
 20
111.335030432
 10
57.8411434405
 20
111.4331047527
 10
58.0168821477
 20
111.634007563
 10
58.2068123483
 20
111.9339962268
 10
58.4073912912
 20
112.3274828085
 10
58.6148843729
 20
112.8071372175
 10
58.8254266047
 20
113.364024345
 10
59.0350952559
 20
113.9877704216
 10
59.2399862223
 20
114.6667567326
 10
59.4362810814
 20
115.3883342875
 10
59.6203253233
 20
116.1390617734
 10
59.7886879557
 20
116.904954916
 10
59.9382341468
 20
117.6717458537
 10
60.0661773794
 20
118.4251513576
 10
60.1701353305
 20
119.1511368623
 10
60.248170849
 20
119.8361786326
 10
60.2988292091
 20
120.4675147554
 10
60.3211697751
 20
121.0333854204
 10
60.3147734516
 20
121.5232499188
 10
60.2797594481
 20
121.9279822206
 10
60.2167834156
 20
122.2400432696
 10
60.1270132326
 20
122.4536206817
 10
60.0121252798
 20
122.5647339841
 10
59.9103540742
 20
122.5794554
  0
LWPOLYLINE
  5
256
330
1F
100
AcDbEntity
  8
0
  6
Continuous
 62
     7
370
    15
100
AcDbPolyline
 90
       25
 70
   128
 43
0.0
 10
59.5096450859
 20
110.9193180699
 10
59.609440025
 20
110.9255242871
 10
59.7677182966
 20
111.0235987242
 10
59.9434570038
 20
111.2245014181
 10
60.1333853417
 20
111.5244901983
 10
60.3339661472
 20
111.91797678
 10
60.5414592289
 20
112.3976309562
 10
60.7520014607
 20
112.9545183165
 10
60.9616701119
 20
113.5782643931
 10
61.1665610784
 20
114.2572504712
 10
61.3628559374
 20
114.9788280261
 10
61.5469001793
 20
115.7295559777
 10
61.7152628117
 20
116.4954486547
 10
61.8648090028
 20
117.262240058
 10
61.9927522355
 20
118.0156450962
 10
62.0967101865
 20
118.7416306009
 10
62.1747457051
 20
119.4266723713
 10
62.2254040652
 20
120.058008494
 10
62.2477446311
 20
120.6238800904
 10
62.2413483077
 20
121.1137436574
 10
62.2063343041
 20
121.5184768906
 10
62.143356409
 20
121.8305379396
 10
62.0535880887
 20
122.0441144204
 10
61.9387001359
 20
122.1552277228
 10
61.9006295317
 20
122.168015713
  0
LWPOLYLINE
  5
257
330
1F
100
AcDbEntity
  8
0
  6
Continuous
 62
     7
370
    15
100
AcDbPolyline
 90
       31
 70
   128
 43
0.0
 10
56.1840709858
 20
115.3756887896
 10
56.2124111318
 20
115.122163227
 10
56.2687039935
 20
114.9665587825
 10
56.3504890167
 20
114.9156764393
 10
56.454193648
 20
114.97173973
 10
56.5752823465
 20
115.1322988106
 10
56.7084652
 20
115.3903361654
 10
56.8479195797
 20
115.7345739437
 10
56.9875527733
 20
116.1499680264
 10
57.1212608927
 20
116.6183632111
 10
57.2431989574
 20
117.1192890277
 10
57.3480416649
 20
117.6308519451
 10
57.4312031829
 20
118.1306941679
 10
57.4890494906
 20
118.5969701281
 10
57.5190548413
 20
119.0093020221
 10
57.5199060702
 20
119.3496687582
 10
57.4915640616
 20
119.6031943207
 10
57.4352711999
 20
119.7587987652
 10
57.3534861767
 20
119.809681574
 10
57.249783408
 20
119.7536178177
 10
57.1286928468
 20
119.5930587372
 10
56.995511856
 20
119.335021848
 10
56.8560556137
 20
118.990783604
 10
56.7164242827
 20
118.5753895214
 10
56.5827161633
 20
118.1069948023
 10
56.460776236
 20
117.6060689857
 10
56.3559335285
 20
117.0945060683
 10
56.2727720105
 20
116.5946638455
 10
56.2149257027
 20
116.1283874197
 10
56.184920352
 20
115.7160555256
 10
56.1840709858
 20
115.3756887896
  0
SPLINE
  5
258
330
1F
100
AcDbEntity
  8
0
  6
Continuous
 62
     7
370
    15
100
AcDbSpline
210
0.0
220
0.0
230
1.0
 70
     8
 71
     3
 72
     9
 73
     5
 74
     0
 42
0.00000001
 43
0.00000001
 12
1.0
 22
0.0
 32
0.0
 13
1.0
 23
0.0
 33
0.0
 40
0.0
 40
0.0
 40
0.0
 40
0.0
 40
0.4993041414959212
 40
1.0
 40
1.0
 40
1.0
 40
1.0
 10
56.97451984517316
 20
118.6429970210195
 30
0.0
 10
57.08490262747259
 20
118.6913630870901
 30
0.0
 10
57.30597586345403
 20
118.788230030604
 30
0.0
 10
57.44023997740541
 20
118.916999675613
 30
0.0
 10
57.50746546320657
 20
118.9814741035701
 30
0.0
  0
SPLINE
  5
259
330
1F
100
AcDbEntity
  8
0
  6
Continuous
 62
     7
370
    15
100
AcDbSpline
210
0.0
220
0.0
230
1.0
 70
     8
 71
     3
 72
    11
 73
     7
 74
     0
 42
0.00000001
 43
0.00000001
 12
1.0
 22
0.0
 32
0.0
 13
1.0
 23
0.0
 33
0.0
 40
0.0
 40
0.0
 40
0.0
 40
0.0
 40
0.2164524901644481
 40
0.4403055948768407
 40
0.7518962461437932
 40
1.0
 40
1.0
 40
1.0
 40
1.0
 10
56.47072089843491
 20
116.3937333283723
 30
0.0
 10
56.57500915559463
 20
116.5329763485358
 30
0.0
 10
56.78715133549051
 20
116.8162231745665
 30
0.0
 10
57.03574110383004
 20
117.3726957067271
 30
0.0
 10
57.10415351827136
 20
118.0117591513644
 30
0.0
 10
57.01433499028623
 20
118.4491212572576
 30
0.0
 10
56.97451984517316
 20
118.6429970210195
 30
0.0
  0
SPLINE
  5
25A
330
1F
100
AcDbEntity
  8
0
  6
Continuous
 62
     7
370
    15
100
AcDbSpline
210
0.0
220
0.0
230
1.0
 70
     8
 71
     3
 72
    10
 73
     6
 74
     0
 42
0.00000001
 43
0.00000001
 12
1.0
 22
0.0
 32
0.0
 13
1.0
 23
0.0
 33
0.0
 40
0.0
 40
0.0
 40
0.0
 40
0.0
 40
0.242303131431178
 40
0.8078357173124363
 40
1.0
 40
1.0
 40
1.0
 40
1.0
 10
56.74866108231286
 20
115.50880412215
 30
0.0
 10
56.77113703757146
 20
115.5720095855437
 30
0.0
 10
56.84607160127837
 20
115.7827358380569
 30
0.0
 10
56.67692488663049
 20
116.105796554838
 30
0.0
 10
56.51243756557781
 20
116.3354814844345
 30
0.0
 10
56.47072089843492
 20
116.3937333283723
 30
0.0
  0
LINE
  5
25B
330
1F
100
AcDbEntity
  8
0
  6
Continuous
 62
     7
370
    15
100
AcDbLine
 10
57.4826364034
 20
118.534994336
 30
0.0
 11
56.9745198452
 21
118.642997021
 31
0.0
  0
LINE
  5
25C
330
1F
100
AcDbEntity
  8
0
  6
Continuous
 62
     7
370
    15
100
AcDbLine
 10
57.0256010257
 20
116.2757897062
 30
0.0
 11
56.4707208984
 21
116.3937333284
 31
0.0
  0
LWPOLYLINE
  5
25D
330
1F
100
AcDbEntity
  8
0
  6
Continuous
 62
     7
370
    15
100
AcDbPolyline
 90
       21
 70
   128
 43
0.0
 10
60.6309649163
 20
112.4640137667
 10
60.8461022937
 20
113.0634974932
 10
61.0587251001
 20
113.7250848358
 10
61.2650372647
 20
114.4369696511
 10
61.4613582008
 20
115.1864491647
 10
61.6441842728
 20
115.9601477219
 10
61.8102521264
 20
116.7442593967
 10
61.9566001558
 20
117.5247915333
 10
62.0806150698
 20
118.2878148054
 10
62.1800859087
 20
119.0197142085
 10
62.2532338464
 20
119.7074288746
 10
62.2987587564
 20
120.3386858349
 10
62.3158429378
 20
120.9022207429
 10
62.3041865044
 20
121.3879771774
 10
62.2639924847
 20
121.7872863879
 10
62.195983585
 20
122.0930228254
 10
62.101368662
 20
122.2997317334
 10
61.9818371349
 20
122.4037232121
 10
61.8395235949
 20
122.4031411355
 10
61.6769686901
 20
122.2979976108
 10
61.6095148586
 20
122.2298937162
  0
LWPOLYLINE
  5
25E
330
1F
100
AcDbEntity
  8
0
  6
Continuous
 62
     7
370
    15
100
AcDbPolyline
 90
       10
 70
   128
 43
0.0
 10
59.2185304128
 20
110.9811963059
 10
59.2583686673
 20
110.8783047192
 10
59.3656812423
 20
110.7226070842
 10
59.4968952798
 20
110.6707863753
 10
59.6496712976
 20
110.7237673958
 10
59.8212823831
 20
110.8806046203
 10
60.0086663478
 20
111.1384993663
 10
60.2084778809
 20
111.4928494451
 10
60.4171518796
 20
111.9373315258
 10
60.6309649163
 20
112.4640137667
  0
LWPOLYLINE
  5
25F
330
1F
100
AcDbEntity
  8
0
  6
Continuous
 62
     7
370
    15
100
AcDbPolyline
 90
       30
 70
   128
 43
0.0
 10
60.0261975639
 20
109.6437243639
 10
60.1170722955
 20
109.5382788579
 10
60.2611590736
 20
109.4872417696
 10
60.4271319323
 20
109.5427648059
 10
60.6124111079
 20
109.7039844415
 10
60.8141132259
 20
109.9683933306
 10
61.0291015916
 20
110.3318792837
 10
61.2540327572
 20
110.7887891947
 10
61.485408675
 20
111.3320170214
 10
61.7196307146
 20
111.9531141838
 10
61.9530574047
 20
112.6424211787
 10
62.1820565873
 20
113.389217552
 10
62.4030668848
 20
114.1818892455
 10
62.6126535796
 20
115.0081074109
 10
62.8075533175
 20
115.8550228236
 10
62.9847392999
 20
116.709464254
 10
63.1414510869
 20
117.5581426603
 10
63.2752542012
 20
118.3878593391
 10
63.3840680682
 20
119.1857094189
 10
63.4661995434
 20
119.9392853549
 10
63.5203708523
 20
120.6368664523
 10
63.5457382166
 20
121.2676037347
 10
63.5419104808
 20
121.8216885125
 10
63.5089453869
 20
122.2905023267
 10
63.4473570251
 20
122.6667547842
 10
63.3580990695
 20
122.9445943853
 10
63.2425647788
 20
123.1196988618
 10
63.1025478803
 20
123.1893459579
 10
62.9402276688
 20
123.1524525454
 10
62.8913537227
 20
123.123227643
  0
SPLINE
  5
260
330
1F
100
AcDbEntity
  8
0
  6
Continuous
 62
     7
370
    15
100
AcDbSpline
210
0.0
220
0.0
230
1.0
 70
    11
 71
     3
 72
    26
 73
    22
 74
     0
 42
0.00000001
 43
0.00000001
 12
1.0
 22
0.0
 32
0.0
 13
1.0
 23
0.0
 33
0.0
 40
0.0
 40
0.0
 40
0.0
 40
0.0
 40
0.0456334014306881
 40
0.0911467120345545
 40
0.1396867028264551
 40
0.1952354092345665
 40
0.2567871787706052
 40
0.3195027584020236
 40
0.3782721846993173
 40
0.4320417182224627
 40
0.482562807204348
 40
0.531619534072802
 40
0.5803379581688924
 40
0.6295797470149965
 40
0.68040089939553
 40
0.73421162350845
 40
0.7923207020138018
 40
0.8544916023771418
 40
0.9168150496452211
 40
0.9638627994004163
 40
1.0
 40
1.0
 40
1.0
 40
1.0
 10
67.3210740648959
 20
120.4651315008999
 30
0.0
 10
67.31184163349621
 20
120.5348375338559
 30
0.0
 10
67.29340106716138
 20
120.674066158366
 30
0.0
 10
67.13810159408233
 20
120.8781942218647
 30
0.0
 10
66.9028058507291
 20
121.0660443356061
 30
0.0
 10
66.57992533653834
 20
121.2296354375896
 30
0.0
 10
66.19553093499889
 20
121.3454536434777
 30
0.0
 10
65.80888892724977
 20
121.3840791132
 30
0.0
 10
65.49112973663303
 20
121.330638661277
 30
0.0
 10
65.2819838611758
 20
121.1959204266713
 30
0.0
 10
65.186084555314
 20
121.0022656549405
 30
0.0
 10
65.19709386832892
 20
120.7717502541591
 30
0.0
 10
65.30771375996532
 20
120.5278380084413
 30
0.0
 10
65.50820115264332
 20
120.2963083125216
 30
0.0
 10
65.78538510551236
 20
120.1024233369652
 30
0.0
 10
66.12310638576852
 20
119.9690701019301
 30
0.0
 10
66.497589599245
 20
119.9179555082574
 30
0.0
 10
66.86674277520817
 20
119.9666104787498
 30
0.0
 10
67.14524868079718
 20
120.108134102219
 30
0.0
 10
67.29601512590256
 20
120.2889815187263
 30
0.0
 10
67.31348486290807
 20
120.4117837595919
 30
0.0
 10
67.3210740648959
 20
120.4651315008999
 30
0.0
  0
LWPOLYLINE
  5
261
330
1F
100
AcDbEntity
  8
0
  6
Continuous
 62
     7
370
    15
100
AcDbPolyline
 90
       27
 70
   128
 43
0.0
 10
64.6358922683
 20
108.5517748968
 10
64.6840081178
 20
108.5471362119
 10
64.8499809765
 20
108.6026592191
 10
65.0352601521
 20
108.7638788402
 10
65.2369622701
 20
109.028287722
 10
65.4519506358
 20
109.3917736678
 10
65.6768818014
 20
109.8486835834
 10
65.9082577192
 20
110.3919113764
 10
66.1424797588
 20
111.0130085388
 10
66.3759064489
 20
111.7023156501
 10
66.6049056315
 20
112.4491121398
 10
66.8259168603
 20
113.2417833676
 10
67.0355026238
 20
114.0680019988
 10
67.230403293
 20
114.9149174114
 10
67.4075874128
 20
115.7693588419
 10
67.5643001311
 20
116.6180372482
 10
67.6981032454
 20
117.4477534612
 10
67.8069171124
 20
118.2456035411
 10
67.8890476563
 20
118.999179477
 10
67.9432189652
 20
119.6967605745
 10
67.9685881921
 20
120.3274978569
 10
67.9647604563
 20
120.8815826347
 10
67.9317953625
 20
121.3503964489
 10
67.870205138
 20
121.7266489064
 10
67.780949045
 20
122.0044885074
 10
67.6654138231
 20
122.179592984
 10
67.5466552936
 20
122.245841684
  0
SPLINE
  5
262
330
1F
100
AcDbEntity
  8
0
  6
Continuous
 62
     7
370
    15
100
AcDbSpline
210
0.0
220
0.0
230
1.0
 70
     8
 71
     3
 72
    15
 73
    11
 74
     0
 42
0.00000001
 43
0.00000001
 12
1.0
 22
0.0
 32
0.0
 13
1.0
 23
0.0
 33
0.0
 40
0.0
 40
0.0
 40
0.0
 40
0.0
 40
0.1220877385702668
 40
0.2441780751179281
 40
0.3704039869027623
 40
0.4966403078967428
 40
0.6208486164599132
 40
0.7450697427675683
 40
0.87252811440759
 40
1.0
 40
1.0
 40
1.0
 40
1.0
 10
66.73230404041746
 20
110.1295794022047
 30
0.0
 10
66.90612743119989
 20
110.8158627723517
 30
0.0
 10
67.25377791165573
 20
112.1884441164766
 30
0.0
 10
67.96386092263498
 20
114.2860848377811
 30
0.0
 10
68.8118067676005
 20
116.3968736114737
 30
0.0
 10
69.79908234674834
 20
118.4938406456544
 30
0.0
 10
70.89982001755489
 20
120.5382639297054
 30
0.0
 10
72.11216845800101
 20
122.5338337722257
 30
0.0
 10
73.42749449260617
 20
124.4861049785103
 30
0.0
 10
74.38472320122276
 20
125.7324425297965
 30
0.0
 10
74.86336292706468
 20
126.3556443398596
 30
0.0
  0
SPLINE
  5
263
330
1F
100
AcDbEntity
  8
0
  6
Continuous
 62
     7
370
    15
100
AcDbSpline
210
0.0
220
0.0
230
1.0
 70
     8
 71
     3
 72
    13
 73
     9
 74
     0
 42
0.00000001
 43
0.00000001
 12
1.0
 22
0.0
 32
0.0
 13
1.0
 23
0.0
 33
0.0
 40
0.0
 40
0.0
 40
0.0
 40
0.0
 40
0.1665842687416821
 40
0.3376951977384099
 40
0.5044006859585789
 40
0.6769074313169923
 40
0.8353099902180303
 40
1.0
 40
1.0
 40
1.0
 40
1.0
 10
74.86336292706468
 20
126.3556443398596
 30
0.0
 10
75.02065207894282
 20
126.5373834488257
 30
0.0
 10
75.33950446306534
 20
126.9058001354835
 30
0.0
 10
75.91722135416106
 20
127.3470244641665
 30
0.0
 10
76.56325790678962
 20
127.6901384745066
 30
0.0
 10
77.24573905288008
 20
127.8952024994441
 30
0.0
 10
77.95464282277402
 20
127.9719817845565
 30
0.0
 10
78.41358038297136
 20
127.9029485030887
 30
0.0
 10
78.64751467488745
 20
127.8677601611019
 30
0.0
  0
ARC
  5
264
330
1F
100
AcDbEntity
  8
0
  6
Continuous
 62
     7
370
    15
100
AcDbCircle
 10
-146.6464831636
 20
170.804432828
 30
0.0
 40
229.3489553534877
100
AcDbArc
 50
347.6298678213
 51
349.2099276499
  0
SPLINE
  5
265
330
1F
100
AcDbEntity
  8
0
  6
Continuous
 62
     7
370
    15
100
AcDbSpline
210
0.0
220
0.0
230
1.0
 70
     8
 71
     3
 72
    10
 73
     6
 74
     0
 42
0.00000001
 43
0.00000001
 12
1.0
 22
0.0
 32
0.0
 13
1.0
 23
0.0
 33
0.0
 40
0.0
 40
0.0
 40
0.0
 40
0.0
 40
0.4116164912875839
 40
0.8227990478837052
 40
1.0
 40
1.0
 40
1.0
 40
1.0
 10
77.37792642794588
 20
121.6718852763773
 30
0.0
 10
77.09205793983492
 20
121.4518205230412
 30
0.0
 10
76.52062233213636
 20
121.0119230132225
 30
0.0
 10
76.07733689024734
 20
120.2264307770795
 30
0.0
 10
75.9408957443772
 20
119.7335225183032
 30
0.0
 10
75.8998043463383
 20
119.5850754400493
 30
0.0
  0
ARC
  5
266
330
1F
100
AcDbEntity
  8
0
  6
Continuous
 62
     7
370
    15
100
AcDbCircle
 10
-129.1827487099
 20
166.6010383171
 30
0.0
 40
210.4028382254381
100
AcDbArc
 50
344.0471062011
 51
347.0878459539
  0
SPLINE
  5
267
330
1F
100
AcDbEntity
  8
0
  6
Continuous
 62
     7
370
    15
100
AcDbSpline
210
0.0
220
0.0
230
1.0
 70
     8
 71
     3
 72
    12
 73
     8
 74
     0
 42
0.00000001
 43
0.00000001
 12
1.0
 22
0.0
 32
0.0
 13
1.0
 23
0.0
 33
0.0
 40
0.0
 40
0.0
 40
0.0
 40
0.0
 40
0.1886815197270229
 40
0.3888814238441476
 40
0.5891018249365925
 40
0.7945401375360619
 40
1.0
 40
1.0
 40
1.0
 40
1.0
 10
67.81143309555986
 20
122.0458448176981
 30
0.0
 10
68.13106205071442
 20
122.5917924334445
 30
0.0
 10
68.78983225440025
 20
123.7170159660032
 30
0.0
 10
69.96250663758165
 20
125.256050074803
 30
0.0
 10
71.28068386453116
 20
126.7085860198634
 30
0.0
 10
72.72098879854974
 20
128.0360514263751
 30
0.0
 10
73.77301641825534
 20
128.805730524651
 30
0.0
 10
74.29905781529882
 20
129.1905902569891
 30
0.0
  0
ARC
  5
268
330
1F
100
AcDbEntity
  8
0
  6
Continuous
 62
     7
370
    15
100
AcDbCircle
 10
93.3842793785
 20
103.8958076553
 30
0.0
 40
27.37129334934344
100
AcDbArc
 50
166.8354457221
 51
178.8067974671
  0
SPLINE
  5
269
330
1F
100
AcDbEntity
  8
0
  6
Continuous
 62
     7
370
    15
100
AcDbSpline
210
0.0
220
0.0
230
1.0
 70
     8
 71
     3
 72
    10
 73
     6
 74
     0
 42
0.00000001
 43
0.00000001
 12
1.0
 22
0.0
 32
0.0
 13
1.0
 23
0.0
 33
0.0
 40
0.0
 40
0.0
 40
0.0
 40
0.0
 40
0.3401613928368503
 40
0.6905229943858536
 40
1.0
 40
1.0
 40
1.0
 40
1.0
 10
66.01892119281032
 20
104.4657822010816
 30
0.0
 10
66.01438521510578
 20
104.0665141431187
 30
0.0
 10
66.00517724214653
 20
103.2560054235728
 30
0.0
 10
66.03720248395511
 20
102.2171227725565
 30
0.0
 10
66.07829464471504
 20
101.6474570024425
 30
0.0
 10
66.0975676589463
 20
101.3802727928162
 30
0.0
  0
SPLINE
  5
26A
330
1F
100
AcDbEntity
  8
0
  6
Continuous
 62
     7
370
    15
100
AcDbSpline
210
0.0
220
0.0
230
1.0
 70
     8
 71
     3
 72
    19
 73
    15
 74
     0
 42
0.00000001
 43
0.00000001
 12
1.0
 22
0.0
 32
0.0
 13
1.0
 23
0.0
 33
0.0
 40
0.0
 40
0.0
 40
0.0
 40
0.0
 40
0.087996352943166
 40
0.1759674821545836
 40
0.2644306222597415
 40
0.3528662248116764
 40
0.4357805444381758
 40
0.5186935872630265
 40
0.5987823099622196
 40
0.6788883742543439
 40
0.7608461535640844
 40
0.8428250637162644
 40
0.9297058564995632
 40
1.0
 40
1.0
 40
1.0
 40
1.0
 10
68.76317398630121
 20
117.5603308027387
 30
0.0
 10
68.67766692887484
 20
117.239392033076
 30
0.0
 10
68.50667732420918
 20
116.5976064893066
 30
0.0
 10
68.2001003577867
 20
115.5658128729498
 30
0.0
 10
67.8756937931737
 20
114.514277738246
 30
0.0
 10
67.55122785267159
 20
113.4892393424331
 30
0.0
 10
67.24399128305647
 20
112.5271700717243
 30
0.0
 10
66.96446153540187
 20
111.6607420769659
 30
0.0
 10
66.71395075802855
 20
110.8956714486903
 30
0.0
 10
66.49089950952384
 20
110.2395219684942
 30
0.0
 10
66.29478894193313
 20
109.7050097506066
 30
0.0
 10
66.12021171706469
 20
109.2998766347294
 30
0.0
 10
65.9752125791964
 20
109.045342239365
 30
0.0
 10
65.89556542834401
 20
109.0065870450537
 30
0.0
 10
65.85994442932346
 20
108.9892543630452
 30
0.0
  0
SPLINE
  5
26B
330
1F
100
AcDbEntity
  8
0
  6
Continuous
 62
     7
370
    15
100
AcDbSpline
210
0.0
220
0.0
230
1.0
 70
     8
 71
     3
 72
    15
 73
    11
 74
     0
 42
0.00000001
 43
0.00000001
 12
1.0
 22
0.0
 32
0.0
 13
1.0
 23
0.0
 33
0.0
 40
0.0
 40
0.0
 40
0.0
 40
0.0
 40
0.1165512099873435
 40
0.2477679734119475
 40
0.3824232149866658
 40
0.5170785891555922
 40
0.6522013362584229
 40
0.7873211557528771
 40
0.8936646166874025
 40
1.0
 40
1.0
 40
1.0
 40
1.0
 10
68.47087094567755
 20
121.4413354417086
 30
0.0
 10
68.56520323464314
 20
121.4553359576215
 30
0.0
 10
68.76573757544364
 20
121.4850986641162
 30
0.0
 10
68.99565591749636
 20
121.3184383152586
 30
0.0
 10
69.15744889659986
 20
120.9864244503856
 30
0.0
 10
69.23055727717492
 20
120.4848389491265
 30
0.0
 10
69.20911505535983
 20
119.830367248243
 30
0.0
 10
69.10783034397858
 20
119.096822511113
 30
0.0
 10
68.95500014045297
 20
118.3339306367663
 30
0.0
 10
68.82711441863599
 20
117.8181908847518
 30
0.0
 10
68.76317398630121
 20
117.5603308027387
 30
0.0
  0
SPLINE
  5
26C
330
1F
100
AcDbEntity
  8
0
  6
Continuous
 62
     7
370
    15
100
AcDbSpline
210
0.0
220
0.0
230
1.0
 70
     8
 71
     3
 72
    11
 73
     7
 74
     0
 42
0.00000001
 43
0.00000001
 12
1.0
 22
0.0
 32
0.0
 13
1.0
 23
0.0
 33
0.0
 40
0.0
 40
0.0
 40
0.0
 40
0.0
 40
0.2935225604723236
 40
0.5870961074657449
 40
0.8784482320371555
 40
1.0
 40
1.0
 40
1.0
 40
1.0
 10
65.55499589078167
 20
107.336194511667
 30
0.0
 10
65.5483641995317
 20
107.1798480155305
 30
0.0
 10
65.53509966506967
 20
106.867127864991
 30
0.0
 10
65.50917672301779
 20
106.5516457210003
 30
0.0
 10
65.48525793631616
 20
106.3914632148143
 30
0.0
 10
65.46732668545907
 20
106.4124790555106
 30
0.0
 10
65.4620480351899
 20
106.4186657557041
 30
0.0
  0
SPLINE
  5
26D
330
1F
100
AcDbEntity
  8
0
  6
Continuous
 62
     7
370
    15
100
AcDbSpline
210
0.0
220
0.0
230
1.0
 70
     8
 71
     3
 72
    11
 73
     7
 74
     0
 42
0.00000001
 43
0.00000001
 12
1.0
 22
0.0
 32
0.0
 13
1.0
 23
0.0
 33
0.0
 40
0.0
 40
0.0
 40
0.0
 40
0.0
 40
0.156179219645738
 40
0.4736547021857666
 40
0.7961637628572258
 40
1.0
 40
1.0
 40
1.0
 40
1.0
 10
65.5670136772845
 20
108.8303203239814
 30
0.0
 10
65.5698227438549
 20
108.7655830999969
 30
0.0
 10
65.57834197959461
 20
108.5692503829024
 30
0.0
 10
65.5762384362178
 20
108.148729425554
 30
0.0
 10
65.56767524018588
 20
107.6982480031515
 30
0.0
 10
65.55853543642648
 20
107.4372647494305
 30
0.0
 10
65.55499589078167
 20
107.336194511667
 30
0.0
  0
SPLINE
  5
26E
330
1F
100
AcDbEntity
  8
0
  6
Continuous
 62
     7
370
    15
100
AcDbSpline
210
0.0
220
0.0
230
1.0
 70
     8
 71
     3
 72
    13
 73
     9
 74
     0
 42
0.00000001
 43
0.00000001
 12
1.0
 22
0.0
 32
0.0
 13
1.0
 23
0.0
 33
0.0
 40
0.0
 40
0.0
 40
0.0
 40
0.0
 40
0.1665845770129114
 40
0.3376953873233612
 40
0.5044008807113287
 40
0.6769075953436292
 40
0.8353100424493198
 40
1.0
 40
1.0
 40
1.0
 40
1.0
 10
74.29905781529882
 20
129.1905902569891
 30
0.0
 10
74.47105571774318
 20
129.2984354921831
 30
0.0
 10
74.8197248402169
 20
129.5170562019923
 30
0.0
 10
75.43763448142103
 20
129.756367411467
 30
0.0
 10
76.11870207038105
 20
129.9234893125576
 30
0.0
 10
76.82727672879724
 20
129.9974664989734
 30
0.0
 10
77.55336472536544
 20
129.9879147947135
 30
0.0
 10
78.01447233317282
 20
129.9079815002082
 30
0.0
 10
78.2495128084723
 20
129.8672370856405
 30
0.0
  0
LINE
  5
26F
330
1F
100
AcDbEntity
  8
0
  6
Continuous
 62
     7
370
    15
100
AcDbLine
 10
78.2495128085
 20
129.8672370856
 30
0.0
 11
78.6475146749
 21
127.8677601611
 31
0.0
  0
ARC
  5
270
330
1F
100
AcDbEntity
  8
0
  6
Continuous
 62
     7
370
    15
100
AcDbCircle
 10
74.361975627
 20
103.9246775894
 30
0.0
 40
2.533934188515362
100
AcDbArc
 50
163.8032426574
 51
196.4035390593
  0
LINE
  5
271
330
1F
100
AcDbEntity
  8
0
  6
Continuous
 62
     7
370
    15
100
AcDbLine
 10
73.1170530059
 20
108.7724592315
 30
0.0
 11
71.9286146202
 21
104.6314849762
 31
0.0
  0
LINE
  5
272
330
1F
100
AcDbEntity
  8
0
  6
Continuous
 62
     7
370
    15
100
AcDbLine
 10
65.0756478869
 20
106.5195214713
 30
0.0
 11
65.1641179436
 21
106.0943550208
 31
0.0
  0
SPLINE
  5
273
330
1F
100
AcDbEntity
  8
0
  6
Continuous
 62
     7
370
    15
100
AcDbSpline
210
0.0
220
0.0
230
1.0
 70
     8
 71
     3
 72
    12
 73
     8
 74
     0
 42
0.00000001
 43
0.00000001
 12
1.0
 22
0.0
 32
0.0
 13
1.0
 23
0.0
 33
0.0
 40
0.0
 40
0.0
 40
0.0
 40
0.0
 40
0.204149610657776
 40
0.4150448975342281
 40
0.6835540966649627
 40
0.9596499595324705
 40
1.0
 40
1.0
 40
1.0
 40
1.0
 10
66.0975676589463
 20
101.3802727928162
 30
0.0
 10
66.13643566487227
 20
101.1373700041388
 30
0.0
 10
66.21545598474904
 20
100.6435382367768
 30
0.0
 10
66.56013042310784
 20
100.0339393142053
 30
0.0
 10
67.0955135941198
 20
99.56714880035376
 30
0.0
 10
67.58609429566731
 20
99.30525130137305
 30
0.0
 10
67.90941496383917
 20
99.28010239776216
 30
0.0
 10
67.95064160607794
 20
99.27689565920838
 30
0.0
  0
SPLINE
  5
274
330
1F
100
AcDbEntity
  8
0
  6
Continuous
 62
     7
370
    15
100
AcDbSpline
210
0.0
220
0.0
230
1.0
 70
     8
 71
     3
 72
    10
 73
     6
 74
     0
 42
0.00000001
 43
0.00000001
 12
1.0
 22
0.0
 32
0.0
 13
1.0
 23
0.0
 33
0.0
 40
0.0
 40
0.0
 40
0.0
 40
0.0
 40
0.1480678016638258
 40
0.9078074624150231
 40
1.0
 40
1.0
 40
1.0
 40
1.0
 10
72.54207307480314
 20
102.1822532882691
 30
0.0
 10
72.5010306405694
 20
102.2253644515133
 30
0.0
 10
72.24939843117332
 20
102.4896800911507
 30
0.0
 10
72.04509352202274
 20
102.8444375943848
 30
0.0
 10
71.94230471931782
 20
103.1734846737684
 30
0.0
 10
71.93118134520986
 20
103.2090927717985
 30
0.0
  0
LWPOLYLINE
  5
275
330
1F
100
AcDbEntity
  8
0
  6
Continuous
 62
     7
370
    15
100
AcDbPolyline
 90
       10
 70
   128
 43
0.0
 10
70.6399463677
 20
98.6883146932
 10
70.7696749457
 20
98.6962747073
 10
70.9498132207
 20
98.8012543192
 10
71.1479446479
 20
99.0102458989
 10
71.3612137922
 20
99.3202394118
 10
71.5865519457
 20
99.7267710289
 10
71.820712518
 20
100.223988319
 10
72.0603250527
 20
100.8047294115
 10
72.3019380682
 20
101.4606328925
 10
72.5420730748
 20
102.1822532883
  0
SPLINE
  5
276
330
1F
100
AcDbEntity
  8
0
  6
Continuous
 62
     7
370
    15
100
AcDbSpline
210
0.0
220
0.0
230
1.0
 70
     8
 71
     3
 72
    10
 73
     6
 74
     0
 42
0.00000001
 43
0.00000001
 12
1.0
 22
0.0
 32
0.0
 13
1.0
 23
0.0
 33
0.0
 40
0.0
 40
0.0
 40
0.0
 40
0.0
 40
0.5718135645396774
 40
0.9572592807246514
 40
1.0
 40
1.0
 40
1.0
 40
1.0
 10
72.28353606544474
 20
105.1925719028116
 30
0.0
 10
72.25429137509236
 20
105.2047367647012
 30
0.0
 10
72.2053335451495
 20
105.2251016662436
 30
0.0
 10
72.14563575769243
 20
105.2613086911098
 30
0.0
 10
72.11929556849186
 20
105.2844240771624
 30
0.0
 10
72.11666634313801
 20
105.286731409073
 30
0.0
  0
SPLINE
  5
277
330
1F
100
AcDbEntity
  8
0
  6
Continuous
 62
     7
370
    15
100
AcDbSpline
210
0.0
220
0.0
230
1.0
 70
     8
 71
     3
 72
    13
 73
     9
 74
     0
 42
0.00000001
 43
0.00000001
 12
1.0
 22
0.0
 32
0.0
 13
1.0
 23
0.0
 33
0.0
 40
0.0
 40
0.0
 40
0.0
 40
0.0
 40
0.0108533116455615
 40
0.4108102577351266
 40
0.62231860164934
 40
0.7801553615549955
 40
0.8900830016487238
 40
1.0
 40
1.0
 40
1.0
 40
1.0
 10
72.06645501785019
 20
104.57165355438
 30
0.0
 10
72.06624861866588
 20
104.5727067239095
 30
0.0
 10
72.0584361734995
 20
104.6125703950149
 30
0.0
 10
72.05844281090522
 20
104.6608374139579
 30
0.0
 10
72.09147104180795
 20
104.6838106508151
 30
0.0
 10
72.13261480936404
 20
104.6749956652818
 30
0.0
 10
72.18220646580485
 20
104.6477091007586
 30
0.0
 10
72.22017823553695
 20
104.6181341516649
 30
0.0
 10
72.23916320137718
 20
104.6033473929168
 30
0.0
  0
LINE
  5
278
330
1F
100
AcDbEntity
  8
0
  6
Continuous
 62
     7
370
    15
100
AcDbLine
 10
72.5420730748
 20
102.1822532883
 30
0.0
 11
72.0664550179
 21
104.5716535544
 31
0.0
  0
ARC
  5
279
330
1F
100
AcDbEntity
  8
0
  6
Continuous
 62
     7
370
    15
100
AcDbCircle
 10
78.4323889761
 20
129.7118335536
 30
0.0
 40
0.6204477494475087
100
AcDbArc
 50
151.9200015901
 51
159.5208533017
  0
LINE
  5
27A
330
1F
100
AcDbEntity
  8
0
  6
Continuous
 62
     7
370
    15
100
AcDbLine
 10
81.6862858344
 20
136.8097476905
 30
0.0
 11
77.8849733622
 21
130.0038807338
 31
0.0
  0
LWPOLYLINE
  5
27B
330
1F
100
AcDbEntity
  8
0
  6
Continuous
 62
     7
370
    15
100
AcDbPolyline
 90
        9
 70
   128
 43
0.0
 10
81.6722144816
 20
136.2789161747
 10
81.7034414146
 20
136.3957189267
 10
81.7290704879
 20
136.5190521126
 10
81.7465582665
 20
136.6366744285
 10
81.7541692674
 20
136.7369164025
 10
81.7511481734
 20
136.8098259216
 10
81.7377948049
 20
136.8481703346
 10
81.7154343392
 20
136.8481442576
 10
81.6862858344
 20
136.8097476905
  0
LINE
  5
27C
330
1F
100
AcDbEntity
  8
0
  6
Continuous
 62
     7
370
    15
100
AcDbLine
 10
77.7021794208
 20
123.1081290414
 30
0.0
 11
81.6722144816
 21
136.2789161747
 31
0.0
  0
ARC
  5
27D
330
1F
100
AcDbEntity
  8
0
  6
Continuous
 62
     7
370
    15
100
AcDbCircle
 10
76.503937851
 20
123.4629954624
 30
0.0
 40
1.249685174867053
100
AcDbArc
 50
338.3527843639
 51
343.5030289495
  0
LWPOLYLINE
  5
27E
330
1F
100
AcDbEntity
  8
0
  6
Continuous
 62
     7
370
    15
100
AcDbPolyline
 90
        9
 70
   128
 43
0.0
 10
81.6709554499
 20
136.2880468612
 10
81.7006210425
 20
136.3990083581
 10
81.7249686595
 20
136.5161761885
 10
81.7415820499
 20
136.6279181337
 10
81.7488125001
 20
136.7231458669
 10
81.7459424622
 20
136.7924101894
 10
81.733256761
 20
136.8288379406
 10
81.712014319
 20
136.8288118636
 10
81.6843232394
 20
136.7923356836
  0
LINE
  5
27F
330
1F
100
AcDbEntity
  8
0
  6
Continuous
 62
     7
370
    15
100
AcDbLine
 10
81.6843232394
 20
136.7923356836
 30
0.0
 11
77.8830105998
 21
129.9864705896
 31
0.0
  0
ARC
  5
280
330
1F
100
AcDbEntity
  8
0
  6
Continuous
 62
     7
370
    15
100
AcDbCircle
 10
78.3424730804
 20
129.7378196875
 30
0.0
 40
0.5224299399628451
100
AcDbArc
 50
151.5787311235
 51
158.4736263504
  0
ARC
  5
281
330
1F
100
AcDbEntity
  8
0
  6
Continuous
 62
     7
370
    15
100
AcDbCircle
 10
76.4966340424
 20
123.4760240992
 30
0.0
 40
1.256590222952566
100
AcDbArc
 50
339.2240732409
 51
343.4108433175
  0
LINE
  5
282
330
1F
100
AcDbEntity
  8
0
  6
Continuous
 62
     7
370
    15
100
AcDbLine
 10
77.7009207384
 20
123.1172587966
 30
0.0
 11
81.6709554499
 21
136.2880468612
 31
0.0
  0
LWPOLYLINE
  5
283
330
1F
100
AcDbEntity
  8
0
  6
Continuous
 62
     7
370
    15
100
AcDbPolyline
 90
        8
 70
   128
 43
0.0
 10
86.2574622595
 20
135.3042926883
 10
86.2886890397
 20
135.4210954403
 10
86.3143181057
 20
135.5444267636
 10
86.3318060153
 20
135.6620509421
 10
86.3394167834
 20
135.7622910535
 10
86.3363960386
 20
135.8352005726
 10
86.3230427355
 20
135.8735449856
 10
86.315446403
 20
135.8781531697
  0
LINE
  5
284
330
1F
100
AcDbEntity
  8
0
  6
Continuous
 62
     7
370
    15
100
AcDbLine
 10
82.287427286
 20
122.1335046237
 30
0.0
 11
86.2574622595
 21
135.3042926883
 31
0.0
  0
LWPOLYLINE
  5
285
330
1F
100
AcDbEntity
  8
0
  6
Continuous
 62
     7
370
    15
100
AcDbPolyline
 90
        9
 70
   128
 43
0.0
 10
79.3763542176
 20
130.0062928593
 10
79.4544216339
 20
130.2982997393
 10
79.5184942988
 20
130.6066308414
 10
79.56221384
 20
130.9006884938
 10
79.5812412259
 20
131.1512906348
 10
79.5736884326
 20
131.3335672265
 10
79.540305175
 20
131.4294282591
 10
79.4844039344
 20
131.4293593412
 10
79.4115325996
 20
131.3333716487
  0
LINE
  5
286
330
1F
100
AcDbEntity
  8
0
  6
Continuous
 62
     7
370
    15
100
AcDbLine
 10
78.4990516119
 20
127.0957980549
 30
0.0
 11
79.3763542176
 21
130.0062928593
 31
0.0
  0
LINE
  5
287
330
1F
100
AcDbEntity
  8
0
  6
Continuous
 62
     7
370
    15
100
AcDbLine
 10
79.4115325996
 20
131.3333716487
 30
0.0
 11
78.3396694903
 21
129.4143088406
 31
0.0
  0
ARC
  5
288
330
1F
100
AcDbEntity
  8
0
  6
Continuous
 62
     7
370
    15
100
AcDbCircle
 10
80.9185634684
 20
122.5437531717
 30
0.0
 40
1.429017852334063
100
AcDbArc
 50
340.4387451502
 51
343.3165241734
  0
LINE
  5
289
330
1F
100
AcDbEntity
  8
0
  6
Continuous
 62
     7
370
    15
100
AcDbLine
 10
82.2667616455
 20
122.0649453124
 30
0.0
 11
86.1746872403
 21
135.029682914
 31
0.0
  0
LINE
  5
28A
330
1F
100
AcDbEntity
  8
0
  6
Continuous
 62
     7
370
    15
100
AcDbLine
 10
85.0410292485
 20
121.4752560725
 30
0.0
 11
88.9489551634
 21
134.4399936741
 31
0.0
  0
LINE
  5
28B
330
1F
100
AcDbEntity
  8
0
  6
Continuous
 62
     7
370
    15
100
AcDbLine
 10
89.2190559395
 20
134.5155202096
 30
0.0
 11
85.9791784175
 21
123.76706584
 31
0.0
  0
LINE
  5
28C
330
1F
100
AcDbEntity
  8
0
  6
Continuous
 62
     7
370
    15
100
AcDbLine
 10
85.3235666734
 20
121.5920411294
 30
0.0
 11
85.0867013075
 21
121.465547966
 31
0.0
  0
LWPOLYLINE
  5
28D
330
1F
100
AcDbEntity
  8
0
  6
Continuous
 62
     7
370
    15
100
AcDbPolyline
 90
        8
 70
   128
 43
0.0
 10
88.9489551634
 20
134.4399936741
 10
88.9879887552
 20
134.5859971141
 10
89.0200248548
 20
134.7401626652
 10
89.0418848582
 20
134.8871924227
 10
89.0513983183
 20
135.0124925619
 10
89.047622271
 20
135.1036299264
 10
89.0309306421
 20
135.151561374
 10
89.0214353428
 20
135.1573206728
  0
ARC
  5
28E
330
1F
100
AcDbEntity
  8
0
  6
Continuous
 62
     7
370
    15
100
AcDbCircle
 10
88.6748672311
 20
134.7250115363
 30
0.0
 40
0.5831191699318284
100
AcDbArc
 50
338.9452499313
 51
7.2015520347
  0
LINE
  5
28F
330
1F
100
AcDbEntity
  8
0
  6
Continuous
 62
     7
370
    15
100
AcDbLine
 10
85.3235666734
 20
121.5920411294
 30
0.0
 11
85.2352770605
 21
121.4339677488
 31
0.0
  0
CIRCLE
  5
290
330
1F
100
AcDbEntity
  8
VERMASSUNG
  6
CENTERX2
100
AcDbCircle
 10
81.8012662791
 20
109.353048558
 30
0.0
 40
27.49999999999999
  0
DIMENSION
  5
291
330
1F
100
AcDbEntity
  8
VERMASSUNG
100
AcDbDimension
  2
_D_5
 10
62.3558297965
 20
128.7984850406
 30
0.0
 11
54.2901983183
 21
136.8641165189
 31
0.0
 70
   160
  1
%%c<> min. 
 71
     2
 42
-1.0
  3
SLDDIMSTYLE3
100
AcDbAlignedDimension
 13
101.2467027618
 23
89.9076120754
 33
0.0
 14
62.3558297965
 24
128.7984850406
 34
0.0
 50
-45.0
100
AcDbRotatedDimension
  0
INSERT
  5
2AB
330
1F
100
AcDbEntity
  8
VERMASSUNG
100
AcDbBlockReference
  2
SW_CENTERMARKSYMBOL_0
 10
81.8012662791
 20
109.8530441766
 30
0.0
  0
OLE2FRAME
  5
2AC
330
1F
100
AcDbEntity
  8
0
100
AcDbOle2Frame
 70
     2
  3
Paintbrush-Bild
 10
13.8511154363
 20
38.264191557
 30
0.0
 11
51.6290888628
 21
31.9806341108
 31
0.0
 71
     2
 72
     0
 73
     1
 90
    12928
310
80552BED0767C5B32B40DDAF6807D121434000000000000000006FFBDDFB85D0
310
4940DDAF6807D121434000000000000000006FFBDDFB85D04940416F4BD60AFB
310
3F4000000000000000002BED0767C5B32B40416F4BD60AFB3F40000000000000
310
0000000000000100000000010000010000000100000000000100000000320000
310
D0CF11E0A1B11AE1000000000000000000000000000000003E000300FEFF0900
310
0600000000000000000000000100000001000000000000000010000002000000
310
01000000FEFFFFFF0000000000000000FFFFFFFFFFFFFFFFFFFFFFFFFFFFFFFF
310
FFFFFFFFFFFFFFFFFFFFFFFFFFFFFFFFFFFFFFFFFFFFFFFFFFFFFFFFFFFFFFFF
310
FFFFFFFFFFFFFFFFFFFFFFFFFFFFFFFFFFFFFFFFFFFFFFFFFFFFFFFFFFFFFFFF
310
FFFFFFFFFFFFFFFFFFFFFFFFFFFFFFFFFFFFFFFFFFFFFFFFFFFFFFFFFFFFFFFF
310
FFFFFFFFFFFFFFFFFFFFFFFFFFFFFFFFFFFFFFFFFFFFFFFFFFFFFFFFFFFFFFFF
310
FFFFFFFFFFFFFFFFFFFFFFFFFFFFFFFFFFFFFFFFFFFFFFFFFFFFFFFFFFFFFFFF
310
FFFFFFFFFFFFFFFFFFFFFFFFFFFFFFFFFFFFFFFFFFFFFFFFFFFFFFFFFFFFFFFF
310
FFFFFFFFFFFFFFFFFFFFFFFFFFFFFFFFFFFFFFFFFFFFFFFFFFFFFFFFFFFFFFFF
310
FFFFFFFFFFFFFFFFFFFFFFFFFFFFFFFFFFFFFFFFFFFFFFFFFFFFFFFFFFFFFFFF
310
FFFFFFFFFFFFFFFFFFFFFFFFFFFFFFFFFFFFFFFFFFFFFFFFFFFFFFFFFFFFFFFF
310
FFFFFFFFFFFFFFFFFFFFFFFFFFFFFFFFFFFFFFFFFFFFFFFFFFFFFFFFFFFFFFFF
310
FFFFFFFFFFFFFFFFFFFFFFFFFFFFFFFFFFFFFFFFFFFFFFFFFFFFFFFFFFFFFFFF
310
FFFFFFFFFFFFFFFFFFFFFFFFFFFFFFFFFFFFFFFFFFFFFFFFFFFFFFFFFFFFFFFF
310
FFFFFFFFFFFFFFFFFFFFFFFFFFFFFFFFFFFFFFFFFFFFFFFFFFFFFFFFFFFFFFFF
310
FDFFFFFFFEFFFFFFFEFFFFFFFEFFFFFF05000000060000000700000008000000
310
090000000A0000000B0000000C0000000D0000000E0000000F00000010000000
310
11000000120000001300000014000000150000001600000017000000FEFFFFFF
310
FFFFFFFFFFFFFFFFFFFFFFFFFFFFFFFFFFFFFFFFFFFFFFFFFFFFFFFFFFFFFFFF
310
FFFFFFFFFFFFFFFFFFFFFFFFFFFFFFFFFFFFFFFFFFFFFFFFFFFFFFFFFFFFFFFF
310
FFFFFFFFFFFFFFFFFFFFFFFFFFFFFFFFFFFFFFFFFFFFFFFFFFFFFFFFFFFFFFFF
310
FFFFFFFFFFFFFFFFFFFFFFFFFFFFFFFFFFFFFFFFFFFFFFFFFFFFFFFFFFFFFFFF
310
FFFFFFFFFFFFFFFFFFFFFFFFFFFFFFFFFFFFFFFFFFFFFFFFFFFFFFFFFFFFFFFF
310
FFFFFFFFFFFFFFFFFFFFFFFFFFFFFFFFFFFFFFFFFFFFFFFFFFFFFFFFFFFFFFFF
310
FFFFFFFFFFFFFFFFFFFFFFFFFFFFFFFFFFFFFFFFFFFFFFFFFFFFFFFFFFFFFFFF
310
FFFFFFFFFFFFFFFFFFFFFFFFFFFFFFFFFFFFFFFFFFFFFFFFFFFFFFFFFFFFFFFF
310
FFFFFFFFFFFFFFFFFFFFFFFFFFFFFFFFFFFFFFFFFFFFFFFFFFFFFFFFFFFFFFFF
310
FFFFFFFFFFFFFFFFFFFFFFFFFFFFFFFFFFFFFFFFFFFFFFFFFFFFFFFFFFFFFFFF
310
FFFFFFFFFFFFFFFFFFFFFFFFFFFFFFFFFFFFFFFFFFFFFFFFFFFFFFFFFFFFFFFF
310
FFFFFFFFFFFFFFFFFFFFFFFFFFFFFFFFFFFFFFFFFFFFFFFFFFFFFFFFFFFFFFFF
310
FFFFFFFFFFFFFFFFFFFFFFFFFFFFFFFFFFFFFFFFFFFFFFFFFFFFFFFFFFFFFFFF
310
52006F006F007400200045006E00740072007900000000000000000000000000
310
0000000000000000000000000000000000000000000000000000000000000000
310
16000500FFFFFFFFFFFFFFFF020000000A00030000000000C000000000000046
310
000000000000000000000000C076A25D8E39CD0103000000C000000000000000
310
01004F006C006500000000000000000000000000000000000000000000000000
310
0000000000000000000000000000000000000000000000000000000000000000
310
0A000200FFFFFFFFFFFFFFFFFFFFFFFF00000000000000000000000000000000
310
0000000000000000000000000000000000000000000000001400000000000000
310
010043006F006D0070004F0062006A0000000000000000000000000000000000
310
0000000000000000000000000000000000000000000000000000000000000000
310
120002010100000003000000FFFFFFFF00000000000000000000000000000000
310
0000000000000000000000000000000000000000010000004D00000000000000
310
01004F006C006500310030004E00610074006900760065000000000000000000
310
0000000000000000000000000000000000000000000000000000000000000000
310
1A000200FFFFFFFFFFFFFFFFFFFFFFFF00000000000000000000000000000000
310
0000000000000000000000000000000000000000040000002426000000000000
310
FEFFFFFF02000000FEFFFFFFFFFFFFFFFFFFFFFFFFFFFFFFFFFFFFFFFFFFFFFF
310
FFFFFFFFFFFFFFFFFFFFFFFFFFFFFFFFFFFFFFFFFFFFFFFFFFFFFFFFFFFFFFFF
310
FFFFFFFFFFFFFFFFFFFFFFFFFFFFFFFFFFFFFFFFFFFFFFFFFFFFFFFFFFFFFFFF
310
FFFFFFFFFFFFFFFFFFFFFFFFFFFFFFFFFFFFFFFFFFFFFFFFFFFFFFFFFFFFFFFF
310
FFFFFFFFFFFFFFFFFFFFFFFFFFFFFFFFFFFFFFFFFFFFFFFFFFFFFFFFFFFFFFFF
310
FFFFFFFFFFFFFFFFFFFFFFFFFFFFFFFFFFFFFFFFFFFFFFFFFFFFFFFFFFFFFFFF
310
FFFFFFFFFFFFFFFFFFFFFFFFFFFFFFFFFFFFFFFFFFFFFFFFFFFFFFFFFFFFFFFF
310
FFFFFFFFFFFFFFFFFFFFFFFFFFFFFFFFFFFFFFFFFFFFFFFFFFFFFFFFFFFFFFFF
310
FFFFFFFFFFFFFFFFFFFFFFFFFFFFFFFFFFFFFFFFFFFFFFFFFFFFFFFFFFFFFFFF
310
FFFFFFFFFFFFFFFFFFFFFFFFFFFFFFFFFFFFFFFFFFFFFFFFFFFFFFFFFFFFFFFF
310
FFFFFFFFFFFFFFFFFFFFFFFFFFFFFFFFFFFFFFFFFFFFFFFFFFFFFFFFFFFFFFFF
310
FFFFFFFFFFFFFFFFFFFFFFFFFFFFFFFFFFFFFFFFFFFFFFFFFFFFFFFFFFFFFFFF
310
FFFFFFFFFFFFFFFFFFFFFFFFFFFFFFFFFFFFFFFFFFFFFFFFFFFFFFFFFFFFFFFF
310
FFFFFFFFFFFFFFFFFFFFFFFFFFFFFFFFFFFFFFFFFFFFFFFFFFFFFFFFFFFFFFFF
310
FFFFFFFFFFFFFFFFFFFFFFFFFFFFFFFFFFFFFFFFFFFFFFFFFFFFFFFFFFFFFFFF
310
FFFFFFFFFFFFFFFFFFFFFFFFFFFFFFFFFFFFFFFFFFFFFFFFFFFFFFFFFFFFFFFF
310
0100000200000000000000000000000000000000000000000000000000000000
310
0000000000000000000000000000000000000000000000000000000000000000
310
0100FEFF030A0000FFFFFFFF0A00030000000000C00000000000004607000000
310
5042727573680007000000504272757368000700000050427275736800F439B2
310
7100000000000000000000000000000000000000000000000000000000000000
310
0000000000000000000000000000000000000000000000000000000000000000
310
0000000000000000000000000000000000000000000000000000000000000000
310
0000000000000000000000000000000000000000000000000000000000000000
310
0000000000000000000000000000000000000000000000000000000000000000
310
0000000000000000000000000000000000000000000000000000000000000000
310
0000000000000000000000000000000000000000000000000000000000000000
310
0000000000000000000000000000000000000000000000000000000000000000
310
0000000000000000000000000000000000000000000000000000000000000000
310
0000000000000000000000000000000000000000000000000000000000000000
310
0000000000000000000000000000000000000000000000000000000000000000
310
0000000000000000000000000000000000000000000000000000000000000000
310
20260000424D0E260000000000003E00000028000000B40200006E0000000100
310
01000000000000000000130B0000130B00000200000002000000000000FFFFFF
310
FFFFFFFFFFFFFFFFFFFFFFFFFFFFFFFFFFFFFFFFFFFFFFFFFFFFFFFFFFFFFFFF
310
FFFFFFFFFFFFFFFFFFFFFFFFFFFFFFFFFFFFFFFFFFFFFFFFFFFFFFFFFFFFFFFF
310
FFFFFFFFFFFFFFFFFFFFFFFFFFFFFFFFFFFFFFFFFFFFFFFFF000FFFFFFFFFFFF
310
FFFFFFFFFFFFFFFFFFFFFFFFFFFFFFFFFFFFFFFFFFFFFFFFFFFFFFFFFFFFFFFF
310
FFFFFFFFFFFFFFFFFFFFFFFFFFFFFFFFFFFFFFFFFFFFFFFFFFFFFFFFFFFFFFFF
310
FFFFFFFFFFFFFFFFFFFFFFFFFFFFFFFFF000FFFFFFFFFFFFFFFFFFFFFFFFFFFF
310
FFFFFFFFFFFFFFFFFFFFFFFFFFFFFFFFFFFFFFFFFFFFFFFFFFFFFFFFFFFFFFFF
310
FFFFFFFFFFFFFFFFFFFFFFFFFFFFFFFFFFFFFFFFFFFFFFFFFFFFFFFFFFFFFFFF
310
FFFFFFFFFFFFFFFFF000FFFFFFFFFFFFFFFFFFFFFFFFFFFFFFFFFFFFFFFFFFFF
310
FFFFFFFFFFFFFFFFFFFFFFFFFFFFFFFFFFFFFFFFFFFFFFFFFFFFFFFFFFFFFFFF
310
FFFFFFFFFFFFFFFFFFFFFFFFFFFFFFFFFFFFFFFFFFFFFFFFFFFFFFFFFFFFFFFF
310
F000FFFFFFFFFFFFFFFFFFFFFFFFFFFFFFFFFFFFFFFFFFFFFFFFFFFFFFFFFFFF
310
FFFFFFFFFFFFFFFFFFFFFFFFFFFFFFFFFFFFFFFFFFFFFFFFFFFFFFFFFFFFFFFF
310
FFFFFFFFFFFFFFFFFFFFFFFFFFFFFFFFFFFFFFFFFFFFFFFFF000FFFFFFFFFFFF
310
FFFFFFFFFFFFFFFFFFFFFFFFFFFFFFFFFFFFFFFFFFFFFFFFFFFFFFFFFFFFFFFF
310
FFFFFFFFFFFFFFFFFFFFFFFFFFFFFFFFFFFFFFFFFFFFFFFFFFFFFFFFFFFFFFFF
310
FFFFFFFFFFFFFFFFFFFFFFFFFFFFFFFFF000FFFFFFFFFFFFFFFFFFFFFFFFFFFF
310
FFFFFFFFFFFFFFFFFFFFFFFFFFFFFFFFFFFFFFFFFFFFFFFFFFFFFFFFFFFFFFFF
310
FFFFFFFFFFFFFFFFFFFFFFFFFFFFFFFFFFFFFFFFFFFFFFFFFFFFFFFFFFFFFFFF
310
FFFFFFFFFFFFFFFFF000FFFFFFFFFFFFFFFFFFFFFFFFFFFFFFFFFFFFFFFFFFFF
310
FFFFFFFFFFFFFFFFFFFFFFFFFFFFFFFFFFFFFFFFFFFFFFFFFFFFFFFFFFFFFFFF
310
FFFFFFFFFFFFFFFFFFFFFFFFFFFFFFFFFFFFFFFFFFFFFFFFFFFFFFFFFFFFFFFF
310
F000FFFFFFFFFFFFFFFFFFFFFFFFFFFFFFFFFFFFFFFFFFFFFFFFFFFFFFFFFFFF
310
FFFFFFFFFFFFFFFFFFFFFFFFFFFFFFFFFFFFFFFFFFFFFFFFFFFFFFFFFFFFFFFF
310
FFFFFFFFFFFFFFFFFFFFFFFFFFFFFFFFFFFFFFFFFFFFFFFFF000FFFFFFFFFFFF
310
FFFFFFFFFFFFFFFFFFFFFFFFFFFFFFFFFFFFFFFFFFFFFFFFFFFFFFFFFFFFFFFF
310
FFFFFFFFFFFFFFFFFFFFFFFFFFFFFFFFFFFFFFFFFFFFFFFFFFFFFFFFFFFFFFFF
310
FFFFFFFFFFFFFFFFFFFFFFFFFFFFFFFFF000FFFFFFFFFFFFFFFFFFFFFFFFFFFF
310
FFFFFFFFFFFFFFFFFFFFFFFFFFFFFFFFFFFFFFFFFFFFFFFFFFFFFFFFFFFFFFFF
310
FFFFFFFFFFFFFFFFFFFFFFFFFFFFFFFFFFFFFFFFFFFFFFFFFFFFFFFFFFFFFFFF
310
FFFFFFFFFFFFFFFFF000FFFFFFFFFFFFFFFFFFFFFFFFFFFFFFFFFFFFFFFFFFFF
310
FFFFFFFFFFFFFFFFFFFFFFFFFFFFFFFFFFFFFFFFFFFFFFFFFFFFFFFFFFFFFFFF
310
FFFFFFFFFFFFFFFFFFFFFFFFFFFFFFFFFFFFFFFFFFFFFFFFFFFFFFFFFFFFFFFF
310
F000FFFFFFFFFFFFFFFFFFFFFFFFFFFFFFFFFFFFFFFFFFFFFFFFFFFFFFFFFFFF
310
FFFFFFFFFFFFFFFFFFFFFFFFFFFFFFFFFFFFFFFFFFFFFFFFFFFFFFFFFFFFFFFF
310
FFFFFFFFFFFFFFFFFFFFFFFFFFFFFFFFFFFFFFFFFFFFFFFFF000FFFFFFFFFFFF
310
FFFFFFFFFFFFFFFFFFFFFFFFFFFFFFFFFFFFFFFFFFFFFFFFFFFFFFFFFFFFFFFF
310
FFFFFFFFFFFFFFFFFFFFFFFFFFFFFFFFFFFFFFFFFFFFFFFFFFFFFFFFFFFFFFFF
310
FFFFFFFFFFFFFFFFFFFFFFFFFFFFFFFFF000FFFFFFFFFFFFFFFFFFFFFFFFFFFF
310
FFFFFFFFFFFFFFFFFFFFFFFFFFFFFFFFFFFFFFFFFFFFFFFFFFFFFFFFFFFFFFFF
310
FFFFFFFFFFFFFFFFFFFFFFFFFFFFFFFFFFFFFFFFFFFFFFFFFFFFFFFFFFFFFFFF
310
FFFFFFFFFFFFFFFFF000FFFFFFFFFFFFFFFFFFFFFFFFFFFFFFFFFFFFFFFFFFFF
310
FFFFFFFFFFFFFFFFFFFFFFFFFFFFFFFFFFFFFFFFFFFFFFFFFFFFFFFFFFFFFFFF
310
FFFFFFFFFFFFFFFFFFFFFFFFFFFFFFFFFFFFFFFFFFFFFFFFFFFFFFFFFFFFFFFF
310
F000FFFFFFFFFFFFFFFFFFFFFFFFFFFFFFFFFFFFFFFFFFFFFFFFFFFFFFFFFFFF
310
FFFFFFFFFFFFFFFFFFFFFFFFFFFFFFFFFFFFFFFFFFFFFFFFFFFFFFFFFFFFFFFF
310
FFFFFFFFFFFFFFFFFFFFFFFFFFFFFFFFFFFFFFFFFFFFFFFFF000FFFFFFFFFFFF
310
FFFFFFFFFFFFFFFFFFFFFFFFFFFFFFFFFFFFFFFFFFFFFFFFFFFFFFFFFFFFFFFF
310
FFFFFFFFFFFFFFFFFFFFFFFFFFFFFFFFFFFFFFFFFFFFFFFFFFFFFFFFFFFFFFFF
310
FFFFFFFFFFFFFFFFFFFFFFFFFFFFFFFFF000FFFFFFFFFFFFFFFFFFFFFFFFFFFF
310
FFFFFFFFFFFFFFFFFFFFFFFFFFFFFFFFFFFFFFFFFFFFFFFFFFFFFFFFFFFFFFFF
310
FFFFFFFFFFFFFFFFFFFFFFFFFFFFFFFFFFFFFFFFFFFFFFFFFFFFFFFFFFFFFFFF
310
FFFFFFFFFFFFFFFFF000FFFFF80003FFFFFFFFFFFFFFFFFFFFFFFFFFFFFFFFFF
310
FFFFF00007FFFFFFFFFF00007FFFFFF800000000000000007FFFFFFFFFFFFFFF
310
FFFFFFFC001FFFFFFFFFFFFFFC001FFFFFFFFFFFFFFFFFFFFFFFFFFE0007FFFF
310
F000FFFF8000007FFFFFFFF8000FFFFFC0007FFFFF80007FFFFF0000007FFFFF
310
FFF8000007FFFFF800000000000000007FFFFFF0001FFFFFFFFFFFC00001FFFF
310
FFFFFFFFC00001FFFFFFFF000000000003FFFFE000007FFFF000FFFE0000000F
310
FFFFFFF0000FFFFF80007FFFFF80007FFFFC0000001FFFFFFFC0000001FFFFF8
310
00000000000000007FFFFFF0001FFFFFFFFFFE0000003FFFFFFFFFFE0000003F
310
FFFFFF000000000003FFFF0000000FFFF000FFF800000003FFFFFFF00007FFFF
310
80007FFFFF80007FFFF000000007FFFFFF000000003FFFF80000000000000000
310
7FFFFFF0001FFFFFFFFFF80000000FFFFFFFFFF80000000FFFFFFF0000000000
310
03FFFC00000003FFF000FFE000000000FFFFFFF00007FFFF80003FFFFF80007F
310
FFC000000001FFFFFC000000001FFFF800000000000000007FFFFFF0001FFFFF
310
FFFFE000000003FFFFFFFFE000000003FFFFFF000000000003FFF000000000FF
310
F000FF80000000007FFFFFF00007FFFF80003FFFFF80007FFF8000000000FFFF
310
F80000000007FFF800000000000000007FFFFFF0001FFFFFFFFFC000000001FF
310
FFFFFFC000000001FFFFFF000000000003FFC0000000007FF000FF0000000000
310
3FFFFFE00007FFFF00003FFFFF80007FFE00000000003FFFF00000000003FFF8
310
00000000000000007FFFFFF0001FFFFFFFFF8000000000FFFFFFFF8000000000
310
FFFFFF000000000003FF80000000003FF000FE00000000001FFFFFE00003FFFF
310
00003FFFFF80007FFC00000000001FFFE00000000001FFF8000001FFFE000000
310
7FFFFFF0001FFFFFFFFE00000000003FFFFFFE00000000003FFFFF0000000000
310
03FF00000000001FF000FC00000000000FFFFFE00003FFFF00001FFFFF80007F
310
F800000000001FFFC00000000000FFF8000001FFFE0000007FFFFFF0001FFFFF
310
FFFC00000000001FFFFFFC00000000001FFFFF000000000003FE00000000000F
310
F000F8000000000007FFFFE00003FFFF00001FFFFF80007FF800000000000FFF
310
800000000000FFF8000001FFFE0000007FFFFFF0001FFFFFFFF800000000000F
310
FFFFF800000000000FFFFF000000000003FC000000000007F000F80000000000
310
03FFFFC00003FFFE00001FFFFF80007FF0000000000007FF0000000000007FF8
310
000001FFFE0000007FFFFFF0001FFFFFFFF0000000000007FFFFF00000000000
310
07FFFF000000000003F8000000000003F000F0000000000003FFFFC00001FFFE
310
00001FFFFF80007FE0000000000007FE0000000000003FF8000001FFFE000000
310
7FFFFFF0001FFFFFFFF0000000000007FFFFF0000000000007FFFF0000000000
310
03F800001F800003F000E00001FFF00001FFFFC00001FFFE00000FFFFF80007F
310
E00001FFE00003FE00001FFF00003FF8000001FFFE0000007FFFFFF0001FFFFF
310
FFE000003E000003FFFFE000003E000003FFFF000000000003F00001FFF80001
310
F000E00007FFFC0001FFFFC00001FFFE00000FFFFF80007FC0000FFFFC0003FC
310
0000FFFFC0001FF8000001FFFE0000007FFFFFF0001FFFFFFFC00003FFE00001
310
FFFFC00003FFE00001FFFF0001FFFFFFFFF00007FFFE0001F000E0000FFFFF00
310
00FFFF800001FFFC00000FFFFF80007FC0001FFFFE0001FC0001FFFFE0001FF8
310
000001FFFE0000007FFFFFF0001FFFFFFF80000FFFF80000FFFF80000FFFF800
310
00FFFF0003FFFFFFFFE0000FFFFF8000F000C0003FFFFF8000FFFF800000FFFC
310
000007FFFF80007F80003FFFFF0001FC0003FFFFF0001FF8000001FFFE000000
310
7FFFFFF0001FFFFFFF80003FFFFE0000FFFF80003FFFFE0000FFFF0003FFFFFF
310
FFE0003FFFFF8000F000C0003FFFFF8000FFFF800000FFFC000007FFFF80007F
310
80007FFFFF8001F80007FFFFF8000FF8000001FFFE0000007FFFFFF0001FFFFF
310
FF00007FFFFF00007FFF00007FFFFF00007FFF0003FFFFFFFFE0003FFFFFC000
310
F000C0007FFFFFC000FFFF000000FFFC000007FFFF80007F8000FFFFFF8000F8
310
000FFFFFF8000FF8000001FFFE0000007FFFFFF0001FFFFFFF0000FFFFFF8000
310
7FFF0000FFFFFF80007FFF0003FFFFFFFFC0007FFFFFC00070008000FFFFFFC0
310
00FFFF000000FFF8000007FFFF80007F8000FFFFFF8000F8000FFFFFF8000FF8
310
000001FFFE0000007FFFFFF0001FFFFFFE0001FFFFFFC0003FFE0001FFFFFFC0
310
003FFF0003FFFFFFFFC0007FFFFFE00070008000FFFFFFC0007FFF0000007FF8
310
000003FFFF80007F0001FFFFFF8000F8000FFFFFF8000FF8000001FFFE000000
310
7FFFFFF0001FFFFFFE0001FFFFFFC0003FFE0001FFFFFFC0003FFF0003FFFFFF
310
FFC000FFFFFFE00070008000FFFFFFC0007FFF0000007FF8000003FFFF80007F
310
0001FFFFFF8000F8001FFFFFF8000FF8000001FFFE0000007FFFFFF0001FFFFF
310
FE0003FFFFFFE0003FFE0003FFFFFFE0003FFF0003FFFFFFFFC000FFFFFFE000
310
70008000FFFFFFC0007FFE0000007FF8000003FFFF80007F0001FFFFFF8000F0
310
001FFFFFF8000FF8000001FFFE0000007FFFFFF0001FFFFFFC0003FFFFFFE000
310
1FFC0003FFFFFFE0001FFF0003FFFFFFFFC000FFFFFFC00070008000FFFFFF80
310
007FFE0000007FF0000003FFFF80007F0001FFFFFF0000F0001FFFFFF8000FF8
310
000001FFFE0000007FFFFFF0001FFFFFFC0007FFFFFFF0001FFC0007FFFFFFF0
310
001FFF0003FFFFFFFFC000FFFFFFC00070008001FFFFFF0000FFFE0000003FF0
310
000001FFFF80007F0001FFFFFF0000F8001FFFFFF0000FF8000001FFFE000000
310
7FFFFFF0001FFFFFFC0007FFFFFFF0001FFC0007FFFFFFF0001FFF0003FFFFFF
310
FFC001FFFFFF80007000FFFFFFFFFE0000FFFE0008003FF0008001FFFF80007F
310
FFFFFFFFFC0000FFFFFFFFFFE0000FF8000001FFFE0000007FFFFFF0001FFFFF
310
F8000FFFFFFFF8000FF8000FFFFFFFF8000FFF0003FFFFFFFFFFFFFFFFFF0000
310
7000FFFFFFFFFC0000FFFC0008003FF0008001FFFF80007FFFFFFFFFF80001FF
310
FFFFFFFF80000FF8000001FFFE0000007FFFFFF0001FFFFFF8000FFFFFFFF800
310
0FF8000FFFFFFFF8000FFF0003FFFFFFFFFFFFFFFFFE0000F000FFFFFFFFE000
310
00FFFC000C003FE000C001FFFF80007FFFFFFFFFC00001FFFFFFFFFE00001FF8
310
000001FFFE0000007FFFFFF0001FFFFFF8000FFFFFFFF8000FF8000FFFFFFFF8
310
000FFF0003FFFFFFFFFFFFFFFFF00000F000FFFFFFFE000001FFFC000C001FE0
310
00C000FFFF80007FFFFFFFFE000001FFFFFFFFE000001FF80FFFFFFFFFFFFFC0
310
7FFFFFF0001FFFFFF8000FFFFFFFF8000FF8000FFFFFFFF8000FFF0003FFFFFF
310
FFFFFFFFFF800000F000FFFFFFC0000001FFFC001C001FE001C000FFFF80007F
310
FFFFFF80000003FFFFFFF80000001FF80FFFFFFFFFFFFFC07FFFFFF0001FFFFF
310
F8001FFFFFFFFC000FF8001FFFFFFFFC000FFF0003FFFFFFFFFFFFFFF0000001
310
F000FFFFF800000001FFF8001C001FE001C000FFFF80007FFFFFF800000003FF
310
FFFF800000003FF80FFFFFFFFFFFFFC07FFFFFF0001FFFFFF8001FFFFFFFFC00
310
0FF8001FFFFFFFFC000FFF0003FFFFFFFFFFFFFE00000001F000FFFFC0000000
310
03FFF8001E001FC001E000FFFF80007FFFFF8000000007FFFFFC000000003FF8
310
0FFFFFFFFFFFFFC07FFFFFF0001FFFFFF8001FFFFFFFFC000FF8001FFFFFFFFC
310
000FFF0003FFFFFFFFFFFFE000000003F000FFFE0000000007FFF8001E000FC0
310
01E0007FFF80007FFFFE0000000007FFFFE0000000007FF80FFFFFFFFFFFFFC0
310
7FFFFFF0001FFFFFF0001FFFFFFFFC0007F0001FFFFFFFFC0007FF0003FFFFFF
310
FFFFFF0000000003F000FFF80000000007FFF8001E000FC003E0007FFF80007F
310
FFF0000000000FFFFF8000000000FFF80FFFFFFFFFFFFFC07FFFFFF0001FFFFF
310
F0001FFFFFFFFC0007F0001FFFFFFFFC0007FF0003FFFFFFFFFFFC0000000007
310
F000FFE0000000000FFFF0003E000FC003E0007FFF80007FFFC0000000001FFF
310
FE0000000001FFF80FFFFFFFFFFFFFC07FFFFFF0001FFFFFF0001FFFFFFFFC00
310
07F0001FFFFFFFFC0007FF0003FFFFFFFFFFF0000000000FF000FFC000000000
310
1FFFF0003F000F8003F0003FFF80007FFF80000000003FFFF80000000003FFF8
310
0FFFFFFFFFFFFFC07FFFFFF0001FFFFFF0001FFFFFFFFC0007F0001FFFFFFFFC
310
0007FF0003FFFFFFFFFFE0000000001FF000FF00000000007FFFF0003F000780
310
03F0003FFF80007FFF00000000007FFFF00000000007FFF80FFFFFFFFFFFFFC0
310
7FFFFFF0001FFFFFF0001FFFFFFFFC0007F0001FFFFFFFFC0007FF0003FFFFFF
310
FFFF80000000007FF000FE0000000000FFFFE0003F00078007F0003FFF80007F
310
FE0000000001FFFFE0000000001FFFF80FFFFFFFFFFFFFC07FFFFFF0001FFFFF
310
F0001FFFFFFFFC0007F0001FFFFFFFFC0007FF0003FFFFFFFFFF0000000000FF
310
F000FC0000000003FFFFE0007F00078007F0003FFF80007FFC0000000007FFFF
310
C0000000007FFFF80FFFFFFFFFFFFFC07FFFFFF0001FFFFFF8001FFFFFFFFC00
310
0FF8001FFFFFFFFC000FFF0003FFFFFFFFFE0000000003FFF000FC000000000F
310
FFFFE0007F80070007F8001FFF80007FF8000000001FFFFF8000000001FFFFF8
310
0FFFFFFFFFFFFFC07FFFFFF0001FFFFFF8001FFFFFFFFC000FF8001FFFFFFFFC
310
000FFF0003FFFFFFFFFC000000000FFFF000F8000000007FFFFFE0007F800700
310
07F8001FFF80007FF000000000FFFFFF800000000FFFFFF80FFFFFFFFFFFFFC0
310
7FFFFFF0001FFFFFF8000FFFFFFFF8000FF8000FFFFFFFF8000FFF0003FFFFFF
310
FFFC000000007FFFF000F800000007FFFFFFC0007F8003000FF8001FFF80007F
310
F000000007FFFFFF000000007FFFFFF80FFFFFFFFFFFFFC07FFFFFF0001FFFFF
310
F8000FFFFFFFF8000FF8000FFFFFFFF8000FFF0003FFFFFFFFF80000000FFFFF
310
F000F0000000FFFFFFFFC000FF8003000FF8001FFF80007FE0000000FFFFFFFF
310
0000000FFFFFFFF8000001FFFE0000007FFFFFF0001FFFFFF8000FFFFFFFF800
310
0FF8000FFFFFFFF8000FFF0003FFFFFFFFF8000000FFFFFFF000F000000FFFFF
310
FFFFC000FFC002000FF8000FFF80007FE000001FFFFFFFFE000001FFFFFFFFF8
310
000001FFFE0000007FFFFFF0001FFFFFF8000FFFFFFFF8000FF8000FFFFFFFF8
310
000FFF0003FFFFFFFFF000001FFFFFFFF000E00000FFFFFFFFFFC000FFC00200
310
0FFC000FFF80007FE00001FFFFFFFFFE00001FFFFFFFFFF8000001FFFE000000
310
7FFFFFF0001FFFFFFC000FFFFFFFF8001FFC000FFFFFFFF8001FFF0003FFFFFF
310
FFF00001FFFFFFFFF000E00007FFFFFFFFFF8000FFC000001FFC000FFF80007F
310
C0000FFFFFFFFFFE0000FFFFFFFFFFF8000001FFFE0000007FFFFFF0001FFFFF
310
FC0007FFFFFFF0001FFC0007FFFFFFF0001FFF0003FFFFFFFFF00007FFFFFFFF
310
F000E0001FFFFFFFFFFF8000FFC000001FFC000FFF80007FC0003FFFFFFFFFFE
310
0001FFFFFFFFFFF8000001FFFE0000007FFFFFF0001FFFFFFC0007FFFFFFF000
310
1FFC0007FFFFFFF0001FFF0003FFFFFFFFF0001FFFFFFFFFF000E0003FFFFF00
310
03FF8001FFE000001FFC0007FF80007FC0007FFFFF0007FC0003FFFFF0003FF8
310
000001FFFE0000007FFFFFF0001FFFFFFC0003FFFFFFE0001FFC0003FFFFFFE0
310
001FFF0003FFFFFFFFF0003FFFFFFFFFF000E0003FFFFF0001FF8001FFE00000
310
1FFE0007FF80007FC0007FFFFE0003FC0007FFFFE0003FF8000001FFFE000000
310
7FFFFFF0001FFFFFFE0003FFFFFFE0003FFE0003FFFFFFE0003FFF0003FFFFFF
310
FFF0003FFFFF8001F000E0003FFFFF0001FF0001FFE000001FFE0007FF80007F
310
C0007FFFFE0003FC0007FFFFE0003FF8000001FFFE0000007FFFFFF0001FFFFF
310
FE0001FFFFFFC0003FFE0001FFFFFFC0003FFF0003FFFFFFFFF0003FFFFF0001
310
F000E0003FFFFF0003FF0001FFE000003FFE0007FF80007FC0007FFFFE0003FC
310
0007FFFFE0003FF8000001FFFE0000007FFFFFF0001FFFFFFF0001FFFFFFC000
310
7FFF0001FFFFFFC0007FFF0003FFFFFFFFF0003FFFFF0001F000E0003FFFFE00
310
03FF0003FFF000003FFE0003FF80007FC0007FFFFC0003FE0007FFFFE0003FF8
310
000001FFFE0000007FFFFFF0001FFFFFFF0000FFFFFF80007FFF0000FFFFFF80
310
007FFF0003FFFFFFFFF0003FFFFF0001F000E0003FFFFE0003FF0003FFF00000
310
3FFF0003FF80007FC0007FFFFC0007FE0007FFFFC0003FF8000001FFFE000000
310
7FFFFFF0001FFFFFFF80007FFFFF0000FFFF80007FFFFF0000FFFF0003FFFFFF
310
FFF0003FFFFF0003F000E0003FFFFC0003FE0003FFF000003FFF0003FF80007F
310
E0003FFFF80007FE0003FFFFC0007FF8000001FFFE0000007FFFFFF0001FFFFF
310
FF80003FFFFE0000FFFF80003FFFFE0000FFFF0003FFFFFFFFF0001FFFFE0003
310
F000F0001FFFF80003FE0003FFF000007FFF0001FF80007FE0003FFFF00007FE
310
0001FFFF80007FF8000001FFFE0000007FFFFFF0001FFFFFFFC0000FFFF80001
310
FFFFC0000FFFF80001FFFF0003FFFFFFFFF0001FFFFC0003F000F0000FFFF000
310
07FE0007FFF800007FFF0001FF80007FE0001FFFE00007FF0000FFFE00007FF8
310
000001FFFE0000007FFFFFF0001FFFFFFFC00003FFE00001FFFFC00003FFE000
310
01FFFF0003FFFFFFFFF8000FFFF80003F000F00003FFC00007FC0007FFF80000
310
7FFF8001FF80007FF00007FF80000FFF00007FF80000FFF8000001FFFE000000
310
7F80000000000001FFE000003E000003FFFFE000003E000003FFFF0003FFFFFF
310
FFF80003FFE00007F000F800000000000FFC0007FFF800007FFF8001FF80007F
310
F000000000000FFF000000000000FFF8000001FFFE0000007F80000000000001
310
FFF0000000000007FFFFF0000000000007FFFF0003FFFFFFFFFC00007E000007
310
F000F800000000000FFC0007FFF80000FFFF8000FF80007FF800000000001FFF
310
800000000001FFF8000001FFFE0000007F80000000000001FFF800000000000F
310
FFFFF800000000000FFFFF0003FFFFFFFFFC00000000000FF000FC0000000000
310
1FFC0007FFFC0000FFFF8000FF80007FF800000000003FFFC00000000001FFF8
310
000001FFFE0000007F80000000000001FFF800000000000FFFFFF80000000000
310
0FFFFF0003FFFFFFFFFE00000000001FF000FE00000000003FF8000FFFFC0000
310
FFFF8000FF80007FFC00000000003FFFC00000000003FFF8000001FFFE000000
310
7F80000000000001FFFC00000000001FFFFFFC00000000001FFFFF0003FFFFFF
310
FFFF00000000001FF000FF00000000003FF8000FFFFC0000FFFFC000FF80007F
310
FE00000000007FFFE00000000007FFF8000001FFFE0000007F80000000000001
310
FFFE00000000003FFFFFFE00000000003FFFFF0003FFFFFFFFFF80000000003F
310
F000FF80000000007FF8000FFFFC0001FFFFC0007F80007FFF0000000000FFFF
310
F0000000000FFFF800000000000000007F80000000000001FFFF8000000000FF
310
FFFFFF8000000000FFFFFF0003FFFFFFFFFFC0000000007FF000FFC000000000
310
FFF8000FFFFE0001FFFFC0007F80007FFF8000000001FFFFF8000000001FFFF8
310
00000000000000007F80000000000001FFFFC000000001FFFFFFFFC000000001
310
FFFFFF0003FFFFFFFFFFE000000000FFF000FFE000000003FFF0001FFFFE0001
310
FFFFC0007F80007FFFC000000007FFFFFE000000003FFFF80000000000000000
310
7F80000000000001FFFFE000000003FFFFFFFFE000000003FFFFFF0003FFFFFF
310
FFFFF000000003FFF000FFF80000000FFFF0001FFFFE0001FFFFE0007F80007F
310
FFF00000000FFFFFFF00000000FFFFF800000000000000007F80000000000001
310
FFFFF80000000FFFFFFFFFF80000000FFFFFFF0003FFFFFFFFFFFC0000000FFF
310
F000FFFE0000003FFFF0001FFFFE0003FFFFE0003F80007FFFFC0000003FFFFF
310
FFC0000003FFFFF800000000000000007F80000000000001FFFFFE0000003FFF
310
FFFFFFFE0000003FFFFFFF0003FFFFFFFFFFFF0000003FFFF000FFFF800000FF
310
FFF0001FFFFF0003FFFFE0003F80007FFFFF000001FFFFFFFFF800001FFFFFF8
310
00000000000000007F80000000000001FFFFFFC00001FFFFFFFFFFFFC00001FF
310
FFFFFF0003FFFFFFFFFFFFC00000FFFFF000FFFFF8000FFFFFFFFFFFFFFFFFFF
310
FFFFFFFFFFFFFFFFFFFFF0001FFFFFFFFFFF0000FFFFFFF80000000000000000
310
7FFFFFFFFFFFFFFFFFFFFFFC001FFFFFFFFFFFFFFC001FFFFFFFFFFFFFFFFFFF
310
FFFFFFFC001FFFFFF000FFFFFFFFFFFFFFFFFFFFFFFFFFFFFFFFFFFFFFFFFFFF
310
FFFFFFFFFFFFFFFFFFFFFFFFFFFFFFFFFFFFFFFFFFFFFFFFFFFFFFFFFFFFFFFF
310
FFFFFFFFFFFFFFFFFFFFFFFFFFFFFFFFFFFFFFFFFFFFFFFFFFFFFFFFFFFFFFFF
310
F000FFFFFFFFFFFFFFFFFFFFFFFFFFFFFFFFFFFFFFFFFFFFFFFFFFFFFFFFFFFF
310
FFFFFFFFFFFFFFFFFFFFFFFFFFFFFFFFFFFFFFFFFFFFFFFFFFFFFFFFFFFFFFFF
310
FFFFFFFFFFFFFFFFFFFFFFFFFFFFFFFFFFFFFFFFFFFFFFFFF000FFFFFFFFFFFF
310
FFFFFFFFFFFFFFFFFFFFFFFFFFFFFFFFFFFFFFFFFFFFFFFFFFFFFFFFFFFFFFFF
310
FFFFFFFFFFFFFFFFFFFFFFFFFFFFFFFFFFFFFFFFFFFFFFFFFFFFFFFFFFFFFFFF
310
FFFFFFFFFFFFFFFFFFFFFFFFFFFFFFFFF000FFFFFFFFFFFFFFFFFFFFFFFFFFFF
310
FFFFFFFFFFFFFFFFFFFFFFFFFFFFFFFFFFFFFFFFFFFFFFFFFFFFFFFFFFFFFFFF
310
FFFFFFFFFFFFFFFFFFFFFFFFFFFFFFFFFFFFFFFFFFFFFFFFFFFFFFFFFFFFFFFF
310
FFFFFFFFFFFFFFFFF000FFFFFFFFFFFFFFFFFFFFFFFFFFFFFFFFFFFFFFFFFFFF
310
FFFFFFFFFFFFFFFFFFFFFFFFFFFFFFFFFFFFFFFFFFFFFFFFFFFFFFFFFFFFFFFF
310
FFFFFFFFFFFFFFFFFFFFFFFFFFFFFFFFFFFFFFFFFFFFFFFFFFFFFFFFFFFFFFFF
310
F000FFFFFFFFFFFFFFFFFFFFFFFFFFFFFFFFFFFFFFFFFFFFFFFFFFFFFFFFFFFF
310
FFFFFFFFFFFFFFFFFFFFFFFFFFFFFFFFFFFFFFFFFFFFFFFFFFFFFFFFFFFFFFFF
310
FFFFFFFFFFFFFFFFFFFFFFFFFFFFFFFFFFFFFFFFFFFFFFFFF000FFFFFFFFFFFF
310
FFFFFFFFFFFFFFFFFFFFFFFFFFFFFFFFFFFFFFFFFFFFFFFFFFFFFFFFFFFFFFFF
310
FFFFFFFFFFFFFFFFFFFFFFFFFFFFFFFFFFFFFFFFFFFFFFFFFFFFFFFFFFFFFFFF
310
FFFFFFFFFFFFFFFFFFFFFFFFFFFFFFFFF000FFFFFFFFFFFFFFFFFFFFFFFFFFFF
310
FFFFFFFFFFFFFFFFFFFFFFFFFFFFFFFFFFFFFFFFFFFFFFFFFFFFFFFFFFFFFFFF
310
FFFFFFFFFFFFFFFFFFFFFFFFFFFFFFFFFFFFFFFFFFFFFFFFFFFFFFFFFFFFFFFF
310
FFFFFFFFFFFFFFFFF000FFFFFFFFFFFFFFFFFFFFFFFFFFFFFFFFFFFFFFFFFFFF
310
FFFFFFFFFFFFFFFFFFFFFFFFFFFFFFFFFFFFFFFFFFFFFFFFFFFFFFFFFFFFFFFF
310
FFFFFFFFFFFFFFFFFFFFFFFFFFFFFFFFFFFFFFFFFFFFFFFFFFFFFFFFFFFFFFFF
310
F000FFFFFFFFFFFFFFFFFFFFFFFFFFFFFFFFFFFFFFFFFFFFFFFFFFFFFFFFFFFF
310
FFFFFFFFFFFFFFFFFFFFFFFFFFFFFFFFFFFFFFFFFFFFFFFFFFFFFFFFFFFFFFFF
310
FFFFFFFFFFFFFFFFFFFFFFFFFFFFFFFFFFFFFFFFFFFFFFFFF000FFFFFFFFFFFF
310
FFFFFFFFFFFFFFFFFFFFFFFFFFFFFFFFFFFFFFFFFFFFFFFFFFFFFFFFFFFFFFFF
310
FFFFFFFFFFFFFFFFFFFFFFFFFFFFFFFFFFFFFFFFFFFFFFFFFFFFFFFFFFFFFFFF
310
FFFFFFFFFFFFFFFFFFFFFFFFFFFFFFFFF000FFFFFFFFFFFFFFFFFFFFFFFFFFFF
310
FFFFFFFFFFFFFFFFFFFFFFFFFFFFFFFFFFFFFFFFFFFFFFFFFFFFFFFFFFFFFFFF
310
FFFFFFFFFFFFFFFFFFFFFFFFFFFFFFFFFFFFFFFFFFFFFFFFFFFFFFFFFFFFFFFF
310
FFFFFFFFFFFFFFFFF000FFFFFFFFFFFFFFFFFFFFFFFFFFFFFFFFFFFFFFFFFFFF
310
FFFFFFFFFFFFFFFFFFFFFFFFFFFFFFFFFFFFFFFFFFFFFFFFFFFFFFFFFFFFFFFF
310
FFFFFFFFFFFFFFFFFFFFFFFFFFFFFFFFFFFFFFFFFFFFFFFFFFFFFFFFFFFFFFFF
310
F000FFFFFFFFFFFFFFFFFFFFFFFFFFFFFFFFFFFFFFFFFFFFFFFFFFFFFFFFFFFF
310
FFFFFFFFFFFFFFFFFFFFFFFFFFFFFFFFFFFFFFFFFFFFFFFFFFFFFFFFFFFFFFFF
310
FFFFFFFFFFFFFFFFFFFFFFFFFFFFFFFFFFFFFFFFFFFFFFFFF000FFFFFFFFFFFF
310
FFFFFFFFFFFFFFFFFFFFFFFFFFFFFFFFFFFFFFFFFFFFFFFFFFFFFFFFFFFFFFFF
310
FFFFFFFFFFFFFFFFFFFFFFFFFFFFFFFFFFFFFFFFFFFFFFFFFFFFFFFFFFFFFFFF
310
FFFFFFFFFFFFFFFFFFFFFFFFFFFFFFFFF000FFFFFFFFFFFFFFFFFFFFFFFFFFFF
310
FFFFFFFFFFFFFFFFFFFFFFFFFFFFFFFFFFFFFFFFFFFFFFFFFFFFFFFFFFFFFFFF
310
FFFFFFFFFFFFFFFFFFFFFFFFFFFFFFFFFFFFFFFFFFFFFFFFFFFFFFFFFFFFFFFF
310
FFFFFFFFFFFFFFFFF000FFFFFFFFFFFFFFFFFFFFFFFFFFFFFFFFFFFFFFFFFFFF
310
FFFFFFFFFFFFFFFFFFFFFFFFFFFFFFFFFFFFFFFFFFFFFFFFFFFFFFFFFFFFFFFF
310
FFFFFFFFFFFFFFFFFFFFFFFFFFFFFFFFFFFFFFFFFFFFFFFFFFFFFFFFFFFFFFFF
310
F000FFFFFFFFFFFFFFFFFFFFFFFFFFFFFFFFFFFFFFFFFFFFFFFFFFFFFFFFFFFF
310
FFFFFFFFFFFFFFFFFFFFFFFFFFFFFFFFFFFFFFFFFFFFFFFFFFFFFFFFFFFFFFFF
310
FFFFFFFFFFFFFFFFFFFFFFFFFFFFFFFFFFFFFFFFFFFFFFFFF000FFFFFFFFFFFF
310
FFFFFFFFFFFFFFFFFFFFFFFFFFFFFFFFFFFFFFFFFFFFFFFFFFFFFFFFFFFFFFFF
310
FFFFFFFFFFFFFFFFFFFFFFFFFFFFFFFFFFFFFFFFFFFFFFFFFFFFFFFFFFFFFFFF
310
FFFFFFFFFFFFFFFFFFFFFFFFFFFFFFFFF000FFFFFFFFFFFFFFFFFFFFFFFFFFFF
310
FFFFFFFFFFFFFFFFFFFFFFFFFFFFFFFFFFFFFFFFFFFFFFFFFFFFFFFFFFFFFFFF
310
FFFFFFFFFFFFFFFFFFFFFFFFFFFFFFFFFFFFFFFFFFFFFFFFFFFFFFFFFFFFFFFF
310
FFFFFFFFFFFFFFFFF000FFFFFFFFFFFFFFFFFFFFFFFFFFFFFFFFFFFFFFFFFFFF
310
FFFFFFFFFFFFFFFFFFFFFFFFFFFFFFFFFFFFFFFFFFFFFFFFFFFFFFFFFFFFFFFF
310
FFFFFFFFFFFFFFFFFFFFFFFFFFFFFFFFFFFFFFFFFFFFFFFFFFFFFFFFFFFFFFFF
310
F000FFFFFFFFFFFFFFFFFFFFFFFFFFFFFFFFFFFFFFFFFFFFFFFFFFFFFFFFFFFF
310
FFFFFFFFFFFFFFFFFFFFFFFFFFFFFFFFFFFFFFFFFFFFFFFFFFFFFFFFFFFFFFFF
310
FFFFFFFFFFFFFFFFFFFFFFFFFFFFFFFFFFFFFFFFFFFFFFFFF000FFFFFFFFFFFF
310
FFFFFFFFFFFFFFFFFFFFFFFFFFFFFFFFFFFFFFFFFFFFFFFFFFFFFFFFFFFFFFFF
310
FFFFFFFFFFFFFFFFFFFFFFFFFFFFFFFFFFFFFFFFFFFFFFFFFFFFFFFFFFFFFFFF
310
FFFFFFFFFFFFFFFFFFFFFFFFFFFFFFFFF0000000000000000000000000000000
310
0000000000000000000000000000000000000000000000000000000000000000
310
0000000000000000000000000000000000000000000000000000000000000000
310
0000000000000000000000000000000000000000000000000000000000000000
310
0000000000000000000000000000000000000000000000000000000000000000
310
0000000000000000000000000000000000000000000000000000000000000000
310
0000000000000000000000000000000000000000000000000000000000000000
310
0000000000000000000000000000000000000000000000000000000000000000
310
0000000000000000000000000000000000000000000000000000000000000000
310
0000000000000000000000000000000000000000000000000000000000000000
310
0000000000000000000000000000000000000000000000000000000000000000
310
0000000000000000000000000000000000000000000000000000000000000000
310
0000000000000000000000000000000000000000000000000000000000000000
310
0000000000000000000000000000000000000000000000000000000000000000
310
0000000000000000000000000000000000000000000000000000000000000000
310
0000000000000000000000000000000000000000000000000000000000000000
  1
OLE
  0
ENDSEC
  0
SECTION
  2
OBJECTS
  0
DICTIONARY
  5
C
330
0
100
AcDbDictionary
281
     1
  3
ACAD_GROUP
350
D
  3
ACAD_LAYOUT
350
1A
  3
ACAD_MLINESTYLE
350
17
  3
ACAD_PLOTSETTINGS
350
19
  3
ACAD_PLOTSTYLENAME
350
E
  0
DICTIONARY
  5
D
102
{ACAD_REACTORS
330
C
102
}
330
C
100
AcDbDictionary
281
     1
  0
DICTIONARY
  5
1A
102
{ACAD_REACTORS
330
C
102
}
330
C
100
AcDbDictionary
281
     1
  3
Layout1
350
1E
  3
Layout2
350
26
  3
Model
350
22
  0
DICTIONARY
  5
17
102
{ACAD_REACTORS
330
C
102
}
330
C
100
AcDbDictionary
281
     1
  3
Standard
350
18
  0
DICTIONARY
  5
19
102
{ACAD_REACTORS
330
C
102
}
330
C
100
AcDbDictionary
281
     1
  0
ACDBDICTIONARYWDFLT
  5
E
102
{ACAD_REACTORS
330
C
102
}
330
C
100
AcDbDictionary
281
     1
  3
Normal
350
F
100
AcDbDictionaryWithDefault
340
F
  0
LAYOUT
  5
1E
102
{ACAD_REACTORS
330
1A
102
}
330
1A
100
AcDbPlotSettings
  1

  2
none_device
  4

  6

 40
0.0
 41
0.0
 42
0.0
 43
0.0
 44
0.0
 45
0.0
 46
0.0
 47
0.0
 48
0.0
 49
0.0
140
0.0
141
0.0
142
1.0
143
1.0
 70
   688
 72
     0
 73
     0
 74
     5
  7

 75
    16
147
1.0
148
0.0
149
0.0
100
AcDbLayout
  1
Layout1
 70
     1
 71
     1
 10
0.0
 20
0.0
 11
420.0
 21
297.0
 12
0.0
 22
0.0
 32
0.0
 14
1.0000000000E+20
 24
1.0000000000E+20
 34
1.0000000000E+20
 15
-1.0000000000E+20
 25
-1.0000000000E+20
 35
-1.0000000000E+20
146
0.0
 13
0.0
 23
0.0
 33
0.0
 16
1.0
 26
0.0
 36
0.0
 17
0.0
 27
1.0
 37
0.0
 76
     0
330
1B
  0
LAYOUT
  5
26
102
{ACAD_REACTORS
330
1A
102
}
330
1A
100
AcDbPlotSettings
  1

  2
none_device
  4

  6

 40
0.0
 41
0.0
 42
0.0
 43
0.0
 44
0.0
 45
0.0
 46
0.0
 47
0.0
 48
0.0
 49
0.0
140
0.0
141
0.0
142
1.0
143
1.0
 70
   688
 72
     0
 73
     0
 74
     5
  7

 75
    16
147
1.0
148
0.0
149
0.0
100
AcDbLayout
  1
Layout2
 70
     1
 71
     2
 10
0.0
 20
0.0
 11
0.0
 21
0.0
 12
0.0
 22
0.0
 32
0.0
 14
0.0
 24
0.0
 34
0.0
 15
0.0
 25
0.0
 35
0.0
146
0.0
 13
0.0
 23
0.0
 33
0.0
 16
1.0
 26
0.0
 36
0.0
 17
0.0
 27
1.0
 37
0.0
 76
     0
330
23
  0
LAYOUT
  5
22
102
{ACAD_REACTORS
330
1A
102
}
330
1A
100
AcDbPlotSettings
  1

  2
none_device
  4

  6

 40
0.0
 41
0.0
 42
0.0
 43
0.0
 44
0.0
 45
0.0
 46
0.0
 47
0.0
 48
0.0
 49
0.0
140
0.0
141
0.0
142
1.0
143
1.0
 70
  1712
 72
     0
 73
     0
 74
     0
  7

 75
     0
147
1.0
148
0.0
149
0.0
100
AcDbLayout
  1
Model
 70
     1
 71
     0
 10
0.0
 20
0.0
 11
297.0
 21
210.0
 12
0.0
 22
0.0
 32
0.0
 14
0.0
 24
0.0
 34
0.0
 15
297.0
 25
210.0
 35
0.0
146
0.0
 13
0.0
 23
0.0
 33
0.0
 16
1.0
 26
0.0
 36
0.0
 17
0.0
 27
1.0
 37
0.0
 76
     0
330
1F
331
29
  0
MLINESTYLE
  5
18
102
{ACAD_REACTORS
330
17
102
}
330
17
100
AcDbMlineStyle
  2
Standard
 70
     0
  3

 62
   256
 51
90.0
 52
90.0
 71
     2
 49
0.5
 62
   256
  6
BYLAYER
 49
-0.5
 62
   256
  6
BYLAYER
  0
ACDBPLACEHOLDER
  5
F
102
{ACAD_REACTORS
330
E
102
}
330
E
  0
ENDSEC
  0
EOF
