  0
SECTION
  2
HEADER
  9
$ACADVER
  1
AC1015
  9
$ACADMAINTVER
 70
     6
  9
$DWGCODEPAGE
  3
ANSI_1252
  9
$INSBASE
 10
0.0
 20
0.0
 30
0.0
  9
$EXTMIN
 10
0.0
 20
0.0
 30
0.0
  9
$EXTMAX
 10
297.0
 20
210.0
 30
0.0
  9
$LIMMIN
 10
0.0
 20
0.0
  9
$LIMMAX
 10
297.0
 20
210.0
  9
$ORTHOMODE
 70
     0
  9
$REGENMODE
 70
     1
  9
$FILLMODE
 70
     1
  9
$QTEXTMODE
 70
     0
  9
$MIRRTEXT
 70
     1
  9
$LTSCALE
 40
1.0
  9
$ATTMODE
 70
     1
  9
$TEXTSIZE
 40
2.0
  9
$TRACEWID
 40
1.0
  9
$TEXTSTYLE
  7
Standard
  9
$CLAYER
  8
0
  9
$CELTYPE
  6
ByLayer
  9
$CECOLOR
 62
   256
  9
$CELTSCALE
 40
1.0
  9
$DISPSILH
 70
     0
  9
$DIMSCALE
 40
1.0
  9
$DIMASZ
 40
3.0
  9
$DIMEXO
 40
0.0
  9
$DIMDLI
 40
3.75
  9
$DIMRND
 40
0.0
  9
$DIMDLE
 40
0.0
  9
$DIMEXE
 40
1.0
  9
$DIMTP
 40
0.0
  9
$DIMTM
 40
0.0
  9
$DIMTXT
 40
2.0
  9
$DIMCEN
 40
2.5
  9
$DIMTSZ
 40
0.0
  9
$DIMTOL
 70
     0
  9
$DIMLIM
 70
     0
  9
$DIMTIH
 70
     1
  9
$DIMTOH
 70
     1
  9
$DIMSE1
 70
     0
  9
$DIMSE2
 70
     0
  9
$DIMTAD
 70
     1
  9
$DIMZIN
 70
     0
  9
$DIMBLK
  1

  9
$DIMASO
 70
     1
  9
$DIMSHO
 70
     1
  9
$DIMPOST
  1

  9
$DIMAPOST
  1

  9
$DIMALT
 70
     0
  9
$DIMALTD
 70
     3
  9
$DIMALTF
 40
0.0393700787
  9
$DIMLFAC
 40
1.0
  9
$DIMTOFL
 70
     1
  9
$DIMTVP
 40
0.0
  9
$DIMTIX
 70
     0
  9
$DIMSOXD
 70
     0
  9
$DIMSAH
 70
     0
  9
$DIMBLK1
  1

  9
$DIMBLK2
  1

  9
$DIMSTYLE
  2
ISO-25
  9
$DIMCLRD
 70
     0
  9
$DIMCLRE
 70
     0
  9
$DIMCLRT
 70
     0
  9
$DIMTFAC
 40
1.0
  9
$DIMGAP
 40
1.524
  9
$DIMJUST
 70
     0
  9
$DIMSD1
 70
     0
  9
$DIMSD2
 70
     0
  9
$DIMTOLJ
 70
     0
  9
$DIMTZIN
 70
     0
  9
$DIMALTZ
 70
     0
  9
$DIMALTTZ
 70
     0
  9
$DIMUPT
 70
     0
  9
$DIMDEC
 70
     2
  9
$DIMTDEC
 70
     3
  9
$DIMALTU
 70
     2
  9
$DIMALTTD
 70
     3
  9
$DIMTXSTY
  7
Standard
  9
$DIMAUNIT
 70
     0
  9
$DIMADEC
 70
     2
  9
$DIMALTRND
 40
0.0
  9
$DIMAZIN
 70
     0
  9
$DIMDSEP
 70
    44
  9
$DIMATFIT
 70
     3
  9
$DIMFRAC
 70
     0
  9
$DIMLDRBLK
  1

  9
$DIMLUNIT
 70
     2
  9
$DIMLWD
 70
    -2
  9
$DIMLWE
 70
    -2
  9
$DIMTMOVE
 70
     0
  9
$LUNITS
 70
     2
  9
$LUPREC
 70
     2
  9
$SKETCHINC
 40
1.0
  9
$FILLETRAD
 40
10.0
  9
$AUNITS
 70
     0
  9
$AUPREC
 70
     2
  9
$MENU
  1
.
  9
$ELEVATION
 40
0.0
  9
$PELEVATION
 40
0.0
  9
$THICKNESS
 40
0.0
  9
$LIMCHECK
 70
     0
  9
$CHAMFERA
 40
10.0
  9
$CHAMFERB
 40
10.0
  9
$CHAMFERC
 40
20.0
  9
$CHAMFERD
 40
0.0
  9
$SKPOLY
 70
     0
  9
$TDCREATE
 40
2456071.5010036
  9
$TDUCREATE
 40
2456071.417670266
  9
$TDUPDATE
 40
2456071.501005035
  9
$TDUUPDATE
 40
2456071.417671701
  9
$TDINDWG
 40
0.0000000116
  9
$TDUSRTIMER
 40
0.0000000116
  9
$USRTIMER
 70
     1
  9
$ANGBASE
 50
0.0
  9
$ANGDIR
 70
     0
  9
$PDMODE
 70
     0
  9
$PDSIZE
 40
-1.0
  9
$PLINEWID
 40
0.0
  9
$SPLFRAME
 70
     0
  9
$SPLINETYPE
 70
     6
  9
$SPLINESEGS
 70
     8
  9
$HANDSEED
  5
20C
  9
$SURFTAB1
 70
     6
  9
$SURFTAB2
 70
     6
  9
$SURFTYPE
 70
     6
  9
$SURFU
 70
     6
  9
$SURFV
 70
     6
  9
$UCSBASE
  2

  9
$UCSNAME
  2

  9
$UCSORG
 10
0.0
 20
0.0
 30
0.0
  9
$UCSXDIR
 10
1.0
 20
0.0
 30
0.0
  9
$UCSYDIR
 10
0.0
 20
1.0
 30
0.0
  9
$UCSORTHOREF
  2

  9
$UCSORTHOVIEW
 70
     0
  9
$UCSORGTOP
 10
0.0
 20
0.0
 30
0.0
  9
$UCSORGBOTTOM
 10
0.0
 20
0.0
 30
0.0
  9
$UCSORGLEFT
 10
0.0
 20
0.0
 30
0.0
  9
$UCSORGRIGHT
 10
0.0
 20
0.0
 30
0.0
  9
$UCSORGFRONT
 10
0.0
 20
0.0
 30
0.0
  9
$UCSORGBACK
 10
0.0
 20
0.0
 30
0.0
  9
$PUCSBASE
  2

  9
$PUCSNAME
  2

  9
$PUCSORG
 10
0.0
 20
0.0
 30
0.0
  9
$PUCSXDIR
 10
1.0
 20
0.0
 30
0.0
  9
$PUCSYDIR
 10
0.0
 20
1.0
 30
0.0
  9
$PUCSORTHOREF
  2

  9
$PUCSORTHOVIEW
 70
     0
  9
$PUCSORGTOP
 10
0.0
 20
0.0
 30
0.0
  9
$PUCSORGBOTTOM
 10
0.0
 20
0.0
 30
0.0
  9
$PUCSORGLEFT
 10
0.0
 20
0.0
 30
0.0
  9
$PUCSORGRIGHT
 10
0.0
 20
0.0
 30
0.0
  9
$PUCSORGFRONT
 10
0.0
 20
0.0
 30
0.0
  9
$PUCSORGBACK
 10
0.0
 20
0.0
 30
0.0
  9
$USERI1
 70
     0
  9
$USERI2
 70
     0
  9
$USERI3
 70
     0
  9
$USERI4
 70
     0
  9
$USERI5
 70
     0
  9
$USERR1
 40
0.0
  9
$USERR2
 40
0.0
  9
$USERR3
 40
0.0
  9
$USERR4
 40
0.0
  9
$USERR5
 40
0.0
  9
$WORLDVIEW
 70
     1
  9
$SHADEDGE
 70
     3
  9
$SHADEDIF
 70
    70
  9
$TILEMODE
 70
     1
  9
$MAXACTVP
 70
    64
  9
$PINSBASE
 10
0.0
 20
0.0
 30
0.0
  9
$PLIMCHECK
 70
     0
  9
$PEXTMIN
 10
1.0000000000E+20
 20
1.0000000000E+20
 30
1.0000000000E+20
  9
$PEXTMAX
 10
-1.0000000000E+20
 20
-1.0000000000E+20
 30
-1.0000000000E+20
  9
$PLIMMIN
 10
0.0
 20
0.0
  9
$PLIMMAX
 10
420.0
 20
297.0
  9
$UNITMODE
 70
     0
  9
$VISRETAIN
 70
     1
  9
$PLINEGEN
 70
     0
  9
$PSLTSCALE
 70
     1
  9
$TREEDEPTH
 70
  3020
  9
$CMLSTYLE
  2
Standard
  9
$CMLJUST
 70
     0
  9
$CMLSCALE
 40
20.0
  9
$PROXYGRAPHICS
 70
     1
  9
$MEASUREMENT
 70
     1
  9
$CELWEIGHT
370
    -1
  9
$ENDCAPS
280
     0
  9
$JOINSTYLE
280
     0
  9
$LWDISPLAY
290
     1
  9
$INSUNITS
 70
     4
  9
$HYPERLINKBASE
  1

  9
$STYLESHEET
  1

  9
$XEDIT
290
     1
  9
$CEPSNTYPE
380
     0
  9
$PSTYLEMODE
290
     1
  9
$FINGERPRINTGUID
  2
{50F1AC64-A197-4740-926E-E31D153A3CD2}
  9
$VERSIONGUID
  2
{FAEB1C32-E019-11D5-929B-00C0DF256EC4}
  9
$EXTNAMES
290
     1
  9
$PSVPSCALE
 40
0.0
  9
$OLESTARTUP
290
     0
  0
ENDSEC
  0
SECTION
  2
CLASSES
  0
CLASS
  1
ACDBDICTIONARYWDFLT
  2
AcDbDictionaryWithDefault
  3
ObjectDBX Classes
 90
        0
280
     0
281
     0
  0
CLASS
  1
VISUALSTYLE
  2
AcDbVisualStyle
  3
ObjectDBX Classes
 90
     4095
280
     0
281
     0
  0
CLASS
  1
MATERIAL
  2
AcDbMaterial
  3
ObjectDBX Classes
 90
     1153
280
     0
281
     0
  0
CLASS
  1
ACDBPLACEHOLDER
  2
AcDbPlaceHolder
  3
ObjectDBX Classes
 90
        0
280
     0
281
     0
  0
CLASS
  1
LAYOUT
  2
AcDbLayout
  3
ObjectDBX Classes
 90
        0
280
     0
281
     0
  0
ENDSEC
  0
SECTION
  2
TABLES
  0
TABLE
  2
VPORT
  5
8
330
0
100
AcDbSymbolTable
 70
     1
  0
VPORT
  5
29
330
8
100
AcDbSymbolTableRecord
100
AcDbViewportTableRecord
  2
*Active
 70
     0
 10
0.0
 20
0.0
 11
1.0
 21
1.0
 12
148.5
 22
105.0
 13
0.0
 23
0.0
 14
10.0
 24
10.0
 15
10.0
 25
10.0
 16
0.0
 26
0.0
 36
1.0
 17
0.0
 27
0.0
 37
0.0
 40
210.0
 41
1.4142857143
 42
50.0
 43
0.0
 44
0.0
 50
0.0
 51
0.0
 71
     0
 72
  2000
 73
     1
 74
     3
 75
     0
 76
     0
 77
     0
 78
     0
281
     0
 65
     1
110
0.0
120
0.0
130
0.0
111
1.0
121
0.0
131
0.0
112
0.0
122
1.0
132
0.0
 79
     0
146
0.0
  0
ENDTAB
  0
TABLE
  2
LTYPE
  5
5
330
0
100
AcDbSymbolTable
 70
     6
  0
LTYPE
  5
14
330
5
100
AcDbSymbolTableRecord
100
AcDbLinetypeTableRecord
  2
ByBlock
 70
     0
  3

 72
    65
 73
     0
 40
0.0
  0
LTYPE
  5
15
330
5
100
AcDbSymbolTableRecord
100
AcDbLinetypeTableRecord
  2
ByLayer
 70
     0
  3

 72
    65
 73
     0
 40
0.0
  0
LTYPE
  5
16
330
5
100
AcDbSymbolTableRecord
100
AcDbLinetypeTableRecord
  2
Continuous
 70
     0
  3
Solid line
 72
    65
 73
     0
 40
0.0
  0
LTYPE
  5
3F
330
5
100
AcDbSymbolTableRecord
100
AcDbLinetypeTableRecord
  2
HIDDEN
 70
     0
  3
Hidden __ __ __ __ __ __ __ __ __ __ __ __ __ __
 72
    65
 73
     2
 40
1.905
 49
1.27
 74
     0
 49
-0.635
 74
     0
  0
LTYPE
  5
40
330
5
100
AcDbSymbolTableRecord
100
AcDbLinetypeTableRecord
  2
PHANTOM
 70
     0
  3
Phantom ______  __  __  ______  __  __  ______
 72
    65
 73
     6
 40
12.7
 49
6.35
 74
     0
 49
-1.27
 74
     0
 49
1.27
 74
     0
 49
-1.27
 74
     0
 49
1.27
 74
     0
 49
-1.27
 74
     0
  0
LTYPE
  5
41
330
5
100
AcDbSymbolTableRecord
100
AcDbLinetypeTableRecord
  2
CENTER
 70
     0
  3
Center ____ _ ____ _ ____ _ ____ _ ____ _ ____
 72
    65
 73
     4
 40
10.16
 49
6.35
 74
     0
 49
-1.27
 74
     0
 49
1.27
 74
     0
 49
-1.27
 74
     0
  0
LTYPE
  5
42
330
5
100
AcDbSymbolTableRecord
100
AcDbLinetypeTableRecord
  2
CENTERX2
 70
     0
  3
Center (2x) ________  __  ________  __  _____
 72
    65
 73
     4
 40
20.32
 49
12.7
 74
     0
 49
-2.54
 74
     0
 49
2.54
 74
     0
 49
-2.54
 74
     0
  0
LTYPE
  5
43
330
5
100
AcDbSymbolTableRecord
100
AcDbLinetypeTableRecord
  2
DOT2
 70
     0
  3
Dot (.5x) ........................................
 72
    65
 73
     2
 40
0.635
 49
0.0
 74
     0
 49
-0.635
 74
     0
  0
ENDTAB
  0
TABLE
  2
LAYER
  5
2
330
0
100
AcDbSymbolTable
 70
     5
  0
LAYER
  5
10
330
2
100
AcDbSymbolTableRecord
100
AcDbLayerTableRecord
  2
0
 70
     0
 62
     7
  6
Continuous
370
    -3
390
F
  0
LAYER
  5
44
330
2
100
AcDbSymbolTableRecord
100
AcDbLayerTableRecord
  2
FORMAT
 70
     0
 62
     7
  6
Continuous
370
    -3
390
F
  0
LAYER
  5
45
330
2
100
AcDbSymbolTableRecord
100
AcDbLayerTableRecord
  2
VERMASSUNG
 70
     0
 62
     7
  6
Continuous
370
    -3
390
F
  0
LAYER
  5
46
330
2
100
AcDbSymbolTableRecord
100
AcDbLayerTableRecord
  2
KOPF_DÜNN
 70
     0
 62
     7
  6
Continuous
370
    -3
390
F
  0
LAYER
  5
47
330
2
100
AcDbSymbolTableRecord
100
AcDbLayerTableRecord
  2
KOPF_DICK
 70
     0
 62
     7
  6
Continuous
370
    15
390
F
  0
ENDTAB
  0
TABLE
  2
STYLE
  5
3
330
0
100
AcDbSymbolTable
 70
     2
  0
STYLE
  5
11
330
3
100
AcDbSymbolTableRecord
100
AcDbTextStyleTableRecord
  2
Standard
 70
     0
 40
0.0
 41
1.0
 50
0.0
 71
     0
 42
2.0
  3
txt
  4

  0
STYLE
  5
48
330
3
100
AcDbSymbolTableRecord
100
AcDbTextStyleTableRecord
  2
SLDTEXTSTYLE0
 70
     0
 40
0.0
 41
0.7
 50
0.0
 71
     0
 42
0.2
  3
TXT
  4

  0
ENDTAB
  0
TABLE
  2
VIEW
  5
6
330
0
100
AcDbSymbolTable
 70
     0
  0
ENDTAB
  0
TABLE
  2
UCS
  5
7
330
0
100
AcDbSymbolTable
 70
     0
  0
ENDTAB
  0
TABLE
  2
APPID
  5
9
330
0
100
AcDbSymbolTable
 70
     1
  0
APPID
  5
12
330
9
100
AcDbSymbolTableRecord
100
AcDbRegAppTableRecord
  2
ACAD
 70
     0
  0
ENDTAB
  0
TABLE
  2
DIMSTYLE
  5
A
330
0
100
AcDbSymbolTable
 70
     5
100
AcDbDimStyleTable
  0
DIMSTYLE
105
27
330
A
100
AcDbSymbolTableRecord
100
AcDbDimStyleTableRecord
  2
ISO-25
 70
     0
 41
2.5
 42
0.625
 43
3.75
 44
1.25
 73
     0
 74
     0
 77
     1
 78
     8
140
2.5
141
2.5
143
0.0393700787
147
0.625
171
     3
172
     1
178
     0
271
     2
272
     2
274
     3
278
    44
283
     0
284
     8
340
11
  0
DIMSTYLE
105
18D
102
{ACAD_REACTORS
330
18C
330
199
102
}
330
A
100
AcDbSymbolTableRecord
100
AcDbDimStyleTableRecord
  2
SLDDIMSTYLE0
 70
     0
 41
3.0
 44
0.0
 45
0.000000001
 47
0.1
 48
0.1
 71
     1
 73
     0
 74
     0
 77
     1
 78
    12
 79
     3
140
2.0
147
0.5
173
     1
178
     0
271
     2
272
     1
276
     2
284
     8
340
48
  0
DIMSTYLE
105
1A6
102
{ACAD_REACTORS
330
1A5
330
1B9
102
}
330
A
100
AcDbSymbolTableRecord
100
AcDbDimStyleTableRecord
  2
SLDDIMSTYLE1
 70
     0
 41
3.0
 44
0.0
 45
0.000000001
 73
     0
 74
     0
 77
     1
 78
    12
 79
     3
140
2.0
147
0.5
173
     1
178
     0
271
     2
272
     3
276
     2
284
    12
340
48
  0
DIMSTYLE
105
1B1
102
{ACAD_REACTORS
330
1B0
102
}
330
A
100
AcDbSymbolTableRecord
100
AcDbDimStyleTableRecord
  2
SLDDIMSTYLE2
 70
     0
 41
3.0
 44
0.0
 73
     0
 74
     0
 77
     1
 78
    12
 79
     3
140
2.0
147
0.5
173
     1
178
     0
179
     2
272
     3
276
     2
284
    12
340
48
  0
DIMSTYLE
105
1E5
102
{ACAD_REACTORS
330
1E4
102
}
330
A
100
AcDbSymbolTableRecord
100
AcDbDimStyleTableRecord
  2
SLDDIMSTYLE3
 70
     0
 41
3.0
 44
0.0
 45
0.000000001
 73
     0
 74
     0
 77
     1
 78
    12
 79
     3
140
2.0
147
0.5
172
     1
173
     1
178
     0
271
     2
272
     3
276
     2
284
    12
289
     0
340
48
  0
ENDTAB
  0
TABLE
  2
BLOCK_RECORD
  5
1
330
0
100
AcDbSymbolTable
 70
     9
  0
BLOCK_RECORD
  5
1F
330
1
100
AcDbSymbolTableRecord
100
AcDbBlockTableRecord
  2
*Model_Space
340
22
  0
BLOCK_RECORD
  5
1B
330
1
100
AcDbSymbolTableRecord
100
AcDbBlockTableRecord
  2
*Paper_Space
340
1E
  0
BLOCK_RECORD
  5
23
330
1
100
AcDbSymbolTableRecord
100
AcDbBlockTableRecord
  2
*Paper_Space0
340
26
  0
BLOCK_RECORD
  5
18E
330
1
100
AcDbSymbolTableRecord
100
AcDbBlockTableRecord
  2
_D
340
0
  0
BLOCK_RECORD
  5
19A
330
1
100
AcDbSymbolTableRecord
100
AcDbBlockTableRecord
  2
_D_1
340
0
  0
BLOCK_RECORD
  5
1A7
330
1
100
AcDbSymbolTableRecord
100
AcDbBlockTableRecord
  2
_D_2
340
0
  0
BLOCK_RECORD
  5
1B2
330
1
100
AcDbSymbolTableRecord
100
AcDbBlockTableRecord
  2
_D_3
340
0
  0
BLOCK_RECORD
  5
1BA
330
1
100
AcDbSymbolTableRecord
100
AcDbBlockTableRecord
  2
_D_4
340
0
  0
BLOCK_RECORD
  5
1E6
330
1
100
AcDbSymbolTableRecord
100
AcDbBlockTableRecord
  2
_D_5
340
0
  0
BLOCK_RECORD
  5
1F3
330
1
100
AcDbSymbolTableRecord
100
AcDbBlockTableRecord
  2
SW_CENTERMARKSYMBOL_0
340
0
102
{BLKREFS
331
1FE
102
}
  0
BLOCK_RECORD
  5
1FF
330
1
100
AcDbSymbolTableRecord
100
AcDbBlockTableRecord
  2
SW_CENTERMARKSYMBOL_1
340
0
102
{BLKREFS
331
20A
102
}
  0
ENDTAB
  0
ENDSEC
  0
SECTION
  2
BLOCKS
  0
BLOCK
  5
20
330
1F
100
AcDbEntity
  8
0
100
AcDbBlockBegin
  2
*Model_Space
 70
     0
 10
0.0
 20
0.0
 30
0.0
  3
*Model_Space
  1

  0
ENDBLK
  5
21
330
1F
100
AcDbEntity
  8
0
100
AcDbBlockEnd
  0
BLOCK
  5
1C
330
1B
100
AcDbEntity
 67
     1
  8
0
100
AcDbBlockBegin
  2
*Paper_Space
 70
     0
 10
0.0
 20
0.0
 30
0.0
  3
*Paper_Space
  1

  0
ENDBLK
  5
1D
330
1B
100
AcDbEntity
 67
     1
  8
0
100
AcDbBlockEnd
  0
BLOCK
  5
24
330
23
100
AcDbEntity
  8
0
100
AcDbBlockBegin
  2
*Paper_Space0
 70
     0
 10
0.0
 20
0.0
 30
0.0
  3
*Paper_Space0
  1

  0
ENDBLK
  5
25
330
23
100
AcDbEntity
  8
0
100
AcDbBlockEnd
  0
BLOCK
  5
18F
330
18E
100
AcDbEntity
  8
0
100
AcDbBlockBegin
  2
_D
 70
     0
 10
0.0
 20
0.0
 30
0.0
  3
_D
  1

  0
SOLID
  5
191
330
18E
100
AcDbEntity
  8
VERMASSUNG
100
AcDbTrace
 10
251.4087097807
 20
93.5721493346
 30
0.0
 11
251.8587097807
 21
96.5721493346
 31
0.0
 12
250.9587097807
 22
96.5721493346
 32
0.0
 13
250.9587097807
 23
96.5721493346
 33
0.0
  0
SOLID
  5
192
330
18E
100
AcDbEntity
  8
VERMASSUNG
100
AcDbTrace
 10
251.4087097807
 20
120.5721493346
 30
0.0
 11
250.9587097807
 21
117.5721493346
 31
0.0
 12
251.8587097807
 22
117.5721493346
 32
0.0
 13
251.8587097807
 23
117.5721493346
 33
0.0
  0
LINE
  5
193
330
18E
100
AcDbEntity
  8
VERMASSUNG
100
AcDbLine
 10
232.6021233589
 20
93.5721493346
 30
0.0
 11
252.4087097807
 21
93.5721493346
 31
0.0
  0
LINE
  5
194
330
18E
100
AcDbEntity
  8
VERMASSUNG
100
AcDbLine
 10
232.6021233589
 20
120.5721493346
 30
0.0
 11
252.4087097807
 21
120.5721493346
 31
0.0
  0
LINE
  5
195
330
18E
100
AcDbEntity
  8
VERMASSUNG
100
AcDbLine
 10
251.4087097807
 20
93.5721493346
 30
0.0
 11
251.4087097807
 21
120.5721493346
 31
0.0
  0
MTEXT
  5
196
330
18E
100
AcDbEntity
  8
VERMASSUNG
100
AcDbMText
 10
248.8305744176
 20
102.5221491475
 30
0.1
 40
2.0
 41
0.0
 71
     1
 72
     1
  1
27
  7
SLDTEXTSTYLE0
 11
6.123233995736766E-17
 21
1.0
 31
0.0
 73
     1
 44
1.0
  0
MTEXT
  5
197
330
18E
100
AcDbEntity
  8
VERMASSUNG
100
AcDbMText
 10
248.8305744176
 20
108.3096492496
 30
0.1
 40
2.0
 41
0.0
 71
     1
 72
     1
  1

  7
SLDTEXTSTYLE0
 11
6.123233995736766E-17
 21
1.0
 31
0.0
 73
     1
 44
1.0
  0
MTEXT
  5
198
330
18E
100
AcDbEntity
  8
VERMASSUNG
100
AcDbMText
 10
249.3251082804
 20
108.3221495394
 30
0.1
 40
1.5
 41
0.0
 71
     1
 72
     1
  1
±0.1
  7
SLDTEXTSTYLE0
 11
6.123233995736766E-17
 21
1.0
 31
0.0
 73
     1
 44
1.0
  0
ENDBLK
  5
190
330
18E
100
AcDbEntity
  8
0
100
AcDbBlockEnd
  0
BLOCK
  5
19B
330
19A
100
AcDbEntity
  8
0
100
AcDbBlockBegin
  2
_D_1
 70
     0
 10
0.0
 20
0.0
 30
0.0
  3
_D_1
  1

  0
SOLID
  5
19D
330
19A
100
AcDbEntity
  8
VERMASSUNG
100
AcDbTrace
 10
182.6021233589
 20
85.1231931094
 30
0.0
 11
185.6021233589
 21
84.6731931094
 31
0.0
 12
185.6021233589
 22
85.5731931094
 32
0.0
 13
185.6021233589
 23
85.5731931094
 33
0.0
  0
SOLID
  5
19E
330
19A
100
AcDbEntity
  8
VERMASSUNG
100
AcDbTrace
 10
232.6021233589
 20
85.1231931094
 30
0.0
 11
229.6021233589
 21
85.5731931094
 31
0.0
 12
229.6021233589
 22
84.6731931094
 32
0.0
 13
229.6021233589
 23
84.6731931094
 33
0.0
  0
LINE
  5
19F
330
19A
100
AcDbEntity
  8
VERMASSUNG
100
AcDbLine
 10
182.6021233589
 20
100.8721493346
 30
0.0
 11
182.6021233589
 21
84.1231931094
 31
0.0
  0
LINE
  5
1A0
330
19A
100
AcDbEntity
  8
VERMASSUNG
100
AcDbLine
 10
232.6021233589
 20
93.5721493346
 30
0.0
 11
232.6021233589
 21
84.1231931094
 31
0.0
  0
LINE
  5
1A1
330
19A
100
AcDbEntity
  8
VERMASSUNG
100
AcDbLine
 10
182.6021233589
 20
85.1231931094
 30
0.0
 11
232.6021233589
 21
85.1231931094
 31
0.0
  0
MTEXT
  5
1A2
330
19A
100
AcDbEntity
  8
VERMASSUNG
100
AcDbMText
 10
203.0521231719
 20
87.7013284725
 30
0.1
 40
2.0
 41
0.0
 71
     1
 72
     1
  1
50
  7
SLDTEXTSTYLE0
 73
     1
 44
1.0
  0
MTEXT
  5
1A3
330
19A
100
AcDbEntity
  8
VERMASSUNG
100
AcDbMText
 10
208.839623274
 20
87.7013284725
 30
0.1
 40
2.0
 41
0.0
 71
     1
 72
     1
  1

  7
SLDTEXTSTYLE0
 73
     1
 44
1.0
  0
MTEXT
  5
1A4
330
19A
100
AcDbEntity
  8
VERMASSUNG
100
AcDbMText
 10
208.8521235638
 20
87.2067946097
 30
0.1
 40
1.5
 41
0.0
 71
     1
 72
     1
  1
±0.1
  7
SLDTEXTSTYLE0
 73
     1
 44
1.0
  0
ENDBLK
  5
19C
330
19A
100
AcDbEntity
  8
0
100
AcDbBlockEnd
  0
BLOCK
  5
1A8
330
1A7
100
AcDbEntity
  8
0
100
AcDbBlockBegin
  2
_D_2
 70
     0
 10
0.0
 20
0.0
 30
0.0
  3
_D_2
  1

  0
SOLID
  5
1AA
330
1A7
100
AcDbEntity
  8
VERMASSUNG
100
AcDbTrace
 10
232.6021233589
 20
74.697150144
 30
0.0
 11
229.6021233589
 21
75.147150144
 31
0.0
 12
229.6021233589
 22
74.247150144
 32
0.0
 13
229.6021233589
 23
74.247150144
 33
0.0
  0
SOLID
  5
1AB
330
1A7
100
AcDbEntity
  8
VERMASSUNG
100
AcDbTrace
 10
158.6021233589
 20
74.697150144
 30
0.0
 11
161.6021233589
 21
74.247150144
 31
0.0
 12
161.6021233589
 22
75.147150144
 32
0.0
 13
161.6021233589
 23
75.147150144
 33
0.0
  0
LINE
  5
1AC
330
1A7
100
AcDbEntity
  8
VERMASSUNG
100
AcDbLine
 10
232.6021233589
 20
93.5721493346
 30
0.0
 11
232.6021233589
 21
73.697150144
 31
0.0
  0
LINE
  5
1AD
330
1A7
100
AcDbEntity
  8
VERMASSUNG
100
AcDbLine
 10
158.6021233589
 20
107.9406443525
 30
0.0
 11
158.6021233589
 21
73.697150144
 31
0.0
  0
LINE
  5
1AE
330
1A7
100
AcDbEntity
  8
VERMASSUNG
100
AcDbLine
 10
232.6021233589
 20
74.697150144
 30
0.0
 11
158.6021233589
 21
74.697150144
 31
0.0
  0
MTEXT
  5
1AF
330
1A7
100
AcDbEntity
  8
VERMASSUNG
100
AcDbMText
 10
193.2021232449
 20
77.2752855071
 30
0.1
 40
2.0
 41
0.0
 71
     1
 72
     1
  1
74
  7
SLDTEXTSTYLE0
 73
     1
 44
1.0
  0
ENDBLK
  5
1A9
330
1A7
100
AcDbEntity
  8
0
100
AcDbBlockEnd
  0
BLOCK
  5
1B3
330
1B2
100
AcDbEntity
  8
0
100
AcDbBlockBegin
  2
_D_3
 70
     0
 10
0.0
 20
0.0
 30
0.0
  3
_D_3
  1

  0
ARC
  5
1B5
330
1B2
100
AcDbEntity
  8
VERMASSUNG
100
AcDbCircle
 10
232.7476545245
 20
93.5721493346
 30
0.0
 40
10.6672044779411
100
AcDbArc
 50
0.0
 51
107.5
  0
SOLID
  5
1B6
330
1B2
100
AcDbEntity
  8
VERMASSUNG
100
AcDbTrace
 10
243.4148590025
 20
93.5721493346
 30
0.0
 11
243.45069301
 21
96.6054999447
 31
0.0
 12
242.5591353441
 22
96.482516497
 32
0.0
 13
242.5591353441
 23
96.482516497
 33
0.0
  0
SOLID
  5
1B7
330
1B2
100
AcDbEntity
  8
VERMASSUNG
100
AcDbTrace
 10
229.5399642735
 20
103.7456430623
 30
0.0
 11
232.5729518361
 21
103.8046891885
 31
0.0
 12
232.4221466741
 22
104.691964683
 32
0.0
 13
232.4221466741
 23
104.691964683
 33
0.0
  0
MTEXT
  5
1B8
330
1B2
100
AcDbEntity
  8
VERMASSUNG
100
AcDbMText
 10
237.0313955289
 20
106.8555446198
 30
0.1
 40
2.0
 41
0.0
 71
     1
 72
     1
  1
107.5°
  7
SLDTEXTSTYLE0
 11
0.8064446042674795
 21
-0.5913096483635865
 31
0.0
 73
     1
 44
1.0
  0
ENDBLK
  5
1B4
330
1B2
100
AcDbEntity
  8
0
100
AcDbBlockEnd
  0
BLOCK
  5
1BB
330
1BA
100
AcDbEntity
  8
0
100
AcDbBlockBegin
  2
_D_4
 70
     0
 10
0.0
 20
0.0
 30
0.0
  3
_D_4
  1

  0
SOLID
  5
1BD
330
1BA
100
AcDbEntity
  8
VERMASSUNG
100
AcDbTrace
 10
151.0059955535
 20
140.5721493346
 30
0.0
 11
150.5559955535
 21
137.5721493346
 31
0.0
 12
151.4559955535
 22
137.5721493346
 32
0.0
 13
151.4559955535
 23
137.5721493346
 33
0.0
  0
SOLID
  5
1BE
330
1BA
100
AcDbEntity
  8
VERMASSUNG
100
AcDbTrace
 10
151.0059955535
 20
100.5721493346
 30
0.0
 11
151.4559955535
 21
103.5721493346
 31
0.0
 12
150.5559955535
 22
103.5721493346
 32
0.0
 13
150.5559955535
 23
103.5721493346
 33
0.0
  0
LINE
  5
1BF
330
1BA
100
AcDbEntity
  8
VERMASSUNG
100
AcDbLine
 10
182.9021233589
 20
140.5721493346
 30
0.0
 11
150.0059955535
 21
140.5721493346
 31
0.0
  0
LINE
  5
1C0
330
1BA
100
AcDbEntity
  8
VERMASSUNG
100
AcDbLine
 10
182.9021233589
 20
100.5721493346
 30
0.0
 11
150.0059955535
 21
100.5721493346
 31
0.0
  0
LINE
  5
1C1
330
1BA
100
AcDbEntity
  8
VERMASSUNG
100
AcDbLine
 10
151.0059955535
 20
140.5721493346
 30
0.0
 11
151.0059955535
 21
100.5721493346
 31
0.0
  0
MTEXT
  5
1C2
330
1BA
100
AcDbEntity
  8
VERMASSUNG
100
AcDbMText
 10
148.2278600644
 20
114.0671493952
 30
0.35
 40
2.0
 41
0.0
 71
     1
 72
     1
  1
PSC
  7
SLDTEXTSTYLE0
 11
-7.044195017643634E-15
 21
1.0
 31
0.0
 73
     1
 44
1.0
  0
MTEXT
  5
1C3
330
1BA
100
AcDbEntity
  8
VERMASSUNG
100
AcDbMText
 10
148.4278600739
 20
118.6671494973
 30
0.35
 40
2.0
 41
0.0
 71
     1
 72
     1
  1
%%c
  7
SLDTEXTSTYLE0
 11
-7.044195017643634E-15
 21
1.0
 31
0.0
 73
     1
 44
1.0
  0
MTEXT
  5
1C4
330
1BA
100
AcDbEntity
  8
VERMASSUNG
100
AcDbMText
 10
148.2278600644
 20
122.2771499772
 30
0.35
 40
2.0
 41
0.0
 71
     1
 72
     1
  1
40
  7
SLDTEXTSTYLE0
 11
-7.044195017643634E-15
 21
1.0
 31
0.0
 73
     1
 44
1.0
  0
ENDBLK
  5
1BC
330
1BA
100
AcDbEntity
  8
0
100
AcDbBlockEnd
  0
BLOCK
  5
1E7
330
1E6
100
AcDbEntity
  8
0
100
AcDbBlockBegin
  2
_D_5
 70
     0
 10
0.0
 20
0.0
 30
0.0
  3
_D_5
  1

  0
SOLID
  5
1E9
330
1E6
100
AcDbEntity
  8
VERMASSUNG
100
AcDbTrace
 10
100.5198551831
 20
136.4195864875
 30
0.0
 11
102.9593735782
 21
138.2227087795
 31
0.0
 12
102.3229774751
 22
138.8591048826
 32
0.0
 13
102.3229774751
 23
138.8591048826
 33
0.0
  0
SOLID
  5
1EA
330
1E6
100
AcDbEntity
  8
VERMASSUNG
100
AcDbTrace
 10
65.1645161238
 20
101.0642474282
 30
0.0
 11
62.7249977287
 21
99.2611251361
 31
0.0
 12
63.3613938318
 22
98.6247290331
 32
0.0
 13
63.3613938318
 23
98.6247290331
 33
0.0
  0
LINE
  5
1EB
330
1E6
100
AcDbEntity
  8
VERMASSUNG
100
AcDbLine
 10
100.5198551831
 20
136.4195864875
 30
0.0
 11
99.8127484019
 21
137.1266932687
 31
0.0
  0
LINE
  5
1EC
330
1E6
100
AcDbEntity
  8
VERMASSUNG
100
AcDbLine
 10
65.1645161238
 20
101.0642474282
 30
0.0
 11
64.4574093426
 21
101.7713542093
 31
0.0
  0
LINE
  5
1ED
330
1E6
100
AcDbEntity
  8
VERMASSUNG
100
AcDbLine
 10
100.5198551831
 20
136.4195864875
 30
0.0
 11
104.7624958702
 21
140.6622271746
 31
0.0
  0
LINE
  5
1EE
330
1E6
100
AcDbEntity
  8
VERMASSUNG
100
AcDbLine
 10
100.5198551831
 20
136.4195864875
 30
0.0
 11
65.1645161238
 21
101.0642474282
 31
0.0
  0
LINE
  5
1EF
330
1E6
100
AcDbEntity
  8
VERMASSUNG
100
AcDbLine
 10
65.1645161238
 20
101.0642474282
 30
0.0
 11
50.6936431477
 21
86.5933744521
 31
0.0
  0
MTEXT
  5
1F0
330
1E6
100
AcDbEntity
  8
VERMASSUNG
100
AcDbMText
 10
48.8706260673
 20
88.4163915325
 30
0.1
 40
2.0
 41
0.0
 71
     1
 72
     1
  1
%%c
  7
SLDTEXTSTYLE0
 11
0.7071067811865464
 21
0.7071067811865488
 31
0.0
 73
     1
 44
1.0
  0
MTEXT
  5
1F1
330
1E6
100
AcDbEntity
  8
VERMASSUNG
100
AcDbMText
 10
51.2818601946
 20
91.1104683857
 30
0.1
 40
2.0
 41
0.0
 71
     1
 72
     1
  1
50
  7
SLDTEXTSTYLE0
 11
0.7071067811865464
 21
0.7071067811865488
 31
0.0
 73
     1
 44
1.0
  0
MTEXT
  5
1F2
330
1E6
100
AcDbEntity
  8
VERMASSUNG
100
AcDbMText
 10
55.3742410921
 20
95.2028492832
 30
0.1
 40
2.0
 41
0.0
 71
     1
 72
     1
  1
min.
  7
SLDTEXTSTYLE0
 11
0.7071067811865464
 21
0.7071067811865488
 31
0.0
 73
     1
 44
1.0
  0
ENDBLK
  5
1E8
330
1E6
100
AcDbEntity
  8
0
100
AcDbBlockEnd
  0
BLOCK
  5
1F4
330
1F3
100
AcDbEntity
  8
0
100
AcDbBlockBegin
  2
SW_CENTERMARKSYMBOL_0
 70
     0
 10
0.0
 20
0.0
 30
0.0
  3
SW_CENTERMARKSYMBOL_0
  1

  0
LINE
  5
1F6
330
1F3
100
AcDbEntity
  8
VERMASSUNG
 62
     0
100
AcDbLine
 10
0.0
 20
0.0
 30
0.0
 11
0.0
 21
2.5
 31
0.0
  0
LINE
  5
1F7
330
1F3
100
AcDbEntity
  8
VERMASSUNG
 62
     0
100
AcDbLine
 10
0.0
 20
0.0
 30
0.0
 11
-2.5
 21
0.0
 31
0.0
  0
LINE
  5
1F8
330
1F3
100
AcDbEntity
  8
VERMASSUNG
 62
     0
100
AcDbLine
 10
0.0
 20
0.0
 30
0.0
 11
0.0
 21
-2.5
 31
0.0
  0
LINE
  5
1F9
330
1F3
100
AcDbEntity
  8
VERMASSUNG
 62
     0
100
AcDbLine
 10
0.0
 20
0.0
 30
0.0
 11
2.5
 21
0.0
 31
0.0
  0
LINE
  5
1FA
330
1F3
100
AcDbEntity
  8
VERMASSUNG
 62
     0
100
AcDbLine
 10
0.0
 20
5.0
 30
0.0
 11
0.0
 21
22.5
 31
0.0
  0
LINE
  5
1FB
330
1F3
100
AcDbEntity
  8
VERMASSUNG
 62
     0
100
AcDbLine
 10
-5.0
 20
0.0
 30
0.0
 11
-22.5
 21
0.0
 31
0.0
  0
LINE
  5
1FC
330
1F3
100
AcDbEntity
  8
VERMASSUNG
 62
     0
100
AcDbLine
 10
0.0
 20
-5.0
 30
0.0
 11
0.0
 21
-22.5
 31
0.0
  0
LINE
  5
1FD
330
1F3
100
AcDbEntity
  8
VERMASSUNG
 62
     0
100
AcDbLine
 10
5.0
 20
0.0
 30
0.0
 11
22.5
 21
0.0
 31
0.0
  0
ENDBLK
  5
1F5
330
1F3
100
AcDbEntity
  8
0
100
AcDbBlockEnd
  0
BLOCK
  5
200
330
1FF
100
AcDbEntity
  8
0
100
AcDbBlockBegin
  2
SW_CENTERMARKSYMBOL_1
 70
     0
 10
0.0
 20
0.0
 30
0.0
  3
SW_CENTERMARKSYMBOL_1
  1

  0
LINE
  5
202
330
1FF
100
AcDbEntity
  8
VERMASSUNG
 62
     0
100
AcDbLine
 10
0.0
 20
0.0
 30
0.0
 11
0.0
 21
2.5
 31
0.0
  0
LINE
  5
203
330
1FF
100
AcDbEntity
  8
VERMASSUNG
 62
     0
100
AcDbLine
 10
0.0
 20
0.0
 30
0.0
 11
-2.5
 21
0.0
 31
0.0
  0
LINE
  5
204
330
1FF
100
AcDbEntity
  8
VERMASSUNG
 62
     0
100
AcDbLine
 10
0.0
 20
0.0
 30
0.0
 11
0.0
 21
-2.5
 31
0.0
  0
LINE
  5
205
330
1FF
100
AcDbEntity
  8
VERMASSUNG
 62
     0
100
AcDbLine
 10
0.0
 20
0.0
 30
0.0
 11
2.5
 21
0.0
 31
0.0
  0
LINE
  5
206
330
1FF
100
AcDbEntity
  8
VERMASSUNG
 62
     0
100
AcDbLine
 10
0.0
 20
5.0
 30
0.0
 11
0.0
 21
22.5
 31
0.0
  0
LINE
  5
207
330
1FF
100
AcDbEntity
  8
VERMASSUNG
 62
     0
100
AcDbLine
 10
-5.0
 20
0.0
 30
0.0
 11
-22.5
 21
0.0
 31
0.0
  0
LINE
  5
208
330
1FF
100
AcDbEntity
  8
VERMASSUNG
 62
     0
100
AcDbLine
 10
0.0
 20
-5.0
 30
0.0
 11
0.0
 21
-22.5
 31
0.0
  0
LINE
  5
209
330
1FF
100
AcDbEntity
  8
VERMASSUNG
 62
     0
100
AcDbLine
 10
5.0
 20
0.0
 30
0.0
 11
22.5
 21
0.0
 31
0.0
  0
ENDBLK
  5
201
330
1FF
100
AcDbEntity
  8
0
100
AcDbBlockEnd
  0
ENDSEC
  0
SECTION
  2
ENTITIES
  0
MTEXT
  5
49
330
1F
100
AcDbEntity
  8
KOPF_DÜNN
100
AcDbMText
 10
13.8892156294
 20
23.8442973028
 30
0.0
 40
3.0
 41
0.0
 71
     1
 72
     1
  1
PS4.KDB.LHA.050
  7
SLDTEXTSTYLE0
 73
     1
 44
1.0
  0
MTEXT
  5
4A
330
1F
100
AcDbEntity
  8
VERMASSUNG
100
AcDbMText
 10
13.9329988022
 20
28.8834360957
 30
0.0
 40
3.0
 41
0.0
 71
     1
 72
     1
  1
Klemmhalter links_Turning tool left 107.5° /55°
  7
SLDTEXTSTYLE0
 73
     1
 44
1.0
  0
MTEXT
  5
4B
330
1F
100
AcDbEntity
  8
VERMASSUNG
100
AcDbMText
 10
98.8601118557
 20
13.8365368179
 30
0.0
 40
2.0
 41
0.0
 71
     1
 72
     1
  1
Datum: 23.05.2012
  7
SLDTEXTSTYLE0
 73
     1
 44
1.0
  0
MTEXT
  5
4C
330
1F
100
AcDbEntity
  8
VERMASSUNG
100
AcDbMText
 10
13.933048693
 20
18.0482802738
 30
0.0
 40
2.0
 41
0.0
 71
     1
 72
     1
  1
PSC ø40 / DC..11 T3..
  7
SLDTEXTSTYLE0
 73
     1
 44
1.0
  0
MTEXT
  5
4D
330
1F
100
AcDbEntity
  8
VERMASSUNG
100
AcDbMText
 10
13.9808475933
 20
13.9090973692
 30
0.0
 40
2.0
 41
0.0
 71
     1
 72
     1
  1
Gewicht: 359g
  7
SLDTEXTSTYLE0
 73
     1
 44
1.0
  0
LINE
  5
4E
330
1F
100
AcDbEntity
  8
0
  6
Continuous
 62
     7
370
    15
100
AcDbLine
 10
204.599528575
 20
140.5721488875
 30
0.0
 11
182.9021233732
 21
140.5721488875
 31
0.0
  0
LINE
  5
4F
330
1F
100
AcDbEntity
  8
0
  6
Continuous
 62
     7
370
    15
100
AcDbLine
 10
182.9021233732
 20
100.5721497816
 30
0.0
 11
204.602499494
 21
100.5721497816
 31
0.0
  0
ARC
  5
50
330
1F
100
AcDbEntity
  8
0
  6
Continuous
 62
     7
370
    15
100
AcDbCircle
 10
182.9021233589
 20
100.8721493346
 30
0.0
 40
0.3000000000000114
100
AcDbArc
 50
180.0
 51
270.0
  0
ARC
  5
51
330
1F
100
AcDbEntity
  8
0
  6
Continuous
 62
     7
370
    15
100
AcDbCircle
 10
182.9021233589
 20
140.2721493346
 30
0.0
 40
0.2999999999999829
100
AcDbArc
 50
90.0
 51
180.0
  0
LWPOLYLINE
  5
52
330
1F
100
AcDbEntity
  8
0
  6
Continuous
 62
     7
370
    15
100
AcDbPolyline
 90
        3
 70
   128
 43
0.0
 10
182.402123364
 20
106.4823293594
 10
182.5275782992
 20
106.4140270931
 10
182.6021233589
 20
106.3612890896
  0
LWPOLYLINE
  5
53
330
1F
100
AcDbEntity
  8
0
  6
Continuous
 62
     7
370
    15
100
AcDbPolyline
 90
        3
 70
   128
 43
0.0
 10
182.6021233589
 20
134.7830095795
 10
182.5275782992
 20
134.7302715761
 10
182.402123364
 20
134.6619693098
  0
ARC
  5
54
330
1F
100
AcDbEntity
  8
0
  6
Continuous
 62
     7
370
    15
100
AcDbCircle
 10
225.4308421547
 20
100.7434305388
 30
0.0
 40
1.675000000000017
100
AcDbArc
 50
321.8568829838
 51
20.456816111
  0
ARC
  5
55
330
1F
100
AcDbEntity
  8
0
  6
Continuous
 62
     7
370
    15
100
AcDbCircle
 10
225.4308421547
 20
100.7434305388
 30
0.0
 40
1.675000000000017
100
AcDbArc
 50
20.456816111
 51
80.5636578458
  0
ARC
  5
56
330
1F
100
AcDbEntity
  8
0
  6
Continuous
 62
     7
370
    15
100
AcDbCircle
 10
225.4308421547
 20
100.7434305388
 30
0.0
 40
1.674999999999992
100
AcDbArc
 50
80.5636578458
 51
139.163590973
  0
LINE
  5
57
330
1F
100
AcDbEntity
  8
0
  6
Continuous
 62
     7
370
    15
100
AcDbLine
 10
224.109661767
 20
101.7730455381
 30
0.0
 11
224.1635704429
 21
101.8387149555
 31
0.0
  0
ARC
  5
58
330
1F
100
AcDbEntity
  8
0
  6
Continuous
 62
     7
370
    15
100
AcDbCircle
 10
225.4308421547
 20
100.7434305388
 30
0.0
 40
1.674999999999994
100
AcDbArc
 50
142.0702217449
 51
198.5139399112
  0
LINE
  5
59
330
1F
100
AcDbEntity
  8
0
  6
Continuous
 62
     7
370
    15
100
AcDbLine
 10
223.8846132547
 20
100.0993843657
 30
0.0
 11
223.8425286502
 21
100.2115584445
 31
0.0
  0
ARC
  5
5A
330
1F
100
AcDbEntity
  8
0
  6
Continuous
 62
     7
370
    15
100
AcDbCircle
 10
225.4308421547
 20
100.7434305388
 30
0.0
 40
1.67500000000001
100
AcDbArc
 50
202.6130318114
 51
258.4074421454
  0
LINE
  5
5B
330
1F
100
AcDbEntity
  8
0
  6
Continuous
 62
     7
370
    15
100
AcDbLine
 10
225.2123998494
 20
99.0827358794
 30
0.0
 11
225.0942485423
 21
99.1025991273
 31
0.0
  0
ARC
  5
5C
330
1F
100
AcDbEntity
  8
0
  6
Continuous
 62
     7
370
    15
100
AcDbCircle
 10
225.4308421547
 20
100.7434305388
 30
0.0
 40
1.67500000000003
100
AcDbArc
 50
262.5065340457
 51
318.950252212
  0
LINE
  5
5D
330
1F
100
AcDbEntity
  8
0
  6
Continuous
 62
     7
370
    15
100
AcDbLine
 10
226.7481805772
 20
99.7089031619
 30
0.0
 11
226.6940260322
 21
99.6434349102
 31
0.0
  0
CIRCLE
  5
5E
330
1F
100
AcDbEntity
  8
0
  6
Continuous
 62
     7
370
    15
100
AcDbCircle
 10
225.4308421547
 20
100.7434305388
 30
0.0
 40
1.800000000000019
  0
SPLINE
  5
5F
330
1F
100
AcDbEntity
  8
0
  6
Continuous
 62
     7
370
    15
100
AcDbSpline
210
0.0
220
0.0
230
1.0
 70
     8
 71
     3
 72
    11
 73
     7
 74
     0
 42
0.00000001
 43
0.00000001
 12
1.0
 22
0.0
 32
0.0
 13
1.0
 23
0.0
 33
0.0
 40
0.0
 40
0.0
 40
0.0
 40
0.0
 40
0.2669018547893325
 40
0.5546154350474624
 40
0.8439016409331359
 40
1.0
 40
1.0
 40
1.0
 40
1.0
 10
223.8846132547353
 20
100.0993843656835
 30
0.0
 10
223.9051344568498
 20
100.0711886734695
 30
0.0
 10
223.947777005915
 20
100.0125987243059
 30
0.0
 10
224.0438722911258
 20
99.95562628035789
 30
0.0
 10
224.1374832162635
 20
99.93326575161795
 30
0.0
 10
224.1945446882844
 20
99.93746176773048
 30
0.0
 10
224.2145435900185
 20
99.93893238723848
 30
0.0
  0
SPLINE
  5
60
330
1F
100
AcDbEntity
  8
0
  6
Continuous
 62
     7
370
    15
100
AcDbSpline
210
0.0
220
0.0
230
1.0
 70
     8
 71
     3
 72
    12
 73
     8
 74
     0
 42
0.00000001
 43
0.00000001
 12
1.0
 22
0.0
 32
0.0
 13
1.0
 23
0.0
 33
0.0
 40
0.0
 40
0.0
 40
0.0
 40
0.0
 40
0.2058413094312005
 40
0.4120611463552281
 40
0.6141396397952358
 40
0.8132773352408285
 40
1.0
 40
1.0
 40
1.0
 40
1.0
 10
224.2145435900185
 20
99.93893238723848
 30
0.0
 10
224.2800844724316
 20
99.94091371842137
 30
0.0
 10
224.4112867622679
 20
99.94488002431393
 30
0.0
 10
224.5974983161729
 20
99.86814324210778
 30
0.0
 10
224.7462489585554
 20
99.74003073152885
 30
0.0
 10
224.8458759859054
 20
99.575686773637
 30
0.0
 10
224.8646190171159
 20
99.45444452812923
 30
0.0
 10
224.8736890048478
 20
99.39577388585184
 30
0.0
  0
SPLINE
  5
61
330
1F
100
AcDbEntity
  8
0
  6
Continuous
 62
     7
370
    15
100
AcDbSpline
210
0.0
220
0.0
230
1.0
 70
     8
 71
     3
 72
    11
 73
     7
 74
     0
 42
0.00000001
 43
0.00000001
 12
1.0
 22
0.0
 32
0.0
 13
1.0
 23
0.0
 33
0.0
 40
0.0
 40
0.0
 40
0.0
 40
0.0
 40
0.2928988609231069
 40
0.5864371519298335
 40
0.8775212645042401
 40
1.0
 40
1.0
 40
1.0
 40
1.0
 10
224.8736890048478
 20
99.39577388585184
 30
0.0
 10
224.8798449165122
 20
99.35837051382981
 30
0.0
 10
224.8921701788661
 20
99.28348211415476
 30
0.0
 10
224.9568833897355
 20
99.18710183444925
 30
0.0
 10
225.0299057719517
 20
99.12899778890043
 30
0.0
 10
225.0795470314297
 20
99.10863088824922
 30
0.0
 10
225.0942485422585
 20
99.10259912729833
 30
0.0
  0
SPLINE
  5
62
330
1F
100
AcDbEntity
  8
0
  6
Continuous
 62
     7
370
    15
100
AcDbSpline
210
0.0
220
0.0
230
1.0
 70
     8
 71
     3
 72
    12
 73
     8
 74
     0
 42
0.00000001
 43
0.00000001
 12
1.0
 22
0.0
 32
0.0
 13
1.0
 23
0.0
 33
0.0
 40
0.0
 40
0.0
 40
0.0
 40
0.0
 40
0.2057919849225557
 40
0.4120359293766223
 40
0.6141304399525942
 40
0.8132653560445202
 40
0.9999999999999999
 40
0.9999999999999999
 40
0.9999999999999999
 40
0.9999999999999999
 10
225.5169423312638
 20
99.28824710667703
 30
0.0
 10
225.5479885957663
 20
99.34598197774574
 30
0.0
 10
225.6101493084529
 20
99.4615785169753
 30
0.0
 10
225.7696911990635
 20
99.58448600334782
 30
0.0
 10
225.9550257185636
 20
99.6492643443643
 30
0.0
 10
226.1471789303703
 20
99.65337956060525
 30
0.0
 10
226.2615539719863
 20
99.60898658497084
 30
0.0
 10
226.3169037193749
 20
99.58750340164278
 30
0.0
  0
SPLINE
  5
63
330
1F
100
AcDbEntity
  8
0
  6
Continuous
 62
     7
370
    15
100
AcDbSpline
210
0.0
220
0.0
230
1.0
 70
     8
 71
     3
 72
    11
 73
     7
 74
     0
 42
0.00000001
 43
0.00000001
 12
1.0
 22
0.0
 32
0.0
 13
1.0
 23
0.0
 33
0.0
 40
0.0
 40
0.0
 40
0.0
 40
0.0
 40
0.2802395388183679
 40
0.5612847365599468
 40
0.8399934793861356
 40
1.0
 40
1.0
 40
1.0
 40
1.0
 10
226.3169037193749
 20
99.58750340164278
 30
0.0
 10
226.3523506702855
 20
99.57413718407618
 30
0.0
 10
226.4233464783273
 20
99.54736632248648
 30
0.0
 10
226.5390858945058
 20
99.55523846638158
 30
0.0
 10
226.631589436871
 20
99.59140181114604
 30
0.0
 10
226.6773400477217
 20
99.62952922751867
 30
0.0
 10
226.6940260321591
 20
99.64343491018388
 30
0.0
  0
SPLINE
  5
64
330
1F
100
AcDbEntity
  8
0
  6
Continuous
 62
     7
370
    15
100
AcDbSpline
210
0.0
220
0.0
230
1.0
 70
     8
 71
     3
 72
    11
 73
     7
 74
     0
 42
0.00000001
 43
0.00000001
 12
1.0
 22
0.0
 32
0.0
 13
1.0
 23
0.0
 33
0.0
 40
0.0
 40
0.0
 40
0.0
 40
0.0
 40
0.2657619632752311
 40
0.5530043842050002
 40
0.8418242997197861
 40
1.0
 40
1.0
 40
1.0
 40
1.0
 10
225.2123998493645
 20
99.08273587942693
 30
0.0
 10
225.2469927882302
 20
99.08632745446658
 30
0.0
 10
225.3189746723926
 20
99.0938008969361
 30
0.0
 10
225.4164232103683
 20
99.14822537371664
 30
0.0
 10
225.4830063824569
 20
99.21815594873986
 30
0.0
 10
225.5080723760551
 20
99.26992714058535
 30
0.0
 10
225.5169423312638
 20
99.28824710667703
 30
0.0
  0
SPLINE
  5
65
330
1F
100
AcDbEntity
  8
0
  6
Continuous
 62
     7
370
    15
100
AcDbSpline
210
0.0
220
0.0
230
1.0
 70
     8
 71
     3
 72
    11
 73
     7
 74
     0
 42
0.00000001
 43
0.00000001
 12
1.0
 22
0.0
 32
0.0
 13
1.0
 23
0.0
 33
0.0
 40
0.0
 40
0.0
 40
0.0
 40
0.0
 40
0.2431095132652929
 40
0.5182808833306459
 40
0.7947758776799462
 40
1.0
 40
1.0
 40
1.0
 40
1.0
 10
224.1096617669556
 20
101.7730455380735
 30
0.0
 10
224.0945257157356
 20
101.7435432750384
 30
0.0
 10
224.0622574351112
 20
101.6806479208388
 30
0.0
 10
224.0536454461281
 20
101.5711225134537
 30
0.0
 10
224.076338883603
 20
101.4695878849554
 30
0.0
 10
224.1117626086569
 20
101.4153103262717
 30
0.0
 10
224.126853981683
 20
101.39218675912
 30
0.0
  0
SPLINE
  5
66
330
1F
100
AcDbEntity
  8
0
  6
Continuous
 62
     7
370
    15
100
AcDbSpline
210
0.0
220
0.0
230
1.0
 70
     8
 71
     3
 72
    12
 73
     8
 74
     0
 42
0.00000001
 43
0.00000001
 12
1.0
 22
0.0
 32
0.0
 13
1.0
 23
0.0
 33
0.0
 40
0.0
 40
0.0
 40
0.0
 40
0.0
 40
0.2058172222592481
 40
0.4120197469321615
 40
0.6140764574872762
 40
0.8132110362730275
 40
1.0
 40
1.0
 40
1.0
 40
1.0
 10
224.126853981683
 20
101.39218675912
 30
0.0
 10
224.1613360841305
 20
101.3364225730188
 30
0.0
 10
224.2303648416278
 20
101.2247898068534
 30
0.0
 10
224.2570235570973
 20
101.0251753363138
 30
0.0
 10
224.2204642268412
 20
100.8323094552699
 30
0.0
 10
224.1279675538488
 20
100.6638388080999
 30
0.0
 10
224.0323255169685
 20
100.5869746213495
 30
0.0
 10
223.9860342831109
 20
100.5497719627676
 30
0.0
  0
SPLINE
  5
67
330
1F
100
AcDbEntity
  8
0
  6
Continuous
 62
     7
370
    15
100
AcDbSpline
210
0.0
220
0.0
230
1.0
 70
     8
 71
     3
 72
    11
 73
     7
 74
     0
 42
0.00000001
 43
0.00000001
 12
1.0
 22
0.0
 32
0.0
 13
1.0
 23
0.0
 33
0.0
 40
0.0
 40
0.0
 40
0.0
 40
0.0
 40
0.2908618902041597
 40
0.5839578280325367
 40
0.8745979724882684
 40
1.0
 40
1.0
 40
1.0
 40
1.0
 10
223.9860342831109
 20
100.5497719627676
 30
0.0
 10
223.9568680441189
 20
100.5258847017229
 30
0.0
 10
223.8983115465258
 20
100.4779267067186
 30
0.0
 10
223.8471057780167
 20
100.3739750869794
 30
0.0
 10
223.833051088998
 20
100.2812878008442
 30
0.0
 10
223.8403335848954
 20
100.2277082207344
 30
0.0
 10
223.8425286502335
 20
100.2115584445057
 30
0.0
  0
SPLINE
  5
68
330
1F
100
AcDbEntity
  8
0
  6
Continuous
 62
     7
370
    15
100
AcDbSpline
210
0.0
220
0.0
230
1.0
 70
     8
 71
     3
 72
    12
 73
     8
 74
     0
 42
0.00000001
 43
0.00000001
 12
1.0
 22
0.0
 32
0.0
 13
1.0
 23
0.0
 33
0.0
 40
0.0
 40
0.0
 40
0.0
 40
0.0
 40
0.2058578840089149
 40
0.4121034216803976
 40
0.614193224728256
 40
0.8133171713106997
 40
0.9999999999999999
 40
0.9999999999999999
 40
0.9999999999999999
 40
0.9999999999999999
 10
226.7316551894639
 20
100.0908161979971
 30
0.0
 10
226.6971682574029
 20
100.1465893277541
 30
0.0
 10
226.62812945049
 20
100.2582406143753
 30
0.0
 10
226.6014767314579
 20
100.4578870954421
 30
0.0
 10
226.6380685748499
 20
100.6507728522452
 30
0.0
 10
226.7305838735685
 20
100.8192122678756
 30
0.0
 10
226.8262032125238
 20
100.8960519440867
 30
0.0
 10
226.8724711627457
 20
100.9332328569946
 30
0.0
  0
SPLINE
  5
69
330
1F
100
AcDbEntity
  8
0
  6
Continuous
 62
     7
370
    15
100
AcDbSpline
210
0.0
220
0.0
230
1.0
 70
     8
 71
     3
 72
    11
 73
     7
 74
     0
 42
0.00000001
 43
0.00000001
 12
1.0
 22
0.0
 32
0.0
 13
1.0
 23
0.0
 33
0.0
 40
0.0
 40
0.0
 40
0.0
 40
0.0
 40
0.2524770160893057
 40
0.5068908852216888
 40
0.7591791144971519
 40
1.0
 40
1.0
 40
1.0
 40
1.0
 10
226.8724711627457
 20
100.9332328569946
 30
0.0
 10
226.9016482114812
 20
100.9571255784783
 30
0.0
 10
226.9602261378633
 20
101.0050943121509
 30
0.0
 10
227.0112464087055
 20
101.1089410006839
 30
0.0
 10
227.0290113456318
 20
101.22185679664
 30
0.0
 10
227.0096613641296
 20
101.2937399160812
 30
0.0
 10
227.00021136708
 20
101.3288456481752
 30
0.0
  0
SPLINE
  5
6A
330
1F
100
AcDbEntity
  8
0
  6
Continuous
 62
     7
370
    15
100
AcDbSpline
210
0.0
220
0.0
230
1.0
 70
     8
 71
     3
 72
    11
 73
     7
 74
     0
 42
0.00000001
 43
0.00000001
 12
1.0
 22
0.0
 32
0.0
 13
1.0
 23
0.0
 33
0.0
 40
0.0
 40
0.0
 40
0.0
 40
0.0
 40
0.2423638193505444
 40
0.5166866163242609
 40
0.7923387683638812
 40
0.9999999999999999
 40
0.9999999999999999
 40
0.9999999999999999
 40
0.9999999999999999
 10
226.7481805772279
 20
99.70890316188905
 30
0.0
 10
226.7634259909462
 20
99.73834930876133
 30
0.0
 10
226.7959271342674
 20
99.80112447888361
 30
0.0
 10
226.8049471203234
 20
99.91061416577041
 30
0.0
 10
226.7825469001447
 20
100.0126563327438
 30
0.0
 10
226.7469498690163
 20
100.0673265161429
 30
0.0
 10
226.7316551894639
 20
100.0908161979971
 30
0.0
  0
SPLINE
  5
6B
330
1F
100
AcDbEntity
  8
0
  6
Continuous
 62
     7
370
    15
100
AcDbSpline
210
0.0
220
0.0
230
1.0
 70
     8
 71
     3
 72
    12
 73
     8
 74
     0
 42
0.00000001
 43
0.00000001
 12
1.0
 22
0.0
 32
0.0
 13
1.0
 23
0.0
 33
0.0
 40
0.0
 40
0.0
 40
0.0
 40
0.0
 40
0.0091753319551269
 40
0.2576763954047898
 40
0.506194230047245
 40
0.7560357586323214
 40
1.0
 40
1.0
 40
1.0
 40
1.0
 10
225.7054606468175
 20
102.3957650643644
 30
0.0
 10
225.7041064812952
 20
102.3959846098014
 30
0.0
 10
225.6660766320999
 20
102.4021502370628
 30
0.0
 10
225.5885873185788
 20
102.4009795705759
 30
0.0
 10
225.4825475130477
 20
102.3619728360409
 30
0.0
 10
225.3934264537239
 20
102.2917952715163
 30
0.0
 10
225.3587131748986
 20
102.2268458895678
 30
0.0
 10
225.3415631145928
 20
102.1947577130852
 30
0.0
  0
SPLINE
  5
6C
330
1F
100
AcDbEntity
  8
0
  6
Continuous
 62
     7
370
    15
100
AcDbSpline
210
0.0
220
0.0
230
1.0
 70
     8
 71
     3
 72
    12
 73
     8
 74
     0
 42
0.00000001
 43
0.00000001
 12
1.0
 22
0.0
 32
0.0
 13
1.0
 23
0.0
 33
0.0
 40
0.0
 40
0.0
 40
0.0
 40
0.0
 40
0.205753812219451
 40
0.4119626932874278
 40
0.6140164848257406
 40
0.8131438465586454
 40
1.0
 40
1.0
 40
1.0
 40
1.0
 10
225.3415631145928
 20
102.1947577130852
 30
0.0
 10
225.3105240331061
 20
102.1370295090716
 30
0.0
 10
225.2483772205224
 20
102.0214454226942
 30
0.0
 10
225.0888610534681
 20
101.8985500089597
 30
0.0
 10
224.9035620513801
 20
101.8337559006726
 30
0.0
 10
224.7113947704097
 20
101.8296100906895
 30
0.0
 10
224.5969869883756
 20
101.8740068889979
 30
0.0
 10
224.5416017264817
 20
101.8954995554743
 30
0.0
  0
SPLINE
  5
6D
330
1F
100
AcDbEntity
  8
0
  6
Continuous
 62
     7
370
    15
100
AcDbSpline
210
0.0
220
0.0
230
1.0
 70
     8
 71
     3
 72
    11
 73
     7
 74
     0
 42
0.00000001
 43
0.00000001
 12
1.0
 22
0.0
 32
0.0
 13
1.0
 23
0.0
 33
0.0
 40
0.0
 40
0.0
 40
0.0
 40
0.0
 40
0.279406360569785
 40
0.559624802729713
 40
0.8375011522594437
 40
1.0
 40
1.0
 40
1.0
 40
1.0
 10
224.5416017264817
 20
101.8954995554743
 30
0.0
 10
224.5061520890806
 20
101.9088668323624
 30
0.0
 10
224.4351497815562
 20
101.9356402375073
 30
0.0
 10
224.3194051206578
 20
101.92776256941
 30
0.0
 10
224.2265015475753
 20
101.8914472646578
 30
0.0
 10
224.1805329113722
 20
101.852928437616
 30
0.0
 10
224.1635704428647
 20
101.8387149554548
 30
0.0
  0
SPLINE
  5
6E
330
1F
100
AcDbEntity
  8
0
  6
Continuous
 62
     7
370
    15
100
AcDbSpline
210
0.0
220
0.0
230
1.0
 70
     8
 71
     3
 72
    12
 73
     8
 74
     0
 42
0.00000001
 43
0.00000001
 12
1.0
 22
0.0
 32
0.0
 13
1.0
 23
0.0
 33
0.0
 40
0.0
 40
0.0
 40
0.0
 40
0.0
 40
0.2058427780891347
 40
0.4120676817790294
 40
0.6141393733101573
 40
0.8132598860052349
 40
1.0
 40
1.0
 40
1.0
 40
1.0
 10
226.6439618558381
 20
101.5440724325237
 30
0.0
 10
226.5784209824519
 20
101.5420909158166
 30
0.0
 10
226.4472175658992
 20
101.5381242039237
 30
0.0
 10
226.2610073680125
 20
101.6148638971308
 30
0.0
 10
226.1122585496923
 20
101.7429719762555
 30
0.0
 10
226.0126330954416
 20
101.9073135493036
 30
0.0
 10
225.9938906916924
 20
102.0285551577125
 30
0.0
 10
225.9848201662991
 20
102.0872309339103
 30
0.0
  0
SPLINE
  5
6F
330
1F
100
AcDbEntity
  8
0
  6
Continuous
 62
     7
370
    15
100
AcDbSpline
210
0.0
220
0.0
230
1.0
 70
     8
 71
     3
 72
    11
 73
     7
 74
     0
 42
0.00000001
 43
0.00000001
 12
1.0
 22
0.0
 32
0.0
 13
1.0
 23
0.0
 33
0.0
 40
0.0
 40
0.0
 40
0.0
 40
0.0
 40
0.2535090941509706
 40
0.5075666323937541
 40
0.7595013555368662
 40
1.0
 40
1.0
 40
1.0
 40
1.0
 10
225.9848201662991
 20
102.0872309339103
 30
0.0
 10
225.9786637855441
 20
102.1246501705296
 30
0.0
 10
225.9663377052589
 20
102.1995695969163
 30
0.0
 10
225.9016103784541
 20
102.2957333202009
 30
0.0
 10
225.81257304475
 20
102.3674120149417
 30
0.0
 10
225.7406076810359
 20
102.3864615139119
 30
0.0
 10
225.7054606468175
 20
102.3957650643644
 30
0.0
  0
SPLINE
  5
70
330
1F
100
AcDbEntity
  8
0
  6
Continuous
 62
     7
370
    15
100
AcDbSpline
210
0.0
220
0.0
230
1.0
 70
     8
 71
     3
 72
    12
 73
     8
 74
     0
 42
0.00000001
 43
0.00000001
 12
1.0
 22
0.0
 32
0.0
 13
1.0
 23
0.0
 33
0.0
 40
0.0
 40
0.0
 40
0.0
 40
0.0
 40
0.0091694147246845
 40
0.2573267543078783
 40
0.5054913097340359
 40
0.7549891044721996
 40
1.0
 40
1.0
 40
1.0
 40
1.0
 10
227.00021136708
 20
101.3288456481752
 30
0.0
 10
226.9997261280753
 20
101.3301299151929
 30
0.0
 10
226.9861085764783
 20
101.366171066483
 30
0.0
 10
226.9464833391312
 20
101.4327720397415
 30
0.0
 10
226.8598122490215
 20
101.5052575457315
 30
0.0
 10
226.7543583025611
 20
101.5476370645544
 30
0.0
 10
226.6805374013602
 20
101.5452534339506
 30
0.0
 10
226.6439618558381
 20
101.5440724325237
 30
0.0
  0
CIRCLE
  5
71
330
1F
100
AcDbEntity
  8
0
  6
Continuous
 62
     7
370
    15
100
AcDbCircle
 10
225.4308421547
 20
100.7434305388
 30
0.0
 40
2.625000000000013
  0
LINE
  5
72
330
1F
100
AcDbEntity
  8
0
  6
Continuous
 62
     7
370
    15
100
AcDbLine
 10
232.5645359249
 20
94.0864175093
 30
0.0
 11
229.3616393597
 21
104.2447030079
 31
0.0
  0
LINE
  5
73
330
1F
100
AcDbEntity
  8
0
  6
Continuous
 62
     7
370
    15
100
AcDbLine
 10
230.7826364428
 20
95.3916362953
 30
0.0
 11
232.2021247835
 21
93.9721498174
 31
0.0
  0
LINE
  5
74
330
1F
100
AcDbEntity
  8
0
  6
Continuous
 62
     7
370
    15
100
AcDbLine
 10
228.823469022
 20
103.954674257
 30
0.0
 11
228.9992282183
 21
104.130435316
 31
0.0
  0
LINE
  5
75
330
1F
100
AcDbEntity
  8
0
  6
Continuous
 62
     7
370
    15
100
AcDbLine
 10
218.4785315783
 20
107.2190613952
 30
0.0
 11
221.6814244182
 21
97.0607768279
 31
0.0
  0
LINE
  5
76
330
1F
100
AcDbEntity
  8
0
  6
Continuous
 62
     7
370
    15
100
AcDbLine
 10
220.2604310603
 20
105.9138426092
 30
0.0
 11
218.8409427196
 21
107.3333300185
 31
0.0
  0
LINE
  5
77
330
1F
100
AcDbEntity
  8
0
  6
Continuous
 62
     7
370
    15
100
AcDbLine
 10
222.2195984811
 20
97.3508055788
 30
0.0
 11
222.0438392848
 21
97.1750445199
 31
0.0
  0
SPLINE
  5
78
330
1F
100
AcDbEntity
  8
0
  6
Continuous
 62
     7
370
    15
100
AcDbSpline
210
0.0
220
0.0
230
1.0
 70
     8
 71
     3
 72
    11
 73
     7
 74
     0
 42
0.00000001
 43
0.00000001
 12
1.0
 22
0.0
 32
0.0
 13
1.0
 23
0.0
 33
0.0
 40
0.0
 40
0.0
 40
0.0
 40
0.0
 40
0.3277696745942331
 40
0.6551507733773718
 40
0.990786172334708
 40
1.0
 40
1.0
 40
1.0
 40
1.0
 10
222.219598481128
 20
97.35080557883356
 30
0.0
 10
222.2721581557563
 20
97.40336465347308
 30
0.0
 10
222.3772151947389
 20
97.50842049318948
 30
0.0
 10
222.5504391311667
 20
97.68165349143386
 30
0.0
 10
222.6597118524114
 20
97.79089472785532
 30
0.0
 10
222.7106972572075
 20
97.84190372457405
 30
0.0
 10
222.7120595068429
 20
97.84326660454843
 30
0.0
  0
SPLINE
  5
79
330
1F
100
AcDbEntity
  8
0
  6
Continuous
 62
     7
370
    15
100
AcDbSpline
210
0.0
220
0.0
230
1.0
 70
    24
 71
     3
 72
    11
 73
     7
 74
     0
 42
0.00000001
 43
0.00000001
 12
1.0
 22
0.0
 32
0.0
 13
1.0
 23
0.0
 33
0.0
 40
0.0
 40
0.0
 40
0.0
 40
0.0
 40
0.0092122444285005
 40
0.3448475631771185
 40
0.672230403734768
 40
1.0
 40
1.0
 40
1.0
 40
1.0
 10
228.3310079962704
 20
103.4622132313308
 30
0.0
 10
228.332370249865
 20
103.4635754849254
 30
0.0
 10
228.3833643193525
 20
103.514569554413
 30
0.0
 10
228.4926253289452
 20
103.6238305640055
 30
0.0
 10
228.6658526093985
 20
103.7970578444589
 30
0.0
 10
228.7709095450591
 20
103.9021147801195
 30
0.0
 10
228.8234690219853
 20
103.9546742570457
 30
0.0
  0
LINE
  5
7A
330
1F
100
AcDbEntity
  8
0
  6
Continuous
 62
     7
370
    15
100
AcDbLine
 10
218.4568429381
 20
107.2213366163
 30
0.0
 11
221.6628203184
 21
97.0532778186
 31
0.0
  0
LINE
  5
7B
330
1F
100
AcDbEntity
  8
0
  6
Continuous
 62
     7
370
    15
100
AcDbLine
 10
229.1209967823
 20
104.5114542824
 30
0.0
 11
218.9529361219
 21
107.7174307314
 31
0.0
  0
LINE
  5
7C
330
1F
100
AcDbEntity
  8
0
  6
Continuous
 62
     7
370
    15
100
AcDbLine
 10
232.586224565
 20
94.0841432196
 30
0.0
 11
229.3802471847
 21
104.2522020173
 31
0.0
  0
LINE
  5
7D
330
1F
100
AcDbEntity
  8
0
  6
Continuous
 62
     7
370
    15
100
AcDbLine
 10
221.9220707209
 20
96.7940255535
 30
0.0
 11
232.0901313812
 21
93.5880481732
 31
0.0
  0
ARC
  5
7E
330
1F
100
AcDbEntity
  8
0
  6
Continuous
 62
     7
370
    15
100
AcDbCircle
 10
218.840942645
 20
107.3333300485
 30
0.0
 40
0.3800000000000106
100
AcDbArc
 50
72.5
 51
197.5
  0
ARC
  5
7F
330
1F
100
AcDbEntity
  8
0
  6
Continuous
 62
     7
370
    15
100
AcDbCircle
 10
222.0438377839
 20
97.1750444735
 30
0.0
 40
0.3799999999999885
100
AcDbArc
 50
197.5
 51
252.5
  0
LINE
  5
80
330
1F
100
AcDbEntity
  8
0
  6
Continuous
 62
     7
370
    15
100
AcDbLine
 10
221.9295697302
 20
96.8126315159
 30
0.0
 11
232.0878552289
 21
93.6097368133
 31
0.0
  0
ARC
  5
81
330
1F
100
AcDbEntity
  8
0
  6
Continuous
 62
     7
370
    15
100
AcDbCircle
 10
232.2021233589
 20
93.9721493346
 30
0.0
 40
0.3800000000000056
100
AcDbArc
 50
252.5
 51
17.5
  0
ARC
  5
82
330
1F
100
AcDbEntity
  8
0
  6
Continuous
 62
     7
370
    15
100
AcDbCircle
 10
228.99922822
 20
104.1304349096
 30
0.0
 40
0.3800000000000292
100
AcDbArc
 50
17.5
 51
72.5
  0
LINE
  5
83
330
1F
100
AcDbEntity
  8
0
  6
Continuous
 62
     7
370
    15
100
AcDbLine
 10
229.1134977729
 20
104.4928464574
 30
0.0
 11
218.9552122743
 21
107.6957420912
 31
0.0
  0
SPLINE
  5
84
330
1F
100
AcDbEntity
  8
0
  6
Continuous
 62
     7
370
    15
100
AcDbSpline
210
0.0
220
0.0
230
1.0
 70
     8
 71
     3
 72
    10
 73
     6
 74
     0
 42
0.00000001
 43
0.00000001
 12
1.0
 22
0.0
 32
0.0
 13
1.0
 23
0.0
 33
0.0
 40
0.0
 40
0.0
 40
0.0
 40
0.0
 40
0.3518018924145401
 40
0.7034277693556789
 40
0.9999999999999999
 40
0.9999999999999999
 40
0.9999999999999999
 40
0.9999999999999999
 10
221.6628203184102
 20
97.0532778185663
 30
0.0
 10
221.6804891216902
 20
97.01210326062119
 30
0.0
 10
221.7158178880965
 20
96.92977474541412
 30
0.0
 10
221.8111444395387
 20
96.83971298760628
 30
0.0
 10
221.8872499254171
 20
96.80836726563678
 30
0.0
 10
221.9220707208607
 20
96.79402555347059
 30
0.0
  0
SPLINE
  5
85
330
1F
100
AcDbEntity
  8
0
  6
Continuous
 62
     7
370
    15
100
AcDbSpline
210
0.0
220
0.0
230
1.0
 70
     8
 71
     3
 72
    10
 73
     6
 74
     0
 42
0.00000001
 43
0.00000001
 12
1.0
 22
0.0
 32
0.0
 13
1.0
 23
0.0
 33
0.0
 40
0.0
 40
0.0
 40
0.0
 40
0.0
 40
0.3518073039562881
 40
0.7034269853947418
 40
0.9999999999999999
 40
0.9999999999999999
 40
0.9999999999999999
 40
0.9999999999999999
 10
229.3802471847031
 20
104.252202017313
 30
0.0
 10
229.362576753123
 20
104.293376279383
 30
0.0
 10
229.3272453137887
 20
104.375702844858
 30
0.0
 10
229.2319229348613
 20
104.4657678660797
 30
0.0
 10
229.1558177998942
 20
104.4971127815853
 30
0.0
 10
229.1209967822526
 20
104.5114542824087
 30
0.0
  0
SPLINE
  5
86
330
1F
100
AcDbEntity
  8
0
  6
Continuous
 62
     7
370
    15
100
AcDbSpline
210
0.0
220
0.0
230
1.0
 70
     8
 71
     3
 72
    14
 73
    10
 74
     0
 42
0.00000001
 43
0.00000001
 12
1.0
 22
0.0
 32
0.0
 13
1.0
 23
0.0
 33
0.0
 40
0.0
 40
0.0
 40
0.0
 40
0.0
 40
0.1588490705968992
 40
0.317331621284848
 40
0.4720147701051422
 40
0.6236444779619142
 40
0.7746611786402664
 40
0.9277409786462911
 40
0.9999999999999999
 40
0.9999999999999999
 40
0.9999999999999999
 40
0.9999999999999999
 10
218.9529361218903
 20
107.7174307313618
 30
0.0
 10
218.9078400010327
 20
107.7269615420844
 30
0.0
 10
218.8177518117115
 20
107.7460011726431
 30
0.0
 10
218.6814104086425
 20
107.7155055866734
 30
0.0
 10
218.5654774702356
 20
107.6449412763096
 30
0.0
 10
218.4813109533552
 20
107.5403446216496
 30
0.0
 10
218.4371110198365
 20
107.4148246814267
 30
0.0
 10
218.4348585129097
 20
107.3041207169379
 30
0.0
 10
218.4515049523571
 20
107.2414372260271
 30
0.0
 10
218.4568429381345
 20
107.2213366162834
 30
0.0
  0
SPLINE
  5
87
330
1F
100
AcDbEntity
  8
0
  6
Continuous
 62
     7
370
    15
100
AcDbSpline
210
0.0
220
0.0
230
1.0
 70
     8
 71
     3
 72
    14
 73
    10
 74
     0
 42
0.00000001
 43
0.00000001
 12
1.0
 22
0.0
 32
0.0
 13
1.0
 23
0.0
 33
0.0
 40
0.0
 40
0.0
 40
0.0
 40
0.0
 40
0.1588491541541899
 40
0.3173320083491827
 40
0.4720146732886414
 40
0.6236417506379675
 40
0.7746599800292303
 40
0.9277409406368271
 40
1.0
 40
1.0
 40
1.0
 40
1.0
 10
232.090131381223
 20
93.58804817319486
 30
0.0
 10
232.1352275647737
 20
93.57851722291619
 30
0.0
 10
232.2253159418334
 20
93.55947730035875
 30
0.0
 10
232.3616563166792
 20
93.58997497539606
 30
0.0
 10
232.4775908858402
 20
93.6605361426907
 30
0.0
 10
232.5617513038878
 20
93.76513651847422
 30
0.0
 10
232.60595798488
 20
93.89065346831708
 30
0.0
 10
232.6082089047316
 20
94.0013588825534
 30
0.0
 10
232.5915625106298
 20
94.06404262540696
 30
0.0
 10
232.5862245649789
 20
94.08414321959589
 30
0.0
  0
LINE
  5
88
330
1F
100
AcDbEntity
  8
0
  6
Continuous
 62
     7
370
    15
100
AcDbLine
 10
229.7562034816
 20
97.672489984
 30
0.0
 11
228.1832071037
 21
102.661402477
 31
0.0
  0
ARC
  5
89
330
1F
100
AcDbEntity
  8
0
  6
Continuous
 62
     7
370
    15
100
AcDbCircle
 10
228.802487693
 20
97.3717850005
 30
0.0
 40
1.000000000000021
100
AcDbArc
 50
252.5
 51
17.5
  0
LINE
  5
8A
330
1F
100
AcDbEntity
  8
0
  6
Continuous
 62
     7
370
    15
100
AcDbLine
 10
223.5128702611
 20
97.9910656345
 30
0.0
 11
228.5017827541
 21
96.4180673939
 31
0.0
  0
ARC
  5
8B
330
1F
100
AcDbEntity
  8
0
  6
Continuous
 62
     7
370
    15
100
AcDbCircle
 10
223.8135760954
 20
98.944782785
 30
0.0
 40
1.000000000000011
100
AcDbArc
 50
197.5
 51
252.5
  0
LINE
  5
8C
330
1F
100
AcDbEntity
  8
0
  6
Continuous
 62
     7
370
    15
100
AcDbLine
 10
221.2868602962
 20
103.6329879892
 30
0.0
 11
222.8598603994
 21
98.6440773588
 31
0.0
  0
ARC
  5
8D
330
1F
100
AcDbEntity
  8
0
  6
Continuous
 62
     7
370
    15
100
AcDbCircle
 10
222.2405783109
 20
103.9336943826
 30
0.0
 40
1.000000000295361
100
AcDbArc
 50
72.5
 51
197.5
  0
LINE
  5
8E
330
1F
100
AcDbEntity
  8
0
  6
Continuous
 62
     7
370
    15
100
AcDbLine
 10
227.530197242
 20
103.3144142014
 30
0.0
 11
222.541284749
 21
104.8874105793
 31
0.0
  0
ARC
  5
8F
330
1F
100
AcDbEntity
  8
0
  6
Continuous
 62
     7
370
    15
100
AcDbCircle
 10
227.2294899085
 20
102.3606965981
 30
0.0
 40
1.000000000000016
100
AcDbArc
 50
17.5
 51
72.5
  0
CIRCLE
  5
90
330
1F
100
AcDbEntity
  8
0
  6
Continuous
 62
     7
370
    15
100
AcDbCircle
 10
225.5215330019
 20
100.6527396915
 30
0.0
 40
3.049999999999998
  0
SPLINE
  5
91
330
1F
100
AcDbEntity
  8
0
  6
Continuous
 62
     7
370
    15
100
AcDbSpline
210
0.0
220
0.0
230
1.0
 70
     8
 71
     3
 72
    11
 73
     7
 74
     0
 42
0.00000001
 43
0.00000001
 12
1.0
 22
0.0
 32
0.0
 13
1.0
 23
0.0
 33
0.0
 40
0.0
 40
0.0
 40
0.0
 40
0.0
 40
0.4125681526185055
 40
0.8731508779241907
 40
0.9926998863052239
 40
1.0
 40
1.0
 40
1.0
 40
1.0
 10
230.7826364428494
 20
95.3916362953243
 30
0.0
 10
230.7134612486745
 20
95.46081375742546
 30
0.0
 10
230.5670602694883
 20
95.60721953640483
 30
0.0
 10
230.4032556784256
 20
95.77100442258904
 30
0.0
 10
230.315965701968
 20
95.85831690676427
 30
0.0
 10
230.2975249638891
 20
95.87674655013527
 30
0.0
 10
230.2964637071584
 20
95.87780716837023
 30
0.0
  0
SPLINE
  5
92
330
1F
100
AcDbEntity
  8
0
  6
Continuous
 62
     7
370
    15
100
AcDbSpline
210
0.0
220
0.0
230
1.0
 70
     8
 71
     3
 72
    11
 73
     7
 74
     0
 42
0.00000001
 43
0.00000001
 12
1.0
 22
0.0
 32
0.0
 13
1.0
 23
0.0
 33
0.0
 40
0.0
 40
0.0
 40
0.0
 40
0.0
 40
0.0072969322688533
 40
0.1268464350192421
 40
0.5874310649662807
 40
1.0
 40
1.0
 40
1.0
 40
1.0
 10
220.7466000706647
 20
105.4276726675091
 30
0.0
 10
220.7455400788749
 20
105.4287333003431
 30
0.0
 10
220.7271136806661
 20
105.447170842162
 30
0.0
 10
220.6397895034631
 20
105.5344619773616
 30
0.0
 10
220.4760146604706
 20
105.6982645827371
 30
0.0
 10
220.3296085821219
 20
105.8446668758942
 30
0.0
 10
220.2604310602639
 20
105.9138426092324
 30
0.0
  0
ELLIPSE
  5
93
330
1F
100
AcDbEntity
  8
0
  6
Continuous
 62
     7
370
    15
100
AcDbEllipse
 10
202.0052293077
 20
112.8280710448
 30
0.0
 11
-0.2087075081668388
 21
2.574926492787625
 31
0.0
210
0.0
220
0.0
230
1.0
 40
0.2355197223
 41
0.0
 42
6.283185307179586
  0
ELLIPSE
  5
94
330
1F
100
AcDbEntity
  8
0
  6
Continuous
 62
     7
370
    15
100
AcDbEllipse
 10
204.5217386012
 20
120.5721493346
 30
0.0
 11
0.0
 21
20.0
 31
0.0
210
0.0
220
0.0
230
1.0
 40
0.2679491924
 41
0.0146477619867486
 42
3.126944891603044
  0
SPLINE
  5
95
330
1F
100
AcDbEntity
  8
0
  6
Continuous
 62
     7
370
    15
100
AcDbSpline
210
0.0
220
0.0
230
1.0
 70
     8
 71
     3
 72
     8
 73
     4
 74
     0
 42
0.00000001
 43
0.00000001
 12
1.0
 22
0.0
 32
0.0
 13
1.0
 23
0.0
 33
0.0
 40
0.0
 40
0.0
 40
0.0
 40
0.0
 40
1.0
 40
1.0
 40
1.0
 40
1.0
 10
204.4432442882666
 20
100.5742948655059
 30
0.0
 10
204.4997681413014
 20
100.5712047006974
 30
0.0
 10
204.6427748025538
 20
100.5721249454655
 30
0.0
 10
204.8347963709357
 20
100.5731830987946
 30
0.0
  0
SPLINE
  5
96
330
1F
100
AcDbEntity
  8
0
  6
Continuous
 62
     7
370
    15
100
AcDbSpline
210
0.0
220
0.0
230
1.0
 70
     8
 71
     3
 72
     8
 73
     4
 74
     0
 42
0.00000001
 43
0.00000001
 12
1.0
 22
0.0
 32
0.0
 13
1.0
 23
0.0
 33
0.0
 40
0.0
 40
0.0
 40
0.0
 40
0.0
 40
1.0
 40
1.0
 40
1.0
 40
1.0
 10
204.8347963709357
 20
140.5711155703167
 30
0.0
 10
204.6427739266856
 20
140.5721737284723
 30
0.0
 10
204.4997684056534
 20
140.573093982866
 30
0.0
 10
204.4432442882666
 20
140.5700038036053
 30
0.0
  0
SPLINE
  5
97
330
1F
100
AcDbEntity
  8
0
  6
Continuous
 62
     7
370
    15
100
AcDbSpline
210
0.0
220
0.0
230
1.0
 70
     8
 71
     3
 72
    12
 73
     8
 74
     0
 42
0.00000001
 43
0.00000001
 12
1.0
 22
0.0
 32
0.0
 13
1.0
 23
0.0
 33
0.0
 40
0.0
 40
0.0
 40
0.0
 40
0.0
 40
0.5000000000000016
 40
0.5000000000000016
 40
0.7500000000000008
 40
0.7500000000000008
 40
1.0
 40
1.0
 40
1.0
 40
1.0
 10
189.2742177397785
 20
101.5373930513737
 30
0.0
 10
189.2930209726302
 20
101.5154710531126
 30
0.0
 10
189.3185576316494
 20
101.4945772451026
 30
0.0
 10
189.3787838055978
 20
101.4668505189849
 30
0.0
 10
189.4027098829978
 20
101.4582773856094
 30
0.0
 10
189.4607708031791
 20
101.4450982798019
 30
0.0
 10
189.4965725018051
 20
101.4404929543222
 30
0.0
 10
189.5340253609138
 20
101.4404929543222
 30
0.0
  0
LINE
  5
98
330
1F
100
AcDbEntity
  8
0
  6
Continuous
 62
     7
370
    15
100
AcDbLine
 10
189.5340252683
 20
101.4404925984
 30
0.0
 11
191.6702212781
 21
101.4404925984
 31
0.0
  0
SPLINE
  5
99
330
1F
100
AcDbEntity
  8
0
  6
Continuous
 62
     7
370
    15
100
AcDbSpline
210
0.0
220
0.0
230
1.0
 70
     8
 71
     3
 72
    12
 73
     8
 74
     0
 42
0.00000001
 43
0.00000001
 12
1.0
 22
0.0
 32
0.0
 13
1.0
 23
0.0
 33
0.0
 40
0.0
 40
0.0
 40
0.0
 40
0.0
 40
0.2499999999999972
 40
0.2499999999999972
 40
0.4999999999999944
 40
0.4999999999999944
 40
1.0
 40
1.0
 40
1.0
 40
1.0
 10
191.6702213569154
 20
101.4404929543222
 30
0.0
 10
191.7077221797932
 20
101.4404929543222
 30
0.0
 10
191.7430005838292
 20
101.4449939221854
 30
0.0
 10
191.8019183038815
 20
101.4583604434027
 30
0.0
 10
191.82544168528
 20
101.4668417036475
 30
0.0
 10
191.8856972697459
 20
101.4945790993254
 30
0.0
 10
191.911218922157
 20
101.5154630983785
 30
0.0
 10
191.9300289780508
 20
101.5373930513737
 30
0.0
  0
ELLIPSE
  5
9A
330
1F
100
AcDbEntity
  8
0
  6
Continuous
 62
     7
370
    15
100
AcDbEllipse
 10
181.6531941865
 20
120.5721493346
 30
0.0
 11
-9.367417879781812
 21
19.74174915274995
 31
0.0
210
0.0
220
0.0
230
1.0
 40
0.3419987131
 41
3.292664382516891
 42
4.239566697060996
  0
SPLINE
  5
9B
330
1F
100
AcDbEntity
  8
0
  6
Continuous
 62
     7
370
    15
100
AcDbSpline
210
0.0
220
0.0
230
1.0
 70
     8
 71
     3
 72
    12
 73
     8
 74
     0
 42
0.00000001
 43
0.00000001
 12
1.0
 22
0.0
 32
0.0
 13
1.0
 23
0.0
 33
0.0
 40
0.0
 40
0.0
 40
0.0
 40
0.0
 40
0.5
 40
0.5
 40
0.75
 40
0.75
 40
1.0
 40
1.0
 40
1.0
 40
1.0
 10
191.9300289780508
 20
114.4339042074964
 30
0.0
 10
191.9112257451991
 20
114.5018845317588
 30
0.0
 10
191.8856890861799
 20
114.5679749195557
 30
0.0
 10
191.8254629122314
 20
114.6570395320028
 30
0.0
 10
191.8015368348314
 20
114.6848406190227
 30
0.0
 10
191.7434759146502
 20
114.7277996922476
 30
0.0
 10
191.7076742160242
 20
114.7429363389039
 30
0.0
 10
191.6702213569154
 20
114.7429363389039
 30
0.0
  0
LINE
  5
9C
330
1F
100
AcDbEntity
  8
0
  6
Continuous
 62
     7
370
    15
100
AcDbLine
 10
191.6702212781
 20
114.7429361475
 30
0.0
 11
189.5340252683
 21
114.7429361475
 31
0.0
  0
SPLINE
  5
9D
330
1F
100
AcDbEntity
  8
0
  6
Continuous
 62
     7
370
    15
100
AcDbSpline
210
0.0
220
0.0
230
1.0
 70
     8
 71
     3
 72
    12
 73
     8
 74
     0
 42
0.00000001
 43
0.00000001
 12
1.0
 22
0.0
 32
0.0
 13
1.0
 23
0.0
 33
0.0
 40
0.0
 40
0.0
 40
0.0
 40
0.0
 40
0.2499999999999992
 40
0.2499999999999992
 40
0.4999999999999984
 40
0.4999999999999984
 40
1.0
 40
1.0
 40
1.0
 40
1.0
 10
189.5340253609138
 20
114.7429363389038
 30
0.0
 10
189.4965245380361
 20
114.7429363389038
 30
0.0
 10
189.4612461340001
 20
114.7281400011507
 30
0.0
 10
189.4023284139477
 20
114.6845697399916
 30
0.0
 10
189.3788050325493
 20
114.6570679414901
 30
0.0
 10
189.3185494480834
 20
114.567968778247
 30
0.0
 10
189.2930277956723
 20
114.5019091994646
 30
0.0
 10
189.2742177397785
 20
114.4339042074964
 30
0.0
  0
ELLIPSE
  5
9E
330
1F
100
AcDbEntity
  8
0
  6
Continuous
 62
     7
370
    15
100
AcDbEllipse
 10
199.5510525314
 20
120.5721493346
 30
0.0
 11
9.367417879781641
 21
19.74174915274995
 31
0.0
210
0.0
220
0.0
230
1.0
 40
0.3419987131
 41
2.043618610118596
 42
2.990520924662726
  0
SPLINE
  5
9F
330
1F
100
AcDbEntity
  8
0
  6
Continuous
 62
     7
370
    15
100
AcDbSpline
210
0.0
220
0.0
230
1.0
 70
     8
 71
     3
 72
    12
 73
     8
 74
     0
 42
0.00000001
 43
0.00000001
 12
1.0
 22
0.0
 32
0.0
 13
1.0
 23
0.0
 33
0.0
 40
0.0
 40
0.0
 40
0.0
 40
0.0
 40
0.5000000000000006
 40
0.5000000000000006
 40
0.7500000000000002
 40
0.7500000000000002
 40
1.0
 40
1.0
 40
1.0
 40
1.0
 10
189.2742177397785
 20
126.7103944616145
 30
0.0
 10
189.2929109729089
 20
126.6428118251742
 30
0.0
 10
189.3185662703207
 20
126.5763292556967
 30
0.0
 10
189.3787268930072
 20
126.4873341727992
 30
0.0
 10
189.4027992047615
 20
126.4593322758
 30
0.0
 10
189.461180725112
 20
126.4162558751349
 30
0.0
 10
189.4966495527651
 20
126.4013623302071
 30
0.0
 10
189.5340253609138
 20
126.4013623302071
 30
0.0
  0
LINE
  5
A0
330
1F
100
AcDbEntity
  8
0
  6
Continuous
 62
     7
370
    15
100
AcDbLine
 10
189.5340252683
 20
126.4013625217
 30
0.0
 11
191.6702212781
 21
126.4013625217
 31
0.0
  0
SPLINE
  5
A1
330
1F
100
AcDbEntity
  8
0
  6
Continuous
 62
     7
370
    15
100
AcDbSpline
210
0.0
220
0.0
230
1.0
 70
     8
 71
     3
 72
    12
 73
     8
 74
     0
 42
0.00000001
 43
0.00000001
 12
1.0
 22
0.0
 32
0.0
 13
1.0
 23
0.0
 33
0.0
 40
0.0
 40
0.0
 40
0.0
 40
0.0
 40
0.2499999999999984
 40
0.2499999999999984
 40
0.4999999999999968
 40
0.4999999999999968
 40
1.0
 40
1.0
 40
1.0
 40
1.0
 10
191.6702213569154
 20
126.4013623302071
 30
0.0
 10
191.7077332429601
 20
126.4013623302071
 30
0.0
 10
191.7430205906648
 20
126.4161671444939
 30
0.0
 10
191.8019504389032
 20
126.4597590176197
 30
0.0
 10
191.8254761653723
 20
126.4872724437057
 30
0.0
 10
191.8857349531404
 20
126.5764041758193
 30
0.0
 10
191.9113297154297
 20
126.6427900264371
 30
0.0
 10
191.9300289780508
 20
126.7103944616145
 30
0.0
  0
ELLIPSE
  5
A2
330
1F
100
AcDbEntity
  8
0
  6
Continuous
 62
     7
370
    15
100
AcDbEllipse
 10
181.6531941865
 20
120.5721493346
 30
0.0
 11
9.367417879781698
 21
19.74174915274995
 31
0.0
210
0.0
220
0.0
230
1.0
 40
0.3419987131
 41
5.185211263708394
 42
6.132113578252549
  0
SPLINE
  5
A3
330
1F
100
AcDbEntity
  8
0
  6
Continuous
 62
     7
370
    15
100
AcDbSpline
210
0.0
220
0.0
230
1.0
 70
     8
 71
     3
 72
    12
 73
     8
 74
     0
 42
0.00000001
 43
0.00000001
 12
1.0
 22
0.0
 32
0.0
 13
1.0
 23
0.0
 33
0.0
 40
0.0
 40
0.0
 40
0.0
 40
0.0
 40
0.5000000000000084
 40
0.5000000000000084
 40
0.7500000000000042
 40
0.7500000000000042
 40
1.0
 40
1.0
 40
1.0
 40
1.0
 10
191.9300289780508
 20
139.6069056177375
 30
0.0
 10
191.9113357449204
 20
139.6286993713654
 30
0.0
 10
191.8856804475085
 20
139.6497195330751
 30
0.0
 10
191.8255198248221
 20
139.6774248790388
 30
0.0
 10
191.8014475130678
 20
139.6860600952322
 30
0.0
 10
191.7430659927172
 20
139.6992747404588
 30
0.0
 10
191.7075971650642
 20
139.7038057147889
 30
0.0
 10
191.6702213569154
 20
139.7038057147889
 30
0.0
  0
LINE
  5
A4
330
1F
100
AcDbEntity
  8
0
  6
Continuous
 62
     7
370
    15
100
AcDbLine
 10
191.6702212781
 20
139.7038060707
 30
0.0
 11
189.5340252683
 21
139.7038060707
 31
0.0
  0
SPLINE
  5
A5
330
1F
100
AcDbEntity
  8
0
  6
Continuous
 62
     7
370
    15
100
AcDbSpline
210
0.0
220
0.0
230
1.0
 70
     8
 71
     3
 72
    12
 73
     8
 74
     0
 42
0.00000001
 43
0.00000001
 12
1.0
 22
0.0
 32
0.0
 13
1.0
 23
0.0
 33
0.0
 40
0.0
 40
0.0
 40
0.0
 40
0.0
 40
0.2500000000000023
 40
0.2500000000000023
 40
0.5000000000000046
 40
0.5000000000000046
 40
1.0
 40
1.0
 40
1.0
 40
1.0
 10
189.5340253609138
 20
139.7038057147889
 30
0.0
 10
189.4965134748692
 20
139.7038057147889
 30
0.0
 10
189.4612261271644
 20
139.6993021705264
 30
0.0
 10
189.402296278926
 20
139.6859289710731
 30
0.0
 10
189.378770552457
 20
139.677444068502
 30
0.0
 10
189.3185117646889
 20
139.6496962646674
 30
0.0
 10
189.2929170023995
 20
139.628706400927
 30
0.0
 10
189.2742177397785
 20
139.6069056177375
 30
0.0
  0
ELLIPSE
  5
A6
330
1F
100
AcDbEntity
  8
0
  6
Continuous
 62
     7
370
    15
100
AcDbEllipse
 10
199.5510525314
 20
120.5721493346
 30
0.0
 11
-9.367417879781586
 21
19.74174915274995
 31
0.0
210
0.0
220
0.0
230
1.0
 40
0.3419987131
 41
0.151071728927075
 42
1.097974043471208
  0
LINE
  5
A7
330
1F
100
AcDbEntity
  8
0
  6
Continuous
 62
     7
370
    15
100
AcDbLine
 10
182.6021233589
 20
100.872149272
 30
0.0
 11
182.6021233589
 21
140.2721493971
 31
0.0
  0
SPLINE
  5
A8
330
1F
100
AcDbEntity
  8
0
  6
Continuous
 62
     7
370
    15
100
AcDbSpline
210
0.0
220
0.0
230
1.0
 70
     8
 71
     3
 72
    18
 73
    14
 74
     0
 42
0.00000001
 43
0.00000001
 12
1.0
 22
0.0
 32
0.0
 13
1.0
 23
0.0
 33
0.0
 40
0.0
 40
0.0
 40
0.0
 40
0.0
 40
0.25
 40
0.25
 40
0.5
 40
0.5
 40
0.625
 40
0.625
 40
0.75
 40
0.75
 40
0.875
 40
0.875
 40
1.0
 40
1.0
 40
1.0
 40
1.0
 10
181.3460390413506
 20
106.7409609518767
 30
0.0
 10
181.3803358608024
 20
106.7400992963949
 30
0.0
 10
181.4181471407796
 20
106.7403508994898
 30
0.0
 10
181.5047195079596
 20
106.7427494121017
 30
0.0
 10
181.5530586380425
 20
106.7449203968336
 30
0.0
 10
181.6423309953649
 20
106.7490152751288
 30
0.0
 10
181.6748724611409
 20
106.7505198930784
 30
0.0
 10
181.7510486609943
 20
106.7534829510466
 30
0.0
 10
181.7942647209888
 20
106.7549702893023
 30
0.0
 10
181.8999540229548
 20
106.756595700626
 30
0.0
 10
181.9649250816694
 20
106.7565534595521
 30
0.0
 10
182.0985854700272
 20
106.7525312862311
 30
0.0
 10
182.1578919233634
 20
106.7489900594076
 30
0.0
 10
182.2071464700394
 20
106.7454233519715
 30
0.0
  0
SPLINE
  5
A9
330
1F
100
AcDbEntity
  8
0
  6
Continuous
 62
     7
370
    15
100
AcDbSpline
210
0.0
220
0.0
230
1.0
 70
     8
 71
     3
 72
    14
 73
    10
 74
     0
 42
0.00000001
 43
0.00000001
 12
1.0
 22
0.0
 32
0.0
 13
1.0
 23
0.0
 33
0.0
 40
0.0
 40
0.0
 40
0.0
 40
0.0
 40
0.1249999999999995
 40
0.1249999999999995
 40
0.249999999999999
 40
0.249999999999999
 40
0.499999999999998
 40
0.499999999999998
 40
1.0
 40
1.0
 40
1.0
 40
1.0
 10
182.2071464700086
 20
106.7454233519905
 30
0.0
 10
182.2186732477259
 20
106.7445886545565
 30
0.0
 10
182.2320260553783
 20
106.7428482402763
 30
0.0
 10
182.2621686279785
 20
106.735600650276
 30
0.0
 10
182.277229153593
 20
106.730253616048
 30
0.0
 10
182.3125755075213
 20
106.7145063458196
 30
0.0
 10
182.3263076072503
 20
106.7046680716583
 30
0.0
 10
182.3596788529414
 20
106.6784640857079
 30
0.0
 10
182.3706192207953
 20
106.6643761843073
 30
0.0
 10
182.3792723458086
 20
106.6516025608189
 30
0.0
  0
LINE
  5
AA
330
1F
100
AcDbEntity
  8
0
  6
Continuous
 62
     7
370
    15
100
AcDbLine
 10
182.402123364
 20
115.0667043869
 30
0.0
 11
182.402123364
 21
106.4823293594
 31
0.0
  0
SPLINE
  5
AB
330
1F
100
AcDbEntity
  8
0
  6
Continuous
 62
     7
370
    15
100
AcDbSpline
210
0.0
220
0.0
230
1.0
 70
     8
 71
     3
 72
    16
 73
    12
 74
     0
 42
0.00000001
 43
0.00000001
 12
1.0
 22
0.0
 32
0.0
 13
1.0
 23
0.0
 33
0.0
 40
0.0
 40
0.0
 40
0.0
 40
0.0
 40
0.5
 40
0.5
 40
0.75
 40
0.75
 40
0.875
 40
0.875
 40
0.9375
 40
0.9375
 40
1.0
 40
1.0
 40
1.0
 40
1.0
 10
182.4021233589146
 20
115.0667045675927
 30
0.0
 10
182.4021233589147
 20
115.1842799486122
 30
0.0
 10
182.3982399337557
 20
115.3029757017134
 30
0.0
 10
182.3734246084811
 20
115.4837331797059
 30
0.0
 10
182.3625851607686
 20
115.5453772564788
 30
0.0
 10
182.3293693787197
 20
115.6347142308201
 30
0.0
 10
182.3159876350909
 20
115.6649737622453
 30
0.0
 10
182.2804779852287
 20
115.6984900062327
 30
0.0
 10
182.2650610187279
 20
115.7066283520388
 30
0.0
 10
182.2333599965793
 20
115.7066129426074
 30
0.0
 10
182.2192137116285
 20
115.6995707052516
 30
0.0
 10
182.2071464700389
 20
115.690429641642
 30
0.0
  0
SPLINE
  5
AC
330
1F
100
AcDbEntity
  8
0
  6
Continuous
 62
     7
370
    15
100
AcDbSpline
210
0.0
220
0.0
230
1.0
 70
     8
 71
     3
 72
    18
 73
    14
 74
     0
 42
0.00000001
 43
0.00000001
 12
1.0
 22
0.0
 32
0.0
 13
1.0
 23
0.0
 33
0.0
 40
0.0
 40
0.0
 40
0.0
 40
0.0
 40
0.125
 40
0.125
 40
0.25
 40
0.25
 40
0.375
 40
0.375
 40
0.5
 40
0.5
 40
0.75
 40
0.75
 40
1.0
 40
1.0
 40
1.0
 40
1.0
 10
182.2071464700451
 20
115.6904296416347
 30
0.0
 10
182.1584418863571
 20
115.6535354024441
 30
0.0
 10
182.0999334035816
 20
115.6240040980182
 30
0.0
 10
181.9682065883117
 20
115.6147681247394
 30
0.0
 10
181.9034485168143
 20
115.6378312992963
 30
0.0
 10
181.7982379146635
 20
115.7053494209437
 30
0.0
 10
181.7550217661434
 20
115.7483605175943
 30
0.0
 10
181.6788434500595
 20
115.8386025395904
 30
0.0
 10
181.6459886177683
 20
115.8862334210657
 30
0.0
 10
181.5556207118073
 20
116.0332977204152
 30
0.0
 10
181.5061980539677
 20
116.1372110457198
 30
0.0
 10
181.4185469283761
 20
116.3483450093602
 30
0.0
 10
181.3804853809856
 20
116.4560677541189
 30
0.0
 10
181.3460390413516
 20
116.5654008700283
 30
0.0
  0
SPLINE
  5
AD
330
1F
100
AcDbEntity
  8
0
  6
Continuous
 62
     7
370
    15
100
AcDbSpline
210
0.0
220
0.0
230
1.0
 70
     8
 71
     3
 72
     8
 73
     4
 74
     0
 42
0.00000001
 43
0.00000001
 12
1.0
 22
0.0
 32
0.0
 13
1.0
 23
0.0
 33
0.0
 40
0.0
 40
0.0
 40
0.0
 40
0.0
 40
1.0
 40
1.0
 40
1.0
 40
1.0
 10
181.2808030153549
 20
116.8006046441572
 30
0.0
 10
181.3002292206538
 20
116.7210123725844
 30
0.0
 10
181.3217260450823
 20
116.6425706264517
 30
0.0
 10
181.3460390413516
 20
116.5654008700283
 30
0.0
  0
SPLINE
  5
AE
330
1F
100
AcDbEntity
  8
0
  6
Continuous
 62
     7
370
    15
100
AcDbSpline
210
0.0
220
0.0
230
1.0
 70
     8
 71
     3
 72
     8
 73
     4
 74
     0
 42
0.00000001
 43
0.00000001
 12
1.0
 22
0.0
 32
0.0
 13
1.0
 23
0.0
 33
0.0
 40
0.0
 40
0.0
 40
0.0
 40
0.0
 40
1.0
 40
1.0
 40
1.0
 40
1.0
 10
181.3460390413516
 20
124.5788977990829
 30
0.0
 10
181.3217260450823
 20
124.5017280426596
 30
0.0
 10
181.3002292206538
 20
124.4232862965268
 30
0.0
 10
181.2808030153549
 20
124.343694024954
 30
0.0
  0
SPLINE
  5
AF
330
1F
100
AcDbEntity
  8
0
  6
Continuous
 62
     7
370
    15
100
AcDbSpline
210
0.0
220
0.0
230
1.0
 70
     8
 71
     3
 72
    18
 73
    14
 74
     0
 42
0.00000001
 43
0.00000001
 12
1.0
 22
0.0
 32
0.0
 13
1.0
 23
0.0
 33
0.0
 40
0.0
 40
0.0
 40
0.0
 40
0.0
 40
0.2499999999999998
 40
0.2499999999999998
 40
0.4999999999999996
 40
0.4999999999999996
 40
0.6249999999999997
 40
0.6249999999999997
 40
0.7499999999999998
 40
0.7499999999999998
 40
0.8749999999999999
 40
0.8749999999999999
 40
1.0
 40
1.0
 40
1.0
 40
1.0
 10
181.3460390413516
 20
124.5788977990828
 30
0.0
 10
181.3803373603643
 20
124.6877610956759
 30
0.0
 10
181.4181517576762
 20
124.7947685189122
 30
0.0
 10
181.5047398187498
 20
125.0038033430505
 30
0.0
 10
181.5530899244285
 20
125.10597343704
 30
0.0
 10
181.6424065132283
 20
125.2526542086048
 30
0.0
 10
181.6749668687166
 20
125.3004559071404
 30
0.0
 10
181.7512125024455
 20
125.3920114451657
 30
0.0
 10
181.7943718722255
 20
125.4356908371577
 30
0.0
 10
181.9001006962436
 20
125.5050450544843
 30
0.0
 10
181.9650978732982
 20
125.5291613681502
 30
0.0
 10
182.0985823632525
 20
125.5209571461119
 30
0.0
 10
182.157909756698
 20
125.49116636052
 30
0.0
 10
182.2071464700394
 20
125.4538690274689
 30
0.0
  0
SPLINE
  5
B0
330
1F
100
AcDbEntity
  8
0
  6
Continuous
 62
     7
370
    15
100
AcDbSpline
210
0.0
220
0.0
230
1.0
 70
     8
 71
     3
 72
    16
 73
    12
 74
     0
 42
0.00000001
 43
0.00000001
 12
1.0
 22
0.0
 32
0.0
 13
1.0
 23
0.0
 33
0.0
 40
0.0
 40
0.0
 40
0.0
 40
0.0
 40
0.0624999999999995
 40
0.0624999999999995
 40
0.1249999999999989
 40
0.1249999999999989
 40
0.2499999999999977
 40
0.2499999999999977
 40
0.4999999999999984
 40
0.4999999999999984
 40
1.0
 40
1.0
 40
1.0
 40
1.0
 10
182.2071464700086
 20
125.4538690274206
 30
0.0
 10
182.2192163032844
 20
125.4447260005747
 30
0.0
 10
182.2334919582177
 20
125.4376815528835
 30
0.0
 10
182.2649563703421
 20
125.4376744809849
 30
0.0
 10
182.2804568951525
 20
125.4458024497819
 30
0.0
 10
182.3158957917594
 20
125.479210910789
 30
0.0
 10
182.3294884078628
 20
125.5098780772512
 30
0.0
 10
182.3624827262556
 20
125.598699071333
 30
0.0
 10
182.3732701195744
 20
125.6596017168809
 30
0.0
 10
182.3983233668535
 20
125.8416097942592
 30
0.0
 10
182.4021233589148
 20
125.9602985092979
 30
0.0
 10
182.4021233589148
 20
126.0775941015184
 30
0.0
  0
LINE
  5
B1
330
1F
100
AcDbEntity
  8
0
  6
Continuous
 62
     7
370
    15
100
AcDbLine
 10
182.402123364
 20
134.6619693098
 30
0.0
 11
182.402123364
 21
126.0775942822
 31
0.0
  0
SPLINE
  5
B2
330
1F
100
AcDbEntity
  8
0
  6
Continuous
 62
     7
370
    15
100
AcDbSpline
210
0.0
220
0.0
230
1.0
 70
     8
 71
     3
 72
    12
 73
     8
 74
     0
 42
0.00000001
 43
0.00000001
 12
1.0
 22
0.0
 32
0.0
 13
1.0
 23
0.0
 33
0.0
 40
0.0
 40
0.0
 40
0.0
 40
0.0
 40
0.5000000000000029
 40
0.5000000000000029
 40
0.7500000000000014
 40
0.7500000000000014
 40
1.0
 40
1.0
 40
1.0
 40
1.0
 10
182.361784029047
 20
134.4707568374263
 30
0.0
 10
182.3516611769659
 20
134.4598230927887
 30
0.0
 10
182.3392983926198
 20
134.4477578059662
 30
0.0
 10
182.3044637894465
 20
134.426408465622
 30
0.0
 10
182.2891065682035
 20
134.4181887893929
 30
0.0
 10
182.2464375260637
 20
134.4038494897633
 30
0.0
 10
182.2240133117039
 20
134.40009670874
 30
0.0
 10
182.2071464700389
 20
134.3988753171397
 30
0.0
  0
SPLINE
  5
B3
330
1F
100
AcDbEntity
  8
0
  6
Continuous
 62
     7
370
    15
100
AcDbSpline
210
0.0
220
0.0
230
1.0
 70
     8
 71
     3
 72
    18
 73
    14
 74
     0
 42
0.00000001
 43
0.00000001
 12
1.0
 22
0.0
 32
0.0
 13
1.0
 23
0.0
 33
0.0
 40
0.0
 40
0.0
 40
0.0
 40
0.0
 40
0.1249999999999998
 40
0.1249999999999998
 40
0.2499999999999997
 40
0.2499999999999997
 40
0.3749999999999995
 40
0.3749999999999995
 40
0.4999999999999993
 40
0.4999999999999993
 40
0.7499999999999997
 40
0.7499999999999997
 40
1.0
 40
1.0
 40
1.0
 40
1.0
 10
182.2071464700451
 20
134.3988753171395
 30
0.0
 10
182.1584423410283
 20
134.3953484675213
 30
0.0
 10
182.0999346718237
 20
134.3918481943237
 30
0.0
 10
181.9682090091929
 20
134.3878052104357
 30
0.0
 10
181.9034513705726
 20
134.3876936358052
 30
0.0
 10
181.7982409539535
 20
134.3892258205666
 30
0.0
 10
181.7550249190133
 20
134.3906809727817
 30
0.0
 10
181.6788466975323
 20
134.3936062343114
 30
0.0
 10
181.6459919298482
 20
134.3951165648197
 30
0.0
 10
181.5556242110064
 20
134.399258557508
 30
0.0
 10
181.506201841817
 20
134.4014966424946
 30
0.0
 10
181.4185493797289
 20
134.403947925541
 30
0.0
 10
181.3804866434945
 20
134.4042031609021
 30
0.0
 10
181.3460390413511
 20
134.4033377172342
 30
0.0
  0
SPLINE
  5
B4
330
1F
100
AcDbEntity
  8
0
  6
Continuous
 62
     7
370
    15
100
AcDbSpline
210
0.0
220
0.0
230
1.0
 70
     8
 71
     3
 72
     8
 73
     4
 74
     0
 42
0.00000001
 43
0.00000001
 12
1.0
 22
0.0
 32
0.0
 13
1.0
 23
0.0
 33
0.0
 40
0.0
 40
0.0
 40
0.0
 40
0.0
 40
1.0
 40
1.0
 40
1.0
 40
1.0
 10
181.1070833809753
 20
117.6256585301918
 30
0.0
 10
181.1578104636978
 20
117.3423074088726
 30
0.0
 10
181.2156977766848
 20
117.0673512247328
 30
0.0
 10
181.280803015355
 20
116.8006046441572
 30
0.0
  0
SPLINE
  5
B5
330
1F
100
AcDbEntity
  8
0
  6
Continuous
 62
     7
370
    15
100
AcDbSpline
210
0.0
220
0.0
230
1.0
 70
     8
 71
     3
 72
    24
 73
    20
 74
     0
 42
0.00000001
 43
0.00000001
 12
1.0
 22
0.0
 32
0.0
 13
1.0
 23
0.0
 33
0.0
 40
0.0
 40
0.0
 40
0.0
 40
0.0
 40
0.2500000000000074
 40
0.2500000000000074
 40
0.3750000000000111
 40
0.3750000000000111
 40
0.4375000000000129
 40
0.4375000000000129
 40
0.4687500000000133
 40
0.4687500000000133
 40
0.5000000000000138
 40
0.5000000000000138
 40
0.562500000000012
 40
0.562500000000012
 40
0.6250000000000101
 40
0.6250000000000101
 40
0.7500000000000067
 40
0.7500000000000067
 40
1.0
 40
1.0
 40
1.0
 40
1.0
 10
180.9021233589064
 20
117.625950938485
 30
0.0
 10
180.9025263882803
 20
117.7192192311146
 30
0.0
 10
180.9045561279954
 20
117.8129767899636
 30
0.0
 10
180.9138648394152
 20
117.9545666756031
 30
0.0
 10
180.9177908325297
 20
118.0017470942124
 30
0.0
 10
180.9287201924457
 20
118.0723431408978
 30
0.0
 10
180.9328418205401
 20
118.0961230546626
 30
0.0
 10
180.9447363417225
 20
118.1295742017097
 30
0.0
 10
180.9500231536763
 20
118.1417291537794
 30
0.0
 10
180.9665910851912
 20
118.1496117927475
 30
0.0
 10
180.9745177939585
 20
118.1420481936454
 30
0.0
 10
180.9915101321837
 20
118.1182557624186
 30
0.0
 10
180.9989078329747
 20
118.0980672845741
 30
0.0
 10
181.0130102233165
 20
118.0576176599543
 30
0.0
 10
181.0191633806087
 20
118.0367619855569
 30
0.0
 10
181.0364771140698
 20
117.9736369502558
 30
0.0
 10
181.0464821549584
 20
117.9306578383543
 30
0.0
 10
181.0748386111891
 20
117.8009321940655
 30
0.0
 10
181.0913871505354
 20
117.7133344669295
 30
0.0
 10
181.1070833809754
 20
117.6256585301918
 30
0.0
  0
SPLINE
  5
B6
330
1F
100
AcDbEntity
  8
0
  6
Continuous
 62
     7
370
    15
100
AcDbSpline
210
0.0
220
0.0
230
1.0
 70
     8
 71
     3
 72
    16
 73
    12
 74
     0
 42
0.00000001
 43
0.00000001
 12
1.0
 22
0.0
 32
0.0
 13
1.0
 23
0.0
 33
0.0
 40
0.0
 40
0.0
 40
0.0
 40
0.0
 40
0.2500000000000001
 40
0.2500000000000001
 40
0.3750000000000001
 40
0.3750000000000001
 40
0.5000000000000001
 40
0.5000000000000001
 40
0.7500000000000002
 40
0.7500000000000002
 40
1.0
 40
1.0
 40
1.0
 40
1.0
 10
180.9021233589146
 20
123.5183477306249
 30
0.0
 10
180.8215865495191
 20
123.0492749037619
 30
0.0
 10
180.761549140717
 20
122.5689112535819
 30
0.0
 10
180.7008111934697
 20
121.831726974441
 30
0.0
 10
180.6854887124268
 20
121.5832085712139
 30
0.0
 10
180.6649057606489
 20
121.0804251260002
 30
0.0
 10
180.6597062136123
 20
120.8255665729755
 30
0.0
 10
180.6596525030721
 20
120.0692892332548
 30
0.0
 10
180.6798498403412
 20
119.5706310339449
 30
0.0
 10
180.7605281474142
 20
118.5842080632007
 30
0.0
 10
180.8215744957554
 20
118.0950939704277
 30
0.0
 10
180.9021233589147
 20
117.6259509384863
 30
0.0
  0
SPLINE
  5
B7
330
1F
100
AcDbEntity
  8
0
  6
Continuous
 62
     7
370
    15
100
AcDbSpline
210
0.0
220
0.0
230
1.0
 70
     8
 71
     3
 72
    24
 73
    20
 74
     0
 42
0.00000001
 43
0.00000001
 12
1.0
 22
0.0
 32
0.0
 13
1.0
 23
0.0
 33
0.0
 40
0.0
 40
0.0
 40
0.0
 40
0.0
 40
0.2500000000000056
 40
0.2500000000000056
 40
0.375000000000007
 40
0.375000000000007
 40
0.4375000000000074
 40
0.4375000000000074
 40
0.5000000000000077
 40
0.5000000000000077
 40
0.5312500000000078
 40
0.5312500000000078
 40
0.562500000000008
 40
0.562500000000008
 40
0.625000000000007
 40
0.625000000000007
 40
0.7500000000000052
 40
0.7500000000000052
 40
1.0
 40
1.0
 40
1.0
 40
1.0
 10
181.1070833809755
 20
123.5186401389194
 30
0.0
 10
181.0913143360657
 20
123.4305574754285
 30
0.0
 10
181.0747001715051
 20
123.342612658919
 30
0.0
 10
181.0461680440117
 20
123.2122652916559
 30
0.0
 10
181.0360804104578
 20
123.1690041138538
 30
0.0
 10
181.0185925876089
 20
123.1055683380184
 30
0.0
 10
181.0123827796826
 20
123.0846542144746
 30
0.0
 10
180.9981049201002
 20
123.0441794227895
 30
0.0
 10
180.9905337577484
 20
123.0237017793303
 30
0.0
 10
180.973113932574
 20
123.0008553997935
 30
0.0
 10
180.9646298501193
 20
122.9943036027498
 30
0.0
 10
180.9485937765019
 20
123.0048749779765
 30
0.0
 10
180.943773404224
 20
123.0169660182605
 30
0.0
 10
180.9323665036182
 20
123.0506092614804
 30
0.0
 10
180.9283455419088
 20
123.0740169407772
 30
0.0
 10
180.9175915301295
 20
123.1446055438382
 30
0.0
 10
180.9137196445069
 20
123.1915705713608
 30
0.0
 10
180.904551679706
 20
123.3321474359668
 30
0.0
 10
180.9025233451928
 20
123.4257836655864
 30
0.0
 10
180.9021233589147
 20
123.5183477306249
 30
0.0
  0
SPLINE
  5
B8
330
1F
100
AcDbEntity
  8
0
  6
Continuous
 62
     7
370
    15
100
AcDbSpline
210
0.0
220
0.0
230
1.0
 70
     8
 71
     3
 72
     8
 73
     4
 74
     0
 42
0.00000001
 43
0.00000001
 12
1.0
 22
0.0
 32
0.0
 13
1.0
 23
0.0
 33
0.0
 40
0.0
 40
0.0
 40
0.0
 40
0.0
 40
1.0
 40
1.0
 40
1.0
 40
1.0
 10
181.280803015355
 20
124.343694024954
 30
0.0
 10
181.2156977766848
 20
124.0769474443784
 30
0.0
 10
181.1578104636978
 20
123.8019912602386
 30
0.0
 10
181.1070833809753
 20
123.5186401389195
 30
0.0
  0
LINE
  5
B9
330
1F
100
AcDbEntity
  8
0
  6
Continuous
 62
     7
370
    15
100
AcDbLine
 10
180.9021233364
 20
117.6259508823
 30
0.0
 11
180.9021233364
 21
116.47094558
 31
0.0
  0
LINE
  5
BA
330
1F
100
AcDbEntity
  8
0
  6
Continuous
 62
     7
370
    15
100
AcDbLine
 10
160.1021224648
 20
124.412068911
 30
0.0
 11
160.1021224648
 21
116.7322297581
 31
0.0
  0
LINE
  5
BB
330
1F
100
AcDbEntity
  8
0
  6
Continuous
 62
     7
370
    15
100
AcDbLine
 10
180.9021233364
 20
124.6733530891
 30
0.0
 11
180.9021233364
 21
123.5183477868
 31
0.0
  0
LINE
  5
BC
330
1F
100
AcDbEntity
  8
0
  6
Continuous
 62
     7
370
    15
100
AcDbLine
 10
158.6021231503
 20
123.9790560678
 30
0.0
 11
158.6021231503
 21
117.1652426013
 31
0.0
  0
LINE
  5
BD
330
1F
100
AcDbEntity
  8
0
  6
Continuous
 62
     7
370
    15
100
AcDbLine
 10
181.1070833371
 20
134.3973340002
 30
0.0
 11
181.3460390565
 21
134.4033373055
 31
0.0
  0
LINE
  5
BE
330
1F
100
AcDbEntity
  8
0
  6
Continuous
 62
     7
370
    15
100
AcDbLine
 10
180.9021233364
 20
106.5520509613
 30
0.0
 11
180.9021233364
 21
116.47094558
 31
0.0
  0
ARC
  5
BF
330
1F
100
AcDbEntity
  8
0
  6
Continuous
 62
     7
370
    15
100
AcDbCircle
 10
181.1020602699
 20
106.5470274389
 30
0.0
 40
0.2000000000000059
100
AcDbArc
 50
88.5608333333
 51
178.5608333333
  0
LINE
  5
C0
330
1F
100
AcDbEntity
  8
0
  6
Continuous
 62
     7
370
    15
100
AcDbLine
 10
160.1021224648
 20
107.0746188518
 30
0.0
 11
160.1021224648
 21
116.7322297581
 31
0.0
  0
LINE
  5
C1
330
1F
100
AcDbEntity
  8
0
  6
Continuous
 62
     7
370
    15
100
AcDbLine
 10
160.1021224648
 20
107.0746188518
 30
0.0
 11
180.9021233364
 21
106.5520509613
 31
0.0
  0
LINE
  5
C2
330
1F
100
AcDbEntity
  8
0
  6
Continuous
 62
     7
370
    15
100
AcDbLine
 10
180.9021233364
 20
124.6733530891
 30
0.0
 11
180.9021233364
 21
134.5922477078
 31
0.0
  0
ARC
  5
C3
330
1F
100
AcDbEntity
  8
0
  6
Continuous
 62
     7
370
    15
100
AcDbCircle
 10
181.1020602699
 20
134.5972712302
 30
0.0
 40
0.2000000000000059
100
AcDbArc
 50
181.4391666667
 51
271.4391666667
  0
LINE
  5
C4
330
1F
100
AcDbEntity
  8
0
  6
Continuous
 62
     7
370
    15
100
AcDbLine
 10
160.1021224648
 20
124.412068911
 30
0.0
 11
160.1021224648
 21
134.0696798173
 31
0.0
  0
LINE
  5
C5
330
1F
100
AcDbEntity
  8
0
  6
Continuous
 62
     7
370
    15
100
AcDbLine
 10
160.1021224648
 20
134.0696798173
 30
0.0
 11
180.9021233364
 21
134.5922477078
 31
0.0
  0
LINE
  5
C6
330
1F
100
AcDbEntity
  8
0
  6
Continuous
 62
     7
370
    15
100
AcDbLine
 10
181.1070833371
 20
106.7469646689
 30
0.0
 11
181.3460390565
 21
106.7409613636
 31
0.0
  0
LINE
  5
C7
330
1F
100
AcDbEntity
  8
0
  6
Continuous
 62
     7
370
    15
100
AcDbLine
 10
158.6021231503
 20
107.9406445381
 30
0.0
 11
160.1021224648
 21
107.0746188518
 31
0.0
  0
LINE
  5
C8
330
1F
100
AcDbEntity
  8
0
  6
Continuous
 62
     7
370
    15
100
AcDbLine
 10
158.6021231503
 20
107.9406445381
 30
0.0
 11
158.6021231503
 21
117.1652426013
 31
0.0
  0
LINE
  5
C9
330
1F
100
AcDbEntity
  8
0
  6
Continuous
 62
     7
370
    15
100
AcDbLine
 10
158.6021231503
 20
133.203654131
 30
0.0
 11
160.1021224648
 21
134.0696798173
 31
0.0
  0
LINE
  5
CA
330
1F
100
AcDbEntity
  8
0
  6
Continuous
 62
     7
370
    15
100
AcDbLine
 10
158.6021231503
 20
123.9790560678
 30
0.0
 11
158.6021231503
 21
133.203654131
 31
0.0
  0
SPLINE
  5
CB
330
1F
100
AcDbEntity
  8
0
  6
Continuous
 62
     7
370
    15
100
AcDbSpline
210
0.0
220
0.0
230
1.0
 70
     8
 71
     3
 72
     8
 73
     4
 74
     0
 42
0.00000001
 43
0.00000001
 12
1.0
 22
0.0
 32
0.0
 13
1.0
 23
0.0
 33
0.0
 40
0.0
 40
0.0
 40
0.0
 40
0.0
 40
1.0
 40
1.0
 40
1.0
 40
1.0
 10
205.2159849492948
 20
140.6454103660894
 30
0.0
 10
205.0895729930517
 20
140.5932823881911
 30
0.0
 10
204.9550323392014
 20
140.5704529984355
 30
0.0
 10
204.8347963709313
 20
140.5711155703085
 30
0.0
  0
SPLINE
  5
CC
330
1F
100
AcDbEntity
  8
0
  6
Continuous
 62
     7
370
    15
100
AcDbSpline
210
0.0
220
0.0
230
1.0
 70
     8
 71
     3
 72
     8
 73
     4
 74
     0
 42
0.00000001
 43
0.00000001
 12
1.0
 22
0.0
 32
0.0
 13
1.0
 23
0.0
 33
0.0
 40
0.0
 40
0.0
 40
0.0
 40
0.0
 40
1.0
 40
1.0
 40
1.0
 40
1.0
 10
204.8347963709357
 20
100.5731830987946
 30
0.0
 10
204.9550068342662
 20
100.5738455301195
 30
0.0
 10
205.089550157805
 20
100.5510256974076
 30
0.0
 10
205.2159849492997
 20
100.4988883030304
 30
0.0
  0
ELLIPSE
  5
CD
330
1F
100
AcDbEntity
  8
0
  6
Continuous
 62
     7
370
    15
100
AcDbEllipse
 10
210.085169267
 20
82.8273662481
 30
0.0
 11
-9.947598300641403E-13
 21
17.12766703280043
 31
0.0
210
-7.220939532589587E-15
220
-4.193858141091961E-28
230
1.0
 40
0.9925461516
 41
5.979891802486598
 42
6.283185307179586
  0
LINE
  5
CE
330
1F
100
AcDbEntity
  8
0
  6
Continuous
 62
     7
370
    15
100
AcDbLine
 10
210.0851694138
 20
99.9550330919
 30
0.0
 11
205.759494567
 21
99.9550330919
 31
0.0
  0
LINE
  5
CF
330
1F
100
AcDbEntity
  8
0
  6
Continuous
 62
     7
370
    15
100
AcDbLine
 10
205.7008212448
 20
141.0699538422
 30
0.0
 11
217.5236800701
 21
141.0699538422
 31
0.0
  0
LINE
  5
D0
330
1F
100
AcDbEntity
  8
0
  6
Continuous
 62
     7
370
    15
100
AcDbLine
 10
229.0427545101
 20
104.5361231548
 30
0.0
 11
217.5236800701
 21
141.0699538422
 31
0.0
  0
LINE
  5
D1
330
1F
100
AcDbEntity
  8
0
  6
Continuous
 62
     7
370
    15
100
AcDbLine
 10
221.1063960583
 20
109.0264064726
 30
0.0
 11
221.8023883194
 21
106.8190015388
 31
0.0
  0
ARC
  5
D2
330
1F
100
AcDbEntity
  8
0
  6
Continuous
 62
     7
370
    15
100
AcDbCircle
 10
219.6601404044
 20
108.5704032172
 30
0.0
 40
1.516442497159269
100
AcDbArc
 50
17.5
 51
197.5
  0
LINE
  5
D3
330
1F
100
AcDbEntity
  8
0
  6
Continuous
 62
     7
370
    15
100
AcDbLine
 10
218.443815598
 20
107.3851450813
 30
0.0
 11
218.2138832302
 21
108.1144004595
 31
0.0
  0
LINE
  5
D4
330
1F
100
AcDbEntity
  8
0
  6
Continuous
 62
     7
370
    15
100
AcDbLine
 10
221.6381477208
 20
97.1315200907
 30
0.0
 11
215.1624755949
 21
99.1732920986
 31
0.0
  0
SPLINE
  5
D5
330
1F
100
AcDbEntity
  8
0
  6
Continuous
 62
     7
370
    15
100
AcDbSpline
210
0.0
220
0.0
230
1.0
 70
     8
 71
     3
 72
    10
 73
     6
 74
     0
 42
0.00000001
 43
0.00000001
 12
1.0
 22
0.0
 32
0.0
 13
1.0
 23
0.0
 33
0.0
 40
0.0
 40
0.0
 40
0.0
 40
0.0
 40
0.5
 40
0.5
 40
1.0
 40
1.0
 40
1.0
 40
1.0
 10
205.7008217747204
 20
141.0699540950664
 30
0.0
 10
205.6458421588058
 20
140.9747164084079
 30
0.0
 10
205.5749208341964
 20
140.8887396317336
 30
0.0
 10
205.4113096925068
 20
140.7456354371189
 30
0.0
 10
205.31649225576
 20
140.6868561502204
 30
0.0
 10
205.215984949294
 20
140.6454103660891
 30
0.0
  0
SPLINE
  5
D6
330
1F
100
AcDbEntity
  8
0
  6
Continuous
 62
     7
370
    15
100
AcDbSpline
210
0.0
220
0.0
230
1.0
 70
     8
 71
     3
 72
    10
 73
     6
 74
     0
 42
0.00000001
 43
0.00000001
 12
1.0
 22
0.0
 32
0.0
 13
1.0
 23
0.0
 33
0.0
 40
0.0
 40
0.0
 40
0.0
 40
0.0
 40
0.5
 40
0.5
 40
1.0
 40
1.0
 40
1.0
 40
1.0
 10
205.2159849492978
 20
100.4988883030205
 30
0.0
 10
205.3379708208586
 20
100.4485854914379
 30
0.0
 10
205.4490196730488
 20
100.3744190272537
 30
0.0
 10
205.6351790970494
 20
100.1881358790681
 30
0.0
 10
205.7090215812505
 20
100.0776413179506
 30
0.0
 10
205.7594943956415
 20
99.9550332809201
 30
0.0
  0
LINE
  5
D7
330
1F
100
AcDbEntity
  8
0
  6
Continuous
 62
     7
370
    15
100
AcDbLine
 10
220.8522865564
 20
108.9462857229
 30
0.0
 11
221.4921759457
 21
106.9168108982
 31
0.0
  0
LINE
  5
D8
330
1F
100
AcDbEntity
  8
0
  6
Continuous
 62
     7
370
    15
100
AcDbLine
 10
218.467992732
 20
108.1945212093
 30
0.0
 11
218.6313951404
 21
107.6762830374
 31
0.0
  0
ARC
  5
D9
330
1F
100
AcDbEntity
  8
0
  6
Continuous
 62
     7
370
    15
100
AcDbCircle
 10
219.6601404044
 20
108.5704032172
 30
0.0
 40
1.250000000000026
100
AcDbArc
 50
17.5
 51
197.5
  0
SPLINE
  5
DA
330
1F
100
AcDbEntity
  8
0
  6
HIDDEN
 62
     7
370
     0
100
AcDbSpline
210
0.0
220
0.0
230
1.0
 70
     8
 71
     3
 72
    68
 73
    64
 74
     0
 42
0.00000001
 43
0.00000001
 12
1.0
 22
0.0
 32
0.0
 13
1.0
 23
0.0
 33
0.0
 40
-0.0624999999999993
 40
-0.0624999999999993
 40
0.0
 40
0.0
 40
0.0312500000000003
 40
0.0312500000000003
 40
0.0625000000000006
 40
0.0625000000000006
 40
0.093750000000001
 40
0.093750000000001
 40
0.1250000000000013
 40
0.1250000000000013
 40
0.1562500000000016
 40
0.1562500000000016
 40
0.1875000000000019
 40
0.1875000000000019
 40
0.2187500000000022
 40
0.2187500000000022
 40
0.2500000000000026
 40
0.2500000000000026
 40
0.2812500000000029
 40
0.2812500000000029
 40
0.3125000000000032
 40
0.3125000000000032
 40
0.3437500000000035
 40
0.3437500000000035
 40
0.3750000000000038
 40
0.3750000000000038
 40
0.4062500000000037
 40
0.4062500000000037
 40
0.4375000000000036
 40
0.4375000000000036
 40
0.4687500000000034
 40
0.4687500000000034
 40
0.5000000000000033
 40
0.5000000000000033
 40
0.5312500000000032
 40
0.5312500000000032
 40
0.5625000000000031
 40
0.5625000000000031
 40
0.593750000000003
 40
0.593750000000003
 40
0.6250000000000028
 40
0.6250000000000028
 40
0.6562500000000027
 40
0.6562500000000027
 40
0.6875000000000026
 40
0.6875000000000026
 40
0.7187500000000023
 40
0.7187500000000023
 40
0.7500000000000021
 40
0.7500000000000021
 40
0.7812500000000019
 40
0.7812500000000019
 40
0.8125000000000017
 40
0.8125000000000017
 40
0.8437500000000014
 40
0.8437500000000014
 40
0.8750000000000011
 40
0.8750000000000011
 40
0.9062500000000009
 40
0.9062500000000009
 40
0.9375000000000007
 40
0.9375000000000007
 40
1.0
 40
1.0
 40
1.03125
 40
1.03125
 10
196.271452846238
 20
125.0096696021985
 30
0.0
 10
196.767458615253
 20
125.0096696021985
 30
0.0
 10
196.9299983576756
 20
125.0256361737528
 30
0.0
 10
197.249725567373
 20
125.0880871474649
 30
0.0
 10
197.4085821439583
 20
125.1353398034926
 30
0.0
 10
197.7112540421872
 20
125.2582974877593
 30
0.0
 10
197.8547818577833
 20
125.3334187005518
 30
0.0
 10
198.1264136367306
 20
125.510376267707
 30
0.0
 10
198.2548982690537
 20
125.6130516447938
 30
0.0
 10
198.4852550250141
 20
125.8365537453771
 30
0.0
 10
198.588682524977
 20
125.9581944335671
 30
0.0
 10
198.7714476015323
 20
126.221443237636
 30
0.0
 10
198.8490139772537
 20
126.3609231043652
 30
0.0
 10
198.97374917025
 20
126.6484632183553
 30
0.0
 10
199.0218295135927
 20
126.7986530262258
 30
0.0
 10
199.086113022404
 20
127.104659851189
 30
0.0
 10
199.1020323499605
 20
127.2578711990347
 30
0.0
 10
199.1022135971467
 20
127.5646244067016
 30
0.0
 10
199.0859495678661
 20
127.7197330431991
 30
0.0
 10
199.022109350067
 20
128.0184620593017
 30
0.0
 10
198.9748758054799
 20
128.1630133714591
 30
0.0
 10
198.8495706392516
 20
128.4426647117726
 30
0.0
 10
198.7713628616264
 20
128.5770334815466
 30
0.0
 10
198.5905109791283
 20
128.8249849368901
 30
0.0
 10
198.4871388154685
 20
128.9402346703427
 30
0.0
 10
198.2540022795913
 20
129.1524018007338
 30
0.0
 10
198.1279122426069
 20
129.2460171208399
 30
0.0
 10
197.8573701062838
 20
129.4096994095096
 30
0.0
 10
197.7111751456967
 20
129.480331840547
 30
0.0
 10
197.408549796747
 20
129.5932825708026
 30
0.0
 10
197.2527272981979
 20
129.6358089947704
 30
0.0
 10
196.9320941259194
 20
129.693359194111
 30
0.0
 10
196.7662889453114
 20
129.708077598044
 30
0.0
 10
196.4398351292016
 20
129.7081874982075
 30
0.0
 10
196.277495526913
 20
129.6940545528974
 30
0.0
 10
195.9546335392584
 20
129.6366247684217
 30
0.0
 10
195.7968928288331
 20
129.5935874555536
 30
0.0
 10
195.4959404961607
 20
129.4815421997655
 30
0.0
 10
195.3504210182209
 20
129.411649604636
 30
0.0
 10
195.0772177623303
 20
129.2467426271724
 30
0.0
 10
194.951387114399
 20
129.1531529239938
 30
0.0
 10
194.7207072908231
 20
128.9437932080371
 30
0.0
 10
194.6150898128841
 20
128.8266415585212
 30
0.0
 10
194.4335454255602
 20
128.5781381387596
 30
0.0
 10
194.3566269685667
 20
128.4463003356825
 30
0.0
 10
194.2307991734421
 20
128.1669001347606
 30
0.0
 10
194.1825389041564
 20
128.0197209741806
 30
0.0
 10
194.1186641353582
 20
127.7220628605902
 30
0.0
 10
194.1022739748924
 20
127.5700200159565
 30
0.0
 10
194.101974789932
 20
127.2593358181518
 30
0.0
 10
194.1180641588468
 20
127.1058905679902
 30
0.0
 10
194.1813795657613
 20
126.8027083132432
 30
0.0
 10
194.2293932332521
 20
126.6513667012852
 30
0.0
 10
194.354648772262
 20
126.361916243496
 30
0.0
 10
194.4313192199104
 20
126.2240328555676
 30
0.0
 10
194.6125290041252
 20
125.9621194541078
 30
0.0
 10
194.7178920502124
 20
125.8377692126313
 30
0.0
 10
194.9480736685267
 20
125.6141414693739
 30
0.0
 10
195.0737390084025
 20
125.5133541045514
 30
0.0
 10
195.3468672428478
 20
125.3348077564581
 30
0.0
 10
195.4919869775677
 20
125.2588575296915
 30
0.0
 10
195.9429372278207
 20
125.0752117051268
 30
0.0
 10
196.271452846238
 20
125.0096696021985
 30
0.0
 10
196.767458615253
 20
125.0096696021985
 30
0.0
  0
SPLINE
  5
DB
330
1F
100
AcDbEntity
  8
0
  6
HIDDEN
 62
     7
370
     0
100
AcDbSpline
210
0.0
220
0.0
230
1.0
 70
     8
 71
     3
 72
    12
 73
     8
 74
     0
 42
0.00000001
 43
0.00000001
 12
1.0
 22
0.0
 32
0.0
 13
1.0
 23
0.0
 33
0.0
 40
0.0
 40
0.0
 40
0.0
 40
0.0
 40
0.4999999999999994
 40
0.4999999999999994
 40
0.7499999999999997
 40
0.7499999999999997
 40
1.0
 40
1.0
 40
1.0
 40
1.0
 10
189.2742177397785
 20
139.6069056177376
 30
0.0
 10
189.2929109729089
 20
139.6286993713656
 30
0.0
 10
189.3185662703207
 20
139.6497195330752
 30
0.0
 10
189.3787268930072
 20
139.6774248790389
 30
0.0
 10
189.4027992047615
 20
139.6860600952323
 30
0.0
 10
189.4611807251121
 20
139.6992747404589
 30
0.0
 10
189.4966495527651
 20
139.703805714789
 30
0.0
 10
189.5340253609138
 20
139.703805714789
 30
0.0
  0
LINE
  5
DC
330
1F
100
AcDbEntity
  8
0
  6
HIDDEN
 62
     7
370
     0
100
AcDbLine
 10
189.5340252683
 20
139.7038060707
 30
0.0
 11
191.6702212781
 21
139.7038060707
 31
0.0
  0
SPLINE
  5
DD
330
1F
100
AcDbEntity
  8
0
  6
HIDDEN
 62
     7
370
     0
100
AcDbSpline
210
0.0
220
0.0
230
1.0
 70
     8
 71
     3
 72
    12
 73
     8
 74
     0
 42
0.00000001
 43
0.00000001
 12
1.0
 22
0.0
 32
0.0
 13
1.0
 23
0.0
 33
0.0
 40
0.0
 40
0.0
 40
0.0
 40
0.0
 40
0.25
 40
0.25
 40
0.5
 40
0.5
 40
1.0
 40
1.0
 40
1.0
 40
1.0
 10
191.6702213569154
 20
139.703805714789
 30
0.0
 10
191.7077332429601
 20
139.703805714789
 30
0.0
 10
191.7430205906648
 20
139.6993021705265
 30
0.0
 10
191.8019504389032
 20
139.6859289710732
 30
0.0
 10
191.8254761653723
 20
139.6774440685021
 30
0.0
 10
191.8857349531404
 20
139.6496962646675
 30
0.0
 10
191.9113297154297
 20
139.6287064009271
 30
0.0
 10
191.9300289780508
 20
139.6069056177376
 30
0.0
  0
ELLIPSE
  5
DE
330
1F
100
AcDbEntity
  8
0
  6
HIDDEN
 62
     7
370
     0
100
AcDbEllipse
 10
181.6531941865
 20
120.5721493346
 30
0.0
 11
9.36741787978184
 21
19.74174915274995
 31
0.0
210
0.0
220
0.0
230
1.0
 40
0.3419987131
 41
5.18521126370841
 42
6.132113578252571
  0
SPLINE
  5
DF
330
1F
100
AcDbEntity
  8
0
  6
HIDDEN
 62
     7
370
     0
100
AcDbSpline
210
0.0
220
0.0
230
1.0
 70
     8
 71
     3
 72
    12
 73
     8
 74
     0
 42
0.00000001
 43
0.00000001
 12
1.0
 22
0.0
 32
0.0
 13
1.0
 23
0.0
 33
0.0
 40
0.0
 40
0.0
 40
0.0
 40
0.0
 40
0.4999999999999978
 40
0.4999999999999978
 40
0.7499999999999989
 40
0.7499999999999989
 40
1.0
 40
1.0
 40
1.0
 40
1.0
 10
191.9300289780508
 20
126.7103944616149
 30
0.0
 10
191.9113357449204
 20
126.6428118251746
 30
0.0
 10
191.8856804475085
 20
126.5763292556971
 30
0.0
 10
191.8255198248221
 20
126.4873341727996
 30
0.0
 10
191.8014475130678
 20
126.4593322758004
 30
0.0
 10
191.7430659927172
 20
126.4162558751353
 30
0.0
 10
191.7075971650642
 20
126.4013623302075
 30
0.0
 10
191.6702213569154
 20
126.4013623302075
 30
0.0
  0
LINE
  5
E0
330
1F
100
AcDbEntity
  8
0
  6
HIDDEN
 62
     7
370
     0
100
AcDbLine
 10
191.6702212781
 20
126.4013625217
 30
0.0
 11
189.5340252683
 21
126.4013625217
 31
0.0
  0
SPLINE
  5
E1
330
1F
100
AcDbEntity
  8
0
  6
HIDDEN
 62
     7
370
     0
100
AcDbSpline
210
0.0
220
0.0
230
1.0
 70
     8
 71
     3
 72
    12
 73
     8
 74
     0
 42
0.00000001
 43
0.00000001
 12
1.0
 22
0.0
 32
0.0
 13
1.0
 23
0.0
 33
0.0
 40
0.0
 40
0.0
 40
0.0
 40
0.0
 40
0.2499999999999993
 40
0.2499999999999993
 40
0.4999999999999987
 40
0.4999999999999987
 40
1.0
 40
1.0
 40
1.0
 40
1.0
 10
189.5340253609138
 20
126.4013623302075
 30
0.0
 10
189.4965134748692
 20
126.4013623302075
 30
0.0
 10
189.4612261271644
 20
126.4161671444943
 30
0.0
 10
189.402296278926
 20
126.4597590176201
 30
0.0
 10
189.378770552457
 20
126.4872724437061
 30
0.0
 10
189.3185117646889
 20
126.5764041758197
 30
0.0
 10
189.2929170023995
 20
126.6427900264376
 30
0.0
 10
189.2742177397785
 20
126.7103944616149
 30
0.0
  0
ELLIPSE
  5
E2
330
1F
100
AcDbEntity
  8
0
  6
HIDDEN
 62
     7
370
     0
100
AcDbEllipse
 10
199.5510525314
 20
120.5721493346
 30
0.0
 11
-9.367417879781669
 21
19.74174915274995
 31
0.0
210
0.0
220
0.0
230
1.0
 40
0.3419987131
 41
0.1510717289270596
 42
1.09797404347119
  0
SPLINE
  5
E3
330
1F
100
AcDbEntity
  8
0
  6
HIDDEN
 62
     7
370
     0
100
AcDbSpline
210
0.0
220
0.0
230
1.0
 70
     8
 71
     3
 72
    12
 73
     8
 74
     0
 42
0.00000001
 43
0.00000001
 12
1.0
 22
0.0
 32
0.0
 13
1.0
 23
0.0
 33
0.0
 40
0.0
 40
0.0
 40
0.0
 40
0.0
 40
0.5000000000000029
 40
0.5000000000000029
 40
0.7500000000000014
 40
0.7500000000000014
 40
1.0
 40
1.0
 40
1.0
 40
1.0
 10
189.2742177397785
 20
114.4339042074966
 30
0.0
 10
189.2929109729089
 20
114.5014868439369
 30
0.0
 10
189.3185662703207
 20
114.5679694134143
 30
0.0
 10
189.3787268930072
 20
114.6569644963119
 30
0.0
 10
189.4027992047615
 20
114.684966393311
 30
0.0
 10
189.461180725112
 20
114.7280427939762
 30
0.0
 10
189.4966495527651
 20
114.742936338904
 30
0.0
 10
189.5340253609138
 20
114.742936338904
 30
0.0
  0
LINE
  5
E4
330
1F
100
AcDbEntity
  8
0
  6
HIDDEN
 62
     7
370
     0
100
AcDbLine
 10
189.5340252683
 20
114.7429361475
 30
0.0
 11
191.6702212781
 21
114.7429361475
 31
0.0
  0
SPLINE
  5
E5
330
1F
100
AcDbEntity
  8
0
  6
HIDDEN
 62
     7
370
     0
100
AcDbSpline
210
0.0
220
0.0
230
1.0
 70
     8
 71
     3
 72
    12
 73
     8
 74
     0
 42
0.00000001
 43
0.00000001
 12
1.0
 22
0.0
 32
0.0
 13
1.0
 23
0.0
 33
0.0
 40
0.0
 40
0.0
 40
0.0
 40
0.0
 40
0.2500000000000012
 40
0.2500000000000012
 40
0.5000000000000023
 40
0.5000000000000023
 40
1.0
 40
1.0
 40
1.0
 40
1.0
 10
191.6702213569154
 20
114.742936338904
 30
0.0
 10
191.7077332429601
 20
114.742936338904
 30
0.0
 10
191.7430205906648
 20
114.7281315246172
 30
0.0
 10
191.8019504389032
 20
114.6845396514913
 30
0.0
 10
191.8254761653723
 20
114.6570262254053
 30
0.0
 10
191.8857349531404
 20
114.5678944932917
 30
0.0
 10
191.9113297154297
 20
114.5015086426739
 30
0.0
 10
191.9300289780508
 20
114.4339042074966
 30
0.0
  0
ELLIPSE
  5
E6
330
1F
100
AcDbEntity
  8
0
  6
HIDDEN
 62
     7
370
     0
100
AcDbEllipse
 10
181.6531941865
 20
120.5721493346
 30
0.0
 11
-9.367417879781755
 21
19.74174915274995
 31
0.0
210
0.0
220
0.0
230
1.0
 40
0.3419987131
 41
3.292664382516903
 42
4.239566697061006
  0
SPLINE
  5
E7
330
1F
100
AcDbEntity
  8
0
  6
HIDDEN
 62
     7
370
     0
100
AcDbSpline
210
0.0
220
0.0
230
1.0
 70
     8
 71
     3
 72
    12
 73
     8
 74
     0
 42
0.00000001
 43
0.00000001
 12
1.0
 22
0.0
 32
0.0
 13
1.0
 23
0.0
 33
0.0
 40
0.0
 40
0.0
 40
0.0
 40
0.0
 40
0.4999999999999998
 40
0.4999999999999998
 40
0.7499999999999999
 40
0.7499999999999999
 40
1.0
 40
1.0
 40
1.0
 40
1.0
 10
191.9300289780508
 20
101.5373930513737
 30
0.0
 10
191.9113357449204
 20
101.5155992977457
 30
0.0
 10
191.8856804475085
 20
101.4945791360361
 30
0.0
 10
191.8255198248221
 20
101.4668737900724
 30
0.0
 10
191.8014475130678
 20
101.458238573879
 30
0.0
 10
191.7430659927172
 20
101.4450239286524
 30
0.0
 10
191.7075971650642
 20
101.4404929543223
 30
0.0
 10
191.6702213569154
 20
101.4404929543223
 30
0.0
  0
LINE
  5
E8
330
1F
100
AcDbEntity
  8
0
  6
HIDDEN
 62
     7
370
     0
100
AcDbLine
 10
191.6702212781
 20
101.4404925984
 30
0.0
 11
189.5340252683
 21
101.4404925984
 31
0.0
  0
SPLINE
  5
E9
330
1F
100
AcDbEntity
  8
0
  6
HIDDEN
 62
     7
370
     0
100
AcDbSpline
210
0.0
220
0.0
230
1.0
 70
     8
 71
     3
 72
    12
 73
     8
 74
     0
 42
0.00000001
 43
0.00000001
 12
1.0
 22
0.0
 32
0.0
 13
1.0
 23
0.0
 33
0.0
 40
0.0
 40
0.0
 40
0.0
 40
0.0
 40
0.2500000000000023
 40
0.2500000000000023
 40
0.5000000000000046
 40
0.5000000000000046
 40
1.0
 40
1.0
 40
1.0
 40
1.0
 10
189.5340253609138
 20
101.4404929543223
 30
0.0
 10
189.4965134748692
 20
101.4404929543223
 30
0.0
 10
189.4612261271644
 20
101.4449964985848
 30
0.0
 10
189.402296278926
 20
101.4583696980381
 30
0.0
 10
189.378770552457
 20
101.4668546006092
 30
0.0
 10
189.3185117646889
 20
101.4946024044438
 30
0.0
 10
189.2929170023995
 20
101.5155922681842
 30
0.0
 10
189.2742177397785
 20
101.5373930513737
 30
0.0
  0
ELLIPSE
  5
EA
330
1F
100
AcDbEntity
  8
0
  6
HIDDEN
 62
     7
370
     0
100
AcDbEllipse
 10
199.5510525314
 20
120.5721493346
 30
0.0
 11
9.367417879781614
 21
19.74174915274995
 31
0.0
210
0.0
220
0.0
230
1.0
 40
0.3419987131
 41
2.043618610118591
 42
2.990520924662722
  0
SPLINE
  5
EB
330
1F
100
AcDbEntity
  8
0
  6
HIDDEN
 62
     7
370
     0
100
AcDbSpline
210
0.0
220
0.0
230
1.0
 70
     8
 71
     3
 72
    58
 73
    54
 74
     0
 42
0.00000001
 43
0.00000001
 12
1.0
 22
0.0
 32
0.0
 13
1.0
 23
0.0
 33
0.0
 40
-0.0624999999999999
 40
-0.0624999999999999
 40
0.0
 40
0.0
 40
0.0312500000000001
 40
0.0312500000000001
 40
0.0625000000000003
 40
0.0625000000000003
 40
0.0937500000000004
 40
0.0937500000000004
 40
0.1250000000000006
 40
0.1250000000000006
 40
0.1875000000000006
 40
0.1875000000000006
 40
0.2500000000000006
 40
0.2500000000000006
 40
0.2812500000000006
 40
0.2812500000000006
 40
0.3125000000000006
 40
0.3125000000000006
 40
0.3437500000000006
 40
0.3437500000000006
 40
0.3750000000000006
 40
0.3750000000000006
 40
0.4062500000000007
 40
0.4062500000000007
 40
0.4375000000000007
 40
0.4375000000000007
 40
0.4687500000000007
 40
0.4687500000000007
 40
0.5000000000000007
 40
0.5000000000000007
 40
0.5625000000000007
 40
0.5625000000000007
 40
0.6250000000000008
 40
0.6250000000000008
 40
0.6562500000000007
 40
0.6562500000000007
 40
0.6875000000000006
 40
0.6875000000000006
 40
0.7187500000000004
 40
0.7187500000000004
 40
0.7500000000000003
 40
0.7500000000000003
 40
0.7812500000000003
 40
0.7812500000000003
 40
0.8125000000000002
 40
0.8125000000000002
 40
0.8437500000000001
 40
0.8437500000000001
 40
0.875
 40
0.875
 40
0.9375000000000001
 40
0.9375000000000001
 40
1.0
 40
1.0
 40
1.03125
 40
1.03125
 10
196.6021233589146
 20
120.3077132201076
 30
0.0
 10
196.6021233589146
 20
120.7043673917796
 30
0.0
 10
196.5891413212424
 20
120.8343595526201
 30
0.0
 10
196.5382905189841
 20
121.0900791650724
 30
0.0
 10
196.4997986149312
 20
121.2171378489335
 30
0.0
 10
196.3993833292048
 20
121.4593010465924
 30
0.0
 10
196.3379471899317
 20
121.5741428309771
 30
0.0
 10
196.1928137136209
 20
121.7914850285473
 30
0.0
 10
196.1083920247698
 20
121.894326676395
 30
0.0
 10
195.8317918506049
 20
122.1708701571466
 30
0.0
 10
195.6087929393379
 20
122.3198527932787
 30
0.0
 10
195.1275584217522
 20
122.5193958568334
 30
0.0
 10
194.8642590062431
 20
122.5720063298649
 30
0.0
 10
194.4726955662029
 20
122.5722203886174
 30
0.0
 10
194.3401079555982
 20
122.5592215392118
 30
0.0
 10
194.0835422499989
 20
122.5081714551854
 30
0.0
 10
193.9588324838184
 20
122.4704002163732
 30
0.0
 10
193.7165932987914
 20
122.3702083082608
 30
0.0
 10
193.5995766450177
 20
122.3076229144362
 30
0.0
 10
193.3829334401714
 20
122.1629178287257
 30
0.0
 10
193.281926683713
 20
122.0802984873455
 30
0.0
 10
193.0951205880563
 20
121.8936544525554
 30
0.0
 10
193.0124070525245
 20
121.7927086045956
 30
0.0
 10
192.8675369231492
 20
121.5762274009138
 30
0.0
 10
192.8048666270525
 20
121.4593102359054
 30
0.0
 10
192.7044386890162
 20
121.2171137667069
 30
0.0
 10
192.6665675100865
 20
121.0924527758035
 30
0.0
 10
192.6153051123108
 20
120.8360534267354
 30
0.0
 10
192.6021714716701
 20
120.7034425014376
 30
0.0
 10
192.6020275385314
 20
120.3117678891025
 30
0.0
 10
192.6543927957961
 20
120.0484838694419
 30
0.0
 10
192.8535534591468
 20
119.5669711555821
 30
0.0
 10
193.0023511325087
 20
119.3438500685372
 30
0.0
 10
193.2786517910949
 20
119.0670179200296
 30
0.0
 10
193.3814168381546
 20
118.9825107057453
 30
0.0
 10
193.5986341119491
 20
118.8371897640594
 30
0.0
 10
193.7134038053868
 20
118.7756675407973
 30
0.0
 10
193.9553903425314
 20
118.6750711375254
 30
0.0
 10
194.0824729154228
 20
118.6364432494367
 30
0.0
 10
194.3381476154261
 20
118.5853651393706
 30
0.0
 10
194.4680881327703
 20
118.5722759996034
 30
0.0
 10
194.7323515005316
 20
118.5720244812448
 30
0.0
 10
194.8625623941785
 20
118.5848989513012
 30
0.0
 10
195.1183123396121
 20
118.6355178484333
 30
0.0
 10
195.2453297239795
 20
118.673865667229
 30
0.0
 10
195.4876814517312
 20
118.7740997874224
 30
0.0
 10
195.6025842310175
 20
118.8354439744124
 30
0.0
 10
195.8200063961665
 20
118.9803489789416
 30
0.0
 10
195.9229427936112
 20
119.0646878710635
 30
0.0
 10
196.1997799507681
 20
119.3410889841053
 30
0.0
 10
196.3489351918323
 20
119.5639326171478
 30
0.0
 10
196.5489057770675
 20
120.0449958983983
 30
0.0
 10
196.6021233589146
 20
120.3077132201076
 30
0.0
 10
196.6021233589146
 20
120.7043673917796
 30
0.0
  0
LINE
  5
EC
330
1F
100
AcDbEntity
  8
0
  6
HIDDEN
 62
     7
370
     0
100
AcDbLine
 10
182.6021233589
 20
100.872149272
 30
0.0
 11
182.6021233589
 21
140.2721493971
 31
0.0
  0
LINE
  5
ED
330
1F
100
AcDbEntity
  8
0
  6
HIDDEN
 62
     7
370
     0
100
AcDbLine
 10
182.6021233589
 20
104.7721500975
 30
0.0
 11
182.6021233589
 21
136.3596576732
 31
0.0
  0
SPLINE
  5
EE
330
1F
100
AcDbEntity
  8
0
  6
HIDDEN
 62
     7
370
     0
100
AcDbSpline
210
0.0
220
0.0
230
1.0
 70
     8
 71
     3
 72
    18
 73
    14
 74
     0
 42
0.00000001
 43
0.00000001
 12
1.0
 22
0.0
 32
0.0
 13
1.0
 23
0.0
 33
0.0
 40
0.0
 40
0.0
 40
0.0
 40
0.0
 40
0.2500000000000007
 40
0.2500000000000007
 40
0.5000000000000013
 40
0.5000000000000013
 40
0.625000000000001
 40
0.625000000000001
 40
0.7500000000000007
 40
0.7500000000000007
 40
0.8750000000000003
 40
0.8750000000000003
 40
1.0
 40
1.0
 40
1.0
 40
1.0
 10
181.3460390413516
 20
130.3965892527069
 30
0.0
 10
181.3803400858844
 20
130.2885790669093
 30
0.0
 10
181.4181603571812
 20
130.1813019788813
 30
0.0
 10
181.504778677642
 20
129.9698052815648
 30
0.0
 10
181.5531500123855
 20
129.8654189313951
 30
0.0
 10
181.642552994504
 20
129.7145440087508
 30
0.0
 10
181.6751502783812
 20
129.6651990057152
 30
0.0
 10
181.7515321823261
 20
129.570593367245
 30
0.0
 10
181.7945706196669
 20
129.5255974324904
 30
0.0
 10
181.9003836524987
 20
129.4546696598325
 30
0.0
 10
181.9654220772298
 20
129.4307231159259
 30
0.0
 10
182.0985741490324
 20
129.4430037799968
 30
0.0
 10
182.1579433294956
 20
129.4763207380016
 30
0.0
 10
182.2071464700394
 20
129.5171556242263
 30
0.0
  0
SPLINE
  5
EF
330
1F
100
AcDbEntity
  8
0
  6
HIDDEN
 62
     7
370
     0
100
AcDbSpline
210
0.0
220
0.0
230
1.0
 70
     8
 71
     3
 72
    16
 73
    12
 74
     0
 42
0.00000001
 43
0.00000001
 12
1.0
 22
0.0
 32
0.0
 13
1.0
 23
0.0
 33
0.0
 40
0.0
 40
0.0
 40
0.0
 40
0.0
 40
0.0624999999999997
 40
0.0624999999999997
 40
0.1249999999999993
 40
0.1249999999999993
 40
0.2499999999999969
 40
0.2499999999999969
 40
0.4999999999999963
 40
0.4999999999999963
 40
1.0
 40
1.0
 40
1.0
 40
1.0
 10
182.2071464700086
 20
129.5171556242558
 30
0.0
 10
182.2192163032844
 20
129.5271726732361
 30
0.0
 10
182.2334919582177
 20
129.5361317802918
 30
0.0
 10
182.2649563703422
 20
129.544002175686
 30
0.0
 10
182.2804568951526
 20
129.5416446850437
 30
0.0
 10
182.3158957917594
 20
129.5246689928657
 30
0.0
 10
182.3294884078628
 20
129.5041205016981
 30
0.0
 10
182.3624827262556
 20
129.4421781746844
 30
0.0
 10
182.3732701195744
 20
129.3957826244792
 30
0.0
 10
182.3983233668535
 20
129.2528465957847
 30
0.0
 10
182.4021233589148
 20
129.1532838788992
 30
0.0
 10
182.4021233589148
 20
129.0515164742527
 30
0.0
  0
LINE
  5
F0
330
1F
100
AcDbEntity
  8
0
  6
HIDDEN
 62
     7
370
     0
100
AcDbLine
 10
182.402123364
 20
112.0927823243
 30
0.0
 11
182.402123364
 21
129.0515163449
 31
0.0
  0
SPLINE
  5
F1
330
1F
100
AcDbEntity
  8
0
  6
HIDDEN
 62
     7
370
     0
100
AcDbSpline
210
0.0
220
0.0
230
1.0
 70
     8
 71
     3
 72
    16
 73
    12
 74
     0
 42
0.00000001
 43
0.00000001
 12
1.0
 22
0.0
 32
0.0
 13
1.0
 23
0.0
 33
0.0
 40
0.0
 40
0.0
 40
0.0
 40
0.0
 40
0.5000000000000014
 40
0.5000000000000014
 40
0.7499999999999999
 40
0.7499999999999999
 40
0.8749999999999992
 40
0.8749999999999992
 40
0.9374999999999996
 40
0.9374999999999996
 40
1.0
 40
1.0
 40
1.0
 40
1.0
 10
182.4021233589146
 20
112.0927821948584
 30
0.0
 10
182.4021233589147
 20
111.9907720412783
 30
0.0
 10
182.3982399337557
 20
111.8912476660251
 30
0.0
 10
182.3734246084811
 20
111.7492625700145
 30
0.0
 10
182.3625851607686
 20
111.702269269444
 30
0.0
 10
182.3293693787197
 20
111.6399765390824
 30
0.0
 10
182.3159876350909
 20
111.6196951067973
 30
0.0
 10
182.2804779852287
 20
111.6026533985968
 30
0.0
 10
182.2650610187279
 20
111.6002671435807
 30
0.0
 10
182.2333599965794
 20
111.6082030734387
 30
0.0
 10
182.2192137116285
 20
111.6171281468133
 30
0.0
 10
182.2071464700389
 20
111.6271430448852
 30
0.0
  0
SPLINE
  5
F2
330
1F
100
AcDbEntity
  8
0
  6
HIDDEN
 62
     7
370
     0
100
AcDbSpline
210
0.0
220
0.0
230
1.0
 70
     8
 71
     3
 72
    18
 73
    14
 74
     0
 42
0.00000001
 43
0.00000001
 12
1.0
 22
0.0
 32
0.0
 13
1.0
 23
0.0
 33
0.0
 40
0.0
 40
0.0
 40
0.0
 40
0.0
 40
0.1250000000000004
 40
0.1250000000000004
 40
0.2500000000000008
 40
0.2500000000000008
 40
0.3750000000000012
 40
0.3750000000000012
 40
0.5000000000000016
 40
0.5000000000000016
 40
0.7500000000000008
 40
0.7500000000000008
 40
1.0
 40
1.0
 40
1.0
 40
1.0
 10
182.2071464700451
 20
111.6271430448926
 30
0.0
 10
182.1584409779029
 20
111.6675649205741
 30
0.0
 10
182.0999308695761
 20
111.7005970420418
 30
0.0
 10
181.968201751284
 20
111.7138741939946
 30
0.0
 10
181.9034428149434
 20
111.6909206070144
 30
0.0
 10
181.7982318420839
 20
111.6218674100949
 30
0.0
 10
181.7550154666439
 20
111.5773997582539
 30
0.0
 10
181.6788369615319
 20
111.4842300988839
 30
0.0
 10
181.6459820001521
 20
111.4350877293231
 30
0.0
 10
181.5556137203183
 20
111.2838779943833
 30
0.0
 10
181.5061904859482
 20
111.177723224855
 30
0.0
 10
181.4185420309001
 20
110.9641416091936
 30
0.0
 10
181.3804828586972
 20
110.8561691779583
 30
0.0
 10
181.3460390413516
 20
110.7477094164043
 30
0.0
  0
SPLINE
  5
F3
330
1F
100
AcDbEntity
  8
0
  6
HIDDEN
 62
     7
370
     0
100
AcDbSpline
210
0.0
220
0.0
230
1.0
 70
     8
 71
     3
 72
     8
 73
     4
 74
     0
 42
0.00000001
 43
0.00000001
 12
1.0
 22
0.0
 32
0.0
 13
1.0
 23
0.0
 33
0.0
 40
0.0
 40
0.0
 40
0.0
 40
0.0
 40
1.0
 40
1.0
 40
1.0
 40
1.0
 10
181.3460390413511
 20
110.7477094164038
 30
0.0
 10
181.3217253374609
 20
110.6711482588537
 30
0.0
 10
181.3002286955048
 20
110.5947228877205
 30
0.0
 10
181.2808030153549
 20
110.5186300169488
 30
0.0
  0
SPLINE
  5
F4
330
1F
100
AcDbEntity
  8
0
  6
HIDDEN
 62
     7
370
     0
100
AcDbSpline
210
0.0
220
0.0
230
1.0
 70
     8
 71
     3
 72
     8
 73
     4
 74
     0
 42
0.00000001
 43
0.00000001
 12
1.0
 22
0.0
 32
0.0
 13
1.0
 23
0.0
 33
0.0
 40
0.0
 40
0.0
 40
0.0
 40
0.0
 40
1.0
 40
1.0
 40
1.0
 40
1.0
 10
181.2808030153549
 20
106.7470853265504
 30
0.0
 10
181.3002284422483
 20
106.7435881229631
 30
0.0
 10
181.3217249962173
 20
106.7415718053209
 30
0.0
 10
181.3460390413516
 20
106.740960951877
 30
0.0
  0
SPLINE
  5
F5
330
1F
100
AcDbEntity
  8
0
  6
HIDDEN
 62
     7
370
     0
100
AcDbSpline
210
0.0
220
0.0
230
1.0
 70
     8
 71
     3
 72
     8
 73
     4
 74
     0
 42
0.00000001
 43
0.00000001
 12
1.0
 22
0.0
 32
0.0
 13
1.0
 23
0.0
 33
0.0
 40
0.0
 40
0.0
 40
0.0
 40
0.0
 40
1.0
 40
1.0
 40
1.0
 40
1.0
 10
182.3792723458086
 20
106.6516025608189
 30
0.0
 10
182.3982092779745
 20
106.6236481234174
 30
0.0
 10
182.4021233589148
 20
106.6035642720611
 30
0.0
 10
182.4021233589148
 20
106.5873374278957
 30
0.0
  0
LINE
  5
F6
330
1F
100
AcDbEntity
  8
0
  6
HIDDEN
 62
     7
370
     0
100
AcDbLine
 10
182.402123364
 20
106.4823293594
 30
0.0
 11
182.402123364
 21
106.5873378423
 31
0.0
  0
LINE
  5
F7
330
1F
100
AcDbEntity
  8
0
  6
HIDDEN
 62
     7
370
     0
100
AcDbLine
 10
182.402123364
 20
134.5569608268
 30
0.0
 11
182.402123364
 21
134.6619693098
 31
0.0
  0
SPLINE
  5
F8
330
1F
100
AcDbEntity
  8
0
  6
HIDDEN
 62
     7
370
     0
100
AcDbSpline
210
0.0
220
0.0
230
1.0
 70
     8
 71
     3
 72
    10
 73
     6
 74
     0
 42
0.00000001
 43
0.00000001
 12
1.0
 22
0.0
 32
0.0
 13
1.0
 23
0.0
 33
0.0
 40
0.0
 40
0.0
 40
0.0
 40
0.0
 40
0.5000000000000007
 40
0.5000000000000007
 40
1.0
 40
1.0
 40
1.0
 40
1.0
 10
182.4021233589146
 20
134.5569612412157
 30
0.0
 10
182.4021233589146
 20
134.5468350410956
 30
0.0
 10
182.4001147798691
 20
134.5350744485419
 30
0.0
 10
182.3889315519637
 20
134.5070932337916
 30
0.0
 10
182.3806304182892
 20
134.4911129194539
 30
0.0
 10
182.361784029047
 20
134.4707568374263
 30
0.0
  0
SPLINE
  5
F9
330
1F
100
AcDbEntity
  8
0
  6
HIDDEN
 62
     7
370
     0
100
AcDbSpline
210
0.0
220
0.0
230
1.0
 70
     8
 71
     3
 72
     8
 73
     4
 74
     0
 42
0.00000001
 43
0.00000001
 12
1.0
 22
0.0
 32
0.0
 13
1.0
 23
0.0
 33
0.0
 40
0.0
 40
0.0
 40
0.0
 40
0.0
 40
1.0
 40
1.0
 40
1.0
 40
1.0
 10
181.3460390413513
 20
134.4033377172342
 30
0.0
 10
181.3217249962171
 20
134.4027268637903
 30
0.0
 10
181.3002284422482
 20
134.4007105461481
 30
0.0
 10
181.2808030153549
 20
134.3972133425608
 30
0.0
  0
SPLINE
  5
FA
330
1F
100
AcDbEntity
  8
0
  6
HIDDEN
 62
     7
370
     0
100
AcDbSpline
210
0.0
220
0.0
230
1.0
 70
     8
 71
     3
 72
     8
 73
     4
 74
     0
 42
0.00000001
 43
0.00000001
 12
1.0
 22
0.0
 32
0.0
 13
1.0
 23
0.0
 33
0.0
 40
0.0
 40
0.0
 40
0.0
 40
0.0
 40
1.0
 40
1.0
 40
1.0
 40
1.0
 10
181.2808030153549
 20
130.6256686521624
 30
0.0
 10
181.3002286955048
 20
130.5495757813907
 30
0.0
 10
181.3217253374609
 20
130.4731504102575
 30
0.0
 10
181.3460390413511
 20
130.3965892527074
 30
0.0
  0
SPLINE
  5
FB
330
1F
100
AcDbEntity
  8
0
  6
HIDDEN
 62
     7
370
     0
100
AcDbSpline
210
0.0
220
0.0
230
1.0
 70
     8
 71
     3
 72
    62
 73
    58
 74
     0
 42
0.00000001
 43
0.00000001
 12
1.0
 22
0.0
 32
0.0
 13
1.0
 23
0.0
 33
0.0
 40
-0.0312499999999998
 40
-0.0312499999999998
 40
0.0
 40
0.0
 40
0.0312500000000002
 40
0.0312500000000002
 40
0.0625000000000003
 40
0.0625000000000003
 40
0.0937500000000005
 40
0.0937500000000005
 40
0.1250000000000006
 40
0.1250000000000006
 40
0.1875000000000008
 40
0.1875000000000008
 40
0.2187500000000008
 40
0.2187500000000008
 40
0.2500000000000008
 40
0.2500000000000008
 40
0.2812500000000008
 40
0.2812500000000008
 40
0.3125000000000007
 40
0.3125000000000007
 40
0.3437500000000007
 40
0.3437500000000007
 40
0.3750000000000007
 40
0.3750000000000007
 40
0.4062500000000007
 40
0.4062500000000007
 40
0.4375000000000007
 40
0.4375000000000007
 40
0.4687500000000007
 40
0.4687500000000007
 40
0.5000000000000007
 40
0.5000000000000007
 40
0.5625000000000007
 40
0.5625000000000007
 40
0.5937500000000004
 40
0.5937500000000004
 40
0.6250000000000002
 40
0.6250000000000002
 40
0.6875000000000002
 40
0.6875000000000002
 40
0.7187500000000003
 40
0.7187500000000003
 40
0.7500000000000003
 40
0.7500000000000003
 40
0.7812500000000003
 40
0.7812500000000003
 40
0.8125000000000004
 40
0.8125000000000004
 40
0.8750000000000003
 40
0.8750000000000003
 40
0.9062500000000003
 40
0.9062500000000003
 40
0.9375000000000002
 40
0.9375000000000002
 40
0.9687500000000002
 40
0.9687500000000002
 40
1.0
 40
1.0
 40
1.03125
 40
1.03125
 10
196.7419649047166
 20
116.5854462601382
 30
0.0
 10
196.4622818131131
 20
116.5854462601382
 30
0.0
 10
196.3249978561556
 20
116.5967346499828
 30
0.0
 10
196.0552621013042
 20
116.6410065454228
 30
0.0
 10
195.9213800822086
 20
116.6745811325031
 30
0.0
 10
195.6676335238106
 20
116.7621256108862
 30
0.0
 10
195.547447862068
 20
116.8158264865716
 30
0.0
 10
195.3199852705542
 20
116.9438032352875
 30
0.0
 10
195.2131700650925
 20
117.0181921651187
 30
0.0
 10
194.9249254677679
 20
117.2649789806068
 30
0.0
 10
194.7688047688667
 20
117.4675881671643
 30
0.0
 10
194.6110893080244
 20
117.8064069975762
 30
0.0
 10
194.5701800789168
 20
117.9272285278725
 30
0.0
 10
194.5158031738945
 20
118.1762933085017
 30
0.0
 10
194.502215706005
 20
118.3034212313251
 30
0.0
 10
194.5020319410173
 20
118.563000456649
 30
0.0
 10
194.5159179772235
 20
118.696428208702
 30
0.0
 10
194.5700050617742
 20
118.9564778633114
 30
0.0
 10
194.6100138178192
 20
119.0845003840873
 30
0.0
 10
194.7163600924015
 20
119.336116145219
 30
0.0
 10
194.781559367319
 20
119.4567236984876
 30
0.0
 10
194.9332667713572
 20
119.6842786090794
 30
0.0
 10
195.0210674459971
 20
119.7927965878416
 30
0.0
 10
195.2144053553605
 20
119.9905116177325
 30
0.0
 10
195.3193537413721
 20
120.0795659261732
 30
0.0
 10
195.5460817513181
 20
120.2375127001913
 30
0.0
 10
195.6688535023002
 20
120.306548668454
 30
0.0
 10
195.9215319745255
 20
120.4171092833623
 30
0.0
 10
196.0525129460262
 20
120.4595960972879
 30
0.0
 10
196.324301317275
 20
120.5174341800873
 30
0.0
 10
196.4635349276092
 20
120.5320951619793
 30
0.0
 10
196.8767187104076
 20
120.5322749168177
 30
0.0
 10
197.1547944551224
 20
120.4729417416038
 30
0.0
 10
197.5348632831536
 20
120.3068500023702
 30
0.0
 10
197.6576315250958
 20
120.2378316920125
 30
0.0
 10
197.884317690982
 20
120.0800190560575
 30
0.0
 10
197.9894857995274
 20
119.9908757819283
 30
0.0
 10
198.2805722952576
 20
119.6931975085849
 30
0.0
 10
198.4345028174857
 20
119.4621950360392
 30
0.0
 10
198.5939344202354
 20
119.0853198756211
 30
0.0
 10
198.6339356177909
 20
118.9575161058852
 30
0.0
 10
198.6880948387204
 20
118.697981683741
 30
0.0
 10
198.7021177452698
 20
118.5646459807375
 30
0.0
 10
198.7021289691065
 20
118.3045609447576
 30
0.0
 10
198.6885880159074
 20
118.1773165939215
 30
0.0
 10
198.6343699292976
 20
117.9282591164471
 30
0.0
 10
198.5934899746913
 20
117.8072240013572
 30
0.0
 10
198.4355218975155
 20
117.467555528867
 30
0.0
 10
198.2794939401606
 20
117.2650889538255
 30
0.0
 10
197.9907468208353
 20
117.0179287359682
 30
0.0
 10
197.8835319861064
 20
116.9433579490775
 30
0.0
 10
197.6566785791565
 20
116.8157938176699
 30
0.0
 10
197.5366610669166
 20
116.7621429109157
 30
0.0
 10
197.2828428594624
 20
116.6745721461048
 30
0.0
 10
197.148975815411
 20
116.6410065320406
 30
0.0
 10
196.8793085735168
 20
116.5967430196443
 30
0.0
 10
196.7419649047166
 20
116.5854462601382
 30
0.0
 10
196.4622818131131
 20
116.5854462601382
 30
0.0
  0
SPLINE
  5
FC
330
1F
100
AcDbEntity
  8
0
  6
HIDDEN
 62
     7
370
     0
100
AcDbSpline
210
0.0
220
0.0
230
1.0
 70
     8
 71
     3
 72
    68
 73
    64
 74
     0
 42
0.00000001
 43
0.00000001
 12
1.0
 22
0.0
 32
0.0
 13
1.0
 23
0.0
 33
0.0
 40
0.0
 40
0.0
 40
0.0
 40
0.0
 40
0.0312499999999995
 40
0.0312499999999995
 40
0.0468749999999993
 40
0.0468749999999993
 40
0.0624999999999991
 40
0.0624999999999991
 40
0.0937499999999989
 40
0.0937499999999989
 40
0.1249999999999987
 40
0.1249999999999987
 40
0.1562499999999985
 40
0.1562499999999985
 40
0.1874999999999983
 40
0.1874999999999983
 40
0.2187499999999981
 40
0.2187499999999981
 40
0.2499999999999979
 40
0.2499999999999979
 40
0.2812499999999977
 40
0.2812499999999977
 40
0.3124999999999976
 40
0.3124999999999976
 40
0.3749999999999976
 40
0.3749999999999976
 40
0.4062499999999978
 40
0.4062499999999978
 40
0.4374999999999981
 40
0.4374999999999981
 40
0.4687499999999983
 40
0.4687499999999983
 40
0.4843749999999984
 40
0.4843749999999984
 40
0.4999999999999986
 40
0.4999999999999986
 40
0.5312499999999986
 40
0.5312499999999986
 40
0.5624999999999984
 40
0.5624999999999984
 40
0.6249999999999986
 40
0.6249999999999986
 40
0.6562499999999988
 40
0.6562499999999988
 40
0.6874999999999989
 40
0.6874999999999989
 40
0.7187499999999991
 40
0.7187499999999991
 40
0.7499999999999993
 40
0.7499999999999993
 40
0.8124999999999996
 40
0.8124999999999996
 40
0.8437499999999997
 40
0.8437499999999997
 40
0.8749999999999998
 40
0.8749999999999998
 40
0.9062499999999999
 40
0.9062499999999999
 40
0.9374999999999999
 40
0.9374999999999999
 40
0.96875
 40
0.96875
 40
1.0
 40
1.0
 40
1.0
 40
1.0
 10
194.8809782472999
 20
114.9520755029444
 30
0.0
 10
194.9619775055549
 20
114.869909968604
 30
0.0
 10
195.056357310432
 20
114.790178586336
 30
0.0
 10
195.2250011176807
 20
114.6669038133869
 30
0.0
 10
195.284821859421
 20
114.625858247521
 30
0.0
 10
195.4128606648014
 20
114.5428295028282
 30
0.0
 10
195.4812125821526
 20
114.5008372358633
 30
0.0
 10
195.6879088600865
 20
114.3807460930826
 30
0.0
 10
195.8324253275096
 20
114.3059429246062
 30
0.0
 10
196.115449609862
 20
114.1819860039257
 30
0.0
 10
196.2583819397726
 20
114.130757312967
 30
0.0
 10
196.5412445227566
 20
114.055427847912
 30
0.0
 10
196.6819826091412
 20
114.0307208081967
 30
0.0
 10
196.9661702171975
 20
114.0104714127362
 30
0.0
 10
197.1102700307377
 20
114.0153513549067
 30
0.0
 10
197.3910537737617
 20
114.0598712995718
 30
0.0
 10
197.5306560234472
 20
114.0998265788208
 30
0.0
 10
197.7987511485091
 20
114.2198128273661
 30
0.0
 10
197.9248763073637
 20
114.2983151606645
 30
0.0
 10
198.1598515356418
 20
114.4982855835566
 30
0.0
 10
198.2623398656981
 20
114.6144275036653
 30
0.0
 10
198.4384718593791
 20
114.878322361158
 30
0.0
 10
198.5098340768593
 20
115.0237231510838
 30
0.0
 10
198.671473808759
 20
115.4767681614118
 30
0.0
 10
198.7090797513299
 20
115.8018173221551
 30
0.0
 10
198.6970212094677
 20
116.2556868244656
 30
0.0
 10
198.6820782959368
 20
116.4026207767263
 30
0.0
 10
198.6375125489592
 20
116.6870310232126
 30
0.0
 10
198.6079075387746
 20
116.8227739256219
 30
0.0
 10
198.5468414395504
 20
117.0720410472098
 30
0.0
 10
198.5145734553199
 20
117.1881478435394
 30
0.0
 10
198.4839090398216
 20
117.326567733827
 30
0.0
 10
198.4767075646248
 20
117.3673156701954
 30
0.0
 10
198.4715356986279
 20
117.4315843335998
 30
0.0
 10
198.4734366134697
 20
117.4553982421438
 30
0.0
 10
198.4911161194486
 20
117.5036935436992
 30
0.0
 10
198.517950436383
 20
117.5040077010626
 30
0.0
 10
198.5756516850696
 20
117.467735468402
 30
0.0
 10
198.6062254483907
 20
117.4314425708685
 30
0.0
 10
198.6826991237507
 20
117.288548460478
 30
0.0
 10
198.7147832084736
 20
117.1452539195035
 30
0.0
 10
198.6884230198032
 20
116.8803138658754
 30
0.0
 10
198.6669739571289
 20
116.7814613116923
 30
0.0
 10
198.5927540653736
 20
116.5717097641832
 30
0.0
 10
198.5391749256762
 20
116.4586737940464
 30
0.0
 10
198.3971276444091
 20
116.2280402357043
 30
0.0
 10
198.3102085585085
 20
116.112211487331
 30
0.0
 10
198.1011085048308
 20
115.8819472668306
 30
0.0
 10
197.9851139756849
 20
115.7742703372992
 30
0.0
 10
197.6047934692479
 20
115.4733019568147
 30
0.0
 10
197.3258557007317
 20
115.3168946415916
 30
0.0
 10
196.9148846808076
 20
115.1546366244429
 30
0.0
 10
196.7764943438594
 20
115.1115268903759
 30
0.0
 10
196.5031833382727
 20
115.0497277719655
 30
0.0
 10
196.3683890687288
 20
115.0306873088495
 30
0.0
 10
196.09739275152
 20
115.0201668538105
 30
0.0
 10
195.9610290981131
 20
115.0286767974545
 30
0.0
 10
195.6876347379574
 20
115.08737690525
 30
0.0
 10
195.5493691962018
 20
115.138662850327
 30
0.0
 10
195.2832928645649
 20
115.3013975319381
 30
0.0
 10
195.1615417987656
 20
115.4100754380854
 30
0.0
 10
194.9536720732539
 20
115.6539824880682
 30
0.0
 10
194.8674186476398
 20
115.7866445668073
 30
0.0
 10
194.7937874738112
 20
115.9278404914087
 30
0.0
  0
SPLINE
  5
FD
330
1F
100
AcDbEntity
  8
0
  6
HIDDEN
 62
     7
370
     0
100
AcDbSpline
210
0.0
220
0.0
230
1.0
 70
     8
 71
     3
 72
    16
 73
    12
 74
     0
 42
0.00000001
 43
0.00000001
 12
1.0
 22
0.0
 32
0.0
 13
1.0
 23
0.0
 33
0.0
 40
0.0
 40
0.0
 40
0.0
 40
0.0
 40
0.2499999999999993
 40
0.2499999999999993
 40
0.3749999999999988
 40
0.3749999999999988
 40
0.4999999999999983
 40
0.4999999999999983
 40
0.7499999999999991
 40
0.7499999999999991
 40
1.0
 40
1.0
 40
1.0
 40
1.0
 10
194.7937874738113
 20
115.9278404914087
 30
0.0
 10
194.7504160696242
 20
115.9274706416966
 30
0.0
 10
194.7130276417105
 20
115.9277508731198
 30
0.0
 10
194.6731010746395
 20
115.9033614068008
 30
0.0
 10
194.6626406173889
 20
115.8907104281223
 30
0.0
 10
194.6501081405669
 20
115.8455577146209
 30
0.0
 10
194.648279820273
 20
115.811634487473
 30
0.0
 10
194.6591601997103
 20
115.674551879259
 30
0.0
 10
194.6879587692472
 20
115.5360823392402
 30
0.0
 10
194.7691673009044
 20
115.2484136146495
 30
0.0
 10
194.8212382132262
 20
115.0985313441444
 30
0.0
 10
194.8809782472997
 20
114.9520755029445
 30
0.0
  0
LWPOLYLINE
  5
FE
330
1F
100
AcDbEntity
  8
0
  6
HIDDEN
 62
     7
370
     0
100
AcDbPolyline
 90
       29
 70
   128
 43
0.0
 10
196.602123791
 20
113.4684924503
 10
197.0694176868
 20
113.517968962
 10
197.5132795066
 20
113.6639160571
 10
197.9114515722
 20
113.8990163338
 10
198.2439691216
 20
114.2114806455
 10
198.4941577554
 20
114.5856408869
 10
198.6494725586
 20
115.0027346332
 10
198.702123949
 20
115.4418471736
 10
198.6494725586
 20
115.8809597139
 10
198.4941577554
 20
116.2980534603
 10
198.2439691216
 20
116.6722137016
 10
197.9114515722
 20
116.9846777805
 10
197.5132795066
 20
117.2197780573
 10
197.0694176868
 20
117.3657256179
 10
196.602123791
 20
117.4152016641
 10
196.1348289639
 20
117.3657256179
 10
195.6909671441
 20
117.2197780573
 10
195.2927950785
 20
116.9846777805
 10
194.9602775291
 20
116.6722137016
 10
194.7100888953
 20
116.2980534603
 10
194.5547750235
 20
115.8809597139
 10
194.5021236331
 20
115.4418471736
 10
194.5547750235
 20
115.0027346332
 10
194.7100888953
 20
114.5856408869
 10
194.9602775291
 20
114.2114806455
 10
195.2927950785
 20
113.8990163338
 10
195.6909671441
 20
113.6639160571
 10
196.1348289639
 20
113.517968962
 10
196.602123791
 20
113.4684924503
  0
LINE
  5
FF
330
1F
100
AcDbEntity
  8
0
  6
HIDDEN
 62
     7
370
     0
100
AcDbLine
 10
182.402123364
 20
106.5873378423
 30
0.0
 11
182.402123364
 21
115.0667043869
 31
0.0
  0
LINE
  5
100
330
1F
100
AcDbEntity
  8
0
  6
HIDDEN
 62
     7
370
     0
100
AcDbLine
 10
182.402123364
 20
126.0775942822
 30
0.0
 11
182.402123364
 21
134.5569608268
 31
0.0
  0
LWPOLYLINE
  5
101
330
1F
100
AcDbEntity
  8
0
  6
HIDDEN
 62
     7
370
     0
100
AcDbPolyline
 90
        9
 70
   128
 43
0.0
 10
194.8809782059
 20
114.9520753418
 10
194.7709908725
 20
114.9297967088
 10
194.6869110704
 20
114.9525400718
 10
194.6308417261
 20
115.0197368582
 10
194.604187274
 20
115.1297060308
 10
194.6076126785
 20
115.2796955314
 10
194.6410341204
 20
115.4659535271
 10
194.7036143408
 20
115.6838187483
 10
194.7937877864
 20
115.9278406297
  0
CIRCLE
  5
102
330
1F
100
AcDbEntity
  8
0
  6
HIDDEN
 62
     7
370
     0
100
AcDbCircle
 10
171.1021233589
 20
120.5721493346
 30
0.0
 40
2.299999999999997
  0
LINE
  5
103
330
1F
100
AcDbEntity
  8
0
  6
HIDDEN
 62
     7
370
     0
100
AcDbLine
 10
159.6291558833
 20
130.1348428708
 30
0.0
 11
159.6291558833
 21
111.0094557983
 31
0.0
  0
LINE
  5
104
330
1F
100
AcDbEntity
  8
0
  6
HIDDEN
 62
     7
370
     0
100
AcDbLine
 10
158.6021231503
 20
110.4164985475
 30
0.0
 11
158.6021231503
 21
130.7151760441
 31
0.0
  0
LINE
  5
105
330
1F
100
AcDbEntity
  8
0
  6
HIDDEN
 62
     7
370
     0
100
AcDbLine
 10
163.1291555256
 20
129.803089006
 30
0.0
 11
163.1291555256
 21
111.3412096632
 31
0.0
  0
LINE
  5
106
330
1F
100
AcDbEntity
  8
0
  6
HIDDEN
 62
     7
370
     0
100
AcDbLine
 10
166.5291553379
 20
129.5721489471
 30
0.0
 11
166.5291553379
 21
111.572149722
 31
0.0
  0
LINE
  5
107
330
1F
100
AcDbEntity
  8
0
  6
HIDDEN
 62
     7
370
     0
100
AcDbLine
 10
161.7291560412
 20
129.5721489471
 30
0.0
 11
161.7291560412
 21
111.572149722
 31
0.0
  0
LINE
  5
108
330
1F
100
AcDbEntity
  8
0
  6
HIDDEN
 62
     7
370
     0
100
AcDbLine
 10
162.7291562051
 20
129.5721489471
 30
0.0
 11
162.7291562051
 21
111.572149722
 31
0.0
  0
SPLINE
  5
109
330
1F
100
AcDbEntity
  8
0
  6
HIDDEN
 62
     7
370
     0
100
AcDbSpline
210
0.0
220
0.0
230
1.0
 70
     8
 71
     3
 72
    14
 73
    10
 74
     0
 42
0.00000001
 43
0.00000001
 12
1.0
 22
0.0
 32
0.0
 13
1.0
 23
0.0
 33
0.0
 40
0.0
 40
0.0
 40
0.0
 40
0.0
 40
0.25
 40
0.25
 40
0.5
 40
0.5
 40
0.75
 40
0.75
 40
1.0
 40
1.0
 40
1.0
 40
1.0
 10
173.1021233589146
 20
121.7079310037157
 30
0.0
 10
173.2003477054176
 20
121.5349675739121
 30
0.0
 10
173.2756625434017
 20
121.3499350194877
 30
0.0
 10
173.376629253596
 20
120.9669228053533
 30
0.0
 10
173.4020048398862
 20
120.7722042518876
 30
0.0
 10
173.4022410651525
 20
120.3748289506221
 30
0.0
 10
173.376537995817
 20
120.1773366161467
 30
0.0
 10
173.2762178823005
 20
119.7961647815156
 30
0.0
 10
173.2003260542129
 20
119.6092929695431
 30
0.0
 10
173.1021233589192
 20
119.4363676653932
 30
0.0
  0
LINE
  5
10A
330
1F
100
AcDbEntity
  8
0
  6
HIDDEN
 62
     7
370
     0
100
AcDbLine
 10
173.6021237463
 20
129.0721497965
 30
0.0
 11
173.6021237463
 21
112.0721488726
 31
0.0
  0
SPLINE
  5
10B
330
1F
100
AcDbEntity
  8
0
  6
HIDDEN
 62
     7
370
     0
100
AcDbSpline
210
0.0
220
0.0
230
1.0
 70
     8
 71
     3
 72
    14
 73
    10
 74
     0
 42
0.00000001
 43
0.00000001
 12
1.0
 22
0.0
 32
0.0
 13
1.0
 23
0.0
 33
0.0
 40
0.0
 40
0.0
 40
0.0
 40
0.0
 40
0.25
 40
0.25
 40
0.5
 40
0.5
 40
0.75
 40
0.75
 40
1.0
 40
1.0
 40
1.0
 40
1.0
 10
173.1021233589146
 20
119.4363676653956
 30
0.0
 10
173.2003477054176
 20
119.6093310951991
 30
0.0
 10
173.2756625434017
 20
119.7943636496235
 30
0.0
 10
173.376629253596
 20
120.1773758637579
 30
0.0
 10
173.4020048398862
 20
120.3720944172236
 30
0.0
 10
173.4022410651525
 20
120.7694697184891
 30
0.0
 10
173.376537995817
 20
120.9669620529645
 30
0.0
 10
173.2762178823005
 20
121.3481338875956
 30
0.0
 10
173.2003260542129
 20
121.5350056995681
 30
0.0
 10
173.1021233589192
 20
121.707931003718
 30
0.0
  0
SPLINE
  5
10C
330
1F
100
AcDbEntity
  8
0
  6
HIDDEN
 62
     7
370
     0
100
AcDbSpline
210
0.0
220
0.0
230
1.0
 70
     8
 71
     3
 72
    60
 73
    56
 74
     0
 42
0.00000001
 43
0.00000001
 12
1.0
 22
0.0
 32
0.0
 13
1.0
 23
0.0
 33
0.0
 40
0.0
 40
0.0
 40
0.0
 40
0.0
 40
0.0624999999999997
 40
0.0624999999999997
 40
0.1249999999999993
 40
0.1249999999999993
 40
0.187499999999999
 40
0.187499999999999
 40
0.2187499999999988
 40
0.2187499999999988
 40
0.2499999999999987
 40
0.2499999999999987
 40
0.3124999999999988
 40
0.3124999999999988
 40
0.3749999999999989
 40
0.3749999999999989
 40
0.4062499999999989
 40
0.4062499999999989
 40
0.437499999999999
 40
0.437499999999999
 40
0.4687499999999991
 40
0.4687499999999991
 40
0.4999999999999991
 40
0.4999999999999991
 40
0.5312499999999991
 40
0.5312499999999991
 40
0.5624999999999992
 40
0.5624999999999992
 40
0.5937499999999992
 40
0.5937499999999992
 40
0.6249999999999993
 40
0.6249999999999993
 40
0.6562499999999993
 40
0.6562499999999993
 40
0.6874999999999994
 40
0.6874999999999994
 40
0.7187499999999994
 40
0.7187499999999994
 40
0.7499999999999996
 40
0.7499999999999996
 40
0.7812499999999996
 40
0.7812499999999996
 40
0.8124999999999997
 40
0.8124999999999997
 40
0.8437499999999997
 40
0.8437499999999997
 40
0.8749999999999998
 40
0.8749999999999998
 40
0.9062499999999998
 40
0.9062499999999998
 40
0.9374999999999999
 40
0.9374999999999999
 40
0.9687499999999999
 40
0.9687499999999999
 40
1.0
 40
1.0
 40
1.0
 40
1.0
 10
173.1021233589146
 20
119.4363676653956
 30
0.0
 10
172.9769334573359
 20
119.21592054078
 30
0.0
 10
172.8200661387678
 20
119.0221868119596
 30
0.0
 10
172.4430286189489
 20
118.6864971131972
 30
0.0
 10
172.231315312528
 20
118.5525197548845
 30
0.0
 10
171.7654253305792
 20
118.3553930101993
 30
0.0
 10
171.5195860995276
 20
118.2961755979775
 30
0.0
 10
171.140105046433
 20
118.2689688620868
 30
0.0
 10
171.0123593177391
 20
118.2704621272287
 30
0.0
 10
170.761893071071
 20
118.2939779330376
 30
0.0
 10
170.6380636882627
 20
118.3158971518418
 30
0.0
 10
170.2708440141641
 20
118.4127337166867
 30
0.0
 10
170.0400749960784
 20
118.5165348381385
 30
0.0
 10
169.6201860346589
 20
118.7952533190665
 30
0.0
 10
169.4359276597713
 20
118.9668156105703
 30
0.0
 10
169.205179272288
 20
119.265462971837
 30
0.0
 10
169.136132422499
 20
119.3719305123393
 30
0.0
 10
169.0175677586935
 20
119.5922138607323
 30
0.0
 10
168.9673593899439
 20
119.7068753771337
 30
0.0
 10
168.8855275375861
 20
119.9455560139105
 30
0.0
 10
168.8541766387034
 20
120.0696016407886
 30
0.0
 10
168.8127822606648
 20
120.3177166768969
 30
0.0
 10
168.8022764856005
 20
120.4429543793854
 30
0.0
 10
168.8019735332647
 20
120.6958334349764
 30
0.0
 10
168.8124580628813
 20
120.823713121213
 30
0.0
 10
168.8535981403428
 20
121.0721351824185
 30
0.0
 10
168.8841762608913
 20
121.1939341091869
 30
0.0
 10
168.9654589692426
 20
121.4327136386612
 30
0.0
 10
169.0164598558046
 20
121.5497552009679
 30
0.0
 10
169.1350269041676
 20
121.7705803988938
 30
0.0
 10
169.2029156574393
 20
121.8755187624566
 30
0.0
 10
169.356066095177
 20
122.0744960956859
 30
0.0
 10
169.4416222667495
 20
122.1685042208801
 30
0.0
 10
169.6243336377087
 20
122.3389969058168
 30
0.0
 10
169.7221409373906
 20
122.4164351008662
 30
0.0
 10
169.9309440493076
 20
122.5556009967545
 30
0.0
 10
170.0425262245954
 20
122.6173828057615
 30
0.0
 10
170.2711720240945
 20
122.7204616763623
 30
0.0
 10
170.3891268350656
 20
122.7624657115579
 30
0.0
 10
170.6324552800543
 20
122.8272018328547
 30
0.0
 10
170.7587991553974
 20
122.8498750954174
 30
0.0
 10
171.0099051364152
 20
122.8737578915985
 30
0.0
 10
171.1355871301382
 20
122.8753611928652
 30
0.0
 10
171.38720919993
 20
122.8578944540943
 30
0.0
 10
171.5141068202157
 20
122.8384585634544
 30
0.0
 10
171.7592973864769
 20
122.7798653921307
 30
0.0
 10
171.8784865435104
 20
122.7408025409741
 30
0.0
 10
172.1101715678652
 20
122.6432928188503
 30
0.0
 10
172.2233463722157
 20
122.5842574645617
 30
0.0
 10
172.4354247891514
 20
122.4504537477222
 30
0.0
 10
172.5352135678523
 20
122.3754585315774
 30
0.0
 10
172.7224717548412
 20
122.2092634670566
 30
0.0
 10
172.8103667917846
 20
122.1173692683151
 30
0.0
 10
172.9685878674165
 20
121.9220050706007
 30
0.0
 10
173.0395258237081
 20
121.8181591169283
 30
0.0
 10
173.1021233589146
 20
121.7079310037157
 30
0.0
  0
SPLINE
  5
10D
330
1F
100
AcDbEntity
  8
0
  6
HIDDEN
 62
     7
370
     0
100
AcDbSpline
210
0.0
220
0.0
230
1.0
 70
     8
 71
     3
 72
    60
 73
    56
 74
     0
 42
0.00000001
 43
0.00000001
 12
1.0
 22
0.0
 32
0.0
 13
1.0
 23
0.0
 33
0.0
 40
0.0
 40
0.0
 40
0.0
 40
0.0
 40
0.0624999999999997
 40
0.0624999999999997
 40
0.1249999999999993
 40
0.1249999999999993
 40
0.187499999999999
 40
0.187499999999999
 40
0.2187499999999988
 40
0.2187499999999988
 40
0.2499999999999987
 40
0.2499999999999987
 40
0.3124999999999988
 40
0.3124999999999988
 40
0.3749999999999989
 40
0.3749999999999989
 40
0.4062499999999989
 40
0.4062499999999989
 40
0.437499999999999
 40
0.437499999999999
 40
0.4687499999999991
 40
0.4687499999999991
 40
0.4999999999999991
 40
0.4999999999999991
 40
0.5312499999999991
 40
0.5312499999999991
 40
0.5624999999999992
 40
0.5624999999999992
 40
0.5937499999999992
 40
0.5937499999999992
 40
0.6249999999999993
 40
0.6249999999999993
 40
0.6562499999999993
 40
0.6562499999999993
 40
0.6874999999999994
 40
0.6874999999999994
 40
0.7187499999999994
 40
0.7187499999999994
 40
0.7499999999999996
 40
0.7499999999999996
 40
0.7812499999999996
 40
0.7812499999999996
 40
0.8124999999999997
 40
0.8124999999999997
 40
0.8437499999999997
 40
0.8437499999999997
 40
0.8749999999999998
 40
0.8749999999999998
 40
0.9062499999999998
 40
0.9062499999999998
 40
0.9374999999999999
 40
0.9374999999999999
 40
0.9687499999999999
 40
0.9687499999999999
 40
1.0
 40
1.0
 40
1.0
 40
1.0
 10
173.1021233589146
 20
121.7079310037157
 30
0.0
 10
172.9769334573359
 20
121.9283781283312
 30
0.0
 10
172.8200661387678
 20
122.1221118571516
 30
0.0
 10
172.4430286189489
 20
122.457801555914
 30
0.0
 10
172.231315312528
 20
122.5917789142268
 30
0.0
 10
171.7654253305792
 20
122.7889056589119
 30
0.0
 10
171.5195860995276
 20
122.8481230711338
 30
0.0
 10
171.140105046433
 20
122.8753298070244
 30
0.0
 10
171.0123593177391
 20
122.8738365418826
 30
0.0
 10
170.761893071071
 20
122.8503207360736
 30
0.0
 10
170.6380636882627
 20
122.8284015172694
 30
0.0
 10
170.2708440141641
 20
122.7315649524245
 30
0.0
 10
170.0400749960784
 20
122.6277638309727
 30
0.0
 10
169.6201860346589
 20
122.3490453500447
 30
0.0
 10
169.4359276597713
 20
122.177483058541
 30
0.0
 10
169.205179272288
 20
121.8788356972742
 30
0.0
 10
169.136132422499
 20
121.7723681567719
 30
0.0
 10
169.0175677586935
 20
121.5520848083789
 30
0.0
 10
168.9673593899439
 20
121.4374232919775
 30
0.0
 10
168.8855275375861
 20
121.1987426552007
 30
0.0
 10
168.8541766387034
 20
121.0746970283226
 30
0.0
 10
168.8127822606648
 20
120.8265819922143
 30
0.0
 10
168.8022764856005
 20
120.7013442897258
 30
0.0
 10
168.8019735332647
 20
120.4484652341348
 30
0.0
 10
168.8124580628813
 20
120.3205855478982
 30
0.0
 10
168.8535981403428
 20
120.0721634866927
 30
0.0
 10
168.8841762608913
 20
119.9503645599244
 30
0.0
 10
168.9654589692426
 20
119.71158503045
 30
0.0
 10
169.0164598558046
 20
119.5945434681433
 30
0.0
 10
169.1350269041676
 20
119.3737182702174
 30
0.0
 10
169.2029156574393
 20
119.2687799066547
 30
0.0
 10
169.356066095177
 20
119.0698025734253
 30
0.0
 10
169.4416222667495
 20
118.9757944482311
 30
0.0
 10
169.6243336377087
 20
118.8053017632944
 30
0.0
 10
169.7221409373906
 20
118.727863568245
 30
0.0
 10
169.9309440493076
 20
118.5886976723567
 30
0.0
 10
170.0425262245954
 20
118.5269158633497
 30
0.0
 10
170.2711720240945
 20
118.423836992749
 30
0.0
 10
170.3891268350656
 20
118.3818329575533
 30
0.0
 10
170.6324552800543
 20
118.3170968362565
 30
0.0
 10
170.7587991553974
 20
118.2944235736938
 30
0.0
 10
171.0099051364152
 20
118.2705407775127
 30
0.0
 10
171.1355871301382
 20
118.268937476246
 30
0.0
 10
171.38720919993
 20
118.2864042150169
 30
0.0
 10
171.5141068202157
 20
118.3058401056569
 30
0.0
 10
171.7592973864769
 20
118.3644332769805
 30
0.0
 10
171.8784865435104
 20
118.4034961281371
 30
0.0
 10
172.1101715678652
 20
118.5010058502609
 30
0.0
 10
172.2233463722157
 20
118.5600412045495
 30
0.0
 10
172.4354247891514
 20
118.693844921389
 30
0.0
 10
172.5352135678523
 20
118.7688401375338
 30
0.0
 10
172.7224717548412
 20
118.9350352020546
 30
0.0
 10
172.8103667917846
 20
119.0269294007961
 30
0.0
 10
172.9685878674165
 20
119.2222935985105
 30
0.0
 10
173.0395258237081
 20
119.3261395521829
 30
0.0
 10
173.1021233589146
 20
119.4363676653956
 30
0.0
  0
LINE
  5
10E
330
1F
100
AcDbEntity
  8
0
  6
HIDDEN
 62
     7
370
     0
100
AcDbLine
 10
174.5021231488
 20
126.8221494277
 30
0.0
 11
174.5021231488
 21
114.3221492414
 31
0.0
  0
LINE
  5
10F
330
1F
100
AcDbEntity
  8
0
  6
HIDDEN
 62
     7
370
     0
100
AcDbLine
 10
173.6021237463
 20
113.4221493733
 30
0.0
 11
173.6021237463
 21
127.7095918079
 31
0.0
  0
LINE
  5
110
330
1F
100
AcDbEntity
  8
0
  6
HIDDEN
 62
     7
370
     0
100
AcDbLine
 10
199.5867444218
 20
114.3221492414
 30
0.0
 11
199.5867444218
 21
126.8221494277
 31
0.0
  0
SPLINE
  5
111
330
1F
100
AcDbEntity
  8
0
  6
HIDDEN
 62
     7
370
     0
100
AcDbSpline
210
0.0
220
0.0
230
1.0
 70
     8
 71
     3
 72
    62
 73
    58
 74
     0
 42
0.00000001
 43
0.00000001
 12
1.0
 22
0.0
 32
0.0
 13
1.0
 23
0.0
 33
0.0
 40
-0.03125
 40
-0.03125
 40
0.0
 40
0.0
 40
0.03125
 40
0.03125
 40
0.0624999999999999
 40
0.0624999999999999
 40
0.0937499999999999
 40
0.0937499999999999
 40
0.1249999999999999
 40
0.1249999999999999
 40
0.1874999999999996
 40
0.1874999999999996
 40
0.2187499999999995
 40
0.2187499999999995
 40
0.2499999999999995
 40
0.2499999999999995
 40
0.2812499999999995
 40
0.2812499999999995
 40
0.3124999999999994
 40
0.3124999999999994
 40
0.3437499999999994
 40
0.3437499999999994
 40
0.3749999999999994
 40
0.3749999999999994
 40
0.4062499999999994
 40
0.4062499999999994
 40
0.4374999999999993
 40
0.4374999999999993
 40
0.4687499999999993
 40
0.4687499999999993
 40
0.4999999999999993
 40
0.4999999999999993
 40
0.5624999999999993
 40
0.5624999999999993
 40
0.5937499999999993
 40
0.5937499999999993
 40
0.6249999999999994
 40
0.6249999999999994
 40
0.6874999999999996
 40
0.6874999999999996
 40
0.7187499999999998
 40
0.7187499999999998
 40
0.75
 40
0.75
 40
0.7812500000000001
 40
0.7812500000000001
 40
0.8125000000000001
 40
0.8125000000000001
 40
0.8750000000000001
 40
0.8750000000000001
 40
0.9062500000000001
 40
0.9062500000000001
 40
0.9375
 40
0.9375
 40
0.96875
 40
0.96875
 40
1.0
 40
1.0
 40
1.03125
 40
1.03125
 10
196.462281813113
 20
120.6121434016722
 30
0.0
 10
196.7419649047165
 20
120.6121434016722
 30
0.0
 10
196.879248861674
 20
120.6268407592434
 30
0.0
 10
197.1489846165254
 20
120.6839946190453
 30
0.0
 10
197.2828666356209
 20
120.7272015788541
 30
0.0
 10
197.5366131940189
 20
120.8383383700376
 30
0.0
 10
197.6567988557615
 20
120.9059295864717
 30
0.0
 10
197.8842614472754
 20
121.0641983319802
 30
0.0
 10
197.991076652737
 20
121.154968537678
 30
0.0
 10
198.2793212500617
 20
121.449985060077
 30
0.0
 10
198.4354419489629
 20
121.6844945012127
 30
0.0
 10
198.5931574098051
 20
122.0570568506224
 30
0.0
 10
198.6340666389127
 20
122.1870278252691
 30
0.0
 10
198.688443543935
 20
122.4483739877752
 30
0.0
 10
198.7020310118245
 20
122.5786517980723
 30
0.0
 10
198.7022147768122
 20
122.8382732594798
 30
0.0
 10
198.688328740606
 20
122.9684830385017
 30
0.0
 10
198.6342416560553
 20
123.2163166099563
 30
0.0
 10
198.5942329000104
 20
123.3353828619818
 30
0.0
 10
198.487886625428
 20
123.5642406169635
 30
0.0
 10
198.4226873505106
 20
123.6713036920427
 30
0.0
 10
198.2709799464724
 20
123.869369525301
 30
0.0
 10
198.1831792718324
 20
123.9617093720927
 30
0.0
 10
197.9898413624691
 20
124.1270879556564
 30
0.0
 10
197.8848929764575
 20
124.2000575966027
 30
0.0
 10
197.6581649665114
 20
124.3277853685172
 30
0.0
 10
197.5353932155294
 20
124.3826382329926
 30
0.0
 10
197.282714743304
 20
124.4697254265801
 30
0.0
 10
197.1517337718034
 20
124.5027426418159
 30
0.0
 10
196.8799454005545
 20
124.5475467193213
 30
0.0
 10
196.7407117902203
 20
124.5588061182858
 30
0.0
 10
196.327528007422
 20
124.5589445578725
 30
0.0
 10
196.0494522627072
 20
124.5136995468085
 30
0.0
 10
195.669383434676
 20
124.3828777778134
 30
0.0
 10
195.5466151927338
 20
124.3280401682094
 30
0.0
 10
195.3199290268475
 20
124.2004271778049
 30
0.0
 10
195.2147609183021
 20
124.1273926063518
 30
0.0
 10
194.9236744225719
 20
123.8783997077424
 30
0.0
 10
194.7697439003439
 20
123.6788982740359
 30
0.0
 10
194.6103122975941
 20
123.3361370581995
 30
0.0
 10
194.5703111000386
 20
123.2172864489022
 30
0.0
 10
194.5161518791092
 20
122.9699829736663
 30
0.0
 10
194.5021289725598
 20
122.8398964820819
 30
0.0
 10
194.5021177487231
 20
122.5798140257609
 30
0.0
 10
194.5156587019221
 20
122.4494304987079
 30
0.0
 10
194.5698767885319
 20
122.1881263233042
 30
0.0
 10
194.6107567431383
 20
122.0579463125273
 30
0.0
 10
194.7687248203141
 20
121.6844763667869
 30
0.0
 10
194.924752777669
 20
121.4501206195053
 30
0.0
 10
195.2134998969942
 20
121.1546515767715
 30
0.0
 10
195.3207147317232
 20
121.0636506260274
 30
0.0
 10
195.5475681386731
 20
120.9058861945271
 30
0.0
 10
195.6675856509129
 20
120.8383602938784
 30
0.0
 10
195.9214038583671
 20
120.7271902090769
 30
0.0
 10
196.0552709024185
 20
120.6839945813003
 30
0.0
 10
196.3249381443127
 20
120.6268515847227
 30
0.0
 10
196.462281813113
 20
120.6121434016722
 30
0.0
 10
196.7419649047165
 20
120.6121434016722
 30
0.0
  0
LINE
  5
112
330
1F
100
AcDbEntity
  8
0
  6
HIDDEN
 62
     7
370
     0
100
AcDbLine
 10
229.0562735886
 20
104.4932376128
 30
0.0
 11
229.0427545101
 21
104.5361231548
 31
0.0
  0
LINE
  5
113
330
1F
100
AcDbEntity
  8
0
  6
HIDDEN
 62
     7
370
     0
100
AcDbLine
 10
221.8159111232
 20
106.7761150655
 30
0.0
 11
229.0562735886
 21
104.4932376128
 31
0.0
  0
LINE
  5
114
330
1F
100
AcDbEntity
  8
0
  6
HIDDEN
 62
     7
370
     0
100
AcDbLine
 10
221.8023883194
 20
106.8190015388
 30
0.0
 11
221.8159111232
 21
106.7761150655
 31
0.0
  0
LINE
  5
115
330
1F
100
AcDbEntity
  8
0
  6
HIDDEN
 62
     7
370
     0
100
AcDbLine
 10
221.681036988
 20
97.1179972869
 30
0.0
 11
218.443815598
 21
107.3851450813
 31
0.0
  0
LINE
  5
116
330
1F
100
AcDbEntity
  8
0
  6
HIDDEN
 62
     7
370
     0
100
AcDbLine
 10
221.681036988
 20
97.1179972869
 30
0.0
 11
221.6381477208
 21
97.1315200907
 31
0.0
  0
LINE
  5
117
330
1F
100
AcDbEntity
  8
0
  6
HIDDEN
 62
     7
370
     0
100
AcDbLine
 10
221.8159111232
 20
106.7761150655
 30
0.0
 11
221.6035099716
 21
106.5637120512
 31
0.0
  0
LINE
  5
118
330
1F
100
AcDbEntity
  8
0
  6
HIDDEN
 62
     7
370
     0
100
AcDbLine
 10
221.4921759457
 20
106.9168108982
 30
0.0
 11
221.6035099716
 21
106.5637120512
 31
0.0
  0
LINE
  5
119
330
1F
100
AcDbEntity
  8
0
  6
HIDDEN
 62
     7
370
     0
100
AcDbLine
 10
228.8582297058
 20
104.2763083708
 30
0.0
 11
229.0562735886
 21
104.4932376128
 31
0.0
  0
LINE
  5
11A
330
1F
100
AcDbEntity
  8
0
  6
HIDDEN
 62
     7
370
     0
100
AcDbLine
 10
228.8582297058
 20
104.2763083708
 30
0.0
 11
221.6035099716
 21
106.5637120512
 31
0.0
  0
LINE
  5
11B
330
1F
100
AcDbEntity
  8
0
  6
HIDDEN
 62
     7
370
     0
100
AcDbLine
 10
218.6313951404
 20
107.6762830374
 30
0.0
 11
221.8979643673
 21
97.3160430324
 31
0.0
  0
LINE
  5
11C
330
1F
100
AcDbEntity
  8
0
  6
HIDDEN
 62
     7
370
     0
100
AcDbLine
 10
221.8979643673
 20
97.3160430324
 30
0.0
 11
221.681036988
 21
97.1179972869
 31
0.0
  0
ELLIPSE
  5
11D
330
1F
100
AcDbEntity
  8
0
  6
HIDDEN
 62
     7
370
     0
100
AcDbEllipse
 10
224.0234484671
 20
120.5721493346
 30
0.0
 11
-6.54921554753028
 21
20.48698008187185
 31
0.0
210
0.0
220
0.0
230
1.0
 40
0.1115418396
 41
6.262177720143403
 42
7.818339378209172
  0
LINE
  5
11E
330
1F
100
AcDbEntity
  8
0
  6
HIDDEN
 62
     7
370
     0
100
AcDbLine
 10
205.7008212448
 20
141.0699538422
 30
0.0
 11
205.7008212448
 21
120.5721493346
 31
0.0
  0
SPLINE
  5
11F
330
1F
100
AcDbEntity
  8
0
  6
HIDDEN
 62
     7
370
     0
100
AcDbSpline
210
0.0
220
0.0
230
1.0
 70
     8
 71
     3
 72
    12
 73
     8
 74
     0
 42
0.00000001
 43
0.00000001
 12
1.0
 22
0.0
 32
0.0
 13
1.0
 23
0.0
 33
0.0
 40
0.0
 40
0.0
 40
0.0
 40
0.0
 40
0.5
 40
0.5
 40
0.75
 40
0.75
 40
1.0
 40
1.0
 40
1.0
 40
1.0
 10
205.8007221972247
 20
100.609307330129
 30
0.0
 10
205.7642692866399
 20
100.5002711425808
 30
0.0
 10
205.7155650472437
 20
100.3912669293833
 30
0.0
 10
205.6980697478932
 20
100.2275986848469
 30
0.0
 10
205.7008340281803
 20
100.1730630064069
 30
0.0
 10
205.7217449112141
 20
100.0640281601053
 30
0.0
 10
205.7397194284461
 20
100.0095285837915
 30
0.0
 10
205.7594943956415
 20
99.9550332809201
 30
0.0
  0
LINE
  5
120
330
1F
100
AcDbEntity
  8
0
  6
HIDDEN
 62
     7
370
     0
100
AcDbLine
 10
228.6537224442
 20
104.3407894206
 30
0.0
 11
228.8582297058
 21
104.2763083708
 31
0.0
  0
LINE
  5
121
330
1F
100
AcDbEntity
  8
0
  6
HIDDEN
 62
     7
370
     0
100
AcDbLine
 10
221.8334833176
 20
97.5205502939
 30
0.0
 11
221.8979643673
 21
97.3160430324
 31
0.0
  0
LINE
  5
122
330
1F
100
AcDbEntity
  8
0
  6
HIDDEN
 62
     7
370
     0
100
AcDbLine
 10
160.1021224648
 20
134.0696798173
 30
0.0
 11
160.1021224648
 21
130.2297604737
 31
0.0
  0
LINE
  5
123
330
1F
100
AcDbEntity
  8
0
  6
HIDDEN
 62
     7
370
     0
100
AcDbLine
 10
158.6021231503
 20
133.203654131
 30
0.0
 11
158.6021231503
 21
129.7967476305
 31
0.0
  0
SPLINE
  5
124
330
1F
100
AcDbEntity
  8
0
  6
HIDDEN
 62
     7
370
     0
100
AcDbSpline
210
0.0
220
0.0
230
1.0
 70
     8
 71
     3
 72
     8
 73
     4
 74
     0
 42
0.00000001
 43
0.00000001
 12
1.0
 22
0.0
 32
0.0
 13
1.0
 23
0.0
 33
0.0
 40
0.0
 40
0.0
 40
0.0
 40
0.0
 40
1.0
 40
1.0
 40
1.0
 40
1.0
 10
181.280803015355
 20
134.3972133425608
 30
0.0
 10
181.2156978537409
 20
134.3854923129022
 30
0.0
 10
181.1578105241809
 20
134.3569881670394
 30
0.0
 10
181.107083380975
 20
134.3112338657156
 30
0.0
  0
LINE
  5
125
330
1F
100
AcDbEntity
  8
0
  6
HIDDEN
 62
     7
370
     0
100
AcDbLine
 10
180.9021233364
 20
134.5922477078
 30
0.0
 11
180.9021233364
 21
134.4923857135
 31
0.0
  0
SPLINE
  5
126
330
1F
100
AcDbEntity
  8
0
  6
HIDDEN
 62
     7
370
     0
100
AcDbSpline
210
0.0
220
0.0
230
1.0
 70
     8
 71
     3
 72
    24
 73
    20
 74
     0
 42
0.00000001
 43
0.00000001
 12
1.0
 22
0.0
 32
0.0
 13
1.0
 23
0.0
 33
0.0
 40
0.0
 40
0.0
 40
0.0
 40
0.0
 40
0.2499999999999977
 40
0.2499999999999977
 40
0.3749999999999954
 40
0.3749999999999954
 40
0.4374999999999942
 40
0.4374999999999942
 40
0.499999999999993
 40
0.499999999999993
 40
0.5312499999999928
 40
0.5312499999999928
 40
0.5624999999999927
 40
0.5624999999999927
 40
0.6249999999999921
 40
0.6249999999999921
 40
0.7499999999999948
 40
0.7499999999999948
 40
1.0
 40
1.0
 40
1.0
 40
1.0
 10
181.107083380975
 20
134.3112338657156
 30
0.0
 10
181.0913167926767
 20
134.2970128947273
 30
0.0
 10
181.0747052597221
 20
134.2827826043925
 30
0.0
 10
181.0461789117641
 20
134.263985549171
 30
0.0
 10
181.036093477974
 20
134.2580971288298
 30
0.0
 10
181.0186107074391
 20
134.2515597340274
 30
0.0
 10
181.0124030509936
 20
134.2497485200263
 30
0.0
 10
180.9981315507484
 20
134.2481427175198
 30
0.0
 10
180.9905614802454
 20
134.2475899401337
 30
0.0
 10
180.9731651508101
 20
134.2547886848464
 30
0.0
 10
180.96470587785
 20
134.2598804335941
 30
0.0
 10
180.9486449133024
 20
134.2776953660733
 30
0.0
 10
180.9438116774562
 20
134.2862177809356
 30
0.0
 10
180.9323857577209
 20
134.3081142175844
 30
0.0
 10
180.9283644018384
 20
134.3198547403903
 30
0.0
 10
180.9176039068073
 20
134.3539050043437
 30
0.0
 10
180.9137295977464
 20
134.3734799933723
 30
0.0
 10
180.9045567256192
 20
134.4293283020536
 30
0.0
 10
180.9025243549045
 20
134.4621060630824
 30
0.0
 10
180.9021233589147
 20
134.4923857228704
 30
0.0
  0
LINE
  5
127
330
1F
100
AcDbEntity
  8
0
  6
HIDDEN
 62
     7
370
     0
100
AcDbLine
 10
180.9021233364
 20
131.5461877269
 30
0.0
 11
180.9021233364
 21
130.4910448846
 31
0.0
  0
SPLINE
  5
128
330
1F
100
AcDbEntity
  8
0
  6
HIDDEN
 62
     7
370
     0
100
AcDbSpline
210
0.0
220
0.0
230
1.0
 70
     8
 71
     3
 72
    16
 73
    12
 74
     0
 42
0.00000001
 43
0.00000001
 12
1.0
 22
0.0
 32
0.0
 13
1.0
 23
0.0
 33
0.0
 40
0.0
 40
0.0
 40
0.0
 40
0.0
 40
0.2499999999999998
 40
0.2499999999999998
 40
0.3749999999999997
 40
0.3749999999999997
 40
0.4999999999999996
 40
0.4999999999999996
 40
0.7499999999999998
 40
0.7499999999999998
 40
1.0
 40
1.0
 40
1.0
 40
1.0
 10
180.9021233589145
 20
134.4923857228705
 30
0.0
 10
180.821586027015
 20
134.412317036718
 30
0.0
 10
180.7615486829876
 20
134.2884525452273
 30
0.0
 10
180.7008109758339
 20
134.0377717212944
 30
0.0
 10
180.6854886007211
 20
133.9433331169846
 30
0.0
 10
180.6649057914169
 20
133.7320220493651
 30
0.0
 10
180.6597061943914
 20
133.6147325946111
 30
0.0
 10
180.6596525412115
 20
133.2366969228545
 30
0.0
 10
180.6798500846895
 20
132.9479197691095
 30
0.0
 10
180.7605281730482
 20
132.2980799059683
 30
0.0
 10
180.821574337656
 20
131.9352509720743
 30
0.0
 10
180.9021233589147
 20
131.5461873268013
 30
0.0
  0
LINE
  5
129
330
1F
100
AcDbEntity
  8
0
  6
HIDDEN
 62
     7
370
     0
100
AcDbLine
 10
160.1021224648
 20
110.9145381954
 30
0.0
 11
160.1021224648
 21
107.0746188518
 31
0.0
  0
LINE
  5
12A
330
1F
100
AcDbEntity
  8
0
  6
HIDDEN
 62
     7
370
     0
100
AcDbLine
 10
158.6021231503
 20
111.3475510386
 30
0.0
 11
158.6021231503
 21
107.9406445381
 31
0.0
  0
LINE
  5
12B
330
1F
100
AcDbEntity
  8
0
  6
HIDDEN
 62
     7
370
     0
100
AcDbLine
 10
180.9021233364
 20
110.6532537845
 30
0.0
 11
180.9021233364
 21
109.5981109423
 31
0.0
  0
LINE
  5
12C
330
1F
100
AcDbEntity
  8
0
  6
HIDDEN
 62
     7
370
     0
100
AcDbLine
 10
180.9021233364
 20
106.6519129556
 30
0.0
 11
180.9021233364
 21
106.5520509613
 31
0.0
  0
SPLINE
  5
12D
330
1F
100
AcDbEntity
  8
0
  6
HIDDEN
 62
     7
370
     0
100
AcDbSpline
210
0.0
220
0.0
230
1.0
 70
     8
 71
     3
 72
    16
 73
    12
 74
     0
 42
0.00000001
 43
0.00000001
 12
1.0
 22
0.0
 32
0.0
 13
1.0
 23
0.0
 33
0.0
 40
0.0
 40
0.0
 40
0.0
 40
0.0
 40
0.2500000000000001
 40
0.2500000000000001
 40
0.3750000000000002
 40
0.3750000000000002
 40
0.5000000000000003
 40
0.5000000000000003
 40
0.7500000000000002
 40
0.7500000000000002
 40
1.0
 40
1.0
 40
1.0
 40
1.0
 10
180.9021233589145
 20
109.5981113423092
 30
0.0
 10
180.8215860270153
 20
109.2091041583652
 30
0.0
 10
180.7615486829881
 20
108.8526037167408
 30
0.0
 10
180.7008109758345
 20
108.3661013315535
 30
0.0
 10
180.6854886007215
 20
108.2120223907001
 30
0.0
 10
180.6649057914173
 20
107.9205528322074
 30
0.0
 10
180.6597061943915
 20
107.7829829483085
 30
0.0
 10
180.6596525412112
 20
107.4047381131193
 30
0.0
 10
180.6798500846887
 20
107.1948570445672
 30
0.0
 10
180.7605281730461
 20
106.8582777456554
 30
0.0
 10
180.8215743376531
 20
106.7319932537368
 30
0.0
 10
180.9021233589108
 20
106.6519129462444
 30
0.0
  0
SPLINE
  5
12E
330
1F
100
AcDbEntity
  8
0
  6
HIDDEN
 62
     7
370
     0
100
AcDbSpline
210
0.0
220
0.0
230
1.0
 70
     8
 71
     3
 72
    24
 73
    20
 74
     0
 42
0.00000001
 43
0.00000001
 12
1.0
 22
0.0
 32
0.0
 13
1.0
 23
0.0
 33
0.0
 40
0.0
 40
0.0
 40
0.0
 40
0.0
 40
0.2499999999999908
 40
0.2499999999999908
 40
0.3749999999999853
 40
0.3749999999999853
 40
0.4374999999999823
 40
0.4374999999999823
 40
0.4687499999999824
 40
0.4687499999999824
 40
0.4999999999999823
 40
0.4999999999999823
 40
0.5624999999999851
 40
0.5624999999999851
 40
0.624999999999988
 40
0.624999999999988
 40
0.7499999999999919
 40
0.7499999999999919
 40
1.0
 40
1.0
 40
1.0
 40
1.0
 10
180.9021233589146
 20
106.6519129462482
 30
0.0
 10
180.9025262695504
 20
106.6823371830862
 30
0.0
 10
180.904570248891
 20
106.7151952836403
 30
0.0
 10
180.9138074917171
 20
106.7712206507939
 30
0.0
 10
180.9176945546976
 20
106.7908317039794
 30
0.0
 10
180.9285984461042
 20
106.8251059874089
 30
0.0
 10
180.9327404918547
 20
106.8371684128811
 30
0.0
 10
180.9446355656074
 20
106.8594875775806
 30
0.0
 10
180.9498826299162
 20
106.8684540899409
 30
0.0
 10
180.9667496962953
 20
106.8861036544672
 30
0.0
 10
180.9745721038205
 20
106.8902479386069
 30
0.0
 10
180.991520904442
 20
106.896735479781
 30
0.0
 10
180.99897725566
 20
106.8961385984093
 30
0.0
 10
181.0130371588524
 20
106.8943923344373
 30
0.0
 10
181.0191695439884
 20
106.8925616465388
 30
0.0
 10
181.0364643065116
 20
106.885995236966
 30
0.0
 10
181.0464816249205
 20
106.8801300218073
 30
0.0
 10
181.0748529591634
 20
106.861385337777
 30
0.0
 10
181.0913883968078
 20
106.8472211896903
 30
0.0
 10
181.1070833809723
 20
106.8330648033981
 30
0.0
  0
SPLINE
  5
12F
330
1F
100
AcDbEntity
  8
0
  6
HIDDEN
 62
     7
370
     0
100
AcDbSpline
210
0.0
220
0.0
230
1.0
 70
     8
 71
     3
 72
     8
 73
     4
 74
     0
 42
0.00000001
 43
0.00000001
 12
1.0
 22
0.0
 32
0.0
 13
1.0
 23
0.0
 33
0.0
 40
0.0
 40
0.0
 40
0.0
 40
0.0
 40
1.0
 40
1.0
 40
1.0
 40
1.0
 10
181.1070833809723
 20
106.833064803398
 30
0.0
 10
181.1578105241789
 20
106.7873105020728
 30
0.0
 10
181.2156978537398
 20
106.7588063562093
 30
0.0
 10
181.280803015355
 20
106.7470853265504
 30
0.0
  0
LINE
  5
130
330
1F
100
AcDbEntity
  8
0
  6
HIDDEN
 62
     7
370
     0
100
AcDbLine
 10
231.3057640583
 20
94.533951534
 30
0.0
 11
231.6403212041
 21
94.8685068172
 31
0.0
  0
CIRCLE
  5
131
330
1F
100
AcDbEntity
  8
0
  6
HIDDEN
 62
     7
370
     0
100
AcDbCircle
 10
225.4308421547
 20
100.7434305388
 30
0.0
 40
2.40000000000002
  0
ARC
  5
132
330
1F
100
AcDbEntity
  8
0
  6
HIDDEN
 62
     7
370
     0
100
AcDbCircle
 10
219.6601404044
 20
108.5704032172
 30
0.0
 40
1.250000000000004
100
AcDbArc
 50
17.5
 51
197.5
  0
LINE
  5
133
330
1F
100
AcDbEntity
  8
0
  6
HIDDEN
 62
     7
370
     0
100
AcDbLine
 10
221.6035099716
 20
106.5637120512
 30
0.0
 11
220.8522865564
 21
108.9462857229
 31
0.0
  0
LINE
  5
134
330
1F
100
AcDbEntity
  8
0
  6
HIDDEN
 62
     7
370
     0
100
AcDbLine
 10
218.467992732
 20
108.1945212093
 30
0.0
 11
221.8334833176
 21
97.5205502939
 31
0.0
  0
LINE
  5
135
330
1F
100
AcDbEntity
  8
0
  6
HIDDEN
 62
     7
370
     0
100
AcDbLine
 10
228.6537224442
 20
104.3407894206
 30
0.0
 11
221.6035099716
 21
106.5637120512
 31
0.0
  0
LINE
  5
136
330
1F
100
AcDbEntity
  8
0
  6
HIDDEN
 62
     7
370
     0
100
AcDbLine
 10
231.3057640583
 20
94.533951534
 30
0.0
 11
221.8334833176
 21
97.5205502939
 31
0.0
  0
LINE
  5
137
330
1F
100
AcDbEntity
  8
0
  6
HIDDEN
 62
     7
370
     0
100
AcDbLine
 10
231.6403212041
 20
94.8685068172
 30
0.0
 11
228.6537224442
 21
104.3407894206
 31
0.0
  0
LINE
  5
138
330
1F
100
AcDbEntity
  8
0
  6
HIDDEN
 62
     7
370
     0
100
AcDbLine
 10
230.902251789
 20
94.9374656659
 30
0.0
 11
231.3057640583
 21
94.533951534
 31
0.0
  0
LINE
  5
139
330
1F
100
AcDbEntity
  8
0
  6
HIDDEN
 62
     7
370
     0
100
AcDbLine
 10
231.6403212041
 20
94.8685068172
 30
0.0
 11
230.8813156576
 21
95.6275123638
 31
0.0
  0
CIRCLE
  5
13A
330
1F
100
AcDbEntity
  8
0
  6
HIDDEN
 62
     7
370
     0
100
AcDbCircle
 10
225.4308421547
 20
100.7434305388
 30
0.0
 40
1.65000000000002
  0
LWPOLYLINE
  5
13B
330
1F
100
AcDbEntity
  8
0
  6
HIDDEN
 62
     7
370
     0
100
AcDbPolyline
 90
       29
 70
   128
 43
0.0
 10
196.602123791
 20
123.3048742172
 10
197.0694176868
 20
123.3543504962
 10
197.5132795066
 20
123.500297824
 10
197.9114515722
 20
123.7353981008
 10
198.2439691216
 20
124.0478624125
 10
198.4941577554
 20
124.422022421
 10
198.6494725586
 20
124.8391159345
 10
198.702123949
 20
125.2782289405
 10
198.6494725586
 20
125.7173414809
 10
198.4941577554
 20
126.1344352272
 10
198.2439691216
 20
126.5085950029
 10
197.9114515722
 20
126.8210593146
 10
197.5132795066
 20
127.0561595914
 10
197.0694176868
 20
127.2021071521
 10
196.602123791
 20
127.2515831982
 10
196.1348289639
 20
127.2021071521
 10
195.6909671441
 20
127.0561595914
 10
195.2927950785
 20
126.8210593146
 10
194.9602775291
 20
126.5085950029
 10
194.7100888953
 20
126.1344352272
 10
194.5547750235
 20
125.7173414809
 10
194.5021236331
 20
125.2782289405
 10
194.5547750235
 20
124.8391159345
 10
194.7100888953
 20
124.422022421
 10
194.9602775291
 20
124.0478624125
 10
195.2927950785
 20
123.7353981008
 10
195.6909671441
 20
123.500297824
 10
196.1348289639
 20
123.3543504962
 10
196.602123791
 20
123.3048742172
  0
SPLINE
  5
13C
330
1F
100
AcDbEntity
  8
0
  6
HIDDEN
 62
     7
370
     0
100
AcDbSpline
210
0.0
220
0.0
230
1.0
 70
     8
 71
     3
 72
     8
 73
     4
 74
     0
 42
0.00000001
 43
0.00000001
 12
1.0
 22
0.0
 32
0.0
 13
1.0
 23
0.0
 33
0.0
 40
0.0
 40
0.0
 40
0.0
 40
0.0
 40
1.0
 40
1.0
 40
1.0
 40
1.0
 10
207.0692899959698
 20
102.0681768273543
 30
0.0
 10
206.4381295708497
 20
101.5846488216546
 30
0.0
 10
205.9644469393757
 20
101.0990328802991
 30
0.0
 10
205.8007221972247
 20
100.609307330129
 30
0.0
  0
SPLINE
  5
13D
330
1F
100
AcDbEntity
  8
0
  6
HIDDEN
 62
     7
370
     0
100
AcDbSpline
210
0.0
220
0.0
230
1.0
 70
     8
 71
     3
 72
     8
 73
     4
 74
     0
 42
0.00000001
 43
0.00000001
 12
1.0
 22
0.0
 32
0.0
 13
1.0
 23
0.0
 33
0.0
 40
0.0
 40
0.0
 40
0.0
 40
0.0
 40
1.0
 40
1.0
 40
1.0
 40
1.0
 10
206.964686488735
 20
106.1147985123825
 30
0.0
 10
207.0004494463004
 20
104.6548936626395
 30
0.0
 10
207.0352950173732
 20
103.3075654622638
 30
0.0
 10
207.0692899959698
 20
102.0681768273543
 30
0.0
  0
ELLIPSE
  5
13E
330
1F
100
AcDbEntity
  8
0
  6
HIDDEN
 62
     7
370
     0
100
AcDbEllipse
 10
257.426460914
 20
118.8721493346
 30
0.0
 11
26.21430788105403
 21
24.5824843136229
 31
0.0
210
0.0
220
0.0
230
1.0
 40
0.1735649966
 41
2.947641479485442
 42
3.031627489696025
  0
LINE
  5
13F
330
1F
100
AcDbEntity
  8
0
  6
HIDDEN
 62
     7
370
     0
100
AcDbLine
 10
207.0692898721
 20
102.068176074
 30
0.0
 11
210.0851694138
 21
102.068176074
 31
0.0
  0
SPLINE
  5
140
330
1F
100
AcDbEntity
  8
0
  6
HIDDEN
 62
     7
370
     0
100
AcDbSpline
210
0.0
220
0.0
230
1.0
 70
     8
 71
     3
 72
    12
 73
     8
 74
     0
 42
0.00000001
 43
0.00000001
 12
1.0
 22
0.0
 32
0.0
 13
1.0
 23
0.0
 33
0.0
 40
0.0
 40
0.0
 40
0.0
 40
0.0
 40
0.5000000000000008
 40
0.5000000000000008
 40
0.7500000000000014
 40
0.7500000000000014
 40
1.0
 40
1.0
 40
1.0
 40
1.0
 10
210.0851692670256
 20
102.0681768273543
 30
0.0
 10
210.9702418018034
 20
102.0681768273543
 30
0.0
 10
211.8374037232985
 20
101.9904125183589
 30
0.0
 10
213.1123915382934
 20
101.765767283724
 30
0.0
 10
213.5342440468887
 20
101.6724485996217
 30
0.0
 10
214.3636442475922
 20
101.4513719899614
 30
0.0
 10
214.7681020612736
 20
101.3245560402279
 30
0.0
 10
215.1624743249169
 20
101.1827799644023
 30
0.0
  0
ELLIPSE
  5
141
330
1F
100
AcDbEntity
  8
0
  6
HIDDEN
 62
     7
370
     0
100
AcDbEllipse
 10
152.1794326819
 20
118.8721493346
 30
0.0
 11
79.88064978145391
 21
-24.84515740113731
 31
0.0
210
0.0
220
0.0
230
1.0
 40
0.0347788424
 41
0.1816243183112075
 42
0.6733798423707442
  0
ELLIPSE
  5
142
330
1F
100
AcDbEntity
  8
0
  6
HIDDEN
 62
     7
370
     0
100
AcDbEllipse
 10
224.6822409691
 20
118.8721493346
 30
0.0
 11
-7.986848228695266
 21
24.98412205106263
 31
0.0
210
0.0
220
0.0
230
1.0
 40
0.1115418396
 41
2.070680725343975
 42
2.728983810411401
  0
LINE
  5
143
330
1F
100
AcDbEntity
  8
0
  6
HIDDEN
 62
     7
370
     0
100
AcDbLine
 10
158.6021231503
 20
129.7967476305
 30
0.0
 11
158.6021231503
 21
122.4223631901
 31
0.0
  0
LINE
  5
144
330
1F
100
AcDbEntity
  8
0
  6
HIDDEN
 62
     7
370
     0
100
AcDbLine
 10
158.6021231503
 20
118.7219354791
 30
0.0
 11
158.6021231503
 21
111.3475510386
 31
0.0
  0
SPLINE
  5
145
330
1F
100
AcDbEntity
  8
0
  6
HIDDEN
 62
     7
370
     0
100
AcDbSpline
210
0.0
220
0.0
230
1.0
 70
     8
 71
     3
 72
    24
 73
    20
 74
     0
 42
0.00000001
 43
0.00000001
 12
1.0
 22
0.0
 32
0.0
 13
1.0
 23
0.0
 33
0.0
 40
0.0
 40
0.0
 40
0.0
 40
0.0
 40
0.249999999999991
 40
0.249999999999991
 40
0.3749999999999833
 40
0.3749999999999833
 40
0.4374999999999813
 40
0.4374999999999813
 40
0.4999999999999792
 40
0.4999999999999792
 40
0.5312499999999787
 40
0.5312499999999787
 40
0.5624999999999781
 40
0.5624999999999781
 40
0.6249999999999809
 40
0.6249999999999809
 40
0.7499999999999881
 40
0.7499999999999881
 40
1.0
 40
1.0
 40
1.0
 40
1.0
 10
181.107083380975
 20
109.7795556077574
 30
0.0
 10
181.0913145036176
 20
109.7056969158278
 30
0.0
 10
181.0747005217676
 20
109.631985527092
 30
0.0
 10
181.0461688557625
 20
109.5204387034699
 30
0.0
 10
181.0360814409438
 20
109.4830671303415
 30
0.0
 10
181.0185938804895
 20
109.4261676327038
 30
0.0
 10
181.0123843187062
 20
109.4070645325585
 30
0.0
 10
180.9981067650536
 20
109.3681910183229
 30
0.0
 10
180.9905352172582
 20
109.3482663588896
 30
0.0
 10
180.9731176335799
 20
109.3181941408621
 30
0.0
 10
180.9646351369348
 20
109.306512762059
 30
0.0
 10
180.948596825063
 20
109.2992512513105
 30
0.0
 10
180.9437762768595
 20
109.3028294983202
 30
0.0
 10
180.9323670523116
 20
109.3145903535519
 30
0.0
 10
180.9283465718541
 20
109.3262560036024
 30
0.0
 10
180.9175927170338
 20
109.362791333716
 30
0.0
 10
180.9137200357516
 20
109.3901870670396
 30
0.0
 10
180.904551885914
 20
109.4749130587956
 30
0.0
 10
180.9025233805449
 20
109.5357451809677
 30
0.0
 10
180.9021233589147
 20
109.5981113423093
 30
0.0
  0
SPLINE
  5
146
330
1F
100
AcDbEntity
  8
0
  6
HIDDEN
 62
     7
370
     0
100
AcDbSpline
210
0.0
220
0.0
230
1.0
 70
     8
 71
     3
 72
    24
 73
    20
 74
     0
 42
0.00000001
 43
0.00000001
 12
1.0
 22
0.0
 32
0.0
 13
1.0
 23
0.0
 33
0.0
 40
0.0
 40
0.0
 40
0.0
 40
0.0
 40
0.2499999999999756
 40
0.2499999999999756
 40
0.3749999999999648
 40
0.3749999999999648
 40
0.4374999999999593
 40
0.4374999999999593
 40
0.4687499999999593
 40
0.4687499999999593
 40
0.4999999999999593
 40
0.4999999999999593
 40
0.562499999999964
 40
0.562499999999964
 40
0.6249999999999688
 40
0.6249999999999688
 40
0.7499999999999782
 40
0.7499999999999782
 40
1.0
 40
1.0
 40
1.0
 40
1.0
 10
180.902123358911
 20
131.5461873268042
 30
0.0
 10
180.9025280284866
 20
131.6092781352977
 30
0.0
 10
180.9045714753008
 20
131.6704638578011
 30
0.0
 10
180.9139710405547
 20
131.7559635903041
 30
0.0
 10
180.9179219340834
 20
131.7835439737457
 30
0.0
 10
180.9290742423797
 20
131.8199980558584
 30
0.0
 10
180.9332957833061
 20
131.8318564775531
 30
0.0
 10
180.9455035048682
 20
131.8424765289305
 30
0.0
 10
180.9512942751185
 20
131.8453098961549
 30
0.0
 10
180.9682157882282
 20
131.8339953091625
 30
0.0
 10
180.9756219041795
 20
131.8222144234082
 30
0.0
 10
180.9920791574242
 20
131.792173582178
 30
0.0
 10
180.9995356753353
 20
131.7724606285647
 30
0.0
 10
181.0134436046104
 20
131.734058562504
 30
0.0
 10
181.0195355505056
 20
131.7151769125923
 30
0.0
 10
181.036729842857
 20
131.6588760020601
 30
0.0
 10
181.0467147930607
 20
131.62179992425
 30
0.0
 10
181.0749608381601
 20
131.5111412533587
 30
0.0
 10
181.0914403751214
 20
131.4380121929494
 30
0.0
 10
181.1070833809812
 20
131.3647430613246
 30
0.0
  0
SPLINE
  5
147
330
1F
100
AcDbEntity
  8
0
  6
HIDDEN
 62
     7
370
     0
100
AcDbSpline
210
0.0
220
0.0
230
1.0
 70
     8
 71
     3
 72
     8
 73
     4
 74
     0
 42
0.00000001
 43
0.00000001
 12
1.0
 22
0.0
 32
0.0
 13
1.0
 23
0.0
 33
0.0
 40
0.0
 40
0.0
 40
0.0
 40
0.0
 40
1.0
 40
1.0
 40
1.0
 40
1.0
 10
181.280803015355
 20
110.5186300169488
 30
0.0
 10
181.2156978537409
 20
110.2636047817432
 30
0.0
 10
181.1578105241809
 20
110.0171527656019
 30
0.0
 10
181.107083380975
 20
109.7795556077573
 30
0.0
  0
SPLINE
  5
148
330
1F
100
AcDbEntity
  8
0
  6
HIDDEN
 62
     7
370
     0
100
AcDbSpline
210
0.0
220
0.0
230
1.0
 70
     8
 71
     3
 72
     8
 73
     4
 74
     0
 42
0.00000001
 43
0.00000001
 12
1.0
 22
0.0
 32
0.0
 13
1.0
 23
0.0
 33
0.0
 40
0.0
 40
0.0
 40
0.0
 40
0.0
 40
1.0
 40
1.0
 40
1.0
 40
1.0
 10
181.1070833809812
 20
131.3647430613246
 30
0.0
 10
181.1578105241857
 20
131.1271459034891
 30
0.0
 10
181.2156978537436
 20
130.8806938873576
 30
0.0
 10
181.280803015355
 20
130.6256686521624
 30
0.0
  0
LINE
  5
149
330
1F
100
AcDbEntity
  8
0
  6
HIDDEN
 62
     7
370
     0
100
AcDbLine
 10
160.1021224648
 20
118.017121032
 30
0.0
 11
160.1021224648
 21
110.9145381954
 31
0.0
  0
LINE
  5
14A
330
1F
100
AcDbEntity
  8
0
  6
HIDDEN
 62
     7
370
     0
100
AcDbLine
 10
160.1021224648
 20
130.2297604737
 30
0.0
 11
160.1021224648
 21
123.1271776372
 31
0.0
  0
LINE
  5
14B
330
1F
100
AcDbEntity
  8
0
  6
HIDDEN
 62
     7
370
     0
100
AcDbLine
 10
180.9021233364
 20
130.4910448846
 30
0.0
 11
180.9021233364
 21
110.6532537845
 31
0.0
  0
LINE
  5
14C
330
1F
100
AcDbEntity
  8
0
  6
HIDDEN
 62
     7
370
     0
100
AcDbLine
 10
182.402123364
 20
129.0515163449
 30
0.0
 11
182.402123364
 21
112.0927823243
 31
0.0
  0
SPLINE
  5
14D
330
1F
100
AcDbEntity
  8
0
  6
HIDDEN
 62
     7
370
     0
100
AcDbSpline
210
0.0
220
0.0
230
1.0
 70
     8
 71
     3
 72
    22
 73
    18
 74
     0
 42
0.00000001
 43
0.00000001
 12
1.0
 22
0.0
 32
0.0
 13
1.0
 23
0.0
 33
0.0
 40
0.0
 40
0.0
 40
0.0
 40
0.0
 40
0.125
 40
0.125
 40
0.2499999999999999
 40
0.2499999999999999
 40
0.3749999999999999
 40
0.3749999999999999
 40
0.4999999999999999
 40
0.4999999999999999
 40
0.625
 40
0.625
 40
0.75
 40
0.75
 40
0.875
 40
0.875
 40
1.0
 40
1.0
 40
1.0
 40
1.0
 10
162.8021233589146
 20
117.9792046547277
 30
0.0
 10
162.9830597169908
 20
118.1708245140342
 30
0.0
 10
163.1621551657677
 20
118.3644663784214
 30
0.0
 10
163.5129951542797
 20
118.7591216318056
 30
0.0
 10
163.6851882621844
 20
118.9601331624732
 30
0.0
 10
164.0109197678036
 20
119.3763442777069
 30
0.0
 10
164.166996002972
 20
119.5923601179937
 30
0.0
 10
164.418375216861
 20
120.0576828811584
 30
0.0
 10
164.5122403471798
 20
120.3132220741812
 30
0.0
 10
164.5085124303177
 20
120.8475527092819
 30
0.0
 10
164.4111397878303
 20
121.1029735752826
 30
0.0
 10
164.1593189788364
 20
121.5630022912303
 30
0.0
 10
164.0043497233639
 20
121.7768392921588
 30
0.0
 10
163.6795369656386
 20
122.1908778748526
 30
0.0
 10
163.5086439015107
 20
122.3901703468884
 30
0.0
 10
163.1600096619831
 20
122.7821452393226
 30
0.0
 10
162.9820018114546
 20
122.974594525312
 30
0.0
 10
162.8021233589146
 20
123.1650940143836
 30
0.0
  0
LINE
  5
14E
330
1F
100
AcDbEntity
  8
0
  6
HIDDEN
 62
     7
370
     0
100
AcDbLine
 10
162.8021234662
 20
117.9792045616
 30
0.0
 11
162.8021234662
 21
123.1650941075
 31
0.0
  0
SPLINE
  5
14F
330
1F
100
AcDbEntity
  8
0
  6
HIDDEN
 62
     7
370
     0
100
AcDbSpline
210
0.0
220
0.0
230
1.0
 70
     8
 71
     3
 72
     8
 73
     4
 74
     0
 42
0.00000001
 43
0.00000001
 12
1.0
 22
0.0
 32
0.0
 13
1.0
 23
0.0
 33
0.0
 40
0.0000137051794235
 40
0.0000137051794235
 40
0.0000137051794235
 40
0.0000137051794235
 40
0.0027147144718019
 40
0.0027147144718019
 40
0.0027147144718019
 40
0.0027147144718019
 10
160.1021233589146
 20
118.0171210974939
 30
0.0
 10
161.0021194944094
 20
118.0041495302955
 30
0.0
 10
161.9021196730048
 20
117.9915146729834
 30
0.0
 10
162.8021233589146
 20
117.9792046547277
 30
0.0
  0
SPLINE
  5
150
330
1F
100
AcDbEntity
  8
0
  6
HIDDEN
 62
     7
370
     0
100
AcDbSpline
210
0.0
220
0.0
230
1.0
 70
     8
 71
     3
 72
     8
 73
     4
 74
     0
 42
0.00000001
 43
0.00000001
 12
1.0
 22
0.0
 32
0.0
 13
1.0
 23
0.0
 33
0.0
 40
0.0000137050638847
 40
0.0000137050638847
 40
0.0000137050638847
 40
0.0000137050638847
 40
0.0027147143562631
 40
0.0027147143562631
 40
0.0027147143562631
 40
0.0027147143562631
 10
162.8021233589146
 20
123.1650940143836
 30
0.0
 10
161.9021196730048
 20
123.1527839961278
 30
0.0
 10
161.0021194944094
 20
123.1401491388157
 30
0.0
 10
160.1021233589146
 20
123.1271775716174
 30
0.0
  0
SPLINE
  5
151
330
1F
100
AcDbEntity
  8
0
  6
HIDDEN
 62
     7
370
     0
100
AcDbSpline
210
0.0
220
0.0
230
1.0
 70
     8
 71
     3
 72
    10
 73
     6
 74
     0
 42
0.00000001
 43
0.00000001
 12
1.0
 22
0.0
 32
0.0
 13
1.0
 23
0.0
 33
0.0
 40
0.0
 40
0.0
 40
0.0
 40
0.0
 40
0.5
 40
0.5
 40
1.0
 40
1.0
 40
1.0
 40
1.0
 10
158.6021233589138
 20
118.7219355209055
 30
0.0
 10
158.8392653196296
 20
118.5663207063766
 30
0.0
 10
159.0846080783931
 20
118.4344116769573
 30
0.0
 10
159.5858716671261
 20
118.2027548003198
 30
0.0
 10
159.8419062363764
 20
118.103309184197
 30
0.0
 10
160.1021233589146
 20
118.0171210974939
 30
0.0
  0
SPLINE
  5
152
330
1F
100
AcDbEntity
  8
0
  6
HIDDEN
 62
     7
370
     0
100
AcDbSpline
210
0.0
220
0.0
230
1.0
 70
     8
 71
     3
 72
    10
 73
     6
 74
     0
 42
0.00000001
 43
0.00000001
 12
1.0
 22
0.0
 32
0.0
 13
1.0
 23
0.0
 33
0.0
 40
0.0
 40
0.0
 40
0.0
 40
0.0
 40
0.5
 40
0.5
 40
1.0
 40
1.0
 40
1.0
 40
1.0
 10
160.1021233589146
 20
123.1271775716174
 30
0.0
 10
159.8419062363766
 20
123.0409894849143
 30
0.0
 10
159.5858716671264
 20
122.9415438687916
 30
0.0
 10
159.0846080783937
 20
122.7098869921542
 30
0.0
 10
158.8392653196304
 20
122.577977962735
 30
0.0
 10
158.6021233589146
 20
122.4223631482063
 30
0.0
  0
LINE
  5
153
330
1F
100
AcDbEntity
  8
0
  6
HIDDEN
 62
     7
370
     0
100
AcDbLine
 10
158.6021231503
 20
118.7219354791
 30
0.0
 11
158.6021231503
 21
122.4223631901
 31
0.0
  0
LWPOLYLINE
  5
154
330
1F
100
AcDbEntity
  8
0
  6
HIDDEN
 62
     7
370
     0
100
AcDbPolyline
 90
       32
 70
   128
 43
0.0
 10
196.602123791
 20
123.0111998041
 10
197.1053695322
 20
123.0592886452
 10
197.5880125553
 20
123.2015865856
 10
198.0302939207
 20
123.4322679696
 10
198.4141049922
 20
123.7418884878
 10
198.723734358
 20
124.1177723744
 10
198.9465029926
 20
124.5445306879
 10
199.0732932479
 20
125.0046925154
 10
199.0989139319
 20
125.4794178997
 10
199.0223163754
 20
125.9492720012
 10
198.8466354103
 20
126.3950192836
 10
198.5790627093
 20
126.7984100153
 10
198.2305543513
 20
127.1429299843
 10
197.8153781981
 20
127.4144738448
 10
197.3505308867
 20
127.6019253303
 10
196.855043994
 20
127.6976098773
 10
196.3492026568
 20
127.6976098773
 10
195.8537157641
 20
127.6019253303
 10
195.3888684527
 20
127.4144738448
 10
194.9736922995
 20
127.1429299843
 10
194.6251839415
 20
126.7984100153
 10
194.3576121718
 20
126.3950192836
 10
194.1819302753
 20
125.9492720012
 10
194.1053317875
 20
125.4794178997
 10
194.1309524716
 20
125.0046925154
 10
194.2577427269
 20
124.5445306879
 10
194.4805122928
 20
124.1177723744
 10
194.7901416586
 20
123.7418884878
 10
195.1739527301
 20
123.4322679696
 10
195.6162340955
 20
123.2015865856
 10
196.0988771186
 20
123.0592886452
 10
196.602123791
 20
123.0111998041
  0
SPLINE
  5
155
330
1F
100
AcDbEntity
  8
0
  6
HIDDEN
 62
     7
370
     0
100
AcDbSpline
210
0.0
220
0.0
230
1.0
 70
     8
 71
     3
 72
    62
 73
    58
 74
     0
 42
0.00000001
 43
0.00000001
 12
1.0
 22
0.0
 32
0.0
 13
1.0
 23
0.0
 33
0.0
 40
-0.0312500000000001
 40
-0.0312500000000001
 40
0.0
 40
0.0
 40
0.03125
 40
0.03125
 40
0.0624999999999999
 40
0.0624999999999999
 40
0.0937499999999999
 40
0.0937499999999999
 40
0.1249999999999998
 40
0.1249999999999998
 40
0.1874999999999997
 40
0.1874999999999997
 40
0.2499999999999996
 40
0.2499999999999996
 40
0.2812499999999996
 40
0.2812499999999996
 40
0.3124999999999995
 40
0.3124999999999995
 40
0.3437499999999994
 40
0.3437499999999994
 40
0.3749999999999994
 40
0.3749999999999994
 40
0.4374999999999993
 40
0.4374999999999993
 40
0.4687499999999993
 40
0.4687499999999993
 40
0.4999999999999992
 40
0.4999999999999992
 40
0.5624999999999991
 40
0.5624999999999991
 40
0.5937499999999992
 40
0.5937499999999992
 40
0.6249999999999992
 40
0.6249999999999992
 40
0.6562499999999993
 40
0.6562499999999993
 40
0.6874999999999993
 40
0.6874999999999993
 40
0.7187499999999994
 40
0.7187499999999994
 40
0.7499999999999994
 40
0.7499999999999994
 40
0.7812499999999996
 40
0.7812499999999996
 40
0.8124999999999997
 40
0.8124999999999997
 40
0.8437499999999997
 40
0.8437499999999997
 40
0.8749999999999998
 40
0.8749999999999998
 40
0.9062499999999998
 40
0.9062499999999998
 40
0.9374999999999999
 40
0.9374999999999999
 40
0.9687499999999999
 40
0.9687499999999999
 40
1.0
 40
1.0
 40
1.03125
 40
1.03125
 10
169.0558954868429
 20
122.060128373212
 30
0.0
 10
169.2833958334312
 20
122.3094749150726
 30
0.0
 10
169.4078583623486
 20
122.4210725925295
 30
0.0
 10
169.6769526285004
 20
122.6197233883479
 30
0.0
 10
169.8227657200897
 20
122.7070636331366
 30
0.0
 10
170.1239325983791
 20
122.8512593857788
 30
0.0
 10
170.2802683254435
 20
122.9090790562931
 30
0.0
 10
170.6043916247779
 20
122.9963326683441
 30
0.0
 10
170.7710568364884
 20
123.0251347178259
 30
0.0
 10
171.2690731031203
 20
123.0659140230938
 30
0.0
 10
171.6097440519132
 20
123.0324707629525
 30
0.0
 10
172.2487549673347
 20
122.8500181184937
 30
0.0
 10
172.5552095743985
 20
122.6985935581809
 30
0.0
 10
172.9517654836609
 20
122.3980956525966
 30
0.0
 10
173.0761146745105
 20
122.2838344674013
 30
0.0
 10
173.2985787685597
 20
122.0341745968287
 30
0.0
 10
173.3961441070369
 20
121.9000079888296
 30
0.0
 10
173.5633997106757
 20
121.6125388943309
 30
0.0
 10
173.6334853661948
 20
121.457272044431
 30
0.0
 10
173.7375407269164
 20
121.140292624344
 30
0.0
 10
173.7725164895837
 20
120.9776398728395
 30
0.0
 10
173.8243810091078
 20
120.476702852637
 30
0.0
 10
173.7850749013364
 20
120.1365482513267
 30
0.0
 10
173.6223551088756
 20
119.6600536192295
 30
0.0
 10
173.5520746109893
 20
119.5089862594021
 30
0.0
 10
173.3807414658593
 20
119.2216916889612
 30
0.0
 10
173.2793492246776
 20
119.0858339106638
 30
0.0
 10
172.9427496374544
 20
118.7170255156656
 30
0.0
 10
172.6675168712897
 20
118.5146004063345
 30
0.0
 10
172.2177336439438
 20
118.2975236797257
 30
0.0
 10
172.0589338454401
 20
118.2382214076515
 30
0.0
 10
171.7363721245605
 20
118.150248889851
 30
0.0
 10
171.5725130125933
 20
118.1211291260047
 30
0.0
 10
171.2396802392394
 20
118.0922725108945
 30
0.0
 10
171.0696279477985
 20
118.0928960341085
 30
0.0
 10
170.7373522837788
 20
118.1241524779129
 30
0.0
 10
170.5736376720301
 20
118.1544711729648
 30
0.0
 10
170.2511721864557
 20
118.2451882119678
 30
0.0
 10
170.0926610879293
 20
118.3059571206695
 30
0.0
 10
169.7941073817314
 20
118.4534677954666
 30
0.0
 10
169.6522812525293
 20
118.5406028233304
 30
0.0
 10
169.384359513971
 20
118.7431882899025
 30
0.0
 10
169.2602660835784
 20
118.8575264565446
 30
0.0
 10
169.0391318956603
 20
119.1057128944974
 30
0.0
 10
168.9406748935616
 20
119.2407455113512
 30
0.0
 10
168.7713163798266
 20
119.532749909406
 30
0.0
 10
168.7031495421207
 20
119.6848856558415
 30
0.0
 10
168.5994155757943
 20
120.0012946042816
 30
0.0
 10
168.5637470139251
 20
120.1677910736358
 30
0.0
 10
168.5295332492726
 20
120.5010529497463
 30
0.0
 10
168.5303916521017
 20
120.6677154035682
 30
0.0
 10
168.5681884320512
 20
121.0011036027857
 30
0.0
 10
168.6055311875053
 20
121.1668591752652
 30
0.0
 10
168.7127807705737
 20
121.4827504917279
 30
0.0
 10
168.7835419871128
 20
121.6360298248
 30
0.0
 10
168.9556651372135
 20
121.9254068672865
 30
0.0
 10
169.0558954868429
 20
122.060128373212
 30
0.0
 10
169.2833958334312
 20
122.3094749150726
 30
0.0
  0
CIRCLE
  5
156
330
1F
100
AcDbEntity
  8
0
  6
HIDDEN
 62
     7
370
     0
100
AcDbCircle
 10
171.1021233589
 20
120.5721493346
 30
0.0
 40
2.300000000000011
  0
CIRCLE
  5
157
330
1F
100
AcDbEntity
  8
0
  6
HIDDEN
 62
     7
370
     0
100
AcDbCircle
 10
225.4308421547
 20
100.7434305388
 30
0.0
 40
1.65000000000002
  0
CIRCLE
  5
158
330
1F
100
AcDbEntity
  8
0
  6
HIDDEN
 62
     7
370
     0
100
AcDbCircle
 10
194.6021233589
 20
120.5721493346
 30
0.0
 40
2.0
  0
LINE
  5
159
330
1F
100
AcDbEntity
  8
0
  6
HIDDEN
 62
     7
370
     0
100
AcDbLine
 10
206.9646855832
 20
106.1147987378
 30
0.0
 11
226.0647499949
 21
106.1147987378
 31
0.0
  0
SPLINE
  5
15A
330
1F
100
AcDbEntity
  8
0
  6
HIDDEN
 62
     7
370
     0
100
AcDbSpline
210
0.0
220
0.0
230
1.0
 70
     8
 71
     3
 72
     8
 73
     4
 74
     0
 42
0.00000001
 43
0.00000001
 12
1.0
 22
0.0
 32
0.0
 13
1.0
 23
0.0
 33
0.0
 40
0.0
 40
0.0
 40
0.0
 40
0.0
 40
1.0
 40
1.0
 40
1.0
 40
1.0
 10
206.964686488735
 20
106.1147985123825
 30
0.0
 10
206.3870771285563
 20
109.8551277842233
 30
0.0
 10
205.9556145258731
 20
113.6166628968822
 30
0.0
 10
205.8007221972247
 20
117.418328254691
 30
0.0
  0
LINE
  5
15B
330
1F
100
AcDbEntity
  8
0
  6
HIDDEN
 62
     7
370
     0
100
AcDbLine
 10
221.5063655765
 20
120.5721493346
 30
0.0
 11
226.0647499949
 21
106.1147987378
 31
0.0
  0
SPLINE
  5
15C
330
1F
100
AcDbEntity
  8
0
  6
HIDDEN
 62
     7
370
     0
100
AcDbSpline
210
0.0
220
0.0
230
1.0
 70
     8
 71
     3
 72
    10
 73
     6
 74
     0
 42
0.00000001
 43
0.00000001
 12
1.0
 22
0.0
 32
0.0
 13
1.0
 23
0.0
 33
0.0
 40
0.0
 40
0.0
 40
0.0
 40
0.0
 40
0.5
 40
0.5
 40
1.0
 40
1.0
 40
1.0
 40
1.0
 10
205.8007221972247
 20
117.418328254691
 30
0.0
 10
205.779310779792
 20
117.9438484313588
 30
0.0
 10
205.7528074367663
 20
118.4692438376965
 30
0.0
 10
205.713362179551
 20
119.5203669537257
 30
0.0
 10
205.7008217747201
 20
120.0461045018279
 30
0.0
 10
205.7008217747201
 20
120.5721493345556
 30
0.0
  0
LINE
  5
15D
330
1F
100
AcDbEntity
  8
0
  6
HIDDEN
 62
     7
370
     0
100
AcDbLine
 10
182.6021233589
 20
104.7721500975
 30
0.0
 11
182.6950165793
 21
104.8650420737
 31
0.0
  0
LINE
  5
15E
330
1F
100
AcDbEntity
  8
0
  6
HIDDEN
 62
     7
370
     0
100
AcDbLine
 10
182.6950165793
 20
136.2792565954
 30
0.0
 11
182.6021233589
 21
136.3721485716
 31
0.0
  0
ARC
  5
15F
330
1F
100
AcDbEntity
  8
0
  6
HIDDEN
 62
     7
370
     0
100
AcDbCircle
 10
181.9879097965
 20
105.5721493346
 30
0.0
 40
1.000000000000028
100
AcDbArc
 50
315.0
 51
0.0
  0
ARC
  5
160
330
1F
100
AcDbEntity
  8
0
  6
HIDDEN
 62
     7
370
     0
100
AcDbCircle
 10
181.9879097965
 20
105.5721493346
 30
0.0
 40
1.000000000000028
100
AcDbArc
 50
0.0
 51
52.1052014664
  0
ARC
  5
161
330
1F
100
AcDbEntity
  8
0
  6
HIDDEN
 62
     7
370
     0
100
AcDbCircle
 10
181.9879097965
 20
135.5721493346
 30
0.0
 40
1.000000000000008
100
AcDbArc
 50
351.8087250651
 51
45.0
  0
ARC
  5
162
330
1F
100
AcDbEntity
  8
0
  6
HIDDEN
 62
     7
370
     0
100
AcDbCircle
 10
181.9879097965
 20
135.5721493346
 30
0.0
 40
1.000000000000006
100
AcDbArc
 50
307.8947985336
 51
351.8087250651
  0
LINE
  5
163
330
1F
100
AcDbEntity
  8
0
  6
HIDDEN
 62
     7
370
     0
100
AcDbLine
 10
182.9879097947
 20
105.5721496698
 30
0.0
 11
182.9879097947
 21
135.5721489993
 31
0.0
  0
LINE
  5
164
330
1F
100
AcDbEntity
  8
0
  6
HIDDEN
 62
     7
370
     0
100
AcDbLine
 10
182.9879097947
 20
105.5721496698
 30
0.0
 11
182.9879097947
 21
135.5721489993
 31
0.0
  0
LINE
  5
165
330
1F
100
AcDbEntity
  8
0
  6
HIDDEN
 62
     7
370
     0
100
AcDbLine
 10
198.702123949
 20
117.0563076624
 30
0.0
 11
198.702123949
 21
118.43678616
 31
0.0
  0
LINE
  5
166
330
1F
100
AcDbEntity
  8
0
  6
HIDDEN
 62
     7
370
     0
100
AcDbLine
 10
198.702123949
 20
115.4418471736
 30
0.0
 11
198.702123949
 21
116.0312314053
 31
0.0
  0
LINE
  5
167
330
1F
100
AcDbEntity
  8
0
  6
HIDDEN
 62
     7
370
     0
100
AcDbLine
 10
194.5021236331
 20
118.4371244629
 30
0.0
 11
194.5021236331
 21
115.4418471736
 31
0.0
  0
LINE
  5
168
330
1F
100
AcDbEntity
  8
0
  6
HIDDEN
 62
     7
370
     0
100
AcDbLine
 10
201.9049869866
 20
115.3724226636
 30
0.0
 11
198.5516631991
 21
117.482811492
 31
0.0
  0
LINE
  5
169
330
1F
100
AcDbEntity
  8
0
  6
HIDDEN
 62
     7
370
     0
100
AcDbLine
 10
194.6879010663
 20
114.9519104977
 30
0.0
 11
202.1054709346
 21
110.283719888
 31
0.0
  0
LINE
  5
16A
330
1F
100
AcDbEntity
  8
0
  6
HIDDEN
 62
     7
370
     0
100
AcDbLine
 10
194.6505671383
 20
115.8302985598
 30
0.0
 11
194.6046352402
 21
115.2482135688
 31
0.0
  0
LINE
  5
16B
330
1F
100
AcDbEntity
  8
0
  6
HIDDEN
 62
     7
370
     0
100
AcDbLine
 10
158.6021231503
 20
110.4164985475
 30
0.0
 11
159.6291558833
 21
111.0094557983
 31
0.0
  0
LINE
  5
16C
330
1F
100
AcDbEntity
  8
0
  6
HIDDEN
 62
     7
370
     0
100
AcDbLine
 10
159.6291558833
 20
130.1348428708
 30
0.0
 11
158.6021231503
 21
130.7278001216
 31
0.0
  0
ARC
  5
16D
330
1F
100
AcDbEntity
  8
0
  6
HIDDEN
 62
     7
370
     0
100
AcDbCircle
 10
165.1149418286
 20
111.5721493346
 30
0.0
 40
1.000000000000028
100
AcDbArc
 50
270.0
 51
315.0
  0
ARC
  5
16E
330
1F
100
AcDbEntity
  8
0
  6
HIDDEN
 62
     7
370
     0
100
AcDbCircle
 10
165.1149418286
 20
129.5721493346
 30
0.0
 40
1.000000000000028
100
AcDbArc
 50
45.0
 51
90.0
  0
ARC
  5
16F
330
1F
100
AcDbEntity
  8
0
  6
HIDDEN
 62
     7
370
     0
100
AcDbCircle
 10
164.1021233589
 20
111.5721493346
 30
0.0
 40
1.000000000000008
100
AcDbArc
 50
193.3524261238
 51
270.0
  0
ARC
  5
170
330
1F
100
AcDbEntity
  8
0
  6
HIDDEN
 62
     7
370
     0
100
AcDbCircle
 10
164.1021233589
 20
129.5721493346
 30
0.0
 40
1.000000000000004
100
AcDbArc
 50
90.0
 51
166.6475738762
  0
LINE
  5
171
330
1F
100
AcDbEntity
  8
0
  6
HIDDEN
 62
     7
370
     0
100
AcDbLine
 10
164.1021231205
 20
110.5721495581
 30
0.0
 11
165.1149420083
 21
110.5721495581
 31
0.0
  0
LINE
  5
172
330
1F
100
AcDbEntity
  8
0
  6
HIDDEN
 62
     7
370
     0
100
AcDbLine
 10
165.1149420083
 20
130.572149111
 30
0.0
 11
164.1021231205
 21
130.572149111
 31
0.0
  0
LINE
  5
173
330
1F
100
AcDbEntity
  8
0
  6
HIDDEN
 62
     7
370
     0
100
AcDbLine
 10
165.8220486731
 20
110.8650421259
 30
0.0
 11
166.5291553379
 21
111.572149722
 31
0.0
  0
LINE
  5
174
330
1F
100
AcDbEntity
  8
0
  6
HIDDEN
 62
     7
370
     0
100
AcDbLine
 10
166.5291553379
 20
129.5721489471
 30
0.0
 11
165.8220486731
 21
130.2792565432
 31
0.0
  0
LINE
  5
175
330
1F
100
AcDbEntity
  8
0
  6
HIDDEN
 62
     7
370
     0
100
AcDbLine
 10
159.6291558833
 20
111.0094557983
 30
0.0
 11
161.7291560412
 21
111.572149722
 31
0.0
  0
LINE
  5
176
330
1F
100
AcDbEntity
  8
0
  6
HIDDEN
 62
     7
370
     0
100
AcDbLine
 10
161.7291560412
 20
129.5721489471
 30
0.0
 11
159.6291558833
 21
130.1348428708
 31
0.0
  0
LINE
  5
177
330
1F
100
AcDbEntity
  8
0
  6
HIDDEN
 62
     7
370
     0
100
AcDbLine
 10
163.1291555256
 20
129.803089006
 30
0.0
 11
162.7291562051
 21
129.5721489471
 31
0.0
  0
LINE
  5
178
330
1F
100
AcDbEntity
  8
0
  6
HIDDEN
 62
     7
370
     0
100
AcDbLine
 10
162.7291562051
 20
111.572149722
 30
0.0
 11
163.1291555256
 21
111.3412096632
 31
0.0
  0
ARC
  5
179
330
1F
100
AcDbEntity
  8
0
  6
HIDDEN
 62
     7
370
     0
100
AcDbCircle
 10
173.1021233589
 20
112.0721493346
 30
0.0
 40
0.5
100
AcDbArc
 50
270.0
 51
0.0
  0
ARC
  5
17A
330
1F
100
AcDbEntity
  8
0
  6
HIDDEN
 62
     7
370
     0
100
AcDbCircle
 10
173.1021233589
 20
129.0721493346
 30
0.0
 40
0.5
100
AcDbArc
 50
0.0
 51
90.0
  0
LINE
  5
17B
330
1F
100
AcDbEntity
  8
0
  6
HIDDEN
 62
     7
370
     0
100
AcDbLine
 10
161.7291560412
 20
111.572149722
 30
0.0
 11
162.7291562051
 21
111.572149722
 31
0.0
  0
LINE
  5
17C
330
1F
100
AcDbEntity
  8
0
  6
HIDDEN
 62
     7
370
     0
100
AcDbLine
 10
162.7291562051
 20
129.5721489471
 30
0.0
 11
161.7291560412
 21
129.5721489471
 31
0.0
  0
LINE
  5
17D
330
1F
100
AcDbEntity
  8
0
  6
HIDDEN
 62
     7
370
     0
100
AcDbLine
 10
166.5291553379
 20
111.572149722
 30
0.0
 11
173.1021236644
 21
111.572149722
 31
0.0
  0
LINE
  5
17E
330
1F
100
AcDbEntity
  8
0
  6
HIDDEN
 62
     7
370
     0
100
AcDbLine
 10
173.1021236644
 20
129.5721489471
 30
0.0
 11
166.5291553379
 21
129.5721489471
 31
0.0
  0
LINE
  5
17F
330
1F
100
AcDbEntity
  8
0
  6
HIDDEN
 62
     7
370
     0
100
AcDbLine
 10
173.6021237463
 20
113.4221493733
 30
0.0
 11
174.5021231488
 21
114.3221492414
 31
0.0
  0
LINE
  5
180
330
1F
100
AcDbEntity
  8
0
  6
HIDDEN
 62
     7
370
     0
100
AcDbLine
 10
174.5021231488
 20
126.8221494277
 30
0.0
 11
173.6021237463
 21
127.7221492958
 31
0.0
  0
LINE
  5
181
330
1F
100
AcDbEntity
  8
0
  6
HIDDEN
 62
     7
370
     0
100
AcDbLine
 10
199.5867444218
 20
114.3221492414
 30
0.0
 11
203.34212389
 21
120.5721493346
 31
0.0
  0
LINE
  5
182
330
1F
100
AcDbEntity
  8
0
  6
HIDDEN
 62
     7
370
     0
100
AcDbLine
 10
203.34212389
 20
120.5721493346
 30
0.0
 11
199.5867444218
 21
126.8221494277
 31
0.0
  0
LINE
  5
183
330
1F
100
AcDbEntity
  8
0
  6
HIDDEN
 62
     7
370
     0
100
AcDbLine
 10
174.5021231488
 20
114.3221492414
 30
0.0
 11
199.5867444218
 21
114.3221492414
 31
0.0
  0
LINE
  5
184
330
1F
100
AcDbEntity
  8
0
  6
HIDDEN
 62
     7
370
     0
100
AcDbLine
 10
199.5867444218
 20
126.8221494277
 30
0.0
 11
174.5021231488
 21
126.8221494277
 31
0.0
  0
LINE
  5
185
330
1F
100
AcDbEntity
  8
0
  6
HIDDEN
 62
     7
370
     0
100
AcDbLine
 10
198.702123949
 20
122.7071742062
 30
0.0
 11
198.702123949
 21
125.2782289405
 31
0.0
  0
LINE
  5
186
330
1F
100
AcDbEntity
  8
0
  6
HIDDEN
 62
     7
370
     0
100
AcDbLine
 10
194.5021236331
 20
125.2782289405
 30
0.0
 11
194.5021236331
 21
122.7075125092
 31
0.0
  0
LINE
  5
187
330
1F
100
AcDbEntity
  8
0
  6
HIDDEN
 62
     7
370
     0
100
AcDbLine
 10
199.1021232695
 20
125.3604311962
 30
0.0
 11
199.1021232695
 21
127.4112230633
 31
0.0
  0
LINE
  5
188
330
1F
100
AcDbEntity
  8
0
  6
HIDDEN
 62
     7
370
     0
100
AcDbLine
 10
194.1021233813
 20
127.4125264493
 30
0.0
 11
194.1021233813
 21
125.3604311962
 31
0.0
  0
LINE
  5
189
330
1F
100
AcDbEntity
  8
VERMASSUNG
  6
CENTERX2
100
AcDbLine
 10
232.6021233589
 20
93.5721493346
 30
0.0
 11
246.9293206119
 21
93.5721493346
 31
0.0
  0
LINE
  5
18A
330
1F
100
AcDbEntity
  8
VERMASSUNG
  6
CENTERX2
100
AcDbLine
 10
232.6021233589
 20
93.5721493346
 30
0.0
 11
232.6021233589
 21
120.5721493346
 31
0.0
  0
LINE
  5
18B
330
1F
100
AcDbEntity
  8
VERMASSUNG
  6
CENTERX2
100
AcDbLine
 10
155.3583029131
 20
120.5721493346
 30
0.0
 11
232.6021233589
 21
120.5721493346
 31
0.0
  0
DIMENSION
  5
18C
330
1F
100
AcDbEntity
  8
VERMASSUNG
100
AcDbDimension
  2
_D
 10
251.4087097807
 20
120.5721493346
 30
0.0
 11
251.4087097807
 21
107.0721493346
 31
0.0
 70
   160
  1
<>
 71
     2
 42
-1.0
  3
SLDDIMSTYLE0
100
AcDbAlignedDimension
 13
232.6021233589
 23
93.5721493346
 33
0.0
 14
232.6021233589
 24
120.5721493346
 34
0.0
 50
90.0
100
AcDbRotatedDimension
  0
DIMENSION
  5
199
330
1F
100
AcDbEntity
  8
VERMASSUNG
100
AcDbDimension
  2
_D_1
 10
232.6021233589
 20
85.1231931094
 30
0.0
 11
207.6021233589
 21
85.1231931094
 31
0.0
 70
   160
  1
<>
 71
     2
 42
-1.0
  3
SLDDIMSTYLE0
100
AcDbAlignedDimension
 13
182.6021233589
 23
100.8721493346
 33
0.0
 14
232.6021233589
 24
93.5721493346
 34
0.0
100
AcDbRotatedDimension
  0
DIMENSION
  5
1A5
330
1F
100
AcDbEntity
  8
VERMASSUNG
100
AcDbDimension
  2
_D_2
 10
158.6021233589
 20
74.697150144
 30
0.0
 11
195.6021233589
 21
74.697150144
 31
0.0
 70
   160
  1
<>
 71
     2
 42
-1.0
  3
SLDDIMSTYLE1
100
AcDbAlignedDimension
 13
232.6021233589
 23
93.5721493346
 33
0.0
 14
158.6021233589
 24
107.9406443525
 34
0.0
100
AcDbRotatedDimension
  0
DIMENSION
  5
1B0
330
1F
100
AcDbEntity
  8
VERMASSUNG
100
AcDbDimension
  2
_D_3
 10
232.5862236258
 20
94.084142734
 30
0.0
 11
239.0552754534
 21
102.1746588284
 31
0.0
 70
   162
  1
<>
 71
     1
 42
-1.0
  3
SLDDIMSTYLE2
100
AcDb2LineAngularDimension
 13
232.6021233589
 23
93.5721493346
 33
0.0
 14
246.9293206119
 24
93.5721493346
 34
0.0
 15
229.3802467902
 25
104.2522022021
 35
0.0
 16
239.0552754534
 26
102.1746588284
 36
0.0
  0
DIMENSION
  5
1B9
330
1F
100
AcDbEntity
  8
VERMASSUNG
100
AcDbDimension
  2
_D_4
 10
151.0059955535
 20
100.5721493346
 30
0.0
 11
151.0059955535
 21
120.5721493346
 31
0.0
 70
   160
  1
PSC%%c<>
 71
     2
 42
-1.0
  3
SLDDIMSTYLE1
100
AcDbAlignedDimension
 13
182.9021233589
 23
140.5721493346
 33
0.0
 14
182.9021233589
 24
100.5721493346
 34
0.0
 50
90.0
100
AcDbRotatedDimension
  0
LINE
  5
1C5
330
1F
100
AcDbEntity
  8
0
  6
Continuous
 62
     7
370
    15
100
AcDbLine
 10
82.841980633
 20
99.0827060771
 30
0.0
 11
82.8421856533
 21
99.0827060771
 31
0.0
  0
SPLINE
  5
1C6
330
1F
100
AcDbEntity
  8
0
  6
Continuous
 62
     7
370
    15
100
AcDbSpline
210
0.0
220
0.0
230
1.0
 70
     8
 71
     3
 72
    10
 73
     6
 74
     0
 42
0.00000001
 43
0.00000001
 12
1.0
 22
0.0
 32
0.0
 13
1.0
 23
0.0
 33
0.0
 40
0.0
 40
0.0
 40
0.0
 40
0.0
 40
0.3326244300677474
 40
0.6678452751822426
 40
1.0
 40
1.0
 40
1.0
 40
1.0
 10
82.7942169019821
 20
93.56148685336683
 30
0.0
 10
83.24135426956677
 20
93.63397700083506
 30
0.0
 10
84.13911929012775
 20
93.77952314269258
 30
0.0
 10
85.50348167217867
 20
93.93804069966389
 30
0.0
 10
86.39792190730574
 20
94.08936175950342
 30
0.0
 10
86.84308736368398
 20
94.16467468262289
 30
0.0
  0
LINE
  5
1C7
330
1F
100
AcDbEntity
  8
0
  6
Continuous
 62
     7
370
    15
100
AcDbLine
 10
83.1421856677
 20
107.6902668458
 30
0.0
 11
82.794216902
 21
107.7439929825
 31
0.0
  0
LINE
  5
1C8
330
1F
100
AcDbEntity
  8
0
  6
Continuous
 62
     7
370
    15
100
AcDbLine
 10
86.812185615
 20
94.2879165989
 30
0.0
 11
86.812185615
 21
104.0114402306
 31
0.0
  0
LINE
  5
1C9
330
1F
100
AcDbEntity
  8
0
  6
Continuous
 62
     7
370
    15
100
AcDbLine
 10
82.8421856534
 20
94.0841432196
 30
0.0
 11
82.8421856534
 21
104.2522020173
 31
0.0
  0
SPLINE
  5
1CA
330
1F
100
AcDbEntity
  8
0
  6
Continuous
 62
     7
370
    15
100
AcDbSpline
210
0.0
220
0.0
230
1.0
 70
    24
 71
     3
 72
    14
 73
    10
 74
     0
 42
0.00000001
 43
0.00000001
 12
1.0
 22
0.0
 32
0.0
 13
1.0
 23
0.0
 33
0.0
 40
0.0
 40
0.0
 40
0.0
 40
0.0
 40
0.1583193471097689
 40
0.3168044619920826
 40
0.4713829294660093
 40
0.6221269029202654
 40
0.7721364104422866
 40
0.9246008604890389
 40
1.0
 40
1.0
 40
1.0
 40
1.0
 10
86.81218561499695
 20
94.28791659892175
 30
0.0
 10
86.81218561499695
 20
94.27662791611733
 30
0.0
 10
86.81218561499695
 20
94.25403873072881
 30
0.0
 10
86.81218561499695
 20
94.21979166842252
 30
0.0
 10
86.81218561499695
 20
94.19065695399397
 30
0.0
 10
86.81218561499695
 20
94.16955607925759
 30
0.0
 10
86.81218561499695
 20
94.15845903671652
 30
0.0
 10
86.81218561499695
 20
94.15780408526986
 30
0.0
 10
86.81218561499695
 20
94.16201618110358
 30
0.0
 10
86.81218561499695
 20
94.16340994656656
 30
0.0
  0
SPLINE
  5
1CB
330
1F
100
AcDbEntity
  8
0
  6
Continuous
 62
     7
370
    15
100
AcDbSpline
210
0.0
220
0.0
230
1.0
 70
    24
 71
     3
 72
    13
 73
     9
 74
     0
 42
0.00000001
 43
0.00000001
 12
1.0
 22
0.0
 32
0.0
 13
1.0
 23
0.0
 33
0.0
 40
0.0
 40
0.0
 40
0.0
 40
0.0
 40
0.1669829370226084
 40
0.3557325207401528
 40
0.5407535619873709
 40
0.7250316641426313
 40
0.9118267882185871
 40
0.9999999999999999
 40
0.9999999999999999
 40
0.9999999999999999
 40
0.9999999999999999
 10
82.84218565344158
 20
93.57316750109766
 30
0.0
 10
82.8421856534416
 20
93.57858811837552
 30
0.0
 10
82.84218565344165
 20
93.59013594405526
 30
0.0
 10
82.84218565344123
 20
93.66139703418904
 30
0.0
 10
82.84218565344167
 20
93.76490859627948
 30
0.0
 10
82.84218565344155
 20
93.89071656470907
 30
0.0
 10
82.84218565344158
 20
94.00135228718891
 30
0.0
 10
82.84218565344158
 20
94.06404102400808
 30
0.0
 10
82.84218565344158
 20
94.08414321959589
 30
0.0
  0
SPLINE
  5
1CC
330
1F
100
AcDbEntity
  8
0
  6
Continuous
 62
     7
370
    15
100
AcDbSpline
210
0.0
220
0.0
230
1.0
 70
    24
 71
     3
 72
    10
 73
     6
 74
     0
 42
0.00000001
 43
0.00000001
 12
1.0
 22
0.0
 32
0.0
 13
1.0
 23
0.0
 33
0.0
 40
0.0
 40
0.0
 40
0.0
 40
0.0
 40
0.2656982993129963
 40
0.616505804211366
 40
1.0
 40
1.0
 40
1.0
 40
1.0
 10
86.81218561499695
 20
104.0762546938715
 30
0.0
 10
86.81218561499695
 20
104.0731116306005
 30
0.0
 10
86.81218561499695
 20
104.0658187094394
 30
0.0
 10
86.81218561499695
 20
104.0440872585935
 30
0.0
 10
86.81218561499695
 20
104.0226407957432
 30
0.0
 10
86.81218561499695
 20
104.0114402306137
 30
0.0
  0
SPLINE
  5
1CD
330
1F
100
AcDbEntity
  8
0
  6
Continuous
 62
     7
370
    15
100
AcDbSpline
210
0.0
220
0.0
230
1.0
 70
    24
 71
     3
 72
    10
 73
     6
 74
     0
 42
0.00000001
 43
0.00000001
 12
1.0
 22
0.0
 32
0.0
 13
1.0
 23
0.0
 33
0.0
 40
0.0
 40
0.0
 40
0.0
 40
0.0
 40
0.3518073039562881
 40
0.7034269853947418
 40
0.9999999999999999
 40
0.9999999999999999
 40
0.9999999999999999
 40
0.9999999999999999
 10
82.8421856534416
 20
104.252202017313
 30
0.0
 10
82.8421856534416
 20
104.293376279383
 30
0.0
 10
82.8421856534416
 20
104.375702844858
 30
0.0
 10
82.8421856534416
 20
104.4657678660797
 30
0.0
 10
82.8421856534416
 20
104.4971127815853
 30
0.0
 10
82.8421856534416
 20
104.5114542824087
 30
0.0
  0
LINE
  5
1CE
330
1F
100
AcDbEntity
  8
0
  6
Continuous
 62
     7
370
    15
100
AcDbLine
 10
86.812185615
 20
104.0762546939
 30
0.0
 11
86.812185615
 21
104.1263561231
 31
0.0
  0
LINE
  5
1CF
330
1F
100
AcDbEntity
  8
0
  6
Continuous
 62
     7
370
    15
100
AcDbLine
 10
82.8421856534
 20
104.5114542824
 30
0.0
 11
82.8421856534
 21
107.7174307314
 31
0.0
  0
LINE
  5
1D0
330
1F
100
AcDbEntity
  8
0
  6
Continuous
 62
     7
370
    15
100
AcDbLine
 10
82.8421856534
 20
104.2522020173
 30
0.0
 11
82.8421856534
 21
104.5114542824
 31
0.0
  0
LINE
  5
1D1
330
1F
100
AcDbEntity
  8
0
  6
Continuous
 62
     7
370
    15
100
AcDbLine
 10
86.812185615
 20
104.3407894206
 30
0.0
 11
85.312185602
 21
104.2763083708
 31
0.0
  0
LINE
  5
1D2
330
1F
100
AcDbEntity
  8
0
  6
Continuous
 62
     7
370
    15
100
AcDbLine
 10
83.1421856677
 20
104.4932376128
 30
0.0
 11
83.1421856677
 21
141.0699538422
 31
0.0
  0
ARC
  5
1D3
330
1F
100
AcDbEntity
  8
0
  6
Continuous
 62
     7
370
    15
100
AcDbCircle
 10
82.8421856534
 20
120.5721493346
 30
0.0
 40
20.50000000000051
100
AcDbArc
 50
0.0
 51
89.1614952473
  0
LINE
  5
1D4
330
1F
100
AcDbEntity
  8
0
  6
Continuous
 62
     7
370
    15
100
AcDbLine
 10
103.3421862197
 20
120.5721493346
 30
0.0
 11
103.3421862197
 21
106.1147987378
 31
0.0
  0
ARC
  5
1D5
330
1F
100
AcDbEntity
  8
0
  6
Continuous
 62
     7
370
    15
100
AcDbCircle
 10
81.8421856534
 20
118.8721493346
 30
0.0
 40
25.00000000000002
100
AcDbArc
 50
291.5985944762
 51
329.316582891
  0
LINE
  5
1D6
330
1F
100
AcDbEntity
  8
0
  6
Continuous
 62
     7
370
    15
100
AcDbLine
 10
86.812185615
 20
94.8685068172
 30
0.0
 11
91.0447291356
 21
95.6275123638
 31
0.0
  0
LINE
  5
1D7
330
1F
100
AcDbEntity
  8
0
  6
Continuous
 62
     7
370
    15
100
AcDbLine
 10
86.812185615
 20
104.0114402306
 30
0.0
 11
86.812185615
 21
104.0762546939
 31
0.0
  0
LINE
  5
1D8
330
1F
100
AcDbEntity
  8
0
  6
Continuous
 62
     7
370
    15
100
AcDbLine
 10
86.812185615
 20
104.1263561231
 30
0.0
 11
86.812185615
 21
104.3407894206
 31
0.0
  0
LINE
  5
1D9
330
1F
100
AcDbEntity
  8
0
  6
Continuous
 62
     7
370
    15
100
AcDbLine
 10
89.0623624694
 20
94.9374656659
 30
0.0
 11
86.812185615
 21
94.533951534
 31
0.0
  0
ARC
  5
1DA
330
1F
100
AcDbEntity
  8
0
  6
Continuous
 62
     7
370
    15
100
AcDbCircle
 10
81.8421856534
 20
118.8721493346
 30
0.0
 40
25.00000000000002
100
AcDbArc
 50
286.786550553
 51
291.5985944762
  0
SPLINE
  5
1DB
330
1F
100
AcDbEntity
  8
0
  6
Continuous
 62
     7
370
    15
100
AcDbSpline
210
0.0
220
0.0
230
1.0
 70
     8
 71
     3
 72
     8
 73
     4
 74
     0
 42
0.00000001
 43
0.00000001
 12
1.0
 22
0.0
 32
0.0
 13
1.0
 23
0.0
 33
0.0
 40
0.0
 40
0.0
 40
0.0
 40
0.0
 40
1.0
 40
1.0
 40
1.0
 40
1.0
 10
83.14218565344214
 20
140.6454103660894
 30
0.0
 10
83.14218565344166
 20
140.5932823881911
 30
0.0
 10
83.11069507090714
 20
140.5704529984355
 30
0.0
 10
83.04553142029084
 20
140.5711155703085
 30
0.0
  0
SPLINE
  5
1DC
330
1F
100
AcDbEntity
  8
0
  6
Continuous
 62
     7
370
    15
100
AcDbSpline
210
0.0
220
0.0
230
1.0
 70
     8
 71
     3
 72
     9
 73
     5
 74
     0
 42
0.00000001
 43
0.00000001
 12
1.0
 22
0.0
 32
0.0
 13
1.0
 23
0.0
 33
0.0
 40
0.0
 40
0.0
 40
0.0
 40
0.0
 40
0.7978727752534331
 40
1.0
 40
1.0
 40
1.0
 40
1.0
 10
82.54924090246054
 20
100.5742955488024
 30
0.0
 10
82.6373295485439
 20
100.5732611485614
 30
0.0
 10
82.74773392479975
 20
100.5719647009659
 30
0.0
 10
82.8263044176119
 20
100.5722658603659
 30
0.0
 10
82.84218565327099
 20
100.5723267328796
 30
0.0
  0
SPLINE
  5
1DD
330
1F
100
AcDbEntity
  8
0
  6
Continuous
 62
     7
370
    15
100
AcDbSpline
210
0.0
220
0.0
230
1.0
 70
     8
 71
     3
 72
     8
 73
     4
 74
     0
 42
0.00000001
 43
0.00000001
 12
1.0
 22
0.0
 32
0.0
 13
1.0
 23
0.0
 33
0.0
 40
0.0
 40
0.0
 40
0.0
 40
0.0
 40
1.0
 40
1.0
 40
1.0
 40
1.0
 10
83.04553142027824
 20
140.5711155703167
 30
0.0
 10
82.94146203365698
 20
140.5721737284723
 30
0.0
 10
82.76019176746509
 20
140.573093982866
 30
0.0
 10
82.54924088952416
 20
140.5700038036053
 30
0.0
  0
ELLIPSE
  5
1DE
330
1F
100
AcDbEntity
  8
0
  6
Continuous
 62
     7
370
    15
100
AcDbEllipse
 10
73.4504451125
 20
112.8280710448
 30
0.0
 11
-1.766764322878629
 21
2.237622363123393
 31
0.0
210
0.0
220
0.0
230
1.0
 40
0.7216768204
 41
0.0
 42
6.283185307179586
  0
ARC
  5
1DF
330
1F
100
AcDbEntity
  8
0
  6
Continuous
 62
     7
370
    15
100
AcDbCircle
 10
82.8421856534
 20
120.5721493346
 30
0.0
 40
20.00000000000002
100
AcDbArc
 50
90.8392549412
 51
269.1607450588
  0
LINE
  5
1E0
330
1F
100
AcDbEntity
  8
0
  6
Continuous
 62
     7
370
    15
100
AcDbLine
 10
71.1457855326
 20
114.1189304647
 30
0.0
 11
71.0469545123
 21
114.0833707061
 31
0.0
  0
SPLINE
  5
1E1
330
1F
100
AcDbEntity
  8
0
  6
Continuous
 62
     7
370
    15
100
AcDbSpline
210
0.0
220
0.0
230
1.0
 70
     8
 71
     3
 72
    11
 73
     7
 74
     0
 42
0.00000001
 43
0.00000001
 12
1.0
 22
0.0
 32
0.0
 13
1.0
 23
0.0
 33
0.0
 40
0.0
 40
0.0
 40
0.0
 40
0.0
 40
0.3882521911323469
 40
0.6816498456629678
 40
0.9189556301611894
 40
1.0
 40
1.0
 40
1.0
 40
1.0
 10
73.86559390246252
 20
115.0917103980539
 30
0.0
 10
73.76402388208409
 20
115.0572358501478
 30
0.0
 10
73.58569858142573
 20
114.9967092882991
 30
0.0
 10
73.33834493294657
 20
115.0685776046031
 30
0.0
 10
73.20307687057301
 20
115.1749708805089
 30
0.0
 10
73.18751240249615
 20
115.2835312862284
 30
0.0
 10
73.1835500594912
 20
115.3111681808588
 30
0.0
  0
ARC
  5
1E2
330
1F
100
AcDbEntity
  8
0
  6
Continuous
 62
     7
370
    15
100
AcDbCircle
 10
71.1911463031
 20
117.4618596183
 30
0.0
 40
2.535183252465853
100
AcDbArc
 50
278.2925247802
 51
305.6958497452
  0
CIRCLE
  5
1E3
330
1F
100
AcDbEntity
  8
VERMASSUNG
  6
CENTERX2
100
AcDbCircle
 10
82.8421856534
 20
118.7419169578
 30
0.0
 40
24.99999999999999
  0
DIMENSION
  5
1E4
330
1F
100
AcDbEntity
  8
VERMASSUNG
100
AcDbDimension
  2
_D_5
 10
65.1645161238
 20
101.0642474282
 30
0.0
 11
55.5762152777
 21
91.4759465821
 31
0.0
 70
   160
  1
%%c<> min. 
 71
     2
 42
-1.0
  3
SLDDIMSTYLE3
100
AcDbAlignedDimension
 13
100.5198551831
 23
136.4195864875
 33
0.0
 14
65.1645161238
 24
101.0642474282
 34
0.0
 50
45.0
100
AcDbRotatedDimension
  0
INSERT
  5
1FE
330
1F
100
AcDbEntity
  8
VERMASSUNG
100
AcDbBlockReference
  2
SW_CENTERMARKSYMBOL_0
 10
82.8421856534
 20
120.5721493346
 30
0.0
  0
INSERT
  5
20A
330
1F
100
AcDbEntity
  8
VERMASSUNG
100
AcDbBlockReference
  2
SW_CENTERMARKSYMBOL_1
 10
82.8421856534
 20
120.5721493346
 30
0.0
  0
OLE2FRAME
  5
20B
330
1F
100
AcDbEntity
  8
0
100
AcDbOle2Frame
 70
     2
  3
Paintbrush-Bild
 10
13.8511154363
 20
38.264191557
 30
0.0
 11
51.6290888628
 21
31.9806341108
 31
0.0
 71
     2
 72
     0
 73
     1
 90
    12928
310
80552BED0767C5B32B40DDAF6807D121434000000000000000006FFBDDFB85D0
310
4940DDAF6807D121434000000000000000006FFBDDFB85D04940416F4BD60AFB
310
3F4000000000000000002BED0767C5B32B40416F4BD60AFB3F40000000000000
310
0000000000000100000000010000010000000100000000000100000000320000
310
D0CF11E0A1B11AE1000000000000000000000000000000003E000300FEFF0900
310
0600000000000000000000000100000001000000000000000010000002000000
310
01000000FEFFFFFF0000000000000000FFFFFFFFFFFFFFFFFFFFFFFFFFFFFFFF
310
FFFFFFFFFFFFFFFFFFFFFFFFFFFFFFFFFFFFFFFFFFFFFFFFFFFFFFFFFFFFFFFF
310
FFFFFFFFFFFFFFFFFFFFFFFFFFFFFFFFFFFFFFFFFFFFFFFFFFFFFFFFFFFFFFFF
310
FFFFFFFFFFFFFFFFFFFFFFFFFFFFFFFFFFFFFFFFFFFFFFFFFFFFFFFFFFFFFFFF
310
FFFFFFFFFFFFFFFFFFFFFFFFFFFFFFFFFFFFFFFFFFFFFFFFFFFFFFFFFFFFFFFF
310
FFFFFFFFFFFFFFFFFFFFFFFFFFFFFFFFFFFFFFFFFFFFFFFFFFFFFFFFFFFFFFFF
310
FFFFFFFFFFFFFFFFFFFFFFFFFFFFFFFFFFFFFFFFFFFFFFFFFFFFFFFFFFFFFFFF
310
FFFFFFFFFFFFFFFFFFFFFFFFFFFFFFFFFFFFFFFFFFFFFFFFFFFFFFFFFFFFFFFF
310
FFFFFFFFFFFFFFFFFFFFFFFFFFFFFFFFFFFFFFFFFFFFFFFFFFFFFFFFFFFFFFFF
310
FFFFFFFFFFFFFFFFFFFFFFFFFFFFFFFFFFFFFFFFFFFFFFFFFFFFFFFFFFFFFFFF
310
FFFFFFFFFFFFFFFFFFFFFFFFFFFFFFFFFFFFFFFFFFFFFFFFFFFFFFFFFFFFFFFF
310
FFFFFFFFFFFFFFFFFFFFFFFFFFFFFFFFFFFFFFFFFFFFFFFFFFFFFFFFFFFFFFFF
310
FFFFFFFFFFFFFFFFFFFFFFFFFFFFFFFFFFFFFFFFFFFFFFFFFFFFFFFFFFFFFFFF
310
FFFFFFFFFFFFFFFFFFFFFFFFFFFFFFFFFFFFFFFFFFFFFFFFFFFFFFFFFFFFFFFF
310
FDFFFFFFFEFFFFFFFEFFFFFFFEFFFFFF05000000060000000700000008000000
310
090000000A0000000B0000000C0000000D0000000E0000000F00000010000000
310
11000000120000001300000014000000150000001600000017000000FEFFFFFF
310
FFFFFFFFFFFFFFFFFFFFFFFFFFFFFFFFFFFFFFFFFFFFFFFFFFFFFFFFFFFFFFFF
310
FFFFFFFFFFFFFFFFFFFFFFFFFFFFFFFFFFFFFFFFFFFFFFFFFFFFFFFFFFFFFFFF
310
FFFFFFFFFFFFFFFFFFFFFFFFFFFFFFFFFFFFFFFFFFFFFFFFFFFFFFFFFFFFFFFF
310
FFFFFFFFFFFFFFFFFFFFFFFFFFFFFFFFFFFFFFFFFFFFFFFFFFFFFFFFFFFFFFFF
310
FFFFFFFFFFFFFFFFFFFFFFFFFFFFFFFFFFFFFFFFFFFFFFFFFFFFFFFFFFFFFFFF
310
FFFFFFFFFFFFFFFFFFFFFFFFFFFFFFFFFFFFFFFFFFFFFFFFFFFFFFFFFFFFFFFF
310
FFFFFFFFFFFFFFFFFFFFFFFFFFFFFFFFFFFFFFFFFFFFFFFFFFFFFFFFFFFFFFFF
310
FFFFFFFFFFFFFFFFFFFFFFFFFFFFFFFFFFFFFFFFFFFFFFFFFFFFFFFFFFFFFFFF
310
FFFFFFFFFFFFFFFFFFFFFFFFFFFFFFFFFFFFFFFFFFFFFFFFFFFFFFFFFFFFFFFF
310
FFFFFFFFFFFFFFFFFFFFFFFFFFFFFFFFFFFFFFFFFFFFFFFFFFFFFFFFFFFFFFFF
310
FFFFFFFFFFFFFFFFFFFFFFFFFFFFFFFFFFFFFFFFFFFFFFFFFFFFFFFFFFFFFFFF
310
FFFFFFFFFFFFFFFFFFFFFFFFFFFFFFFFFFFFFFFFFFFFFFFFFFFFFFFFFFFFFFFF
310
FFFFFFFFFFFFFFFFFFFFFFFFFFFFFFFFFFFFFFFFFFFFFFFFFFFFFFFFFFFFFFFF
310
52006F006F007400200045006E00740072007900000000000000000000000000
310
0000000000000000000000000000000000000000000000000000000000000000
310
16000500FFFFFFFFFFFFFFFF020000000A00030000000000C000000000000046
310
000000000000000000000000407E7904CB38CD0103000000C000000000000000
310
01004F006C006500000000000000000000000000000000000000000000000000
310
0000000000000000000000000000000000000000000000000000000000000000
310
0A000200FFFFFFFFFFFFFFFFFFFFFFFF00000000000000000000000000000000
310
0000000000000000000000000000000000000000000000001400000000000000
310
010043006F006D0070004F0062006A0000000000000000000000000000000000
310
0000000000000000000000000000000000000000000000000000000000000000
310
120002010100000003000000FFFFFFFF00000000000000000000000000000000
310
0000000000000000000000000000000000000000010000004D00000000000000
310
01004F006C006500310030004E00610074006900760065000000000000000000
310
0000000000000000000000000000000000000000000000000000000000000000
310
1A000200FFFFFFFFFFFFFFFFFFFFFFFF00000000000000000000000000000000
310
0000000000000000000000000000000000000000040000002426000000000000
310
FEFFFFFF02000000FEFFFFFFFFFFFFFFFFFFFFFFFFFFFFFFFFFFFFFFFFFFFFFF
310
FFFFFFFFFFFFFFFFFFFFFFFFFFFFFFFFFFFFFFFFFFFFFFFFFFFFFFFFFFFFFFFF
310
FFFFFFFFFFFFFFFFFFFFFFFFFFFFFFFFFFFFFFFFFFFFFFFFFFFFFFFFFFFFFFFF
310
FFFFFFFFFFFFFFFFFFFFFFFFFFFFFFFFFFFFFFFFFFFFFFFFFFFFFFFFFFFFFFFF
310
FFFFFFFFFFFFFFFFFFFFFFFFFFFFFFFFFFFFFFFFFFFFFFFFFFFFFFFFFFFFFFFF
310
FFFFFFFFFFFFFFFFFFFFFFFFFFFFFFFFFFFFFFFFFFFFFFFFFFFFFFFFFFFFFFFF
310
FFFFFFFFFFFFFFFFFFFFFFFFFFFFFFFFFFFFFFFFFFFFFFFFFFFFFFFFFFFFFFFF
310
FFFFFFFFFFFFFFFFFFFFFFFFFFFFFFFFFFFFFFFFFFFFFFFFFFFFFFFFFFFFFFFF
310
FFFFFFFFFFFFFFFFFFFFFFFFFFFFFFFFFFFFFFFFFFFFFFFFFFFFFFFFFFFFFFFF
310
FFFFFFFFFFFFFFFFFFFFFFFFFFFFFFFFFFFFFFFFFFFFFFFFFFFFFFFFFFFFFFFF
310
FFFFFFFFFFFFFFFFFFFFFFFFFFFFFFFFFFFFFFFFFFFFFFFFFFFFFFFFFFFFFFFF
310
FFFFFFFFFFFFFFFFFFFFFFFFFFFFFFFFFFFFFFFFFFFFFFFFFFFFFFFFFFFFFFFF
310
FFFFFFFFFFFFFFFFFFFFFFFFFFFFFFFFFFFFFFFFFFFFFFFFFFFFFFFFFFFFFFFF
310
FFFFFFFFFFFFFFFFFFFFFFFFFFFFFFFFFFFFFFFFFFFFFFFFFFFFFFFFFFFFFFFF
310
FFFFFFFFFFFFFFFFFFFFFFFFFFFFFFFFFFFFFFFFFFFFFFFFFFFFFFFFFFFFFFFF
310
FFFFFFFFFFFFFFFFFFFFFFFFFFFFFFFFFFFFFFFFFFFFFFFFFFFFFFFFFFFFFFFF
310
0100000200000000000000000000000000000000000000000000000000000000
310
0000000000000000000000000000000000000000000000000000000000000000
310
0100FEFF030A0000FFFFFFFF0A00030000000000C00000000000004607000000
310
5042727573680007000000504272757368000700000050427275736800F439B2
310
7100000000000000000000000000000000000000000000000000000000000000
310
0000000000000000000000000000000000000000000000000000000000000000
310
0000000000000000000000000000000000000000000000000000000000000000
310
0000000000000000000000000000000000000000000000000000000000000000
310
0000000000000000000000000000000000000000000000000000000000000000
310
0000000000000000000000000000000000000000000000000000000000000000
310
0000000000000000000000000000000000000000000000000000000000000000
310
0000000000000000000000000000000000000000000000000000000000000000
310
0000000000000000000000000000000000000000000000000000000000000000
310
0000000000000000000000000000000000000000000000000000000000000000
310
0000000000000000000000000000000000000000000000000000000000000000
310
0000000000000000000000000000000000000000000000000000000000000000
310
20260000424D0E260000000000003E00000028000000B40200006E0000000100
310
01000000000000000000130B0000130B00000200000002000000000000FFFFFF
310
FFFFFFFFFFFFFFFFFFFFFFFFFFFFFFFFFFFFFFFFFFFFFFFFFFFFFFFFFFFFFFFF
310
FFFFFFFFFFFFFFFFFFFFFFFFFFFFFFFFFFFFFFFFFFFFFFFFFFFFFFFFFFFFFFFF
310
FFFFFFFFFFFFFFFFFFFFFFFFFFFFFFFFFFFFFFFFFFFFFFFFF000FFFFFFFFFFFF
310
FFFFFFFFFFFFFFFFFFFFFFFFFFFFFFFFFFFFFFFFFFFFFFFFFFFFFFFFFFFFFFFF
310
FFFFFFFFFFFFFFFFFFFFFFFFFFFFFFFFFFFFFFFFFFFFFFFFFFFFFFFFFFFFFFFF
310
FFFFFFFFFFFFFFFFFFFFFFFFFFFFFFFFF000FFFFFFFFFFFFFFFFFFFFFFFFFFFF
310
FFFFFFFFFFFFFFFFFFFFFFFFFFFFFFFFFFFFFFFFFFFFFFFFFFFFFFFFFFFFFFFF
310
FFFFFFFFFFFFFFFFFFFFFFFFFFFFFFFFFFFFFFFFFFFFFFFFFFFFFFFFFFFFFFFF
310
FFFFFFFFFFFFFFFFF000FFFFFFFFFFFFFFFFFFFFFFFFFFFFFFFFFFFFFFFFFFFF
310
FFFFFFFFFFFFFFFFFFFFFFFFFFFFFFFFFFFFFFFFFFFFFFFFFFFFFFFFFFFFFFFF
310
FFFFFFFFFFFFFFFFFFFFFFFFFFFFFFFFFFFFFFFFFFFFFFFFFFFFFFFFFFFFFFFF
310
F000FFFFFFFFFFFFFFFFFFFFFFFFFFFFFFFFFFFFFFFFFFFFFFFFFFFFFFFFFFFF
310
FFFFFFFFFFFFFFFFFFFFFFFFFFFFFFFFFFFFFFFFFFFFFFFFFFFFFFFFFFFFFFFF
310
FFFFFFFFFFFFFFFFFFFFFFFFFFFFFFFFFFFFFFFFFFFFFFFFF000FFFFFFFFFFFF
310
FFFFFFFFFFFFFFFFFFFFFFFFFFFFFFFFFFFFFFFFFFFFFFFFFFFFFFFFFFFFFFFF
310
FFFFFFFFFFFFFFFFFFFFFFFFFFFFFFFFFFFFFFFFFFFFFFFFFFFFFFFFFFFFFFFF
310
FFFFFFFFFFFFFFFFFFFFFFFFFFFFFFFFF000FFFFFFFFFFFFFFFFFFFFFFFFFFFF
310
FFFFFFFFFFFFFFFFFFFFFFFFFFFFFFFFFFFFFFFFFFFFFFFFFFFFFFFFFFFFFFFF
310
FFFFFFFFFFFFFFFFFFFFFFFFFFFFFFFFFFFFFFFFFFFFFFFFFFFFFFFFFFFFFFFF
310
FFFFFFFFFFFFFFFFF000FFFFFFFFFFFFFFFFFFFFFFFFFFFFFFFFFFFFFFFFFFFF
310
FFFFFFFFFFFFFFFFFFFFFFFFFFFFFFFFFFFFFFFFFFFFFFFFFFFFFFFFFFFFFFFF
310
FFFFFFFFFFFFFFFFFFFFFFFFFFFFFFFFFFFFFFFFFFFFFFFFFFFFFFFFFFFFFFFF
310
F000FFFFFFFFFFFFFFFFFFFFFFFFFFFFFFFFFFFFFFFFFFFFFFFFFFFFFFFFFFFF
310
FFFFFFFFFFFFFFFFFFFFFFFFFFFFFFFFFFFFFFFFFFFFFFFFFFFFFFFFFFFFFFFF
310
FFFFFFFFFFFFFFFFFFFFFFFFFFFFFFFFFFFFFFFFFFFFFFFFF000FFFFFFFFFFFF
310
FFFFFFFFFFFFFFFFFFFFFFFFFFFFFFFFFFFFFFFFFFFFFFFFFFFFFFFFFFFFFFFF
310
FFFFFFFFFFFFFFFFFFFFFFFFFFFFFFFFFFFFFFFFFFFFFFFFFFFFFFFFFFFFFFFF
310
FFFFFFFFFFFFFFFFFFFFFFFFFFFFFFFFF000FFFFFFFFFFFFFFFFFFFFFFFFFFFF
310
FFFFFFFFFFFFFFFFFFFFFFFFFFFFFFFFFFFFFFFFFFFFFFFFFFFFFFFFFFFFFFFF
310
FFFFFFFFFFFFFFFFFFFFFFFFFFFFFFFFFFFFFFFFFFFFFFFFFFFFFFFFFFFFFFFF
310
FFFFFFFFFFFFFFFFF000FFFFFFFFFFFFFFFFFFFFFFFFFFFFFFFFFFFFFFFFFFFF
310
FFFFFFFFFFFFFFFFFFFFFFFFFFFFFFFFFFFFFFFFFFFFFFFFFFFFFFFFFFFFFFFF
310
FFFFFFFFFFFFFFFFFFFFFFFFFFFFFFFFFFFFFFFFFFFFFFFFFFFFFFFFFFFFFFFF
310
F000FFFFFFFFFFFFFFFFFFFFFFFFFFFFFFFFFFFFFFFFFFFFFFFFFFFFFFFFFFFF
310
FFFFFFFFFFFFFFFFFFFFFFFFFFFFFFFFFFFFFFFFFFFFFFFFFFFFFFFFFFFFFFFF
310
FFFFFFFFFFFFFFFFFFFFFFFFFFFFFFFFFFFFFFFFFFFFFFFFF000FFFFFFFFFFFF
310
FFFFFFFFFFFFFFFFFFFFFFFFFFFFFFFFFFFFFFFFFFFFFFFFFFFFFFFFFFFFFFFF
310
FFFFFFFFFFFFFFFFFFFFFFFFFFFFFFFFFFFFFFFFFFFFFFFFFFFFFFFFFFFFFFFF
310
FFFFFFFFFFFFFFFFFFFFFFFFFFFFFFFFF000FFFFFFFFFFFFFFFFFFFFFFFFFFFF
310
FFFFFFFFFFFFFFFFFFFFFFFFFFFFFFFFFFFFFFFFFFFFFFFFFFFFFFFFFFFFFFFF
310
FFFFFFFFFFFFFFFFFFFFFFFFFFFFFFFFFFFFFFFFFFFFFFFFFFFFFFFFFFFFFFFF
310
FFFFFFFFFFFFFFFFF000FFFFFFFFFFFFFFFFFFFFFFFFFFFFFFFFFFFFFFFFFFFF
310
FFFFFFFFFFFFFFFFFFFFFFFFFFFFFFFFFFFFFFFFFFFFFFFFFFFFFFFFFFFFFFFF
310
FFFFFFFFFFFFFFFFFFFFFFFFFFFFFFFFFFFFFFFFFFFFFFFFFFFFFFFFFFFFFFFF
310
F000FFFFFFFFFFFFFFFFFFFFFFFFFFFFFFFFFFFFFFFFFFFFFFFFFFFFFFFFFFFF
310
FFFFFFFFFFFFFFFFFFFFFFFFFFFFFFFFFFFFFFFFFFFFFFFFFFFFFFFFFFFFFFFF
310
FFFFFFFFFFFFFFFFFFFFFFFFFFFFFFFFFFFFFFFFFFFFFFFFF000FFFFFFFFFFFF
310
FFFFFFFFFFFFFFFFFFFFFFFFFFFFFFFFFFFFFFFFFFFFFFFFFFFFFFFFFFFFFFFF
310
FFFFFFFFFFFFFFFFFFFFFFFFFFFFFFFFFFFFFFFFFFFFFFFFFFFFFFFFFFFFFFFF
310
FFFFFFFFFFFFFFFFFFFFFFFFFFFFFFFFF000FFFFFFFFFFFFFFFFFFFFFFFFFFFF
310
FFFFFFFFFFFFFFFFFFFFFFFFFFFFFFFFFFFFFFFFFFFFFFFFFFFFFFFFFFFFFFFF
310
FFFFFFFFFFFFFFFFFFFFFFFFFFFFFFFFFFFFFFFFFFFFFFFFFFFFFFFFFFFFFFFF
310
FFFFFFFFFFFFFFFFF000FFFFF80003FFFFFFFFFFFFFFFFFFFFFFFFFFFFFFFFFF
310
FFFFF00007FFFFFFFFFF00007FFFFFF800000000000000007FFFFFFFFFFFFFFF
310
FFFFFFFC001FFFFFFFFFFFFFFC001FFFFFFFFFFFFFFFFFFFFFFFFFFE0007FFFF
310
F000FFFF8000007FFFFFFFF8000FFFFFC0007FFFFF80007FFFFF0000007FFFFF
310
FFF8000007FFFFF800000000000000007FFFFFF0001FFFFFFFFFFFC00001FFFF
310
FFFFFFFFC00001FFFFFFFF000000000003FFFFE000007FFFF000FFFE0000000F
310
FFFFFFF0000FFFFF80007FFFFF80007FFFFC0000001FFFFFFFC0000001FFFFF8
310
00000000000000007FFFFFF0001FFFFFFFFFFE0000003FFFFFFFFFFE0000003F
310
FFFFFF000000000003FFFF0000000FFFF000FFF800000003FFFFFFF00007FFFF
310
80007FFFFF80007FFFF000000007FFFFFF000000003FFFF80000000000000000
310
7FFFFFF0001FFFFFFFFFF80000000FFFFFFFFFF80000000FFFFFFF0000000000
310
03FFFC00000003FFF000FFE000000000FFFFFFF00007FFFF80003FFFFF80007F
310
FFC000000001FFFFFC000000001FFFF800000000000000007FFFFFF0001FFFFF
310
FFFFE000000003FFFFFFFFE000000003FFFFFF000000000003FFF000000000FF
310
F000FF80000000007FFFFFF00007FFFF80003FFFFF80007FFF8000000000FFFF
310
F80000000007FFF800000000000000007FFFFFF0001FFFFFFFFFC000000001FF
310
FFFFFFC000000001FFFFFF000000000003FFC0000000007FF000FF0000000000
310
3FFFFFE00007FFFF00003FFFFF80007FFE00000000003FFFF00000000003FFF8
310
00000000000000007FFFFFF0001FFFFFFFFF8000000000FFFFFFFF8000000000
310
FFFFFF000000000003FF80000000003FF000FE00000000001FFFFFE00003FFFF
310
00003FFFFF80007FFC00000000001FFFE00000000001FFF8000001FFFE000000
310
7FFFFFF0001FFFFFFFFE00000000003FFFFFFE00000000003FFFFF0000000000
310
03FF00000000001FF000FC00000000000FFFFFE00003FFFF00001FFFFF80007F
310
F800000000001FFFC00000000000FFF8000001FFFE0000007FFFFFF0001FFFFF
310
FFFC00000000001FFFFFFC00000000001FFFFF000000000003FE00000000000F
310
F000F8000000000007FFFFE00003FFFF00001FFFFF80007FF800000000000FFF
310
800000000000FFF8000001FFFE0000007FFFFFF0001FFFFFFFF800000000000F
310
FFFFF800000000000FFFFF000000000003FC000000000007F000F80000000000
310
03FFFFC00003FFFE00001FFFFF80007FF0000000000007FF0000000000007FF8
310
000001FFFE0000007FFFFFF0001FFFFFFFF0000000000007FFFFF00000000000
310
07FFFF000000000003F8000000000003F000F0000000000003FFFFC00001FFFE
310
00001FFFFF80007FE0000000000007FE0000000000003FF8000001FFFE000000
310
7FFFFFF0001FFFFFFFF0000000000007FFFFF0000000000007FFFF0000000000
310
03F800001F800003F000E00001FFF00001FFFFC00001FFFE00000FFFFF80007F
310
E00001FFE00003FE00001FFF00003FF8000001FFFE0000007FFFFFF0001FFFFF
310
FFE000003E000003FFFFE000003E000003FFFF000000000003F00001FFF80001
310
F000E00007FFFC0001FFFFC00001FFFE00000FFFFF80007FC0000FFFFC0003FC
310
0000FFFFC0001FF8000001FFFE0000007FFFFFF0001FFFFFFFC00003FFE00001
310
FFFFC00003FFE00001FFFF0001FFFFFFFFF00007FFFE0001F000E0000FFFFF00
310
00FFFF800001FFFC00000FFFFF80007FC0001FFFFE0001FC0001FFFFE0001FF8
310
000001FFFE0000007FFFFFF0001FFFFFFF80000FFFF80000FFFF80000FFFF800
310
00FFFF0003FFFFFFFFE0000FFFFF8000F000C0003FFFFF8000FFFF800000FFFC
310
000007FFFF80007F80003FFFFF0001FC0003FFFFF0001FF8000001FFFE000000
310
7FFFFFF0001FFFFFFF80003FFFFE0000FFFF80003FFFFE0000FFFF0003FFFFFF
310
FFE0003FFFFF8000F000C0003FFFFF8000FFFF800000FFFC000007FFFF80007F
310
80007FFFFF8001F80007FFFFF8000FF8000001FFFE0000007FFFFFF0001FFFFF
310
FF00007FFFFF00007FFF00007FFFFF00007FFF0003FFFFFFFFE0003FFFFFC000
310
F000C0007FFFFFC000FFFF000000FFFC000007FFFF80007F8000FFFFFF8000F8
310
000FFFFFF8000FF8000001FFFE0000007FFFFFF0001FFFFFFF0000FFFFFF8000
310
7FFF0000FFFFFF80007FFF0003FFFFFFFFC0007FFFFFC00070008000FFFFFFC0
310
00FFFF000000FFF8000007FFFF80007F8000FFFFFF8000F8000FFFFFF8000FF8
310
000001FFFE0000007FFFFFF0001FFFFFFE0001FFFFFFC0003FFE0001FFFFFFC0
310
003FFF0003FFFFFFFFC0007FFFFFE00070008000FFFFFFC0007FFF0000007FF8
310
000003FFFF80007F0001FFFFFF8000F8000FFFFFF8000FF8000001FFFE000000
310
7FFFFFF0001FFFFFFE0001FFFFFFC0003FFE0001FFFFFFC0003FFF0003FFFFFF
310
FFC000FFFFFFE00070008000FFFFFFC0007FFF0000007FF8000003FFFF80007F
310
0001FFFFFF8000F8001FFFFFF8000FF8000001FFFE0000007FFFFFF0001FFFFF
310
FE0003FFFFFFE0003FFE0003FFFFFFE0003FFF0003FFFFFFFFC000FFFFFFE000
310
70008000FFFFFFC0007FFE0000007FF8000003FFFF80007F0001FFFFFF8000F0
310
001FFFFFF8000FF8000001FFFE0000007FFFFFF0001FFFFFFC0003FFFFFFE000
310
1FFC0003FFFFFFE0001FFF0003FFFFFFFFC000FFFFFFC00070008000FFFFFF80
310
007FFE0000007FF0000003FFFF80007F0001FFFFFF0000F0001FFFFFF8000FF8
310
000001FFFE0000007FFFFFF0001FFFFFFC0007FFFFFFF0001FFC0007FFFFFFF0
310
001FFF0003FFFFFFFFC000FFFFFFC00070008001FFFFFF0000FFFE0000003FF0
310
000001FFFF80007F0001FFFFFF0000F8001FFFFFF0000FF8000001FFFE000000
310
7FFFFFF0001FFFFFFC0007FFFFFFF0001FFC0007FFFFFFF0001FFF0003FFFFFF
310
FFC001FFFFFF80007000FFFFFFFFFE0000FFFE0008003FF0008001FFFF80007F
310
FFFFFFFFFC0000FFFFFFFFFFE0000FF8000001FFFE0000007FFFFFF0001FFFFF
310
F8000FFFFFFFF8000FF8000FFFFFFFF8000FFF0003FFFFFFFFFFFFFFFFFF0000
310
7000FFFFFFFFFC0000FFFC0008003FF0008001FFFF80007FFFFFFFFFF80001FF
310
FFFFFFFF80000FF8000001FFFE0000007FFFFFF0001FFFFFF8000FFFFFFFF800
310
0FF8000FFFFFFFF8000FFF0003FFFFFFFFFFFFFFFFFE0000F000FFFFFFFFE000
310
00FFFC000C003FE000C001FFFF80007FFFFFFFFFC00001FFFFFFFFFE00001FF8
310
000001FFFE0000007FFFFFF0001FFFFFF8000FFFFFFFF8000FF8000FFFFFFFF8
310
000FFF0003FFFFFFFFFFFFFFFFF00000F000FFFFFFFE000001FFFC000C001FE0
310
00C000FFFF80007FFFFFFFFE000001FFFFFFFFE000001FF80FFFFFFFFFFFFFC0
310
7FFFFFF0001FFFFFF8000FFFFFFFF8000FF8000FFFFFFFF8000FFF0003FFFFFF
310
FFFFFFFFFF800000F000FFFFFFC0000001FFFC001C001FE001C000FFFF80007F
310
FFFFFF80000003FFFFFFF80000001FF80FFFFFFFFFFFFFC07FFFFFF0001FFFFF
310
F8001FFFFFFFFC000FF8001FFFFFFFFC000FFF0003FFFFFFFFFFFFFFF0000001
310
F000FFFFF800000001FFF8001C001FE001C000FFFF80007FFFFFF800000003FF
310
FFFF800000003FF80FFFFFFFFFFFFFC07FFFFFF0001FFFFFF8001FFFFFFFFC00
310
0FF8001FFFFFFFFC000FFF0003FFFFFFFFFFFFFE00000001F000FFFFC0000000
310
03FFF8001E001FC001E000FFFF80007FFFFF8000000007FFFFFC000000003FF8
310
0FFFFFFFFFFFFFC07FFFFFF0001FFFFFF8001FFFFFFFFC000FF8001FFFFFFFFC
310
000FFF0003FFFFFFFFFFFFE000000003F000FFFE0000000007FFF8001E000FC0
310
01E0007FFF80007FFFFE0000000007FFFFE0000000007FF80FFFFFFFFFFFFFC0
310
7FFFFFF0001FFFFFF0001FFFFFFFFC0007F0001FFFFFFFFC0007FF0003FFFFFF
310
FFFFFF0000000003F000FFF80000000007FFF8001E000FC003E0007FFF80007F
310
FFF0000000000FFFFF8000000000FFF80FFFFFFFFFFFFFC07FFFFFF0001FFFFF
310
F0001FFFFFFFFC0007F0001FFFFFFFFC0007FF0003FFFFFFFFFFFC0000000007
310
F000FFE0000000000FFFF0003E000FC003E0007FFF80007FFFC0000000001FFF
310
FE0000000001FFF80FFFFFFFFFFFFFC07FFFFFF0001FFFFFF0001FFFFFFFFC00
310
07F0001FFFFFFFFC0007FF0003FFFFFFFFFFF0000000000FF000FFC000000000
310
1FFFF0003F000F8003F0003FFF80007FFF80000000003FFFF80000000003FFF8
310
0FFFFFFFFFFFFFC07FFFFFF0001FFFFFF0001FFFFFFFFC0007F0001FFFFFFFFC
310
0007FF0003FFFFFFFFFFE0000000001FF000FF00000000007FFFF0003F000780
310
03F0003FFF80007FFF00000000007FFFF00000000007FFF80FFFFFFFFFFFFFC0
310
7FFFFFF0001FFFFFF0001FFFFFFFFC0007F0001FFFFFFFFC0007FF0003FFFFFF
310
FFFF80000000007FF000FE0000000000FFFFE0003F00078007F0003FFF80007F
310
FE0000000001FFFFE0000000001FFFF80FFFFFFFFFFFFFC07FFFFFF0001FFFFF
310
F0001FFFFFFFFC0007F0001FFFFFFFFC0007FF0003FFFFFFFFFF0000000000FF
310
F000FC0000000003FFFFE0007F00078007F0003FFF80007FFC0000000007FFFF
310
C0000000007FFFF80FFFFFFFFFFFFFC07FFFFFF0001FFFFFF8001FFFFFFFFC00
310
0FF8001FFFFFFFFC000FFF0003FFFFFFFFFE0000000003FFF000FC000000000F
310
FFFFE0007F80070007F8001FFF80007FF8000000001FFFFF8000000001FFFFF8
310
0FFFFFFFFFFFFFC07FFFFFF0001FFFFFF8001FFFFFFFFC000FF8001FFFFFFFFC
310
000FFF0003FFFFFFFFFC000000000FFFF000F8000000007FFFFFE0007F800700
310
07F8001FFF80007FF000000000FFFFFF800000000FFFFFF80FFFFFFFFFFFFFC0
310
7FFFFFF0001FFFFFF8000FFFFFFFF8000FF8000FFFFFFFF8000FFF0003FFFFFF
310
FFFC000000007FFFF000F800000007FFFFFFC0007F8003000FF8001FFF80007F
310
F000000007FFFFFF000000007FFFFFF80FFFFFFFFFFFFFC07FFFFFF0001FFFFF
310
F8000FFFFFFFF8000FF8000FFFFFFFF8000FFF0003FFFFFFFFF80000000FFFFF
310
F000F0000000FFFFFFFFC000FF8003000FF8001FFF80007FE0000000FFFFFFFF
310
0000000FFFFFFFF8000001FFFE0000007FFFFFF0001FFFFFF8000FFFFFFFF800
310
0FF8000FFFFFFFF8000FFF0003FFFFFFFFF8000000FFFFFFF000F000000FFFFF
310
FFFFC000FFC002000FF8000FFF80007FE000001FFFFFFFFE000001FFFFFFFFF8
310
000001FFFE0000007FFFFFF0001FFFFFF8000FFFFFFFF8000FF8000FFFFFFFF8
310
000FFF0003FFFFFFFFF000001FFFFFFFF000E00000FFFFFFFFFFC000FFC00200
310
0FFC000FFF80007FE00001FFFFFFFFFE00001FFFFFFFFFF8000001FFFE000000
310
7FFFFFF0001FFFFFFC000FFFFFFFF8001FFC000FFFFFFFF8001FFF0003FFFFFF
310
FFF00001FFFFFFFFF000E00007FFFFFFFFFF8000FFC000001FFC000FFF80007F
310
C0000FFFFFFFFFFE0000FFFFFFFFFFF8000001FFFE0000007FFFFFF0001FFFFF
310
FC0007FFFFFFF0001FFC0007FFFFFFF0001FFF0003FFFFFFFFF00007FFFFFFFF
310
F000E0001FFFFFFFFFFF8000FFC000001FFC000FFF80007FC0003FFFFFFFFFFE
310
0001FFFFFFFFFFF8000001FFFE0000007FFFFFF0001FFFFFFC0007FFFFFFF000
310
1FFC0007FFFFFFF0001FFF0003FFFFFFFFF0001FFFFFFFFFF000E0003FFFFF00
310
03FF8001FFE000001FFC0007FF80007FC0007FFFFF0007FC0003FFFFF0003FF8
310
000001FFFE0000007FFFFFF0001FFFFFFC0003FFFFFFE0001FFC0003FFFFFFE0
310
001FFF0003FFFFFFFFF0003FFFFFFFFFF000E0003FFFFF0001FF8001FFE00000
310
1FFE0007FF80007FC0007FFFFE0003FC0007FFFFE0003FF8000001FFFE000000
310
7FFFFFF0001FFFFFFE0003FFFFFFE0003FFE0003FFFFFFE0003FFF0003FFFFFF
310
FFF0003FFFFF8001F000E0003FFFFF0001FF0001FFE000001FFE0007FF80007F
310
C0007FFFFE0003FC0007FFFFE0003FF8000001FFFE0000007FFFFFF0001FFFFF
310
FE0001FFFFFFC0003FFE0001FFFFFFC0003FFF0003FFFFFFFFF0003FFFFF0001
310
F000E0003FFFFF0003FF0001FFE000003FFE0007FF80007FC0007FFFFE0003FC
310
0007FFFFE0003FF8000001FFFE0000007FFFFFF0001FFFFFFF0001FFFFFFC000
310
7FFF0001FFFFFFC0007FFF0003FFFFFFFFF0003FFFFF0001F000E0003FFFFE00
310
03FF0003FFF000003FFE0003FF80007FC0007FFFFC0003FE0007FFFFE0003FF8
310
000001FFFE0000007FFFFFF0001FFFFFFF0000FFFFFF80007FFF0000FFFFFF80
310
007FFF0003FFFFFFFFF0003FFFFF0001F000E0003FFFFE0003FF0003FFF00000
310
3FFF0003FF80007FC0007FFFFC0007FE0007FFFFC0003FF8000001FFFE000000
310
7FFFFFF0001FFFFFFF80007FFFFF0000FFFF80007FFFFF0000FFFF0003FFFFFF
310
FFF0003FFFFF0003F000E0003FFFFC0003FE0003FFF000003FFF0003FF80007F
310
E0003FFFF80007FE0003FFFFC0007FF8000001FFFE0000007FFFFFF0001FFFFF
310
FF80003FFFFE0000FFFF80003FFFFE0000FFFF0003FFFFFFFFF0001FFFFE0003
310
F000F0001FFFF80003FE0003FFF000007FFF0001FF80007FE0003FFFF00007FE
310
0001FFFF80007FF8000001FFFE0000007FFFFFF0001FFFFFFFC0000FFFF80001
310
FFFFC0000FFFF80001FFFF0003FFFFFFFFF0001FFFFC0003F000F0000FFFF000
310
07FE0007FFF800007FFF0001FF80007FE0001FFFE00007FF0000FFFE00007FF8
310
000001FFFE0000007FFFFFF0001FFFFFFFC00003FFE00001FFFFC00003FFE000
310
01FFFF0003FFFFFFFFF8000FFFF80003F000F00003FFC00007FC0007FFF80000
310
7FFF8001FF80007FF00007FF80000FFF00007FF80000FFF8000001FFFE000000
310
7F80000000000001FFE000003E000003FFFFE000003E000003FFFF0003FFFFFF
310
FFF80003FFE00007F000F800000000000FFC0007FFF800007FFF8001FF80007F
310
F000000000000FFF000000000000FFF8000001FFFE0000007F80000000000001
310
FFF0000000000007FFFFF0000000000007FFFF0003FFFFFFFFFC00007E000007
310
F000F800000000000FFC0007FFF80000FFFF8000FF80007FF800000000001FFF
310
800000000001FFF8000001FFFE0000007F80000000000001FFF800000000000F
310
FFFFF800000000000FFFFF0003FFFFFFFFFC00000000000FF000FC0000000000
310
1FFC0007FFFC0000FFFF8000FF80007FF800000000003FFFC00000000001FFF8
310
000001FFFE0000007F80000000000001FFF800000000000FFFFFF80000000000
310
0FFFFF0003FFFFFFFFFE00000000001FF000FE00000000003FF8000FFFFC0000
310
FFFF8000FF80007FFC00000000003FFFC00000000003FFF8000001FFFE000000
310
7F80000000000001FFFC00000000001FFFFFFC00000000001FFFFF0003FFFFFF
310
FFFF00000000001FF000FF00000000003FF8000FFFFC0000FFFFC000FF80007F
310
FE00000000007FFFE00000000007FFF8000001FFFE0000007F80000000000001
310
FFFE00000000003FFFFFFE00000000003FFFFF0003FFFFFFFFFF80000000003F
310
F000FF80000000007FF8000FFFFC0001FFFFC0007F80007FFF0000000000FFFF
310
F0000000000FFFF800000000000000007F80000000000001FFFF8000000000FF
310
FFFFFF8000000000FFFFFF0003FFFFFFFFFFC0000000007FF000FFC000000000
310
FFF8000FFFFE0001FFFFC0007F80007FFF8000000001FFFFF8000000001FFFF8
310
00000000000000007F80000000000001FFFFC000000001FFFFFFFFC000000001
310
FFFFFF0003FFFFFFFFFFE000000000FFF000FFE000000003FFF0001FFFFE0001
310
FFFFC0007F80007FFFC000000007FFFFFE000000003FFFF80000000000000000
310
7F80000000000001FFFFE000000003FFFFFFFFE000000003FFFFFF0003FFFFFF
310
FFFFF000000003FFF000FFF80000000FFFF0001FFFFE0001FFFFE0007F80007F
310
FFF00000000FFFFFFF00000000FFFFF800000000000000007F80000000000001
310
FFFFF80000000FFFFFFFFFF80000000FFFFFFF0003FFFFFFFFFFFC0000000FFF
310
F000FFFE0000003FFFF0001FFFFE0003FFFFE0003F80007FFFFC0000003FFFFF
310
FFC0000003FFFFF800000000000000007F80000000000001FFFFFE0000003FFF
310
FFFFFFFE0000003FFFFFFF0003FFFFFFFFFFFF0000003FFFF000FFFF800000FF
310
FFF0001FFFFF0003FFFFE0003F80007FFFFF000001FFFFFFFFF800001FFFFFF8
310
00000000000000007F80000000000001FFFFFFC00001FFFFFFFFFFFFC00001FF
310
FFFFFF0003FFFFFFFFFFFFC00000FFFFF000FFFFF8000FFFFFFFFFFFFFFFFFFF
310
FFFFFFFFFFFFFFFFFFFFF0001FFFFFFFFFFF0000FFFFFFF80000000000000000
310
7FFFFFFFFFFFFFFFFFFFFFFC001FFFFFFFFFFFFFFC001FFFFFFFFFFFFFFFFFFF
310
FFFFFFFC001FFFFFF000FFFFFFFFFFFFFFFFFFFFFFFFFFFFFFFFFFFFFFFFFFFF
310
FFFFFFFFFFFFFFFFFFFFFFFFFFFFFFFFFFFFFFFFFFFFFFFFFFFFFFFFFFFFFFFF
310
FFFFFFFFFFFFFFFFFFFFFFFFFFFFFFFFFFFFFFFFFFFFFFFFFFFFFFFFFFFFFFFF
310
F000FFFFFFFFFFFFFFFFFFFFFFFFFFFFFFFFFFFFFFFFFFFFFFFFFFFFFFFFFFFF
310
FFFFFFFFFFFFFFFFFFFFFFFFFFFFFFFFFFFFFFFFFFFFFFFFFFFFFFFFFFFFFFFF
310
FFFFFFFFFFFFFFFFFFFFFFFFFFFFFFFFFFFFFFFFFFFFFFFFF000FFFFFFFFFFFF
310
FFFFFFFFFFFFFFFFFFFFFFFFFFFFFFFFFFFFFFFFFFFFFFFFFFFFFFFFFFFFFFFF
310
FFFFFFFFFFFFFFFFFFFFFFFFFFFFFFFFFFFFFFFFFFFFFFFFFFFFFFFFFFFFFFFF
310
FFFFFFFFFFFFFFFFFFFFFFFFFFFFFFFFF000FFFFFFFFFFFFFFFFFFFFFFFFFFFF
310
FFFFFFFFFFFFFFFFFFFFFFFFFFFFFFFFFFFFFFFFFFFFFFFFFFFFFFFFFFFFFFFF
310
FFFFFFFFFFFFFFFFFFFFFFFFFFFFFFFFFFFFFFFFFFFFFFFFFFFFFFFFFFFFFFFF
310
FFFFFFFFFFFFFFFFF000FFFFFFFFFFFFFFFFFFFFFFFFFFFFFFFFFFFFFFFFFFFF
310
FFFFFFFFFFFFFFFFFFFFFFFFFFFFFFFFFFFFFFFFFFFFFFFFFFFFFFFFFFFFFFFF
310
FFFFFFFFFFFFFFFFFFFFFFFFFFFFFFFFFFFFFFFFFFFFFFFFFFFFFFFFFFFFFFFF
310
F000FFFFFFFFFFFFFFFFFFFFFFFFFFFFFFFFFFFFFFFFFFFFFFFFFFFFFFFFFFFF
310
FFFFFFFFFFFFFFFFFFFFFFFFFFFFFFFFFFFFFFFFFFFFFFFFFFFFFFFFFFFFFFFF
310
FFFFFFFFFFFFFFFFFFFFFFFFFFFFFFFFFFFFFFFFFFFFFFFFF000FFFFFFFFFFFF
310
FFFFFFFFFFFFFFFFFFFFFFFFFFFFFFFFFFFFFFFFFFFFFFFFFFFFFFFFFFFFFFFF
310
FFFFFFFFFFFFFFFFFFFFFFFFFFFFFFFFFFFFFFFFFFFFFFFFFFFFFFFFFFFFFFFF
310
FFFFFFFFFFFFFFFFFFFFFFFFFFFFFFFFF000FFFFFFFFFFFFFFFFFFFFFFFFFFFF
310
FFFFFFFFFFFFFFFFFFFFFFFFFFFFFFFFFFFFFFFFFFFFFFFFFFFFFFFFFFFFFFFF
310
FFFFFFFFFFFFFFFFFFFFFFFFFFFFFFFFFFFFFFFFFFFFFFFFFFFFFFFFFFFFFFFF
310
FFFFFFFFFFFFFFFFF000FFFFFFFFFFFFFFFFFFFFFFFFFFFFFFFFFFFFFFFFFFFF
310
FFFFFFFFFFFFFFFFFFFFFFFFFFFFFFFFFFFFFFFFFFFFFFFFFFFFFFFFFFFFFFFF
310
FFFFFFFFFFFFFFFFFFFFFFFFFFFFFFFFFFFFFFFFFFFFFFFFFFFFFFFFFFFFFFFF
310
F000FFFFFFFFFFFFFFFFFFFFFFFFFFFFFFFFFFFFFFFFFFFFFFFFFFFFFFFFFFFF
310
FFFFFFFFFFFFFFFFFFFFFFFFFFFFFFFFFFFFFFFFFFFFFFFFFFFFFFFFFFFFFFFF
310
FFFFFFFFFFFFFFFFFFFFFFFFFFFFFFFFFFFFFFFFFFFFFFFFF000FFFFFFFFFFFF
310
FFFFFFFFFFFFFFFFFFFFFFFFFFFFFFFFFFFFFFFFFFFFFFFFFFFFFFFFFFFFFFFF
310
FFFFFFFFFFFFFFFFFFFFFFFFFFFFFFFFFFFFFFFFFFFFFFFFFFFFFFFFFFFFFFFF
310
FFFFFFFFFFFFFFFFFFFFFFFFFFFFFFFFF000FFFFFFFFFFFFFFFFFFFFFFFFFFFF
310
FFFFFFFFFFFFFFFFFFFFFFFFFFFFFFFFFFFFFFFFFFFFFFFFFFFFFFFFFFFFFFFF
310
FFFFFFFFFFFFFFFFFFFFFFFFFFFFFFFFFFFFFFFFFFFFFFFFFFFFFFFFFFFFFFFF
310
FFFFFFFFFFFFFFFFF000FFFFFFFFFFFFFFFFFFFFFFFFFFFFFFFFFFFFFFFFFFFF
310
FFFFFFFFFFFFFFFFFFFFFFFFFFFFFFFFFFFFFFFFFFFFFFFFFFFFFFFFFFFFFFFF
310
FFFFFFFFFFFFFFFFFFFFFFFFFFFFFFFFFFFFFFFFFFFFFFFFFFFFFFFFFFFFFFFF
310
F000FFFFFFFFFFFFFFFFFFFFFFFFFFFFFFFFFFFFFFFFFFFFFFFFFFFFFFFFFFFF
310
FFFFFFFFFFFFFFFFFFFFFFFFFFFFFFFFFFFFFFFFFFFFFFFFFFFFFFFFFFFFFFFF
310
FFFFFFFFFFFFFFFFFFFFFFFFFFFFFFFFFFFFFFFFFFFFFFFFF000FFFFFFFFFFFF
310
FFFFFFFFFFFFFFFFFFFFFFFFFFFFFFFFFFFFFFFFFFFFFFFFFFFFFFFFFFFFFFFF
310
FFFFFFFFFFFFFFFFFFFFFFFFFFFFFFFFFFFFFFFFFFFFFFFFFFFFFFFFFFFFFFFF
310
FFFFFFFFFFFFFFFFFFFFFFFFFFFFFFFFF000FFFFFFFFFFFFFFFFFFFFFFFFFFFF
310
FFFFFFFFFFFFFFFFFFFFFFFFFFFFFFFFFFFFFFFFFFFFFFFFFFFFFFFFFFFFFFFF
310
FFFFFFFFFFFFFFFFFFFFFFFFFFFFFFFFFFFFFFFFFFFFFFFFFFFFFFFFFFFFFFFF
310
FFFFFFFFFFFFFFFFF000FFFFFFFFFFFFFFFFFFFFFFFFFFFFFFFFFFFFFFFFFFFF
310
FFFFFFFFFFFFFFFFFFFFFFFFFFFFFFFFFFFFFFFFFFFFFFFFFFFFFFFFFFFFFFFF
310
FFFFFFFFFFFFFFFFFFFFFFFFFFFFFFFFFFFFFFFFFFFFFFFFFFFFFFFFFFFFFFFF
310
F000FFFFFFFFFFFFFFFFFFFFFFFFFFFFFFFFFFFFFFFFFFFFFFFFFFFFFFFFFFFF
310
FFFFFFFFFFFFFFFFFFFFFFFFFFFFFFFFFFFFFFFFFFFFFFFFFFFFFFFFFFFFFFFF
310
FFFFFFFFFFFFFFFFFFFFFFFFFFFFFFFFFFFFFFFFFFFFFFFFF000FFFFFFFFFFFF
310
FFFFFFFFFFFFFFFFFFFFFFFFFFFFFFFFFFFFFFFFFFFFFFFFFFFFFFFFFFFFFFFF
310
FFFFFFFFFFFFFFFFFFFFFFFFFFFFFFFFFFFFFFFFFFFFFFFFFFFFFFFFFFFFFFFF
310
FFFFFFFFFFFFFFFFFFFFFFFFFFFFFFFFF000FFFFFFFFFFFFFFFFFFFFFFFFFFFF
310
FFFFFFFFFFFFFFFFFFFFFFFFFFFFFFFFFFFFFFFFFFFFFFFFFFFFFFFFFFFFFFFF
310
FFFFFFFFFFFFFFFFFFFFFFFFFFFFFFFFFFFFFFFFFFFFFFFFFFFFFFFFFFFFFFFF
310
FFFFFFFFFFFFFFFFF000FFFFFFFFFFFFFFFFFFFFFFFFFFFFFFFFFFFFFFFFFFFF
310
FFFFFFFFFFFFFFFFFFFFFFFFFFFFFFFFFFFFFFFFFFFFFFFFFFFFFFFFFFFFFFFF
310
FFFFFFFFFFFFFFFFFFFFFFFFFFFFFFFFFFFFFFFFFFFFFFFFFFFFFFFFFFFFFFFF
310
F000FFFFFFFFFFFFFFFFFFFFFFFFFFFFFFFFFFFFFFFFFFFFFFFFFFFFFFFFFFFF
310
FFFFFFFFFFFFFFFFFFFFFFFFFFFFFFFFFFFFFFFFFFFFFFFFFFFFFFFFFFFFFFFF
310
FFFFFFFFFFFFFFFFFFFFFFFFFFFFFFFFFFFFFFFFFFFFFFFFF000FFFFFFFFFFFF
310
FFFFFFFFFFFFFFFFFFFFFFFFFFFFFFFFFFFFFFFFFFFFFFFFFFFFFFFFFFFFFFFF
310
FFFFFFFFFFFFFFFFFFFFFFFFFFFFFFFFFFFFFFFFFFFFFFFFFFFFFFFFFFFFFFFF
310
FFFFFFFFFFFFFFFFFFFFFFFFFFFFFFFFF0000000000000000000000000000000
310
0000000000000000000000000000000000000000000000000000000000000000
310
0000000000000000000000000000000000000000000000000000000000000000
310
0000000000000000000000000000000000000000000000000000000000000000
310
0000000000000000000000000000000000000000000000000000000000000000
310
0000000000000000000000000000000000000000000000000000000000000000
310
0000000000000000000000000000000000000000000000000000000000000000
310
0000000000000000000000000000000000000000000000000000000000000000
310
0000000000000000000000000000000000000000000000000000000000000000
310
0000000000000000000000000000000000000000000000000000000000000000
310
0000000000000000000000000000000000000000000000000000000000000000
310
0000000000000000000000000000000000000000000000000000000000000000
310
0000000000000000000000000000000000000000000000000000000000000000
310
0000000000000000000000000000000000000000000000000000000000000000
310
0000000000000000000000000000000000000000000000000000000000000000
310
0000000000000000000000000000000000000000000000000000000000000000
  1
OLE
  0
ENDSEC
  0
SECTION
  2
OBJECTS
  0
DICTIONARY
  5
C
330
0
100
AcDbDictionary
281
     1
  3
ACAD_GROUP
350
D
  3
ACAD_LAYOUT
350
1A
  3
ACAD_MLINESTYLE
350
17
  3
ACAD_PLOTSETTINGS
350
19
  3
ACAD_PLOTSTYLENAME
350
E
  0
DICTIONARY
  5
D
102
{ACAD_REACTORS
330
C
102
}
330
C
100
AcDbDictionary
281
     1
  0
DICTIONARY
  5
1A
102
{ACAD_REACTORS
330
C
102
}
330
C
100
AcDbDictionary
281
     1
  3
Layout1
350
1E
  3
Layout2
350
26
  3
Model
350
22
  0
DICTIONARY
  5
17
102
{ACAD_REACTORS
330
C
102
}
330
C
100
AcDbDictionary
281
     1
  3
Standard
350
18
  0
DICTIONARY
  5
19
102
{ACAD_REACTORS
330
C
102
}
330
C
100
AcDbDictionary
281
     1
  0
ACDBDICTIONARYWDFLT
  5
E
102
{ACAD_REACTORS
330
C
102
}
330
C
100
AcDbDictionary
281
     1
  3
Normal
350
F
100
AcDbDictionaryWithDefault
340
F
  0
LAYOUT
  5
1E
102
{ACAD_REACTORS
330
1A
102
}
330
1A
100
AcDbPlotSettings
  1

  2
none_device
  4

  6

 40
0.0
 41
0.0
 42
0.0
 43
0.0
 44
0.0
 45
0.0
 46
0.0
 47
0.0
 48
0.0
 49
0.0
140
0.0
141
0.0
142
1.0
143
1.0
 70
   688
 72
     0
 73
     0
 74
     5
  7

 75
    16
147
1.0
148
0.0
149
0.0
100
AcDbLayout
  1
Layout1
 70
     1
 71
     1
 10
0.0
 20
0.0
 11
420.0
 21
297.0
 12
0.0
 22
0.0
 32
0.0
 14
1.0000000000E+20
 24
1.0000000000E+20
 34
1.0000000000E+20
 15
-1.0000000000E+20
 25
-1.0000000000E+20
 35
-1.0000000000E+20
146
0.0
 13
0.0
 23
0.0
 33
0.0
 16
1.0
 26
0.0
 36
0.0
 17
0.0
 27
1.0
 37
0.0
 76
     0
330
1B
  0
LAYOUT
  5
26
102
{ACAD_REACTORS
330
1A
102
}
330
1A
100
AcDbPlotSettings
  1

  2
none_device
  4

  6

 40
0.0
 41
0.0
 42
0.0
 43
0.0
 44
0.0
 45
0.0
 46
0.0
 47
0.0
 48
0.0
 49
0.0
140
0.0
141
0.0
142
1.0
143
1.0
 70
   688
 72
     0
 73
     0
 74
     5
  7

 75
    16
147
1.0
148
0.0
149
0.0
100
AcDbLayout
  1
Layout2
 70
     1
 71
     2
 10
0.0
 20
0.0
 11
0.0
 21
0.0
 12
0.0
 22
0.0
 32
0.0
 14
0.0
 24
0.0
 34
0.0
 15
0.0
 25
0.0
 35
0.0
146
0.0
 13
0.0
 23
0.0
 33
0.0
 16
1.0
 26
0.0
 36
0.0
 17
0.0
 27
1.0
 37
0.0
 76
     0
330
23
  0
LAYOUT
  5
22
102
{ACAD_REACTORS
330
1A
102
}
330
1A
100
AcDbPlotSettings
  1

  2
none_device
  4

  6

 40
0.0
 41
0.0
 42
0.0
 43
0.0
 44
0.0
 45
0.0
 46
0.0
 47
0.0
 48
0.0
 49
0.0
140
0.0
141
0.0
142
1.0
143
1.0
 70
  1712
 72
     0
 73
     0
 74
     0
  7

 75
     0
147
1.0
148
0.0
149
0.0
100
AcDbLayout
  1
Model
 70
     1
 71
     0
 10
0.0
 20
0.0
 11
297.0
 21
210.0
 12
0.0
 22
0.0
 32
0.0
 14
0.0
 24
0.0
 34
0.0
 15
297.0
 25
210.0
 35
0.0
146
0.0
 13
0.0
 23
0.0
 33
0.0
 16
1.0
 26
0.0
 36
0.0
 17
0.0
 27
1.0
 37
0.0
 76
     0
330
1F
331
29
  0
MLINESTYLE
  5
18
102
{ACAD_REACTORS
330
17
102
}
330
17
100
AcDbMlineStyle
  2
Standard
 70
     0
  3

 62
   256
 51
90.0
 52
90.0
 71
     2
 49
0.5
 62
   256
  6
BYLAYER
 49
-0.5
 62
   256
  6
BYLAYER
  0
ACDBPLACEHOLDER
  5
F
102
{ACAD_REACTORS
330
E
102
}
330
E
  0
ENDSEC
  0
EOF
