  0
SECTION
  2
HEADER
  9
$ACADVER
  1
AC1015
  9
$ACADMAINTVER
 70
     6
  9
$DWGCODEPAGE
  3
ANSI_1252
  9
$INSBASE
 10
0.0
 20
0.0
 30
0.0
  9
$EXTMIN
 10
0.0
 20
0.0
 30
0.0
  9
$EXTMAX
 10
297.0
 20
210.0
 30
0.0
  9
$LIMMIN
 10
0.0
 20
0.0
  9
$LIMMAX
 10
297.0
 20
210.0
  9
$ORTHOMODE
 70
     0
  9
$REGENMODE
 70
     1
  9
$FILLMODE
 70
     1
  9
$QTEXTMODE
 70
     0
  9
$MIRRTEXT
 70
     1
  9
$LTSCALE
 40
1.0
  9
$ATTMODE
 70
     1
  9
$TEXTSIZE
 40
2.0
  9
$TRACEWID
 40
1.0
  9
$TEXTSTYLE
  7
Standard
  9
$CLAYER
  8
0
  9
$CELTYPE
  6
ByLayer
  9
$CECOLOR
 62
   256
  9
$CELTSCALE
 40
1.0
  9
$DISPSILH
 70
     0
  9
$DIMSCALE
 40
1.0
  9
$DIMASZ
 40
3.0
  9
$DIMEXO
 40
0.0
  9
$DIMDLI
 40
3.75
  9
$DIMRND
 40
0.0
  9
$DIMDLE
 40
0.0
  9
$DIMEXE
 40
1.0
  9
$DIMTP
 40
0.0
  9
$DIMTM
 40
0.0
  9
$DIMTXT
 40
2.0
  9
$DIMCEN
 40
2.5
  9
$DIMTSZ
 40
0.0
  9
$DIMTOL
 70
     0
  9
$DIMLIM
 70
     0
  9
$DIMTIH
 70
     1
  9
$DIMTOH
 70
     1
  9
$DIMSE1
 70
     0
  9
$DIMSE2
 70
     0
  9
$DIMTAD
 70
     1
  9
$DIMZIN
 70
     0
  9
$DIMBLK
  1

  9
$DIMASO
 70
     1
  9
$DIMSHO
 70
     1
  9
$DIMPOST
  1

  9
$DIMAPOST
  1

  9
$DIMALT
 70
     0
  9
$DIMALTD
 70
     3
  9
$DIMALTF
 40
0.0393700787
  9
$DIMLFAC
 40
1.0
  9
$DIMTOFL
 70
     1
  9
$DIMTVP
 40
0.0
  9
$DIMTIX
 70
     0
  9
$DIMSOXD
 70
     0
  9
$DIMSAH
 70
     0
  9
$DIMBLK1
  1

  9
$DIMBLK2
  1

  9
$DIMSTYLE
  2
ISO-25
  9
$DIMCLRD
 70
     0
  9
$DIMCLRE
 70
     0
  9
$DIMCLRT
 70
     0
  9
$DIMTFAC
 40
1.0
  9
$DIMGAP
 40
1.524
  9
$DIMJUST
 70
     0
  9
$DIMSD1
 70
     0
  9
$DIMSD2
 70
     0
  9
$DIMTOLJ
 70
     0
  9
$DIMTZIN
 70
     0
  9
$DIMALTZ
 70
     0
  9
$DIMALTTZ
 70
     0
  9
$DIMUPT
 70
     0
  9
$DIMDEC
 70
     2
  9
$DIMTDEC
 70
     3
  9
$DIMALTU
 70
     2
  9
$DIMALTTD
 70
     3
  9
$DIMTXSTY
  7
Standard
  9
$DIMAUNIT
 70
     0
  9
$DIMADEC
 70
     2
  9
$DIMALTRND
 40
0.0
  9
$DIMAZIN
 70
     0
  9
$DIMDSEP
 70
    44
  9
$DIMATFIT
 70
     3
  9
$DIMFRAC
 70
     0
  9
$DIMLDRBLK
  1

  9
$DIMLUNIT
 70
     2
  9
$DIMLWD
 70
    -2
  9
$DIMLWE
 70
    -2
  9
$DIMTMOVE
 70
     0
  9
$LUNITS
 70
     2
  9
$LUPREC
 70
     2
  9
$SKETCHINC
 40
1.0
  9
$FILLETRAD
 40
10.0
  9
$AUNITS
 70
     0
  9
$AUPREC
 70
     2
  9
$MENU
  1
.
  9
$ELEVATION
 40
0.0
  9
$PELEVATION
 40
0.0
  9
$THICKNESS
 40
0.0
  9
$LIMCHECK
 70
     0
  9
$CHAMFERA
 40
10.0
  9
$CHAMFERB
 40
10.0
  9
$CHAMFERC
 40
20.0
  9
$CHAMFERD
 40
0.0
  9
$SKPOLY
 70
     0
  9
$TDCREATE
 40
2456045.428725984
  9
$TDUCREATE
 40
2456045.34539265
  9
$TDUPDATE
 40
2456045.428727604
  9
$TDUUPDATE
 40
2456045.345394271
  9
$TDINDWG
 40
0.0000000116
  9
$TDUSRTIMER
 40
0.0000000116
  9
$USRTIMER
 70
     1
  9
$ANGBASE
 50
0.0
  9
$ANGDIR
 70
     0
  9
$PDMODE
 70
     0
  9
$PDSIZE
 40
-1.0
  9
$PLINEWID
 40
0.0
  9
$SPLFRAME
 70
     0
  9
$SPLINETYPE
 70
     6
  9
$SPLINESEGS
 70
     8
  9
$HANDSEED
  5
204
  9
$SURFTAB1
 70
     6
  9
$SURFTAB2
 70
     6
  9
$SURFTYPE
 70
     6
  9
$SURFU
 70
     6
  9
$SURFV
 70
     6
  9
$UCSBASE
  2

  9
$UCSNAME
  2

  9
$UCSORG
 10
0.0
 20
0.0
 30
0.0
  9
$UCSXDIR
 10
1.0
 20
0.0
 30
0.0
  9
$UCSYDIR
 10
0.0
 20
1.0
 30
0.0
  9
$UCSORTHOREF
  2

  9
$UCSORTHOVIEW
 70
     0
  9
$UCSORGTOP
 10
0.0
 20
0.0
 30
0.0
  9
$UCSORGBOTTOM
 10
0.0
 20
0.0
 30
0.0
  9
$UCSORGLEFT
 10
0.0
 20
0.0
 30
0.0
  9
$UCSORGRIGHT
 10
0.0
 20
0.0
 30
0.0
  9
$UCSORGFRONT
 10
0.0
 20
0.0
 30
0.0
  9
$UCSORGBACK
 10
0.0
 20
0.0
 30
0.0
  9
$PUCSBASE
  2

  9
$PUCSNAME
  2

  9
$PUCSORG
 10
0.0
 20
0.0
 30
0.0
  9
$PUCSXDIR
 10
1.0
 20
0.0
 30
0.0
  9
$PUCSYDIR
 10
0.0
 20
1.0
 30
0.0
  9
$PUCSORTHOREF
  2

  9
$PUCSORTHOVIEW
 70
     0
  9
$PUCSORGTOP
 10
0.0
 20
0.0
 30
0.0
  9
$PUCSORGBOTTOM
 10
0.0
 20
0.0
 30
0.0
  9
$PUCSORGLEFT
 10
0.0
 20
0.0
 30
0.0
  9
$PUCSORGRIGHT
 10
0.0
 20
0.0
 30
0.0
  9
$PUCSORGFRONT
 10
0.0
 20
0.0
 30
0.0
  9
$PUCSORGBACK
 10
0.0
 20
0.0
 30
0.0
  9
$USERI1
 70
     0
  9
$USERI2
 70
     0
  9
$USERI3
 70
     0
  9
$USERI4
 70
     0
  9
$USERI5
 70
     0
  9
$USERR1
 40
0.0
  9
$USERR2
 40
0.0
  9
$USERR3
 40
0.0
  9
$USERR4
 40
0.0
  9
$USERR5
 40
0.0
  9
$WORLDVIEW
 70
     1
  9
$SHADEDGE
 70
     3
  9
$SHADEDIF
 70
    70
  9
$TILEMODE
 70
     1
  9
$MAXACTVP
 70
    64
  9
$PINSBASE
 10
0.0
 20
0.0
 30
0.0
  9
$PLIMCHECK
 70
     0
  9
$PEXTMIN
 10
1.0000000000E+20
 20
1.0000000000E+20
 30
1.0000000000E+20
  9
$PEXTMAX
 10
-1.0000000000E+20
 20
-1.0000000000E+20
 30
-1.0000000000E+20
  9
$PLIMMIN
 10
0.0
 20
0.0
  9
$PLIMMAX
 10
420.0
 20
297.0
  9
$UNITMODE
 70
     0
  9
$VISRETAIN
 70
     1
  9
$PLINEGEN
 70
     0
  9
$PSLTSCALE
 70
     1
  9
$TREEDEPTH
 70
  3020
  9
$CMLSTYLE
  2
Standard
  9
$CMLJUST
 70
     0
  9
$CMLSCALE
 40
20.0
  9
$PROXYGRAPHICS
 70
     1
  9
$MEASUREMENT
 70
     1
  9
$CELWEIGHT
370
    -1
  9
$ENDCAPS
280
     0
  9
$JOINSTYLE
280
     0
  9
$LWDISPLAY
290
     1
  9
$INSUNITS
 70
     4
  9
$HYPERLINKBASE
  1

  9
$STYLESHEET
  1

  9
$XEDIT
290
     1
  9
$CEPSNTYPE
380
     0
  9
$PSTYLEMODE
290
     1
  9
$FINGERPRINTGUID
  2
{A9CAE3A1-D5F1-498B-8AED-B7270DBD9F0A}
  9
$VERSIONGUID
  2
{FAEB1C32-E019-11D5-929B-00C0DF256EC4}
  9
$EXTNAMES
290
     1
  9
$PSVPSCALE
 40
0.0
  9
$OLESTARTUP
290
     0
  0
ENDSEC
  0
SECTION
  2
CLASSES
  0
CLASS
  1
ACDBDICTIONARYWDFLT
  2
AcDbDictionaryWithDefault
  3
ObjectDBX Classes
 90
        0
280
     0
281
     0
  0
CLASS
  1
VISUALSTYLE
  2
AcDbVisualStyle
  3
ObjectDBX Classes
 90
     4095
280
     0
281
     0
  0
CLASS
  1
MATERIAL
  2
AcDbMaterial
  3
ObjectDBX Classes
 90
     1153
280
     0
281
     0
  0
CLASS
  1
ACDBPLACEHOLDER
  2
AcDbPlaceHolder
  3
ObjectDBX Classes
 90
        0
280
     0
281
     0
  0
CLASS
  1
LAYOUT
  2
AcDbLayout
  3
ObjectDBX Classes
 90
        0
280
     0
281
     0
  0
ENDSEC
  0
SECTION
  2
TABLES
  0
TABLE
  2
VPORT
  5
8
330
0
100
AcDbSymbolTable
 70
     1
  0
VPORT
  5
29
330
8
100
AcDbSymbolTableRecord
100
AcDbViewportTableRecord
  2
*Active
 70
     0
 10
0.0
 20
0.0
 11
1.0
 21
1.0
 12
148.5
 22
105.0
 13
0.0
 23
0.0
 14
10.0
 24
10.0
 15
10.0
 25
10.0
 16
0.0
 26
0.0
 36
1.0
 17
0.0
 27
0.0
 37
0.0
 40
210.0
 41
1.4142857143
 42
50.0
 43
0.0
 44
0.0
 50
0.0
 51
0.0
 71
     0
 72
  2000
 73
     1
 74
     3
 75
     0
 76
     0
 77
     0
 78
     0
281
     0
 65
     1
110
0.0
120
0.0
130
0.0
111
1.0
121
0.0
131
0.0
112
0.0
122
1.0
132
0.0
 79
     0
146
0.0
  0
ENDTAB
  0
TABLE
  2
LTYPE
  5
5
330
0
100
AcDbSymbolTable
 70
     6
  0
LTYPE
  5
14
330
5
100
AcDbSymbolTableRecord
100
AcDbLinetypeTableRecord
  2
ByBlock
 70
     0
  3

 72
    65
 73
     0
 40
0.0
  0
LTYPE
  5
15
330
5
100
AcDbSymbolTableRecord
100
AcDbLinetypeTableRecord
  2
ByLayer
 70
     0
  3

 72
    65
 73
     0
 40
0.0
  0
LTYPE
  5
16
330
5
100
AcDbSymbolTableRecord
100
AcDbLinetypeTableRecord
  2
Continuous
 70
     0
  3
Solid line
 72
    65
 73
     0
 40
0.0
  0
LTYPE
  5
3F
330
5
100
AcDbSymbolTableRecord
100
AcDbLinetypeTableRecord
  2
HIDDEN
 70
     0
  3
Hidden __ __ __ __ __ __ __ __ __ __ __ __ __ __
 72
    65
 73
     2
 40
1.905
 49
1.27
 74
     0
 49
-0.635
 74
     0
  0
LTYPE
  5
40
330
5
100
AcDbSymbolTableRecord
100
AcDbLinetypeTableRecord
  2
PHANTOM
 70
     0
  3
Phantom ______  __  __  ______  __  __  ______
 72
    65
 73
     6
 40
12.7
 49
6.35
 74
     0
 49
-1.27
 74
     0
 49
1.27
 74
     0
 49
-1.27
 74
     0
 49
1.27
 74
     0
 49
-1.27
 74
     0
  0
LTYPE
  5
41
330
5
100
AcDbSymbolTableRecord
100
AcDbLinetypeTableRecord
  2
CENTER
 70
     0
  3
Center ____ _ ____ _ ____ _ ____ _ ____ _ ____
 72
    65
 73
     4
 40
10.16
 49
6.35
 74
     0
 49
-1.27
 74
     0
 49
1.27
 74
     0
 49
-1.27
 74
     0
  0
LTYPE
  5
42
330
5
100
AcDbSymbolTableRecord
100
AcDbLinetypeTableRecord
  2
CENTERX2
 70
     0
  3
Center (2x) ________  __  ________  __  _____
 72
    65
 73
     4
 40
20.32
 49
12.7
 74
     0
 49
-2.54
 74
     0
 49
2.54
 74
     0
 49
-2.54
 74
     0
  0
LTYPE
  5
43
330
5
100
AcDbSymbolTableRecord
100
AcDbLinetypeTableRecord
  2
DOT2
 70
     0
  3
Dot (.5x) ........................................
 72
    65
 73
     2
 40
0.635
 49
0.0
 74
     0
 49
-0.635
 74
     0
  0
ENDTAB
  0
TABLE
  2
LAYER
  5
2
330
0
100
AcDbSymbolTable
 70
     5
  0
LAYER
  5
10
330
2
100
AcDbSymbolTableRecord
100
AcDbLayerTableRecord
  2
0
 70
     0
 62
     7
  6
Continuous
370
    -3
390
F
  0
LAYER
  5
44
330
2
100
AcDbSymbolTableRecord
100
AcDbLayerTableRecord
  2
FORMAT
 70
     0
 62
     7
  6
Continuous
370
    -3
390
F
  0
LAYER
  5
45
330
2
100
AcDbSymbolTableRecord
100
AcDbLayerTableRecord
  2
VERMASSUNG
 70
     0
 62
     7
  6
Continuous
370
    -3
390
F
  0
LAYER
  5
46
330
2
100
AcDbSymbolTableRecord
100
AcDbLayerTableRecord
  2
KOPF_DÜNN
 70
     0
 62
     7
  6
Continuous
370
    -3
390
F
  0
LAYER
  5
47
330
2
100
AcDbSymbolTableRecord
100
AcDbLayerTableRecord
  2
KOPF_DICK
 70
     0
 62
     7
  6
Continuous
370
    15
390
F
  0
ENDTAB
  0
TABLE
  2
STYLE
  5
3
330
0
100
AcDbSymbolTable
 70
     2
  0
STYLE
  5
11
330
3
100
AcDbSymbolTableRecord
100
AcDbTextStyleTableRecord
  2
Standard
 70
     0
 40
0.0
 41
1.0
 50
0.0
 71
     0
 42
2.0
  3
txt
  4

  0
STYLE
  5
48
330
3
100
AcDbSymbolTableRecord
100
AcDbTextStyleTableRecord
  2
SLDTEXTSTYLE0
 70
     0
 40
0.0
 41
0.7
 50
0.0
 71
     0
 42
0.2
  3
TXT
  4

  0
ENDTAB
  0
TABLE
  2
VIEW
  5
6
330
0
100
AcDbSymbolTable
 70
     0
  0
ENDTAB
  0
TABLE
  2
UCS
  5
7
330
0
100
AcDbSymbolTable
 70
     0
  0
ENDTAB
  0
TABLE
  2
APPID
  5
9
330
0
100
AcDbSymbolTable
 70
     1
  0
APPID
  5
12
330
9
100
AcDbSymbolTableRecord
100
AcDbRegAppTableRecord
  2
ACAD
 70
     0
  0
ENDTAB
  0
TABLE
  2
DIMSTYLE
  5
A
330
0
100
AcDbSymbolTable
 70
     5
100
AcDbDimStyleTable
  0
DIMSTYLE
105
27
330
A
100
AcDbSymbolTableRecord
100
AcDbDimStyleTableRecord
  2
ISO-25
 70
     0
 41
2.5
 42
0.625
 43
3.75
 44
1.25
 73
     0
 74
     0
 77
     1
 78
     8
140
2.5
141
2.5
143
0.0393700787
147
0.625
171
     3
172
     1
178
     0
271
     2
272
     2
274
     3
278
    44
283
     0
284
     8
340
11
  0
DIMSTYLE
105
183
102
{ACAD_REACTORS
330
182
330
1AF
102
}
330
A
100
AcDbSymbolTableRecord
100
AcDbDimStyleTableRecord
  2
SLDDIMSTYLE0
 70
     0
 41
3.0
 44
0.0
 45
0.000000001
 73
     0
 74
     0
 77
     1
 78
    12
 79
     3
140
2.0
147
0.5
173
     1
178
     0
271
     2
272
     3
276
     2
284
    12
340
48
  0
DIMSTYLE
105
18E
102
{ACAD_REACTORS
330
18D
330
19A
102
}
330
A
100
AcDbSymbolTableRecord
100
AcDbDimStyleTableRecord
  2
SLDDIMSTYLE1
 70
     0
 41
3.0
 44
0.0
 45
0.000000001
 47
0.1
 48
0.1
 71
     1
 73
     0
 74
     0
 77
     1
 78
    12
 79
     3
140
2.0
147
0.5
173
     1
178
     0
271
     2
272
     1
276
     2
284
     8
340
48
  0
DIMSTYLE
105
1A7
102
{ACAD_REACTORS
330
1A6
102
}
330
A
100
AcDbSymbolTableRecord
100
AcDbDimStyleTableRecord
  2
SLDDIMSTYLE2
 70
     0
 41
3.0
 44
0.0
 73
     0
 74
     0
 77
     1
 78
    12
 79
     3
140
2.0
147
0.5
173
     1
178
     0
179
     2
272
     3
276
     2
284
    12
340
48
  0
DIMSTYLE
105
1E9
102
{ACAD_REACTORS
330
1E8
102
}
330
A
100
AcDbSymbolTableRecord
100
AcDbDimStyleTableRecord
  2
SLDDIMSTYLE3
 70
     0
 41
3.0
 44
0.0
 45
0.000000001
 73
     0
 74
     0
 77
     1
 78
    12
 79
     3
140
2.0
147
0.5
172
     1
173
     1
178
     0
271
     2
272
     3
276
     2
284
    12
289
     0
340
48
  0
ENDTAB
  0
TABLE
  2
BLOCK_RECORD
  5
1
330
0
100
AcDbSymbolTable
 70
     8
  0
BLOCK_RECORD
  5
1F
330
1
100
AcDbSymbolTableRecord
100
AcDbBlockTableRecord
  2
*Model_Space
340
22
  0
BLOCK_RECORD
  5
1B
330
1
100
AcDbSymbolTableRecord
100
AcDbBlockTableRecord
  2
*Paper_Space
340
1E
  0
BLOCK_RECORD
  5
23
330
1
100
AcDbSymbolTableRecord
100
AcDbBlockTableRecord
  2
*Paper_Space0
340
26
  0
BLOCK_RECORD
  5
184
330
1
100
AcDbSymbolTableRecord
100
AcDbBlockTableRecord
  2
_D
340
0
  0
BLOCK_RECORD
  5
18F
330
1
100
AcDbSymbolTableRecord
100
AcDbBlockTableRecord
  2
_D_1
340
0
  0
BLOCK_RECORD
  5
19B
330
1
100
AcDbSymbolTableRecord
100
AcDbBlockTableRecord
  2
_D_2
340
0
  0
BLOCK_RECORD
  5
1A8
330
1
100
AcDbSymbolTableRecord
100
AcDbBlockTableRecord
  2
_D_3
340
0
  0
BLOCK_RECORD
  5
1B0
330
1
100
AcDbSymbolTableRecord
100
AcDbBlockTableRecord
  2
_D_4
340
0
  0
BLOCK_RECORD
  5
1EA
330
1
100
AcDbSymbolTableRecord
100
AcDbBlockTableRecord
  2
_D_5
340
0
  0
BLOCK_RECORD
  5
1F7
330
1
100
AcDbSymbolTableRecord
100
AcDbBlockTableRecord
  2
SW_CENTERMARKSYMBOL_0
340
0
102
{BLKREFS
331
202
102
}
  0
ENDTAB
  0
ENDSEC
  0
SECTION
  2
BLOCKS
  0
BLOCK
  5
20
330
1F
100
AcDbEntity
  8
0
100
AcDbBlockBegin
  2
*Model_Space
 70
     0
 10
0.0
 20
0.0
 30
0.0
  3
*Model_Space
  1

  0
ENDBLK
  5
21
330
1F
100
AcDbEntity
  8
0
100
AcDbBlockEnd
  0
BLOCK
  5
1C
330
1B
100
AcDbEntity
 67
     1
  8
0
100
AcDbBlockBegin
  2
*Paper_Space
 70
     0
 10
0.0
 20
0.0
 30
0.0
  3
*Paper_Space
  1

  0
ENDBLK
  5
1D
330
1B
100
AcDbEntity
 67
     1
  8
0
100
AcDbBlockEnd
  0
BLOCK
  5
24
330
23
100
AcDbEntity
  8
0
100
AcDbBlockBegin
  2
*Paper_Space0
 70
     0
 10
0.0
 20
0.0
 30
0.0
  3
*Paper_Space0
  1

  0
ENDBLK
  5
25
330
23
100
AcDbEntity
  8
0
100
AcDbBlockEnd
  0
BLOCK
  5
185
330
184
100
AcDbEntity
  8
0
100
AcDbBlockBegin
  2
_D
 70
     0
 10
0.0
 20
0.0
 30
0.0
  3
_D
  1

  0
SOLID
  5
187
330
184
100
AcDbEntity
  8
VERMASSUNG
100
AcDbTrace
 10
222.6369065683
 20
80.3274376781
 30
0.0
 11
219.6369065683
 21
80.7774376781
 31
0.0
 12
219.6369065683
 22
79.8774376781
 32
0.0
 13
219.6369065683
 23
79.8774376781
 33
0.0
  0
SOLID
  5
188
330
184
100
AcDbEntity
  8
VERMASSUNG
100
AcDbTrace
 10
148.6369065683
 20
80.3274376781
 30
0.0
 11
151.6369065683
 21
79.8774376781
 31
0.0
 12
151.6369065683
 22
80.7774376781
 32
0.0
 13
151.6369065683
 23
80.7774376781
 33
0.0
  0
LINE
  5
189
330
184
100
AcDbEntity
  8
VERMASSUNG
100
AcDbLine
 10
222.6369065683
 20
96.3607778545
 30
0.0
 11
222.6369065683
 21
79.3274376781
 31
0.0
  0
LINE
  5
18A
330
184
100
AcDbEntity
  8
VERMASSUNG
100
AcDbLine
 10
148.6369065683
 20
110.7292728724
 30
0.0
 11
148.6369065683
 21
79.3274376781
 31
0.0
  0
LINE
  5
18B
330
184
100
AcDbEntity
  8
VERMASSUNG
100
AcDbLine
 10
222.6369065683
 20
80.3274376781
 30
0.0
 11
148.6369065683
 21
80.3274376781
 31
0.0
  0
MTEXT
  5
18C
330
184
100
AcDbEntity
  8
VERMASSUNG
100
AcDbMText
 10
183.2369064543
 20
82.9055730413
 30
0.1
 40
2.0
 41
0.0
 71
     1
 72
     1
  1
74
  7
SLDTEXTSTYLE0
 73
     1
 44
1.0
  0
ENDBLK
  5
186
330
184
100
AcDbEntity
  8
0
100
AcDbBlockEnd
  0
BLOCK
  5
190
330
18F
100
AcDbEntity
  8
0
100
AcDbBlockBegin
  2
_D_1
 70
     0
 10
0.0
 20
0.0
 30
0.0
  3
_D_1
  1

  0
SOLID
  5
192
330
18F
100
AcDbEntity
  8
VERMASSUNG
100
AcDbTrace
 10
241.9344014642
 20
96.3607778545
 30
0.0
 11
242.3844014642
 21
99.3607778545
 31
0.0
 12
241.4844014642
 22
99.3607778545
 32
0.0
 13
241.4844014642
 23
99.3607778545
 33
0.0
  0
SOLID
  5
193
330
18F
100
AcDbEntity
  8
VERMASSUNG
100
AcDbTrace
 10
241.9344014642
 20
123.3607778545
 30
0.0
 11
241.4844014642
 21
120.3607778545
 31
0.0
 12
242.3844014642
 22
120.3607778545
 32
0.0
 13
242.3844014642
 23
120.3607778545
 33
0.0
  0
LINE
  5
194
330
18F
100
AcDbEntity
  8
VERMASSUNG
100
AcDbLine
 10
222.6369065683
 20
96.3607778545
 30
0.0
 11
242.9344014642
 21
96.3607778545
 31
0.0
  0
LINE
  5
195
330
18F
100
AcDbEntity
  8
VERMASSUNG
100
AcDbLine
 10
222.6369065683
 20
123.3607778545
 30
0.0
 11
242.9344014642
 21
123.3607778545
 31
0.0
  0
LINE
  5
196
330
18F
100
AcDbEntity
  8
VERMASSUNG
100
AcDbLine
 10
241.9344014642
 20
96.3607778545
 30
0.0
 11
241.9344014642
 21
123.3607778545
 31
0.0
  0
MTEXT
  5
197
330
18F
100
AcDbEntity
  8
VERMASSUNG
100
AcDbMText
 10
239.356266101
 20
105.3107776675
 30
0.1
 40
2.0
 41
0.0
 71
     1
 72
     1
  1
27
  7
SLDTEXTSTYLE0
 11
6.123233995736766E-17
 21
1.0
 31
0.0
 73
     1
 44
1.0
  0
MTEXT
  5
198
330
18F
100
AcDbEntity
  8
VERMASSUNG
100
AcDbMText
 10
239.356266101
 20
111.0982777695
 30
0.1
 40
2.0
 41
0.0
 71
     1
 72
     1
  1

  7
SLDTEXTSTYLE0
 11
6.123233995736766E-17
 21
1.0
 31
0.0
 73
     1
 44
1.0
  0
MTEXT
  5
199
330
18F
100
AcDbEntity
  8
VERMASSUNG
100
AcDbMText
 10
239.8507999638
 20
111.1107780594
 30
0.1
 40
1.5
 41
0.0
 71
     1
 72
     1
  1
±0.1
  7
SLDTEXTSTYLE0
 11
6.123233995736766E-17
 21
1.0
 31
0.0
 73
     1
 44
1.0
  0
ENDBLK
  5
191
330
18F
100
AcDbEntity
  8
0
100
AcDbBlockEnd
  0
BLOCK
  5
19C
330
19B
100
AcDbEntity
  8
0
100
AcDbBlockBegin
  2
_D_2
 70
     0
 10
0.0
 20
0.0
 30
0.0
  3
_D_2
  1

  0
SOLID
  5
19E
330
19B
100
AcDbEntity
  8
VERMASSUNG
100
AcDbTrace
 10
172.6369065683
 20
86.3274376781
 30
0.0
 11
175.6369065683
 21
85.8774376781
 31
0.0
 12
175.6369065683
 22
86.7774376781
 32
0.0
 13
175.6369065683
 23
86.7774376781
 33
0.0
  0
SOLID
  5
19F
330
19B
100
AcDbEntity
  8
VERMASSUNG
100
AcDbTrace
 10
222.6369065683
 20
86.3274376781
 30
0.0
 11
219.6369065683
 21
86.7774376781
 31
0.0
 12
219.6369065683
 22
85.8774376781
 32
0.0
 13
219.6369065683
 23
85.8774376781
 33
0.0
  0
LINE
  5
1A0
330
19B
100
AcDbEntity
  8
VERMASSUNG
100
AcDbLine
 10
172.6369065683
 20
103.6607778545
 30
0.0
 11
172.6369065683
 21
85.3274376781
 31
0.0
  0
LINE
  5
1A1
330
19B
100
AcDbEntity
  8
VERMASSUNG
100
AcDbLine
 10
222.6369065683
 20
96.3607778545
 30
0.0
 11
222.6369065683
 21
85.3274376781
 31
0.0
  0
LINE
  5
1A2
330
19B
100
AcDbEntity
  8
VERMASSUNG
100
AcDbLine
 10
172.6369065683
 20
86.3274376781
 30
0.0
 11
222.6369065683
 21
86.3274376781
 31
0.0
  0
MTEXT
  5
1A3
330
19B
100
AcDbEntity
  8
VERMASSUNG
100
AcDbMText
 10
193.0869063813
 20
88.9055730413
 30
0.1
 40
2.0
 41
0.0
 71
     1
 72
     1
  1
50
  7
SLDTEXTSTYLE0
 73
     1
 44
1.0
  0
MTEXT
  5
1A4
330
19B
100
AcDbEntity
  8
VERMASSUNG
100
AcDbMText
 10
198.8744064834
 20
88.9055730413
 30
0.1
 40
2.0
 41
0.0
 71
     1
 72
     1
  1

  7
SLDTEXTSTYLE0
 73
     1
 44
1.0
  0
MTEXT
  5
1A5
330
19B
100
AcDbEntity
  8
VERMASSUNG
100
AcDbMText
 10
198.8869067732
 20
88.4110391785
 30
0.1
 40
1.5
 41
0.0
 71
     1
 72
     1
  1
±0.1
  7
SLDTEXTSTYLE0
 73
     1
 44
1.0
  0
ENDBLK
  5
19D
330
19B
100
AcDbEntity
  8
0
100
AcDbBlockEnd
  0
BLOCK
  5
1A9
330
1A8
100
AcDbEntity
  8
0
100
AcDbBlockBegin
  2
_D_3
 70
     0
 10
0.0
 20
0.0
 30
0.0
  3
_D_3
  1

  0
ARC
  5
1AB
330
1A8
100
AcDbEntity
  8
VERMASSUNG
100
AcDbCircle
 10
222.6734299687
 20
96.3607778545
 30
0.0
 40
10.93238406231873
100
AcDbArc
 50
0.0
 51
95.0
  0
SOLID
  5
1AC
330
1A8
100
AcDbEntity
  8
VERMASSUNG
100
AcDbTrace
 10
233.605814031
 20
96.3607778545
 30
0.0
 11
233.6512528205
 21
99.393999791
 31
0.0
 12
232.7593102029
 22
99.2738400352
 32
0.0
 13
232.7593102029
 23
99.2738400352
 33
0.0
  0
SOLID
  5
1AD
330
1A8
100
AcDbEntity
  8
VERMASSUNG
100
AcDbTrace
 10
221.7206099158
 20
107.2515608949
 30
0.0
 11
224.6963646853
 21
106.6621683674
 31
0.0
 12
224.7383292757
 22
107.5611894868
 32
0.0
 13
224.7383292757
 23
107.5611894868
 33
0.0
  0
MTEXT
  5
1AE
330
1A8
100
AcDbEntity
  8
VERMASSUNG
100
AcDbMText
 10
229.6629001711
 20
108.2809893699
 30
0.1
 40
2.0
 41
0.0
 71
     1
 72
     1
  1
95°
  7
SLDTEXTSTYLE0
 11
0.7372773368101204
 21
-0.6755902076156641
 31
0.0
 73
     1
 44
1.0
  0
ENDBLK
  5
1AA
330
1A8
100
AcDbEntity
  8
0
100
AcDbBlockEnd
  0
BLOCK
  5
1B1
330
1B0
100
AcDbEntity
  8
0
100
AcDbBlockBegin
  2
_D_4
 70
     0
 10
0.0
 20
0.0
 30
0.0
  3
_D_4
  1

  0
SOLID
  5
1B3
330
1B0
100
AcDbEntity
  8
VERMASSUNG
100
AcDbTrace
 10
140.2194760821
 20
143.3607778545
 30
0.0
 11
139.7694760821
 21
140.3607778545
 31
0.0
 12
140.6694760821
 22
140.3607778545
 32
0.0
 13
140.6694760821
 23
140.3607778545
 33
0.0
  0
SOLID
  5
1B4
330
1B0
100
AcDbEntity
  8
VERMASSUNG
100
AcDbTrace
 10
140.2194760821
 20
103.3607778545
 30
0.0
 11
140.6694760821
 21
106.3607778545
 31
0.0
 12
139.7694760821
 22
106.3607778545
 32
0.0
 13
139.7694760821
 23
106.3607778545
 33
0.0
  0
LINE
  5
1B5
330
1B0
100
AcDbEntity
  8
VERMASSUNG
100
AcDbLine
 10
172.9369065683
 20
143.3607778545
 30
0.0
 11
139.2194760821
 21
143.3607778545
 31
0.0
  0
LINE
  5
1B6
330
1B0
100
AcDbEntity
  8
VERMASSUNG
100
AcDbLine
 10
172.9369065683
 20
103.3607778545
 30
0.0
 11
139.2194760821
 21
103.3607778545
 31
0.0
  0
LINE
  5
1B7
330
1B0
100
AcDbEntity
  8
VERMASSUNG
100
AcDbLine
 10
140.2194760821
 20
143.3607778545
 30
0.0
 11
140.2194760821
 21
103.3607778545
 31
0.0
  0
MTEXT
  5
1B8
330
1B0
100
AcDbEntity
  8
VERMASSUNG
100
AcDbMText
 10
137.441340593
 20
116.8557779151
 30
0.4650407969
 40
2.0
 41
0.0
 71
     1
 72
     1
  1
PSC
  7
SLDTEXTSTYLE0
 11
-7.044195017643634E-15
 21
1.0
 31
0.0
 73
     1
 44
1.0
  0
MTEXT
  5
1B9
330
1B0
100
AcDbEntity
  8
VERMASSUNG
100
AcDbMText
 10
137.6413406025
 20
121.4557780172
 30
0.4650407969
 40
2.0
 41
0.0
 71
     1
 72
     1
  1
%%c
  7
SLDTEXTSTYLE0
 11
-7.044195017643634E-15
 21
1.0
 31
0.0
 73
     1
 44
1.0
  0
MTEXT
  5
1BA
330
1B0
100
AcDbEntity
  8
VERMASSUNG
100
AcDbMText
 10
137.441340593
 20
125.0657784972
 30
0.4650407969
 40
2.0
 41
0.0
 71
     1
 72
     1
  1
40
  7
SLDTEXTSTYLE0
 11
-7.044195017643634E-15
 21
1.0
 31
0.0
 73
     1
 44
1.0
  0
ENDBLK
  5
1B2
330
1B0
100
AcDbEntity
  8
0
100
AcDbBlockEnd
  0
BLOCK
  5
1EB
330
1EA
100
AcDbEntity
  8
0
100
AcDbBlockBegin
  2
_D_5
 70
     0
 10
0.0
 20
0.0
 30
0.0
  3
_D_5
  1

  0
SOLID
  5
1ED
330
1EA
100
AcDbEntity
  8
VERMASSUNG
100
AcDbTrace
 10
58.3070688542
 20
104.0489246549
 30
0.0
 11
55.8360969009
 21
102.2891526226
 31
0.0
 12
56.4611583656
 22
101.6416202563
 32
0.0
 13
56.4611583656
 23
101.6416202563
 33
0.0
  0
SOLID
  5
1EE
330
1EA
100
AcDbEntity
  8
VERMASSUNG
100
AcDbTrace
 10
94.2810892041
 20
138.7745615802
 30
0.0
 11
96.7520611575
 21
140.5343336126
 31
0.0
 12
96.1269996928
 22
141.1818659789
 32
0.0
 13
96.1269996928
 23
141.1818659789
 33
0.0
  0
LINE
  5
1EF
330
1EA
100
AcDbEntity
  8
VERMASSUNG
100
AcDbLine
 10
58.3070688542
 20
104.0489246549
 30
0.0
 11
57.6125561157
 21
104.7684050619
 31
0.0
  0
LINE
  5
1F0
330
1EA
100
AcDbEntity
  8
VERMASSUNG
100
AcDbLine
 10
94.2810892041
 20
138.7745615802
 30
0.0
 11
93.5865764656
 21
139.4940419872
 31
0.0
  0
LINE
  5
1F1
330
1EA
100
AcDbEntity
  8
VERMASSUNG
100
AcDbLine
 10
58.3070688542
 20
104.0489246549
 30
0.0
 11
53.9901864123
 21
99.8818482239
 31
0.0
  0
LINE
  5
1F2
330
1EA
100
AcDbEntity
  8
VERMASSUNG
100
AcDbLine
 10
58.3070688542
 20
104.0489246549
 30
0.0
 11
94.2810892041
 21
138.7745615802
 31
0.0
  0
LINE
  5
1F3
330
1EA
100
AcDbEntity
  8
VERMASSUNG
100
AcDbLine
 10
94.2810892041
 20
138.7745615802
 30
0.0
 11
108.3784815465
 21
152.3827411307
 31
0.0
  0
MTEXT
  5
1F4
330
1EA
100
AcDbEntity
  8
VERMASSUNG
100
AcDbMText
 10
96.6519095887
 20
144.6464385573
 30
0.1
 40
2.0
 41
0.0
 71
     1
 72
     1
  1
%%c
  7
SLDTEXTSTYLE0
 11
0.7194804069979737
 21
0.6945127385052272
 31
0.0
 73
     1
 44
1.0
  0
MTEXT
  5
1F5
330
1EA
100
AcDbEntity
  8
VERMASSUNG
100
AcDbMText
 10
99.1103313139
 20
147.2975256414
 30
0.1
 40
2.0
 41
0.0
 71
     1
 72
     1
  1
50
  7
SLDTEXTSTYLE0
 11
0.7194804069979737
 21
0.6945127385052272
 31
0.0
 73
     1
 44
1.0
  0
MTEXT
  5
1F6
330
1EA
100
AcDbEntity
  8
VERMASSUNG
100
AcDbMText
 10
103.2743245779
 20
151.3170185098
 30
0.1
 40
2.0
 41
0.0
 71
     1
 72
     1
  1
min.
  7
SLDTEXTSTYLE0
 11
0.7194804069979737
 21
0.6945127385052272
 31
0.0
 73
     1
 44
1.0
  0
ENDBLK
  5
1EC
330
1EA
100
AcDbEntity
  8
0
100
AcDbBlockEnd
  0
BLOCK
  5
1F8
330
1F7
100
AcDbEntity
  8
0
100
AcDbBlockBegin
  2
SW_CENTERMARKSYMBOL_0
 70
     0
 10
0.0
 20
0.0
 30
0.0
  3
SW_CENTERMARKSYMBOL_0
  1

  0
LINE
  5
1FA
330
1F7
100
AcDbEntity
  8
VERMASSUNG
 62
     0
100
AcDbLine
 10
0.0
 20
0.0
 30
0.0
 11
0.0
 21
2.5
 31
0.0
  0
LINE
  5
1FB
330
1F7
100
AcDbEntity
  8
VERMASSUNG
 62
     0
100
AcDbLine
 10
0.0
 20
0.0
 30
0.0
 11
-2.5
 21
0.0
 31
0.0
  0
LINE
  5
1FC
330
1F7
100
AcDbEntity
  8
VERMASSUNG
 62
     0
100
AcDbLine
 10
0.0
 20
0.0
 30
0.0
 11
0.0
 21
-2.5
 31
0.0
  0
LINE
  5
1FD
330
1F7
100
AcDbEntity
  8
VERMASSUNG
 62
     0
100
AcDbLine
 10
0.0
 20
0.0
 30
0.0
 11
2.5
 21
0.0
 31
0.0
  0
LINE
  5
1FE
330
1F7
100
AcDbEntity
  8
VERMASSUNG
 62
     0
100
AcDbLine
 10
0.0
 20
5.0
 30
0.0
 11
0.0
 21
22.5
 31
0.0
  0
LINE
  5
1FF
330
1F7
100
AcDbEntity
  8
VERMASSUNG
 62
     0
100
AcDbLine
 10
-5.0
 20
0.0
 30
0.0
 11
-22.5
 21
0.0
 31
0.0
  0
LINE
  5
200
330
1F7
100
AcDbEntity
  8
VERMASSUNG
 62
     0
100
AcDbLine
 10
0.0
 20
-5.0
 30
0.0
 11
0.0
 21
-22.5
 31
0.0
  0
LINE
  5
201
330
1F7
100
AcDbEntity
  8
VERMASSUNG
 62
     0
100
AcDbLine
 10
5.0
 20
0.0
 30
0.0
 11
22.5
 21
0.0
 31
0.0
  0
ENDBLK
  5
1F9
330
1F7
100
AcDbEntity
  8
0
100
AcDbBlockEnd
  0
ENDSEC
  0
SECTION
  2
ENTITIES
  0
MTEXT
  5
49
330
1F
100
AcDbEntity
  8
KOPF_DÜNN
100
AcDbMText
 10
13.8892156294
 20
23.8442973028
 30
0.0
 40
3.0
 41
0.0
 71
     1
 72
     1
  1
PS4.KCC.LLA.050
  7
SLDTEXTSTYLE0
 73
     1
 44
1.0
  0
MTEXT
  5
4A
330
1F
100
AcDbEntity
  8
VERMASSUNG
100
AcDbMText
 10
13.9329988022
 20
28.8834360957
 30
0.0
 40
3.0
 41
0.0
 71
     1
 72
     1
  1
Klemmhalter links_Turning tool left 95° /80°
  7
SLDTEXTSTYLE0
 73
     1
 44
1.0
  0
MTEXT
  5
4B
330
1F
100
AcDbEntity
  8
VERMASSUNG
100
AcDbMText
 10
98.8601118557
 20
13.8365368179
 30
0.0
 40
2.0
 41
0.0
 71
     1
 72
     1
  1
Datum: 27.04.2012
  7
SLDTEXTSTYLE0
 73
     1
 44
1.0
  0
MTEXT
  5
4C
330
1F
100
AcDbEntity
  8
VERMASSUNG
100
AcDbMText
 10
13.933048693
 20
18.0482802738
 30
0.0
 40
2.0
 41
0.0
 71
     1
 72
     1
  1
PSC ø40 / CC..12 04..
  7
SLDTEXTSTYLE0
 73
     1
 44
1.0
  0
MTEXT
  5
4D
330
1F
100
AcDbEntity
  8
VERMASSUNG
100
AcDbMText
 10
13.9808475933
 20
13.9090973692
 30
0.0
 40
2.0
 41
0.0
 71
     1
 72
     1
  1
Gewicht: 373g
  7
SLDTEXTSTYLE0
 73
     1
 44
1.0
  0
LINE
  5
4E
330
1F
100
AcDbEntity
  8
0
  6
Continuous
 62
     7
370
    15
100
AcDbLine
 10
194.6343117844
 20
143.3607774074
 30
0.0
 11
172.9369065826
 21
143.3607774074
 31
0.0
  0
LINE
  5
4F
330
1F
100
AcDbEntity
  8
0
  6
Continuous
 62
     7
370
    15
100
AcDbLine
 10
172.9369065826
 20
103.3607783015
 30
0.0
 11
194.6372827034
 21
103.3607783015
 31
0.0
  0
ARC
  5
50
330
1F
100
AcDbEntity
  8
0
  6
Continuous
 62
     7
370
    15
100
AcDbCircle
 10
172.9369065683
 20
103.6607778545
 30
0.0
 40
0.3000000000000114
100
AcDbArc
 50
180.0
 51
270.0
  0
ARC
  5
51
330
1F
100
AcDbEntity
  8
0
  6
Continuous
 62
     7
370
    15
100
AcDbCircle
 10
172.9369065683
 20
143.0607778545
 30
0.0
 40
0.3000000000000114
100
AcDbArc
 50
90.0
 51
180.0
  0
LWPOLYLINE
  5
52
330
1F
100
AcDbEntity
  8
0
  6
Continuous
 62
     7
370
    15
100
AcDbPolyline
 90
        3
 70
   128
 43
0.0
 10
172.4369065734
 20
109.2709578793
 10
172.5623615085
 20
109.202655613
 10
172.6369065683
 20
109.1499176095
  0
LWPOLYLINE
  5
53
330
1F
100
AcDbEntity
  8
0
  6
Continuous
 62
     7
370
    15
100
AcDbPolyline
 90
        3
 70
   128
 43
0.0
 10
172.6369065683
 20
137.5716380994
 10
172.5623615085
 20
137.518900096
 10
172.4369065734
 20
137.4505978297
  0
ELLIPSE
  5
54
330
1F
100
AcDbEntity
  8
0
  6
Continuous
 62
     7
370
    15
100
AcDbEllipse
 10
194.5565218106
 20
123.3607778545
 30
0.0
 11
0.0
 21
20.0
 31
0.0
210
0.0
220
0.0
230
1.0
 40
0.2679491924
 41
0.0146477619867433
 42
3.12694489160305
  0
SPLINE
  5
55
330
1F
100
AcDbEntity
  8
0
  6
Continuous
 62
     7
370
    15
100
AcDbSpline
210
0.0
220
0.0
230
1.0
 70
     8
 71
     3
 72
     8
 73
     4
 74
     0
 42
0.00000001
 43
0.00000001
 12
1.0
 22
0.0
 32
0.0
 13
1.0
 23
0.0
 33
0.0
 40
0.0
 40
0.0
 40
0.0
 40
0.0
 40
1.0
 40
1.0
 40
1.0
 40
1.0
 10
194.4780274976528
 20
103.3629233854244
 30
0.0
 10
194.5345513506876
 20
103.359833220616
 30
0.0
 10
194.67755801194
 20
103.360753465384
 30
0.0
 10
194.8695795803219
 20
103.3618116187131
 30
0.0
  0
SPLINE
  5
56
330
1F
100
AcDbEntity
  8
0
  6
Continuous
 62
     7
370
    15
100
AcDbSpline
210
0.0
220
0.0
230
1.0
 70
     8
 71
     3
 72
     8
 73
     4
 74
     0
 42
0.00000001
 43
0.00000001
 12
1.0
 22
0.0
 32
0.0
 13
1.0
 23
0.0
 33
0.0
 40
0.0
 40
0.0
 40
0.0
 40
0.0
 40
1.0
 40
1.0
 40
1.0
 40
1.0
 10
194.8695795803219
 20
143.3597440902352
 30
0.0
 10
194.6775571360718
 20
143.3608022483908
 30
0.0
 10
194.5345516150396
 20
143.3617225027845
 30
0.0
 10
194.4780274976528
 20
143.3586323235239
 30
0.0
  0
SPLINE
  5
57
330
1F
100
AcDbEntity
  8
0
  6
Continuous
 62
     7
370
    15
100
AcDbSpline
210
0.0
220
0.0
230
1.0
 70
     8
 71
     3
 72
    12
 73
     8
 74
     0
 42
0.00000001
 43
0.00000001
 12
1.0
 22
0.0
 32
0.0
 13
1.0
 23
0.0
 33
0.0
 40
0.0
 40
0.0
 40
0.0
 40
0.0
 40
0.4999999999999984
 40
0.4999999999999984
 40
0.7499999999999992
 40
0.7499999999999992
 40
1.0
 40
1.0
 40
1.0
 40
1.0
 10
179.3090009491647
 20
104.3260215712922
 30
0.0
 10
179.3278041820164
 20
104.3040995730311
 30
0.0
 10
179.3533408410356
 20
104.2832057650212
 30
0.0
 10
179.413567014984
 20
104.2554790389034
 30
0.0
 10
179.437493092384
 20
104.246905905528
 30
0.0
 10
179.4955540125653
 20
104.2337267997204
 30
0.0
 10
179.5313557111913
 20
104.2291214742407
 30
0.0
 10
179.5688085703
 20
104.2291214742408
 30
0.0
  0
LINE
  5
58
330
1F
100
AcDbEntity
  8
0
  6
Continuous
 62
     7
370
    15
100
AcDbLine
 10
179.5688084777
 20
104.2291211183
 30
0.0
 11
181.7050044875
 21
104.2291211183
 31
0.0
  0
SPLINE
  5
59
330
1F
100
AcDbEntity
  8
0
  6
Continuous
 62
     7
370
    15
100
AcDbSpline
210
0.0
220
0.0
230
1.0
 70
     8
 71
     3
 72
    12
 73
     8
 74
     0
 42
0.00000001
 43
0.00000001
 12
1.0
 22
0.0
 32
0.0
 13
1.0
 23
0.0
 33
0.0
 40
0.0
 40
0.0
 40
0.0
 40
0.0
 40
0.2500000000000016
 40
0.2500000000000016
 40
0.5000000000000032
 40
0.5000000000000032
 40
1.0
 40
1.0
 40
1.0
 40
1.0
 10
181.7050045663016
 20
104.2291214742407
 30
0.0
 10
181.7425053891794
 20
104.2291214742407
 30
0.0
 10
181.7777837932154
 20
104.2336224421039
 30
0.0
 10
181.8367015132677
 20
104.2469889633212
 30
0.0
 10
181.8602248946661
 20
104.2554702235661
 30
0.0
 10
181.9204804791321
 20
104.283207619244
 30
0.0
 10
181.9460021315432
 20
104.304091618297
 30
0.0
 10
181.964812187437
 20
104.3260215712922
 30
0.0
  0
ELLIPSE
  5
5A
330
1F
100
AcDbEntity
  8
0
  6
Continuous
 62
     7
370
    15
100
AcDbEllipse
 10
171.6879773959
 20
123.3607778545
 30
0.0
 11
-9.367417879781812
 21
19.74174915274995
 31
0.0
210
0.0
220
0.0
230
1.0
 40
0.3419987131
 41
3.29266438251689
 42
4.239566697060997
  0
SPLINE
  5
5B
330
1F
100
AcDbEntity
  8
0
  6
Continuous
 62
     7
370
    15
100
AcDbSpline
210
0.0
220
0.0
230
1.0
 70
     8
 71
     3
 72
    12
 73
     8
 74
     0
 42
0.00000001
 43
0.00000001
 12
1.0
 22
0.0
 32
0.0
 13
1.0
 23
0.0
 33
0.0
 40
0.0
 40
0.0
 40
0.0
 40
0.0
 40
0.5
 40
0.5
 40
0.75
 40
0.75
 40
1.0
 40
1.0
 40
1.0
 40
1.0
 10
181.964812187437
 20
117.222532727415
 30
0.0
 10
181.9460089545853
 20
117.2905130516774
 30
0.0
 10
181.9204722955661
 20
117.3566034394742
 30
0.0
 10
181.8602461216176
 20
117.4456680519213
 30
0.0
 10
181.8363200442176
 20
117.4734691389413
 30
0.0
 10
181.7782591240363
 20
117.5164282121661
 30
0.0
 10
181.7424574254104
 20
117.5315648588224
 30
0.0
 10
181.7050045663016
 20
117.5315648588224
 30
0.0
  0
LINE
  5
5C
330
1F
100
AcDbEntity
  8
0
  6
Continuous
 62
     7
370
    15
100
AcDbLine
 10
181.7050044875
 20
117.5315646674
 30
0.0
 11
179.5688084777
 21
117.5315646674
 31
0.0
  0
SPLINE
  5
5D
330
1F
100
AcDbEntity
  8
0
  6
Continuous
 62
     7
370
    15
100
AcDbSpline
210
0.0
220
0.0
230
1.0
 70
     8
 71
     3
 72
    12
 73
     8
 74
     0
 42
0.00000001
 43
0.00000001
 12
1.0
 22
0.0
 32
0.0
 13
1.0
 23
0.0
 33
0.0
 40
0.0
 40
0.0
 40
0.0
 40
0.0
 40
0.249999999999998
 40
0.249999999999998
 40
0.499999999999996
 40
0.499999999999996
 40
1.0
 40
1.0
 40
1.0
 40
1.0
 10
179.5688085703
 20
117.5315648588224
 30
0.0
 10
179.5313077474222
 20
117.5315648588224
 30
0.0
 10
179.4960293433863
 20
117.5167685210693
 30
0.0
 10
179.4371116233339
 20
117.4731982599102
 30
0.0
 10
179.4135882419355
 20
117.4456964614086
 30
0.0
 10
179.3533326574696
 20
117.3565972981656
 30
0.0
 10
179.3278110050585
 20
117.2905377193832
 30
0.0
 10
179.3090009491647
 20
117.222532727415
 30
0.0
  0
ELLIPSE
  5
5E
330
1F
100
AcDbEntity
  8
0
  6
Continuous
 62
     7
370
    15
100
AcDbEllipse
 10
189.5858357407
 20
123.3607778545
 30
0.0
 11
9.367417879781641
 21
19.74174915274995
 31
0.0
210
0.0
220
0.0
230
1.0
 40
0.3419987131
 41
2.043618610118597
 42
2.990520924662726
  0
SPLINE
  5
5F
330
1F
100
AcDbEntity
  8
0
  6
Continuous
 62
     7
370
    15
100
AcDbSpline
210
0.0
220
0.0
230
1.0
 70
     8
 71
     3
 72
    12
 73
     8
 74
     0
 42
0.00000001
 43
0.00000001
 12
1.0
 22
0.0
 32
0.0
 13
1.0
 23
0.0
 33
0.0
 40
0.0
 40
0.0
 40
0.0
 40
0.0
 40
0.5000000000000006
 40
0.5000000000000006
 40
0.7500000000000002
 40
0.7500000000000002
 40
1.0
 40
1.0
 40
1.0
 40
1.0
 10
179.3090009491647
 20
129.4990229815331
 30
0.0
 10
179.3276941822951
 20
129.4314403450927
 30
0.0
 10
179.3533494797069
 20
129.3649577756153
 30
0.0
 10
179.4135101023933
 20
129.2759626927177
 30
0.0
 10
179.4375824141477
 20
129.2479607957186
 30
0.0
 10
179.4959639344982
 20
129.2048843950534
 30
0.0
 10
179.5314327621513
 20
129.1899908501256
 30
0.0
 10
179.5688085703
 20
129.1899908501256
 30
0.0
  0
LINE
  5
60
330
1F
100
AcDbEntity
  8
0
  6
Continuous
 62
     7
370
    15
100
AcDbLine
 10
179.5688084777
 20
129.1899910416
 30
0.0
 11
181.7050044875
 21
129.1899910416
 31
0.0
  0
SPLINE
  5
61
330
1F
100
AcDbEntity
  8
0
  6
Continuous
 62
     7
370
    15
100
AcDbSpline
210
0.0
220
0.0
230
1.0
 70
     8
 71
     3
 72
    12
 73
     8
 74
     0
 42
0.00000001
 43
0.00000001
 12
1.0
 22
0.0
 32
0.0
 13
1.0
 23
0.0
 33
0.0
 40
0.0
 40
0.0
 40
0.0
 40
0.0
 40
0.2500000000000026
 40
0.2500000000000026
 40
0.5000000000000052
 40
0.5000000000000052
 40
1.0
 40
1.0
 40
1.0
 40
1.0
 10
181.7050045663016
 20
129.1899908501256
 30
0.0
 10
181.7425164523463
 20
129.1899908501256
 30
0.0
 10
181.777803800051
 20
129.2047956644124
 30
0.0
 10
181.8367336482895
 20
129.2483875375383
 30
0.0
 10
181.8602593747585
 20
129.2759009636243
 30
0.0
 10
181.9205181625266
 20
129.3650326957379
 30
0.0
 10
181.9461129248159
 20
129.4314185463557
 30
0.0
 10
181.964812187437
 20
129.499022981533
 30
0.0
  0
ELLIPSE
  5
62
330
1F
100
AcDbEntity
  8
0
  6
Continuous
 62
     7
370
    15
100
AcDbEllipse
 10
171.6879773959
 20
123.3607778545
 30
0.0
 11
9.367417879781698
 21
19.74174915274995
 31
0.0
210
0.0
220
0.0
230
1.0
 40
0.3419987131
 41
5.185211263708394
 42
6.132113578252552
  0
SPLINE
  5
63
330
1F
100
AcDbEntity
  8
0
  6
Continuous
 62
     7
370
    15
100
AcDbSpline
210
0.0
220
0.0
230
1.0
 70
     8
 71
     3
 72
    12
 73
     8
 74
     0
 42
0.00000001
 43
0.00000001
 12
1.0
 22
0.0
 32
0.0
 13
1.0
 23
0.0
 33
0.0
 40
0.0
 40
0.0
 40
0.0
 40
0.0
 40
0.4999999999999971
 40
0.4999999999999971
 40
0.7499999999999986
 40
0.7499999999999986
 40
1.0
 40
1.0
 40
1.0
 40
1.0
 10
181.964812187437
 20
142.395534137656
 30
0.0
 10
181.9461189543065
 20
142.417327891284
 30
0.0
 10
181.9204636568948
 20
142.4383480529936
 30
0.0
 10
181.8603030342083
 20
142.4660533989573
 30
0.0
 10
181.836230722454
 20
142.4746886151507
 30
0.0
 10
181.7778492021034
 20
142.4879032603773
 30
0.0
 10
181.7423803744504
 20
142.4924342347075
 30
0.0
 10
181.7050045663016
 20
142.4924342347074
 30
0.0
  0
LINE
  5
64
330
1F
100
AcDbEntity
  8
0
  6
Continuous
 62
     7
370
    15
100
AcDbLine
 10
181.7050044875
 20
142.4924345906
 30
0.0
 11
179.5688084777
 21
142.4924345906
 31
0.0
  0
SPLINE
  5
65
330
1F
100
AcDbEntity
  8
0
  6
Continuous
 62
     7
370
    15
100
AcDbSpline
210
0.0
220
0.0
230
1.0
 70
     8
 71
     3
 72
    12
 73
     8
 74
     0
 42
0.00000001
 43
0.00000001
 12
1.0
 22
0.0
 32
0.0
 13
1.0
 23
0.0
 33
0.0
 40
0.0
 40
0.0
 40
0.0
 40
0.0
 40
0.2499999999999978
 40
0.2499999999999978
 40
0.4999999999999956
 40
0.4999999999999956
 40
1.0
 40
1.0
 40
1.0
 40
1.0
 10
179.5688085703
 20
142.4924342347075
 30
0.0
 10
179.5312966842554
 20
142.4924342347075
 30
0.0
 10
179.4960093365506
 20
142.4879306904449
 30
0.0
 10
179.4370794883122
 20
142.4745574909916
 30
0.0
 10
179.4135537618432
 20
142.4660725884205
 30
0.0
 10
179.3532949740751
 20
142.4383247845859
 30
0.0
 10
179.3277002117857
 20
142.4173349208455
 30
0.0
 10
179.3090009491647
 20
142.395534137656
 30
0.0
  0
ELLIPSE
  5
66
330
1F
100
AcDbEntity
  8
0
  6
Continuous
 62
     7
370
    15
100
AcDbEllipse
 10
189.5858357407
 20
123.3607778545
 30
0.0
 11
-9.367417879781614
 21
19.74174915274995
 31
0.0
210
0.0
220
0.0
230
1.0
 40
0.3419987131
 41
0.1510717289270708
 42
1.097974043471205
  0
ELLIPSE
  5
67
330
1F
100
AcDbEntity
  8
0
  6
Continuous
 62
     7
370
    15
100
AcDbEllipse
 10
191.5284825065
 20
115.9343316105
 30
0.0
 11
-0.235992228738894
 21
2.589092997070651
 31
0.0
210
0.0
220
0.0
230
1.0
 40
0.2393976103
 41
0.0
 42
6.283185307179586
  0
LINE
  5
68
330
1F
100
AcDbEntity
  8
0
  6
Continuous
 62
     7
370
    15
100
AcDbLine
 10
172.6369065683
 20
103.6607777919
 30
0.0
 11
172.6369065683
 21
143.0607779171
 31
0.0
  0
SPLINE
  5
69
330
1F
100
AcDbEntity
  8
0
  6
Continuous
 62
     7
370
    15
100
AcDbSpline
210
0.0
220
0.0
230
1.0
 70
     8
 71
     3
 72
    18
 73
    14
 74
     0
 42
0.00000001
 43
0.00000001
 12
1.0
 22
0.0
 32
0.0
 13
1.0
 23
0.0
 33
0.0
 40
0.0
 40
0.0
 40
0.0
 40
0.0
 40
0.2499999999999999
 40
0.2499999999999999
 40
0.4999999999999998
 40
0.4999999999999998
 40
0.6249999999999998
 40
0.6249999999999998
 40
0.7499999999999999
 40
0.7499999999999999
 40
0.8749999999999999
 40
0.8749999999999999
 40
1.0
 40
1.0
 40
1.0
 40
1.0
 10
171.3808222507368
 20
109.5295894717953
 30
0.0
 10
171.4151190701886
 20
109.5287278163134
 30
0.0
 10
171.4529303501658
 20
109.5289794194084
 30
0.0
 10
171.5395027173458
 20
109.5313779320202
 30
0.0
 10
171.5878418474287
 20
109.5335489167521
 30
0.0
 10
171.6771142047511
 20
109.5376437950474
 30
0.0
 10
171.7096556705271
 20
109.539148412997
 30
0.0
 10
171.7858318703805
 20
109.5421114709651
 30
0.0
 10
171.8290479303751
 20
109.5435988092209
 30
0.0
 10
171.934737232341
 20
109.5452242205446
 30
0.0
 10
171.9997082910556
 20
109.5451819794707
 30
0.0
 10
172.1333686794134
 20
109.5411598061497
 30
0.0
 10
172.1926751327496
 20
109.5376185793261
 30
0.0
 10
172.2419296794255
 20
109.5340518718901
 30
0.0
  0
SPLINE
  5
6A
330
1F
100
AcDbEntity
  8
0
  6
Continuous
 62
     7
370
    15
100
AcDbSpline
210
0.0
220
0.0
230
1.0
 70
     8
 71
     3
 72
    14
 73
    10
 74
     0
 42
0.00000001
 43
0.00000001
 12
1.0
 22
0.0
 32
0.0
 13
1.0
 23
0.0
 33
0.0
 40
0.0
 40
0.0
 40
0.0
 40
0.0
 40
0.1249999999999993
 40
0.1249999999999993
 40
0.2499999999999986
 40
0.2499999999999986
 40
0.4999999999999988
 40
0.4999999999999988
 40
1.0
 40
1.0
 40
1.0
 40
1.0
 10
172.2419296793948
 20
109.534051871909
 30
0.0
 10
172.2534564571121
 20
109.533217174475
 30
0.0
 10
172.2668092647645
 20
109.5314767601948
 30
0.0
 10
172.2969518373647
 20
109.5242291701945
 30
0.0
 10
172.3120123629792
 20
109.5188821359666
 30
0.0
 10
172.3473587169075
 20
109.5031348657381
 30
0.0
 10
172.3610908166365
 20
109.4932965915769
 30
0.0
 10
172.3944620623276
 20
109.4670926056264
 30
0.0
 10
172.4054024301815
 20
109.4530047042258
 30
0.0
 10
172.4140555551948
 20
109.4402310807374
 30
0.0
  0
LINE
  5
6B
330
1F
100
AcDbEntity
  8
0
  6
Continuous
 62
     7
370
    15
100
AcDbLine
 10
172.4369065734
 20
117.8553329068
 30
0.0
 11
172.4369065734
 21
109.2709578793
 31
0.0
  0
SPLINE
  5
6C
330
1F
100
AcDbEntity
  8
0
  6
Continuous
 62
     7
370
    15
100
AcDbSpline
210
0.0
220
0.0
230
1.0
 70
     8
 71
     3
 72
    16
 73
    12
 74
     0
 42
0.00000001
 43
0.00000001
 12
1.0
 22
0.0
 32
0.0
 13
1.0
 23
0.0
 33
0.0
 40
0.0
 40
0.0
 40
0.0
 40
0.0
 40
0.5000000000000047
 40
0.5000000000000047
 40
0.7500000000000043
 40
0.7500000000000043
 40
0.8750000000000032
 40
0.8750000000000032
 40
0.9375000000000017
 40
0.9375000000000017
 40
1.0
 40
1.0
 40
1.0
 40
1.0
 10
172.4369065683008
 20
117.8553330875112
 30
0.0
 10
172.4369065683008
 20
117.9729084685307
 30
0.0
 10
172.4330231431419
 20
118.0916042216319
 30
0.0
 10
172.4082078178672
 20
118.2723616996244
 30
0.0
 10
172.3973683701547
 20
118.3340057763974
 30
0.0
 10
172.3641525881059
 20
118.4233427507386
 30
0.0
 10
172.3507708444771
 20
118.4536022821638
 30
0.0
 10
172.3152611946149
 20
118.4871185261512
 30
0.0
 10
172.2998442281141
 20
118.4952568719573
 30
0.0
 10
172.2681432059655
 20
118.4952414625259
 30
0.0
 10
172.2539969210147
 20
118.48819922517
 30
0.0
 10
172.2419296794251
 20
118.4790581615604
 30
0.0
  0
SPLINE
  5
6D
330
1F
100
AcDbEntity
  8
0
  6
Continuous
 62
     7
370
    15
100
AcDbSpline
210
0.0
220
0.0
230
1.0
 70
     8
 71
     3
 72
    18
 73
    14
 74
     0
 42
0.00000001
 43
0.00000001
 12
1.0
 22
0.0
 32
0.0
 13
1.0
 23
0.0
 33
0.0
 40
0.0
 40
0.0
 40
0.0
 40
0.0
 40
0.1250000000000004
 40
0.1250000000000004
 40
0.2500000000000008
 40
0.2500000000000008
 40
0.3750000000000012
 40
0.3750000000000012
 40
0.5000000000000016
 40
0.5000000000000016
 40
0.7500000000000008
 40
0.7500000000000008
 40
1.0
 40
1.0
 40
1.0
 40
1.0
 10
172.2419296794313
 20
118.4790581615532
 30
0.0
 10
172.1932250957433
 20
118.4421639223627
 30
0.0
 10
172.1347166129678
 20
118.4126326179367
 30
0.0
 10
172.0029897976979
 20
118.4033966446579
 30
0.0
 10
171.9382317262004
 20
118.4264598192148
 30
0.0
 10
171.8330211240497
 20
118.4939779408623
 30
0.0
 10
171.7898049755296
 20
118.5369890375128
 30
0.0
 10
171.7136266594457
 20
118.6272310595089
 30
0.0
 10
171.6807718271544
 20
118.6748619409842
 30
0.0
 10
171.5904039211935
 20
118.8219262403338
 30
0.0
 10
171.5409812633539
 20
118.9258395656383
 30
0.0
 10
171.4533301377623
 20
119.1369735292787
 30
0.0
 10
171.4152685903717
 20
119.2446962740375
 30
0.0
 10
171.3808222507378
 20
119.3540293899469
 30
0.0
  0
SPLINE
  5
6E
330
1F
100
AcDbEntity
  8
0
  6
Continuous
 62
     7
370
    15
100
AcDbSpline
210
0.0
220
0.0
230
1.0
 70
     8
 71
     3
 72
     8
 73
     4
 74
     0
 42
0.00000001
 43
0.00000001
 12
1.0
 22
0.0
 32
0.0
 13
1.0
 23
0.0
 33
0.0
 40
0.0
 40
0.0
 40
0.0
 40
0.0
 40
1.0
 40
1.0
 40
1.0
 40
1.0
 10
171.3155862247411
 20
119.5892331640757
 30
0.0
 10
171.33501243004
 20
119.5096408925029
 30
0.0
 10
171.3565092544685
 20
119.4311991463702
 30
0.0
 10
171.3808222507378
 20
119.3540293899469
 30
0.0
  0
SPLINE
  5
6F
330
1F
100
AcDbEntity
  8
0
  6
Continuous
 62
     7
370
    15
100
AcDbSpline
210
0.0
220
0.0
230
1.0
 70
     8
 71
     3
 72
     8
 73
     4
 74
     0
 42
0.00000001
 43
0.00000001
 12
1.0
 22
0.0
 32
0.0
 13
1.0
 23
0.0
 33
0.0
 40
0.0
 40
0.0
 40
0.0
 40
0.0
 40
1.0
 40
1.0
 40
1.0
 40
1.0
 10
171.3808222507378
 20
127.3675263190014
 30
0.0
 10
171.3565092544685
 20
127.2903565625781
 30
0.0
 10
171.33501243004
 20
127.2119148164453
 30
0.0
 10
171.3155862247411
 20
127.1323225448726
 30
0.0
  0
SPLINE
  5
70
330
1F
100
AcDbEntity
  8
0
  6
Continuous
 62
     7
370
    15
100
AcDbSpline
210
0.0
220
0.0
230
1.0
 70
     8
 71
     3
 72
    18
 73
    14
 74
     0
 42
0.00000001
 43
0.00000001
 12
1.0
 22
0.0
 32
0.0
 13
1.0
 23
0.0
 33
0.0
 40
0.0
 40
0.0
 40
0.0
 40
0.0
 40
0.2499999999999999
 40
0.2499999999999999
 40
0.4999999999999998
 40
0.4999999999999998
 40
0.6249999999999998
 40
0.6249999999999998
 40
0.7499999999999999
 40
0.7499999999999999
 40
0.8749999999999999
 40
0.8749999999999999
 40
1.0
 40
1.0
 40
1.0
 40
1.0
 10
171.3808222507378
 20
127.3675263190014
 30
0.0
 10
171.4151205697505
 20
127.4763896155944
 30
0.0
 10
171.4529349670624
 20
127.5833970388307
 30
0.0
 10
171.539523028136
 20
127.7924318629691
 30
0.0
 10
171.5878731338147
 20
127.8946019569586
 30
0.0
 10
171.6771897226145
 20
128.0412827285233
 30
0.0
 10
171.7097500781028
 20
128.0890844270589
 30
0.0
 10
171.7859957118317
 20
128.1806399650843
 30
0.0
 10
171.8291550816117
 20
128.2243193570762
 30
0.0
 10
171.9348839056298
 20
128.2936735744028
 30
0.0
 10
171.9998810826844
 20
128.3177898880687
 30
0.0
 10
172.1333655726387
 20
128.3095856660305
 30
0.0
 10
172.1926929660842
 20
128.2797948804385
 30
0.0
 10
172.2419296794255
 20
128.2424975473875
 30
0.0
  0
SPLINE
  5
71
330
1F
100
AcDbEntity
  8
0
  6
Continuous
 62
     7
370
    15
100
AcDbSpline
210
0.0
220
0.0
230
1.0
 70
     8
 71
     3
 72
    16
 73
    12
 74
     0
 42
0.00000001
 43
0.00000001
 12
1.0
 22
0.0
 32
0.0
 13
1.0
 23
0.0
 33
0.0
 40
0.0
 40
0.0
 40
0.0
 40
0.0
 40
0.0625000000000013
 40
0.0625000000000013
 40
0.1250000000000025
 40
0.1250000000000025
 40
0.2500000000000028
 40
0.2500000000000028
 40
0.5000000000000001
 40
0.5000000000000001
 40
1.0
 40
1.0
 40
1.0
 40
1.0
 10
172.2419296793948
 20
128.2424975473392
 30
0.0
 10
172.2539995126706
 20
128.2333545204934
 30
0.0
 10
172.2682751676039
 20
128.2263100728021
 30
0.0
 10
172.2997395797283
 20
128.2263030009035
 30
0.0
 10
172.3152401045387
 20
128.2344309697004
 30
0.0
 10
172.3506790011456
 20
128.2678394307076
 30
0.0
 10
172.364271617249
 20
128.2985065971698
 30
0.0
 10
172.3972659356418
 20
128.3873275912516
 30
0.0
 10
172.4080533289606
 20
128.4482302367995
 30
0.0
 10
172.4331065762397
 20
128.6302383141778
 30
0.0
 10
172.436906568301
 20
128.7489270292164
 30
0.0
 10
172.436906568301
 20
128.866222621437
 30
0.0
  0
LINE
  5
72
330
1F
100
AcDbEntity
  8
0
  6
Continuous
 62
     7
370
    15
100
AcDbLine
 10
172.4369065734
 20
137.4505978297
 30
0.0
 11
172.4369065734
 21
128.8662228021
 31
0.0
  0
SPLINE
  5
73
330
1F
100
AcDbEntity
  8
0
  6
Continuous
 62
     7
370
    15
100
AcDbSpline
210
0.0
220
0.0
230
1.0
 70
     8
 71
     3
 72
    16
 73
    12
 74
     0
 42
0.00000001
 43
0.00000001
 12
1.0
 22
0.0
 32
0.0
 13
1.0
 23
0.0
 33
0.0
 40
0.0
 40
0.0
 40
0.0
 40
0.0
 40
0.4999999999999997
 40
0.4999999999999997
 40
0.7500000000000001
 40
0.7500000000000001
 40
0.8749999999999996
 40
0.8749999999999996
 40
0.9374999999999997
 40
0.9374999999999997
 40
1.0
 40
1.0
 40
1.0
 40
1.0
 10
172.4369065683008
 20
137.3455897611342
 30
0.0
 10
172.4369065683008
 20
137.3300245336948
 30
0.0
 10
172.4330231431419
 20
137.3108531558468
 30
0.0
 10
172.4082078178672
 20
137.272080773865
 30
0.0
 10
172.3973683701547
 20
137.2574299976625
 30
0.0
 10
172.3641525881059
 20
137.2303857536828
 30
0.0
 10
172.3507708444771
 20
137.2204076545428
 30
0.0
 10
172.3152611946149
 20
137.2039331187558
 30
0.0
 10
172.2998442281141
 20
137.1981810279659
 30
0.0
 10
172.2681432059655
 20
137.1902605075393
 30
0.0
 10
172.2539969210147
 20
137.1883776715205
 30
0.0
 10
172.2419296794251
 20
137.1875038370582
 30
0.0
  0
SPLINE
  5
74
330
1F
100
AcDbEntity
  8
0
  6
Continuous
 62
     7
370
    15
100
AcDbSpline
210
0.0
220
0.0
230
1.0
 70
     8
 71
     3
 72
    18
 73
    14
 74
     0
 42
0.00000001
 43
0.00000001
 12
1.0
 22
0.0
 32
0.0
 13
1.0
 23
0.0
 33
0.0
 40
0.0
 40
0.0
 40
0.0
 40
0.0
 40
0.125
 40
0.125
 40
0.25
 40
0.25
 40
0.375
 40
0.375
 40
0.5
 40
0.5
 40
0.75
 40
0.75
 40
1.0
 40
1.0
 40
1.0
 40
1.0
 10
172.2419296794313
 20
137.187503837058
 30
0.0
 10
172.1932255504145
 20
137.1839769874399
 30
0.0
 10
172.1347178812099
 20
137.1804767142422
 30
0.0
 10
172.0029922185791
 20
137.1764337303543
 30
0.0
 10
171.9382345799587
 20
137.1763221557237
 30
0.0
 10
171.8330241633397
 20
137.1778543404852
 30
0.0
 10
171.7898081283995
 20
137.1793094927003
 30
0.0
 10
171.7136299069185
 20
137.18223475423
 30
0.0
 10
171.6807751392344
 20
137.1837450847382
 30
0.0
 10
171.5904074203926
 20
137.1878870774266
 30
0.0
 10
171.5409850512031
 20
137.1901251624131
 30
0.0
 10
171.4533325891151
 20
137.1925764454596
 30
0.0
 10
171.4152698528807
 20
137.1928316808206
 30
0.0
 10
171.3808222507373
 20
137.1919662371527
 30
0.0
  0
SPLINE
  5
75
330
1F
100
AcDbEntity
  8
0
  6
Continuous
 62
     7
370
    15
100
AcDbSpline
210
0.0
220
0.0
230
1.0
 70
     8
 71
     3
 72
    16
 73
    12
 74
     0
 42
0.00000001
 43
0.00000001
 12
1.0
 22
0.0
 32
0.0
 13
1.0
 23
0.0
 33
0.0
 40
0.0
 40
0.0
 40
0.0
 40
0.0
 40
0.2499999999999999
 40
0.2499999999999999
 40
0.3749999999999999
 40
0.3749999999999999
 40
0.4999999999999999
 40
0.4999999999999999
 40
0.7499999999999999
 40
0.7499999999999999
 40
1.0
 40
1.0
 40
1.0
 40
1.0
 10
170.9369065683008
 20
126.3069762505435
 30
0.0
 10
170.8563697589053
 20
125.8379034236805
 30
0.0
 10
170.7963323501031
 20
125.3575397735005
 30
0.0
 10
170.7355944028558
 20
124.6203554943595
 30
0.0
 10
170.720271921813
 20
124.3718370911324
 30
0.0
 10
170.699688970035
 20
123.8690536459187
 30
0.0
 10
170.6944894229985
 20
123.6141950928941
 30
0.0
 10
170.6944357124583
 20
122.8579177531733
 30
0.0
 10
170.7146330497274
 20
122.3592595538634
 30
0.0
 10
170.7953113568004
 20
121.3728365831192
 30
0.0
 10
170.8563577051416
 20
120.8837224903462
 30
0.0
 10
170.9369065683008
 20
120.4145794584047
 30
0.0
  0
LINE
  5
76
330
1F
100
AcDbEntity
  8
0
  6
Continuous
 62
     7
370
    15
100
AcDbLine
 10
170.9369065458
 20
120.4145794022
 30
0.0
 11
170.9369065458
 21
119.2595740999
 31
0.0
  0
LINE
  5
77
330
1F
100
AcDbEntity
  8
0
  6
Continuous
 62
     7
370
    15
100
AcDbLine
 10
150.1369056742
 20
127.2006974309
 30
0.0
 11
150.1369056742
 21
119.5208582781
 31
0.0
  0
LINE
  5
78
330
1F
100
AcDbEntity
  8
0
  6
Continuous
 62
     7
370
    15
100
AcDbLine
 10
170.9369065458
 20
127.461981609
 30
0.0
 11
170.9369065458
 21
126.3069763067
 31
0.0
  0
SPLINE
  5
79
330
1F
100
AcDbEntity
  8
0
  6
Continuous
 62
     7
370
    15
100
AcDbSpline
210
0.0
220
0.0
230
1.0
 70
     8
 71
     3
 72
     8
 73
     4
 74
     0
 42
0.00000001
 43
0.00000001
 12
1.0
 22
0.0
 32
0.0
 13
1.0
 23
0.0
 33
0.0
 40
0.0
 40
0.0
 40
0.0
 40
0.0
 40
1.0
 40
1.0
 40
1.0
 40
1.0
 10
171.1418665903615
 20
120.4142870501102
 30
0.0
 10
171.1925936730839
 20
120.1309359287911
 30
0.0
 10
171.250480986071
 20
119.8559797446513
 30
0.0
 10
171.3155862247412
 20
119.5892331640758
 30
0.0
  0
SPLINE
  5
7A
330
1F
100
AcDbEntity
  8
0
  6
Continuous
 62
     7
370
    15
100
AcDbSpline
210
0.0
220
0.0
230
1.0
 70
     8
 71
     3
 72
    24
 73
    20
 74
     0
 42
0.00000001
 43
0.00000001
 12
1.0
 22
0.0
 32
0.0
 13
1.0
 23
0.0
 33
0.0
 40
0.0
 40
0.0
 40
0.0
 40
0.0
 40
0.2500000000000095
 40
0.2500000000000095
 40
0.3750000000000137
 40
0.3750000000000137
 40
0.4375000000000158
 40
0.4375000000000158
 40
0.4687500000000169
 40
0.4687500000000169
 40
0.5000000000000179
 40
0.5000000000000179
 40
0.5625000000000167
 40
0.5625000000000167
 40
0.6250000000000154
 40
0.6250000000000154
 40
0.75000000000001
 40
0.75000000000001
 40
1.0
 40
1.0
 40
1.0
 40
1.0
 10
170.9369065682926
 20
120.4145794584035
 30
0.0
 10
170.9373095976665
 20
120.5078477510331
 30
0.0
 10
170.9393393373815
 20
120.601605309882
 30
0.0
 10
170.9486480488013
 20
120.7431951955215
 30
0.0
 10
170.9525740419159
 20
120.7903756141308
 30
0.0
 10
170.9635034018319
 20
120.8609716608161
 30
0.0
 10
170.9676250299263
 20
120.8847515745809
 30
0.0
 10
170.9795195511086
 20
120.9182027216281
 30
0.0
 10
170.9848063630624
 20
120.9303576736977
 30
0.0
 10
171.0013742945773
 20
120.9382403126659
 30
0.0
 10
171.0093010033447
 20
120.9306767135639
 30
0.0
 10
171.0262933415698
 20
120.9068842823371
 30
0.0
 10
171.0336910423608
 20
120.8866958044926
 30
0.0
 10
171.0477934327026
 20
120.8462461798728
 30
0.0
 10
171.0539465899949
 20
120.8253905054754
 30
0.0
 10
171.071260323456
 20
120.7622654701743
 30
0.0
 10
171.0812653643445
 20
120.7192863582728
 30
0.0
 10
171.1096218205753
 20
120.5895607139839
 30
0.0
 10
171.1261703599215
 20
120.501962986848
 30
0.0
 10
171.1418665903615
 20
120.4142870501102
 30
0.0
  0
SPLINE
  5
7B
330
1F
100
AcDbEntity
  8
0
  6
Continuous
 62
     7
370
    15
100
AcDbSpline
210
0.0
220
0.0
230
1.0
 70
     8
 71
     3
 72
    24
 73
    20
 74
     0
 42
0.00000001
 43
0.00000001
 12
1.0
 22
0.0
 32
0.0
 13
1.0
 23
0.0
 33
0.0
 40
0.0
 40
0.0
 40
0.0
 40
0.0
 40
0.2500000000000069
 40
0.2500000000000069
 40
0.3750000000000107
 40
0.3750000000000107
 40
0.4375000000000117
 40
0.4375000000000117
 40
0.5000000000000128
 40
0.5000000000000128
 40
0.5312500000000114
 40
0.5312500000000114
 40
0.56250000000001
 40
0.56250000000001
 40
0.6250000000000081
 40
0.6250000000000081
 40
0.7500000000000052
 40
0.7500000000000052
 40
1.0
 40
1.0
 40
1.0
 40
1.0
 10
171.1418665903616
 20
126.307268658838
 30
0.0
 10
171.1260975454519
 20
126.2191859953471
 30
0.0
 10
171.1094833808913
 20
126.1312411788376
 30
0.0
 10
171.0809512533979
 20
126.0008938115745
 30
0.0
 10
171.070863619844
 20
125.9576326337724
 30
0.0
 10
171.053375796995
 20
125.894196857937
 30
0.0
 10
171.0471659890687
 20
125.8732827343932
 30
0.0
 10
171.0328881294863
 20
125.8328079427081
 30
0.0
 10
171.0253169671345
 20
125.8123302992489
 30
0.0
 10
171.0078971419601
 20
125.7894839197121
 30
0.0
 10
170.9994130595054
 20
125.7829321226684
 30
0.0
 10
170.983376985888
 20
125.7935034978953
 30
0.0
 10
170.9785566136102
 20
125.8055945381792
 30
0.0
 10
170.9671497130043
 20
125.8392377813991
 30
0.0
 10
170.963128751295
 20
125.8626454606959
 30
0.0
 10
170.9523747395157
 20
125.9332340637569
 30
0.0
 10
170.948502853893
 20
125.9801990912794
 30
0.0
 10
170.9393348890922
 20
126.1207759558855
 30
0.0
 10
170.937306554579
 20
126.214412185505
 30
0.0
 10
170.9369065683008
 20
126.3069762505435
 30
0.0
  0
SPLINE
  5
7C
330
1F
100
AcDbEntity
  8
0
  6
Continuous
 62
     7
370
    15
100
AcDbSpline
210
0.0
220
0.0
230
1.0
 70
     8
 71
     3
 72
     8
 73
     4
 74
     0
 42
0.00000001
 43
0.00000001
 12
1.0
 22
0.0
 32
0.0
 13
1.0
 23
0.0
 33
0.0
 40
0.0
 40
0.0
 40
0.0
 40
0.0
 40
1.0
 40
1.0
 40
1.0
 40
1.0
 10
171.3155862247412
 20
127.1323225448725
 30
0.0
 10
171.250480986071
 20
126.865575964297
 30
0.0
 10
171.1925936730839
 20
126.5906197801572
 30
0.0
 10
171.1418665903615
 20
126.3072686588381
 30
0.0
  0
LINE
  5
7D
330
1F
100
AcDbEntity
  8
0
  6
Continuous
 62
     7
370
    15
100
AcDbLine
 10
148.6369063597
 20
126.7676845878
 30
0.0
 11
148.6369063597
 21
119.9538711212
 31
0.0
  0
LINE
  5
7E
330
1F
100
AcDbEntity
  8
0
  6
Continuous
 62
     7
370
    15
100
AcDbLine
 10
171.1418665465
 20
137.1859625201
 30
0.0
 11
171.3808222659
 21
137.1919658254
 31
0.0
  0
LINE
  5
7F
330
1F
100
AcDbEntity
  8
0
  6
Continuous
 62
     7
370
    15
100
AcDbLine
 10
150.1369056742
 20
127.2006974309
 30
0.0
 11
150.1369056742
 21
136.8583083372
 31
0.0
  0
LINE
  5
80
330
1F
100
AcDbEntity
  8
0
  6
Continuous
 62
     7
370
    15
100
AcDbLine
 10
150.1369056742
 20
136.8583083372
 30
0.0
 11
170.9369065458
 21
137.3808762278
 31
0.0
  0
LINE
  5
81
330
1F
100
AcDbEntity
  8
0
  6
Continuous
 62
     7
370
    15
100
AcDbLine
 10
170.9369065458
 20
127.461981609
 30
0.0
 11
170.9369065458
 21
137.3808762278
 31
0.0
  0
ARC
  5
82
330
1F
100
AcDbEntity
  8
0
  6
Continuous
 62
     7
370
    15
100
AcDbCircle
 10
171.1368434792
 20
137.3858997502
 30
0.0
 40
0.2000000000000059
100
AcDbArc
 50
181.4391666667
 51
271.4391666667
  0
LINE
  5
83
330
1F
100
AcDbEntity
  8
0
  6
Continuous
 62
     7
370
    15
100
AcDbLine
 10
150.1369056742
 20
109.8632473718
 30
0.0
 11
150.1369056742
 21
119.5208582781
 31
0.0
  0
LINE
  5
84
330
1F
100
AcDbEntity
  8
0
  6
Continuous
 62
     7
370
    15
100
AcDbLine
 10
170.9369065458
 20
109.3406794812
 30
0.0
 11
170.9369065458
 21
119.2595740999
 31
0.0
  0
LINE
  5
85
330
1F
100
AcDbEntity
  8
0
  6
Continuous
 62
     7
370
    15
100
AcDbLine
 10
150.1369056742
 20
109.8632473718
 30
0.0
 11
170.9369065458
 21
109.3406794812
 31
0.0
  0
ARC
  5
86
330
1F
100
AcDbEntity
  8
0
  6
Continuous
 62
     7
370
    15
100
AcDbCircle
 10
171.1368434792
 20
109.3356559588
 30
0.0
 40
0.2000000000000201
100
AcDbArc
 50
88.5608333333
 51
178.5608333333
  0
LINE
  5
87
330
1F
100
AcDbEntity
  8
0
  6
Continuous
 62
     7
370
    15
100
AcDbLine
 10
171.1418665465
 20
109.5355931889
 30
0.0
 11
171.3808222659
 21
109.5295898835
 31
0.0
  0
LINE
  5
88
330
1F
100
AcDbEntity
  8
0
  6
Continuous
 62
     7
370
    15
100
AcDbLine
 10
148.6369063597
 20
135.9922826509
 30
0.0
 11
150.1369056742
 21
136.8583083372
 31
0.0
  0
LINE
  5
89
330
1F
100
AcDbEntity
  8
0
  6
Continuous
 62
     7
370
    15
100
AcDbLine
 10
148.6369063597
 20
126.7676845878
 30
0.0
 11
148.6369063597
 21
135.9922826509
 31
0.0
  0
LINE
  5
8A
330
1F
100
AcDbEntity
  8
0
  6
Continuous
 62
     7
370
    15
100
AcDbLine
 10
148.6369063597
 20
110.729273058
 30
0.0
 11
150.1369056742
 21
109.8632473718
 31
0.0
  0
LINE
  5
8B
330
1F
100
AcDbEntity
  8
0
  6
Continuous
 62
     7
370
    15
100
AcDbLine
 10
148.6369063597
 20
110.729273058
 30
0.0
 11
148.6369063597
 21
119.9538711212
 31
0.0
  0
SPLINE
  5
8C
330
1F
100
AcDbEntity
  8
0
  6
Continuous
 62
     7
370
    15
100
AcDbSpline
210
0.0
220
0.0
230
1.0
 70
     8
 71
     3
 72
     8
 73
     4
 74
     0
 42
0.00000001
 43
0.00000001
 12
1.0
 22
0.0
 32
0.0
 13
1.0
 23
0.0
 33
0.0
 40
0.0
 40
0.0
 40
0.0
 40
0.0
 40
1.0
 40
1.0
 40
1.0
 40
1.0
 10
195.250768158681
 20
143.434038886008
 30
0.0
 10
195.1243562024379
 20
143.3819109081097
 30
0.0
 10
194.9898155485876
 20
143.359081518354
 30
0.0
 10
194.8695795803175
 20
143.359744090227
 30
0.0
  0
SPLINE
  5
8D
330
1F
100
AcDbEntity
  8
0
  6
Continuous
 62
     7
370
    15
100
AcDbSpline
210
0.0
220
0.0
230
1.0
 70
     8
 71
     3
 72
     8
 73
     4
 74
     0
 42
0.00000001
 43
0.00000001
 12
1.0
 22
0.0
 32
0.0
 13
1.0
 23
0.0
 33
0.0
 40
0.0
 40
0.0
 40
0.0
 40
0.0
 40
1.0
 40
1.0
 40
1.0
 40
1.0
 10
194.8695795803219
 20
103.3618116187131
 30
0.0
 10
194.9897900436524
 20
103.3624740500381
 30
0.0
 10
195.1243333671912
 20
103.3396542173261
 30
0.0
 10
195.2507681586859
 20
103.2875168229489
 30
0.0
  0
LINE
  5
8E
330
1F
100
AcDbEntity
  8
0
  6
Continuous
 62
     7
370
    15
100
AcDbLine
 10
195.8355055641
 20
102.621766388
 30
0.0
 11
196.8462923061
 21
98.8491257872
 31
0.0
  0
LINE
  5
8F
330
1F
100
AcDbEntity
  8
0
  6
Continuous
 62
     7
370
    15
100
AcDbLine
 10
195.7356044542
 20
143.8585823621
 30
0.0
 11
203.337768976
 21
143.8585823621
 31
0.0
  0
LINE
  5
90
330
1F
100
AcDbEntity
  8
0
  6
Continuous
 62
     7
370
    15
100
AcDbLine
 10
220.2990455072
 20
119.6353697437
 30
0.0
 11
203.337768976
 21
143.8585823621
 31
0.0
  0
LINE
  5
91
330
1F
100
AcDbEntity
  8
0
  6
Continuous
 62
     7
370
    15
100
AcDbLine
 10
221.2122482698
 20
109.1974076103
 30
0.0
 11
220.2990455072
 21
119.6353697437
 31
0.0
  0
ARC
  5
92
330
1F
100
AcDbEntity
  8
0
  6
Continuous
 62
     7
370
    15
100
AcDbCircle
 10
209.8914434543
 20
109.1062409684
 30
0.0
 40
2.099999999999997
100
AcDbArc
 50
25.8700037428
 51
244.1299962572
  0
LINE
  5
93
330
1F
100
AcDbEntity
  8
0
  6
Continuous
 62
     7
370
    15
100
AcDbLine
 10
209.8117907982
 20
97.7147916551
 30
0.0
 11
196.8462923061
 21
98.8491257872
 31
0.0
  0
SPLINE
  5
94
330
1F
100
AcDbEntity
  8
0
  6
Continuous
 62
     7
370
    15
100
AcDbSpline
210
0.0
220
0.0
230
1.0
 70
     8
 71
     3
 72
    12
 73
     8
 74
     0
 42
0.00000001
 43
0.00000001
 12
1.0
 22
0.0
 32
0.0
 13
1.0
 23
0.0
 33
0.0
 40
0.0
 40
0.0
 40
0.0
 40
0.0
 40
0.4999999999999994
 40
0.4999999999999994
 40
0.7499999999999997
 40
0.7499999999999997
 40
1.0
 40
1.0
 40
1.0
 40
1.0
 10
195.250768158684
 20
103.2875168229391
 30
0.0
 10
195.3926550581978
 20
103.2290075064013
 30
0.0
 10
195.5195041961859
 20
103.1384522155769
 30
0.0
 10
195.6719180782615
 20
102.9648011477842
 30
0.0
 10
195.7152070955786
 20
102.9021707913392
 30
0.0
 10
195.7871903798805
 20
102.7676924072247
 30
0.0
 10
195.8158065401104
 20
102.6952914718504
 30
0.0
 10
195.8355054066109
 20
102.6217666098704
 30
0.0
  0
SPLINE
  5
95
330
1F
100
AcDbEntity
  8
0
  6
Continuous
 62
     7
370
    15
100
AcDbSpline
210
0.0
220
0.0
230
1.0
 70
     8
 71
     3
 72
    10
 73
     6
 74
     0
 42
0.00000001
 43
0.00000001
 12
1.0
 22
0.0
 32
0.0
 13
1.0
 23
0.0
 33
0.0
 40
0.0
 40
0.0
 40
0.0
 40
0.0
 40
0.5
 40
0.5
 40
1.0
 40
1.0
 40
1.0
 40
1.0
 10
195.7356049841063
 20
143.8585826149845
 30
0.0
 10
195.6806253681917
 20
143.7633449283261
 30
0.0
 10
195.6097040435824
 20
143.6773681516518
 30
0.0
 10
195.4460929018928
 20
143.5342639570374
 30
0.0
 10
195.3512754651461
 20
143.4754846701389
 30
0.0
 10
195.2507681586802
 20
143.4340388860077
 30
0.0
  0
LINE
  5
96
330
1F
100
AcDbEntity
  8
0
  6
Continuous
 62
     7
370
    15
100
AcDbLine
 10
208.7476802509
 20
109.8166635479
 30
0.0
 11
209.8008347194
 21
97.7790678139
 31
0.0
  0
ARC
  5
97
330
1F
100
AcDbEntity
  8
0
  6
Continuous
 62
     7
370
    15
100
AcDbCircle
 10
209.1461584435
 20
109.8515259792
 30
0.0
 40
0.400000000000036
100
AcDbArc
 50
85.0
 51
185.0
  0
LINE
  5
98
330
1F
100
AcDbEntity
  8
0
  6
Continuous
 62
     7
370
    15
100
AcDbLine
 10
221.2186147909
 20
109.1968506794
 30
0.0
 11
209.1810209196
 21
110.2500042166
 31
0.0
  0
ARC
  5
99
330
1F
100
AcDbEntity
  8
0
  6
Continuous
 62
     7
370
    15
100
AcDbCircle
 10
221.1837534676
 20
108.7983728785
 30
0.0
 40
0.400000000000081
100
AcDbArc
 50
5.0
 51
85.0
  0
LINE
  5
9A
330
1F
100
AcDbEntity
  8
0
  6
Continuous
 62
     7
370
    15
100
AcDbLine
 10
222.6353836696
 20
96.7956396039
 30
0.0
 11
221.5822329264
 21
108.8332353379
 31
0.0
  0
ARC
  5
9B
330
1F
100
AcDbEntity
  8
0
  6
Continuous
 62
     7
370
    15
100
AcDbCircle
 10
222.2369065683
 20
96.7607778545
 30
0.0
 40
0.4000000000000939
100
AcDbArc
 50
265.0
 51
5.0
  0
LINE
  5
9C
330
1F
100
AcDbEntity
  8
0
  6
Continuous
 62
     7
370
    15
100
AcDbLine
 10
210.1644491296
 20
97.4154534037
 30
0.0
 11
222.2020430009
 21
96.3623007979
 31
0.0
  0
ARC
  5
9D
330
1F
100
AcDbEntity
  8
0
  6
Continuous
 62
     7
370
    15
100
AcDbCircle
 10
210.1993115443
 20
97.8139309552
 30
0.0
 40
0.4000000000000551
100
AcDbArc
 50
185.0
 51
265.0
  0
ARC
  5
9E
330
1F
100
AcDbEntity
  8
0
  6
Continuous
 62
     7
370
    15
100
AcDbCircle
 10
222.2369065683
 20
96.7607778545
 30
0.0
 40
0.3800000000000521
100
AcDbArc
 50
265.0
 51
5.0
  0
LINE
  5
9F
330
1F
100
AcDbEntity
  8
0
  6
Continuous
 62
     7
370
    15
100
AcDbLine
 10
222.6154608171
 20
96.793896168
 30
0.0
 11
221.5623063486
 21
108.831491902
 31
0.0
  0
ARC
  5
A0
330
1F
100
AcDbEntity
  8
0
  6
Continuous
 62
     7
370
    15
100
AcDbCircle
 10
221.1837534676
 20
108.7983728785
 30
0.0
 40
0.3800000000000053
100
AcDbArc
 50
5.0
 51
85.0
  0
LINE
  5
A1
330
1F
100
AcDbEntity
  8
0
  6
Continuous
 62
     7
370
    15
100
AcDbLine
 10
221.2168713551
 20
109.1769268955
 30
0.0
 11
209.1792774837
 21
110.2300795014
 31
0.0
  0
ARC
  5
A2
330
1F
100
AcDbEntity
  8
0
  6
Continuous
 62
     7
370
    15
100
AcDbCircle
 10
209.1461584435
 20
109.8515259792
 30
0.0
 40
0.3800000000000096
100
AcDbArc
 50
85.0
 51
185.0
  0
LINE
  5
A3
330
1F
100
AcDbEntity
  8
0
  6
Continuous
 62
     7
370
    15
100
AcDbLine
 10
208.7676031034
 20
109.8184069838
 30
0.0
 11
209.8207575719
 21
97.7808112498
 31
0.0
  0
ARC
  5
A4
330
1F
100
AcDbEntity
  8
0
  6
Continuous
 62
     7
370
    15
100
AcDbCircle
 10
210.1993115443
 20
97.8139309552
 30
0.0
 40
0.3800000000001586
100
AcDbArc
 50
185.0
 51
265.0
  0
LINE
  5
A5
330
1F
100
AcDbEntity
  8
0
  6
Continuous
 62
     7
370
    15
100
AcDbLine
 10
210.1661925655
 20
97.4353762563
 30
0.0
 11
222.2037864368
 21
96.3822236504
 31
0.0
  0
LINE
  5
A6
330
1F
100
AcDbEntity
  8
0
  6
Continuous
 62
     7
370
    15
100
AcDbLine
 10
221.1837535243
 20
108.7983731399
 30
0.0
 11
221.5623063486
 21
108.831491902
 31
0.0
  0
LINE
  5
A7
330
1F
100
AcDbEntity
  8
0
  6
Continuous
 62
     7
370
    15
100
AcDbLine
 10
222.2369079929
 20
96.7607783373
 30
0.0
 11
222.6154608171
 21
96.793896168
 31
0.0
  0
LINE
  5
A8
330
1F
100
AcDbEntity
  8
0
  6
Continuous
 62
     7
370
    15
100
AcDbLine
 10
221.3179049533
 20
97.6797776516
 30
0.0
 11
222.2369079929
 21
96.7607783373
 31
0.0
  0
LINE
  5
A9
330
1F
100
AcDbEntity
  8
0
  6
Continuous
 62
     7
370
    15
100
AcDbLine
 10
220.6100588184
 20
108.224678434
 30
0.0
 11
221.1837535243
 21
108.7983731399
 31
0.0
  0
LINE
  5
AA
330
1F
100
AcDbEntity
  8
0
  6
Continuous
 62
     7
370
    15
100
AcDbLine
 10
222.2369079929
 20
96.7607783373
 30
0.0
 11
222.2037864368
 21
96.3822236504
 31
0.0
  0
LINE
  5
AB
330
1F
100
AcDbEntity
  8
0
  6
Continuous
 62
     7
370
    15
100
AcDbLine
 10
210.1993103962
 20
97.8139309432
 30
0.0
 11
210.1661925655
 21
97.4353762563
 31
0.0
  0
LINE
  5
AC
330
1F
100
AcDbEntity
  8
0
  6
Continuous
 62
     7
370
    15
100
AcDbLine
 10
210.7730051022
 20
98.3876256491
 30
0.0
 11
210.1993103962
 21
97.8139309432
 31
0.0
  0
LINE
  5
AD
330
1F
100
AcDbEntity
  8
0
  6
Continuous
 62
     7
370
    15
100
AcDbLine
 10
220.3509350758
 20
99.7300992008
 30
0.0
 11
219.76152337
 21
106.4671060289
 31
0.0
  0
ARC
  5
AE
330
1F
100
AcDbEntity
  8
0
  6
Continuous
 62
     7
370
    15
100
AcDbCircle
 10
219.3547418551
 20
99.6429425677
 30
0.0
 40
1.00000000029537
100
AcDbArc
 50
265.0
 51
5.0
  0
LINE
  5
AF
330
1F
100
AcDbEntity
  8
0
  6
Continuous
 62
     7
370
    15
100
AcDbLine
 10
211.0321288448
 20
106.8822058137
 30
0.0
 11
211.6215405505
 21
100.1451989855
 31
0.0
  0
ARC
  5
B0
330
1F
100
AcDbEntity
  8
0
  6
Continuous
 62
     7
370
    15
100
AcDbCircle
 10
212.0283231567
 20
106.969361266
 30
0.0
 40
1.000000000000083
100
AcDbArc
 50
85.0
 51
185.0
  0
LINE
  5
B1
330
1F
100
AcDbEntity
  8
0
  6
Continuous
 62
     7
370
    15
100
AcDbLine
 10
218.852485482
 20
107.376143917
 30
0.0
 11
212.1154805164
 21
107.9655556227
 31
0.0
  0
ARC
  5
B2
330
1F
100
AcDbEntity
  8
0
  6
Continuous
 62
     7
370
    15
100
AcDbCircle
 10
218.7653301198
 20
106.3799495307
 30
0.0
 40
1.000000000000027
100
AcDbArc
 50
5.0
 51
85.0
  0
LINE
  5
B3
330
1F
100
AcDbEntity
  8
0
  6
Continuous
 62
     7
370
    15
100
AcDbLine
 10
212.5305784385
 20
99.2361592348
 30
0.0
 11
219.2675871294
 21
98.6467475291
 31
0.0
  0
ARC
  5
B4
330
1F
100
AcDbEntity
  8
0
  6
Continuous
 62
     7
370
    15
100
AcDbCircle
 10
212.6177348921
 20
100.232354303
 30
0.0
 40
1.000000000000038
100
AcDbArc
 50
185.0
 51
265.0
  0
CIRCLE
  5
B5
330
1F
100
AcDbEntity
  8
0
  6
Continuous
 62
     7
370
    15
100
AcDbCircle
 10
215.6915325059
 20
103.3061519169
 30
0.0
 40
3.800000000000025
  0
LINE
  5
B6
330
1F
100
AcDbEntity
  8
0
  6
Continuous
 62
     7
370
    15
100
AcDbLine
 10
221.1837535243
 20
108.7983731399
 30
0.0
 11
221.2168713551
 21
109.1769268955
 31
0.0
  0
LINE
  5
B7
330
1F
100
AcDbEntity
  8
0
  6
Continuous
 62
     7
370
    15
100
AcDbLine
 10
209.146159653
 20
109.8515257458
 30
0.0
 11
209.1792774837
 21
110.2300795014
 31
0.0
  0
LINE
  5
B8
330
1F
100
AcDbEntity
  8
0
  6
Continuous
 62
     7
370
    15
100
AcDbLine
 10
210.0651589673
 20
108.9325255002
 30
0.0
 11
209.146159653
 21
109.8515257458
 31
0.0
  0
LINE
  5
B9
330
1F
100
AcDbEntity
  8
0
  6
Continuous
 62
     7
370
    15
100
AcDbLine
 10
210.1993103962
 20
97.8139309432
 30
0.0
 11
209.8207575719
 21
97.7808112498
 31
0.0
  0
LINE
  5
BA
330
1F
100
AcDbEntity
  8
0
  6
Continuous
 62
     7
370
    15
100
AcDbLine
 10
209.146159653
 20
109.8515257458
 30
0.0
 11
208.7676031034
 21
109.8184069838
 31
0.0
  0
SPLINE
  5
BB
330
1F
100
AcDbEntity
  8
0
  6
Continuous
 62
     7
370
    15
100
AcDbSpline
210
0.0
220
0.0
230
1.0
 70
     8
 71
     3
 72
    14
 73
    10
 74
     0
 42
0.00000001
 43
0.00000001
 12
1.0
 22
0.0
 32
0.0
 13
1.0
 23
0.0
 33
0.0
 40
0.0
 40
0.0
 40
0.0
 40
0.0
 40
0.1661994641135402
 40
0.3374499315290989
 40
0.5035490867632204
 40
0.6738626507361387
 40
0.8313482424183598
 40
0.9919087145235278
 40
1.0
 40
1.0
 40
1.0
 40
1.0
 10
220.6100588183523
 20
108.2246784339863
 30
0.0
 10
220.5836127863351
 20
108.1982322018619
 30
0.0
 10
220.5299169953105
 20
108.1445360045417
 30
0.0
 10
220.4446155805626
 20
108.0592376764805
 30
0.0
 10
220.3580750434063
 20
107.9726910213215
 30
0.0
 10
220.2748800158435
 20
107.8895004261031
 30
0.0
 10
220.1956178595183
 20
107.8102376316563
 30
0.0
 10
220.1454531340149
 20
107.7600718086601
 30
0.0
 10
220.1205970605961
 20
107.7352157444649
 30
0.0
 10
220.1194045584322
 20
107.7340232427436
 30
0.0
  0
SPLINE
  5
BC
330
1F
100
AcDbEntity
  8
0
  6
Continuous
 62
     7
370
    15
100
AcDbSpline
210
0.0
220
0.0
230
1.0
 70
     8
 71
     3
 72
    14
 73
    10
 74
     0
 42
0.00000001
 43
0.00000001
 12
1.0
 22
0.0
 32
0.0
 13
1.0
 23
0.0
 33
0.0
 40
0.0
 40
0.0
 40
0.0
 40
0.0
 40
0.0076070085286542
 40
0.1629857285436182
 40
0.3207224141691141
 40
0.4900056948902481
 40
0.6629685205998668
 40
0.8292179772661169
 40
1.0
 40
1.0
 40
1.0
 40
1.0
 10
220.8289792280317
 20
98.16870523944672
 30
0.0
 10
220.8300949271452
 20
98.16759018056014
 30
0.0
 10
220.8539995977081
 20
98.14369922732757
 30
0.0
 10
220.9027903245673
 20
98.09488306751797
 30
0.0
 10
220.9800169072984
 20
98.0176747002526
 30
0.0
 10
221.0631511337106
 20
97.93452753789992
 30
0.0
 10
221.1492887520982
 20
97.84840007132715
 30
0.0
 10
221.2357512446603
 20
97.76193256741476
 30
0.0
 10
221.2902759586133
 20
97.70740705222573
 30
0.0
 10
221.3179049532534
 20
97.67977765157994
 30
0.0
  0
SPLINE
  5
BD
330
1F
100
AcDbEntity
  8
0
  6
Continuous
 62
     7
370
    15
100
AcDbSpline
210
0.0
220
0.0
230
1.0
 70
     8
 71
     3
 72
    11
 73
     7
 74
     0
 42
0.00000001
 43
0.00000001
 12
1.0
 22
0.0
 32
0.0
 13
1.0
 23
0.0
 33
0.0
 40
0.0
 40
0.0
 40
0.0
 40
0.0
 40
0.0081174425138454
 40
0.3263695899334066
 40
0.6627691584030725
 40
1.0
 40
1.0
 40
1.0
 40
1.0
 10
211.26366308738
 20
98.87828177169139
 30
0.0
 10
211.2624705784336
 20
98.87708863237121
 30
0.0
 10
211.2145246083593
 20
98.82911731751427
 30
0.0
 10
211.109027451546
 20
98.72366217102893
 30
0.0
 10
210.9375842640841
 20
98.55219836915926
 30
0.0
 10
210.8279099362311
 20
98.44252833412799
 30
0.0
 10
210.7730051021696
 20
98.38762564912614
 30
0.0
  0
SPLINE
  5
BE
330
1F
100
AcDbEntity
  8
0
  6
Continuous
 62
     7
370
    15
100
AcDbSpline
210
0.0
220
0.0
230
1.0
 70
     8
 71
     3
 72
    11
 73
     7
 74
     0
 42
0.00000001
 43
0.00000001
 12
1.0
 22
0.0
 32
0.0
 13
1.0
 23
0.0
 33
0.0
 40
0.0
 40
0.0
 40
0.0
 40
0.0
 40
0.3367846125131771
 40
0.679013364095293
 40
0.9923741702329849
 40
1.0
 40
1.0
 40
1.0
 40
1.0
 10
210.0651589672686
 20
108.9325255002099
 30
0.0
 10
210.1206504648538
 20
108.8770365549247
 30
0.0
 10
210.2325304826875
 20
108.7651616829493
 30
0.0
 10
210.4019591883822
 20
108.595700542184
 30
0.0
 10
210.5060607855789
 20
108.4916760615017
 30
0.0
 10
210.5529702425618
 20
108.4447136210252
 30
0.0
 10
210.5540846924902
 20
108.4435979123431
 30
0.0
  0
CIRCLE
  5
BF
330
1F
100
AcDbEntity
  8
0
  6
Continuous
 62
     7
370
    15
100
AcDbCircle
 10
215.611770366
 20
103.3859140568
 30
0.0
 40
3.500000000000001
  0
CIRCLE
  5
C0
330
1F
100
AcDbEntity
  8
0
  6
Continuous
 62
     7
370
    15
100
AcDbCircle
 10
215.611770366
 20
103.3859140568
 30
0.0
 40
2.633974596215583
  0
CIRCLE
  5
C1
330
1F
100
AcDbEntity
  8
0
  6
Continuous
 62
     7
370
    15
100
AcDbCircle
 10
215.611770366
 20
103.3859140568
 30
0.0
 40
2.000000000000005
  0
SPLINE
  5
C2
330
1F
100
AcDbEntity
  8
0
  6
Continuous
 62
     7
370
    15
100
AcDbSpline
210
0.0
220
0.0
230
1.0
 70
     8
 71
     3
 72
    23
 73
    19
 74
     0
 42
0.00000001
 43
0.00000001
 12
1.0
 22
0.0
 32
0.0
 13
1.0
 23
0.0
 33
0.0
 40
0.0
 40
0.0
 40
0.0
 40
0.0
 40
0.0622360324063862
 40
0.1262407548495002
 40
0.1888831090036708
 40
0.253371410352544
 40
0.3154882459282997
 40
0.3794403395275051
 40
0.4409674704904005
 40
0.504300047957975
 40
0.5655055238987781
 40
0.6284851861761228
 40
0.689699122722254
 40
0.7526700868523989
 40
0.8142190996405703
 40
0.8775214945990605
 40
0.9379524357883743
 40
1.0
 40
1.0
 40
1.0
 40
1.0
 10
217.0035233240248
 20
102.3920966531354
 30
0.0
 10
217.0251526028499
 20
102.3896207099219
 30
0.0
 10
217.0690258444458
 20
102.3845984594963
 30
0.0
 10
217.1352842847101
 20
102.3911169031685
 30
0.0
 10
217.2003604551425
 20
102.4081333973644
 30
0.0
 10
217.2611769484682
 20
102.435928881628
 30
0.0
 10
217.3168831960777
 20
102.4738551605011
 30
0.0
 10
217.364739412523
 20
102.5200096822766
 30
0.0
 10
217.4044407225809
 20
102.5739182258105
 30
0.0
 10
217.4341559080015
 20
102.6328956244631
 30
0.0
 10
217.453751893692
 20
102.6964659587248
 30
0.0
 10
217.4623988141403
 20
102.7616520922421
 30
0.0
 10
217.4600691922038
 20
102.8278970193815
 30
0.0
 10
217.4468888843312
 20
102.8922520520594
 30
0.0
 10
217.4230150147867
 20
102.9541184650071
 30
0.0
 10
217.3895851899056
 20
103.0101084170513
 30
0.0
 10
217.3478246473933
 20
103.0604749048921
 30
0.0
 10
217.3142913818239
 20
103.0871413714076
 30
0.0
 10
217.2973034422518
 20
103.1006505931931
 30
0.0
  0
SPLINE
  5
C3
330
1F
100
AcDbEntity
  8
0
  6
Continuous
 62
     7
370
    15
100
AcDbSpline
210
0.0
220
0.0
230
1.0
 70
     8
 71
     3
 72
    12
 73
     8
 74
     0
 42
0.00000001
 43
0.00000001
 12
1.0
 22
0.0
 32
0.0
 13
1.0
 23
0.0
 33
0.0
 40
0.0
 40
0.0
 40
0.0
 40
0.0
 40
0.2058754320868387
 40
0.4120995932470434
 40
0.6141708741440427
 40
0.8132910378275391
 40
1.0
 40
1.0
 40
1.0
 40
1.0
 10
217.2973034422518
 20
103.1006505931931
 30
0.0
 10
217.2393562924435
 20
103.1515568902208
 30
0.0
 10
217.1233638370845
 20
103.2534557136314
 30
0.0
 10
217.0248663776167
 20
103.4688942006978
 30
0.0
 10
216.9998054504794
 20
103.6984151055966
 30
0.0
 10
217.0460582954692
 20
103.9196467789235
 30
0.0
 10
217.1272413375647
 20
104.0389152326605
 30
0.0
 10
217.1665271263243
 20
104.0966311688739
 30
0.0
  0
SPLINE
  5
C4
330
1F
100
AcDbEntity
  8
0
  6
Continuous
 62
     7
370
    15
100
AcDbSpline
210
0.0
220
0.0
230
1.0
 70
     8
 71
     3
 72
    15
 73
    11
 74
     0
 42
0.00000001
 43
0.00000001
 12
1.0
 22
0.0
 32
0.0
 13
1.0
 23
0.0
 33
0.0
 40
0.0
 40
0.0
 40
0.0
 40
0.0
 40
0.1268775156620424
 40
0.2539938954842367
 40
0.3800492085701025
 40
0.5049004753041432
 40
0.6290821348593414
 40
0.7532693578123336
 40
0.8781202222237878
 40
1.0
 40
1.0
 40
1.0
 40
1.0
 10
217.1665271263243
 20
104.0966311688739
 30
0.0
 10
217.1912378142841
 20
104.1337255810567
 30
0.0
 10
217.240705711431
 20
104.2079842406929
 30
0.0
 10
217.2627497616082
 20
104.3430356125321
 30
0.0
 10
217.2414944827192
 20
104.4761776091918
 30
0.0
 10
217.1769663992323
 20
104.5943623487342
 30
0.0
 10
217.0777451625192
 20
104.6843299580372
 30
0.0
 10
216.9551422162664
 20
104.7359648721176
 30
0.0
 10
216.8222436613133
 20
104.747125640067
 30
0.0
 10
216.7402808635534
 20
104.7191487172958
 30
0.0
 10
216.6997929554106
 20
104.7053287024814
 30
0.0
  0
SPLINE
  5
C5
330
1F
100
AcDbEntity
  8
0
  6
Continuous
 62
     7
370
    15
100
AcDbSpline
210
0.0
220
0.0
230
1.0
 70
     8
 71
     3
 72
    17
 73
    13
 74
     0
 42
0.00000001
 43
0.00000001
 12
1.0
 22
0.0
 32
0.0
 13
1.0
 23
0.0
 33
0.0
 40
0.0
 40
0.0
 40
0.0
 40
0.0
 40
0.1014650657786312
 40
0.2058052060272765
 40
0.3074038210848697
 40
0.4120648936942603
 40
0.5116286408632476
 40
0.6141653046586286
 40
0.7123476802996157
 40
0.8132898425050317
 40
0.9055658367325831
 40
1.0
 40
1.0
 40
1.0
 40
1.0
 10
216.6997929554106
 20
104.7053287024814
 30
0.0
 10
216.6645713118579
 20
104.6914470660013
 30
0.0
 10
216.593129998019
 20
104.6632904484123
 30
0.0
 10
216.4789855241896
 20
104.6443202984435
 30
0.0
 10
216.3621179120558
 20
104.6433793850815
 30
0.0
 10
216.2480181413752
 20
104.6621994599982
 30
0.0
 10
216.1382317954362
 20
104.6998416293277
 30
0.0
 10
216.0383202499897
 20
104.753972595855
 30
0.0
 10
215.9483688394654
 20
104.8238429695643
 30
0.0
 10
215.8740785222001
 20
104.9044133560032
 30
0.0
 10
215.8132632259342
 20
104.9937196610869
 30
0.0
 10
215.7857697538264
 20
105.0577036971899
 30
0.0
 10
215.771864120257
 20
105.0900655086356
 30
0.0
  0
SPLINE
  5
C6
330
1F
100
AcDbEntity
  8
0
  6
Continuous
 62
     7
370
    15
100
AcDbSpline
210
0.0
220
0.0
230
1.0
 70
     8
 71
     3
 72
    33
 73
    29
 74
     0
 42
0.00000001
 43
0.00000001
 12
1.0
 22
0.0
 32
0.0
 13
1.0
 23
0.0
 33
0.0
 40
0.0
 40
0.0
 40
0.0
 40
0.0
 40
0.0311553149239665
 40
0.0625252910960251
 40
0.0945666678827045
 40
0.1268433243298871
 40
0.1580649641629674
 40
0.1895072757586332
 40
0.2216429094907371
 40
0.2540227179209209
 40
0.3163371590129216
 40
0.3479751940184586
 40
0.380086171280925
 40
0.4418059680344497
 40
0.4731382123798081
 40
0.5049335582461753
 40
0.5663280106599872
 40
0.5974921833698781
 40
0.6291066377530824
 40
0.6905074376563812
 40
0.7216669627061076
 40
0.753276505254304
 40
0.8150080571759957
 40
0.8463332734877366
 40
0.8781071845655342
 40
0.9384310328522449
 40
0.9690123988869073
 40
1.0
 40
1.0
 40
1.0
 40
1.0
 10
215.771864120257
 20
105.0900655086356
 30
0.0
 10
215.7677704870642
 20
105.1001491617887
 30
0.0
 10
215.7595550153977
 20
105.1203859448304
 30
0.0
 10
215.7439440618077
 20
105.1495877893128
 30
0.0
 10
215.7258735760516
 20
105.1778096981236
 30
0.0
 10
215.7054132968332
 20
105.2043484610654
 30
0.0
 10
215.6829127734262
 20
105.228936635694
 30
0.0
 10
215.6584400601483
 20
105.2515451145533
 30
0.0
 10
215.63178313802
 20
105.2722696225125
 30
0.0
 10
215.5942917592423
 20
105.2965362492679
 30
0.0
 10
215.5539461060261
 20
105.3158996031327
 30
0.0
 10
215.5117176798477
 20
105.3299491694619
 30
0.0
 10
215.46861683995
 20
105.3402968618563
 30
0.0
 10
215.4244337839529
 20
105.3451469750859
 30
0.0
 10
215.3802838594533
 20
105.3444406871014
 30
0.0
 10
215.3364597296366
 20
105.3400069762194
 30
0.0
 10
215.2934063860298
 20
105.3300894820752
 30
0.0
 10
215.2521822644667
 20
105.3149922582572
 30
0.0
 10
215.2123886104713
 20
105.2964850434792
 30
0.0
 10
215.1750853979926
 20
105.2730720165714
 30
0.0
 10
215.1411706590472
 20
105.2453633615262
 30
0.0
 10
215.1096390666862
 20
105.2148551120818
 30
0.0
 10
215.0820497810072
 20
105.18049516462
 30
0.0
 10
215.0590566815065
 20
105.143149741983
 30
0.0
 10
215.0395042976864
 20
105.104489233513
 30
0.0
 10
215.0250000424929
 20
105.063855399637
 30
0.0
 10
215.0153613661375
 20
105.0222928137214
 30
0.0
 10
215.0126904003178
 20
105.0009506116642
 30
0.0
 10
215.011346105826
 20
104.9902091021853
 30
0.0
  0
SPLINE
  5
C7
330
1F
100
AcDbEntity
  8
0
  6
Continuous
 62
     7
370
    15
100
AcDbSpline
210
0.0
220
0.0
230
1.0
 70
     8
 71
     3
 72
    17
 73
    13
 74
     0
 42
0.00000001
 43
0.00000001
 12
1.0
 22
0.0
 32
0.0
 13
1.0
 23
0.0
 33
0.0
 40
0.0
 40
0.0
 40
0.0
 40
0.0
 40
0.1014896587585974
 40
0.2058602947958196
 40
0.3074587638401718
 40
0.4121171231392831
 40
0.5116788043749941
 40
0.6142175943379242
 40
0.7124049313705242
 40
0.8133504991087176
 40
0.9055972415185396
 40
1.0
 40
1.0
 40
1.0
 40
1.0
 10
215.011346105826
 20
104.9902091021853
 30
0.0
 10
215.0057563550255
 20
104.9527560626022
 30
0.0
 10
214.9944181777009
 20
104.8767868075679
 30
0.0
 10
214.9537562493052
 20
104.7684331042661
 30
0.0
 10
214.8961247314641
 20
104.6667473810491
 30
0.0
 10
214.8227698326803
 20
104.5773513710428
 30
0.0
 10
214.735270479523
 20
104.5011051734439
 30
0.0
 10
214.6384305556183
 20
104.4416504609433
 30
0.0
 10
214.532936886667
 20
104.3986963302143
 30
0.0
 10
214.4260218208697
 20
104.3746527593899
 30
0.0
 10
214.3182934303141
 20
104.3666498040241
 30
0.0
 10
214.2491572517292
 20
104.374828664703
 30
0.0
 10
214.2141898613096
 20
104.3789653326589
 30
0.0
  0
SPLINE
  5
C8
330
1F
100
AcDbEntity
  8
0
  6
Continuous
 62
     7
370
    15
100
AcDbSpline
210
0.0
220
0.0
230
1.0
 70
     8
 71
     3
 72
    15
 73
    11
 74
     0
 42
0.00000001
 43
0.00000001
 12
1.0
 22
0.0
 32
0.0
 13
1.0
 23
0.0
 33
0.0
 40
0.0
 40
0.0
 40
0.0
 40
0.0
 40
0.1262556847157305
 40
0.2533824454084981
 40
0.379444282973622
 40
0.5042992496006707
 40
0.6284809517787061
 40
0.7526636369521149
 40
0.8775118220741985
 40
0.9999999999999999
 40
0.9999999999999999
 40
0.9999999999999999
 40
0.9999999999999999
 10
214.2141898613096
 20
104.3789653326589
 30
0.0
 10
214.1699342166313
 20
104.3818233638146
 30
0.0
 10
214.0811175942592
 20
104.3875591445435
 30
0.0
 10
213.9532665846459
 20
104.3394236666823
 30
0.0
 10
213.8484446627329
 20
104.2546122852823
 30
0.0
 10
213.7781696618912
 20
104.1397484953907
 30
0.0
 10
213.7496518939899
 20
104.0088820867325
 30
0.0
 10
213.7660178381815
 20
103.8768620160745
 30
0.0
 10
213.8226976103512
 20
103.7558926260312
 30
0.0
 10
213.888046879688
 20
103.6987233064133
 30
0.0
 10
213.9204097430826
 20
103.6704113926011
 30
0.0
  0
SPLINE
  5
C9
330
1F
100
AcDbEntity
  8
0
  6
Continuous
 62
     7
370
    15
100
AcDbSpline
210
0.0
220
0.0
230
1.0
 70
     8
 71
     3
 72
    12
 73
     8
 74
     0
 42
0.00000001
 43
0.00000001
 12
1.0
 22
0.0
 32
0.0
 13
1.0
 23
0.0
 33
0.0
 40
0.0
 40
0.0
 40
0.0
 40
0.0
 40
0.2058731210289515
 40
0.4120931046911987
 40
0.6141693066913733
 40
0.813308080465149
 40
1.0
 40
1.0
 40
1.0
 40
1.0
 10
213.9204097430826
 20
103.6704113926011
 30
0.0
 10
213.9783567657414
 20
103.6195056112864
 30
0.0
 10
214.0943484423418
 20
103.5176082807175
 30
0.0
 10
214.1928489907656
 20
103.302171634933
 30
0.0
 10
214.217906603857
 20
103.0726463329806
 30
0.0
 10
214.1716584771403
 20
102.8514097686996
 30
0.0
 10
214.090470493349
 20
102.7321425267278
 30
0.0
 10
214.0511860590101
 20
102.6744326795655
 30
0.0
  0
SPLINE
  5
CA
330
1F
100
AcDbEntity
  8
0
  6
Continuous
 62
     7
370
    15
100
AcDbSpline
210
0.0
220
0.0
230
1.0
 70
     8
 71
     3
 72
    23
 73
    19
 74
     0
 42
0.00000001
 43
0.00000001
 12
1.0
 22
0.0
 32
0.0
 13
1.0
 23
0.0
 33
0.0
 40
0.0
 40
0.0
 40
0.0
 40
0.0
 40
0.0625391154318417
 40
0.1268702211421193
 40
0.1895098764466823
 40
0.2539932208542529
 40
0.3161069399715832
 40
0.3800554833858148
 40
0.4415805173890027
 40
0.5049098972466927
 40
0.5661132531493774
 40
0.6290915822094297
 40
0.690304459332422
 40
0.7532753287006879
 40
0.8148271725127191
 40
0.8781289130581407
 40
0.9382673509113604
 40
0.9999999999999999
 40
0.9999999999999999
 40
0.9999999999999999
 40
0.9999999999999999
 10
214.0511860590101
 20
102.6744326795655
 30
0.0
 10
214.0381676628592
 20
102.6568506562613
 30
0.0
 10
214.0117578425863
 20
102.6211828159133
 30
0.0
 10
213.9842582059098
 20
102.5602997252111
 30
0.0
 10
213.9665354761807
 20
102.4952953016899
 30
0.0
 10
213.9603100680488
 20
102.4287206360127
 30
0.0
 10
213.9654150224651
 20
102.3615256863214
 30
0.0
 10
213.98156483756
 20
102.297032657085
 30
0.0
 10
214.008497227649
 20
102.2357409329816
 30
0.0
 10
214.0448065333562
 20
102.1805798909902
 30
0.0
 10
214.090143097769
 20
102.1319026697088
 30
0.0
 10
214.1423347929679
 20
102.0919053802525
 30
0.0
 10
214.2009193696189
 20
102.0608974159577
 30
0.0
 10
214.2632764988508
 20
102.0402371366701
 30
0.0
 10
214.3288072944653
 20
102.0300878076982
 30
0.0
 10
214.3939063879634
 20
102.0311432061236
 30
0.0
 10
214.4581744129267
 20
102.042173592968
 30
0.0
 10
214.4978320354516
 20
102.0578131008288
 30
0.0
 10
214.5179202299238
 20
102.065735145958
 30
0.0
  0
SPLINE
  5
CB
330
1F
100
AcDbEntity
  8
0
  6
Continuous
 62
     7
370
    15
100
AcDbSpline
210
0.0
220
0.0
230
1.0
 70
     8
 71
     3
 72
    17
 73
    13
 74
     0
 42
0.00000001
 43
0.00000001
 12
1.0
 22
0.0
 32
0.0
 13
1.0
 23
0.0
 33
0.0
 40
0.0
 40
0.0
 40
0.0
 40
0.0
 40
0.101482685856033
 40
0.2058436865757075
 40
0.3074602371141493
 40
0.4121399831764971
 40
0.5117199263205728
 40
0.6142817632272817
 40
0.7124648534556831
 40
0.8134113858987309
 40
0.9056291429368376
 40
1.0
 40
1.0
 40
1.0
 40
1.0
 10
214.5179202299238
 20
102.065735145958
 30
0.0
 10
214.5531468091281
 20
102.0796184951242
 30
0.0
 10
214.6245990856192
 20
102.1077789616144
 30
0.0
 10
214.7387603169749
 20
102.126745498323
 30
0.0
 10
214.8556439541875
 20
102.1276820796741
 30
0.0
 10
214.9697579025605
 20
102.1088493291018
 30
0.0
 10
215.0795590003941
 20
102.0711858512955
 30
0.0
 10
215.1794791268833
 20
102.0170341494759
 30
0.0
 10
215.2694314470455
 20
101.9471398035038
 30
0.0
 10
215.3436978106191
 20
101.8665674642727
 30
0.0
 10
215.4044795545368
 20
101.7772860632395
 30
0.0
 10
215.4319535514298
 20
101.7133402108489
 30
0.0
 10
215.4458490650774
 20
101.6809983398038
 30
0.0
  0
SPLINE
  5
CC
330
1F
100
AcDbEntity
  8
0
  6
Continuous
 62
     7
370
    15
100
AcDbSpline
210
0.0
220
0.0
230
1.0
 70
     8
 71
     3
 72
    33
 73
    29
 74
     0
 42
0.00000001
 43
0.00000001
 12
1.0
 22
0.0
 32
0.0
 13
1.0
 23
0.0
 33
0.0
 40
0.0
 40
0.0
 40
0.0
 40
0.0
 40
0.0311525794024381
 40
0.0625181616159976
 40
0.0945567578884482
 40
0.1268299370225444
 40
0.1580489901841494
 40
0.1894862778983712
 40
0.2216179129978811
 40
0.2539936273407424
 40
0.2849492883160517
 40
0.3479324596869615
 40
0.3800398526106082
 40
0.4107042252297577
 40
0.4730864759721651
 40
0.5048781398264658
 40
0.5353828897681596
 40
0.5974306075195005
 40
0.6290476648265028
 40
0.6595582285342784
 40
0.72160968406825
 40
0.7532194774055241
 40
0.7838998744412614
 40
0.8462833898147631
 40
0.8780606176208654
 40
0.9080606184326084
 40
0.9690003012333606
 40
1.0
 40
1.0
 40
1.0
 40
1.0
 10
215.4458490650774
 20
101.6809983398038
 30
0.0
 10
215.4499430451196
 20
101.6709154958116
 30
0.0
 10
215.4581589974048
 20
101.6506808673364
 30
0.0
 10
215.4737643166708
 20
101.6214784976379
 30
0.0
 10
215.4918372609764
 20
101.5932610290846
 30
0.0
 10
215.5122913300725
 20
101.5667196676964
 30
0.0
 10
215.5347929872354
 20
101.542136013314
 30
0.0
 10
215.5592629233016
 20
101.5195276783067
 30
0.0
 10
215.585912391527
 20
101.4988043785722
 30
0.0
 10
215.6141442405927
 20
101.4805330066283
 30
0.0
 10
215.65342977265
 20
101.4595968077313
 30
0.0
 10
215.6952032030147
 20
101.4437015830341
 30
0.0
 10
215.7384040039019
 20
101.4333350625967
 30
0.0
 10
215.7821311595317
 20
101.4266671725476
 30
0.0
 10
215.8264710785743
 20
101.4255102426324
 30
0.0
 10
215.8703493340456
 20
101.4299540873929
 30
0.0
 10
215.9135816936965
 20
101.4380224288315
 30
0.0
 10
215.9555985149149
 20
101.4514515281133
 30
0.0
 10
215.9953893694173
 20
101.469957535855
 30
0.0
 10
216.0334770663747
 20
101.4917005487797
 30
0.0
 10
216.0686960518734
 20
101.5180973227361
 30
0.0
 10
216.1001779499106
 20
101.5485726193557
 30
0.0
 10
216.1290732217405
 20
101.5816081294821
 30
0.0
 10
216.1537221776048
 20
101.6181533093623
 30
0.0
 10
216.1733866298104
 20
101.6570429620939
 30
0.0
 10
216.1895099969176
 20
101.6969079896961
 30
0.0
 10
216.2009983474205
 20
101.7382552234827
 30
0.0
 10
216.2050133270886
 20
101.7701130653343
 30
0.0
 10
216.2063670795084
 20
101.7808547462541
 30
0.0
  0
SPLINE
  5
CD
330
1F
100
AcDbEntity
  8
0
  6
Continuous
 62
     7
370
    15
100
AcDbSpline
210
0.0
220
0.0
230
1.0
 70
     8
 71
     3
 72
    17
 73
    13
 74
     0
 42
0.00000001
 43
0.00000001
 12
1.0
 22
0.0
 32
0.0
 13
1.0
 23
0.0
 33
0.0
 40
0.0
 40
0.0
 40
0.0
 40
0.0
 40
0.1015094312180364
 40
0.205899740235587
 40
0.3075182325956587
 40
0.412198834561412
 40
0.5117771880919069
 40
0.614332050020719
 40
0.7125139590715628
 40
0.8134579699534603
 40
0.9056503055617058
 40
1.0
 40
1.0
 40
1.0
 40
1.0
 10
216.2063670795084
 20
101.7808547462541
 30
0.0
 10
216.2119574739377
 20
101.8183136355911
 30
0.0
 10
216.2232969204009
 20
101.8942945123576
 30
0.0
 10
216.263971691901
 20
102.0026609751862
 30
0.0
 10
216.3216175434245
 20
102.1043587673398
 30
0.0
 10
216.3949932758654
 20
102.1937618221682
 30
0.0
 10
216.4825162447005
 20
102.2700116929022
 30
0.0
 10
216.5793761493571
 20
102.3294578608919
 30
0.0
 10
216.6848818911036
 20
102.3724030714343
 30
0.0
 10
216.7917843068913
 20
102.3964209612256
 30
0.0
 10
216.8994762798094
 20
102.4044116228629
 30
0.0
 10
216.9685746018902
 20
102.3962331709802
 30
0.0
 10
217.0035233240248
 20
102.3920966531354
 30
0.0
  0
SPLINE
  5
CE
330
1F
100
AcDbEntity
  8
0
  6
HIDDEN
 62
     7
370
     0
100
AcDbSpline
210
0.0
220
0.0
230
1.0
 70
     8
 71
     3
 72
    68
 73
    64
 74
     0
 42
0.00000001
 43
0.00000001
 12
1.0
 22
0.0
 32
0.0
 13
1.0
 23
0.0
 33
0.0
 40
-0.0625000000000009
 40
-0.0625000000000009
 40
0.0
 40
0.0
 40
0.0312499999999996
 40
0.0312499999999996
 40
0.0624999999999992
 40
0.0624999999999992
 40
0.0937499999999987
 40
0.0937499999999987
 40
0.1249999999999981
 40
0.1249999999999981
 40
0.1562499999999981
 40
0.1562499999999981
 40
0.187499999999998
 40
0.187499999999998
 40
0.2187499999999979
 40
0.2187499999999979
 40
0.2499999999999979
 40
0.2499999999999979
 40
0.2812499999999978
 40
0.2812499999999978
 40
0.3124999999999978
 40
0.3124999999999978
 40
0.3437499999999977
 40
0.3437499999999977
 40
0.3749999999999976
 40
0.3749999999999976
 40
0.4062499999999976
 40
0.4062499999999976
 40
0.4374999999999975
 40
0.4374999999999975
 40
0.4687499999999974
 40
0.4687499999999974
 40
0.4999999999999973
 40
0.4999999999999973
 40
0.5312499999999973
 40
0.5312499999999973
 40
0.5624999999999974
 40
0.5624999999999974
 40
0.5937499999999974
 40
0.5937499999999974
 40
0.6249999999999976
 40
0.6249999999999976
 40
0.6562499999999976
 40
0.6562499999999976
 40
0.6874999999999977
 40
0.6874999999999977
 40
0.7187499999999977
 40
0.7187499999999977
 40
0.7499999999999977
 40
0.7499999999999977
 40
0.7812499999999978
 40
0.7812499999999978
 40
0.8124999999999978
 40
0.8124999999999978
 40
0.8437499999999979
 40
0.8437499999999979
 40
0.8749999999999979
 40
0.8749999999999979
 40
0.9062499999999986
 40
0.9062499999999986
 40
0.9374999999999991
 40
0.9374999999999991
 40
1.0
 40
1.0
 40
1.03125
 40
1.03125
 10
189.2369065683008
 20
129.8904524712808
 30
0.0
 10
189.2369065683008
 20
130.3565448458409
 30
0.0
 10
189.2206669701789
 20
130.5085819760727
 30
0.0
 10
189.1570671457187
 20
130.8063610037408
 30
0.0
 10
189.1089232381634
 20
130.9536396659663
 30
0.0
 10
188.9833836480654
 20
131.233097920832
 30
0.0
 10
188.9065845974968
 20
131.3650298077358
 30
0.0
 10
188.7251690788553
 20
131.6138158965179
 30
0.0
 10
188.6196820051582
 20
131.7310068573225
 30
0.0
 10
188.3892749897585
 20
131.9404789205965
 30
0.0
 10
188.2635257889096
 20
132.0341871891271
 30
0.0
 10
187.9903127703347
 20
132.1993974105033
 30
0.0
 10
187.845045364559
 20
132.2692991628939
 30
0.0
 10
187.5443026559266
 20
132.3815511406347
 30
0.0
 10
187.3865991284389
 20
132.4247223667176
 30
0.0
 10
187.0638233979786
 20
132.4824130944441
 30
0.0
 10
186.901511020993
 20
132.4966795625522
 30
0.0
 10
186.5750805046667
 20
132.4968421974143
 30
0.0
 10
186.4092707121192
 20
132.482266597287
 30
0.0
 10
186.0885207707922
 20
132.4249738788899
 30
0.0
 10
185.9326060857664
 20
132.3825642451424
 30
0.0
 10
185.6297358228772
 20
132.269800917479
 30
0.0
 10
185.483558799524
 20
132.1993197271352
 30
0.0
 10
185.2128375741769
 20
132.0358412288517
 30
0.0
 10
185.0864862163957
 20
131.9421896785771
 30
0.0
 10
184.8531700923061
 20
131.730193192813
 30
0.0
 10
184.7498395217353
 20
131.6151844946799
 30
0.0
 10
184.5687664536104
 20
131.367405596641
 30
0.0
 10
184.4903924990812
 20
131.2330252127997
 30
0.0
 10
184.3648808392105
 20
130.9536098634817
 30
0.0
 10
184.3175176673566
 20
130.809149402794
 30
0.0
 10
184.2533909517937
 20
130.5105397235993
 30
0.0
 10
184.2369679907779
 20
130.3554427090185
 30
0.0
 10
184.2368454978044
 20
130.0486816890241
 30
0.0
 10
184.2526159024273
 20
129.8954510873234
 30
0.0
 10
184.3166097138031
 20
129.5893736493196
 30
0.0
 10
184.3645412779929
 20
129.4391560645668
 30
0.0
 10
184.4890484093988
 20
129.1514272193498
 30
0.0
 10
184.5666055266745
 20
129.0117102101908
 30
0.0
 10
184.7490393863825
 20
128.7484783525955
 30
0.0
 10
184.852339113971
 20
128.6267626186969
 30
0.0
 10
185.0825792238545
 20
128.4030015283334
 30
0.0
 10
185.2110244892107
 20
128.3002014242738
 30
0.0
 10
185.4823562861262
 20
128.1231220400099
 30
0.0
 10
185.6257872178187
 20
128.0478855729501
 30
0.0
 10
185.9284075771622
 20
127.9246474567464
 30
0.0
 10
186.0871627956883
 20
127.8772811601429
 30
0.0
 10
186.4067724036982
 20
127.8145607896714
 30
0.0
 10
186.5693230986481
 20
127.7984462738109
 30
0.0
 10
186.8999617784536
 20
127.798151985634
 30
0.0
 10
187.0625161459361
 20
127.813970931338
 30
0.0
 10
187.382328160664
 20
127.8761430575222
 30
0.0
 10
187.5412593331622
 20
127.9232682582291
 30
0.0
 10
187.8440116158285
 20
128.0459497334234
 30
0.0
 10
187.9876164794632
 20
128.1209467105321
 30
0.0
 10
188.259461438586
 20
128.2977075919815
 30
0.0
 10
188.38802001126
 20
128.4002647190293
 30
0.0
 10
188.6185602918358
 20
128.6235543797124
 30
0.0
 10
188.7221116606036
 20
128.7451178442479
 30
0.0
 10
188.9051643004799
 20
129.0082935608032
 30
0.0
 10
188.9828108978031
 20
129.147636297398
 30
0.0
 10
189.170315721842
 20
129.5788057149819
 30
0.0
 10
189.2369065683008
 20
129.8904524712808
 30
0.0
 10
189.2369065683008
 20
130.3565448458409
 30
0.0
  0
SPLINE
  5
CF
330
1F
100
AcDbEntity
  8
0
  6
HIDDEN
 62
     7
370
     0
100
AcDbSpline
210
0.0
220
0.0
230
1.0
 70
     8
 71
     3
 72
    68
 73
    64
 74
     0
 42
0.00000001
 43
0.00000001
 12
1.0
 22
0.0
 32
0.0
 13
1.0
 23
0.0
 33
0.0
 40
-0.0625000000000009
 40
-0.0625000000000009
 40
0.0
 40
0.0
 40
0.0312499999999996
 40
0.0312499999999996
 40
0.0624999999999992
 40
0.0624999999999992
 40
0.0937499999999987
 40
0.0937499999999987
 40
0.1249999999999981
 40
0.1249999999999981
 40
0.1562499999999981
 40
0.1562499999999981
 40
0.187499999999998
 40
0.187499999999998
 40
0.2187499999999979
 40
0.2187499999999979
 40
0.2499999999999979
 40
0.2499999999999979
 40
0.2812499999999978
 40
0.2812499999999978
 40
0.3124999999999978
 40
0.3124999999999978
 40
0.3437499999999977
 40
0.3437499999999977
 40
0.3749999999999976
 40
0.3749999999999976
 40
0.4062499999999976
 40
0.4062499999999976
 40
0.4374999999999975
 40
0.4374999999999975
 40
0.4687499999999974
 40
0.4687499999999974
 40
0.4999999999999973
 40
0.4999999999999973
 40
0.5312499999999973
 40
0.5312499999999973
 40
0.5624999999999974
 40
0.5624999999999974
 40
0.5937499999999974
 40
0.5937499999999974
 40
0.6249999999999976
 40
0.6249999999999976
 40
0.6562499999999976
 40
0.6562499999999976
 40
0.6874999999999977
 40
0.6874999999999977
 40
0.7187499999999977
 40
0.7187499999999977
 40
0.7499999999999977
 40
0.7499999999999977
 40
0.7812499999999978
 40
0.7812499999999978
 40
0.8124999999999978
 40
0.8124999999999978
 40
0.8437499999999979
 40
0.8437499999999979
 40
0.8749999999999979
 40
0.8749999999999979
 40
0.9062499999999986
 40
0.9062499999999986
 40
0.9374999999999991
 40
0.9374999999999991
 40
1.0
 40
1.0
 40
1.03125
 40
1.03125
 10
189.2369065683008
 20
129.8904524712808
 30
0.0
 10
189.2369065683008
 20
130.3565448458409
 30
0.0
 10
189.2206669701789
 20
130.5085819760727
 30
0.0
 10
189.1570671457187
 20
130.8063610037408
 30
0.0
 10
189.1089232381634
 20
130.9536396659663
 30
0.0
 10
188.9833836480654
 20
131.233097920832
 30
0.0
 10
188.9065845974968
 20
131.3650298077358
 30
0.0
 10
188.7251690788553
 20
131.6138158965179
 30
0.0
 10
188.6196820051582
 20
131.7310068573225
 30
0.0
 10
188.3892749897585
 20
131.9404789205965
 30
0.0
 10
188.2635257889096
 20
132.0341871891271
 30
0.0
 10
187.9903127703347
 20
132.1993974105033
 30
0.0
 10
187.845045364559
 20
132.2692991628939
 30
0.0
 10
187.5443026559266
 20
132.3815511406347
 30
0.0
 10
187.3865991284389
 20
132.4247223667176
 30
0.0
 10
187.0638233979786
 20
132.4824130944441
 30
0.0
 10
186.901511020993
 20
132.4966795625522
 30
0.0
 10
186.5750805046667
 20
132.4968421974143
 30
0.0
 10
186.4092707121192
 20
132.482266597287
 30
0.0
 10
186.0885207707922
 20
132.4249738788899
 30
0.0
 10
185.9326060857664
 20
132.3825642451424
 30
0.0
 10
185.6297358228772
 20
132.269800917479
 30
0.0
 10
185.483558799524
 20
132.1993197271352
 30
0.0
 10
185.2128375741769
 20
132.0358412288517
 30
0.0
 10
185.0864862163957
 20
131.9421896785771
 30
0.0
 10
184.8531700923061
 20
131.730193192813
 30
0.0
 10
184.7498395217353
 20
131.6151844946799
 30
0.0
 10
184.5687664536104
 20
131.367405596641
 30
0.0
 10
184.4903924990812
 20
131.2330252127997
 30
0.0
 10
184.3648808392105
 20
130.9536098634817
 30
0.0
 10
184.3175176673566
 20
130.809149402794
 30
0.0
 10
184.2533909517937
 20
130.5105397235993
 30
0.0
 10
184.2369679907779
 20
130.3554427090185
 30
0.0
 10
184.2368454978044
 20
130.0486816890241
 30
0.0
 10
184.2526159024273
 20
129.8954510873234
 30
0.0
 10
184.3166097138031
 20
129.5893736493196
 30
0.0
 10
184.3645412779929
 20
129.4391560645668
 30
0.0
 10
184.4890484093988
 20
129.1514272193498
 30
0.0
 10
184.5666055266745
 20
129.0117102101908
 30
0.0
 10
184.7490393863825
 20
128.7484783525955
 30
0.0
 10
184.852339113971
 20
128.6267626186969
 30
0.0
 10
185.0825792238545
 20
128.4030015283334
 30
0.0
 10
185.2110244892107
 20
128.3002014242738
 30
0.0
 10
185.4823562861262
 20
128.1231220400099
 30
0.0
 10
185.6257872178187
 20
128.0478855729501
 30
0.0
 10
185.9284075771622
 20
127.9246474567464
 30
0.0
 10
186.0871627956883
 20
127.8772811601429
 30
0.0
 10
186.4067724036982
 20
127.8145607896714
 30
0.0
 10
186.5693230986481
 20
127.7984462738109
 30
0.0
 10
186.8999617784536
 20
127.798151985634
 30
0.0
 10
187.0625161459361
 20
127.813970931338
 30
0.0
 10
187.382328160664
 20
127.8761430575222
 30
0.0
 10
187.5412593331622
 20
127.9232682582291
 30
0.0
 10
187.8440116158285
 20
128.0459497334234
 30
0.0
 10
187.9876164794632
 20
128.1209467105321
 30
0.0
 10
188.259461438586
 20
128.2977075919815
 30
0.0
 10
188.38802001126
 20
128.4002647190293
 30
0.0
 10
188.6185602918358
 20
128.6235543797124
 30
0.0
 10
188.7221116606036
 20
128.7451178442479
 30
0.0
 10
188.9051643004799
 20
129.0082935608032
 30
0.0
 10
188.9828108978031
 20
129.147636297398
 30
0.0
 10
189.170315721842
 20
129.5788057149819
 30
0.0
 10
189.2369065683008
 20
129.8904524712808
 30
0.0
 10
189.2369065683008
 20
130.3565448458409
 30
0.0
  0
SPLINE
  5
D0
330
1F
100
AcDbEntity
  8
0
  6
HIDDEN
 62
     7
370
     0
100
AcDbSpline
210
0.0
220
0.0
230
1.0
 70
     8
 71
     3
 72
    12
 73
     8
 74
     0
 42
0.00000001
 43
0.00000001
 12
1.0
 22
0.0
 32
0.0
 13
1.0
 23
0.0
 33
0.0
 40
0.0
 40
0.0
 40
0.0
 40
0.0
 40
0.4999999999999987
 40
0.4999999999999987
 40
0.7499999999999993
 40
0.7499999999999993
 40
1.0
 40
1.0
 40
1.0
 40
1.0
 10
179.3090009491647
 20
142.3955341376561
 30
0.0
 10
179.3276941822951
 20
142.4173278912841
 30
0.0
 10
179.3533494797069
 20
142.4383480529937
 30
0.0
 10
179.4135101023933
 20
142.4660533989574
 30
0.0
 10
179.4375824141477
 20
142.4746886151508
 30
0.0
 10
179.4959639344982
 20
142.4879032603774
 30
0.0
 10
179.5314327621513
 20
142.4924342347076
 30
0.0
 10
179.5688085703
 20
142.4924342347076
 30
0.0
  0
LINE
  5
D1
330
1F
100
AcDbEntity
  8
0
  6
HIDDEN
 62
     7
370
     0
100
AcDbLine
 10
179.5688084777
 20
142.4924345906
 30
0.0
 11
181.7050044875
 21
142.4924345906
 31
0.0
  0
SPLINE
  5
D2
330
1F
100
AcDbEntity
  8
0
  6
HIDDEN
 62
     7
370
     0
100
AcDbSpline
210
0.0
220
0.0
230
1.0
 70
     8
 71
     3
 72
    12
 73
     8
 74
     0
 42
0.00000001
 43
0.00000001
 12
1.0
 22
0.0
 32
0.0
 13
1.0
 23
0.0
 33
0.0
 40
0.0
 40
0.0
 40
0.0
 40
0.0
 40
0.2499999999999984
 40
0.2499999999999984
 40
0.4999999999999969
 40
0.4999999999999969
 40
1.0
 40
1.0
 40
1.0
 40
1.0
 10
181.7050045663016
 20
142.4924342347076
 30
0.0
 10
181.7425164523463
 20
142.4924342347076
 30
0.0
 10
181.777803800051
 20
142.487930690445
 30
0.0
 10
181.8367336482895
 20
142.4745574909917
 30
0.0
 10
181.8602593747585
 20
142.4660725884206
 30
0.0
 10
181.9205181625266
 20
142.438324784586
 30
0.0
 10
181.9461129248159
 20
142.4173349208457
 30
0.0
 10
181.964812187437
 20
142.3955341376561
 30
0.0
  0
ELLIPSE
  5
D3
330
1F
100
AcDbEntity
  8
0
  6
HIDDEN
 62
     7
370
     0
100
AcDbEllipse
 10
171.6879773959
 20
123.3607778545
 30
0.0
 11
9.36741787978184
 21
19.74174915274995
 31
0.0
210
0.0
220
0.0
230
1.0
 40
0.3419987131
 41
5.185211263708411
 42
6.132113578252573
  0
SPLINE
  5
D4
330
1F
100
AcDbEntity
  8
0
  6
HIDDEN
 62
     7
370
     0
100
AcDbSpline
210
0.0
220
0.0
230
1.0
 70
     8
 71
     3
 72
    12
 73
     8
 74
     0
 42
0.00000001
 43
0.00000001
 12
1.0
 22
0.0
 32
0.0
 13
1.0
 23
0.0
 33
0.0
 40
0.0
 40
0.0
 40
0.0
 40
0.0
 40
0.5000000000000061
 40
0.5000000000000061
 40
0.750000000000003
 40
0.750000000000003
 40
1.0
 40
1.0
 40
1.0
 40
1.0
 10
181.964812187437
 20
129.4990229815334
 30
0.0
 10
181.9461189543065
 20
129.4314403450931
 30
0.0
 10
181.9204636568948
 20
129.3649577756157
 30
0.0
 10
181.8603030342083
 20
129.2759626927182
 30
0.0
 10
181.8362307224539
 20
129.247960795719
 30
0.0
 10
181.7778492021034
 20
129.2048843950538
 30
0.0
 10
181.7423803744504
 20
129.1899908501261
 30
0.0
 10
181.7050045663016
 20
129.1899908501261
 30
0.0
  0
LINE
  5
D5
330
1F
100
AcDbEntity
  8
0
  6
HIDDEN
 62
     7
370
     0
100
AcDbLine
 10
181.7050044875
 20
129.1899910416
 30
0.0
 11
179.5688084777
 21
129.1899910416
 31
0.0
  0
SPLINE
  5
D6
330
1F
100
AcDbEntity
  8
0
  6
HIDDEN
 62
     7
370
     0
100
AcDbSpline
210
0.0
220
0.0
230
1.0
 70
     8
 71
     3
 72
    12
 73
     8
 74
     0
 42
0.00000001
 43
0.00000001
 12
1.0
 22
0.0
 32
0.0
 13
1.0
 23
0.0
 33
0.0
 40
0.0
 40
0.0
 40
0.0
 40
0.0
 40
0.2499999999999986
 40
0.2499999999999986
 40
0.4999999999999971
 40
0.4999999999999971
 40
1.0
 40
1.0
 40
1.0
 40
1.0
 10
179.5688085703
 20
129.1899908501261
 30
0.0
 10
179.5312966842554
 20
129.1899908501261
 30
0.0
 10
179.4960093365506
 20
129.2047956644128
 30
0.0
 10
179.4370794883122
 20
129.2483875375387
 30
0.0
 10
179.4135537618431
 20
129.2759009636247
 30
0.0
 10
179.353294974075
 20
129.3650326957383
 30
0.0
 10
179.3277002117857
 20
129.4314185463561
 30
0.0
 10
179.3090009491647
 20
129.4990229815334
 30
0.0
  0
ELLIPSE
  5
D7
330
1F
100
AcDbEntity
  8
0
  6
HIDDEN
 62
     7
370
     0
100
AcDbEllipse
 10
189.5858357407
 20
123.3607778545
 30
0.0
 11
-9.367417879781698
 21
19.74174915274995
 31
0.0
210
0.0
220
0.0
230
1.0
 40
0.3419987131
 41
0.1510717289270584
 42
1.097974043471192
  0
SPLINE
  5
D8
330
1F
100
AcDbEntity
  8
0
  6
HIDDEN
 62
     7
370
     0
100
AcDbSpline
210
0.0
220
0.0
230
1.0
 70
     8
 71
     3
 72
    12
 73
     8
 74
     0
 42
0.00000001
 43
0.00000001
 12
1.0
 22
0.0
 32
0.0
 13
1.0
 23
0.0
 33
0.0
 40
0.0
 40
0.0
 40
0.0
 40
0.0
 40
0.5000000000000016
 40
0.5000000000000016
 40
0.7500000000000008
 40
0.7500000000000008
 40
1.0
 40
1.0
 40
1.0
 40
1.0
 10
179.3090009491647
 20
117.2225327274151
 30
0.0
 10
179.3276941822951
 20
117.2901153638555
 30
0.0
 10
179.3533494797069
 20
117.3565979333329
 30
0.0
 10
179.4135101023933
 20
117.4455930162304
 30
0.0
 10
179.4375824141477
 20
117.4735949132296
 30
0.0
 10
179.4959639344982
 20
117.5166713138948
 30
0.0
 10
179.5314327621513
 20
117.5315648588225
 30
0.0
 10
179.5688085703
 20
117.5315648588225
 30
0.0
  0
LINE
  5
D9
330
1F
100
AcDbEntity
  8
0
  6
HIDDEN
 62
     7
370
     0
100
AcDbLine
 10
179.5688084777
 20
117.5315646674
 30
0.0
 11
181.7050044875
 21
117.5315646674
 31
0.0
  0
SPLINE
  5
DA
330
1F
100
AcDbEntity
  8
0
  6
HIDDEN
 62
     7
370
     0
100
AcDbSpline
210
0.0
220
0.0
230
1.0
 70
     8
 71
     3
 72
    12
 73
     8
 74
     0
 42
0.00000001
 43
0.00000001
 12
1.0
 22
0.0
 32
0.0
 13
1.0
 23
0.0
 33
0.0
 40
0.0
 40
0.0
 40
0.0
 40
0.0
 40
0.2500000000000014
 40
0.2500000000000014
 40
0.5000000000000029
 40
0.5000000000000029
 40
1.0
 40
1.0
 40
1.0
 40
1.0
 10
181.7050045663016
 20
117.5315648588225
 30
0.0
 10
181.7425164523463
 20
117.5315648588225
 30
0.0
 10
181.777803800051
 20
117.5167600445357
 30
0.0
 10
181.8367336482895
 20
117.4731681714099
 30
0.0
 10
181.8602593747585
 20
117.4456547453239
 30
0.0
 10
181.9205181625266
 20
117.3565230132103
 30
0.0
 10
181.9461129248159
 20
117.2901371625925
 30
0.0
 10
181.964812187437
 20
117.2225327274151
 30
0.0
  0
ELLIPSE
  5
DB
330
1F
100
AcDbEntity
  8
0
  6
HIDDEN
 62
     7
370
     0
100
AcDbEllipse
 10
171.6879773959
 20
123.3607778545
 30
0.0
 11
-9.367417879781755
 21
19.74174915274995
 31
0.0
210
0.0
220
0.0
230
1.0
 40
0.3419987131
 41
3.292664382516899
 42
4.239566697061004
  0
SPLINE
  5
DC
330
1F
100
AcDbEntity
  8
0
  6
HIDDEN
 62
     7
370
     0
100
AcDbSpline
210
0.0
220
0.0
230
1.0
 70
     8
 71
     3
 72
    12
 73
     8
 74
     0
 42
0.00000001
 43
0.00000001
 12
1.0
 22
0.0
 32
0.0
 13
1.0
 23
0.0
 33
0.0
 40
0.0
 40
0.0
 40
0.0
 40
0.0
 40
0.4999999999999998
 40
0.4999999999999998
 40
0.7499999999999999
 40
0.7499999999999999
 40
1.0
 40
1.0
 40
1.0
 40
1.0
 10
181.964812187437
 20
104.3260215712922
 30
0.0
 10
181.9461189543065
 20
104.3042278176643
 30
0.0
 10
181.9204636568948
 20
104.2832076559546
 30
0.0
 10
181.8603030342083
 20
104.2555023099909
 30
0.0
 10
181.836230722454
 20
104.2468670937975
 30
0.0
 10
181.7778492021034
 20
104.2336524485709
 30
0.0
 10
181.7423803744504
 20
104.2291214742408
 30
0.0
 10
181.7050045663016
 20
104.2291214742408
 30
0.0
  0
LINE
  5
DD
330
1F
100
AcDbEntity
  8
0
  6
HIDDEN
 62
     7
370
     0
100
AcDbLine
 10
181.7050044875
 20
104.2291211183
 30
0.0
 11
179.5688084777
 21
104.2291211183
 31
0.0
  0
SPLINE
  5
DE
330
1F
100
AcDbEntity
  8
0
  6
HIDDEN
 62
     7
370
     0
100
AcDbSpline
210
0.0
220
0.0
230
1.0
 70
     8
 71
     3
 72
    12
 73
     8
 74
     0
 42
0.00000001
 43
0.00000001
 12
1.0
 22
0.0
 32
0.0
 13
1.0
 23
0.0
 33
0.0
 40
0.0
 40
0.0
 40
0.0
 40
0.0
 40
0.2500000000000003
 40
0.2500000000000003
 40
0.5000000000000006
 40
0.5000000000000006
 40
1.0
 40
1.0
 40
1.0
 40
1.0
 10
179.5688085703
 20
104.2291214742408
 30
0.0
 10
179.5312966842554
 20
104.2291214742408
 30
0.0
 10
179.4960093365506
 20
104.2336250185033
 30
0.0
 10
179.4370794883122
 20
104.2469982179566
 30
0.0
 10
179.4135537618431
 20
104.2554831205277
 30
0.0
 10
179.353294974075
 20
104.2832309243623
 30
0.0
 10
179.3277002117857
 20
104.3042207881027
 30
0.0
 10
179.3090009491647
 20
104.3260215712922
 30
0.0
  0
ELLIPSE
  5
DF
330
1F
100
AcDbEntity
  8
0
  6
HIDDEN
 62
     7
370
     0
100
AcDbEllipse
 10
189.5858357407
 20
123.3607778545
 30
0.0
 11
9.367417879781586
 21
19.74174915274995
 31
0.0
210
0.0
220
0.0
230
1.0
 40
0.3419987131
 41
2.043618610118592
 42
2.99052092466272
  0
SPLINE
  5
E0
330
1F
100
AcDbEntity
  8
0
  6
HIDDEN
 62
     7
370
     0
100
AcDbSpline
210
0.0
220
0.0
230
1.0
 70
     8
 71
     3
 72
    58
 73
    54
 74
     0
 42
0.00000001
 43
0.00000001
 12
1.0
 22
0.0
 32
0.0
 13
1.0
 23
0.0
 33
0.0
 40
-0.0624999999999997
 40
-0.0624999999999997
 40
0.0
 40
0.0
 40
0.0312500000000002
 40
0.0312500000000002
 40
0.0625000000000004
 40
0.0625000000000004
 40
0.0937500000000006
 40
0.0937500000000006
 40
0.1250000000000007
 40
0.1250000000000007
 40
0.1875000000000011
 40
0.1875000000000011
 40
0.2500000000000014
 40
0.2500000000000014
 40
0.2812500000000013
 40
0.2812500000000013
 40
0.3125000000000013
 40
0.3125000000000013
 40
0.3437500000000013
 40
0.3437500000000013
 40
0.3750000000000013
 40
0.3750000000000013
 40
0.4062500000000012
 40
0.4062500000000012
 40
0.4375000000000012
 40
0.4375000000000012
 40
0.4687500000000012
 40
0.4687500000000012
 40
0.5000000000000011
 40
0.5000000000000011
 40
0.562500000000001
 40
0.562500000000001
 40
0.625000000000001
 40
0.625000000000001
 40
0.656250000000001
 40
0.656250000000001
 40
0.6875000000000009
 40
0.6875000000000009
 40
0.7187500000000009
 40
0.7187500000000009
 40
0.7500000000000009
 40
0.7500000000000009
 40
0.7812500000000009
 40
0.7812500000000009
 40
0.8125000000000008
 40
0.8125000000000008
 40
0.8437500000000008
 40
0.8437500000000008
 40
0.8750000000000008
 40
0.8750000000000008
 40
0.9375000000000003
 40
0.9375000000000003
 40
1.0
 40
1.0
 40
1.03125
 40
1.03125
 10
186.6369065683008
 20
123.0963417400261
 30
0.0
 10
186.6369065683008
 20
123.4929959116982
 30
0.0
 10
186.6239245306286
 20
123.6229880725386
 30
0.0
 10
186.5730737283703
 20
123.8787076849909
 30
0.0
 10
186.5345818243174
 20
124.0057663688521
 30
0.0
 10
186.4341665385909
 20
124.2479295665109
 30
0.0
 10
186.3727303993179
 20
124.3627713508956
 30
0.0
 10
186.2275969230071
 20
124.5801135484658
 30
0.0
 10
186.143175234156
 20
124.6829551963135
 30
0.0
 10
185.8665750599911
 20
124.9594986770651
 30
0.0
 10
185.643576148724
 20
125.1084813131973
 30
0.0
 10
185.1623416311383
 20
125.308024376752
 30
0.0
 10
184.8990422156293
 20
125.3606348497834
 30
0.0
 10
184.5074787755891
 20
125.3608489085359
 30
0.0
 10
184.3748911649844
 20
125.3478500591303
 30
0.0
 10
184.1183254593851
 20
125.296799975104
 30
0.0
 10
183.9936156932046
 20
125.2590287362918
 30
0.0
 10
183.7513765081776
 20
125.1588368281793
 30
0.0
 10
183.6343598544039
 20
125.0962514343547
 30
0.0
 10
183.4177166495576
 20
124.9515463486442
 30
0.0
 10
183.3167098930992
 20
124.868927007264
 30
0.0
 10
183.1299037974426
 20
124.682282972474
 30
0.0
 10
183.0471902619107
 20
124.5813371245141
 30
0.0
 10
182.9023201325354
 20
124.3648559208324
 30
0.0
 10
182.8396498364387
 20
124.2479387558239
 30
0.0
 10
182.7392218984024
 20
124.0057422866255
 30
0.0
 10
182.7013507194727
 20
123.881081295722
 30
0.0
 10
182.650088321697
 20
123.624681946654
 30
0.0
 10
182.6369546810563
 20
123.4920710213561
 30
0.0
 10
182.6368107479175
 20
123.100396409021
 30
0.0
 10
182.6891760051823
 20
122.8371123893604
 30
0.0
 10
182.888336668533
 20
122.3555996755006
 30
0.0
 10
183.037134341895
 20
122.1324785884557
 30
0.0
 10
183.3134350004811
 20
121.8556464399481
 30
0.0
 10
183.4162000475408
 20
121.7711392256639
 30
0.0
 10
183.6334173213353
 20
121.625818283978
 30
0.0
 10
183.748187014773
 20
121.5642960607159
 30
0.0
 10
183.9901735519176
 20
121.4636996574439
 30
0.0
 10
184.117256124809
 20
121.4250717693553
 30
0.0
 10
184.3729308248122
 20
121.3739936592891
 30
0.0
 10
184.5028713421565
 20
121.3609045195219
 30
0.0
 10
184.7671347099178
 20
121.3606530011634
 30
0.0
 10
184.8973456035647
 20
121.3735274712197
 30
0.0
 10
185.1530955489983
 20
121.4241463683518
 30
0.0
 10
185.2801129333657
 20
121.4624941871476
 30
0.0
 10
185.5224646611174
 20
121.5627283073409
 30
0.0
 10
185.6373674404037
 20
121.624072494331
 30
0.0
 10
185.8547896055527
 20
121.7689774988601
 30
0.0
 10
185.9577260029974
 20
121.8533163909821
 30
0.0
 10
186.2345631601543
 20
122.1297175040238
 30
0.0
 10
186.3837184012185
 20
122.3525611370663
 30
0.0
 10
186.5836889864538
 20
122.8336244183169
 30
0.0
 10
186.6369065683008
 20
123.0963417400261
 30
0.0
 10
186.6369065683008
 20
123.4929959116982
 30
0.0
  0
LINE
  5
E1
330
1F
100
AcDbEntity
  8
0
  6
HIDDEN
 62
     7
370
     0
100
AcDbLine
 10
172.6369065683
 20
143.0607779171
 30
0.0
 11
172.6369065683
 21
103.6607777919
 31
0.0
  0
LINE
  5
E2
330
1F
100
AcDbEntity
  8
0
  6
HIDDEN
 62
     7
370
     0
100
AcDbLine
 10
172.6369065683
 20
107.5607786174
 30
0.0
 11
172.6369065683
 21
139.1482861932
 31
0.0
  0
SPLINE
  5
E3
330
1F
100
AcDbEntity
  8
0
  6
HIDDEN
 62
     7
370
     0
100
AcDbSpline
210
0.0
220
0.0
230
1.0
 70
     8
 71
     3
 72
    18
 73
    14
 74
     0
 42
0.00000001
 43
0.00000001
 12
1.0
 22
0.0
 32
0.0
 13
1.0
 23
0.0
 33
0.0
 40
0.0
 40
0.0
 40
0.0
 40
0.0
 40
0.2500000000000013
 40
0.2500000000000013
 40
0.5000000000000027
 40
0.5000000000000027
 40
0.625000000000002
 40
0.625000000000002
 40
0.7500000000000013
 40
0.7500000000000013
 40
0.8750000000000007
 40
0.8750000000000007
 40
1.0
 40
1.0
 40
1.0
 40
1.0
 10
171.3808222507378
 20
133.1852177726254
 30
0.0
 10
171.4151232952706
 20
133.0772075868279
 30
0.0
 10
171.4529435665674
 20
132.9699304987999
 30
0.0
 10
171.5395618870282
 20
132.7584338014833
 30
0.0
 10
171.5879332217717
 20
132.6540474513136
 30
0.0
 10
171.6773362038901
 20
132.5031725286694
 30
0.0
 10
171.7099334877674
 20
132.4538275256338
 30
0.0
 10
171.7863153917123
 20
132.3592218871635
 30
0.0
 10
171.829353829053
 20
132.3142259524089
 30
0.0
 10
171.9351668618849
 20
132.2432981797511
 30
0.0
 10
172.000205286616
 20
132.2193516358444
 30
0.0
 10
172.1333573584186
 20
132.2316322999152
 30
0.0
 10
172.1927265388818
 20
132.2649492579201
 30
0.0
 10
172.2419296794256
 20
132.3057841441448
 30
0.0
  0
SPLINE
  5
E4
330
1F
100
AcDbEntity
  8
0
  6
HIDDEN
 62
     7
370
     0
100
AcDbSpline
210
0.0
220
0.0
230
1.0
 70
     8
 71
     3
 72
    16
 73
    12
 74
     0
 42
0.00000001
 43
0.00000001
 12
1.0
 22
0.0
 32
0.0
 13
1.0
 23
0.0
 33
0.0
 40
0.0
 40
0.0
 40
0.0
 40
0.0
 40
0.0624999999999996
 40
0.0624999999999996
 40
0.1249999999999993
 40
0.1249999999999993
 40
0.2500000000000007
 40
0.2500000000000007
 40
0.499999999999999
 40
0.499999999999999
 40
1.0
 40
1.0
 40
1.0
 40
1.0
 10
172.2419296793948
 20
132.3057841441743
 30
0.0
 10
172.2539995126706
 20
132.3158011931546
 30
0.0
 10
172.2682751676039
 20
132.3247603002102
 30
0.0
 10
172.2997395797283
 20
132.3326306956044
 30
0.0
 10
172.3152401045387
 20
132.3302732049622
 30
0.0
 10
172.3506790011456
 20
132.3132975127842
 30
0.0
 10
172.364271617249
 20
132.2927490216165
 30
0.0
 10
172.3972659356418
 20
132.2308066946029
 30
0.0
 10
172.4080533289606
 20
132.1844111443977
 30
0.0
 10
172.4331065762397
 20
132.0414751157032
 30
0.0
 10
172.436906568301
 20
131.9419123988177
 30
0.0
 10
172.436906568301
 20
131.8401449941712
 30
0.0
  0
LINE
  5
E5
330
1F
100
AcDbEntity
  8
0
  6
HIDDEN
 62
     7
370
     0
100
AcDbLine
 10
172.4369065734
 20
114.8814108442
 30
0.0
 11
172.4369065734
 21
131.8401448648
 31
0.0
  0
SPLINE
  5
E6
330
1F
100
AcDbEntity
  8
0
  6
HIDDEN
 62
     7
370
     0
100
AcDbSpline
210
0.0
220
0.0
230
1.0
 70
     8
 71
     3
 72
    16
 73
    12
 74
     0
 42
0.00000001
 43
0.00000001
 12
1.0
 22
0.0
 32
0.0
 13
1.0
 23
0.0
 33
0.0
 40
0.0
 40
0.0
 40
0.0
 40
0.0
 40
0.5000000000000056
 40
0.5000000000000056
 40
0.7500000000000061
 40
0.7500000000000061
 40
0.8750000000000042
 40
0.8750000000000042
 40
0.9375000000000022
 40
0.9375000000000022
 40
1.0
 40
1.0
 40
1.0
 40
1.0
 10
172.4369065683008
 20
114.881410714777
 30
0.0
 10
172.4369065683008
 20
114.7794005611969
 30
0.0
 10
172.4330231431419
 20
114.6798761859437
 30
0.0
 10
172.4082078178672
 20
114.537891089933
 30
0.0
 10
172.3973683701547
 20
114.4908977893626
 30
0.0
 10
172.3641525881059
 20
114.4286050590009
 30
0.0
 10
172.3507708444771
 20
114.4083236267159
 30
0.0
 10
172.3152611946149
 20
114.3912819185154
 30
0.0
 10
172.2998442281141
 20
114.3888956634993
 30
0.0
 10
172.2681432059655
 20
114.3968315933573
 30
0.0
 10
172.2539969210147
 20
114.4057566667319
 30
0.0
 10
172.2419296794251
 20
114.4157715648038
 30
0.0
  0
SPLINE
  5
E7
330
1F
100
AcDbEntity
  8
0
  6
HIDDEN
 62
     7
370
     0
100
AcDbSpline
210
0.0
220
0.0
230
1.0
 70
     8
 71
     3
 72
    18
 73
    14
 74
     0
 42
0.00000001
 43
0.00000001
 12
1.0
 22
0.0
 32
0.0
 13
1.0
 23
0.0
 33
0.0
 40
0.0
 40
0.0
 40
0.0
 40
0.0
 40
0.1250000000000004
 40
0.1250000000000004
 40
0.2500000000000008
 40
0.2500000000000008
 40
0.3750000000000012
 40
0.3750000000000012
 40
0.5000000000000017
 40
0.5000000000000017
 40
0.7500000000000008
 40
0.7500000000000008
 40
1.0
 40
1.0
 40
1.0
 40
1.0
 10
172.2419296794313
 20
114.4157715648112
 30
0.0
 10
172.1932241872891
 20
114.4561934404926
 30
0.0
 10
172.1347140789622
 20
114.4892255619604
 30
0.0
 10
172.0029849606701
 20
114.5025027139132
 30
0.0
 10
171.9382260243296
 20
114.479549126933
 30
0.0
 10
171.83301505147
 20
114.4104959300134
 30
0.0
 10
171.7897986760301
 20
114.3660282781725
 30
0.0
 10
171.7136201709181
 20
114.2728586188025
 30
0.0
 10
171.6807652095383
 20
114.2237162492417
 30
0.0
 10
171.5903969297045
 20
114.0725065143018
 30
0.0
 10
171.5409736953344
 20
113.9663517447736
 30
0.0
 10
171.4533252402863
 20
113.7527701291121
 30
0.0
 10
171.4152660680834
 20
113.6447976978768
 30
0.0
 10
171.3808222507378
 20
113.5363379363229
 30
0.0
  0
SPLINE
  5
E8
330
1F
100
AcDbEntity
  8
0
  6
HIDDEN
 62
     7
370
     0
100
AcDbSpline
210
0.0
220
0.0
230
1.0
 70
     8
 71
     3
 72
     8
 73
     4
 74
     0
 42
0.00000001
 43
0.00000001
 12
1.0
 22
0.0
 32
0.0
 13
1.0
 23
0.0
 33
0.0
 40
0.0
 40
0.0
 40
0.0
 40
0.0
 40
1.0
 40
1.0
 40
1.0
 40
1.0
 10
171.3808222507373
 20
113.5363379363224
 30
0.0
 10
171.3565085468472
 20
113.4597767787723
 30
0.0
 10
171.335011904891
 20
113.3833514076391
 30
0.0
 10
171.3155862247411
 20
113.3072585368674
 30
0.0
  0
SPLINE
  5
E9
330
1F
100
AcDbEntity
  8
0
  6
HIDDEN
 62
     7
370
     0
100
AcDbSpline
210
0.0
220
0.0
230
1.0
 70
     8
 71
     3
 72
     8
 73
     4
 74
     0
 42
0.00000001
 43
0.00000001
 12
1.0
 22
0.0
 32
0.0
 13
1.0
 23
0.0
 33
0.0
 40
0.0
 40
0.0
 40
0.0
 40
0.0
 40
1.0
 40
1.0
 40
1.0
 40
1.0
 10
171.3155862247411
 20
109.5357138464689
 30
0.0
 10
171.3350116516345
 20
109.5322166428817
 30
0.0
 10
171.3565082056034
 20
109.5302003252394
 30
0.0
 10
171.3808222507378
 20
109.5295894717956
 30
0.0
  0
SPLINE
  5
EA
330
1F
100
AcDbEntity
  8
0
  6
HIDDEN
 62
     7
370
     0
100
AcDbSpline
210
0.0
220
0.0
230
1.0
 70
     8
 71
     3
 72
     8
 73
     4
 74
     0
 42
0.00000001
 43
0.00000001
 12
1.0
 22
0.0
 32
0.0
 13
1.0
 23
0.0
 33
0.0
 40
0.0
 40
0.0
 40
0.0
 40
0.0
 40
1.0
 40
1.0
 40
1.0
 40
1.0
 10
172.4140555551948
 20
109.4402310807374
 30
0.0
 10
172.4329924873607
 20
109.412276643336
 30
0.0
 10
172.436906568301
 20
109.3921927919796
 30
0.0
 10
172.436906568301
 20
109.3759659478142
 30
0.0
  0
LINE
  5
EB
330
1F
100
AcDbEntity
  8
0
  6
HIDDEN
 62
     7
370
     0
100
AcDbLine
 10
172.4369065734
 20
109.2709578793
 30
0.0
 11
172.4369065734
 21
109.3759663622
 31
0.0
  0
LINE
  5
EC
330
1F
100
AcDbEntity
  8
0
  6
HIDDEN
 62
     7
370
     0
100
AcDbLine
 10
172.4369065734
 20
137.3455893467
 30
0.0
 11
172.4369065734
 21
137.4505978297
 31
0.0
  0
SPLINE
  5
ED
330
1F
100
AcDbEntity
  8
0
  6
HIDDEN
 62
     7
370
     0
100
AcDbSpline
210
0.0
220
0.0
230
1.0
 70
     8
 71
     3
 72
     8
 73
     4
 74
     0
 42
0.00000001
 43
0.00000001
 12
1.0
 22
0.0
 32
0.0
 13
1.0
 23
0.0
 33
0.0
 40
0.0
 40
0.0
 40
0.0
 40
0.0
 40
1.0
 40
1.0
 40
1.0
 40
1.0
 10
171.3808222507375
 20
137.1919662371527
 30
0.0
 10
171.3565082056032
 20
137.1913553837088
 30
0.0
 10
171.3350116516344
 20
137.1893390660666
 30
0.0
 10
171.3155862247411
 20
137.1858418624794
 30
0.0
  0
SPLINE
  5
EE
330
1F
100
AcDbEntity
  8
0
  6
HIDDEN
 62
     7
370
     0
100
AcDbSpline
210
0.0
220
0.0
230
1.0
 70
     8
 71
     3
 72
     8
 73
     4
 74
     0
 42
0.00000001
 43
0.00000001
 12
1.0
 22
0.0
 32
0.0
 13
1.0
 23
0.0
 33
0.0
 40
0.0
 40
0.0
 40
0.0
 40
0.0
 40
1.0
 40
1.0
 40
1.0
 40
1.0
 10
171.3155862247411
 20
133.4142971720809
 30
0.0
 10
171.335011904891
 20
133.3382043013092
 30
0.0
 10
171.3565085468472
 20
133.261778930176
 30
0.0
 10
171.3808222507373
 20
133.1852177726259
 30
0.0
  0
SPLINE
  5
EF
330
1F
100
AcDbEntity
  8
0
  6
HIDDEN
 62
     7
370
     0
100
AcDbSpline
210
0.0
220
0.0
230
1.0
 70
     8
 71
     3
 72
    12
 73
     8
 74
     0
 42
0.00000001
 43
0.00000001
 12
1.0
 22
0.0
 32
0.0
 13
1.0
 23
0.0
 33
0.0
 40
0.0
 40
0.0
 40
0.0
 40
0.0
 40
0.2500000000000021
 40
0.2500000000000021
 40
0.500000000000001
 40
0.500000000000001
 40
1.0
 40
1.0
 40
1.0
 40
1.0
 10
188.6045390069413
 20
119.1327514493645
 30
0.0
 10
188.4996033983809
 20
119.1555379363049
 30
0.0
 10
188.3937787774668
 20
119.1803602286146
 30
0.0
 10
188.182804299961
 20
119.2485601941726
 30
0.0
 10
188.0793639277646
 20
119.2919727825703
 30
0.0
 10
187.786890121853
 20
119.4886838257739
 30
0.0
 10
187.6459062024131
 20
119.6927893817987
 30
0.0
 10
187.5093660834265
 20
119.8920358361429
 30
0.0
  0
ARC
  5
F0
330
1F
100
AcDbEntity
  8
0
  6
HIDDEN
 62
     7
370
     0
100
AcDbCircle
 10
181.5726534372
 20
122.2101681905
 30
0.0
 40
6.373248567236618
100
AcDbArc
 50
324.9136525115
 51
338.6706435288
  0
SPLINE
  5
F1
330
1F
100
AcDbEntity
  8
0
  6
HIDDEN
 62
     7
370
     0
100
AcDbSpline
210
0.0
220
0.0
230
1.0
 70
     8
 71
     3
 72
    30
 73
    26
 74
     0
 42
0.00000001
 43
0.00000001
 12
1.0
 22
0.0
 32
0.0
 13
1.0
 23
0.0
 33
0.0
 40
0.0
 40
0.0
 40
0.0
 40
0.0
 40
0.0625000000000002
 40
0.0625000000000002
 40
0.1250000000000004
 40
0.1250000000000004
 40
0.1875000000000007
 40
0.1875000000000007
 40
0.2500000000000009
 40
0.2500000000000009
 40
0.3125000000000011
 40
0.3125000000000011
 40
0.3750000000000013
 40
0.3750000000000013
 40
0.5000000000000014
 40
0.5000000000000014
 40
0.6250000000000017
 40
0.6250000000000017
 40
0.6875000000000016
 40
0.6875000000000016
 40
0.7500000000000014
 40
0.7500000000000014
 40
0.8750000000000008
 40
0.8750000000000008
 40
1.0
 40
1.0
 40
1.0
 40
1.0
 10
186.7877977241631
 20
118.5467594701781
 30
0.0
 10
186.8586749193821
 20
118.5663133593784
 30
0.0
 10
186.9298743605688
 20
118.5790540758338
 30
0.0
 10
187.0732572542335
 20
118.5867964352552
 30
0.0
 10
187.1456017975728
 20
118.5816448093061
 30
0.0
 10
187.2818525250692
 20
118.5422822274749
 30
0.0
 10
187.3452958707965
 20
118.5066391377067
 30
0.0
 10
187.4441752018793
 20
118.4067429039036
 30
0.0
 10
187.4797793784704
 20
118.3434872791599
 30
0.0
 10
187.5262844349408
 20
118.2108305095739
 30
0.0
 10
187.5382650176475
 20
118.139991790274
 30
0.0
 10
187.546011072596
 20
118.0007398668694
 30
0.0
 10
187.5419120414531
 20
117.9307840369046
 30
0.0
 10
187.5112172637907
 20
117.7255397830336
 30
0.0
 10
187.4667823145713
 20
117.5985304081743
 30
0.0
 10
187.3560050837395
 20
117.3625790211573
 30
0.0
 10
187.291018733449
 20
117.2573276304831
 30
0.0
 10
187.2115289956339
 20
117.1065950066925
 30
0.0
 10
187.1882153388788
 20
117.0574442674329
 30
0.0
 10
187.1534330805806
 20
116.9589272485826
 30
0.0
 10
187.1423819606142
 20
116.9100010910021
 30
0.0
 10
187.1304148367648
 20
116.7677660097109
 30
0.0
 10
187.150076585416
 20
116.6753984021423
 30
0.0
 10
187.2209831427315
 20
116.5003412622037
 30
0.0
 10
187.2712664461617
 20
116.4174502352971
 30
0.0
 10
187.3296797081846
 20
116.3373693544449
 30
0.0
  0
SPLINE
  5
F2
330
1F
100
AcDbEntity
  8
0
  6
HIDDEN
 62
     7
370
     0
100
AcDbSpline
210
0.0
220
0.0
230
1.0
 70
     8
 71
     3
 72
    48
 73
    44
 74
     0
 42
0.00000001
 43
0.00000001
 12
1.0
 22
0.0
 32
0.0
 13
1.0
 23
0.0
 33
0.0
 40
0.0
 40
0.0
 40
0.0
 40
0.0
 40
0.0624999999999994
 40
0.0624999999999994
 40
0.1249999999999988
 40
0.1249999999999988
 40
0.1562499999999987
 40
0.1562499999999987
 40
0.1874999999999986
 40
0.1874999999999986
 40
0.2187499999999984
 40
0.2187499999999984
 40
0.2499999999999983
 40
0.2499999999999983
 40
0.3124999999999982
 40
0.3124999999999982
 40
0.3749999999999981
 40
0.3749999999999981
 40
0.4374999999999979
 40
0.4374999999999979
 40
0.4999999999999978
 40
0.4999999999999978
 40
0.5312499999999978
 40
0.5312499999999978
 40
0.5624999999999979
 40
0.5624999999999979
 40
0.6249999999999982
 40
0.6249999999999982
 40
0.6874999999999987
 40
0.6874999999999987
 40
0.7499999999999991
 40
0.7499999999999991
 40
0.8124999999999996
 40
0.8124999999999996
 40
0.8749999999999999
 40
0.8749999999999999
 40
0.90625
 40
0.90625
 40
0.9375
 40
0.9375
 40
0.9687500000000001
 40
0.9687500000000001
 40
1.0
 40
1.0
 40
1.0
 40
1.0
 10
187.3296797081851
 20
116.3373693544451
 30
0.0
 10
187.183332362761
 20
116.3387832010323
 30
0.0
 10
187.0443993839275
 20
116.3619195515564
 30
0.0
 10
186.7905039721003
 20
116.441168306284
 30
0.0
 10
186.6745540948024
 20
116.4982331493625
 30
0.0
 10
186.551521162077
 20
116.5968418873993
 30
0.0
 10
186.5193232466347
 20
116.6319878545164
 30
0.0
 10
186.4819827195993
 20
116.7010446986018
 30
0.0
 10
186.4768323307491
 20
116.7357039158718
 30
0.0
 10
186.4942534057368
 20
116.7998984079817
 30
0.0
 10
186.5164006030422
 20
116.8301468715907
 30
0.0
 10
186.5792223939468
 20
116.8879824223889
 30
0.0
 10
186.6192417542595
 20
116.9154163397617
 30
0.0
 10
186.7561355701739
 20
116.9986610322328
 30
0.0
 10
186.8699153601817
 20
117.0559597218311
 30
0.0
 10
187.1132029335035
 20
117.1856880225612
 30
0.0
 10
187.2442826769311
 20
117.2582141454495
 30
0.0
 10
187.5208819934504
 20
117.4308710826334
 30
0.0
 10
187.6636393403242
 20
117.5292018550297
 30
0.0
 10
187.9488113161203
 20
117.7568348205587
 30
0.0
 10
188.0914626610963
 20
117.8866885722962
 30
0.0
 10
188.2882576271064
 20
118.1015021504981
 30
0.0
 10
188.3517018659315
 20
118.1773359806933
 30
0.0
 10
188.4672359274781
 20
118.3305030135597
 30
0.0
 10
188.5201267847464
 20
118.4086323133559
 30
0.0
 10
188.6632332512513
 20
118.648206387814
 30
0.0
 10
188.7339500163706
 20
118.8093249582746
 30
0.0
 10
188.8224203666765
 20
119.1171347308969
 30
0.0
 10
188.8400523346686
 20
119.259329740564
 30
0.0
 10
188.8328790502964
 20
119.5286213396184
 30
0.0
 10
188.8081245759935
 20
119.6504477736993
 30
0.0
 10
188.7236888483479
 20
119.877692415627
 30
0.0
 10
188.6631656979084
 20
119.9837825589057
 30
0.0
 10
188.50870875759
 20
120.1824349697987
 30
0.0
 10
188.4154286816087
 20
120.2754477148901
 30
0.0
 10
188.2360705832027
 20
120.4205764973149
 30
0.0
 10
188.1704863710571
 20
120.4691298822173
 30
0.0
 10
188.0267464560854
 20
120.5677042358197
 30
0.0
 10
187.9473467654256
 20
120.6184816063664
 30
0.0
 10
187.7839063807246
 20
120.7160850103809
 30
0.0
 10
187.6978407573059
 20
120.7641493021301
 30
0.0
 10
187.5239416620774
 20
120.8534532447755
 30
0.0
 10
187.4367803590537
 20
120.8944088997628
 30
0.0
 10
187.3486834567627
 20
120.9313667145252
 30
0.0
  0
LWPOLYLINE
  5
F3
330
1F
100
AcDbEntity
  8
0
  6
HIDDEN
 62
     7
370
     0
100
AcDbPolyline
 90
        9
 70
   128
 43
0.0
 10
187.5742738586
 20
120.0805724352
 10
187.6314468201
 20
120.2905256055
 10
187.6642973613
 20
120.4769675373
 10
187.6721558612
 20
120.6360977362
 10
187.6548621323
 20
120.7646726384
 10
187.6127691459
 20
120.8600710365
 10
187.5467337187
 20
120.9203485619
 10
187.4581034746
 20
120.9442763343
 10
187.3486833166
 20
120.9313668064
  0
SPLINE
  5
F4
330
1F
100
AcDbEntity
  8
0
  6
HIDDEN
 62
     7
370
     0
100
AcDbSpline
210
0.0
220
0.0
230
1.0
 70
     8
 71
     3
 72
    14
 73
    10
 74
     0
 42
0.00000001
 43
0.00000001
 12
1.0
 22
0.0
 32
0.0
 13
1.0
 23
0.0
 33
0.0
 40
0.0
 40
0.0
 40
0.0
 40
0.0
 40
0.2499999999999986
 40
0.2499999999999986
 40
0.4999999999999971
 40
0.4999999999999971
 40
0.7499999999999981
 40
0.7499999999999981
 40
1.0
 40
1.0
 40
1.0
 40
1.0
 10
187.5742742226841
 20
120.0805724066831
 30
0.0
 10
187.679721575149
 20
120.0551302226819
 30
0.0
 10
187.7835914169863
 20
120.017109028975
 30
0.0
 10
187.9900128584182
 20
119.9052680945085
 30
0.0
 10
188.0898455292154
 20
119.8317814210351
 30
0.0
 10
188.2704276782378
 20
119.6594611682487
 30
0.0
 10
188.3508827179791
 20
119.5617406605123
 30
0.0
 10
188.4911282674319
 20
119.3560131831322
 30
0.0
 10
188.5522494811147
 20
119.2462725835228
 30
0.0
 10
188.6045390069413
 20
119.1327514493645
 30
0.0
  0
SPLINE
  5
F5
330
1F
100
AcDbEntity
  8
0
  6
HIDDEN
 62
     7
370
     0
100
AcDbSpline
210
0.0
220
0.0
230
1.0
 70
     8
 71
     3
 72
    12
 73
     8
 74
     0
 42
0.00000001
 43
0.00000001
 12
1.0
 22
0.0
 32
0.0
 13
1.0
 23
0.0
 33
0.0
 40
0.0
 40
0.0
 40
0.0
 40
0.0
 40
0.5000000000000008
 40
0.5000000000000008
 40
0.7500000000000003
 40
0.7500000000000003
 40
1.0
 40
1.0
 40
1.0
 40
1.0
 10
187.5093660834265
 20
119.8920358361429
 30
0.0
 10
187.3374264882363
 20
119.7037751920614
 30
0.0
 10
187.1831030183475
 20
119.5007716357537
 30
0.0
 10
186.9975934310932
 20
119.1607407618043
 30
0.0
 10
186.9435149106949
 20
119.041262405669
 30
0.0
 10
186.8537177680708
 20
118.7980755530248
 30
0.0
 10
186.8174070890943
 20
118.673539422567
 30
0.0
 10
186.7877977241626
 20
118.546759470178
 30
0.0
  0
SPLINE
  5
F6
330
1F
100
AcDbEntity
  8
0
  6
HIDDEN
 62
     7
370
     0
100
AcDbSpline
210
0.0
220
0.0
230
1.0
 70
     8
 71
     3
 72
    62
 73
    58
 74
     0
 42
0.00000001
 43
0.00000001
 12
1.0
 22
0.0
 32
0.0
 13
1.0
 23
0.0
 33
0.0
 40
-0.0312500000000002
 40
-0.0312500000000002
 40
0.0
 40
0.0
 40
0.0312500000000001
 40
0.0312500000000001
 40
0.0625000000000001
 40
0.0625000000000001
 40
0.0937500000000002
 40
0.0937500000000002
 40
0.1250000000000002
 40
0.1250000000000002
 40
0.1875000000000004
 40
0.1875000000000004
 40
0.2187500000000004
 40
0.2187500000000004
 40
0.2500000000000003
 40
0.2500000000000003
 40
0.2812500000000004
 40
0.2812500000000004
 40
0.3125000000000004
 40
0.3125000000000004
 40
0.3437500000000005
 40
0.3437500000000005
 40
0.3750000000000006
 40
0.3750000000000006
 40
0.4062500000000008
 40
0.4062500000000008
 40
0.4375000000000009
 40
0.4375000000000009
 40
0.468750000000001
 40
0.468750000000001
 40
0.5000000000000011
 40
0.5000000000000011
 40
0.5625000000000009
 40
0.5625000000000009
 40
0.5937500000000009
 40
0.5937500000000009
 40
0.6250000000000008
 40
0.6250000000000008
 40
0.6875000000000006
 40
0.6875000000000006
 40
0.7187500000000003
 40
0.7187500000000003
 40
0.75
 40
0.75
 40
0.7812499999999998
 40
0.7812499999999998
 40
0.8124999999999996
 40
0.8124999999999996
 40
0.8749999999999993
 40
0.8749999999999993
 40
0.9062499999999994
 40
0.9062499999999994
 40
0.9374999999999997
 40
0.9374999999999997
 40
0.9687499999999998
 40
0.9687499999999998
 40
1.0
 40
1.0
 40
1.03125
 40
1.03125
 10
186.8767481141026
 20
119.3740747800567
 30
0.0
 10
186.5970650224991
 20
119.3740747800567
 30
0.0
 10
186.4597810655416
 20
119.3853631699012
 30
0.0
 10
186.1900453106902
 20
119.4296350653413
 30
0.0
 10
186.0561632915946
 20
119.4632096524215
 30
0.0
 10
185.8024167331966
 20
119.5507541308046
 30
0.0
 10
185.682231071454
 20
119.60445500649
 30
0.0
 10
185.4547684799402
 20
119.732431755206
 30
0.0
 10
185.3479532744786
 20
119.8068206850371
 30
0.0
 10
185.0597086771539
 20
120.0536075005253
 30
0.0
 10
184.9035879782527
 20
120.2562166870827
 30
0.0
 10
184.7458725174104
 20
120.5950355174947
 30
0.0
 10
184.7049632883028
 20
120.715857047791
 30
0.0
 10
184.6505863832806
 20
120.9649218284201
 30
0.0
 10
184.636998915391
 20
121.0920497512435
 30
0.0
 10
184.6368151504034
 20
121.3516289765674
 30
0.0
 10
184.6507011866095
 20
121.4850567286205
 30
0.0
 10
184.7047882711602
 20
121.7451063832298
 30
0.0
 10
184.7447970272052
 20
121.8731289040058
 30
0.0
 10
184.8511433017875
 20
122.1247446651374
 30
0.0
 10
184.916342576705
 20
122.2453522184061
 30
0.0
 10
185.0680499807432
 20
122.4729071289978
 30
0.0
 10
185.1558506553831
 20
122.58142510776
 30
0.0
 10
185.3491885647465
 20
122.7791401376509
 30
0.0
 10
185.4541369507581
 20
122.8681944460917
 30
0.0
 10
185.6808649607041
 20
123.0261412201097
 30
0.0
 10
185.8036367116862
 20
123.0951771883724
 30
0.0
 10
186.0563151839115
 20
123.2057378032808
 30
0.0
 10
186.1872961554122
 20
123.2482246172063
 30
0.0
 10
186.459084526661
 20
123.3060627000057
 30
0.0
 10
186.5983181369953
 20
123.3207236818978
 30
0.0
 10
187.0115019197936
 20
123.3209034367361
 30
0.0
 10
187.2895776645084
 20
123.2615702615223
 30
0.0
 10
187.6696464925396
 20
123.0954785222886
 30
0.0
 10
187.7924147344818
 20
123.026460211931
 30
0.0
 10
188.0191009003681
 20
122.8686475759759
 30
0.0
 10
188.1242690089135
 20
122.7795043018468
 30
0.0
 10
188.4153555046436
 20
122.4818260285033
 30
0.0
 10
188.5692860268717
 20
122.2508235559577
 30
0.0
 10
188.7287176296215
 20
121.8739483955396
 30
0.0
 10
188.7687188271769
 20
121.7461446258036
 30
0.0
 10
188.8228780481064
 20
121.4866102036594
 30
0.0
 10
188.8369009546558
 20
121.3532745006559
 30
0.0
 10
188.8369121784925
 20
121.093189464676
 30
0.0
 10
188.8233712252935
 20
120.9659451138399
 30
0.0
 10
188.7691531386836
 20
120.7168876363655
 30
0.0
 10
188.7282731840773
 20
120.5958525212756
 30
0.0
 10
188.5703051069015
 20
120.2561840487854
 30
0.0
 10
188.4142771495466
 20
120.0537174737439
 30
0.0
 10
188.1255300302214
 20
119.8065572558867
 30
0.0
 10
188.0183151954924
 20
119.731986468996
 30
0.0
 10
187.7914617885425
 20
119.6044223375884
 30
0.0
 10
187.6714442763027
 20
119.5507714308341
 30
0.0
 10
187.4176260688484
 20
119.4632006660233
 30
0.0
 10
187.2837590247971
 20
119.4296350519591
 30
0.0
 10
187.0140917829029
 20
119.3853715395627
 30
0.0
 10
186.8767481141026
 20
119.3740747800567
 30
0.0
 10
186.5970650224991
 20
119.3740747800567
 30
0.0
  0
SPLINE
  5
F7
330
1F
100
AcDbEntity
  8
0
  6
HIDDEN
 62
     7
370
     0
100
AcDbSpline
210
0.0
220
0.0
230
1.0
 70
     8
 71
     3
 72
    14
 73
    10
 74
     0
 42
0.00000001
 43
0.00000001
 12
1.0
 22
0.0
 32
0.0
 13
1.0
 23
0.0
 33
0.0
 40
0.0
 40
0.0
 40
0.0
 40
0.0
 40
0.25
 40
0.25
 40
0.5
 40
0.5
 40
0.75
 40
0.75
 40
1.0
 40
1.0
 40
1.0
 40
1.0
 10
187.3486834567627
 20
120.9313667145252
 30
0.0
 10
187.2968670714284
 20
120.8818745730188
 30
0.0
 10
187.2514112992061
 20
120.8280105329269
 30
0.0
 10
187.1964763391063
 20
120.7091698780942
 30
0.0
 10
187.1887188781348
 20
120.6434494104948
 30
0.0
 10
187.2353373892603
 20
120.498789837024
 30
0.0
 10
187.2870974528173
 20
120.4230432023068
 30
0.0
 10
187.4169548727782
 20
120.2605183160925
 30
0.0
 10
187.4945338576503
 20
120.1734765797042
 30
0.0
 10
187.574274222684
 20
120.0805724066834
 30
0.0
  0
LWPOLYLINE
  5
F8
330
1F
100
AcDbEntity
  8
0
  6
HIDDEN
 62
     7
370
     0
100
AcDbPolyline
 90
       21
 70
   128
 43
0.0
 10
188.6045382809
 20
119.1327512483
 10
188.3416389566
 20
119.5033463869
 10
187.9969909306
 20
119.8090995881
 10
187.5881533589
 20
120.0344356462
 10
187.1359515454
 20
120.1678755447
 10
186.6634226855
 20
120.2026217929
 10
186.1946358796
 20
120.1369041796
 10
185.7534739639
 20
119.9740703437
 10
185.3624097522
 20
119.7224158081
 10
185.041363303
 20
119.3947597626
 10
184.8066905033
 20
119.0077933702
 10
184.6703458097
 20
118.5812294702
 10
184.6392740946
 20
118.136797681
 10
184.7150586065
 20
117.6971379887
 10
184.8938390132
 20
117.2846473041
 10
185.16650698
 20
116.920338593
 10
185.5191746246
 20
116.6227693889
 10
185.9338739406
 20
116.407099295
 10
186.3894806694
 20
116.284314658
 10
186.8627862524
 20
116.2606697749
 10
187.3296796795
 20
116.3373693112
  0
LINE
  5
F9
330
1F
100
AcDbEntity
  8
0
  6
HIDDEN
 62
     7
370
     0
100
AcDbLine
 10
172.4369065734
 20
109.3759663622
 30
0.0
 11
172.4369065734
 21
117.8553329068
 31
0.0
  0
LINE
  5
FA
330
1F
100
AcDbEntity
  8
0
  6
HIDDEN
 62
     7
370
     0
100
AcDbLine
 10
172.4369065734
 20
128.8662228021
 30
0.0
 11
172.4369065734
 21
137.3455893467
 31
0.0
  0
CIRCLE
  5
FB
330
1F
100
AcDbEntity
  8
0
  6
HIDDEN
 62
     7
370
     0
100
AcDbCircle
 10
161.1369065683
 20
123.3607778545
 30
0.0
 40
2.300000000000011
  0
LINE
  5
FC
330
1F
100
AcDbEntity
  8
0
  6
HIDDEN
 62
     7
370
     0
100
AcDbLine
 10
149.6639390926
 20
132.9234713908
 30
0.0
 11
149.6639390926
 21
113.7980843182
 31
0.0
  0
LINE
  5
FD
330
1F
100
AcDbEntity
  8
0
  6
HIDDEN
 62
     7
370
     0
100
AcDbLine
 10
148.6369063597
 20
113.2051270674
 30
0.0
 11
148.6369063597
 21
133.5164286415
 31
0.0
  0
LINE
  5
FE
330
1F
100
AcDbEntity
  8
0
  6
HIDDEN
 62
     7
370
     0
100
AcDbLine
 10
153.163938735
 20
132.5917175259
 30
0.0
 11
153.163938735
 21
114.1298381831
 31
0.0
  0
LINE
  5
FF
330
1F
100
AcDbEntity
  8
0
  6
HIDDEN
 62
     7
370
     0
100
AcDbLine
 10
156.5639385473
 20
132.360777467
 30
0.0
 11
156.5639385473
 21
114.3607782419
 31
0.0
  0
LINE
  5
100
330
1F
100
AcDbEntity
  8
0
  6
HIDDEN
 62
     7
370
     0
100
AcDbLine
 10
151.7639392506
 20
132.360777467
 30
0.0
 11
151.7639392506
 21
114.3607782419
 31
0.0
  0
LINE
  5
101
330
1F
100
AcDbEntity
  8
0
  6
HIDDEN
 62
     7
370
     0
100
AcDbLine
 10
152.7639394145
 20
132.360777467
 30
0.0
 11
152.7639394145
 21
114.3607782419
 31
0.0
  0
SPLINE
  5
102
330
1F
100
AcDbEntity
  8
0
  6
HIDDEN
 62
     7
370
     0
100
AcDbSpline
210
0.0
220
0.0
230
1.0
 70
     8
 71
     3
 72
    14
 73
    10
 74
     0
 42
0.00000001
 43
0.00000001
 12
1.0
 22
0.0
 32
0.0
 13
1.0
 23
0.0
 33
0.0
 40
0.0
 40
0.0
 40
0.0
 40
0.0
 40
0.25
 40
0.25
 40
0.5
 40
0.5
 40
0.75
 40
0.75
 40
1.0
 40
1.0
 40
1.0
 40
1.0
 10
163.1369065683008
 20
124.4965595236342
 30
0.0
 10
163.2351309148038
 20
124.3235960938307
 30
0.0
 10
163.3104457527879
 20
124.1385635394063
 30
0.0
 10
163.4114124629822
 20
123.7555513252718
 30
0.0
 10
163.4367880492724
 20
123.5608327718062
 30
0.0
 10
163.4370242745387
 20
123.1634574705406
 30
0.0
 10
163.4113212052032
 20
122.9659651360652
 30
0.0
 10
163.3110010916867
 20
122.5847933014342
 30
0.0
 10
163.235109263599
 20
122.3979214894616
 30
0.0
 10
163.1369065683054
 20
122.2249961853117
 30
0.0
  0
LINE
  5
103
330
1F
100
AcDbEntity
  8
0
  6
HIDDEN
 62
     7
370
     0
100
AcDbLine
 10
163.6369069557
 20
131.8607783164
 30
0.0
 11
163.6369069557
 21
114.8607773925
 31
0.0
  0
SPLINE
  5
104
330
1F
100
AcDbEntity
  8
0
  6
HIDDEN
 62
     7
370
     0
100
AcDbSpline
210
0.0
220
0.0
230
1.0
 70
     8
 71
     3
 72
    14
 73
    10
 74
     0
 42
0.00000001
 43
0.00000001
 12
1.0
 22
0.0
 32
0.0
 13
1.0
 23
0.0
 33
0.0
 40
0.0
 40
0.0
 40
0.0
 40
0.0
 40
0.25
 40
0.25
 40
0.5
 40
0.5
 40
0.75
 40
0.75
 40
1.0
 40
1.0
 40
1.0
 40
1.0
 10
163.1369065683008
 20
122.2249961853141
 30
0.0
 10
163.2351309148038
 20
122.3979596151176
 30
0.0
 10
163.3104457527879
 20
122.582992169542
 30
0.0
 10
163.4114124629822
 20
122.9660043836765
 30
0.0
 10
163.4367880492724
 20
123.1607229371421
 30
0.0
 10
163.4370242745387
 20
123.5580982384077
 30
0.0
 10
163.4113212052032
 20
123.7555905728831
 30
0.0
 10
163.3110010916867
 20
124.1367624075141
 30
0.0
 10
163.235109263599
 20
124.3236342194867
 30
0.0
 10
163.1369065683054
 20
124.4965595236366
 30
0.0
  0
SPLINE
  5
105
330
1F
100
AcDbEntity
  8
0
  6
HIDDEN
 62
     7
370
     0
100
AcDbSpline
210
0.0
220
0.0
230
1.0
 70
     8
 71
     3
 72
    60
 73
    56
 74
     0
 42
0.00000001
 43
0.00000001
 12
1.0
 22
0.0
 32
0.0
 13
1.0
 23
0.0
 33
0.0
 40
0.0
 40
0.0
 40
0.0
 40
0.0
 40
0.0624999999999997
 40
0.0624999999999997
 40
0.1249999999999994
 40
0.1249999999999994
 40
0.1874999999999991
 40
0.1874999999999991
 40
0.2187499999999989
 40
0.2187499999999989
 40
0.2499999999999987
 40
0.2499999999999987
 40
0.3124999999999988
 40
0.3124999999999988
 40
0.3749999999999988
 40
0.3749999999999988
 40
0.4062499999999989
 40
0.4062499999999989
 40
0.437499999999999
 40
0.437499999999999
 40
0.4687499999999991
 40
0.4687499999999991
 40
0.4999999999999991
 40
0.4999999999999991
 40
0.5312499999999992
 40
0.5312499999999992
 40
0.5624999999999992
 40
0.5624999999999992
 40
0.5937499999999993
 40
0.5937499999999993
 40
0.6249999999999993
 40
0.6249999999999993
 40
0.6562499999999994
 40
0.6562499999999994
 40
0.6874999999999994
 40
0.6874999999999994
 40
0.7187499999999996
 40
0.7187499999999996
 40
0.7499999999999996
 40
0.7499999999999996
 40
0.7812499999999997
 40
0.7812499999999997
 40
0.8124999999999998
 40
0.8124999999999998
 40
0.8437499999999998
 40
0.8437499999999998
 40
0.8749999999999999
 40
0.8749999999999999
 40
0.9062499999999999
 40
0.9062499999999999
 40
0.9375
 40
0.9375
 40
0.96875
 40
0.96875
 40
1.0
 40
1.0
 40
1.0
 40
1.0
 10
163.1369065683008
 20
122.2249961853141
 30
0.0
 10
163.0117166667221
 20
122.0045490606985
 30
0.0
 10
162.8548493481539
 20
121.8108153318782
 30
0.0
 10
162.4778118283351
 20
121.4751256331157
 30
0.0
 10
162.2660985219142
 20
121.341148274803
 30
0.0
 10
161.8002085399654
 20
121.1440215301179
 30
0.0
 10
161.5543693089138
 20
121.084804117896
 30
0.0
 10
161.1748882558192
 20
121.0575973820053
 30
0.0
 10
161.0471425271253
 20
121.0590906471472
 30
0.0
 10
160.7966762804571
 20
121.0826064529561
 30
0.0
 10
160.6728468976489
 20
121.1045256717604
 30
0.0
 10
160.3056272235503
 20
121.2013622366053
 30
0.0
 10
160.0748582054646
 20
121.3051633580571
 30
0.0
 10
159.6549692440451
 20
121.5838818389851
 30
0.0
 10
159.4707108691575
 20
121.7554441304888
 30
0.0
 10
159.2399624816742
 20
122.0540914917556
 30
0.0
 10
159.1709156318852
 20
122.1605590322579
 30
0.0
 10
159.0523509680797
 20
122.3808423806508
 30
0.0
 10
159.0021425993301
 20
122.4955038970522
 30
0.0
 10
158.9203107469723
 20
122.734184533829
 30
0.0
 10
158.8889598480896
 20
122.8582301607071
 30
0.0
 10
158.847565470051
 20
123.1063451968155
 30
0.0
 10
158.8370596949867
 20
123.2315828993039
 30
0.0
 10
158.8367567426509
 20
123.484461954895
 30
0.0
 10
158.8472412722675
 20
123.6123416411316
 30
0.0
 10
158.888381349729
 20
123.860763702337
 30
0.0
 10
158.9189594702775
 20
123.9825626291054
 30
0.0
 10
159.0002421786288
 20
124.2213421585797
 30
0.0
 10
159.0512430651907
 20
124.3383837208864
 30
0.0
 10
159.1698101135538
 20
124.5592089188123
 30
0.0
 10
159.2376988668255
 20
124.6641472823751
 30
0.0
 10
159.3908493045632
 20
124.8631246156045
 30
0.0
 10
159.4764054761357
 20
124.9571327407986
 30
0.0
 10
159.6591168470949
 20
125.1276254257354
 30
0.0
 10
159.7569241467768
 20
125.2050636207847
 30
0.0
 10
159.9657272586938
 20
125.344229516673
 30
0.0
 10
160.0773094339816
 20
125.40601132568
 30
0.0
 10
160.3059552334806
 20
125.5090901962808
 30
0.0
 10
160.4239100444518
 20
125.5510942314765
 30
0.0
 10
160.6672384894405
 20
125.6158303527732
 30
0.0
 10
160.7935823647836
 20
125.6385036153359
 30
0.0
 10
161.0446883458014
 20
125.6623864115171
 30
0.0
 10
161.1703703395244
 20
125.6639897127837
 30
0.0
 10
161.4219924093161
 20
125.6465229740129
 30
0.0
 10
161.5488900296019
 20
125.6270870833729
 30
0.0
 10
161.7940805958631
 20
125.5684939120492
 30
0.0
 10
161.9132697528966
 20
125.5294310608926
 30
0.0
 10
162.1449547772514
 20
125.4319213387688
 30
0.0
 10
162.2581295816019
 20
125.3728859844802
 30
0.0
 10
162.4702079985376
 20
125.2390822676407
 30
0.0
 10
162.5699967772385
 20
125.164087051496
 30
0.0
 10
162.7572549642274
 20
124.9978919869751
 30
0.0
 10
162.8451500011708
 20
124.9059977882336
 30
0.0
 10
163.0033710768027
 20
124.7106335905193
 30
0.0
 10
163.0743090330943
 20
124.6067876368468
 30
0.0
 10
163.1369065683008
 20
124.4965595236342
 30
0.0
  0
SPLINE
  5
106
330
1F
100
AcDbEntity
  8
0
  6
HIDDEN
 62
     7
370
     0
100
AcDbSpline
210
0.0
220
0.0
230
1.0
 70
     8
 71
     3
 72
    60
 73
    56
 74
     0
 42
0.00000001
 43
0.00000001
 12
1.0
 22
0.0
 32
0.0
 13
1.0
 23
0.0
 33
0.0
 40
0.0
 40
0.0
 40
0.0
 40
0.0
 40
0.0624999999999999
 40
0.0624999999999999
 40
0.1249999999999999
 40
0.1249999999999999
 40
0.1874999999999998
 40
0.1874999999999998
 40
0.2187499999999998
 40
0.2187499999999998
 40
0.2499999999999998
 40
0.2499999999999998
 40
0.3125000000000001
 40
0.3125000000000001
 40
0.3750000000000004
 40
0.3750000000000004
 40
0.4062500000000004
 40
0.4062500000000004
 40
0.4375000000000004
 40
0.4375000000000004
 40
0.4687500000000003
 40
0.4687500000000003
 40
0.5000000000000003
 40
0.5000000000000003
 40
0.5312500000000003
 40
0.5312500000000003
 40
0.5625000000000002
 40
0.5625000000000002
 40
0.5937500000000002
 40
0.5937500000000002
 40
0.6250000000000002
 40
0.6250000000000002
 40
0.6562500000000002
 40
0.6562500000000002
 40
0.6875000000000001
 40
0.6875000000000001
 40
0.7187500000000001
 40
0.7187500000000001
 40
0.7500000000000001
 40
0.7500000000000001
 40
0.7812500000000001
 40
0.7812500000000001
 40
0.8125
 40
0.8125
 40
0.84375
 40
0.84375
 40
0.875
 40
0.875
 40
0.90625
 40
0.90625
 40
0.9374999999999999
 40
0.9374999999999999
 40
0.9687499999999999
 40
0.9687499999999999
 40
1.0
 40
1.0
 40
1.0
 40
1.0
 10
163.1369065683008
 20
124.4965595236342
 30
0.0
 10
163.0117166667221
 20
124.7170066482498
 30
0.0
 10
162.8548493481539
 20
124.9107403770701
 30
0.0
 10
162.4778118283351
 20
125.2464300758325
 30
0.0
 10
162.2660985219141
 20
125.3804074341453
 30
0.0
 10
161.8002085399654
 20
125.5775341788304
 30
0.0
 10
161.5543693089138
 20
125.6367515910523
 30
0.0
 10
161.1748882558192
 20
125.663958326943
 30
0.0
 10
161.0471425271253
 20
125.6624650618011
 30
0.0
 10
160.7966762804571
 20
125.6389492559921
 30
0.0
 10
160.6728468976489
 20
125.6170300371879
 30
0.0
 10
160.3056272235503
 20
125.520193472343
 30
0.0
 10
160.0748582054646
 20
125.4163923508912
 30
0.0
 10
159.6549692440451
 20
125.1376738699632
 30
0.0
 10
159.4707108691575
 20
124.9661115784595
 30
0.0
 10
159.2399624816742
 20
124.6674642171927
 30
0.0
 10
159.1709156318852
 20
124.5609966766904
 30
0.0
 10
159.0523509680797
 20
124.3407133282975
 30
0.0
 10
159.0021425993301
 20
124.226051811896
 30
0.0
 10
158.9203107469723
 20
123.9873711751193
 30
0.0
 10
158.8889598480896
 20
123.8633255482412
 30
0.0
 10
158.847565470051
 20
123.6152105121328
 30
0.0
 10
158.8370596949867
 20
123.4899728096444
 30
0.0
 10
158.8367567426509
 20
123.2370937540533
 30
0.0
 10
158.8472412722675
 20
123.1092140678167
 30
0.0
 10
158.888381349729
 20
122.8607920066113
 30
0.0
 10
158.9189594702775
 20
122.7389930798429
 30
0.0
 10
159.0002421786288
 20
122.5002135503686
 30
0.0
 10
159.0512430651907
 20
122.3831719880619
 30
0.0
 10
159.1698101135538
 20
122.162346790136
 30
0.0
 10
159.2376988668255
 20
122.0574084265732
 30
0.0
 10
159.3908493045632
 20
121.8584310933438
 30
0.0
 10
159.4764054761357
 20
121.7644229681497
 30
0.0
 10
159.6591168470949
 20
121.5939302832129
 30
0.0
 10
159.7569241467768
 20
121.5164920881636
 30
0.0
 10
159.9657272586937
 20
121.3773261922753
 30
0.0
 10
160.0773094339816
 20
121.3155443832683
 30
0.0
 10
160.3059552334806
 20
121.2124655126675
 30
0.0
 10
160.4239100444518
 20
121.1704614774718
 30
0.0
 10
160.6672384894405
 20
121.1057253561751
 30
0.0
 10
160.7935823647835
 20
121.0830520936124
 30
0.0
 10
161.0446883458014
 20
121.0591692974312
 30
0.0
 10
161.1703703395243
 20
121.0575659961646
 30
0.0
 10
161.4219924093161
 20
121.0750327349354
 30
0.0
 10
161.5488900296019
 20
121.0944686255754
 30
0.0
 10
161.7940805958631
 20
121.1530617968991
 30
0.0
 10
161.9132697528966
 20
121.1921246480557
 30
0.0
 10
162.1449547772514
 20
121.2896343701795
 30
0.0
 10
162.2581295816019
 20
121.3486697244681
 30
0.0
 10
162.4702079985376
 20
121.4824734413075
 30
0.0
 10
162.5699967772384
 20
121.5574686574523
 30
0.0
 10
162.7572549642274
 20
121.7236637219731
 30
0.0
 10
162.8451500011708
 20
121.8155579207147
 30
0.0
 10
163.0033710768027
 20
122.010922118429
 30
0.0
 10
163.0743090330943
 20
122.1147680721015
 30
0.0
 10
163.1369065683008
 20
122.2249961853141
 30
0.0
  0
LINE
  5
107
330
1F
100
AcDbEntity
  8
0
  6
HIDDEN
 62
     7
370
     0
100
AcDbLine
 10
164.5369063582
 20
129.6107779476
 30
0.0
 11
164.5369063582
 21
117.1107777613
 31
0.0
  0
LINE
  5
108
330
1F
100
AcDbEntity
  8
0
  6
HIDDEN
 62
     7
370
     0
100
AcDbLine
 10
163.6369069557
 20
116.2107778932
 30
0.0
 11
163.6369069557
 21
130.4982203278
 31
0.0
  0
LINE
  5
109
330
1F
100
AcDbEntity
  8
0
  6
HIDDEN
 62
     7
370
     0
100
AcDbLine
 10
189.6369074922
 20
129.6107779476
 30
0.0
 11
189.6369074922
 21
117.1107777613
 31
0.0
  0
SPLINE
  5
10A
330
1F
100
AcDbEntity
  8
0
  6
HIDDEN
 62
     7
370
     0
100
AcDbSpline
210
0.0
220
0.0
230
1.0
 70
     8
 71
     3
 72
    62
 73
    58
 74
     0
 42
0.00000001
 43
0.00000001
 12
1.0
 22
0.0
 32
0.0
 13
1.0
 23
0.0
 33
0.0
 40
-0.0312500000000001
 40
-0.0312500000000001
 40
0.0
 40
0.0
 40
0.0312499999999998
 40
0.0312499999999998
 40
0.0624999999999996
 40
0.0624999999999996
 40
0.0937499999999994
 40
0.0937499999999994
 40
0.1249999999999993
 40
0.1249999999999993
 40
0.1874999999999989
 40
0.1874999999999989
 40
0.2187499999999989
 40
0.2187499999999989
 40
0.2499999999999988
 40
0.2499999999999988
 40
0.2812499999999989
 40
0.2812499999999989
 40
0.312499999999999
 40
0.312499999999999
 40
0.3437499999999991
 40
0.3437499999999991
 40
0.3749999999999992
 40
0.3749999999999992
 40
0.4062499999999993
 40
0.4062499999999993
 40
0.4374999999999994
 40
0.4374999999999994
 40
0.4687499999999994
 40
0.4687499999999994
 40
0.4999999999999996
 40
0.4999999999999996
 40
0.5624999999999993
 40
0.5624999999999993
 40
0.5937499999999991
 40
0.5937499999999991
 40
0.6249999999999989
 40
0.6249999999999989
 40
0.687499999999999
 40
0.687499999999999
 40
0.7187499999999991
 40
0.7187499999999991
 40
0.7499999999999992
 40
0.7499999999999992
 40
0.7812499999999994
 40
0.7812499999999994
 40
0.8124999999999996
 40
0.8124999999999996
 40
0.8749999999999998
 40
0.8749999999999998
 40
0.9062499999999998
 40
0.9062499999999998
 40
0.9374999999999998
 40
0.9374999999999998
 40
0.9687499999999999
 40
0.9687499999999999
 40
1.0
 40
1.0
 40
1.03125
 40
1.03125
 10
186.5970650224991
 20
123.4007719215908
 30
0.0
 10
186.8767481141026
 20
123.4007719215908
 30
0.0
 10
187.0140320710601
 20
123.415469279162
 30
0.0
 10
187.2837678259115
 20
123.4726231389639
 30
0.0
 10
187.417649845007
 20
123.5158300987727
 30
0.0
 10
187.6713964034051
 20
123.6269668899562
 30
0.0
 10
187.7915820651477
 20
123.6945581063903
 30
0.0
 10
188.0190446566615
 20
123.8528268518988
 30
0.0
 10
188.1258598621231
 20
123.9435970575966
 30
0.0
 10
188.4141044594478
 20
124.2386135799956
 30
0.0
 10
188.570225158349
 20
124.4731230211313
 30
0.0
 10
188.7279406191912
 20
124.845685370541
 30
0.0
 10
188.7688498482988
 20
124.9756563451876
 30
0.0
 10
188.8232267533211
 20
125.2370025076938
 30
0.0
 10
188.8368142212106
 20
125.3672803179908
 30
0.0
 10
188.8369979861983
 20
125.6269017793985
 30
0.0
 10
188.8231119499921
 20
125.7571115584203
 30
0.0
 10
188.7690248654415
 20
126.004945129875
 30
0.0
 10
188.7290161093965
 20
126.1240113819004
 30
0.0
 10
188.6226698348142
 20
126.3528691368821
 30
0.0
 10
188.5574705598967
 20
126.4599322119613
 30
0.0
 10
188.4057631558585
 20
126.6579980452196
 30
0.0
 10
188.3179624812185
 20
126.7503378920113
 30
0.0
 10
188.1246245718552
 20
126.915716475575
 30
0.0
 10
188.0196761858436
 20
126.9886861165213
 30
0.0
 10
187.7929481758975
 20
127.1164138884358
 30
0.0
 10
187.6701764249155
 20
127.1712667529112
 30
0.0
 10
187.4174979526901
 20
127.2583539464986
 30
0.0
 10
187.2865169811894
 20
127.2913711617345
 30
0.0
 10
187.0147286099406
 20
127.3361752392399
 30
0.0
 10
186.8754949996064
 20
127.3474346382044
 30
0.0
 10
186.4623112168081
 20
127.3475730777911
 30
0.0
 10
186.1842354720933
 20
127.3023280667271
 30
0.0
 10
185.804166644062
 20
127.171506297732
 30
0.0
 10
185.6813984021199
 20
127.116668688128
 30
0.0
 10
185.4547122362336
 20
126.9890556977235
 30
0.0
 10
185.3495441276882
 20
126.9160211262704
 30
0.0
 10
185.058457631958
 20
126.667028227661
 30
0.0
 10
184.90452710973
 20
126.4675267939544
 30
0.0
 10
184.7450955069802
 20
126.1247655781181
 30
0.0
 10
184.7050943094247
 20
126.0059149688208
 30
0.0
 10
184.6509350884953
 20
125.7586114935849
 30
0.0
 10
184.6369121819459
 20
125.6285250020004
 30
0.0
 10
184.6369009581092
 20
125.3684425456795
 30
0.0
 10
184.6504419113082
 20
125.2380590186265
 30
0.0
 10
184.704659997918
 20
124.9767548432228
 30
0.0
 10
184.7455399525244
 20
124.8465748324459
 30
0.0
 10
184.9035080297002
 20
124.4731048867055
 30
0.0
 10
185.0595359870551
 20
124.238749139424
 30
0.0
 10
185.3482831063803
 20
123.9432800966901
 30
0.0
 10
185.4554979411093
 20
123.852279145946
 30
0.0
 10
185.6823513480592
 20
123.6945147144457
 30
0.0
 10
185.8023688602991
 20
123.626988813797
 30
0.0
 10
186.0561870677532
 20
123.5158187289955
 30
0.0
 10
186.1900541118046
 20
123.4726231012189
 30
0.0
 10
186.4597213536989
 20
123.4154801046413
 30
0.0
 10
186.5970650224991
 20
123.4007719215908
 30
0.0
 10
186.8767481141026
 20
123.4007719215908
 30
0.0
  0
LINE
  5
10B
330
1F
100
AcDbEntity
  8
0
  6
HIDDEN
 62
     7
370
     0
100
AcDbLine
 10
221.2155078988
 20
109.1601463254
 30
0.0
 11
221.2122482698
 21
109.1974076103
 31
0.0
  0
LINE
  5
10C
330
1F
100
AcDbEntity
  8
0
  6
HIDDEN
 62
     7
370
     0
100
AcDbLine
 10
211.7992182713
 20
109.9839654039
 30
0.0
 11
221.2155078988
 21
109.1601463254
 31
0.0
  0
LINE
  5
10D
330
1F
100
AcDbEntity
  8
0
  6
HIDDEN
 62
     7
370
     0
100
AcDbLine
 10
211.7992182713
 20
109.9839654039
 30
0.0
 11
211.7809941511
 21
110.022535197
 31
0.0
  0
LINE
  5
10E
330
1F
100
AcDbEntity
  8
0
  6
HIDDEN
 62
     7
370
     0
100
AcDbLine
 10
208.9751502018
 20
107.2166903164
 30
0.0
 11
209.0137181323
 21
107.1984680589
 31
0.0
  0
LINE
  5
10F
330
1F
100
AcDbEntity
  8
0
  6
HIDDEN
 62
     7
370
     0
100
AcDbLine
 10
209.8436755579
 20
97.7120032753
 30
0.0
 11
209.0137181323
 21
107.1984680589
 31
0.0
  0
LINE
  5
110
330
1F
100
AcDbEntity
  8
0
  6
HIDDEN
 62
     7
370
     0
100
AcDbLine
 10
209.8436755579
 20
97.7120032753
 30
0.0
 11
209.8117907982
 21
97.7147916551
 31
0.0
  0
ARC
  5
111
330
1F
100
AcDbEntity
  8
0
  6
HIDDEN
 62
     7
370
     0
100
AcDbCircle
 10
209.8914434543
 20
109.1062409684
 30
0.0
 40
2.099999999999998
100
AcDbArc
 50
17.3926878054
 51
24.7061105485
  0
LINE
  5
112
330
1F
100
AcDbEntity
  8
0
  6
HIDDEN
 62
     7
370
     0
100
AcDbLine
 10
220.993365113
 20
108.9380044709
 30
0.0
 11
221.2155078988
 21
109.1601463254
 31
0.0
  0
LINE
  5
113
330
1F
100
AcDbEntity
  8
0
  6
HIDDEN
 62
     7
370
     0
100
AcDbLine
 10
220.993365113
 20
108.9380044709
 30
0.0
 11
211.8954276185
 21
109.7339704852
 31
0.0
  0
LINE
  5
114
330
1F
100
AcDbEntity
  8
0
  6
HIDDEN
 62
     7
370
     0
100
AcDbLine
 10
217.8861563544
 20
118.757150251
 30
0.0
 11
220.2990455072
 21
119.6353697437
 31
0.0
  0
LINE
  5
115
330
1F
100
AcDbEntity
  8
0
  6
HIDDEN
 62
     7
370
     0
100
AcDbLine
 10
209.2637149136
 20
107.102256849
 30
0.0
 11
210.0712200146
 21
97.8724217261
 31
0.0
  0
ELLIPSE
  5
116
330
1F
100
AcDbEntity
  8
0
  6
HIDDEN
 62
     7
370
     0
100
AcDbEllipse
 10
207.4726985081
 20
122.9809804273
 30
0.0
 11
-2.27915992107944
 21
25.28902401117139
 31
0.0
210
0.0
220
0.0
230
1.0
 40
0.1208634283
 41
3.17198195105861
 42
3.250730901668546
  0
ARC
  5
117
330
1F
100
AcDbEntity
  8
0
  6
HIDDEN
 62
     7
370
     0
100
AcDbCircle
 10
209.8914434543
 20
109.1062409684
 30
0.0
 40
2.100000000000007
100
AcDbArc
 50
245.2938894515
 51
252.6073121946
  0
ELLIPSE
  5
118
330
1F
100
AcDbEntity
  8
0
  6
HIDDEN
 62
     7
370
     0
100
AcDbEllipse
 10
217.7354538008
 20
123.3607778545
 30
0.0
 11
-14.53612138737915
 21
20.44831832899456
 31
0.0
210
0.0
220
0.0
230
1.0
 40
0.1000778042
 41
6.226797203179058
 42
7.782958861244828
  0
LINE
  5
119
330
1F
100
AcDbEntity
  8
0
  6
HIDDEN
 62
     7
370
     0
100
AcDbLine
 10
195.7356044542
 20
143.8585823621
 30
0.0
 11
195.7356044542
 21
123.3607778545
 31
0.0
  0
SPLINE
  5
11A
330
1F
100
AcDbEntity
  8
0
  6
HIDDEN
 62
     7
370
     0
100
AcDbSpline
210
0.0
220
0.0
230
1.0
 70
     8
 71
     3
 72
    20
 73
    16
 74
     0
 42
0.00000001
 43
0.00000001
 12
1.0
 22
0.0
 32
0.0
 13
1.0
 23
0.0
 33
0.0
 40
0.0
 40
0.0
 40
0.0
 40
0.0
 40
0.2500000000000004
 40
0.2500000000000004
 40
0.3125000000000004
 40
0.3125000000000004
 40
0.3750000000000003
 40
0.3750000000000003
 40
0.5000000000000002
 40
0.5000000000000002
 40
0.6250000000000002
 40
0.6250000000000002
 40
0.7500000000000001
 40
0.7500000000000001
 40
1.0
 40
1.0
 40
1.0
 40
1.0
 10
196.6756747094479
 20
111.1195157796709
 30
0.0
 10
196.6781754699463
 20
109.3375286901457
 30
0.0
 10
196.684192086803
 20
107.7205937499808
 30
0.0
 10
196.6957457020315
 20
105.8992270940209
 30
0.0
 10
196.698260681076
 20
105.5450867878552
 30
0.0
 10
196.7037004922191
 20
104.8574890737765
 30
0.0
 10
196.7066348020641
 20
104.5232145122411
 30
0.0
 10
196.7159326483127
 20
103.5647046231597
 30
0.0
 10
196.7228128705497
 20
102.9808324638418
 30
0.0
 10
196.7378410574075
 20
101.9203857289375
 30
0.0
 10
196.7459891994638
 20
101.4438150025215
 30
0.0
 10
196.7635180391429
 20
100.5999174014692
 30
0.0
 10
196.7729556838761
 20
100.2315372305802
 30
0.0
 10
196.8023738838243
 20
99.32077748401422
 30
0.0
 10
196.8235895901549
 20
98.95915782112178
 30
0.0
 10
196.8462917531995
 20
98.84912669140165
 30
0.0
  0
LINE
  5
11B
330
1F
100
AcDbEntity
  8
0
  6
HIDDEN
 62
     7
370
     0
100
AcDbLine
 10
220.6828547161
 20
108.9651702191
 30
0.0
 11
220.993365113
 21
108.9380044709
 31
0.0
  0
LWPOLYLINE
  5
11C
330
1F
100
AcDbEntity
  8
0
  6
HIDDEN
 62
     7
370
     0
100
AcDbPolyline
 90
        4
 70
   128
 43
0.0
 10
210.030584548
 20
98.3368667062
 10
210.0466293733
 20
98.1534948792
 10
210.0601782541
 20
97.9986215229
 10
210.0712200146
 20
97.8724217261
  0
SPLINE
  5
11D
330
1F
100
AcDbEntity
  8
0
  6
HIDDEN
 62
     7
370
     0
100
AcDbSpline
210
0.0
220
0.0
230
1.0
 70
     8
 71
     3
 72
     8
 73
     4
 74
     0
 42
0.00000001
 43
0.00000001
 12
1.0
 22
0.0
 32
0.0
 13
1.0
 23
0.0
 33
0.0
 40
0.0
 40
0.0
 40
0.0
 40
0.0
 40
1.0
 40
1.0
 40
1.0
 40
1.0
 10
171.3155862247412
 20
137.1858418624793
 30
0.0
 10
171.2504810631271
 20
137.1741208328207
 30
0.0
 10
171.1925937335672
 20
137.145616686958
 30
0.0
 10
171.1418665903612
 20
137.0998623856342
 30
0.0
  0
LINE
  5
11E
330
1F
100
AcDbEntity
  8
0
  6
HIDDEN
 62
     7
370
     0
100
AcDbLine
 10
170.9369065458
 20
137.3808762278
 30
0.0
 11
170.9369065458
 21
137.2810142334
 31
0.0
  0
SPLINE
  5
11F
330
1F
100
AcDbEntity
  8
0
  6
HIDDEN
 62
     7
370
     0
100
AcDbSpline
210
0.0
220
0.0
230
1.0
 70
     8
 71
     3
 72
    24
 73
    20
 74
     0
 42
0.00000001
 43
0.00000001
 12
1.0
 22
0.0
 32
0.0
 13
1.0
 23
0.0
 33
0.0
 40
0.0
 40
0.0
 40
0.0
 40
0.0
 40
0.2500000000000113
 40
0.2500000000000113
 40
0.3750000000000166
 40
0.3750000000000166
 40
0.4375000000000184
 40
0.4375000000000184
 40
0.5000000000000202
 40
0.5000000000000202
 40
0.5312500000000198
 40
0.5312500000000198
 40
0.5625000000000192
 40
0.5625000000000192
 40
0.6250000000000171
 40
0.6250000000000171
 40
0.7500000000000127
 40
0.7500000000000127
 40
1.0
 40
1.0
 40
1.0
 40
1.0
 10
171.1418665903612
 20
137.0998623856341
 30
0.0
 10
171.1261000020629
 20
137.0856414146459
 30
0.0
 10
171.1094884691082
 20
137.071411124311
 30
0.0
 10
171.0809621211502
 20
137.0526140690896
 30
0.0
 10
171.0708766873602
 20
137.0467256487483
 30
0.0
 10
171.0533939168253
 20
137.040188253946
 30
0.0
 10
171.0471862603798
 20
137.0383770399448
 30
0.0
 10
171.0329147601346
 20
137.0367712374383
 30
0.0
 10
171.0253446896315
 20
137.0362184600522
 30
0.0
 10
171.0079483601962
 20
137.043417204765
 30
0.0
 10
170.9994890872362
 20
137.0485089535127
 30
0.0
 10
170.9834281226886
 20
137.0663238859918
 30
0.0
 10
170.9785948868423
 20
137.0748463008542
 30
0.0
 10
170.9671689671071
 20
137.096742737503
 30
0.0
 10
170.9631476112246
 20
137.1084832603089
 30
0.0
 10
170.9523871161935
 20
137.1425335242622
 30
0.0
 10
170.9485128071326
 20
137.1621085132909
 30
0.0
 10
170.9393399350054
 20
137.2179568219721
 30
0.0
 10
170.9373075642907
 20
137.250734583001
 30
0.0
 10
170.9369065683008
 20
137.2810142427889
 30
0.0
  0
LINE
  5
120
330
1F
100
AcDbEntity
  8
0
  6
HIDDEN
 62
     7
370
     0
100
AcDbLine
 10
150.1369056742
 20
136.8583083372
 30
0.0
 11
150.1369056742
 21
133.0183889936
 31
0.0
  0
LINE
  5
121
330
1F
100
AcDbEntity
  8
0
  6
HIDDEN
 62
     7
370
     0
100
AcDbLine
 10
170.9369065458
 20
134.3348162468
 30
0.0
 11
170.9369065458
 21
133.2796734045
 31
0.0
  0
SPLINE
  5
122
330
1F
100
AcDbEntity
  8
0
  6
HIDDEN
 62
     7
370
     0
100
AcDbSpline
210
0.0
220
0.0
230
1.0
 70
     8
 71
     3
 72
    16
 73
    12
 74
     0
 42
0.00000001
 43
0.00000001
 12
1.0
 22
0.0
 32
0.0
 13
1.0
 23
0.0
 33
0.0
 40
0.0
 40
0.0
 40
0.0
 40
0.0
 40
0.2500000000000002
 40
0.2500000000000002
 40
0.3750000000000003
 40
0.3750000000000003
 40
0.5000000000000004
 40
0.5000000000000004
 40
0.7500000000000002
 40
0.7500000000000002
 40
1.0
 40
1.0
 40
1.0
 40
1.0
 10
170.9369065683007
 20
137.281014242789
 30
0.0
 10
170.8563692364013
 20
137.2009455566367
 30
0.0
 10
170.7963318923741
 20
137.0770810651464
 30
0.0
 10
170.7355941852204
 20
136.8264002412143
 30
0.0
 10
170.7202718101075
 20
136.7319616369048
 30
0.0
 10
170.6996890008033
 20
136.5206505692861
 30
0.0
 10
170.6944894037776
 20
136.4033611145325
 30
0.0
 10
170.6944357505975
 20
136.0253254427772
 30
0.0
 10
170.7146332940752
 20
135.7365482890332
 30
0.0
 10
170.7953113824332
 20
135.0867084258943
 30
0.0
 10
170.8563575470407
 20
134.7238794920016
 30
0.0
 10
170.9369065682988
 20
134.3348158467299
 30
0.0
  0
LINE
  5
123
330
1F
100
AcDbEntity
  8
0
  6
HIDDEN
 62
     7
370
     0
100
AcDbLine
 10
148.6369063597
 20
135.9922826509
 30
0.0
 11
148.6369063597
 21
132.5853761505
 31
0.0
  0
SPLINE
  5
124
330
1F
100
AcDbEntity
  8
0
  6
HIDDEN
 62
     7
370
     0
100
AcDbSpline
210
0.0
220
0.0
230
1.0
 70
     8
 71
     3
 72
     8
 73
     4
 74
     0
 42
0.00000001
 43
0.00000001
 12
1.0
 22
0.0
 32
0.0
 13
1.0
 23
0.0
 33
0.0
 40
0.0
 40
0.0
 40
0.0
 40
0.0
 40
1.0
 40
1.0
 40
1.0
 40
1.0
 10
171.1418665903584
 20
109.6216933233166
 30
0.0
 10
171.1925937335651
 20
109.5759390219913
 30
0.0
 10
171.250481063126
 20
109.5474348761278
 30
0.0
 10
171.3155862247412
 20
109.535713846469
 30
0.0
  0
LINE
  5
125
330
1F
100
AcDbEntity
  8
0
  6
HIDDEN
 62
     7
370
     0
100
AcDbLine
 10
170.9369065458
 20
109.4405414756
 30
0.0
 11
170.9369065458
 21
109.3406794812
 31
0.0
  0
SPLINE
  5
126
330
1F
100
AcDbEntity
  8
0
  6
HIDDEN
 62
     7
370
     0
100
AcDbSpline
210
0.0
220
0.0
230
1.0
 70
     8
 71
     3
 72
    24
 73
    20
 74
     0
 42
0.00000001
 43
0.00000001
 12
1.0
 22
0.0
 32
0.0
 13
1.0
 23
0.0
 33
0.0
 40
0.0
 40
0.0
 40
0.0
 40
0.0
 40
0.2499999999999977
 40
0.2499999999999977
 40
0.3749999999999974
 40
0.3749999999999974
 40
0.4374999999999983
 40
0.4374999999999983
 40
0.4687499999999997
 40
0.4687499999999997
 40
0.500000000000001
 40
0.500000000000001
 40
0.5625000000000007
 40
0.5625000000000007
 40
0.6250000000000003
 40
0.6250000000000003
 40
0.7500000000000001
 40
0.7500000000000001
 40
1.0
 40
1.0
 40
1.0
 40
1.0
 10
170.9369065683008
 20
109.4405414661667
 30
0.0
 10
170.9373094789366
 20
109.4709657030047
 30
0.0
 10
170.9393534582772
 20
109.5038238035589
 30
0.0
 10
170.9485907011033
 20
109.5598491707124
 30
0.0
 10
170.9524777640838
 20
109.5794602238979
 30
0.0
 10
170.9633816554904
 20
109.6137345073274
 30
0.0
 10
170.9675237012409
 20
109.6257969327996
 30
0.0
 10
170.9794187749936
 20
109.6481160974991
 30
0.0
 10
170.9846658393024
 20
109.6570826098594
 30
0.0
 10
171.0015329056815
 20
109.6747321743857
 30
0.0
 10
171.0093553132066
 20
109.6788764585255
 30
0.0
 10
171.0263041138282
 20
109.6853639996995
 30
0.0
 10
171.0337604650462
 20
109.6847671183278
 30
0.0
 10
171.0478203682386
 20
109.6830208543558
 30
0.0
 10
171.0539527533746
 20
109.6811901664573
 30
0.0
 10
171.0712475158978
 20
109.6746237568845
 30
0.0
 10
171.0812648343067
 20
109.6687585417258
 30
0.0
 10
171.1096361685495
 20
109.6500138576955
 30
0.0
 10
171.126171606194
 20
109.6358497096088
 30
0.0
 10
171.1418665903585
 20
109.6216933233166
 30
0.0
  0
LINE
  5
127
330
1F
100
AcDbEntity
  8
0
  6
HIDDEN
 62
     7
370
     0
100
AcDbLine
 10
170.9369065458
 20
113.4418823044
 30
0.0
 11
170.9369065458
 21
112.3867394622
 31
0.0
  0
LINE
  5
128
330
1F
100
AcDbEntity
  8
0
  6
HIDDEN
 62
     7
370
     0
100
AcDbLine
 10
150.1369056742
 20
113.7031667154
 30
0.0
 11
150.1369056742
 21
109.8632473718
 31
0.0
  0
SPLINE
  5
129
330
1F
100
AcDbEntity
  8
0
  6
HIDDEN
 62
     7
370
     0
100
AcDbSpline
210
0.0
220
0.0
230
1.0
 70
     8
 71
     3
 72
    16
 73
    12
 74
     0
 42
0.00000001
 43
0.00000001
 12
1.0
 22
0.0
 32
0.0
 13
1.0
 23
0.0
 33
0.0
 40
0.0
 40
0.0
 40
0.0
 40
0.0
 40
0.2499999999999999
 40
0.2499999999999999
 40
0.3750000000000002
 40
0.3750000000000002
 40
0.5000000000000006
 40
0.5000000000000006
 40
0.7500000000000002
 40
0.7500000000000002
 40
1.0
 40
1.0
 40
1.0
 40
1.0
 10
170.9369065683007
 20
112.3867398622277
 30
0.0
 10
170.8563692364015
 20
111.9977326782838
 30
0.0
 10
170.7963318923742
 20
111.6412322366594
 30
0.0
 10
170.7355941852206
 20
111.1547298514721
 30
0.0
 10
170.7202718101077
 20
111.0006509106186
 30
0.0
 10
170.6996890008034
 20
110.7091813521259
 30
0.0
 10
170.6944894037777
 20
110.5716114682271
 30
0.0
 10
170.6944357505974
 20
110.1933666330378
 30
0.0
 10
170.7146332940749
 20
109.9834855644857
 30
0.0
 10
170.7953113824323
 20
109.6469062655739
 30
0.0
 10
170.8563575470393
 20
109.5206217736554
 30
0.0
 10
170.936906568297
 20
109.4405414661629
 30
0.0
  0
LINE
  5
12A
330
1F
100
AcDbEntity
  8
0
  6
HIDDEN
 62
     7
370
     0
100
AcDbLine
 10
148.6369063597
 20
114.1361795585
 30
0.0
 11
148.6369063597
 21
110.729273058
 31
0.0
  0
SPLINE
  5
12B
330
1F
100
AcDbEntity
  8
0
  6
HIDDEN
 62
     7
370
     0
100
AcDbSpline
210
0.0
220
0.0
230
1.0
 70
     8
 71
     3
 72
    50
 73
    46
 74
     0
 42
0.00000001
 43
0.00000001
 12
1.0
 22
0.0
 32
0.0
 13
1.0
 23
0.0
 33
0.0
 40
0.0
 40
0.0
 40
0.0
 40
0.0
 40
0.0232141021301519
 40
0.0459266276070316
 40
0.0681375757554562
 40
0.0898469459333261
 40
0.111054737532916
 40
0.1317609499823357
 40
0.1519655827471898
 40
0.1716686353324173
 40
0.1908701072843915
 40
0.2095699981932994
 40
0.2277683076958389
 40
0.2454650354783214
 40
0.262660181280193
 40
0.2793537448981137
 40
0.2955457261906538
 40
0.311236125083749
 40
0.3264249415770477
 40
0.341112175751348
 40
0.3552978277773455
 40
0.3689818979259928
 40
0.3821643865808161
 40
0.3948452942526858
 40
0.4070246215976026
 40
0.4187023694383366
 40
0.4298785387908894
 40
0.4405531308971957
 40
0.4507261472658736
 40
0.4603975897235519
 40
0.4695674604802217
 40
0.4782357622135102
 40
0.4864024981788149
 40
0.4940676723554775
 40
0.5012312896441323
 40
0.5571989779332657
 40
0.6118112703146213
 40
0.6650687740683101
 40
0.7169721455095721
 40
0.7675220951814845
 40
0.816719393754747
 40
0.8645648787525614
 40
0.9110594622421276
 40
0.956204139663199
 40
1.0
 40
1.0
 40
1.0
 40
1.0
 10
218.2543824834846
 20
109.2316141003051
 30
0.0
 10
218.2753973918713
 20
109.0965267609461
 30
0.0
 10
218.3169731489805
 20
108.8292708535507
 30
0.0
 10
218.3790866576736
 20
108.4382901145226
 30
0.0
 10
218.4401393268004
 20
108.0599536161668
 30
0.0
 10
218.5001456773534
 20
107.6944676050822
 30
0.0
 10
218.5590817379629
 20
107.3415476320624
 30
0.0
 10
218.6169325009635
 20
107.0010248392507
 30
0.0
 10
218.6736797539012
 20
106.6726903358481
 30
0.0
 10
218.7293053444193
 20
106.3563367947856
 30
0.0
 10
218.7837904480938
 20
106.0517489774188
 30
0.0
 10
218.8371158651522
 20
105.7587074104488
 30
0.0
 10
218.8892620471798
 20
105.4769886170096
 30
0.0
 10
218.9402091892424
 20
105.2063661881478
 30
0.0
 10
218.9899373009402
 20
104.9466115894918
 30
0.0
 10
219.0384262787397
 20
104.6974949885835
 30
0.0
 10
219.0856559738994
 20
104.4587860301236
 30
0.0
 10
219.1316062575266
 20
104.2302545786802
 30
0.0
 10
219.1762570824558
 20
104.0116714247625
 30
0.0
 10
219.2195885421197
 20
103.8028089563033
 30
0.0
 10
219.2615809264671
 20
103.6034417960819
 30
0.0
 10
219.3022147750235
 20
103.4133474060539
 30
0.0
 10
219.341470927159
 20
103.2323066594863
 30
0.0
 10
219.3793305697484
 20
103.0601043818432
 30
0.0
 10
219.4157752819968
 20
102.8965298613811
 30
0.0
 10
219.4507870786959
 20
102.7413773304215
 30
0.0
 10
219.4843484479501
 20
102.5944464182775
 30
0.0
 10
219.5164423977645
 20
102.4555425768037
 30
0.0
 10
219.5470524618854
 20
102.3244774795474
 30
0.0
 10
219.5761628379798
 20
102.2010693954192
 30
0.0
 10
219.6037580594656
 20
102.0851435379604
 30
0.0
 10
219.6298242673105
 20
101.9765323906467
 30
0.0
 10
219.6543449854591
 20
101.8750760107764
 30
0.0
 10
219.677315658664
 20
101.7806223071532
 30
0.0
 10
219.7477430703907
 20
101.4920615926428
 30
0.0
 10
219.8646489918202
 20
101.0280258668521
 30
0.0
 10
220.0273795942698
 20
100.4225901899861
 30
0.0
 10
220.1857709187796
 20
99.87157379635167
 30
0.0
 10
220.3397042566884
 20
99.37304243781618
 30
0.0
 10
220.4889848391377
 20
98.92488533881425
 30
0.0
 10
220.6334195256501
 20
98.52497119771837
 30
0.0
 10
220.7728245160646
 20
98.17078425068884
 30
0.0
 10
220.9069352393064
 20
97.86080382250759
 30
0.0
 10
221.0357549275619
 20
97.589671757603
 30
0.0
 10
221.1187177239206
 20
97.43794382170793
 30
0.0
 10
221.1595700409187
 20
97.36323035968975
 30
0.0
  0
SPLINE
  5
12C
330
1F
100
AcDbEntity
  8
0
  6
HIDDEN
 62
     7
370
     0
100
AcDbSpline
210
0.0
220
0.0
230
1.0
 70
     8
 71
     3
 72
    38
 73
    34
 74
     0
 42
0.00000001
 43
0.00000001
 12
1.0
 22
0.0
 32
0.0
 13
1.0
 23
0.0
 33
0.0
 40
0.0
 40
0.0
 40
0.0
 40
0.0
 40
0.0248359117530898
 40
0.0496174257889727
 40
0.0743553423110517
 40
0.0990605187005319
 40
0.1237438555425514
 40
0.1484162823692172
 40
0.1730887432115619
 40
0.1977721820553736
 40
0.2224775282973238
 40
0.2472156822978223
 40
0.2719975011255318
 40
0.2968337845855374
 40
0.3217352616188654
 40
0.3467125771554934
 40
0.3717762794963387
 40
0.396936808292133
 40
0.4222044831787701
 40
0.4475894931198527
 40
0.473101886497979
 40
0.4987515619869773
 40
0.5453113012356297
 40
0.5914855662957369
 40
0.6373348111195665
 40
0.682920782756966
 40
0.72830630282088
 40
0.7735550278300334
 40
0.8187311925695498
 40
0.8638993413950854
 40
0.9091240529830592
 40
0.9544696643499924
 40
1.0
 40
1.0
 40
1.0
 40
1.0
 10
221.6538646199713
 20
97.86455662771505
 30
0.0
 10
221.6298827358846
 20
97.90667141985199
 30
0.0
 10
221.5819714948646
 20
97.99080876074153
 30
0.0
 10
221.5094728056422
 20
98.12995333376887
 30
0.0
 10
221.4366266974995
 20
98.27837930118599
 30
0.0
 10
221.3633810600904
 20
98.43702174443007
 30
0.0
 10
221.2897498730954
 20
98.60563066357273
 30
0.0
 10
221.2157294501062
 20
98.78427284265824
 30
0.0
 10
221.1413208323524
 20
98.9729302909757
 30
0.0
 10
221.0665237967877
 20
99.17160768093811
 30
0.0
 10
220.9913384597904
 20
99.38030358539065
 30
0.0
 10
220.9157648470245
 20
99.59901818496819
 30
0.0
 10
220.8398030082365
 20
99.82775120400505
 30
0.0
 10
220.7634529860181
 20
100.0665024663242
 30
0.0
 10
220.686714823532
 20
100.3152717496719
 30
0.0
 10
220.6095885626907
 20
100.5740588237573
 30
0.0
 10
220.5320742416126
 20
100.8428634574337
 30
0.0
 10
220.4541719047732
 20
101.1216853655046
 30
0.0
 10
220.3758815630176
 20
101.4105244298776
 30
0.0
 10
220.2972033427801
 20
101.7093798774949
 30
0.0
 10
220.2181369242284
 20
102.0182533821056
 30
0.0
 10
220.1172476094684
 20
102.42317052106
 30
0.0
 10
219.9951628183924
 20
102.9313283780658
 30
0.0
 10
219.8526540149795
 20
103.5526056876521
 30
0.0
 10
219.711740309098
 20
104.1953504906824
 30
0.0
 10
219.572423356334
 20
104.8595578907328
 30
0.0
 10
219.4347039858918
 20
105.5452288178825
 30
0.0
 10
219.2985820446201
 20
106.2523523964754
 30
0.0
 10
219.1640623139951
 20
106.9809543603802
 30
0.0
 10
219.0311309136662
 20
107.7309215609364
 30
0.0
 10
218.8998436599975
 20
108.5026562963335
 30
0.0
 10
218.7699952966788
 20
109.2946293233237
 30
0.0
 10
218.6851165365521
 20
109.838555300302
 30
0.0
 10
218.6425908896127
 20
110.1110711101891
 30
0.0
  0
CIRCLE
  5
12D
330
1F
100
AcDbEntity
  8
0
  6
HIDDEN
 62
     7
370
     0
100
AcDbCircle
 10
215.611770366
 20
103.3859140568
 30
0.0
 40
2.599999999999994
  0
LINE
  5
12E
330
1F
100
AcDbEntity
  8
0
  6
HIDDEN
 62
     7
370
     0
100
AcDbLine
 10
221.1593752246
 20
97.3577598329
 30
0.0
 11
221.6541384797
 21
97.8642912801
 31
0.0
  0
LINE
  5
12F
330
1F
100
AcDbEntity
  8
0
  6
HIDDEN
 62
     7
370
     0
100
AcDbLine
 10
210.030584548
 20
98.3368667062
 30
0.0
 11
209.2637149136
 21
107.102256849
 31
0.0
  0
LINE
  5
130
330
1F
100
AcDbEntity
  8
0
  6
HIDDEN
 62
     7
370
     0
100
AcDbLine
 10
211.8954276185
 20
109.7339704852
 30
0.0
 11
220.6828547161
 21
108.9651702191
 31
0.0
  0
LINE
  5
131
330
1F
100
AcDbEntity
  8
0
  6
HIDDEN
 62
     7
370
     0
100
AcDbLine
 10
210.030584548
 20
98.3368667062
 30
0.0
 11
221.1588313322
 21
97.3632713999
 31
0.0
  0
ARC
  5
132
330
1F
100
AcDbEntity
  8
0
  6
HIDDEN
 62
     7
370
     0
100
AcDbCircle
 10
209.8914434543
 20
109.1062409684
 30
0.0
 40
2.100000000000012
100
AcDbArc
 50
252.6073121946
 51
17.3926878054
  0
LINE
  5
133
330
1F
100
AcDbEntity
  8
0
  6
HIDDEN
 62
     7
370
     0
100
AcDbLine
 10
220.6828547161
 20
108.9651702191
 30
0.0
 11
221.6540304463
 21
97.8645706768
 31
0.0
  0
LWPOLYLINE
  5
134
330
1F
100
AcDbEntity
  8
0
  6
HIDDEN
 62
     7
370
     0
100
AcDbPolyline
 90
       30
 70
   128
 43
0.0
 10
186.7369068306
 20
126.0935027371
 10
187.1883440282
 20
126.1396388277
 10
187.618673731
 20
126.2758892249
 10
188.0077728521
 20
126.4958834495
 10
188.3374461423
 20
126.789334578
 10
188.5922820758
 20
127.1425214349
 10
188.7603615861
 20
127.5389288771
 10
188.8338261734
 20
127.9600221883
 10
188.8092429828
 20
128.3861106481
 10
188.6877575408
 20
128.7972709383
 10
188.475052778
 20
129.1742782328
 10
188.1810752194
 20
129.4995039921
 10
187.8195693236
 20
129.7577401842
 10
187.4074395265
 20
129.9369131434
 10
186.963956755
 20
130.0286437604
 10
186.5098569061
 20
130.0286437604
 10
186.0663732033
 20
129.9369131434
 10
185.6542434062
 20
129.7577401842
 10
185.2927375104
 20
129.4995039921
 10
184.9987599518
 20
129.1742782328
 10
184.786055189
 20
128.7972709383
 10
184.6645706784
 20
128.3861106481
 10
184.6399865564
 20
127.9600221883
 10
184.7134511437
 20
127.5389288771
 10
184.8815315853
 20
127.1425214349
 10
185.1363665875
 20
126.789334578
 10
185.466040809
 20
126.4958834495
 10
185.8551389988
 20
126.2758892249
 10
186.2854687016
 20
126.1396388277
 10
186.7369068306
 20
126.0935027371
  0
CIRCLE
  5
135
330
1F
100
AcDbEntity
  8
0
  6
HIDDEN
 62
     7
370
     0
100
AcDbCircle
 10
215.611770366
 20
103.3859140568
 30
0.0
 40
2.099999999999994
  0
CIRCLE
  5
136
330
1F
100
AcDbEntity
  8
0
  6
HIDDEN
 62
     7
370
     0
100
AcDbCircle
 10
209.8914434543
 20
109.1062409684
 30
0.0
 40
2.099999999999994
  0
SPLINE
  5
137
330
1F
100
AcDbEntity
  8
0
  6
HIDDEN
 62
     7
370
     0
100
AcDbSpline
210
0.0
220
0.0
230
1.0
 70
     8
 71
     3
 72
    42
 73
    38
 74
     0
 42
0.00000001
 43
0.00000001
 12
1.0
 22
0.0
 32
0.0
 13
1.0
 23
0.0
 33
0.0
 40
0.0
 40
0.0
 40
0.0
 40
0.0
 40
0.0624999999999999
 40
0.0624999999999999
 40
0.1249999999999998
 40
0.1249999999999998
 40
0.1874999999999998
 40
0.1874999999999998
 40
0.2499999999999997
 40
0.2499999999999997
 40
0.3124999999999996
 40
0.3124999999999996
 40
0.3749999999999995
 40
0.3749999999999995
 40
0.4374999999999994
 40
0.4374999999999994
 40
0.4687499999999995
 40
0.4687499999999995
 40
0.4999999999999996
 40
0.4999999999999996
 40
0.5312499999999997
 40
0.5312499999999997
 40
0.5624999999999997
 40
0.5624999999999997
 40
0.6249999999999998
 40
0.6249999999999998
 40
0.6875
 40
0.6875
 40
0.7500000000000001
 40
0.7500000000000001
 40
0.8125000000000002
 40
0.8125000000000002
 40
0.8750000000000003
 40
0.8750000000000003
 40
0.9375000000000002
 40
0.9375000000000002
 40
1.0
 40
1.0
 40
1.0
 40
1.0
 10
214.0122935483069
 20
104.7466763099668
 30
0.0
 10
213.8796599283567
 20
104.5907751598139
 30
0.0
 10
213.7787019954081
 20
104.4271288248833
 30
0.0
 10
213.6248184932354
 20
104.0903926582284
 30
0.0
 10
213.5726667878223
 20
103.9169640993277
 30
0.0
 10
213.5132356196672
 20
103.5759389726718
 30
0.0
 10
213.5051196820759
 20
103.4065505082315
 30
0.0
 10
213.5287910540603
 20
103.0703191372466
 30
0.0
 10
213.5610317213182
 20
102.903373166373
 30
0.0
 10
213.6641701095503
 20
102.5826532393744
 30
0.0
 10
213.7349242740869
 20
102.4274099187556
 30
0.0
 10
213.9216793249695
 20
102.1269963833945
 30
0.0
 10
214.0383163360883
 20
101.9813429012378
 30
0.0
 10
214.326065516333
 20
101.7139269890181
 30
0.0
 10
214.4988259752822
 20
101.5900485076586
 30
0.0
 10
214.8128289077418
 20
101.4403711715902
 30
0.0
 10
214.9276552066573
 20
101.3964807989876
 30
0.0
 10
215.170301187736
 20
101.3289835273038
 30
0.0
 10
215.3008526863725
 20
101.3049841076312
 30
0.0
 10
215.5601831100577
 20
101.2825172773327
 30
0.0
 10
215.6929811426764
 20
101.2837035404862
 30
0.0
 10
215.9438233798502
 20
101.3085058058448
 30
0.0
 10
216.0648042546806
 20
101.3321116976114
 30
0.0
 10
216.3986047678395
 20
101.4252338270078
 30
0.0
 10
216.5909082900461
 20
101.5179089848358
 30
0.0
 10
216.9186337694207
 20
101.7305403624408
 30
0.0
 10
217.0581934765684
 20
101.8531848581425
 30
0.0
 10
217.2945750302107
 20
102.1172269112428
 30
0.0
 10
217.3911197383283
 20
102.2579731787768
 30
0.0
 10
217.5480706898547
 20
102.5558081184111
 30
0.0
 10
217.6086114721803
 20
102.7143186752965
 30
0.0
 10
217.6901714256071
 20
103.0414379397758
 30
0.0
 10
217.7114668964238
 20
103.2095352705627
 30
0.0
 10
217.71206748821
 20
103.5549909462113
 30
0.0
 10
217.6909786879829
 20
103.7341505862081
 30
0.0
 10
217.597799090704
 20
104.0930673861828
 30
0.0
 10
217.5266962863289
 20
104.2718493300067
 30
0.0
 10
217.4232414223142
 20
104.4482570391133
 30
0.0
  0
LINE
  5
138
330
1F
100
AcDbEntity
  8
0
  6
HIDDEN
 62
     7
370
     0
100
AcDbLine
 10
148.6369063597
 20
121.510563999
 30
0.0
 11
148.6369063597
 21
114.1361795585
 31
0.0
  0
LINE
  5
139
330
1F
100
AcDbEntity
  8
0
  6
HIDDEN
 62
     7
370
     0
100
AcDbLine
 10
148.6369063597
 20
132.5853761505
 30
0.0
 11
148.6369063597
 21
125.21099171
 31
0.0
  0
SPLINE
  5
13A
330
1F
100
AcDbEntity
  8
0
  6
HIDDEN
 62
     7
370
     0
100
AcDbSpline
210
0.0
220
0.0
230
1.0
 70
     8
 71
     3
 72
    24
 73
    20
 74
     0
 42
0.00000001
 43
0.00000001
 12
1.0
 22
0.0
 32
0.0
 13
1.0
 23
0.0
 33
0.0
 40
0.0
 40
0.0
 40
0.0
 40
0.0
 40
0.2499999999999765
 40
0.2499999999999765
 40
0.3749999999999665
 40
0.3749999999999665
 40
0.4374999999999633
 40
0.4374999999999633
 40
0.4999999999999601
 40
0.4999999999999601
 40
0.5312499999999606
 40
0.5312499999999606
 40
0.5624999999999611
 40
0.5624999999999611
 40
0.624999999999966
 40
0.624999999999966
 40
0.7499999999999782
 40
0.7499999999999782
 40
1.0
 40
1.0
 40
1.0
 40
1.0
 10
171.1418665903612
 20
112.568184127676
 30
0.0
 10
171.1260977130038
 20
112.4943254357464
 30
0.0
 10
171.1094837311537
 20
112.4206140470106
 30
0.0
 10
171.0809520651487
 20
112.3090672233885
 30
0.0
 10
171.07086465033
 20
112.27169565026
 30
0.0
 10
171.0533770898757
 20
112.2147961526223
 30
0.0
 10
171.0471675280924
 20
112.195693052477
 30
0.0
 10
171.0328899744397
 20
112.1568195382415
 30
0.0
 10
171.0253184266443
 20
112.1368948788081
 30
0.0
 10
171.007900842966
 20
112.1068226607807
 30
0.0
 10
170.9994183463209
 20
112.0951412819776
 30
0.0
 10
170.9833800344492
 20
112.0878797712291
 30
0.0
 10
170.9785594862456
 20
112.0914580182389
 30
0.0
 10
170.9671502616977
 20
112.1032188734705
 30
0.0
 10
170.9631297812402
 20
112.1148845235211
 30
0.0
 10
170.9523759264199
 20
112.1514198536347
 30
0.0
 10
170.9485032451378
 20
112.1788155869582
 30
0.0
 10
170.9393350953002
 20
112.2635415787142
 30
0.0
 10
170.9373065899311
 20
112.3243737008863
 30
0.0
 10
170.9369065683008
 20
112.3867398622279
 30
0.0
  0
SPLINE
  5
13B
330
1F
100
AcDbEntity
  8
0
  6
HIDDEN
 62
     7
370
     0
100
AcDbSpline
210
0.0
220
0.0
230
1.0
 70
     8
 71
     3
 72
    24
 73
    20
 74
     0
 42
0.00000001
 43
0.00000001
 12
1.0
 22
0.0
 32
0.0
 13
1.0
 23
0.0
 33
0.0
 40
0.0
 40
0.0
 40
0.0
 40
0.0
 40
0.2499999999999933
 40
0.2499999999999933
 40
0.3749999999999912
 40
0.3749999999999912
 40
0.4374999999999913
 40
0.4374999999999913
 40
0.4687499999999914
 40
0.4687499999999914
 40
0.4999999999999915
 40
0.4999999999999915
 40
0.5624999999999916
 40
0.5624999999999916
 40
0.6249999999999917
 40
0.6249999999999917
 40
0.7499999999999953
 40
0.7499999999999953
 40
1.0
 40
1.0
 40
1.0
 40
1.0
 10
170.9369065682972
 20
134.3348158467313
 30
0.0
 10
170.937311237873
 20
134.3979066552239
 30
0.0
 10
170.9393546846874
 20
134.4590923777265
 30
0.0
 10
170.9487542499417
 20
134.5445921102282
 30
0.0
 10
170.9527051434704
 20
134.5721724936693
 30
0.0
 10
170.9638574517674
 20
134.608626575781
 30
0.0
 10
170.968078992694
 20
134.6204849974754
 30
0.0
 10
170.9802867142577
 20
134.6311050488507
 30
0.0
 10
170.9860774845099
 20
134.6339384160728
 30
0.0
 10
171.0029989976198
 20
134.6226238290743
 30
0.0
 10
171.0104051135695
 20
134.6108429433205
 30
0.0
 10
171.0268623668126
 20
134.5808021020909
 30
0.0
 10
171.0343188847236
 20
134.5610891484778
 30
0.0
 10
171.0482268139982
 20
134.5226870824178
 30
0.0
 10
171.0543187598932
 20
134.5038054325063
 30
0.0
 10
171.0715130522442
 20
134.4475045219748
 30
0.0
 10
171.0814980024478
 20
134.4104284441652
 30
0.0
 10
171.1097440475467
 20
134.2997697732754
 30
0.0
 10
171.1262235845078
 20
134.226640712867
 30
0.0
 10
171.1418665903674
 20
134.1533715812431
 30
0.0
  0
SPLINE
  5
13C
330
1F
100
AcDbEntity
  8
0
  6
HIDDEN
 62
     7
370
     0
100
AcDbSpline
210
0.0
220
0.0
230
1.0
 70
     8
 71
     3
 72
     8
 73
     4
 74
     0
 42
0.00000001
 43
0.00000001
 12
1.0
 22
0.0
 32
0.0
 13
1.0
 23
0.0
 33
0.0
 40
0.0
 40
0.0
 40
0.0
 40
0.0
 40
1.0
 40
1.0
 40
1.0
 40
1.0
 10
171.3155862247412
 20
113.3072585368674
 30
0.0
 10
171.2504810631271
 20
113.0522333016617
 30
0.0
 10
171.1925937335672
 20
112.8057812855205
 30
0.0
 10
171.1418665903612
 20
112.5681841276759
 30
0.0
  0
SPLINE
  5
13D
330
1F
100
AcDbEntity
  8
0
  6
HIDDEN
 62
     7
370
     0
100
AcDbSpline
210
0.0
220
0.0
230
1.0
 70
     8
 71
     3
 72
     8
 73
     4
 74
     0
 42
0.00000001
 43
0.00000001
 12
1.0
 22
0.0
 32
0.0
 13
1.0
 23
0.0
 33
0.0
 40
0.0
 40
0.0
 40
0.0
 40
0.0
 40
1.0
 40
1.0
 40
1.0
 40
1.0
 10
171.1418665903674
 20
134.1533715812431
 30
0.0
 10
171.1925937335719
 20
133.9157744234076
 30
0.0
 10
171.2504810631298
 20
133.6693224072761
 30
0.0
 10
171.3155862247412
 20
133.4142971720809
 30
0.0
  0
LINE
  5
13E
330
1F
100
AcDbEntity
  8
0
  6
HIDDEN
 62
     7
370
     0
100
AcDbLine
 10
150.1369056742
 20
133.0183889936
 30
0.0
 11
150.1369056742
 21
125.9158061571
 31
0.0
  0
LINE
  5
13F
330
1F
100
AcDbEntity
  8
0
  6
HIDDEN
 62
     7
370
     0
100
AcDbLine
 10
150.1369056742
 20
120.8057495519
 30
0.0
 11
150.1369056742
 21
113.7031667154
 31
0.0
  0
LINE
  5
140
330
1F
100
AcDbEntity
  8
0
  6
HIDDEN
 62
     7
370
     0
100
AcDbLine
 10
170.9369065458
 20
133.2796734045
 30
0.0
 11
170.9369065458
 21
113.4418823044
 31
0.0
  0
LINE
  5
141
330
1F
100
AcDbEntity
  8
0
  6
HIDDEN
 62
     7
370
     0
100
AcDbLine
 10
172.4369065734
 20
131.8401448648
 30
0.0
 11
172.4369065734
 21
114.8814108442
 31
0.0
  0
SPLINE
  5
142
330
1F
100
AcDbEntity
  8
0
  6
HIDDEN
 62
     7
370
     0
100
AcDbSpline
210
0.0
220
0.0
230
1.0
 70
     8
 71
     3
 72
     8
 73
     4
 74
     0
 42
0.00000001
 43
0.00000001
 12
1.0
 22
0.0
 32
0.0
 13
1.0
 23
0.0
 33
0.0
 40
0.0000137051794235
 40
0.0000137051794235
 40
0.0000137051794235
 40
0.0000137051794235
 40
0.0027147144718019
 40
0.0027147144718019
 40
0.0027147144718019
 40
0.0027147144718019
 10
150.1369065683008
 20
120.8057496174124
 30
0.0
 10
151.0369027037956
 20
120.792778050214
 30
0.0
 10
151.936902882391
 20
120.7801431929019
 30
0.0
 10
152.8369065683008
 20
120.7678331746462
 30
0.0
  0
SPLINE
  5
143
330
1F
100
AcDbEntity
  8
0
  6
HIDDEN
 62
     7
370
     0
100
AcDbSpline
210
0.0
220
0.0
230
1.0
 70
     8
 71
     3
 72
     8
 73
     4
 74
     0
 42
0.00000001
 43
0.00000001
 12
1.0
 22
0.0
 32
0.0
 13
1.0
 23
0.0
 33
0.0
 40
0.0000137050638847
 40
0.0000137050638847
 40
0.0000137050638847
 40
0.0000137050638847
 40
0.0027147143562631
 40
0.0027147143562631
 40
0.0027147143562631
 40
0.0027147143562631
 10
152.8369065683008
 20
125.9537225343021
 30
0.0
 10
151.936902882391
 20
125.9414125160463
 30
0.0
 10
151.0369027037956
 20
125.9287776587343
 30
0.0
 10
150.1369065683008
 20
125.9158060915359
 30
0.0
  0
SPLINE
  5
144
330
1F
100
AcDbEntity
  8
0
  6
HIDDEN
 62
     7
370
     0
100
AcDbSpline
210
0.0
220
0.0
230
1.0
 70
     8
 71
     3
 72
    10
 73
     6
 74
     0
 42
0.00000001
 43
0.00000001
 12
1.0
 22
0.0
 32
0.0
 13
1.0
 23
0.0
 33
0.0
 40
0.0
 40
0.0
 40
0.0
 40
0.0
 40
0.5
 40
0.5
 40
1.0
 40
1.0
 40
1.0
 40
1.0
 10
150.1369065683008
 20
125.9158060915359
 30
0.0
 10
149.8766894457628
 20
125.8296180048328
 30
0.0
 10
149.6206548765126
 20
125.7301723887101
 30
0.0
 10
149.1193912877799
 20
125.4985155120727
 30
0.0
 10
148.8740485290166
 20
125.3666064826536
 30
0.0
 10
148.6369065683008
 20
125.2109916681248
 30
0.0
  0
SPLINE
  5
145
330
1F
100
AcDbEntity
  8
0
  6
HIDDEN
 62
     7
370
     0
100
AcDbSpline
210
0.0
220
0.0
230
1.0
 70
     8
 71
     3
 72
    10
 73
     6
 74
     0
 42
0.00000001
 43
0.00000001
 12
1.0
 22
0.0
 32
0.0
 13
1.0
 23
0.0
 33
0.0
 40
0.0
 40
0.0
 40
0.0
 40
0.0
 40
0.5
 40
0.5
 40
1.0
 40
1.0
 40
1.0
 40
1.0
 10
148.6369065682999
 20
121.510564040824
 30
0.0
 10
148.8740485290158
 20
121.3549492262951
 30
0.0
 10
149.1193912877792
 20
121.2230401968759
 30
0.0
 10
149.6206548765123
 20
120.9913833202383
 30
0.0
 10
149.8766894457626
 20
120.8919377041155
 30
0.0
 10
150.1369065683008
 20
120.8057496174124
 30
0.0
  0
LINE
  5
146
330
1F
100
AcDbEntity
  8
0
  6
HIDDEN
 62
     7
370
     0
100
AcDbLine
 10
148.6369063597
 20
121.510563999
 30
0.0
 11
148.6369063597
 21
125.21099171
 31
0.0
  0
LINE
  5
147
330
1F
100
AcDbEntity
  8
0
  6
HIDDEN
 62
     7
370
     0
100
AcDbLine
 10
152.8369066756
 20
120.7678330816
 30
0.0
 11
152.8369066756
 21
125.9537226274
 31
0.0
  0
SPLINE
  5
148
330
1F
100
AcDbEntity
  8
0
  6
HIDDEN
 62
     7
370
     0
100
AcDbSpline
210
0.0
220
0.0
230
1.0
 70
     8
 71
     3
 72
    22
 73
    18
 74
     0
 42
0.00000001
 43
0.00000001
 12
1.0
 22
0.0
 32
0.0
 13
1.0
 23
0.0
 33
0.0
 40
0.0
 40
0.0
 40
0.0
 40
0.0
 40
0.1250000000000001
 40
0.1250000000000001
 40
0.2500000000000001
 40
0.2500000000000001
 40
0.3750000000000001
 40
0.3750000000000001
 40
0.5
 40
0.5
 40
0.625
 40
0.625
 40
0.75
 40
0.75
 40
0.8749999999999999
 40
0.8749999999999999
 40
1.0
 40
1.0
 40
1.0
 40
1.0
 10
152.8369065683008
 20
120.7678331746462
 30
0.0
 10
153.017842926377
 20
120.9594530339527
 30
0.0
 10
153.1969383751538
 20
121.1530948983399
 30
0.0
 10
153.5477783636659
 20
121.5477501517241
 30
0.0
 10
153.7199714715705
 20
121.7487616823917
 30
0.0
 10
154.0457029771898
 20
122.1649727976255
 30
0.0
 10
154.2017792123581
 20
122.3809886379122
 30
0.0
 10
154.4531584262472
 20
122.8463114010769
 30
0.0
 10
154.547023556566
 20
123.1018505940998
 30
0.0
 10
154.5432956397039
 20
123.6361812292004
 30
0.0
 10
154.4459229972165
 20
123.8916020952011
 30
0.0
 10
154.1941021882226
 20
124.3516308111488
 30
0.0
 10
154.0391329327501
 20
124.5654678120774
 30
0.0
 10
153.7143201750248
 20
124.9795063947711
 30
0.0
 10
153.5434271108969
 20
125.1787988668069
 30
0.0
 10
153.1947928713693
 20
125.5707737592411
 30
0.0
 10
153.0167850208408
 20
125.7632230452305
 30
0.0
 10
152.8369065683008
 20
125.9537225343021
 30
0.0
  0
LWPOLYLINE
  5
149
330
1F
100
AcDbEntity
  8
0
  6
HIDDEN
 62
     7
370
     0
100
AcDbPolyline
 90
       32
 70
   128
 43
0.0
 10
186.7369068306
 20
125.799828324
 10
187.2401525717
 20
125.8479171652
 10
187.7227965261
 20
125.9902151055
 10
188.1650769602
 20
126.2208964895
 10
188.5488880317
 20
126.5305170077
 10
188.8585173975
 20
126.9064008943
 10
189.0812860321
 20
127.3331592079
 10
189.20807815
 20
127.7933210354
 10
189.2336969714
 20
128.2680464196
 10
189.157099415
 20
128.7379005212
 10
188.9814184498
 20
129.1836478035
 10
188.7138457488
 20
129.5870385352
 10
188.3653373908
 20
129.9315585043
 10
187.9501612376
 20
130.2031023647
 10
187.4853139262
 20
130.3905538502
 10
186.9898270335
 20
130.4862383972
 10
186.4839856963
 20
130.4862383972
 10
185.9884988036
 20
130.3905538502
 10
185.5236514922
 20
130.2031023647
 10
185.108475339
 20
129.9315585043
 10
184.759966981
 20
129.5870385352
 10
184.4923952114
 20
129.1836478035
 10
184.3167133148
 20
128.7379005212
 10
184.2401157584
 20
128.2680464196
 10
184.2657355111
 20
127.7933210354
 10
184.3925266977
 20
127.3331592079
 10
184.6152962636
 20
126.9064008943
 10
184.9249246981
 20
126.5305170077
 10
185.3087357696
 20
126.2208964895
 10
185.751017135
 20
125.9902151055
 10
186.2336601581
 20
125.8479171652
 10
186.7369068306
 20
125.799828324
  0
SPLINE
  5
14A
330
1F
100
AcDbEntity
  8
0
  6
HIDDEN
 62
     7
370
     0
100
AcDbSpline
210
0.0
220
0.0
230
1.0
 70
     8
 71
     3
 72
    62
 73
    58
 74
     0
 42
0.00000001
 43
0.00000001
 12
1.0
 22
0.0
 32
0.0
 13
1.0
 23
0.0
 33
0.0
 40
-0.0312499999999999
 40
-0.0312499999999999
 40
0.0
 40
0.0
 40
0.0312500000000002
 40
0.0312500000000002
 40
0.0625000000000004
 40
0.0625000000000004
 40
0.0937500000000006
 40
0.0937500000000006
 40
0.1250000000000008
 40
0.1250000000000008
 40
0.1875000000000012
 40
0.1875000000000012
 40
0.2500000000000016
 40
0.2500000000000016
 40
0.2812500000000016
 40
0.2812500000000016
 40
0.3125000000000017
 40
0.3125000000000017
 40
0.3437500000000018
 40
0.3437500000000018
 40
0.3750000000000019
 40
0.3750000000000019
 40
0.437500000000002
 40
0.437500000000002
 40
0.468750000000002
 40
0.468750000000002
 40
0.500000000000002
 40
0.500000000000002
 40
0.5625000000000019
 40
0.5625000000000019
 40
0.5937500000000018
 40
0.5937500000000018
 40
0.6250000000000017
 40
0.6250000000000017
 40
0.6562500000000016
 40
0.6562500000000016
 40
0.6875000000000013
 40
0.6875000000000013
 40
0.7187500000000012
 40
0.7187500000000012
 40
0.7500000000000011
 40
0.7500000000000011
 40
0.781250000000001
 40
0.781250000000001
 40
0.8125000000000008
 40
0.8125000000000008
 40
0.8437500000000007
 40
0.8437500000000007
 40
0.8750000000000006
 40
0.8750000000000006
 40
0.9062500000000004
 40
0.9062500000000004
 40
0.9375000000000002
 40
0.9375000000000002
 40
0.9687500000000001
 40
0.9687500000000001
 40
1.0
 40
1.0
 40
1.03125
 40
1.03125
 10
159.0906786962291
 20
124.8487568931305
 30
0.0
 10
159.3181790428173
 20
125.0981034349911
 30
0.0
 10
159.4426415717348
 20
125.209701112448
 30
0.0
 10
159.7117358378866
 20
125.4083519082664
 30
0.0
 10
159.8575489294759
 20
125.4956921530551
 30
0.0
 10
160.1587158077652
 20
125.6398879056974
 30
0.0
 10
160.3150515348296
 20
125.6977075762116
 30
0.0
 10
160.6391748341641
 20
125.7849611882626
 30
0.0
 10
160.8058400458745
 20
125.8137632377444
 30
0.0
 10
161.3038563125064
 20
125.8545425430123
 30
0.0
 10
161.6445272612994
 20
125.821099282871
 30
0.0
 10
162.2835381767209
 20
125.6386466384123
 30
0.0
 10
162.5899927837847
 20
125.4872220780995
 30
0.0
 10
162.9865486930471
 20
125.1867241725151
 30
0.0
 10
163.1108978838967
 20
125.0724629873198
 30
0.0
 10
163.3333619779458
 20
124.8228031167473
 30
0.0
 10
163.4309273164231
 20
124.6886365087482
 30
0.0
 10
163.5981829200619
 20
124.4011674142494
 30
0.0
 10
163.668268575581
 20
124.2459005643496
 30
0.0
 10
163.7723239363025
 20
123.9289211442625
 30
0.0
 10
163.8072996989699
 20
123.7662683927581
 30
0.0
 10
163.859164218494
 20
123.2653313725555
 30
0.0
 10
163.8198581107225
 20
122.9251767712452
 30
0.0
 10
163.6571383182617
 20
122.4486821391481
 30
0.0
 10
163.5868578203755
 20
122.2976147793206
 30
0.0
 10
163.4155246752455
 20
122.0103202088797
 30
0.0
 10
163.3141324340638
 20
121.8744624305823
 30
0.0
 10
162.9775328468406
 20
121.5056540355841
 30
0.0
 10
162.7023000806759
 20
121.303228926253
 30
0.0
 10
162.25251685333
 20
121.0861521996443
 30
0.0
 10
162.0937170548263
 20
121.0268499275701
 30
0.0
 10
161.7711553339466
 20
120.9388774097695
 30
0.0
 10
161.6072962219795
 20
120.9097576459232
 30
0.0
 10
161.2744634486256
 20
120.880901030813
 30
0.0
 10
161.1044111571847
 20
120.8815245540271
 30
0.0
 10
160.7721354931651
 20
120.9127809978314
 30
0.0
 10
160.6084208814163
 20
120.9430996928833
 30
0.0
 10
160.2859553958419
 20
121.0338167318863
 30
0.0
 10
160.1274442973154
 20
121.0945856405881
 30
0.0
 10
159.8288905911176
 20
121.2420963153851
 30
0.0
 10
159.6870644619155
 20
121.3292313432489
 30
0.0
 10
159.4191427233572
 20
121.531816809821
 30
0.0
 10
159.2950492929646
 20
121.6461549764632
 30
0.0
 10
159.0739151050465
 20
121.8943414144159
 30
0.0
 10
158.9754581029478
 20
122.0293740312698
 30
0.0
 10
158.8060995892128
 20
122.3213784293245
 30
0.0
 10
158.7379327515069
 20
122.47351417576
 30
0.0
 10
158.6341987851804
 20
122.7899231242001
 30
0.0
 10
158.5985302233113
 20
122.9564195935543
 30
0.0
 10
158.5643164586588
 20
123.2896814696648
 30
0.0
 10
158.5651748614879
 20
123.4563439234867
 30
0.0
 10
158.6029716414374
 20
123.7897321227043
 30
0.0
 10
158.6403143968915
 20
123.9554876951838
 30
0.0
 10
158.7475639799599
 20
124.2713790116464
 30
0.0
 10
158.818325196499
 20
124.4246583447186
 30
0.0
 10
158.9904483465997
 20
124.714035387205
 30
0.0
 10
159.0906786962291
 20
124.8487568931305
 30
0.0
 10
159.3181790428173
 20
125.0981034349911
 30
0.0
  0
CIRCLE
  5
14B
330
1F
100
AcDbEntity
  8
0
  6
HIDDEN
 62
     7
370
     0
100
AcDbCircle
 10
161.1369065683
 20
123.3607778545
 30
0.0
 40
2.300000000000011
  0
ARC
  5
14C
330
1F
100
AcDbEntity
  8
0
  6
HIDDEN
 62
     7
370
     0
100
AcDbCircle
 10
215.611770366
 20
103.3859140568
 30
0.0
 40
2.100000000000033
100
AcDbArc
 50
30.3896274563
 51
139.6103725437
  0
SPLINE
  5
14D
330
1F
100
AcDbEntity
  8
0
  6
HIDDEN
 62
     7
370
     0
100
AcDbSpline
210
0.0
220
0.0
230
1.0
 70
     8
 71
     3
 72
    18
 73
    14
 74
     0
 42
0.00000001
 43
0.00000001
 12
1.0
 22
0.0
 32
0.0
 13
1.0
 23
0.0
 33
0.0
 40
0.0
 40
0.0
 40
0.0
 40
0.0
 40
0.2499999999999948
 40
0.2499999999999948
 40
0.3749999999999957
 40
0.3749999999999957
 40
0.4999999999999966
 40
0.4999999999999966
 40
0.6249999999999974
 40
0.6249999999999974
 40
0.7499999999999982
 40
0.7499999999999982
 40
1.0
 40
1.0
 40
1.0
 40
1.0
 10
217.4232414223142
 20
104.4482570391133
 30
0.0
 10
217.1682400018021
 20
104.5676985789062
 30
0.0
 10
216.9047731218434
 20
104.6748314802535
 30
0.0
 10
216.4878633407033
 20
104.8021928518459
 30
0.0
 10
216.3452357522217
 20
104.8390260039788
 30
0.0
 10
216.0507280855994
 20
104.898301750355
 30
0.0
 10
215.9010549598673
 20
104.9201169156634
 30
0.0
 10
215.6033742899245
 20
104.946536916582
 30
0.0
 10
215.45436931687
 20
104.9513561627415
 30
0.0
 10
215.1560517610858
 20
104.94510579282
 30
0.0
 10
215.005814573669
 20
104.933867173799
 30
0.0
 10
214.5667528209006
 20
104.880860266502
 30
0.0
 10
214.2860449390428
 20
104.8205307971908
 30
0.0
 10
214.0122935483069
 20
104.7466763099668
 30
0.0
  0
CIRCLE
  5
14E
330
1F
100
AcDbEntity
  8
0
  6
HIDDEN
 62
     7
370
     0
100
AcDbCircle
 10
184.6369065683
 20
123.3607778545
 30
0.0
 40
2.0
  0
LINE
  5
14F
330
1F
100
AcDbEntity
  8
0
  6
HIDDEN
 62
     7
370
     0
100
AcDbLine
 10
218.6452624838
 20
110.1174742202
 30
0.0
 11
218.2592702549
 21
109.2257254045
 31
0.0
  0
LINE
  5
150
330
1F
100
AcDbEntity
  8
0
  6
HIDDEN
 62
     7
370
     0
100
AcDbLine
 10
196.6756740104
 20
111.1195158432
 30
0.0
 11
218.254498158
 21
109.2316132258
 31
0.0
  0
LINE
  5
151
330
1F
100
AcDbEntity
  8
0
  6
HIDDEN
 62
     7
370
     0
100
AcDbLine
 10
217.8861563544
 20
118.757150251
 30
0.0
 11
214.6626626592
 21
123.3607778545
 31
0.0
  0
LINE
  5
152
330
1F
100
AcDbEntity
  8
0
  6
HIDDEN
 62
     7
370
     0
100
AcDbLine
 10
218.6425914507
 20
110.1110713775
 30
0.0
 11
217.8861563544
 21
118.757150251
 31
0.0
  0
SPLINE
  5
153
330
1F
100
AcDbEntity
  8
0
  6
HIDDEN
 62
     7
370
     0
100
AcDbSpline
210
0.0
220
0.0
230
1.0
 70
     8
 71
     3
 72
     8
 73
     4
 74
     0
 42
0.00000001
 43
0.00000001
 12
1.0
 22
0.0
 32
0.0
 13
1.0
 23
0.0
 33
0.0
 40
0.0
 40
0.0
 40
0.0
 40
0.0
 40
1.0
 40
1.0
 40
1.0
 40
1.0
 10
196.6756747094479
 20
111.1195157796709
 30
0.0
 10
196.2622087146826
 20
114.1293050997719
 30
0.0
 10
195.95984338279
 20
117.1552150852372
 30
0.0
 10
195.8355054066109
 20
120.206956774609
 30
0.0
  0
SPLINE
  5
154
330
1F
100
AcDbEntity
  8
0
  6
HIDDEN
 62
     7
370
     0
100
AcDbSpline
210
0.0
220
0.0
230
1.0
 70
     8
 71
     3
 72
    10
 73
     6
 74
     0
 42
0.00000001
 43
0.00000001
 12
1.0
 22
0.0
 32
0.0
 13
1.0
 23
0.0
 33
0.0
 40
0.0
 40
0.0
 40
0.0
 40
0.0
 40
0.5000000000000001
 40
0.5000000000000001
 40
1.0
 40
1.0
 40
1.0
 40
1.0
 10
195.835505406611
 20
120.206956774609
 30
0.0
 10
195.8140939891782
 20
120.7324769512769
 30
0.0
 10
195.7875906461524
 20
121.2578723576147
 30
0.0
 10
195.7481453889372
 20
122.3089954736441
 30
0.0
 10
195.7356049841063
 20
122.8347330217463
 30
0.0
 10
195.7356049841063
 20
123.3607778544741
 30
0.0
  0
LINE
  5
155
330
1F
100
AcDbEntity
  8
0
  6
HIDDEN
 62
     7
370
     0
100
AcDbLine
 10
172.6369065683
 20
107.5607786174
 30
0.0
 11
172.7297997887
 21
107.6536705937
 31
0.0
  0
LINE
  5
156
330
1F
100
AcDbEntity
  8
0
  6
HIDDEN
 62
     7
370
     0
100
AcDbLine
 10
172.7297997887
 20
139.0678851153
 30
0.0
 11
172.6369065683
 21
139.1607770915
 31
0.0
  0
ARC
  5
157
330
1F
100
AcDbEntity
  8
0
  6
HIDDEN
 62
     7
370
     0
100
AcDbCircle
 10
172.0226930059
 20
108.3607778545
 30
0.0
 40
1.000000000000028
100
AcDbArc
 50
315.0
 51
0.0
  0
ARC
  5
158
330
1F
100
AcDbEntity
  8
0
  6
HIDDEN
 62
     7
370
     0
100
AcDbCircle
 10
172.0226930059
 20
108.3607778545
 30
0.0
 40
1.000000000000028
100
AcDbArc
 50
0.0
 51
52.1052014664
  0
ARC
  5
159
330
1F
100
AcDbEntity
  8
0
  6
HIDDEN
 62
     7
370
     0
100
AcDbCircle
 10
172.0226930059
 20
138.3607778545
 30
0.0
 40
1.000000000000034
100
AcDbArc
 50
351.8087250651
 51
45.0
  0
ARC
  5
15A
330
1F
100
AcDbEntity
  8
0
  6
HIDDEN
 62
     7
370
     0
100
AcDbCircle
 10
172.0226930059
 20
138.3607778545
 30
0.0
 40
1.000000000000034
100
AcDbArc
 50
307.8947985336
 51
351.8087250651
  0
LINE
  5
15B
330
1F
100
AcDbEntity
  8
0
  6
HIDDEN
 62
     7
370
     0
100
AcDbLine
 10
173.0226930041
 20
108.3607781898
 30
0.0
 11
173.0226930041
 21
138.3607775192
 31
0.0
  0
LINE
  5
15C
330
1F
100
AcDbEntity
  8
0
  6
HIDDEN
 62
     7
370
     0
100
AcDbLine
 10
173.0226930041
 20
108.3607781898
 30
0.0
 11
173.0226930041
 21
138.3607775192
 31
0.0
  0
LINE
  5
15D
330
1F
100
AcDbEntity
  8
0
  6
HIDDEN
 62
     7
370
     0
100
AcDbLine
 10
186.6572638493
 20
116.5182125974
 30
0.0
 11
191.6490820687
 21
113.3773397873
 31
0.0
  0
LINE
  5
15E
330
1F
100
AcDbEntity
  8
0
  6
HIDDEN
 62
     7
370
     0
100
AcDbLine
 10
191.407884423
 20
118.4913233142
 30
0.0
 11
187.5566178452
 21
120.9145564339
 31
0.0
  0
LINE
  5
15F
330
1F
100
AcDbEntity
  8
0
  6
HIDDEN
 62
     7
370
     0
100
AcDbLine
 10
188.8369069885
 20
119.3599445964
 30
0.0
 11
188.8369069885
 21
121.2239275906
 31
0.0
  0
LINE
  5
160
330
1F
100
AcDbEntity
  8
0
  6
HIDDEN
 62
     7
370
     0
100
AcDbLine
 10
184.6369066726
 20
121.224017696
 30
0.0
 11
184.6369066726
 21
118.2304756935
 31
0.0
  0
LINE
  5
161
330
1F
100
AcDbEntity
  8
0
  6
HIDDEN
 62
     7
370
     0
100
AcDbLine
 10
148.6369063597
 20
113.2051270674
 30
0.0
 11
149.6639390926
 21
113.7980843182
 31
0.0
  0
LINE
  5
162
330
1F
100
AcDbEntity
  8
0
  6
HIDDEN
 62
     7
370
     0
100
AcDbLine
 10
149.6639390926
 20
132.9234713908
 30
0.0
 11
148.6369063597
 21
133.5164286415
 31
0.0
  0
LINE
  5
163
330
1F
100
AcDbEntity
  8
0
  6
HIDDEN
 62
     7
370
     0
100
AcDbLine
 10
154.1369063299
 20
113.360778078
 30
0.0
 11
155.1497252177
 21
113.360778078
 31
0.0
  0
LINE
  5
164
330
1F
100
AcDbEntity
  8
0
  6
HIDDEN
 62
     7
370
     0
100
AcDbLine
 10
155.1497252177
 20
133.360777631
 30
0.0
 11
154.1369063299
 21
133.360777631
 31
0.0
  0
ARC
  5
165
330
1F
100
AcDbEntity
  8
0
  6
HIDDEN
 62
     7
370
     0
100
AcDbCircle
 10
155.149725038
 20
114.3607778545
 30
0.0
 40
1.0
100
AcDbArc
 50
270.0
 51
315.0
  0
ARC
  5
166
330
1F
100
AcDbEntity
  8
0
  6
HIDDEN
 62
     7
370
     0
100
AcDbCircle
 10
155.149725038
 20
132.3607778545
 30
0.0
 40
1.0
100
AcDbArc
 50
45.0
 51
90.0
  0
ARC
  5
167
330
1F
100
AcDbEntity
  8
0
  6
HIDDEN
 62
     7
370
     0
100
AcDbCircle
 10
154.1369065683
 20
114.3607778545
 30
0.0
 40
1.000000000000008
100
AcDbArc
 50
193.3524261238
 51
270.0
  0
ARC
  5
168
330
1F
100
AcDbEntity
  8
0
  6
HIDDEN
 62
     7
370
     0
100
AcDbCircle
 10
154.1369065683
 20
132.3607778545
 30
0.0
 40
1.000000000000011
100
AcDbArc
 50
90.0
 51
166.6475738762
  0
LINE
  5
169
330
1F
100
AcDbEntity
  8
0
  6
HIDDEN
 62
     7
370
     0
100
AcDbLine
 10
155.8568318825
 20
113.6536706458
 30
0.0
 11
156.5639385473
 21
114.3607782419
 31
0.0
  0
LINE
  5
16A
330
1F
100
AcDbEntity
  8
0
  6
HIDDEN
 62
     7
370
     0
100
AcDbLine
 10
156.5639385473
 20
132.360777467
 30
0.0
 11
155.8568318825
 21
133.0678850631
 31
0.0
  0
LINE
  5
16B
330
1F
100
AcDbEntity
  8
0
  6
HIDDEN
 62
     7
370
     0
100
AcDbLine
 10
149.6639390926
 20
113.7980843182
 30
0.0
 11
151.7639392506
 21
114.3607782419
 31
0.0
  0
LINE
  5
16C
330
1F
100
AcDbEntity
  8
0
  6
HIDDEN
 62
     7
370
     0
100
AcDbLine
 10
151.7639392506
 20
132.360777467
 30
0.0
 11
149.6639390926
 21
132.9234713908
 31
0.0
  0
LINE
  5
16D
330
1F
100
AcDbEntity
  8
0
  6
HIDDEN
 62
     7
370
     0
100
AcDbLine
 10
153.163938735
 20
132.5917175259
 30
0.0
 11
152.7639394145
 21
132.360777467
 31
0.0
  0
LINE
  5
16E
330
1F
100
AcDbEntity
  8
0
  6
HIDDEN
 62
     7
370
     0
100
AcDbLine
 10
152.7639394145
 20
114.3607782419
 30
0.0
 11
153.163938735
 21
114.1298381831
 31
0.0
  0
ARC
  5
16F
330
1F
100
AcDbEntity
  8
0
  6
HIDDEN
 62
     7
370
     0
100
AcDbCircle
 10
163.1369065683
 20
114.8607778545
 30
0.0
 40
0.5
100
AcDbArc
 50
270.0
 51
0.0
  0
ARC
  5
170
330
1F
100
AcDbEntity
  8
0
  6
HIDDEN
 62
     7
370
     0
100
AcDbCircle
 10
163.1369065683
 20
131.8607778545
 30
0.0
 40
0.5
100
AcDbArc
 50
0.0
 51
90.0
  0
LINE
  5
171
330
1F
100
AcDbEntity
  8
0
  6
HIDDEN
 62
     7
370
     0
100
AcDbLine
 10
156.5639385473
 20
114.3607782419
 30
0.0
 11
163.1369068738
 21
114.3607782419
 31
0.0
  0
LINE
  5
172
330
1F
100
AcDbEntity
  8
0
  6
HIDDEN
 62
     7
370
     0
100
AcDbLine
 10
163.1369068738
 20
132.360777467
 30
0.0
 11
156.5639385473
 21
132.360777467
 31
0.0
  0
LINE
  5
173
330
1F
100
AcDbEntity
  8
0
  6
HIDDEN
 62
     7
370
     0
100
AcDbLine
 10
151.7639392506
 20
114.3607782419
 30
0.0
 11
152.7639394145
 21
114.3607782419
 31
0.0
  0
LINE
  5
174
330
1F
100
AcDbEntity
  8
0
  6
HIDDEN
 62
     7
370
     0
100
AcDbLine
 10
152.7639394145
 20
132.360777467
 30
0.0
 11
151.7639392506
 21
132.360777467
 31
0.0
  0
LINE
  5
175
330
1F
100
AcDbEntity
  8
0
  6
HIDDEN
 62
     7
370
     0
100
AcDbLine
 10
163.6369069557
 20
116.2107778932
 30
0.0
 11
164.5369063582
 21
117.1107777613
 31
0.0
  0
LINE
  5
176
330
1F
100
AcDbEntity
  8
0
  6
HIDDEN
 62
     7
370
     0
100
AcDbLine
 10
164.5369063582
 20
129.6107779476
 30
0.0
 11
163.6369069557
 21
130.5107778157
 31
0.0
  0
LINE
  5
177
330
1F
100
AcDbEntity
  8
0
  6
HIDDEN
 62
     7
370
     0
100
AcDbLine
 10
189.6369074922
 20
117.1107777613
 30
0.0
 11
193.3922850977
 21
123.3607778545
 31
0.0
  0
LINE
  5
178
330
1F
100
AcDbEntity
  8
0
  6
HIDDEN
 62
     7
370
     0
100
AcDbLine
 10
193.3922850977
 20
123.3607778545
 30
0.0
 11
189.6369074922
 21
129.6107779476
 31
0.0
  0
LINE
  5
179
330
1F
100
AcDbEntity
  8
0
  6
HIDDEN
 62
     7
370
     0
100
AcDbLine
 10
164.5369063582
 20
117.1107777613
 30
0.0
 11
189.6369074922
 21
117.1107777613
 31
0.0
  0
LINE
  5
17A
330
1F
100
AcDbEntity
  8
0
  6
HIDDEN
 62
     7
370
     0
100
AcDbLine
 10
189.6369074922
 20
129.6107779476
 30
0.0
 11
164.5369063582
 21
129.6107779476
 31
0.0
  0
LINE
  5
17B
330
1F
100
AcDbEntity
  8
0
  6
HIDDEN
 62
     7
370
     0
100
AcDbLine
 10
188.8369069885
 20
125.4975380129
 30
0.0
 11
188.8369069885
 21
128.0668574604
 31
0.0
  0
LINE
  5
17C
330
1F
100
AcDbEntity
  8
0
  6
HIDDEN
 62
     7
370
     0
100
AcDbLine
 10
184.6369066726
 20
128.0668574604
 30
0.0
 11
184.6369066726
 21
125.4976281184
 31
0.0
  0
LINE
  5
17D
330
1F
100
AcDbEntity
  8
0
  6
HIDDEN
 62
     7
370
     0
100
AcDbLine
 10
189.236906309
 20
128.1490597162
 30
0.0
 11
189.236906309
 21
130.2011805806
 31
0.0
  0
LINE
  5
17E
330
1F
100
AcDbEntity
  8
0
  6
HIDDEN
 62
     7
370
     0
100
AcDbLine
 10
184.2369064208
 20
130.2009584601
 30
0.0
 11
184.2369064208
 21
128.1490597162
 31
0.0
  0
LINE
  5
17F
330
1F
100
AcDbEntity
  8
VERMASSUNG
  6
CENTERX2
100
AcDbLine
 10
222.6369065683
 20
96.3607778545
 30
0.0
 11
234.6420827685
 21
96.3607778545
 31
0.0
  0
LINE
  5
180
330
1F
100
AcDbEntity
  8
VERMASSUNG
  6
CENTERX2
100
AcDbLine
 10
222.6369065683
 20
96.3607778545
 30
0.0
 11
222.6369065683
 21
123.3607778545
 31
0.0
  0
LINE
  5
181
330
1F
100
AcDbEntity
  8
VERMASSUNG
  6
CENTERX2
100
AcDbLine
 10
145.2670635803
 20
123.3607778545
 30
0.0
 11
222.6369065683
 21
123.3607778545
 31
0.0
  0
DIMENSION
  5
182
330
1F
100
AcDbEntity
  8
VERMASSUNG
100
AcDbDimension
  2
_D
 10
148.6369065683
 20
80.3274376781
 30
0.0
 11
185.6369065683
 21
80.3274376781
 31
0.0
 70
   160
  1
<>
 71
     2
 42
-1.0
  3
SLDDIMSTYLE0
100
AcDbAlignedDimension
 13
222.6369065683
 23
96.3607778545
 33
0.0
 14
148.6369065683
 24
110.7292728724
 34
0.0
100
AcDbRotatedDimension
  0
DIMENSION
  5
18D
330
1F
100
AcDbEntity
  8
VERMASSUNG
100
AcDbDimension
  2
_D_1
 10
241.9344014642
 20
123.3607778545
 30
0.0
 11
241.9344014642
 21
109.8607778545
 31
0.0
 70
   160
  1
<>
 71
     2
 42
-1.0
  3
SLDDIMSTYLE1
100
AcDbAlignedDimension
 13
222.6369065683
 23
96.3607778545
 33
0.0
 14
222.6369065683
 24
123.3607778545
 34
0.0
 50
90.0
100
AcDbRotatedDimension
  0
DIMENSION
  5
19A
330
1F
100
AcDbEntity
  8
VERMASSUNG
100
AcDbDimension
  2
_D_2
 10
222.6369065683
 20
86.3274376781
 30
0.0
 11
197.6369065683
 21
86.3274376781
 31
0.0
 70
   160
  1
<>
 71
     2
 42
-1.0
  3
SLDDIMSTYLE1
100
AcDbAlignedDimension
 13
172.6369065683
 23
103.6607778545
 33
0.0
 14
222.6369065683
 24
96.3607778545
 34
0.0
100
AcDbRotatedDimension
  0
DIMENSION
  5
1A6
330
1F
100
AcDbEntity
  8
VERMASSUNG
100
AcDbDimension
  2
_D_3
 10
222.6353844475
 20
96.7956401516
 30
0.0
 11
230.0592415871
 21
104.4209768609
 31
0.0
 70
   162
  1
<>
 71
     1
 42
-1.0
  3
SLDDIMSTYLE2
100
AcDb2LineAngularDimension
 13
234.6420827685
 23
96.3607778545
 33
0.0
 14
222.6369065683
 24
96.3607778545
 34
0.0
 15
221.5822313468
 25
108.8332351756
 35
0.0
 16
230.0592415871
 26
104.4209768609
 36
0.0
  0
DIMENSION
  5
1AF
330
1F
100
AcDbEntity
  8
VERMASSUNG
100
AcDbDimension
  2
_D_4
 10
140.2194760821
 20
103.3607778545
 30
0.0
 11
140.2194760821
 21
123.3607778545
 31
0.0
 70
   160
  1
PSC%%c<>
 71
     2
 42
-1.0
  3
SLDDIMSTYLE0
100
AcDbAlignedDimension
 13
172.9369065683
 23
143.3607778545
 33
0.0
 14
172.9369065683
 24
103.3607778545
 34
0.0
 50
90.0
100
AcDbRotatedDimension
  0
LINE
  5
1BB
330
1F
100
AcDbEntity
  8
0
  6
Continuous
 62
     7
370
    15
100
AcDbLine
 10
96.3764484759
 20
127.4776292253
 30
0.0
 11
96.4526846793
 21
127.5053775157
 31
0.0
  0
LINE
  5
1BC
330
1F
100
AcDbEntity
  8
0
  6
Continuous
 62
     7
370
    15
100
AcDbLine
 10
94.4005638149
 20
133.1435326706
 30
0.0
 11
94.3243276116
 21
133.1157848458
 31
0.0
  0
LINE
  5
1BD
330
1F
100
AcDbEntity
  8
0
  6
Continuous
 62
     7
370
    15
100
AcDbLine
 10
96.4526846793
 20
127.5053775157
 30
0.0
 11
96.5363602873
 21
127.6848172988
 31
0.0
  0
LINE
  5
1BE
330
1F
100
AcDbEntity
  8
0
  6
Continuous
 62
     7
370
    15
100
AcDbLine
 10
94.580003598
 20
133.0598589252
 30
0.0
 11
94.4005638149
 21
133.1435326706
 31
0.0
  0
LINE
  5
1BF
330
1F
100
AcDbEntity
  8
0
  6
Continuous
 62
     7
370
    15
100
AcDbLine
 10
76.2940790292
 20
96.3607771541
 30
0.0
 11
79.5518176884
 21
96.7607783373
 31
0.0
  0
LINE
  5
1C0
330
1F
100
AcDbEntity
  8
0
  6
Continuous
 62
     7
370
    15
100
AcDbLine
 10
76.5940790434
 20
110.2146903272
 30
0.0
 11
76.2940790292
 21
110.2515259977
 31
0.0
  0
SPLINE
  5
1C1
330
1F
100
AcDbEntity
  8
0
  6
Continuous
 62
     7
370
    15
100
AcDbSpline
210
0.0
220
0.0
230
1.0
 70
     8
 71
     3
 72
    38
 73
    34
 74
     0
 42
0.00000001
 43
0.00000001
 12
1.0
 22
0.0
 32
0.0
 13
1.0
 23
0.0
 33
0.0
 40
0.0
 40
0.0
 40
0.0
 40
0.0
 40
0.0248359117530898
 40
0.0496174257889727
 40
0.0743553423110517
 40
0.0990605187005319
 40
0.1237438555425514
 40
0.1484162823692172
 40
0.1730887432115619
 40
0.1977721820553736
 40
0.2224775282973238
 40
0.2472156822978223
 40
0.2719975011255318
 40
0.2968337845855374
 40
0.3217352616188654
 40
0.3467125771554934
 40
0.3717762794963387
 40
0.396936808292133
 40
0.4222044831787701
 40
0.4475894931198527
 40
0.473101886497979
 40
0.4987515619869773
 40
0.5453113012356297
 40
0.5914855662957369
 40
0.6373348111195665
 40
0.682920782756966
 40
0.72830630282088
 40
0.7735550278300334
 40
0.8187311925695498
 40
0.8638993413950854
 40
0.9091240529830592
 40
0.9544696643499924
 40
1.0
 40
1.0
 40
1.0
 40
1.0
 10
81.0554483298707
 20
97.86455662771505
 30
0.0
 10
81.22012766446639
 20
97.90667141985199
 30
0.0
 10
81.54912563903291
 20
97.99080876074153
 30
0.0
 10
82.0385647083136
 20
98.12995333376887
 30
0.0
 10
82.524234330265
 20
98.27837930118599
 30
0.0
 10
83.00589354896637
 20
98.43702174443007
 30
0.0
 10
83.48360639890015
 20
98.60563066357273
 30
0.0
 10
83.95735538411806
 20
98.78427284265824
 30
0.0
 10
84.42714482703718
 20
98.9729302909757
 30
0.0
 10
84.89297322071006
 20
99.17160768093811
 30
0.0
 10
85.35484063394914
 20
99.38030358539065
 30
0.0
 10
85.8127467303156
 20
99.59901818496819
 30
0.0
 10
86.26669130187214
 20
99.82775120400505
 30
0.0
 10
86.71667412811273
 20
100.0665024663242
 30
0.0
 10
87.16269501660412
 20
100.3152717496719
 30
0.0
 10
87.60475379076352
 20
100.5740588237573
 30
0.0
 10
88.04285030539509
 20
100.8428634574337
 30
0.0
 10
88.47698440209301
 20
101.1216853655046
 30
0.0
 10
88.90715607669414
 20
101.4105244298776
 30
0.0
 10
89.33336485212851
 20
101.7093798774949
 30
0.0
 10
89.75561213523615
 20
102.0182533821056
 30
0.0
 10
90.28674199375993
 20
102.42317052106
 30
0.0
 10
90.916555266361
 20
102.9313283780658
 30
0.0
 10
91.6317806039461
 20
103.5526056876521
 30
0.0
 10
92.31882615236087
 20
104.1953504906824
 30
0.0
 10
92.97768195485793
 20
104.8595578907328
 30
0.0
 10
93.60834062361376
 20
105.5452288178825
 30
0.0
 10
94.21081112102993
 20
106.2523523964754
 30
0.0
 10
94.78503638670914
 20
106.9809543603802
 30
0.0
 10
95.33120935278602
 20
107.7309215609364
 30
0.0
 10
95.8485915993558
 20
108.5026562963335
 30
0.0
 10
96.33993394115268
 20
109.2946293233237
 30
0.0
 10
96.64249232489713
 20
109.838555300302
 30
0.0
 10
96.79407902322382
 20
110.1110711101891
 30
0.0
  0
LINE
  5
1C2
330
1F
100
AcDbEntity
  8
0
  6
Continuous
 62
     7
370
    15
100
AcDbLine
 10
96.7940795954
 20
110.1174742202
 30
0.0
 11
96.7940795954
 21
109.2257254045
 31
0.0
  0
SPLINE
  5
1C3
330
1F
100
AcDbEntity
  8
0
  6
Continuous
 62
     7
370
    15
100
AcDbSpline
210
0.0
220
0.0
230
1.0
 70
     8
 71
     3
 72
    50
 73
    46
 74
     0
 42
0.00000001
 43
0.00000001
 12
1.0
 22
0.0
 32
0.0
 13
1.0
 23
0.0
 33
0.0
 40
0.0
 40
0.0
 40
0.0
 40
0.0
 40
0.0232141021301519
 40
0.0459266276070316
 40
0.0681375757554562
 40
0.0898469459333261
 40
0.111054737532916
 40
0.1317609499823357
 40
0.1519655827471898
 40
0.1716686353324173
 40
0.1908701072843915
 40
0.2095699981932994
 40
0.2277683076958389
 40
0.2454650354783214
 40
0.262660181280193
 40
0.2793537448981137
 40
0.2955457261906538
 40
0.311236125083749
 40
0.3264249415770477
 40
0.341112175751348
 40
0.3552978277773455
 40
0.3689818979259928
 40
0.3821643865808161
 40
0.3948452942526858
 40
0.4070246215976026
 40
0.4187023694383366
 40
0.4298785387908894
 40
0.4405531308971957
 40
0.4507261472658736
 40
0.4603975897235519
 40
0.4695674604802217
 40
0.4782357622135102
 40
0.4864024981788149
 40
0.4940676723554775
 40
0.5012312896441323
 40
0.5571989779332657
 40
0.6118112703146213
 40
0.6650687740683101
 40
0.7169721455095721
 40
0.7675220951814845
 40
0.816719393754747
 40
0.8645648787525614
 40
0.9110594622421276
 40
0.956204139663199
 40
1.0
 40
1.0
 40
1.0
 40
1.0
 10
96.79407348720822
 20
109.2316141003051
 30
0.0
 10
96.71434494026542
 20
109.0965267609461
 30
0.0
 10
96.5566105051982
 20
108.8292708535507
 30
0.0
 10
96.31353701877016
 20
108.4382901145226
 30
0.0
 10
96.06961322746314
 20
108.0599536161668
 30
0.0
 10
95.82471660181454
 20
107.6944676050822
 30
0.0
 10
95.57952050751042
 20
107.3415476320624
 30
0.0
 10
95.33446915796945
 20
107.0010248392507
 30
0.0
 10
95.09004326317351
 20
106.6726903358481
 30
0.0
 10
94.84669154110948
 20
106.3563367947856
 30
0.0
 10
94.60484871226932
 20
106.0517489774188
 30
0.0
 10
94.36493117449734
 20
105.7587074104488
 30
0.0
 10
94.12733847374268
 20
105.4769886170096
 30
0.0
 10
93.8924533073062
 20
105.2063661881478
 30
0.0
 10
93.66064192986823
 20
104.9466115894918
 30
0.0
 10
93.43225447697192
 20
104.6974949885835
 30
0.0
 10
93.20762532773387
 20
104.4587860301236
 30
0.0
 10
92.98707347243503
 20
104.2302545786802
 30
0.0
 10
92.77090289092541
 20
104.0116714247625
 30
0.0
 10
92.55940293757209
 20
103.8028089563033
 30
0.0
 10
92.35284873123337
 20
103.6034417960819
 30
0.0
 10
92.1515015481736
 20
103.4133474060539
 30
0.0
 10
91.95560921610571
 20
103.2323066594863
 30
0.0
 10
91.76540650762048
 20
103.0601043818432
 30
0.0
 10
91.58111553132402
 20
102.8965298613811
 30
0.0
 10
91.40294611926731
 20
102.7413773304215
 30
0.0
 10
91.23109620875266
 20
102.5944464182775
 30
0.0
 10
91.06575221877134
 20
102.4555425768037
 30
0.0
 10
90.90708941415956
 20
102.3244774795474
 30
0.0
 10
90.75527227588492
 20
102.2010693954192
 30
0.0
 10
90.61045480847629
 20
102.0851435379604
 30
0.0
 10
90.47278101775977
 20
101.9765323906467
 30
0.0
 10
90.34238475356935
 20
101.8750760107764
 30
0.0
 10
90.21939166620113
 20
101.7806223071532
 30
0.0
 10
89.83897794005802
 20
101.4920615926428
 30
0.0
 10
89.19414506954048
 20
101.0280258668521
 30
0.0
 10
88.26935402950312
 20
100.4225901899861
 30
0.0
 10
87.34284905842404
 20
99.87157379635167
 30
0.0
 10
86.41805383957252
 20
99.37304243781618
 30
0.0
 10
85.49811131336897
 20
98.92488533881425
 30
0.0
 10
84.58590529123131
 20
98.52497119771837
 30
0.0
 10
83.68415279027602
 20
98.17078425068884
 30
0.0
 10
82.79506059701066
 20
97.86080382250759
 30
0.0
 10
81.92159452619596
 20
97.589671757603
 30
0.0
 10
81.34037707079695
 20
97.43794382170793
 30
0.0
 10
81.0541755349881
 20
97.36323035968975
 30
0.0
  0
LINE
  5
1C4
330
1F
100
AcDbEntity
  8
0
  6
Continuous
 62
     7
370
    15
100
AcDbLine
 10
81.0540789526
 20
108.9651702191
 30
0.0
 11
78.5540790085
 21
108.9380044709
 31
0.0
  0
LINE
  5
1C5
330
1F
100
AcDbEntity
  8
0
  6
Continuous
 62
     7
370
    15
100
AcDbLine
 10
78.5540790085
 20
108.9380044709
 30
0.0
 11
76.5940790434
 21
109.1601463254
 31
0.0
  0
LINE
  5
1C6
330
1F
100
AcDbEntity
  8
0
  6
Continuous
 62
     7
370
    15
100
AcDbLine
 10
76.5940790434
 20
109.1601463254
 30
0.0
 11
76.5940790434
 21
119.6353697437
 31
0.0
  0
LINE
  5
1C7
330
1F
100
AcDbEntity
  8
0
  6
Continuous
 62
     7
370
    15
100
AcDbLine
 10
96.7940795954
 20
118.757150251
 30
0.0
 11
76.5940790434
 21
119.6353697437
 31
0.0
  0
LINE
  5
1C8
330
1F
100
AcDbEntity
  8
0
  6
Continuous
 62
     7
370
    15
100
AcDbLine
 10
96.7940795954
 20
110.1110713775
 30
0.0
 11
96.7940795954
 21
118.757150251
 31
0.0
  0
LINE
  5
1C9
330
1F
100
AcDbEntity
  8
0
  6
Continuous
 62
     7
370
    15
100
AcDbLine
 10
81.0540789526
 20
108.9651702191
 30
0.0
 11
81.0540789526
 21
108.6281096782
 31
0.0
  0
LINE
  5
1CA
330
1F
100
AcDbEntity
  8
0
  6
Continuous
 62
     7
370
    15
100
AcDbLine
 10
96.7940795954
 20
118.757150251
 30
0.0
 11
96.7940795954
 21
123.3607778545
 31
0.0
  0
ARC
  5
1CB
330
1F
100
AcDbEntity
  8
0
  6
Continuous
 62
     7
370
    15
100
AcDbCircle
 10
76.2940790292
 20
123.3607778545
 30
0.0
 40
20.5
100
AcDbArc
 50
0.0
 51
89.1614952473
  0
LINE
  5
1CC
330
1F
100
AcDbEntity
  8
0
  6
Continuous
 62
     7
370
    15
100
AcDbLine
 10
76.5940790434
 20
119.6353697437
 30
0.0
 11
76.5940790434
 21
143.8585823621
 31
0.0
  0
SPLINE
  5
1CD
330
1F
100
AcDbEntity
  8
0
  6
Continuous
 62
     7
370
    15
100
AcDbSpline
210
0.0
220
0.0
230
1.0
 70
     8
 71
     3
 72
     8
 73
     4
 74
     0
 42
0.00000001
 43
0.00000001
 12
1.0
 22
0.0
 32
0.0
 13
1.0
 23
0.0
 33
0.0
 40
0.0
 40
0.0
 40
0.0
 40
0.0
 40
1.0
 40
1.0
 40
1.0
 40
1.0
 10
76.59407902919533
 20
143.434038886008
 30
0.0
 10
76.59407902919484
 20
143.3819109081097
 30
0.0
 10
76.56258844666031
 20
143.359081518354
 30
0.0
 10
76.49742479604403
 20
143.359744090227
 30
0.0
  0
SPLINE
  5
1CE
330
1F
100
AcDbEntity
  8
0
  6
Continuous
 62
     7
370
    15
100
AcDbSpline
210
0.0
220
0.0
230
1.0
 70
     8
 71
     3
 72
     9
 73
     5
 74
     0
 42
0.00000001
 43
0.00000001
 12
1.0
 22
0.0
 32
0.0
 13
1.0
 23
0.0
 33
0.0
 40
0.0
 40
0.0
 40
0.0
 40
0.0
 40
0.7978727752534539
 40
1.0
 40
1.0
 40
1.0
 40
1.0
 10
76.00113427821371
 20
103.3629240687209
 30
0.0
 10
76.08922292429709
 20
103.3618896684799
 30
0.0
 10
76.19962730055292
 20
103.3605932208844
 30
0.0
 10
76.27819779336508
 20
103.3608943802844
 30
0.0
 10
76.29407902902416
 20
103.3609552527982
 30
0.0
  0
SPLINE
  5
1CF
330
1F
100
AcDbEntity
  8
0
  6
Continuous
 62
     7
370
    15
100
AcDbSpline
210
0.0
220
0.0
230
1.0
 70
     8
 71
     3
 72
     8
 73
     4
 74
     0
 42
0.00000001
 43
0.00000001
 12
1.0
 22
0.0
 32
0.0
 13
1.0
 23
0.0
 33
0.0
 40
0.0
 40
0.0
 40
0.0
 40
0.0
 40
1.0
 40
1.0
 40
1.0
 40
1.0
 10
76.49742479603141
 20
143.3597440902352
 30
0.0
 10
76.39335540941015
 20
143.3608022483908
 30
0.0
 10
76.21208514321827
 20
143.3617225027845
 30
0.0
 10
76.00113426527734
 20
143.3586323235239
 30
0.0
  0
ELLIPSE
  5
1D0
330
1F
100
AcDbEntity
  8
0
  6
Continuous
 62
     7
370
    15
100
AcDbEllipse
 10
64.9932824991
 20
115.9343316105
 30
0.0
 11
-1.928457854319682
 21
2.206071778996076
 31
0.0
210
0.0
220
0.0
230
1.0
 40
0.7033638942
 41
0.0
 42
6.283185307179586
  0
ARC
  5
1D1
330
1F
100
AcDbEntity
  8
0
  6
Continuous
 62
     7
370
    15
100
AcDbCircle
 10
76.2940790292
 20
123.3607778545
 30
0.0
 40
20.00000000000002
100
AcDbArc
 50
90.8392549412
 51
269.1607450588
  0
SPLINE
  5
1D2
330
1F
100
AcDbEntity
  8
0
  6
Continuous
 62
     7
370
    15
100
AcDbSpline
210
0.0
220
0.0
230
1.0
 70
     8
 71
     3
 72
     9
 73
     5
 74
     0
 42
0.00000001
 43
0.00000001
 12
1.0
 22
0.0
 32
0.0
 13
1.0
 23
0.0
 33
0.0
 40
0.0
 40
0.0
 40
0.0
 40
0.0
 40
0.3213715118807265
 40
1.0
 40
1.0
 40
1.0
 40
1.0
 10
62.56369275712233
 20
116.5836123968678
 30
0.0
 10
62.59907595111659
 20
116.5558523011674
 30
0.0
 10
62.7091765440011
 20
116.4694722249185
 30
0.0
 10
62.81554168225568
 20
116.390775291858
 30
0.0
 10
62.88772409521799
 20
116.3373693111556
 30
0.0
  0
SPLINE
  5
1D3
330
1F
100
AcDbEntity
  8
0
  6
Continuous
 62
     7
370
    15
100
AcDbSpline
210
0.0
220
0.0
230
1.0
 70
     8
 71
     3
 72
    28
 73
    24
 74
     0
 42
0.00000001
 43
0.00000001
 12
1.0
 22
0.0
 32
0.0
 13
1.0
 23
0.0
 33
0.0
 40
0.0
 40
0.0
 40
0.0
 40
0.0
 40
0.044834196313446
 40
0.0899369412114314
 40
0.1358618604694412
 40
0.1820872368058332
 40
0.2351998280635791
 40
0.2892249377479803
 40
0.3302653611385011
 40
0.3724195966172422
 40
0.4135022358873534
 40
0.4557404729278545
 40
0.4887561101908796
 40
0.5220424745242259
 40
0.5899478185659713
 40
0.6456404566213845
 40
0.7017263152911614
 40
0.7590129463303285
 40
0.8167503557723865
 40
0.8938681626970728
 40
0.933220772308937
 40
0.972852943960599
 40
1.0
 40
1.0
 40
1.0
 40
1.0
 10
62.88772409521799
 20
116.3373693111556
 30
0.0
 10
62.93124601727212
 20
116.3392528556509
 30
0.0
 10
63.01855054968364
 20
116.3430312267264
 30
0.0
 10
63.15529929919798
 20
116.3663919436036
 30
0.0
 10
63.29761743160335
 20
116.4016832516343
 30
0.0
 10
63.45412768174965
 20
116.4516354868227
 30
0.0
 10
63.62781454307466
 20
116.5164722036621
 30
0.0
 10
63.80751423655833
 20
116.5889701824409
 30
0.0
 10
63.98494977073731
 20
116.6600827328926
 30
0.0
 10
64.15298083858603
 20
116.7242672522362
 30
0.0
 10
64.32507388299067
 20
116.785543876281
 30
0.0
 10
64.48187968157217
 20
116.8381090000086
 30
0.0
 10
64.6231499763579
 20
116.8844692760065
 30
0.0
 10
64.79160066111365
 20
116.9402610515077
 30
0.0
 10
64.97704430515037
 20
117.0053565655421
 30
0.0
 10
65.17306153307976
 20
117.0853782110372
 30
0.0
 10
65.34361649800331
 20
117.1682665016659
 30
0.0
 10
65.50122244258851
 20
117.2623063637469
 30
0.0
 10
65.65917972851405
 20
117.3818032684164
 30
0.0
 10
65.78038980235752
 20
117.5068466066953
 30
0.0
 10
65.86586060700591
 20
117.6342967145345
 30
0.0
 10
65.91654322612668
 20
117.7260493635558
 30
0.0
 10
65.93452066268182
 20
117.7914930861198
 30
0.0
 10
65.94182884060602
 20
117.818097233327
 30
0.0
  0
LWPOLYLINE
  5
1D4
330
1F
100
AcDbEntity
  8
0
  6
Continuous
 62
     7
370
    15
100
AcDbPolyline
 90
        6
 70
   128
 43
0.0
 10
62.5603362706
 20
117.2368602115
 10
62.675540873
 20
116.920338593
 10
62.7838471692
 20
116.6227693889
 10
62.8623446237
 20
116.407099295
 10
62.9070341375
 20
116.284314658
 10
62.9169322338
 20
116.2571209702
  0
LWPOLYLINE
  5
1D5
330
1F
100
AcDbEntity
  8
0
  6
Continuous
 62
     7
370
    15
100
AcDbPolyline
 90
        3
 70
   128
 43
0.0
 10
96.3607705917
 20
127.7579116854
 10
96.2668690618
 20
128.0159029397
 10
96.2433922824
 20
128.0804035473
  0
LWPOLYLINE
  5
1D6
330
1F
100
AcDbEntity
  8
0
  6
Continuous
 62
     7
370
    15
100
AcDbPolyline
 90
        5
 70
   128
 43
0.0
 10
94.6098580744
 20
132.5685071047
 10
94.52494567
 20
132.801801547
 10
94.4503225174
 20
133.0068266238
 10
94.408945718
 20
133.1205066513
 10
94.4005638149
 20
133.1435326706
  0
LWPOLYLINE
  5
1D7
330
1F
100
AcDbEntity
  8
0
  6
Continuous
 62
     7
370
    15
100
AcDbPolyline
 90
        4
 70
   128
 43
0.0
 10
96.4526846793
 20
127.5053775157
 10
96.4510250624
 20
127.5099395993
 10
96.4228600051
 20
127.5873208638
 10
96.3607705917
 20
127.7579116854
  0
LWPOLYLINE
  5
1D8
330
1F
100
AcDbEntity
  8
0
  6
Continuous
 62
     7
370
    15
100
AcDbPolyline
 90
       16
 70
   128
 43
0.0
 10
96.4487340089
 20
127.9255665126
 10
96.3560580995
 20
128.1801905702
 10
96.2345465805
 20
128.5140445675
 10
96.088587844
 20
128.9150618236
 10
95.9234587636
 20
129.3687490965
 10
95.7451272544
 20
129.8587085898
 10
95.5600399312
 20
130.367232136
 10
95.3748855528
 20
130.875940084
 10
95.1963566031
 20
131.366447195
 10
95.0309034225
 20
131.821023881
 10
94.884508827
 20
132.2232416119
 10
94.7624608662
 20
132.5585624422
 10
94.6691740092
 20
132.8148680027
 10
94.608017781
 20
132.9828934963
 10
94.5812031414
 20
133.0565666999
 10
94.580003598
 20
133.0598589252
  0
LWPOLYLINE
  5
1D9
330
1F
100
AcDbEntity
  8
0
  6
Continuous
 62
     7
370
    15
100
AcDbPolyline
 90
        4
 70
   128
 43
0.0
 10
96.5363602873
 20
127.6848172988
 10
96.5353376951
 20
127.6876229081
 10
96.5092234101
 20
127.7593752588
 10
96.4487340089
 20
127.9255665126
  0
LINE
  5
1DA
330
1F
100
AcDbEntity
  8
0
  6
Continuous
 62
     7
370
    15
100
AcDbLine
 10
79.5518176884
 20
108.7983731399
 30
0.0
 11
76.2940790292
 21
108.8332353379
 31
0.0
  0
LINE
  5
1DB
330
1F
100
AcDbEntity
  8
0
  6
Continuous
 62
     7
370
    15
100
AcDbLine
 10
81.0540789526
 20
108.6281096782
 30
0.0
 11
79.5518176884
 21
108.7983731399
 31
0.0
  0
LINE
  5
1DC
330
1F
100
AcDbEntity
  8
0
  6
Continuous
 62
     7
370
    15
100
AcDbLine
 10
81.0540789526
 20
96.9636893119
 30
0.0
 11
81.0540789526
 21
108.6281096782
 31
0.0
  0
LINE
  5
1DD
330
1F
100
AcDbEntity
  8
0
  6
Continuous
 62
     7
370
    15
100
AcDbLine
 10
81.0540789526
 20
96.9636893119
 30
0.0
 11
79.5518176884
 21
96.7607783373
 31
0.0
  0
LINE
  5
1DE
330
1F
100
AcDbEntity
  8
0
  6
Continuous
 62
     7
370
    15
100
AcDbLine
 10
79.5518176884
 20
96.7607783373
 30
0.0
 11
76.2940790292
 21
96.7956396039
 31
0.0
  0
LINE
  5
1DF
330
1F
100
AcDbEntity
  8
0
  6
Continuous
 62
     7
370
    15
100
AcDbLine
 10
76.2940790292
 20
96.7956396039
 30
0.0
 11
76.2940790292
 21
108.8332353379
 31
0.0
  0
LINE
  5
1E0
330
1F
100
AcDbEntity
  8
0
  6
Continuous
 62
     7
370
    15
100
AcDbLine
 10
76.2940790292
 20
96.3607771541
 30
0.0
 11
76.2940790292
 21
96.7956396039
 31
0.0
  0
LINE
  5
1E1
330
1F
100
AcDbEntity
  8
0
  6
Continuous
 62
     7
370
    15
100
AcDbLine
 10
79.5518176884
 20
108.7983731399
 30
0.0
 11
76.5950819032
 21
109.160032704
 31
0.0
  0
LINE
  5
1E2
330
1F
100
AcDbEntity
  8
0
  6
Continuous
 62
     7
370
    15
100
AcDbLine
 10
76.5940790434
 20
109.1601556386
 30
0.0
 11
76.2940790292
 21
109.1968506794
 31
0.0
  0
LINE
  5
1E3
330
1F
100
AcDbEntity
  8
0
  6
Continuous
 62
     7
370
    15
100
AcDbLine
 10
76.2940790292
 20
108.8332353379
 30
0.0
 11
76.2940790292
 21
109.1968506794
 31
0.0
  0
LINE
  5
1E4
330
1F
100
AcDbEntity
  8
0
  6
Continuous
 62
     7
370
    15
100
AcDbLine
 10
76.5940790434
 20
110.2133082445
 30
0.0
 11
76.2940790292
 21
110.2500042166
 31
0.0
  0
LINE
  5
1E5
330
1F
100
AcDbEntity
  8
0
  6
Continuous
 62
     7
370
    15
100
AcDbLine
 10
76.2940790292
 20
109.1968506794
 30
0.0
 11
76.2940790292
 21
110.2500042166
 31
0.0
  0
LINE
  5
1E6
330
1F
100
AcDbEntity
  8
0
  6
Continuous
 62
     7
370
    15
100
AcDbLine
 10
76.2940790292
 20
110.2500042166
 30
0.0
 11
76.2940790292
 21
110.2515259977
 31
0.0
  0
CIRCLE
  5
1E7
330
1F
100
AcDbEntity
  8
VERMASSUNG
  6
CENTERX2
100
AcDbCircle
 10
76.2940790292
 20
121.4117431176
 30
0.0
 40
25.0
  0
DIMENSION
  5
1E8
330
1F
100
AcDbEntity
  8
VERMASSUNG
100
AcDbDimension
  2
_D_5
 10
94.2810892041
 20
138.7745615802
 30
0.0
 11
103.4104695336
 21
147.5871308619
 31
0.0
 70
   160
  1
%%c<> min. 
 71
     2
 42
-1.0
  3
SLDDIMSTYLE3
100
AcDbAlignedDimension
 13
58.3070688542
 23
104.0489246549
 33
0.0
 14
94.2810892041
 24
138.7745615802
 34
0.0
 50
43.9884014747
100
AcDbRotatedDimension
  0
INSERT
  5
202
330
1F
100
AcDbEntity
  8
VERMASSUNG
100
AcDbBlockReference
  2
SW_CENTERMARKSYMBOL_0
 10
76.2940790292
 20
123.3607778545
 30
0.0
  0
OLE2FRAME
  5
203
330
1F
100
AcDbEntity
  8
0
100
AcDbOle2Frame
 70
     2
  3
Paintbrush-Bild
 10
13.8511154363
 20
38.264191557
 30
0.0
 11
51.6290888628
 21
31.9806341108
 31
0.0
 71
     2
 72
     0
 73
     1
 90
    12928
310
80552BED0767C5B32B40DDAF6807D121434000000000000000006FFBDDFB85D0
310
4940DDAF6807D121434000000000000000006FFBDDFB85D04940416F4BD60AFB
310
3F4000000000000000002BED0767C5B32B40416F4BD60AFB3F40000000000000
310
0000000000000100000000010000010000000100000000000100000000320000
310
D0CF11E0A1B11AE1000000000000000000000000000000003E000300FEFF0900
310
0600000000000000000000000100000001000000000000000010000002000000
310
01000000FEFFFFFF0000000000000000FFFFFFFFFFFFFFFFFFFFFFFFFFFFFFFF
310
FFFFFFFFFFFFFFFFFFFFFFFFFFFFFFFFFFFFFFFFFFFFFFFFFFFFFFFFFFFFFFFF
310
FFFFFFFFFFFFFFFFFFFFFFFFFFFFFFFFFFFFFFFFFFFFFFFFFFFFFFFFFFFFFFFF
310
FFFFFFFFFFFFFFFFFFFFFFFFFFFFFFFFFFFFFFFFFFFFFFFFFFFFFFFFFFFFFFFF
310
FFFFFFFFFFFFFFFFFFFFFFFFFFFFFFFFFFFFFFFFFFFFFFFFFFFFFFFFFFFFFFFF
310
FFFFFFFFFFFFFFFFFFFFFFFFFFFFFFFFFFFFFFFFFFFFFFFFFFFFFFFFFFFFFFFF
310
FFFFFFFFFFFFFFFFFFFFFFFFFFFFFFFFFFFFFFFFFFFFFFFFFFFFFFFFFFFFFFFF
310
FFFFFFFFFFFFFFFFFFFFFFFFFFFFFFFFFFFFFFFFFFFFFFFFFFFFFFFFFFFFFFFF
310
FFFFFFFFFFFFFFFFFFFFFFFFFFFFFFFFFFFFFFFFFFFFFFFFFFFFFFFFFFFFFFFF
310
FFFFFFFFFFFFFFFFFFFFFFFFFFFFFFFFFFFFFFFFFFFFFFFFFFFFFFFFFFFFFFFF
310
FFFFFFFFFFFFFFFFFFFFFFFFFFFFFFFFFFFFFFFFFFFFFFFFFFFFFFFFFFFFFFFF
310
FFFFFFFFFFFFFFFFFFFFFFFFFFFFFFFFFFFFFFFFFFFFFFFFFFFFFFFFFFFFFFFF
310
FFFFFFFFFFFFFFFFFFFFFFFFFFFFFFFFFFFFFFFFFFFFFFFFFFFFFFFFFFFFFFFF
310
FFFFFFFFFFFFFFFFFFFFFFFFFFFFFFFFFFFFFFFFFFFFFFFFFFFFFFFFFFFFFFFF
310
FDFFFFFFFEFFFFFFFEFFFFFFFEFFFFFF05000000060000000700000008000000
310
090000000A0000000B0000000C0000000D0000000E0000000F00000010000000
310
11000000120000001300000014000000150000001600000017000000FEFFFFFF
310
FFFFFFFFFFFFFFFFFFFFFFFFFFFFFFFFFFFFFFFFFFFFFFFFFFFFFFFFFFFFFFFF
310
FFFFFFFFFFFFFFFFFFFFFFFFFFFFFFFFFFFFFFFFFFFFFFFFFFFFFFFFFFFFFFFF
310
FFFFFFFFFFFFFFFFFFFFFFFFFFFFFFFFFFFFFFFFFFFFFFFFFFFFFFFFFFFFFFFF
310
FFFFFFFFFFFFFFFFFFFFFFFFFFFFFFFFFFFFFFFFFFFFFFFFFFFFFFFFFFFFFFFF
310
FFFFFFFFFFFFFFFFFFFFFFFFFFFFFFFFFFFFFFFFFFFFFFFFFFFFFFFFFFFFFFFF
310
FFFFFFFFFFFFFFFFFFFFFFFFFFFFFFFFFFFFFFFFFFFFFFFFFFFFFFFFFFFFFFFF
310
FFFFFFFFFFFFFFFFFFFFFFFFFFFFFFFFFFFFFFFFFFFFFFFFFFFFFFFFFFFFFFFF
310
FFFFFFFFFFFFFFFFFFFFFFFFFFFFFFFFFFFFFFFFFFFFFFFFFFFFFFFFFFFFFFFF
310
FFFFFFFFFFFFFFFFFFFFFFFFFFFFFFFFFFFFFFFFFFFFFFFFFFFFFFFFFFFFFFFF
310
FFFFFFFFFFFFFFFFFFFFFFFFFFFFFFFFFFFFFFFFFFFFFFFFFFFFFFFFFFFFFFFF
310
FFFFFFFFFFFFFFFFFFFFFFFFFFFFFFFFFFFFFFFFFFFFFFFFFFFFFFFFFFFFFFFF
310
FFFFFFFFFFFFFFFFFFFFFFFFFFFFFFFFFFFFFFFFFFFFFFFFFFFFFFFFFFFFFFFF
310
FFFFFFFFFFFFFFFFFFFFFFFFFFFFFFFFFFFFFFFFFFFFFFFFFFFFFFFFFFFFFFFF
310
52006F006F007400200045006E00740072007900000000000000000000000000
310
0000000000000000000000000000000000000000000000000000000000000000
310
16000500FFFFFFFFFFFFFFFF020000000A00030000000000C000000000000046
310
0000000000000000000000001000922B4E24CD0103000000C000000000000000
310
01004F006C006500000000000000000000000000000000000000000000000000
310
0000000000000000000000000000000000000000000000000000000000000000
310
0A000200FFFFFFFFFFFFFFFFFFFFFFFF00000000000000000000000000000000
310
0000000000000000000000000000000000000000000000001400000000000000
310
010043006F006D0070004F0062006A0000000000000000000000000000000000
310
0000000000000000000000000000000000000000000000000000000000000000
310
120002010100000003000000FFFFFFFF00000000000000000000000000000000
310
0000000000000000000000000000000000000000010000004D00000000000000
310
01004F006C006500310030004E00610074006900760065000000000000000000
310
0000000000000000000000000000000000000000000000000000000000000000
310
1A000200FFFFFFFFFFFFFFFFFFFFFFFF00000000000000000000000000000000
310
0000000000000000000000000000000000000000040000002426000000000000
310
FEFFFFFF02000000FEFFFFFFFFFFFFFFFFFFFFFFFFFFFFFFFFFFFFFFFFFFFFFF
310
FFFFFFFFFFFFFFFFFFFFFFFFFFFFFFFFFFFFFFFFFFFFFFFFFFFFFFFFFFFFFFFF
310
FFFFFFFFFFFFFFFFFFFFFFFFFFFFFFFFFFFFFFFFFFFFFFFFFFFFFFFFFFFFFFFF
310
FFFFFFFFFFFFFFFFFFFFFFFFFFFFFFFFFFFFFFFFFFFFFFFFFFFFFFFFFFFFFFFF
310
FFFFFFFFFFFFFFFFFFFFFFFFFFFFFFFFFFFFFFFFFFFFFFFFFFFFFFFFFFFFFFFF
310
FFFFFFFFFFFFFFFFFFFFFFFFFFFFFFFFFFFFFFFFFFFFFFFFFFFFFFFFFFFFFFFF
310
FFFFFFFFFFFFFFFFFFFFFFFFFFFFFFFFFFFFFFFFFFFFFFFFFFFFFFFFFFFFFFFF
310
FFFFFFFFFFFFFFFFFFFFFFFFFFFFFFFFFFFFFFFFFFFFFFFFFFFFFFFFFFFFFFFF
310
FFFFFFFFFFFFFFFFFFFFFFFFFFFFFFFFFFFFFFFFFFFFFFFFFFFFFFFFFFFFFFFF
310
FFFFFFFFFFFFFFFFFFFFFFFFFFFFFFFFFFFFFFFFFFFFFFFFFFFFFFFFFFFFFFFF
310
FFFFFFFFFFFFFFFFFFFFFFFFFFFFFFFFFFFFFFFFFFFFFFFFFFFFFFFFFFFFFFFF
310
FFFFFFFFFFFFFFFFFFFFFFFFFFFFFFFFFFFFFFFFFFFFFFFFFFFFFFFFFFFFFFFF
310
FFFFFFFFFFFFFFFFFFFFFFFFFFFFFFFFFFFFFFFFFFFFFFFFFFFFFFFFFFFFFFFF
310
FFFFFFFFFFFFFFFFFFFFFFFFFFFFFFFFFFFFFFFFFFFFFFFFFFFFFFFFFFFFFFFF
310
FFFFFFFFFFFFFFFFFFFFFFFFFFFFFFFFFFFFFFFFFFFFFFFFFFFFFFFFFFFFFFFF
310
FFFFFFFFFFFFFFFFFFFFFFFFFFFFFFFFFFFFFFFFFFFFFFFFFFFFFFFFFFFFFFFF
310
0100000200000000000000000000000000000000000000000000000000000000
310
0000000000000000000000000000000000000000000000000000000000000000
310
0100FEFF030A0000FFFFFFFF0A00030000000000C00000000000004607000000
310
5042727573680007000000504272757368000700000050427275736800F439B2
310
7100000000000000000000000000000000000000000000000000000000000000
310
0000000000000000000000000000000000000000000000000000000000000000
310
0000000000000000000000000000000000000000000000000000000000000000
310
0000000000000000000000000000000000000000000000000000000000000000
310
0000000000000000000000000000000000000000000000000000000000000000
310
0000000000000000000000000000000000000000000000000000000000000000
310
0000000000000000000000000000000000000000000000000000000000000000
310
0000000000000000000000000000000000000000000000000000000000000000
310
0000000000000000000000000000000000000000000000000000000000000000
310
0000000000000000000000000000000000000000000000000000000000000000
310
0000000000000000000000000000000000000000000000000000000000000000
310
0000000000000000000000000000000000000000000000000000000000000000
310
20260000424D0E260000000000003E00000028000000B40200006E0000000100
310
01000000000000000000130B0000130B00000200000002000000000000FFFFFF
310
FFFFFFFFFFFFFFFFFFFFFFFFFFFFFFFFFFFFFFFFFFFFFFFFFFFFFFFFFFFFFFFF
310
FFFFFFFFFFFFFFFFFFFFFFFFFFFFFFFFFFFFFFFFFFFFFFFFFFFFFFFFFFFFFFFF
310
FFFFFFFFFFFFFFFFFFFFFFFFFFFFFFFFFFFFFFFFFFFFFFFFF000FFFFFFFFFFFF
310
FFFFFFFFFFFFFFFFFFFFFFFFFFFFFFFFFFFFFFFFFFFFFFFFFFFFFFFFFFFFFFFF
310
FFFFFFFFFFFFFFFFFFFFFFFFFFFFFFFFFFFFFFFFFFFFFFFFFFFFFFFFFFFFFFFF
310
FFFFFFFFFFFFFFFFFFFFFFFFFFFFFFFFF000FFFFFFFFFFFFFFFFFFFFFFFFFFFF
310
FFFFFFFFFFFFFFFFFFFFFFFFFFFFFFFFFFFFFFFFFFFFFFFFFFFFFFFFFFFFFFFF
310
FFFFFFFFFFFFFFFFFFFFFFFFFFFFFFFFFFFFFFFFFFFFFFFFFFFFFFFFFFFFFFFF
310
FFFFFFFFFFFFFFFFF000FFFFFFFFFFFFFFFFFFFFFFFFFFFFFFFFFFFFFFFFFFFF
310
FFFFFFFFFFFFFFFFFFFFFFFFFFFFFFFFFFFFFFFFFFFFFFFFFFFFFFFFFFFFFFFF
310
FFFFFFFFFFFFFFFFFFFFFFFFFFFFFFFFFFFFFFFFFFFFFFFFFFFFFFFFFFFFFFFF
310
F000FFFFFFFFFFFFFFFFFFFFFFFFFFFFFFFFFFFFFFFFFFFFFFFFFFFFFFFFFFFF
310
FFFFFFFFFFFFFFFFFFFFFFFFFFFFFFFFFFFFFFFFFFFFFFFFFFFFFFFFFFFFFFFF
310
FFFFFFFFFFFFFFFFFFFFFFFFFFFFFFFFFFFFFFFFFFFFFFFFF000FFFFFFFFFFFF
310
FFFFFFFFFFFFFFFFFFFFFFFFFFFFFFFFFFFFFFFFFFFFFFFFFFFFFFFFFFFFFFFF
310
FFFFFFFFFFFFFFFFFFFFFFFFFFFFFFFFFFFFFFFFFFFFFFFFFFFFFFFFFFFFFFFF
310
FFFFFFFFFFFFFFFFFFFFFFFFFFFFFFFFF000FFFFFFFFFFFFFFFFFFFFFFFFFFFF
310
FFFFFFFFFFFFFFFFFFFFFFFFFFFFFFFFFFFFFFFFFFFFFFFFFFFFFFFFFFFFFFFF
310
FFFFFFFFFFFFFFFFFFFFFFFFFFFFFFFFFFFFFFFFFFFFFFFFFFFFFFFFFFFFFFFF
310
FFFFFFFFFFFFFFFFF000FFFFFFFFFFFFFFFFFFFFFFFFFFFFFFFFFFFFFFFFFFFF
310
FFFFFFFFFFFFFFFFFFFFFFFFFFFFFFFFFFFFFFFFFFFFFFFFFFFFFFFFFFFFFFFF
310
FFFFFFFFFFFFFFFFFFFFFFFFFFFFFFFFFFFFFFFFFFFFFFFFFFFFFFFFFFFFFFFF
310
F000FFFFFFFFFFFFFFFFFFFFFFFFFFFFFFFFFFFFFFFFFFFFFFFFFFFFFFFFFFFF
310
FFFFFFFFFFFFFFFFFFFFFFFFFFFFFFFFFFFFFFFFFFFFFFFFFFFFFFFFFFFFFFFF
310
FFFFFFFFFFFFFFFFFFFFFFFFFFFFFFFFFFFFFFFFFFFFFFFFF000FFFFFFFFFFFF
310
FFFFFFFFFFFFFFFFFFFFFFFFFFFFFFFFFFFFFFFFFFFFFFFFFFFFFFFFFFFFFFFF
310
FFFFFFFFFFFFFFFFFFFFFFFFFFFFFFFFFFFFFFFFFFFFFFFFFFFFFFFFFFFFFFFF
310
FFFFFFFFFFFFFFFFFFFFFFFFFFFFFFFFF000FFFFFFFFFFFFFFFFFFFFFFFFFFFF
310
FFFFFFFFFFFFFFFFFFFFFFFFFFFFFFFFFFFFFFFFFFFFFFFFFFFFFFFFFFFFFFFF
310
FFFFFFFFFFFFFFFFFFFFFFFFFFFFFFFFFFFFFFFFFFFFFFFFFFFFFFFFFFFFFFFF
310
FFFFFFFFFFFFFFFFF000FFFFFFFFFFFFFFFFFFFFFFFFFFFFFFFFFFFFFFFFFFFF
310
FFFFFFFFFFFFFFFFFFFFFFFFFFFFFFFFFFFFFFFFFFFFFFFFFFFFFFFFFFFFFFFF
310
FFFFFFFFFFFFFFFFFFFFFFFFFFFFFFFFFFFFFFFFFFFFFFFFFFFFFFFFFFFFFFFF
310
F000FFFFFFFFFFFFFFFFFFFFFFFFFFFFFFFFFFFFFFFFFFFFFFFFFFFFFFFFFFFF
310
FFFFFFFFFFFFFFFFFFFFFFFFFFFFFFFFFFFFFFFFFFFFFFFFFFFFFFFFFFFFFFFF
310
FFFFFFFFFFFFFFFFFFFFFFFFFFFFFFFFFFFFFFFFFFFFFFFFF000FFFFFFFFFFFF
310
FFFFFFFFFFFFFFFFFFFFFFFFFFFFFFFFFFFFFFFFFFFFFFFFFFFFFFFFFFFFFFFF
310
FFFFFFFFFFFFFFFFFFFFFFFFFFFFFFFFFFFFFFFFFFFFFFFFFFFFFFFFFFFFFFFF
310
FFFFFFFFFFFFFFFFFFFFFFFFFFFFFFFFF000FFFFFFFFFFFFFFFFFFFFFFFFFFFF
310
FFFFFFFFFFFFFFFFFFFFFFFFFFFFFFFFFFFFFFFFFFFFFFFFFFFFFFFFFFFFFFFF
310
FFFFFFFFFFFFFFFFFFFFFFFFFFFFFFFFFFFFFFFFFFFFFFFFFFFFFFFFFFFFFFFF
310
FFFFFFFFFFFFFFFFF000FFFFFFFFFFFFFFFFFFFFFFFFFFFFFFFFFFFFFFFFFFFF
310
FFFFFFFFFFFFFFFFFFFFFFFFFFFFFFFFFFFFFFFFFFFFFFFFFFFFFFFFFFFFFFFF
310
FFFFFFFFFFFFFFFFFFFFFFFFFFFFFFFFFFFFFFFFFFFFFFFFFFFFFFFFFFFFFFFF
310
F000FFFFFFFFFFFFFFFFFFFFFFFFFFFFFFFFFFFFFFFFFFFFFFFFFFFFFFFFFFFF
310
FFFFFFFFFFFFFFFFFFFFFFFFFFFFFFFFFFFFFFFFFFFFFFFFFFFFFFFFFFFFFFFF
310
FFFFFFFFFFFFFFFFFFFFFFFFFFFFFFFFFFFFFFFFFFFFFFFFF000FFFFFFFFFFFF
310
FFFFFFFFFFFFFFFFFFFFFFFFFFFFFFFFFFFFFFFFFFFFFFFFFFFFFFFFFFFFFFFF
310
FFFFFFFFFFFFFFFFFFFFFFFFFFFFFFFFFFFFFFFFFFFFFFFFFFFFFFFFFFFFFFFF
310
FFFFFFFFFFFFFFFFFFFFFFFFFFFFFFFFF000FFFFFFFFFFFFFFFFFFFFFFFFFFFF
310
FFFFFFFFFFFFFFFFFFFFFFFFFFFFFFFFFFFFFFFFFFFFFFFFFFFFFFFFFFFFFFFF
310
FFFFFFFFFFFFFFFFFFFFFFFFFFFFFFFFFFFFFFFFFFFFFFFFFFFFFFFFFFFFFFFF
310
FFFFFFFFFFFFFFFFF000FFFFF80003FFFFFFFFFFFFFFFFFFFFFFFFFFFFFFFFFF
310
FFFFF00007FFFFFFFFFF00007FFFFFF800000000000000007FFFFFFFFFFFFFFF
310
FFFFFFFC001FFFFFFFFFFFFFFC001FFFFFFFFFFFFFFFFFFFFFFFFFFE0007FFFF
310
F000FFFF8000007FFFFFFFF8000FFFFFC0007FFFFF80007FFFFF0000007FFFFF
310
FFF8000007FFFFF800000000000000007FFFFFF0001FFFFFFFFFFFC00001FFFF
310
FFFFFFFFC00001FFFFFFFF000000000003FFFFE000007FFFF000FFFE0000000F
310
FFFFFFF0000FFFFF80007FFFFF80007FFFFC0000001FFFFFFFC0000001FFFFF8
310
00000000000000007FFFFFF0001FFFFFFFFFFE0000003FFFFFFFFFFE0000003F
310
FFFFFF000000000003FFFF0000000FFFF000FFF800000003FFFFFFF00007FFFF
310
80007FFFFF80007FFFF000000007FFFFFF000000003FFFF80000000000000000
310
7FFFFFF0001FFFFFFFFFF80000000FFFFFFFFFF80000000FFFFFFF0000000000
310
03FFFC00000003FFF000FFE000000000FFFFFFF00007FFFF80003FFFFF80007F
310
FFC000000001FFFFFC000000001FFFF800000000000000007FFFFFF0001FFFFF
310
FFFFE000000003FFFFFFFFE000000003FFFFFF000000000003FFF000000000FF
310
F000FF80000000007FFFFFF00007FFFF80003FFFFF80007FFF8000000000FFFF
310
F80000000007FFF800000000000000007FFFFFF0001FFFFFFFFFC000000001FF
310
FFFFFFC000000001FFFFFF000000000003FFC0000000007FF000FF0000000000
310
3FFFFFE00007FFFF00003FFFFF80007FFE00000000003FFFF00000000003FFF8
310
00000000000000007FFFFFF0001FFFFFFFFF8000000000FFFFFFFF8000000000
310
FFFFFF000000000003FF80000000003FF000FE00000000001FFFFFE00003FFFF
310
00003FFFFF80007FFC00000000001FFFE00000000001FFF8000001FFFE000000
310
7FFFFFF0001FFFFFFFFE00000000003FFFFFFE00000000003FFFFF0000000000
310
03FF00000000001FF000FC00000000000FFFFFE00003FFFF00001FFFFF80007F
310
F800000000001FFFC00000000000FFF8000001FFFE0000007FFFFFF0001FFFFF
310
FFFC00000000001FFFFFFC00000000001FFFFF000000000003FE00000000000F
310
F000F8000000000007FFFFE00003FFFF00001FFFFF80007FF800000000000FFF
310
800000000000FFF8000001FFFE0000007FFFFFF0001FFFFFFFF800000000000F
310
FFFFF800000000000FFFFF000000000003FC000000000007F000F80000000000
310
03FFFFC00003FFFE00001FFFFF80007FF0000000000007FF0000000000007FF8
310
000001FFFE0000007FFFFFF0001FFFFFFFF0000000000007FFFFF00000000000
310
07FFFF000000000003F8000000000003F000F0000000000003FFFFC00001FFFE
310
00001FFFFF80007FE0000000000007FE0000000000003FF8000001FFFE000000
310
7FFFFFF0001FFFFFFFF0000000000007FFFFF0000000000007FFFF0000000000
310
03F800001F800003F000E00001FFF00001FFFFC00001FFFE00000FFFFF80007F
310
E00001FFE00003FE00001FFF00003FF8000001FFFE0000007FFFFFF0001FFFFF
310
FFE000003E000003FFFFE000003E000003FFFF000000000003F00001FFF80001
310
F000E00007FFFC0001FFFFC00001FFFE00000FFFFF80007FC0000FFFFC0003FC
310
0000FFFFC0001FF8000001FFFE0000007FFFFFF0001FFFFFFFC00003FFE00001
310
FFFFC00003FFE00001FFFF0001FFFFFFFFF00007FFFE0001F000E0000FFFFF00
310
00FFFF800001FFFC00000FFFFF80007FC0001FFFFE0001FC0001FFFFE0001FF8
310
000001FFFE0000007FFFFFF0001FFFFFFF80000FFFF80000FFFF80000FFFF800
310
00FFFF0003FFFFFFFFE0000FFFFF8000F000C0003FFFFF8000FFFF800000FFFC
310
000007FFFF80007F80003FFFFF0001FC0003FFFFF0001FF8000001FFFE000000
310
7FFFFFF0001FFFFFFF80003FFFFE0000FFFF80003FFFFE0000FFFF0003FFFFFF
310
FFE0003FFFFF8000F000C0003FFFFF8000FFFF800000FFFC000007FFFF80007F
310
80007FFFFF8001F80007FFFFF8000FF8000001FFFE0000007FFFFFF0001FFFFF
310
FF00007FFFFF00007FFF00007FFFFF00007FFF0003FFFFFFFFE0003FFFFFC000
310
F000C0007FFFFFC000FFFF000000FFFC000007FFFF80007F8000FFFFFF8000F8
310
000FFFFFF8000FF8000001FFFE0000007FFFFFF0001FFFFFFF0000FFFFFF8000
310
7FFF0000FFFFFF80007FFF0003FFFFFFFFC0007FFFFFC00070008000FFFFFFC0
310
00FFFF000000FFF8000007FFFF80007F8000FFFFFF8000F8000FFFFFF8000FF8
310
000001FFFE0000007FFFFFF0001FFFFFFE0001FFFFFFC0003FFE0001FFFFFFC0
310
003FFF0003FFFFFFFFC0007FFFFFE00070008000FFFFFFC0007FFF0000007FF8
310
000003FFFF80007F0001FFFFFF8000F8000FFFFFF8000FF8000001FFFE000000
310
7FFFFFF0001FFFFFFE0001FFFFFFC0003FFE0001FFFFFFC0003FFF0003FFFFFF
310
FFC000FFFFFFE00070008000FFFFFFC0007FFF0000007FF8000003FFFF80007F
310
0001FFFFFF8000F8001FFFFFF8000FF8000001FFFE0000007FFFFFF0001FFFFF
310
FE0003FFFFFFE0003FFE0003FFFFFFE0003FFF0003FFFFFFFFC000FFFFFFE000
310
70008000FFFFFFC0007FFE0000007FF8000003FFFF80007F0001FFFFFF8000F0
310
001FFFFFF8000FF8000001FFFE0000007FFFFFF0001FFFFFFC0003FFFFFFE000
310
1FFC0003FFFFFFE0001FFF0003FFFFFFFFC000FFFFFFC00070008000FFFFFF80
310
007FFE0000007FF0000003FFFF80007F0001FFFFFF0000F0001FFFFFF8000FF8
310
000001FFFE0000007FFFFFF0001FFFFFFC0007FFFFFFF0001FFC0007FFFFFFF0
310
001FFF0003FFFFFFFFC000FFFFFFC00070008001FFFFFF0000FFFE0000003FF0
310
000001FFFF80007F0001FFFFFF0000F8001FFFFFF0000FF8000001FFFE000000
310
7FFFFFF0001FFFFFFC0007FFFFFFF0001FFC0007FFFFFFF0001FFF0003FFFFFF
310
FFC001FFFFFF80007000FFFFFFFFFE0000FFFE0008003FF0008001FFFF80007F
310
FFFFFFFFFC0000FFFFFFFFFFE0000FF8000001FFFE0000007FFFFFF0001FFFFF
310
F8000FFFFFFFF8000FF8000FFFFFFFF8000FFF0003FFFFFFFFFFFFFFFFFF0000
310
7000FFFFFFFFFC0000FFFC0008003FF0008001FFFF80007FFFFFFFFFF80001FF
310
FFFFFFFF80000FF8000001FFFE0000007FFFFFF0001FFFFFF8000FFFFFFFF800
310
0FF8000FFFFFFFF8000FFF0003FFFFFFFFFFFFFFFFFE0000F000FFFFFFFFE000
310
00FFFC000C003FE000C001FFFF80007FFFFFFFFFC00001FFFFFFFFFE00001FF8
310
000001FFFE0000007FFFFFF0001FFFFFF8000FFFFFFFF8000FF8000FFFFFFFF8
310
000FFF0003FFFFFFFFFFFFFFFFF00000F000FFFFFFFE000001FFFC000C001FE0
310
00C000FFFF80007FFFFFFFFE000001FFFFFFFFE000001FF80FFFFFFFFFFFFFC0
310
7FFFFFF0001FFFFFF8000FFFFFFFF8000FF8000FFFFFFFF8000FFF0003FFFFFF
310
FFFFFFFFFF800000F000FFFFFFC0000001FFFC001C001FE001C000FFFF80007F
310
FFFFFF80000003FFFFFFF80000001FF80FFFFFFFFFFFFFC07FFFFFF0001FFFFF
310
F8001FFFFFFFFC000FF8001FFFFFFFFC000FFF0003FFFFFFFFFFFFFFF0000001
310
F000FFFFF800000001FFF8001C001FE001C000FFFF80007FFFFFF800000003FF
310
FFFF800000003FF80FFFFFFFFFFFFFC07FFFFFF0001FFFFFF8001FFFFFFFFC00
310
0FF8001FFFFFFFFC000FFF0003FFFFFFFFFFFFFE00000001F000FFFFC0000000
310
03FFF8001E001FC001E000FFFF80007FFFFF8000000007FFFFFC000000003FF8
310
0FFFFFFFFFFFFFC07FFFFFF0001FFFFFF8001FFFFFFFFC000FF8001FFFFFFFFC
310
000FFF0003FFFFFFFFFFFFE000000003F000FFFE0000000007FFF8001E000FC0
310
01E0007FFF80007FFFFE0000000007FFFFE0000000007FF80FFFFFFFFFFFFFC0
310
7FFFFFF0001FFFFFF0001FFFFFFFFC0007F0001FFFFFFFFC0007FF0003FFFFFF
310
FFFFFF0000000003F000FFF80000000007FFF8001E000FC003E0007FFF80007F
310
FFF0000000000FFFFF8000000000FFF80FFFFFFFFFFFFFC07FFFFFF0001FFFFF
310
F0001FFFFFFFFC0007F0001FFFFFFFFC0007FF0003FFFFFFFFFFFC0000000007
310
F000FFE0000000000FFFF0003E000FC003E0007FFF80007FFFC0000000001FFF
310
FE0000000001FFF80FFFFFFFFFFFFFC07FFFFFF0001FFFFFF0001FFFFFFFFC00
310
07F0001FFFFFFFFC0007FF0003FFFFFFFFFFF0000000000FF000FFC000000000
310
1FFFF0003F000F8003F0003FFF80007FFF80000000003FFFF80000000003FFF8
310
0FFFFFFFFFFFFFC07FFFFFF0001FFFFFF0001FFFFFFFFC0007F0001FFFFFFFFC
310
0007FF0003FFFFFFFFFFE0000000001FF000FF00000000007FFFF0003F000780
310
03F0003FFF80007FFF00000000007FFFF00000000007FFF80FFFFFFFFFFFFFC0
310
7FFFFFF0001FFFFFF0001FFFFFFFFC0007F0001FFFFFFFFC0007FF0003FFFFFF
310
FFFF80000000007FF000FE0000000000FFFFE0003F00078007F0003FFF80007F
310
FE0000000001FFFFE0000000001FFFF80FFFFFFFFFFFFFC07FFFFFF0001FFFFF
310
F0001FFFFFFFFC0007F0001FFFFFFFFC0007FF0003FFFFFFFFFF0000000000FF
310
F000FC0000000003FFFFE0007F00078007F0003FFF80007FFC0000000007FFFF
310
C0000000007FFFF80FFFFFFFFFFFFFC07FFFFFF0001FFFFFF8001FFFFFFFFC00
310
0FF8001FFFFFFFFC000FFF0003FFFFFFFFFE0000000003FFF000FC000000000F
310
FFFFE0007F80070007F8001FFF80007FF8000000001FFFFF8000000001FFFFF8
310
0FFFFFFFFFFFFFC07FFFFFF0001FFFFFF8001FFFFFFFFC000FF8001FFFFFFFFC
310
000FFF0003FFFFFFFFFC000000000FFFF000F8000000007FFFFFE0007F800700
310
07F8001FFF80007FF000000000FFFFFF800000000FFFFFF80FFFFFFFFFFFFFC0
310
7FFFFFF0001FFFFFF8000FFFFFFFF8000FF8000FFFFFFFF8000FFF0003FFFFFF
310
FFFC000000007FFFF000F800000007FFFFFFC0007F8003000FF8001FFF80007F
310
F000000007FFFFFF000000007FFFFFF80FFFFFFFFFFFFFC07FFFFFF0001FFFFF
310
F8000FFFFFFFF8000FF8000FFFFFFFF8000FFF0003FFFFFFFFF80000000FFFFF
310
F000F0000000FFFFFFFFC000FF8003000FF8001FFF80007FE0000000FFFFFFFF
310
0000000FFFFFFFF8000001FFFE0000007FFFFFF0001FFFFFF8000FFFFFFFF800
310
0FF8000FFFFFFFF8000FFF0003FFFFFFFFF8000000FFFFFFF000F000000FFFFF
310
FFFFC000FFC002000FF8000FFF80007FE000001FFFFFFFFE000001FFFFFFFFF8
310
000001FFFE0000007FFFFFF0001FFFFFF8000FFFFFFFF8000FF8000FFFFFFFF8
310
000FFF0003FFFFFFFFF000001FFFFFFFF000E00000FFFFFFFFFFC000FFC00200
310
0FFC000FFF80007FE00001FFFFFFFFFE00001FFFFFFFFFF8000001FFFE000000
310
7FFFFFF0001FFFFFFC000FFFFFFFF8001FFC000FFFFFFFF8001FFF0003FFFFFF
310
FFF00001FFFFFFFFF000E00007FFFFFFFFFF8000FFC000001FFC000FFF80007F
310
C0000FFFFFFFFFFE0000FFFFFFFFFFF8000001FFFE0000007FFFFFF0001FFFFF
310
FC0007FFFFFFF0001FFC0007FFFFFFF0001FFF0003FFFFFFFFF00007FFFFFFFF
310
F000E0001FFFFFFFFFFF8000FFC000001FFC000FFF80007FC0003FFFFFFFFFFE
310
0001FFFFFFFFFFF8000001FFFE0000007FFFFFF0001FFFFFFC0007FFFFFFF000
310
1FFC0007FFFFFFF0001FFF0003FFFFFFFFF0001FFFFFFFFFF000E0003FFFFF00
310
03FF8001FFE000001FFC0007FF80007FC0007FFFFF0007FC0003FFFFF0003FF8
310
000001FFFE0000007FFFFFF0001FFFFFFC0003FFFFFFE0001FFC0003FFFFFFE0
310
001FFF0003FFFFFFFFF0003FFFFFFFFFF000E0003FFFFF0001FF8001FFE00000
310
1FFE0007FF80007FC0007FFFFE0003FC0007FFFFE0003FF8000001FFFE000000
310
7FFFFFF0001FFFFFFE0003FFFFFFE0003FFE0003FFFFFFE0003FFF0003FFFFFF
310
FFF0003FFFFF8001F000E0003FFFFF0001FF0001FFE000001FFE0007FF80007F
310
C0007FFFFE0003FC0007FFFFE0003FF8000001FFFE0000007FFFFFF0001FFFFF
310
FE0001FFFFFFC0003FFE0001FFFFFFC0003FFF0003FFFFFFFFF0003FFFFF0001
310
F000E0003FFFFF0003FF0001FFE000003FFE0007FF80007FC0007FFFFE0003FC
310
0007FFFFE0003FF8000001FFFE0000007FFFFFF0001FFFFFFF0001FFFFFFC000
310
7FFF0001FFFFFFC0007FFF0003FFFFFFFFF0003FFFFF0001F000E0003FFFFE00
310
03FF0003FFF000003FFE0003FF80007FC0007FFFFC0003FE0007FFFFE0003FF8
310
000001FFFE0000007FFFFFF0001FFFFFFF0000FFFFFF80007FFF0000FFFFFF80
310
007FFF0003FFFFFFFFF0003FFFFF0001F000E0003FFFFE0003FF0003FFF00000
310
3FFF0003FF80007FC0007FFFFC0007FE0007FFFFC0003FF8000001FFFE000000
310
7FFFFFF0001FFFFFFF80007FFFFF0000FFFF80007FFFFF0000FFFF0003FFFFFF
310
FFF0003FFFFF0003F000E0003FFFFC0003FE0003FFF000003FFF0003FF80007F
310
E0003FFFF80007FE0003FFFFC0007FF8000001FFFE0000007FFFFFF0001FFFFF
310
FF80003FFFFE0000FFFF80003FFFFE0000FFFF0003FFFFFFFFF0001FFFFE0003
310
F000F0001FFFF80003FE0003FFF000007FFF0001FF80007FE0003FFFF00007FE
310
0001FFFF80007FF8000001FFFE0000007FFFFFF0001FFFFFFFC0000FFFF80001
310
FFFFC0000FFFF80001FFFF0003FFFFFFFFF0001FFFFC0003F000F0000FFFF000
310
07FE0007FFF800007FFF0001FF80007FE0001FFFE00007FF0000FFFE00007FF8
310
000001FFFE0000007FFFFFF0001FFFFFFFC00003FFE00001FFFFC00003FFE000
310
01FFFF0003FFFFFFFFF8000FFFF80003F000F00003FFC00007FC0007FFF80000
310
7FFF8001FF80007FF00007FF80000FFF00007FF80000FFF8000001FFFE000000
310
7F80000000000001FFE000003E000003FFFFE000003E000003FFFF0003FFFFFF
310
FFF80003FFE00007F000F800000000000FFC0007FFF800007FFF8001FF80007F
310
F000000000000FFF000000000000FFF8000001FFFE0000007F80000000000001
310
FFF0000000000007FFFFF0000000000007FFFF0003FFFFFFFFFC00007E000007
310
F000F800000000000FFC0007FFF80000FFFF8000FF80007FF800000000001FFF
310
800000000001FFF8000001FFFE0000007F80000000000001FFF800000000000F
310
FFFFF800000000000FFFFF0003FFFFFFFFFC00000000000FF000FC0000000000
310
1FFC0007FFFC0000FFFF8000FF80007FF800000000003FFFC00000000001FFF8
310
000001FFFE0000007F80000000000001FFF800000000000FFFFFF80000000000
310
0FFFFF0003FFFFFFFFFE00000000001FF000FE00000000003FF8000FFFFC0000
310
FFFF8000FF80007FFC00000000003FFFC00000000003FFF8000001FFFE000000
310
7F80000000000001FFFC00000000001FFFFFFC00000000001FFFFF0003FFFFFF
310
FFFF00000000001FF000FF00000000003FF8000FFFFC0000FFFFC000FF80007F
310
FE00000000007FFFE00000000007FFF8000001FFFE0000007F80000000000001
310
FFFE00000000003FFFFFFE00000000003FFFFF0003FFFFFFFFFF80000000003F
310
F000FF80000000007FF8000FFFFC0001FFFFC0007F80007FFF0000000000FFFF
310
F0000000000FFFF800000000000000007F80000000000001FFFF8000000000FF
310
FFFFFF8000000000FFFFFF0003FFFFFFFFFFC0000000007FF000FFC000000000
310
FFF8000FFFFE0001FFFFC0007F80007FFF8000000001FFFFF8000000001FFFF8
310
00000000000000007F80000000000001FFFFC000000001FFFFFFFFC000000001
310
FFFFFF0003FFFFFFFFFFE000000000FFF000FFE000000003FFF0001FFFFE0001
310
FFFFC0007F80007FFFC000000007FFFFFE000000003FFFF80000000000000000
310
7F80000000000001FFFFE000000003FFFFFFFFE000000003FFFFFF0003FFFFFF
310
FFFFF000000003FFF000FFF80000000FFFF0001FFFFE0001FFFFE0007F80007F
310
FFF00000000FFFFFFF00000000FFFFF800000000000000007F80000000000001
310
FFFFF80000000FFFFFFFFFF80000000FFFFFFF0003FFFFFFFFFFFC0000000FFF
310
F000FFFE0000003FFFF0001FFFFE0003FFFFE0003F80007FFFFC0000003FFFFF
310
FFC0000003FFFFF800000000000000007F80000000000001FFFFFE0000003FFF
310
FFFFFFFE0000003FFFFFFF0003FFFFFFFFFFFF0000003FFFF000FFFF800000FF
310
FFF0001FFFFF0003FFFFE0003F80007FFFFF000001FFFFFFFFF800001FFFFFF8
310
00000000000000007F80000000000001FFFFFFC00001FFFFFFFFFFFFC00001FF
310
FFFFFF0003FFFFFFFFFFFFC00000FFFFF000FFFFF8000FFFFFFFFFFFFFFFFFFF
310
FFFFFFFFFFFFFFFFFFFFF0001FFFFFFFFFFF0000FFFFFFF80000000000000000
310
7FFFFFFFFFFFFFFFFFFFFFFC001FFFFFFFFFFFFFFC001FFFFFFFFFFFFFFFFFFF
310
FFFFFFFC001FFFFFF000FFFFFFFFFFFFFFFFFFFFFFFFFFFFFFFFFFFFFFFFFFFF
310
FFFFFFFFFFFFFFFFFFFFFFFFFFFFFFFFFFFFFFFFFFFFFFFFFFFFFFFFFFFFFFFF
310
FFFFFFFFFFFFFFFFFFFFFFFFFFFFFFFFFFFFFFFFFFFFFFFFFFFFFFFFFFFFFFFF
310
F000FFFFFFFFFFFFFFFFFFFFFFFFFFFFFFFFFFFFFFFFFFFFFFFFFFFFFFFFFFFF
310
FFFFFFFFFFFFFFFFFFFFFFFFFFFFFFFFFFFFFFFFFFFFFFFFFFFFFFFFFFFFFFFF
310
FFFFFFFFFFFFFFFFFFFFFFFFFFFFFFFFFFFFFFFFFFFFFFFFF000FFFFFFFFFFFF
310
FFFFFFFFFFFFFFFFFFFFFFFFFFFFFFFFFFFFFFFFFFFFFFFFFFFFFFFFFFFFFFFF
310
FFFFFFFFFFFFFFFFFFFFFFFFFFFFFFFFFFFFFFFFFFFFFFFFFFFFFFFFFFFFFFFF
310
FFFFFFFFFFFFFFFFFFFFFFFFFFFFFFFFF000FFFFFFFFFFFFFFFFFFFFFFFFFFFF
310
FFFFFFFFFFFFFFFFFFFFFFFFFFFFFFFFFFFFFFFFFFFFFFFFFFFFFFFFFFFFFFFF
310
FFFFFFFFFFFFFFFFFFFFFFFFFFFFFFFFFFFFFFFFFFFFFFFFFFFFFFFFFFFFFFFF
310
FFFFFFFFFFFFFFFFF000FFFFFFFFFFFFFFFFFFFFFFFFFFFFFFFFFFFFFFFFFFFF
310
FFFFFFFFFFFFFFFFFFFFFFFFFFFFFFFFFFFFFFFFFFFFFFFFFFFFFFFFFFFFFFFF
310
FFFFFFFFFFFFFFFFFFFFFFFFFFFFFFFFFFFFFFFFFFFFFFFFFFFFFFFFFFFFFFFF
310
F000FFFFFFFFFFFFFFFFFFFFFFFFFFFFFFFFFFFFFFFFFFFFFFFFFFFFFFFFFFFF
310
FFFFFFFFFFFFFFFFFFFFFFFFFFFFFFFFFFFFFFFFFFFFFFFFFFFFFFFFFFFFFFFF
310
FFFFFFFFFFFFFFFFFFFFFFFFFFFFFFFFFFFFFFFFFFFFFFFFF000FFFFFFFFFFFF
310
FFFFFFFFFFFFFFFFFFFFFFFFFFFFFFFFFFFFFFFFFFFFFFFFFFFFFFFFFFFFFFFF
310
FFFFFFFFFFFFFFFFFFFFFFFFFFFFFFFFFFFFFFFFFFFFFFFFFFFFFFFFFFFFFFFF
310
FFFFFFFFFFFFFFFFFFFFFFFFFFFFFFFFF000FFFFFFFFFFFFFFFFFFFFFFFFFFFF
310
FFFFFFFFFFFFFFFFFFFFFFFFFFFFFFFFFFFFFFFFFFFFFFFFFFFFFFFFFFFFFFFF
310
FFFFFFFFFFFFFFFFFFFFFFFFFFFFFFFFFFFFFFFFFFFFFFFFFFFFFFFFFFFFFFFF
310
FFFFFFFFFFFFFFFFF000FFFFFFFFFFFFFFFFFFFFFFFFFFFFFFFFFFFFFFFFFFFF
310
FFFFFFFFFFFFFFFFFFFFFFFFFFFFFFFFFFFFFFFFFFFFFFFFFFFFFFFFFFFFFFFF
310
FFFFFFFFFFFFFFFFFFFFFFFFFFFFFFFFFFFFFFFFFFFFFFFFFFFFFFFFFFFFFFFF
310
F000FFFFFFFFFFFFFFFFFFFFFFFFFFFFFFFFFFFFFFFFFFFFFFFFFFFFFFFFFFFF
310
FFFFFFFFFFFFFFFFFFFFFFFFFFFFFFFFFFFFFFFFFFFFFFFFFFFFFFFFFFFFFFFF
310
FFFFFFFFFFFFFFFFFFFFFFFFFFFFFFFFFFFFFFFFFFFFFFFFF000FFFFFFFFFFFF
310
FFFFFFFFFFFFFFFFFFFFFFFFFFFFFFFFFFFFFFFFFFFFFFFFFFFFFFFFFFFFFFFF
310
FFFFFFFFFFFFFFFFFFFFFFFFFFFFFFFFFFFFFFFFFFFFFFFFFFFFFFFFFFFFFFFF
310
FFFFFFFFFFFFFFFFFFFFFFFFFFFFFFFFF000FFFFFFFFFFFFFFFFFFFFFFFFFFFF
310
FFFFFFFFFFFFFFFFFFFFFFFFFFFFFFFFFFFFFFFFFFFFFFFFFFFFFFFFFFFFFFFF
310
FFFFFFFFFFFFFFFFFFFFFFFFFFFFFFFFFFFFFFFFFFFFFFFFFFFFFFFFFFFFFFFF
310
FFFFFFFFFFFFFFFFF000FFFFFFFFFFFFFFFFFFFFFFFFFFFFFFFFFFFFFFFFFFFF
310
FFFFFFFFFFFFFFFFFFFFFFFFFFFFFFFFFFFFFFFFFFFFFFFFFFFFFFFFFFFFFFFF
310
FFFFFFFFFFFFFFFFFFFFFFFFFFFFFFFFFFFFFFFFFFFFFFFFFFFFFFFFFFFFFFFF
310
F000FFFFFFFFFFFFFFFFFFFFFFFFFFFFFFFFFFFFFFFFFFFFFFFFFFFFFFFFFFFF
310
FFFFFFFFFFFFFFFFFFFFFFFFFFFFFFFFFFFFFFFFFFFFFFFFFFFFFFFFFFFFFFFF
310
FFFFFFFFFFFFFFFFFFFFFFFFFFFFFFFFFFFFFFFFFFFFFFFFF000FFFFFFFFFFFF
310
FFFFFFFFFFFFFFFFFFFFFFFFFFFFFFFFFFFFFFFFFFFFFFFFFFFFFFFFFFFFFFFF
310
FFFFFFFFFFFFFFFFFFFFFFFFFFFFFFFFFFFFFFFFFFFFFFFFFFFFFFFFFFFFFFFF
310
FFFFFFFFFFFFFFFFFFFFFFFFFFFFFFFFF000FFFFFFFFFFFFFFFFFFFFFFFFFFFF
310
FFFFFFFFFFFFFFFFFFFFFFFFFFFFFFFFFFFFFFFFFFFFFFFFFFFFFFFFFFFFFFFF
310
FFFFFFFFFFFFFFFFFFFFFFFFFFFFFFFFFFFFFFFFFFFFFFFFFFFFFFFFFFFFFFFF
310
FFFFFFFFFFFFFFFFF000FFFFFFFFFFFFFFFFFFFFFFFFFFFFFFFFFFFFFFFFFFFF
310
FFFFFFFFFFFFFFFFFFFFFFFFFFFFFFFFFFFFFFFFFFFFFFFFFFFFFFFFFFFFFFFF
310
FFFFFFFFFFFFFFFFFFFFFFFFFFFFFFFFFFFFFFFFFFFFFFFFFFFFFFFFFFFFFFFF
310
F000FFFFFFFFFFFFFFFFFFFFFFFFFFFFFFFFFFFFFFFFFFFFFFFFFFFFFFFFFFFF
310
FFFFFFFFFFFFFFFFFFFFFFFFFFFFFFFFFFFFFFFFFFFFFFFFFFFFFFFFFFFFFFFF
310
FFFFFFFFFFFFFFFFFFFFFFFFFFFFFFFFFFFFFFFFFFFFFFFFF000FFFFFFFFFFFF
310
FFFFFFFFFFFFFFFFFFFFFFFFFFFFFFFFFFFFFFFFFFFFFFFFFFFFFFFFFFFFFFFF
310
FFFFFFFFFFFFFFFFFFFFFFFFFFFFFFFFFFFFFFFFFFFFFFFFFFFFFFFFFFFFFFFF
310
FFFFFFFFFFFFFFFFFFFFFFFFFFFFFFFFF000FFFFFFFFFFFFFFFFFFFFFFFFFFFF
310
FFFFFFFFFFFFFFFFFFFFFFFFFFFFFFFFFFFFFFFFFFFFFFFFFFFFFFFFFFFFFFFF
310
FFFFFFFFFFFFFFFFFFFFFFFFFFFFFFFFFFFFFFFFFFFFFFFFFFFFFFFFFFFFFFFF
310
FFFFFFFFFFFFFFFFF000FFFFFFFFFFFFFFFFFFFFFFFFFFFFFFFFFFFFFFFFFFFF
310
FFFFFFFFFFFFFFFFFFFFFFFFFFFFFFFFFFFFFFFFFFFFFFFFFFFFFFFFFFFFFFFF
310
FFFFFFFFFFFFFFFFFFFFFFFFFFFFFFFFFFFFFFFFFFFFFFFFFFFFFFFFFFFFFFFF
310
F000FFFFFFFFFFFFFFFFFFFFFFFFFFFFFFFFFFFFFFFFFFFFFFFFFFFFFFFFFFFF
310
FFFFFFFFFFFFFFFFFFFFFFFFFFFFFFFFFFFFFFFFFFFFFFFFFFFFFFFFFFFFFFFF
310
FFFFFFFFFFFFFFFFFFFFFFFFFFFFFFFFFFFFFFFFFFFFFFFFF000FFFFFFFFFFFF
310
FFFFFFFFFFFFFFFFFFFFFFFFFFFFFFFFFFFFFFFFFFFFFFFFFFFFFFFFFFFFFFFF
310
FFFFFFFFFFFFFFFFFFFFFFFFFFFFFFFFFFFFFFFFFFFFFFFFFFFFFFFFFFFFFFFF
310
FFFFFFFFFFFFFFFFFFFFFFFFFFFFFFFFF0000000000000000000000000000000
310
0000000000000000000000000000000000000000000000000000000000000000
310
0000000000000000000000000000000000000000000000000000000000000000
310
0000000000000000000000000000000000000000000000000000000000000000
310
0000000000000000000000000000000000000000000000000000000000000000
310
0000000000000000000000000000000000000000000000000000000000000000
310
0000000000000000000000000000000000000000000000000000000000000000
310
0000000000000000000000000000000000000000000000000000000000000000
310
0000000000000000000000000000000000000000000000000000000000000000
310
0000000000000000000000000000000000000000000000000000000000000000
310
0000000000000000000000000000000000000000000000000000000000000000
310
0000000000000000000000000000000000000000000000000000000000000000
310
0000000000000000000000000000000000000000000000000000000000000000
310
0000000000000000000000000000000000000000000000000000000000000000
310
0000000000000000000000000000000000000000000000000000000000000000
310
0000000000000000000000000000000000000000000000000000000000000000
  1
OLE
  0
ENDSEC
  0
SECTION
  2
OBJECTS
  0
DICTIONARY
  5
C
330
0
100
AcDbDictionary
281
     1
  3
ACAD_GROUP
350
D
  3
ACAD_LAYOUT
350
1A
  3
ACAD_MLINESTYLE
350
17
  3
ACAD_PLOTSETTINGS
350
19
  3
ACAD_PLOTSTYLENAME
350
E
  0
DICTIONARY
  5
D
102
{ACAD_REACTORS
330
C
102
}
330
C
100
AcDbDictionary
281
     1
  0
DICTIONARY
  5
1A
102
{ACAD_REACTORS
330
C
102
}
330
C
100
AcDbDictionary
281
     1
  3
Layout1
350
1E
  3
Layout2
350
26
  3
Model
350
22
  0
DICTIONARY
  5
17
102
{ACAD_REACTORS
330
C
102
}
330
C
100
AcDbDictionary
281
     1
  3
Standard
350
18
  0
DICTIONARY
  5
19
102
{ACAD_REACTORS
330
C
102
}
330
C
100
AcDbDictionary
281
     1
  0
ACDBDICTIONARYWDFLT
  5
E
102
{ACAD_REACTORS
330
C
102
}
330
C
100
AcDbDictionary
281
     1
  3
Normal
350
F
100
AcDbDictionaryWithDefault
340
F
  0
LAYOUT
  5
1E
102
{ACAD_REACTORS
330
1A
102
}
330
1A
100
AcDbPlotSettings
  1

  2
none_device
  4

  6

 40
0.0
 41
0.0
 42
0.0
 43
0.0
 44
0.0
 45
0.0
 46
0.0
 47
0.0
 48
0.0
 49
0.0
140
0.0
141
0.0
142
1.0
143
1.0
 70
   688
 72
     0
 73
     0
 74
     5
  7

 75
    16
147
1.0
148
0.0
149
0.0
100
AcDbLayout
  1
Layout1
 70
     1
 71
     1
 10
0.0
 20
0.0
 11
420.0
 21
297.0
 12
0.0
 22
0.0
 32
0.0
 14
1.0000000000E+20
 24
1.0000000000E+20
 34
1.0000000000E+20
 15
-1.0000000000E+20
 25
-1.0000000000E+20
 35
-1.0000000000E+20
146
0.0
 13
0.0
 23
0.0
 33
0.0
 16
1.0
 26
0.0
 36
0.0
 17
0.0
 27
1.0
 37
0.0
 76
     0
330
1B
  0
LAYOUT
  5
26
102
{ACAD_REACTORS
330
1A
102
}
330
1A
100
AcDbPlotSettings
  1

  2
none_device
  4

  6

 40
0.0
 41
0.0
 42
0.0
 43
0.0
 44
0.0
 45
0.0
 46
0.0
 47
0.0
 48
0.0
 49
0.0
140
0.0
141
0.0
142
1.0
143
1.0
 70
   688
 72
     0
 73
     0
 74
     5
  7

 75
    16
147
1.0
148
0.0
149
0.0
100
AcDbLayout
  1
Layout2
 70
     1
 71
     2
 10
0.0
 20
0.0
 11
0.0
 21
0.0
 12
0.0
 22
0.0
 32
0.0
 14
0.0
 24
0.0
 34
0.0
 15
0.0
 25
0.0
 35
0.0
146
0.0
 13
0.0
 23
0.0
 33
0.0
 16
1.0
 26
0.0
 36
0.0
 17
0.0
 27
1.0
 37
0.0
 76
     0
330
23
  0
LAYOUT
  5
22
102
{ACAD_REACTORS
330
1A
102
}
330
1A
100
AcDbPlotSettings
  1

  2
none_device
  4

  6

 40
0.0
 41
0.0
 42
0.0
 43
0.0
 44
0.0
 45
0.0
 46
0.0
 47
0.0
 48
0.0
 49
0.0
140
0.0
141
0.0
142
1.0
143
1.0
 70
  1712
 72
     0
 73
     0
 74
     0
  7

 75
     0
147
1.0
148
0.0
149
0.0
100
AcDbLayout
  1
Model
 70
     1
 71
     0
 10
0.0
 20
0.0
 11
297.0
 21
210.0
 12
0.0
 22
0.0
 32
0.0
 14
0.0
 24
0.0
 34
0.0
 15
297.0
 25
210.0
 35
0.0
146
0.0
 13
0.0
 23
0.0
 33
0.0
 16
1.0
 26
0.0
 36
0.0
 17
0.0
 27
1.0
 37
0.0
 76
     0
330
1F
331
29
  0
MLINESTYLE
  5
18
102
{ACAD_REACTORS
330
17
102
}
330
17
100
AcDbMlineStyle
  2
Standard
 70
     0
  3

 62
   256
 51
90.0
 52
90.0
 71
     2
 49
0.5
 62
   256
  6
BYLAYER
 49
-0.5
 62
   256
  6
BYLAYER
  0
ACDBPLACEHOLDER
  5
F
102
{ACAD_REACTORS
330
E
102
}
330
E
  0
ENDSEC
  0
EOF
