  0
SECTION
  2
HEADER
  9
$ACADVER
  1
AC1015
  9
$ACADMAINTVER
 70
     6
  9
$DWGCODEPAGE
  3
ANSI_1252
  9
$INSBASE
 10
0.0
 20
0.0
 30
0.0
  9
$EXTMIN
 10
0.0
 20
0.0
 30
0.0
  9
$EXTMAX
 10
297.0
 20
210.0
 30
0.0
  9
$LIMMIN
 10
0.0
 20
0.0
  9
$LIMMAX
 10
297.0
 20
210.0
  9
$ORTHOMODE
 70
     0
  9
$REGENMODE
 70
     1
  9
$FILLMODE
 70
     1
  9
$QTEXTMODE
 70
     0
  9
$MIRRTEXT
 70
     1
  9
$LTSCALE
 40
1.0
  9
$ATTMODE
 70
     1
  9
$TEXTSIZE
 40
2.0
  9
$TRACEWID
 40
1.0
  9
$TEXTSTYLE
  7
Standard
  9
$CLAYER
  8
0
  9
$CELTYPE
  6
ByLayer
  9
$CECOLOR
 62
   256
  9
$CELTSCALE
 40
1.0
  9
$DISPSILH
 70
     0
  9
$DIMSCALE
 40
1.0
  9
$DIMASZ
 40
3.0
  9
$DIMEXO
 40
0.0
  9
$DIMDLI
 40
3.75
  9
$DIMRND
 40
0.0
  9
$DIMDLE
 40
0.0
  9
$DIMEXE
 40
1.0
  9
$DIMTP
 40
0.0
  9
$DIMTM
 40
0.0
  9
$DIMTXT
 40
2.0
  9
$DIMCEN
 40
2.5
  9
$DIMTSZ
 40
0.0
  9
$DIMTOL
 70
     0
  9
$DIMLIM
 70
     0
  9
$DIMTIH
 70
     1
  9
$DIMTOH
 70
     1
  9
$DIMSE1
 70
     0
  9
$DIMSE2
 70
     0
  9
$DIMTAD
 70
     1
  9
$DIMZIN
 70
     0
  9
$DIMBLK
  1

  9
$DIMASO
 70
     1
  9
$DIMSHO
 70
     1
  9
$DIMPOST
  1

  9
$DIMAPOST
  1

  9
$DIMALT
 70
     0
  9
$DIMALTD
 70
     3
  9
$DIMALTF
 40
0.0393700787
  9
$DIMLFAC
 40
1.0
  9
$DIMTOFL
 70
     1
  9
$DIMTVP
 40
0.0
  9
$DIMTIX
 70
     0
  9
$DIMSOXD
 70
     0
  9
$DIMSAH
 70
     0
  9
$DIMBLK1
  1

  9
$DIMBLK2
  1

  9
$DIMSTYLE
  2
ISO-25
  9
$DIMCLRD
 70
     0
  9
$DIMCLRE
 70
     0
  9
$DIMCLRT
 70
     0
  9
$DIMTFAC
 40
1.0
  9
$DIMGAP
 40
1.524
  9
$DIMJUST
 70
     0
  9
$DIMSD1
 70
     0
  9
$DIMSD2
 70
     0
  9
$DIMTOLJ
 70
     0
  9
$DIMTZIN
 70
     0
  9
$DIMALTZ
 70
     0
  9
$DIMALTTZ
 70
     0
  9
$DIMUPT
 70
     0
  9
$DIMDEC
 70
     2
  9
$DIMTDEC
 70
     3
  9
$DIMALTU
 70
     2
  9
$DIMALTTD
 70
     3
  9
$DIMTXSTY
  7
Standard
  9
$DIMAUNIT
 70
     0
  9
$DIMADEC
 70
     2
  9
$DIMALTRND
 40
0.0
  9
$DIMAZIN
 70
     0
  9
$DIMDSEP
 70
    44
  9
$DIMATFIT
 70
     3
  9
$DIMFRAC
 70
     0
  9
$DIMLDRBLK
  1

  9
$DIMLUNIT
 70
     2
  9
$DIMLWD
 70
    -2
  9
$DIMLWE
 70
    -2
  9
$DIMTMOVE
 70
     0
  9
$LUNITS
 70
     2
  9
$LUPREC
 70
     2
  9
$SKETCHINC
 40
1.0
  9
$FILLETRAD
 40
10.0
  9
$AUNITS
 70
     0
  9
$AUPREC
 70
     2
  9
$MENU
  1
.
  9
$ELEVATION
 40
0.0
  9
$PELEVATION
 40
0.0
  9
$THICKNESS
 40
0.0
  9
$LIMCHECK
 70
     0
  9
$CHAMFERA
 40
10.0
  9
$CHAMFERB
 40
10.0
  9
$CHAMFERC
 40
20.0
  9
$CHAMFERD
 40
0.0
  9
$SKPOLY
 70
     0
  9
$TDCREATE
 40
2456098.37635478
  9
$TDUCREATE
 40
2456098.293021447
  9
$TDUPDATE
 40
2456098.376356412
  9
$TDUUPDATE
 40
2456098.293023079
  9
$TDINDWG
 40
0.0000000116
  9
$TDUSRTIMER
 40
0.0000000116
  9
$USRTIMER
 70
     1
  9
$ANGBASE
 50
0.0
  9
$ANGDIR
 70
     0
  9
$PDMODE
 70
     0
  9
$PDSIZE
 40
-1.0
  9
$PLINEWID
 40
0.0
  9
$SPLFRAME
 70
     0
  9
$SPLINETYPE
 70
     6
  9
$SPLINESEGS
 70
     8
  9
$HANDSEED
  5
272
  9
$SURFTAB1
 70
     6
  9
$SURFTAB2
 70
     6
  9
$SURFTYPE
 70
     6
  9
$SURFU
 70
     6
  9
$SURFV
 70
     6
  9
$UCSBASE
  2

  9
$UCSNAME
  2

  9
$UCSORG
 10
0.0
 20
0.0
 30
0.0
  9
$UCSXDIR
 10
1.0
 20
0.0
 30
0.0
  9
$UCSYDIR
 10
0.0
 20
1.0
 30
0.0
  9
$UCSORTHOREF
  2

  9
$UCSORTHOVIEW
 70
     0
  9
$UCSORGTOP
 10
0.0
 20
0.0
 30
0.0
  9
$UCSORGBOTTOM
 10
0.0
 20
0.0
 30
0.0
  9
$UCSORGLEFT
 10
0.0
 20
0.0
 30
0.0
  9
$UCSORGRIGHT
 10
0.0
 20
0.0
 30
0.0
  9
$UCSORGFRONT
 10
0.0
 20
0.0
 30
0.0
  9
$UCSORGBACK
 10
0.0
 20
0.0
 30
0.0
  9
$PUCSBASE
  2

  9
$PUCSNAME
  2

  9
$PUCSORG
 10
0.0
 20
0.0
 30
0.0
  9
$PUCSXDIR
 10
1.0
 20
0.0
 30
0.0
  9
$PUCSYDIR
 10
0.0
 20
1.0
 30
0.0
  9
$PUCSORTHOREF
  2

  9
$PUCSORTHOVIEW
 70
     0
  9
$PUCSORGTOP
 10
0.0
 20
0.0
 30
0.0
  9
$PUCSORGBOTTOM
 10
0.0
 20
0.0
 30
0.0
  9
$PUCSORGLEFT
 10
0.0
 20
0.0
 30
0.0
  9
$PUCSORGRIGHT
 10
0.0
 20
0.0
 30
0.0
  9
$PUCSORGFRONT
 10
0.0
 20
0.0
 30
0.0
  9
$PUCSORGBACK
 10
0.0
 20
0.0
 30
0.0
  9
$USERI1
 70
     0
  9
$USERI2
 70
     0
  9
$USERI3
 70
     0
  9
$USERI4
 70
     0
  9
$USERI5
 70
     0
  9
$USERR1
 40
0.0
  9
$USERR2
 40
0.0
  9
$USERR3
 40
0.0
  9
$USERR4
 40
0.0
  9
$USERR5
 40
0.0
  9
$WORLDVIEW
 70
     1
  9
$SHADEDGE
 70
     3
  9
$SHADEDIF
 70
    70
  9
$TILEMODE
 70
     1
  9
$MAXACTVP
 70
    64
  9
$PINSBASE
 10
0.0
 20
0.0
 30
0.0
  9
$PLIMCHECK
 70
     0
  9
$PEXTMIN
 10
1.0000000000E+20
 20
1.0000000000E+20
 30
1.0000000000E+20
  9
$PEXTMAX
 10
-1.0000000000E+20
 20
-1.0000000000E+20
 30
-1.0000000000E+20
  9
$PLIMMIN
 10
0.0
 20
0.0
  9
$PLIMMAX
 10
420.0
 20
297.0
  9
$UNITMODE
 70
     0
  9
$VISRETAIN
 70
     1
  9
$PLINEGEN
 70
     0
  9
$PSLTSCALE
 70
     1
  9
$TREEDEPTH
 70
  3020
  9
$CMLSTYLE
  2
Standard
  9
$CMLJUST
 70
     0
  9
$CMLSCALE
 40
20.0
  9
$PROXYGRAPHICS
 70
     1
  9
$MEASUREMENT
 70
     1
  9
$CELWEIGHT
370
    -1
  9
$ENDCAPS
280
     0
  9
$JOINSTYLE
280
     0
  9
$LWDISPLAY
290
     1
  9
$INSUNITS
 70
     4
  9
$HYPERLINKBASE
  1

  9
$STYLESHEET
  1

  9
$XEDIT
290
     1
  9
$CEPSNTYPE
380
     0
  9
$PSTYLEMODE
290
     1
  9
$FINGERPRINTGUID
  2
{9D59930E-26B0-421D-B812-A171EACE490E}
  9
$VERSIONGUID
  2
{FAEB1C32-E019-11D5-929B-00C0DF256EC4}
  9
$EXTNAMES
290
     1
  9
$PSVPSCALE
 40
0.0
  9
$OLESTARTUP
290
     0
  0
ENDSEC
  0
SECTION
  2
CLASSES
  0
CLASS
  1
ACDBDICTIONARYWDFLT
  2
AcDbDictionaryWithDefault
  3
ObjectDBX Classes
 90
        0
280
     0
281
     0
  0
CLASS
  1
VISUALSTYLE
  2
AcDbVisualStyle
  3
ObjectDBX Classes
 90
     4095
280
     0
281
     0
  0
CLASS
  1
MATERIAL
  2
AcDbMaterial
  3
ObjectDBX Classes
 90
     1153
280
     0
281
     0
  0
CLASS
  1
ACDBPLACEHOLDER
  2
AcDbPlaceHolder
  3
ObjectDBX Classes
 90
        0
280
     0
281
     0
  0
CLASS
  1
LAYOUT
  2
AcDbLayout
  3
ObjectDBX Classes
 90
        0
280
     0
281
     0
  0
ENDSEC
  0
SECTION
  2
TABLES
  0
TABLE
  2
VPORT
  5
8
330
0
100
AcDbSymbolTable
 70
     1
  0
VPORT
  5
29
330
8
100
AcDbSymbolTableRecord
100
AcDbViewportTableRecord
  2
*Active
 70
     0
 10
0.0
 20
0.0
 11
1.0
 21
1.0
 12
148.5
 22
105.0
 13
0.0
 23
0.0
 14
10.0
 24
10.0
 15
10.0
 25
10.0
 16
0.0
 26
0.0
 36
1.0
 17
0.0
 27
0.0
 37
0.0
 40
210.0
 41
1.4142857143
 42
50.0
 43
0.0
 44
0.0
 50
0.0
 51
0.0
 71
     0
 72
  2000
 73
     1
 74
     3
 75
     0
 76
     0
 77
     0
 78
     0
281
     0
 65
     1
110
0.0
120
0.0
130
0.0
111
1.0
121
0.0
131
0.0
112
0.0
122
1.0
132
0.0
 79
     0
146
0.0
  0
ENDTAB
  0
TABLE
  2
LTYPE
  5
5
330
0
100
AcDbSymbolTable
 70
     6
  0
LTYPE
  5
14
330
5
100
AcDbSymbolTableRecord
100
AcDbLinetypeTableRecord
  2
ByBlock
 70
     0
  3

 72
    65
 73
     0
 40
0.0
  0
LTYPE
  5
15
330
5
100
AcDbSymbolTableRecord
100
AcDbLinetypeTableRecord
  2
ByLayer
 70
     0
  3

 72
    65
 73
     0
 40
0.0
  0
LTYPE
  5
16
330
5
100
AcDbSymbolTableRecord
100
AcDbLinetypeTableRecord
  2
Continuous
 70
     0
  3
Solid line
 72
    65
 73
     0
 40
0.0
  0
LTYPE
  5
3F
330
5
100
AcDbSymbolTableRecord
100
AcDbLinetypeTableRecord
  2
HIDDEN
 70
     0
  3
Hidden __ __ __ __ __ __ __ __ __ __ __ __ __ __
 72
    65
 73
     2
 40
1.905
 49
1.27
 74
     0
 49
-0.635
 74
     0
  0
LTYPE
  5
40
330
5
100
AcDbSymbolTableRecord
100
AcDbLinetypeTableRecord
  2
PHANTOM
 70
     0
  3
Phantom ______  __  __  ______  __  __  ______
 72
    65
 73
     6
 40
12.7
 49
6.35
 74
     0
 49
-1.27
 74
     0
 49
1.27
 74
     0
 49
-1.27
 74
     0
 49
1.27
 74
     0
 49
-1.27
 74
     0
  0
LTYPE
  5
41
330
5
100
AcDbSymbolTableRecord
100
AcDbLinetypeTableRecord
  2
CENTER
 70
     0
  3
Center ____ _ ____ _ ____ _ ____ _ ____ _ ____
 72
    65
 73
     4
 40
10.16
 49
6.35
 74
     0
 49
-1.27
 74
     0
 49
1.27
 74
     0
 49
-1.27
 74
     0
  0
LTYPE
  5
42
330
5
100
AcDbSymbolTableRecord
100
AcDbLinetypeTableRecord
  2
CENTERX2
 70
     0
  3
Center (2x) ________  __  ________  __  _____
 72
    65
 73
     4
 40
20.32
 49
12.7
 74
     0
 49
-2.54
 74
     0
 49
2.54
 74
     0
 49
-2.54
 74
     0
  0
LTYPE
  5
43
330
5
100
AcDbSymbolTableRecord
100
AcDbLinetypeTableRecord
  2
DOT2
 70
     0
  3
Dot (.5x) ........................................
 72
    65
 73
     2
 40
0.635
 49
0.0
 74
     0
 49
-0.635
 74
     0
  0
ENDTAB
  0
TABLE
  2
LAYER
  5
2
330
0
100
AcDbSymbolTable
 70
     5
  0
LAYER
  5
10
330
2
100
AcDbSymbolTableRecord
100
AcDbLayerTableRecord
  2
0
 70
     0
 62
     7
  6
Continuous
370
    -3
390
F
  0
LAYER
  5
44
330
2
100
AcDbSymbolTableRecord
100
AcDbLayerTableRecord
  2
FORMAT
 70
     0
 62
     7
  6
Continuous
370
    -3
390
F
  0
LAYER
  5
45
330
2
100
AcDbSymbolTableRecord
100
AcDbLayerTableRecord
  2
VERMASSUNG
 70
     0
 62
     7
  6
Continuous
370
    -3
390
F
  0
LAYER
  5
46
330
2
100
AcDbSymbolTableRecord
100
AcDbLayerTableRecord
  2
KOPF_DÜNN
 70
     0
 62
     7
  6
Continuous
370
    -3
390
F
  0
LAYER
  5
47
330
2
100
AcDbSymbolTableRecord
100
AcDbLayerTableRecord
  2
KOPF_DICK
 70
     0
 62
     7
  6
Continuous
370
    15
390
F
  0
ENDTAB
  0
TABLE
  2
STYLE
  5
3
330
0
100
AcDbSymbolTable
 70
     3
  0
STYLE
  5
11
330
3
100
AcDbSymbolTableRecord
100
AcDbTextStyleTableRecord
  2
Standard
 70
     0
 40
0.0
 41
1.0
 50
0.0
 71
     0
 42
2.0
  3
txt
  4

  0
STYLE
  5
48
330
3
100
AcDbSymbolTableRecord
100
AcDbTextStyleTableRecord
  2
SLDTEXTSTYLE0
 70
     0
 40
0.0
 41
0.7
 50
0.0
 71
     0
 42
0.2
  3
TXT
  4

  0
STYLE
  5
4C
330
3
100
AcDbSymbolTableRecord
100
AcDbTextStyleTableRecord
  2
SLDTEXTSTYLE1
 70
     0
 40
0.0
 41
0.6384615385
 50
0.0
 71
     0
 42
0.2
  3
TXT
  4

  0
ENDTAB
  0
TABLE
  2
VIEW
  5
6
330
0
100
AcDbSymbolTable
 70
     0
  0
ENDTAB
  0
TABLE
  2
UCS
  5
7
330
0
100
AcDbSymbolTable
 70
     0
  0
ENDTAB
  0
TABLE
  2
APPID
  5
9
330
0
100
AcDbSymbolTable
 70
     1
  0
APPID
  5
12
330
9
100
AcDbSymbolTableRecord
100
AcDbRegAppTableRecord
  2
ACAD
 70
     0
  0
ENDTAB
  0
TABLE
  2
DIMSTYLE
  5
A
330
0
100
AcDbSymbolTable
 70
     3
100
AcDbDimStyleTable
  0
DIMSTYLE
105
27
330
A
100
AcDbSymbolTableRecord
100
AcDbDimStyleTableRecord
  2
ISO-25
 70
     0
 41
2.5
 42
0.625
 43
3.75
 44
1.25
 73
     0
 74
     0
 77
     1
 78
     8
140
2.5
141
2.5
143
0.0393700787
147
0.625
171
     3
172
     1
178
     0
271
     2
272
     2
274
     3
278
    44
283
     0
284
     8
340
11
  0
DIMSTYLE
105
1A2
102
{ACAD_REACTORS
330
1A1
330
1AC
330
1B6
330
1C2
102
}
330
A
100
AcDbSymbolTableRecord
100
AcDbDimStyleTableRecord
  2
SLDDIMSTYLE0
 70
     0
 41
3.0
 44
0.0
 45
0.000000001
 73
     0
 74
     0
 77
     1
 78
    12
 79
     3
140
2.0
147
0.5
173
     1
178
     0
271
     2
272
     3
276
     2
284
    12
340
48
  0
DIMSTYLE
105
1CE
102
{ACAD_REACTORS
330
1CD
102
}
330
A
100
AcDbSymbolTableRecord
100
AcDbDimStyleTableRecord
  2
SLDDIMSTYLE1
 70
     0
 41
3.0
 44
0.0
 45
0.000000001
 73
     0
 74
     0
 77
     1
 78
    12
 79
     3
140
2.0
147
0.5
172
     1
173
     1
178
     0
271
     2
272
     3
276
     2
284
    12
289
     0
340
48
  0
ENDTAB
  0
TABLE
  2
BLOCK_RECORD
  5
1
330
0
100
AcDbSymbolTable
 70
     7
  0
BLOCK_RECORD
  5
1F
330
1
100
AcDbSymbolTableRecord
100
AcDbBlockTableRecord
  2
*Model_Space
340
22
  0
BLOCK_RECORD
  5
1B
330
1
100
AcDbSymbolTableRecord
100
AcDbBlockTableRecord
  2
*Paper_Space
340
1E
  0
BLOCK_RECORD
  5
23
330
1
100
AcDbSymbolTableRecord
100
AcDbBlockTableRecord
  2
*Paper_Space0
340
26
  0
BLOCK_RECORD
  5
1A3
330
1
100
AcDbSymbolTableRecord
100
AcDbBlockTableRecord
  2
_D
340
0
  0
BLOCK_RECORD
  5
1AD
330
1
100
AcDbSymbolTableRecord
100
AcDbBlockTableRecord
  2
_D_1
340
0
  0
BLOCK_RECORD
  5
1B7
330
1
100
AcDbSymbolTableRecord
100
AcDbBlockTableRecord
  2
_D_2
340
0
  0
BLOCK_RECORD
  5
1C3
330
1
100
AcDbSymbolTableRecord
100
AcDbBlockTableRecord
  2
_D_3
340
0
  0
BLOCK_RECORD
  5
1CF
330
1
100
AcDbSymbolTableRecord
100
AcDbBlockTableRecord
  2
_D_4
340
0
  0
BLOCK_RECORD
  5
265
330
1
100
AcDbSymbolTableRecord
100
AcDbBlockTableRecord
  2
SW_CENTERMARKSYMBOL_0
340
0
102
{BLKREFS
331
270
102
}
  0
ENDTAB
  0
ENDSEC
  0
SECTION
  2
BLOCKS
  0
BLOCK
  5
20
330
1F
100
AcDbEntity
  8
0
100
AcDbBlockBegin
  2
*Model_Space
 70
     0
 10
0.0
 20
0.0
 30
0.0
  3
*Model_Space
  1

  0
ENDBLK
  5
21
330
1F
100
AcDbEntity
  8
0
100
AcDbBlockEnd
  0
BLOCK
  5
1C
330
1B
100
AcDbEntity
 67
     1
  8
0
100
AcDbBlockBegin
  2
*Paper_Space
 70
     0
 10
0.0
 20
0.0
 30
0.0
  3
*Paper_Space
  1

  0
ENDBLK
  5
1D
330
1B
100
AcDbEntity
 67
     1
  8
0
100
AcDbBlockEnd
  0
BLOCK
  5
24
330
23
100
AcDbEntity
  8
0
100
AcDbBlockBegin
  2
*Paper_Space0
 70
     0
 10
0.0
 20
0.0
 30
0.0
  3
*Paper_Space0
  1

  0
ENDBLK
  5
25
330
23
100
AcDbEntity
  8
0
100
AcDbBlockEnd
  0
BLOCK
  5
1A4
330
1A3
100
AcDbEntity
  8
0
100
AcDbBlockBegin
  2
_D
 70
     0
 10
0.0
 20
0.0
 30
0.0
  3
_D
  1

  0
SOLID
  5
1A6
330
1A3
100
AcDbEntity
  8
VERMASSUNG
100
AcDbTrace
 10
165.0860305506
 20
139.2008556954
 30
0.0
 11
168.0860305506
 21
138.7508556954
 31
0.0
 12
168.0860305506
 22
139.6508556954
 32
0.0
 13
168.0860305506
 23
139.6508556954
 33
0.0
  0
SOLID
  5
1A7
330
1A3
100
AcDbEntity
  8
VERMASSUNG
100
AcDbTrace
 10
230.0860305506
 20
139.2008556954
 30
0.0
 11
227.0860305506
 21
139.6508556954
 31
0.0
 12
227.0860305506
 22
138.7508556954
 32
0.0
 13
227.0860305506
 23
138.7508556954
 33
0.0
  0
LINE
  5
1A8
330
1A3
100
AcDbEntity
  8
VERMASSUNG
100
AcDbLine
 10
165.0860305506
 20
128.9008556954
 30
0.0
 11
165.0860305506
 21
140.2008556954
 31
0.0
  0
LINE
  5
1A9
330
1A3
100
AcDbEntity
  8
VERMASSUNG
100
AcDbLine
 10
230.0860305506
 20
125.2008556954
 30
0.0
 11
230.0860305506
 21
140.2008556954
 31
0.0
  0
LINE
  5
1AA
330
1A3
100
AcDbEntity
  8
VERMASSUNG
100
AcDbLine
 10
165.0860305506
 20
139.2008556954
 30
0.0
 11
230.0860305506
 21
139.2008556954
 31
0.0
  0
MTEXT
  5
1AB
330
1A3
100
AcDbEntity
  8
VERMASSUNG
100
AcDbMText
 10
196.5443869177
 20
141.7789910585
 30
0.1
 40
2.0
 41
0.0
 71
     1
 72
     1
  1
65
  7
SLDTEXTSTYLE0
 73
     1
 44
1.0
  0
ENDBLK
  5
1A5
330
1A3
100
AcDbEntity
  8
0
100
AcDbBlockEnd
  0
BLOCK
  5
1AE
330
1AD
100
AcDbEntity
  8
0
100
AcDbBlockBegin
  2
_D_1
 70
     0
 10
0.0
 20
0.0
 30
0.0
  3
_D_1
  1

  0
SOLID
  5
1B0
330
1AD
100
AcDbEntity
  8
VERMASSUNG
100
AcDbTrace
 10
141.0860305506
 20
145.2008556954
 30
0.0
 11
144.0860305506
 21
144.7508556954
 31
0.0
 12
144.0860305506
 22
145.6508556954
 32
0.0
 13
144.0860305506
 23
145.6508556954
 33
0.0
  0
SOLID
  5
1B1
330
1AD
100
AcDbEntity
  8
VERMASSUNG
100
AcDbTrace
 10
230.0860305506
 20
145.2008556954
 30
0.0
 11
227.0860305506
 21
145.6508556954
 31
0.0
 12
227.0860305506
 22
144.7508556954
 32
0.0
 13
227.0860305506
 23
144.7508556954
 33
0.0
  0
LINE
  5
1B2
330
1AD
100
AcDbEntity
  8
VERMASSUNG
100
AcDbLine
 10
141.0860305506
 20
121.8194827613
 30
0.0
 11
141.0860305506
 21
146.2008556954
 31
0.0
  0
LINE
  5
1B3
330
1AD
100
AcDbEntity
  8
VERMASSUNG
100
AcDbLine
 10
230.0860305506
 20
125.2008556954
 30
0.0
 11
230.0860305506
 21
146.2008556954
 31
0.0
  0
LINE
  5
1B4
330
1AD
100
AcDbEntity
  8
VERMASSUNG
100
AcDbLine
 10
141.0860305506
 20
145.2008556954
 30
0.0
 11
230.0860305506
 21
145.2008556954
 31
0.0
  0
MTEXT
  5
1B5
330
1AD
100
AcDbEntity
  8
VERMASSUNG
100
AcDbMText
 10
185.0720038119
 20
147.7789910585
 30
0.1
 40
2.0
 41
0.0
 71
     1
 72
     1
  1
89
  7
SLDTEXTSTYLE0
 73
     1
 44
1.0
  0
ENDBLK
  5
1AF
330
1AD
100
AcDbEntity
  8
0
100
AcDbBlockEnd
  0
BLOCK
  5
1B8
330
1B7
100
AcDbEntity
  8
0
100
AcDbBlockBegin
  2
_D_2
 70
     0
 10
0.0
 20
0.0
 30
0.0
  3
_D_2
  1

  0
SOLID
  5
1BA
330
1B7
100
AcDbEntity
  8
VERMASSUNG
100
AcDbTrace
 10
133.9289360608
 20
129.2008556954
 30
0.0
 11
133.4789360608
 21
126.2008556954
 31
0.0
 12
134.3789360608
 22
126.2008556954
 32
0.0
 13
134.3789360608
 23
126.2008556954
 33
0.0
  0
SOLID
  5
1BB
330
1B7
100
AcDbEntity
  8
VERMASSUNG
100
AcDbTrace
 10
133.9289360608
 20
89.2008556954
 30
0.0
 11
134.3789360608
 21
92.2008556954
 31
0.0
 12
133.4789360608
 22
92.2008556954
 32
0.0
 13
133.4789360608
 23
92.2008556954
 33
0.0
  0
LINE
  5
1BC
330
1B7
100
AcDbEntity
  8
VERMASSUNG
100
AcDbLine
 10
165.3860305506
 20
129.2008556954
 30
0.0
 11
132.9289360608
 21
129.2008556954
 31
0.0
  0
LINE
  5
1BD
330
1B7
100
AcDbEntity
  8
VERMASSUNG
100
AcDbLine
 10
165.3860305506
 20
89.2008556954
 30
0.0
 11
132.9289360608
 21
89.2008556954
 31
0.0
  0
LINE
  5
1BE
330
1B7
100
AcDbEntity
  8
VERMASSUNG
100
AcDbLine
 10
133.9289360608
 20
129.2008556954
 30
0.0
 11
133.9289360608
 21
89.2008556954
 31
0.0
  0
MTEXT
  5
1BF
330
1B7
100
AcDbEntity
  8
VERMASSUNG
100
AcDbMText
 10
131.1508005718
 20
103.9947371647
 30
0.1
 40
2.0
 41
0.0
 71
     1
 72
     1
  1
PSC
  7
SLDTEXTSTYLE0
 11
-7.044195017643634E-15
 21
1.0
 31
0.0
 73
     1
 44
1.0
  0
MTEXT
  5
1C0
330
1B7
100
AcDbEntity
  8
VERMASSUNG
100
AcDbMText
 10
131.3508005813
 20
108.5947372668
 30
0.1
 40
2.0
 41
0.0
 71
     1
 72
     1
  1
%%c
  7
SLDTEXTSTYLE0
 11
-7.044195017643634E-15
 21
1.0
 31
0.0
 73
     1
 44
1.0
  0
MTEXT
  5
1C1
330
1B7
100
AcDbEntity
  8
VERMASSUNG
100
AcDbMText
 10
131.1508005718
 20
112.2047377468
 30
0.1
 40
2.0
 41
0.0
 71
     1
 72
     1
  1
40
  7
SLDTEXTSTYLE0
 11
-7.044195017643634E-15
 21
1.0
 31
0.0
 73
     1
 44
1.0
  0
ENDBLK
  5
1B9
330
1B7
100
AcDbEntity
  8
0
100
AcDbBlockEnd
  0
BLOCK
  5
1C4
330
1C3
100
AcDbEntity
  8
0
100
AcDbBlockBegin
  2
_D_3
 70
     0
 10
0.0
 20
0.0
 30
0.0
  3
_D_3
  1

  0
SOLID
  5
1C6
330
1C3
100
AcDbEntity
  8
VERMASSUNG
100
AcDbTrace
 10
246.0860305506
 20
126.2008556954
 30
0.0
 11
245.6360305506
 21
123.2008556954
 31
0.0
 12
246.5360305506
 22
123.2008556954
 32
0.0
 13
246.5360305506
 23
123.2008556954
 33
0.0
  0
SOLID
  5
1C7
330
1C3
100
AcDbEntity
  8
VERMASSUNG
100
AcDbTrace
 10
246.0860305506
 20
92.2008556954
 30
0.0
 11
246.5360305506
 21
95.2008556954
 31
0.0
 12
245.6360305506
 22
95.2008556954
 32
0.0
 13
245.6360305506
 23
95.2008556954
 33
0.0
  0
LINE
  5
1C8
330
1C3
100
AcDbEntity
  8
VERMASSUNG
100
AcDbLine
 10
229.0860305506
 20
126.2008556954
 30
0.0
 11
247.0860305506
 21
126.2008556954
 31
0.0
  0
LINE
  5
1C9
330
1C3
100
AcDbEntity
  8
VERMASSUNG
100
AcDbLine
 10
229.0860305506
 20
92.2008556954
 30
0.0
 11
247.0860305506
 21
92.2008556954
 31
0.0
  0
LINE
  5
1CA
330
1C3
100
AcDbEntity
  8
VERMASSUNG
100
AcDbLine
 10
246.0860305506
 20
126.2008556954
 30
0.0
 11
246.0860305506
 21
92.2008556954
 31
0.0
  0
MTEXT
  5
1CB
330
1C3
100
AcDbEntity
  8
VERMASSUNG
100
AcDbMText
 10
243.5078950711
 20
104.699071022
 30
0.1
 40
2.0
 41
0.0
 71
     1
 72
     1
  1
%%c
  7
SLDTEXTSTYLE0
 11
-7.044195017643634E-15
 21
1.0
 31
0.0
 73
     1
 44
1.0
  0
MTEXT
  5
1CC
330
1C3
100
AcDbEntity
  8
VERMASSUNG
100
AcDbMText
 10
243.3078950616
 20
108.3090710363
 30
0.1
 40
2.0
 41
0.0
 71
     1
 72
     1
  1
34
  7
SLDTEXTSTYLE0
 11
-7.044195017643634E-15
 21
1.0
 31
0.0
 73
     1
 44
1.0
  0
ENDBLK
  5
1C5
330
1C3
100
AcDbEntity
  8
0
100
AcDbBlockEnd
  0
BLOCK
  5
1D0
330
1CF
100
AcDbEntity
  8
0
100
AcDbBlockBegin
  2
_D_4
 70
     0
 10
0.0
 20
0.0
 30
0.0
  3
_D_4
  1

  0
SOLID
  5
1D2
330
1CF
100
AcDbEntity
  8
VERMASSUNG
100
AcDbTrace
 10
238.1168615243
 20
113.2008556954
 30
0.0
 11
238.5668615243
 21
116.2008556954
 31
0.0
 12
237.6668615243
 22
116.2008556954
 32
0.0
 13
237.6668615243
 23
116.2008556954
 33
0.0
  0
SOLID
  5
1D3
330
1CF
100
AcDbEntity
  8
VERMASSUNG
100
AcDbTrace
 10
238.1168615243
 20
105.2008556954
 30
0.0
 11
237.6668615243
 21
102.2008556954
 31
0.0
 12
238.5668615243
 22
102.2008556954
 32
0.0
 13
238.5668615243
 23
102.2008556954
 33
0.0
  0
LINE
  5
1D4
330
1CF
100
AcDbEntity
  8
VERMASSUNG
100
AcDbLine
 10
229.7860305506
 20
113.2008556954
 30
0.0
 11
239.1168615243
 21
113.2008556954
 31
0.0
  0
LINE
  5
1D5
330
1CF
100
AcDbEntity
  8
VERMASSUNG
100
AcDbLine
 10
229.7860305506
 20
105.2008556954
 30
0.0
 11
239.1168615243
 21
105.2008556954
 31
0.0
  0
LINE
  5
1D6
330
1CF
100
AcDbEntity
  8
VERMASSUNG
100
AcDbLine
 10
238.1168615243
 20
113.2008556954
 30
0.0
 11
238.1168615243
 21
119.2008556954
 31
0.0
  0
LINE
  5
1D7
330
1CF
100
AcDbEntity
  8
VERMASSUNG
100
AcDbLine
 10
238.1168615243
 20
113.2008556954
 30
0.0
 11
238.1168615243
 21
105.2008556954
 31
0.0
  0
LINE
  5
1D8
330
1CF
100
AcDbEntity
  8
VERMASSUNG
100
AcDbLine
 10
238.1168615243
 20
105.2008556954
 30
0.0
 11
238.1168615243
 21
99.2008556954
 31
0.0
  0
MTEXT
  5
1D9
330
1CF
100
AcDbEntity
  8
VERMASSUNG
100
AcDbMText
 10
235.5387260447
 20
105.49907106
 30
0.1
 40
2.0
 41
0.0
 71
     1
 72
     1
  1
%%c
  7
SLDTEXTSTYLE0
 11
-7.044195017643634E-15
 21
1.0
 31
0.0
 73
     1
 44
1.0
  0
MTEXT
  5
1DA
330
1CF
100
AcDbEntity
  8
VERMASSUNG
100
AcDbMText
 10
235.3387260352
 20
109.1090710743
 30
0.1
 40
2.0
 41
0.0
 71
     1
 72
     1
  1
8
  7
SLDTEXTSTYLE0
 11
-7.044195017643634E-15
 21
1.0
 31
0.0
 73
     1
 44
1.0
  0
ENDBLK
  5
1D1
330
1CF
100
AcDbEntity
  8
0
100
AcDbBlockEnd
  0
BLOCK
  5
266
330
265
100
AcDbEntity
  8
0
100
AcDbBlockBegin
  2
SW_CENTERMARKSYMBOL_0
 70
     0
 10
0.0
 20
0.0
 30
0.0
  3
SW_CENTERMARKSYMBOL_0
  1

  0
LINE
  5
268
330
265
100
AcDbEntity
  8
VERMASSUNG
 62
     0
100
AcDbLine
 10
0.0
 20
0.0
 30
0.0
 11
0.0
 21
2.5
 31
0.0
  0
LINE
  5
269
330
265
100
AcDbEntity
  8
VERMASSUNG
 62
     0
100
AcDbLine
 10
0.0
 20
0.0
 30
0.0
 11
-2.5
 21
0.0
 31
0.0
  0
LINE
  5
26A
330
265
100
AcDbEntity
  8
VERMASSUNG
 62
     0
100
AcDbLine
 10
0.0
 20
0.0
 30
0.0
 11
0.0
 21
-2.5
 31
0.0
  0
LINE
  5
26B
330
265
100
AcDbEntity
  8
VERMASSUNG
 62
     0
100
AcDbLine
 10
0.0
 20
0.0
 30
0.0
 11
2.5
 21
0.0
 31
0.0
  0
LINE
  5
26C
330
265
100
AcDbEntity
  8
VERMASSUNG
 62
     0
100
AcDbLine
 10
0.0
 20
5.0
 30
0.0
 11
0.0
 21
22.5
 31
0.0
  0
LINE
  5
26D
330
265
100
AcDbEntity
  8
VERMASSUNG
 62
     0
100
AcDbLine
 10
-5.0
 20
0.0
 30
0.0
 11
-22.5
 21
0.0
 31
0.0
  0
LINE
  5
26E
330
265
100
AcDbEntity
  8
VERMASSUNG
 62
     0
100
AcDbLine
 10
0.0
 20
-5.0
 30
0.0
 11
0.0
 21
-22.5
 31
0.0
  0
LINE
  5
26F
330
265
100
AcDbEntity
  8
VERMASSUNG
 62
     0
100
AcDbLine
 10
5.0
 20
0.0
 30
0.0
 11
22.5
 21
0.0
 31
0.0
  0
ENDBLK
  5
267
330
265
100
AcDbEntity
  8
0
100
AcDbBlockEnd
  0
ENDSEC
  0
SECTION
  2
ENTITIES
  0
MTEXT
  5
49
330
1F
100
AcDbEntity
  8
KOPF_DÜNN
100
AcDbMText
 10
13.8892156294
 20
23.8442973028
 30
0.0
 40
3.0
 41
0.0
 71
     1
 72
     1
  1
PS4.B08.K01.065
  7
SLDTEXTSTYLE0
 73
     1
 44
1.0
  0
MTEXT
  5
4A
330
1F
100
AcDbEntity
  8
VERMASSUNG
100
AcDbMText
 10
13.9329988022
 20
28.8834360957
 30
0.0
 40
3.0
 41
0.0
 71
     1
 72
     1
  1
Bohrstangenhalter_Boring bar holder
  7
SLDTEXTSTYLE0
 73
     1
 44
1.0
  0
MTEXT
  5
4B
330
1F
100
AcDbEntity
  8
VERMASSUNG
100
AcDbMText
 10
98.8601118557
 20
13.8365368179
 30
0.0
 40
2.0
 41
0.0
 71
     1
 72
     1
  1
Datum: 19.06.2012
  7
SLDTEXTSTYLE0
 73
     1
 44
1.0
  0
MTEXT
  5
4D
330
1F
100
AcDbEntity
  8
VERMASSUNG
100
AcDbMText
 10
13.933048693
 20
18.0482802738
 30
0.0
 40
2.0
 41
0.0
 71
     1
 72
     1
  1
PSC ø40 / ø 8
  7
SLDTEXTSTYLE1
 73
     1
 44
1.0
  0
MTEXT
  5
4E
330
1F
100
AcDbEntity
  8
VERMASSUNG
100
AcDbMText
 10
13.9808475933
 20
13.9090973692
 30
0.0
 40
2.0
 41
0.0
 71
     1
 72
     1
  1
Gewicht: 545g
  7
SLDTEXTSTYLE0
 73
     1
 44
1.0
  0
LINE
  5
4F
330
1F
100
AcDbEntity
  8
0
  6
Continuous
 62
     7
370
    15
100
AcDbLine
 10
215.6892489273
 20
126.031275817
 30
0.0
 11
215.395532139
 21
126.2008566193
 31
0.0
  0
LINE
  5
50
330
1F
100
AcDbEntity
  8
0
  6
Continuous
 62
     7
370
    15
100
AcDbLine
 10
208.7765294689
 20
126.2008566193
 30
0.0
 11
208.4847349304
 21
126.0323878161
 31
0.0
  0
LINE
  5
51
330
1F
100
AcDbEntity
  8
0
  6
Continuous
 62
     7
370
    15
100
AcDbLine
 10
205.6892510134
 20
126.031275817
 30
0.0
 11
205.3955304998
 21
126.2008566193
 31
0.0
  0
LINE
  5
52
330
1F
100
AcDbEntity
  8
0
  6
Continuous
 62
     7
370
    15
100
AcDbLine
 10
198.7765315551
 20
126.2008566193
 30
0.0
 11
198.4847370166
 21
126.0323878161
 31
0.0
  0
LINE
  5
53
330
1F
100
AcDbEntity
  8
0
  6
Continuous
 62
     7
370
    15
100
AcDbLine
 10
198.486372419
 20
92.368377351
 30
0.0
 11
198.7765315551
 21
92.2008547715
 31
0.0
  0
LINE
  5
54
330
1F
100
AcDbEntity
  8
0
  6
Continuous
 62
     7
370
    15
100
AcDbLine
 10
205.3955304998
 20
92.2008547715
 30
0.0
 11
205.687757172
 21
92.3695731692
 31
0.0
  0
LINE
  5
55
330
1F
100
AcDbEntity
  8
0
  6
Continuous
 62
     7
370
    15
100
AcDbLine
 10
208.4863740582
 20
92.368377351
 30
0.0
 11
208.7765294689
 21
92.2008547715
 31
0.0
  0
LINE
  5
56
330
1F
100
AcDbEntity
  8
0
  6
Continuous
 62
     7
370
    15
100
AcDbLine
 10
215.395532139
 20
92.2008547715
 30
0.0
 11
215.6877550859
 21
92.3695731692
 31
0.0
  0
LINE
  5
57
330
1F
100
AcDbEntity
  8
0
  6
Continuous
 62
     7
370
    15
100
AcDbLine
 10
218.486371972
 20
92.368377351
 30
0.0
 11
218.776531108
 21
92.2008547715
 31
0.0
  0
LINE
  5
58
330
1F
100
AcDbEntity
  8
0
  6
Continuous
 62
     7
370
    15
100
AcDbLine
 10
225.3955300528
 20
92.2008547715
 30
0.0
 11
225.687756725
 21
92.3695731692
 31
0.0
  0
LINE
  5
59
330
1F
100
AcDbEntity
  8
0
  6
Continuous
 62
     7
370
    15
100
AcDbLine
 10
225.6892505664
 20
126.031275817
 30
0.0
 11
225.3955300528
 21
126.2008566193
 31
0.0
  0
LINE
  5
5A
330
1F
100
AcDbEntity
  8
0
  6
Continuous
 62
     7
370
    15
100
AcDbLine
 10
218.776531108
 20
126.2008566193
 30
0.0
 11
218.4847365695
 21
126.0323878161
 31
0.0
  0
LINE
  5
5B
330
1F
100
AcDbEntity
  8
0
  6
Continuous
 62
     7
370
    15
100
AcDbLine
 10
179.0611283484
 20
89.2008561424
 30
0.0
 11
184.4860311228
 21
89.2008561424
 31
0.0
  0
LINE
  5
5C
330
1F
100
AcDbEntity
  8
0
  6
Continuous
 62
     7
370
    15
100
AcDbLine
 10
165.3860305649
 20
89.2008561424
 30
0.0
 11
175.0860303271
 21
89.2008561424
 31
0.0
  0
LINE
  5
5D
330
1F
100
AcDbEntity
  8
0
  6
Continuous
 62
     7
370
    15
100
AcDbLine
 10
184.4860311228
 20
129.2008552484
 30
0.0
 11
165.3860305649
 21
129.2008552484
 31
0.0
  0
ARC
  5
5E
330
1F
100
AcDbEntity
  8
0
  6
Continuous
 62
     7
370
    15
100
AcDbCircle
 10
184.4860305506
 20
89.8008556954
 30
0.0
 40
0.6000000000000227
100
AcDbArc
 50
270.0
 51
0.0
  0
ARC
  5
5F
330
1F
100
AcDbEntity
  8
0
  6
Continuous
 62
     7
370
    15
100
AcDbCircle
 10
184.4860305506
 20
128.6008556954
 30
0.0
 40
0.6000000000000227
100
AcDbArc
 50
0.0
 51
90.0
  0
ARC
  5
60
330
1F
100
AcDbEntity
  8
0
  6
Continuous
 62
     7
370
    15
100
AcDbCircle
 10
165.3860305506
 20
89.5008556954
 30
0.0
 40
0.3000000000000114
100
AcDbArc
 50
180.0
 51
270.0
  0
ARC
  5
61
330
1F
100
AcDbEntity
  8
0
  6
Continuous
 62
     7
370
    15
100
AcDbCircle
 10
165.3860305506
 20
128.9008556954
 30
0.0
 40
0.3000000000000398
100
AcDbArc
 50
90.0
 51
180.0
  0
ARC
  5
62
330
1F
100
AcDbEntity
  8
0
  6
Continuous
 62
     7
370
    15
100
AcDbCircle
 10
186.0860305506
 20
91.2008556954
 30
0.0
 40
1.0
100
AcDbArc
 50
90.0
 51
180.0
  0
ARC
  5
63
330
1F
100
AcDbEntity
  8
0
  6
Continuous
 62
     7
370
    15
100
AcDbCircle
 10
186.0860305506
 20
127.2008556954
 30
0.0
 40
1.0
100
AcDbArc
 50
180.0
 51
270.0
  0
ARC
  5
64
330
1F
100
AcDbEntity
  8
0
  6
Continuous
 62
     7
370
    15
100
AcDbCircle
 10
229.0860305506
 20
125.2008556954
 30
0.0
 40
1.0
100
AcDbArc
 50
0.0
 51
90.0
  0
ARC
  5
65
330
1F
100
AcDbEntity
  8
0
  6
Continuous
 62
     7
370
    15
100
AcDbCircle
 10
229.0860305506
 20
93.2008556954
 30
0.0
 40
1.0
100
AcDbArc
 50
270.0
 51
0.0
  0
LINE
  5
66
330
1F
100
AcDbEntity
  8
0
  6
Continuous
 62
     7
370
    15
100
AcDbLine
 10
197.5952755291
 20
126.2008566193
 30
0.0
 11
186.0860302675
 21
126.2008566193
 31
0.0
  0
LINE
  5
67
330
1F
100
AcDbEntity
  8
0
  6
Continuous
 62
     7
370
    15
100
AcDbLine
 10
207.5952771682
 20
126.2008566193
 30
0.0
 11
206.5797667581
 21
126.2008566193
 31
0.0
  0
LINE
  5
68
330
1F
100
AcDbEntity
  8
0
  6
Continuous
 62
     7
370
    15
100
AcDbLine
 10
217.595275082
 20
126.2008566193
 30
0.0
 11
216.5797683972
 21
126.2008566193
 31
0.0
  0
LINE
  5
69
330
1F
100
AcDbEntity
  8
0
  6
Continuous
 62
     7
370
    15
100
AcDbLine
 10
229.0860335905
 20
126.2008566193
 30
0.0
 11
226.5797700364
 21
126.2008566193
 31
0.0
  0
LINE
  5
6A
330
1F
100
AcDbEntity
  8
0
  6
Continuous
 62
     7
370
    15
100
AcDbLine
 10
226.5797700364
 20
92.2008547715
 30
0.0
 11
229.0860335905
 21
92.2008547715
 31
0.0
  0
LINE
  5
6B
330
1F
100
AcDbEntity
  8
0
  6
Continuous
 62
     7
370
    15
100
AcDbLine
 10
216.5797683972
 20
92.2008547715
 30
0.0
 11
217.595275082
 21
92.2008547715
 31
0.0
  0
LINE
  5
6C
330
1F
100
AcDbEntity
  8
0
  6
Continuous
 62
     7
370
    15
100
AcDbLine
 10
206.5797667581
 20
92.2008547715
 30
0.0
 11
207.5952771682
 21
92.2008547715
 31
0.0
  0
LINE
  5
6D
330
1F
100
AcDbEntity
  8
0
  6
Continuous
 62
     7
370
    15
100
AcDbLine
 10
186.0860302675
 20
92.2008547715
 30
0.0
 11
197.5952755291
 21
92.2008547715
 31
0.0
  0
LWPOLYLINE
  5
6E
330
1F
100
AcDbEntity
  8
0
  6
Continuous
 62
     7
370
    15
100
AcDbPolyline
 90
        3
 70
   128
 43
0.0
 10
164.8860305557
 20
95.1110357202
 10
165.0114854909
 20
95.0427334539
 10
165.0860305506
 20
94.9899954505
  0
ARC
  5
6F
330
1F
100
AcDbEntity
  8
0
  6
Continuous
 62
     7
370
    15
100
AcDbCircle
 10
164.4718169883
 20
124.2008556954
 30
0.0
 40
1.000000000000018
100
AcDbArc
 50
225.0
 51
307.8947985336
  0
LINE
  5
70
330
1F
100
AcDbEntity
  8
0
  6
Continuous
 62
     7
370
    15
100
AcDbLine
 10
156.2675568837
 20
96.2595976673
 30
0.0
 11
163.3860305281
 21
96.0807567246
 31
0.0
  0
LINE
  5
71
330
1F
100
AcDbEntity
  8
0
  6
Continuous
 62
     7
370
    15
100
AcDbLine
 10
146.9899654019
 20
96.4926834933
 30
0.0
 11
151.0528284687
 21
96.3906096078
 31
0.0
  0
ARC
  5
72
330
1F
100
AcDbEntity
  8
0
  6
Continuous
 62
     7
370
    15
100
AcDbCircle
 10
163.5859674616
 20
96.0757337997
 30
0.0
 40
0.1999999999999924
100
AcDbArc
 50
88.5608333333
 51
178.5608333333
  0
LINE
  5
73
330
1F
100
AcDbEntity
  8
0
  6
Continuous
 62
     7
370
    15
100
AcDbLine
 10
163.5909905288
 20
96.2756704323
 30
0.0
 11
164.691053649
 21
96.2480334349
 31
0.0
  0
ARC
  5
74
330
1F
100
AcDbEntity
  8
0
  6
Continuous
 62
     7
370
    15
100
AcDbCircle
 10
164.6860305506
 20
96.0480963859
 30
0.0
 40
0.2000000000000059
100
AcDbArc
 50
0.0
 51
88.5608333333
  0
LINE
  5
75
330
1F
100
AcDbEntity
  8
0
  6
Continuous
 62
     7
370
    15
100
AcDbLine
 10
163.1529213026
 20
124.1150982461
 30
0.0
 11
142.5860296566
 21
123.5983865119
 31
0.0
  0
LINE
  5
76
330
1F
100
AcDbEntity
  8
0
  6
Continuous
 62
     7
370
    15
100
AcDbLine
 10
142.5860296566
 20
123.5983865119
 30
0.0
 11
141.086030342
 21
122.7323608256
 31
0.0
  0
LINE
  5
77
330
1F
100
AcDbEntity
  8
0
  6
Continuous
 62
     7
370
    15
100
AcDbLine
 10
163.764710245
 20
123.4937486954
 30
0.0
 11
163.1596736241
 21
124.0987851999
 31
0.0
  0
LINE
  5
78
330
1F
100
AcDbEntity
  8
0
  6
Continuous
 62
     7
370
    15
100
AcDbLine
 10
212.0860289413
 20
125.802194678
 30
0.0
 11
213.9301519472
 21
125.802194678
 31
0.0
  0
LINE
  5
79
330
1F
100
AcDbEntity
  8
0
  6
Continuous
 62
     7
370
    15
100
AcDbLine
 10
210.2422263104
 20
125.802194678
 30
0.0
 11
212.0860289413
 21
125.802194678
 31
0.0
  0
LINE
  5
7A
330
1F
100
AcDbEntity
  8
0
  6
Continuous
 62
     7
370
    15
100
AcDbLine
 10
212.0860289413
 20
126.2008566193
 30
0.0
 11
215.395532139
 21
126.2008566193
 31
0.0
  0
LINE
  5
7B
330
1F
100
AcDbEntity
  8
0
  6
Continuous
 62
     7
370
    15
100
AcDbLine
 10
208.7765294689
 20
126.2008566193
 30
0.0
 11
212.0860289413
 21
126.2008566193
 31
0.0
  0
LINE
  5
7C
330
1F
100
AcDbEntity
  8
0
  6
Continuous
 62
     7
370
    15
100
AcDbLine
 10
202.0860310275
 20
125.802194678
 30
0.0
 11
203.9301540333
 21
125.802194678
 31
0.0
  0
LINE
  5
7D
330
1F
100
AcDbEntity
  8
0
  6
Continuous
 62
     7
370
    15
100
AcDbLine
 10
200.2422283966
 20
125.802194678
 30
0.0
 11
202.0860310275
 21
125.802194678
 31
0.0
  0
LINE
  5
7E
330
1F
100
AcDbEntity
  8
0
  6
Continuous
 62
     7
370
    15
100
AcDbLine
 10
202.0860310275
 20
126.2008566193
 30
0.0
 11
205.3955304998
 21
126.2008566193
 31
0.0
  0
LINE
  5
7F
330
1F
100
AcDbEntity
  8
0
  6
Continuous
 62
     7
370
    15
100
AcDbLine
 10
198.7765315551
 20
126.2008566193
 30
0.0
 11
202.0860310275
 21
126.2008566193
 31
0.0
  0
LINE
  5
80
330
1F
100
AcDbEntity
  8
0
  6
Continuous
 62
     7
370
    15
100
AcDbLine
 10
203.9190824706
 20
92.5995167128
 30
0.0
 11
200.2429883558
 21
92.5995167128
 31
0.0
  0
LINE
  5
81
330
1F
100
AcDbEntity
  8
0
  6
Continuous
 62
     7
370
    15
100
AcDbLine
 10
205.3955304998
 20
92.2008547715
 30
0.0
 11
198.7765315551
 21
92.2008547715
 31
0.0
  0
LINE
  5
82
330
1F
100
AcDbEntity
  8
0
  6
Continuous
 62
     7
370
    15
100
AcDbLine
 10
213.9190841097
 20
92.5995167128
 30
0.0
 11
210.2429899949
 21
92.5995167128
 31
0.0
  0
LINE
  5
83
330
1F
100
AcDbEntity
  8
0
  6
Continuous
 62
     7
370
    15
100
AcDbLine
 10
215.395532139
 20
92.2008547715
 30
0.0
 11
208.7765294689
 21
92.2008547715
 31
0.0
  0
LINE
  5
84
330
1F
100
AcDbEntity
  8
0
  6
Continuous
 62
     7
370
    15
100
AcDbLine
 10
223.9190820235
 20
92.5995167128
 30
0.0
 11
220.2429879087
 21
92.5995167128
 31
0.0
  0
LINE
  5
85
330
1F
100
AcDbEntity
  8
0
  6
Continuous
 62
     7
370
    15
100
AcDbLine
 10
225.3955300528
 20
92.2008547715
 30
0.0
 11
218.776531108
 21
92.2008547715
 31
0.0
  0
LINE
  5
86
330
1F
100
AcDbEntity
  8
0
  6
Continuous
 62
     7
370
    15
100
AcDbLine
 10
222.0860305804
 20
125.802194678
 30
0.0
 11
223.9301535863
 21
125.802194678
 31
0.0
  0
LINE
  5
87
330
1F
100
AcDbEntity
  8
0
  6
Continuous
 62
     7
370
    15
100
AcDbLine
 10
220.2422279495
 20
125.802194678
 30
0.0
 11
222.0860305804
 21
125.802194678
 31
0.0
  0
LINE
  5
88
330
1F
100
AcDbEntity
  8
0
  6
Continuous
 62
     7
370
    15
100
AcDbLine
 10
222.0860305804
 20
126.2008566193
 30
0.0
 11
225.3955300528
 21
126.2008566193
 31
0.0
  0
LINE
  5
89
330
1F
100
AcDbEntity
  8
0
  6
Continuous
 62
     7
370
    15
100
AcDbLine
 10
218.776531108
 20
126.2008566193
 30
0.0
 11
222.0860305804
 21
126.2008566193
 31
0.0
  0
ARC
  5
8A
330
1F
100
AcDbEntity
  8
0
  6
Continuous
 62
     7
370
    15
100
AcDbCircle
 10
177.0859554242
 20
69.2534596285
 30
0.0
 40
20.04740202818732
100
AcDbArc
 50
84.3457526741
 51
95.7253396711
  0
SPLINE
  5
8B
330
1F
100
AcDbEntity
  8
0
  6
Continuous
 62
     7
370
    15
100
AcDbSpline
210
0.0
220
0.0
230
1.0
 70
     8
 71
     3
 72
    12
 73
     8
 74
     0
 42
0.00000001
 43
0.00000001
 12
1.0
 22
0.0
 32
0.0
 13
1.0
 23
0.0
 33
0.0
 40
0.0
 40
0.0
 40
0.0
 40
0.0
 40
0.2499999999999973
 40
0.2499999999999973
 40
0.4999999999999947
 40
0.4999999999999947
 40
1.0
 40
1.0
 40
1.0
 40
1.0
 10
172.0179325526226
 20
90.0691993151769
 30
0.0
 10
171.9804206665779
 20
90.0691993151769
 30
0.0
 10
171.9451333188732
 20
90.07370285943942
 30
0.0
 10
171.8862034706348
 20
90.08707605889272
 30
0.0
 10
171.8626777441657
 20
90.09556096146386
 30
0.0
 10
171.8024189563976
 20
90.12330876529845
 30
0.0
 10
171.7768241941083
 20
90.1442986290388
 30
0.0
 10
171.7581249314873
 20
90.16609941222833
 30
0.0
  0
LINE
  5
8C
330
1F
100
AcDbEntity
  8
0
  6
Continuous
 62
     7
370
    15
100
AcDbLine
 10
174.1541284698
 20
90.0691989593
 30
0.0
 11
172.01793246
 21
90.0691989593
 31
0.0
  0
SPLINE
  5
8D
330
1F
100
AcDbEntity
  8
0
  6
Continuous
 62
     7
370
    15
100
AcDbSpline
210
0.0
220
0.0
230
1.0
 70
     8
 71
     3
 72
    12
 73
     8
 74
     0
 42
0.00000001
 43
0.00000001
 12
1.0
 22
0.0
 32
0.0
 13
1.0
 23
0.0
 33
0.0
 40
0.0
 40
0.0
 40
0.0
 40
0.0
 40
0.4999999999999938
 40
0.4999999999999938
 40
0.7499999999999969
 40
0.7499999999999969
 40
1.0
 40
1.0
 40
1.0
 40
1.0
 10
174.4139361697596
 20
90.16609941222833
 30
0.0
 10
174.3952429366291
 20
90.14430565860039
 30
0.0
 10
174.3695876392174
 20
90.12328549689074
 30
0.0
 10
174.3094270165309
 20
90.09558015092703
 30
0.0
 10
174.2853547047766
 20
90.08694493473365
 30
0.0
 10
174.226973184426
 20
90.07373028950707
 30
0.0
 10
174.191504356773
 20
90.06919931517689
 30
0.0
 10
174.1541285486242
 20
90.0691993151769
 30
0.0
  0
ELLIPSE
  5
8E
330
1F
100
AcDbEntity
  8
0
  6
Continuous
 62
     7
370
    15
100
AcDbEllipse
 10
164.1371013782
 20
109.2008556954
 30
0.0
 11
-9.367417879781812
 21
19.74174915274993
 31
0.0
210
0.0
220
0.0
230
1.0
 40
0.3419987131
 41
3.29266438251689
 42
4.239566697060995
  0
SPLINE
  5
8F
330
1F
100
AcDbEntity
  8
0
  6
Continuous
 62
     7
370
    15
100
AcDbSpline
210
0.0
220
0.0
230
1.0
 70
     8
 71
     3
 72
    12
 73
     8
 74
     0
 42
0.00000001
 43
0.00000001
 12
1.0
 22
0.0
 32
0.0
 13
1.0
 23
0.0
 33
0.0
 40
0.0
 40
0.0
 40
0.0
 40
0.0
 40
0.2499999999999997
 40
0.2499999999999997
 40
0.4999999999999994
 40
0.4999999999999994
 40
1.0
 40
1.0
 40
1.0
 40
1.0
 10
174.1541285486242
 20
103.3716426997585
 30
0.0
 10
174.1916404346689
 20
103.3716426997585
 30
0.0
 10
174.2269277823736
 20
103.3568378854717
 30
0.0
 10
174.285857630612
 20
103.3132460123458
 30
0.0
 10
174.3093833570811
 20
103.2857325862598
 30
0.0
 10
174.3696421448492
 20
103.1966008541463
 30
0.0
 10
174.3952369071385
 20
103.1302150035284
 30
0.0
 10
174.4139361697596
 20
103.0626105683511
 30
0.0
  0
LINE
  5
90
330
1F
100
AcDbEntity
  8
0
  6
Continuous
 62
     7
370
    15
100
AcDbLine
 10
172.01793246
 20
103.3716425083
 30
0.0
 11
174.1541284698
 21
103.3716425083
 31
0.0
  0
SPLINE
  5
91
330
1F
100
AcDbEntity
  8
0
  6
Continuous
 62
     7
370
    15
100
AcDbSpline
210
0.0
220
0.0
230
1.0
 70
     8
 71
     3
 72
    12
 73
     8
 74
     0
 42
0.00000001
 43
0.00000001
 12
1.0
 22
0.0
 32
0.0
 13
1.0
 23
0.0
 33
0.0
 40
0.0
 40
0.0
 40
0.0
 40
0.0
 40
0.5000000000000013
 40
0.5000000000000013
 40
0.7500000000000007
 40
0.7500000000000007
 40
1.0
 40
1.0
 40
1.0
 40
1.0
 10
171.7581249314873
 20
103.0626105683511
 30
0.0
 10
171.7768181646177
 20
103.1301932047914
 30
0.0
 10
171.8024734620295
 20
103.1966757742689
 30
0.0
 10
171.8626340847159
 20
103.2856708571664
 30
0.0
 10
171.8867063964703
 20
103.3136727541656
 30
0.0
 10
171.9450879168208
 20
103.3567491548307
 30
0.0
 10
171.9805567444739
 20
103.3716426997585
 30
0.0
 10
172.0179325526226
 20
103.3716426997585
 30
0.0
  0
ELLIPSE
  5
92
330
1F
100
AcDbEntity
  8
0
  6
Continuous
 62
     7
370
    15
100
AcDbEllipse
 10
182.0349597231
 20
109.2008556954
 30
0.0
 11
9.367417879781694
 21
19.74174915274993
 31
0.0
210
0.0
220
0.0
230
1.0
 40
0.3419987131
 41
2.043618610118602
 42
2.990520924662738
  0
SPLINE
  5
93
330
1F
100
AcDbEntity
  8
0
  6
Continuous
 62
     7
370
    15
100
AcDbSpline
210
0.0
220
0.0
230
1.0
 70
     8
 71
     3
 72
    12
 73
     8
 74
     0
 42
0.00000001
 43
0.00000001
 12
1.0
 22
0.0
 32
0.0
 13
1.0
 23
0.0
 33
0.0
 40
0.0
 40
0.0
 40
0.0
 40
0.0
 40
0.2500000000000027
 40
0.2500000000000027
 40
0.5000000000000053
 40
0.5000000000000053
 40
1.0
 40
1.0
 40
1.0
 40
1.0
 10
172.0179325526226
 20
115.030068691062
 30
0.0
 10
171.9804317297449
 20
115.030068691062
 30
0.0
 10
171.9451533257089
 20
115.0448650288151
 30
0.0
 10
171.8862356056565
 20
115.0884352899742
 30
0.0
 10
171.8627122242581
 20
115.1159370884758
 30
0.0
 10
171.8024566397922
 20
115.2050362517188
 30
0.0
 10
171.7769349873811
 20
115.2710958305012
 30
0.0
 10
171.7581249314873
 20
115.3391008224694
 30
0.0
  0
LINE
  5
94
330
1F
100
AcDbEntity
  8
0
  6
Continuous
 62
     7
370
    15
100
AcDbLine
 10
174.1541284698
 20
115.0300688825
 30
0.0
 11
172.01793246
 21
115.0300688825
 31
0.0
  0
SPLINE
  5
95
330
1F
100
AcDbEntity
  8
0
  6
Continuous
 62
     7
370
    15
100
AcDbSpline
210
0.0
220
0.0
230
1.0
 70
     8
 71
     3
 72
    12
 73
     8
 74
     0
 42
0.00000001
 43
0.00000001
 12
1.0
 22
0.0
 32
0.0
 13
1.0
 23
0.0
 33
0.0
 40
0.0
 40
0.0
 40
0.0
 40
0.0
 40
0.4999999999999969
 40
0.4999999999999969
 40
0.7499999999999984
 40
0.7499999999999984
 40
1.0
 40
1.0
 40
1.0
 40
1.0
 10
174.4139361697596
 20
115.3391008224694
 30
0.0
 10
174.3951329369079
 20
115.271120498207
 30
0.0
 10
174.3695962778887
 20
115.2050301104102
 30
0.0
 10
174.3093701039402
 20
115.115965497963
 30
0.0
 10
174.2854440265403
 20
115.0881644109431
 30
0.0
 10
174.2273831063589
 20
115.0452053377182
 30
0.0
 10
174.191581407733
 20
115.030068691062
 30
0.0
 10
174.1541285486242
 20
115.030068691062
 30
0.0
  0
ELLIPSE
  5
96
330
1F
100
AcDbEntity
  8
0
  6
Continuous
 62
     7
370
    15
100
AcDbEllipse
 10
164.1371013782
 20
109.2008556954
 30
0.0
 11
9.367417879781755
 21
19.74174915274993
 31
0.0
210
0.0
220
0.0
230
1.0
 40
0.3419987131
 41
5.185211263708403
 42
6.132113578252561
  0
SPLINE
  5
97
330
1F
100
AcDbEntity
  8
0
  6
Continuous
 62
     7
370
    15
100
AcDbSpline
210
0.0
220
0.0
230
1.0
 70
     8
 71
     3
 72
    12
 73
     8
 74
     0
 42
0.00000001
 43
0.00000001
 12
1.0
 22
0.0
 32
0.0
 13
1.0
 23
0.0
 33
0.0
 40
0.0
 40
0.0
 40
0.0
 40
0.0
 40
0.2499999999999984
 40
0.2499999999999984
 40
0.4999999999999969
 40
0.4999999999999969
 40
1.0
 40
1.0
 40
1.0
 40
1.0
 10
174.1541285486242
 20
128.3325120756437
 30
0.0
 10
174.191629371502
 20
128.3325120756437
 30
0.0
 10
174.226907775538
 20
128.3280111077805
 30
0.0
 10
174.2858254955904
 20
128.3146445865632
 30
0.0
 10
174.3093488769887
 20
128.3061633263184
 30
0.0
 10
174.3696044614547
 20
128.2784259306405
 30
0.0
 10
174.3951261138658
 20
128.2575419315874
 30
0.0
 10
174.4139361697596
 20
128.2356119785922
 30
0.0
  0
LINE
  5
98
330
1F
100
AcDbEntity
  8
0
  6
Continuous
 62
     7
370
    15
100
AcDbLine
 10
172.01793246
 20
128.3325124315
 30
0.0
 11
174.1541284698
 21
128.3325124315
 31
0.0
  0
SPLINE
  5
99
330
1F
100
AcDbEntity
  8
0
  6
Continuous
 62
     7
370
    15
100
AcDbSpline
210
0.0
220
0.0
230
1.0
 70
     8
 71
     3
 72
    12
 73
     8
 74
     0
 42
0.00000001
 43
0.00000001
 12
1.0
 22
0.0
 32
0.0
 13
1.0
 23
0.0
 33
0.0
 40
0.0
 40
0.0
 40
0.0
 40
0.0
 40
0.5000000000000022
 40
0.5000000000000022
 40
0.7500000000000011
 40
0.7500000000000011
 40
1.0
 40
1.0
 40
1.0
 40
1.0
 10
171.7581249314873
 20
128.2356119785922
 30
0.0
 10
171.776928164339
 20
128.2575339768533
 30
0.0
 10
171.8024648233582
 20
128.2784277848633
 30
0.0
 10
171.8626909973066
 20
128.306154510981
 30
0.0
 10
171.8866170747066
 20
128.3147276443565
 30
0.0
 10
171.9446779948879
 20
128.327906750164
 30
0.0
 10
171.9804796935138
 20
128.3325120756437
 30
0.0
 10
172.0179325526226
 20
128.3325120756437
 30
0.0
  0
ELLIPSE
  5
9A
330
1F
100
AcDbEntity
  8
0
  6
Continuous
 62
     7
370
    15
100
AcDbEllipse
 10
182.0349597231
 20
109.2008556954
 30
0.0
 11
-9.367417879781641
 21
19.74174915274993
 31
0.0
210
0.0
220
0.0
230
1.0
 40
0.3419987131
 41
0.1510717289270612
 42
1.097974043471198
  0
LINE
  5
9B
330
1F
100
AcDbEntity
  8
0
  6
Continuous
 62
     7
370
    15
100
AcDbLine
 10
185.0860301036
 20
109.2008556954
 30
0.0
 11
185.0860301036
 21
89.8008551232
 31
0.0
  0
LINE
  5
9C
330
1F
100
AcDbEntity
  8
0
  6
Continuous
 62
     7
370
    15
100
AcDbLine
 10
185.0860301036
 20
128.6008562676
 30
0.0
 11
185.0860301036
 21
109.2008556954
 31
0.0
  0
LINE
  5
9D
330
1F
100
AcDbEntity
  8
0
  6
Continuous
 62
     7
370
    15
100
AcDbLine
 10
165.0860305506
 20
109.2008556954
 30
0.0
 11
165.0860305506
 21
128.900855758
 31
0.0
  0
LINE
  5
9E
330
1F
100
AcDbEntity
  8
0
  6
Continuous
 62
     7
370
    15
100
AcDbLine
 10
165.0860305506
 20
89.5008556328
 30
0.0
 11
165.0860305506
 21
109.2008556954
 31
0.0
  0
LINE
  5
9F
330
1F
100
AcDbEntity
  8
0
  6
Continuous
 62
     7
370
    15
100
AcDbLine
 10
230.0860281664
 20
125.2008564554
 30
0.0
 11
230.0860281664
 21
93.2008549355
 31
0.0
  0
SPLINE
  5
A0
330
1F
100
AcDbEntity
  8
0
  6
Continuous
 62
     7
370
    15
100
AcDbSpline
210
0.0
220
0.0
230
1.0
 70
     8
 71
     3
 72
    12
 73
     8
 74
     0
 42
0.00000001
 43
0.00000001
 12
1.0
 22
0.0
 32
0.0
 13
1.0
 23
0.0
 33
0.0
 40
0.0
 40
0.0
 40
0.0
 40
0.0
 40
0.3653655297813672
 40
0.5697453117968175
 40
0.7816322483226317
 40
0.9628614212816785
 40
1.0
 40
1.0
 40
1.0
 40
1.0
 10
199.0626934546476
 20
92.46239622752243
 30
0.0
 10
198.7597784870431
 20
92.41472924592057
 30
0.0
 10
198.287417608421
 20
92.34039809784697
 30
0.0
 10
197.8609882289789
 20
92.25706510777549
 30
0.0
 10
197.6583654148442
 20
92.21608427424805
 30
0.0
 10
197.5753780787895
 20
92.1986341760182
 30
0.0
 10
197.5923833775273
 20
92.20218121448853
 30
0.0
 10
197.5952755290513
 20
92.20278447191292
 30
0.0
  0
SPLINE
  5
A1
330
1F
100
AcDbEntity
  8
0
  6
Continuous
 62
     7
370
    15
100
AcDbSpline
210
0.0
220
0.0
230
1.0
 70
     8
 71
     3
 72
    20
 73
    16
 74
     0
 42
0.00000001
 43
0.00000001
 12
1.0
 22
0.0
 32
0.0
 13
1.0
 23
0.0
 33
0.0
 40
0.0
 40
0.0
 40
0.0
 40
0.0
 40
0.007425344136845
 40
0.0664870885469595
 40
0.1272741258521748
 40
0.2466723109470495
 40
0.3767733271732906
 40
0.4488619417102202
 40
0.5227272942578717
 40
0.6009155172653713
 40
0.6812322644971424
 40
0.7618526548544461
 40
0.8448108391740714
 40
0.9213346305004404
 40
1.0
 40
1.0
 40
1.0
 40
1.0
 10
206.5797667581086
 20
92.20216048578793
 30
0.0
 10
206.5818228498033
 20
92.20173261066225
 30
0.0
 10
206.6002332491124
 20
92.19790138468211
 30
0.0
 10
206.5326847651402
 20
92.21204827154234
 30
0.0
 10
206.3314108710985
 20
92.25331653270446
 30
0.0
 10
205.814322859949
 20
92.35389191444585
 30
0.0
 10
205.0289043315005
 20
92.47938378353405
 30
0.0
 10
204.2390168023108
 20
92.57368826602402
 30
0.0
 10
203.5460437637701
 20
92.63501994700628
 30
0.0
 10
202.790557964486
 20
92.67549663819393
 30
0.0
 10
201.9942019025187
 20
92.68765165435175
 30
0.0
 10
201.1840401739603
 20
92.66806726057924
 30
0.0
 10
200.4127877344806
 20
92.61895397498311
 30
0.0
 10
199.6878220663586
 20
92.54767014877946
 30
0.0
 10
199.272977912924
 20
92.49108117330914
 30
0.0
 10
199.0626934546476
 20
92.46239622752243
 30
0.0
  0
SPLINE
  5
A2
330
1F
100
AcDbEntity
  8
0
  6
Continuous
 62
     7
370
    15
100
AcDbSpline
210
0.0
220
0.0
230
1.0
 70
     8
 71
     3
 72
    24
 73
    20
 74
     0
 42
0.00000001
 43
0.00000001
 12
1.0
 22
0.0
 32
0.0
 13
1.0
 23
0.0
 33
0.0
 40
0.0
 40
0.0
 40
0.0
 40
0.0
 40
0.0384806245024548
 40
0.1261342862775396
 40
0.2171011879819729
 40
0.2670516224371958
 40
0.3181777319143819
 40
0.3737072419048363
 40
0.4306562671717867
 40
0.4897603243508812
 40
0.5505198415521476
 40
0.6106144039295843
 40
0.6724863327471301
 40
0.7318465296385771
 40
0.7931507449323223
 40
0.8486840920681402
 40
0.9062926557252908
 40
0.9550322889619755
 40
1.0
 40
1.0
 40
1.0
 40
1.0
 10
197.5952755290513
 20
126.1989269189077
 30
0.0
 10
197.5992914500381
 20
126.1980857136644
 30
0.0
 10
197.6124550962618
 20
126.1953283565696
 30
0.0
 10
197.9331375039705
 20
126.1286776416143
 30
0.0
 10
198.5309695789026
 20
126.0189507479587
 30
0.0
 10
199.1728562184506
 20
125.9214903622184
 30
0.0
 10
199.759807676601
 20
125.8469808203691
 30
0.0
 10
200.4276015075677
 20
125.7818476887147
 30
0.0
 10
201.1693833658603
 20
125.7348179144949
 30
0.0
 10
201.9580674014915
 20
125.7142319609001
 30
0.0
 10
202.7645589071392
 20
125.7250715928306
 30
0.0
 10
203.5642484974187
 20
125.7672826531166
 30
0.0
 10
204.3161806548846
 20
125.8354137672361
 30
0.0
 10
205.0076163108008
 20
125.9217005842942
 30
0.0
 10
205.5892142419578
 20
126.0116569944344
 30
0.0
 10
206.0587625688833
 20
126.0953249018296
 30
0.0
 10
206.3733026020042
 20
126.1568739521307
 30
0.0
 10
206.5570624989536
 20
126.1947587069046
 30
0.0
 10
206.5724045215282
 20
126.1979969544669
 30
0.0
 10
206.5797667581086
 20
126.1995509050327
 30
0.0
  0
SPLINE
  5
A3
330
1F
100
AcDbEntity
  8
0
  6
Continuous
 62
     7
370
    15
100
AcDbSpline
210
0.0
220
0.0
230
1.0
 70
     8
 71
     3
 72
    12
 73
     8
 74
     0
 42
0.00000001
 43
0.00000001
 12
1.0
 22
0.0
 32
0.0
 13
1.0
 23
0.0
 33
0.0
 40
0.0
 40
0.0
 40
0.0
 40
0.0
 40
0.3653656000377957
 40
0.5697454213535968
 40
0.7816323986233187
 40
0.9628614733642293
 40
1.0
 40
1.0
 40
1.0
 40
1.0
 10
219.0626930076127
 20
92.46239622752243
 30
0.0
 10
218.759777812169
 20
92.41472924627297
 30
0.0
 10
218.287416578258
 20
92.34039809874893
 30
0.0
 10
217.8609889916217
 20
92.2570651059044
 30
0.0
 10
217.6583604928146
 20
92.21608429036633
 30
0.0
 10
217.5753871830937
 20
92.19863417418216
 30
0.0
 10
217.5923843205713
 20
92.20218121458983
 30
0.0
 10
217.5952750820165
 20
92.20278447191292
 30
0.0
  0
SPLINE
  5
A4
330
1F
100
AcDbEntity
  8
0
  6
Continuous
 62
     7
370
    15
100
AcDbSpline
210
0.0
220
0.0
230
1.0
 70
     8
 71
     3
 72
    20
 73
    16
 74
     0
 42
0.00000001
 43
0.00000001
 12
1.0
 22
0.0
 32
0.0
 13
1.0
 23
0.0
 33
0.0
 40
0.0
 40
0.0
 40
0.0
 40
0.0
 40
0.0074253162915716
 40
0.0664870600254611
 40
0.1272740966346977
 40
0.2466722803625278
 40
0.3767730253934562
 40
0.4488619596761025
 40
0.5227273113780356
 40
0.6009155334903225
 40
0.6812322798025103
 40
0.7618522973963964
 40
0.8448108409509032
 40
0.9213346314011163
 40
0.9999999999999999
 40
0.9999999999999999
 40
0.9999999999999999
 40
0.9999999999999999
 10
226.5797700363641
 20
92.20216048578793
 30
0.0
 10
226.581824806872
 20
92.20173261090898
 30
0.0
 10
226.6002234372788
 20
92.19790137441433
 30
0.0
 10
226.532688297528
 20
92.21204827304419
 30
0.0
 10
226.3314082346901
 20
92.25331655144115
 30
0.0
 10
225.8143229331243
 20
92.35389164849894
 30
0.0
 10
225.0289069331661
 20
92.47938427650297
 30
0.0
 10
224.239016926057
 20
92.57368804610608
 30
0.0
 10
223.5460434350694
 20
92.63501998936547
 30
0.0
 10
222.7905574951725
 20
92.67549660901102
 30
0.0
 10
221.9942026569798
 20
92.6876517095144
 30
0.0
 10
221.1840411715291
 20
92.6680670460109
 30
0.0
 10
220.4127883113599
 20
92.61895414897754
 30
0.0
 10
219.6878216374239
 20
92.54767013226964
 30
0.0
 10
219.2729774719778
 20
92.49108116775547
 30
0.0
 10
219.0626930076127
 20
92.46239622752243
 30
0.0
  0
SPLINE
  5
A5
330
1F
100
AcDbEntity
  8
0
  6
Continuous
 62
     7
370
    15
100
AcDbSpline
210
0.0
220
0.0
230
1.0
 70
     8
 71
     3
 72
    24
 73
    20
 74
     0
 42
0.00000001
 43
0.00000001
 12
1.0
 22
0.0
 32
0.0
 13
1.0
 23
0.0
 33
0.0
 40
0.0
 40
0.0
 40
0.0
 40
0.0
 40
0.0384806183588795
 40
0.1261342661397302
 40
0.2171011533209581
 40
0.2670515798014078
 40
0.3181776811161197
 40
0.3737071822410806
 40
0.4306561984159066
 40
0.4897605224516152
 40
0.5505197524339578
 40
0.6106143052170735
 40
0.6724864807830743
 40
0.7318466681974444
 40
0.7931508737037427
 40
0.8486840461192543
 40
0.9062927211913592
 40
0.9550322754970008
 40
1.0
 40
1.0
 40
1.0
 40
1.0
 10
217.5952750820165
 20
126.1989269189077
 30
0.0
 10
217.5992910030031
 20
126.1980857136636
 30
0.0
 10
217.6124546492264
 20
126.1953283565664
 30
0.0
 10
217.9331370569427
 20
126.1286776416481
 30
0.0
 10
218.5309691318461
 20
126.0189507478549
 30
0.0
 10
219.1728557714577
 20
125.9214903624193
 30
0.0
 10
219.7598072293964
 20
125.8469808195559
 30
0.0
 10
220.4276010612354
 20
125.7818476920802
 30
0.0
 10
221.1693841105556
 20
125.7348178256752
 30
0.0
 10
221.958068212029
 20
125.7142320031447
 30
0.0
 10
222.7645597375229
 20
125.7250716155554
 30
0.0
 10
223.5642489285724
 20
125.7672828291567
 30
0.0
 10
224.3161832387479
 20
125.8354135462508
 30
0.0
 10
225.0076191424672
 20
125.9217006380728
 30
0.0
 10
225.5892184751116
 20
126.0116567970358
 30
0.0
 10
226.0587602667971
 20
126.0953251664475
 30
0.0
 10
226.3733085902337
 20
126.1568738102827
 30
0.0
 10
226.5570597339086
 20
126.1947587476628
 30
0.0
 10
226.5724058351756
 20
126.1979969666354
 30
0.0
 10
226.5797700363641
 20
126.1995509050327
 30
0.0
  0
SPLINE
  5
A6
330
1F
100
AcDbEntity
  8
0
  6
Continuous
 62
     7
370
    15
100
AcDbSpline
210
0.0
220
0.0
230
1.0
 70
     8
 71
     3
 72
    12
 73
     8
 74
     0
 42
0.00000001
 43
0.00000001
 12
1.0
 22
0.0
 32
0.0
 13
1.0
 23
0.0
 33
0.0
 40
0.0
 40
0.0
 40
0.0
 40
0.0
 40
0.3653656468705913
 40
0.5697449773827725
 40
0.7816323114088549
 40
0.962861409379824
 40
1.0
 40
1.0
 40
1.0
 40
1.0
 10
209.062691368485
 20
92.46239622752243
 30
0.0
 10
208.7597753241157
 20
92.41472928831786
 30
0.0
 10
208.287413195037
 20
92.34039827380778
 30
0.0
 10
207.86099218951
 20
92.25706495318792
 30
0.0
 10
207.6583602761779
 20
92.21608434139357
 30
0.0
 10
207.5753799782859
 20
92.19863417551844
 30
0.0
 10
207.5923850529942
 20
92.2021812141017
 30
0.0
 10
207.5952771681791
 20
92.20278447191292
 30
0.0
  0
SPLINE
  5
A7
330
1F
100
AcDbEntity
  8
0
  6
Continuous
 62
     7
370
    15
100
AcDbSpline
210
0.0
220
0.0
230
1.0
 70
     8
 71
     3
 72
    20
 73
    16
 74
     0
 42
0.00000001
 43
0.00000001
 12
1.0
 22
0.0
 32
0.0
 13
1.0
 23
0.0
 33
0.0
 40
0.0
 40
0.0
 40
0.0
 40
0.0
 40
0.0074253154868829
 40
0.0664870528201938
 40
0.1272739836638528
 40
0.2466723353533702
 40
0.3767730662851546
 40
0.4488619927554531
 40
0.5227269900979548
 40
0.6009152037369081
 40
0.6812323143476778
 40
0.7618523232046943
 40
0.8448108577689032
 40
0.9213346399261587
 40
1.0
 40
1.0
 40
1.0
 40
1.0
 10
216.5797683972364
 20
92.20216048578793
 30
0.0
 10
216.5818231706518
 20
92.20173261097254
 30
0.0
 10
216.6002218270922
 20
92.19790137504714
 30
0.0
 10
216.5326854511123
 20
92.21204823447121
 30
0.0
 10
216.3314131710505
 20
92.2533166851557
 30
0.0
 10
215.8143193774407
 20
92.353891482912
 30
0.0
 10
215.0289057120258
 20
92.47938433355259
 30
0.0
 10
214.23901604934
 20
92.57368783678349
 30
0.0
 10
213.5460446397123
 20
92.63502016809848
 30
0.0
 10
212.7905582979693
 20
92.67549664546792
 30
0.0
 10
211.9942022688497
 20
92.68765171278115
 30
0.0
 10
211.1840395290768
 20
92.66806705342064
 30
0.0
 10
210.4127866730513
 20
92.61895414715184
 30
0.0
 10
209.6878199980918
 20
92.54767013272507
 30
0.0
 10
209.2729758327814
 20
92.49108116790866
 30
0.0
 10
209.062691368485
 20
92.46239622752243
 30
0.0
  0
SPLINE
  5
A8
330
1F
100
AcDbEntity
  8
0
  6
Continuous
 62
     7
370
    15
100
AcDbSpline
210
0.0
220
0.0
230
1.0
 70
     8
 71
     3
 72
    24
 73
    20
 74
     0
 42
0.00000001
 43
0.00000001
 12
1.0
 22
0.0
 32
0.0
 13
1.0
 23
0.0
 33
0.0
 40
0.0
 40
0.0
 40
0.0
 40
0.0
 40
0.038480604591994
 40
0.126134339292128
 40
0.2171010693678968
 40
0.2670517044520792
 40
0.3181775753858759
 40
0.3737073313747895
 40
0.4306560817933535
 40
0.4897604079961631
 40
0.5505196402062849
 40
0.6106141951928088
 40
0.6724863730273958
 40
0.7318465626182482
 40
0.7931507703723077
 40
0.848684110678188
 40
0.906292667250174
 40
0.9550322944924664
 40
1.0
 40
1.0
 40
1.0
 40
1.0
 10
207.5952771681791
 20
126.1989269189077
 30
0.0
 10
207.5992915114047
 20
126.1980857058232
 30
0.0
 10
207.6124499982794
 20
126.1953283204406
 30
0.0
 10
207.9331424157077
 20
126.1286779401494
 30
0.0
 10
208.5309664195968
 20
126.0189502360096
 30
0.0
 10
209.1728574958157
 20
125.9214908325535
 30
0.0
 10
209.7598065709073
 20
125.8469803283276
 30
0.0
 10
210.4276015038373
 20
125.7818481042981
 30
0.0
 10
211.1693834185335
 20
125.7348176507301
 30
0.0
 10
211.9580666443224
 20
125.7142320433636
 30
0.0
 10
212.7645580719765
 20
125.725071605318
 30
0.0
 10
213.5642473238754
 20
125.7672828300401
 30
0.0
 10
214.3161814872065
 20
125.8354135534221
 30
0.0
 10
215.007617904687
 20
125.9217006096152
 30
0.0
 10
215.5892158920836
 20
126.011656988279
 30
0.0
 10
216.0587642050546
 20
126.0953249034843
 30
0.0
 10
216.3733042417983
 20
126.1568739517577
 30
0.0
 10
216.5570641379405
 20
126.1947587069834
 30
0.0
 10
216.5724061606102
 20
126.1979969544925
 30
0.0
 10
216.5797683972364
 20
126.1995509050327
 30
0.0
  0
LINE
  5
A9
330
1F
100
AcDbEntity
  8
0
  6
Continuous
 62
     7
370
    15
100
AcDbLine
 10
164.8860305557
 20
97.9481506876
 30
0.0
 11
164.8860305557
 21
95.1110357202
 31
0.0
  0
SPLINE
  5
AA
330
1F
100
AcDbEntity
  8
0
  6
Continuous
 62
     7
370
    15
100
AcDbSpline
210
0.0
220
0.0
230
1.0
 70
     8
 71
     3
 72
    16
 73
    12
 74
     0
 42
0.00000001
 43
0.00000001
 12
1.0
 22
0.0
 32
0.0
 13
1.0
 23
0.0
 33
0.0
 40
0.0
 40
0.0
 40
0.0
 40
0.0
 40
0.4999999999999982
 40
0.4999999999999982
 40
0.7499999999999998
 40
0.7499999999999998
 40
0.8750000000000007
 40
0.8750000000000007
 40
0.9375000000000003
 40
0.9375000000000003
 40
1.0
 40
1.0
 40
1.0
 40
1.0
 10
164.8860305506234
 20
97.94815075831913
 30
0.0
 10
164.8860305506234
 20
98.02501952445294
 30
0.0
 10
164.8821471254645
 20
98.10461714961887
 30
0.0
 10
164.8573318001898
 20
98.23136277337022
 30
0.0
 10
164.8464923524773
 20
98.27541162727337
 30
0.0
 10
164.8132765704285
 20
98.34260435499957
 30
0.0
 10
164.7998948267997
 20
98.36583556183794
 30
0.0
 10
164.7643851769375
 20
98.3946977519977
 30
0.0
 10
164.7489682104367
 20
98.40271739930559
 30
0.0
 10
164.7172671882881
 20
98.40728141726667
 30
0.0
 10
164.7031209033373
 20
98.40430263551583
 30
0.0
 10
164.6910536617477
 20
98.39952954854218
 30
0.0
  0
SPLINE
  5
AB
330
1F
100
AcDbEntity
  8
0
  6
Continuous
 62
     7
370
    15
100
AcDbSpline
210
0.0
220
0.0
230
1.0
 70
     8
 71
     3
 72
    18
 73
    14
 74
     0
 42
0.00000001
 43
0.00000001
 12
1.0
 22
0.0
 32
0.0
 13
1.0
 23
0.0
 33
0.0
 40
0.0
 40
0.0
 40
0.0
 40
0.0
 40
0.1250000000000004
 40
0.1250000000000004
 40
0.2500000000000007
 40
0.2500000000000007
 40
0.3750000000000011
 40
0.3750000000000011
 40
0.5000000000000014
 40
0.5000000000000014
 40
0.7500000000000007
 40
0.7500000000000007
 40
1.0
 40
1.0
 40
1.0
 40
1.0
 10
164.6910536617538
 20
98.3995295485381
 30
0.0
 10
164.6423481696117
 20
98.38026453686453
 30
0.0
 10
164.5838380612848
 20
98.36523532966781
 30
0.0
 10
164.4521089429928
 20
98.36223810273883
 30
0.0
 10
164.3873500066522
 20
98.37561902312534
 30
0.0
 10
164.2821390337926
 20
98.41371744569098
 30
0.0
 10
164.2389226583527
 20
98.43771049672847
 30
0.0
 10
164.1627441532407
 20
98.48812410390703
 30
0.0
 10
164.1298891918608
 20
98.51475244896223
 30
0.0
 10
164.0395209120271
 20
98.59727062578936
 30
0.0
 10
163.990097677657
 20
98.65597485977898
 30
0.0
 10
163.9024492226088
 20
98.77645615530855
 30
0.0
 10
163.864390050406
 20
98.83849956388713
 30
0.0
 10
163.8299462330604
 20
98.90211805488843
 30
0.0
  0
SPLINE
  5
AC
330
1F
100
AcDbEntity
  8
0
  6
Continuous
 62
     7
370
    15
100
AcDbSpline
210
0.0
220
0.0
230
1.0
 70
     8
 71
     3
 72
     8
 73
     4
 74
     0
 42
0.00000001
 43
0.00000001
 12
1.0
 22
0.0
 32
0.0
 13
1.0
 23
0.0
 33
0.0
 40
0.0
 40
0.0
 40
0.0
 40
0.0
 40
1.0
 40
1.0
 40
1.0
 40
1.0
 10
163.8299462330598
 20
98.90211805488731
 30
0.0
 10
163.8056325291697
 20
98.94702600270928
 30
0.0
 10
163.7841358872136
 20
98.99347841162607
 30
0.0
 10
163.7647102070637
 20
99.04144892656242
 30
0.0
  0
SPLINE
  5
AD
330
1F
100
AcDbEntity
  8
0
  6
Continuous
 62
     7
370
    15
100
AcDbSpline
210
0.0
220
0.0
230
1.0
 70
     8
 71
     3
 72
     8
 73
     4
 74
     0
 42
0.00000001
 43
0.00000001
 12
1.0
 22
0.0
 32
0.0
 13
1.0
 23
0.0
 33
0.0
 40
0.0
 40
0.0
 40
0.0
 40
0.0
 40
1.0
 40
1.0
 40
1.0
 40
1.0
 10
163.7647102070637
 20
105.5739559533492
 30
0.0
 10
163.784135633957
 20
105.6638383981213
 30
0.0
 10
163.8056321879261
 20
105.7532508415839
 30
0.0
 10
163.8299462330604
 20
105.8420099685983
 30
0.0
  0
SPLINE
  5
AE
330
1F
100
AcDbEntity
  8
0
  6
Continuous
 62
     7
370
    15
100
AcDbSpline
210
0.0
220
0.0
230
1.0
 70
     8
 71
     3
 72
    18
 73
    14
 74
     0
 42
0.00000001
 43
0.00000001
 12
1.0
 22
0.0
 32
0.0
 13
1.0
 23
0.0
 33
0.0
 40
0.0
 40
0.0
 40
0.0
 40
0.0
 40
0.25
 40
0.25
 40
0.5
 40
0.5
 40
0.625
 40
0.625
 40
0.75
 40
0.75
 40
0.875
 40
0.875
 40
1.0
 40
1.0
 40
1.0
 40
1.0
 10
163.8299462330594
 20
105.8420099685988
 30
0.0
 10
163.8642430525112
 20
105.9672115028187
 30
0.0
 10
163.9020543324883
 20
106.0909073337492
 30
0.0
 10
163.9886266996683
 20
106.3336281649372
 30
0.0
 10
164.0369658297513
 20
106.4528318988036
 30
0.0
 10
164.1262381870737
 20
106.6245134279757
 30
0.0
 10
164.1587796528496
 20
106.6805574737443
 30
0.0
 10
164.2349558527031
 20
106.7879390418313
 30
0.0
 10
164.2781719126976
 20
106.8393258986979
 30
0.0
 10
164.3838612146636
 20
106.9203788459222
 30
0.0
 10
164.4488322733781
 20
106.9482690073745
 30
0.0
 10
164.582492661736
 20
106.936511704302
 30
0.0
 10
164.6417991150722
 20
106.9000581738109
 30
0.0
 10
164.6910536617481
 20
106.8549160849779
 30
0.0
  0
SPLINE
  5
AF
330
1F
100
AcDbEntity
  8
0
  6
Continuous
 62
     7
370
    15
100
AcDbSpline
210
0.0
220
0.0
230
1.0
 70
     8
 71
     3
 72
    16
 73
    12
 74
     0
 42
0.00000001
 43
0.00000001
 12
1.0
 22
0.0
 32
0.0
 13
1.0
 23
0.0
 33
0.0
 40
0.0
 40
0.0
 40
0.0
 40
0.0
 40
0.0624999999999988
 40
0.0624999999999988
 40
0.1249999999999977
 40
0.1249999999999977
 40
0.2499999999999968
 40
0.2499999999999968
 40
0.4999999999999969
 40
0.4999999999999969
 40
1.0
 40
1.0
 40
1.0
 40
1.0
 10
164.6910536617173
 20
106.854916084933
 30
0.0
 10
164.7031234949932
 20
106.8438540099971
 30
0.0
 10
164.7173991499265
 20
106.8346143533559
 30
0.0
 10
164.7488635620509
 20
106.8300662954939
 30
0.0
 10
164.7643640868613
 20
106.8361200783238
 30
0.0
 10
164.7998029834682
 20
106.8652093827281
 30
0.0
 10
164.8133955995716
 20
106.8947787564474
 30
0.0
 10
164.8463899179644
 20
106.9818220004658
 30
0.0
 10
164.8571773112832
 20
107.0437706426673
 30
0.0
 10
164.8822305585623
 20
107.2313772097801
 30
0.0
 10
164.8860305506235
 20
107.3573847327525
 30
0.0
 10
164.8860305506236
 20
107.4838608129632
 30
0.0
  0
LINE
  5
B0
330
1F
100
AcDbEntity
  8
0
  6
Continuous
 62
     7
370
    15
100
AcDbLine
 10
164.8860305557
 20
122.1705553837
 30
0.0
 11
164.8860305557
 21
107.4838607821
 31
0.0
  0
LINE
  5
B1
330
1F
100
AcDbEntity
  8
0
  6
Continuous
 62
     7
370
    15
100
AcDbLine
 10
164.8860305557
 20
122.1705553837
 30
0.0
 11
164.8706878166
 21
122.2350736863
 31
0.0
  0
SPLINE
  5
B2
330
1F
100
AcDbEntity
  8
0
  6
Continuous
 62
     7
370
    15
100
AcDbSpline
210
0.0
220
0.0
230
1.0
 70
     8
 71
     3
 72
    15
 73
    11
 74
     0
 42
0.00000001
 43
0.00000001
 12
1.0
 22
0.0
 32
0.0
 13
1.0
 23
0.0
 33
0.0
 40
0.0
 40
0.0
 40
0.0
 40
0.0
 40
0.0264812312460172
 40
0.3002678549877983
 40
0.5758736426353436
 40
0.6834205106373289
 40
0.7547390074072328
 40
0.8265579010130125
 40
0.8901017641209379
 40
1.0
 40
1.0
 40
1.0
 40
1.0
 10
164.8462903229251
 20
122.3376691124874
 30
0.0
 10
164.846111282377
 20
122.3385199389712
 30
0.0
 10
164.8440811607098
 20
122.3481673696702
 30
0.0
 10
164.8249043910627
 20
122.3584705680366
 30
0.0
 10
164.8015717390516
 20
122.3704867161105
 30
0.0
 10
164.7726399012567
 20
122.3721461422329
 30
0.0
 10
164.7523125146676
 20
122.3700414815424
 30
0.0
 10
164.7334010665774
 20
122.3656353087705
 30
0.0
 10
164.7116751347428
 20
122.3582243649443
 30
0.0
 10
164.699052033386
 20
122.3520399688634
 30
0.0
 10
164.6910536490345
 20
122.3481213457423
 30
0.0
  0
SPLINE
  5
B3
330
1F
100
AcDbEntity
  8
0
  6
Continuous
 62
     7
370
    15
100
AcDbSpline
210
0.0
220
0.0
230
1.0
 70
     8
 71
     3
 72
    18
 73
    14
 74
     0
 42
0.00000001
 43
0.00000001
 12
1.0
 22
0.0
 32
0.0
 13
1.0
 23
0.0
 33
0.0
 40
0.0
 40
0.0
 40
0.0
 40
0.0
 40
0.1249999999999997
 40
0.1249999999999997
 40
0.2499999999999993
 40
0.2499999999999993
 40
0.374999999999999
 40
0.374999999999999
 40
0.4999999999999987
 40
0.4999999999999987
 40
0.7499999999999993
 40
0.7499999999999993
 40
1.0
 40
1.0
 40
1.0
 40
1.0
 10
164.6910536617538
 20
122.3481214527061
 30
0.0
 10
164.6423490780658
 20
122.3227480606071
 30
0.0
 10
164.5838405952904
 20
122.3016563434467
 30
0.0
 10
164.4521137800205
 20
122.2916555479176
 30
0.0
 10
164.387355708523
 20
122.3048423008816
 30
0.0
 10
164.2821451063723
 20
122.3455932027779
 30
0.0
 10
164.2389289578521
 20
122.3721059676336
 30
0.0
 10
164.1627506417683
 20
122.4275850643074
 30
0.0
 10
164.129895809477
 20
122.4568287579376
 30
0.0
 10
164.039527903516
 20
122.5465191463392
 30
0.0
 10
163.9901052456765
 20
122.6090978282176
 30
0.0
 10
163.9024541200849
 20
122.7338264466984
 30
0.0
 10
163.8643925726943
 20
122.7963148504863
 30
0.0
 10
163.8299462330604
 20
122.8584390627442
 30
0.0
  0
SPLINE
  5
B4
330
1F
100
AcDbEntity
  8
0
  6
Continuous
 62
     7
370
    15
100
AcDbSpline
210
0.0
220
0.0
230
1.0
 70
     8
 71
     3
 72
     8
 73
     4
 74
     0
 42
0.00000001
 43
0.00000001
 12
1.0
 22
0.0
 32
0.0
 13
1.0
 23
0.0
 33
0.0
 40
0.0
 40
0.0
 40
0.0
 40
0.0
 40
1.0
 40
1.0
 40
1.0
 40
1.0
 10
163.7647102070637
 20
122.9871622063193
 30
0.0
 10
163.7841364123626
 20
122.945247971584
 30
0.0
 10
163.8056332367911
 20
122.9022877200157
 30
0.0
 10
163.8299462330604
 20
122.8584390627442
 30
0.0
  0
SPLINE
  5
B5
330
1F
100
AcDbEntity
  8
0
  6
Continuous
 62
     7
370
    15
100
AcDbSpline
210
0.0
220
0.0
230
1.0
 70
     8
 71
     3
 72
    24
 73
    20
 74
     0
 42
0.00000001
 43
0.00000001
 12
1.0
 22
0.0
 32
0.0
 13
1.0
 23
0.0
 33
0.0
 40
0.0
 40
0.0
 40
0.0
 40
0.0
 40
0.2499999999999937
 40
0.2499999999999937
 40
0.3749999999999888
 40
0.3749999999999888
 40
0.4374999999999863
 40
0.4374999999999863
 40
0.4999999999999839
 40
0.4999999999999839
 40
0.5312499999999851
 40
0.5312499999999851
 40
0.5624999999999863
 40
0.5624999999999863
 40
0.6249999999999873
 40
0.6249999999999873
 40
0.7499999999999893
 40
0.7499999999999893
 40
1.0
 40
1.0
 40
1.0
 40
1.0
 10
163.5909905726838
 20
99.56743428386307
 30
0.0
 10
163.5752216953264
 20
99.62649996645091
 30
0.0
 10
163.5586077134764
 20
99.68549147521458
 30
0.0
 10
163.5300760474713
 20
99.77160016889562
 30
0.0
 10
163.5199886326526
 20
99.79997658344962
 30
0.0
 10
163.5025010721983
 20
99.84037475096153
 30
0.0
 10
163.496291510415
 20
99.85349454769934
 30
0.0
 10
163.4820139567624
 20
99.87778748894341
 30
0.0
 10
163.474442408967
 20
99.88992988512211
 30
0.0
 10
163.4570248252887
 20
99.89894923581527
 30
0.0
 10
163.4485423286436
 20
99.89977431675678
 30
0.0
 10
163.4325040167718
 20
99.88338191845847
 30
0.0
 10
163.4276834685683
 20
99.8714878978525
 30
0.0
 10
163.4162742440204
 20
99.83942704025515
 30
0.0
 10
163.4122537635628
 20
99.81913459202357
 30
0.0
 10
163.4014999087425
 20
99.7587252536185
 30
0.0
 10
163.3976272274604
 20
99.72030511750147
 30
0.0
 10
163.3884590776227
 20
99.60689863656077
 30
0.0
 10
163.3864305722537
 20
99.53390113478753
 30
0.0
 10
163.3860305506234
 20
99.46301503237743
 30
0.0
  0
SPLINE
  5
B6
330
1F
100
AcDbEntity
  8
0
  6
Continuous
 62
     7
370
    15
100
AcDbSpline
210
0.0
220
0.0
230
1.0
 70
     8
 71
     3
 72
    16
 73
    12
 74
     0
 42
0.00000001
 43
0.00000001
 12
1.0
 22
0.0
 32
0.0
 13
1.0
 23
0.0
 33
0.0
 40
0.0
 40
0.0
 40
0.0
 40
0.0
 40
0.2499999999999997
 40
0.2499999999999997
 40
0.3749999999999999
 40
0.3749999999999999
 40
0.5000000000000001
 40
0.5000000000000001
 40
0.75
 40
0.75
 40
1.0
 40
1.0
 40
1.0
 40
1.0
 10
163.3860305506232
 20
99.46301503237731
 30
0.0
 10
163.3054932187241
 20
99.78006378975137
 30
0.0
 10
163.2454558746969
 20
100.128915810699
 30
0.0
 10
163.1847181675432
 20
100.6992593761032
 30
0.0
 10
163.1693957924303
 20
100.897265201321
 30
0.0
 10
163.148812983126
 20
101.3095462329214
 30
0.0
 10
163.1436133861003
 20
101.5244064389727
 30
0.0
 10
163.14355973292
 20
102.1793041900899
 30
0.0
 10
163.1637572763975
 20
102.6339302164152
 30
0.0
 10
163.2444353647548
 20
103.57862480507
 30
0.0
 10
163.3054815293619
 20
104.0704939557779
 30
0.0
 10
163.3860305506196
 20
104.5659803435232
 30
0.0
  0
SPLINE
  5
B7
330
1F
100
AcDbEntity
  8
0
  6
Continuous
 62
     7
370
    15
100
AcDbSpline
210
0.0
220
0.0
230
1.0
 70
     8
 71
     3
 72
    24
 73
    20
 74
     0
 42
0.00000001
 43
0.00000001
 12
1.0
 22
0.0
 32
0.0
 13
1.0
 23
0.0
 33
0.0
 40
0.0
 40
0.0
 40
0.0
 40
0.0
 40
0.2500000000000014
 40
0.2500000000000014
 40
0.3750000000000031
 40
0.3750000000000031
 40
0.4375000000000028
 40
0.4375000000000028
 40
0.4687500000000035
 40
0.4687500000000035
 40
0.5000000000000041
 40
0.5000000000000041
 40
0.5625000000000034
 40
0.5625000000000034
 40
0.6250000000000028
 40
0.6250000000000028
 40
0.7500000000000018
 40
0.7500000000000018
 40
1.0
 40
1.0
 40
1.0
 40
1.0
 10
163.3860305506234
 20
104.5659803435238
 30
0.0
 10
163.3864334612592
 20
104.4758805664512
 30
0.0
 10
163.3884774405998
 20
104.3866071666378
 30
0.0
 10
163.3977146834259
 20
104.2562695418195
 30
0.0
 10
163.4016017464064
 20
104.2132863728133
 30
0.0
 10
163.412505637813
 20
104.1512781910932
 30
0.0
 10
163.4166476835635
 20
104.1305162051212
 30
0.0
 10
163.4285427573163
 20
104.1045395565191
 30
0.0
 10
163.4337898216251
 20
104.0954989058319
 30
0.0
 10
163.4506568880042
 20
104.0964411572802
 30
0.0
 10
163.4584792955293
 20
104.1077151612765
 30
0.0
 10
163.4754280961509
 20
104.1389176288309
 30
0.0
 10
163.4828844473689
 20
104.1620428680935
 30
0.0
 10
163.4969443505613
 20
104.2076375733246
 30
0.0
 10
163.5030767356972
 20
104.2305811843546
 30
0.0
 10
163.5203714982204
 20
104.2996005957003
 30
0.0
 10
163.5303888166294
 20
104.3458923073764
 30
0.0
 10
163.5587601508722
 20
104.4849465397424
 30
0.0
 10
163.5752955885166
 20
104.5778478414986
 30
0.0
 10
163.5909905726811
 20
104.6709060610363
 30
0.0
  0
SPLINE
  5
B8
330
1F
100
AcDbEntity
  8
0
  6
Continuous
 62
     7
370
    15
100
AcDbSpline
210
0.0
220
0.0
230
1.0
 70
     8
 71
     3
 72
     8
 73
     4
 74
     0
 42
0.00000001
 43
0.00000001
 12
1.0
 22
0.0
 32
0.0
 13
1.0
 23
0.0
 33
0.0
 40
0.0
 40
0.0
 40
0.0
 40
0.0
 40
1.0
 40
1.0
 40
1.0
 40
1.0
 10
163.5909905726811
 20
104.6709060610363
 30
0.0
 10
163.6417177158877
 20
104.9716758853079
 30
0.0
 10
163.6996050454486
 20
105.272711037323
 30
0.0
 10
163.7647102070638
 20
105.5739559533492
 30
0.0
  0
SPLINE
  5
B9
330
1F
100
AcDbEntity
  8
0
  6
Continuous
 62
     7
370
    15
100
AcDbSpline
210
0.0
220
0.0
230
1.0
 70
     8
 71
     3
 72
     8
 73
     4
 74
     0
 42
0.00000001
 43
0.00000001
 12
1.0
 22
0.0
 32
0.0
 13
1.0
 23
0.0
 33
0.0
 40
0.0
 40
0.0
 40
0.0
 40
0.0
 40
1.0
 40
1.0
 40
1.0
 40
1.0
 10
163.7647102070638
 20
99.04144892656248
 30
0.0
 10
163.6996050454497
 20
99.20222209401578
 30
0.0
 10
163.6417177158898
 20
99.377424984451
 30
0.0
 10
163.5909905726837
 20
99.56743428386301
 30
0.0
  0
LINE
  5
BA
330
1F
100
AcDbEntity
  8
0
  6
Continuous
 62
     7
370
    15
100
AcDbLine
 10
163.3860305281
 20
98.7385166592
 30
0.0
 11
163.3860305281
 21
99.4630148418
 31
0.0
  0
LINE
  5
BB
330
1F
100
AcDbEntity
  8
0
  6
Continuous
 62
     7
370
    15
100
AcDbLine
 10
142.5860296566
 20
99.1910742379
 30
0.0
 11
142.5860296566
 21
105.8420098636
 31
0.0
  0
LINE
  5
BC
330
1F
100
AcDbEntity
  8
0
  6
Continuous
 62
     7
370
    15
100
AcDbLine
 10
163.3860305281
 20
104.5659803569
 30
0.0
 11
163.3860305281
 21
105.8420098636
 31
0.0
  0
LINE
  5
BD
330
1F
100
AcDbEntity
  8
0
  6
Continuous
 62
     7
370
    15
100
AcDbLine
 10
142.5860296566
 20
105.8420098636
 30
0.0
 11
142.5860296566
 21
122.5694827519
 31
0.0
  0
LINE
  5
BE
330
1F
100
AcDbEntity
  8
0
  6
Continuous
 62
     7
370
    15
100
AcDbLine
 10
163.3860305281
 20
105.8420098636
 30
0.0
 11
163.3860305281
 21
123.0220403306
 31
0.0
  0
LINE
  5
BF
330
1F
100
AcDbEntity
  8
0
  6
Continuous
 62
     7
370
    15
100
AcDbLine
 10
141.086030342
 20
105.8420098636
 30
0.0
 11
141.086030342
 21
121.8194830946
 31
0.0
  0
LINE
  5
C0
330
1F
100
AcDbEntity
  8
0
  6
Continuous
 62
     7
370
    15
100
AcDbLine
 10
141.086030342
 20
99.9410738952
 30
0.0
 11
141.086030342
 21
105.8420098636
 31
0.0
  0
SPLINE
  5
C1
330
1F
100
AcDbEntity
  8
0
  6
Continuous
 62
     7
370
    15
100
AcDbSpline
210
0.0
220
0.0
230
1.0
 70
     8
 71
     3
 72
     8
 73
     4
 74
     0
 42
0.00000001
 43
0.00000001
 12
1.0
 22
0.0
 32
0.0
 13
1.0
 23
0.0
 33
0.0
 40
0.0000137051794235
 40
0.0000137051794235
 40
0.0000137051794235
 40
0.0000137051794235
 40
0.0027147144718019
 40
0.0027147144718019
 40
0.0027147144718019
 40
0.0027147144718019
 10
142.5860305506234
 20
96.77306137782504
 30
0.0
 10
143.4860266861182
 20
96.75198098049438
 30
0.0
 10
144.3860268647136
 20
96.73086347233617
 30
0.0
 10
145.2860305506234
 20
96.7097088649904
 30
0.0
  0
LINE
  5
C2
330
1F
100
AcDbEntity
  8
0
  6
Continuous
 62
     7
370
    15
100
AcDbLine
 10
142.5860296566
 20
96.7730609484
 30
0.0
 11
142.5860296566
 21
99.1910742379
 31
0.0
  0
LINE
  5
C3
330
1F
100
AcDbEntity
  8
0
  6
Continuous
 62
     7
370
    15
100
AcDbLine
 10
163.3860305281
 20
96.0807567246
 30
0.0
 11
163.3860305281
 21
98.7385166592
 31
0.0
  0
SPLINE
  5
C4
330
1F
100
AcDbEntity
  8
0
  6
Continuous
 62
     7
370
    15
100
AcDbSpline
210
0.0
220
0.0
230
1.0
 70
     8
 71
     3
 72
    11
 73
     7
 74
     0
 42
0.00000001
 43
0.00000001
 12
1.0
 22
0.0
 32
0.0
 13
1.0
 23
0.0
 33
0.0
 40
0.0
 40
0.0
 40
0.0
 40
0.0
 40
0.3779413357426488
 40
0.6914365808362677
 40
0.8742843740764292
 40
0.9999999999999999
 40
0.9999999999999999
 40
0.9999999999999999
 40
0.9999999999999999
 10
145.2860306579118
 20
96.70970866154009
 30
0.0
 10
145.5568384373652
 20
96.66726483556019
 30
0.0
 10
146.0522761875683
 20
96.58961465248223
 30
0.0
 10
146.6176659669607
 20
96.52689983775569
 30
0.0
 10
146.9464731283464
 20
96.49658603070526
 30
0.0
 10
146.9773804994644
 20
96.49400444228343
 30
0.0
 10
146.9899728524928
 20
96.49295264552408
 30
0.0
  0
SPLINE
  5
C5
330
1F
100
AcDbEntity
  8
0
  6
Continuous
 62
     7
370
    15
100
AcDbSpline
210
0.0
220
0.0
230
1.0
 70
     8
 71
     3
 72
    17
 73
    13
 74
     0
 42
0.00000001
 43
0.00000001
 12
1.0
 22
0.0
 32
0.0
 13
1.0
 23
0.0
 33
0.0
 40
0.0
 40
0.0
 40
0.0
 40
0.0
 40
0.0814809770434551
 40
0.1781293279723923
 40
0.2787677196394178
 40
0.3860923626754568
 40
0.4994333525167331
 40
0.6156643710248497
 40
0.7313553393344966
 40
0.8434793977373949
 40
0.9495134613710577
 40
1.0
 40
1.0
 40
1.0
 40
1.0
 10
156.2676109004264
 20
96.26173412124687
 30
0.0
 10
156.2569046778546
 20
96.26331035611521
 30
0.0
 10
156.2334993101109
 20
96.26675623597593
 30
0.0
 10
155.8861172219992
 20
96.31435136204661
 30
0.0
 10
155.3211446486025
 20
96.37999698620905
 30
0.0
 10
154.5520071591469
 20
96.44648977457005
 30
0.0
 10
153.6517125957721
 20
96.48904660073318
 30
0.0
 10
152.7270368645068
 20
96.49259685447137
 30
0.0
 10
151.9038588870092
 20
96.46097475528802
 30
0.0
 10
151.3205688793557
 20
96.41940927244256
 30
0.0
 10
151.0267284421278
 20
96.39227790541852
 30
0.0
 10
151.0465411522649
 20
96.39410785431704
 30
0.0
 10
151.0529318455105
 20
96.39469811390215
 30
0.0
  0
SPLINE
  5
C6
330
1F
100
AcDbEntity
  8
0
  6
Continuous
 62
     7
370
    15
100
AcDbSpline
210
0.0
220
0.0
230
1.0
 70
     8
 71
     3
 72
    10
 73
     6
 74
     0
 42
0.00000001
 43
0.00000001
 12
1.0
 22
0.0
 32
0.0
 13
1.0
 23
0.0
 33
0.0
 40
0.0
 40
0.0
 40
0.0
 40
0.0
 40
0.5
 40
0.5
 40
1.0
 40
1.0
 40
1.0
 40
1.0
 10
141.0860305506234
 20
97.56236132609938
 30
0.0
 10
141.3231725113392
 20
97.44043882220693
 30
0.0
 10
141.5685152701024
 20
97.31293262574533
 30
0.0
 10
142.0697788588352
 20
97.04930390769579
 30
0.0
 10
142.3258134280854
 20
96.91312765394129
 30
0.0
 10
142.5860305506234
 20
96.77306137782504
 30
0.0
  0
LINE
  5
C7
330
1F
100
AcDbEntity
  8
0
  6
Continuous
 62
     7
370
    15
100
AcDbLine
 10
141.086030342
 20
97.562361487
 30
0.0
 11
141.086030342
 21
99.9410738952
 31
0.0
  0
SPLINE
  5
C8
330
1F
100
AcDbEntity
  8
0
  6
Continuous
 62
     7
370
    15
100
AcDbSpline
210
0.0
220
0.0
230
1.0
 70
     8
 71
     3
 72
    24
 73
    20
 74
     0
 42
0.00000001
 43
0.00000001
 12
1.0
 22
0.0
 32
0.0
 13
1.0
 23
0.0
 33
0.0
 40
0.0
 40
0.0
 40
0.0
 40
0.0
 40
0.2500000000000056
 40
0.2500000000000056
 40
0.3750000000000083
 40
0.3750000000000083
 40
0.4375000000000097
 40
0.4375000000000097
 40
0.4687500000000104
 40
0.4687500000000104
 40
0.5000000000000112
 40
0.5000000000000112
 40
0.5625000000000098
 40
0.5625000000000098
 40
0.6250000000000084
 40
0.6250000000000084
 40
0.7500000000000066
 40
0.7500000000000066
 40
1.0
 40
1.0
 40
1.0
 40
1.0
 10
163.3860305506151
 20
123.5735717103157
 30
0.0
 10
163.386433579989
 20
123.5922789483241
 30
0.0
 10
163.3884633197041
 20
123.6084798531205
 30
0.0
 10
163.397772031124
 20
123.6251812059039
 30
0.0
 10
163.4016980242385
 20
123.6296726286466
 30
0.0
 10
163.4126273841545
 20
123.6309226707864
 30
0.0
 10
163.4167490122489
 20
123.6308371344877
 30
0.0
 10
163.4286435334313
 20
123.6244616031797
 30
0.0
 10
163.4339303453851
 20
123.6211496896727
 30
0.0
 10
163.4504982769
 20
123.6056757034069
 30
0.0
 10
163.4584249856673
 20
123.5963654341784
 30
0.0
 10
163.4754173238925
 20
123.5750994010551
 30
0.0
 10
163.4828150246834
 20
123.5641369416488
 30
0.0
 10
163.4969174150253
 20
123.5427935272746
 30
0.0
 10
163.5030705723175
 20
123.5328736807132
 30
0.0
 10
163.5203843057786
 20
123.504019015286
 30
0.0
 10
163.5303893466672
 20
123.4859726825358
 30
0.0
 10
163.5587458028979
 20
123.432707681724
 30
0.0
 10
163.5752943422441
 20
123.3984987821179
 30
0.0
 10
163.5909905726841
 20
123.364226741315
 30
0.0
  0
LINE
  5
C9
330
1F
100
AcDbEntity
  8
0
  6
Continuous
 62
     7
370
    15
100
AcDbLine
 10
163.3860305281
 20
123.5735714219
 30
0.0
 11
163.3860305281
 21
123.0220403306
 31
0.0
  0
SPLINE
  5
CA
330
1F
100
AcDbEntity
  8
0
  6
Continuous
 62
     7
370
    15
100
AcDbSpline
210
0.0
220
0.0
230
1.0
 70
     8
 71
     3
 72
    10
 73
     6
 74
     0
 42
0.00000001
 43
0.00000001
 12
1.0
 22
0.0
 32
0.0
 13
1.0
 23
0.0
 33
0.0
 40
0.0
 40
0.0
 40
0.0
 40
0.0
 40
0.2706621155471938
 40
0.7026699026879378
 40
1.0
 40
1.0
 40
1.0
 40
1.0
 10
163.1534862661233
 20
124.0926114625769
 30
0.0
 10
163.1531883453009
 20
124.0932900183656
 30
0.0
 10
163.1524149086681
 20
124.0950516270379
 30
0.0
 10
163.2372342704749
 20
123.9040811109762
 30
0.0
 10
163.3429381101462
 20
123.6692892973619
 30
0.0
 10
163.3860305280854
 20
123.5735714219051
 30
0.0
  0
LINE
  5
CB
330
1F
100
AcDbEntity
  8
0
  6
Continuous
 62
     7
370
    15
100
AcDbLine
 10
142.5860296566
 20
123.5983865119
 30
0.0
 11
142.5860296566
 21
122.5694827519
 31
0.0
  0
SPLINE
  5
CC
330
1F
100
AcDbEntity
  8
0
  6
Continuous
 62
     7
370
    15
100
AcDbSpline
210
0.0
220
0.0
230
1.0
 70
     8
 71
     3
 72
     8
 73
     4
 74
     0
 42
0.00000001
 43
0.00000001
 12
1.0
 22
0.0
 32
0.0
 13
1.0
 23
0.0
 33
0.0
 40
0.0
 40
0.0
 40
0.0
 40
0.0
 40
1.0
 40
1.0
 40
1.0
 40
1.0
 10
163.5909905726841
 20
123.364226741315
 30
0.0
 10
163.6417176554065
 20
123.2534663485239
 30
0.0
 10
163.6996049683936
 20
123.1276341211442
 30
0.0
 10
163.7647102070638
 20
122.9871622063193
 30
0.0
  0
LINE
  5
CD
330
1F
100
AcDbEntity
  8
0
  6
Continuous
 62
     7
370
    15
100
AcDbLine
 10
141.086030342
 20
122.7323608256
 30
0.0
 11
141.086030342
 21
121.8194830946
 31
0.0
  0
SPLINE
  5
CE
330
1F
100
AcDbEntity
  8
0
  6
HIDDEN
 62
     7
370
     0
100
AcDbSpline
210
0.0
220
0.0
230
1.0
 70
     8
 71
     3
 72
    17
 73
    13
 74
     0
 42
0.00000001
 43
0.00000001
 12
1.0
 22
0.0
 32
0.0
 13
1.0
 23
0.0
 33
0.0
 40
0.0
 40
0.0
 40
0.0
 40
0.0
 40
0.1070067351374819
 40
0.2140007054962709
 40
0.3213278464974721
 40
0.4288794986707768
 40
0.5360666014566652
 40
0.6428686862924161
 40
0.749866015441172
 40
0.857333186493305
 40
0.9648140074538438
 40
1.0
 40
1.0
 40
1.0
 40
1.0
 10
175.086030327106
 20
89.20085614244515
 30
0.0
 10
175.1080304812583
 20
89.20311756707866
 30
0.0
 10
175.1520281651757
 20
89.20764014658151
 30
0.0
 10
175.4948679791082
 20
89.23912629520552
 30
0.0
 10
176.0006582207283
 20
89.27429573559677
 30
0.0
 10
176.6338512962521
 20
89.29975713628666
 30
0.0
 10
177.3165359091085
 20
89.30363467856621
 30
0.0
 10
177.9709563521208
 20
89.28464028876907
 30
0.0
 10
178.5304295088887
 20
89.25060562371253
 30
0.0
 10
178.913323505881
 20
89.2181304989424
 30
0.0
 10
179.0962445581471
 20
89.19984621091383
 30
0.0
 10
179.0680756590821
 20
89.20263458614708
 30
0.0
 10
179.0611283484345
 20
89.20332228462273
 30
0.0
  0
SPLINE
  5
CF
330
1F
100
AcDbEntity
  8
0
  6
HIDDEN
 62
     7
370
     0
100
AcDbSpline
210
0.0
220
0.0
230
1.0
 70
     8
 71
     3
 72
    12
 73
     8
 74
     0
 42
0.00000001
 43
0.00000001
 12
1.0
 22
0.0
 32
0.0
 13
1.0
 23
0.0
 33
0.0
 40
0.0
 40
0.0
 40
0.0
 40
0.0
 40
0.2500000000000008
 40
0.2500000000000008
 40
0.5000000000000016
 40
0.5000000000000016
 40
1.0
 40
1.0
 40
1.0
 40
1.0
 10
172.0179325526226
 20
103.3716426997587
 30
0.0
 10
171.9804206665779
 20
103.3716426997587
 30
0.0
 10
171.9451333188732
 20
103.3568378854719
 30
0.0
 10
171.8862034706348
 20
103.3132460123461
 30
0.0
 10
171.8626777441657
 20
103.2857325862601
 30
0.0
 10
171.8024189563976
 20
103.1966008541465
 30
0.0
 10
171.7768241941083
 20
103.1302150035287
 30
0.0
 10
171.7581249314873
 20
103.0626105683513
 30
0.0
  0
LINE
  5
D0
330
1F
100
AcDbEntity
  8
0
  6
HIDDEN
 62
     7
370
     0
100
AcDbLine
 10
174.1541284698
 20
103.3716425083
 30
0.0
 11
172.01793246
 21
103.3716425083
 31
0.0
  0
SPLINE
  5
D1
330
1F
100
AcDbEntity
  8
0
  6
HIDDEN
 62
     7
370
     0
100
AcDbSpline
210
0.0
220
0.0
230
1.0
 70
     8
 71
     3
 72
    12
 73
     8
 74
     0
 42
0.00000001
 43
0.00000001
 12
1.0
 22
0.0
 32
0.0
 13
1.0
 23
0.0
 33
0.0
 40
0.0
 40
0.0
 40
0.0
 40
0.0
 40
0.4999999999999947
 40
0.4999999999999947
 40
0.7499999999999973
 40
0.7499999999999973
 40
1.0
 40
1.0
 40
1.0
 40
1.0
 10
174.4139361697596
 20
103.0626105683513
 30
0.0
 10
174.3952429366291
 20
103.1301932047917
 30
0.0
 10
174.3695876392173
 20
103.1966757742691
 30
0.0
 10
174.3094270165309
 20
103.2856708571667
 30
0.0
 10
174.2853547047766
 20
103.3136727541658
 30
0.0
 10
174.226973184426
 20
103.356749154831
 30
0.0
 10
174.191504356773
 20
103.3716426997587
 30
0.0
 10
174.1541285486242
 20
103.3716426997587
 30
0.0
  0
ELLIPSE
  5
D2
330
1F
100
AcDbEntity
  8
0
  6
HIDDEN
 62
     7
370
     0
100
AcDbEllipse
 10
164.1371013782
 20
109.2008556954
 30
0.0
 11
-9.367417879781726
 21
19.7417491527499
 31
0.0
210
0.0
220
0.0
230
1.0
 40
0.3419987131
 41
3.292664382516902
 42
4.239566697061004
  0
SPLINE
  5
D3
330
1F
100
AcDbEntity
  8
0
  6
HIDDEN
 62
     7
370
     0
100
AcDbSpline
210
0.0
220
0.0
230
1.0
 70
     8
 71
     3
 72
    12
 73
     8
 74
     0
 42
0.00000001
 43
0.00000001
 12
1.0
 22
0.0
 32
0.0
 13
1.0
 23
0.0
 33
0.0
 40
0.0
 40
0.0
 40
0.0
 40
0.0
 40
0.2500000000000001
 40
0.2500000000000001
 40
0.5000000000000002
 40
0.5000000000000002
 40
1.0
 40
1.0
 40
1.0
 40
1.0
 10
174.1541285486242
 20
90.06919931517699
 30
0.0
 10
174.1916404346689
 20
90.06919931517699
 30
0.0
 10
174.2269277823736
 20
90.0737028594395
 30
0.0
 10
174.285857630612
 20
90.0870760588928
 30
0.0
 10
174.3093833570811
 20
90.09556096146395
 30
0.0
 10
174.3696421448492
 20
90.12330876529853
 30
0.0
 10
174.3952369071385
 20
90.14429862903889
 30
0.0
 10
174.4139361697596
 20
90.16609941222842
 30
0.0
  0
LINE
  5
D4
330
1F
100
AcDbEntity
  8
0
  6
HIDDEN
 62
     7
370
     0
100
AcDbLine
 10
172.01793246
 20
90.0691989593
 30
0.0
 11
174.1541284698
 21
90.0691989593
 31
0.0
  0
SPLINE
  5
D5
330
1F
100
AcDbEntity
  8
0
  6
HIDDEN
 62
     7
370
     0
100
AcDbSpline
210
0.0
220
0.0
230
1.0
 70
     8
 71
     3
 72
    12
 73
     8
 74
     0
 42
0.00000001
 43
0.00000001
 12
1.0
 22
0.0
 32
0.0
 13
1.0
 23
0.0
 33
0.0
 40
0.0
 40
0.0
 40
0.0
 40
0.0
 40
0.4999999999999971
 40
0.4999999999999971
 40
0.7499999999999986
 40
0.7499999999999986
 40
1.0
 40
1.0
 40
1.0
 40
1.0
 10
171.7581249314873
 20
90.16609941222842
 30
0.0
 10
171.7768181646177
 20
90.14430565860046
 30
0.0
 10
171.8024734620295
 20
90.12328549689083
 30
0.0
 10
171.8626340847159
 20
90.0955801509271
 30
0.0
 10
171.8867063964703
 20
90.08694493473374
 30
0.0
 10
171.9450879168208
 20
90.07373028950714
 30
0.0
 10
171.9805567444739
 20
90.06919931517699
 30
0.0
 10
172.0179325526226
 20
90.06919931517699
 30
0.0
  0
ELLIPSE
  5
D6
330
1F
100
AcDbEntity
  8
0
  6
HIDDEN
 62
     7
370
     0
100
AcDbEllipse
 10
182.0349597231
 20
109.2008556954
 30
0.0
 11
9.367417879781613
 21
19.74174915274993
 31
0.0
210
0.0
220
0.0
230
1.0
 40
0.3419987131
 41
2.04361861011859
 42
2.990520924662726
  0
SPLINE
  5
D7
330
1F
100
AcDbEntity
  8
0
  6
HIDDEN
 62
     7
370
     0
100
AcDbSpline
210
0.0
220
0.0
230
1.0
 70
     8
 71
     3
 72
    12
 73
     8
 74
     0
 42
0.00000001
 43
0.00000001
 12
1.0
 22
0.0
 32
0.0
 13
1.0
 23
0.0
 33
0.0
 40
0.0
 40
0.0
 40
0.0
 40
0.0
 40
0.2499999999999992
 40
0.2499999999999992
 40
0.4999999999999984
 40
0.4999999999999984
 40
1.0
 40
1.0
 40
1.0
 40
1.0
 10
172.0179325526226
 20
128.3325120756438
 30
0.0
 10
171.9804206665779
 20
128.3325120756438
 30
0.0
 10
171.9451333188732
 20
128.3280085313812
 30
0.0
 10
171.8862034706348
 20
128.3146353319279
 30
0.0
 10
171.8626777441657
 20
128.3061504293568
 30
0.0
 10
171.8024189563976
 20
128.2784026255222
 30
0.0
 10
171.7768241941083
 20
128.2574127617819
 30
0.0
 10
171.7581249314873
 20
128.2356119785923
 30
0.0
  0
LINE
  5
D8
330
1F
100
AcDbEntity
  8
0
  6
HIDDEN
 62
     7
370
     0
100
AcDbLine
 10
174.1541284698
 20
128.3325124315
 30
0.0
 11
172.01793246
 21
128.3325124315
 31
0.0
  0
SPLINE
  5
D9
330
1F
100
AcDbEntity
  8
0
  6
HIDDEN
 62
     7
370
     0
100
AcDbSpline
210
0.0
220
0.0
230
1.0
 70
     8
 71
     3
 72
    12
 73
     8
 74
     0
 42
0.00000001
 43
0.00000001
 12
1.0
 22
0.0
 32
0.0
 13
1.0
 23
0.0
 33
0.0
 40
0.0
 40
0.0
 40
0.0
 40
0.0
 40
0.5000000000000006
 40
0.5000000000000006
 40
0.7500000000000002
 40
0.7500000000000002
 40
1.0
 40
1.0
 40
1.0
 40
1.0
 10
174.4139361697596
 20
128.2356119785923
 30
0.0
 10
174.3952429366291
 20
128.2574057322203
 30
0.0
 10
174.3695876392173
 20
128.2784258939299
 30
0.0
 10
174.3094270165309
 20
128.3061312398936
 30
0.0
 10
174.2853547047766
 20
128.314766456087
 30
0.0
 10
174.226973184426
 20
128.3279811013136
 30
0.0
 10
174.191504356773
 20
128.3325120756438
 30
0.0
 10
174.1541285486242
 20
128.3325120756438
 30
0.0
  0
ELLIPSE
  5
DA
330
1F
100
AcDbEntity
  8
0
  6
HIDDEN
 62
     7
370
     0
100
AcDbEllipse
 10
164.1371013782
 20
109.2008556954
 30
0.0
 11
9.36741787978184
 21
19.74174915274993
 31
0.0
210
0.0
220
0.0
230
1.0
 40
0.3419987131
 41
5.185211263708416
 42
6.132113578252575
  0
SPLINE
  5
DB
330
1F
100
AcDbEntity
  8
0
  6
HIDDEN
 62
     7
370
     0
100
AcDbSpline
210
0.0
220
0.0
230
1.0
 70
     8
 71
     3
 72
    12
 73
     8
 74
     0
 42
0.00000001
 43
0.00000001
 12
1.0
 22
0.0
 32
0.0
 13
1.0
 23
0.0
 33
0.0
 40
0.0
 40
0.0
 40
0.0
 40
0.0
 40
0.2499999999999958
 40
0.2499999999999958
 40
0.4999999999999916
 40
0.4999999999999916
 40
1.0
 40
1.0
 40
1.0
 40
1.0
 10
174.1541285486242
 20
115.0300686910623
 30
0.0
 10
174.1916404346689
 20
115.0300686910623
 30
0.0
 10
174.2269277823736
 20
115.0448735053491
 30
0.0
 10
174.285857630612
 20
115.0884653784749
 30
0.0
 10
174.3093833570811
 20
115.1159788045609
 30
0.0
 10
174.3696421448492
 20
115.2051105366745
 30
0.0
 10
174.3952369071385
 20
115.2714963872923
 30
0.0
 10
174.4139361697596
 20
115.3391008224697
 30
0.0
  0
LINE
  5
DC
330
1F
100
AcDbEntity
  8
0
  6
HIDDEN
 62
     7
370
     0
100
AcDbLine
 10
172.01793246
 20
115.0300688825
 30
0.0
 11
174.1541284698
 21
115.0300688825
 31
0.0
  0
SPLINE
  5
DD
330
1F
100
AcDbEntity
  8
0
  6
HIDDEN
 62
     7
370
     0
100
AcDbSpline
210
0.0
220
0.0
230
1.0
 70
     8
 71
     3
 72
    12
 73
     8
 74
     0
 42
0.00000001
 43
0.00000001
 12
1.0
 22
0.0
 32
0.0
 13
1.0
 23
0.0
 33
0.0
 40
0.0
 40
0.0
 40
0.0
 40
0.0
 40
0.4999999999999956
 40
0.4999999999999956
 40
0.7499999999999978
 40
0.7499999999999978
 40
1.0
 40
1.0
 40
1.0
 40
1.0
 10
171.7581249314873
 20
115.3391008224697
 30
0.0
 10
171.7768181646177
 20
115.2715181860293
 30
0.0
 10
171.8024734620295
 20
115.2050356165519
 30
0.0
 10
171.8626340847159
 20
115.1160405336544
 30
0.0
 10
171.8867063964703
 20
115.0880386366552
 30
0.0
 10
171.9450879168208
 20
115.04496223599
 30
0.0
 10
171.9805567444739
 20
115.0300686910623
 30
0.0
 10
172.0179325526226
 20
115.0300686910623
 30
0.0
  0
ELLIPSE
  5
DE
330
1F
100
AcDbEntity
  8
0
  6
HIDDEN
 62
     7
370
     0
100
AcDbEllipse
 10
182.0349597231
 20
109.2008556954
 30
0.0
 11
-9.367417879781728
 21
19.74174915274996
 31
0.0
210
0.0
220
0.0
230
1.0
 40
0.3419987131
 41
0.15107172892705
 42
1.097974043471186
  0
LINE
  5
DF
330
1F
100
AcDbEntity
  8
0
  6
HIDDEN
 62
     7
370
     0
100
AcDbLine
 10
185.0860301036
 20
89.8008551232
 30
0.0
 11
185.0860301036
 21
128.6008562676
 31
0.0
  0
LINE
  5
E0
330
1F
100
AcDbEntity
  8
0
  6
HIDDEN
 62
     7
370
     0
100
AcDbLine
 10
165.0860305506
 20
128.900855758
 30
0.0
 11
165.0860305506
 21
89.5008556328
 31
0.0
  0
LINE
  5
E1
330
1F
100
AcDbEntity
  8
0
  6
HIDDEN
 62
     7
370
     0
100
AcDbLine
 10
185.0860301036
 20
91.214064487
 30
0.0
 11
185.0860301036
 21
127.1876469038
 31
0.0
  0
LINE
  5
E2
330
1F
100
AcDbEntity
  8
0
  6
HIDDEN
 62
     7
370
     0
100
AcDbLine
 10
230.0860281664
 20
93.2008549355
 30
0.0
 11
230.0860281664
 21
125.2008564554
 31
0.0
  0
SPLINE
  5
E3
330
1F
100
AcDbEntity
  8
0
  6
HIDDEN
 62
     7
370
     0
100
AcDbSpline
210
0.0
220
0.0
230
1.0
 70
     8
 71
     3
 72
    73
 73
    69
 74
     0
 42
0.00000001
 43
0.00000001
 12
1.0
 22
0.0
 32
0.0
 13
1.0
 23
0.0
 33
0.0
 40
-0.0312500000000003
 40
-0.0312500000000003
 40
0.0
 40
0.0
 40
0.0312499999999996
 40
0.0312499999999996
 40
0.0624999999999993
 40
0.0624999999999993
 40
0.0937499999999989
 40
0.0937499999999989
 40
0.1093749999999987
 40
0.1093749999999987
 40
0.1249999999999985
 40
0.1406249999999983
 40
0.1406249999999983
 40
0.1562499999999981
 40
0.1562499999999981
 40
0.1874999999999979
 40
0.1874999999999979
 40
0.2187499999999976
 40
0.2187499999999976
 40
0.2499999999999974
 40
0.2499999999999974
 40
0.2812499999999972
 40
0.2812499999999972
 40
0.3124999999999969
 40
0.3124999999999969
 40
0.3749999999999964
 40
0.3749999999999964
 40
0.4062499999999961
 40
0.4062499999999961
 40
0.4374999999999958
 40
0.4374999999999958
 40
0.4687499999999956
 40
0.4687499999999956
 40
0.4999999999999953
 40
0.4999999999999953
 40
0.5312499999999957
 40
0.5312499999999957
 40
0.5624999999999959
 40
0.5624999999999959
 40
0.5937499999999962
 40
0.5937499999999962
 40
0.6249999999999964
 40
0.6249999999999964
 40
0.6406249999999967
 40
0.6406249999999967
 40
0.6562499999999968
 40
0.6562499999999968
 40
0.6874999999999971
 40
0.6874999999999971
 40
0.7187499999999973
 40
0.7187499999999973
 40
0.7499999999999977
 40
0.7499999999999977
 40
0.781249999999998
 40
0.781249999999998
 40
0.8124999999999982
 40
0.8124999999999982
 40
0.8437499999999986
 40
0.8437499999999986
 40
0.8749999999999988
 40
0.8749999999999988
 40
0.9062499999999991
 40
0.9062499999999991
 40
0.9374999999999994
 40
0.9374999999999994
 40
0.9687499999999997
 40
0.9687499999999997
 40
1.0
 40
1.0
 40
1.03125
 40
1.03125
 10
219.2802430065223
 20
106.0536588077423
 30
0.0
 10
218.8451414025903
 20
106.4070203705019
 30
0.0
 10
218.6473996478472
 20
106.6017853032269
 30
0.0
 10
218.292854686468
 20
107.0292269569987
 30
0.0
 10
218.1351944684118
 20
107.264515204393
 30
0.0
 10
217.8784792613638
 20
107.7556636623233
 30
0.0
 10
217.77735305683
 20
108.0131724948379
 30
0.0
 10
217.6699786911703
 20
108.4190083499972
 30
0.0
 10
217.6416842762676
 20
108.5580976846244
 30
0.0
 10
217.6021372620048
 20
108.8349516248562
 30
0.0
 10
217.5790040299383
 20
109.1123655610608
 30
0.0
 10
217.5883513142563
 20
109.3908886224928
 30
0.0
 10
217.6142876438202
 20
109.6699779540491
 30
0.0
 10
217.6357681484294
 20
109.8103203542685
 30
0.0
 10
217.7234033117558
 20
110.221006252464
 30
0.0
 10
217.8125754953977
 20
110.4846759910741
 30
0.0
 10
218.0498448765956
 20
110.9927521765121
 30
0.0
 10
218.1960474157129
 20
111.2320896962483
 30
0.0
 10
218.5324746827642
 20
111.6739660497
 30
0.0
 10
218.7257415715701
 20
111.8798350612805
 30
0.0
 10
219.1433778795482
 20
112.2465064293419
 30
0.0
 10
219.3682359180272
 20
112.4087580959452
 30
0.0
 10
219.8489280780516
 20
112.6931420292978
 30
0.0
 10
220.1027425938557
 20
112.8135636444177
 30
0.0
 10
220.8833110862449
 20
113.1044195865936
 30
0.0
 10
221.4446693666193
 20
113.2089115733604
 30
0.0
 10
222.2788132471359
 20
113.2231507969184
 30
0.0
 10
222.5587044344627
 20
113.2046885775725
 30
0.0
 10
223.1144324662189
 20
113.1200453678185
 30
0.0
 10
223.3847889548587
 20
113.0549220046317
 30
0.0
 10
223.9108605070705
 20
112.8798481825385
 30
0.0
 10
224.1682483969129
 20
112.7690001721193
 30
0.0
 10
224.6596968650208
 20
112.5023723790368
 30
0.0
 10
224.8898724380006
 20
112.3491059300798
 30
0.0
 10
225.3188645668465
 20
112.0017475695634
 30
0.0
 10
225.5195864422463
 20
111.8053663805572
 30
0.0
 10
225.8762173235724
 20
111.3767510952868
 30
0.0
 10
226.0303963638446
 20
111.1475802342808
 30
0.0
 10
226.2884006846245
 20
110.6578668460848
 30
0.0
 10
226.3930271906696
 20
110.3931282454245
 30
0.0
 10
226.5365638051054
 20
109.8541031532164
 30
0.0
 10
226.5769840941505
 20
109.5791588025
 30
0.0
 10
226.5885426080108
 20
109.1582134736504
 30
0.0
 10
226.5839854678765
 20
109.0160588645378
 30
0.0
 10
226.5584616771636
 20
108.7369529103696
 30
0.0
 10
226.5375803590742
 20
108.5990041033928
 30
0.0
 10
226.4512499493808
 20
108.1898300438567
 30
0.0
 10
226.3605962648446
 20
107.9202044034711
 30
0.0
 10
226.1249128194953
 20
107.4139555178611
 30
0.0
 10
225.980491568473
 20
107.1760607717297
 30
0.0
 10
225.6409573564308
 20
106.7289978436211
 30
0.0
 10
225.4501602319775
 20
106.5257235933325
 30
0.0
 10
225.0331358390966
 20
106.1586483203994
 30
0.0
 10
224.8041153914999
 20
105.9932081810551
 30
0.0
 10
224.3248758382732
 20
105.7095175913984
 30
0.0
 10
224.0740494590428
 20
105.5901198401901
 30
0.0
 10
223.5504979483204
 20
105.3946177450885
 30
0.0
 10
223.2776974329932
 20
105.3191264246025
 30
0.0
 10
222.7301251492522
 20
105.216418405527
 30
0.0
 10
222.4528910102106
 20
105.1881619842817
 30
0.0
 10
221.8914062033782
 20
105.1784812800077
 30
0.0
 10
221.6095435418934
 20
105.1975458805702
 30
0.0
 10
221.0594263971671
 20
105.2814501283834
 30
0.0
 10
220.7888006916741
 20
105.3461876164935
 30
0.0
 10
220.2567678270253
 20
105.5234319970548
 30
0.0
 10
219.9990214534809
 20
105.6351097678029
 30
0.0
 10
219.5119197029123
 20
105.8997832270451
 30
0.0
 10
219.2802430065223
 20
106.0536588077423
 30
0.0
 10
218.8451414025903
 20
106.4070203705019
 30
0.0
  0
SPLINE
  5
E4
330
1F
100
AcDbEntity
  8
0
  6
HIDDEN
 62
     7
370
     0
100
AcDbSpline
210
0.0
220
0.0
230
1.0
 70
     8
 71
     3
 72
    73
 73
    69
 74
     0
 42
0.00000001
 43
0.00000001
 12
1.0
 22
0.0
 32
0.0
 13
1.0
 23
0.0
 33
0.0
 40
-0.0312499999999999
 40
-0.0312499999999999
 40
0.0
 40
0.0
 40
0.0312499999999999
 40
0.0312499999999999
 40
0.0624999999999998
 40
0.0624999999999998
 40
0.0937499999999997
 40
0.0937499999999997
 40
0.1093749999999996
 40
0.1093749999999996
 40
0.1249999999999996
 40
0.1406249999999995
 40
0.1406249999999995
 40
0.1562499999999995
 40
0.1562499999999995
 40
0.1874999999999995
 40
0.1874999999999995
 40
0.2187499999999996
 40
0.2187499999999996
 40
0.2499999999999996
 40
0.2499999999999996
 40
0.2812499999999997
 40
0.2812499999999997
 40
0.3124999999999997
 40
0.3124999999999997
 40
0.3749999999999998
 40
0.3749999999999998
 40
0.4062499999999999
 40
0.4062499999999999
 40
0.4374999999999999
 40
0.4374999999999999
 40
0.4687499999999999
 40
0.4687499999999999
 40
0.4999999999999999
 40
0.4999999999999999
 40
0.5312499999999999
 40
0.5312499999999999
 40
0.5624999999999999
 40
0.5624999999999999
 40
0.5937499999999999
 40
0.5937499999999999
 40
0.6249999999999999
 40
0.6249999999999999
 40
0.640625
 40
0.640625
 40
0.65625
 40
0.65625
 40
0.6875
 40
0.6875
 40
0.71875
 40
0.71875
 40
0.75
 40
0.75
 40
0.7812500000000001
 40
0.7812500000000001
 40
0.8125000000000001
 40
0.8125000000000001
 40
0.8437500000000001
 40
0.8437500000000001
 40
0.8750000000000001
 40
0.8750000000000001
 40
0.9062500000000001
 40
0.9062500000000001
 40
0.9375000000000001
 40
0.9375000000000001
 40
0.9687500000000001
 40
0.9687500000000001
 40
1.0
 40
1.0
 40
1.03125
 40
1.03125
 10
209.2802430065223
 20
106.0536588077423
 30
0.0
 10
208.8451414025903
 20
106.4070203705019
 30
0.0
 10
208.6473996478471
 20
106.6017853032269
 30
0.0
 10
208.292854686468
 20
107.0292269569987
 30
0.0
 10
208.1351944684118
 20
107.264515204393
 30
0.0
 10
207.8784792613638
 20
107.7556636623233
 30
0.0
 10
207.77735305683
 20
108.0131724948379
 30
0.0
 10
207.6699786911702
 20
108.4190083499972
 30
0.0
 10
207.6416842762676
 20
108.5580976846244
 30
0.0
 10
207.6021376949634
 20
108.8349516395516
 30
0.0
 10
207.5790040299383
 20
109.1123655610608
 30
0.0
 10
207.5883513142563
 20
109.3908886224928
 30
0.0
 10
207.6142876438202
 20
109.6699779540491
 30
0.0
 10
207.6357681484294
 20
109.8103203542685
 30
0.0
 10
207.7234033117558
 20
110.221006252464
 30
0.0
 10
207.8125754953977
 20
110.4846759910741
 30
0.0
 10
208.0498448765956
 20
110.9927521765122
 30
0.0
 10
208.1960474157129
 20
111.2320896962483
 30
0.0
 10
208.5324746827642
 20
111.6739660497
 30
0.0
 10
208.7257415715701
 20
111.8798350612805
 30
0.0
 10
209.1433778795482
 20
112.2465064293419
 30
0.0
 10
209.3682359180272
 20
112.4087580959452
 30
0.0
 10
209.8489280780516
 20
112.6931420292978
 30
0.0
 10
210.1027425938557
 20
112.8135636444177
 30
0.0
 10
210.8833110862449
 20
113.1044195865936
 30
0.0
 10
211.4446693666193
 20
113.2089115733604
 30
0.0
 10
212.2788132471359
 20
113.2231507969184
 30
0.0
 10
212.5587044344627
 20
113.2046885775725
 30
0.0
 10
213.1144324662189
 20
113.1200453678185
 30
0.0
 10
213.3847889548587
 20
113.0549220046317
 30
0.0
 10
213.9108605070705
 20
112.8798481825385
 30
0.0
 10
214.168248396913
 20
112.7690001721193
 30
0.0
 10
214.6596968650208
 20
112.5023723790368
 30
0.0
 10
214.8898724380006
 20
112.3491059300798
 30
0.0
 10
215.3188645668464
 20
112.0017475695634
 30
0.0
 10
215.5195864422463
 20
111.8053663805572
 30
0.0
 10
215.8762173235724
 20
111.3767510952868
 30
0.0
 10
216.0303963638446
 20
111.1475802342808
 30
0.0
 10
216.2884006846245
 20
110.6578668460848
 30
0.0
 10
216.3930271906697
 20
110.3931282454245
 30
0.0
 10
216.5365638051054
 20
109.8541031532164
 30
0.0
 10
216.5769840941505
 20
109.5791588024999
 30
0.0
 10
216.5885426080108
 20
109.1582134736504
 30
0.0
 10
216.5839854678765
 20
109.0160588645378
 30
0.0
 10
216.5584616771636
 20
108.7369529103696
 30
0.0
 10
216.5375803590742
 20
108.5990041033928
 30
0.0
 10
216.4512499493808
 20
108.1898300438567
 30
0.0
 10
216.3605962648446
 20
107.9202044034711
 30
0.0
 10
216.1249128194953
 20
107.4139555178611
 30
0.0
 10
215.980491568473
 20
107.1760607717297
 30
0.0
 10
215.6409573564308
 20
106.7289978436211
 30
0.0
 10
215.4501602319775
 20
106.5257235933325
 30
0.0
 10
215.0331358390966
 20
106.1586483203994
 30
0.0
 10
214.8041153914998
 20
105.9932081810551
 30
0.0
 10
214.3248758382731
 20
105.7095175913984
 30
0.0
 10
214.0740494590428
 20
105.5901198401901
 30
0.0
 10
213.5504979483205
 20
105.3946177450885
 30
0.0
 10
213.2776974329932
 20
105.3191264246025
 30
0.0
 10
212.7301251492522
 20
105.216418405527
 30
0.0
 10
212.4528910102106
 20
105.1881619842816
 30
0.0
 10
211.8914062033782
 20
105.1784812800077
 30
0.0
 10
211.6095435418934
 20
105.1975458805702
 30
0.0
 10
211.0594263971671
 20
105.2814501283834
 30
0.0
 10
210.7888006916741
 20
105.3461876164935
 30
0.0
 10
210.2567678270252
 20
105.5234319970548
 30
0.0
 10
209.9990214534809
 20
105.6351097678029
 30
0.0
 10
209.5119197029123
 20
105.8997832270451
 30
0.0
 10
209.2802430065223
 20
106.0536588077423
 30
0.0
 10
208.8451414025903
 20
106.4070203705019
 30
0.0
  0
SPLINE
  5
E5
330
1F
100
AcDbEntity
  8
0
  6
HIDDEN
 62
     7
370
     0
100
AcDbSpline
210
0.0
220
0.0
230
1.0
 70
     8
 71
     3
 72
    73
 73
    69
 74
     0
 42
0.00000001
 43
0.00000001
 12
1.0
 22
0.0
 32
0.0
 13
1.0
 23
0.0
 33
0.0
 40
-0.0312500000000001
 40
-0.0312500000000001
 40
0.0
 40
0.0
 40
0.0312499999999999
 40
0.0312499999999999
 40
0.0624999999999998
 40
0.0624999999999998
 40
0.0937499999999997
 40
0.0937499999999997
 40
0.1093749999999996
 40
0.1093749999999996
 40
0.1249999999999996
 40
0.1406249999999995
 40
0.1406249999999995
 40
0.1562499999999995
 40
0.1562499999999995
 40
0.1874999999999995
 40
0.1874999999999995
 40
0.2187499999999996
 40
0.2187499999999996
 40
0.2499999999999996
 40
0.2499999999999996
 40
0.2812499999999996
 40
0.2812499999999996
 40
0.3124999999999996
 40
0.3124999999999996
 40
0.3749999999999996
 40
0.3749999999999996
 40
0.4062499999999997
 40
0.4062499999999997
 40
0.4374999999999997
 40
0.4374999999999997
 40
0.4687499999999997
 40
0.4687499999999997
 40
0.4999999999999997
 40
0.4999999999999997
 40
0.5312499999999997
 40
0.5312499999999997
 40
0.5624999999999997
 40
0.5624999999999997
 40
0.5937499999999997
 40
0.5937499999999997
 40
0.6249999999999997
 40
0.6249999999999997
 40
0.6406249999999998
 40
0.6406249999999998
 40
0.6562499999999998
 40
0.6562499999999998
 40
0.6874999999999998
 40
0.6874999999999998
 40
0.7187499999999998
 40
0.7187499999999998
 40
0.7499999999999998
 40
0.7499999999999998
 40
0.7812499999999999
 40
0.7812499999999999
 40
0.8124999999999999
 40
0.8124999999999999
 40
0.8437499999999999
 40
0.8437499999999999
 40
0.8749999999999999
 40
0.8749999999999999
 40
0.9062499999999999
 40
0.9062499999999999
 40
0.9374999999999999
 40
0.9374999999999999
 40
0.9687499999999999
 40
0.9687499999999999
 40
1.0
 40
1.0
 40
1.03125
 40
1.03125
 10
199.2802430065223
 20
106.0536588077423
 30
0.0
 10
198.8451414025903
 20
106.4070203705019
 30
0.0
 10
198.6473996478472
 20
106.6017853032269
 30
0.0
 10
198.292854686468
 20
107.0292269569987
 30
0.0
 10
198.1351944684118
 20
107.264515204393
 30
0.0
 10
197.8784792613638
 20
107.7556636623233
 30
0.0
 10
197.77735305683
 20
108.0131724948379
 30
0.0
 10
197.6699786911703
 20
108.4190083499972
 30
0.0
 10
197.6416842762675
 20
108.5580976846244
 30
0.0
 10
197.6021376949635
 20
108.8349516395516
 30
0.0
 10
197.5790040299383
 20
109.1123655610608
 30
0.0
 10
197.5883513142563
 20
109.3908886224928
 30
0.0
 10
197.6142876438202
 20
109.6699779540491
 30
0.0
 10
197.6357681484294
 20
109.8103203542685
 30
0.0
 10
197.7234033117558
 20
110.221006252464
 30
0.0
 10
197.8125754953977
 20
110.4846759910741
 30
0.0
 10
198.0498448765956
 20
110.9927521765121
 30
0.0
 10
198.1960474157129
 20
111.2320896962483
 30
0.0
 10
198.5324746827642
 20
111.6739660497
 30
0.0
 10
198.7257415715701
 20
111.8798350612805
 30
0.0
 10
199.1433778795482
 20
112.2465064293419
 30
0.0
 10
199.3682359180272
 20
112.4087580959452
 30
0.0
 10
199.8489280780516
 20
112.6931420292978
 30
0.0
 10
200.1027425938557
 20
112.8135636444177
 30
0.0
 10
200.8833110862449
 20
113.1044195865936
 30
0.0
 10
201.4446693666194
 20
113.2089115733604
 30
0.0
 10
202.278813247136
 20
113.2231507969184
 30
0.0
 10
202.5587044344628
 20
113.2046885775725
 30
0.0
 10
203.1144324662189
 20
113.1200453678185
 30
0.0
 10
203.3847889548587
 20
113.0549220046317
 30
0.0
 10
203.9108605070705
 20
112.8798481825385
 30
0.0
 10
204.1682483969129
 20
112.7690001721193
 30
0.0
 10
204.6596968650208
 20
112.5023723790368
 30
0.0
 10
204.8898724380006
 20
112.3491059300798
 30
0.0
 10
205.3188645668465
 20
112.0017475695634
 30
0.0
 10
205.5195864422463
 20
111.8053663805572
 30
0.0
 10
205.8762173235724
 20
111.3767510952868
 30
0.0
 10
206.0303963638446
 20
111.1475802342808
 30
0.0
 10
206.2884006846245
 20
110.6578668460848
 30
0.0
 10
206.3930271906696
 20
110.3931282454245
 30
0.0
 10
206.5365638051054
 20
109.8541031532164
 30
0.0
 10
206.5769840941505
 20
109.5791588024999
 30
0.0
 10
206.5885426080108
 20
109.1582134736504
 30
0.0
 10
206.5839854678765
 20
109.0160588645378
 30
0.0
 10
206.5584616771636
 20
108.7369529103696
 30
0.0
 10
206.5375803590742
 20
108.5990041033928
 30
0.0
 10
206.4512499493808
 20
108.1898300438567
 30
0.0
 10
206.3605962648445
 20
107.9202044034711
 30
0.0
 10
206.1249128194953
 20
107.4139555178611
 30
0.0
 10
205.980491568473
 20
107.1760607717297
 30
0.0
 10
205.6409573564308
 20
106.7289978436211
 30
0.0
 10
205.4501602319775
 20
106.5257235933325
 30
0.0
 10
205.0331358390966
 20
106.1586483203994
 30
0.0
 10
204.8041153914998
 20
105.9932081810551
 30
0.0
 10
204.3248758382732
 20
105.7095175913984
 30
0.0
 10
204.0740494590428
 20
105.5901198401901
 30
0.0
 10
203.5504979483204
 20
105.3946177450885
 30
0.0
 10
203.2776974329932
 20
105.3191264246025
 30
0.0
 10
202.7301251492522
 20
105.216418405527
 30
0.0
 10
202.4528910102106
 20
105.1881619842816
 30
0.0
 10
201.8914062033782
 20
105.1784812800077
 30
0.0
 10
201.6095435418934
 20
105.1975458805702
 30
0.0
 10
201.0594263971671
 20
105.2814501283834
 30
0.0
 10
200.7888006916741
 20
105.3461876164935
 30
0.0
 10
200.2567678270252
 20
105.5234319970548
 30
0.0
 10
199.9990214534809
 20
105.6351097678029
 30
0.0
 10
199.5119197029123
 20
105.8997832270451
 30
0.0
 10
199.2802430065223
 20
106.0536588077423
 30
0.0
 10
198.8451414025903
 20
106.4070203705019
 30
0.0
  0
SPLINE
  5
E6
330
1F
100
AcDbEntity
  8
0
  6
HIDDEN
 62
     7
370
     0
100
AcDbSpline
210
0.0
220
0.0
230
1.0
 70
     8
 71
     3
 72
    26
 73
    22
 74
     0
 42
0.00000001
 43
0.00000001
 12
1.0
 22
0.0
 32
0.0
 13
1.0
 23
0.0
 33
0.0
 40
0.0
 40
0.0
 40
0.0
 40
0.0
 40
0.0384806245024029
 40
0.1261342862773693
 40
0.2171011879816797
 40
0.2475874326912331
 40
0.2602380960817466
 40
0.2670516224381856
 40
0.3181777319153027
 40
0.3737072419056822
 40
0.4306562671725556
 40
0.4897603243515703
 40
0.5505198415527547
 40
0.6106144039301102
 40
0.6724863327475724
 40
0.7318465296389393
 40
0.7931507449326016
 40
0.8486840920683446
 40
0.9062926557254174
 40
0.9550322889620362
 40
1.0
 40
1.0
 40
1.0
 40
1.0
 10
197.5952755290513
 20
92.20278447191292
 30
0.0
 10
197.5991869866313
 20
92.20362692649657
 30
0.0
 10
197.612008215926
 20
92.20638837875995
 30
0.0
 10
197.9378968342681
 20
92.27297682953152
 30
0.0
 10
198.4670837711136
 20
92.37357193814721
 30
0.0
 10
198.9261129413979
 20
92.44083008394821
 30
0.0
 10
199.0917963614535
 20
92.46571287278849
 30
0.0
 10
199.3246436777131
 20
92.50104201458052
 30
0.0
 10
199.7643652994348
 20
92.55459346468751
 30
0.0
 10
200.4263037251431
 20
92.61990274295185
 30
0.0
 10
201.1697493077407
 20
92.66688246779283
 30
0.0
 10
201.9579646766431
 20
92.68748252016499
 30
0.0
 10
202.7645863897754
 20
92.67663897123713
 30
0.0
 10
203.5642409161477
 20
92.63442896576939
 30
0.0
 10
204.316182616915
 20
92.56629756456124
 30
0.0
 10
205.0076157737357
 20
92.48001082268279
 30
0.0
 10
205.5892143725154
 20
92.39005439245875
 30
0.0
 10
206.058762533788
 20
92.30638649004675
 30
0.0
 10
206.3733026099147
 20
92.24483743845198
 30
0.0
 10
206.5570624972813
 20
92.20695268396636
 30
0.0
 10
206.5724045209859
 20
92.20371443637002
 30
0.0
 10
206.5797667581086
 20
92.20216048578793
 30
0.0
  0
SPLINE
  5
E7
330
1F
100
AcDbEntity
  8
0
  6
HIDDEN
 62
     7
370
     0
100
AcDbSpline
210
0.0
220
0.0
230
1.0
 70
     8
 71
     3
 72
    13
 73
     9
 74
     0
 42
0.00000001
 43
0.00000001
 12
1.0
 22
0.0
 32
0.0
 13
1.0
 23
0.0
 33
0.0
 40
0.0
 40
0.0
 40
0.0
 40
0.0
 40
0.0337523214013433
 40
0.3653655297825865
 40
0.5697453117976442
 40
0.7816322483230511
 40
0.9628614212817498
 40
0.9999999999999999
 40
0.9999999999999999
 40
0.9999999999999999
 40
0.9999999999999999
 10
199.0626934546476
 20
125.9393151632982
 30
0.0
 10
199.0368627914792
 20
125.9435374404459
 30
0.0
 10
198.7572484259684
 20
125.9892431715753
 30
0.0
 10
198.2624072557133
 20
126.0654669905317
 30
0.0
 10
197.8624569526416
 20
126.1445226581291
 30
0.0
 10
197.6580142974285
 20
126.18565667071
 30
0.0
 10
197.5753910736928
 20
126.2030761209998
 30
0.0
 10
197.5923852663738
 20
126.1995300173447
 30
0.0
 10
197.5952755290513
 20
126.1989269189077
 30
0.0
  0
SPLINE
  5
E8
330
1F
100
AcDbEntity
  8
0
  6
HIDDEN
 62
     7
370
     0
100
AcDbSpline
210
0.0
220
0.0
230
1.0
 70
     8
 71
     3
 72
    21
 73
    17
 74
     0
 42
0.00000001
 43
0.00000001
 12
1.0
 22
0.0
 32
0.0
 13
1.0
 23
0.0
 33
0.0
 40
0.0
 40
0.0
 40
0.0
 40
0.0
 40
0.007425344136837
 40
0.0664870885468876
 40
0.1272741258520372
 40
0.2466723109467828
 40
0.3767733271728833
 40
0.4488619417097349
 40
0.5227272942573065
 40
0.6009155172647216
 40
0.6812322644964058
 40
0.7618526548536225
 40
0.844810839173158
 40
0.9213346304994443
 40
0.9941135183764198
 40
1.0
 40
1.0
 40
1.0
 40
1.0
 10
206.5797667581086
 20
126.1995509050327
 30
0.0
 10
206.5818228498108
 20
126.1999787801597
 30
0.0
 10
206.6002332491869
 20
126.2038100061517
 30
0.0
 10
206.5326847618969
 20
126.1896631187044
 30
0.0
 10
206.3314108879083
 20
126.1483948610904
 30
0.0
 10
205.8143227227543
 20
126.0478194521005
 30
0.0
 10
205.0289047769599
 20
125.922327686103
 30
0.0
 10
204.2390159323999
 20
125.8280229708808
 30
0.0
 10
203.5460472487734
 20
125.7666920604261
 30
0.0
 10
202.790543939871
 20
125.7262122712107
 30
0.0
 10
201.994255816321
 20
125.7140692755949
 30
0.0
 10
201.1838358506931
 20
125.7336079787309
 30
0.0
 10
200.41354890278
 20
125.7828920915607
 30
0.0
 10
199.7032006514425
 20
125.8518296785707
 30
0.0
 10
199.2942306349466
 20
125.9094599261417
 30
0.0
 10
199.0788130231595
 20
125.937236648132
 30
0.0
 10
199.0626934546476
 20
125.9393151632982
 30
0.0
  0
SPLINE
  5
E9
330
1F
100
AcDbEntity
  8
0
  6
HIDDEN
 62
     7
370
     0
100
AcDbSpline
210
0.0
220
0.0
230
1.0
 70
     8
 71
     3
 72
    26
 73
    22
 74
     0
 42
0.00000001
 43
0.00000001
 12
1.0
 22
0.0
 32
0.0
 13
1.0
 23
0.0
 33
0.0
 40
0.0
 40
0.0
 40
0.0
 40
0.0
 40
0.0384806183588276
 40
0.1261342661395598
 40
0.2171011533206649
 40
0.2475873931629756
 40
0.2602380545337634
 40
0.2670515798023976
 40
0.3181776811170405
 40
0.3737071822419264
 40
0.4306561984166755
 40
0.4897605224523043
 40
0.5505197524345647
 40
0.6106143052175993
 40
0.6724864807835165
 40
0.7318466681978064
 40
0.793150873704022
 40
0.8486840461194587
 40
0.9062927211914856
 40
0.9550322754970615
 40
1.0
 40
1.0
 40
1.0
 40
1.0
 10
217.5952750820165
 20
92.20278447191292
 30
0.0
 10
217.5991865395964
 20
92.2036269264966
 30
0.0
 10
217.6120077688911
 20
92.20638837876008
 30
0.0
 10
217.9378963872336
 20
92.2729768295303
 30
0.0
 10
218.4670833240779
 20
92.37357193815055
 30
0.0
 10
218.9261124943638
 20
92.44083008394533
 30
0.0
 10
219.0917959144177
 20
92.46571287279191
 30
0.0
 10
219.3246432306845
 20
92.50104201455714
 30
0.0
 10
219.764364852173
 20
92.55459346554902
 30
0.0
 10
220.426303279
 20
92.61990273956738
 30
0.0
 10
221.169750054392
 20
92.66688255655738
 30
0.0
 10
221.957965487505
 20
92.68748247790958
 30
0.0
 10
222.7645872201026
 20
92.67663894851432
 30
0.0
 10
223.5642413472662
 20
92.63442878973031
 30
0.0
 10
224.3161852007819
 20
92.56629778554651
 30
0.0
 10
225.007618605402
 20
92.48001076890422
 30
0.0
 10
225.5892186056687
 20
92.39005458985733
 30
0.0
 10
226.0587602317017
 20
92.30638622542891
 30
0.0
 10
226.3733085981442
 20
92.24483758029993
 30
0.0
 10
226.5570597322363
 20
92.20695264320818
 30
0.0
 10
226.5724058346333
 20
92.20371442420151
 30
0.0
 10
226.5797700363641
 20
92.20216048578793
 30
0.0
  0
SPLINE
  5
EA
330
1F
100
AcDbEntity
  8
0
  6
HIDDEN
 62
     7
370
     0
100
AcDbSpline
210
0.0
220
0.0
230
1.0
 70
     8
 71
     3
 72
    13
 73
     9
 74
     0
 42
0.00000001
 43
0.00000001
 12
1.0
 22
0.0
 32
0.0
 13
1.0
 23
0.0
 33
0.0
 40
0.0
 40
0.0
 40
0.0
 40
0.0
 40
0.033752327891604
 40
0.365365600039015
 40
0.5697454213544236
 40
0.7816323986237383
 40
0.9628614733643008
 40
1.0
 40
1.0
 40
1.0
 40
1.0
 10
219.0626930076127
 20
125.9393151632982
 30
0.0
 10
219.0368623455485
 20
125.9435374404476
 30
0.0
 10
218.7572479919909
 20
125.9892431715955
 30
0.0
 10
218.2624062350644
 20
126.065466989646
 30
0.0
 10
217.8624577304377
 20
126.1445226600204
 30
0.0
 10
217.6580093720491
 20
126.185656654564
 30
0.0
 10
217.5754001781037
 20
126.2030761228383
 30
0.0
 10
217.5923862094321
 20
126.1995300172439
 30
0.0
 10
217.5952750820165
 20
126.1989269189077
 30
0.0
  0
SPLINE
  5
EB
330
1F
100
AcDbEntity
  8
0
  6
HIDDEN
 62
     7
370
     0
100
AcDbSpline
210
0.0
220
0.0
230
1.0
 70
     8
 71
     3
 72
    21
 73
    17
 74
     0
 42
0.00000001
 43
0.00000001
 12
1.0
 22
0.0
 32
0.0
 13
1.0
 23
0.0
 33
0.0
 40
0.0
 40
0.0
 40
0.0
 40
0.0
 40
0.0074253162915636
 40
0.0664870600253892
 40
0.1272740966345601
 40
0.2466722803622611
 40
0.3767730253930489
 40
0.4488619596756173
 40
0.5227273113774705
 40
0.6009155334896729
 40
0.6812322798017738
 40
0.7618522973955727
 40
0.8448108409499899
 40
0.9213346314001202
 40
0.9941135184438168
 40
1.0
 40
1.0
 40
1.0
 40
1.0
 10
226.5797700363641
 20
126.1995509050327
 30
0.0
 10
226.5818248068795
 20
126.199978779913
 30
0.0
 10
226.6002234373533
 20
126.2038100164195
 30
0.0
 10
226.5326882942848
 20
126.1896631172026
 30
0.0
 10
226.3314082514997
 20
126.1483948423536
 30
0.0
 10
225.8143227959298
 20
126.0478197180476
 30
0.0
 10
225.0289073786248
 20
125.9223271931336
 30
0.0
 10
224.2390160561428
 20
125.8280231907989
 30
0.0
 10
223.5460469200675
 20
125.7666920180628
 30
0.0
 10
222.790543470577
 20
125.7262123004098
 30
0.0
 10
221.9942565706024
 20
125.7140692203515
 30
0.0
 10
221.1838368492062
 20
125.7336081936518
 30
0.0
 10
220.4135494824901
 20
125.7828919173761
 30
0.0
 10
219.7032002237536
 20
125.8518296959603
 30
0.0
 10
219.2942301876383
 20
125.9094599258959
 30
0.0
 10
219.0788125761056
 20
125.9372366481149
 30
0.0
 10
219.0626930076127
 20
125.9393151632982
 30
0.0
  0
SPLINE
  5
EC
330
1F
100
AcDbEntity
  8
0
  6
HIDDEN
 62
     7
370
     0
100
AcDbSpline
210
0.0
220
0.0
230
1.0
 70
     8
 71
     3
 72
    26
 73
    22
 74
     0
 42
0.00000001
 43
0.00000001
 12
1.0
 22
0.0
 32
0.0
 13
1.0
 23
0.0
 33
0.0
 40
0.0
 40
0.0
 40
0.0
 40
0.0
 40
0.0384806045919457
 40
0.1261343392919696
 40
0.2171010693676242
 40
0.2475875170999076
 40
0.2602381789345419
 40
0.2670517044529994
 40
0.318177575386732
 40
0.3737073313755758
 40
0.4306560817940683
 40
0.4897604079968037
 40
0.5505196402068492
 40
0.6106141951932977
 40
0.6724863730278069
 40
0.7318465626185849
 40
0.7931507703725675
 40
0.848684110678378
 40
0.9062926672502916
 40
0.9550322944925228
 40
1.0
 40
1.0
 40
1.0
 40
1.0
 10
207.5952771681791
 20
92.20278447191292
 30
0.0
 10
207.5991870384007
 20
92.20362693565288
 30
0.0
 10
207.6120030765675
 20
92.20638842051886
 30
0.0
 10
207.9379021882083
 20
92.27297647101865
 30
0.0
 10
208.4670801382251
 20
92.37357254974027
 30
0.0
 10
208.9261141372794
 20
92.44082993880393
 30
0.0
 10
209.0917979759042
 20
92.46571287817932
 30
0.0
 10
209.3246446283399
 20
92.50104187693519
 30
0.0
 10
209.7643643341987
 20
92.55459395587549
 30
0.0
 10
210.4263036903943
 20
92.61990232734142
 30
0.0
 10
211.1697493716793
 20
92.66688273148945
 30
0.0
 10
211.9579639169858
 20
92.68748243770035
 30
0.0
 10
212.7645855553087
 20
92.67663895874908
 30
0.0
 10
213.5642397423617
 20
92.63442878884756
 30
0.0
 10
214.3161834492941
 20
92.56629777837497
 30
0.0
 10
215.0076173676072
 20
92.48001079736183
 30
0.0
 10
215.5892160226447
 20
92.39005439861411
 30
0.0
 10
216.0587641699584
 20
92.3063864883921
 30
0.0
 10
216.373304249709
 20
92.24483743882494
 30
0.0
 10
216.5570641362682
 20
92.20695268388752
 30
0.0
 10
216.572406160068
 20
92.20371443634446
 30
0.0
 10
216.5797683972364
 20
92.20216048578793
 30
0.0
  0
SPLINE
  5
ED
330
1F
100
AcDbEntity
  8
0
  6
HIDDEN
 62
     7
370
     0
100
AcDbSpline
210
0.0
220
0.0
230
1.0
 70
     8
 71
     3
 72
    13
 73
     9
 74
     0
 42
0.00000001
 43
0.00000001
 12
1.0
 22
0.0
 32
0.0
 13
1.0
 23
0.0
 33
0.0
 40
0.0
 40
0.0
 40
0.0
 40
0.0
 40
0.0337516041289859
 40
0.365365646872816
 40
0.5697449773842809
 40
0.7816323114096204
 40
0.9628614093799542
 40
1.0
 40
1.0
 40
1.0
 40
1.0
 10
209.062691368485
 20
125.9393151632982
 30
0.0
 10
209.036861989797
 20
125.943537446643
 30
0.0
 10
208.7572554971227
 20
125.98924423082
 30
0.0
 10
208.2624010975779
 20
126.0654664390664
 30
0.0
 10
207.8624614727325
 20
126.1445228821507
 30
0.0
 10
207.6580090252614
 20
126.1856565869428
 30
0.0
 10
207.5753929781256
 20
126.2030761221151
 30
0.0
 10
207.5923869425592
 20
126.1995300178209
 30
0.0
 10
207.5952771681791
 20
126.1989269189077
 30
0.0
  0
SPLINE
  5
EE
330
1F
100
AcDbEntity
  8
0
  6
HIDDEN
 62
     7
370
     0
100
AcDbSpline
210
0.0
220
0.0
230
1.0
 70
     8
 71
     3
 72
    21
 73
    17
 74
     0
 42
0.00000001
 43
0.00000001
 12
1.0
 22
0.0
 32
0.0
 13
1.0
 23
0.0
 33
0.0
 40
0.0
 40
0.0
 40
0.0
 40
0.0
 40
0.0074253154868548
 40
0.0664870528199425
 40
0.1272739836633718
 40
0.246672335352438
 40
0.3767730662837306
 40
0.4488619927537567
 40
0.5227269900959792
 40
0.600915203734637
 40
0.6812323143451032
 40
0.7618523232018151
 40
0.8448108577657104
 40
0.9213346399226767
 40
0.9941132112906359
 40
1.0
 40
1.0
 40
1.0
 40
1.0
 10
216.5797683972364
 20
126.1995509050327
 30
0.0
 10
216.5818231706593
 20
126.1999787798494
 30
0.0
 10
216.6002218271667
 20
126.2038100157867
 30
0.0
 10
216.5326854478655
 20
126.1896631557746
 30
0.0
 10
216.3314131878786
 20
126.1483947086441
 30
0.0
 10
215.8143192400953
 20
126.0478198835936
 30
0.0
 10
215.0289061579735
 20
125.9223271362167
 30
0.0
 10
214.2390151784725
 20
125.8280233998624
 30
0.0
 10
213.5460481285184
 20
125.7666918403656
 30
0.0
 10
212.7905442579451
 20
125.7262122597664
 30
0.0
 10
211.9942562419479
 20
125.7140692332079
 30
0.0
 10
211.1838349824448
 20
125.7336081253317
 30
0.0
 10
210.4135486799225
 20
125.7828921461337
 30
0.0
 10
209.7031967358589
 20
125.8518288466483
 30
0.0
 10
209.2942354122184
 20
125.9094614554225
 30
0.0
 10
209.0788121990248
 20
125.9372366534912
 30
0.0
 10
209.062691368485
 20
125.9393151632982
 30
0.0
  0
LINE
  5
EF
330
1F
100
AcDbEntity
  8
0
  6
HIDDEN
 62
     7
370
     0
100
AcDbLine
 10
165.0860305506
 20
93.4008564583
 30
0.0
 11
165.0860305506
 21
125.0008549325
 31
0.0
  0
SPLINE
  5
F0
330
1F
100
AcDbEntity
  8
0
  6
HIDDEN
 62
     7
370
     0
100
AcDbSpline
210
0.0
220
0.0
230
1.0
 70
     8
 71
     3
 72
    18
 73
    14
 74
     0
 42
0.00000001
 43
0.00000001
 12
1.0
 22
0.0
 32
0.0
 13
1.0
 23
0.0
 33
0.0
 40
0.0
 40
0.0
 40
0.0
 40
0.0
 40
0.2499999999999993
 40
0.2499999999999993
 40
0.4999999999999987
 40
0.4999999999999987
 40
0.624999999999999
 40
0.624999999999999
 40
0.7499999999999993
 40
0.7499999999999993
 40
0.8749999999999997
 40
0.8749999999999997
 40
1.0
 40
1.0
 40
1.0
 40
1.0
 10
163.8299462330604
 20
98.90211805488845
 30
0.0
 10
163.8642472775932
 20
98.83876326842423
 30
0.0
 10
163.90206754889
 20
98.77711738184027
 30
0.0
 10
163.9886858693508
 20
98.65778174612609
 30
0.0
 10
164.0370572040943
 20
98.60002364237917
 30
0.0
 10
164.1264601862127
 20
98.51765108787384
 30
0.0
 10
164.15905747009
 20
98.49090195283632
 30
0.0
 10
164.2354393740349
 20
98.43970790266005
 30
0.0
 10
164.2784778113756
 20
98.4154375861029
 30
0.0
 10
164.3842908442075
 20
98.37635670133672
 30
0.0
 10
164.4493292689386
 20
98.36246721508698
 30
0.0
 10
164.5824813407412
 20
98.3649210458035
 30
0.0
 10
164.6418505212044
 20
98.38006769659845
 30
0.0
 10
164.6910536617482
 20
98.39952954854235
 30
0.0
  0
SPLINE
  5
F1
330
1F
100
AcDbEntity
  8
0
  6
HIDDEN
 62
     7
370
     0
100
AcDbSpline
210
0.0
220
0.0
230
1.0
 70
     8
 71
     3
 72
    16
 73
    12
 74
     0
 42
0.00000001
 43
0.00000001
 12
1.0
 22
0.0
 32
0.0
 13
1.0
 23
0.0
 33
0.0
 40
0.0
 40
0.0
 40
0.0
 40
0.0
 40
0.0625000000000022
 40
0.0625000000000022
 40
0.1250000000000044
 40
0.1250000000000044
 40
0.2500000000000064
 40
0.2500000000000064
 40
0.5000000000000058
 40
0.5000000000000058
 40
1.0
 40
1.0
 40
1.0
 40
1.0
 10
164.6910536617173
 20
98.39952954858121
 30
0.0
 10
164.7031234949932
 20
98.40430366067721
 30
0.0
 10
164.7173991499265
 20
98.4072653453486
 30
0.0
 10
164.7488635620509
 20
98.40272953637425
 30
0.0
 10
164.7643640868613
 20
98.3947052642854
 30
0.0
 10
164.7998029834682
 20
98.36592941682265
 30
0.0
 10
164.8133955995716
 20
98.34238170010529
 30
0.0
 10
164.8463899179644
 20
98.27558246959518
 30
0.0
 10
164.8571773112832
 20
98.23204463539253
 30
0.0
 10
164.8822305585623
 20
98.10440396509803
 30
0.0
 10
164.8860305506235
 20
98.02483660333846
 30
0.0
 10
164.8860305506236
 20
97.94815075831929
 30
0.0
  0
LINE
  5
F2
330
1F
100
AcDbEntity
  8
0
  6
HIDDEN
 62
     7
370
     0
100
AcDbLine
 10
164.8860305557
 20
95.1110357202
 30
0.0
 11
164.8860305557
 21
97.9481506876
 31
0.0
  0
LINE
  5
F3
330
1F
100
AcDbEntity
  8
0
  6
HIDDEN
 62
     7
370
     0
100
AcDbLine
 10
164.8706878166
 20
122.2350736863
 30
0.0
 11
164.8462903229
 21
122.3376691125
 31
0.0
  0
SPLINE
  5
F4
330
1F
100
AcDbEntity
  8
0
  6
HIDDEN
 62
     7
370
     0
100
AcDbSpline
210
0.0
220
0.0
230
1.0
 70
     8
 71
     3
 72
     8
 73
     4
 74
     0
 42
0.00000001
 43
0.00000001
 12
1.0
 22
0.0
 32
0.0
 13
1.0
 23
0.0
 33
0.0
 40
0.0
 40
0.0
 40
0.0
 40
0.0
 40
1.0
 40
1.0
 40
1.0
 40
1.0
 10
163.8299462330604
 20
122.8584390627442
 30
0.0
 10
163.8056332367911
 20
122.9022877200157
 30
0.0
 10
163.7841364123626
 20
122.945247971584
 30
0.0
 10
163.7647102070637
 20
122.9871622063193
 30
0.0
  0
SPLINE
  5
F5
330
1F
100
AcDbEntity
  8
0
  6
HIDDEN
 62
     7
370
     0
100
AcDbSpline
210
0.0
220
0.0
230
1.0
 70
     8
 71
     3
 72
    18
 73
    14
 74
     0
 42
0.00000001
 43
0.00000001
 12
1.0
 22
0.0
 32
0.0
 13
1.0
 23
0.0
 33
0.0
 40
0.0
 40
0.0
 40
0.0
 40
0.0
 40
0.2500000000000008
 40
0.2500000000000008
 40
0.5000000000000016
 40
0.5000000000000016
 40
0.6250000000000011
 40
0.6250000000000011
 40
0.7500000000000008
 40
0.7500000000000008
 40
0.8750000000000003
 40
0.8750000000000003
 40
1.0
 40
1.0
 40
1.0
 40
1.0
 10
163.8299462330604
 20
122.8584390627442
 30
0.0
 10
163.8642445520731
 20
122.7965818067025
 30
0.0
 10
163.902058949385
 20
122.7345104977268
 30
0.0
 10
163.9886470104586
 20
122.6110537736844
 30
0.0
 10
164.0369971161373
 20
122.5495581363709
 30
0.0
 10
164.1263137049371
 20
122.4601413044219
 30
0.0
 10
164.1588740604253
 20
122.4308046403875
 30
0.0
 10
164.2351196941543
 20
122.3745218641459
 30
0.0
 10
164.2782790639343
 20
122.3475891961708
 30
0.0
 10
164.3840078879524
 20
122.3056733252157
 30
0.0
 10
164.449005065007
 20
122.2918037698499
 30
0.0
 10
164.5824895549613
 20
122.3011821606515
 30
0.0
 10
164.6418169484068
 20
122.322470839593
 30
0.0
 10
164.6910536617481
 20
122.3481214527107
 30
0.0
  0
SPLINE
  5
F6
330
1F
100
AcDbEntity
  8
0
  6
HIDDEN
 62
     7
370
     0
100
AcDbSpline
210
0.0
220
0.0
230
1.0
 70
     8
 71
     3
 72
    16
 73
    12
 74
     0
 42
0.00000001
 43
0.00000001
 12
1.0
 22
0.0
 32
0.0
 13
1.0
 23
0.0
 33
0.0
 40
0.0
 40
0.0
 40
0.0
 40
0.0
 40
0.0625000000000001
 40
0.0625000000000001
 40
0.1250000000000003
 40
0.1250000000000003
 40
0.2500000000000006
 40
0.2500000000000006
 40
0.5000000000000011
 40
0.5000000000000011
 40
1.0
 40
1.0
 40
1.0
 40
1.0
 10
164.6910536617173
 20
122.3481214527167
 30
0.0
 10
164.7031234949932
 20
122.3544094155567
 30
0.0
 10
164.7173991499265
 20
122.3606873875264
 30
0.0
 10
164.7488635620509
 20
122.3697712543628
 30
0.0
 10
164.7643640868613
 20
122.3717417436218
 30
0.0
 10
164.7998029834682
 20
122.3714282866802
 30
0.0
 10
164.8133955995715
 20
122.3654066296783
 30
0.0
 10
164.8463899179644
 20
122.34516261617
 30
0.0
 10
164.8571773112832
 20
122.3267518081711
 30
0.0
 10
164.8822305585623
 20
122.2667859113528
 30
0.0
 10
164.8860305506235
 20
122.22034575014
 30
0.0
 10
164.8860305506236
 20
122.1705555149485
 30
0.0
  0
LINE
  5
F7
330
1F
100
AcDbEntity
  8
0
  6
HIDDEN
 62
     7
370
     0
100
AcDbLine
 10
164.8860305557
 20
107.4838607821
 30
0.0
 11
164.8860305557
 21
122.1705553837
 31
0.0
  0
SPLINE
  5
F8
330
1F
100
AcDbEntity
  8
0
  6
HIDDEN
 62
     7
370
     0
100
AcDbSpline
210
0.0
220
0.0
230
1.0
 70
     8
 71
     3
 72
    16
 73
    12
 74
     0
 42
0.00000001
 43
0.00000001
 12
1.0
 22
0.0
 32
0.0
 13
1.0
 23
0.0
 33
0.0
 40
0.0
 40
0.0
 40
0.0
 40
0.0
 40
0.5000000000000008
 40
0.5000000000000008
 40
0.7500000000000004
 40
0.7500000000000004
 40
0.8750000000000003
 40
0.8750000000000003
 40
0.9375000000000002
 40
0.9375000000000002
 40
1.0
 40
1.0
 40
1.0
 40
1.0
 10
164.8860305506234
 20
107.4838608129632
 30
0.0
 10
164.8860305506234
 20
107.357083045452
 30
0.0
 10
164.8821471254645
 20
107.2310935956039
 30
0.0
 10
164.8573318001898
 20
107.0447580836242
 30
0.0
 10
164.8464923524773
 20
106.9820362645709
 30
0.0
 10
164.8132765704285
 20
106.8944928137436
 30
0.0
 10
164.7998948267997
 20
106.8653129747404
 30
0.0
 10
164.7643851769375
 20
106.836123327435
 30
0.0
 10
164.7489682104367
 20
106.8300469463172
 30
0.0
 10
164.7172671882881
 20
106.8346376541964
 30
0.0
 10
164.7031209033373
 20
106.8438563853448
 30
0.0
 10
164.6910536617477
 20
106.8549160849783
 30
0.0
  0
SPLINE
  5
F9
330
1F
100
AcDbEntity
  8
0
  6
HIDDEN
 62
     7
370
     0
100
AcDbSpline
210
0.0
220
0.0
230
1.0
 70
     8
 71
     3
 72
    18
 73
    14
 74
     0
 42
0.00000001
 43
0.00000001
 12
1.0
 22
0.0
 32
0.0
 13
1.0
 23
0.0
 33
0.0
 40
0.0
 40
0.0
 40
0.0
 40
0.0
 40
0.1249999999999998
 40
0.1249999999999998
 40
0.2499999999999996
 40
0.2499999999999996
 40
0.3749999999999993
 40
0.3749999999999993
 40
0.4999999999999991
 40
0.4999999999999991
 40
0.7499999999999996
 40
0.7499999999999996
 40
1.0
 40
1.0
 40
1.0
 40
1.0
 10
164.6910536617538
 20
106.8549160849867
 30
0.0
 10
164.6423495327371
 20
106.8995537127197
 30
0.0
 10
164.5838418635325
 20
106.9356741601102
 30
0.0
 10
164.4521162009016
 20
106.948674156776
 30
0.0
 10
164.3873585622813
 20
106.9221085753435
 30
0.0
 10
164.2821481456623
 20
106.8432623046476
 30
0.0
 10
164.238932110722
 20
106.7927579990917
 30
0.0
 10
164.1627538892411
 20
106.686867900317
 30
0.0
 10
164.129899121557
 20
106.6309971571776
 30
0.0
 10
164.0395314027151
 20
106.4587925190516
 30
0.0
 10
163.9901090335257
 20
106.3375135626052
 30
0.0
 10
163.9024565714377
 20
106.0922999094
 30
0.0
 10
163.8643938352033
 20
105.9677619394056
 30
0.0
 10
163.8299462330599
 20
105.8420099685966
 30
0.0
  0
SPLINE
  5
FA
330
1F
100
AcDbEntity
  8
0
  6
HIDDEN
 62
     7
370
     0
100
AcDbSpline
210
0.0
220
0.0
230
1.0
 70
     8
 71
     3
 72
     8
 73
     4
 74
     0
 42
0.00000001
 43
0.00000001
 12
1.0
 22
0.0
 32
0.0
 13
1.0
 23
0.0
 33
0.0
 40
0.0
 40
0.0
 40
0.0
 40
0.0
 40
1.0
 40
1.0
 40
1.0
 40
1.0
 10
163.82994623306
 20
105.842009968597
 30
0.0
 10
163.8056321879258
 20
105.7532508415831
 30
0.0
 10
163.7841356339569
 20
105.6638383981208
 30
0.0
 10
163.7647102070637
 20
105.5739559533492
 30
0.0
  0
SPLINE
  5
FB
330
1F
100
AcDbEntity
  8
0
  6
HIDDEN
 62
     7
370
     0
100
AcDbSpline
210
0.0
220
0.0
230
1.0
 70
     8
 71
     3
 72
     8
 73
     4
 74
     0
 42
0.00000001
 43
0.00000001
 12
1.0
 22
0.0
 32
0.0
 13
1.0
 23
0.0
 33
0.0
 40
0.0
 40
0.0
 40
0.0
 40
0.0
 40
1.0
 40
1.0
 40
1.0
 40
1.0
 10
163.7647102070637
 20
99.04144892656244
 30
0.0
 10
163.7841358872136
 20
98.99347841162609
 30
0.0
 10
163.8056325291697
 20
98.94702600270928
 30
0.0
 10
163.8299462330598
 20
98.90211805488732
 30
0.0
  0
LINE
  5
FC
330
1F
100
AcDbEntity
  8
0
  6
HIDDEN
 62
     7
370
     0
100
AcDbLine
 10
164.8860305557
 20
107.4838607821
 30
0.0
 11
164.8860305557
 21
122.1705553837
 31
0.0
  0
LINE
  5
FD
330
1F
100
AcDbEntity
  8
0
  6
HIDDEN
 62
     7
370
     0
100
AcDbLine
 10
142.113063075
 20
99.6381621591
 30
0.0
 11
142.113063075
 21
118.7635492317
 31
0.0
  0
LINE
  5
FE
330
1F
100
AcDbEntity
  8
0
  6
HIDDEN
 62
     7
370
     0
100
AcDbLine
 10
141.086030342
 20
99.0485716395
 30
0.0
 11
141.086030342
 21
119.3531397514
 31
0.0
  0
LINE
  5
FF
330
1F
100
AcDbEntity
  8
0
  6
HIDDEN
 62
     7
370
     0
100
AcDbLine
 10
145.6130627173
 20
99.969916024
 30
0.0
 11
145.6130627173
 21
118.4317953668
 31
0.0
  0
LINE
  5
100
330
1F
100
AcDbEntity
  8
0
  6
HIDDEN
 62
     7
370
     0
100
AcDbLine
 10
163.3860305281
 20
98.7385166592
 30
0.0
 11
163.3860305281
 21
96.0807567246
 31
0.0
  0
LINE
  5
101
330
1F
100
AcDbEntity
  8
0
  6
HIDDEN
 62
     7
370
     0
100
AcDbLine
 10
142.5860296566
 20
99.1910742379
 30
0.0
 11
142.5860296566
 21
96.7730609484
 31
0.0
  0
SPLINE
  5
102
330
1F
100
AcDbEntity
  8
0
  6
HIDDEN
 62
     7
370
     0
100
AcDbSpline
210
0.0
220
0.0
230
1.0
 70
     8
 71
     3
 72
     8
 73
     4
 74
     0
 42
0.00000001
 43
0.00000001
 12
1.0
 22
0.0
 32
0.0
 13
1.0
 23
0.0
 33
0.0
 40
0.0000137050638847
 40
0.0000137050638847
 40
0.0000137050638847
 40
0.0000137050638847
 40
0.0027147143562631
 40
0.0027147143562631
 40
0.0027147143562631
 40
0.0027147143562631
 10
145.2860305506234
 20
96.7097088649904
 30
0.0
 10
144.3860268647136
 20
96.73086347233617
 30
0.0
 10
143.4860266861182
 20
96.75198098049438
 30
0.0
 10
142.5860305506234
 20
96.77306137782504
 30
0.0
  0
SPLINE
  5
103
330
1F
100
AcDbEntity
  8
0
  6
HIDDEN
 62
     7
370
     0
100
AcDbSpline
210
0.0
220
0.0
230
1.0
 70
     8
 71
     3
 72
    12
 73
     8
 74
     0
 42
0.00000001
 43
0.00000001
 12
1.0
 22
0.0
 32
0.0
 13
1.0
 23
0.0
 33
0.0
 40
0.0
 40
0.0
 40
0.0
 40
0.0
 40
0.0084997310382616
 40
0.1429235708628755
 40
0.2918018616288257
 40
0.4448018181777062
 40
1.0
 40
1.0
 40
1.0
 40
1.0
 10
146.9899728524928
 20
96.49295264552408
 30
0.0
 10
146.9914052050497
 20
96.4928275686316
 30
0.0
 10
147.0154903133016
 20
96.49072439195162
 30
0.0
 10
146.9152408311548
 20
96.49928018467658
 30
0.0
 10
146.7165793157618
 20
96.51792057530513
 30
0.0
 10
146.1923351202128
 20
96.57209504312958
 30
0.0
 10
145.6843051990074
 20
96.64923450191628
 30
0.0
 10
145.2860306579118
 20
96.70970866154009
 30
0.0
  0
SPLINE
  5
104
330
1F
100
AcDbEntity
  8
0
  6
HIDDEN
 62
     7
370
     0
100
AcDbSpline
210
0.0
220
0.0
230
1.0
 70
     8
 71
     3
 72
    16
 73
    12
 74
     0
 42
0.00000001
 43
0.00000001
 12
1.0
 22
0.0
 32
0.0
 13
1.0
 23
0.0
 33
0.0
 40
0.0
 40
0.0
 40
0.0
 40
0.0
 40
0.0294149184833738
 40
0.1195345669680408
 40
0.2592248026627619
 40
0.4048613712711849
 40
0.5538497971638989
 40
0.7024241611296022
 40
0.8455169231220225
 40
0.9790347744104835
 40
1.0
 40
1.0
 40
1.0
 40
1.0
 10
151.6535529497509
 20
96.4421676255303
 30
0.0
 10
151.7010392420234
 20
96.44462516440105
 30
0.0
 10
151.8940111649922
 20
96.45461196225283
 30
0.0
 10
152.2871100914173
 20
96.47879477295335
 30
0.0
 10
153.0439487248151
 20
96.49517229216707
 30
0.0
 10
153.9551845304312
 20
96.47914070284307
 30
0.0
 10
154.8573955852554
 20
96.42423191097075
 30
0.0
 10
155.6245244104374
 20
96.3470572921242
 30
0.0
 10
156.1109908878496
 20
96.28437361937198
 30
0.0
 10
156.3165187820861
 20
96.25483003435951
 30
0.0
 10
156.2734551562994
 20
96.26090911617672
 30
0.0
 10
156.2676109004264
 20
96.26173412124687
 30
0.0
  0
SPLINE
  5
105
330
1F
100
AcDbEntity
  8
0
  6
HIDDEN
 62
     7
370
     0
100
AcDbSpline
210
0.0
220
0.0
230
1.0
 70
     8
 71
     3
 72
    11
 73
     7
 74
     0
 42
0.00000001
 43
0.00000001
 12
1.0
 22
0.0
 32
0.0
 13
1.0
 23
0.0
 33
0.0
 40
0.0
 40
0.0
 40
0.0
 40
0.0
 40
0.2238721561782772
 40
0.6645674282703254
 40
0.7379073042727123
 40
0.9999999999999999
 40
0.9999999999999999
 40
0.9999999999999999
 40
0.9999999999999999
 10
151.0529318455105
 20
96.39469811390215
 30
0.0
 10
151.0469191296547
 20
96.39408681495915
 30
0.0
 10
151.0290703038723
 20
96.392272166039
 30
0.0
 10
151.1790126329647
 20
96.40757233869276
 30
0.0
 10
151.4506683363183
 20
96.4272287616709
 30
0.0
 10
151.5645616080417
 20
96.43561498698386
 30
0.0
 10
151.6535529497509
 20
96.4421676255303
 30
0.0
  0
LINE
  5
106
330
1F
100
AcDbEntity
  8
0
  6
HIDDEN
 62
     7
370
     0
100
AcDbLine
 10
149.0130625296
 20
100.2008560828
 30
0.0
 11
149.0130625296
 21
118.200855308
 31
0.0
  0
LINE
  5
107
330
1F
100
AcDbEntity
  8
0
  6
HIDDEN
 62
     7
370
     0
100
AcDbLine
 10
144.2130632329
 20
100.2008560828
 30
0.0
 11
144.2130632329
 21
118.200855308
 31
0.0
  0
LINE
  5
108
330
1F
100
AcDbEntity
  8
0
  6
HIDDEN
 62
     7
370
     0
100
AcDbLine
 10
145.2130633968
 20
100.2008560828
 30
0.0
 11
145.2130633968
 21
118.200855308
 31
0.0
  0
LINE
  5
109
330
1F
100
AcDbEntity
  8
0
  6
HIDDEN
 62
     7
370
     0
100
AcDbLine
 10
164.8860305557
 20
97.9481506876
 30
0.0
 11
164.8860305557
 21
96.0480961732
 31
0.0
  0
SPLINE
  5
10A
330
1F
100
AcDbEntity
  8
0
  6
HIDDEN
 62
     7
370
     0
100
AcDbSpline
210
0.0
220
0.0
230
1.0
 70
    11
 71
     3
 72
    60
 73
    56
 74
     0
 42
0.00000001
 43
0.00000001
 12
1.0
 22
0.0
 32
0.0
 13
1.0
 23
0.0
 33
0.0
 40
0.0
 40
0.0
 40
0.0
 40
0.0
 40
0.0624999999999999
 40
0.0624999999999999
 40
0.1249999999999998
 40
0.1249999999999998
 40
0.1874999999999996
 40
0.1874999999999996
 40
0.2187499999999996
 40
0.2187499999999996
 40
0.2499999999999995
 40
0.2499999999999995
 40
0.3124999999999998
 40
0.3124999999999998
 40
0.3750000000000001
 40
0.3750000000000001
 40
0.4062500000000001
 40
0.4062500000000001
 40
0.4375000000000001
 40
0.4375000000000001
 40
0.4687500000000001
 40
0.4687500000000001
 40
0.5000000000000001
 40
0.5000000000000001
 40
0.5312500000000001
 40
0.5312500000000001
 40
0.5625000000000002
 40
0.5625000000000002
 40
0.5937500000000002
 40
0.5937500000000002
 40
0.6250000000000003
 40
0.6250000000000003
 40
0.6562500000000003
 40
0.6562500000000003
 40
0.6875000000000004
 40
0.6875000000000004
 40
0.7187500000000003
 40
0.7187500000000003
 40
0.7500000000000002
 40
0.7500000000000002
 40
0.7812500000000002
 40
0.7812500000000002
 40
0.8125000000000001
 40
0.8125000000000001
 40
0.8437500000000001
 40
0.8437500000000001
 40
0.875
 40
0.875
 40
0.90625
 40
0.90625
 40
0.9375
 40
0.9375
 40
0.9687500000000001
 40
0.9687500000000001
 40
1.0
 40
1.0
 40
1.0
 40
1.0
 10
155.5860305506234
 20
100.2728099966025
 30
0.0
 10
155.4608406490447
 20
100.3008541858466
 30
0.0
 10
155.3039733304765
 20
100.3336772722662
 30
0.0
 10
154.9269358106577
 20
100.3989494979205
 30
0.0
 10
154.7152225042367
 20
100.4298021228891
 30
0.0
 10
154.249332522288
 20
100.4775377595818
 30
0.0
 10
154.0034932912364
 20
100.4933706743584
 30
0.0
 10
153.6240122381418
 20
100.500542616469
 30
0.0
 10
153.4962665094479
 20
100.5001440108797
 30
0.0
 10
153.2458002627797
 20
100.4939571153759
 30
0.0
 10
153.1219708799715
 20
100.4881961833832
 30
0.0
 10
152.7547512058729
 20
100.4635012372592
 30
0.0
 10
152.5239821877872
 20
100.437591904152
 30
0.0
 10
152.1040932263677
 20
100.376855254386
 30
0.0
 10
151.9198348514801
 20
100.3428911595882
 30
0.0
 10
151.6890864639967
 20
100.2956477376871
 30
0.0
 10
151.6200396142078
 20
100.2805537621204
 30
0.0
 10
151.5014749504023
 20
100.2536752306269
 30
0.0
 10
151.4512665816526
 20
100.2417462753345
 30
0.0
 10
151.3694347292949
 20
100.2218957649503
 30
0.0
 10
151.3380838304122
 20
100.2140396101448
 30
0.0
 10
151.2966894523736
 20
100.2035960260657
 30
0.0
 10
151.2861836773093
 20
100.2008948277595
 30
0.0
 10
151.2858807249735
 20
100.2008174066589
 30
0.0
 10
151.2963652545901
 20
100.2035132553051
 30
0.0
 10
151.3375053320516
 20
100.2138946141986
 30
0.0
 10
151.3680834526001
 20
100.2215609046319
 30
0.0
 10
151.4493661609514
 20
100.2412920718758
 30
0.0
 10
151.5003670475133
 20
100.2534170384319
 30
0.0
 10
151.6189340958764
 20
100.2803100431273
 30
0.0
 10
151.6868228491481
 20
100.295162426294
 30
0.0
 10
151.8399732868858
 20
100.3265614317242
 30
0.0
 10
151.9255294584583
 20
100.3431369773495
 30
0.0
 10
152.1082408294175
 20
100.3755636622079
 30
0.0
 10
152.2060481290994
 20
100.3915605409231
 30
0.0
 10
152.4148512410163
 20
100.421847174489
 30
0.0
 10
152.5264334163042
 20
100.4361635266178
 30
0.0
 10
152.7550792158032
 20
100.4608578208411
 30
0.0
 10
152.8730340267744
 20
100.4713866444894
 30
0.0
 10
153.1163624717631
 20
100.4878852505927
 30
0.0
 10
153.2427063471061
 20
100.4938402582291
 30
0.0
 10
153.493812328124
 20
100.5001229380414
 30
0.0
 10
153.6194943218469
 20
100.5005512921495
 30
0.0
 10
153.8711163916388
 20
100.4959461139062
 30
0.0
 10
153.9980140119245
 20
100.4908179637902
 30
0.0
 10
154.2432045781857
 20
100.4757823652679
 30
0.0
 10
154.3623937352192
 20
100.465899488649
 30
0.0
 10
154.594078759574
 20
100.4422666919686
 30
0.0
 10
154.7072535639245
 20
100.4283921838009
 30
0.0
 10
154.9193319808602
 20
100.3987725487436
 30
0.0
 10
155.019120759561
 20
100.3829623546567
 30
0.0
 10
155.20637894655
 20
100.3506000863256
 30
0.0
 10
155.2942739834934
 20
100.3339458313436
 30
0.0
 10
155.4524950591253
 20
100.302109453774
 30
0.0
 10
155.5234330154169
 20
100.2868326701681
 30
0.0
 10
155.5860305506234
 20
100.2728099966025
 30
0.0
  0
SPLINE
  5
10B
330
1F
100
AcDbEntity
  8
0
  6
HIDDEN
 62
     7
370
     0
100
AcDbSpline
210
0.0
220
0.0
230
1.0
 70
    11
 71
     3
 72
    60
 73
    56
 74
     0
 42
0.00000001
 43
0.00000001
 12
1.0
 22
0.0
 32
0.0
 13
1.0
 23
0.0
 33
0.0
 40
0.0
 40
0.0
 40
0.0
 40
0.0
 40
0.0624999999999999
 40
0.0624999999999999
 40
0.1249999999999998
 40
0.1249999999999998
 40
0.1874999999999996
 40
0.1874999999999996
 40
0.2187499999999996
 40
0.2187499999999996
 40
0.2499999999999995
 40
0.2499999999999995
 40
0.3124999999999998
 40
0.3124999999999998
 40
0.3750000000000001
 40
0.3750000000000001
 40
0.4062500000000001
 40
0.4062500000000001
 40
0.4375000000000001
 40
0.4375000000000001
 40
0.4687500000000001
 40
0.4687500000000001
 40
0.5000000000000001
 40
0.5000000000000001
 40
0.5312500000000001
 40
0.5312500000000001
 40
0.5625000000000002
 40
0.5625000000000002
 40
0.5937500000000002
 40
0.5937500000000002
 40
0.6250000000000003
 40
0.6250000000000003
 40
0.6562500000000003
 40
0.6562500000000003
 40
0.6875000000000004
 40
0.6875000000000004
 40
0.7187500000000003
 40
0.7187500000000003
 40
0.7500000000000002
 40
0.7500000000000002
 40
0.7812500000000002
 40
0.7812500000000002
 40
0.8125000000000001
 40
0.8125000000000001
 40
0.8437500000000001
 40
0.8437500000000001
 40
0.875
 40
0.875
 40
0.90625
 40
0.90625
 40
0.9375
 40
0.9375
 40
0.9687500000000001
 40
0.9687500000000001
 40
1.0
 40
1.0
 40
1.0
 40
1.0
 10
155.5860305506234
 20
118.1289013942181
 30
0.0
 10
155.4608406490447
 20
118.100857204974
 30
0.0
 10
155.3039733304765
 20
118.0680341185544
 30
0.0
 10
154.9269358106577
 20
118.0027618929002
 30
0.0
 10
154.7152225042367
 20
117.9719092679316
 30
0.0
 10
154.249332522288
 20
117.9241736312388
 30
0.0
 10
154.0034932912364
 20
117.9083407164622
 30
0.0
 10
153.6240122381418
 20
117.9011687743516
 30
0.0
 10
153.4962665094479
 20
117.9015673799409
 30
0.0
 10
153.2458002627797
 20
117.9077542754447
 30
0.0
 10
153.1219708799715
 20
117.9135152074374
 30
0.0
 10
152.7547512058729
 20
117.9382101535614
 30
0.0
 10
152.5239821877872
 20
117.9641194866686
 30
0.0
 10
152.1040932263677
 20
118.0248561364347
 30
0.0
 10
151.9198348514801
 20
118.0588202312324
 30
0.0
 10
151.6890864639967
 20
118.1060636531335
 30
0.0
 10
151.6200396142078
 20
118.1211576287003
 30
0.0
 10
151.5014749504023
 20
118.1480361601937
 30
0.0
 10
151.4512665816526
 20
118.1599651154861
 30
0.0
 10
151.3694347292949
 20
118.1798156258703
 30
0.0
 10
151.3380838304122
 20
118.1876717806759
 30
0.0
 10
151.2966894523736
 20
118.1981153647549
 30
0.0
 10
151.2861836773093
 20
118.2008165630611
 30
0.0
 10
151.2858807249735
 20
118.2008939841617
 30
0.0
 10
151.2963652545901
 20
118.1981981355156
 30
0.0
 10
151.3375053320516
 20
118.187816776622
 30
0.0
 10
151.3680834526001
 20
118.1801504861888
 30
0.0
 10
151.4493661609514
 20
118.1604193189449
 30
0.0
 10
151.5003670475133
 20
118.1482943523887
 30
0.0
 10
151.6189340958764
 20
118.1214013476933
 30
0.0
 10
151.6868228491481
 20
118.1065489645266
 30
0.0
 10
151.8399732868858
 20
118.0751499590964
 30
0.0
 10
151.9255294584583
 20
118.0585744134711
 30
0.0
 10
152.1082408294175
 20
118.0261477286127
 30
0.0
 10
152.2060481290994
 20
118.0101508498975
 30
0.0
 10
152.4148512410163
 20
117.9798642163316
 30
0.0
 10
152.5264334163042
 20
117.9655478642028
 30
0.0
 10
152.7550792158032
 20
117.9408535699795
 30
0.0
 10
152.8730340267744
 20
117.9303247463313
 30
0.0
 10
153.1163624717631
 20
117.913826140228
 30
0.0
 10
153.2427063471061
 20
117.9078711325915
 30
0.0
 10
153.493812328124
 20
117.9015884527792
 30
0.0
 10
153.6194943218469
 20
117.9011600986711
 30
0.0
 10
153.8711163916388
 20
117.9057652769145
 30
0.0
 10
153.9980140119245
 20
117.9108934270304
 30
0.0
 10
154.2432045781857
 20
117.9259290255527
 30
0.0
 10
154.3623937352192
 20
117.9358119021716
 30
0.0
 10
154.594078759574
 20
117.9594446988521
 30
0.0
 10
154.7072535639245
 20
117.9733192070197
 30
0.0
 10
154.9193319808602
 20
118.002938842077
 30
0.0
 10
155.019120759561
 20
118.0187490361639
 30
0.0
 10
155.20637894655
 20
118.0511113044951
 30
0.0
 10
155.2942739834934
 20
118.067765559477
 30
0.0
 10
155.4524950591253
 20
118.0996019370467
 30
0.0
 10
155.5234330154169
 20
118.1148787206525
 30
0.0
 10
155.5860305506234
 20
118.1289013942181
 30
0.0
  0
SPLINE
  5
10C
330
1F
100
AcDbEntity
  8
0
  6
HIDDEN
 62
     7
370
     0
100
AcDbSpline
210
0.0
220
0.0
230
1.0
 70
    11
 71
     3
 72
    14
 73
    10
 74
     0
 42
0.00000001
 43
0.00000001
 12
1.0
 22
0.0
 32
0.0
 13
1.0
 23
0.0
 33
0.0
 40
0.0
 40
0.0
 40
0.0
 40
0.0
 40
0.2500000000000001
 40
0.2500000000000001
 40
0.5000000000000001
 40
0.5000000000000001
 40
0.75
 40
0.75
 40
1.0
 40
1.0
 40
1.0
 40
1.0
 10
155.5860305506234
 20
100.2728099966025
 30
0.0
 10
155.6842548971264
 20
100.2508064473787
 30
0.0
 10
155.7595697351105
 20
100.2603009174422
 30
0.0
 10
155.8605364453048
 20
100.2858585784695
 30
0.0
 10
155.885912031595
 20
100.3007974348324
 30
0.0
 10
155.8861482568613
 20
100.3009135564425
 30
0.0
 10
155.8604451875258
 20
100.2858666632816
 30
0.0
 10
155.7601250740093
 20
100.2604104492001
 30
0.0
 10
155.6842332459217
 20
100.2508112975297
 30
0.0
 10
155.586030550628
 20
100.2728099965962
 30
0.0
  0
SPLINE
  5
10D
330
1F
100
AcDbEntity
  8
0
  6
HIDDEN
 62
     7
370
     0
100
AcDbSpline
210
0.0
220
0.0
230
1.0
 70
    11
 71
     3
 72
    14
 73
    10
 74
     0
 42
0.00000001
 43
0.00000001
 12
1.0
 22
0.0
 32
0.0
 13
1.0
 23
0.0
 33
0.0
 40
0.0
 40
0.0
 40
0.0
 40
0.0
 40
0.2500000000000001
 40
0.2500000000000001
 40
0.5000000000000001
 40
0.5000000000000001
 40
0.75
 40
0.75
 40
1.0
 40
1.0
 40
1.0
 40
1.0
 10
155.5860305506234
 20
118.1289013942181
 30
0.0
 10
155.6842548971264
 20
118.1509049434419
 30
0.0
 10
155.7595697351105
 20
118.1414104733785
 30
0.0
 10
155.8605364453048
 20
118.1158528123511
 30
0.0
 10
155.885912031595
 20
118.1009139559882
 30
0.0
 10
155.8861482568613
 20
118.1007978343781
 30
0.0
 10
155.8604451875258
 20
118.115844727539
 30
0.0
 10
155.7601250740093
 20
118.1413009416205
 30
0.0
 10
155.6842332459217
 20
118.1509000932909
 30
0.0
 10
155.586030550628
 20
118.1289013942245
 30
0.0
  0
LINE
  5
10E
330
1F
100
AcDbEntity
  8
0
  6
HIDDEN
 62
     7
370
     0
100
AcDbLine
 10
156.0860309381
 20
100.7008552335
 30
0.0
 11
156.0860309381
 21
117.7008561573
 31
0.0
  0
LINE
  5
10F
330
1F
100
AcDbEntity
  8
0
  6
HIDDEN
 62
     7
370
     0
100
AcDbLine
 10
156.9860303405
 20
102.9508556023
 30
0.0
 11
156.9860303405
 21
115.4508557885
 31
0.0
  0
LINE
  5
110
330
1F
100
AcDbEntity
  8
0
  6
HIDDEN
 62
     7
370
     0
100
AcDbLine
 10
156.0860309381
 20
102.0542466796
 30
0.0
 11
156.0860309381
 21
116.3474647112
 31
0.0
  0
LINE
  5
111
330
1F
100
AcDbEntity
  8
0
  6
HIDDEN
 62
     7
370
     0
100
AcDbLine
 10
176.086030491
 20
102.9508556023
 30
0.0
 11
176.086030491
 21
115.4508557885
 31
0.0
  0
LINE
  5
112
330
1F
100
AcDbEntity
  8
0
  6
HIDDEN
 62
     7
370
     0
100
AcDbLine
 10
176.8371067572
 20
104.2008558072
 30
0.0
 11
176.8371067572
 21
114.2008555837
 31
0.0
  0
LINE
  5
113
330
1F
100
AcDbEntity
  8
0
  6
HIDDEN
 62
     7
370
     0
100
AcDbLine
 10
196.086030044
 20
104.2008558072
 30
0.0
 11
196.086030044
 21
114.2008555837
 31
0.0
  0
LINE
  5
114
330
1F
100
AcDbEntity
  8
0
  6
HIDDEN
 62
     7
370
     0
100
AcDbLine
 10
196.6868895668
 20
105.2008555054
 30
0.0
 11
196.6868895668
 21
113.2008558854
 31
0.0
  0
LINE
  5
115
330
1F
100
AcDbEntity
  8
0
  6
HIDDEN
 62
     7
370
     0
100
AcDbLine
 10
208.5860292989
 20
93.2008549355
 30
0.0
 11
215.586032309
 21
93.2008549355
 31
0.0
  0
LINE
  5
116
330
1F
100
AcDbEntity
  8
0
  6
HIDDEN
 62
     7
370
     0
100
AcDbLine
 10
198.5860313851
 20
93.2008549355
 30
0.0
 11
205.5860306698
 21
93.2008549355
 31
0.0
  0
LINE
  5
117
330
1F
100
AcDbEntity
  8
0
  6
HIDDEN
 62
     7
370
     0
100
AcDbLine
 10
218.5860309381
 20
93.2008549355
 30
0.0
 11
225.5860302228
 21
93.2008549355
 31
0.0
  0
LINE
  5
118
330
1F
100
AcDbEntity
  8
0
  6
HIDDEN
 62
     7
370
     0
100
AcDbLine
 10
230.0860281664
 20
113.5008558414
 30
0.0
 11
230.0860281664
 21
104.9008555494
 31
0.0
  0
LINE
  5
119
330
1F
100
AcDbEntity
  8
0
  6
HIDDEN
 62
     7
370
     0
100
AcDbLine
 10
198.5860313851
 20
125.2008564554
 30
0.0
 11
205.5860306698
 21
125.2008564554
 31
0.0
  0
LINE
  5
11A
330
1F
100
AcDbEntity
  8
0
  6
HIDDEN
 62
     7
370
     0
100
AcDbLine
 10
218.5860309381
 20
125.2008564554
 30
0.0
 11
225.5860302228
 21
125.2008564554
 31
0.0
  0
LINE
  5
11B
330
1F
100
AcDbEntity
  8
0
  6
HIDDEN
 62
     7
370
     0
100
AcDbLine
 10
208.5860292989
 20
125.2008564554
 30
0.0
 11
215.586032309
 21
125.2008564554
 31
0.0
  0
SPLINE
  5
11C
330
1F
100
AcDbEntity
  8
0
  6
HIDDEN
 62
     7
370
     0
100
AcDbSpline
210
0.0
220
0.0
230
1.0
 70
     8
 71
     3
 72
    10
 73
     6
 74
     0
 42
0.00000001
 43
0.00000001
 12
1.0
 22
0.0
 32
0.0
 13
1.0
 23
0.0
 33
0.0
 40
0.0
 40
0.0
 40
0.0
 40
0.0
 40
0.419472921172985
 40
0.8509369418539342
 40
1.0
 40
1.0
 40
1.0
 40
1.0
 10
163.3860305280854
 20
123.5735714219051
 30
0.0
 10
163.3278669772211
 20
123.7029050832103
 30
0.0
 10
163.2098772057683
 20
123.9652695522255
 30
0.0
 10
163.1408502815737
 20
124.1210694016276
 30
0.0
 10
163.1509045995077
 20
124.0984257235002
 30
0.0
 10
163.1534862661233
 20
124.0926114625769
 30
0.0
  0
LINE
  5
11D
330
1F
100
AcDbEntity
  8
0
  6
HIDDEN
 62
     7
370
     0
100
AcDbLine
 10
142.5860296566
 20
122.5694827519
 30
0.0
 11
142.5860296566
 21
123.5983865119
 31
0.0
  0
LINE
  5
11E
330
1F
100
AcDbEntity
  8
0
  6
HIDDEN
 62
     7
370
     0
100
AcDbLine
 10
163.3860305281
 20
123.0220403306
 30
0.0
 11
163.3860305281
 21
123.5735714219
 31
0.0
  0
SPLINE
  5
11F
330
1F
100
AcDbEntity
  8
0
  6
HIDDEN
 62
     7
370
     0
100
AcDbSpline
210
0.0
220
0.0
230
1.0
 70
     8
 71
     3
 72
    26
 73
    22
 74
     0
 42
0.00000001
 43
0.00000001
 12
1.0
 22
0.0
 32
0.0
 13
1.0
 23
0.0
 33
0.0
 40
0.0
 40
0.0
 40
0.0
 40
0.0
 40
0.1250000000000009
 40
0.1250000000000009
 40
0.2500000000000018
 40
0.2500000000000018
 40
0.3125000000000017
 40
0.3125000000000017
 40
0.3750000000000015
 40
0.3750000000000015
 40
0.4375000000000014
 40
0.4375000000000014
 40
0.5000000000000012
 40
0.5000000000000012
 40
0.6250000000000009
 40
0.6250000000000009
 40
0.7500000000000006
 40
0.7500000000000006
 40
0.8750000000000003
 40
0.8750000000000003
 40
1.0
 40
1.0
 40
1.0
 40
1.0
 10
200.0244777378146
 20
112.0292828201565
 30
0.0
 10
199.8205518643744
 20
111.8806475753885
 30
0.0
 10
199.6310621862928
 20
111.7091703308764
 30
0.0
 10
199.2852871678759
 20
111.3161212778735
 30
0.0
 10
199.1329916830771
 20
111.0994206387089
 30
0.0
 10
198.9384833651015
 20
110.7376359543292
 30
0.0
 10
198.8790838938451
 20
110.6098842190044
 30
0.0
 10
198.7761624944804
 20
110.3474339485824
 30
0.0
 10
198.7322702836029
 20
110.2122905981504
 30
0.0
 10
198.660559080891
 20
109.9335587056238
 30
0.0
 10
198.6325885516565
 20
109.7885879804986
 30
0.0
 10
198.5954213150708
 20
109.4963858018941
 30
0.0
 10
198.5861308097717
 20
109.3499652333251
 30
0.0
 10
198.5858324440821
 20
108.9097532800849
 30
0.0
 10
198.6240036072051
 20
108.6115199685466
 30
0.0
 10
198.7669097579417
 20
108.053517768076
 30
0.0
 10
198.8727254248568
 20
107.7867595641775
 30
0.0
 10
199.1317763969823
 20
107.3041796304642
 30
0.0
 10
199.2875209172755
 20
107.0828900047121
 30
0.0
 10
199.6307270937037
 20
106.693083821943
 30
0.0
 10
199.8187458282383
 20
106.5223801791609
 30
0.0
 10
200.0244777378146
 20
106.3724285706641
 30
0.0
  0
SPLINE
  5
120
330
1F
100
AcDbEntity
  8
0
  6
HIDDEN
 62
     7
370
     0
100
AcDbSpline
210
0.0
220
0.0
230
1.0
 70
     8
 71
     3
 72
    60
 73
    56
 74
     0
 42
0.00000001
 43
0.00000001
 12
1.0
 22
0.0
 32
0.0
 13
1.0
 23
0.0
 33
0.0
 40
0.0
 40
0.0
 40
0.0
 40
0.0
 40
0.0312500000000001
 40
0.0312500000000001
 40
0.0625000000000002
 40
0.0625000000000002
 40
0.0937500000000002
 40
0.0937500000000002
 40
0.1250000000000003
 40
0.1250000000000003
 40
0.1562500000000004
 40
0.1562500000000004
 40
0.1875000000000005
 40
0.1875000000000005
 40
0.2187500000000006
 40
0.2187500000000006
 40
0.2500000000000007
 40
0.2500000000000007
 40
0.3125000000000012
 40
0.3125000000000012
 40
0.3750000000000017
 40
0.3750000000000017
 40
0.4062500000000016
 40
0.4062500000000016
 40
0.4375000000000014
 40
0.4375000000000014
 40
0.4687500000000012
 40
0.4687500000000012
 40
0.5000000000000011
 40
0.5000000000000011
 40
0.531250000000001
 40
0.531250000000001
 40
0.5625000000000008
 40
0.5625000000000008
 40
0.6250000000000006
 40
0.6250000000000006
 40
0.6875000000000002
 40
0.6875000000000002
 40
0.7187500000000003
 40
0.7187500000000003
 40
0.7500000000000004
 40
0.7500000000000004
 40
0.7812500000000006
 40
0.7812500000000006
 40
0.8125000000000006
 40
0.8125000000000006
 40
0.8437500000000007
 40
0.8437500000000007
 40
0.8750000000000008
 40
0.8750000000000008
 40
0.9375000000000007
 40
0.9375000000000007
 40
0.9687500000000003
 40
0.9687500000000003
 40
1.0
 40
1.0
 40
1.0
 40
1.0
 10
200.0244777378146
 20
106.3724285706641
 30
0.0
 10
199.8879225553082
 20
106.2728977331408
 30
0.0
 10
199.7583259978717
 20
106.173911773608
 30
0.0
 10
199.5122456155247
 20
105.980832417082
 30
0.0
 10
199.3956833153144
 20
105.8865968006379
 30
0.0
 10
199.1832553655031
 20
105.7119522071501
 30
0.0
 10
199.0864221019009
 20
105.6307668553782
 30
0.0
 10
198.9133076616445
 20
105.4841294463673
 30
0.0
 10
198.8370171748547
 20
105.4186446034412
 30
0.0
 10
198.7138274849042
 20
105.3123101646577
 30
0.0
 10
198.6659544971744
 20
105.2706307028609
 30
0.0
 10
198.6010903773035
 20
105.214057946301
 30
0.0
 10
198.5853094120998
 20
105.2002247002871
 30
0.0
 10
198.5868021586145
 20
105.2015308512802
 30
0.0
 10
198.6045457543813
 20
105.2170806397392
 30
0.0
 10
198.6719874618892
 20
105.2758821261418
 30
0.0
 10
198.7210977067216
 20
105.3186211731683
 30
0.0
 10
198.9112310835235
 20
105.4826250646976
 30
0.0
 10
199.0916136448525
 20
105.6369679501806
 30
0.0
 10
199.5233782042835
 20
105.9911905566096
 30
0.0
 10
199.7692344801104
 20
106.1873701160737
 30
0.0
 10
200.1851408807124
 20
106.4889800781842
 30
0.0
 10
200.33152923782
 20
106.5904010974794
 30
0.0
 10
200.6364718407297
 20
106.7847806128314
 30
0.0
 10
200.7957363486597
 20
106.8784928911007
 30
0.0
 10
201.1345013613511
 20
107.0482020620413
 30
0.0
 10
201.3148921559394
 20
107.1242361038331
 30
0.0
 10
201.6903268474517
 20
107.2325376507157
 30
0.0
 10
201.8901757348341
 20
107.2644537992434
 30
0.0
 10
202.2836566796604
 20
107.2642738403138
 30
0.0
 10
202.4831794177184
 20
107.232220563678
 30
0.0
 10
202.8580807863983
 20
107.1238726367852
 30
0.0
 10
203.0366855071451
 20
107.0486323875354
 30
0.0
 10
203.5470537701074
 20
106.7929790103879
 30
0.0
 10
203.8464376570784
 20
106.5908015524341
 30
0.0
 10
204.4023461020707
 20
106.1877730243429
 30
0.0
 10
204.6491307474926
 20
105.9908068341996
 30
0.0
 10
204.9711046931978
 20
105.7266816099342
 30
0.0
 10
205.0709623486313
 20
105.6430987586045
 30
0.0
 10
205.2462358626096
 20
105.4948181623385
 30
0.0
 10
205.3224464373166
 20
105.4294691530736
 30
0.0
 10
205.4493497169931
 20
105.3200201571598
 30
0.0
 10
205.4994301968689
 20
105.2764416209097
 30
0.0
 10
205.5666907182016
 20
105.2178011031012
 30
0.0
 10
205.5847501444639
 20
105.2019760460372
 30
0.0
 10
205.5871806789301
 20
105.1998493376561
 30
0.0
 10
205.5712796488569
 20
105.2137864661007
 30
0.0
 10
205.5078974867757
 20
105.2690707201984
 30
0.0
 10
205.4596248173264
 20
105.3111041384697
 30
0.0
 10
205.2744132029669
 20
105.4709898089035
 30
0.0
 10
205.0954232692755
 20
105.6242818727998
 30
0.0
 10
204.7773812418305
 20
105.8857799064671
 30
0.0
 10
204.6628228151744
 20
105.9784255487228
 30
0.0
 10
204.416904173719
 20
106.1714713483072
 30
0.0
 10
204.2850678000254
 20
106.2722204286561
 30
0.0
 10
204.1475833634323
 20
106.3724285706641
 30
0.0
  0
SPLINE
  5
121
330
1F
100
AcDbEntity
  8
0
  6
HIDDEN
 62
     7
370
     0
100
AcDbSpline
210
0.0
220
0.0
230
1.0
 70
     8
 71
     3
 72
    24
 73
    20
 74
     0
 42
0.00000001
 43
0.00000001
 12
1.0
 22
0.0
 32
0.0
 13
1.0
 23
0.0
 33
0.0
 40
0.0
 40
0.0
 40
0.0
 40
0.0
 40
0.1250000000000001
 40
0.1250000000000001
 40
0.2500000000000001
 40
0.2500000000000001
 40
0.3125000000000001
 40
0.3125000000000001
 40
0.3750000000000002
 40
0.3750000000000002
 40
0.5000000000000001
 40
0.5000000000000001
 40
0.6250000000000001
 40
0.6250000000000001
 40
0.7500000000000001
 40
0.7500000000000001
 40
0.875
 40
0.875
 40
1.0
 40
1.0
 40
1.0
 40
1.0
 10
204.1475833634323
 20
106.3724285706641
 30
0.0
 10
204.3540838208757
 20
106.522940349866
 30
0.0
 10
204.5426029751258
 20
106.6944129090359
 30
0.0
 10
204.8845983023512
 20
107.0830686293475
 30
0.0
 10
205.040131125503
 20
107.3039904184279
 30
0.0
 10
205.2342340874573
 20
107.6654350650787
 30
0.0
 10
205.292522674627
 20
107.7908326547275
 30
0.0
 10
205.3952660661091
 20
108.0525016473913
 30
0.0
 10
205.4400278022009
 20
108.190120330126
 30
0.0
 10
205.5478871174506
 20
108.6100229952153
 30
0.0
 10
205.5856289530747
 20
108.8984233181984
 30
0.0
 10
205.5864258799371
 20
109.4939202953627
 30
0.0
 10
205.5490748960067
 20
109.7854334310611
 30
0.0
 10
205.4052924788672
 20
110.3484216058579
 30
0.0
 10
205.3009589424823
 20
110.6116002108258
 30
0.0
 10
205.0405155025543
 20
111.0974271602829
 30
0.0
 10
204.8867330876292
 20
111.3158798941998
 30
0.0
 10
204.5444108706653
 20
111.7055768903313
 30
0.0
 10
204.3528517814855
 20
111.8796690362566
 30
0.0
 10
204.1475833634323
 20
112.0292828201565
 30
0.0
  0
SPLINE
  5
122
330
1F
100
AcDbEntity
  8
0
  6
HIDDEN
 62
     7
370
     0
100
AcDbSpline
210
0.0
220
0.0
230
1.0
 70
     8
 71
     3
 72
    64
 73
    60
 74
     0
 42
0.00000001
 43
0.00000001
 12
1.0
 22
0.0
 32
0.0
 13
1.0
 23
0.0
 33
0.0
 40
0.0
 40
0.0
 40
0.0
 40
0.0
 40
0.0624999999999993
 40
0.0624999999999993
 40
0.0937499999999992
 40
0.0937499999999992
 40
0.1249999999999992
 40
0.1249999999999992
 40
0.1562499999999991
 40
0.1562499999999991
 40
0.1874999999999991
 40
0.1874999999999991
 40
0.2187499999999991
 40
0.2187499999999991
 40
0.2499999999999991
 40
0.2499999999999991
 40
0.3124999999999986
 40
0.3124999999999986
 40
0.3437499999999987
 40
0.3437499999999987
 40
0.3749999999999988
 40
0.3749999999999988
 40
0.4062499999999988
 40
0.4062499999999988
 40
0.4374999999999989
 40
0.4374999999999989
 40
0.468749999999999
 40
0.468749999999999
 40
0.4999999999999991
 40
0.4999999999999991
 40
0.5312499999999992
 40
0.5312499999999992
 40
0.5624999999999992
 40
0.5624999999999992
 40
0.5937499999999993
 40
0.5937499999999993
 40
0.6249999999999994
 40
0.6249999999999994
 40
0.6562499999999996
 40
0.6562499999999996
 40
0.6874999999999996
 40
0.6874999999999996
 40
0.7187499999999997
 40
0.7187499999999997
 40
0.7499999999999998
 40
0.7499999999999998
 40
0.7812499999999999
 40
0.7812499999999999
 40
0.8124999999999999
 40
0.8124999999999999
 40
0.84375
 40
0.84375
 40
0.8750000000000001
 40
0.8750000000000001
 40
0.9062500000000002
 40
0.9062500000000002
 40
0.9375000000000002
 40
0.9375000000000002
 40
1.0
 40
1.0
 40
1.0
 40
1.0
 10
204.1475833634323
 20
112.0292828201565
 30
0.0
 10
204.4242201648415
 20
112.2309148053266
 30
0.0
 10
204.6688547179919
 20
112.4267342227857
 30
0.0
 10
204.9881186937082
 20
112.6891853083759
 30
0.0
 10
205.0868509096519
 20
112.7719644100862
 30
0.0
 10
205.2595492688669
 20
112.9182628132703
 30
0.0
 10
205.3344323614959
 20
112.9825397251632
 30
0.0
 10
205.458444921453
 20
113.0895827962219
 30
0.0
 10
205.5066996534865
 20
113.131597869948
 30
0.0
 10
205.5704398882039
 20
113.1871905236987
 30
0.0
 10
205.5867071058193
 20
113.2014476803458
 30
0.0
 10
205.5853112364838
 20
113.2002262964258
 30
0.0
 10
205.5675732595841
 20
113.1846818565287
 30
0.0
 10
205.5006161061161
 20
113.1263016272087
 30
0.0
 10
205.4505693599391
 20
113.0827493013002
 30
0.0
 10
205.2608839595642
 20
112.9191349265189
 30
0.0
 10
205.0793621079076
 20
112.763869827836
 30
0.0
 10
204.7583857765598
 20
112.5005134697253
 30
0.0
 10
204.6428837461143
 20
112.4073400626241
 30
0.0
 10
204.3950302040461
 20
112.2134165883053
 30
0.0
 10
204.2624364127184
 20
112.1125008780874
 30
0.0
 10
203.9859830400381
 20
111.9120832135796
 30
0.0
 10
203.8413738498515
 20
111.8118725730389
 30
0.0
 10
203.5361631536794
 20
111.6172711405609
 30
0.0
 10
203.3743131082651
 20
111.5220780711854
 30
0.0
 10
203.0348725142276
 20
111.3522976401002
 30
0.0
 10
202.8571196343841
 20
111.2773013672838
 30
0.0
 10
202.4780492022478
 20
111.1682719900385
 30
0.0
 10
202.2837450044454
 20
111.1370527225486
 30
0.0
 10
201.8825858568702
 20
111.1376462535413
 30
0.0
 10
201.6888510424853
 20
111.1694047737385
 30
0.0
 10
201.3117816577345
 20
111.2785696459438
 30
0.0
 10
201.1330165817673
 20
111.3542095152341
 30
0.0
 10
200.7956716129941
 20
111.5232947659641
 30
0.0
 10
200.634456070073
 20
111.6181204809022
 30
0.0
 10
200.3282287470297
 20
111.8135110020498
 30
0.0
 10
200.1839433652178
 20
111.9136023117921
 30
0.0
 10
199.9092899425436
 20
112.1127722839599
 30
0.0
 10
199.7789754030528
 20
112.2119280322331
 30
0.0
 10
199.5314494932377
 20
112.4055300224521
 30
0.0
 10
199.413921623151
 20
112.5003113833165
 30
0.0
 10
199.1994443911676
 20
112.676286801351
 30
0.0
 10
199.1015718885134
 20
112.7582153684545
 30
0.0
 10
198.9262261372225
 20
112.9065510779944
 30
0.0
 10
198.8485351103205
 20
112.9731703288061
 30
0.0
 10
198.7223711027557
 20
113.081987727251
 30
0.0
 10
198.6729653170261
 20
113.124977942789
 30
0.0
 10
198.6047722268706
 20
113.1844320584639
 30
0.0
 10
198.587103189459
 20
113.1999171393556
 30
0.0
 10
198.5850531460379
 20
113.2017109216291
 30
0.0
 10
198.6009338878225
 20
113.1877909649188
 30
0.0
 10
198.6650520872167
 20
113.1318667283734
 30
0.0
 10
198.7126038270196
 20
113.0904614921006
 30
0.0
 10
198.8362931633565
 20
112.9836877667985
 30
0.0
 10
198.9123096664585
 20
112.9184348100061
 30
0.0
 10
199.0851928908831
 20
112.7719783316145
 30
0.0
 10
199.1832072061417
 20
112.6897901588396
 30
0.0
 10
199.5045364328795
 20
112.4256398995534
 30
0.0
 10
199.7489311441885
 20
112.2301201866843
 30
0.0
 10
200.0244777378146
 20
112.0292828201565
 30
0.0
  0
SPLINE
  5
123
330
1F
100
AcDbEntity
  8
0
  6
HIDDEN
 62
     7
370
     0
100
AcDbSpline
210
0.0
220
0.0
230
1.0
 70
     8
 71
     3
 72
    26
 73
    22
 74
     0
 42
0.00000001
 43
0.00000001
 12
1.0
 22
0.0
 32
0.0
 13
1.0
 23
0.0
 33
0.0
 40
0.0
 40
0.0
 40
0.0
 40
0.0
 40
0.125
 40
0.125
 40
0.2499999999999999
 40
0.2499999999999999
 40
0.3125
 40
0.3125
 40
0.375
 40
0.375
 40
0.4375000000000001
 40
0.4375000000000001
 40
0.5000000000000001
 40
0.5000000000000001
 40
0.6250000000000001
 40
0.6250000000000001
 40
0.75
 40
0.75
 40
0.875
 40
0.875
 40
1.0
 40
1.0
 40
1.0
 40
1.0
 10
220.0244777378146
 20
112.0292828201565
 30
0.0
 10
219.8205518643744
 20
111.8806475753885
 30
0.0
 10
219.6310621862929
 20
111.7091703308764
 30
0.0
 10
219.2852871678759
 20
111.3161212778735
 30
0.0
 10
219.1329916830771
 20
111.0994206387089
 30
0.0
 10
218.9384833651014
 20
110.7376359543292
 30
0.0
 10
218.8790838938451
 20
110.6098842190044
 30
0.0
 10
218.7761624944804
 20
110.3474339485824
 30
0.0
 10
218.7322702836029
 20
110.2122905981504
 30
0.0
 10
218.6605590808911
 20
109.9335587056238
 30
0.0
 10
218.6325885516565
 20
109.7885879804986
 30
0.0
 10
218.5954213150707
 20
109.4963858018941
 30
0.0
 10
218.5861308097717
 20
109.3499652333251
 30
0.0
 10
218.5858324440821
 20
108.9097532800849
 30
0.0
 10
218.6240036072051
 20
108.6115199685466
 30
0.0
 10
218.7669097579417
 20
108.053517768076
 30
0.0
 10
218.8727254248568
 20
107.7867595641775
 30
0.0
 10
219.1317763969822
 20
107.3041796304642
 30
0.0
 10
219.2875209172755
 20
107.0828900047121
 30
0.0
 10
219.6307270937037
 20
106.693083821943
 30
0.0
 10
219.8187458282383
 20
106.5223801791609
 30
0.0
 10
220.0244777378146
 20
106.3724285706641
 30
0.0
  0
SPLINE
  5
124
330
1F
100
AcDbEntity
  8
0
  6
HIDDEN
 62
     7
370
     0
100
AcDbSpline
210
0.0
220
0.0
230
1.0
 70
     8
 71
     3
 72
    60
 73
    56
 74
     0
 42
0.00000001
 43
0.00000001
 12
1.0
 22
0.0
 32
0.0
 13
1.0
 23
0.0
 33
0.0
 40
0.0
 40
0.0
 40
0.0
 40
0.0
 40
0.0312500000000003
 40
0.0312500000000003
 40
0.0625000000000007
 40
0.0625000000000007
 40
0.093750000000001
 40
0.093750000000001
 40
0.1250000000000013
 40
0.1250000000000013
 40
0.1562500000000016
 40
0.1562500000000016
 40
0.1875000000000019
 40
0.1875000000000019
 40
0.2187500000000022
 40
0.2187500000000022
 40
0.2500000000000026
 40
0.2500000000000026
 40
0.3125000000000032
 40
0.3125000000000032
 40
0.3750000000000038
 40
0.3750000000000038
 40
0.4062500000000037
 40
0.4062500000000037
 40
0.4375000000000037
 40
0.4375000000000037
 40
0.4687500000000036
 40
0.4687500000000036
 40
0.5000000000000036
 40
0.5000000000000036
 40
0.5312500000000036
 40
0.5312500000000036
 40
0.5625000000000036
 40
0.5625000000000036
 40
0.6250000000000034
 40
0.6250000000000034
 40
0.6875000000000033
 40
0.6875000000000033
 40
0.718750000000003
 40
0.718750000000003
 40
0.7500000000000027
 40
0.7500000000000027
 40
0.7812500000000023
 40
0.7812500000000023
 40
0.812500000000002
 40
0.812500000000002
 40
0.8437500000000017
 40
0.8437500000000017
 40
0.8750000000000013
 40
0.8750000000000013
 40
0.937500000000001
 40
0.937500000000001
 40
0.9687500000000006
 40
0.9687500000000006
 40
1.0
 40
1.0
 40
1.0
 40
1.0
 10
220.0244777378146
 20
106.3724285706641
 30
0.0
 10
219.8879225553081
 20
106.2728977331408
 30
0.0
 10
219.7583259978718
 20
106.173911773608
 30
0.0
 10
219.5122456155247
 20
105.980832417082
 30
0.0
 10
219.3956833153144
 20
105.8865968006379
 30
0.0
 10
219.1832553655031
 20
105.7119522071501
 30
0.0
 10
219.0864221019009
 20
105.6307668553782
 30
0.0
 10
218.9133076616445
 20
105.4841294463673
 30
0.0
 10
218.8370171748547
 20
105.4186446034412
 30
0.0
 10
218.7138274849042
 20
105.3123101646577
 30
0.0
 10
218.6659544971744
 20
105.2706307028609
 30
0.0
 10
218.6010903773035
 20
105.214057946301
 30
0.0
 10
218.5853094120997
 20
105.2002247002871
 30
0.0
 10
218.5868021586145
 20
105.2015308512802
 30
0.0
 10
218.6045457543814
 20
105.2170806397392
 30
0.0
 10
218.6719874618892
 20
105.2758821261418
 30
0.0
 10
218.7210977067216
 20
105.3186211731683
 30
0.0
 10
218.9112310835235
 20
105.4826250646976
 30
0.0
 10
219.0916136448524
 20
105.6369679501806
 30
0.0
 10
219.5233782042835
 20
105.9911905566096
 30
0.0
 10
219.7692344801105
 20
106.1873701160737
 30
0.0
 10
220.1851408807124
 20
106.4889800781842
 30
0.0
 10
220.33152923782
 20
106.5904010974794
 30
0.0
 10
220.6364718407297
 20
106.7847806128314
 30
0.0
 10
220.7957363486597
 20
106.8784928911007
 30
0.0
 10
221.1345013613511
 20
107.0482020620413
 30
0.0
 10
221.3148921559394
 20
107.1242361038331
 30
0.0
 10
221.6903268474516
 20
107.2325376507157
 30
0.0
 10
221.8901757348341
 20
107.2644537992434
 30
0.0
 10
222.2836566796604
 20
107.2642738403138
 30
0.0
 10
222.4831794177184
 20
107.232220563678
 30
0.0
 10
222.8580807863983
 20
107.1238726367852
 30
0.0
 10
223.0366855071451
 20
107.0486323875354
 30
0.0
 10
223.5470537701074
 20
106.7929790103879
 30
0.0
 10
223.8464376570784
 20
106.5908015524341
 30
0.0
 10
224.4023461020707
 20
106.1877730243429
 30
0.0
 10
224.6491307474926
 20
105.9908068341996
 30
0.0
 10
224.9711046931978
 20
105.7266816099342
 30
0.0
 10
225.0709623486313
 20
105.6430987586045
 30
0.0
 10
225.2462358626096
 20
105.4948181623385
 30
0.0
 10
225.3224464373166
 20
105.4294691530736
 30
0.0
 10
225.4493497169931
 20
105.3200201571598
 30
0.0
 10
225.4994301968689
 20
105.2764416209097
 30
0.0
 10
225.5666907182016
 20
105.2178011031012
 30
0.0
 10
225.5847501444639
 20
105.2019760460372
 30
0.0
 10
225.5871806789301
 20
105.1998493376561
 30
0.0
 10
225.5712796488569
 20
105.2137864661007
 30
0.0
 10
225.5078974867757
 20
105.2690707201984
 30
0.0
 10
225.4596248173264
 20
105.3111041384697
 30
0.0
 10
225.2744132029669
 20
105.4709898089035
 30
0.0
 10
225.0954232692754
 20
105.6242818727998
 30
0.0
 10
224.7773812418305
 20
105.8857799064671
 30
0.0
 10
224.6628228151744
 20
105.9784255487228
 30
0.0
 10
224.416904173719
 20
106.1714713483072
 30
0.0
 10
224.2850678000254
 20
106.2722204286561
 30
0.0
 10
224.1475833634322
 20
106.3724285706641
 30
0.0
  0
SPLINE
  5
125
330
1F
100
AcDbEntity
  8
0
  6
HIDDEN
 62
     7
370
     0
100
AcDbSpline
210
0.0
220
0.0
230
1.0
 70
     8
 71
     3
 72
    24
 73
    20
 74
     0
 42
0.00000001
 43
0.00000001
 12
1.0
 22
0.0
 32
0.0
 13
1.0
 23
0.0
 33
0.0
 40
0.0
 40
0.0
 40
0.0
 40
0.0
 40
0.1249999999999999
 40
0.1249999999999999
 40
0.2499999999999997
 40
0.2499999999999997
 40
0.3124999999999997
 40
0.3124999999999997
 40
0.3749999999999997
 40
0.3749999999999997
 40
0.4999999999999997
 40
0.4999999999999997
 40
0.6249999999999998
 40
0.6249999999999998
 40
0.7499999999999998
 40
0.7499999999999998
 40
0.8749999999999999
 40
0.8749999999999999
 40
1.0
 40
1.0
 40
1.0
 40
1.0
 10
224.1475833634323
 20
106.3724285706641
 30
0.0
 10
224.3540838208757
 20
106.522940349866
 30
0.0
 10
224.5426029751258
 20
106.6944129090359
 30
0.0
 10
224.8845983023512
 20
107.0830686293475
 30
0.0
 10
225.040131125503
 20
107.3039904184279
 30
0.0
 10
225.2342340874573
 20
107.6654350650787
 30
0.0
 10
225.292522674627
 20
107.7908326547275
 30
0.0
 10
225.3952660661091
 20
108.0525016473913
 30
0.0
 10
225.440027802201
 20
108.190120330126
 30
0.0
 10
225.5478871174507
 20
108.6100229952153
 30
0.0
 10
225.5856289530748
 20
108.8984233181984
 30
0.0
 10
225.5864258799371
 20
109.4939202953627
 30
0.0
 10
225.5490748960067
 20
109.7854334310611
 30
0.0
 10
225.4052924788672
 20
110.3484216058579
 30
0.0
 10
225.3009589424823
 20
110.6116002108258
 30
0.0
 10
225.0405155025543
 20
111.0974271602829
 30
0.0
 10
224.8867330876291
 20
111.3158798941998
 30
0.0
 10
224.5444108706652
 20
111.7055768903313
 30
0.0
 10
224.3528517814854
 20
111.8796690362566
 30
0.0
 10
224.1475833634323
 20
112.0292828201565
 30
0.0
  0
SPLINE
  5
126
330
1F
100
AcDbEntity
  8
0
  6
HIDDEN
 62
     7
370
     0
100
AcDbSpline
210
0.0
220
0.0
230
1.0
 70
     8
 71
     3
 72
    64
 73
    60
 74
     0
 42
0.00000001
 43
0.00000001
 12
1.0
 22
0.0
 32
0.0
 13
1.0
 23
0.0
 33
0.0
 40
0.0
 40
0.0
 40
0.0
 40
0.0
 40
0.062500000000001
 40
0.062500000000001
 40
0.0937500000000012
 40
0.0937500000000012
 40
0.1250000000000014
 40
0.1250000000000014
 40
0.1562500000000016
 40
0.1562500000000016
 40
0.1875000000000018
 40
0.1875000000000018
 40
0.218750000000002
 40
0.218750000000002
 40
0.2500000000000022
 40
0.2500000000000022
 40
0.3125000000000026
 40
0.3125000000000026
 40
0.3437500000000024
 40
0.3437500000000024
 40
0.3750000000000022
 40
0.3750000000000022
 40
0.4062500000000021
 40
0.4062500000000021
 40
0.4375000000000019
 40
0.4375000000000019
 40
0.4687500000000018
 40
0.4687500000000018
 40
0.5000000000000017
 40
0.5000000000000017
 40
0.5312500000000016
 40
0.5312500000000016
 40
0.5625000000000013
 40
0.5625000000000013
 40
0.5937500000000012
 40
0.5937500000000012
 40
0.6250000000000011
 40
0.6250000000000011
 40
0.6562500000000009
 40
0.6562500000000009
 40
0.6875000000000008
 40
0.6875000000000008
 40
0.7187500000000007
 40
0.7187500000000007
 40
0.7500000000000004
 40
0.7500000000000004
 40
0.7812500000000003
 40
0.7812500000000003
 40
0.8125000000000002
 40
0.8125000000000002
 40
0.8437500000000001
 40
0.8437500000000001
 40
0.8749999999999999
 40
0.8749999999999999
 40
0.9062499999999998
 40
0.9062499999999998
 40
0.9374999999999997
 40
0.9374999999999997
 40
1.0
 40
1.0
 40
1.0
 40
1.0
 10
224.1475833634323
 20
112.0292828201565
 30
0.0
 10
224.4242201648415
 20
112.2309148053266
 30
0.0
 10
224.6688547179919
 20
112.4267342227857
 30
0.0
 10
224.9881186937082
 20
112.6891853083759
 30
0.0
 10
225.0868509096519
 20
112.7719644100862
 30
0.0
 10
225.2595492688669
 20
112.9182628132703
 30
0.0
 10
225.3344323614959
 20
112.9825397251632
 30
0.0
 10
225.458444921453
 20
113.0895827962219
 30
0.0
 10
225.5066996534865
 20
113.131597869948
 30
0.0
 10
225.5704398882039
 20
113.1871905236987
 30
0.0
 10
225.5867071058193
 20
113.2014476803458
 30
0.0
 10
225.5853112364838
 20
113.2002262964258
 30
0.0
 10
225.5675732595841
 20
113.1846818565287
 30
0.0
 10
225.500616106116
 20
113.1263016272087
 30
0.0
 10
225.4505693599391
 20
113.0827493013002
 30
0.0
 10
225.2608839595642
 20
112.9191349265189
 30
0.0
 10
225.0793621079075
 20
112.763869827836
 30
0.0
 10
224.7583857765598
 20
112.5005134697253
 30
0.0
 10
224.6428837461143
 20
112.4073400626241
 30
0.0
 10
224.3950302040461
 20
112.2134165883053
 30
0.0
 10
224.2624364127184
 20
112.1125008780874
 30
0.0
 10
223.9859830400381
 20
111.9120832135796
 30
0.0
 10
223.8413738498515
 20
111.8118725730389
 30
0.0
 10
223.5361631536794
 20
111.6172711405609
 30
0.0
 10
223.3743131082652
 20
111.5220780711854
 30
0.0
 10
223.0348725142276
 20
111.3522976401002
 30
0.0
 10
222.8571196343841
 20
111.2773013672838
 30
0.0
 10
222.4780492022477
 20
111.1682719900385
 30
0.0
 10
222.2837450044454
 20
111.1370527225486
 30
0.0
 10
221.8825858568702
 20
111.1376462535413
 30
0.0
 10
221.6888510424853
 20
111.1694047737385
 30
0.0
 10
221.3117816577345
 20
111.2785696459438
 30
0.0
 10
221.1330165817672
 20
111.3542095152341
 30
0.0
 10
220.7956716129941
 20
111.5232947659641
 30
0.0
 10
220.634456070073
 20
111.6181204809022
 30
0.0
 10
220.3282287470297
 20
111.8135110020498
 30
0.0
 10
220.1839433652178
 20
111.9136023117921
 30
0.0
 10
219.9092899425436
 20
112.11277228396
 30
0.0
 10
219.7789754030528
 20
112.2119280322331
 30
0.0
 10
219.5314494932377
 20
112.4055300224521
 30
0.0
 10
219.413921623151
 20
112.5003113833165
 30
0.0
 10
219.1994443911677
 20
112.676286801351
 30
0.0
 10
219.1015718885134
 20
112.7582153684545
 30
0.0
 10
218.9262261372225
 20
112.9065510779944
 30
0.0
 10
218.8485351103205
 20
112.9731703288061
 30
0.0
 10
218.7223711027557
 20
113.081987727251
 30
0.0
 10
218.6729653170261
 20
113.124977942789
 30
0.0
 10
218.6047722268707
 20
113.1844320584639
 30
0.0
 10
218.587103189459
 20
113.1999171393556
 30
0.0
 10
218.5850531460379
 20
113.2017109216291
 30
0.0
 10
218.6009338878225
 20
113.1877909649188
 30
0.0
 10
218.6650520872167
 20
113.1318667283734
 30
0.0
 10
218.7126038270196
 20
113.0904614921006
 30
0.0
 10
218.8362931633566
 20
112.9836877667985
 30
0.0
 10
218.9123096664585
 20
112.9184348100061
 30
0.0
 10
219.0851928908831
 20
112.7719783316145
 30
0.0
 10
219.1832072061417
 20
112.6897901588396
 30
0.0
 10
219.5045364328795
 20
112.4256398995534
 30
0.0
 10
219.7489311441885
 20
112.2301201866843
 30
0.0
 10
220.0244777378145
 20
112.0292828201565
 30
0.0
  0
SPLINE
  5
127
330
1F
100
AcDbEntity
  8
0
  6
HIDDEN
 62
     7
370
     0
100
AcDbSpline
210
0.0
220
0.0
230
1.0
 70
     8
 71
     3
 72
    26
 73
    22
 74
     0
 42
0.00000001
 43
0.00000001
 12
1.0
 22
0.0
 32
0.0
 13
1.0
 23
0.0
 33
0.0
 40
0.0
 40
0.0
 40
0.0
 40
0.0
 40
0.125000000000001
 40
0.125000000000001
 40
0.250000000000002
 40
0.250000000000002
 40
0.3125000000000018
 40
0.3125000000000018
 40
0.3750000000000017
 40
0.3750000000000017
 40
0.4375000000000015
 40
0.4375000000000015
 40
0.5000000000000013
 40
0.5000000000000013
 40
0.625000000000001
 40
0.625000000000001
 40
0.7500000000000007
 40
0.7500000000000007
 40
0.8750000000000003
 40
0.8750000000000003
 40
1.0
 40
1.0
 40
1.0
 40
1.0
 10
210.0244777378146
 20
112.0292828201565
 30
0.0
 10
209.8205518643744
 20
111.8806475753885
 30
0.0
 10
209.6310621862928
 20
111.7091703308764
 30
0.0
 10
209.2852871678759
 20
111.3161212778735
 30
0.0
 10
209.1329916830771
 20
111.0994206387089
 30
0.0
 10
208.9384833651014
 20
110.7376359543292
 30
0.0
 10
208.8790838938451
 20
110.6098842190044
 30
0.0
 10
208.7761624944804
 20
110.3474339485824
 30
0.0
 10
208.7322702836029
 20
110.2122905981504
 30
0.0
 10
208.660559080891
 20
109.9335587056238
 30
0.0
 10
208.6325885516565
 20
109.7885879804986
 30
0.0
 10
208.5954213150707
 20
109.4963858018941
 30
0.0
 10
208.5861308097717
 20
109.3499652333251
 30
0.0
 10
208.5858324440822
 20
108.9097532800849
 30
0.0
 10
208.6240036072051
 20
108.6115199685466
 30
0.0
 10
208.7669097579416
 20
108.053517768076
 30
0.0
 10
208.8727254248569
 20
107.7867595641775
 30
0.0
 10
209.1317763969823
 20
107.3041796304642
 30
0.0
 10
209.2875209172755
 20
107.0828900047121
 30
0.0
 10
209.6307270937037
 20
106.693083821943
 30
0.0
 10
209.8187458282383
 20
106.5223801791609
 30
0.0
 10
210.0244777378146
 20
106.3724285706641
 30
0.0
  0
SPLINE
  5
128
330
1F
100
AcDbEntity
  8
0
  6
HIDDEN
 62
     7
370
     0
100
AcDbSpline
210
0.0
220
0.0
230
1.0
 70
     8
 71
     3
 72
    60
 73
    56
 74
     0
 42
0.00000001
 43
0.00000001
 12
1.0
 22
0.0
 32
0.0
 13
1.0
 23
0.0
 33
0.0
 40
0.0
 40
0.0
 40
0.0
 40
0.0
 40
0.0312499999999998
 40
0.0312499999999998
 40
0.0624999999999996
 40
0.0624999999999996
 40
0.0937499999999994
 40
0.0937499999999994
 40
0.1249999999999993
 40
0.1249999999999993
 40
0.156249999999999
 40
0.156249999999999
 40
0.1874999999999988
 40
0.1874999999999988
 40
0.2187499999999986
 40
0.2187499999999986
 40
0.2499999999999984
 40
0.2499999999999984
 40
0.3124999999999983
 40
0.3124999999999983
 40
0.3749999999999982
 40
0.3749999999999982
 40
0.4062499999999981
 40
0.4062499999999981
 40
0.4374999999999981
 40
0.4374999999999981
 40
0.4687499999999979
 40
0.4687499999999979
 40
0.4999999999999979
 40
0.4999999999999979
 40
0.5312499999999978
 40
0.5312499999999978
 40
0.5624999999999978
 40
0.5624999999999978
 40
0.6249999999999976
 40
0.6249999999999976
 40
0.6874999999999974
 40
0.6874999999999974
 40
0.7187499999999977
 40
0.7187499999999977
 40
0.7499999999999979
 40
0.7499999999999979
 40
0.7812499999999982
 40
0.7812499999999982
 40
0.8124999999999984
 40
0.8124999999999984
 40
0.8437499999999987
 40
0.8437499999999987
 40
0.874999999999999
 40
0.874999999999999
 40
0.9374999999999991
 40
0.9374999999999991
 40
0.9687499999999996
 40
0.9687499999999996
 40
1.0
 40
1.0
 40
1.0
 40
1.0
 10
210.0244777378146
 20
106.3724285706641
 30
0.0
 10
209.8879225553081
 20
106.2728977331408
 30
0.0
 10
209.7583259978718
 20
106.173911773608
 30
0.0
 10
209.5122456155247
 20
105.980832417082
 30
0.0
 10
209.3956833153144
 20
105.8865968006379
 30
0.0
 10
209.183255365503
 20
105.7119522071502
 30
0.0
 10
209.0864221019009
 20
105.6307668553782
 30
0.0
 10
208.9133076616445
 20
105.4841294463673
 30
0.0
 10
208.8370171748547
 20
105.4186446034412
 30
0.0
 10
208.7138274849042
 20
105.3123101646577
 30
0.0
 10
208.6659544971743
 20
105.2706307028609
 30
0.0
 10
208.6010903773035
 20
105.214057946301
 30
0.0
 10
208.5853094120998
 20
105.2002247002871
 30
0.0
 10
208.5868021586144
 20
105.2015308512802
 30
0.0
 10
208.6045457543814
 20
105.2170806397392
 30
0.0
 10
208.6719874618892
 20
105.2758821261418
 30
0.0
 10
208.7210977067216
 20
105.3186211731683
 30
0.0
 10
208.9112310835235
 20
105.4826250646976
 30
0.0
 10
209.0916136448524
 20
105.6369679501806
 30
0.0
 10
209.5233782042835
 20
105.9911905566096
 30
0.0
 10
209.7692344801104
 20
106.1873701160737
 30
0.0
 10
210.1851408807124
 20
106.4889800781842
 30
0.0
 10
210.33152923782
 20
106.5904010974794
 30
0.0
 10
210.6364718407297
 20
106.7847806128314
 30
0.0
 10
210.7957363486597
 20
106.8784928911007
 30
0.0
 10
211.1345013613511
 20
107.0482020620413
 30
0.0
 10
211.3148921559394
 20
107.1242361038331
 30
0.0
 10
211.6903268474516
 20
107.2325376507157
 30
0.0
 10
211.8901757348341
 20
107.2644537992434
 30
0.0
 10
212.2836566796604
 20
107.2642738403138
 30
0.0
 10
212.4831794177184
 20
107.232220563678
 30
0.0
 10
212.8580807863983
 20
107.1238726367851
 30
0.0
 10
213.0366855071451
 20
107.0486323875354
 30
0.0
 10
213.5470537701074
 20
106.7929790103879
 30
0.0
 10
213.8464376570784
 20
106.5908015524341
 30
0.0
 10
214.4023461020707
 20
106.1877730243429
 30
0.0
 10
214.6491307474926
 20
105.9908068341996
 30
0.0
 10
214.9711046931978
 20
105.7266816099342
 30
0.0
 10
215.0709623486313
 20
105.6430987586045
 30
0.0
 10
215.2462358626096
 20
105.4948181623385
 30
0.0
 10
215.3224464373166
 20
105.4294691530736
 30
0.0
 10
215.4493497169931
 20
105.3200201571598
 30
0.0
 10
215.4994301968689
 20
105.2764416209097
 30
0.0
 10
215.5666907182016
 20
105.2178011031012
 30
0.0
 10
215.5847501444639
 20
105.2019760460372
 30
0.0
 10
215.5871806789301
 20
105.1998493376561
 30
0.0
 10
215.5712796488569
 20
105.2137864661007
 30
0.0
 10
215.5078974867757
 20
105.2690707201984
 30
0.0
 10
215.4596248173264
 20
105.3111041384697
 30
0.0
 10
215.2744132029669
 20
105.4709898089035
 30
0.0
 10
215.0954232692755
 20
105.6242818727998
 30
0.0
 10
214.7773812418305
 20
105.8857799064671
 30
0.0
 10
214.6628228151744
 20
105.9784255487228
 30
0.0
 10
214.416904173719
 20
106.1714713483072
 30
0.0
 10
214.2850678000254
 20
106.2722204286561
 30
0.0
 10
214.1475833634322
 20
106.3724285706641
 30
0.0
  0
SPLINE
  5
129
330
1F
100
AcDbEntity
  8
0
  6
HIDDEN
 62
     7
370
     0
100
AcDbSpline
210
0.0
220
0.0
230
1.0
 70
     8
 71
     3
 72
    24
 73
    20
 74
     0
 42
0.00000001
 43
0.00000001
 12
1.0
 22
0.0
 32
0.0
 13
1.0
 23
0.0
 33
0.0
 40
0.0
 40
0.0
 40
0.0
 40
0.0
 40
0.1250000000000001
 40
0.1250000000000001
 40
0.2500000000000002
 40
0.2500000000000002
 40
0.3125000000000002
 40
0.3125000000000002
 40
0.3750000000000001
 40
0.3750000000000001
 40
0.5000000000000001
 40
0.5000000000000001
 40
0.6250000000000001
 40
0.6250000000000001
 40
0.75
 40
0.75
 40
0.875
 40
0.875
 40
1.0
 40
1.0
 40
1.0
 40
1.0
 10
214.1475833634323
 20
106.3724285706641
 30
0.0
 10
214.3540838208757
 20
106.5229403498661
 30
0.0
 10
214.5426029751258
 20
106.6944129090359
 30
0.0
 10
214.8845983023512
 20
107.0830686293475
 30
0.0
 10
215.040131125503
 20
107.3039904184279
 30
0.0
 10
215.2342340874573
 20
107.6654350650787
 30
0.0
 10
215.292522674627
 20
107.7908326547275
 30
0.0
 10
215.3952660661091
 20
108.0525016473913
 30
0.0
 10
215.440027802201
 20
108.190120330126
 30
0.0
 10
215.5478871174506
 20
108.6100229952153
 30
0.0
 10
215.5856289530747
 20
108.8984233181984
 30
0.0
 10
215.5864258799371
 20
109.4939202953627
 30
0.0
 10
215.5490748960067
 20
109.7854334310611
 30
0.0
 10
215.4052924788672
 20
110.3484216058579
 30
0.0
 10
215.3009589424823
 20
110.6116002108258
 30
0.0
 10
215.0405155025543
 20
111.0974271602829
 30
0.0
 10
214.8867330876292
 20
111.3158798941998
 30
0.0
 10
214.5444108706652
 20
111.7055768903313
 30
0.0
 10
214.3528517814854
 20
111.8796690362566
 30
0.0
 10
214.1475833634323
 20
112.0292828201565
 30
0.0
  0
SPLINE
  5
12A
330
1F
100
AcDbEntity
  8
0
  6
HIDDEN
 62
     7
370
     0
100
AcDbSpline
210
0.0
220
0.0
230
1.0
 70
     8
 71
     3
 72
    64
 73
    60
 74
     0
 42
0.00000001
 43
0.00000001
 12
1.0
 22
0.0
 32
0.0
 13
1.0
 23
0.0
 33
0.0
 40
0.0
 40
0.0
 40
0.0
 40
0.0
 40
0.0624999999999993
 40
0.0624999999999993
 40
0.0937499999999993
 40
0.0937499999999993
 40
0.1249999999999992
 40
0.1249999999999992
 40
0.1562499999999991
 40
0.1562499999999991
 40
0.1874999999999991
 40
0.1874999999999991
 40
0.218749999999999
 40
0.218749999999999
 40
0.249999999999999
 40
0.249999999999999
 40
0.3124999999999985
 40
0.3124999999999985
 40
0.3437499999999986
 40
0.3437499999999986
 40
0.3749999999999987
 40
0.3749999999999987
 40
0.4062499999999988
 40
0.4062499999999988
 40
0.4374999999999989
 40
0.4374999999999989
 40
0.468749999999999
 40
0.468749999999999
 40
0.4999999999999991
 40
0.4999999999999991
 40
0.5312499999999992
 40
0.5312499999999992
 40
0.5624999999999993
 40
0.5624999999999993
 40
0.5937499999999994
 40
0.5937499999999994
 40
0.6249999999999994
 40
0.6249999999999994
 40
0.6562499999999996
 40
0.6562499999999996
 40
0.6874999999999997
 40
0.6874999999999997
 40
0.7187499999999998
 40
0.7187499999999998
 40
0.7499999999999999
 40
0.7499999999999999
 40
0.78125
 40
0.78125
 40
0.8125000000000001
 40
0.8125000000000001
 40
0.8437500000000002
 40
0.8437500000000002
 40
0.8750000000000002
 40
0.8750000000000002
 40
0.9062500000000003
 40
0.9062500000000003
 40
0.9375000000000004
 40
0.9375000000000004
 40
1.0
 40
1.0
 40
1.0
 40
1.0
 10
214.1475833634323
 20
112.0292828201565
 30
0.0
 10
214.4242201648415
 20
112.2309148053266
 30
0.0
 10
214.6688547179919
 20
112.4267342227857
 30
0.0
 10
214.9881186937082
 20
112.6891853083759
 30
0.0
 10
215.0868509096519
 20
112.7719644100862
 30
0.0
 10
215.2595492688669
 20
112.9182628132703
 30
0.0
 10
215.3344323614959
 20
112.9825397251632
 30
0.0
 10
215.458444921453
 20
113.0895827962219
 30
0.0
 10
215.5066996534865
 20
113.131597869948
 30
0.0
 10
215.5704398882038
 20
113.1871905236987
 30
0.0
 10
215.5867071058193
 20
113.2014476803458
 30
0.0
 10
215.5853112364838
 20
113.2002262964258
 30
0.0
 10
215.5675732595841
 20
113.1846818565287
 30
0.0
 10
215.5006161061161
 20
113.1263016272087
 30
0.0
 10
215.4505693599391
 20
113.0827493013002
 30
0.0
 10
215.2608839595641
 20
112.9191349265189
 30
0.0
 10
215.0793621079076
 20
112.763869827836
 30
0.0
 10
214.7583857765598
 20
112.5005134697253
 30
0.0
 10
214.6428837461143
 20
112.4073400626241
 30
0.0
 10
214.3950302040461
 20
112.2134165883053
 30
0.0
 10
214.2624364127185
 20
112.1125008780874
 30
0.0
 10
213.9859830400381
 20
111.9120832135796
 30
0.0
 10
213.8413738498515
 20
111.8118725730389
 30
0.0
 10
213.5361631536794
 20
111.6172711405609
 30
0.0
 10
213.3743131082652
 20
111.5220780711854
 30
0.0
 10
213.0348725142276
 20
111.3522976401002
 30
0.0
 10
212.857119634384
 20
111.2773013672838
 30
0.0
 10
212.4780492022478
 20
111.1682719900385
 30
0.0
 10
212.2837450044454
 20
111.1370527225486
 30
0.0
 10
211.8825858568702
 20
111.1376462535413
 30
0.0
 10
211.6888510424853
 20
111.1694047737385
 30
0.0
 10
211.3117816577345
 20
111.2785696459438
 30
0.0
 10
211.1330165817673
 20
111.3542095152341
 30
0.0
 10
210.7956716129941
 20
111.5232947659641
 30
0.0
 10
210.634456070073
 20
111.6181204809022
 30
0.0
 10
210.3282287470297
 20
111.8135110020498
 30
0.0
 10
210.1839433652178
 20
111.9136023117921
 30
0.0
 10
209.9092899425436
 20
112.11277228396
 30
0.0
 10
209.7789754030528
 20
112.2119280322331
 30
0.0
 10
209.5314494932377
 20
112.4055300224521
 30
0.0
 10
209.413921623151
 20
112.5003113833165
 30
0.0
 10
209.1994443911677
 20
112.676286801351
 30
0.0
 10
209.1015718885134
 20
112.7582153684545
 30
0.0
 10
208.9262261372225
 20
112.9065510779944
 30
0.0
 10
208.8485351103205
 20
112.9731703288061
 30
0.0
 10
208.7223711027557
 20
113.081987727251
 30
0.0
 10
208.6729653170261
 20
113.124977942789
 30
0.0
 10
208.6047722268707
 20
113.1844320584639
 30
0.0
 10
208.587103189459
 20
113.1999171393556
 30
0.0
 10
208.5850531460379
 20
113.2017109216291
 30
0.0
 10
208.6009338878225
 20
113.1877909649188
 30
0.0
 10
208.6650520872168
 20
113.1318667283733
 30
0.0
 10
208.7126038270197
 20
113.0904614921006
 30
0.0
 10
208.8362931633565
 20
112.9836877667985
 30
0.0
 10
208.9123096664585
 20
112.9184348100061
 30
0.0
 10
209.085192890883
 20
112.7719783316145
 30
0.0
 10
209.1832072061417
 20
112.6897901588396
 30
0.0
 10
209.5045364328795
 20
112.4256398995534
 30
0.0
 10
209.7489311441885
 20
112.2301201866843
 30
0.0
 10
210.0244777378146
 20
112.0292828201565
 30
0.0
  0
LINE
  5
12B
330
1F
100
AcDbEntity
  8
0
  6
HIDDEN
 62
     7
370
     0
100
AcDbLine
 10
141.086030342
 20
121.8194830946
 30
0.0
 11
141.086030342
 21
122.7323608256
 31
0.0
  0
SPLINE
  5
12C
330
1F
100
AcDbEntity
  8
0
  6
HIDDEN
 62
     7
370
     0
100
AcDbSpline
210
0.0
220
0.0
230
1.0
 70
     8
 71
     3
 72
    24
 73
    20
 74
     0
 42
0.00000001
 43
0.00000001
 12
1.0
 22
0.0
 32
0.0
 13
1.0
 23
0.0
 33
0.0
 40
0.0
 40
0.0
 40
0.0
 40
0.0
 40
0.2500000000000043
 40
0.2500000000000043
 40
0.375000000000006
 40
0.375000000000006
 40
0.4375000000000064
 40
0.4375000000000064
 40
0.5000000000000068
 40
0.5000000000000068
 40
0.5312500000000062
 40
0.5312500000000062
 40
0.5625000000000056
 40
0.5625000000000056
 40
0.6250000000000043
 40
0.6250000000000043
 40
0.7500000000000031
 40
0.7500000000000031
 40
1.0
 40
1.0
 40
1.0
 40
1.0
 10
163.5909905726843
 20
123.3642267413149
 30
0.0
 10
163.5752215277745
 20
123.3986577693656
 30
0.0
 10
163.5586073632139
 20
123.4329983210366
 30
0.0
 10
163.5300752357205
 20
123.4865471042828
 30
0.0
 10
163.5199876021666
 20
123.5047239638215
 30
0.0
 10
163.5024997793177
 20
123.5338015685287
 30
0.0
 10
163.4962899713913
 20
123.5437857693297
 30
0.0
 10
163.482012111809
 20
123.565304997586
 30
0.0
 10
163.4744409494572
 20
123.5764886090242
 30
0.0
 10
163.4570211242828
 20
123.5980243825171
 30
0.0
 10
163.4485370418281
 20
123.6077292422038
 30
0.0
 10
163.4325009682107
 20
123.6222108300626
 30
0.0
 10
163.4276805959328
 20
123.6250585674109
 30
0.0
 10
163.416273695327
 20
123.6309018861546
 30
0.0
 10
163.4122527336176
 20
123.6309456604328
 30
0.0
 10
163.4014987218383
 20
123.6295090705805
 30
0.0
 10
163.3976268362156
 20
123.624993912312
 30
0.0
 10
163.3884588714148
 20
123.6083218732871
 30
0.0
 10
163.3864305369016
 20
123.5921376982421
 30
0.0
 10
163.3860305506234
 20
123.5735717103075
 30
0.0
  0
SPLINE
  5
12D
330
1F
100
AcDbEntity
  8
0
  6
HIDDEN
 62
     7
370
     0
100
AcDbSpline
210
0.0
220
0.0
230
1.0
 70
     8
 71
     3
 72
     8
 73
     4
 74
     0
 42
0.00000001
 43
0.00000001
 12
1.0
 22
0.0
 32
0.0
 13
1.0
 23
0.0
 33
0.0
 40
0.0
 40
0.0
 40
0.0
 40
0.0
 40
1.0
 40
1.0
 40
1.0
 40
1.0
 10
163.7647102070638
 20
122.9871622063193
 30
0.0
 10
163.6996049683936
 20
123.1276341211441
 30
0.0
 10
163.6417176554065
 20
123.2534663485239
 30
0.0
 10
163.5909905726841
 20
123.364226741315
 30
0.0
  0
ARC
  5
12E
330
1F
100
AcDbEntity
  8
0
  6
HIDDEN
 62
     7
370
     0
100
AcDbCircle
 10
202.0860305506
 20
109.2008556954
 30
0.0
 40
3.500000000000022
100
AcDbArc
 50
233.9128529343
 51
306.0871470657
  0
ARC
  5
12F
330
1F
100
AcDbEntity
  8
0
  6
HIDDEN
 62
     7
370
     0
100
AcDbCircle
 10
212.0860305506
 20
109.2008556954
 30
0.0
 40
3.500000000000005
100
AcDbArc
 50
233.9128529343
 51
306.0871470657
  0
ARC
  5
130
330
1F
100
AcDbEntity
  8
0
  6
HIDDEN
 62
     7
370
     0
100
AcDbCircle
 10
222.0860305506
 20
109.2008556954
 30
0.0
 40
3.500000000000005
100
AcDbArc
 50
233.9128529343
 51
306.0871470657
  0
ARC
  5
131
330
1F
100
AcDbEntity
  8
0
  6
HIDDEN
 62
     7
370
     0
100
AcDbCircle
 10
222.0860305506
 20
109.2008556954
 30
0.0
 40
3.50000000000001
100
AcDbArc
 50
53.9128529343
 51
126.0871470657
  0
ARC
  5
132
330
1F
100
AcDbEntity
  8
0
  6
HIDDEN
 62
     7
370
     0
100
AcDbCircle
 10
212.0860305506
 20
109.2008556954
 30
0.0
 40
3.499999999999999
100
AcDbArc
 50
53.9128529343
 51
126.0871470657
  0
ARC
  5
133
330
1F
100
AcDbEntity
  8
0
  6
HIDDEN
 62
     7
370
     0
100
AcDbCircle
 10
202.0860305506
 20
109.2008556954
 30
0.0
 40
3.500000000000016
100
AcDbArc
 50
53.9128529343
 51
126.0871470657
  0
LINE
  5
134
330
1F
100
AcDbEntity
  8
0
  6
HIDDEN
 62
     7
370
     0
100
AcDbLine
 10
151.2860307101
 20
96.6591331891
 30
0.0
 11
155.8860303465
 21
96.6591331891
 31
0.0
  0
LINE
  5
135
330
1F
100
AcDbEntity
  8
0
  6
HIDDEN
 62
     7
370
     0
100
AcDbLine
 10
145.2860306579
 20
96.7097086615
 30
0.0
 11
145.2860306579
 21
98.200855755
 31
0.0
  0
SPLINE
  5
136
330
1F
100
AcDbEntity
  8
0
  6
HIDDEN
 62
     7
370
     0
100
AcDbSpline
210
0.0
220
0.0
230
1.0
 70
     8
 71
     3
 72
    10
 73
     6
 74
     0
 42
0.00000001
 43
0.00000001
 12
1.0
 22
0.0
 32
0.0
 13
1.0
 23
0.0
 33
0.0
 40
0.0
 40
0.0
 40
0.0
 40
0.0
 40
0.5
 40
0.5
 40
1.0
 40
1.0
 40
1.0
 40
1.0
 10
142.5860305506234
 20
96.77306137782504
 30
0.0
 10
142.3258134280854
 20
96.91312765394129
 30
0.0
 10
142.0697788588352
 20
97.04930390769577
 30
0.0
 10
141.5685152701025
 20
97.31293262574533
 30
0.0
 10
141.3231725113392
 20
97.44043882220693
 30
0.0
 10
141.0860305506234
 20
97.56236132609938
 30
0.0
  0
LINE
  5
137
330
1F
100
AcDbEntity
  8
0
  6
HIDDEN
 62
     7
370
     0
100
AcDbLine
 10
141.086030342
 20
97.562361487
 30
0.0
 11
141.086030342
 21
98.200855755
 31
0.0
  0
LINE
  5
138
330
1F
100
AcDbEntity
  8
0
  6
HIDDEN
 62
     7
370
     0
100
AcDbLine
 10
151.2860307101
 20
120.2008556358
 30
0.0
 11
155.8860303465
 21
120.2008556358
 31
0.0
  0
LINE
  5
139
330
1F
100
AcDbEntity
  8
0
  6
HIDDEN
 62
     7
370
     0
100
AcDbLine
 10
175.0860303271
 20
89.7008552931
 30
0.0
 11
179.0860309828
 21
89.7008552931
 31
0.0
  0
LINE
  5
13A
330
1F
100
AcDbEntity
  8
0
  6
HIDDEN
 62
     7
370
     0
100
AcDbLine
 10
141.086030342
 20
99.9410738952
 30
0.0
 11
141.086030342
 21
97.562361487
 31
0.0
  0
LINE
  5
13B
330
1F
100
AcDbEntity
  8
0
  6
HIDDEN
 62
     7
370
     0
100
AcDbLine
 10
141.086030342
 20
121.8194830946
 30
0.0
 11
141.086030342
 21
105.8420098636
 31
0.0
  0
LINE
  5
13C
330
1F
100
AcDbEntity
  8
0
  6
HIDDEN
 62
     7
370
     0
100
AcDbLine
 10
142.5860296566
 20
122.5694827519
 30
0.0
 11
142.5860296566
 21
105.8420098636
 31
0.0
  0
LINE
  5
13D
330
1F
100
AcDbEntity
  8
0
  6
HIDDEN
 62
     7
370
     0
100
AcDbLine
 10
163.3860305281
 20
123.0220403306
 30
0.0
 11
163.3860305281
 21
105.8420098636
 31
0.0
  0
LINE
  5
13E
330
1F
100
AcDbEntity
  8
0
  6
HIDDEN
 62
     7
370
     0
100
AcDbLine
 10
164.8860305557
 20
122.1705553837
 30
0.0
 11
164.8860305557
 21
107.4838607821
 31
0.0
  0
LINE
  5
13F
330
1F
100
AcDbEntity
  8
0
  6
HIDDEN
 62
     7
370
     0
100
AcDbLine
 10
141.086030342
 20
105.8420098636
 30
0.0
 11
141.086030342
 21
99.9410738952
 31
0.0
  0
LINE
  5
140
330
1F
100
AcDbEntity
  8
0
  6
HIDDEN
 62
     7
370
     0
100
AcDbLine
 10
142.5860296566
 20
105.8420098636
 30
0.0
 11
142.5860296566
 21
99.1910742379
 31
0.0
  0
LINE
  5
141
330
1F
100
AcDbEntity
  8
0
  6
HIDDEN
 62
     7
370
     0
100
AcDbLine
 10
163.3860305281
 20
99.4630148418
 30
0.0
 11
163.3860305281
 21
98.7385166592
 31
0.0
  0
SPLINE
  5
142
330
1F
100
AcDbEntity
  8
0
  6
HIDDEN
 62
     7
370
     0
100
AcDbSpline
210
0.0
220
0.0
230
1.0
 70
     8
 71
     3
 72
     8
 73
     4
 74
     0
 42
0.00000001
 43
0.00000001
 12
1.0
 22
0.0
 32
0.0
 13
1.0
 23
0.0
 33
0.0
 40
0.0
 40
0.0
 40
0.0
 40
0.0
 40
1.0
 40
1.0
 40
1.0
 40
1.0
 10
163.59099057269
 20
99.56743428383963
 30
0.0
 10
163.6417177158945
 20
99.37742498443663
 30
0.0
 10
163.6996050454524
 20
99.2022220940092
 30
0.0
 10
163.7647102070638
 20
99.0414489265625
 30
0.0
  0
SPLINE
  5
143
330
1F
100
AcDbEntity
  8
0
  6
HIDDEN
 62
     7
370
     0
100
AcDbSpline
210
0.0
220
0.0
230
1.0
 70
     8
 71
     3
 72
    24
 73
    20
 74
     0
 42
0.00000001
 43
0.00000001
 12
1.0
 22
0.0
 32
0.0
 13
1.0
 23
0.0
 33
0.0
 40
0.0
 40
0.0
 40
0.0
 40
0.0
 40
0.2499999999999942
 40
0.2499999999999942
 40
0.3749999999999945
 40
0.3749999999999945
 40
0.4374999999999936
 40
0.4374999999999936
 40
0.4687499999999944
 40
0.4687499999999944
 40
0.4999999999999953
 40
0.4999999999999953
 40
0.5624999999999973
 40
0.5624999999999973
 40
0.6249999999999993
 40
0.6249999999999993
 40
0.7500000000000007
 40
0.7500000000000007
 40
1.0
 40
1.0
 40
1.0
 40
1.0
 10
163.3860305506198
 20
99.46301503238419
 30
0.0
 10
163.3864352201956
 20
99.53472477715174
 30
0.0
 10
163.38847866701
 20
99.60816609494715
 30
0.0
 10
163.3978782322643
 20
99.72287564140055
 30
0.0
 10
163.401829125793
 20
99.7616535251078
 30
0.0
 10
163.41298143409
 20
99.82261496576976
 30
0.0
 10
163.4172029750165
 20
99.84346514173114
 30
0.0
 10
163.4294106965801
 20
99.87541431996722
 30
0.0
 10
163.4352014668324
 20
99.88793500135696
 30
0.0
 10
163.4521229799422
 20
99.90080805303778
 30
0.0
 10
163.459529095892
 20
99.89817371560756
 30
0.0
 10
163.4759863491351
 20
99.88769608317004
 30
0.0
 10
163.4834428670461
 20
99.87563984264185
 30
0.0
 10
163.4973507963207
 20
99.85135267052306
 30
0.0
 10
163.5034427422157
 20
99.83832250230938
 30
0.0
 10
163.5206370345668
 20
99.79820306832201
 30
0.0
 10
163.5306219847703
 20
99.7700288242671
 30
0.0
 10
163.5588680298692
 20
99.68454762800502
 30
0.0
 10
163.5753475668303
 20
99.6260284879736
 30
0.0
 10
163.59099057269
 20
99.56743428383966
 30
0.0
  0
SPLINE
  5
144
330
1F
100
AcDbEntity
  8
0
  6
HIDDEN
 62
     7
370
     0
100
AcDbSpline
210
0.0
220
0.0
230
1.0
 70
     8
 71
     3
 72
    16
 73
    12
 74
     0
 42
0.00000001
 43
0.00000001
 12
1.0
 22
0.0
 32
0.0
 13
1.0
 23
0.0
 33
0.0
 40
0.0
 40
0.0
 40
0.0
 40
0.0
 40
0.2500000000000003
 40
0.2500000000000003
 40
0.3750000000000002
 40
0.3750000000000002
 40
0.5000000000000001
 40
0.5000000000000001
 40
0.75
 40
0.75
 40
1.0
 40
1.0
 40
1.0
 40
1.0
 10
163.3860305506232
 20
104.5659803435458
 30
0.0
 10
163.3054932187239
 20
104.0705658613078
 30
0.0
 10
163.2454558746967
 20
103.587401411926
 30
0.0
 10
163.184718167543
 20
102.8809062046488
 30
0.0
 10
163.1693957924301
 20
102.6484670150722
 30
0.0
 10
163.1488129831259
 20
102.1899064571867
 30
0.0
 10
163.1436133861002
 20
101.9633373399087
 30
0.0
 10
163.1435597329201
 20
101.3083188282251
 30
0.0
 10
163.1637572763978
 20
100.8992434779224
 30
0.0
 10
163.2444353647558
 20
100.1354099603486
 30
0.0
 10
163.3054815293632
 20
99.78010980688896
 30
0.0
 10
163.3860305506213
 20
99.46301503238492
 30
0.0
  0
SPLINE
  5
145
330
1F
100
AcDbEntity
  8
0
  6
HIDDEN
 62
     7
370
     0
100
AcDbSpline
210
0.0
220
0.0
230
1.0
 70
     8
 71
     3
 72
    24
 73
    20
 74
     0
 42
0.00000001
 43
0.00000001
 12
1.0
 22
0.0
 32
0.0
 13
1.0
 23
0.0
 33
0.0
 40
0.0
 40
0.0
 40
0.0
 40
0.0
 40
0.2499999999999934
 40
0.2499999999999934
 40
0.3749999999999916
 40
0.3749999999999916
 40
0.437499999999992
 40
0.437499999999992
 40
0.4999999999999925
 40
0.4999999999999925
 40
0.5312499999999931
 40
0.5312499999999931
 40
0.5624999999999937
 40
0.5624999999999937
 40
0.6249999999999963
 40
0.6249999999999963
 40
0.7499999999999976
 40
0.7499999999999976
 40
1.0
 40
1.0
 40
1.0
 40
1.0
 10
163.5909905726838
 20
104.6709060610521
 30
0.0
 10
163.5752239843854
 20
104.5774232884758
 30
0.0
 10
163.5586124514308
 20
104.4841051268074
 30
0.0
 10
163.5300861034728
 20
104.3444685658428
 30
0.0
 10
163.5200006696828
 20
104.297922421604
 30
0.0
 10
163.5025178991479
 20
104.2284565996268
 30
0.0
 10
163.4963102427024
 20
104.2053563236685
 30
0.0
 10
163.4820387424572
 20
104.1595498016197
 30
0.0
 10
163.4744686719542
 20
104.1362286425871
 30
0.0
 10
163.4570723425188
 20
104.1056653899911
 30
0.0
 10
163.4486130695588
 20
104.0951106699498
 30
0.0
 10
163.4325521050112
 20
104.0969209593944
 30
0.0
 10
163.4277188691649
 20
104.1059598362961
 30
0.0
 10
163.4162929494296
 20
104.1321575096941
 30
0.0
 10
163.4122715935472
 20
104.1524023401724
 30
0.0
 10
163.4015110985161
 20
104.2142320006963
 30
0.0
 10
163.3976367894552
 20
104.2571616887481
 30
0.0
 10
163.388463917328
 20
104.3872176323652
 30
0.0
 10
163.3864315466133
 20
104.4763087238009
 30
0.0
 10
163.3860305506234
 20
104.5659803435458
 30
0.0
  0
LINE
  5
146
330
1F
100
AcDbEntity
  8
0
  6
HIDDEN
 62
     7
370
     0
100
AcDbLine
 10
163.3860305281
 20
105.8420098636
 30
0.0
 11
163.3860305281
 21
104.5659803569
 31
0.0
  0
SPLINE
  5
147
330
1F
100
AcDbEntity
  8
0
  6
HIDDEN
 62
     7
370
     0
100
AcDbSpline
210
0.0
220
0.0
230
1.0
 70
     8
 71
     3
 72
     8
 73
     4
 74
     0
 42
0.00000001
 43
0.00000001
 12
1.0
 22
0.0
 32
0.0
 13
1.0
 23
0.0
 33
0.0
 40
0.0
 40
0.0
 40
0.0
 40
0.0
 40
1.0
 40
1.0
 40
1.0
 40
1.0
 10
163.7647102070638
 20
105.5739559533492
 30
0.0
 10
163.6996050454497
 20
105.2727110373283
 30
0.0
 10
163.6417177158898
 20
104.9716758853185
 30
0.0
 10
163.5909905726838
 20
104.6709060610521
 30
0.0
  0
CIRCLE
  5
148
330
1F
100
AcDbEntity
  8
0
  6
HIDDEN
 62
     7
370
     0
100
AcDbCircle
 10
202.0860305506
 20
109.2008556954
 30
0.0
 40
3.5
  0
CIRCLE
  5
149
330
1F
100
AcDbEntity
  8
0
  6
HIDDEN
 62
     7
370
     0
100
AcDbCircle
 10
212.0860305506
 20
109.2008556954
 30
0.0
 40
3.499999999999986
  0
CIRCLE
  5
14A
330
1F
100
AcDbEntity
  8
0
  6
HIDDEN
 62
     7
370
     0
100
AcDbCircle
 10
222.0860305506
 20
109.2008556954
 30
0.0
 40
3.499999999999986
  0
LINE
  5
14B
330
1F
100
AcDbEntity
  8
0
  6
HIDDEN
 62
     7
370
     0
100
AcDbLine
 10
165.0860305506
 20
93.4008564583
 30
0.0
 11
165.178923771
 21
93.4937484346
 31
0.0
  0
LINE
  5
14C
330
1F
100
AcDbEntity
  8
0
  6
HIDDEN
 62
     7
370
     0
100
AcDbLine
 10
165.178923771
 20
124.9079629562
 30
0.0
 11
165.0860305506
 21
125.0008549325
 31
0.0
  0
ARC
  5
14D
330
1F
100
AcDbEntity
  8
0
  6
HIDDEN
 62
     7
370
     0
100
AcDbCircle
 10
164.4718169883
 20
94.2008556954
 30
0.0
 40
1.0
100
AcDbArc
 50
315.0
 51
0.0
  0
ARC
  5
14E
330
1F
100
AcDbEntity
  8
0
  6
HIDDEN
 62
     7
370
     0
100
AcDbCircle
 10
164.4718169883
 20
94.2008556954
 30
0.0
 40
1.00000000000001
100
AcDbArc
 50
0.0
 51
52.1052014664
  0
ARC
  5
14F
330
1F
100
AcDbEntity
  8
0
  6
HIDDEN
 62
     7
370
     0
100
AcDbCircle
 10
164.4718169883
 20
124.2008556954
 30
0.0
 40
1.000000000000004
100
AcDbArc
 50
343.125
 51
45.0
  0
ARC
  5
150
330
1F
100
AcDbEntity
  8
0
  6
HIDDEN
 62
     7
370
     0
100
AcDbCircle
 10
164.4718169883
 20
124.2008556954
 30
0.0
 40
1.00000000000001
100
AcDbArc
 50
307.8947985336
 51
343.125
  0
LINE
  5
151
330
1F
100
AcDbEntity
  8
0
  6
HIDDEN
 62
     7
370
     0
100
AcDbLine
 10
165.4718169864
 20
94.2008560307
 30
0.0
 11
165.4718169864
 21
124.2008553601
 31
0.0
  0
LINE
  5
152
330
1F
100
AcDbEntity
  8
0
  6
HIDDEN
 62
     7
370
     0
100
AcDbLine
 10
165.4718169864
 20
94.2008560307
 30
0.0
 11
165.4718169864
 21
124.2008553601
 31
0.0
  0
LINE
  5
153
330
1F
100
AcDbEntity
  8
0
  6
HIDDEN
 62
     7
370
     0
100
AcDbLine
 10
141.086030342
 20
99.0452049084
 30
0.0
 11
142.113063075
 21
99.6381621591
 31
0.0
  0
LINE
  5
154
330
1F
100
AcDbEntity
  8
0
  6
HIDDEN
 62
     7
370
     0
100
AcDbLine
 10
142.113063075
 20
118.7635492317
 30
0.0
 11
141.086030342
 21
119.3565064825
 31
0.0
  0
ARC
  5
155
330
1F
100
AcDbEntity
  8
0
  6
HIDDEN
 62
     7
370
     0
100
AcDbCircle
 10
146.5860305506
 20
100.2008556954
 30
0.0
 40
1.000000000000004
100
AcDbArc
 50
193.3524261238
 51
270.0
  0
ARC
  5
156
330
1F
100
AcDbEntity
  8
0
  6
HIDDEN
 62
     7
370
     0
100
AcDbCircle
 10
146.5860305506
 20
118.2008556954
 30
0.0
 40
1.000000000000004
100
AcDbArc
 50
90.0
 51
166.6475738762
  0
LINE
  5
157
330
1F
100
AcDbEntity
  8
0
  6
HIDDEN
 62
     7
370
     0
100
AcDbLine
 10
146.5860303122
 20
99.2008559189
 30
0.0
 11
147.5988492
 21
99.2008559189
 31
0.0
  0
LINE
  5
158
330
1F
100
AcDbEntity
  8
0
  6
HIDDEN
 62
     7
370
     0
100
AcDbLine
 10
147.5988492
 20
119.2008554719
 30
0.0
 11
146.5860303122
 21
119.2008554719
 31
0.0
  0
ARC
  5
159
330
1F
100
AcDbEntity
  8
0
  6
HIDDEN
 62
     7
370
     0
100
AcDbCircle
 10
147.5988490203
 20
100.2008556954
 30
0.0
 40
1.0
100
AcDbArc
 50
270.0
 51
315.0
  0
ARC
  5
15A
330
1F
100
AcDbEntity
  8
0
  6
HIDDEN
 62
     7
370
     0
100
AcDbCircle
 10
147.5988490203
 20
118.2008556954
 30
0.0
 40
1.0
100
AcDbArc
 50
45.0
 51
90.0
  0
LINE
  5
15B
330
1F
100
AcDbEntity
  8
0
  6
HIDDEN
 62
     7
370
     0
100
AcDbLine
 10
148.3059558648
 20
99.4937484867
 30
0.0
 11
149.0130625296
 21
100.2008560828
 31
0.0
  0
LINE
  5
15C
330
1F
100
AcDbEntity
  8
0
  6
HIDDEN
 62
     7
370
     0
100
AcDbLine
 10
149.0130625296
 20
118.200855308
 30
0.0
 11
148.3059558648
 21
118.9079629041
 31
0.0
  0
LINE
  5
15D
330
1F
100
AcDbEntity
  8
0
  6
HIDDEN
 62
     7
370
     0
100
AcDbLine
 10
142.113063075
 20
99.6381621591
 30
0.0
 11
144.2130632329
 21
100.2008560828
 31
0.0
  0
LINE
  5
15E
330
1F
100
AcDbEntity
  8
0
  6
HIDDEN
 62
     7
370
     0
100
AcDbLine
 10
144.2130632329
 20
118.200855308
 30
0.0
 11
142.113063075
 21
118.7635492317
 31
0.0
  0
LINE
  5
15F
330
1F
100
AcDbEntity
  8
0
  6
HIDDEN
 62
     7
370
     0
100
AcDbLine
 10
145.6130627173
 20
118.4317953668
 30
0.0
 11
145.2130633968
 21
118.200855308
 31
0.0
  0
LINE
  5
160
330
1F
100
AcDbEntity
  8
0
  6
HIDDEN
 62
     7
370
     0
100
AcDbLine
 10
145.2130633968
 20
100.2008560828
 30
0.0
 11
145.6130627173
 21
99.969916024
 31
0.0
  0
LINE
  5
161
330
1F
100
AcDbEntity
  8
0
  6
HIDDEN
 62
     7
370
     0
100
AcDbLine
 10
149.0130625296
 20
100.2008560828
 30
0.0
 11
151.305048317
 21
100.2008560828
 31
0.0
  0
LINE
  5
162
330
1F
100
AcDbEntity
  8
0
  6
HIDDEN
 62
     7
370
     0
100
AcDbLine
 10
151.305048317
 20
118.200855308
 30
0.0
 11
149.0130625296
 21
118.200855308
 31
0.0
  0
LINE
  5
163
330
1F
100
AcDbEntity
  8
0
  6
HIDDEN
 62
     7
370
     0
100
AcDbLine
 10
144.2130632329
 20
100.2008560828
 30
0.0
 11
145.2130633968
 21
100.2008560828
 31
0.0
  0
LINE
  5
164
330
1F
100
AcDbEntity
  8
0
  6
HIDDEN
 62
     7
370
     0
100
AcDbLine
 10
145.2130633968
 20
118.200855308
 30
0.0
 11
144.2130632329
 21
118.200855308
 31
0.0
  0
ARC
  5
165
330
1F
100
AcDbEntity
  8
0
  6
HIDDEN
 62
     7
370
     0
100
AcDbCircle
 10
155.5860305506
 20
100.7008556954
 30
0.0
 40
0.5
100
AcDbArc
 50
305.4878521107
 51
0.0
  0
ARC
  5
166
330
1F
100
AcDbEntity
  8
0
  6
HIDDEN
 62
     7
370
     0
100
AcDbCircle
 10
155.5860305506
 20
117.7008556954
 30
0.0
 40
0.5
100
AcDbArc
 50
0.0
 51
54.5148009417
  0
LINE
  5
167
330
1F
100
AcDbEntity
  8
0
  6
HIDDEN
 62
     7
370
     0
100
AcDbLine
 10
156.0860309381
 20
102.0508557342
 30
0.0
 11
156.9860303405
 21
102.9508556023
 31
0.0
  0
LINE
  5
168
330
1F
100
AcDbEntity
  8
0
  6
HIDDEN
 62
     7
370
     0
100
AcDbLine
 10
156.9860303405
 20
115.4508557885
 30
0.0
 11
156.0860309381
 21
116.3508556567
 31
0.0
  0
LINE
  5
169
330
1F
100
AcDbEntity
  8
0
  6
HIDDEN
 62
     7
370
     0
100
AcDbLine
 10
156.9860303405
 20
102.9508556023
 30
0.0
 11
176.086030491
 21
102.9508556023
 31
0.0
  0
LINE
  5
16A
330
1F
100
AcDbEntity
  8
0
  6
HIDDEN
 62
     7
370
     0
100
AcDbLine
 10
176.086030491
 20
115.4508557885
 30
0.0
 11
156.9860303405
 21
115.4508557885
 31
0.0
  0
LINE
  5
16B
330
1F
100
AcDbEntity
  8
0
  6
HIDDEN
 62
     7
370
     0
100
AcDbLine
 10
176.086030491
 20
102.9508556023
 30
0.0
 11
176.8371067572
 21
104.2008558072
 31
0.0
  0
LINE
  5
16C
330
1F
100
AcDbEntity
  8
0
  6
HIDDEN
 62
     7
370
     0
100
AcDbLine
 10
176.8371067572
 20
114.2008555837
 30
0.0
 11
176.086030491
 21
115.4508557885
 31
0.0
  0
LINE
  5
16D
330
1F
100
AcDbEntity
  8
0
  6
HIDDEN
 62
     7
370
     0
100
AcDbLine
 10
176.8371067572
 20
104.2008558072
 30
0.0
 11
196.086030044
 21
104.2008558072
 31
0.0
  0
LINE
  5
16E
330
1F
100
AcDbEntity
  8
0
  6
HIDDEN
 62
     7
370
     0
100
AcDbLine
 10
196.086030044
 20
114.2008555837
 30
0.0
 11
176.8371067572
 21
114.2008555837
 31
0.0
  0
LINE
  5
16F
330
1F
100
AcDbEntity
  8
0
  6
HIDDEN
 62
     7
370
     0
100
AcDbLine
 10
196.086030044
 20
104.2008558072
 30
0.0
 11
196.6868895668
 21
105.2008555054
 31
0.0
  0
LINE
  5
170
330
1F
100
AcDbEntity
  8
0
  6
HIDDEN
 62
     7
370
     0
100
AcDbLine
 10
196.6868895668
 20
113.2008558854
 30
0.0
 11
196.086030044
 21
114.2008555837
 31
0.0
  0
LINE
  5
171
330
1F
100
AcDbEntity
  8
0
  6
HIDDEN
 62
     7
370
     0
100
AcDbLine
 10
216.5860306102
 20
92.2008547715
 30
0.0
 11
215.586032309
 21
93.2008549355
 31
0.0
  0
LINE
  5
172
330
1F
100
AcDbEntity
  8
0
  6
HIDDEN
 62
     7
370
     0
100
AcDbLine
 10
208.5860292989
 20
93.2008549355
 30
0.0
 11
207.5860309977
 21
92.2008547715
 31
0.0
  0
LINE
  5
173
330
1F
100
AcDbEntity
  8
0
  6
HIDDEN
 62
     7
370
     0
100
AcDbLine
 10
206.5860289711
 20
92.2008547715
 30
0.0
 11
205.5860306698
 21
93.2008549355
 31
0.0
  0
LINE
  5
174
330
1F
100
AcDbEntity
  8
0
  6
HIDDEN
 62
     7
370
     0
100
AcDbLine
 10
198.5860313851
 20
93.2008549355
 30
0.0
 11
197.5860293585
 21
92.2008547715
 31
0.0
  0
LINE
  5
175
330
1F
100
AcDbEntity
  8
0
  6
HIDDEN
 62
     7
370
     0
100
AcDbLine
 10
226.5860322494
 20
92.2008547715
 30
0.0
 11
225.5860302228
 21
93.2008549355
 31
0.0
  0
LINE
  5
176
330
1F
100
AcDbEntity
  8
0
  6
HIDDEN
 62
     7
370
     0
100
AcDbLine
 10
218.5860309381
 20
93.2008549355
 30
0.0
 11
217.5860289115
 21
92.2008547715
 31
0.0
  0
ARC
  5
177
330
1F
100
AcDbEntity
  8
0
  6
HIDDEN
 62
     7
370
     0
100
AcDbCircle
 10
229.7860305506
 20
113.5008556954
 30
0.0
 40
0.3000000000000114
100
AcDbArc
 50
270.0
 51
0.0
  0
ARC
  5
178
330
1F
100
AcDbEntity
  8
0
  6
HIDDEN
 62
     7
370
     0
100
AcDbCircle
 10
229.7860305506
 20
104.9008556954
 30
0.0
 40
0.3000000000000114
100
AcDbArc
 50
0.0
 51
90.0
  0
LINE
  5
179
330
1F
100
AcDbEntity
  8
0
  6
HIDDEN
 62
     7
370
     0
100
AcDbLine
 10
197.5860293585
 20
126.2008566193
 30
0.0
 11
198.5860313851
 21
125.2008564554
 31
0.0
  0
LINE
  5
17A
330
1F
100
AcDbEntity
  8
0
  6
HIDDEN
 62
     7
370
     0
100
AcDbLine
 10
205.5860306698
 20
125.2008564554
 30
0.0
 11
206.5860289711
 21
126.2008566193
 31
0.0
  0
LINE
  5
17B
330
1F
100
AcDbEntity
  8
0
  6
HIDDEN
 62
     7
370
     0
100
AcDbLine
 10
217.5860289115
 20
126.2008566193
 30
0.0
 11
218.5860309381
 21
125.2008564554
 31
0.0
  0
LINE
  5
17C
330
1F
100
AcDbEntity
  8
0
  6
HIDDEN
 62
     7
370
     0
100
AcDbLine
 10
225.5860302228
 20
125.2008564554
 30
0.0
 11
226.5860322494
 21
126.2008566193
 31
0.0
  0
LINE
  5
17D
330
1F
100
AcDbEntity
  8
0
  6
HIDDEN
 62
     7
370
     0
100
AcDbLine
 10
207.5860309977
 20
126.2008566193
 30
0.0
 11
208.5860292989
 21
125.2008564554
 31
0.0
  0
LINE
  5
17E
330
1F
100
AcDbEntity
  8
0
  6
HIDDEN
 62
     7
370
     0
100
AcDbLine
 10
215.586032309
 20
125.2008564554
 30
0.0
 11
216.5860306102
 21
126.2008566193
 31
0.0
  0
LINE
  5
17F
330
1F
100
AcDbEntity
  8
0
  6
HIDDEN
 62
     7
370
     0
100
AcDbLine
 10
198.6193131286
 20
113.2008558854
 30
0.0
 11
196.6868895668
 21
113.2008558854
 31
0.0
  0
LINE
  5
180
330
1F
100
AcDbEntity
  8
0
  6
HIDDEN
 62
     7
370
     0
100
AcDbLine
 10
208.6193147677
 20
113.2008558854
 30
0.0
 11
205.5836017806
 21
113.2008558854
 31
0.0
  0
LINE
  5
181
330
1F
100
AcDbEntity
  8
0
  6
HIDDEN
 62
     7
370
     0
100
AcDbLine
 10
218.6193164069
 20
113.2008558854
 30
0.0
 11
215.5835996944
 21
113.2008558854
 31
0.0
  0
LINE
  5
182
330
1F
100
AcDbEntity
  8
0
  6
HIDDEN
 62
     7
370
     0
100
AcDbLine
 10
229.7860305387
 20
113.2008558854
 30
0.0
 11
225.5836013335
 21
113.2008558854
 31
0.0
  0
LINE
  5
183
330
1F
100
AcDbEntity
  8
0
  6
HIDDEN
 62
     7
370
     0
100
AcDbLine
 10
225.5836013335
 20
105.2008555054
 30
0.0
 11
229.7860305387
 21
105.2008555054
 31
0.0
  0
LINE
  5
184
330
1F
100
AcDbEntity
  8
0
  6
HIDDEN
 62
     7
370
     0
100
AcDbLine
 10
215.5835996944
 20
105.2008555054
 30
0.0
 11
218.6193164069
 21
105.2008555054
 31
0.0
  0
LINE
  5
185
330
1F
100
AcDbEntity
  8
0
  6
HIDDEN
 62
     7
370
     0
100
AcDbLine
 10
205.5836017806
 20
105.2008555054
 30
0.0
 11
208.6193147677
 21
105.2008555054
 31
0.0
  0
LINE
  5
186
330
1F
100
AcDbEntity
  8
0
  6
HIDDEN
 62
     7
370
     0
100
AcDbLine
 10
196.6868895668
 20
105.2008555054
 30
0.0
 11
198.6193131286
 21
105.2008555054
 31
0.0
  0
LINE
  5
187
330
1F
100
AcDbEntity
  8
0
  6
HIDDEN
 62
     7
370
     0
100
AcDbLine
 10
205.5860306698
 20
93.2008549355
 30
0.0
 11
205.5860306698
 21
105.2029765926
 31
0.0
  0
LINE
  5
188
330
1F
100
AcDbEntity
  8
0
  6
HIDDEN
 62
     7
370
     0
100
AcDbLine
 10
198.5860313851
 20
105.2299411751
 30
0.0
 11
198.5860313851
 21
93.2008549355
 31
0.0
  0
LINE
  5
189
330
1F
100
AcDbEntity
  8
0
  6
HIDDEN
 62
     7
370
     0
100
AcDbLine
 10
215.586032309
 20
93.2008549355
 30
0.0
 11
215.586032309
 21
105.2029765926
 31
0.0
  0
LINE
  5
18A
330
1F
100
AcDbEntity
  8
0
  6
HIDDEN
 62
     7
370
     0
100
AcDbLine
 10
208.5860292989
 20
105.2299411751
 30
0.0
 11
208.5860292989
 21
93.2008549355
 31
0.0
  0
LINE
  5
18B
330
1F
100
AcDbEntity
  8
0
  6
HIDDEN
 62
     7
370
     0
100
AcDbLine
 10
225.5860302228
 20
93.2008549355
 30
0.0
 11
225.5860302228
 21
105.2029765926
 31
0.0
  0
LINE
  5
18C
330
1F
100
AcDbEntity
  8
0
  6
HIDDEN
 62
     7
370
     0
100
AcDbLine
 10
218.5860309381
 20
105.2299411751
 30
0.0
 11
218.5860309381
 21
93.2008549355
 31
0.0
  0
LINE
  5
18D
330
1F
100
AcDbEntity
  8
0
  6
HIDDEN
 62
     7
370
     0
100
AcDbLine
 10
218.5860309381
 20
125.2008564554
 30
0.0
 11
218.5860309381
 21
113.1717702157
 31
0.0
  0
LINE
  5
18E
330
1F
100
AcDbEntity
  8
0
  6
HIDDEN
 62
     7
370
     0
100
AcDbLine
 10
225.5860302228
 20
113.1987347982
 30
0.0
 11
225.5860302228
 21
125.2008564554
 31
0.0
  0
LINE
  5
18F
330
1F
100
AcDbEntity
  8
0
  6
HIDDEN
 62
     7
370
     0
100
AcDbLine
 10
208.5860292989
 20
125.2008564554
 30
0.0
 11
208.5860292989
 21
113.1717702157
 31
0.0
  0
LINE
  5
190
330
1F
100
AcDbEntity
  8
0
  6
HIDDEN
 62
     7
370
     0
100
AcDbLine
 10
215.586032309
 20
113.1987347982
 30
0.0
 11
215.586032309
 21
125.2008564554
 31
0.0
  0
LINE
  5
191
330
1F
100
AcDbEntity
  8
0
  6
HIDDEN
 62
     7
370
     0
100
AcDbLine
 10
198.5860313851
 20
125.2008564554
 30
0.0
 11
198.5860313851
 21
113.1717702157
 31
0.0
  0
LINE
  5
192
330
1F
100
AcDbEntity
  8
0
  6
HIDDEN
 62
     7
370
     0
100
AcDbLine
 10
205.5860306698
 20
113.1987347982
 30
0.0
 11
205.5860306698
 21
125.2008564554
 31
0.0
  0
LINE
  5
193
330
1F
100
AcDbEntity
  8
0
  6
HIDDEN
 62
     7
370
     0
100
AcDbLine
 10
156.2755681205
 20
96.2695954151
 30
0.0
 11
155.8860303465
 21
96.6591331891
 31
0.0
  0
LINE
  5
194
330
1F
100
AcDbEntity
  8
0
  6
HIDDEN
 62
     7
370
     0
100
AcDbLine
 10
151.2860307101
 20
96.6591331891
 30
0.0
 11
151.0372632745
 21
96.4103657536
 31
0.0
  0
LINE
  5
195
330
1F
100
AcDbEntity
  8
0
  6
HIDDEN
 62
     7
370
     0
100
AcDbLine
 10
146.991975196
 20
96.4949112169
 30
0.0
 11
145.2860306579
 21
98.200855755
 31
0.0
  0
LINE
  5
196
330
1F
100
AcDbEntity
  8
0
  6
HIDDEN
 62
     7
370
     0
100
AcDbLine
 10
145.2860306579
 20
98.200855755
 30
0.0
 11
141.086030342
 21
98.200855755
 31
0.0
  0
LINE
  5
197
330
1F
100
AcDbEntity
  8
0
  6
HIDDEN
 62
     7
370
     0
100
AcDbLine
 10
155.8860303465
 20
96.6591331891
 30
0.0
 11
155.8860303465
 21
100.2968121103
 31
0.0
  0
LINE
  5
198
330
1F
100
AcDbEntity
  8
0
  6
HIDDEN
 62
     7
370
     0
100
AcDbLine
 10
151.2860307101
 20
100.2055909268
 30
0.0
 11
151.2860307101
 21
96.6591331891
 31
0.0
  0
LINE
  5
199
330
1F
100
AcDbEntity
  8
0
  6
HIDDEN
 62
     7
370
     0
100
AcDbLine
 10
155.8860303465
 20
118.1048992805
 30
0.0
 11
155.8860303465
 21
120.2008556358
 31
0.0
  0
LINE
  5
19A
330
1F
100
AcDbEntity
  8
0
  6
HIDDEN
 62
     7
370
     0
100
AcDbLine
 10
151.2860307101
 20
120.2008556358
 30
0.0
 11
151.2860307101
 21
118.196120464
 31
0.0
  0
LINE
  5
19B
330
1F
100
AcDbEntity
  8
0
  6
HIDDEN
 62
     7
370
     0
100
AcDbLine
 10
155.8860303465
 20
120.2008556358
 30
0.0
 11
153.5860305283
 21
121.5828349597
 31
0.0
  0
LINE
  5
19C
330
1F
100
AcDbEntity
  8
0
  6
HIDDEN
 62
     7
370
     0
100
AcDbLine
 10
153.5860305283
 20
121.5828349597
 30
0.0
 11
151.2860307101
 21
120.2008556358
 31
0.0
  0
LINE
  5
19D
330
1F
100
AcDbEntity
  8
0
  6
HIDDEN
 62
     7
370
     0
100
AcDbLine
 10
179.0860309828
 20
89.7008552931
 30
0.0
 11
177.0860306549
 21
90.9025762014
 31
0.0
  0
LINE
  5
19E
330
1F
100
AcDbEntity
  8
0
  6
HIDDEN
 62
     7
370
     0
100
AcDbLine
 10
177.0860306549
 20
90.9025762014
 30
0.0
 11
175.0860303271
 21
89.7008552931
 31
0.0
  0
LINE
  5
19F
330
1F
100
AcDbEntity
  8
0
  6
HIDDEN
 62
     7
370
     0
100
AcDbLine
 10
175.0860303271
 20
89.7008552931
 30
0.0
 11
175.0860303271
 21
89.2008561424
 31
0.0
  0
LINE
  5
1A0
330
1F
100
AcDbEntity
  8
0
  6
HIDDEN
 62
     7
370
     0
100
AcDbLine
 10
179.0860309828
 20
89.2008561424
 30
0.0
 11
179.0860309828
 21
89.7008552931
 31
0.0
  0
DIMENSION
  5
1A1
330
1F
100
AcDbEntity
  8
VERMASSUNG
100
AcDbDimension
  2
_D
 10
230.0860305506
 20
139.2008556954
 30
0.0
 11
198.8443869687
 21
139.2008556954
 31
0.0
 70
   160
  1
<>
 71
     2
 42
-1.0
  3
SLDDIMSTYLE0
100
AcDbAlignedDimension
 13
165.0860305506
 23
128.9008556954
 33
0.0
 14
230.0860305506
 24
125.2008556954
 34
0.0
100
AcDbRotatedDimension
  0
DIMENSION
  5
1AC
330
1F
100
AcDbEntity
  8
VERMASSUNG
100
AcDbDimension
  2
_D_1
 10
230.0860305506
 20
145.2008556954
 30
0.0
 11
187.372003863
 21
145.2008556954
 31
0.0
 70
   160
  1
<>
 71
     2
 42
-1.0
  3
SLDDIMSTYLE0
100
AcDbAlignedDimension
 13
141.0860305506
 23
121.8194827613
 33
0.0
 14
230.0860305506
 24
125.2008556954
 34
0.0
100
AcDbRotatedDimension
  0
DIMENSION
  5
1B6
330
1F
100
AcDbEntity
  8
VERMASSUNG
100
AcDbDimension
  2
_D_2
 10
133.9289360608
 20
89.2008556954
 30
0.0
 11
133.9289360608
 21
110.4997371041
 31
0.0
 70
   160
  1
PSC%%c<>
 71
     2
 42
-1.0
  3
SLDDIMSTYLE0
100
AcDbAlignedDimension
 13
165.3860305506
 23
129.2008556954
 33
0.0
 14
165.3860305506
 24
89.2008556954
 34
0.0
 50
90.0
100
AcDbRotatedDimension
  0
DIMENSION
  5
1C2
330
1F
100
AcDbEntity
  8
VERMASSUNG
100
AcDbDimension
  2
_D_3
 10
246.0860305506
 20
92.2008556954
 30
0.0
 11
246.0860305506
 21
108.9040711431
 31
0.0
 70
   160
  1
%%c<>
 71
     2
 42
-1.0
  3
SLDDIMSTYLE0
100
AcDbAlignedDimension
 13
229.0860305506
 23
126.2008556954
 33
0.0
 14
229.0860305506
 24
92.2008556954
 34
0.0
 50
90.0
100
AcDbRotatedDimension
  0
DIMENSION
  5
1CD
330
1F
100
AcDbEntity
  8
VERMASSUNG
100
AcDbDimension
  2
_D_4
 10
238.1168615243
 20
105.2008556954
 30
0.0
 11
238.1168615243
 21
108.9040711431
 31
0.0
 70
   160
  1
%%c<>
 71
     2
 42
-1.0
  3
SLDDIMSTYLE1
100
AcDbAlignedDimension
 13
229.7860305506
 23
113.2008556954
 33
0.0
 14
229.7860305506
 24
105.2008556954
 34
0.0
 50
90.0
100
AcDbRotatedDimension
  0
LINE
  5
1DB
330
1F
100
AcDbEntity
  8
VERMASSUNG
  6
CENTERX2
370
     0
100
AcDbLine
 10
138.9719753805
 20
109.2008556954
 30
0.0
 11
232.0148386291
 21
109.2008556954
 31
0.0
  0
LINE
  5
1DC
330
1F
100
AcDbEntity
  8
0
  6
Continuous
 62
     7
370
    15
100
AcDbLine
 10
74.574855312
 20
92.5995167128
 30
0.0
 11
75.265355564
 21
92.2008547715
 31
0.0
  0
LINE
  5
1DD
330
1F
100
AcDbEntity
  8
0
  6
Continuous
 62
     7
370
    15
100
AcDbLine
 10
81.8843554401
 20
92.2008547715
 30
0.0
 11
82.574855692
 21
92.5995167128
 31
0.0
  0
LINE
  5
1DE
330
1F
100
AcDbEntity
  8
0
  6
Continuous
 62
     7
370
    15
100
AcDbLine
 10
82.574855692
 20
92.5995167128
 30
0.0
 11
82.574855692
 21
92.6781445525
 31
0.0
  0
LINE
  5
1DF
330
1F
100
AcDbEntity
  8
0
  6
Continuous
 62
     7
370
    15
100
AcDbLine
 10
74.574855312
 20
92.6781445525
 30
0.0
 11
74.574855312
 21
92.5995167128
 31
0.0
  0
LINE
  5
1E0
330
1F
100
AcDbEntity
  8
0
  6
Continuous
 62
     7
370
    15
100
AcDbLine
 10
95.1761944846
 20
105.2008555054
 30
0.0
 11
95.5748564259
 21
105.8913557574
 31
0.0
  0
LINE
  5
1E1
330
1F
100
AcDbEntity
  8
0
  6
Continuous
 62
     7
370
    15
100
AcDbLine
 10
95.5748564259
 20
112.5103556335
 30
0.0
 11
95.1761944846
 21
113.2008558854
 31
0.0
  0
LINE
  5
1E2
330
1F
100
AcDbEntity
  8
0
  6
Continuous
 62
     7
370
    15
100
AcDbLine
 10
95.1761944846
 20
113.2008558854
 30
0.0
 11
95.0975666449
 21
113.2008558854
 31
0.0
  0
LINE
  5
1E3
330
1F
100
AcDbEntity
  8
0
  6
Continuous
 62
     7
370
    15
100
AcDbLine
 10
95.0975666449
 20
105.2008555054
 30
0.0
 11
95.1761944846
 21
105.2008555054
 31
0.0
  0
LINE
  5
1E4
330
1F
100
AcDbEntity
  8
0
  6
Continuous
 62
     7
370
    15
100
AcDbLine
 10
82.574855692
 20
125.802194678
 30
0.0
 11
81.8843554401
 21
126.2008566193
 31
0.0
  0
LINE
  5
1E5
330
1F
100
AcDbEntity
  8
0
  6
Continuous
 62
     7
370
    15
100
AcDbLine
 10
75.265355564
 20
126.2008566193
 30
0.0
 11
74.574855312
 21
125.802194678
 31
0.0
  0
LINE
  5
1E6
330
1F
100
AcDbEntity
  8
0
  6
Continuous
 62
     7
370
    15
100
AcDbLine
 10
74.574855312
 20
125.802194678
 30
0.0
 11
74.574855312
 21
125.7235668383
 31
0.0
  0
LINE
  5
1E7
330
1F
100
AcDbEntity
  8
0
  6
Continuous
 62
     7
370
    15
100
AcDbLine
 10
82.574855692
 20
125.7235668383
 30
0.0
 11
82.574855692
 21
125.802194678
 31
0.0
  0
LINE
  5
1E8
330
1F
100
AcDbEntity
  8
0
  6
Continuous
 62
     7
370
    15
100
AcDbLine
 10
81.8843554401
 20
92.2008547715
 30
0.0
 11
75.265355564
 21
92.2008547715
 31
0.0
  0
LINE
  5
1E9
330
1F
100
AcDbEntity
  8
0
  6
Continuous
 62
     7
370
    15
100
AcDbLine
 10
82.574855692
 20
92.5995167128
 30
0.0
 11
82.234844954
 21
92.5995167128
 31
0.0
  0
LINE
  5
1EA
330
1F
100
AcDbEntity
  8
0
  6
Continuous
 62
     7
370
    15
100
AcDbLine
 10
74.91486605
 20
92.5995167128
 30
0.0
 11
74.574855312
 21
92.5995167128
 31
0.0
  0
LINE
  5
1EB
330
1F
100
AcDbEntity
  8
0
  6
Continuous
 62
     7
370
    15
100
AcDbLine
 10
95.5748564259
 20
112.5103556335
 30
0.0
 11
95.5748564259
 21
105.8913557574
 31
0.0
  0
LINE
  5
1EC
330
1F
100
AcDbEntity
  8
0
  6
Continuous
 62
     7
370
    15
100
AcDbLine
 10
95.1761944846
 20
113.2008558854
 30
0.0
 11
95.1761944846
 21
112.8608451474
 31
0.0
  0
LINE
  5
1ED
330
1F
100
AcDbEntity
  8
0
  6
Continuous
 62
     7
370
    15
100
AcDbLine
 10
95.1761944846
 20
105.5408662434
 30
0.0
 11
95.1761944846
 21
105.2008555054
 31
0.0
  0
LINE
  5
1EE
330
1F
100
AcDbEntity
  8
0
  6
Continuous
 62
     7
370
    15
100
AcDbLine
 10
75.265355564
 20
126.2008566193
 30
0.0
 11
81.8843554401
 21
126.2008566193
 31
0.0
  0
LINE
  5
1EF
330
1F
100
AcDbEntity
  8
0
  6
Continuous
 62
     7
370
    15
100
AcDbLine
 10
74.574855312
 20
125.802194678
 30
0.0
 11
74.91486605
 21
125.802194678
 31
0.0
  0
LINE
  5
1F0
330
1F
100
AcDbEntity
  8
0
  6
Continuous
 62
     7
370
    15
100
AcDbLine
 10
82.234844954
 20
125.802194678
 30
0.0
 11
82.574855692
 21
125.802194678
 31
0.0
  0
CIRCLE
  5
1F1
330
1F
100
AcDbEntity
  8
0
  6
Continuous
 62
     7
370
    15
100
AcDbCircle
 10
78.574855502
 20
109.2008556954
 30
0.0
 40
16.99999999999999
  0
CIRCLE
  5
1F2
330
1F
100
AcDbEntity
  8
0
  6
Continuous
 62
     7
370
    15
100
AcDbCircle
 10
78.574855502
 20
109.2008556954
 30
0.0
 40
3.999999999999986
  0
CIRCLE
  5
1F3
330
1F
100
AcDbEntity
  8
0
  6
Continuous
 62
     7
370
    15
100
AcDbCircle
 10
78.574855502
 20
109.2008556954
 30
0.0
 40
19.99999999999999
  0
LINE
  5
1F4
330
1F
100
AcDbEntity
  8
0
  6
HIDDEN
 62
     7
370
     0
100
AcDbLine
 10
74.574855312
 20
102.9508556023
 30
0.0
 11
82.574855692
 21
102.9508556023
 31
0.0
  0
LINE
  5
1F5
330
1F
100
AcDbEntity
  8
0
  6
HIDDEN
 62
     7
370
     0
100
AcDbLine
 10
75.8248555169
 20
104.2008558072
 30
0.0
 11
81.3248554871
 21
104.2008558072
 31
0.0
  0
LINE
  5
1F6
330
1F
100
AcDbEntity
  8
0
  6
HIDDEN
 62
     7
370
     0
100
AcDbLine
 10
75.265355564
 20
92.2008547715
 30
0.0
 11
81.8843554401
 21
92.2008547715
 31
0.0
  0
LINE
  5
1F7
330
1F
100
AcDbEntity
  8
0
  6
HIDDEN
 62
     7
370
     0
100
AcDbLine
 10
82.234844954
 20
92.5995167128
 30
0.0
 11
74.91486605
 21
92.5995167128
 31
0.0
  0
LINE
  5
1F8
330
1F
100
AcDbEntity
  8
0
  6
HIDDEN
 62
     7
370
     0
100
AcDbLine
 10
74.574855312
 20
92.5995167128
 30
0.0
 11
82.574855692
 21
92.5995167128
 31
0.0
  0
LINE
  5
1F9
330
1F
100
AcDbEntity
  8
0
  6
HIDDEN
 62
     7
370
     0
100
AcDbLine
 10
77.420154975
 20
92.2008547715
 30
0.0
 11
76.2654544481
 21
92.2008547715
 31
0.0
  0
LINE
  5
1FA
330
1F
100
AcDbEntity
  8
0
  6
HIDDEN
 62
     7
370
     0
100
AcDbLine
 10
77.420154975
 20
97.2008555911
 30
0.0
 11
76.2654544481
 21
97.2008555911
 31
0.0
  0
LINE
  5
1FB
330
1F
100
AcDbEntity
  8
0
  6
HIDDEN
 62
     7
370
     0
100
AcDbLine
 10
79.729556029
 20
97.2008555911
 30
0.0
 11
77.420154975
 21
97.2008555911
 31
0.0
  0
LINE
  5
1FC
330
1F
100
AcDbEntity
  8
0
  6
HIDDEN
 62
     7
370
     0
100
AcDbLine
 10
77.420154975
 20
97.2008555911
 30
0.0
 11
77.420154975
 21
92.2008547715
 31
0.0
  0
LINE
  5
1FD
330
1F
100
AcDbEntity
  8
0
  6
HIDDEN
 62
     7
370
     0
100
AcDbLine
 10
79.729556029
 20
92.2008547715
 30
0.0
 11
77.420154975
 21
92.2008547715
 31
0.0
  0
LINE
  5
1FE
330
1F
100
AcDbEntity
  8
0
  6
HIDDEN
 62
     7
370
     0
100
AcDbLine
 10
79.729556029
 20
97.2008555911
 30
0.0
 11
79.729556029
 21
92.2008547715
 31
0.0
  0
LINE
  5
1FF
330
1F
100
AcDbEntity
  8
0
  6
HIDDEN
 62
     7
370
     0
100
AcDbLine
 10
79.729556029
 20
97.2008555911
 30
0.0
 11
80.8842565559
 21
97.2008555911
 31
0.0
  0
LINE
  5
200
330
1F
100
AcDbEntity
  8
0
  6
HIDDEN
 62
     7
370
     0
100
AcDbLine
 10
79.729556029
 20
92.2008547715
 30
0.0
 11
80.8842565559
 21
92.2008547715
 31
0.0
  0
LINE
  5
201
330
1F
100
AcDbEntity
  8
0
  6
HIDDEN
 62
     7
370
     0
100
AcDbLine
 10
76.2654544481
 20
97.2008555911
 30
0.0
 11
76.2654544481
 21
92.2008547715
 31
0.0
  0
LINE
  5
202
330
1F
100
AcDbEntity
  8
0
  6
HIDDEN
 62
     7
370
     0
100
AcDbLine
 10
80.8842565559
 20
97.2008555911
 30
0.0
 11
80.8842565559
 21
92.2008547715
 31
0.0
  0
LINE
  5
203
330
1F
100
AcDbEntity
  8
0
  6
HIDDEN
 62
     7
370
     0
100
AcDbLine
 10
95.5748564259
 20
105.8913557574
 30
0.0
 11
95.5748564259
 21
112.5103556335
 31
0.0
  0
LINE
  5
204
330
1F
100
AcDbEntity
  8
0
  6
HIDDEN
 62
     7
370
     0
100
AcDbLine
 10
95.1761944846
 20
112.8608451474
 30
0.0
 11
95.1761944846
 21
105.5408662434
 31
0.0
  0
LINE
  5
205
330
1F
100
AcDbEntity
  8
0
  6
HIDDEN
 62
     7
370
     0
100
AcDbLine
 10
95.1761944846
 20
105.2008555054
 30
0.0
 11
95.1761944846
 21
113.2008558854
 31
0.0
  0
LINE
  5
206
330
1F
100
AcDbEntity
  8
0
  6
HIDDEN
 62
     7
370
     0
100
AcDbLine
 10
84.8248555951
 20
105.2008555054
 30
0.0
 11
84.8248555951
 21
113.2008558854
 31
0.0
  0
LINE
  5
207
330
1F
100
AcDbEntity
  8
0
  6
HIDDEN
 62
     7
370
     0
100
AcDbLine
 10
83.5748553903
 20
106.4508557103
 30
0.0
 11
83.5748553903
 21
111.9508556805
 31
0.0
  0
LINE
  5
208
330
1F
100
AcDbEntity
  8
0
  6
HIDDEN
 62
     7
370
     0
100
AcDbLine
 10
95.5748564259
 20
108.0461551684
 30
0.0
 11
95.5748564259
 21
106.8914546415
 31
0.0
  0
LINE
  5
209
330
1F
100
AcDbEntity
  8
0
  6
HIDDEN
 62
     7
370
     0
100
AcDbLine
 10
90.5748556063
 20
108.0461551684
 30
0.0
 11
95.5748564259
 21
108.0461551684
 31
0.0
  0
LINE
  5
20A
330
1F
100
AcDbEntity
  8
0
  6
HIDDEN
 62
     7
370
     0
100
AcDbLine
 10
95.5748564259
 20
110.3555562224
 30
0.0
 11
95.5748564259
 21
108.0461551684
 31
0.0
  0
LINE
  5
20B
330
1F
100
AcDbEntity
  8
0
  6
HIDDEN
 62
     7
370
     0
100
AcDbLine
 10
90.5748556063
 20
110.3555562224
 30
0.0
 11
90.5748556063
 21
108.0461551684
 31
0.0
  0
LINE
  5
20C
330
1F
100
AcDbEntity
  8
0
  6
HIDDEN
 62
     7
370
     0
100
AcDbLine
 10
90.5748556063
 20
108.0461551684
 30
0.0
 11
90.5748556063
 21
106.8914546415
 31
0.0
  0
LINE
  5
20D
330
1F
100
AcDbEntity
  8
0
  6
HIDDEN
 62
     7
370
     0
100
AcDbLine
 10
90.5748556063
 20
110.3555562224
 30
0.0
 11
90.5748556063
 21
111.5102567493
 31
0.0
  0
LINE
  5
20E
330
1F
100
AcDbEntity
  8
0
  6
HIDDEN
 62
     7
370
     0
100
AcDbLine
 10
90.5748556063
 20
110.3555562224
 30
0.0
 11
95.5748564259
 21
110.3555562224
 31
0.0
  0
LINE
  5
20F
330
1F
100
AcDbEntity
  8
0
  6
HIDDEN
 62
     7
370
     0
100
AcDbLine
 10
95.5748564259
 20
110.3555562224
 30
0.0
 11
95.5748564259
 21
111.5102567493
 31
0.0
  0
LINE
  5
210
330
1F
100
AcDbEntity
  8
0
  6
HIDDEN
 62
     7
370
     0
100
AcDbLine
 10
90.5748556063
 20
106.8914546415
 30
0.0
 11
95.5748564259
 21
106.8914546415
 31
0.0
  0
LINE
  5
211
330
1F
100
AcDbEntity
  8
0
  6
HIDDEN
 62
     7
370
     0
100
AcDbLine
 10
90.5748556063
 20
111.5102567493
 30
0.0
 11
95.5748564259
 21
111.5102567493
 31
0.0
  0
LINE
  5
212
330
1F
100
AcDbEntity
  8
0
  6
HIDDEN
 62
     7
370
     0
100
AcDbLine
 10
81.8843554401
 20
126.2008566193
 30
0.0
 11
75.265355564
 21
126.2008566193
 31
0.0
  0
LINE
  5
213
330
1F
100
AcDbEntity
  8
0
  6
HIDDEN
 62
     7
370
     0
100
AcDbLine
 10
74.91486605
 20
125.802194678
 30
0.0
 11
82.234844954
 21
125.802194678
 31
0.0
  0
LINE
  5
214
330
1F
100
AcDbEntity
  8
0
  6
HIDDEN
 62
     7
370
     0
100
AcDbLine
 10
82.574855692
 20
125.802194678
 30
0.0
 11
74.574855312
 21
125.802194678
 31
0.0
  0
LINE
  5
215
330
1F
100
AcDbEntity
  8
0
  6
HIDDEN
 62
     7
370
     0
100
AcDbLine
 10
82.574855692
 20
115.4508557885
 30
0.0
 11
74.574855312
 21
115.4508557885
 31
0.0
  0
LINE
  5
216
330
1F
100
AcDbEntity
  8
0
  6
HIDDEN
 62
     7
370
     0
100
AcDbLine
 10
81.3248554871
 20
114.2008555837
 30
0.0
 11
75.8248555169
 21
114.2008555837
 31
0.0
  0
LINE
  5
217
330
1F
100
AcDbEntity
  8
0
  6
HIDDEN
 62
     7
370
     0
100
AcDbLine
 10
79.729556029
 20
121.2008557997
 30
0.0
 11
80.8842565559
 21
121.2008557997
 31
0.0
  0
LINE
  5
218
330
1F
100
AcDbEntity
  8
0
  6
HIDDEN
 62
     7
370
     0
100
AcDbLine
 10
79.729556029
 20
126.2008566193
 30
0.0
 11
80.8842565559
 21
126.2008566193
 31
0.0
  0
LINE
  5
219
330
1F
100
AcDbEntity
  8
0
  6
HIDDEN
 62
     7
370
     0
100
AcDbLine
 10
79.729556029
 20
121.2008557997
 30
0.0
 11
79.729556029
 21
126.2008566193
 31
0.0
  0
LINE
  5
21A
330
1F
100
AcDbEntity
  8
0
  6
HIDDEN
 62
     7
370
     0
100
AcDbLine
 10
77.420154975
 20
121.2008557997
 30
0.0
 11
79.729556029
 21
121.2008557997
 31
0.0
  0
LINE
  5
21B
330
1F
100
AcDbEntity
  8
0
  6
HIDDEN
 62
     7
370
     0
100
AcDbLine
 10
77.420154975
 20
126.2008566193
 30
0.0
 11
79.729556029
 21
126.2008566193
 31
0.0
  0
LINE
  5
21C
330
1F
100
AcDbEntity
  8
0
  6
HIDDEN
 62
     7
370
     0
100
AcDbLine
 10
77.420154975
 20
121.2008557997
 30
0.0
 11
77.420154975
 21
126.2008566193
 31
0.0
  0
LINE
  5
21D
330
1F
100
AcDbEntity
  8
0
  6
HIDDEN
 62
     7
370
     0
100
AcDbLine
 10
77.420154975
 20
121.2008557997
 30
0.0
 11
76.2654544481
 21
121.2008557997
 31
0.0
  0
LINE
  5
21E
330
1F
100
AcDbEntity
  8
0
  6
HIDDEN
 62
     7
370
     0
100
AcDbLine
 10
77.420154975
 20
126.2008566193
 30
0.0
 11
76.2654544481
 21
126.2008566193
 31
0.0
  0
LINE
  5
21F
330
1F
100
AcDbEntity
  8
0
  6
HIDDEN
 62
     7
370
     0
100
AcDbLine
 10
80.8842565559
 20
121.2008557997
 30
0.0
 11
80.8842565559
 21
126.2008566193
 31
0.0
  0
LINE
  5
220
330
1F
100
AcDbEntity
  8
0
  6
HIDDEN
 62
     7
370
     0
100
AcDbLine
 10
76.2654544481
 20
121.2008557997
 30
0.0
 11
76.2654544481
 21
126.2008566193
 31
0.0
  0
LINE
  5
221
330
1F
100
AcDbEntity
  8
0
  6
HIDDEN
 62
     7
370
     0
100
AcDbLine
 10
94.574856262
 20
105.7008555874
 30
0.0
 11
94.574856262
 21
112.7008558034
 31
0.0
  0
SPLINE
  5
222
330
1F
100
AcDbEntity
  8
0
  6
HIDDEN
 62
     7
370
     0
100
AcDbSpline
210
0.0
220
0.0
230
1.0
 70
     8
 71
     3
 72
    73
 73
    69
 74
     0
 42
0.00000001
 43
0.00000001
 12
1.0
 22
0.0
 32
0.0
 13
1.0
 23
0.0
 33
0.0
 40
-0.0312500000000003
 40
-0.0312500000000003
 40
0.0
 40
0.0
 40
0.0312499999999996
 40
0.0312499999999996
 40
0.0624999999999993
 40
0.0624999999999993
 40
0.0937499999999989
 40
0.0937499999999989
 40
0.1093749999999987
 40
0.1093749999999987
 40
0.1249999999999985
 40
0.1406249999999983
 40
0.1406249999999983
 40
0.1562499999999981
 40
0.1562499999999981
 40
0.1874999999999979
 40
0.1874999999999979
 40
0.2187499999999976
 40
0.2187499999999976
 40
0.2499999999999974
 40
0.2499999999999974
 40
0.2812499999999972
 40
0.2812499999999972
 40
0.3124999999999969
 40
0.3124999999999969
 40
0.3749999999999964
 40
0.3749999999999964
 40
0.4062499999999961
 40
0.4062499999999961
 40
0.4374999999999958
 40
0.4374999999999958
 40
0.4687499999999956
 40
0.4687499999999956
 40
0.4999999999999953
 40
0.4999999999999953
 40
0.5312499999999957
 40
0.5312499999999957
 40
0.5624999999999959
 40
0.5624999999999959
 40
0.5937499999999962
 40
0.5937499999999962
 40
0.6249999999999964
 40
0.6249999999999964
 40
0.6406249999999967
 40
0.6406249999999967
 40
0.6562499999999968
 40
0.6562499999999968
 40
0.6874999999999971
 40
0.6874999999999971
 40
0.7187499999999973
 40
0.7187499999999973
 40
0.7499999999999977
 40
0.7499999999999977
 40
0.781249999999998
 40
0.781249999999998
 40
0.8124999999999982
 40
0.8124999999999982
 40
0.8437499999999986
 40
0.8437499999999986
 40
0.8749999999999988
 40
0.8749999999999988
 40
0.9062499999999991
 40
0.9062499999999991
 40
0.9374999999999994
 40
0.9374999999999994
 40
0.9687499999999997
 40
0.9687499999999997
 40
1.0
 40
1.0
 40
1.03125
 40
1.03125
 10
95.28196035938444
 20
106.0536588077423
 30
0.0
 10
95.34467020409735
 20
106.4070203705019
 30
0.0
 10
95.37638599895291
 20
106.6017853032269
 30
0.0
 10
95.43696161499993
 20
107.0292269569987
 30
0.0
 10
95.46602167542937
 20
107.264515204393
 30
0.0
 10
95.51511315007198
 20
107.7556636623233
 30
0.0
 10
95.53548118338965
 20
108.0131724948379
 30
0.0
 10
95.55740738477253
 20
108.4190083499972
 30
0.0
 10
95.56326452249051
 20
108.5580976846244
 30
0.0
 10
95.57148151333114
 20
108.8349516248562
 30
0.0
 10
95.57632935632346
 20
109.1123655610608
 30
0.0
 10
95.57436630444373
 20
109.3908886224928
 30
0.0
 10
95.56895460557786
 20
109.6699779540491
 30
0.0
 10
95.56447966927075
 20
109.8103203542685
 30
0.0
 10
95.54643170757825
 20
110.221006252464
 30
0.0
 10
95.5282290093227
 20
110.4846759910741
 30
0.0
 10
95.48207806608083
 20
110.9927521765121
 30
0.0
 10
95.45454075241861
 20
111.2320896962483
 30
0.0
 10
95.39548007110751
 20
111.6739660497
 30
0.0
 10
95.363472544382
 20
111.8798350612805
 30
0.0
 10
95.30084139956126
 20
112.2465064293419
 30
0.0
 10
95.27007630446272
 20
112.4087580959452
 30
0.0
 10
95.21291343003004
 20
112.6931420292978
 30
0.0
 10
95.18684547715687
 20
112.8135636444177
 30
0.0
 10
95.12180892504392
 20
113.1044195865936
 30
0.0
 10
95.09561769760545
 20
113.2089115733604
 30
0.0
 10
95.09215449359698
 20
113.2231507969184
 30
0.0
 10
95.09669608404297
 20
113.2046885775725
 30
0.0
 10
95.11697889285934
 20
113.1200453678185
 30
0.0
 10
95.13245892668323
 20
113.0549220046317
 30
0.0
 10
95.17223699923058
 20
112.8798481825385
 30
0.0
 10
95.19673487867118
 20
112.7690001721193
 30
0.0
 10
95.25174120068525
 20
112.5023723790368
 30
0.0
 10
95.28172946470637
 20
112.3491059300798
 30
0.0
 10
95.34346074677684
 20
112.0017475695634
 30
0.0
 10
95.37555126396308
 20
111.8053663805572
 30
0.0
 10
95.43641928487273
 20
111.3767510952868
 30
0.0
 10
95.46481776719943
 20
111.1475802342808
 30
0.0
 10
95.51409043917803
 20
110.6578668460848
 30
0.0
 10
95.53514258163328
 20
110.3931282454245
 30
0.0
 10
95.56444406134904
 20
109.8541031532164
 30
0.0
 10
95.57296253423398
 20
109.5791588025
 30
0.0
 10
95.5753811003825
 20
109.1582134736504
 30
0.0
 10
95.5744240923223
 20
109.0160588645378
 30
0.0
 10
95.56909794854067
 20
108.7369529103696
 30
0.0
 10
95.56474697929609
 20
108.5990041033928
 30
0.0
 10
95.54696138568823
 20
108.1898300438567
 30
0.0
 10
95.52845482722832
 20
107.9202044034711
 30
0.0
 10
95.48259294872541
 20
107.4139555178611
 30
0.0
 10
95.45534901863823
 20
107.1760607717297
 30
0.0
 10
95.39569895911518
 20
106.7289978436211
 30
0.0
 10
95.36408819897046
 20
106.5257235933325
 30
0.0
 10
95.30147024031501
 20
106.1586483203994
 30
0.0
 10
95.27012220032296
 20
105.9932081810551
 30
0.0
 10
95.2131093451157
 20
105.7095175913984
 30
0.0
 10
95.18727914473644
 20
105.5901198401901
 30
0.0
 10
95.14357860812531
 20
105.3946177450885
 30
0.0
 10
95.12583626592571
 20
105.3191264246025
 30
0.0
 10
95.10141127937453
 20
105.216418405527
 30
0.0
 10
95.09448969879688
 20
105.1881619842817
 30
0.0
 10
95.09213520773929
 20
105.1784812800077
 30
0.0
 10
95.0968218365301
 20
105.1975458805702
 30
0.0
 10
95.11692674577415
 20
105.2814501283834
 30
0.0
 10
95.1323249109439
 20
105.3461876164935
 30
0.0
 10
95.1725907140555
 20
105.5234319970548
 30
0.0
 10
95.19724142348448
 20
105.6351097678029
 30
0.0
 10
95.25182100240256
 20
105.8997832270451
 30
0.0
 10
95.28196035938444
 20
106.0536588077423
 30
0.0
 10
95.34467020409735
 20
106.4070203705019
 30
0.0
  0
LINE
  5
223
330
1F
100
AcDbEntity
  8
0
  6
HIDDEN
 62
     7
370
     0
100
AcDbLine
 10
75.074855394
 20
93.2008549355
 30
0.0
 11
82.07485561
 21
93.2008549355
 31
0.0
  0
SPLINE
  5
224
330
1F
100
AcDbEntity
  8
0
  6
HIDDEN
 62
     7
370
     0
100
AcDbSpline
210
0.0
220
0.0
230
1.0
 70
     8
 71
     3
 72
    73
 73
    69
 74
     0
 42
0.00000001
 43
0.00000001
 12
1.0
 22
0.0
 32
0.0
 13
1.0
 23
0.0
 33
0.0
 40
-0.0312500000000003
 40
-0.0312500000000003
 40
0.0
 40
0.0
 40
0.0312499999999995
 40
0.0312499999999995
 40
0.0624999999999991
 40
0.0624999999999991
 40
0.0937499999999986
 40
0.0937499999999986
 40
0.1093749999999984
 40
0.1093749999999984
 40
0.1249999999999982
 40
0.140624999999998
 40
0.140624999999998
 40
0.1562499999999978
 40
0.1562499999999978
 40
0.1874999999999974
 40
0.1874999999999974
 40
0.2187499999999972
 40
0.2187499999999972
 40
0.2499999999999969
 40
0.2499999999999969
 40
0.2812499999999966
 40
0.2812499999999966
 40
0.3124999999999963
 40
0.3124999999999963
 40
0.3749999999999958
 40
0.3749999999999958
 40
0.4062499999999956
 40
0.4062499999999956
 40
0.4374999999999953
 40
0.4374999999999953
 40
0.4687499999999951
 40
0.4687499999999951
 40
0.4999999999999949
 40
0.4999999999999949
 40
0.5312499999999952
 40
0.5312499999999952
 40
0.5624999999999956
 40
0.5624999999999956
 40
0.5937499999999959
 40
0.5937499999999959
 40
0.6249999999999962
 40
0.6249999999999962
 40
0.6406249999999963
 40
0.6406249999999963
 40
0.6562499999999966
 40
0.6562499999999966
 40
0.6874999999999969
 40
0.6874999999999969
 40
0.7187499999999972
 40
0.7187499999999972
 40
0.7499999999999974
 40
0.7499999999999974
 40
0.7812499999999978
 40
0.7812499999999978
 40
0.8124999999999981
 40
0.8124999999999981
 40
0.8437499999999984
 40
0.8437499999999984
 40
0.8749999999999988
 40
0.8749999999999988
 40
0.9062499999999991
 40
0.9062499999999991
 40
0.9374999999999994
 40
0.9374999999999994
 40
0.9687499999999997
 40
0.9687499999999997
 40
1.0
 40
1.0
 40
1.03125
 40
1.03125
 10
75.42765861434395
 20
92.49375083803788
 30
0.0
 10
75.7810201771035
 20
92.43104099332497
 30
0.0
 10
75.97578510982855
 20
92.39932519846943
 30
0.0
 10
76.40322676360036
 20
92.33874958242241
 30
0.0
 10
76.63851501099461
 20
92.30968952199295
 30
0.0
 10
77.12966346892496
 20
92.26059804735034
 30
0.0
 10
77.38717230143948
 20
92.24023001403269
 30
0.0
 10
77.79300815659883
 20
92.21830381264981
 30
0.0
 10
77.93209749122606
 20
92.2124466749318
 30
0.0
 10
78.20895143145783
 20
92.20422968409119
 30
0.0
 10
78.48636536766246
 20
92.19938184109888
 30
0.0
 10
78.76488842909441
 20
92.2013448929786
 30
0.0
 10
79.0439777606507
 20
92.20675659184447
 30
0.0
 10
79.18432016087009
 20
92.21123152815156
 30
0.0
 10
79.59500605906567
 20
92.22927948984407
 30
0.0
 10
79.85867579767569
 20
92.2474821880996
 30
0.0
 10
80.36675198311377
 20
92.2936331313415
 30
0.0
 10
80.60608950284998
 20
92.3211704450037
 30
0.0
 10
81.04796585630162
 20
92.3802311263148
 30
0.0
 10
81.25383486788212
 20
92.4122386530403
 30
0.0
 10
81.6205062359435
 20
92.47486979786105
 30
0.0
 10
81.78275790254686
 20
92.50563489295959
 30
0.0
 10
82.06714183589939
 20
92.56279776739227
 30
0.0
 10
82.1875634510193
 20
92.58886572026543
 30
0.0
 10
82.47841939319522
 20
92.65390227237837
 30
0.0
 10
82.58291137996203
 20
92.68009349981685
 30
0.0
 10
82.59715060352003
 20
92.68355670382533
 30
0.0
 10
82.57868838417416
 20
92.67901511337934
 30
0.0
 10
82.4940451744201
 20
92.65873230456297
 30
0.0
 10
82.42892181123332
 20
92.64325227073908
 30
0.0
 10
82.25384798914016
 20
92.60347419819172
 30
0.0
 10
82.14299997872092
 20
92.57897631875113
 30
0.0
 10
81.87637218563847
 20
92.52396999673707
 30
0.0
 10
81.72310573668146
 20
92.49398173271592
 30
0.0
 10
81.37574737616504
 20
92.43225045064547
 30
0.0
 10
81.17936618715879
 20
92.40015993345925
 30
0.0
 10
80.75075090188841
 20
92.33929191254958
 30
0.0
 10
80.52158004088238
 20
92.31089343022288
 30
0.0
 10
80.03186665268643
 20
92.26162075824429
 30
0.0
 10
79.76712805202615
 20
92.24056861578902
 30
0.0
 10
79.22810295981802
 20
92.21126713607327
 30
0.0
 10
78.95315860910159
 20
92.20274866318832
 30
0.0
 10
78.53221328025202
 20
92.20033009703982
 30
0.0
 10
78.39005867113944
 20
92.20128710510001
 30
0.0
 10
78.11095271697123
 20
92.20661324888165
 30
0.0
 10
77.97300390999442
 20
92.21096421812624
 30
0.0
 10
77.56382985045835
 20
92.22874981173408
 30
0.0
 10
77.29420421007272
 20
92.24725637019401
 30
0.0
 10
76.78795532446269
 20
92.2931182486969
 30
0.0
 10
76.55006057833131
 20
92.32036217878411
 30
0.0
 10
76.10299765022275
 20
92.38001223830716
 30
0.0
 10
75.89972339993412
 20
92.41162299845186
 30
0.0
 10
75.532648127001
 20
92.47424095710733
 30
0.0
 10
75.36720798765674
 20
92.50558899709938
 30
0.0
 10
75.08351739800007
 20
92.56260185230664
 30
0.0
 10
74.96411964679172
 20
92.5884320526859
 30
0.0
 10
74.76861755169014
 20
92.63213258929703
 30
0.0
 10
74.69312623120416
 20
92.64987493149663
 30
0.0
 10
74.59041821212863
 20
92.67429991804781
 30
0.0
 10
74.56216179088328
 20
92.68122149862546
 30
0.0
 10
74.55248108660936
 20
92.68357598968304
 30
0.0
 10
74.57154568717183
 20
92.67888936089223
 30
0.0
 10
74.65544993498499
 20
92.65878445164819
 30
0.0
 10
74.72018742309517
 20
92.64338628647845
 30
0.0
 10
74.8974318036564
 20
92.60312048336684
 30
0.0
 10
75.00910957440455
 20
92.57846977393784
 30
0.0
 10
75.27378303364677
 20
92.52389019501977
 30
0.0
 10
75.42765861434395
 20
92.49375083803788
 30
0.0
 10
75.7810201771035
 20
92.43104099332497
 30
0.0
  0
LINE
  5
225
330
1F
100
AcDbEntity
  8
0
  6
HIDDEN
 62
     7
370
     0
100
AcDbLine
 10
82.07485561
 20
125.2008564554
 30
0.0
 11
75.074855394
 21
125.2008564554
 31
0.0
  0
SPLINE
  5
226
330
1F
100
AcDbEntity
  8
0
  6
HIDDEN
 62
     7
370
     0
100
AcDbSpline
210
0.0
220
0.0
230
1.0
 70
     8
 71
     3
 72
    73
 73
    69
 74
     0
 42
0.00000001
 43
0.00000001
 12
1.0
 22
0.0
 32
0.0
 13
1.0
 23
0.0
 33
0.0
 40
-0.03125
 40
-0.03125
 40
0.0
 40
0.0
 40
0.0312499999999999
 40
0.0312499999999999
 40
0.0624999999999998
 40
0.0624999999999998
 40
0.0937499999999997
 40
0.0937499999999997
 40
0.1093749999999996
 40
0.1093749999999996
 40
0.1249999999999996
 40
0.1406249999999995
 40
0.1406249999999995
 40
0.1562499999999994
 40
0.1562499999999994
 40
0.1874999999999994
 40
0.1874999999999994
 40
0.2187499999999995
 40
0.2187499999999995
 40
0.2499999999999995
 40
0.2499999999999995
 40
0.2812499999999995
 40
0.2812499999999995
 40
0.3124999999999995
 40
0.3124999999999995
 40
0.3749999999999996
 40
0.3749999999999996
 40
0.4062499999999997
 40
0.4062499999999997
 40
0.4374999999999997
 40
0.4374999999999997
 40
0.4687499999999998
 40
0.4687499999999998
 40
0.4999999999999998
 40
0.4999999999999998
 40
0.5312499999999998
 40
0.5312499999999998
 40
0.5624999999999998
 40
0.5624999999999998
 40
0.5937499999999998
 40
0.5937499999999998
 40
0.6249999999999998
 40
0.6249999999999998
 40
0.6406249999999999
 40
0.6406249999999999
 40
0.6562499999999999
 40
0.6562499999999999
 40
0.6874999999999999
 40
0.6874999999999999
 40
0.7187499999999999
 40
0.7187499999999999
 40
0.7499999999999999
 40
0.7499999999999999
 40
0.78125
 40
0.78125
 40
0.8125
 40
0.8125
 40
0.84375
 40
0.84375
 40
0.875
 40
0.875
 40
0.90625
 40
0.90625
 40
0.9375
 40
0.9375
 40
0.96875
 40
0.96875
 40
1.0
 40
1.0
 40
1.03125
 40
1.03125
 10
81.72205238968016
 20
125.9079605527827
 30
0.0
 10
81.36869082692063
 20
125.9706703974957
 30
0.0
 10
81.17392589419558
 20
126.0023861923512
 30
0.0
 10
80.74648424042377
 20
126.0629618083982
 30
0.0
 10
80.51119599302952
 20
126.0920218688277
 30
0.0
 10
80.02004753509915
 20
126.1411133434703
 30
0.0
 10
79.76253870258464
 20
126.1614813767879
 30
0.0
 10
79.35670284742528
 20
126.1834075781708
 30
0.0
 10
79.21761351279807
 20
126.1892647158888
 30
0.0
 10
78.94075955787086
 20
126.1974816290894
 30
0.0
 10
78.66334563636167
 20
126.2023295497217
 30
0.0
 10
78.38482257492971
 20
126.2003664978421
 30
0.0
 10
78.10573324337342
 20
126.1949547989762
 30
0.0
 10
77.96539084315403
 20
126.1904798626691
 30
0.0
 10
77.55470494495846
 20
126.1724319009765
 30
0.0
 10
77.29103520634843
 20
126.154229202721
 30
0.0
 10
76.78295902091035
 20
126.1080782594791
 30
0.0
 10
76.54362150117414
 20
126.0805409458169
 30
0.0
 10
76.1017451477225
 20
126.0214802645058
 30
0.0
 10
75.895876136142
 20
125.9894727377803
 30
0.0
 10
75.52920476808062
 20
125.9268415929596
 30
0.0
 10
75.36695310147726
 20
125.8960764978611
 30
0.0
 10
75.08256916812473
 20
125.8389136234284
 30
0.0
 10
74.96214755300483
 20
125.8128456705552
 30
0.0
 10
74.67129161082889
 20
125.7478091184423
 30
0.0
 10
74.56679962406209
 20
125.7216178910038
 30
0.0
 10
74.55256040050408
 20
125.7181546869953
 30
0.0
 10
74.57102261984997
 20
125.7226962774413
 30
0.0
 10
74.65566582960403
 20
125.7429790862577
 30
0.0
 10
74.7207891927908
 20
125.7584591200816
 30
0.0
 10
74.89586301488397
 20
125.7982371926289
 30
0.0
 10
75.0067110253032
 20
125.8227350720695
 30
0.0
 10
75.27333881838564
 20
125.8777413940836
 30
0.0
 10
75.42660526734267
 20
125.9077296581047
 30
0.0
 10
75.77396362785909
 20
125.9694609401752
 30
0.0
 10
75.97034481686534
 20
126.0015514573614
 30
0.0
 10
76.39896010213572
 20
126.0624194782711
 30
0.0
 10
76.62813096314173
 20
126.0908179605978
 30
0.0
 10
77.11784435133771
 20
126.1400906325764
 30
0.0
 10
77.38258295199797
 20
126.1611427750316
 30
0.0
 10
77.92160804420612
 20
126.1904442547473
 30
0.0
 10
78.19655239492255
 20
126.1989627276323
 30
0.0
 10
78.6174977237721
 20
126.2013812937808
 30
0.0
 10
78.75965233288468
 20
126.2004242857206
 30
0.0
 10
79.0387582870529
 20
126.195098141939
 30
0.0
 10
79.17670709402972
 20
126.1907471726944
 30
0.0
 10
79.58588115356578
 20
126.1729615790865
 30
0.0
 10
79.8555067939514
 20
126.1544550206266
 30
0.0
 10
80.36175567956144
 20
126.1085931421237
 30
0.0
 10
80.59965042569281
 20
126.0813492120365
 30
0.0
 10
81.04671335380138
 20
126.0216991525135
 30
0.0
 10
81.24998760409001
 20
125.9900883923687
 30
0.0
 10
81.61706287702313
 20
125.9274704337133
 30
0.0
 10
81.78250301636739
 20
125.8961223937212
 30
0.0
 10
82.06619360602406
 20
125.839109538514
 30
0.0
 10
82.1855913572324
 20
125.8132793381347
 30
0.0
 10
82.38109345233397
 20
125.7695788015236
 30
0.0
 10
82.45658477281997
 20
125.751836459324
 30
0.0
 10
82.5592927918955
 20
125.7274114727728
 30
0.0
 10
82.58754921314083
 20
125.7204898921951
 30
0.0
 10
82.59722991741477
 20
125.7181354011376
 30
0.0
 10
82.57816531685228
 20
125.7228220299284
 30
0.0
 10
82.49426106903913
 20
125.7429269391724
 30
0.0
 10
82.42952358092894
 20
125.7583251043422
 30
0.0
 10
82.25227920036772
 20
125.7985909074538
 30
0.0
 10
82.14060142961958
 20
125.8232416168828
 30
0.0
 10
81.87592797037736
 20
125.8778211958008
 30
0.0
 10
81.72205238968016
 20
125.9079605527827
 30
0.0
 10
81.36869082692063
 20
125.9706703974957
 30
0.0
  0
LINE
  5
227
330
1F
100
AcDbEntity
  8
0
  6
HIDDEN
 62
     7
370
     0
100
AcDbLine
 10
81.4032826268
 20
106.3724285706
 30
0.0
 11
82.07485561
 21
105.7008555874
 31
0.0
  0
LINE
  5
228
330
1F
100
AcDbEntity
  8
0
  6
HIDDEN
 62
     7
370
     0
100
AcDbLine
 10
81.4032826268
 20
112.0292828202
 30
0.0
 11
82.07485561
 21
112.7008558034
 31
0.0
  0
SPLINE
  5
229
330
1F
100
AcDbEntity
  8
0
  6
HIDDEN
 62
     7
370
     0
100
AcDbSpline
210
0.0
220
0.0
230
1.0
 70
     8
 71
     3
 72
    26
 73
    22
 74
     0
 42
0.00000001
 43
0.00000001
 12
1.0
 22
0.0
 32
0.0
 13
1.0
 23
0.0
 33
0.0
 40
0.0
 40
0.0
 40
0.0
 40
0.0
 40
0.125
 40
0.125
 40
0.2499999999999999
 40
0.2499999999999999
 40
0.3125
 40
0.3125
 40
0.375
 40
0.375
 40
0.4375000000000001
 40
0.4375000000000001
 40
0.5000000000000001
 40
0.5000000000000001
 40
0.6250000000000001
 40
0.6250000000000001
 40
0.75
 40
0.75
 40
0.875
 40
0.875
 40
1.0
 40
1.0
 40
1.0
 40
1.0
 10
81.40328262675821
 20
112.0292828201565
 30
0.0
 10
81.55191787152619
 20
111.8806475753885
 30
0.0
 10
81.69997158743008
 20
111.7091703308764
 30
0.0
 10
81.97833083958662
 20
111.3161212778735
 30
0.0
 10
82.10553259572791
 20
111.0994206387089
 30
0.0
 10
82.2702396270794
 20
110.7376359543292
 30
0.0
 10
82.32102896963593
 20
110.6098842190044
 30
0.0
 10
82.40950481312038
 20
110.3474339485824
 30
0.0
 10
82.44750208718516
 20
110.2122905981504
 30
0.0
 10
82.50976826279313
 20
109.9335587056238
 30
0.0
 10
82.53417106152158
 20
109.7885879804986
 30
0.0
 10
82.56663090837839
 20
109.4963858018941
 30
0.0
 10
82.57476777526193
 20
109.3499652333251
 30
0.0
 10
82.57502884522626
 20
108.9097532800849
 30
0.0
 10
82.54151338563335
 20
108.6115199685466
 30
0.0
 10
82.41742066673642
 20
108.053517768076
 30
0.0
 10
82.32593336551992
 20
107.7867595641775
 30
0.0
 10
82.10655097460406
 20
107.3041796304642
 30
0.0
 10
81.97651508357204
 20
107.0828900047121
 30
0.0
 10
81.70025896499722
 20
106.693083821943
 30
0.0
 10
81.55323423525496
 20
106.5223801791609
 30
0.0
 10
81.4032826267582
 20
106.3724285706641
 30
0.0
  0
SPLINE
  5
22A
330
1F
100
AcDbEntity
  8
0
  6
HIDDEN
 62
     7
370
     0
100
AcDbSpline
210
0.0
220
0.0
230
1.0
 70
     8
 71
     3
 72
    24
 73
    20
 74
     0
 42
0.00000001
 43
0.00000001
 12
1.0
 22
0.0
 32
0.0
 13
1.0
 23
0.0
 33
0.0
 40
0.0
 40
0.0
 40
0.0
 40
0.0
 40
0.1249999999999999
 40
0.1249999999999999
 40
0.2499999999999997
 40
0.2499999999999997
 40
0.3124999999999997
 40
0.3124999999999997
 40
0.3749999999999997
 40
0.3749999999999997
 40
0.4999999999999997
 40
0.4999999999999997
 40
0.6249999999999998
 40
0.6249999999999998
 40
0.7499999999999998
 40
0.7499999999999998
 40
0.8749999999999999
 40
0.8749999999999999
 40
1.0
 40
1.0
 40
1.0
 40
1.0
 10
81.4032826267582
 20
106.3724285706641
 30
0.0
 10
81.55379440596019
 20
106.522940349866
 30
0.0
 10
81.70126817747293
 20
106.6944129090359
 30
0.0
 10
81.97657412668805
 20
107.0830686293475
 30
0.0
 10
82.10642370146496
 20
107.3039904184279
 30
0.0
 10
82.27079941995153
 20
107.6654350650787
 30
0.0
 10
82.32064016619827
 20
107.7908326547275
 30
0.0
 10
82.40895913990545
 20
108.0525016473913
 30
0.0
 10
82.4477071042588
 20
108.190120330126
 30
0.0
 10
82.5413626263001
 20
108.6100229952153
 30
0.0
 10
82.5745041042304
 20
108.8984233181984
 30
0.0
 10
82.57520141508856
 20
109.4939202953627
 30
0.0
 10
82.54239948118457
 20
109.7854334310611
 30
0.0
 10
82.41754060970244
 20
110.3484216058579
 30
0.0
 10
82.3273174663632
 20
110.6116002108258
 30
0.0
 10
82.10673709123728
 20
111.0974271602829
 30
0.0
 10
81.97832919485275
 20
111.3158798941998
 30
0.0
 10
81.70268738289016
 20
111.7055768903313
 30
0.0
 10
81.55289641065811
 20
111.8796690362566
 30
0.0
 10
81.40328262675821
 20
112.0292828201565
 30
0.0
  0
SPLINE
  5
22B
330
1F
100
AcDbEntity
  8
0
  6
HIDDEN
 62
     7
370
     0
100
AcDbSpline
210
0.0
220
0.0
230
1.0
 70
    11
 71
     3
 72
    60
 73
    56
 74
     0
 42
0.00000001
 43
0.00000001
 12
1.0
 22
0.0
 32
0.0
 13
1.0
 23
0.0
 33
0.0
 40
0.0
 40
0.0
 40
0.0
 40
0.0
 40
0.0312500000000003
 40
0.0312500000000003
 40
0.0625000000000007
 40
0.0625000000000007
 40
0.093750000000001
 40
0.093750000000001
 40
0.1250000000000013
 40
0.1250000000000013
 40
0.1562500000000016
 40
0.1562500000000016
 40
0.1875000000000019
 40
0.1875000000000019
 40
0.2187500000000022
 40
0.2187500000000022
 40
0.2500000000000026
 40
0.2500000000000026
 40
0.3125000000000032
 40
0.3125000000000032
 40
0.3750000000000038
 40
0.3750000000000038
 40
0.4062500000000037
 40
0.4062500000000037
 40
0.4375000000000037
 40
0.4375000000000037
 40
0.4687500000000036
 40
0.4687500000000036
 40
0.5000000000000036
 40
0.5000000000000036
 40
0.5312500000000036
 40
0.5312500000000036
 40
0.5625000000000036
 40
0.5625000000000036
 40
0.6250000000000034
 40
0.6250000000000034
 40
0.6875000000000033
 40
0.6875000000000033
 40
0.718750000000003
 40
0.718750000000003
 40
0.7500000000000027
 40
0.7500000000000027
 40
0.7812500000000023
 40
0.7812500000000023
 40
0.812500000000002
 40
0.812500000000002
 40
0.8437500000000017
 40
0.8437500000000017
 40
0.8750000000000013
 40
0.8750000000000013
 40
0.937500000000001
 40
0.937500000000001
 40
0.9687500000000006
 40
0.9687500000000006
 40
1.0
 40
1.0
 40
1.0
 40
1.0
 10
81.4032826267582
 20
106.3724285706641
 30
0.0
 10
81.30375178923482
 20
106.2728977331408
 30
0.0
 10
81.19430066504066
 20
106.173911773608
 30
0.0
 10
80.95294981361405
 20
105.980832417082
 30
0.0
 10
80.82056982858178
 20
105.8865968006379
 30
0.0
 10
80.53829567368649
 20
105.7119522071501
 30
0.0
 10
80.38759439304485
 20
105.6307668553782
 30
0.0
 10
80.06398363701577
 20
105.4841294463673
 30
0.0
 10
79.89012855623749
 20
105.4186446034412
 30
0.0
 10
79.53103414988588
 20
105.3123101646577
 30
0.0
 10
79.34433786694707
 20
105.2706307028609
 30
0.0
 10
78.9546124107086
 20
105.214057946301
 30
0.0
 10
78.75811496142734
 20
105.2002247002871
 30
0.0
 10
78.36501465820422
 20
105.2015308512802
 30
0.0
 10
78.165411068217
 20
105.2170806397392
 30
0.0
 10
77.77943679523136
 20
105.2758821261418
 30
0.0
 10
77.59318225179256
 20
105.3186211731683
 30
0.0
 10
77.05286010111051
 20
105.4826250646976
 30
0.0
 10
76.72837130694758
 20
105.6369679501806
 30
0.0
 10
76.1647000215526
 20
105.9911905566096
 30
0.0
 10
75.92931912632397
 20
106.1873701160737
 30
0.0
 10
75.63109597554184
 20
106.4889800781842
 30
0.0
 10
75.54151837554598
 20
106.5904010974794
 30
0.0
 10
75.38452816363471
 20
106.7847806128314
 30
0.0
 10
75.31646474769487
 20
106.8784928911007
 30
0.0
 10
75.20193960661774
 20
107.0482020620413
 30
0.0
 10
75.15555871993219
 20
107.1242361038331
 30
0.0
 10
75.0920888593853
 20
107.2325376507157
 30
0.0
 10
75.07480582992221
 20
107.2644537992434
 30
0.0
 10
75.07490539821256
 20
107.2642738403138
 30
0.0
 10
75.0922675331657
 20
107.232220563678
 30
0.0
 10
75.15577892831146
 20
107.1238726367852
 30
0.0
 10
75.20165172088515
 20
107.0486323875354
 30
0.0
 10
75.37416721140951
 20
106.7929790103879
 30
0.0
 10
75.53053629692724
 20
106.5908015524341
 30
0.0
 10
75.92880280619725
 20
106.1877730243429
 30
0.0
 10
76.16549906995633
 20
105.9908068341996
 30
0.0
 10
76.58551705649343
 20
105.7266816099342
 30
0.0
 10
76.7380997915282
 20
105.6430987586045
 30
0.0
 10
77.05940449163653
 20
105.4948181623385
 30
0.0
 10
77.22880442239332
 20
105.4294691530736
 30
0.0
 10
77.58777623178443
 20
105.3200201571598
 30
0.0
 10
77.7771381336199
 20
105.2764416209097
 30
0.0
 10
78.15933782169274
 20
105.2178011031012
 30
0.0
 10
78.35431350147597
 20
105.2019760460372
 30
0.0
 10
78.75269067677127
 20
105.1998493376561
 30
0.0
 10
78.95053603400602
 20
105.2137864661007
 30
0.0
 10
79.33572593127342
 20
105.2690707201984
 30
0.0
 10
79.52632446251022
 20
105.3111041384697
 30
0.0
 10
80.06815450044664
 20
105.4709898089035
 30
0.0
 10
80.39639787280122
 20
105.6242818727998
 30
0.0
 10
80.81934803772093
 20
105.8857799064671
 30
0.0
 10
80.94969784868087
 20
105.9784255487228
 30
0.0
 10
81.19148744008403
 20
106.1714713483072
 30
0.0
 10
81.30307448475013
 20
106.2722204286561
 30
0.0
 10
81.4032826267582
 20
106.3724285706641
 30
0.0
  0
SPLINE
  5
22C
330
1F
100
AcDbEntity
  8
0
  6
HIDDEN
 62
     7
370
     0
100
AcDbSpline
210
0.0
220
0.0
230
1.0
 70
    11
 71
     3
 72
    64
 73
    60
 74
     0
 42
0.00000001
 43
0.00000001
 12
1.0
 22
0.0
 32
0.0
 13
1.0
 23
0.0
 33
0.0
 40
0.0
 40
0.0
 40
0.0
 40
0.0
 40
0.062500000000001
 40
0.062500000000001
 40
0.0937500000000012
 40
0.0937500000000012
 40
0.1250000000000014
 40
0.1250000000000014
 40
0.1562500000000016
 40
0.1562500000000016
 40
0.1875000000000018
 40
0.1875000000000018
 40
0.218750000000002
 40
0.218750000000002
 40
0.2500000000000022
 40
0.2500000000000022
 40
0.3125000000000026
 40
0.3125000000000026
 40
0.3437500000000024
 40
0.3437500000000024
 40
0.3750000000000022
 40
0.3750000000000022
 40
0.4062500000000021
 40
0.4062500000000021
 40
0.4375000000000019
 40
0.4375000000000019
 40
0.4687500000000018
 40
0.4687500000000018
 40
0.5000000000000017
 40
0.5000000000000017
 40
0.5312500000000016
 40
0.5312500000000016
 40
0.5625000000000013
 40
0.5625000000000013
 40
0.5937500000000012
 40
0.5937500000000012
 40
0.6250000000000011
 40
0.6250000000000011
 40
0.6562500000000009
 40
0.6562500000000009
 40
0.6875000000000008
 40
0.6875000000000008
 40
0.7187500000000007
 40
0.7187500000000007
 40
0.7500000000000004
 40
0.7500000000000004
 40
0.7812500000000003
 40
0.7812500000000003
 40
0.8125000000000002
 40
0.8125000000000002
 40
0.8437500000000001
 40
0.8437500000000001
 40
0.8749999999999999
 40
0.8749999999999999
 40
0.9062499999999998
 40
0.9062499999999998
 40
0.9374999999999997
 40
0.9374999999999997
 40
1.0
 40
1.0
 40
1.0
 40
1.0
 10
81.40328262675828
 20
112.0292828201565
 30
0.0
 10
81.20165064158817
 20
112.2309148053266
 30
0.0
 10
80.9631959486118
 20
112.4267342227857
 30
0.0
 10
80.53933306662525
 20
112.6891853083759
 30
0.0
 10
80.38556392764275
 20
112.7719644100862
 30
0.0
 10
80.06225819623046
 20
112.9182628132703
 30
0.0
 10
79.89180739490511
 20
112.9825397251632
 30
0.0
 10
79.53052172224594
 20
113.0895827962219
 30
0.0
 10
79.34083863452379
 20
113.131597869948
 30
0.0
 10
78.95773777994782
 20
113.1871905236987
 30
0.0
 10
78.76230153732186
 20
113.2014476803458
 30
0.0
 10
78.36294268546625
 20
113.2002262964258
 30
0.0
 10
78.1663105466589
 20
113.1846818565287
 30
0.0
 10
77.7819783998816
 20
113.1263016272087
 30
0.0
 10
77.59194195194715
 20
113.0827493013002
 30
0.0
 10
77.05325515471078
 20
112.9191349265189
 30
0.0
 10
76.72717593795761
 20
112.763869827836
 30
0.0
 10
76.30780765465084
 20
112.5005134697253
 30
0.0
 10
76.1785628228341
 20
112.4073400626241
 30
0.0
 10
75.93890454115031
 20
112.2134165883053
 30
0.0
 10
75.82855467507818
 20
112.1125008780874
 30
0.0
 10
75.63052344761564
 20
111.9120832135796
 30
0.0
 10
75.54199587478388
 20
111.8118725730389
 30
0.0
 10
75.38477978971781
 20
111.6172711405609
 30
0.0
 10
75.31565164678177
 20
111.5220780711854
 30
0.0
 10
75.2011660310655
 20
111.3522976401002
 30
0.0
 10
75.15544543862983
 20
111.2773013672838
 30
0.0
 10
75.09157185960893
 20
111.1682719900385
 30
0.0
 10
75.07469247907567
 20
111.1370527225486
 30
0.0
 10
75.0750208703523
 20
111.1376462535413
 30
0.0
 10
75.09221025797298
 20
111.1694047737385
 30
0.0
 10
75.15621423545993
 20
111.2785696459438
 30
0.0
 10
75.2023977390657
 20
111.3542095152341
 30
0.0
 10
75.31653065636327
 20
111.5232947659641
 30
0.0
 10
75.38540179376282
 20
111.6181204809022
 30
0.0
 10
75.54338453086083
 20
111.8135110020498
 30
0.0
 10
75.63196278177547
 20
111.9136023117921
 30
0.0
 10
75.82888508177044
 20
112.11277228396
 30
0.0
 10
75.93722645821128
 20
112.2119280322331
 30
0.0
 10
76.17616710043096
 20
112.4055300224521
 30
0.0
 10
76.30748582769827
 20
112.5003113833165
 30
0.0
 10
76.58770887825375
 20
112.676286801351
 30
0.0
 10
76.73733231139575
 20
112.7582153684545
 30
0.0
 10
77.05857022181296
 20
112.9065510779944
 30
0.0
 10
77.23151365364609
 20
112.9731703288061
 30
0.0
 10
77.58908718931205
 20
113.081987727251
 30
0.0
 10
77.77499114635971
 20
113.124977942789
 30
0.0
 10
78.16298445479475
 20
113.1844320584639
 30
0.0
 10
78.36009692275675
 20
113.1999171393556
 30
0.0
 10
78.75310010543839
 20
113.2017109216291
 30
0.0
 10
78.95255798432356
 20
113.1877909649188
 30
0.0
 10
79.34001186976843
 20
113.1318667283734
 30
0.0
 10
79.52695773089434
 20
113.0904614921006
 30
0.0
 10
79.88851962482522
 20
112.9836877667985
 30
0.0
 10
80.06185379203096
 20
112.9184348100061
 30
0.0
 10
80.38555743910379
 20
112.7719783316145
 30
0.0
 10
80.53835041893896
 20
112.6897901588396
 30
0.0
 10
80.96497490328015
 20
112.4256398995534
 30
0.0
 10
81.20244526023042
 20
112.2301201866843
 30
0.0
 10
81.4032826267582
 20
112.0292828201565
 30
0.0
  0
LINE
  5
22D
330
1F
100
AcDbEntity
  8
0
  6
HIDDEN
 62
     7
370
     0
100
AcDbLine
 10
75.074855394
 20
125.2008564554
 30
0.0
 11
82.07485561
 21
125.2008564554
 31
0.0
  0
SPLINE
  5
22E
330
1F
100
AcDbEntity
  8
0
  6
HIDDEN
 62
     7
370
     0
100
AcDbSpline
210
0.0
220
0.0
230
1.0
 70
     8
 71
     3
 72
    73
 73
    69
 74
     0
 42
0.00000001
 43
0.00000001
 12
1.0
 22
0.0
 32
0.0
 13
1.0
 23
0.0
 33
0.0
 40
-0.0312500000000001
 40
-0.0312500000000001
 40
0.0
 40
0.0
 40
0.0312499999999998
 40
0.0312499999999998
 40
0.0624999999999997
 40
0.0624999999999997
 40
0.0937499999999995
 40
0.0937499999999995
 40
0.1093749999999994
 40
0.1093749999999994
 40
0.1249999999999993
 40
0.1406249999999992
 40
0.1406249999999992
 40
0.1562499999999991
 40
0.1562499999999991
 40
0.1874999999999991
 40
0.1874999999999991
 40
0.2187499999999991
 40
0.2187499999999991
 40
0.2499999999999991
 40
0.2499999999999991
 40
0.2812499999999991
 40
0.2812499999999991
 40
0.3124999999999991
 40
0.3124999999999991
 40
0.3749999999999991
 40
0.3749999999999991
 40
0.4062499999999991
 40
0.4062499999999991
 40
0.4374999999999991
 40
0.4374999999999991
 40
0.4687499999999991
 40
0.4687499999999991
 40
0.4999999999999991
 40
0.4999999999999991
 40
0.5312499999999991
 40
0.5312499999999991
 40
0.5624999999999992
 40
0.5624999999999992
 40
0.5937499999999992
 40
0.5937499999999992
 40
0.6249999999999993
 40
0.6249999999999993
 40
0.6406249999999993
 40
0.6406249999999993
 40
0.6562499999999993
 40
0.6562499999999993
 40
0.6874999999999994
 40
0.6874999999999994
 40
0.7187499999999994
 40
0.7187499999999994
 40
0.7499999999999996
 40
0.7499999999999996
 40
0.7812499999999996
 40
0.7812499999999996
 40
0.8124999999999997
 40
0.8124999999999997
 40
0.8437499999999997
 40
0.8437499999999997
 40
0.8749999999999998
 40
0.8749999999999998
 40
0.9062499999999998
 40
0.9062499999999998
 40
0.9374999999999999
 40
0.9374999999999999
 40
0.9687499999999999
 40
0.9687499999999999
 40
1.0
 40
1.0
 40
1.03125
 40
1.03125
 10
81.72205238968016
 20
125.9079605527827
 30
0.0
 10
81.36869082692063
 20
125.9706703974957
 30
0.0
 10
81.17392589419558
 20
126.0023861923512
 30
0.0
 10
80.74648424042377
 20
126.0629618083982
 30
0.0
 10
80.51119599302952
 20
126.0920218688277
 30
0.0
 10
80.02004753509915
 20
126.1411133434703
 30
0.0
 10
79.76253870258464
 20
126.1614813767879
 30
0.0
 10
79.35670284742528
 20
126.1834075781708
 30
0.0
 10
79.21761351279807
 20
126.1892647158888
 30
0.0
 10
78.94075957256628
 20
126.1974817067294
 30
0.0
 10
78.66334563636167
 20
126.2023295497218
 30
0.0
 10
78.3848225749297
 20
126.2003664978421
 30
0.0
 10
78.10573324337342
 20
126.1949547989762
 30
0.0
 10
77.96539084315403
 20
126.1904798626691
 30
0.0
 10
77.55470494495846
 20
126.1724319009766
 30
0.0
 10
77.29103520634843
 20
126.154229202721
 30
0.0
 10
76.78295902091035
 20
126.1080782594791
 30
0.0
 10
76.54362150117414
 20
126.0805409458169
 30
0.0
 10
76.1017451477225
 20
126.0214802645059
 30
0.0
 10
75.895876136142
 20
125.9894727377803
 30
0.0
 10
75.52920476808062
 20
125.9268415929596
 30
0.0
 10
75.36695310147726
 20
125.8960764978611
 30
0.0
 10
75.08256916812473
 20
125.8389136234284
 30
0.0
 10
74.96214755300481
 20
125.8128456705552
 30
0.0
 10
74.67129161082889
 20
125.7478091184423
 30
0.0
 10
74.56679962406209
 20
125.7216178910038
 30
0.0
 10
74.55256040050408
 20
125.7181546869953
 30
0.0
 10
74.57102261984997
 20
125.7226962774413
 30
0.0
 10
74.65566582960403
 20
125.7429790862577
 30
0.0
 10
74.7207891927908
 20
125.7584591200816
 30
0.0
 10
74.89586301488397
 20
125.7982371926289
 30
0.0
 10
75.0067110253032
 20
125.8227350720695
 30
0.0
 10
75.27333881838564
 20
125.8777413940836
 30
0.0
 10
75.42660526734267
 20
125.9077296581047
 30
0.0
 10
75.77396362785909
 20
125.9694609401752
 30
0.0
 10
75.97034481686534
 20
126.0015514573614
 30
0.0
 10
76.39896010213572
 20
126.0624194782711
 30
0.0
 10
76.62813096314173
 20
126.0908179605978
 30
0.0
 10
77.1178443513377
 20
126.1400906325764
 30
0.0
 10
77.38258295199797
 20
126.1611427750316
 30
0.0
 10
77.92160804420611
 20
126.1904442547473
 30
0.0
 10
78.19655239492255
 20
126.1989627276323
 30
0.0
 10
78.6174977237721
 20
126.2013812937808
 30
0.0
 10
78.75965233288468
 20
126.2004242857206
 30
0.0
 10
79.0387582870529
 20
126.195098141939
 30
0.0
 10
79.17670709402972
 20
126.1907471726944
 30
0.0
 10
79.58588115356578
 20
126.1729615790865
 30
0.0
 10
79.8555067939514
 20
126.1544550206266
 30
0.0
 10
80.36175567956144
 20
126.1085931421237
 30
0.0
 10
80.59965042569281
 20
126.0813492120365
 30
0.0
 10
81.04671335380138
 20
126.0216991525135
 30
0.0
 10
81.24998760409001
 20
125.9900883923687
 30
0.0
 10
81.61706287702313
 20
125.9274704337133
 30
0.0
 10
81.78250301636739
 20
125.8961223937212
 30
0.0
 10
82.06619360602406
 20
125.839109538514
 30
0.0
 10
82.1855913572324
 20
125.8132793381347
 30
0.0
 10
82.38109345233397
 20
125.7695788015236
 30
0.0
 10
82.45658477281997
 20
125.751836459324
 30
0.0
 10
82.5592927918955
 20
125.7274114727728
 30
0.0
 10
82.58754921314083
 20
125.7204898921951
 30
0.0
 10
82.59722991741477
 20
125.7181354011376
 30
0.0
 10
82.57816531685228
 20
125.7228220299284
 30
0.0
 10
82.49426106903913
 20
125.7429269391724
 30
0.0
 10
82.42952358092896
 20
125.7583251043421
 30
0.0
 10
82.25227920036772
 20
125.7985909074538
 30
0.0
 10
82.14060142961958
 20
125.8232416168828
 30
0.0
 10
81.87592797037736
 20
125.8778211958008
 30
0.0
 10
81.72205238968016
 20
125.9079605527827
 30
0.0
 10
81.36869082692063
 20
125.9706703974957
 30
0.0
  0
LINE
  5
22F
330
1F
100
AcDbEntity
  8
0
  6
HIDDEN
 62
     7
370
     0
100
AcDbLine
 10
82.07485561
 20
93.2008549355
 30
0.0
 11
75.074855394
 21
93.2008549355
 31
0.0
  0
SPLINE
  5
230
330
1F
100
AcDbEntity
  8
0
  6
HIDDEN
 62
     7
370
     0
100
AcDbSpline
210
0.0
220
0.0
230
1.0
 70
     8
 71
     3
 72
    73
 73
    69
 74
     0
 42
0.00000001
 43
0.00000001
 12
1.0
 22
0.0
 32
0.0
 13
1.0
 23
0.0
 33
0.0
 40
-0.0312500000000001
 40
-0.0312500000000001
 40
0.0
 40
0.0
 40
0.0312499999999999
 40
0.0312499999999999
 40
0.0624999999999997
 40
0.0624999999999997
 40
0.0937499999999996
 40
0.0937499999999996
 40
0.1093749999999995
 40
0.1093749999999995
 40
0.1249999999999995
 40
0.1406249999999994
 40
0.1406249999999994
 40
0.1562499999999993
 40
0.1562499999999993
 40
0.1874999999999994
 40
0.1874999999999994
 40
0.2187499999999994
 40
0.2187499999999994
 40
0.2499999999999994
 40
0.2499999999999994
 40
0.2812499999999995
 40
0.2812499999999995
 40
0.3124999999999995
 40
0.3124999999999995
 40
0.3749999999999996
 40
0.3749999999999996
 40
0.4062499999999996
 40
0.4062499999999996
 40
0.4374999999999997
 40
0.4374999999999997
 40
0.4687499999999997
 40
0.4687499999999997
 40
0.4999999999999997
 40
0.4999999999999997
 40
0.5312499999999998
 40
0.5312499999999998
 40
0.5624999999999999
 40
0.5624999999999999
 40
0.5937499999999999
 40
0.5937499999999999
 40
0.625
 40
0.625
 40
0.6406250000000001
 40
0.6406250000000001
 40
0.6562500000000001
 40
0.6562500000000001
 40
0.6875000000000001
 40
0.6875000000000001
 40
0.7187500000000001
 40
0.7187500000000001
 40
0.75
 40
0.75
 40
0.78125
 40
0.78125
 40
0.8125
 40
0.8125
 40
0.84375
 40
0.84375
 40
0.875
 40
0.875
 40
0.90625
 40
0.90625
 40
0.9374999999999999
 40
0.9374999999999999
 40
0.9687499999999999
 40
0.9687499999999999
 40
1.0
 40
1.0
 40
1.03125
 40
1.03125
 10
75.42765861434395
 20
92.49375083803788
 30
0.0
 10
75.7810201771035
 20
92.43104099332497
 30
0.0
 10
75.97578510982855
 20
92.39932519846941
 30
0.0
 10
76.40322676360036
 20
92.3387495824224
 30
0.0
 10
76.63851501099461
 20
92.30968952199294
 30
0.0
 10
77.12966346892496
 20
92.26059804735034
 30
0.0
 10
77.38717230143949
 20
92.24023001403269
 30
0.0
 10
77.79300815659884
 20
92.21830381264981
 30
0.0
 10
77.93209749122606
 20
92.2124466749318
 30
0.0
 10
78.20895143145783
 20
92.20422968409119
 30
0.0
 10
78.48636536766246
 20
92.19938184109887
 30
0.0
 10
78.76488842909441
 20
92.2013448929786
 30
0.0
 10
79.0439777606507
 20
92.20675659184447
 30
0.0
 10
79.1843201608701
 20
92.21123152815156
 30
0.0
 10
79.59500605906567
 20
92.22927948984406
 30
0.0
 10
79.8586757976757
 20
92.2474821880996
 30
0.0
 10
80.36675198311377
 20
92.2936331313415
 30
0.0
 10
80.60608950284998
 20
92.32117044500373
 30
0.0
 10
81.04796585630162
 20
92.3802311263148
 30
0.0
 10
81.25383486788213
 20
92.4122386530403
 30
0.0
 10
81.6205062359435
 20
92.47486979786106
 30
0.0
 10
81.78275790254686
 20
92.50563489295959
 30
0.0
 10
82.06714183589939
 20
92.56279776739227
 30
0.0
 10
82.1875634510193
 20
92.58886572026543
 30
0.0
 10
82.47841939319522
 20
92.65390227237837
 30
0.0
 10
82.58291137996204
 20
92.68009349981685
 30
0.0
 10
82.59715060352005
 20
92.68355670382532
 30
0.0
 10
82.57868838417416
 20
92.67901511337934
 30
0.0
 10
82.4940451744201
 20
92.65873230456297
 30
0.0
 10
82.42892181123332
 20
92.64325227073908
 30
0.0
 10
82.25384798914016
 20
92.60347419819172
 30
0.0
 10
82.14299997872092
 20
92.57897631875113
 30
0.0
 10
81.87637218563847
 20
92.52396999673705
 30
0.0
 10
81.72310573668146
 20
92.49398173271592
 30
0.0
 10
81.37574737616504
 20
92.43225045064547
 30
0.0
 10
81.17936618715879
 20
92.40015993345925
 30
0.0
 10
80.75075090188841
 20
92.33929191254958
 30
0.0
 10
80.52158004088238
 20
92.31089343022288
 30
0.0
 10
80.03186665268643
 20
92.26162075824429
 30
0.0
 10
79.76712805202615
 20
92.24056861578903
 30
0.0
 10
79.22810295981802
 20
92.21126713607327
 30
0.0
 10
78.95315860910158
 20
92.20274866318834
 30
0.0
 10
78.53221328025202
 20
92.20033009703981
 30
0.0
 10
78.39005867113944
 20
92.20128710510001
 30
0.0
 10
78.11095271697123
 20
92.20661324888164
 30
0.0
 10
77.97300390999442
 20
92.21096421812624
 30
0.0
 10
77.56382985045835
 20
92.22874981173409
 30
0.0
 10
77.29420421007272
 20
92.24725637019401
 30
0.0
 10
76.78795532446269
 20
92.29311824869691
 30
0.0
 10
76.55006057833131
 20
92.3203621787841
 30
0.0
 10
76.10299765022275
 20
92.38001223830715
 30
0.0
 10
75.89972339993412
 20
92.41162299845186
 30
0.0
 10
75.532648127001
 20
92.47424095710733
 30
0.0
 10
75.36720798765674
 20
92.50558899709938
 30
0.0
 10
75.08351739800007
 20
92.56260185230666
 30
0.0
 10
74.96411964679172
 20
92.5884320526859
 30
0.0
 10
74.76861755169014
 20
92.63213258929704
 30
0.0
 10
74.69312623120416
 20
92.64987493149663
 30
0.0
 10
74.59041821212863
 20
92.67429991804781
 30
0.0
 10
74.56216179088328
 20
92.68122149862546
 30
0.0
 10
74.55248108660935
 20
92.68357598968304
 30
0.0
 10
74.57154568717183
 20
92.67888936089223
 30
0.0
 10
74.65544993498499
 20
92.65878445164819
 30
0.0
 10
74.72018742309517
 20
92.64338628647843
 30
0.0
 10
74.8974318036564
 20
92.60312048336684
 30
0.0
 10
75.00910957440455
 20
92.57846977393785
 30
0.0
 10
75.27378303364677
 20
92.52389019501977
 30
0.0
 10
75.42765861434395
 20
92.49375083803788
 30
0.0
 10
75.7810201771035
 20
92.43104099332497
 30
0.0
  0
LINE
  5
231
330
1F
100
AcDbEntity
  8
0
  6
HIDDEN
 62
     7
370
     0
100
AcDbLine
 10
81.4032826268
 20
106.3724285706
 30
0.0
 11
82.07485561
 21
105.7008555874
 31
0.0
  0
LINE
  5
232
330
1F
100
AcDbEntity
  8
0
  6
HIDDEN
 62
     7
370
     0
100
AcDbLine
 10
81.4032826268
 20
112.0292828202
 30
0.0
 11
82.07485561
 21
112.7008558034
 31
0.0
  0
SPLINE
  5
233
330
1F
100
AcDbEntity
  8
0
  6
HIDDEN
 62
     7
370
     0
100
AcDbSpline
210
0.0
220
0.0
230
1.0
 70
    11
 71
     3
 72
    64
 73
    60
 74
     0
 42
0.00000001
 43
0.00000001
 12
1.0
 22
0.0
 32
0.0
 13
1.0
 23
0.0
 33
0.0
 40
0.0
 40
0.0
 40
0.0
 40
0.0
 40
0.0624999999999993
 40
0.0624999999999993
 40
0.0937499999999993
 40
0.0937499999999993
 40
0.1249999999999992
 40
0.1249999999999992
 40
0.1562499999999991
 40
0.1562499999999991
 40
0.1874999999999991
 40
0.1874999999999991
 40
0.218749999999999
 40
0.218749999999999
 40
0.249999999999999
 40
0.249999999999999
 40
0.3124999999999985
 40
0.3124999999999985
 40
0.3437499999999986
 40
0.3437499999999986
 40
0.3749999999999987
 40
0.3749999999999987
 40
0.4062499999999988
 40
0.4062499999999988
 40
0.4374999999999989
 40
0.4374999999999989
 40
0.468749999999999
 40
0.468749999999999
 40
0.4999999999999991
 40
0.4999999999999991
 40
0.5312499999999992
 40
0.5312499999999992
 40
0.5624999999999993
 40
0.5624999999999993
 40
0.5937499999999994
 40
0.5937499999999994
 40
0.6249999999999994
 40
0.6249999999999994
 40
0.6562499999999996
 40
0.6562499999999996
 40
0.6874999999999997
 40
0.6874999999999997
 40
0.7187499999999998
 40
0.7187499999999998
 40
0.7499999999999999
 40
0.7499999999999999
 40
0.78125
 40
0.78125
 40
0.8125000000000001
 40
0.8125000000000001
 40
0.8437500000000002
 40
0.8437500000000002
 40
0.8750000000000002
 40
0.8750000000000002
 40
0.9062500000000003
 40
0.9062500000000003
 40
0.9375000000000004
 40
0.9375000000000004
 40
1.0
 40
1.0
 40
1.0
 40
1.0
 10
81.40328262675828
 20
112.0292828201565
 30
0.0
 10
81.20165064158817
 20
112.2309148053266
 30
0.0
 10
80.9631959486118
 20
112.4267342227857
 30
0.0
 10
80.53933306662525
 20
112.6891853083759
 30
0.0
 10
80.38556392764275
 20
112.7719644100862
 30
0.0
 10
80.06225819623046
 20
112.9182628132703
 30
0.0
 10
79.89180739490511
 20
112.9825397251632
 30
0.0
 10
79.53052172224594
 20
113.0895827962219
 30
0.0
 10
79.34083863452379
 20
113.131597869948
 30
0.0
 10
78.95773777994782
 20
113.1871905236987
 30
0.0
 10
78.76230153732185
 20
113.2014476803458
 30
0.0
 10
78.36294268546624
 20
113.2002262964258
 30
0.0
 10
78.16631054665889
 20
113.1846818565287
 30
0.0
 10
77.7819783998816
 20
113.1263016272087
 30
0.0
 10
77.59194195194715
 20
113.0827493013002
 30
0.0
 10
77.05325515471078
 20
112.9191349265189
 30
0.0
 10
76.72717593795761
 20
112.763869827836
 30
0.0
 10
76.30780765465084
 20
112.5005134697253
 30
0.0
 10
76.1785628228341
 20
112.4073400626241
 30
0.0
 10
75.93890454115032
 20
112.2134165883053
 30
0.0
 10
75.82855467507818
 20
112.1125008780874
 30
0.0
 10
75.63052344761564
 20
111.9120832135796
 30
0.0
 10
75.54199587478388
 20
111.8118725730389
 30
0.0
 10
75.38477978971781
 20
111.6172711405609
 30
0.0
 10
75.31565164678177
 20
111.5220780711854
 30
0.0
 10
75.2011660310655
 20
111.3522976401002
 30
0.0
 10
75.15544543862983
 20
111.2773013672838
 30
0.0
 10
75.09157185960893
 20
111.1682719900385
 30
0.0
 10
75.07469247907568
 20
111.1370527225486
 30
0.0
 10
75.0750208703523
 20
111.1376462535413
 30
0.0
 10
75.09221025797298
 20
111.1694047737385
 30
0.0
 10
75.15621423545993
 20
111.2785696459438
 30
0.0
 10
75.2023977390657
 20
111.3542095152341
 30
0.0
 10
75.31653065636327
 20
111.5232947659641
 30
0.0
 10
75.38540179376282
 20
111.6181204809022
 30
0.0
 10
75.54338453086083
 20
111.8135110020498
 30
0.0
 10
75.63196278177547
 20
111.9136023117921
 30
0.0
 10
75.82888508177044
 20
112.11277228396
 30
0.0
 10
75.93722645821128
 20
112.2119280322331
 30
0.0
 10
76.17616710043096
 20
112.4055300224521
 30
0.0
 10
76.30748582769827
 20
112.5003113833165
 30
0.0
 10
76.58770887825375
 20
112.676286801351
 30
0.0
 10
76.73733231139575
 20
112.7582153684545
 30
0.0
 10
77.05857022181296
 20
112.9065510779944
 30
0.0
 10
77.23151365364609
 20
112.9731703288061
 30
0.0
 10
77.58908718931205
 20
113.081987727251
 30
0.0
 10
77.77499114635971
 20
113.124977942789
 30
0.0
 10
78.16298445479475
 20
113.1844320584639
 30
0.0
 10
78.36009692275675
 20
113.1999171393556
 30
0.0
 10
78.7531001054384
 20
113.2017109216291
 30
0.0
 10
78.95255798432356
 20
113.1877909649188
 30
0.0
 10
79.34001186976843
 20
113.1318667283733
 30
0.0
 10
79.52695773089434
 20
113.0904614921006
 30
0.0
 10
79.88851962482524
 20
112.9836877667985
 30
0.0
 10
80.06185379203096
 20
112.9184348100061
 30
0.0
 10
80.38555743910379
 20
112.7719783316145
 30
0.0
 10
80.53835041893895
 20
112.6897901588396
 30
0.0
 10
80.96497490328015
 20
112.4256398995534
 30
0.0
 10
81.20244526023042
 20
112.2301201866843
 30
0.0
 10
81.4032826267582
 20
112.0292828201565
 30
0.0
  0
SPLINE
  5
234
330
1F
100
AcDbEntity
  8
0
  6
HIDDEN
 62
     7
370
     0
100
AcDbSpline
210
0.0
220
0.0
230
1.0
 70
    11
 71
     3
 72
    60
 73
    56
 74
     0
 42
0.00000001
 43
0.00000001
 12
1.0
 22
0.0
 32
0.0
 13
1.0
 23
0.0
 33
0.0
 40
0.0
 40
0.0
 40
0.0
 40
0.0
 40
0.0312499999999998
 40
0.0312499999999998
 40
0.0624999999999996
 40
0.0624999999999996
 40
0.0937499999999994
 40
0.0937499999999994
 40
0.1249999999999993
 40
0.1249999999999993
 40
0.156249999999999
 40
0.156249999999999
 40
0.1874999999999988
 40
0.1874999999999988
 40
0.2187499999999986
 40
0.2187499999999986
 40
0.2499999999999984
 40
0.2499999999999984
 40
0.3124999999999983
 40
0.3124999999999983
 40
0.3749999999999982
 40
0.3749999999999982
 40
0.4062499999999981
 40
0.4062499999999981
 40
0.4374999999999981
 40
0.4374999999999981
 40
0.4687499999999979
 40
0.4687499999999979
 40
0.4999999999999979
 40
0.4999999999999979
 40
0.5312499999999978
 40
0.5312499999999978
 40
0.5624999999999978
 40
0.5624999999999978
 40
0.6249999999999976
 40
0.6249999999999976
 40
0.6874999999999974
 40
0.6874999999999974
 40
0.7187499999999977
 40
0.7187499999999977
 40
0.7499999999999979
 40
0.7499999999999979
 40
0.7812499999999982
 40
0.7812499999999982
 40
0.8124999999999984
 40
0.8124999999999984
 40
0.8437499999999987
 40
0.8437499999999987
 40
0.874999999999999
 40
0.874999999999999
 40
0.9374999999999991
 40
0.9374999999999991
 40
0.9687499999999996
 40
0.9687499999999996
 40
1.0
 40
1.0
 40
1.0
 40
1.0
 10
81.4032826267582
 20
106.3724285706641
 30
0.0
 10
81.30375178923482
 20
106.2728977331408
 30
0.0
 10
81.19430066504066
 20
106.173911773608
 30
0.0
 10
80.95294981361405
 20
105.980832417082
 30
0.0
 10
80.82056982858178
 20
105.8865968006379
 30
0.0
 10
80.53829567368649
 20
105.7119522071502
 30
0.0
 10
80.38759439304485
 20
105.6307668553782
 30
0.0
 10
80.06398363701575
 20
105.4841294463673
 30
0.0
 10
79.89012855623749
 20
105.4186446034412
 30
0.0
 10
79.53103414988588
 20
105.3123101646577
 30
0.0
 10
79.34433786694707
 20
105.2706307028609
 30
0.0
 10
78.9546124107086
 20
105.214057946301
 30
0.0
 10
78.75811496142732
 20
105.2002247002871
 30
0.0
 10
78.36501465820422
 20
105.2015308512802
 30
0.0
 10
78.165411068217
 20
105.2170806397392
 30
0.0
 10
77.77943679523136
 20
105.2758821261418
 30
0.0
 10
77.59318225179256
 20
105.3186211731683
 30
0.0
 10
77.05286010111051
 20
105.4826250646976
 30
0.0
 10
76.72837130694757
 20
105.6369679501806
 30
0.0
 10
76.1647000215526
 20
105.9911905566096
 30
0.0
 10
75.92931912632397
 20
106.1873701160737
 30
0.0
 10
75.63109597554184
 20
106.4889800781842
 30
0.0
 10
75.54151837554598
 20
106.5904010974794
 30
0.0
 10
75.38452816363471
 20
106.7847806128314
 30
0.0
 10
75.31646474769487
 20
106.8784928911007
 30
0.0
 10
75.20193960661774
 20
107.0482020620413
 30
0.0
 10
75.15555871993219
 20
107.1242361038331
 30
0.0
 10
75.0920888593853
 20
107.2325376507157
 30
0.0
 10
75.07480582992221
 20
107.2644537992434
 30
0.0
 10
75.07490539821256
 20
107.2642738403138
 30
0.0
 10
75.0922675331657
 20
107.232220563678
 30
0.0
 10
75.15577892831146
 20
107.1238726367851
 30
0.0
 10
75.20165172088517
 20
107.0486323875354
 30
0.0
 10
75.37416721140951
 20
106.7929790103879
 30
0.0
 10
75.53053629692724
 20
106.5908015524341
 30
0.0
 10
75.92880280619725
 20
106.1877730243429
 30
0.0
 10
76.16549906995633
 20
105.9908068341996
 30
0.0
 10
76.58551705649343
 20
105.7266816099342
 30
0.0
 10
76.73809979152821
 20
105.6430987586045
 30
0.0
 10
77.05940449163653
 20
105.4948181623385
 30
0.0
 10
77.22880442239332
 20
105.4294691530736
 30
0.0
 10
77.58777623178443
 20
105.3200201571598
 30
0.0
 10
77.7771381336199
 20
105.2764416209097
 30
0.0
 10
78.15933782169274
 20
105.2178011031012
 30
0.0
 10
78.35431350147597
 20
105.2019760460372
 30
0.0
 10
78.75269067677127
 20
105.1998493376561
 30
0.0
 10
78.95053603400603
 20
105.2137864661007
 30
0.0
 10
79.33572593127342
 20
105.2690707201984
 30
0.0
 10
79.52632446251022
 20
105.3111041384697
 30
0.0
 10
80.06815450044664
 20
105.4709898089035
 30
0.0
 10
80.39639787280123
 20
105.6242818727998
 30
0.0
 10
80.81934803772093
 20
105.8857799064671
 30
0.0
 10
80.94969784868087
 20
105.9784255487228
 30
0.0
 10
81.19148744008403
 20
106.1714713483072
 30
0.0
 10
81.30307448475013
 20
106.2722204286561
 30
0.0
 10
81.4032826267582
 20
106.3724285706641
 30
0.0
  0
LINE
  5
235
330
1F
100
AcDbEntity
  8
0
  6
HIDDEN
 62
     7
370
     0
100
AcDbLine
 10
75.074855394
 20
125.2008564554
 30
0.0
 11
82.07485561
 21
125.2008564554
 31
0.0
  0
SPLINE
  5
236
330
1F
100
AcDbEntity
  8
0
  6
HIDDEN
 62
     7
370
     0
100
AcDbSpline
210
0.0
220
0.0
230
1.0
 70
     8
 71
     3
 72
    73
 73
    69
 74
     0
 42
0.00000001
 43
0.00000001
 12
1.0
 22
0.0
 32
0.0
 13
1.0
 23
0.0
 33
0.0
 40
-0.0312499999999999
 40
-0.0312499999999999
 40
0.0
 40
0.0
 40
0.0312500000000001
 40
0.0312500000000001
 40
0.0625000000000002
 40
0.0625000000000002
 40
0.0937500000000004
 40
0.0937500000000004
 40
0.1093750000000004
 40
0.1093750000000004
 40
0.1250000000000005
 40
0.1406250000000006
 40
0.1406250000000006
 40
0.1562500000000006
 40
0.1562500000000006
 40
0.1875000000000006
 40
0.1875000000000006
 40
0.2187500000000006
 40
0.2187500000000006
 40
0.2500000000000006
 40
0.2500000000000006
 40
0.2812500000000005
 40
0.2812500000000005
 40
0.3125000000000004
 40
0.3125000000000004
 40
0.3750000000000003
 40
0.3750000000000003
 40
0.4062500000000003
 40
0.4062500000000003
 40
0.4375000000000003
 40
0.4375000000000003
 40
0.4687500000000002
 40
0.4687500000000002
 40
0.5000000000000001
 40
0.5000000000000001
 40
0.5312500000000001
 40
0.5312500000000001
 40
0.5625000000000001
 40
0.5625000000000001
 40
0.5937500000000001
 40
0.5937500000000001
 40
0.6250000000000001
 40
0.6250000000000001
 40
0.6406250000000001
 40
0.6406250000000001
 40
0.65625
 40
0.65625
 40
0.6875
 40
0.6875
 40
0.71875
 40
0.71875
 40
0.75
 40
0.75
 40
0.7812500000000001
 40
0.7812500000000001
 40
0.8125000000000001
 40
0.8125000000000001
 40
0.8437500000000001
 40
0.8437500000000001
 40
0.8750000000000001
 40
0.8750000000000001
 40
0.9062500000000001
 40
0.9062500000000001
 40
0.9375000000000001
 40
0.9375000000000001
 40
0.9687500000000001
 40
0.9687500000000001
 40
1.0
 40
1.0
 40
1.03125
 40
1.03125
 10
81.72205238968016
 20
125.9079605527827
 30
0.0
 10
81.36869082692063
 20
125.9706703974957
 30
0.0
 10
81.17392589419558
 20
126.0023861923512
 30
0.0
 10
80.74648424042377
 20
126.0629618083982
 30
0.0
 10
80.51119599302952
 20
126.0920218688276
 30
0.0
 10
80.02004753509915
 20
126.1411133434703
 30
0.0
 10
79.76253870258464
 20
126.1614813767879
 30
0.0
 10
79.35670284742528
 20
126.1834075781708
 30
0.0
 10
79.21761351279807
 20
126.1892647158888
 30
0.0
 10
78.94075957256628
 20
126.1974817067294
 30
0.0
 10
78.66334563636167
 20
126.2023295497217
 30
0.0
 10
78.3848225749297
 20
126.200366497842
 30
0.0
 10
78.10573324337342
 20
126.1949547989762
 30
0.0
 10
77.96539084315404
 20
126.1904798626691
 30
0.0
 10
77.55470494495846
 20
126.1724319009766
 30
0.0
 10
77.29103520634843
 20
126.154229202721
 30
0.0
 10
76.78295902091034
 20
126.1080782594792
 30
0.0
 10
76.54362150117414
 20
126.0805409458169
 30
0.0
 10
76.1017451477225
 20
126.0214802645059
 30
0.0
 10
75.895876136142
 20
125.9894727377803
 30
0.0
 10
75.52920476808062
 20
125.9268415929596
 30
0.0
 10
75.36695310147726
 20
125.8960764978611
 30
0.0
 10
75.08256916812473
 20
125.8389136234284
 30
0.0
 10
74.96214755300483
 20
125.8128456705552
 30
0.0
 10
74.67129161082889
 20
125.7478091184423
 30
0.0
 10
74.56679962406209
 20
125.7216178910038
 30
0.0
 10
74.55256040050408
 20
125.7181546869953
 30
0.0
 10
74.57102261984997
 20
125.7226962774413
 30
0.0
 10
74.65566582960403
 20
125.7429790862577
 30
0.0
 10
74.7207891927908
 20
125.7584591200816
 30
0.0
 10
74.89586301488397
 20
125.7982371926289
 30
0.0
 10
75.0067110253032
 20
125.8227350720695
 30
0.0
 10
75.27333881838564
 20
125.8777413940836
 30
0.0
 10
75.42660526734267
 20
125.9077296581047
 30
0.0
 10
75.7739636278591
 20
125.9694609401752
 30
0.0
 10
75.97034481686534
 20
126.0015514573614
 30
0.0
 10
76.39896010213572
 20
126.0624194782711
 30
0.0
 10
76.62813096314173
 20
126.0908179605978
 30
0.0
 10
77.11784435133771
 20
126.1400906325764
 30
0.0
 10
77.38258295199797
 20
126.1611427750316
 30
0.0
 10
77.92160804420612
 20
126.1904442547473
 30
0.0
 10
78.19655239492255
 20
126.1989627276323
 30
0.0
 10
78.6174977237721
 20
126.2013812937808
 30
0.0
 10
78.75965233288468
 20
126.2004242857206
 30
0.0
 10
79.0387582870529
 20
126.195098141939
 30
0.0
 10
79.17670709402972
 20
126.1907471726944
 30
0.0
 10
79.58588115356578
 20
126.1729615790865
 30
0.0
 10
79.8555067939514
 20
126.1544550206266
 30
0.0
 10
80.36175567956144
 20
126.1085931421237
 30
0.0
 10
80.59965042569283
 20
126.0813492120365
 30
0.0
 10
81.04671335380138
 20
126.0216991525135
 30
0.0
 10
81.24998760409001
 20
125.9900883923687
 30
0.0
 10
81.61706287702313
 20
125.9274704337133
 30
0.0
 10
81.78250301636737
 20
125.8961223937212
 30
0.0
 10
82.06619360602406
 20
125.839109538514
 30
0.0
 10
82.1855913572324
 20
125.8132793381347
 30
0.0
 10
82.38109345233397
 20
125.7695788015236
 30
0.0
 10
82.45658477281997
 20
125.751836459324
 30
0.0
 10
82.5592927918955
 20
125.7274114727728
 30
0.0
 10
82.58754921314083
 20
125.7204898921951
 30
0.0
 10
82.59722991741477
 20
125.7181354011375
 30
0.0
 10
82.57816531685228
 20
125.7228220299284
 30
0.0
 10
82.49426106903913
 20
125.7429269391724
 30
0.0
 10
82.42952358092896
 20
125.7583251043421
 30
0.0
 10
82.25227920036772
 20
125.7985909074538
 30
0.0
 10
82.14060142961958
 20
125.8232416168828
 30
0.0
 10
81.87592797037736
 20
125.8778211958008
 30
0.0
 10
81.72205238968016
 20
125.9079605527827
 30
0.0
 10
81.36869082692063
 20
125.9706703974957
 30
0.0
  0
LINE
  5
237
330
1F
100
AcDbEntity
  8
0
  6
HIDDEN
 62
     7
370
     0
100
AcDbLine
 10
82.07485561
 20
93.2008549355
 30
0.0
 11
75.074855394
 21
93.2008549355
 31
0.0
  0
SPLINE
  5
238
330
1F
100
AcDbEntity
  8
0
  6
HIDDEN
 62
     7
370
     0
100
AcDbSpline
210
0.0
220
0.0
230
1.0
 70
     8
 71
     3
 72
    73
 73
    69
 74
     0
 42
0.00000001
 43
0.00000001
 12
1.0
 22
0.0
 32
0.0
 13
1.0
 23
0.0
 33
0.0
 40
-0.03125
 40
-0.03125
 40
0.0
 40
0.0
 40
0.0312499999999999
 40
0.0312499999999999
 40
0.0624999999999997
 40
0.0624999999999997
 40
0.0937499999999996
 40
0.0937499999999996
 40
0.1093749999999995
 40
0.1093749999999995
 40
0.1249999999999994
 40
0.1406249999999994
 40
0.1406249999999994
 40
0.1562499999999993
 40
0.1562499999999993
 40
0.1874999999999994
 40
0.1874999999999994
 40
0.2187499999999994
 40
0.2187499999999994
 40
0.2499999999999995
 40
0.2499999999999995
 40
0.2812499999999996
 40
0.2812499999999996
 40
0.3124999999999997
 40
0.3124999999999997
 40
0.3749999999999998
 40
0.3749999999999998
 40
0.4062499999999998
 40
0.4062499999999998
 40
0.4374999999999998
 40
0.4374999999999998
 40
0.4687499999999998
 40
0.4687499999999998
 40
0.4999999999999999
 40
0.4999999999999999
 40
0.53125
 40
0.53125
 40
0.5625
 40
0.5625
 40
0.5937500000000001
 40
0.5937500000000001
 40
0.6250000000000002
 40
0.6250000000000002
 40
0.6406250000000002
 40
0.6406250000000002
 40
0.6562500000000003
 40
0.6562500000000003
 40
0.6875000000000002
 40
0.6875000000000002
 40
0.7187500000000002
 40
0.7187500000000002
 40
0.7500000000000002
 40
0.7500000000000002
 40
0.7812500000000002
 40
0.7812500000000002
 40
0.8125000000000001
 40
0.8125000000000001
 40
0.8437500000000001
 40
0.8437500000000001
 40
0.8750000000000001
 40
0.8750000000000001
 40
0.9062500000000001
 40
0.9062500000000001
 40
0.9375
 40
0.9375
 40
0.96875
 40
0.96875
 40
1.0
 40
1.0
 40
1.03125
 40
1.03125
 10
75.42765861434395
 20
92.49375083803788
 30
0.0
 10
75.7810201771035
 20
92.43104099332497
 30
0.0
 10
75.97578510982855
 20
92.39932519846941
 30
0.0
 10
76.40322676360034
 20
92.3387495824224
 30
0.0
 10
76.63851501099461
 20
92.30968952199295
 30
0.0
 10
77.12966346892496
 20
92.26059804735034
 30
0.0
 10
77.38717230143949
 20
92.24023001403268
 30
0.0
 10
77.79300815659884
 20
92.21830381264981
 30
0.0
 10
77.93209749122606
 20
92.2124466749318
 30
0.0
 10
78.20895143145783
 20
92.20422968409117
 30
0.0
 10
78.48636536766246
 20
92.19938184109887
 30
0.0
 10
78.76488842909441
 20
92.20134489297858
 30
0.0
 10
79.0439777606507
 20
92.20675659184445
 30
0.0
 10
79.1843201608701
 20
92.21123152815156
 30
0.0
 10
79.59500605906567
 20
92.22927948984406
 30
0.0
 10
79.8586757976757
 20
92.2474821880996
 30
0.0
 10
80.36675198311377
 20
92.2936331313415
 30
0.0
 10
80.60608950284998
 20
92.32117044500372
 30
0.0
 10
81.04796585630162
 20
92.3802311263148
 30
0.0
 10
81.25383486788213
 20
92.41223865304029
 30
0.0
 10
81.6205062359435
 20
92.47486979786105
 30
0.0
 10
81.78275790254686
 20
92.50563489295959
 30
0.0
 10
82.06714183589939
 20
92.56279776739227
 30
0.0
 10
82.18756345101932
 20
92.58886572026542
 30
0.0
 10
82.47841939319522
 20
92.65390227237836
 30
0.0
 10
82.58291137996204
 20
92.68009349981685
 30
0.0
 10
82.59715060352005
 20
92.68355670382532
 30
0.0
 10
82.57868838417416
 20
92.67901511337932
 30
0.0
 10
82.4940451744201
 20
92.65873230456297
 30
0.0
 10
82.42892181123332
 20
92.64325227073908
 30
0.0
 10
82.25384798914016
 20
92.60347419819172
 30
0.0
 10
82.14299997872092
 20
92.57897631875113
 30
0.0
 10
81.87637218563847
 20
92.52396999673707
 30
0.0
 10
81.72310573668146
 20
92.49398173271592
 30
0.0
 10
81.37574737616504
 20
92.43225045064545
 30
0.0
 10
81.17936618715879
 20
92.40015993345925
 30
0.0
 10
80.75075090188841
 20
92.33929191254958
 30
0.0
 10
80.52158004088238
 20
92.31089343022286
 30
0.0
 10
80.03186665268642
 20
92.26162075824429
 30
0.0
 10
79.76712805202615
 20
92.24056861578902
 30
0.0
 10
79.22810295981802
 20
92.21126713607327
 30
0.0
 10
78.95315860910158
 20
92.20274866318834
 30
0.0
 10
78.53221328025202
 20
92.20033009703982
 30
0.0
 10
78.39005867113944
 20
92.20128710510001
 30
0.0
 10
78.11095271697123
 20
92.20661324888165
 30
0.0
 10
77.9730039099944
 20
92.21096421812624
 30
0.0
 10
77.56382985045835
 20
92.22874981173409
 30
0.0
 10
77.29420421007272
 20
92.24725637019401
 30
0.0
 10
76.78795532446269
 20
92.29311824869693
 30
0.0
 10
76.5500605783313
 20
92.32036217878411
 30
0.0
 10
76.10299765022273
 20
92.38001223830715
 30
0.0
 10
75.89972339993412
 20
92.41162299845185
 30
0.0
 10
75.532648127001
 20
92.47424095710731
 30
0.0
 10
75.36720798765674
 20
92.50558899709937
 30
0.0
 10
75.08351739800005
 20
92.56260185230664
 30
0.0
 10
74.96411964679172
 20
92.5884320526859
 30
0.0
 10
74.76861755169014
 20
92.63213258929703
 30
0.0
 10
74.69312623120415
 20
92.64987493149663
 30
0.0
 10
74.59041821212861
 20
92.6742999180478
 30
0.0
 10
74.56216179088328
 20
92.68122149862546
 30
0.0
 10
74.55248108660935
 20
92.68357598968304
 30
0.0
 10
74.57154568717183
 20
92.67888936089223
 30
0.0
 10
74.65544993498499
 20
92.65878445164819
 30
0.0
 10
74.72018742309517
 20
92.64338628647843
 30
0.0
 10
74.89743180365639
 20
92.60312048336684
 30
0.0
 10
75.00910957440455
 20
92.57846977393784
 30
0.0
 10
75.27378303364675
 20
92.52389019501976
 30
0.0
 10
75.42765861434395
 20
92.49375083803788
 30
0.0
 10
75.7810201771035
 20
92.43104099332497
 30
0.0
  0
LINE
  5
239
330
1F
100
AcDbEntity
  8
0
  6
HIDDEN
 62
     7
370
     0
100
AcDbLine
 10
81.4032826268
 20
106.3724285706
 30
0.0
 11
82.07485561
 21
105.7008555874
 31
0.0
  0
LINE
  5
23A
330
1F
100
AcDbEntity
  8
0
  6
HIDDEN
 62
     7
370
     0
100
AcDbLine
 10
81.4032826268
 20
112.0292828202
 30
0.0
 11
82.07485561
 21
112.7008558034
 31
0.0
  0
SPLINE
  5
23B
330
1F
100
AcDbEntity
  8
0
  6
HIDDEN
 62
     7
370
     0
100
AcDbSpline
210
0.0
220
0.0
230
1.0
 70
    11
 71
     3
 72
    64
 73
    60
 74
     0
 42
0.00000001
 43
0.00000001
 12
1.0
 22
0.0
 32
0.0
 13
1.0
 23
0.0
 33
0.0
 40
0.0
 40
0.0
 40
0.0
 40
0.0
 40
0.0624999999999993
 40
0.0624999999999993
 40
0.0937499999999992
 40
0.0937499999999992
 40
0.1249999999999992
 40
0.1249999999999992
 40
0.1562499999999991
 40
0.1562499999999991
 40
0.1874999999999991
 40
0.1874999999999991
 40
0.2187499999999991
 40
0.2187499999999991
 40
0.2499999999999991
 40
0.2499999999999991
 40
0.3124999999999986
 40
0.3124999999999986
 40
0.3437499999999987
 40
0.3437499999999987
 40
0.3749999999999988
 40
0.3749999999999988
 40
0.4062499999999988
 40
0.4062499999999988
 40
0.4374999999999989
 40
0.4374999999999989
 40
0.468749999999999
 40
0.468749999999999
 40
0.4999999999999991
 40
0.4999999999999991
 40
0.5312499999999992
 40
0.5312499999999992
 40
0.5624999999999992
 40
0.5624999999999992
 40
0.5937499999999993
 40
0.5937499999999993
 40
0.6249999999999994
 40
0.6249999999999994
 40
0.6562499999999996
 40
0.6562499999999996
 40
0.6874999999999996
 40
0.6874999999999996
 40
0.7187499999999997
 40
0.7187499999999997
 40
0.7499999999999998
 40
0.7499999999999998
 40
0.7812499999999999
 40
0.7812499999999999
 40
0.8124999999999999
 40
0.8124999999999999
 40
0.84375
 40
0.84375
 40
0.8750000000000001
 40
0.8750000000000001
 40
0.9062500000000002
 40
0.9062500000000002
 40
0.9375000000000002
 40
0.9375000000000002
 40
1.0
 40
1.0
 40
1.0
 40
1.0
 10
81.40328262675828
 20
112.0292828201565
 30
0.0
 10
81.20165064158817
 20
112.2309148053266
 30
0.0
 10
80.9631959486118
 20
112.4267342227857
 30
0.0
 10
80.53933306662525
 20
112.6891853083759
 30
0.0
 10
80.38556392764275
 20
112.7719644100862
 30
0.0
 10
80.06225819623046
 20
112.9182628132703
 30
0.0
 10
79.89180739490511
 20
112.9825397251632
 30
0.0
 10
79.53052172224594
 20
113.0895827962219
 30
0.0
 10
79.34083863452379
 20
113.131597869948
 30
0.0
 10
78.95773777994782
 20
113.1871905236987
 30
0.0
 10
78.76230153732186
 20
113.2014476803458
 30
0.0
 10
78.36294268546625
 20
113.2002262964258
 30
0.0
 10
78.1663105466589
 20
113.1846818565287
 30
0.0
 10
77.78197839988161
 20
113.1263016272087
 30
0.0
 10
77.59194195194715
 20
113.0827493013002
 30
0.0
 10
77.05325515471078
 20
112.9191349265189
 30
0.0
 10
76.72717593795761
 20
112.763869827836
 30
0.0
 10
76.30780765465086
 20
112.5005134697253
 30
0.0
 10
76.1785628228341
 20
112.4073400626241
 30
0.0
 10
75.93890454115032
 20
112.2134165883053
 30
0.0
 10
75.82855467507818
 20
112.1125008780874
 30
0.0
 10
75.63052344761564
 20
111.9120832135796
 30
0.0
 10
75.54199587478388
 20
111.8118725730389
 30
0.0
 10
75.38477978971781
 20
111.6172711405609
 30
0.0
 10
75.31565164678177
 20
111.5220780711854
 30
0.0
 10
75.2011660310655
 20
111.3522976401002
 30
0.0
 10
75.15544543862983
 20
111.2773013672838
 30
0.0
 10
75.09157185960893
 20
111.1682719900385
 30
0.0
 10
75.07469247907568
 20
111.1370527225486
 30
0.0
 10
75.0750208703523
 20
111.1376462535413
 30
0.0
 10
75.09221025797298
 20
111.1694047737385
 30
0.0
 10
75.15621423545993
 20
111.2785696459438
 30
0.0
 10
75.2023977390657
 20
111.3542095152341
 30
0.0
 10
75.31653065636327
 20
111.5232947659641
 30
0.0
 10
75.38540179376282
 20
111.6181204809022
 30
0.0
 10
75.54338453086083
 20
111.8135110020498
 30
0.0
 10
75.63196278177547
 20
111.9136023117921
 30
0.0
 10
75.82888508177044
 20
112.1127722839599
 30
0.0
 10
75.93722645821128
 20
112.2119280322331
 30
0.0
 10
76.17616710043096
 20
112.4055300224521
 30
0.0
 10
76.30748582769827
 20
112.5003113833165
 30
0.0
 10
76.58770887825375
 20
112.676286801351
 30
0.0
 10
76.73733231139575
 20
112.7582153684545
 30
0.0
 10
77.05857022181296
 20
112.9065510779944
 30
0.0
 10
77.23151365364609
 20
112.9731703288061
 30
0.0
 10
77.58908718931205
 20
113.081987727251
 30
0.0
 10
77.77499114635971
 20
113.124977942789
 30
0.0
 10
78.16298445479475
 20
113.1844320584639
 30
0.0
 10
78.36009692275675
 20
113.1999171393556
 30
0.0
 10
78.7531001054384
 20
113.2017109216291
 30
0.0
 10
78.95255798432355
 20
113.1877909649188
 30
0.0
 10
79.34001186976843
 20
113.1318667283734
 30
0.0
 10
79.52695773089434
 20
113.0904614921006
 30
0.0
 10
79.88851962482524
 20
112.9836877667985
 30
0.0
 10
80.06185379203096
 20
112.9184348100061
 30
0.0
 10
80.38555743910379
 20
112.7719783316145
 30
0.0
 10
80.53835041893896
 20
112.6897901588396
 30
0.0
 10
80.96497490328015
 20
112.4256398995534
 30
0.0
 10
81.20244526023042
 20
112.2301201866843
 30
0.0
 10
81.4032826267582
 20
112.0292828201565
 30
0.0
  0
SPLINE
  5
23C
330
1F
100
AcDbEntity
  8
0
  6
HIDDEN
 62
     7
370
     0
100
AcDbSpline
210
0.0
220
0.0
230
1.0
 70
    11
 71
     3
 72
    60
 73
    56
 74
     0
 42
0.00000001
 43
0.00000001
 12
1.0
 22
0.0
 32
0.0
 13
1.0
 23
0.0
 33
0.0
 40
0.0
 40
0.0
 40
0.0
 40
0.0
 40
0.0312500000000001
 40
0.0312500000000001
 40
0.0625000000000002
 40
0.0625000000000002
 40
0.0937500000000002
 40
0.0937500000000002
 40
0.1250000000000003
 40
0.1250000000000003
 40
0.1562500000000004
 40
0.1562500000000004
 40
0.1875000000000005
 40
0.1875000000000005
 40
0.2187500000000006
 40
0.2187500000000006
 40
0.2500000000000007
 40
0.2500000000000007
 40
0.3125000000000012
 40
0.3125000000000012
 40
0.3750000000000017
 40
0.3750000000000017
 40
0.4062500000000016
 40
0.4062500000000016
 40
0.4375000000000014
 40
0.4375000000000014
 40
0.4687500000000012
 40
0.4687500000000012
 40
0.5000000000000011
 40
0.5000000000000011
 40
0.531250000000001
 40
0.531250000000001
 40
0.5625000000000008
 40
0.5625000000000008
 40
0.6250000000000006
 40
0.6250000000000006
 40
0.6875000000000002
 40
0.6875000000000002
 40
0.7187500000000003
 40
0.7187500000000003
 40
0.7500000000000004
 40
0.7500000000000004
 40
0.7812500000000006
 40
0.7812500000000006
 40
0.8125000000000006
 40
0.8125000000000006
 40
0.8437500000000007
 40
0.8437500000000007
 40
0.8750000000000008
 40
0.8750000000000008
 40
0.9375000000000007
 40
0.9375000000000007
 40
0.9687500000000003
 40
0.9687500000000003
 40
1.0
 40
1.0
 40
1.0
 40
1.0
 10
81.4032826267582
 20
106.3724285706641
 30
0.0
 10
81.30375178923482
 20
106.2728977331408
 30
0.0
 10
81.19430066504066
 20
106.173911773608
 30
0.0
 10
80.95294981361405
 20
105.980832417082
 30
0.0
 10
80.82056982858178
 20
105.8865968006379
 30
0.0
 10
80.53829567368649
 20
105.7119522071501
 30
0.0
 10
80.38759439304485
 20
105.6307668553782
 30
0.0
 10
80.06398363701575
 20
105.4841294463673
 30
0.0
 10
79.89012855623749
 20
105.4186446034412
 30
0.0
 10
79.53103414988588
 20
105.3123101646577
 30
0.0
 10
79.34433786694707
 20
105.2706307028609
 30
0.0
 10
78.9546124107086
 20
105.214057946301
 30
0.0
 10
78.75811496142734
 20
105.2002247002871
 30
0.0
 10
78.36501465820422
 20
105.2015308512802
 30
0.0
 10
78.165411068217
 20
105.2170806397392
 30
0.0
 10
77.77943679523136
 20
105.2758821261418
 30
0.0
 10
77.59318225179256
 20
105.3186211731683
 30
0.0
 10
77.05286010111051
 20
105.4826250646976
 30
0.0
 10
76.72837130694757
 20
105.6369679501806
 30
0.0
 10
76.1647000215526
 20
105.9911905566096
 30
0.0
 10
75.92931912632397
 20
106.1873701160737
 30
0.0
 10
75.63109597554184
 20
106.4889800781842
 30
0.0
 10
75.54151837554598
 20
106.5904010974794
 30
0.0
 10
75.38452816363471
 20
106.7847806128314
 30
0.0
 10
75.31646474769487
 20
106.8784928911007
 30
0.0
 10
75.20193960661774
 20
107.0482020620413
 30
0.0
 10
75.15555871993219
 20
107.1242361038331
 30
0.0
 10
75.0920888593853
 20
107.2325376507157
 30
0.0
 10
75.07480582992221
 20
107.2644537992434
 30
0.0
 10
75.07490539821256
 20
107.2642738403138
 30
0.0
 10
75.0922675331657
 20
107.232220563678
 30
0.0
 10
75.15577892831146
 20
107.1238726367852
 30
0.0
 10
75.20165172088517
 20
107.0486323875354
 30
0.0
 10
75.37416721140951
 20
106.7929790103879
 30
0.0
 10
75.53053629692724
 20
106.5908015524341
 30
0.0
 10
75.92880280619725
 20
106.1877730243429
 30
0.0
 10
76.16549906995634
 20
105.9908068341996
 30
0.0
 10
76.58551705649343
 20
105.7266816099342
 30
0.0
 10
76.7380997915282
 20
105.6430987586045
 30
0.0
 10
77.05940449163651
 20
105.4948181623385
 30
0.0
 10
77.22880442239331
 20
105.4294691530736
 30
0.0
 10
77.58777623178443
 20
105.3200201571598
 30
0.0
 10
77.7771381336199
 20
105.2764416209097
 30
0.0
 10
78.15933782169273
 20
105.2178011031012
 30
0.0
 10
78.35431350147596
 20
105.2019760460372
 30
0.0
 10
78.75269067677127
 20
105.1998493376561
 30
0.0
 10
78.95053603400602
 20
105.2137864661007
 30
0.0
 10
79.33572593127342
 20
105.2690707201984
 30
0.0
 10
79.52632446251022
 20
105.3111041384697
 30
0.0
 10
80.06815450044664
 20
105.4709898089035
 30
0.0
 10
80.39639787280122
 20
105.6242818727998
 30
0.0
 10
80.81934803772093
 20
105.8857799064671
 30
0.0
 10
80.94969784868087
 20
105.9784255487228
 30
0.0
 10
81.19148744008403
 20
106.1714713483072
 30
0.0
 10
81.30307448475011
 20
106.2722204286561
 30
0.0
 10
81.4032826267582
 20
106.3724285706641
 30
0.0
  0
LINE
  5
23D
330
1F
100
AcDbEntity
  8
0
  6
HIDDEN
 62
     7
370
     0
100
AcDbLine
 10
82.574855692
 20
102.9508556023
 30
0.0
 11
81.3248554871
 21
104.2008558072
 31
0.0
  0
LINE
  5
23E
330
1F
100
AcDbEntity
  8
0
  6
HIDDEN
 62
     7
370
     0
100
AcDbLine
 10
75.8248555169
 20
104.2008558072
 30
0.0
 11
74.574855312
 21
102.9508556023
 31
0.0
  0
LINE
  5
23F
330
1F
100
AcDbEntity
  8
0
  6
HIDDEN
 62
     7
370
     0
100
AcDbLine
 10
82.574855692
 20
92.6781445525
 30
0.0
 11
82.574855692
 21
102.9508556023
 31
0.0
  0
LINE
  5
240
330
1F
100
AcDbEntity
  8
0
  6
HIDDEN
 62
     7
370
     0
100
AcDbLine
 10
74.574855312
 20
102.9508556023
 30
0.0
 11
74.574855312
 21
92.6781445525
 31
0.0
  0
LINE
  5
241
330
1F
100
AcDbEntity
  8
0
  6
HIDDEN
 62
     7
370
     0
100
AcDbLine
 10
95.0975666449
 20
113.2008558854
 30
0.0
 11
84.8248555951
 21
113.2008558854
 31
0.0
  0
LINE
  5
242
330
1F
100
AcDbEntity
  8
0
  6
HIDDEN
 62
     7
370
     0
100
AcDbLine
 10
84.8248555951
 20
105.2008555054
 30
0.0
 11
95.0975666449
 21
105.2008555054
 31
0.0
  0
LINE
  5
243
330
1F
100
AcDbEntity
  8
0
  6
HIDDEN
 62
     7
370
     0
100
AcDbLine
 10
84.8248555951
 20
113.2008558854
 30
0.0
 11
83.5748553903
 21
111.9508556805
 31
0.0
  0
LINE
  5
244
330
1F
100
AcDbEntity
  8
0
  6
HIDDEN
 62
     7
370
     0
100
AcDbLine
 10
83.5748553903
 20
106.4508557103
 30
0.0
 11
84.8248555951
 21
105.2008555054
 31
0.0
  0
LINE
  5
245
330
1F
100
AcDbEntity
  8
0
  6
HIDDEN
 62
     7
370
     0
100
AcDbLine
 10
74.574855312
 20
125.7235668383
 30
0.0
 11
74.574855312
 21
115.4508557885
 31
0.0
  0
LINE
  5
246
330
1F
100
AcDbEntity
  8
0
  6
HIDDEN
 62
     7
370
     0
100
AcDbLine
 10
82.574855692
 20
115.4508557885
 30
0.0
 11
82.574855692
 21
125.7235668383
 31
0.0
  0
LINE
  5
247
330
1F
100
AcDbEntity
  8
0
  6
HIDDEN
 62
     7
370
     0
100
AcDbLine
 10
74.574855312
 20
115.4508557885
 30
0.0
 11
75.8248555169
 21
114.2008555837
 31
0.0
  0
LINE
  5
248
330
1F
100
AcDbEntity
  8
0
  6
HIDDEN
 62
     7
370
     0
100
AcDbLine
 10
81.3248554871
 20
114.2008555837
 30
0.0
 11
82.574855692
 21
115.4508557885
 31
0.0
  0
LINE
  5
249
330
1F
100
AcDbEntity
  8
0
  6
HIDDEN
 62
     7
370
     0
100
AcDbLine
 10
95.0898776457
 20
113.2158776529
 30
0.0
 11
94.574856262
 21
112.7008558034
 31
0.0
  0
LINE
  5
24A
330
1F
100
AcDbEntity
  8
0
  6
HIDDEN
 62
     7
370
     0
100
AcDbLine
 10
94.574856262
 20
105.7008555874
 30
0.0
 11
95.090721424
 21
105.1849890284
 31
0.0
  0
LINE
  5
24B
330
1F
100
AcDbEntity
  8
0
  6
HIDDEN
 62
     7
370
     0
100
AcDbLine
 10
82.5898774595
 20
92.6858335517
 30
0.0
 11
82.07485561
 21
93.2008549355
 31
0.0
  0
LINE
  5
24C
330
1F
100
AcDbEntity
  8
0
  6
HIDDEN
 62
     7
370
     0
100
AcDbLine
 10
75.074855394
 20
93.2008549355
 30
0.0
 11
74.558988835
 21
92.6849897734
 31
0.0
  0
LINE
  5
24D
330
1F
100
AcDbEntity
  8
0
  6
HIDDEN
 62
     7
370
     0
100
AcDbLine
 10
74.5598335446
 20
125.7158778391
 30
0.0
 11
75.074855394
 21
125.2008564554
 31
0.0
  0
LINE
  5
24E
330
1F
100
AcDbEntity
  8
0
  6
HIDDEN
 62
     7
370
     0
100
AcDbLine
 10
82.07485561
 20
125.2008564554
 30
0.0
 11
82.590722169
 21
125.7167216174
 31
0.0
  0
LINE
  5
24F
330
1F
100
AcDbEntity
  8
0
  6
HIDDEN
 62
     7
370
     0
100
AcDbLine
 10
94.574856262
 20
112.7008558034
 30
0.0
 11
82.07485561
 21
112.7008558034
 31
0.0
  0
LINE
  5
250
330
1F
100
AcDbEntity
  8
0
  6
HIDDEN
 62
     7
370
     0
100
AcDbLine
 10
82.07485561
 20
105.7008555874
 30
0.0
 11
94.574856262
 21
105.7008555874
 31
0.0
  0
LINE
  5
251
330
1F
100
AcDbEntity
  8
0
  6
HIDDEN
 62
     7
370
     0
100
AcDbLine
 10
82.07485561
 20
93.2008549355
 30
0.0
 11
82.07485561
 21
105.7008555874
 31
0.0
  0
LINE
  5
252
330
1F
100
AcDbEntity
  8
0
  6
HIDDEN
 62
     7
370
     0
100
AcDbLine
 10
75.074855394
 20
107.2359976608
 30
0.0
 11
75.074855394
 21
93.2008549355
 31
0.0
  0
LINE
  5
253
330
1F
100
AcDbEntity
  8
0
  6
HIDDEN
 62
     7
370
     0
100
AcDbLine
 10
75.074855394
 20
125.2008564554
 30
0.0
 11
75.074855394
 21
111.1373473906
 31
0.0
  0
LINE
  5
254
330
1F
100
AcDbEntity
  8
0
  6
HIDDEN
 62
     7
370
     0
100
AcDbLine
 10
82.07485561
 20
112.7008558034
 30
0.0
 11
82.07485561
 21
125.2008564554
 31
0.0
  0
LINE
  5
255
330
1F
100
AcDbEntity
  8
0
  6
HIDDEN
 62
     7
370
     0
100
AcDbLine
 10
74.5598335446
 20
125.7158778391
 30
0.0
 11
75.074855394
 21
125.2008564554
 31
0.0
  0
LINE
  5
256
330
1F
100
AcDbEntity
  8
0
  6
HIDDEN
 62
     7
370
     0
100
AcDbLine
 10
82.07485561
 20
125.2008564554
 30
0.0
 11
82.590722169
 21
125.7167216174
 31
0.0
  0
LINE
  5
257
330
1F
100
AcDbEntity
  8
0
  6
HIDDEN
 62
     7
370
     0
100
AcDbLine
 10
82.5898774595
 20
92.6858335517
 30
0.0
 11
82.07485561
 21
93.2008549355
 31
0.0
  0
LINE
  5
258
330
1F
100
AcDbEntity
  8
0
  6
HIDDEN
 62
     7
370
     0
100
AcDbLine
 10
75.074855394
 20
93.2008549355
 30
0.0
 11
74.558988835
 21
92.6849897734
 31
0.0
  0
LINE
  5
259
330
1F
100
AcDbEntity
  8
0
  6
HIDDEN
 62
     7
370
     0
100
AcDbLine
 10
75.074855394
 20
125.2008564554
 30
0.0
 11
75.074855394
 21
111.1373473906
 31
0.0
  0
LINE
  5
25A
330
1F
100
AcDbEntity
  8
0
  6
HIDDEN
 62
     7
370
     0
100
AcDbLine
 10
82.07485561
 20
112.7008558034
 30
0.0
 11
82.07485561
 21
125.2008564554
 31
0.0
  0
LINE
  5
25B
330
1F
100
AcDbEntity
  8
0
  6
HIDDEN
 62
     7
370
     0
100
AcDbLine
 10
82.07485561
 20
93.2008549355
 30
0.0
 11
82.07485561
 21
105.7008555874
 31
0.0
  0
LINE
  5
25C
330
1F
100
AcDbEntity
  8
0
  6
HIDDEN
 62
     7
370
     0
100
AcDbLine
 10
75.074855394
 20
107.2359976608
 30
0.0
 11
75.074855394
 21
93.2008549355
 31
0.0
  0
LINE
  5
25D
330
1F
100
AcDbEntity
  8
0
  6
HIDDEN
 62
     7
370
     0
100
AcDbLine
 10
74.5598335446
 20
125.7158778391
 30
0.0
 11
75.074855394
 21
125.2008564554
 31
0.0
  0
LINE
  5
25E
330
1F
100
AcDbEntity
  8
0
  6
HIDDEN
 62
     7
370
     0
100
AcDbLine
 10
82.07485561
 20
125.2008564554
 30
0.0
 11
82.590722169
 21
125.7167216174
 31
0.0
  0
LINE
  5
25F
330
1F
100
AcDbEntity
  8
0
  6
HIDDEN
 62
     7
370
     0
100
AcDbLine
 10
82.5898774595
 20
92.6858335517
 30
0.0
 11
82.07485561
 21
93.2008549355
 31
0.0
  0
LINE
  5
260
330
1F
100
AcDbEntity
  8
0
  6
HIDDEN
 62
     7
370
     0
100
AcDbLine
 10
75.074855394
 20
93.2008549355
 30
0.0
 11
74.558988835
 21
92.6849897734
 31
0.0
  0
LINE
  5
261
330
1F
100
AcDbEntity
  8
0
  6
HIDDEN
 62
     7
370
     0
100
AcDbLine
 10
75.074855394
 20
125.2008564554
 30
0.0
 11
75.074855394
 21
111.1373473906
 31
0.0
  0
LINE
  5
262
330
1F
100
AcDbEntity
  8
0
  6
HIDDEN
 62
     7
370
     0
100
AcDbLine
 10
82.07485561
 20
112.7008558034
 30
0.0
 11
82.07485561
 21
125.2008564554
 31
0.0
  0
LINE
  5
263
330
1F
100
AcDbEntity
  8
0
  6
HIDDEN
 62
     7
370
     0
100
AcDbLine
 10
82.07485561
 20
93.2008549355
 30
0.0
 11
82.07485561
 21
105.7008555874
 31
0.0
  0
LINE
  5
264
330
1F
100
AcDbEntity
  8
0
  6
HIDDEN
 62
     7
370
     0
100
AcDbLine
 10
75.074855394
 20
107.2359976608
 30
0.0
 11
75.074855394
 21
93.2008549355
 31
0.0
  0
INSERT
  5
270
330
1F
100
AcDbEntity
  8
VERMASSUNG
100
AcDbBlockReference
  2
SW_CENTERMARKSYMBOL_0
 10
78.574855502
 20
109.2008556954
 30
0.0
  0
OLE2FRAME
  5
271
330
1F
100
AcDbEntity
  8
0
100
AcDbOle2Frame
 70
     2
  3
Paintbrush-Bild
 10
13.8511154363
 20
38.264191557
 30
0.0
 11
51.6290888628
 21
31.9806341108
 31
0.0
 71
     2
 72
     0
 73
     1
 90
    12928
310
80552BED0767C5B32B40DDAF6807D121434000000000000000006FFBDDFB85D0
310
4940DDAF6807D121434000000000000000006FFBDDFB85D04940416F4BD60AFB
310
3F4000000000000000002BED0767C5B32B40416F4BD60AFB3F40000000000000
310
0000000000000100000000010000010000000100000000000100000000320000
310
D0CF11E0A1B11AE1000000000000000000000000000000003E000300FEFF0900
310
0600000000000000000000000100000001000000000000000010000002000000
310
01000000FEFFFFFF0000000000000000FFFFFFFFFFFFFFFFFFFFFFFFFFFFFFFF
310
FFFFFFFFFFFFFFFFFFFFFFFFFFFFFFFFFFFFFFFFFFFFFFFFFFFFFFFFFFFFFFFF
310
FFFFFFFFFFFFFFFFFFFFFFFFFFFFFFFFFFFFFFFFFFFFFFFFFFFFFFFFFFFFFFFF
310
FFFFFFFFFFFFFFFFFFFFFFFFFFFFFFFFFFFFFFFFFFFFFFFFFFFFFFFFFFFFFFFF
310
FFFFFFFFFFFFFFFFFFFFFFFFFFFFFFFFFFFFFFFFFFFFFFFFFFFFFFFFFFFFFFFF
310
FFFFFFFFFFFFFFFFFFFFFFFFFFFFFFFFFFFFFFFFFFFFFFFFFFFFFFFFFFFFFFFF
310
FFFFFFFFFFFFFFFFFFFFFFFFFFFFFFFFFFFFFFFFFFFFFFFFFFFFFFFFFFFFFFFF
310
FFFFFFFFFFFFFFFFFFFFFFFFFFFFFFFFFFFFFFFFFFFFFFFFFFFFFFFFFFFFFFFF
310
FFFFFFFFFFFFFFFFFFFFFFFFFFFFFFFFFFFFFFFFFFFFFFFFFFFFFFFFFFFFFFFF
310
FFFFFFFFFFFFFFFFFFFFFFFFFFFFFFFFFFFFFFFFFFFFFFFFFFFFFFFFFFFFFFFF
310
FFFFFFFFFFFFFFFFFFFFFFFFFFFFFFFFFFFFFFFFFFFFFFFFFFFFFFFFFFFFFFFF
310
FFFFFFFFFFFFFFFFFFFFFFFFFFFFFFFFFFFFFFFFFFFFFFFFFFFFFFFFFFFFFFFF
310
FFFFFFFFFFFFFFFFFFFFFFFFFFFFFFFFFFFFFFFFFFFFFFFFFFFFFFFFFFFFFFFF
310
FFFFFFFFFFFFFFFFFFFFFFFFFFFFFFFFFFFFFFFFFFFFFFFFFFFFFFFFFFFFFFFF
310
FDFFFFFFFEFFFFFFFEFFFFFFFEFFFFFF05000000060000000700000008000000
310
090000000A0000000B0000000C0000000D0000000E0000000F00000010000000
310
11000000120000001300000014000000150000001600000017000000FEFFFFFF
310
FFFFFFFFFFFFFFFFFFFFFFFFFFFFFFFFFFFFFFFFFFFFFFFFFFFFFFFFFFFFFFFF
310
FFFFFFFFFFFFFFFFFFFFFFFFFFFFFFFFFFFFFFFFFFFFFFFFFFFFFFFFFFFFFFFF
310
FFFFFFFFFFFFFFFFFFFFFFFFFFFFFFFFFFFFFFFFFFFFFFFFFFFFFFFFFFFFFFFF
310
FFFFFFFFFFFFFFFFFFFFFFFFFFFFFFFFFFFFFFFFFFFFFFFFFFFFFFFFFFFFFFFF
310
FFFFFFFFFFFFFFFFFFFFFFFFFFFFFFFFFFFFFFFFFFFFFFFFFFFFFFFFFFFFFFFF
310
FFFFFFFFFFFFFFFFFFFFFFFFFFFFFFFFFFFFFFFFFFFFFFFFFFFFFFFFFFFFFFFF
310
FFFFFFFFFFFFFFFFFFFFFFFFFFFFFFFFFFFFFFFFFFFFFFFFFFFFFFFFFFFFFFFF
310
FFFFFFFFFFFFFFFFFFFFFFFFFFFFFFFFFFFFFFFFFFFFFFFFFFFFFFFFFFFFFFFF
310
FFFFFFFFFFFFFFFFFFFFFFFFFFFFFFFFFFFFFFFFFFFFFFFFFFFFFFFFFFFFFFFF
310
FFFFFFFFFFFFFFFFFFFFFFFFFFFFFFFFFFFFFFFFFFFFFFFFFFFFFFFFFFFFFFFF
310
FFFFFFFFFFFFFFFFFFFFFFFFFFFFFFFFFFFFFFFFFFFFFFFFFFFFFFFFFFFFFFFF
310
FFFFFFFFFFFFFFFFFFFFFFFFFFFFFFFFFFFFFFFFFFFFFFFFFFFFFFFFFFFFFFFF
310
FFFFFFFFFFFFFFFFFFFFFFFFFFFFFFFFFFFFFFFFFFFFFFFFFFFFFFFFFFFFFFFF
310
52006F006F007400200045006E00740072007900000000000000000000000000
310
0000000000000000000000000000000000000000000000000000000000000000
310
16000500FFFFFFFFFFFFFFFF020000000A00030000000000C000000000000046
310
000000000000000000000000A0C96B6AE94DCD0103000000C000000000000000
310
01004F006C006500000000000000000000000000000000000000000000000000
310
0000000000000000000000000000000000000000000000000000000000000000
310
0A000200FFFFFFFFFFFFFFFFFFFFFFFF00000000000000000000000000000000
310
0000000000000000000000000000000000000000000000001400000000000000
310
010043006F006D0070004F0062006A0000000000000000000000000000000000
310
0000000000000000000000000000000000000000000000000000000000000000
310
120002010100000003000000FFFFFFFF00000000000000000000000000000000
310
0000000000000000000000000000000000000000010000004D00000000000000
310
01004F006C006500310030004E00610074006900760065000000000000000000
310
0000000000000000000000000000000000000000000000000000000000000000
310
1A000200FFFFFFFFFFFFFFFFFFFFFFFF00000000000000000000000000000000
310
0000000000000000000000000000000000000000040000002426000000000000
310
FEFFFFFF02000000FEFFFFFFFFFFFFFFFFFFFFFFFFFFFFFFFFFFFFFFFFFFFFFF
310
FFFFFFFFFFFFFFFFFFFFFFFFFFFFFFFFFFFFFFFFFFFFFFFFFFFFFFFFFFFFFFFF
310
FFFFFFFFFFFFFFFFFFFFFFFFFFFFFFFFFFFFFFFFFFFFFFFFFFFFFFFFFFFFFFFF
310
FFFFFFFFFFFFFFFFFFFFFFFFFFFFFFFFFFFFFFFFFFFFFFFFFFFFFFFFFFFFFFFF
310
FFFFFFFFFFFFFFFFFFFFFFFFFFFFFFFFFFFFFFFFFFFFFFFFFFFFFFFFFFFFFFFF
310
FFFFFFFFFFFFFFFFFFFFFFFFFFFFFFFFFFFFFFFFFFFFFFFFFFFFFFFFFFFFFFFF
310
FFFFFFFFFFFFFFFFFFFFFFFFFFFFFFFFFFFFFFFFFFFFFFFFFFFFFFFFFFFFFFFF
310
FFFFFFFFFFFFFFFFFFFFFFFFFFFFFFFFFFFFFFFFFFFFFFFFFFFFFFFFFFFFFFFF
310
FFFFFFFFFFFFFFFFFFFFFFFFFFFFFFFFFFFFFFFFFFFFFFFFFFFFFFFFFFFFFFFF
310
FFFFFFFFFFFFFFFFFFFFFFFFFFFFFFFFFFFFFFFFFFFFFFFFFFFFFFFFFFFFFFFF
310
FFFFFFFFFFFFFFFFFFFFFFFFFFFFFFFFFFFFFFFFFFFFFFFFFFFFFFFFFFFFFFFF
310
FFFFFFFFFFFFFFFFFFFFFFFFFFFFFFFFFFFFFFFFFFFFFFFFFFFFFFFFFFFFFFFF
310
FFFFFFFFFFFFFFFFFFFFFFFFFFFFFFFFFFFFFFFFFFFFFFFFFFFFFFFFFFFFFFFF
310
FFFFFFFFFFFFFFFFFFFFFFFFFFFFFFFFFFFFFFFFFFFFFFFFFFFFFFFFFFFFFFFF
310
FFFFFFFFFFFFFFFFFFFFFFFFFFFFFFFFFFFFFFFFFFFFFFFFFFFFFFFFFFFFFFFF
310
FFFFFFFFFFFFFFFFFFFFFFFFFFFFFFFFFFFFFFFFFFFFFFFFFFFFFFFFFFFFFFFF
310
0100000200000000000000000000000000000000000000000000000000000000
310
0000000000000000000000000000000000000000000000000000000000000000
310
0100FEFF030A0000FFFFFFFF0A00030000000000C00000000000004607000000
310
5042727573680007000000504272757368000700000050427275736800F439B2
310
7100000000000000000000000000000000000000000000000000000000000000
310
0000000000000000000000000000000000000000000000000000000000000000
310
0000000000000000000000000000000000000000000000000000000000000000
310
0000000000000000000000000000000000000000000000000000000000000000
310
0000000000000000000000000000000000000000000000000000000000000000
310
0000000000000000000000000000000000000000000000000000000000000000
310
0000000000000000000000000000000000000000000000000000000000000000
310
0000000000000000000000000000000000000000000000000000000000000000
310
0000000000000000000000000000000000000000000000000000000000000000
310
0000000000000000000000000000000000000000000000000000000000000000
310
0000000000000000000000000000000000000000000000000000000000000000
310
0000000000000000000000000000000000000000000000000000000000000000
310
20260000424D0E260000000000003E00000028000000B40200006E0000000100
310
01000000000000000000130B0000130B00000200000002000000000000FFFFFF
310
FFFFFFFFFFFFFFFFFFFFFFFFFFFFFFFFFFFFFFFFFFFFFFFFFFFFFFFFFFFFFFFF
310
FFFFFFFFFFFFFFFFFFFFFFFFFFFFFFFFFFFFFFFFFFFFFFFFFFFFFFFFFFFFFFFF
310
FFFFFFFFFFFFFFFFFFFFFFFFFFFFFFFFFFFFFFFFFFFFFFFFF000FFFFFFFFFFFF
310
FFFFFFFFFFFFFFFFFFFFFFFFFFFFFFFFFFFFFFFFFFFFFFFFFFFFFFFFFFFFFFFF
310
FFFFFFFFFFFFFFFFFFFFFFFFFFFFFFFFFFFFFFFFFFFFFFFFFFFFFFFFFFFFFFFF
310
FFFFFFFFFFFFFFFFFFFFFFFFFFFFFFFFF000FFFFFFFFFFFFFFFFFFFFFFFFFFFF
310
FFFFFFFFFFFFFFFFFFFFFFFFFFFFFFFFFFFFFFFFFFFFFFFFFFFFFFFFFFFFFFFF
310
FFFFFFFFFFFFFFFFFFFFFFFFFFFFFFFFFFFFFFFFFFFFFFFFFFFFFFFFFFFFFFFF
310
FFFFFFFFFFFFFFFFF000FFFFFFFFFFFFFFFFFFFFFFFFFFFFFFFFFFFFFFFFFFFF
310
FFFFFFFFFFFFFFFFFFFFFFFFFFFFFFFFFFFFFFFFFFFFFFFFFFFFFFFFFFFFFFFF
310
FFFFFFFFFFFFFFFFFFFFFFFFFFFFFFFFFFFFFFFFFFFFFFFFFFFFFFFFFFFFFFFF
310
F000FFFFFFFFFFFFFFFFFFFFFFFFFFFFFFFFFFFFFFFFFFFFFFFFFFFFFFFFFFFF
310
FFFFFFFFFFFFFFFFFFFFFFFFFFFFFFFFFFFFFFFFFFFFFFFFFFFFFFFFFFFFFFFF
310
FFFFFFFFFFFFFFFFFFFFFFFFFFFFFFFFFFFFFFFFFFFFFFFFF000FFFFFFFFFFFF
310
FFFFFFFFFFFFFFFFFFFFFFFFFFFFFFFFFFFFFFFFFFFFFFFFFFFFFFFFFFFFFFFF
310
FFFFFFFFFFFFFFFFFFFFFFFFFFFFFFFFFFFFFFFFFFFFFFFFFFFFFFFFFFFFFFFF
310
FFFFFFFFFFFFFFFFFFFFFFFFFFFFFFFFF000FFFFFFFFFFFFFFFFFFFFFFFFFFFF
310
FFFFFFFFFFFFFFFFFFFFFFFFFFFFFFFFFFFFFFFFFFFFFFFFFFFFFFFFFFFFFFFF
310
FFFFFFFFFFFFFFFFFFFFFFFFFFFFFFFFFFFFFFFFFFFFFFFFFFFFFFFFFFFFFFFF
310
FFFFFFFFFFFFFFFFF000FFFFFFFFFFFFFFFFFFFFFFFFFFFFFFFFFFFFFFFFFFFF
310
FFFFFFFFFFFFFFFFFFFFFFFFFFFFFFFFFFFFFFFFFFFFFFFFFFFFFFFFFFFFFFFF
310
FFFFFFFFFFFFFFFFFFFFFFFFFFFFFFFFFFFFFFFFFFFFFFFFFFFFFFFFFFFFFFFF
310
F000FFFFFFFFFFFFFFFFFFFFFFFFFFFFFFFFFFFFFFFFFFFFFFFFFFFFFFFFFFFF
310
FFFFFFFFFFFFFFFFFFFFFFFFFFFFFFFFFFFFFFFFFFFFFFFFFFFFFFFFFFFFFFFF
310
FFFFFFFFFFFFFFFFFFFFFFFFFFFFFFFFFFFFFFFFFFFFFFFFF000FFFFFFFFFFFF
310
FFFFFFFFFFFFFFFFFFFFFFFFFFFFFFFFFFFFFFFFFFFFFFFFFFFFFFFFFFFFFFFF
310
FFFFFFFFFFFFFFFFFFFFFFFFFFFFFFFFFFFFFFFFFFFFFFFFFFFFFFFFFFFFFFFF
310
FFFFFFFFFFFFFFFFFFFFFFFFFFFFFFFFF000FFFFFFFFFFFFFFFFFFFFFFFFFFFF
310
FFFFFFFFFFFFFFFFFFFFFFFFFFFFFFFFFFFFFFFFFFFFFFFFFFFFFFFFFFFFFFFF
310
FFFFFFFFFFFFFFFFFFFFFFFFFFFFFFFFFFFFFFFFFFFFFFFFFFFFFFFFFFFFFFFF
310
FFFFFFFFFFFFFFFFF000FFFFFFFFFFFFFFFFFFFFFFFFFFFFFFFFFFFFFFFFFFFF
310
FFFFFFFFFFFFFFFFFFFFFFFFFFFFFFFFFFFFFFFFFFFFFFFFFFFFFFFFFFFFFFFF
310
FFFFFFFFFFFFFFFFFFFFFFFFFFFFFFFFFFFFFFFFFFFFFFFFFFFFFFFFFFFFFFFF
310
F000FFFFFFFFFFFFFFFFFFFFFFFFFFFFFFFFFFFFFFFFFFFFFFFFFFFFFFFFFFFF
310
FFFFFFFFFFFFFFFFFFFFFFFFFFFFFFFFFFFFFFFFFFFFFFFFFFFFFFFFFFFFFFFF
310
FFFFFFFFFFFFFFFFFFFFFFFFFFFFFFFFFFFFFFFFFFFFFFFFF000FFFFFFFFFFFF
310
FFFFFFFFFFFFFFFFFFFFFFFFFFFFFFFFFFFFFFFFFFFFFFFFFFFFFFFFFFFFFFFF
310
FFFFFFFFFFFFFFFFFFFFFFFFFFFFFFFFFFFFFFFFFFFFFFFFFFFFFFFFFFFFFFFF
310
FFFFFFFFFFFFFFFFFFFFFFFFFFFFFFFFF000FFFFFFFFFFFFFFFFFFFFFFFFFFFF
310
FFFFFFFFFFFFFFFFFFFFFFFFFFFFFFFFFFFFFFFFFFFFFFFFFFFFFFFFFFFFFFFF
310
FFFFFFFFFFFFFFFFFFFFFFFFFFFFFFFFFFFFFFFFFFFFFFFFFFFFFFFFFFFFFFFF
310
FFFFFFFFFFFFFFFFF000FFFFFFFFFFFFFFFFFFFFFFFFFFFFFFFFFFFFFFFFFFFF
310
FFFFFFFFFFFFFFFFFFFFFFFFFFFFFFFFFFFFFFFFFFFFFFFFFFFFFFFFFFFFFFFF
310
FFFFFFFFFFFFFFFFFFFFFFFFFFFFFFFFFFFFFFFFFFFFFFFFFFFFFFFFFFFFFFFF
310
F000FFFFFFFFFFFFFFFFFFFFFFFFFFFFFFFFFFFFFFFFFFFFFFFFFFFFFFFFFFFF
310
FFFFFFFFFFFFFFFFFFFFFFFFFFFFFFFFFFFFFFFFFFFFFFFFFFFFFFFFFFFFFFFF
310
FFFFFFFFFFFFFFFFFFFFFFFFFFFFFFFFFFFFFFFFFFFFFFFFF000FFFFFFFFFFFF
310
FFFFFFFFFFFFFFFFFFFFFFFFFFFFFFFFFFFFFFFFFFFFFFFFFFFFFFFFFFFFFFFF
310
FFFFFFFFFFFFFFFFFFFFFFFFFFFFFFFFFFFFFFFFFFFFFFFFFFFFFFFFFFFFFFFF
310
FFFFFFFFFFFFFFFFFFFFFFFFFFFFFFFFF000FFFFFFFFFFFFFFFFFFFFFFFFFFFF
310
FFFFFFFFFFFFFFFFFFFFFFFFFFFFFFFFFFFFFFFFFFFFFFFFFFFFFFFFFFFFFFFF
310
FFFFFFFFFFFFFFFFFFFFFFFFFFFFFFFFFFFFFFFFFFFFFFFFFFFFFFFFFFFFFFFF
310
FFFFFFFFFFFFFFFFF000FFFFF80003FFFFFFFFFFFFFFFFFFFFFFFFFFFFFFFFFF
310
FFFFF00007FFFFFFFFFF00007FFFFFF800000000000000007FFFFFFFFFFFFFFF
310
FFFFFFFC001FFFFFFFFFFFFFFC001FFFFFFFFFFFFFFFFFFFFFFFFFFE0007FFFF
310
F000FFFF8000007FFFFFFFF8000FFFFFC0007FFFFF80007FFFFF0000007FFFFF
310
FFF8000007FFFFF800000000000000007FFFFFF0001FFFFFFFFFFFC00001FFFF
310
FFFFFFFFC00001FFFFFFFF000000000003FFFFE000007FFFF000FFFE0000000F
310
FFFFFFF0000FFFFF80007FFFFF80007FFFFC0000001FFFFFFFC0000001FFFFF8
310
00000000000000007FFFFFF0001FFFFFFFFFFE0000003FFFFFFFFFFE0000003F
310
FFFFFF000000000003FFFF0000000FFFF000FFF800000003FFFFFFF00007FFFF
310
80007FFFFF80007FFFF000000007FFFFFF000000003FFFF80000000000000000
310
7FFFFFF0001FFFFFFFFFF80000000FFFFFFFFFF80000000FFFFFFF0000000000
310
03FFFC00000003FFF000FFE000000000FFFFFFF00007FFFF80003FFFFF80007F
310
FFC000000001FFFFFC000000001FFFF800000000000000007FFFFFF0001FFFFF
310
FFFFE000000003FFFFFFFFE000000003FFFFFF000000000003FFF000000000FF
310
F000FF80000000007FFFFFF00007FFFF80003FFFFF80007FFF8000000000FFFF
310
F80000000007FFF800000000000000007FFFFFF0001FFFFFFFFFC000000001FF
310
FFFFFFC000000001FFFFFF000000000003FFC0000000007FF000FF0000000000
310
3FFFFFE00007FFFF00003FFFFF80007FFE00000000003FFFF00000000003FFF8
310
00000000000000007FFFFFF0001FFFFFFFFF8000000000FFFFFFFF8000000000
310
FFFFFF000000000003FF80000000003FF000FE00000000001FFFFFE00003FFFF
310
00003FFFFF80007FFC00000000001FFFE00000000001FFF8000001FFFE000000
310
7FFFFFF0001FFFFFFFFE00000000003FFFFFFE00000000003FFFFF0000000000
310
03FF00000000001FF000FC00000000000FFFFFE00003FFFF00001FFFFF80007F
310
F800000000001FFFC00000000000FFF8000001FFFE0000007FFFFFF0001FFFFF
310
FFFC00000000001FFFFFFC00000000001FFFFF000000000003FE00000000000F
310
F000F8000000000007FFFFE00003FFFF00001FFFFF80007FF800000000000FFF
310
800000000000FFF8000001FFFE0000007FFFFFF0001FFFFFFFF800000000000F
310
FFFFF800000000000FFFFF000000000003FC000000000007F000F80000000000
310
03FFFFC00003FFFE00001FFFFF80007FF0000000000007FF0000000000007FF8
310
000001FFFE0000007FFFFFF0001FFFFFFFF0000000000007FFFFF00000000000
310
07FFFF000000000003F8000000000003F000F0000000000003FFFFC00001FFFE
310
00001FFFFF80007FE0000000000007FE0000000000003FF8000001FFFE000000
310
7FFFFFF0001FFFFFFFF0000000000007FFFFF0000000000007FFFF0000000000
310
03F800001F800003F000E00001FFF00001FFFFC00001FFFE00000FFFFF80007F
310
E00001FFE00003FE00001FFF00003FF8000001FFFE0000007FFFFFF0001FFFFF
310
FFE000003E000003FFFFE000003E000003FFFF000000000003F00001FFF80001
310
F000E00007FFFC0001FFFFC00001FFFE00000FFFFF80007FC0000FFFFC0003FC
310
0000FFFFC0001FF8000001FFFE0000007FFFFFF0001FFFFFFFC00003FFE00001
310
FFFFC00003FFE00001FFFF0001FFFFFFFFF00007FFFE0001F000E0000FFFFF00
310
00FFFF800001FFFC00000FFFFF80007FC0001FFFFE0001FC0001FFFFE0001FF8
310
000001FFFE0000007FFFFFF0001FFFFFFF80000FFFF80000FFFF80000FFFF800
310
00FFFF0003FFFFFFFFE0000FFFFF8000F000C0003FFFFF8000FFFF800000FFFC
310
000007FFFF80007F80003FFFFF0001FC0003FFFFF0001FF8000001FFFE000000
310
7FFFFFF0001FFFFFFF80003FFFFE0000FFFF80003FFFFE0000FFFF0003FFFFFF
310
FFE0003FFFFF8000F000C0003FFFFF8000FFFF800000FFFC000007FFFF80007F
310
80007FFFFF8001F80007FFFFF8000FF8000001FFFE0000007FFFFFF0001FFFFF
310
FF00007FFFFF00007FFF00007FFFFF00007FFF0003FFFFFFFFE0003FFFFFC000
310
F000C0007FFFFFC000FFFF000000FFFC000007FFFF80007F8000FFFFFF8000F8
310
000FFFFFF8000FF8000001FFFE0000007FFFFFF0001FFFFFFF0000FFFFFF8000
310
7FFF0000FFFFFF80007FFF0003FFFFFFFFC0007FFFFFC00070008000FFFFFFC0
310
00FFFF000000FFF8000007FFFF80007F8000FFFFFF8000F8000FFFFFF8000FF8
310
000001FFFE0000007FFFFFF0001FFFFFFE0001FFFFFFC0003FFE0001FFFFFFC0
310
003FFF0003FFFFFFFFC0007FFFFFE00070008000FFFFFFC0007FFF0000007FF8
310
000003FFFF80007F0001FFFFFF8000F8000FFFFFF8000FF8000001FFFE000000
310
7FFFFFF0001FFFFFFE0001FFFFFFC0003FFE0001FFFFFFC0003FFF0003FFFFFF
310
FFC000FFFFFFE00070008000FFFFFFC0007FFF0000007FF8000003FFFF80007F
310
0001FFFFFF8000F8001FFFFFF8000FF8000001FFFE0000007FFFFFF0001FFFFF
310
FE0003FFFFFFE0003FFE0003FFFFFFE0003FFF0003FFFFFFFFC000FFFFFFE000
310
70008000FFFFFFC0007FFE0000007FF8000003FFFF80007F0001FFFFFF8000F0
310
001FFFFFF8000FF8000001FFFE0000007FFFFFF0001FFFFFFC0003FFFFFFE000
310
1FFC0003FFFFFFE0001FFF0003FFFFFFFFC000FFFFFFC00070008000FFFFFF80
310
007FFE0000007FF0000003FFFF80007F0001FFFFFF0000F0001FFFFFF8000FF8
310
000001FFFE0000007FFFFFF0001FFFFFFC0007FFFFFFF0001FFC0007FFFFFFF0
310
001FFF0003FFFFFFFFC000FFFFFFC00070008001FFFFFF0000FFFE0000003FF0
310
000001FFFF80007F0001FFFFFF0000F8001FFFFFF0000FF8000001FFFE000000
310
7FFFFFF0001FFFFFFC0007FFFFFFF0001FFC0007FFFFFFF0001FFF0003FFFFFF
310
FFC001FFFFFF80007000FFFFFFFFFE0000FFFE0008003FF0008001FFFF80007F
310
FFFFFFFFFC0000FFFFFFFFFFE0000FF8000001FFFE0000007FFFFFF0001FFFFF
310
F8000FFFFFFFF8000FF8000FFFFFFFF8000FFF0003FFFFFFFFFFFFFFFFFF0000
310
7000FFFFFFFFFC0000FFFC0008003FF0008001FFFF80007FFFFFFFFFF80001FF
310
FFFFFFFF80000FF8000001FFFE0000007FFFFFF0001FFFFFF8000FFFFFFFF800
310
0FF8000FFFFFFFF8000FFF0003FFFFFFFFFFFFFFFFFE0000F000FFFFFFFFE000
310
00FFFC000C003FE000C001FFFF80007FFFFFFFFFC00001FFFFFFFFFE00001FF8
310
000001FFFE0000007FFFFFF0001FFFFFF8000FFFFFFFF8000FF8000FFFFFFFF8
310
000FFF0003FFFFFFFFFFFFFFFFF00000F000FFFFFFFE000001FFFC000C001FE0
310
00C000FFFF80007FFFFFFFFE000001FFFFFFFFE000001FF80FFFFFFFFFFFFFC0
310
7FFFFFF0001FFFFFF8000FFFFFFFF8000FF8000FFFFFFFF8000FFF0003FFFFFF
310
FFFFFFFFFF800000F000FFFFFFC0000001FFFC001C001FE001C000FFFF80007F
310
FFFFFF80000003FFFFFFF80000001FF80FFFFFFFFFFFFFC07FFFFFF0001FFFFF
310
F8001FFFFFFFFC000FF8001FFFFFFFFC000FFF0003FFFFFFFFFFFFFFF0000001
310
F000FFFFF800000001FFF8001C001FE001C000FFFF80007FFFFFF800000003FF
310
FFFF800000003FF80FFFFFFFFFFFFFC07FFFFFF0001FFFFFF8001FFFFFFFFC00
310
0FF8001FFFFFFFFC000FFF0003FFFFFFFFFFFFFE00000001F000FFFFC0000000
310
03FFF8001E001FC001E000FFFF80007FFFFF8000000007FFFFFC000000003FF8
310
0FFFFFFFFFFFFFC07FFFFFF0001FFFFFF8001FFFFFFFFC000FF8001FFFFFFFFC
310
000FFF0003FFFFFFFFFFFFE000000003F000FFFE0000000007FFF8001E000FC0
310
01E0007FFF80007FFFFE0000000007FFFFE0000000007FF80FFFFFFFFFFFFFC0
310
7FFFFFF0001FFFFFF0001FFFFFFFFC0007F0001FFFFFFFFC0007FF0003FFFFFF
310
FFFFFF0000000003F000FFF80000000007FFF8001E000FC003E0007FFF80007F
310
FFF0000000000FFFFF8000000000FFF80FFFFFFFFFFFFFC07FFFFFF0001FFFFF
310
F0001FFFFFFFFC0007F0001FFFFFFFFC0007FF0003FFFFFFFFFFFC0000000007
310
F000FFE0000000000FFFF0003E000FC003E0007FFF80007FFFC0000000001FFF
310
FE0000000001FFF80FFFFFFFFFFFFFC07FFFFFF0001FFFFFF0001FFFFFFFFC00
310
07F0001FFFFFFFFC0007FF0003FFFFFFFFFFF0000000000FF000FFC000000000
310
1FFFF0003F000F8003F0003FFF80007FFF80000000003FFFF80000000003FFF8
310
0FFFFFFFFFFFFFC07FFFFFF0001FFFFFF0001FFFFFFFFC0007F0001FFFFFFFFC
310
0007FF0003FFFFFFFFFFE0000000001FF000FF00000000007FFFF0003F000780
310
03F0003FFF80007FFF00000000007FFFF00000000007FFF80FFFFFFFFFFFFFC0
310
7FFFFFF0001FFFFFF0001FFFFFFFFC0007F0001FFFFFFFFC0007FF0003FFFFFF
310
FFFF80000000007FF000FE0000000000FFFFE0003F00078007F0003FFF80007F
310
FE0000000001FFFFE0000000001FFFF80FFFFFFFFFFFFFC07FFFFFF0001FFFFF
310
F0001FFFFFFFFC0007F0001FFFFFFFFC0007FF0003FFFFFFFFFF0000000000FF
310
F000FC0000000003FFFFE0007F00078007F0003FFF80007FFC0000000007FFFF
310
C0000000007FFFF80FFFFFFFFFFFFFC07FFFFFF0001FFFFFF8001FFFFFFFFC00
310
0FF8001FFFFFFFFC000FFF0003FFFFFFFFFE0000000003FFF000FC000000000F
310
FFFFE0007F80070007F8001FFF80007FF8000000001FFFFF8000000001FFFFF8
310
0FFFFFFFFFFFFFC07FFFFFF0001FFFFFF8001FFFFFFFFC000FF8001FFFFFFFFC
310
000FFF0003FFFFFFFFFC000000000FFFF000F8000000007FFFFFE0007F800700
310
07F8001FFF80007FF000000000FFFFFF800000000FFFFFF80FFFFFFFFFFFFFC0
310
7FFFFFF0001FFFFFF8000FFFFFFFF8000FF8000FFFFFFFF8000FFF0003FFFFFF
310
FFFC000000007FFFF000F800000007FFFFFFC0007F8003000FF8001FFF80007F
310
F000000007FFFFFF000000007FFFFFF80FFFFFFFFFFFFFC07FFFFFF0001FFFFF
310
F8000FFFFFFFF8000FF8000FFFFFFFF8000FFF0003FFFFFFFFF80000000FFFFF
310
F000F0000000FFFFFFFFC000FF8003000FF8001FFF80007FE0000000FFFFFFFF
310
0000000FFFFFFFF8000001FFFE0000007FFFFFF0001FFFFFF8000FFFFFFFF800
310
0FF8000FFFFFFFF8000FFF0003FFFFFFFFF8000000FFFFFFF000F000000FFFFF
310
FFFFC000FFC002000FF8000FFF80007FE000001FFFFFFFFE000001FFFFFFFFF8
310
000001FFFE0000007FFFFFF0001FFFFFF8000FFFFFFFF8000FF8000FFFFFFFF8
310
000FFF0003FFFFFFFFF000001FFFFFFFF000E00000FFFFFFFFFFC000FFC00200
310
0FFC000FFF80007FE00001FFFFFFFFFE00001FFFFFFFFFF8000001FFFE000000
310
7FFFFFF0001FFFFFFC000FFFFFFFF8001FFC000FFFFFFFF8001FFF0003FFFFFF
310
FFF00001FFFFFFFFF000E00007FFFFFFFFFF8000FFC000001FFC000FFF80007F
310
C0000FFFFFFFFFFE0000FFFFFFFFFFF8000001FFFE0000007FFFFFF0001FFFFF
310
FC0007FFFFFFF0001FFC0007FFFFFFF0001FFF0003FFFFFFFFF00007FFFFFFFF
310
F000E0001FFFFFFFFFFF8000FFC000001FFC000FFF80007FC0003FFFFFFFFFFE
310
0001FFFFFFFFFFF8000001FFFE0000007FFFFFF0001FFFFFFC0007FFFFFFF000
310
1FFC0007FFFFFFF0001FFF0003FFFFFFFFF0001FFFFFFFFFF000E0003FFFFF00
310
03FF8001FFE000001FFC0007FF80007FC0007FFFFF0007FC0003FFFFF0003FF8
310
000001FFFE0000007FFFFFF0001FFFFFFC0003FFFFFFE0001FFC0003FFFFFFE0
310
001FFF0003FFFFFFFFF0003FFFFFFFFFF000E0003FFFFF0001FF8001FFE00000
310
1FFE0007FF80007FC0007FFFFE0003FC0007FFFFE0003FF8000001FFFE000000
310
7FFFFFF0001FFFFFFE0003FFFFFFE0003FFE0003FFFFFFE0003FFF0003FFFFFF
310
FFF0003FFFFF8001F000E0003FFFFF0001FF0001FFE000001FFE0007FF80007F
310
C0007FFFFE0003FC0007FFFFE0003FF8000001FFFE0000007FFFFFF0001FFFFF
310
FE0001FFFFFFC0003FFE0001FFFFFFC0003FFF0003FFFFFFFFF0003FFFFF0001
310
F000E0003FFFFF0003FF0001FFE000003FFE0007FF80007FC0007FFFFE0003FC
310
0007FFFFE0003FF8000001FFFE0000007FFFFFF0001FFFFFFF0001FFFFFFC000
310
7FFF0001FFFFFFC0007FFF0003FFFFFFFFF0003FFFFF0001F000E0003FFFFE00
310
03FF0003FFF000003FFE0003FF80007FC0007FFFFC0003FE0007FFFFE0003FF8
310
000001FFFE0000007FFFFFF0001FFFFFFF0000FFFFFF80007FFF0000FFFFFF80
310
007FFF0003FFFFFFFFF0003FFFFF0001F000E0003FFFFE0003FF0003FFF00000
310
3FFF0003FF80007FC0007FFFFC0007FE0007FFFFC0003FF8000001FFFE000000
310
7FFFFFF0001FFFFFFF80007FFFFF0000FFFF80007FFFFF0000FFFF0003FFFFFF
310
FFF0003FFFFF0003F000E0003FFFFC0003FE0003FFF000003FFF0003FF80007F
310
E0003FFFF80007FE0003FFFFC0007FF8000001FFFE0000007FFFFFF0001FFFFF
310
FF80003FFFFE0000FFFF80003FFFFE0000FFFF0003FFFFFFFFF0001FFFFE0003
310
F000F0001FFFF80003FE0003FFF000007FFF0001FF80007FE0003FFFF00007FE
310
0001FFFF80007FF8000001FFFE0000007FFFFFF0001FFFFFFFC0000FFFF80001
310
FFFFC0000FFFF80001FFFF0003FFFFFFFFF0001FFFFC0003F000F0000FFFF000
310
07FE0007FFF800007FFF0001FF80007FE0001FFFE00007FF0000FFFE00007FF8
310
000001FFFE0000007FFFFFF0001FFFFFFFC00003FFE00001FFFFC00003FFE000
310
01FFFF0003FFFFFFFFF8000FFFF80003F000F00003FFC00007FC0007FFF80000
310
7FFF8001FF80007FF00007FF80000FFF00007FF80000FFF8000001FFFE000000
310
7F80000000000001FFE000003E000003FFFFE000003E000003FFFF0003FFFFFF
310
FFF80003FFE00007F000F800000000000FFC0007FFF800007FFF8001FF80007F
310
F000000000000FFF000000000000FFF8000001FFFE0000007F80000000000001
310
FFF0000000000007FFFFF0000000000007FFFF0003FFFFFFFFFC00007E000007
310
F000F800000000000FFC0007FFF80000FFFF8000FF80007FF800000000001FFF
310
800000000001FFF8000001FFFE0000007F80000000000001FFF800000000000F
310
FFFFF800000000000FFFFF0003FFFFFFFFFC00000000000FF000FC0000000000
310
1FFC0007FFFC0000FFFF8000FF80007FF800000000003FFFC00000000001FFF8
310
000001FFFE0000007F80000000000001FFF800000000000FFFFFF80000000000
310
0FFFFF0003FFFFFFFFFE00000000001FF000FE00000000003FF8000FFFFC0000
310
FFFF8000FF80007FFC00000000003FFFC00000000003FFF8000001FFFE000000
310
7F80000000000001FFFC00000000001FFFFFFC00000000001FFFFF0003FFFFFF
310
FFFF00000000001FF000FF00000000003FF8000FFFFC0000FFFFC000FF80007F
310
FE00000000007FFFE00000000007FFF8000001FFFE0000007F80000000000001
310
FFFE00000000003FFFFFFE00000000003FFFFF0003FFFFFFFFFF80000000003F
310
F000FF80000000007FF8000FFFFC0001FFFFC0007F80007FFF0000000000FFFF
310
F0000000000FFFF800000000000000007F80000000000001FFFF8000000000FF
310
FFFFFF8000000000FFFFFF0003FFFFFFFFFFC0000000007FF000FFC000000000
310
FFF8000FFFFE0001FFFFC0007F80007FFF8000000001FFFFF8000000001FFFF8
310
00000000000000007F80000000000001FFFFC000000001FFFFFFFFC000000001
310
FFFFFF0003FFFFFFFFFFE000000000FFF000FFE000000003FFF0001FFFFE0001
310
FFFFC0007F80007FFFC000000007FFFFFE000000003FFFF80000000000000000
310
7F80000000000001FFFFE000000003FFFFFFFFE000000003FFFFFF0003FFFFFF
310
FFFFF000000003FFF000FFF80000000FFFF0001FFFFE0001FFFFE0007F80007F
310
FFF00000000FFFFFFF00000000FFFFF800000000000000007F80000000000001
310
FFFFF80000000FFFFFFFFFF80000000FFFFFFF0003FFFFFFFFFFFC0000000FFF
310
F000FFFE0000003FFFF0001FFFFE0003FFFFE0003F80007FFFFC0000003FFFFF
310
FFC0000003FFFFF800000000000000007F80000000000001FFFFFE0000003FFF
310
FFFFFFFE0000003FFFFFFF0003FFFFFFFFFFFF0000003FFFF000FFFF800000FF
310
FFF0001FFFFF0003FFFFE0003F80007FFFFF000001FFFFFFFFF800001FFFFFF8
310
00000000000000007F80000000000001FFFFFFC00001FFFFFFFFFFFFC00001FF
310
FFFFFF0003FFFFFFFFFFFFC00000FFFFF000FFFFF8000FFFFFFFFFFFFFFFFFFF
310
FFFFFFFFFFFFFFFFFFFFF0001FFFFFFFFFFF0000FFFFFFF80000000000000000
310
7FFFFFFFFFFFFFFFFFFFFFFC001FFFFFFFFFFFFFFC001FFFFFFFFFFFFFFFFFFF
310
FFFFFFFC001FFFFFF000FFFFFFFFFFFFFFFFFFFFFFFFFFFFFFFFFFFFFFFFFFFF
310
FFFFFFFFFFFFFFFFFFFFFFFFFFFFFFFFFFFFFFFFFFFFFFFFFFFFFFFFFFFFFFFF
310
FFFFFFFFFFFFFFFFFFFFFFFFFFFFFFFFFFFFFFFFFFFFFFFFFFFFFFFFFFFFFFFF
310
F000FFFFFFFFFFFFFFFFFFFFFFFFFFFFFFFFFFFFFFFFFFFFFFFFFFFFFFFFFFFF
310
FFFFFFFFFFFFFFFFFFFFFFFFFFFFFFFFFFFFFFFFFFFFFFFFFFFFFFFFFFFFFFFF
310
FFFFFFFFFFFFFFFFFFFFFFFFFFFFFFFFFFFFFFFFFFFFFFFFF000FFFFFFFFFFFF
310
FFFFFFFFFFFFFFFFFFFFFFFFFFFFFFFFFFFFFFFFFFFFFFFFFFFFFFFFFFFFFFFF
310
FFFFFFFFFFFFFFFFFFFFFFFFFFFFFFFFFFFFFFFFFFFFFFFFFFFFFFFFFFFFFFFF
310
FFFFFFFFFFFFFFFFFFFFFFFFFFFFFFFFF000FFFFFFFFFFFFFFFFFFFFFFFFFFFF
310
FFFFFFFFFFFFFFFFFFFFFFFFFFFFFFFFFFFFFFFFFFFFFFFFFFFFFFFFFFFFFFFF
310
FFFFFFFFFFFFFFFFFFFFFFFFFFFFFFFFFFFFFFFFFFFFFFFFFFFFFFFFFFFFFFFF
310
FFFFFFFFFFFFFFFFF000FFFFFFFFFFFFFFFFFFFFFFFFFFFFFFFFFFFFFFFFFFFF
310
FFFFFFFFFFFFFFFFFFFFFFFFFFFFFFFFFFFFFFFFFFFFFFFFFFFFFFFFFFFFFFFF
310
FFFFFFFFFFFFFFFFFFFFFFFFFFFFFFFFFFFFFFFFFFFFFFFFFFFFFFFFFFFFFFFF
310
F000FFFFFFFFFFFFFFFFFFFFFFFFFFFFFFFFFFFFFFFFFFFFFFFFFFFFFFFFFFFF
310
FFFFFFFFFFFFFFFFFFFFFFFFFFFFFFFFFFFFFFFFFFFFFFFFFFFFFFFFFFFFFFFF
310
FFFFFFFFFFFFFFFFFFFFFFFFFFFFFFFFFFFFFFFFFFFFFFFFF000FFFFFFFFFFFF
310
FFFFFFFFFFFFFFFFFFFFFFFFFFFFFFFFFFFFFFFFFFFFFFFFFFFFFFFFFFFFFFFF
310
FFFFFFFFFFFFFFFFFFFFFFFFFFFFFFFFFFFFFFFFFFFFFFFFFFFFFFFFFFFFFFFF
310
FFFFFFFFFFFFFFFFFFFFFFFFFFFFFFFFF000FFFFFFFFFFFFFFFFFFFFFFFFFFFF
310
FFFFFFFFFFFFFFFFFFFFFFFFFFFFFFFFFFFFFFFFFFFFFFFFFFFFFFFFFFFFFFFF
310
FFFFFFFFFFFFFFFFFFFFFFFFFFFFFFFFFFFFFFFFFFFFFFFFFFFFFFFFFFFFFFFF
310
FFFFFFFFFFFFFFFFF000FFFFFFFFFFFFFFFFFFFFFFFFFFFFFFFFFFFFFFFFFFFF
310
FFFFFFFFFFFFFFFFFFFFFFFFFFFFFFFFFFFFFFFFFFFFFFFFFFFFFFFFFFFFFFFF
310
FFFFFFFFFFFFFFFFFFFFFFFFFFFFFFFFFFFFFFFFFFFFFFFFFFFFFFFFFFFFFFFF
310
F000FFFFFFFFFFFFFFFFFFFFFFFFFFFFFFFFFFFFFFFFFFFFFFFFFFFFFFFFFFFF
310
FFFFFFFFFFFFFFFFFFFFFFFFFFFFFFFFFFFFFFFFFFFFFFFFFFFFFFFFFFFFFFFF
310
FFFFFFFFFFFFFFFFFFFFFFFFFFFFFFFFFFFFFFFFFFFFFFFFF000FFFFFFFFFFFF
310
FFFFFFFFFFFFFFFFFFFFFFFFFFFFFFFFFFFFFFFFFFFFFFFFFFFFFFFFFFFFFFFF
310
FFFFFFFFFFFFFFFFFFFFFFFFFFFFFFFFFFFFFFFFFFFFFFFFFFFFFFFFFFFFFFFF
310
FFFFFFFFFFFFFFFFFFFFFFFFFFFFFFFFF000FFFFFFFFFFFFFFFFFFFFFFFFFFFF
310
FFFFFFFFFFFFFFFFFFFFFFFFFFFFFFFFFFFFFFFFFFFFFFFFFFFFFFFFFFFFFFFF
310
FFFFFFFFFFFFFFFFFFFFFFFFFFFFFFFFFFFFFFFFFFFFFFFFFFFFFFFFFFFFFFFF
310
FFFFFFFFFFFFFFFFF000FFFFFFFFFFFFFFFFFFFFFFFFFFFFFFFFFFFFFFFFFFFF
310
FFFFFFFFFFFFFFFFFFFFFFFFFFFFFFFFFFFFFFFFFFFFFFFFFFFFFFFFFFFFFFFF
310
FFFFFFFFFFFFFFFFFFFFFFFFFFFFFFFFFFFFFFFFFFFFFFFFFFFFFFFFFFFFFFFF
310
F000FFFFFFFFFFFFFFFFFFFFFFFFFFFFFFFFFFFFFFFFFFFFFFFFFFFFFFFFFFFF
310
FFFFFFFFFFFFFFFFFFFFFFFFFFFFFFFFFFFFFFFFFFFFFFFFFFFFFFFFFFFFFFFF
310
FFFFFFFFFFFFFFFFFFFFFFFFFFFFFFFFFFFFFFFFFFFFFFFFF000FFFFFFFFFFFF
310
FFFFFFFFFFFFFFFFFFFFFFFFFFFFFFFFFFFFFFFFFFFFFFFFFFFFFFFFFFFFFFFF
310
FFFFFFFFFFFFFFFFFFFFFFFFFFFFFFFFFFFFFFFFFFFFFFFFFFFFFFFFFFFFFFFF
310
FFFFFFFFFFFFFFFFFFFFFFFFFFFFFFFFF000FFFFFFFFFFFFFFFFFFFFFFFFFFFF
310
FFFFFFFFFFFFFFFFFFFFFFFFFFFFFFFFFFFFFFFFFFFFFFFFFFFFFFFFFFFFFFFF
310
FFFFFFFFFFFFFFFFFFFFFFFFFFFFFFFFFFFFFFFFFFFFFFFFFFFFFFFFFFFFFFFF
310
FFFFFFFFFFFFFFFFF000FFFFFFFFFFFFFFFFFFFFFFFFFFFFFFFFFFFFFFFFFFFF
310
FFFFFFFFFFFFFFFFFFFFFFFFFFFFFFFFFFFFFFFFFFFFFFFFFFFFFFFFFFFFFFFF
310
FFFFFFFFFFFFFFFFFFFFFFFFFFFFFFFFFFFFFFFFFFFFFFFFFFFFFFFFFFFFFFFF
310
F000FFFFFFFFFFFFFFFFFFFFFFFFFFFFFFFFFFFFFFFFFFFFFFFFFFFFFFFFFFFF
310
FFFFFFFFFFFFFFFFFFFFFFFFFFFFFFFFFFFFFFFFFFFFFFFFFFFFFFFFFFFFFFFF
310
FFFFFFFFFFFFFFFFFFFFFFFFFFFFFFFFFFFFFFFFFFFFFFFFF000FFFFFFFFFFFF
310
FFFFFFFFFFFFFFFFFFFFFFFFFFFFFFFFFFFFFFFFFFFFFFFFFFFFFFFFFFFFFFFF
310
FFFFFFFFFFFFFFFFFFFFFFFFFFFFFFFFFFFFFFFFFFFFFFFFFFFFFFFFFFFFFFFF
310
FFFFFFFFFFFFFFFFFFFFFFFFFFFFFFFFF000FFFFFFFFFFFFFFFFFFFFFFFFFFFF
310
FFFFFFFFFFFFFFFFFFFFFFFFFFFFFFFFFFFFFFFFFFFFFFFFFFFFFFFFFFFFFFFF
310
FFFFFFFFFFFFFFFFFFFFFFFFFFFFFFFFFFFFFFFFFFFFFFFFFFFFFFFFFFFFFFFF
310
FFFFFFFFFFFFFFFFF000FFFFFFFFFFFFFFFFFFFFFFFFFFFFFFFFFFFFFFFFFFFF
310
FFFFFFFFFFFFFFFFFFFFFFFFFFFFFFFFFFFFFFFFFFFFFFFFFFFFFFFFFFFFFFFF
310
FFFFFFFFFFFFFFFFFFFFFFFFFFFFFFFFFFFFFFFFFFFFFFFFFFFFFFFFFFFFFFFF
310
F000FFFFFFFFFFFFFFFFFFFFFFFFFFFFFFFFFFFFFFFFFFFFFFFFFFFFFFFFFFFF
310
FFFFFFFFFFFFFFFFFFFFFFFFFFFFFFFFFFFFFFFFFFFFFFFFFFFFFFFFFFFFFFFF
310
FFFFFFFFFFFFFFFFFFFFFFFFFFFFFFFFFFFFFFFFFFFFFFFFF000FFFFFFFFFFFF
310
FFFFFFFFFFFFFFFFFFFFFFFFFFFFFFFFFFFFFFFFFFFFFFFFFFFFFFFFFFFFFFFF
310
FFFFFFFFFFFFFFFFFFFFFFFFFFFFFFFFFFFFFFFFFFFFFFFFFFFFFFFFFFFFFFFF
310
FFFFFFFFFFFFFFFFFFFFFFFFFFFFFFFFF0000000000000000000000000000000
310
0000000000000000000000000000000000000000000000000000000000000000
310
0000000000000000000000000000000000000000000000000000000000000000
310
0000000000000000000000000000000000000000000000000000000000000000
310
0000000000000000000000000000000000000000000000000000000000000000
310
0000000000000000000000000000000000000000000000000000000000000000
310
0000000000000000000000000000000000000000000000000000000000000000
310
0000000000000000000000000000000000000000000000000000000000000000
310
0000000000000000000000000000000000000000000000000000000000000000
310
0000000000000000000000000000000000000000000000000000000000000000
310
0000000000000000000000000000000000000000000000000000000000000000
310
0000000000000000000000000000000000000000000000000000000000000000
310
0000000000000000000000000000000000000000000000000000000000000000
310
0000000000000000000000000000000000000000000000000000000000000000
310
0000000000000000000000000000000000000000000000000000000000000000
310
0000000000000000000000000000000000000000000000000000000000000000
  1
OLE
  0
ENDSEC
  0
SECTION
  2
OBJECTS
  0
DICTIONARY
  5
C
330
0
100
AcDbDictionary
281
     1
  3
ACAD_GROUP
350
D
  3
ACAD_LAYOUT
350
1A
  3
ACAD_MLINESTYLE
350
17
  3
ACAD_PLOTSETTINGS
350
19
  3
ACAD_PLOTSTYLENAME
350
E
  0
DICTIONARY
  5
D
102
{ACAD_REACTORS
330
C
102
}
330
C
100
AcDbDictionary
281
     1
  0
DICTIONARY
  5
1A
102
{ACAD_REACTORS
330
C
102
}
330
C
100
AcDbDictionary
281
     1
  3
Layout1
350
1E
  3
Layout2
350
26
  3
Model
350
22
  0
DICTIONARY
  5
17
102
{ACAD_REACTORS
330
C
102
}
330
C
100
AcDbDictionary
281
     1
  3
Standard
350
18
  0
DICTIONARY
  5
19
102
{ACAD_REACTORS
330
C
102
}
330
C
100
AcDbDictionary
281
     1
  0
ACDBDICTIONARYWDFLT
  5
E
102
{ACAD_REACTORS
330
C
102
}
330
C
100
AcDbDictionary
281
     1
  3
Normal
350
F
100
AcDbDictionaryWithDefault
340
F
  0
LAYOUT
  5
1E
102
{ACAD_REACTORS
330
1A
102
}
330
1A
100
AcDbPlotSettings
  1

  2
none_device
  4

  6

 40
0.0
 41
0.0
 42
0.0
 43
0.0
 44
0.0
 45
0.0
 46
0.0
 47
0.0
 48
0.0
 49
0.0
140
0.0
141
0.0
142
1.0
143
1.0
 70
   688
 72
     0
 73
     0
 74
     5
  7

 75
    16
147
1.0
148
0.0
149
0.0
100
AcDbLayout
  1
Layout1
 70
     1
 71
     1
 10
0.0
 20
0.0
 11
420.0
 21
297.0
 12
0.0
 22
0.0
 32
0.0
 14
1.0000000000E+20
 24
1.0000000000E+20
 34
1.0000000000E+20
 15
-1.0000000000E+20
 25
-1.0000000000E+20
 35
-1.0000000000E+20
146
0.0
 13
0.0
 23
0.0
 33
0.0
 16
1.0
 26
0.0
 36
0.0
 17
0.0
 27
1.0
 37
0.0
 76
     0
330
1B
  0
LAYOUT
  5
26
102
{ACAD_REACTORS
330
1A
102
}
330
1A
100
AcDbPlotSettings
  1

  2
none_device
  4

  6

 40
0.0
 41
0.0
 42
0.0
 43
0.0
 44
0.0
 45
0.0
 46
0.0
 47
0.0
 48
0.0
 49
0.0
140
0.0
141
0.0
142
1.0
143
1.0
 70
   688
 72
     0
 73
     0
 74
     5
  7

 75
    16
147
1.0
148
0.0
149
0.0
100
AcDbLayout
  1
Layout2
 70
     1
 71
     2
 10
0.0
 20
0.0
 11
0.0
 21
0.0
 12
0.0
 22
0.0
 32
0.0
 14
0.0
 24
0.0
 34
0.0
 15
0.0
 25
0.0
 35
0.0
146
0.0
 13
0.0
 23
0.0
 33
0.0
 16
1.0
 26
0.0
 36
0.0
 17
0.0
 27
1.0
 37
0.0
 76
     0
330
23
  0
LAYOUT
  5
22
102
{ACAD_REACTORS
330
1A
102
}
330
1A
100
AcDbPlotSettings
  1

  2
none_device
  4

  6

 40
0.0
 41
0.0
 42
0.0
 43
0.0
 44
0.0
 45
0.0
 46
0.0
 47
0.0
 48
0.0
 49
0.0
140
0.0
141
0.0
142
1.0
143
1.0
 70
  1712
 72
     0
 73
     0
 74
     0
  7

 75
     0
147
1.0
148
0.0
149
0.0
100
AcDbLayout
  1
Model
 70
     1
 71
     0
 10
0.0
 20
0.0
 11
297.0
 21
210.0
 12
0.0
 22
0.0
 32
0.0
 14
0.0
 24
0.0
 34
0.0
 15
297.0
 25
210.0
 35
0.0
146
0.0
 13
0.0
 23
0.0
 33
0.0
 16
1.0
 26
0.0
 36
0.0
 17
0.0
 27
1.0
 37
0.0
 76
     0
330
1F
331
29
  0
MLINESTYLE
  5
18
102
{ACAD_REACTORS
330
17
102
}
330
17
100
AcDbMlineStyle
  2
Standard
 70
     0
  3

 62
   256
 51
90.0
 52
90.0
 71
     2
 49
0.5
 62
   256
  6
BYLAYER
 49
-0.5
 62
   256
  6
BYLAYER
  0
ACDBPLACEHOLDER
  5
F
102
{ACAD_REACTORS
330
E
102
}
330
E
  0
ENDSEC
  0
EOF
