  0
SECTION
  2
HEADER
  9
$ACADVER
  1
AC1015
  9
$ACADMAINTVER
 70
     6
  9
$DWGCODEPAGE
  3
ANSI_1252
  9
$INSBASE
 10
0.0
 20
0.0
 30
0.0
  9
$EXTMIN
 10
0.0
 20
0.0
 30
0.0
  9
$EXTMAX
 10
297.0
 20
210.0
 30
0.0
  9
$LIMMIN
 10
0.0
 20
0.0
  9
$LIMMAX
 10
297.0
 20
210.0
  9
$ORTHOMODE
 70
     0
  9
$REGENMODE
 70
     1
  9
$FILLMODE
 70
     1
  9
$QTEXTMODE
 70
     0
  9
$MIRRTEXT
 70
     1
  9
$LTSCALE
 40
1.0
  9
$ATTMODE
 70
     1
  9
$TEXTSIZE
 40
2.0
  9
$TRACEWID
 40
1.0
  9
$TEXTSTYLE
  7
Standard
  9
$CLAYER
  8
0
  9
$CELTYPE
  6
ByLayer
  9
$CECOLOR
 62
   256
  9
$CELTSCALE
 40
1.0
  9
$DISPSILH
 70
     0
  9
$DIMSCALE
 40
1.0
  9
$DIMASZ
 40
3.0
  9
$DIMEXO
 40
0.0
  9
$DIMDLI
 40
3.75
  9
$DIMRND
 40
0.0
  9
$DIMDLE
 40
0.0
  9
$DIMEXE
 40
1.0
  9
$DIMTP
 40
0.0
  9
$DIMTM
 40
0.0
  9
$DIMTXT
 40
2.0
  9
$DIMCEN
 40
2.5
  9
$DIMTSZ
 40
0.0
  9
$DIMTOL
 70
     0
  9
$DIMLIM
 70
     0
  9
$DIMTIH
 70
     1
  9
$DIMTOH
 70
     1
  9
$DIMSE1
 70
     0
  9
$DIMSE2
 70
     0
  9
$DIMTAD
 70
     1
  9
$DIMZIN
 70
     0
  9
$DIMBLK
  1

  9
$DIMASO
 70
     1
  9
$DIMSHO
 70
     1
  9
$DIMPOST
  1

  9
$DIMAPOST
  1

  9
$DIMALT
 70
     0
  9
$DIMALTD
 70
     3
  9
$DIMALTF
 40
0.0393700787
  9
$DIMLFAC
 40
1.0
  9
$DIMTOFL
 70
     1
  9
$DIMTVP
 40
0.0
  9
$DIMTIX
 70
     0
  9
$DIMSOXD
 70
     0
  9
$DIMSAH
 70
     0
  9
$DIMBLK1
  1

  9
$DIMBLK2
  1

  9
$DIMSTYLE
  2
ISO-25
  9
$DIMCLRD
 70
     0
  9
$DIMCLRE
 70
     0
  9
$DIMCLRT
 70
     0
  9
$DIMTFAC
 40
1.0
  9
$DIMGAP
 40
1.524
  9
$DIMJUST
 70
     0
  9
$DIMSD1
 70
     0
  9
$DIMSD2
 70
     0
  9
$DIMTOLJ
 70
     0
  9
$DIMTZIN
 70
     0
  9
$DIMALTZ
 70
     0
  9
$DIMALTTZ
 70
     0
  9
$DIMUPT
 70
     0
  9
$DIMDEC
 70
     2
  9
$DIMTDEC
 70
     3
  9
$DIMALTU
 70
     2
  9
$DIMALTTD
 70
     3
  9
$DIMTXSTY
  7
Standard
  9
$DIMAUNIT
 70
     0
  9
$DIMADEC
 70
     2
  9
$DIMALTRND
 40
0.0
  9
$DIMAZIN
 70
     0
  9
$DIMDSEP
 70
    44
  9
$DIMATFIT
 70
     3
  9
$DIMFRAC
 70
     0
  9
$DIMLDRBLK
  1

  9
$DIMLUNIT
 70
     2
  9
$DIMLWD
 70
    -2
  9
$DIMLWE
 70
    -2
  9
$DIMTMOVE
 70
     0
  9
$LUNITS
 70
     2
  9
$LUPREC
 70
     2
  9
$SKETCHINC
 40
1.0
  9
$FILLETRAD
 40
10.0
  9
$AUNITS
 70
     0
  9
$AUPREC
 70
     2
  9
$MENU
  1
.
  9
$ELEVATION
 40
0.0
  9
$PELEVATION
 40
0.0
  9
$THICKNESS
 40
0.0
  9
$LIMCHECK
 70
     0
  9
$CHAMFERA
 40
10.0
  9
$CHAMFERB
 40
10.0
  9
$CHAMFERC
 40
20.0
  9
$CHAMFERD
 40
0.0
  9
$SKPOLY
 70
     0
  9
$TDCREATE
 40
2456098.377734398
  9
$TDUCREATE
 40
2456098.294401065
  9
$TDUPDATE
 40
2456098.377735845
  9
$TDUUPDATE
 40
2456098.294402512
  9
$TDINDWG
 40
0.0000000116
  9
$TDUSRTIMER
 40
0.0000000116
  9
$USRTIMER
 70
     1
  9
$ANGBASE
 50
0.0
  9
$ANGDIR
 70
     0
  9
$PDMODE
 70
     0
  9
$PDSIZE
 40
-1.0
  9
$PLINEWID
 40
0.0
  9
$SPLFRAME
 70
     0
  9
$SPLINETYPE
 70
     6
  9
$SPLINESEGS
 70
     8
  9
$HANDSEED
  5
25E
  9
$SURFTAB1
 70
     6
  9
$SURFTAB2
 70
     6
  9
$SURFTYPE
 70
     6
  9
$SURFU
 70
     6
  9
$SURFV
 70
     6
  9
$UCSBASE
  2

  9
$UCSNAME
  2

  9
$UCSORG
 10
0.0
 20
0.0
 30
0.0
  9
$UCSXDIR
 10
1.0
 20
0.0
 30
0.0
  9
$UCSYDIR
 10
0.0
 20
1.0
 30
0.0
  9
$UCSORTHOREF
  2

  9
$UCSORTHOVIEW
 70
     0
  9
$UCSORGTOP
 10
0.0
 20
0.0
 30
0.0
  9
$UCSORGBOTTOM
 10
0.0
 20
0.0
 30
0.0
  9
$UCSORGLEFT
 10
0.0
 20
0.0
 30
0.0
  9
$UCSORGRIGHT
 10
0.0
 20
0.0
 30
0.0
  9
$UCSORGFRONT
 10
0.0
 20
0.0
 30
0.0
  9
$UCSORGBACK
 10
0.0
 20
0.0
 30
0.0
  9
$PUCSBASE
  2

  9
$PUCSNAME
  2

  9
$PUCSORG
 10
0.0
 20
0.0
 30
0.0
  9
$PUCSXDIR
 10
1.0
 20
0.0
 30
0.0
  9
$PUCSYDIR
 10
0.0
 20
1.0
 30
0.0
  9
$PUCSORTHOREF
  2

  9
$PUCSORTHOVIEW
 70
     0
  9
$PUCSORGTOP
 10
0.0
 20
0.0
 30
0.0
  9
$PUCSORGBOTTOM
 10
0.0
 20
0.0
 30
0.0
  9
$PUCSORGLEFT
 10
0.0
 20
0.0
 30
0.0
  9
$PUCSORGRIGHT
 10
0.0
 20
0.0
 30
0.0
  9
$PUCSORGFRONT
 10
0.0
 20
0.0
 30
0.0
  9
$PUCSORGBACK
 10
0.0
 20
0.0
 30
0.0
  9
$USERI1
 70
     0
  9
$USERI2
 70
     0
  9
$USERI3
 70
     0
  9
$USERI4
 70
     0
  9
$USERI5
 70
     0
  9
$USERR1
 40
0.0
  9
$USERR2
 40
0.0
  9
$USERR3
 40
0.0
  9
$USERR4
 40
0.0
  9
$USERR5
 40
0.0
  9
$WORLDVIEW
 70
     1
  9
$SHADEDGE
 70
     3
  9
$SHADEDIF
 70
    70
  9
$TILEMODE
 70
     1
  9
$MAXACTVP
 70
    64
  9
$PINSBASE
 10
0.0
 20
0.0
 30
0.0
  9
$PLIMCHECK
 70
     0
  9
$PEXTMIN
 10
1.0000000000E+20
 20
1.0000000000E+20
 30
1.0000000000E+20
  9
$PEXTMAX
 10
-1.0000000000E+20
 20
-1.0000000000E+20
 30
-1.0000000000E+20
  9
$PLIMMIN
 10
0.0
 20
0.0
  9
$PLIMMAX
 10
420.0
 20
297.0
  9
$UNITMODE
 70
     0
  9
$VISRETAIN
 70
     1
  9
$PLINEGEN
 70
     0
  9
$PSLTSCALE
 70
     1
  9
$TREEDEPTH
 70
  3020
  9
$CMLSTYLE
  2
Standard
  9
$CMLJUST
 70
     0
  9
$CMLSCALE
 40
20.0
  9
$PROXYGRAPHICS
 70
     1
  9
$MEASUREMENT
 70
     1
  9
$CELWEIGHT
370
    -1
  9
$ENDCAPS
280
     0
  9
$JOINSTYLE
280
     0
  9
$LWDISPLAY
290
     1
  9
$INSUNITS
 70
     4
  9
$HYPERLINKBASE
  1

  9
$STYLESHEET
  1

  9
$XEDIT
290
     1
  9
$CEPSNTYPE
380
     0
  9
$PSTYLEMODE
290
     1
  9
$FINGERPRINTGUID
  2
{6DC0F019-9AF4-4655-A52D-D91C182B8CCD}
  9
$VERSIONGUID
  2
{FAEB1C32-E019-11D5-929B-00C0DF256EC4}
  9
$EXTNAMES
290
     1
  9
$PSVPSCALE
 40
0.0
  9
$OLESTARTUP
290
     0
  0
ENDSEC
  0
SECTION
  2
CLASSES
  0
CLASS
  1
ACDBDICTIONARYWDFLT
  2
AcDbDictionaryWithDefault
  3
ObjectDBX Classes
 90
        0
280
     0
281
     0
  0
CLASS
  1
VISUALSTYLE
  2
AcDbVisualStyle
  3
ObjectDBX Classes
 90
     4095
280
     0
281
     0
  0
CLASS
  1
MATERIAL
  2
AcDbMaterial
  3
ObjectDBX Classes
 90
     1153
280
     0
281
     0
  0
CLASS
  1
ACDBPLACEHOLDER
  2
AcDbPlaceHolder
  3
ObjectDBX Classes
 90
        0
280
     0
281
     0
  0
CLASS
  1
LAYOUT
  2
AcDbLayout
  3
ObjectDBX Classes
 90
        0
280
     0
281
     0
  0
ENDSEC
  0
SECTION
  2
TABLES
  0
TABLE
  2
VPORT
  5
8
330
0
100
AcDbSymbolTable
 70
     1
  0
VPORT
  5
29
330
8
100
AcDbSymbolTableRecord
100
AcDbViewportTableRecord
  2
*Active
 70
     0
 10
0.0
 20
0.0
 11
1.0
 21
1.0
 12
148.5
 22
105.0
 13
0.0
 23
0.0
 14
10.0
 24
10.0
 15
10.0
 25
10.0
 16
0.0
 26
0.0
 36
1.0
 17
0.0
 27
0.0
 37
0.0
 40
210.0
 41
1.4142857143
 42
50.0
 43
0.0
 44
0.0
 50
0.0
 51
0.0
 71
     0
 72
  2000
 73
     1
 74
     3
 75
     0
 76
     0
 77
     0
 78
     0
281
     0
 65
     1
110
0.0
120
0.0
130
0.0
111
1.0
121
0.0
131
0.0
112
0.0
122
1.0
132
0.0
 79
     0
146
0.0
  0
ENDTAB
  0
TABLE
  2
LTYPE
  5
5
330
0
100
AcDbSymbolTable
 70
     6
  0
LTYPE
  5
14
330
5
100
AcDbSymbolTableRecord
100
AcDbLinetypeTableRecord
  2
ByBlock
 70
     0
  3

 72
    65
 73
     0
 40
0.0
  0
LTYPE
  5
15
330
5
100
AcDbSymbolTableRecord
100
AcDbLinetypeTableRecord
  2
ByLayer
 70
     0
  3

 72
    65
 73
     0
 40
0.0
  0
LTYPE
  5
16
330
5
100
AcDbSymbolTableRecord
100
AcDbLinetypeTableRecord
  2
Continuous
 70
     0
  3
Solid line
 72
    65
 73
     0
 40
0.0
  0
LTYPE
  5
3F
330
5
100
AcDbSymbolTableRecord
100
AcDbLinetypeTableRecord
  2
HIDDEN
 70
     0
  3
Hidden __ __ __ __ __ __ __ __ __ __ __ __ __ __
 72
    65
 73
     2
 40
1.905
 49
1.27
 74
     0
 49
-0.635
 74
     0
  0
LTYPE
  5
40
330
5
100
AcDbSymbolTableRecord
100
AcDbLinetypeTableRecord
  2
PHANTOM
 70
     0
  3
Phantom ______  __  __  ______  __  __  ______
 72
    65
 73
     6
 40
12.7
 49
6.35
 74
     0
 49
-1.27
 74
     0
 49
1.27
 74
     0
 49
-1.27
 74
     0
 49
1.27
 74
     0
 49
-1.27
 74
     0
  0
LTYPE
  5
41
330
5
100
AcDbSymbolTableRecord
100
AcDbLinetypeTableRecord
  2
CENTER
 70
     0
  3
Center ____ _ ____ _ ____ _ ____ _ ____ _ ____
 72
    65
 73
     4
 40
10.16
 49
6.35
 74
     0
 49
-1.27
 74
     0
 49
1.27
 74
     0
 49
-1.27
 74
     0
  0
LTYPE
  5
42
330
5
100
AcDbSymbolTableRecord
100
AcDbLinetypeTableRecord
  2
CENTERX2
 70
     0
  3
Center (2x) ________  __  ________  __  _____
 72
    65
 73
     4
 40
20.32
 49
12.7
 74
     0
 49
-2.54
 74
     0
 49
2.54
 74
     0
 49
-2.54
 74
     0
  0
LTYPE
  5
43
330
5
100
AcDbSymbolTableRecord
100
AcDbLinetypeTableRecord
  2
DOT2
 70
     0
  3
Dot (.5x) ........................................
 72
    65
 73
     2
 40
0.635
 49
0.0
 74
     0
 49
-0.635
 74
     0
  0
ENDTAB
  0
TABLE
  2
LAYER
  5
2
330
0
100
AcDbSymbolTable
 70
     5
  0
LAYER
  5
10
330
2
100
AcDbSymbolTableRecord
100
AcDbLayerTableRecord
  2
0
 70
     0
 62
     7
  6
Continuous
370
    -3
390
F
  0
LAYER
  5
44
330
2
100
AcDbSymbolTableRecord
100
AcDbLayerTableRecord
  2
FORMAT
 70
     0
 62
     7
  6
Continuous
370
    -3
390
F
  0
LAYER
  5
45
330
2
100
AcDbSymbolTableRecord
100
AcDbLayerTableRecord
  2
VERMASSUNG
 70
     0
 62
     7
  6
Continuous
370
    -3
390
F
  0
LAYER
  5
46
330
2
100
AcDbSymbolTableRecord
100
AcDbLayerTableRecord
  2
KOPF_DÜNN
 70
     0
 62
     7
  6
Continuous
370
    -3
390
F
  0
LAYER
  5
47
330
2
100
AcDbSymbolTableRecord
100
AcDbLayerTableRecord
  2
KOPF_DICK
 70
     0
 62
     7
  6
Continuous
370
    15
390
F
  0
ENDTAB
  0
TABLE
  2
STYLE
  5
3
330
0
100
AcDbSymbolTable
 70
     3
  0
STYLE
  5
11
330
3
100
AcDbSymbolTableRecord
100
AcDbTextStyleTableRecord
  2
Standard
 70
     0
 40
0.0
 41
1.0
 50
0.0
 71
     0
 42
2.0
  3
txt
  4

  0
STYLE
  5
48
330
3
100
AcDbSymbolTableRecord
100
AcDbTextStyleTableRecord
  2
SLDTEXTSTYLE0
 70
     0
 40
0.0
 41
0.7
 50
0.0
 71
     0
 42
0.2
  3
TXT
  4

  0
STYLE
  5
4C
330
3
100
AcDbSymbolTableRecord
100
AcDbTextStyleTableRecord
  2
SLDTEXTSTYLE1
 70
     0
 40
0.0
 41
0.6384615385
 50
0.0
 71
     0
 42
0.2
  3
TXT
  4

  0
ENDTAB
  0
TABLE
  2
VIEW
  5
6
330
0
100
AcDbSymbolTable
 70
     0
  0
ENDTAB
  0
TABLE
  2
UCS
  5
7
330
0
100
AcDbSymbolTable
 70
     0
  0
ENDTAB
  0
TABLE
  2
APPID
  5
9
330
0
100
AcDbSymbolTable
 70
     1
  0
APPID
  5
12
330
9
100
AcDbSymbolTableRecord
100
AcDbRegAppTableRecord
  2
ACAD
 70
     0
  0
ENDTAB
  0
TABLE
  2
DIMSTYLE
  5
A
330
0
100
AcDbSymbolTable
 70
     3
100
AcDbDimStyleTable
  0
DIMSTYLE
105
27
330
A
100
AcDbSymbolTableRecord
100
AcDbDimStyleTableRecord
  2
ISO-25
 70
     0
 41
2.5
 42
0.625
 43
3.75
 44
1.25
 73
     0
 74
     0
 77
     1
 78
     8
140
2.5
141
2.5
143
0.0393700787
147
0.625
171
     3
172
     1
178
     0
271
     2
272
     2
274
     3
278
    44
283
     0
284
     8
340
11
  0
DIMSTYLE
105
197
102
{ACAD_REACTORS
330
196
330
1A3
330
1AD
330
1C5
102
}
330
A
100
AcDbSymbolTableRecord
100
AcDbDimStyleTableRecord
  2
SLDDIMSTYLE0
 70
     0
 41
3.0
 44
0.0
 45
0.000000001
 73
     0
 74
     0
 77
     1
 78
    12
 79
     3
140
2.0
147
0.5
173
     1
178
     0
271
     2
272
     3
276
     2
284
    12
340
48
  0
DIMSTYLE
105
1B8
102
{ACAD_REACTORS
330
1B7
102
}
330
A
100
AcDbSymbolTableRecord
100
AcDbDimStyleTableRecord
  2
SLDDIMSTYLE1
 70
     0
 41
3.0
 44
0.0
 45
0.000000001
 73
     0
 74
     0
 77
     1
 78
    12
 79
     3
140
2.0
147
0.5
172
     1
173
     1
178
     0
271
     2
272
     3
276
     2
284
    12
289
     0
340
48
  0
ENDTAB
  0
TABLE
  2
BLOCK_RECORD
  5
1
330
0
100
AcDbSymbolTable
 70
     7
  0
BLOCK_RECORD
  5
1F
330
1
100
AcDbSymbolTableRecord
100
AcDbBlockTableRecord
  2
*Model_Space
340
22
  0
BLOCK_RECORD
  5
1B
330
1
100
AcDbSymbolTableRecord
100
AcDbBlockTableRecord
  2
*Paper_Space
340
1E
  0
BLOCK_RECORD
  5
23
330
1
100
AcDbSymbolTableRecord
100
AcDbBlockTableRecord
  2
*Paper_Space0
340
26
  0
BLOCK_RECORD
  5
198
330
1
100
AcDbSymbolTableRecord
100
AcDbBlockTableRecord
  2
_D
340
0
  0
BLOCK_RECORD
  5
1A4
330
1
100
AcDbSymbolTableRecord
100
AcDbBlockTableRecord
  2
_D_1
340
0
  0
BLOCK_RECORD
  5
1AE
330
1
100
AcDbSymbolTableRecord
100
AcDbBlockTableRecord
  2
_D_2
340
0
  0
BLOCK_RECORD
  5
1B9
330
1
100
AcDbSymbolTableRecord
100
AcDbBlockTableRecord
  2
_D_3
340
0
  0
BLOCK_RECORD
  5
1C6
330
1
100
AcDbSymbolTableRecord
100
AcDbBlockTableRecord
  2
_D_4
340
0
  0
BLOCK_RECORD
  5
251
330
1
100
AcDbSymbolTableRecord
100
AcDbBlockTableRecord
  2
SW_CENTERMARKSYMBOL_0
340
0
102
{BLKREFS
331
25C
102
}
  0
ENDTAB
  0
ENDSEC
  0
SECTION
  2
BLOCKS
  0
BLOCK
  5
20
330
1F
100
AcDbEntity
  8
0
100
AcDbBlockBegin
  2
*Model_Space
 70
     0
 10
0.0
 20
0.0
 30
0.0
  3
*Model_Space
  1

  0
ENDBLK
  5
21
330
1F
100
AcDbEntity
  8
0
100
AcDbBlockEnd
  0
BLOCK
  5
1C
330
1B
100
AcDbEntity
 67
     1
  8
0
100
AcDbBlockBegin
  2
*Paper_Space
 70
     0
 10
0.0
 20
0.0
 30
0.0
  3
*Paper_Space
  1

  0
ENDBLK
  5
1D
330
1B
100
AcDbEntity
 67
     1
  8
0
100
AcDbBlockEnd
  0
BLOCK
  5
24
330
23
100
AcDbEntity
  8
0
100
AcDbBlockBegin
  2
*Paper_Space0
 70
     0
 10
0.0
 20
0.0
 30
0.0
  3
*Paper_Space0
  1

  0
ENDBLK
  5
25
330
23
100
AcDbEntity
  8
0
100
AcDbBlockEnd
  0
BLOCK
  5
199
330
198
100
AcDbEntity
  8
0
100
AcDbBlockBegin
  2
_D
 70
     0
 10
0.0
 20
0.0
 30
0.0
  3
_D
  1

  0
SOLID
  5
19B
330
198
100
AcDbEntity
  8
VERMASSUNG
100
AcDbTrace
 10
138.1835197985
 20
131.8375049402
 30
0.0
 11
137.7335197985
 21
128.8375049402
 31
0.0
 12
138.6335197985
 22
128.8375049402
 32
0.0
 13
138.6335197985
 23
128.8375049402
 33
0.0
  0
SOLID
  5
19C
330
198
100
AcDbEntity
  8
VERMASSUNG
100
AcDbTrace
 10
138.1835197985
 20
91.8375049402
 30
0.0
 11
138.6335197985
 21
94.8375049402
 31
0.0
 12
137.7335197985
 22
94.8375049402
 32
0.0
 13
137.7335197985
 23
94.8375049402
 33
0.0
  0
LINE
  5
19D
330
198
100
AcDbEntity
  8
VERMASSUNG
100
AcDbLine
 10
169.7614195947
 20
131.8375049402
 30
0.0
 11
137.1835197985
 21
131.8375049402
 31
0.0
  0
LINE
  5
19E
330
198
100
AcDbEntity
  8
VERMASSUNG
100
AcDbLine
 10
169.7614195947
 20
91.8375049402
 30
0.0
 11
137.1835197985
 21
91.8375049402
 31
0.0
  0
LINE
  5
19F
330
198
100
AcDbEntity
  8
VERMASSUNG
100
AcDbLine
 10
138.1835197985
 20
131.8375049402
 30
0.0
 11
138.1835197985
 21
91.8375049402
 31
0.0
  0
MTEXT
  5
1A0
330
198
100
AcDbEntity
  8
VERMASSUNG
100
AcDbMText
 10
135.4053843094
 20
103.7557498364
 30
0.1
 40
2.0
 41
0.0
 71
     1
 72
     1
  1
PSC
  7
SLDTEXTSTYLE0
 11
-7.044195017643634E-15
 21
1.0
 31
0.0
 73
     1
 44
1.0
  0
MTEXT
  5
1A1
330
198
100
AcDbEntity
  8
VERMASSUNG
100
AcDbMText
 10
135.6053843189
 20
108.3557499385
 30
0.1
 40
2.0
 41
0.0
 71
     1
 72
     1
  1
%%c
  7
SLDTEXTSTYLE0
 11
-7.044195017643634E-15
 21
1.0
 31
0.0
 73
     1
 44
1.0
  0
MTEXT
  5
1A2
330
198
100
AcDbEntity
  8
VERMASSUNG
100
AcDbMText
 10
135.4053843094
 20
111.9657504185
 30
0.1
 40
2.0
 41
0.0
 71
     1
 72
     1
  1
40
  7
SLDTEXTSTYLE0
 11
-7.044195017643634E-15
 21
1.0
 31
0.0
 73
     1
 44
1.0
  0
ENDBLK
  5
19A
330
198
100
AcDbEntity
  8
0
100
AcDbBlockEnd
  0
BLOCK
  5
1A5
330
1A4
100
AcDbEntity
  8
0
100
AcDbBlockBegin
  2
_D_1
 70
     0
 10
0.0
 20
0.0
 30
0.0
  3
_D_1
  1

  0
SOLID
  5
1A7
330
1A4
100
AcDbEntity
  8
VERMASSUNG
100
AcDbTrace
 10
169.4614195947
 20
138.5354560872
 30
0.0
 11
172.4614195947
 21
138.0854560872
 31
0.0
 12
172.4614195947
 22
138.9854560872
 32
0.0
 13
172.4614195947
 23
138.9854560872
 33
0.0
  0
SOLID
  5
1A8
330
1A4
100
AcDbEntity
  8
VERMASSUNG
100
AcDbTrace
 10
234.4614195947
 20
138.5354560872
 30
0.0
 11
231.4614195947
 21
138.9854560872
 31
0.0
 12
231.4614195947
 22
138.0854560872
 32
0.0
 13
231.4614195947
 23
138.0854560872
 33
0.0
  0
LINE
  5
1A9
330
1A4
100
AcDbEntity
  8
VERMASSUNG
100
AcDbLine
 10
169.4614195947
 20
131.5375049402
 30
0.0
 11
169.4614195947
 21
139.5354560872
 31
0.0
  0
LINE
  5
1AA
330
1A4
100
AcDbEntity
  8
VERMASSUNG
100
AcDbLine
 10
234.4614195947
 20
127.8375049402
 30
0.0
 11
234.4614195947
 21
139.5354560872
 31
0.0
  0
LINE
  5
1AB
330
1A4
100
AcDbEntity
  8
VERMASSUNG
100
AcDbLine
 10
169.4614195947
 20
138.5354560872
 30
0.0
 11
234.4614195947
 21
138.5354560872
 31
0.0
  0
MTEXT
  5
1AC
330
1A4
100
AcDbEntity
  8
VERMASSUNG
100
AcDbMText
 10
200.5919312354
 20
141.1135914504
 30
0.1
 40
2.0
 41
0.0
 71
     1
 72
     1
  1
65
  7
SLDTEXTSTYLE0
 73
     1
 44
1.0
  0
ENDBLK
  5
1A6
330
1A4
100
AcDbEntity
  8
0
100
AcDbBlockEnd
  0
BLOCK
  5
1AF
330
1AE
100
AcDbEntity
  8
0
100
AcDbBlockBegin
  2
_D_2
 70
     0
 10
0.0
 20
0.0
 30
0.0
  3
_D_2
  1

  0
SOLID
  5
1B1
330
1AE
100
AcDbEntity
  8
VERMASSUNG
100
AcDbTrace
 10
145.4614195947
 20
145.401137064
 30
0.0
 11
148.4614195947
 21
144.951137064
 31
0.0
 12
148.4614195947
 22
145.851137064
 32
0.0
 13
148.4614195947
 23
145.851137064
 33
0.0
  0
SOLID
  5
1B2
330
1AE
100
AcDbEntity
  8
VERMASSUNG
100
AcDbTrace
 10
234.4614195947
 20
145.401137064
 30
0.0
 11
231.4614195947
 21
145.851137064
 31
0.0
 12
231.4614195947
 22
144.951137064
 32
0.0
 13
231.4614195947
 23
144.951137064
 33
0.0
  0
LINE
  5
1B3
330
1AE
100
AcDbEntity
  8
VERMASSUNG
100
AcDbLine
 10
145.4614195947
 20
124.4561320061
 30
0.0
 11
145.4614195947
 21
146.401137064
 31
0.0
  0
LINE
  5
1B4
330
1AE
100
AcDbEntity
  8
VERMASSUNG
100
AcDbLine
 10
234.4614195947
 20
127.8375049402
 30
0.0
 11
234.4614195947
 21
146.401137064
 31
0.0
  0
LINE
  5
1B5
330
1AE
100
AcDbEntity
  8
VERMASSUNG
100
AcDbLine
 10
145.4614195947
 20
145.401137064
 30
0.0
 11
234.4614195947
 21
145.401137064
 31
0.0
  0
MTEXT
  5
1B6
330
1AE
100
AcDbEntity
  8
VERMASSUNG
100
AcDbMText
 10
186.8605692819
 20
147.9792724271
 30
0.1
 40
2.0
 41
0.0
 71
     1
 72
     1
  1
89
  7
SLDTEXTSTYLE0
 73
     1
 44
1.0
  0
ENDBLK
  5
1B0
330
1AE
100
AcDbEntity
  8
0
100
AcDbBlockEnd
  0
BLOCK
  5
1BA
330
1B9
100
AcDbEntity
  8
0
100
AcDbBlockBegin
  2
_D_3
 70
     0
 10
0.0
 20
0.0
 30
0.0
  3
_D_3
  1

  0
SOLID
  5
1BC
330
1B9
100
AcDbEntity
  8
VERMASSUNG
100
AcDbTrace
 10
244.4614195947
 20
108.8375049402
 30
0.0
 11
244.0114195947
 21
105.8375049402
 31
0.0
 12
244.9114195947
 22
105.8375049402
 32
0.0
 13
244.9114195947
 23
105.8375049402
 33
0.0
  0
SOLID
  5
1BD
330
1B9
100
AcDbEntity
  8
VERMASSUNG
100
AcDbTrace
 10
244.4614195947
 20
114.8375049402
 30
0.0
 11
244.9114195947
 21
117.8375049402
 31
0.0
 12
244.0114195947
 22
117.8375049402
 32
0.0
 13
244.0114195947
 23
117.8375049402
 33
0.0
  0
LINE
  5
1BE
330
1B9
100
AcDbEntity
  8
VERMASSUNG
100
AcDbLine
 10
234.1614195947
 20
108.8375049402
 30
0.0
 11
245.4614195947
 21
108.8375049402
 31
0.0
  0
LINE
  5
1BF
330
1B9
100
AcDbEntity
  8
VERMASSUNG
100
AcDbLine
 10
234.1614195947
 20
114.8375049402
 30
0.0
 11
245.4614195947
 21
114.8375049402
 31
0.0
  0
LINE
  5
1C0
330
1B9
100
AcDbEntity
  8
VERMASSUNG
100
AcDbLine
 10
244.4614195947
 20
108.8375049402
 30
0.0
 11
244.4614195947
 21
102.8375049402
 31
0.0
  0
LINE
  5
1C1
330
1B9
100
AcDbEntity
  8
VERMASSUNG
100
AcDbLine
 10
244.4614195947
 20
108.8375049402
 30
0.0
 11
244.4614195947
 21
114.8375049402
 31
0.0
  0
LINE
  5
1C2
330
1B9
100
AcDbEntity
  8
VERMASSUNG
100
AcDbLine
 10
244.4614195947
 20
114.8375049402
 30
0.0
 11
244.4614195947
 21
124.6571001735
 31
0.0
  0
MTEXT
  5
1C3
330
1B9
100
AcDbEntity
  8
VERMASSUNG
100
AcDbMText
 10
241.8832841152
 20
117.8471000072
 30
0.1
 40
2.0
 41
0.0
 71
     1
 72
     1
  1
%%c
  7
SLDTEXTSTYLE0
 11
-1.608122649676637E-16
 21
1.0
 31
0.0
 73
     1
 44
1.0
  0
MTEXT
  5
1C4
330
1B9
100
AcDbEntity
  8
VERMASSUNG
100
AcDbMText
 10
241.6832841057
 20
121.4571000215
 30
0.1
 40
2.0
 41
0.0
 71
     1
 72
     1
  1
6
  7
SLDTEXTSTYLE0
 11
-1.608122649676637E-16
 21
1.0
 31
0.0
 73
     1
 44
1.0
  0
ENDBLK
  5
1BB
330
1B9
100
AcDbEntity
  8
0
100
AcDbBlockEnd
  0
BLOCK
  5
1C7
330
1C6
100
AcDbEntity
  8
0
100
AcDbBlockBegin
  2
_D_4
 70
     0
 10
0.0
 20
0.0
 30
0.0
  3
_D_4
  1

  0
SOLID
  5
1C9
330
1C6
100
AcDbEntity
  8
VERMASSUNG
100
AcDbTrace
 10
252.8575666248
 20
128.8375049402
 30
0.0
 11
252.4075666248
 21
125.8375049402
 31
0.0
 12
253.3075666248
 22
125.8375049402
 32
0.0
 13
253.3075666248
 23
125.8375049402
 33
0.0
  0
SOLID
  5
1CA
330
1C6
100
AcDbEntity
  8
VERMASSUNG
100
AcDbTrace
 10
252.8575666248
 20
94.8375049402
 30
0.0
 11
253.3075666248
 21
97.8375049402
 31
0.0
 12
252.4075666248
 22
97.8375049402
 32
0.0
 13
252.4075666248
 23
97.8375049402
 33
0.0
  0
LINE
  5
1CB
330
1C6
100
AcDbEntity
  8
VERMASSUNG
100
AcDbLine
 10
233.4614195947
 20
128.8375049402
 30
0.0
 11
253.8575666248
 21
128.8375049402
 31
0.0
  0
LINE
  5
1CC
330
1C6
100
AcDbEntity
  8
VERMASSUNG
100
AcDbLine
 10
233.4614195947
 20
94.8375049402
 30
0.0
 11
253.8575666248
 21
94.8375049402
 31
0.0
  0
LINE
  5
1CD
330
1C6
100
AcDbEntity
  8
VERMASSUNG
100
AcDbLine
 10
252.8575666248
 20
128.8375049402
 30
0.0
 11
252.8575666248
 21
94.8375049402
 31
0.0
  0
MTEXT
  5
1CE
330
1C6
100
AcDbEntity
  8
VERMASSUNG
100
AcDbMText
 10
250.2794311453
 20
109.2716993708
 30
0.1
 40
2.0
 41
0.0
 71
     1
 72
     1
  1
%%c
  7
SLDTEXTSTYLE0
 11
-7.044195017643634E-15
 21
1.0
 31
0.0
 73
     1
 44
1.0
  0
MTEXT
  5
1CF
330
1C6
100
AcDbEntity
  8
VERMASSUNG
100
AcDbMText
 10
250.0794311358
 20
112.8816993851
 30
0.1
 40
2.0
 41
0.0
 71
     1
 72
     1
  1
34
  7
SLDTEXTSTYLE0
 11
-7.044195017643634E-15
 21
1.0
 31
0.0
 73
     1
 44
1.0
  0
ENDBLK
  5
1C8
330
1C6
100
AcDbEntity
  8
0
100
AcDbBlockEnd
  0
BLOCK
  5
252
330
251
100
AcDbEntity
  8
0
100
AcDbBlockBegin
  2
SW_CENTERMARKSYMBOL_0
 70
     0
 10
0.0
 20
0.0
 30
0.0
  3
SW_CENTERMARKSYMBOL_0
  1

  0
LINE
  5
254
330
251
100
AcDbEntity
  8
VERMASSUNG
 62
     0
100
AcDbLine
 10
0.0
 20
0.0
 30
0.0
 11
0.0
 21
2.5
 31
0.0
  0
LINE
  5
255
330
251
100
AcDbEntity
  8
VERMASSUNG
 62
     0
100
AcDbLine
 10
0.0
 20
0.0
 30
0.0
 11
-2.5
 21
0.0
 31
0.0
  0
LINE
  5
256
330
251
100
AcDbEntity
  8
VERMASSUNG
 62
     0
100
AcDbLine
 10
0.0
 20
0.0
 30
0.0
 11
0.0
 21
-2.5
 31
0.0
  0
LINE
  5
257
330
251
100
AcDbEntity
  8
VERMASSUNG
 62
     0
100
AcDbLine
 10
0.0
 20
0.0
 30
0.0
 11
2.5
 21
0.0
 31
0.0
  0
LINE
  5
258
330
251
100
AcDbEntity
  8
VERMASSUNG
 62
     0
100
AcDbLine
 10
0.0
 20
5.0
 30
0.0
 11
0.0
 21
22.5
 31
0.0
  0
LINE
  5
259
330
251
100
AcDbEntity
  8
VERMASSUNG
 62
     0
100
AcDbLine
 10
-5.0
 20
0.0
 30
0.0
 11
-22.5
 21
0.0
 31
0.0
  0
LINE
  5
25A
330
251
100
AcDbEntity
  8
VERMASSUNG
 62
     0
100
AcDbLine
 10
0.0
 20
-5.0
 30
0.0
 11
0.0
 21
-22.5
 31
0.0
  0
LINE
  5
25B
330
251
100
AcDbEntity
  8
VERMASSUNG
 62
     0
100
AcDbLine
 10
5.0
 20
0.0
 30
0.0
 11
22.5
 21
0.0
 31
0.0
  0
ENDBLK
  5
253
330
251
100
AcDbEntity
  8
0
100
AcDbBlockEnd
  0
ENDSEC
  0
SECTION
  2
ENTITIES
  0
MTEXT
  5
49
330
1F
100
AcDbEntity
  8
KOPF_DÜNN
100
AcDbMText
 10
13.8892156294
 20
23.8442973028
 30
0.0
 40
3.0
 41
0.0
 71
     1
 72
     1
  1
PS4.B06.K01.065
  7
SLDTEXTSTYLE0
 73
     1
 44
1.0
  0
MTEXT
  5
4A
330
1F
100
AcDbEntity
  8
VERMASSUNG
100
AcDbMText
 10
13.9329988022
 20
28.8834360957
 30
0.0
 40
3.0
 41
0.0
 71
     1
 72
     1
  1
Bohrstangenhalter_Boring bar holder
  7
SLDTEXTSTYLE0
 73
     1
 44
1.0
  0
MTEXT
  5
4B
330
1F
100
AcDbEntity
  8
VERMASSUNG
100
AcDbMText
 10
98.8601118557
 20
13.8365368179
 30
0.0
 40
2.0
 41
0.0
 71
     1
 72
     1
  1
Datum: 19.06.2012
  7
SLDTEXTSTYLE0
 73
     1
 44
1.0
  0
MTEXT
  5
4D
330
1F
100
AcDbEntity
  8
VERMASSUNG
100
AcDbMText
 10
13.933048693
 20
18.0482802738
 30
0.0
 40
2.0
 41
0.0
 71
     1
 72
     1
  1
PSC ø40 / ø 6
  7
SLDTEXTSTYLE1
 73
     1
 44
1.0
  0
MTEXT
  5
4E
330
1F
100
AcDbEntity
  8
VERMASSUNG
100
AcDbMText
 10
13.9808475933
 20
13.9090973692
 30
0.0
 40
2.0
 41
0.0
 71
     1
 72
     1
  1
Gewicht: 539g
  7
SLDTEXTSTYLE0
 73
     1
 44
1.0
  0
LINE
  5
4F
330
1F
100
AcDbEntity
  8
0
  6
Continuous
 62
     7
370
    15
100
AcDbLine
 10
223.7974682574
 20
94.9636274447
 30
0.0
 11
224.0159192805
 21
94.8375040163
 31
0.0
  0
LINE
  5
50
330
1F
100
AcDbEntity
  8
0
  6
Continuous
 62
     7
370
    15
100
AcDbLine
 10
228.9069199686
 20
94.8375040163
 30
0.0
 11
229.124823374
 21
94.9633126576
 31
0.0
  0
LINE
  5
51
330
1F
100
AcDbEntity
  8
0
  6
Continuous
 62
     7
370
    15
100
AcDbLine
 10
229.1247116153
 20
128.7117624153
 30
0.0
 11
228.9069199686
 21
128.8375058641
 31
0.0
  0
LINE
  5
52
330
1F
100
AcDbEntity
  8
0
  6
Continuous
 62
     7
370
    15
100
AcDbLine
 10
224.0159192805
 20
128.8375058641
 30
0.0
 11
223.7975688402
 21
128.7114383151
 31
0.0
  0
LINE
  5
53
330
1F
100
AcDbEntity
  8
0
  6
Continuous
 62
     7
370
    15
100
AcDbLine
 10
219.1247137015
 20
128.7117624153
 30
0.0
 11
218.9069183294
 21
128.8375058641
 31
0.0
  0
LINE
  5
54
330
1F
100
AcDbEntity
  8
0
  6
Continuous
 62
     7
370
    15
100
AcDbLine
 10
214.0159213667
 20
128.8375058641
 30
0.0
 11
213.7975672011
 21
128.7114383151
 31
0.0
  0
LINE
  5
55
330
1F
100
AcDbEntity
  8
0
  6
Continuous
 62
     7
370
    15
100
AcDbLine
 10
209.1254757468
 20
128.7113209684
 30
0.0
 11
208.9069204156
 21
128.8375058641
 31
0.0
  0
LINE
  5
56
330
1F
100
AcDbEntity
  8
0
  6
Continuous
 62
     7
370
    15
100
AcDbLine
 10
204.0159197275
 20
128.8375058641
 30
0.0
 11
203.7972116594
 21
128.7112334241
 31
0.0
  0
LINE
  5
57
330
1F
100
AcDbEntity
  8
0
  6
Continuous
 62
     7
370
    15
100
AcDbLine
 10
213.7978167956
 20
94.963426279
 30
0.0
 11
214.0159213667
 21
94.8375040163
 31
0.0
  0
LINE
  5
58
330
1F
100
AcDbEntity
  8
0
  6
Continuous
 62
     7
370
    15
100
AcDbLine
 10
218.9069183294
 20
94.8375040163
 30
0.0
 11
219.1258387391
 21
94.9638975282
 31
0.0
  0
LINE
  5
59
330
1F
100
AcDbEntity
  8
0
  6
Continuous
 62
     7
370
    15
100
AcDbLine
 10
203.7978188817
 20
94.963426279
 30
0.0
 11
204.0159197275
 21
94.8375040163
 31
0.0
  0
LINE
  5
5A
330
1F
100
AcDbEntity
  8
0
  6
Continuous
 62
     7
370
    15
100
AcDbLine
 10
208.9069204156
 20
94.8375040163
 30
0.0
 11
209.1258371
 21
94.9638975282
 31
0.0
  0
LINE
  5
5B
330
1F
100
AcDbEntity
  8
0
  6
Continuous
 62
     7
370
    15
100
AcDbLine
 10
183.4365173925
 20
91.8375053872
 30
0.0
 11
188.8614201669
 21
91.8375053872
 31
0.0
  0
LINE
  5
5C
330
1F
100
AcDbEntity
  8
0
  6
Continuous
 62
     7
370
    15
100
AcDbLine
 10
169.761419609
 20
91.8375053872
 30
0.0
 11
179.4614193712
 21
91.8375053872
 31
0.0
  0
LINE
  5
5D
330
1F
100
AcDbEntity
  8
0
  6
Continuous
 62
     7
370
    15
100
AcDbLine
 10
188.8614201669
 20
131.8375044932
 30
0.0
 11
169.761419609
 21
131.8375044932
 31
0.0
  0
ARC
  5
5E
330
1F
100
AcDbEntity
  8
0
  6
Continuous
 62
     7
370
    15
100
AcDbCircle
 10
188.8614195947
 20
92.4375049402
 30
0.0
 40
0.6000000000000227
100
AcDbArc
 50
270.0
 51
0.0
  0
ARC
  5
5F
330
1F
100
AcDbEntity
  8
0
  6
Continuous
 62
     7
370
    15
100
AcDbCircle
 10
188.8614195947
 20
131.2375049402
 30
0.0
 40
0.6000000000000227
100
AcDbArc
 50
0.0
 51
90.0
  0
ARC
  5
60
330
1F
100
AcDbEntity
  8
0
  6
Continuous
 62
     7
370
    15
100
AcDbCircle
 10
169.7614195947
 20
92.1375049402
 30
0.0
 40
0.3000000000000114
100
AcDbArc
 50
180.0
 51
270.0
  0
ARC
  5
61
330
1F
100
AcDbEntity
  8
0
  6
Continuous
 62
     7
370
    15
100
AcDbCircle
 10
169.7614195947
 20
131.5375049402
 30
0.0
 40
0.3000000000000398
100
AcDbArc
 50
90.0
 51
180.0
  0
ARC
  5
62
330
1F
100
AcDbEntity
  8
0
  6
Continuous
 62
     7
370
    15
100
AcDbCircle
 10
190.4614195947
 20
93.8375049402
 30
0.0
 40
1.0
100
AcDbArc
 50
90.0
 51
180.0
  0
ARC
  5
63
330
1F
100
AcDbEntity
  8
0
  6
Continuous
 62
     7
370
    15
100
AcDbCircle
 10
190.4614195947
 20
129.8375049402
 30
0.0
 40
1.0
100
AcDbArc
 50
180.0
 51
270.0
  0
ARC
  5
64
330
1F
100
AcDbEntity
  8
0
  6
Continuous
 62
     7
370
    15
100
AcDbCircle
 10
233.4614195947
 20
127.8375049402
 30
0.0
 40
1.000000000000014
100
AcDbArc
 50
0.0
 51
90.0
  0
ARC
  5
65
330
1F
100
AcDbEntity
  8
0
  6
Continuous
 62
     7
370
    15
100
AcDbCircle
 10
233.4614195947
 20
95.8375049402
 30
0.0
 40
1.0
100
AcDbArc
 50
270.0
 51
0.0
  0
LINE
  5
66
330
1F
100
AcDbEntity
  8
0
  6
Continuous
 62
     7
370
    15
100
AcDbLine
 10
202.9712142174
 20
128.8375058641
 30
0.0
 11
190.4614193116
 21
128.8375058641
 31
0.0
  0
LINE
  5
67
330
1F
100
AcDbEntity
  8
0
  6
Continuous
 62
     7
370
    15
100
AcDbLine
 10
212.9682766025
 20
128.8375058641
 30
0.0
 11
209.958763582
 21
128.8375058641
 31
0.0
  0
LINE
  5
68
330
1F
100
AcDbEntity
  8
0
  6
Continuous
 62
     7
370
    15
100
AcDbLine
 10
222.9682782416
 20
128.8375058641
 30
0.0
 11
219.9549728756
 21
128.8375058641
 31
0.0
  0
LINE
  5
69
330
1F
100
AcDbEntity
  8
0
  6
Continuous
 62
     7
370
    15
100
AcDbLine
 10
233.4614226346
 20
128.8375058641
 30
0.0
 11
229.9549745147
 21
128.8375058641
 31
0.0
  0
LINE
  5
6A
330
1F
100
AcDbEntity
  8
0
  6
Continuous
 62
     7
370
    15
100
AcDbLine
 10
229.9549745147
 20
94.8375040163
 30
0.0
 11
233.4614226346
 21
94.8375040163
 31
0.0
  0
LINE
  5
6B
330
1F
100
AcDbEntity
  8
0
  6
Continuous
 62
     7
370
    15
100
AcDbLine
 10
219.9587614958
 20
94.8375040163
 30
0.0
 11
222.9682782416
 21
94.8375040163
 31
0.0
  0
LINE
  5
6C
330
1F
100
AcDbEntity
  8
0
  6
Continuous
 62
     7
370
    15
100
AcDbLine
 10
209.958763582
 20
94.8375040163
 30
0.0
 11
212.9712121312
 21
94.8375040163
 31
0.0
  0
LINE
  5
6D
330
1F
100
AcDbEntity
  8
0
  6
Continuous
 62
     7
370
    15
100
AcDbLine
 10
190.4614193116
 20
94.8375040163
 30
0.0
 11
202.9712142174
 21
94.8375040163
 31
0.0
  0
LWPOLYLINE
  5
6E
330
1F
100
AcDbEntity
  8
0
  6
Continuous
 62
     7
370
    15
100
AcDbPolyline
 90
        3
 70
   128
 43
0.0
 10
169.2614195998
 20
97.747684965
 10
169.386874535
 20
97.6793826987
 10
169.4614195947
 20
97.6266446953
  0
ARC
  5
6F
330
1F
100
AcDbEntity
  8
0
  6
Continuous
 62
     7
370
    15
100
AcDbCircle
 10
168.8472060324
 20
126.8375049402
 30
0.0
 40
0.9999999999999989
100
AcDbArc
 50
225.0
 51
307.8947985336
  0
LINE
  5
70
330
1F
100
AcDbEntity
  8
0
  6
Continuous
 62
     7
370
    15
100
AcDbLine
 10
160.6541814034
 20
98.8959647213
 30
0.0
 11
167.7614195722
 21
98.7174059694
 31
0.0
  0
LINE
  5
71
330
1F
100
AcDbEntity
  8
0
  6
Continuous
 62
     7
370
    15
100
AcDbLine
 10
151.3675765817
 20
99.1292768587
 30
0.0
 11
155.3946247076
 21
99.0281026308
 31
0.0
  0
ARC
  5
72
330
1F
100
AcDbEntity
  8
0
  6
Continuous
 62
     7
370
    15
100
AcDbCircle
 10
167.9613565057
 20
98.7123830445
 30
0.0
 40
0.1999999999999917
100
AcDbArc
 50
88.5608333333
 51
178.5608333333
  0
LINE
  5
73
330
1F
100
AcDbEntity
  8
0
  6
Continuous
 62
     7
370
    15
100
AcDbLine
 10
167.9663795729
 20
98.912319677
 30
0.0
 11
169.0664426931
 21
98.8846826796
 31
0.0
  0
ARC
  5
74
330
1F
100
AcDbEntity
  8
0
  6
Continuous
 62
     7
370
    15
100
AcDbCircle
 10
169.0614195947
 20
98.6847456307
 30
0.0
 40
0.2000000000000171
100
AcDbArc
 50
0.0
 51
88.5608333333
  0
LINE
  5
75
330
1F
100
AcDbEntity
  8
0
  6
Continuous
 62
     7
370
    15
100
AcDbLine
 10
167.5210546453
 20
126.7515649517
 30
0.0
 11
146.9614187007
 21
126.2350357567
 31
0.0
  0
LINE
  5
76
330
1F
100
AcDbEntity
  8
0
  6
Continuous
 62
     7
370
    15
100
AcDbLine
 10
146.9614187007
 20
126.2350357567
 30
0.0
 11
145.4614193861
 21
125.3690100704
 31
0.0
  0
LINE
  5
77
330
1F
100
AcDbEntity
  8
0
  6
Continuous
 62
     7
370
    15
100
AcDbLine
 10
168.1400992892
 20
126.1303979401
 30
0.0
 11
167.522553609
 21
126.7479439695
 31
0.0
  0
LINE
  5
78
330
1F
100
AcDbEntity
  8
0
  6
Continuous
 62
     7
370
    15
100
AcDbLine
 10
228.9069199686
 20
94.8375040163
 30
0.0
 11
224.0159192805
 21
94.8375040163
 31
0.0
  0
LINE
  5
79
330
1F
100
AcDbEntity
  8
0
  6
Continuous
 62
     7
370
    15
100
AcDbLine
 10
226.4614196245
 20
128.8375058641
 30
0.0
 11
228.9069199686
 21
128.8375058641
 31
0.0
  0
LINE
  5
7A
330
1F
100
AcDbEntity
  8
0
  6
Continuous
 62
     7
370
    15
100
AcDbLine
 10
224.0159192805
 20
128.8375058641
 30
0.0
 11
226.4614196245
 21
128.8375058641
 31
0.0
  0
LINE
  5
7B
330
1F
100
AcDbEntity
  8
0
  6
Continuous
 62
     7
370
    15
100
AcDbLine
 10
216.4614179854
 20
128.8375058641
 30
0.0
 11
218.9069183294
 21
128.8375058641
 31
0.0
  0
LINE
  5
7C
330
1F
100
AcDbEntity
  8
0
  6
Continuous
 62
     7
370
    15
100
AcDbLine
 10
214.0159213667
 20
128.8375058641
 30
0.0
 11
216.4614179854
 21
128.8375058641
 31
0.0
  0
LINE
  5
7D
330
1F
100
AcDbEntity
  8
0
  6
Continuous
 62
     7
370
    15
100
AcDbLine
 10
206.4614200716
 20
128.8375058641
 30
0.0
 11
208.9069204156
 21
128.8375058641
 31
0.0
  0
LINE
  5
7E
330
1F
100
AcDbEntity
  8
0
  6
Continuous
 62
     7
370
    15
100
AcDbLine
 10
204.0159197275
 20
128.8375058641
 30
0.0
 11
206.4614200716
 21
128.8375058641
 31
0.0
  0
LINE
  5
7F
330
1F
100
AcDbEntity
  8
0
  6
Continuous
 62
     7
370
    15
100
AcDbLine
 10
218.9069183294
 20
94.8375040163
 30
0.0
 11
214.0159213667
 21
94.8375040163
 31
0.0
  0
LINE
  5
80
330
1F
100
AcDbEntity
  8
0
  6
Continuous
 62
     7
370
    15
100
AcDbLine
 10
208.9069204156
 20
94.8375040163
 30
0.0
 11
204.0159197275
 21
94.8375040163
 31
0.0
  0
ARC
  5
81
330
1F
100
AcDbEntity
  8
0
  6
Continuous
 62
     7
370
    15
100
AcDbCircle
 10
181.4613444683
 20
71.8901088732
 30
0.0
 40
20.04740202818732
100
AcDbArc
 50
84.3457526741
 51
95.7253396711
  0
SPLINE
  5
82
330
1F
100
AcDbEntity
  8
0
  6
Continuous
 62
     7
370
    15
100
AcDbSpline
210
0.0
220
0.0
230
1.0
 70
     8
 71
     3
 72
    12
 73
     8
 74
     0
 42
0.00000001
 43
0.00000001
 12
1.0
 22
0.0
 32
0.0
 13
1.0
 23
0.0
 33
0.0
 40
0.0
 40
0.0
 40
0.0
 40
0.0
 40
0.2499999999999973
 40
0.2499999999999973
 40
0.4999999999999947
 40
0.4999999999999947
 40
1.0
 40
1.0
 40
1.0
 40
1.0
 10
176.3933215967348
 20
92.70584855995217
 30
0.0
 10
176.3558097106902
 20
92.70584855995217
 30
0.0
 10
176.3205223629854
 20
92.7103521042147
 30
0.0
 10
176.261592514747
 20
92.723725303668
 30
0.0
 10
176.2380667882779
 20
92.73221020623913
 30
0.0
 10
176.1778080005099
 20
92.75995801007372
 30
0.0
 10
176.1522132382206
 20
92.78094787381409
 30
0.0
 10
176.1335139755995
 20
92.8027486570036
 30
0.0
  0
LINE
  5
83
330
1F
100
AcDbEntity
  8
0
  6
Continuous
 62
     7
370
    15
100
AcDbLine
 10
178.529517514
 20
92.7058482041
 30
0.0
 11
176.3933215041
 21
92.7058482041
 31
0.0
  0
SPLINE
  5
84
330
1F
100
AcDbEntity
  8
0
  6
Continuous
 62
     7
370
    15
100
AcDbSpline
210
0.0
220
0.0
230
1.0
 70
     8
 71
     3
 72
    12
 73
     8
 74
     0
 42
0.00000001
 43
0.00000001
 12
1.0
 22
0.0
 32
0.0
 13
1.0
 23
0.0
 33
0.0
 40
0.0
 40
0.0
 40
0.0
 40
0.0
 40
0.4999999999999938
 40
0.4999999999999938
 40
0.7499999999999969
 40
0.7499999999999969
 40
1.0
 40
1.0
 40
1.0
 40
1.0
 10
178.7893252138718
 20
92.8027486570036
 30
0.0
 10
178.7706319807414
 20
92.78095490337566
 30
0.0
 10
178.7449766833296
 20
92.75993474166603
 30
0.0
 10
178.6848160606431
 20
92.7322293957023
 30
0.0
 10
178.6607437488888
 20
92.72359417950892
 30
0.0
 10
178.6023622285382
 20
92.71037953428234
 30
0.0
 10
178.5668934008852
 20
92.70584855995216
 30
0.0
 10
178.5295175927365
 20
92.70584855995217
 30
0.0
  0
ELLIPSE
  5
85
330
1F
100
AcDbEntity
  8
0
  6
Continuous
 62
     7
370
    15
100
AcDbEllipse
 10
168.5124904223
 20
111.8375049402
 30
0.0
 11
-9.367417879781812
 21
19.74174915274993
 31
0.0
210
0.0
220
0.0
230
1.0
 40
0.3419987131
 41
3.292664382516893
 42
4.239566697060995
  0
SPLINE
  5
86
330
1F
100
AcDbEntity
  8
0
  6
Continuous
 62
     7
370
    15
100
AcDbSpline
210
0.0
220
0.0
230
1.0
 70
     8
 71
     3
 72
    12
 73
     8
 74
     0
 42
0.00000001
 43
0.00000001
 12
1.0
 22
0.0
 32
0.0
 13
1.0
 23
0.0
 33
0.0
 40
0.0
 40
0.0
 40
0.0
 40
0.0
 40
0.2499999999999997
 40
0.2499999999999997
 40
0.4999999999999994
 40
0.4999999999999994
 40
1.0
 40
1.0
 40
1.0
 40
1.0
 10
178.5295175927365
 20
106.0082919445337
 30
0.0
 10
178.5670294787811
 20
106.0082919445337
 30
0.0
 10
178.6023168264858
 20
105.993487130247
 30
0.0
 10
178.6612466747243
 20
105.9498952571211
 30
0.0
 10
178.6847724011934
 20
105.9223818310351
 30
0.0
 10
178.7450311889614
 20
105.8332500989215
 30
0.0
 10
178.7706259512507
 20
105.7668642483037
 30
0.0
 10
178.7893252138718
 20
105.6992598131263
 30
0.0
  0
LINE
  5
87
330
1F
100
AcDbEntity
  8
0
  6
Continuous
 62
     7
370
    15
100
AcDbLine
 10
176.3933215041
 20
106.0082917531
 30
0.0
 11
178.529517514
 21
106.0082917531
 31
0.0
  0
SPLINE
  5
88
330
1F
100
AcDbEntity
  8
0
  6
Continuous
 62
     7
370
    15
100
AcDbSpline
210
0.0
220
0.0
230
1.0
 70
     8
 71
     3
 72
    12
 73
     8
 74
     0
 42
0.00000001
 43
0.00000001
 12
1.0
 22
0.0
 32
0.0
 13
1.0
 23
0.0
 33
0.0
 40
0.0
 40
0.0
 40
0.0
 40
0.0
 40
0.5000000000000013
 40
0.5000000000000013
 40
0.7500000000000007
 40
0.7500000000000007
 40
1.0
 40
1.0
 40
1.0
 40
1.0
 10
176.1335139755995
 20
105.6992598131263
 30
0.0
 10
176.1522072087299
 20
105.7668424495667
 30
0.0
 10
176.1778625061417
 20
105.8333250190442
 30
0.0
 10
176.2380231288282
 20
105.9223201019417
 30
0.0
 10
176.2620954405825
 20
105.9503219989408
 30
0.0
 10
176.3204769609331
 20
105.993398399606
 30
0.0
 10
176.3559457885861
 20
106.0082919445337
 30
0.0
 10
176.3933215967348
 20
106.0082919445337
 30
0.0
  0
ELLIPSE
  5
89
330
1F
100
AcDbEntity
  8
0
  6
Continuous
 62
     7
370
    15
100
AcDbEllipse
 10
186.4103487672
 20
111.8375049402
 30
0.0
 11
9.367417879781669
 21
19.74174915274993
 31
0.0
210
0.0
220
0.0
230
1.0
 40
0.3419987131
 41
2.0436186101186
 42
2.990520924662732
  0
SPLINE
  5
8A
330
1F
100
AcDbEntity
  8
0
  6
Continuous
 62
     7
370
    15
100
AcDbSpline
210
0.0
220
0.0
230
1.0
 70
     8
 71
     3
 72
    12
 73
     8
 74
     0
 42
0.00000001
 43
0.00000001
 12
1.0
 22
0.0
 32
0.0
 13
1.0
 23
0.0
 33
0.0
 40
0.0
 40
0.0
 40
0.0
 40
0.0
 40
0.2500000000000027
 40
0.2500000000000027
 40
0.5000000000000053
 40
0.5000000000000053
 40
1.0
 40
1.0
 40
1.0
 40
1.0
 10
176.3933215967348
 20
117.6667179358373
 30
0.0
 10
176.3558207738571
 20
117.6667179358373
 30
0.0
 10
176.3205423698211
 20
117.6815142735904
 30
0.0
 10
176.2616246497687
 20
117.7250845347495
 30
0.0
 10
176.2381012683703
 20
117.752586333251
 30
0.0
 10
176.1778456839044
 20
117.8416854964941
 30
0.0
 10
176.1523240314933
 20
117.9077450752765
 30
0.0
 10
176.1335139755995
 20
117.9757500672447
 30
0.0
  0
LINE
  5
8B
330
1F
100
AcDbEntity
  8
0
  6
Continuous
 62
     7
370
    15
100
AcDbLine
 10
178.529517514
 20
117.6667181273
 30
0.0
 11
176.3933215041
 21
117.6667181273
 31
0.0
  0
SPLINE
  5
8C
330
1F
100
AcDbEntity
  8
0
  6
Continuous
 62
     7
370
    15
100
AcDbSpline
210
0.0
220
0.0
230
1.0
 70
     8
 71
     3
 72
    12
 73
     8
 74
     0
 42
0.00000001
 43
0.00000001
 12
1.0
 22
0.0
 32
0.0
 13
1.0
 23
0.0
 33
0.0
 40
0.0
 40
0.0
 40
0.0
 40
0.0
 40
0.4999999999999969
 40
0.4999999999999969
 40
0.7499999999999984
 40
0.7499999999999984
 40
1.0
 40
1.0
 40
1.0
 40
1.0
 10
178.7893252138718
 20
117.9757500672447
 30
0.0
 10
178.7705219810201
 20
117.9077697429823
 30
0.0
 10
178.7449853220009
 20
117.8416793551855
 30
0.0
 10
178.6847591480524
 20
117.7526147427383
 30
0.0
 10
178.6608330706525
 20
117.7248136557184
 30
0.0
 10
178.6027721504712
 20
117.6818545824935
 30
0.0
 10
178.5669704518452
 20
117.6667179358373
 30
0.0
 10
178.5295175927365
 20
117.6667179358373
 30
0.0
  0
ELLIPSE
  5
8D
330
1F
100
AcDbEntity
  8
0
  6
Continuous
 62
     7
370
    15
100
AcDbEllipse
 10
168.5124904223
 20
111.8375049402
 30
0.0
 11
9.367417879781783
 21
19.74174915274993
 31
0.0
210
0.0
220
0.0
230
1.0
 40
0.3419987131
 41
5.185211263708404
 42
6.132113578252561
  0
SPLINE
  5
8E
330
1F
100
AcDbEntity
  8
0
  6
Continuous
 62
     7
370
    15
100
AcDbSpline
210
0.0
220
0.0
230
1.0
 70
     8
 71
     3
 72
    12
 73
     8
 74
     0
 42
0.00000001
 43
0.00000001
 12
1.0
 22
0.0
 32
0.0
 13
1.0
 23
0.0
 33
0.0
 40
0.0
 40
0.0
 40
0.0
 40
0.0
 40
0.2499999999999984
 40
0.2499999999999984
 40
0.4999999999999969
 40
0.4999999999999969
 40
1.0
 40
1.0
 40
1.0
 40
1.0
 10
178.5295175927365
 20
130.969161320419
 30
0.0
 10
178.5670184156142
 20
130.969161320419
 30
0.0
 10
178.6022968196502
 20
130.9646603525558
 30
0.0
 10
178.6612145397026
 20
130.9512938313385
 30
0.0
 10
178.6847379211009
 20
130.9428125710937
 30
0.0
 10
178.7449935055669
 20
130.9150751754157
 30
0.0
 10
178.770515157978
 20
130.8941911763627
 30
0.0
 10
178.7893252138718
 20
130.8722612233675
 30
0.0
  0
LINE
  5
8F
330
1F
100
AcDbEntity
  8
0
  6
Continuous
 62
     7
370
    15
100
AcDbLine
 10
176.3933215041
 20
130.9691616763
 30
0.0
 11
178.529517514
 21
130.9691616763
 31
0.0
  0
SPLINE
  5
90
330
1F
100
AcDbEntity
  8
0
  6
Continuous
 62
     7
370
    15
100
AcDbSpline
210
0.0
220
0.0
230
1.0
 70
     8
 71
     3
 72
    12
 73
     8
 74
     0
 42
0.00000001
 43
0.00000001
 12
1.0
 22
0.0
 32
0.0
 13
1.0
 23
0.0
 33
0.0
 40
0.0
 40
0.0
 40
0.0
 40
0.0
 40
0.5000000000000022
 40
0.5000000000000022
 40
0.7500000000000011
 40
0.7500000000000011
 40
1.0
 40
1.0
 40
1.0
 40
1.0
 10
176.1335139755995
 20
130.8722612233675
 30
0.0
 10
176.1523172084512
 20
130.8941832216286
 30
0.0
 10
176.1778538674704
 20
130.9150770296385
 30
0.0
 10
176.2380800414188
 20
130.9428037557563
 30
0.0
 10
176.2620061188188
 20
130.9513768891318
 30
0.0
 10
176.3200670390001
 20
130.9645559949393
 30
0.0
 10
176.3558687376261
 20
130.969161320419
 30
0.0
 10
176.3933215967348
 20
130.969161320419
 30
0.0
  0
ELLIPSE
  5
91
330
1F
100
AcDbEntity
  8
0
  6
Continuous
 62
     7
370
    15
100
AcDbEllipse
 10
186.4103487672
 20
111.8375049402
 30
0.0
 11
-9.367417879781669
 21
19.74174915274993
 31
0.0
210
0.0
220
0.0
230
1.0
 40
0.3419987131
 41
0.1510717289270614
 42
1.097974043471198
  0
LINE
  5
92
330
1F
100
AcDbEntity
  8
0
  6
Continuous
 62
     7
370
    15
100
AcDbLine
 10
189.4614191477
 20
111.8375049402
 30
0.0
 11
189.4614191477
 21
92.437504368
 31
0.0
  0
LINE
  5
93
330
1F
100
AcDbEntity
  8
0
  6
Continuous
 62
     7
370
    15
100
AcDbLine
 10
189.4614191477
 20
131.2375055124
 30
0.0
 11
189.4614191477
 21
111.8375049402
 31
0.0
  0
LINE
  5
94
330
1F
100
AcDbEntity
  8
0
  6
Continuous
 62
     7
370
    15
100
AcDbLine
 10
169.4614195947
 20
111.8375049402
 30
0.0
 11
169.4614195947
 21
131.5375050028
 31
0.0
  0
LINE
  5
95
330
1F
100
AcDbEntity
  8
0
  6
Continuous
 62
     7
370
    15
100
AcDbLine
 10
169.4614195947
 20
92.1375048776
 30
0.0
 11
169.4614195947
 21
111.8375049402
 31
0.0
  0
LINE
  5
96
330
1F
100
AcDbEntity
  8
0
  6
Continuous
 62
     7
370
    15
100
AcDbLine
 10
234.4614172105
 20
127.8375057001
 30
0.0
 11
234.4614172105
 21
95.8375041802
 31
0.0
  0
SPLINE
  5
97
330
1F
100
AcDbEntity
  8
0
  6
Continuous
 62
     7
370
    15
100
AcDbSpline
210
0.0
220
0.0
230
1.0
 70
     8
 71
     3
 72
    15
 73
    11
 74
     0
 42
0.00000001
 43
0.00000001
 12
1.0
 22
0.0
 32
0.0
 13
1.0
 23
0.0
 33
0.0
 40
0.0
 40
0.0
 40
0.0
 40
0.0
 40
0.0903232053889379
 40
0.2733129512850649
 40
0.3661860882045591
 40
0.4675172186462041
 40
0.6742282438913849
 40
0.7800029078756872
 40
0.8724394798403119
 40
1.0
 40
1.0
 40
1.0
 40
1.0
 10
204.099723858089
 20
95.00155835047725
 30
0.0
 10
204.0386020042815
 20
94.99423309756698
 30
0.0
 10
203.8536507043336
 20
94.97206729329557
 30
0.0
 10
203.6348636819508
 20
94.94232706248398
 30
0.0
 10
203.4393218372888
 20
94.91397837265008
 30
0.0
 10
203.2568813322935
 20
94.88624897651019
 30
0.0
 10
203.1117755181053
 20
94.8627653581042
 30
0.0
 10
203.0215622080057
 20
94.84771333346988
 30
0.0
 10
202.9702142511927
 20
94.83901238365289
 30
0.0
 10
202.9708472100146
 20
94.83911401667437
 30
0.0
 10
202.9712142173953
 20
94.8391729463673
 30
0.0
  0
SPLINE
  5
98
330
1F
100
AcDbEntity
  8
0
  6
Continuous
 62
     7
370
    15
100
AcDbSpline
210
0.0
220
0.0
230
1.0
 70
     8
 71
     3
 72
    30
 73
    26
 74
     0
 42
0.00000001
 43
0.00000001
 12
1.0
 22
0.0
 32
0.0
 13
1.0
 23
0.0
 33
0.0
 40
0.0
 40
0.0
 40
0.0
 40
0.0
 40
0.0105018324829136
 40
0.041138874138873
 40
0.103461481407852
 40
0.1352121508173848
 40
0.1659717465305423
 40
0.22842315730655
 40
0.2601607100238412
 40
0.2931316294148086
 40
0.3600322525817975
 40
0.3940087532422116
 40
0.4300309966374669
 40
0.5031611571200355
 40
0.540332364175412
 40
0.5787730696330162
 40
0.6568944110294991
 40
0.6966598139711522
 40
0.7361241085359064
 40
0.775861500616515
 40
0.8164678685161867
 40
0.8573782854445682
 40
0.8925102279656126
 40
0.9637798165777096
 40
1.0
 40
1.0
 40
1.0
 40
1.0
 10
209.9587635819621
 20
94.83795850173
 30
0.0
 10
209.959528590646
 20
94.83782762834146
 30
0.0
 10
209.9625253624963
 20
94.83731495744637
 30
0.0
 10
209.9389986965381
 20
94.84132966808998
 30
0.0
 10
209.8781322219756
 20
94.85164918207967
 30
0.0
 10
209.7755279124884
 20
94.86850429623806
 30
0.0
 10
209.6486749328429
 20
94.88882639222423
 30
0.0
 10
209.486380411917
 20
94.91374356797807
 30
0.0
 10
209.2899405819645
 20
94.94187534817728
 30
0.0
 10
209.0658823317865
 20
94.97229157707602
 30
0.0
 10
208.8077397446021
 20
95.00417249806573
 30
0.0
 10
208.5190540073902
 20
95.03533957826355
 30
0.0
 10
208.2011011255878
 20
95.06616099599752
 30
0.0
 10
207.8531220988869
 20
95.09362986655866
 30
0.0
 10
207.4840579103324
 20
95.11519492462126
 30
0.0
 10
207.0938088402652
 20
95.13246355503573
 30
0.0
 10
206.6863771655804
 20
95.14135928276336
 30
0.0
 10
206.2753939821786
 20
95.14070672780994
 30
0.0
 10
205.9658447419419
 20
95.13539421343353
 30
0.0
 10
205.6575627822355
 20
95.12533301596673
 30
0.0
 10
205.3513188655268
 20
95.11062044260399
 30
0.0
 10
205.0644059414917
 20
95.09247003919674
 30
0.0
 10
204.7144243307505
 20
95.06553256353055
 30
0.0
 10
204.3922116349806
 20
95.03490435864026
 30
0.0
 10
204.1734415131681
 20
95.00996276844695
 30
0.0
 10
204.099723858089
 20
95.00155835047725
 30
0.0
  0
SPLINE
  5
99
330
1F
100
AcDbEntity
  8
0
  6
Continuous
 62
     7
370
    15
100
AcDbSpline
210
0.0
220
0.0
230
1.0
 70
     8
 71
     3
 72
    37
 73
    33
 74
     0
 42
0.00000001
 43
0.00000001
 12
1.0
 22
0.0
 32
0.0
 13
1.0
 23
0.0
 33
0.0
 40
0.0
 40
0.0
 40
0.0
 40
0.0
 40
0.0156159541363585
 40
0.0403227372050814
 40
0.0629051801672972
 40
0.1088058460579585
 40
0.1321652808930196
 40
0.1554563372843538
 40
0.2027272235111598
 40
0.2267398790839464
 40
0.2520114270041315
 40
0.303292867982775
 40
0.3293408529304196
 40
0.3568332232529648
 40
0.412666391159882
 40
0.4410594291181006
 40
0.4700055755693118
 40
0.5288510638568995
 40
0.5588181840648665
 40
0.5881951287962179
 40
0.6177785806658922
 40
0.6480224598236624
 40
0.6784993416238535
 40
0.7074177014309069
 40
0.7663375128159704
 40
0.7964412942878957
 40
0.8236378603677978
 40
0.8791343005772903
 40
0.9075463143877902
 40
0.9321074869554049
 40
0.9821953820118539
 40
1.0
 40
1.0
 40
1.0
 40
1.0
 10
202.9712142173953
 20
128.8358369340039
 30
0.0
 10
202.9681856315128
 20
128.8363526622745
 30
0.0
 10
202.9603653682373
 20
128.8376843500692
 30
0.0
 10
202.9892756747054
 20
128.8327552902988
 30
0.0
 10
203.0478263893792
 20
128.822882270061
 30
0.0
 10
203.1474031800026
 20
128.8063903302635
 30
0.0
 10
203.2825917151763
 20
128.7849547376018
 30
0.0
 10
203.4432461089853
 20
128.7603252866547
 30
0.0
 10
203.6385903748728
 20
128.7320411247915
 30
0.0
 10
203.8671357218216
 20
128.7017206069753
 30
0.0
 10
204.1245078950666
 20
128.6698031538654
 30
0.0
 10
204.4152507057618
 20
128.6379003120286
 30
0.0
 10
204.7342070793478
 20
128.6084288149956
 30
0.0
 10
205.0809994105048
 20
128.5806320021009
 30
0.0
 10
205.4545261182278
 20
128.5580705007729
 30
0.0
 10
205.843853705044
 20
128.5430797705652
 30
0.0
 10
206.2490077198904
 20
128.5335156257239
 30
0.0
 10
206.664801968373
 20
128.5333856354167
 30
0.0
 10
207.0770542265192
 20
128.542963380081
 30
0.0
 10
207.3830217591193
 20
128.5548066882127
 30
0.0
 10
207.6834519176464
 20
128.5709633968389
 30
0.0
 10
207.9787187087589
 20
128.5912301430777
 30
0.0
 10
208.26058858671
 20
128.6146544311478
 30
0.0
 10
208.6148972420778
 20
128.648852939675
 30
0.0
 10
208.9386180925327
 20
128.6863795681996
 30
0.0
 10
209.2175541548631
 20
128.7230637567317
 30
0.0
 10
209.4607985612639
 20
128.7572988420062
 30
0.0
 10
209.6577582229827
 20
128.787530895732
 30
0.0
 10
209.7999884596794
 20
128.8104817666575
 30
0.0
 10
209.9023848067762
 20
128.8274258771108
 30
0.0
 10
209.9576805565389
 20
128.8368680356798
 30
0.0
 10
209.9585385702996
 20
128.8370132869181
 30
0.0
 10
209.9587635819621
 20
128.8370513786412
 30
0.0
  0
SPLINE
  5
9A
330
1F
100
AcDbEntity
  8
0
  6
Continuous
 62
     7
370
    15
100
AcDbSpline
210
0.0
220
0.0
230
1.0
 70
     8
 71
     3
 72
    13
 73
     9
 74
     0
 42
0.00000001
 43
0.00000001
 12
1.0
 22
0.0
 32
0.0
 13
1.0
 23
0.0
 33
0.0
 40
0.0
 40
0.0
 40
0.0
 40
0.0
 40
0.1810484101881002
 40
0.366155563292781
 40
0.569474185072571
 40
0.7798596107066674
 40
0.9653121421523712
 40
1.0
 40
1.0
 40
1.0
 40
1.0
 10
224.0997234110542
 20
95.00155835047725
 30
0.0
 10
223.9791822642588
 20
94.98678983394825
 30
0.0
 10
223.7353976794678
 20
94.95692172031467
 30
0.0
 10
223.426498315176
 20
94.91243966333154
 30
0.0
 10
223.1705385271126
 20
94.8725762973803
 30
0.0
 10
223.0166547524647
 20
94.84694293088647
 30
0.0
 10
222.9523519949622
 20
94.83596233966776
 30
0.0
 10
222.9661103211106
 20
94.83830306340303
 30
0.0
 10
222.9682782416053
 20
94.83867189482216
 30
0.0
  0
SPLINE
  5
9B
330
1F
100
AcDbEntity
  8
0
  6
Continuous
 62
     7
370
    15
100
AcDbSpline
210
0.0
220
0.0
230
1.0
 70
     8
 71
     3
 72
    22
 73
    18
 74
     0
 42
0.00000001
 43
0.00000001
 12
1.0
 22
0.0
 32
0.0
 13
1.0
 23
0.0
 33
0.0
 40
0.0
 40
0.0
 40
0.0
 40
0.0
 40
0.0105257886512165
 40
0.0719903338220811
 40
0.1352381535790921
 40
0.1969323119391335
 40
0.2601956116255807
 40
0.3263188672790487
 40
0.3940550302630688
 40
0.4663018859295062
 40
0.5403882921794552
 40
0.6174960618622882
 40
0.6967209595365496
 40
0.7758903750832435
 40
0.8573682768749682
 40
0.9278170946177863
 40
1.0
 40
1.0
 40
1.0
 40
1.0
 10
229.9549745146938
 20
94.83860111430648
 30
0.0
 10
229.9570536760775
 20
94.83824753901884
 30
0.0
 10
229.9712739427999
 20
94.8358292876334
 30
0.0
 10
229.9140651962199
 20
94.8456039706464
 30
0.0
 10
229.7867969116267
 20
94.86683163781541
 30
0.0
 10
229.5751874368555
 20
94.9004599890595
 30
0.0
 10
229.2950672514765
 20
94.94174495927885
 30
0.0
 10
228.9432034537694
 20
94.98834524389822
 30
0.0
 10
228.5196493119016
 20
95.03654551996985
 30
0.0
 10
228.0313347744344
 20
95.08125220727622
 30
0.0
 10
227.4829210593879
 20
95.11729744464556
 30
0.0
 10
226.8908787492079
 20
95.13926141450276
 30
0.0
 10
226.2741432479492
 20
95.14313533971817
 30
0.0
 10
225.6508481418415
 20
95.12747284144686
 30
0.0
 10
225.0733696667541
 20
95.09489930413201
 30
0.0
 10
224.5452944424863
 20
95.05113568707841
 30
0.0
 10
224.2494460431971
 20
95.01821753342885
 30
0.0
 10
224.0997234110542
 20
95.00155835047725
 30
0.0
  0
SPLINE
  5
9C
330
1F
100
AcDbEntity
  8
0
  6
Continuous
 62
     7
370
    15
100
AcDbSpline
210
0.0
220
0.0
230
1.0
 70
     8
 71
     3
 72
    26
 73
    22
 74
     0
 42
0.00000001
 43
0.00000001
 12
1.0
 22
0.0
 32
0.0
 13
1.0
 23
0.0
 33
0.0
 40
0.0
 40
0.0
 40
0.0
 40
0.0
 40
0.0402766401889461
 40
0.0855823779945147
 40
0.1321340528084861
 40
0.1788516237921629
 40
0.2267276432098406
 40
0.2774158575145155
 40
0.3293490175159961
 40
0.3844976502654133
 40
0.441087132636957
 40
0.4991591860056783
 40
0.5588627472848994
 40
0.6178054246644055
 40
0.6785027261381538
 40
0.7365349204066942
 40
0.7964522931810031
 40
0.8510401219104226
 40
0.9075595507004125
 40
0.9568556411533605
 40
1.0
 40
1.0
 40
1.0
 40
1.0
 10
222.9682782416053
 20
128.836337985549
 30
0.0
 10
222.9714757685638
 20
128.835786377446
 30
0.0
 10
222.9782700781071
 20
128.8346142853114
 30
0.0
 10
223.0902466491737
 20
128.8157226854345
 30
0.0
 10
223.2738874506888
 20
128.7860354073261
 30
0.0
 10
223.5335255500678
 20
128.7467442752115
 30
0.0
 10
223.8638161539222
 20
128.7013536889662
 30
0.0
 10
224.2641160895031
 20
128.6533263081303
 30
0.0
 10
224.7345617886426
 20
128.6068555839363
 30
0.0
 10
225.2645721132762
 20
128.5675788139413
 30
0.0
 10
225.8450420262988
 20
128.5407891870383
 30
0.0
 10
226.4575490697146
 20
128.5309798366766
 30
0.0
 10
227.0786542421942
 20
128.5405994202258
 30
0.0
 10
227.6914732682074
 20
128.5692220797391
 30
0.0
 10
228.2637861494233
 20
128.6130895936286
 30
0.0
 10
228.7861233175478
 20
128.6672597897724
 30
0.0
 10
229.222381477924
 20
128.7228084788257
 30
0.0
 10
229.5720199729829
 20
128.7738618446153
 30
0.0
 10
229.8063578292743
 20
128.8113305813031
 30
0.0
 10
229.9415038968097
 20
128.8340852070609
 30
0.0
 10
229.9506880376185
 20
128.8356693877757
 30
0.0
 10
229.9549745146938
 20
128.8364087660647
 30
0.0
  0
SPLINE
  5
9D
330
1F
100
AcDbEntity
  8
0
  6
Continuous
 62
     7
370
    15
100
AcDbSpline
210
0.0
220
0.0
230
1.0
 70
     8
 71
     3
 72
    15
 73
    11
 74
     0
 42
0.00000001
 43
0.00000001
 12
1.0
 22
0.0
 32
0.0
 13
1.0
 23
0.0
 33
0.0
 40
0.0
 40
0.0
 40
0.0
 40
0.0
 40
0.0903222228980115
 40
0.2733129556948433
 40
0.3661861305662634
 40
0.4675173024161313
 40
0.6742284121322557
 40
0.780002775018573
 40
0.8724393847567246
 40
1.0
 40
1.0
 40
1.0
 40
1.0
 10
214.0997217719264
 20
95.00155835047725
 30
0.0
 10
214.0386013673129
 20
94.9942330730896
 30
0.0
 10
213.853652437778
 20
94.97206695328136
 30
0.0
 10
213.634861567346
 20
94.94232719669151
 30
0.0
 10
213.4393197949703
 20
94.91397835974563
 30
0.0
 10
213.2568795839721
 20
94.88624898068944
 30
0.0
 10
213.1117709591793
 20
94.86276540331963
 30
0.0
 10
213.0215645976822
 20
94.84771331222628
 30
0.0
 10
212.9702162375351
 20
94.83901238676665
 30
0.0
 10
212.9708466185091
 20
94.83911401781191
 30
0.0
 10
212.9712121312328
 20
94.8391729463673
 30
0.0
  0
SPLINE
  5
9E
330
1F
100
AcDbEntity
  8
0
  6
Continuous
 62
     7
370
    15
100
AcDbSpline
210
0.0
220
0.0
230
1.0
 70
     8
 71
     3
 72
    30
 73
    26
 74
     0
 42
0.00000001
 43
0.00000001
 12
1.0
 22
0.0
 32
0.0
 13
1.0
 23
0.0
 33
0.0
 40
0.0
 40
0.0
 40
0.0
 40
0.0
 40
0.0105018395146469
 40
0.0411388764947927
 40
0.1034615660649045
 40
0.1352122306286623
 40
0.165971821647302
 40
0.2284229877085795
 40
0.2601605355820976
 40
0.2931317600106718
 40
0.360032023266863
 40
0.3940085187417965
 40
0.4300311612979619
 40
0.5031613106194334
 40
0.5403325120017545
 40
0.5787727491572717
 40
0.6568945513014616
 40
0.6966594723620008
 40
0.7361237609037296
 40
0.7758611469196325
 40
0.8164679685861609
 40
0.8573779315307672
 40
0.8925098686899879
 40
0.9637794464249475
 40
1.0
 40
1.0
 40
1.0
 40
1.0
 10
219.9587614957996
 20
94.83795850173
 30
0.0
 10
219.959527909922
 20
94.83782762822953
 30
0.0
 10
219.9625301854645
 20
94.83731495720988
 30
0.0
 10
219.9389984312685
 20
94.84132967705872
 30
0.0
 10
219.8781298772715
 20
94.8516491637615
 30
0.0
 10
219.7755259630174
 20
94.86850430080995
 30
0.0
 10
219.6486726051762
 20
94.88882633298215
 30
0.0
 10
219.4863818478927
 20
94.91374360329291
 30
0.0
 10
219.2899423394983
 20
94.94187548678165
 30
0.0
 10
219.0658794948267
 20
94.97229121772635
 30
0.0
 10
218.8077410894722
 20
95.00417260824503
 30
0.0
 10
218.5190549740194
 20
95.03533973428877
 30
0.0
 10
218.2010992223789
 20
95.06616071356814
 30
0.0
 10
217.8531201717561
 20
95.09362992507054
 30
0.0
 10
217.4840568891949
 20
95.1151948061774
 30
0.0
 10
217.0938082732222
 20
95.13246377936377
 30
0.0
 10
216.6863775058148
 20
95.14135923512926
 30
0.0
 10
216.2753944001135
 20
95.1407067134097
 30
0.0
 10
215.9658463422137
 20
95.13539423270865
 30
0.0
 10
215.6575633788105
 20
95.12533289186628
 30
0.0
 10
215.3513187843925
 20
95.11062070771759
 30
0.0
 10
215.0644066833763
 20
95.09246988013858
 30
0.0
 10
214.7144257628846
 20
95.06553262712022
 30
0.0
 10
214.3922132752857
 20
95.03490412060259
 30
0.0
 10
214.1734407454053
 20
95.00996275168299
 30
0.0
 10
214.0997217719264
 20
95.00155835047725
 30
0.0
  0
SPLINE
  5
9F
330
1F
100
AcDbEntity
  8
0
  6
Continuous
 62
     7
370
    15
100
AcDbSpline
210
0.0
220
0.0
230
1.0
 70
     8
 71
     3
 72
    26
 73
    22
 74
     0
 42
0.00000001
 43
0.00000001
 12
1.0
 22
0.0
 32
0.0
 13
1.0
 23
0.0
 33
0.0
 40
0.0
 40
0.0
 40
0.0
 40
0.0
 40
0.0402766369149869
 40
0.0855824507270831
 40
0.132133987671648
 40
0.178851554857803
 40
0.2267275703837923
 40
0.2774157805681844
 40
0.3293489363481847
 40
0.384497564614746
 40
0.4410870423863119
 40
0.4991590910345418
 40
0.5588626474606514
 40
0.617805320048896
 40
0.6785029395526188
 40
0.7365348359983862
 40
0.7964524570406539
 40
0.8510402813328035
 40
0.9075595582146008
 40
0.9568556446604273
 40
1.0
 40
1.0
 40
1.0
 40
1.0
 10
212.9682766024776
 20
128.836337985549
 30
0.0
 10
212.9714737223825
 20
128.8357863713532
 30
0.0
 10
212.9782671733179
 20
128.8346142651806
 30
0.0
 10
213.0902509700486
 20
128.8157227646063
 30
0.0
 10
213.2738844969036
 20
128.786035338638
 30
0.0
 10
213.5335243406597
 20
128.7467442838457
 30
0.0
 10
213.8638143909804
 20
128.7013536864693
 30
0.0
 10
214.2641144850914
 20
128.6533263088672
 30
0.0
 10
214.7345601399207
 20
128.6068555835887
 30
0.0
 10
215.2645704750639
 20
128.567578814584
 30
0.0
 10
215.8450403938564
 20
128.5407891847531
 30
0.0
 10
216.4575474017738
 20
128.5309798454924
 30
0.0
 10
217.0786527140509
 20
128.5405993865254
 30
0.0
 10
217.6914723193922
 20
128.5692222567031
 30
0.0
 10
218.2637871805951
 20
128.6130892196329
 30
0.0
 10
218.7861221082871
 20
128.6672601613237
 30
0.0
 10
219.2223833966989
 20
128.7228083039737
 30
0.0
 10
219.5720227030237
 20
128.7738617966258
 30
0.0
 10
219.8063554141749
 20
128.8113306325085
 30
0.0
 10
219.9415024409564
 20
128.8340852012779
 30
0.0
 10
219.9506864568104
 20
128.8356693859355
 30
0.0
 10
219.954972875566
 20
128.8364087660647
 30
0.0
  0
LINE
  5
A0
330
1F
100
AcDbEntity
  8
0
  6
Continuous
 62
     7
370
    15
100
AcDbLine
 10
169.2614195998
 20
100.5847999324
 30
0.0
 11
169.2614195998
 21
97.747684965
 31
0.0
  0
SPLINE
  5
A1
330
1F
100
AcDbEntity
  8
0
  6
Continuous
 62
     7
370
    15
100
AcDbSpline
210
0.0
220
0.0
230
1.0
 70
     8
 71
     3
 72
    16
 73
    12
 74
     0
 42
0.00000001
 43
0.00000001
 12
1.0
 22
0.0
 32
0.0
 13
1.0
 23
0.0
 33
0.0
 40
0.0
 40
0.0
 40
0.0
 40
0.0
 40
0.5000000000000014
 40
0.5000000000000014
 40
0.7499999999999997
 40
0.7499999999999997
 40
0.875000000000001
 40
0.875000000000001
 40
0.9375000000000004
 40
0.9375000000000004
 40
1.0
 40
1.0
 40
1.0
 40
1.0
 10
169.2614195947357
 20
100.5848000030944
 30
0.0
 10
169.2614195947357
 20
100.6616687692282
 30
0.0
 10
169.2575361695767
 20
100.7412663943942
 30
0.0
 10
169.232720844302
 20
100.8680120181455
 30
0.0
 10
169.2218813965896
 20
100.9120608720487
 30
0.0
 10
169.1886656145408
 20
100.9792535997749
 30
0.0
 10
169.1752838709119
 20
101.0024848066132
 30
0.0
 10
169.1397742210497
 20
101.031346996773
 30
0.0
 10
169.124357254549
 20
101.0393666440809
 30
0.0
 10
169.0926562324003
 20
101.043930662042
 30
0.0
 10
169.0785099474496
 20
101.0409518802911
 30
0.0
 10
169.0664427058599
 20
101.0361787933175
 30
0.0
  0
SPLINE
  5
A2
330
1F
100
AcDbEntity
  8
0
  6
Continuous
 62
     7
370
    15
100
AcDbSpline
210
0.0
220
0.0
230
1.0
 70
     8
 71
     3
 72
    18
 73
    14
 74
     0
 42
0.00000001
 43
0.00000001
 12
1.0
 22
0.0
 32
0.0
 13
1.0
 23
0.0
 33
0.0
 40
0.0
 40
0.0
 40
0.0
 40
0.0
 40
0.1250000000000001
 40
0.1250000000000001
 40
0.2500000000000001
 40
0.2500000000000001
 40
0.3750000000000002
 40
0.3750000000000002
 40
0.5000000000000002
 40
0.5000000000000002
 40
0.7500000000000001
 40
0.7500000000000001
 40
1.0
 40
1.0
 40
1.0
 40
1.0
 10
169.0664427058661
 20
101.0361787933134
 30
0.0
 10
169.0177372137239
 20
101.0169137816398
 30
0.0
 10
168.9592271053971
 20
101.0018845744431
 30
0.0
 10
168.827497987105
 20
100.9988873475141
 30
0.0
 10
168.7627390507644
 20
101.0122682679006
 30
0.0
 10
168.6575280779049
 20
101.0503666904663
 30
0.0
 10
168.6143117024649
 20
101.0743597415038
 30
0.0
 10
168.538133197353
 20
101.1247733486823
 30
0.0
 10
168.5052782359731
 20
101.1514016937375
 30
0.0
 10
168.4149099561393
 20
101.2339198705646
 30
0.0
 10
168.3654867217692
 20
101.2926241045542
 30
0.0
 10
168.277838266721
 20
101.4131054000838
 30
0.0
 10
168.2397790945183
 20
101.4751488086624
 30
0.0
 10
168.2053352771727
 20
101.5387672996637
 30
0.0
  0
SPLINE
  5
A3
330
1F
100
AcDbEntity
  8
0
  6
Continuous
 62
     7
370
    15
100
AcDbSpline
210
0.0
220
0.0
230
1.0
 70
     8
 71
     3
 72
     8
 73
     4
 74
     0
 42
0.00000001
 43
0.00000001
 12
1.0
 22
0.0
 32
0.0
 13
1.0
 23
0.0
 33
0.0
 40
0.0
 40
0.0
 40
0.0
 40
0.0
 40
1.0
 40
1.0
 40
1.0
 40
1.0
 10
168.2053352771721
 20
101.5387672996626
 30
0.0
 10
168.181021573282
 20
101.5836752474846
 30
0.0
 10
168.1595249313258
 20
101.6301276564014
 30
0.0
 10
168.1400992511759
 20
101.6780981713377
 30
0.0
  0
SPLINE
  5
A4
330
1F
100
AcDbEntity
  8
0
  6
Continuous
 62
     7
370
    15
100
AcDbSpline
210
0.0
220
0.0
230
1.0
 70
     8
 71
     3
 72
     8
 73
     4
 74
     0
 42
0.00000001
 43
0.00000001
 12
1.0
 22
0.0
 32
0.0
 13
1.0
 23
0.0
 33
0.0
 40
0.0
 40
0.0
 40
0.0
 40
0.0
 40
1.0
 40
1.0
 40
1.0
 40
1.0
 10
168.1400992511759
 20
108.2106051981245
 30
0.0
 10
168.1595246780693
 20
108.3004876428966
 30
0.0
 10
168.1810212320383
 20
108.3899000863592
 30
0.0
 10
168.2053352771727
 20
108.4786592133736
 30
0.0
  0
SPLINE
  5
A5
330
1F
100
AcDbEntity
  8
0
  6
Continuous
 62
     7
370
    15
100
AcDbSpline
210
0.0
220
0.0
230
1.0
 70
     8
 71
     3
 72
    18
 73
    14
 74
     0
 42
0.00000001
 43
0.00000001
 12
1.0
 22
0.0
 32
0.0
 13
1.0
 23
0.0
 33
0.0
 40
0.0
 40
0.0
 40
0.0
 40
0.0
 40
0.2499999999999997
 40
0.2499999999999997
 40
0.4999999999999993
 40
0.4999999999999993
 40
0.6249999999999994
 40
0.6249999999999994
 40
0.7499999999999997
 40
0.7499999999999997
 40
0.8749999999999998
 40
0.8749999999999998
 40
1.0
 40
1.0
 40
1.0
 40
1.0
 10
168.2053352771716
 20
108.478659213374
 30
0.0
 10
168.2396320966234
 20
108.603860747594
 30
0.0
 10
168.2774433766006
 20
108.7275565785245
 30
0.0
 10
168.3640157437806
 20
108.9702774097125
 30
0.0
 10
168.4123548738635
 20
109.0894811435789
 30
0.0
 10
168.5016272311859
 20
109.2611626727509
 30
0.0
 10
168.5341686969619
 20
109.3172067185196
 30
0.0
 10
168.6103448968153
 20
109.4245882866066
 30
0.0
 10
168.6535609568099
 20
109.4759751434732
 30
0.0
 10
168.7592502587758
 20
109.5570280906975
 30
0.0
 10
168.8242213174904
 20
109.5849182521498
 30
0.0
 10
168.9578817058482
 20
109.5731609490773
 30
0.0
 10
169.0171881591844
 20
109.5367074185862
 30
0.0
 10
169.0664427058604
 20
109.4915653297531
 30
0.0
  0
SPLINE
  5
A6
330
1F
100
AcDbEntity
  8
0
  6
Continuous
 62
     7
370
    15
100
AcDbSpline
210
0.0
220
0.0
230
1.0
 70
     8
 71
     3
 72
    16
 73
    12
 74
     0
 42
0.00000001
 43
0.00000001
 12
1.0
 22
0.0
 32
0.0
 13
1.0
 23
0.0
 33
0.0
 40
0.0
 40
0.0
 40
0.0
 40
0.0
 40
0.0625
 40
0.0625
 40
0.1250000000000001
 40
0.1250000000000001
 40
0.2499999999999993
 40
0.2499999999999993
 40
0.4999999999999997
 40
0.4999999999999997
 40
1.0
 40
1.0
 40
1.0
 40
1.0
 10
169.0664427058296
 20
109.4915653297082
 30
0.0
 10
169.0785125391054
 20
109.4805032547723
 30
0.0
 10
169.0927881940387
 20
109.4712635981312
 30
0.0
 10
169.1242526061631
 20
109.4667155402691
 30
0.0
 10
169.1397531309735
 20
109.472769323099
 30
0.0
 10
169.1751920275804
 20
109.5018586275034
 30
0.0
 10
169.1887846436838
 20
109.5314280012226
 30
0.0
 10
169.2217789620766
 20
109.618471245241
 30
0.0
 10
169.2325663553954
 20
109.6804198874426
 30
0.0
 10
169.2576196026745
 20
109.8680264545553
 30
0.0
 10
169.2614195947358
 20
109.9940339775277
 30
0.0
 10
169.2614195947358
 20
110.1205100577385
 30
0.0
  0
LINE
  5
A7
330
1F
100
AcDbEntity
  8
0
  6
Continuous
 62
     7
370
    15
100
AcDbLine
 10
169.2614195998
 20
124.8072046284
 30
0.0
 11
169.2614195998
 21
110.1205100269
 31
0.0
  0
SPLINE
  5
A8
330
1F
100
AcDbEntity
  8
0
  6
Continuous
 62
     7
370
    15
100
AcDbSpline
210
0.0
220
0.0
230
1.0
 70
     8
 71
     3
 72
    16
 73
    12
 74
     0
 42
0.00000001
 43
0.00000001
 12
1.0
 22
0.0
 32
0.0
 13
1.0
 23
0.0
 33
0.0
 40
0.0
 40
0.0
 40
0.0
 40
0.0
 40
0.5000000000000022
 40
0.5000000000000022
 40
0.7500000000000033
 40
0.7500000000000033
 40
0.8750000000000017
 40
0.8750000000000017
 40
0.9375000000000008
 40
0.9375000000000008
 40
1.0
 40
1.0
 40
1.0
 40
1.0
 10
169.2614195947357
 20
124.8072047597239
 30
0.0
 10
169.2614195947357
 20
124.8571137611013
 30
0.0
 10
169.2575361695767
 20
124.9035055857834
 30
0.0
 10
169.232720844302
 20
124.9630954740117
 30
0.0
 10
169.2218813965896
 20
124.9817684391619
 30
0.0
 10
169.1886656145408
 20
125.002119162263
 30
0.0
 10
169.1752838709119
 20
125.0080677944279
 30
0.0
 10
169.1397742210497
 20
125.0083952515734
 30
0.0
 10
169.124357254549
 20
125.0064519853834
 30
0.0
 10
169.0926562324003
 20
124.9972972595432
 30
0.0
 10
169.0785099474496
 20
124.9910573101455
 30
0.0
 10
169.0664427058599
 20
124.9847706974858
 30
0.0
  0
SPLINE
  5
A9
330
1F
100
AcDbEntity
  8
0
  6
Continuous
 62
     7
370
    15
100
AcDbSpline
210
0.0
220
0.0
230
1.0
 70
     8
 71
     3
 72
    18
 73
    14
 74
     0
 42
0.00000001
 43
0.00000001
 12
1.0
 22
0.0
 32
0.0
 13
1.0
 23
0.0
 33
0.0
 40
0.0
 40
0.0
 40
0.0
 40
0.0
 40
0.125
 40
0.125
 40
0.25
 40
0.25
 40
0.375
 40
0.375
 40
0.5
 40
0.5
 40
0.75
 40
0.75
 40
1.0
 40
1.0
 40
1.0
 40
1.0
 10
169.0664427058661
 20
124.9847706974814
 30
0.0
 10
169.0177381221781
 20
124.9593973053824
 30
0.0
 10
168.9592296394026
 20
124.9383055882219
 30
0.0
 10
168.8275028241328
 20
124.9283047926929
 30
0.0
 10
168.7627447526353
 20
124.9414915456569
 30
0.0
 10
168.6575341504845
 20
124.9822424475532
 30
0.0
 10
168.6143180019644
 20
125.0087552124089
 30
0.0
 10
168.5381396858805
 20
125.0642343090827
 30
0.0
 10
168.5052848535893
 20
125.0934780027128
 30
0.0
 10
168.4149169476283
 20
125.1831683911145
 30
0.0
 10
168.3654942897887
 20
125.2457470729928
 30
0.0
 10
168.2778431641971
 20
125.3704756914737
 30
0.0
 10
168.2397816168065
 20
125.4329640952615
 30
0.0
 10
168.2053352771726
 20
125.4950883075195
 30
0.0
  0
SPLINE
  5
AA
330
1F
100
AcDbEntity
  8
0
  6
Continuous
 62
     7
370
    15
100
AcDbSpline
210
0.0
220
0.0
230
1.0
 70
     8
 71
     3
 72
     8
 73
     4
 74
     0
 42
0.00000001
 43
0.00000001
 12
1.0
 22
0.0
 32
0.0
 13
1.0
 23
0.0
 33
0.0
 40
0.0
 40
0.0
 40
0.0
 40
0.0
 40
1.0
 40
1.0
 40
1.0
 40
1.0
 10
168.1400992511759
 20
125.6238114510946
 30
0.0
 10
168.1595254564748
 20
125.5818972163592
 30
0.0
 10
168.1810222809033
 20
125.5389369647909
 30
0.0
 10
168.2053352771727
 20
125.4950883075195
 30
0.0
  0
SPLINE
  5
AB
330
1F
100
AcDbEntity
  8
0
  6
Continuous
 62
     7
370
    15
100
AcDbSpline
210
0.0
220
0.0
230
1.0
 70
     8
 71
     3
 72
    24
 73
    20
 74
     0
 42
0.00000001
 43
0.00000001
 12
1.0
 22
0.0
 32
0.0
 13
1.0
 23
0.0
 33
0.0
 40
0.0
 40
0.0
 40
0.0
 40
0.0
 40
0.2500000000000144
 40
0.2500000000000144
 40
0.3750000000000185
 40
0.3750000000000185
 40
0.4375000000000188
 40
0.4375000000000188
 40
0.5000000000000191
 40
0.5000000000000191
 40
0.5312500000000194
 40
0.5312500000000194
 40
0.5625000000000197
 40
0.5625000000000197
 40
0.6250000000000163
 40
0.6250000000000163
 40
0.7500000000000118
 40
0.7500000000000118
 40
1.0
 40
1.0
 40
1.0
 40
1.0
 10
167.966379616796
 20
102.2040835286383
 30
0.0
 10
167.9506107394386
 20
102.2631492112262
 30
0.0
 10
167.9339967575886
 20
102.3221407199898
 30
0.0
 10
167.9054650915835
 20
102.4082494136709
 30
0.0
 10
167.8953776767648
 20
102.4366258282249
 30
0.0
 10
167.8778901163105
 20
102.4770239957368
 30
0.0
 10
167.8716805545272
 20
102.4901437924746
 30
0.0
 10
167.8574030008746
 20
102.5144367337187
 30
0.0
 10
167.8498314530792
 20
102.5265791298974
 30
0.0
 10
167.8324138694009
 20
102.5355984805906
 30
0.0
 10
167.8239313727559
 20
102.5364235615321
 30
0.0
 10
167.8078930608841
 20
102.5200311632338
 30
0.0
 10
167.8030725126806
 20
102.5081371426279
 30
0.0
 10
167.7916632881326
 20
102.4760762850305
 30
0.0
 10
167.7876428076751
 20
102.4557838367989
 30
0.0
 10
167.7768889528548
 20
102.3953744983938
 30
0.0
 10
167.7730162715726
 20
102.3569543622768
 30
0.0
 10
167.763848121735
 20
102.2435478813361
 30
0.0
 10
167.7618196163659
 20
102.1705503795628
 30
0.0
 10
167.7614195947357
 20
102.0996642771527
 30
0.0
  0
SPLINE
  5
AC
330
1F
100
AcDbEntity
  8
0
  6
Continuous
 62
     7
370
    15
100
AcDbSpline
210
0.0
220
0.0
230
1.0
 70
     8
 71
     3
 72
    16
 73
    12
 74
     0
 42
0.00000001
 43
0.00000001
 12
1.0
 22
0.0
 32
0.0
 13
1.0
 23
0.0
 33
0.0
 40
0.0
 40
0.0
 40
0.0
 40
0.0
 40
0.2500000000000006
 40
0.2500000000000006
 40
0.3750000000000006
 40
0.3750000000000006
 40
0.5000000000000007
 40
0.5000000000000007
 40
0.7500000000000003
 40
0.7500000000000003
 40
1.0
 40
1.0
 40
1.0
 40
1.0
 10
167.7614195947355
 20
102.0996642771526
 30
0.0
 10
167.680882262836
 20
102.4167130345279
 30
0.0
 10
167.6208449188086
 20
102.765565055477
 30
0.0
 10
167.560107211655
 20
103.3359086208839
 30
0.0
 10
167.544784836542
 20
103.5339144461027
 30
0.0
 10
167.5242020272379
 20
103.9461954777051
 30
0.0
 10
167.5190024302124
 20
104.1610556837573
 30
0.0
 10
167.5189487770326
 20
104.8159534348775
 30
0.0
 10
167.5391463205105
 20
105.270579461205
 30
0.0
 10
167.6198244088692
 20
106.2152740498644
 30
0.0
 10
167.680870573477
 20
106.7071432005746
 30
0.0
 10
167.7614195947357
 20
107.202629588322
 30
0.0
  0
SPLINE
  5
AD
330
1F
100
AcDbEntity
  8
0
  6
Continuous
 62
     7
370
    15
100
AcDbSpline
210
0.0
220
0.0
230
1.0
 70
     8
 71
     3
 72
    24
 73
    20
 74
     0
 42
0.00000001
 43
0.00000001
 12
1.0
 22
0.0
 32
0.0
 13
1.0
 23
0.0
 33
0.0
 40
0.0
 40
0.0
 40
0.0
 40
0.0
 40
0.249999999999986
 40
0.249999999999986
 40
0.3749999999999789
 40
0.3749999999999789
 40
0.4374999999999762
 40
0.4374999999999762
 40
0.4687499999999772
 40
0.4687499999999772
 40
0.4999999999999781
 40
0.4999999999999781
 40
0.5624999999999806
 40
0.5624999999999806
 40
0.6249999999999831
 40
0.6249999999999831
 40
0.7499999999999885
 40
0.7499999999999885
 40
1.0
 40
1.0
 40
1.0
 40
1.0
 10
167.7614195947355
 20
107.202629588322
 30
0.0
 10
167.761822505371
 20
107.1125298112473
 30
0.0
 10
167.7638664847113
 20
107.0232564114318
 30
0.0
 10
167.7731037275367
 20
106.8929187866102
 30
0.0
 10
167.7769907905171
 20
106.849935617603
 30
0.0
 10
167.7878946819226
 20
106.7879274358809
 30
0.0
 10
167.7920367276729
 20
106.7671654499083
 30
0.0
 10
167.8039318014231
 20
106.7411888013032
 30
0.0
 10
167.80917886573
 20
106.7321481506144
 30
0.0
 10
167.8260459321055
 20
106.7330904020471
 30
0.0
 10
167.8338683396348
 20
106.7443644060414
 30
0.0
 10
167.8508171402594
 20
106.775566873595
 30
0.0
 10
167.8582734914775
 20
106.7986921128582
 30
0.0
 10
167.8723333946708
 20
106.8442868180902
 30
0.0
 10
167.878465779807
 20
106.8672304291206
 30
0.0
 10
167.8957605423309
 20
106.9362498404678
 30
0.0
 10
167.9057778607401
 20
106.9825415521447
 30
0.0
 10
167.9341491949837
 20
107.1215957845137
 30
0.0
 10
167.9506846326285
 20
107.2144970862718
 30
0.0
 10
167.9663796167933
 20
107.3075553058114
 30
0.0
  0
SPLINE
  5
AE
330
1F
100
AcDbEntity
  8
0
  6
Continuous
 62
     7
370
    15
100
AcDbSpline
210
0.0
220
0.0
230
1.0
 70
     8
 71
     3
 72
     8
 73
     4
 74
     0
 42
0.00000001
 43
0.00000001
 12
1.0
 22
0.0
 32
0.0
 13
1.0
 23
0.0
 33
0.0
 40
0.0
 40
0.0
 40
0.0
 40
0.0
 40
1.0
 40
1.0
 40
1.0
 40
1.0
 10
167.9663796167933
 20
107.3075553058115
 30
0.0
 10
168.0171067599999
 20
107.6083251300831
 30
0.0
 10
168.0749940895608
 20
107.9093602820983
 30
0.0
 10
168.140099251176
 20
108.2106051981245
 30
0.0
  0
SPLINE
  5
AF
330
1F
100
AcDbEntity
  8
0
  6
Continuous
 62
     7
370
    15
100
AcDbSpline
210
0.0
220
0.0
230
1.0
 70
     8
 71
     3
 72
     8
 73
     4
 74
     0
 42
0.00000001
 43
0.00000001
 12
1.0
 22
0.0
 32
0.0
 13
1.0
 23
0.0
 33
0.0
 40
0.0
 40
0.0
 40
0.0
 40
0.0
 40
1.0
 40
1.0
 40
1.0
 40
1.0
 10
168.140099251176
 20
101.6780981713378
 30
0.0
 10
168.074994089562
 20
101.8388713387911
 30
0.0
 10
168.017106760002
 20
102.0140742292263
 30
0.0
 10
167.9663796167959
 20
102.2040835286383
 30
0.0
  0
LINE
  5
B0
330
1F
100
AcDbEntity
  8
0
  6
Continuous
 62
     7
370
    15
100
AcDbLine
 10
167.7614195722
 20
101.375165904
 30
0.0
 11
167.7614195722
 21
102.0996640866
 31
0.0
  0
LINE
  5
B1
330
1F
100
AcDbEntity
  8
0
  6
Continuous
 62
     7
370
    15
100
AcDbLine
 10
146.9614187007
 20
101.8277234827
 30
0.0
 11
146.9614187007
 21
108.4786591084
 31
0.0
  0
LINE
  5
B2
330
1F
100
AcDbEntity
  8
0
  6
Continuous
 62
     7
370
    15
100
AcDbLine
 10
167.7614195722
 20
107.2026296017
 30
0.0
 11
167.7614195722
 21
108.4786591084
 31
0.0
  0
LINE
  5
B3
330
1F
100
AcDbEntity
  8
0
  6
Continuous
 62
     7
370
    15
100
AcDbLine
 10
146.9614187007
 20
108.4786591084
 30
0.0
 11
146.9614187007
 21
125.2061319967
 31
0.0
  0
LINE
  5
B4
330
1F
100
AcDbEntity
  8
0
  6
Continuous
 62
     7
370
    15
100
AcDbLine
 10
167.7614195722
 20
108.4786591084
 30
0.0
 11
167.7614195722
 21
125.6586895753
 31
0.0
  0
LINE
  5
B5
330
1F
100
AcDbEntity
  8
0
  6
Continuous
 62
     7
370
    15
100
AcDbLine
 10
145.4614193861
 20
108.4786591084
 30
0.0
 11
145.4614193861
 21
124.4561323394
 31
0.0
  0
LINE
  5
B6
330
1F
100
AcDbEntity
  8
0
  6
Continuous
 62
     7
370
    15
100
AcDbLine
 10
145.4614193861
 20
102.57772314
 30
0.0
 11
145.4614193861
 21
108.4786591084
 31
0.0
  0
SPLINE
  5
B7
330
1F
100
AcDbEntity
  8
0
  6
Continuous
 62
     7
370
    15
100
AcDbSpline
210
0.0
220
0.0
230
1.0
 70
     8
 71
     3
 72
     8
 73
     4
 74
     0
 42
0.00000001
 43
0.00000001
 12
1.0
 22
0.0
 32
0.0
 13
1.0
 23
0.0
 33
0.0
 40
0.0000137051794235
 40
0.0000137051794235
 40
0.0000137051794235
 40
0.0000137051794235
 40
0.0027147144718019
 40
0.0027147144718019
 40
0.0027147144718019
 40
0.0027147144718019
 10
146.9614195947356
 20
99.40971062260031
 30
0.0
 10
147.8614157302304
 20
99.38863022526965
 30
0.0
 10
148.7614159088258
 20
99.36751271711144
 30
0.0
 10
149.6614195947356
 20
99.34635810976567
 30
0.0
  0
LINE
  5
B8
330
1F
100
AcDbEntity
  8
0
  6
Continuous
 62
     7
370
    15
100
AcDbLine
 10
146.9614187007
 20
99.4097101931
 30
0.0
 11
146.9614187007
 21
101.8277234827
 31
0.0
  0
LINE
  5
B9
330
1F
100
AcDbEntity
  8
0
  6
Continuous
 62
     7
370
    15
100
AcDbLine
 10
167.7614195722
 20
98.7174059694
 30
0.0
 11
167.7614195722
 21
101.375165904
 31
0.0
  0
SPLINE
  5
BA
330
1F
100
AcDbEntity
  8
0
  6
Continuous
 62
     7
370
    15
100
AcDbSpline
210
0.0
220
0.0
230
1.0
 70
     8
 71
     3
 72
    14
 73
    10
 74
     0
 42
0.00000001
 43
0.00000001
 12
1.0
 22
0.0
 32
0.0
 13
1.0
 23
0.0
 33
0.0
 40
0.0
 40
0.0
 40
0.0
 40
0.0
 40
0.3775289496544884
 40
0.5338733619526008
 40
0.6908808921318255
 40
0.7817757144576579
 40
0.8738747532997286
 40
0.9402566612814603
 40
0.9999999999999999
 40
0.9999999999999999
 40
0.9999999999999999
 40
0.9999999999999999
 10
149.661419702024
 20
99.34635790631536
 30
0.0
 10
149.9319718246478
 20
99.30380977853231
 30
0.0
 10
150.3145665141962
 20
99.24364138073098
 30
0.0
 10
150.7743238059745
 20
99.18827684414399
 30
0.0
 10
151.0224002057522
 20
99.16159731888865
 30
0.0
 10
151.2009100277237
 20
99.14427907289306
 30
0.0
 10
151.3027011288015
 20
99.13503703993472
 30
0.0
 10
151.360966078631
 20
99.1299699526115
 30
0.0
 10
151.3654543098191
 20
99.12958748216577
 30
0.0
 10
151.3675803069778
 20
99.12940631255869
 30
0.0
  0
SPLINE
  5
BB
330
1F
100
AcDbEntity
  8
0
  6
Continuous
 62
     7
370
    15
100
AcDbSpline
210
0.0
220
0.0
230
1.0
 70
     8
 71
     3
 72
    27
 73
    23
 74
     0
 42
0.00000001
 43
0.00000001
 12
1.0
 22
0.0
 32
0.0
 13
1.0
 23
0.0
 33
0.0
 40
0.0
 40
0.0
 40
0.0
 40
0.0
 40
0.0320048851830926
 40
0.0816299745223717
 40
0.1292910178011345
 40
0.178232885987069
 40
0.2278849782981411
 40
0.2788080862505998
 40
0.3317508470292139
 40
0.3860722564656631
 40
0.441952107432201
 40
0.4993720962743274
 40
0.5566423662844608
 40
0.6155860239266133
 40
0.6725583143107995
 40
0.7312836447428356
 40
0.7864689218036882
 40
0.8434363686095164
 40
0.8956187079942484
 40
0.9495001033608826
 40
0.9987347020047517
 40
0.9999999999999999
 40
0.9999999999999999
 40
0.9999999999999999
 40
0.9999999999999999
 10
160.6542018924661
 20
98.89681222483877
 30
0.0
 10
160.6542791942383
 20
98.89680255293482
 30
0.0
 10
160.6544763560673
 20
98.89677788428598
 30
0.0
 10
160.5796143117281
 20
98.90741094144205
 30
0.0
 10
160.4421243707544
 20
98.92626558111705
 30
0.0
 10
160.2451155662608
 20
98.95187804051923
 30
0.0
 10
159.9919607731689
 20
98.98228070589899
 30
0.0
 10
159.6850446412873
 20
99.01536586274352
 30
0.0
 10
159.3282381141184
 20
99.04855661079262
 30
0.0
 10
158.9272293167279
 20
99.07900972090448
 30
0.0
 10
158.4914261477933
 20
99.10382885287147
 30
0.0
 10
158.0349828645456
 20
99.12045276339721
 30
0.0
 10
157.5698245225182
 20
99.12753198718092
 30
0.0
 10
157.1182525178158
 20
99.12479636399958
 30
0.0
 10
156.6891071258586
 20
99.11349288534092
 30
0.0
 10
156.3075490690836
 20
99.09628383549263
 30
0.0
 10
155.9767498616095
 20
99.07599381550136
 30
0.0
 10
155.7185838725476
 20
99.05667805101187
 30
0.0
 10
155.5277355102637
 20
99.0404737902914
 30
0.0
 10
155.4247239635352
 20
99.0310505398447
 30
0.0
 10
155.3828489536387
 20
99.02710086851823
 30
0.0
 10
155.3943395981669
 20
99.02817899468918
 30
0.0
 10
155.3946275015183
 20
99.02820600763324
 30
0.0
  0
SPLINE
  5
BC
330
1F
100
AcDbEntity
  8
0
  6
Continuous
 62
     7
370
    15
100
AcDbSpline
210
0.0
220
0.0
230
1.0
 70
     8
 71
     3
 72
    10
 73
     6
 74
     0
 42
0.00000001
 43
0.00000001
 12
1.0
 22
0.0
 32
0.0
 13
1.0
 23
0.0
 33
0.0
 40
0.0
 40
0.0
 40
0.0
 40
0.0
 40
0.5
 40
0.5
 40
1.0
 40
1.0
 40
1.0
 40
1.0
 10
145.4614195947356
 20
100.1990105708747
 30
0.0
 10
145.6985615554514
 20
100.0770880669822
 30
0.0
 10
145.9439043142147
 20
99.9495818705206
 30
0.0
 10
146.4451679029474
 20
99.68595315247106
 30
0.0
 10
146.7012024721976
 20
99.54977689871657
 30
0.0
 10
146.9614195947356
 20
99.40971062260031
 30
0.0
  0
LINE
  5
BD
330
1F
100
AcDbEntity
  8
0
  6
Continuous
 62
     7
370
    15
100
AcDbLine
 10
145.4614193861
 20
100.1990107317
 30
0.0
 11
145.4614193861
 21
102.57772314
 31
0.0
  0
SPLINE
  5
BE
330
1F
100
AcDbEntity
  8
0
  6
Continuous
 62
     7
370
    15
100
AcDbSpline
210
0.0
220
0.0
230
1.0
 70
     8
 71
     3
 72
    13
 73
     9
 74
     0
 42
0.00000001
 43
0.00000001
 12
1.0
 22
0.0
 32
0.0
 13
1.0
 23
0.0
 33
0.0
 40
0.0
 40
0.0
 40
0.0
 40
0.0
 40
0.0600464653196974
 40
0.2706631642250596
 40
0.4859158882993705
 40
0.7027576603474065
 40
0.8511278664729957
 40
1.0
 40
1.0
 40
1.0
 40
1.0
 10
167.5211800246321
 20
126.7465721313691
 30
0.0
 10
167.5205419167284
 20
126.7480079269572
 30
0.0
 10
167.5176656058015
 20
126.7544798645638
 30
0.0
 10
167.5345107906868
 20
126.7165675393963
 30
0.0
 10
167.5727677910851
 20
126.6306080354988
 30
0.0
 10
167.6293445107007
 20
126.5039418538435
 30
0.0
 10
167.6930686247628
 20
126.3618163946184
 30
0.0
 10
167.7386102889644
 20
126.2608094298981
 30
0.0
 10
167.7614195721976
 20
126.2102206666804
 30
0.0
  0
LINE
  5
BF
330
1F
100
AcDbEntity
  8
0
  6
Continuous
 62
     7
370
    15
100
AcDbLine
 10
167.7614195722
 20
126.2102206667
 30
0.0
 11
167.7614195722
 21
125.6586895753
 31
0.0
  0
LINE
  5
C0
330
1F
100
AcDbEntity
  8
0
  6
Continuous
 62
     7
370
    15
100
AcDbLine
 10
146.9614187007
 20
126.2350357567
 30
0.0
 11
146.9614187007
 21
125.2061319967
 31
0.0
  0
SPLINE
  5
C1
330
1F
100
AcDbEntity
  8
0
  6
Continuous
 62
     7
370
    15
100
AcDbSpline
210
0.0
220
0.0
230
1.0
 70
     8
 71
     3
 72
    24
 73
    20
 74
     0
 42
0.00000001
 43
0.00000001
 12
1.0
 22
0.0
 32
0.0
 13
1.0
 23
0.0
 33
0.0
 40
0.0
 40
0.0
 40
0.0
 40
0.0
 40
0.2499999999999968
 40
0.2499999999999968
 40
0.3749999999999958
 40
0.3749999999999958
 40
0.4374999999999952
 40
0.4374999999999952
 40
0.4687499999999941
 40
0.4687499999999941
 40
0.4999999999999929
 40
0.4999999999999929
 40
0.5624999999999927
 40
0.5624999999999927
 40
0.6249999999999925
 40
0.6249999999999925
 40
0.7499999999999949
 40
0.7499999999999949
 40
1.0
 40
1.0
 40
1.0
 40
1.0
 10
167.7614195947274
 20
126.2102209550909
 30
0.0
 10
167.7618226241013
 20
126.2289281930994
 30
0.0
 10
167.7638523638164
 20
126.2451290978958
 30
0.0
 10
167.7731610752361
 20
126.2618304506792
 30
0.0
 10
167.7770870683507
 20
126.2663218734218
 30
0.0
 10
167.7880164282667
 20
126.2675719155616
 30
0.0
 10
167.7921380563611
 20
126.267486379263
 30
0.0
 10
167.8040325775435
 20
126.261110847955
 30
0.0
 10
167.8093193894973
 20
126.257798934448
 30
0.0
 10
167.8258873210122
 20
126.2423249481823
 30
0.0
 10
167.8338140297795
 20
126.2330146789538
 30
0.0
 10
167.8508063680047
 20
126.2117486458305
 30
0.0
 10
167.8582040687957
 20
126.2007861864241
 30
0.0
 10
167.8723064591375
 20
126.1794427720499
 30
0.0
 10
167.8784596164298
 20
126.1695229254885
 30
0.0
 10
167.8957733498908
 20
126.1406682600613
 30
0.0
 10
167.9057783907794
 20
126.1226219273111
 30
0.0
 10
167.9341348470101
 20
126.0693569264993
 30
0.0
 10
167.9506833863564
 20
126.0351480268931
 30
0.0
 10
167.9663796167964
 20
126.0008759860903
 30
0.0
  0
SPLINE
  5
C2
330
1F
100
AcDbEntity
  8
0
  6
Continuous
 62
     7
370
    15
100
AcDbSpline
210
0.0
220
0.0
230
1.0
 70
     8
 71
     3
 72
     8
 73
     4
 74
     0
 42
0.00000001
 43
0.00000001
 12
1.0
 22
0.0
 32
0.0
 13
1.0
 23
0.0
 33
0.0
 40
0.0
 40
0.0
 40
0.0
 40
0.0
 40
1.0
 40
1.0
 40
1.0
 40
1.0
 10
167.9663796167963
 20
126.0008759860903
 30
0.0
 10
168.0171066995187
 20
125.8901155932992
 30
0.0
 10
168.0749940125058
 20
125.7642833659194
 30
0.0
 10
168.140099251176
 20
125.6238114510945
 30
0.0
  0
LINE
  5
C3
330
1F
100
AcDbEntity
  8
0
  6
Continuous
 62
     7
370
    15
100
AcDbLine
 10
145.4614193861
 20
125.3690100704
 30
0.0
 11
145.4614193861
 21
124.4561323394
 31
0.0
  0
SPLINE
  5
C4
330
1F
100
AcDbEntity
  8
0
  6
HIDDEN
 62
     7
370
     0
100
AcDbSpline
210
0.0
220
0.0
230
1.0
 70
     8
 71
     3
 72
    17
 73
    13
 74
     0
 42
0.00000001
 43
0.00000001
 12
1.0
 22
0.0
 32
0.0
 13
1.0
 23
0.0
 33
0.0
 40
0.0
 40
0.0
 40
0.0
 40
0.0
 40
0.1070067351374819
 40
0.2140007054962709
 40
0.3213278464974721
 40
0.4288794986707768
 40
0.5360666014566652
 40
0.6428686862924161
 40
0.749866015441172
 40
0.857333186493305
 40
0.9648140074538438
 40
1.0
 40
1.0
 40
1.0
 40
1.0
 10
179.4614193712182
 20
91.83750538722042
 30
0.0
 10
179.4834195253705
 20
91.83976681185393
 30
0.0
 10
179.5274172092879
 20
91.8442893913568
 30
0.0
 10
179.8702570232205
 20
91.87577553998081
 30
0.0
 10
180.3760472648405
 20
91.91094498037204
 30
0.0
 10
181.0092403403643
 20
91.93640638106193
 30
0.0
 10
181.6919249532208
 20
91.94028392334148
 30
0.0
 10
182.346345396233
 20
91.92128953354434
 30
0.0
 10
182.905818553001
 20
91.88725486848782
 30
0.0
 10
183.2887125499933
 20
91.85477974371767
 30
0.0
 10
183.4716336022593
 20
91.8364954556891
 30
0.0
 10
183.4434647031943
 20
91.83928383092235
 30
0.0
 10
183.4365173925467
 20
91.839971529398
 30
0.0
  0
SPLINE
  5
C5
330
1F
100
AcDbEntity
  8
0
  6
HIDDEN
 62
     7
370
     0
100
AcDbSpline
210
0.0
220
0.0
230
1.0
 70
     8
 71
     3
 72
    12
 73
     8
 74
     0
 42
0.00000001
 43
0.00000001
 12
1.0
 22
0.0
 32
0.0
 13
1.0
 23
0.0
 33
0.0
 40
0.0
 40
0.0
 40
0.0
 40
0.0
 40
0.2500000000000008
 40
0.2500000000000008
 40
0.5000000000000016
 40
0.5000000000000016
 40
1.0
 40
1.0
 40
1.0
 40
1.0
 10
176.3933215967348
 20
106.008291944534
 30
0.0
 10
176.3558097106902
 20
106.008291944534
 30
0.0
 10
176.3205223629854
 20
105.9934871302472
 30
0.0
 10
176.261592514747
 20
105.9498952571214
 30
0.0
 10
176.2380667882779
 20
105.9223818310354
 30
0.0
 10
176.1778080005099
 20
105.8332500989218
 30
0.0
 10
176.1522132382205
 20
105.766864248304
 30
0.0
 10
176.1335139755995
 20
105.6992598131266
 30
0.0
  0
LINE
  5
C6
330
1F
100
AcDbEntity
  8
0
  6
HIDDEN
 62
     7
370
     0
100
AcDbLine
 10
178.529517514
 20
106.0082917531
 30
0.0
 11
176.3933215041
 21
106.0082917531
 31
0.0
  0
SPLINE
  5
C7
330
1F
100
AcDbEntity
  8
0
  6
HIDDEN
 62
     7
370
     0
100
AcDbSpline
210
0.0
220
0.0
230
1.0
 70
     8
 71
     3
 72
    12
 73
     8
 74
     0
 42
0.00000001
 43
0.00000001
 12
1.0
 22
0.0
 32
0.0
 13
1.0
 23
0.0
 33
0.0
 40
0.0
 40
0.0
 40
0.0
 40
0.0
 40
0.4999999999999947
 40
0.4999999999999947
 40
0.7499999999999973
 40
0.7499999999999973
 40
1.0
 40
1.0
 40
1.0
 40
1.0
 10
178.7893252138718
 20
105.6992598131266
 30
0.0
 10
178.7706319807414
 20
105.766842449567
 30
0.0
 10
178.7449766833296
 20
105.8333250190444
 30
0.0
 10
178.6848160606431
 20
105.9223201019419
 30
0.0
 10
178.6607437488888
 20
105.9503219989411
 30
0.0
 10
178.6023622285382
 20
105.9933983996062
 30
0.0
 10
178.5668934008852
 20
106.008291944534
 30
0.0
 10
178.5295175927365
 20
106.008291944534
 30
0.0
  0
ELLIPSE
  5
C8
330
1F
100
AcDbEntity
  8
0
  6
HIDDEN
 62
     7
370
     0
100
AcDbEllipse
 10
168.5124904223
 20
111.8375049402
 30
0.0
 11
-9.367417879781726
 21
19.7417491527499
 31
0.0
210
0.0
220
0.0
230
1.0
 40
0.3419987131
 41
3.292664382516905
 42
4.239566697061008
  0
SPLINE
  5
C9
330
1F
100
AcDbEntity
  8
0
  6
HIDDEN
 62
     7
370
     0
100
AcDbSpline
210
0.0
220
0.0
230
1.0
 70
     8
 71
     3
 72
    12
 73
     8
 74
     0
 42
0.00000001
 43
0.00000001
 12
1.0
 22
0.0
 32
0.0
 13
1.0
 23
0.0
 33
0.0
 40
0.0
 40
0.0
 40
0.0
 40
0.0
 40
0.2500000000000001
 40
0.2500000000000001
 40
0.5000000000000002
 40
0.5000000000000002
 40
1.0
 40
1.0
 40
1.0
 40
1.0
 10
178.5295175927365
 20
92.70584855995226
 30
0.0
 10
178.5670294787811
 20
92.70584855995226
 30
0.0
 10
178.6023168264858
 20
92.71035210421479
 30
0.0
 10
178.6612466747243
 20
92.72372530366809
 30
0.0
 10
178.6847724011933
 20
92.73221020623922
 30
0.0
 10
178.7450311889614
 20
92.7599580100738
 30
0.0
 10
178.7706259512507
 20
92.78094787381416
 30
0.0
 10
178.7893252138718
 20
92.80274865700369
 30
0.0
  0
LINE
  5
CA
330
1F
100
AcDbEntity
  8
0
  6
HIDDEN
 62
     7
370
     0
100
AcDbLine
 10
176.3933215041
 20
92.7058482041
 30
0.0
 11
178.529517514
 21
92.7058482041
 31
0.0
  0
SPLINE
  5
CB
330
1F
100
AcDbEntity
  8
0
  6
HIDDEN
 62
     7
370
     0
100
AcDbSpline
210
0.0
220
0.0
230
1.0
 70
     8
 71
     3
 72
    12
 73
     8
 74
     0
 42
0.00000001
 43
0.00000001
 12
1.0
 22
0.0
 32
0.0
 13
1.0
 23
0.0
 33
0.0
 40
0.0
 40
0.0
 40
0.0
 40
0.0
 40
0.4999999999999971
 40
0.4999999999999971
 40
0.7499999999999986
 40
0.7499999999999986
 40
1.0
 40
1.0
 40
1.0
 40
1.0
 10
176.1335139755995
 20
92.80274865700369
 30
0.0
 10
176.1522072087299
 20
92.78095490337573
 30
0.0
 10
176.1778625061417
 20
92.7599347416661
 30
0.0
 10
176.2380231288282
 20
92.73222939570239
 30
0.0
 10
176.2620954405825
 20
92.723594179509
 30
0.0
 10
176.3204769609331
 20
92.71037953428242
 30
0.0
 10
176.3559457885861
 20
92.70584855995226
 30
0.0
 10
176.3933215967348
 20
92.70584855995226
 30
0.0
  0
ELLIPSE
  5
CC
330
1F
100
AcDbEntity
  8
0
  6
HIDDEN
 62
     7
370
     0
100
AcDbEllipse
 10
186.4103487672
 20
111.8375049402
 30
0.0
 11
9.367417879781584
 21
19.74174915274993
 31
0.0
210
0.0
220
0.0
230
1.0
 40
0.3419987131
 41
2.043618610118588
 42
2.99052092466272
  0
SPLINE
  5
CD
330
1F
100
AcDbEntity
  8
0
  6
HIDDEN
 62
     7
370
     0
100
AcDbSpline
210
0.0
220
0.0
230
1.0
 70
     8
 71
     3
 72
    12
 73
     8
 74
     0
 42
0.00000001
 43
0.00000001
 12
1.0
 22
0.0
 32
0.0
 13
1.0
 23
0.0
 33
0.0
 40
0.0
 40
0.0
 40
0.0
 40
0.0
 40
0.2499999999999992
 40
0.2499999999999992
 40
0.4999999999999984
 40
0.4999999999999984
 40
1.0
 40
1.0
 40
1.0
 40
1.0
 10
176.3933215967348
 20
130.9691613204191
 30
0.0
 10
176.3558097106902
 20
130.9691613204191
 30
0.0
 10
176.3205223629854
 20
130.9646577761565
 30
0.0
 10
176.261592514747
 20
130.9512845767032
 30
0.0
 10
176.2380667882779
 20
130.9427996741321
 30
0.0
 10
176.1778080005099
 20
130.9150518702975
 30
0.0
 10
176.1522132382206
 20
130.8940620065571
 30
0.0
 10
176.1335139755995
 20
130.8722612233676
 30
0.0
  0
LINE
  5
CE
330
1F
100
AcDbEntity
  8
0
  6
HIDDEN
 62
     7
370
     0
100
AcDbLine
 10
178.529517514
 20
130.9691616763
 30
0.0
 11
176.3933215041
 21
130.9691616763
 31
0.0
  0
SPLINE
  5
CF
330
1F
100
AcDbEntity
  8
0
  6
HIDDEN
 62
     7
370
     0
100
AcDbSpline
210
0.0
220
0.0
230
1.0
 70
     8
 71
     3
 72
    12
 73
     8
 74
     0
 42
0.00000001
 43
0.00000001
 12
1.0
 22
0.0
 32
0.0
 13
1.0
 23
0.0
 33
0.0
 40
0.0
 40
0.0
 40
0.0
 40
0.0
 40
0.5000000000000006
 40
0.5000000000000006
 40
0.7500000000000002
 40
0.7500000000000002
 40
1.0
 40
1.0
 40
1.0
 40
1.0
 10
178.7893252138718
 20
130.8722612233676
 30
0.0
 10
178.7706319807414
 20
130.8940549769956
 30
0.0
 10
178.7449766833296
 20
130.9150751387052
 30
0.0
 10
178.6848160606431
 20
130.9427804846689
 30
0.0
 10
178.6607437488888
 20
130.9514157008623
 30
0.0
 10
178.6023622285382
 20
130.9646303460889
 30
0.0
 10
178.5668934008852
 20
130.9691613204191
 30
0.0
 10
178.5295175927365
 20
130.9691613204191
 30
0.0
  0
ELLIPSE
  5
D0
330
1F
100
AcDbEntity
  8
0
  6
HIDDEN
 62
     7
370
     0
100
AcDbEllipse
 10
168.5124904223
 20
111.8375049402
 30
0.0
 11
9.367417879781868
 21
19.74174915274993
 31
0.0
210
0.0
220
0.0
230
1.0
 40
0.3419987131
 41
5.185211263708414
 42
6.132113578252575
  0
SPLINE
  5
D1
330
1F
100
AcDbEntity
  8
0
  6
HIDDEN
 62
     7
370
     0
100
AcDbSpline
210
0.0
220
0.0
230
1.0
 70
     8
 71
     3
 72
    12
 73
     8
 74
     0
 42
0.00000001
 43
0.00000001
 12
1.0
 22
0.0
 32
0.0
 13
1.0
 23
0.0
 33
0.0
 40
0.0
 40
0.0
 40
0.0
 40
0.0
 40
0.2499999999999958
 40
0.2499999999999958
 40
0.4999999999999916
 40
0.4999999999999916
 40
1.0
 40
1.0
 40
1.0
 40
1.0
 10
178.5295175927365
 20
117.6667179358376
 30
0.0
 10
178.5670294787811
 20
117.6667179358376
 30
0.0
 10
178.6023168264858
 20
117.6815227501243
 30
0.0
 10
178.6612466747243
 20
117.7251146232502
 30
0.0
 10
178.6847724011934
 20
117.7526280493362
 30
0.0
 10
178.7450311889614
 20
117.8417597814498
 30
0.0
 10
178.7706259512507
 20
117.9081456320676
 30
0.0
 10
178.7893252138718
 20
117.975750067245
 30
0.0
  0
LINE
  5
D2
330
1F
100
AcDbEntity
  8
0
  6
HIDDEN
 62
     7
370
     0
100
AcDbLine
 10
176.3933215041
 20
117.6667181273
 30
0.0
 11
178.529517514
 21
117.6667181273
 31
0.0
  0
SPLINE
  5
D3
330
1F
100
AcDbEntity
  8
0
  6
HIDDEN
 62
     7
370
     0
100
AcDbSpline
210
0.0
220
0.0
230
1.0
 70
     8
 71
     3
 72
    12
 73
     8
 74
     0
 42
0.00000001
 43
0.00000001
 12
1.0
 22
0.0
 32
0.0
 13
1.0
 23
0.0
 33
0.0
 40
0.0
 40
0.0
 40
0.0
 40
0.0
 40
0.4999999999999956
 40
0.4999999999999956
 40
0.7499999999999978
 40
0.7499999999999978
 40
1.0
 40
1.0
 40
1.0
 40
1.0
 10
176.1335139755995
 20
117.9757500672449
 30
0.0
 10
176.1522072087299
 20
117.9081674308046
 30
0.0
 10
176.1778625061417
 20
117.8416848613272
 30
0.0
 10
176.2380231288282
 20
117.7526897784297
 30
0.0
 10
176.2620954405825
 20
117.7246878814305
 30
0.0
 10
176.3204769609331
 20
117.6816114807653
 30
0.0
 10
176.3559457885861
 20
117.6667179358376
 30
0.0
 10
176.3933215967348
 20
117.6667179358376
 30
0.0
  0
ELLIPSE
  5
D4
330
1F
100
AcDbEntity
  8
0
  6
HIDDEN
 62
     7
370
     0
100
AcDbEllipse
 10
186.4103487672
 20
111.8375049402
 30
0.0
 11
-9.367417879781755
 21
19.74174915274993
 31
0.0
210
0.0
220
0.0
230
1.0
 40
0.3419987131
 41
0.1510717289270505
 42
1.097974043471185
  0
LINE
  5
D5
330
1F
100
AcDbEntity
  8
0
  6
HIDDEN
 62
     7
370
     0
100
AcDbLine
 10
189.4614191477
 20
92.437504368
 30
0.0
 11
189.4614191477
 21
131.2375055124
 31
0.0
  0
LINE
  5
D6
330
1F
100
AcDbEntity
  8
0
  6
HIDDEN
 62
     7
370
     0
100
AcDbLine
 10
169.4614195947
 20
131.5375050028
 30
0.0
 11
169.4614195947
 21
92.1375048776
 31
0.0
  0
LINE
  5
D7
330
1F
100
AcDbEntity
  8
0
  6
HIDDEN
 62
     7
370
     0
100
AcDbLine
 10
189.4614191477
 20
93.8507137318
 30
0.0
 11
189.4614191477
 21
129.8242961486
 31
0.0
  0
LINE
  5
D8
330
1F
100
AcDbEntity
  8
0
  6
HIDDEN
 62
     7
370
     0
100
AcDbLine
 10
234.4614172105
 20
95.8375041802
 30
0.0
 11
234.4614172105
 21
127.8375057001
 31
0.0
  0
SPLINE
  5
D9
330
1F
100
AcDbEntity
  8
0
  6
HIDDEN
 62
     7
370
     0
100
AcDbSpline
210
0.0
220
0.0
230
1.0
 70
     8
 71
     3
 72
    66
 73
    62
 74
     0
 42
0.00000001
 43
0.00000001
 12
1.0
 22
0.0
 32
0.0
 13
1.0
 23
0.0
 33
0.0
 40
-0.0312500000000001
 40
-0.0312500000000001
 40
0.0
 40
0.0
 40
0.0312499999999997
 40
0.0312499999999997
 40
0.0624999999999994
 40
0.0624999999999994
 40
0.0937499999999991
 40
0.0937499999999991
 40
0.1249999999999988
 40
0.1249999999999988
 40
0.1562499999999985
 40
0.1562499999999985
 40
0.1874999999999982
 40
0.1874999999999982
 40
0.2187499999999979
 40
0.2187499999999979
 40
0.2499999999999977
 40
0.2499999999999977
 40
0.2812499999999974
 40
0.2812499999999974
 40
0.3124999999999972
 40
0.3124999999999972
 40
0.3437499999999969
 40
0.3437499999999969
 40
0.3749999999999967
 40
0.3749999999999967
 40
0.4374999999999972
 40
0.4374999999999972
 40
0.4999999999999977
 40
0.4999999999999977
 40
0.5312499999999979
 40
0.5312499999999979
 40
0.562499999999998
 40
0.562499999999998
 40
0.5937499999999982
 40
0.5937499999999982
 40
0.6249999999999983
 40
0.6249999999999983
 40
0.6562499999999984
 40
0.6562499999999984
 40
0.6874999999999986
 40
0.6874999999999986
 40
0.7187499999999988
 40
0.7187499999999988
 40
0.7499999999999989
 40
0.7499999999999989
 40
0.781249999999999
 40
0.781249999999999
 40
0.8124999999999991
 40
0.8124999999999991
 40
0.8437499999999993
 40
0.8437499999999993
 40
0.8749999999999994
 40
0.8749999999999994
 40
0.9062499999999996
 40
0.9062499999999996
 40
0.9374999999999997
 40
0.9374999999999997
 40
0.9687499999999999
 40
0.9687499999999999
 40
1.0
 40
1.0
 40
1.03125
 40
1.03125
 10
224.2689397843853
 20
109.3398935629407
 30
0.0
 10
223.9305070170539
 20
109.6230357736119
 30
0.0
 10
223.7772661637087
 20
109.778765130219
 30
0.0
 10
223.5034181167874
 20
110.1194139482645
 30
0.0
 10
223.3821747053384
 20
110.3063569925357
 30
0.0
 10
223.1851989508023
 20
110.6955116770285
 30
0.0
 10
223.1079090600194
 20
110.8990077370557
 30
0.0
 10
222.9985972116808
 20
111.3251446566269
 30
0.0
 10
222.9679171588697
 20
111.5453127199743
 30
0.0
 10
222.9568019569246
 20
111.9819723379057
 30
0.0
 10
222.9762716436866
 20
112.2037088557115
 30
0.0
 10
223.0641763132732
 20
112.6350020772073
 30
0.0
 10
223.1315521326386
 20
112.8429604328629
 30
0.0
 10
223.3113436843861
 20
113.2441607521683
 30
0.0
 10
223.4234547440862
 20
113.4353904262335
 30
0.0
 10
223.6814515877022
 20
113.787503029514
 30
0.0
 10
223.8299079289347
 20
113.9518960964789
 30
0.0
 10
224.1540702740695
 20
114.2471092779847
 30
0.0
 10
224.3287219406744
 20
114.3776510544497
 30
0.0
 10
224.7020226126979
 20
114.6064648738173
 30
0.0
 10
224.9013746506795
 20
114.704524012002
 30
0.0
 10
225.3089884483517
 20
114.8617471325421
 30
0.0
 10
225.5190055133878
 20
114.92213973465
 30
0.0
 10
225.9515596744411
 20
115.0064054622085
 30
0.0
 10
226.1715028087633
 20
115.0294634782949
 30
0.0
 10
226.8266300267036
 20
115.0417713970929
 30
0.0
 10
227.270367271139
 20
114.9731155911594
 30
0.0
 10
228.0949491607125
 20
114.6913148655492
 30
0.0
 10
228.4871381636522
 20
114.4740808182607
 30
0.0
 10
228.987274194312
 20
114.0564789627639
 30
0.0
 10
229.142241091458
 20
113.8999819262309
 30
0.0
 10
229.4180673310623
 20
113.5576805563464
 30
0.0
 10
229.5366526226578
 20
113.3752847308843
 30
0.0
 10
229.7343091546147
 20
112.9873261062891
 30
0.0
 10
229.8139827705631
 20
112.7786445890735
 30
0.0
 10
229.9234512336878
 20
112.3539819394662
 30
0.0
 10
229.9542172147727
 20
112.1378587135882
 30
0.0
 10
229.9663989826456
 20
111.6977886231411
 30
0.0
 10
229.9470172902126
 20
111.4756301748081
 30
0.0
 10
229.8604452437835
 20
111.0466840062607
 30
0.0
 10
229.7922484068664
 20
110.8346977549418
 30
0.0
 10
229.6128468324712
 20
110.4333679390122
 30
0.0
 10
229.502673717471
 20
110.2446317220778
 30
0.0
 10
229.2433670786554
 20
109.8896958520846
 30
0.0
 10
229.0951120218825
 20
109.7254669250482
 30
0.0
 10
228.7727494746925
 20
109.4311654943842
 30
0.0
 10
228.595868978183
 20
109.2985246907759
 30
0.0
 10
228.2212242418317
 20
109.0687032672625
 30
0.0
 10
228.0253272837257
 20
108.9722204345633
 30
0.0
 10
227.6171013423226
 20
108.8142761374507
 30
0.0
 10
227.4029165117273
 20
108.7527034683762
 30
0.0
 10
226.9725945122181
 20
108.6688486082693
 30
0.0
 10
226.7552401103633
 20
108.6457784554094
 30
0.0
 10
226.3161504853221
 20
108.6372137865817
 30
0.0
 10
226.0936800181711
 20
108.6522381808294
 30
0.0
 10
225.661352984477
 20
108.7194403016953
 30
0.0
 10
225.4493430751605
 20
108.7714072143376
 30
0.0
 10
225.0338459023077
 20
108.9132165877878
 30
0.0
 10
224.8308348127665
 20
109.0034051287182
 30
0.0
 10
224.449522633572
 20
109.2163812075538
 30
0.0
 10
224.2689397843853
 20
109.3398935629407
 30
0.0
 10
223.9305070170539
 20
109.6230357736119
 30
0.0
  0
SPLINE
  5
DA
330
1F
100
AcDbEntity
  8
0
  6
HIDDEN
 62
     7
370
     0
100
AcDbSpline
210
0.0
220
0.0
230
1.0
 70
     8
 71
     3
 72
    66
 73
    62
 74
     0
 42
0.00000001
 43
0.00000001
 12
1.0
 22
0.0
 32
0.0
 13
1.0
 23
0.0
 33
0.0
 40
-0.0312499999999996
 40
-0.0312499999999996
 40
0.0
 40
0.0
 40
0.0312500000000005
 40
0.0312500000000005
 40
0.062500000000001
 40
0.062500000000001
 40
0.0937500000000015
 40
0.0937500000000015
 40
0.125000000000002
 40
0.125000000000002
 40
0.1562500000000025
 40
0.1562500000000025
 40
0.187500000000003
 40
0.187500000000003
 40
0.2187500000000034
 40
0.2187500000000034
 40
0.2500000000000039
 40
0.2500000000000039
 40
0.2812500000000044
 40
0.2812500000000044
 40
0.3125000000000049
 40
0.3125000000000049
 40
0.3437500000000054
 40
0.3437500000000054
 40
0.3750000000000059
 40
0.3750000000000059
 40
0.4375000000000058
 40
0.4375000000000058
 40
0.5000000000000058
 40
0.5000000000000058
 40
0.5312500000000053
 40
0.5312500000000053
 40
0.562500000000005
 40
0.562500000000005
 40
0.5937500000000046
 40
0.5937500000000046
 40
0.6250000000000041
 40
0.6250000000000041
 40
0.6562500000000038
 40
0.6562500000000038
 40
0.6875000000000033
 40
0.6875000000000033
 40
0.7187500000000029
 40
0.7187500000000029
 40
0.7500000000000024
 40
0.7500000000000024
 40
0.7812500000000022
 40
0.7812500000000022
 40
0.8125000000000019
 40
0.8125000000000019
 40
0.8437500000000016
 40
0.8437500000000016
 40
0.8750000000000013
 40
0.8750000000000013
 40
0.906250000000001
 40
0.906250000000001
 40
0.9375000000000007
 40
0.9375000000000007
 40
0.9687500000000004
 40
0.9687500000000004
 40
1.0
 40
1.0
 40
1.03125
 40
1.03125
 10
214.2689397843853
 20
109.3398935629407
 30
0.0
 10
213.9305070170539
 20
109.6230357736119
 30
0.0
 10
213.7772661637086
 20
109.778765130219
 30
0.0
 10
213.5034181167874
 20
110.1194139482645
 30
0.0
 10
213.3821747053384
 20
110.3063569925357
 30
0.0
 10
213.1851989508023
 20
110.6955116770285
 30
0.0
 10
213.1079090600194
 20
110.8990077370557
 30
0.0
 10
212.9985972116808
 20
111.3251446566269
 30
0.0
 10
212.9679171588698
 20
111.5453127199743
 30
0.0
 10
212.9568019569246
 20
111.9819723379057
 30
0.0
 10
212.9762716436866
 20
112.2037088557115
 30
0.0
 10
213.0641763132732
 20
112.6350020772073
 30
0.0
 10
213.1315521326386
 20
112.8429604328629
 30
0.0
 10
213.3113436843861
 20
113.2441607521683
 30
0.0
 10
213.4234547440862
 20
113.4353904262335
 30
0.0
 10
213.6814515877022
 20
113.787503029514
 30
0.0
 10
213.8299079289348
 20
113.951896096479
 30
0.0
 10
214.1540702740695
 20
114.2471092779847
 30
0.0
 10
214.3287219406744
 20
114.3776510544497
 30
0.0
 10
214.7020226126978
 20
114.6064648738173
 30
0.0
 10
214.9013746506795
 20
114.704524012002
 30
0.0
 10
215.3089884483517
 20
114.8617471325421
 30
0.0
 10
215.5190055133878
 20
114.92213973465
 30
0.0
 10
215.9515596744411
 20
115.0064054622085
 30
0.0
 10
216.1715028087633
 20
115.0294634782949
 30
0.0
 10
216.8266300267037
 20
115.0417713970929
 30
0.0
 10
217.270367271139
 20
114.9731155911594
 30
0.0
 10
218.0949491607125
 20
114.6913148655491
 30
0.0
 10
218.4871381636521
 20
114.4740808182607
 30
0.0
 10
218.987274194312
 20
114.0564789627639
 30
0.0
 10
219.142241091458
 20
113.8999819262309
 30
0.0
 10
219.4180673310623
 20
113.5576805563464
 30
0.0
 10
219.5366526226578
 20
113.3752847308843
 30
0.0
 10
219.7343091546148
 20
112.9873261062891
 30
0.0
 10
219.8139827705631
 20
112.7786445890735
 30
0.0
 10
219.9234512336878
 20
112.3539819394662
 30
0.0
 10
219.9542172147727
 20
112.1378587135882
 30
0.0
 10
219.9663989826456
 20
111.697788623141
 30
0.0
 10
219.9470172902126
 20
111.4756301748081
 30
0.0
 10
219.8604452437835
 20
111.0466840062607
 30
0.0
 10
219.7922484068664
 20
110.8346977549418
 30
0.0
 10
219.6128468324712
 20
110.4333679390122
 30
0.0
 10
219.5026737174711
 20
110.2446317220778
 30
0.0
 10
219.2433670786554
 20
109.8896958520845
 30
0.0
 10
219.0951120218825
 20
109.7254669250482
 30
0.0
 10
218.7727494746925
 20
109.4311654943842
 30
0.0
 10
218.595868978183
 20
109.2985246907759
 30
0.0
 10
218.2212242418318
 20
109.0687032672625
 30
0.0
 10
218.0253272837257
 20
108.9722204345633
 30
0.0
 10
217.6171013423225
 20
108.8142761374507
 30
0.0
 10
217.4029165117273
 20
108.7527034683762
 30
0.0
 10
216.972594512218
 20
108.6688486082693
 30
0.0
 10
216.7552401103632
 20
108.6457784554094
 30
0.0
 10
216.3161504853221
 20
108.6372137865817
 30
0.0
 10
216.0936800181711
 20
108.6522381808294
 30
0.0
 10
215.661352984477
 20
108.7194403016953
 30
0.0
 10
215.4493430751605
 20
108.7714072143376
 30
0.0
 10
215.0338459023076
 20
108.9132165877878
 30
0.0
 10
214.8308348127665
 20
109.0034051287182
 30
0.0
 10
214.449522633572
 20
109.2163812075538
 30
0.0
 10
214.2689397843853
 20
109.3398935629407
 30
0.0
 10
213.9305070170539
 20
109.6230357736119
 30
0.0
  0
SPLINE
  5
DB
330
1F
100
AcDbEntity
  8
0
  6
HIDDEN
 62
     7
370
     0
100
AcDbSpline
210
0.0
220
0.0
230
1.0
 70
     8
 71
     3
 72
    66
 73
    62
 74
     0
 42
0.00000001
 43
0.00000001
 12
1.0
 22
0.0
 32
0.0
 13
1.0
 23
0.0
 33
0.0
 40
-0.0312500000000001
 40
-0.0312500000000001
 40
0.0
 40
0.0
 40
0.0312499999999997
 40
0.0312499999999997
 40
0.0624999999999995
 40
0.0624999999999995
 40
0.0937499999999992
 40
0.0937499999999992
 40
0.1249999999999989
 40
0.1249999999999989
 40
0.1562499999999986
 40
0.1562499999999986
 40
0.1874999999999983
 40
0.1874999999999983
 40
0.218749999999998
 40
0.218749999999998
 40
0.2499999999999977
 40
0.2499999999999977
 40
0.2812499999999974
 40
0.2812499999999974
 40
0.3124999999999971
 40
0.3124999999999971
 40
0.3437499999999968
 40
0.3437499999999968
 40
0.3749999999999964
 40
0.3749999999999964
 40
0.4374999999999968
 40
0.4374999999999968
 40
0.4999999999999972
 40
0.4999999999999972
 40
0.5312499999999974
 40
0.5312499999999974
 40
0.5624999999999976
 40
0.5624999999999976
 40
0.5937499999999978
 40
0.5937499999999978
 40
0.6249999999999979
 40
0.6249999999999979
 40
0.6562499999999981
 40
0.6562499999999981
 40
0.6874999999999983
 40
0.6874999999999983
 40
0.7187499999999984
 40
0.7187499999999984
 40
0.7499999999999987
 40
0.7499999999999987
 40
0.7812499999999989
 40
0.7812499999999989
 40
0.812499999999999
 40
0.812499999999999
 40
0.8437499999999992
 40
0.8437499999999992
 40
0.8749999999999993
 40
0.8749999999999993
 40
0.9062499999999996
 40
0.9062499999999996
 40
0.9374999999999998
 40
0.9374999999999998
 40
0.9687499999999999
 40
0.9687499999999999
 40
1.0
 40
1.0
 40
1.03125
 40
1.03125
 10
204.2689397843853
 20
109.3398935629407
 30
0.0
 10
203.9305070170539
 20
109.6230357736119
 30
0.0
 10
203.7772661637086
 20
109.778765130219
 30
0.0
 10
203.5034181167874
 20
110.1194139482645
 30
0.0
 10
203.3821747053384
 20
110.3063569925357
 30
0.0
 10
203.1851989508023
 20
110.6955116770285
 30
0.0
 10
203.1079090600194
 20
110.8990077370557
 30
0.0
 10
202.9985972116808
 20
111.3251446566269
 30
0.0
 10
202.9679171588698
 20
111.5453127199743
 30
0.0
 10
202.9568019569246
 20
111.9819723379057
 30
0.0
 10
202.9762716436866
 20
112.2037088557115
 30
0.0
 10
203.0641763132733
 20
112.6350020772073
 30
0.0
 10
203.1315521326386
 20
112.8429604328629
 30
0.0
 10
203.3113436843861
 20
113.2441607521683
 30
0.0
 10
203.4234547440862
 20
113.4353904262335
 30
0.0
 10
203.6814515877022
 20
113.787503029514
 30
0.0
 10
203.8299079289348
 20
113.951896096479
 30
0.0
 10
204.1540702740695
 20
114.2471092779847
 30
0.0
 10
204.3287219406744
 20
114.3776510544497
 30
0.0
 10
204.7020226126979
 20
114.6064648738173
 30
0.0
 10
204.9013746506795
 20
114.704524012002
 30
0.0
 10
205.3089884483517
 20
114.8617471325421
 30
0.0
 10
205.5190055133878
 20
114.92213973465
 30
0.0
 10
205.9515596744411
 20
115.0064054622085
 30
0.0
 10
206.1715028087633
 20
115.0294634782949
 30
0.0
 10
206.8266300267036
 20
115.0417713970929
 30
0.0
 10
207.270367271139
 20
114.9731155911594
 30
0.0
 10
208.0949491607125
 20
114.6913148655491
 30
0.0
 10
208.4871381636522
 20
114.4740808182607
 30
0.0
 10
208.987274194312
 20
114.0564789627639
 30
0.0
 10
209.1422410914579
 20
113.8999819262309
 30
0.0
 10
209.4180673310623
 20
113.5576805563464
 30
0.0
 10
209.5366526226578
 20
113.3752847308843
 30
0.0
 10
209.7343091546148
 20
112.9873261062891
 30
0.0
 10
209.8139827705631
 20
112.7786445890735
 30
0.0
 10
209.9234512336878
 20
112.3539819394662
 30
0.0
 10
209.9542172147727
 20
112.1378587135882
 30
0.0
 10
209.9663989826456
 20
111.6977886231411
 30
0.0
 10
209.9470172902126
 20
111.4756301748081
 30
0.0
 10
209.8604452437835
 20
111.0466840062607
 30
0.0
 10
209.7922484068664
 20
110.8346977549418
 30
0.0
 10
209.6128468324712
 20
110.4333679390122
 30
0.0
 10
209.5026737174711
 20
110.2446317220778
 30
0.0
 10
209.2433670786555
 20
109.8896958520846
 30
0.0
 10
209.0951120218826
 20
109.7254669250482
 30
0.0
 10
208.7727494746925
 20
109.4311654943842
 30
0.0
 10
208.5958689781831
 20
109.2985246907759
 30
0.0
 10
208.2212242418318
 20
109.0687032672625
 30
0.0
 10
208.0253272837257
 20
108.9722204345633
 30
0.0
 10
207.6171013423225
 20
108.8142761374507
 30
0.0
 10
207.4029165117273
 20
108.7527034683762
 30
0.0
 10
206.9725945122181
 20
108.6688486082693
 30
0.0
 10
206.7552401103633
 20
108.6457784554094
 30
0.0
 10
206.3161504853221
 20
108.6372137865817
 30
0.0
 10
206.0936800181711
 20
108.6522381808294
 30
0.0
 10
205.661352984477
 20
108.7194403016953
 30
0.0
 10
205.4493430751605
 20
108.7714072143376
 30
0.0
 10
205.0338459023076
 20
108.9132165877878
 30
0.0
 10
204.8308348127664
 20
109.0034051287182
 30
0.0
 10
204.449522633572
 20
109.2163812075538
 30
0.0
 10
204.2689397843853
 20
109.3398935629407
 30
0.0
 10
203.9305070170539
 20
109.6230357736119
 30
0.0
  0
SPLINE
  5
DC
330
1F
100
AcDbEntity
  8
0
  6
HIDDEN
 62
     7
370
     0
100
AcDbSpline
210
0.0
220
0.0
230
1.0
 70
     8
 71
     3
 72
    39
 73
    35
 74
     0
 42
0.00000001
 43
0.00000001
 12
1.0
 22
0.0
 32
0.0
 13
1.0
 23
0.0
 33
0.0
 40
0.0
 40
0.0
 40
0.0
 40
0.0
 40
0.0156159541362341
 40
0.0403227372047601
 40
0.062905180166796
 40
0.1088058460570915
 40
0.1321652808919665
 40
0.1554563372831151
 40
0.2027272235095445
 40
0.2267398790821397
 40
0.2520114270021235
 40
0.2532404674910814
 40
0.2924059139341771
 40
0.3032928679883264
 40
0.3293408529357635
 40
0.3568332232580897
 40
0.4126663911645619
 40
0.4410594291225544
 40
0.4700055755735348
 40
0.5288510638606536
 40
0.5588181840683818
 40
0.5881951287994991
 40
0.6177785806689376
 40
0.6480224598264669
 40
0.6784993416264151
 40
0.7074177014332381
 40
0.7663375128178321
 40
0.7964412942895176
 40
0.8236378603692031
 40
0.8791343005782533
 40
0.9075463143885268
 40
0.9321074869559459
 40
0.9821953820119956
 40
1.0
 40
1.0
 40
1.0
 40
1.0
 10
202.9712142173953
 20
94.8391729463673
 30
0.0
 10
202.9681856096399
 20
94.8386572193536
 30
0.0
 10
202.9603652898854
 20
94.8373255348045
 30
0.0
 10
202.9892761907812
 20
94.84225456041598
 30
0.0
 10
203.0478239154017
 20
94.8521277524779
 30
0.0
 10
203.1474190442969
 20
94.86861863846215
 30
0.0
 10
203.282564098868
 20
94.89005672974719
 30
0.0
 10
203.4433963752719
 20
94.91467595862804
 30
0.0
 10
203.6376299276145
 20
94.9430239479129
 30
0.0
 10
203.8688410164756
 20
94.97319127822747
 30
0.0
 10
203.9922988496192
 20
94.98955746630674
 30
0.0
 10
204.1777819903337
 20
95.0096092148475
 30
0.0
 10
204.323249514013
 20
95.02518661650065
 30
0.0
 10
204.5350024605465
 20
95.0487469915876
 30
0.0
 10
204.7353722706683
 20
95.06647782930584
 30
0.0
 10
205.0802921225176
 20
95.09444054405799
 30
0.0
 10
205.4546415524626
 20
95.11692915211334
 30
0.0
 10
205.8438316992005
 20
95.131932059526
 30
0.0
 10
206.2490209154153
 20
95.14149308552248
 30
0.0
 10
206.6647998013362
 20
95.14162443695416
 30
0.0
 10
207.0770546297491
 20
95.13204646456398
 30
0.0
 10
207.3830216512252
 20
95.12020320171791
 30
0.0
 10
207.6834519473563
 20
95.1040464809
 30
0.0
 10
207.9787187006534
 20
95.0837797380116
 30
0.0
 10
208.2605885887195
 20
95.06035544904532
 30
0.0
 10
208.614897240904
 20
95.02615694080023
 30
0.0
 10
208.9386180927266
 20
94.98863031215444
 30
0.0
 10
209.2175541548309
 20
94.95194612364232
 30
0.0
 10
209.4607985612823
 20
94.91771103836331
 30
0.0
 10
209.6577582229796
 20
94.88747898463946
 30
0.0
 10
209.7999884596798
 20
94.86452811371367
 30
0.0
 10
209.9023848067759
 20
94.84758400326042
 30
0.0
 10
209.9576805565389
 20
94.8381418446914
 30
0.0
 10
209.9585385702996
 20
94.83799659345314
 30
0.0
 10
209.9587635819621
 20
94.83795850173
 30
0.0
  0
SPLINE
  5
DD
330
1F
100
AcDbEntity
  8
0
  6
HIDDEN
 62
     7
370
     0
100
AcDbSpline
210
0.0
220
0.0
230
1.0
 70
     8
 71
     3
 72
    15
 73
    11
 74
     0
 42
0.00000001
 43
0.00000001
 12
1.0
 22
0.0
 32
0.0
 13
1.0
 23
0.0
 33
0.0
 40
0.0
 40
0.0
 40
0.0
 40
0.0
 40
0.0903232053889379
 40
0.2733129512850649
 40
0.3661860882045591
 40
0.4675172186462041
 40
0.6742282438913849
 40
0.7800029078756872
 40
0.8724394798403119
 40
1.0
 40
1.0
 40
1.0
 40
1.0
 10
204.099723858089
 20
128.6734515298939
 30
0.0
 10
204.0386020042815
 20
128.6807767828042
 30
0.0
 10
203.8536507043336
 20
128.7029425870756
 30
0.0
 10
203.6348636819508
 20
128.7326828178872
 30
0.0
 10
203.4393218372888
 20
128.7610315077211
 30
0.0
 10
203.2568813322935
 20
128.788760903861
 30
0.0
 10
203.1117755181053
 20
128.812244522267
 30
0.0
 10
203.0215622080057
 20
128.8272965469013
 30
0.0
 10
202.9702142511927
 20
128.8359974967183
 30
0.0
 10
202.9708472100146
 20
128.8358958636968
 30
0.0
 10
202.9712142173953
 20
128.8358369340039
 30
0.0
  0
SPLINE
  5
DE
330
1F
100
AcDbEntity
  8
0
  6
HIDDEN
 62
     7
370
     0
100
AcDbSpline
210
0.0
220
0.0
230
1.0
 70
     8
 71
     3
 72
    31
 73
    27
 74
     0
 42
0.00000001
 43
0.00000001
 12
1.0
 22
0.0
 32
0.0
 13
1.0
 23
0.0
 33
0.0
 40
0.0
 40
0.0
 40
0.0
 40
0.0
 40
0.0105018324828927
 40
0.0411388741387911
 40
0.1034614814076459
 40
0.1352121508171155
 40
0.1659717465302117
 40
0.2284231573060949
 40
0.260160710023323
 40
0.2931316294142247
 40
0.3600322525810803
 40
0.3940087532414267
 40
0.4300309966366102
 40
0.5031611571190331
 40
0.5403323641743355
 40
0.5787730696318633
 40
0.6568944110281905
 40
0.6966598139697643
 40
0.7361241085344399
 40
0.7758615006149694
 40
0.8164678685145602
 40
0.8573782854428601
 40
0.8925102279638346
 40
0.9521212268840643
 40
0.9637798165777817
 40
1.0
 40
1.0
 40
1.0
 40
1.0
 10
209.9587635819621
 20
128.8370513786411
 30
0.0
 10
209.959528590646
 20
128.8371822520297
 30
0.0
 10
209.9625253624963
 20
128.8376949229248
 30
0.0
 10
209.9389986965381
 20
128.8336802122812
 30
0.0
 10
209.8781322219755
 20
128.8233606982915
 30
0.0
 10
209.7755279124885
 20
128.8065055841331
 30
0.0
 10
209.6486749328419
 20
128.7861834881468
 30
0.0
 10
209.4863804119232
 20
128.7612663123939
 30
0.0
 10
209.2899405819535
 20
128.7331345321925
 30
0.0
 10
209.0658823318492
 20
128.7027183033031
 30
0.0
 10
208.8077397442024
 20
128.6708373822549
 30
0.0
 10
208.5190540081019
 20
128.6396703021977
 30
0.0
 10
208.201101121429
 20
128.6088488838475
 30
0.0
 10
207.8531221253956
 20
128.5813800171663
 30
0.0
 10
207.4840578635728
 20
128.5598149498341
 30
0.0
 10
207.0938091059004
 20
128.5425463589425
 30
0.0
 10
206.6863754675639
 20
128.5336503827821
 30
0.0
 10
206.2753969330826
 20
128.5343035258969
 30
0.0
 10
205.965833564959
 20
128.539614252874
 30
0.0
 10
205.6576052782118
 20
128.549682240812
 30
0.0
 10
205.3511559050322
 20
128.5643688207085
 30
0.0
 10
205.0649821260574
 20
128.5826127375599
 30
0.0
 10
204.7397814800855
 20
128.6070492325704
 30
0.0
 10
204.5105722603772
 20
128.6311129797591
 30
0.0
 10
204.2672349617924
 20
128.6534753701404
 30
0.0
 10
204.17186842624
 20
128.6648480917524
 30
0.0
 10
204.099723858089
 20
128.6734515298939
 30
0.0
  0
SPLINE
  5
DF
330
1F
100
AcDbEntity
  8
0
  6
HIDDEN
 62
     7
370
     0
100
AcDbSpline
210
0.0
220
0.0
230
1.0
 70
     8
 71
     3
 72
    28
 73
    24
 74
     0
 42
0.00000001
 43
0.00000001
 12
1.0
 22
0.0
 32
0.0
 13
1.0
 23
0.0
 33
0.0
 40
0.0
 40
0.0
 40
0.0
 40
0.0
 40
0.0402766401888648
 40
0.0855823779943419
 40
0.1321340528082193
 40
0.1788516237918018
 40
0.2267276432093829
 40
0.2387155263807658
 40
0.2655628184032152
 40
0.2774158575159744
 40
0.3293490175173502
 40
0.3844976502666559
 40
0.4410871326380855
 40
0.4991591860066895
 40
0.55886274728579
 40
0.6178054246651772
 40
0.6785027261388029
 40
0.7365349204072262
 40
0.7964522931814141
 40
0.8510401219107233
 40
0.9075595507005992
 40
0.9568556411534476
 40
1.0
 40
1.0
 40
1.0
 40
1.0
 10
222.9682782416053
 20
94.83867189482216
 30
0.0
 10
222.9714632031832
 20
94.83922367394547
 30
0.0
 10
222.9782308130033
 20
94.84039612947501
 30
0.0
 10
223.0904289396227
 20
94.85928471388385
 30
0.0
 10
223.2731845885835
 20
94.88898403930588
 30
0.0
 10
223.5361844484336
 20
94.92822941638926
 30
0.0
 10
223.7688754133702
 20
94.96165969119473
 30
0.0
 10
224.001624427742
 20
94.98889569370226
 30
0.0
 10
224.1356352015352
 20
95.00476515059349
 30
0.0
 10
224.3727096877052
 20
95.03337703246814
 30
0.0
 10
224.7376141325827
 20
95.06804643732752
 30
0.0
 10
225.2637099967766
 20
95.10746153059709
 30
0.0
 10
225.8452821441332
 20
95.13421220841249
 30
0.0
 10
226.4574819691661
 20
95.14403241479211
 30
0.0
 10
227.0786721583308
 20
95.13440982705207
 30
0.0
 10
227.6914683281609
 20
95.10578797519598
 30
0.0
 10
228.263787423087
 20
95.06192024173582
 30
0.0
 10
228.7861229695928
 20
95.00775010289429
 30
0.0
 10
229.22238156304
 20
94.95220139853774
 30
0.0
 10
229.5720199501129
 20
94.90114803656402
 30
0.0
 10
229.8063578346131
 20
94.86367929887939
 30
0.0
 10
229.941503895734
 20
94.84092467334827
 30
0.0
 10
229.9506880372762
 20
94.83934049260758
 30
0.0
 10
229.9549745146938
 20
94.83860111430648
 30
0.0
  0
SPLINE
  5
E0
330
1F
100
AcDbEntity
  8
0
  6
HIDDEN
 62
     7
370
     0
100
AcDbSpline
210
0.0
220
0.0
230
1.0
 70
     8
 71
     3
 72
    14
 73
    10
 74
     0
 42
0.00000001
 43
0.00000001
 12
1.0
 22
0.0
 32
0.0
 13
1.0
 23
0.0
 33
0.0
 40
0.0
 40
0.0
 40
0.0
 40
0.0
 40
0.0713356504373545
 40
0.1810484101901105
 40
0.366155563294337
 40
0.5694741850736279
 40
0.7798596107072079
 40
0.9653121421524563
 40
1.0
 40
1.0
 40
1.0
 40
1.0
 10
224.0997234110542
 20
128.6734515298939
 30
0.0
 10
224.0539117819273
 20
128.6792227742315
 30
0.0
 10
223.9376428116329
 20
128.6938700733832
 30
0.0
 10
223.6933940279287
 20
128.7237541332798
 30
0.0
 10
223.4276842836736
 20
128.7625365667467
 30
0.0
 10
223.1701930349784
 20
128.8024433858748
 30
0.0
 10
223.016740183375
 20
128.8280645254952
 30
0.0
 10
222.9523490966788
 20
128.8390476229384
 30
0.0
 10
222.966109926589
 20
128.8367068281622
 30
0.0
 10
222.9682782416053
 20
128.836337985549
 30
0.0
  0
SPLINE
  5
E1
330
1F
100
AcDbEntity
  8
0
  6
HIDDEN
 62
     7
370
     0
100
AcDbSpline
210
0.0
220
0.0
230
1.0
 70
     8
 71
     3
 72
    23
 73
    19
 74
     0
 42
0.00000001
 43
0.00000001
 12
1.0
 22
0.0
 32
0.0
 13
1.0
 23
0.0
 33
0.0
 40
0.0
 40
0.0
 40
0.0
 40
0.0
 40
0.0105257886512151
 40
0.071990333822072
 40
0.135238153579075
 40
0.1969323119391087
 40
0.2601956116255479
 40
0.3263188672790074
 40
0.394055030263019
 40
0.4663018859294473
 40
0.5403882921793869
 40
0.6174960618622102
 40
0.6967209595364615
 40
0.7758903750831455
 40
0.8573682768748598
 40
0.927817094617669
 40
0.988212672415387
 40
1.0
 40
1.0
 40
1.0
 40
1.0
 10
229.9549745146938
 20
128.8364087660647
 30
0.0
 10
229.9570536760786
 20
128.8367623413525
 30
0.0
 10
229.9712739428084
 20
128.8391805927388
 30
0.0
 10
229.91406519596
 20
128.8294059096921
 30
0.0
 10
229.7867969125747
 20
128.8081782426749
 30
0.0
 10
229.5751874333914
 20
128.7745498908764
 30
0.0
 10
229.2950672650333
 20
128.7332649227958
 30
0.0
 10
228.9432034001156
 20
128.686664629731
 30
0.0
 10
228.5196495230616
 20
128.6384643869347
 30
0.0
 10
228.031333919376
 20
128.5937575656524
 30
0.0
 10
227.4829243903266
 20
128.5577128542753
 30
0.0
 10
226.8908656142837
 20
128.535746815397
 30
0.0
 10
226.2741936817795
 20
128.5318808779255
 30
0.0
 10
225.6506579395057
 20
128.5475131390137
 30
0.0
 10
225.0740605084773
 20
128.5801973840872
 30
0.0
 10
224.5710083975022
 20
128.6213134373847
 30
0.0
 10
224.278225416058
 20
128.6546160167246
 30
0.0
 10
224.1247806430416
 20
128.6708074933573
 30
0.0
 10
224.0997234110542
 20
128.6734515298939
 30
0.0
  0
SPLINE
  5
E2
330
1F
100
AcDbEntity
  8
0
  6
HIDDEN
 62
     7
370
     0
100
AcDbSpline
210
0.0
220
0.0
230
1.0
 70
     8
 71
     3
 72
    39
 73
    35
 74
     0
 42
0.00000001
 43
0.00000001
 12
1.0
 22
0.0
 32
0.0
 13
1.0
 23
0.0
 33
0.0
 40
0.0
 40
0.0
 40
0.0
 40
0.0
 40
0.0156159437695025
 40
0.0403226920935618
 40
0.0629051360146985
 40
0.108805803854445
 40
0.1321653867061021
 40
0.1554564440864472
 40
0.2027273323205222
 40
0.2267399889129609
 40
0.2520115379062547
 40
0.2532402946156779
 40
0.2924057427221726
 40
0.3032926972387027
 40
0.3293406832924259
 40
0.356833373769994
 40
0.4126662091093551
 40
0.4410592482732307
 40
0.4700053959535853
 40
0.5288512403500696
 40
0.5588180109158267
 40
0.5881949568946147
 40
0.6177784100204945
 40
0.648022290462514
 40
0.6784994897229458
 40
0.7074178507579629
 40
0.7663373902918447
 40
0.7964414143368339
 40
0.823637981571587
 40
0.8791342472320273
 40
0.9075462622489899
 40
0.9321074358595485
 40
0.9821953876782794
 40
1.0
 40
1.0
 40
1.0
 40
1.0
 10
212.9712121312328
 20
94.8391729463673
 30
0.0
 10
212.9681852400329
 20
94.8386572188731
 30
0.0
 10
212.9603693562378
 20
94.83732553368903
 30
0.0
 10
212.9892723363124
 20
94.84225456898443
 30
0.0
 10
213.0478231804466
 20
94.85212773767303
 30
0.0
 10
213.1474145968435
 20
94.86861875292462
 30
0.0
 10
213.2825665986607
 20
94.89005664741411
 30
0.0
 10
213.4433970608945
 20
94.9146760425576
 30
0.0
 10
213.6376337739047
 20
94.94302352913557
 30
0.0
 10
213.8688388969636
 20
94.97319201692552
 30
0.0
 10
213.9923088074049
 20
94.98955559442233
 30
0.0
 10
214.1777663615828
 20
95.00961211150063
 30
0.0
 10
214.3232490269167
 20
95.0251863058172
 30
0.0
 10
214.5349998312628
 20
95.04874709449541
 30
0.0
 10
214.735371155697
 20
95.06647795836668
 30
0.0
 10
215.0802921533856
 20
95.09444018352634
 30
0.0
 10
215.4546404623729
 20
95.11692926641881
 30
0.0
 10
215.8438296436279
 20
95.13193204891535
 30
0.0
 10
216.2490200390837
 20
95.14149310578519
 30
0.0
 10
216.6647990173845
 20
95.14162453517835
 30
0.0
 10
217.0770537419291
 20
95.13204639913519
 30
0.0
 10
217.3830195511551
 20
95.12020320105563
 30
0.0
 10
217.6834499270792
 20
95.10404650261736
 30
0.0
 10
217.9787173918401
 20
95.08377957838516
 30
0.0
 10
218.2605894166107
 20
95.06035560595298
 30
0.0
 10
218.6148984411219
 20
95.02615704852019
 30
0.0
 10
218.9386155762525
 20
94.9886299355352
 30
0.0
 10
219.217555768719
 20
94.95194626627028
 30
0.0
 10
219.4608000231349
 20
94.91771107429511
 30
0.0
 10
219.6577557326777
 20
94.88747892440723
 30
0.0
 10
219.7999867138212
 20
94.8645281177419
 30
0.0
 10
219.9023815069728
 20
94.84758399011261
 30
0.0
 10
219.9576857647725
 20
94.83814184791952
 30
0.0
 10
219.9585379998258
 20
94.83799659409149
 30
0.0
 10
219.9587614957996
 20
94.83795850173
 30
0.0
  0
SPLINE
  5
E3
330
1F
100
AcDbEntity
  8
0
  6
HIDDEN
 62
     7
370
     0
100
AcDbSpline
210
0.0
220
0.0
230
1.0
 70
     8
 71
     3
 72
    14
 73
    10
 74
     0
 42
0.00000001
 43
0.00000001
 12
1.0
 22
0.0
 32
0.0
 13
1.0
 23
0.0
 33
0.0
 40
0.0
 40
0.0
 40
0.0
 40
0.0
 40
0.0713346932414721
 40
0.1810474966447191
 40
0.3661555555088764
 40
0.5694742581808336
 40
0.7798593602662796
 40
0.9653121283514907
 40
1.0
 40
1.0
 40
1.0
 40
1.0
 10
214.0997217719264
 20
128.6734515298939
 30
0.0
 10
214.0539114916325
 20
128.6792227898673
 30
0.0
 10
213.9376449712211
 20
128.6938702513365
 30
0.0
 10
213.6933955780176
 20
128.7237541829558
 30
0.0
 10
213.4276825891304
 20
128.7625364501527
 30
0.0
 10
213.170190060969
 20
128.8024433601772
 30
0.0
 10
213.0167450486377
 20
128.8280645618258
 30
0.0
 10
212.9523472274125
 20
128.8390476233172
 30
0.0
 10
212.96610825752
 20
128.836706827978
 30
0.0
 10
212.9682766024776
 20
128.836337985549
 30
0.0
  0
SPLINE
  5
E4
330
1F
100
AcDbEntity
  8
0
  6
HIDDEN
 62
     7
370
     0
100
AcDbSpline
210
0.0
220
0.0
230
1.0
 70
     8
 71
     3
 72
    23
 73
    19
 74
     0
 42
0.00000001
 43
0.00000001
 12
1.0
 22
0.0
 32
0.0
 13
1.0
 23
0.0
 33
0.0
 40
0.0
 40
0.0
 40
0.0
 40
0.0
 40
0.0105257876374946
 40
0.0719902741334671
 40
0.135238217986891
 40
0.1969323704052665
 40
0.2601953974946264
 40
0.326318970735774
 40
0.3940547538159908
 40
0.4663020169283223
 40
0.5403884160431277
 40
0.6174957114730629
 40
0.6967206015173009
 40
0.775890009439315
 40
0.857367903384033
 40
0.927816714342038
 40
0.9882122863231619
 40
1.0
 40
1.0
 40
1.0
 40
1.0
 10
219.954972875566
 20
128.8364087660647
 30
0.0
 10
219.9570520103914
 20
128.8367623414907
 30
0.0
 10
219.9712720850489
 20
128.8391805920505
 30
0.0
 10
219.914070027426
 20
128.8294058792305
 30
0.0
 10
219.7867940193339
 20
128.8081782560629
 30
0.0
 10
219.5751854734819
 20
128.7745500251658
 30
0.0
 10
219.2950700849696
 20
128.7332646192707
 30
0.0
 10
218.9432015157458
 20
128.6866650071729
 30
0.0
 10
218.5196510760836
 20
128.63846399746
 30
0.0
 10
218.0313326874917
 20
128.593757763376
 30
0.0
 10
217.48292403811
 20
128.5577129261744
 30
0.0
 10
216.8908664865343
 20
128.5357467564866
 30
0.0
 10
216.2741957871927
 20
128.5318808962733
 30
0.0
 10
215.6506599393295
 20
128.5475131170831
 30
0.0
 10
215.0740629119517
 20
128.5801974509534
 30
0.0
 10
214.5710095364001
 20
128.6213132403368
 30
0.0
 10
214.2782286977543
 20
128.6546165207517
 30
0.0
 10
214.124780286743
 20
128.6708075016386
 30
0.0
 10
214.0997217719264
 20
128.6734515298939
 30
0.0
  0
LINE
  5
E5
330
1F
100
AcDbEntity
  8
0
  6
HIDDEN
 62
     7
370
     0
100
AcDbLine
 10
169.4614195947
 20
96.0375057031
 30
0.0
 11
169.4614195947
 21
127.6375041772
 31
0.0
  0
SPLINE
  5
E6
330
1F
100
AcDbEntity
  8
0
  6
HIDDEN
 62
     7
370
     0
100
AcDbSpline
210
0.0
220
0.0
230
1.0
 70
     8
 71
     3
 72
    18
 73
    14
 74
     0
 42
0.00000001
 43
0.00000001
 12
1.0
 22
0.0
 32
0.0
 13
1.0
 23
0.0
 33
0.0
 40
0.0
 40
0.0
 40
0.0
 40
0.0
 40
0.25
 40
0.25
 40
0.5
 40
0.5
 40
0.625
 40
0.625
 40
0.75
 40
0.75
 40
0.875
 40
0.875
 40
1.0
 40
1.0
 40
1.0
 40
1.0
 10
168.2053352771727
 20
101.5387672996637
 30
0.0
 10
168.2396363217054
 20
101.4754125131995
 30
0.0
 10
168.2774565930022
 20
101.4137666266155
 30
0.0
 10
168.364074913463
 20
101.2944309909014
 30
0.0
 10
168.4124462482065
 20
101.2366728871544
 30
0.0
 10
168.501849230325
 20
101.1543003326491
 30
0.0
 10
168.5344465142022
 20
101.1275511976116
 30
0.0
 10
168.6108284181471
 20
101.0763571474353
 30
0.0
 10
168.6538668554879
 20
101.0520868308782
 30
0.0
 10
168.7596798883197
 20
101.013005946112
 30
0.0
 10
168.8247183130508
 20
100.9991164598623
 30
0.0
 10
168.9578703848534
 20
101.0015702905788
 30
0.0
 10
169.0172395653166
 20
101.0167169413737
 30
0.0
 10
169.0664427058604
 20
101.0361787933176
 30
0.0
  0
SPLINE
  5
E7
330
1F
100
AcDbEntity
  8
0
  6
HIDDEN
 62
     7
370
     0
100
AcDbSpline
210
0.0
220
0.0
230
1.0
 70
     8
 71
     3
 72
    16
 73
    12
 74
     0
 42
0.00000001
 43
0.00000001
 12
1.0
 22
0.0
 32
0.0
 13
1.0
 23
0.0
 33
0.0
 40
0.0
 40
0.0
 40
0.0
 40
0.0
 40
0.0625000000000012
 40
0.0625000000000012
 40
0.1250000000000023
 40
0.1250000000000023
 40
0.2500000000000006
 40
0.2500000000000006
 40
0.4999999999999973
 40
0.4999999999999973
 40
1.0
 40
1.0
 40
1.0
 40
1.0
 10
169.0664427058296
 20
101.0361787933565
 30
0.0
 10
169.0785125391054
 20
101.0409529054525
 30
0.0
 10
169.0927881940387
 20
101.0439145901239
 30
0.0
 10
169.1242526061631
 20
101.0393787811495
 30
0.0
 10
169.1397531309735
 20
101.0313545090607
 30
0.0
 10
169.1751920275804
 20
101.0025786615979
 30
0.0
 10
169.1887846436838
 20
100.9790309448806
 30
0.0
 10
169.2217789620766
 20
100.9122317143705
 30
0.0
 10
169.2325663553954
 20
100.8686938801678
 30
0.0
 10
169.2576196026745
 20
100.7410532098733
 30
0.0
 10
169.2614195947358
 20
100.6614858481137
 30
0.0
 10
169.2614195947358
 20
100.5848000030946
 30
0.0
  0
LINE
  5
E8
330
1F
100
AcDbEntity
  8
0
  6
HIDDEN
 62
     7
370
     0
100
AcDbLine
 10
169.2614195998
 20
97.747684965
 30
0.0
 11
169.2614195998
 21
100.5847999324
 31
0.0
  0
SPLINE
  5
E9
330
1F
100
AcDbEntity
  8
0
  6
HIDDEN
 62
     7
370
     0
100
AcDbSpline
210
0.0
220
0.0
230
1.0
 70
     8
 71
     3
 72
     8
 73
     4
 74
     0
 42
0.00000001
 43
0.00000001
 12
1.0
 22
0.0
 32
0.0
 13
1.0
 23
0.0
 33
0.0
 40
0.0
 40
0.0
 40
0.0
 40
0.0
 40
1.0
 40
1.0
 40
1.0
 40
1.0
 10
168.2053352771726
 20
125.4950883075195
 30
0.0
 10
168.1810222809033
 20
125.5389369647909
 30
0.0
 10
168.1595254564748
 20
125.5818972163593
 30
0.0
 10
168.1400992511759
 20
125.6238114510946
 30
0.0
  0
SPLINE
  5
EA
330
1F
100
AcDbEntity
  8
0
  6
HIDDEN
 62
     7
370
     0
100
AcDbSpline
210
0.0
220
0.0
230
1.0
 70
     8
 71
     3
 72
    18
 73
    14
 74
     0
 42
0.00000001
 43
0.00000001
 12
1.0
 22
0.0
 32
0.0
 13
1.0
 23
0.0
 33
0.0
 40
0.0
 40
0.0
 40
0.0
 40
0.0
 40
0.2499999999999986
 40
0.2499999999999986
 40
0.4999999999999971
 40
0.4999999999999971
 40
0.6249999999999978
 40
0.6249999999999978
 40
0.7499999999999986
 40
0.7499999999999986
 40
0.8749999999999992
 40
0.8749999999999992
 40
1.0
 40
1.0
 40
1.0
 40
1.0
 10
168.2053352771726
 20
125.4950883075195
 30
0.0
 10
168.2396335961853
 20
125.4332310514778
 30
0.0
 10
168.2774479934972
 20
125.3711597425021
 30
0.0
 10
168.3640360545708
 20
125.2477030184597
 30
0.0
 10
168.4123861602495
 20
125.1862073811462
 30
0.0
 10
168.5017027490493
 20
125.0967905491971
 30
0.0
 10
168.5342631045376
 20
125.0674538851628
 30
0.0
 10
168.6105087382665
 20
125.0111711089212
 30
0.0
 10
168.6536681080465
 20
124.9842384409461
 30
0.0
 10
168.7593969320646
 20
124.9423225699909
 30
0.0
 10
168.8243941091193
 20
124.9284530146252
 30
0.0
 10
168.9578785990735
 20
124.9378314054268
 30
0.0
 10
169.017205992519
 20
124.9591200843682
 30
0.0
 10
169.0664427058604
 20
124.984770697486
 30
0.0
  0
SPLINE
  5
EB
330
1F
100
AcDbEntity
  8
0
  6
HIDDEN
 62
     7
370
     0
100
AcDbSpline
210
0.0
220
0.0
230
1.0
 70
     8
 71
     3
 72
    16
 73
    12
 74
     0
 42
0.00000001
 43
0.00000001
 12
1.0
 22
0.0
 32
0.0
 13
1.0
 23
0.0
 33
0.0
 40
0.0
 40
0.0
 40
0.0
 40
0.0
 40
0.0624999999999981
 40
0.0624999999999981
 40
0.1249999999999962
 40
0.1249999999999962
 40
0.2499999999999946
 40
0.2499999999999946
 40
0.4999999999999947
 40
0.4999999999999947
 40
1.0
 40
1.0
 40
1.0
 40
1.0
 10
169.0664427058296
 20
124.984770697492
 30
0.0
 10
169.0785125391054
 20
124.9910586603319
 30
0.0
 10
169.0927881940387
 20
124.9973366323017
 30
0.0
 10
169.1242526061631
 20
125.006420499138
 30
0.0
 10
169.1397531309735
 20
125.0083909883971
 30
0.0
 10
169.1751920275804
 20
125.0080775314555
 30
0.0
 10
169.1887846436838
 20
125.0020558744536
 30
0.0
 10
169.2217789620766
 20
124.9818118609453
 30
0.0
 10
169.2325663553954
 20
124.9634010529464
 30
0.0
 10
169.2576196026745
 20
124.9034351561281
 30
0.0
 10
169.2614195947358
 20
124.8569949949153
 30
0.0
 10
169.2614195947358
 20
124.8072047597237
 30
0.0
  0
LINE
  5
EC
330
1F
100
AcDbEntity
  8
0
  6
HIDDEN
 62
     7
370
     0
100
AcDbLine
 10
169.2614195998
 20
110.1205100269
 30
0.0
 11
169.2614195998
 21
124.8072046284
 31
0.0
  0
SPLINE
  5
ED
330
1F
100
AcDbEntity
  8
0
  6
HIDDEN
 62
     7
370
     0
100
AcDbSpline
210
0.0
220
0.0
230
1.0
 70
     8
 71
     3
 72
    16
 73
    12
 74
     0
 42
0.00000001
 43
0.00000001
 12
1.0
 22
0.0
 32
0.0
 13
1.0
 23
0.0
 33
0.0
 40
0.0
 40
0.0
 40
0.0
 40
0.0
 40
0.4999999999999996
 40
0.4999999999999996
 40
0.7499999999999993
 40
0.7499999999999993
 40
0.8749999999999992
 40
0.8749999999999992
 40
0.9374999999999996
 40
0.9374999999999996
 40
1.0
 40
1.0
 40
1.0
 40
1.0
 10
169.2614195947357
 20
110.1205100577384
 30
0.0
 10
169.2614195947357
 20
109.9937322902272
 30
0.0
 10
169.2575361695767
 20
109.8677428403792
 30
0.0
 10
169.232720844302
 20
109.6814073283995
 30
0.0
 10
169.2218813965895
 20
109.6186855093462
 30
0.0
 10
169.1886656145407
 20
109.5311420585188
 30
0.0
 10
169.1752838709119
 20
109.5019622195156
 30
0.0
 10
169.1397742210497
 20
109.4727725722103
 30
0.0
 10
169.124357254549
 20
109.4666961910925
 30
0.0
 10
169.0926562324003
 20
109.4712868989716
 30
0.0
 10
169.0785099474496
 20
109.4805056301201
 30
0.0
 10
169.0664427058599
 20
109.4915653297535
 30
0.0
  0
SPLINE
  5
EE
330
1F
100
AcDbEntity
  8
0
  6
HIDDEN
 62
     7
370
     0
100
AcDbSpline
210
0.0
220
0.0
230
1.0
 70
     8
 71
     3
 72
    18
 73
    14
 74
     0
 42
0.00000001
 43
0.00000001
 12
1.0
 22
0.0
 32
0.0
 13
1.0
 23
0.0
 33
0.0
 40
0.0
 40
0.0
 40
0.0
 40
0.0
 40
0.125
 40
0.125
 40
0.25
 40
0.25
 40
0.375
 40
0.375
 40
0.5
 40
0.5
 40
0.75
 40
0.75
 40
1.0
 40
1.0
 40
1.0
 40
1.0
 10
169.0664427058661
 20
109.4915653297619
 30
0.0
 10
169.0177385768493
 20
109.5362029574949
 30
0.0
 10
168.9592309076448
 20
109.5723234048854
 30
0.0
 10
168.8275052450139
 20
109.5853234015513
 30
0.0
 10
168.7627476063935
 20
109.5587578201187
 30
0.0
 10
168.6575371897745
 20
109.4799115494228
 30
0.0
 10
168.6143211548343
 20
109.4294072438669
 30
0.0
 10
168.5381429333533
 20
109.3235171450922
 30
0.0
 10
168.5052881656692
 20
109.2676464019529
 30
0.0
 10
168.4149204468274
 20
109.0954417638269
 30
0.0
 10
168.365498077638
 20
108.9741628073804
 30
0.0
 10
168.2778456155499
 20
108.7289491541753
 30
0.0
 10
168.2397828793155
 20
108.6044111841809
 30
0.0
 10
168.2053352771721
 20
108.4786592133718
 30
0.0
  0
SPLINE
  5
EF
330
1F
100
AcDbEntity
  8
0
  6
HIDDEN
 62
     7
370
     0
100
AcDbSpline
210
0.0
220
0.0
230
1.0
 70
     8
 71
     3
 72
     8
 73
     4
 74
     0
 42
0.00000001
 43
0.00000001
 12
1.0
 22
0.0
 32
0.0
 13
1.0
 23
0.0
 33
0.0
 40
0.0
 40
0.0
 40
0.0
 40
0.0
 40
1.0
 40
1.0
 40
1.0
 40
1.0
 10
168.2053352771723
 20
108.4786592133723
 30
0.0
 10
168.181021232038
 20
108.3899000863583
 30
0.0
 10
168.1595246780691
 20
108.3004876428961
 30
0.0
 10
168.1400992511759
 20
108.2106051981245
 30
0.0
  0
SPLINE
  5
F0
330
1F
100
AcDbEntity
  8
0
  6
HIDDEN
 62
     7
370
     0
100
AcDbSpline
210
0.0
220
0.0
230
1.0
 70
     8
 71
     3
 72
     8
 73
     4
 74
     0
 42
0.00000001
 43
0.00000001
 12
1.0
 22
0.0
 32
0.0
 13
1.0
 23
0.0
 33
0.0
 40
0.0
 40
0.0
 40
0.0
 40
0.0
 40
1.0
 40
1.0
 40
1.0
 40
1.0
 10
168.1400992511759
 20
101.6780981713377
 30
0.0
 10
168.1595249313258
 20
101.6301276564014
 30
0.0
 10
168.181021573282
 20
101.5836752474846
 30
0.0
 10
168.2053352771721
 20
101.5387672996626
 30
0.0
  0
LINE
  5
F1
330
1F
100
AcDbEntity
  8
0
  6
HIDDEN
 62
     7
370
     0
100
AcDbLine
 10
169.2614195998
 20
110.1205100269
 30
0.0
 11
169.2614195998
 21
124.8072046284
 31
0.0
  0
LINE
  5
F2
330
1F
100
AcDbEntity
  8
0
  6
HIDDEN
 62
     7
370
     0
100
AcDbLine
 10
146.4884521191
 20
102.2748114039
 30
0.0
 11
146.4884521191
 21
121.4001984765
 31
0.0
  0
LINE
  5
F3
330
1F
100
AcDbEntity
  8
0
  6
HIDDEN
 62
     7
370
     0
100
AcDbLine
 10
145.4614193861
 20
101.6852208842
 30
0.0
 11
145.4614193861
 21
121.9897889961
 31
0.0
  0
LINE
  5
F4
330
1F
100
AcDbEntity
  8
0
  6
HIDDEN
 62
     7
370
     0
100
AcDbLine
 10
149.9884517615
 20
102.6065652688
 30
0.0
 11
149.9884517615
 21
121.0684446116
 31
0.0
  0
LINE
  5
F5
330
1F
100
AcDbEntity
  8
0
  6
HIDDEN
 62
     7
370
     0
100
AcDbLine
 10
167.7614195722
 20
101.375165904
 30
0.0
 11
167.7614195722
 21
98.7174059694
 31
0.0
  0
LINE
  5
F6
330
1F
100
AcDbEntity
  8
0
  6
HIDDEN
 62
     7
370
     0
100
AcDbLine
 10
146.9614187007
 20
101.8277234827
 30
0.0
 11
146.9614187007
 21
99.4097101931
 31
0.0
  0
SPLINE
  5
F7
330
1F
100
AcDbEntity
  8
0
  6
HIDDEN
 62
     7
370
     0
100
AcDbSpline
210
0.0
220
0.0
230
1.0
 70
     8
 71
     3
 72
     8
 73
     4
 74
     0
 42
0.00000001
 43
0.00000001
 12
1.0
 22
0.0
 32
0.0
 13
1.0
 23
0.0
 33
0.0
 40
0.0000137050638847
 40
0.0000137050638847
 40
0.0000137050638847
 40
0.0000137050638847
 40
0.0027147143562631
 40
0.0027147143562631
 40
0.0027147143562631
 40
0.0027147143562631
 10
149.6614195947356
 20
99.34635810976567
 30
0.0
 10
148.7614159088258
 20
99.36751271711144
 30
0.0
 10
147.8614157302304
 20
99.38863022526965
 30
0.0
 10
146.9614195947356
 20
99.40971062260031
 30
0.0
  0
SPLINE
  5
F8
330
1F
100
AcDbEntity
  8
0
  6
HIDDEN
 62
     7
370
     0
100
AcDbSpline
210
0.0
220
0.0
230
1.0
 70
     8
 71
     3
 72
    14
 73
    10
 74
     0
 42
0.00000001
 43
0.00000001
 12
1.0
 22
0.0
 32
0.0
 13
1.0
 23
0.0
 33
0.0
 40
0.0
 40
0.0
 40
0.0
 40
0.0
 40
0.0084183595630449
 40
0.0748859337615527
 40
0.1431990140888291
 40
0.2919890292464934
 40
0.4448982662944809
 40
0.721832911433259
 40
1.0
 40
1.0
 40
1.0
 40
1.0
 10
151.3675803069778
 20
99.12940631255869
 30
0.0
 10
151.3682679454873
 20
99.12934687210203
 30
0.0
 10
151.3743848678511
 20
99.12881811658069
 30
0.0
 10
151.3492951630042
 20
99.13097373802516
 30
0.0
 10
151.2708666872156
 20
99.13785140809202
 30
0.0
 10
151.0883447796725
 20
99.15476049592048
 30
0.0
 10
150.7397478337042
 20
99.19165582224339
 30
0.0
 10
150.2582115988436
 20
99.25092875482675
 30
0.0
 10
149.8606445619748
 20
99.3145011410981
 30
0.0
 10
149.661419702024
 20
99.34635790631536
 30
0.0
  0
SPLINE
  5
F9
330
1F
100
AcDbEntity
  8
0
  6
HIDDEN
 62
     7
370
     0
100
AcDbSpline
210
0.0
220
0.0
230
1.0
 70
     8
 71
     3
 72
    23
 73
    19
 74
     0
 42
0.00000001
 43
0.00000001
 12
1.0
 22
0.0
 32
0.0
 13
1.0
 23
0.0
 33
0.0
 40
0.0
 40
0.0
 40
0.0
 40
0.0
 40
0.0590948365046255
 40
0.0602629131017394
 40
0.1194415207374096
 40
0.1883585011626421
 40
0.2591169527012912
 40
0.3309420487011687
 40
0.4047572798601516
 40
0.4781985070853534
 40
0.5537771379872486
 40
0.6269610121280117
 40
0.7024227706118449
 40
0.7728545489218859
 40
0.8456215403674135
 40
0.9113479063914356
 40
0.9792299039134482
 40
1.0
 40
1.0
 40
1.0
 40
1.0
 10
156.0289419938631
 20
99.07881687030557
 30
0.0
 10
156.1127342785086
 20
99.08444982699919
 30
0.0
 10
156.1981828128792
 20
99.090194125483
 30
0.0
 10
156.4017074249105
 20
99.09960407137253
 30
0.0
 10
156.6141747017742
 20
99.11067454145619
 30
0.0
 10
156.9905514694372
 20
99.12205958381767
 30
0.0
 10
157.4122691984396
 20
99.12752850574144
 30
0.0
 10
157.8612209107912
 20
99.1242101670756
 30
0.0
 10
158.3196599382129
 20
99.11123438195861
 30
0.0
 10
158.7775515295625
 20
99.08864020631772
 30
0.0
 10
159.2128927549686
 20
99.05823442610335
 30
0.0
 10
159.6174576107248
 20
99.02229906125896
 30
0.0
 10
159.9666972517643
 20
98.98531733244052
 30
0.0
 10
160.2568778403445
 20
98.95050895885822
 30
0.0
 10
160.4707357631747
 20
98.9224426681823
 30
0.0
 10
160.605475935956
 20
98.9037781574007
 30
0.0
 10
160.6645542888645
 20
98.89533487380962
 30
0.0
 10
160.6561669442396
 20
98.8965317997905
 30
0.0
 10
160.6542018924661
 20
98.89681222483877
 30
0.0
  0
SPLINE
  5
FA
330
1F
100
AcDbEntity
  8
0
  6
HIDDEN
 62
     7
370
     0
100
AcDbSpline
210
0.0
220
0.0
230
1.0
 70
     8
 71
     3
 72
    12
 73
     8
 74
     0
 42
0.00000001
 43
0.00000001
 12
1.0
 22
0.0
 32
0.0
 13
1.0
 23
0.0
 33
0.0
 40
0.0
 40
0.0
 40
0.0
 40
0.0
 40
0.2240090889472329
 40
0.4414367212443355
 40
0.6649333403801424
 40
0.8312518423216805
 40
1.0
 40
1.0
 40
1.0
 40
1.0
 10
155.3946275015183
 20
99.02820600763324
 30
0.0
 10
155.4008244988202
 20
99.02879244492759
 30
0.0
 10
155.4130364237175
 20
99.0299480898063
 30
0.0
 10
155.5157460610891
 20
99.03939711084686
 30
0.0
 10
155.6615556460896
 20
99.0518728751845
 30
0.0
 10
155.8359205741832
 20
99.06564039192905
 30
0.0
 10
155.964291237583
 20
99.0744035295812
 30
0.0
 10
156.0289419938631
 20
99.07881687030557
 30
0.0
  0
LINE
  5
FB
330
1F
100
AcDbEntity
  8
0
  6
HIDDEN
 62
     7
370
     0
100
AcDbLine
 10
153.3884515737
 20
102.8375053276
 30
0.0
 11
153.3884515737
 21
120.8375045528
 31
0.0
  0
LINE
  5
FC
330
1F
100
AcDbEntity
  8
0
  6
HIDDEN
 62
     7
370
     0
100
AcDbLine
 10
148.588452277
 20
102.8375053276
 30
0.0
 11
148.588452277
 21
120.8375045528
 31
0.0
  0
LINE
  5
FD
330
1F
100
AcDbEntity
  8
0
  6
HIDDEN
 62
     7
370
     0
100
AcDbLine
 10
149.5884524409
 20
102.8375053276
 30
0.0
 11
149.5884524409
 21
120.8375045528
 31
0.0
  0
LINE
  5
FE
330
1F
100
AcDbEntity
  8
0
  6
HIDDEN
 62
     7
370
     0
100
AcDbLine
 10
169.2614195998
 20
100.5847999324
 30
0.0
 11
169.2614195998
 21
98.684745418
 31
0.0
  0
SPLINE
  5
FF
330
1F
100
AcDbEntity
  8
0
  6
HIDDEN
 62
     7
370
     0
100
AcDbSpline
210
0.0
220
0.0
230
1.0
 70
    11
 71
     3
 72
    60
 73
    56
 74
     0
 42
0.00000001
 43
0.00000001
 12
1.0
 22
0.0
 32
0.0
 13
1.0
 23
0.0
 33
0.0
 40
0.0
 40
0.0
 40
0.0
 40
0.0
 40
0.0624999999999999
 40
0.0624999999999999
 40
0.1249999999999998
 40
0.1249999999999998
 40
0.1874999999999996
 40
0.1874999999999996
 40
0.2187499999999996
 40
0.2187499999999996
 40
0.2499999999999995
 40
0.2499999999999995
 40
0.3124999999999998
 40
0.3124999999999998
 40
0.3750000000000001
 40
0.3750000000000001
 40
0.4062500000000001
 40
0.4062500000000001
 40
0.4375000000000001
 40
0.4375000000000001
 40
0.4687500000000001
 40
0.4687500000000001
 40
0.5000000000000001
 40
0.5000000000000001
 40
0.5312500000000001
 40
0.5312500000000001
 40
0.5625000000000002
 40
0.5625000000000002
 40
0.5937500000000002
 40
0.5937500000000002
 40
0.6250000000000003
 40
0.6250000000000003
 40
0.6562500000000003
 40
0.6562500000000003
 40
0.6875000000000004
 40
0.6875000000000004
 40
0.7187500000000003
 40
0.7187500000000003
 40
0.7500000000000002
 40
0.7500000000000002
 40
0.7812500000000002
 40
0.7812500000000002
 40
0.8125000000000001
 40
0.8125000000000001
 40
0.8437500000000001
 40
0.8437500000000001
 40
0.875
 40
0.875
 40
0.90625
 40
0.90625
 40
0.9375
 40
0.9375
 40
0.9687500000000001
 40
0.9687500000000001
 40
1.0
 40
1.0
 40
1.0
 40
1.0
 10
159.9614195947356
 20
102.9094592413778
 30
0.0
 10
159.8362296931569
 20
102.9375034306219
 30
0.0
 10
159.6793623745888
 20
102.9703265170415
 30
0.0
 10
159.3023248547699
 20
103.0355987426957
 30
0.0
 10
159.0906115483489
 20
103.0664513676643
 30
0.0
 10
158.6247215664002
 20
103.1141870043571
 30
0.0
 10
158.3788823353486
 20
103.1300199191337
 30
0.0
 10
157.999401282254
 20
103.1371918612443
 30
0.0
 10
157.8716555535601
 20
103.136793255655
 30
0.0
 10
157.6211893068919
 20
103.1306063601512
 30
0.0
 10
157.4973599240837
 20
103.1248454281585
 30
0.0
 10
157.1301402499851
 20
103.1001504820345
 30
0.0
 10
156.8993712318994
 20
103.0742411489273
 30
0.0
 10
156.4794822704799
 20
103.0135044991612
 30
0.0
 10
156.2952238955923
 20
102.9795404043635
 30
0.0
 10
156.064475508109
 20
102.9322969824624
 30
0.0
 10
155.99542865832
 20
102.9172030068956
 30
0.0
 10
155.8768639945145
 20
102.8903244754022
 30
0.0
 10
155.8266556257649
 20
102.8783955201098
 30
0.0
 10
155.7448237734071
 20
102.8585450097255
 30
0.0
 10
155.7134728745244
 20
102.8506888549201
 30
0.0
 10
155.6720784964858
 20
102.840245270841
 30
0.0
 10
155.6615727214215
 20
102.8375440725348
 30
0.0
 10
155.6612697690857
 20
102.8374666514342
 30
0.0
 10
155.6717542987023
 20
102.8401625000803
 30
0.0
 10
155.7128943761638
 20
102.8505438589739
 30
0.0
 10
155.7434724967123
 20
102.8582101494071
 30
0.0
 10
155.8247552050636
 20
102.877941316651
 30
0.0
 10
155.8757560916255
 20
102.8900662832072
 30
0.0
 10
155.9943231399886
 20
102.9169592879026
 30
0.0
 10
156.0622118932604
 20
102.9318116710693
 30
0.0
 10
156.215362330998
 20
102.9632106764995
 30
0.0
 10
156.3009185025705
 20
102.9797862221248
 30
0.0
 10
156.4836298735297
 20
103.0122129069832
 30
0.0
 10
156.5814371732116
 20
103.0282097856984
 30
0.0
 10
156.7902402851286
 20
103.0584964192643
 30
0.0
 10
156.9018224604164
 20
103.0728127713931
 30
0.0
 10
157.1304682599154
 20
103.0975070656164
 30
0.0
 10
157.2484230708866
 20
103.1080358892646
 30
0.0
 10
157.4917515158753
 20
103.1245344953679
 30
0.0
 10
157.6180953912184
 20
103.1304895030044
 30
0.0
 10
157.8692013722362
 20
103.1367721828167
 30
0.0
 10
157.9948833659592
 20
103.1372005369248
 30
0.0
 10
158.246505435751
 20
103.1325953586815
 30
0.0
 10
158.3734030560368
 20
103.1274672085655
 30
0.0
 10
158.6185936222979
 20
103.1124316100432
 30
0.0
 10
158.7377827793314
 20
103.1025487334243
 30
0.0
 10
158.9694678036862
 20
103.0789159367438
 30
0.0
 10
159.0826426080367
 20
103.0650414285762
 30
0.0
 10
159.2947210249724
 20
103.0354217935189
 30
0.0
 10
159.3945098036733
 20
103.019611599432
 30
0.0
 10
159.5817679906622
 20
102.9872493311008
 30
0.0
 10
159.6696630276056
 20
102.9705950761189
 30
0.0
 10
159.8278841032375
 20
102.9387586985492
 30
0.0
 10
159.8988220595292
 20
102.9234819149434
 30
0.0
 10
159.9614195947356
 20
102.9094592413778
 30
0.0
  0
SPLINE
  5
100
330
1F
100
AcDbEntity
  8
0
  6
HIDDEN
 62
     7
370
     0
100
AcDbSpline
210
0.0
220
0.0
230
1.0
 70
    11
 71
     3
 72
    60
 73
    56
 74
     0
 42
0.00000001
 43
0.00000001
 12
1.0
 22
0.0
 32
0.0
 13
1.0
 23
0.0
 33
0.0
 40
0.0
 40
0.0
 40
0.0
 40
0.0
 40
0.0624999999999999
 40
0.0624999999999999
 40
0.1249999999999998
 40
0.1249999999999998
 40
0.1874999999999996
 40
0.1874999999999996
 40
0.2187499999999996
 40
0.2187499999999996
 40
0.2499999999999995
 40
0.2499999999999995
 40
0.3124999999999998
 40
0.3124999999999998
 40
0.3750000000000001
 40
0.3750000000000001
 40
0.4062500000000001
 40
0.4062500000000001
 40
0.4375000000000001
 40
0.4375000000000001
 40
0.4687500000000001
 40
0.4687500000000001
 40
0.5000000000000001
 40
0.5000000000000001
 40
0.5312500000000001
 40
0.5312500000000001
 40
0.5625000000000002
 40
0.5625000000000002
 40
0.5937500000000002
 40
0.5937500000000002
 40
0.6250000000000003
 40
0.6250000000000003
 40
0.6562500000000003
 40
0.6562500000000003
 40
0.6875000000000004
 40
0.6875000000000004
 40
0.7187500000000003
 40
0.7187500000000003
 40
0.7500000000000002
 40
0.7500000000000002
 40
0.7812500000000002
 40
0.7812500000000002
 40
0.8125000000000001
 40
0.8125000000000001
 40
0.8437500000000001
 40
0.8437500000000001
 40
0.875
 40
0.875
 40
0.90625
 40
0.90625
 40
0.9375
 40
0.9375
 40
0.9687500000000001
 40
0.9687500000000001
 40
1.0
 40
1.0
 40
1.0
 40
1.0
 10
159.9614195947356
 20
120.7655506389934
 30
0.0
 10
159.8362296931569
 20
120.7375064497492
 30
0.0
 10
159.6793623745888
 20
120.7046833633297
 30
0.0
 10
159.3023248547699
 20
120.6394111376754
 30
0.0
 10
159.0906115483489
 20
120.6085585127068
 30
0.0
 10
158.6247215664002
 20
120.5608228760141
 30
0.0
 10
158.3788823353486
 20
120.5449899612375
 30
0.0
 10
157.999401282254
 20
120.5378180191269
 30
0.0
 10
157.8716555535601
 20
120.5382166247162
 30
0.0
 10
157.6211893068919
 20
120.54440352022
 30
0.0
 10
157.4973599240837
 20
120.5501644522127
 30
0.0
 10
157.1301402499851
 20
120.5748593983367
 30
0.0
 10
156.8993712318994
 20
120.6007687314439
 30
0.0
 10
156.4794822704799
 20
120.6615053812099
 30
0.0
 10
156.2952238955923
 20
120.6954694760077
 30
0.0
 10
156.064475508109
 20
120.7427128979088
 30
0.0
 10
155.99542865832
 20
120.7578068734755
 30
0.0
 10
155.8768639945145
 20
120.784685404969
 30
0.0
 10
155.8266556257649
 20
120.7966143602614
 30
0.0
 10
155.7448237734071
 20
120.8164648706456
 30
0.0
 10
155.7134728745244
 20
120.8243210254511
 30
0.0
 10
155.6720784964858
 20
120.8347646095302
 30
0.0
 10
155.6615727214215
 20
120.8374658078364
 30
0.0
 10
155.6612697690857
 20
120.837543228937
 30
0.0
 10
155.6717542987023
 20
120.8348473802908
 30
0.0
 10
155.7128943761638
 20
120.8244660213973
 30
0.0
 10
155.7434724967123
 20
120.816799730964
 30
0.0
 10
155.8247552050636
 20
120.7970685637201
 30
0.0
 10
155.8757560916255
 20
120.784943597164
 30
0.0
 10
155.9943231399886
 20
120.7580505924685
 30
0.0
 10
156.0622118932604
 20
120.7431982093019
 30
0.0
 10
156.215362330998
 20
120.7117992038716
 30
0.0
 10
156.3009185025705
 20
120.6952236582464
 30
0.0
 10
156.4836298735297
 20
120.662796973388
 30
0.0
 10
156.5814371732116
 20
120.6468000946728
 30
0.0
 10
156.7902402851286
 20
120.6165134611069
 30
0.0
 10
156.9018224604164
 20
120.6021971089781
 30
0.0
 10
157.1304682599154
 20
120.5775028147548
 30
0.0
 10
157.2484230708866
 20
120.5669739911065
 30
0.0
 10
157.4917515158753
 20
120.5504753850032
 30
0.0
 10
157.6180953912184
 20
120.5445203773668
 30
0.0
 10
157.8692013722362
 20
120.5382376975545
 30
0.0
 10
157.9948833659592
 20
120.5378093434464
 30
0.0
 10
158.246505435751
 20
120.5424145216897
 30
0.0
 10
158.3734030560368
 20
120.5475426718057
 30
0.0
 10
158.6185936222979
 20
120.562578270328
 30
0.0
 10
158.7377827793314
 20
120.5724611469469
 30
0.0
 10
158.9694678036862
 20
120.5960939436273
 30
0.0
 10
159.0826426080367
 20
120.609968451795
 30
0.0
 10
159.2947210249724
 20
120.6395880868523
 30
0.0
 10
159.3945098036733
 20
120.6553982809392
 30
0.0
 10
159.5817679906622
 20
120.6877605492703
 30
0.0
 10
159.6696630276056
 20
120.7044148042523
 30
0.0
 10
159.8278841032375
 20
120.736251181822
 30
0.0
 10
159.8988220595292
 20
120.7515279654278
 30
0.0
 10
159.9614195947356
 20
120.7655506389934
 30
0.0
  0
SPLINE
  5
101
330
1F
100
AcDbEntity
  8
0
  6
HIDDEN
 62
     7
370
     0
100
AcDbSpline
210
0.0
220
0.0
230
1.0
 70
    11
 71
     3
 72
    14
 73
    10
 74
     0
 42
0.00000001
 43
0.00000001
 12
1.0
 22
0.0
 32
0.0
 13
1.0
 23
0.0
 33
0.0
 40
0.0
 40
0.0
 40
0.0
 40
0.0
 40
0.2500000000000001
 40
0.2500000000000001
 40
0.5000000000000001
 40
0.5000000000000001
 40
0.75
 40
0.75
 40
1.0
 40
1.0
 40
1.0
 40
1.0
 10
159.9614195947356
 20
102.9094592413778
 30
0.0
 10
160.0596439412386
 20
102.887455692154
 30
0.0
 10
160.1349587792227
 20
102.8969501622174
 30
0.0
 10
160.235925489417
 20
102.9225078232448
 30
0.0
 10
160.2613010757072
 20
102.9374466796077
 30
0.0
 10
160.2615373009735
 20
102.9375628012178
 30
0.0
 10
160.235834231638
 20
102.9225159080569
 30
0.0
 10
160.1355141181215
 20
102.8970596939754
 30
0.0
 10
160.0596222900339
 20
102.887460542305
 30
0.0
 10
159.9614195947402
 20
102.9094592413714
 30
0.0
  0
SPLINE
  5
102
330
1F
100
AcDbEntity
  8
0
  6
HIDDEN
 62
     7
370
     0
100
AcDbSpline
210
0.0
220
0.0
230
1.0
 70
    11
 71
     3
 72
    14
 73
    10
 74
     0
 42
0.00000001
 43
0.00000001
 12
1.0
 22
0.0
 32
0.0
 13
1.0
 23
0.0
 33
0.0
 40
0.0
 40
0.0
 40
0.0
 40
0.0
 40
0.2500000000000001
 40
0.2500000000000001
 40
0.5000000000000001
 40
0.5000000000000001
 40
0.75
 40
0.75
 40
1.0
 40
1.0
 40
1.0
 40
1.0
 10
159.9614195947356
 20
120.7655506389934
 30
0.0
 10
160.0596439412386
 20
120.7875541882171
 30
0.0
 10
160.1349587792227
 20
120.7780597181538
 30
0.0
 10
160.235925489417
 20
120.7525020571264
 30
0.0
 10
160.2613010757072
 20
120.7375632007634
 30
0.0
 10
160.2615373009735
 20
120.7374470791534
 30
0.0
 10
160.235834231638
 20
120.7524939723143
 30
0.0
 10
160.1355141181215
 20
120.7779501863958
 30
0.0
 10
160.0596222900339
 20
120.7875493380662
 30
0.0
 10
159.9614195947402
 20
120.7655506389997
 30
0.0
  0
LINE
  5
103
330
1F
100
AcDbEntity
  8
0
  6
HIDDEN
 62
     7
370
     0
100
AcDbLine
 10
160.4614199822
 20
103.3375044782
 30
0.0
 11
160.4614199822
 21
120.3375054021
 31
0.0
  0
LINE
  5
104
330
1F
100
AcDbEntity
  8
0
  6
HIDDEN
 62
     7
370
     0
100
AcDbLine
 10
161.3614193846
 20
105.5875048471
 30
0.0
 11
161.3614193846
 21
118.0875050333
 31
0.0
  0
LINE
  5
105
330
1F
100
AcDbEntity
  8
0
  6
HIDDEN
 62
     7
370
     0
100
AcDbLine
 10
160.4614199822
 20
104.6908959244
 30
0.0
 11
160.4614199822
 21
118.9841139559
 31
0.0
  0
LINE
  5
106
330
1F
100
AcDbEntity
  8
0
  6
HIDDEN
 62
     7
370
     0
100
AcDbLine
 10
180.4614195351
 20
105.5875048471
 30
0.0
 11
180.4614195351
 21
118.0875050333
 31
0.0
  0
LINE
  5
107
330
1F
100
AcDbEntity
  8
0
  6
HIDDEN
 62
     7
370
     0
100
AcDbLine
 10
182.1137860169
 20
108.3375048322
 30
0.0
 11
182.1137860169
 21
115.3375050482
 31
0.0
  0
SPLINE
  5
108
330
1F
100
AcDbEntity
  8
0
  6
HIDDEN
 62
     7
370
     0
100
AcDbSpline
210
0.0
220
0.0
230
1.0
 70
     8
 71
     3
 72
    12
 73
     8
 74
     0
 42
0.00000001
 43
0.00000001
 12
1.0
 22
0.0
 32
0.0
 13
1.0
 23
0.0
 33
0.0
 40
0.0
 40
0.0
 40
0.0
 40
0.0
 40
0.2090140940587482
 40
0.4194389052487081
 40
0.6343768764207574
 40
0.8509010735863914
 40
0.9999999999999999
 40
0.9999999999999999
 40
0.9999999999999999
 40
0.9999999999999999
 10
167.7614195721976
 20
126.2102206666804
 30
0.0
 10
167.7299610134195
 20
126.2800341997143
 30
0.0
 10
167.6668315698573
 20
126.4201324643752
 30
0.0
 10
167.5974079498068
 20
126.5753948410183
 30
0.0
 10
167.5482855964278
 20
126.6855837734951
 30
0.0
 10
167.5218245517846
 20
126.74512108748
 30
0.0
 10
167.5213667240487
 20
126.7461518092049
 30
0.0
 10
167.5211800246321
 20
126.7465721313691
 30
0.0
  0
LINE
  5
109
330
1F
100
AcDbEntity
  8
0
  6
HIDDEN
 62
     7
370
     0
100
AcDbLine
 10
146.9614187007
 20
125.2061319967
 30
0.0
 11
146.9614187007
 21
126.2350357567
 31
0.0
  0
LINE
  5
10A
330
1F
100
AcDbEntity
  8
0
  6
HIDDEN
 62
     7
370
     0
100
AcDbLine
 10
167.7614195722
 20
125.6586895753
 30
0.0
 11
167.7614195722
 21
126.2102206667
 31
0.0
  0
LINE
  5
10B
330
1F
100
AcDbEntity
  8
0
  6
HIDDEN
 62
     7
370
     0
100
AcDbLine
 10
145.4614193861
 20
124.4561323394
 30
0.0
 11
145.4614193861
 21
125.3690100704
 31
0.0
  0
SPLINE
  5
10C
330
1F
100
AcDbEntity
  8
0
  6
HIDDEN
 62
     7
370
     0
100
AcDbSpline
210
0.0
220
0.0
230
1.0
 70
     8
 71
     3
 72
    24
 73
    20
 74
     0
 42
0.00000001
 43
0.00000001
 12
1.0
 22
0.0
 32
0.0
 13
1.0
 23
0.0
 33
0.0
 40
0.0
 40
0.0
 40
0.0
 40
0.0
 40
0.2499999999999956
 40
0.2499999999999956
 40
0.3749999999999942
 40
0.3749999999999942
 40
0.437499999999993
 40
0.437499999999993
 40
0.4999999999999918
 40
0.4999999999999918
 40
0.5312499999999916
 40
0.5312499999999916
 40
0.5624999999999913
 40
0.5624999999999913
 40
0.6249999999999919
 40
0.6249999999999919
 40
0.7499999999999942
 40
0.7499999999999942
 40
1.0
 40
1.0
 40
1.0
 40
1.0
 10
167.9663796167914
 20
126.0008759861012
 30
0.0
 10
167.9506105718819
 20
126.0353070141509
 30
0.0
 10
167.9339964073215
 20
126.0696475658211
 30
0.0
 10
167.9054642798282
 20
126.1231963490663
 30
0.0
 10
167.8953766462743
 20
126.1413732086047
 30
0.0
 10
167.8778888234252
 20
126.1704508133116
 30
0.0
 10
167.8716790154987
 20
126.1804350141126
 30
0.0
 10
167.8574011559158
 20
126.2019542423691
 30
0.0
 10
167.849829993564
 20
126.2131378538073
 30
0.0
 10
167.8324101683866
 20
126.2346736273022
 30
0.0
 10
167.8239260859286
 20
126.2443784869911
 30
0.0
 10
167.8078900123155
 20
126.2588600748431
 30
0.0
 10
167.8030696400398
 20
126.2617078121893
 30
0.0
 10
167.7916627394369
 20
126.2675511309301
 30
0.0
 10
167.7876417777277
 20
126.2675949052082
 30
0.0
 10
167.7768877659496
 20
126.2661583153549
 30
0.0
 10
167.7730158803272
 20
126.2616431570864
 30
0.0
 10
167.7638479155269
 20
126.2449711180615
 30
0.0
 10
167.7618195810138
 20
126.2287869430169
 30
0.0
 10
167.7614195947357
 20
126.2102209550827
 30
0.0
  0
SPLINE
  5
10D
330
1F
100
AcDbEntity
  8
0
  6
HIDDEN
 62
     7
370
     0
100
AcDbSpline
210
0.0
220
0.0
230
1.0
 70
     8
 71
     3
 72
     8
 73
     4
 74
     0
 42
0.00000001
 43
0.00000001
 12
1.0
 22
0.0
 32
0.0
 13
1.0
 23
0.0
 33
0.0
 40
0.0
 40
0.0
 40
0.0
 40
0.0
 40
1.0
 40
1.0
 40
1.0
 40
1.0
 10
168.140099251176
 20
125.6238114510945
 30
0.0
 10
168.0749940125037
 20
125.7642833659241
 30
0.0
 10
168.0171066995149
 20
125.8901155933075
 30
0.0
 10
167.9663796167913
 20
126.0008759861013
 30
0.0
  0
LINE
  5
10E
330
1F
100
AcDbEntity
  8
0
  6
HIDDEN
 62
     7
370
     0
100
AcDbLine
 10
201.4614211147
 20
108.3375048322
 30
0.0
 11
201.4614211147
 21
115.3375050482
 31
0.0
  0
LINE
  5
10F
330
1F
100
AcDbEntity
  8
0
  6
HIDDEN
 62
     7
370
     0
100
AcDbLine
 10
201.7618508761
 20
108.8375049141
 30
0.0
 11
201.7618508761
 21
114.8375049663
 31
0.0
  0
LINE
  5
110
330
1F
100
AcDbEntity
  8
0
  6
HIDDEN
 62
     7
370
     0
100
AcDbLine
 10
203.9614187305
 20
95.8375041802
 30
0.0
 11
208.9614214127
 21
95.8375041802
 31
0.0
  0
LINE
  5
111
330
1F
100
AcDbEntity
  8
0
  6
HIDDEN
 62
     7
370
     0
100
AcDbLine
 10
213.9614203696
 20
95.8375041802
 30
0.0
 11
218.9614193265
 21
95.8375041802
 31
0.0
  0
LINE
  5
112
330
1F
100
AcDbEntity
  8
0
  6
HIDDEN
 62
     7
370
     0
100
AcDbLine
 10
223.9614182834
 20
95.8375041802
 30
0.0
 11
228.9614209656
 21
95.8375041802
 31
0.0
  0
LINE
  5
113
330
1F
100
AcDbEntity
  8
0
  6
HIDDEN
 62
     7
370
     0
100
AcDbLine
 10
223.9614182834
 20
127.8375057001
 30
0.0
 11
228.9614209656
 21
127.8375057001
 31
0.0
  0
LINE
  5
114
330
1F
100
AcDbEntity
  8
0
  6
HIDDEN
 62
     7
370
     0
100
AcDbLine
 10
213.9614203696
 20
127.8375057001
 30
0.0
 11
218.9614193265
 21
127.8375057001
 31
0.0
  0
LINE
  5
115
330
1F
100
AcDbEntity
  8
0
  6
HIDDEN
 62
     7
370
     0
100
AcDbLine
 10
203.9614187305
 20
127.8375057001
 30
0.0
 11
208.9614214127
 21
127.8375057001
 31
0.0
  0
LINE
  5
116
330
1F
100
AcDbEntity
  8
0
  6
HIDDEN
 62
     7
370
     0
100
AcDbLine
 10
234.4614172105
 20
115.1375049223
 30
0.0
 11
234.4614172105
 21
108.5507898089
 31
0.0
  0
SPLINE
  5
117
330
1F
100
AcDbEntity
  8
0
  6
HIDDEN
 62
     7
370
     0
100
AcDbSpline
210
0.0
220
0.0
230
1.0
 70
     8
 71
     3
 72
    22
 73
    18
 74
     0
 42
0.00000001
 43
0.00000001
 12
1.0
 22
0.0
 32
0.0
 13
1.0
 23
0.0
 33
0.0
 40
0.0
 40
0.0
 40
0.0
 40
0.0
 40
0.125
 40
0.125
 40
0.25
 40
0.25
 40
0.375
 40
0.375
 40
0.5
 40
0.5
 40
0.625
 40
0.625
 40
0.75
 40
0.75
 40
0.875
 40
0.875
 40
1.0
 40
1.0
 40
1.0
 40
1.0
 10
205.1385439392033
 20
113.9588252837452
 30
0.0
 10
204.9693960511601
 20
113.8533430429529
 30
0.0
 10
204.8157221934184
 20
113.7301335708821
 30
0.0
 10
204.5346020297312
 20
113.4430382290416
 30
0.0
 10
204.4083209078201
 20
113.2791843866627
 30
0.0
 10
204.1974997559832
 20
112.9183938374882
 30
0.0
 10
204.1107144066068
 20
112.7164757452116
 30
0.0
 10
203.9933285335734
 20
112.2924017102278
 30
0.0
 10
203.96158883923
 20
112.0642624859911
 30
0.0
 10
203.9612517544814
 20
111.6144947132668
 30
0.0
 10
203.9925592117798
 20
111.3865637113302
 30
0.0
 10
204.1096053682684
 20
110.9613831298208
 30
0.0
 10
204.1960296580212
 20
110.7595312251976
 30
0.0
 10
204.4073844466158
 20
110.397033313995
 30
0.0
 10
204.5342705910078
 20
110.2324314027697
 30
0.0
 10
204.8145769062422
 20
109.9459253086507
 30
0.0
 10
204.9683754305523
 20
109.822303306191
 30
0.0
 10
205.1385439392034
 20
109.716184596626
 30
0.0
  0
SPLINE
  5
118
330
1F
100
AcDbEntity
  8
0
  6
HIDDEN
 62
     7
370
     0
100
AcDbSpline
210
0.0
220
0.0
230
1.0
 70
     8
 71
     3
 72
    60
 73
    56
 74
     0
 42
0.00000001
 43
0.00000001
 12
1.0
 22
0.0
 32
0.0
 13
1.0
 23
0.0
 33
0.0
 40
0.0
 40
0.0
 40
0.0
 40
0.0
 40
0.0625000000000001
 40
0.0625000000000001
 40
0.1250000000000002
 40
0.1250000000000002
 40
0.1562499999999999
 40
0.1562499999999999
 40
0.1874999999999997
 40
0.1874999999999997
 40
0.2187499999999994
 40
0.2187499999999994
 40
0.2499999999999992
 40
0.2499999999999992
 40
0.2812499999999991
 40
0.2812499999999991
 40
0.3124999999999988
 40
0.3124999999999988
 40
0.3437499999999987
 40
0.3437499999999987
 40
0.3749999999999985
 40
0.3749999999999985
 40
0.4374999999999981
 40
0.4374999999999981
 40
0.4687499999999985
 40
0.4687499999999985
 40
0.499999999999999
 40
0.499999999999999
 40
0.5312499999999994
 40
0.5312499999999994
 40
0.5625
 40
0.5625
 40
0.5937500000000004
 40
0.5937500000000004
 40
0.625000000000001
 40
0.625000000000001
 40
0.6875000000000008
 40
0.6875000000000008
 40
0.7187500000000008
 40
0.7187500000000008
 40
0.7500000000000007
 40
0.7500000000000007
 40
0.7812500000000006
 40
0.7812500000000006
 40
0.8125000000000006
 40
0.8125000000000006
 40
0.8437500000000004
 40
0.8437500000000004
 40
0.8750000000000003
 40
0.8750000000000003
 40
0.9062500000000003
 40
0.9062500000000003
 40
0.9375000000000002
 40
0.9375000000000002
 40
1.0
 40
1.0
 40
1.0
 40
1.0
 10
205.1385439392034
 20
109.716184596626
 30
0.0
 10
204.9232337058057
 20
109.5819150757525
 30
0.0
 10
204.732480371939
 20
109.4444279990893
 30
0.0
 10
204.3937773018615
 20
109.1893487776521
 30
0.0
 10
204.253533612781
 20
109.0768880120651
 30
0.0
 10
204.095787157625
 20
108.9486854310888
 30
0.0
 10
204.0536778290151
 20
108.9139941324152
 30
0.0
 10
203.9915632597523
 20
108.8626292540077
 30
0.0
 10
203.971636819098
 20
108.846016562239
 30
0.0
 10
203.9573794346249
 20
108.8341398992731
 30
0.0
 10
203.9625359500625
 20
108.8384510003299
 30
0.0
 10
203.9976067568438
 20
108.8676095270929
 30
0.0
 10
204.0274936438887
 20
108.8924298146063
 30
0.0
 10
204.108193765459
 20
108.9587649789049
 30
0.0
 10
204.1597824897935
 20
109.0009134879952
 30
0.0
 10
204.2801974058802
 20
109.0977151780052
 30
0.0
 10
204.3487826429921
 20
109.152191089306
 30
0.0
 10
204.5014807290281
 20
109.2705931876775
 30
0.0
 10
204.5856295680883
 20
109.3345258900976
 30
0.0
 10
204.76406847763
 20
109.4653083387528
 30
0.0
 10
204.8589402235586
 20
109.5326531829125
 30
0.0
 10
205.1617549688832
 20
109.7359021966779
 30
0.0
 10
205.3882284923449
 20
109.8750015614692
 30
0.0
 10
205.7638482073982
 20
110.0419476638122
 30
0.0
 10
205.8975304030944
 20
110.0910269646834
 30
0.0
 10
206.1729243894679
 20
110.1595765203991
 30
0.0
 10
206.3181701650212
 20
110.1792591324821
 30
0.0
 10
206.6062065849754
 20
110.1791256011334
 30
0.0
 10
206.7491495177372
 20
110.1597949828443
 30
0.0
 10
207.0268106525064
 20
110.0906250815294
 30
0.0
 10
207.1575677261789
 20
110.0425095759704
 30
0.0
 10
207.4082407883905
 20
109.9312372492785
 30
0.0
 10
207.528354955249
 20
109.8677510044389
 30
0.0
 10
207.7535724425887
 20
109.7372100832452
 30
0.0
 10
207.8597621080063
 20
109.6696131787809
 30
0.0
 10
208.1626042869137
 20
109.466513380545
 30
0.0
 10
208.3444957635637
 20
109.3301402991113
 30
0.0
 10
208.570924423327
 20
109.1546452684406
 30
0.0
 10
208.6393135468325
 20
109.1003666328914
 30
0.0
 10
208.7602611622814
 20
109.0031837517256
 30
0.0
 10
208.8121793012243
 20
108.9607822039376
 30
0.0
 10
208.8935499419361
 20
108.8939152049526
 30
0.0
 10
208.9238372911979
 20
108.8687676925605
 30
0.0
 10
208.9598340107659
 20
108.8388428172024
 30
0.0
 10
208.9653972616023
 20
108.8341917155176
 30
0.0
 10
208.9519517981091
 20
108.8453925049087
 30
0.0
 10
208.9324262143732
 20
108.8616732722472
 30
0.0
 10
208.8708364383346
 20
108.9126135015455
 30
0.0
 10
208.8288744098606
 20
108.9471921383818
 30
0.0
 10
208.7239028624531
 20
109.032527876587
 30
0.0
 10
208.6623744696446
 20
109.0820782726144
 30
0.0
 10
208.523191165084
 20
109.1919282984544
 30
0.0
 10
208.444839227761
 20
109.2527624453196
 30
0.0
 10
208.1925303564788
 20
109.4428221290795
 30
0.0
 10
208.0018553732572
 20
109.5805120230843
 30
0.0
 10
207.7842952502679
 20
109.716184596626
 30
0.0
  0
SPLINE
  5
119
330
1F
100
AcDbEntity
  8
0
  6
HIDDEN
 62
     7
370
     0
100
AcDbSpline
210
0.0
220
0.0
230
1.0
 70
     8
 71
     3
 72
    22
 73
    18
 74
     0
 42
0.00000001
 43
0.00000001
 12
1.0
 22
0.0
 32
0.0
 13
1.0
 23
0.0
 33
0.0
 40
0.0
 40
0.0
 40
0.0
 40
0.0
 40
0.125
 40
0.125
 40
0.25
 40
0.25
 40
0.375
 40
0.375
 40
0.5
 40
0.5
 40
0.625
 40
0.625
 40
0.75
 40
0.75
 40
0.875
 40
0.875
 40
1.0
 40
1.0
 40
1.0
 40
1.0
 10
207.7842952502679
 20
109.716184596626
 30
0.0
 10
207.9527363863466
 20
109.8212261001335
 30
0.0
 10
208.1083411229342
 20
109.9458859620112
 30
0.0
 10
208.3899491755447
 20
110.2339630683974
 30
0.0
 10
208.5133695096359
 20
110.3942746839281
 30
0.0
 10
208.7239653510947
 20
110.7538542925054
 30
0.0
 10
208.8111221804813
 20
110.95581953743
 30
0.0
 10
208.9290527392726
 20
111.3800576154858
 30
0.0
 10
208.9610245001126
 20
111.6081942794413
 30
0.0
 10
208.9618071250712
 20
112.0581183129855
 30
0.0
 10
208.9306478387019
 20
112.2864912693355
 30
0.0
 10
208.8138480824286
 20
112.7120088308889
 30
0.0
 10
208.7274620422804
 20
112.9141402954265
 30
0.0
 10
208.5161218941872
 20
113.2770501888171
 30
0.0
 10
208.3891746118035
 20
113.4418385239192
 30
0.0
 10
208.1091235529564
 20
113.7283241594103
 30
0.0
 10
207.9551503514619
 20
113.8522784085035
 30
0.0
 10
207.7842952502679
 20
113.9588252837452
 30
0.0
  0
SPLINE
  5
11A
330
1F
100
AcDbEntity
  8
0
  6
HIDDEN
 62
     7
370
     0
100
AcDbSpline
210
0.0
220
0.0
230
1.0
 70
     8
 71
     3
 72
    58
 73
    54
 74
     0
 42
0.00000001
 43
0.00000001
 12
1.0
 22
0.0
 32
0.0
 13
1.0
 23
0.0
 33
0.0
 40
0.0
 40
0.0
 40
0.0
 40
0.0
 40
0.0312499999999992
 40
0.0312499999999992
 40
0.0624999999999985
 40
0.0624999999999985
 40
0.0937499999999978
 40
0.0937499999999978
 40
0.1249999999999971
 40
0.1249999999999971
 40
0.1562499999999963
 40
0.1562499999999963
 40
0.1874999999999956
 40
0.1874999999999956
 40
0.249999999999994
 40
0.249999999999994
 40
0.2812499999999932
 40
0.2812499999999932
 40
0.3124999999999924
 40
0.3124999999999924
 40
0.3749999999999916
 40
0.3749999999999916
 40
0.4062499999999917
 40
0.4062499999999917
 40
0.4374999999999918
 40
0.4374999999999918
 40
0.468749999999992
 40
0.468749999999992
 40
0.4999999999999921
 40
0.4999999999999921
 40
0.5312499999999922
 40
0.5312499999999922
 40
0.5624999999999923
 40
0.5624999999999923
 40
0.6249999999999927
 40
0.6249999999999927
 40
0.6562499999999933
 40
0.6562499999999933
 40
0.687499999999994
 40
0.687499999999994
 40
0.7187499999999947
 40
0.7187499999999947
 40
0.7499999999999953
 40
0.7499999999999953
 40
0.8124999999999968
 40
0.8124999999999968
 40
0.8437499999999974
 40
0.8437499999999974
 40
0.8749999999999981
 40
0.8749999999999981
 40
0.9374999999999991
 40
0.9374999999999991
 40
1.0
 40
1.0
 40
1.0
 40
1.0
 10
207.7842952502679
 20
113.9588252837452
 30
0.0
 10
207.8915145092518
 20
114.0256882391421
 30
0.0
 10
207.9929629233128
 20
114.0938059987169
 30
0.0
 10
208.185724095422
 20
114.2288425387918
 30
0.0
 10
208.2770417816487
 20
114.295851474313
 30
0.0
 10
208.4440398336499
 20
114.421642469033
 30
0.0
 10
208.5205177585377
 20
114.4810024476633
 30
0.0
 10
208.6588081743507
 20
114.5900874355326
 30
0.0
 10
208.7211314559847
 20
114.6402465464557
 30
0.0
 10
208.8261881206346
 20
114.7256172989296
 30
0.0
 10
208.8684570263659
 20
114.7604349990959
 30
0.0
 10
208.9309790358182
 20
114.8121334489329
 30
0.0
 10
208.9509892792522
 20
114.8288158866221
 30
0.0
 10
208.972703096311
 20
114.8469036645341
 30
0.0
 10
208.9360566950674
 20
114.8160479871915
 30
0.0
 10
208.8150521882284
 20
114.7165775098308
 30
0.0
 10
208.7633412809978
 20
114.6743279978195
 30
0.0
 10
208.6430971172484
 20
114.5776579327896
 30
0.0
 10
208.5744845996696
 20
114.5231532010615
 30
0.0
 10
208.344796974562
 20
114.3450459307021
 30
0.0
 10
208.1654147802177
 20
114.2104978919228
 30
0.0
 10
207.8618501899074
 20
114.0067397917186
 30
0.0
 10
207.753661788482
 20
113.9378362960652
 30
0.0
 10
207.5274358332772
 20
113.806741477026
 30
0.0
 10
207.4091838841279
 20
113.7442391876415
 30
0.0
 10
207.1583805568651
 20
113.6328135278402
 30
0.0
 10
207.0245905800141
 20
113.5837479916198
 30
0.0
 10
206.7491408167834
 20
113.5152971614214
 30
0.0
 10
206.6043435486544
 20
113.4955645012432
 30
0.0
 10
206.3126874922688
 20
113.4960752551602
 30
0.0
 10
206.1711502610057
 20
113.515713224384
 30
0.0
 10
205.8949926434056
 20
113.5847788884379
 30
0.0
 10
205.7621499912646
 20
113.6337479469017
 30
0.0
 10
205.3877739257435
 20
113.8003495254487
 30
0.0
 10
205.1610809390019
 20
113.9395582284929
 30
0.0
 10
204.859220682031
 20
114.1421693859768
 30
0.0
 10
204.7643621240213
 20
114.2094877176843
 30
0.0
 10
204.5855003893782
 20
114.3405772729143
 30
0.0
 10
204.5012864708904
 20
114.4045699980746
 30
0.0
 10
204.3494406745821
 20
114.5223058839078
 30
0.0
 10
204.2810867681279
 20
114.576587216224
 30
0.0
 10
204.1608359663971
 20
114.6732421478802
 30
0.0
 10
204.1090372668265
 20
114.7155550561692
 30
0.0
 10
203.9877721681108
 20
114.8152240345705
 30
0.0
 10
203.9505010698646
 20
114.8466000157968
 30
0.0
 10
203.9712683989959
 20
114.8293001055546
 30
0.0
 10
203.9909034954476
 20
114.8129287170974
 30
0.0
 10
204.0528451333046
 20
114.7617018883457
 30
0.0
 10
204.0948740660467
 20
114.7270736152834
 30
0.0
 10
204.251992149747
 20
114.5993606912459
 30
0.0
 10
204.3944492633317
 20
114.4851600843559
 30
0.0
 10
204.7314602214181
 20
114.2313451280171
 30
0.0
 10
204.9219827765764
 20
114.0938748960505
 30
0.0
 10
205.1385439392033
 20
113.9588252837452
 30
0.0
  0
SPLINE
  5
11B
330
1F
100
AcDbEntity
  8
0
  6
HIDDEN
 62
     7
370
     0
100
AcDbSpline
210
0.0
220
0.0
230
1.0
 70
     8
 71
     3
 72
    22
 73
    18
 74
     0
 42
0.00000001
 43
0.00000001
 12
1.0
 22
0.0
 32
0.0
 13
1.0
 23
0.0
 33
0.0
 40
0.0
 40
0.0
 40
0.0
 40
0.0
 40
0.125
 40
0.125
 40
0.25
 40
0.25
 40
0.375
 40
0.375
 40
0.5
 40
0.5
 40
0.625
 40
0.625
 40
0.75
 40
0.75
 40
0.875
 40
0.875
 40
1.0
 40
1.0
 40
1.0
 40
1.0
 10
225.1385439392033
 20
113.9588252837452
 30
0.0
 10
224.9693960511601
 20
113.8533430429529
 30
0.0
 10
224.8157221934184
 20
113.7301335708821
 30
0.0
 10
224.5346020297312
 20
113.4430382290416
 30
0.0
 10
224.4083209078201
 20
113.2791843866627
 30
0.0
 10
224.1974997559832
 20
112.9183938374882
 30
0.0
 10
224.1107144066068
 20
112.7164757452116
 30
0.0
 10
223.9933285335734
 20
112.2924017102278
 30
0.0
 10
223.96158883923
 20
112.0642624859911
 30
0.0
 10
223.9612517544814
 20
111.6144947132669
 30
0.0
 10
223.9925592117798
 20
111.3865637113302
 30
0.0
 10
224.1096053682685
 20
110.9613831298208
 30
0.0
 10
224.1960296580212
 20
110.7595312251976
 30
0.0
 10
224.4073844466157
 20
110.397033313995
 30
0.0
 10
224.5342705910078
 20
110.2324314027697
 30
0.0
 10
224.8145769062422
 20
109.9459253086507
 30
0.0
 10
224.9683754305523
 20
109.822303306191
 30
0.0
 10
225.1385439392033
 20
109.716184596626
 30
0.0
  0
SPLINE
  5
11C
330
1F
100
AcDbEntity
  8
0
  6
HIDDEN
 62
     7
370
     0
100
AcDbSpline
210
0.0
220
0.0
230
1.0
 70
     8
 71
     3
 72
    60
 73
    56
 74
     0
 42
0.00000001
 43
0.00000001
 12
1.0
 22
0.0
 32
0.0
 13
1.0
 23
0.0
 33
0.0
 40
0.0
 40
0.0
 40
0.0
 40
0.0
 40
0.0625000000000006
 40
0.0625000000000006
 40
0.1250000000000012
 40
0.1250000000000012
 40
0.1562500000000016
 40
0.1562500000000016
 40
0.1875000000000019
 40
0.1875000000000019
 40
0.2187500000000022
 40
0.2187500000000022
 40
0.2500000000000026
 40
0.2500000000000026
 40
0.2812500000000029
 40
0.2812500000000029
 40
0.3125000000000033
 40
0.3125000000000033
 40
0.3437500000000037
 40
0.3437500000000037
 40
0.375000000000004
 40
0.375000000000004
 40
0.4375000000000047
 40
0.4375000000000047
 40
0.4687500000000044
 40
0.4687500000000044
 40
0.5000000000000041
 40
0.5000000000000041
 40
0.5312500000000039
 40
0.5312500000000039
 40
0.5625000000000036
 40
0.5625000000000036
 40
0.5937500000000033
 40
0.5937500000000033
 40
0.6250000000000031
 40
0.6250000000000031
 40
0.6875000000000026
 40
0.6875000000000026
 40
0.7187500000000023
 40
0.7187500000000023
 40
0.7500000000000021
 40
0.7500000000000021
 40
0.7812500000000019
 40
0.7812500000000019
 40
0.8125000000000016
 40
0.8125000000000016
 40
0.8437500000000013
 40
0.8437500000000013
 40
0.8750000000000011
 40
0.8750000000000011
 40
0.9062500000000009
 40
0.9062500000000009
 40
0.9375000000000006
 40
0.9375000000000006
 40
1.0
 40
1.0
 40
1.0
 40
1.0
 10
225.1385439392034
 20
109.716184596626
 30
0.0
 10
224.9232337058057
 20
109.5819150757525
 30
0.0
 10
224.732480371939
 20
109.4444279990893
 30
0.0
 10
224.3937773018614
 20
109.1893487776521
 30
0.0
 10
224.253533612781
 20
109.0768880120651
 30
0.0
 10
224.095787157625
 20
108.9486854310888
 30
0.0
 10
224.0536778290151
 20
108.9139941324153
 30
0.0
 10
223.9915632597523
 20
108.8626292540077
 30
0.0
 10
223.971636819098
 20
108.846016562239
 30
0.0
 10
223.9573794346249
 20
108.8341398992731
 30
0.0
 10
223.9625359500624
 20
108.8384510003299
 30
0.0
 10
223.9976067568438
 20
108.8676095270929
 30
0.0
 10
224.0274936438887
 20
108.8924298146063
 30
0.0
 10
224.108193765459
 20
108.9587649789049
 30
0.0
 10
224.1597824897935
 20
109.0009134879952
 30
0.0
 10
224.2801974058802
 20
109.0977151780052
 30
0.0
 10
224.3487826429921
 20
109.152191089306
 30
0.0
 10
224.5014807290281
 20
109.2705931876775
 30
0.0
 10
224.5856295680883
 20
109.3345258900976
 30
0.0
 10
224.76406847763
 20
109.4653083387528
 30
0.0
 10
224.8589402235586
 20
109.5326531829125
 30
0.0
 10
225.1617549688832
 20
109.7359021966779
 30
0.0
 10
225.3882284923448
 20
109.8750015614692
 30
0.0
 10
225.7638482073982
 20
110.0419476638122
 30
0.0
 10
225.8975304030944
 20
110.0910269646834
 30
0.0
 10
226.1729243894679
 20
110.1595765203991
 30
0.0
 10
226.3181701650212
 20
110.1792591324821
 30
0.0
 10
226.6062065849753
 20
110.1791256011334
 30
0.0
 10
226.7491495177372
 20
110.1597949828443
 30
0.0
 10
227.0268106525064
 20
110.0906250815294
 30
0.0
 10
227.1575677261789
 20
110.0425095759704
 30
0.0
 10
227.4082407883905
 20
109.9312372492785
 30
0.0
 10
227.528354955249
 20
109.8677510044389
 30
0.0
 10
227.7535724425887
 20
109.7372100832452
 30
0.0
 10
227.8597621080063
 20
109.6696131787809
 30
0.0
 10
228.1626042869137
 20
109.466513380545
 30
0.0
 10
228.3444957635637
 20
109.3301402991113
 30
0.0
 10
228.570924423327
 20
109.1546452684406
 30
0.0
 10
228.6393135468325
 20
109.1003666328914
 30
0.0
 10
228.7602611622813
 20
109.0031837517256
 30
0.0
 10
228.8121793012242
 20
108.9607822039376
 30
0.0
 10
228.8935499419361
 20
108.8939152049526
 30
0.0
 10
228.9238372911979
 20
108.8687676925605
 30
0.0
 10
228.9598340107659
 20
108.8388428172024
 30
0.0
 10
228.9653972616023
 20
108.8341917155176
 30
0.0
 10
228.9519517981091
 20
108.8453925049087
 30
0.0
 10
228.9324262143732
 20
108.8616732722473
 30
0.0
 10
228.8708364383346
 20
108.9126135015455
 30
0.0
 10
228.8288744098606
 20
108.9471921383819
 30
0.0
 10
228.7239028624531
 20
109.032527876587
 30
0.0
 10
228.6623744696446
 20
109.0820782726144
 30
0.0
 10
228.523191165084
 20
109.1919282984544
 30
0.0
 10
228.444839227761
 20
109.2527624453196
 30
0.0
 10
228.1925303564788
 20
109.4428221290795
 30
0.0
 10
228.0018553732572
 20
109.5805120230843
 30
0.0
 10
227.7842952502679
 20
109.716184596626
 30
0.0
  0
SPLINE
  5
11D
330
1F
100
AcDbEntity
  8
0
  6
HIDDEN
 62
     7
370
     0
100
AcDbSpline
210
0.0
220
0.0
230
1.0
 70
     8
 71
     3
 72
    22
 73
    18
 74
     0
 42
0.00000001
 43
0.00000001
 12
1.0
 22
0.0
 32
0.0
 13
1.0
 23
0.0
 33
0.0
 40
0.0
 40
0.0
 40
0.0
 40
0.0
 40
0.125
 40
0.125
 40
0.25
 40
0.25
 40
0.375
 40
0.375
 40
0.5
 40
0.5
 40
0.625
 40
0.625
 40
0.75
 40
0.75
 40
0.875
 40
0.875
 40
1.0
 40
1.0
 40
1.0
 40
1.0
 10
227.7842952502679
 20
109.716184596626
 30
0.0
 10
227.9527363863466
 20
109.8212261001335
 30
0.0
 10
228.1083411229342
 20
109.9458859620112
 30
0.0
 10
228.3899491755447
 20
110.2339630683974
 30
0.0
 10
228.5133695096358
 20
110.3942746839281
 30
0.0
 10
228.7239653510947
 20
110.7538542925054
 30
0.0
 10
228.8111221804813
 20
110.95581953743
 30
0.0
 10
228.9290527392726
 20
111.3800576154858
 30
0.0
 10
228.9610245001126
 20
111.6081942794413
 30
0.0
 10
228.9618071250712
 20
112.0581183129855
 30
0.0
 10
228.9306478387019
 20
112.2864912693355
 30
0.0
 10
228.8138480824286
 20
112.7120088308889
 30
0.0
 10
228.7274620422804
 20
112.9141402954265
 30
0.0
 10
228.5161218941872
 20
113.2770501888171
 30
0.0
 10
228.3891746118035
 20
113.4418385239192
 30
0.0
 10
228.1091235529564
 20
113.7283241594104
 30
0.0
 10
227.9551503514619
 20
113.8522784085035
 30
0.0
 10
227.7842952502679
 20
113.9588252837452
 30
0.0
  0
SPLINE
  5
11E
330
1F
100
AcDbEntity
  8
0
  6
HIDDEN
 62
     7
370
     0
100
AcDbSpline
210
0.0
220
0.0
230
1.0
 70
     8
 71
     3
 72
    58
 73
    54
 74
     0
 42
0.00000001
 43
0.00000001
 12
1.0
 22
0.0
 32
0.0
 13
1.0
 23
0.0
 33
0.0
 40
0.0
 40
0.0
 40
0.0
 40
0.0
 40
0.0312500000000004
 40
0.0312500000000004
 40
0.0625000000000009
 40
0.0625000000000009
 40
0.0937500000000013
 40
0.0937500000000013
 40
0.1250000000000018
 40
0.1250000000000018
 40
0.1562500000000023
 40
0.1562500000000023
 40
0.1875000000000027
 40
0.1875000000000027
 40
0.2500000000000037
 40
0.2500000000000037
 40
0.281250000000004
 40
0.281250000000004
 40
0.3125000000000042
 40
0.3125000000000042
 40
0.375000000000004
 40
0.375000000000004
 40
0.4062500000000033
 40
0.4062500000000033
 40
0.4375000000000026
 40
0.4375000000000026
 40
0.4687500000000019
 40
0.4687500000000019
 40
0.5000000000000012
 40
0.5000000000000012
 40
0.5312500000000007
 40
0.5312500000000007
 40
0.5625
 40
0.5625
 40
0.6249999999999987
 40
0.6249999999999987
 40
0.6562499999999986
 40
0.6562499999999986
 40
0.6874999999999984
 40
0.6874999999999984
 40
0.7187499999999983
 40
0.7187499999999983
 40
0.7499999999999982
 40
0.7499999999999982
 40
0.8124999999999986
 40
0.8124999999999986
 40
0.8437499999999987
 40
0.8437499999999987
 40
0.8749999999999987
 40
0.8749999999999987
 40
0.9374999999999993
 40
0.9374999999999993
 40
1.0
 40
1.0
 40
1.0
 40
1.0
 10
227.7842952502679
 20
113.9588252837452
 30
0.0
 10
227.8915145092518
 20
114.0256882391421
 30
0.0
 10
227.9929629233127
 20
114.0938059987169
 30
0.0
 10
228.185724095422
 20
114.2288425387918
 30
0.0
 10
228.2770417816487
 20
114.295851474313
 30
0.0
 10
228.4440398336499
 20
114.421642469033
 30
0.0
 10
228.5205177585377
 20
114.4810024476633
 30
0.0
 10
228.6588081743508
 20
114.5900874355326
 30
0.0
 10
228.7211314559847
 20
114.6402465464557
 30
0.0
 10
228.8261881206346
 20
114.7256172989296
 30
0.0
 10
228.8684570263659
 20
114.7604349990959
 30
0.0
 10
228.9309790358181
 20
114.8121334489329
 30
0.0
 10
228.9509892792522
 20
114.8288158866221
 30
0.0
 10
228.972703096311
 20
114.8469036645341
 30
0.0
 10
228.9360566950674
 20
114.8160479871915
 30
0.0
 10
228.8150521882284
 20
114.7165775098308
 30
0.0
 10
228.7633412809978
 20
114.6743279978195
 30
0.0
 10
228.6430971172484
 20
114.5776579327896
 30
0.0
 10
228.5744845996695
 20
114.5231532010615
 30
0.0
 10
228.344796974562
 20
114.3450459307021
 30
0.0
 10
228.1654147802177
 20
114.2104978919228
 30
0.0
 10
227.8618501899074
 20
114.0067397917186
 30
0.0
 10
227.753661788482
 20
113.9378362960652
 30
0.0
 10
227.5274358332772
 20
113.806741477026
 30
0.0
 10
227.4091838841279
 20
113.7442391876415
 30
0.0
 10
227.1583805568651
 20
113.6328135278402
 30
0.0
 10
227.0245905800141
 20
113.5837479916198
 30
0.0
 10
226.7491408167834
 20
113.5152971614214
 30
0.0
 10
226.6043435486544
 20
113.4955645012432
 30
0.0
 10
226.3126874922688
 20
113.4960752551602
 30
0.0
 10
226.1711502610057
 20
113.515713224384
 30
0.0
 10
225.8949926434056
 20
113.5847788884379
 30
0.0
 10
225.7621499912646
 20
113.6337479469017
 30
0.0
 10
225.3877739257434
 20
113.8003495254487
 30
0.0
 10
225.1610809390019
 20
113.9395582284929
 30
0.0
 10
224.859220682031
 20
114.1421693859768
 30
0.0
 10
224.7643621240213
 20
114.2094877176843
 30
0.0
 10
224.5855003893782
 20
114.3405772729143
 30
0.0
 10
224.5012864708903
 20
114.4045699980746
 30
0.0
 10
224.3494406745821
 20
114.5223058839078
 30
0.0
 10
224.2810867681279
 20
114.576587216224
 30
0.0
 10
224.1608359663971
 20
114.6732421478802
 30
0.0
 10
224.1090372668265
 20
114.7155550561692
 30
0.0
 10
223.9877721681108
 20
114.8152240345705
 30
0.0
 10
223.9505010698646
 20
114.8466000157968
 30
0.0
 10
223.9712683989959
 20
114.8293001055546
 30
0.0
 10
223.9909034954475
 20
114.8129287170974
 30
0.0
 10
224.0528451333046
 20
114.7617018883457
 30
0.0
 10
224.0948740660467
 20
114.7270736152834
 30
0.0
 10
224.251992149747
 20
114.5993606912459
 30
0.0
 10
224.3944492633318
 20
114.4851600843559
 30
0.0
 10
224.7314602214181
 20
114.2313451280171
 30
0.0
 10
224.9219827765764
 20
114.0938748960505
 30
0.0
 10
225.1385439392033
 20
113.9588252837452
 30
0.0
  0
SPLINE
  5
11F
330
1F
100
AcDbEntity
  8
0
  6
HIDDEN
 62
     7
370
     0
100
AcDbSpline
210
0.0
220
0.0
230
1.0
 70
     8
 71
     3
 72
    22
 73
    18
 74
     0
 42
0.00000001
 43
0.00000001
 12
1.0
 22
0.0
 32
0.0
 13
1.0
 23
0.0
 33
0.0
 40
0.0
 40
0.0
 40
0.0
 40
0.0
 40
0.125
 40
0.125
 40
0.25
 40
0.25
 40
0.375
 40
0.375
 40
0.5
 40
0.5
 40
0.625
 40
0.625
 40
0.75
 40
0.75
 40
0.875
 40
0.875
 40
1.0
 40
1.0
 40
1.0
 40
1.0
 10
215.1385439392033
 20
113.9588252837452
 30
0.0
 10
214.9693960511601
 20
113.8533430429529
 30
0.0
 10
214.8157221934184
 20
113.7301335708821
 30
0.0
 10
214.5346020297312
 20
113.4430382290416
 30
0.0
 10
214.4083209078201
 20
113.2791843866627
 30
0.0
 10
214.1974997559832
 20
112.9183938374882
 30
0.0
 10
214.1107144066068
 20
112.7164757452116
 30
0.0
 10
213.9933285335734
 20
112.2924017102278
 30
0.0
 10
213.9615888392299
 20
112.0642624859911
 30
0.0
 10
213.9612517544814
 20
111.6144947132668
 30
0.0
 10
213.9925592117798
 20
111.3865637113302
 30
0.0
 10
214.1096053682685
 20
110.9613831298208
 30
0.0
 10
214.1960296580212
 20
110.7595312251976
 30
0.0
 10
214.4073844466158
 20
110.397033313995
 30
0.0
 10
214.5342705910078
 20
110.2324314027697
 30
0.0
 10
214.8145769062422
 20
109.9459253086507
 30
0.0
 10
214.9683754305523
 20
109.822303306191
 30
0.0
 10
215.1385439392034
 20
109.716184596626
 30
0.0
  0
SPLINE
  5
120
330
1F
100
AcDbEntity
  8
0
  6
HIDDEN
 62
     7
370
     0
100
AcDbSpline
210
0.0
220
0.0
230
1.0
 70
     8
 71
     3
 72
    60
 73
    56
 74
     0
 42
0.00000001
 43
0.00000001
 12
1.0
 22
0.0
 32
0.0
 13
1.0
 23
0.0
 33
0.0
 40
0.0
 40
0.0
 40
0.0
 40
0.0
 40
0.0625000000000015
 40
0.0625000000000015
 40
0.125000000000003
 40
0.125000000000003
 40
0.1562500000000036
 40
0.1562500000000036
 40
0.1875000000000041
 40
0.1875000000000041
 40
0.2187500000000046
 40
0.2187500000000046
 40
0.2500000000000051
 40
0.2500000000000051
 40
0.2812500000000057
 40
0.2812500000000057
 40
0.3125000000000061
 40
0.3125000000000061
 40
0.3437500000000066
 40
0.3437500000000066
 40
0.375000000000007
 40
0.375000000000007
 40
0.4375000000000081
 40
0.4375000000000081
 40
0.4687500000000079
 40
0.4687500000000079
 40
0.5000000000000078
 40
0.5000000000000078
 40
0.5312500000000077
 40
0.5312500000000077
 40
0.5625000000000075
 40
0.5625000000000075
 40
0.5937500000000073
 40
0.5937500000000073
 40
0.6250000000000072
 40
0.6250000000000072
 40
0.687500000000006
 40
0.687500000000006
 40
0.7187500000000054
 40
0.7187500000000054
 40
0.7500000000000048
 40
0.7500000000000048
 40
0.7812500000000042
 40
0.7812500000000042
 40
0.8125000000000037
 40
0.8125000000000037
 40
0.8437500000000031
 40
0.8437500000000031
 40
0.8750000000000026
 40
0.8750000000000026
 40
0.906250000000002
 40
0.906250000000002
 40
0.9375000000000013
 40
0.9375000000000013
 40
1.0
 40
1.0
 40
1.0
 40
1.0
 10
215.1385439392034
 20
109.716184596626
 30
0.0
 10
214.9232337058057
 20
109.5819150757525
 30
0.0
 10
214.732480371939
 20
109.4444279990893
 30
0.0
 10
214.3937773018614
 20
109.1893487776521
 30
0.0
 10
214.253533612781
 20
109.0768880120651
 30
0.0
 10
214.095787157625
 20
108.9486854310888
 30
0.0
 10
214.0536778290151
 20
108.9139941324153
 30
0.0
 10
213.9915632597523
 20
108.8626292540077
 30
0.0
 10
213.971636819098
 20
108.846016562239
 30
0.0
 10
213.9573794346249
 20
108.8341398992731
 30
0.0
 10
213.9625359500625
 20
108.8384510003299
 30
0.0
 10
213.9976067568438
 20
108.8676095270929
 30
0.0
 10
214.0274936438887
 20
108.8924298146063
 30
0.0
 10
214.108193765459
 20
108.9587649789049
 30
0.0
 10
214.1597824897935
 20
109.0009134879952
 30
0.0
 10
214.2801974058802
 20
109.0977151780052
 30
0.0
 10
214.3487826429921
 20
109.152191089306
 30
0.0
 10
214.5014807290281
 20
109.2705931876775
 30
0.0
 10
214.5856295680883
 20
109.3345258900976
 30
0.0
 10
214.76406847763
 20
109.4653083387528
 30
0.0
 10
214.8589402235586
 20
109.5326531829125
 30
0.0
 10
215.1617549688832
 20
109.7359021966779
 30
0.0
 10
215.3882284923448
 20
109.8750015614692
 30
0.0
 10
215.7638482073982
 20
110.0419476638122
 30
0.0
 10
215.8975304030944
 20
110.0910269646834
 30
0.0
 10
216.1729243894678
 20
110.1595765203991
 30
0.0
 10
216.3181701650212
 20
110.1792591324821
 30
0.0
 10
216.6062065849754
 20
110.1791256011334
 30
0.0
 10
216.7491495177372
 20
110.1597949828443
 30
0.0
 10
217.0268106525064
 20
110.0906250815294
 30
0.0
 10
217.1575677261788
 20
110.0425095759704
 30
0.0
 10
217.4082407883905
 20
109.9312372492785
 30
0.0
 10
217.528354955249
 20
109.8677510044389
 30
0.0
 10
217.7535724425887
 20
109.7372100832452
 30
0.0
 10
217.8597621080063
 20
109.6696131787809
 30
0.0
 10
218.1626042869137
 20
109.466513380545
 30
0.0
 10
218.3444957635637
 20
109.3301402991113
 30
0.0
 10
218.5709244233269
 20
109.1546452684406
 30
0.0
 10
218.6393135468325
 20
109.1003666328914
 30
0.0
 10
218.7602611622814
 20
109.0031837517256
 30
0.0
 10
218.8121793012243
 20
108.9607822039376
 30
0.0
 10
218.8935499419361
 20
108.8939152049526
 30
0.0
 10
218.9238372911979
 20
108.8687676925605
 30
0.0
 10
218.9598340107659
 20
108.8388428172024
 30
0.0
 10
218.9653972616023
 20
108.8341917155176
 30
0.0
 10
218.9519517981091
 20
108.8453925049087
 30
0.0
 10
218.9324262143732
 20
108.8616732722472
 30
0.0
 10
218.8708364383346
 20
108.9126135015455
 30
0.0
 10
218.8288744098605
 20
108.9471921383819
 30
0.0
 10
218.7239028624532
 20
109.032527876587
 30
0.0
 10
218.6623744696446
 20
109.0820782726144
 30
0.0
 10
218.523191165084
 20
109.1919282984544
 30
0.0
 10
218.444839227761
 20
109.2527624453196
 30
0.0
 10
218.1925303564788
 20
109.4428221290795
 30
0.0
 10
218.0018553732571
 20
109.5805120230843
 30
0.0
 10
217.7842952502679
 20
109.7161845966259
 30
0.0
  0
SPLINE
  5
121
330
1F
100
AcDbEntity
  8
0
  6
HIDDEN
 62
     7
370
     0
100
AcDbSpline
210
0.0
220
0.0
230
1.0
 70
     8
 71
     3
 72
    22
 73
    18
 74
     0
 42
0.00000001
 43
0.00000001
 12
1.0
 22
0.0
 32
0.0
 13
1.0
 23
0.0
 33
0.0
 40
0.0
 40
0.0
 40
0.0
 40
0.0
 40
0.125
 40
0.125
 40
0.25
 40
0.25
 40
0.375
 40
0.375
 40
0.5
 40
0.5
 40
0.625
 40
0.625
 40
0.75
 40
0.75
 40
0.875
 40
0.875
 40
1.0
 40
1.0
 40
1.0
 40
1.0
 10
217.7842952502679
 20
109.716184596626
 30
0.0
 10
217.9527363863466
 20
109.8212261001335
 30
0.0
 10
218.1083411229342
 20
109.9458859620112
 30
0.0
 10
218.3899491755447
 20
110.2339630683974
 30
0.0
 10
218.5133695096359
 20
110.3942746839281
 30
0.0
 10
218.7239653510947
 20
110.7538542925054
 30
0.0
 10
218.8111221804813
 20
110.95581953743
 30
0.0
 10
218.9290527392726
 20
111.3800576154858
 30
0.0
 10
218.9610245001126
 20
111.6081942794413
 30
0.0
 10
218.9618071250712
 20
112.0581183129855
 30
0.0
 10
218.930647838702
 20
112.2864912693355
 30
0.0
 10
218.8138480824286
 20
112.7120088308889
 30
0.0
 10
218.7274620422804
 20
112.9141402954265
 30
0.0
 10
218.5161218941872
 20
113.2770501888171
 30
0.0
 10
218.3891746118035
 20
113.4418385239192
 30
0.0
 10
218.1091235529564
 20
113.7283241594104
 30
0.0
 10
217.9551503514619
 20
113.8522784085035
 30
0.0
 10
217.7842952502679
 20
113.9588252837452
 30
0.0
  0
SPLINE
  5
122
330
1F
100
AcDbEntity
  8
0
  6
HIDDEN
 62
     7
370
     0
100
AcDbSpline
210
0.0
220
0.0
230
1.0
 70
     8
 71
     3
 72
    58
 73
    54
 74
     0
 42
0.00000001
 43
0.00000001
 12
1.0
 22
0.0
 32
0.0
 13
1.0
 23
0.0
 33
0.0
 40
0.0
 40
0.0
 40
0.0
 40
0.0
 40
0.0312499999999992
 40
0.0312499999999992
 40
0.0624999999999983
 40
0.0624999999999983
 40
0.0937499999999975
 40
0.0937499999999975
 40
0.1249999999999966
 40
0.1249999999999966
 40
0.1562499999999958
 40
0.1562499999999958
 40
0.1874999999999949
 40
0.1874999999999949
 40
0.2499999999999932
 40
0.2499999999999932
 40
0.2812499999999923
 40
0.2812499999999923
 40
0.3124999999999914
 40
0.3124999999999914
 40
0.3749999999999904
 40
0.3749999999999904
 40
0.4062499999999905
 40
0.4062499999999905
 40
0.4374999999999905
 40
0.4374999999999905
 40
0.4687499999999906
 40
0.4687499999999906
 40
0.4999999999999907
 40
0.4999999999999907
 40
0.5312499999999907
 40
0.5312499999999907
 40
0.5624999999999908
 40
0.5624999999999908
 40
0.624999999999991
 40
0.624999999999991
 40
0.6562499999999916
 40
0.6562499999999916
 40
0.6874999999999922
 40
0.6874999999999922
 40
0.7187499999999928
 40
0.7187499999999928
 40
0.7499999999999933
 40
0.7499999999999933
 40
0.8124999999999947
 40
0.8124999999999947
 40
0.8437499999999954
 40
0.8437499999999954
 40
0.8749999999999961
 40
0.8749999999999961
 40
0.937499999999998
 40
0.937499999999998
 40
1.0
 40
1.0
 40
1.0
 40
1.0
 10
217.7842952502679
 20
113.9588252837452
 30
0.0
 10
217.8915145092518
 20
114.0256882391421
 30
0.0
 10
217.9929629233127
 20
114.0938059987169
 30
0.0
 10
218.185724095422
 20
114.2288425387918
 30
0.0
 10
218.2770417816487
 20
114.295851474313
 30
0.0
 10
218.4440398336499
 20
114.421642469033
 30
0.0
 10
218.5205177585376
 20
114.4810024476633
 30
0.0
 10
218.6588081743507
 20
114.5900874355326
 30
0.0
 10
218.7211314559847
 20
114.6402465464557
 30
0.0
 10
218.8261881206346
 20
114.7256172989296
 30
0.0
 10
218.8684570263659
 20
114.7604349990959
 30
0.0
 10
218.9309790358182
 20
114.8121334489329
 30
0.0
 10
218.9509892792522
 20
114.8288158866221
 30
0.0
 10
218.972703096311
 20
114.8469036645341
 30
0.0
 10
218.9360566950674
 20
114.8160479871915
 30
0.0
 10
218.8150521882283
 20
114.7165775098308
 30
0.0
 10
218.7633412809978
 20
114.6743279978195
 30
0.0
 10
218.6430971172484
 20
114.5776579327896
 30
0.0
 10
218.5744845996695
 20
114.5231532010615
 30
0.0
 10
218.344796974562
 20
114.3450459307021
 30
0.0
 10
218.1654147802177
 20
114.2104978919228
 30
0.0
 10
217.8618501899074
 20
114.0067397917186
 30
0.0
 10
217.753661788482
 20
113.9378362960652
 30
0.0
 10
217.5274358332772
 20
113.806741477026
 30
0.0
 10
217.4091838841279
 20
113.7442391876415
 30
0.0
 10
217.1583805568651
 20
113.6328135278402
 30
0.0
 10
217.0245905800141
 20
113.5837479916198
 30
0.0
 10
216.7491408167834
 20
113.5152971614214
 30
0.0
 10
216.6043435486545
 20
113.4955645012432
 30
0.0
 10
216.3126874922688
 20
113.4960752551602
 30
0.0
 10
216.1711502610057
 20
113.515713224384
 30
0.0
 10
215.8949926434056
 20
113.5847788884379
 30
0.0
 10
215.7621499912646
 20
113.6337479469017
 30
0.0
 10
215.3877739257435
 20
113.8003495254487
 30
0.0
 10
215.1610809390019
 20
113.9395582284929
 30
0.0
 10
214.859220682031
 20
114.1421693859768
 30
0.0
 10
214.7643621240213
 20
114.2094877176843
 30
0.0
 10
214.5855003893782
 20
114.3405772729143
 30
0.0
 10
214.5012864708903
 20
114.4045699980746
 30
0.0
 10
214.3494406745822
 20
114.5223058839078
 30
0.0
 10
214.2810867681279
 20
114.576587216224
 30
0.0
 10
214.1608359663971
 20
114.6732421478802
 30
0.0
 10
214.1090372668265
 20
114.7155550561692
 30
0.0
 10
213.9877721681108
 20
114.8152240345705
 30
0.0
 10
213.9505010698646
 20
114.8466000157968
 30
0.0
 10
213.9712683989959
 20
114.8293001055546
 30
0.0
 10
213.9909034954476
 20
114.8129287170974
 30
0.0
 10
214.0528451333045
 20
114.7617018883457
 30
0.0
 10
214.0948740660467
 20
114.7270736152834
 30
0.0
 10
214.251992149747
 20
114.5993606912459
 30
0.0
 10
214.3944492633317
 20
114.4851600843559
 30
0.0
 10
214.7314602214181
 20
114.2313451280171
 30
0.0
 10
214.9219827765764
 20
114.0938748960505
 30
0.0
 10
215.1385439392033
 20
113.9588252837452
 30
0.0
  0
LINE
  5
123
330
1F
100
AcDbEntity
  8
0
  6
HIDDEN
 62
     7
370
     0
100
AcDbLine
 10
155.6614197542
 20
99.2957824339
 30
0.0
 11
160.2614193906
 21
99.2957824339
 31
0.0
  0
LINE
  5
124
330
1F
100
AcDbEntity
  8
0
  6
HIDDEN
 62
     7
370
     0
100
AcDbLine
 10
149.661419702
 20
99.3463579063
 30
0.0
 11
149.661419702
 21
100.8375049998
 31
0.0
  0
SPLINE
  5
125
330
1F
100
AcDbEntity
  8
0
  6
HIDDEN
 62
     7
370
     0
100
AcDbSpline
210
0.0
220
0.0
230
1.0
 70
     8
 71
     3
 72
    10
 73
     6
 74
     0
 42
0.00000001
 43
0.00000001
 12
1.0
 22
0.0
 32
0.0
 13
1.0
 23
0.0
 33
0.0
 40
0.0
 40
0.0
 40
0.0
 40
0.0
 40
0.5
 40
0.5
 40
1.0
 40
1.0
 40
1.0
 40
1.0
 10
146.9614195947356
 20
99.40971062260031
 30
0.0
 10
146.7012024721976
 20
99.54977689871657
 30
0.0
 10
146.4451679029474
 20
99.68595315247104
 30
0.0
 10
145.9439043142147
 20
99.9495818705206
 30
0.0
 10
145.6985615554514
 20
100.0770880669822
 30
0.0
 10
145.4614195947356
 20
100.1990105708747
 30
0.0
  0
LINE
  5
126
330
1F
100
AcDbEntity
  8
0
  6
HIDDEN
 62
     7
370
     0
100
AcDbLine
 10
145.4614193861
 20
100.1990107317
 30
0.0
 11
145.4614193861
 21
100.8375049998
 31
0.0
  0
ARC
  5
127
330
1F
100
AcDbEntity
  8
0
  6
HIDDEN
 62
     7
370
     0
100
AcDbCircle
 10
206.4614195947
 20
111.8375049402
 30
0.0
 40
2.500000000000005
100
AcDbArc
 50
238.0519405687
 51
301.9480594313
  0
ARC
  5
128
330
1F
100
AcDbEntity
  8
0
  6
HIDDEN
 62
     7
370
     0
100
AcDbCircle
 10
216.4614195947
 20
111.8375049402
 30
0.0
 40
2.500000000000005
100
AcDbArc
 50
238.0519405687
 51
301.9480594313
  0
ARC
  5
129
330
1F
100
AcDbEntity
  8
0
  6
HIDDEN
 62
     7
370
     0
100
AcDbCircle
 10
226.4614195947
 20
111.8375049402
 30
0.0
 40
2.500000000000005
100
AcDbArc
 50
238.0519405687
 51
301.9480594313
  0
ARC
  5
12A
330
1F
100
AcDbEntity
  8
0
  6
HIDDEN
 62
     7
370
     0
100
AcDbCircle
 10
226.4614195947
 20
111.8375049402
 30
0.0
 40
2.500000000000005
100
AcDbArc
 50
58.0519405687
 51
121.9480594313
  0
ARC
  5
12B
330
1F
100
AcDbEntity
  8
0
  6
HIDDEN
 62
     7
370
     0
100
AcDbCircle
 10
216.4614195947
 20
111.8375049402
 30
0.0
 40
2.500000000000005
100
AcDbArc
 50
58.0519405687
 51
121.9480594313
  0
ARC
  5
12C
330
1F
100
AcDbEntity
  8
0
  6
HIDDEN
 62
     7
370
     0
100
AcDbCircle
 10
206.4614195947
 20
111.8375049402
 30
0.0
 40
2.500000000000008
100
AcDbArc
 50
58.0519405687
 51
121.9480594313
  0
LINE
  5
12D
330
1F
100
AcDbEntity
  8
0
  6
HIDDEN
 62
     7
370
     0
100
AcDbLine
 10
155.6614197542
 20
122.8375048806
 30
0.0
 11
160.2614193906
 21
122.8375048806
 31
0.0
  0
LINE
  5
12E
330
1F
100
AcDbEntity
  8
0
  6
HIDDEN
 62
     7
370
     0
100
AcDbLine
 10
179.4614193712
 20
92.3375045379
 30
0.0
 11
183.4614200269
 21
92.3375045379
 31
0.0
  0
LINE
  5
12F
330
1F
100
AcDbEntity
  8
0
  6
HIDDEN
 62
     7
370
     0
100
AcDbLine
 10
145.4614193861
 20
102.57772314
 30
0.0
 11
145.4614193861
 21
100.1990107317
 31
0.0
  0
LINE
  5
130
330
1F
100
AcDbEntity
  8
0
  6
HIDDEN
 62
     7
370
     0
100
AcDbLine
 10
145.4614193861
 20
124.4561323394
 30
0.0
 11
145.4614193861
 21
108.4786591084
 31
0.0
  0
LINE
  5
131
330
1F
100
AcDbEntity
  8
0
  6
HIDDEN
 62
     7
370
     0
100
AcDbLine
 10
146.9614187007
 20
125.2061319967
 30
0.0
 11
146.9614187007
 21
108.4786591084
 31
0.0
  0
LINE
  5
132
330
1F
100
AcDbEntity
  8
0
  6
HIDDEN
 62
     7
370
     0
100
AcDbLine
 10
167.7614195722
 20
125.6586895753
 30
0.0
 11
167.7614195722
 21
108.4786591084
 31
0.0
  0
LINE
  5
133
330
1F
100
AcDbEntity
  8
0
  6
HIDDEN
 62
     7
370
     0
100
AcDbLine
 10
169.2614195998
 20
124.8072046284
 30
0.0
 11
169.2614195998
 21
110.1205100269
 31
0.0
  0
LINE
  5
134
330
1F
100
AcDbEntity
  8
0
  6
HIDDEN
 62
     7
370
     0
100
AcDbLine
 10
145.4614193861
 20
108.4786591084
 30
0.0
 11
145.4614193861
 21
102.57772314
 31
0.0
  0
LINE
  5
135
330
1F
100
AcDbEntity
  8
0
  6
HIDDEN
 62
     7
370
     0
100
AcDbLine
 10
146.9614187007
 20
108.4786591084
 30
0.0
 11
146.9614187007
 21
101.8277234827
 31
0.0
  0
LINE
  5
136
330
1F
100
AcDbEntity
  8
0
  6
HIDDEN
 62
     7
370
     0
100
AcDbLine
 10
167.7614195722
 20
102.0996640866
 30
0.0
 11
167.7614195722
 21
101.375165904
 31
0.0
  0
SPLINE
  5
137
330
1F
100
AcDbEntity
  8
0
  6
HIDDEN
 62
     7
370
     0
100
AcDbSpline
210
0.0
220
0.0
230
1.0
 70
     8
 71
     3
 72
     8
 73
     4
 74
     0
 42
0.00000001
 43
0.00000001
 12
1.0
 22
0.0
 32
0.0
 13
1.0
 23
0.0
 33
0.0
 40
0.0
 40
0.0
 40
0.0
 40
0.0
 40
1.0
 40
1.0
 40
1.0
 40
1.0
 10
167.9663796168022
 20
102.2040835286149
 30
0.0
 10
168.0171067600067
 20
102.0140742292119
 30
0.0
 10
168.0749940895646
 20
101.8388713387845
 30
0.0
 10
168.140099251176
 20
101.6780981713378
 30
0.0
  0
SPLINE
  5
138
330
1F
100
AcDbEntity
  8
0
  6
HIDDEN
 62
     7
370
     0
100
AcDbSpline
210
0.0
220
0.0
230
1.0
 70
     8
 71
     3
 72
    24
 73
    20
 74
     0
 42
0.00000001
 43
0.00000001
 12
1.0
 22
0.0
 32
0.0
 13
1.0
 23
0.0
 33
0.0
 40
0.0
 40
0.0
 40
0.0
 40
0.0
 40
0.2499999999999851
 40
0.2499999999999851
 40
0.374999999999979
 40
0.374999999999979
 40
0.437499999999978
 40
0.437499999999978
 40
0.46874999999998
 40
0.46874999999998
 40
0.499999999999982
 40
0.499999999999982
 40
0.5624999999999845
 40
0.5624999999999845
 40
0.624999999999987
 40
0.624999999999987
 40
0.749999999999991
 40
0.749999999999991
 40
1.0
 40
1.0
 40
1.0
 40
1.0
 10
167.761419594732
 20
102.0996642771595
 30
0.0
 10
167.7618242643078
 20
102.171374021927
 30
0.0
 10
167.7638677111222
 20
102.2448153397224
 30
0.0
 10
167.7732672763765
 20
102.3595248861757
 30
0.0
 10
167.7772181699052
 20
102.3983027698829
 30
0.0
 10
167.7883704782022
 20
102.4592642105448
 30
0.0
 10
167.7925920191287
 20
102.4801143865062
 30
0.0
 10
167.8047997406922
 20
102.5120635647422
 30
0.0
 10
167.8105905109444
 20
102.524584246132
 30
0.0
 10
167.8275120240542
 20
102.5374572978131
 30
0.0
 10
167.834918140004
 20
102.5348229603829
 30
0.0
 10
167.8513753932473
 20
102.5243453279455
 30
0.0
 10
167.8588319111582
 20
102.5122890874173
 30
0.0
 10
167.8727398404329
 20
102.4880019152985
 30
0.0
 10
167.8788317863279
 20
102.4749717470848
 30
0.0
 10
167.8960260786789
 20
102.4348523130974
 30
0.0
 10
167.9060110288825
 20
102.4066780690425
 30
0.0
 10
167.9342570739814
 20
102.3211968727804
 30
0.0
 10
167.9507366109426
 20
102.2626777327489
 30
0.0
 10
167.9663796168022
 20
102.2040835286149
 30
0.0
  0
SPLINE
  5
139
330
1F
100
AcDbEntity
  8
0
  6
HIDDEN
 62
     7
370
     0
100
AcDbSpline
210
0.0
220
0.0
230
1.0
 70
     8
 71
     3
 72
    16
 73
    12
 74
     0
 42
0.00000001
 43
0.00000001
 12
1.0
 22
0.0
 32
0.0
 13
1.0
 23
0.0
 33
0.0
 40
0.0
 40
0.0
 40
0.0
 40
0.0
 40
0.2499999999999998
 40
0.2499999999999998
 40
0.3749999999999998
 40
0.3749999999999998
 40
0.4999999999999999
 40
0.4999999999999999
 40
0.7499999999999999
 40
0.7499999999999999
 40
1.0
 40
1.0
 40
1.0
 40
1.0
 10
167.7614195947355
 20
107.2026295883211
 30
0.0
 10
167.6808822628362
 20
106.707215106083
 30
0.0
 10
167.6208449188089
 20
106.2240506567013
 30
0.0
 10
167.5601072116552
 20
105.517555449424
 30
0.0
 10
167.5447848365423
 20
105.2851162598474
 30
0.0
 10
167.5242020272381
 20
104.826555701962
 30
0.0
 10
167.5190024302125
 20
104.599986584684
 30
0.0
 10
167.5189487770324
 20
103.9449680730004
 30
0.0
 10
167.5391463205101
 20
103.5358927226977
 30
0.0
 10
167.6198244088681
 20
102.7720592051239
 30
0.0
 10
167.6808705734755
 20
102.4167590516643
 30
0.0
 10
167.7614195947336
 20
102.0996642771602
 30
0.0
  0
SPLINE
  5
13A
330
1F
100
AcDbEntity
  8
0
  6
HIDDEN
 62
     7
370
     0
100
AcDbSpline
210
0.0
220
0.0
230
1.0
 70
     8
 71
     3
 72
    24
 73
    20
 74
     0
 42
0.00000001
 43
0.00000001
 12
1.0
 22
0.0
 32
0.0
 13
1.0
 23
0.0
 33
0.0
 40
0.0
 40
0.0
 40
0.0
 40
0.0
 40
0.2500000000000088
 40
0.2500000000000088
 40
0.375000000000012
 40
0.375000000000012
 40
0.4375000000000139
 40
0.4375000000000139
 40
0.5000000000000158
 40
0.5000000000000158
 40
0.5312500000000161
 40
0.5312500000000161
 40
0.5625000000000164
 40
0.5625000000000164
 40
0.6250000000000141
 40
0.6250000000000141
 40
0.7500000000000095
 40
0.7500000000000095
 40
1.0
 40
1.0
 40
1.0
 40
1.0
 10
167.966379616796
 20
107.3075553058274
 30
0.0
 10
167.9506130284977
 20
107.214072533251
 30
0.0
 10
167.934001495543
 20
107.1207543715827
 30
0.0
 10
167.9054751475851
 20
106.981117810618
 30
0.0
 10
167.895389713795
 20
106.9345716663793
 30
0.0
 10
167.8779069432602
 20
106.8651058444021
 30
0.0
 10
167.8716992868146
 20
106.8420055684437
 30
0.0
 10
167.8574277865694
 20
106.7961990463949
 30
0.0
 10
167.8498577160664
 20
106.7728778873623
 30
0.0
 10
167.8324613866311
 20
106.7423146347663
 30
0.0
 10
167.824002113671
 20
106.7317599147251
 30
0.0
 10
167.8079411491234
 20
106.7335702041696
 30
0.0
 10
167.8031079132772
 20
106.7426090810713
 30
0.0
 10
167.7916819935419
 20
106.7688067544693
 30
0.0
 10
167.7876606376594
 20
106.7890515849476
 30
0.0
 10
167.7769001426283
 20
106.8508812454715
 30
0.0
 10
167.7730258335674
 20
106.8938109335234
 30
0.0
 10
167.7638529614403
 20
107.0238668771404
 30
0.0
 10
167.7618205907255
 20
107.1129579685761
 30
0.0
 10
167.7614195947357
 20
107.2026295883211
 30
0.0
  0
LINE
  5
13B
330
1F
100
AcDbEntity
  8
0
  6
HIDDEN
 62
     7
370
     0
100
AcDbLine
 10
167.7614195722
 20
108.4786591084
 30
0.0
 11
167.7614195722
 21
107.2026296017
 31
0.0
  0
SPLINE
  5
13C
330
1F
100
AcDbEntity
  8
0
  6
HIDDEN
 62
     7
370
     0
100
AcDbSpline
210
0.0
220
0.0
230
1.0
 70
     8
 71
     3
 72
     8
 73
     4
 74
     0
 42
0.00000001
 43
0.00000001
 12
1.0
 22
0.0
 32
0.0
 13
1.0
 23
0.0
 33
0.0
 40
0.0
 40
0.0
 40
0.0
 40
0.0
 40
1.0
 40
1.0
 40
1.0
 40
1.0
 10
168.140099251176
 20
108.2106051981245
 30
0.0
 10
168.074994089562
 20
107.9093602821036
 30
0.0
 10
168.017106760002
 20
107.6083251300937
 30
0.0
 10
167.966379616796
 20
107.3075553058274
 30
0.0
  0
CIRCLE
  5
13D
330
1F
100
AcDbEntity
  8
0
  6
HIDDEN
 62
     7
370
     0
100
AcDbCircle
 10
216.4614195947
 20
111.8375049402
 30
0.0
 40
2.499999999999986
  0
CIRCLE
  5
13E
330
1F
100
AcDbEntity
  8
0
  6
HIDDEN
 62
     7
370
     0
100
AcDbCircle
 10
206.4614195947
 20
111.8375049402
 30
0.0
 40
2.5
  0
CIRCLE
  5
13F
330
1F
100
AcDbEntity
  8
0
  6
HIDDEN
 62
     7
370
     0
100
AcDbCircle
 10
226.4614195947
 20
111.8375049402
 30
0.0
 40
2.499999999999986
  0
LINE
  5
140
330
1F
100
AcDbEntity
  8
0
  6
HIDDEN
 62
     7
370
     0
100
AcDbLine
 10
169.4614195947
 20
96.0375057031
 30
0.0
 11
169.5543128152
 21
96.1303976794
 31
0.0
  0
LINE
  5
141
330
1F
100
AcDbEntity
  8
0
  6
HIDDEN
 62
     7
370
     0
100
AcDbLine
 10
169.5543128152
 20
127.544612201
 30
0.0
 11
169.4614195947
 21
127.6375041772
 31
0.0
  0
ARC
  5
142
330
1F
100
AcDbEntity
  8
0
  6
HIDDEN
 62
     7
370
     0
100
AcDbCircle
 10
168.8472060324
 20
96.8375049402
 30
0.0
 40
1.0
100
AcDbArc
 50
315.0
 51
0.0
  0
ARC
  5
143
330
1F
100
AcDbEntity
  8
0
  6
HIDDEN
 62
     7
370
     0
100
AcDbCircle
 10
168.8472060324
 20
96.8375049402
 30
0.0
 40
1.00000000000001
100
AcDbArc
 50
0.0
 51
52.1052014664
  0
ARC
  5
144
330
1F
100
AcDbEntity
  8
0
  6
HIDDEN
 62
     7
370
     0
100
AcDbCircle
 10
168.8472060324
 20
126.8375049402
 30
0.0
 40
1.000000000000008
100
AcDbArc
 50
343.125
 51
45.0
  0
ARC
  5
145
330
1F
100
AcDbEntity
  8
0
  6
HIDDEN
 62
     7
370
     0
100
AcDbCircle
 10
168.8472060324
 20
126.8375049402
 30
0.0
 40
1.000000000000008
100
AcDbArc
 50
307.8947985336
 51
343.125
  0
LINE
  5
146
330
1F
100
AcDbEntity
  8
0
  6
HIDDEN
 62
     7
370
     0
100
AcDbLine
 10
169.8472060305
 20
96.8375052755
 30
0.0
 11
169.8472060305
 21
126.8375046049
 31
0.0
  0
LINE
  5
147
330
1F
100
AcDbEntity
  8
0
  6
HIDDEN
 62
     7
370
     0
100
AcDbLine
 10
169.8472060305
 20
96.8375052755
 30
0.0
 11
169.8472060305
 21
126.8375046049
 31
0.0
  0
LINE
  5
148
330
1F
100
AcDbEntity
  8
0
  6
HIDDEN
 62
     7
370
     0
100
AcDbLine
 10
145.4614193861
 20
101.6818541531
 30
0.0
 11
146.4884521191
 21
102.2748114039
 31
0.0
  0
LINE
  5
149
330
1F
100
AcDbEntity
  8
0
  6
HIDDEN
 62
     7
370
     0
100
AcDbLine
 10
146.4884521191
 20
121.4001984765
 30
0.0
 11
145.4614193861
 21
121.9931557272
 31
0.0
  0
ARC
  5
14A
330
1F
100
AcDbEntity
  8
0
  6
HIDDEN
 62
     7
370
     0
100
AcDbCircle
 10
150.9614195947
 20
102.8375049402
 30
0.0
 40
1.000000000000008
100
AcDbArc
 50
193.3524261238
 51
270.0
  0
ARC
  5
14B
330
1F
100
AcDbEntity
  8
0
  6
HIDDEN
 62
     7
370
     0
100
AcDbCircle
 10
150.9614195947
 20
120.8375049402
 30
0.0
 40
1.000000000000004
100
AcDbArc
 50
90.0
 51
166.6475738762
  0
LINE
  5
14C
330
1F
100
AcDbEntity
  8
0
  6
HIDDEN
 62
     7
370
     0
100
AcDbLine
 10
150.9614193563
 20
101.8375051637
 30
0.0
 11
151.9742382441
 21
101.8375051637
 31
0.0
  0
LINE
  5
14D
330
1F
100
AcDbEntity
  8
0
  6
HIDDEN
 62
     7
370
     0
100
AcDbLine
 10
151.9742382441
 20
121.8375047167
 30
0.0
 11
150.9614193563
 21
121.8375047167
 31
0.0
  0
ARC
  5
14E
330
1F
100
AcDbEntity
  8
0
  6
HIDDEN
 62
     7
370
     0
100
AcDbCircle
 10
151.9742380644
 20
102.8375049402
 30
0.0
 40
1.0
100
AcDbArc
 50
270.0
 51
315.0
  0
ARC
  5
14F
330
1F
100
AcDbEntity
  8
0
  6
HIDDEN
 62
     7
370
     0
100
AcDbCircle
 10
151.9742380644
 20
120.8375049402
 30
0.0
 40
1.0
100
AcDbArc
 50
45.0
 51
90.0
  0
LINE
  5
150
330
1F
100
AcDbEntity
  8
0
  6
HIDDEN
 62
     7
370
     0
100
AcDbLine
 10
152.6813449089
 20
102.1303977315
 30
0.0
 11
153.3884515737
 21
102.8375053276
 31
0.0
  0
LINE
  5
151
330
1F
100
AcDbEntity
  8
0
  6
HIDDEN
 62
     7
370
     0
100
AcDbLine
 10
153.3884515737
 20
120.8375045528
 30
0.0
 11
152.6813449089
 21
121.5446121489
 31
0.0
  0
LINE
  5
152
330
1F
100
AcDbEntity
  8
0
  6
HIDDEN
 62
     7
370
     0
100
AcDbLine
 10
146.4884521191
 20
102.2748114039
 30
0.0
 11
148.588452277
 21
102.8375053276
 31
0.0
  0
LINE
  5
153
330
1F
100
AcDbEntity
  8
0
  6
HIDDEN
 62
     7
370
     0
100
AcDbLine
 10
148.588452277
 20
120.8375045528
 30
0.0
 11
146.4884521191
 21
121.4001984765
 31
0.0
  0
LINE
  5
154
330
1F
100
AcDbEntity
  8
0
  6
HIDDEN
 62
     7
370
     0
100
AcDbLine
 10
149.9884517615
 20
121.0684446116
 30
0.0
 11
149.5884524409
 21
120.8375045528
 31
0.0
  0
LINE
  5
155
330
1F
100
AcDbEntity
  8
0
  6
HIDDEN
 62
     7
370
     0
100
AcDbLine
 10
149.5884524409
 20
102.8375053276
 30
0.0
 11
149.9884517615
 21
102.6065652688
 31
0.0
  0
LINE
  5
156
330
1F
100
AcDbEntity
  8
0
  6
HIDDEN
 62
     7
370
     0
100
AcDbLine
 10
153.3884515737
 20
102.8375053276
 30
0.0
 11
155.6690444921
 21
102.8375053276
 31
0.0
  0
LINE
  5
157
330
1F
100
AcDbEntity
  8
0
  6
HIDDEN
 62
     7
370
     0
100
AcDbLine
 10
155.6632125501
 20
120.8375045528
 30
0.0
 11
153.3884515737
 21
120.8375045528
 31
0.0
  0
LINE
  5
158
330
1F
100
AcDbEntity
  8
0
  6
HIDDEN
 62
     7
370
     0
100
AcDbLine
 10
148.588452277
 20
102.8375053276
 30
0.0
 11
149.5884524409
 21
102.8375053276
 31
0.0
  0
LINE
  5
159
330
1F
100
AcDbEntity
  8
0
  6
HIDDEN
 62
     7
370
     0
100
AcDbLine
 10
149.5884524409
 20
120.8375045528
 30
0.0
 11
148.588452277
 21
120.8375045528
 31
0.0
  0
ARC
  5
15A
330
1F
100
AcDbEntity
  8
0
  6
HIDDEN
 62
     7
370
     0
100
AcDbCircle
 10
159.9614195947
 20
103.3375049402
 30
0.0
 40
0.5
100
AcDbArc
 50
305.4878521107
 51
0.0
  0
ARC
  5
15B
330
1F
100
AcDbEntity
  8
0
  6
HIDDEN
 62
     7
370
     0
100
AcDbCircle
 10
159.9614195947
 20
120.3375049402
 30
0.0
 40
0.5
100
AcDbArc
 50
0.0
 51
53.7736428952
  0
LINE
  5
15C
330
1F
100
AcDbEntity
  8
0
  6
HIDDEN
 62
     7
370
     0
100
AcDbLine
 10
160.4614199822
 20
104.6875049789
 30
0.0
 11
161.3614193846
 21
105.5875048471
 31
0.0
  0
LINE
  5
15D
330
1F
100
AcDbEntity
  8
0
  6
HIDDEN
 62
     7
370
     0
100
AcDbLine
 10
161.3614193846
 20
118.0875050333
 30
0.0
 11
160.4614199822
 21
118.9875049014
 31
0.0
  0
LINE
  5
15E
330
1F
100
AcDbEntity
  8
0
  6
HIDDEN
 62
     7
370
     0
100
AcDbLine
 10
161.3614193846
 20
105.5875048471
 30
0.0
 11
180.4614195351
 21
105.5875048471
 31
0.0
  0
LINE
  5
15F
330
1F
100
AcDbEntity
  8
0
  6
HIDDEN
 62
     7
370
     0
100
AcDbLine
 10
180.4614195351
 20
118.0875050333
 30
0.0
 11
161.3614193846
 21
118.0875050333
 31
0.0
  0
LINE
  5
160
330
1F
100
AcDbEntity
  8
0
  6
HIDDEN
 62
     7
370
     0
100
AcDbLine
 10
180.4614195351
 20
105.5875048471
 30
0.0
 11
182.1137860169
 21
108.3375048322
 31
0.0
  0
LINE
  5
161
330
1F
100
AcDbEntity
  8
0
  6
HIDDEN
 62
     7
370
     0
100
AcDbLine
 10
182.1137860169
 20
115.3375050482
 30
0.0
 11
180.4614195351
 21
118.0875050333
 31
0.0
  0
LINE
  5
162
330
1F
100
AcDbEntity
  8
0
  6
HIDDEN
 62
     7
370
     0
100
AcDbLine
 10
182.1137860169
 20
108.3375048322
 30
0.0
 11
201.4614211147
 21
108.3375048322
 31
0.0
  0
LINE
  5
163
330
1F
100
AcDbEntity
  8
0
  6
HIDDEN
 62
     7
370
     0
100
AcDbLine
 10
201.4614211147
 20
115.3375050482
 30
0.0
 11
182.1137860169
 21
115.3375050482
 31
0.0
  0
LINE
  5
164
330
1F
100
AcDbEntity
  8
0
  6
HIDDEN
 62
     7
370
     0
100
AcDbLine
 10
201.4614211147
 20
108.3375048322
 30
0.0
 11
201.7618508761
 21
108.8375049141
 31
0.0
  0
LINE
  5
165
330
1F
100
AcDbEntity
  8
0
  6
HIDDEN
 62
     7
370
     0
100
AcDbLine
 10
201.7618508761
 20
114.8375049663
 30
0.0
 11
201.4614211147
 21
115.3375050482
 31
0.0
  0
LINE
  5
166
330
1F
100
AcDbEntity
  8
0
  6
HIDDEN
 62
     7
370
     0
100
AcDbLine
 10
209.9614197139
 20
94.8375040163
 30
0.0
 11
208.9614214127
 21
95.8375041802
 31
0.0
  0
LINE
  5
167
330
1F
100
AcDbEntity
  8
0
  6
HIDDEN
 62
     7
370
     0
100
AcDbLine
 10
203.9614187305
 20
95.8375041802
 30
0.0
 11
202.9614204292
 21
94.8375040163
 31
0.0
  0
LINE
  5
168
330
1F
100
AcDbEntity
  8
0
  6
HIDDEN
 62
     7
370
     0
100
AcDbLine
 10
219.9614213531
 20
94.8375040163
 30
0.0
 11
218.9614193265
 21
95.8375041802
 31
0.0
  0
LINE
  5
169
330
1F
100
AcDbEntity
  8
0
  6
HIDDEN
 62
     7
370
     0
100
AcDbLine
 10
213.9614203696
 20
95.8375041802
 30
0.0
 11
212.961418343
 21
94.8375040163
 31
0.0
  0
LINE
  5
16A
330
1F
100
AcDbEntity
  8
0
  6
HIDDEN
 62
     7
370
     0
100
AcDbLine
 10
229.9614192669
 20
94.8375040163
 30
0.0
 11
228.9614209656
 21
95.8375041802
 31
0.0
  0
LINE
  5
16B
330
1F
100
AcDbEntity
  8
0
  6
HIDDEN
 62
     7
370
     0
100
AcDbLine
 10
223.9614182834
 20
95.8375041802
 30
0.0
 11
222.9614199822
 21
94.8375040163
 31
0.0
  0
LINE
  5
16C
330
1F
100
AcDbEntity
  8
0
  6
HIDDEN
 62
     7
370
     0
100
AcDbLine
 10
222.9614199822
 20
128.8375058641
 30
0.0
 11
223.9614182834
 21
127.8375057001
 31
0.0
  0
LINE
  5
16D
330
1F
100
AcDbEntity
  8
0
  6
HIDDEN
 62
     7
370
     0
100
AcDbLine
 10
228.9614209656
 20
127.8375057001
 30
0.0
 11
229.9614192669
 21
128.8375058641
 31
0.0
  0
LINE
  5
16E
330
1F
100
AcDbEntity
  8
0
  6
HIDDEN
 62
     7
370
     0
100
AcDbLine
 10
212.961418343
 20
128.8375058641
 30
0.0
 11
213.9614203696
 21
127.8375057001
 31
0.0
  0
LINE
  5
16F
330
1F
100
AcDbEntity
  8
0
  6
HIDDEN
 62
     7
370
     0
100
AcDbLine
 10
218.9614193265
 20
127.8375057001
 30
0.0
 11
219.9614213531
 21
128.8375058641
 31
0.0
  0
LINE
  5
170
330
1F
100
AcDbEntity
  8
0
  6
HIDDEN
 62
     7
370
     0
100
AcDbLine
 10
202.9614204292
 20
128.8375058641
 30
0.0
 11
203.9614187305
 21
127.8375057001
 31
0.0
  0
LINE
  5
171
330
1F
100
AcDbEntity
  8
0
  6
HIDDEN
 62
     7
370
     0
100
AcDbLine
 10
208.9614214127
 20
127.8375057001
 30
0.0
 11
209.9614197139
 21
128.8375058641
 31
0.0
  0
ARC
  5
172
330
1F
100
AcDbEntity
  8
0
  6
HIDDEN
 62
     7
370
     0
100
AcDbCircle
 10
234.1614195947
 20
115.1375049402
 30
0.0
 40
0.3000000000000114
100
AcDbArc
 50
270.0
 51
0.0
  0
ARC
  5
173
330
1F
100
AcDbEntity
  8
0
  6
HIDDEN
 62
     7
370
     0
100
AcDbCircle
 10
234.1614195947
 20
108.5375049402
 30
0.0
 40
0.3000000000000114
100
AcDbArc
 50
0.0
 51
90.0
  0
LINE
  5
174
330
1F
100
AcDbEntity
  8
0
  6
HIDDEN
 62
     7
370
     0
100
AcDbLine
 10
203.9630839352
 20
114.8375049663
 30
0.0
 11
201.7618508761
 21
114.8375049663
 31
0.0
  0
LINE
  5
175
330
1F
100
AcDbEntity
  8
0
  6
HIDDEN
 62
     7
370
     0
100
AcDbLine
 10
213.9630855744
 20
114.8375049663
 30
0.0
 11
208.9605422442
 21
114.8375049663
 31
0.0
  0
LINE
  5
176
330
1F
100
AcDbEntity
  8
0
  6
HIDDEN
 62
     7
370
     0
100
AcDbLine
 10
223.9630872135
 20
114.8375049663
 30
0.0
 11
218.9605438833
 21
114.8375049663
 31
0.0
  0
LINE
  5
177
330
1F
100
AcDbEntity
  8
0
  6
HIDDEN
 62
     7
370
     0
100
AcDbLine
 10
234.1614195828
 20
114.8375049663
 30
0.0
 11
228.9605455224
 21
114.8375049663
 31
0.0
  0
LINE
  5
178
330
1F
100
AcDbEntity
  8
0
  6
HIDDEN
 62
     7
370
     0
100
AcDbLine
 10
228.9594912653
 20
108.8375049141
 30
0.0
 11
234.1614195828
 21
108.8375049141
 31
0.0
  0
LINE
  5
179
330
1F
100
AcDbEntity
  8
0
  6
HIDDEN
 62
     7
370
     0
100
AcDbLine
 10
218.9594896261
 20
108.8375049141
 30
0.0
 11
223.9630872135
 21
108.8375049141
 31
0.0
  0
LINE
  5
17A
330
1F
100
AcDbEntity
  8
0
  6
HIDDEN
 62
     7
370
     0
100
AcDbLine
 10
208.9594917123
 20
108.8375049141
 30
0.0
 11
213.9630855744
 21
108.8375049141
 31
0.0
  0
LINE
  5
17B
330
1F
100
AcDbEntity
  8
0
  6
HIDDEN
 62
     7
370
     0
100
AcDbLine
 10
201.7618508761
 20
108.8375049141
 30
0.0
 11
203.9630839352
 21
108.8375049141
 31
0.0
  0
LINE
  5
17C
330
1F
100
AcDbEntity
  8
0
  6
HIDDEN
 62
     7
370
     0
100
AcDbLine
 10
160.6572976087
 20
98.8999051471
 30
0.0
 11
160.2614193906
 21
99.2957824339
 31
0.0
  0
LINE
  5
17D
330
1F
100
AcDbEntity
  8
0
  6
HIDDEN
 62
     7
370
     0
100
AcDbLine
 10
155.6614197542
 20
99.2957824339
 30
0.0
 11
155.3942335521
 21
99.0285971631
 31
0.0
  0
LINE
  5
17E
330
1F
100
AcDbEntity
  8
0
  6
HIDDEN
 62
     7
370
     0
100
AcDbLine
 10
151.3685507451
 20
99.1303730254
 30
0.0
 11
149.661419702
 21
100.8375049998
 31
0.0
  0
LINE
  5
17F
330
1F
100
AcDbEntity
  8
0
  6
HIDDEN
 62
     7
370
     0
100
AcDbLine
 10
149.661419702
 20
100.8375049998
 30
0.0
 11
145.4614193861
 21
100.8375049998
 31
0.0
  0
LINE
  5
180
330
1F
100
AcDbEntity
  8
0
  6
HIDDEN
 62
     7
370
     0
100
AcDbLine
 10
208.9614214127
 20
95.8375041802
 30
0.0
 11
208.9614214127
 21
108.8391091172
 31
0.0
  0
LINE
  5
181
330
1F
100
AcDbEntity
  8
0
  6
HIDDEN
 62
     7
370
     0
100
AcDbLine
 10
203.9614187305
 20
108.8388904893
 30
0.0
 11
203.9614187305
 21
95.8375041802
 31
0.0
  0
LINE
  5
182
330
1F
100
AcDbEntity
  8
0
  6
HIDDEN
 62
     7
370
     0
100
AcDbLine
 10
218.9614193265
 20
95.8375041802
 30
0.0
 11
218.9614193265
 21
108.8391091172
 31
0.0
  0
LINE
  5
183
330
1F
100
AcDbEntity
  8
0
  6
HIDDEN
 62
     7
370
     0
100
AcDbLine
 10
213.9614203696
 20
108.8388904893
 30
0.0
 11
213.9614203696
 21
95.8375041802
 31
0.0
  0
LINE
  5
184
330
1F
100
AcDbEntity
  8
0
  6
HIDDEN
 62
     7
370
     0
100
AcDbLine
 10
228.9614209656
 20
95.8375041802
 30
0.0
 11
228.9614209656
 21
108.8391091172
 31
0.0
  0
LINE
  5
185
330
1F
100
AcDbEntity
  8
0
  6
HIDDEN
 62
     7
370
     0
100
AcDbLine
 10
223.9614182834
 20
108.8388904893
 30
0.0
 11
223.9614182834
 21
95.8375041802
 31
0.0
  0
LINE
  5
186
330
1F
100
AcDbEntity
  8
0
  6
HIDDEN
 62
     7
370
     0
100
AcDbLine
 10
223.9614182834
 20
127.8375057001
 30
0.0
 11
223.9614182834
 21
114.8361193911
 31
0.0
  0
LINE
  5
187
330
1F
100
AcDbEntity
  8
0
  6
HIDDEN
 62
     7
370
     0
100
AcDbLine
 10
228.9614209656
 20
114.8367755079
 30
0.0
 11
228.9614209656
 21
127.8375057001
 31
0.0
  0
LINE
  5
188
330
1F
100
AcDbEntity
  8
0
  6
HIDDEN
 62
     7
370
     0
100
AcDbLine
 10
213.9614203696
 20
127.8375057001
 30
0.0
 11
213.9614203696
 21
114.8361193911
 31
0.0
  0
LINE
  5
189
330
1F
100
AcDbEntity
  8
0
  6
HIDDEN
 62
     7
370
     0
100
AcDbLine
 10
218.9614193265
 20
114.8367755079
 30
0.0
 11
218.9614193265
 21
127.8375057001
 31
0.0
  0
LINE
  5
18A
330
1F
100
AcDbEntity
  8
0
  6
HIDDEN
 62
     7
370
     0
100
AcDbLine
 10
203.9614187305
 20
127.8375057001
 30
0.0
 11
203.9614187305
 21
114.8361193911
 31
0.0
  0
LINE
  5
18B
330
1F
100
AcDbEntity
  8
0
  6
HIDDEN
 62
     7
370
     0
100
AcDbLine
 10
208.9614214127
 20
114.8367755079
 30
0.0
 11
208.9614214127
 21
127.8375057001
 31
0.0
  0
LINE
  5
18C
330
1F
100
AcDbEntity
  8
0
  6
HIDDEN
 62
     7
370
     0
100
AcDbLine
 10
160.2614193906
 20
99.2957824339
 30
0.0
 11
160.2614193906
 21
102.9334613551
 31
0.0
  0
LINE
  5
18D
330
1F
100
AcDbEntity
  8
0
  6
HIDDEN
 62
     7
370
     0
100
AcDbLine
 10
155.6614197542
 20
102.8394480665
 30
0.0
 11
155.6614197542
 21
99.2957824339
 31
0.0
  0
LINE
  5
18E
330
1F
100
AcDbEntity
  8
0
  6
HIDDEN
 62
     7
370
     0
100
AcDbLine
 10
160.2614193906
 20
120.7399485131
 30
0.0
 11
160.2614193906
 21
122.8375048806
 31
0.0
  0
LINE
  5
18F
330
1F
100
AcDbEntity
  8
0
  6
HIDDEN
 62
     7
370
     0
100
AcDbLine
 10
155.6614197542
 20
122.8375048806
 30
0.0
 11
155.6614197542
 21
120.8370472734
 31
0.0
  0
LINE
  5
190
330
1F
100
AcDbEntity
  8
0
  6
HIDDEN
 62
     7
370
     0
100
AcDbLine
 10
160.2614193906
 20
122.8375048806
 30
0.0
 11
157.9614195724
 21
124.2194842045
 31
0.0
  0
LINE
  5
191
330
1F
100
AcDbEntity
  8
0
  6
HIDDEN
 62
     7
370
     0
100
AcDbLine
 10
157.9614195724
 20
124.2194842045
 30
0.0
 11
155.6614197542
 21
122.8375048806
 31
0.0
  0
LINE
  5
192
330
1F
100
AcDbEntity
  8
0
  6
HIDDEN
 62
     7
370
     0
100
AcDbLine
 10
179.4614193712
 20
92.3375045379
 30
0.0
 11
179.4614193712
 21
91.8375053872
 31
0.0
  0
LINE
  5
193
330
1F
100
AcDbEntity
  8
0
  6
HIDDEN
 62
     7
370
     0
100
AcDbLine
 10
183.4614200269
 20
91.8375053872
 30
0.0
 11
183.4614200269
 21
92.3375045379
 31
0.0
  0
LINE
  5
194
330
1F
100
AcDbEntity
  8
0
  6
HIDDEN
 62
     7
370
     0
100
AcDbLine
 10
183.4614200269
 20
92.3375045379
 30
0.0
 11
181.461419699
 21
93.5392254461
 31
0.0
  0
LINE
  5
195
330
1F
100
AcDbEntity
  8
0
  6
HIDDEN
 62
     7
370
     0
100
AcDbLine
 10
181.461419699
 20
93.5392254461
 30
0.0
 11
179.4614193712
 21
92.3375045379
 31
0.0
  0
DIMENSION
  5
196
330
1F
100
AcDbEntity
  8
VERMASSUNG
100
AcDbDimension
  2
_D
 10
138.1835197985
 20
91.8375049402
 30
0.0
 11
138.1835197985
 21
110.2607497758
 31
0.0
 70
   160
  1
PSC%%c<>
 71
     2
 42
-1.0
  3
SLDDIMSTYLE0
100
AcDbAlignedDimension
 13
169.7614195947
 23
131.8375049402
 33
0.0
 14
169.7614195947
 24
91.8375049402
 34
0.0
 50
90.0
100
AcDbRotatedDimension
  0
DIMENSION
  5
1A3
330
1F
100
AcDbEntity
  8
VERMASSUNG
100
AcDbDimension
  2
_D_1
 10
234.4614195947
 20
138.5354560872
 30
0.0
 11
202.8919312864
 21
138.5354560872
 31
0.0
 70
   160
  1
<>
 71
     2
 42
-1.0
  3
SLDDIMSTYLE0
100
AcDbAlignedDimension
 13
169.4614195947
 23
131.5375049402
 33
0.0
 14
234.4614195947
 24
127.8375049402
 34
0.0
100
AcDbRotatedDimension
  0
DIMENSION
  5
1AD
330
1F
100
AcDbEntity
  8
VERMASSUNG
100
AcDbDimension
  2
_D_2
 10
234.4614195947
 20
145.401137064
 30
0.0
 11
189.160569333
 21
145.401137064
 31
0.0
 70
   160
  1
<>
 71
     2
 42
-1.0
  3
SLDDIMSTYLE0
100
AcDbAlignedDimension
 13
145.4614195947
 23
124.4561320061
 33
0.0
 14
234.4614195947
 24
127.8375049402
 34
0.0
100
AcDbRotatedDimension
  0
DIMENSION
  5
1B7
330
1F
100
AcDbEntity
  8
VERMASSUNG
100
AcDbDimension
  2
_D_3
 10
244.4614195947
 20
114.8375049402
 30
0.0
 11
244.4614195947
 21
121.2521000904
 31
0.0
 70
   160
  1
%%c<>
 71
     2
 42
-1.0
  3
SLDDIMSTYLE1
100
AcDbAlignedDimension
 13
234.1614195947
 23
108.8375049402
 33
0.0
 14
234.1614195947
 24
114.8375049402
 34
0.0
 50
90.0
100
AcDbRotatedDimension
  0
DIMENSION
  5
1C5
330
1F
100
AcDbEntity
  8
VERMASSUNG
100
AcDbDimension
  2
_D_4
 10
252.8575666248
 20
94.8375049402
 30
0.0
 11
252.8575666248
 21
113.4766994919
 31
0.0
 70
   160
  1
%%c<>
 71
     2
 42
-1.0
  3
SLDDIMSTYLE0
100
AcDbAlignedDimension
 13
233.4614195947
 23
128.8375049402
 33
0.0
 14
233.4614195947
 24
94.8375049402
 34
0.0
 50
90.0
100
AcDbRotatedDimension
  0
LINE
  5
1D0
330
1F
100
AcDbEntity
  8
VERMASSUNG
  6
CENTERX2
370
     0
100
AcDbLine
 10
141.886224759
 20
111.8375049402
 30
0.0
 11
237.755788058
 21
111.8375049402
 31
0.0
  0
LINE
  5
1D1
330
1F
100
AcDbEntity
  8
0
  6
Continuous
 62
     7
370
    15
100
AcDbLine
 10
74.5665421835
 20
95.0810653587
 30
0.0
 11
74.988402206
 21
94.8375040163
 31
0.0
  0
LINE
  5
1D2
330
1F
100
AcDbEntity
  8
0
  6
Continuous
 62
     7
370
    15
100
AcDbLine
 10
79.8794024284
 20
94.8375040163
 30
0.0
 11
80.3012624509
 21
95.0810653587
 31
0.0
  0
LINE
  5
1D3
330
1F
100
AcDbEntity
  8
0
  6
Continuous
 62
     7
370
    15
100
AcDbLine
 10
94.1903418987
 20
108.9701448065
 30
0.0
 11
94.4339032411
 21
109.392004829
 31
0.0
  0
LINE
  5
1D4
330
1F
100
AcDbEntity
  8
0
  6
Continuous
 62
     7
370
    15
100
AcDbLine
 10
94.4339032411
 20
114.2830050514
 30
0.0
 11
94.1903418987
 21
114.7048650739
 31
0.0
  0
LINE
  5
1D5
330
1F
100
AcDbEntity
  8
0
  6
Continuous
 62
     7
370
    15
100
AcDbLine
 10
80.3012624509
 20
128.5939445217
 30
0.0
 11
79.8794024284
 21
128.8375058641
 31
0.0
  0
LINE
  5
1D6
330
1F
100
AcDbEntity
  8
0
  6
Continuous
 62
     7
370
    15
100
AcDbLine
 10
74.988402206
 20
128.8375058641
 30
0.0
 11
74.5665421835
 21
128.5939445217
 31
0.0
  0
LINE
  5
1D7
330
1F
100
AcDbEntity
  8
0
  6
Continuous
 62
     7
370
    15
100
AcDbLine
 10
79.8794024284
 20
94.8375040163
 30
0.0
 11
74.988402206
 21
94.8375040163
 31
0.0
  0
LINE
  5
1D8
330
1F
100
AcDbEntity
  8
0
  6
Continuous
 62
     7
370
    15
100
AcDbLine
 10
94.4339032411
 20
114.2830050514
 30
0.0
 11
94.4339032411
 21
109.392004829
 31
0.0
  0
LINE
  5
1D9
330
1F
100
AcDbEntity
  8
0
  6
Continuous
 62
     7
370
    15
100
AcDbLine
 10
74.988402206
 20
128.8375058641
 30
0.0
 11
79.8794024284
 21
128.8375058641
 31
0.0
  0
CIRCLE
  5
1DA
330
1F
100
AcDbEntity
  8
0
  6
Continuous
 62
     7
370
    15
100
AcDbCircle
 10
77.4339023172
 20
111.8375049402
 30
0.0
 40
17.0
  0
CIRCLE
  5
1DB
330
1F
100
AcDbEntity
  8
0
  6
Continuous
 62
     7
370
    15
100
AcDbCircle
 10
77.4339023172
 20
111.8375049402
 30
0.0
 40
3.0
  0
CIRCLE
  5
1DC
330
1F
100
AcDbEntity
  8
0
  6
Continuous
 62
     7
370
    15
100
AcDbCircle
 10
77.4339023172
 20
111.8375049402
 30
0.0
 40
19.99999999999999
  0
LINE
  5
1DD
330
1F
100
AcDbEntity
  8
0
  6
HIDDEN
 62
     7
370
     0
100
AcDbLine
 10
74.4339022911
 20
103.8375045602
 30
0.0
 11
80.4339023433
 21
103.8375045602
 31
0.0
  0
LINE
  5
1DE
330
1F
100
AcDbEntity
  8
0
  6
HIDDEN
 62
     7
370
     0
100
AcDbLine
 10
75.4339022222
 20
104.8375047241
 30
0.0
 11
79.4339024122
 21
104.8375047241
 31
0.0
  0
LINE
  5
1DF
330
1F
100
AcDbEntity
  8
0
  6
HIDDEN
 62
     7
370
     0
100
AcDbLine
 10
74.988402206
 20
94.8375040163
 30
0.0
 11
79.8794024284
 21
94.8375040163
 31
0.0
  0
LINE
  5
1E0
330
1F
100
AcDbEntity
  8
0
  6
HIDDEN
 62
     7
370
     0
100
AcDbLine
 10
74.4339022911
 20
95.1576461513
 30
0.0
 11
80.4339023433
 21
95.1576461513
 31
0.0
  0
LINE
  5
1E1
330
1F
100
AcDbEntity
  8
0
  6
HIDDEN
 62
     7
370
     0
100
AcDbLine
 10
78.2999277124
 20
94.8375040163
 30
0.0
 11
76.567876922
 21
94.8375040163
 31
0.0
  0
LINE
  5
1E2
330
1F
100
AcDbEntity
  8
0
  6
HIDDEN
 62
     7
370
     0
100
AcDbLine
 10
76.567876922
 20
98.33750459
 30
0.0
 11
76.567876922
 21
94.8375040163
 31
0.0
  0
LINE
  5
1E3
330
1F
100
AcDbEntity
  8
0
  6
HIDDEN
 62
     7
370
     0
100
AcDbLine
 10
76.567876922
 20
94.8375040163
 30
0.0
 11
75.7018515267
 21
94.8375040163
 31
0.0
  0
LINE
  5
1E4
330
1F
100
AcDbEntity
  8
0
  6
HIDDEN
 62
     7
370
     0
100
AcDbLine
 10
76.567876922
 20
98.33750459
 30
0.0
 11
75.7018515267
 21
98.33750459
 31
0.0
  0
LINE
  5
1E5
330
1F
100
AcDbEntity
  8
0
  6
HIDDEN
 62
     7
370
     0
100
AcDbLine
 10
78.2999277124
 20
98.33750459
 30
0.0
 11
76.567876922
 21
98.33750459
 31
0.0
  0
LINE
  5
1E6
330
1F
100
AcDbEntity
  8
0
  6
HIDDEN
 62
     7
370
     0
100
AcDbLine
 10
78.2999277124
 20
98.33750459
 30
0.0
 11
79.1659531076
 21
98.33750459
 31
0.0
  0
LINE
  5
1E7
330
1F
100
AcDbEntity
  8
0
  6
HIDDEN
 62
     7
370
     0
100
AcDbLine
 10
78.2999277124
 20
98.33750459
 30
0.0
 11
78.2999277124
 21
94.8375040163
 31
0.0
  0
LINE
  5
1E8
330
1F
100
AcDbEntity
  8
0
  6
HIDDEN
 62
     7
370
     0
100
AcDbLine
 10
78.2999277124
 20
94.8375040163
 30
0.0
 11
79.1659531076
 21
94.8375040163
 31
0.0
  0
LINE
  5
1E9
330
1F
100
AcDbEntity
  8
0
  6
HIDDEN
 62
     7
370
     0
100
AcDbLine
 10
75.7018515267
 20
98.33750459
 30
0.0
 11
75.7018515267
 21
94.8375040163
 31
0.0
  0
LINE
  5
1EA
330
1F
100
AcDbEntity
  8
0
  6
HIDDEN
 62
     7
370
     0
100
AcDbLine
 10
79.1659531076
 20
98.33750459
 30
0.0
 11
79.1659531076
 21
94.8375040163
 31
0.0
  0
LINE
  5
1EB
330
1F
100
AcDbEntity
  8
0
  6
HIDDEN
 62
     7
370
     0
100
AcDbLine
 10
94.4339032411
 20
109.392004829
 30
0.0
 11
94.4339032411
 21
114.2830050514
 31
0.0
  0
LINE
  5
1EC
330
1F
100
AcDbEntity
  8
0
  6
HIDDEN
 62
     7
370
     0
100
AcDbLine
 10
94.113761106
 20
108.8375049141
 30
0.0
 11
94.113761106
 21
114.8375049663
 31
0.0
  0
LINE
  5
1ED
330
1F
100
AcDbEntity
  8
0
  6
HIDDEN
 62
     7
370
     0
100
AcDbLine
 10
85.4339026972
 20
108.8375049141
 30
0.0
 11
85.4339026972
 21
114.8375049663
 31
0.0
  0
LINE
  5
1EE
330
1F
100
AcDbEntity
  8
0
  6
HIDDEN
 62
     7
370
     0
100
AcDbLine
 10
84.4339025332
 20
109.8375048452
 30
0.0
 11
84.4339025332
 21
113.8375050352
 31
0.0
  0
LINE
  5
1EF
330
1F
100
AcDbEntity
  8
0
  6
HIDDEN
 62
     7
370
     0
100
AcDbLine
 10
94.4339032411
 20
110.971479545
 30
0.0
 11
94.4339032411
 21
110.1054541497
 31
0.0
  0
LINE
  5
1F0
330
1F
100
AcDbEntity
  8
0
  6
HIDDEN
 62
     7
370
     0
100
AcDbLine
 10
90.9339026674
 20
110.971479545
 30
0.0
 11
94.4339032411
 21
110.971479545
 31
0.0
  0
LINE
  5
1F1
330
1F
100
AcDbEntity
  8
0
  6
HIDDEN
 62
     7
370
     0
100
AcDbLine
 10
94.4339032411
 20
112.7035303354
 30
0.0
 11
94.4339032411
 21
110.971479545
 31
0.0
  0
LINE
  5
1F2
330
1F
100
AcDbEntity
  8
0
  6
HIDDEN
 62
     7
370
     0
100
AcDbLine
 10
90.9339026674
 20
112.7035303354
 30
0.0
 11
90.9339026674
 21
110.971479545
 31
0.0
  0
LINE
  5
1F3
330
1F
100
AcDbEntity
  8
0
  6
HIDDEN
 62
     7
370
     0
100
AcDbLine
 10
90.9339026674
 20
110.971479545
 30
0.0
 11
90.9339026674
 21
110.1054541497
 31
0.0
  0
LINE
  5
1F4
330
1F
100
AcDbEntity
  8
0
  6
HIDDEN
 62
     7
370
     0
100
AcDbLine
 10
90.9339026674
 20
112.7035303354
 30
0.0
 11
90.9339026674
 21
113.5695557306
 31
0.0
  0
LINE
  5
1F5
330
1F
100
AcDbEntity
  8
0
  6
HIDDEN
 62
     7
370
     0
100
AcDbLine
 10
90.9339026674
 20
112.7035303354
 30
0.0
 11
94.4339032411
 21
112.7035303354
 31
0.0
  0
LINE
  5
1F6
330
1F
100
AcDbEntity
  8
0
  6
HIDDEN
 62
     7
370
     0
100
AcDbLine
 10
94.4339032411
 20
112.7035303354
 30
0.0
 11
94.4339032411
 21
113.5695557306
 31
0.0
  0
LINE
  5
1F7
330
1F
100
AcDbEntity
  8
0
  6
HIDDEN
 62
     7
370
     0
100
AcDbLine
 10
90.9339026674
 20
110.1054541497
 30
0.0
 11
94.4339032411
 21
110.1054541497
 31
0.0
  0
LINE
  5
1F8
330
1F
100
AcDbEntity
  8
0
  6
HIDDEN
 62
     7
370
     0
100
AcDbLine
 10
90.9339026674
 20
113.5695557306
 30
0.0
 11
94.4339032411
 21
113.5695557306
 31
0.0
  0
LINE
  5
1F9
330
1F
100
AcDbEntity
  8
0
  6
HIDDEN
 62
     7
370
     0
100
AcDbLine
 10
79.8794024284
 20
128.8375058641
 30
0.0
 11
74.988402206
 21
128.8375058641
 31
0.0
  0
LINE
  5
1FA
330
1F
100
AcDbEntity
  8
0
  6
HIDDEN
 62
     7
370
     0
100
AcDbLine
 10
80.4339023433
 20
128.517363729
 30
0.0
 11
74.4339022911
 21
128.517363729
 31
0.0
  0
LINE
  5
1FB
330
1F
100
AcDbEntity
  8
0
  6
HIDDEN
 62
     7
370
     0
100
AcDbLine
 10
80.4339023433
 20
119.8375053202
 30
0.0
 11
74.4339022911
 21
119.8375053202
 31
0.0
  0
LINE
  5
1FC
330
1F
100
AcDbEntity
  8
0
  6
HIDDEN
 62
     7
370
     0
100
AcDbLine
 10
79.4339024122
 20
118.8375051563
 30
0.0
 11
75.4339022222
 21
118.8375051563
 31
0.0
  0
LINE
  5
1FD
330
1F
100
AcDbEntity
  8
0
  6
HIDDEN
 62
     7
370
     0
100
AcDbLine
 10
78.2999277124
 20
125.3375052904
 30
0.0
 11
79.1659531076
 21
125.3375052904
 31
0.0
  0
LINE
  5
1FE
330
1F
100
AcDbEntity
  8
0
  6
HIDDEN
 62
     7
370
     0
100
AcDbLine
 10
78.2999277124
 20
128.8375058641
 30
0.0
 11
79.1659531076
 21
128.8375058641
 31
0.0
  0
LINE
  5
1FF
330
1F
100
AcDbEntity
  8
0
  6
HIDDEN
 62
     7
370
     0
100
AcDbLine
 10
78.2999277124
 20
125.3375052904
 30
0.0
 11
78.2999277124
 21
128.8375058641
 31
0.0
  0
LINE
  5
200
330
1F
100
AcDbEntity
  8
0
  6
HIDDEN
 62
     7
370
     0
100
AcDbLine
 10
76.567876922
 20
125.3375052904
 30
0.0
 11
78.2999277124
 21
125.3375052904
 31
0.0
  0
LINE
  5
201
330
1F
100
AcDbEntity
  8
0
  6
HIDDEN
 62
     7
370
     0
100
AcDbLine
 10
76.567876922
 20
128.8375058641
 30
0.0
 11
78.2999277124
 21
128.8375058641
 31
0.0
  0
LINE
  5
202
330
1F
100
AcDbEntity
  8
0
  6
HIDDEN
 62
     7
370
     0
100
AcDbLine
 10
76.567876922
 20
125.3375052904
 30
0.0
 11
76.567876922
 21
128.8375058641
 31
0.0
  0
LINE
  5
203
330
1F
100
AcDbEntity
  8
0
  6
HIDDEN
 62
     7
370
     0
100
AcDbLine
 10
76.567876922
 20
125.3375052904
 30
0.0
 11
75.7018515267
 21
125.3375052904
 31
0.0
  0
LINE
  5
204
330
1F
100
AcDbEntity
  8
0
  6
HIDDEN
 62
     7
370
     0
100
AcDbLine
 10
76.567876922
 20
128.8375058641
 30
0.0
 11
75.7018515267
 21
128.8375058641
 31
0.0
  0
LINE
  5
205
330
1F
100
AcDbEntity
  8
0
  6
HIDDEN
 62
     7
370
     0
100
AcDbLine
 10
79.1659531076
 20
125.3375052904
 30
0.0
 11
79.1659531076
 21
128.8375058641
 31
0.0
  0
LINE
  5
206
330
1F
100
AcDbEntity
  8
0
  6
HIDDEN
 62
     7
370
     0
100
AcDbLine
 10
75.7018515267
 20
125.3375052904
 30
0.0
 11
75.7018515267
 21
128.8375058641
 31
0.0
  0
LINE
  5
207
330
1F
100
AcDbEntity
  8
0
  6
HIDDEN
 62
     7
370
     0
100
AcDbLine
 10
93.4339030771
 20
109.3375049961
 30
0.0
 11
93.4339030771
 21
114.3375048843
 31
0.0
  0
SPLINE
  5
208
330
1F
100
AcDbEntity
  8
0
  6
HIDDEN
 62
     7
370
     0
100
AcDbSpline
210
0.0
220
0.0
230
1.0
 70
     8
 71
     3
 72
    66
 73
    62
 74
     0
 42
0.00000001
 43
0.00000001
 12
1.0
 22
0.0
 32
0.0
 13
1.0
 23
0.0
 33
0.0
 40
-0.0312500000000001
 40
-0.0312500000000001
 40
0.0
 40
0.0
 40
0.0312499999999997
 40
0.0312499999999997
 40
0.0624999999999994
 40
0.0624999999999994
 40
0.0937499999999991
 40
0.0937499999999991
 40
0.1249999999999988
 40
0.1249999999999988
 40
0.1562499999999985
 40
0.1562499999999985
 40
0.1874999999999982
 40
0.1874999999999982
 40
0.2187499999999979
 40
0.2187499999999979
 40
0.2499999999999977
 40
0.2499999999999977
 40
0.2812499999999974
 40
0.2812499999999974
 40
0.3124999999999972
 40
0.3124999999999972
 40
0.3437499999999969
 40
0.3437499999999969
 40
0.3749999999999967
 40
0.3749999999999967
 40
0.4374999999999972
 40
0.4374999999999972
 40
0.4999999999999977
 40
0.4999999999999977
 40
0.5312499999999979
 40
0.5312499999999979
 40
0.562499999999998
 40
0.562499999999998
 40
0.5937499999999982
 40
0.5937499999999982
 40
0.6249999999999983
 40
0.6249999999999983
 40
0.6562499999999984
 40
0.6562499999999984
 40
0.6874999999999986
 40
0.6874999999999986
 40
0.7187499999999988
 40
0.7187499999999988
 40
0.7499999999999989
 40
0.7499999999999989
 40
0.781249999999999
 40
0.781249999999999
 40
0.8124999999999991
 40
0.8124999999999991
 40
0.8437499999999993
 40
0.8437499999999993
 40
0.8749999999999994
 40
0.8749999999999994
 40
0.9062499999999996
 40
0.9062499999999996
 40
0.9374999999999997
 40
0.9374999999999997
 40
0.9687499999999999
 40
0.9687499999999999
 40
1.0
 40
1.0
 40
1.03125
 40
1.03125
 10
94.25003673319554
 20
109.3398935629407
 30
0.0
 10
94.28965995662
 20
109.6230357736119
 30
0.0
 10
94.3096530633027
 20
109.778765130219
 30
0.0
 10
94.34772909274686
 20
110.1194139482645
 30
0.0
 10
94.36593355355805
 20
110.3063569925357
 30
0.0
 10
94.39662459911865
 20
110.6955116770285
 30
0.0
 10
94.4093170097804
 20
110.8990077370557
 30
0.0
 10
94.42751782200617
 20
111.3251446566269
 30
0.0
 10
94.43279323723411
 20
111.5453127199743
 30
0.0
 10
94.43469047468746
 20
111.9819723379057
 30
0.0
 10
94.43132720136761
 20
112.2037088557115
 30
0.0
 10
94.41655688935418
 20
112.6350020772073
 30
0.0
 10
94.40533429081164
 20
112.8429604328629
 30
0.0
 10
94.37679945462305
 20
113.2441607521683
 30
0.0
 10
94.35956623380102
 20
113.4353904262335
 30
0.0
 10
94.32262176231688
 20
113.787503029514
 30
0.0
 10
94.3025575818826
 20
113.9518960964789
 30
0.0
 10
94.26292449128299
 20
114.2471092779847
 30
0.0
 10
94.24345536839152
 20
114.3776510544497
 30
0.0
 10
94.20728232686342
 20
114.6064648738173
 30
0.0
 10
94.19058971951729
 20
114.704524012002
 30
0.0
 10
94.16292889435354
 20
114.8617471325421
 30
0.0
 10
94.15176299128699
 20
114.92213973465
 30
0.0
 10
94.135995204468
 20
115.0064054622085
 30
0.0
 10
94.1315494011092
 20
115.0294634782949
 30
0.0
 10
94.12919345769949
 20
115.0417713970929
 30
0.0
 10
94.14283509479267
 20
114.9731155911594
 30
0.0
 10
94.19326559957162
 20
114.6913148655492
 30
0.0
 10
94.2305536369153
 20
114.4740808182607
 30
0.0
 10
94.2890472666188
 20
114.0564789627639
 30
0.0
 10
94.30920522863838
 20
113.8999819262309
 30
0.0
 10
94.34752568773571
 20
113.5576805563464
 30
0.0
 10
94.36532570340373
 20
113.3752847308843
 30
0.0
 10
94.39608896437339
 20
112.9873261062891
 30
0.0
 10
94.4091614836181
 20
112.7786445890735
 30
0.0
 10
94.42738398267942
 20
112.3539819394662
 30
0.0
 10
94.4326729819304
 20
112.1378587135882
 30
0.0
 10
94.43475217395856
 20
111.6977886231411
 30
0.0
 10
94.43140502463498
 20
111.4756301748081
 30
0.0
 10
94.41685417739036
 20
111.0466840062607
 30
0.0
 10
94.40549172327626
 20
110.8346977549418
 30
0.0
 10
94.37700913092081
 20
110.4333679390122
 30
0.0
 10
94.36005353578089
 20
110.2446317220778
 30
0.0
 10
94.32288925897791
 20
109.8896958520846
 30
0.0
 10
94.30284828434637
 20
109.7254669250482
 30
0.0
 10
94.26338754674495
 20
109.4311654943842
 30
0.0
 10
94.24363502194882
 20
109.2985246907759
 30
0.0
 10
94.2073119767777
 20
109.0687032672625
 30
0.0
 10
94.19088814863832
 20
108.9722204345633
 30
0.0
 10
94.16311380667248
 20
108.8142761374507
 30
0.0
 10
94.15173170195808
 20
108.7527034683762
 30
0.0
 10
94.13604099787698
 20
108.6688486082693
 30
0.0
 10
94.13159380602832
 20
108.6457784554094
 30
0.0
 10
94.12995441168856
 20
108.6372137865817
 30
0.0
 10
94.13286171258447
 20
108.6522381808294
 30
0.0
 10
94.14554024192643
 20
108.7194403016953
 30
0.0
 10
94.15527287325618
 20
108.7714072143376
 30
0.0
 10
94.18065502240893
 20
108.9132165877878
 30
0.0
 10
94.19634598146673
 20
109.0034051287182
 30
0.0
 10
94.23096604028291
 20
109.2163812075538
 30
0.0
 10
94.25003673319554
 20
109.3398935629407
 30
0.0
 10
94.28965995662
 20
109.6230357736119
 30
0.0
  0
LINE
  5
209
330
1F
100
AcDbEntity
  8
0
  6
HIDDEN
 62
     7
370
     0
100
AcDbLine
 10
74.9339023731
 20
95.8375041802
 30
0.0
 11
79.9339022613
 21
95.8375041802
 31
0.0
  0
SPLINE
  5
20A
330
1F
100
AcDbEntity
  8
0
  6
HIDDEN
 62
     7
370
     0
100
AcDbSpline
210
0.0
220
0.0
230
1.0
 70
     8
 71
     3
 72
    66
 73
    62
 74
     0
 42
0.00000001
 43
0.00000001
 12
1.0
 22
0.0
 32
0.0
 13
1.0
 23
0.0
 33
0.0
 40
-0.0312499999999998
 40
-0.0312499999999998
 40
0.0
 40
0.0
 40
0.0312500000000003
 40
0.0312500000000003
 40
0.0625000000000006
 40
0.0625000000000006
 40
0.0937500000000009
 40
0.0937500000000009
 40
0.1250000000000011
 40
0.1250000000000011
 40
0.1562500000000014
 40
0.1562500000000014
 40
0.1875000000000017
 40
0.1875000000000017
 40
0.218750000000002
 40
0.218750000000002
 40
0.2500000000000023
 40
0.2500000000000023
 40
0.2812500000000026
 40
0.2812500000000026
 40
0.3125000000000028
 40
0.3125000000000028
 40
0.3437500000000031
 40
0.3437500000000031
 40
0.3750000000000034
 40
0.3750000000000034
 40
0.4375000000000031
 40
0.4375000000000031
 40
0.5000000000000027
 40
0.5000000000000027
 40
0.5312500000000026
 40
0.5312500000000026
 40
0.5625000000000023
 40
0.5625000000000023
 40
0.5937500000000022
 40
0.5937500000000022
 40
0.625000000000002
 40
0.625000000000002
 40
0.6562500000000019
 40
0.6562500000000019
 40
0.6875000000000017
 40
0.6875000000000017
 40
0.7187500000000016
 40
0.7187500000000016
 40
0.7500000000000013
 40
0.7500000000000013
 40
0.7812500000000012
 40
0.7812500000000012
 40
0.8125000000000011
 40
0.8125000000000011
 40
0.8437500000000009
 40
0.8437500000000009
 40
0.8750000000000008
 40
0.8750000000000008
 40
0.9062500000000006
 40
0.9062500000000006
 40
0.9375000000000004
 40
0.9375000000000004
 40
0.9687500000000002
 40
0.9687500000000002
 40
1.0
 40
1.0
 40
1.03125
 40
1.03125
 10
74.9362909399377
 20
95.02137052417267
 30
0.0
 10
75.21943315060886
 20
94.98174730074821
 30
0.0
 10
75.37516250721596
 20
94.9617541940655
 30
0.0
 10
75.71581132526146
 20
94.92367816462136
 30
0.0
 10
75.90275436953266
 20
94.90547370381019
 30
0.0
 10
76.29190905402544
 20
94.87478265824957
 30
0.0
 10
76.49540511405272
 20
94.86209024758782
 30
0.0
 10
76.92154203362384
 20
94.84388943536207
 30
0.0
 10
77.14171009697132
 20
94.83861402013412
 30
0.0
 10
77.5783697149027
 20
94.83671678268075
 30
0.0
 10
77.80010623270849
 20
94.84008005600062
 30
0.0
 10
78.23139945420428
 20
94.85485036801403
 30
0.0
 10
78.43935780985984
 20
94.86607296655659
 30
0.0
 10
78.8405581291653
 20
94.89460780274516
 30
0.0
 10
79.0317878032305
 20
94.91184102356719
 30
0.0
 10
79.38390040651102
 20
94.94878549505133
 30
0.0
 10
79.54829347347594
 20
94.96884967548563
 30
0.0
 10
79.84350665498167
 20
95.00848276608524
 30
0.0
 10
79.97404843144668
 20
95.0279518889767
 30
0.0
 10
80.20286225081425
 20
95.06412493050479
 30
0.0
 10
80.30092138899903
 20
95.08081753785092
 30
0.0
 10
80.45814450953908
 20
95.10847836301467
 30
0.0
 10
80.51853711164699
 20
95.11964426608121
 30
0.0
 10
80.60280283920545
 20
95.13541205290022
 30
0.0
 10
80.62586085529192
 20
95.139857856259
 30
0.0
 10
80.63816877408992
 20
95.14221379966872
 30
0.0
 10
80.5695129681564
 20
95.12857216257554
 30
0.0
 10
80.28771224254615
 20
95.07814165779659
 30
0.0
 10
80.07047819525769
 20
95.04085362045289
 30
0.0
 10
79.65287633976091
 20
94.98235999074942
 30
0.0
 10
79.49637930322788
 20
94.96220202872985
 30
0.0
 10
79.15407793334334
 20
94.92388156963251
 30
0.0
 10
78.97168210788128
 20
94.90608155396448
 30
0.0
 10
78.58372348328606
 20
94.87531829299483
 30
0.0
 10
78.3750419660705
 20
94.8622457737501
 30
0.0
 10
77.95037931646321
 20
94.84402327468881
 30
0.0
 10
77.73425609058518
 20
94.83873427543782
 30
0.0
 10
77.29418600013803
 20
94.83665508340965
 30
0.0
 10
77.0720275518051
 20
94.84000223273323
 30
0.0
 10
76.64308138325768
 20
94.85455307997786
 30
0.0
 10
76.43109513193876
 20
94.86591553409197
 30
0.0
 10
76.02976531600919
 20
94.89439812644741
 30
0.0
 10
75.84102909907475
 20
94.91135372158732
 30
0.0
 10
75.48609322908153
 20
94.94851799839033
 30
0.0
 10
75.3218643020452
 20
94.96855897302184
 30
0.0
 10
75.02756287138122
 20
95.00801971062329
 30
0.0
 10
74.89492206777284
 20
95.02777223541939
 30
0.0
 10
74.66510064425947
 20
95.06409528059052
 30
0.0
 10
74.56861781156029
 20
95.08051910872992
 30
0.0
 10
74.41067351444765
 20
95.10829345069574
 30
0.0
 10
74.34910084537319
 20
95.11967555541013
 30
0.0
 10
74.26524598526625
 20
95.13536625949126
 30
0.0
 10
74.24217583240639
 20
95.13981345133992
 30
0.0
 10
74.2336111635787
 20
95.14145284567965
 30
0.0
 10
74.24863555782642
 20
95.13854554478375
 30
0.0
 10
74.31583767869233
 20
95.12586701544178
 30
0.0
 10
74.3678045913346
 20
95.11613438411206
 30
0.0
 10
74.50961396478475
 20
95.09075223495931
 30
0.0
 10
74.59980250571523
 20
95.07506127590152
 30
0.0
 10
74.81277858455076
 20
95.04044121708533
 30
0.0
 10
74.9362909399377
 20
95.02137052417267
 30
0.0
 10
75.21943315060886
 20
94.98174730074821
 30
0.0
  0
LINE
  5
20B
330
1F
100
AcDbEntity
  8
0
  6
HIDDEN
 62
     7
370
     0
100
AcDbLine
 10
79.9339022613
 20
127.8375057001
 30
0.0
 11
74.9339023731
 21
127.8375057001
 31
0.0
  0
SPLINE
  5
20C
330
1F
100
AcDbEntity
  8
0
  6
HIDDEN
 62
     7
370
     0
100
AcDbSpline
210
0.0
220
0.0
230
1.0
 70
     8
 71
     3
 72
    66
 73
    62
 74
     0
 42
0.00000001
 43
0.00000001
 12
1.0
 22
0.0
 32
0.0
 13
1.0
 23
0.0
 33
0.0
 40
-0.0312499999999997
 40
-0.0312499999999997
 40
0.0
 40
0.0
 40
0.0312500000000005
 40
0.0312500000000005
 40
0.0625000000000011
 40
0.0625000000000011
 40
0.0937500000000016
 40
0.0937500000000016
 40
0.1250000000000021
 40
0.1250000000000021
 40
0.1562500000000026
 40
0.1562500000000026
 40
0.1875000000000031
 40
0.1875000000000031
 40
0.2187500000000035
 40
0.2187500000000035
 40
0.250000000000004
 40
0.250000000000004
 40
0.2812500000000044
 40
0.2812500000000044
 40
0.3125000000000049
 40
0.3125000000000049
 40
0.3437500000000054
 40
0.3437500000000054
 40
0.3750000000000059
 40
0.3750000000000059
 40
0.4375000000000058
 40
0.4375000000000058
 40
0.5000000000000058
 40
0.5000000000000058
 40
0.5312500000000054
 40
0.5312500000000054
 40
0.562500000000005
 40
0.562500000000005
 40
0.5937500000000047
 40
0.5937500000000047
 40
0.6250000000000043
 40
0.6250000000000043
 40
0.656250000000004
 40
0.656250000000004
 40
0.6875000000000036
 40
0.6875000000000036
 40
0.7187500000000032
 40
0.7187500000000032
 40
0.7500000000000029
 40
0.7500000000000029
 40
0.7812500000000026
 40
0.7812500000000026
 40
0.8125000000000021
 40
0.8125000000000021
 40
0.8437500000000018
 40
0.8437500000000018
 40
0.8750000000000014
 40
0.8750000000000014
 40
0.9062500000000011
 40
0.9062500000000011
 40
0.9375000000000007
 40
0.9375000000000007
 40
0.9687500000000003
 40
0.9687500000000003
 40
1.0
 40
1.0
 40
1.03125
 40
1.03125
 10
79.93151369442766
 20
128.6536393561985
 30
0.0
 10
79.64837148375652
 20
128.6932625796229
 30
0.0
 10
79.49264212714941
 20
128.7132556863056
 30
0.0
 10
79.15199330910391
 20
128.7513317157498
 30
0.0
 10
78.96505026483273
 20
128.769536176561
 30
0.0
 10
78.57589558033992
 20
128.8002272221216
 30
0.0
 10
78.37239952031265
 20
128.8129196327833
 30
0.0
 10
77.94626260074155
 20
128.8311204450091
 30
0.0
 10
77.72609453739406
 20
128.8363958602371
 30
0.0
 10
77.28943491946268
 20
128.8382930976904
 30
0.0
 10
77.0676984016569
 20
128.8349298243706
 30
0.0
 10
76.6364051801611
 20
128.8201595123572
 30
0.0
 10
76.42844682450553
 20
128.8089369138146
 30
0.0
 10
76.02724650520007
 20
128.780402077626
 30
0.0
 10
75.83601683113486
 20
128.763168856804
 30
0.0
 10
75.48390422785437
 20
128.7262243853199
 30
0.0
 10
75.31951116088945
 20
128.7061602048856
 30
0.0
 10
75.0242979793837
 20
128.6665271142859
 30
0.0
 10
74.8937562029187
 20
128.6470579913945
 30
0.0
 10
74.66494238355114
 20
128.6108849498664
 30
0.0
 10
74.56688324536636
 20
128.5941923425203
 30
0.0
 10
74.40966012482627
 20
128.5665315173565
 30
0.0
 10
74.34926752271836
 20
128.55536561429
 30
0.0
 10
74.2650017951599
 20
128.539597827471
 30
0.0
 10
74.24194377907347
 20
128.5351520241122
 30
0.0
 10
74.22963586027547
 20
128.5327960807025
 30
0.0
 10
74.29829166620898
 20
128.5464377177957
 30
0.0
 10
74.58009239181924
 20
128.5968682225746
 30
0.0
 10
74.79732643910768
 20
128.6341562599183
 30
0.0
 10
75.21492829460446
 20
128.6926498896218
 30
0.0
 10
75.3714253311375
 20
128.7128078516413
 30
0.0
 10
75.71372670102203
 20
128.7511283107387
 30
0.0
 10
75.8961225264841
 20
128.7689283264067
 30
0.0
 10
76.28408115107932
 20
128.7996915873764
 30
0.0
 10
76.49276266829489
 20
128.8127641066211
 30
0.0
 10
76.91742531790216
 20
128.8309866056824
 30
0.0
 10
77.1335485437802
 20
128.8362756049333
 30
0.0
 10
77.57361863422734
 20
128.8383547969615
 30
0.0
 10
77.79577708256028
 20
128.835007647638
 30
0.0
 10
78.22472325110772
 20
128.8204568003933
 30
0.0
 10
78.43670950242662
 20
128.8090943462792
 30
0.0
 10
78.83803931835618
 20
128.7806117539238
 30
0.0
 10
79.02677553529062
 20
128.7636561587838
 30
0.0
 10
79.38171140528384
 20
128.7264918819809
 30
0.0
 10
79.54594033232019
 20
128.7064509073493
 30
0.0
 10
79.84024176298415
 20
128.6669901697479
 30
0.0
 10
79.97288256659253
 20
128.6472376449518
 30
0.0
 10
80.20270399010592
 20
128.6109145997806
 30
0.0
 10
80.2991868228051
 20
128.5944907716413
 30
0.0
 10
80.45713111991773
 20
128.5667164296754
 30
0.0
 10
80.51870378899218
 20
128.555334324961
 30
0.0
 10
80.60255864909912
 20
128.5396436208799
 30
0.0
 10
80.625628801959
 20
128.5351964290313
 30
0.0
 10
80.63419347078668
 20
128.5335570346915
 30
0.0
 10
80.61916907653897
 20
128.5364643355874
 30
0.0
 10
80.55196695567304
 20
128.5491428649294
 30
0.0
 10
80.50000004303078
 20
128.5588754962591
 30
0.0
 10
80.35819066958061
 20
128.5842576454119
 30
0.0
 10
80.26800212865015
 20
128.5999486044697
 30
0.0
 10
80.05502604981463
 20
128.6345686632858
 30
0.0
 10
79.93151369442766
 20
128.6536393561985
 30
0.0
 10
79.64837148375652
 20
128.6932625796229
 30
0.0
  0
LINE
  5
20D
330
1F
100
AcDbEntity
  8
0
  6
HIDDEN
 62
     7
370
     0
100
AcDbLine
 10
79.5552225443
 20
109.716184713
 30
0.0
 11
79.9339022613
 21
109.3375049961
 31
0.0
  0
LINE
  5
20E
330
1F
100
AcDbEntity
  8
0
  6
HIDDEN
 62
     7
370
     0
100
AcDbLine
 10
79.5552225443
 20
113.9588251673
 30
0.0
 11
79.9339022613
 21
114.3375048843
 31
0.0
  0
SPLINE
  5
20F
330
1F
100
AcDbEntity
  8
0
  6
HIDDEN
 62
     7
370
     0
100
AcDbSpline
210
0.0
220
0.0
230
1.0
 70
     8
 71
     3
 72
    22
 73
    18
 74
     0
 42
0.00000001
 43
0.00000001
 12
1.0
 22
0.0
 32
0.0
 13
1.0
 23
0.0
 33
0.0
 40
0.0
 40
0.0
 40
0.0
 40
0.0
 40
0.125
 40
0.125
 40
0.25
 40
0.25
 40
0.375
 40
0.375
 40
0.5
 40
0.5
 40
0.625
 40
0.625
 40
0.75
 40
0.75
 40
0.875
 40
0.875
 40
1.0
 40
1.0
 40
1.0
 40
1.0
 10
79.55522266074227
 20
113.9588252837452
 30
0.0
 10
79.66070490153464
 20
113.8533430429529
 30
0.0
 10
79.76824895303136
 20
113.7301335708821
 30
0.0
 10
79.97427240998518
 20
113.4430382290416
 30
0.0
 10
80.072290099877
 20
113.2791843866627
 30
0.0
 10
80.2394698016594
 20
112.9183938374882
 30
0.0
 10
80.31048145892457
 20
112.7164757452116
 30
0.0
 10
80.40717764304769
 20
112.2924017102278
 30
0.0
 10
80.43376128011612
 20
112.0642624859911
 30
0.0
 10
80.43404218404913
 20
111.6144947132669
 30
0.0
 10
80.40781745549413
 20
111.3865637113302
 30
0.0
 10
80.31138903568593
 20
110.9613831298208
 30
0.0
 10
80.24065300779289
 20
110.7595312251976
 30
0.0
 10
80.07301547572396
 20
110.397033313995
 30
0.0
 10
79.97453500926314
 20
110.2324314027697
 30
0.0
 10
79.76906869972228
 20
109.9459253086507
 30
0.0
 10
79.66134137030737
 20
109.822303306191
 30
0.0
 10
79.55522266074227
 20
109.716184596626
 30
0.0
  0
SPLINE
  5
210
330
1F
100
AcDbEntity
  8
0
  6
HIDDEN
 62
     7
370
     0
100
AcDbSpline
210
0.0
220
0.0
230
1.0
 70
     8
 71
     3
 72
    22
 73
    18
 74
     0
 42
0.00000001
 43
0.00000001
 12
1.0
 22
0.0
 32
0.0
 13
1.0
 23
0.0
 33
0.0
 40
0.0
 40
0.0
 40
0.0
 40
0.0
 40
0.125
 40
0.125
 40
0.25
 40
0.25
 40
0.375
 40
0.375
 40
0.5
 40
0.5
 40
0.625
 40
0.625
 40
0.75
 40
0.75
 40
0.875
 40
0.875
 40
1.0
 40
1.0
 40
1.0
 40
1.0
 10
79.55522266074227
 20
109.716184596626
 30
0.0
 10
79.66026416424982
 20
109.8212261001335
 30
0.0
 10
79.76910704598501
 20
109.9458859620112
 30
0.0
 10
79.97556652581301
 20
110.2339630683974
 30
0.0
 10
80.07139736197708
 20
110.3942746839281
 30
0.0
 10
80.23836215067548
 20
110.7538542925054
 30
0.0
 10
80.30966033182102
 20
110.95581953743
 30
0.0
 10
80.4067957315711
 20
111.3800576154858
 30
0.0
 10
80.4335730718149
 20
111.6081942794413
 30
0.0
 10
80.43422525897891
 20
112.0581183129855
 30
0.0
 10
80.40812367932443
 20
112.2864912693355
 30
0.0
 10
80.31189195926423
 20
112.7120088308889
 30
0.0
 10
80.2411800756931
 20
112.9141402954265
 30
0.0
 10
80.07353516641085
 20
113.2770501888171
 30
0.0
 10
79.97499876289345
 20
113.4418385239192
 30
0.0
 10
79.76968057603128
 20
113.7283241594104
 30
0.0
 10
79.66176953598399
 20
113.8522784085035
 30
0.0
 10
79.55522266074227
 20
113.9588252837452
 30
0.0
  0
SPLINE
  5
211
330
1F
100
AcDbEntity
  8
0
  6
HIDDEN
 62
     7
370
     0
100
AcDbSpline
210
0.0
220
0.0
230
1.0
 70
    11
 71
     3
 72
    60
 73
    56
 74
     0
 42
0.00000001
 43
0.00000001
 12
1.0
 22
0.0
 32
0.0
 13
1.0
 23
0.0
 33
0.0
 40
0.0
 40
0.0
 40
0.0
 40
0.0
 40
0.0625000000000006
 40
0.0625000000000006
 40
0.1250000000000012
 40
0.1250000000000012
 40
0.1562500000000016
 40
0.1562500000000016
 40
0.1875000000000019
 40
0.1875000000000019
 40
0.2187500000000022
 40
0.2187500000000022
 40
0.2500000000000026
 40
0.2500000000000026
 40
0.2812500000000029
 40
0.2812500000000029
 40
0.3125000000000033
 40
0.3125000000000033
 40
0.3437500000000037
 40
0.3437500000000037
 40
0.375000000000004
 40
0.375000000000004
 40
0.4375000000000047
 40
0.4375000000000047
 40
0.4687500000000044
 40
0.4687500000000044
 40
0.5000000000000041
 40
0.5000000000000041
 40
0.5312500000000039
 40
0.5312500000000039
 40
0.5625000000000036
 40
0.5625000000000036
 40
0.5937500000000033
 40
0.5937500000000033
 40
0.6250000000000031
 40
0.6250000000000031
 40
0.6875000000000026
 40
0.6875000000000026
 40
0.7187500000000023
 40
0.7187500000000023
 40
0.7500000000000021
 40
0.7500000000000021
 40
0.7812500000000019
 40
0.7812500000000019
 40
0.8125000000000016
 40
0.8125000000000016
 40
0.8437500000000013
 40
0.8437500000000013
 40
0.8750000000000011
 40
0.8750000000000011
 40
0.9062500000000009
 40
0.9062500000000009
 40
0.9375000000000006
 40
0.9375000000000006
 40
1.0
 40
1.0
 40
1.0
 40
1.0
 10
79.55522266074227
 20
109.716184596626
 30
0.0
 10
79.42095313986886
 20
109.5819150757525
 30
0.0
 10
79.25832008539682
 20
109.4444279990893
 30
0.0
 10
78.86309312943209
 20
109.1893487776521
 30
0.0
 10
78.63891642367614
 20
109.0768880120651
 30
0.0
 10
78.25426080530231
 20
108.9486854310888
 30
0.0
 10
78.12145179730132
 20
108.9139941324153
 30
0.0
 10
77.84591491717099
 20
108.8626292540077
 30
0.0
 10
77.70141261337537
 20
108.846016562239
 30
0.0
 10
77.41485225199932
 20
108.8341398992731
 30
0.0
 10
77.27183744811828
 20
108.8384510003299
 30
0.0
 10
76.98634138139899
 20
108.8676095270929
 30
0.0
 10
76.84607287504643
 20
108.8924298146063
 30
0.0
 10
76.57840995387751
 20
108.9587649789049
 30
0.0
 10
76.44853627507688
 20
109.0009134879952
 30
0.0
 10
76.20477687092985
 20
109.0977151780052
 30
0.0
 10
76.09074010692126
 20
109.152191089306
 30
0.0
 10
75.876353198973
 20
109.2705931876775
 30
0.0
 10
75.77628959847182
 20
109.3345258900976
 30
0.0
 10
75.59399271762024
 20
109.4653083387528
 30
0.0
 10
75.51088440921622
 20
109.5326531829125
 30
0.0
 10
75.28340844415303
 20
109.7359021966779
 30
0.0
 10
75.16045017011211
 20
109.8750015614692
 30
0.0
 10
75.0295364732675
 20
110.0419476638122
 30
0.0
 10
74.99432100656205
 20
110.0910269646834
 30
0.0
 10
74.94667524509683
 20
110.1595765203991
 30
0.0
 10
74.93385814804225
 20
110.1792591324821
 30
0.0
 10
74.93394672273226
 20
110.1791256011334
 30
0.0
 10
74.94652149438654
 20
110.1597949828443
 30
0.0
 10
74.99460224995083
 20
110.0906250815294
 30
0.0
 10
75.02911780984805
 20
110.0425095759704
 30
0.0
 10
75.11633023095223
 20
109.9312372492785
 30
0.0
 10
75.16940217292023
 20
109.8677510044389
 30
0.0
 10
75.28992167718994
 20
109.7372100832452
 30
0.0
 10
75.35771537834555
 20
109.6696131787809
 30
0.0
 10
75.58467907463724
 20
109.466513380545
 30
0.0
 10
75.76914018066772
 20
109.3301402991113
 30
0.0
 10
76.0859996555096
 20
109.1546452684406
 30
0.0
 10
76.19890631767524
 20
109.1003666328914
 30
0.0
 10
76.44205321943463
 20
109.0031837517256
 30
0.0
 10
76.57168866904593
 20
108.9607822039376
 30
0.0
 10
76.83873381422715
 20
108.8939152049526
 30
0.0
 10
76.97864763069019
 20
108.8687676925605
 30
0.0
 10
77.26454132050421
 20
108.8388428172024
 30
0.0
 10
77.40768554574663
 20
108.8341917155176
 30
0.0
 10
77.69436501937129
 20
108.8453925049087
 30
0.0
 10
77.83910964131573
 20
108.8616732722473
 30
0.0
 10
78.11564799088035
 20
108.9126135015455
 30
0.0
 10
78.24906055795668
 20
108.9471921383819
 30
0.0
 10
78.50651348739214
 20
109.032527876587
 30
0.0
 10
78.62701871699981
 20
109.0820782726144
 30
0.0
 10
78.85405269534735
 20
109.1919282984544
 30
0.0
 10
78.96124498581686
 20
109.2527624453196
 30
0.0
 10
79.25603617696923
 20
109.4428221290795
 30
0.0
 10
79.4195500872006
 20
109.5805120230843
 30
0.0
 10
79.55522266074227
 20
109.716184596626
 30
0.0
  0
SPLINE
  5
212
330
1F
100
AcDbEntity
  8
0
  6
HIDDEN
 62
     7
370
     0
100
AcDbSpline
210
0.0
220
0.0
230
1.0
 70
    11
 71
     3
 72
    58
 73
    54
 74
     0
 42
0.00000001
 43
0.00000001
 12
1.0
 22
0.0
 32
0.0
 13
1.0
 23
0.0
 33
0.0
 40
0.0
 40
0.0
 40
0.0
 40
0.0
 40
0.0312500000000004
 40
0.0312500000000004
 40
0.0625000000000009
 40
0.0625000000000009
 40
0.0937500000000013
 40
0.0937500000000013
 40
0.1250000000000018
 40
0.1250000000000018
 40
0.1562500000000023
 40
0.1562500000000023
 40
0.1875000000000027
 40
0.1875000000000027
 40
0.2500000000000037
 40
0.2500000000000037
 40
0.281250000000004
 40
0.281250000000004
 40
0.3125000000000042
 40
0.3125000000000042
 40
0.375000000000004
 40
0.375000000000004
 40
0.4062500000000033
 40
0.4062500000000033
 40
0.4375000000000026
 40
0.4375000000000026
 40
0.4687500000000019
 40
0.4687500000000019
 40
0.5000000000000012
 40
0.5000000000000012
 40
0.5312500000000007
 40
0.5312500000000007
 40
0.5625
 40
0.5625
 40
0.6249999999999987
 40
0.6249999999999987
 40
0.6562499999999986
 40
0.6562499999999986
 40
0.6874999999999984
 40
0.6874999999999984
 40
0.7187499999999983
 40
0.7187499999999983
 40
0.7499999999999982
 40
0.7499999999999982
 40
0.8124999999999986
 40
0.8124999999999986
 40
0.8437499999999987
 40
0.8437499999999987
 40
0.8749999999999987
 40
0.8749999999999987
 40
0.9374999999999993
 40
0.9374999999999993
 40
1.0
 40
1.0
 40
1.0
 40
1.0
 10
79.55522266074227
 20
113.9588252837452
 30
0.0
 10
79.48835970534537
 20
114.0256882391421
 30
0.0
 10
79.41392826566535
 20
114.0938059987169
 30
0.0
 10
79.24853773866172
 20
114.2288425387918
 30
0.0
 10
79.15727143479383
 20
114.295851474313
 30
0.0
 10
78.96220268994794
 20
114.421642469033
 30
0.0
 10
78.85779905884222
 20
114.4810024476633
 30
0.0
 10
78.63342330876998
 20
114.5900874355326
 30
0.0
 10
78.51222898825783
 20
114.6402465464557
 30
0.0
 10
78.25667563003341
 20
114.7256172989296
 30
0.0
 10
78.12398643841478
 20
114.7604349990959
 30
0.0
 10
77.84781228155428
 20
114.8121334489329
 30
0.0
 10
77.70328815449791
 20
114.8288158866221
 30
0.0
 10
77.27403065504095
 20
114.8469036645341
 30
0.0
 10
76.98162992898177
 20
114.8160479871915
 30
0.0
 10
76.57949703412565
 20
114.7165775098308
 30
0.0
 10
76.4492151885845
 20
114.6743279978195
 30
0.0
 10
76.20559641934064
 20
114.5776579327896
 30
0.0
 10
76.09137479984062
 20
114.5231532010615
 30
0.0
 10
75.76879419914778
 20
114.3450459307021
 30
0.0
 10
75.58715590553818
 20
114.2104978919228
 30
0.0
 10
75.35909820031434
 20
114.0067397917186
 30
0.0
 10
75.28994215563955
 20
113.9378362960652
 30
0.0
 10
75.16893776100345
 20
113.806741477026
 30
0.0
 10
75.1167108118946
 20
113.7442391876415
 30
0.0
 10
75.02934850458166
 20
113.6328135278402
 30
0.0
 10
74.99415390831474
 20
113.5837479916198
 30
0.0
 10
74.9465844131711
 20
113.5152971614214
 30
0.0
 10
74.93373460562836
 20
113.4955645012432
 30
0.0
 10
74.93407340219703
 20
113.4960752551602
 30
0.0
 10
74.94685866736329
 20
113.515713224384
 30
0.0
 10
74.99488552531389
 20
113.5847788884379
 30
0.0
 10
75.03005261825702
 20
113.6337479469017
 30
0.0
 10
75.16076123249218
 20
113.8003495254487
 30
0.0
 10
75.28390884110446
 20
113.9395582284929
 30
0.0
 10
75.51067669707938
 20
114.1421693859768
 30
0.0
 10
75.59370132034229
 20
114.2094877176843
 30
0.0
 10
75.77641298006742
 20
114.3405772729143
 30
0.0
 10
75.87666204538748
 20
114.4045699980746
 30
0.0
 10
76.08978023637175
 20
114.5223058839078
 30
0.0
 10
76.20324687707331
 20
114.576587216224
 30
0.0
 10
76.44613766096406
 20
114.6732421478802
 30
0.0
 10
76.57613329618341
 20
114.7155550561692
 30
0.0
 10
76.97679221126593
 20
114.8152240345705
 30
0.0
 10
77.2689389621096
 20
114.8466000157968
 30
0.0
 10
77.69777389412948
 20
114.8293001055546
 30
0.0
 10
77.84210053904505
 20
114.8129287170974
 30
0.0
 10
78.11862463236979
 20
114.7617018883457
 30
0.0
 10
78.25159728533805
 20
114.7270736152834
 30
0.0
 10
78.63601777193246
 20
114.5993606912459
 30
0.0
 10
78.86383461344263
 20
114.4851600843559
 30
0.0
 10
79.25717226139335
 20
114.2313451280171
 30
0.0
 10
79.42017304843702
 20
114.0938748960505
 30
0.0
 10
79.55522266074227
 20
113.9588252837452
 30
0.0
  0
LINE
  5
213
330
1F
100
AcDbEntity
  8
0
  6
HIDDEN
 62
     7
370
     0
100
AcDbLine
 10
74.9339023731
 20
127.8375057001
 30
0.0
 11
79.9339022613
 21
127.8375057001
 31
0.0
  0
SPLINE
  5
214
330
1F
100
AcDbEntity
  8
0
  6
HIDDEN
 62
     7
370
     0
100
AcDbSpline
210
0.0
220
0.0
230
1.0
 70
     8
 71
     3
 72
    66
 73
    62
 74
     0
 42
0.00000001
 43
0.00000001
 12
1.0
 22
0.0
 32
0.0
 13
1.0
 23
0.0
 33
0.0
 40
-0.0312499999999997
 40
-0.0312499999999997
 40
0.0
 40
0.0
 40
0.0312500000000005
 40
0.0312500000000005
 40
0.062500000000001
 40
0.062500000000001
 40
0.0937500000000015
 40
0.0937500000000015
 40
0.125000000000002
 40
0.125000000000002
 40
0.1562500000000025
 40
0.1562500000000025
 40
0.1875000000000031
 40
0.1875000000000031
 40
0.2187500000000036
 40
0.2187500000000036
 40
0.2500000000000041
 40
0.2500000000000041
 40
0.2812500000000046
 40
0.2812500000000046
 40
0.3125000000000051
 40
0.3125000000000051
 40
0.3437500000000056
 40
0.3437500000000056
 40
0.3750000000000061
 40
0.3750000000000061
 40
0.4375000000000061
 40
0.4375000000000061
 40
0.5000000000000061
 40
0.5000000000000061
 40
0.5312500000000058
 40
0.5312500000000058
 40
0.5625000000000053
 40
0.5625000000000053
 40
0.593750000000005
 40
0.593750000000005
 40
0.6250000000000046
 40
0.6250000000000046
 40
0.6562500000000042
 40
0.6562500000000042
 40
0.6875000000000038
 40
0.6875000000000038
 40
0.7187500000000034
 40
0.7187500000000034
 40
0.750000000000003
 40
0.750000000000003
 40
0.7812500000000027
 40
0.7812500000000027
 40
0.8125000000000023
 40
0.8125000000000023
 40
0.8437500000000019
 40
0.8437500000000019
 40
0.8750000000000016
 40
0.8750000000000016
 40
0.9062500000000011
 40
0.9062500000000011
 40
0.9375000000000008
 40
0.9375000000000008
 40
0.9687500000000003
 40
0.9687500000000003
 40
1.0
 40
1.0
 40
1.03125
 40
1.03125
 10
79.93151369442766
 20
128.6536393561985
 30
0.0
 10
79.64837148375652
 20
128.6932625796229
 30
0.0
 10
79.49264212714941
 20
128.7132556863056
 30
0.0
 10
79.15199330910391
 20
128.7513317157498
 30
0.0
 10
78.96505026483273
 20
128.769536176561
 30
0.0
 10
78.57589558033992
 20
128.8002272221216
 30
0.0
 10
78.37239952031265
 20
128.8129196327833
 30
0.0
 10
77.94626260074153
 20
128.8311204450091
 30
0.0
 10
77.72609453739405
 20
128.8363958602371
 30
0.0
 10
77.28943491946266
 20
128.8382930976904
 30
0.0
 10
77.06769840165688
 20
128.8349298243706
 30
0.0
 10
76.6364051801611
 20
128.8201595123572
 30
0.0
 10
76.42844682450551
 20
128.8089369138146
 30
0.0
 10
76.02724650520005
 20
128.780402077626
 30
0.0
 10
75.83601683113486
 20
128.763168856804
 30
0.0
 10
75.48390422785437
 20
128.7262243853199
 30
0.0
 10
75.31951116088943
 20
128.7061602048856
 30
0.0
 10
75.0242979793837
 20
128.6665271142859
 30
0.0
 10
74.89375620291868
 20
128.6470579913945
 30
0.0
 10
74.66494238355112
 20
128.6108849498664
 30
0.0
 10
74.56688324536636
 20
128.5941923425203
 30
0.0
 10
74.40966012482627
 20
128.5665315173565
 30
0.0
 10
74.34926752271836
 20
128.55536561429
 30
0.0
 10
74.2650017951599
 20
128.539597827471
 30
0.0
 10
74.24194377907347
 20
128.5351520241122
 30
0.0
 10
74.22963586027547
 20
128.5327960807025
 30
0.0
 10
74.29829166620898
 20
128.5464377177957
 30
0.0
 10
74.58009239181925
 20
128.5968682225746
 30
0.0
 10
74.79732643910768
 20
128.6341562599183
 30
0.0
 10
75.21492829460448
 20
128.6926498896218
 30
0.0
 10
75.3714253311375
 20
128.7128078516413
 30
0.0
 10
75.71372670102204
 20
128.7511283107387
 30
0.0
 10
75.8961225264841
 20
128.7689283264067
 30
0.0
 10
76.28408115107933
 20
128.7996915873764
 30
0.0
 10
76.4927626682949
 20
128.8127641066211
 30
0.0
 10
76.91742531790217
 20
128.8309866056824
 30
0.0
 10
77.13354854378021
 20
128.8362756049334
 30
0.0
 10
77.57361863422736
 20
128.8383547969615
 30
0.0
 10
77.79577708256028
 20
128.835007647638
 30
0.0
 10
78.22472325110772
 20
128.8204568003933
 30
0.0
 10
78.43670950242662
 20
128.8090943462792
 30
0.0
 10
78.83803931835618
 20
128.7806117539238
 30
0.0
 10
79.02677553529064
 20
128.7636561587838
 30
0.0
 10
79.38171140528385
 20
128.7264918819808
 30
0.0
 10
79.54594033232019
 20
128.7064509073493
 30
0.0
 10
79.84024176298415
 20
128.6669901697479
 30
0.0
 10
79.97288256659253
 20
128.6472376449518
 30
0.0
 10
80.20270399010593
 20
128.6109145997806
 30
0.0
 10
80.2991868228051
 20
128.5944907716412
 30
0.0
 10
80.45713111991773
 20
128.5667164296754
 30
0.0
 10
80.51870378899218
 20
128.555334324961
 30
0.0
 10
80.60255864909912
 20
128.5396436208799
 30
0.0
 10
80.625628801959
 20
128.5351964290313
 30
0.0
 10
80.63419347078668
 20
128.5335570346915
 30
0.0
 10
80.61916907653895
 20
128.5364643355874
 30
0.0
 10
80.55196695567304
 20
128.5491428649294
 30
0.0
 10
80.50000004303078
 20
128.5588754962591
 30
0.0
 10
80.35819066958061
 20
128.5842576454119
 30
0.0
 10
80.26800212865015
 20
128.5999486044697
 30
0.0
 10
80.05502604981463
 20
128.6345686632858
 30
0.0
 10
79.93151369442766
 20
128.6536393561985
 30
0.0
 10
79.64837148375652
 20
128.6932625796229
 30
0.0
  0
LINE
  5
215
330
1F
100
AcDbEntity
  8
0
  6
HIDDEN
 62
     7
370
     0
100
AcDbLine
 10
79.9339022613
 20
95.8375041802
 30
0.0
 11
74.9339023731
 21
95.8375041802
 31
0.0
  0
SPLINE
  5
216
330
1F
100
AcDbEntity
  8
0
  6
HIDDEN
 62
     7
370
     0
100
AcDbSpline
210
0.0
220
0.0
230
1.0
 70
     8
 71
     3
 72
    66
 73
    62
 74
     0
 42
0.00000001
 43
0.00000001
 12
1.0
 22
0.0
 32
0.0
 13
1.0
 23
0.0
 33
0.0
 40
-0.0312499999999997
 40
-0.0312499999999997
 40
0.0
 40
0.0
 40
0.0312500000000005
 40
0.0312500000000005
 40
0.062500000000001
 40
0.062500000000001
 40
0.0937500000000015
 40
0.0937500000000015
 40
0.125000000000002
 40
0.125000000000002
 40
0.1562500000000025
 40
0.1562500000000025
 40
0.1875000000000031
 40
0.1875000000000031
 40
0.2187500000000036
 40
0.2187500000000036
 40
0.2500000000000041
 40
0.2500000000000041
 40
0.2812500000000046
 40
0.2812500000000046
 40
0.3125000000000051
 40
0.3125000000000051
 40
0.3437500000000056
 40
0.3437500000000056
 40
0.3750000000000061
 40
0.3750000000000061
 40
0.4375000000000061
 40
0.4375000000000061
 40
0.5000000000000061
 40
0.5000000000000061
 40
0.5312500000000058
 40
0.5312500000000058
 40
0.5625000000000053
 40
0.5625000000000053
 40
0.593750000000005
 40
0.593750000000005
 40
0.6250000000000046
 40
0.6250000000000046
 40
0.6562500000000042
 40
0.6562500000000042
 40
0.6875000000000038
 40
0.6875000000000038
 40
0.7187500000000034
 40
0.7187500000000034
 40
0.750000000000003
 40
0.750000000000003
 40
0.7812500000000027
 40
0.7812500000000027
 40
0.8125000000000023
 40
0.8125000000000023
 40
0.8437500000000019
 40
0.8437500000000019
 40
0.8750000000000016
 40
0.8750000000000016
 40
0.9062500000000011
 40
0.9062500000000011
 40
0.9375000000000008
 40
0.9375000000000008
 40
0.9687500000000003
 40
0.9687500000000003
 40
1.0
 40
1.0
 40
1.03125
 40
1.03125
 10
74.93629093993772
 20
95.02137052417267
 30
0.0
 10
75.21943315060886
 20
94.98174730074822
 30
0.0
 10
75.37516250721598
 20
94.96175419406552
 30
0.0
 10
75.71581132526147
 20
94.92367816462138
 30
0.0
 10
75.90275436953266
 20
94.90547370381017
 30
0.0
 10
76.29190905402545
 20
94.87478265824957
 30
0.0
 10
76.49540511405273
 20
94.86209024758782
 30
0.0
 10
76.92154203362385
 20
94.84388943536207
 30
0.0
 10
77.14171009697134
 20
94.83861402013412
 30
0.0
 10
77.57836971490272
 20
94.83671678268075
 30
0.0
 10
77.8001062327085
 20
94.84008005600062
 30
0.0
 10
78.23139945420428
 20
94.85485036801403
 30
0.0
 10
78.43935780985986
 20
94.86607296655659
 30
0.0
 10
78.84055812916532
 20
94.89460780274516
 30
0.0
 10
79.03178780323051
 20
94.91184102356719
 30
0.0
 10
79.38390040651103
 20
94.94878549505133
 30
0.0
 10
79.54829347347595
 20
94.96884967548561
 30
0.0
 10
79.84350665498168
 20
95.00848276608524
 30
0.0
 10
79.97404843144669
 20
95.0279518889767
 30
0.0
 10
80.20286225081425
 20
95.06412493050479
 30
0.0
 10
80.30092138899903
 20
95.08081753785092
 30
0.0
 10
80.4581445095391
 20
95.10847836301467
 30
0.0
 10
80.518537111647
 20
95.11964426608121
 30
0.0
 10
80.60280283920545
 20
95.13541205290022
 30
0.0
 10
80.62586085529192
 20
95.13985785625901
 30
0.0
 10
80.63816877408992
 20
95.14221379966872
 30
0.0
 10
80.56951296815639
 20
95.12857216257554
 30
0.0
 10
80.28771224254614
 20
95.07814165779659
 30
0.0
 10
80.07047819525769
 20
95.04085362045294
 30
0.0
 10
79.6528763397609
 20
94.9823599907494
 30
0.0
 10
79.49637930322788
 20
94.96220202872985
 30
0.0
 10
79.15407793334333
 20
94.9238815696325
 30
0.0
 10
78.97168210788126
 20
94.90608155396448
 30
0.0
 10
78.58372348328605
 20
94.87531829299483
 30
0.0
 10
78.37504196607048
 20
94.86224577375009
 30
0.0
 10
77.9503793164632
 20
94.84402327468881
 30
0.0
 10
77.73425609058516
 20
94.8387342754378
 30
0.0
 10
77.29418600013801
 20
94.83665508340967
 30
0.0
 10
77.07202755180509
 20
94.84000223273323
 30
0.0
 10
76.64308138325767
 20
94.85455307997786
 30
0.0
 10
76.43109513193875
 20
94.86591553409198
 30
0.0
 10
76.02976531600919
 20
94.89439812644741
 30
0.0
 10
75.84102909907475
 20
94.91135372158732
 30
0.0
 10
75.48609322908152
 20
94.94851799839032
 30
0.0
 10
75.3218643020452
 20
94.96855897302184
 30
0.0
 10
75.0275628713812
 20
95.00801971062329
 30
0.0
 10
74.89492206777282
 20
95.02777223541939
 30
0.0
 10
74.66510064425945
 20
95.06409528059054
 30
0.0
 10
74.56861781156027
 20
95.08051910872992
 30
0.0
 10
74.41067351444765
 20
95.10829345069574
 30
0.0
 10
74.34910084537319
 20
95.11967555541014
 30
0.0
 10
74.26524598526625
 20
95.13536625949126
 30
0.0
 10
74.24217583240639
 20
95.1398134513399
 30
0.0
 10
74.23361116357869
 20
95.14145284567967
 30
0.0
 10
74.24863555782642
 20
95.13854554478374
 30
0.0
 10
74.31583767869233
 20
95.12586701544178
 30
0.0
 10
74.3678045913346
 20
95.11613438411204
 30
0.0
 10
74.50961396478476
 20
95.0907522349593
 30
0.0
 10
74.59980250571523
 20
95.07506127590152
 30
0.0
 10
74.81277858455076
 20
95.04044121708533
 30
0.0
 10
74.93629093993772
 20
95.02137052417267
 30
0.0
 10
75.21943315060886
 20
94.98174730074822
 30
0.0
  0
LINE
  5
217
330
1F
100
AcDbEntity
  8
0
  6
HIDDEN
 62
     7
370
     0
100
AcDbLine
 10
79.5552225443
 20
109.716184713
 30
0.0
 11
79.9339022613
 21
109.3375049961
 31
0.0
  0
LINE
  5
218
330
1F
100
AcDbEntity
  8
0
  6
HIDDEN
 62
     7
370
     0
100
AcDbLine
 10
79.5552225443
 20
113.9588251673
 30
0.0
 11
79.9339022613
 21
114.3375048843
 31
0.0
  0
SPLINE
  5
219
330
1F
100
AcDbEntity
  8
0
  6
HIDDEN
 62
     7
370
     0
100
AcDbSpline
210
0.0
220
0.0
230
1.0
 70
    11
 71
     3
 72
    58
 73
    54
 74
     0
 42
0.00000001
 43
0.00000001
 12
1.0
 22
0.0
 32
0.0
 13
1.0
 23
0.0
 33
0.0
 40
0.0
 40
0.0
 40
0.0
 40
0.0
 40
0.0312499999999992
 40
0.0312499999999992
 40
0.0624999999999983
 40
0.0624999999999983
 40
0.0937499999999975
 40
0.0937499999999975
 40
0.1249999999999966
 40
0.1249999999999966
 40
0.1562499999999958
 40
0.1562499999999958
 40
0.1874999999999949
 40
0.1874999999999949
 40
0.2499999999999932
 40
0.2499999999999932
 40
0.2812499999999923
 40
0.2812499999999923
 40
0.3124999999999914
 40
0.3124999999999914
 40
0.3749999999999904
 40
0.3749999999999904
 40
0.4062499999999905
 40
0.4062499999999905
 40
0.4374999999999905
 40
0.4374999999999905
 40
0.4687499999999906
 40
0.4687499999999906
 40
0.4999999999999907
 40
0.4999999999999907
 40
0.5312499999999907
 40
0.5312499999999907
 40
0.5624999999999908
 40
0.5624999999999908
 40
0.624999999999991
 40
0.624999999999991
 40
0.6562499999999916
 40
0.6562499999999916
 40
0.6874999999999922
 40
0.6874999999999922
 40
0.7187499999999928
 40
0.7187499999999928
 40
0.7499999999999933
 40
0.7499999999999933
 40
0.8124999999999947
 40
0.8124999999999947
 40
0.8437499999999954
 40
0.8437499999999954
 40
0.8749999999999961
 40
0.8749999999999961
 40
0.937499999999998
 40
0.937499999999998
 40
1.0
 40
1.0
 40
1.0
 40
1.0
 10
79.55522266074227
 20
113.9588252837452
 30
0.0
 10
79.48835970534537
 20
114.0256882391421
 30
0.0
 10
79.41392826566535
 20
114.0938059987169
 30
0.0
 10
79.24853773866172
 20
114.2288425387918
 30
0.0
 10
79.15727143479383
 20
114.295851474313
 30
0.0
 10
78.96220268994794
 20
114.421642469033
 30
0.0
 10
78.85779905884222
 20
114.4810024476633
 30
0.0
 10
78.63342330876998
 20
114.5900874355326
 30
0.0
 10
78.51222898825783
 20
114.6402465464557
 30
0.0
 10
78.25667563003341
 20
114.7256172989296
 30
0.0
 10
78.12398643841478
 20
114.7604349990959
 30
0.0
 10
77.84781228155428
 20
114.8121334489329
 30
0.0
 10
77.70328815449791
 20
114.8288158866221
 30
0.0
 10
77.27403065504095
 20
114.8469036645341
 30
0.0
 10
76.98162992898179
 20
114.8160479871915
 30
0.0
 10
76.57949703412565
 20
114.7165775098308
 30
0.0
 10
76.4492151885845
 20
114.6743279978195
 30
0.0
 10
76.20559641934064
 20
114.5776579327896
 30
0.0
 10
76.09137479984064
 20
114.5231532010615
 30
0.0
 10
75.76879419914778
 20
114.3450459307021
 30
0.0
 10
75.58715590553818
 20
114.2104978919228
 30
0.0
 10
75.35909820031434
 20
114.0067397917186
 30
0.0
 10
75.28994215563955
 20
113.9378362960652
 30
0.0
 10
75.16893776100345
 20
113.806741477026
 30
0.0
 10
75.1167108118946
 20
113.7442391876415
 30
0.0
 10
75.02934850458168
 20
113.6328135278402
 30
0.0
 10
74.99415390831474
 20
113.5837479916198
 30
0.0
 10
74.9465844131711
 20
113.5152971614214
 30
0.0
 10
74.93373460562836
 20
113.4955645012432
 30
0.0
 10
74.93407340219703
 20
113.4960752551602
 30
0.0
 10
74.94685866736329
 20
113.515713224384
 30
0.0
 10
74.99488552531389
 20
113.5847788884379
 30
0.0
 10
75.03005261825702
 20
113.6337479469017
 30
0.0
 10
75.16076123249218
 20
113.8003495254487
 30
0.0
 10
75.28390884110446
 20
113.9395582284929
 30
0.0
 10
75.51067669707938
 20
114.1421693859768
 30
0.0
 10
75.59370132034229
 20
114.2094877176843
 30
0.0
 10
75.77641298006742
 20
114.3405772729143
 30
0.0
 10
75.87666204538748
 20
114.4045699980746
 30
0.0
 10
76.08978023637175
 20
114.5223058839078
 30
0.0
 10
76.20324687707331
 20
114.576587216224
 30
0.0
 10
76.44613766096406
 20
114.6732421478802
 30
0.0
 10
76.57613329618341
 20
114.7155550561692
 30
0.0
 10
76.97679221126592
 20
114.8152240345705
 30
0.0
 10
77.26893896210959
 20
114.8466000157968
 30
0.0
 10
77.69777389412948
 20
114.8293001055546
 30
0.0
 10
77.84210053904503
 20
114.8129287170974
 30
0.0
 10
78.11862463236977
 20
114.7617018883457
 30
0.0
 10
78.25159728533805
 20
114.7270736152834
 30
0.0
 10
78.63601777193246
 20
114.5993606912459
 30
0.0
 10
78.86383461344263
 20
114.4851600843559
 30
0.0
 10
79.25717226139335
 20
114.2313451280171
 30
0.0
 10
79.42017304843702
 20
114.0938748960505
 30
0.0
 10
79.55522266074227
 20
113.9588252837452
 30
0.0
  0
SPLINE
  5
21A
330
1F
100
AcDbEntity
  8
0
  6
HIDDEN
 62
     7
370
     0
100
AcDbSpline
210
0.0
220
0.0
230
1.0
 70
    11
 71
     3
 72
    60
 73
    56
 74
     0
 42
0.00000001
 43
0.00000001
 12
1.0
 22
0.0
 32
0.0
 13
1.0
 23
0.0
 33
0.0
 40
0.0
 40
0.0
 40
0.0
 40
0.0
 40
0.0625000000000015
 40
0.0625000000000015
 40
0.125000000000003
 40
0.125000000000003
 40
0.1562500000000036
 40
0.1562500000000036
 40
0.1875000000000041
 40
0.1875000000000041
 40
0.2187500000000046
 40
0.2187500000000046
 40
0.2500000000000051
 40
0.2500000000000051
 40
0.2812500000000057
 40
0.2812500000000057
 40
0.3125000000000061
 40
0.3125000000000061
 40
0.3437500000000066
 40
0.3437500000000066
 40
0.375000000000007
 40
0.375000000000007
 40
0.4375000000000081
 40
0.4375000000000081
 40
0.4687500000000079
 40
0.4687500000000079
 40
0.5000000000000078
 40
0.5000000000000078
 40
0.5312500000000077
 40
0.5312500000000077
 40
0.5625000000000075
 40
0.5625000000000075
 40
0.5937500000000073
 40
0.5937500000000073
 40
0.6250000000000072
 40
0.6250000000000072
 40
0.687500000000006
 40
0.687500000000006
 40
0.7187500000000054
 40
0.7187500000000054
 40
0.7500000000000048
 40
0.7500000000000048
 40
0.7812500000000042
 40
0.7812500000000042
 40
0.8125000000000037
 40
0.8125000000000037
 40
0.8437500000000031
 40
0.8437500000000031
 40
0.8750000000000026
 40
0.8750000000000026
 40
0.906250000000002
 40
0.906250000000002
 40
0.9375000000000013
 40
0.9375000000000013
 40
1.0
 40
1.0
 40
1.0
 40
1.0
 10
79.55522266074227
 20
109.716184596626
 30
0.0
 10
79.42095313986886
 20
109.5819150757525
 30
0.0
 10
79.25832008539682
 20
109.4444279990893
 30
0.0
 10
78.86309312943207
 20
109.1893487776521
 30
0.0
 10
78.63891642367614
 20
109.0768880120651
 30
0.0
 10
78.25426080530231
 20
108.9486854310888
 30
0.0
 10
78.12145179730132
 20
108.9139941324153
 30
0.0
 10
77.84591491717099
 20
108.8626292540077
 30
0.0
 10
77.70141261337535
 20
108.846016562239
 30
0.0
 10
77.4148522519993
 20
108.8341398992731
 30
0.0
 10
77.27183744811828
 20
108.8384510003299
 30
0.0
 10
76.98634138139899
 20
108.8676095270929
 30
0.0
 10
76.84607287504643
 20
108.8924298146063
 30
0.0
 10
76.57840995387751
 20
108.9587649789049
 30
0.0
 10
76.44853627507688
 20
109.0009134879952
 30
0.0
 10
76.20477687092983
 20
109.0977151780052
 30
0.0
 10
76.09074010692126
 20
109.152191089306
 30
0.0
 10
75.876353198973
 20
109.2705931876775
 30
0.0
 10
75.77628959847182
 20
109.3345258900976
 30
0.0
 10
75.59399271762024
 20
109.4653083387528
 30
0.0
 10
75.51088440921622
 20
109.5326531829125
 30
0.0
 10
75.28340844415303
 20
109.7359021966779
 30
0.0
 10
75.16045017011211
 20
109.8750015614692
 30
0.0
 10
75.0295364732675
 20
110.0419476638122
 30
0.0
 10
74.99432100656205
 20
110.0910269646834
 30
0.0
 10
74.94667524509683
 20
110.1595765203991
 30
0.0
 10
74.93385814804225
 20
110.1792591324821
 30
0.0
 10
74.93394672273226
 20
110.1791256011334
 30
0.0
 10
74.94652149438654
 20
110.1597949828443
 30
0.0
 10
74.99460224995082
 20
110.0906250815294
 30
0.0
 10
75.02911780984805
 20
110.0425095759704
 30
0.0
 10
75.11633023095223
 20
109.9312372492785
 30
0.0
 10
75.16940217292023
 20
109.8677510044389
 30
0.0
 10
75.28992167718994
 20
109.7372100832452
 30
0.0
 10
75.35771537834555
 20
109.6696131787809
 30
0.0
 10
75.58467907463724
 20
109.466513380545
 30
0.0
 10
75.76914018066772
 20
109.3301402991113
 30
0.0
 10
76.0859996555096
 20
109.1546452684406
 30
0.0
 10
76.19890631767524
 20
109.1003666328914
 30
0.0
 10
76.44205321943463
 20
109.0031837517256
 30
0.0
 10
76.57168866904593
 20
108.9607822039376
 30
0.0
 10
76.83873381422715
 20
108.8939152049526
 30
0.0
 10
76.97864763069019
 20
108.8687676925605
 30
0.0
 10
77.2645413205042
 20
108.8388428172024
 30
0.0
 10
77.40768554574662
 20
108.8341917155176
 30
0.0
 10
77.69436501937129
 20
108.8453925049087
 30
0.0
 10
77.83910964131573
 20
108.8616732722472
 30
0.0
 10
78.11564799088035
 20
108.9126135015455
 30
0.0
 10
78.24906055795668
 20
108.9471921383819
 30
0.0
 10
78.50651348739214
 20
109.032527876587
 30
0.0
 10
78.62701871699981
 20
109.0820782726144
 30
0.0
 10
78.85405269534735
 20
109.1919282984544
 30
0.0
 10
78.96124498581685
 20
109.2527624453196
 30
0.0
 10
79.25603617696923
 20
109.4428221290795
 30
0.0
 10
79.4195500872006
 20
109.5805120230843
 30
0.0
 10
79.55522266074227
 20
109.7161845966259
 30
0.0
  0
LINE
  5
21B
330
1F
100
AcDbEntity
  8
0
  6
HIDDEN
 62
     7
370
     0
100
AcDbLine
 10
74.9339023731
 20
127.8375057001
 30
0.0
 11
79.9339022613
 21
127.8375057001
 31
0.0
  0
SPLINE
  5
21C
330
1F
100
AcDbEntity
  8
0
  6
HIDDEN
 62
     7
370
     0
100
AcDbSpline
210
0.0
220
0.0
230
1.0
 70
     8
 71
     3
 72
    66
 73
    62
 74
     0
 42
0.00000001
 43
0.00000001
 12
1.0
 22
0.0
 32
0.0
 13
1.0
 23
0.0
 33
0.0
 40
-0.0312499999999999
 40
-0.0312499999999999
 40
0.0
 40
0.0
 40
0.0312500000000003
 40
0.0312500000000003
 40
0.0625000000000006
 40
0.0625000000000006
 40
0.0937500000000009
 40
0.0937500000000009
 40
0.1250000000000012
 40
0.1250000000000012
 40
0.1562500000000015
 40
0.1562500000000015
 40
0.1875000000000018
 40
0.1875000000000018
 40
0.2187500000000021
 40
0.2187500000000021
 40
0.2500000000000024
 40
0.2500000000000024
 40
0.2812500000000027
 40
0.2812500000000027
 40
0.3125000000000029
 40
0.3125000000000029
 40
0.3437500000000032
 40
0.3437500000000032
 40
0.3750000000000035
 40
0.3750000000000035
 40
0.4375000000000031
 40
0.4375000000000031
 40
0.5000000000000027
 40
0.5000000000000027
 40
0.5312500000000024
 40
0.5312500000000024
 40
0.5625000000000023
 40
0.5625000000000023
 40
0.5937500000000021
 40
0.5937500000000021
 40
0.625000000000002
 40
0.625000000000002
 40
0.6562500000000018
 40
0.6562500000000018
 40
0.6875000000000017
 40
0.6875000000000017
 40
0.7187500000000014
 40
0.7187500000000014
 40
0.7500000000000013
 40
0.7500000000000013
 40
0.7812500000000011
 40
0.7812500000000011
 40
0.812500000000001
 40
0.812500000000001
 40
0.8437500000000008
 40
0.8437500000000008
 40
0.8750000000000007
 40
0.8750000000000007
 40
0.9062500000000004
 40
0.9062500000000004
 40
0.9375000000000003
 40
0.9375000000000003
 40
0.9687500000000001
 40
0.9687500000000001
 40
1.0
 40
1.0
 40
1.03125
 40
1.03125
 10
79.93151369442766
 20
128.6536393561985
 30
0.0
 10
79.64837148375652
 20
128.6932625796229
 30
0.0
 10
79.49264212714941
 20
128.7132556863056
 30
0.0
 10
79.15199330910391
 20
128.7513317157498
 30
0.0
 10
78.96505026483273
 20
128.769536176561
 30
0.0
 10
78.57589558033992
 20
128.8002272221216
 30
0.0
 10
78.37239952031265
 20
128.8129196327833
 30
0.0
 10
77.94626260074153
 20
128.8311204450091
 30
0.0
 10
77.72609453739405
 20
128.8363958602371
 30
0.0
 10
77.28943491946266
 20
128.8382930976904
 30
0.0
 10
77.06769840165688
 20
128.8349298243706
 30
0.0
 10
76.63640518016109
 20
128.8201595123572
 30
0.0
 10
76.42844682450551
 20
128.8089369138146
 30
0.0
 10
76.02724650520005
 20
128.780402077626
 30
0.0
 10
75.83601683113486
 20
128.763168856804
 30
0.0
 10
75.48390422785435
 20
128.7262243853199
 30
0.0
 10
75.31951116088943
 20
128.7061602048856
 30
0.0
 10
75.0242979793837
 20
128.6665271142859
 30
0.0
 10
74.8937562029187
 20
128.6470579913945
 30
0.0
 10
74.66494238355114
 20
128.6108849498664
 30
0.0
 10
74.56688324536636
 20
128.5941923425203
 30
0.0
 10
74.40966012482627
 20
128.5665315173565
 30
0.0
 10
74.34926752271836
 20
128.55536561429
 30
0.0
 10
74.2650017951599
 20
128.539597827471
 30
0.0
 10
74.24194377907347
 20
128.5351520241122
 30
0.0
 10
74.22963586027547
 20
128.5327960807025
 30
0.0
 10
74.298291666209
 20
128.5464377177957
 30
0.0
 10
74.58009239181925
 20
128.5968682225746
 30
0.0
 10
74.79732643910769
 20
128.6341562599183
 30
0.0
 10
75.21492829460448
 20
128.6926498896218
 30
0.0
 10
75.3714253311375
 20
128.7128078516413
 30
0.0
 10
75.71372670102204
 20
128.7511283107387
 30
0.0
 10
75.8961225264841
 20
128.7689283264067
 30
0.0
 10
76.28408115107933
 20
128.7996915873764
 30
0.0
 10
76.4927626682949
 20
128.8127641066211
 30
0.0
 10
76.91742531790217
 20
128.8309866056824
 30
0.0
 10
77.13354854378021
 20
128.8362756049333
 30
0.0
 10
77.57361863422736
 20
128.8383547969615
 30
0.0
 10
77.79577708256029
 20
128.835007647638
 30
0.0
 10
78.22472325110772
 20
128.8204568003933
 30
0.0
 10
78.43670950242664
 20
128.8090943462792
 30
0.0
 10
78.8380393183562
 20
128.7806117539238
 30
0.0
 10
79.02677553529064
 20
128.7636561587838
 30
0.0
 10
79.38171140528385
 20
128.7264918819809
 30
0.0
 10
79.54594033232019
 20
128.7064509073493
 30
0.0
 10
79.84024176298415
 20
128.6669901697479
 30
0.0
 10
79.97288256659253
 20
128.6472376449518
 30
0.0
 10
80.20270399010592
 20
128.6109145997806
 30
0.0
 10
80.2991868228051
 20
128.5944907716412
 30
0.0
 10
80.45713111991773
 20
128.5667164296754
 30
0.0
 10
80.51870378899218
 20
128.555334324961
 30
0.0
 10
80.60255864909912
 20
128.5396436208799
 30
0.0
 10
80.625628801959
 20
128.5351964290313
 30
0.0
 10
80.63419347078668
 20
128.5335570346915
 30
0.0
 10
80.61916907653895
 20
128.5364643355874
 30
0.0
 10
80.55196695567304
 20
128.5491428649294
 30
0.0
 10
80.50000004303078
 20
128.5588754962591
 30
0.0
 10
80.35819066958061
 20
128.5842576454118
 30
0.0
 10
80.26800212865015
 20
128.5999486044697
 30
0.0
 10
80.05502604981461
 20
128.6345686632858
 30
0.0
 10
79.93151369442766
 20
128.6536393561985
 30
0.0
 10
79.64837148375652
 20
128.6932625796229
 30
0.0
  0
LINE
  5
21D
330
1F
100
AcDbEntity
  8
0
  6
HIDDEN
 62
     7
370
     0
100
AcDbLine
 10
79.9339022613
 20
95.8375041802
 30
0.0
 11
74.9339023731
 21
95.8375041802
 31
0.0
  0
SPLINE
  5
21E
330
1F
100
AcDbEntity
  8
0
  6
HIDDEN
 62
     7
370
     0
100
AcDbSpline
210
0.0
220
0.0
230
1.0
 70
     8
 71
     3
 72
    66
 73
    62
 74
     0
 42
0.00000001
 43
0.00000001
 12
1.0
 22
0.0
 32
0.0
 13
1.0
 23
0.0
 33
0.0
 40
-0.03125
 40
-0.03125
 40
0.0
 40
0.0
 40
0.0312499999999999
 40
0.0312499999999999
 40
0.0624999999999998
 40
0.0624999999999998
 40
0.0937499999999997
 40
0.0937499999999997
 40
0.1249999999999996
 40
0.1249999999999996
 40
0.1562499999999994
 40
0.1562499999999994
 40
0.1874999999999993
 40
0.1874999999999993
 40
0.2187499999999993
 40
0.2187499999999993
 40
0.2499999999999991
 40
0.2499999999999991
 40
0.281249999999999
 40
0.281249999999999
 40
0.3124999999999988
 40
0.3124999999999988
 40
0.3437499999999987
 40
0.3437499999999987
 40
0.3749999999999986
 40
0.3749999999999986
 40
0.4374999999999994
 40
0.4374999999999994
 40
0.5000000000000001
 40
0.5000000000000001
 40
0.5312500000000001
 40
0.5312500000000001
 40
0.5625000000000001
 40
0.5625000000000001
 40
0.5937500000000001
 40
0.5937500000000001
 40
0.6250000000000002
 40
0.6250000000000002
 40
0.6562500000000002
 40
0.6562500000000002
 40
0.6875000000000002
 40
0.6875000000000002
 40
0.7187500000000002
 40
0.7187500000000002
 40
0.7500000000000001
 40
0.7500000000000001
 40
0.7812500000000001
 40
0.7812500000000001
 40
0.8125000000000001
 40
0.8125000000000001
 40
0.8437500000000001
 40
0.8437500000000001
 40
0.8750000000000001
 40
0.8750000000000001
 40
0.9062500000000001
 40
0.9062500000000001
 40
0.9375
 40
0.9375
 40
0.96875
 40
0.96875
 40
1.0
 40
1.0
 40
1.03125
 40
1.03125
 10
74.9362909399377
 20
95.02137052417267
 30
0.0
 10
75.21943315060886
 20
94.98174730074821
 30
0.0
 10
75.37516250721598
 20
94.96175419406552
 30
0.0
 10
75.71581132526147
 20
94.92367816462138
 30
0.0
 10
75.90275436953266
 20
94.90547370381017
 30
0.0
 10
76.29190905402545
 20
94.87478265824956
 30
0.0
 10
76.49540511405273
 20
94.86209024758782
 30
0.0
 10
76.92154203362385
 20
94.84388943536207
 30
0.0
 10
77.14171009697134
 20
94.8386140201341
 30
0.0
 10
77.57836971490272
 20
94.83671678268075
 30
0.0
 10
77.8001062327085
 20
94.8400800560006
 30
0.0
 10
78.2313994542043
 20
94.85485036801403
 30
0.0
 10
78.43935780985986
 20
94.86607296655657
 30
0.0
 10
78.84055812916532
 20
94.89460780274516
 30
0.0
 10
79.03178780323051
 20
94.91184102356719
 30
0.0
 10
79.38390040651103
 20
94.94878549505133
 30
0.0
 10
79.54829347347595
 20
94.96884967548561
 30
0.0
 10
79.84350665498168
 20
95.00848276608522
 30
0.0
 10
79.97404843144669
 20
95.0279518889767
 30
0.0
 10
80.20286225081426
 20
95.06412493050479
 30
0.0
 10
80.30092138899903
 20
95.08081753785092
 30
0.0
 10
80.4581445095391
 20
95.10847836301467
 30
0.0
 10
80.518537111647
 20
95.11964426608121
 30
0.0
 10
80.60280283920547
 20
95.13541205290021
 30
0.0
 10
80.62586085529192
 20
95.139857856259
 30
0.0
 10
80.63816877408992
 20
95.14221379966872
 30
0.0
 10
80.56951296815639
 20
95.12857216257554
 30
0.0
 10
80.28771224254614
 20
95.0781416577966
 30
0.0
 10
80.07047819525769
 20
95.0408536204529
 30
0.0
 10
79.6528763397609
 20
94.9823599907494
 30
0.0
 10
79.49637930322788
 20
94.96220202872983
 30
0.0
 10
79.15407793334333
 20
94.92388156963251
 30
0.0
 10
78.97168210788126
 20
94.90608155396448
 30
0.0
 10
78.58372348328605
 20
94.87531829299483
 30
0.0
 10
78.37504196607048
 20
94.8622457737501
 30
0.0
 10
77.9503793164632
 20
94.84402327468881
 30
0.0
 10
77.73425609058516
 20
94.8387342754378
 30
0.0
 10
77.29418600013801
 20
94.83665508340965
 30
0.0
 10
77.07202755180509
 20
94.84000223273324
 30
0.0
 10
76.64308138325767
 20
94.85455307997786
 30
0.0
 10
76.43109513193876
 20
94.86591553409198
 30
0.0
 10
76.02976531600919
 20
94.89439812644741
 30
0.0
 10
75.84102909907475
 20
94.91135372158732
 30
0.0
 10
75.48609322908152
 20
94.94851799839032
 30
0.0
 10
75.32186430204519
 20
94.96855897302184
 30
0.0
 10
75.0275628713812
 20
95.00801971062329
 30
0.0
 10
74.89492206777282
 20
95.02777223541939
 30
0.0
 10
74.66510064425945
 20
95.06409528059052
 30
0.0
 10
74.56861781156027
 20
95.08051910872992
 30
0.0
 10
74.41067351444764
 20
95.10829345069574
 30
0.0
 10
74.34910084537317
 20
95.11967555541013
 30
0.0
 10
74.26524598526625
 20
95.13536625949126
 30
0.0
 10
74.24217583240639
 20
95.13981345133992
 30
0.0
 10
74.23361116357869
 20
95.14145284567965
 30
0.0
 10
74.24863555782642
 20
95.13854554478375
 30
0.0
 10
74.31583767869233
 20
95.12586701544178
 30
0.0
 10
74.3678045913346
 20
95.11613438411204
 30
0.0
 10
74.50961396478475
 20
95.09075223495931
 30
0.0
 10
74.59980250571522
 20
95.07506127590152
 30
0.0
 10
74.81277858455076
 20
95.04044121708533
 30
0.0
 10
74.9362909399377
 20
95.02137052417267
 30
0.0
 10
75.21943315060886
 20
94.98174730074821
 30
0.0
  0
LINE
  5
21F
330
1F
100
AcDbEntity
  8
0
  6
HIDDEN
 62
     7
370
     0
100
AcDbLine
 10
79.5552225443
 20
109.716184713
 30
0.0
 11
79.9339022613
 21
109.3375049961
 31
0.0
  0
LINE
  5
220
330
1F
100
AcDbEntity
  8
0
  6
HIDDEN
 62
     7
370
     0
100
AcDbLine
 10
79.5552225443
 20
113.9588251673
 30
0.0
 11
79.9339022613
 21
114.3375048843
 31
0.0
  0
SPLINE
  5
221
330
1F
100
AcDbEntity
  8
0
  6
HIDDEN
 62
     7
370
     0
100
AcDbSpline
210
0.0
220
0.0
230
1.0
 70
    11
 71
     3
 72
    58
 73
    54
 74
     0
 42
0.00000001
 43
0.00000001
 12
1.0
 22
0.0
 32
0.0
 13
1.0
 23
0.0
 33
0.0
 40
0.0
 40
0.0
 40
0.0
 40
0.0
 40
0.0312499999999992
 40
0.0312499999999992
 40
0.0624999999999985
 40
0.0624999999999985
 40
0.0937499999999978
 40
0.0937499999999978
 40
0.1249999999999971
 40
0.1249999999999971
 40
0.1562499999999963
 40
0.1562499999999963
 40
0.1874999999999956
 40
0.1874999999999956
 40
0.249999999999994
 40
0.249999999999994
 40
0.2812499999999932
 40
0.2812499999999932
 40
0.3124999999999924
 40
0.3124999999999924
 40
0.3749999999999916
 40
0.3749999999999916
 40
0.4062499999999917
 40
0.4062499999999917
 40
0.4374999999999918
 40
0.4374999999999918
 40
0.468749999999992
 40
0.468749999999992
 40
0.4999999999999921
 40
0.4999999999999921
 40
0.5312499999999922
 40
0.5312499999999922
 40
0.5624999999999923
 40
0.5624999999999923
 40
0.6249999999999927
 40
0.6249999999999927
 40
0.6562499999999933
 40
0.6562499999999933
 40
0.687499999999994
 40
0.687499999999994
 40
0.7187499999999947
 40
0.7187499999999947
 40
0.7499999999999953
 40
0.7499999999999953
 40
0.8124999999999968
 40
0.8124999999999968
 40
0.8437499999999974
 40
0.8437499999999974
 40
0.8749999999999981
 40
0.8749999999999981
 40
0.9374999999999991
 40
0.9374999999999991
 40
1.0
 40
1.0
 40
1.0
 40
1.0
 10
79.55522266074227
 20
113.9588252837452
 30
0.0
 10
79.48835970534537
 20
114.0256882391421
 30
0.0
 10
79.41392826566535
 20
114.0938059987169
 30
0.0
 10
79.24853773866172
 20
114.2288425387918
 30
0.0
 10
79.15727143479384
 20
114.295851474313
 30
0.0
 10
78.96220268994794
 20
114.421642469033
 30
0.0
 10
78.85779905884222
 20
114.4810024476633
 30
0.0
 10
78.63342330876998
 20
114.5900874355326
 30
0.0
 10
78.51222898825783
 20
114.6402465464557
 30
0.0
 10
78.25667563003341
 20
114.7256172989296
 30
0.0
 10
78.12398643841478
 20
114.7604349990959
 30
0.0
 10
77.84781228155428
 20
114.8121334489329
 30
0.0
 10
77.70328815449791
 20
114.8288158866221
 30
0.0
 10
77.27403065504095
 20
114.8469036645341
 30
0.0
 10
76.98162992898179
 20
114.8160479871915
 30
0.0
 10
76.57949703412565
 20
114.7165775098308
 30
0.0
 10
76.4492151885845
 20
114.6743279978195
 30
0.0
 10
76.20559641934064
 20
114.5776579327896
 30
0.0
 10
76.09137479984064
 20
114.5231532010615
 30
0.0
 10
75.76879419914778
 20
114.3450459307021
 30
0.0
 10
75.58715590553818
 20
114.2104978919228
 30
0.0
 10
75.35909820031434
 20
114.0067397917186
 30
0.0
 10
75.28994215563955
 20
113.9378362960652
 30
0.0
 10
75.16893776100345
 20
113.806741477026
 30
0.0
 10
75.1167108118946
 20
113.7442391876415
 30
0.0
 10
75.02934850458168
 20
113.6328135278402
 30
0.0
 10
74.99415390831474
 20
113.5837479916198
 30
0.0
 10
74.9465844131711
 20
113.5152971614214
 30
0.0
 10
74.93373460562836
 20
113.4955645012432
 30
0.0
 10
74.93407340219703
 20
113.4960752551602
 30
0.0
 10
74.94685866736329
 20
113.515713224384
 30
0.0
 10
74.99488552531389
 20
113.5847788884379
 30
0.0
 10
75.03005261825702
 20
113.6337479469017
 30
0.0
 10
75.16076123249218
 20
113.8003495254487
 30
0.0
 10
75.28390884110446
 20
113.9395582284929
 30
0.0
 10
75.51067669707938
 20
114.1421693859768
 30
0.0
 10
75.59370132034229
 20
114.2094877176843
 30
0.0
 10
75.77641298006742
 20
114.3405772729143
 30
0.0
 10
75.87666204538748
 20
114.4045699980746
 30
0.0
 10
76.08978023637175
 20
114.5223058839078
 30
0.0
 10
76.20324687707331
 20
114.576587216224
 30
0.0
 10
76.44613766096406
 20
114.6732421478802
 30
0.0
 10
76.57613329618341
 20
114.7155550561692
 30
0.0
 10
76.97679221126592
 20
114.8152240345705
 30
0.0
 10
77.2689389621096
 20
114.8466000157968
 30
0.0
 10
77.69777389412948
 20
114.8293001055546
 30
0.0
 10
77.84210053904505
 20
114.8129287170974
 30
0.0
 10
78.11862463236977
 20
114.7617018883457
 30
0.0
 10
78.25159728533805
 20
114.7270736152834
 30
0.0
 10
78.63601777193246
 20
114.5993606912459
 30
0.0
 10
78.86383461344263
 20
114.4851600843559
 30
0.0
 10
79.25717226139335
 20
114.2313451280171
 30
0.0
 10
79.42017304843702
 20
114.0938748960505
 30
0.0
 10
79.55522266074227
 20
113.9588252837452
 30
0.0
  0
SPLINE
  5
222
330
1F
100
AcDbEntity
  8
0
  6
HIDDEN
 62
     7
370
     0
100
AcDbSpline
210
0.0
220
0.0
230
1.0
 70
    11
 71
     3
 72
    60
 73
    56
 74
     0
 42
0.00000001
 43
0.00000001
 12
1.0
 22
0.0
 32
0.0
 13
1.0
 23
0.0
 33
0.0
 40
0.0
 40
0.0
 40
0.0
 40
0.0
 40
0.0625000000000001
 40
0.0625000000000001
 40
0.1250000000000002
 40
0.1250000000000002
 40
0.1562499999999999
 40
0.1562499999999999
 40
0.1874999999999997
 40
0.1874999999999997
 40
0.2187499999999994
 40
0.2187499999999994
 40
0.2499999999999992
 40
0.2499999999999992
 40
0.2812499999999991
 40
0.2812499999999991
 40
0.3124999999999988
 40
0.3124999999999988
 40
0.3437499999999987
 40
0.3437499999999987
 40
0.3749999999999985
 40
0.3749999999999985
 40
0.4374999999999981
 40
0.4374999999999981
 40
0.4687499999999985
 40
0.4687499999999985
 40
0.499999999999999
 40
0.499999999999999
 40
0.5312499999999994
 40
0.5312499999999994
 40
0.5625
 40
0.5625
 40
0.5937500000000004
 40
0.5937500000000004
 40
0.625000000000001
 40
0.625000000000001
 40
0.6875000000000008
 40
0.6875000000000008
 40
0.7187500000000008
 40
0.7187500000000008
 40
0.7500000000000007
 40
0.7500000000000007
 40
0.7812500000000006
 40
0.7812500000000006
 40
0.8125000000000006
 40
0.8125000000000006
 40
0.8437500000000004
 40
0.8437500000000004
 40
0.8750000000000003
 40
0.8750000000000003
 40
0.9062500000000003
 40
0.9062500000000003
 40
0.9375000000000002
 40
0.9375000000000002
 40
1.0
 40
1.0
 40
1.0
 40
1.0
 10
79.55522266074227
 20
109.716184596626
 30
0.0
 10
79.42095313986886
 20
109.5819150757525
 30
0.0
 10
79.25832008539682
 20
109.4444279990893
 30
0.0
 10
78.86309312943207
 20
109.1893487776521
 30
0.0
 10
78.63891642367614
 20
109.0768880120651
 30
0.0
 10
78.25426080530231
 20
108.9486854310888
 30
0.0
 10
78.12145179730132
 20
108.9139941324152
 30
0.0
 10
77.84591491717099
 20
108.8626292540077
 30
0.0
 10
77.70141261337535
 20
108.846016562239
 30
0.0
 10
77.4148522519993
 20
108.8341398992731
 30
0.0
 10
77.27183744811828
 20
108.8384510003299
 30
0.0
 10
76.98634138139899
 20
108.8676095270929
 30
0.0
 10
76.84607287504643
 20
108.8924298146063
 30
0.0
 10
76.57840995387751
 20
108.9587649789049
 30
0.0
 10
76.44853627507688
 20
109.0009134879952
 30
0.0
 10
76.20477687092983
 20
109.0977151780052
 30
0.0
 10
76.09074010692126
 20
109.152191089306
 30
0.0
 10
75.876353198973
 20
109.2705931876775
 30
0.0
 10
75.77628959847182
 20
109.3345258900976
 30
0.0
 10
75.59399271762024
 20
109.4653083387528
 30
0.0
 10
75.51088440921622
 20
109.5326531829125
 30
0.0
 10
75.28340844415303
 20
109.7359021966779
 30
0.0
 10
75.16045017011211
 20
109.8750015614692
 30
0.0
 10
75.0295364732675
 20
110.0419476638122
 30
0.0
 10
74.99432100656205
 20
110.0910269646834
 30
0.0
 10
74.94667524509683
 20
110.1595765203991
 30
0.0
 10
74.93385814804223
 20
110.1792591324821
 30
0.0
 10
74.93394672273226
 20
110.1791256011334
 30
0.0
 10
74.94652149438654
 20
110.1597949828443
 30
0.0
 10
74.99460224995082
 20
110.0906250815294
 30
0.0
 10
75.02911780984805
 20
110.0425095759704
 30
0.0
 10
75.11633023095223
 20
109.9312372492785
 30
0.0
 10
75.16940217292023
 20
109.8677510044389
 30
0.0
 10
75.28992167718994
 20
109.7372100832452
 30
0.0
 10
75.35771537834555
 20
109.6696131787809
 30
0.0
 10
75.58467907463724
 20
109.466513380545
 30
0.0
 10
75.76914018066772
 20
109.3301402991113
 30
0.0
 10
76.0859996555096
 20
109.1546452684406
 30
0.0
 10
76.19890631767524
 20
109.1003666328914
 30
0.0
 10
76.44205321943463
 20
109.0031837517256
 30
0.0
 10
76.57168866904593
 20
108.9607822039376
 30
0.0
 10
76.83873381422715
 20
108.8939152049526
 30
0.0
 10
76.97864763069019
 20
108.8687676925605
 30
0.0
 10
77.2645413205042
 20
108.8388428172024
 30
0.0
 10
77.40768554574663
 20
108.8341917155176
 30
0.0
 10
77.69436501937129
 20
108.8453925049087
 30
0.0
 10
77.83910964131573
 20
108.8616732722472
 30
0.0
 10
78.11564799088035
 20
108.9126135015455
 30
0.0
 10
78.24906055795668
 20
108.9471921383818
 30
0.0
 10
78.50651348739214
 20
109.032527876587
 30
0.0
 10
78.62701871699981
 20
109.0820782726144
 30
0.0
 10
78.85405269534735
 20
109.1919282984544
 30
0.0
 10
78.96124498581686
 20
109.2527624453196
 30
0.0
 10
79.25603617696923
 20
109.4428221290795
 30
0.0
 10
79.4195500872006
 20
109.5805120230843
 30
0.0
 10
79.55522266074227
 20
109.716184596626
 30
0.0
  0
LINE
  5
223
330
1F
100
AcDbEntity
  8
0
  6
HIDDEN
 62
     7
370
     0
100
AcDbLine
 10
80.4339023433
 20
103.8375045602
 30
0.0
 11
79.4339024122
 21
104.8375047241
 31
0.0
  0
LINE
  5
224
330
1F
100
AcDbEntity
  8
0
  6
HIDDEN
 62
     7
370
     0
100
AcDbLine
 10
75.4339022222
 20
104.8375047241
 30
0.0
 11
74.4339022911
 21
103.8375045602
 31
0.0
  0
LINE
  5
225
330
1F
100
AcDbEntity
  8
0
  6
HIDDEN
 62
     7
370
     0
100
AcDbLine
 10
74.4339022911
 20
95.1576461513
 30
0.0
 11
74.5665421835
 21
95.0810653587
 31
0.0
  0
LINE
  5
226
330
1F
100
AcDbEntity
  8
0
  6
HIDDEN
 62
     7
370
     0
100
AcDbLine
 10
80.3012624509
 20
95.0810653587
 30
0.0
 11
80.4339023433
 21
95.1576461513
 31
0.0
  0
LINE
  5
227
330
1F
100
AcDbEntity
  8
0
  6
HIDDEN
 62
     7
370
     0
100
AcDbLine
 10
80.4339023433
 20
95.1576461513
 30
0.0
 11
80.4339023433
 21
103.8375045602
 31
0.0
  0
LINE
  5
228
330
1F
100
AcDbEntity
  8
0
  6
HIDDEN
 62
     7
370
     0
100
AcDbLine
 10
74.4339022911
 20
103.8375045602
 30
0.0
 11
74.4339022911
 21
95.1576461513
 31
0.0
  0
LINE
  5
229
330
1F
100
AcDbEntity
  8
0
  6
HIDDEN
 62
     7
370
     0
100
AcDbLine
 10
94.113761106
 20
108.8375049141
 30
0.0
 11
94.1903418987
 21
108.9701448065
 31
0.0
  0
LINE
  5
22A
330
1F
100
AcDbEntity
  8
0
  6
HIDDEN
 62
     7
370
     0
100
AcDbLine
 10
94.1903418987
 20
114.7048650739
 30
0.0
 11
94.113761106
 21
114.8375049663
 31
0.0
  0
LINE
  5
22B
330
1F
100
AcDbEntity
  8
0
  6
HIDDEN
 62
     7
370
     0
100
AcDbLine
 10
94.113761106
 20
114.8375049663
 30
0.0
 11
85.4339026972
 21
114.8375049663
 31
0.0
  0
LINE
  5
22C
330
1F
100
AcDbEntity
  8
0
  6
HIDDEN
 62
     7
370
     0
100
AcDbLine
 10
85.4339026972
 20
108.8375049141
 30
0.0
 11
94.113761106
 21
108.8375049141
 31
0.0
  0
LINE
  5
22D
330
1F
100
AcDbEntity
  8
0
  6
HIDDEN
 62
     7
370
     0
100
AcDbLine
 10
85.4339026972
 20
114.8375049663
 30
0.0
 11
84.4339025332
 21
113.8375050352
 31
0.0
  0
LINE
  5
22E
330
1F
100
AcDbEntity
  8
0
  6
HIDDEN
 62
     7
370
     0
100
AcDbLine
 10
84.4339025332
 20
109.8375048452
 30
0.0
 11
85.4339026972
 21
108.8375049141
 31
0.0
  0
LINE
  5
22F
330
1F
100
AcDbEntity
  8
0
  6
HIDDEN
 62
     7
370
     0
100
AcDbLine
 10
80.4339023433
 20
128.517363729
 30
0.0
 11
80.3012624509
 21
128.5939445217
 31
0.0
  0
LINE
  5
230
330
1F
100
AcDbEntity
  8
0
  6
HIDDEN
 62
     7
370
     0
100
AcDbLine
 10
74.5665421835
 20
128.5939445217
 30
0.0
 11
74.4339022911
 21
128.517363729
 31
0.0
  0
LINE
  5
231
330
1F
100
AcDbEntity
  8
0
  6
HIDDEN
 62
     7
370
     0
100
AcDbLine
 10
74.4339022911
 20
128.517363729
 30
0.0
 11
74.4339022911
 21
119.8375053202
 31
0.0
  0
LINE
  5
232
330
1F
100
AcDbEntity
  8
0
  6
HIDDEN
 62
     7
370
     0
100
AcDbLine
 10
80.4339023433
 20
119.8375053202
 30
0.0
 11
80.4339023433
 21
128.517363729
 31
0.0
  0
LINE
  5
233
330
1F
100
AcDbEntity
  8
0
  6
HIDDEN
 62
     7
370
     0
100
AcDbLine
 10
74.4339022911
 20
119.8375053202
 30
0.0
 11
75.4339022222
 21
118.8375051563
 31
0.0
  0
LINE
  5
234
330
1F
100
AcDbEntity
  8
0
  6
HIDDEN
 62
     7
370
     0
100
AcDbLine
 10
79.4339024122
 20
118.8375051563
 30
0.0
 11
80.4339023433
 21
119.8375053202
 31
0.0
  0
LINE
  5
235
330
1F
100
AcDbEntity
  8
0
  6
HIDDEN
 62
     7
370
     0
100
AcDbLine
 10
94.1101773768
 20
115.0137791839
 30
0.0
 11
93.4339030771
 21
114.3375048843
 31
0.0
  0
LINE
  5
236
330
1F
100
AcDbEntity
  8
0
  6
HIDDEN
 62
     7
370
     0
100
AcDbLine
 10
93.4339030771
 20
109.3375049961
 30
0.0
 11
94.1203418313
 21
108.6510662419
 31
0.0
  0
LINE
  5
237
330
1F
100
AcDbEntity
  8
0
  6
HIDDEN
 62
     7
370
     0
100
AcDbLine
 10
80.6101765609
 20
95.1612298806
 30
0.0
 11
79.9339022613
 21
95.8375041802
 31
0.0
  0
LINE
  5
238
330
1F
100
AcDbEntity
  8
0
  6
HIDDEN
 62
     7
370
     0
100
AcDbLine
 10
74.9339023731
 20
95.8375041802
 30
0.0
 11
74.2474636189
 21
95.151065426
 31
0.0
  0
LINE
  5
239
330
1F
100
AcDbEntity
  8
0
  6
HIDDEN
 62
     7
370
     0
100
AcDbLine
 10
74.2576280734
 20
128.5137799998
 30
0.0
 11
74.9339023731
 21
127.8375057001
 31
0.0
  0
LINE
  5
23A
330
1F
100
AcDbEntity
  8
0
  6
HIDDEN
 62
     7
370
     0
100
AcDbLine
 10
79.9339022613
 20
127.8375057001
 30
0.0
 11
80.6203410155
 21
128.5239444543
 31
0.0
  0
LINE
  5
23B
330
1F
100
AcDbEntity
  8
0
  6
HIDDEN
 62
     7
370
     0
100
AcDbLine
 10
93.4339030771
 20
114.3375048843
 30
0.0
 11
79.9339022613
 21
114.3375048843
 31
0.0
  0
LINE
  5
23C
330
1F
100
AcDbEntity
  8
0
  6
HIDDEN
 62
     7
370
     0
100
AcDbLine
 10
79.9339022613
 20
109.3375049961
 30
0.0
 11
93.4339030771
 21
109.3375049961
 31
0.0
  0
LINE
  5
23D
330
1F
100
AcDbEntity
  8
0
  6
HIDDEN
 62
     7
370
     0
100
AcDbLine
 10
79.9339022613
 20
95.8375041802
 30
0.0
 11
79.9339022613
 21
109.3375049961
 31
0.0
  0
LINE
  5
23E
330
1F
100
AcDbEntity
  8
0
  6
HIDDEN
 62
     7
370
     0
100
AcDbLine
 10
74.9339023731
 20
110.1645757873
 30
0.0
 11
74.9339023731
 21
95.8375041802
 31
0.0
  0
LINE
  5
23F
330
1F
100
AcDbEntity
  8
0
  6
HIDDEN
 62
     7
370
     0
100
AcDbLine
 10
74.9339023731
 20
127.8375057001
 30
0.0
 11
74.9339023731
 21
113.4958173345
 31
0.0
  0
LINE
  5
240
330
1F
100
AcDbEntity
  8
0
  6
HIDDEN
 62
     7
370
     0
100
AcDbLine
 10
79.9339022613
 20
114.3375048843
 30
0.0
 11
79.9339022613
 21
127.8375057001
 31
0.0
  0
LINE
  5
241
330
1F
100
AcDbEntity
  8
0
  6
HIDDEN
 62
     7
370
     0
100
AcDbLine
 10
74.2576280734
 20
128.5137799998
 30
0.0
 11
74.9339023731
 21
127.8375057001
 31
0.0
  0
LINE
  5
242
330
1F
100
AcDbEntity
  8
0
  6
HIDDEN
 62
     7
370
     0
100
AcDbLine
 10
79.9339022613
 20
127.8375057001
 30
0.0
 11
80.6203410155
 21
128.5239444543
 31
0.0
  0
LINE
  5
243
330
1F
100
AcDbEntity
  8
0
  6
HIDDEN
 62
     7
370
     0
100
AcDbLine
 10
80.6101765609
 20
95.1612298806
 30
0.0
 11
79.9339022613
 21
95.8375041802
 31
0.0
  0
LINE
  5
244
330
1F
100
AcDbEntity
  8
0
  6
HIDDEN
 62
     7
370
     0
100
AcDbLine
 10
74.9339023731
 20
95.8375041802
 30
0.0
 11
74.2474636189
 21
95.151065426
 31
0.0
  0
LINE
  5
245
330
1F
100
AcDbEntity
  8
0
  6
HIDDEN
 62
     7
370
     0
100
AcDbLine
 10
74.9339023731
 20
127.8375057001
 30
0.0
 11
74.9339023731
 21
113.4958173345
 31
0.0
  0
LINE
  5
246
330
1F
100
AcDbEntity
  8
0
  6
HIDDEN
 62
     7
370
     0
100
AcDbLine
 10
79.9339022613
 20
114.3375048843
 30
0.0
 11
79.9339022613
 21
127.8375057001
 31
0.0
  0
LINE
  5
247
330
1F
100
AcDbEntity
  8
0
  6
HIDDEN
 62
     7
370
     0
100
AcDbLine
 10
79.9339022613
 20
95.8375041802
 30
0.0
 11
79.9339022613
 21
109.3375049961
 31
0.0
  0
LINE
  5
248
330
1F
100
AcDbEntity
  8
0
  6
HIDDEN
 62
     7
370
     0
100
AcDbLine
 10
74.9339023731
 20
110.1645757873
 30
0.0
 11
74.9339023731
 21
95.8375041802
 31
0.0
  0
LINE
  5
249
330
1F
100
AcDbEntity
  8
0
  6
HIDDEN
 62
     7
370
     0
100
AcDbLine
 10
74.2576280734
 20
128.5137799998
 30
0.0
 11
74.9339023731
 21
127.8375057001
 31
0.0
  0
LINE
  5
24A
330
1F
100
AcDbEntity
  8
0
  6
HIDDEN
 62
     7
370
     0
100
AcDbLine
 10
79.9339022613
 20
127.8375057001
 30
0.0
 11
80.6203410155
 21
128.5239444543
 31
0.0
  0
LINE
  5
24B
330
1F
100
AcDbEntity
  8
0
  6
HIDDEN
 62
     7
370
     0
100
AcDbLine
 10
80.6101765609
 20
95.1612298806
 30
0.0
 11
79.9339022613
 21
95.8375041802
 31
0.0
  0
LINE
  5
24C
330
1F
100
AcDbEntity
  8
0
  6
HIDDEN
 62
     7
370
     0
100
AcDbLine
 10
74.9339023731
 20
95.8375041802
 30
0.0
 11
74.2474636189
 21
95.151065426
 31
0.0
  0
LINE
  5
24D
330
1F
100
AcDbEntity
  8
0
  6
HIDDEN
 62
     7
370
     0
100
AcDbLine
 10
74.9339023731
 20
127.8375057001
 30
0.0
 11
74.9339023731
 21
113.4958173345
 31
0.0
  0
LINE
  5
24E
330
1F
100
AcDbEntity
  8
0
  6
HIDDEN
 62
     7
370
     0
100
AcDbLine
 10
79.9339022613
 20
114.3375048843
 30
0.0
 11
79.9339022613
 21
127.8375057001
 31
0.0
  0
LINE
  5
24F
330
1F
100
AcDbEntity
  8
0
  6
HIDDEN
 62
     7
370
     0
100
AcDbLine
 10
79.9339022613
 20
95.8375041802
 30
0.0
 11
79.9339022613
 21
109.3375049961
 31
0.0
  0
LINE
  5
250
330
1F
100
AcDbEntity
  8
0
  6
HIDDEN
 62
     7
370
     0
100
AcDbLine
 10
74.9339023731
 20
110.1645757873
 30
0.0
 11
74.9339023731
 21
95.8375041802
 31
0.0
  0
INSERT
  5
25C
330
1F
100
AcDbEntity
  8
VERMASSUNG
100
AcDbBlockReference
  2
SW_CENTERMARKSYMBOL_0
 10
77.4339023172
 20
111.8375049402
 30
0.0
  0
OLE2FRAME
  5
25D
330
1F
100
AcDbEntity
  8
0
100
AcDbOle2Frame
 70
     2
  3
Paintbrush-Bild
 10
13.8511154363
 20
38.264191557
 30
0.0
 11
51.6290888628
 21
31.9806341108
 31
0.0
 71
     2
 72
     0
 73
     1
 90
    12928
310
80552BED0767C5B32B40DDAF6807D121434000000000000000006FFBDDFB85D0
310
4940DDAF6807D121434000000000000000006FFBDDFB85D04940416F4BD60AFB
310
3F4000000000000000002BED0767C5B32B40416F4BD60AFB3F40000000000000
310
0000000000000100000000010000010000000100000000000100000000320000
310
D0CF11E0A1B11AE1000000000000000000000000000000003E000300FEFF0900
310
0600000000000000000000000100000001000000000000000010000002000000
310
01000000FEFFFFFF0000000000000000FFFFFFFFFFFFFFFFFFFFFFFFFFFFFFFF
310
FFFFFFFFFFFFFFFFFFFFFFFFFFFFFFFFFFFFFFFFFFFFFFFFFFFFFFFFFFFFFFFF
310
FFFFFFFFFFFFFFFFFFFFFFFFFFFFFFFFFFFFFFFFFFFFFFFFFFFFFFFFFFFFFFFF
310
FFFFFFFFFFFFFFFFFFFFFFFFFFFFFFFFFFFFFFFFFFFFFFFFFFFFFFFFFFFFFFFF
310
FFFFFFFFFFFFFFFFFFFFFFFFFFFFFFFFFFFFFFFFFFFFFFFFFFFFFFFFFFFFFFFF
310
FFFFFFFFFFFFFFFFFFFFFFFFFFFFFFFFFFFFFFFFFFFFFFFFFFFFFFFFFFFFFFFF
310
FFFFFFFFFFFFFFFFFFFFFFFFFFFFFFFFFFFFFFFFFFFFFFFFFFFFFFFFFFFFFFFF
310
FFFFFFFFFFFFFFFFFFFFFFFFFFFFFFFFFFFFFFFFFFFFFFFFFFFFFFFFFFFFFFFF
310
FFFFFFFFFFFFFFFFFFFFFFFFFFFFFFFFFFFFFFFFFFFFFFFFFFFFFFFFFFFFFFFF
310
FFFFFFFFFFFFFFFFFFFFFFFFFFFFFFFFFFFFFFFFFFFFFFFFFFFFFFFFFFFFFFFF
310
FFFFFFFFFFFFFFFFFFFFFFFFFFFFFFFFFFFFFFFFFFFFFFFFFFFFFFFFFFFFFFFF
310
FFFFFFFFFFFFFFFFFFFFFFFFFFFFFFFFFFFFFFFFFFFFFFFFFFFFFFFFFFFFFFFF
310
FFFFFFFFFFFFFFFFFFFFFFFFFFFFFFFFFFFFFFFFFFFFFFFFFFFFFFFFFFFFFFFF
310
FFFFFFFFFFFFFFFFFFFFFFFFFFFFFFFFFFFFFFFFFFFFFFFFFFFFFFFFFFFFFFFF
310
FDFFFFFFFEFFFFFFFEFFFFFFFEFFFFFF05000000060000000700000008000000
310
090000000A0000000B0000000C0000000D0000000E0000000F00000010000000
310
11000000120000001300000014000000150000001600000017000000FEFFFFFF
310
FFFFFFFFFFFFFFFFFFFFFFFFFFFFFFFFFFFFFFFFFFFFFFFFFFFFFFFFFFFFFFFF
310
FFFFFFFFFFFFFFFFFFFFFFFFFFFFFFFFFFFFFFFFFFFFFFFFFFFFFFFFFFFFFFFF
310
FFFFFFFFFFFFFFFFFFFFFFFFFFFFFFFFFFFFFFFFFFFFFFFFFFFFFFFFFFFFFFFF
310
FFFFFFFFFFFFFFFFFFFFFFFFFFFFFFFFFFFFFFFFFFFFFFFFFFFFFFFFFFFFFFFF
310
FFFFFFFFFFFFFFFFFFFFFFFFFFFFFFFFFFFFFFFFFFFFFFFFFFFFFFFFFFFFFFFF
310
FFFFFFFFFFFFFFFFFFFFFFFFFFFFFFFFFFFFFFFFFFFFFFFFFFFFFFFFFFFFFFFF
310
FFFFFFFFFFFFFFFFFFFFFFFFFFFFFFFFFFFFFFFFFFFFFFFFFFFFFFFFFFFFFFFF
310
FFFFFFFFFFFFFFFFFFFFFFFFFFFFFFFFFFFFFFFFFFFFFFFFFFFFFFFFFFFFFFFF
310
FFFFFFFFFFFFFFFFFFFFFFFFFFFFFFFFFFFFFFFFFFFFFFFFFFFFFFFFFFFFFFFF
310
FFFFFFFFFFFFFFFFFFFFFFFFFFFFFFFFFFFFFFFFFFFFFFFFFFFFFFFFFFFFFFFF
310
FFFFFFFFFFFFFFFFFFFFFFFFFFFFFFFFFFFFFFFFFFFFFFFFFFFFFFFFFFFFFFFF
310
FFFFFFFFFFFFFFFFFFFFFFFFFFFFFFFFFFFFFFFFFFFFFFFFFFFFFFFFFFFFFFFF
310
FFFFFFFFFFFFFFFFFFFFFFFFFFFFFFFFFFFFFFFFFFFFFFFFFFFFFFFFFFFFFFFF
310
52006F006F007400200045006E00740072007900000000000000000000000000
310
0000000000000000000000000000000000000000000000000000000000000000
310
16000500FFFFFFFFFFFFFFFF020000000A00030000000000C000000000000046
310
000000000000000000000000901C78B1E94DCD0103000000C000000000000000
310
01004F006C006500000000000000000000000000000000000000000000000000
310
0000000000000000000000000000000000000000000000000000000000000000
310
0A000200FFFFFFFFFFFFFFFFFFFFFFFF00000000000000000000000000000000
310
0000000000000000000000000000000000000000000000001400000000000000
310
010043006F006D0070004F0062006A0000000000000000000000000000000000
310
0000000000000000000000000000000000000000000000000000000000000000
310
120002010100000003000000FFFFFFFF00000000000000000000000000000000
310
0000000000000000000000000000000000000000010000004D00000000000000
310
01004F006C006500310030004E00610074006900760065000000000000000000
310
0000000000000000000000000000000000000000000000000000000000000000
310
1A000200FFFFFFFFFFFFFFFFFFFFFFFF00000000000000000000000000000000
310
0000000000000000000000000000000000000000040000002426000000000000
310
FEFFFFFF02000000FEFFFFFFFFFFFFFFFFFFFFFFFFFFFFFFFFFFFFFFFFFFFFFF
310
FFFFFFFFFFFFFFFFFFFFFFFFFFFFFFFFFFFFFFFFFFFFFFFFFFFFFFFFFFFFFFFF
310
FFFFFFFFFFFFFFFFFFFFFFFFFFFFFFFFFFFFFFFFFFFFFFFFFFFFFFFFFFFFFFFF
310
FFFFFFFFFFFFFFFFFFFFFFFFFFFFFFFFFFFFFFFFFFFFFFFFFFFFFFFFFFFFFFFF
310
FFFFFFFFFFFFFFFFFFFFFFFFFFFFFFFFFFFFFFFFFFFFFFFFFFFFFFFFFFFFFFFF
310
FFFFFFFFFFFFFFFFFFFFFFFFFFFFFFFFFFFFFFFFFFFFFFFFFFFFFFFFFFFFFFFF
310
FFFFFFFFFFFFFFFFFFFFFFFFFFFFFFFFFFFFFFFFFFFFFFFFFFFFFFFFFFFFFFFF
310
FFFFFFFFFFFFFFFFFFFFFFFFFFFFFFFFFFFFFFFFFFFFFFFFFFFFFFFFFFFFFFFF
310
FFFFFFFFFFFFFFFFFFFFFFFFFFFFFFFFFFFFFFFFFFFFFFFFFFFFFFFFFFFFFFFF
310
FFFFFFFFFFFFFFFFFFFFFFFFFFFFFFFFFFFFFFFFFFFFFFFFFFFFFFFFFFFFFFFF
310
FFFFFFFFFFFFFFFFFFFFFFFFFFFFFFFFFFFFFFFFFFFFFFFFFFFFFFFFFFFFFFFF
310
FFFFFFFFFFFFFFFFFFFFFFFFFFFFFFFFFFFFFFFFFFFFFFFFFFFFFFFFFFFFFFFF
310
FFFFFFFFFFFFFFFFFFFFFFFFFFFFFFFFFFFFFFFFFFFFFFFFFFFFFFFFFFFFFFFF
310
FFFFFFFFFFFFFFFFFFFFFFFFFFFFFFFFFFFFFFFFFFFFFFFFFFFFFFFFFFFFFFFF
310
FFFFFFFFFFFFFFFFFFFFFFFFFFFFFFFFFFFFFFFFFFFFFFFFFFFFFFFFFFFFFFFF
310
FFFFFFFFFFFFFFFFFFFFFFFFFFFFFFFFFFFFFFFFFFFFFFFFFFFFFFFFFFFFFFFF
310
0100000200000000000000000000000000000000000000000000000000000000
310
0000000000000000000000000000000000000000000000000000000000000000
310
0100FEFF030A0000FFFFFFFF0A00030000000000C00000000000004607000000
310
5042727573680007000000504272757368000700000050427275736800F439B2
310
7100000000000000000000000000000000000000000000000000000000000000
310
0000000000000000000000000000000000000000000000000000000000000000
310
0000000000000000000000000000000000000000000000000000000000000000
310
0000000000000000000000000000000000000000000000000000000000000000
310
0000000000000000000000000000000000000000000000000000000000000000
310
0000000000000000000000000000000000000000000000000000000000000000
310
0000000000000000000000000000000000000000000000000000000000000000
310
0000000000000000000000000000000000000000000000000000000000000000
310
0000000000000000000000000000000000000000000000000000000000000000
310
0000000000000000000000000000000000000000000000000000000000000000
310
0000000000000000000000000000000000000000000000000000000000000000
310
0000000000000000000000000000000000000000000000000000000000000000
310
20260000424D0E260000000000003E00000028000000B40200006E0000000100
310
01000000000000000000130B0000130B00000200000002000000000000FFFFFF
310
FFFFFFFFFFFFFFFFFFFFFFFFFFFFFFFFFFFFFFFFFFFFFFFFFFFFFFFFFFFFFFFF
310
FFFFFFFFFFFFFFFFFFFFFFFFFFFFFFFFFFFFFFFFFFFFFFFFFFFFFFFFFFFFFFFF
310
FFFFFFFFFFFFFFFFFFFFFFFFFFFFFFFFFFFFFFFFFFFFFFFFF000FFFFFFFFFFFF
310
FFFFFFFFFFFFFFFFFFFFFFFFFFFFFFFFFFFFFFFFFFFFFFFFFFFFFFFFFFFFFFFF
310
FFFFFFFFFFFFFFFFFFFFFFFFFFFFFFFFFFFFFFFFFFFFFFFFFFFFFFFFFFFFFFFF
310
FFFFFFFFFFFFFFFFFFFFFFFFFFFFFFFFF000FFFFFFFFFFFFFFFFFFFFFFFFFFFF
310
FFFFFFFFFFFFFFFFFFFFFFFFFFFFFFFFFFFFFFFFFFFFFFFFFFFFFFFFFFFFFFFF
310
FFFFFFFFFFFFFFFFFFFFFFFFFFFFFFFFFFFFFFFFFFFFFFFFFFFFFFFFFFFFFFFF
310
FFFFFFFFFFFFFFFFF000FFFFFFFFFFFFFFFFFFFFFFFFFFFFFFFFFFFFFFFFFFFF
310
FFFFFFFFFFFFFFFFFFFFFFFFFFFFFFFFFFFFFFFFFFFFFFFFFFFFFFFFFFFFFFFF
310
FFFFFFFFFFFFFFFFFFFFFFFFFFFFFFFFFFFFFFFFFFFFFFFFFFFFFFFFFFFFFFFF
310
F000FFFFFFFFFFFFFFFFFFFFFFFFFFFFFFFFFFFFFFFFFFFFFFFFFFFFFFFFFFFF
310
FFFFFFFFFFFFFFFFFFFFFFFFFFFFFFFFFFFFFFFFFFFFFFFFFFFFFFFFFFFFFFFF
310
FFFFFFFFFFFFFFFFFFFFFFFFFFFFFFFFFFFFFFFFFFFFFFFFF000FFFFFFFFFFFF
310
FFFFFFFFFFFFFFFFFFFFFFFFFFFFFFFFFFFFFFFFFFFFFFFFFFFFFFFFFFFFFFFF
310
FFFFFFFFFFFFFFFFFFFFFFFFFFFFFFFFFFFFFFFFFFFFFFFFFFFFFFFFFFFFFFFF
310
FFFFFFFFFFFFFFFFFFFFFFFFFFFFFFFFF000FFFFFFFFFFFFFFFFFFFFFFFFFFFF
310
FFFFFFFFFFFFFFFFFFFFFFFFFFFFFFFFFFFFFFFFFFFFFFFFFFFFFFFFFFFFFFFF
310
FFFFFFFFFFFFFFFFFFFFFFFFFFFFFFFFFFFFFFFFFFFFFFFFFFFFFFFFFFFFFFFF
310
FFFFFFFFFFFFFFFFF000FFFFFFFFFFFFFFFFFFFFFFFFFFFFFFFFFFFFFFFFFFFF
310
FFFFFFFFFFFFFFFFFFFFFFFFFFFFFFFFFFFFFFFFFFFFFFFFFFFFFFFFFFFFFFFF
310
FFFFFFFFFFFFFFFFFFFFFFFFFFFFFFFFFFFFFFFFFFFFFFFFFFFFFFFFFFFFFFFF
310
F000FFFFFFFFFFFFFFFFFFFFFFFFFFFFFFFFFFFFFFFFFFFFFFFFFFFFFFFFFFFF
310
FFFFFFFFFFFFFFFFFFFFFFFFFFFFFFFFFFFFFFFFFFFFFFFFFFFFFFFFFFFFFFFF
310
FFFFFFFFFFFFFFFFFFFFFFFFFFFFFFFFFFFFFFFFFFFFFFFFF000FFFFFFFFFFFF
310
FFFFFFFFFFFFFFFFFFFFFFFFFFFFFFFFFFFFFFFFFFFFFFFFFFFFFFFFFFFFFFFF
310
FFFFFFFFFFFFFFFFFFFFFFFFFFFFFFFFFFFFFFFFFFFFFFFFFFFFFFFFFFFFFFFF
310
FFFFFFFFFFFFFFFFFFFFFFFFFFFFFFFFF000FFFFFFFFFFFFFFFFFFFFFFFFFFFF
310
FFFFFFFFFFFFFFFFFFFFFFFFFFFFFFFFFFFFFFFFFFFFFFFFFFFFFFFFFFFFFFFF
310
FFFFFFFFFFFFFFFFFFFFFFFFFFFFFFFFFFFFFFFFFFFFFFFFFFFFFFFFFFFFFFFF
310
FFFFFFFFFFFFFFFFF000FFFFFFFFFFFFFFFFFFFFFFFFFFFFFFFFFFFFFFFFFFFF
310
FFFFFFFFFFFFFFFFFFFFFFFFFFFFFFFFFFFFFFFFFFFFFFFFFFFFFFFFFFFFFFFF
310
FFFFFFFFFFFFFFFFFFFFFFFFFFFFFFFFFFFFFFFFFFFFFFFFFFFFFFFFFFFFFFFF
310
F000FFFFFFFFFFFFFFFFFFFFFFFFFFFFFFFFFFFFFFFFFFFFFFFFFFFFFFFFFFFF
310
FFFFFFFFFFFFFFFFFFFFFFFFFFFFFFFFFFFFFFFFFFFFFFFFFFFFFFFFFFFFFFFF
310
FFFFFFFFFFFFFFFFFFFFFFFFFFFFFFFFFFFFFFFFFFFFFFFFF000FFFFFFFFFFFF
310
FFFFFFFFFFFFFFFFFFFFFFFFFFFFFFFFFFFFFFFFFFFFFFFFFFFFFFFFFFFFFFFF
310
FFFFFFFFFFFFFFFFFFFFFFFFFFFFFFFFFFFFFFFFFFFFFFFFFFFFFFFFFFFFFFFF
310
FFFFFFFFFFFFFFFFFFFFFFFFFFFFFFFFF000FFFFFFFFFFFFFFFFFFFFFFFFFFFF
310
FFFFFFFFFFFFFFFFFFFFFFFFFFFFFFFFFFFFFFFFFFFFFFFFFFFFFFFFFFFFFFFF
310
FFFFFFFFFFFFFFFFFFFFFFFFFFFFFFFFFFFFFFFFFFFFFFFFFFFFFFFFFFFFFFFF
310
FFFFFFFFFFFFFFFFF000FFFFFFFFFFFFFFFFFFFFFFFFFFFFFFFFFFFFFFFFFFFF
310
FFFFFFFFFFFFFFFFFFFFFFFFFFFFFFFFFFFFFFFFFFFFFFFFFFFFFFFFFFFFFFFF
310
FFFFFFFFFFFFFFFFFFFFFFFFFFFFFFFFFFFFFFFFFFFFFFFFFFFFFFFFFFFFFFFF
310
F000FFFFFFFFFFFFFFFFFFFFFFFFFFFFFFFFFFFFFFFFFFFFFFFFFFFFFFFFFFFF
310
FFFFFFFFFFFFFFFFFFFFFFFFFFFFFFFFFFFFFFFFFFFFFFFFFFFFFFFFFFFFFFFF
310
FFFFFFFFFFFFFFFFFFFFFFFFFFFFFFFFFFFFFFFFFFFFFFFFF000FFFFFFFFFFFF
310
FFFFFFFFFFFFFFFFFFFFFFFFFFFFFFFFFFFFFFFFFFFFFFFFFFFFFFFFFFFFFFFF
310
FFFFFFFFFFFFFFFFFFFFFFFFFFFFFFFFFFFFFFFFFFFFFFFFFFFFFFFFFFFFFFFF
310
FFFFFFFFFFFFFFFFFFFFFFFFFFFFFFFFF000FFFFFFFFFFFFFFFFFFFFFFFFFFFF
310
FFFFFFFFFFFFFFFFFFFFFFFFFFFFFFFFFFFFFFFFFFFFFFFFFFFFFFFFFFFFFFFF
310
FFFFFFFFFFFFFFFFFFFFFFFFFFFFFFFFFFFFFFFFFFFFFFFFFFFFFFFFFFFFFFFF
310
FFFFFFFFFFFFFFFFF000FFFFF80003FFFFFFFFFFFFFFFFFFFFFFFFFFFFFFFFFF
310
FFFFF00007FFFFFFFFFF00007FFFFFF800000000000000007FFFFFFFFFFFFFFF
310
FFFFFFFC001FFFFFFFFFFFFFFC001FFFFFFFFFFFFFFFFFFFFFFFFFFE0007FFFF
310
F000FFFF8000007FFFFFFFF8000FFFFFC0007FFFFF80007FFFFF0000007FFFFF
310
FFF8000007FFFFF800000000000000007FFFFFF0001FFFFFFFFFFFC00001FFFF
310
FFFFFFFFC00001FFFFFFFF000000000003FFFFE000007FFFF000FFFE0000000F
310
FFFFFFF0000FFFFF80007FFFFF80007FFFFC0000001FFFFFFFC0000001FFFFF8
310
00000000000000007FFFFFF0001FFFFFFFFFFE0000003FFFFFFFFFFE0000003F
310
FFFFFF000000000003FFFF0000000FFFF000FFF800000003FFFFFFF00007FFFF
310
80007FFFFF80007FFFF000000007FFFFFF000000003FFFF80000000000000000
310
7FFFFFF0001FFFFFFFFFF80000000FFFFFFFFFF80000000FFFFFFF0000000000
310
03FFFC00000003FFF000FFE000000000FFFFFFF00007FFFF80003FFFFF80007F
310
FFC000000001FFFFFC000000001FFFF800000000000000007FFFFFF0001FFFFF
310
FFFFE000000003FFFFFFFFE000000003FFFFFF000000000003FFF000000000FF
310
F000FF80000000007FFFFFF00007FFFF80003FFFFF80007FFF8000000000FFFF
310
F80000000007FFF800000000000000007FFFFFF0001FFFFFFFFFC000000001FF
310
FFFFFFC000000001FFFFFF000000000003FFC0000000007FF000FF0000000000
310
3FFFFFE00007FFFF00003FFFFF80007FFE00000000003FFFF00000000003FFF8
310
00000000000000007FFFFFF0001FFFFFFFFF8000000000FFFFFFFF8000000000
310
FFFFFF000000000003FF80000000003FF000FE00000000001FFFFFE00003FFFF
310
00003FFFFF80007FFC00000000001FFFE00000000001FFF8000001FFFE000000
310
7FFFFFF0001FFFFFFFFE00000000003FFFFFFE00000000003FFFFF0000000000
310
03FF00000000001FF000FC00000000000FFFFFE00003FFFF00001FFFFF80007F
310
F800000000001FFFC00000000000FFF8000001FFFE0000007FFFFFF0001FFFFF
310
FFFC00000000001FFFFFFC00000000001FFFFF000000000003FE00000000000F
310
F000F8000000000007FFFFE00003FFFF00001FFFFF80007FF800000000000FFF
310
800000000000FFF8000001FFFE0000007FFFFFF0001FFFFFFFF800000000000F
310
FFFFF800000000000FFFFF000000000003FC000000000007F000F80000000000
310
03FFFFC00003FFFE00001FFFFF80007FF0000000000007FF0000000000007FF8
310
000001FFFE0000007FFFFFF0001FFFFFFFF0000000000007FFFFF00000000000
310
07FFFF000000000003F8000000000003F000F0000000000003FFFFC00001FFFE
310
00001FFFFF80007FE0000000000007FE0000000000003FF8000001FFFE000000
310
7FFFFFF0001FFFFFFFF0000000000007FFFFF0000000000007FFFF0000000000
310
03F800001F800003F000E00001FFF00001FFFFC00001FFFE00000FFFFF80007F
310
E00001FFE00003FE00001FFF00003FF8000001FFFE0000007FFFFFF0001FFFFF
310
FFE000003E000003FFFFE000003E000003FFFF000000000003F00001FFF80001
310
F000E00007FFFC0001FFFFC00001FFFE00000FFFFF80007FC0000FFFFC0003FC
310
0000FFFFC0001FF8000001FFFE0000007FFFFFF0001FFFFFFFC00003FFE00001
310
FFFFC00003FFE00001FFFF0001FFFFFFFFF00007FFFE0001F000E0000FFFFF00
310
00FFFF800001FFFC00000FFFFF80007FC0001FFFFE0001FC0001FFFFE0001FF8
310
000001FFFE0000007FFFFFF0001FFFFFFF80000FFFF80000FFFF80000FFFF800
310
00FFFF0003FFFFFFFFE0000FFFFF8000F000C0003FFFFF8000FFFF800000FFFC
310
000007FFFF80007F80003FFFFF0001FC0003FFFFF0001FF8000001FFFE000000
310
7FFFFFF0001FFFFFFF80003FFFFE0000FFFF80003FFFFE0000FFFF0003FFFFFF
310
FFE0003FFFFF8000F000C0003FFFFF8000FFFF800000FFFC000007FFFF80007F
310
80007FFFFF8001F80007FFFFF8000FF8000001FFFE0000007FFFFFF0001FFFFF
310
FF00007FFFFF00007FFF00007FFFFF00007FFF0003FFFFFFFFE0003FFFFFC000
310
F000C0007FFFFFC000FFFF000000FFFC000007FFFF80007F8000FFFFFF8000F8
310
000FFFFFF8000FF8000001FFFE0000007FFFFFF0001FFFFFFF0000FFFFFF8000
310
7FFF0000FFFFFF80007FFF0003FFFFFFFFC0007FFFFFC00070008000FFFFFFC0
310
00FFFF000000FFF8000007FFFF80007F8000FFFFFF8000F8000FFFFFF8000FF8
310
000001FFFE0000007FFFFFF0001FFFFFFE0001FFFFFFC0003FFE0001FFFFFFC0
310
003FFF0003FFFFFFFFC0007FFFFFE00070008000FFFFFFC0007FFF0000007FF8
310
000003FFFF80007F0001FFFFFF8000F8000FFFFFF8000FF8000001FFFE000000
310
7FFFFFF0001FFFFFFE0001FFFFFFC0003FFE0001FFFFFFC0003FFF0003FFFFFF
310
FFC000FFFFFFE00070008000FFFFFFC0007FFF0000007FF8000003FFFF80007F
310
0001FFFFFF8000F8001FFFFFF8000FF8000001FFFE0000007FFFFFF0001FFFFF
310
FE0003FFFFFFE0003FFE0003FFFFFFE0003FFF0003FFFFFFFFC000FFFFFFE000
310
70008000FFFFFFC0007FFE0000007FF8000003FFFF80007F0001FFFFFF8000F0
310
001FFFFFF8000FF8000001FFFE0000007FFFFFF0001FFFFFFC0003FFFFFFE000
310
1FFC0003FFFFFFE0001FFF0003FFFFFFFFC000FFFFFFC00070008000FFFFFF80
310
007FFE0000007FF0000003FFFF80007F0001FFFFFF0000F0001FFFFFF8000FF8
310
000001FFFE0000007FFFFFF0001FFFFFFC0007FFFFFFF0001FFC0007FFFFFFF0
310
001FFF0003FFFFFFFFC000FFFFFFC00070008001FFFFFF0000FFFE0000003FF0
310
000001FFFF80007F0001FFFFFF0000F8001FFFFFF0000FF8000001FFFE000000
310
7FFFFFF0001FFFFFFC0007FFFFFFF0001FFC0007FFFFFFF0001FFF0003FFFFFF
310
FFC001FFFFFF80007000FFFFFFFFFE0000FFFE0008003FF0008001FFFF80007F
310
FFFFFFFFFC0000FFFFFFFFFFE0000FF8000001FFFE0000007FFFFFF0001FFFFF
310
F8000FFFFFFFF8000FF8000FFFFFFFF8000FFF0003FFFFFFFFFFFFFFFFFF0000
310
7000FFFFFFFFFC0000FFFC0008003FF0008001FFFF80007FFFFFFFFFF80001FF
310
FFFFFFFF80000FF8000001FFFE0000007FFFFFF0001FFFFFF8000FFFFFFFF800
310
0FF8000FFFFFFFF8000FFF0003FFFFFFFFFFFFFFFFFE0000F000FFFFFFFFE000
310
00FFFC000C003FE000C001FFFF80007FFFFFFFFFC00001FFFFFFFFFE00001FF8
310
000001FFFE0000007FFFFFF0001FFFFFF8000FFFFFFFF8000FF8000FFFFFFFF8
310
000FFF0003FFFFFFFFFFFFFFFFF00000F000FFFFFFFE000001FFFC000C001FE0
310
00C000FFFF80007FFFFFFFFE000001FFFFFFFFE000001FF80FFFFFFFFFFFFFC0
310
7FFFFFF0001FFFFFF8000FFFFFFFF8000FF8000FFFFFFFF8000FFF0003FFFFFF
310
FFFFFFFFFF800000F000FFFFFFC0000001FFFC001C001FE001C000FFFF80007F
310
FFFFFF80000003FFFFFFF80000001FF80FFFFFFFFFFFFFC07FFFFFF0001FFFFF
310
F8001FFFFFFFFC000FF8001FFFFFFFFC000FFF0003FFFFFFFFFFFFFFF0000001
310
F000FFFFF800000001FFF8001C001FE001C000FFFF80007FFFFFF800000003FF
310
FFFF800000003FF80FFFFFFFFFFFFFC07FFFFFF0001FFFFFF8001FFFFFFFFC00
310
0FF8001FFFFFFFFC000FFF0003FFFFFFFFFFFFFE00000001F000FFFFC0000000
310
03FFF8001E001FC001E000FFFF80007FFFFF8000000007FFFFFC000000003FF8
310
0FFFFFFFFFFFFFC07FFFFFF0001FFFFFF8001FFFFFFFFC000FF8001FFFFFFFFC
310
000FFF0003FFFFFFFFFFFFE000000003F000FFFE0000000007FFF8001E000FC0
310
01E0007FFF80007FFFFE0000000007FFFFE0000000007FF80FFFFFFFFFFFFFC0
310
7FFFFFF0001FFFFFF0001FFFFFFFFC0007F0001FFFFFFFFC0007FF0003FFFFFF
310
FFFFFF0000000003F000FFF80000000007FFF8001E000FC003E0007FFF80007F
310
FFF0000000000FFFFF8000000000FFF80FFFFFFFFFFFFFC07FFFFFF0001FFFFF
310
F0001FFFFFFFFC0007F0001FFFFFFFFC0007FF0003FFFFFFFFFFFC0000000007
310
F000FFE0000000000FFFF0003E000FC003E0007FFF80007FFFC0000000001FFF
310
FE0000000001FFF80FFFFFFFFFFFFFC07FFFFFF0001FFFFFF0001FFFFFFFFC00
310
07F0001FFFFFFFFC0007FF0003FFFFFFFFFFF0000000000FF000FFC000000000
310
1FFFF0003F000F8003F0003FFF80007FFF80000000003FFFF80000000003FFF8
310
0FFFFFFFFFFFFFC07FFFFFF0001FFFFFF0001FFFFFFFFC0007F0001FFFFFFFFC
310
0007FF0003FFFFFFFFFFE0000000001FF000FF00000000007FFFF0003F000780
310
03F0003FFF80007FFF00000000007FFFF00000000007FFF80FFFFFFFFFFFFFC0
310
7FFFFFF0001FFFFFF0001FFFFFFFFC0007F0001FFFFFFFFC0007FF0003FFFFFF
310
FFFF80000000007FF000FE0000000000FFFFE0003F00078007F0003FFF80007F
310
FE0000000001FFFFE0000000001FFFF80FFFFFFFFFFFFFC07FFFFFF0001FFFFF
310
F0001FFFFFFFFC0007F0001FFFFFFFFC0007FF0003FFFFFFFFFF0000000000FF
310
F000FC0000000003FFFFE0007F00078007F0003FFF80007FFC0000000007FFFF
310
C0000000007FFFF80FFFFFFFFFFFFFC07FFFFFF0001FFFFFF8001FFFFFFFFC00
310
0FF8001FFFFFFFFC000FFF0003FFFFFFFFFE0000000003FFF000FC000000000F
310
FFFFE0007F80070007F8001FFF80007FF8000000001FFFFF8000000001FFFFF8
310
0FFFFFFFFFFFFFC07FFFFFF0001FFFFFF8001FFFFFFFFC000FF8001FFFFFFFFC
310
000FFF0003FFFFFFFFFC000000000FFFF000F8000000007FFFFFE0007F800700
310
07F8001FFF80007FF000000000FFFFFF800000000FFFFFF80FFFFFFFFFFFFFC0
310
7FFFFFF0001FFFFFF8000FFFFFFFF8000FF8000FFFFFFFF8000FFF0003FFFFFF
310
FFFC000000007FFFF000F800000007FFFFFFC0007F8003000FF8001FFF80007F
310
F000000007FFFFFF000000007FFFFFF80FFFFFFFFFFFFFC07FFFFFF0001FFFFF
310
F8000FFFFFFFF8000FF8000FFFFFFFF8000FFF0003FFFFFFFFF80000000FFFFF
310
F000F0000000FFFFFFFFC000FF8003000FF8001FFF80007FE0000000FFFFFFFF
310
0000000FFFFFFFF8000001FFFE0000007FFFFFF0001FFFFFF8000FFFFFFFF800
310
0FF8000FFFFFFFF8000FFF0003FFFFFFFFF8000000FFFFFFF000F000000FFFFF
310
FFFFC000FFC002000FF8000FFF80007FE000001FFFFFFFFE000001FFFFFFFFF8
310
000001FFFE0000007FFFFFF0001FFFFFF8000FFFFFFFF8000FF8000FFFFFFFF8
310
000FFF0003FFFFFFFFF000001FFFFFFFF000E00000FFFFFFFFFFC000FFC00200
310
0FFC000FFF80007FE00001FFFFFFFFFE00001FFFFFFFFFF8000001FFFE000000
310
7FFFFFF0001FFFFFFC000FFFFFFFF8001FFC000FFFFFFFF8001FFF0003FFFFFF
310
FFF00001FFFFFFFFF000E00007FFFFFFFFFF8000FFC000001FFC000FFF80007F
310
C0000FFFFFFFFFFE0000FFFFFFFFFFF8000001FFFE0000007FFFFFF0001FFFFF
310
FC0007FFFFFFF0001FFC0007FFFFFFF0001FFF0003FFFFFFFFF00007FFFFFFFF
310
F000E0001FFFFFFFFFFF8000FFC000001FFC000FFF80007FC0003FFFFFFFFFFE
310
0001FFFFFFFFFFF8000001FFFE0000007FFFFFF0001FFFFFFC0007FFFFFFF000
310
1FFC0007FFFFFFF0001FFF0003FFFFFFFFF0001FFFFFFFFFF000E0003FFFFF00
310
03FF8001FFE000001FFC0007FF80007FC0007FFFFF0007FC0003FFFFF0003FF8
310
000001FFFE0000007FFFFFF0001FFFFFFC0003FFFFFFE0001FFC0003FFFFFFE0
310
001FFF0003FFFFFFFFF0003FFFFFFFFFF000E0003FFFFF0001FF8001FFE00000
310
1FFE0007FF80007FC0007FFFFE0003FC0007FFFFE0003FF8000001FFFE000000
310
7FFFFFF0001FFFFFFE0003FFFFFFE0003FFE0003FFFFFFE0003FFF0003FFFFFF
310
FFF0003FFFFF8001F000E0003FFFFF0001FF0001FFE000001FFE0007FF80007F
310
C0007FFFFE0003FC0007FFFFE0003FF8000001FFFE0000007FFFFFF0001FFFFF
310
FE0001FFFFFFC0003FFE0001FFFFFFC0003FFF0003FFFFFFFFF0003FFFFF0001
310
F000E0003FFFFF0003FF0001FFE000003FFE0007FF80007FC0007FFFFE0003FC
310
0007FFFFE0003FF8000001FFFE0000007FFFFFF0001FFFFFFF0001FFFFFFC000
310
7FFF0001FFFFFFC0007FFF0003FFFFFFFFF0003FFFFF0001F000E0003FFFFE00
310
03FF0003FFF000003FFE0003FF80007FC0007FFFFC0003FE0007FFFFE0003FF8
310
000001FFFE0000007FFFFFF0001FFFFFFF0000FFFFFF80007FFF0000FFFFFF80
310
007FFF0003FFFFFFFFF0003FFFFF0001F000E0003FFFFE0003FF0003FFF00000
310
3FFF0003FF80007FC0007FFFFC0007FE0007FFFFC0003FF8000001FFFE000000
310
7FFFFFF0001FFFFFFF80007FFFFF0000FFFF80007FFFFF0000FFFF0003FFFFFF
310
FFF0003FFFFF0003F000E0003FFFFC0003FE0003FFF000003FFF0003FF80007F
310
E0003FFFF80007FE0003FFFFC0007FF8000001FFFE0000007FFFFFF0001FFFFF
310
FF80003FFFFE0000FFFF80003FFFFE0000FFFF0003FFFFFFFFF0001FFFFE0003
310
F000F0001FFFF80003FE0003FFF000007FFF0001FF80007FE0003FFFF00007FE
310
0001FFFF80007FF8000001FFFE0000007FFFFFF0001FFFFFFFC0000FFFF80001
310
FFFFC0000FFFF80001FFFF0003FFFFFFFFF0001FFFFC0003F000F0000FFFF000
310
07FE0007FFF800007FFF0001FF80007FE0001FFFE00007FF0000FFFE00007FF8
310
000001FFFE0000007FFFFFF0001FFFFFFFC00003FFE00001FFFFC00003FFE000
310
01FFFF0003FFFFFFFFF8000FFFF80003F000F00003FFC00007FC0007FFF80000
310
7FFF8001FF80007FF00007FF80000FFF00007FF80000FFF8000001FFFE000000
310
7F80000000000001FFE000003E000003FFFFE000003E000003FFFF0003FFFFFF
310
FFF80003FFE00007F000F800000000000FFC0007FFF800007FFF8001FF80007F
310
F000000000000FFF000000000000FFF8000001FFFE0000007F80000000000001
310
FFF0000000000007FFFFF0000000000007FFFF0003FFFFFFFFFC00007E000007
310
F000F800000000000FFC0007FFF80000FFFF8000FF80007FF800000000001FFF
310
800000000001FFF8000001FFFE0000007F80000000000001FFF800000000000F
310
FFFFF800000000000FFFFF0003FFFFFFFFFC00000000000FF000FC0000000000
310
1FFC0007FFFC0000FFFF8000FF80007FF800000000003FFFC00000000001FFF8
310
000001FFFE0000007F80000000000001FFF800000000000FFFFFF80000000000
310
0FFFFF0003FFFFFFFFFE00000000001FF000FE00000000003FF8000FFFFC0000
310
FFFF8000FF80007FFC00000000003FFFC00000000003FFF8000001FFFE000000
310
7F80000000000001FFFC00000000001FFFFFFC00000000001FFFFF0003FFFFFF
310
FFFF00000000001FF000FF00000000003FF8000FFFFC0000FFFFC000FF80007F
310
FE00000000007FFFE00000000007FFF8000001FFFE0000007F80000000000001
310
FFFE00000000003FFFFFFE00000000003FFFFF0003FFFFFFFFFF80000000003F
310
F000FF80000000007FF8000FFFFC0001FFFFC0007F80007FFF0000000000FFFF
310
F0000000000FFFF800000000000000007F80000000000001FFFF8000000000FF
310
FFFFFF8000000000FFFFFF0003FFFFFFFFFFC0000000007FF000FFC000000000
310
FFF8000FFFFE0001FFFFC0007F80007FFF8000000001FFFFF8000000001FFFF8
310
00000000000000007F80000000000001FFFFC000000001FFFFFFFFC000000001
310
FFFFFF0003FFFFFFFFFFE000000000FFF000FFE000000003FFF0001FFFFE0001
310
FFFFC0007F80007FFFC000000007FFFFFE000000003FFFF80000000000000000
310
7F80000000000001FFFFE000000003FFFFFFFFE000000003FFFFFF0003FFFFFF
310
FFFFF000000003FFF000FFF80000000FFFF0001FFFFE0001FFFFE0007F80007F
310
FFF00000000FFFFFFF00000000FFFFF800000000000000007F80000000000001
310
FFFFF80000000FFFFFFFFFF80000000FFFFFFF0003FFFFFFFFFFFC0000000FFF
310
F000FFFE0000003FFFF0001FFFFE0003FFFFE0003F80007FFFFC0000003FFFFF
310
FFC0000003FFFFF800000000000000007F80000000000001FFFFFE0000003FFF
310
FFFFFFFE0000003FFFFFFF0003FFFFFFFFFFFF0000003FFFF000FFFF800000FF
310
FFF0001FFFFF0003FFFFE0003F80007FFFFF000001FFFFFFFFF800001FFFFFF8
310
00000000000000007F80000000000001FFFFFFC00001FFFFFFFFFFFFC00001FF
310
FFFFFF0003FFFFFFFFFFFFC00000FFFFF000FFFFF8000FFFFFFFFFFFFFFFFFFF
310
FFFFFFFFFFFFFFFFFFFFF0001FFFFFFFFFFF0000FFFFFFF80000000000000000
310
7FFFFFFFFFFFFFFFFFFFFFFC001FFFFFFFFFFFFFFC001FFFFFFFFFFFFFFFFFFF
310
FFFFFFFC001FFFFFF000FFFFFFFFFFFFFFFFFFFFFFFFFFFFFFFFFFFFFFFFFFFF
310
FFFFFFFFFFFFFFFFFFFFFFFFFFFFFFFFFFFFFFFFFFFFFFFFFFFFFFFFFFFFFFFF
310
FFFFFFFFFFFFFFFFFFFFFFFFFFFFFFFFFFFFFFFFFFFFFFFFFFFFFFFFFFFFFFFF
310
F000FFFFFFFFFFFFFFFFFFFFFFFFFFFFFFFFFFFFFFFFFFFFFFFFFFFFFFFFFFFF
310
FFFFFFFFFFFFFFFFFFFFFFFFFFFFFFFFFFFFFFFFFFFFFFFFFFFFFFFFFFFFFFFF
310
FFFFFFFFFFFFFFFFFFFFFFFFFFFFFFFFFFFFFFFFFFFFFFFFF000FFFFFFFFFFFF
310
FFFFFFFFFFFFFFFFFFFFFFFFFFFFFFFFFFFFFFFFFFFFFFFFFFFFFFFFFFFFFFFF
310
FFFFFFFFFFFFFFFFFFFFFFFFFFFFFFFFFFFFFFFFFFFFFFFFFFFFFFFFFFFFFFFF
310
FFFFFFFFFFFFFFFFFFFFFFFFFFFFFFFFF000FFFFFFFFFFFFFFFFFFFFFFFFFFFF
310
FFFFFFFFFFFFFFFFFFFFFFFFFFFFFFFFFFFFFFFFFFFFFFFFFFFFFFFFFFFFFFFF
310
FFFFFFFFFFFFFFFFFFFFFFFFFFFFFFFFFFFFFFFFFFFFFFFFFFFFFFFFFFFFFFFF
310
FFFFFFFFFFFFFFFFF000FFFFFFFFFFFFFFFFFFFFFFFFFFFFFFFFFFFFFFFFFFFF
310
FFFFFFFFFFFFFFFFFFFFFFFFFFFFFFFFFFFFFFFFFFFFFFFFFFFFFFFFFFFFFFFF
310
FFFFFFFFFFFFFFFFFFFFFFFFFFFFFFFFFFFFFFFFFFFFFFFFFFFFFFFFFFFFFFFF
310
F000FFFFFFFFFFFFFFFFFFFFFFFFFFFFFFFFFFFFFFFFFFFFFFFFFFFFFFFFFFFF
310
FFFFFFFFFFFFFFFFFFFFFFFFFFFFFFFFFFFFFFFFFFFFFFFFFFFFFFFFFFFFFFFF
310
FFFFFFFFFFFFFFFFFFFFFFFFFFFFFFFFFFFFFFFFFFFFFFFFF000FFFFFFFFFFFF
310
FFFFFFFFFFFFFFFFFFFFFFFFFFFFFFFFFFFFFFFFFFFFFFFFFFFFFFFFFFFFFFFF
310
FFFFFFFFFFFFFFFFFFFFFFFFFFFFFFFFFFFFFFFFFFFFFFFFFFFFFFFFFFFFFFFF
310
FFFFFFFFFFFFFFFFFFFFFFFFFFFFFFFFF000FFFFFFFFFFFFFFFFFFFFFFFFFFFF
310
FFFFFFFFFFFFFFFFFFFFFFFFFFFFFFFFFFFFFFFFFFFFFFFFFFFFFFFFFFFFFFFF
310
FFFFFFFFFFFFFFFFFFFFFFFFFFFFFFFFFFFFFFFFFFFFFFFFFFFFFFFFFFFFFFFF
310
FFFFFFFFFFFFFFFFF000FFFFFFFFFFFFFFFFFFFFFFFFFFFFFFFFFFFFFFFFFFFF
310
FFFFFFFFFFFFFFFFFFFFFFFFFFFFFFFFFFFFFFFFFFFFFFFFFFFFFFFFFFFFFFFF
310
FFFFFFFFFFFFFFFFFFFFFFFFFFFFFFFFFFFFFFFFFFFFFFFFFFFFFFFFFFFFFFFF
310
F000FFFFFFFFFFFFFFFFFFFFFFFFFFFFFFFFFFFFFFFFFFFFFFFFFFFFFFFFFFFF
310
FFFFFFFFFFFFFFFFFFFFFFFFFFFFFFFFFFFFFFFFFFFFFFFFFFFFFFFFFFFFFFFF
310
FFFFFFFFFFFFFFFFFFFFFFFFFFFFFFFFFFFFFFFFFFFFFFFFF000FFFFFFFFFFFF
310
FFFFFFFFFFFFFFFFFFFFFFFFFFFFFFFFFFFFFFFFFFFFFFFFFFFFFFFFFFFFFFFF
310
FFFFFFFFFFFFFFFFFFFFFFFFFFFFFFFFFFFFFFFFFFFFFFFFFFFFFFFFFFFFFFFF
310
FFFFFFFFFFFFFFFFFFFFFFFFFFFFFFFFF000FFFFFFFFFFFFFFFFFFFFFFFFFFFF
310
FFFFFFFFFFFFFFFFFFFFFFFFFFFFFFFFFFFFFFFFFFFFFFFFFFFFFFFFFFFFFFFF
310
FFFFFFFFFFFFFFFFFFFFFFFFFFFFFFFFFFFFFFFFFFFFFFFFFFFFFFFFFFFFFFFF
310
FFFFFFFFFFFFFFFFF000FFFFFFFFFFFFFFFFFFFFFFFFFFFFFFFFFFFFFFFFFFFF
310
FFFFFFFFFFFFFFFFFFFFFFFFFFFFFFFFFFFFFFFFFFFFFFFFFFFFFFFFFFFFFFFF
310
FFFFFFFFFFFFFFFFFFFFFFFFFFFFFFFFFFFFFFFFFFFFFFFFFFFFFFFFFFFFFFFF
310
F000FFFFFFFFFFFFFFFFFFFFFFFFFFFFFFFFFFFFFFFFFFFFFFFFFFFFFFFFFFFF
310
FFFFFFFFFFFFFFFFFFFFFFFFFFFFFFFFFFFFFFFFFFFFFFFFFFFFFFFFFFFFFFFF
310
FFFFFFFFFFFFFFFFFFFFFFFFFFFFFFFFFFFFFFFFFFFFFFFFF000FFFFFFFFFFFF
310
FFFFFFFFFFFFFFFFFFFFFFFFFFFFFFFFFFFFFFFFFFFFFFFFFFFFFFFFFFFFFFFF
310
FFFFFFFFFFFFFFFFFFFFFFFFFFFFFFFFFFFFFFFFFFFFFFFFFFFFFFFFFFFFFFFF
310
FFFFFFFFFFFFFFFFFFFFFFFFFFFFFFFFF000FFFFFFFFFFFFFFFFFFFFFFFFFFFF
310
FFFFFFFFFFFFFFFFFFFFFFFFFFFFFFFFFFFFFFFFFFFFFFFFFFFFFFFFFFFFFFFF
310
FFFFFFFFFFFFFFFFFFFFFFFFFFFFFFFFFFFFFFFFFFFFFFFFFFFFFFFFFFFFFFFF
310
FFFFFFFFFFFFFFFFF000FFFFFFFFFFFFFFFFFFFFFFFFFFFFFFFFFFFFFFFFFFFF
310
FFFFFFFFFFFFFFFFFFFFFFFFFFFFFFFFFFFFFFFFFFFFFFFFFFFFFFFFFFFFFFFF
310
FFFFFFFFFFFFFFFFFFFFFFFFFFFFFFFFFFFFFFFFFFFFFFFFFFFFFFFFFFFFFFFF
310
F000FFFFFFFFFFFFFFFFFFFFFFFFFFFFFFFFFFFFFFFFFFFFFFFFFFFFFFFFFFFF
310
FFFFFFFFFFFFFFFFFFFFFFFFFFFFFFFFFFFFFFFFFFFFFFFFFFFFFFFFFFFFFFFF
310
FFFFFFFFFFFFFFFFFFFFFFFFFFFFFFFFFFFFFFFFFFFFFFFFF000FFFFFFFFFFFF
310
FFFFFFFFFFFFFFFFFFFFFFFFFFFFFFFFFFFFFFFFFFFFFFFFFFFFFFFFFFFFFFFF
310
FFFFFFFFFFFFFFFFFFFFFFFFFFFFFFFFFFFFFFFFFFFFFFFFFFFFFFFFFFFFFFFF
310
FFFFFFFFFFFFFFFFFFFFFFFFFFFFFFFFF000FFFFFFFFFFFFFFFFFFFFFFFFFFFF
310
FFFFFFFFFFFFFFFFFFFFFFFFFFFFFFFFFFFFFFFFFFFFFFFFFFFFFFFFFFFFFFFF
310
FFFFFFFFFFFFFFFFFFFFFFFFFFFFFFFFFFFFFFFFFFFFFFFFFFFFFFFFFFFFFFFF
310
FFFFFFFFFFFFFFFFF000FFFFFFFFFFFFFFFFFFFFFFFFFFFFFFFFFFFFFFFFFFFF
310
FFFFFFFFFFFFFFFFFFFFFFFFFFFFFFFFFFFFFFFFFFFFFFFFFFFFFFFFFFFFFFFF
310
FFFFFFFFFFFFFFFFFFFFFFFFFFFFFFFFFFFFFFFFFFFFFFFFFFFFFFFFFFFFFFFF
310
F000FFFFFFFFFFFFFFFFFFFFFFFFFFFFFFFFFFFFFFFFFFFFFFFFFFFFFFFFFFFF
310
FFFFFFFFFFFFFFFFFFFFFFFFFFFFFFFFFFFFFFFFFFFFFFFFFFFFFFFFFFFFFFFF
310
FFFFFFFFFFFFFFFFFFFFFFFFFFFFFFFFFFFFFFFFFFFFFFFFF000FFFFFFFFFFFF
310
FFFFFFFFFFFFFFFFFFFFFFFFFFFFFFFFFFFFFFFFFFFFFFFFFFFFFFFFFFFFFFFF
310
FFFFFFFFFFFFFFFFFFFFFFFFFFFFFFFFFFFFFFFFFFFFFFFFFFFFFFFFFFFFFFFF
310
FFFFFFFFFFFFFFFFFFFFFFFFFFFFFFFFF0000000000000000000000000000000
310
0000000000000000000000000000000000000000000000000000000000000000
310
0000000000000000000000000000000000000000000000000000000000000000
310
0000000000000000000000000000000000000000000000000000000000000000
310
0000000000000000000000000000000000000000000000000000000000000000
310
0000000000000000000000000000000000000000000000000000000000000000
310
0000000000000000000000000000000000000000000000000000000000000000
310
0000000000000000000000000000000000000000000000000000000000000000
310
0000000000000000000000000000000000000000000000000000000000000000
310
0000000000000000000000000000000000000000000000000000000000000000
310
0000000000000000000000000000000000000000000000000000000000000000
310
0000000000000000000000000000000000000000000000000000000000000000
310
0000000000000000000000000000000000000000000000000000000000000000
310
0000000000000000000000000000000000000000000000000000000000000000
310
0000000000000000000000000000000000000000000000000000000000000000
310
0000000000000000000000000000000000000000000000000000000000000000
  1
OLE
  0
ENDSEC
  0
SECTION
  2
OBJECTS
  0
DICTIONARY
  5
C
330
0
100
AcDbDictionary
281
     1
  3
ACAD_GROUP
350
D
  3
ACAD_LAYOUT
350
1A
  3
ACAD_MLINESTYLE
350
17
  3
ACAD_PLOTSETTINGS
350
19
  3
ACAD_PLOTSTYLENAME
350
E
  0
DICTIONARY
  5
D
102
{ACAD_REACTORS
330
C
102
}
330
C
100
AcDbDictionary
281
     1
  0
DICTIONARY
  5
1A
102
{ACAD_REACTORS
330
C
102
}
330
C
100
AcDbDictionary
281
     1
  3
Layout1
350
1E
  3
Layout2
350
26
  3
Model
350
22
  0
DICTIONARY
  5
17
102
{ACAD_REACTORS
330
C
102
}
330
C
100
AcDbDictionary
281
     1
  3
Standard
350
18
  0
DICTIONARY
  5
19
102
{ACAD_REACTORS
330
C
102
}
330
C
100
AcDbDictionary
281
     1
  0
ACDBDICTIONARYWDFLT
  5
E
102
{ACAD_REACTORS
330
C
102
}
330
C
100
AcDbDictionary
281
     1
  3
Normal
350
F
100
AcDbDictionaryWithDefault
340
F
  0
LAYOUT
  5
1E
102
{ACAD_REACTORS
330
1A
102
}
330
1A
100
AcDbPlotSettings
  1

  2
none_device
  4

  6

 40
0.0
 41
0.0
 42
0.0
 43
0.0
 44
0.0
 45
0.0
 46
0.0
 47
0.0
 48
0.0
 49
0.0
140
0.0
141
0.0
142
1.0
143
1.0
 70
   688
 72
     0
 73
     0
 74
     5
  7

 75
    16
147
1.0
148
0.0
149
0.0
100
AcDbLayout
  1
Layout1
 70
     1
 71
     1
 10
0.0
 20
0.0
 11
420.0
 21
297.0
 12
0.0
 22
0.0
 32
0.0
 14
1.0000000000E+20
 24
1.0000000000E+20
 34
1.0000000000E+20
 15
-1.0000000000E+20
 25
-1.0000000000E+20
 35
-1.0000000000E+20
146
0.0
 13
0.0
 23
0.0
 33
0.0
 16
1.0
 26
0.0
 36
0.0
 17
0.0
 27
1.0
 37
0.0
 76
     0
330
1B
  0
LAYOUT
  5
26
102
{ACAD_REACTORS
330
1A
102
}
330
1A
100
AcDbPlotSettings
  1

  2
none_device
  4

  6

 40
0.0
 41
0.0
 42
0.0
 43
0.0
 44
0.0
 45
0.0
 46
0.0
 47
0.0
 48
0.0
 49
0.0
140
0.0
141
0.0
142
1.0
143
1.0
 70
   688
 72
     0
 73
     0
 74
     5
  7

 75
    16
147
1.0
148
0.0
149
0.0
100
AcDbLayout
  1
Layout2
 70
     1
 71
     2
 10
0.0
 20
0.0
 11
0.0
 21
0.0
 12
0.0
 22
0.0
 32
0.0
 14
0.0
 24
0.0
 34
0.0
 15
0.0
 25
0.0
 35
0.0
146
0.0
 13
0.0
 23
0.0
 33
0.0
 16
1.0
 26
0.0
 36
0.0
 17
0.0
 27
1.0
 37
0.0
 76
     0
330
23
  0
LAYOUT
  5
22
102
{ACAD_REACTORS
330
1A
102
}
330
1A
100
AcDbPlotSettings
  1

  2
none_device
  4

  6

 40
0.0
 41
0.0
 42
0.0
 43
0.0
 44
0.0
 45
0.0
 46
0.0
 47
0.0
 48
0.0
 49
0.0
140
0.0
141
0.0
142
1.0
143
1.0
 70
  1712
 72
     0
 73
     0
 74
     0
  7

 75
     0
147
1.0
148
0.0
149
0.0
100
AcDbLayout
  1
Model
 70
     1
 71
     0
 10
0.0
 20
0.0
 11
297.0
 21
210.0
 12
0.0
 22
0.0
 32
0.0
 14
0.0
 24
0.0
 34
0.0
 15
297.0
 25
210.0
 35
0.0
146
0.0
 13
0.0
 23
0.0
 33
0.0
 16
1.0
 26
0.0
 36
0.0
 17
0.0
 27
1.0
 37
0.0
 76
     0
330
1F
331
29
  0
MLINESTYLE
  5
18
102
{ACAD_REACTORS
330
17
102
}
330
17
100
AcDbMlineStyle
  2
Standard
 70
     0
  3

 62
   256
 51
90.0
 52
90.0
 71
     2
 49
0.5
 62
   256
  6
BYLAYER
 49
-0.5
 62
   256
  6
BYLAYER
  0
ACDBPLACEHOLDER
  5
F
102
{ACAD_REACTORS
330
E
102
}
330
E
  0
ENDSEC
  0
EOF
